  0
SECTION
  2
HEADER
  9
$ACADVER
  1
AC1012
  9
$DWGCODEPAGE
  3
big5
  9
$INSBASE
 10
0.0
 20
0.0
 30
0.0
  9
$EXTMIN
 10
-0.0110452223915445
 20
-39.18470008089366
 30
-400.7537587363073
  9
$EXTMAX
 10
290.0131141628498
 20
210.0256424857734
 30
-144.0571096776858
  9
$LIMMIN
 10
0.0
 20
0.0
  9
$LIMMAX
 10
420.0
 20
297.0
  9
$ORTHOMODE
 70
     0
  9
$REGENMODE
 70
     1
  9
$FILLMODE
 70
     1
  9
$QTEXTMODE
 70
     0
  9
$MIRRTEXT
 70
     1
  9
$DRAGMODE
 70
     2
  9
$LTSCALE
 40
6.0
  9
$OSMODE
 70
    37
  9
$ATTMODE
 70
     1
  9
$TEXTSIZE
 40
5.0
  9
$TRACEWID
 40
1.0
  9
$TEXTSTYLE
  7
STANDARD
  9
$CLAYER
  8
0
  9
$CELTYPE
  6
BYLAYER
  9
$CECOLOR
 62
   256
  9
$CELTSCALE
 40
1.0
  9
$DELOBJ
 70
     1
  9
$DISPSILH
 70
     0
  9
$DIMSCALE
 40
1.0
  9
$DIMASZ
 40
3.0
  9
$DIMEXO
 40
2.0
  9
$DIMDLI
 40
7.0
  9
$DIMRND
 40
0.0
  9
$DIMDLE
 40
0.0
  9
$DIMEXE
 40
2.0
  9
$DIMTP
 40
0.0
  9
$DIMTM
 40
0.0
  9
$DIMTXT
 40
3.0
  9
$DIMCEN
 40
3.0
  9
$DIMTSZ
 40
0.0
  9
$DIMTOL
 70
     0
  9
$DIMLIM
 70
     0
  9
$DIMTIH
 70
     0
  9
$DIMTOH
 70
     0
  9
$DIMSE1
 70
     0
  9
$DIMSE2
 70
     0
  9
$DIMTAD
 70
     1
  9
$DIMZIN
 70
     8
  9
$DIMBLK
  1

  9
$DIMASO
 70
     1
  9
$DIMSHO
 70
     1
  9
$DIMPOST
  1

  9
$DIMAPOST
  1

  9
$DIMALT
 70
     0
  9
$DIMALTD
 70
     4
  9
$DIMALTF
 40
0.0394
  9
$DIMLFAC
 40
1.0
  9
$DIMTOFL
 70
     1
  9
$DIMTVP
 40
0.0
  9
$DIMTIX
 70
     0
  9
$DIMSOXD
 70
     0
  9
$DIMSAH
 70
     0
  9
$DIMBLK1
  1

  9
$DIMBLK2
  1

  9
$DIMSTYLE
  2
STANDARD
  9
$DIMCLRD
 70
     5
  9
$DIMCLRE
 70
     5
  9
$DIMCLRT
 70
     5
  9
$DIMTFAC
 40
0.6
  9
$DIMGAP
 40
1.0
  9
$DIMJUST
 70
     0
  9
$DIMSD1
 70
     0
  9
$DIMSD2
 70
     0
  9
$DIMTOLJ
 70
     1
  9
$DIMTZIN
 70
     8
  9
$DIMALTZ
 70
     8
  9
$DIMALTTZ
 70
     8
  9
$DIMFIT
 70
     3
  9
$DIMUPT
 70
     0
  9
$DIMUNIT
 70
     2
  9
$DIMDEC
 70
     2
  9
$DIMTDEC
 70
     2
  9
$DIMALTU
 70
     2
  9
$DIMALTTD
 70
     4
  9
$DIMTXSTY
  7
DAYUS
  9
$DIMAUNIT
 70
     0
  9
$LUNITS
 70
     2
  9
$LUPREC
 70
     4
  9
$SKETCHINC
 40
1.0
  9
$FILLETRAD
 40
10.0
  9
$AUNITS
 70
     0
  9
$AUPREC
 70
     0
  9
$MENU
  1
.
  9
$ELEVATION
 40
-179.8317238765535
  9
$PELEVATION
 40
0.0
  9
$THICKNESS
 40
0.0
  9
$LIMCHECK
 70
     0
  9
$BLIPMODE
 70
     0
  9
$CHAMFERA
 40
10.0
  9
$CHAMFERB
 40
10.0
  9
$CHAMFERC
 40
0.0
  9
$CHAMFERD
 40
0.0
  9
$SKPOLY
 70
     0
  9
$TDCREATE
 40
2450927.363715624
  9
$TDUPDATE
 40
2452643.390015185
  9
$TDINDWG
 40
0.2013860185
  9
$TDUSRTIMER
 40
0.2013860185
  9
$USRTIMER
 70
     1
  9
$ANGBASE
 50
0.0
  9
$ANGDIR
 70
     0
  9
$PDMODE
 70
     0
  9
$PDSIZE
 40
0.0
  9
$PLINEWID
 40
0.0
  9
$COORDS
 70
     2
  9
$SPLFRAME
 70
     0
  9
$SPLINETYPE
 70
     6
  9
$SPLINESEGS
 70
     8
  9
$ATTDIA
 70
     0
  9
$ATTREQ
 70
     1
  9
$HANDLING
 70
 22529
  9
$HANDSEED
  5
29D3
  9
$SURFTAB1
 70
     6
  9
$SURFTAB2
 70
     6
  9
$SURFTYPE
 70
     6
  9
$SURFU
 70
     6
  9
$SURFV
 70
     6
  9
$UCSNAME
  2

  9
$UCSORG
 10
0.0
 20
0.0
 30
0.0
  9
$UCSXDIR
 10
1.0
 20
0.0
 30
0.0
  9
$UCSYDIR
 10
0.0
 20
1.0
 30
0.0
  9
$PUCSNAME
  2

  9
$PUCSORG
 10
0.0
 20
0.0
 30
0.0
  9
$PUCSXDIR
 10
1.0
 20
0.0
 30
0.0
  9
$PUCSYDIR
 10
0.0
 20
1.0
 30
0.0
  9
$USERI1
 70
     0
  9
$USERI2
 70
     0
  9
$USERI3
 70
     0
  9
$USERI4
 70
     0
  9
$USERI5
 70
     0
  9
$USERR1
 40
0.0
  9
$USERR2
 40
0.0
  9
$USERR3
 40
0.0
  9
$USERR4
 40
0.0
  9
$USERR5
 40
0.0
  9
$WORLDVIEW
 70
     1
  9
$SHADEDGE
 70
     3
  9
$SHADEDIF
 70
    70
  9
$TILEMODE
 70
     1
  9
$MAXACTVP
 70
    48
  9
$PINSBASE
 10
0.0
 20
0.0
 30
0.0
  9
$PLIMCHECK
 70
     0
  9
$PEXTMIN
 10
-30.64298814978451
 20
52.88690173337215
 30
-0.0059997576134947
  9
$PEXTMAX
 10
482.1227094995738
 20
425.3929436581836
 30
196.6210584618875
  9
$PLIMMIN
 10
0.0
 20
0.0
  9
$PLIMMAX
 10
420.0
 20
297.0
  9
$UNITMODE
 70
     0
  9
$VISRETAIN
 70
     1
  9
$PLINEGEN
 70
     0
  9
$PSLTSCALE
 70
     1
  9
$TREEDEPTH
 70
  3020
  9
$PICKSTYLE
 70
     1
  9
$CMLSTYLE
  2
STANDARD
  9
$CMLJUST
 70
     0
  9
$CMLSCALE
 40
1.0
  9
$SAVEIMAGES
 70
     1
  0
ENDSEC
  0
SECTION
  2
CLASSES
  0
CLASS
  1
ACDBDICTIONARYWDFLT
  2
AcDbDictionaryWithDefault
  3
AutoCAD 2000
 90
    32768
280
     0
281
     0
  0
CLASS
  1
ACDBPLACEHOLDER
  2
AcDbPlaceHolder
  3
AutoCAD 2000
 90
    32768
280
     0
281
     0
  0
CLASS
  1
LAYOUT
  2
AcDbLayout
  3
AutoCAD 2000
 90
    32768
280
     0
281
     0
  0
CLASS
  1
LONG_TRANSACTION
  2
AcDbLongTransaction
  3
AutoCAD 2000
 90
    32768
280
     0
281
     0
  0
CLASS
  1
LWPOLYLINE
  2
AcDbPolyline
  3
AutoCAD 2000
 90
    32768
280
     0
281
     1
  0
CLASS
  1
HATCH
  2
AcDbHatch
  3
AutoCAD 2000
 90
    32768
280
     0
281
     1
  0
CLASS
  1
XRECORD
  2
AcDbXrecord
  3
AutoCAD 2000
 90
    32768
280
     0
281
     0
  0
CLASS
  1
LONG_TRANSACTION
  2
AcDbLongTransaction
  3
AutoCAD 2000
 90
    32768
280
     0
281
     0
  0
CLASS
  1
LWPOLYLINE
  2
AcDbPolyline
  3
AutoCAD 2000
 90
    32768
280
     0
281
     1
  0
CLASS
  1
HATCH
  2
AcDbHatch
  3
AutoCAD 2000
 90
    32768
280
     0
281
     1
  0
CLASS
  1
XRECORD
  2
AcDbXrecord
  3
AutoCAD 2000
 90
    32768
280
     0
281
     0
  0
CLASS
  1
DICTIONARYVAR
  2
AcDbDictionaryVar
  3
AutoCAD 2000
 90
    32768
280
     0
281
     0
  0
CLASS
  1
LONG_TRANSACTION
  2
AcDbLongTransaction
  3
AutoCAD 2000
 90
    32768
280
     0
281
     0
  0
CLASS
  1
LWPOLYLINE
  2
AcDbPolyline
  3
AutoCAD 2000
 90
    32768
280
     0
281
     1
  0
CLASS
  1
HATCH
  2
AcDbHatch
  3
AutoCAD 2000
 90
    32768
280
     0
281
     1
  0
CLASS
  1
XRECORD
  2
AcDbXrecord
  3
AutoCAD 2000
 90
    32768
280
     0
281
     0
  0
ENDSEC
  0
SECTION
  2
TABLES
  0
TABLE
  2
VPORT
  5
51C
330
0
100
AcDbSymbolTable
 70
     3
  0
VPORT
  5
29BB
330
51C
100
AcDbSymbolTableRecord
100
AcDbViewportTableRecord
  2
*ACTIVE
 70
     0
 10
0.0
 20
0.0
 11
1.0
 21
1.0
 12
-18.56110585338281
 22
-94.4112526741136
 13
0.0
 23
0.0
 14
10.0
 24
10.0
 15
10.0
 25
10.0
 16
0.0
 26
0.0
 36
1.0
 17
163.562140323612
 27
179.8317238765535
 37
9.715155663573185
 40
252.000010580473
 41
1.803738317757009
 42
50.0
 43
0.0
 44
0.0
 50
0.0
 51
0.0
 71
     0
 72
   100
 73
     1
 74
     1
 75
     0
 76
     0
 77
     0
 78
     0
  0
ENDTAB
  0
TABLE
  2
LTYPE
  5
519
330
0
100
AcDbSymbolTable
 70
     2
  0
LTYPE
  5
527
330
519
100
AcDbSymbolTableRecord
100
AcDbLinetypeTableRecord
  2
BYBLOCK
 70
     0
  3

 72
    65
 73
     0
 40
0.0
  0
LTYPE
  5
528
330
519
100
AcDbSymbolTableRecord
100
AcDbLinetypeTableRecord
  2
BYLAYER
 70
     0
  3

 72
    65
 73
     0
 40
0.0
  0
LTYPE
  5
529
330
519
100
AcDbSymbolTableRecord
100
AcDbLinetypeTableRecord
  2
CONTINUOUS
 70
     0
  3
Solid line
 72
    65
 73
     0
 40
0.0
  0
LTYPE
  5
552
330
519
100
AcDbSymbolTableRecord
100
AcDbLinetypeTableRecord
  2
CENTER
 70
     0
  3
____ _ ____ _ ____ _ ____ _ ____ _ ____ _ ____ 
 72
    65
 73
     4
 40
2.0
 49
1.25
 74
     0
 49
-0.25
 74
     0
 49
0.25
 74
     0
 49
-0.25
 74
     0
  0
ENDTAB
  0
TABLE
  2
LAYER
  5
516
330
0
100
AcDbSymbolTable
 70
     8
  0
LAYER
  5
524
330
516
100
AcDbSymbolTableRecord
100
AcDbLayerTableRecord
  2
0
 70
     0
 62
     7
  6
CONTINUOUS
  0
LAYER
  5
558
330
516
100
AcDbSymbolTableRecord
100
AcDbLayerTableRecord
  2
DEFPOINTS
 70
     0
 62
     7
  6
CONTINUOUS
  0
LAYER
  5
AEE
330
516
100
AcDbSymbolTableRecord
100
AcDbLayerTableRecord
  2
LOGO
 70
     0
 62
     7
  6
CONTINUOUS
  0
LAYER
  5
115D
330
516
100
AcDbSymbolTableRecord
100
AcDbLayerTableRecord
  2
AM_VIS
 70
     0
 62
     7
  6
CONTINUOUS
  0
LAYER
  5
115E
330
516
100
AcDbSymbolTableRecord
100
AcDbLayerTableRecord
  2
AM_7
 70
     0
 62
     1
  6
CENTER
  0
LAYER
  5
115F
330
516
100
AcDbSymbolTableRecord
100
AcDbLayerTableRecord
  2
AM_REFDIM
 70
     0
 62
     5
  6
CONTINUOUS
  0
ENDTAB
  0
TABLE
  2
STYLE
  5
517
330
0
100
AcDbSymbolTable
 70
     4
  0
STYLE
  5
525
330
517
100
AcDbSymbolTableRecord
100
AcDbTextStyleTableRecord
  2
STANDARD
 70
     0
 40
0.0
 41
1.0
 50
0.0
 71
     0
 42
5.0
  3
txt
  4

  0
STYLE
  5
550
330
517
100
AcDbSymbolTableRecord
100
AcDbTextStyleTableRecord
  2
DAYUS
 70
     0
 40
0.0
 41
1.0
 50
0.0
 71
     0
 42
4.0
  3
simplex.shx
  4
dayus.shx
  0
STYLE
  5
AEF
330
517
100
AcDbSymbolTableRecord
100
AcDbTextStyleTableRecord
  2
CHINESET
 70
     0
 40
0.0
 41
1.0
 50
0.0
 71
     0
 42
5.0
  3
simplex.shx
  4
chineset.shx
  0
STYLE
  5
AF0
330
517
100
AcDbSymbolTableRecord
100
AcDbTextStyleTableRecord
  2
LOGO
 70
     0
 40
0.0
 41
1.0
 50
0.0
 71
     0
 42
5.0
  3

  4

1001
ACAD
1000
文鼎中粗隸
1071
    34865
  0
ENDTAB
  0
TABLE
  2
VIEW
  5
51A
330
0
100
AcDbSymbolTable
 70
     0
  0
ENDTAB
  0
TABLE
  2
UCS
  5
51B
330
0
100
AcDbSymbolTable
 70
     0
  0
ENDTAB
  0
TABLE
  2
APPID
  5
51D
330
0
100
AcDbSymbolTable
 70
     1
  0
APPID
  5
526
330
51D
100
AcDbSymbolTableRecord
100
AcDbRegAppTableRecord
  2
ACAD
 70
     0
  0
ENDTAB
  0
TABLE
  2
DIMSTYLE
  5
51E
330
0
100
AcDbSymbolTable
 70
     2
  0
DIMSTYLE
105
554
102
{ACAD_REACTORS
330
153A
330
1549
330
1558
330
1567
330
1576
330
15AE
330
15BB
330
1629
330
1655
330
1664
330
174D
330
175C
330
176B
330
177A
330
1789
330
1796
330
17A3
330
17B2
330
17FB
330
180A
330
1825
330
1821
330
1820
330
182E
330
182D
330
1827
330
1826
330
1823
330
1822
330
19FB
330
1A9C
330
1A9B
330
1A7B
330
1A11
330
1A7E
330
1A10
330
1A0F
330
1A0E
330
1A0D
330
1BE4
330
1BF1
330
1BFE
330
1C0B
330
1C18
102
}
330
51E
100
AcDbSymbolTableRecord
100
AcDbDimStyleTableRecord
  2
STANDARD
 70
     0
  3

  4

  5

  6

  7

 40
1.0
 41
3.0
 42
2.0
 43
7.0
 44
2.0
 45
0.0
 46
0.0
 47
0.0
 48
0.0
140
3.0
141
3.0
142
0.0
143
0.0394
144
1.0
145
0.0
146
0.6
147
1.0
 71
     0
 72
     0
 73
     0
 74
     0
 75
     0
 76
     0
 77
     1
 78
     8
170
     0
171
     4
172
     1
173
     0
174
     0
175
     0
176
     5
177
     5
178
     5
270
     2
271
     2
272
     2
273
     2
274
     4
340
550
275
     0
280
     0
281
     0
282
     0
283
     1
284
     8
285
     8
286
     8
287
     3
288
     0
  0
ENDTAB
  0
TABLE
  2
BLOCK_RECORD
  5
515
330
0
100
AcDbSymbolTable
 70
    45
  0
BLOCK_RECORD
  5
532
102
{ACAD_XDICTIONARY
360
F19
102
}
330
515
100
AcDbSymbolTableRecord
100
AcDbBlockTableRecord
  2
*MODEL_SPACE
  0
BLOCK_RECORD
  5
52E
102
{ACAD_XDICTIONARY
360
F1B
102
}
330
515
100
AcDbSymbolTableRecord
100
AcDbBlockTableRecord
  2
*PAPER_SPACE
  0
BLOCK_RECORD
  5
153B
330
515
100
AcDbSymbolTableRecord
100
AcDbBlockTableRecord
  2
*D1
  0
BLOCK_RECORD
  5
154A
330
515
100
AcDbSymbolTableRecord
100
AcDbBlockTableRecord
  2
*D2
  0
BLOCK_RECORD
  5
1559
330
515
100
AcDbSymbolTableRecord
100
AcDbBlockTableRecord
  2
*D3
  0
BLOCK_RECORD
  5
1568
330
515
100
AcDbSymbolTableRecord
100
AcDbBlockTableRecord
  2
*D4
  0
BLOCK_RECORD
  5
1577
330
515
100
AcDbSymbolTableRecord
100
AcDbBlockTableRecord
  2
*D5
  0
BLOCK_RECORD
  5
15AF
330
515
100
AcDbSymbolTableRecord
100
AcDbBlockTableRecord
  2
*D6
  0
BLOCK_RECORD
  5
15BC
330
515
100
AcDbSymbolTableRecord
100
AcDbBlockTableRecord
  2
*D7
  0
BLOCK_RECORD
  5
162A
330
515
100
AcDbSymbolTableRecord
100
AcDbBlockTableRecord
  2
*D8
  0
BLOCK_RECORD
  5
1656
330
515
100
AcDbSymbolTableRecord
100
AcDbBlockTableRecord
  2
*D9
  0
BLOCK_RECORD
  5
1665
330
515
100
AcDbSymbolTableRecord
100
AcDbBlockTableRecord
  2
*D10
  0
BLOCK_RECORD
  5
174E
330
515
100
AcDbSymbolTableRecord
100
AcDbBlockTableRecord
  2
*D11
  0
BLOCK_RECORD
  5
175D
330
515
100
AcDbSymbolTableRecord
100
AcDbBlockTableRecord
  2
*D12
  0
BLOCK_RECORD
  5
176C
330
515
100
AcDbSymbolTableRecord
100
AcDbBlockTableRecord
  2
*D13
  0
BLOCK_RECORD
  5
177B
330
515
100
AcDbSymbolTableRecord
100
AcDbBlockTableRecord
  2
*D14
  0
BLOCK_RECORD
  5
178A
330
515
100
AcDbSymbolTableRecord
100
AcDbBlockTableRecord
  2
*D15
  0
BLOCK_RECORD
  5
1797
330
515
100
AcDbSymbolTableRecord
100
AcDbBlockTableRecord
  2
*D16
  0
BLOCK_RECORD
  5
17A4
330
515
100
AcDbSymbolTableRecord
100
AcDbBlockTableRecord
  2
*D17
  0
BLOCK_RECORD
  5
17B3
330
515
100
AcDbSymbolTableRecord
100
AcDbBlockTableRecord
  2
*D18
  0
BLOCK_RECORD
  5
17FC
330
515
100
AcDbSymbolTableRecord
100
AcDbBlockTableRecord
  2
*D19
  0
BLOCK_RECORD
  5
180B
330
515
100
AcDbSymbolTableRecord
100
AcDbBlockTableRecord
  2
*D20
  0
BLOCK_RECORD
  5
18E8
330
515
100
AcDbSymbolTableRecord
100
AcDbBlockTableRecord
  2
*D21
  0
BLOCK_RECORD
  5
18F6
330
515
100
AcDbSymbolTableRecord
100
AcDbBlockTableRecord
  2
*D22
  0
BLOCK_RECORD
  5
1904
330
515
100
AcDbSymbolTableRecord
100
AcDbBlockTableRecord
  2
*D23
  0
BLOCK_RECORD
  5
1912
330
515
100
AcDbSymbolTableRecord
100
AcDbBlockTableRecord
  2
*D24
  0
BLOCK_RECORD
  5
1920
330
515
100
AcDbSymbolTableRecord
100
AcDbBlockTableRecord
  2
*D25
  0
BLOCK_RECORD
  5
192E
330
515
100
AcDbSymbolTableRecord
100
AcDbBlockTableRecord
  2
*D26
  0
BLOCK_RECORD
  5
193C
330
515
100
AcDbSymbolTableRecord
100
AcDbBlockTableRecord
  2
*D27
  0
BLOCK_RECORD
  5
194A
330
515
100
AcDbSymbolTableRecord
100
AcDbBlockTableRecord
  2
*D28
  0
BLOCK_RECORD
  5
1962
330
515
100
AcDbSymbolTableRecord
100
AcDbBlockTableRecord
  2
*D29
  0
BLOCK_RECORD
  5
19FC
330
515
100
AcDbSymbolTableRecord
100
AcDbBlockTableRecord
  2
*D30
  0
BLOCK_RECORD
  5
1AD1
330
515
100
AcDbSymbolTableRecord
100
AcDbBlockTableRecord
  2
*D31
  0
BLOCK_RECORD
  5
1ADF
330
515
100
AcDbSymbolTableRecord
100
AcDbBlockTableRecord
  2
*D32
  0
BLOCK_RECORD
  5
1AED
330
515
100
AcDbSymbolTableRecord
100
AcDbBlockTableRecord
  2
*D33
  0
BLOCK_RECORD
  5
1AFB
330
515
100
AcDbSymbolTableRecord
100
AcDbBlockTableRecord
  2
*D34
  0
BLOCK_RECORD
  5
1B07
330
515
100
AcDbSymbolTableRecord
100
AcDbBlockTableRecord
  2
*D35
  0
BLOCK_RECORD
  5
1B15
330
515
100
AcDbSymbolTableRecord
100
AcDbBlockTableRecord
  2
*D36
  0
BLOCK_RECORD
  5
1B23
330
515
100
AcDbSymbolTableRecord
100
AcDbBlockTableRecord
  2
*D37
  0
BLOCK_RECORD
  5
1B31
330
515
100
AcDbSymbolTableRecord
100
AcDbBlockTableRecord
  2
*D38
  0
BLOCK_RECORD
  5
1B3F
330
515
100
AcDbSymbolTableRecord
100
AcDbBlockTableRecord
  2
*D39
  0
BLOCK_RECORD
  5
1BE5
330
515
100
AcDbSymbolTableRecord
100
AcDbBlockTableRecord
  2
*D40
  0
BLOCK_RECORD
  5
1BF2
330
515
100
AcDbSymbolTableRecord
100
AcDbBlockTableRecord
  2
*D41
  0
BLOCK_RECORD
  5
1BFF
330
515
100
AcDbSymbolTableRecord
100
AcDbBlockTableRecord
  2
*D42
  0
BLOCK_RECORD
  5
1C0C
330
515
100
AcDbSymbolTableRecord
100
AcDbBlockTableRecord
  2
*D43
  0
BLOCK_RECORD
  5
1C19
330
515
100
AcDbSymbolTableRecord
100
AcDbBlockTableRecord
  2
*D44
  0
ENDTAB
  0
ENDSEC
  0
SECTION
  2
BLOCKS
  0
BLOCK
  5
55D
330
532
100
AcDbEntity
  8
0
100
AcDbBlockBegin
  2
*MODEL_SPACE
 70
     0
 10
0.0
 20
0.0
 30
0.0
  3
*MODEL_SPACE
  1

  0
ENDBLK
  5
55E
330
532
100
AcDbEntity
  8
0
100
AcDbBlockEnd
  0
BLOCK
  5
55B
330
52E
100
AcDbEntity
 67
     1
  8
0
100
AcDbBlockBegin
  2
*PAPER_SPACE
 70
     0
 10
0.0
 20
0.0
 30
0.0
  3
*PAPER_SPACE
  1

  0
ENDBLK
  5
55C
330
52E
100
AcDbEntity
 67
     1
  8
0
100
AcDbBlockEnd
  0
BLOCK
  5
1547
330
153B
100
AcDbEntity
  8
0
 62
     5
100
AcDbBlockBegin
  2
*D1
 70
     1
 10
0.0
 20
0.0
 30
0.0
  3
*D1
  1

  0
LINE
  5
27EE
330
153B
100
AcDbEntity
  8
AM_REFDIM
 62
     5
100
AcDbLine
 10
196.9314711879954
 20
173.8999999999999
 30
0.0
 11
196.9314711879954
 21
182.233094228944
 31
0.0
  0
LINE
  5
27EF
330
153B
100
AcDbEntity
  8
AM_REFDIM
 62
     5
100
AcDbLine
 10
198.5314711879954
 20
173.8999999999999
 30
0.0
 11
198.5314711879954
 21
182.233094228944
 31
0.0
  0
LINE
  5
27F0
330
153B
100
AcDbEntity
  8
AM_REFDIM
 62
     5
100
AcDbLine
 10
193.9314711879955
 20
180.233094228944
 30
0.0
 11
190.9314711879954
 21
180.233094228944
 31
0.0
  0
LINE
  5
27F1
330
153B
100
AcDbEntity
  8
AM_REFDIM
 62
     5
100
AcDbLine
 10
201.5314711879955
 20
180.233094228944
 30
0.0
 11
212.102899759424
 21
180.233094228944
 31
0.0
  0
LINE
  5
27F2
330
153B
100
AcDbEntity
  8
AM_REFDIM
 62
     5
100
AcDbLine
 10
196.9314711879954
 20
180.233094228944
 30
0.0
 11
198.5314711879954
 21
180.233094228944
 31
0.0
  0
SOLID
  5
27F3
330
153B
100
AcDbEntity
  8
AM_REFDIM
 62
     5
100
AcDbTrace
 10
193.9314711879955
 20
180.733094228944
 30
0.0
 11
193.9314711879955
 21
179.733094228944
 31
0.0
 12
196.9314711879954
 22
180.233094228944
 32
0.0
 13
196.9314711879954
 23
180.233094228944
 33
0.0
  0
SOLID
  5
27F4
330
153B
100
AcDbEntity
  8
AM_REFDIM
 62
     5
100
AcDbTrace
 10
201.5314711879955
 20
180.733094228944
 30
0.0
 11
201.5314711879955
 21
179.733094228944
 31
0.0
 12
198.5314711879954
 22
180.233094228944
 32
0.0
 13
198.5314711879954
 23
180.233094228944
 33
0.0
  0
MTEXT
  5
27F5
330
153B
100
AcDbEntity
  8
AM_REFDIM
 62
     5
100
AcDbMText
 10
208.3171854737097
 20
182.733094228944
 30
0.0
 40
3.0
 41
0.0
 71
     5
 72
     1
  1
\A1;1.6
  7
DAYUS
1001
ACAD
1000
MTEXTBEGIN
1070
    73
1070
     1
1070
    44
1040
1.0
1070
    74
1070
     0
1000
MTEXTEND
  0
POINT
  5
27F6
330
153B
100
AcDbEntity
  8
DEFPOINTS
 62
     0
100
AcDbPoint
 10
196.9314711879954
 20
171.8999999999999
 30
0.0
  0
POINT
  5
27F7
330
153B
100
AcDbEntity
  8
DEFPOINTS
 62
     0
100
AcDbPoint
 10
198.5314711879954
 20
171.8999999999999
 30
0.0
  0
POINT
  5
27F8
330
153B
100
AcDbEntity
  8
DEFPOINTS
 62
     0
100
AcDbPoint
 10
198.5314711879954
 20
180.233094228944
 30
0.0
  0
ENDBLK
  5
1548
330
153B
100
AcDbEntity
  8
0
 62
     5
100
AcDbBlockEnd
  0
BLOCK
  5
1556
330
154A
100
AcDbEntity
  8
0
 62
     5
100
AcDbBlockBegin
  2
*D2
 70
     1
 10
0.0
 20
0.0
 30
0.0
  3
*D2
  1

  0
LINE
  5
27F9
330
154A
100
AcDbEntity
  8
AM_REFDIM
 62
     5
100
AcDbLine
 10
203.5314711879955
 20
174.3999999999999
 30
0.0
 11
203.5314711879955
 21
188.9907710637307
 31
0.0
  0
LINE
  5
27FA
330
154A
100
AcDbEntity
  8
AM_REFDIM
 62
     5
100
AcDbLine
 10
205.9314711879955
 20
174.3999999999999
 30
0.0
 11
205.9314711879955
 21
188.9907710637307
 31
0.0
  0
LINE
  5
27FB
330
154A
100
AcDbEntity
  8
AM_REFDIM
 62
     5
100
AcDbLine
 10
200.5314711879954
 20
186.9907710637307
 30
0.0
 11
197.5314711879954
 21
186.9907710637307
 31
0.0
  0
LINE
  5
27FC
330
154A
100
AcDbEntity
  8
AM_REFDIM
 62
     5
100
AcDbLine
 10
208.9314711879954
 20
186.9907710637307
 30
0.0
 11
220.3600426165669
 21
186.9907710637307
 31
0.0
  0
LINE
  5
27FD
330
154A
100
AcDbEntity
  8
AM_REFDIM
 62
     5
100
AcDbLine
 10
203.5314711879955
 20
186.9907710637307
 30
0.0
 11
205.9314711879955
 21
186.9907710637307
 31
0.0
  0
SOLID
  5
27FE
330
154A
100
AcDbEntity
  8
AM_REFDIM
 62
     5
100
AcDbTrace
 10
200.5314711879954
 20
187.4907710637307
 30
0.0
 11
200.5314711879954
 21
186.4907710637307
 31
0.0
 12
203.5314711879955
 22
186.9907710637307
 32
0.0
 13
203.5314711879955
 23
186.9907710637307
 33
0.0
  0
SOLID
  5
27FF
330
154A
100
AcDbEntity
  8
AM_REFDIM
 62
     5
100
AcDbTrace
 10
208.9314711879954
 20
187.4907710637307
 30
0.0
 11
208.9314711879954
 21
186.4907710637307
 31
0.0
 12
205.9314711879955
 22
186.9907710637307
 32
0.0
 13
205.9314711879955
 23
186.9907710637307
 33
0.0
  0
MTEXT
  5
2800
330
154A
100
AcDbEntity
  8
AM_REFDIM
 62
     5
100
AcDbMText
 10
216.1457569022812
 20
189.4907710637307
 30
0.0
 40
3.0
 41
0.0
 71
     5
 72
     1
  1
\A1;2.4
  7
DAYUS
1001
ACAD
1000
MTEXTBEGIN
1070
    73
1070
     1
1070
    44
1040
1.0
1070
    74
1070
     0
1000
MTEXTEND
  0
POINT
  5
2801
330
154A
100
AcDbEntity
  8
DEFPOINTS
 62
     0
100
AcDbPoint
 10
203.5314711879955
 20
172.4
 30
0.0
  0
POINT
  5
2802
330
154A
100
AcDbEntity
  8
DEFPOINTS
 62
     0
100
AcDbPoint
 10
205.9314711879955
 20
172.3999999999999
 30
0.0
  0
POINT
  5
2803
330
154A
100
AcDbEntity
  8
DEFPOINTS
 62
     0
100
AcDbPoint
 10
205.9314711879955
 20
186.9907710637307
 30
0.0
  0
ENDBLK
  5
1557
330
154A
100
AcDbEntity
  8
0
 62
     5
100
AcDbBlockEnd
  0
BLOCK
  5
1565
330
1559
100
AcDbEntity
  8
0
 62
     5
100
AcDbBlockBegin
  2
*D3
 70
     1
 10
0.0
 20
0.0
 30
0.0
  3
*D3
  1

  0
LINE
  5
2804
330
1559
100
AcDbEntity
  8
AM_REFDIM
 62
     5
100
AcDbLine
 10
194.9314711879955
 20
167.25
 30
0.0
 11
194.9314711879955
 21
159.3960559534236
 31
0.0
  0
LINE
  5
2805
330
1559
100
AcDbEntity
  8
AM_REFDIM
 62
     5
100
AcDbLine
 10
200.9314711879954
 20
167.05
 30
0.0
 11
200.9314711879954
 21
159.3960559534236
 31
0.0
  0
LINE
  5
2806
330
1559
100
AcDbEntity
  8
AM_REFDIM
 62
     5
100
AcDbLine
 10
191.9314711879954
 20
161.3960559534236
 30
0.0
 11
188.9314711879954
 21
161.3960559534236
 31
0.0
  0
LINE
  5
2807
330
1559
100
AcDbEntity
  8
AM_REFDIM
 62
     5
100
AcDbLine
 10
203.9314711879955
 20
161.3960559534236
 30
0.0
 11
206.9314711879954
 21
161.3960559534236
 31
0.0
  0
LINE
  5
2808
330
1559
100
AcDbEntity
  8
AM_REFDIM
 62
     5
100
AcDbLine
 10
194.9314711879955
 20
161.3960559534236
 30
0.0
 11
200.9314711879954
 21
161.3960559534236
 31
0.0
  0
SOLID
  5
2809
330
1559
100
AcDbEntity
  8
AM_REFDIM
 62
     5
100
AcDbTrace
 10
191.9314711879954
 20
161.8960559534236
 30
0.0
 11
191.9314711879954
 21
160.8960559534236
 31
0.0
 12
194.9314711879955
 22
161.3960559534236
 32
0.0
 13
194.9314711879955
 23
161.3960559534236
 33
0.0
  0
SOLID
  5
280A
330
1559
100
AcDbEntity
  8
AM_REFDIM
 62
     5
100
AcDbTrace
 10
203.9314711879955
 20
161.8960559534236
 30
0.0
 11
203.9314711879955
 21
160.8960559534236
 31
0.0
 12
200.9314711879954
 22
161.3960559534236
 32
0.0
 13
200.9314711879954
 23
161.3960559534236
 33
0.0
  0
MTEXT
  5
280B
330
1559
100
AcDbEntity
  8
AM_REFDIM
 62
     5
100
AcDbMText
 10
197.9314711879954
 20
163.8960559534236
 30
0.0
 40
3.0
 41
0.0
 71
     5
 72
     1
  1
\A1;6
  7
DAYUS
1001
ACAD
1000
MTEXTBEGIN
1070
    73
1070
     1
1070
    44
1040
1.0
1070
    74
1070
     0
1000
MTEXTEND
  0
POINT
  5
280C
330
1559
100
AcDbEntity
  8
DEFPOINTS
 62
     0
100
AcDbPoint
 10
194.9314711879955
 20
169.25
 30
0.0
  0
POINT
  5
280D
330
1559
100
AcDbEntity
  8
DEFPOINTS
 62
     0
100
AcDbPoint
 10
200.9314711879954
 20
169.05
 30
0.0
  0
POINT
  5
280E
330
1559
100
AcDbEntity
  8
DEFPOINTS
 62
     0
100
AcDbPoint
 10
200.9314711879954
 20
161.3960559534236
 30
0.0
  0
ENDBLK
  5
1566
330
1559
100
AcDbEntity
  8
0
 62
     5
100
AcDbBlockEnd
  0
BLOCK
  5
1574
330
1568
100
AcDbEntity
  8
0
 62
     5
100
AcDbBlockBegin
  2
*D4
 70
     1
 10
0.0
 20
0.0
 30
0.0
  3
*D4
  1

  0
LINE
  5
280F
330
1568
100
AcDbEntity
  8
AM_REFDIM
 62
     5
100
AcDbLine
 10
201.9314711879955
 20
166.3249999999999
 30
0.0
 11
201.9314711879955
 21
154.1608368613438
 31
0.0
  0
LINE
  5
2810
330
1568
100
AcDbEntity
  8
AM_REFDIM
 62
     5
100
AcDbLine
 10
207.9314711879955
 20
165.4499999999999
 30
0.0
 11
207.9314711879955
 21
154.1608368613438
 31
0.0
  0
LINE
  5
2811
330
1568
100
AcDbEntity
  8
AM_REFDIM
 62
     5
100
AcDbLine
 10
198.9314711879955
 20
156.1608368613438
 30
0.0
 11
195.9314711879954
 21
156.1608368613438
 31
0.0
  0
LINE
  5
2812
330
1568
100
AcDbEntity
  8
AM_REFDIM
 62
     5
100
AcDbLine
 10
210.9314711879954
 20
156.1608368613438
 30
0.0
 11
213.9314711879955
 21
156.1608368613438
 31
0.0
  0
LINE
  5
2813
330
1568
100
AcDbEntity
  8
AM_REFDIM
 62
     5
100
AcDbLine
 10
201.9314711879955
 20
156.1608368613438
 30
0.0
 11
207.9314711879955
 21
156.1608368613438
 31
0.0
  0
SOLID
  5
2814
330
1568
100
AcDbEntity
  8
AM_REFDIM
 62
     5
100
AcDbTrace
 10
198.9314711879955
 20
156.6608368613437
 30
0.0
 11
198.9314711879955
 21
155.6608368613438
 31
0.0
 12
201.9314711879955
 22
156.1608368613438
 32
0.0
 13
201.9314711879955
 23
156.1608368613438
 33
0.0
  0
SOLID
  5
2815
330
1568
100
AcDbEntity
  8
AM_REFDIM
 62
     5
100
AcDbTrace
 10
210.9314711879954
 20
156.6608368613437
 30
0.0
 11
210.9314711879954
 21
155.6608368613438
 31
0.0
 12
207.9314711879955
 22
156.1608368613438
 32
0.0
 13
207.9314711879955
 23
156.1608368613438
 33
0.0
  0
MTEXT
  5
2816
330
1568
100
AcDbEntity
  8
AM_REFDIM
 62
     5
100
AcDbMText
 10
204.9314711879954
 20
158.6608368613438
 30
0.0
 40
3.0
 41
0.0
 71
     5
 72
     1
  1
\A1;6
  7
DAYUS
1001
ACAD
1000
MTEXTBEGIN
1070
    73
1070
     1
1070
    44
1040
1.0
1070
    74
1070
     0
1000
MTEXTEND
  0
POINT
  5
2817
330
1568
100
AcDbEntity
  8
DEFPOINTS
 62
     0
100
AcDbPoint
 10
201.9314711879955
 20
168.3249999999999
 30
0.0
  0
POINT
  5
2818
330
1568
100
AcDbEntity
  8
DEFPOINTS
 62
     0
100
AcDbPoint
 10
207.9314711879955
 20
167.4499999999999
 30
0.0
  0
POINT
  5
2819
330
1568
100
AcDbEntity
  8
DEFPOINTS
 62
     0
100
AcDbPoint
 10
207.9314711879955
 20
156.1608368613438
 30
0.0
  0
ENDBLK
  5
1575
330
1568
100
AcDbEntity
  8
0
 62
     5
100
AcDbBlockEnd
  0
BLOCK
  5
1581
330
1577
100
AcDbEntity
  8
0
 62
     5
100
AcDbBlockBegin
  2
*D5
 70
     1
 10
0.0
 20
0.0
 30
0.0
  3
*D5
  1

  0
LINE
  5
281A
330
1577
100
AcDbEntity
  8
AM_REFDIM
 62
     5
100
AcDbLine
 10
194.9314711879955
 20
167.25
 30
0.0
 11
194.9314711879955
 21
143.4465119107962
 31
0.0
  0
LINE
  5
281B
330
1577
100
AcDbEntity
  8
AM_REFDIM
 62
     5
100
AcDbLine
 10
207.9314711879955
 20
165.4499999999999
 30
0.0
 11
207.9314711879955
 21
143.4465119107962
 31
0.0
  0
LINE
  5
281C
330
1577
100
AcDbEntity
  8
AM_REFDIM
 62
     5
100
AcDbLine
 10
197.9314711879954
 20
145.4465119107962
 30
0.0
 11
204.9314711879954
 21
145.4465119107962
 31
0.0
  0
SOLID
  5
281D
330
1577
100
AcDbEntity
  8
AM_REFDIM
 62
     5
100
AcDbTrace
 10
197.9314711879954
 20
145.9465119107962
 30
0.0
 11
197.9314711879954
 21
144.9465119107962
 31
0.0
 12
194.9314711879955
 22
145.4465119107962
 32
0.0
 13
194.9314711879955
 23
145.4465119107962
 33
0.0
  0
SOLID
  5
281E
330
1577
100
AcDbEntity
  8
AM_REFDIM
 62
     5
100
AcDbTrace
 10
204.9314711879954
 20
145.9465119107962
 30
0.0
 11
204.9314711879954
 21
144.9465119107962
 31
0.0
 12
207.9314711879955
 22
145.4465119107962
 32
0.0
 13
207.9314711879955
 23
145.4465119107962
 33
0.0
  0
MTEXT
  5
281F
330
1577
100
AcDbEntity
  8
AM_REFDIM
 62
     5
100
AcDbMText
 10
201.4314711879955
 20
147.9465119107962
 30
0.0
 40
3.0
 41
0.0
 71
     5
 72
     1
  1
\A1;13
  7
DAYUS
1001
ACAD
1000
MTEXTBEGIN
1070
    73
1070
     1
1070
    44
1040
1.0
1070
    74
1070
     0
1000
MTEXTEND
  0
POINT
  5
2820
330
1577
100
AcDbEntity
  8
DEFPOINTS
 62
     0
100
AcDbPoint
 10
194.9314711879955
 20
169.25
 30
0.0
  0
POINT
  5
2821
330
1577
100
AcDbEntity
  8
DEFPOINTS
 62
     0
100
AcDbPoint
 10
207.9314711879955
 20
167.4499999999999
 30
0.0
  0
POINT
  5
2822
330
1577
100
AcDbEntity
  8
DEFPOINTS
 62
     0
100
AcDbPoint
 10
207.9314711879955
 20
145.4465119107962
 30
0.0
  0
ENDBLK
  5
1582
330
1577
100
AcDbEntity
  8
0
 62
     5
100
AcDbBlockEnd
  0
BLOCK
  5
15B9
330
15AF
100
AcDbEntity
  8
0
 62
     5
100
AcDbBlockBegin
  2
*D6
 70
     1
 10
0.0
 20
0.0
 30
0.0
  3
*D6
  1

  0
LINE
  5
2823
330
15AF
100
AcDbEntity
  8
AM_REFDIM
 62
     5
100
AcDbLine
 10
207.9314711879955
 20
165.4499999999999
 30
0.0
 11
207.9314711879955
 21
143.4465119107962
 31
0.0
  0
LINE
  5
2824
330
15AF
100
AcDbEntity
  8
AM_REFDIM
 62
     5
100
AcDbLine
 10
236.4314711879955
 20
165.7
 30
0.0
 11
236.4314711879955
 21
143.4465119107962
 31
0.0
  0
LINE
  5
2825
330
15AF
100
AcDbEntity
  8
AM_REFDIM
 62
     5
100
AcDbLine
 10
210.9314711879954
 20
145.4465119107962
 30
0.0
 11
233.4314711879954
 21
145.4465119107962
 31
0.0
  0
SOLID
  5
2826
330
15AF
100
AcDbEntity
  8
AM_REFDIM
 62
     5
100
AcDbTrace
 10
210.9314711879954
 20
145.9465119107962
 30
0.0
 11
210.9314711879954
 21
144.9465119107962
 31
0.0
 12
207.9314711879955
 22
145.4465119107962
 32
0.0
 13
207.9314711879955
 23
145.4465119107962
 33
0.0
  0
SOLID
  5
2827
330
15AF
100
AcDbEntity
  8
AM_REFDIM
 62
     5
100
AcDbTrace
 10
233.4314711879954
 20
145.9465119107962
 30
0.0
 11
233.4314711879954
 21
144.9465119107962
 31
0.0
 12
236.4314711879955
 22
145.4465119107962
 32
0.0
 13
236.4314711879955
 23
145.4465119107962
 33
0.0
  0
MTEXT
  5
2828
330
15AF
100
AcDbEntity
  8
AM_REFDIM
 62
     5
100
AcDbMText
 10
222.1814711879955
 20
147.9465119107962
 30
0.0
 40
3.0
 41
0.0
 71
     5
 72
     1
  1
\A1;28.5
  7
DAYUS
1001
ACAD
1000
MTEXTBEGIN
1070
    73
1070
     1
1070
    44
1040
1.0
1070
    74
1070
     0
1000
MTEXTEND
  0
POINT
  5
2829
330
15AF
100
AcDbEntity
  8
DEFPOINTS
 62
     0
100
AcDbPoint
 10
207.9314711879955
 20
167.4499999999999
 30
0.0
  0
POINT
  5
282A
330
15AF
100
AcDbEntity
  8
DEFPOINTS
 62
     0
100
AcDbPoint
 10
236.4314711879955
 20
167.6999999999999
 30
0.0
  0
POINT
  5
282B
330
15AF
100
AcDbEntity
  8
DEFPOINTS
 62
     0
100
AcDbPoint
 10
236.4314711879955
 20
145.4465119107962
 30
0.0
  0
ENDBLK
  5
15BA
330
15AF
100
AcDbEntity
  8
0
 62
     5
100
AcDbBlockEnd
  0
BLOCK
  5
15C8
330
15BC
100
AcDbEntity
  8
0
 62
     5
100
AcDbBlockBegin
  2
*D7
 70
     1
 10
0.0
 20
0.0
 30
0.0
  3
*D7
  1

  0
LINE
  5
282C
330
15BC
100
AcDbEntity
  8
AM_REFDIM
 62
     5
100
AcDbLine
 10
236.4314711879955
 20
165.7
 30
0.0
 11
236.4314711879955
 21
143.4465119107962
 31
0.0
  0
LINE
  5
282D
330
15BC
100
AcDbEntity
  8
AM_REFDIM
 62
     5
100
AcDbLine
 10
243.9314711879954
 20
167.0499999999999
 30
0.0
 11
243.9314711879954
 21
143.4465119107962
 31
0.0
  0
LINE
  5
282E
330
15BC
100
AcDbEntity
  8
AM_REFDIM
 62
     5
100
AcDbLine
 10
233.4314711879954
 20
145.4465119107962
 30
0.0
 11
230.4314711879955
 21
145.4465119107962
 31
0.0
  0
LINE
  5
282F
330
15BC
100
AcDbEntity
  8
AM_REFDIM
 62
     5
100
AcDbLine
 10
246.9314711879955
 20
145.4465119107962
 30
0.0
 11
258.2171854737097
 21
145.4465119107962
 31
0.0
  0
LINE
  5
2830
330
15BC
100
AcDbEntity
  8
AM_REFDIM
 62
     5
100
AcDbLine
 10
236.4314711879955
 20
145.4465119107962
 30
0.0
 11
243.9314711879954
 21
145.4465119107962
 31
0.0
  0
SOLID
  5
2831
330
15BC
100
AcDbEntity
  8
AM_REFDIM
 62
     5
100
AcDbTrace
 10
233.4314711879954
 20
145.9465119107962
 30
0.0
 11
233.4314711879954
 21
144.9465119107962
 31
0.0
 12
236.4314711879955
 22
145.4465119107962
 32
0.0
 13
236.4314711879955
 23
145.4465119107962
 33
0.0
  0
SOLID
  5
2832
330
15BC
100
AcDbEntity
  8
AM_REFDIM
 62
     5
100
AcDbTrace
 10
246.9314711879955
 20
145.9465119107962
 30
0.0
 11
246.9314711879955
 21
144.9465119107962
 31
0.0
 12
243.9314711879954
 22
145.4465119107962
 32
0.0
 13
243.9314711879954
 23
145.4465119107962
 33
0.0
  0
MTEXT
  5
2833
330
15BC
100
AcDbEntity
  8
AM_REFDIM
 62
     5
100
AcDbMText
 10
254.0743283308526
 20
147.9465119107962
 30
0.0
 40
3.0
 41
0.0
 71
     5
 72
     1
  1
\A1;7.5
  7
DAYUS
1001
ACAD
1000
MTEXTBEGIN
1070
    73
1070
     1
1070
    44
1040
1.0
1070
    74
1070
     0
1000
MTEXTEND
  0
POINT
  5
2834
330
15BC
100
AcDbEntity
  8
DEFPOINTS
 62
     0
100
AcDbPoint
 10
236.4314711879955
 20
167.6999999999999
 30
0.0
  0
POINT
  5
2835
330
15BC
100
AcDbEntity
  8
DEFPOINTS
 62
     0
100
AcDbPoint
 10
243.9314711879954
 20
169.0499999999999
 30
0.0
  0
POINT
  5
2836
330
15BC
100
AcDbEntity
  8
DEFPOINTS
 62
     0
100
AcDbPoint
 10
243.9314711879954
 20
145.4465119107962
 30
0.0
  0
ENDBLK
  5
15C9
330
15BC
100
AcDbEntity
  8
0
 62
     5
100
AcDbBlockEnd
  0
BLOCK
  5
1636
330
162A
100
AcDbEntity
  8
0
 62
     5
100
AcDbBlockBegin
  2
*D8
 70
     1
 10
0.0
 20
0.0
 30
0.0
  3
*D8
  1

  0
LINE
  5
2837
330
162A
100
AcDbEntity
  8
AM_REFDIM
 62
     5
100
AcDbLine
 10
211.7314711879955
 20
172.75
 30
0.0
 11
221.1958021207592
 21
172.75
 31
0.0
  0
LINE
  5
2838
330
162A
100
AcDbEntity
  8
AM_REFDIM
 62
     5
100
AcDbLine
 10
211.7314711879955
 20
167.25
 30
0.0
 11
221.1958021207592
 21
167.25
 31
0.0
  0
LINE
  5
2839
330
162A
100
AcDbEntity
  8
AM_REFDIM
 62
     5
100
AcDbLine
 10
219.1958021207592
 20
175.75
 30
0.0
 11
219.1958021207592
 21
178.75
 31
0.0
  0
LINE
  5
283A
330
162A
100
AcDbEntity
  8
AM_REFDIM
 62
     5
100
AcDbLine
 10
219.1958021207592
 20
164.25
 30
0.0
 11
219.1958021207592
 21
150.2499999999999
 31
0.0
  0
LINE
  5
283B
330
162A
100
AcDbEntity
  8
AM_REFDIM
 62
     5
100
AcDbLine
 10
219.1958021207592
 20
172.75
 30
0.0
 11
219.1958021207592
 21
167.25
 31
0.0
  0
SOLID
  5
283C
330
162A
100
AcDbEntity
  8
AM_REFDIM
 62
     5
100
AcDbTrace
 10
218.6958021207592
 20
175.75
 30
0.0
 11
219.6958021207592
 21
175.75
 31
0.0
 12
219.1958021207592
 22
172.75
 32
0.0
 13
219.1958021207592
 23
172.75
 33
0.0
  0
SOLID
  5
283D
330
162A
100
AcDbEntity
  8
AM_REFDIM
 62
     5
100
AcDbTrace
 10
218.6958021207592
 20
164.25
 30
0.0
 11
219.6958021207592
 21
164.25
 31
0.0
 12
219.1958021207592
 22
167.25
 32
0.0
 13
219.1958021207592
 23
167.25
 33
0.0
  0
MTEXT
  5
283E
330
162A
100
AcDbEntity
  8
AM_REFDIM
 62
     5
100
AcDbMText
 10
216.6958021207592
 20
155.75
 30
0.0
 40
3.0
 41
0.0
 71
     5
 72
     1
  1
\A1;{\F;%%c5.5}
  7
DAYUS
 11
0.0000000000000001
 21
1.0
 31
0.0
1001
ACAD
1000
MTEXTBEGIN
1070
    73
1070
     1
1070
    44
1040
1.0
1070
    74
1070
     0
1000
MTEXTEND
  0
POINT
  5
283F
330
162A
100
AcDbEntity
  8
DEFPOINTS
 62
     0
100
AcDbPoint
 10
209.7314711879955
 20
172.75
 30
0.0
  0
POINT
  5
2840
330
162A
100
AcDbEntity
  8
DEFPOINTS
 62
     0
100
AcDbPoint
 10
209.7314711879955
 20
167.25
 30
0.0
  0
POINT
  5
2841
330
162A
100
AcDbEntity
  8
DEFPOINTS
 62
     0
100
AcDbPoint
 10
219.1958021207592
 20
167.25
 30
0.0
  0
ENDBLK
  5
1637
330
162A
100
AcDbEntity
  8
0
 62
     5
100
AcDbBlockEnd
  0
BLOCK
  5
1662
330
1656
100
AcDbEntity
  8
0
 62
     5
100
AcDbBlockBegin
  2
*D9
 70
     1
 10
0.0
 20
0.0
 30
0.0
  3
*D9
  1

  0
LINE
  5
2842
330
1656
100
AcDbEntity
  8
AM_REFDIM
 62
     5
100
AcDbLine
 10
243.7314711879954
 20
171.6999999999999
 30
0.0
 11
251.419878246692
 21
171.6999999999999
 31
0.0
  0
LINE
  5
2843
330
1656
100
AcDbEntity
  8
AM_REFDIM
 62
     5
100
AcDbLine
 10
243.7314711879955
 20
168.3
 30
0.0
 11
251.419878246692
 21
168.3
 31
0.0
  0
LINE
  5
2844
330
1656
100
AcDbEntity
  8
AM_REFDIM
 62
     5
100
AcDbLine
 10
249.419878246692
 20
174.6999999999999
 30
0.0
 11
249.419878246692
 21
177.6999999999999
 31
0.0
  0
LINE
  5
2845
330
1656
100
AcDbEntity
  8
AM_REFDIM
 62
     5
100
AcDbLine
 10
249.419878246692
 20
165.3
 30
0.0
 11
249.419878246692
 21
151.1571428571429
 31
0.0
  0
LINE
  5
2846
330
1656
100
AcDbEntity
  8
AM_REFDIM
 62
     5
100
AcDbLine
 10
249.419878246692
 20
171.6999999999999
 30
0.0
 11
249.419878246692
 21
168.3
 31
0.0
  0
SOLID
  5
2847
330
1656
100
AcDbEntity
  8
AM_REFDIM
 62
     5
100
AcDbTrace
 10
248.919878246692
 20
174.6999999999999
 30
0.0
 11
249.919878246692
 21
174.6999999999999
 31
0.0
 12
249.419878246692
 22
171.6999999999999
 32
0.0
 13
249.419878246692
 23
171.6999999999999
 33
0.0
  0
SOLID
  5
2848
330
1656
100
AcDbEntity
  8
AM_REFDIM
 62
     5
100
AcDbTrace
 10
248.919878246692
 20
165.3
 30
0.0
 11
249.919878246692
 21
165.3
 31
0.0
 12
249.419878246692
 22
168.3
 32
0.0
 13
249.419878246692
 23
168.3
 33
0.0
  0
MTEXT
  5
2849
330
1656
100
AcDbEntity
  8
AM_REFDIM
 62
     5
100
AcDbMText
 10
246.919878246692
 20
156.7285714285714
 30
0.0
 40
3.0
 41
0.0
 71
     5
 72
     1
  1
\A1;{\F;%%c3.4}
  7
DAYUS
 11
0.0000000000000001
 21
1.0
 31
0.0
1001
ACAD
1000
MTEXTBEGIN
1070
    73
1070
     1
1070
    44
1040
1.0
1070
    74
1070
     0
1000
MTEXTEND
  0
POINT
  5
284A
330
1656
100
AcDbEntity
  8
DEFPOINTS
 62
     0
100
AcDbPoint
 10
241.7314711879954
 20
171.6999999999999
 30
0.0
  0
POINT
  5
284B
330
1656
100
AcDbEntity
  8
DEFPOINTS
 62
     0
100
AcDbPoint
 10
241.7314711879955
 20
168.3
 30
0.0
  0
POINT
  5
284C
330
1656
100
AcDbEntity
  8
DEFPOINTS
 62
     0
100
AcDbPoint
 10
249.419878246692
 20
168.3
 30
0.0
  0
ENDBLK
  5
1663
330
1656
100
AcDbEntity
  8
0
 62
     5
100
AcDbBlockEnd
  0
BLOCK
  5
1671
330
1665
100
AcDbEntity
  8
0
 62
     5
100
AcDbBlockBegin
  2
*D10
 70
     1
 10
0.0
 20
0.0
 30
0.0
  3
*D10
  1

  0
LINE
  5
284D
330
1665
100
AcDbEntity
  8
AM_REFDIM
 62
     5
100
AcDbLine
 10
238.2314711879955
 20
172.5
 30
0.0
 11
257.1705475775996
 21
172.5
 31
0.0
  0
LINE
  5
284E
330
1665
100
AcDbEntity
  8
AM_REFDIM
 62
     5
100
AcDbLine
 10
238.2314711879955
 20
167.5
 30
0.0
 11
257.1705475775996
 21
167.5
 31
0.0
  0
LINE
  5
284F
330
1665
100
AcDbEntity
  8
AM_REFDIM
 62
     5
100
AcDbLine
 10
255.1705475775995
 20
175.5
 30
0.0
 11
255.1705475775995
 21
178.5
 31
0.0
  0
LINE
  5
2850
330
1665
100
AcDbEntity
  8
AM_REFDIM
 62
     5
100
AcDbLine
 10
255.1705475775995
 20
164.5
 30
0.0
 11
255.1705475775995
 21
154.7857142857142
 31
0.0
  0
LINE
  5
2851
330
1665
100
AcDbEntity
  8
AM_REFDIM
 62
     5
100
AcDbLine
 10
255.1705475775995
 20
172.5
 30
0.0
 11
255.1705475775995
 21
167.5
 31
0.0
  0
SOLID
  5
2852
330
1665
100
AcDbEntity
  8
AM_REFDIM
 62
     5
100
AcDbTrace
 10
254.6705475775995
 20
175.5
 30
0.0
 11
255.6705475775995
 21
175.5
 31
0.0
 12
255.1705475775995
 22
172.5
 32
0.0
 13
255.1705475775995
 23
172.5
 33
0.0
  0
SOLID
  5
2853
330
1665
100
AcDbEntity
  8
AM_REFDIM
 62
     5
100
AcDbTrace
 10
254.6705475775995
 20
164.5
 30
0.0
 11
255.6705475775995
 21
164.5
 31
0.0
 12
255.1705475775995
 22
167.5
 32
0.0
 13
255.1705475775995
 23
167.5
 33
0.0
  0
MTEXT
  5
2854
330
1665
100
AcDbEntity
  8
AM_REFDIM
 62
     5
100
AcDbMText
 10
252.6705475775995
 20
158.1428571428571
 30
0.0
 40
3.0
 41
0.0
 71
     5
 72
     1
  1
\A1;{\F;%%C5}
  7
DAYUS
 11
0.0000000000000001
 21
1.0
 31
0.0
1001
ACAD
1000
MTEXTBEGIN
1070
    73
1070
     1
1070
    44
1040
1.0
1070
    74
1070
     0
1000
MTEXTEND
  0
POINT
  5
2855
330
1665
100
AcDbEntity
  8
DEFPOINTS
 62
     0
100
AcDbPoint
 10
236.2314711879955
 20
172.5
 30
0.0
  0
POINT
  5
2856
330
1665
100
AcDbEntity
  8
DEFPOINTS
 62
     0
100
AcDbPoint
 10
236.2314711879955
 20
167.5
 30
0.0
  0
POINT
  5
2857
330
1665
100
AcDbEntity
  8
DEFPOINTS
 62
     0
100
AcDbPoint
 10
255.1705475775995
 20
167.5
 30
0.0
  0
ENDBLK
  5
1672
330
1665
100
AcDbEntity
  8
0
 62
     5
100
AcDbBlockEnd
  0
BLOCK
  5
175A
330
174E
100
AcDbEntity
  8
0
100
AcDbBlockBegin
  2
*D11
 70
     1
 10
0.0
 20
0.0
 30
0.0
  3
*D11
  1

  0
LINE
  5
2858
330
174E
100
AcDbEntity
  8
AM_REFDIM
 62
     5
100
AcDbLine
 10
46.7252168390271
 20
173.4720815248401
 30
0.0
 11
46.7252168390271
 21
179.6016188355928
 31
0.0
  0
LINE
  5
2859
330
174E
100
AcDbEntity
  8
AM_REFDIM
 62
     5
100
AcDbLine
 10
48.32521683902712
 20
173.4720815248401
 30
0.0
 11
48.32521683902712
 21
179.6016188355928
 31
0.0
  0
LINE
  5
285A
330
174E
100
AcDbEntity
  8
AM_REFDIM
 62
     5
100
AcDbLine
 10
43.7252168390271
 20
177.6016188355928
 30
0.0
 11
40.72521683902709
 21
177.6016188355928
 31
0.0
  0
LINE
  5
285B
330
174E
100
AcDbEntity
  8
AM_REFDIM
 62
     5
100
AcDbLine
 10
51.32521683902712
 20
177.6016188355928
 30
0.0
 11
61.89664541045569
 21
177.6016188355928
 31
0.0
  0
LINE
  5
285C
330
174E
100
AcDbEntity
  8
AM_REFDIM
 62
     5
100
AcDbLine
 10
46.7252168390271
 20
177.6016188355928
 30
0.0
 11
48.32521683902712
 21
177.6016188355928
 31
0.0
  0
SOLID
  5
285D
330
174E
100
AcDbEntity
  8
AM_REFDIM
 62
     5
100
AcDbTrace
 10
43.7252168390271
 20
178.1016188355929
 30
0.0
 11
43.7252168390271
 21
177.1016188355928
 31
0.0
 12
46.7252168390271
 22
177.6016188355928
 32
0.0
 13
46.7252168390271
 23
177.6016188355928
 33
0.0
  0
SOLID
  5
285E
330
174E
100
AcDbEntity
  8
AM_REFDIM
 62
     5
100
AcDbTrace
 10
51.32521683902712
 20
178.1016188355929
 30
0.0
 11
51.32521683902712
 21
177.1016188355928
 31
0.0
 12
48.32521683902712
 22
177.6016188355928
 32
0.0
 13
48.32521683902712
 23
177.6016188355928
 33
0.0
  0
MTEXT
  5
285F
330
174E
100
AcDbEntity
  8
AM_REFDIM
 62
     5
100
AcDbMText
 10
58.1109311247414
 20
180.1016188355928
 30
0.0
 40
3.0
 41
0.0
 71
     5
 72
     1
  1
\A1;1.6
  7
DAYUS
1001
ACAD
1000
MTEXTBEGIN
1070
    73
1070
     1
1070
    44
1040
1.0
1070
    74
1070
     0
1000
MTEXTEND
  0
POINT
  5
2860
330
174E
100
AcDbEntity
  8
DEFPOINTS
 62
     0
100
AcDbPoint
 10
46.7252168390271
 20
171.4720815248401
 30
0.0
  0
POINT
  5
2861
330
174E
100
AcDbEntity
  8
DEFPOINTS
 62
     0
100
AcDbPoint
 10
48.32521683902712
 20
171.4720815248401
 30
0.0
  0
POINT
  5
2862
330
174E
100
AcDbEntity
  8
DEFPOINTS
 62
     0
100
AcDbPoint
 10
48.32521683902712
 20
177.6016188355928
 30
0.0
  0
ENDBLK
  5
175B
330
174E
100
AcDbEntity
  8
0
100
AcDbBlockEnd
  0
BLOCK
  5
1769
330
175D
100
AcDbEntity
  8
0
100
AcDbBlockBegin
  2
*D12
 70
     1
 10
0.0
 20
0.0
 30
0.0
  3
*D12
  1

  0
LINE
  5
2863
330
175D
100
AcDbEntity
  8
AM_REFDIM
 62
     5
100
AcDbLine
 10
53.32521683902712
 20
173.9720815248402
 30
0.0
 11
53.32521683902712
 21
186.9875630405228
 31
0.0
  0
LINE
  5
2864
330
175D
100
AcDbEntity
  8
AM_REFDIM
 62
     5
100
AcDbLine
 10
55.7252168390271
 20
173.9720815248401
 30
0.0
 11
55.7252168390271
 21
186.9875630405228
 31
0.0
  0
LINE
  5
2865
330
175D
100
AcDbEntity
  8
AM_REFDIM
 62
     5
100
AcDbLine
 10
50.32521683902712
 20
184.9875630405228
 30
0.0
 11
47.32521683902712
 21
184.9875630405228
 31
0.0
  0
LINE
  5
2866
330
175D
100
AcDbEntity
  8
AM_REFDIM
 62
     5
100
AcDbLine
 10
58.7252168390271
 20
184.9875630405228
 30
0.0
 11
70.15378826759851
 21
184.9875630405228
 31
0.0
  0
LINE
  5
2867
330
175D
100
AcDbEntity
  8
AM_REFDIM
 62
     5
100
AcDbLine
 10
53.32521683902712
 20
184.9875630405228
 30
0.0
 11
55.7252168390271
 21
184.9875630405228
 31
0.0
  0
SOLID
  5
2868
330
175D
100
AcDbEntity
  8
AM_REFDIM
 62
     5
100
AcDbTrace
 10
50.32521683902712
 20
185.4875630405228
 30
0.0
 11
50.32521683902712
 21
184.4875630405228
 31
0.0
 12
53.32521683902712
 22
184.9875630405228
 32
0.0
 13
53.32521683902712
 23
184.9875630405228
 33
0.0
  0
SOLID
  5
2869
330
175D
100
AcDbEntity
  8
AM_REFDIM
 62
     5
100
AcDbTrace
 10
58.7252168390271
 20
185.4875630405228
 30
0.0
 11
58.7252168390271
 21
184.4875630405228
 31
0.0
 12
55.7252168390271
 22
184.9875630405228
 32
0.0
 13
55.7252168390271
 23
184.9875630405228
 33
0.0
  0
MTEXT
  5
286A
330
175D
100
AcDbEntity
  8
AM_REFDIM
 62
     5
100
AcDbMText
 10
65.9395025533128
 20
187.4875630405228
 30
0.0
 40
3.0
 41
0.0
 71
     5
 72
     1
  1
\A1;2.4
  7
DAYUS
1001
ACAD
1000
MTEXTBEGIN
1070
    73
1070
     1
1070
    44
1040
1.0
1070
    74
1070
     0
1000
MTEXTEND
  0
POINT
  5
286B
330
175D
100
AcDbEntity
  8
DEFPOINTS
 62
     0
100
AcDbPoint
 10
53.32521683902712
 20
171.9720815248401
 30
0.0
  0
POINT
  5
286C
330
175D
100
AcDbEntity
  8
DEFPOINTS
 62
     0
100
AcDbPoint
 10
55.7252168390271
 20
171.9720815248401
 30
0.0
  0
POINT
  5
286D
330
175D
100
AcDbEntity
  8
DEFPOINTS
 62
     0
100
AcDbPoint
 10
55.7252168390271
 20
184.9875630405228
 30
0.0
  0
ENDBLK
  5
176A
330
175D
100
AcDbEntity
  8
0
100
AcDbBlockEnd
  0
BLOCK
  5
1778
330
176C
100
AcDbEntity
  8
0
100
AcDbBlockBegin
  2
*D13
 70
     1
 10
0.0
 20
0.0
 30
0.0
  3
*D13
  1

  0
LINE
  5
286E
330
176C
100
AcDbEntity
  8
AM_REFDIM
 62
     5
100
AcDbLine
 10
44.72521683902712
 20
166.8220815248401
 30
0.0
 11
44.72521683902712
 21
158.4436774075776
 31
0.0
  0
LINE
  5
286F
330
176C
100
AcDbEntity
  8
AM_REFDIM
 62
     5
100
AcDbLine
 10
50.7252168390271
 20
166.6220815248401
 30
0.0
 11
50.7252168390271
 21
158.4436774075776
 31
0.0
  0
LINE
  5
2870
330
176C
100
AcDbEntity
  8
AM_REFDIM
 62
     5
100
AcDbLine
 10
41.72521683902712
 20
160.4436774075777
 30
0.0
 11
38.72521683902713
 21
160.4436774075777
 31
0.0
  0
LINE
  5
2871
330
176C
100
AcDbEntity
  8
AM_REFDIM
 62
     5
100
AcDbLine
 10
53.7252168390271
 20
160.4436774075777
 30
0.0
 11
56.7252168390271
 21
160.4436774075777
 31
0.0
  0
LINE
  5
2872
330
176C
100
AcDbEntity
  8
AM_REFDIM
 62
     5
100
AcDbLine
 10
44.72521683902712
 20
160.4436774075777
 30
0.0
 11
50.7252168390271
 21
160.4436774075777
 31
0.0
  0
SOLID
  5
2873
330
176C
100
AcDbEntity
  8
AM_REFDIM
 62
     5
100
AcDbTrace
 10
41.72521683902712
 20
160.9436774075776
 30
0.0
 11
41.72521683902712
 21
159.9436774075776
 31
0.0
 12
44.72521683902712
 22
160.4436774075777
 32
0.0
 13
44.72521683902712
 23
160.4436774075777
 33
0.0
  0
SOLID
  5
2874
330
176C
100
AcDbEntity
  8
AM_REFDIM
 62
     5
100
AcDbTrace
 10
53.7252168390271
 20
160.9436774075776
 30
0.0
 11
53.7252168390271
 21
159.9436774075776
 31
0.0
 12
50.7252168390271
 22
160.4436774075777
 32
0.0
 13
50.7252168390271
 23
160.4436774075777
 33
0.0
  0
MTEXT
  5
2875
330
176C
100
AcDbEntity
  8
AM_REFDIM
 62
     5
100
AcDbMText
 10
47.72521683902711
 20
162.9436774075776
 30
0.0
 40
3.0
 41
0.0
 71
     5
 72
     1
  1
\A1;6
  7
DAYUS
1001
ACAD
1000
MTEXTBEGIN
1070
    73
1070
     1
1070
    44
1040
1.0
1070
    74
1070
     0
1000
MTEXTEND
  0
POINT
  5
2876
330
176C
100
AcDbEntity
  8
DEFPOINTS
 62
     0
100
AcDbPoint
 10
44.72521683902712
 20
168.8220815248401
 30
0.0
  0
POINT
  5
2877
330
176C
100
AcDbEntity
  8
DEFPOINTS
 62
     0
100
AcDbPoint
 10
50.7252168390271
 20
168.6220815248401
 30
0.0
  0
POINT
  5
2878
330
176C
100
AcDbEntity
  8
DEFPOINTS
 62
     0
100
AcDbPoint
 10
50.7252168390271
 20
160.4436774075777
 30
0.0
  0
ENDBLK
  5
1779
330
176C
100
AcDbEntity
  8
0
100
AcDbBlockEnd
  0
BLOCK
  5
1787
330
177B
100
AcDbEntity
  8
0
100
AcDbBlockBegin
  2
*D14
 70
     1
 10
0.0
 20
0.0
 30
0.0
  3
*D14
  1

  0
LINE
  5
2879
330
177B
100
AcDbEntity
  8
AM_REFDIM
 62
     5
100
AcDbLine
 10
51.7252168390271
 20
165.8970815248401
 30
0.0
 11
51.7252168390271
 21
153.250282383616
 31
0.0
  0
LINE
  5
287A
330
177B
100
AcDbEntity
  8
AM_REFDIM
 62
     5
100
AcDbLine
 10
57.72521683902709
 20
165.0220815248401
 30
0.0
 11
57.72521683902709
 21
153.250282383616
 31
0.0
  0
LINE
  5
287B
330
177B
100
AcDbEntity
  8
AM_REFDIM
 62
     5
100
AcDbLine
 10
48.7252168390271
 20
155.250282383616
 30
0.0
 11
45.72521683902709
 21
155.250282383616
 31
0.0
  0
LINE
  5
287C
330
177B
100
AcDbEntity
  8
AM_REFDIM
 62
     5
100
AcDbLine
 10
60.7252168390271
 20
155.250282383616
 30
0.0
 11
63.7252168390271
 21
155.250282383616
 31
0.0
  0
LINE
  5
287D
330
177B
100
AcDbEntity
  8
AM_REFDIM
 62
     5
100
AcDbLine
 10
51.7252168390271
 20
155.250282383616
 30
0.0
 11
57.72521683902709
 21
155.250282383616
 31
0.0
  0
SOLID
  5
287E
330
177B
100
AcDbEntity
  8
AM_REFDIM
 62
     5
100
AcDbTrace
 10
48.7252168390271
 20
155.750282383616
 30
0.0
 11
48.7252168390271
 21
154.750282383616
 31
0.0
 12
51.7252168390271
 22
155.250282383616
 32
0.0
 13
51.7252168390271
 23
155.250282383616
 33
0.0
  0
SOLID
  5
287F
330
177B
100
AcDbEntity
  8
AM_REFDIM
 62
     5
100
AcDbTrace
 10
60.7252168390271
 20
155.750282383616
 30
0.0
 11
60.7252168390271
 21
154.750282383616
 31
0.0
 12
57.72521683902709
 22
155.250282383616
 32
0.0
 13
57.72521683902709
 23
155.250282383616
 33
0.0
  0
MTEXT
  5
2880
330
177B
100
AcDbEntity
  8
AM_REFDIM
 62
     5
100
AcDbMText
 10
54.72521683902709
 20
157.750282383616
 30
0.0
 40
3.0
 41
0.0
 71
     5
 72
     1
  1
\A1;6
  7
DAYUS
1001
ACAD
1000
MTEXTBEGIN
1070
    73
1070
     1
1070
    44
1040
1.0
1070
    74
1070
     0
1000
MTEXTEND
  0
POINT
  5
2881
330
177B
100
AcDbEntity
  8
DEFPOINTS
 62
     0
100
AcDbPoint
 10
51.7252168390271
 20
167.8970815248401
 30
0.0
  0
POINT
  5
2882
330
177B
100
AcDbEntity
  8
DEFPOINTS
 62
     0
100
AcDbPoint
 10
57.72521683902709
 20
167.0220815248401
 30
0.0
  0
POINT
  5
2883
330
177B
100
AcDbEntity
  8
DEFPOINTS
 62
     0
100
AcDbPoint
 10
57.72521683902709
 20
155.250282383616
 30
0.0
  0
ENDBLK
  5
1788
330
177B
100
AcDbEntity
  8
0
100
AcDbBlockEnd
  0
BLOCK
  5
1794
330
178A
100
AcDbEntity
  8
0
100
AcDbBlockBegin
  2
*D15
 70
     1
 10
0.0
 20
0.0
 30
0.0
  3
*D15
  1

  0
LINE
  5
2884
330
178A
100
AcDbEntity
  8
AM_REFDIM
 62
     5
100
AcDbLine
 10
44.72521683902712
 20
166.8220815248401
 30
0.0
 11
44.72521683902712
 21
141.3300395489748
 31
0.0
  0
LINE
  5
2885
330
178A
100
AcDbEntity
  8
AM_REFDIM
 62
     5
100
AcDbLine
 10
57.72521683902709
 20
165.0220815248401
 30
0.0
 11
57.72521683902709
 21
141.3300395489748
 31
0.0
  0
LINE
  5
2886
330
178A
100
AcDbEntity
  8
AM_REFDIM
 62
     5
100
AcDbLine
 10
47.72521683902712
 20
143.3300395489748
 30
0.0
 11
54.72521683902709
 21
143.3300395489748
 31
0.0
  0
SOLID
  5
2887
330
178A
100
AcDbEntity
  8
AM_REFDIM
 62
     5
100
AcDbTrace
 10
47.72521683902712
 20
143.8300395489748
 30
0.0
 11
47.72521683902712
 21
142.8300395489748
 31
0.0
 12
44.72521683902712
 22
143.3300395489748
 32
0.0
 13
44.72521683902712
 23
143.3300395489748
 33
0.0
  0
SOLID
  5
2888
330
178A
100
AcDbEntity
  8
AM_REFDIM
 62
     5
100
AcDbTrace
 10
54.72521683902709
 20
143.8300395489748
 30
0.0
 11
54.72521683902709
 21
142.8300395489748
 31
0.0
 12
57.72521683902709
 22
143.3300395489748
 32
0.0
 13
57.72521683902709
 23
143.3300395489748
 33
0.0
  0
MTEXT
  5
2889
330
178A
100
AcDbEntity
  8
AM_REFDIM
 62
     5
100
AcDbMText
 10
51.22521683902711
 20
145.8300395489748
 30
0.0
 40
3.0
 41
0.0
 71
     5
 72
     1
  1
\A1;13
  7
DAYUS
1001
ACAD
1000
MTEXTBEGIN
1070
    73
1070
     1
1070
    44
1040
1.0
1070
    74
1070
     0
1000
MTEXTEND
  0
POINT
  5
288A
330
178A
100
AcDbEntity
  8
DEFPOINTS
 62
     0
100
AcDbPoint
 10
44.72521683902712
 20
168.8220815248401
 30
0.0
  0
POINT
  5
288B
330
178A
100
AcDbEntity
  8
DEFPOINTS
 62
     0
100
AcDbPoint
 10
57.72521683902709
 20
167.0220815248401
 30
0.0
  0
POINT
  5
288C
330
178A
100
AcDbEntity
  8
DEFPOINTS
 62
     0
100
AcDbPoint
 10
57.72521683902709
 20
143.3300395489748
 30
0.0
  0
ENDBLK
  5
1795
330
178A
100
AcDbEntity
  8
0
100
AcDbBlockEnd
  0
BLOCK
  5
17A1
330
1797
100
AcDbEntity
  8
0
100
AcDbBlockBegin
  2
*D16
 70
     1
 10
0.0
 20
0.0
 30
0.0
  3
*D16
  1

  0
LINE
  5
288D
330
1797
100
AcDbEntity
  8
AM_REFDIM
 62
     5
100
AcDbLine
 10
57.72521683902709
 20
165.0220815248401
 30
0.0
 11
57.72521683902709
 21
141.3300395489748
 31
0.0
  0
LINE
  5
288E
330
1797
100
AcDbEntity
  8
AM_REFDIM
 62
     5
100
AcDbLine
 10
77.22521683902709
 20
165.2720815248401
 30
0.0
 11
77.22521683902709
 21
141.3300395489748
 31
0.0
  0
LINE
  5
288F
330
1797
100
AcDbEntity
  8
AM_REFDIM
 62
     5
100
AcDbLine
 10
60.7252168390271
 20
143.3300395489748
 30
0.0
 11
74.2252168390271
 21
143.3300395489748
 31
0.0
  0
SOLID
  5
2890
330
1797
100
AcDbEntity
  8
AM_REFDIM
 62
     5
100
AcDbTrace
 10
60.7252168390271
 20
143.8300395489748
 30
0.0
 11
60.7252168390271
 21
142.8300395489748
 31
0.0
 12
57.72521683902709
 22
143.3300395489748
 32
0.0
 13
57.72521683902709
 23
143.3300395489748
 33
0.0
  0
SOLID
  5
2891
330
1797
100
AcDbEntity
  8
AM_REFDIM
 62
     5
100
AcDbTrace
 10
74.2252168390271
 20
143.8300395489748
 30
0.0
 11
74.2252168390271
 21
142.8300395489748
 31
0.0
 12
77.22521683902709
 22
143.3300395489748
 32
0.0
 13
77.22521683902709
 23
143.3300395489748
 33
0.0
  0
MTEXT
  5
2892
330
1797
100
AcDbEntity
  8
AM_REFDIM
 62
     5
100
AcDbMText
 10
67.4752168390271
 20
145.8300395489748
 30
0.0
 40
3.0
 41
0.0
 71
     5
 72
     1
  1
\A1;19.5
  7
DAYUS
1001
ACAD
1000
MTEXTBEGIN
1070
    73
1070
     1
1070
    44
1040
1.0
1070
    74
1070
     0
1000
MTEXTEND
  0
POINT
  5
2893
330
1797
100
AcDbEntity
  8
DEFPOINTS
 62
     0
100
AcDbPoint
 10
57.72521683902709
 20
167.0220815248401
 30
0.0
  0
POINT
  5
2894
330
1797
100
AcDbEntity
  8
DEFPOINTS
 62
     0
100
AcDbPoint
 10
77.22521683902709
 20
167.2720815248401
 30
0.0
  0
POINT
  5
2895
330
1797
100
AcDbEntity
  8
DEFPOINTS
 62
     0
100
AcDbPoint
 10
77.22521683902709
 20
143.3300395489748
 30
0.0
  0
ENDBLK
  5
17A2
330
1797
100
AcDbEntity
  8
0
100
AcDbBlockEnd
  0
BLOCK
  5
17B0
330
17A4
100
AcDbEntity
  8
0
100
AcDbBlockBegin
  2
*D17
 70
     1
 10
0.0
 20
0.0
 30
0.0
  3
*D17
  1

  0
LINE
  5
2896
330
17A4
100
AcDbEntity
  8
AM_REFDIM
 62
     5
100
AcDbLine
 10
77.22521683902709
 20
165.2720815248401
 30
0.0
 11
77.22521683902709
 21
141.3300395489748
 31
0.0
  0
LINE
  5
2897
330
17A4
100
AcDbEntity
  8
AM_REFDIM
 62
     5
100
AcDbLine
 10
84.7252168390271
 20
166.6220815248401
 30
0.0
 11
84.7252168390271
 21
141.3300395489748
 31
0.0
  0
LINE
  5
2898
330
17A4
100
AcDbEntity
  8
AM_REFDIM
 62
     5
100
AcDbLine
 10
74.2252168390271
 20
143.3300395489748
 30
0.0
 11
71.2252168390271
 21
143.3300395489748
 31
0.0
  0
LINE
  5
2899
330
17A4
100
AcDbEntity
  8
AM_REFDIM
 62
     5
100
AcDbLine
 10
87.72521683902709
 20
143.3300395489748
 30
0.0
 11
99.01093112474137
 21
143.3300395489748
 31
0.0
  0
LINE
  5
289A
330
17A4
100
AcDbEntity
  8
AM_REFDIM
 62
     5
100
AcDbLine
 10
77.22521683902709
 20
143.3300395489748
 30
0.0
 11
84.7252168390271
 21
143.3300395489748
 31
0.0
  0
SOLID
  5
289B
330
17A4
100
AcDbEntity
  8
AM_REFDIM
 62
     5
100
AcDbTrace
 10
74.2252168390271
 20
143.8300395489748
 30
0.0
 11
74.2252168390271
 21
142.8300395489748
 31
0.0
 12
77.22521683902709
 22
143.3300395489748
 32
0.0
 13
77.22521683902709
 23
143.3300395489748
 33
0.0
  0
SOLID
  5
289C
330
17A4
100
AcDbEntity
  8
AM_REFDIM
 62
     5
100
AcDbTrace
 10
87.72521683902709
 20
143.8300395489748
 30
0.0
 11
87.72521683902709
 21
142.8300395489748
 31
0.0
 12
84.7252168390271
 22
143.3300395489748
 32
0.0
 13
84.7252168390271
 23
143.3300395489748
 33
0.0
  0
MTEXT
  5
289D
330
17A4
100
AcDbEntity
  8
AM_REFDIM
 62
     5
100
AcDbMText
 10
94.86807398188423
 20
145.8300395489748
 30
0.0
 40
3.0
 41
0.0
 71
     5
 72
     1
  1
\A1;7.5
  7
DAYUS
1001
ACAD
1000
MTEXTBEGIN
1070
    73
1070
     1
1070
    44
1040
1.0
1070
    74
1070
     0
1000
MTEXTEND
  0
POINT
  5
289E
330
17A4
100
AcDbEntity
  8
DEFPOINTS
 62
     0
100
AcDbPoint
 10
77.22521683902709
 20
167.2720815248401
 30
0.0
  0
POINT
  5
289F
330
17A4
100
AcDbEntity
  8
DEFPOINTS
 62
     0
100
AcDbPoint
 10
84.7252168390271
 20
168.6220815248401
 30
0.0
  0
POINT
  5
28A0
330
17A4
100
AcDbEntity
  8
DEFPOINTS
 62
     0
100
AcDbPoint
 10
84.7252168390271
 20
143.3300395489748
 30
0.0
  0
ENDBLK
  5
17B1
330
17A4
100
AcDbEntity
  8
0
100
AcDbBlockEnd
  0
BLOCK
  5
17BF
330
17B3
100
AcDbEntity
  8
0
100
AcDbBlockBegin
  2
*D18
 70
     1
 10
0.0
 20
0.0
 30
0.0
  3
*D18
  1

  0
LINE
  5
28A1
330
17B3
100
AcDbEntity
  8
AM_REFDIM
 62
     5
100
AcDbLine
 10
61.52521683902711
 20
172.3220815248402
 30
0.0
 11
71.14464280581015
 21
172.3220815248401
 31
0.0
  0
LINE
  5
28A2
330
17B3
100
AcDbEntity
  8
AM_REFDIM
 62
     5
100
AcDbLine
 10
61.52521683902711
 20
166.8220815248401
 30
0.0
 11
71.14464280581015
 21
166.8220815248401
 31
0.0
  0
LINE
  5
28A3
330
17B3
100
AcDbEntity
  8
AM_REFDIM
 62
     5
100
AcDbLine
 10
69.14464280581015
 20
175.3220815248401
 30
0.0
 11
69.14464280581015
 21
178.3220815248401
 31
0.0
  0
LINE
  5
28A4
330
17B3
100
AcDbEntity
  8
AM_REFDIM
 62
     5
100
AcDbLine
 10
69.14464280581015
 20
163.8220815248401
 30
0.0
 11
69.14464280581014
 21
149.8220815248401
 31
0.0
  0
LINE
  5
28A5
330
17B3
100
AcDbEntity
  8
AM_REFDIM
 62
     5
100
AcDbLine
 10
69.14464280581015
 20
172.3220815248401
 30
0.0
 11
69.14464280581015
 21
166.8220815248401
 31
0.0
  0
SOLID
  5
28A6
330
17B3
100
AcDbEntity
  8
AM_REFDIM
 62
     5
100
AcDbTrace
 10
68.64464280581015
 20
175.3220815248401
 30
0.0
 11
69.64464280581015
 21
175.3220815248401
 31
0.0
 12
69.14464280581015
 22
172.3220815248401
 32
0.0
 13
69.14464280581015
 23
172.3220815248401
 33
0.0
  0
SOLID
  5
28A7
330
17B3
100
AcDbEntity
  8
AM_REFDIM
 62
     5
100
AcDbTrace
 10
68.64464280581015
 20
163.8220815248401
 30
0.0
 11
69.64464280581015
 21
163.8220815248401
 31
0.0
 12
69.14464280581015
 22
166.8220815248401
 32
0.0
 13
69.14464280581015
 23
166.8220815248401
 33
0.0
  0
MTEXT
  5
28A8
330
17B3
100
AcDbEntity
  8
AM_REFDIM
 62
     5
100
AcDbMText
 10
66.64464280581012
 20
155.3220815248401
 30
0.0
 40
3.0
 41
0.0
 71
     5
 72
     1
  1
\A1;{\F;%%c5.5}
  7
DAYUS
 11
0.0000000000000001
 21
1.0
 31
0.0
1001
ACAD
1000
MTEXTBEGIN
1070
    73
1070
     1
1070
    44
1040
1.0
1070
    74
1070
     0
1000
MTEXTEND
  0
POINT
  5
28A9
330
17B3
100
AcDbEntity
  8
DEFPOINTS
 62
     0
100
AcDbPoint
 10
59.52521683902711
 20
172.3220815248402
 30
0.0
  0
POINT
  5
28AA
330
17B3
100
AcDbEntity
  8
DEFPOINTS
 62
     0
100
AcDbPoint
 10
59.52521683902711
 20
166.8220815248401
 30
0.0
  0
POINT
  5
28AB
330
17B3
100
AcDbEntity
  8
DEFPOINTS
 62
     0
100
AcDbPoint
 10
69.14464280581015
 20
166.8220815248401
 30
0.0
  0
ENDBLK
  5
17C0
330
17B3
100
AcDbEntity
  8
0
100
AcDbBlockEnd
  0
BLOCK
  5
1808
330
17FC
100
AcDbEntity
  8
0
100
AcDbBlockBegin
  2
*D19
 70
     1
 10
0.0
 20
0.0
 30
0.0
  3
*D19
  1

  0
LINE
  5
28AC
330
17FC
100
AcDbEntity
  8
AM_REFDIM
 62
     5
100
AcDbLine
 10
84.52521683902711
 20
171.2720815248401
 30
0.0
 11
91.87354982062462
 21
171.2720815248401
 31
0.0
  0
LINE
  5
28AD
330
17FC
100
AcDbEntity
  8
AM_REFDIM
 62
     5
100
AcDbLine
 10
84.52521683902716
 20
167.8720815248402
 30
0.0
 11
91.87354982062462
 21
167.8720815248402
 31
0.0
  0
LINE
  5
28AE
330
17FC
100
AcDbEntity
  8
AM_REFDIM
 62
     5
100
AcDbLine
 10
89.87354982062461
 20
174.2720815248401
 30
0.0
 11
89.87354982062461
 21
177.2720815248401
 31
0.0
  0
LINE
  5
28AF
330
17FC
100
AcDbEntity
  8
AM_REFDIM
 62
     5
100
AcDbLine
 10
89.87354982062461
 20
164.8720815248402
 30
0.0
 11
89.87354982062461
 21
150.729224381983
 31
0.0
  0
LINE
  5
28B0
330
17FC
100
AcDbEntity
  8
AM_REFDIM
 62
     5
100
AcDbLine
 10
89.87354982062461
 20
171.2720815248401
 30
0.0
 11
89.87354982062461
 21
167.8720815248402
 31
0.0
  0
SOLID
  5
28B1
330
17FC
100
AcDbEntity
  8
AM_REFDIM
 62
     5
100
AcDbTrace
 10
89.37354982062462
 20
174.2720815248401
 30
0.0
 11
90.37354982062462
 21
174.2720815248401
 31
0.0
 12
89.87354982062461
 22
171.2720815248401
 32
0.0
 13
89.87354982062461
 23
171.2720815248401
 33
0.0
  0
SOLID
  5
28B2
330
17FC
100
AcDbEntity
  8
AM_REFDIM
 62
     5
100
AcDbTrace
 10
89.37354982062462
 20
164.8720815248402
 30
0.0
 11
90.37354982062462
 21
164.8720815248402
 31
0.0
 12
89.87354982062461
 22
167.8720815248402
 32
0.0
 13
89.87354982062461
 23
167.8720815248402
 33
0.0
  0
MTEXT
  5
28B3
330
17FC
100
AcDbEntity
  8
AM_REFDIM
 62
     5
100
AcDbMText
 10
87.37354982062459
 20
156.3006529534116
 30
0.0
 40
3.0
 41
0.0
 71
     5
 72
     1
  1
\A1;{\F;%%C3.4}
  7
DAYUS
 11
0.0000000000000001
 21
1.0
 31
0.0
1001
ACAD
1000
MTEXTBEGIN
1070
    73
1070
     1
1070
    44
1040
1.0
1070
    74
1070
     0
1000
MTEXTEND
  0
POINT
  5
28B4
330
17FC
100
AcDbEntity
  8
DEFPOINTS
 62
     0
100
AcDbPoint
 10
82.52521683902712
 20
171.2720815248401
 30
0.0
  0
POINT
  5
28B5
330
17FC
100
AcDbEntity
  8
DEFPOINTS
 62
     0
100
AcDbPoint
 10
82.52521683902717
 20
167.8720815248402
 30
0.0
  0
POINT
  5
28B6
330
17FC
100
AcDbEntity
  8
DEFPOINTS
 62
     0
100
AcDbPoint
 10
89.87354982062461
 20
167.8720815248402
 30
0.0
  0
ENDBLK
  5
1809
330
17FC
100
AcDbEntity
  8
0
100
AcDbBlockEnd
  0
BLOCK
  5
1817
330
180B
100
AcDbEntity
  8
0
100
AcDbBlockBegin
  2
*D20
 70
     1
 10
0.0
 20
0.0
 30
0.0
  3
*D20
  1

  0
LINE
  5
28B7
330
180B
100
AcDbEntity
  8
AM_REFDIM
 62
     5
100
AcDbLine
 10
79.02521683902711
 20
172.0720815248402
 30
0.0
 11
97.21062745747978
 21
172.0720815248402
 31
0.0
  0
LINE
  5
28B8
330
180B
100
AcDbEntity
  8
AM_REFDIM
 62
     5
100
AcDbLine
 10
79.02521683902711
 20
167.0720815248402
 30
0.0
 11
97.21062745747978
 21
167.0720815248402
 31
0.0
  0
LINE
  5
28B9
330
180B
100
AcDbEntity
  8
AM_REFDIM
 62
     5
100
AcDbLine
 10
95.21062745747977
 20
175.0720815248401
 30
0.0
 11
95.21062745747977
 21
178.0720815248401
 31
0.0
  0
LINE
  5
28BA
330
180B
100
AcDbEntity
  8
AM_REFDIM
 62
     5
100
AcDbLine
 10
95.21062745747977
 20
164.0720815248402
 30
0.0
 11
95.21062745747975
 21
154.3577958105544
 31
0.0
  0
LINE
  5
28BB
330
180B
100
AcDbEntity
  8
AM_REFDIM
 62
     5
100
AcDbLine
 10
95.21062745747977
 20
172.0720815248402
 30
0.0
 11
95.21062745747977
 21
167.0720815248402
 31
0.0
  0
SOLID
  5
28BC
330
180B
100
AcDbEntity
  8
AM_REFDIM
 62
     5
100
AcDbTrace
 10
94.71062745747977
 20
175.0720815248401
 30
0.0
 11
95.71062745747978
 21
175.0720815248401
 31
0.0
 12
95.21062745747977
 22
172.0720815248402
 32
0.0
 13
95.21062745747977
 23
172.0720815248402
 33
0.0
  0
SOLID
  5
28BD
330
180B
100
AcDbEntity
  8
AM_REFDIM
 62
     5
100
AcDbTrace
 10
94.71062745747977
 20
164.0720815248402
 30
0.0
 11
95.71062745747978
 21
164.0720815248402
 31
0.0
 12
95.21062745747977
 22
167.0720815248402
 32
0.0
 13
95.21062745747977
 23
167.0720815248402
 33
0.0
  0
MTEXT
  5
28BE
330
180B
100
AcDbEntity
  8
AM_REFDIM
 62
     5
100
AcDbMText
 10
92.71062745747974
 20
157.7149386676973
 30
0.0
 40
3.0
 41
0.0
 71
     5
 72
     1
  1
\A1;{\F;%%C5}
  7
DAYUS
 11
0.0000000000000001
 21
1.0
 31
0.0
1001
ACAD
1000
MTEXTBEGIN
1070
    73
1070
     1
1070
    44
1040
1.0
1070
    74
1070
     0
1000
MTEXTEND
  0
POINT
  5
28BF
330
180B
100
AcDbEntity
  8
DEFPOINTS
 62
     0
100
AcDbPoint
 10
77.02521683902711
 20
172.0720815248402
 30
0.0
  0
POINT
  5
28C0
330
180B
100
AcDbEntity
  8
DEFPOINTS
 62
     0
100
AcDbPoint
 10
77.02521683902711
 20
167.0720815248402
 30
0.0
  0
POINT
  5
28C1
330
180B
100
AcDbEntity
  8
DEFPOINTS
 62
     0
100
AcDbPoint
 10
95.21062745747977
 20
167.0720815248402
 30
0.0
  0
ENDBLK
  5
1818
330
180B
100
AcDbEntity
  8
0
100
AcDbBlockEnd
  0
BLOCK
  5
18F4
330
18E8
100
AcDbEntity
  8
0
100
AcDbBlockBegin
  2
*D21
 70
     1
 10
0.0
 20
0.0
 30
0.0
  3
*D21
  1

  0
LINE
  5
28EC
330
18E8
100
AcDbEntity
  8
AM_REFDIM
 62
     5
100
AcDbLine
 10
51.73147118799551
 20
62.75
 30
0.0
 11
61.19580212075925
 21
62.75
 31
0.0
  0
LINE
  5
28ED
330
18E8
100
AcDbEntity
  8
AM_REFDIM
 62
     5
100
AcDbLine
 10
51.73147118799551
 20
57.25
 30
0.0
 11
61.19580212075925
 21
57.25
 31
0.0
  0
LINE
  5
28EE
330
18E8
100
AcDbEntity
  8
AM_REFDIM
 62
     5
100
AcDbLine
 10
59.19580212075925
 20
65.75
 30
0.0
 11
59.19580212075925
 21
68.75
 31
0.0
  0
LINE
  5
28EF
330
18E8
100
AcDbEntity
  8
AM_REFDIM
 62
     5
100
AcDbLine
 10
59.19580212075925
 20
54.25
 30
0.0
 11
59.19580212075924
 21
40.25
 31
0.0
  0
LINE
  5
28F0
330
18E8
100
AcDbEntity
  8
AM_REFDIM
 62
     5
100
AcDbLine
 10
59.19580212075925
 20
62.75
 30
0.0
 11
59.19580212075925
 21
57.25
 31
0.0
  0
SOLID
  5
28F1
330
18E8
100
AcDbEntity
  8
AM_REFDIM
 62
     5
100
AcDbTrace
 10
58.69580212075925
 20
65.75
 30
0.0
 11
59.69580212075925
 21
65.75
 31
0.0
 12
59.19580212075925
 22
62.75
 32
0.0
 13
59.19580212075925
 23
62.75
 33
0.0
  0
SOLID
  5
28F2
330
18E8
100
AcDbEntity
  8
AM_REFDIM
 62
     5
100
AcDbTrace
 10
58.69580212075925
 20
54.25
 30
0.0
 11
59.69580212075925
 21
54.25
 31
0.0
 12
59.19580212075925
 22
57.25
 32
0.0
 13
59.19580212075925
 23
57.25
 33
0.0
  0
MTEXT
  5
28F3
330
18E8
100
AcDbEntity
  8
AM_REFDIM
 62
     5
100
AcDbMText
 10
56.69580212075924
 20
45.75000000000001
 30
0.0
 40
3.0
 41
0.0
 71
     5
 72
     1
  1
\A1;{\F;%%c5.5}
  7
DAYUS
 11
0.0000000000000001
 21
1.0
 31
0.0
1001
ACAD
1000
MTEXTBEGIN
1070
    73
1070
     1
1070
    44
1040
1.0
1070
    74
1070
     0
1000
MTEXTEND
  0
POINT
  5
28F4
330
18E8
100
AcDbEntity
  8
DEFPOINTS
 62
     0
100
AcDbPoint
 10
49.73147118799551
 20
62.75
 30
0.0
  0
POINT
  5
28F5
330
18E8
100
AcDbEntity
  8
DEFPOINTS
 62
     0
100
AcDbPoint
 10
49.73147118799551
 20
57.25
 30
0.0
  0
POINT
  5
28F6
330
18E8
100
AcDbEntity
  8
DEFPOINTS
 62
     0
100
AcDbPoint
 10
59.19580212075925
 20
57.25
 30
0.0
  0
ENDBLK
  5
18F5
330
18E8
100
AcDbEntity
  8
0
100
AcDbBlockEnd
  0
BLOCK
  5
1902
330
18F6
100
AcDbEntity
  8
0
100
AcDbBlockBegin
  2
*D22
 70
     1
 10
0.0
 20
0.0
 30
0.0
  3
*D22
  1

  0
LINE
  5
28CD
330
18F6
100
AcDbEntity
  8
AM_REFDIM
 62
     5
100
AcDbLine
 10
92.73147118799546
 20
61.69999999999999
 30
0.0
 11
100.419878246692
 21
61.69999999999999
 31
0.0
  0
LINE
  5
28CE
330
18F6
100
AcDbEntity
  8
AM_REFDIM
 62
     5
100
AcDbLine
 10
92.73147118799551
 20
58.30000000000001
 30
0.0
 11
100.419878246692
 21
58.30000000000001
 31
0.0
  0
LINE
  5
28CF
330
18F6
100
AcDbEntity
  8
AM_REFDIM
 62
     5
100
AcDbLine
 10
98.41987824669207
 20
64.69999999999998
 30
0.0
 11
98.41987824669207
 21
67.69999999999999
 31
0.0
  0
LINE
  5
28D0
330
18F6
100
AcDbEntity
  8
AM_REFDIM
 62
     5
100
AcDbLine
 10
98.41987824669207
 20
55.30000000000001
 30
0.0
 11
98.41987824669207
 21
41.15714285714287
 31
0.0
  0
LINE
  5
28D1
330
18F6
100
AcDbEntity
  8
AM_REFDIM
 62
     5
100
AcDbLine
 10
98.41987824669207
 20
61.69999999999999
 30
0.0
 11
98.41987824669207
 21
58.30000000000001
 31
0.0
  0
SOLID
  5
28D2
330
18F6
100
AcDbEntity
  8
AM_REFDIM
 62
     5
100
AcDbTrace
 10
97.91987824669206
 20
64.69999999999998
 30
0.0
 11
98.91987824669207
 21
64.69999999999998
 31
0.0
 12
98.41987824669207
 22
61.69999999999999
 32
0.0
 13
98.41987824669207
 23
61.69999999999999
 33
0.0
  0
SOLID
  5
28D3
330
18F6
100
AcDbEntity
  8
AM_REFDIM
 62
     5
100
AcDbTrace
 10
97.91987824669206
 20
55.30000000000001
 30
0.0
 11
98.91987824669207
 21
55.30000000000001
 31
0.0
 12
98.41987824669207
 22
58.30000000000001
 32
0.0
 13
98.41987824669207
 23
58.30000000000001
 33
0.0
  0
MTEXT
  5
28D4
330
18F6
100
AcDbEntity
  8
AM_REFDIM
 62
     5
100
AcDbMText
 10
95.91987824669205
 20
46.72857142857146
 30
0.0
 40
3.0
 41
0.0
 71
     5
 72
     1
  1
\A1;{\F;%%c3.4}
  7
DAYUS
 11
0.0000000000000001
 21
1.0
 31
0.0
1001
ACAD
1000
MTEXTBEGIN
1070
    73
1070
     1
1070
    44
1040
1.0
1070
    74
1070
     0
1000
MTEXTEND
  0
POINT
  5
28D5
330
18F6
100
AcDbEntity
  8
DEFPOINTS
 62
     0
100
AcDbPoint
 10
90.73147118799544
 20
61.69999999999999
 30
0.0
  0
POINT
  5
28D6
330
18F6
100
AcDbEntity
  8
DEFPOINTS
 62
     0
100
AcDbPoint
 10
90.73147118799552
 20
58.30000000000001
 30
0.0
  0
POINT
  5
28D7
330
18F6
100
AcDbEntity
  8
DEFPOINTS
 62
     0
100
AcDbPoint
 10
98.41987824669207
 20
58.30000000000001
 30
0.0
  0
ENDBLK
  5
1903
330
18F6
100
AcDbEntity
  8
0
100
AcDbBlockEnd
  0
BLOCK
  5
1910
330
1904
100
AcDbEntity
  8
0
100
AcDbBlockBegin
  2
*D23
 70
     1
 10
0.0
 20
0.0
 30
0.0
  3
*D23
  1

  0
LINE
  5
28C2
330
1904
100
AcDbEntity
  8
AM_REFDIM
 62
     5
100
AcDbLine
 10
87.23147118799545
 20
62.5
 30
0.0
 11
106.1705475775995
 21
62.5
 31
0.0
  0
LINE
  5
28C3
330
1904
100
AcDbEntity
  8
AM_REFDIM
 62
     5
100
AcDbLine
 10
87.23147118799545
 20
57.5
 30
0.0
 11
106.1705475775995
 21
57.5
 31
0.0
  0
LINE
  5
28C4
330
1904
100
AcDbEntity
  8
AM_REFDIM
 62
     5
100
AcDbLine
 10
104.1705475775995
 20
65.5
 30
0.0
 11
104.1705475775995
 21
68.5
 31
0.0
  0
LINE
  5
28C5
330
1904
100
AcDbEntity
  8
AM_REFDIM
 62
     5
100
AcDbLine
 10
104.1705475775995
 20
54.5
 30
0.0
 11
104.1705475775995
 21
44.78571428571428
 31
0.0
  0
LINE
  5
28C6
330
1904
100
AcDbEntity
  8
AM_REFDIM
 62
     5
100
AcDbLine
 10
104.1705475775995
 20
62.5
 30
0.0
 11
104.1705475775995
 21
57.5
 31
0.0
  0
SOLID
  5
28C7
330
1904
100
AcDbEntity
  8
AM_REFDIM
 62
     5
100
AcDbTrace
 10
103.6705475775995
 20
65.5
 30
0.0
 11
104.6705475775995
 21
65.5
 31
0.0
 12
104.1705475775995
 22
62.5
 32
0.0
 13
104.1705475775995
 23
62.5
 33
0.0
  0
SOLID
  5
28C8
330
1904
100
AcDbEntity
  8
AM_REFDIM
 62
     5
100
AcDbTrace
 10
103.6705475775995
 20
54.5
 30
0.0
 11
104.6705475775995
 21
54.5
 31
0.0
 12
104.1705475775995
 22
57.5
 32
0.0
 13
104.1705475775995
 23
57.5
 33
0.0
  0
MTEXT
  5
28C9
330
1904
100
AcDbEntity
  8
AM_REFDIM
 62
     5
100
AcDbMText
 10
101.6705475775995
 20
48.14285714285716
 30
0.0
 40
3.0
 41
0.0
 71
     5
 72
     1
  1
\A1;{\F;%%C5}
  7
DAYUS
 11
0.0000000000000001
 21
1.0
 31
0.0
1001
ACAD
1000
MTEXTBEGIN
1070
    73
1070
     1
1070
    44
1040
1.0
1070
    74
1070
     0
1000
MTEXTEND
  0
POINT
  5
28CA
330
1904
100
AcDbEntity
  8
DEFPOINTS
 62
     0
100
AcDbPoint
 10
85.23147118799546
 20
62.5
 30
0.0
  0
POINT
  5
28CB
330
1904
100
AcDbEntity
  8
DEFPOINTS
 62
     0
100
AcDbPoint
 10
85.23147118799546
 20
57.5
 30
0.0
  0
POINT
  5
28CC
330
1904
100
AcDbEntity
  8
DEFPOINTS
 62
     0
100
AcDbPoint
 10
104.1705475775995
 20
57.5
 30
0.0
  0
ENDBLK
  5
1911
330
1904
100
AcDbEntity
  8
0
100
AcDbBlockEnd
  0
BLOCK
  5
191E
330
1912
100
AcDbEntity
  8
0
100
AcDbBlockBegin
  2
*D24
 70
     1
 10
0.0
 20
0.0
 30
0.0
  3
*D24
  1

  0
LINE
  5
2918
330
1912
100
AcDbEntity
  8
AM_REFDIM
 62
     5
100
AcDbLine
 10
36.93147118799549
 20
63.89999999999997
 30
0.0
 11
36.93147118799549
 21
72.23309422894402
 31
0.0
  0
LINE
  5
2919
330
1912
100
AcDbEntity
  8
AM_REFDIM
 62
     5
100
AcDbLine
 10
38.53147118799552
 20
63.89999999999997
 30
0.0
 11
38.53147118799552
 21
72.23309422894402
 31
0.0
  0
LINE
  5
291A
330
1912
100
AcDbEntity
  8
AM_REFDIM
 62
     5
100
AcDbLine
 10
33.9314711879955
 20
70.23309422894403
 30
0.0
 11
30.93147118799549
 21
70.23309422894403
 31
0.0
  0
LINE
  5
291B
330
1912
100
AcDbEntity
  8
AM_REFDIM
 62
     5
100
AcDbLine
 10
41.53147118799552
 20
70.23309422894403
 30
0.0
 11
52.10289975942409
 21
70.23309422894403
 31
0.0
  0
LINE
  5
291C
330
1912
100
AcDbEntity
  8
AM_REFDIM
 62
     5
100
AcDbLine
 10
36.93147118799549
 20
70.23309422894403
 30
0.0
 11
38.53147118799552
 21
70.23309422894403
 31
0.0
  0
SOLID
  5
291D
330
1912
100
AcDbEntity
  8
AM_REFDIM
 62
     5
100
AcDbTrace
 10
33.9314711879955
 20
70.73309422894403
 30
0.0
 11
33.9314711879955
 21
69.73309422894402
 31
0.0
 12
36.93147118799549
 22
70.23309422894403
 32
0.0
 13
36.93147118799549
 23
70.23309422894403
 33
0.0
  0
SOLID
  5
291E
330
1912
100
AcDbEntity
  8
AM_REFDIM
 62
     5
100
AcDbTrace
 10
41.53147118799552
 20
70.73309422894403
 30
0.0
 11
41.53147118799552
 21
69.73309422894402
 31
0.0
 12
38.53147118799552
 22
70.23309422894403
 32
0.0
 13
38.53147118799552
 23
70.23309422894403
 33
0.0
  0
MTEXT
  5
291F
330
1912
100
AcDbEntity
  8
AM_REFDIM
 62
     5
100
AcDbMText
 10
48.3171854737098
 20
72.73309422894403
 30
0.0
 40
3.0
 41
0.0
 71
     5
 72
     1
  1
\A1;1.6
  7
DAYUS
1001
ACAD
1000
MTEXTBEGIN
1070
    73
1070
     1
1070
    44
1040
1.0
1070
    74
1070
     0
1000
MTEXTEND
  0
POINT
  5
2920
330
1912
100
AcDbEntity
  8
DEFPOINTS
 62
     0
100
AcDbPoint
 10
36.93147118799549
 20
61.89999999999997
 30
0.0
  0
POINT
  5
2921
330
1912
100
AcDbEntity
  8
DEFPOINTS
 62
     0
100
AcDbPoint
 10
38.53147118799552
 20
61.89999999999997
 30
0.0
  0
POINT
  5
2922
330
1912
100
AcDbEntity
  8
DEFPOINTS
 62
     0
100
AcDbPoint
 10
38.53147118799552
 20
70.23309422894403
 30
0.0
  0
ENDBLK
  5
191F
330
1912
100
AcDbEntity
  8
0
100
AcDbBlockEnd
  0
BLOCK
  5
192C
330
1920
100
AcDbEntity
  8
0
100
AcDbBlockBegin
  2
*D25
 70
     1
 10
0.0
 20
0.0
 30
0.0
  3
*D25
  1

  0
LINE
  5
290D
330
1920
100
AcDbEntity
  8
AM_REFDIM
 62
     5
100
AcDbLine
 10
43.53147118799552
 20
64.40000000000001
 30
0.0
 11
43.53147118799552
 21
78.99077106373074
 31
0.0
  0
LINE
  5
290E
330
1920
100
AcDbEntity
  8
AM_REFDIM
 62
     5
100
AcDbLine
 10
45.93147118799549
 20
64.39999999999997
 30
0.0
 11
45.93147118799549
 21
78.99077106373074
 31
0.0
  0
LINE
  5
290F
330
1920
100
AcDbEntity
  8
AM_REFDIM
 62
     5
100
AcDbLine
 10
40.53147118799552
 20
76.99077106373073
 30
0.0
 11
37.53147118799552
 21
76.99077106373073
 31
0.0
  0
LINE
  5
2910
330
1920
100
AcDbEntity
  8
AM_REFDIM
 62
     5
100
AcDbLine
 10
48.9314711879955
 20
76.99077106373073
 30
0.0
 11
60.36004261656692
 21
76.99077106373073
 31
0.0
  0
LINE
  5
2911
330
1920
100
AcDbEntity
  8
AM_REFDIM
 62
     5
100
AcDbLine
 10
43.53147118799552
 20
76.99077106373073
 30
0.0
 11
45.93147118799549
 21
76.99077106373073
 31
0.0
  0
SOLID
  5
2912
330
1920
100
AcDbEntity
  8
AM_REFDIM
 62
     5
100
AcDbTrace
 10
40.53147118799552
 20
77.49077106373073
 30
0.0
 11
40.53147118799552
 21
76.49077106373074
 31
0.0
 12
43.53147118799552
 22
76.99077106373073
 32
0.0
 13
43.53147118799552
 23
76.99077106373073
 33
0.0
  0
SOLID
  5
2913
330
1920
100
AcDbEntity
  8
AM_REFDIM
 62
     5
100
AcDbTrace
 10
48.9314711879955
 20
77.49077106373073
 30
0.0
 11
48.9314711879955
 21
76.49077106373074
 31
0.0
 12
45.93147118799549
 22
76.99077106373073
 32
0.0
 13
45.93147118799549
 23
76.99077106373073
 33
0.0
  0
MTEXT
  5
2914
330
1920
100
AcDbEntity
  8
AM_REFDIM
 62
     5
100
AcDbMText
 10
56.14575690228122
 20
79.49077106373073
 30
0.0
 40
3.0
 41
0.0
 71
     5
 72
     1
  1
\A1;2.4
  7
DAYUS
1001
ACAD
1000
MTEXTBEGIN
1070
    73
1070
     1
1070
    44
1040
1.0
1070
    74
1070
     0
1000
MTEXTEND
  0
POINT
  5
2915
330
1920
100
AcDbEntity
  8
DEFPOINTS
 62
     0
100
AcDbPoint
 10
43.53147118799552
 20
62.40000000000001
 30
0.0
  0
POINT
  5
2916
330
1920
100
AcDbEntity
  8
DEFPOINTS
 62
     0
100
AcDbPoint
 10
45.93147118799549
 20
62.39999999999998
 30
0.0
  0
POINT
  5
2917
330
1920
100
AcDbEntity
  8
DEFPOINTS
 62
     0
100
AcDbPoint
 10
45.93147118799549
 20
76.99077106373073
 30
0.0
  0
ENDBLK
  5
192D
330
1920
100
AcDbEntity
  8
0
100
AcDbBlockEnd
  0
BLOCK
  5
193A
330
192E
100
AcDbEntity
  8
0
100
AcDbBlockBegin
  2
*D26
 70
     1
 10
0.0
 20
0.0
 30
0.0
  3
*D26
  1

  0
LINE
  5
2902
330
192E
100
AcDbEntity
  8
AM_REFDIM
 62
     5
100
AcDbLine
 10
34.9314711879955
 20
57.25
 30
0.0
 11
34.9314711879955
 21
49.39605595342363
 31
0.0
  0
LINE
  5
2903
330
192E
100
AcDbEntity
  8
AM_REFDIM
 62
     5
100
AcDbLine
 10
40.93147118799549
 20
57.05000000000001
 30
0.0
 11
40.93147118799549
 21
49.39605595342363
 31
0.0
  0
LINE
  5
2904
330
192E
100
AcDbEntity
  8
AM_REFDIM
 62
     5
100
AcDbLine
 10
31.93147118799549
 20
51.39605595342363
 30
0.0
 11
28.9314711879955
 21
51.39605595342363
 31
0.0
  0
LINE
  5
2905
330
192E
100
AcDbEntity
  8
AM_REFDIM
 62
     5
100
AcDbLine
 10
43.93147118799549
 20
51.39605595342363
 30
0.0
 11
46.9314711879955
 21
51.39605595342363
 31
0.0
  0
LINE
  5
2906
330
192E
100
AcDbEntity
  8
AM_REFDIM
 62
     5
100
AcDbLine
 10
34.9314711879955
 20
51.39605595342363
 30
0.0
 11
40.93147118799549
 21
51.39605595342363
 31
0.0
  0
SOLID
  5
2907
330
192E
100
AcDbEntity
  8
AM_REFDIM
 62
     5
100
AcDbTrace
 10
31.93147118799549
 20
51.89605595342363
 30
0.0
 11
31.93147118799549
 21
50.89605595342362
 31
0.0
 12
34.9314711879955
 22
51.39605595342363
 32
0.0
 13
34.9314711879955
 23
51.39605595342363
 33
0.0
  0
SOLID
  5
2908
330
192E
100
AcDbEntity
  8
AM_REFDIM
 62
     5
100
AcDbTrace
 10
43.93147118799549
 20
51.89605595342363
 30
0.0
 11
43.93147118799549
 21
50.89605595342362
 31
0.0
 12
40.93147118799549
 22
51.39605595342363
 32
0.0
 13
40.93147118799549
 23
51.39605595342363
 33
0.0
  0
MTEXT
  5
2909
330
192E
100
AcDbEntity
  8
AM_REFDIM
 62
     5
100
AcDbMText
 10
37.9314711879955
 20
53.89605595342363
 30
0.0
 40
3.0
 41
0.0
 71
     5
 72
     1
  1
\A1;6
  7
DAYUS
1001
ACAD
1000
MTEXTBEGIN
1070
    73
1070
     1
1070
    44
1040
1.0
1070
    74
1070
     0
1000
MTEXTEND
  0
POINT
  5
290A
330
192E
100
AcDbEntity
  8
DEFPOINTS
 62
     0
100
AcDbPoint
 10
34.9314711879955
 20
59.25
 30
0.0
  0
POINT
  5
290B
330
192E
100
AcDbEntity
  8
DEFPOINTS
 62
     0
100
AcDbPoint
 10
40.93147118799549
 20
59.05000000000001
 30
0.0
  0
POINT
  5
290C
330
192E
100
AcDbEntity
  8
DEFPOINTS
 62
     0
100
AcDbPoint
 10
40.93147118799549
 20
51.39605595342363
 30
0.0
  0
ENDBLK
  5
193B
330
192E
100
AcDbEntity
  8
0
100
AcDbBlockEnd
  0
BLOCK
  5
1948
330
193C
100
AcDbEntity
  8
0
100
AcDbBlockBegin
  2
*D27
 70
     1
 10
0.0
 20
0.0
 30
0.0
  3
*D27
  1

  0
LINE
  5
28F7
330
193C
100
AcDbEntity
  8
AM_REFDIM
 62
     5
100
AcDbLine
 10
41.9314711879955
 20
56.32499999999999
 30
0.0
 11
41.9314711879955
 21
44.16083686134379
 31
0.0
  0
LINE
  5
28F8
330
193C
100
AcDbEntity
  8
AM_REFDIM
 62
     5
100
AcDbLine
 10
47.9314711879955
 20
55.44999999999999
 30
0.0
 11
47.9314711879955
 21
44.16083686134379
 31
0.0
  0
LINE
  5
28F9
330
193C
100
AcDbEntity
  8
AM_REFDIM
 62
     5
100
AcDbLine
 10
38.9314711879955
 20
46.1608368613438
 30
0.0
 11
35.93147118799549
 21
46.1608368613438
 31
0.0
  0
LINE
  5
28FA
330
193C
100
AcDbEntity
  8
AM_REFDIM
 62
     5
100
AcDbLine
 10
50.93147118799549
 20
46.1608368613438
 30
0.0
 11
53.9314711879955
 21
46.1608368613438
 31
0.0
  0
LINE
  5
28FB
330
193C
100
AcDbEntity
  8
AM_REFDIM
 62
     5
100
AcDbLine
 10
41.9314711879955
 20
46.1608368613438
 30
0.0
 11
47.9314711879955
 21
46.1608368613438
 31
0.0
  0
SOLID
  5
28FC
330
193C
100
AcDbEntity
  8
AM_REFDIM
 62
     5
100
AcDbTrace
 10
38.9314711879955
 20
46.66083686134379
 30
0.0
 11
38.9314711879955
 21
45.66083686134379
 31
0.0
 12
41.9314711879955
 22
46.1608368613438
 32
0.0
 13
41.9314711879955
 23
46.1608368613438
 33
0.0
  0
SOLID
  5
28FD
330
193C
100
AcDbEntity
  8
AM_REFDIM
 62
     5
100
AcDbTrace
 10
50.93147118799549
 20
46.66083686134379
 30
0.0
 11
50.93147118799549
 21
45.66083686134379
 31
0.0
 12
47.9314711879955
 22
46.1608368613438
 32
0.0
 13
47.9314711879955
 23
46.1608368613438
 33
0.0
  0
MTEXT
  5
28FE
330
193C
100
AcDbEntity
  8
AM_REFDIM
 62
     5
100
AcDbMText
 10
44.9314711879955
 20
48.6608368613438
 30
0.0
 40
3.0
 41
0.0
 71
     5
 72
     1
  1
\A1;6
  7
DAYUS
1001
ACAD
1000
MTEXTBEGIN
1070
    73
1070
     1
1070
    44
1040
1.0
1070
    74
1070
     0
1000
MTEXTEND
  0
POINT
  5
28FF
330
193C
100
AcDbEntity
  8
DEFPOINTS
 62
     0
100
AcDbPoint
 10
41.9314711879955
 20
58.32499999999999
 30
0.0
  0
POINT
  5
2900
330
193C
100
AcDbEntity
  8
DEFPOINTS
 62
     0
100
AcDbPoint
 10
47.9314711879955
 20
57.44999999999999
 30
0.0
  0
POINT
  5
2901
330
193C
100
AcDbEntity
  8
DEFPOINTS
 62
     0
100
AcDbPoint
 10
47.9314711879955
 20
46.1608368613438
 30
0.0
  0
ENDBLK
  5
1949
330
193C
100
AcDbEntity
  8
0
100
AcDbBlockEnd
  0
BLOCK
  5
1954
330
194A
100
AcDbEntity
  8
0
100
AcDbBlockBegin
  2
*D28
 70
     1
 10
0.0
 20
0.0
 30
0.0
  3
*D28
  1

  0
LINE
  5
28E3
330
194A
100
AcDbEntity
  8
AM_REFDIM
 62
     5
100
AcDbLine
 10
34.9314711879955
 20
57.25
 30
0.0
 11
34.9314711879955
 21
33.44651191079623
 31
0.0
  0
LINE
  5
28E4
330
194A
100
AcDbEntity
  8
AM_REFDIM
 62
     5
100
AcDbLine
 10
47.9314711879955
 20
55.44999999999999
 30
0.0
 11
47.9314711879955
 21
33.44651191079623
 31
0.0
  0
LINE
  5
28E5
330
194A
100
AcDbEntity
  8
AM_REFDIM
 62
     5
100
AcDbLine
 10
37.9314711879955
 20
35.44651191079623
 30
0.0
 11
44.9314711879955
 21
35.44651191079623
 31
0.0
  0
SOLID
  5
28E6
330
194A
100
AcDbEntity
  8
AM_REFDIM
 62
     5
100
AcDbTrace
 10
37.9314711879955
 20
35.94651191079623
 30
0.0
 11
37.9314711879955
 21
34.94651191079623
 31
0.0
 12
34.9314711879955
 22
35.44651191079623
 32
0.0
 13
34.9314711879955
 23
35.44651191079623
 33
0.0
  0
SOLID
  5
28E7
330
194A
100
AcDbEntity
  8
AM_REFDIM
 62
     5
100
AcDbTrace
 10
44.9314711879955
 20
35.94651191079623
 30
0.0
 11
44.9314711879955
 21
34.94651191079623
 31
0.0
 12
47.9314711879955
 22
35.44651191079623
 32
0.0
 13
47.9314711879955
 23
35.44651191079623
 33
0.0
  0
MTEXT
  5
28E8
330
194A
100
AcDbEntity
  8
AM_REFDIM
 62
     5
100
AcDbMText
 10
41.43147118799549
 20
37.94651191079623
 30
0.0
 40
3.0
 41
0.0
 71
     5
 72
     1
  1
\A1;13
  7
DAYUS
1001
ACAD
1000
MTEXTBEGIN
1070
    73
1070
     1
1070
    44
1040
1.0
1070
    74
1070
     0
1000
MTEXTEND
  0
POINT
  5
28E9
330
194A
100
AcDbEntity
  8
DEFPOINTS
 62
     0
100
AcDbPoint
 10
34.9314711879955
 20
59.25
 30
0.0
  0
POINT
  5
28EA
330
194A
100
AcDbEntity
  8
DEFPOINTS
 62
     0
100
AcDbPoint
 10
47.9314711879955
 20
57.44999999999999
 30
0.0
  0
POINT
  5
28EB
330
194A
100
AcDbEntity
  8
DEFPOINTS
 62
     0
100
AcDbPoint
 10
47.9314711879955
 20
35.44651191079623
 30
0.0
  0
ENDBLK
  5
1955
330
194A
100
AcDbEntity
  8
0
100
AcDbBlockEnd
  0
BLOCK
  5
196E
330
1962
100
AcDbEntity
  8
0
100
AcDbBlockBegin
  2
*D29
 70
     1
 10
0.0
 20
0.0
 30
0.0
  3
*D29
  1

  0
LINE
  5
28D8
330
1962
100
AcDbEntity
  8
AM_REFDIM
 62
     5
100
AcDbLine
 10
85.4314711879955
 20
55.69999999999999
 30
0.0
 11
85.4314711879955
 21
33.44651191079623
 31
0.0
  0
LINE
  5
28D9
330
1962
100
AcDbEntity
  8
AM_REFDIM
 62
     5
100
AcDbLine
 10
92.9314711879955
 20
57.04999999999998
 30
0.0
 11
92.9314711879955
 21
33.44651191079623
 31
0.0
  0
LINE
  5
28DA
330
1962
100
AcDbEntity
  8
AM_REFDIM
 62
     5
100
AcDbLine
 10
82.4314711879955
 20
35.44651191079623
 30
0.0
 11
79.4314711879955
 21
35.44651191079623
 31
0.0
  0
LINE
  5
28DB
330
1962
100
AcDbEntity
  8
AM_REFDIM
 62
     5
100
AcDbLine
 10
95.93147118799549
 20
35.44651191079623
 30
0.0
 11
107.2171854737097
 21
35.44651191079623
 31
0.0
  0
LINE
  5
28DC
330
1962
100
AcDbEntity
  8
AM_REFDIM
 62
     5
100
AcDbLine
 10
85.4314711879955
 20
35.44651191079623
 30
0.0
 11
92.9314711879955
 21
35.44651191079623
 31
0.0
  0
SOLID
  5
28DD
330
1962
100
AcDbEntity
  8
AM_REFDIM
 62
     5
100
AcDbTrace
 10
82.4314711879955
 20
35.94651191079623
 30
0.0
 11
82.4314711879955
 21
34.94651191079623
 31
0.0
 12
85.4314711879955
 22
35.44651191079623
 32
0.0
 13
85.4314711879955
 23
35.44651191079623
 33
0.0
  0
SOLID
  5
28DE
330
1962
100
AcDbEntity
  8
AM_REFDIM
 62
     5
100
AcDbTrace
 10
95.93147118799549
 20
35.94651191079623
 30
0.0
 11
95.93147118799549
 21
34.94651191079623
 31
0.0
 12
92.9314711879955
 22
35.44651191079623
 32
0.0
 13
92.9314711879955
 23
35.44651191079623
 33
0.0
  0
MTEXT
  5
28DF
330
1962
100
AcDbEntity
  8
AM_REFDIM
 62
     5
100
AcDbMText
 10
103.0743283308526
 20
37.94651191079623
 30
0.0
 40
3.0
 41
0.0
 71
     5
 72
     1
  1
\A1;7.5
  7
DAYUS
1001
ACAD
1000
MTEXTBEGIN
1070
    73
1070
     1
1070
    44
1040
1.0
1070
    74
1070
     0
1000
MTEXTEND
  0
POINT
  5
28E0
330
1962
100
AcDbEntity
  8
DEFPOINTS
 62
     0
100
AcDbPoint
 10
85.4314711879955
 20
57.69999999999999
 30
0.0
  0
POINT
  5
28E1
330
1962
100
AcDbEntity
  8
DEFPOINTS
 62
     0
100
AcDbPoint
 10
92.9314711879955
 20
59.04999999999998
 30
0.0
  0
POINT
  5
28E2
330
1962
100
AcDbEntity
  8
DEFPOINTS
 62
     0
100
AcDbPoint
 10
92.9314711879955
 20
35.44651191079623
 30
0.0
  0
ENDBLK
  5
196F
330
1962
100
AcDbEntity
  8
0
100
AcDbBlockEnd
  0
BLOCK
  5
1A06
330
19FC
100
AcDbEntity
  8
0
100
AcDbBlockBegin
  2
*D30
 70
     1
 10
0.0
 20
0.0
 30
0.0
  3
*D30
  1

  0
LINE
  5
2923
330
19FC
100
AcDbEntity
  8
AM_REFDIM
 62
     5
100
AcDbLine
 10
47.9314711879955
 20
55.44999999999999
 30
0.0
 11
47.9314711879955
 21
33.42309058664392
 31
0.0
  0
LINE
  5
2924
330
19FC
100
AcDbEntity
  8
AM_REFDIM
 62
     5
100
AcDbLine
 10
85.4314711879955
 20
55.69999999999999
 30
0.0
 11
85.4314711879955
 21
33.42309058664392
 31
0.0
  0
LINE
  5
2925
330
19FC
100
AcDbEntity
  8
AM_REFDIM
 62
     5
100
AcDbLine
 10
50.93147118799549
 20
35.42309058664392
 30
0.0
 11
82.4314711879955
 21
35.42309058664392
 31
0.0
  0
SOLID
  5
2926
330
19FC
100
AcDbEntity
  8
AM_REFDIM
 62
     5
100
AcDbTrace
 10
50.93147118799549
 20
35.92309058664392
 30
0.0
 11
50.93147118799549
 21
34.92309058664392
 31
0.0
 12
47.9314711879955
 22
35.42309058664392
 32
0.0
 13
47.9314711879955
 23
35.42309058664392
 33
0.0
  0
SOLID
  5
2927
330
19FC
100
AcDbEntity
  8
AM_REFDIM
 62
     5
100
AcDbTrace
 10
82.4314711879955
 20
35.92309058664392
 30
0.0
 11
82.4314711879955
 21
34.92309058664392
 31
0.0
 12
85.4314711879955
 22
35.42309058664392
 32
0.0
 13
85.4314711879955
 23
35.42309058664392
 33
0.0
  0
MTEXT
  5
2928
330
19FC
100
AcDbEntity
  8
AM_REFDIM
 62
     5
100
AcDbMText
 10
66.6814711879955
 20
37.92309058664392
 30
0.0
 40
3.0
 41
0.0
 71
     5
 72
     1
  1
\A1;37.5
  7
DAYUS
1001
ACAD
1000
MTEXTBEGIN
1070
    73
1070
     1
1070
    44
1040
1.0
1070
    74
1070
     0
1000
MTEXTEND
  0
POINT
  5
2929
330
19FC
100
AcDbEntity
  8
DEFPOINTS
 62
     0
100
AcDbPoint
 10
47.9314711879955
 20
57.44999999999999
 30
0.0
  0
POINT
  5
292A
330
19FC
100
AcDbEntity
  8
DEFPOINTS
 62
     0
100
AcDbPoint
 10
85.4314711879955
 20
57.69999999999999
 30
0.0
  0
POINT
  5
292B
330
19FC
100
AcDbEntity
  8
DEFPOINTS
 62
     0
100
AcDbPoint
 10
85.4314711879955
 20
35.42309058664392
 30
0.0
  0
ENDBLK
  5
1A07
330
19FC
100
AcDbEntity
  8
0
100
AcDbBlockEnd
  0
BLOCK
  5
1ADD
330
1AD1
100
AcDbEntity
  8
0
100
AcDbBlockBegin
  2
*D31
 70
     1
 10
0.0
 20
0.0
 30
0.0
  3
*D31
  1

  0
LINE
  5
2982
330
1AD1
100
AcDbEntity
  8
AM_REFDIM
 62
     5
100
AcDbLine
 10
246.2314711879954
 20
62.5
 30
0.0
 11
265.1705475775995
 21
62.5
 31
0.0
  0
LINE
  5
2983
330
1AD1
100
AcDbEntity
  8
AM_REFDIM
 62
     5
100
AcDbLine
 10
246.2314711879954
 20
57.5
 30
0.0
 11
265.1705475775995
 21
57.5
 31
0.0
  0
LINE
  5
2984
330
1AD1
100
AcDbEntity
  8
AM_REFDIM
 62
     5
100
AcDbLine
 10
263.1705475775995
 20
65.5
 30
0.0
 11
263.1705475775995
 21
68.5
 31
0.0
  0
LINE
  5
2985
330
1AD1
100
AcDbEntity
  8
AM_REFDIM
 62
     5
100
AcDbLine
 10
263.1705475775995
 20
54.5
 30
0.0
 11
263.1705475775995
 21
44.78571428571427
 31
0.0
  0
LINE
  5
2986
330
1AD1
100
AcDbEntity
  8
AM_REFDIM
 62
     5
100
AcDbLine
 10
263.1705475775995
 20
62.5
 30
0.0
 11
263.1705475775995
 21
57.5
 31
0.0
  0
SOLID
  5
2987
330
1AD1
100
AcDbEntity
  8
AM_REFDIM
 62
     5
100
AcDbTrace
 10
262.6705475775995
 20
65.5
 30
0.0
 11
263.6705475775995
 21
65.5
 31
0.0
 12
263.1705475775995
 22
62.5
 32
0.0
 13
263.1705475775995
 23
62.5
 33
0.0
  0
SOLID
  5
2988
330
1AD1
100
AcDbEntity
  8
AM_REFDIM
 62
     5
100
AcDbTrace
 10
262.6705475775995
 20
54.5
 30
0.0
 11
263.6705475775995
 21
54.5
 31
0.0
 12
263.1705475775995
 22
57.5
 32
0.0
 13
263.1705475775995
 23
57.5
 33
0.0
  0
MTEXT
  5
2989
330
1AD1
100
AcDbEntity
  8
AM_REFDIM
 62
     5
100
AcDbMText
 10
260.6705475775995
 20
48.14285714285718
 30
0.0
 40
3.0
 41
0.0
 71
     5
 72
     1
  1
\A1;{\F;%%C5}
  7
DAYUS
 11
0.0000000000000001
 21
1.0
 31
0.0
1001
ACAD
1000
MTEXTBEGIN
1070
    73
1070
     1
1070
    44
1040
1.0
1070
    74
1070
     0
1000
MTEXTEND
  0
POINT
  5
298A
330
1AD1
100
AcDbEntity
  8
DEFPOINTS
 62
     0
100
AcDbPoint
 10
244.2314711879954
 20
62.5
 30
0.0
  0
POINT
  5
298B
330
1AD1
100
AcDbEntity
  8
DEFPOINTS
 62
     0
100
AcDbPoint
 10
244.2314711879954
 20
57.5
 30
0.0
  0
POINT
  5
298C
330
1AD1
100
AcDbEntity
  8
DEFPOINTS
 62
     0
100
AcDbPoint
 10
263.1705475775995
 20
57.5
 30
0.0
  0
ENDBLK
  5
1ADE
330
1AD1
100
AcDbEntity
  8
0
100
AcDbBlockEnd
  0
BLOCK
  5
1AEB
330
1ADF
100
AcDbEntity
  8
0
100
AcDbBlockBegin
  2
*D32
 70
     1
 10
0.0
 20
0.0
 30
0.0
  3
*D32
  1

  0
LINE
  5
2977
330
1ADF
100
AcDbEntity
  8
AM_REFDIM
 62
     5
100
AcDbLine
 10
251.7314711879954
 20
61.69999999999999
 30
0.0
 11
259.419878246692
 21
61.69999999999999
 31
0.0
  0
LINE
  5
2978
330
1ADF
100
AcDbEntity
  8
AM_REFDIM
 62
     5
100
AcDbLine
 10
251.7314711879955
 20
58.30000000000001
 30
0.0
 11
259.419878246692
 21
58.30000000000001
 31
0.0
  0
LINE
  5
2979
330
1ADF
100
AcDbEntity
  8
AM_REFDIM
 62
     5
100
AcDbLine
 10
257.419878246692
 20
64.69999999999998
 30
0.0
 11
257.419878246692
 21
67.69999999999999
 31
0.0
  0
LINE
  5
297A
330
1ADF
100
AcDbEntity
  8
AM_REFDIM
 62
     5
100
AcDbLine
 10
257.419878246692
 20
55.30000000000001
 30
0.0
 11
257.419878246692
 21
41.15714285714287
 31
0.0
  0
LINE
  5
297B
330
1ADF
100
AcDbEntity
  8
AM_REFDIM
 62
     5
100
AcDbLine
 10
257.419878246692
 20
61.69999999999999
 30
0.0
 11
257.419878246692
 21
58.30000000000001
 31
0.0
  0
SOLID
  5
297C
330
1ADF
100
AcDbEntity
  8
AM_REFDIM
 62
     5
100
AcDbTrace
 10
256.919878246692
 20
64.69999999999998
 30
0.0
 11
257.919878246692
 21
64.69999999999998
 31
0.0
 12
257.419878246692
 22
61.69999999999999
 32
0.0
 13
257.419878246692
 23
61.69999999999999
 33
0.0
  0
SOLID
  5
297D
330
1ADF
100
AcDbEntity
  8
AM_REFDIM
 62
     5
100
AcDbTrace
 10
256.919878246692
 20
55.30000000000001
 30
0.0
 11
257.919878246692
 21
55.30000000000001
 31
0.0
 12
257.419878246692
 22
58.30000000000001
 32
0.0
 13
257.419878246692
 23
58.30000000000001
 33
0.0
  0
MTEXT
  5
297E
330
1ADF
100
AcDbEntity
  8
AM_REFDIM
 62
     5
100
AcDbMText
 10
254.919878246692
 20
46.72857142857148
 30
0.0
 40
3.0
 41
0.0
 71
     5
 72
     1
  1
\A1;{\F;%%c3.4}
  7
DAYUS
 11
0.0000000000000001
 21
1.0
 31
0.0
1001
ACAD
1000
MTEXTBEGIN
1070
    73
1070
     1
1070
    44
1040
1.0
1070
    74
1070
     0
1000
MTEXTEND
  0
POINT
  5
297F
330
1ADF
100
AcDbEntity
  8
DEFPOINTS
 62
     0
100
AcDbPoint
 10
249.7314711879954
 20
61.69999999999999
 30
0.0
  0
POINT
  5
2980
330
1ADF
100
AcDbEntity
  8
DEFPOINTS
 62
     0
100
AcDbPoint
 10
249.7314711879955
 20
58.30000000000001
 30
0.0
  0
POINT
  5
2981
330
1ADF
100
AcDbEntity
  8
DEFPOINTS
 62
     0
100
AcDbPoint
 10
257.419878246692
 20
58.30000000000001
 30
0.0
  0
ENDBLK
  5
1AEC
330
1ADF
100
AcDbEntity
  8
0
100
AcDbBlockEnd
  0
BLOCK
  5
1AF9
330
1AED
100
AcDbEntity
  8
0
100
AcDbBlockBegin
  2
*D33
 70
     1
 10
0.0
 20
0.0
 30
0.0
  3
*D33
  1

  0
LINE
  5
2961
330
1AED
100
AcDbEntity
  8
AM_REFDIM
 62
     5
100
AcDbLine
 10
244.4314711879954
 20
55.69999999999999
 30
0.0
 11
244.4314711879954
 21
33.44651191079623
 31
0.0
  0
LINE
  5
2962
330
1AED
100
AcDbEntity
  8
AM_REFDIM
 62
     5
100
AcDbLine
 10
251.9314711879954
 20
57.04999999999998
 30
0.0
 11
251.9314711879954
 21
33.44651191079623
 31
0.0
  0
LINE
  5
2963
330
1AED
100
AcDbEntity
  8
AM_REFDIM
 62
     5
100
AcDbLine
 10
241.4314711879954
 20
35.44651191079623
 30
0.0
 11
238.4314711879954
 21
35.44651191079623
 31
0.0
  0
LINE
  5
2964
330
1AED
100
AcDbEntity
  8
AM_REFDIM
 62
     5
100
AcDbLine
 10
254.9314711879954
 20
35.44651191079623
 30
0.0
 11
266.2171854737097
 21
35.44651191079623
 31
0.0
  0
LINE
  5
2965
330
1AED
100
AcDbEntity
  8
AM_REFDIM
 62
     5
100
AcDbLine
 10
244.4314711879954
 20
35.44651191079623
 30
0.0
 11
251.9314711879954
 21
35.44651191079623
 31
0.0
  0
SOLID
  5
2966
330
1AED
100
AcDbEntity
  8
AM_REFDIM
 62
     5
100
AcDbTrace
 10
241.4314711879954
 20
35.94651191079623
 30
0.0
 11
241.4314711879954
 21
34.94651191079623
 31
0.0
 12
244.4314711879954
 22
35.44651191079623
 32
0.0
 13
244.4314711879954
 23
35.44651191079623
 33
0.0
  0
SOLID
  5
2967
330
1AED
100
AcDbEntity
  8
AM_REFDIM
 62
     5
100
AcDbTrace
 10
254.9314711879954
 20
35.94651191079623
 30
0.0
 11
254.9314711879954
 21
34.94651191079623
 31
0.0
 12
251.9314711879954
 22
35.44651191079623
 32
0.0
 13
251.9314711879954
 23
35.44651191079623
 33
0.0
  0
MTEXT
  5
2968
330
1AED
100
AcDbEntity
  8
AM_REFDIM
 62
     5
100
AcDbMText
 10
262.0743283308526
 20
37.94651191079623
 30
0.0
 40
3.0
 41
0.0
 71
     5
 72
     1
  1
\A1;7.5
  7
DAYUS
1001
ACAD
1000
MTEXTBEGIN
1070
    73
1070
     1
1070
    44
1040
1.0
1070
    74
1070
     0
1000
MTEXTEND
  0
POINT
  5
2969
330
1AED
100
AcDbEntity
  8
DEFPOINTS
 62
     0
100
AcDbPoint
 10
244.4314711879954
 20
57.69999999999999
 30
0.0
  0
POINT
  5
296A
330
1AED
100
AcDbEntity
  8
DEFPOINTS
 62
     0
100
AcDbPoint
 10
251.9314711879954
 20
59.04999999999998
 30
0.0
  0
POINT
  5
296B
330
1AED
100
AcDbEntity
  8
DEFPOINTS
 62
     0
100
AcDbPoint
 10
251.9314711879954
 20
35.44651191079623
 30
0.0
  0
ENDBLK
  5
1AFA
330
1AED
100
AcDbEntity
  8
0
100
AcDbBlockEnd
  0
BLOCK
  5
1B05
330
1AFB
100
AcDbEntity
  8
0
100
AcDbBlockBegin
  2
*D34
 70
     1
 10
0.0
 20
0.0
 30
0.0
  3
*D34
  1

  0
LINE
  5
2958
330
1AFB
100
AcDbEntity
  8
AM_REFDIM
 62
     5
100
AcDbLine
 10
184.9314711879955
 20
57.25
 30
0.0
 11
184.9314711879955
 21
33.44651191079623
 31
0.0
  0
LINE
  5
2959
330
1AFB
100
AcDbEntity
  8
AM_REFDIM
 62
     5
100
AcDbLine
 10
197.9314711879954
 20
55.44999999999999
 30
0.0
 11
197.9314711879954
 21
33.44651191079623
 31
0.0
  0
LINE
  5
295A
330
1AFB
100
AcDbEntity
  8
AM_REFDIM
 62
     5
100
AcDbLine
 10
187.9314711879954
 20
35.44651191079623
 30
0.0
 11
194.9314711879954
 21
35.44651191079623
 31
0.0
  0
SOLID
  5
295B
330
1AFB
100
AcDbEntity
  8
AM_REFDIM
 62
     5
100
AcDbTrace
 10
187.9314711879954
 20
35.94651191079623
 30
0.0
 11
187.9314711879954
 21
34.94651191079623
 31
0.0
 12
184.9314711879955
 22
35.44651191079623
 32
0.0
 13
184.9314711879955
 23
35.44651191079623
 33
0.0
  0
SOLID
  5
295C
330
1AFB
100
AcDbEntity
  8
AM_REFDIM
 62
     5
100
AcDbTrace
 10
194.9314711879954
 20
35.94651191079623
 30
0.0
 11
194.9314711879954
 21
34.94651191079623
 31
0.0
 12
197.9314711879954
 22
35.44651191079623
 32
0.0
 13
197.9314711879954
 23
35.44651191079623
 33
0.0
  0
MTEXT
  5
295D
330
1AFB
100
AcDbEntity
  8
AM_REFDIM
 62
     5
100
AcDbMText
 10
191.4314711879955
 20
37.94651191079623
 30
0.0
 40
3.0
 41
0.0
 71
     5
 72
     1
  1
\A1;13
  7
DAYUS
1001
ACAD
1000
MTEXTBEGIN
1070
    73
1070
     1
1070
    44
1040
1.0
1070
    74
1070
     0
1000
MTEXTEND
  0
POINT
  5
295E
330
1AFB
100
AcDbEntity
  8
DEFPOINTS
 62
     0
100
AcDbPoint
 10
184.9314711879955
 20
59.25
 30
0.0
  0
POINT
  5
295F
330
1AFB
100
AcDbEntity
  8
DEFPOINTS
 62
     0
100
AcDbPoint
 10
197.9314711879954
 20
57.44999999999999
 30
0.0
  0
POINT
  5
2960
330
1AFB
100
AcDbEntity
  8
DEFPOINTS
 62
     0
100
AcDbPoint
 10
197.9314711879954
 20
35.44651191079623
 30
0.0
  0
ENDBLK
  5
1B06
330
1AFB
100
AcDbEntity
  8
0
100
AcDbBlockEnd
  0
BLOCK
  5
1B13
330
1B07
100
AcDbEntity
  8
0
100
AcDbBlockBegin
  2
*D35
 70
     1
 10
0.0
 20
0.0
 30
0.0
  3
*D35
  1

  0
LINE
  5
296C
330
1B07
100
AcDbEntity
  8
AM_REFDIM
 62
     5
100
AcDbLine
 10
201.7314711879955
 20
62.74999999999999
 30
0.0
 11
211.1958021207592
 21
62.74999999999998
 31
0.0
  0
LINE
  5
296D
330
1B07
100
AcDbEntity
  8
AM_REFDIM
 62
     5
100
AcDbLine
 10
201.7314711879955
 20
57.25
 30
0.0
 11
211.1958021207592
 21
57.24999999999999
 31
0.0
  0
LINE
  5
296E
330
1B07
100
AcDbEntity
  8
AM_REFDIM
 62
     5
100
AcDbLine
 10
209.1958021207592
 20
65.74999999999999
 30
0.0
 11
209.1958021207592
 21
68.74999999999999
 31
0.0
  0
LINE
  5
296F
330
1B07
100
AcDbEntity
  8
AM_REFDIM
 62
     5
100
AcDbLine
 10
209.1958021207592
 20
54.24999999999999
 30
0.0
 11
209.1958021207592
 21
40.24999999999999
 31
0.0
  0
LINE
  5
2970
330
1B07
100
AcDbEntity
  8
AM_REFDIM
 62
     5
100
AcDbLine
 10
209.1958021207592
 20
62.74999999999998
 30
0.0
 11
209.1958021207592
 21
57.24999999999999
 31
0.0
  0
SOLID
  5
2971
330
1B07
100
AcDbEntity
  8
AM_REFDIM
 62
     5
100
AcDbTrace
 10
208.6958021207592
 20
65.74999999999999
 30
0.0
 11
209.6958021207592
 21
65.74999999999999
 31
0.0
 12
209.1958021207592
 22
62.74999999999998
 32
0.0
 13
209.1958021207592
 23
62.74999999999998
 33
0.0
  0
SOLID
  5
2972
330
1B07
100
AcDbEntity
  8
AM_REFDIM
 62
     5
100
AcDbTrace
 10
208.6958021207592
 20
54.24999999999999
 30
0.0
 11
209.6958021207592
 21
54.24999999999999
 31
0.0
 12
209.1958021207592
 22
57.24999999999999
 32
0.0
 13
209.1958021207592
 23
57.24999999999999
 33
0.0
  0
MTEXT
  5
2973
330
1B07
100
AcDbEntity
  8
AM_REFDIM
 62
     5
100
AcDbMText
 10
206.6958021207592
 20
45.75000000000002
 30
0.0
 40
3.0
 41
0.0
 71
     5
 72
     1
  1
\A1;{\F;%%c5.5}
  7
DAYUS
 11
0.0000000000000001
 21
1.0
 31
0.0
1001
ACAD
1000
MTEXTBEGIN
1070
    73
1070
     1
1070
    44
1040
1.0
1070
    74
1070
     0
1000
MTEXTEND
  0
POINT
  5
2974
330
1B07
100
AcDbEntity
  8
DEFPOINTS
 62
     0
100
AcDbPoint
 10
199.7314711879955
 20
62.74999999999999
 30
0.0
  0
POINT
  5
2975
330
1B07
100
AcDbEntity
  8
DEFPOINTS
 62
     0
100
AcDbPoint
 10
199.7314711879955
 20
57.25
 30
0.0
  0
POINT
  5
2976
330
1B07
100
AcDbEntity
  8
DEFPOINTS
 62
     0
100
AcDbPoint
 10
209.1958021207592
 20
57.24999999999999
 30
0.0
  0
ENDBLK
  5
1B14
330
1B07
100
AcDbEntity
  8
0
100
AcDbBlockEnd
  0
BLOCK
  5
1B21
330
1B15
100
AcDbEntity
  8
0
100
AcDbBlockBegin
  2
*D36
 70
     1
 10
0.0
 20
0.0
 30
0.0
  3
*D36
  1

  0
LINE
  5
294D
330
1B15
100
AcDbEntity
  8
AM_REFDIM
 62
     5
100
AcDbLine
 10
191.9314711879954
 20
56.32499999999999
 30
0.0
 11
191.9314711879954
 21
44.16083686134379
 31
0.0
  0
LINE
  5
294E
330
1B15
100
AcDbEntity
  8
AM_REFDIM
 62
     5
100
AcDbLine
 10
197.9314711879954
 20
55.44999999999999
 30
0.0
 11
197.9314711879954
 21
44.16083686134379
 31
0.0
  0
LINE
  5
294F
330
1B15
100
AcDbEntity
  8
AM_REFDIM
 62
     5
100
AcDbLine
 10
188.9314711879954
 20
46.1608368613438
 30
0.0
 11
185.9314711879955
 21
46.1608368613438
 31
0.0
  0
LINE
  5
2950
330
1B15
100
AcDbEntity
  8
AM_REFDIM
 62
     5
100
AcDbLine
 10
200.9314711879954
 20
46.1608368613438
 30
0.0
 11
203.9314711879954
 21
46.1608368613438
 31
0.0
  0
LINE
  5
2951
330
1B15
100
AcDbEntity
  8
AM_REFDIM
 62
     5
100
AcDbLine
 10
191.9314711879954
 20
46.1608368613438
 30
0.0
 11
197.9314711879954
 21
46.1608368613438
 31
0.0
  0
SOLID
  5
2952
330
1B15
100
AcDbEntity
  8
AM_REFDIM
 62
     5
100
AcDbTrace
 10
188.9314711879954
 20
46.66083686134379
 30
0.0
 11
188.9314711879954
 21
45.66083686134379
 31
0.0
 12
191.9314711879954
 22
46.1608368613438
 32
0.0
 13
191.9314711879954
 23
46.1608368613438
 33
0.0
  0
SOLID
  5
2953
330
1B15
100
AcDbEntity
  8
AM_REFDIM
 62
     5
100
AcDbTrace
 10
200.9314711879954
 20
46.66083686134379
 30
0.0
 11
200.9314711879954
 21
45.66083686134379
 31
0.0
 12
197.9314711879954
 22
46.1608368613438
 32
0.0
 13
197.9314711879954
 23
46.1608368613438
 33
0.0
  0
MTEXT
  5
2954
330
1B15
100
AcDbEntity
  8
AM_REFDIM
 62
     5
100
AcDbMText
 10
194.9314711879955
 20
48.6608368613438
 30
0.0
 40
3.0
 41
0.0
 71
     5
 72
     1
  1
\A1;6
  7
DAYUS
1001
ACAD
1000
MTEXTBEGIN
1070
    73
1070
     1
1070
    44
1040
1.0
1070
    74
1070
     0
1000
MTEXTEND
  0
POINT
  5
2955
330
1B15
100
AcDbEntity
  8
DEFPOINTS
 62
     0
100
AcDbPoint
 10
191.9314711879954
 20
58.32499999999999
 30
0.0
  0
POINT
  5
2956
330
1B15
100
AcDbEntity
  8
DEFPOINTS
 62
     0
100
AcDbPoint
 10
197.9314711879954
 20
57.44999999999999
 30
0.0
  0
POINT
  5
2957
330
1B15
100
AcDbEntity
  8
DEFPOINTS
 62
     0
100
AcDbPoint
 10
197.9314711879954
 20
46.1608368613438
 30
0.0
  0
ENDBLK
  5
1B22
330
1B15
100
AcDbEntity
  8
0
100
AcDbBlockEnd
  0
BLOCK
  5
1B2F
330
1B23
100
AcDbEntity
  8
0
100
AcDbBlockBegin
  2
*D37
 70
     1
 10
0.0
 20
0.0
 30
0.0
  3
*D37
  1

  0
LINE
  5
2942
330
1B23
100
AcDbEntity
  8
AM_REFDIM
 62
     5
100
AcDbLine
 10
184.9314711879955
 20
57.25
 30
0.0
 11
184.9314711879955
 21
49.39605595342363
 31
0.0
  0
LINE
  5
2943
330
1B23
100
AcDbEntity
  8
AM_REFDIM
 62
     5
100
AcDbLine
 10
190.9314711879954
 20
57.05000000000001
 30
0.0
 11
190.9314711879954
 21
49.39605595342363
 31
0.0
  0
LINE
  5
2944
330
1B23
100
AcDbEntity
  8
AM_REFDIM
 62
     5
100
AcDbLine
 10
181.9314711879955
 20
51.39605595342363
 30
0.0
 11
178.9314711879955
 21
51.39605595342363
 31
0.0
  0
LINE
  5
2945
330
1B23
100
AcDbEntity
  8
AM_REFDIM
 62
     5
100
AcDbLine
 10
193.9314711879955
 20
51.39605595342363
 30
0.0
 11
196.9314711879954
 21
51.39605595342363
 31
0.0
  0
LINE
  5
2946
330
1B23
100
AcDbEntity
  8
AM_REFDIM
 62
     5
100
AcDbLine
 10
184.9314711879955
 20
51.39605595342363
 30
0.0
 11
190.9314711879954
 21
51.39605595342363
 31
0.0
  0
SOLID
  5
2947
330
1B23
100
AcDbEntity
  8
AM_REFDIM
 62
     5
100
AcDbTrace
 10
181.9314711879955
 20
51.89605595342363
 30
0.0
 11
181.9314711879955
 21
50.89605595342362
 31
0.0
 12
184.9314711879955
 22
51.39605595342363
 32
0.0
 13
184.9314711879955
 23
51.39605595342363
 33
0.0
  0
SOLID
  5
2948
330
1B23
100
AcDbEntity
  8
AM_REFDIM
 62
     5
100
AcDbTrace
 10
193.9314711879955
 20
51.89605595342363
 30
0.0
 11
193.9314711879955
 21
50.89605595342362
 31
0.0
 12
190.9314711879954
 22
51.39605595342363
 32
0.0
 13
190.9314711879954
 23
51.39605595342363
 33
0.0
  0
MTEXT
  5
2949
330
1B23
100
AcDbEntity
  8
AM_REFDIM
 62
     5
100
AcDbMText
 10
187.9314711879954
 20
53.89605595342363
 30
0.0
 40
3.0
 41
0.0
 71
     5
 72
     1
  1
\A1;6
  7
DAYUS
1001
ACAD
1000
MTEXTBEGIN
1070
    73
1070
     1
1070
    44
1040
1.0
1070
    74
1070
     0
1000
MTEXTEND
  0
POINT
  5
294A
330
1B23
100
AcDbEntity
  8
DEFPOINTS
 62
     0
100
AcDbPoint
 10
184.9314711879955
 20
59.25
 30
0.0
  0
POINT
  5
294B
330
1B23
100
AcDbEntity
  8
DEFPOINTS
 62
     0
100
AcDbPoint
 10
190.9314711879954
 20
59.05000000000001
 30
0.0
  0
POINT
  5
294C
330
1B23
100
AcDbEntity
  8
DEFPOINTS
 62
     0
100
AcDbPoint
 10
190.9314711879954
 20
51.39605595342363
 30
0.0
  0
ENDBLK
  5
1B30
330
1B23
100
AcDbEntity
  8
0
100
AcDbBlockEnd
  0
BLOCK
  5
1B3D
330
1B31
100
AcDbEntity
  8
0
100
AcDbBlockBegin
  2
*D38
 70
     1
 10
0.0
 20
0.0
 30
0.0
  3
*D38
  1

  0
LINE
  5
2937
330
1B31
100
AcDbEntity
  8
AM_REFDIM
 62
     5
100
AcDbLine
 10
193.5314711879955
 20
64.40000000000001
 30
0.0
 11
193.5314711879955
 21
78.99077106373074
 31
0.0
  0
LINE
  5
2938
330
1B31
100
AcDbEntity
  8
AM_REFDIM
 62
     5
100
AcDbLine
 10
195.9314711879954
 20
64.39999999999997
 30
0.0
 11
195.9314711879954
 21
78.99077106373074
 31
0.0
  0
LINE
  5
2939
330
1B31
100
AcDbEntity
  8
AM_REFDIM
 62
     5
100
AcDbLine
 10
190.5314711879955
 20
76.99077106373073
 30
0.0
 11
187.5314711879955
 21
76.99077106373073
 31
0.0
  0
LINE
  5
293A
330
1B31
100
AcDbEntity
  8
AM_REFDIM
 62
     5
100
AcDbLine
 10
198.9314711879954
 20
76.99077106373073
 30
0.0
 11
210.3600426165669
 21
76.99077106373073
 31
0.0
  0
LINE
  5
293B
330
1B31
100
AcDbEntity
  8
AM_REFDIM
 62
     5
100
AcDbLine
 10
193.5314711879955
 20
76.99077106373073
 30
0.0
 11
195.9314711879954
 21
76.99077106373073
 31
0.0
  0
SOLID
  5
293C
330
1B31
100
AcDbEntity
  8
AM_REFDIM
 62
     5
100
AcDbTrace
 10
190.5314711879955
 20
77.49077106373073
 30
0.0
 11
190.5314711879955
 21
76.49077106373074
 31
0.0
 12
193.5314711879955
 22
76.99077106373073
 32
0.0
 13
193.5314711879955
 23
76.99077106373073
 33
0.0
  0
SOLID
  5
293D
330
1B31
100
AcDbEntity
  8
AM_REFDIM
 62
     5
100
AcDbTrace
 10
198.9314711879954
 20
77.49077106373073
 30
0.0
 11
198.9314711879954
 21
76.49077106373074
 31
0.0
 12
195.9314711879954
 22
76.99077106373073
 32
0.0
 13
195.9314711879954
 23
76.99077106373073
 33
0.0
  0
MTEXT
  5
293E
330
1B31
100
AcDbEntity
  8
AM_REFDIM
 62
     5
100
AcDbMText
 10
206.1457569022811
 20
79.49077106373073
 30
0.0
 40
3.0
 41
0.0
 71
     5
 72
     1
  1
\A1;2.4
  7
DAYUS
1001
ACAD
1000
MTEXTBEGIN
1070
    73
1070
     1
1070
    44
1040
1.0
1070
    74
1070
     0
1000
MTEXTEND
  0
POINT
  5
293F
330
1B31
100
AcDbEntity
  8
DEFPOINTS
 62
     0
100
AcDbPoint
 10
193.5314711879955
 20
62.40000000000001
 30
0.0
  0
POINT
  5
2940
330
1B31
100
AcDbEntity
  8
DEFPOINTS
 62
     0
100
AcDbPoint
 10
195.9314711879954
 20
62.39999999999998
 30
0.0
  0
POINT
  5
2941
330
1B31
100
AcDbEntity
  8
DEFPOINTS
 62
     0
100
AcDbPoint
 10
195.9314711879954
 20
76.99077106373073
 30
0.0
  0
ENDBLK
  5
1B3E
330
1B31
100
AcDbEntity
  8
0
100
AcDbBlockEnd
  0
BLOCK
  5
1B4B
330
1B3F
100
AcDbEntity
  8
0
100
AcDbBlockBegin
  2
*D39
 70
     1
 10
0.0
 20
0.0
 30
0.0
  3
*D39
  1

  0
LINE
  5
292C
330
1B3F
100
AcDbEntity
  8
AM_REFDIM
 62
     5
100
AcDbLine
 10
186.9314711879955
 20
63.89999999999997
 30
0.0
 11
186.9314711879955
 21
72.23309422894402
 31
0.0
  0
LINE
  5
292D
330
1B3F
100
AcDbEntity
  8
AM_REFDIM
 62
     5
100
AcDbLine
 10
188.5314711879955
 20
63.89999999999997
 30
0.0
 11
188.5314711879955
 21
72.23309422894402
 31
0.0
  0
LINE
  5
292E
330
1B3F
100
AcDbEntity
  8
AM_REFDIM
 62
     5
100
AcDbLine
 10
183.9314711879955
 20
70.23309422894403
 30
0.0
 11
180.9314711879954
 21
70.23309422894403
 31
0.0
  0
LINE
  5
292F
330
1B3F
100
AcDbEntity
  8
AM_REFDIM
 62
     5
100
AcDbLine
 10
191.5314711879955
 20
70.23309422894403
 30
0.0
 11
202.1028997594241
 21
70.23309422894403
 31
0.0
  0
LINE
  5
2930
330
1B3F
100
AcDbEntity
  8
AM_REFDIM
 62
     5
100
AcDbLine
 10
186.9314711879955
 20
70.23309422894403
 30
0.0
 11
188.5314711879955
 21
70.23309422894403
 31
0.0
  0
SOLID
  5
2931
330
1B3F
100
AcDbEntity
  8
AM_REFDIM
 62
     5
100
AcDbTrace
 10
183.9314711879955
 20
70.73309422894403
 30
0.0
 11
183.9314711879955
 21
69.73309422894402
 31
0.0
 12
186.9314711879955
 22
70.23309422894403
 32
0.0
 13
186.9314711879955
 23
70.23309422894403
 33
0.0
  0
SOLID
  5
2932
330
1B3F
100
AcDbEntity
  8
AM_REFDIM
 62
     5
100
AcDbTrace
 10
191.5314711879955
 20
70.73309422894403
 30
0.0
 11
191.5314711879955
 21
69.73309422894402
 31
0.0
 12
188.5314711879955
 22
70.23309422894403
 32
0.0
 13
188.5314711879955
 23
70.23309422894403
 33
0.0
  0
MTEXT
  5
2933
330
1B3F
100
AcDbEntity
  8
AM_REFDIM
 62
     5
100
AcDbMText
 10
198.3171854737097
 20
72.73309422894403
 30
0.0
 40
3.0
 41
0.0
 71
     5
 72
     1
  1
\A1;1.6
  7
DAYUS
1001
ACAD
1000
MTEXTBEGIN
1070
    73
1070
     1
1070
    44
1040
1.0
1070
    74
1070
     0
1000
MTEXTEND
  0
POINT
  5
2934
330
1B3F
100
AcDbEntity
  8
DEFPOINTS
 62
     0
100
AcDbPoint
 10
186.9314711879955
 20
61.89999999999997
 30
0.0
  0
POINT
  5
2935
330
1B3F
100
AcDbEntity
  8
DEFPOINTS
 62
     0
100
AcDbPoint
 10
188.5314711879955
 20
61.89999999999997
 30
0.0
  0
POINT
  5
2936
330
1B3F
100
AcDbEntity
  8
DEFPOINTS
 62
     0
100
AcDbPoint
 10
188.5314711879955
 20
70.23309422894403
 30
0.0
  0
ENDBLK
  5
1B4C
330
1B3F
100
AcDbEntity
  8
0
100
AcDbBlockEnd
  0
BLOCK
  5
1BEF
330
1BE5
100
AcDbEntity
  8
0
100
AcDbBlockBegin
  2
*D40
 70
     1
 10
0.0
 20
0.0
 30
0.0
  3
*D40
  1

  0
LINE
  5
298D
330
1BE5
100
AcDbEntity
  8
AM_REFDIM
 62
     5
100
AcDbLine
 10
197.9314711879954
 20
55.44999999999999
 30
0.0
 11
197.9314711879954
 21
33.44651191079623
 31
0.0
  0
LINE
  5
298E
330
1BE5
100
AcDbEntity
  8
AM_REFDIM
 62
     5
100
AcDbLine
 10
244.4314711879954
 20
55.69999999999999
 30
0.0
 11
244.4314711879954
 21
33.44651191079623
 31
0.0
  0
LINE
  5
298F
330
1BE5
100
AcDbEntity
  8
AM_REFDIM
 62
     5
100
AcDbLine
 10
200.9314711879954
 20
35.44651191079623
 30
0.0
 11
241.4314711879954
 21
35.44651191079623
 31
0.0
  0
SOLID
  5
2990
330
1BE5
100
AcDbEntity
  8
AM_REFDIM
 62
     5
100
AcDbTrace
 10
200.9314711879954
 20
35.94651191079623
 30
0.0
 11
200.9314711879954
 21
34.94651191079623
 31
0.0
 12
197.9314711879954
 22
35.44651191079623
 32
0.0
 13
197.9314711879954
 23
35.44651191079623
 33
0.0
  0
SOLID
  5
2991
330
1BE5
100
AcDbEntity
  8
AM_REFDIM
 62
     5
100
AcDbTrace
 10
241.4314711879954
 20
35.94651191079623
 30
0.0
 11
241.4314711879954
 21
34.94651191079623
 31
0.0
 12
244.4314711879954
 22
35.44651191079623
 32
0.0
 13
244.4314711879954
 23
35.44651191079623
 33
0.0
  0
MTEXT
  5
2992
330
1BE5
100
AcDbEntity
  8
AM_REFDIM
 62
     5
100
AcDbMText
 10
221.1814711879954
 20
37.94651191079623
 30
0.0
 40
3.0
 41
0.0
 71
     5
 72
     1
  1
\A1;46.5
  7
DAYUS
1001
ACAD
1000
MTEXTBEGIN
1070
    73
1070
     1
1070
    44
1040
1.0
1070
    74
1070
     0
1000
MTEXTEND
  0
POINT
  5
2993
330
1BE5
100
AcDbEntity
  8
DEFPOINTS
 62
     0
100
AcDbPoint
 10
197.9314711879954
 20
57.44999999999999
 30
0.0
  0
POINT
  5
2994
330
1BE5
100
AcDbEntity
  8
DEFPOINTS
 62
     0
100
AcDbPoint
 10
244.4314711879954
 20
57.69999999999999
 30
0.0
  0
POINT
  5
2995
330
1BE5
100
AcDbEntity
  8
DEFPOINTS
 62
     0
100
AcDbPoint
 10
244.4314711879954
 20
35.44651191079623
 30
0.0
  0
ENDBLK
  5
1BF0
330
1BE5
100
AcDbEntity
  8
0
100
AcDbBlockEnd
  0
BLOCK
  5
1BFC
330
1BF2
100
AcDbEntity
  8
0
100
AcDbBlockBegin
  2
*D41
 70
     1
 10
0.0
 20
0.0
 30
0.0
  3
*D41
  1

  0
LINE
  5
2996
330
1BF2
100
AcDbEntity
  8
AM_REFDIM
 62
     5
100
AcDbLine
 10
44.72521683902712
 20
166.8220815248401
 30
0.0
 11
44.72521683902712
 21
133.7475176034778
 31
0.0
  0
LINE
  5
2997
330
1BF2
100
AcDbEntity
  8
AM_REFDIM
 62
     5
100
AcDbLine
 10
84.7252168390271
 20
166.6220815248401
 30
0.0
 11
84.7252168390271
 21
133.7475176034778
 31
0.0
  0
LINE
  5
2998
330
1BF2
100
AcDbEntity
  8
AM_REFDIM
 62
     5
100
AcDbLine
 10
47.72521683902712
 20
135.7475176034778
 30
0.0
 11
81.7252168390271
 21
135.7475176034778
 31
0.0
  0
SOLID
  5
2999
330
1BF2
100
AcDbEntity
  8
AM_REFDIM
 62
     5
100
AcDbTrace
 10
47.72521683902712
 20
136.2475176034778
 30
0.0
 11
47.72521683902712
 21
135.2475176034778
 31
0.0
 12
44.72521683902712
 22
135.7475176034778
 32
0.0
 13
44.72521683902712
 23
135.7475176034778
 33
0.0
  0
SOLID
  5
299A
330
1BF2
100
AcDbEntity
  8
AM_REFDIM
 62
     5
100
AcDbTrace
 10
81.7252168390271
 20
136.2475176034778
 30
0.0
 11
81.7252168390271
 21
135.2475176034778
 31
0.0
 12
84.7252168390271
 22
135.7475176034778
 32
0.0
 13
84.7252168390271
 23
135.7475176034778
 33
0.0
  0
MTEXT
  5
299B
330
1BF2
100
AcDbEntity
  8
AM_REFDIM
 62
     5
100
AcDbMText
 10
64.72521683902711
 20
138.2475176034778
 30
0.0
 40
3.0
 41
0.0
 71
     5
 72
     1
  1
\A1;40
  7
DAYUS
1001
ACAD
1000
MTEXTBEGIN
1070
    73
1070
     1
1070
    44
1040
1.0
1070
    74
1070
     0
1000
MTEXTEND
  0
POINT
  5
299C
330
1BF2
100
AcDbEntity
  8
DEFPOINTS
 62
     0
100
AcDbPoint
 10
44.72521683902712
 20
168.8220815248401
 30
0.0
  0
POINT
  5
299D
330
1BF2
100
AcDbEntity
  8
DEFPOINTS
 62
     0
100
AcDbPoint
 10
84.7252168390271
 20
168.6220815248401
 30
0.0
  0
POINT
  5
299E
330
1BF2
100
AcDbEntity
  8
DEFPOINTS
 62
     0
100
AcDbPoint
 10
84.7252168390271
 20
135.7475176034778
 30
0.0
  0
ENDBLK
  5
1BFD
330
1BF2
100
AcDbEntity
  8
0
100
AcDbBlockEnd
  0
BLOCK
  5
1C09
330
1BFF
100
AcDbEntity
  8
0
100
AcDbBlockBegin
  2
*D42
 70
     1
 10
0.0
 20
0.0
 30
0.0
  3
*D42
  1

  0
LINE
  5
299F
330
1BFF
100
AcDbEntity
  8
AM_REFDIM
 62
     5
100
AcDbLine
 10
194.9314711879955
 20
167.25
 30
0.0
 11
194.9314711879955
 21
136.6539056708285
 31
0.0
  0
LINE
  5
29A0
330
1BFF
100
AcDbEntity
  8
AM_REFDIM
 62
     5
100
AcDbLine
 10
243.9314711879954
 20
167.0499999999999
 30
0.0
 11
243.9314711879954
 21
136.6539056708285
 31
0.0
  0
LINE
  5
29A1
330
1BFF
100
AcDbEntity
  8
AM_REFDIM
 62
     5
100
AcDbLine
 10
197.9314711879954
 20
138.6539056708285
 30
0.0
 11
240.9314711879955
 21
138.6539056708285
 31
0.0
  0
SOLID
  5
29A2
330
1BFF
100
AcDbEntity
  8
AM_REFDIM
 62
     5
100
AcDbTrace
 10
197.9314711879954
 20
139.1539056708285
 30
0.0
 11
197.9314711879954
 21
138.1539056708285
 31
0.0
 12
194.9314711879955
 22
138.6539056708285
 32
0.0
 13
194.9314711879955
 23
138.6539056708285
 33
0.0
  0
SOLID
  5
29A3
330
1BFF
100
AcDbEntity
  8
AM_REFDIM
 62
     5
100
AcDbTrace
 10
240.9314711879955
 20
139.1539056708285
 30
0.0
 11
240.9314711879955
 21
138.1539056708285
 31
0.0
 12
243.9314711879954
 22
138.6539056708285
 32
0.0
 13
243.9314711879954
 23
138.6539056708285
 33
0.0
  0
MTEXT
  5
29A4
330
1BFF
100
AcDbEntity
  8
AM_REFDIM
 62
     5
100
AcDbMText
 10
219.4314711879954
 20
141.1539056708285
 30
0.0
 40
3.0
 41
0.0
 71
     5
 72
     1
  1
\A1;49
  7
DAYUS
1001
ACAD
1000
MTEXTBEGIN
1070
    73
1070
     1
1070
    44
1040
1.0
1070
    74
1070
     0
1000
MTEXTEND
  0
POINT
  5
29A5
330
1BFF
100
AcDbEntity
  8
DEFPOINTS
 62
     0
100
AcDbPoint
 10
194.9314711879955
 20
169.25
 30
0.0
  0
POINT
  5
29A6
330
1BFF
100
AcDbEntity
  8
DEFPOINTS
 62
     0
100
AcDbPoint
 10
243.9314711879954
 20
169.0499999999999
 30
0.0
  0
POINT
  5
29A7
330
1BFF
100
AcDbEntity
  8
DEFPOINTS
 62
     0
100
AcDbPoint
 10
243.9314711879954
 20
138.6539056708285
 30
0.0
  0
ENDBLK
  5
1C0A
330
1BFF
100
AcDbEntity
  8
0
100
AcDbBlockEnd
  0
BLOCK
  5
1C16
330
1C0C
100
AcDbEntity
  8
0
100
AcDbBlockBegin
  2
*D43
 70
     1
 10
0.0
 20
0.0
 30
0.0
  3
*D43
  1

  0
LINE
  5
29A8
330
1C0C
100
AcDbEntity
  8
AM_REFDIM
 62
     5
100
AcDbLine
 10
34.9314711879955
 20
57.25
 30
0.0
 11
34.9314711879955
 21
26.02659713196231
 31
0.0
  0
LINE
  5
29A9
330
1C0C
100
AcDbEntity
  8
AM_REFDIM
 62
     5
100
AcDbLine
 10
92.9314711879955
 20
57.04999999999998
 30
0.0
 11
92.9314711879955
 21
26.02659713196231
 31
0.0
  0
LINE
  5
29AA
330
1C0C
100
AcDbEntity
  8
AM_REFDIM
 62
     5
100
AcDbLine
 10
37.9314711879955
 20
28.02659713196232
 30
0.0
 11
89.9314711879955
 21
28.02659713196232
 31
0.0
  0
SOLID
  5
29AB
330
1C0C
100
AcDbEntity
  8
AM_REFDIM
 62
     5
100
AcDbTrace
 10
37.9314711879955
 20
28.52659713196231
 30
0.0
 11
37.9314711879955
 21
27.52659713196232
 31
0.0
 12
34.9314711879955
 22
28.02659713196232
 32
0.0
 13
34.9314711879955
 23
28.02659713196232
 33
0.0
  0
SOLID
  5
29AC
330
1C0C
100
AcDbEntity
  8
AM_REFDIM
 62
     5
100
AcDbTrace
 10
89.9314711879955
 20
28.52659713196231
 30
0.0
 11
89.9314711879955
 21
27.52659713196232
 31
0.0
 12
92.9314711879955
 22
28.02659713196232
 32
0.0
 13
92.9314711879955
 23
28.02659713196232
 33
0.0
  0
MTEXT
  5
29AD
330
1C0C
100
AcDbEntity
  8
AM_REFDIM
 62
     5
100
AcDbMText
 10
63.9314711879955
 20
30.52659713196232
 30
0.0
 40
3.0
 41
0.0
 71
     5
 72
     1
  1
\A1;58
  7
DAYUS
1001
ACAD
1000
MTEXTBEGIN
1070
    73
1070
     1
1070
    44
1040
1.0
1070
    74
1070
     0
1000
MTEXTEND
  0
POINT
  5
29AE
330
1C0C
100
AcDbEntity
  8
DEFPOINTS
 62
     0
100
AcDbPoint
 10
34.9314711879955
 20
59.25
 30
0.0
  0
POINT
  5
29AF
330
1C0C
100
AcDbEntity
  8
DEFPOINTS
 62
     0
100
AcDbPoint
 10
92.9314711879955
 20
59.04999999999998
 30
0.0
  0
POINT
  5
29B0
330
1C0C
100
AcDbEntity
  8
DEFPOINTS
 62
     0
100
AcDbPoint
 10
92.9314711879955
 20
28.02659713196232
 30
0.0
  0
ENDBLK
  5
1C17
330
1C0C
100
AcDbEntity
  8
0
100
AcDbBlockEnd
  0
BLOCK
  5
1C23
330
1C19
100
AcDbEntity
  8
0
100
AcDbBlockBegin
  2
*D44
 70
     1
 10
0.0
 20
0.0
 30
0.0
  3
*D44
  1

  0
LINE
  5
29B1
330
1C19
100
AcDbEntity
  8
AM_REFDIM
 62
     5
100
AcDbLine
 10
184.9314711879955
 20
57.25
 30
0.0
 11
184.9314711879955
 21
27.19532457629611
 31
0.0
  0
LINE
  5
29B2
330
1C19
100
AcDbEntity
  8
AM_REFDIM
 62
     5
100
AcDbLine
 10
251.9314711879954
 20
57.04999999999998
 30
0.0
 11
251.9314711879954
 21
27.19532457629611
 31
0.0
  0
LINE
  5
29B3
330
1C19
100
AcDbEntity
  8
AM_REFDIM
 62
     5
100
AcDbLine
 10
187.9314711879954
 20
29.19532457629611
 30
0.0
 11
248.9314711879954
 21
29.19532457629611
 31
0.0
  0
SOLID
  5
29B4
330
1C19
100
AcDbEntity
  8
AM_REFDIM
 62
     5
100
AcDbTrace
 10
187.9314711879954
 20
29.69532457629611
 30
0.0
 11
187.9314711879954
 21
28.69532457629611
 31
0.0
 12
184.9314711879955
 22
29.19532457629611
 32
0.0
 13
184.9314711879955
 23
29.19532457629611
 33
0.0
  0
SOLID
  5
29B5
330
1C19
100
AcDbEntity
  8
AM_REFDIM
 62
     5
100
AcDbTrace
 10
248.9314711879954
 20
29.69532457629611
 30
0.0
 11
248.9314711879954
 21
28.69532457629611
 31
0.0
 12
251.9314711879954
 22
29.19532457629611
 32
0.0
 13
251.9314711879954
 23
29.19532457629611
 33
0.0
  0
MTEXT
  5
29B6
330
1C19
100
AcDbEntity
  8
AM_REFDIM
 62
     5
100
AcDbMText
 10
218.4314711879955
 20
31.69532457629611
 30
0.0
 40
3.0
 41
0.0
 71
     5
 72
     1
  1
\A1;67
  7
DAYUS
1001
ACAD
1000
MTEXTBEGIN
1070
    73
1070
     1
1070
    44
1040
1.0
1070
    74
1070
     0
1000
MTEXTEND
  0
POINT
  5
29B7
330
1C19
100
AcDbEntity
  8
DEFPOINTS
 62
     0
100
AcDbPoint
 10
184.9314711879955
 20
59.25
 30
0.0
  0
POINT
  5
29B8
330
1C19
100
AcDbEntity
  8
DEFPOINTS
 62
     0
100
AcDbPoint
 10
251.9314711879954
 20
59.04999999999998
 30
0.0
  0
POINT
  5
29B9
330
1C19
100
AcDbEntity
  8
DEFPOINTS
 62
     0
100
AcDbPoint
 10
251.9314711879954
 20
29.19532457629611
 30
0.0
  0
ENDBLK
  5
1C24
330
1C19
100
AcDbEntity
  8
0
100
AcDbBlockEnd
  0
ENDSEC
  0
SECTION
  2
ENTITIES
  0
LINE
  5
AF1
330
532
100
AcDbEntity
  8
LOGO
 62
     1
100
AcDbLine
 10
290.0
 20
-39.16402447748545
 30
-400.7484641402696
 11
0.0
 21
-39.16402447748545
 31
-400.7484641402696
  0
LINE
  5
AF2
330
532
100
AcDbEntity
  8
LOGO
 62
     1
100
AcDbLine
 10
290.0
 20
0.0
 30
-400.7484641402696
 11
0.0
 21
0.0
 31
-400.7484641402696
  0
TEXT
  5
AF8
330
532
100
AcDbEntity
  8
LOGO
 62
     7
100
AcDbText
 10
89.36662069537048
 20
-9.805781030821732
 30
-400.7484641402696
 40
7.83280489549709
  1
訂購代號:
  7
CHINESET
100
AcDbText
  0
TEXT
  5
AF9
330
532
100
AcDbEntity
  8
LOGO
 62
     7
100
AcDbText
 10
88.42977404676171
 20
-17.15709269076318
 30
-400.7484641402696
 40
5.221869930331393
  1
Order example:
 41
0.8
  7
CHINESET
100
AcDbText
  0
TEXT
  5
AFA
330
532
100
AcDbEntity
  8
LOGO
  6
CONTINUOUS
 62
     5
100
AcDbText
 10
2.964036815345694
 20
-37.34606560590545
 30
-400.7484641402696
 40
3.916402447748545
  1
MINDMAN INDUSTRIAL CO.,LTD
 41
0.85
  7
CHINESET
100
AcDbText
  0
TEXT
  5
AFB
330
532
100
AcDbEntity
  8
LOGO
  6
CONTINUOUS
 62
     5
100
AcDbText
 10
1.281904646102766
 20
-31.47031097254972
 30
-400.7484641402696
 40
5.874603671622818
  1
金器工業股份有限公司
 41
0.8
  7
LOGO
100
AcDbText
  0
SOLID
  5
AFC
330
532
100
AcDbEntity
  8
LOGO
 62
     2
100
AcDbTrace
 10
14.51538514160853
 20
-16.98795307310049
 30
-400.7484641402696
 11
15.21608154933569
 21
-16.98795307310049
 31
-400.7484641402696
 12
23.27409023819225
 22
-0.9303270626961518
 32
-400.7484641402696
 13
23.97478664591955
 23
-0.930327062697339
 33
-400.7484641402696
  0
SOLID
  5
AFD
330
532
100
AcDbEntity
  8
LOGO
 62
     5
100
AcDbTrace
 10
15.21608154933569
 20
-16.98795307310049
 30
-400.7484641402696
 11
16.90943120134171
 21
-16.98795307310049
 31
-400.7484641402696
 12
23.27409023819225
 22
-2.214937143529082
 32
-400.7484641402696
 13
21.58074058618608
 23
-8.423885867552312
 33
-400.7484641402696
  0
SOLID
  5
AFE
330
532
100
AcDbEntity
  8
LOGO
 62
     5
100
AcDbTrace
 10
15.21608154933569
 20
-15.70334299226875
 30
-400.7484641402696
 11
16.90943120134171
 21
-9.494394268245454
 31
-400.7484641402696
 12
23.27409023819225
 22
-0.9303270626961518
 32
-400.7484641402696
 13
21.58074058618608
 23
-0.9303270626961518
 33
-400.7484641402696
  0
LINE
  5
AFF
330
532
100
AcDbEntity
  8
LOGO
 62
     1
100
AcDbLine
 10
86.16085385046783
 20
-23.49841468649127
 30
-400.7484641402696
 11
-0.0000000000001484
 21
-23.49841468649127
 31
-400.7484641402696
  0
SOLID
  5
B00
330
532
100
AcDbEntity
  8
LOGO
 62
     2
100
AcDbTrace
 10
14.51538514160853
 20
-0.930327062697339
 30
-400.7484641402696
 11
15.21608154933569
 21
-0.930327062697339
 31
-400.7484641402696
 12
14.51538514160853
 22
-16.98795307310049
 32
-400.7484641402696
 13
15.21608154933569
 23
-16.98795307310049
 33
-400.7484641402696
  0
SOLID
  5
B01
330
532
100
AcDbEntity
  8
LOGO
 62
     2
100
AcDbTrace
 10
5.756680045024077
 20
-16.98795307310109
 30
-400.7484641402696
 11
6.457376452751829
 21
-16.98795307310049
 31
-400.7484641402696
 12
14.51538514160853
 22
-0.930327062697339
 32
-400.7484641402696
 13
15.21608154933569
 23
-0.930327062697339
 33
-400.7484641402696
  0
SOLID
  5
B02
330
532
100
AcDbEntity
  8
LOGO
 62
     5
100
AcDbTrace
 10
15.21608154933569
 20
-0.930327062697339
 30
-400.7484641402696
 11
16.90943120134171
 21
-0.9303270626961518
 31
-400.7484641402696
 12
15.21608154933569
 22
-15.70334299226875
 32
-400.7484641402696
 13
16.90943120134171
 23
-9.494394268245454
 33
-400.7484641402696
  0
SOLID
  5
B03
330
532
100
AcDbEntity
  8
LOGO
 62
     5
100
AcDbTrace
 10
12.82203548960252
 20
-16.98795307310049
 30
-400.7484641402696
 11
14.51538514160853
 21
-16.98795307310049
 31
-400.7484641402696
 12
12.82203548960252
 22
-8.423885867552312
 32
-400.7484641402696
 13
14.51538514160853
 23
-2.214937143529082
 33
-400.7484641402696
  0
SOLID
  5
B04
330
532
100
AcDbEntity
  8
LOGO
 62
     5
100
AcDbTrace
 10
6.457376452751829
 20
-16.98795307310049
 30
-400.7484641402696
 11
8.150726104757845
 21
-16.98795307310049
 31
-400.7484641402696
 12
14.51538514160853
 22
-2.214937143529082
 32
-400.7484641402696
 13
12.82203548960252
 23
-8.423885867552312
 33
-400.7484641402696
  0
SOLID
  5
B05
330
532
100
AcDbEntity
  8
LOGO
 62
     5
100
AcDbTrace
 10
4.063330393018056
 20
-16.98795307310049
 30
-400.7484641402696
 11
5.756680045024077
 21
-16.98795307310109
 31
-400.7484641402696
 12
12.82203548960252
 22
-0.9303270626961518
 32
-400.7484641402696
 13
14.51538514160853
 23
-0.930327062697339
 33
-400.7484641402696
  0
LINE
  5
B06
330
532
100
AcDbEntity
  8
LOGO
 62
     1
100
AcDbLine
 10
0.0
 20
-39.16402447748545
 30
-400.7484641402696
 11
0.0
 21
0.0
 31
-400.7484641402696
  0
SOLID
  5
B07
330
532
100
AcDbEntity
  8
LOGO
 62
     5
100
AcDbTrace
 10
7.080120385118331
 20
-19.90752143862859
 30
-400.7484641402696
 11
7.664034058225142
 21
-19.90752143862859
 31
-400.7484641402696
 12
7.080120385118331
 22
-22.82708980415729
 32
-400.7484641402696
 13
7.664034058225142
 23
-22.82708980415618
 33
-400.7484641402696
  0
SOLID
  5
B08
330
532
100
AcDbEntity
  8
LOGO
 62
     5
100
AcDbTrace
 10
7.080120385118331
 20
-19.49878186745499
 30
-400.7484641402696
 11
7.664034058225142
 21
-19.49878186745499
 31
-400.7484641402696
 12
7.080120385118331
 22
-19.03165092896994
 32
-400.7484641402696
 13
7.664034058225142
 23
-19.03165092896994
 33
-400.7484641402696
  0
SOLID
  5
B09
330
532
100
AcDbEntity
  8
LOGO
 62
     5
100
AcDbTrace
 10
5.804995690210614
 20
-19.90752143862859
 30
-400.7484641402696
 11
6.388909363315491
 21
-19.90752143862859
 31
-400.7484641402696
 12
5.804995690210614
 22
-22.82708980415618
 32
-400.7484641402696
 13
6.388909363315491
 23
-22.82708980415618
 33
-400.7484641402696
  0
SOLID
  5
B0A
330
532
100
AcDbEntity
  8
LOGO
 62
     5
100
AcDbTrace
 10
3.576735665430312
 20
-22.82708980415618
 30
-400.7484641402696
 11
4.160649338535487
 21
-22.82708980415618
 31
-400.7484641402696
 12
5.804995690210614
 22
-19.90752143862859
 32
-400.7484641402696
 13
6.388909363315491
 23
-19.90752143862859
 33
-400.7484641402696
  0
SOLID
  5
B0B
330
532
100
AcDbEntity
  8
LOGO
 62
     5
100
AcDbTrace
 10
3.576735665430312
 20
-19.90752143862859
 30
-400.7484641402696
 11
4.160649338535487
 21
-19.90752143862859
 31
-400.7484641402696
 12
3.576735665430312
 22
-22.82708980415618
 32
-400.7484641402696
 13
4.160649338535487
 23
-22.82708980415618
 33
-400.7484641402696
  0
SOLID
  5
B0C
330
532
100
AcDbEntity
  8
LOGO
 62
     5
100
AcDbTrace
 10
1.348475640650901
 20
-22.82708980415618
 30
-400.7484641402696
 11
1.932389313757266
 21
-22.82708980415618
 31
-400.7484641402696
 12
3.576735665430312
 22
-19.90752143862859
 32
-400.7484641402696
 13
4.160649338535487
 23
-19.90752143862859
 33
-400.7484641402696
  0
SOLID
  5
B0D
330
532
100
AcDbEntity
  8
LOGO
 62
     5
100
AcDbTrace
 10
18.4664954020451
 20
-21.07534878483991
 30
-400.7484641402696
 11
19.05040907514998
 21
-21.07534878483991
 31
-400.7484641402696
 12
18.4664954020451
 22
-22.82708980415729
 32
-400.7484641402696
 13
19.05040907514998
 23
-22.82708980415729
 33
-400.7484641402696
  0
SOLID
  5
B0E
330
532
100
AcDbEntity
  8
LOGO
 62
     5
100
AcDbTrace
 10
16.71475438272868
 20
-21.07534878483991
 30
-400.7484641402696
 11
17.29866805583371
 21
-21.07534878483991
 31
-400.7484641402696
 12
16.71475438272868
 22
-22.82708980415618
 32
-400.7484641402696
 13
17.29866805583371
 23
-22.82708980415618
 33
-400.7484641402696
  0
SOLID
  5
B0F
330
532
100
AcDbEntity
  8
LOGO
 62
     5
100
AcDbTrace
 10
14.96301336341226
 20
-19.90752143862859
 30
-400.7484641402696
 11
15.54692703651745
 21
-19.90752143862859
 31
-400.7484641402696
 12
14.96301336341226
 22
-22.82708980415618
 32
-400.7484641402696
 13
15.54692703651745
 23
-22.82708980415618
 33
-400.7484641402696
  0
SOLID
  5
B10
330
532
100
AcDbEntity
  8
LOGO
 62
     5
100
AcDbTrace
 10
13.69784760789392
 20
-19.03165092896994
 30
-400.7484641402696
 11
14.28176128099895
 21
-19.03165092896994
 31
-400.7484641402696
 12
13.69784760789392
 22
-22.82708980415618
 32
-400.7484641402696
 13
14.28176128099895
 23
-22.82708980415618
 33
-400.7484641402696
  0
POLYLINE
  5
B11
330
532
100
AcDbEntity
  8
LOGO
 62
     5
100
AcDb2dPolyline
 66
     1
 10
0.0
 20
0.0
 30
-400.7484641402696
 70
     1
 40
0.5848494321971161
 41
0.5848494321971161
  0
VERTEX
  5
29BE
330
B11
100
AcDbEntity
  8
LOGO
 62
     5
100
AcDbVertex
100
AcDb2dVertex
 10
11.65233662520774
 20
-21.36730562139272
 30
-400.7484641402696
 42
1.0
  0
VERTEX
  5
29BF
330
B11
100
AcDbEntity
  8
LOGO
 62
     5
100
AcDbVertex
100
AcDb2dVertex
 10
13.99173435399639
 20
-21.36730562139272
 30
-400.7484641402696
 42
1.0
  0
SEQEND
  5
29C0
330
B11
100
AcDbEntity
  8
LOGO
 62
     5
  0
SOLID
  5
B12
330
532
100
AcDbEntity
  8
LOGO
 62
     5
100
AcDbTrace
 10
10.09702715995309
 20
-21.07534878483991
 30
-400.7484641402696
 11
10.68094083305916
 21
-21.07534878483991
 31
-400.7484641402696
 12
10.09702715995309
 22
-22.82708980415618
 32
-400.7484641402696
 13
10.68094083305916
 23
-22.82708980415618
 33
-400.7484641402696
  0
SOLID
  5
B13
330
532
100
AcDbEntity
  8
LOGO
 62
     5
100
AcDbTrace
 10
8.345286140636828
 20
-19.90752143862859
 30
-400.7484641402696
 11
8.929199813741854
 21
-19.90752143862859
 31
-400.7484641402696
 12
8.345286140636828
 22
-22.82708980415618
 32
-400.7484641402696
 13
8.929199813741854
 23
-22.82708980415618
 33
-400.7484641402696
  0
POLYLINE
  5
B14
330
532
100
AcDbEntity
  8
LOGO
 62
     5
100
AcDb2dPolyline
 66
     1
 10
0.0
 20
0.0
 30
-400.7484641402696
 40
0.5848494321971161
 41
0.5848494321971161
  0
VERTEX
  5
29C1
330
B14
100
AcDbEntity
  8
LOGO
 62
     5
100
AcDbVertex
100
AcDb2dVertex
 10
10.39038763514333
 20
-21.07534878483991
 30
-400.7484641402696
 42
1.0
  0
VERTEX
  5
29C2
330
B14
100
AcDbEntity
  8
LOGO
 62
     5
100
AcDbVertex
100
AcDb2dVertex
 10
8.635839338551916
 20
-21.07534878483991
 30
-400.7484641402696
 42
1.0
  0
SEQEND
  5
29C3
330
B14
100
AcDbEntity
  8
LOGO
 62
     5
  0
POLYLINE
  5
B15
330
532
100
AcDbEntity
  8
LOGO
 62
     5
100
AcDb2dPolyline
 66
     1
 10
0.0
 20
0.0
 30
-400.7484641402696
 40
0.5848494321971161
 41
0.5848494321971161
  0
VERTEX
  5
29C4
330
B15
100
AcDbEntity
  8
LOGO
 62
     5
100
AcDbVertex
100
AcDb2dVertex
 10
18.75985587723504
 20
-21.07534878483991
 30
-400.7484641402696
 42
1.0
  0
VERTEX
  5
29C5
330
B15
100
AcDbEntity
  8
LOGO
 62
     5
100
AcDbVertex
100
AcDb2dVertex
 10
17.00530758064362
 20
-21.07534878483991
 30
-400.7484641402696
 42
1.0
  0
SEQEND
  5
29C6
330
B15
100
AcDbEntity
  8
LOGO
 62
     5
  0
POLYLINE
  5
B16
330
532
100
AcDbEntity
  8
LOGO
 62
     5
100
AcDb2dPolyline
 66
     1
 10
0.0
 20
0.0
 30
-400.7484641402696
 40
0.5848494321971161
 41
0.5848494321971161
  0
VERTEX
  5
29C7
330
B16
100
AcDbEntity
  8
LOGO
 62
     5
100
AcDbVertex
100
AcDb2dVertex
 10
17.00811485791863
 20
-21.07534878483991
 30
-400.7484641402696
 42
1.0
  0
VERTEX
  5
29C8
330
B16
100
AcDbEntity
  8
LOGO
 62
     5
100
AcDbVertex
100
AcDb2dVertex
 10
15.25356656132721
 20
-21.07534878483991
 30
-400.7484641402696
 42
1.0
  0
SEQEND
  5
29C9
330
B16
100
AcDbEntity
  8
LOGO
 62
     5
  0
CIRCLE
  5
B17
330
532
100
AcDbEntity
  8
LOGO
  6
CONTINUOUS
 62
     6
100
AcDbCircle
 10
67.30321318669209
 20
-11.74083012975039
 30
-400.7484641402696
 40
1.332336587644703
  0
CIRCLE
  5
B18
330
532
100
AcDbEntity
  8
LOGO
  6
CONTINUOUS
 62
     6
100
AcDbCircle
 10
67.30321318669209
 20
-11.74083012975039
 30
-400.7484641402696
 40
2.273955442885108
  0
LINE
  5
B19
330
532
100
AcDbEntity
  8
LOGO
 62
     1
100
AcDbLine
 10
86.16085385046783
 20
-15.66560979099417
 30
-400.7484641402696
 11
28.72028461682266
 21
-15.66560979099417
 31
-400.7484641402696
  0
LINE
  5
B1A
330
532
100
AcDbEntity
  8
LOGO
 62
     1
100
AcDbLine
 10
86.16085385046783
 20
-7.832804895497088
 30
-400.7484641402696
 11
28.72028461682266
 21
-7.832804895497088
 31
-400.7484641402696
  0
TEXT
  5
B1B
330
532
100
AcDbEntity
  8
LOGO
 62
     6
100
AcDbText
 10
65.92675363324712
 20
-5.87460367162282
 30
-400.7484641402696
 40
3.916402447748545
  1
1 : 1
  7
CHINESET
 72
     1
 11
72.82708175547075
 21
-3.916402447748548
 31
-400.7484641402696
100
AcDbText
 73
     2
  0
TEXT
  5
B1C
330
532
100
AcDbEntity
  8
LOGO
 62
     6
100
AcDbText
 10
65.92675363324712
 20
-21.54021346261699
 30
-400.7484641402696
 40
3.916402447748545
  1
m/m
  7
CHINESET
 72
     1
 11
72.82708175547075
 21
-19.58201223874272
 31
-400.7484641402696
100
AcDbText
 73
     2
  0
SOLID
  5
B1D
330
532
100
AcDbEntity
  8
LOGO
 62
     2
100
AcDbTrace
 10
23.27409023819225
 20
-0.9303270626961518
 30
-400.7484641402696
 11
23.97478664591955
 21
-0.930327062697339
 31
-400.7484641402696
 12
23.27409023819225
 22
-16.98795307310109
 32
-400.7484641402696
 13
23.97478664591955
 23
-16.98795307310109
 33
-400.7484641402696
  0
SOLID
  5
B1E
330
532
100
AcDbEntity
  8
LOGO
 62
     5
100
AcDbTrace
 10
23.97478664591955
 20
-16.98795307310109
 30
-400.7484641402696
 11
25.66813629792557
 21
-16.98795307310109
 31
-400.7484641402696
 12
23.97478664591955
 22
-0.930327062697339
 32
-400.7484641402696
 13
25.66813629792557
 23
-0.9303270626961518
 33
-400.7484641402696
  0
SOLID
  5
B1F
330
532
100
AcDbEntity
  8
LOGO
 62
     5
100
AcDbTrace
 10
23.27409023819225
 20
-2.214937143529082
 30
-400.7484641402696
 11
21.58074058618608
 21
-8.423885867552312
 31
-400.7484641402696
 12
23.27409023819225
 22
-16.98795307310109
 32
-400.7484641402696
 13
21.58074058618608
 23
-16.98795307310109
 33
-400.7484641402696
  0
LINE
  5
B20
330
532
100
AcDbEntity
  8
LOGO
 62
     1
100
AcDbLine
 10
28.72028461682266
 20
-23.49841468649127
 30
-400.7484641402696
 11
28.72028461682266
 21
0.0
 31
-400.7484641402696
  0
LINE
  5
B21
330
532
100
AcDbEntity
  8
LOGO
 62
     1
100
AcDbLine
 10
60.05150419881102
 20
-23.49841468649127
 30
-400.7484641402696
 11
60.05150419881102
 21
0.0
 31
-400.7484641402696
  0
TEXT
  5
B22
330
532
100
AcDbEntity
  8
LOGO
 62
     6
100
AcDbText
 10
33.70145898005285
 20
-21.54021346261699
 30
-144.0738996109561
 40
3.916402447748545
  1
單位 Unit:
 41
0.9
  7
CHINESET
 72
     4
 11
44.38589440781685
 21
-19.58201223874272
 31
-144.0738996109561
100
AcDbText
  0
SOLID
  5
B23
330
532
100
AcDbEntity
  8
LOGO
 62
     5
100
AcDbTrace
 10
25.0842226248204
 20
-21.07534878483991
 30
-400.7484641402696
 11
25.66813629792557
 21
-21.07534878483999
 31
-400.7484641402696
 12
25.0842226248204
 22
-22.82708980415618
 32
-400.7484641402696
 13
25.66813629792557
 23
-22.82708980415618
 33
-400.7484641402696
  0
SOLID
  5
B24
330
532
100
AcDbEntity
  8
LOGO
 62
     5
100
AcDbTrace
 10
23.33248160550309
 20
-22.82708980415618
 30
-400.7484641402696
 11
23.91639527860916
 21
-22.82708980415618
 31
-400.7484641402696
 12
23.33248160550309
 22
-19.90752143862859
 32
-400.7484641402696
 13
23.91639527860916
 23
-19.90752143862859
 33
-400.7484641402696
  0
SOLID
  5
B25
330
532
100
AcDbEntity
  8
LOGO
 62
     5
100
AcDbTrace
 10
22.06731584998638
 20
-19.90752143862859
 30
-400.7484641402696
 11
22.65122952309141
 21
-19.90752143862859
 31
-400.7484641402696
 12
22.06731584998638
 22
-22.82708980415618
 32
-400.7484641402696
 13
22.65122952309141
 23
-22.82708980415618
 33
-400.7484641402696
  0
LINE
  5
B26
330
532
100
AcDbEntity
  8
LOGO
 62
     5
100
AcDbLine
 10
25.66813629792557
 20
-22.82708980415618
 30
-400.7484641402696
 11
25.66813629792557
 21
-21.07534878483991
 31
-400.7484641402696
  0
POLYLINE
  5
B27
330
532
100
AcDbEntity
  8
LOGO
 62
     5
100
AcDb2dPolyline
 66
     1
 10
0.0
 20
0.0
 30
-400.7484641402696
 70
     1
 40
0.5848494321971161
 41
0.5848494321971161
  0
VERTEX
  5
29CA
330
B27
100
AcDbEntity
  8
LOGO
 62
     5
100
AcDbVertex
100
AcDb2dVertex
 10
20.02180486729975
 20
-21.36730562139272
 30
-400.7484641402696
 42
1.0
  0
VERTEX
  5
29CB
330
B27
100
AcDbEntity
  8
LOGO
 62
     5
100
AcDbVertex
100
AcDb2dVertex
 10
22.36120259608811
 20
-21.36730562139272
 30
-400.7484641402696
 42
1.0
  0
SEQEND
  5
29CC
330
B27
100
AcDbEntity
  8
LOGO
 62
     5
  0
CIRCLE
  5
B28
330
532
100
AcDbEntity
  8
LOGO
 62
     5
100
AcDbCircle
 10
21.19150373169423
 20
-21.36730562139242
 30
-400.7484641402696
 40
0.8758705096584014
  0
POLYLINE
  5
B29
330
532
100
AcDbEntity
  8
LOGO
 62
     5
100
AcDb2dPolyline
 66
     1
 10
0.0
 20
0.0
 30
-400.7484641402696
 70
     1
  0
VERTEX
  5
29CD
330
B29
100
AcDbEntity
  8
LOGO
 62
     5
100
AcDbVertex
100
AcDb2dVertex
 10
20.31563322203572
 20
-21.36730562139242
 30
-400.7484641402696
 42
1.000000057330635
  0
VERTEX
  5
29CE
330
B29
100
AcDbEntity
  8
LOGO
 62
     5
100
AcDbVertex
100
AcDb2dVertex
 10
22.06737424135288
 20
-21.36730562139242
 30
-400.7484641402696
 42
1.000000057330635
  0
SEQEND
  5
29CF
330
B29
100
AcDbEntity
  8
LOGO
 62
     5
  0
POLYLINE
  5
B2A
330
532
100
AcDbEntity
  8
LOGO
 62
     5
100
AcDb2dPolyline
 66
     1
 10
0.0
 20
0.0
 30
-400.7484641402696
 40
0.5848494321971161
 41
0.5848494321971161
  0
VERTEX
  5
29D0
330
B2A
100
AcDbEntity
  8
LOGO
 62
     5
100
AcDbVertex
100
AcDb2dVertex
 10
25.37758310001063
 20
-21.07534878483991
 30
-400.7484641402696
 42
1.0
  0
VERTEX
  5
29D1
330
B2A
100
AcDbEntity
  8
LOGO
 62
     5
100
AcDbVertex
100
AcDb2dVertex
 10
23.62303480341922
 20
-21.07534878483991
 30
-400.7484641402696
 42
1.0
  0
SEQEND
  5
29D2
330
B2A
100
AcDbEntity
  8
LOGO
 62
     5
  0
TEXT
  5
B2B
330
532
100
AcDbEntity
  8
LOGO
 62
     6
100
AcDbText
 10
33.31856070502743
 20
-13.65231809633669
 30
-144.0738996109561
 40
3.916402447748545
  1
投影 View:
 41
0.9
  7
CHINESET
 72
     4
 11
44.38589440781685
 21
-11.74920734324562
 31
-144.0738996109561
100
AcDbText
  0
TEXT
  5
B2C
330
532
100
AcDbEntity
  8
LOGO
 62
     6
100
AcDbText
 10
31.94956824226533
 20
-5.872676308213494
 30
-144.0738996109561
 40
3.916402447748545
  1
比例 Scale:
 41
0.9
  7
CHINESET
 72
     4
 11
44.38589440781685
 21
-3.916402447748548
 31
-144.0738996109561
100
AcDbText
  0
LINE
  5
B2D
330
532
100
AcDbEntity
  8
LOGO
 62
     1
100
AcDbLine
 10
86.16085385046783
 20
-39.16402447748545
 30
-400.7484641402696
 11
86.16085385046783
 21
0.0
 31
-400.7484641402696
  0
LINE
  5
B2E
330
532
100
AcDbEntity
  8
LOGO
  6
CONTINUOUS
 62
     6
100
AcDbLine
 10
74.46429326623949
 20
-13.07316671739509
 30
-400.7484641402696
 11
81.59301304841397
 21
-14.01478557263549
 31
-400.7484641402696
  0
LINE
  5
B2F
330
532
100
AcDbEntity
  8
LOGO
  6
CONTINUOUS
 62
     6
100
AcDbLine
 10
74.46429326623949
 20
-10.4084935421057
 30
-400.7484641402696
 11
81.59301304841397
 21
-9.466874686865301
 31
-400.7484641402696
  0
LINE
  5
B30
330
532
100
AcDbEntity
  8
LOGO
 62
     6
100
AcDbLine
 10
74.46429326623965
 20
-13.07316671739509
 30
-400.7484641402696
 11
74.46429326623949
 21
-10.40849354210563
 31
-400.7484641402696
  0
LINE
  5
B31
330
532
100
AcDbEntity
  8
LOGO
 62
     6
100
AcDbLine
 10
81.59301304841397
 20
-14.01478557263549
 30
-400.7484641402696
 11
81.59301304841397
 21
-9.466874686865301
 31
-400.7484641402696
  0
LINE
  5
B32
330
532
100
AcDbEntity
  8
LOGO
 62
     6
100
AcDbLine
 10
168.7495159484264
 20
-35.90035577102833
 30
-400.7484641402696
 11
142.6401662967694
 21
-35.90035577102833
 31
-400.7484641402696
  0
LINE
  5
B33
330
532
100
AcDbEntity
  8
LOGO
 62
     6
100
AcDbLine
 10
168.7495159484264
 20
-21.54021346261699
 30
-400.7484641402696
 11
142.6401662967694
 21
-21.54021346261699
 31
-400.7484641402696
  0
LINE
  5
B34
330
532
100
AcDbEntity
  8
LOGO
 62
     6
100
AcDbLine
 10
171.3604509135921
 20
-15.66560979099417
 30
-400.7484641402696
 11
140.0292313316038
 21
-15.66560979099417
 31
-400.7484641402696
  0
LINE
  5
B35
330
532
100
AcDbEntity
  8
LOGO
 62
     6
100
AcDbLine
 10
171.3604509135921
 20
-3.916402447748548
 30
-400.7484641402696
 11
140.0292313316038
 21
-3.916402447748548
 31
-400.7484641402696
  0
TEXT
  5
B36
330
532
100
AcDbEntity
  8
LOGO
  6
CONTINUOUS
 62
     7
100
AcDbText
 10
141.707689523496
 20
-13.05467482582848
 30
-400.7484641402696
 40
6.527337412914241
  1
MCMJ1
  7
CHINESET
 72
     1
 11
155.6948411225979
 21
-9.791006119371362
 31
-400.7484641402696
100
AcDbText
 73
     2
  0
LINE
  5
B37
330
532
100
AcDbEntity
  8
LOGO
 62
     6
100
AcDbLine
 10
140.0292313316038
 20
-3.916402447748548
 30
-400.7484641402696
 11
140.0292313316038
 21
-15.66560979099417
 31
-400.7484641402696
  0
LINE
  5
B38
330
532
100
AcDbEntity
  8
LOGO
 62
     6
100
AcDbLine
 10
142.6401662967694
 20
-21.54021346261699
 30
-400.7484641402696
 11
142.6401662967694
 21
-35.90035577102833
 31
-400.7484641402696
  0
TEXT
  5
B39
330
532
100
AcDbEntity
  8
LOGO
  6
CONTINUOUS
 62
     6
100
AcDbText
 10
149.4783293007748
 20
-34.26852141779976
 30
-144.0738996109561
 40
3.26366870645712
  1
Model
  7
CHINESET
 72
     4
 11
155.6948411225979
 21
-32.63668706457119
 31
-144.0738996109561
100
AcDbText
  0
TEXT
  5
B3A
330
532
100
AcDbEntity
  8
LOGO
 62
     6
100
AcDbText
 10
150.4729711922665
 20
-28.58665408710945
 30
-144.0738996109561
 40
5.221869930331393
  1
型式
  7
CHINESET
 72
     4
 11
155.6948411225979
 21
-26.10934965165696
 31
-144.0738996109561
100
AcDbText
  0
LINE
  5
B3B
330
532
100
AcDbEntity
  8
LOGO
 62
     6
100
AcDbLine
 10
155.6948411225979
 20
-15.66560979099417
 30
-400.7484641402696
 11
155.6948411225979
 21
-21.54021346261699
 31
-400.7484641402696
  0
LINE
  5
B3C
330
532
100
AcDbEntity
  8
LOGO
 62
     6
100
AcDbLine
 10
171.3604509135921
 20
-3.916402447748548
 30
-400.7484641402696
 11
171.3604509135921
 21
-15.66560979099417
 31
-400.7484641402696
  0
LINE
  5
B3D
330
532
100
AcDbEntity
  8
LOGO
 62
     6
100
AcDbLine
 10
214.6190106586313
 20
-3.91640244774847
 30
-400.7484641402696
 11
214.6190106586313
 21
-15.66560979099417
 31
-400.7484641402696
  0
LINE
  5
B3E
330
532
100
AcDbEntity
  8
LOGO
 62
     6
100
AcDbLine
 10
180.6045279687094
 20
-3.916402447748548
 30
-400.7484641402696
 11
180.6045279687094
 21
-15.66560979099417
 31
-400.7484641402696
  0
TEXT
  5
B3F
330
532
100
AcDbEntity
  8
LOGO
  6
CONTINUOUS
 62
     6
100
AcDbText
 10
183.6246177145685
 20
-33.72457663339023
 30
-144.0738996109561
 40
3.26366870645712
  1
Acting type
  7
CHINESET
 72
     4
 11
197.6117693136704
 21
-32.63668706457119
 31
-144.0738996109561
100
AcDbText
  0
TEXT
  5
B40
330
532
100
AcDbEntity
  8
LOGO
 62
     6
100
AcDbText
 10
187.2224239314486
 20
-28.58665408710945
 30
-144.0738996109561
 40
5.221869930331393
  1
作動型式
  7
CHINESET
 72
     4
 11
197.6117693136704
 21
-26.10934965165696
 31
-144.0738996109561
100
AcDbText
  0
LINE
  5
B41
330
532
100
AcDbEntity
  8
LOGO
 62
     6
100
AcDbLine
 10
214.6190106586313
 20
-15.66560979099417
 30
-400.7484641402696
 11
180.6045279687094
 21
-15.66560979099417
 31
-400.7484641402696
  0
LINE
  5
B42
330
532
100
AcDbEntity
  8
LOGO
 62
     6
100
AcDbLine
 10
214.6190106586313
 20
-21.54021346261699
 30
-400.7484641402696
 11
180.6045279687094
 21
-21.54021346261699
 31
-400.7484641402696
  0
LINE
  5
B43
330
532
100
AcDbEntity
  8
LOGO
 62
     6
100
AcDbLine
 10
214.6190106586313
 20
-35.90035577102833
 30
-400.7484641402696
 11
180.6045279687094
 21
-35.90035577102833
 31
-400.7484641402696
  0
LINE
  5
B44
330
532
100
AcDbEntity
  8
LOGO
 62
     6
100
AcDbLine
 10
168.7495159484264
 20
-21.54021346261699
 30
-400.7484641402696
 11
168.7495159484264
 21
-35.90035577102833
 31
-400.7484641402696
  0
LINE
  5
B45
330
532
100
AcDbEntity
  8
LOGO
 62
     6
100
AcDbLine
 10
180.6045279687094
 20
-21.54021346261699
 30
-400.7484641402696
 11
180.6045279687094
 21
-35.90035577102833
 31
-400.7484641402696
  0
LINE
  5
B46
330
532
100
AcDbEntity
  8
LOGO
 62
     6
100
AcDbLine
 10
214.6190106586313
 20
-21.54021346261699
 30
-400.7484641402696
 11
214.6190106586313
 21
-35.90035577102833
 31
-400.7484641402696
  0
LINE
  5
B47
330
532
100
AcDbEntity
  8
LOGO
 62
     6
100
AcDbLine
 10
197.6117693136704
 20
-15.66560979099417
 30
-400.7484641402696
 11
197.6117693136704
 21
-21.54021346261699
 31
-400.7484641402696
  0
LINE
  5
B48
330
532
100
AcDbEntity
  8
LOGO
 62
     6
100
AcDbLine
 10
214.6190106586313
 20
-3.91640244774847
 30
-400.7484641402696
 11
180.6045279687094
 21
-3.916402447748548
 31
-400.7484641402696
  0
LINE
  5
B49
330
532
100
AcDbEntity
  8
LOGO
  6
CONTINUOUS
 62
     7
100
AcDbLine
 10
173.3846627659372
 20
-9.8326236685948
 30
-400.7484641402696
 11
178.5726840191883
 21
-9.8326236685948
 31
-400.7484641402696
  0
TEXT
  5
B4A
330
532
100
AcDbEntity
  8
LOGO
  6
CONTINUOUS
 62
     7
100
AcDbText
 10
192.9493854473031
 20
-13.12869524339659
 30
-400.7484641402696
 40
6.527337412914241
  1
15
  7
CHINESET
 72
     1
 11
197.6117693136704
 21
-9.865026536939469
 31
-400.7484641402696
100
AcDbText
 73
     2
  0
TEXT
  5
B4B
330
532
100
AcDbEntity
  8
LOGO
  6
CONTINUOUS
 62
     7
100
AcDbText
 10
261.508969884829
 20
-13.12869524339659
 30
-400.7484641402696
 40
6.527337412914241
  1
**
  7
CHINESET
 72
     1
 11
265.549702569014
 21
-9.865026536939469
 31
-400.7484641402696
100
AcDbText
 73
     2
  0
TEXT
  5
B4C
330
532
100
AcDbEntity
  8
LOGO
  6
CONTINUOUS
 62
     6
100
AcDbText
 10
259.0347980116114
 20
-34.26852141779976
 30
-144.0738996109561
 40
3.26366870645712
  1
Stroke
 41
0.8
  7
CHINESET
 72
     4
 11
264.9404842423434
 21
-32.63668706457119
 31
-144.0738996109561
100
AcDbText
  0
LINE
  5
B4D
330
532
100
AcDbEntity
  8
LOGO
 62
     6
100
AcDbLine
 10
275.8139958517273
 20
-3.916402447748548
 30
-400.7484641402696
 11
254.0669726329593
 21
-3.916402447748548
 31
-400.7484641402696
  0
TEXT
  5
B4E
330
532
100
AcDbEntity
  8
LOGO
 62
     6
100
AcDbText
 10
260.2408013050451
 20
-28.72028461682265
 30
-144.0738996109561
 40
5.221869930331393
  1
行程
 41
0.9
  7
CHINESET
 72
     4
 11
264.9404842423434
 21
-26.10934965165696
 31
-144.0738996109561
100
AcDbText
  0
LINE
  5
B4F
330
532
100
AcDbEntity
  8
LOGO
 62
     6
100
AcDbLine
 10
274.5085283691444
 20
-35.90035577102833
 30
-400.7484641402696
 11
255.3724401155422
 21
-35.90035577102833
 31
-400.7484641402696
  0
LINE
  5
B50
330
532
100
AcDbEntity
  8
LOGO
 62
     6
100
AcDbLine
 10
275.8139958517273
 20
-15.66560979099417
 30
-400.7484641402696
 11
254.0669726329593
 21
-15.66560979099417
 31
-400.7484641402696
  0
LINE
  5
B51
330
532
100
AcDbEntity
  8
LOGO
 62
     6
100
AcDbLine
 10
274.5085283691444
 20
-21.54021346261699
 30
-400.7484641402696
 11
255.3724401155422
 21
-21.54021346261699
 31
-400.7484641402696
  0
LINE
  5
B52
330
532
100
AcDbEntity
  8
LOGO
 62
     6
100
AcDbLine
 10
244.8228955778421
 20
-3.916402447748391
 30
-400.7484641402696
 11
244.8228955778421
 21
-15.6656097909941
 31
-400.7484641402696
  0
LINE
  5
B53
330
532
100
AcDbEntity
  8
LOGO
 62
     6
100
AcDbLine
 10
223.8630877137486
 20
-3.91640244774847
 30
-400.7484641402696
 11
223.8630877137486
 21
-15.6656097909941
 31
-400.7484641402696
  0
LINE
  5
B54
330
532
100
AcDbEntity
  8
LOGO
 62
     6
100
AcDbLine
 10
254.0669726329593
 20
-3.916402447748548
 30
-400.7484641402696
 11
254.0669726329593
 21
-15.66560979099417
 31
-400.7484641402696
  0
LINE
  5
B55
330
532
100
AcDbEntity
  8
LOGO
 62
     6
100
AcDbLine
 10
244.8228955778421
 20
-35.90035577102824
 30
-400.7484641402696
 11
223.8630877137486
 21
-35.90035577102833
 31
-400.7484641402696
  0
LINE
  5
B56
330
532
100
AcDbEntity
  8
LOGO
 62
     6
100
AcDbLine
 10
244.8228955778421
 20
-15.6656097909941
 30
-400.7484641402696
 11
223.8630877137486
 21
-15.6656097909941
 31
-400.7484641402696
  0
LINE
  5
B57
330
532
100
AcDbEntity
  8
LOGO
 62
     6
100
AcDbLine
 10
244.8228955778421
 20
-21.54021346261691
 30
-400.7484641402696
 11
223.8630877137486
 21
-21.54021346261691
 31
-400.7484641402696
  0
LINE
  5
B58
330
532
100
AcDbEntity
  8
LOGO
 62
     6
100
AcDbLine
 10
223.8630877137486
 20
-21.54021346261691
 30
-400.7484641402696
 11
223.8630877137486
 21
-35.90035577102824
 31
-400.7484641402696
  0
TEXT
  5
B59
330
532
100
AcDbEntity
  8
LOGO
  6
CONTINUOUS
 62
     6
100
AcDbText
 10
230.3022589616104
 20
-34.26852141779976
 30
-144.0738996109561
 40
3.26366870645712
  1
Bore
 41
0.8
  7
CHINESET
 72
     4
 11
234.3429916457954
 21
-32.63668706457119
 31
-144.0738996109561
100
AcDbText
  0
TEXT
  5
B5A
330
532
100
AcDbEntity
  8
LOGO
 62
     6
100
AcDbText
 10
229.349578524916
 20
-28.72028461682265
 30
-144.0738996109561
 40
5.221869930331393
  1
內徑
 41
0.9
  7
CHINESET
 72
     4
 11
234.3429916457954
 21
-26.10934965165696
 31
-144.0738996109561
100
AcDbText
  0
LINE
  5
B5B
330
532
100
AcDbEntity
  8
LOGO
 62
     6
100
AcDbLine
 10
234.3429913447748
 20
-15.6656097909941
 30
-400.7484641402696
 11
234.3429913447748
 21
-21.54021346261691
 31
-400.7484641402696
  0
LINE
  5
B5C
330
532
100
AcDbEntity
  8
LOGO
 62
     6
100
AcDbLine
 10
244.8228955778421
 20
-21.54021346261691
 30
-400.7484641402696
 11
244.8228955778421
 21
-35.90035577102817
 31
-400.7484641402696
  0
LINE
  5
B5D
330
532
100
AcDbEntity
  8
LOGO
 62
     6
100
AcDbLine
 10
255.3724401155422
 20
-21.54021346261699
 30
-400.7484641402696
 11
255.3724401155422
 21
-35.90035577102833
 31
-400.7484641402696
  0
LINE
  5
B5E
330
532
100
AcDbEntity
  8
LOGO
 62
     6
100
AcDbLine
 10
244.8228955778421
 20
-3.916402447748391
 30
-400.7484641402696
 11
223.8630877137486
 21
-3.91640244774847
 31
-400.7484641402696
  0
LINE
  5
B5F
330
532
100
AcDbEntity
  8
LOGO
  6
CONTINUOUS
 62
     7
100
AcDbLine
 10
216.6432225109765
 20
-9.832623668594731
 30
-400.7484641402696
 11
221.8312437642274
 21
-9.832623668594731
 31
-400.7484641402696
  0
TEXT
  5
B60
330
532
100
AcDbEntity
  8
LOGO
  6
CONTINUOUS
 62
     7
100
AcDbText
 10
232.6210180392825
 20
-13.12869524339651
 30
-400.7484641402696
 40
6.527337412914241
  1
4
  7
CHINESET
 72
     1
 11
234.9522099724662
 21
-9.865026536939398
 31
-400.7484641402696
100
AcDbText
 73
     2
  0
LINE
  5
B61
330
532
100
AcDbEntity
  8
LOGO
  6
CONTINUOUS
 62
     7
100
AcDbLine
 10
246.8471074301872
 20
-9.832623668594653
 30
-400.7484641402696
 11
252.0351286834383
 21
-9.832623668594653
 31
-400.7484641402696
  0
LINE
  5
B66
330
532
100
AcDbEntity
  8
LOGO
 62
     6
100
AcDbLine
 10
275.8139958517273
 20
-3.916402447748548
 30
-400.7484641402696
 11
275.8139958517273
 21
-15.66560979099417
 31
-400.7484641402696
  0
LINE
  5
B6D
330
532
100
AcDbEntity
  8
LOGO
 62
     6
100
AcDbLine
 10
274.5085283691444
 20
-21.54021346261699
 30
-400.7484641402696
 11
274.5085283691444
 21
-35.954503029426
 31
-400.7484641402696
  0
LINE
  5
B6E
330
532
100
AcDbEntity
  8
LOGO
 62
     6
100
AcDbLine
 10
265.2169704016994
 20
-15.66560979099417
 30
-400.7484641402696
 11
265.2169704016994
 21
-21.54021346261699
 31
-400.7484641402696
  0
LINE
  5
B77
330
532
100
AcDbEntity
  8
LOGO
 62
     1
100
AcDbLine
 10
290.0
 20
-39.16402447748545
 30
-400.7484641402696
 11
290.0
 21
0.0
 31
-400.7484641402696
  0
LINE
  5
1221
330
532
100
AcDbEntity
  8
AM_7
100
AcDbLine
 10
179.0
 20
170.0
 30
-179.8317238765535
 11
181.0
 21
170.0
 31
-179.8317238765535
  0
LINE
  5
1222
330
532
100
AcDbEntity
  8
AM_7
100
AcDbLine
 10
180.0
 20
169.0
 30
-179.8317238765535
 11
180.0
 21
171.0
 31
-179.8317238765535
  0
LINE
  5
1223
330
532
100
AcDbEntity
  8
AM_7
100
AcDbLine
 10
174.5
 20
170.0
 30
-179.8317238765535
 11
178.2
 21
170.0
 31
-179.8317238765535
  0
LINE
  5
1224
330
532
100
AcDbEntity
  8
AM_7
100
AcDbLine
 10
181.7999999999999
 20
170.0
 30
-179.8317238765535
 11
185.5
 21
170.0
 31
-179.8317238765535
  0
LINE
  5
1225
330
532
100
AcDbEntity
  8
AM_7
100
AcDbLine
 10
180.0
 20
164.5
 30
-179.8317238765535
 11
180.0
 21
168.1999999999999
 31
-179.8317238765535
  0
LINE
  5
1226
330
532
100
AcDbEntity
  8
AM_7
100
AcDbLine
 10
180.0
 20
171.8
 30
-179.8317238765535
 11
180.0
 21
175.5
 31
-179.8317238765535
  0
LINE
  5
1227
330
532
100
AcDbEntity
  8
AM_7
100
AcDbLine
 10
245.3314711879955
 20
170.0
 30
-179.8317238765535
 11
193.5314711879954
 21
170.0
 31
-179.8317238765535
  0
LINE
  5
1229
330
532
100
AcDbEntity
  8
AM_7
100
AcDbLine
 10
261.0300465946771
 20
170.0
 30
-179.8317238765535
 11
263.0300465946771
 21
170.0
 31
-179.8317238765535
  0
LINE
  5
122A
330
532
100
AcDbEntity
  8
AM_7
100
AcDbLine
 10
262.0300465946771
 20
169.0
 30
-179.8317238765535
 11
262.0300465946771
 21
171.0
 31
-179.8317238765535
  0
LINE
  5
122B
330
532
100
AcDbEntity
  8
AM_7
100
AcDbLine
 10
256.5300465946771
 20
170.0
 30
-179.8317238765535
 11
260.2300465946772
 21
170.0
 31
-179.8317238765535
  0
LINE
  5
122C
330
532
100
AcDbEntity
  8
AM_7
100
AcDbLine
 10
263.8300465946771
 20
170.0
 30
-179.8317238765535
 11
267.5300465946771
 21
170.0
 31
-179.8317238765535
  0
LINE
  5
122D
330
532
100
AcDbEntity
  8
AM_7
100
AcDbLine
 10
262.0300465946771
 20
164.5
 30
-179.8317238765535
 11
262.0300465946771
 21
168.1999999999999
 31
-179.8317238765535
  0
LINE
  5
122E
330
532
100
AcDbEntity
  8
AM_7
100
AcDbLine
 10
262.0300465946771
 20
171.8
 30
-179.8317238765535
 11
262.0300465946771
 21
175.5
 31
-179.8317238765535
  0
ARC
  5
122F
330
532
100
AcDbEntity
  8
AM_VIS
100
AcDbCircle
 10
180.0
 20
170.0
 30
-179.8317238765535
 40
2.549999999999999
100
AcDbArc
 50
270.0
 51
281.3648769670339
  0
ARC
  5
1230
330
532
100
AcDbEntity
  8
AM_VIS
100
AcDbCircle
 10
180.0
 20
170.0
 30
-179.8317238765535
 40
2.549999999999999
100
AcDbArc
 50
318.6351230329658
 51
341.3648769670339
  0
ARC
  5
1231
330
532
100
AcDbEntity
  8
AM_VIS
100
AcDbCircle
 10
180.0
 20
170.0
 30
-179.8317238765535
 40
2.549999999999999
100
AcDbArc
 50
18.63512303296696
 51
41.36487696703298
  0
ARC
  5
1232
330
532
100
AcDbEntity
  8
AM_VIS
100
AcDbCircle
 10
180.0
 20
170.0
 30
-179.8317238765535
 40
2.549999999999999
100
AcDbArc
 50
78.63512303296849
 51
101.3648769670315
  0
ARC
  5
1233
330
532
100
AcDbEntity
  8
AM_VIS
100
AcDbCircle
 10
180.0
 20
170.0
 30
-179.8317238765535
 40
2.549999999999999
100
AcDbArc
 50
138.6351230329679
 51
161.3648769670321
  0
ARC
  5
1234
330
532
100
AcDbEntity
  8
AM_VIS
100
AcDbCircle
 10
180.0
 20
170.0
 30
-179.8317238765535
 40
2.549999999999999
100
AcDbArc
 50
198.6351230329669
 51
221.3648769670332
  0
ARC
  5
1235
330
532
100
AcDbEntity
  8
AM_VIS
100
AcDbCircle
 10
180.0
 20
170.0
 30
-179.8317238765535
 40
2.549999999999999
100
AcDbArc
 50
258.635123032966
 51
270.0
  0
ARC
  5
1236
330
532
100
AcDbEntity
  8
AM_VIS
100
AcDbCircle
 10
180.0
 20
170.0
 30
-179.8317238765535
 40
2.75
100
AcDbArc
 50
245.3800226713428
 51
270.0
  0
ARC
  5
1237
330
532
100
AcDbEntity
  8
AM_VIS
100
AcDbCircle
 10
180.0
 20
170.0
 30
-179.8317238765535
 40
2.75
100
AcDbArc
 50
185.3800226713428
 51
234.6199773286565
  0
ARC
  5
1238
330
532
100
AcDbEntity
  8
AM_VIS
100
AcDbCircle
 10
180.0
 20
170.0
 30
-179.8317238765535
 40
2.75
100
AcDbArc
 50
125.3800226713433
 51
174.6199773286563
  0
ARC
  5
1239
330
532
100
AcDbEntity
  8
AM_VIS
100
AcDbCircle
 10
180.0
 20
170.0
 30
-179.8317238765535
 40
2.75
100
AcDbArc
 50
65.38002267134391
 51
114.619977328656
  0
ARC
  5
123A
330
532
100
AcDbEntity
  8
AM_VIS
100
AcDbCircle
 10
180.0
 20
170.0
 30
-179.8317238765535
 40
2.75
100
AcDbArc
 50
5.380022671342806
 51
54.61997732865695
  0
ARC
  5
123B
330
532
100
AcDbEntity
  8
AM_VIS
100
AcDbCircle
 10
180.0
 20
170.0
 30
-179.8317238765535
 40
2.75
100
AcDbArc
 50
305.380022671343
 51
354.6199773286572
  0
ARC
  5
123C
330
532
100
AcDbEntity
  8
AM_VIS
100
AcDbCircle
 10
180.0
 20
170.0
 30
-179.8317238765535
 40
2.75
100
AcDbArc
 50
270.0
 51
294.6199773286571
  0
CIRCLE
  5
123D
330
532
100
AcDbEntity
  8
AM_VIS
100
AcDbCircle
 10
180.0
 20
170.0
 30
-179.8317238765535
 40
0.9499999999999998
  0
CIRCLE
  5
123E
330
532
100
AcDbEntity
  8
AM_VIS
100
AcDbCircle
 10
180.0
 20
170.0
 30
-179.8317238765535
 40
0.75
  0
CIRCLE
  5
123F
330
532
100
AcDbEntity
  8
AM_VIS
100
AcDbCircle
 10
180.0
 20
170.0
 30
-179.8317238765535
 40
2.400000000000003
  0
ARC
  5
1240
330
532
100
AcDbEntity
  8
AM_VIS
100
AcDbCircle
 10
180.0
 20
170.0
 30
-179.8317238765535
 40
2.169615242270665
100
AcDbArc
 50
307.1939802519816
 51
352.8060197480182
  0
ARC
  5
1241
330
532
100
AcDbEntity
  8
AM_VIS
100
AcDbCircle
 10
180.0
 20
170.0
 30
-179.8317238765535
 40
2.169615242270665
100
AcDbArc
 50
247.1939802519823
 51
292.8060197480176
  0
ARC
  5
1242
330
532
100
AcDbEntity
  8
AM_VIS
100
AcDbCircle
 10
180.0
 20
170.0
 30
-179.8317238765535
 40
2.169615242270665
100
AcDbArc
 50
187.1939802519825
 51
232.8060197480172
  0
ARC
  5
1243
330
532
100
AcDbEntity
  8
AM_VIS
100
AcDbCircle
 10
180.0
 20
170.0
 30
-179.8317238765535
 40
2.169615242270665
100
AcDbArc
 50
127.1939802519827
 51
172.8060197480174
  0
ARC
  5
1244
330
532
100
AcDbEntity
  8
AM_VIS
100
AcDbCircle
 10
180.0
 20
170.0
 30
-179.8317238765535
 40
2.169615242270665
100
AcDbArc
 50
67.19398025198195
 51
112.8060197480176
  0
ARC
  5
1245
330
532
100
AcDbEntity
  8
AM_VIS
100
AcDbCircle
 10
180.0
 20
170.0
 30
-179.8317238765535
 40
2.169615242270665
100
AcDbArc
 50
7.193980251981738
 51
52.80601974801835
  0
LINE
  5
1246
330
532
100
AcDbEntity
  8
AM_VIS
100
AcDbLine
 10
177.1132486540518
 20
170.0
 30
-179.8317238765535
 11
178.5566243270259
 21
172.5
 31
-179.8317238765535
  0
LINE
  5
1247
330
532
100
AcDbEntity
  8
AM_VIS
100
AcDbLine
 10
178.5566243270259
 20
172.5
 30
-179.8317238765535
 11
181.443375672974
 21
172.5
 31
-179.8317238765535
  0
LINE
  5
1248
330
532
100
AcDbEntity
  8
AM_VIS
100
AcDbLine
 10
181.443375672974
 20
172.5
 30
-179.8317238765535
 11
182.8867513459481
 21
170.0
 31
-179.8317238765535
  0
LINE
  5
1249
330
532
100
AcDbEntity
  8
AM_VIS
100
AcDbLine
 10
181.443375672974
 20
167.5
 30
-179.8317238765535
 11
182.8867513459481
 21
170.0
 31
-179.8317238765535
  0
LINE
  5
124A
330
532
100
AcDbEntity
  8
AM_VIS
100
AcDbLine
 10
178.5566243270259
 20
167.5
 30
-179.8317238765535
 11
181.443375672974
 21
167.5
 31
-179.8317238765535
  0
LINE
  5
124B
330
532
100
AcDbEntity
  8
AM_VIS
100
AcDbLine
 10
177.1132486540518
 20
170.0
 30
-179.8317238765535
 11
178.5566243270259
 21
167.5
 31
-179.8317238765535
  0
CIRCLE
  5
124C
330
532
100
AcDbEntity
  8
AM_VIS
100
AcDbCircle
 10
180.0
 20
170.0
 30
-179.8317238765535
 40
1.900000000000003
  0
CIRCLE
  5
124D
330
532
100
AcDbEntity
  8
AM_VIS
100
AcDbCircle
 10
180.0
 20
170.0
 30
-179.8317238765535
 40
1.319615242270666
  0
LINE
  5
124E
330
532
100
AcDbEntity
  8
AM_VIS
100
AcDbLine
 10
177.6905989232414
 20
170.0
 30
-179.8317238765535
 11
178.8452994616207
 21
172.0
 31
-179.8317238765535
  0
LINE
  5
124F
330
532
100
AcDbEntity
  8
AM_VIS
100
AcDbLine
 10
178.8452994616207
 20
172.0
 30
-179.8317238765535
 11
181.1547005383792
 21
172.0
 31
-179.8317238765535
  0
LINE
  5
1250
330
532
100
AcDbEntity
  8
AM_VIS
100
AcDbLine
 10
181.1547005383792
 20
172.0
 30
-179.8317238765535
 11
182.3094010767585
 21
170.0
 31
-179.8317238765535
  0
LINE
  5
1251
330
532
100
AcDbEntity
  8
AM_VIS
100
AcDbLine
 10
181.1547005383792
 20
168.0
 30
-179.8317238765535
 11
182.3094010767585
 21
170.0
 31
-179.8317238765535
  0
LINE
  5
1252
330
532
100
AcDbEntity
  8
AM_VIS
100
AcDbLine
 10
178.8452994616207
 20
168.0
 30
-179.8317238765535
 11
181.1547005383792
 21
168.0
 31
-179.8317238765535
  0
LINE
  5
1253
330
532
100
AcDbEntity
  8
AM_VIS
100
AcDbLine
 10
177.6905989232414
 20
170.0
 30
-179.8317238765535
 11
178.8452994616207
 21
168.0
 31
-179.8317238765535
  0
ARC
  5
1254
330
532
100
AcDbEntity
  8
AM_VIS
100
AcDbCircle
 10
214.9309392716362
 20
165.0024163434881
 30
-179.8317238765535
 40
2.510115768912126
100
AcDbArc
 50
84.27183747296998
 51
89.98785850002299
  0
ARC
  5
1255
330
532
100
AcDbEntity
  8
AM_VIS
100
AcDbCircle
 10
214.9320031043546
 20
165.0024163434898
 30
-179.8317238765535
 40
2.510115768910522
100
AcDbArc
 50
90.01214149997293
 51
95.72816252702912
  0
LINE
  5
1256
330
532
100
AcDbEntity
  8
AM_VIS
100
AcDbLine
 10
209.9314711879955
 20
172.3999999999999
 30
-179.8317238765535
 11
210.0314711879954
 21
172.5
 31
-179.8317238765535
  0
LINE
  5
1257
330
532
100
AcDbEntity
  8
AM_VIS
100
AcDbLine
 10
209.9314711879955
 20
167.5999999999999
 30
-179.8317238765535
 11
210.0314711879954
 21
167.5
 31
-179.8317238765535
  0
LINE
  5
1258
330
532
100
AcDbEntity
  8
AM_VIS
100
AcDbLine
 10
236.2314711879955
 20
167.5
 30
-179.8317238765535
 11
215.1814711879954
 21
167.5
 31
-179.8317238765535
  0
LINE
  5
1259
330
532
100
AcDbEntity
  8
AM_VIS
100
AcDbLine
 10
214.6814711879954
 20
167.5
 30
-179.8317238765535
 11
210.0314711879954
 21
167.5
 31
-179.8317238765535
  0
LINE
  5
125A
330
532
100
AcDbEntity
  8
AM_VIS
100
AcDbLine
 10
236.2314711879955
 20
172.5
 30
-179.8317238765535
 11
210.0314711879954
 21
172.5
 31
-179.8317238765535
  0
LINE
  5
125B
330
532
100
AcDbEntity
  8
AM_VIS
100
AcDbLine
 10
236.4314711879955
 20
167.6999999999999
 30
-179.8317238765535
 11
236.2314711879955
 21
167.5
 31
-179.8317238765535
  0
LINE
  5
125C
330
532
100
AcDbEntity
  8
AM_VIS
100
AcDbLine
 10
236.4314711879955
 20
172.2999999999999
 30
-179.8317238765535
 11
236.2314711879955
 21
172.5
 31
-179.8317238765535
  0
LINE
  5
125D
330
532
100
AcDbEntity
  8
AM_VIS
100
AcDbLine
 10
243.9314711879954
 20
169.0499999999999
 30
-179.8317238765535
 11
243.7314711879954
 21
168.8499999999999
 31
-179.8317238765535
  0
LINE
  5
125E
330
532
100
AcDbEntity
  8
AM_VIS
100
AcDbLine
 10
243.9314711879954
 20
170.95
 30
-179.8317238765535
 11
243.7314711879954
 21
171.1499999999999
 31
-179.8317238765535
  0
LINE
  5
125F
330
532
100
AcDbEntity
  8
AM_VIS
100
AcDbLine
 10
243.7314711879954
 20
168.8499999999999
 30
-179.8317238765535
 11
242.9314711879955
 21
168.8499999999999
 31
-179.8317238765535
  0
LINE
  5
1260
330
532
100
AcDbEntity
  8
AM_VIS
100
AcDbLine
 10
243.7314711879954
 20
171.1499999999999
 30
-179.8317238765535
 11
242.9314711879955
 21
171.1499999999999
 31
-179.8317238765535
  0
LINE
  5
1261
330
532
100
AcDbEntity
  8
AM_VIS
100
AcDbLine
 10
242.9314711879955
 20
168.8499999999999
 30
-179.8317238765535
 11
241.7314711879955
 21
168.3
 31
-179.8317238765535
  0
LINE
  5
1262
330
532
100
AcDbEntity
  8
AM_VIS
100
AcDbLine
 10
242.9314711879955
 20
171.1499999999999
 30
-179.8317238765535
 11
241.7314711879954
 21
171.6999999999999
 31
-179.8317238765535
  0
LINE
  5
1263
330
532
100
AcDbEntity
  8
AM_VIS
100
AcDbLine
 10
241.7314711879954
 20
168.3
 30
-179.8317238765535
 11
241.3314711879955
 21
168.3
 31
-179.8317238765535
  0
LINE
  5
1264
330
532
100
AcDbEntity
  8
AM_VIS
100
AcDbLine
 10
241.7314711879954
 20
171.6999999999999
 30
-179.8317238765535
 11
241.3314711879955
 21
171.6999999999999
 31
-179.8317238765535
  0
LINE
  5
1265
330
532
100
AcDbEntity
  8
AM_VIS
100
AcDbLine
 10
241.3314711879955
 20
168.8499999999999
 30
-179.8317238765535
 11
238.3314711879954
 21
168.8499999999999
 31
-179.8317238765535
  0
LINE
  5
1266
330
532
100
AcDbEntity
  8
AM_VIS
100
AcDbLine
 10
241.3314711879955
 20
171.1499999999999
 30
-179.8317238765535
 11
238.3314711879954
 21
171.1499999999999
 31
-179.8317238765535
  0
LINE
  5
1267
330
532
100
AcDbEntity
  8
AM_VIS
100
AcDbLine
 10
238.3314711879954
 20
168.8499999999999
 30
-179.8317238765535
 11
237.3314711879955
 21
168.3
 31
-179.8317238765535
  0
LINE
  5
1268
330
532
100
AcDbEntity
  8
AM_VIS
100
AcDbLine
 10
238.3314711879954
 20
171.1499999999999
 30
-179.8317238765535
 11
237.3314711879955
 21
171.6999999999999
 31
-179.8317238765535
  0
LINE
  5
1269
330
532
100
AcDbEntity
  8
AM_VIS
100
AcDbLine
 10
237.3314711879955
 20
168.3
 30
-179.8317238765535
 11
236.4314711879955
 21
168.3
 31
-179.8317238765535
  0
LINE
  5
126A
330
532
100
AcDbEntity
  8
AM_VIS
100
AcDbLine
 10
237.3314711879955
 20
171.6999999999999
 30
-179.8317238765535
 11
236.4314711879955
 21
171.6999999999999
 31
-179.8317238765535
  0
LINE
  5
126B
330
532
100
AcDbEntity
  8
AM_VIS
100
AcDbLine
 10
243.9314711879954
 20
170.95
 30
-179.8317238765535
 11
243.9314711879954
 21
169.0499999999999
 31
-179.8317238765535
  0
LINE
  5
126C
330
532
100
AcDbEntity
  8
AM_VIS
100
AcDbLine
 10
210.0314711879954
 20
172.5
 30
-179.8317238765535
 11
210.0314711879954
 21
167.5
 31
-179.8317238765535
  0
LINE
  5
126D
330
532
100
AcDbEntity
  8
AM_VIS
100
AcDbLine
 10
236.2314711879955
 20
167.5
 30
-179.8317238765535
 11
236.2314711879955
 21
172.5
 31
-179.8317238765535
  0
LINE
  5
126E
330
532
100
AcDbEntity
  8
AM_VIS
100
AcDbLine
 10
236.4314711879955
 20
172.3
 30
-179.8317238765535
 11
236.4314711879955
 21
167.6999999999999
 31
-179.8317238765535
  0
LINE
  5
126F
330
532
100
AcDbEntity
  8
AM_VIS
100
AcDbLine
 10
243.7314711879954
 20
168.8499999999999
 30
-179.8317238765535
 11
243.7314711879954
 21
171.15
 31
-179.8317238765535
  0
LINE
  5
1270
330
532
100
AcDbEntity
  8
AM_VIS
100
AcDbLine
 10
242.9314711879955
 20
171.1499999999999
 30
-179.8317238765535
 11
242.9314711879955
 21
168.8499999999999
 31
-179.8317238765535
  0
LINE
  5
1271
330
532
100
AcDbEntity
  8
AM_VIS
100
AcDbLine
 10
241.7314711879954
 20
171.6999999999999
 30
-179.8317238765535
 11
241.7314711879954
 21
168.2999999999999
 31
-179.8317238765535
  0
LINE
  5
1272
330
532
100
AcDbEntity
  8
AM_VIS
100
AcDbLine
 10
241.3314711879955
 20
171.6999999999999
 30
-179.8317238765535
 11
241.3314711879955
 21
168.2999999999999
 31
-179.8317238765535
  0
LINE
  5
1273
330
532
100
AcDbEntity
  8
AM_VIS
100
AcDbLine
 10
238.3314711879954
 20
171.1499999999999
 30
-179.8317238765535
 11
238.3314711879954
 21
168.8499999999999
 31
-179.8317238765535
  0
LINE
  5
1274
330
532
100
AcDbEntity
  8
AM_VIS
100
AcDbLine
 10
237.3314711879955
 20
171.6999999999999
 30
-179.8317238765535
 11
237.3314711879955
 21
168.2999999999999
 31
-179.8317238765535
  0
LINE
  5
1275
330
532
100
AcDbEntity
  8
AM_VIS
100
AcDbLine
 10
209.9314711879955
 20
167.4499999999999
 30
-179.8317238765535
 11
209.7314711879955
 21
167.25
 31
-179.8317238765535
  0
LINE
  5
1276
330
532
100
AcDbEntity
  8
AM_VIS
100
AcDbLine
 10
209.9314711879955
 20
172.55
 30
-179.8317238765535
 11
209.7314711879955
 21
172.75
 31
-179.8317238765535
  0
LINE
  5
1277
330
532
100
AcDbEntity
  8
AM_VIS
100
AcDbLine
 10
209.7314711879955
 20
167.25
 30
-179.8317238765535
 11
208.1314711879954
 21
167.25
 31
-179.8317238765535
  0
LINE
  5
1278
330
532
100
AcDbEntity
  8
AM_VIS
100
AcDbLine
 10
209.7314711879955
 20
172.75
 30
-179.8317238765535
 11
208.1314711879954
 21
172.75
 31
-179.8317238765535
  0
LINE
  5
1279
330
532
100
AcDbEntity
  8
AM_VIS
100
AcDbLine
 10
207.9314711879955
 20
172.55
 30
-179.8317238765535
 11
208.1314711879954
 21
172.75
 31
-179.8317238765535
  0
LINE
  5
127A
330
532
100
AcDbEntity
  8
AM_VIS
100
AcDbLine
 10
207.9314711879955
 20
167.4499999999999
 30
-179.8317238765535
 11
208.1314711879954
 21
167.25
 31
-179.8317238765535
  0
LINE
  5
127B
330
532
100
AcDbEntity
  8
AM_VIS
100
AcDbLine
 10
201.9314711879955
 20
171.675
 30
-179.8317238765535
 11
202.4510864302661
 21
171.9749999999999
 31
-179.8317238765535
  0
LINE
  5
127C
330
532
100
AcDbEntity
  8
AM_VIS
100
AcDbLine
 10
201.9314711879955
 20
168.3249999999999
 30
-179.8317238765535
 11
202.4510864302661
 21
168.0249999999999
 31
-179.8317238765535
  0
LINE
  5
127D
330
532
100
AcDbEntity
  8
AM_VIS
100
AcDbLine
 10
206.9314711879954
 20
168.0249999999999
 30
-179.8317238765535
 11
205.9314711879955
 21
168.0249999999999
 31
-179.8317238765535
  0
LINE
  5
127E
330
532
100
AcDbEntity
  8
AM_VIS
100
AcDbLine
 10
203.5314711879955
 20
168.0249999999999
 30
-179.8317238765535
 11
202.4510864302661
 21
168.0249999999999
 31
-179.8317238765535
  0
LINE
  5
127F
330
532
100
AcDbEntity
  8
AM_VIS
100
AcDbLine
 10
206.9314711879954
 20
171.9749999999999
 30
-179.8317238765535
 11
205.9314711879955
 21
171.9749999999999
 31
-179.8317238765535
  0
LINE
  5
1280
330
532
100
AcDbEntity
  8
AM_VIS
100
AcDbLine
 10
203.5314711879955
 20
171.9749999999999
 30
-179.8317238765535
 11
202.4510864302661
 21
171.9749999999999
 31
-179.8317238765535
  0
LINE
  5
1281
330
532
100
AcDbEntity
  8
AM_VIS
100
AcDbLine
 10
207.9314711879955
 20
168.0
 30
-179.8317238765535
 11
206.9314711879954
 21
168.0
 31
-179.8317238765535
  0
LINE
  5
1282
330
532
100
AcDbEntity
  8
AM_VIS
100
AcDbLine
 10
207.9314711879955
 20
172.0
 30
-179.8317238765535
 11
206.9314711879954
 21
172.0
 31
-179.8317238765535
  0
LINE
  5
1283
330
532
100
AcDbEntity
  8
AM_VIS
100
AcDbLine
 10
209.9314711879955
 20
172.55
 30
-179.8317238765535
 11
209.9314711879955
 21
167.4499999999999
 31
-179.8317238765535
  0
LINE
  5
1284
330
532
100
AcDbEntity
  8
AM_VIS
100
AcDbLine
 10
209.7314711879955
 20
167.25
 30
-179.8317238765535
 11
209.7314711879955
 21
172.75
 31
-179.8317238765535
  0
LINE
  5
1285
330
532
100
AcDbEntity
  8
AM_VIS
100
AcDbLine
 10
208.1314711879954
 20
172.75
 30
-179.8317238765535
 11
208.1314711879954
 21
167.25
 31
-179.8317238765535
  0
LINE
  5
1286
330
532
100
AcDbEntity
  8
AM_VIS
100
AcDbLine
 10
207.9314711879955
 20
167.4499999999999
 30
-179.8317238765535
 11
207.9314711879955
 21
172.5499999999999
 31
-179.8317238765535
  0
LINE
  5
1287
330
532
100
AcDbEntity
  8
AM_VIS
100
AcDbLine
 10
201.9314711879955
 20
168.3249999999999
 30
-179.8317238765535
 11
201.9314711879955
 21
171.6749999999999
 31
-179.8317238765535
  0
LINE
  5
1288
330
532
100
AcDbEntity
  8
AM_VIS
100
AcDbLine
 10
202.4510864302661
 20
171.9749999999999
 30
-179.8317238765535
 11
202.4510864302661
 21
168.0249999999999
 31
-179.8317238765535
  0
LINE
  5
1289
330
532
100
AcDbEntity
  8
AM_VIS
100
AcDbLine
 10
206.9314711879954
 20
168.0
 30
-179.8317238765535
 11
206.9314711879954
 21
172.0
 31
-179.8317238765535
  0
LINE
  5
128A
330
532
100
AcDbEntity
  8
AM_VIS
100
AcDbLine
 10
200.9314711879954
 20
170.8499999999999
 30
-179.8317238765535
 11
201.9314711879955
 21
170.8499999999999
 31
-179.8317238765535
  0
LINE
  5
128B
330
532
100
AcDbEntity
  8
AM_VIS
100
AcDbLine
 10
200.9314711879954
 20
169.1499999999999
 30
-179.8317238765535
 11
201.9314711879955
 21
169.1499999999999
 31
-179.8317238765535
  0
LINE
  5
128C
330
532
100
AcDbEntity
  8
AM_VIS
100
AcDbLine
 10
194.9314711879955
 20
170.75
 30
-179.8317238765535
 11
195.1314711879954
 21
170.95
 31
-179.8317238765535
  0
LINE
  5
128D
330
532
100
AcDbEntity
  8
AM_VIS
100
AcDbLine
 10
194.9314711879955
 20
169.25
 30
-179.8317238765535
 11
195.1314711879954
 21
169.05
 31
-179.8317238765535
  0
LINE
  5
128E
330
532
100
AcDbEntity
  8
AM_VIS
100
AcDbLine
 10
200.9314711879954
 20
169.05
 30
-179.8317238765535
 11
200.1314711879954
 21
169.05
 31
-179.8317238765535
  0
LINE
  5
128F
330
532
100
AcDbEntity
  8
AM_VIS
100
AcDbLine
 10
196.9314711879954
 20
169.05
 30
-179.8317238765535
 11
195.1314711879954
 21
169.05
 31
-179.8317238765535
  0
LINE
  5
1290
330
532
100
AcDbEntity
  8
AM_VIS
100
AcDbLine
 10
200.9314711879954
 20
170.95
 30
-179.8317238765535
 11
200.1314711879954
 21
170.95
 31
-179.8317238765535
  0
LINE
  5
1291
330
532
100
AcDbEntity
  8
AM_VIS
100
AcDbLine
 10
196.9314711879954
 20
170.95
 30
-179.8317238765535
 11
195.1314711879954
 21
170.95
 31
-179.8317238765535
  0
LINE
  5
1292
330
532
100
AcDbEntity
  8
AM_VIS
100
AcDbLine
 10
200.9314711879954
 20
170.95
 30
-179.8317238765535
 11
200.9314711879954
 21
169.0499999999999
 31
-179.8317238765535
  0
LINE
  5
1293
330
532
100
AcDbEntity
  8
AM_VIS
100
AcDbLine
 10
194.9314711879955
 20
169.25
 30
-179.8317238765535
 11
194.9314711879955
 21
170.75
 31
-179.8317238765535
  0
LINE
  5
1294
330
532
100
AcDbEntity
  8
AM_VIS
100
AcDbLine
 10
195.1314711879954
 20
170.95
 30
-179.8317238765535
 11
195.1314711879954
 21
169.0499999999999
 31
-179.8317238765535
  0
SPLINE
  5
1295
330
532
100
AcDbEntity
  8
AM_VIS
100
AcDbSpline
210
0.0
220
0.0
230
1.0
 70
    12
 71
     2
 72
     6
 73
     3
 74
     0
 42
0.0000000001
 43
0.0000000001
 40
2.828260686890536
 40
2.828260686890536
 40
2.828260686890536
 40
7.31340255605605
 40
7.31340255605605
 40
7.31340255605605
 10
205.6504451673839
 20
170.0
 30
-179.8317238765535
 41
1.466561103835291
 10
206.0671118340506
 20
171.25
 30
-179.8317238765535
 41
1.693438896164703
 10
205.6504451673839
 20
172.5
 30
-179.8317238765535
 41
1.466561103835287
  0
SPLINE
  5
1296
330
532
100
AcDbEntity
  8
AM_VIS
100
AcDbSpline
210
0.0
220
-0.0000000000000114
230
1.0
 70
    12
 71
     2
 72
     6
 73
     3
 74
     0
 42
0.0000000001
 43
0.0000000001
 40
2.828260686890516
 40
2.828260686890516
 40
2.828260686890516
 40
7.31340255605604
 40
7.31340255605604
 40
7.31340255605604
 10
205.6504451673839
 20
167.5
 30
-179.8317238765535
 41
1.466561103835292
 10
206.0671118340506
 20
168.75
 30
-179.8317238765535
 41
1.69343889616471
 10
205.6504451673839
 20
170.0
 30
-179.8317238765534
 41
1.466561103835292
  0
LINE
  5
1297
330
532
100
AcDbEntity
  8
AM_VIS
100
AcDbLine
 10
205.6504451673839
 20
167.5
 30
-179.8317238765535
 11
205.8737361610765
 21
167.5
 31
-179.8317238765535
  0
LINE
  5
1298
330
532
100
AcDbEntity
  8
AM_VIS
100
AcDbLine
 10
205.6504451673839
 20
172.5
 30
-179.8317238765535
 11
205.8737361610765
 21
172.5
 31
-179.8317238765535
  0
LINE
  5
1299
330
532
100
AcDbEntity
  8
AM_VIS
100
AcDbLine
 10
205.6504451673839
 20
167.5
 30
-179.8317238765535
 11
203.812497208607
 21
167.5
 31
-179.8317238765535
  0
LINE
  5
129A
330
532
100
AcDbEntity
  8
AM_VIS
100
AcDbLine
 10
203.5892062149144
 20
167.5
 30
-179.8317238765535
 11
203.812497208607
 21
167.5
 31
-179.8317238765535
  0
LINE
  5
129B
330
532
100
AcDbEntity
  8
AM_VIS
100
AcDbLine
 10
205.6504451673839
 20
170.0
 30
-179.8317238765535
 11
203.812497208607
 21
170.0
 31
-179.8317238765535
  0
SPLINE
  5
129C
330
532
100
AcDbEntity
  8
AM_VIS
100
AcDbSpline
210
0.0
220
0.0000000000000114
230
1.0
 70
    12
 71
     2
 72
     6
 73
     3
 74
     0
 42
0.0000000001
 43
0.0000000001
 40
2.828260686890516
 40
2.828260686890516
 40
2.828260686890516
 40
7.313402556056042
 40
7.313402556056042
 40
7.313402556056042
 10
203.8124972086071
 20
170.0
 30
-179.8317238765535
 41
1.466561103835291
 10
203.3958305419403
 20
168.7499999999999
 30
-179.8317238765535
 41
1.693438896164708
 10
203.812497208607
 20
167.5
 30
-179.8317238765535
 41
1.466561103835291
  0
SPLINE
  5
129D
330
532
100
AcDbEntity
  8
AM_VIS
100
AcDbSpline
210
0.0
220
0.0
230
1.0
 70
    12
 71
     2
 72
     6
 73
     3
 74
     0
 42
0.0000000001
 43
0.0000000001
 40
2.828260686890505
 40
2.828260686890505
 40
2.828260686890505
 40
7.313402556056021
 40
7.313402556056021
 40
7.313402556056021
 10
203.812497208607
 20
172.5
 30
-179.8317238765535
 41
1.466561103835288
 10
203.3958305419403
 20
171.2499999999999
 30
-179.8317238765535
 41
1.693438896164704
 10
203.812497208607
 20
170.0
 30
-179.8317238765535
 41
1.46656110383529
  0
LINE
  5
129E
330
532
100
AcDbEntity
  8
AM_VIS
100
AcDbLine
 10
203.5892062149144
 20
172.5
 30
-179.8317238765535
 11
203.812497208607
 21
172.5
 31
-179.8317238765535
  0
LINE
  5
129F
330
532
100
AcDbEntity
  8
AM_VIS
100
AcDbLine
 10
205.6504451673839
 20
172.5
 30
-179.8317238765535
 11
203.812497208607
 21
172.5
 31
-179.8317238765535
  0
LINE
  5
12A0
330
532
100
AcDbEntity
  8
AM_VIS
100
AcDbLine
 10
205.9314711879955
 20
167.5999999999999
 30
-179.8317238765535
 11
205.8737361610765
 21
167.5
 31
-179.8317238765535
  0
LINE
  5
12A1
330
532
100
AcDbEntity
  8
AM_VIS
100
AcDbLine
 10
205.9314711879955
 20
172.4
 30
-179.8317238765535
 11
205.8737361610765
 21
172.5
 31
-179.8317238765535
  0
LINE
  5
12A2
330
532
100
AcDbEntity
  8
AM_VIS
100
AcDbLine
 10
203.5314711879955
 20
172.4
 30
-179.8317238765535
 11
203.5892062149144
 21
172.5
 31
-179.8317238765535
  0
LINE
  5
12A3
330
532
100
AcDbEntity
  8
AM_VIS
100
AcDbLine
 10
203.5314711879955
 20
167.5999999999999
 30
-179.8317238765535
 11
203.5892062149144
 21
167.5
 31
-179.8317238765535
  0
LINE
  5
12A4
330
532
100
AcDbEntity
  8
AM_VIS
100
AcDbLine
 10
205.9314711879955
 20
167.5999999999999
 30
-179.8317238765535
 11
205.9314711879955
 21
172.3999999999999
 31
-179.8317238765535
  0
LINE
  5
12A5
330
532
100
AcDbEntity
  8
AM_VIS
100
AcDbLine
 10
203.5314711879955
 20
172.4
 30
-179.8317238765535
 11
203.5314711879955
 21
167.5999999999999
 31
-179.8317238765535
  0
SPLINE
  5
12A6
330
532
100
AcDbEntity
  8
AM_VIS
100
AcDbSpline
210
0.0
220
0.0
230
1.0
 70
    12
 71
     2
 72
     6
 73
     3
 74
     0
 42
0.0000000001
 43
0.0000000001
 40
2.746365448925371
 40
2.746365448925371
 40
2.746365448925371
 40
6.656874049027609
 40
6.656874049027609
 40
6.656874049027609
 10
199.8951033661224
 20
170.0
 30
-179.8317238765535
 41
1.587048957087433
 10
200.228436699456
 20
171.0000000000001
 30
-179.8317238765535
 41
1.832566285183312
 10
199.8951033661224
 20
172.0
 30
-179.8317238765535
 41
1.58704895708743
  0
SPLINE
  5
12A7
330
532
100
AcDbEntity
  8
AM_VIS
100
AcDbSpline
210
0.0
220
0.0
230
1.0
 70
    12
 71
     2
 72
     6
 73
     3
 74
     0
 42
0.0000000001
 43
0.0000000001
 40
2.746365448925365
 40
2.746365448925365
 40
2.746365448925365
 40
6.656874049027615
 40
6.656874049027615
 40
6.656874049027615
 10
199.8951033661224
 20
168.0
 30
-179.8317238765535
 41
1.587048957087435
 10
200.228436699456
 20
169.0000000000001
 30
-179.8317238765535
 41
1.832566285183317
 10
199.8951033661224
 20
170.0
 30
-179.8317238765535
 41
1.587048957087434
  0
LINE
  5
12A8
330
532
100
AcDbEntity
  8
AM_VIS
100
AcDbLine
 10
199.8951033661224
 20
168.0
 30
-179.8317238765535
 11
200.0737361610766
 21
168.0
 31
-179.8317238765535
  0
LINE
  5
12A9
330
532
100
AcDbEntity
  8
AM_VIS
100
AcDbLine
 10
199.8951033661224
 20
172.0
 30
-179.8317238765535
 11
200.0737361610766
 21
172.0
 31
-179.8317238765535
  0
LINE
  5
12AA
330
532
100
AcDbEntity
  8
AM_VIS
100
AcDbLine
 10
199.8951033661224
 20
168.0
 30
-179.8317238765535
 11
198.7678390098685
 21
168.0
 31
-179.8317238765535
  0
LINE
  5
12AB
330
532
100
AcDbEntity
  8
AM_VIS
100
AcDbLine
 10
198.5892062149143
 20
168.0
 30
-179.8317238765535
 11
198.7678390098685
 21
168.0
 31
-179.8317238765535
  0
LINE
  5
12AC
330
532
100
AcDbEntity
  8
AM_VIS
100
AcDbLine
 10
199.8951033661224
 20
170.0
 30
-179.8317238765535
 11
198.7678390098685
 21
170.0
 31
-179.8317238765535
  0
SPLINE
  5
12AD
330
532
100
AcDbEntity
  8
AM_VIS
100
AcDbSpline
210
0.0
220
0.0
230
1.0
 70
    12
 71
     2
 72
     6
 73
     3
 74
     0
 42
0.0000000001
 43
0.0000000001
 40
2.591256036699228
 40
2.591256036699228
 40
2.591256036699228
 40
6.397503645751173
 40
6.397503645751173
 40
6.397503645751173
 10
198.7678390098685
 20
170.0
 30
-179.8317238765535
 41
1.548076211353259
 10
198.4345056765351
 20
168.9999999999998
 30
-179.8317238765535
 41
1.787564434701841
 10
198.7678390098685
 20
168.0
 30
-179.8317238765535
 41
1.548076211353259
  0
SPLINE
  5
12AE
330
532
100
AcDbEntity
  8
AM_VIS
100
AcDbSpline
210
0.0
220
-0.0000000000000142
230
1.0
 70
    12
 71
     2
 72
     6
 73
     3
 74
     0
 42
0.0000000001
 43
0.0000000001
 40
2.591256036699217
 40
2.591256036699217
 40
2.591256036699217
 40
6.397503645751164
 40
6.397503645751164
 40
6.397503645751164
 10
198.7678390098685
 20
172.0
 30
-179.8317238765535
 41
1.548076211353256
 10
198.4345056765351
 20
170.9999999999998
 30
-179.8317238765535
 41
1.787564434701839
 10
198.7678390098685
 20
170.0
 30
-179.8317238765535
 41
1.548076211353258
  0
LINE
  5
12AF
330
532
100
AcDbEntity
  8
AM_VIS
100
AcDbLine
 10
198.5892062149143
 20
172.0
 30
-179.8317238765535
 11
198.7678390098685
 21
172.0
 31
-179.8317238765535
  0
LINE
  5
12B0
330
532
100
AcDbEntity
  8
AM_VIS
100
AcDbLine
 10
199.8951033661224
 20
172.0
 30
-179.8317238765535
 11
198.7678390098685
 21
172.0
 31
-179.8317238765535
  0
LINE
  5
12B1
330
532
100
AcDbEntity
  8
AM_VIS
100
AcDbLine
 10
200.1314711879954
 20
168.1
 30
-179.8317238765535
 11
200.0737361610765
 21
168.0
 31
-179.8317238765535
  0
LINE
  5
12B2
330
532
100
AcDbEntity
  8
AM_VIS
100
AcDbLine
 10
200.1314711879954
 20
171.8999999999999
 30
-179.8317238765535
 11
200.0737361610765
 21
171.9999999999999
 31
-179.8317238765535
  0
LINE
  5
12B3
330
532
100
AcDbEntity
  8
AM_VIS
100
AcDbLine
 10
198.5314711879954
 20
171.8999999999999
 30
-179.8317238765535
 11
198.5892062149144
 21
171.9999999999999
 31
-179.8317238765535
  0
LINE
  5
12B4
330
532
100
AcDbEntity
  8
AM_VIS
100
AcDbLine
 10
198.5314711879954
 20
168.1
 30
-179.8317238765535
 11
198.5892062149144
 21
168.0
 31
-179.8317238765535
  0
LINE
  5
12B5
330
532
100
AcDbEntity
  8
AM_VIS
100
AcDbLine
 10
200.1314711879954
 20
168.1
 30
-179.8317238765535
 11
200.1314711879954
 21
171.8999999999999
 31
-179.8317238765535
  0
LINE
  5
12B6
330
532
100
AcDbEntity
  8
AM_VIS
100
AcDbLine
 10
198.5314711879954
 20
171.8999999999999
 30
-179.8317238765535
 11
198.5314711879954
 21
168.1
 31
-179.8317238765535
  0
SPLINE
  5
12B7
330
532
100
AcDbEntity
  8
AM_VIS
100
AcDbSpline
210
0.0
220
0.0
230
1.0
 70
    12
 71
     2
 72
     6
 73
     3
 74
     0
 42
0.0000000001
 43
0.0000000001
 40
2.746365448925371
 40
2.746365448925371
 40
2.746365448925371
 40
6.656874049027609
 40
6.656874049027609
 40
6.656874049027609
 10
198.2951033661224
 20
170.0
 30
-179.8317238765535
 41
1.587048957087433
 10
198.6284366994559
 20
171.0000000000001
 30
-179.8317238765535
 41
1.832566285183312
 10
198.2951033661224
 20
172.0
 30
-179.8317238765535
 41
1.58704895708743
  0
SPLINE
  5
12B8
330
532
100
AcDbEntity
  8
AM_VIS
100
AcDbSpline
210
0.0
220
0.0
230
1.0
 70
    12
 71
     2
 72
     6
 73
     3
 74
     0
 42
0.0000000001
 43
0.0000000001
 40
2.746365448925365
 40
2.746365448925365
 40
2.746365448925365
 40
6.656874049027615
 40
6.656874049027615
 40
6.656874049027615
 10
198.2951033661224
 20
168.0
 30
-179.8317238765535
 41
1.587048957087435
 10
198.6284366994559
 20
169.0000000000001
 30
-179.8317238765535
 41
1.832566285183317
 10
198.2951033661224
 20
170.0
 30
-179.8317238765535
 41
1.587048957087434
  0
LINE
  5
12B9
330
532
100
AcDbEntity
  8
AM_VIS
100
AcDbLine
 10
198.2951033661224
 20
168.0
 30
-179.8317238765535
 11
198.4737361610766
 21
168.0
 31
-179.8317238765535
  0
LINE
  5
12BA
330
532
100
AcDbEntity
  8
AM_VIS
100
AcDbLine
 10
198.2951033661224
 20
172.0
 30
-179.8317238765535
 11
198.4737361610766
 21
172.0
 31
-179.8317238765535
  0
LINE
  5
12BB
330
532
100
AcDbEntity
  8
AM_VIS
100
AcDbLine
 10
198.2951033661224
 20
168.0
 30
-179.8317238765535
 11
197.1678390098685
 21
168.0
 31
-179.8317238765535
  0
LINE
  5
12BC
330
532
100
AcDbEntity
  8
AM_VIS
100
AcDbLine
 10
196.9892062149144
 20
168.0
 30
-179.8317238765535
 11
197.1678390098685
 21
168.0
 31
-179.8317238765535
  0
LINE
  5
12BD
330
532
100
AcDbEntity
  8
AM_VIS
100
AcDbLine
 10
198.2951033661224
 20
170.0
 30
-179.8317238765535
 11
197.1678390098685
 21
170.0
 31
-179.8317238765535
  0
SPLINE
  5
12BE
330
532
100
AcDbEntity
  8
AM_VIS
100
AcDbSpline
210
0.0
220
0.0
230
1.0
 70
    12
 71
     2
 72
     6
 73
     3
 74
     0
 42
0.0000000001
 43
0.0000000001
 40
2.591256036699228
 40
2.591256036699228
 40
2.591256036699228
 40
6.397503645751173
 40
6.397503645751173
 40
6.397503645751173
 10
197.1678390098686
 20
170.0
 30
-179.8317238765535
 41
1.548076211353259
 10
196.8345056765351
 20
168.9999999999998
 30
-179.8317238765535
 41
1.787564434701841
 10
197.1678390098685
 20
168.0
 30
-179.8317238765535
 41
1.548076211353259
  0
SPLINE
  5
12BF
330
532
100
AcDbEntity
  8
AM_VIS
100
AcDbSpline
210
0.0
220
-0.0000000000000142
230
1.0
 70
    12
 71
     2
 72
     6
 73
     3
 74
     0
 42
0.0000000001
 43
0.0000000001
 40
2.591256036699217
 40
2.591256036699217
 40
2.591256036699217
 40
6.397503645751164
 40
6.397503645751164
 40
6.397503645751164
 10
197.1678390098685
 20
172.0
 30
-179.8317238765535
 41
1.548076211353256
 10
196.8345056765351
 20
170.9999999999998
 30
-179.8317238765535
 41
1.787564434701839
 10
197.1678390098685
 20
170.0
 30
-179.8317238765535
 41
1.548076211353258
  0
LINE
  5
12C0
330
532
100
AcDbEntity
  8
AM_VIS
100
AcDbLine
 10
196.9892062149144
 20
172.0
 30
-179.8317238765535
 11
197.1678390098685
 21
172.0
 31
-179.8317238765535
  0
LINE
  5
12C1
330
532
100
AcDbEntity
  8
AM_VIS
100
AcDbLine
 10
198.2951033661224
 20
172.0
 30
-179.8317238765535
 11
197.1678390098685
 21
172.0
 31
-179.8317238765535
  0
LINE
  5
12C2
330
532
100
AcDbEntity
  8
AM_VIS
100
AcDbLine
 10
198.5314711879954
 20
168.1
 30
-179.8317238765535
 11
198.4737361610765
 21
168.0
 31
-179.8317238765535
  0
LINE
  5
12C3
330
532
100
AcDbEntity
  8
AM_VIS
100
AcDbLine
 10
198.5314711879954
 20
171.8999999999999
 30
-179.8317238765535
 11
198.4737361610765
 21
171.9999999999999
 31
-179.8317238765535
  0
LINE
  5
12C4
330
532
100
AcDbEntity
  8
AM_VIS
100
AcDbLine
 10
196.9314711879954
 20
171.8999999999999
 30
-179.8317238765535
 11
196.9892062149144
 21
171.9999999999999
 31
-179.8317238765535
  0
LINE
  5
12C5
330
532
100
AcDbEntity
  8
AM_VIS
100
AcDbLine
 10
196.9314711879954
 20
168.1
 30
-179.8317238765535
 11
196.9892062149144
 21
168.0
 31
-179.8317238765535
  0
LINE
  5
12C6
330
532
100
AcDbEntity
  8
AM_VIS
100
AcDbLine
 10
198.5314711879954
 20
168.1
 30
-179.8317238765535
 11
198.5314711879954
 21
171.8999999999999
 31
-179.8317238765535
  0
LINE
  5
12C7
330
532
100
AcDbEntity
  8
AM_VIS
100
AcDbLine
 10
196.9314711879954
 20
171.8999999999999
 30
-179.8317238765535
 11
196.9314711879954
 21
168.1
 31
-179.8317238765535
  0
CIRCLE
  5
12C8
330
532
100
AcDbEntity
  8
AM_VIS
100
AcDbCircle
 10
262.0300465946771
 20
170.0
 30
-179.8317238765535
 40
1.7
  0
CIRCLE
  5
12C9
330
532
100
AcDbEntity
  8
AM_VIS
100
AcDbCircle
 10
262.0300465946771
 20
170.0
 30
-179.8317238765535
 40
1.150000000000001
  0
CIRCLE
  5
12CA
330
532
100
AcDbEntity
  8
AM_VIS
100
AcDbCircle
 10
262.0300465946771
 20
170.0
 30
-179.8317238765535
 40
2.299999999999999
  0
CIRCLE
  5
12CB
330
532
100
AcDbEntity
  8
AM_VIS
100
AcDbCircle
 10
262.0300465946771
 20
170.0
 30
-179.8317238765535
 40
2.5
  0
CIRCLE
  5
12CC
330
532
100
AcDbEntity
  8
AM_VIS
100
AcDbCircle
 10
262.0300465946771
 20
170.0
 30
-179.8317238765535
 40
0.9500000000000014
  0
CIRCLE
  5
12CD
330
532
100
AcDbEntity
  8
AM_VIS
100
AcDbCircle
 10
262.0300465946771
 20
170.0
 30
-179.8317238765535
 40
0.6
  0
CIRCLE
  5
12CE
330
532
100
AcDbEntity
  8
AM_VIS
100
AcDbCircle
 10
262.0300465946771
 20
170.0
 30
-179.8317238765535
 40
0.5
  0
CIRCLE
  5
12CF
330
532
100
AcDbEntity
  8
AM_VIS
100
AcDbCircle
 10
262.0300465946771
 20
170.0
 30
-179.8317238765535
 40
2.75
  0
CIRCLE
  5
12D0
330
532
100
AcDbEntity
  8
AM_VIS
100
AcDbCircle
 10
262.0300465946771
 20
170.0
 30
-179.8317238765535
 40
2.549999999999999
  0
LINE
  5
12D1
330
532
100
AcDbEntity
  8
AM_VIS
100
AcDbLine
 10
263.1756905184161
 20
172.5
 30
-179.8317238765535
 11
263.4734222676512
 21
172.5
 31
-179.8317238765535
  0
LINE
  5
12D2
330
532
100
AcDbEntity
  8
AM_VIS
100
AcDbLine
 10
260.5866709217031
 20
172.5
 30
-179.8317238765535
 11
260.8844026709382
 21
172.5
 31
-179.8317238765535
  0
LINE
  5
12D3
330
532
100
AcDbEntity
  8
AM_VIS
100
AcDbLine
 10
264.7679320660077
 20
170.2578432583508
 30
-179.8317238765535
 11
264.9167979406253
 21
170.0
 31
-179.8317238765535
  0
LINE
  5
12D4
330
532
100
AcDbEntity
  8
AM_VIS
100
AcDbLine
 10
263.4734222676512
 20
172.5
 30
-179.8317238765535
 11
263.6222881422688
 21
172.2421567416491
 31
-179.8317238765535
  0
LINE
  5
12D5
330
532
100
AcDbEntity
  8
AM_VIS
100
AcDbLine
 10
263.4734222676512
 20
167.5
 30
-179.8317238765535
 11
263.6222881422688
 21
167.7578432583507
 31
-179.8317238765535
  0
LINE
  5
12D6
330
532
100
AcDbEntity
  8
AM_VIS
100
AcDbLine
 10
264.7679320660077
 20
169.7421567416492
 30
-179.8317238765535
 11
264.9167979406253
 21
170.0
 31
-179.8317238765535
  0
LINE
  5
12D7
330
532
100
AcDbEntity
  8
AM_VIS
100
AcDbLine
 10
260.5866709217031
 20
167.5
 30
-179.8317238765535
 11
260.8844026709382
 21
167.5
 31
-179.8317238765535
  0
LINE
  5
12D8
330
532
100
AcDbEntity
  8
AM_VIS
100
AcDbLine
 10
263.1756905184161
 20
167.5
 30
-179.8317238765535
 11
263.4734222676512
 21
167.5
 31
-179.8317238765535
  0
LINE
  5
12D9
330
532
100
AcDbEntity
  8
AM_VIS
100
AcDbLine
 10
259.143295248729
 20
170.0
 30
-179.8317238765535
 11
259.2921611233466
 21
169.7421567416492
 31
-179.8317238765535
  0
LINE
  5
12DA
330
532
100
AcDbEntity
  8
AM_VIS
100
AcDbLine
 10
260.4378050470856
 20
167.7578432583507
 30
-179.8317238765535
 11
260.5866709217031
 21
167.5
 31
-179.8317238765535
  0
LINE
  5
12DB
330
532
100
AcDbEntity
  8
AM_VIS
100
AcDbLine
 10
260.4378050470856
 20
172.2421567416492
 30
-179.8317238765535
 11
260.5866709217031
 21
172.5
 31
-179.8317238765535
  0
LINE
  5
12DC
330
532
100
AcDbEntity
  8
AM_VIS
100
AcDbLine
 10
259.143295248729
 20
170.0
 30
-179.8317238765535
 11
259.2921611233466
 21
170.2578432583507
 31
-179.8317238765535
  0
DIMENSION
  5
153A
330
532
100
AcDbEntity
  8
AM_REFDIM
100
AcDbDimension
  2
*D1
 10
198.5314711879954
 20
180.233094228944
 30
-179.8317238765535
 11
208.3171854737097
 21
182.733094228944
 31
-179.8317238765535
 70
    32
  3
STANDARD
100
AcDbAlignedDimension
 13
196.9314711879954
 23
171.8999999999999
 33
-179.8317238765535
 14
198.5314711879954
 24
171.8999999999999
 34
-179.8317238765535
100
AcDbRotatedDimension
  0
DIMENSION
  5
1549
330
532
100
AcDbEntity
  8
AM_REFDIM
100
AcDbDimension
  2
*D2
 10
205.9314711879955
 20
186.9907710637307
 30
-179.8317238765535
 11
216.1457569022812
 21
189.4907710637307
 31
-179.8317238765535
 70
    32
  3
STANDARD
100
AcDbAlignedDimension
 13
203.5314711879955
 23
172.4
 33
-179.8317238765535
 14
205.9314711879955
 24
172.3999999999999
 34
-179.8317238765535
100
AcDbRotatedDimension
  0
DIMENSION
  5
1558
330
532
100
AcDbEntity
  8
AM_REFDIM
100
AcDbDimension
  2
*D3
 10
200.9314711879954
 20
161.3960559534236
 30
-179.8317238765535
 11
197.9314711879954
 21
163.8960559534236
 31
-179.8317238765535
 70
    32
  3
STANDARD
100
AcDbAlignedDimension
 13
194.9314711879955
 23
169.25
 33
-179.8317238765535
 14
200.9314711879954
 24
169.05
 34
-179.8317238765535
100
AcDbRotatedDimension
  0
DIMENSION
  5
1567
330
532
100
AcDbEntity
  8
AM_REFDIM
100
AcDbDimension
  2
*D4
 10
207.9314711879955
 20
156.1608368613438
 30
-179.8317238765535
 11
204.9314711879954
 21
158.6608368613438
 31
-179.8317238765535
 70
    32
  3
STANDARD
100
AcDbAlignedDimension
 13
201.9314711879955
 23
168.3249999999999
 33
-179.8317238765535
 14
207.9314711879955
 24
167.4499999999999
 34
-179.8317238765535
100
AcDbRotatedDimension
  0
DIMENSION
  5
1576
330
532
100
AcDbEntity
  8
AM_REFDIM
100
AcDbDimension
  2
*D5
 10
207.9314711879955
 20
145.4465119107962
 30
-179.8317238765535
 11
201.4314711879955
 21
147.9465119107962
 31
-179.8317238765535
 70
    32
  3
STANDARD
100
AcDbAlignedDimension
 13
194.9314711879955
 23
169.25
 33
-179.8317238765535
 14
207.9314711879955
 24
167.4499999999999
 34
-179.8317238765535
100
AcDbRotatedDimension
  0
DIMENSION
  5
15AE
330
532
100
AcDbEntity
  8
AM_REFDIM
100
AcDbDimension
  2
*D6
 10
236.4314711879955
 20
145.4465119107962
 30
-179.8317238765535
 11
222.1814711879955
 21
147.9465119107962
 31
-179.8317238765535
 70
    32
  3
STANDARD
100
AcDbAlignedDimension
 13
207.9314711879955
 23
167.4499999999999
 33
-179.8317238765535
 14
236.4314711879955
 24
167.6999999999999
 34
-179.8317238765535
100
AcDbRotatedDimension
  0
DIMENSION
  5
15BB
330
532
100
AcDbEntity
  8
AM_REFDIM
100
AcDbDimension
  2
*D7
 10
243.9314711879954
 20
145.4465119107962
 30
-179.8317238765535
 11
254.0743283308526
 21
147.9465119107962
 31
-179.8317238765535
 70
    32
  3
STANDARD
100
AcDbAlignedDimension
 13
236.4314711879955
 23
167.6999999999999
 33
-179.8317238765535
 14
243.9314711879954
 24
169.0499999999999
 34
-179.8317238765535
100
AcDbRotatedDimension
  0
DIMENSION
  5
1629
330
532
100
AcDbEntity
  8
AM_REFDIM
100
AcDbDimension
  2
*D8
 10
219.1958021207592
 20
167.25
 30
-179.8317238765535
 11
216.6958021207592
 21
155.75
 31
-179.8317238765535
 70
    32
  1
{\f????|b0|i0|c0|p54;%%c5.5}
  3
STANDARD
100
AcDbAlignedDimension
 13
209.7314711879955
 23
172.75
 33
-179.8317238765535
 14
209.7314711879955
 24
167.25
 34
-179.8317238765535
 50
90.0
100
AcDbRotatedDimension
  0
DIMENSION
  5
1655
330
532
100
AcDbEntity
  8
AM_REFDIM
100
AcDbDimension
  2
*D9
 10
249.419878246692
 20
168.3
 30
-179.8317238765535
 11
246.919878246692
 21
156.7285714285714
 31
-179.8317238765535
 70
    32
  1
{\f????|b0|i0|c0|p54;%%c3.4}
  3
STANDARD
100
AcDbAlignedDimension
 13
241.7314711879954
 23
171.6999999999999
 33
-179.8317238765535
 14
241.7314711879955
 24
168.3
 34
-179.8317238765535
 50
90.0
100
AcDbRotatedDimension
  0
DIMENSION
  5
1664
330
532
100
AcDbEntity
  8
AM_REFDIM
100
AcDbDimension
  2
*D10
 10
255.1705475775995
 20
167.5
 30
-179.8317238765535
 11
252.6705475775995
 21
158.1428571428571
 31
-179.8317238765535
 70
    32
  1
{\f????|b0|i0|c0|p54;%%C5}
  3
STANDARD
100
AcDbAlignedDimension
 13
236.2314711879955
 23
172.5
 33
-179.8317238765535
 14
236.2314711879955
 24
167.5
 34
-179.8317238765535
 50
90.0
100
AcDbRotatedDimension
  0
TEXT
  5
1673
330
532
100
AcDbEntity
  8
AM_REFDIM
100
AcDbText
 10
223.364972058323
 20
183.8881593154877
 30
-179.8317238765535
 40
2.5
  1
M4x0.7
100
AcDbText
  0
TEXT
  5
1675
330
532
100
AcDbEntity
  8
AM_REFDIM
100
AcDbText
 10
172.0595449491568
 20
157.1039727162722
 30
-179.8317238765535
 40
2.5
  1
M2x0.4
100
AcDbText
  0
LEADER
  5
168C
330
532
100
AcDbEntity
  8
AM_REFDIM
100
AcDbLeader
  3
STANDARD
 73
     0
 40
3.0
 76
     3
 10
206.342323260316
 20
171.9749999999999
 30
-179.8317238765535
 10
221.0587407770083
 20
183.2095256757962
 30
-179.8317238765535
 10
236.015100308664
 20
183.2095256757962
 30
-179.8317238765535
340
168D
213
0.0
223
-1.5
233
0.0
1001
ACAD
1000
DSTYLE
1002
{
1070
     5
1000

1070
    77
1070
     0
1070
   147
1040
1.0
1002
}
1000
LEANOF
1010
0.0
1020
-1.5
1030
0.0
  0
MTEXT
  5
168D
330
532
100
AcDbEntity
  8
0
 62
     5
100
AcDbMText
 10
152.1513708249506
 20
171.365265689894
 30
-179.8317238765535
 40
3.0
 41
0.0
 71
     1
 72
     1
  1

  7
DAYUS
1001
ACAD
1000
MTEXTBEGIN
1070
    73
1070
     1
1070
    44
1040
1.0
1070
    74
1070
     0
1000
MTEXTEND
  0
LEADER
  5
168E
330
532
100
AcDbEntity
  8
AM_REFDIM
100
AcDbLeader
  3
STANDARD
 73
     0
 40
3.0
 76
     3
 10
196.1292659226595
 20
169.05
 30
-179.8317238765535
 10
185.429894787488
 20
156.0703970487063
 30
-179.8317238765535
 10
171.6001392071613
 20
156.0703970487063
 30
-179.8317238765535
340
168F
213
0.0
223
1.5
233
0.0
1001
ACAD
1000
DSTYLE
1002
{
1070
     5
1000

1070
    77
1070
     0
1070
   147
1040
1.0
1002
}
1000
LEANOF
1010
0.0
1020
1.5
1030
0.0
  0
MTEXT
  5
168F
330
532
100
AcDbEntity
  8
0
 62
     5
100
AcDbMText
 10
85.7364097234479
 20
141.2261370628041
 30
-179.8317238765535
 40
3.0
 41
0.0
 71
     9
 72
     1
  1

  7
DAYUS
1001
ACAD
1000
MTEXTBEGIN
1070
    73
1070
     1
1070
    44
1040
1.0
1070
    74
1070
     0
1000
MTEXTEND
  0
LINE
  5
1690
330
532
100
AcDbEntity
  8
AM_VIS
100
AcDbLine
 10
77.02521683902711
 20
172.0720815248402
 30
-179.8317238765535
 11
59.82521683902712
 21
172.0720815248402
 31
-179.8317238765535
  0
LINE
  5
1691
330
532
100
AcDbEntity
  8
AM_7
100
AcDbLine
 10
86.12521683902713
 20
169.5720815248401
 30
-179.8317238765535
 11
43.32521683902712
 21
169.5720815248401
 31
-179.8317238765535
  0
ARC
  5
1693
330
532
100
AcDbEntity
  8
AM_VIS
100
AcDbCircle
 10
29.79374565103162
 20
169.5720815248401
 30
-179.8317238765535
 40
2.75
100
AcDbArc
 50
5.380022671342806
 51
54.61997732865695
  0
ARC
  5
1694
330
532
100
AcDbEntity
  8
AM_VIS
100
AcDbCircle
 10
29.79374565103162
 20
169.5720815248401
 30
-179.8317238765535
 40
2.169615242270665
100
AcDbArc
 50
307.1939802519816
 51
352.8060197480182
  0
ARC
  5
1695
330
532
100
AcDbEntity
  8
AM_VIS
100
AcDbCircle
 10
29.79374565103162
 20
169.5720815248401
 30
-179.8317238765535
 40
2.169615242270665
100
AcDbArc
 50
7.193980251981738
 51
52.80601974801835
  0
LINE
  5
1696
330
532
100
AcDbEntity
  8
AM_VIS
100
AcDbLine
 10
31.23712132400569
 20
172.0720815248402
 30
-179.8317238765535
 11
32.68049699697977
 21
169.5720815248401
 31
-179.8317238765535
  0
LINE
  5
1697
330
532
100
AcDbEntity
  8
AM_VIS
100
AcDbLine
 10
30.94844618941087
 20
171.5720815248402
 30
-179.8317238765535
 11
32.10314672779015
 21
169.5720815248401
 31
-179.8317238765535
  0
LINE
  5
1698
330
532
100
AcDbEntity
  8
AM_VIS
100
AcDbLine
 10
30.94844618941087
 20
167.5720815248402
 30
-179.8317238765535
 11
32.10314672779015
 21
169.5720815248401
 31
-179.8317238765535
  0
ARC
  5
1699
330
532
100
AcDbEntity
  8
AM_VIS
100
AcDbCircle
 10
29.79374565103162
 20
169.5720815248401
 30
-179.8317238765535
 40
2.75
100
AcDbArc
 50
305.380022671343
 51
354.6199773286572
  0
LINE
  5
169A
330
532
100
AcDbEntity
  8
AM_VIS
100
AcDbLine
 10
31.23712132400569
 20
167.0720815248402
 30
-179.8317238765535
 11
32.68049699697977
 21
169.5720815248401
 31
-179.8317238765535
  0
CIRCLE
  5
169B
330
532
100
AcDbEntity
  8
AM_VIS
100
AcDbCircle
 10
29.79374565103162
 20
169.5720815248401
 30
-179.8317238765535
 40
2.400000000000003
  0
CIRCLE
  5
169C
330
532
100
AcDbEntity
  8
AM_VIS
100
AcDbCircle
 10
29.79374565103162
 20
169.5720815248401
 30
-179.8317238765535
 40
1.900000000000003
  0
LINE
  5
169D
330
532
100
AcDbEntity
  8
AM_7
100
AcDbLine
 10
29.79374565103162
 20
171.3720815248402
 30
-179.8317238765535
 11
29.79374565103162
 21
175.0720815248401
 31
-179.8317238765535
  0
LINE
  5
169E
330
532
100
AcDbEntity
  8
AM_7
100
AcDbLine
 10
29.79374565103162
 20
164.0720815248402
 30
-179.8317238765535
 11
29.79374565103162
 21
167.7720815248401
 31
-179.8317238765535
  0
ARC
  5
169F
330
532
100
AcDbEntity
  8
AM_VIS
100
AcDbCircle
 10
29.79374565103162
 20
169.5720815248401
 30
-179.8317238765535
 40
2.75
100
AcDbArc
 50
185.3800226713428
 51
234.6199773286565
  0
LINE
  5
16A0
330
532
100
AcDbEntity
  8
AM_VIS
100
AcDbLine
 10
26.90699430508348
 20
169.5720815248401
 30
-179.8317238765535
 11
28.35036997805755
 21
167.0720815248402
 31
-179.8317238765535
  0
ARC
  5
16A1
330
532
100
AcDbEntity
  8
AM_VIS
100
AcDbCircle
 10
29.79374565103162
 20
169.5720815248401
 30
-179.8317238765535
 40
2.549999999999999
100
AcDbArc
 50
258.635123032966
 51
270.0
  0
ARC
  5
16A2
330
532
100
AcDbEntity
  8
AM_VIS
100
AcDbCircle
 10
29.79374565103162
 20
169.5720815248401
 30
-179.8317238765535
 40
2.75
100
AcDbArc
 50
245.3800226713428
 51
270.0
  0
ARC
  5
16A3
330
532
100
AcDbEntity
  8
AM_VIS
100
AcDbCircle
 10
29.79374565103162
 20
169.5720815248401
 30
-179.8317238765535
 40
2.549999999999999
100
AcDbArc
 50
270.0
 51
281.3648769670339
  0
ARC
  5
16A4
330
532
100
AcDbEntity
  8
AM_VIS
100
AcDbCircle
 10
29.79374565103162
 20
169.5720815248401
 30
-179.8317238765535
 40
2.75
100
AcDbArc
 50
270.0
 51
294.6199773286571
  0
LINE
  5
16A5
330
532
100
AcDbEntity
  8
AM_VIS
100
AcDbLine
 10
28.35036997805755
 20
167.0720815248402
 30
-179.8317238765535
 11
31.23712132400569
 21
167.0720815248402
 31
-179.8317238765535
  0
ARC
  5
16A6
330
532
100
AcDbEntity
  8
AM_VIS
100
AcDbCircle
 10
29.79374565103162
 20
169.5720815248401
 30
-179.8317238765535
 40
2.549999999999999
100
AcDbArc
 50
138.6351230329679
 51
161.3648769670321
  0
ARC
  5
16A7
330
532
100
AcDbEntity
  8
AM_VIS
100
AcDbCircle
 10
29.79374565103162
 20
169.5720815248401
 30
-179.8317238765535
 40
2.549999999999999
100
AcDbArc
 50
198.6351230329669
 51
221.3648769670332
  0
ARC
  5
16A8
330
532
100
AcDbEntity
  8
AM_VIS
100
AcDbCircle
 10
29.79374565103162
 20
169.5720815248401
 30
-179.8317238765535
 40
2.75
100
AcDbArc
 50
125.3800226713433
 51
174.6199773286563
  0
LINE
  5
16A9
330
532
100
AcDbEntity
  8
AM_VIS
100
AcDbLine
 10
26.90699430508348
 20
169.5720815248401
 30
-179.8317238765535
 11
28.35036997805755
 21
172.0720815248402
 31
-179.8317238765535
  0
LINE
  5
16AA
330
532
100
AcDbEntity
  8
AM_7
100
AcDbLine
 10
24.29374565103163
 20
169.5720815248401
 30
-179.8317238765535
 11
27.99374565103164
 21
169.5720815248401
 31
-179.8317238765535
  0
LINE
  5
16AB
330
532
100
AcDbEntity
  8
AM_7
100
AcDbLine
 10
29.79374565103162
 20
168.5720815248402
 30
-179.8317238765535
 11
29.79374565103162
 21
170.5720815248402
 31
-179.8317238765535
  0
ARC
  5
16AC
330
532
100
AcDbEntity
  8
AM_VIS
100
AcDbCircle
 10
29.79374565103162
 20
169.5720815248401
 30
-179.8317238765535
 40
2.169615242270665
100
AcDbArc
 50
187.1939802519825
 51
232.8060197480172
  0
ARC
  5
16AD
330
532
100
AcDbEntity
  8
AM_VIS
100
AcDbCircle
 10
29.79374565103162
 20
169.5720815248401
 30
-179.8317238765535
 40
2.169615242270665
100
AcDbArc
 50
127.1939802519827
 51
172.8060197480174
  0
LINE
  5
16AE
330
532
100
AcDbEntity
  8
AM_VIS
100
AcDbLine
 10
27.48434457427311
 20
169.5720815248401
 30
-179.8317238765535
 11
28.63904511265235
 21
171.5720815248402
 31
-179.8317238765535
  0
LINE
  5
16AF
330
532
100
AcDbEntity
  8
AM_VIS
100
AcDbLine
 10
27.48434457427311
 20
169.5720815248401
 30
-179.8317238765535
 11
28.63904511265235
 21
167.5720815248402
 31
-179.8317238765535
  0
LINE
  5
16B0
330
532
100
AcDbEntity
  8
AM_7
100
AcDbLine
 10
28.79374565103162
 20
169.5720815248401
 30
-179.8317238765535
 11
30.79374565103162
 21
169.5720815248401
 31
-179.8317238765535
  0
ARC
  5
16B1
330
532
100
AcDbEntity
  8
AM_VIS
100
AcDbCircle
 10
29.79374565103162
 20
169.5720815248401
 30
-179.8317238765535
 40
2.549999999999999
100
AcDbArc
 50
78.63512303296849
 51
101.3648769670315
  0
ARC
  5
16B2
330
532
100
AcDbEntity
  8
AM_VIS
100
AcDbCircle
 10
29.79374565103162
 20
169.5720815248401
 30
-179.8317238765535
 40
2.75
100
AcDbArc
 50
65.38002267134391
 51
114.619977328656
  0
CIRCLE
  5
16B3
330
532
100
AcDbEntity
  8
AM_VIS
100
AcDbCircle
 10
29.79374565103162
 20
169.5720815248401
 30
-179.8317238765535
 40
0.9499999999999998
  0
CIRCLE
  5
16B4
330
532
100
AcDbEntity
  8
AM_VIS
100
AcDbCircle
 10
29.79374565103162
 20
169.5720815248401
 30
-179.8317238765535
 40
0.75
  0
ARC
  5
16B5
330
532
100
AcDbEntity
  8
AM_VIS
100
AcDbCircle
 10
29.79374565103162
 20
169.5720815248401
 30
-179.8317238765535
 40
2.169615242270665
100
AcDbArc
 50
247.1939802519823
 51
292.8060197480176
  0
ARC
  5
16B6
330
532
100
AcDbEntity
  8
AM_VIS
100
AcDbCircle
 10
29.79374565103162
 20
169.5720815248401
 30
-179.8317238765535
 40
2.169615242270665
100
AcDbArc
 50
67.19398025198195
 51
112.8060197480176
  0
LINE
  5
16B7
330
532
100
AcDbEntity
  8
AM_VIS
100
AcDbLine
 10
28.35036997805755
 20
172.0720815248402
 30
-179.8317238765535
 11
31.23712132400569
 21
172.0720815248402
 31
-179.8317238765535
  0
CIRCLE
  5
16B8
330
532
100
AcDbEntity
  8
AM_VIS
100
AcDbCircle
 10
29.79374565103162
 20
169.5720815248401
 30
-179.8317238765535
 40
1.319615242270666
  0
LINE
  5
16B9
330
532
100
AcDbEntity
  8
AM_VIS
100
AcDbLine
 10
28.63904511265235
 20
171.5720815248402
 30
-179.8317238765535
 11
30.94844618941087
 21
171.5720815248402
 31
-179.8317238765535
  0
LINE
  5
16BA
330
532
100
AcDbEntity
  8
AM_VIS
100
AcDbLine
 10
28.63904511265235
 20
167.5720815248402
 30
-179.8317238765535
 11
30.94844618941087
 21
167.5720815248402
 31
-179.8317238765535
  0
LINE
  5
16BB
330
532
100
AcDbEntity
  8
AM_VIS
100
AcDbLine
 10
48.08884901715408
 20
167.5720815248402
 30
-179.8317238765535
 11
46.96158466090014
 21
167.5720815248402
 31
-179.8317238765535
  0
LINE
  5
16BC
330
532
100
AcDbEntity
  8
AM_VIS
100
AcDbLine
 10
48.08884901715408
 20
169.5720815248401
 30
-179.8317238765535
 11
46.96158466090014
 21
169.5720815248401
 31
-179.8317238765535
  0
LINE
  5
16BD
330
532
100
AcDbEntity
  8
AM_VIS
100
AcDbLine
 10
48.08884901715408
 20
171.5720815248402
 30
-179.8317238765535
 11
46.96158466090014
 21
171.5720815248402
 31
-179.8317238765535
  0
ARC
  5
16BE
330
532
100
AcDbEntity
  8
AM_VIS
100
AcDbCircle
 10
29.79374565103162
 20
169.5720815248401
 30
-179.8317238765535
 40
2.549999999999999
100
AcDbArc
 50
318.6351230329658
 51
341.3648769670339
  0
ARC
  5
16BF
330
532
100
AcDbEntity
  8
AM_VIS
100
AcDbCircle
 10
29.79374565103162
 20
169.5720815248401
 30
-179.8317238765535
 40
2.549999999999999
100
AcDbArc
 50
18.63512303296696
 51
41.36487696703298
  0
LINE
  5
16C0
330
532
100
AcDbEntity
  8
AM_7
100
AcDbLine
 10
31.59374565103161
 20
169.5720815248401
 30
-179.8317238765535
 11
35.29374565103163
 21
169.5720815248401
 31
-179.8317238765535
  0
LINE
  5
16C1
330
532
100
AcDbEntity
  8
AM_VIS
100
AcDbLine
 10
46.78295186594602
 20
167.5720815248402
 30
-179.8317238765535
 11
46.96158466090014
 21
167.5720815248402
 31
-179.8317238765535
  0
SPLINE
  5
16C2
330
532
100
AcDbEntity
  8
AM_VIS
100
AcDbSpline
210
0.0
220
0.0
230
1.0
 70
    12
 71
     2
 72
     6
 73
     3
 74
     0
 42
0.0000000001
 43
0.0000000001
 40
2.591256036699228
 40
2.591256036699228
 40
2.591256036699228
 40
6.397503645751173
 40
6.397503645751173
 40
6.397503645751173
 10
46.9615846609002
 20
169.5720815248402
 30
-179.8317238765535
 41
1.548076211353259
 10
46.62825132756671
 20
168.57208152484
 30
-179.8317238765535
 41
1.787564434701841
 10
46.96158466090014
 20
167.5720815248402
 30
-179.8317238765535
 41
1.548076211353259
  0
SPLINE
  5
16C3
330
532
100
AcDbEntity
  8
AM_VIS
100
AcDbSpline
210
0.0
220
-0.0000000000000142
230
1.0
 70
    12
 71
     2
 72
     6
 73
     3
 74
     0
 42
0.0000000001
 43
0.0000000001
 40
2.591256036699217
 40
2.591256036699217
 40
2.591256036699217
 40
6.397503645751164
 40
6.397503645751164
 40
6.397503645751164
 10
46.96158466090014
 20
171.5720815248402
 30
-179.8317238765535
 41
1.548076211353256
 10
46.62825132756677
 20
170.57208152484
 30
-179.8317238765535
 41
1.787564434701839
 10
46.96158466090014
 20
169.5720815248401
 30
-179.8317238765535
 41
1.548076211353258
  0
LINE
  5
16C4
330
532
100
AcDbEntity
  8
AM_VIS
100
AcDbLine
 10
46.78295186594602
 20
171.5720815248402
 30
-179.8317238765535
 11
46.96158466090014
 21
171.5720815248402
 31
-179.8317238765535
  0
LINE
  5
16C5
330
532
100
AcDbEntity
  8
AM_VIS
100
AcDbLine
 10
46.7252168390271
 20
171.4720815248401
 30
-179.8317238765535
 11
46.78295186594607
 21
171.5720815248401
 31
-179.8317238765535
  0
LINE
  5
16C6
330
532
100
AcDbEntity
  8
AM_VIS
100
AcDbLine
 10
46.7252168390271
 20
167.6720815248401
 30
-179.8317238765535
 11
46.78295186594607
 21
167.5720815248402
 31
-179.8317238765535
  0
LINE
  5
16C7
330
532
100
AcDbEntity
  8
AM_VIS
100
AcDbLine
 10
46.7252168390271
 20
171.4720815248401
 30
-179.8317238765535
 11
46.7252168390271
 21
167.6720815248401
 31
-179.8317238765535
  0
LINE
  5
16C8
330
532
100
AcDbEntity
  8
AM_VIS
100
AcDbLine
 10
44.72521683902712
 20
170.3220815248402
 30
-179.8317238765535
 11
44.92521683902714
 21
170.5220815248401
 31
-179.8317238765535
  0
LINE
  5
16C9
330
532
100
AcDbEntity
  8
AM_VIS
100
AcDbLine
 10
44.72521683902712
 20
168.8220815248401
 30
-179.8317238765535
 11
44.92521683902714
 21
168.6220815248402
 31
-179.8317238765535
  0
LINE
  5
16CA
330
532
100
AcDbEntity
  8
AM_VIS
100
AcDbLine
 10
44.72521683902712
 20
168.8220815248401
 30
-179.8317238765535
 11
44.72521683902712
 21
170.3220815248402
 31
-179.8317238765535
  0
LINE
  5
16CB
330
532
100
AcDbEntity
  8
AM_VIS
100
AcDbLine
 10
44.92521683902714
 20
170.5220815248401
 30
-179.8317238765535
 11
44.92521683902714
 21
168.6220815248401
 31
-179.8317238765535
  0
LINE
  5
16CC
330
532
100
AcDbEntity
  8
AM_VIS
100
AcDbLine
 10
46.7252168390271
 20
168.6220815248402
 30
-179.8317238765535
 11
44.92521683902714
 21
168.6220815248402
 31
-179.8317238765535
  0
LINE
  5
16CD
330
532
100
AcDbEntity
  8
AM_VIS
100
AcDbLine
 10
46.7252168390271
 20
170.5220815248401
 30
-179.8317238765535
 11
44.92521683902714
 21
170.5220815248401
 31
-179.8317238765535
  0
LINE
  5
16CE
330
532
100
AcDbEntity
  8
AM_VIS
100
AcDbLine
 10
56.7252168390271
 20
167.5970815248401
 30
-179.8317238765535
 11
55.7252168390271
 21
167.5970815248401
 31
-179.8317238765535
  0
LINE
  5
16CF
330
532
100
AcDbEntity
  8
AM_VIS
100
AcDbLine
 10
56.7252168390271
 20
171.5470815248401
 30
-179.8317238765535
 11
55.7252168390271
 21
171.5470815248401
 31
-179.8317238765535
  0
SPLINE
  5
16D0
330
532
100
AcDbEntity
  8
AM_VIS
100
AcDbSpline
210
0.0
220
-0.0000000000000114
230
1.0
 70
    12
 71
     2
 72
     6
 73
     3
 74
     0
 42
0.0000000001
 43
0.0000000001
 40
2.828260686890516
 40
2.828260686890516
 40
2.828260686890516
 40
7.31340255605604
 40
7.31340255605604
 40
7.31340255605604
 10
55.44419081841557
 20
167.0720815248402
 30
-179.8317238765535
 41
1.466561103835292
 10
55.86085748508224
 20
168.3220815248402
 30
-179.8317238765535
 41
1.69343889616471
 10
55.44419081841556
 20
169.5720815248401
 30
-179.8317238765534
 41
1.466561103835292
  0
LINE
  5
16D1
330
532
100
AcDbEntity
  8
AM_VIS
100
AcDbLine
 10
55.7252168390271
 20
167.1720815248401
 30
-179.8317238765535
 11
55.7252168390271
 21
171.9720815248401
 31
-179.8317238765535
  0
SPLINE
  5
16D2
330
532
100
AcDbEntity
  8
AM_VIS
100
AcDbSpline
210
0.0
220
0.0000000000000114
230
1.0
 70
    12
 71
     2
 72
     6
 73
     3
 74
     0
 42
0.0000000001
 43
0.0000000001
 40
2.828260686890516
 40
2.828260686890516
 40
2.828260686890516
 40
7.313402556056042
 40
7.313402556056042
 40
7.313402556056042
 10
53.60624285963871
 20
169.5720815248401
 30
-179.8317238765535
 41
1.466561103835291
 10
53.18957619297203
 20
168.3220815248401
 30
-179.8317238765535
 41
1.693438896164708
 10
53.60624285963871
 20
167.0720815248402
 30
-179.8317238765535
 41
1.466561103835291
  0
LINE
  5
16D3
330
532
100
AcDbEntity
  8
AM_VIS
100
AcDbLine
 10
53.32521683902712
 20
171.9720815248401
 30
-179.8317238765535
 11
53.32521683902712
 21
167.1720815248401
 31
-179.8317238765535
  0
LINE
  5
16D4
330
532
100
AcDbEntity
  8
AM_VIS
100
AcDbLine
 10
55.44419081841557
 20
167.0720815248402
 30
-179.8317238765535
 11
55.66748181210818
 21
167.0720815248402
 31
-179.8317238765535
  0
LINE
  5
16D5
330
532
100
AcDbEntity
  8
AM_VIS
100
AcDbLine
 10
55.7252168390271
 20
167.1720815248401
 30
-179.8317238765535
 11
55.66748181210818
 21
167.0720815248402
 31
-179.8317238765535
  0
LINE
  5
16D6
330
532
100
AcDbEntity
  8
AM_VIS
100
AcDbLine
 10
53.3829518659461
 20
167.0720815248402
 30
-179.8317238765535
 11
53.60624285963865
 21
167.0720815248402
 31
-179.8317238765535
  0
LINE
  5
16D7
330
532
100
AcDbEntity
  8
AM_VIS
100
AcDbLine
 10
53.32521683902712
 20
167.1720815248401
 30
-179.8317238765535
 11
53.3829518659461
 21
167.0720815248402
 31
-179.8317238765535
  0
LINE
  5
16D8
330
532
100
AcDbEntity
  8
AM_VIS
100
AcDbLine
 10
55.44419081841557
 20
167.0720815248402
 30
-179.8317238765535
 11
53.60624285963871
 21
167.0720815248402
 31
-179.8317238765535
  0
LINE
  5
16D9
330
532
100
AcDbEntity
  8
AM_VIS
100
AcDbLine
 10
51.7252168390271
 20
171.2470815248402
 30
-179.8317238765535
 11
52.24483208129777
 21
171.5470815248401
 31
-179.8317238765535
  0
LINE
  5
16DA
330
532
100
AcDbEntity
  8
AM_VIS
100
AcDbLine
 10
51.7252168390271
 20
167.8970815248401
 30
-179.8317238765535
 11
52.24483208129777
 21
167.5970815248401
 31
-179.8317238765535
  0
LINE
  5
16DB
330
532
100
AcDbEntity
  8
AM_VIS
100
AcDbLine
 10
51.7252168390271
 20
167.8970815248401
 30
-179.8317238765535
 11
51.7252168390271
 21
171.2470815248401
 31
-179.8317238765535
  0
LINE
  5
16DC
330
532
100
AcDbEntity
  8
AM_VIS
100
AcDbLine
 10
50.7252168390271
 20
170.4220815248401
 30
-179.8317238765535
 11
51.7252168390271
 21
170.4220815248401
 31
-179.8317238765535
  0
LINE
  5
16DD
330
532
100
AcDbEntity
  8
AM_VIS
100
AcDbLine
 10
50.7252168390271
 20
168.7220815248401
 30
-179.8317238765535
 11
51.7252168390271
 21
168.7220815248401
 31
-179.8317238765535
  0
LINE
  5
16DE
330
532
100
AcDbEntity
  8
AM_VIS
100
AcDbLine
 10
50.7252168390271
 20
170.5220815248401
 30
-179.8317238765535
 11
50.7252168390271
 21
168.6220815248401
 31
-179.8317238765535
  0
SPLINE
  5
16DF
330
532
100
AcDbEntity
  8
AM_VIS
100
AcDbSpline
210
0.0
220
0.0
230
1.0
 70
    12
 71
     2
 72
     6
 73
     3
 74
     0
 42
0.0000000001
 43
0.0000000001
 40
2.746365448925371
 40
2.746365448925371
 40
2.746365448925371
 40
6.656874049027609
 40
6.656874049027609
 40
6.656874049027609
 10
49.6888490171541
 20
169.5720815248401
 30
-179.8317238765535
 41
1.587048957087433
 10
50.02218235048758
 20
170.5720815248404
 30
-179.8317238765535
 41
1.832566285183312
 10
49.68884901715409
 20
171.5720815248402
 30
-179.8317238765535
 41
1.58704895708743
  0
SPLINE
  5
16E0
330
532
100
AcDbEntity
  8
AM_VIS
100
AcDbSpline
210
0.0
220
0.0
230
1.0
 70
    12
 71
     2
 72
     6
 73
     3
 74
     0
 42
0.0000000001
 43
0.0000000001
 40
2.746365448925365
 40
2.746365448925365
 40
2.746365448925365
 40
6.656874049027615
 40
6.656874049027615
 40
6.656874049027615
 10
49.68884901715409
 20
167.5720815248402
 30
-179.8317238765535
 41
1.587048957087435
 10
50.02218235048758
 20
168.5720815248403
 30
-179.8317238765535
 41
1.832566285183317
 10
49.68884901715409
 20
169.5720815248402
 30
-179.8317238765535
 41
1.587048957087434
  0
LINE
  5
16E1
330
532
100
AcDbEntity
  8
AM_VIS
100
AcDbLine
 10
49.68884901715409
 20
167.5720815248402
 30
-179.8317238765535
 11
49.86748181210828
 21
167.5720815248402
 31
-179.8317238765535
  0
LINE
  5
16E2
330
532
100
AcDbEntity
  8
AM_VIS
100
AcDbLine
 10
49.68884901715409
 20
171.5720815248402
 30
-179.8317238765535
 11
49.86748181210828
 21
171.5720815248402
 31
-179.8317238765535
  0
LINE
  5
16E3
330
532
100
AcDbEntity
  8
AM_VIS
100
AcDbLine
 10
49.68884901715409
 20
167.5720815248402
 30
-179.8317238765535
 11
48.56158466090017
 21
167.5720815248402
 31
-179.8317238765535
  0
LINE
  5
16E4
330
532
100
AcDbEntity
  8
AM_VIS
100
AcDbLine
 10
48.38295186594604
 20
167.5720815248402
 30
-179.8317238765535
 11
48.56158466090017
 21
167.5720815248402
 31
-179.8317238765535
  0
LINE
  5
16E5
330
532
100
AcDbEntity
  8
AM_VIS
100
AcDbLine
 10
49.68884901715409
 20
169.5720815248401
 30
-179.8317238765535
 11
48.56158466090017
 21
169.5720815248401
 31
-179.8317238765535
  0
SPLINE
  5
16E6
330
532
100
AcDbEntity
  8
AM_VIS
100
AcDbSpline
210
0.0
220
0.0
230
1.0
 70
    12
 71
     2
 72
     6
 73
     3
 74
     0
 42
0.0000000001
 43
0.0000000001
 40
2.591256036699228
 40
2.591256036699228
 40
2.591256036699228
 40
6.397503645751173
 40
6.397503645751173
 40
6.397503645751173
 10
48.56158466090017
 20
169.5720815248402
 30
-179.8317238765535
 41
1.548076211353259
 10
48.22825132756673
 20
168.57208152484
 30
-179.8317238765535
 41
1.787564434701841
 10
48.56158466090016
 20
167.5720815248402
 30
-179.8317238765535
 41
1.548076211353259
  0
SPLINE
  5
16E7
330
532
100
AcDbEntity
  8
AM_VIS
100
AcDbSpline
210
0.0
220
-0.0000000000000142
230
1.0
 70
    12
 71
     2
 72
     6
 73
     3
 74
     0
 42
0.0000000001
 43
0.0000000001
 40
2.591256036699217
 40
2.591256036699217
 40
2.591256036699217
 40
6.397503645751164
 40
6.397503645751164
 40
6.397503645751164
 10
48.56158466090017
 20
171.5720815248402
 30
-179.8317238765535
 41
1.548076211353256
 10
48.22825132756674
 20
170.57208152484
 30
-179.8317238765535
 41
1.787564434701839
 10
48.56158466090017
 20
169.5720815248401
 30
-179.8317238765535
 41
1.548076211353258
  0
LINE
  5
16E8
330
532
100
AcDbEntity
  8
AM_VIS
100
AcDbLine
 10
48.38295186594604
 20
171.5720815248402
 30
-179.8317238765535
 11
48.56158466090017
 21
171.5720815248402
 31
-179.8317238765535
  0
LINE
  5
16E9
330
532
100
AcDbEntity
  8
AM_VIS
100
AcDbLine
 10
49.68884901715409
 20
171.5720815248402
 30
-179.8317238765535
 11
48.56158466090017
 21
171.5720815248402
 31
-179.8317238765535
  0
LINE
  5
16EA
330
532
100
AcDbEntity
  8
AM_VIS
100
AcDbLine
 10
49.92521683902714
 20
167.6720815248401
 30
-179.8317238765535
 11
49.86748181210817
 21
167.5720815248402
 31
-179.8317238765535
  0
LINE
  5
16EB
330
532
100
AcDbEntity
  8
AM_VIS
100
AcDbLine
 10
49.92521683902714
 20
171.4720815248401
 30
-179.8317238765535
 11
49.86748181210817
 21
171.5720815248401
 31
-179.8317238765535
  0
LINE
  5
16EC
330
532
100
AcDbEntity
  8
AM_VIS
100
AcDbLine
 10
48.32521683902712
 20
171.4720815248401
 30
-179.8317238765535
 11
48.3829518659461
 21
171.5720815248401
 31
-179.8317238765535
  0
LINE
  5
16ED
330
532
100
AcDbEntity
  8
AM_VIS
100
AcDbLine
 10
48.32521683902712
 20
167.6720815248401
 30
-179.8317238765535
 11
48.3829518659461
 21
167.5720815248402
 31
-179.8317238765535
  0
LINE
  5
16EE
330
532
100
AcDbEntity
  8
AM_VIS
100
AcDbLine
 10
49.92521683902714
 20
167.6720815248401
 30
-179.8317238765535
 11
49.92521683902714
 21
171.4720815248401
 31
-179.8317238765535
  0
LINE
  5
16EF
330
532
100
AcDbEntity
  8
AM_VIS
100
AcDbLine
 10
48.32521683902712
 20
171.4720815248401
 30
-179.8317238765535
 11
48.32521683902712
 21
167.6720815248401
 31
-179.8317238765535
  0
SPLINE
  5
16F0
330
532
100
AcDbEntity
  8
AM_VIS
100
AcDbSpline
210
0.0
220
0.0
230
1.0
 70
    12
 71
     2
 72
     6
 73
     3
 74
     0
 42
0.0000000001
 43
0.0000000001
 40
2.746365448925371
 40
2.746365448925371
 40
2.746365448925371
 40
6.656874049027609
 40
6.656874049027609
 40
6.656874049027609
 10
48.08884901715408
 20
169.5720815248401
 30
-179.8317238765535
 41
1.587048957087433
 10
48.42218235048757
 20
170.5720815248404
 30
-179.8317238765535
 41
1.832566285183312
 10
48.08884901715407
 20
171.5720815248402
 30
-179.8317238765535
 41
1.58704895708743
  0
SPLINE
  5
16F1
330
532
100
AcDbEntity
  8
AM_VIS
100
AcDbSpline
210
0.0
220
0.0
230
1.0
 70
    12
 71
     2
 72
     6
 73
     3
 74
     0
 42
0.0000000001
 43
0.0000000001
 40
2.746365448925365
 40
2.746365448925365
 40
2.746365448925365
 40
6.656874049027615
 40
6.656874049027615
 40
6.656874049027615
 10
48.08884901715408
 20
167.5720815248402
 30
-179.8317238765535
 41
1.587048957087435
 10
48.42218235048756
 20
168.5720815248403
 30
-179.8317238765535
 41
1.832566285183317
 10
48.08884901715408
 20
169.5720815248402
 30
-179.8317238765535
 41
1.587048957087434
  0
LINE
  5
16F2
330
532
100
AcDbEntity
  8
AM_VIS
100
AcDbLine
 10
48.08884901715408
 20
167.5720815248402
 30
-179.8317238765535
 11
48.26748181210826
 21
167.5720815248402
 31
-179.8317238765535
  0
LINE
  5
16F3
330
532
100
AcDbEntity
  8
AM_VIS
100
AcDbLine
 10
48.08884901715408
 20
171.5720815248402
 30
-179.8317238765535
 11
48.26748181210826
 21
171.5720815248402
 31
-179.8317238765535
  0
LINE
  5
16F4
330
532
100
AcDbEntity
  8
AM_VIS
100
AcDbLine
 10
48.32521683902712
 20
167.6720815248401
 30
-179.8317238765535
 11
48.2674818121082
 21
167.5720815248402
 31
-179.8317238765535
  0
LINE
  5
16F5
330
532
100
AcDbEntity
  8
AM_VIS
100
AcDbLine
 10
48.32521683902712
 20
171.4720815248401
 30
-179.8317238765535
 11
48.26748181210814
 21
171.5720815248401
 31
-179.8317238765535
  0
LINE
  5
16F6
330
532
100
AcDbEntity
  8
AM_VIS
100
AcDbLine
 10
48.32521683902712
 20
167.6720815248401
 30
-179.8317238765535
 11
48.32521683902712
 21
171.4720815248401
 31
-179.8317238765535
  0
LINE
  5
16F7
330
532
100
AcDbEntity
  8
AM_VIS
100
AcDbLine
 10
50.7252168390271
 20
168.6220815248402
 30
-179.8317238765535
 11
49.92521683902714
 21
168.6220815248402
 31
-179.8317238765535
  0
LINE
  5
16F8
330
532
100
AcDbEntity
  8
AM_VIS
100
AcDbLine
 10
50.7252168390271
 20
170.5220815248401
 30
-179.8317238765535
 11
49.92521683902714
 21
170.5220815248401
 31
-179.8317238765535
  0
SPLINE
  5
16F9
330
532
100
AcDbEntity
  8
AM_VIS
100
AcDbSpline
210
0.0
220
0.0
230
1.0
 70
    12
 71
     2
 72
     6
 73
     3
 74
     0
 42
0.0000000001
 43
0.0000000001
 40
2.828260686890536
 40
2.828260686890536
 40
2.828260686890536
 40
7.31340255605605
 40
7.31340255605605
 40
7.31340255605605
 10
55.44419081841557
 20
169.5720815248401
 30
-179.8317238765535
 41
1.466561103835291
 10
55.86085748508224
 20
170.8220815248401
 30
-179.8317238765535
 41
1.693438896164703
 10
55.44419081841557
 20
172.0720815248402
 30
-179.8317238765535
 41
1.466561103835287
  0
LINE
  5
16FA
330
532
100
AcDbEntity
  8
AM_VIS
100
AcDbLine
 10
55.44419081841557
 20
172.0720815248402
 30
-179.8317238765535
 11
55.66748181210818
 21
172.0720815248402
 31
-179.8317238765535
  0
LINE
  5
16FB
330
532
100
AcDbEntity
  8
AM_VIS
100
AcDbLine
 10
55.7252168390271
 20
171.9720815248401
 30
-179.8317238765535
 11
55.66748181210818
 21
172.0720815248402
 31
-179.8317238765535
  0
LINE
  5
16FC
330
532
100
AcDbEntity
  8
AM_VIS
100
AcDbLine
 10
53.32521683902712
 20
167.5970815248401
 30
-179.8317238765535
 11
52.24483208129777
 21
167.5970815248401
 31
-179.8317238765535
  0
LINE
  5
16FD
330
532
100
AcDbEntity
  8
AM_VIS
100
AcDbLine
 10
53.32521683902712
 20
171.5470815248401
 30
-179.8317238765535
 11
52.24483208129777
 21
171.5470815248401
 31
-179.8317238765535
  0
LINE
  5
16FE
330
532
100
AcDbEntity
  8
AM_VIS
100
AcDbLine
 10
52.24483208129777
 20
171.5470815248401
 30
-179.8317238765535
 11
52.24483208129777
 21
167.5970815248401
 31
-179.8317238765535
  0
SPLINE
  5
16FF
330
532
100
AcDbEntity
  8
AM_VIS
100
AcDbSpline
210
0.0
220
0.0
230
1.0
 70
    12
 71
     2
 72
     6
 73
     3
 74
     0
 42
0.0000000001
 43
0.0000000001
 40
2.828260686890505
 40
2.828260686890505
 40
2.828260686890505
 40
7.313402556056021
 40
7.313402556056021
 40
7.313402556056021
 10
53.60624285963871
 20
172.0720815248402
 30
-179.8317238765535
 41
1.466561103835288
 10
53.18957619297203
 20
170.8220815248401
 30
-179.8317238765535
 41
1.693438896164704
 10
53.60624285963866
 20
169.5720815248401
 30
-179.8317238765535
 41
1.46656110383529
  0
LINE
  5
1700
330
532
100
AcDbEntity
  8
AM_VIS
100
AcDbLine
 10
53.3829518659461
 20
172.0720815248402
 30
-179.8317238765535
 11
53.60624285963871
 21
172.0720815248402
 31
-179.8317238765535
  0
LINE
  5
1701
330
532
100
AcDbEntity
  8
AM_VIS
100
AcDbLine
 10
53.32521683902712
 20
171.9720815248401
 30
-179.8317238765535
 11
53.3829518659461
 21
172.0720815248402
 31
-179.8317238765535
  0
LINE
  5
1702
330
532
100
AcDbEntity
  8
AM_VIS
100
AcDbLine
 10
55.44419081841557
 20
169.5720815248401
 30
-179.8317238765535
 11
53.60624285963871
 21
169.5720815248401
 31
-179.8317238765535
  0
LINE
  5
1703
330
532
100
AcDbEntity
  8
AM_VIS
100
AcDbLine
 10
55.44419081841557
 20
172.0720815248402
 30
-179.8317238765535
 11
53.60624285963871
 21
172.0720815248402
 31
-179.8317238765535
  0
LINE
  5
1704
330
532
100
AcDbEntity
  8
AM_VIS
100
AcDbLine
 10
59.82521683902712
 20
172.0720815248402
 30
-179.8317238765535
 11
59.82521683902712
 21
167.0720815248402
 31
-179.8317238765535
  0
LINE
  5
1705
330
532
100
AcDbEntity
  8
AM_VIS
100
AcDbLine
 10
59.72521683902709
 20
172.1220815248402
 30
-179.8317238765535
 11
59.72521683902709
 21
167.0220815248401
 31
-179.8317238765535
  0
LINE
  5
1706
330
532
100
AcDbEntity
  8
AM_VIS
100
AcDbLine
 10
59.52521683902711
 20
166.8220815248401
 30
-179.8317238765535
 11
59.52521683902711
 21
172.3220815248402
 31
-179.8317238765535
  0
LINE
  5
1707
330
532
100
AcDbEntity
  8
AM_VIS
100
AcDbLine
 10
57.92521683902714
 20
172.3220815248402
 30
-179.8317238765535
 11
57.92521683902714
 21
166.8220815248401
 31
-179.8317238765535
  0
LINE
  5
1708
330
532
100
AcDbEntity
  8
AM_VIS
100
AcDbLine
 10
57.72521683902709
 20
167.0220815248401
 30
-179.8317238765535
 11
57.72521683902709
 21
172.1220815248401
 31
-179.8317238765535
  0
LINE
  5
1709
330
532
100
AcDbEntity
  8
AM_VIS
100
AcDbLine
 10
59.72521683902709
 20
167.1720815248401
 30
-179.8317238765535
 11
59.82521683902712
 21
167.0720815248402
 31
-179.8317238765535
  0
LINE
  5
170A
330
532
100
AcDbEntity
  8
AM_VIS
100
AcDbLine
 10
59.72521683902709
 20
167.0220815248401
 30
-179.8317238765535
 11
59.52521683902711
 21
166.8220815248401
 31
-179.8317238765535
  0
LINE
  5
170B
330
532
100
AcDbEntity
  8
AM_VIS
100
AcDbLine
 10
57.72521683902709
 20
167.0220815248401
 30
-179.8317238765535
 11
57.92521683902714
 21
166.8220815248401
 31
-179.8317238765535
  0
LINE
  5
170C
330
532
100
AcDbEntity
  8
AM_VIS
100
AcDbLine
 10
59.52521683902711
 20
166.8220815248401
 30
-179.8317238765535
 11
57.92521683902714
 21
166.8220815248401
 31
-179.8317238765535
  0
LINE
  5
170D
330
532
100
AcDbEntity
  8
AM_VIS
100
AcDbLine
 10
59.72521683902709
 20
171.9720815248401
 30
-179.8317238765535
 11
59.82521683902712
 21
172.0720815248402
 31
-179.8317238765535
  0
LINE
  5
170E
330
532
100
AcDbEntity
  8
AM_VIS
100
AcDbLine
 10
59.72521683902709
 20
172.1220815248402
 30
-179.8317238765535
 11
59.52521683902711
 21
172.3220815248402
 31
-179.8317238765535
  0
LINE
  5
170F
330
532
100
AcDbEntity
  8
AM_VIS
100
AcDbLine
 10
57.72521683902709
 20
172.1220815248402
 30
-179.8317238765535
 11
57.92521683902714
 21
172.3220815248402
 31
-179.8317238765535
  0
LINE
  5
1710
330
532
100
AcDbEntity
  8
AM_VIS
100
AcDbLine
 10
57.72521683902709
 20
167.5720815248402
 30
-179.8317238765535
 11
56.7252168390271
 21
167.5720815248402
 31
-179.8317238765535
  0
LINE
  5
1711
330
532
100
AcDbEntity
  8
AM_VIS
100
AcDbLine
 10
57.72521683902709
 20
171.5720815248402
 30
-179.8317238765535
 11
56.7252168390271
 21
171.5720815248402
 31
-179.8317238765535
  0
LINE
  5
1712
330
532
100
AcDbEntity
  8
AM_VIS
100
AcDbLine
 10
56.7252168390271
 20
167.5720815248402
 30
-179.8317238765535
 11
56.7252168390271
 21
171.5720815248402
 31
-179.8317238765535
  0
LINE
  5
1713
330
532
100
AcDbEntity
  8
AM_VIS
100
AcDbLine
 10
59.52521683902711
 20
172.3220815248402
 30
-179.8317238765535
 11
57.92521683902714
 21
172.3220815248402
 31
-179.8317238765535
  0
LINE
  5
1714
330
532
100
AcDbEntity
  8
AM_VIS
100
AcDbLine
 10
82.12521683902712
 20
170.7220815248401
 30
-179.8317238765535
 11
79.12521683902713
 21
170.7220815248401
 31
-179.8317238765535
  0
LINE
  5
1715
330
532
100
AcDbEntity
  8
AM_VIS
100
AcDbLine
 10
82.12521683902712
 20
168.4220815248401
 30
-179.8317238765535
 11
79.12521683902713
 21
168.4220815248401
 31
-179.8317238765535
  0
LINE
  5
1719
330
532
100
AcDbEntity
  8
AM_VIS
100
AcDbLine
 10
77.02521683902711
 20
167.0720815248402
 30
-179.8317238765535
 11
77.02521683902711
 21
172.0720815248402
 31
-179.8317238765535
  0
LINE
  5
171A
330
532
100
AcDbEntity
  8
AM_VIS
100
AcDbLine
 10
77.22521683902709
 20
167.2720815248401
 30
-179.8317238765535
 11
77.02521683902711
 21
167.0720815248402
 31
-179.8317238765535
  0
LINE
  5
171B
330
532
100
AcDbEntity
  8
AM_VIS
100
AcDbLine
 10
79.12521683902713
 20
170.7220815248401
 30
-179.8317238765535
 11
78.12521683902713
 21
171.2720815248401
 31
-179.8317238765535
  0
LINE
  5
171C
330
532
100
AcDbEntity
  8
AM_VIS
100
AcDbLine
 10
79.12521683902713
 20
168.4220815248401
 30
-179.8317238765535
 11
78.12521683902713
 21
167.8720815248402
 31
-179.8317238765535
  0
LINE
  5
171D
330
532
100
AcDbEntity
  8
AM_VIS
100
AcDbLine
 10
78.12521683902713
 20
171.2720815248401
 30
-179.8317238765535
 11
78.12521683902713
 21
167.8720815248401
 31
-179.8317238765535
  0
LINE
  5
171E
330
532
100
AcDbEntity
  8
AM_VIS
100
AcDbLine
 10
77.22521683902709
 20
171.8720815248402
 30
-179.8317238765535
 11
77.22521683902709
 21
167.2720815248401
 31
-179.8317238765535
  0
LINE
  5
171F
330
532
100
AcDbEntity
  8
AM_VIS
100
AcDbLine
 10
78.12521683902713
 20
171.2720815248401
 30
-179.8317238765535
 11
77.22521683902709
 21
171.2720815248401
 31
-179.8317238765535
  0
LINE
  5
1720
330
532
100
AcDbEntity
  8
AM_VIS
100
AcDbLine
 10
78.12521683902713
 20
167.8720815248402
 30
-179.8317238765535
 11
77.22521683902709
 21
167.8720815248402
 31
-179.8317238765535
  0
LINE
  5
1721
330
532
100
AcDbEntity
  8
AM_VIS
100
AcDbLine
 10
77.22521683902709
 20
171.8720815248401
 30
-179.8317238765535
 11
77.02521683902711
 21
172.0720815248402
 31
-179.8317238765535
  0
LINE
  5
1722
330
532
100
AcDbEntity
  8
AM_VIS
100
AcDbLine
 10
79.12521683902713
 20
170.7220815248401
 30
-179.8317238765535
 11
79.12521683902713
 21
168.4220815248401
 31
-179.8317238765535
  0
LINE
  5
1723
330
532
100
AcDbEntity
  8
AM_VIS
100
AcDbLine
 10
83.72521683902709
 20
170.7220815248401
 30
-179.8317238765535
 11
82.52521683902712
 21
171.2720815248401
 31
-179.8317238765535
  0
LINE
  5
1724
330
532
100
AcDbEntity
  8
AM_VIS
100
AcDbLine
 10
83.72521683902709
 20
168.4220815248401
 30
-179.8317238765535
 11
82.52521683902717
 21
167.8720815248402
 31
-179.8317238765535
  0
LINE
  5
1725
330
532
100
AcDbEntity
  8
AM_VIS
100
AcDbLine
 10
82.52521683902712
 20
171.2720815248401
 30
-179.8317238765535
 11
82.12521683902712
 21
171.2720815248401
 31
-179.8317238765535
  0
LINE
  5
1726
330
532
100
AcDbEntity
  8
AM_VIS
100
AcDbLine
 10
82.52521683902712
 20
167.8720815248402
 30
-179.8317238765535
 11
82.12521683902712
 21
167.8720815248402
 31
-179.8317238765535
  0
LINE
  5
1727
330
532
100
AcDbEntity
  8
AM_VIS
100
AcDbLine
 10
82.12521683902712
 20
171.2720815248401
 30
-179.8317238765535
 11
82.12521683902712
 21
167.8720815248401
 31
-179.8317238765535
  0
LINE
  5
1728
330
532
100
AcDbEntity
  8
AM_VIS
100
AcDbLine
 10
82.52521683902712
 20
171.2720815248401
 30
-179.8317238765535
 11
82.52521683902712
 21
167.8720815248401
 31
-179.8317238765535
  0
LINE
  5
1729
330
532
100
AcDbEntity
  8
AM_VIS
100
AcDbLine
 10
84.52521683902711
 20
168.4220815248401
 30
-179.8317238765535
 11
84.52521683902711
 21
170.7220815248402
 31
-179.8317238765535
  0
LINE
  5
172A
330
532
100
AcDbEntity
  8
AM_VIS
100
AcDbLine
 10
84.7252168390271
 20
170.5220815248401
 30
-179.8317238765535
 11
84.7252168390271
 21
168.6220815248401
 31
-179.8317238765535
  0
LINE
  5
172B
330
532
100
AcDbEntity
  8
AM_VIS
100
AcDbLine
 10
84.7252168390271
 20
170.5220815248401
 30
-179.8317238765535
 11
84.52521683902711
 21
170.7220815248401
 31
-179.8317238765535
  0
LINE
  5
172C
330
532
100
AcDbEntity
  8
AM_VIS
100
AcDbLine
 10
84.7252168390271
 20
168.6220815248401
 30
-179.8317238765535
 11
84.52521683902711
 21
168.4220815248401
 31
-179.8317238765535
  0
LINE
  5
172D
330
532
100
AcDbEntity
  8
AM_VIS
100
AcDbLine
 10
83.72521683902709
 20
170.7220815248401
 30
-179.8317238765535
 11
83.72521683902709
 21
168.4220815248401
 31
-179.8317238765535
  0
LINE
  5
172E
330
532
100
AcDbEntity
  8
AM_VIS
100
AcDbLine
 10
84.52521683902711
 20
170.7220815248401
 30
-179.8317238765535
 11
83.72521683902709
 21
170.7220815248401
 31
-179.8317238765535
  0
LINE
  5
172F
330
532
100
AcDbEntity
  8
AM_VIS
100
AcDbLine
 10
84.52521683902711
 20
168.4220815248401
 30
-179.8317238765535
 11
83.72521683902709
 21
168.4220815248401
 31
-179.8317238765535
  0
LINE
  5
1730
330
532
100
AcDbEntity
  8
AM_7
100
AcDbLine
 10
102.8237922457087
 20
171.3720815248402
 30
-179.8317238765535
 11
102.8237922457087
 21
175.0720815248401
 31
-179.8317238765535
  0
CIRCLE
  5
1731
330
532
100
AcDbEntity
  8
AM_VIS
100
AcDbCircle
 10
102.8237922457088
 20
169.5720815248401
 30
-179.8317238765535
 40
1.150000000000001
  0
CIRCLE
  5
1732
330
532
100
AcDbEntity
  8
AM_VIS
100
AcDbCircle
 10
102.8237922457088
 20
169.5720815248401
 30
-179.8317238765535
 40
1.7
  0
LINE
  5
1733
330
532
100
AcDbEntity
  8
AM_7
100
AcDbLine
 10
101.8237922457087
 20
169.5720815248401
 30
-179.8317238765535
 11
103.8237922457087
 21
169.5720815248401
 31
-179.8317238765535
  0
CIRCLE
  5
1734
330
532
100
AcDbEntity
  8
AM_VIS
100
AcDbCircle
 10
102.8237922457087
 20
169.5720815248401
 30
-179.8317238765535
 40
2.549999999999999
  0
CIRCLE
  5
1735
330
532
100
AcDbEntity
  8
AM_VIS
100
AcDbCircle
 10
102.8237922457087
 20
169.5720815248401
 30
-179.8317238765535
 40
2.75
  0
CIRCLE
  5
1736
330
532
100
AcDbEntity
  8
AM_VIS
100
AcDbCircle
 10
102.8237922457088
 20
169.5720815248401
 30
-179.8317238765535
 40
2.5
  0
CIRCLE
  5
1737
330
532
100
AcDbEntity
  8
AM_VIS
100
AcDbCircle
 10
102.8237922457088
 20
169.5720815248401
 30
-179.8317238765535
 40
2.299999999999999
  0
LINE
  5
1738
330
532
100
AcDbEntity
  8
AM_VIS
100
AcDbLine
 10
101.2315506981172
 20
167.3299247831909
 30
-179.8317238765535
 11
101.3804165727347
 21
167.0720815248402
 31
-179.8317238765535
  0
LINE
  5
1739
330
532
100
AcDbEntity
  8
AM_7
100
AcDbLine
 10
102.8237922457087
 20
164.0720815248402
 30
-179.8317238765535
 11
102.8237922457087
 21
167.7720815248401
 31
-179.8317238765535
  0
LINE
  5
173A
330
532
100
AcDbEntity
  8
AM_VIS
100
AcDbLine
 10
101.3804165727347
 20
167.0720815248402
 30
-179.8317238765535
 11
101.6781483219698
 21
167.0720815248402
 31
-179.8317238765535
  0
LINE
  5
173B
330
532
100
AcDbEntity
  8
AM_7
100
AcDbLine
 10
97.32379224570877
 20
169.5720815248401
 30
-179.8317238765535
 11
101.0237922457088
 21
169.5720815248401
 31
-179.8317238765535
  0
CIRCLE
  5
173C
330
532
100
AcDbEntity
  8
AM_VIS
100
AcDbCircle
 10
102.8237922457088
 20
169.5720815248401
 30
-179.8317238765535
 40
0.5
  0
CIRCLE
  5
173D
330
532
100
AcDbEntity
  8
AM_VIS
100
AcDbCircle
 10
102.8237922457088
 20
169.5720815248401
 30
-179.8317238765535
 40
0.6
  0
CIRCLE
  5
173E
330
532
100
AcDbEntity
  8
AM_VIS
100
AcDbCircle
 10
102.8237922457088
 20
169.5720815248401
 30
-179.8317238765535
 40
0.9500000000000014
  0
LINE
  5
173F
330
532
100
AcDbEntity
  8
AM_VIS
100
AcDbLine
 10
101.2315506981172
 20
171.8142382664894
 30
-179.8317238765535
 11
101.3804165727347
 21
172.0720815248402
 31
-179.8317238765535
  0
LINE
  5
1740
330
532
100
AcDbEntity
  8
AM_VIS
100
AcDbLine
 10
101.3804165727347
 20
172.0720815248402
 30
-179.8317238765535
 11
101.6781483219699
 21
172.0720815248402
 31
-179.8317238765535
  0
LINE
  5
1741
330
532
100
AcDbEntity
  8
AM_7
100
AcDbLine
 10
102.8237922457087
 20
168.5720815248402
 30
-179.8317238765535
 11
102.8237922457087
 21
170.5720815248402
 31
-179.8317238765535
  0
LINE
  5
1742
330
532
100
AcDbEntity
  8
AM_VIS
100
AcDbLine
 10
99.9370408997607
 20
169.5720815248401
 30
-179.8317238765535
 11
100.0859067743782
 21
169.8299247831909
 31
-179.8317238765535
  0
LINE
  5
1743
330
532
100
AcDbEntity
  8
AM_VIS
100
AcDbLine
 10
99.9370408997607
 20
169.5720815248401
 30
-179.8317238765535
 11
100.0859067743782
 21
169.3142382664894
 31
-179.8317238765535
  0
LINE
  5
1744
330
532
100
AcDbEntity
  8
AM_VIS
100
AcDbLine
 10
104.2671679186828
 20
167.0720815248402
 30
-179.8317238765535
 11
104.4160337933004
 21
167.3299247831909
 31
-179.8317238765535
  0
LINE
  5
1745
330
532
100
AcDbEntity
  8
AM_VIS
100
AcDbLine
 10
103.9694361694477
 20
167.0720815248402
 30
-179.8317238765535
 11
104.2671679186828
 21
167.0720815248402
 31
-179.8317238765535
  0
LINE
  5
1746
330
532
100
AcDbEntity
  8
AM_7
100
AcDbLine
 10
104.6237922457088
 20
169.5720815248401
 30
-179.8317238765535
 11
108.3237922457087
 21
169.5720815248401
 31
-179.8317238765535
  0
LINE
  5
1747
330
532
100
AcDbEntity
  8
AM_VIS
100
AcDbLine
 10
105.5616777170393
 20
169.3142382664894
 30
-179.8317238765535
 11
105.7105435916569
 21
169.5720815248401
 31
-179.8317238765535
  0
LINE
  5
1748
330
532
100
AcDbEntity
  8
AM_VIS
100
AcDbLine
 10
105.5616777170393
 20
169.829924783191
 30
-179.8317238765535
 11
105.7105435916569
 21
169.5720815248401
 31
-179.8317238765535
  0
LINE
  5
1749
330
532
100
AcDbEntity
  8
AM_VIS
100
AcDbLine
 10
104.2671679186828
 20
172.0720815248402
 30
-179.8317238765535
 11
104.4160337933004
 21
171.8142382664893
 31
-179.8317238765535
  0
LINE
  5
174A
330
532
100
AcDbEntity
  8
AM_VIS
100
AcDbLine
 10
103.9694361694477
 20
172.0720815248402
 30
-179.8317238765535
 11
104.2671679186828
 21
172.0720815248402
 31
-179.8317238765535
  0
LINE
  5
174C
330
532
100
AcDbEntity
  8
0
100
AcDbLine
 10
59.82521683902712
 20
167.0720815248402
 30
-179.8317238765535
 11
77.02521683902711
 21
167.0720815248402
 31
-179.8317238765535
  0
DIMENSION
  5
174D
330
532
100
AcDbEntity
  8
AM_REFDIM
100
AcDbDimension
  2
*D11
 10
48.32521683902712
 20
177.6016188355928
 30
-179.8317238765535
 11
58.1109311247414
 21
180.1016188355928
 31
-179.8317238765535
 70
    32
  3
STANDARD
100
AcDbAlignedDimension
 13
46.7252168390271
 23
171.4720815248401
 33
-179.8317238765535
 14
48.32521683902712
 24
171.4720815248401
 34
-179.8317238765535
100
AcDbRotatedDimension
  0
DIMENSION
  5
175C
330
532
100
AcDbEntity
  8
AM_REFDIM
100
AcDbDimension
  2
*D12
 10
55.7252168390271
 20
184.9875630405228
 30
-179.8317238765535
 11
65.9395025533128
 21
187.4875630405228
 31
-179.8317238765535
 70
    32
  3
STANDARD
100
AcDbAlignedDimension
 13
53.32521683902712
 23
171.9720815248401
 33
-179.8317238765535
 14
55.7252168390271
 24
171.9720815248401
 34
-179.8317238765535
100
AcDbRotatedDimension
  0
DIMENSION
  5
176B
330
532
100
AcDbEntity
  8
AM_REFDIM
100
AcDbDimension
  2
*D13
 10
50.7252168390271
 20
160.4436774075777
 30
-179.8317238765535
 11
47.72521683902711
 21
162.9436774075776
 31
-179.8317238765535
 70
    32
  3
STANDARD
100
AcDbAlignedDimension
 13
44.72521683902712
 23
168.8220815248401
 33
-179.8317238765535
 14
50.7252168390271
 24
168.6220815248401
 34
-179.8317238765535
100
AcDbRotatedDimension
  0
DIMENSION
  5
177A
330
532
100
AcDbEntity
  8
AM_REFDIM
100
AcDbDimension
  2
*D14
 10
57.72521683902709
 20
155.250282383616
 30
-179.8317238765535
 11
54.72521683902709
 21
157.750282383616
 31
-179.8317238765535
 70
    32
  3
STANDARD
100
AcDbAlignedDimension
 13
51.7252168390271
 23
167.8970815248401
 33
-179.8317238765535
 14
57.72521683902709
 24
167.0220815248401
 34
-179.8317238765535
100
AcDbRotatedDimension
  0
DIMENSION
  5
1789
330
532
100
AcDbEntity
  8
AM_REFDIM
100
AcDbDimension
  2
*D15
 10
57.72521683902709
 20
143.3300395489748
 30
-179.8317238765535
 11
51.22521683902711
 21
145.8300395489748
 31
-179.8317238765535
 70
    32
  3
STANDARD
100
AcDbAlignedDimension
 13
44.72521683902712
 23
168.8220815248401
 33
-179.8317238765535
 14
57.72521683902709
 24
167.0220815248401
 34
-179.8317238765535
100
AcDbRotatedDimension
  0
DIMENSION
  5
1796
330
532
100
AcDbEntity
  8
AM_REFDIM
100
AcDbDimension
  2
*D16
 10
77.22521683902709
 20
143.3300395489748
 30
-179.8317238765535
 11
67.4752168390271
 21
145.8300395489748
 31
-179.8317238765535
 70
    32
  3
STANDARD
100
AcDbAlignedDimension
 13
57.72521683902709
 23
167.0220815248401
 33
-179.8317238765535
 14
77.22521683902709
 24
167.2720815248401
 34
-179.8317238765535
100
AcDbRotatedDimension
  0
DIMENSION
  5
17A3
330
532
100
AcDbEntity
  8
AM_REFDIM
100
AcDbDimension
  2
*D17
 10
84.7252168390271
 20
143.3300395489748
 30
-179.8317238765535
 11
94.86807398188423
 21
145.8300395489748
 31
-179.8317238765535
 70
    32
  3
STANDARD
100
AcDbAlignedDimension
 13
77.22521683902709
 23
167.2720815248401
 33
-179.8317238765535
 14
84.7252168390271
 24
168.6220815248401
 34
-179.8317238765535
100
AcDbRotatedDimension
  0
DIMENSION
  5
17B2
330
532
100
AcDbEntity
  8
AM_REFDIM
100
AcDbDimension
  2
*D18
 10
69.14464280581015
 20
166.8220815248401
 30
-179.8317238765535
 11
66.64464280581012
 21
155.3220815248401
 31
-179.8317238765535
 70
    32
  1
{\f????|b0|i0|c0|p54;%%c5.5}
  3
STANDARD
100
AcDbAlignedDimension
 13
59.52521683902711
 23
172.3220815248402
 33
-179.8317238765535
 14
59.52521683902711
 24
166.8220815248401
 34
-179.8317238765535
 50
90.0
100
AcDbRotatedDimension
  0
DIMENSION
  5
17FB
330
532
100
AcDbEntity
  8
AM_REFDIM
100
AcDbDimension
  2
*D19
 10
89.87354982062461
 20
167.8720815248402
 30
-179.8317238765535
 11
87.37354982062459
 21
156.3006529534116
 31
-179.8317238765535
 70
    32
  1
{\f????|b0|i0|c0|p54;%%C3.4}
  3
STANDARD
100
AcDbAlignedDimension
 13
82.52521683902712
 23
171.2720815248401
 33
-179.8317238765535
 14
82.52521683902717
 24
167.8720815248402
 34
-179.8317238765535
 50
90.0
100
AcDbRotatedDimension
  0
DIMENSION
  5
180A
330
532
100
AcDbEntity
  8
AM_REFDIM
100
AcDbDimension
  2
*D20
 10
95.21062745747977
 20
167.0720815248402
 30
-179.8317238765535
 11
92.71062745747974
 21
157.7149386676973
 31
-179.8317238765535
 70
    32
  1
{\f????|b0|i0|c0|p54;%%C5}
  3
STANDARD
100
AcDbAlignedDimension
 13
77.02521683902711
 23
172.0720815248402
 33
-179.8317238765535
 14
77.02521683902711
 24
167.0720815248402
 34
-179.8317238765535
 50
90.0
100
AcDbRotatedDimension
  0
TEXT
  5
1819
330
532
100
AcDbEntity
  8
AM_REFDIM
100
AcDbText
 10
68.50634140655941
 20
180.4772795330306
 30
-179.8317238765535
 40
2.5
  1
M4x0.7
100
AcDbText
  0
TEXT
  5
181A
330
532
100
AcDbEntity
  8
AM_REFDIM
100
AcDbText
 10
22.22159410618988
 20
159.2878044215069
 30
-179.8317238765535
 40
2.5
  1
M2x0.4
100
AcDbText
  0
LEADER
  5
181B
330
532
100
AcDbEntity
  8
AM_REFDIM
100
AcDbLeader
  3
STANDARD
 73
     0
 40
3.0
 76
     3
 10
56.19182371477567
 20
171.5470815248401
 30
-179.8317238765535
 10
67.29443392789917
 20
179.7384230355825
 30
-179.8317238765535
 10
81.11605116733839
 20
179.7384230355825
 30
-179.8317238765535
340
181C
213
0.0
223
-1.5
233
0.0
1001
ACAD
1000
DSTYLE
1002
{
1070
     5
1000

1070
    77
1070
     0
1070
   147
1040
1.0
1002
}
1000
LEANOF
1010
0.0
1020
-1.5
1030
0.0
  0
MTEXT
  5
181C
330
532
100
AcDbEntity
  8
0
 62
     5
100
AcDbMText
 10
22.03624699774539
 20
168.3220815248402
 30
-179.8317238765535
 40
3.0
 41
0.0
 71
     1
 72
     1
  1

  7
DAYUS
1001
ACAD
1000
MTEXTBEGIN
1070
    73
1070
     1
1070
    44
1040
1.0
1070
    74
1070
     0
1000
MTEXTEND
  0
LEADER
  5
181D
330
532
100
AcDbEntity
  8
AM_REFDIM
100
AcDbLeader
  3
STANDARD
 73
     0
 40
3.0
 76
     3
 10
45.5938182146381
 20
168.6220815248402
 30
-179.8317238765535
 10
34.81383334955458
 20
158.1213203637837
 30
-179.8317238765535
 10
21.99790321462367
 20
158.1213203637837
 30
-179.8317238765535
340
181E
213
0.0
223
1.5
233
0.0
1001
ACAD
1000
DSTYLE
1002
{
1070
     5
1000

1070
    77
1070
     0
1070
   147
1040
1.0
1002
}
1000
LEANOF
1010
0.0
1020
1.5
1030
0.0
  0
MTEXT
  5
181E
330
532
100
AcDbEntity
  8
0
 62
     5
100
AcDbMText
 10
-39.08190095496931
 20
143.7049788530413
 30
-179.8317238765535
 40
3.0
 41
0.0
 71
     9
 72
     1
  1

  7
DAYUS
1001
ACAD
1000
MTEXTBEGIN
1070
    73
1070
     1
1070
    44
1040
1.0
1070
    74
1070
     0
1000
MTEXTEND
  0
LEADER
  5
181F
330
532
100
AcDbEntity
  8
AM_REFDIM
100
AcDbLeader
  3
STANDARD
 40
3.0
 76
     3
 10
36.12926592265955
 20
59.05000000000001
 30
-179.8317238765535
 10
25.42989478748802
 20
46.07039704870629
 30
-179.8317238765535
 10
11.6001392071613
 20
46.07039704870629
 30
-179.8317238765535
213
0.0
223
1.5
233
0.0
1001
ACAD
1000
DSTYLE
1002
{
1070
     5
1000

1070
    77
1070
     0
1070
   147
1040
1.0
1002
}
1000
LEANOF
1010
0.0
1020
1.5
1030
0.0
  0
DIMENSION
  5
1820
330
532
100
AcDbEntity
  8
AM_REFDIM
100
AcDbDimension
  2
*D23
 10
104.1705475775995
 20
57.5
 30
-179.8317238765535
 11
101.6705475775995
 21
48.14285714285716
 31
-179.8317238765535
 70
    32
  1
{\f????|b0|i0|c0|p54;%%C5}
  3
STANDARD
100
AcDbAlignedDimension
 13
85.23147118799546
 23
62.5
 33
-179.8317238765535
 14
85.23147118799546
 24
57.5
 34
-179.8317238765535
 50
90.0
100
AcDbRotatedDimension
  0
DIMENSION
  5
1821
330
532
100
AcDbEntity
  8
AM_REFDIM
100
AcDbDimension
  2
*D22
 10
98.41987824669207
 20
58.30000000000001
 30
-179.8317238765535
 11
95.91987824669205
 21
46.72857142857146
 31
-179.8317238765535
 70
    32
  1
{\f????|b0|i0|c0|p54;%%c3.4}
  3
STANDARD
100
AcDbAlignedDimension
 13
90.73147118799544
 23
61.69999999999999
 33
-179.8317238765535
 14
90.73147118799552
 24
58.30000000000001
 34
-179.8317238765535
 50
90.0
100
AcDbRotatedDimension
  0
DIMENSION
  5
1822
330
532
100
AcDbEntity
  8
AM_REFDIM
100
AcDbDimension
  2
*D29
 10
92.9314711879955
 20
35.44651191079623
 30
-179.8317238765535
 11
103.0743283308526
 21
37.94651191079623
 31
-179.8317238765535
 70
    32
  3
STANDARD
100
AcDbAlignedDimension
 13
85.4314711879955
 23
57.69999999999999
 33
-179.8317238765535
 14
92.9314711879955
 24
59.04999999999998
 34
-179.8317238765535
100
AcDbRotatedDimension
  0
DIMENSION
  5
1823
330
532
100
AcDbEntity
  8
AM_REFDIM
100
AcDbDimension
  2
*D28
 10
47.9314711879955
 20
35.44651191079623
 30
-179.8317238765535
 11
41.43147118799549
 21
37.94651191079623
 31
-179.8317238765535
 70
    32
  3
STANDARD
100
AcDbAlignedDimension
 13
34.9314711879955
 23
59.25
 33
-179.8317238765535
 14
47.9314711879955
 24
57.44999999999999
 34
-179.8317238765535
100
AcDbRotatedDimension
  0
DIMENSION
  5
1825
330
532
100
AcDbEntity
  8
AM_REFDIM
100
AcDbDimension
  2
*D21
 10
59.19580212075925
 20
57.25
 30
-179.8317238765535
 11
56.69580212075924
 21
45.75000000000001
 31
-179.8317238765535
 70
    32
  1
{\f????|b0|i0|c0|p54;%%c5.5}
  3
STANDARD
100
AcDbAlignedDimension
 13
49.73147118799551
 23
62.75
 33
-179.8317238765535
 14
49.73147118799551
 24
57.25
 34
-179.8317238765535
 50
90.0
100
AcDbRotatedDimension
  0
DIMENSION
  5
1826
330
532
100
AcDbEntity
  8
AM_REFDIM
100
AcDbDimension
  2
*D27
 10
47.9314711879955
 20
46.1608368613438
 30
-179.8317238765535
 11
44.9314711879955
 21
48.6608368613438
 31
-179.8317238765535
 70
    32
  3
STANDARD
100
AcDbAlignedDimension
 13
41.9314711879955
 23
58.32499999999999
 33
-179.8317238765535
 14
47.9314711879955
 24
57.44999999999999
 34
-179.8317238765535
100
AcDbRotatedDimension
  0
DIMENSION
  5
1827
330
532
100
AcDbEntity
  8
AM_REFDIM
100
AcDbDimension
  2
*D26
 10
40.93147118799549
 20
51.39605595342363
 30
-179.8317238765535
 11
37.9314711879955
 21
53.89605595342363
 31
-179.8317238765535
 70
    32
  3
STANDARD
100
AcDbAlignedDimension
 13
34.9314711879955
 23
59.25
 33
-179.8317238765535
 14
40.93147118799549
 24
59.05000000000001
 34
-179.8317238765535
100
AcDbRotatedDimension
  0
TEXT
  5
1828
330
532
100
AcDbEntity
  8
AM_REFDIM
100
AcDbText
 10
12.05954494915681
 20
47.10397271627221
 30
-179.8317238765535
 40
2.5
  1
M2x0.4
100
AcDbText
  0
LINE
  5
1829
330
532
100
AcDbEntity
  8
AM_VIS
100
AcDbLine
 10
45.65044516738391
 20
62.5
 30
-179.8317238765535
 11
45.87373616107652
 21
62.5
 31
-179.8317238765535
  0
SPLINE
  5
182A
330
532
100
AcDbEntity
  8
AM_VIS
100
AcDbSpline
210
0.0
220
0.0
230
1.0
 70
    12
 71
     2
 72
     6
 73
     3
 74
     0
 42
0.0000000001
 43
0.0000000001
 40
2.828260686890536
 40
2.828260686890536
 40
2.828260686890536
 40
7.31340255605605
 40
7.31340255605605
 40
7.31340255605605
 10
45.65044516738391
 20
60.0
 30
-179.8317238765535
 41
1.466561103835291
 10
46.06711183405059
 20
61.25
 30
-179.8317238765535
 41
1.693438896164703
 10
45.65044516738391
 20
62.5
 30
-179.8317238765535
 41
1.466561103835287
  0
LINE
  5
182B
330
532
100
AcDbEntity
  8
AM_VIS
100
AcDbLine
 10
45.65044516738396
 20
57.5
 30
-179.8317238765535
 11
45.87373616107652
 21
57.5
 31
-179.8317238765535
  0
SPLINE
  5
182C
330
532
100
AcDbEntity
  8
AM_VIS
100
AcDbSpline
210
0.0
220
-0.0000000000000114
230
1.0
 70
    12
 71
     2
 72
     6
 73
     3
 74
     0
 42
0.0000000001
 43
0.0000000001
 40
2.828260686890516
 40
2.828260686890516
 40
2.828260686890516
 40
7.31340255605604
 40
7.31340255605604
 40
7.31340255605604
 10
45.65044516738398
 20
57.5
 30
-179.8317238765535
 41
1.466561103835292
 10
46.06711183405059
 20
58.75000000000004
 30
-179.8317238765535
 41
1.69343889616471
 10
45.65044516738398
 20
60.0
 30
-179.8317238765534
 41
1.466561103835292
  0
DIMENSION
  5
182D
330
532
100
AcDbEntity
  8
AM_REFDIM
100
AcDbDimension
  2
*D25
 10
45.93147118799549
 20
76.99077106373073
 30
-179.8317238765535
 11
56.14575690228122
 21
79.49077106373073
 31
-179.8317238765535
 70
    32
  3
STANDARD
100
AcDbAlignedDimension
 13
43.53147118799552
 23
62.40000000000001
 33
-179.8317238765535
 14
45.93147118799549
 24
62.39999999999998
 34
-179.8317238765535
100
AcDbRotatedDimension
  0
DIMENSION
  5
182E
330
532
100
AcDbEntity
  8
AM_REFDIM
100
AcDbDimension
  2
*D24
 10
38.53147118799552
 20
70.23309422894403
 30
-179.8317238765535
 11
48.3171854737098
 21
72.73309422894403
 31
-179.8317238765535
 70
    32
  3
STANDARD
100
AcDbAlignedDimension
 13
36.93147118799549
 23
61.89999999999997
 33
-179.8317238765535
 14
38.53147118799552
 24
61.89999999999997
 34
-179.8317238765535
100
AcDbRotatedDimension
  0
LINE
  5
182F
330
532
100
AcDbEntity
  8
AM_7
100
AcDbLine
 10
94.33147118799547
 20
60.0
 30
-179.8317238765535
 11
33.53147118799549
 21
60.0
 31
-179.8317238765535
  0
LINE
  5
1830
330
532
100
AcDbEntity
  8
AM_7
100
AcDbLine
 10
20.0
 20
61.80000000000001
 30
-179.8317238765535
 11
20.0
 21
65.5
 31
-179.8317238765535
  0
ARC
  5
1831
330
532
100
AcDbEntity
  8
AM_VIS
100
AcDbCircle
 10
20.0
 20
60.0
 30
-179.8317238765535
 40
2.75
100
AcDbArc
 50
245.3800226713428
 51
270.0
  0
LINE
  5
1832
330
532
100
AcDbEntity
  8
AM_VIS
100
AcDbLine
 10
18.84529946162075
 20
58.0
 30
-179.8317238765535
 11
21.15470053837924
 21
58.0
 31
-179.8317238765535
  0
LINE
  5
1833
330
532
100
AcDbEntity
  8
AM_VIS
100
AcDbLine
 10
18.84529946162075
 20
62.0
 30
-179.8317238765535
 11
21.15470053837924
 21
62.0
 31
-179.8317238765535
  0
CIRCLE
  5
1834
330
532
100
AcDbEntity
  8
AM_VIS
100
AcDbCircle
 10
20.0
 20
60.0
 30
-179.8317238765535
 40
1.319615242270666
  0
CIRCLE
  5
1835
330
532
100
AcDbEntity
  8
AM_VIS
100
AcDbCircle
 10
20.0
 20
60.0
 30
-179.8317238765535
 40
1.900000000000003
  0
LINE
  5
1836
330
532
100
AcDbEntity
  8
AM_VIS
100
AcDbLine
 10
18.55662432702592
 20
57.5
 30
-179.8317238765535
 11
21.44337567297406
 21
57.5
 31
-179.8317238765535
  0
LINE
  5
1837
330
532
100
AcDbEntity
  8
AM_VIS
100
AcDbLine
 10
18.55662432702592
 20
62.5
 30
-179.8317238765535
 11
21.44337567297406
 21
62.5
 31
-179.8317238765535
  0
CIRCLE
  5
1838
330
532
100
AcDbEntity
  8
AM_VIS
100
AcDbCircle
 10
20.0
 20
60.0
 30
-179.8317238765535
 40
2.400000000000003
  0
ARC
  5
1839
330
532
100
AcDbEntity
  8
AM_VIS
100
AcDbCircle
 10
20.0
 20
60.0
 30
-179.8317238765535
 40
2.75
100
AcDbArc
 50
65.38002267134391
 51
114.619977328656
  0
LINE
  5
183A
330
532
100
AcDbEntity
  8
AM_7
100
AcDbLine
 10
19.0
 20
60.0
 30
-179.8317238765535
 11
21.0
 21
60.0
 31
-179.8317238765535
  0
LINE
  5
183B
330
532
100
AcDbEntity
  8
AM_VIS
100
AcDbLine
 10
17.11324865405186
 20
60.0
 30
-179.8317238765535
 11
18.55662432702592
 21
57.5
 31
-179.8317238765535
  0
ARC
  5
183C
330
532
100
AcDbEntity
  8
AM_VIS
100
AcDbCircle
 10
20.0
 20
60.0
 30
-179.8317238765535
 40
2.75
100
AcDbArc
 50
185.3800226713428
 51
234.6199773286565
  0
LINE
  5
183D
330
532
100
AcDbEntity
  8
AM_7
100
AcDbLine
 10
14.5
 20
60.0
 30
-179.8317238765535
 11
18.19999999999998
 21
60.0
 31
-179.8317238765535
  0
LINE
  5
183E
330
532
100
AcDbEntity
  8
AM_VIS
100
AcDbLine
 10
17.69059892324148
 20
60.0
 30
-179.8317238765535
 11
18.84529946162075
 21
58.0
 31
-179.8317238765535
  0
LINE
  5
183F
330
532
100
AcDbEntity
  8
AM_VIS
100
AcDbLine
 10
17.69059892324148
 20
60.0
 30
-179.8317238765535
 11
18.84529946162075
 21
62.0
 31
-179.8317238765535
  0
LINE
  5
1840
330
532
100
AcDbEntity
  8
AM_VIS
100
AcDbLine
 10
17.11324865405186
 20
60.0
 30
-179.8317238765535
 11
18.55662432702592
 21
62.5
 31
-179.8317238765535
  0
ARC
  5
1841
330
532
100
AcDbEntity
  8
AM_VIS
100
AcDbCircle
 10
20.0
 20
60.0
 30
-179.8317238765535
 40
2.169615242270665
100
AcDbArc
 50
127.1939802519827
 51
172.8060197480174
  0
ARC
  5
1842
330
532
100
AcDbEntity
  8
AM_VIS
100
AcDbCircle
 10
20.0
 20
60.0
 30
-179.8317238765535
 40
2.169615242270665
100
AcDbArc
 50
187.1939802519825
 51
232.8060197480172
  0
ARC
  5
1843
330
532
100
AcDbEntity
  8
AM_VIS
100
AcDbCircle
 10
20.0
 20
60.0
 30
-179.8317238765535
 40
2.75
100
AcDbArc
 50
125.3800226713433
 51
174.6199773286563
  0
ARC
  5
1844
330
532
100
AcDbEntity
  8
AM_VIS
100
AcDbCircle
 10
20.0
 20
60.0
 30
-179.8317238765535
 40
2.549999999999999
100
AcDbArc
 50
198.6351230329669
 51
221.3648769670332
  0
ARC
  5
1845
330
532
100
AcDbEntity
  8
AM_VIS
100
AcDbCircle
 10
20.0
 20
60.0
 30
-179.8317238765535
 40
2.549999999999999
100
AcDbArc
 50
138.6351230329679
 51
161.3648769670321
  0
LINE
  5
1846
330
532
100
AcDbEntity
  8
AM_VIS
100
AcDbLine
 10
21.44337567297406
 20
57.5
 30
-179.8317238765535
 11
22.88675134594814
 21
60.0
 31
-179.8317238765535
  0
ARC
  5
1847
330
532
100
AcDbEntity
  8
AM_VIS
100
AcDbCircle
 10
20.0
 20
60.0
 30
-179.8317238765535
 40
2.75
100
AcDbArc
 50
305.380022671343
 51
354.6199773286572
  0
LINE
  5
1848
330
532
100
AcDbEntity
  8
AM_7
100
AcDbLine
 10
20.0
 20
54.5
 30
-179.8317238765535
 11
20.0
 21
58.19999999999999
 31
-179.8317238765535
  0
ARC
  5
1849
330
532
100
AcDbEntity
  8
AM_VIS
100
AcDbCircle
 10
20.0
 20
60.0
 30
-179.8317238765535
 40
2.549999999999999
100
AcDbArc
 50
258.635123032966
 51
270.0
  0
ARC
  5
184A
330
532
100
AcDbEntity
  8
AM_VIS
100
AcDbCircle
 10
20.0
 20
60.0
 30
-179.8317238765535
 40
2.75
100
AcDbArc
 50
270.0
 51
294.6199773286571
  0
ARC
  5
184B
330
532
100
AcDbEntity
  8
AM_VIS
100
AcDbCircle
 10
20.0
 20
60.0
 30
-179.8317238765535
 40
2.549999999999999
100
AcDbArc
 50
270.0
 51
281.3648769670339
  0
LINE
  5
184C
330
532
100
AcDbEntity
  8
AM_7
100
AcDbLine
 10
21.80000000000001
 20
60.0
 30
-179.8317238765535
 11
25.5
 21
60.0
 31
-179.8317238765535
  0
LINE
  5
184D
330
532
100
AcDbEntity
  8
AM_VIS
100
AcDbLine
 10
21.15470053837924
 20
58.0
 30
-179.8317238765535
 11
22.30940107675849
 21
60.0
 31
-179.8317238765535
  0
LINE
  5
184E
330
532
100
AcDbEntity
  8
AM_VIS
100
AcDbLine
 10
21.15470053837924
 20
62.0
 30
-179.8317238765535
 11
22.30940107675849
 21
60.0
 31
-179.8317238765535
  0
LINE
  5
184F
330
532
100
AcDbEntity
  8
AM_VIS
100
AcDbLine
 10
21.44337567297406
 20
62.5
 30
-179.8317238765535
 11
22.88675134594814
 21
60.0
 31
-179.8317238765535
  0
ARC
  5
1850
330
532
100
AcDbEntity
  8
AM_VIS
100
AcDbCircle
 10
20.0
 20
60.0
 30
-179.8317238765535
 40
2.169615242270665
100
AcDbArc
 50
7.193980251981738
 51
52.80601974801835
  0
ARC
  5
1851
330
532
100
AcDbEntity
  8
AM_VIS
100
AcDbCircle
 10
20.0
 20
60.0
 30
-179.8317238765535
 40
2.169615242270665
100
AcDbArc
 50
307.1939802519816
 51
352.8060197480182
  0
ARC
  5
1852
330
532
100
AcDbEntity
  8
AM_VIS
100
AcDbCircle
 10
20.0
 20
60.0
 30
-179.8317238765535
 40
2.75
100
AcDbArc
 50
5.380022671342806
 51
54.61997732865695
  0
ARC
  5
1853
330
532
100
AcDbEntity
  8
AM_VIS
100
AcDbCircle
 10
20.0
 20
60.0
 30
-179.8317238765535
 40
2.549999999999999
100
AcDbArc
 50
18.63512303296696
 51
41.36487696703298
  0
ARC
  5
1854
330
532
100
AcDbEntity
  8
AM_VIS
100
AcDbCircle
 10
20.0
 20
60.0
 30
-179.8317238765535
 40
2.549999999999999
100
AcDbArc
 50
318.6351230329658
 51
341.3648769670339
  0
LINE
  5
1855
330
532
100
AcDbEntity
  8
AM_7
100
AcDbLine
 10
20.0
 20
59.0
 30
-179.8317238765535
 11
20.0
 21
61.0
 31
-179.8317238765535
  0
ARC
  5
1856
330
532
100
AcDbEntity
  8
AM_VIS
100
AcDbCircle
 10
20.0
 20
60.0
 30
-179.8317238765535
 40
2.169615242270665
100
AcDbArc
 50
67.19398025198195
 51
112.8060197480176
  0
ARC
  5
1857
330
532
100
AcDbEntity
  8
AM_VIS
100
AcDbCircle
 10
20.0
 20
60.0
 30
-179.8317238765535
 40
2.169615242270665
100
AcDbArc
 50
247.1939802519823
 51
292.8060197480176
  0
CIRCLE
  5
1858
330
532
100
AcDbEntity
  8
AM_VIS
100
AcDbCircle
 10
20.0
 20
60.0
 30
-179.8317238765535
 40
0.75
  0
CIRCLE
  5
1859
330
532
100
AcDbEntity
  8
AM_VIS
100
AcDbCircle
 10
20.0
 20
60.0
 30
-179.8317238765535
 40
0.9499999999999998
  0
ARC
  5
185A
330
532
100
AcDbEntity
  8
AM_VIS
100
AcDbCircle
 10
20.0
 20
60.0
 30
-179.8317238765535
 40
2.549999999999999
100
AcDbArc
 50
78.63512303296849
 51
101.3648769670315
  0
LINE
  5
185B
330
532
100
AcDbEntity
  8
AM_VIS
100
AcDbLine
 10
36.93147118799549
 20
60.94999999999998
 30
-179.8317238765535
 11
35.13147118799548
 21
60.94999999999998
 31
-179.8317238765535
  0
LINE
  5
185C
330
532
100
AcDbEntity
  8
AM_VIS
100
AcDbLine
 10
36.93147118799549
 20
59.05000000000001
 30
-179.8317238765535
 11
35.13147118799548
 21
59.05000000000001
 31
-179.8317238765535
  0
LINE
  5
185D
330
532
100
AcDbEntity
  8
AM_VIS
100
AcDbLine
 10
35.13147118799548
 20
60.94999999999998
 30
-179.8317238765535
 11
35.13147118799548
 21
59.04999999999998
 31
-179.8317238765535
  0
LINE
  5
185E
330
532
100
AcDbEntity
  8
AM_VIS
100
AcDbLine
 10
34.9314711879955
 20
59.25
 30
-179.8317238765535
 11
34.9314711879955
 21
60.75
 31
-179.8317238765535
  0
LINE
  5
185F
330
532
100
AcDbEntity
  8
AM_VIS
100
AcDbLine
 10
34.9314711879955
 20
59.25
 30
-179.8317238765535
 11
35.13147118799548
 21
59.05000000000001
 31
-179.8317238765535
  0
LINE
  5
1860
330
532
100
AcDbEntity
  8
AM_VIS
100
AcDbLine
 10
34.9314711879955
 20
60.75
 30
-179.8317238765535
 11
35.13147118799548
 21
60.94999999999998
 31
-179.8317238765535
  0
LINE
  5
1861
330
532
100
AcDbEntity
  8
AM_VIS
100
AcDbLine
 10
43.53147118799552
 20
62.40000000000001
 30
-179.8317238765535
 11
43.53147118799552
 21
57.59999999999999
 31
-179.8317238765535
  0
SPLINE
  5
1862
330
532
100
AcDbEntity
  8
AM_VIS
100
AcDbSpline
210
0.0
220
0.0000000000000114
230
1.0
 70
    12
 71
     2
 72
     6
 73
     3
 74
     0
 42
0.0000000001
 43
0.0000000001
 40
2.828260686890516
 40
2.828260686890516
 40
2.828260686890516
 40
7.313402556056042
 40
7.313402556056042
 40
7.313402556056042
 10
43.81249720860707
 20
60.00000000000001
 30
-179.8317238765535
 41
1.466561103835291
 10
43.39583054194037
 20
58.74999999999999
 30
-179.8317238765535
 41
1.693438896164708
 10
43.81249720860703
 20
57.50000000000001
 30
-179.8317238765535
 41
1.466561103835291
  0
LINE
  5
1863
330
532
100
AcDbEntity
  8
AM_VIS
100
AcDbLine
 10
43.53147118799552
 20
57.59999999999999
 30
-179.8317238765535
 11
43.58920621491444
 21
57.5
 31
-179.8317238765535
  0
LINE
  5
1864
330
532
100
AcDbEntity
  8
AM_VIS
100
AcDbLine
 10
43.58920621491444
 20
57.5
 30
-179.8317238765535
 11
43.81249720860705
 21
57.5
 31
-179.8317238765535
  0
LINE
  5
1865
330
532
100
AcDbEntity
  8
AM_VIS
100
AcDbLine
 10
45.65044516738396
 20
57.5
 30
-179.8317238765535
 11
43.81249720860705
 21
57.5
 31
-179.8317238765535
  0
LINE
  5
1866
330
532
100
AcDbEntity
  8
AM_VIS
100
AcDbLine
 10
40.93147118799549
 20
59.14999999999998
 30
-179.8317238765535
 11
41.9314711879955
 21
59.14999999999998
 31
-179.8317238765535
  0
LINE
  5
1867
330
532
100
AcDbEntity
  8
AM_VIS
100
AcDbLine
 10
40.93147118799549
 20
60.84999999999999
 30
-179.8317238765535
 11
41.9314711879955
 21
60.84999999999999
 31
-179.8317238765535
  0
LINE
  5
1868
330
532
100
AcDbEntity
  8
AM_VIS
100
AcDbLine
 10
40.93147118799549
 20
60.94999999999998
 30
-179.8317238765535
 11
40.93147118799549
 21
59.04999999999998
 31
-179.8317238765535
  0
LINE
  5
1869
330
532
100
AcDbEntity
  8
AM_VIS
100
AcDbLine
 10
36.93147118799549
 20
61.89999999999997
 30
-179.8317238765535
 11
36.93147118799549
 21
58.09999999999999
 31
-179.8317238765535
  0
LINE
  5
186A
330
532
100
AcDbEntity
  8
AM_VIS
100
AcDbLine
 10
38.53147118799552
 20
58.09999999999999
 30
-179.8317238765535
 11
38.53147118799552
 21
61.89999999999997
 31
-179.8317238765535
  0
LINE
  5
186B
330
532
100
AcDbEntity
  8
AM_VIS
100
AcDbLine
 10
36.93147118799549
 20
58.09999999999999
 30
-179.8317238765535
 11
36.98920621491444
 21
58.00000000000003
 31
-179.8317238765535
  0
LINE
  5
186C
330
532
100
AcDbEntity
  8
AM_VIS
100
AcDbLine
 10
36.93147118799549
 20
61.89999999999997
 30
-179.8317238765535
 11
36.98920621491444
 21
61.99999999999997
 31
-179.8317238765535
  0
LINE
  5
186D
330
532
100
AcDbEntity
  8
AM_VIS
100
AcDbLine
 10
38.53147118799552
 20
61.89999999999997
 30
-179.8317238765535
 11
38.47373616107654
 21
61.99999999999994
 31
-179.8317238765535
  0
LINE
  5
186E
330
532
100
AcDbEntity
  8
AM_VIS
100
AcDbLine
 10
38.53147118799552
 20
58.09999999999999
 30
-179.8317238765535
 11
38.47373616107654
 21
58.00000000000006
 31
-179.8317238765535
  0
LINE
  5
186F
330
532
100
AcDbEntity
  8
AM_VIS
100
AcDbLine
 10
38.29510336612247
 20
62.0
 30
-179.8317238765535
 11
37.16783900986854
 21
62.0
 31
-179.8317238765535
  0
LINE
  5
1870
330
532
100
AcDbEntity
  8
AM_VIS
100
AcDbLine
 10
36.98920621491438
 20
62.0
 30
-179.8317238765535
 11
37.16783900986854
 21
62.0
 31
-179.8317238765535
  0
SPLINE
  5
1871
330
532
100
AcDbEntity
  8
AM_VIS
100
AcDbSpline
210
0.0
220
-0.0000000000000142
230
1.0
 70
    12
 71
     2
 72
     6
 73
     3
 74
     0
 42
0.0000000001
 43
0.0000000001
 40
2.591256036699217
 40
2.591256036699217
 40
2.591256036699217
 40
6.397503645751164
 40
6.397503645751164
 40
6.397503645751164
 10
37.16783900986854
 20
62.00000000000001
 30
-179.8317238765535
 41
1.548076211353256
 10
36.83450567653512
 20
60.99999999999988
 30
-179.8317238765535
 41
1.787564434701839
 10
37.16783900986853
 20
60.0
 30
-179.8317238765535
 41
1.548076211353258
  0
SPLINE
  5
1872
330
532
100
AcDbEntity
  8
AM_VIS
100
AcDbSpline
210
0.0
220
0.0
230
1.0
 70
    12
 71
     2
 72
     6
 73
     3
 74
     0
 42
0.0000000001
 43
0.0000000001
 40
2.591256036699228
 40
2.591256036699228
 40
2.591256036699228
 40
6.397503645751173
 40
6.397503645751173
 40
6.397503645751173
 10
37.16783900986854
 20
60.0
 30
-179.8317238765535
 41
1.548076211353259
 10
36.83450567653511
 20
58.99999999999988
 30
-179.8317238765535
 41
1.787564434701841
 10
37.16783900986854
 20
58.00000000000001
 30
-179.8317238765535
 41
1.548076211353259
  0
LINE
  5
1873
330
532
100
AcDbEntity
  8
AM_VIS
100
AcDbLine
 10
38.29510336612247
 20
60.0
 30
-179.8317238765535
 11
37.16783900986854
 21
60.0
 31
-179.8317238765535
  0
LINE
  5
1874
330
532
100
AcDbEntity
  8
AM_VIS
100
AcDbLine
 10
36.98920621491438
 20
58.0
 30
-179.8317238765535
 11
37.16783900986854
 21
58.0
 31
-179.8317238765535
  0
LINE
  5
1875
330
532
100
AcDbEntity
  8
AM_VIS
100
AcDbLine
 10
38.29510336612247
 20
58.0
 30
-179.8317238765535
 11
37.16783900986854
 21
58.0
 31
-179.8317238765535
  0
LINE
  5
1876
330
532
100
AcDbEntity
  8
AM_VIS
100
AcDbLine
 10
38.29510336612247
 20
62.0
 30
-179.8317238765535
 11
38.47373616107665
 21
62.0
 31
-179.8317238765535
  0
LINE
  5
1877
330
532
100
AcDbEntity
  8
AM_VIS
100
AcDbLine
 10
38.29510336612247
 20
58.0
 30
-179.8317238765535
 11
38.47373616107665
 21
58.0
 31
-179.8317238765535
  0
SPLINE
  5
1878
330
532
100
AcDbEntity
  8
AM_VIS
100
AcDbSpline
210
0.0
220
0.0
230
1.0
 70
    12
 71
     2
 72
     6
 73
     3
 74
     0
 42
0.0000000001
 43
0.0000000001
 40
2.746365448925365
 40
2.746365448925365
 40
2.746365448925365
 40
6.656874049027615
 40
6.656874049027615
 40
6.656874049027615
 10
38.29510336612246
 20
57.99999999999998
 30
-179.8317238765535
 41
1.587048957087435
 10
38.62843669945594
 20
59.00000000000016
 30
-179.8317238765535
 41
1.832566285183317
 10
38.29510336612249
 20
60.00000000000001
 30
-179.8317238765535
 41
1.587048957087434
  0
SPLINE
  5
1879
330
532
100
AcDbEntity
  8
AM_VIS
100
AcDbSpline
210
0.0
220
0.0
230
1.0
 70
    12
 71
     2
 72
     6
 73
     3
 74
     0
 42
0.0000000001
 43
0.0000000001
 40
2.746365448925371
 40
2.746365448925371
 40
2.746365448925371
 40
6.656874049027609
 40
6.656874049027609
 40
6.656874049027609
 10
38.29510336612242
 20
60.00000000000002
 30
-179.8317238765535
 41
1.587048957087433
 10
38.62843669945596
 20
61.00000000000017
 30
-179.8317238765535
 41
1.832566285183312
 10
38.29510336612247
 20
62.0
 30
-179.8317238765535
 41
1.58704895708743
  0
LINE
  5
187A
330
532
100
AcDbEntity
  8
AM_VIS
100
AcDbLine
 10
38.53147118799552
 20
61.89999999999997
 30
-179.8317238765535
 11
38.53147118799552
 21
58.09999999999999
 31
-179.8317238765535
  0
LINE
  5
187B
330
532
100
AcDbEntity
  8
AM_VIS
100
AcDbLine
 10
40.13147118799548
 20
58.09999999999999
 30
-179.8317238765535
 11
40.13147118799548
 21
61.89999999999997
 31
-179.8317238765535
  0
LINE
  5
187C
330
532
100
AcDbEntity
  8
AM_VIS
100
AcDbLine
 10
38.53147118799552
 20
58.09999999999999
 30
-179.8317238765535
 11
38.58920621491444
 21
58.00000000000003
 31
-179.8317238765535
  0
LINE
  5
187D
330
532
100
AcDbEntity
  8
AM_VIS
100
AcDbLine
 10
38.53147118799552
 20
61.89999999999997
 30
-179.8317238765535
 11
38.58920621491444
 21
61.99999999999997
 31
-179.8317238765535
  0
LINE
  5
187E
330
532
100
AcDbEntity
  8
AM_VIS
100
AcDbLine
 10
40.13147118799548
 20
61.89999999999997
 30
-179.8317238765535
 11
40.07373616107656
 21
61.99999999999994
 31
-179.8317238765535
  0
LINE
  5
187F
330
532
100
AcDbEntity
  8
AM_VIS
100
AcDbLine
 10
40.13147118799548
 20
58.09999999999999
 30
-179.8317238765535
 11
40.07373616107656
 21
58.00000000000006
 31
-179.8317238765535
  0
LINE
  5
1880
330
532
100
AcDbEntity
  8
AM_VIS
100
AcDbLine
 10
39.89510336612244
 20
62.0
 30
-179.8317238765535
 11
38.76783900986856
 21
62.0
 31
-179.8317238765535
  0
LINE
  5
1881
330
532
100
AcDbEntity
  8
AM_VIS
100
AcDbLine
 10
38.58920621491438
 20
62.0
 30
-179.8317238765535
 11
38.76783900986856
 21
62.0
 31
-179.8317238765535
  0
SPLINE
  5
1882
330
532
100
AcDbEntity
  8
AM_VIS
100
AcDbSpline
210
0.0
220
-0.0000000000000142
230
1.0
 70
    12
 71
     2
 72
     6
 73
     3
 74
     0
 42
0.0000000001
 43
0.0000000001
 40
2.591256036699217
 40
2.591256036699217
 40
2.591256036699217
 40
6.397503645751164
 40
6.397503645751164
 40
6.397503645751164
 10
38.7678390098685
 20
62.00000000000001
 30
-179.8317238765535
 41
1.548076211353256
 10
38.43450567653508
 20
60.99999999999988
 30
-179.8317238765535
 41
1.787564434701839
 10
38.76783900986855
 20
60.0
 30
-179.8317238765535
 41
1.548076211353258
  0
SPLINE
  5
1883
330
532
100
AcDbEntity
  8
AM_VIS
100
AcDbSpline
210
0.0
220
0.0
230
1.0
 70
    12
 71
     2
 72
     6
 73
     3
 74
     0
 42
0.0000000001
 43
0.0000000001
 40
2.591256036699228
 40
2.591256036699228
 40
2.591256036699228
 40
6.397503645751173
 40
6.397503645751173
 40
6.397503645751173
 10
38.76783900986856
 20
60.0
 30
-179.8317238765535
 41
1.548076211353259
 10
38.43450567653508
 20
58.99999999999988
 30
-179.8317238765535
 41
1.787564434701841
 10
38.76783900986856
 20
58.00000000000001
 30
-179.8317238765535
 41
1.548076211353259
  0
LINE
  5
1884
330
532
100
AcDbEntity
  8
AM_VIS
100
AcDbLine
 10
39.89510336612244
 20
60.0
 30
-179.8317238765535
 11
38.76783900986856
 21
60.0
 31
-179.8317238765535
  0
LINE
  5
1885
330
532
100
AcDbEntity
  8
AM_VIS
100
AcDbLine
 10
38.58920621491438
 20
58.0
 30
-179.8317238765535
 11
38.76783900986856
 21
58.0
 31
-179.8317238765535
  0
LINE
  5
1886
330
532
100
AcDbEntity
  8
AM_VIS
100
AcDbLine
 10
39.89510336612244
 20
58.0
 30
-179.8317238765535
 11
38.76783900986856
 21
58.0
 31
-179.8317238765535
  0
LINE
  5
1887
330
532
100
AcDbEntity
  8
AM_VIS
100
AcDbLine
 10
39.89510336612244
 20
62.0
 30
-179.8317238765535
 11
40.07373616107662
 21
62.0
 31
-179.8317238765535
  0
LINE
  5
1888
330
532
100
AcDbEntity
  8
AM_VIS
100
AcDbLine
 10
39.89510336612244
 20
58.0
 30
-179.8317238765535
 11
40.07373616107668
 21
58.0
 31
-179.8317238765535
  0
SPLINE
  5
1889
330
532
100
AcDbEntity
  8
AM_VIS
100
AcDbSpline
210
0.0
220
0.0
230
1.0
 70
    12
 71
     2
 72
     6
 73
     3
 74
     0
 42
0.0000000001
 43
0.0000000001
 40
2.746365448925365
 40
2.746365448925365
 40
2.746365448925365
 40
6.656874049027615
 40
6.656874049027615
 40
6.656874049027615
 10
39.89510336612244
 20
57.99999999999998
 30
-179.8317238765535
 41
1.587048957087435
 10
40.22843669945596
 20
59.00000000000016
 30
-179.8317238765535
 41
1.832566285183317
 10
39.89510336612244
 20
60.00000000000001
 30
-179.8317238765535
 41
1.587048957087434
  0
SPLINE
  5
188A
330
532
100
AcDbEntity
  8
AM_VIS
100
AcDbSpline
210
0.0
220
0.0
230
1.0
 70
    12
 71
     2
 72
     6
 73
     3
 74
     0
 42
0.0000000001
 43
0.0000000001
 40
2.746365448925371
 40
2.746365448925371
 40
2.746365448925371
 40
6.656874049027609
 40
6.656874049027609
 40
6.656874049027609
 10
39.89510336612244
 20
60.00000000000002
 30
-179.8317238765535
 41
1.587048957087433
 10
40.22843669945598
 20
61.00000000000017
 30
-179.8317238765535
 41
1.832566285183312
 10
39.89510336612244
 20
62.0
 30
-179.8317238765535
 41
1.58704895708743
  0
LINE
  5
188B
330
532
100
AcDbEntity
  8
AM_VIS
100
AcDbLine
 10
40.93147118799549
 20
60.94999999999998
 30
-179.8317238765535
 11
40.13147118799548
 21
60.94999999999998
 31
-179.8317238765535
  0
LINE
  5
188C
330
532
100
AcDbEntity
  8
AM_VIS
100
AcDbLine
 10
40.93147118799549
 20
59.05000000000001
 30
-179.8317238765535
 11
40.13147118799548
 21
59.05000000000001
 31
-179.8317238765535
  0
LINE
  5
188D
330
532
100
AcDbEntity
  8
AM_VIS
100
AcDbLine
 10
43.53147118799552
 20
62.40000000000001
 30
-179.8317238765535
 11
43.58920621491444
 21
62.5
 31
-179.8317238765535
  0
LINE
  5
188E
330
532
100
AcDbEntity
  8
AM_VIS
100
AcDbLine
 10
43.58920621491444
 20
62.5
 30
-179.8317238765535
 11
43.81249720860705
 21
62.5
 31
-179.8317238765535
  0
SPLINE
  5
188F
330
532
100
AcDbEntity
  8
AM_VIS
100
AcDbSpline
210
0.0
220
0.0
230
1.0
 70
    12
 71
     2
 72
     6
 73
     3
 74
     0
 42
0.0000000001
 43
0.0000000001
 40
2.828260686890505
 40
2.828260686890505
 40
2.828260686890505
 40
7.313402556056021
 40
7.313402556056021
 40
7.313402556056021
 10
43.81249720860705
 20
62.5
 30
-179.8317238765535
 41
1.466561103835288
 10
43.39583054194038
 20
61.25
 30
-179.8317238765535
 41
1.693438896164704
 10
43.81249720860705
 20
60.0
 30
-179.8317238765535
 41
1.46656110383529
  0
LINE
  5
1890
330
532
100
AcDbEntity
  8
AM_VIS
100
AcDbLine
 10
42.45108643026617
 20
61.97499999999999
 30
-179.8317238765535
 11
42.45108643026617
 21
58.02499999999998
 31
-179.8317238765535
  0
LINE
  5
1891
330
532
100
AcDbEntity
  8
AM_VIS
100
AcDbLine
 10
41.9314711879955
 20
58.32499999999999
 30
-179.8317238765535
 11
41.9314711879955
 21
61.67499999999998
 31
-179.8317238765535
  0
LINE
  5
1892
330
532
100
AcDbEntity
  8
AM_VIS
100
AcDbLine
 10
43.53147118799552
 20
61.97499999999999
 30
-179.8317238765535
 11
42.45108643026617
 21
61.97499999999999
 31
-179.8317238765535
  0
LINE
  5
1893
330
532
100
AcDbEntity
  8
AM_VIS
100
AcDbLine
 10
43.53147118799552
 20
58.02499999999998
 30
-179.8317238765535
 11
42.45108643026617
 21
58.02499999999998
 31
-179.8317238765535
  0
LINE
  5
1894
330
532
100
AcDbEntity
  8
AM_VIS
100
AcDbLine
 10
41.9314711879955
 20
58.32499999999999
 30
-179.8317238765535
 11
42.45108643026617
 21
58.02499999999998
 31
-179.8317238765535
  0
LINE
  5
1895
330
532
100
AcDbEntity
  8
AM_VIS
100
AcDbLine
 10
41.9314711879955
 20
61.67500000000001
 30
-179.8317238765535
 11
42.45108643026617
 21
61.97499999999999
 31
-179.8317238765535
  0
LINE
  5
1896
330
532
100
AcDbEntity
  8
AM_VIS
100
AcDbLine
 10
45.65044516738391
 20
62.5
 30
-179.8317238765535
 11
43.81249720860705
 21
62.5
 31
-179.8317238765535
  0
LINE
  5
1897
330
532
100
AcDbEntity
  8
AM_VIS
100
AcDbLine
 10
45.65044516738396
 20
60.0
 30
-179.8317238765535
 11
43.81249720860705
 21
60.0
 31
-179.8317238765535
  0
LINE
  5
1898
330
532
100
AcDbEntity
  8
AM_VIS
100
AcDbLine
 10
90.73147118799544
 20
61.69999999999999
 30
-179.8317238765535
 11
90.33147118799547
 21
61.69999999999999
 31
-179.8317238765535
  0
LINE
  5
1899
330
532
100
AcDbEntity
  8
AM_VIS
100
AcDbLine
 10
90.73147118799544
 20
58.30000000000001
 30
-179.8317238765535
 11
90.33147118799547
 21
58.30000000000001
 31
-179.8317238765535
  0
TEXT
  5
189A
330
532
100
AcDbEntity
  8
AM_REFDIM
100
AcDbText
 10
63.36497205832301
 20
73.88815931548771
 30
-179.8317238765535
 40
2.5
  1
M4x0.7
100
AcDbText
  0
LEADER
  5
189B
330
532
100
AcDbEntity
  8
AM_REFDIM
100
AcDbLeader
  3
STANDARD
 40
3.0
 76
     3
 10
46.34232326031599
 20
61.97499999999999
 30
-179.8317238765535
 10
61.05874077700832
 20
73.20952567579621
 30
-179.8317238765535
 10
76.01510030866404
 20
73.20952567579621
 30
-179.8317238765535
213
0.0
223
-1.5
233
0.0
1001
ACAD
1000
DSTYLE
1002
{
1070
     5
1000

1070
    77
1070
     0
1070
   147
1040
1.0
1002
}
1000
LEANOF
1010
0.0
1020
-1.5
1030
0.0
  0
LINE
  5
189C
330
532
100
AcDbEntity
  8
AM_VIS
100
AcDbLine
 10
85.23147118799546
 20
62.5
 30
-179.8317238765535
 11
50.03147118799552
 21
62.5
 31
-179.8317238765535
  0
LINE
  5
189D
330
532
100
AcDbEntity
  8
AM_VIS
100
AcDbLine
 10
85.23147118799546
 20
57.5
 30
-179.8317238765535
 11
55.1814711879955
 21
57.5
 31
-179.8317238765535
  0
LINE
  5
189E
330
532
100
AcDbEntity
  8
AM_VIS
100
AcDbLine
 10
54.68147118799549
 20
57.5
 30
-179.8317238765535
 11
50.03147118799552
 21
57.5
 31
-179.8317238765535
  0
LINE
  5
189F
330
532
100
AcDbEntity
  8
AM_VIS
100
AcDbLine
 10
45.93147118799549
 20
57.59999999999999
 30
-179.8317238765535
 11
45.93147118799549
 21
62.39999999999998
 31
-179.8317238765535
  0
LINE
  5
18A0
330
532
100
AcDbEntity
  8
AM_VIS
100
AcDbLine
 10
47.9314711879955
 20
57.44999999999999
 30
-179.8317238765535
 11
47.9314711879955
 21
62.54999999999999
 31
-179.8317238765535
  0
LINE
  5
18A1
330
532
100
AcDbEntity
  8
AM_VIS
100
AcDbLine
 10
48.13147118799548
 20
62.75
 30
-179.8317238765535
 11
48.13147118799548
 21
57.25
 31
-179.8317238765535
  0
LINE
  5
18A2
330
532
100
AcDbEntity
  8
AM_VIS
100
AcDbLine
 10
49.73147118799551
 20
57.25
 30
-179.8317238765535
 11
49.73147118799551
 21
62.75
 31
-179.8317238765535
  0
LINE
  5
18A3
330
532
100
AcDbEntity
  8
AM_VIS
100
AcDbLine
 10
49.9314711879955
 20
62.55000000000001
 30
-179.8317238765535
 11
49.9314711879955
 21
57.44999999999999
 31
-179.8317238765535
  0
LINE
  5
18A4
330
532
100
AcDbEntity
  8
AM_VIS
100
AcDbLine
 10
50.03147118799552
 20
62.5
 30
-179.8317238765535
 11
50.03147118799552
 21
57.5
 31
-179.8317238765535
  0
LINE
  5
18A5
330
532
100
AcDbEntity
  8
AM_VIS
100
AcDbLine
 10
49.9314711879955
 20
57.44999999999999
 30
-179.8317238765535
 11
49.73147118799551
 21
57.25
 31
-179.8317238765535
  0
LINE
  5
18A6
330
532
100
AcDbEntity
  8
AM_VIS
100
AcDbLine
 10
49.9314711879955
 20
57.59999999999999
 30
-179.8317238765535
 11
50.03147118799552
 21
57.5
 31
-179.8317238765535
  0
LINE
  5
18A7
330
532
100
AcDbEntity
  8
AM_VIS
100
AcDbLine
 10
45.93147118799549
 20
57.59999999999999
 30
-179.8317238765535
 11
45.87373616107652
 21
57.5
 31
-179.8317238765535
  0
LINE
  5
18A8
330
532
100
AcDbEntity
  8
AM_VIS
100
AcDbLine
 10
47.9314711879955
 20
57.44999999999999
 30
-179.8317238765535
 11
48.13147118799548
 21
57.25
 31
-179.8317238765535
  0
LINE
  5
18A9
330
532
100
AcDbEntity
  8
AM_VIS
100
AcDbLine
 10
49.73147118799551
 20
57.25
 30
-179.8317238765535
 11
48.13147118799548
 21
57.25
 31
-179.8317238765535
  0
LINE
  5
18AA
330
532
100
AcDbEntity
  8
AM_VIS
100
AcDbLine
 10
49.9314711879955
 20
62.55000000000001
 30
-179.8317238765535
 11
49.73147118799551
 21
62.75
 31
-179.8317238765535
  0
LINE
  5
18AB
330
532
100
AcDbEntity
  8
AM_VIS
100
AcDbLine
 10
49.9314711879955
 20
62.39999999999998
 30
-179.8317238765535
 11
50.03147118799552
 21
62.5
 31
-179.8317238765535
  0
LINE
  5
18AC
330
532
100
AcDbEntity
  8
AM_VIS
100
AcDbLine
 10
45.93147118799549
 20
62.40000000000001
 30
-179.8317238765535
 11
45.87373616107652
 21
62.5
 31
-179.8317238765535
  0
LINE
  5
18AD
330
532
100
AcDbEntity
  8
AM_VIS
100
AcDbLine
 10
46.9314711879955
 20
58.0
 30
-179.8317238765535
 11
46.9314711879955
 21
62.0
 31
-179.8317238765535
  0
LINE
  5
18AE
330
532
100
AcDbEntity
  8
AM_VIS
100
AcDbLine
 10
47.9314711879955
 20
62.0
 30
-179.8317238765535
 11
46.9314711879955
 21
62.0
 31
-179.8317238765535
  0
LINE
  5
18AF
330
532
100
AcDbEntity
  8
AM_VIS
100
AcDbLine
 10
47.9314711879955
 20
58.0
 30
-179.8317238765535
 11
46.9314711879955
 21
58.0
 31
-179.8317238765535
  0
LINE
  5
18B0
330
532
100
AcDbEntity
  8
AM_VIS
100
AcDbLine
 10
46.9314711879955
 20
61.97499999999999
 30
-179.8317238765535
 11
45.93147118799549
 21
61.97499999999999
 31
-179.8317238765535
  0
LINE
  5
18B1
330
532
100
AcDbEntity
  8
AM_VIS
100
AcDbLine
 10
46.9314711879955
 20
58.02499999999998
 30
-179.8317238765535
 11
45.93147118799549
 21
58.02499999999998
 31
-179.8317238765535
  0
LINE
  5
18B2
330
532
100
AcDbEntity
  8
AM_VIS
100
AcDbLine
 10
47.9314711879955
 20
62.55000000000001
 30
-179.8317238765535
 11
48.13147118799548
 21
62.75
 31
-179.8317238765535
  0
LINE
  5
18B3
330
532
100
AcDbEntity
  8
AM_VIS
100
AcDbLine
 10
49.73147118799551
 20
62.75
 30
-179.8317238765535
 11
48.13147118799548
 21
62.75
 31
-179.8317238765535
  0
ARC
  5
18B4
330
532
100
AcDbEntity
  8
AM_VIS
100
AcDbCircle
 10
54.93093927163624
 20
55.00241634348819
 30
-179.8317238765535
 40
2.510115768912126
100
AcDbArc
 50
84.27183747296998
 51
89.98785850002299
  0
ARC
  5
18B5
330
532
100
AcDbEntity
  8
AM_VIS
100
AcDbCircle
 10
54.93200310435463
 20
55.00241634348981
 30
-179.8317238765535
 40
2.510115768910522
100
AcDbArc
 50
90.01214149997293
 51
95.72816252702912
  0
LINE
  5
18B6
330
532
100
AcDbEntity
  8
AM_VIS
100
AcDbLine
 10
85.23147118799546
 20
57.5
 30
-179.8317238765535
 11
85.23147118799546
 21
62.5
 31
-179.8317238765535
  0
LINE
  5
18B7
330
532
100
AcDbEntity
  8
AM_VIS
100
AcDbLine
 10
85.4314711879955
 20
57.69999999999999
 30
-179.8317238765535
 11
85.23147118799546
 21
57.5
 31
-179.8317238765535
  0
LINE
  5
18B8
330
532
100
AcDbEntity
  8
AM_VIS
100
AcDbLine
 10
86.33147118799547
 20
61.69999999999999
 30
-179.8317238765535
 11
85.4314711879955
 21
61.69999999999999
 31
-179.8317238765535
  0
LINE
  5
18B9
330
532
100
AcDbEntity
  8
AM_VIS
100
AcDbLine
 10
86.33147118799547
 20
58.30000000000001
 30
-179.8317238765535
 11
85.4314711879955
 21
58.30000000000001
 31
-179.8317238765535
  0
LINE
  5
18BA
330
532
100
AcDbEntity
  8
AM_VIS
100
AcDbLine
 10
85.4314711879955
 20
62.30000000000001
 30
-179.8317238765535
 11
85.4314711879955
 21
57.69999999999999
 31
-179.8317238765535
  0
LINE
  5
18BB
330
532
100
AcDbEntity
  8
AM_VIS
100
AcDbLine
 10
85.4314711879955
 20
62.29999999999998
 30
-179.8317238765535
 11
85.23147118799546
 21
62.5
 31
-179.8317238765535
  0
LINE
  5
18BC
330
532
100
AcDbEntity
  8
AM_VIS
100
AcDbLine
 10
87.33147118799548
 20
61.14999999999998
 30
-179.8317238765535
 11
87.33147118799548
 21
58.84999999999999
 31
-179.8317238765535
  0
LINE
  5
18BD
330
532
100
AcDbEntity
  8
AM_VIS
100
AcDbLine
 10
90.33147118799547
 20
61.69999999999999
 30
-179.8317238765535
 11
90.33147118799547
 21
58.29999999999998
 31
-179.8317238765535
  0
LINE
  5
18BE
330
532
100
AcDbEntity
  8
AM_VIS
100
AcDbLine
 10
90.33147118799547
 20
61.14999999999998
 30
-179.8317238765535
 11
87.33147118799548
 21
61.14999999999998
 31
-179.8317238765535
  0
LINE
  5
18BF
330
532
100
AcDbEntity
  8
AM_VIS
100
AcDbLine
 10
90.33147118799547
 20
58.84999999999999
 30
-179.8317238765535
 11
87.33147118799548
 21
58.84999999999999
 31
-179.8317238765535
  0
LINE
  5
18C0
330
532
100
AcDbEntity
  8
AM_VIS
100
AcDbLine
 10
86.33147118799547
 20
61.69999999999999
 30
-179.8317238765535
 11
86.33147118799547
 21
58.29999999999998
 31
-179.8317238765535
  0
LINE
  5
18C1
330
532
100
AcDbEntity
  8
AM_VIS
100
AcDbLine
 10
87.33147118799548
 20
61.14999999999998
 30
-179.8317238765535
 11
86.33147118799547
 21
61.69999999999999
 31
-179.8317238765535
  0
LINE
  5
18C2
330
532
100
AcDbEntity
  8
AM_VIS
100
AcDbLine
 10
87.33147118799548
 20
58.84999999999999
 30
-179.8317238765535
 11
86.33147118799547
 21
58.30000000000001
 31
-179.8317238765535
  0
LINE
  5
18C3
330
532
100
AcDbEntity
  8
AM_VIS
100
AcDbLine
 10
108.143295248729
 20
60.0
 30
-179.8317238765535
 11
108.2921611233466
 21
60.25784325835079
 31
-179.8317238765535
  0
LINE
  5
18C4
330
532
100
AcDbEntity
  8
AM_VIS
100
AcDbLine
 10
108.143295248729
 20
60.0
 30
-179.8317238765535
 11
108.2921611233466
 21
59.74215674164921
 31
-179.8317238765535
  0
LINE
  5
18C5
330
532
100
AcDbEntity
  8
AM_7
100
AcDbLine
 10
105.5300465946771
 20
60.0
 30
-179.8317238765535
 11
109.2300465946772
 21
60.0
 31
-179.8317238765535
  0
LINE
  5
18C6
330
532
100
AcDbEntity
  8
AM_VIS
100
AcDbLine
 10
90.73147118799544
 20
61.69999999999999
 30
-179.8317238765535
 11
90.73147118799544
 21
58.29999999999998
 31
-179.8317238765535
  0
LINE
  5
18C7
330
532
100
AcDbEntity
  8
AM_VIS
100
AcDbLine
 10
91.93147118799549
 20
61.14999999999998
 30
-179.8317238765535
 11
91.93147118799549
 21
58.84999999999999
 31
-179.8317238765535
  0
LINE
  5
18C8
330
532
100
AcDbEntity
  8
AM_VIS
100
AcDbLine
 10
92.73147118799546
 20
58.84999999999999
 30
-179.8317238765535
 11
92.73147118799546
 21
61.15000000000001
 31
-179.8317238765535
  0
LINE
  5
18C9
330
532
100
AcDbEntity
  8
AM_VIS
100
AcDbLine
 10
92.9314711879955
 20
60.94999999999998
 30
-179.8317238765535
 11
92.9314711879955
 21
59.04999999999998
 31
-179.8317238765535
  0
LINE
  5
18CA
330
532
100
AcDbEntity
  8
AM_VIS
100
AcDbLine
 10
91.93147118799549
 20
61.14999999999998
 30
-179.8317238765535
 11
90.73147118799544
 21
61.69999999999999
 31
-179.8317238765535
  0
LINE
  5
18CB
330
532
100
AcDbEntity
  8
AM_VIS
100
AcDbLine
 10
91.93147118799549
 20
58.84999999999999
 30
-179.8317238765535
 11
90.73147118799552
 21
58.30000000000001
 31
-179.8317238765535
  0
LINE
  5
18CC
330
532
100
AcDbEntity
  8
AM_VIS
100
AcDbLine
 10
92.73147118799546
 20
61.14999999999998
 30
-179.8317238765535
 11
91.93147118799549
 21
61.14999999999998
 31
-179.8317238765535
  0
LINE
  5
18CD
330
532
100
AcDbEntity
  8
AM_VIS
100
AcDbLine
 10
92.73147118799546
 20
58.84999999999999
 30
-179.8317238765535
 11
91.93147118799549
 21
58.84999999999999
 31
-179.8317238765535
  0
LINE
  5
18CE
330
532
100
AcDbEntity
  8
AM_VIS
100
AcDbLine
 10
92.9314711879955
 20
60.94999999999998
 30
-179.8317238765535
 11
92.73147118799546
 21
61.14999999999998
 31
-179.8317238765535
  0
LINE
  5
18CF
330
532
100
AcDbEntity
  8
AM_VIS
100
AcDbLine
 10
92.9314711879955
 20
59.04999999999998
 30
-179.8317238765535
 11
92.73147118799546
 21
58.84999999999999
 31
-179.8317238765535
  0
LINE
  5
18D0
330
532
100
AcDbEntity
  8
AM_7
100
AcDbLine
 10
111.0300465946771
 20
61.80000000000001
 30
-179.8317238765535
 11
111.0300465946771
 21
65.5
 31
-179.8317238765535
  0
LINE
  5
18D1
330
532
100
AcDbEntity
  8
AM_VIS
100
AcDbLine
 10
112.4734222676512
 20
57.5
 30
-179.8317238765535
 11
112.6222881422688
 21
57.75784325835079
 31
-179.8317238765535
  0
LINE
  5
18D2
330
532
100
AcDbEntity
  8
AM_VIS
100
AcDbLine
 10
109.4378050470856
 20
57.75784325835076
 30
-179.8317238765535
 11
109.5866709217031
 21
57.5
 31
-179.8317238765535
  0
LINE
  5
18D3
330
532
100
AcDbEntity
  8
AM_7
100
AcDbLine
 10
111.0300465946771
 20
54.5
 30
-179.8317238765535
 11
111.0300465946771
 21
58.19999999999999
 31
-179.8317238765535
  0
CIRCLE
  5
18D4
330
532
100
AcDbEntity
  8
AM_VIS
100
AcDbCircle
 10
111.0300465946771
 20
60.0
 30
-179.8317238765535
 40
2.549999999999999
  0
CIRCLE
  5
18D5
330
532
100
AcDbEntity
  8
AM_VIS
100
AcDbCircle
 10
111.0300465946771
 20
60.0
 30
-179.8317238765535
 40
2.75
  0
CIRCLE
  5
18D6
330
532
100
AcDbEntity
  8
AM_VIS
100
AcDbCircle
 10
111.0300465946771
 20
60.0
 30
-179.8317238765535
 40
2.5
  0
LINE
  5
18D7
330
532
100
AcDbEntity
  8
AM_VIS
100
AcDbLine
 10
112.1756905184161
 20
57.5
 30
-179.8317238765535
 11
112.4734222676512
 21
57.5
 31
-179.8317238765535
  0
LINE
  5
18D8
330
532
100
AcDbEntity
  8
AM_VIS
100
AcDbLine
 10
109.5866709217031
 20
57.5
 30
-179.8317238765535
 11
109.8844026709382
 21
57.5
 31
-179.8317238765535
  0
LINE
  5
18D9
330
532
100
AcDbEntity
  8
AM_VIS
100
AcDbLine
 10
112.4734222676512
 20
62.5
 30
-179.8317238765535
 11
112.6222881422688
 21
62.24215674164918
 31
-179.8317238765535
  0
CIRCLE
  5
18DA
330
532
100
AcDbEntity
  8
AM_VIS
100
AcDbCircle
 10
111.0300465946771
 20
60.0
 30
-179.8317238765535
 40
2.299999999999999
  0
CIRCLE
  5
18DB
330
532
100
AcDbEntity
  8
AM_VIS
100
AcDbCircle
 10
111.0300465946771
 20
60.0
 30
-179.8317238765535
 40
1.7
  0
LINE
  5
18DC
330
532
100
AcDbEntity
  8
AM_VIS
100
AcDbLine
 10
112.1756905184161
 20
62.5
 30
-179.8317238765535
 11
112.4734222676512
 21
62.5
 31
-179.8317238765535
  0
LINE
  5
18DD
330
532
100
AcDbEntity
  8
AM_VIS
100
AcDbLine
 10
109.4378050470856
 20
62.24215674164921
 30
-179.8317238765535
 11
109.5866709217031
 21
62.5
 31
-179.8317238765535
  0
LINE
  5
18DE
330
532
100
AcDbEntity
  8
AM_VIS
100
AcDbLine
 10
109.5866709217031
 20
62.5
 30
-179.8317238765535
 11
109.8844026709382
 21
62.5
 31
-179.8317238765535
  0
LINE
  5
18DF
330
532
100
AcDbEntity
  8
AM_7
100
AcDbLine
 10
111.0300465946771
 20
59.0
 30
-179.8317238765535
 11
111.0300465946771
 21
61.0
 31
-179.8317238765535
  0
CIRCLE
  5
18E0
330
532
100
AcDbEntity
  8
AM_VIS
100
AcDbCircle
 10
111.0300465946771
 20
60.0
 30
-179.8317238765535
 40
0.5
  0
CIRCLE
  5
18E1
330
532
100
AcDbEntity
  8
AM_VIS
100
AcDbCircle
 10
111.0300465946771
 20
60.0
 30
-179.8317238765535
 40
0.6
  0
CIRCLE
  5
18E2
330
532
100
AcDbEntity
  8
AM_VIS
100
AcDbCircle
 10
111.0300465946771
 20
60.0
 30
-179.8317238765535
 40
0.9500000000000014
  0
CIRCLE
  5
18E3
330
532
100
AcDbEntity
  8
AM_VIS
100
AcDbCircle
 10
111.0300465946771
 20
60.0
 30
-179.8317238765535
 40
1.150000000000001
  0
LINE
  5
18E4
330
532
100
AcDbEntity
  8
AM_7
100
AcDbLine
 10
110.0300465946771
 20
60.0
 30
-179.8317238765535
 11
112.0300465946771
 21
60.0
 31
-179.8317238765535
  0
LINE
  5
18E5
330
532
100
AcDbEntity
  8
AM_VIS
100
AcDbLine
 10
113.7679320660077
 20
59.74215674164921
 30
-179.8317238765535
 11
113.9167979406253
 21
60.0
 31
-179.8317238765535
  0
LINE
  5
18E6
330
532
100
AcDbEntity
  8
AM_VIS
100
AcDbLine
 10
113.7679320660077
 20
60.25784325835082
 30
-179.8317238765535
 11
113.9167979406253
 21
60.0
 31
-179.8317238765535
  0
LINE
  5
18E7
330
532
100
AcDbEntity
  8
AM_7
100
AcDbLine
 10
112.8300465946771
 20
60.0
 30
-179.8317238765535
 11
116.5300465946771
 21
60.0
 31
-179.8317238765535
  0
DIMENSION
  5
19FB
330
532
100
AcDbEntity
  8
AM_REFDIM
100
AcDbDimension
  2
*D30
 10
85.4314711879955
 20
35.42309058664392
 30
-179.8317238765535
 11
66.6814711879955
 21
37.92309058664392
 31
-179.8317238765535
 70
    32
  3
STANDARD
100
AcDbAlignedDimension
 13
47.9314711879955
 23
57.44999999999999
 33
-179.8317238765535
 14
85.4314711879955
 24
57.69999999999999
 34
-179.8317238765535
100
AcDbRotatedDimension
  0
LINE
  5
1A08
330
532
100
AcDbEntity
  8
AM_7
100
AcDbLine
 10
271.8300465946772
 20
60.0
 30
-179.8317238765535
 11
275.5300465946771
 21
60.0
 31
-179.8317238765535
  0
LINE
  5
1A09
330
532
100
AcDbEntity
  8
AM_7
100
AcDbLine
 10
253.3314711879954
 20
60.0
 30
-179.8317238765535
 11
183.5314711879954
 21
60.0
 31
-179.8317238765535
  0
LINE
  5
1A0A
330
532
100
AcDbEntity
  8
AM_VIS
100
AcDbLine
 10
195.6504451673839
 20
60.0
 30
-179.8317238765535
 11
193.812497208607
 21
60.0
 31
-179.8317238765535
  0
LINE
  5
1A0B
330
532
100
AcDbEntity
  8
AM_VIS
100
AcDbLine
 10
195.6504451673839
 20
62.5
 30
-179.8317238765535
 11
193.812497208607
 21
62.5
 31
-179.8317238765535
  0
LINE
  5
1A0C
330
532
100
AcDbEntity
  8
AM_VIS
100
AcDbLine
 10
195.6504451673839
 20
57.5
 30
-179.8317238765535
 11
193.812497208607
 21
57.5
 31
-179.8317238765535
  0
DIMENSION
  5
1A0D
330
532
100
AcDbEntity
  8
AM_REFDIM
100
AcDbDimension
  2
*D39
 10
188.5314711879955
 20
70.23309422894403
 30
-179.8317238765535
 11
198.3171854737097
 21
72.73309422894403
 31
-179.8317238765535
 70
    32
  3
STANDARD
100
AcDbAlignedDimension
 13
186.9314711879955
 23
61.89999999999997
 33
-179.8317238765535
 14
188.5314711879955
 24
61.89999999999997
 34
-179.8317238765535
100
AcDbRotatedDimension
  0
DIMENSION
  5
1A0E
330
532
100
AcDbEntity
  8
AM_REFDIM
100
AcDbDimension
  2
*D38
 10
195.9314711879954
 20
76.99077106373073
 30
-179.8317238765535
 11
206.1457569022811
 21
79.49077106373073
 31
-179.8317238765535
 70
    32
  3
STANDARD
100
AcDbAlignedDimension
 13
193.5314711879955
 23
62.40000000000001
 33
-179.8317238765535
 14
195.9314711879954
 24
62.39999999999998
 34
-179.8317238765535
100
AcDbRotatedDimension
  0
DIMENSION
  5
1A0F
330
532
100
AcDbEntity
  8
AM_REFDIM
100
AcDbDimension
  2
*D37
 10
190.9314711879954
 20
51.39605595342363
 30
-179.8317238765535
 11
187.9314711879954
 21
53.89605595342363
 31
-179.8317238765535
 70
    32
  3
STANDARD
100
AcDbAlignedDimension
 13
184.9314711879955
 23
59.25
 33
-179.8317238765535
 14
190.9314711879954
 24
59.05000000000001
 34
-179.8317238765535
100
AcDbRotatedDimension
  0
DIMENSION
  5
1A10
330
532
100
AcDbEntity
  8
AM_REFDIM
100
AcDbDimension
  2
*D36
 10
197.9314711879954
 20
46.1608368613438
 30
-179.8317238765535
 11
194.9314711879955
 21
48.6608368613438
 31
-179.8317238765535
 70
    32
  3
STANDARD
100
AcDbAlignedDimension
 13
191.9314711879954
 23
58.32499999999999
 33
-179.8317238765535
 14
197.9314711879954
 24
57.44999999999999
 34
-179.8317238765535
100
AcDbRotatedDimension
  0
DIMENSION
  5
1A11
330
532
100
AcDbEntity
  8
AM_REFDIM
100
AcDbDimension
  2
*D34
 10
197.9314711879954
 20
35.44651191079623
 30
-179.8317238765535
 11
191.4314711879955
 21
37.94651191079623
 31
-179.8317238765535
 70
    32
  3
STANDARD
100
AcDbAlignedDimension
 13
184.9314711879955
 23
59.25
 33
-179.8317238765535
 14
197.9314711879954
 24
57.44999999999999
 34
-179.8317238765535
100
AcDbRotatedDimension
  0
LEADER
  5
1A12
330
532
100
AcDbEntity
  8
AM_REFDIM
100
AcDbLeader
  3
STANDARD
 40
3.0
 76
     3
 10
186.1292659226595
 20
59.05000000000001
 30
-179.8317238765535
 10
175.429894787488
 20
46.07039704870629
 30
-179.8317238765535
 10
161.6001392071613
 20
46.07039704870629
 30
-179.8317238765535
213
0.0
223
1.5
233
0.0
1001
ACAD
1000
DSTYLE
1002
{
1070
     5
1000

1070
    77
1070
     0
1070
   147
1040
1.0
1002
}
1000
LEANOF
1010
0.0
1020
1.5
1030
0.0
  0
TEXT
  5
1A13
330
532
100
AcDbEntity
  8
AM_REFDIM
100
AcDbText
 10
162.0595449491568
 20
47.10397271627221
 30
-179.8317238765535
 40
2.5
  1
M2x0.4
100
AcDbText
  0
CIRCLE
  5
1A14
330
532
100
AcDbEntity
  8
AM_VIS
100
AcDbCircle
 10
170.0
 20
60.0
 30
-179.8317238765535
 40
0.9499999999999998
  0
CIRCLE
  5
1A15
330
532
100
AcDbEntity
  8
AM_VIS
100
AcDbCircle
 10
170.0
 20
60.0
 30
-179.8317238765535
 40
0.75
  0
LINE
  5
1A16
330
532
100
AcDbEntity
  8
AM_7
100
AcDbLine
 10
170.0
 20
59.0
 30
-179.8317238765535
 11
170.0
 21
61.0
 31
-179.8317238765535
  0
ARC
  5
1A17
330
532
100
AcDbEntity
  8
AM_VIS
100
AcDbCircle
 10
170.0
 20
60.0
 30
-179.8317238765535
 40
2.169615242270665
100
AcDbArc
 50
307.1939802519816
 51
352.8060197480182
  0
LINE
  5
1A18
330
532
100
AcDbEntity
  8
AM_VIS
100
AcDbLine
 10
171.1547005383792
 20
58.0
 30
-179.8317238765535
 11
172.3094010767584
 21
60.0
 31
-179.8317238765535
  0
ARC
  5
1A19
330
532
100
AcDbEntity
  8
AM_VIS
100
AcDbCircle
 10
170.0
 20
60.0
 30
-179.8317238765535
 40
2.75
100
AcDbArc
 50
305.380022671343
 51
354.6199773286572
  0
LINE
  5
1A1A
330
532
100
AcDbEntity
  8
AM_VIS
100
AcDbLine
 10
171.443375672974
 20
57.5
 30
-179.8317238765535
 11
172.8867513459481
 21
60.0
 31
-179.8317238765535
  0
ARC
  5
1A1B
330
532
100
AcDbEntity
  8
AM_VIS
100
AcDbCircle
 10
170.0
 20
60.0
 30
-179.8317238765535
 40
2.169615242270665
100
AcDbArc
 50
187.1939802519825
 51
232.8060197480172
  0
LINE
  5
1A1C
330
532
100
AcDbEntity
  8
AM_VIS
100
AcDbLine
 10
167.6905989232414
 20
60.0
 30
-179.8317238765535
 11
168.8452994616207
 21
58.0
 31
-179.8317238765535
  0
ARC
  5
1A1D
330
532
100
AcDbEntity
  8
AM_VIS
100
AcDbCircle
 10
170.0
 20
60.0
 30
-179.8317238765535
 40
2.75
100
AcDbArc
 50
185.3800226713428
 51
234.6199773286565
  0
LINE
  5
1A1E
330
532
100
AcDbEntity
  8
AM_VIS
100
AcDbLine
 10
167.1132486540518
 20
60.0
 30
-179.8317238765535
 11
168.5566243270259
 21
57.5
 31
-179.8317238765535
  0
CIRCLE
  5
1A1F
330
532
100
AcDbEntity
  8
AM_VIS
100
AcDbCircle
 10
170.0
 20
60.0
 30
-179.8317238765535
 40
2.400000000000003
  0
CIRCLE
  5
1A20
330
532
100
AcDbEntity
  8
AM_VIS
100
AcDbCircle
 10
170.0
 20
60.0
 30
-179.8317238765535
 40
1.900000000000003
  0
CIRCLE
  5
1A21
330
532
100
AcDbEntity
  8
AM_VIS
100
AcDbCircle
 10
170.0
 20
60.0
 30
-179.8317238765535
 40
1.319615242270666
  0
LINE
  5
1A22
330
532
100
AcDbEntity
  8
AM_VIS
100
AcDbLine
 10
168.5566243270259
 20
57.5
 30
-179.8317238765535
 11
171.443375672974
 21
57.5
 31
-179.8317238765535
  0
ARC
  5
1A23
330
532
100
AcDbEntity
  8
AM_VIS
100
AcDbCircle
 10
170.0
 20
60.0
 30
-179.8317238765535
 40
2.549999999999999
100
AcDbArc
 50
198.6351230329669
 51
221.3648769670332
  0
ARC
  5
1A24
330
532
100
AcDbEntity
  8
AM_VIS
100
AcDbCircle
 10
170.0
 20
60.0
 30
-179.8317238765535
 40
2.169615242270665
100
AcDbArc
 50
247.1939802519823
 51
292.8060197480176
  0
ARC
  5
1A25
330
532
100
AcDbEntity
  8
AM_VIS
100
AcDbCircle
 10
170.0
 20
60.0
 30
-179.8317238765535
 40
2.549999999999999
100
AcDbArc
 50
318.6351230329658
 51
341.3648769670339
  0
ARC
  5
1A26
330
532
100
AcDbEntity
  8
AM_VIS
100
AcDbCircle
 10
170.0
 20
60.0
 30
-179.8317238765535
 40
2.549999999999999
100
AcDbArc
 50
270.0
 51
281.3648769670339
  0
ARC
  5
1A27
330
532
100
AcDbEntity
  8
AM_VIS
100
AcDbCircle
 10
170.0
 20
60.0
 30
-179.8317238765535
 40
2.75
100
AcDbArc
 50
270.0
 51
294.6199773286571
  0
ARC
  5
1A28
330
532
100
AcDbEntity
  8
AM_VIS
100
AcDbCircle
 10
170.0
 20
60.0
 30
-179.8317238765535
 40
2.549999999999999
100
AcDbArc
 50
258.635123032966
 51
270.0
  0
LINE
  5
1A29
330
532
100
AcDbEntity
  8
AM_7
100
AcDbLine
 10
170.0
 20
54.5
 30
-179.8317238765535
 11
170.0
 21
58.19999999999999
 31
-179.8317238765535
  0
LINE
  5
1A2A
330
532
100
AcDbEntity
  8
AM_VIS
100
AcDbLine
 10
168.8452994616207
 20
58.0
 30
-179.8317238765535
 11
171.1547005383792
 21
58.0
 31
-179.8317238765535
  0
ARC
  5
1A2B
330
532
100
AcDbEntity
  8
AM_VIS
100
AcDbCircle
 10
170.0
 20
60.0
 30
-179.8317238765535
 40
2.75
100
AcDbArc
 50
245.3800226713428
 51
270.0
  0
ARC
  5
1A2C
330
532
100
AcDbEntity
  8
AM_VIS
100
AcDbCircle
 10
170.0
 20
60.0
 30
-179.8317238765535
 40
2.169615242270665
100
AcDbArc
 50
127.1939802519827
 51
172.8060197480174
  0
LINE
  5
1A2D
330
532
100
AcDbEntity
  8
AM_VIS
100
AcDbLine
 10
167.6905989232414
 20
60.0
 30
-179.8317238765535
 11
168.8452994616207
 21
62.0
 31
-179.8317238765535
  0
LINE
  5
1A2E
330
532
100
AcDbEntity
  8
AM_VIS
100
AcDbLine
 10
168.5566243270259
 20
62.5
 30
-179.8317238765535
 11
171.443375672974
 21
62.5
 31
-179.8317238765535
  0
ARC
  5
1A2F
330
532
100
AcDbEntity
  8
AM_VIS
100
AcDbCircle
 10
170.0
 20
60.0
 30
-179.8317238765535
 40
2.549999999999999
100
AcDbArc
 50
138.6351230329679
 51
161.3648769670321
  0
ARC
  5
1A30
330
532
100
AcDbEntity
  8
AM_VIS
100
AcDbCircle
 10
170.0
 20
60.0
 30
-179.8317238765535
 40
2.75
100
AcDbArc
 50
125.3800226713433
 51
174.6199773286563
  0
LINE
  5
1A31
330
532
100
AcDbEntity
  8
AM_VIS
100
AcDbLine
 10
167.1132486540518
 20
60.0
 30
-179.8317238765535
 11
168.5566243270259
 21
62.5
 31
-179.8317238765535
  0
LINE
  5
1A32
330
532
100
AcDbEntity
  8
AM_7
100
AcDbLine
 10
164.5
 20
60.0
 30
-179.8317238765535
 11
168.1999999999999
 21
60.0
 31
-179.8317238765535
  0
LINE
  5
1A33
330
532
100
AcDbEntity
  8
AM_7
100
AcDbLine
 10
170.0
 20
61.80000000000001
 30
-179.8317238765535
 11
170.0
 21
65.5
 31
-179.8317238765535
  0
LINE
  5
1A34
330
532
100
AcDbEntity
  8
AM_7
100
AcDbLine
 10
171.8
 20
60.0
 30
-179.8317238765535
 11
175.5
 21
60.0
 31
-179.8317238765535
  0
ARC
  5
1A35
330
532
100
AcDbEntity
  8
AM_VIS
100
AcDbCircle
 10
170.0
 20
60.0
 30
-179.8317238765535
 40
2.549999999999999
100
AcDbArc
 50
78.63512303296849
 51
101.3648769670315
  0
ARC
  5
1A36
330
532
100
AcDbEntity
  8
AM_VIS
100
AcDbCircle
 10
170.0
 20
60.0
 30
-179.8317238765535
 40
2.169615242270665
100
AcDbArc
 50
67.19398025198195
 51
112.8060197480176
  0
ARC
  5
1A37
330
532
100
AcDbEntity
  8
AM_VIS
100
AcDbCircle
 10
170.0
 20
60.0
 30
-179.8317238765535
 40
2.549999999999999
100
AcDbArc
 50
18.63512303296696
 51
41.36487696703298
  0
ARC
  5
1A38
330
532
100
AcDbEntity
  8
AM_VIS
100
AcDbCircle
 10
170.0
 20
60.0
 30
-179.8317238765535
 40
2.75
100
AcDbArc
 50
5.380022671342806
 51
54.61997732865695
  0
ARC
  5
1A39
330
532
100
AcDbEntity
  8
AM_VIS
100
AcDbCircle
 10
170.0
 20
60.0
 30
-179.8317238765535
 40
2.169615242270665
100
AcDbArc
 50
7.193980251981738
 51
52.80601974801835
  0
LINE
  5
1A3A
330
532
100
AcDbEntity
  8
AM_VIS
100
AcDbLine
 10
171.443375672974
 20
62.5
 30
-179.8317238765535
 11
172.8867513459481
 21
60.0
 31
-179.8317238765535
  0
LINE
  5
1A3B
330
532
100
AcDbEntity
  8
AM_VIS
100
AcDbLine
 10
171.1547005383792
 20
62.0
 30
-179.8317238765535
 11
172.3094010767584
 21
60.0
 31
-179.8317238765535
  0
LINE
  5
1A3C
330
532
100
AcDbEntity
  8
AM_7
100
AcDbLine
 10
169.0
 20
60.0
 30
-179.8317238765535
 11
171.0
 21
60.0
 31
-179.8317238765535
  0
ARC
  5
1A3D
330
532
100
AcDbEntity
  8
AM_VIS
100
AcDbCircle
 10
170.0
 20
60.0
 30
-179.8317238765535
 40
2.75
100
AcDbArc
 50
65.38002267134391
 51
114.619977328656
  0
LINE
  5
1A3E
330
532
100
AcDbEntity
  8
AM_VIS
100
AcDbLine
 10
168.8452994616207
 20
62.0
 30
-179.8317238765535
 11
171.1547005383792
 21
62.0
 31
-179.8317238765535
  0
LINE
  5
1A3F
330
532
100
AcDbEntity
  8
AM_VIS
100
AcDbLine
 10
191.9314711879954
 20
58.32499999999999
 30
-179.8317238765535
 11
191.9314711879954
 21
61.67499999999998
 31
-179.8317238765535
  0
LINE
  5
1A40
330
532
100
AcDbEntity
  8
AM_VIS
100
AcDbLine
 10
192.4510864302661
 20
61.97499999999999
 30
-179.8317238765535
 11
192.4510864302661
 21
58.02499999999998
 31
-179.8317238765535
  0
SPLINE
  5
1A41
330
532
100
AcDbEntity
  8
AM_VIS
100
AcDbSpline
210
0.0
220
0.0
230
1.0
 70
    12
 71
     2
 72
     6
 73
     3
 74
     0
 42
0.0000000001
 43
0.0000000001
 40
2.746365448925365
 40
2.746365448925365
 40
2.746365448925365
 40
6.656874049027615
 40
6.656874049027615
 40
6.656874049027615
 10
189.8951033661223
 20
57.99999999999998
 30
-179.8317238765535
 41
1.587048957087435
 10
190.2284366994559
 20
59.00000000000016
 30
-179.8317238765535
 41
1.832566285183317
 10
189.8951033661224
 20
60.0
 30
-179.8317238765535
 41
1.587048957087434
  0
SPLINE
  5
1A42
330
532
100
AcDbEntity
  8
AM_VIS
100
AcDbSpline
210
0.0
220
0.0
230
1.0
 70
    12
 71
     2
 72
     6
 73
     3
 74
     0
 42
0.0000000001
 43
0.0000000001
 40
2.591256036699228
 40
2.591256036699228
 40
2.591256036699228
 40
6.397503645751173
 40
6.397503645751173
 40
6.397503645751173
 10
188.7678390098685
 20
60.0
 30
-179.8317238765535
 41
1.548076211353259
 10
188.434505676535
 20
58.99999999999988
 30
-179.8317238765535
 41
1.787564434701841
 10
188.7678390098685
 20
58.00000000000001
 30
-179.8317238765535
 41
1.548076211353259
  0
LINE
  5
1A43
330
532
100
AcDbEntity
  8
AM_VIS
100
AcDbLine
 10
190.1314711879954
 20
58.09999999999999
 30
-179.8317238765535
 11
190.1314711879954
 21
61.89999999999997
 31
-179.8317238765535
  0
LINE
  5
1A44
330
532
100
AcDbEntity
  8
AM_VIS
100
AcDbLine
 10
188.5314711879955
 20
61.89999999999997
 30
-179.8317238765535
 11
188.5314711879955
 21
58.09999999999999
 31
-179.8317238765535
  0
SPLINE
  5
1A45
330
532
100
AcDbEntity
  8
AM_VIS
100
AcDbSpline
210
0.0
220
0.0
230
1.0
 70
    12
 71
     2
 72
     6
 73
     3
 74
     0
 42
0.0000000001
 43
0.0000000001
 40
2.746365448925365
 40
2.746365448925365
 40
2.746365448925365
 40
6.656874049027615
 40
6.656874049027615
 40
6.656874049027615
 10
188.2951033661224
 20
57.99999999999998
 30
-179.8317238765535
 41
1.587048957087435
 10
188.6284366994559
 20
59.00000000000016
 30
-179.8317238765535
 41
1.832566285183317
 10
188.2951033661224
 20
60.0
 30
-179.8317238765535
 41
1.587048957087434
  0
SPLINE
  5
1A46
330
532
100
AcDbEntity
  8
AM_VIS
100
AcDbSpline
210
0.0
220
0.0
230
1.0
 70
    12
 71
     2
 72
     6
 73
     3
 74
     0
 42
0.0000000001
 43
0.0000000001
 40
2.591256036699228
 40
2.591256036699228
 40
2.591256036699228
 40
6.397503645751173
 40
6.397503645751173
 40
6.397503645751173
 10
187.1678390098685
 20
60.0
 30
-179.8317238765535
 41
1.548076211353259
 10
186.8345056765351
 20
58.99999999999988
 30
-179.8317238765535
 41
1.787564434701841
 10
187.1678390098684
 20
58.00000000000001
 30
-179.8317238765535
 41
1.548076211353259
  0
LINE
  5
1A47
330
532
100
AcDbEntity
  8
AM_VIS
100
AcDbLine
 10
188.5314711879955
 20
58.09999999999999
 30
-179.8317238765535
 11
188.5314711879955
 21
61.89999999999997
 31
-179.8317238765535
  0
LINE
  5
1A48
330
532
100
AcDbEntity
  8
AM_VIS
100
AcDbLine
 10
186.9314711879955
 20
61.89999999999997
 30
-179.8317238765535
 11
186.9314711879955
 21
58.09999999999999
 31
-179.8317238765535
  0
LINE
  5
1A49
330
532
100
AcDbEntity
  8
AM_VIS
100
AcDbLine
 10
190.9314711879954
 20
60.94999999999998
 30
-179.8317238765535
 11
190.9314711879954
 21
59.04999999999998
 31
-179.8317238765535
  0
SPLINE
  5
1A4A
330
532
100
AcDbEntity
  8
AM_VIS
100
AcDbSpline
210
0.0
220
0.0000000000000114
230
1.0
 70
    12
 71
     2
 72
     6
 73
     3
 74
     0
 42
0.0000000001
 43
0.0000000001
 40
2.828260686890516
 40
2.828260686890516
 40
2.828260686890516
 40
7.313402556056042
 40
7.313402556056042
 40
7.313402556056042
 10
193.812497208607
 20
60.00000000000001
 30
-179.8317238765535
 41
1.466561103835291
 10
193.3958305419403
 20
58.74999999999999
 30
-179.8317238765535
 41
1.693438896164708
 10
193.812497208607
 20
57.50000000000001
 30
-179.8317238765535
 41
1.466561103835291
  0
LINE
  5
1A4B
330
532
100
AcDbEntity
  8
AM_VIS
100
AcDbLine
 10
193.5314711879955
 20
62.40000000000001
 30
-179.8317238765535
 11
193.5314711879955
 21
57.59999999999999
 31
-179.8317238765535
  0
LINE
  5
1A4C
330
532
100
AcDbEntity
  8
AM_VIS
100
AcDbLine
 10
184.9314711879955
 20
59.25
 30
-179.8317238765535
 11
184.9314711879955
 21
60.75
 31
-179.8317238765535
  0
LINE
  5
1A4D
330
532
100
AcDbEntity
  8
AM_VIS
100
AcDbLine
 10
185.1314711879954
 20
60.94999999999998
 30
-179.8317238765535
 11
185.1314711879954
 21
59.04999999999998
 31
-179.8317238765535
  0
LINE
  5
1A4E
330
532
100
AcDbEntity
  8
AM_VIS
100
AcDbLine
 10
186.9314711879955
 20
59.05000000000001
 30
-179.8317238765535
 11
185.1314711879954
 21
59.05000000000001
 31
-179.8317238765535
  0
LINE
  5
1A4F
330
532
100
AcDbEntity
  8
AM_VIS
100
AcDbLine
 10
184.9314711879955
 20
59.25
 30
-179.8317238765535
 11
185.1314711879954
 21
59.05000000000001
 31
-179.8317238765535
  0
LINE
  5
1A50
330
532
100
AcDbEntity
  8
AM_VIS
100
AcDbLine
 10
190.9314711879954
 20
59.05000000000001
 30
-179.8317238765535
 11
190.1314711879954
 21
59.05000000000001
 31
-179.8317238765535
  0
LINE
  5
1A51
330
532
100
AcDbEntity
  8
AM_VIS
100
AcDbLine
 10
189.8951033661224
 20
58.0
 30
-179.8317238765535
 11
190.0737361610766
 21
58.0
 31
-179.8317238765535
  0
LINE
  5
1A52
330
532
100
AcDbEntity
  8
AM_VIS
100
AcDbLine
 10
189.8951033661224
 20
58.0
 30
-179.8317238765535
 11
188.7678390098685
 21
58.0
 31
-179.8317238765535
  0
LINE
  5
1A53
330
532
100
AcDbEntity
  8
AM_VIS
100
AcDbLine
 10
188.5892062149143
 20
58.0
 30
-179.8317238765535
 11
188.7678390098685
 21
58.0
 31
-179.8317238765535
  0
LINE
  5
1A54
330
532
100
AcDbEntity
  8
AM_VIS
100
AcDbLine
 10
190.1314711879954
 20
58.09999999999999
 30
-179.8317238765535
 11
190.0737361610765
 21
58.00000000000006
 31
-179.8317238765535
  0
LINE
  5
1A55
330
532
100
AcDbEntity
  8
AM_VIS
100
AcDbLine
 10
188.5314711879955
 20
58.09999999999999
 30
-179.8317238765535
 11
188.5892062149144
 21
58.00000000000003
 31
-179.8317238765535
  0
LINE
  5
1A56
330
532
100
AcDbEntity
  8
AM_VIS
100
AcDbLine
 10
188.2951033661224
 20
58.0
 30
-179.8317238765535
 11
188.4737361610766
 21
58.0
 31
-179.8317238765535
  0
LINE
  5
1A57
330
532
100
AcDbEntity
  8
AM_VIS
100
AcDbLine
 10
188.2951033661224
 20
58.0
 30
-179.8317238765535
 11
187.1678390098685
 21
58.0
 31
-179.8317238765535
  0
LINE
  5
1A58
330
532
100
AcDbEntity
  8
AM_VIS
100
AcDbLine
 10
186.9892062149143
 20
58.0
 30
-179.8317238765535
 11
187.1678390098685
 21
58.0
 31
-179.8317238765535
  0
LINE
  5
1A59
330
532
100
AcDbEntity
  8
AM_VIS
100
AcDbLine
 10
188.5314711879955
 20
58.09999999999999
 30
-179.8317238765535
 11
188.4737361610765
 21
58.00000000000006
 31
-179.8317238765535
  0
LINE
  5
1A5A
330
532
100
AcDbEntity
  8
AM_VIS
100
AcDbLine
 10
186.9314711879955
 20
58.09999999999999
 30
-179.8317238765535
 11
186.9892062149144
 21
58.00000000000003
 31
-179.8317238765535
  0
LINE
  5
1A5B
330
532
100
AcDbEntity
  8
AM_VIS
100
AcDbLine
 10
191.9314711879954
 20
58.32499999999999
 30
-179.8317238765535
 11
192.4510864302661
 21
58.02499999999998
 31
-179.8317238765535
  0
LINE
  5
1A5C
330
532
100
AcDbEntity
  8
AM_VIS
100
AcDbLine
 10
193.5314711879955
 20
58.02499999999998
 30
-179.8317238765535
 11
192.4510864302661
 21
58.02499999999998
 31
-179.8317238765535
  0
LINE
  5
1A5D
330
532
100
AcDbEntity
  8
AM_VIS
100
AcDbLine
 10
190.9314711879954
 20
59.14999999999998
 30
-179.8317238765535
 11
191.9314711879954
 21
59.14999999999998
 31
-179.8317238765535
  0
LINE
  5
1A5E
330
532
100
AcDbEntity
  8
AM_VIS
100
AcDbLine
 10
193.5892062149144
 20
57.5
 30
-179.8317238765535
 11
193.812497208607
 21
57.5
 31
-179.8317238765535
  0
LINE
  5
1A5F
330
532
100
AcDbEntity
  8
AM_VIS
100
AcDbLine
 10
193.5314711879955
 20
57.59999999999999
 30
-179.8317238765535
 11
193.5892062149144
 21
57.5
 31
-179.8317238765535
  0
LINE
  5
1A60
330
532
100
AcDbEntity
  8
AM_VIS
100
AcDbLine
 10
186.9314711879955
 20
60.94999999999998
 30
-179.8317238765535
 11
185.1314711879954
 21
60.94999999999998
 31
-179.8317238765535
  0
LINE
  5
1A61
330
532
100
AcDbEntity
  8
AM_VIS
100
AcDbLine
 10
184.9314711879955
 20
60.75
 30
-179.8317238765535
 11
185.1314711879954
 21
60.94999999999998
 31
-179.8317238765535
  0
LINE
  5
1A62
330
532
100
AcDbEntity
  8
AM_VIS
100
AcDbLine
 10
190.9314711879954
 20
60.94999999999998
 30
-179.8317238765535
 11
190.1314711879954
 21
60.94999999999998
 31
-179.8317238765535
  0
SPLINE
  5
1A63
330
532
100
AcDbEntity
  8
AM_VIS
100
AcDbSpline
210
0.0
220
0.0
230
1.0
 70
    12
 71
     2
 72
     6
 73
     3
 74
     0
 42
0.0000000001
 43
0.0000000001
 40
2.746365448925371
 40
2.746365448925371
 40
2.746365448925371
 40
6.656874049027609
 40
6.656874049027609
 40
6.656874049027609
 10
189.8951033661224
 20
60.00000000000001
 30
-179.8317238765535
 41
1.587048957087433
 10
190.228436699456
 20
61.00000000000019
 30
-179.8317238765535
 41
1.832566285183312
 10
189.8951033661224
 20
62.00000000000001
 30
-179.8317238765535
 41
1.58704895708743
  0
LINE
  5
1A64
330
532
100
AcDbEntity
  8
AM_VIS
100
AcDbLine
 10
189.8951033661224
 20
62.0
 30
-179.8317238765535
 11
190.0737361610766
 21
62.0
 31
-179.8317238765535
  0
LINE
  5
1A65
330
532
100
AcDbEntity
  8
AM_VIS
100
AcDbLine
 10
189.8951033661224
 20
60.0
 30
-179.8317238765535
 11
188.7678390098685
 21
60.0
 31
-179.8317238765535
  0
SPLINE
  5
1A66
330
532
100
AcDbEntity
  8
AM_VIS
100
AcDbSpline
210
0.0
220
-0.0000000000000142
230
1.0
 70
    12
 71
     2
 72
     6
 73
     3
 74
     0
 42
0.0000000001
 43
0.0000000001
 40
2.591256036699217
 40
2.591256036699217
 40
2.591256036699217
 40
6.397503645751164
 40
6.397503645751164
 40
6.397503645751164
 10
188.7678390098685
 20
62.0
 30
-179.8317238765535
 41
1.548076211353256
 10
188.434505676535
 20
60.9999999999999
 30
-179.8317238765535
 41
1.787564434701839
 10
188.7678390098685
 20
60.0
 30
-179.8317238765535
 41
1.548076211353258
  0
LINE
  5
1A67
330
532
100
AcDbEntity
  8
AM_VIS
100
AcDbLine
 10
188.5892062149143
 20
62.0
 30
-179.8317238765535
 11
188.7678390098685
 21
62.0
 31
-179.8317238765535
  0
LINE
  5
1A68
330
532
100
AcDbEntity
  8
AM_VIS
100
AcDbLine
 10
189.8951033661224
 20
62.0
 30
-179.8317238765535
 11
188.7678390098685
 21
62.0
 31
-179.8317238765535
  0
LINE
  5
1A69
330
532
100
AcDbEntity
  8
AM_VIS
100
AcDbLine
 10
190.1314711879954
 20
61.89999999999997
 30
-179.8317238765535
 11
190.0737361610765
 21
61.99999999999994
 31
-179.8317238765535
  0
LINE
  5
1A6A
330
532
100
AcDbEntity
  8
AM_VIS
100
AcDbLine
 10
188.5314711879955
 20
61.89999999999997
 30
-179.8317238765535
 11
188.5892062149144
 21
61.99999999999997
 31
-179.8317238765535
  0
SPLINE
  5
1A6B
330
532
100
AcDbEntity
  8
AM_VIS
100
AcDbSpline
210
0.0
220
0.0
230
1.0
 70
    12
 71
     2
 72
     6
 73
     3
 74
     0
 42
0.0000000001
 43
0.0000000001
 40
2.746365448925371
 40
2.746365448925371
 40
2.746365448925371
 40
6.656874049027609
 40
6.656874049027609
 40
6.656874049027609
 10
188.2951033661224
 20
60.00000000000001
 30
-179.8317238765535
 41
1.587048957087433
 10
188.6284366994559
 20
61.00000000000019
 30
-179.8317238765535
 41
1.832566285183312
 10
188.2951033661224
 20
62.00000000000001
 30
-179.8317238765535
 41
1.58704895708743
  0
LINE
  5
1A6C
330
532
100
AcDbEntity
  8
AM_VIS
100
AcDbLine
 10
188.2951033661224
 20
62.0
 30
-179.8317238765535
 11
188.4737361610766
 21
62.0
 31
-179.8317238765535
  0
LINE
  5
1A6D
330
532
100
AcDbEntity
  8
AM_VIS
100
AcDbLine
 10
188.2951033661224
 20
60.0
 30
-179.8317238765535
 11
187.1678390098685
 21
60.0
 31
-179.8317238765535
  0
SPLINE
  5
1A6E
330
532
100
AcDbEntity
  8
AM_VIS
100
AcDbSpline
210
0.0
220
-0.0000000000000142
230
1.0
 70
    12
 71
     2
 72
     6
 73
     3
 74
     0
 42
0.0000000001
 43
0.0000000001
 40
2.591256036699217
 40
2.591256036699217
 40
2.591256036699217
 40
6.397503645751164
 40
6.397503645751164
 40
6.397503645751164
 10
187.1678390098685
 20
62.0
 30
-179.8317238765535
 41
1.548076211353256
 10
186.8345056765351
 20
60.9999999999999
 30
-179.8317238765535
 41
1.787564434701839
 10
187.1678390098685
 20
60.0
 30
-179.8317238765535
 41
1.548076211353258
  0
LINE
  5
1A6F
330
532
100
AcDbEntity
  8
AM_VIS
100
AcDbLine
 10
186.9892062149143
 20
62.0
 30
-179.8317238765535
 11
187.1678390098685
 21
62.0
 31
-179.8317238765535
  0
LINE
  5
1A70
330
532
100
AcDbEntity
  8
AM_VIS
100
AcDbLine
 10
188.2951033661224
 20
62.0
 30
-179.8317238765535
 11
187.1678390098685
 21
62.0
 31
-179.8317238765535
  0
LINE
  5
1A71
330
532
100
AcDbEntity
  8
AM_VIS
100
AcDbLine
 10
188.5314711879955
 20
61.89999999999997
 30
-179.8317238765535
 11
188.4737361610765
 21
61.99999999999994
 31
-179.8317238765535
  0
LINE
  5
1A72
330
532
100
AcDbEntity
  8
AM_VIS
100
AcDbLine
 10
186.9314711879955
 20
61.89999999999997
 30
-179.8317238765535
 11
186.9892062149144
 21
61.99999999999997
 31
-179.8317238765535
  0
LINE
  5
1A73
330
532
100
AcDbEntity
  8
AM_VIS
100
AcDbLine
 10
191.9314711879954
 20
61.67500000000001
 30
-179.8317238765535
 11
192.4510864302661
 21
61.97499999999999
 31
-179.8317238765535
  0
LINE
  5
1A74
330
532
100
AcDbEntity
  8
AM_VIS
100
AcDbLine
 10
193.5314711879955
 20
61.97499999999999
 30
-179.8317238765535
 11
192.4510864302661
 21
61.97499999999999
 31
-179.8317238765535
  0
SPLINE
  5
1A75
330
532
100
AcDbEntity
  8
AM_VIS
100
AcDbSpline
210
0.0
220
0.0
230
1.0
 70
    12
 71
     2
 72
     6
 73
     3
 74
     0
 42
0.0000000001
 43
0.0000000001
 40
2.828260686890505
 40
2.828260686890505
 40
2.828260686890505
 40
7.313402556056021
 40
7.313402556056021
 40
7.313402556056021
 10
193.812497208607
 20
62.5
 30
-179.8317238765535
 41
1.466561103835288
 10
193.3958305419403
 20
61.25
 30
-179.8317238765535
 41
1.693438896164704
 10
193.8124972086071
 20
60.0
 30
-179.8317238765535
 41
1.46656110383529
  0
LINE
  5
1A76
330
532
100
AcDbEntity
  8
AM_VIS
100
AcDbLine
 10
193.5892062149144
 20
62.5
 30
-179.8317238765535
 11
193.812497208607
 21
62.5
 31
-179.8317238765535
  0
LINE
  5
1A77
330
532
100
AcDbEntity
  8
AM_VIS
100
AcDbLine
 10
193.5314711879955
 20
62.40000000000001
 30
-179.8317238765535
 11
193.5892062149144
 21
62.5
 31
-179.8317238765535
  0
LINE
  5
1A78
330
532
100
AcDbEntity
  8
AM_VIS
100
AcDbLine
 10
190.9314711879954
 20
60.84999999999999
 30
-179.8317238765535
 11
191.9314711879954
 21
60.84999999999999
 31
-179.8317238765535
  0
LEADER
  5
1A79
330
532
100
AcDbEntity
  8
AM_REFDIM
100
AcDbLeader
  3
STANDARD
 40
3.0
 76
     3
 10
196.3423232603159
 20
61.97499999999999
 30
-179.8317238765535
 10
211.0587407770082
 20
73.20952567579621
 30
-179.8317238765535
 10
226.015100308664
 20
73.20952567579621
 30
-179.8317238765535
213
0.0
223
-1.5
233
0.0
1001
ACAD
1000
DSTYLE
1002
{
1070
     5
1000

1070
    77
1070
     0
1070
   147
1040
1.0
1002
}
1000
LEANOF
1010
0.0
1020
-1.5
1030
0.0
  0
DIMENSION
  5
1A7B
330
532
100
AcDbEntity
  8
AM_REFDIM
100
AcDbDimension
  2
*D33
 10
251.9314711879954
 20
35.44651191079623
 30
-179.8317238765535
 11
262.0743283308526
 21
37.94651191079623
 31
-179.8317238765535
 70
    32
  3
STANDARD
100
AcDbAlignedDimension
 13
244.4314711879954
 23
57.69999999999999
 33
-179.8317238765535
 14
251.9314711879954
 24
59.04999999999998
 34
-179.8317238765535
100
AcDbRotatedDimension
  0
LINE
  5
1A7C
330
532
100
AcDbEntity
  8
AM_VIS
100
AcDbLine
 10
244.2314711879954
 20
62.5
 30
-179.8317238765535
 11
200.0314711879954
 21
62.5
 31
-179.8317238765535
  0
LINE
  5
1A7D
330
532
100
AcDbEntity
  8
AM_VIS
100
AcDbLine
 10
244.2314711879954
 20
57.5
 30
-179.8317238765535
 11
205.1814711879954
 21
57.5
 31
-179.8317238765535
  0
DIMENSION
  5
1A7E
330
532
100
AcDbEntity
  8
AM_REFDIM
100
AcDbDimension
  2
*D35
 10
209.1958021207592
 20
57.24999999999999
 30
-179.8317238765535
 11
206.6958021207592
 21
45.75000000000002
 31
-179.8317238765535
 70
    32
  1
{\f????|b0|i0|c0|p54;%%c5.5}
  3
STANDARD
100
AcDbAlignedDimension
 13
199.7314711879955
 23
62.74999999999999
 33
-179.8317238765535
 14
199.7314711879955
 24
57.25
 34
-179.8317238765535
 50
90.0
100
AcDbRotatedDimension
  0
LINE
  5
1A7F
330
532
100
AcDbEntity
  8
AM_VIS
100
AcDbLine
 10
196.9314711879954
 20
58.0
 30
-179.8317238765535
 11
196.9314711879954
 21
62.0
 31
-179.8317238765535
  0
LINE
  5
1A80
330
532
100
AcDbEntity
  8
AM_VIS
100
AcDbLine
 10
200.0314711879954
 20
62.5
 30
-179.8317238765535
 11
200.0314711879954
 21
57.5
 31
-179.8317238765535
  0
LINE
  5
1A81
330
532
100
AcDbEntity
  8
AM_VIS
100
AcDbLine
 10
199.9314711879954
 20
62.55000000000001
 30
-179.8317238765535
 11
199.9314711879954
 21
57.44999999999999
 31
-179.8317238765535
  0
LINE
  5
1A82
330
532
100
AcDbEntity
  8
AM_VIS
100
AcDbLine
 10
199.7314711879955
 20
57.25
 30
-179.8317238765535
 11
199.7314711879955
 21
62.74999999999999
 31
-179.8317238765535
  0
LINE
  5
1A83
330
532
100
AcDbEntity
  8
AM_VIS
100
AcDbLine
 10
198.1314711879955
 20
62.74999999999999
 30
-179.8317238765535
 11
198.1314711879955
 21
57.25
 31
-179.8317238765535
  0
LINE
  5
1A84
330
532
100
AcDbEntity
  8
AM_VIS
100
AcDbLine
 10
197.9314711879954
 20
57.44999999999999
 30
-179.8317238765535
 11
197.9314711879954
 21
62.54999999999999
 31
-179.8317238765535
  0
LINE
  5
1A85
330
532
100
AcDbEntity
  8
AM_VIS
100
AcDbLine
 10
195.9314711879954
 20
57.59999999999999
 30
-179.8317238765535
 11
195.9314711879954
 21
62.39999999999998
 31
-179.8317238765535
  0
SPLINE
  5
1A86
330
532
100
AcDbEntity
  8
AM_VIS
100
AcDbSpline
210
0.0
220
-0.0000000000000114
230
1.0
 70
    12
 71
     2
 72
     6
 73
     3
 74
     0
 42
0.0000000001
 43
0.0000000001
 40
2.828260686890516
 40
2.828260686890516
 40
2.828260686890516
 40
7.31340255605604
 40
7.31340255605604
 40
7.31340255605604
 10
195.6504451673839
 20
57.5
 30
-179.8317238765535
 41
1.466561103835292
 10
196.0671118340505
 20
58.75000000000004
 30
-179.8317238765535
 41
1.69343889616471
 10
195.6504451673839
 20
60.0
 30
-179.8317238765534
 41
1.466561103835292
  0
LINE
  5
1A87
330
532
100
AcDbEntity
  8
AM_VIS
100
AcDbLine
 10
204.6814711879954
 20
57.5
 30
-179.8317238765535
 11
200.0314711879954
 21
57.5
 31
-179.8317238765535
  0
LINE
  5
1A88
330
532
100
AcDbEntity
  8
AM_VIS
100
AcDbLine
 10
199.9314711879954
 20
57.44999999999999
 30
-179.8317238765535
 11
199.7314711879955
 21
57.25
 31
-179.8317238765535
  0
LINE
  5
1A89
330
532
100
AcDbEntity
  8
AM_VIS
100
AcDbLine
 10
196.9314711879954
 20
58.02499999999998
 30
-179.8317238765535
 11
195.9314711879954
 21
58.02499999999998
 31
-179.8317238765535
  0
LINE
  5
1A8A
330
532
100
AcDbEntity
  8
AM_VIS
100
AcDbLine
 10
197.9314711879954
 20
58.0
 30
-179.8317238765535
 11
196.9314711879954
 21
58.0
 31
-179.8317238765535
  0
LINE
  5
1A8B
330
532
100
AcDbEntity
  8
AM_VIS
100
AcDbLine
 10
199.7314711879955
 20
57.25
 30
-179.8317238765535
 11
198.1314711879955
 21
57.25
 31
-179.8317238765535
  0
LINE
  5
1A8C
330
532
100
AcDbEntity
  8
AM_VIS
100
AcDbLine
 10
197.9314711879954
 20
57.44999999999999
 30
-179.8317238765535
 11
198.1314711879955
 21
57.25
 31
-179.8317238765535
  0
LINE
  5
1A8D
330
532
100
AcDbEntity
  8
AM_VIS
100
AcDbLine
 10
195.9314711879954
 20
57.59999999999999
 30
-179.8317238765535
 11
195.8737361610765
 21
57.5
 31
-179.8317238765535
  0
LINE
  5
1A8E
330
532
100
AcDbEntity
  8
AM_VIS
100
AcDbLine
 10
195.6504451673839
 20
57.5
 30
-179.8317238765535
 11
195.8737361610765
 21
57.5
 31
-179.8317238765535
  0
LINE
  5
1A8F
330
532
100
AcDbEntity
  8
AM_VIS
100
AcDbLine
 10
199.9314711879954
 20
57.59999999999999
 30
-179.8317238765535
 11
200.0314711879954
 21
57.5
 31
-179.8317238765535
  0
ARC
  5
1A90
330
532
100
AcDbEntity
  8
AM_VIS
100
AcDbCircle
 10
204.9320031043546
 20
55.00241634348981
 30
-179.8317238765535
 40
2.510115768910522
100
AcDbArc
 50
90.01214149997293
 51
95.72816252702912
  0
ARC
  5
1A91
330
532
100
AcDbEntity
  8
AM_VIS
100
AcDbCircle
 10
204.9309392716362
 20
55.00241634348819
 30
-179.8317238765535
 40
2.510115768912126
100
AcDbArc
 50
84.27183747296998
 51
89.98785850002299
  0
LINE
  5
1A92
330
532
100
AcDbEntity
  8
AM_VIS
100
AcDbLine
 10
199.9314711879954
 20
62.55000000000001
 30
-179.8317238765535
 11
199.7314711879955
 21
62.74999999999999
 31
-179.8317238765535
  0
LINE
  5
1A93
330
532
100
AcDbEntity
  8
AM_VIS
100
AcDbLine
 10
199.7314711879955
 20
62.74999999999999
 30
-179.8317238765535
 11
198.1314711879955
 21
62.74999999999999
 31
-179.8317238765535
  0
LINE
  5
1A94
330
532
100
AcDbEntity
  8
AM_VIS
100
AcDbLine
 10
197.9314711879954
 20
62.55000000000001
 30
-179.8317238765535
 11
198.1314711879955
 21
62.74999999999999
 31
-179.8317238765535
  0
LINE
  5
1A95
330
532
100
AcDbEntity
  8
AM_VIS
100
AcDbLine
 10
196.9314711879954
 20
61.97499999999999
 30
-179.8317238765535
 11
195.9314711879954
 21
61.97499999999999
 31
-179.8317238765535
  0
LINE
  5
1A96
330
532
100
AcDbEntity
  8
AM_VIS
100
AcDbLine
 10
197.9314711879954
 20
62.0
 30
-179.8317238765535
 11
196.9314711879954
 21
62.0
 31
-179.8317238765535
  0
LINE
  5
1A97
330
532
100
AcDbEntity
  8
AM_VIS
100
AcDbLine
 10
195.9314711879954
 20
62.40000000000001
 30
-179.8317238765535
 11
195.8737361610765
 21
62.5
 31
-179.8317238765535
  0
SPLINE
  5
1A98
330
532
100
AcDbEntity
  8
AM_VIS
100
AcDbSpline
210
0.0
220
0.0
230
1.0
 70
    12
 71
     2
 72
     6
 73
     3
 74
     0
 42
0.0000000001
 43
0.0000000001
 40
2.828260686890536
 40
2.828260686890536
 40
2.828260686890536
 40
7.31340255605605
 40
7.31340255605605
 40
7.31340255605605
 10
195.6504451673838
 20
60.0
 30
-179.8317238765535
 41
1.466561103835291
 10
196.0671118340505
 20
61.25
 30
-179.8317238765535
 41
1.693438896164703
 10
195.6504451673839
 20
62.5
 30
-179.8317238765535
 41
1.466561103835287
  0
LINE
  5
1A99
330
532
100
AcDbEntity
  8
AM_VIS
100
AcDbLine
 10
195.6504451673839
 20
62.5
 30
-179.8317238765535
 11
195.8737361610765
 21
62.5
 31
-179.8317238765535
  0
LINE
  5
1A9A
330
532
100
AcDbEntity
  8
AM_VIS
100
AcDbLine
 10
199.9314711879954
 20
62.39999999999998
 30
-179.8317238765535
 11
200.0314711879954
 21
62.5
 31
-179.8317238765535
  0
DIMENSION
  5
1A9B
330
532
100
AcDbEntity
  8
AM_REFDIM
100
AcDbDimension
  2
*D32
 10
257.419878246692
 20
58.30000000000001
 30
-179.8317238765535
 11
254.919878246692
 21
46.72857142857148
 31
-179.8317238765535
 70
    32
  1
{\f????|b0|i0|c0|p54;%%c3.4}
  3
STANDARD
100
AcDbAlignedDimension
 13
249.7314711879954
 23
61.69999999999999
 33
-179.8317238765535
 14
249.7314711879955
 24
58.30000000000001
 34
-179.8317238765535
 50
90.0
100
AcDbRotatedDimension
  0
DIMENSION
  5
1A9C
330
532
100
AcDbEntity
  8
AM_REFDIM
100
AcDbDimension
  2
*D31
 10
263.1705475775995
 20
57.5
 30
-179.8317238765535
 11
260.6705475775995
 21
48.14285714285718
 31
-179.8317238765535
 70
    32
  1
{\f????|b0|i0|c0|p54;%%C5}
  3
STANDARD
100
AcDbAlignedDimension
 13
244.2314711879954
 23
62.5
 33
-179.8317238765535
 14
244.2314711879954
 24
57.5
 34
-179.8317238765535
 50
90.0
100
AcDbRotatedDimension
  0
LINE
  5
1A9D
330
532
100
AcDbEntity
  8
AM_VIS
100
AcDbLine
 10
249.3314711879954
 20
61.69999999999999
 30
-179.8317238765535
 11
249.3314711879954
 21
58.29999999999998
 31
-179.8317238765535
  0
LINE
  5
1A9E
330
532
100
AcDbEntity
  8
AM_VIS
100
AcDbLine
 10
249.7314711879954
 20
61.69999999999999
 30
-179.8317238765535
 11
249.7314711879954
 21
58.29999999999998
 31
-179.8317238765535
  0
LINE
  5
1A9F
330
532
100
AcDbEntity
  8
AM_VIS
100
AcDbLine
 10
250.9314711879954
 20
61.14999999999998
 30
-179.8317238765535
 11
250.9314711879954
 21
58.84999999999999
 31
-179.8317238765535
  0
LINE
  5
1AA0
330
532
100
AcDbEntity
  8
AM_VIS
100
AcDbLine
 10
251.7314711879954
 20
58.84999999999999
 30
-179.8317238765535
 11
251.7314711879954
 21
61.15000000000001
 31
-179.8317238765535
  0
LINE
  5
1AA1
330
532
100
AcDbEntity
  8
AM_VIS
100
AcDbLine
 10
251.9314711879954
 20
60.94999999999998
 30
-179.8317238765535
 11
251.9314711879954
 21
59.04999999999998
 31
-179.8317238765535
  0
LINE
  5
1AA2
330
532
100
AcDbEntity
  8
AM_VIS
100
AcDbLine
 10
244.2314711879954
 20
57.5
 30
-179.8317238765535
 11
244.2314711879954
 21
62.5
 31
-179.8317238765535
  0
LINE
  5
1AA3
330
532
100
AcDbEntity
  8
AM_VIS
100
AcDbLine
 10
244.4314711879954
 20
62.30000000000001
 30
-179.8317238765535
 11
244.4314711879954
 21
57.69999999999999
 31
-179.8317238765535
  0
LINE
  5
1AA4
330
532
100
AcDbEntity
  8
AM_VIS
100
AcDbLine
 10
246.3314711879954
 20
61.14999999999998
 30
-179.8317238765535
 11
246.3314711879954
 21
58.84999999999999
 31
-179.8317238765535
  0
LINE
  5
1AA5
330
532
100
AcDbEntity
  8
AM_VIS
100
AcDbLine
 10
245.3314711879954
 20
61.69999999999999
 30
-179.8317238765535
 11
245.3314711879954
 21
58.29999999999998
 31
-179.8317238765535
  0
LINE
  5
1AA6
330
532
100
AcDbEntity
  8
AM_VIS
100
AcDbLine
 10
249.3314711879954
 20
58.84999999999999
 30
-179.8317238765535
 11
246.3314711879954
 21
58.84999999999999
 31
-179.8317238765535
  0
LINE
  5
1AA7
330
532
100
AcDbEntity
  8
AM_VIS
100
AcDbLine
 10
244.4314711879954
 20
57.69999999999999
 30
-179.8317238765535
 11
244.2314711879954
 21
57.5
 31
-179.8317238765535
  0
LINE
  5
1AA8
330
532
100
AcDbEntity
  8
AM_VIS
100
AcDbLine
 10
246.3314711879954
 20
58.84999999999999
 30
-179.8317238765535
 11
245.3314711879954
 21
58.30000000000001
 31
-179.8317238765535
  0
LINE
  5
1AA9
330
532
100
AcDbEntity
  8
AM_VIS
100
AcDbLine
 10
245.3314711879954
 20
58.30000000000001
 30
-179.8317238765535
 11
244.4314711879954
 21
58.30000000000001
 31
-179.8317238765535
  0
LINE
  5
1AAA
330
532
100
AcDbEntity
  8
AM_VIS
100
AcDbLine
 10
249.7314711879954
 20
58.30000000000001
 30
-179.8317238765535
 11
249.3314711879954
 21
58.30000000000001
 31
-179.8317238765535
  0
LINE
  5
1AAB
330
532
100
AcDbEntity
  8
AM_VIS
100
AcDbLine
 10
250.9314711879954
 20
58.84999999999999
 30
-179.8317238765535
 11
249.7314711879955
 21
58.30000000000001
 31
-179.8317238765535
  0
LINE
  5
1AAC
330
532
100
AcDbEntity
  8
AM_VIS
100
AcDbLine
 10
251.7314711879954
 20
58.84999999999999
 30
-179.8317238765535
 11
250.9314711879954
 21
58.84999999999999
 31
-179.8317238765535
  0
LINE
  5
1AAD
330
532
100
AcDbEntity
  8
AM_VIS
100
AcDbLine
 10
251.9314711879954
 20
59.04999999999998
 30
-179.8317238765535
 11
251.7314711879954
 21
58.84999999999999
 31
-179.8317238765535
  0
LINE
  5
1AAE
330
532
100
AcDbEntity
  8
AM_VIS
100
AcDbLine
 10
249.3314711879954
 20
61.14999999999998
 30
-179.8317238765535
 11
246.3314711879954
 21
61.14999999999998
 31
-179.8317238765535
  0
LINE
  5
1AAF
330
532
100
AcDbEntity
  8
AM_VIS
100
AcDbLine
 10
244.4314711879954
 20
62.29999999999998
 30
-179.8317238765535
 11
244.2314711879954
 21
62.5
 31
-179.8317238765535
  0
LINE
  5
1AB0
330
532
100
AcDbEntity
  8
AM_VIS
100
AcDbLine
 10
246.3314711879954
 20
61.14999999999998
 30
-179.8317238765535
 11
245.3314711879954
 21
61.69999999999999
 31
-179.8317238765535
  0
LINE
  5
1AB1
330
532
100
AcDbEntity
  8
AM_VIS
100
AcDbLine
 10
245.3314711879954
 20
61.69999999999999
 30
-179.8317238765535
 11
244.4314711879954
 21
61.69999999999999
 31
-179.8317238765535
  0
LINE
  5
1AB2
330
532
100
AcDbEntity
  8
AM_VIS
100
AcDbLine
 10
249.7314711879954
 20
61.69999999999999
 30
-179.8317238765535
 11
249.3314711879954
 21
61.69999999999999
 31
-179.8317238765535
  0
LINE
  5
1AB3
330
532
100
AcDbEntity
  8
AM_VIS
100
AcDbLine
 10
250.9314711879954
 20
61.14999999999998
 30
-179.8317238765535
 11
249.7314711879954
 21
61.69999999999999
 31
-179.8317238765535
  0
LINE
  5
1AB4
330
532
100
AcDbEntity
  8
AM_VIS
100
AcDbLine
 10
251.7314711879954
 20
61.14999999999998
 30
-179.8317238765535
 11
250.9314711879954
 21
61.14999999999998
 31
-179.8317238765535
  0
LINE
  5
1AB5
330
532
100
AcDbEntity
  8
AM_VIS
100
AcDbLine
 10
251.9314711879954
 20
60.94999999999998
 30
-179.8317238765535
 11
251.7314711879954
 21
61.14999999999998
 31
-179.8317238765535
  0
CIRCLE
  5
1AB6
330
532
100
AcDbEntity
  8
AM_VIS
100
AcDbCircle
 10
270.0300465946771
 20
60.0
 30
-179.8317238765535
 40
2.549999999999999
  0
CIRCLE
  5
1AB7
330
532
100
AcDbEntity
  8
AM_VIS
100
AcDbCircle
 10
270.0300465946771
 20
60.0
 30
-179.8317238765535
 40
2.75
  0
CIRCLE
  5
1AB8
330
532
100
AcDbEntity
  8
AM_VIS
100
AcDbCircle
 10
270.0300465946771
 20
60.0
 30
-179.8317238765535
 40
2.5
  0
CIRCLE
  5
1AB9
330
532
100
AcDbEntity
  8
AM_VIS
100
AcDbCircle
 10
270.0300465946771
 20
60.0
 30
-179.8317238765535
 40
2.299999999999999
  0
CIRCLE
  5
1ABA
330
532
100
AcDbEntity
  8
AM_VIS
100
AcDbCircle
 10
270.0300465946771
 20
60.0
 30
-179.8317238765535
 40
1.7
  0
LINE
  5
1ABB
330
532
100
AcDbEntity
  8
AM_7
100
AcDbLine
 10
270.0300465946771
 20
59.0
 30
-179.8317238765535
 11
270.0300465946771
 21
61.0
 31
-179.8317238765535
  0
CIRCLE
  5
1ABC
330
532
100
AcDbEntity
  8
AM_VIS
100
AcDbCircle
 10
270.0300465946771
 20
60.0
 30
-179.8317238765535
 40
0.9500000000000014
  0
CIRCLE
  5
1ABD
330
532
100
AcDbEntity
  8
AM_VIS
100
AcDbCircle
 10
270.0300465946771
 20
60.0
 30
-179.8317238765535
 40
1.150000000000001
  0
LINE
  5
1ABE
330
532
100
AcDbEntity
  8
AM_VIS
100
AcDbLine
 10
268.4378050470856
 20
57.75784325835076
 30
-179.8317238765535
 11
268.5866709217031
 21
57.5
 31
-179.8317238765535
  0
LINE
  5
1ABF
330
532
100
AcDbEntity
  8
AM_7
100
AcDbLine
 10
270.0300465946771
 20
54.5
 30
-179.8317238765535
 11
270.0300465946771
 21
58.19999999999999
 31
-179.8317238765535
  0
LINE
  5
1AC0
330
532
100
AcDbEntity
  8
AM_VIS
100
AcDbLine
 10
268.5866709217031
 20
57.5
 30
-179.8317238765535
 11
268.8844026709382
 21
57.5
 31
-179.8317238765535
  0
LINE
  5
1AC1
330
532
100
AcDbEntity
  8
AM_VIS
100
AcDbLine
 10
271.4734222676512
 20
57.5
 30
-179.8317238765535
 11
271.6222881422688
 21
57.75784325835079
 31
-179.8317238765535
  0
LINE
  5
1AC2
330
532
100
AcDbEntity
  8
AM_VIS
100
AcDbLine
 10
271.1756905184161
 20
57.5
 30
-179.8317238765535
 11
271.4734222676512
 21
57.5
 31
-179.8317238765535
  0
LINE
  5
1AC3
330
532
100
AcDbEntity
  8
AM_7
100
AcDbLine
 10
264.5300465946771
 20
60.0
 30
-179.8317238765535
 11
268.2300465946772
 21
60.0
 31
-179.8317238765535
  0
LINE
  5
1AC4
330
532
100
AcDbEntity
  8
AM_7
100
AcDbLine
 10
270.0300465946771
 20
61.80000000000001
 30
-179.8317238765535
 11
270.0300465946771
 21
65.5
 31
-179.8317238765535
  0
LINE
  5
1AC5
330
532
100
AcDbEntity
  8
AM_VIS
100
AcDbLine
 10
267.143295248729
 20
60.0
 30
-179.8317238765535
 11
267.2921611233466
 21
60.25784325835079
 31
-179.8317238765535
  0
LINE
  5
1AC6
330
532
100
AcDbEntity
  8
AM_VIS
100
AcDbLine
 10
267.143295248729
 20
60.0
 30
-179.8317238765535
 11
267.2921611233466
 21
59.74215674164921
 31
-179.8317238765535
  0
LINE
  5
1AC7
330
532
100
AcDbEntity
  8
AM_VIS
100
AcDbLine
 10
268.4378050470856
 20
62.24215674164921
 30
-179.8317238765535
 11
268.5866709217031
 21
62.5
 31
-179.8317238765535
  0
LINE
  5
1AC8
330
532
100
AcDbEntity
  8
AM_VIS
100
AcDbLine
 10
268.5866709217031
 20
62.5
 30
-179.8317238765535
 11
268.8844026709382
 21
62.5
 31
-179.8317238765535
  0
CIRCLE
  5
1AC9
330
532
100
AcDbEntity
  8
AM_VIS
100
AcDbCircle
 10
270.0300465946771
 20
60.0
 30
-179.8317238765535
 40
0.5
  0
CIRCLE
  5
1ACA
330
532
100
AcDbEntity
  8
AM_VIS
100
AcDbCircle
 10
270.0300465946771
 20
60.0
 30
-179.8317238765535
 40
0.6
  0
LINE
  5
1ACB
330
532
100
AcDbEntity
  8
AM_7
100
AcDbLine
 10
269.0300465946771
 20
60.0
 30
-179.8317238765535
 11
271.0300465946771
 21
60.0
 31
-179.8317238765535
  0
LINE
  5
1ACC
330
532
100
AcDbEntity
  8
AM_VIS
100
AcDbLine
 10
271.4734222676512
 20
62.5
 30
-179.8317238765535
 11
271.6222881422688
 21
62.24215674164918
 31
-179.8317238765535
  0
LINE
  5
1ACD
330
532
100
AcDbEntity
  8
AM_VIS
100
AcDbLine
 10
271.1756905184161
 20
62.5
 30
-179.8317238765535
 11
271.4734222676512
 21
62.5
 31
-179.8317238765535
  0
LINE
  5
1ACE
330
532
100
AcDbEntity
  8
AM_VIS
100
AcDbLine
 10
272.7679320660078
 20
59.74215674164921
 30
-179.8317238765535
 11
272.9167979406253
 21
60.0
 31
-179.8317238765535
  0
LINE
  5
1ACF
330
532
100
AcDbEntity
  8
AM_VIS
100
AcDbLine
 10
272.7679320660078
 20
60.25784325835082
 30
-179.8317238765535
 11
272.9167979406253
 21
60.0
 31
-179.8317238765535
  0
TEXT
  5
1AD0
330
532
100
AcDbEntity
  8
AM_REFDIM
100
AcDbText
 10
213.364972058323
 20
73.88815931548771
 30
-179.8317238765535
 40
2.5
  1
M4x0.7
100
AcDbText
  0
DIMENSION
  5
1BE4
330
532
100
AcDbEntity
  8
AM_REFDIM
100
AcDbDimension
  2
*D40
 10
244.4314711879954
 20
35.44651191079623
 30
-179.8317238765535
 11
221.1814711879954
 21
37.94651191079623
 31
-179.8317238765535
 70
    32
  3
STANDARD
100
AcDbAlignedDimension
 13
197.9314711879954
 23
57.44999999999999
 33
-179.8317238765535
 14
244.4314711879954
 24
57.69999999999999
 34
-179.8317238765535
100
AcDbRotatedDimension
  0
DIMENSION
  5
1BF1
330
532
100
AcDbEntity
  8
AM_REFDIM
100
AcDbDimension
  2
*D41
 10
84.7252168390271
 20
135.7475176034778
 30
-179.8317238765535
 11
64.72521683902711
 21
138.2475176034778
 31
-179.8317238765535
 70
    32
  3
STANDARD
100
AcDbAlignedDimension
 13
44.72521683902712
 23
168.8220815248401
 33
-179.8317238765535
 14
84.7252168390271
 24
168.6220815248401
 34
-179.8317238765535
100
AcDbRotatedDimension
  0
DIMENSION
  5
1BFE
330
532
100
AcDbEntity
  8
AM_REFDIM
100
AcDbDimension
  2
*D42
 10
243.9314711879954
 20
138.6539056708285
 30
-179.8317238765535
 11
219.4314711879954
 21
141.1539056708285
 31
-179.8317238765535
 70
    32
  3
STANDARD
100
AcDbAlignedDimension
 13
194.9314711879955
 23
169.25
 33
-179.8317238765535
 14
243.9314711879954
 24
169.0499999999999
 34
-179.8317238765535
100
AcDbRotatedDimension
  0
DIMENSION
  5
1C0B
330
532
100
AcDbEntity
  8
AM_REFDIM
100
AcDbDimension
  2
*D43
 10
92.9314711879955
 20
28.02659713196232
 30
-179.8317238765535
 11
63.9314711879955
 21
30.52659713196232
 31
-179.8317238765535
 70
    32
  3
STANDARD
100
AcDbAlignedDimension
 13
34.9314711879955
 23
59.25
 33
-179.8317238765535
 14
92.9314711879955
 24
59.04999999999998
 34
-179.8317238765535
100
AcDbRotatedDimension
  0
DIMENSION
  5
1C18
330
532
100
AcDbEntity
  8
AM_REFDIM
100
AcDbDimension
  2
*D44
 10
251.9314711879954
 20
29.19532457629611
 30
-179.8317238765535
 11
218.4314711879955
 21
31.69532457629611
 31
-179.8317238765535
 70
    32
  3
STANDARD
100
AcDbAlignedDimension
 13
184.9314711879955
 23
59.25
 33
-179.8317238765535
 14
251.9314711879954
 24
59.04999999999998
 34
-179.8317238765535
100
AcDbRotatedDimension
  0
LINE
  5
2608
330
532
100
AcDbEntity
  8
0
 62
     6
100
AcDbLine
 10
0.0
 20
110.0
 30
-179.8317238765535
 11
290.0
 21
110.0
 31
-179.8317238765535
  0
LINE
  5
2609
330
532
100
AcDbEntity
  8
0
 62
     6
100
AcDbLine
 10
290.0
 20
110.0
 30
-179.8317238765535
 11
290.0
 21
0.0
 31
-179.8317238765535
  0
LINE
  5
260A
330
532
100
AcDbEntity
  8
0
 62
     6
100
AcDbLine
 10
290.0
 20
0.0
 30
-179.8317238765535
 11
0.0
 21
0.0
 31
-179.8317238765535
  0
LINE
  5
260B
330
532
100
AcDbEntity
  8
0
 62
     6
100
AcDbLine
 10
0.0
 20
0.0
 30
-179.8317238765535
 11
0.0000000000000061
 21
210.0
 31
-179.8317238765535
  0
LINE
  5
260C
330
532
100
AcDbEntity
  8
0
 62
     6
100
AcDbLine
 10
0.0000000000000061
 20
210.0
 30
-179.8317238765535
 11
290.0
 21
210.0
 31
-179.8317238765535
  0
LINE
  5
260D
330
532
100
AcDbEntity
  8
0
 62
     6
100
AcDbLine
 10
290.0
 20
210.0
 30
-179.8317238765535
 11
290.0
 21
110.0
 31
-179.8317238765535
  0
LINE
  5
260E
330
532
100
AcDbEntity
  8
0
 62
     6
100
AcDbLine
 10
140.0
 20
210.0
 30
-179.8317238765535
 11
140.0
 21
0.0
 31
-179.8317238765535
  0
TEXT
  5
2610
330
532
100
AcDbEntity
  8
0
 62
     6
100
AcDbText
 10
5.509339373358926
 20
198.2407682660773
 30
-179.8317238765535
 40
5.0
  1
MCMJ1-15-4-5
100
AcDbText
  0
TEXT
  5
2611
330
532
100
AcDbEntity
  8
0
 62
     6
100
AcDbText
 10
145.5566199621693
 20
197.7392399755376
 30
-179.8317238765535
 40
5.0
  1
MCMJ1-15-4-10
100
AcDbText
  0
TEXT
  5
2612
330
532
100
AcDbEntity
  8
0
 62
     6
100
AcDbText
 10
7.01522394262534
 20
97.93509468083039
 30
-179.8317238765535
 40
5.0
  1
MCMJ1-15-4-15
100
AcDbText
  0
TEXT
  5
2613
330
532
100
AcDbEntity
  8
0
 62
     6
100
AcDbText
 10
145.5566199621693
 20
98.93815126190965
 30
-179.8317238765535
 40
5.0
  1
MCMJ1-15-4-20
100
AcDbText
  0
ENDSEC
  0
SECTION
  2
OBJECTS
  0
DICTIONARY
  5
520
330
0
100
AcDbDictionary
  3
ACAD_GROUP
350
521
  3
ACAD_LAYOUT
350
52D
  3
ACAD_MLINESTYLE
350
52A
  3
ACAD_PLOTSETTINGS
350
52C
1001
ACAD
1000
TREAT_AS_HARD
1070
     0
  0
DICTIONARY
  5
F19
330
532
100
AcDbDictionary
  3
ACAD_LAYOUTSELFREF
350
29BD
1001
ACAD
1000
TREAT_AS_HARD
1070
     1
  0
DICTIONARY
  5
F1B
330
52E
100
AcDbDictionary
  3
ACAD_LAYOUTSELFREF
350
29BC
1001
ACAD
1000
TREAT_AS_HARD
1070
     1
  0
DICTIONARY
  5
521
102
{ACAD_REACTORS
330
520
102
}
330
520
100
AcDbDictionary
1001
ACAD
1000
TREAT_AS_HARD
1070
     0
  0
DICTIONARY
  5
52D
102
{ACAD_REACTORS
330
520
102
}
330
520
100
AcDbDictionary
1001
ACAD
1000
TREAT_AS_HARD
1070
     0
  0
DICTIONARY
  5
52A
102
{ACAD_REACTORS
330
520
102
}
330
520
100
AcDbDictionary
  3
STANDARD
350
52B
1001
ACAD
1000
TREAT_AS_HARD
1070
     0
  0
DICTIONARY
  5
52C
102
{ACAD_REACTORS
330
520
102
}
330
520
100
AcDbDictionary
1001
ACAD
1000
TREAT_AS_HARD
1070
     0
  0
XRECORD
  5
29BD
102
{ACAD_REACTORS
330
F19
102
}
330
F19
100
AcDbXrecord
340
532
  0
XRECORD
  5
29BC
102
{ACAD_REACTORS
330
F1B
102
}
330
F1B
100
AcDbXrecord
340
52E
  0
MLINESTYLE
  5
52B
102
{ACAD_REACTORS
330
52A
102
}
330
52A
100
AcDbMlineStyle
  2
STANDARD
 70
     0
  3

 62
   256
 51
90.0
 52
90.0
 71
     2
 49
0.5
 62
   256
  6
BYLAYER
 49
-0.5
 62
   256
  6
BYLAYER
  0
ENDSEC
  0
EOF
