  0
SECTION
  2
HEADER
  9
$ACADVER
  1
AC1015
  9
$ACADMAINTVER
 70
    20
  9
$DWGCODEPAGE
  3
ANSI_950
  9
$INSBASE
 10
0.0
 20
0.0
 30
0.0
  9
$EXTMIN
 10
36.06869136336241
 20
32.15109986159959
 30
-0.0000000000000036
  9
$EXTMAX
 10
338.5686913633624
 20
252.1510998615995
 30
144.1634983360548
  9
$LIMMIN
 10
0.0
 20
0.0
  9
$LIMMAX
 10
420.0
 20
297.0
  9
$ORTHOMODE
 70
     0
  9
$REGENMODE
 70
     1
  9
$FILLMODE
 70
     1
  9
$QTEXTMODE
 70
     0
  9
$MIRRTEXT
 70
     1
  9
$LTSCALE
 40
1.0
  9
$ATTMODE
 70
     1
  9
$TEXTSIZE
 40
3.0
  9
$TRACEWID
 40
1.0
  9
$TEXTSTYLE
  7
STANDARD
  9
$CLAYER
  8
0
  9
$CELTYPE
  6
ByLayer
  9
$CECOLOR
 62
   256
  9
$CELTSCALE
 40
1.0
  9
$DISPSILH
 70
     0
  9
$DIMSCALE
 40
1.0
  9
$DIMASZ
 40
3.0
  9
$DIMEXO
 40
1.0
  9
$DIMDLI
 40
8.0
  9
$DIMRND
 40
0.0
  9
$DIMDLE
 40
0.0
  9
$DIMEXE
 40
1.5
  9
$DIMTP
 40
0.1
  9
$DIMTM
 40
0.1
  9
$DIMTXT
 40
3.5
  9
$DIMCEN
 40
0.0
  9
$DIMTSZ
 40
0.0
  9
$DIMTOL
 70
     0
  9
$DIMLIM
 70
     0
  9
$DIMTIH
 70
     0
  9
$DIMTOH
 70
     0
  9
$DIMSE1
 70
     0
  9
$DIMSE2
 70
     0
  9
$DIMTAD
 70
     1
  9
$DIMZIN
 70
     8
  9
$DIMBLK
  1

  9
$DIMASO
 70
     1
  9
$DIMSHO
 70
     1
  9
$DIMPOST
  1

  9
$DIMAPOST
  1
"
  9
$DIMALT
 70
     0
  9
$DIMALTD
 70
     2
  9
$DIMALTF
 40
0.0393701
  9
$DIMLFAC
 40
1.0
  9
$DIMTOFL
 70
     1
  9
$DIMTVP
 40
0.0
  9
$DIMTIX
 70
     0
  9
$DIMSOXD
 70
     0
  9
$DIMSAH
 70
     0
  9
$DIMBLK1
  1

  9
$DIMBLK2
  1

  9
$DIMSTYLE
  2
AM_ISO
  9
$DIMCLRD
 70
   256
  9
$DIMCLRE
 70
   256
  9
$DIMCLRT
 70
   256
  9
$DIMTFAC
 40
0.6
  9
$DIMGAP
 40
0.7
  9
$DIMJUST
 70
     0
  9
$DIMSD1
 70
     0
  9
$DIMSD2
 70
     0
  9
$DIMTOLJ
 70
     0
  9
$DIMTZIN
 70
     8
  9
$DIMALTZ
 70
     0
  9
$DIMALTTZ
 70
     0
  9
$DIMUPT
 70
     0
  9
$DIMDEC
 70
     2
  9
$DIMTDEC
 70
     8
  9
$DIMALTU
 70
     2
  9
$DIMALTTD
 70
     2
  9
$DIMTXSTY
  7
STANDARD
  9
$DIMAUNIT
 70
     0
  9
$DIMADEC
 70
     0
  9
$DIMALTRND
 40
0.0
  9
$DIMAZIN
 70
     2
  9
$DIMDSEP
 70
    46
  9
$DIMATFIT
 70
     3
  9
$DIMFRAC
 70
     0
  9
$DIMLDRBLK
  1

  9
$DIMLUNIT
 70
     2
  9
$DIMLWD
 70
    -1
  9
$DIMLWE
 70
    -1
  9
$DIMTMOVE
 70
     0
  9
$LUNITS
 70
     2
  9
$LUPREC
 70
     2
  9
$SKETCHINC
 40
1.0
  9
$FILLETRAD
 40
2.5
  9
$AUNITS
 70
     0
  9
$AUPREC
 70
     0
  9
$MENU
  1
.
  9
$ELEVATION
 40
0.0
  9
$PELEVATION
 40
0.0
  9
$THICKNESS
 40
0.0
  9
$LIMCHECK
 70
     0
  9
$CHAMFERA
 40
2.5
  9
$CHAMFERB
 40
2.5
  9
$CHAMFERC
 40
20.0
  9
$CHAMFERD
 40
0.0
  9
$SKPOLY
 70
     0
  9
$TDCREATE
 40
2454111.693551250
  9
$TDUCREATE
 40
2454111.360217917
  9
$TDUPDATE
 40
2456013.401180914
  9
$TDUUPDATE
 40
2456013.067847581
  9
$TDINDWG
 40
0.3921468056
  9
$TDUSRTIMER
 40
0.3921468056
  9
$USRTIMER
 70
     1
  9
$ANGBASE
 50
0.0
  9
$ANGDIR
 70
     0
  9
$PDMODE
 70
     0
  9
$PDSIZE
 40
0.0
  9
$PLINEWID
 40
0.0
  9
$SPLFRAME
 70
     0
  9
$SPLINETYPE
 70
     6
  9
$SPLINESEGS
 70
     8
  9
$HANDSEED
  5
2391
  9
$SURFTAB1
 70
     6
  9
$SURFTAB2
 70
     6
  9
$SURFTYPE
 70
     6
  9
$SURFU
 70
     6
  9
$SURFV
 70
     6
  9
$UCSBASE
  2

  9
$UCSNAME
  2

  9
$UCSORG
 10
0.0
 20
0.0
 30
0.0
  9
$UCSXDIR
 10
1.0
 20
0.0
 30
0.0
  9
$UCSYDIR
 10
0.0
 20
1.0
 30
0.0
  9
$UCSORTHOREF
  2

  9
$UCSORTHOVIEW
 70
     0
  9
$UCSORGTOP
 10
0.0
 20
0.0
 30
0.0
  9
$UCSORGBOTTOM
 10
0.0
 20
0.0
 30
0.0
  9
$UCSORGLEFT
 10
0.0
 20
0.0
 30
0.0
  9
$UCSORGRIGHT
 10
0.0
 20
0.0
 30
0.0
  9
$UCSORGFRONT
 10
0.0
 20
0.0
 30
0.0
  9
$UCSORGBACK
 10
0.0
 20
0.0
 30
0.0
  9
$PUCSBASE
  2

  9
$PUCSNAME
  2

  9
$PUCSORG
 10
0.0
 20
0.0
 30
0.0
  9
$PUCSXDIR
 10
1.0
 20
0.0
 30
0.0
  9
$PUCSYDIR
 10
0.0
 20
1.0
 30
0.0
  9
$PUCSORTHOREF
  2

  9
$PUCSORTHOVIEW
 70
     0
  9
$PUCSORGTOP
 10
0.0
 20
0.0
 30
0.0
  9
$PUCSORGBOTTOM
 10
0.0
 20
0.0
 30
0.0
  9
$PUCSORGLEFT
 10
0.0
 20
0.0
 30
0.0
  9
$PUCSORGRIGHT
 10
0.0
 20
0.0
 30
0.0
  9
$PUCSORGFRONT
 10
0.0
 20
0.0
 30
0.0
  9
$PUCSORGBACK
 10
0.0
 20
0.0
 30
0.0
  9
$USERI1
 70
     0
  9
$USERI2
 70
     0
  9
$USERI3
 70
     0
  9
$USERI4
 70
     0
  9
$USERI5
 70
     0
  9
$USERR1
 40
0.0
  9
$USERR2
 40
0.0
  9
$USERR3
 40
0.0
  9
$USERR4
 40
0.0
  9
$USERR5
 40
0.0
  9
$WORLDVIEW
 70
     1
  9
$SHADEDGE
 70
     3
  9
$SHADEDIF
 70
    70
  9
$TILEMODE
 70
     1
  9
$MAXACTVP
 70
    64
  9
$PINSBASE
 10
0.0
 20
0.0
 30
0.0
  9
$PLIMCHECK
 70
     0
  9
$PEXTMIN
 10
1.000000000000000E+20
 20
1.000000000000000E+20
 30
1.000000000000000E+20
  9
$PEXTMAX
 10
-1.000000000000000E+20
 20
-1.000000000000000E+20
 30
-1.000000000000000E+20
  9
$PLIMMIN
 10
0.0
 20
0.0
  9
$PLIMMAX
 10
420.0
 20
297.0
  9
$UNITMODE
 70
     0
  9
$VISRETAIN
 70
     1
  9
$PLINEGEN
 70
     0
  9
$PSLTSCALE
 70
     1
  9
$TREEDEPTH
 70
  3020
  9
$CMLSTYLE
  2
Standard
  9
$CMLJUST
 70
     0
  9
$CMLSCALE
 40
20.0
  9
$PROXYGRAPHICS
 70
     1
  9
$MEASUREMENT
 70
     1
  9
$CELWEIGHT
370
    -1
  9
$ENDCAPS
280
     0
  9
$JOINSTYLE
280
     0
  9
$LWDISPLAY
290
     0
  9
$INSUNITS
 70
     4
  9
$HYPERLINKBASE
  1

  9
$STYLESHEET
  1
彩色出圖.ctb
  9
$XEDIT
290
     1
  9
$CEPSNTYPE
380
     0
  9
$PSTYLEMODE
290
     1
  9
$FINGERPRINTGUID
  2
{9C7769CB-C5EF-408F-B8E4-EFA57DEE5958}
  9
$VERSIONGUID
  2
{6857C9A3-4BD6-443D-A78A-C7B744B6EF2B}
  9
$EXTNAMES
290
     1
  9
$PSVPSCALE
 40
0.0
  9
$OLESTARTUP
290
     0
  0
ENDSEC
  0
SECTION
  2
CLASSES
  0
CLASS
  1
ACDBDICTIONARYWDFLT
  2
AcDbDictionaryWithDefault
  3
ObjectDBX Classes
 90
        0
280
     0
281
     0
  0
CLASS
  1
ACDBPLACEHOLDER
  2
AcDbPlaceHolder
  3
ObjectDBX Classes
 90
        0
280
     0
281
     0
  0
CLASS
  1
LAYOUT
  2
AcDbLayout
  3
ObjectDBX Classes
 90
        0
280
     0
281
     0
  0
CLASS
  1
ACME_DOCUMENT
  2
AcMeDbDoc
  3
AcMeServices
 90
        0
280
     0
281
     0
  0
CLASS
  1
AMGSETTINGSOBJ
  2
AmgSettingsObj
  3
"AcadM|Product Description: AutoCAD Mechanical 2000|Company: Autodesk"
 90
        0
280
     0
281
     0
  0
CLASS
  1
ACMESCOPE
  2
AcMeScope
  3
AcMeServices
 90
        0
280
     0
281
     0
  0
CLASS
  1
ACMECOMMANDHISTORY
  2
AcMeCommandHistory
  3
AcMeServices
 90
        0
280
     0
281
     0
  0
CLASS
  1
ACIMSYSVARMAN
  2
AcImSysVarManager
  3
AcMeServices
 90
        0
280
     0
281
     0
  0
CLASS
  1
ACIMREALSYSVAR
  2
AcImRealSysVar
  3
AcMeServices
 90
        0
280
     0
281
     0
  0
CLASS
  1
ACIMINTSYSVAR
  2
AcImIntSysVar
  3
AcMeServices
 90
        0
280
     0
281
     0
  0
CLASS
  1
ACMEDRAWINGMAN
  2
AcMeDrawingMan
  3
AcMeServices
 90
        0
280
     0
281
     0
  0
CLASS
  1
ACMEVIEW
  2
AcMeView
  3
AcMeServices
 90
        0
280
     0
281
     0
  0
CLASS
  1
ACDBENTITYCACHE
  2
AcMeEntityCache
  3
AcMeServices
 90
        0
280
     0
281
     0
  0
CLASS
  1
GSMANAGER
  2
AcMeGSManager
  3
AcMeServices
 90
        0
280
     0
281
     0
  0
CLASS
  1
AMDTINTERNALREACTOR
  2
AmdtInternalReactor
  3
AcMeServices
 90
        0
280
     0
281
     0
  0
CLASS
  1
ACMESTATEMGR
  2
AcMeStateMgr
  3
AcMeServices
 90
        0
280
     0
281
     0
  0
CLASS
  1
ACGREFMASTER
  2
AcGrefMaster
  3
AcAttribServices
 90
        0
280
     0
281
     0
  0
CLASS
  1
ACME_DATABASE
  2
AcMeDbDatabase
  3
AcMeServices
 90
        0
280
     0
281
     0
  0
CLASS
  1
ACRFINSADJUSTERMGR
  2
AcRfInsAdjusterMgr
  3
AcMeServices
 90
        0
280
     0
281
     0
  0
CLASS
  1
ACGREFACADMASTER
  2
AcGrefacadMaster
  3
AcGrefServices
 90
        0
280
     0
281
     0
  0
CLASS
  1
AMIMASTER
  2
AmiMaster
  3
AmiServices
 90
        0
280
     0
281
     0
  0
CLASS
  1
ACMDATADICTIONARY
  2
AcmDataDictionary
  3
"AcmSymBB|Product Description: AutoCAD Mechanical 2004 DX|Company: Autodesk"
 90
        0
280
     0
281
     0
  0
CLASS
  1
ACMDATAENTRYBLOCK
  2
AcmDataEntryBlock
  3
"AcmSymBB|Product Description: AutoCAD Mechanical 2004 DX|Company: Autodesk"
 90
    32768
280
     0
281
     0
  0
CLASS
  1
ACIMSTRSYSVAR
  2
AcImStrSysVar
  3
AcMeServices
 90
        0
280
     0
281
     0
  0
CLASS
  1
ACMSTANDARDISO
  2
AcmStandardISO
  3
"Amdt_StdImp|Product Description: AutoCAD Mechanical 2004 DX|Company: Autodesk"
 90
        0
280
     0
281
     0
  0
CLASS
  1
AMGOBJPROPCFG
  2
AmgObjPropCfg
  3
"AmgLay|Product Description: AutoCAD Mechanical 2000|Company: Autodesk"
 90
        1
280
     0
281
     0
  0
CLASS
  1
AMDTEDGESTANDARDISO
  2
AmdtEdgeStdISO
  3
"Amdt_StdImp|Product Description: AutoCAD Mechanical 2004 DX|Company: Autodesk"
 90
    32768
280
     0
281
     0
  0
CLASS
  1
ACMSURFSTANDARDISO
  2
AcmSurfTextStdISO
  3
"Amdt_StdImp|Product Description: AutoCAD Mechanical 2004 DX|Company: Autodesk"
 90
        0
280
     0
281
     0
  0
CLASS
  1
ACMFCFSTANDARDISO
  2
AcmFCFStdISO
  3
"Amdt_StdImp|Product Description: AutoCAD Mechanical 2004 DX|Company: Autodesk"
 90
        0
280
     0
281
     0
  0
CLASS
  1
ACMWELDSTANDARDISO
  2
AcmWeldingStdISO
  3
"Amdt_StdImp|Product Description: AutoCAD Mechanical 2004 DX|Company: Autodesk"
 90
        0
280
     0
281
     0
  0
CLASS
  1
ACMIDSTANDARDISO
  2
AcmIdStdISO
  3
"Amdt_StdImp|Product Description: AutoCAD Mechanical 2004 DX|Company: Autodesk"
 90
        0
280
     0
281
     0
  0
CLASS
  1
ACMDATUMSTANDARDISO
  2
AcmDatumStdISO
  3
"Amdt_StdImp|Product Description: AutoCAD Mechanical 2004 DX|Company: Autodesk"
 90
        0
280
     0
281
     0
  0
CLASS
  1
ACMBOMSTANDARDISO
  2
AcmBOMStdISO
  3
"Amdt_StdImp|Product Description: AutoCAD Mechanical 2004 DX|Company: Autodesk"
 90
        0
280
     0
281
     0
  0
CLASS
  1
ACMDETAILSTANDARDISO
  2
AmdtDetailSymStdISO
  3
"Amdt_StdImp|Product Description: AutoCAD Mechanical 2004 DX|Company: Autodesk"
 90
        0
280
     0
281
     0
  0
CLASS
  1
ACMSECTIONSTANDARDISO
  2
AmdtSectionSymStdISO
  3
"Amdt_StdImp|Product Description: AutoCAD Mechanical 2004 DX|Company: Autodesk"
 90
        0
280
     0
281
     0
  0
CLASS
  1
ACMCENTERLINESTANDARDISO
  2
AmdtCenterLineStdISO
  3
"Amdt_StdImp|Product Description: AutoCAD Mechanical 2004 DX|Company: Autodesk"
 90
        0
280
     0
281
     0
  0
CLASS
  1
ACMNOTESTANDARDISO
  2
AmdtNoteStdISO
  3
"Amdt_StdImp|Product Description: AutoCAD Mechanical 2004 DX|Company: Autodesk"
 90
        0
280
     0
281
     0
  0
CLASS
  1
ACAMGLAYSTD
  2
AcAmgLayStd
  3
"AcAmgLayStd|Product Description: AutoCAD Mechanical 2000|Company: Autodesk"
 90
        0
280
     0
281
     0
  0
CLASS
  1
ACAMGDIMSTD
  2
AcAmgDimStd
  3
"AcAmgDimStd|Product Description: AutoCAD Mechanical 2000|Company: Autodesk"
 90
        0
280
     0
281
     0
  0
CLASS
  1
ACAMGHOLECHARTSTDISO
  2
AcAmgHoleChartStdISO
  3
ACMSYMBB_MODULE_NAME
 90
        0
280
     0
281
     0
  0
CLASS
  1
ACAMGTITLESTD
  2
AcAmgTitleStd
  3
"TITLEAPP"
 90
        0
280
     0
281
     0
  0
CLASS
  1
LAYER_INDEX
  2
AcDbLayerIndex
  3
ObjectDBX Classes
 90
    32768
280
     0
281
     0
  0
CLASS
  1
IDBUFFER
  2
AcDbIdBuffer
  3
ObjectDBX Classes
 90
    32768
280
     0
281
     0
  0
CLASS
  1
DICTIONARYVAR
  2
AcDbDictionaryVar
  3
ObjectDBX Classes
 90
        0
280
     0
281
     0
  0
CLASS
  1
AM_DRAWING_MGR
  2
AcDmDwgMgr
  3
AcMechDwgViewMgmt
 90
        0
280
     0
281
     0
  0
CLASS
  1
AM_DWG_DOCUMENT
  2
AcDmDwgDocument
  3
AcMechDwgViewMgmt
 90
        0
280
     0
281
     0
  0
CLASS
  1
AM_DWG_SHEET
  2
AcDmSheet
  3
AcMechDwgViewMgmt
 90
        0
280
     0
281
     0
  0
CLASS
  1
AM_VIEWDIMPARMAP
  2
AcDmViewDimParMap
  3
AcMechDwgViewMgmt
 90
        0
280
     0
281
     0
  0
CLASS
  1
AM_DWGMGR_NAME
  2
AcDmDwgMgrName
  3
AcMechDwgViewMgmt
 90
        0
280
     0
281
     0
  0
CLASS
  1
AMDTMENUSTATEMGR
  2
AmdtMenuStateMgr
  3
McadcomServices
 90
        0
280
     0
281
     0
  0
CLASS
  1
AMDTMCOMMENUSTATE
  2
AmdtMcomMenuState
  3
McadcomServices
 90
        0
280
     0
281
     0
  0
CLASS
  1
MAPIAMMOUDLE
  2
MApiAmModule
  3
MApiAmServices
 90
        0
280
     0
281
     0
  0
CLASS
  1
AMDTADMENUSTATE
  2
AmdtAdMenuState
  3
DesignerServices
 90
        0
280
     0
281
     0
  0
CLASS
  1
ADAPPL
  2
AcAdAppl
  3
DesignerServices
 90
        0
280
     0
281
     0
  0
CLASS
  1
DEPMGR
  2
AcAdDepMgr
  3
DesignerServices
 90
        0
280
     0
281
     0
  0
CLASS
  1
PARAMMGR
  2
AcAdParamMgr
  3
DesignerServices
 90
        0
280
     0
281
     0
  0
CLASS
  1
PARAMSCOPE
  2
AcAdParamScope
  3
DesignerServices
 90
        0
280
     0
281
     0
  0
CLASS
  1
NAMEDAPPL
  2
AcAdNamedAppl
  3
DesignerServices
 90
        0
280
     0
281
     0
  0
CLASS
  1
AMDTDMMENUSTATE
  2
AmdtDmMenuState
  3
AcMechDwgViewMgmt
 90
        0
280
     0
281
     0
  0
CLASS
  1
AMDTAMMENUSTATE
  2
AmdtAmMenuState
  3
DesignerAssemblies
 90
        0
280
     0
281
     0
  0
CLASS
  1
ACAMPROJECT
  2
AcAmProject
  3
DesignerAssemblies
 90
        0
280
     0
281
     0
  0
CLASS
  1
ACAMGRCOMPDEF
  2
AcAmGrCompDef
  3
DesignerAssemblies
 90
        0
280
     0
281
     0
  0
CLASS
  1
ACCMCONTEXT
  2
AcCmContext
  3
DesignerAssemblies
 90
        0
280
     0
281
     0
  0
CLASS
  1
ACAMCOMPDEF
  2
AcAmCompDef
  3
DesignerAssemblies
 90
        0
280
     0
281
     0
  0
CLASS
  1
ACAMCOMPDEFMGR
  2
AcAmCompDefMgr
  3
DesignerAssemblies
 90
        0
280
     0
281
     0
  0
CLASS
  1
AMCONTEXTMGR
  2
AcAmContextMgr
  3
DesignerAssemblies
 90
        0
280
     0
281
     0
  0
CLASS
  1
ACAMCONTEXTMODELER
  2
AcAmContextModeler
  3
DesignerAssemblies
 90
        0
280
     0
281
     0
  0
CLASS
  1
ACMTHREADLINESTANDARDISO
  2
AmdtThreadLineStdISO
  3
"Amdt_StdImp|Product Description: AutoCAD Mechanical 2004 DX|Company: Autodesk"
 90
        0
280
     0
281
     0
  0
CLASS
  1
CATALOGSTATE
  2
AcAmCatalogState
  3
DesignerAssemblies
 90
        0
280
     0
281
     0
  0
CLASS
  1
ACAMGRCOMPDEFSET
  2
AcAmGrCompDefSet
  3
DesignerAssemblies
 90
        0
280
     0
281
     0
  0
CLASS
  1
AMDTBROWSERDBTAB
  2
AmdtBrowserDbTab
  3
McadcomServices
 90
        0
280
     0
281
     0
  0
CLASS
  1
CBROWSERAPPOBJECT
  2
CBrowserAppObject
  3
McadcomServices
 90
        0
280
     0
281
     0
  0
CLASS
  1
DM_PLACEHOLDER
  2
AcDmSelsetPlaceholder
  3
AcMechDwgViewMgmt
 90
        0
280
     0
281
     0
  0
CLASS
  1
TABLESTYLE
  2
AcDbTableStyle
  3
ObjectDBX Classes
 90
     2047
280
     0
281
     0
  0
CLASS
  1
VAACXREFPANELOBJECT
  2
VaAcXREFPanelObject
  3
VAAC_ADDIN
 90
    32768
280
     0
281
     0
  0
CLASS
  1
VAACIMAGEINVENTORY
  2
VaAcImageInventory
  3
VAAC_ADDIN
 90
    32768
280
     0
281
     0
  0
CLASS
  1
AMDTNOTETEMPLATEDB
  2
AmdtNoteTemplateDB
  3
AMDT_STDIMP_MODULE_NAME
 90
        0
280
     0
281
     0
  0
CLASS
  1
ACMBOM
  2
AcmBom
  3
"AcmSymBB|Product Description: AutoCAD Mechanical 2004 DX|Company: Autodesk"
 90
    32768
280
     0
281
     0
  0
CLASS
  1
AMDTFORMULAUPDATEDISPATCHER
  2
AmdtFormulaUpdateDispatcher
  3
AcMeServices
 90
    32768
280
     0
281
     0
  0
CLASS
  1
ACMPARTLIST
  2
AcmPartList
  3
"AcmSymBB|Product Description: AutoCAD Mechanical 2004 DX|Company: Autodesk"
 90
    33791
280
     0
281
     1
  0
CLASS
  1
ACAMGFILTERDAT
  2
AcAmgFilterDat
  3
"AcadM|Product Description: AutoCAD Mechanical 2000|Company: Autodesk"
 90
    32768
280
     0
281
     0
  0
CLASS
  1
DIMASSOC
  2
AcDbDimAssoc
  3
"AcDbDimAssoc|Product Desc:     AcDim ARX App For Dimension|Company:          Autodesk, Inc.|WEB Address:      www.autodesk.com"
 90
        0
280
     0
281
     0
  0
CLASS
  1
ACMSTANDARDANSI
  2
AcmStandardANSI
  3
"Amdt_StdImp|Product Description: AutoCAD Mechanical 2004 DX|Company: Autodesk"
 90
    32768
280
     0
281
     0
  0
CLASS
  1
ACMSURFSTANDARDANSI
  2
AcmSurfTextStdANSI
  3
"Amdt_StdImp|Product Description: AutoCAD Mechanical 2004 DX|Company: Autodesk"
 90
    32768
280
     0
281
     0
  0
CLASS
  1
ACMFCFSTANDARDANSI
  2
AcmFCFStdANSI
  3
"Amdt_StdImp|Product Description: AutoCAD Mechanical 2004 DX|Company: Autodesk"
 90
    32768
280
     0
281
     0
  0
CLASS
  1
ACMWELDSTANDARDANSI
  2
AcmWeldingStdANSI
  3
"Amdt_StdImp|Product Description: AutoCAD Mechanical 2004 DX|Company: Autodesk"
 90
    32768
280
     0
281
     0
  0
CLASS
  1
ACMIDSTANDARDANSI
  2
AcmIdStdANSI
  3
"Amdt_StdImp|Product Description: AutoCAD Mechanical 2004 DX|Company: Autodesk"
 90
    32768
280
     0
281
     0
  0
CLASS
  1
ACMDATUMSTANDARDANSI
  2
AcmDatumStdANSI
  3
"Amdt_StdImp|Product Description: AutoCAD Mechanical 2004 DX|Company: Autodesk"
 90
    32768
280
     0
281
     0
  0
CLASS
  1
ACMBOMSTANDARDANSI
  2
AcmBOMStdANSI
  3
"Amdt_StdImp|Product Description: AutoCAD Mechanical 2004 DX|Company: Autodesk"
 90
    32768
280
     0
281
     0
  0
CLASS
  1
ACMDETAILSTANDARDANSI
  2
AmdtDetailSymStdANSI
  3
"Amdt_StdImp|Product Description: AutoCAD Mechanical 2004 DX|Company: Autodesk"
 90
    32768
280
     0
281
     0
  0
CLASS
  1
ACMSECTIONSTANDARDANSI
  2
AmdtSectionSymStdANSI
  3
"Amdt_StdImp|Product Description: AutoCAD Mechanical 2004 DX|Company: Autodesk"
 90
    32768
280
     0
281
     0
  0
CLASS
  1
ACMCENTERLINESTANDARDANSI
  2
AmdtCenterLineStdANSI
  3
"Amdt_StdImp|Product Description: AutoCAD Mechanical 2004 DX|Company: Autodesk"
 90
    32768
280
     0
281
     0
  0
CLASS
  1
ACMTHREADLINESTANDARDANSI
  2
AmdtThreadLineStdANSI
  3
"Amdt_StdImp|Product Description: AutoCAD Mechanical 2004 DX|Company: Autodesk"
 90
    32768
280
     0
281
     0
  0
CLASS
  1
ACMNOTESTANDARDANSI
  2
AmdtNoteStdANSI
  3
"Amdt_StdImp|Product Description: AutoCAD Mechanical 2004 DX|Company: Autodesk"
 90
    32768
280
     0
281
     0
  0
CLASS
  1
ACAMGHOLECHARTSTDANSI
  2
AcAmgHoleChartStdANSI
  3
ACMSYMBB_MODULE_NAME
 90
    32768
280
     0
281
     0
  0
CLASS
  1
AMDTNOTE
  2
AmdtNote
  3
"AcmSymBB|Product Description: AutoCAD Mechanical 2004 DX|Company: Autodesk"
 90
    33791
280
     0
281
     1
  0
CLASS
  1
SORTENTSTABLE
  2
AcDbSortentsTable
  3
ObjectDBX Classes
 90
        0
280
     0
281
     0
  0
CLASS
  1
STDPART2D
  2
AmgStdPart
  3
"AmgStdPart|Product Description: AutoCAD Mechanical 2000|Company: Autodesk"
 90
    33791
280
     0
281
     1
  0
CLASS
  1
ACAMSTDPCOMPDEF
  2
AcAmStdpCompDef
  3
DesignerAssemblies
 90
    32768
280
     0
281
     0
  0
CLASS
  1
ACRFATTGENMGR
  2
AcRfAttGeneralMgr
  3
AcAttribServices
 90
    32768
280
     0
281
     0
  0
CLASS
  1
ACRFOBJATTMGR
  2
AcRfObjAttGroupMgr
  3
AcAttribServices
 90
    32768
280
     0
281
     0
  0
CLASS
  1
ACRFMCADAPIATTHOLDER
  2
AcRfMCADAPIAttHolder
  3
AcAttribServices
 90
    32768
280
     0
281
     0
  0
CLASS
  1
AMDTSYSATTR
  2
AmdtSystemAttribute
  3
AcAttribServices
 90
    32768
280
     0
281
     0
  0
CLASS
  1
ACAMCOMP
  2
AcAmComp
  3
DesignerAssemblies
 90
    32768
280
     0
281
     0
  0
CLASS
  1
AC_AM_STDP_VIEW_DEF
  2
AcAmStdpViewDef
  3
DesignerAssemblies
 90
    32768
280
     0
281
     0
  0
CLASS
  1
AC_AM_MVD_DEP_MGR
  2
AcAmMVDdepMgr
  3
DesignerAssemblies
 90
    32768
280
     0
281
     0
  0
CLASS
  1
AC_AM_MASTER_VIEW_DEF
  2
AcAmMasterViewDef
  3
DesignerAssemblies
 90
    32768
280
     0
281
     0
  0
CLASS
  1
AC_AM_DIRTY_NODES
  2
AcAmDirtyNodes
  3
DesignerAssemblies
 90
    32768
280
     0
281
     0
  0
CLASS
  1
AC_AM_MAPPER_CACHE
  2
AcAmMapperCache
  3
DesignerAssemblies
 90
    32768
280
     0
281
     0
  0
CLASS
  1
ACAMMVDBACKUPOBJECT
  2
AcAmMVDBackupObject
  3
DesignerAssemblies
 90
    32768
280
     0
281
     0
  0
CLASS
  1
AC_AM_COMP_VIEW_INST
  2
AcAmCompView
  3
DesignerAssemblies
 90
    32768
280
     0
281
     0
  0
CLASS
  1
AC_AM_2D_XREF_MGR
  2
AcAmXrefMgr2d
  3
DesignerAssemblies
 90
    32768
280
     0
281
     0
  0
CLASS
  1
AMDTEDGESTANDARDISO13715
  2
AmdtEdgeStdISO13715
  3
"Amdt_StdImp|Product Description: AutoCAD Mechanical 2004 DX|Company: Autodesk"
 90
        0
280
     0
281
     0
  0
ENDSEC
  0
SECTION
  2
TABLES
  0
TABLE
  2
VPORT
  5
8
330
0
100
AcDbSymbolTable
 70
    44
  0
VPORT
  5
2388
330
8
100
AcDbSymbolTableRecord
100
AcDbViewportTableRecord
  2
*Active
 70
     0
 10
0.0
 20
0.0
 11
1.0
 21
1.0
 12
242.9703349081086
 22
209.7715233643467
 13
0.0
 23
0.0
 14
2.5
 24
2.5
 15
10.0
 25
10.0
 16
0.0
 26
0.0
 36
1.0
 17
0.0
 27
0.0
 37
0.0
 40
371.4011686358743
 41
1.46004842615012
 42
50.0
 43
0.0
 44
0.0
 50
0.0
 51
0.0
 71
     0
 72
   100
 73
     1
 74
     3
 75
     0
 76
     0
 77
     0
 78
     0
281
     0
 65
     1
110
0.0
120
0.0
130
0.0
111
1.0
121
0.0
131
0.0
112
0.0
122
1.0
132
0.0
 79
     0
146
0.0
  0
ENDTAB
  0
TABLE
  2
LTYPE
  5
5
330
0
100
AcDbSymbolTable
 70
    17
  0
LTYPE
  5
14
330
5
100
AcDbSymbolTableRecord
100
AcDbLinetypeTableRecord
  2
ByBlock
 70
     0
  3

 72
    65
 73
     0
 40
0.0
  0
LTYPE
  5
15
330
5
100
AcDbSymbolTableRecord
100
AcDbLinetypeTableRecord
  2
ByLayer
 70
     0
  3

 72
    65
 73
     0
 40
0.0
  0
LTYPE
  5
16
330
5
100
AcDbSymbolTableRecord
100
AcDbLinetypeTableRecord
  2
Continuous
 70
     0
  3
Solid line
 72
    65
 73
     0
 40
0.0
  0
LTYPE
  5
64
330
5
100
AcDbSymbolTableRecord
100
AcDbLinetypeTableRecord
  2
AM_ISO02W050
 70
     0
  3
__ __ __ __ __ __ __ __ __ __ __ __ __ __ __
 72
    65
 73
     2
 40
7.5
 49
6.0
 74
     0
 49
-1.5
 74
     0
  0
LTYPE
  5
65
330
5
100
AcDbSymbolTableRecord
100
AcDbLinetypeTableRecord
  2
AM_ISO08W050
 70
     0
  3
____ . ____ . ____ . ____ . ____ . ____ . ____
 72
    65
 73
     4
 40
18.0
 49
12.0
 74
     0
 49
-1.5
 74
     0
 49
3.0
 74
     0
 49
-1.5
 74
     0
  0
LTYPE
  5
66
330
5
100
AcDbSymbolTableRecord
100
AcDbLinetypeTableRecord
  2
AM_ISO09W050
 70
     0
  3
_____ . . _____ . . _____ . . ____ .. ____
 72
    65
 73
     6
 40
22.5
 49
12.0
 74
     0
 49
-1.5
 74
     0
 49
3.0
 74
     0
 49
-1.5
 74
     0
 49
3.0
 74
     0
 49
-1.5
 74
     0
  0
LTYPE
  5
67
330
5
100
AcDbSymbolTableRecord
100
AcDbLinetypeTableRecord
  2
Amconstr
 70
     0
  3
_______________________
 72
    65
 73
     2
 40
9999.0
 49
9999.0
 74
     0
 49
0.0
 74
     0
  0
LTYPE
  5
68
330
5
100
AcDbSymbolTableRecord
100
AcDbLinetypeTableRecord
  2
AM_ISO08W050x2
 70
     0
  3
__ . __ . __ . __ . __ . __
 72
    65
 73
     4
 40
9.0
 49
6.0
 74
     0
 49
-0.75
 74
     0
 49
1.5
 74
     0
 49
-0.75
 74
     0
  0
LTYPE
  5
69
330
5
100
AcDbSymbolTableRecord
100
AcDbLinetypeTableRecord
  2
AM_ISO02W050x2
 70
     0
  3
 _ _ _ _ _ _ _ _ _ _ _ _
 72
    65
 73
     2
 40
3.75
 49
3.0
 74
     0
 49
-0.75
 74
     0
  0
LTYPE
  5
6C
330
5
100
AcDbSymbolTableRecord
100
AcDbLinetypeTableRecord
  2
Amzigzag
 70
     0
  3
/\/-/\/-/\/-/\/-/\/-/\/
 72
    65
 73
     2
 40
11.0001
 49
0.0001
 74
     4
 75
   135
340
6B
 46
0.04
 50
0.0
 44
0.0
 45
0.0
 49
-11.0
 74
     0
  0
LTYPE
  5
7A
330
5
100
AcDbSymbolTableRecord
100
AcDbLinetypeTableRecord
  2
ACISOWELD
 70
     0
  3
_ _ _ _ _
 72
    65
 73
     2
 40
2.0
 49
2.0
 74
     0
 49
-1.0
 74
     0
  0
LTYPE
  5
7B
330
5
100
AcDbSymbolTableRecord
100
AcDbLinetypeTableRecord
  2
ACISOTGB
 70
     0
  3
__ . . __ . .
 72
    65
 73
     6
 40
9.0
 49
4.0
 74
     0
 49
-1.0
 74
     0
 49
1.0
 74
     0
 49
-1.0
 74
     0
 49
1.0
 74
     0
 49
-1.0
 74
     0
  0
LTYPE
  5
7C
330
5
100
AcDbSymbolTableRecord
100
AcDbLinetypeTableRecord
  2
ACISOTGL
 70
     0
  3
_ _ _ _ _
 72
    65
 73
     2
 40
3.0
 49
2.0
 74
     0
 49
-1.0
 74
     0
  0
LTYPE
  5
7E
330
5
100
AcDbSymbolTableRecord
100
AcDbLinetypeTableRecord
  2
CENTER
 70
     0
  3
__ . __
 72
    65
 73
     4
 40
7.0
 49
4.0
 74
     0
 49
-1.0
 74
     0
 49
1.0
 74
     0
 49
-1.0
 74
     0
  0
LTYPE
  5
D8
330
5
100
AcDbSymbolTableRecord
100
AcDbLinetypeTableRecord
  2
HIDDEN
 70
     0
  3
Hidden __ __ __ __ __ __ __ __ __ __ __ __ __ _
 72
    65
 73
     2
 40
9.524999999999998
 49
6.349999999999999
 74
     0
 49
-3.174999999999999
 74
     0
  0
LTYPE
  5
D9
330
5
100
AcDbSymbolTableRecord
100
AcDbLinetypeTableRecord
  2
PHANTOM2
 70
     0
  3
Phantom (.5x) ___ _ _ ___ _ _ ___ _ _ ___ _ _
 72
    65
 73
     6
 40
31.75
 49
15.875
 74
     0
 49
-3.174999999999999
 74
     0
 49
3.174999999999999
 74
     0
 49
-3.174999999999999
 74
     0
 49
3.174999999999999
 74
     0
 49
-3.174999999999999
 74
     0
  0
LTYPE
  5
A7E
330
5
100
AcDbSymbolTableRecord
100
AcDbLinetypeTableRecord
  2
HIDDEN2
 70
     0
  3
Hidden (.5x) _ _ _ _ _ _ _ _ _ _ _ _ _ _ _ _ _
 72
    65
 73
     2
 40
0.1875
 49
0.125
 74
     0
 49
-0.0625
 74
     0
  0
LTYPE
  5
A81
330
5
100
AcDbSymbolTableRecord
100
AcDbLinetypeTableRecord
  2
ACANSTGB
 70
     0
  3
__ . . __ . .
 72
    65
 73
     6
 40
0.35433070866
 49
0.15748031496
 74
     0
 49
-0.03937007874
 74
     0
 49
0.03937007874
 74
     0
 49
-0.03937007874
 74
     0
 49
0.03937007874
 74
     0
 49
-0.03937007874
 74
     0
  0
LTYPE
  5
A82
330
5
100
AcDbSymbolTableRecord
100
AcDbLinetypeTableRecord
  2
ACANSTGL
 70
     0
  3
_ _ _ _ _
 72
    65
 73
     2
 40
0.11811023622
 49
0.07874015748
 74
     0
 49
-0.03937007874
 74
     0
  0
ENDTAB
  0
TABLE
  2
LAYER
  5
2
102
{ACAD_XDICTIONARY
360
3F9
102
}
330
0
100
AcDbSymbolTable
 70
     7
  0
LAYER
  5
10
330
2
100
AcDbSymbolTableRecord
100
AcDbLayerTableRecord
  2
0
 70
     0
 62
     7
  6
Continuous
370
    -3
390
F
  0
LAYER
  5
A83
330
2
100
AcDbSymbolTableRecord
100
AcDbLayerTableRecord
  2
AM_VIS
 70
     0
 62
     7
  6
Continuous
370
    50
390
F
  0
LAYER
  5
A84
330
2
100
AcDbSymbolTableRecord
100
AcDbLayerTableRecord
  2
AM_4
 70
     0
 62
     3
  6
Continuous
370
    25
390
F
  0
LAYER
  5
D49
330
2
100
AcDbSymbolTableRecord
100
AcDbLayerTableRecord
  2
AM_7
 70
     0
 62
     1
  6
CENTER
370
    25
390
F
  0
LAYER
  5
D5C
330
2
100
AcDbSymbolTableRecord
100
AcDbLayerTableRecord
  2
AM_5
 70
     0
 62
     5
  6
Continuous
370
    50
390
F
  0
LAYER
  5
D6C
330
2
100
AcDbSymbolTableRecord
100
AcDbLayerTableRecord
  2
Defpoints
 70
     0
 62
     7
  6
Continuous
290
     0
370
    -3
390
F
  0
LAYER
  5
1DC3
330
2
100
AcDbSymbolTableRecord
100
AcDbLayerTableRecord
  2
LOGO
 70
     0
 62
     7
  6
Continuous
370
    -3
390
F
  0
ENDTAB
  0
TABLE
  2
STYLE
  5
3
330
0
100
AcDbSymbolTable
 70
     7
  0
STYLE
  5
11
330
3
100
AcDbSymbolTableRecord
100
AcDbTextStyleTableRecord
  2
STANDARD
 70
     0
 40
0.0
 41
1.0
 50
0.0
 71
     0
 42
3.0
  3
ISOCP.SHX
  4
CHINESET.SHX
  0
STYLE
  5
6B
330
3
100
AcDbSymbolTableRecord
100
AcDbTextStyleTableRecord
  2

 70
     1
 40
0.0
 41
1.0
 50
0.0
 71
     0
 42
2.5
  3
ltypeshp.shx
  4

  0
STYLE
  5
6D
330
3
100
AcDbSymbolTableRecord
100
AcDbTextStyleTableRecord
  2
ACISOTS
 70
     0
 40
1.0
 41
1.0
 50
0.0
 71
     0
 42
1.0
  3
isocp.shx
  4
chineset.shx
  0
STYLE
  5
79
330
3
100
AcDbSymbolTableRecord
100
AcDbTextStyleTableRecord
  2
ACISOGDT
 70
     0
 40
0.0
 41
1.0
 50
0.0
 71
     0
 42
2.5
  3
amgdt.shx
  4
chineset.shx
  0
STYLE
  5
A85
330
3
100
AcDbSymbolTableRecord
100
AcDbTextStyleTableRecord
  2
ACANSTS
 70
     0
 40
1.0
 41
1.0
 50
0.0
 71
     0
 42
0.8
  3
romans.shx
  4
chineset.shx
  0
STYLE
  5
A86
330
3
100
AcDbSymbolTableRecord
100
AcDbTextStyleTableRecord
  2
ACANSGDT
 70
     0
 40
0.0
 41
1.0
 50
0.0
 71
     0
 42
0.8
  3
amgdtans.shx
  4

  0
STYLE
  5
1900
330
3
100
AcDbSymbolTableRecord
100
AcDbTextStyleTableRecord
  2
CHINESET
 70
     0
 40
3.0
 41
1.0
 50
0.0
 71
     0
 42
4.5
  3
simplex.shx
  4
CHINESET.shx
  0
ENDTAB
  0
TABLE
  2
VIEW
  5
6
330
0
100
AcDbSymbolTable
 70
     0
  0
ENDTAB
  0
TABLE
  2
UCS
  5
7
330
0
100
AcDbSymbolTable
 70
     0
  0
ENDTAB
  0
TABLE
  2
APPID
  5
9
330
0
100
AcDbSymbolTable
 70
    25
  0
APPID
  5
12
330
9
100
AcDbSymbolTableRecord
100
AcDbRegAppTableRecord
  2
ACAD
 70
     0
  0
APPID
  5
46
330
9
100
AcDbSymbolTableRecord
100
AcDbRegAppTableRecord
  2
MCAD_NO_VIS
 70
     0
  0
APPID
  5
47
330
9
100
AcDbSymbolTableRecord
100
AcDbRegAppTableRecord
  2
ACAD_TEMP_GRAPHIC
 70
     0
  0
APPID
  5
58
330
9
100
AcDbSymbolTableRecord
100
AcDbRegAppTableRecord
  2
ACATTRIBSERVICES
 70
     0
  0
APPID
  5
EE
330
9
100
AcDbSymbolTableRecord
100
AcDbRegAppTableRecord
  2
AD_DRAW
 70
     0
  0
APPID
  5
10C
330
9
100
AcDbSymbolTableRecord
100
AcDbRegAppTableRecord
  2
DESIGNERASSEMBLIES
 70
     0
  0
APPID
  5
111
330
9
100
AcDbSymbolTableRecord
100
AcDbRegAppTableRecord
  2
ACADM_DIM_EDIT
 70
     0
  0
APPID
  5
112
330
9
100
AcDbSymbolTableRecord
100
AcDbRegAppTableRecord
  2
AMDT_DM_ADJ
 70
     0
  0
APPID
  5
22C
330
9
100
AcDbSymbolTableRecord
100
AcDbRegAppTableRecord
  2
ACAD_DSTYLE_DIMTEXT_FILL
 70
     0
  0
APPID
  5
452
330
9
100
AcDbSymbolTableRecord
100
AcDbRegAppTableRecord
  2
GENIUS_GENOENT_13
 70
     0
  0
APPID
  5
453
330
9
100
AcDbSymbolTableRecord
100
AcDbRegAppTableRecord
  2
GENIUS_GENOBJ-N-CRS_13
 70
     0
  0
APPID
  5
454
330
9
100
AcDbSymbolTableRecord
100
AcDbRegAppTableRecord
  2
GENIUS_GENOLIS_13
 70
     0
  0
APPID
  5
455
330
9
100
AcDbSymbolTableRecord
100
AcDbRegAppTableRecord
  2
GENIUS_GENODEF_13
 70
     0
  0
APPID
  5
456
330
9
100
AcDbSymbolTableRecord
100
AcDbRegAppTableRecord
  2
GENIUS_GENOREF_13
 70
     0
  0
APPID
  5
6F3
330
9
100
AcDbSymbolTableRecord
100
AcDbRegAppTableRecord
  2
ACAD_PSEXT
 70
     0
  0
APPID
  5
808
330
9
100
AcDbSymbolTableRecord
100
AcDbRegAppTableRecord
  2
GENIUS_GENDTOL_13
 70
     0
  0
APPID
  5
D4B
330
9
100
AcDbSymbolTableRecord
100
AcDbRegAppTableRecord
  2
GENIUS_GENOBJ-N-CEN_13
 70
     0
  0
APPID
  5
D4C
330
9
100
AcDbSymbolTableRecord
100
AcDbRegAppTableRecord
  2
GENIUS_GENCEN_19
 70
     0
  0
APPID
  5
1B68
330
9
100
AcDbSymbolTableRecord
100
AcDbRegAppTableRecord
  2
GEVID1168474543
 70
     0
  0
APPID
  5
1B69
330
9
100
AcDbSymbolTableRecord
100
AcDbRegAppTableRecord
  2
GEVDC
 70
     0
  0
APPID
  5
1B73
330
9
100
AcDbSymbolTableRecord
100
AcDbRegAppTableRecord
  2
AMG_2DHIDE
 70
     0
  0
APPID
  5
1B74
330
9
100
AcDbSymbolTableRecord
100
AcDbRegAppTableRecord
  2
AMG_2DSTRUCT_BTR
 70
     0
  0
APPID
  5
1B85
330
9
100
AcDbSymbolTableRecord
100
AcDbRegAppTableRecord
  2
ACADM_2DVIEW_IGN_NOTIFY
 70
     0
  0
APPID
  5
1DC4
330
9
100
AcDbSymbolTableRecord
100
AcDbRegAppTableRecord
  2
GENIUS_GENREC_14
 70
     0
  0
APPID
  5
1DC5
330
9
100
AcDbSymbolTableRecord
100
AcDbRegAppTableRecord
  2
GENIUS_GENOBJ-N-REC_13
 70
     0
  0
ENDTAB
  0
TABLE
  2
DIMSTYLE
  5
A
330
0
100
AcDbSymbolTable
 70
    14
100
AcDbDimStyleTable
 71
     3
340
81
340
8B
340
86
  0
DIMSTYLE
105
81
330
A
100
AcDbSymbolTableRecord
100
AcDbDimStyleTableRecord
  2
AM_ISO
 70
     0
  4
"
 41
3.0
 42
1.0
 43
8.0
 44
1.5
 47
0.1
 48
0.1
 73
     0
 74
     0
 77
     1
 78
     8
 79
     2
140
3.5
141
0.0
143
0.0393701
146
0.6
147
0.7
172
     1
176
   256
177
   256
178
   256
271
     2
272
     2
283
     0
284
     8
340
11
371
    -1
372
    -1
  0
DIMSTYLE
105
82
330
A
100
AcDbSymbolTableRecord
100
AcDbDimStyleTableRecord
  2
AM_ISO$3
 70
     0
  4
"
 41
3.0
 42
1.0
 43
8.0
 44
1.5
 47
0.1
 48
0.1
 73
     0
 77
     1
 78
     8
 79
     2
140
3.5
141
0.0
143
0.0393701
146
0.6
147
0.7
176
   256
177
   256
178
   256
271
     2
272
     2
283
     0
284
     8
288
     1
289
     0
340
11
371
    -1
372
    -1
  0
DIMSTYLE
105
83
330
A
100
AcDbSymbolTableRecord
100
AcDbDimStyleTableRecord
  2
AM_ISO$4
 70
     0
  4
"
 41
3.0
 42
1.0
 43
8.0
 44
1.5
 47
0.1
 48
0.1
 73
     0
 77
     1
 78
     8
 79
     2
140
3.5
141
0.0
143
0.0393701
146
0.6
147
0.7
176
   256
177
   256
178
   256
271
     2
272
     2
283
     0
284
     8
288
     1
289
     0
340
11
371
    -1
372
    -1
  0
DIMSTYLE
105
84
330
A
100
AcDbSymbolTableRecord
100
AcDbDimStyleTableRecord
  2
AM_ISO$6
 70
     0
  4
"
 41
3.0
 42
1.0
 43
8.0
 44
1.5
 47
0.1
 48
0.1
 73
     0
 74
     0
 78
     8
 79
     2
140
3.5
141
0.0
143
0.0393701
146
0.6
147
0.7
172
     1
176
   256
177
   256
178
   256
271
     2
272
     2
283
     0
284
     8
340
11
371
    -1
372
    -1
  0
DIMSTYLE
105
85
330
A
100
AcDbSymbolTableRecord
100
AcDbDimStyleTableRecord
  2
AM_ISO$7
 70
     0
  4
"
 41
3.0
 42
1.0
 43
8.0
 44
1.5
 47
0.1
 48
0.1
 73
     0
 74
     0
 77
     1
 78
     8
 79
     2
140
5.0
141
0.0
143
0.0393701
146
0.6
147
0.7
172
     1
176
   256
177
   256
178
   256
271
     2
272
     2
283
     0
284
     8
340
11
371
    -1
372
    -1
  0
DIMSTYLE
105
86
330
A
100
AcDbSymbolTableRecord
100
AcDbDimStyleTableRecord
  2
AM_ISO$SF
 70
     0
  4
"
 41
2.5
 42
1.0
 43
10.0
 44
1.0
 47
0.1
 48
0.1
 73
     0
 74
     0
 75
     1
 76
     1
 77
     1
 78
     8
 79
     2
140
3.5
141
0.0
143
0.0393701
146
0.71
147
1.5
172
     1
176
   256
177
   256
178
     2
271
     2
272
     3
274
     4
283
     0
284
     8
340
11
371
    -1
372
    -1
  0
DIMSTYLE
105
8B
330
A
100
AcDbSymbolTableRecord
100
AcDbDimStyleTableRecord
  2
AM_ISO$SH
 70
     0
  4
"
 41
2.5
 42
1.0
 43
10.0
 44
1.0
 47
0.1
 48
0.1
 73
     0
 74
     0
 75
     1
 76
     1
 77
     1
 78
     8
 79
     2
140
3.5
141
0.0
143
0.0393701
144
2.0
146
0.71
147
1.5
172
     1
173
     1
176
   256
177
   256
178
     2
271
     2
272
     3
274
     4
283
     0
284
     8
340
11
343
87
371
    -1
372
    -1
  0
DIMSTYLE
105
40B
102
{ACAD_REACTORS
330
D6B
330
D92
330
DB8
330
DDE
330
E04
330
E2A
330
F4F
330
F52
330
F55
330
F58
330
1006
330
10AC
330
1A17
330
1ABE
330
1AC1
330
1AC4
330
1AC7
330
1B36
330
1BC9
330
1BF2
330
1BF3
330
1BF4
330
1BF5
330
1BF7
330
1BFB
330
1CBD
330
2322
330
235D
102
}
330
A
100
AcDbSymbolTableRecord
100
AcDbDimStyleTableRecord
  2
AM_ISO$0
 70
     0
  4
"
 41
3.0
 42
1.0
 43
8.0
 44
1.5
 47
0.1
 48
0.1
 73
     0
 74
     0
 77
     1
 78
     8
 79
     2
140
3.5
141
0.0
143
0.0393701
146
0.6
147
0.7
172
     1
176
   256
177
   256
178
   256
271
     2
272
     2
283
     0
284
     8
340
11
371
    -1
372
    -1
  0
DIMSTYLE
105
A88
330
A
100
AcDbSymbolTableRecord
100
AcDbDimStyleTableRecord
  2
AM_ANSI
 70
     0
  4
mm
 40
0.5
 41
1.0
 42
1.0
 43
0.5
 44
1.0
 47
0.1
 48
0.1
 73
     0
 77
     3
 78
     9
 79
     2
140
1.5
141
0.0
146
0.71
147
0.5
176
   256
177
   256
178
     2
271
     2
272
     8
284
     7
340
11
371
    -1
372
    -1
  0
DIMSTYLE
105
A89
330
A
100
AcDbSymbolTableRecord
100
AcDbDimStyleTableRecord
  2
AM_ANSI$3
 70
     0
  4
mm
 40
0.5
 41
1.0
 42
1.0
 43
0.5
 44
1.0
 47
0.1
 48
0.1
 73
     0
 77
     3
 78
     9
 79
     2
140
1.5
141
0.0
146
0.71
147
0.5
176
   256
177
   256
178
     2
271
     2
272
     8
284
     7
288
     1
289
     0
340
11
371
    -1
372
    -1
  0
DIMSTYLE
105
A8A
330
A
100
AcDbSymbolTableRecord
100
AcDbDimStyleTableRecord
  2
AM_ANSI$4
 70
     0
  4
mm
 40
0.5
 41
1.0
 42
1.0
 43
0.5
 44
1.0
 47
0.1
 48
0.1
 73
     0
 77
     3
 78
     9
 79
     2
140
1.5
141
0.0
146
0.71
147
0.5
176
   256
177
   256
178
     2
271
     2
272
     8
284
     7
288
     1
289
     0
340
11
371
    -1
372
    -1
  0
DIMSTYLE
105
A8B
330
A
100
AcDbSymbolTableRecord
100
AcDbDimStyleTableRecord
  2
AM_ANSI$7
 70
     0
  4
mm
 40
0.5
 41
0.1
 42
1.0
 43
0.5
 44
1.0
 47
0.1
 48
0.1
 73
     0
 77
     3
 78
     9
 79
     2
140
0.24
141
0.0
146
0.71
147
0.06
176
   256
177
   256
178
     2
271
     2
272
     8
284
     7
340
11
371
    -1
372
    -1
  0
DIMSTYLE
105
A8C
330
A
100
AcDbSymbolTableRecord
100
AcDbDimStyleTableRecord
  2
AM_ANSI$SF
 70
     0
  4
mm
 40
0.5
 41
1.0
 42
1.0
 43
0.5
 44
1.0
 47
0.1
 48
0.1
 73
     0
 75
     1
 76
     1
 77
     3
 78
     9
 79
     2
140
1.5
141
0.0
146
0.71
147
0.5
176
   256
177
   256
178
     2
271
     2
272
     8
284
     7
340
11
371
    -1
372
    -1
  0
DIMSTYLE
105
A8D
330
A
100
AcDbSymbolTableRecord
100
AcDbDimStyleTableRecord
  2
AM_ANSI$SH
 70
     0
  4
mm
 40
0.5
 41
1.0
 42
1.0
 43
0.5
 44
1.0
 47
0.1
 48
0.1
 73
     0
 75
     1
 76
     1
 77
     3
 78
     9
 79
     2
140
1.5
141
0.0
146
0.71
147
0.5
173
     1
176
   256
177
   256
178
     2
271
     2
272
     8
284
     7
340
11
343
87
371
    -1
372
    -1
  0
ENDTAB
  0
TABLE
  2
BLOCK_RECORD
  5
1
330
0
100
AcDbSymbolTable
 70
    40
  0
BLOCK_RECORD
  5
1F
102
{ACAD_XDICTIONARY
360
8F
102
}
330
1
100
AcDbSymbolTableRecord
100
AcDbBlockTableRecord
  2
*Model_Space
340
22
  0
BLOCK_RECORD
  5
1B
330
1
100
AcDbSymbolTableRecord
100
AcDbBlockTableRecord
  2
*Paper_Space
340
1E
  0
BLOCK_RECORD
  5
23
330
1
100
AcDbSymbolTableRecord
100
AcDbBlockTableRecord
  2
*Paper_Space0
340
26
  0
BLOCK_RECORD
  5
87
330
1
100
AcDbSymbolTableRecord
100
AcDbBlockTableRecord
  2
GENAXEH
340
0
  0
BLOCK_RECORD
  5
D6D
330
1
100
AcDbSymbolTableRecord
100
AcDbBlockTableRecord
  2
*D2
340
0
  0
BLOCK_RECORD
  5
D93
330
1
100
AcDbSymbolTableRecord
100
AcDbBlockTableRecord
  2
*D3
340
0
  0
BLOCK_RECORD
  5
DB9
330
1
100
AcDbSymbolTableRecord
100
AcDbBlockTableRecord
  2
*D4
340
0
  0
BLOCK_RECORD
  5
DDF
330
1
100
AcDbSymbolTableRecord
100
AcDbBlockTableRecord
  2
*D5
340
0
  0
BLOCK_RECORD
  5
E05
330
1
100
AcDbSymbolTableRecord
100
AcDbBlockTableRecord
  2
*D6
340
0
  0
BLOCK_RECORD
  5
E2B
330
1
100
AcDbSymbolTableRecord
100
AcDbBlockTableRecord
  2
*D7
340
0
  0
BLOCK_RECORD
  5
E8E
330
1
100
AcDbSymbolTableRecord
100
AcDbBlockTableRecord
  2
*D8
340
0
  0
BLOCK_RECORD
  5
F6D
330
1
100
AcDbSymbolTableRecord
100
AcDbBlockTableRecord
  2
*D9
340
0
  0
BLOCK_RECORD
  5
F86
330
1
100
AcDbSymbolTableRecord
100
AcDbBlockTableRecord
  2
*D10
340
0
  0
BLOCK_RECORD
  5
F92
330
1
100
AcDbSymbolTableRecord
100
AcDbBlockTableRecord
  2
*D11
340
0
  0
BLOCK_RECORD
  5
F9E
330
1
100
AcDbSymbolTableRecord
100
AcDbBlockTableRecord
  2
*D12
340
0
  0
BLOCK_RECORD
  5
1009
330
1
100
AcDbSymbolTableRecord
100
AcDbBlockTableRecord
  2
*D13
340
0
  0
BLOCK_RECORD
  5
10AD
330
1
100
AcDbSymbolTableRecord
100
AcDbBlockTableRecord
  2
*D14
340
0
  0
BLOCK_RECORD
  5
18F1
102
{ACAD_XDICTIONARY
360
18F2
102
}
330
1
100
AcDbSymbolTableRecord
100
AcDbBlockTableRecord
  2
A$C5ECF147B
340
0
102
{BLKREFS
331
192B
331
1CAA
102
}
  0
BLOCK_RECORD
  5
1A18
330
1
100
AcDbSymbolTableRecord
100
AcDbBlockTableRecord
  2
*D16
340
0
  0
BLOCK_RECORD
  5
1AC9
330
1
100
AcDbSymbolTableRecord
100
AcDbBlockTableRecord
  2
*D17
340
0
  0
BLOCK_RECORD
  5
1AD5
330
1
100
AcDbSymbolTableRecord
100
AcDbBlockTableRecord
  2
*D18
340
0
  0
BLOCK_RECORD
  5
1AE3
330
1
100
AcDbSymbolTableRecord
100
AcDbBlockTableRecord
  2
*D19
340
0
  0
BLOCK_RECORD
  5
1AEF
330
1
100
AcDbSymbolTableRecord
100
AcDbBlockTableRecord
  2
*D20
340
0
  0
BLOCK_RECORD
  5
1AFB
330
1
100
AcDbSymbolTableRecord
100
AcDbBlockTableRecord
  2
*D21
340
0
  0
BLOCK_RECORD
  5
1B39
330
1
100
AcDbSymbolTableRecord
100
AcDbBlockTableRecord
  2
*D22
340
0
  0
BLOCK_RECORD
  5
1BCC
330
1
100
AcDbSymbolTableRecord
100
AcDbBlockTableRecord
  2
*D24
340
0
  0
BLOCK_RECORD
  5
1BE3
102
{ACAD_XDICTIONARY
360
1BE8
102
}
330
1
100
AcDbSymbolTableRecord
100
AcDbBlockTableRecord
  2
A$C621A5A01
340
0
102
{BLKREFS
331
1BEC
331
1C86
331
1C8B
331
1C8C
102
}
  0
BLOCK_RECORD
  5
1BFC
330
1
100
AcDbSymbolTableRecord
100
AcDbBlockTableRecord
  2
*D26
340
0
  0
BLOCK_RECORD
  5
1C08
330
1
100
AcDbSymbolTableRecord
100
AcDbBlockTableRecord
  2
*D27
340
0
  0
BLOCK_RECORD
  5
1C14
330
1
100
AcDbSymbolTableRecord
100
AcDbBlockTableRecord
  2
*D28
340
0
  0
BLOCK_RECORD
  5
1C20
330
1
100
AcDbSymbolTableRecord
100
AcDbBlockTableRecord
  2
*D29
340
0
  0
BLOCK_RECORD
  5
1C2D
330
1
100
AcDbSymbolTableRecord
100
AcDbBlockTableRecord
  2
*D30
340
0
  0
BLOCK_RECORD
  5
1C68
330
1
100
AcDbSymbolTableRecord
100
AcDbBlockTableRecord
  2
*D31
340
0
  0
BLOCK_RECORD
  5
1CBE
330
1
100
AcDbSymbolTableRecord
100
AcDbBlockTableRecord
  2
*D32
340
0
  0
BLOCK_RECORD
  5
2258
330
1
100
AcDbSymbolTableRecord
100
AcDbBlockTableRecord
  2
*S33
340
0
102
{BLKREFS
331
1BBC
102
}
  0
BLOCK_RECORD
  5
2260
330
1
100
AcDbSymbolTableRecord
100
AcDbBlockTableRecord
  2
*S34
340
0
102
{BLKREFS
331
1BBF
102
}
  0
BLOCK_RECORD
  5
2268
330
1
100
AcDbSymbolTableRecord
100
AcDbBlockTableRecord
  2
*S35
340
0
102
{BLKREFS
331
2144
102
}
  0
BLOCK_RECORD
  5
2270
330
1
100
AcDbSymbolTableRecord
100
AcDbBlockTableRecord
  2
*S36
340
0
102
{BLKREFS
331
2146
102
}
  0
BLOCK_RECORD
  5
2323
330
1
100
AcDbSymbolTableRecord
100
AcDbBlockTableRecord
  2
*D38
340
0
  0
BLOCK_RECORD
  5
235E
330
1
100
AcDbSymbolTableRecord
100
AcDbBlockTableRecord
  2
*D39
340
0
  0
ENDTAB
  0
ENDSEC
  0
SECTION
  2
BLOCKS
  0
BLOCK
  5
20
330
1F
100
AcDbEntity
  8
0
100
AcDbBlockBegin
  2
*Model_Space
 70
     0
 10
0.0
 20
0.0
 30
0.0
  3
*Model_Space
  1

  0
ENDBLK
  5
21
330
1F
100
AcDbEntity
  8
0
100
AcDbBlockEnd
  0
BLOCK
  5
1C
330
1B
100
AcDbEntity
 67
     1
  8
0
100
AcDbBlockBegin
  2
*Paper_Space
 70
     0
 10
0.0
 20
0.0
 30
0.0
  3
*Paper_Space
  1

  0
ENDBLK
  5
1D
330
1B
100
AcDbEntity
 67
     1
  8
0
100
AcDbBlockEnd
  0
BLOCK
  5
24
330
23
100
AcDbEntity
  8
0
100
AcDbBlockBegin
  2
*Paper_Space0
 70
     0
 10
0.0
 20
0.0
 30
0.0
  3
*Paper_Space0
  1

  0
ENDBLK
  5
25
330
23
100
AcDbEntity
  8
0
100
AcDbBlockEnd
  0
BLOCK
  5
89
330
87
100
AcDbEntity
  8
0
100
AcDbBlockBegin
  2
GENAXEH
 70
     0
 10
0.0
 20
0.0
 30
0.0
  3
GENAXEH
  1

  0
LINE
  5
88
330
87
100
AcDbEntity
  8
0
100
AcDbLine
 10
-1.0
 20
0.0
 30
0.0
 11
1.0
 21
0.0
 31
0.0
  0
ENDBLK
  5
8A
330
87
100
AcDbEntity
  8
0
100
AcDbBlockEnd
  0
BLOCK
  5
D77
330
D6D
100
AcDbEntity
  8
0
100
AcDbBlockBegin
  2
*D2
 70
     1
 10
0.0
 20
0.0
 30
0.0
  3
*D2
  1

  0
LINE
  5
21CA
330
D6D
100
AcDbEntity
  8
AM_5
100
AcDbLine
 10
71.39773199128512
 20
197.8923064289448
 30
0.0
 11
71.39773199128512
 21
183.9074788689446
 31
0.0
  0
LINE
  5
21CB
330
D6D
100
AcDbEntity
  8
AM_5
100
AcDbLine
 10
90.39773199128513
 20
197.8923064289448
 30
0.0
 11
90.39773199128513
 21
183.9074788689446
 31
0.0
  0
LINE
  5
21CC
330
D6D
100
AcDbEntity
  8
AM_5
100
AcDbLine
 10
74.39773199128513
 20
185.4074788689446
 30
0.0
 11
87.39773199128512
 21
185.4074788689446
 31
0.0
  0
SOLID
  5
21CD
330
D6D
100
AcDbEntity
  8
AM_5
100
AcDbTrace
 10
74.39773199128513
 20
185.9074788689446
 30
0.0
 11
74.39773199128513
 21
184.9074788689446
 31
0.0
 12
71.39773199128512
 22
185.4074788689446
 32
0.0
 13
71.39773199128512
 23
185.4074788689446
 33
0.0
  0
SOLID
  5
21CE
330
D6D
100
AcDbEntity
  8
AM_5
100
AcDbTrace
 10
87.39773199128512
 20
185.9074788689446
 30
0.0
 11
87.39773199128512
 21
184.9074788689446
 31
0.0
 12
90.39773199128513
 22
185.4074788689446
 32
0.0
 13
90.39773199128513
 23
185.4074788689446
 33
0.0
  0
MTEXT
  5
21CF
330
D6D
100
AcDbEntity
  8
AM_5
100
AcDbMText
 10
80.89773199128513
 20
187.8574788689446
 30
0.0
 40
3.5
 41
0.0
 71
     5
 72
     1
  1
19
 73
     1
 44
1.0
1001
ACAD
1000
MTEXTBEGIN
1070
    73
1070
     1
1070
    44
1040
1.0
1070
    74
1070
     0
1000
MTEXTEND
  0
POINT
  5
21D0
330
D6D
100
AcDbEntity
  8
Defpoints
 62
     0
100
AcDbPoint
 10
71.39773199128512
 20
198.8923064289448
 30
0.0
  0
POINT
  5
21D1
330
D6D
100
AcDbEntity
  8
Defpoints
 62
     0
100
AcDbPoint
 10
90.39773199128513
 20
198.8923064289448
 30
0.0
  0
POINT
  5
21D2
330
D6D
100
AcDbEntity
  8
Defpoints
 62
     0
100
AcDbPoint
 10
90.39773199128513
 20
185.4074788689446
 30
0.0
  0
ENDBLK
  5
D78
330
D6D
100
AcDbEntity
  8
0
100
AcDbBlockEnd
  0
BLOCK
  5
D9D
330
D93
100
AcDbEntity
  8
0
100
AcDbBlockBegin
  2
*D3
 70
     1
 10
0.0
 20
0.0
 30
0.0
  3
*D3
  1

  0
LINE
  5
2301
330
D93
100
AcDbEntity
  8
AM_5
100
AcDbLine
 10
105.1021845027787
 20
201.3771339889449
 30
0.0
 11
105.1021845027787
 21
175.9074788689447
 31
0.0
  0
LINE
  5
2302
330
D93
100
AcDbEntity
  8
AM_5
100
AcDbLine
 10
117.1021845027787
 20
197.0771339869307
 30
0.0
 11
117.1021845027787
 21
175.9074788689447
 31
0.0
  0
LINE
  5
2303
330
D93
100
AcDbEntity
  8
AM_5
100
AcDbLine
 10
108.1021845027787
 20
177.4074788689446
 30
0.0
 11
114.1021845027787
 21
177.4074788689446
 31
0.0
  0
SOLID
  5
2304
330
D93
100
AcDbEntity
  8
AM_5
100
AcDbTrace
 10
108.1021845027787
 20
177.9074788689447
 30
0.0
 11
108.1021845027787
 21
176.9074788689447
 31
0.0
 12
105.1021845027787
 22
177.4074788689446
 32
0.0
 13
105.1021845027787
 23
177.4074788689446
 33
0.0
  0
SOLID
  5
2305
330
D93
100
AcDbEntity
  8
AM_5
100
AcDbTrace
 10
114.1021845027787
 20
177.9074788689447
 30
0.0
 11
114.1021845027787
 21
176.9074788689447
 31
0.0
 12
117.1021845027787
 22
177.4074788689446
 32
0.0
 13
117.1021845027787
 23
177.4074788689446
 33
0.0
  0
MTEXT
  5
2306
330
D93
100
AcDbEntity
  8
AM_5
100
AcDbMText
 10
111.1021845027787
 20
179.8578233571336
 30
0.0
 40
3.5
 41
0.0
 71
     5
 72
     1
  1
12
 73
     1
 44
1.0
1001
ACAD
1000
MTEXTBEGIN
1070
    73
1070
     1
1070
    44
1040
1.0
1070
    74
1070
     0
1000
MTEXTEND
  0
POINT
  5
2307
330
D93
100
AcDbEntity
  8
Defpoints
 62
     0
100
AcDbPoint
 10
105.1021845027787
 20
202.3771339889449
 30
0.0
  0
POINT
  5
2308
330
D93
100
AcDbEntity
  8
Defpoints
 62
     0
100
AcDbPoint
 10
117.1021845027787
 20
198.0771339869307
 30
0.0
  0
POINT
  5
2309
330
D93
100
AcDbEntity
  8
Defpoints
 62
     0
100
AcDbPoint
 10
117.1021845027787
 20
177.4074788689446
 30
0.0
  0
ENDBLK
  5
D9E
330
D93
100
AcDbEntity
  8
0
100
AcDbBlockEnd
  0
BLOCK
  5
DC3
330
DB9
100
AcDbEntity
  8
0
100
AcDbBlockBegin
  2
*D4
 70
     1
 10
0.0
 20
0.0
 30
0.0
  3
*D4
  1

  0
LINE
  5
21DC
330
DB9
100
AcDbEntity
  8
AM_5
100
AcDbLine
 10
117.1021845027787
 20
197.0771339869307
 30
0.0
 11
117.1021845027787
 21
175.9074788689447
 31
0.0
  0
LINE
  5
21DD
330
DB9
100
AcDbEntity
  8
AM_5
100
AcDbLine
 10
144.1021845027787
 20
197.3771339889449
 30
0.0
 11
144.1021845027787
 21
175.9074788689447
 31
0.0
  0
LINE
  5
21DE
330
DB9
100
AcDbEntity
  8
AM_5
100
AcDbLine
 10
120.1021845027787
 20
177.4074788689446
 30
0.0
 11
141.1021845027787
 21
177.4074788689446
 31
0.0
  0
SOLID
  5
21DF
330
DB9
100
AcDbEntity
  8
AM_5
100
AcDbTrace
 10
120.1021845027787
 20
177.9074788689447
 30
0.0
 11
120.1021845027787
 21
176.9074788689447
 31
0.0
 12
117.1021845027787
 22
177.4074788689446
 32
0.0
 13
117.1021845027787
 23
177.4074788689446
 33
0.0
  0
SOLID
  5
21E0
330
DB9
100
AcDbEntity
  8
AM_5
100
AcDbTrace
 10
141.1021845027787
 20
177.9074788689447
 30
0.0
 11
141.1021845027787
 21
176.9074788689447
 31
0.0
 12
144.1021845027787
 22
177.4074788689446
 32
0.0
 13
144.1021845027787
 23
177.4074788689446
 33
0.0
  0
MTEXT
  5
21E1
330
DB9
100
AcDbEntity
  8
AM_5
100
AcDbMText
 10
130.6021845027787
 20
179.8574788689446
 30
0.0
 40
3.5
 41
0.0
 71
     5
 72
     1
  1
S
 73
     1
 44
1.0
1001
ACAD
1000
MTEXTBEGIN
1070
    73
1070
     1
1070
    44
1040
1.0
1070
    74
1070
     0
1000
MTEXTEND
  0
POINT
  5
21E2
330
DB9
100
AcDbEntity
  8
Defpoints
 62
     0
100
AcDbPoint
 10
117.1021845027787
 20
198.0771339869307
 30
0.0
  0
POINT
  5
21E3
330
DB9
100
AcDbEntity
  8
Defpoints
 62
     0
100
AcDbPoint
 10
144.1021845027787
 20
198.3771339889448
 30
0.0
  0
POINT
  5
21E4
330
DB9
100
AcDbEntity
  8
Defpoints
 62
     0
100
AcDbPoint
 10
144.1021845027787
 20
177.4074788689446
 30
0.0
  0
ENDBLK
  5
DC4
330
DB9
100
AcDbEntity
  8
0
100
AcDbBlockEnd
  0
BLOCK
  5
DE9
330
DDF
100
AcDbEntity
  8
0
100
AcDbBlockBegin
  2
*D5
 70
     1
 10
0.0
 20
0.0
 30
0.0
  3
*D5
  1

  0
LINE
  5
230A
330
DDF
100
AcDbEntity
  8
AM_5
100
AcDbLine
 10
105.1021845027787
 20
201.3771339889449
 30
0.0
 11
105.1021845027787
 21
167.9074788689447
 31
0.0
  0
LINE
  5
230B
330
DDF
100
AcDbEntity
  8
AM_5
100
AcDbLine
 10
144.1021845027787
 20
197.3771339889449
 30
0.0
 11
144.1021845027787
 21
167.9074788689447
 31
0.0
  0
LINE
  5
230C
330
DDF
100
AcDbEntity
  8
AM_5
100
AcDbLine
 10
108.1021845027787
 20
169.4074788689446
 30
0.0
 11
141.1021845027787
 21
169.4074788689446
 31
0.0
  0
SOLID
  5
230D
330
DDF
100
AcDbEntity
  8
AM_5
100
AcDbTrace
 10
108.1021845027787
 20
169.9074788689447
 30
0.0
 11
108.1021845027787
 21
168.9074788689447
 31
0.0
 12
105.1021845027787
 22
169.4074788689446
 32
0.0
 13
105.1021845027787
 23
169.4074788689446
 33
0.0
  0
SOLID
  5
230E
330
DDF
100
AcDbEntity
  8
AM_5
100
AcDbTrace
 10
141.1021845027787
 20
169.9074788689447
 30
0.0
 11
141.1021845027787
 21
168.9074788689447
 31
0.0
 12
144.1021845027787
 22
169.4074788689446
 32
0.0
 13
144.1021845027787
 23
169.4074788689446
 33
0.0
  0
MTEXT
  5
230F
330
DDF
100
AcDbEntity
  8
AM_5
100
AcDbMText
 10
124.6021845027787
 20
171.8574788689446
 30
0.0
 40
3.5
 41
0.0
 71
     5
 72
     1
  1
Z
 73
     1
 44
1.0
1001
ACAD
1000
MTEXTBEGIN
1070
    73
1070
     1
1070
    44
1040
1.0
1070
    74
1070
     0
1000
MTEXTEND
  0
POINT
  5
2310
330
DDF
100
AcDbEntity
  8
Defpoints
 62
     0
100
AcDbPoint
 10
105.1021845027787
 20
202.3771339889449
 30
0.0
  0
POINT
  5
2311
330
DDF
100
AcDbEntity
  8
Defpoints
 62
     0
100
AcDbPoint
 10
144.1021845027787
 20
198.3771339889448
 30
0.0
  0
POINT
  5
2312
330
DDF
100
AcDbEntity
  8
Defpoints
 62
     0
100
AcDbPoint
 10
144.1021845027787
 20
169.4074788689446
 30
0.0
  0
ENDBLK
  5
DEA
330
DDF
100
AcDbEntity
  8
0
100
AcDbBlockEnd
  0
BLOCK
  5
E0F
330
E05
100
AcDbEntity
  8
0
100
AcDbBlockBegin
  2
*D6
 70
     1
 10
0.0
 20
0.0
 30
0.0
  3
*D6
  1

  0
LINE
  5
21EE
330
E05
100
AcDbEntity
  8
AM_5
100
AcDbLine
 10
145.1021845027787
 20
198.3771339889448
 30
0.0
 11
157.6021845027787
 21
198.3771339889448
 31
0.0
  0
LINE
  5
21EF
330
E05
100
AcDbEntity
  8
AM_5
100
AcDbLine
 10
145.1021845027787
 20
210.3771339889449
 30
0.0
 11
157.6021845027787
 21
210.3771339889449
 31
0.0
  0
LINE
  5
21F0
330
E05
100
AcDbEntity
  8
AM_5
100
AcDbLine
 10
156.1021845027787
 20
201.3771339889449
 30
0.0
 11
156.1021845027787
 21
207.3771339889449
 31
0.0
  0
LINE
  5
21F1
330
E05
100
AcDbEntity
  8
AM_5
100
AcDbLine
 10
156.1021845027787
 20
210.3771339889449
 30
0.0
 11
156.1021845027787
 21
227.627711165451
 31
0.0
  0
SOLID
  5
21F2
330
E05
100
AcDbEntity
  8
AM_5
100
AcDbTrace
 10
155.6021845027787
 20
201.3771339889449
 30
0.0
 11
156.6021845027787
 21
201.3771339889449
 31
0.0
 12
156.1021845027787
 22
198.3771339889448
 32
0.0
 13
156.1021845027787
 23
198.3771339889448
 33
0.0
  0
SOLID
  5
21F3
330
E05
100
AcDbEntity
  8
AM_5
100
AcDbTrace
 10
155.6021845027787
 20
207.3771339889449
 30
0.0
 11
156.6021845027787
 21
207.3771339889449
 31
0.0
 12
156.1021845027787
 22
210.3771339889449
 32
0.0
 13
156.1021845027787
 23
210.3771339889449
 33
0.0
  0
MTEXT
  5
21F4
330
E05
100
AcDbEntity
  8
AM_5
100
AcDbMText
 10
153.6518400145897
 20
220.502422577198
 30
0.0
 40
3.5
 41
0.0
 71
     5
 72
     1
  1
%%c12{}{\C5; d9}
 11
0.0000000000000001
 21
1.0
 31
0.0
 73
     1
 44
1.0
1001
ACAD
1000
MTEXTBEGIN
1070
    73
1070
     1
1070
    44
1040
1.0
1070
    74
1070
     0
1000
MTEXTEND
  0
POINT
  5
21F5
330
E05
100
AcDbEntity
  8
Defpoints
 62
     0
100
AcDbPoint
 10
144.1021845027787
 20
198.3771339889448
 30
0.0
  0
POINT
  5
21F6
330
E05
100
AcDbEntity
  8
Defpoints
 62
     0
100
AcDbPoint
 10
144.1021845027787
 20
210.3771339889449
 30
0.0
  0
POINT
  5
21F7
330
E05
100
AcDbEntity
  8
Defpoints
 62
     0
100
AcDbPoint
 10
156.1021845027787
 20
210.3771339889449
 30
0.0
  0
ENDBLK
  5
E10
330
E05
100
AcDbEntity
  8
0
100
AcDbBlockEnd
  0
BLOCK
  5
E37
330
E2B
100
AcDbEntity
  8
0
100
AcDbBlockBegin
  2
*D7
 70
     1
 10
0.0
 20
0.0
 30
0.0
  3
*D7
  1

  0
LINE
  5
21F8
330
E2B
100
AcDbEntity
  8
AM_5
100
AcDbLine
 10
117.1021845027787
 20
197.0771339869307
 30
0.0
 11
117.1021845027787
 21
183.9074788689447
 31
0.0
  0
LINE
  5
21F9
330
E2B
100
AcDbEntity
  8
AM_5
100
AcDbLine
 10
138.1021845027787
 20
197.3771339889449
 30
0.0
 11
138.1021845027787
 21
183.9074788689447
 31
0.0
  0
LINE
  5
21FA
330
E2B
100
AcDbEntity
  8
AM_5
100
AcDbLine
 10
120.1021845027787
 20
185.4074788689447
 30
0.0
 11
135.1021845027787
 21
185.4074788689447
 31
0.0
  0
SOLID
  5
21FB
330
E2B
100
AcDbEntity
  8
AM_5
100
AcDbTrace
 10
120.1021845027787
 20
185.9074788689446
 30
0.0
 11
120.1021845027787
 21
184.9074788689446
 31
0.0
 12
117.1021845027787
 22
185.4074788689447
 32
0.0
 13
117.1021845027787
 23
185.4074788689447
 33
0.0
  0
SOLID
  5
21FC
330
E2B
100
AcDbEntity
  8
AM_5
100
AcDbTrace
 10
135.1021845027787
 20
185.9074788689446
 30
0.0
 11
135.1021845027787
 21
184.9074788689446
 31
0.0
 12
138.1021845027787
 22
185.4074788689447
 32
0.0
 13
138.1021845027787
 23
185.4074788689447
 33
0.0
  0
MTEXT
  5
21FD
330
E2B
100
AcDbEntity
  8
AM_5
100
AcDbMText
 10
127.6021845027787
 20
187.8574788689446
 30
0.0
 40
3.5
 41
0.0
 71
     5
 72
     1
  1
F
 73
     1
 44
1.0
1001
ACAD
1000
MTEXTBEGIN
1070
    73
1070
     1
1070
    44
1040
1.0
1070
    74
1070
     0
1000
MTEXTEND
  0
POINT
  5
21FE
330
E2B
100
AcDbEntity
  8
Defpoints
 62
     0
100
AcDbPoint
 10
117.1021845027787
 20
198.0771339869307
 30
0.0
  0
POINT
  5
21FF
330
E2B
100
AcDbEntity
  8
Defpoints
 62
     0
100
AcDbPoint
 10
138.1021845027787
 20
198.3771339889448
 30
0.0
  0
POINT
  5
2200
330
E2B
100
AcDbEntity
  8
Defpoints
 62
     0
100
AcDbPoint
 10
138.1021845027787
 20
185.4074788689447
 30
0.0
  0
ENDBLK
  5
E38
330
E2B
100
AcDbEntity
  8
0
100
AcDbBlockEnd
  0
BLOCK
  5
E9A
330
E8E
100
AcDbEntity
  8
0
100
AcDbBlockBegin
  2
*D8
 70
     1
 10
0.0
 20
0.0
 30
0.0
  3
*D8
  1

  0
LINE
  5
2201
330
E8E
100
AcDbEntity
  8
AM_5
100
AcDbLine
 10
104.6021845027787
 20
206.3771339889449
 30
0.0
 11
98.46072802762671
 21
206.3771339889449
 31
0.0
  0
LINE
  5
2202
330
E8E
100
AcDbEntity
  8
AM_5
100
AcDbLine
 10
104.6021845027787
 20
202.3771339889449
 30
0.0
 11
98.46072802762671
 21
202.3771339889449
 31
0.0
  0
LINE
  5
2203
330
E8E
100
AcDbEntity
  8
AM_5
100
AcDbLine
 10
99.96072802762672
 20
209.3771339889449
 30
0.0
 11
99.96072802762672
 21
212.3771339889449
 31
0.0
  0
LINE
  5
2204
330
E8E
100
AcDbEntity
  8
AM_5
100
AcDbLine
 10
99.96072802762672
 20
199.3771339889448
 30
0.0
 11
99.96072802762672
 21
190.0771339889448
 31
0.0
  0
LINE
  5
2205
330
E8E
100
AcDbEntity
  8
AM_5
100
AcDbLine
 10
99.96072802762672
 20
206.3771339889449
 30
0.0
 11
99.96072802762672
 21
202.3771339889449
 31
0.0
  0
SOLID
  5
2206
330
E8E
100
AcDbEntity
  8
AM_5
100
AcDbTrace
 10
99.46072802762671
 20
209.3771339889449
 30
0.0
 11
100.4607280276267
 21
209.3771339889449
 31
0.0
 12
99.96072802762672
 22
206.3771339889449
 32
0.0
 13
99.96072802762672
 23
206.3771339889449
 33
0.0
  0
SOLID
  5
2207
330
E8E
100
AcDbEntity
  8
AM_5
100
AcDbTrace
 10
99.46072802762671
 20
199.3771339889448
 30
0.0
 11
100.4607280276267
 21
199.3771339889448
 31
0.0
 12
99.96072802762672
 22
202.3771339889449
 32
0.0
 13
99.96072802762672
 23
202.3771339889449
 33
0.0
  0
MTEXT
  5
2208
330
E8E
100
AcDbEntity
  8
AM_5
100
AcDbMText
 10
97.51072802762669
 20
193.2271339889449
 30
0.0
 40
3.5
 41
0.0
 71
     5
 72
     1
  1
%%c4
 11
0.0000000000000001
 21
1.0
 31
0.0
 73
     1
 44
1.0
1001
ACAD
1000
MTEXTBEGIN
1070
    73
1070
     1
1070
    44
1040
1.0
1070
    74
1070
     0
1000
MTEXTEND
  0
POINT
  5
2209
330
E8E
100
AcDbEntity
  8
Defpoints
 62
     0
100
AcDbPoint
 10
105.6021845027787
 20
206.3771339889449
 30
0.0
  0
POINT
  5
220A
330
E8E
100
AcDbEntity
  8
Defpoints
 62
     0
100
AcDbPoint
 10
105.6021845027787
 20
202.3771339889449
 30
0.0
  0
POINT
  5
220B
330
E8E
100
AcDbEntity
  8
Defpoints
 62
     0
100
AcDbPoint
 10
99.96072802762672
 20
202.3771339889449
 30
0.0
  0
ENDBLK
  5
E9B
330
E8E
100
AcDbEntity
  8
0
100
AcDbBlockEnd
  0
BLOCK
  5
F78
330
F6D
100
AcDbEntity
  8
0
100
AcDbBlockBegin
  2
*D9
 70
     1
 10
0.0
 20
0.0
 30
0.0
  3
*D9
  1

  0
LINE
  5
2165
330
F6D
100
AcDbEntity
  8
AM_5
100
AcDbLine
 10
145.1021845027787
 20
116.6820107619084
 30
0.0
 11
157.6021845027787
 21
116.6820107619084
 31
0.0
  0
LINE
  5
2166
330
F6D
100
AcDbEntity
  8
AM_5
100
AcDbLine
 10
145.1021845027787
 20
128.6820107619084
 30
0.0
 11
157.6021845027787
 21
128.6820107619084
 31
0.0
  0
LINE
  5
2167
330
F6D
100
AcDbEntity
  8
AM_5
100
AcDbLine
 10
156.1021845027787
 20
119.6820107619084
 30
0.0
 11
156.1021845027787
 21
125.6820107619084
 31
0.0
  0
LINE
  5
2168
330
F6D
100
AcDbEntity
  8
AM_5
100
AcDbLine
 10
156.1021845027787
 20
128.6820107619084
 30
0.0
 11
156.1021845027787
 21
145.9325879384145
 31
0.0
  0
SOLID
  5
2169
330
F6D
100
AcDbEntity
  8
AM_5
100
AcDbTrace
 10
155.6021845027787
 20
119.6820107619084
 30
0.0
 11
156.6021845027787
 21
119.6820107619084
 31
0.0
 12
156.1021845027787
 22
116.6820107619084
 32
0.0
 13
156.1021845027787
 23
116.6820107619084
 33
0.0
  0
SOLID
  5
216A
330
F6D
100
AcDbEntity
  8
AM_5
100
AcDbTrace
 10
155.6021845027787
 20
125.6820107619084
 30
0.0
 11
156.6021845027787
 21
125.6820107619084
 31
0.0
 12
156.1021845027787
 22
128.6820107619084
 32
0.0
 13
156.1021845027787
 23
128.6820107619084
 33
0.0
  0
MTEXT
  5
216B
330
F6D
100
AcDbEntity
  8
AM_5
100
AcDbMText
 10
153.6518400145897
 20
138.8072993501615
 30
0.0
 40
3.5
 41
0.0
 71
     5
 72
     1
  1
%%c12{}{\C5; d9}
 11
0.0000000000000001
 21
1.0
 31
0.0
 73
     1
 44
1.0
1001
ACAD
1000
MTEXTBEGIN
1070
    73
1070
     1
1070
    44
1040
1.0
1070
    74
1070
     0
1000
MTEXTEND
  0
POINT
  5
216C
330
F6D
100
AcDbEntity
  8
Defpoints
 62
     0
100
AcDbPoint
 10
144.1021845027787
 20
116.6820107619084
 30
0.0
  0
POINT
  5
216D
330
F6D
100
AcDbEntity
  8
Defpoints
 62
     0
100
AcDbPoint
 10
144.1021845027787
 20
128.6820107619084
 30
0.0
  0
POINT
  5
216E
330
F6D
100
AcDbEntity
  8
Defpoints
 62
     0
100
AcDbPoint
 10
156.1021845027787
 20
128.6820107619084
 30
0.0
  0
ENDBLK
  5
F79
330
F6D
100
AcDbEntity
  8
0
100
AcDbBlockEnd
  0
BLOCK
  5
F90
330
F86
100
AcDbEntity
  8
0
100
AcDbBlockBegin
  2
*D10
 70
     1
 10
0.0
 20
0.0
 30
0.0
  3
*D10
  1

  0
LINE
  5
214A
330
F86
100
AcDbEntity
  8
AM_5
100
AcDbLine
 10
105.1021845027787
 20
120.1820107619084
 30
0.0
 11
105.1021845027787
 21
94.21235564190842
 31
0.0
  0
LINE
  5
214B
330
F86
100
AcDbEntity
  8
AM_5
100
AcDbLine
 10
117.1021845027787
 20
115.3820107598942
 30
0.0
 11
117.1021845027787
 21
94.21235564190842
 31
0.0
  0
LINE
  5
214C
330
F86
100
AcDbEntity
  8
AM_5
100
AcDbLine
 10
108.1021845027787
 20
95.71235564190843
 30
0.0
 11
114.1021845027787
 21
95.71235564190843
 31
0.0
  0
SOLID
  5
214D
330
F86
100
AcDbEntity
  8
AM_5
100
AcDbTrace
 10
108.1021845027787
 20
96.21235564190843
 30
0.0
 11
108.1021845027787
 21
95.21235564190844
 31
0.0
 12
105.1021845027787
 22
95.71235564190843
 32
0.0
 13
105.1021845027787
 23
95.71235564190843
 33
0.0
  0
SOLID
  5
214E
330
F86
100
AcDbEntity
  8
AM_5
100
AcDbTrace
 10
114.1021845027787
 20
96.21235564190843
 30
0.0
 11
114.1021845027787
 21
95.21235564190844
 31
0.0
 12
117.1021845027787
 22
95.71235564190843
 32
0.0
 13
117.1021845027787
 23
95.71235564190843
 33
0.0
  0
MTEXT
  5
214F
330
F86
100
AcDbEntity
  8
AM_5
100
AcDbMText
 10
111.1021845027787
 20
98.16270013009742
 30
0.0
 40
3.5
 41
0.0
 71
     5
 72
     1
  1
12
 73
     1
 44
1.0
1001
ACAD
1000
MTEXTBEGIN
1070
    73
1070
     1
1070
    44
1040
1.0
1070
    74
1070
     0
1000
MTEXTEND
  0
POINT
  5
2150
330
F86
100
AcDbEntity
  8
Defpoints
 62
     0
100
AcDbPoint
 10
105.1021845027787
 20
121.1820107619084
 30
0.0
  0
POINT
  5
2151
330
F86
100
AcDbEntity
  8
Defpoints
 62
     0
100
AcDbPoint
 10
117.1021845027787
 20
116.3820107598942
 30
0.0
  0
POINT
  5
2152
330
F86
100
AcDbEntity
  8
Defpoints
 62
     0
100
AcDbPoint
 10
117.1021845027787
 20
95.71235564190843
 30
0.0
  0
ENDBLK
  5
F91
330
F86
100
AcDbEntity
  8
0
100
AcDbBlockEnd
  0
BLOCK
  5
F9C
330
F92
100
AcDbEntity
  8
0
100
AcDbBlockBegin
  2
*D11
 70
     1
 10
0.0
 20
0.0
 30
0.0
  3
*D11
  1

  0
LINE
  5
2153
330
F92
100
AcDbEntity
  8
AM_5
100
AcDbLine
 10
117.1021845027787
 20
115.3820107598942
 30
0.0
 11
117.1021845027787
 21
94.21235564190846
 31
0.0
  0
LINE
  5
2154
330
F92
100
AcDbEntity
  8
AM_5
100
AcDbLine
 10
144.1021845027787
 20
115.6820107619084
 30
0.0
 11
144.1021845027787
 21
94.21235564190846
 31
0.0
  0
LINE
  5
2155
330
F92
100
AcDbEntity
  8
AM_5
100
AcDbLine
 10
120.1021845027787
 20
95.71235564190846
 30
0.0
 11
141.1021845027787
 21
95.71235564190846
 31
0.0
  0
SOLID
  5
2156
330
F92
100
AcDbEntity
  8
AM_5
100
AcDbTrace
 10
120.1021845027787
 20
96.21235564190847
 30
0.0
 11
120.1021845027787
 21
95.21235564190845
 31
0.0
 12
117.1021845027787
 22
95.71235564190846
 32
0.0
 13
117.1021845027787
 23
95.71235564190846
 33
0.0
  0
SOLID
  5
2157
330
F92
100
AcDbEntity
  8
AM_5
100
AcDbTrace
 10
141.1021845027787
 20
96.21235564190847
 30
0.0
 11
141.1021845027787
 21
95.21235564190845
 31
0.0
 12
144.1021845027787
 22
95.71235564190846
 32
0.0
 13
144.1021845027787
 23
95.71235564190846
 33
0.0
  0
MTEXT
  5
2158
330
F92
100
AcDbEntity
  8
AM_5
100
AcDbMText
 10
130.6021845027787
 20
98.16235564190847
 30
0.0
 40
3.5
 41
0.0
 71
     5
 72
     1
  1
S
 73
     1
 44
1.0
1001
ACAD
1000
MTEXTBEGIN
1070
    73
1070
     1
1070
    44
1040
1.0
1070
    74
1070
     0
1000
MTEXTEND
  0
POINT
  5
2159
330
F92
100
AcDbEntity
  8
Defpoints
 62
     0
100
AcDbPoint
 10
117.1021845027787
 20
116.3820107598942
 30
0.0
  0
POINT
  5
215A
330
F92
100
AcDbEntity
  8
Defpoints
 62
     0
100
AcDbPoint
 10
144.1021845027787
 20
116.6820107619084
 30
0.0
  0
POINT
  5
215B
330
F92
100
AcDbEntity
  8
Defpoints
 62
     0
100
AcDbPoint
 10
144.1021845027787
 20
95.71235564190846
 30
0.0
  0
ENDBLK
  5
F9D
330
F92
100
AcDbEntity
  8
0
100
AcDbBlockEnd
  0
BLOCK
  5
FA8
330
F9E
100
AcDbEntity
  8
0
100
AcDbBlockBegin
  2
*D12
 70
     1
 10
0.0
 20
0.0
 30
0.0
  3
*D12
  1

  0
LINE
  5
215C
330
F9E
100
AcDbEntity
  8
AM_5
100
AcDbLine
 10
105.1021845027787
 20
120.1820107619084
 30
0.0
 11
105.1021845027787
 21
86.21235564190845
 31
0.0
  0
LINE
  5
215D
330
F9E
100
AcDbEntity
  8
AM_5
100
AcDbLine
 10
144.1021845027787
 20
115.6820107619084
 30
0.0
 11
144.1021845027787
 21
86.21235564190845
 31
0.0
  0
LINE
  5
215E
330
F9E
100
AcDbEntity
  8
AM_5
100
AcDbLine
 10
108.1021845027787
 20
87.71235564190845
 30
0.0
 11
141.1021845027787
 21
87.71235564190845
 31
0.0
  0
SOLID
  5
215F
330
F9E
100
AcDbEntity
  8
AM_5
100
AcDbTrace
 10
108.1021845027787
 20
88.21235564190846
 30
0.0
 11
108.1021845027787
 21
87.21235564190847
 31
0.0
 12
105.1021845027787
 22
87.71235564190845
 32
0.0
 13
105.1021845027787
 23
87.71235564190845
 33
0.0
  0
SOLID
  5
2160
330
F9E
100
AcDbEntity
  8
AM_5
100
AcDbTrace
 10
141.1021845027787
 20
88.21235564190846
 30
0.0
 11
141.1021845027787
 21
87.21235564190847
 31
0.0
 12
144.1021845027787
 22
87.71235564190845
 32
0.0
 13
144.1021845027787
 23
87.71235564190845
 33
0.0
  0
MTEXT
  5
2161
330
F9E
100
AcDbEntity
  8
AM_5
100
AcDbMText
 10
124.6021845027787
 20
90.16235564190846
 30
0.0
 40
3.5
 41
0.0
 71
     5
 72
     1
  1
Z
 73
     1
 44
1.0
1001
ACAD
1000
MTEXTBEGIN
1070
    73
1070
     1
1070
    44
1040
1.0
1070
    74
1070
     0
1000
MTEXTEND
  0
POINT
  5
2162
330
F9E
100
AcDbEntity
  8
Defpoints
 62
     0
100
AcDbPoint
 10
105.1021845027787
 20
121.1820107619084
 30
0.0
  0
POINT
  5
2163
330
F9E
100
AcDbEntity
  8
Defpoints
 62
     0
100
AcDbPoint
 10
144.1021845027787
 20
116.6820107619084
 30
0.0
  0
POINT
  5
2164
330
F9E
100
AcDbEntity
  8
Defpoints
 62
     0
100
AcDbPoint
 10
144.1021845027787
 20
87.71235564190845
 30
0.0
  0
ENDBLK
  5
FA9
330
F9E
100
AcDbEntity
  8
0
100
AcDbBlockEnd
  0
BLOCK
  5
1013
330
1009
100
AcDbEntity
  8
0
100
AcDbBlockBegin
  2
*D13
 70
     1
 10
0.0
 20
0.0
 30
0.0
  3
*D13
  1

  0
LINE
  5
216F
330
1009
100
AcDbEntity
  8
AM_5
100
AcDbLine
 10
71.39773199128516
 20
116.1971832019084
 30
0.0
 11
71.39773199128516
 21
102.2123556419084
 31
0.0
  0
LINE
  5
2170
330
1009
100
AcDbEntity
  8
AM_5
100
AcDbLine
 10
90.39773199128516
 20
116.1971832019084
 30
0.0
 11
90.39773199128516
 21
102.2123556419084
 31
0.0
  0
LINE
  5
2171
330
1009
100
AcDbEntity
  8
AM_5
100
AcDbLine
 10
74.39773199128516
 20
103.7123556419083
 30
0.0
 11
87.39773199128515
 21
103.7123556419083
 31
0.0
  0
SOLID
  5
2172
330
1009
100
AcDbEntity
  8
AM_5
100
AcDbTrace
 10
74.39773199128516
 20
104.2123556419084
 30
0.0
 11
74.39773199128516
 21
103.2123556419084
 31
0.0
 12
71.39773199128516
 22
103.7123556419083
 32
0.0
 13
71.39773199128516
 23
103.7123556419083
 33
0.0
  0
SOLID
  5
2173
330
1009
100
AcDbEntity
  8
AM_5
100
AcDbTrace
 10
87.39773199128515
 20
104.2123556419084
 30
0.0
 11
87.39773199128515
 21
103.2123556419084
 31
0.0
 12
90.39773199128516
 22
103.7123556419083
 32
0.0
 13
90.39773199128516
 23
103.7123556419083
 33
0.0
  0
MTEXT
  5
2174
330
1009
100
AcDbEntity
  8
AM_5
100
AcDbMText
 10
80.89773199128515
 20
106.1623556419083
 30
0.0
 40
3.5
 41
0.0
 71
     5
 72
     1
  1
19
 73
     1
 44
1.0
1001
ACAD
1000
MTEXTBEGIN
1070
    73
1070
     1
1070
    44
1040
1.0
1070
    74
1070
     0
1000
MTEXTEND
  0
POINT
  5
2175
330
1009
100
AcDbEntity
  8
Defpoints
 62
     0
100
AcDbPoint
 10
71.39773199128516
 20
117.1971832019084
 30
0.0
  0
POINT
  5
2176
330
1009
100
AcDbEntity
  8
Defpoints
 62
     0
100
AcDbPoint
 10
90.39773199128516
 20
117.1971832019084
 30
0.0
  0
POINT
  5
2177
330
1009
100
AcDbEntity
  8
Defpoints
 62
     0
100
AcDbPoint
 10
90.39773199128516
 20
103.7123556419083
 30
0.0
  0
ENDBLK
  5
1014
330
1009
100
AcDbEntity
  8
0
100
AcDbBlockEnd
  0
BLOCK
  5
10B7
330
10AD
100
AcDbEntity
  8
0
100
AcDbBlockBegin
  2
*D14
 70
     1
 10
0.0
 20
0.0
 30
0.0
  3
*D14
  1

  0
LINE
  5
2178
330
10AD
100
AcDbEntity
  8
AM_5
100
AcDbLine
 10
105.1021845027787
 20
120.1820107619084
 30
0.0
 11
105.1021845027787
 21
102.2123556419084
 31
0.0
  0
LINE
  5
2179
330
10AD
100
AcDbEntity
  8
AM_5
100
AcDbLine
 10
115.1021845027787
 20
119.6820107619084
 30
0.0
 11
115.1021845027787
 21
102.2123556419084
 31
0.0
  0
LINE
  5
217A
330
10AD
100
AcDbEntity
  8
AM_5
100
AcDbLine
 10
108.1021845027787
 20
103.7123556419084
 30
0.0
 11
112.1021845027787
 21
103.7123556419084
 31
0.0
  0
SOLID
  5
217B
330
10AD
100
AcDbEntity
  8
AM_5
100
AcDbTrace
 10
108.1021845027787
 20
104.2123556419084
 30
0.0
 11
108.1021845027787
 21
103.2123556419084
 31
0.0
 12
105.1021845027787
 22
103.7123556419084
 32
0.0
 13
105.1021845027787
 23
103.7123556419084
 33
0.0
  0
SOLID
  5
217C
330
10AD
100
AcDbEntity
  8
AM_5
100
AcDbTrace
 10
112.1021845027787
 20
104.2123556419084
 30
0.0
 11
112.1021845027787
 21
103.2123556419084
 31
0.0
 12
115.1021845027787
 22
103.7123556419084
 32
0.0
 13
115.1021845027787
 23
103.7123556419084
 33
0.0
  0
MTEXT
  5
217D
330
10AD
100
AcDbEntity
  8
AM_5
100
AcDbMText
 10
110.1021845027787
 20
106.1623556419084
 30
0.0
 40
3.5
 41
0.0
 71
     5
 72
     1
  1
10
 73
     1
 44
1.0
1001
ACAD
1000
MTEXTBEGIN
1070
    73
1070
     1
1070
    44
1040
1.0
1070
    74
1070
     0
1000
MTEXTEND
  0
POINT
  5
217E
330
10AD
100
AcDbEntity
  8
Defpoints
 62
     0
100
AcDbPoint
 10
105.1021845027787
 20
121.1820107619084
 30
0.0
  0
POINT
  5
217F
330
10AD
100
AcDbEntity
  8
Defpoints
 62
     0
100
AcDbPoint
 10
115.1021845027787
 20
120.6820107619084
 30
0.0
  0
POINT
  5
2180
330
10AD
100
AcDbEntity
  8
Defpoints
 62
     0
100
AcDbPoint
 10
115.1021845027787
 20
103.7123556419084
 30
0.0
  0
ENDBLK
  5
10B8
330
10AD
100
AcDbEntity
  8
0
100
AcDbBlockEnd
  0
BLOCK
  5
18F3
330
18F1
100
AcDbEntity
  8
0
100
AcDbBlockBegin
  2
A$C5ECF147B
 70
     0
 10
0.0
 20
0.0
 30
0.0
  3
A$C5ECF147B
  1

  0
CIRCLE
  5
18F4
330
18F1
100
AcDbEntity
  8
0
100
AcDbCircle
 10
-3.079240456948355
 20
2.061381943681453
 30
0.0
 40
1.25
  0
CIRCLE
  5
18F5
330
18F1
100
AcDbEntity
  8
0
100
AcDbCircle
 10
-3.079240456948355
 20
2.061381943681453
 30
0.0
 40
0.75
  0
ENDBLK
  5
18F6
330
18F1
100
AcDbEntity
  8
0
100
AcDbBlockEnd
  0
BLOCK
  5
1A22
330
1A18
100
AcDbEntity
  8
0
100
AcDbBlockBegin
  2
*D16
 70
     1
 10
0.0
 20
0.0
 30
0.0
  3
*D16
  1

  0
LINE
  5
2181
330
1A18
100
AcDbEntity
  8
AM_5
100
AcDbLine
 10
117.1021845027787
 20
115.3820107598942
 30
0.0
 11
117.1021845027787
 21
102.2123556419082
 31
0.0
  0
LINE
  5
2182
330
1A18
100
AcDbEntity
  8
AM_5
100
AcDbLine
 10
138.1021845027787
 20
115.6820107619084
 30
0.0
 11
138.1021845027787
 21
102.2123556419082
 31
0.0
  0
LINE
  5
2183
330
1A18
100
AcDbEntity
  8
AM_5
100
AcDbLine
 10
120.1021845027787
 20
103.7123556419082
 30
0.0
 11
135.1021845027787
 21
103.7123556419082
 31
0.0
  0
SOLID
  5
2184
330
1A18
100
AcDbEntity
  8
AM_5
100
AcDbTrace
 10
120.1021845027787
 20
104.2123556419082
 30
0.0
 11
120.1021845027787
 21
103.2123556419082
 31
0.0
 12
117.1021845027787
 22
103.7123556419082
 32
0.0
 13
117.1021845027787
 23
103.7123556419082
 33
0.0
  0
SOLID
  5
2185
330
1A18
100
AcDbEntity
  8
AM_5
100
AcDbTrace
 10
135.1021845027787
 20
104.2123556419082
 30
0.0
 11
135.1021845027787
 21
103.2123556419082
 31
0.0
 12
138.1021845027787
 22
103.7123556419082
 32
0.0
 13
138.1021845027787
 23
103.7123556419082
 33
0.0
  0
MTEXT
  5
2186
330
1A18
100
AcDbEntity
  8
AM_5
100
AcDbMText
 10
127.6021845027787
 20
106.1623556419082
 30
0.0
 40
3.5
 41
0.0
 71
     5
 72
     1
  1
F
 73
     1
 44
1.0
1001
ACAD
1000
MTEXTBEGIN
1070
    73
1070
     1
1070
    44
1040
1.0
1070
    74
1070
     0
1000
MTEXTEND
  0
POINT
  5
2187
330
1A18
100
AcDbEntity
  8
Defpoints
 62
     0
100
AcDbPoint
 10
117.1021845027787
 20
116.3820107598942
 30
0.0
  0
POINT
  5
2188
330
1A18
100
AcDbEntity
  8
Defpoints
 62
     0
100
AcDbPoint
 10
138.1021845027787
 20
116.6820107619084
 30
0.0
  0
POINT
  5
2189
330
1A18
100
AcDbEntity
  8
Defpoints
 62
     0
100
AcDbPoint
 10
138.1021845027787
 20
103.7123556419082
 30
0.0
  0
ENDBLK
  5
1A23
330
1A18
100
AcDbEntity
  8
0
100
AcDbBlockEnd
  0
BLOCK
  5
1AD3
330
1AC9
100
AcDbEntity
  8
0
100
AcDbBlockBegin
  2
*D17
 70
     1
 10
0.0
 20
0.0
 30
0.0
  3
*D17
  1

  0
LINE
  5
2227
330
1AC9
100
AcDbEntity
  8
AM_5
100
AcDbLine
 10
268.4589072511412
 20
197.0771339899165
 30
0.0
 11
268.4589072511412
 21
183.9074788719304
 31
0.0
  0
LINE
  5
2228
330
1AC9
100
AcDbEntity
  8
AM_5
100
AcDbLine
 10
289.4589072511412
 20
197.3771339919306
 30
0.0
 11
289.4589072511412
 21
183.9074788719304
 31
0.0
  0
LINE
  5
2229
330
1AC9
100
AcDbEntity
  8
AM_5
100
AcDbLine
 10
271.4589072511412
 20
185.4074788719304
 30
0.0
 11
286.4589072511412
 21
185.4074788719304
 31
0.0
  0
SOLID
  5
222A
330
1AC9
100
AcDbEntity
  8
AM_5
100
AcDbTrace
 10
271.4589072511412
 20
185.9074788719304
 30
0.0
 11
271.4589072511412
 21
184.9074788719304
 31
0.0
 12
268.4589072511412
 22
185.4074788719304
 32
0.0
 13
268.4589072511412
 23
185.4074788719304
 33
0.0
  0
SOLID
  5
222B
330
1AC9
100
AcDbEntity
  8
AM_5
100
AcDbTrace
 10
286.4589072511412
 20
185.9074788719304
 30
0.0
 11
286.4589072511412
 21
184.9074788719304
 31
0.0
 12
289.4589072511412
 22
185.4074788719304
 32
0.0
 13
289.4589072511412
 23
185.4074788719304
 33
0.0
  0
MTEXT
  5
222C
330
1AC9
100
AcDbEntity
  8
AM_5
100
AcDbMText
 10
278.9589072511412
 20
187.8574788719304
 30
0.0
 40
3.5
 41
0.0
 71
     5
 72
     1
  1
F
 73
     1
 44
1.0
1001
ACAD
1000
MTEXTBEGIN
1070
    73
1070
     1
1070
    44
1040
1.0
1070
    74
1070
     0
1000
MTEXTEND
  0
POINT
  5
222D
330
1AC9
100
AcDbEntity
  8
Defpoints
 62
     0
100
AcDbPoint
 10
268.4589072511412
 20
198.0771339899165
 30
0.0
  0
POINT
  5
222E
330
1AC9
100
AcDbEntity
  8
Defpoints
 62
     0
100
AcDbPoint
 10
289.4589072511412
 20
198.3771339919306
 30
0.0
  0
POINT
  5
222F
330
1AC9
100
AcDbEntity
  8
Defpoints
 62
     0
100
AcDbPoint
 10
289.4589072511412
 20
185.4074788719304
 30
0.0
  0
ENDBLK
  5
1AD4
330
1AC9
100
AcDbEntity
  8
0
100
AcDbBlockEnd
  0
BLOCK
  5
1AE1
330
1AD5
100
AcDbEntity
  8
0
100
AcDbBlockBegin
  2
*D18
 70
     1
 10
0.0
 20
0.0
 30
0.0
  3
*D18
  1

  0
LINE
  5
2230
330
1AD5
100
AcDbEntity
  8
AM_5
100
AcDbLine
 10
255.9589072511412
 20
206.3771339919306
 30
0.0
 11
249.8174507759892
 21
206.3771339919306
 31
0.0
  0
LINE
  5
2231
330
1AD5
100
AcDbEntity
  8
AM_5
100
AcDbLine
 10
255.9589072511412
 20
202.3771339919306
 30
0.0
 11
249.8174507759892
 21
202.3771339919306
 31
0.0
  0
LINE
  5
2232
330
1AD5
100
AcDbEntity
  8
AM_5
100
AcDbLine
 10
251.3174507759892
 20
209.3771339919307
 30
0.0
 11
251.3174507759892
 21
212.3771339919306
 31
0.0
  0
LINE
  5
2233
330
1AD5
100
AcDbEntity
  8
AM_5
100
AcDbLine
 10
251.3174507759892
 20
199.3771339919306
 30
0.0
 11
251.3174507759892
 21
190.0771339919306
 31
0.0
  0
LINE
  5
2234
330
1AD5
100
AcDbEntity
  8
AM_5
100
AcDbLine
 10
251.3174507759892
 20
206.3771339919306
 30
0.0
 11
251.3174507759892
 21
202.3771339919306
 31
0.0
  0
SOLID
  5
2235
330
1AD5
100
AcDbEntity
  8
AM_5
100
AcDbTrace
 10
250.8174507759892
 20
209.3771339919307
 30
0.0
 11
251.8174507759892
 21
209.3771339919307
 31
0.0
 12
251.3174507759892
 22
206.3771339919306
 32
0.0
 13
251.3174507759892
 23
206.3771339919306
 33
0.0
  0
SOLID
  5
2236
330
1AD5
100
AcDbEntity
  8
AM_5
100
AcDbTrace
 10
250.8174507759892
 20
199.3771339919306
 30
0.0
 11
251.8174507759892
 21
199.3771339919306
 31
0.0
 12
251.3174507759892
 22
202.3771339919306
 32
0.0
 13
251.3174507759892
 23
202.3771339919306
 33
0.0
  0
MTEXT
  5
2237
330
1AD5
100
AcDbEntity
  8
AM_5
100
AcDbMText
 10
248.8674507759891
 20
193.2271339919307
 30
0.0
 40
3.5
 41
0.0
 71
     5
 72
     1
  1
%%c4
 11
0.0000000000000001
 21
1.0
 31
0.0
 73
     1
 44
1.0
1001
ACAD
1000
MTEXTBEGIN
1070
    73
1070
     1
1070
    44
1040
1.0
1070
    74
1070
     0
1000
MTEXTEND
  0
POINT
  5
2238
330
1AD5
100
AcDbEntity
  8
Defpoints
 62
     0
100
AcDbPoint
 10
256.9589072511412
 20
206.3771339919306
 30
0.0
  0
POINT
  5
2239
330
1AD5
100
AcDbEntity
  8
Defpoints
 62
     0
100
AcDbPoint
 10
256.9589072511412
 20
202.3771339919306
 30
0.0
  0
POINT
  5
223A
330
1AD5
100
AcDbEntity
  8
Defpoints
 62
     0
100
AcDbPoint
 10
251.3174507759892
 20
202.3771339919306
 30
0.0
  0
ENDBLK
  5
1AE2
330
1AD5
100
AcDbEntity
  8
0
100
AcDbBlockEnd
  0
BLOCK
  5
1AED
330
1AE3
100
AcDbEntity
  8
0
100
AcDbBlockBegin
  2
*D19
 70
     1
 10
0.0
 20
0.0
 30
0.0
  3
*D19
  1

  0
LINE
  5
220C
330
1AE3
100
AcDbEntity
  8
AM_5
100
AcDbLine
 10
256.4589072511412
 20
201.8771339919307
 30
0.0
 11
256.4589072511412
 21
175.9074788719305
 31
0.0
  0
LINE
  5
220D
330
1AE3
100
AcDbEntity
  8
AM_5
100
AcDbLine
 10
268.4589072511412
 20
197.0771339899165
 30
0.0
 11
268.4589072511412
 21
175.9074788719305
 31
0.0
  0
LINE
  5
220E
330
1AE3
100
AcDbEntity
  8
AM_5
100
AcDbLine
 10
259.4589072511412
 20
177.4074788719304
 30
0.0
 11
265.4589072511412
 21
177.4074788719304
 31
0.0
  0
SOLID
  5
220F
330
1AE3
100
AcDbEntity
  8
AM_5
100
AcDbTrace
 10
259.4589072511412
 20
177.9074788719304
 30
0.0
 11
259.4589072511412
 21
176.9074788719304
 31
0.0
 12
256.4589072511412
 22
177.4074788719304
 32
0.0
 13
256.4589072511412
 23
177.4074788719304
 33
0.0
  0
SOLID
  5
2210
330
1AE3
100
AcDbEntity
  8
AM_5
100
AcDbTrace
 10
265.4589072511412
 20
177.9074788719304
 30
0.0
 11
265.4589072511412
 21
176.9074788719304
 31
0.0
 12
268.4589072511412
 22
177.4074788719304
 32
0.0
 13
268.4589072511412
 23
177.4074788719304
 33
0.0
  0
MTEXT
  5
2211
330
1AE3
100
AcDbEntity
  8
AM_5
100
AcDbMText
 10
262.4589072511412
 20
179.8578233601194
 30
0.0
 40
3.5
 41
0.0
 71
     5
 72
     1
  1
12
 73
     1
 44
1.0
1001
ACAD
1000
MTEXTBEGIN
1070
    73
1070
     1
1070
    44
1040
1.0
1070
    74
1070
     0
1000
MTEXTEND
  0
POINT
  5
2212
330
1AE3
100
AcDbEntity
  8
Defpoints
 62
     0
100
AcDbPoint
 10
256.4589072511412
 20
202.8771339919307
 30
0.0
  0
POINT
  5
2213
330
1AE3
100
AcDbEntity
  8
Defpoints
 62
     0
100
AcDbPoint
 10
268.4589072511412
 20
198.0771339899165
 30
0.0
  0
POINT
  5
2214
330
1AE3
100
AcDbEntity
  8
Defpoints
 62
     0
100
AcDbPoint
 10
268.4589072511412
 20
177.4074788719304
 30
0.0
  0
ENDBLK
  5
1AEE
330
1AE3
100
AcDbEntity
  8
0
100
AcDbBlockEnd
  0
BLOCK
  5
1AF9
330
1AEF
100
AcDbEntity
  8
0
100
AcDbBlockBegin
  2
*D20
 70
     1
 10
0.0
 20
0.0
 30
0.0
  3
*D20
  1

  0
LINE
  5
2215
330
1AEF
100
AcDbEntity
  8
AM_5
100
AcDbLine
 10
268.4589072511412
 20
197.0771339899165
 30
0.0
 11
268.4589072511412
 21
175.9074788719305
 31
0.0
  0
LINE
  5
2216
330
1AEF
100
AcDbEntity
  8
AM_5
100
AcDbLine
 10
295.4589072511412
 20
197.3771339919306
 30
0.0
 11
295.4589072511412
 21
175.9074788719305
 31
0.0
  0
LINE
  5
2217
330
1AEF
100
AcDbEntity
  8
AM_5
100
AcDbLine
 10
271.4589072511412
 20
177.4074788719304
 30
0.0
 11
292.4589072511412
 21
177.4074788719304
 31
0.0
  0
SOLID
  5
2218
330
1AEF
100
AcDbEntity
  8
AM_5
100
AcDbTrace
 10
271.4589072511412
 20
177.9074788719304
 30
0.0
 11
271.4589072511412
 21
176.9074788719304
 31
0.0
 12
268.4589072511412
 22
177.4074788719304
 32
0.0
 13
268.4589072511412
 23
177.4074788719304
 33
0.0
  0
SOLID
  5
2219
330
1AEF
100
AcDbEntity
  8
AM_5
100
AcDbTrace
 10
292.4589072511412
 20
177.9074788719304
 30
0.0
 11
292.4589072511412
 21
176.9074788719304
 31
0.0
 12
295.4589072511412
 22
177.4074788719304
 32
0.0
 13
295.4589072511412
 23
177.4074788719304
 33
0.0
  0
MTEXT
  5
221A
330
1AEF
100
AcDbEntity
  8
AM_5
100
AcDbMText
 10
281.9589072511412
 20
179.8574788719304
 30
0.0
 40
3.5
 41
0.0
 71
     5
 72
     1
  1
S
 73
     1
 44
1.0
1001
ACAD
1000
MTEXTBEGIN
1070
    73
1070
     1
1070
    44
1040
1.0
1070
    74
1070
     0
1000
MTEXTEND
  0
POINT
  5
221B
330
1AEF
100
AcDbEntity
  8
Defpoints
 62
     0
100
AcDbPoint
 10
268.4589072511412
 20
198.0771339899165
 30
0.0
  0
POINT
  5
221C
330
1AEF
100
AcDbEntity
  8
Defpoints
 62
     0
100
AcDbPoint
 10
295.4589072511412
 20
198.3771339919306
 30
0.0
  0
POINT
  5
221D
330
1AEF
100
AcDbEntity
  8
Defpoints
 62
     0
100
AcDbPoint
 10
295.4589072511412
 20
177.4074788719304
 30
0.0
  0
ENDBLK
  5
1AFA
330
1AEF
100
AcDbEntity
  8
0
100
AcDbBlockEnd
  0
BLOCK
  5
1B05
330
1AFB
100
AcDbEntity
  8
0
100
AcDbBlockBegin
  2
*D21
 70
     1
 10
0.0
 20
0.0
 30
0.0
  3
*D21
  1

  0
LINE
  5
221E
330
1AFB
100
AcDbEntity
  8
AM_5
100
AcDbLine
 10
256.4589072511412
 20
201.8771339919307
 30
0.0
 11
256.4589072511412
 21
167.9074788719304
 31
0.0
  0
LINE
  5
221F
330
1AFB
100
AcDbEntity
  8
AM_5
100
AcDbLine
 10
295.4589072511412
 20
197.3771339919306
 30
0.0
 11
295.4589072511412
 21
167.9074788719304
 31
0.0
  0
LINE
  5
2220
330
1AFB
100
AcDbEntity
  8
AM_5
100
AcDbLine
 10
259.4589072511412
 20
169.4074788719304
 30
0.0
 11
292.4589072511412
 21
169.4074788719304
 31
0.0
  0
SOLID
  5
2221
330
1AFB
100
AcDbEntity
  8
AM_5
100
AcDbTrace
 10
259.4589072511412
 20
169.9074788719304
 30
0.0
 11
259.4589072511412
 21
168.9074788719304
 31
0.0
 12
256.4589072511412
 22
169.4074788719304
 32
0.0
 13
256.4589072511412
 23
169.4074788719304
 33
0.0
  0
SOLID
  5
2222
330
1AFB
100
AcDbEntity
  8
AM_5
100
AcDbTrace
 10
292.4589072511412
 20
169.9074788719304
 30
0.0
 11
292.4589072511412
 21
168.9074788719304
 31
0.0
 12
295.4589072511412
 22
169.4074788719304
 32
0.0
 13
295.4589072511412
 23
169.4074788719304
 33
0.0
  0
MTEXT
  5
2223
330
1AFB
100
AcDbEntity
  8
AM_5
100
AcDbMText
 10
275.9589072511412
 20
171.8574788719304
 30
0.0
 40
3.5
 41
0.0
 71
     5
 72
     1
  1
Z
 73
     1
 44
1.0
1001
ACAD
1000
MTEXTBEGIN
1070
    73
1070
     1
1070
    44
1040
1.0
1070
    74
1070
     0
1000
MTEXTEND
  0
POINT
  5
2224
330
1AFB
100
AcDbEntity
  8
Defpoints
 62
     0
100
AcDbPoint
 10
256.4589072511412
 20
202.8771339919307
 30
0.0
  0
POINT
  5
2225
330
1AFB
100
AcDbEntity
  8
Defpoints
 62
     0
100
AcDbPoint
 10
295.4589072511412
 20
198.3771339919306
 30
0.0
  0
POINT
  5
2226
330
1AFB
100
AcDbEntity
  8
Defpoints
 62
     0
100
AcDbPoint
 10
295.4589072511412
 20
169.4074788719304
 30
0.0
  0
ENDBLK
  5
1B06
330
1AFB
100
AcDbEntity
  8
0
100
AcDbBlockEnd
  0
BLOCK
  5
1B44
330
1B39
100
AcDbEntity
  8
0
100
AcDbBlockBegin
  2
*D22
 70
     1
 10
0.0
 20
0.0
 30
0.0
  3
*D22
  1

  0
LINE
  5
223B
330
1B39
100
AcDbEntity
  8
AM_5
100
AcDbLine
 10
296.4589072511412
 20
198.3771339939448
 30
0.0
 11
308.9589072511412
 21
198.3771339939448
 31
0.0
  0
LINE
  5
223C
330
1B39
100
AcDbEntity
  8
AM_5
100
AcDbLine
 10
296.4589072511412
 20
210.3771339939448
 30
0.0
 11
308.9589072511412
 21
210.3771339939448
 31
0.0
  0
LINE
  5
223D
330
1B39
100
AcDbEntity
  8
AM_5
100
AcDbLine
 10
307.4589072511412
 20
201.3771339939448
 30
0.0
 11
307.4589072511412
 21
207.3771339939448
 31
0.0
  0
LINE
  5
223E
330
1B39
100
AcDbEntity
  8
AM_5
100
AcDbLine
 10
307.4589072511412
 20
210.3771339939448
 30
0.0
 11
307.4589072511412
 21
227.6277111704509
 31
0.0
  0
SOLID
  5
223F
330
1B39
100
AcDbEntity
  8
AM_5
100
AcDbTrace
 10
306.9589072511412
 20
201.3771339939448
 30
0.0
 11
307.9589072511412
 21
201.3771339939448
 31
0.0
 12
307.4589072511412
 22
198.3771339939448
 32
0.0
 13
307.4589072511412
 23
198.3771339939448
 33
0.0
  0
SOLID
  5
2240
330
1B39
100
AcDbEntity
  8
AM_5
100
AcDbTrace
 10
306.9589072511412
 20
207.3771339939448
 30
0.0
 11
307.9589072511412
 21
207.3771339939448
 31
0.0
 12
307.4589072511412
 22
210.3771339939448
 32
0.0
 13
307.4589072511412
 23
210.3771339939448
 33
0.0
  0
MTEXT
  5
2241
330
1B39
100
AcDbEntity
  8
AM_5
100
AcDbMText
 10
305.0085627629522
 20
220.5024225821979
 30
0.0
 40
3.5
 41
0.0
 71
     5
 72
     1
  1
%%c12{}{\C5; d9}
 11
0.0000000000000001
 21
1.0
 31
0.0
 73
     1
 44
1.0
1001
ACAD
1000
MTEXTBEGIN
1070
    73
1070
     1
1070
    44
1040
1.0
1070
    74
1070
     0
1000
MTEXTEND
  0
POINT
  5
2242
330
1B39
100
AcDbEntity
  8
Defpoints
 62
     0
100
AcDbPoint
 10
295.4589072511412
 20
198.3771339939448
 30
0.0
  0
POINT
  5
2243
330
1B39
100
AcDbEntity
  8
Defpoints
 62
     0
100
AcDbPoint
 10
295.4589072511412
 20
210.3771339939448
 30
0.0
  0
POINT
  5
2244
330
1B39
100
AcDbEntity
  8
Defpoints
 62
     0
100
AcDbPoint
 10
307.4589072511412
 20
210.3771339939448
 30
0.0
  0
ENDBLK
  5
1B45
330
1B39
100
AcDbEntity
  8
0
100
AcDbBlockEnd
  0
BLOCK
  5
1BD6
330
1BCC
100
AcDbEntity
  8
0
100
AcDbBlockBegin
  2
*D24
 70
     1
 10
0.0
 20
0.0
 30
0.0
  3
*D24
  1

  0
LINE
  5
2245
330
1BCC
100
AcDbEntity
  8
AM_5
100
AcDbLine
 10
221.5136695903114
 20
197.8923064339448
 30
0.0
 11
221.5136695903114
 21
183.9074788739445
 31
0.0
  0
LINE
  5
2246
330
1BCC
100
AcDbEntity
  8
AM_5
100
AcDbLine
 10
240.5136695903114
 20
197.8923064339448
 30
0.0
 11
240.5136695903114
 21
183.9074788739445
 31
0.0
  0
LINE
  5
2247
330
1BCC
100
AcDbEntity
  8
AM_5
100
AcDbLine
 10
224.5136695903115
 20
185.4074788739445
 30
0.0
 11
237.5136695903115
 21
185.4074788739445
 31
0.0
  0
SOLID
  5
2248
330
1BCC
100
AcDbEntity
  8
AM_5
100
AcDbTrace
 10
224.5136695903115
 20
185.9074788739445
 30
0.0
 11
224.5136695903115
 21
184.9074788739445
 31
0.0
 12
221.5136695903114
 22
185.4074788739445
 32
0.0
 13
221.5136695903114
 23
185.4074788739445
 33
0.0
  0
SOLID
  5
2249
330
1BCC
100
AcDbEntity
  8
AM_5
100
AcDbTrace
 10
237.5136695903115
 20
185.9074788739445
 30
0.0
 11
237.5136695903115
 21
184.9074788739445
 31
0.0
 12
240.5136695903114
 22
185.4074788739445
 32
0.0
 13
240.5136695903114
 23
185.4074788739445
 33
0.0
  0
MTEXT
  5
224A
330
1BCC
100
AcDbEntity
  8
AM_5
100
AcDbMText
 10
231.0136695903115
 20
187.8574788739445
 30
0.0
 40
3.5
 41
0.0
 71
     5
 72
     1
  1
19
 73
     1
 44
1.0
1001
ACAD
1000
MTEXTBEGIN
1070
    73
1070
     1
1070
    44
1040
1.0
1070
    74
1070
     0
1000
MTEXTEND
  0
POINT
  5
224B
330
1BCC
100
AcDbEntity
  8
Defpoints
 62
     0
100
AcDbPoint
 10
221.5136695903114
 20
198.8923064339448
 30
0.0
  0
POINT
  5
224C
330
1BCC
100
AcDbEntity
  8
Defpoints
 62
     0
100
AcDbPoint
 10
240.5136695903114
 20
198.8923064339448
 30
0.0
  0
POINT
  5
224D
330
1BCC
100
AcDbEntity
  8
Defpoints
 62
     0
100
AcDbPoint
 10
240.5136695903114
 20
185.4074788739445
 30
0.0
  0
ENDBLK
  5
1BD7
330
1BCC
100
AcDbEntity
  8
0
100
AcDbBlockEnd
  0
BLOCK
  5
1BEA
330
1BE3
100
AcDbEntity
  8
0
100
AcDbBlockBegin
  2
A$C621A5A01
 70
     0
 10
0.0
 20
0.0
 30
0.0
  3
A$C621A5A01
  1

  0
MTEXT
  5
1BE4
330
1BE3
100
AcDbEntity
  8
AM_5
 62
     5
100
AcDbMText
 10
-12.13961855242681
 20
18.47858258760379
 30
0.0
 40
2.939999999999999
 41
0.0
 71
     7
 72
     5
  1
SL
  7
ACISOTS
 73
     1
 44
1.0
1001
ACAD
1000
MTEXTBEGIN
1070
    73
1070
     1
1070
    44
1040
1.0
1070
    74
1070
     0
1000
MTEXTEND
  0
LINE
  5
1BE5
330
1BE3
100
AcDbEntity
  8
AM_7
  6
ACISOTGB
 62
     2
100
AcDbLine
 10
-2.0
 20
-13.7036092846543
 30
0.0
 11
-2.0
 21
19.27814456860702
 31
0.0
1001
GENIUS_GENOBJ-N-CEN_13
1002
{
1000
OWNER
1000
GEN
1002
}
1001
GENIUS_GENODEF_13
1002
{
1000
HIER
1070
     0
1002
}
1002
{
1000
MANEDIT
1070
     0
1002
}
1002
{
1000
NOSEL
1070
     0
1002
}
1002
{
1000
BEHIND
1070
     0
1002
}
1002
{
1000
OTHER
1070
     0
1002
}
1002
{
1000
REACTOR
1002
}
1001
GENIUS_GENCEN_19
1002
{
1040
3.0
1002
}
  0
LINE
  5
1BE6
330
1BE3
100
AcDbEntity
  8
AM_5
 62
     5
100
AcDbLine
 10
-13.053536598959
 20
17.32622109021917
 30
0.0
 11
-6.200000000000017
 21
17.32622109021917
 31
0.0
  0
TRACE
  5
1BE7
330
1BE3
100
AcDbEntity
  8
AM_5
 62
     5
370
    35
100
AcDbTrace
 10
-6.200000000000017
 20
17.87916157761916
 30
0.0
 11
-6.200000000000017
 21
16.7732806028192
 31
0.0
 12
-2.0
 22
17.32622109021917
 32
0.0
 13
-2.0
 23
17.32622109021917
 33
0.0
  0
ENDBLK
  5
1BEB
330
1BE3
100
AcDbEntity
  8
0
100
AcDbBlockEnd
  0
BLOCK
  5
1C06
330
1BFC
100
AcDbEntity
  8
0
100
AcDbBlockBegin
  2
*D26
 70
     1
 10
0.0
 20
0.0
 30
0.0
  3
*D26
  1

  0
LINE
  5
218A
330
1BFC
100
AcDbEntity
  8
AM_5
100
AcDbLine
 10
256.4589072511412
 20
120.1820107619084
 30
0.0
 11
256.4589072511412
 21
94.21235564190842
 31
0.0
  0
LINE
  5
218B
330
1BFC
100
AcDbEntity
  8
AM_5
100
AcDbLine
 10
268.4589072511412
 20
115.3820107598942
 30
0.0
 11
268.4589072511412
 21
94.21235564190842
 31
0.0
  0
LINE
  5
218C
330
1BFC
100
AcDbEntity
  8
AM_5
100
AcDbLine
 10
259.4589072511412
 20
95.71235564190843
 30
0.0
 11
265.4589072511412
 21
95.71235564190843
 31
0.0
  0
SOLID
  5
218D
330
1BFC
100
AcDbEntity
  8
AM_5
100
AcDbTrace
 10
259.4589072511412
 20
96.21235564190843
 30
0.0
 11
259.4589072511412
 21
95.21235564190844
 31
0.0
 12
256.4589072511412
 22
95.71235564190843
 32
0.0
 13
256.4589072511412
 23
95.71235564190843
 33
0.0
  0
SOLID
  5
218E
330
1BFC
100
AcDbEntity
  8
AM_5
100
AcDbTrace
 10
265.4589072511412
 20
96.21235564190843
 30
0.0
 11
265.4589072511412
 21
95.21235564190844
 31
0.0
 12
268.4589072511412
 22
95.71235564190843
 32
0.0
 13
268.4589072511412
 23
95.71235564190843
 33
0.0
  0
MTEXT
  5
218F
330
1BFC
100
AcDbEntity
  8
AM_5
100
AcDbMText
 10
262.4589072511412
 20
98.16270013009742
 30
0.0
 40
3.5
 41
0.0
 71
     5
 72
     1
  1
12
 73
     1
 44
1.0
1001
ACAD
1000
MTEXTBEGIN
1070
    73
1070
     1
1070
    44
1040
1.0
1070
    74
1070
     0
1000
MTEXTEND
  0
POINT
  5
2190
330
1BFC
100
AcDbEntity
  8
Defpoints
 62
     0
100
AcDbPoint
 10
256.4589072511412
 20
121.1820107619084
 30
0.0
  0
POINT
  5
2191
330
1BFC
100
AcDbEntity
  8
Defpoints
 62
     0
100
AcDbPoint
 10
268.4589072511412
 20
116.3820107598942
 30
0.0
  0
POINT
  5
2192
330
1BFC
100
AcDbEntity
  8
Defpoints
 62
     0
100
AcDbPoint
 10
268.4589072511412
 20
95.71235564190843
 30
0.0
  0
ENDBLK
  5
1C07
330
1BFC
100
AcDbEntity
  8
0
100
AcDbBlockEnd
  0
BLOCK
  5
1C12
330
1C08
100
AcDbEntity
  8
0
100
AcDbBlockBegin
  2
*D27
 70
     1
 10
0.0
 20
0.0
 30
0.0
  3
*D27
  1

  0
LINE
  5
2193
330
1C08
100
AcDbEntity
  8
AM_5
100
AcDbLine
 10
268.4589072511412
 20
115.3820107598942
 30
0.0
 11
268.4589072511412
 21
94.21235564190846
 31
0.0
  0
LINE
  5
2194
330
1C08
100
AcDbEntity
  8
AM_5
100
AcDbLine
 10
295.4589072511412
 20
115.6820107619084
 30
0.0
 11
295.4589072511412
 21
94.21235564190846
 31
0.0
  0
LINE
  5
2195
330
1C08
100
AcDbEntity
  8
AM_5
100
AcDbLine
 10
271.4589072511412
 20
95.71235564190846
 30
0.0
 11
292.4589072511412
 21
95.71235564190846
 31
0.0
  0
SOLID
  5
2196
330
1C08
100
AcDbEntity
  8
AM_5
100
AcDbTrace
 10
271.4589072511412
 20
96.21235564190847
 30
0.0
 11
271.4589072511412
 21
95.21235564190845
 31
0.0
 12
268.4589072511412
 22
95.71235564190846
 32
0.0
 13
268.4589072511412
 23
95.71235564190846
 33
0.0
  0
SOLID
  5
2197
330
1C08
100
AcDbEntity
  8
AM_5
100
AcDbTrace
 10
292.4589072511412
 20
96.21235564190847
 30
0.0
 11
292.4589072511412
 21
95.21235564190845
 31
0.0
 12
295.4589072511412
 22
95.71235564190846
 32
0.0
 13
295.4589072511412
 23
95.71235564190846
 33
0.0
  0
MTEXT
  5
2198
330
1C08
100
AcDbEntity
  8
AM_5
100
AcDbMText
 10
281.9589072511412
 20
98.16235564190847
 30
0.0
 40
3.5
 41
0.0
 71
     5
 72
     1
  1
S
 73
     1
 44
1.0
1001
ACAD
1000
MTEXTBEGIN
1070
    73
1070
     1
1070
    44
1040
1.0
1070
    74
1070
     0
1000
MTEXTEND
  0
POINT
  5
2199
330
1C08
100
AcDbEntity
  8
Defpoints
 62
     0
100
AcDbPoint
 10
268.4589072511412
 20
116.3820107598942
 30
0.0
  0
POINT
  5
219A
330
1C08
100
AcDbEntity
  8
Defpoints
 62
     0
100
AcDbPoint
 10
295.4589072511412
 20
116.6820107619084
 30
0.0
  0
POINT
  5
219B
330
1C08
100
AcDbEntity
  8
Defpoints
 62
     0
100
AcDbPoint
 10
295.4589072511412
 20
95.71235564190846
 30
0.0
  0
ENDBLK
  5
1C13
330
1C08
100
AcDbEntity
  8
0
100
AcDbBlockEnd
  0
BLOCK
  5
1C1E
330
1C14
100
AcDbEntity
  8
0
100
AcDbBlockBegin
  2
*D28
 70
     1
 10
0.0
 20
0.0
 30
0.0
  3
*D28
  1

  0
LINE
  5
219C
330
1C14
100
AcDbEntity
  8
AM_5
100
AcDbLine
 10
256.4589072511412
 20
120.1820107619084
 30
0.0
 11
256.4589072511412
 21
86.21235564190845
 31
0.0
  0
LINE
  5
219D
330
1C14
100
AcDbEntity
  8
AM_5
100
AcDbLine
 10
295.4589072511412
 20
115.6820107619084
 30
0.0
 11
295.4589072511412
 21
86.21235564190845
 31
0.0
  0
LINE
  5
219E
330
1C14
100
AcDbEntity
  8
AM_5
100
AcDbLine
 10
259.4589072511412
 20
87.71235564190845
 30
0.0
 11
292.4589072511412
 21
87.71235564190845
 31
0.0
  0
SOLID
  5
219F
330
1C14
100
AcDbEntity
  8
AM_5
100
AcDbTrace
 10
259.4589072511412
 20
88.21235564190846
 30
0.0
 11
259.4589072511412
 21
87.21235564190847
 31
0.0
 12
256.4589072511412
 22
87.71235564190845
 32
0.0
 13
256.4589072511412
 23
87.71235564190845
 33
0.0
  0
SOLID
  5
21A0
330
1C14
100
AcDbEntity
  8
AM_5
100
AcDbTrace
 10
292.4589072511412
 20
88.21235564190846
 30
0.0
 11
292.4589072511412
 21
87.21235564190847
 31
0.0
 12
295.4589072511412
 22
87.71235564190845
 32
0.0
 13
295.4589072511412
 23
87.71235564190845
 33
0.0
  0
MTEXT
  5
21A1
330
1C14
100
AcDbEntity
  8
AM_5
100
AcDbMText
 10
275.9589072511412
 20
90.16235564190846
 30
0.0
 40
3.5
 41
0.0
 71
     5
 72
     1
  1
Z
 73
     1
 44
1.0
1001
ACAD
1000
MTEXTBEGIN
1070
    73
1070
     1
1070
    44
1040
1.0
1070
    74
1070
     0
1000
MTEXTEND
  0
POINT
  5
21A2
330
1C14
100
AcDbEntity
  8
Defpoints
 62
     0
100
AcDbPoint
 10
256.4589072511412
 20
121.1820107619084
 30
0.0
  0
POINT
  5
21A3
330
1C14
100
AcDbEntity
  8
Defpoints
 62
     0
100
AcDbPoint
 10
295.4589072511412
 20
116.6820107619084
 30
0.0
  0
POINT
  5
21A4
330
1C14
100
AcDbEntity
  8
Defpoints
 62
     0
100
AcDbPoint
 10
295.4589072511412
 20
87.71235564190845
 30
0.0
  0
ENDBLK
  5
1C1F
330
1C14
100
AcDbEntity
  8
0
100
AcDbBlockEnd
  0
BLOCK
  5
1C2B
330
1C20
100
AcDbEntity
  8
0
100
AcDbBlockBegin
  2
*D29
 70
     1
 10
0.0
 20
0.0
 30
0.0
  3
*D29
  1

  0
LINE
  5
21A5
330
1C20
100
AcDbEntity
  8
AM_5
100
AcDbLine
 10
296.4589072511412
 20
116.6820107619084
 30
0.0
 11
308.9589072511412
 21
116.6820107619084
 31
0.0
  0
LINE
  5
21A6
330
1C20
100
AcDbEntity
  8
AM_5
100
AcDbLine
 10
296.4589072511412
 20
128.6820107619084
 30
0.0
 11
308.9589072511412
 21
128.6820107619084
 31
0.0
  0
LINE
  5
21A7
330
1C20
100
AcDbEntity
  8
AM_5
100
AcDbLine
 10
307.4589072511412
 20
119.6820107619084
 30
0.0
 11
307.4589072511412
 21
125.6820107619084
 31
0.0
  0
LINE
  5
21A8
330
1C20
100
AcDbEntity
  8
AM_5
100
AcDbLine
 10
307.4589072511412
 20
128.6820107619084
 30
0.0
 11
307.4589072511412
 21
145.9325879384145
 31
0.0
  0
SOLID
  5
21A9
330
1C20
100
AcDbEntity
  8
AM_5
100
AcDbTrace
 10
306.9589072511412
 20
119.6820107619084
 30
0.0
 11
307.9589072511412
 21
119.6820107619084
 31
0.0
 12
307.4589072511412
 22
116.6820107619084
 32
0.0
 13
307.4589072511412
 23
116.6820107619084
 33
0.0
  0
SOLID
  5
21AA
330
1C20
100
AcDbEntity
  8
AM_5
100
AcDbTrace
 10
306.9589072511412
 20
125.6820107619084
 30
0.0
 11
307.9589072511412
 21
125.6820107619084
 31
0.0
 12
307.4589072511412
 22
128.6820107619084
 32
0.0
 13
307.4589072511412
 23
128.6820107619084
 33
0.0
  0
MTEXT
  5
21AB
330
1C20
100
AcDbEntity
  8
AM_5
100
AcDbMText
 10
305.0085627629522
 20
138.8072993501615
 30
0.0
 40
3.5
 41
0.0
 71
     5
 72
     1
  1
%%c12{}{\C5; d9}
 11
0.0000000000000001
 21
1.0
 31
0.0
 73
     1
 44
1.0
1001
ACAD
1000
MTEXTBEGIN
1070
    73
1070
     1
1070
    44
1040
1.0
1070
    74
1070
     0
1000
MTEXTEND
  0
POINT
  5
21AC
330
1C20
100
AcDbEntity
  8
Defpoints
 62
     0
100
AcDbPoint
 10
295.4589072511412
 20
116.6820107619084
 30
0.0
  0
POINT
  5
21AD
330
1C20
100
AcDbEntity
  8
Defpoints
 62
     0
100
AcDbPoint
 10
295.4589072511412
 20
128.6820107619084
 30
0.0
  0
POINT
  5
21AE
330
1C20
100
AcDbEntity
  8
Defpoints
 62
     0
100
AcDbPoint
 10
307.4589072511412
 20
128.6820107619084
 30
0.0
  0
ENDBLK
  5
1C2C
330
1C20
100
AcDbEntity
  8
0
100
AcDbBlockEnd
  0
BLOCK
  5
1C37
330
1C2D
100
AcDbEntity
  8
0
100
AcDbBlockBegin
  2
*D30
 70
     1
 10
0.0
 20
0.0
 30
0.0
  3
*D30
  1

  0
LINE
  5
21B8
330
1C2D
100
AcDbEntity
  8
AM_5
100
AcDbLine
 10
268.4589072511412
 20
115.3820107598942
 30
0.0
 11
268.4589072511412
 21
102.2123556419082
 31
0.0
  0
LINE
  5
21B9
330
1C2D
100
AcDbEntity
  8
AM_5
100
AcDbLine
 10
289.4589072511412
 20
115.6820107619084
 30
0.0
 11
289.4589072511412
 21
102.2123556419082
 31
0.0
  0
LINE
  5
21BA
330
1C2D
100
AcDbEntity
  8
AM_5
100
AcDbLine
 10
271.4589072511412
 20
103.7123556419082
 30
0.0
 11
286.4589072511412
 21
103.7123556419082
 31
0.0
  0
SOLID
  5
21BB
330
1C2D
100
AcDbEntity
  8
AM_5
100
AcDbTrace
 10
271.4589072511412
 20
104.2123556419082
 30
0.0
 11
271.4589072511412
 21
103.2123556419082
 31
0.0
 12
268.4589072511412
 22
103.7123556419082
 32
0.0
 13
268.4589072511412
 23
103.7123556419082
 33
0.0
  0
SOLID
  5
21BC
330
1C2D
100
AcDbEntity
  8
AM_5
100
AcDbTrace
 10
286.4589072511412
 20
104.2123556419082
 30
0.0
 11
286.4589072511412
 21
103.2123556419082
 31
0.0
 12
289.4589072511412
 22
103.7123556419082
 32
0.0
 13
289.4589072511412
 23
103.7123556419082
 33
0.0
  0
MTEXT
  5
21BD
330
1C2D
100
AcDbEntity
  8
AM_5
100
AcDbMText
 10
278.9589072511412
 20
106.1623556419082
 30
0.0
 40
3.5
 41
0.0
 71
     5
 72
     1
  1
F
 73
     1
 44
1.0
1001
ACAD
1000
MTEXTBEGIN
1070
    73
1070
     1
1070
    44
1040
1.0
1070
    74
1070
     0
1000
MTEXTEND
  0
POINT
  5
21BE
330
1C2D
100
AcDbEntity
  8
Defpoints
 62
     0
100
AcDbPoint
 10
268.4589072511412
 20
116.3820107598942
 30
0.0
  0
POINT
  5
21BF
330
1C2D
100
AcDbEntity
  8
Defpoints
 62
     0
100
AcDbPoint
 10
289.4589072511412
 20
116.6820107619084
 30
0.0
  0
POINT
  5
21C0
330
1C2D
100
AcDbEntity
  8
Defpoints
 62
     0
100
AcDbPoint
 10
289.4589072511412
 20
103.7123556419082
 30
0.0
  0
ENDBLK
  5
1C38
330
1C2D
100
AcDbEntity
  8
0
100
AcDbBlockEnd
  0
BLOCK
  5
1C72
330
1C68
100
AcDbEntity
  8
0
100
AcDbBlockBegin
  2
*D31
 70
     1
 10
0.0
 20
0.0
 30
0.0
  3
*D31
  1

  0
LINE
  5
21AF
330
1C68
100
AcDbEntity
  8
AM_5
100
AcDbLine
 10
256.4589072511412
 20
120.1820107619084
 30
0.0
 11
256.4589072511412
 21
102.2123556419084
 31
0.0
  0
LINE
  5
21B0
330
1C68
100
AcDbEntity
  8
AM_5
100
AcDbLine
 10
266.4589072511412
 20
119.6820107619084
 30
0.0
 11
266.4589072511412
 21
102.2123556419084
 31
0.0
  0
LINE
  5
21B1
330
1C68
100
AcDbEntity
  8
AM_5
100
AcDbLine
 10
259.4589072511412
 20
103.7123556419084
 30
0.0
 11
263.4589072511412
 21
103.7123556419084
 31
0.0
  0
SOLID
  5
21B2
330
1C68
100
AcDbEntity
  8
AM_5
100
AcDbTrace
 10
259.4589072511412
 20
104.2123556419084
 30
0.0
 11
259.4589072511412
 21
103.2123556419084
 31
0.0
 12
256.4589072511412
 22
103.7123556419084
 32
0.0
 13
256.4589072511412
 23
103.7123556419084
 33
0.0
  0
SOLID
  5
21B3
330
1C68
100
AcDbEntity
  8
AM_5
100
AcDbTrace
 10
263.4589072511412
 20
104.2123556419084
 30
0.0
 11
263.4589072511412
 21
103.2123556419084
 31
0.0
 12
266.4589072511412
 22
103.7123556419084
 32
0.0
 13
266.4589072511412
 23
103.7123556419084
 33
0.0
  0
MTEXT
  5
21B4
330
1C68
100
AcDbEntity
  8
AM_5
100
AcDbMText
 10
261.4589072511412
 20
106.1623556419084
 30
0.0
 40
3.5
 41
0.0
 71
     5
 72
     1
  1
10
 73
     1
 44
1.0
1001
ACAD
1000
MTEXTBEGIN
1070
    73
1070
     1
1070
    44
1040
1.0
1070
    74
1070
     0
1000
MTEXTEND
  0
POINT
  5
21B5
330
1C68
100
AcDbEntity
  8
Defpoints
 62
     0
100
AcDbPoint
 10
256.4589072511412
 20
121.1820107619084
 30
0.0
  0
POINT
  5
21B6
330
1C68
100
AcDbEntity
  8
Defpoints
 62
     0
100
AcDbPoint
 10
266.4589072511412
 20
120.6820107619084
 30
0.0
  0
POINT
  5
21B7
330
1C68
100
AcDbEntity
  8
Defpoints
 62
     0
100
AcDbPoint
 10
266.4589072511412
 20
103.7123556419084
 30
0.0
  0
ENDBLK
  5
1C73
330
1C68
100
AcDbEntity
  8
0
100
AcDbBlockEnd
  0
BLOCK
  5
1CC8
330
1CBE
100
AcDbEntity
  8
0
100
AcDbBlockBegin
  2
*D32
 70
     1
 10
0.0
 20
0.0
 30
0.0
  3
*D32
  1

  0
LINE
  5
21C1
330
1CBE
100
AcDbEntity
  8
AM_5
100
AcDbLine
 10
221.6284676350242
 20
116.1971832019084
 30
0.0
 11
221.6284676350242
 21
102.2123556419081
 31
0.0
  0
LINE
  5
21C2
330
1CBE
100
AcDbEntity
  8
AM_5
100
AcDbLine
 10
240.6284676350242
 20
116.1971832019084
 30
0.0
 11
240.6284676350242
 21
102.2123556419081
 31
0.0
  0
LINE
  5
21C3
330
1CBE
100
AcDbEntity
  8
AM_5
100
AcDbLine
 10
224.6284676350242
 20
103.7123556419081
 30
0.0
 11
237.6284676350242
 21
103.7123556419081
 31
0.0
  0
SOLID
  5
21C4
330
1CBE
100
AcDbEntity
  8
AM_5
100
AcDbTrace
 10
224.6284676350242
 20
104.2123556419081
 30
0.0
 11
224.6284676350242
 21
103.2123556419081
 31
0.0
 12
221.6284676350242
 22
103.7123556419081
 32
0.0
 13
221.6284676350242
 23
103.7123556419081
 33
0.0
  0
SOLID
  5
21C5
330
1CBE
100
AcDbEntity
  8
AM_5
100
AcDbTrace
 10
237.6284676350242
 20
104.2123556419081
 30
0.0
 11
237.6284676350242
 21
103.2123556419081
 31
0.0
 12
240.6284676350242
 22
103.7123556419081
 32
0.0
 13
240.6284676350242
 23
103.7123556419081
 33
0.0
  0
MTEXT
  5
21C6
330
1CBE
100
AcDbEntity
  8
AM_5
100
AcDbMText
 10
231.1284676350242
 20
106.1623556419081
 30
0.0
 40
3.5
 41
0.0
 71
     5
 72
     1
  1
19
 73
     1
 44
1.0
1001
ACAD
1000
MTEXTBEGIN
1070
    73
1070
     1
1070
    44
1040
1.0
1070
    74
1070
     0
1000
MTEXTEND
  0
POINT
  5
21C7
330
1CBE
100
AcDbEntity
  8
Defpoints
 62
     0
100
AcDbPoint
 10
221.6284676350242
 20
117.1971832019084
 30
0.0
  0
POINT
  5
21C8
330
1CBE
100
AcDbEntity
  8
Defpoints
 62
     0
100
AcDbPoint
 10
240.6284676350242
 20
117.1971832019084
 30
0.0
  0
POINT
  5
21C9
330
1CBE
100
AcDbEntity
  8
Defpoints
 62
     0
100
AcDbPoint
 10
240.6284676350242
 20
103.7123556419081
 30
0.0
  0
ENDBLK
  5
1CC9
330
1CBE
100
AcDbEntity
  8
0
100
AcDbBlockEnd
  0
BLOCK
  5
225D
330
2258
100
AcDbEntity
  8
0
100
AcDbBlockBegin
  2
*S33
 70
     1
 10
0.0
 20
0.0
 30
0.0
  3
*S33
  1

  0
LINE
  5
2259
330
2258
100
AcDbEntity
  8
AM_5
 62
     5
100
AcDbLine
 10
166.6058403650874
 20
189.5174329927693
 30
0.0
 11
152.8721397886547
 21
189.5174329927693
 31
0.0
  0
LINE
  5
225A
330
2258
100
AcDbEntity
  8
AM_5
 62
     5
100
AcDbLine
 10
152.8721397886547
 20
189.5174329927693
 30
0.0
 11
145.8811165322717
 21
201.3629341225717
 31
0.0
  0
TRACE
  5
225B
330
2258
100
AcDbEntity
  8
AM_5
 62
     5
370
    35
100
AcDbTrace
 10
146.2779434711368
 20
201.5971349662478
 30
0.0
 11
145.4842895934066
 21
201.1287332788957
 31
0.0
 12
144.1021845027787
 22
204.3771339889449
 32
0.0
 13
144.1021845027787
 23
204.3771339889449
 33
0.0
  0
MTEXT
  5
225C
330
2258
100
AcDbEntity
  8
AM_5
 62
     5
100
AcDbMText
 10
166.6058403650874
 20
194.7199647710744
 30
0.0
 40
3.5
 41
0.0
 71
     9
 72
     5
  1

  7
ACISOTS
210
0.0
220
0.0
230
-1.0
 11
-1.0
 21
0.0
 31
0.0
 73
     1
 44
1.0
1001
ACAD
1000
MTEXTBEGIN
1070
    73
1070
     1
1070
    44
1040
1.0
1070
    74
1070
     0
1000
MTEXTEND
  0
ENDBLK
  5
225E
330
2258
100
AcDbEntity
  8
0
100
AcDbBlockEnd
  0
BLOCK
  5
2265
330
2260
100
AcDbEntity
  8
0
100
AcDbBlockBegin
  2
*S34
 70
     1
 10
0.0
 20
0.0
 30
0.0
  3
*S34
  1

  0
LINE
  5
2261
330
2260
100
AcDbEntity
  8
AM_5
 62
     5
100
AcDbLine
 10
166.6058403650874
 20
107.8223097657328
 30
0.0
 11
152.8721397886547
 21
107.8223097657328
 31
0.0
  0
LINE
  5
2262
330
2260
100
AcDbEntity
  8
AM_5
 62
     5
100
AcDbLine
 10
152.8721397886547
 20
107.8223097657328
 30
0.0
 11
145.8811165322717
 21
119.6678108955353
 31
0.0
  0
TRACE
  5
2263
330
2260
100
AcDbEntity
  8
AM_5
 62
     5
370
    35
100
AcDbTrace
 10
146.2779434711368
 20
119.9020117392113
 30
0.0
 11
145.4842895934066
 21
119.4336100518592
 31
0.0
 12
144.1021845027787
 22
122.6820107619084
 32
0.0
 13
144.1021845027787
 23
122.6820107619084
 33
0.0
  0
MTEXT
  5
2264
330
2260
100
AcDbEntity
  8
AM_5
 62
     5
100
AcDbMText
 10
166.6058403650874
 20
113.024841544038
 30
0.0
 40
3.5
 41
0.0
 71
     9
 72
     5
  1

  7
ACISOTS
210
0.0
220
0.0
230
-1.0
 11
-1.0
 21
0.0
 31
0.0
 73
     1
 44
1.0
1001
ACAD
1000
MTEXTBEGIN
1070
    73
1070
     1
1070
    44
1040
1.0
1070
    74
1070
     0
1000
MTEXTEND
  0
ENDBLK
  5
2266
330
2260
100
AcDbEntity
  8
0
100
AcDbBlockEnd
  0
BLOCK
  5
226D
330
2268
100
AcDbEntity
  8
0
100
AcDbBlockBegin
  2
*S35
 70
     1
 10
0.0
 20
0.0
 30
0.0
  3
*S35
  1

  0
LINE
  5
2269
330
2268
100
AcDbEntity
  8
AM_5
 62
     5
100
AcDbLine
 10
268.8797400066605
 20
134.2400504155308
 30
0.0
 11
253.2573100609461
 21
134.2400504155308
 31
0.0
  0
LINE
  5
226A
330
2268
100
AcDbEntity
  8
AM_5
 62
     5
100
AcDbLine
 10
253.2573100609461
 20
134.2400504155308
 30
0.0
 11
256.5989307615
 21
127.7897391449565
 31
0.0
  0
TRACE
  5
226B
330
2268
100
AcDbEntity
  8
AM_5
 62
     5
370
    35
100
AcDbTrace
 10
256.189790559874
 20
127.5777817199839
 30
0.0
 11
257.0080709631261
 21
128.0016965699291
 31
0.0
 12
258.2089072511412
 22
124.6820107619084
 32
0.0
 13
258.2089072511412
 23
124.6820107619084
 33
0.0
  0
MTEXT
  5
226C
330
2268
100
AcDbEntity
  8
AM_5
 62
     5
100
AcDbMText
 10
268.8797400066605
 20
138.5158135082826
 30
0.0
 40
3.5
 41
0.0
 71
     9
 72
     5
  1

  7
ACISOTS
210
0.0
220
0.0
230
-1.0
 11
-1.0
 21
0.0
 31
0.0
 73
     1
 44
1.0
1001
ACAD
1000
MTEXTBEGIN
1070
    73
1070
     1
1070
    44
1040
1.0
1070
    74
1070
     0
1000
MTEXTEND
  0
ENDBLK
  5
226E
330
2268
100
AcDbEntity
  8
0
100
AcDbBlockEnd
  0
BLOCK
  5
2275
330
2270
100
AcDbEntity
  8
0
100
AcDbBlockBegin
  2
*S36
 70
     1
 10
0.0
 20
0.0
 30
0.0
  3
*S36
  1

  0
LINE
  5
2271
330
2270
100
AcDbEntity
  8
AM_5
 62
     5
100
AcDbLine
 10
117.5230172582981
 20
134.2400504155308
 30
0.0
 11
101.9005873125836
 21
134.2400504155308
 31
0.0
  0
LINE
  5
2272
330
2270
100
AcDbEntity
  8
AM_5
 62
     5
100
AcDbLine
 10
101.9005873125836
 20
134.2400504155308
 30
0.0
 11
105.2422080131375
 21
127.7897391449565
 31
0.0
  0
TRACE
  5
2273
330
2270
100
AcDbEntity
  8
AM_5
 62
     5
370
    35
100
AcDbTrace
 10
104.8330678115115
 20
127.5777817199839
 30
0.0
 11
105.6513482147636
 21
128.0016965699291
 31
0.0
 12
106.8521845027787
 22
124.6820107619084
 32
0.0
 13
106.8521845027787
 23
124.6820107619084
 33
0.0
  0
MTEXT
  5
2274
330
2270
100
AcDbEntity
  8
AM_5
 62
     5
100
AcDbMText
 10
117.5230172582981
 20
138.5158135082826
 30
0.0
 40
3.5
 41
0.0
 71
     9
 72
     5
  1

  7
ACISOTS
210
0.0
220
0.0
230
-1.0
 11
-1.0
 21
0.0
 31
0.0
 73
     1
 44
1.0
1001
ACAD
1000
MTEXTBEGIN
1070
    73
1070
     1
1070
    44
1040
1.0
1070
    74
1070
     0
1000
MTEXTEND
  0
ENDBLK
  5
2276
330
2270
100
AcDbEntity
  8
0
100
AcDbBlockEnd
  0
BLOCK
  5
232F
330
2323
100
AcDbEntity
  8
0
100
AcDbBlockBegin
  2
*D38
 70
     1
 10
0.0
 20
0.0
 30
0.0
  3
*D38
  1

  0
LINE
  5
2343
330
2323
100
AcDbEntity
  8
AM_5
100
AcDbLine
 10
104.6021845027787
 20
206.8771339889449
 30
0.0
 11
97.04244217285101
 21
206.8771339889449
 31
0.0
  0
LINE
  5
2344
330
2323
100
AcDbEntity
  8
AM_5
100
AcDbLine
 10
104.6021845027787
 20
201.8771339889449
 30
0.0
 11
97.04244217285101
 21
201.8771339889449
 31
0.0
  0
LINE
  5
2345
330
2323
100
AcDbEntity
  8
AM_5
100
AcDbLine
 10
98.54244217285099
 20
209.8771339889449
 30
0.0
 11
98.54244217285099
 21
212.8771339889449
 31
0.0
  0
LINE
  5
2346
330
2323
100
AcDbEntity
  8
AM_5
100
AcDbLine
 10
98.54244217285099
 20
198.8771339889449
 30
0.0
 11
98.54244217285099
 21
189.7821592421143
 31
0.0
  0
LINE
  5
2347
330
2323
100
AcDbEntity
  8
AM_5
100
AcDbLine
 10
98.54244217285099
 20
206.8771339889449
 30
0.0
 11
98.54244217285099
 21
201.8771339889449
 31
0.0
  0
SOLID
  5
2348
330
2323
100
AcDbEntity
  8
AM_5
100
AcDbTrace
 10
98.042442172851
 20
209.8771339889449
 30
0.0
 11
99.042442172851
 21
209.8771339889449
 31
0.0
 12
98.54244217285099
 22
206.8771339889449
 32
0.0
 13
98.54244217285099
 23
206.8771339889449
 33
0.0
  0
SOLID
  5
2349
330
2323
100
AcDbEntity
  8
AM_5
100
AcDbTrace
 10
98.042442172851
 20
198.8771339889449
 30
0.0
 11
99.042442172851
 21
198.8771339889449
 31
0.0
 12
98.54244217285099
 22
201.8771339889449
 32
0.0
 13
98.54244217285099
 23
201.8771339889449
 33
0.0
  0
MTEXT
  5
234A
330
2323
100
AcDbEntity
  8
AM_5
100
AcDbMText
 10
96.09244217285096
 20
192.8296466155296
 30
0.0
 40
3.5
 41
0.0
 71
     5
 72
     1
  1
%%c5
 11
0.0000000000000001
 21
1.0
 31
0.0
 73
     1
 44
1.0
1001
ACAD
1000
MTEXTBEGIN
1070
    73
1070
     1
1070
    44
1040
1.0
1070
    74
1070
     0
1000
MTEXTEND
  0
POINT
  5
234B
330
2323
100
AcDbEntity
  8
Defpoints
 62
     0
100
AcDbPoint
 10
105.6021845027787
 20
206.8771339889449
 30
0.0
  0
POINT
  5
234C
330
2323
100
AcDbEntity
  8
Defpoints
 62
     0
100
AcDbPoint
 10
105.6021845027787
 20
201.8771339889449
 30
0.0
  0
POINT
  5
234D
330
2323
100
AcDbEntity
  8
Defpoints
 62
     0
100
AcDbPoint
 10
98.54244217285099
 20
201.8771339889449
 30
0.0
  0
ENDBLK
  5
2330
330
2323
100
AcDbEntity
  8
0
100
AcDbBlockEnd
  0
BLOCK
  5
236A
330
235E
100
AcDbEntity
  8
0
100
AcDbBlockBegin
  2
*D39
 70
     1
 10
0.0
 20
0.0
 30
0.0
  3
*D39
  1

  0
LINE
  5
2379
330
235E
100
AcDbEntity
  8
AM_5
100
AcDbLine
 10
255.9589072511412
 20
206.8771339939448
 30
0.0
 11
248.3302361554237
 21
206.8771339939448
 31
0.0
  0
LINE
  5
237A
330
235E
100
AcDbEntity
  8
AM_5
100
AcDbLine
 10
255.9589072511412
 20
201.8771339939448
 30
0.0
 11
248.3302361554237
 21
201.8771339939448
 31
0.0
  0
LINE
  5
237B
330
235E
100
AcDbEntity
  8
AM_5
100
AcDbLine
 10
249.8302361554237
 20
209.8771339939448
 30
0.0
 11
249.8302361554237
 21
212.8771339939448
 31
0.0
  0
LINE
  5
237C
330
235E
100
AcDbEntity
  8
AM_5
100
AcDbLine
 10
249.8302361554237
 20
198.8771339939448
 30
0.0
 11
249.8302361554237
 21
189.7821592471142
 31
0.0
  0
LINE
  5
237D
330
235E
100
AcDbEntity
  8
AM_5
100
AcDbLine
 10
249.8302361554237
 20
206.8771339939448
 30
0.0
 11
249.8302361554237
 21
201.8771339939448
 31
0.0
  0
SOLID
  5
237E
330
235E
100
AcDbEntity
  8
AM_5
100
AcDbTrace
 10
249.3302361554237
 20
209.8771339939448
 30
0.0
 11
250.3302361554237
 21
209.8771339939448
 31
0.0
 12
249.8302361554237
 22
206.8771339939448
 32
0.0
 13
249.8302361554237
 23
206.8771339939448
 33
0.0
  0
SOLID
  5
237F
330
235E
100
AcDbEntity
  8
AM_5
100
AcDbTrace
 10
249.3302361554237
 20
198.8771339939448
 30
0.0
 11
250.3302361554237
 21
198.8771339939448
 31
0.0
 12
249.8302361554237
 22
201.8771339939448
 32
0.0
 13
249.8302361554237
 23
201.8771339939448
 33
0.0
  0
MTEXT
  5
2380
330
235E
100
AcDbEntity
  8
AM_5
100
AcDbMText
 10
247.3802361554236
 20
192.8296466205295
 30
0.0
 40
3.5
 41
0.0
 71
     5
 72
     1
  1
%%c5
 11
0.0000000000000001
 21
1.0
 31
0.0
 73
     1
 44
1.0
1001
ACAD
1000
MTEXTBEGIN
1070
    73
1070
     1
1070
    44
1040
1.0
1070
    74
1070
     0
1000
MTEXTEND
  0
POINT
  5
2381
330
235E
100
AcDbEntity
  8
Defpoints
 62
     0
100
AcDbPoint
 10
256.9589072511412
 20
206.8771339939448
 30
0.0
  0
POINT
  5
2382
330
235E
100
AcDbEntity
  8
Defpoints
 62
     0
100
AcDbPoint
 10
256.9589072511412
 20
201.8771339939448
 30
0.0
  0
POINT
  5
2383
330
235E
100
AcDbEntity
  8
Defpoints
 62
     0
100
AcDbPoint
 10
249.8302361554237
 20
201.8771339939448
 30
0.0
  0
ENDBLK
  5
236B
330
235E
100
AcDbEntity
  8
0
100
AcDbBlockEnd
  0
ENDSEC
  0
SECTION
  2
ENTITIES
  0
LINE
  5
BF4
330
1F
100
AcDbEntity
  8
AM_4
100
AcDbLine
 10
105.6021845027787
 20
121.0720107619084
 30
0.0
 11
108.1021845027787
 21
121.0720107619084
 31
0.0
  0
LINE
  5
BF5
330
1F
100
AcDbEntity
  8
AM_4
100
AcDbLine
 10
105.6021845027787
 20
124.2920107619084
 30
0.0
 11
108.1021845027787
 21
124.2920107619084
 31
0.0
  0
LINE
  5
BF6
330
1F
100
AcDbEntity
  8
AM_4
100
AcDbLine
 10
115.1021845027787
 20
124.2920107619084
 30
0.0
 11
115.4921845027787
 21
124.6820107619084
 31
0.0
  0
LINE
  5
BF7
330
1F
100
AcDbEntity
  8
AM_4
100
AcDbLine
 10
115.1021845027787
 20
121.0720107619084
 30
0.0
 11
115.4921845027787
 21
120.6820107619084
 31
0.0
  0
LINE
  5
BF8
102
{ACAD_REACTORS
330
10BA
102
}
330
1F
100
AcDbEntity
  8
AM_4
 62
     7
100
AcDbLine
 10
115.1021845027787
 20
120.6820107619084
 30
0.0
 11
115.1021845027787
 21
124.6820107619084
 31
0.0
  0
LINE
  5
C02
330
1F
100
AcDbEntity
  8
AM_VIS
100
AcDbLine
 10
112.5895771116091
 20
124.7027367040721
 30
0.0
 11
110.8147918939484
 21
124.7027367040721
 31
0.0
  0
SPLINE
  5
C03
330
1F
100
AcDbEntity
  8
AM_VIS
100
AcDbSpline
210
0.0
220
0.0
230
1.0
 70
    12
 71
     2
 72
     6
 73
     3
 74
     0
 42
0.0000000001
 43
0.0000000001
 40
0.0
 40
0.0
 40
0.0
 40
2.049984015713344
 40
2.049984015713344
 40
2.049984015713344
 10
110.8147918939484
 20
126.7234626462358
 30
0.0
 41
1.0
 10
110.5021845027787
 20
126.1820107619084
 30
0.0
 41
1.037954849302085
 10
110.5021845027787
 20
125.7130996751539
 30
0.0
 41
1.0
  0
SPLINE
  5
C04
330
1F
100
AcDbEntity
  8
AM_VIS
100
AcDbSpline
210
0.0
220
0.0
230
1.0
 70
    12
 71
     2
 72
     6
 73
     3
 74
     0
 42
0.0000000001
 43
0.0000000001
 40
2.049984015713334
 40
2.049984015713334
 40
2.049984015713334
 40
4.099968031426667
 40
4.099968031426667
 40
4.099968031426667
 10
110.5021845027787
 20
122.6820107619084
 30
0.0
 41
1.0
 10
110.5021845027787
 20
121.7441885883995
 30
0.0
 41
1.037954849302048
 10
110.8147918939484
 20
120.6612848197447
 30
0.0
 41
1.0
  0
SPLINE
  5
C05
330
1F
100
AcDbEntity
  8
AM_VIS
100
AcDbSpline
210
0.0
220
0.0
230
1.0
 70
    12
 71
     2
 72
     6
 73
     3
 74
     0
 42
0.0000000001
 43
0.0000000001
 40
2.049984015713344
 40
2.049984015713344
 40
2.049984015713344
 40
4.099968031426687
 40
4.099968031426687
 40
4.099968031426687
 10
110.5021845027787
 20
125.7130996751539
 30
0.0
 41
1.0
 10
110.5021845027787
 20
125.2441885883994
 30
0.0
 41
1.037954849302088
 10
110.8147918939484
 20
124.7027367040721
 30
0.0
 41
1.0
  0
SPLINE
  5
C06
330
1F
100
AcDbEntity
  8
AM_VIS
100
AcDbSpline
210
0.0
220
0.0
230
1.0
 70
    12
 71
     2
 72
     6
 73
     3
 74
     0
 42
0.0000000001
 43
0.0000000001
 40
0.0
 40
0.0
 40
0.0
 40
2.049984015713334
 40
2.049984015713334
 40
2.049984015713334
 10
110.8147918939484
 20
124.7027367040721
 30
0.0
 41
1.0
 10
110.5021845027789
 20
123.6198329354174
 30
0.0000000000000036
 41
1.037954849302047
 10
110.5021845027787
 20
122.6820107619084
 30
0.0
 41
1.0
  0
SPLINE
  5
C07
330
1F
100
AcDbEntity
  8
AM_VIS
100
AcDbSpline
210
0.0
220
0.0
230
1.0
 70
    12
 71
     2
 72
     6
 73
     3
 74
     0
 42
0.0000000001
 43
0.0000000001
 40
2.049984015713307
 40
2.049984015713307
 40
2.049984015713307
 40
4.099968031426614
 40
4.099968031426614
 40
4.099968031426614
 10
110.5021845027787
 20
119.6509218486629
 30
0.0
 41
1.0
 10
110.5021845027787
 20
119.1820107619084
 30
0.0
 41
1.037954849301932
 10
110.8147918939484
 20
118.640558877581
 30
0.0
 41
1.0
  0
SPLINE
  5
C08
330
1F
100
AcDbEntity
  8
AM_VIS
100
AcDbSpline
210
0.0
220
0.0
230
1.0
 70
    12
 71
     2
 72
     6
 73
     3
 74
     0
 42
0.0000000001
 43
0.0000000001
 40
0.0
 40
0.0
 40
0.0
 40
2.049984015713307
 40
2.049984015713307
 40
2.049984015713307
 10
110.8147918939484
 20
120.6612848197447
 30
0.0
 41
1.0
 10
110.5021845027787
 20
120.1198329354173
 30
0.0
 41
1.037954849301932
 10
110.5021845027787
 20
119.6509218486629
 30
0.0
 41
1.0
  0
LINE
  5
C09
330
1F
100
AcDbEntity
  8
AM_VIS
100
AcDbLine
 10
112.5895771116091
 20
120.6612848197447
 30
0.0
 11
110.8147918939484
 21
120.6612848197447
 31
0.0
  0
LINE
  5
C0A
330
1F
100
AcDbEntity
  8
AM_VIS
100
AcDbLine
 10
112.5895771116091
 20
118.640558877581
 30
0.0
 11
110.8147918939484
 21
118.640558877581
 31
0.0
  0
LINE
  5
C0B
330
1F
100
AcDbEntity
  8
AM_VIS
100
AcDbLine
 10
112.5895771116091
 20
126.7234626462358
 30
0.0
 11
110.8147918939484
 21
126.7234626462358
 31
0.0
  0
SPLINE
  5
C0C
330
1F
100
AcDbEntity
  8
AM_VIS
100
AcDbSpline
210
0.0
220
0.0
230
1.0
 70
    12
 71
     2
 72
     6
 73
     3
 74
     0
 42
0.0000000001
 43
0.0000000001
 40
2.049984015713341
 40
2.049984015713341
 40
2.049984015713341
 40
4.099968031426684
 40
4.099968031426684
 40
4.099968031426684
 10
112.9021845027788
 20
125.7130996751539
 30
0.0
 41
1.0
 10
112.9021845027788
 20
126.1820107619084
 30
0.0
 41
1.037954849302082
 10
112.5895771116091
 20
126.7234626462358
 30
0.0
 41
1.0
  0
SPLINE
  5
C0D
330
1F
100
AcDbEntity
  8
AM_VIS
100
AcDbSpline
210
0.0
220
0.0
230
1.0
 70
    12
 71
     2
 72
     6
 73
     3
 74
     0
 42
0.0000000001
 43
0.0000000001
 40
2.049984015713333
 40
2.049984015713333
 40
2.049984015713333
 40
4.099968031426667
 40
4.099968031426667
 40
4.099968031426667
 10
112.9021845027788
 20
122.6820107619084
 30
0.0
 41
1.0
 10
112.9021845027787
 20
123.6198329354172
 30
0.0
 41
1.037954849302048
 10
112.5895771116091
 20
124.7027367040721
 30
0.0
 41
1.0
  0
SPLINE
  5
C0E
330
1F
100
AcDbEntity
  8
AM_VIS
100
AcDbSpline
210
0.0
220
0.0
230
1.0
 70
    12
 71
     2
 72
     6
 73
     3
 74
     0
 42
0.0000000001
 43
0.0000000001
 40
0.0
 40
0.0
 40
0.0
 40
2.049984015713341
 40
2.049984015713341
 40
2.049984015713341
 10
112.5895771116091
 20
124.7027367040721
 30
0.0
 41
1.0
 10
112.9021845027787
 20
125.2441885883994
 30
0.0
 41
1.03795484930209
 10
112.9021845027788
 20
125.7130996751539
 30
0.0
 41
1.0
  0
SPLINE
  5
C0F
330
1F
100
AcDbEntity
  8
AM_VIS
100
AcDbSpline
210
0.0
220
0.0
230
1.0
 70
    12
 71
     2
 72
     6
 73
     3
 74
     0
 42
0.0000000001
 43
0.0000000001
 40
0.0
 40
0.0
 40
0.0
 40
2.049984015713308
 40
2.049984015713308
 40
2.049984015713308
 10
112.5895771116091
 20
118.640558877581
 30
0.0
 41
1.0
 10
112.9021845027788
 20
119.1820107619084
 30
0.0
 41
1.037954849301944
 10
112.9021845027788
 20
119.6509218486629
 30
0.0
 41
1.0
  0
SPLINE
  5
C10
330
1F
100
AcDbEntity
  8
AM_VIS
100
AcDbSpline
210
0.0
220
0.0
230
1.0
 70
    12
 71
     2
 72
     6
 73
     3
 74
     0
 42
0.0000000001
 43
0.0000000001
 40
2.049984015713308
 40
2.049984015713308
 40
2.049984015713308
 40
4.099968031426616
 40
4.099968031426616
 40
4.099968031426616
 10
112.9021845027788
 20
119.6509218486629
 30
0.0
 41
1.0
 10
112.9021845027786
 20
120.1198329354172
 30
0.0
 41
1.037954849301939
 10
112.5895771116091
 20
120.6612848197447
 30
0.0
 41
1.0
  0
SPLINE
  5
C11
330
1F
100
AcDbEntity
  8
AM_VIS
100
AcDbSpline
210
0.0
220
0.0
230
1.0
 70
    12
 71
     2
 72
     6
 73
     3
 74
     0
 42
0.0000000001
 43
0.0000000001
 40
0.0
 40
0.0
 40
0.0
 40
2.049984015713333
 40
2.049984015713333
 40
2.049984015713333
 10
112.5895771116091
 20
120.6612848197447
 30
0.0
 41
1.0
 10
112.9021845027788
 20
121.7441885883995
 30
0.0
 41
1.037954849302043
 10
112.9021845027788
 20
122.6820107619084
 30
0.0
 41
1.0
  0
LINE
  5
C12
330
1F
100
AcDbEntity
  8
AM_VIS
100
AcDbLine
 10
110.5021845027787
 20
119.1820107619084
 30
0.0
 11
110.8147918939484
 21
118.640558877581
 31
0.0
  0
LINE
  5
C13
330
1F
100
AcDbEntity
  8
AM_VIS
100
AcDbLine
 10
110.5021845027787
 20
126.1820107619084
 30
0.0
 11
110.8147918939484
 21
126.7234626462358
 31
0.0
  0
LINE
  5
C14
330
1F
100
AcDbEntity
  8
AM_VIS
100
AcDbLine
 10
112.9021845027788
 20
126.1820107619084
 30
0.0
 11
112.5895771116091
 21
126.7234626462358
 31
0.0
  0
LINE
  5
C15
330
1F
100
AcDbEntity
  8
AM_VIS
100
AcDbLine
 10
112.9021845027788
 20
119.1820107619084
 30
0.0
 11
112.5895771116091
 21
118.640558877581
 31
0.0
  0
LINE
  5
C16
330
1F
100
AcDbEntity
  8
AM_VIS
100
AcDbLine
 10
110.5021845027787
 20
125.7130996751539
 30
0.0
 11
110.5021845027787
 21
122.6820107619084
 31
0.0
  0
LINE
  5
C17
330
1F
100
AcDbEntity
  8
AM_VIS
100
AcDbLine
 10
110.5021845027787
 20
122.6820107619084
 30
0.0
 11
110.5021845027787
 21
119.6509218486629
 31
0.0
  0
LINE
  5
C18
330
1F
100
AcDbEntity
  8
AM_VIS
100
AcDbLine
 10
110.5021845027787
 20
119.6509218486629
 30
0.0
 11
110.5021845027787
 21
119.1820107619084
 31
0.0
  0
LINE
  5
C19
330
1F
100
AcDbEntity
  8
AM_VIS
100
AcDbLine
 10
110.5021845027787
 20
126.1820107619084
 30
0.0
 11
110.5021845027787
 21
125.7130996751539
 31
0.0
  0
LINE
  5
C1A
330
1F
100
AcDbEntity
  8
AM_VIS
100
AcDbLine
 10
112.9021845027788
 20
119.6509218486629
 30
0.0
 11
112.9021845027788
 21
122.6820107619084
 31
0.0
  0
LINE
  5
C1B
330
1F
100
AcDbEntity
  8
AM_VIS
100
AcDbLine
 10
112.9021845027788
 20
122.6820107619084
 30
0.0
 11
112.9021845027788
 21
125.7130996751539
 31
0.0
  0
LINE
  5
C1C
330
1F
100
AcDbEntity
  8
AM_VIS
100
AcDbLine
 10
112.9021845027788
 20
125.7130996751539
 30
0.0
 11
112.9021845027788
 21
126.1820107619084
 31
0.0
  0
LINE
  5
C1D
330
1F
100
AcDbEntity
  8
AM_VIS
100
AcDbLine
 10
112.9021845027788
 20
119.1820107619084
 30
0.0
 11
112.9021845027788
 21
119.6509218486629
 31
0.0
  0
LINE
  5
C1E
330
1F
100
AcDbEntity
  8
AM_VIS
100
AcDbLine
 10
110.1895771116091
 20
124.7027367040721
 30
0.0
 11
108.4147918939484
 21
124.7027367040721
 31
0.0
  0
SPLINE
  5
C1F
330
1F
100
AcDbEntity
  8
AM_VIS
100
AcDbSpline
210
0.0
220
0.0
230
1.0
 70
    12
 71
     2
 72
     6
 73
     3
 74
     0
 42
0.0000000001
 43
0.0000000001
 40
0.0
 40
0.0
 40
0.0
 40
2.049984015713344
 40
2.049984015713344
 40
2.049984015713344
 10
108.4147918939484
 20
126.7234626462358
 30
0.0
 41
1.0
 10
108.1021845027787
 20
126.1820107619084
 30
0.0
 41
1.037954849302085
 10
108.1021845027787
 20
125.7130996751539
 30
0.0
 41
1.0
  0
SPLINE
  5
C20
330
1F
100
AcDbEntity
  8
AM_VIS
100
AcDbSpline
210
0.0
220
0.0
230
1.0
 70
    12
 71
     2
 72
     6
 73
     3
 74
     0
 42
0.0000000001
 43
0.0000000001
 40
2.049984015713334
 40
2.049984015713334
 40
2.049984015713334
 40
4.099968031426667
 40
4.099968031426667
 40
4.099968031426667
 10
108.1021845027787
 20
122.6820107619084
 30
0.0
 41
1.0
 10
108.1021845027787
 20
121.7441885883995
 30
0.0
 41
1.037954849302048
 10
108.4147918939484
 20
120.6612848197447
 30
0.0
 41
1.0
  0
SPLINE
  5
C21
330
1F
100
AcDbEntity
  8
AM_VIS
100
AcDbSpline
210
0.0
220
0.0
230
1.0
 70
    12
 71
     2
 72
     6
 73
     3
 74
     0
 42
0.0000000001
 43
0.0000000001
 40
2.049984015713344
 40
2.049984015713344
 40
2.049984015713344
 40
4.099968031426687
 40
4.099968031426687
 40
4.099968031426687
 10
108.1021845027787
 20
125.7130996751539
 30
0.0
 41
1.0
 10
108.1021845027787
 20
125.2441885883994
 30
0.0
 41
1.037954849302088
 10
108.4147918939484
 20
124.7027367040721
 30
0.0
 41
1.0
  0
SPLINE
  5
C22
330
1F
100
AcDbEntity
  8
AM_VIS
100
AcDbSpline
210
0.0
220
0.0
230
1.0
 70
    12
 71
     2
 72
     6
 73
     3
 74
     0
 42
0.0000000001
 43
0.0000000001
 40
0.0
 40
0.0
 40
0.0
 40
2.049984015713334
 40
2.049984015713334
 40
2.049984015713334
 10
108.4147918939484
 20
124.7027367040721
 30
0.0
 41
1.0
 10
108.1021845027788
 20
123.6198329354174
 30
0.0000000000000036
 41
1.037954849302047
 10
108.1021845027787
 20
122.6820107619084
 30
0.0
 41
1.0
  0
SPLINE
  5
C23
330
1F
100
AcDbEntity
  8
AM_VIS
100
AcDbSpline
210
0.0
220
0.0
230
1.0
 70
    12
 71
     2
 72
     6
 73
     3
 74
     0
 42
0.0000000001
 43
0.0000000001
 40
2.049984015713307
 40
2.049984015713307
 40
2.049984015713307
 40
4.099968031426614
 40
4.099968031426614
 40
4.099968031426614
 10
108.1021845027787
 20
119.6509218486629
 30
0.0
 41
1.0
 10
108.1021845027787
 20
119.1820107619084
 30
0.0
 41
1.037954849301932
 10
108.4147918939484
 20
118.640558877581
 30
0.0
 41
1.0
  0
SPLINE
  5
C24
330
1F
100
AcDbEntity
  8
AM_VIS
100
AcDbSpline
210
0.0
220
0.0
230
1.0
 70
    12
 71
     2
 72
     6
 73
     3
 74
     0
 42
0.0000000001
 43
0.0000000001
 40
0.0
 40
0.0
 40
0.0
 40
2.049984015713307
 40
2.049984015713307
 40
2.049984015713307
 10
108.4147918939484
 20
120.6612848197447
 30
0.0
 41
1.0
 10
108.1021845027787
 20
120.1198329354173
 30
0.0
 41
1.037954849301932
 10
108.1021845027787
 20
119.6509218486629
 30
0.0
 41
1.0
  0
LINE
  5
C25
330
1F
100
AcDbEntity
  8
AM_VIS
100
AcDbLine
 10
110.1895771116091
 20
120.6612848197447
 30
0.0
 11
108.4147918939484
 21
120.6612848197447
 31
0.0
  0
LINE
  5
C26
330
1F
100
AcDbEntity
  8
AM_VIS
100
AcDbLine
 10
110.1895771116091
 20
118.640558877581
 30
0.0
 11
108.4147918939484
 21
118.640558877581
 31
0.0
  0
LINE
  5
C27
330
1F
100
AcDbEntity
  8
AM_VIS
100
AcDbLine
 10
110.1895771116091
 20
126.7234626462358
 30
0.0
 11
108.4147918939484
 21
126.7234626462358
 31
0.0
  0
SPLINE
  5
C28
330
1F
100
AcDbEntity
  8
AM_VIS
100
AcDbSpline
210
0.0
220
0.0
230
1.0
 70
    12
 71
     2
 72
     6
 73
     3
 74
     0
 42
0.0000000001
 43
0.0000000001
 40
2.049984015713341
 40
2.049984015713341
 40
2.049984015713341
 40
4.099968031426684
 40
4.099968031426684
 40
4.099968031426684
 10
110.5021845027787
 20
125.7130996751539
 30
0.0
 41
1.0
 10
110.5021845027787
 20
126.1820107619084
 30
0.0
 41
1.037954849302082
 10
110.1895771116091
 20
126.7234626462358
 30
0.0
 41
1.0
  0
SPLINE
  5
C29
330
1F
100
AcDbEntity
  8
AM_VIS
100
AcDbSpline
210
0.0
220
0.0
230
1.0
 70
    12
 71
     2
 72
     6
 73
     3
 74
     0
 42
0.0000000001
 43
0.0000000001
 40
2.049984015713333
 40
2.049984015713333
 40
2.049984015713333
 40
4.099968031426667
 40
4.099968031426667
 40
4.099968031426667
 10
110.5021845027787
 20
122.6820107619084
 30
0.0
 41
1.0
 10
110.5021845027787
 20
123.6198329354172
 30
0.0
 41
1.037954849302048
 10
110.1895771116091
 20
124.7027367040721
 30
0.0
 41
1.0
  0
SPLINE
  5
C2A
330
1F
100
AcDbEntity
  8
AM_VIS
100
AcDbSpline
210
0.0
220
0.0
230
1.0
 70
    12
 71
     2
 72
     6
 73
     3
 74
     0
 42
0.0000000001
 43
0.0000000001
 40
0.0
 40
0.0
 40
0.0
 40
2.049984015713341
 40
2.049984015713341
 40
2.049984015713341
 10
110.1895771116091
 20
124.7027367040721
 30
0.0
 41
1.0
 10
110.5021845027787
 20
125.2441885883994
 30
0.0
 41
1.03795484930209
 10
110.5021845027787
 20
125.7130996751539
 30
0.0
 41
1.0
  0
SPLINE
  5
C2B
330
1F
100
AcDbEntity
  8
AM_VIS
100
AcDbSpline
210
0.0
220
0.0
230
1.0
 70
    12
 71
     2
 72
     6
 73
     3
 74
     0
 42
0.0000000001
 43
0.0000000001
 40
0.0
 40
0.0
 40
0.0
 40
2.049984015713308
 40
2.049984015713308
 40
2.049984015713308
 10
110.1895771116091
 20
118.640558877581
 30
0.0
 41
1.0
 10
110.5021845027787
 20
119.1820107619084
 30
0.0
 41
1.037954849301944
 10
110.5021845027787
 20
119.6509218486629
 30
0.0
 41
1.0
  0
SPLINE
  5
C2C
330
1F
100
AcDbEntity
  8
AM_VIS
100
AcDbSpline
210
0.0
220
0.0
230
1.0
 70
    12
 71
     2
 72
     6
 73
     3
 74
     0
 42
0.0000000001
 43
0.0000000001
 40
2.049984015713308
 40
2.049984015713308
 40
2.049984015713308
 40
4.099968031426616
 40
4.099968031426616
 40
4.099968031426616
 10
110.5021845027787
 20
119.6509218486629
 30
0.0
 41
1.0
 10
110.5021845027787
 20
120.1198329354172
 30
0.0
 41
1.037954849301939
 10
110.1895771116091
 20
120.6612848197447
 30
0.0
 41
1.0
  0
SPLINE
  5
C2D
330
1F
100
AcDbEntity
  8
AM_VIS
100
AcDbSpline
210
0.0
220
0.0
230
1.0
 70
    12
 71
     2
 72
     6
 73
     3
 74
     0
 42
0.0000000001
 43
0.0000000001
 40
0.0
 40
0.0
 40
0.0
 40
2.049984015713333
 40
2.049984015713333
 40
2.049984015713333
 10
110.1895771116091
 20
120.6612848197447
 30
0.0
 41
1.0
 10
110.5021845027787
 20
121.7441885883995
 30
0.0
 41
1.037954849302043
 10
110.5021845027787
 20
122.6820107619084
 30
0.0
 41
1.0
  0
LINE
  5
C2E
330
1F
100
AcDbEntity
  8
AM_VIS
100
AcDbLine
 10
108.1021845027787
 20
119.1820107619084
 30
0.0
 11
108.4147918939484
 21
118.640558877581
 31
0.0
  0
LINE
  5
C2F
330
1F
100
AcDbEntity
  8
AM_VIS
100
AcDbLine
 10
108.1021845027787
 20
126.1820107619084
 30
0.0
 11
108.4147918939484
 21
126.7234626462358
 31
0.0
  0
LINE
  5
C30
330
1F
100
AcDbEntity
  8
AM_VIS
100
AcDbLine
 10
110.5021845027787
 20
126.1820107619084
 30
0.0
 11
110.1895771116091
 21
126.7234626462358
 31
0.0
  0
LINE
  5
C31
330
1F
100
AcDbEntity
  8
AM_VIS
100
AcDbLine
 10
110.5021845027787
 20
119.1820107619084
 30
0.0
 11
110.1895771116091
 21
118.640558877581
 31
0.0
  0
LINE
  5
C32
330
1F
100
AcDbEntity
  8
AM_VIS
100
AcDbLine
 10
108.1021845027787
 20
125.7130996751539
 30
0.0
 11
108.1021845027787
 21
122.6820107619084
 31
0.0
  0
LINE
  5
C33
330
1F
100
AcDbEntity
  8
AM_VIS
100
AcDbLine
 10
108.1021845027787
 20
122.6820107619084
 30
0.0
 11
108.1021845027787
 21
119.6509218486629
 31
0.0
  0
LINE
  5
C34
330
1F
100
AcDbEntity
  8
AM_VIS
100
AcDbLine
 10
108.1021845027787
 20
119.6509218486629
 30
0.0
 11
108.1021845027787
 21
119.1820107619084
 31
0.0
  0
LINE
  5
C35
330
1F
100
AcDbEntity
  8
AM_VIS
100
AcDbLine
 10
108.1021845027787
 20
126.1820107619084
 30
0.0
 11
108.1021845027787
 21
125.7130996751539
 31
0.0
  0
LINE
  5
C36
330
1F
100
AcDbEntity
  8
AM_VIS
100
AcDbLine
 10
110.5021845027787
 20
119.6509218486629
 30
0.0
 11
110.5021845027787
 21
122.6820107619084
 31
0.0
  0
LINE
  5
C37
330
1F
100
AcDbEntity
  8
AM_VIS
100
AcDbLine
 10
110.5021845027787
 20
122.6820107619084
 30
0.0
 11
110.5021845027787
 21
125.7130996751539
 31
0.0
  0
LINE
  5
C38
330
1F
100
AcDbEntity
  8
AM_VIS
100
AcDbLine
 10
110.5021845027787
 20
125.7130996751539
 30
0.0
 11
110.5021845027787
 21
126.1820107619084
 31
0.0
  0
LINE
  5
C39
330
1F
100
AcDbEntity
  8
AM_VIS
100
AcDbLine
 10
110.5021845027787
 20
119.1820107619084
 30
0.0
 11
110.5021845027787
 21
119.6509218486629
 31
0.0
  0
LINE
  5
C3A
330
1F
100
AcDbEntity
  8
AM_VIS
100
AcDbLine
 10
125.5950278453938
 20
128.1668383119084
 30
0.0
 11
127.6093411601636
 21
128.1668383119084
 31
0.0
  0
LINE
  5
C3B
330
1F
100
AcDbEntity
  8
AM_VIS
100
AcDbLine
 10
125.5950278448441
 20
133.6516658719084
 30
0.0
 11
127.6093411607133
 21
133.6516658719084
 31
0.0
  0
SPLINE
  5
C3C
330
1F
100
AcDbEntity
  8
AM_VIS
100
AcDbSpline
210
0.0
220
0.0
230
1.0
 70
    12
 71
     2
 72
     6
 73
     3
 74
     0
 42
0.0000000001
 43
0.0000000001
 40
4.397157632723568
 40
4.397157632723568
 40
4.397157632723568
 40
17.54215258802923
 40
17.54215258802923
 40
17.54215258802923
 10
127.6093411572769
 20
117.1971832019084
 30
0.0
 41
1.160254037767906
 10
129.1926744931133
 20
122.6820107581584
 30
0.0
 41
1.339745962090386
 10
127.6093411601636
 20
128.1668383119084
 30
0.0
 41
1.160254038051314
  0
SPLINE
  5
C3D
330
1F
100
AcDbEntity
  8
AM_VIS
100
AcDbSpline
210
0.0
220
0.0000000000000006
230
1.0
 70
    12
 71
     2
 72
     6
 73
     3
 74
     0
 42
0.0000000001
 43
0.0000000001
 40
4.397157637114494
 40
4.397157637114494
 40
4.397157637114494
 40
17.54215260245597
 40
17.54215260245597
 40
17.54215260245597
 10
127.6093411601636
 20
128.1668383119084
 30
0.0
 41
1.16025403809167
 10
129.1926744969795
 20
130.9092520920275
 30
0.0
 41
1.339745962695246
 10
127.6093411607133
 20
133.6516658719083
 30
-0.0000000000000036
 41
1.16025403814564
  0
LINE
  5
C3E
330
1F
100
AcDbEntity
  8
AM_VIS
100
AcDbLine
 10
125.5950278482806
 20
117.1971832019084
 30
0.0
 11
127.6093411572769
 21
117.1971832019084
 31
0.0
  0
SPLINE
  5
C3F
330
1F
100
AcDbEntity
  8
AM_VIS
100
AcDbSpline
210
0.0
220
0.0
230
1.0
 70
    12
 71
     2
 72
     6
 73
     3
 74
     0
 42
0.0000000001
 43
0.0000000001
 40
4.397157628393501
 40
4.397157628393501
 40
4.397157628393501
 40
17.54215258725183
 40
17.54215258725183
 40
17.54215258725183
 10
127.6093411549398
 20
111.7123556419084
 30
0.0
 41
1.160254037511024
 10
129.1926744915667
 20
114.4547694224144
 30
0.0
 41
1.33974596182075
 10
127.609341157277
 20
117.1971832019084
 30
0.0
 41
1.160254037740462
  0
LINE
  5
C40
330
1F
100
AcDbEntity
  8
AM_VIS
100
AcDbLine
 10
125.5950278506176
 20
111.7123556419084
 30
0.0
 11
127.6093411549399
 21
111.7123556419084
 31
0.0
  0
SPLINE
  5
C41
330
1F
100
AcDbEntity
  8
AM_VIS
100
AcDbSpline
210
0.0
220
0.0
230
1.0
 70
    12
 71
     2
 72
     6
 73
     3
 74
     0
 42
0.0000000001
 43
0.0000000001
 40
4.397157639090742
 40
4.397157639090742
 40
4.397157639090742
 40
17.54215260443221
 40
17.54215260443221
 40
17.54215260443221
 10
125.5950278448441
 20
133.6516658719084
 30
0.0
 41
1.16025403814564
 10
124.0116945085781
 20
130.9092520920274
 30
0.0
 41
1.339745962695247
 10
125.5950278453938
 20
128.1668383119084
 30
0.0
 41
1.16025403809167
  0
SPLINE
  5
C42
330
1F
100
AcDbEntity
  8
AM_VIS
100
AcDbSpline
210
0.0
220
0.0
230
1.0
 70
    12
 71
     2
 72
     6
 73
     3
 74
     0
 42
0.0000000001
 43
0.0000000001
 40
4.397157643101197
 40
4.397157643101197
 40
4.397157643101197
 40
17.54215259840686
 40
17.54215259840686
 40
17.54215259840686
 10
125.5950278453939
 20
128.1668383119084
 30
0.0
 41
1.160254038051315
 10
124.0116945124442
 20
122.6820107581584
 30
0.0000000000000036
 41
1.339745962090387
 10
125.5950278482806
 20
117.1971832019084
 30
0.0
 41
1.160254037767906
  0
SPLINE
  5
C43
330
1F
100
AcDbEntity
  8
AM_VIS
100
AcDbSpline
210
0.0
220
0.0
230
1.0
 70
    12
 71
     2
 72
     6
 73
     3
 74
     0
 42
0.0000000001
 43
0.0000000001
 40
4.397157636794876
 40
4.397157636794876
 40
4.397157636794876
 40
17.54215259565323
 40
17.54215259565323
 40
17.54215259565323
 10
125.5950278482806
 20
117.1971832019084
 30
0.0
 41
1.160254037740463
 10
124.0116945139908
 20
114.4547694224144
 30
0.0
 41
1.339745961820753
 10
125.5950278506176
 20
111.7123556419084
 30
0.0
 41
1.160254037511025
  0
LINE
  5
C44
330
1F
100
AcDbEntity
  8
AM_VIS
100
AcDbLine
 10
128.6021845027787
 20
131.9320107619084
 30
0.0
 11
127.6093411607133
 21
133.6516658719084
 31
0.0
  0
LINE
  5
C45
330
1F
100
AcDbEntity
  8
AM_VIS
100
AcDbLine
 10
128.6021845027787
 20
113.4320107619084
 30
0.0
 11
127.6093411549399
 21
111.7123556419084
 31
0.0
  0
LINE
  5
C46
330
1F
100
AcDbEntity
  8
AM_VIS
100
AcDbLine
 10
124.6021845027787
 20
113.4320107619084
 30
0.0
 11
125.5950278506176
 21
111.7123556419084
 31
0.0
  0
LINE
  5
C47
330
1F
100
AcDbEntity
  8
AM_VIS
100
AcDbLine
 10
124.6021845027787
 20
131.9320107619084
 30
0.0
 11
125.5950278448441
 21
133.6516658719084
 31
0.0
  0
LINE
  5
C48
330
1F
100
AcDbEntity
  8
AM_VIS
100
AcDbLine
 10
128.6021845027787
 20
113.4320107619084
 30
0.0
 11
128.6021845027787
 21
131.9320107619084
 31
0.0
  0
LINE
  5
C49
330
1F
100
AcDbEntity
  8
AM_VIS
100
AcDbLine
 10
124.6021845027787
 20
131.9320107619084
 30
0.0
 11
124.6021845027787
 21
113.4320107619084
 31
0.0
  0
LINE
  5
C4A
330
1F
100
AcDbEntity
  8
AM_VIS
100
AcDbLine
 10
121.5950278453938
 20
128.1668383119084
 30
0.0
 11
123.6093411601636
 21
128.1668383119084
 31
0.0
  0
LINE
  5
C4B
330
1F
100
AcDbEntity
  8
AM_VIS
100
AcDbLine
 10
121.5950278448441
 20
133.6516658719084
 30
0.0
 11
123.6093411607134
 21
133.6516658719084
 31
0.0
  0
SPLINE
  5
C4C
330
1F
100
AcDbEntity
  8
AM_VIS
100
AcDbSpline
210
0.0
220
0.0
230
1.0
 70
    12
 71
     2
 72
     6
 73
     3
 74
     0
 42
0.0000000001
 43
0.0000000001
 40
4.397157632723568
 40
4.397157632723568
 40
4.397157632723568
 40
17.54215258802923
 40
17.54215258802923
 40
17.54215258802923
 10
123.6093411572769
 20
117.1971832019085
 30
0.0
 41
1.160254037767906
 10
125.1926744931133
 20
122.6820107581585
 30
0.0
 41
1.339745962090386
 10
123.6093411601636
 20
128.1668383119084
 30
0.0
 41
1.160254038051314
  0
SPLINE
  5
C4D
330
1F
100
AcDbEntity
  8
AM_VIS
100
AcDbSpline
210
0.0
220
0.0000000000000006
230
1.0
 70
    12
 71
     2
 72
     6
 73
     3
 74
     0
 42
0.0000000001
 43
0.0000000001
 40
4.397157637114494
 40
4.397157637114494
 40
4.397157637114494
 40
17.54215260245597
 40
17.54215260245597
 40
17.54215260245597
 10
123.6093411601636
 20
128.1668383119084
 30
0.0
 41
1.16025403809167
 10
125.1926744969795
 20
130.9092520920275
 30
0.0
 41
1.339745962695246
 10
123.6093411607133
 20
133.6516658719083
 30
-0.0000000000000036
 41
1.16025403814564
  0
LINE
  5
C4E
330
1F
100
AcDbEntity
  8
AM_VIS
100
AcDbLine
 10
121.5950278482806
 20
117.1971832019084
 30
0.0
 11
123.6093411572769
 21
117.1971832019084
 31
0.0
  0
SPLINE
  5
C4F
330
1F
100
AcDbEntity
  8
AM_VIS
100
AcDbSpline
210
0.0
220
0.0
230
1.0
 70
    12
 71
     2
 72
     6
 73
     3
 74
     0
 42
0.0000000001
 43
0.0000000001
 40
4.397157628393501
 40
4.397157628393501
 40
4.397157628393501
 40
17.54215258725183
 40
17.54215258725183
 40
17.54215258725183
 10
123.6093411549398
 20
111.7123556419084
 30
0.0
 41
1.160254037511024
 10
125.1926744915667
 20
114.4547694224144
 30
0.0
 41
1.33974596182075
 10
123.6093411572769
 20
117.1971832019085
 30
0.0
 41
1.160254037740462
  0
LINE
  5
C50
330
1F
100
AcDbEntity
  8
AM_VIS
100
AcDbLine
 10
121.5950278506176
 20
111.7123556419084
 30
0.0
 11
123.6093411549399
 21
111.7123556419084
 31
0.0
  0
SPLINE
  5
C51
330
1F
100
AcDbEntity
  8
AM_VIS
100
AcDbSpline
210
0.0
220
0.0
230
1.0
 70
    12
 71
     2
 72
     6
 73
     3
 74
     0
 42
0.0000000001
 43
0.0000000001
 40
4.397157639090742
 40
4.397157639090742
 40
4.397157639090742
 40
17.54215260443221
 40
17.54215260443221
 40
17.54215260443221
 10
121.5950278448441
 20
133.6516658719084
 30
0.0
 41
1.16025403814564
 10
120.0116945085781
 20
130.9092520920274
 30
0.0
 41
1.339745962695247
 10
121.5950278453939
 20
128.1668383119084
 30
0.0
 41
1.16025403809167
  0
SPLINE
  5
C52
330
1F
100
AcDbEntity
  8
AM_VIS
100
AcDbSpline
210
0.0
220
0.0
230
1.0
 70
    12
 71
     2
 72
     6
 73
     3
 74
     0
 42
0.0000000001
 43
0.0000000001
 40
4.397157643101197
 40
4.397157643101197
 40
4.397157643101197
 40
17.54215259840686
 40
17.54215259840686
 40
17.54215259840686
 10
121.5950278453939
 20
128.1668383119084
 30
0.0
 41
1.160254038051315
 10
120.0116945124443
 20
122.6820107581584
 30
0.0000000000000036
 41
1.339745962090387
 10
121.5950278482806
 20
117.1971832019085
 30
0.0
 41
1.160254037767906
  0
SPLINE
  5
C53
330
1F
100
AcDbEntity
  8
AM_VIS
100
AcDbSpline
210
0.0
220
0.0
230
1.0
 70
    12
 71
     2
 72
     6
 73
     3
 74
     0
 42
0.0000000001
 43
0.0000000001
 40
4.397157636794876
 40
4.397157636794876
 40
4.397157636794876
 40
17.54215259565323
 40
17.54215259565323
 40
17.54215259565323
 10
121.5950278482806
 20
117.1971832019085
 30
0.0
 41
1.160254037740463
 10
120.0116945139908
 20
114.4547694224144
 30
0.0
 41
1.339745961820753
 10
121.5950278506176
 20
111.7123556419084
 30
0.0
 41
1.160254037511025
  0
LINE
  5
C54
330
1F
100
AcDbEntity
  8
AM_VIS
100
AcDbLine
 10
124.6021845027787
 20
131.9320107619084
 30
0.0
 11
123.6093411607134
 21
133.6516658719084
 31
0.0
  0
LINE
  5
C55
330
1F
100
AcDbEntity
  8
AM_VIS
100
AcDbLine
 10
124.6021845027787
 20
113.4320107619084
 30
0.0
 11
123.6093411549399
 21
111.7123556419084
 31
0.0
  0
LINE
  5
C56
330
1F
100
AcDbEntity
  8
AM_VIS
100
AcDbLine
 10
120.6021845027787
 20
113.4320107619084
 30
0.0
 11
121.5950278506176
 21
111.7123556419084
 31
0.0
  0
LINE
  5
C57
330
1F
100
AcDbEntity
  8
AM_VIS
100
AcDbLine
 10
120.6021845027787
 20
131.9320107619084
 30
0.0
 11
121.5950278448441
 21
133.6516658719084
 31
0.0
  0
LINE
  5
C58
330
1F
100
AcDbEntity
  8
AM_VIS
100
AcDbLine
 10
124.6021845027787
 20
113.4320107619084
 30
0.0
 11
124.6021845027787
 21
131.9320107619084
 31
0.0
  0
LINE
  5
C59
330
1F
100
AcDbEntity
  8
AM_VIS
100
AcDbLine
 10
120.6021845027787
 20
131.9320107619084
 30
0.0
 11
120.6021845027787
 21
113.4320107619084
 31
0.0
  0
LINE
  5
C5A
330
1F
100
AcDbEntity
  8
AM_VIS
100
AcDbLine
 10
116.6021845027787
 20
124.6820107619084
 30
0.0
 11
114.6021845027787
 21
124.6820107619084
 31
0.0
  0
LINE
  5
C5B
330
1F
100
AcDbEntity
  8
AM_VIS
100
AcDbLine
 10
116.6021845027787
 20
120.6820107619084
 30
0.0
 11
114.6021845027787
 21
120.6820107619084
 31
0.0
  0
LINE
  5
C5C
330
1F
100
AcDbEntity
  8
AM_VIS
100
AcDbLine
 10
114.6021845027787
 20
124.6820107619084
 30
0.0
 11
112.9021845027788
 21
124.6820107619084
 31
0.0
  0
LINE
  5
C5D
330
1F
100
AcDbEntity
  8
AM_VIS
100
AcDbLine
 10
108.1021845027787
 20
124.6820107619084
 30
0.0
 11
105.6021845027787
 21
124.6820107619084
 31
0.0
  0
LINE
  5
C5E
330
1F
100
AcDbEntity
  8
AM_VIS
100
AcDbLine
 10
114.6021845027787
 20
120.6820107619084
 30
0.0
 11
112.9021845027788
 21
120.6820107619084
 31
0.0
  0
LINE
  5
C5F
330
1F
100
AcDbEntity
  8
AM_VIS
100
AcDbLine
 10
108.1021845027787
 20
120.6820107619084
 30
0.0
 11
105.6021845027787
 21
120.6820107619084
 31
0.0
  0
LINE
  5
C60
330
1F
100
AcDbEntity
  8
AM_VIS
100
AcDbLine
 10
105.1021845027787
 20
121.1820107619084
 30
0.0
 11
105.6021845027787
 21
120.6820107619084
 31
0.0
  0
LINE
  5
C61
330
1F
100
AcDbEntity
  8
AM_VIS
100
AcDbLine
 10
105.1021845027787
 20
124.1820107619084
 30
0.0
 11
105.6021845027787
 21
124.6820107619084
 31
0.0
  0
LINE
  5
C62
330
1F
100
AcDbEntity
  8
AM_VIS
100
AcDbLine
 10
116.6021845027787
 20
120.6820107619084
 30
0.0
 11
117.1021845027787
 21
120.1820107619084
 31
0.0
  0
LINE
  5
C63
330
1F
100
AcDbEntity
  8
AM_VIS
100
AcDbLine
 10
116.6021845027787
 20
124.6820107619084
 30
0.0
 11
117.1021845027787
 21
125.1820107619084
 31
0.0
  0
LINE
  5
C64
330
1F
100
AcDbEntity
  8
AM_VIS
100
AcDbLine
 10
105.6021845027787
 20
124.6820107619084
 30
0.0
 11
105.6021845027787
 21
120.6820107619084
 31
0.0
  0
LINE
  5
C65
102
{ACAD_REACTORS
330
10BA
102
}
330
1F
100
AcDbEntity
  8
AM_VIS
100
AcDbLine
 10
105.1021845027787
 20
121.1820107619084
 30
0.0
 11
105.1021845027787
 21
124.1820107619084
 31
0.0
  0
LINE
  5
C66
330
1F
100
AcDbEntity
  8
AM_VIS
100
AcDbLine
 10
116.6021845027787
 20
120.6820107619084
 30
0.0
 11
116.6021845027787
 21
124.6820107619084
 31
0.0
  0
LINE
  5
C67
330
1F
100
AcDbEntity
  8
AM_VIS
100
AcDbLine
 10
119.0404761142716
 20
118.9292340119084
 30
0.0
 11
120.6021845027787
 21
118.9292340119084
 31
0.0
  0
LINE
  5
C68
330
1F
100
AcDbEntity
  8
AM_VIS
100
AcDbLine
 10
128.6021845027787
 20
118.9292340119084
 30
0.0
 11
137.2329527832859
 21
118.9292340119084
 31
0.0
  0
LINE
  5
C69
330
1F
100
AcDbEntity
  8
AM_VIS
100
AcDbLine
 10
119.0404761142716
 20
126.4347875119084
 30
0.0
 11
120.6021845027787
 21
126.4347875119084
 31
0.0
  0
LINE
  5
C6A
330
1F
100
AcDbEntity
  8
AM_VIS
100
AcDbLine
 10
128.6021845027787
 20
126.4347875119084
 30
0.0
 11
137.2329527832859
 21
126.4347875119084
 31
0.0
  0
SPLINE
  5
C6B
330
1F
100
AcDbEntity
  8
AM_VIS
100
AcDbSpline
210
0.0
220
0.0
230
1.0
 70
    12
 71
     2
 72
     6
 73
     3
 74
     0
 42
0.0000000001
 43
0.0000000001
 40
4.360679341342861
 40
4.360679341342861
 40
4.360679341342861
 40
14.13256266810755
 40
14.13256266810755
 40
14.13256266810755
 10
137.2329527830543
 20
115.1764572619084
 30
0.0
 41
1.249504348393892
 10
138.3162861180144
 20
117.0528456369586
 30
0.0
 41
1.442803343805453
 10
137.2329527832858
 20
118.9292340119084
 30
0.0
 41
1.249504348429682
  0
SPLINE
  5
C6C
330
1F
100
AcDbEntity
  8
AM_VIS
100
AcDbSpline
210
0.0
220
0.0
230
1.0
 70
    12
 71
     2
 72
     6
 73
     3
 74
     0
 42
0.0000000001
 43
0.0000000001
 40
4.360679341721719
 40
4.360679341721719
 40
4.360679341721719
 40
14.13256266923447
 40
14.13256266923447
 40
14.13256266923447
 10
137.232952783286
 20
118.9292340119084
 30
0.0
 41
1.249504348435872
 10
138.3162861182749
 20
122.6820107619083
 30
-0.0000000000000036
 41
1.442803343871822
 10
137.232952783286
 20
126.4347875119084
 30
0.0
 41
1.249504348435872
  0
SPLINE
  5
C6D
330
1F
100
AcDbEntity
  8
AM_VIS
100
AcDbSpline
210
0.0
220
0.0
230
1.0
 70
    12
 71
     2
 72
     6
 73
     3
 74
     0
 42
0.0000000001
 43
0.0000000001
 40
4.360679341896982
 40
4.360679341896982
 40
4.360679341896982
 40
14.13256266976347
 40
14.13256266976347
 40
14.13256266976347
 10
137.2329527832859
 20
126.4347875119084
 30
0.0
 41
1.249504348433807
 10
138.316286118246
 20
128.3111758868583
 30
0.0
 41
1.442803343861627
 10
137.2329527830543
 20
130.1875642619084
 30
0.0
 41
1.249504348398018
  0
LINE
  5
C6E
330
1F
100
AcDbEntity
  8
AM_VIS
100
AcDbLine
 10
119.0404761145032
 20
130.1875642619084
 30
0.0
 11
120.6021845027787
 21
130.1875642619084
 31
0.0
  0
LINE
  5
C6F
330
1F
100
AcDbEntity
  8
AM_VIS
100
AcDbLine
 10
128.6021845027787
 20
130.1875642619084
 30
0.0
 11
137.2329527830543
 21
130.1875642619084
 31
0.0
  0
LINE
  5
C70
330
1F
100
AcDbEntity
  8
AM_VIS
100
AcDbLine
 10
119.0404761145032
 20
115.1764572619084
 30
0.0
 11
120.6021845027787
 21
115.1764572619084
 31
0.0
  0
LINE
  5
C71
330
1F
100
AcDbEntity
  8
AM_VIS
100
AcDbLine
 10
128.6021845027787
 20
115.1764572619084
 30
0.0
 11
137.2329527830543
 21
115.1764572619084
 31
0.0
  0
SPLINE
  5
C72
330
1F
100
AcDbEntity
  8
AM_VIS
100
AcDbSpline
210
0.0
220
0.0000000000000005
230
1.0
 70
    12
 71
     2
 72
     6
 73
     3
 74
     0
 42
0.0000000001
 43
0.0000000001
 40
4.77297970631735
 40
4.77297970631735
 40
4.77297970631735
 40
14.79365856966662
 40
14.79365856966662
 40
14.79365856966662
 10
119.0404761142715
 20
126.4347875119084
 30
0.0
 41
1.278064447828692
 10
117.9571427792825
 20
122.6820107619084
 30
0.0
 41
1.475781706017465
 10
119.0404761142717
 20
118.9292340119084
 30
0.0000000000000036
 41
1.278064447828693
  0
SPLINE
  5
C73
330
1F
100
AcDbEntity
  8
AM_VIS
100
AcDbSpline
210
0.0
220
0.0000000000000009
230
1.0
 70
    12
 71
     2
 72
     6
 73
     3
 74
     0
 42
0.0000000001
 43
0.0000000001
 40
4.772979706877895
 40
4.772979706877895
 40
4.772979706877895
 40
14.79365856945617
 40
14.79365856945617
 40
14.79365856945617
 10
119.0404761142715
 20
118.9292340119084
 30
0.0
 41
1.278064447821794
 10
117.9571427795431
 20
117.0528456369586
 30
0.0
 41
1.475781705948925
 10
119.0404761145033
 20
115.1764572619084
 30
0.0000000000000036
 41
1.278064447785187
  0
SPLINE
  5
C74
330
1F
100
AcDbEntity
  8
AM_VIS
100
AcDbSpline
210
0.0
220
0.0
230
1.0
 70
    12
 71
     2
 72
     6
 73
     3
 74
     0
 42
0.0000000001
 43
0.0000000001
 40
4.772979705576542
 40
4.772979705576542
 40
4.772979705576542
 40
14.79365856928723
 40
14.79365856928723
 40
14.79365856928723
 10
119.0404761145032
 20
130.1875642619084
 30
0.0
 41
1.278064447789783
 10
117.9571427793115
 20
128.3111758868583
 30
0.0
 41
1.475781706006817
 10
119.0404761142716
 20
126.4347875119084
 30
0.0
 41
1.27806444782639
  0
LINE
  5
C75
330
1F
100
AcDbEntity
  8
AM_VIS
100
AcDbLine
 10
144.1021845027787
 20
128.6820107619084
 30
0.0
 11
143.1021845027787
 21
128.6820107619084
 31
0.0
  0
LINE
  5
C76
330
1F
100
AcDbEntity
  8
AM_VIS
100
AcDbLine
 10
144.1021845027787
 20
116.6820107619084
 30
0.0
 11
143.1021845027787
 21
116.6820107619084
 31
0.0
  0
LINE
  5
C77
330
1F
100
AcDbEntity
  8
AM_VIS
100
AcDbLine
 10
138.1021845027787
 20
128.6820107619084
 30
0.0
 11
137.2329527830543
 21
130.1875642619084
 31
0.0
  0
LINE
  5
C78
330
1F
100
AcDbEntity
  8
AM_VIS
100
AcDbLine
 10
138.1021845027787
 20
116.6820107619084
 30
0.0
 11
137.2329527830543
 21
115.1764572619084
 31
0.0
  0
LINE
  5
C79
330
1F
100
AcDbEntity
  8
AM_VIS
100
AcDbLine
 10
118.4021845036509
 20
116.2820107603978
 30
0.0
 11
119.0404761145032
 21
115.1764572619084
 31
0.0
  0
LINE
  5
C7A
330
1F
100
AcDbEntity
  8
AM_VIS
100
AcDbLine
 10
118.4021845019066
 20
129.0820107603978
 30
0.0
 11
119.0404761145032
 21
130.1875642619084
 31
0.0
  0
LINE
  5
C7B
330
1F
100
AcDbEntity
  8
AM_VIS
100
AcDbLine
 10
141.6021845027787
 20
128.6820107619084
 30
0.0
 11
138.1021845027787
 21
128.6820107619084
 31
0.0
  0
LINE
  5
C7C
330
1F
100
AcDbEntity
  8
AM_VIS
100
AcDbLine
 10
141.6021845027787
 20
116.6820107619084
 30
0.0
 11
138.1021845027787
 21
116.6820107619084
 31
0.0
  0
LINE
  5
C7D
330
1F
100
AcDbEntity
  8
AM_VIS
100
AcDbLine
 10
141.6021845027787
 20
117.3820107619084
 30
0.0
 11
143.1021845027787
 21
117.3820107619084
 31
0.0
  0
LINE
  5
C7E
330
1F
100
AcDbEntity
  8
AM_VIS
100
AcDbLine
 10
141.6021845027787
 20
127.9820107619084
 30
0.0
 11
143.1021845027787
 21
127.9820107619084
 31
0.0
  0
LINE
  5
C7F
330
1F
100
AcDbEntity
  8
AM_VIS
100
AcDbLine
 10
117.2021845027787
 20
116.2820107598942
 30
0.0
 11
118.4021845027787
 21
116.2820107598942
 31
0.0
  0
LINE
  5
C80
330
1F
100
AcDbEntity
  8
AM_VIS
100
AcDbLine
 10
117.2021845027787
 20
129.0820107598942
 30
0.0
 11
118.4021845027787
 21
129.0820107598942
 31
0.0
  0
LINE
  5
C81
330
1F
100
AcDbEntity
  8
AM_VIS
100
AcDbLine
 10
117.1021845027787
 20
116.3820107598942
 30
0.0
 11
117.2021845027787
 21
116.2820107598942
 31
0.0
  0
LINE
  5
C82
330
1F
100
AcDbEntity
  8
AM_VIS
100
AcDbLine
 10
117.1021845027787
 20
128.9820107598942
 30
0.0
 11
117.2021845027787
 21
129.0820107598942
 31
0.0
  0
LINE
  5
C83
330
1F
100
AcDbEntity
  8
AM_VIS
100
AcDbLine
 10
138.1021845027787
 20
116.6820107619084
 30
0.0
 11
138.1021845027787
 21
128.6820107619084
 31
0.0
  0
LINE
  5
C84
330
1F
100
AcDbEntity
  8
AM_VIS
100
AcDbLine
 10
141.6021845027787
 20
128.6820107619084
 30
0.0
 11
141.6021845027787
 21
116.6820107619084
 31
0.0
  0
LINE
  5
C85
330
1F
100
AcDbEntity
  8
AM_VIS
100
AcDbLine
 10
143.1021845027787
 20
116.6820107619084
 30
0.0
 11
143.1021845027787
 21
128.6820107619084
 31
0.0
  0
LINE
  5
C86
330
1F
100
AcDbEntity
  8
AM_VIS
100
AcDbLine
 10
144.1021845027787
 20
128.6820107619084
 30
0.0
 11
144.1021845027787
 21
116.6820107619084
 31
0.0
  0
LINE
  5
C87
330
1F
100
AcDbEntity
  8
AM_VIS
100
AcDbLine
 10
118.4021845027787
 20
116.2820107598942
 30
0.0
 11
118.4021845027787
 21
129.0820107598942
 31
0.0
  0
LINE
  5
C89
330
1F
100
AcDbEntity
  8
AM_VIS
100
AcDbLine
 10
117.1021845027787
 20
116.3820107598942
 30
0.0
 11
117.1021845027787
 21
128.9820107598942
 31
0.0
  0
LINE
  5
C8A
330
1F
100
AcDbEntity
  8
AM_VIS
100
AcDbLine
 10
80.89773199128513
 20
126.7234626462358
 30
0.0
 11
82.64773199128512
 21
125.7130996751539
 31
0.0
  0
LINE
  5
C8B
330
1F
100
AcDbEntity
  8
AM_VIS
100
AcDbLine
 10
84.39773199128513
 20
122.6820107619084
 30
0.0
 11
84.39773199128513
 21
120.6612848197447
 31
0.0
  0
LINE
  5
C8C
330
1F
100
AcDbEntity
  8
AM_VIS
100
AcDbLine
 10
82.64773199128512
 20
125.7130996751539
 30
0.0
 11
84.39773199128513
 21
124.7027367040721
 31
0.0
  0
LINE
  5
C8D
330
1F
100
AcDbEntity
  8
AM_VIS
100
AcDbLine
 10
84.39773199128513
 20
124.7027367040721
 30
0.0
 11
84.39773199128513
 21
122.6820107619084
 31
0.0
  0
LINE
  5
C8E
330
1F
100
AcDbEntity
  8
AM_VIS
100
AcDbLine
 10
80.89773199128519
 20
118.640558877581
 30
0.0
 11
82.64773199128512
 21
119.6509218486629
 31
0.0
  0
LINE
  5
C8F
330
1F
100
AcDbEntity
  8
AM_VIS
100
AcDbLine
 10
82.64773199128512
 20
119.6509218486629
 30
0.0
 11
84.39773199128513
 21
120.6612848197447
 31
0.0
  0
LINE
  5
C90
330
1F
100
AcDbEntity
  8
AM_VIS
100
AcDbLine
 10
77.39773199128518
 20
120.6612848197447
 30
0.0
 11
79.14773199128513
 21
119.6509218486629
 31
0.0
  0
LINE
  5
C91
330
1F
100
AcDbEntity
  8
AM_VIS
100
AcDbLine
 10
79.14773199128513
 20
119.6509218486629
 30
0.0
 11
80.89773199128513
 21
118.640558877581
 31
0.0
  0
LINE
  5
C92
330
1F
100
AcDbEntity
  8
AM_VIS
100
AcDbLine
 10
77.39773199128513
 20
124.7027367040721
 30
0.0
 11
77.39773199128513
 21
122.6820107619084
 31
0.0
  0
LINE
  5
C93
330
1F
100
AcDbEntity
  8
AM_VIS
100
AcDbLine
 10
77.39773199128513
 20
122.6820107619084
 30
0.0
 11
77.39773199128513
 21
120.6612848197447
 31
0.0
  0
LINE
  5
C94
330
1F
100
AcDbEntity
  8
AM_VIS
100
AcDbLine
 10
79.14773199128513
 20
125.7130996751539
 30
0.0
 11
80.89773199128513
 21
126.7234626462358
 31
0.0
  0
LINE
  5
C95
330
1F
100
AcDbEntity
  8
AM_VIS
100
AcDbLine
 10
77.39773199128513
 20
124.7027367040721
 30
0.0
 11
79.14773199128513
 21
125.7130996751539
 31
0.0
  0
LINE
  5
C96
330
1F
100
AcDbEntity
  8
AM_VIS
100
AcDbLine
 10
80.89773199128513
 20
126.7234626462358
 30
0.0
 11
82.64773199128512
 21
125.7130996751539
 31
0.0
  0
LINE
  5
C97
330
1F
100
AcDbEntity
  8
AM_VIS
100
AcDbLine
 10
84.39773199128513
 20
122.6820107619084
 30
0.0
 11
84.39773199128513
 21
120.6612848197447
 31
0.0
  0
LINE
  5
C98
330
1F
100
AcDbEntity
  8
AM_VIS
100
AcDbLine
 10
82.64773199128512
 20
125.7130996751539
 30
0.0
 11
84.39773199128513
 21
124.7027367040721
 31
0.0
  0
LINE
  5
C99
330
1F
100
AcDbEntity
  8
AM_VIS
100
AcDbLine
 10
84.39773199128513
 20
124.7027367040721
 30
0.0
 11
84.39773199128513
 21
122.6820107619084
 31
0.0
  0
LINE
  5
C9A
330
1F
100
AcDbEntity
  8
AM_VIS
100
AcDbLine
 10
80.89773199128519
 20
118.640558877581
 30
0.0
 11
82.64773199128512
 21
119.6509218486629
 31
0.0
  0
LINE
  5
C9B
330
1F
100
AcDbEntity
  8
AM_VIS
100
AcDbLine
 10
82.64773199128512
 20
119.6509218486629
 30
0.0
 11
84.39773199128513
 21
120.6612848197447
 31
0.0
  0
LINE
  5
C9C
330
1F
100
AcDbEntity
  8
AM_VIS
100
AcDbLine
 10
77.39773199128518
 20
120.6612848197447
 30
0.0
 11
79.14773199128513
 21
119.6509218486629
 31
0.0
  0
LINE
  5
C9D
330
1F
100
AcDbEntity
  8
AM_VIS
100
AcDbLine
 10
79.14773199128513
 20
119.6509218486629
 30
0.0
 11
80.89773199128513
 21
118.640558877581
 31
0.0
  0
LINE
  5
C9E
330
1F
100
AcDbEntity
  8
AM_VIS
100
AcDbLine
 10
77.39773199128513
 20
124.7027367040721
 30
0.0
 11
77.39773199128513
 21
122.6820107619084
 31
0.0
  0
LINE
  5
C9F
330
1F
100
AcDbEntity
  8
AM_VIS
100
AcDbLine
 10
77.39773199128513
 20
122.6820107619084
 30
0.0
 11
77.39773199128513
 21
120.6612848197447
 31
0.0
  0
LINE
  5
CA0
330
1F
100
AcDbEntity
  8
AM_VIS
100
AcDbLine
 10
79.14773199128513
 20
125.7130996751539
 30
0.0
 11
80.89773199128513
 21
126.7234626462358
 31
0.0
  0
LINE
  5
CA1
330
1F
100
AcDbEntity
  8
AM_VIS
100
AcDbLine
 10
77.39773199128513
 20
124.7027367040721
 30
0.0
 11
79.14773199128513
 21
125.7130996751539
 31
0.0
  0
ARC
  5
CA2
330
1F
100
AcDbEntity
  8
AM_VIS
100
AcDbCircle
 10
80.89773199128513
 20
122.6820107619084
 30
0.0
 40
3.5
100
AcDbArc
 50
0.0
 51
60.00000000000028
  0
ARC
  5
CA3
330
1F
100
AcDbEntity
  8
AM_VIS
100
AcDbCircle
 10
80.89773199128513
 20
122.6820107619084
 30
0.0
 40
3.5
100
AcDbArc
 50
299.9999999999997
 51
0.0
  0
ARC
  5
CA4
330
1F
100
AcDbEntity
  8
AM_VIS
100
AcDbCircle
 10
80.89773199128513
 20
122.6820107619084
 30
0.0
 40
3.5
100
AcDbArc
 50
240.0000000000002
 51
300.0000000000005
  0
ARC
  5
CA5
330
1F
100
AcDbEntity
  8
AM_VIS
100
AcDbCircle
 10
80.89773199128513
 20
122.6820107619084
 30
0.0
 40
3.5
100
AcDbArc
 50
180.0
 51
240.0000000000002
  0
ARC
  5
CA6
330
1F
100
AcDbEntity
  8
AM_VIS
100
AcDbCircle
 10
80.89773199128513
 20
122.6820107619084
 30
0.0
 40
3.5
100
AcDbArc
 50
119.9999999999997
 51
180.0
  0
ARC
  5
CA7
330
1F
100
AcDbEntity
  8
AM_VIS
100
AcDbCircle
 10
80.89773199128513
 20
122.6820107619084
 30
0.0
 40
3.5
100
AcDbArc
 50
60.00000000000028
 51
119.9999999999997
  0
LINE
  5
CA9
330
1F
100
AcDbEntity
  8
AM_VIS
100
AcDbLine
 10
80.89773199128513
 20
133.6516658719084
 30
0.0
 11
90.39773199128513
 21
128.1668383119084
 31
0.0
  0
LINE
  5
CAA
330
1F
100
AcDbEntity
  8
AM_VIS
100
AcDbLine
 10
90.39773199128513
 20
128.1668383119084
 30
0.0
 11
90.39773199128513
 21
117.1971832019084
 31
0.0
  0
LINE
  5
CAB
330
1F
100
AcDbEntity
  8
AM_VIS
100
AcDbLine
 10
80.89773199128513
 20
111.7123556419084
 30
0.0
 11
90.39773199128513
 21
117.1971832019084
 31
0.0
  0
LINE
  5
CAC
330
1F
100
AcDbEntity
  8
AM_VIS
100
AcDbLine
 10
71.39773199128512
 20
117.1971832019084
 30
0.0
 11
80.89773199128513
 21
111.7123556419084
 31
0.0
  0
LINE
  5
CAD
330
1F
100
AcDbEntity
  8
AM_VIS
100
AcDbLine
 10
71.39773199128512
 20
128.1668383119084
 30
0.0
 11
71.39773199128512
 21
117.1971832019084
 31
0.0
  0
LINE
  5
CAE
330
1F
100
AcDbEntity
  8
AM_VIS
100
AcDbLine
 10
71.39773199128512
 20
128.1668383119084
 30
0.0
 11
80.89773199128513
 21
133.6516658719084
 31
0.0
  0
LINE
  5
CAF
330
1F
100
AcDbEntity
  8
AM_VIS
100
AcDbLine
 10
80.89773199128513
 20
133.6516658719084
 30
0.0
 11
90.39773199128513
 21
128.1668383119084
 31
0.0
  0
LINE
  5
CB0
330
1F
100
AcDbEntity
  8
AM_VIS
100
AcDbLine
 10
90.39773199128513
 20
128.1668383119084
 30
0.0
 11
90.39773199128513
 21
117.1971832019084
 31
0.0
  0
LINE
  5
CB1
330
1F
100
AcDbEntity
  8
AM_VIS
100
AcDbLine
 10
80.89773199128513
 20
111.7123556419084
 30
0.0
 11
90.39773199128513
 21
117.1971832019084
 31
0.0
  0
LINE
  5
CB2
330
1F
100
AcDbEntity
  8
AM_VIS
100
AcDbLine
 10
71.39773199128512
 20
117.1971832019084
 30
0.0
 11
80.89773199128513
 21
111.7123556419084
 31
0.0
  0
LINE
  5
CB3
330
1F
100
AcDbEntity
  8
AM_VIS
100
AcDbLine
 10
71.39773199128512
 20
128.1668383119084
 30
0.0
 11
71.39773199128512
 21
117.1971832019084
 31
0.0
  0
LINE
  5
CB4
330
1F
100
AcDbEntity
  8
AM_VIS
100
AcDbLine
 10
71.39773199128512
 20
128.1668383119084
 30
0.0
 11
80.89773199128513
 21
133.6516658719084
 31
0.0
  0
CIRCLE
  5
CB5
330
1F
100
AcDbEntity
  8
AM_VIS
100
AcDbCircle
 10
80.89773199128513
 20
122.6820107619084
 30
0.0
 40
9.250000000000003
  0
CIRCLE
  5
CB6
330
1F
100
AcDbEntity
  8
AM_VIS
100
AcDbCircle
 10
80.89773199128513
 20
122.6820107569084
 30
0.0
 40
7.776500000000003
  0
ARC
  5
CB7
330
1F
100
AcDbEntity
  8
AM_VIS
100
AcDbCircle
 10
80.89773199128513
 20
122.6820107569084
 30
0.0
 40
7.0765
100
AcDbArc
 50
36.7125753170299
 51
83.28742468650728
  0
ARC
  5
CB8
330
1F
100
AcDbEntity
  8
AM_VIS
100
AcDbCircle
 10
80.89773199128513
 20
122.6820107569084
 30
0.0
 40
7.0765
100
AcDbArc
 50
336.7125752242091
 51
23.28742477579087
  0
ARC
  5
CB9
330
1F
100
AcDbEntity
  8
AM_VIS
100
AcDbCircle
 10
80.89773199128513
 20
122.6820107569084
 30
0.0
 40
7.0765
100
AcDbArc
 50
276.7125751444102
 51
323.2874248591248
  0
ARC
  5
CBA
330
1F
100
AcDbEntity
  8
AM_VIS
100
AcDbCircle
 10
80.89773199128513
 20
122.6820107569084
 30
0.0
 40
7.0765
100
AcDbArc
 50
216.7125751491546
 51
263.2874248543812
  0
ARC
  5
CBB
330
1F
100
AcDbEntity
  8
AM_VIS
100
AcDbCircle
 10
80.89773199128513
 20
122.6820107569084
 30
0.0
 40
7.0765
100
AcDbArc
 50
156.7125752242091
 51
203.2874247757909
  0
ARC
  5
CBC
330
1F
100
AcDbEntity
  8
AM_VIS
100
AcDbCircle
 10
80.89773199128513
 20
122.6820107569084
 30
0.0
 40
7.0765
100
AcDbArc
 50
96.71257533125881
 51
143.2874246722773
  0
CIRCLE
  5
CBD
330
1F
100
AcDbEntity
  8
AM_VIS
100
AcDbCircle
 10
80.89773199128513
 20
122.6820107619084
 30
0.0
 40
2.0
  0
CIRCLE
  5
CBE
330
1F
100
AcDbEntity
  8
AM_VIS
100
AcDbCircle
 10
80.89773199128513
 20
122.6820107619084
 30
0.0
 40
1.5
  0
CIRCLE
  5
CC0
330
1F
100
AcDbEntity
  8
AM_VIS
100
AcDbCircle
 10
80.89773199128513
 20
122.6820107619084
 30
0.0
 40
4.75
  0
LINE
  5
CC1
330
1F
100
AcDbEntity
  8
AM_VIS
100
AcDbLine
 10
87.39773199128512
 20
126.4347875119084
 30
0.0
 11
87.39773199128512
 21
118.9292340119084
 31
0.0
  0
LINE
  5
CC2
330
1F
100
AcDbEntity
  8
AM_VIS
100
AcDbLine
 10
80.89773199128513
 20
115.1764572619084
 30
0.0
 11
87.39773199128512
 21
118.9292340119084
 31
0.0
  0
LINE
  5
CC3
330
1F
100
AcDbEntity
  8
AM_VIS
100
AcDbLine
 10
74.39773199128513
 20
118.9292340113736
 30
0.0
 11
80.89773199128513
 21
115.1764572619084
 31
0.0
  0
LINE
  5
CC4
330
1F
100
AcDbEntity
  8
AM_VIS
100
AcDbLine
 10
74.39773199128513
 20
126.4347875124433
 30
0.0
 11
74.39773199128513
 21
118.9292340113736
 31
0.0
  0
LINE
  5
CC5
330
1F
100
AcDbEntity
  8
AM_VIS
100
AcDbLine
 10
74.39773199128513
 20
126.4347875124433
 30
0.0
 11
80.89773199035869
 21
130.1875642619084
 31
0.0
  0
LINE
  5
CC6
330
1F
100
AcDbEntity
  8
AM_VIS
100
AcDbLine
 10
80.89773199035869
 20
130.1875642619084
 30
0.0
 11
87.39773199128512
 21
126.4347875119084
 31
0.0
  0
CIRCLE
  5
CC7
330
1F
100
AcDbEntity
  8
AM_VIS
100
AcDbCircle
 10
80.89773199128513
 20
122.6820107598942
 30
0.0
 40
6.4
  0
CIRCLE
  5
CC9
330
1F
100
AcDbEntity
  8
AM_VIS
100
AcDbCircle
 10
80.89773199128513
 20
122.6820107598942
 30
0.0
 40
5.85
  0
LINE
  5
CCB
330
1F
100
AcDbEntity
  8
AM_VIS
100
AcDbLine
 10
125.5950278453938
 20
209.8619615389448
 30
0.0
 11
127.6093411601636
 21
209.8619615389448
 31
0.0
  0
LINE
  5
CCC
330
1F
100
AcDbEntity
  8
AM_VIS
100
AcDbLine
 10
125.5950278448441
 20
215.3467890989449
 30
0.0
 11
127.6093411607133
 21
215.3467890989449
 31
0.0
  0
SPLINE
  5
CCD
330
1F
100
AcDbEntity
  8
AM_VIS
100
AcDbSpline
210
0.0
220
0.0
230
1.0
 70
    12
 71
     2
 72
     6
 73
     3
 74
     0
 42
0.0000000001
 43
0.0000000001
 40
4.397157632723568
 40
4.397157632723568
 40
4.397157632723568
 40
17.54215258802923
 40
17.54215258802923
 40
17.54215258802923
 10
127.6093411572769
 20
198.8923064289449
 30
0.0
 41
1.160254037767906
 10
129.1926744931133
 20
204.3771339851949
 30
0.0
 41
1.339745962090386
 10
127.6093411601636
 20
209.8619615389448
 30
0.0
 41
1.160254038051314
  0
SPLINE
  5
CCE
330
1F
100
AcDbEntity
  8
AM_VIS
100
AcDbSpline
210
0.0
220
0.0000000000000006
230
1.0
 70
    12
 71
     2
 72
     6
 73
     3
 74
     0
 42
0.0000000001
 43
0.0000000001
 40
4.397157637114494
 40
4.397157637114494
 40
4.397157637114494
 40
17.54215260245597
 40
17.54215260245597
 40
17.54215260245597
 10
127.6093411601636
 20
209.8619615389448
 30
0.0
 41
1.16025403809167
 10
129.1926744969793
 20
212.604375319064
 30
0.0
 41
1.339745962695246
 10
127.6093411607133
 20
215.3467890989448
 30
-0.0000000000000036
 41
1.16025403814564
  0
LINE
  5
CCF
330
1F
100
AcDbEntity
  8
AM_VIS
100
AcDbLine
 10
125.5950278482806
 20
198.8923064289448
 30
0.0
 11
127.6093411572769
 21
198.8923064289448
 31
0.0
  0
SPLINE
  5
CD0
330
1F
100
AcDbEntity
  8
AM_VIS
100
AcDbSpline
210
0.0
220
0.0
230
1.0
 70
    12
 71
     2
 72
     6
 73
     3
 74
     0
 42
0.0000000001
 43
0.0000000001
 40
4.397157628393501
 40
4.397157628393501
 40
4.397157628393501
 40
17.54215258725183
 40
17.54215258725183
 40
17.54215258725183
 10
127.6093411549398
 20
193.4074788689448
 30
0.0
 41
1.160254037511024
 10
129.1926744915667
 20
196.1498926494508
 30
0.0
 41
1.33974596182075
 10
127.6093411572769
 20
198.8923064289449
 30
0.0
 41
1.160254037740462
  0
LINE
  5
CD1
330
1F
100
AcDbEntity
  8
AM_VIS
100
AcDbLine
 10
125.5950278506176
 20
193.4074788689449
 30
0.0
 11
127.6093411549399
 21
193.4074788689449
 31
0.0
  0
SPLINE
  5
CD2
330
1F
100
AcDbEntity
  8
AM_VIS
100
AcDbSpline
210
0.0
220
0.0
230
1.0
 70
    12
 71
     2
 72
     6
 73
     3
 74
     0
 42
0.0000000001
 43
0.0000000001
 40
4.397157639090742
 40
4.397157639090742
 40
4.397157639090742
 40
17.54215260443221
 40
17.54215260443221
 40
17.54215260443221
 10
125.5950278448441
 20
215.3467890989449
 30
0.0
 41
1.16025403814564
 10
124.011694508578
 20
212.6043753190638
 30
0.0
 41
1.339745962695247
 10
125.5950278453938
 20
209.8619615389448
 30
0.0
 41
1.16025403809167
  0
SPLINE
  5
CD3
330
1F
100
AcDbEntity
  8
AM_VIS
100
AcDbSpline
210
0.0
220
0.0
230
1.0
 70
    12
 71
     2
 72
     6
 73
     3
 74
     0
 42
0.0000000001
 43
0.0000000001
 40
4.397157643101197
 40
4.397157643101197
 40
4.397157643101197
 40
17.54215259840686
 40
17.54215259840686
 40
17.54215259840686
 10
125.5950278453938
 20
209.8619615389449
 30
0.0
 41
1.160254038051315
 10
124.0116945124442
 20
204.3771339851949
 30
0.0000000000000036
 41
1.339745962090387
 10
125.5950278482806
 20
198.8923064289449
 30
0.0
 41
1.160254037767906
  0
SPLINE
  5
CD4
330
1F
100
AcDbEntity
  8
AM_VIS
100
AcDbSpline
210
0.0
220
0.0
230
1.0
 70
    12
 71
     2
 72
     6
 73
     3
 74
     0
 42
0.0000000001
 43
0.0000000001
 40
4.397157636794876
 40
4.397157636794876
 40
4.397157636794876
 40
17.54215259565323
 40
17.54215259565323
 40
17.54215259565323
 10
125.5950278482806
 20
198.8923064289449
 30
0.0
 41
1.160254037740463
 10
124.0116945139908
 20
196.1498926494508
 30
0.0
 41
1.339745961820753
 10
125.5950278506176
 20
193.4074788689449
 30
0.0
 41
1.160254037511025
  0
LINE
  5
CD5
330
1F
100
AcDbEntity
  8
AM_VIS
100
AcDbLine
 10
128.6021845027787
 20
213.6271339889448
 30
0.0
 11
127.6093411607133
 21
215.3467890989449
 31
0.0
  0
LINE
  5
CD6
330
1F
100
AcDbEntity
  8
AM_VIS
100
AcDbLine
 10
128.6021845027787
 20
195.1271339889449
 30
0.0
 11
127.6093411549399
 21
193.4074788689449
 31
0.0
  0
LINE
  5
CD7
330
1F
100
AcDbEntity
  8
AM_VIS
100
AcDbLine
 10
124.6021845027787
 20
195.1271339889448
 30
0.0
 11
125.5950278506176
 21
193.4074788689449
 31
0.0
  0
LINE
  5
CD8
330
1F
100
AcDbEntity
  8
AM_VIS
100
AcDbLine
 10
124.6021845027787
 20
213.6271339889449
 30
0.0
 11
125.5950278448441
 21
215.3467890989449
 31
0.0
  0
LINE
  5
CD9
330
1F
100
AcDbEntity
  8
AM_VIS
100
AcDbLine
 10
128.6021845027787
 20
195.1271339889448
 30
0.0
 11
128.6021845027787
 21
213.6271339889448
 31
0.0
  0
LINE
  5
CDA
330
1F
100
AcDbEntity
  8
AM_VIS
100
AcDbLine
 10
124.6021845027787
 20
213.6271339889448
 30
0.0
 11
124.6021845027787
 21
195.1271339889448
 31
0.0
  0
LINE
  5
CDB
330
1F
100
AcDbEntity
  8
AM_VIS
100
AcDbLine
 10
121.5950278453938
 20
209.8619615389449
 30
0.0
 11
123.6093411601636
 21
209.8619615389449
 31
0.0
  0
LINE
  5
CDC
330
1F
100
AcDbEntity
  8
AM_VIS
100
AcDbLine
 10
121.5950278448441
 20
215.3467890989449
 30
0.0
 11
123.6093411607134
 21
215.3467890989449
 31
0.0
  0
SPLINE
  5
CDD
330
1F
100
AcDbEntity
  8
AM_VIS
100
AcDbSpline
210
0.0
220
0.0
230
1.0
 70
    12
 71
     2
 72
     6
 73
     3
 74
     0
 42
0.0000000001
 43
0.0000000001
 40
4.397157632723568
 40
4.397157632723568
 40
4.397157632723568
 40
17.54215258802923
 40
17.54215258802923
 40
17.54215258802923
 10
123.6093411572769
 20
198.8923064289449
 30
0.0
 41
1.160254037767906
 10
125.1926744931133
 20
204.3771339851949
 30
0.0
 41
1.339745962090386
 10
123.6093411601636
 20
209.8619615389449
 30
0.0
 41
1.160254038051314
  0
SPLINE
  5
CDE
330
1F
100
AcDbEntity
  8
AM_VIS
100
AcDbSpline
210
0.0
220
0.0000000000000006
230
1.0
 70
    12
 71
     2
 72
     6
 73
     3
 74
     0
 42
0.0000000001
 43
0.0000000001
 40
4.397157637114494
 40
4.397157637114494
 40
4.397157637114494
 40
17.54215260245597
 40
17.54215260245597
 40
17.54215260245597
 10
123.6093411601636
 20
209.8619615389449
 30
0.0
 41
1.16025403809167
 10
125.1926744969793
 20
212.604375319064
 30
0.0
 41
1.339745962695246
 10
123.6093411607133
 20
215.3467890989448
 30
-0.0000000000000036
 41
1.16025403814564
  0
LINE
  5
CDF
330
1F
100
AcDbEntity
  8
AM_VIS
100
AcDbLine
 10
121.5950278482806
 20
198.8923064289448
 30
0.0
 11
123.6093411572769
 21
198.8923064289448
 31
0.0
  0
SPLINE
  5
CE0
330
1F
100
AcDbEntity
  8
AM_VIS
100
AcDbSpline
210
0.0
220
0.0
230
1.0
 70
    12
 71
     2
 72
     6
 73
     3
 74
     0
 42
0.0000000001
 43
0.0000000001
 40
4.397157628393501
 40
4.397157628393501
 40
4.397157628393501
 40
17.54215258725183
 40
17.54215258725183
 40
17.54215258725183
 10
123.6093411549398
 20
193.4074788689448
 30
0.0
 41
1.160254037511024
 10
125.1926744915667
 20
196.1498926494508
 30
0.0
 41
1.33974596182075
 10
123.6093411572769
 20
198.8923064289449
 30
0.0
 41
1.160254037740462
  0
LINE
  5
CE1
330
1F
100
AcDbEntity
  8
AM_VIS
100
AcDbLine
 10
121.5950278506176
 20
193.4074788689449
 30
0.0
 11
123.6093411549399
 21
193.4074788689449
 31
0.0
  0
SPLINE
  5
CE2
330
1F
100
AcDbEntity
  8
AM_VIS
100
AcDbSpline
210
0.0
220
0.0
230
1.0
 70
    12
 71
     2
 72
     6
 73
     3
 74
     0
 42
0.0000000001
 43
0.0000000001
 40
4.397157639090742
 40
4.397157639090742
 40
4.397157639090742
 40
17.54215260443221
 40
17.54215260443221
 40
17.54215260443221
 10
121.5950278448441
 20
215.3467890989449
 30
0.0
 41
1.16025403814564
 10
120.0116945085781
 20
212.6043753190638
 30
0.0
 41
1.339745962695247
 10
121.5950278453938
 20
209.8619615389448
 30
0.0
 41
1.16025403809167
  0
SPLINE
  5
CE3
330
1F
100
AcDbEntity
  8
AM_VIS
100
AcDbSpline
210
0.0
220
0.0
230
1.0
 70
    12
 71
     2
 72
     6
 73
     3
 74
     0
 42
0.0000000001
 43
0.0000000001
 40
4.397157643101197
 40
4.397157643101197
 40
4.397157643101197
 40
17.54215259840686
 40
17.54215259840686
 40
17.54215259840686
 10
121.5950278453938
 20
209.8619615389449
 30
0.0
 41
1.160254038051315
 10
120.0116945124442
 20
204.3771339851949
 30
0.0000000000000036
 41
1.339745962090387
 10
121.5950278482806
 20
198.8923064289449
 30
0.0
 41
1.160254037767906
  0
SPLINE
  5
CE4
330
1F
100
AcDbEntity
  8
AM_VIS
100
AcDbSpline
210
0.0
220
0.0
230
1.0
 70
    12
 71
     2
 72
     6
 73
     3
 74
     0
 42
0.0000000001
 43
0.0000000001
 40
4.397157636794876
 40
4.397157636794876
 40
4.397157636794876
 40
17.54215259565323
 40
17.54215259565323
 40
17.54215259565323
 10
121.5950278482806
 20
198.8923064289449
 30
0.0
 41
1.160254037740463
 10
120.0116945139908
 20
196.1498926494508
 30
0.0
 41
1.339745961820753
 10
121.5950278506176
 20
193.4074788689449
 30
0.0
 41
1.160254037511025
  0
LINE
  5
CE5
330
1F
100
AcDbEntity
  8
AM_VIS
100
AcDbLine
 10
124.6021845027787
 20
213.6271339889449
 30
0.0
 11
123.6093411607134
 21
215.3467890989449
 31
0.0
  0
LINE
  5
CE6
330
1F
100
AcDbEntity
  8
AM_VIS
100
AcDbLine
 10
124.6021845027787
 20
195.1271339889449
 30
0.0
 11
123.6093411549399
 21
193.4074788689449
 31
0.0
  0
LINE
  5
CE7
330
1F
100
AcDbEntity
  8
AM_VIS
100
AcDbLine
 10
120.6021845027787
 20
195.1271339889449
 30
0.0
 11
121.5950278506176
 21
193.4074788689449
 31
0.0
  0
LINE
  5
CE8
330
1F
100
AcDbEntity
  8
AM_VIS
100
AcDbLine
 10
120.6021845027787
 20
213.6271339889449
 30
0.0
 11
121.5950278448441
 21
215.3467890989449
 31
0.0
  0
LINE
  5
CE9
330
1F
100
AcDbEntity
  8
AM_VIS
100
AcDbLine
 10
124.6021845027787
 20
195.1271339889449
 30
0.0
 11
124.6021845027787
 21
213.6271339889449
 31
0.0
  0
LINE
  5
CEA
330
1F
100
AcDbEntity
  8
AM_VIS
100
AcDbLine
 10
120.6021845027787
 20
213.6271339889449
 30
0.0
 11
120.6021845027787
 21
195.1271339889448
 31
0.0
  0
LINE
  5
CED
330
1F
100
AcDbEntity
  8
AM_VIS
100
AcDbLine
 10
117.1021845027787
 20
206.8771339889449
 30
0.0
 11
105.6021845027787
 21
206.8771339889449
 31
0.0
  0
LINE
  5
CEE
330
1F
100
AcDbEntity
  8
AM_VIS
100
AcDbLine
 10
117.1021845027787
 20
201.8771339889449
 30
0.0
 11
105.6021845027787
 21
201.8771339889449
 31
0.0
  0
LINE
  5
CEF
330
1F
100
AcDbEntity
  8
AM_VIS
100
AcDbLine
 10
105.1021845027787
 20
202.3771339889449
 30
0.0
 11
105.6021845027787
 21
201.8771339889449
 31
0.0
  0
LINE
  5
CF0
330
1F
100
AcDbEntity
  8
AM_VIS
100
AcDbLine
 10
105.1021845027787
 20
206.3771339889449
 30
0.0
 11
105.6021845027787
 21
206.8771339889449
 31
0.0
  0
LINE
  5
CF4
102
{ACAD_REACTORS
330
DA0
330
DEC
102
}
330
1F
100
AcDbEntity
  8
AM_VIS
100
AcDbLine
 10
105.1021845027787
 20
202.3771339889449
 30
0.0
 11
105.1021845027787
 21
206.3771339889449
 31
0.0
  0
LINE
  5
CF6
330
1F
100
AcDbEntity
  8
AM_VIS
100
AcDbLine
 10
119.0404761142716
 20
200.6243572389449
 30
0.0
 11
120.6021845027787
 21
200.6243572389449
 31
0.0
  0
LINE
  5
CF7
330
1F
100
AcDbEntity
  8
AM_VIS
100
AcDbLine
 10
128.6021845027787
 20
200.6243572389449
 30
0.0
 11
137.2329527832859
 21
200.6243572389449
 31
0.0
  0
LINE
  5
CF8
330
1F
100
AcDbEntity
  8
AM_VIS
100
AcDbLine
 10
119.0404761142716
 20
208.1299107389448
 30
0.0
 11
120.6021845027787
 21
208.1299107389448
 31
0.0
  0
LINE
  5
CF9
330
1F
100
AcDbEntity
  8
AM_VIS
100
AcDbLine
 10
128.6021845027787
 20
208.1299107389448
 30
0.0
 11
137.2329527832859
 21
208.1299107389448
 31
0.0
  0
SPLINE
  5
CFA
330
1F
100
AcDbEntity
  8
AM_VIS
100
AcDbSpline
210
0.0
220
0.0
230
1.0
 70
    12
 71
     2
 72
     6
 73
     3
 74
     0
 42
0.0000000001
 43
0.0000000001
 40
4.360679341342861
 40
4.360679341342861
 40
4.360679341342861
 40
14.13256266810755
 40
14.13256266810755
 40
14.13256266810755
 10
137.2329527830543
 20
196.8715804889449
 30
0.0
 41
1.249504348393892
 10
138.3162861180144
 20
198.747968863995
 30
0.0
 41
1.442803343805453
 10
137.2329527832859
 20
200.6243572389449
 30
0.0
 41
1.249504348429682
  0
SPLINE
  5
CFB
330
1F
100
AcDbEntity
  8
AM_VIS
100
AcDbSpline
210
0.0
220
0.0
230
1.0
 70
    12
 71
     2
 72
     6
 73
     3
 74
     0
 42
0.0000000001
 43
0.0000000001
 40
4.360679341721719
 40
4.360679341721719
 40
4.360679341721719
 40
14.13256266923447
 40
14.13256266923447
 40
14.13256266923447
 10
137.2329527832859
 20
200.6243572389449
 30
0.0
 41
1.249504348435872
 10
138.3162861182749
 20
204.3771339889449
 30
-0.0000000000000036
 41
1.442803343871822
 10
137.2329527832859
 20
208.1299107389448
 30
0.0
 41
1.249504348435872
  0
SPLINE
  5
CFC
330
1F
100
AcDbEntity
  8
AM_VIS
100
AcDbSpline
210
0.0
220
0.0
230
1.0
 70
    12
 71
     2
 72
     6
 73
     3
 74
     0
 42
0.0000000001
 43
0.0000000001
 40
4.360679341896982
 40
4.360679341896982
 40
4.360679341896982
 40
14.13256266976347
 40
14.13256266976347
 40
14.13256266976347
 10
137.2329527832859
 20
208.1299107389449
 30
0.0
 41
1.249504348433807
 10
138.316286118246
 20
210.0062991138948
 30
0.0
 41
1.442803343861627
 10
137.2329527830543
 20
211.8826874889448
 30
0.0
 41
1.249504348398018
  0
LINE
  5
CFD
330
1F
100
AcDbEntity
  8
AM_VIS
100
AcDbLine
 10
119.0404761145032
 20
211.8826874889449
 30
0.0
 11
120.6021845027787
 21
211.8826874889449
 31
0.0
  0
LINE
  5
CFE
330
1F
100
AcDbEntity
  8
AM_VIS
100
AcDbLine
 10
128.6021845027787
 20
211.8826874889449
 30
0.0
 11
137.2329527830543
 21
211.8826874889449
 31
0.0
  0
LINE
  5
CFF
330
1F
100
AcDbEntity
  8
AM_VIS
100
AcDbLine
 10
119.0404761145032
 20
196.8715804889449
 30
0.0
 11
120.6021845027787
 21
196.8715804889449
 31
0.0
  0
LINE
  5
D00
330
1F
100
AcDbEntity
  8
AM_VIS
100
AcDbLine
 10
128.6021845027787
 20
196.8715804889449
 30
0.0
 11
137.2329527830543
 21
196.8715804889449
 31
0.0
  0
SPLINE
  5
D01
330
1F
100
AcDbEntity
  8
AM_VIS
100
AcDbSpline
210
0.0
220
0.0000000000000005
230
1.0
 70
    12
 71
     2
 72
     6
 73
     3
 74
     0
 42
0.0000000001
 43
0.0000000001
 40
4.77297970631735
 40
4.77297970631735
 40
4.77297970631735
 40
14.79365856966662
 40
14.79365856966662
 40
14.79365856966662
 10
119.0404761142715
 20
208.1299107389448
 30
0.0
 41
1.278064447828692
 10
117.9571427792825
 20
204.3771339889449
 30
0.0
 41
1.475781706017465
 10
119.0404761142716
 20
200.624357238945
 30
0.0000000000000036
 41
1.278064447828693
  0
SPLINE
  5
D02
330
1F
100
AcDbEntity
  8
AM_VIS
100
AcDbSpline
210
0.0
220
0.0000000000000009
230
1.0
 70
    12
 71
     2
 72
     6
 73
     3
 74
     0
 42
0.0000000001
 43
0.0000000001
 40
4.772979706877895
 40
4.772979706877895
 40
4.772979706877895
 40
14.79365856945617
 40
14.79365856945617
 40
14.79365856945617
 10
119.0404761142716
 20
200.6243572389449
 30
0.0
 41
1.278064447821794
 10
117.9571427795431
 20
198.747968863995
 30
0.0
 41
1.475781705948925
 10
119.0404761145033
 20
196.8715804889449
 30
0.0000000000000036
 41
1.278064447785187
  0
SPLINE
  5
D03
330
1F
100
AcDbEntity
  8
AM_VIS
100
AcDbSpline
210
0.0
220
0.0
230
1.0
 70
    12
 71
     2
 72
     6
 73
     3
 74
     0
 42
0.0000000001
 43
0.0000000001
 40
4.772979705576542
 40
4.772979705576542
 40
4.772979705576542
 40
14.79365856928723
 40
14.79365856928723
 40
14.79365856928723
 10
119.0404761145032
 20
211.8826874889449
 30
0.0
 41
1.278064447789783
 10
117.9571427793115
 20
210.0062991138948
 30
0.0
 41
1.475781706006817
 10
119.0404761142716
 20
208.1299107389448
 30
0.0
 41
1.27806444782639
  0
LINE
  5
D04
330
1F
100
AcDbEntity
  8
AM_VIS
100
AcDbLine
 10
144.1021845027787
 20
210.3771339889449
 30
0.0
 11
143.1021845027787
 21
210.3771339889449
 31
0.0
  0
LINE
  5
D05
330
1F
100
AcDbEntity
  8
AM_VIS
100
AcDbLine
 10
144.1021845027787
 20
198.3771339889448
 30
0.0
 11
143.1021845027787
 21
198.3771339889448
 31
0.0
  0
LINE
  5
D06
330
1F
100
AcDbEntity
  8
AM_VIS
100
AcDbLine
 10
138.1021845027787
 20
210.3771339889449
 30
0.0
 11
137.2329527830543
 21
211.8826874889449
 31
0.0
  0
LINE
  5
D07
330
1F
100
AcDbEntity
  8
AM_VIS
100
AcDbLine
 10
138.1021845027787
 20
198.3771339889448
 30
0.0
 11
137.2329527830543
 21
196.8715804889449
 31
0.0
  0
LINE
  5
D08
330
1F
100
AcDbEntity
  8
AM_VIS
100
AcDbLine
 10
118.4021845036509
 20
197.9771339874342
 30
0.0
 11
119.0404761145032
 21
196.8715804889449
 31
0.0
  0
LINE
  5
D09
330
1F
100
AcDbEntity
  8
AM_VIS
100
AcDbLine
 10
118.4021845019066
 20
210.7771339874342
 30
0.0
 11
119.0404761145032
 21
211.8826874889449
 31
0.0
  0
LINE
  5
D0A
330
1F
100
AcDbEntity
  8
AM_VIS
100
AcDbLine
 10
141.6021845027787
 20
210.3771339889449
 30
0.0
 11
138.1021845027787
 21
210.3771339889449
 31
0.0
  0
LINE
  5
D0B
330
1F
100
AcDbEntity
  8
AM_VIS
100
AcDbLine
 10
141.6021845027787
 20
198.3771339889448
 30
0.0
 11
138.1021845027787
 21
198.3771339889448
 31
0.0
  0
LINE
  5
D0C
330
1F
100
AcDbEntity
  8
AM_VIS
100
AcDbLine
 10
141.6021845027787
 20
199.0771339889449
 30
0.0
 11
143.1021845027787
 21
199.0771339889449
 31
0.0
  0
LINE
  5
D0D
330
1F
100
AcDbEntity
  8
AM_VIS
100
AcDbLine
 10
141.6021845027787
 20
209.6771339889448
 30
0.0
 11
143.1021845027787
 21
209.6771339889448
 31
0.0
  0
LINE
  5
D0E
330
1F
100
AcDbEntity
  8
AM_VIS
100
AcDbLine
 10
117.2021845027787
 20
197.9771339869307
 30
0.0
 11
118.4021845027787
 21
197.9771339869307
 31
0.0
  0
LINE
  5
D0F
330
1F
100
AcDbEntity
  8
AM_VIS
100
AcDbLine
 10
117.2021845027787
 20
210.7771339869307
 30
0.0
 11
118.4021845027787
 21
210.7771339869307
 31
0.0
  0
LINE
  5
D10
330
1F
100
AcDbEntity
  8
AM_VIS
100
AcDbLine
 10
117.1021845027787
 20
198.0771339869307
 30
0.0
 11
117.2021845027787
 21
197.9771339869307
 31
0.0
  0
LINE
  5
D11
330
1F
100
AcDbEntity
  8
AM_VIS
100
AcDbLine
 10
117.1021845027787
 20
210.6771339869307
 30
0.0
 11
117.2021845027787
 21
210.7771339869307
 31
0.0
  0
LINE
  5
D12
330
1F
100
AcDbEntity
  8
AM_VIS
100
AcDbLine
 10
138.1021845027787
 20
198.3771339889448
 30
0.0
 11
138.1021845027787
 21
210.3771339889449
 31
0.0
  0
LINE
  5
D13
330
1F
100
AcDbEntity
  8
AM_VIS
100
AcDbLine
 10
141.6021845027787
 20
210.3771339889449
 30
0.0
 11
141.6021845027787
 21
198.3771339889448
 31
0.0
  0
LINE
  5
D14
330
1F
100
AcDbEntity
  8
AM_VIS
100
AcDbLine
 10
143.1021845027787
 20
198.3771339889448
 30
0.0
 11
143.1021845027787
 21
210.3771339889449
 31
0.0
  0
LINE
  5
D15
102
{ACAD_REACTORS
330
DC6
330
DEC
330
E12
102
}
330
1F
100
AcDbEntity
  8
AM_VIS
100
AcDbLine
 10
144.1021845027787
 20
210.3771339889449
 30
0.0
 11
144.1021845027787
 21
198.3771339889448
 31
0.0
  0
LINE
  5
D16
330
1F
100
AcDbEntity
  8
AM_VIS
100
AcDbLine
 10
118.4021845027787
 20
197.9771339869307
 30
0.0
 11
118.4021845027787
 21
210.7771339869307
 31
0.0
  0
LINE
  5
D18
102
{ACAD_REACTORS
330
DA0
330
DC6
102
}
330
1F
100
AcDbEntity
  8
AM_VIS
100
AcDbLine
 10
117.1021845027787
 20
198.0771339869307
 30
0.0
 11
117.1021845027787
 21
210.6771339869307
 31
0.0
  0
LINE
  5
D19
330
1F
100
AcDbEntity
  8
AM_VIS
100
AcDbLine
 10
80.89773199128513
 20
215.3467890989449
 30
0.0
 11
90.39773199128513
 21
209.8619615389448
 31
0.0
  0
LINE
  5
D1A
330
1F
100
AcDbEntity
  8
AM_VIS
100
AcDbLine
 10
90.39773199128513
 20
209.8619615389448
 30
0.0
 11
90.39773199128513
 21
198.8923064289448
 31
0.0
  0
LINE
  5
D1B
330
1F
100
AcDbEntity
  8
AM_VIS
100
AcDbLine
 10
80.89773199128513
 20
193.4074788689449
 30
0.0
 11
90.39773199128513
 21
198.8923064289448
 31
0.0
  0
LINE
  5
D1C
330
1F
100
AcDbEntity
  8
AM_VIS
100
AcDbLine
 10
71.39773199128512
 20
198.8923064289448
 30
0.0
 11
80.89773199128513
 21
193.4074788689449
 31
0.0
  0
LINE
  5
D1D
102
{ACAD_REACTORS
330
D7A
102
}
330
1F
100
AcDbEntity
  8
AM_VIS
100
AcDbLine
 10
71.39773199128512
 20
209.8619615389449
 30
0.0
 11
71.39773199128512
 21
198.8923064289448
 31
0.0
  0
LINE
  5
D1E
330
1F
100
AcDbEntity
  8
AM_VIS
100
AcDbLine
 10
71.39773199128512
 20
209.8619615389449
 30
0.0
 11
80.89773199128513
 21
215.3467890989449
 31
0.0
  0
LINE
  5
D1F
330
1F
100
AcDbEntity
  8
AM_VIS
100
AcDbLine
 10
80.89773199128513
 20
215.3467890989449
 30
0.0
 11
90.39773199128513
 21
209.8619615389449
 31
0.0
  0
LINE
  5
D20
102
{ACAD_REACTORS
330
D7A
102
}
330
1F
100
AcDbEntity
  8
AM_VIS
100
AcDbLine
 10
90.39773199128513
 20
209.8619615389449
 30
0.0
 11
90.39773199128513
 21
198.8923064289448
 31
0.0
  0
LINE
  5
D21
330
1F
100
AcDbEntity
  8
AM_VIS
100
AcDbLine
 10
80.89773199128513
 20
193.4074788689449
 30
0.0
 11
90.39773199128513
 21
198.8923064289449
 31
0.0
  0
LINE
  5
D22
330
1F
100
AcDbEntity
  8
AM_VIS
100
AcDbLine
 10
71.39773199128512
 20
198.8923064289449
 30
0.0
 11
80.89773199128513
 21
193.4074788689449
 31
0.0
  0
LINE
  5
D23
330
1F
100
AcDbEntity
  8
AM_VIS
100
AcDbLine
 10
71.39773199128512
 20
209.8619615389449
 30
0.0
 11
71.39773199128512
 21
198.8923064289449
 31
0.0
  0
LINE
  5
D24
330
1F
100
AcDbEntity
  8
AM_VIS
100
AcDbLine
 10
71.39773199128512
 20
209.8619615389449
 30
0.0
 11
80.89773199128513
 21
215.3467890989449
 31
0.0
  0
CIRCLE
  5
D25
330
1F
100
AcDbEntity
  8
AM_VIS
100
AcDbCircle
 10
80.89773199128513
 20
204.3771339889449
 30
0.0
 40
9.250000000000003
  0
CIRCLE
  5
D26
330
1F
100
AcDbEntity
  8
AM_VIS
100
AcDbCircle
 10
80.89773199128513
 20
204.3771339839449
 30
0.0
 40
7.776500000000003
  0
ARC
  5
D27
330
1F
100
AcDbEntity
  8
AM_VIS
100
AcDbCircle
 10
80.89773199128513
 20
204.3771339839449
 30
0.0
 40
7.0765
100
AcDbArc
 50
36.7125753170299
 51
83.28742468650728
  0
ARC
  5
D28
330
1F
100
AcDbEntity
  8
AM_VIS
100
AcDbCircle
 10
80.89773199128513
 20
204.3771339839449
 30
0.0
 40
7.0765
100
AcDbArc
 50
336.7125752242091
 51
23.28742477579087
  0
ARC
  5
D29
330
1F
100
AcDbEntity
  8
AM_VIS
100
AcDbCircle
 10
80.89773199128513
 20
204.3771339839449
 30
0.0
 40
7.0765
100
AcDbArc
 50
276.7125751444102
 51
323.2874248591248
  0
ARC
  5
D2A
330
1F
100
AcDbEntity
  8
AM_VIS
100
AcDbCircle
 10
80.89773199128513
 20
204.3771339839449
 30
0.0
 40
7.0765
100
AcDbArc
 50
216.7125751491546
 51
263.2874248543812
  0
ARC
  5
D2B
330
1F
100
AcDbEntity
  8
AM_VIS
100
AcDbCircle
 10
80.89773199128513
 20
204.3771339839449
 30
0.0
 40
7.0765
100
AcDbArc
 50
156.7125752242091
 51
203.2874247757909
  0
ARC
  5
D2C
330
1F
100
AcDbEntity
  8
AM_VIS
100
AcDbCircle
 10
80.89773199128513
 20
204.3771339839449
 30
0.0
 40
7.0765
100
AcDbArc
 50
96.71257533125881
 51
143.2874246722773
  0
CIRCLE
  5
D2D
330
1F
100
AcDbEntity
  8
AM_VIS
100
AcDbCircle
 10
80.89773199128513
 20
204.3771339889449
 30
0.0
 40
2.0
  0
CIRCLE
  5
D2E
330
1F
100
AcDbEntity
  8
AM_VIS
100
AcDbCircle
 10
80.89773199128513
 20
204.3771339889449
 30
0.0
 40
1.5
  0
CIRCLE
  5
D2F
330
1F
100
AcDbEntity
  8
AM_VIS
100
AcDbCircle
 10
80.89773199128513
 20
204.3771339889449
 30
0.0
 40
2.5
  0
CIRCLE
  5
D31
330
1F
100
AcDbEntity
  8
AM_VIS
100
AcDbCircle
 10
80.89773199128513
 20
208.0771339889448
 30
0.0
 40
0.4
  0
CIRCLE
  5
D32
330
1F
100
AcDbEntity
  8
AM_VIS
100
AcDbCircle
 10
80.89773199128513
 20
204.3771339889449
 30
0.0
 40
4.75
  0
LINE
  5
D33
330
1F
100
AcDbEntity
  8
AM_VIS
100
AcDbLine
 10
87.39773199128512
 20
208.1299107389449
 30
0.0
 11
87.39773199128512
 21
200.6243572389449
 31
0.0
  0
LINE
  5
D34
330
1F
100
AcDbEntity
  8
AM_VIS
100
AcDbLine
 10
80.89773199128513
 20
196.8715804889449
 30
0.0
 11
87.39773199128512
 21
200.6243572389449
 31
0.0
  0
LINE
  5
D35
330
1F
100
AcDbEntity
  8
AM_VIS
100
AcDbLine
 10
74.39773199128513
 20
200.62435723841
 30
0.0
 11
80.89773199128513
 21
196.8715804889449
 31
0.0
  0
LINE
  5
D36
330
1F
100
AcDbEntity
  8
AM_VIS
100
AcDbLine
 10
74.39773199128513
 20
208.1299107394797
 30
0.0
 11
74.39773199128513
 21
200.62435723841
 31
0.0
  0
LINE
  5
D37
330
1F
100
AcDbEntity
  8
AM_VIS
100
AcDbLine
 10
74.39773199128513
 20
208.1299107394797
 30
0.0
 11
80.89773199035869
 21
211.8826874889449
 31
0.0
  0
LINE
  5
D38
330
1F
100
AcDbEntity
  8
AM_VIS
100
AcDbLine
 10
80.89773199035869
 20
211.8826874889449
 30
0.0
 11
87.39773199128512
 21
208.1299107389449
 31
0.0
  0
CIRCLE
  5
D39
330
1F
100
AcDbEntity
  8
AM_VIS
100
AcDbCircle
 10
80.89773199128513
 20
204.3771339869307
 30
0.0
 40
6.4
  0
CIRCLE
  5
D3B
330
1F
100
AcDbEntity
  8
AM_VIS
100
AcDbCircle
 10
80.89773199128513
 20
204.3771339869307
 30
0.0
 40
5.85
  0
LINE
  5
D4A
330
1F
100
AcDbEntity
  8
AM_7
100
AcDbLine
 10
103.1021845027787
 20
204.3771339889449
 30
0.0
 11
146.297470505291
 21
204.3771339889449
 31
0.0
1001
GENIUS_GENODEF_13
1002
{
1000
HIER
1070
     0
1002
}
1002
{
1000
MANEDIT
1070
     0
1002
}
1002
{
1000
NOSEL
1070
     0
1002
}
1002
{
1000
BEHIND
1070
     0
1002
}
1002
{
1000
OTHER
1070
     0
1002
}
1002
{
1000
REACTOR
1002
}
1001
GENIUS_GENOBJ-N-CEN_13
1002
{
1000
OWNER
1000
GEN
1002
}
1001
GENIUS_GENCEN_19
1002
{
1040
2.0
1002
}
  0
LINE
  5
D59
330
1F
100
AcDbEntity
  8
AM_7
100
AcDbLine
 10
103.1021845027787
 20
122.6820107619084
 30
0.0
 11
146.5067549949217
 21
122.6820107619084
 31
0.0
1001
GENIUS_GENOBJ-N-CEN_13
1002
{
1000
OWNER
1000
GEN
1002
}
1001
GENIUS_GENODEF_13
1002
{
1000
HIER
1070
     0
1002
}
1002
{
1000
MANEDIT
1070
     0
1002
}
1002
{
1000
NOSEL
1070
     0
1002
}
1002
{
1000
BEHIND
1070
     0
1002
}
1002
{
1000
OTHER
1070
     0
1002
}
1002
{
1000
REACTOR
1002
}
1001
GENIUS_GENCEN_19
1002
{
1040
2.0
1002
}
  0
DIMENSION
  5
D6B
102
{ACAD_XDICTIONARY
360
D79
102
}
102
{ACAD_REACTORS
330
D7A
102
}
330
1F
100
AcDbEntity
  8
AM_5
100
AcDbDimension
  2
*D2
 10
90.39773199128513
 20
185.4074788689446
 30
0.0
 11
80.89773199128513
 21
187.8574788689446
 31
0.0
 70
    32
 71
     5
 42
19.0
  3
AM_ISO$0
100
AcDbAlignedDimension
 13
71.39773199128512
 23
198.8923064289448
 33
0.0
 14
90.39773199128513
 24
198.8923064289448
 34
0.0
 50
0.0000000000001018
100
AcDbRotatedDimension
1001
ACAD
1000
DSTYLE
1002
{
1070
    40
1040
1.0
1070
   144
1040
1.0
1070
   272
1070
     8
1002
}
  0
DIMENSION
  5
D92
102
{ACAD_XDICTIONARY
360
D9F
102
}
102
{ACAD_REACTORS
330
DA0
102
}
330
1F
100
AcDbEntity
  8
AM_5
100
AcDbDimension
  2
*D3
 10
117.1021845027787
 20
177.4074788689446
 30
0.0
 11
111.1021845027787
 21
179.8578233571336
 31
0.0
 70
    32
 71
     5
 42
12.0
  3
AM_ISO$0
100
AcDbAlignedDimension
 13
105.1021845027787
 23
202.3771339889449
 33
0.0
 14
117.1021845027787
 24
198.0771339869307
 34
0.0
 50
0.0000000000001018
100
AcDbRotatedDimension
1001
ACAD
1000
DSTYLE
1002
{
1070
    40
1040
1.0
1070
   144
1040
1.0
1070
   272
1070
     8
1002
}
  0
DIMENSION
  5
DB8
102
{ACAD_XDICTIONARY
360
DC5
102
}
102
{ACAD_REACTORS
330
DC6
102
}
330
1F
100
AcDbEntity
  8
AM_5
100
AcDbDimension
  2
*D4
 10
144.1021845027787
 20
177.4074788689446
 30
0.0
 11
130.6021845027787
 21
179.8574788689446
 31
0.0
 70
    32
  1
S
 71
     5
 42
27.0
  3
AM_ISO$0
100
AcDbAlignedDimension
 13
117.1021845027787
 23
198.0771339869307
 33
0.0
 14
144.1021845027787
 24
198.3771339889448
 34
0.0
 50
0.0000000000001018
100
AcDbRotatedDimension
1001
ACAD
1000
DSTYLE
1002
{
1070
    40
1040
1.0
1070
   144
1040
1.0
1070
   272
1070
     8
1002
}
  0
DIMENSION
  5
DDE
102
{ACAD_XDICTIONARY
360
DEB
102
}
102
{ACAD_REACTORS
330
DEC
102
}
330
1F
100
AcDbEntity
  8
AM_5
100
AcDbDimension
  2
*D5
 10
144.1021845027787
 20
169.4074788689446
 30
0.0
 11
124.6021845027787
 21
171.8574788689446
 31
0.0
 70
    32
  1
Z
 71
     5
 42
39.0
  3
AM_ISO$0
100
AcDbAlignedDimension
 13
105.1021845027787
 23
202.3771339889449
 33
0.0
 14
144.1021845027787
 24
198.3771339889448
 34
0.0
 50
0.0000000000001018
100
AcDbRotatedDimension
1001
ACAD
1000
DSTYLE
1002
{
1070
    40
1040
1.0
1070
   144
1040
1.0
1070
   272
1070
     8
1002
}
  0
DIMENSION
  5
E04
102
{ACAD_XDICTIONARY
360
E11
102
}
102
{ACAD_REACTORS
330
E12
102
}
330
1F
100
AcDbEntity
  8
AM_5
100
AcDbDimension
  2
*D6
 10
156.1021845027787
 20
210.3771339889449
 30
0.0
 11
153.6518400145897
 21
220.502422577198
 31
0.0
 70
    32
  1
%%c<>{}{\C5; d9}
 71
     5
 42
12.0
  3
AM_ISO$0
100
AcDbAlignedDimension
 13
144.1021845027787
 23
198.3771339889448
 33
0.0
 14
144.1021845027787
 24
210.3771339889449
 34
0.0
 50
90.0
100
AcDbRotatedDimension
1001
GENIUS_GENDTOL_13
1000
FitTxt
1000
d9
1000
{$3 $T}
1040
12.0
1001
ACAD
1000
DSTYLE
1002
{
1070
   286
1070
     0
1070
   284
1070
     8
1070
    48
1040
0.1
1070
    47
1040
0.1
1070
   272
1070
     8
1070
   274
1070
     3
1002
}
  0
DIMENSION
  5
E2A
330
1F
100
AcDbEntity
  8
AM_5
100
AcDbDimension
  2
*D7
 10
138.1021845027787
 20
185.4074788689447
 30
0.0
 11
127.6021845027787
 21
187.8574788689446
 31
0.0
 70
    32
  1
F
 71
     5
 42
21.0
  3
AM_ISO$0
100
AcDbAlignedDimension
 13
117.1021845027787
 23
198.0771339869307
 33
0.0
 14
138.1021845027787
 24
198.3771339889448
 34
0.0
 50
0.0000000000001018
100
AcDbRotatedDimension
1001
ACAD
1000
DSTYLE
1002
{
1070
    40
1040
1.0
1070
   144
1040
1.0
1070
   272
1070
     8
1002
}
  0
LINE
  5
ED7
102
{ACAD_REACTORS
330
2332
102
}
330
1F
100
AcDbEntity
  8
AM_VIS
100
AcDbLine
 10
105.6021845027787
 20
206.8771339889449
 30
0.0
 11
105.6021845027787
 21
201.8771339889449
 31
0.0
  0
DIMENSION
  5
F4F
330
1F
100
AcDbEntity
  8
AM_5
100
AcDbDimension
  2
*D10
 10
117.1021845027787
 20
95.71235564190843
 30
0.0
 11
111.1021845027787
 21
98.16270013009742
 31
0.0
 70
    32
 71
     5
 42
12.0
  3
AM_ISO$0
100
AcDbAlignedDimension
 13
105.1021845027787
 23
121.1820107619084
 33
0.0
 14
117.1021845027787
 24
116.3820107598942
 34
0.0
100
AcDbRotatedDimension
1001
ACAD
1000
DSTYLE
1002
{
1070
    40
1040
1.0
1070
   144
1040
1.0
1070
   272
1070
     8
1002
}
  0
DIMENSION
  5
F52
330
1F
100
AcDbEntity
  8
AM_5
100
AcDbDimension
  2
*D11
 10
144.1021845027787
 20
95.71235564190846
 30
0.0
 11
130.6021845027787
 21
98.16235564190847
 31
0.0
 70
    32
  1
S
 71
     5
 42
27.0
  3
AM_ISO$0
100
AcDbAlignedDimension
 13
117.1021845027787
 23
116.3820107598942
 33
0.0
 14
144.1021845027787
 24
116.6820107619084
 34
0.0
100
AcDbRotatedDimension
1001
ACAD
1000
DSTYLE
1002
{
1070
    40
1040
1.0
1070
   144
1040
1.0
1070
   272
1070
     8
1002
}
  0
DIMENSION
  5
F55
330
1F
100
AcDbEntity
  8
AM_5
100
AcDbDimension
  2
*D12
 10
144.1021845027787
 20
87.71235564190845
 30
0.0
 11
124.6021845027787
 21
90.16235564190846
 31
0.0
 70
    32
  1
Z
 71
     5
 42
39.0
  3
AM_ISO$0
100
AcDbAlignedDimension
 13
105.1021845027787
 23
121.1820107619084
 33
0.0
 14
144.1021845027787
 24
116.6820107619084
 34
0.0
100
AcDbRotatedDimension
1001
ACAD
1000
DSTYLE
1002
{
1070
    40
1040
1.0
1070
   144
1040
1.0
1070
   272
1070
     8
1002
}
  0
DIMENSION
  5
F58
330
1F
100
AcDbEntity
  8
AM_5
100
AcDbDimension
  2
*D9
 10
156.1021845027787
 20
128.6820107619084
 30
0.0
 11
153.6518400145897
 21
138.8072993501615
 31
0.0
 70
    32
  1
%%c<>{}{\C5; d9}
 71
     5
 42
12.0
  3
AM_ISO$0
100
AcDbAlignedDimension
 13
144.1021845027787
 23
116.6820107619084
 33
0.0
 14
144.1021845027787
 24
128.6820107619084
 34
0.0
 50
90.0
100
AcDbRotatedDimension
1001
GENIUS_GENDTOL_13
1000
FitTxt
1000
d9
1000
{$3 $T}
1040
12.0
1001
ACAD
1000
DSTYLE
1002
{
1070
   286
1070
     0
1070
   284
1070
     8
1070
    48
1040
0.1
1070
    47
1040
0.1
1070
   272
1070
     8
1070
   274
1070
     3
1002
}
  0
DIMENSION
  5
1006
330
1F
100
AcDbEntity
  8
AM_5
100
AcDbDimension
  2
*D13
 10
90.39773199128516
 20
103.7123556419083
 30
0.0
 11
80.89773199128515
 21
106.1623556419083
 31
0.0
 70
    32
 71
     5
 42
19.0
  3
AM_ISO$0
100
AcDbAlignedDimension
 13
71.39773199128516
 23
117.1971832019084
 33
0.0
 14
90.39773199128516
 24
117.1971832019084
 34
0.0
100
AcDbRotatedDimension
1001
ACAD
1000
DSTYLE
1002
{
1070
    40
1040
1.0
1070
   144
1040
1.0
1070
   272
1070
     8
1002
}
  0
LINE
  5
1036
330
1F
100
AcDbEntity
  8
AM_7
100
AcDbLine
 10
80.89773199128513
 20
204.3771339889449
 30
0.0
 11
92.39773199128512
 21
204.3771339889449
 31
0.0
1001
GENIUS_GENOREF_13
1005
103A
  0
LINE
  5
1037
330
1F
100
AcDbEntity
  8
AM_7
100
AcDbLine
 10
80.89773199128513
 20
204.3771339889449
 30
0.0
 11
80.89773199128513
 21
215.8771339889449
 31
0.0
1001
GENIUS_GENOREF_13
1005
103A
  0
LINE
  5
1038
330
1F
100
AcDbEntity
  8
AM_7
100
AcDbLine
 10
80.89773199128513
 20
204.3771339889449
 30
0.0
 11
69.39773199128513
 21
204.3771339889449
 31
0.0
1001
GENIUS_GENOREF_13
1005
103A
  0
LINE
  5
1039
330
1F
100
AcDbEntity
  8
AM_7
100
AcDbLine
 10
80.89773199128513
 20
204.3771339889449
 30
0.0
 11
80.89773199128513
 21
192.8771339889449
 31
0.0
1001
GENIUS_GENOREF_13
1005
103A
  0
POINT
  5
103A
330
1F
100
AcDbEntity
  8
0
 60
     1
100
AcDbPoint
 10
0.0
 20
0.0
 30
0.0
1001
GENIUS_GENODEF_13
1002
{
1000
HIER
1070
    10
1002
}
1002
{
1000
MANEDIT
1070
     0
1002
}
1002
{
1000
NOSEL
1070
     0
1002
}
1002
{
1000
BEHIND
1070
     0
1002
}
1002
{
1000
OTHER
1070
     0
1002
}
1002
{
1000
REACTOR
1002
}
1001
GENIUS_GENOENT_13
1002
{
1000
MYREF
1005
103A
1002
}
1002
{
1000
GRP
1005
0
1002
}
1001
GENIUS_GENOLIS_13
1002
{
1000
ENT
1005
1039
1005
1038
1005
1037
1005
1036
1002
}
1001
GENIUS_GENOBJ-N-CRS_13
1002
{
1000
OWNER
1000
GEN
1002
}
  0
LINE
  5
1048
330
1F
100
AcDbEntity
  8
AM_7
100
AcDbLine
 10
80.89773199128513
 20
122.6820107619084
 30
0.0
 11
92.39773199128512
 21
122.6820107619084
 31
0.0
1001
GENIUS_GENOREF_13
1005
104C
  0
LINE
  5
1049
330
1F
100
AcDbEntity
  8
AM_7
100
AcDbLine
 10
80.89773199128513
 20
122.6820107619084
 30
0.0
 11
80.89773199128513
 21
134.1820107619084
 31
0.0
1001
GENIUS_GENOREF_13
1005
104C
  0
LINE
  5
104A
330
1F
100
AcDbEntity
  8
AM_7
100
AcDbLine
 10
80.89773199128513
 20
122.6820107619084
 30
0.0
 11
69.39773199128513
 21
122.6820107619084
 31
0.0
1001
GENIUS_GENOREF_13
1005
104C
  0
LINE
  5
104B
330
1F
100
AcDbEntity
  8
AM_7
100
AcDbLine
 10
80.89773199128513
 20
122.6820107619084
 30
0.0
 11
80.89773199128513
 21
111.1820107619084
 31
0.0
1001
GENIUS_GENOREF_13
1005
104C
  0
POINT
  5
104C
330
1F
100
AcDbEntity
  8
0
 60
     1
100
AcDbPoint
 10
0.0
 20
0.0
 30
0.0
1001
GENIUS_GENOLIS_13
1002
{
1000
ENT
1005
104B
1005
104A
1005
1049
1005
1048
1002
}
1001
GENIUS_GENOENT_13
1002
{
1000
MYREF
1005
104C
1002
}
1002
{
1000
GRP
1005
0
1002
}
1001
GENIUS_GENOBJ-N-CRS_13
1002
{
1000
OWNER
1000
GEN
1002
}
1001
GENIUS_GENODEF_13
1002
{
1000
HIER
1070
    10
1002
}
1002
{
1000
MANEDIT
1070
     0
1002
}
1002
{
1000
NOSEL
1070
     0
1002
}
1002
{
1000
BEHIND
1070
     0
1002
}
1002
{
1000
OTHER
1070
     0
1002
}
1002
{
1000
REACTOR
1002
}
  0
DIMENSION
  5
10AC
102
{ACAD_XDICTIONARY
360
10B9
102
}
102
{ACAD_REACTORS
330
10BA
102
}
330
1F
100
AcDbEntity
  8
AM_5
100
AcDbDimension
  2
*D14
 10
115.1021845027787
 20
103.7123556419084
 30
0.0
 11
110.1021845027787
 21
106.1623556419084
 31
0.0
 70
    32
 71
     5
 42
10.0
  3
AM_ISO$0
100
AcDbAlignedDimension
 13
105.1021845027787
 23
121.1820107619084
 33
0.0
 14
115.1021845027787
 24
120.6820107619084
 34
0.0
100
AcDbRotatedDimension
1001
ACAD
1000
DSTYLE
1002
{
1070
    40
1040
1.0
1070
   144
1040
1.0
1070
   272
1070
     8
1002
}
  0
LINE
  5
1263
330
1F
100
AcDbEntity
  8
AM_4
100
AcDbLine
 10
256.9589072511412
 20
121.0720107619084
 30
0.0
 11
259.4589072511412
 21
121.0720107619084
 31
0.0
  0
LINE
  5
1264
330
1F
100
AcDbEntity
  8
AM_4
100
AcDbLine
 10
264.2589072511412
 20
121.0720107619084
 30
0.0
 11
266.4589072511412
 21
121.0720107619084
 31
0.0
  0
LINE
  5
1265
330
1F
100
AcDbEntity
  8
AM_4
100
AcDbLine
 10
256.9589072511412
 20
124.2920107619084
 30
0.0
 11
259.4589072511412
 21
124.2920107619084
 31
0.0
  0
LINE
  5
1266
330
1F
100
AcDbEntity
  8
AM_4
100
AcDbLine
 10
264.2589072511412
 20
124.2920107619084
 30
0.0
 11
266.4589072511412
 21
124.2920107619084
 31
0.0
  0
LINE
  5
1267
330
1F
100
AcDbEntity
  8
AM_4
100
AcDbLine
 10
266.4589072511412
 20
124.2920107619084
 30
0.0
 11
266.8489072511412
 21
124.6820107619084
 31
0.0
  0
LINE
  5
1268
330
1F
100
AcDbEntity
  8
AM_4
100
AcDbLine
 10
266.4589072511412
 20
121.0720107619084
 30
0.0
 11
266.8489072511412
 21
120.6820107619084
 31
0.0
  0
LINE
  5
1269
330
1F
100
AcDbEntity
  8
AM_4
 62
     7
100
AcDbLine
 10
266.4589072511412
 20
120.6820107619084
 30
0.0
 11
266.4589072511412
 21
124.6820107619084
 31
0.0
  0
CIRCLE
  5
126A
330
1F
100
AcDbEntity
  8
AM_4
  6
HIDDEN2
100
AcDbCircle
 10
231.1284676350242
 20
122.6820107619084
 30
0.0
 40
1.61
  0
LINE
  5
126B
330
1F
100
AcDbEntity
  8
AM_VIS
100
AcDbLine
 10
294.2089072511412
 20
117.1820107619084
 30
0.0
 11
294.2089072511412
 21
128.1820107619084
 31
0.0
  0
LINE
  5
126C
330
1F
100
AcDbEntity
  8
AM_VIS
100
AcDbLine
 10
293.2089072511412
 20
128.1820107619084
 30
0.0
 11
293.2089072511412
 21
117.1820107619084
 31
0.0
  0
ARC
  5
126D
330
1F
100
AcDbEntity
  8
AM_VIS
100
AcDbCircle
 10
293.7089072511412
 20
117.1820107619084
 30
0.0
 40
0.5
100
AcDbArc
 50
180.0
 51
0.0
  0
ARC
  5
126E
330
1F
100
AcDbEntity
  8
AM_VIS
100
AcDbCircle
 10
293.7089072511412
 20
128.1820107619084
 30
0.0
 40
0.5
100
AcDbArc
 50
0.0
 51
180.0
  0
LINE
  5
126F
330
1F
100
AcDbEntity
  8
AM_VIS
100
AcDbLine
 10
263.9462998599716
 20
124.7027367040721
 30
0.0
 11
262.1715146423109
 21
124.7027367040721
 31
0.0
  0
SPLINE
  5
1270
330
1F
100
AcDbEntity
  8
AM_VIS
100
AcDbSpline
210
0.0
220
0.0
230
1.0
 70
    12
 71
     2
 72
     6
 73
     3
 74
     0
 42
0.0000000001
 43
0.0000000001
 40
0.0
 40
0.0
 40
0.0
 40
2.049984015713344
 40
2.049984015713344
 40
2.049984015713344
 10
262.1715146423109
 20
126.7234626462358
 30
0.0
 41
1.0
 10
261.8589072511412
 20
126.1820107619084
 30
0.0
 41
1.037954849302085
 10
261.8589072511412
 20
125.7130996751539
 30
0.0
 41
1.0
  0
SPLINE
  5
1271
330
1F
100
AcDbEntity
  8
AM_VIS
100
AcDbSpline
210
0.0
220
0.0
230
1.0
 70
    12
 71
     2
 72
     6
 73
     3
 74
     0
 42
0.0000000001
 43
0.0000000001
 40
2.049984015713334
 40
2.049984015713334
 40
2.049984015713334
 40
4.099968031426667
 40
4.099968031426667
 40
4.099968031426667
 10
261.8589072511412
 20
122.6820107619084
 30
0.0
 41
1.0
 10
261.8589072511412
 20
121.7441885883995
 30
0.0
 41
1.037954849302048
 10
262.1715146423109
 20
120.6612848197447
 30
0.0
 41
1.0
  0
SPLINE
  5
1272
330
1F
100
AcDbEntity
  8
AM_VIS
100
AcDbSpline
210
0.0
220
0.0
230
1.0
 70
    12
 71
     2
 72
     6
 73
     3
 74
     0
 42
0.0000000001
 43
0.0000000001
 40
2.049984015713344
 40
2.049984015713344
 40
2.049984015713344
 40
4.099968031426687
 40
4.099968031426687
 40
4.099968031426687
 10
261.8589072511412
 20
125.7130996751539
 30
0.0
 41
1.0
 10
261.8589072511412
 20
125.2441885883994
 30
0.0
 41
1.037954849302088
 10
262.1715146423109
 20
124.7027367040721
 30
0.0
 41
1.0
  0
SPLINE
  5
1273
330
1F
100
AcDbEntity
  8
AM_VIS
100
AcDbSpline
210
0.0
220
0.0
230
1.0
 70
    12
 71
     2
 72
     6
 73
     3
 74
     0
 42
0.0000000001
 43
0.0000000001
 40
0.0
 40
0.0
 40
0.0
 40
2.049984015713334
 40
2.049984015713334
 40
2.049984015713334
 10
262.1715146423109
 20
124.7027367040721
 30
0.0
 41
1.0
 10
261.8589072511413
 20
123.6198329354175
 30
0.0000000000000036
 41
1.037954849302047
 10
261.8589072511412
 20
122.6820107619084
 30
0.0
 41
1.0
  0
SPLINE
  5
1274
330
1F
100
AcDbEntity
  8
AM_VIS
100
AcDbSpline
210
0.0
220
0.0
230
1.0
 70
    12
 71
     2
 72
     6
 73
     3
 74
     0
 42
0.0000000001
 43
0.0000000001
 40
2.049984015713307
 40
2.049984015713307
 40
2.049984015713307
 40
4.099968031426614
 40
4.099968031426614
 40
4.099968031426614
 10
261.8589072511412
 20
119.6509218486628
 30
0.0
 41
1.0
 10
261.8589072511412
 20
119.1820107619084
 30
0.0
 41
1.037954849301932
 10
262.1715146423109
 20
118.640558877581
 30
0.0
 41
1.0
  0
SPLINE
  5
1275
330
1F
100
AcDbEntity
  8
AM_VIS
100
AcDbSpline
210
0.0
220
0.0
230
1.0
 70
    12
 71
     2
 72
     6
 73
     3
 74
     0
 42
0.0000000001
 43
0.0000000001
 40
0.0
 40
0.0
 40
0.0
 40
2.049984015713307
 40
2.049984015713307
 40
2.049984015713307
 10
262.1715146423109
 20
120.6612848197447
 30
0.0
 41
1.0
 10
261.8589072511412
 20
120.1198329354173
 30
0.0
 41
1.037954849301932
 10
261.8589072511412
 20
119.6509218486628
 30
0.0
 41
1.0
  0
LINE
  5
1276
330
1F
100
AcDbEntity
  8
AM_VIS
100
AcDbLine
 10
263.9462998599716
 20
120.6612848197447
 30
0.0
 11
262.1715146423109
 21
120.6612848197447
 31
0.0
  0
LINE
  5
1277
330
1F
100
AcDbEntity
  8
AM_VIS
100
AcDbLine
 10
263.9462998599716
 20
118.640558877581
 30
0.0
 11
262.1715146423109
 21
118.640558877581
 31
0.0
  0
LINE
  5
1278
330
1F
100
AcDbEntity
  8
AM_VIS
100
AcDbLine
 10
263.9462998599716
 20
126.7234626462358
 30
0.0
 11
262.1715146423109
 21
126.7234626462358
 31
0.0
  0
SPLINE
  5
1279
330
1F
100
AcDbEntity
  8
AM_VIS
100
AcDbSpline
210
0.0
220
0.0
230
1.0
 70
    12
 71
     2
 72
     6
 73
     3
 74
     0
 42
0.0000000001
 43
0.0000000001
 40
2.049984015713341
 40
2.049984015713341
 40
2.049984015713341
 40
4.099968031426684
 40
4.099968031426684
 40
4.099968031426684
 10
264.2589072511412
 20
125.7130996751539
 30
0.0
 41
1.0
 10
264.2589072511412
 20
126.1820107619084
 30
0.0
 41
1.037954849302082
 10
263.9462998599716
 20
126.7234626462358
 30
0.0
 41
1.0
  0
SPLINE
  5
127A
330
1F
100
AcDbEntity
  8
AM_VIS
100
AcDbSpline
210
0.0
220
0.0
230
1.0
 70
    12
 71
     2
 72
     6
 73
     3
 74
     0
 42
0.0000000001
 43
0.0000000001
 40
2.049984015713333
 40
2.049984015713333
 40
2.049984015713333
 40
4.099968031426667
 40
4.099968031426667
 40
4.099968031426667
 10
264.2589072511412
 20
122.6820107619084
 30
0.0
 41
1.0
 10
264.2589072511412
 20
123.6198329354172
 30
0.0
 41
1.037954849302048
 10
263.9462998599716
 20
124.7027367040721
 30
0.0
 41
1.0
  0
SPLINE
  5
127B
330
1F
100
AcDbEntity
  8
AM_VIS
100
AcDbSpline
210
0.0
220
0.0
230
1.0
 70
    12
 71
     2
 72
     6
 73
     3
 74
     0
 42
0.0000000001
 43
0.0000000001
 40
0.0
 40
0.0
 40
0.0
 40
2.049984015713341
 40
2.049984015713341
 40
2.049984015713341
 10
263.9462998599716
 20
124.7027367040721
 30
0.0
 41
1.0
 10
264.2589072511412
 20
125.2441885883993
 30
0.0
 41
1.03795484930209
 10
264.2589072511412
 20
125.7130996751539
 30
0.0
 41
1.0
  0
SPLINE
  5
127C
330
1F
100
AcDbEntity
  8
AM_VIS
100
AcDbSpline
210
0.0
220
0.0
230
1.0
 70
    12
 71
     2
 72
     6
 73
     3
 74
     0
 42
0.0000000001
 43
0.0000000001
 40
0.0
 40
0.0
 40
0.0
 40
2.049984015713308
 40
2.049984015713308
 40
2.049984015713308
 10
263.9462998599716
 20
118.640558877581
 30
0.0
 41
1.0
 10
264.2589072511412
 20
119.1820107619084
 30
0.0
 41
1.037954849301944
 10
264.2589072511412
 20
119.6509218486628
 30
0.0
 41
1.0
  0
SPLINE
  5
127D
330
1F
100
AcDbEntity
  8
AM_VIS
100
AcDbSpline
210
0.0
220
0.0
230
1.0
 70
    12
 71
     2
 72
     6
 73
     3
 74
     0
 42
0.0000000001
 43
0.0000000001
 40
2.049984015713308
 40
2.049984015713308
 40
2.049984015713308
 40
4.099968031426616
 40
4.099968031426616
 40
4.099968031426616
 10
264.2589072511412
 20
119.6509218486628
 30
0.0
 41
1.0
 10
264.2589072511412
 20
120.1198329354172
 30
0.0
 41
1.037954849301939
 10
263.9462998599716
 20
120.6612848197447
 30
0.0
 41
1.0
  0
SPLINE
  5
127E
330
1F
100
AcDbEntity
  8
AM_VIS
100
AcDbSpline
210
0.0
220
0.0
230
1.0
 70
    12
 71
     2
 72
     6
 73
     3
 74
     0
 42
0.0000000001
 43
0.0000000001
 40
0.0
 40
0.0
 40
0.0
 40
2.049984015713333
 40
2.049984015713333
 40
2.049984015713333
 10
263.9462998599716
 20
120.6612848197447
 30
0.0
 41
1.0
 10
264.2589072511411
 20
121.7441885883995
 30
0.0
 41
1.037954849302043
 10
264.2589072511412
 20
122.6820107619084
 30
0.0
 41
1.0
  0
LINE
  5
127F
330
1F
100
AcDbEntity
  8
AM_VIS
100
AcDbLine
 10
261.8589072511412
 20
119.1820107619084
 30
0.0
 11
262.1715146423109
 21
118.640558877581
 31
0.0
  0
LINE
  5
1280
330
1F
100
AcDbEntity
  8
AM_VIS
100
AcDbLine
 10
261.8589072511412
 20
126.1820107619084
 30
0.0
 11
262.1715146423109
 21
126.7234626462358
 31
0.0
  0
LINE
  5
1281
330
1F
100
AcDbEntity
  8
AM_VIS
100
AcDbLine
 10
264.2589072511412
 20
126.1820107619084
 30
0.0
 11
263.9462998599716
 21
126.7234626462358
 31
0.0
  0
LINE
  5
1282
330
1F
100
AcDbEntity
  8
AM_VIS
100
AcDbLine
 10
264.2589072511412
 20
119.1820107619084
 30
0.0
 11
263.9462998599716
 21
118.640558877581
 31
0.0
  0
LINE
  5
1283
330
1F
100
AcDbEntity
  8
AM_VIS
100
AcDbLine
 10
261.8589072511412
 20
125.7130996751539
 30
0.0
 11
261.8589072511412
 21
122.6820107619084
 31
0.0
  0
LINE
  5
1284
330
1F
100
AcDbEntity
  8
AM_VIS
100
AcDbLine
 10
261.8589072511412
 20
122.6820107619084
 30
0.0
 11
261.8589072511412
 21
119.6509218486629
 31
0.0
  0
LINE
  5
1285
330
1F
100
AcDbEntity
  8
AM_VIS
100
AcDbLine
 10
261.8589072511412
 20
119.6509218486629
 30
0.0
 11
261.8589072511412
 21
119.1820107619084
 31
0.0
  0
LINE
  5
1286
330
1F
100
AcDbEntity
  8
AM_VIS
100
AcDbLine
 10
261.8589072511412
 20
126.1820107619084
 30
0.0
 11
261.8589072511412
 21
125.7130996751539
 31
0.0
  0
LINE
  5
1287
330
1F
100
AcDbEntity
  8
AM_VIS
100
AcDbLine
 10
264.2589072511412
 20
119.6509218486629
 30
0.0
 11
264.2589072511412
 21
122.6820107619084
 31
0.0
  0
LINE
  5
1288
330
1F
100
AcDbEntity
  8
AM_VIS
100
AcDbLine
 10
264.2589072511412
 20
122.6820107619084
 30
0.0
 11
264.2589072511412
 21
125.7130996751539
 31
0.0
  0
LINE
  5
1289
330
1F
100
AcDbEntity
  8
AM_VIS
100
AcDbLine
 10
264.2589072511412
 20
125.7130996751539
 30
0.0
 11
264.2589072511412
 21
126.1820107619084
 31
0.0
  0
LINE
  5
128A
330
1F
100
AcDbEntity
  8
AM_VIS
100
AcDbLine
 10
264.2589072511412
 20
119.1820107619084
 30
0.0
 11
264.2589072511412
 21
119.6509218486629
 31
0.0
  0
LINE
  5
128B
330
1F
100
AcDbEntity
  8
AM_VIS
100
AcDbLine
 10
261.5462998599716
 20
124.7027367040721
 30
0.0
 11
259.7715146423109
 21
124.7027367040721
 31
0.0
  0
SPLINE
  5
128C
330
1F
100
AcDbEntity
  8
AM_VIS
100
AcDbSpline
210
0.0
220
0.0
230
1.0
 70
    12
 71
     2
 72
     6
 73
     3
 74
     0
 42
0.0000000001
 43
0.0000000001
 40
0.0
 40
0.0
 40
0.0
 40
2.049984015713344
 40
2.049984015713344
 40
2.049984015713344
 10
259.7715146423109
 20
126.7234626462358
 30
0.0
 41
1.0
 10
259.4589072511413
 20
126.1820107619084
 30
0.0
 41
1.037954849302085
 10
259.4589072511412
 20
125.7130996751539
 30
0.0
 41
1.0
  0
SPLINE
  5
128D
330
1F
100
AcDbEntity
  8
AM_VIS
100
AcDbSpline
210
0.0
220
0.0
230
1.0
 70
    12
 71
     2
 72
     6
 73
     3
 74
     0
 42
0.0000000001
 43
0.0000000001
 40
2.049984015713334
 40
2.049984015713334
 40
2.049984015713334
 40
4.099968031426667
 40
4.099968031426667
 40
4.099968031426667
 10
259.4589072511412
 20
122.6820107619084
 30
0.0
 41
1.0
 10
259.4589072511411
 20
121.7441885883995
 30
0.0
 41
1.037954849302048
 10
259.7715146423109
 20
120.6612848197447
 30
0.0
 41
1.0
  0
SPLINE
  5
128E
330
1F
100
AcDbEntity
  8
AM_VIS
100
AcDbSpline
210
0.0
220
0.0
230
1.0
 70
    12
 71
     2
 72
     6
 73
     3
 74
     0
 42
0.0000000001
 43
0.0000000001
 40
2.049984015713344
 40
2.049984015713344
 40
2.049984015713344
 40
4.099968031426687
 40
4.099968031426687
 40
4.099968031426687
 10
259.4589072511412
 20
125.7130996751539
 30
0.0
 41
1.0
 10
259.4589072511411
 20
125.2441885883994
 30
0.0
 41
1.037954849302088
 10
259.7715146423109
 20
124.7027367040721
 30
0.0
 41
1.0
  0
SPLINE
  5
128F
330
1F
100
AcDbEntity
  8
AM_VIS
100
AcDbSpline
210
0.0
220
0.0
230
1.0
 70
    12
 71
     2
 72
     6
 73
     3
 74
     0
 42
0.0000000001
 43
0.0000000001
 40
0.0
 40
0.0
 40
0.0
 40
2.049984015713334
 40
2.049984015713334
 40
2.049984015713334
 10
259.7715146423109
 20
124.7027367040721
 30
0.0
 41
1.0
 10
259.4589072511412
 20
123.6198329354175
 30
0.0000000000000036
 41
1.037954849302047
 10
259.4589072511412
 20
122.6820107619084
 30
0.0
 41
1.0
  0
SPLINE
  5
1290
330
1F
100
AcDbEntity
  8
AM_VIS
100
AcDbSpline
210
0.0
220
0.0
230
1.0
 70
    12
 71
     2
 72
     6
 73
     3
 74
     0
 42
0.0000000001
 43
0.0000000001
 40
2.049984015713307
 40
2.049984015713307
 40
2.049984015713307
 40
4.099968031426614
 40
4.099968031426614
 40
4.099968031426614
 10
259.4589072511412
 20
119.6509218486628
 30
0.0
 41
1.0
 10
259.4589072511412
 20
119.1820107619084
 30
0.0
 41
1.037954849301932
 10
259.7715146423109
 20
118.640558877581
 30
0.0
 41
1.0
  0
SPLINE
  5
1291
330
1F
100
AcDbEntity
  8
AM_VIS
100
AcDbSpline
210
0.0
220
0.0
230
1.0
 70
    12
 71
     2
 72
     6
 73
     3
 74
     0
 42
0.0000000001
 43
0.0000000001
 40
0.0
 40
0.0
 40
0.0
 40
2.049984015713307
 40
2.049984015713307
 40
2.049984015713307
 10
259.7715146423109
 20
120.6612848197447
 30
0.0
 41
1.0
 10
259.4589072511412
 20
120.1198329354173
 30
0.0
 41
1.037954849301932
 10
259.4589072511412
 20
119.6509218486628
 30
0.0
 41
1.0
  0
LINE
  5
1292
330
1F
100
AcDbEntity
  8
AM_VIS
100
AcDbLine
 10
261.5462998599716
 20
120.6612848197447
 30
0.0
 11
259.7715146423109
 21
120.6612848197447
 31
0.0
  0
LINE
  5
1293
330
1F
100
AcDbEntity
  8
AM_VIS
100
AcDbLine
 10
261.5462998599716
 20
118.640558877581
 30
0.0
 11
259.7715146423109
 21
118.640558877581
 31
0.0
  0
LINE
  5
1294
330
1F
100
AcDbEntity
  8
AM_VIS
100
AcDbLine
 10
261.5462998599716
 20
126.7234626462358
 30
0.0
 11
259.7715146423109
 21
126.7234626462358
 31
0.0
  0
SPLINE
  5
1295
330
1F
100
AcDbEntity
  8
AM_VIS
100
AcDbSpline
210
0.0
220
0.0
230
1.0
 70
    12
 71
     2
 72
     6
 73
     3
 74
     0
 42
0.0000000001
 43
0.0000000001
 40
2.049984015713341
 40
2.049984015713341
 40
2.049984015713341
 40
4.099968031426684
 40
4.099968031426684
 40
4.099968031426684
 10
261.8589072511412
 20
125.7130996751539
 30
0.0
 41
1.0
 10
261.8589072511412
 20
126.1820107619084
 30
0.0
 41
1.037954849302082
 10
261.5462998599716
 20
126.7234626462358
 30
0.0
 41
1.0
  0
SPLINE
  5
1296
330
1F
100
AcDbEntity
  8
AM_VIS
100
AcDbSpline
210
0.0
220
0.0
230
1.0
 70
    12
 71
     2
 72
     6
 73
     3
 74
     0
 42
0.0000000001
 43
0.0000000001
 40
2.049984015713333
 40
2.049984015713333
 40
2.049984015713333
 40
4.099968031426667
 40
4.099968031426667
 40
4.099968031426667
 10
261.8589072511412
 20
122.6820107619084
 30
0.0
 41
1.0
 10
261.8589072511408
 20
123.6198329354172
 30
0.0
 41
1.037954849302048
 10
261.5462998599716
 20
124.7027367040721
 30
0.0
 41
1.0
  0
SPLINE
  5
1297
330
1F
100
AcDbEntity
  8
AM_VIS
100
AcDbSpline
210
0.0
220
0.0
230
1.0
 70
    12
 71
     2
 72
     6
 73
     3
 74
     0
 42
0.0000000001
 43
0.0000000001
 40
0.0
 40
0.0
 40
0.0
 40
2.049984015713341
 40
2.049984015713341
 40
2.049984015713341
 10
261.5462998599716
 20
124.7027367040721
 30
0.0
 41
1.0
 10
261.8589072511411
 20
125.2441885883993
 30
0.0
 41
1.03795484930209
 10
261.8589072511412
 20
125.7130996751539
 30
0.0
 41
1.0
  0
SPLINE
  5
1298
330
1F
100
AcDbEntity
  8
AM_VIS
100
AcDbSpline
210
0.0
220
0.0
230
1.0
 70
    12
 71
     2
 72
     6
 73
     3
 74
     0
 42
0.0000000001
 43
0.0000000001
 40
0.0
 40
0.0
 40
0.0
 40
2.049984015713308
 40
2.049984015713308
 40
2.049984015713308
 10
261.5462998599716
 20
118.640558877581
 30
0.0
 41
1.0
 10
261.8589072511412
 20
119.1820107619084
 30
0.0
 41
1.037954849301944
 10
261.8589072511412
 20
119.6509218486628
 30
0.0
 41
1.0
  0
SPLINE
  5
1299
330
1F
100
AcDbEntity
  8
AM_VIS
100
AcDbSpline
210
0.0
220
0.0
230
1.0
 70
    12
 71
     2
 72
     6
 73
     3
 74
     0
 42
0.0000000001
 43
0.0000000001
 40
2.049984015713308
 40
2.049984015713308
 40
2.049984015713308
 40
4.099968031426616
 40
4.099968031426616
 40
4.099968031426616
 10
261.8589072511412
 20
119.6509218486628
 30
0.0
 41
1.0
 10
261.8589072511412
 20
120.1198329354172
 30
0.0
 41
1.037954849301939
 10
261.5462998599716
 20
120.6612848197447
 30
0.0
 41
1.0
  0
SPLINE
  5
129A
330
1F
100
AcDbEntity
  8
AM_VIS
100
AcDbSpline
210
0.0
220
0.0
230
1.0
 70
    12
 71
     2
 72
     6
 73
     3
 74
     0
 42
0.0000000001
 43
0.0000000001
 40
0.0
 40
0.0
 40
0.0
 40
2.049984015713333
 40
2.049984015713333
 40
2.049984015713333
 10
261.5462998599716
 20
120.6612848197447
 30
0.0
 41
1.0
 10
261.8589072511412
 20
121.7441885883995
 30
0.0
 41
1.037954849302043
 10
261.8589072511412
 20
122.6820107619084
 30
0.0
 41
1.0
  0
LINE
  5
129B
330
1F
100
AcDbEntity
  8
AM_VIS
100
AcDbLine
 10
259.4589072511412
 20
119.1820107619084
 30
0.0
 11
259.7715146423109
 21
118.640558877581
 31
0.0
  0
LINE
  5
129C
330
1F
100
AcDbEntity
  8
AM_VIS
100
AcDbLine
 10
259.4589072511412
 20
126.1820107619084
 30
0.0
 11
259.7715146423109
 21
126.7234626462358
 31
0.0
  0
LINE
  5
129D
330
1F
100
AcDbEntity
  8
AM_VIS
100
AcDbLine
 10
261.8589072511412
 20
126.1820107619084
 30
0.0
 11
261.5462998599716
 21
126.7234626462358
 31
0.0
  0
LINE
  5
129E
330
1F
100
AcDbEntity
  8
AM_VIS
100
AcDbLine
 10
261.8589072511412
 20
119.1820107619084
 30
0.0
 11
261.5462998599716
 21
118.640558877581
 31
0.0
  0
LINE
  5
129F
330
1F
100
AcDbEntity
  8
AM_VIS
100
AcDbLine
 10
259.4589072511412
 20
125.7130996751539
 30
0.0
 11
259.4589072511412
 21
122.6820107619084
 31
0.0
  0
LINE
  5
12A0
330
1F
100
AcDbEntity
  8
AM_VIS
100
AcDbLine
 10
259.4589072511412
 20
122.6820107619084
 30
0.0
 11
259.4589072511412
 21
119.6509218486629
 31
0.0
  0
LINE
  5
12A1
330
1F
100
AcDbEntity
  8
AM_VIS
100
AcDbLine
 10
259.4589072511412
 20
119.6509218486629
 30
0.0
 11
259.4589072511412
 21
119.1820107619084
 31
0.0
  0
LINE
  5
12A2
330
1F
100
AcDbEntity
  8
AM_VIS
100
AcDbLine
 10
259.4589072511412
 20
126.1820107619084
 30
0.0
 11
259.4589072511412
 21
125.7130996751539
 31
0.0
  0
LINE
  5
12A3
330
1F
100
AcDbEntity
  8
AM_VIS
100
AcDbLine
 10
261.8589072511412
 20
119.6509218486629
 30
0.0
 11
261.8589072511412
 21
122.6820107619084
 31
0.0
  0
LINE
  5
12A4
330
1F
100
AcDbEntity
  8
AM_VIS
100
AcDbLine
 10
261.8589072511412
 20
122.6820107619084
 30
0.0
 11
261.8589072511412
 21
125.7130996751539
 31
0.0
  0
LINE
  5
12A5
330
1F
100
AcDbEntity
  8
AM_VIS
100
AcDbLine
 10
261.8589072511412
 20
125.7130996751539
 30
0.0
 11
261.8589072511412
 21
126.1820107619084
 31
0.0
  0
LINE
  5
12A6
330
1F
100
AcDbEntity
  8
AM_VIS
100
AcDbLine
 10
261.8589072511412
 20
119.1820107619084
 30
0.0
 11
261.8589072511412
 21
119.6509218486629
 31
0.0
  0
LINE
  5
12A7
330
1F
100
AcDbEntity
  8
AM_VIS
100
AcDbLine
 10
272.9517505937563
 20
128.1668383119084
 30
0.0
 11
274.9660639085261
 21
128.1668383119084
 31
0.0
  0
LINE
  5
12A8
330
1F
100
AcDbEntity
  8
AM_VIS
100
AcDbLine
 10
272.9517505932066
 20
133.6516658719084
 30
0.0
 11
274.9660639090758
 21
133.6516658719084
 31
0.0
  0
SPLINE
  5
12A9
330
1F
100
AcDbEntity
  8
AM_VIS
100
AcDbSpline
210
0.0
220
0.0
230
1.0
 70
    12
 71
     2
 72
     6
 73
     3
 74
     0
 42
0.0000000001
 43
0.0000000001
 40
4.397157632723568
 40
4.397157632723568
 40
4.397157632723568
 40
17.54215258802923
 40
17.54215258802923
 40
17.54215258802923
 10
274.9660639056393
 20
117.1971832019084
 30
0.0
 41
1.160254037767906
 10
276.5493972414759
 20
122.6820107581584
 30
0.0
 41
1.339745962090386
 10
274.9660639085261
 20
128.1668383119084
 30
0.0
 41
1.160254038051314
  0
SPLINE
  5
12AA
330
1F
100
AcDbEntity
  8
AM_VIS
100
AcDbSpline
210
0.0
220
0.0000000000000006
230
1.0
 70
    12
 71
     2
 72
     6
 73
     3
 74
     0
 42
0.0000000001
 43
0.0000000001
 40
4.397157637114494
 40
4.397157637114494
 40
4.397157637114494
 40
17.54215260245597
 40
17.54215260245597
 40
17.54215260245597
 10
274.9660639085261
 20
128.1668383119084
 30
0.0
 41
1.16025403809167
 10
276.5493972453419
 20
130.9092520920276
 30
0.0
 41
1.339745962695246
 10
274.9660639090757
 20
133.6516658719084
 30
-0.0000000000000036
 41
1.16025403814564
  0
LINE
  5
12AB
330
1F
100
AcDbEntity
  8
AM_VIS
100
AcDbLine
 10
272.9517505966431
 20
117.1971832019084
 30
0.0
 11
274.9660639056393
 21
117.1971832019084
 31
0.0
  0
SPLINE
  5
12AC
330
1F
100
AcDbEntity
  8
AM_VIS
100
AcDbSpline
210
0.0
220
0.0
230
1.0
 70
    12
 71
     2
 72
     6
 73
     3
 74
     0
 42
0.0000000001
 43
0.0000000001
 40
4.397157628393501
 40
4.397157628393501
 40
4.397157628393501
 40
17.54215258725183
 40
17.54215258725183
 40
17.54215258725183
 10
274.9660639033024
 20
111.7123556419084
 30
0.0
 41
1.160254037511024
 10
276.5493972399293
 20
114.4547694224144
 30
0.0
 41
1.33974596182075
 10
274.9660639056394
 20
117.1971832019085
 30
0.0
 41
1.160254037740462
  0
LINE
  5
12AD
330
1F
100
AcDbEntity
  8
AM_VIS
100
AcDbLine
 10
272.9517505989801
 20
111.7123556419084
 30
0.0
 11
274.9660639033024
 21
111.7123556419084
 31
0.0
  0
SPLINE
  5
12AE
330
1F
100
AcDbEntity
  8
AM_VIS
100
AcDbSpline
210
0.0
220
0.0
230
1.0
 70
    12
 71
     2
 72
     6
 73
     3
 74
     0
 42
0.0000000001
 43
0.0000000001
 40
4.397157639090742
 40
4.397157639090742
 40
4.397157639090742
 40
17.54215260443221
 40
17.54215260443221
 40
17.54215260443221
 10
272.9517505932066
 20
133.6516658719084
 30
0.0
 41
1.16025403814564
 10
271.3684172569405
 20
130.9092520920274
 30
0.0
 41
1.339745962695247
 10
272.9517505937563
 20
128.1668383119084
 30
0.0
 41
1.16025403809167
  0
SPLINE
  5
12AF
330
1F
100
AcDbEntity
  8
AM_VIS
100
AcDbSpline
210
0.0
220
0.0
230
1.0
 70
    12
 71
     2
 72
     6
 73
     3
 74
     0
 42
0.0000000001
 43
0.0000000001
 40
4.397157643101197
 40
4.397157643101197
 40
4.397157643101197
 40
17.54215259840686
 40
17.54215259840686
 40
17.54215259840686
 10
272.9517505937565
 20
128.1668383119085
 30
0.0
 41
1.160254038051315
 10
271.3684172608067
 20
122.6820107581585
 30
0.0000000000000036
 41
1.339745962090387
 10
272.9517505966431
 20
117.1971832019084
 30
0.0
 41
1.160254037767906
  0
SPLINE
  5
12B0
330
1F
100
AcDbEntity
  8
AM_VIS
100
AcDbSpline
210
0.0
220
0.0
230
1.0
 70
    12
 71
     2
 72
     6
 73
     3
 74
     0
 42
0.0000000001
 43
0.0000000001
 40
4.397157636794876
 40
4.397157636794876
 40
4.397157636794876
 40
17.54215259565323
 40
17.54215259565323
 40
17.54215259565323
 10
272.9517505966431
 20
117.1971832019085
 30
0.0
 41
1.160254037740463
 10
271.3684172623532
 20
114.4547694224144
 30
0.0
 41
1.339745961820753
 10
272.9517505989801
 20
111.7123556419084
 30
0.0
 41
1.160254037511025
  0
LINE
  5
12B1
330
1F
100
AcDbEntity
  8
AM_VIS
100
AcDbLine
 10
275.9589072511412
 20
131.9320107619084
 30
0.0
 11
274.9660639090758
 21
133.6516658719084
 31
0.0
  0
LINE
  5
12B2
330
1F
100
AcDbEntity
  8
AM_VIS
100
AcDbLine
 10
275.9589072511412
 20
113.4320107619084
 30
0.0
 11
274.9660639033024
 21
111.7123556419084
 31
0.0
  0
LINE
  5
12B3
330
1F
100
AcDbEntity
  8
AM_VIS
100
AcDbLine
 10
271.9589072511412
 20
113.4320107619084
 30
0.0
 11
272.9517505989801
 21
111.7123556419084
 31
0.0
  0
LINE
  5
12B4
330
1F
100
AcDbEntity
  8
AM_VIS
100
AcDbLine
 10
271.9589072511412
 20
131.9320107619084
 30
0.0
 11
272.9517505932066
 21
133.6516658719084
 31
0.0
  0
LINE
  5
12B5
330
1F
100
AcDbEntity
  8
AM_VIS
100
AcDbLine
 10
275.9589072511412
 20
113.4320107619084
 30
0.0
 11
275.9589072511412
 21
131.9320107619084
 31
0.0
  0
LINE
  5
12B6
330
1F
100
AcDbEntity
  8
AM_VIS
100
AcDbLine
 10
271.9589072511412
 20
131.9320107619084
 30
0.0
 11
271.9589072511412
 21
113.4320107619084
 31
0.0
  0
LINE
  5
12B7
330
1F
100
AcDbEntity
  8
AM_VIS
100
AcDbLine
 10
267.9589072511412
 20
124.6820107619084
 30
0.0
 11
265.9589072511412
 21
124.6820107619084
 31
0.0
  0
LINE
  5
12B8
330
1F
100
AcDbEntity
  8
AM_VIS
100
AcDbLine
 10
267.9589072511412
 20
120.6820107619084
 30
0.0
 11
265.9589072511412
 21
120.6820107619084
 31
0.0
  0
LINE
  5
12B9
330
1F
100
AcDbEntity
  8
AM_VIS
100
AcDbLine
 10
265.9589072511412
 20
124.6820107619084
 30
0.0
 11
264.2589072511412
 21
124.6820107619084
 31
0.0
  0
LINE
  5
12BA
330
1F
100
AcDbEntity
  8
AM_VIS
100
AcDbLine
 10
259.4589072511412
 20
124.6820107619084
 30
0.0
 11
256.9589072511412
 21
124.6820107619084
 31
0.0
  0
LINE
  5
12BB
330
1F
100
AcDbEntity
  8
AM_VIS
100
AcDbLine
 10
265.9589072511412
 20
120.6820107619084
 30
0.0
 11
264.2589072511412
 21
120.6820107619084
 31
0.0
  0
LINE
  5
12BC
330
1F
100
AcDbEntity
  8
AM_VIS
100
AcDbLine
 10
259.4589072511412
 20
120.6820107619084
 30
0.0
 11
256.9589072511412
 21
120.6820107619084
 31
0.0
  0
LINE
  5
12BD
330
1F
100
AcDbEntity
  8
AM_VIS
100
AcDbLine
 10
256.4589072511412
 20
121.1820107619084
 30
0.0
 11
256.9589072511412
 21
120.6820107619084
 31
0.0
  0
LINE
  5
12BE
330
1F
100
AcDbEntity
  8
AM_VIS
100
AcDbLine
 10
256.4589072511412
 20
124.1820107619084
 30
0.0
 11
256.9589072511412
 21
124.6820107619084
 31
0.0
  0
LINE
  5
12BF
330
1F
100
AcDbEntity
  8
AM_VIS
100
AcDbLine
 10
267.9589072511412
 20
120.6820107619084
 30
0.0
 11
268.4589072511412
 21
120.1820107619084
 31
0.0
  0
LINE
  5
12C0
330
1F
100
AcDbEntity
  8
AM_VIS
100
AcDbLine
 10
267.9589072511412
 20
124.6820107619084
 30
0.0
 11
268.4589072511412
 21
125.1820107619084
 31
0.0
  0
LINE
  5
12C1
330
1F
100
AcDbEntity
  8
AM_VIS
100
AcDbLine
 10
256.9589072511412
 20
124.6820107619084
 30
0.0
 11
256.9589072511412
 21
120.6820107619084
 31
0.0
  0
LINE
  5
12C2
330
1F
100
AcDbEntity
  8
AM_VIS
100
AcDbLine
 10
256.4589072511412
 20
121.1820107619084
 30
0.0
 11
256.4589072511412
 21
124.1820107619084
 31
0.0
  0
LINE
  5
12C3
330
1F
100
AcDbEntity
  8
AM_VIS
100
AcDbLine
 10
267.9589072511412
 20
120.6820107619084
 30
0.0
 11
267.9589072511412
 21
124.6820107619084
 31
0.0
  0
LINE
  5
12C4
330
1F
100
AcDbEntity
  8
AM_VIS
100
AcDbLine
 10
270.397198862634
 20
118.9292340119084
 30
0.0
 11
271.9589072511412
 21
118.9292340119084
 31
0.0
  0
LINE
  5
12C5
330
1F
100
AcDbEntity
  8
AM_VIS
100
AcDbLine
 10
275.9589072511412
 20
118.9292340119084
 30
0.0
 11
288.5896755316484
 21
118.9292340119084
 31
0.0
  0
LINE
  5
12C6
330
1F
100
AcDbEntity
  8
AM_VIS
100
AcDbLine
 10
270.397198862634
 20
126.4347875119084
 30
0.0
 11
271.9589072511412
 21
126.4347875119084
 31
0.0
  0
LINE
  5
12C7
330
1F
100
AcDbEntity
  8
AM_VIS
100
AcDbLine
 10
275.9589072511412
 20
126.4347875119084
 30
0.0
 11
288.5896755316484
 21
126.4347875119084
 31
0.0
  0
SPLINE
  5
12C8
330
1F
100
AcDbEntity
  8
AM_VIS
100
AcDbSpline
210
0.0
220
0.0
230
1.0
 70
    12
 71
     2
 72
     6
 73
     3
 74
     0
 42
0.0000000001
 43
0.0000000001
 40
4.360679341342861
 40
4.360679341342861
 40
4.360679341342861
 40
14.13256266810755
 40
14.13256266810755
 40
14.13256266810755
 10
288.5896755314168
 20
115.1764572619085
 30
0.0
 41
1.249504348393892
 10
289.6730088663768
 20
117.0528456369586
 30
0.0
 41
1.442803343805453
 10
288.5896755316482
 20
118.9292340119083
 30
0.0
 41
1.249504348429682
  0
SPLINE
  5
12C9
330
1F
100
AcDbEntity
  8
AM_VIS
100
AcDbSpline
210
0.0
220
0.0
230
1.0
 70
    12
 71
     2
 72
     6
 73
     3
 74
     0
 42
0.0000000001
 43
0.0000000001
 40
4.360679341721719
 40
4.360679341721719
 40
4.360679341721719
 40
14.13256266923447
 40
14.13256266923447
 40
14.13256266923447
 10
288.5896755316484
 20
118.9292340119084
 30
0.0
 41
1.249504348435872
 10
289.6730088666373
 20
122.6820107619083
 30
-0.0000000000000036
 41
1.442803343871822
 10
288.5896755316484
 20
126.4347875119084
 30
0.0
 41
1.249504348435872
  0
SPLINE
  5
12CA
330
1F
100
AcDbEntity
  8
AM_VIS
100
AcDbSpline
210
0.0
220
0.0
230
1.0
 70
    12
 71
     2
 72
     6
 73
     3
 74
     0
 42
0.0000000001
 43
0.0000000001
 40
4.360679341896982
 40
4.360679341896982
 40
4.360679341896982
 40
14.13256266976347
 40
14.13256266976347
 40
14.13256266976347
 10
288.5896755316485
 20
126.4347875119085
 30
0.0
 41
1.249504348433807
 10
289.6730088666085
 20
128.3111758868583
 30
0.0
 41
1.442803343861627
 10
288.5896755314168
 20
130.1875642619083
 30
0.0
 41
1.249504348398018
  0
LINE
  5
12CB
330
1F
100
AcDbEntity
  8
AM_VIS
100
AcDbLine
 10
270.3971988628657
 20
130.1875642619084
 30
0.0
 11
271.9589072511412
 21
130.1875642619084
 31
0.0
  0
LINE
  5
12CC
330
1F
100
AcDbEntity
  8
AM_VIS
100
AcDbLine
 10
275.9589072511412
 20
130.1875642619084
 30
0.0
 11
288.5896755314168
 21
130.1875642619084
 31
0.0
  0
LINE
  5
12CD
330
1F
100
AcDbEntity
  8
AM_VIS
100
AcDbLine
 10
270.3971988628657
 20
115.1764572619084
 30
0.0
 11
271.9589072511412
 21
115.1764572619084
 31
0.0
  0
LINE
  5
12CE
330
1F
100
AcDbEntity
  8
AM_VIS
100
AcDbLine
 10
275.9589072511412
 20
115.1764572619084
 30
0.0
 11
288.5896755314168
 21
115.1764572619084
 31
0.0
  0
SPLINE
  5
12CF
330
1F
100
AcDbEntity
  8
AM_VIS
100
AcDbSpline
210
0.0
220
0.0000000000000005
230
1.0
 70
    12
 71
     2
 72
     6
 73
     3
 74
     0
 42
0.0000000001
 43
0.0000000001
 40
4.77297970631735
 40
4.77297970631735
 40
4.77297970631735
 40
14.79365856966662
 40
14.79365856966662
 40
14.79365856966662
 10
270.397198862634
 20
126.4347875119083
 30
0.0
 41
1.278064447828692
 10
269.3138655276449
 20
122.6820107619083
 30
0.0
 41
1.475781706017465
 10
270.3971988626341
 20
118.9292340119086
 30
0.0000000000000036
 41
1.278064447828693
  0
SPLINE
  5
12D0
330
1F
100
AcDbEntity
  8
AM_VIS
100
AcDbSpline
210
0.0
220
0.0000000000000009
230
1.0
 70
    12
 71
     2
 72
     6
 73
     3
 74
     0
 42
0.0000000001
 43
0.0000000001
 40
4.772979706877895
 40
4.772979706877895
 40
4.772979706877895
 40
14.79365856945617
 40
14.79365856945617
 40
14.79365856945617
 10
270.3971988626341
 20
118.9292340119084
 30
0.0
 41
1.278064447821794
 10
269.3138655279055
 20
117.0528456369585
 30
0.0
 41
1.475781705948925
 10
270.3971988628658
 20
115.1764572619085
 30
0.0000000000000036
 41
1.278064447785187
  0
SPLINE
  5
12D1
330
1F
100
AcDbEntity
  8
AM_VIS
100
AcDbSpline
210
0.0
220
0.0
230
1.0
 70
    12
 71
     2
 72
     6
 73
     3
 74
     0
 42
0.0000000001
 43
0.0000000001
 40
4.772979705576542
 40
4.772979705576542
 40
4.772979705576542
 40
14.79365856928723
 40
14.79365856928723
 40
14.79365856928723
 10
270.3971988628656
 20
130.1875642619084
 30
0.0
 41
1.278064447789783
 10
269.313865527674
 20
128.3111758868582
 30
0.0
 41
1.475781706006817
 10
270.397198862634
 20
126.4347875119084
 30
0.0
 41
1.27806444782639
  0
LINE
  5
12D2
330
1F
100
AcDbEntity
  8
AM_VIS
100
AcDbLine
 10
295.4589072511412
 20
128.6820107619084
 30
0.0
 11
294.4589072511412
 21
128.6820107619084
 31
0.0
  0
LINE
  5
12D3
330
1F
100
AcDbEntity
  8
AM_VIS
100
AcDbLine
 10
295.4589072511412
 20
116.6820107619084
 30
0.0
 11
294.4589072511412
 21
116.6820107619084
 31
0.0
  0
LINE
  5
12D4
330
1F
100
AcDbEntity
  8
AM_VIS
100
AcDbLine
 10
289.4589072511412
 20
128.6820107619084
 30
0.0
 11
288.5896755314168
 21
130.1875642619084
 31
0.0
  0
LINE
  5
12D5
330
1F
100
AcDbEntity
  8
AM_VIS
100
AcDbLine
 10
289.4589072511412
 20
116.6820107619084
 30
0.0
 11
288.5896755314168
 21
115.1764572619084
 31
0.0
  0
LINE
  5
12D6
330
1F
100
AcDbEntity
  8
AM_VIS
100
AcDbLine
 10
269.7589072520134
 20
116.2820107603978
 30
0.0
 11
270.3971988628657
 21
115.1764572619084
 31
0.0
  0
LINE
  5
12D7
330
1F
100
AcDbEntity
  8
AM_VIS
100
AcDbLine
 10
269.7589072502691
 20
129.0820107603978
 30
0.0
 11
270.3971988628657
 21
130.1875642619084
 31
0.0
  0
LINE
  5
12D8
330
1F
100
AcDbEntity
  8
AM_VIS
100
AcDbLine
 10
292.9589072511412
 20
128.6820107619084
 30
0.0
 11
289.4589072511412
 21
128.6820107619084
 31
0.0
  0
LINE
  5
12D9
330
1F
100
AcDbEntity
  8
AM_VIS
100
AcDbLine
 10
292.9589072511412
 20
116.6820107619084
 30
0.0
 11
289.4589072511412
 21
116.6820107619084
 31
0.0
  0
LINE
  5
12DA
330
1F
100
AcDbEntity
  8
AM_VIS
100
AcDbLine
 10
292.9589072511412
 20
117.3820107619084
 30
0.0
 11
293.2089072511412
 21
117.3820107619084
 31
0.0
  0
LINE
  5
12DB
330
1F
100
AcDbEntity
  8
AM_VIS
100
AcDbLine
 10
294.2089072511412
 20
117.3820107619084
 30
0.0
 11
294.4589072511412
 21
117.3820107619084
 31
0.0
  0
LINE
  5
12DC
330
1F
100
AcDbEntity
  8
AM_VIS
100
AcDbLine
 10
292.9589072511412
 20
127.9820107619084
 30
0.0
 11
293.2089072511412
 21
127.9820107619084
 31
0.0
  0
LINE
  5
12DD
330
1F
100
AcDbEntity
  8
AM_VIS
100
AcDbLine
 10
294.2089072511412
 20
127.9820107619084
 30
0.0
 11
294.4589072511412
 21
127.9820107619084
 31
0.0
  0
LINE
  5
12DE
330
1F
100
AcDbEntity
  8
AM_VIS
100
AcDbLine
 10
268.5589072511413
 20
116.2820107598942
 30
0.0
 11
269.7589072511412
 21
116.2820107598942
 31
0.0
  0
LINE
  5
12DF
330
1F
100
AcDbEntity
  8
AM_VIS
100
AcDbLine
 10
268.5589072511413
 20
129.0820107598942
 30
0.0
 11
269.7589072511412
 21
129.0820107598942
 31
0.0
  0
LINE
  5
12E0
330
1F
100
AcDbEntity
  8
AM_VIS
100
AcDbLine
 10
268.4589072511412
 20
116.3820107598942
 30
0.0
 11
268.5589072511413
 21
116.2820107598942
 31
0.0
  0
LINE
  5
12E1
330
1F
100
AcDbEntity
  8
AM_VIS
100
AcDbLine
 10
268.4589072511412
 20
128.9820107598942
 30
0.0
 11
268.5589072511413
 21
129.0820107598942
 31
0.0
  0
LINE
  5
12E2
330
1F
100
AcDbEntity
  8
AM_VIS
100
AcDbLine
 10
295.4589072511412
 20
128.6820107619084
 30
0.0
 11
295.4589072511412
 21
116.6820107619084
 31
0.0
  0
LINE
  5
12E3
330
1F
100
AcDbEntity
  8
AM_VIS
100
AcDbLine
 10
289.4589072511412
 20
116.6820107619084
 30
0.0
 11
289.4589072511412
 21
128.6820107619084
 31
0.0
  0
LINE
  5
12E4
330
1F
100
AcDbEntity
  8
AM_VIS
100
AcDbLine
 10
292.9589072511412
 20
128.6820107619084
 30
0.0
 11
292.9589072511412
 21
116.6820107619084
 31
0.0
  0
LINE
  5
12E5
330
1F
100
AcDbEntity
  8
AM_VIS
100
AcDbLine
 10
294.4589072511412
 20
116.6820107619084
 30
0.0
 11
294.4589072511412
 21
128.6820107619084
 31
0.0
  0
LINE
  5
12E6
330
1F
100
AcDbEntity
  8
AM_VIS
100
AcDbLine
 10
269.7589072511412
 20
116.2820107598942
 30
0.0
 11
269.7589072511412
 21
129.0820107598942
 31
0.0
  0
LINE
  5
12E7
330
1F
100
AcDbEntity
  8
AM_VIS
100
AcDbLine
 10
268.4589072511412
 20
116.3820107598942
 30
0.0
 11
268.4589072511412
 21
128.9820107598942
 31
0.0
  0
LINE
  5
12E8
330
1F
100
AcDbEntity
  8
AM_VIS
100
AcDbLine
 10
231.1284676350242
 20
126.7234626462358
 30
0.0
 11
232.8784676350242
 21
125.7130996751539
 31
0.0
  0
LINE
  5
12E9
330
1F
100
AcDbEntity
  8
AM_VIS
100
AcDbLine
 10
234.6284676350242
 20
122.6820107619084
 30
0.0
 11
234.6284676350242
 21
120.6612848197447
 31
0.0
  0
LINE
  5
12EA
330
1F
100
AcDbEntity
  8
AM_VIS
100
AcDbLine
 10
232.8784676350242
 20
125.7130996751539
 30
0.0
 11
234.6284676350242
 21
124.7027367040721
 31
0.0
  0
LINE
  5
12EB
330
1F
100
AcDbEntity
  8
AM_VIS
100
AcDbLine
 10
234.6284676350242
 20
124.7027367040721
 30
0.0
 11
234.6284676350242
 21
122.6820107619084
 31
0.0
  0
LINE
  5
12EC
330
1F
100
AcDbEntity
  8
AM_VIS
100
AcDbLine
 10
231.1284676350243
 20
118.640558877581
 30
0.0
 11
232.8784676350242
 21
119.6509218486628
 31
0.0
  0
LINE
  5
12ED
330
1F
100
AcDbEntity
  8
AM_VIS
100
AcDbLine
 10
232.8784676350242
 20
119.6509218486628
 30
0.0
 11
234.6284676350241
 21
120.6612848197447
 31
0.0
  0
LINE
  5
12EE
330
1F
100
AcDbEntity
  8
AM_VIS
100
AcDbLine
 10
227.6284676350242
 20
120.6612848197447
 30
0.0
 11
229.3784676350242
 21
119.6509218486628
 31
0.0
  0
LINE
  5
12EF
330
1F
100
AcDbEntity
  8
AM_VIS
100
AcDbLine
 10
229.3784676350242
 20
119.6509218486628
 30
0.0
 11
231.1284676350242
 21
118.640558877581
 31
0.0
  0
LINE
  5
12F0
330
1F
100
AcDbEntity
  8
AM_VIS
100
AcDbLine
 10
227.6284676350242
 20
124.7027367040721
 30
0.0
 11
227.6284676350242
 21
122.6820107619084
 31
0.0
  0
LINE
  5
12F1
330
1F
100
AcDbEntity
  8
AM_VIS
100
AcDbLine
 10
227.6284676350242
 20
122.6820107619084
 30
0.0
 11
227.6284676350242
 21
120.6612848197447
 31
0.0
  0
LINE
  5
12F2
330
1F
100
AcDbEntity
  8
AM_VIS
100
AcDbLine
 10
229.3784676350242
 20
125.7130996751539
 30
0.0
 11
231.1284676350242
 21
126.7234626462358
 31
0.0
  0
LINE
  5
12F3
330
1F
100
AcDbEntity
  8
AM_VIS
100
AcDbLine
 10
227.6284676350242
 20
124.7027367040721
 30
0.0
 11
229.3784676350242
 21
125.7130996751539
 31
0.0
  0
LINE
  5
12F4
330
1F
100
AcDbEntity
  8
AM_VIS
100
AcDbLine
 10
231.1284676350242
 20
126.7234626462358
 30
0.0
 11
232.8784676350242
 21
125.7130996751539
 31
0.0
  0
LINE
  5
12F5
330
1F
100
AcDbEntity
  8
AM_VIS
100
AcDbLine
 10
234.6284676350242
 20
122.6820107619084
 30
0.0
 11
234.6284676350242
 21
120.6612848197447
 31
0.0
  0
LINE
  5
12F6
330
1F
100
AcDbEntity
  8
AM_VIS
100
AcDbLine
 10
232.8784676350242
 20
125.7130996751539
 30
0.0
 11
234.6284676350242
 21
124.7027367040721
 31
0.0
  0
LINE
  5
12F7
330
1F
100
AcDbEntity
  8
AM_VIS
100
AcDbLine
 10
234.6284676350242
 20
124.7027367040721
 30
0.0
 11
234.6284676350242
 21
122.6820107619084
 31
0.0
  0
LINE
  5
12F8
330
1F
100
AcDbEntity
  8
AM_VIS
100
AcDbLine
 10
231.1284676350243
 20
118.640558877581
 30
0.0
 11
232.8784676350242
 21
119.6509218486628
 31
0.0
  0
LINE
  5
12F9
330
1F
100
AcDbEntity
  8
AM_VIS
100
AcDbLine
 10
232.8784676350242
 20
119.6509218486628
 30
0.0
 11
234.6284676350241
 21
120.6612848197447
 31
0.0
  0
LINE
  5
12FA
330
1F
100
AcDbEntity
  8
AM_VIS
100
AcDbLine
 10
227.6284676350242
 20
120.6612848197447
 30
0.0
 11
229.3784676350242
 21
119.6509218486628
 31
0.0
  0
LINE
  5
12FB
330
1F
100
AcDbEntity
  8
AM_VIS
100
AcDbLine
 10
229.3784676350242
 20
119.6509218486628
 30
0.0
 11
231.1284676350242
 21
118.640558877581
 31
0.0
  0
LINE
  5
12FC
330
1F
100
AcDbEntity
  8
AM_VIS
100
AcDbLine
 10
227.6284676350242
 20
124.7027367040721
 30
0.0
 11
227.6284676350242
 21
122.6820107619084
 31
0.0
  0
LINE
  5
12FD
330
1F
100
AcDbEntity
  8
AM_VIS
100
AcDbLine
 10
227.6284676350242
 20
122.6820107619084
 30
0.0
 11
227.6284676350242
 21
120.6612848197447
 31
0.0
  0
LINE
  5
12FE
330
1F
100
AcDbEntity
  8
AM_VIS
100
AcDbLine
 10
229.3784676350242
 20
125.7130996751539
 30
0.0
 11
231.1284676350242
 21
126.7234626462358
 31
0.0
  0
LINE
  5
12FF
330
1F
100
AcDbEntity
  8
AM_VIS
100
AcDbLine
 10
227.6284676350242
 20
124.7027367040721
 30
0.0
 11
229.3784676350242
 21
125.7130996751539
 31
0.0
  0
ARC
  5
1300
330
1F
100
AcDbEntity
  8
AM_VIS
100
AcDbCircle
 10
231.1284676350242
 20
122.6820107619084
 30
0.0
 40
3.5
100
AcDbArc
 50
0.0
 51
60.00000000000028
  0
ARC
  5
1301
330
1F
100
AcDbEntity
  8
AM_VIS
100
AcDbCircle
 10
231.1284676350242
 20
122.6820107619084
 30
0.0
 40
3.5
100
AcDbArc
 50
299.9999999999997
 51
0.0
  0
ARC
  5
1302
330
1F
100
AcDbEntity
  8
AM_VIS
100
AcDbCircle
 10
231.1284676350242
 20
122.6820107619084
 30
0.0
 40
3.5
100
AcDbArc
 50
240.0000000000002
 51
300.0000000000005
  0
ARC
  5
1303
330
1F
100
AcDbEntity
  8
AM_VIS
100
AcDbCircle
 10
231.1284676350242
 20
122.6820107619084
 30
0.0
 40
3.5
100
AcDbArc
 50
180.0
 51
240.0000000000002
  0
ARC
  5
1304
330
1F
100
AcDbEntity
  8
AM_VIS
100
AcDbCircle
 10
231.1284676350242
 20
122.6820107619084
 30
0.0
 40
3.5
100
AcDbArc
 50
119.9999999999997
 51
180.0
  0
ARC
  5
1305
330
1F
100
AcDbEntity
  8
AM_VIS
100
AcDbCircle
 10
231.1284676350242
 20
122.6820107619084
 30
0.0
 40
3.5
100
AcDbArc
 50
60.00000000000028
 51
119.9999999999997
  0
LINE
  5
1307
330
1F
100
AcDbEntity
  8
AM_VIS
100
AcDbLine
 10
231.1284676350242
 20
133.6516658719084
 30
0.0
 11
240.6284676350242
 21
128.1668383119084
 31
0.0
  0
LINE
  5
1308
330
1F
100
AcDbEntity
  8
AM_VIS
100
AcDbLine
 10
240.6284676350242
 20
128.1668383119084
 30
0.0
 11
240.6284676350242
 21
117.1971832019084
 31
0.0
  0
LINE
  5
1309
330
1F
100
AcDbEntity
  8
AM_VIS
100
AcDbLine
 10
231.1284676350242
 20
111.7123556419084
 30
0.0
 11
240.6284676350242
 21
117.1971832019084
 31
0.0
  0
LINE
  5
130A
330
1F
100
AcDbEntity
  8
AM_VIS
100
AcDbLine
 10
221.6284676350242
 20
117.1971832019084
 30
0.0
 11
231.1284676350242
 21
111.7123556419084
 31
0.0
  0
LINE
  5
130B
330
1F
100
AcDbEntity
  8
AM_VIS
100
AcDbLine
 10
221.6284676350242
 20
128.1668383119084
 30
0.0
 11
221.6284676350242
 21
117.1971832019084
 31
0.0
  0
LINE
  5
130C
330
1F
100
AcDbEntity
  8
AM_VIS
100
AcDbLine
 10
221.6284676350242
 20
128.1668383119084
 30
0.0
 11
231.1284676350242
 21
133.6516658719084
 31
0.0
  0
CIRCLE
  5
130D
330
1F
100
AcDbEntity
  8
AM_VIS
100
AcDbCircle
 10
231.1284676350242
 20
122.6820107619084
 30
0.0
 40
9.250000000000003
  0
CIRCLE
  5
130E
330
1F
100
AcDbEntity
  8
AM_VIS
100
AcDbCircle
 10
231.1284676350242
 20
122.6820107569084
 30
0.0
 40
7.776500000000003
  0
ARC
  5
130F
330
1F
100
AcDbEntity
  8
AM_VIS
100
AcDbCircle
 10
231.1284676350242
 20
122.6820107569084
 30
0.0
 40
7.0765
100
AcDbArc
 50
36.71257531702893
 51
83.28742468650728
  0
ARC
  5
1310
330
1F
100
AcDbEntity
  8
AM_VIS
100
AcDbCircle
 10
231.1284676350242
 20
122.6820107569084
 30
0.0
 40
7.0765
100
AcDbArc
 50
336.7125752242091
 51
23.28742477579087
  0
ARC
  5
1311
330
1F
100
AcDbEntity
  8
AM_VIS
100
AcDbCircle
 10
231.1284676350242
 20
122.6820107569084
 30
0.0
 40
7.0765
100
AcDbArc
 50
276.7125751444118
 51
323.2874248591258
  0
ARC
  5
1312
330
1F
100
AcDbEntity
  8
AM_VIS
100
AcDbCircle
 10
231.1284676350242
 20
122.6820107569084
 30
0.0
 40
7.0765
100
AcDbArc
 50
216.7125751491546
 51
263.2874248543812
  0
ARC
  5
1313
330
1F
100
AcDbEntity
  8
AM_VIS
100
AcDbCircle
 10
231.1284676350242
 20
122.6820107569084
 30
0.0
 40
7.0765
100
AcDbArc
 50
156.7125752242091
 51
203.2874247757909
  0
ARC
  5
1314
330
1F
100
AcDbEntity
  8
AM_VIS
100
AcDbCircle
 10
231.1284676350242
 20
122.6820107569084
 30
0.0
 40
7.0765
100
AcDbArc
 50
96.71257533126045
 51
143.2874246722773
  0
CIRCLE
  5
1315
330
1F
100
AcDbEntity
  8
AM_VIS
100
AcDbCircle
 10
231.1284676350242
 20
122.6820107619084
 30
0.0
 40
2.0
  0
CIRCLE
  5
1316
330
1F
100
AcDbEntity
  8
AM_VIS
100
AcDbCircle
 10
231.1284676350242
 20
122.6820107619084
 30
0.0
 40
1.5
  0
ARC
  5
1317
330
1F
100
AcDbEntity
  8
AM_VIS
100
AcDbCircle
 10
231.1284676350242
 20
126.3820107619084
 30
0.0
 40
0.4
100
AcDbArc
 50
17.66884370911007
 51
162.3311562908899
  0
CIRCLE
  5
1318
330
1F
100
AcDbEntity
  8
AM_VIS
100
AcDbCircle
 10
231.1284676350242
 20
122.6820107619084
 30
0.0
 40
4.75
  0
LINE
  5
1319
330
1F
100
AcDbEntity
  8
AM_VIS
100
AcDbLine
 10
237.6284676350242
 20
126.4347875119084
 30
0.0
 11
237.6284676350242
 21
118.9292340119084
 31
0.0
  0
LINE
  5
131A
330
1F
100
AcDbEntity
  8
AM_VIS
100
AcDbLine
 10
231.1284676350242
 20
115.1764572619084
 30
0.0
 11
237.6284676350242
 21
118.9292340119084
 31
0.0
  0
LINE
  5
131B
330
1F
100
AcDbEntity
  8
AM_VIS
100
AcDbLine
 10
224.6284676350242
 20
118.9292340113735
 30
0.0
 11
231.1284676350242
 21
115.1764572619084
 31
0.0
  0
LINE
  5
131C
330
1F
100
AcDbEntity
  8
AM_VIS
100
AcDbLine
 10
224.6284676350242
 20
126.4347875124433
 30
0.0
 11
224.6284676350242
 21
118.9292340113736
 31
0.0
  0
LINE
  5
131D
330
1F
100
AcDbEntity
  8
AM_VIS
100
AcDbLine
 10
224.6284676350242
 20
126.4347875124433
 30
0.0
 11
231.1284676340978
 21
130.1875642619084
 31
0.0
  0
LINE
  5
131E
330
1F
100
AcDbEntity
  8
AM_VIS
100
AcDbLine
 10
231.1284676340978
 20
130.1875642619084
 30
0.0
 11
237.6284676350242
 21
126.4347875119084
 31
0.0
  0
CIRCLE
  5
131F
330
1F
100
AcDbEntity
  8
AM_VIS
100
AcDbCircle
 10
231.1284676350242
 20
122.6820107598942
 30
0.0
 40
6.4
  0
CIRCLE
  5
1320
330
1F
100
AcDbEntity
  8
AM_VIS
100
AcDbCircle
 10
231.1284676350242
 20
122.6820107598942
 30
0.0
 40
5.85
  0
LINE
  5
1321
330
1F
100
AcDbEntity
  8
AM_VIS
100
AcDbLine
 10
294.2089072511412
 20
198.8771339939448
 30
0.0
 11
294.2089072511412
 21
209.8771339939448
 31
0.0
  0
LINE
  5
1322
330
1F
100
AcDbEntity
  8
AM_VIS
100
AcDbLine
 10
293.2089072511412
 20
209.8771339939448
 30
0.0
 11
293.2089072511412
 21
198.8771339939448
 31
0.0
  0
ARC
  5
1323
330
1F
100
AcDbEntity
  8
AM_VIS
100
AcDbCircle
 10
293.7089072511412
 20
198.8771339939448
 30
0.0
 40
0.5
100
AcDbArc
 50
180.0
 51
0.0
  0
ARC
  5
1324
330
1F
100
AcDbEntity
  8
AM_VIS
100
AcDbCircle
 10
293.7089072511412
 20
209.8771339939448
 30
0.0
 40
0.5
100
AcDbArc
 50
0.0
 51
180.0
  0
LINE
  5
1325
330
1F
100
AcDbEntity
  8
AM_VIS
100
AcDbLine
 10
272.9517505937564
 20
209.8619615439448
 30
0.0
 11
274.9660639085261
 21
209.8619615439448
 31
0.0
  0
LINE
  5
1326
330
1F
100
AcDbEntity
  8
AM_VIS
100
AcDbLine
 10
272.9517505932066
 20
215.3467891039448
 30
0.0
 11
274.9660639090758
 21
215.3467891039448
 31
0.0
  0
SPLINE
  5
1327
330
1F
100
AcDbEntity
  8
AM_VIS
100
AcDbSpline
210
0.0
220
0.0
230
1.0
 70
    12
 71
     2
 72
     6
 73
     3
 74
     0
 42
0.0000000001
 43
0.0000000001
 40
4.397157632723568
 40
4.397157632723568
 40
4.397157632723568
 40
17.54215258802923
 40
17.54215258802923
 40
17.54215258802923
 10
274.9660639056393
 20
198.8923064339448
 30
0.0
 41
1.160254037767906
 10
276.5493972414758
 20
204.3771339901949
 30
0.0
 41
1.339745962090386
 10
274.9660639085261
 20
209.8619615439448
 30
0.0
 41
1.160254038051314
  0
SPLINE
  5
1328
330
1F
100
AcDbEntity
  8
AM_VIS
100
AcDbSpline
210
0.0
220
0.0000000000000006
230
1.0
 70
    12
 71
     2
 72
     6
 73
     3
 74
     0
 42
0.0000000001
 43
0.0000000001
 40
4.397157637114494
 40
4.397157637114494
 40
4.397157637114494
 40
17.54215260245597
 40
17.54215260245597
 40
17.54215260245597
 10
274.9660639085261
 20
209.8619615439448
 30
0.0
 41
1.16025403809167
 10
276.5493972453419
 20
212.604375324064
 30
0.0
 41
1.339745962695246
 10
274.9660639090757
 20
215.3467891039447
 30
-0.0000000000000036
 41
1.16025403814564
  0
LINE
  5
1329
330
1F
100
AcDbEntity
  8
AM_VIS
100
AcDbLine
 10
272.9517505966431
 20
198.8923064339448
 30
0.0
 11
274.9660639056393
 21
198.8923064339448
 31
0.0
  0
SPLINE
  5
132A
330
1F
100
AcDbEntity
  8
AM_VIS
100
AcDbSpline
210
0.0
220
0.0
230
1.0
 70
    12
 71
     2
 72
     6
 73
     3
 74
     0
 42
0.0000000001
 43
0.0000000001
 40
4.397157628393501
 40
4.397157628393501
 40
4.397157628393501
 40
17.54215258725183
 40
17.54215258725183
 40
17.54215258725183
 10
274.9660639033022
 20
193.4074788739448
 30
0.0
 41
1.160254037511024
 10
276.5493972399292
 20
196.1498926544508
 30
0.0
 41
1.33974596182075
 10
274.9660639056394
 20
198.8923064339448
 30
0.0
 41
1.160254037740462
  0
LINE
  5
132B
330
1F
100
AcDbEntity
  8
AM_VIS
100
AcDbLine
 10
272.9517505989801
 20
193.4074788739448
 30
0.0
 11
274.9660639033024
 21
193.4074788739448
 31
0.0
  0
SPLINE
  5
132C
330
1F
100
AcDbEntity
  8
AM_VIS
100
AcDbSpline
210
0.0
220
0.0
230
1.0
 70
    12
 71
     2
 72
     6
 73
     3
 74
     0
 42
0.0000000001
 43
0.0000000001
 40
4.397157639090742
 40
4.397157639090742
 40
4.397157639090742
 40
17.54215260443221
 40
17.54215260443221
 40
17.54215260443221
 10
272.9517505932066
 20
215.3467891039448
 30
0.0
 41
1.16025403814564
 10
271.3684172569405
 20
212.6043753240638
 30
0.0
 41
1.339745962695247
 10
272.9517505937564
 20
209.8619615439448
 30
0.0
 41
1.16025403809167
  0
SPLINE
  5
132D
330
1F
100
AcDbEntity
  8
AM_VIS
100
AcDbSpline
210
0.0
220
0.0
230
1.0
 70
    12
 71
     2
 72
     6
 73
     3
 74
     0
 42
0.0000000001
 43
0.0000000001
 40
4.397157643101197
 40
4.397157643101197
 40
4.397157643101197
 40
17.54215259840686
 40
17.54215259840686
 40
17.54215259840686
 10
272.9517505937565
 20
209.8619615439448
 30
0.0
 41
1.160254038051315
 10
271.3684172608067
 20
204.377133990195
 30
0.0000000000000036
 41
1.339745962090387
 10
272.9517505966431
 20
198.8923064339448
 30
0.0
 41
1.160254037767906
  0
SPLINE
  5
132E
330
1F
100
AcDbEntity
  8
AM_VIS
100
AcDbSpline
210
0.0
220
0.0
230
1.0
 70
    12
 71
     2
 72
     6
 73
     3
 74
     0
 42
0.0000000001
 43
0.0000000001
 40
4.397157636794876
 40
4.397157636794876
 40
4.397157636794876
 40
17.54215259565323
 40
17.54215259565323
 40
17.54215259565323
 10
272.9517505966431
 20
198.8923064339449
 30
0.0
 41
1.160254037740463
 10
271.3684172623532
 20
196.1498926544508
 30
0.0
 41
1.339745961820753
 10
272.9517505989801
 20
193.4074788739448
 30
0.0
 41
1.160254037511025
  0
LINE
  5
132F
330
1F
100
AcDbEntity
  8
AM_VIS
100
AcDbLine
 10
275.9589072511412
 20
213.6271339939448
 30
0.0
 11
274.9660639090758
 21
215.3467891039448
 31
0.0
  0
LINE
  5
1330
330
1F
100
AcDbEntity
  8
AM_VIS
100
AcDbLine
 10
275.9589072511412
 20
195.1271339939448
 30
0.0
 11
274.9660639033024
 21
193.4074788739448
 31
0.0
  0
LINE
  5
1331
330
1F
100
AcDbEntity
  8
AM_VIS
100
AcDbLine
 10
271.9589072511412
 20
195.1271339939448
 30
0.0
 11
272.9517505989801
 21
193.4074788739448
 31
0.0
  0
LINE
  5
1332
330
1F
100
AcDbEntity
  8
AM_VIS
100
AcDbLine
 10
271.9589072511412
 20
213.6271339939448
 30
0.0
 11
272.9517505932066
 21
215.3467891039448
 31
0.0
  0
LINE
  5
1333
330
1F
100
AcDbEntity
  8
AM_VIS
100
AcDbLine
 10
275.9589072511412
 20
195.1271339939448
 30
0.0
 11
275.9589072511412
 21
213.6271339939448
 31
0.0
  0
LINE
  5
1334
330
1F
100
AcDbEntity
  8
AM_VIS
100
AcDbLine
 10
271.9589072511412
 20
213.6271339939448
 30
0.0
 11
271.9589072511412
 21
195.1271339939448
 31
0.0
  0
LINE
  5
1337
330
1F
100
AcDbEntity
  8
AM_VIS
100
AcDbLine
 10
268.4589072511412
 20
206.8771339939448
 30
0.0
 11
256.9589072511412
 21
206.8771339939448
 31
0.0
  0
LINE
  5
1338
330
1F
100
AcDbEntity
  8
AM_VIS
100
AcDbLine
 10
268.4589072511412
 20
201.8771339939448
 30
0.0
 11
256.9589072511412
 21
201.8771339939448
 31
0.0
  0
LINE
  5
1339
330
1F
100
AcDbEntity
  8
AM_VIS
100
AcDbLine
 10
256.4589072511412
 20
202.3771339939448
 30
0.0
 11
256.9589072511412
 21
201.8771339939448
 31
0.0
  0
LINE
  5
133A
330
1F
100
AcDbEntity
  8
AM_VIS
100
AcDbLine
 10
256.4589072511412
 20
206.3771339939448
 30
0.0
 11
256.9589072511412
 21
206.8771339939448
 31
0.0
  0
LINE
  5
133D
102
{ACAD_REACTORS
330
236D
102
}
330
1F
100
AcDbEntity
  8
AM_VIS
100
AcDbLine
 10
256.9589072511412
 20
206.8771339939448
 30
0.0
 11
256.9589072511412
 21
201.8771339939448
 31
0.0
  0
LINE
  5
133E
330
1F
100
AcDbEntity
  8
AM_VIS
100
AcDbLine
 10
256.4589072511412
 20
202.3771339939448
 30
0.0
 11
256.4589072511412
 21
206.3771339939448
 31
0.0
  0
LINE
  5
1340
330
1F
100
AcDbEntity
  8
AM_VIS
100
AcDbLine
 10
270.3971988626341
 20
200.6243572439448
 30
0.0
 11
271.9589072511412
 21
200.6243572439448
 31
0.0
  0
LINE
  5
1341
330
1F
100
AcDbEntity
  8
AM_VIS
100
AcDbLine
 10
275.9589072511412
 20
200.6243572439448
 30
0.0
 11
288.5896755316484
 21
200.6243572439448
 31
0.0
  0
LINE
  5
1342
330
1F
100
AcDbEntity
  8
AM_VIS
100
AcDbLine
 10
270.3971988626341
 20
208.1299107439448
 30
0.0
 11
271.9589072511412
 21
208.1299107439448
 31
0.0
  0
LINE
  5
1343
330
1F
100
AcDbEntity
  8
AM_VIS
100
AcDbLine
 10
275.9589072511412
 20
208.1299107439448
 30
0.0
 11
288.5896755316484
 21
208.1299107439448
 31
0.0
  0
SPLINE
  5
1344
330
1F
100
AcDbEntity
  8
AM_VIS
100
AcDbSpline
210
0.0
220
0.0
230
1.0
 70
    12
 71
     2
 72
     6
 73
     3
 74
     0
 42
0.0000000001
 43
0.0000000001
 40
4.360679341342861
 40
4.360679341342861
 40
4.360679341342861
 40
14.13256266810755
 40
14.13256266810755
 40
14.13256266810755
 10
288.5896755314167
 20
196.8715804939448
 30
0.0
 41
1.249504348393892
 10
289.6730088663768
 20
198.747968868995
 30
0.0
 41
1.442803343805453
 10
288.5896755316483
 20
200.6243572439448
 30
0.0
 41
1.249504348429682
  0
SPLINE
  5
1345
330
1F
100
AcDbEntity
  8
AM_VIS
100
AcDbSpline
210
0.0
220
0.0
230
1.0
 70
    12
 71
     2
 72
     6
 73
     3
 74
     0
 42
0.0000000001
 43
0.0000000001
 40
4.360679341721719
 40
4.360679341721719
 40
4.360679341721719
 40
14.13256266923447
 40
14.13256266923447
 40
14.13256266923447
 10
288.5896755316484
 20
200.6243572439448
 30
0.0
 41
1.249504348435872
 10
289.6730088666371
 20
204.3771339939448
 30
-0.0000000000000036
 41
1.442803343871822
 10
288.5896755316484
 20
208.1299107439448
 30
0.0
 41
1.249504348435872
  0
SPLINE
  5
1346
330
1F
100
AcDbEntity
  8
AM_VIS
100
AcDbSpline
210
0.0
220
0.0
230
1.0
 70
    12
 71
     2
 72
     6
 73
     3
 74
     0
 42
0.0000000001
 43
0.0000000001
 40
4.360679341896982
 40
4.360679341896982
 40
4.360679341896982
 40
14.13256266976347
 40
14.13256266976347
 40
14.13256266976347
 10
288.5896755316484
 20
208.1299107439448
 30
0.0
 41
1.249504348433807
 10
289.6730088666086
 20
210.0062991188947
 30
0.0
 41
1.442803343861627
 10
288.5896755314168
 20
211.8826874939448
 30
0.0
 41
1.249504348398018
  0
LINE
  5
1347
330
1F
100
AcDbEntity
  8
AM_VIS
100
AcDbLine
 10
270.3971988628657
 20
211.8826874939448
 30
0.0
 11
271.9589072511412
 21
211.8826874939448
 31
0.0
  0
LINE
  5
1348
330
1F
100
AcDbEntity
  8
AM_VIS
100
AcDbLine
 10
275.9589072511412
 20
211.8826874939448
 30
0.0
 11
288.5896755314168
 21
211.8826874939448
 31
0.0
  0
LINE
  5
1349
330
1F
100
AcDbEntity
  8
AM_VIS
100
AcDbLine
 10
270.3971988628657
 20
196.8715804939448
 30
0.0
 11
271.9589072511412
 21
196.8715804939448
 31
0.0
  0
LINE
  5
134A
330
1F
100
AcDbEntity
  8
AM_VIS
100
AcDbLine
 10
275.9589072511412
 20
196.8715804939448
 30
0.0
 11
288.5896755314168
 21
196.8715804939448
 31
0.0
  0
SPLINE
  5
134B
330
1F
100
AcDbEntity
  8
AM_VIS
100
AcDbSpline
210
0.0
220
0.0000000000000005
230
1.0
 70
    12
 71
     2
 72
     6
 73
     3
 74
     0
 42
0.0000000001
 43
0.0000000001
 40
4.77297970631735
 40
4.77297970631735
 40
4.77297970631735
 40
14.79365856966662
 40
14.79365856966662
 40
14.79365856966662
 10
270.397198862634
 20
208.1299107439448
 30
0.0
 41
1.278064447828692
 10
269.313865527645
 20
204.3771339939448
 30
0.0
 41
1.475781706017465
 10
270.3971988626342
 20
200.624357243945
 30
0.0000000000000036
 41
1.278064447828693
  0
SPLINE
  5
134C
330
1F
100
AcDbEntity
  8
AM_VIS
100
AcDbSpline
210
0.0
220
0.0000000000000009
230
1.0
 70
    12
 71
     2
 72
     6
 73
     3
 74
     0
 42
0.0000000001
 43
0.0000000001
 40
4.772979706877895
 40
4.772979706877895
 40
4.772979706877895
 40
14.79365856945617
 40
14.79365856945617
 40
14.79365856945617
 10
270.3971988626341
 20
200.6243572439448
 30
0.0
 41
1.278064447821794
 10
269.3138655279056
 20
198.7479688689949
 30
0.0
 41
1.475781705948925
 10
270.3971988628658
 20
196.871580493945
 30
0.0000000000000036
 41
1.278064447785187
  0
SPLINE
  5
134D
330
1F
100
AcDbEntity
  8
AM_VIS
100
AcDbSpline
210
0.0
220
0.0
230
1.0
 70
    12
 71
     2
 72
     6
 73
     3
 74
     0
 42
0.0000000001
 43
0.0000000001
 40
4.772979705576542
 40
4.772979705576542
 40
4.772979705576542
 40
14.79365856928723
 40
14.79365856928723
 40
14.79365856928723
 10
270.3971988628657
 20
211.8826874939448
 30
0.0
 41
1.278064447789783
 10
269.313865527674
 20
210.0062991188947
 30
0.0
 41
1.475781706006817
 10
270.3971988626341
 20
208.1299107439448
 30
0.0
 41
1.27806444782639
  0
LINE
  5
134E
330
1F
100
AcDbEntity
  8
AM_VIS
100
AcDbLine
 10
295.4589072511412
 20
210.3771339939448
 30
0.0
 11
294.4589072511412
 21
210.3771339939448
 31
0.0
  0
LINE
  5
134F
330
1F
100
AcDbEntity
  8
AM_VIS
100
AcDbLine
 10
295.4589072511412
 20
198.3771339939448
 30
0.0
 11
294.4589072511412
 21
198.3771339939448
 31
0.0
  0
LINE
  5
1350
330
1F
100
AcDbEntity
  8
AM_VIS
100
AcDbLine
 10
289.4589072511412
 20
210.3771339939448
 30
0.0
 11
288.5896755314168
 21
211.8826874939448
 31
0.0
  0
LINE
  5
1351
330
1F
100
AcDbEntity
  8
AM_VIS
100
AcDbLine
 10
289.4589072511412
 20
198.3771339939448
 30
0.0
 11
288.5896755314168
 21
196.8715804939448
 31
0.0
  0
LINE
  5
1352
330
1F
100
AcDbEntity
  8
AM_VIS
100
AcDbLine
 10
269.7589072520134
 20
197.9771339924342
 30
0.0
 11
270.3971988628657
 21
196.8715804939448
 31
0.0
  0
LINE
  5
1353
330
1F
100
AcDbEntity
  8
AM_VIS
100
AcDbLine
 10
269.7589072502691
 20
210.7771339924342
 30
0.0
 11
270.3971988628657
 21
211.8826874939448
 31
0.0
  0
LINE
  5
1354
330
1F
100
AcDbEntity
  8
AM_VIS
100
AcDbLine
 10
292.9589072511412
 20
210.3771339939448
 30
0.0
 11
289.4589072511412
 21
210.3771339939448
 31
0.0
  0
LINE
  5
1355
330
1F
100
AcDbEntity
  8
AM_VIS
100
AcDbLine
 10
292.9589072511412
 20
198.3771339939448
 30
0.0
 11
289.4589072511412
 21
198.3771339939448
 31
0.0
  0
LINE
  5
1356
330
1F
100
AcDbEntity
  8
AM_VIS
100
AcDbLine
 10
292.9589072511412
 20
199.0771339939448
 30
0.0
 11
293.2089072511412
 21
199.0771339939448
 31
0.0
  0
LINE
  5
1357
330
1F
100
AcDbEntity
  8
AM_VIS
100
AcDbLine
 10
294.2089072511412
 20
199.0771339939448
 30
0.0
 11
294.4589072511412
 21
199.0771339939448
 31
0.0
  0
LINE
  5
1358
330
1F
100
AcDbEntity
  8
AM_VIS
100
AcDbLine
 10
292.9589072511412
 20
209.6771339939448
 30
0.0
 11
293.2089072511412
 21
209.6771339939448
 31
0.0
  0
LINE
  5
1359
330
1F
100
AcDbEntity
  8
AM_VIS
100
AcDbLine
 10
294.2089072511412
 20
209.6771339939448
 30
0.0
 11
294.4589072511412
 21
209.6771339939448
 31
0.0
  0
LINE
  5
135A
330
1F
100
AcDbEntity
  8
AM_VIS
100
AcDbLine
 10
268.5589072511413
 20
197.9771339919306
 30
0.0
 11
269.7589072511412
 21
197.9771339919306
 31
0.0
  0
LINE
  5
135B
330
1F
100
AcDbEntity
  8
AM_VIS
100
AcDbLine
 10
268.5589072511413
 20
210.7771339919306
 30
0.0
 11
269.7589072511412
 21
210.7771339919306
 31
0.0
  0
LINE
  5
135C
330
1F
100
AcDbEntity
  8
AM_VIS
100
AcDbLine
 10
268.4589072511412
 20
198.0771339919306
 30
0.0
 11
268.5589072511413
 21
197.9771339919306
 31
0.0
  0
LINE
  5
135D
330
1F
100
AcDbEntity
  8
AM_VIS
100
AcDbLine
 10
268.4589072511412
 20
210.6771339919307
 30
0.0
 11
268.5589072511413
 21
210.7771339919306
 31
0.0
  0
LINE
  5
135E
330
1F
100
AcDbEntity
  8
AM_VIS
100
AcDbLine
 10
295.4589072511412
 20
210.3771339939448
 30
0.0
 11
295.4589072511412
 21
198.3771339939448
 31
0.0
  0
LINE
  5
135F
330
1F
100
AcDbEntity
  8
AM_VIS
100
AcDbLine
 10
289.4589072511412
 20
198.3771339939448
 30
0.0
 11
289.4589072511412
 21
210.3771339939448
 31
0.0
  0
LINE
  5
1360
330
1F
100
AcDbEntity
  8
AM_VIS
100
AcDbLine
 10
292.9589072511412
 20
210.3771339939448
 30
0.0
 11
292.9589072511412
 21
198.3771339939448
 31
0.0
  0
LINE
  5
1361
330
1F
100
AcDbEntity
  8
AM_VIS
100
AcDbLine
 10
294.4589072511412
 20
198.3771339939448
 30
0.0
 11
294.4589072511412
 21
210.3771339939448
 31
0.0
  0
LINE
  5
1362
330
1F
100
AcDbEntity
  8
AM_VIS
100
AcDbLine
 10
269.7589072511412
 20
197.9771339919306
 30
0.0
 11
269.7589072511412
 21
210.7771339919306
 31
0.0
  0
LINE
  5
1363
330
1F
100
AcDbEntity
  8
AM_VIS
100
AcDbLine
 10
268.4589072511412
 20
198.0771339919306
 30
0.0
 11
268.4589072511412
 21
210.6771339919307
 31
0.0
  0
LINE
  5
1364
330
1F
100
AcDbEntity
  8
AM_VIS
100
AcDbLine
 10
231.0136695903115
 20
215.3467891039448
 30
0.0
 11
240.5136695903114
 21
209.8619615439448
 31
0.0
  0
LINE
  5
1365
330
1F
100
AcDbEntity
  8
AM_VIS
100
AcDbLine
 10
240.5136695903114
 20
209.8619615439448
 30
0.0
 11
240.5136695903114
 21
198.8923064339448
 31
0.0
  0
LINE
  5
1366
330
1F
100
AcDbEntity
  8
AM_VIS
100
AcDbLine
 10
231.0136695903115
 20
193.4074788739448
 30
0.0
 11
240.5136695903114
 21
198.8923064339448
 31
0.0
  0
LINE
  5
1367
330
1F
100
AcDbEntity
  8
AM_VIS
100
AcDbLine
 10
221.5136695903114
 20
198.8923064339448
 30
0.0
 11
231.0136695903115
 21
193.4074788739448
 31
0.0
  0
LINE
  5
1368
330
1F
100
AcDbEntity
  8
AM_VIS
100
AcDbLine
 10
221.5136695903114
 20
209.8619615439448
 30
0.0
 11
221.5136695903114
 21
198.8923064339448
 31
0.0
  0
LINE
  5
1369
330
1F
100
AcDbEntity
  8
AM_VIS
100
AcDbLine
 10
221.5136695903114
 20
209.8619615439448
 30
0.0
 11
231.0136695903115
 21
215.3467891039448
 31
0.0
  0
CIRCLE
  5
136A
330
1F
100
AcDbEntity
  8
AM_VIS
100
AcDbCircle
 10
231.0136695903115
 20
204.3771339939448
 30
0.0
 40
9.250000000000003
  0
CIRCLE
  5
136B
330
1F
100
AcDbEntity
  8
AM_VIS
100
AcDbCircle
 10
231.0136695903115
 20
204.3771339889449
 30
0.0
 40
7.776500000000003
  0
ARC
  5
136C
330
1F
100
AcDbEntity
  8
AM_VIS
100
AcDbCircle
 10
231.0136695903115
 20
204.3771339889449
 30
0.0
 40
7.0765
100
AcDbArc
 50
36.71257531702893
 51
83.28742468650728
  0
ARC
  5
136D
330
1F
100
AcDbEntity
  8
AM_VIS
100
AcDbCircle
 10
231.0136695903115
 20
204.3771339889449
 30
0.0
 40
7.0765
100
AcDbArc
 50
336.7125752242091
 51
23.28742477579087
  0
ARC
  5
136E
330
1F
100
AcDbEntity
  8
AM_VIS
100
AcDbCircle
 10
231.0136695903115
 20
204.3771339889449
 30
0.0
 40
7.0765
100
AcDbArc
 50
276.7125751444118
 51
323.2874248591258
  0
ARC
  5
136F
330
1F
100
AcDbEntity
  8
AM_VIS
100
AcDbCircle
 10
231.0136695903115
 20
204.3771339889449
 30
0.0
 40
7.0765
100
AcDbArc
 50
216.7125751491546
 51
263.2874248543812
  0
ARC
  5
1370
330
1F
100
AcDbEntity
  8
AM_VIS
100
AcDbCircle
 10
231.0136695903115
 20
204.3771339889449
 30
0.0
 40
7.0765
100
AcDbArc
 50
156.7125752242091
 51
203.2874247757909
  0
ARC
  5
1371
330
1F
100
AcDbEntity
  8
AM_VIS
100
AcDbCircle
 10
231.0136695903115
 20
204.3771339889449
 30
0.0
 40
7.0765
100
AcDbArc
 50
96.71257533126045
 51
143.2874246722773
  0
CIRCLE
  5
1372
330
1F
100
AcDbEntity
  8
AM_VIS
100
AcDbCircle
 10
231.0136695903115
 20
204.3771339939448
 30
0.0
 40
2.0
  0
CIRCLE
  5
1373
330
1F
100
AcDbEntity
  8
AM_VIS
100
AcDbCircle
 10
231.0136695903115
 20
204.3771339939448
 30
0.0
 40
1.5
  0
CIRCLE
  5
1374
330
1F
100
AcDbEntity
  8
AM_VIS
100
AcDbCircle
 10
231.0136695903115
 20
204.3771339939448
 30
0.0
 40
2.5
  0
CIRCLE
  5
1375
330
1F
100
AcDbEntity
  8
AM_VIS
100
AcDbCircle
 10
231.0136695903115
 20
208.0771339939448
 30
0.0
 40
0.4
  0
CIRCLE
  5
1376
330
1F
100
AcDbEntity
  8
AM_VIS
100
AcDbCircle
 10
231.0136695903115
 20
204.3771339939448
 30
0.0
 40
4.75
  0
LINE
  5
1377
330
1F
100
AcDbEntity
  8
AM_VIS
100
AcDbLine
 10
237.5136695903115
 20
208.1299107439448
 30
0.0
 11
237.5136695903115
 21
200.6243572439448
 31
0.0
  0
LINE
  5
1378
330
1F
100
AcDbEntity
  8
AM_VIS
100
AcDbLine
 10
231.0136695903115
 20
196.8715804939448
 30
0.0
 11
237.5136695903115
 21
200.6243572439449
 31
0.0
  0
LINE
  5
1379
330
1F
100
AcDbEntity
  8
AM_VIS
100
AcDbLine
 10
224.5136695903115
 20
200.62435724341
 30
0.0
 11
231.0136695903115
 21
196.8715804939448
 31
0.0
  0
LINE
  5
137A
330
1F
100
AcDbEntity
  8
AM_VIS
100
AcDbLine
 10
224.5136695903115
 20
208.1299107444797
 30
0.0
 11
224.5136695903115
 21
200.62435724341
 31
0.0
  0
LINE
  5
137B
330
1F
100
AcDbEntity
  8
AM_VIS
100
AcDbLine
 10
224.5136695903115
 20
208.1299107444797
 30
0.0
 11
231.013669589385
 21
211.8826874939448
 31
0.0
  0
LINE
  5
137C
330
1F
100
AcDbEntity
  8
AM_VIS
100
AcDbLine
 10
231.013669589385
 20
211.8826874939448
 30
0.0
 11
237.5136695903115
 21
208.1299107439448
 31
0.0
  0
CIRCLE
  5
137D
330
1F
100
AcDbEntity
  8
AM_VIS
100
AcDbCircle
 10
231.0136695903115
 20
204.3771339919306
 30
0.0
 40
6.4
  0
CIRCLE
  5
137E
330
1F
100
AcDbEntity
  8
AM_VIS
100
AcDbCircle
 10
231.0136695903115
 20
204.3771339919306
 30
0.0
 40
5.85
  0
LINE
  5
1922
330
1F
100
AcDbEntity
  8
0
100
AcDbLine
 10
97.07522239466824
 20
76.67043038857196
 30
0.0
 11
97.07522239466721
 21
63.23043038857247
 31
0.0
  0
LINE
  5
1924
330
1F
100
AcDbEntity
  8
0
100
AcDbLine
 10
106.3275534960961
 20
76.67043038857196
 30
0.0
 11
106.327553496097
 21
63.23043038857247
 31
0.0
  0
LINE
  5
1925
330
1F
100
AcDbEntity
  8
0
100
AcDbLine
 10
97.07522239466868
 20
63.23043038857227
 30
0.0
 11
128.9628346378203
 21
63.23043038857235
 31
0.0
  0
LINE
  5
1926
330
1F
100
AcDbEntity
  8
0
100
AcDbLine
 10
97.07522239466824
 20
73.31043038857211
 30
0.0
 11
128.9628346378197
 21
73.3104303885722
 31
0.0
  0
TEXT
  5
1927
330
1F
100
AcDbEntity
  8
0
100
AcDbText
 10
100.9632409596675
 20
70.52158170695668
 30
0.0
 40
2.10953224323072
  1
5
 41
0.8
  7
CHINESET
 72
     4
 11
101.5257828911957
 21
71.57634782857204
 31
0.0
100
AcDbText
  0
TEXT
  5
1928
330
1F
100
AcDbEntity
  8
0
100
AcDbText
 10
98.76625860938986
 20
74.12332340666615
 30
0.0
 40
1.679999999999999
  1
Stroke
 41
0.8
  7
CHINESET
100
AcDbText
  0
TEXT
  5
1929
330
1F
100
AcDbEntity
  8
0
100
AcDbText
 10
115.1518303373544
 20
70.53898817631628
 30
0.0
 40
2.1
  1
20.5
 41
0.8
  7
CHINESET
100
AcDbText
  0
LINE
  5
192A
330
1F
100
AcDbEntity
  8
0
100
AcDbLine
 10
97.07522239466824
 20
76.67043038857207
 30
0.0
 11
128.9628346378195
 21
76.67043038857215
 31
0.0
  0
INSERT
  5
192B
330
1F
100
AcDbEntity
  8
0
100
AcDbBlockReference
  2
A$C5ECF147B
 10
96.62447198173731
 20
66.88518172241822
 30
0.0
 41
0.6720000000000255
 42
0.6719999999999971
 43
0.6719999999999999
  0
TEXT
  5
192D
330
1F
100
AcDbEntity
  8
0
100
AcDbText
 10
116.9443930194747
 20
73.89898817631635
 30
0.0
 40
2.1
  1
S
 41
0.8
  7
CHINESET
100
AcDbText
  0
LINE
  5
192F
330
1F
100
AcDbEntity
  8
0
100
AcDbLine
 10
128.9628346378199
 20
76.67043038857196
 30
0.0
 11
128.9628346378203
 21
63.23043038857196
 31
0.0
  0
TEXT
  5
1930
330
1F
100
AcDbEntity
  8
0
100
AcDbText
 10
122.6048606594622
 20
70.53898817631608
 30
0.0
 40
2.1
  1
32.5
 41
0.8
  7
CHINESET
100
AcDbText
  0
TEXT
  5
1931
330
1F
100
AcDbEntity
  8
0
100
AcDbText
 10
124.7658976074586
 20
73.89898817631635
 30
0.0
 40
2.1
  1
Z
 41
0.8
  7
CHINESET
100
AcDbText
  0
LINE
  5
19C2
330
1F
100
AcDbEntity
  8
0
100
AcDbLine
 10
97.07522239466847
 20
69.95043038857216
 30
0.0
 11
128.9628346378199
 21
69.95043038857224
 31
0.0
  0
LINE
  5
19C3
330
1F
100
AcDbEntity
  8
0
100
AcDbLine
 10
97.07522239466868
 20
66.5904303885722
 30
0.0
 11
128.9628346378201
 21
66.59043038857229
 31
0.0
  0
TEXT
  5
19C4
330
1F
100
AcDbEntity
  8
0
100
AcDbText
 10
100.3203358950641
 20
67.16158170695675
 30
0.0
 40
2.10953224323072
  1
10
 41
0.8
  7
CHINESET
 72
     4
 11
101.5257828911959
 21
68.21634782857211
 31
0.0
100
AcDbText
  0
TEXT
  5
19C5
330
1F
100
AcDbEntity
  8
0
100
AcDbText
 10
100.3203358950643
 20
63.80158170695693
 30
0.0
 40
2.10953224323072
  1
15
 41
0.8
  7
CHINESET
 72
     4
 11
101.5257828911962
 21
64.85634782857229
 31
0.0
100
AcDbText
  0
TEXT
  5
19C8
330
1F
100
AcDbEntity
  8
0
100
AcDbText
 10
115.1518303373545
 20
67.17898817631638
 30
0.0
 40
2.1
  1
27
 41
0.8
  7
CHINESET
100
AcDbText
  0
TEXT
  5
19C9
330
1F
100
AcDbEntity
  8
0
100
AcDbText
 10
122.6048606594623
 20
67.17898817631621
 30
0.0
 40
2.1
  1
39
 41
0.8
  7
CHINESET
100
AcDbText
  0
TEXT
  5
19CA
330
1F
100
AcDbEntity
  8
0
100
AcDbText
 10
115.1518303373546
 20
63.81898817631648
 30
0.0
 40
2.1
  1
34
 41
0.8
  7
CHINESET
100
AcDbText
  0
TEXT
  5
19CB
330
1F
100
AcDbEntity
  8
0
100
AcDbText
 10
122.6048606594625
 20
63.81898817631626
 30
0.0
 40
2.1
  1
46
 41
0.8
  7
CHINESET
100
AcDbText
  0
LINE
  5
1A11
330
1F
100
AcDbEntity
  8
0
100
AcDbLine
 10
113.872647210004
 20
76.67043038857213
 30
0.0
 11
113.8726472100046
 21
63.23043038857227
 31
0.0
  0
TEXT
  5
1A12
330
1F
100
AcDbEntity
  8
0
100
AcDbText
 10
107.7145974549596
 20
70.53898817631619
 30
0.0
 40
2.1
  1
14.5
 41
0.8
  7
CHINESET
100
AcDbText
  0
TEXT
  5
1A13
330
1F
100
AcDbEntity
  8
0
100
AcDbText
 10
109.5071594442269
 20
73.89898817631626
 30
0.0
 40
2.1
  1
F
 41
0.8
  7
CHINESET
100
AcDbText
  0
TEXT
  5
1A14
330
1F
100
AcDbEntity
  8
0
100
AcDbText
 10
107.7145974549597
 20
67.17898817631629
 30
0.0
 40
2.1
  1
21
 41
0.8
  7
CHINESET
100
AcDbText
  0
TEXT
  5
1A15
330
1F
100
AcDbEntity
  8
0
100
AcDbText
 10
107.7145974549598
 20
63.8189881763164
 30
0.0
 40
2.1
  1
28
 41
0.8
  7
CHINESET
100
AcDbText
  0
DIMENSION
  5
1A17
330
1F
100
AcDbEntity
  8
AM_5
100
AcDbDimension
  2
*D16
 10
138.1021845027787
 20
103.7123556419082
 30
0.0
 11
127.6021845027787
 21
106.1623556419082
 31
0.0
 70
    32
  1
F
 71
     5
 42
21.0
  3
AM_ISO$0
100
AcDbAlignedDimension
 13
117.1021845027787
 23
116.3820107598942
 33
0.0
 14
138.1021845027787
 24
116.6820107619084
 34
0.0
100
AcDbRotatedDimension
1001
ACAD
1000
DSTYLE
1002
{
1070
    40
1040
1.0
1070
   144
1040
1.0
1070
   272
1070
     8
1002
}
  0
LINE
  5
1A2E
330
1F
100
AcDbEntity
  8
0
100
AcDbLine
 10
121.4177409239119
 20
76.67043038857219
 30
0.0
 11
121.4177409239124
 21
63.23043038857233
 31
0.0
  0
LINE
  5
1A83
330
1F
100
AcDbEntity
  8
AM_7
100
AcDbLine
 10
231.0136695903115
 20
204.3771339939448
 30
0.0
 11
242.5136695903114
 21
204.3771339939448
 31
0.0
1001
GENIUS_GENOREF_13
1005
1A87
  0
LINE
  5
1A84
330
1F
100
AcDbEntity
  8
AM_7
100
AcDbLine
 10
231.0136695903115
 20
204.3771339939448
 30
0.0
 11
231.0136695903115
 21
215.8771339939448
 31
0.0
1001
GENIUS_GENOREF_13
1005
1A87
  0
LINE
  5
1A85
330
1F
100
AcDbEntity
  8
AM_7
100
AcDbLine
 10
231.0136695903115
 20
204.3771339939448
 30
0.0
 11
219.5136695903114
 21
204.3771339939448
 31
0.0
1001
GENIUS_GENOREF_13
1005
1A87
  0
LINE
  5
1A86
330
1F
100
AcDbEntity
  8
AM_7
100
AcDbLine
 10
231.0136695903115
 20
204.3771339939448
 30
0.0
 11
231.0136695903115
 21
192.8771339939448
 31
0.0
1001
GENIUS_GENOREF_13
1005
1A87
  0
POINT
  5
1A87
330
1F
100
AcDbEntity
  8
0
 60
     1
100
AcDbPoint
 10
0.0
 20
0.0
 30
0.0
1001
GENIUS_GENOLIS_13
1002
{
1000
ENT
1005
1A86
1005
1A85
1005
1A84
1005
1A83
1002
}
1001
GENIUS_GENODEF_13
1002
{
1000
HIER
1070
    10
1002
}
1002
{
1000
MANEDIT
1070
     0
1002
}
1002
{
1000
NOSEL
1070
     0
1002
}
1002
{
1000
BEHIND
1070
     0
1002
}
1002
{
1000
OTHER
1070
     0
1002
}
1002
{
1000
REACTOR
1002
}
1001
GENIUS_GENOBJ-N-CRS_13
1002
{
1000
OWNER
1000
GEN
1002
}
1001
GENIUS_GENOENT_13
1002
{
1000
MYREF
1005
1A87
1002
}
1002
{
1000
GRP
1005
0
1002
}
  0
LINE
  5
1A9F
330
1F
100
AcDbEntity
  8
AM_7
100
AcDbLine
 10
231.1284676350242
 20
122.6820107619084
 30
0.0
 11
242.6284676350242
 21
122.6820107619084
 31
0.0
1001
GENIUS_GENOREF_13
1005
1AA3
  0
LINE
  5
1AA0
330
1F
100
AcDbEntity
  8
AM_7
100
AcDbLine
 10
231.1284676350242
 20
122.6820107619084
 30
0.0
 11
231.1284676350242
 21
134.1820107619084
 31
0.0
1001
GENIUS_GENOREF_13
1005
1AA3
  0
LINE
  5
1AA1
330
1F
100
AcDbEntity
  8
AM_7
100
AcDbLine
 10
231.1284676350242
 20
122.6820107619084
 30
0.0
 11
219.6284676350242
 21
122.6820107619084
 31
0.0
1001
GENIUS_GENOREF_13
1005
1AA3
  0
LINE
  5
1AA2
330
1F
100
AcDbEntity
  8
AM_7
100
AcDbLine
 10
231.1284676350242
 20
122.6820107619084
 30
0.0
 11
231.1284676350242
 21
111.1820107619084
 31
0.0
1001
GENIUS_GENOREF_13
1005
1AA3
  0
POINT
  5
1AA3
330
1F
100
AcDbEntity
  8
0
 60
     1
100
AcDbPoint
 10
0.0
 20
0.0
 30
0.0
1001
GENIUS_GENODEF_13
1002
{
1000
HIER
1070
    10
1002
}
1002
{
1000
MANEDIT
1070
     0
1002
}
1002
{
1000
NOSEL
1070
     0
1002
}
1002
{
1000
BEHIND
1070
     0
1002
}
1002
{
1000
OTHER
1070
     0
1002
}
1002
{
1000
REACTOR
1002
}
1001
GENIUS_GENOENT_13
1002
{
1000
MYREF
1005
1AA3
1002
}
1002
{
1000
GRP
1005
0
1002
}
1001
GENIUS_GENOBJ-N-CRS_13
1002
{
1000
OWNER
1000
GEN
1002
}
1001
GENIUS_GENOLIS_13
1002
{
1000
ENT
1005
1AA2
1005
1AA1
1005
1AA0
1005
1A9F
1002
}
  0
LINE
  5
1AB0
330
1F
100
AcDbEntity
  8
AM_7
100
AcDbLine
 10
254.4589072511412
 20
122.6820107619084
 30
0.0
 11
297.7762424670223
 21
122.6820107619084
 31
0.0
1001
GENIUS_GENODEF_13
1002
{
1000
HIER
1070
     0
1002
}
1002
{
1000
MANEDIT
1070
     0
1002
}
1002
{
1000
NOSEL
1070
     0
1002
}
1002
{
1000
BEHIND
1070
     0
1002
}
1002
{
1000
OTHER
1070
     0
1002
}
1002
{
1000
REACTOR
1002
}
1001
GENIUS_GENOBJ-N-CEN_13
1002
{
1000
OWNER
1000
GEN
1002
}
1001
GENIUS_GENCEN_19
1002
{
1040
2.0
1002
}
  0
LINE
  5
1ABD
330
1F
100
AcDbEntity
  8
AM_7
100
AcDbLine
 10
254.4589072511412
 20
204.3771339939448
 30
0.0
 11
297.8006156543634
 21
204.3771339939448
 31
0.0
1001
GENIUS_GENODEF_13
1002
{
1000
HIER
1070
     0
1002
}
1002
{
1000
MANEDIT
1070
     0
1002
}
1002
{
1000
NOSEL
1070
     0
1002
}
1002
{
1000
BEHIND
1070
     0
1002
}
1002
{
1000
OTHER
1070
     0
1002
}
1002
{
1000
REACTOR
1002
}
1001
GENIUS_GENOBJ-N-CEN_13
1002
{
1000
OWNER
1000
GEN
1002
}
1001
GENIUS_GENCEN_19
1002
{
1040
2.0
1002
}
  0
DIMENSION
  5
1ABE
330
1F
100
AcDbEntity
  8
AM_5
100
AcDbDimension
  2
*D19
 10
268.4589072511412
 20
177.4074788719304
 30
0.0
 11
262.4589072511412
 21
179.8578233601194
 31
0.0
 70
    32
 71
     5
 42
12.0
  3
AM_ISO$0
100
AcDbAlignedDimension
 13
256.4589072511412
 23
202.8771339919307
 33
0.0
 14
268.4589072511412
 24
198.0771339899165
 34
0.0
 50
0.0000000000001018
100
AcDbRotatedDimension
1001
ACAD
1000
DSTYLE
1002
{
1070
    40
1040
1.0
1070
   144
1040
1.0
1070
   272
1070
     8
1002
}
  0
DIMENSION
  5
1AC1
330
1F
100
AcDbEntity
  8
AM_5
100
AcDbDimension
  2
*D20
 10
295.4589072511412
 20
177.4074788719304
 30
0.0
 11
281.9589072511412
 21
179.8574788719304
 31
0.0
 70
    32
  1
S
 71
     5
 42
27.0
  3
AM_ISO$0
100
AcDbAlignedDimension
 13
268.4589072511412
 23
198.0771339899165
 33
0.0
 14
295.4589072511412
 24
198.3771339919306
 34
0.0
 50
0.0000000000001018
100
AcDbRotatedDimension
1001
ACAD
1000
DSTYLE
1002
{
1070
    40
1040
1.0
1070
   144
1040
1.0
1070
   272
1070
     8
1002
}
  0
DIMENSION
  5
1AC4
330
1F
100
AcDbEntity
  8
AM_5
100
AcDbDimension
  2
*D21
 10
295.4589072511412
 20
169.4074788719304
 30
0.0
 11
275.9589072511412
 21
171.8574788719304
 31
0.0
 70
    32
  1
Z
 71
     5
 42
39.0
  3
AM_ISO$0
100
AcDbAlignedDimension
 13
256.4589072511412
 23
202.8771339919307
 33
0.0
 14
295.4589072511412
 24
198.3771339919306
 34
0.0
 50
0.0000000000001018
100
AcDbRotatedDimension
1001
ACAD
1000
DSTYLE
1002
{
1070
    40
1040
1.0
1070
   144
1040
1.0
1070
   272
1070
     8
1002
}
  0
DIMENSION
  5
1AC7
330
1F
100
AcDbEntity
  8
AM_5
100
AcDbDimension
  2
*D17
 10
289.4589072511412
 20
185.4074788719304
 30
0.0
 11
278.9589072511412
 21
187.8574788719304
 31
0.0
 70
    32
  1
F
 71
     5
 42
21.0
  3
AM_ISO$0
100
AcDbAlignedDimension
 13
268.4589072511412
 23
198.0771339899165
 33
0.0
 14
289.4589072511412
 24
198.3771339919306
 34
0.0
 50
0.0000000000001018
100
AcDbRotatedDimension
1001
ACAD
1000
DSTYLE
1002
{
1070
    40
1040
1.0
1070
   144
1040
1.0
1070
   272
1070
     8
1002
}
  0
DIMENSION
  5
1B36
330
1F
100
AcDbEntity
  8
AM_5
100
AcDbDimension
  2
*D22
 10
307.4589072511412
 20
210.3771339939448
 30
0.0
 11
305.0085627629522
 21
220.5024225821979
 31
0.0
 70
    32
  1
%%c<>{}{\C5; d9}
 71
     5
 42
12.0
  3
AM_ISO$0
100
AcDbAlignedDimension
 13
295.4589072511412
 23
198.3771339939448
 33
0.0
 14
295.4589072511412
 24
210.3771339939448
 34
0.0
 50
90.0
100
AcDbRotatedDimension
1001
GENIUS_GENDTOL_13
1000
FitTxt
1000
d9
1000
{$3 $T}
1040
12.0
1001
ACAD
1000
DSTYLE
1002
{
1070
   286
1070
     0
1070
   284
1070
     8
1070
    48
1040
0.1
1070
    47
1040
0.1
1070
   272
1070
     8
1070
   274
1070
     3
1002
}
  0
LINE
  5
1BAE
330
1F
100
AcDbEntity
  8
AM_4
  6
HIDDEN
 48
0.2
100
AcDbLine
 10
143.78001571913
 20
202.3101466908371
 30
0.0
 11
144.1021845027787
 21
201.7521339889449
 31
0.0
  0
LINE
  5
1BAF
330
1F
100
AcDbEntity
  8
AM_4
  6
HIDDEN
 48
0.2
100
AcDbLine
 10
144.03001571913
 20
201.8771339889449
 30
0.0
 11
139.1021845027787
 21
201.8771339889449
 31
0.0
  0
LINE
  5
1BB0
330
1F
100
AcDbEntity
  8
AM_4
  6
HIDDEN
 48
0.2
100
AcDbLine
 10
143.78001571913
 20
202.3101466908371
 30
0.0
 11
139.1021845027787
 21
202.3101466908371
 31
0.0
  0
LINE
  5
1BB1
330
1F
100
AcDbEntity
  8
AM_4
  6
HIDDEN
 48
0.2
100
AcDbLine
 10
144.03001571913
 20
206.8771339889449
 30
0.0
 11
139.1021845027787
 21
206.8771339889449
 31
0.0
  0
LINE
  5
1BB2
330
1F
100
AcDbEntity
  8
AM_4
  6
HIDDEN
 48
0.2
100
AcDbLine
 10
143.78001571913
 20
206.4441212870527
 30
0.0
 11
139.1021845027787
 21
206.4441212870527
 31
0.0
  0
LINE
  5
1BB3
330
1F
100
AcDbEntity
  8
AM_4
  6
HIDDEN
 48
0.2
100
AcDbLine
 10
143.78001571913
 20
202.3101466908371
 30
0.0
 11
143.78001571913
 21
206.4441212870527
 31
0.0
  0
LINE
  5
1BB4
330
1F
100
AcDbEntity
  8
AM_4
  6
HIDDEN
 48
0.2
100
AcDbLine
 10
143.78001571913
 20
206.4441212870527
 30
0.0
 11
144.1021845027787
 21
207.0021339889449
 31
0.0
  0
TEXT
  5
1BBA
330
1F
100
AcDbEntity
  8
AM_5
100
AcDbText
 10
154.3066472529766
 20
190.2999553292121
 30
0.0
 40
3.0
  1
M5x0.8
100
AcDbText
  0
INSERT
  5
1BBC
330
1F
100
AcDbEntity
  8
AM_5
100
AcDbBlockReference
  2
*S33
 10
0.0
 20
0.0
 30
0.0
  0
TEXT
  5
1BBE
330
1F
100
AcDbEntity
  8
AM_5
100
AcDbText
 10
154.3066472529766
 20
108.6048321021757
 30
0.0
 40
3.0
  1
M5x0.8
100
AcDbText
  0
INSERT
  5
1BBF
330
1F
100
AcDbEntity
  8
AM_5
100
AcDbBlockReference
  2
*S34
 10
0.0
 20
0.0
 30
0.0
  0
LINE
  5
1BC0
330
1F
100
AcDbEntity
  8
AM_4
  6
HIDDEN
 48
0.2
100
AcDbLine
 10
143.78001571913
 20
120.6150234638006
 30
0.0
 11
144.1021845027787
 21
120.0570107619084
 31
0.0
  0
LINE
  5
1BC1
330
1F
100
AcDbEntity
  8
AM_4
  6
HIDDEN
 48
0.2
100
AcDbLine
 10
144.03001571913
 20
120.1820107619084
 30
0.0
 11
139.1021845027787
 21
120.1820107619084
 31
0.0
  0
LINE
  5
1BC2
330
1F
100
AcDbEntity
  8
AM_4
  6
HIDDEN
 48
0.2
100
AcDbLine
 10
143.78001571913
 20
120.6150234638006
 30
0.0
 11
139.1021845027787
 21
120.6150234638006
 31
0.0
  0
LINE
  5
1BC3
330
1F
100
AcDbEntity
  8
AM_4
  6
HIDDEN
 48
0.2
100
AcDbLine
 10
144.03001571913
 20
125.1820107619084
 30
0.0
 11
139.1021845027787
 21
125.1820107619084
 31
0.0
  0
LINE
  5
1BC4
330
1F
100
AcDbEntity
  8
AM_4
  6
HIDDEN
 48
0.2
100
AcDbLine
 10
143.78001571913
 20
124.7489980600162
 30
0.0
 11
139.1021845027787
 21
124.7489980600162
 31
0.0
  0
LINE
  5
1BC5
330
1F
100
AcDbEntity
  8
AM_4
  6
HIDDEN
 48
0.2
100
AcDbLine
 10
143.78001571913
 20
120.6150234638006
 30
0.0
 11
143.78001571913
 21
124.7489980600162
 31
0.0
  0
LINE
  5
1BC6
330
1F
100
AcDbEntity
  8
AM_4
  6
HIDDEN
 48
0.2
100
AcDbLine
 10
143.78001571913
 20
124.7489980600162
 30
0.0
 11
144.1021845027787
 21
125.3070107619084
 31
0.0
  0
DIMENSION
  5
1BC9
330
1F
100
AcDbEntity
  8
AM_5
100
AcDbDimension
  2
*D24
 10
240.5136695903114
 20
185.4074788739445
 30
0.0
 11
231.0136695903115
 21
187.8574788739445
 31
0.0
 70
    32
 71
     5
 42
19.0
  3
AM_ISO$0
100
AcDbAlignedDimension
 13
221.5136695903114
 23
198.8923064339448
 33
0.0
 14
240.5136695903114
 24
198.8923064339448
 34
0.0
 50
0.0000000000001018
100
AcDbRotatedDimension
1001
ACAD
1000
DSTYLE
1002
{
1070
    40
1040
1.0
1070
   144
1040
1.0
1070
   272
1070
     8
1002
}
  0
INSERT
  5
1BEC
330
1F
100
AcDbEntity
  8
0
100
AcDbBlockReference
  2
A$C621A5A01
 10
284.4589072511412
 20
204.3771339939448
 30
0.0
  0
LINE
  5
1BEE
330
1F
100
AcDbEntity
  8
AM_4
  6
HIDDEN
 48
0.2
100
AcDbLine
 10
291.015374663839
 20
204.7771339939448
 30
0.0
 11
295.4589072511412
 21
204.7771339939448
 31
0.0
1001
GENIUS_GENODEF_13
1002
{
1000
HIER
1070
     0
1002
}
1002
{
1000
MANEDIT
1070
     0
1002
}
1002
{
1000
NOSEL
1070
     0
1002
}
1002
{
1000
BEHIND
1070
     0
1002
}
1002
{
1000
OTHER
1070
     0
1002
}
1002
{
1000
REACTOR
1002
}
1001
GENIUS_GENOBJ-N-CEN_13
1002
{
1000
OWNER
1000
GEN
1002
}
1001
GENIUS_GENCEN_19
1002
{
1040
2.0
1002
}
  0
LINE
  5
1BF0
330
1F
100
AcDbEntity
  8
AM_4
  6
HIDDEN
 48
0.2
100
AcDbLine
 10
291.015374663839
 20
203.9771339939448
 30
0.0
 11
295.4589072511412
 21
203.9771339939448
 31
0.0
1001
GENIUS_GENODEF_13
1002
{
1000
HIER
1070
     0
1002
}
1002
{
1000
MANEDIT
1070
     0
1002
}
1002
{
1000
NOSEL
1070
     0
1002
}
1002
{
1000
BEHIND
1070
     0
1002
}
1002
{
1000
OTHER
1070
     0
1002
}
1002
{
1000
REACTOR
1002
}
1001
GENIUS_GENOBJ-N-CEN_13
1002
{
1000
OWNER
1000
GEN
1002
}
1001
GENIUS_GENCEN_19
1002
{
1040
2.0
1002
}
  0
DIMENSION
  5
1BF2
330
1F
100
AcDbEntity
  8
AM_5
100
AcDbDimension
  2
*D26
 10
268.4589072511412
 20
95.71235564190843
 30
0.0
 11
262.4589072511412
 21
98.16270013009742
 31
0.0
 70
    32
 71
     5
 42
12.0
  3
AM_ISO$0
100
AcDbAlignedDimension
 13
256.4589072511412
 23
121.1820107619084
 33
0.0
 14
268.4589072511412
 24
116.3820107598942
 34
0.0
100
AcDbRotatedDimension
1001
ACAD
1000
DSTYLE
1002
{
1070
    40
1040
1.0
1070
   144
1040
1.0
1070
   272
1070
     8
1002
}
  0
DIMENSION
  5
1BF3
330
1F
100
AcDbEntity
  8
AM_5
100
AcDbDimension
  2
*D27
 10
295.4589072511412
 20
95.71235564190846
 30
0.0
 11
281.9589072511412
 21
98.16235564190847
 31
0.0
 70
    32
  1
S
 71
     5
 42
27.0
  3
AM_ISO$0
100
AcDbAlignedDimension
 13
268.4589072511412
 23
116.3820107598942
 33
0.0
 14
295.4589072511412
 24
116.6820107619084
 34
0.0
100
AcDbRotatedDimension
1001
ACAD
1000
DSTYLE
1002
{
1070
    40
1040
1.0
1070
   144
1040
1.0
1070
   272
1070
     8
1002
}
  0
DIMENSION
  5
1BF4
330
1F
100
AcDbEntity
  8
AM_5
100
AcDbDimension
  2
*D28
 10
295.4589072511412
 20
87.71235564190845
 30
0.0
 11
275.9589072511412
 21
90.16235564190846
 31
0.0
 70
    32
  1
Z
 71
     5
 42
39.0
  3
AM_ISO$0
100
AcDbAlignedDimension
 13
256.4589072511412
 23
121.1820107619084
 33
0.0
 14
295.4589072511412
 24
116.6820107619084
 34
0.0
100
AcDbRotatedDimension
1001
ACAD
1000
DSTYLE
1002
{
1070
    40
1040
1.0
1070
   144
1040
1.0
1070
   272
1070
     8
1002
}
  0
DIMENSION
  5
1BF5
330
1F
100
AcDbEntity
  8
AM_5
100
AcDbDimension
  2
*D29
 10
307.4589072511412
 20
128.6820107619084
 30
0.0
 11
305.0085627629522
 21
138.8072993501615
 31
0.0
 70
    32
  1
%%c<>{}{\C5; d9}
 71
     5
 42
11.99999999999998
  3
AM_ISO$0
100
AcDbAlignedDimension
 13
295.4589072511412
 23
116.6820107619084
 33
0.0
 14
295.4589072511412
 24
128.6820107619084
 34
0.0
 50
90.0
100
AcDbRotatedDimension
1001
GENIUS_GENDTOL_13
1000
FitTxt
1000
d9
1000
{$3 $T}
1040
12.0
1001
ACAD
1000
DSTYLE
1002
{
1070
   286
1070
     0
1070
   284
1070
     8
1070
    48
1040
0.1
1070
    47
1040
0.1
1070
   272
1070
     8
1070
   274
1070
     3
1002
}
  0
TEXT
  5
1BF6
330
1F
100
AcDbEntity
  8
AM_5
100
AcDbText
 10
254.6918175252679
 20
135.0225727519737
 30
0.0
 40
3.0
  1
M4x0.7
100
AcDbText
  0
DIMENSION
  5
1BF7
330
1F
100
AcDbEntity
  8
AM_5
100
AcDbDimension
  2
*D31
 10
266.4589072511412
 20
103.7123556419084
 30
0.0
 11
261.4589072511412
 21
106.1623556419084
 31
0.0
 70
    32
 71
     5
 42
10.0
  3
AM_ISO$0
100
AcDbAlignedDimension
 13
256.4589072511412
 23
121.1820107619084
 33
0.0
 14
266.4589072511412
 24
120.6820107619084
 34
0.0
100
AcDbRotatedDimension
1001
ACAD
1000
DSTYLE
1002
{
1070
    40
1040
1.0
1070
   144
1040
1.0
1070
   272
1070
     8
1002
}
  0
DIMENSION
  5
1BFB
330
1F
100
AcDbEntity
  8
AM_5
100
AcDbDimension
  2
*D30
 10
289.4589072511412
 20
103.7123556419082
 30
0.0
 11
278.9589072511412
 21
106.1623556419082
 31
0.0
 70
    32
  1
F
 71
     5
 42
21.0
  3
AM_ISO$0
100
AcDbAlignedDimension
 13
268.4589072511412
 23
116.3820107598942
 33
0.0
 14
289.4589072511412
 24
116.6820107619084
 34
0.0
100
AcDbRotatedDimension
1001
ACAD
1000
DSTYLE
1002
{
1070
    40
1040
1.0
1070
   144
1040
1.0
1070
   272
1070
     8
1002
}
  0
INSERT
  5
1C86
330
1F
100
AcDbEntity
  8
0
100
AcDbBlockReference
  2
A$C621A5A01
 10
284.4589072511412
 20
122.6820107619084
 30
0.0
  0
LINE
  5
1C87
330
1F
100
AcDbEntity
  8
AM_4
  6
HIDDEN
 48
0.2
100
AcDbLine
 10
291.015374663839
 20
123.0820107619084
 30
0.0
 11
295.4589072511412
 21
123.0820107619084
 31
0.0
1001
GENIUS_GENODEF_13
1002
{
1000
HIER
1070
     0
1002
}
1002
{
1000
MANEDIT
1070
     0
1002
}
1002
{
1000
NOSEL
1070
     0
1002
}
1002
{
1000
BEHIND
1070
     0
1002
}
1002
{
1000
OTHER
1070
     0
1002
}
1002
{
1000
REACTOR
1002
}
1001
GENIUS_GENOBJ-N-CEN_13
1002
{
1000
OWNER
1000
GEN
1002
}
1001
GENIUS_GENCEN_19
1002
{
1040
2.0
1002
}
  0
LINE
  5
1C88
330
1F
100
AcDbEntity
  8
AM_4
  6
HIDDEN
 48
0.2
100
AcDbLine
 10
291.015374663839
 20
122.2820107619084
 30
0.0
 11
295.4589072511412
 21
122.2820107619084
 31
0.0
1001
GENIUS_GENODEF_13
1002
{
1000
HIER
1070
     0
1002
}
1002
{
1000
MANEDIT
1070
     0
1002
}
1002
{
1000
NOSEL
1070
     0
1002
}
1002
{
1000
BEHIND
1070
     0
1002
}
1002
{
1000
OTHER
1070
     0
1002
}
1002
{
1000
REACTOR
1002
}
1001
GENIUS_GENOBJ-N-CEN_13
1002
{
1000
OWNER
1000
GEN
1002
}
1001
GENIUS_GENCEN_19
1002
{
1040
2.0
1002
}
  0
INSERT
  5
1C8B
330
1F
100
AcDbEntity
  8
0
100
AcDbBlockReference
  2
A$C621A5A01
 10
134.6021845027787
 20
204.3771339889449
 30
0.0
  0
INSERT
  5
1C8C
330
1F
100
AcDbEntity
  8
0
100
AcDbBlockReference
  2
A$C621A5A01
 10
134.6021845027787
 20
122.6820107619084
 30
0.0
  0
TEXT
  5
1C90
330
1F
100
AcDbEntity
  8
0
100
AcDbText
 10
51.90675962276896
 20
241.193017643386
 30
0.0
 40
4.0
  1
MCMJPB
100
AcDbText
  0
TEXT
  5
1C96
330
1F
100
AcDbEntity
  8
0
100
AcDbText
 10
51.90675962276896
 20
230.9048288005007
 30
0.0
 40
4.0
  1
Style:10
100
AcDbText
  0
TEXT
  5
1C9A
330
1F
100
AcDbEntity
  8
0
100
AcDbText
 10
51.90675962276896
 20
143.7854651889035
 30
0.0
 40
4.0
  1
Style:15
100
AcDbText
  0
TEXT
  5
1C9C
330
1F
100
AcDbEntity
  8
0
100
AcDbText
 10
202.137495266508
 20
241.193017643386
 30
0.0
 40
4.0
  1
MCMJPS
100
AcDbText
  0
TEXT
  5
1C9D
330
1F
100
AcDbEntity
  8
0
100
AcDbText
 10
202.137495266508
 20
230.9048288005007
 30
0.0
 40
4.0
  1
Style:10
100
AcDbText
  0
TEXT
  5
1C9E
330
1F
100
AcDbEntity
  8
0
100
AcDbText
 10
202.137495266508
 20
143.7854651889035
 30
0.0
 40
4.0
  1
Style:15
100
AcDbText
  0
LINE
  5
1CA2
330
1F
100
AcDbEntity
  8
0
100
AcDbLine
 10
246.1457212219026
 20
76.67043038857196
 30
0.0
 11
246.1457212219015
 21
63.23043038857247
 31
0.0
  0
LINE
  5
1CA3
330
1F
100
AcDbEntity
  8
0
100
AcDbLine
 10
255.3980523233305
 20
76.67043038857196
 30
0.0
 11
255.3980523233314
 21
63.23043038857247
 31
0.0
  0
LINE
  5
1CA4
330
1F
100
AcDbEntity
  8
0
100
AcDbLine
 10
246.145721221903
 20
63.23043038857227
 30
0.0
 11
278.0333334650547
 21
63.23043038857235
 31
0.0
  0
LINE
  5
1CA5
330
1F
100
AcDbEntity
  8
0
100
AcDbLine
 10
246.1457212219026
 20
73.31043038857211
 30
0.0
 11
278.0333334650541
 21
73.3104303885722
 31
0.0
  0
TEXT
  5
1CA6
330
1F
100
AcDbEntity
  8
0
100
AcDbText
 10
250.0337397869019
 20
70.52158170695668
 30
0.0
 40
2.10953224323072
  1
5
 41
0.8
  7
CHINESET
 72
     4
 11
250.5962817184301
 21
71.57634782857204
 31
0.0
100
AcDbText
  0
TEXT
  5
1CA7
330
1F
100
AcDbEntity
  8
0
100
AcDbText
 10
247.8367574366242
 20
74.12332340666615
 30
0.0
 40
1.679999999999999
  1
Stroke
 41
0.8
  7
CHINESET
100
AcDbText
  0
TEXT
  5
1CA8
330
1F
100
AcDbEntity
  8
0
100
AcDbText
 10
264.2223291645888
 20
70.53898817631628
 30
0.0
 40
2.1
  1
20.5
 41
0.8
  7
CHINESET
100
AcDbText
  0
LINE
  5
1CA9
330
1F
100
AcDbEntity
  8
0
100
AcDbLine
 10
246.1457212219026
 20
76.67043038857207
 30
0.0
 11
278.0333334650539
 21
76.67043038857215
 31
0.0
  0
INSERT
  5
1CAA
330
1F
100
AcDbEntity
  8
0
100
AcDbBlockReference
  2
A$C5ECF147B
 10
245.6949708089714
 20
66.88518172241822
 30
0.0
 41
0.6720000000000255
 42
0.6719999999999971
 43
0.6719999999999999
  0
TEXT
  5
1CAB
330
1F
100
AcDbEntity
  8
0
100
AcDbText
 10
266.0148918467091
 20
73.89898817631635
 30
0.0
 40
2.1
  1
S
 41
0.8
  7
CHINESET
100
AcDbText
  0
LINE
  5
1CAC
330
1F
100
AcDbEntity
  8
0
100
AcDbLine
 10
278.0333334650543
 20
76.67043038857196
 30
0.0
 11
278.0333334650547
 21
63.23043038857196
 31
0.0
  0
TEXT
  5
1CAD
330
1F
100
AcDbEntity
  8
0
100
AcDbText
 10
271.6753594866966
 20
70.53898817631608
 30
0.0
 40
2.1
  1
32.5
 41
0.8
  7
CHINESET
100
AcDbText
  0
TEXT
  5
1CAE
330
1F
100
AcDbEntity
  8
0
100
AcDbText
 10
273.836396434693
 20
73.89898817631635
 30
0.0
 40
2.1
  1
Z
 41
0.8
  7
CHINESET
100
AcDbText
  0
LINE
  5
1CAF
330
1F
100
AcDbEntity
  8
0
100
AcDbLine
 10
246.1457212219028
 20
69.95043038857216
 30
0.0
 11
278.0333334650543
 21
69.95043038857224
 31
0.0
  0
LINE
  5
1CB0
330
1F
100
AcDbEntity
  8
0
100
AcDbLine
 10
246.145721221903
 20
66.5904303885722
 30
0.0
 11
278.0333334650545
 21
66.59043038857229
 31
0.0
  0
TEXT
  5
1CB1
330
1F
100
AcDbEntity
  8
0
100
AcDbText
 10
249.3908347222984
 20
67.16158170695675
 30
0.0
 40
2.10953224323072
  1
10
 41
0.8
  7
CHINESET
 72
     4
 11
250.5962817184303
 21
68.21634782857211
 31
0.0
100
AcDbText
  0
TEXT
  5
1CB2
330
1F
100
AcDbEntity
  8
0
100
AcDbText
 10
249.3908347222987
 20
63.80158170695693
 30
0.0
 40
2.10953224323072
  1
15
 41
0.8
  7
CHINESET
 72
     4
 11
250.5962817184305
 21
64.85634782857229
 31
0.0
100
AcDbText
  0
TEXT
  5
1CB3
330
1F
100
AcDbEntity
  8
0
100
AcDbText
 10
264.2223291645889
 20
67.17898817631638
 30
0.0
 40
2.1
  1
27
 41
0.8
  7
CHINESET
100
AcDbText
  0
TEXT
  5
1CB4
330
1F
100
AcDbEntity
  8
0
100
AcDbText
 10
271.6753594866967
 20
67.17898817631621
 30
0.0
 40
2.1
  1
39
 41
0.8
  7
CHINESET
100
AcDbText
  0
TEXT
  5
1CB5
330
1F
100
AcDbEntity
  8
0
100
AcDbText
 10
264.222329164589
 20
63.81898817631648
 30
0.0
 40
2.1
  1
34
 41
0.8
  7
CHINESET
100
AcDbText
  0
TEXT
  5
1CB6
330
1F
100
AcDbEntity
  8
0
100
AcDbText
 10
271.6753594866968
 20
63.81898817631626
 30
0.0
 40
2.1
  1
46
 41
0.8
  7
CHINESET
100
AcDbText
  0
LINE
  5
1CB7
330
1F
100
AcDbEntity
  8
0
100
AcDbLine
 10
262.9431460372384
 20
76.67043038857213
 30
0.0
 11
262.9431460372389
 21
63.23043038857227
 31
0.0
  0
TEXT
  5
1CB8
330
1F
100
AcDbEntity
  8
0
100
AcDbText
 10
256.785096282194
 20
70.53898817631619
 30
0.0
 40
2.1
  1
14.5
 41
0.8
  7
CHINESET
100
AcDbText
  0
TEXT
  5
1CB9
330
1F
100
AcDbEntity
  8
0
100
AcDbText
 10
258.5776582714613
 20
73.89898817631626
 30
0.0
 40
2.1
  1
F
 41
0.8
  7
CHINESET
100
AcDbText
  0
TEXT
  5
1CBA
330
1F
100
AcDbEntity
  8
0
100
AcDbText
 10
256.7850962821941
 20
67.17898817631629
 30
0.0
 40
2.1
  1
21
 41
0.8
  7
CHINESET
100
AcDbText
  0
TEXT
  5
1CBB
330
1F
100
AcDbEntity
  8
0
100
AcDbText
 10
256.7850962821942
 20
63.8189881763164
 30
0.0
 40
2.1
  1
28
 41
0.8
  7
CHINESET
100
AcDbText
  0
LINE
  5
1CBC
330
1F
100
AcDbEntity
  8
0
100
AcDbLine
 10
270.4882397511462
 20
76.67043038857219
 30
0.0
 11
270.4882397511468
 21
63.23043038857233
 31
0.0
  0
DIMENSION
  5
1CBD
330
1F
100
AcDbEntity
  8
AM_5
100
AcDbDimension
  2
*D32
 10
240.6284676350242
 20
103.7123556419081
 30
0.0
 11
231.1284676350242
 21
106.1623556419081
 31
0.0
 70
    32
 71
     5
 42
19.0
  3
AM_ISO$0
100
AcDbAlignedDimension
 13
221.6284676350242
 23
117.1971832019084
 33
0.0
 14
240.6284676350242
 24
117.1971832019084
 34
0.0
100
AcDbRotatedDimension
1001
ACAD
1000
DSTYLE
1002
{
1070
    40
1040
1.0
1070
   144
1040
1.0
1070
   272
1070
     8
1002
}
  0
TEXT
  5
1E63
330
1F
100
AcDbEntity
  8
LOGO
 62
     7
100
AcDbText
 10
85.73604195194048
 20
44.51148422549147
 30
0.0
 40
2.932908597285067
  1
Order example:
 41
0.8
  7
CHINESET
100
AcDbText
  0
TEXT
  5
1E64
330
1F
100
AcDbEntity
  8
LOGO
 62
     7
100
AcDbText
 10
86.26223000846085
 20
48.64041226399513
 30
0.0
 40
4.399362895927601
  1
訂購代號：
  7
CHINESET
100
AcDbText
  0
LINE
  5
1E65
330
1F
100
AcDbEntity
  8
LOGO
 62
     4
100
AcDbLine
 10
84.46168321856609
 20
32.15109986159985
 30
0.0
 11
84.46168321856609
 21
54.14791434123799
 31
0.0
  0
TEXT
  5
1E66
330
1F
100
AcDbEntity
  8
LOGO
  6
Continuous
100
AcDbText
 10
43.97004600204259
 20
36.47234087003733
 30
0.0
 40
3.299522171945701
  1
金器工業股份有限公司
  7
CHINESET
100
AcDbText
  0
TEXT
  5
1E67
330
1F
100
AcDbEntity
  8
LOGO
  6
Continuous
100
AcDbText
 10
37.90947655044848
 20
33.17217225043848
 30
0.0
 40
2.1996814479638
  1
MINDMAN INDUSTRIAL CO., LTD.
 41
0.85
  7
CHINESET
100
AcDbText
  0
LINE
  5
1E68
330
1F
100
AcDbEntity
  8
LOGO
 62
     4
100
AcDbLine
 10
84.46168321856609
 20
49.74855144531036
 30
0.0
 11
52.19968864843012
 21
49.74855144531036
 31
0.0
  0
LINE
  5
1E69
330
1F
100
AcDbEntity
  8
LOGO
 62
     4
100
AcDbLine
 10
84.46168321856609
 20
45.34918854938273
 30
0.0
 11
52.19968864843012
 21
45.34918854938273
 31
0.0
  0
LINE
  5
1E6A
330
1F
100
AcDbEntity
  8
LOGO
 62
     4
100
AcDbLine
 10
84.46168321856609
 20
40.94982565345535
 30
0.0
 11
36.06869136336241
 21
40.94982565345535
 31
0.0
  0
LINE
  5
1E6B
330
1F
100
AcDbEntity
  8
LOGO
 62
     4
100
AcDbLine
 10
52.19968864843012
 20
40.94982565345535
 30
0.0
 11
52.19968864843012
 21
54.14791434123799
 31
0.0
  0
TEXT
  5
1E6C
330
1F
100
AcDbEntity
  8
LOGO
100
AcDbText
 10
74.24923919416857
 20
42.04966637743689
 30
0.0
 40
2.1996814479638
  1
mm
  7
CHINESET
 72
     1
 11
76.97265432021899
 21
43.14950710141879
 31
0.0
100
AcDbText
 73
     2
  0
TEXT
  5
1E6D
330
1F
100
AcDbEntity
  8
LOGO
100
AcDbText
 10
73.09702510237801
 20
50.84839216929215
 30
0.0
 40
2.1996814479638
  1
1 : 1
  7
CHINESET
 72
     1
 11
76.97265432021899
 21
51.94823289327406
 31
0.0
100
AcDbText
 73
     2
  0
LINE
  5
1E6E
330
1F
100
AcDbEntity
  8
LOGO
 62
     4
100
AcDbLine
 10
69.79714023214064
 20
40.94982565345535
 30
0.0
 11
69.79714023214064
 21
54.14791434123799
 31
0.0
  0
TEXT
  5
1E6F
330
1F
100
AcDbEntity
  8
LOGO
100
AcDbText
 10
54.0134438423539
 20
50.84947468968977
 30
144.1634983360548
 40
2.1996814479638
  1
比例 Scale:
 41
0.9
  7
CHINESET
 72
     4
 11
60.99841444028538
 21
51.94823289327406
 31
144.1634983360548
100
AcDbText
  0
TEXT
  5
1E70
330
1F
100
AcDbEntity
  8
LOGO
100
AcDbText
 10
53.88676575896671
 20
46.47997131472982
 30
144.1634983360548
 40
2.1996814479638
  1
投影  View:
 41
0.9
  7
CHINESET
 72
     4
 11
60.99841444028538
 21
47.54886999734642
 31
144.1634983360548
100
AcDbText
  0
TEXT
  5
1E71
330
1F
100
AcDbEntity
  8
LOGO
100
AcDbText
 10
54.10182390053102
 20
42.04966637743689
 30
144.1634983360548
 40
2.1996814479638
  1
單位  Unit:
 41
0.9
  7
CHINESET
 72
     4
 11
60.99841444028538
 21
43.14950710141879
 31
144.1634983360548
100
AcDbText
  0
LWPOLYLINE
  5
1E72
330
1F
100
AcDbEntity
  8
LOGO
 62
     4
100
AcDbPolyline
 90
        4
 70
     1
 43
0.0
 10
36.06869136336241
 20
54.14791434123799
 10
338.5686913633624
 20
54.14791434123799
 10
338.5686913633624
 20
252.1510998615995
 10
36.06869136336241
 20
252.1510998615995
1001
GENIUS_GENREC_14
1002
{
1000
PYDIR
1011
36.06869136336241
1021
252.1510998615995
1031
0.0
1002
}
1002
{
1000
PXDIR
1011
338.5686913633624
1021
54.14791434123799
1031
0.0
1002
}
1002
{
1000
PORI
1011
36.06869136336241
1021
54.14791434123799
1031
0.0
1002
}
1002
{
1000
PINS
1011
36.06869136336241
1021
54.14791434123799
1031
0.0
1002
}
1002
{
1000
PINS2
1011
338.5686913633624
1021
252.1510998615995
1031
0.0
1002
}
1002
{
1000
C
1070
     1
1002
}
1001
GENIUS_GENODEF_13
1002
{
1000
HIER
1070
     0
1002
}
1002
{
1000
MANEDIT
1070
     0
1002
}
1002
{
1000
NOSEL
1070
     0
1002
}
1002
{
1000
BEHIND
1070
     0
1002
}
1002
{
1000
OTHER
1070
     0
1002
}
1002
{
1000
REACTOR
1002
}
1001
GENIUS_GENOBJ-N-REC_13
1002
{
1000
OWNER
1000
GEN
1002
}
  0
SOLID
  5
1E73
330
1F
100
AcDbEntity
  8
LOGO
 62
     5
100
AcDbTrace
 10
38.35089616782685
 20
44.60648296069609
 30
0.0
 11
39.30198070628517
 21
44.60648296069584
 31
0.0
 12
43.27029895295604
 22
53.62538806676688
 32
0.0
 13
44.22138349141486
 23
53.62538806676639
 33
0.0
  0
SOLID
  5
1E74
330
1F
100
AcDbEntity
  8
LOGO
 62
     5
100
AcDbTrace
 10
39.69553292909655
 20
44.60648296069609
 30
0.0
 11
40.64661746755487
 21
44.60648296069609
 31
0.0
 12
44.22138349141486
 22
52.90387565828087
 32
0.0
 13
43.27029895295604
 23
49.41656568393351
 33
0.0
  0
SOLID
  5
1E75
330
1F
100
AcDbEntity
  8
LOGO
 62
     2
100
AcDbTrace
 10
39.30198070628517
 20
44.60648296069584
 30
0.0
 11
39.69553292909655
 21
44.60648296069609
 31
0.0
 12
44.22138349141486
 22
53.62538806676639
 32
0.0
 13
44.61493571422574
 23
53.62538806676639
 33
0.0
  0
SOLID
  5
1E76
330
1F
100
AcDbEntity
  8
LOGO
 62
     5
100
AcDbTrace
 10
36.82607441817963
 20
41.32688110394338
 30
0.0
 11
37.15403460385528
 21
41.32688110394338
 31
0.0
 12
38.07759601309772
 22
42.96668203231961
 32
0.0
 13
38.40555619877236
 23
42.96668203231961
 33
0.0
  0
SOLID
  5
1E77
330
1F
100
AcDbEntity
  8
LOGO
 62
     5
100
AcDbTrace
 10
38.07759601309772
 20
42.96668203231961
 30
0.0
 11
38.40555619877236
 21
42.96668203231961
 31
0.0
 12
38.07759601309772
 22
41.32688110394338
 32
0.0
 13
38.40555619877236
 23
41.32688110394338
 33
0.0
  0
SOLID
  5
1E78
330
1F
100
AcDbEntity
  8
LOGO
 62
     5
100
AcDbTrace
 10
38.07759601309772
 20
41.32688110394338
 30
0.0
 11
38.40555619877236
 21
41.32688110394338
 31
0.0
 12
39.3291176080163
 22
42.96668203231961
 32
0.0
 13
39.65707779369146
 23
42.96668203231961
 33
0.0
  0
SOLID
  5
1E79
330
1F
100
AcDbEntity
  8
LOGO
 62
     5
100
AcDbTrace
 10
39.3291176080163
 20
42.96668203231961
 30
0.0
 11
39.65707779369146
 21
42.96668203231961
 31
0.0
 12
39.3291176080163
 22
41.32688110394338
 32
0.0
 13
39.65707779369146
 23
41.32688110394338
 33
0.0
  0
POLYLINE
  5
1E7A
330
1F
100
AcDbEntity
  8
LOGO
 62
     5
100
AcDb2dPolyline
 66
     1
 10
0.0
 20
0.0
 30
0.0
 40
0.3284857628959275
 41
0.3284857628959275
  0
VERTEX
  5
1E7B
330
1E7A
100
AcDbEntity
  8
LOGO
 62
     5
100
AcDbVertex
100
AcDb2dVertex
 10
50.32223131080673
 20
42.31076166096907
 30
0.0
 42
1.0
  0
VERTEX
  5
1E7C
330
1E7A
100
AcDbEntity
  8
LOGO
 62
     5
100
AcDbVertex
100
AcDb2dVertex
 10
49.33677402211874
 20
42.31076166096907
 30
0.0
 42
1.0
  0
SEQEND
  5
1E7D
330
1E7A
100
AcDbEntity
  8
LOGO
 62
     5
  0
POLYLINE
  5
1E7E
330
1F
100
AcDbEntity
  8
LOGO
 62
     5
100
AcDb2dPolyline
 66
     1
 10
0.0
 20
0.0
 30
0.0
 70
     1
  0
VERTEX
  5
1E7F
330
1E7E
100
AcDbEntity
  8
LOGO
 62
     5
100
AcDbVertex
100
AcDb2dVertex
 10
47.47914319980149
 20
42.14678156813124
 30
0.0
 42
1.000000057330635
  0
VERTEX
  5
1E80
330
1E7E
100
AcDbEntity
  8
LOGO
 62
     5
100
AcDbVertex
100
AcDb2dVertex
 10
48.46302375682744
 20
42.14678156813124
 30
0.0
 42
1.000000057330635
  0
SEQEND
  5
1E81
330
1E7E
100
AcDbEntity
  8
LOGO
 62
     5
  0
CIRCLE
  5
1E82
330
1F
100
AcDbEntity
  8
LOGO
 62
     5
100
AcDbCircle
 10
47.97108347831522
 20
42.14678156813124
 30
0.0
 40
0.4919402785129413
  0
POLYLINE
  5
1E83
330
1F
100
AcDbEntity
  8
LOGO
 62
     5
100
AcDb2dPolyline
 66
     1
 10
0.0
 20
0.0
 30
0.0
 70
     1
 40
0.3284857628959275
 41
0.3284857628959275
  0
VERTEX
  5
1E84
330
1E83
100
AcDbEntity
  8
LOGO
 62
     5
100
AcDbVertex
100
AcDb2dVertex
 10
47.31411195252289
 20
42.14678156813124
 30
0.0
 42
1.0
  0
VERTEX
  5
1E85
330
1E83
100
AcDbEntity
  8
LOGO
 62
     5
100
AcDbVertex
100
AcDb2dVertex
 10
48.62805500410654
 20
42.14678156813124
 30
0.0
 42
1.0
  0
SEQEND
  5
1E86
330
1E83
100
AcDbEntity
  8
LOGO
 62
     5
  0
LINE
  5
1E87
330
1F
100
AcDbEntity
  8
LOGO
100
AcDbLine
 10
50.48542303781278
 20
41.32688110394338
 30
0.0
 11
50.48542303781278
 21
42.31076166096907
 31
0.0
  0
SOLID
  5
1E88
330
1F
100
AcDbEntity
  8
LOGO
 62
     5
100
AcDbTrace
 10
48.46299096081034
 20
42.96668203231961
 30
0.0
 11
48.79095114648499
 21
42.96668203231961
 31
0.0
 12
48.46299096081034
 22
41.32688110394338
 32
0.0
 13
48.79095114648499
 23
41.32688110394338
 33
0.0
  0
SOLID
  5
1E89
330
1F
100
AcDbEntity
  8
LOGO
 62
     5
100
AcDbTrace
 10
49.17358229511169
 20
41.32688110394338
 30
0.0
 11
49.50154248078733
 21
41.32688110394338
 31
0.0
 12
49.17358229511169
 22
42.96668203231961
 32
0.0
 13
49.50154248078733
 23
42.96668203231961
 33
0.0
  0
SOLID
  5
1E8A
330
1F
100
AcDbEntity
  8
LOGO
 62
     5
100
AcDbTrace
 10
50.15746285213814
 20
42.31076166096907
 30
0.0
 11
50.48542303781278
 21
42.31076166096907
 31
0.0
 12
50.15746285213814
 22
41.32688110394338
 32
0.0
 13
50.48542303781278
 23
41.32688110394338
 33
0.0
  0
SOLID
  5
1E8B
330
1F
100
AcDbEntity
  8
LOGO
 62
     5
100
AcDbTrace
 10
49.14078627654408
 20
52.90387565828087
 30
0.0
 11
48.18970173808626
 21
49.41656568393351
 31
0.0
 12
49.14078627654408
 22
44.60648296069584
 32
0.0
 13
48.18970173808626
 23
44.60648296069584
 33
0.0
  0
SOLID
  5
1E8C
330
1F
100
AcDbEntity
  8
LOGO
 62
     5
100
AcDbTrace
 10
49.53433849935496
 20
44.60648296069584
 30
0.0
 11
50.48542303781278
 21
44.60648296069584
 31
0.0
 12
49.53433849935496
 22
53.62538806676639
 32
0.0
 13
50.48542303781278
 23
53.62538806676688
 33
0.0
  0
SOLID
  5
1E8D
330
1F
100
AcDbEntity
  8
LOGO
 62
     2
100
AcDbTrace
 10
49.14078627654408
 20
53.62538806676688
 30
0.0
 11
49.53433849935496
 21
53.62538806676639
 31
0.0
 12
49.14078627654408
 22
44.60648296069584
 32
0.0
 13
49.53433849935496
 23
44.60648296069584
 33
0.0
  0
POLYLINE
  5
1E8E
330
1F
100
AcDbEntity
  8
LOGO
 62
     5
100
AcDb2dPolyline
 66
     1
 10
0.0
 20
0.0
 30
0.0
 40
0.3284857628959275
 41
0.3284857628959275
  0
VERTEX
  5
1E8F
330
1E8E
100
AcDbEntity
  8
LOGO
 62
     5
100
AcDbVertex
100
AcDb2dVertex
 10
45.62144678544855
 20
42.31076166096907
 30
0.0
 42
1.0
  0
VERTEX
  5
1E90
330
1E8E
100
AcDbEntity
  8
LOGO
 62
     5
100
AcDbVertex
100
AcDb2dVertex
 10
44.63598949676057
 20
42.31076166096907
 30
0.0
 42
1.0
  0
SEQEND
  5
1E91
330
1E8E
100
AcDbEntity
  8
LOGO
 62
     5
  0
POLYLINE
  5
1E92
330
1F
100
AcDbEntity
  8
LOGO
 62
     5
100
AcDb2dPolyline
 66
     1
 10
0.0
 20
0.0
 30
0.0
 40
0.3284857628959275
 41
0.3284857628959275
  0
VERTEX
  5
1E93
330
1E92
100
AcDbEntity
  8
LOGO
 62
     5
100
AcDbVertex
100
AcDb2dVertex
 10
46.60532734247349
 20
42.31076166096907
 30
0.0
 42
1.0
  0
VERTEX
  5
1E94
330
1E92
100
AcDbEntity
  8
LOGO
 62
     5
100
AcDbVertex
100
AcDb2dVertex
 10
45.619870053786
 20
42.31076166096907
 30
0.0
 42
1.0
  0
SEQEND
  5
1E95
330
1E92
100
AcDbEntity
  8
LOGO
 62
     5
  0
POLYLINE
  5
1E96
330
1F
100
AcDbEntity
  8
LOGO
 62
     5
100
AcDb2dPolyline
 66
     1
 10
0.0
 20
0.0
 30
0.0
 40
0.3284857628959275
 41
0.3284857628959275
  0
VERTEX
  5
1E97
330
1E96
100
AcDbEntity
  8
LOGO
 62
     5
100
AcDbVertex
100
AcDb2dVertex
 10
41.90454281711531
 20
42.31076166096907
 30
0.0
 42
1.0
  0
VERTEX
  5
1E98
330
1E96
100
AcDbEntity
  8
LOGO
 62
     5
100
AcDbVertex
100
AcDb2dVertex
 10
40.91908552842783
 20
42.31076166096907
 30
0.0
 42
1.0
  0
SEQEND
  5
1E99
330
1E96
100
AcDbEntity
  8
LOGO
 62
     5
  0
SOLID
  5
1E9A
330
1F
100
AcDbEntity
  8
LOGO
 62
     5
100
AcDbTrace
 10
40.75589380142128
 20
42.96668203231961
 30
0.0
 11
41.08385398709592
 21
42.96668203231961
 31
0.0
 12
40.75589380142128
 22
41.32688110394338
 32
0.0
 13
41.08385398709592
 23
41.32688110394338
 33
0.0
  0
SOLID
  5
1E9B
330
1F
100
AcDbEntity
  8
LOGO
 62
     5
100
AcDbTrace
 10
41.73977435844721
 20
42.31076166096907
 30
0.0
 11
42.06773454412287
 21
42.31076166096907
 31
0.0
 12
41.73977435844721
 22
41.32688110394338
 32
0.0
 13
42.06773454412287
 23
41.32688110394338
 33
0.0
  0
POLYLINE
  5
1E9C
330
1F
100
AcDbEntity
  8
LOGO
 62
     5
100
AcDb2dPolyline
 66
     1
 10
0.0
 20
0.0
 30
0.0
 70
     1
 40
0.3284857628959275
 41
0.3284857628959275
  0
VERTEX
  5
1E9D
330
1E9C
100
AcDbEntity
  8
LOGO
 62
     5
100
AcDbVertex
100
AcDb2dVertex
 10
42.61332742716422
 20
42.14678156813124
 30
0.0
 42
1.0
  0
VERTEX
  5
1E9E
330
1E9C
100
AcDbEntity
  8
LOGO
 62
     5
100
AcDbVertex
100
AcDb2dVertex
 10
43.92727047874837
 20
42.14678156813124
 30
0.0
 42
1.0
  0
SEQEND
  5
1E9F
330
1E9C
100
AcDbEntity
  8
LOGO
 62
     5
  0
SOLID
  5
1EA0
330
1F
100
AcDbEntity
  8
LOGO
 62
     5
100
AcDbTrace
 10
43.76220643545116
 20
43.45862231083283
 30
0.0
 11
44.09016662112631
 21
43.45862231083283
 31
0.0
 12
43.76220643545116
 22
41.32688110394338
 32
0.0
 13
44.09016662112631
 23
41.32688110394338
 33
0.0
  0
SOLID
  5
1EA1
330
1F
100
AcDbEntity
  8
LOGO
 62
     5
100
AcDbTrace
 10
44.47279776975451
 20
42.96668203231961
 30
0.0
 11
44.80075795542916
 21
42.96668203231961
 31
0.0
 12
44.47279776975451
 22
41.32688110394338
 32
0.0
 13
44.80075795542916
 23
41.32688110394338
 33
0.0
  0
SOLID
  5
1EA2
330
1F
100
AcDbEntity
  8
LOGO
 62
     5
100
AcDbTrace
 10
45.45667832677945
 20
42.31076166096907
 30
0.0
 11
45.7846385124551
 21
42.31076166096907
 31
0.0
 12
45.45667832677945
 22
41.32688110394338
 32
0.0
 13
45.7846385124551
 23
41.32688110394338
 33
0.0
  0
SOLID
  5
1EA3
330
1F
100
AcDbEntity
  8
LOGO
 62
     5
100
AcDbTrace
 10
46.44055888380539
 20
42.31076166096907
 30
0.0
 11
46.76851906948054
 21
42.31076166096907
 31
0.0
 12
46.44055888380539
 22
41.32688110394288
 32
0.0
 13
46.76851906948054
 23
41.32688110394288
 33
0.0
  0
SOLID
  5
1EA4
330
1F
100
AcDbEntity
  8
LOGO
 62
     5
100
AcDbTrace
 10
40.04530246711843
 20
43.19625416229242
 30
0.0
 11
40.37326265279458
 21
43.19625416229242
 31
0.0
 12
40.04530246711843
 22
43.45862231083283
 32
0.0
 13
40.37326265279458
 23
43.45862231083283
 33
0.0
  0
SOLID
  5
1EA5
330
1F
100
AcDbEntity
  8
LOGO
 62
     5
100
AcDbTrace
 10
40.04530246711843
 20
42.96668203231961
 30
0.0
 11
40.37326265279458
 21
42.96668203231961
 31
0.0
 12
40.04530246711843
 22
41.32688110394288
 32
0.0
 13
40.37326265279458
 23
41.32688110394338
 33
0.0
  0
SOLID
  5
1EA6
330
1F
100
AcDbEntity
  8
LOGO
 62
     5
100
AcDbTrace
 10
43.27029895295604
 20
44.60648296069609
 30
0.0
 11
44.22138349141486
 21
44.60648296069609
 31
0.0
 12
43.27029895295604
 22
49.41656568393351
 32
0.0
 13
44.22138349141486
 23
52.90387565828087
 33
0.0
  0
SOLID
  5
1EA7
330
1F
100
AcDbEntity
  8
LOGO
 62
     5
100
AcDbTrace
 10
44.61493571422574
 20
53.62538806676639
 30
0.0
 11
45.56602025268357
 21
53.62538806676688
 31
0.0
 12
44.61493571422574
 22
45.32799536918162
 32
0.0
 13
45.56602025268357
 23
48.81530534352898
 33
0.0
  0
SOLID
  5
1EA8
330
1F
100
AcDbEntity
  8
LOGO
 62
     2
100
AcDbTrace
 10
44.22138349141486
 20
53.62538806676639
 30
0.0
 11
44.61493571422574
 21
53.62538806676639
 31
0.0
 12
44.22138349141486
 22
44.60648296069609
 32
0.0
 13
44.61493571422574
 23
44.60648296069609
 33
0.0
  0
SOLID
  5
1EA9
330
1F
100
AcDbEntity
  8
LOGO
 62
     5
100
AcDbTrace
 10
44.61493571422574
 20
45.32799536918162
 30
0.0
 11
45.56602025268357
 21
48.81530534352898
 31
0.0
 12
49.14078627654408
 22
53.62538806676688
 32
0.0
 13
48.18970173808626
 23
53.62538806676688
 33
0.0
  0
SOLID
  5
1EAA
330
1F
100
AcDbEntity
  8
LOGO
 62
     5
100
AcDbTrace
 10
44.61493571422574
 20
44.60648296069609
 30
0.0
 11
45.56602025268357
 21
44.60648296069609
 31
0.0
 12
49.14078627654408
 22
52.90387565828087
 32
0.0
 13
48.18970173808626
 23
49.41656568393351
 33
0.0
  0
SOLID
  5
1EAB
330
1F
100
AcDbEntity
  8
LOGO
 62
     2
100
AcDbTrace
 10
44.22138349141486
 20
44.60648296069609
 30
0.0
 11
44.61493571422574
 21
44.60648296069609
 31
0.0
 12
49.14078627654408
 22
53.62538806676688
 32
0.0
 13
49.53433849935496
 23
53.62538806676639
 33
0.0
  0
LWPOLYLINE
  5
1EAC
330
1F
100
AcDbEntity
  8
LOGO
 62
     4
100
AcDbPolyline
 90
        4
 70
     1
 43
0.0
 10
36.06869136336241
 20
54.14791434123799
 10
338.5686913633624
 20
54.14791434123799
 10
338.5686913633624
 20
32.15109986159959
 10
36.06869136336241
 20
32.15109986159959
1001
GENIUS_GENREC_14
1002
{
1000
PYDIR
1011
36.06869136336241
1021
32.15109986159959
1031
0.0
1002
}
1002
{
1000
PXDIR
1011
338.5686913633624
1021
54.14791434123799
1031
0.0
1002
}
1002
{
1000
PORI
1011
36.06869136336241
1021
54.14791434123799
1031
0.0
1002
}
1002
{
1000
PINS
1011
36.06869136336241
1021
54.14791434123799
1031
0.0
1002
}
1002
{
1000
PINS2
1011
338.5686913633624
1021
32.15109986159959
1031
0.0
1002
}
1002
{
1000
C
1070
     1
1002
}
1001
GENIUS_GENOBJ-N-REC_13
1002
{
1000
OWNER
1000
GEN
1002
}
1001
GENIUS_GENODEF_13
1002
{
1000
HIER
1070
     0
1002
}
1002
{
1000
MANEDIT
1070
     0
1002
}
1002
{
1000
NOSEL
1070
     0
1002
}
1002
{
1000
BEHIND
1070
     0
1002
}
1002
{
1000
OTHER
1070
     0
1002
}
1002
{
1000
REACTOR
1002
}
  0
LINE
  5
1EAD
330
1F
100
AcDbEntity
  8
LOGO
 62
     4
100
AcDbLine
 10
129.3818682535466
 20
42.04966637743733
 30
0.0
 11
129.3818682535466
 21
33.98416773490296
 31
0.0
  0
LINE
  5
1EAE
330
1F
100
AcDbEntity
  8
LOGO
 62
     4
100
AcDbLine
 10
114.7173252671211
 20
42.04966637743733
 30
0.0
 11
114.7173252671211
 21
33.98416773490296
 31
0.0
  0
LINE
  5
1EAF
330
1F
100
AcDbEntity
  8
LOGO
 62
     4
100
AcDbLine
 10
129.3818682535466
 20
33.98416773490296
 30
0.0
 11
114.7173252671211
 21
33.98416773490296
 31
0.0
  0
LINE
  5
1EB0
330
1F
100
AcDbEntity
  8
LOGO
 62
     4
100
AcDbLine
 10
147.9440513324329
 20
51.94823289327406
 30
0.0
 11
114.7173252671211
 21
51.94823289327406
 31
0.0
  0
LINE
  5
1EB1
330
1F
100
AcDbEntity
  8
LOGO
 62
     4
100
AcDbLine
 10
147.9440513324329
 20
45.34918854938273
 30
0.0
 11
114.7173252671211
 21
45.34918854938273
 31
0.0
  0
LINE
  5
1EB2
330
1F
100
AcDbEntity
  8
LOGO
 62
     4
100
AcDbLine
 10
114.7173252671211
 20
51.94823289327406
 30
0.0
 11
114.7173252671211
 21
45.34918854938273
 31
0.0
  0
LINE
  5
1EB3
330
1F
100
AcDbEntity
  8
LOGO
 62
     4
100
AcDbLine
 10
147.9440513324329
 20
51.94823289327406
 30
0.0
 11
147.9440513324329
 21
45.34918854938273
 31
0.0
  0
LINE
  5
1EB4
330
1F
100
AcDbEntity
  8
LOGO
 62
     4
100
AcDbLine
 10
122.8147175763939
 20
45.34918854938273
 30
0.0
 11
122.8147175763939
 21
42.04966637743733
 31
0.0
  0
TEXT
  5
1EB5
330
1F
100
AcDbEntity
  8
LOGO
  6
Continuous
100
AcDbText
 10
115.8898720967291
 20
46.72672940836821
 30
0.0
 40
3.85
  1
MCMJPB/S
  7
CHINESET
100
AcDbText
  0
LINE
  5
1EB6
330
1F
100
AcDbEntity
  8
LOGO
 62
     4
100
AcDbLine
 10
129.3818682535466
 20
42.04966637743733
 30
0.0
 11
114.7173252671211
 21
42.04966637743733
 31
0.0
  0
TEXT
  5
1EB7
330
1F
100
AcDbEntity
  8
LOGO
  6
Continuous
100
AcDbText
 10
119.4231306842285
 20
35.12259576500948
 30
144.1634983360548
 40
1.65
  1
Model
 41
0.8
  7
CHINESET
100
AcDbText
  0
TEXT
  5
1EB8
330
1F
100
AcDbEntity
  8
LOGO
100
AcDbText
 10
118.9839543224294
 20
38.18134016462959
 30
144.1634983360548
 40
2.75
  1
型號
  7
CHINESET
100
AcDbText
  0
LINE
  5
1EB9
330
1F
100
AcDbEntity
  8
LOGO
  6
Continuous
100
AcDbLine
 10
148.6455842865392
 20
48.62533586336694
 30
0.0
 11
151.5594814803727
 21
48.62533586336694
 31
0.0
  0
LINE
  5
1EBA
330
1F
100
AcDbEntity
  8
LOGO
 62
     4
100
AcDbLine
 10
157.9624501377081
 20
42.04966637743733
 30
0.0
 11
157.9624501377081
 21
33.98416773490296
 31
0.0
  0
LINE
  5
1EBB
330
1F
100
AcDbEntity
  8
LOGO
 62
     4
100
AcDbLine
 10
139.029093719682
 20
42.04966637743733
 30
0.0
 11
139.029093719682
 21
33.98416773490296
 31
0.0
  0
LINE
  5
1EBC
330
1F
100
AcDbEntity
  8
LOGO
 62
     4
100
AcDbLine
 10
157.9624501377081
 20
33.98416773490296
 30
0.0
 11
139.029093719682
 21
33.98416773490296
 31
0.0
  0
LINE
  5
1EBD
330
1F
100
AcDbEntity
  8
LOGO
 62
     4
100
AcDbLine
 10
170.8200425970268
 20
51.94823289327406
 30
0.0
 11
152.4869106585247
 21
51.94823289327406
 31
0.0
  0
LINE
  5
1EBE
330
1F
100
AcDbEntity
  8
LOGO
 62
     4
100
AcDbLine
 10
170.8200425970268
 20
45.34918854938273
 30
0.0
 11
152.4869106585247
 21
45.34918854938273
 31
0.0
  0
LINE
  5
1EBF
330
1F
100
AcDbEntity
  8
LOGO
 62
     4
100
AcDbLine
 10
152.4869106585247
 20
51.94823289327406
 30
0.0
 11
152.4869106585247
 21
45.34918854938273
 31
0.0
  0
LINE
  5
1EC0
330
1F
100
AcDbEntity
  8
LOGO
 62
     4
100
AcDbLine
 10
170.8200425970268
 20
51.94823289327406
 30
0.0
 11
170.8200425970268
 21
45.34918854938273
 31
0.0
  0
LINE
  5
1EC1
330
1F
100
AcDbEntity
  8
LOGO
 62
     4
100
AcDbLine
 10
155.5604881763077
 20
45.34918854938273
 30
0.0
 11
155.5604881763076
 21
42.04966637743733
 31
0.0
  0
TEXT
  5
1EC2
330
1F
100
AcDbEntity
  8
LOGO
  6
Continuous
100
AcDbText
 10
153.5596303277357
 20
46.72672940836821
 30
0.0
 40
3.85
  1
10/15
  7
CHINESET
100
AcDbText
  0
LINE
  5
1EC3
330
1F
100
AcDbEntity
  8
LOGO
 62
     4
100
AcDbLine
 10
157.9624501377081
 20
42.04966637743733
 30
0.0
 11
139.029093719682
 21
42.04966637743733
 31
0.0
  0
LINE
  5
1EC4
330
1F
100
AcDbEntity
  8
LOGO
  6
Continuous
100
AcDbLine
 10
171.4495075279263
 20
48.62533586336694
 30
0.0
 11
174.3634047217598
 21
48.62533586336694
 31
0.0
  0
LINE
  5
1EC5
330
1F
100
AcDbEntity
  8
LOGO
 62
     4
100
AcDbLine
 10
177.5688344837984
 20
42.04966637743733
 30
0.0
 11
177.5688344837984
 21
33.98416773490296
 31
0.0
  0
LINE
  5
1EC6
330
1F
100
AcDbEntity
  8
LOGO
 62
     4
100
AcDbLine
 10
162.904291497373
 20
42.04966637743733
 30
0.0
 11
162.904291497373
 21
33.98416773490296
 31
0.0
  0
LINE
  5
1EC7
330
1F
100
AcDbEntity
  8
LOGO
 62
     4
100
AcDbLine
 10
177.5688344837984
 20
33.98416773490296
 30
0.0
 11
162.904291497373
 21
33.98416773490296
 31
0.0
  0
LINE
  5
1EC8
330
1F
100
AcDbEntity
  8
LOGO
 62
     4
100
AcDbLine
 10
183.2979732402457
 20
51.94823289327406
 30
0.0
 11
175.2825856857266
 21
51.94823289327406
 31
0.0
  0
LINE
  5
1EC9
330
1F
100
AcDbEntity
  8
LOGO
 62
     4
100
AcDbLine
 10
183.2979732402457
 20
45.34918854938273
 30
0.0
 11
175.2825856857266
 21
45.34918854938273
 31
0.0
  0
LINE
  5
1ECA
330
1F
100
AcDbEntity
  8
LOGO
 62
     4
100
AcDbLine
 10
175.2825856857266
 20
51.94823289327406
 30
0.0
 11
175.2825856857266
 21
45.34918854938273
 31
0.0
  0
LINE
  5
1ECB
330
1F
100
AcDbEntity
  8
LOGO
 62
     4
100
AcDbLine
 10
183.2979732402457
 20
51.94823289327406
 30
0.0
 11
183.2979732402457
 21
45.34918854938273
 31
0.0
  0
LINE
  5
1ECC
330
1F
100
AcDbEntity
  8
LOGO
 62
     4
100
AcDbLine
 10
180.3527536033007
 20
45.34918854938273
 30
0.0
 11
180.3527536033007
 21
43.69942746341002
 31
0.0
  0
TEXT
  5
1ECD
330
1F
100
AcDbEntity
  8
LOGO
  6
Continuous
100
AcDbText
 10
176.1609008420658
 20
46.72672940836821
 30
0.0
 40
3.85
  1
10
  7
CHINESET
100
AcDbText
  0
LINE
  5
1ECE
330
1F
100
AcDbEntity
  8
LOGO
 62
     4
100
AcDbLine
 10
177.5688344837984
 20
42.04966637743733
 30
0.0
 11
162.904291497373
 21
42.04966637743733
 31
0.0
  0
LINE
  5
1ECF
330
1F
100
AcDbEntity
  8
LOGO
  6
Continuous
100
AcDbLine
 10
184.2379570023169
 20
48.62533586336694
 30
0.0
 11
187.1518541961508
 21
48.62533586336694
 31
0.0
  0
LINE
  5
1ED0
330
1F
100
AcDbEntity
  8
LOGO
 62
     4
100
AcDbLine
 10
195.2068536568284
 20
42.04966637743733
 30
0.0
 11
195.2068536568284
 21
33.98416773490296
 31
0.0
  0
LINE
  5
1ED1
330
1F
100
AcDbEntity
  8
LOGO
 62
     4
100
AcDbLine
 10
183.2602455565651
 20
42.04966637743733
 30
0.0
 11
183.2602455565651
 21
33.98416773490296
 31
0.0
  0
LINE
  5
1ED2
330
1F
100
AcDbEntity
  8
LOGO
 62
     4
100
AcDbLine
 10
195.2068536568284
 20
33.98416773490296
 30
0.0
 11
183.2602455565651
 21
33.98416773490296
 31
0.0
  0
LINE
  5
1ED3
330
1F
100
AcDbEntity
  8
LOGO
 62
     4
100
AcDbLine
 10
195.0922350878634
 20
51.94823289327406
 30
0.0
 11
188.0710351601172
 21
51.94823289327406
 31
0.0
  0
LINE
  5
1ED4
330
1F
100
AcDbEntity
  8
LOGO
 62
     4
100
AcDbLine
 10
195.0922350878634
 20
45.34918854938273
 30
0.0
 11
188.0710351601172
 21
45.34918854938273
 31
0.0
  0
LINE
  5
1ED5
330
1F
100
AcDbEntity
  8
LOGO
 62
     4
100
AcDbLine
 10
188.0710351601172
 20
51.94823289327406
 30
0.0
 11
188.0710351601172
 21
45.34918854938273
 31
0.0
  0
LINE
  5
1ED6
330
1F
100
AcDbEntity
  8
LOGO
 62
     4
100
AcDbLine
 10
195.0922350878634
 20
51.94823289327406
 30
0.0
 11
195.0922350878634
 21
45.34918854938273
 31
0.0
  0
LINE
  5
1ED7
330
1F
100
AcDbEntity
  8
LOGO
 62
     4
100
AcDbLine
 10
191.5816351239903
 20
45.34918854938273
 30
0.0
 11
191.5816351239903
 21
42.04966637743733
 31
0.0
  0
TEXT
  5
1ED8
330
1F
100
AcDbEntity
  8
LOGO
  6
Continuous
100
AcDbText
 10
190.4375146452473
 20
46.72672940836821
 30
0.0
 40
3.85
  1
*
  7
CHINESET
100
AcDbText
  0
LINE
  5
1ED9
330
1F
100
AcDbEntity
  8
LOGO
 62
     4
100
AcDbLine
 10
195.2068536568284
 20
42.04966637743733
 30
0.0
 11
183.2602455565651
 21
42.04966637743733
 31
0.0
  0
TEXT
  5
1EDA
330
1F
100
AcDbEntity
  8
LOGO
  6
Continuous
100
AcDbText
 10
144.0451523622552
 20
35.12259576500948
 30
144.1634983360548
 40
1.65
  1
Acting type
 41
0.8
  7
CHINESET
100
AcDbText
  0
TEXT
  5
1EDB
330
1F
100
AcDbEntity
  8
LOGO
100
AcDbText
 10
144.0296087907805
 20
38.18134016462959
 30
144.1634983360548
 40
2.75
  1
作動型式
  7
CHINESET
100
AcDbText
  0
TEXT
  5
1EDC
330
1F
100
AcDbEntity
  8
LOGO
  6
Continuous
100
AcDbText
 10
165.9759138972178
 20
35.12259576500948
 30
144.1634983360548
 40
1.65
  1
Tube I.D.
 41
0.8
  7
CHINESET
100
AcDbText
  0
TEXT
  5
1EDD
330
1F
100
AcDbEntity
  8
LOGO
100
AcDbText
 10
167.0613335503414
 20
38.18134016462959
 30
144.1634983360548
 40
2.75
  1
內徑
  7
CHINESET
100
AcDbText
  0
TEXT
  5
1EDE
330
1F
100
AcDbEntity
  8
LOGO
  6
Continuous
100
AcDbText
 10
186.4087834783429
 20
35.12259576500948
 30
144.1634983360548
 40
1.65
  1
Stroke
 41
0.8
  7
CHINESET
100
AcDbText
  0
TEXT
  5
1EDF
330
1F
100
AcDbEntity
  8
LOGO
100
AcDbText
 10
186.294377902348
 20
38.18134016462959
 30
144.1634983360548
 40
2.75
  1
行程
  7
CHINESET
100
AcDbText
  0
TEXT
  5
1EEC
330
1F
100
AcDbEntity
  8
LOGO
100
AcDbText
 10
85.77420570226085
 20
33.32132170991334
 30
0.0
 40
2.2
  1
10701115
 41
0.7
  7
CHINESET
 72
     1
 11
90.83420570226085
 21
33.32132170991334
 31
0.0
100
AcDbText
  0
LINE
  5
1EED
330
1F
100
AcDbEntity
  8
LOGO
 62
     4
100
AcDbLine
 10
97.66168321856509
 20
36.55046275752797
 30
0.0
 11
97.66168321856609
 21
32.1510998616001
 31
0.0
  0
LINE
  5
1EEE
330
1F
100
AcDbEntity
  8
LOGO
 62
     4
100
AcDbLine
 10
97.66168321856509
 20
36.55046275752797
 30
0.0
 11
84.46168321856609
 21
36.55046275752797
 31
0.0
  0
CIRCLE
  5
1EEF
330
1F
100
AcDbEntity
  8
LOGO
  6
Continuous
100
AcDbCircle
 10
73.87012556485179
 20
47.55357513206067
 30
0.0
 40
1.277186823352694
  0
CIRCLE
  5
1EF0
330
1F
100
AcDbEntity
  8
LOGO
  6
Continuous
100
AcDbCircle
 10
73.87012556485179
 20
47.55357513206067
 30
0.0
 40
0.748318415532157
  0
LINE
  5
1EF1
330
1F
100
AcDbEntity
  8
LOGO
100
AcDbLine
 10
81.89611576129195
 20
46.27638830870774
 30
0.0
 11
81.89611576129195
 21
48.83076195541362
 31
0.0
  0
LINE
  5
1EF2
330
1F
100
AcDbEntity
  8
LOGO
100
AcDbLine
 10
77.89220838410329
 20
46.80525671652865
 30
0.0
 11
77.89220838410329
 21
48.30189354759295
 31
0.0
  0
LINE
  5
1EF3
330
1F
100
AcDbEntity
  8
LOGO
  6
Continuous
100
AcDbLine
 10
77.89220838410329
 20
48.30189354759295
 30
0.0
 11
81.89611576129195
 21
48.83076195541362
 31
0.0
  0
LINE
  5
1EF4
330
1F
100
AcDbEntity
  8
LOGO
  6
Continuous
100
AcDbLine
 10
77.89220838410329
 20
46.80525671652865
 30
0.0
 11
81.89611576129195
 21
46.27638830870774
 31
0.0
  0
LINE
  5
1EF5
330
1F
100
AcDbEntity
  8
LOGO
  6
AM_ISO08W050x2
 48
0.3
100
AcDbLine
 10
72.10950440449337
 20
47.55357513206067
 30
0.0
 11
75.6307467252102
 21
47.55357513206067
 31
0.0
1001
GENIUS_GENOREF_13
1005
1EFA
  0
LINE
  5
1EF6
330
1F
100
AcDbEntity
  8
LOGO
  6
AM_ISO08W050x2
 48
0.3
100
AcDbLine
 10
73.87012556485179
 20
45.79295397170226
 30
0.0
 11
73.87012556485179
 21
49.31419629241909
 31
0.0
1001
GENIUS_GENOREF_13
1005
1EF9
  0
LINE
  5
1EF7
330
1F
100
AcDbEntity
  8
LOGO
  6
CENTER
 48
0.5
100
AcDbLine
 10
77.57200708201304
 20
47.55357513206067
 30
0.0
 11
82.29929627285841
 21
47.55357513206067
 31
0.0
1001
GENIUS_GENOREF_13
1005
1EF8
  0
POINT
  5
1EF8
330
1F
100
AcDbEntity
  8
0
 60
     1
100
AcDbPoint
 10
-2026.635189117381
 20
-903.9824920368866
 30
0.0
1001
GENIUS_GENOBJ-N-CRS_13
1002
{
1000
OWNER
1000
GEN
1002
}
1001
GENIUS_GENOLIS_13
1002
{
1000
ENT
1005
0
1005
0
1005
0
1005
1EF7
1002
}
1001
GENIUS_GENOENT_13
1002
{
1000
MYREF
1005
1EF8
1002
}
1002
{
1000
GRP
1005
0
1002
}
1001
GENIUS_GENODEF_13
1002
{
1000
HIER
1070
    10
1002
}
1002
{
1000
MANEDIT
1070
     1
1002
}
1002
{
1000
NOSEL
1070
     0
1002
}
1002
{
1000
BEHIND
1070
     0
1002
}
1002
{
1000
OTHER
1070
     0
1002
}
1002
{
1000
REACTOR
1002
}
  0
POINT
  5
1EF9
330
1F
100
AcDbEntity
  8
0
 60
     1
100
AcDbPoint
 10
-2037.959774340235
 20
-895.1069055582504
 30
0.0
1001
GENIUS_GENOBJ-N-CRS_13
1002
{
1000
OWNER
1000
GEN
1002
}
1001
GENIUS_GENOLIS_13
1002
{
1000
ENT
1005
0
1005
0
1005
0
1005
1EF6
1002
}
1001
GENIUS_GENOENT_13
1002
{
1000
MYREF
1005
1EF9
1002
}
1002
{
1000
GRP
1005
0
1002
}
1001
GENIUS_GENODEF_13
1002
{
1000
HIER
1070
    10
1002
}
1002
{
1000
MANEDIT
1070
     1
1002
}
1002
{
1000
NOSEL
1070
     0
1002
}
1002
{
1000
BEHIND
1070
     0
1002
}
1002
{
1000
OTHER
1070
     0
1002
}
1002
{
1000
REACTOR
1002
}
  0
POINT
  5
1EFA
330
1F
100
AcDbEntity
  8
0
 60
     1
100
AcDbPoint
 10
-2031.601100642399
 20
-903.9824920368866
 30
0.0
1001
GENIUS_GENOBJ-N-CRS_13
1002
{
1000
OWNER
1000
GEN
1002
}
1001
GENIUS_GENOLIS_13
1002
{
1000
ENT
1005
0
1005
0
1005
0
1005
1EF5
1002
}
1001
GENIUS_GENOENT_13
1002
{
1000
MYREF
1005
1EFA
1002
}
1002
{
1000
GRP
1005
0
1002
}
1001
GENIUS_GENODEF_13
1002
{
1000
HIER
1070
    10
1002
}
1002
{
1000
MANEDIT
1070
     1
1002
}
1002
{
1000
NOSEL
1070
     0
1002
}
1002
{
1000
BEHIND
1070
     0
1002
}
1002
{
1000
OTHER
1070
     0
1002
}
1002
{
1000
REACTOR
1002
}
  0
LINE
  5
1EFB
330
1F
100
AcDbEntity
  8
LOGO
 62
     4
100
AcDbLine
 10
187.3186913633624
 20
252.1510998615995
 30
0.0
 11
187.3186913633624
 21
54.14791434123799
 31
0.0
  0
LINE
  5
2097
330
1F
100
AcDbEntity
  8
LOGO
 62
     4
100
AcDbLine
 10
180.3527536033007
 20
43.69942746341003
 30
0.0
 11
167.19504890422
 21
43.69942746341003
 31
0.0
  0
LINE
  5
2098
330
1F
100
AcDbEntity
  8
LOGO
 62
     4
100
AcDbLine
 10
167.19504890422
 20
42.04966637743733
 30
0.0
 11
167.19504890422
 21
43.69942746341003
 31
0.0
  0
LINE
  5
2142
330
1F
100
AcDbEntity
  8
AM_4
100
AcDbLine
 10
112.9021845027788
 20
124.2920107619084
 30
0.0
 11
115.1021845027787
 21
124.2920107619084
 31
0.0
  0
LINE
  5
2143
330
1F
100
AcDbEntity
  8
AM_4
100
AcDbLine
 10
112.9021845027788
 20
121.0720107619084
 30
0.0
 11
115.1021845027787
 21
121.0720107619084
 31
0.0
  0
INSERT
  5
2144
330
1F
100
AcDbEntity
  8
AM_5
100
AcDbBlockReference
  2
*S35
 10
0.0
 20
0.0
 30
0.0
  0
TEXT
  5
2145
330
1F
100
AcDbEntity
  8
AM_5
100
AcDbText
 10
103.3350947769054
 20
135.0225727519737
 30
0.0
 40
3.0
  1
M4x0.7
100
AcDbText
  0
INSERT
  5
2146
330
1F
100
AcDbEntity
  8
AM_5
100
AcDbBlockReference
  2
*S36
 10
0.0
 20
0.0
 30
0.0
  0
DIMENSION
  5
2322
102
{ACAD_XDICTIONARY
360
2331
102
}
102
{ACAD_REACTORS
330
2332
102
}
330
1F
100
AcDbEntity
  8
AM_5
100
AcDbDimension
  2
*D38
 10
98.54244217285099
 20
201.8771339889449
 30
0.0
 11
96.09244217285096
 21
192.8296466155296
 31
0.0
 70
    32
  1
%%c<>
 71
     5
 42
5.0
  3
AM_ISO$0
100
AcDbAlignedDimension
 13
105.6021845027787
 23
206.8771339889449
 33
0.0
 14
105.6021845027787
 24
201.8771339889449
 34
0.0
 50
90.0
100
AcDbRotatedDimension
1001
ACAD
1000
DSTYLE
1002
{
1070
    40
1040
1.0
1070
   144
1040
1.0
1070
   272
1070
     8
1002
}
  0
DIMENSION
  5
235D
102
{ACAD_XDICTIONARY
360
236C
102
}
102
{ACAD_REACTORS
330
236D
102
}
330
1F
100
AcDbEntity
  8
AM_5
100
AcDbDimension
  2
*D39
 10
249.8302361554237
 20
201.8771339939448
 30
0.0
 11
247.3802361554236
 21
192.8296466205295
 31
0.0
 70
    32
  1
%%c<>
 71
     5
 42
5.000000000000028
  3
AM_ISO$0
100
AcDbAlignedDimension
 13
256.9589072511412
 23
206.8771339939448
 33
0.0
 14
256.9589072511412
 24
201.8771339939448
 34
0.0
 50
90.0
100
AcDbRotatedDimension
1001
ACAD
1000
DSTYLE
1002
{
1070
    40
1040
1.0
1070
   144
1040
1.0
1070
   272
1070
     8
1002
}
  0
ENDSEC
  0
SECTION
  2
OBJECTS
  0
DICTIONARY
  5
C
330
0
100
AcDbDictionary
281
     1
  3
ACAD_COLOR
350
BE
  3
ACAD_GROUP
350
D
  3
ACAD_LAYOUT
350
1A
  3
ACAD_MATERIAL
350
BD
  3
ACAD_MLINESTYLE
350
17
  3
ACAD_PLOTSETTINGS
350
19
  3
ACAD_PLOTSTYLENAME
350
E
  3
ACAD_TABLESTYLE
350
11A
  3
ACDBHEADERROUNDTRIPXREC
350
238A
  3
AcDbVariableDictionary
350
94
  3
AcmDictionary
350
5B
  3
AMG
350
41
  3
AMGSNAPSETTINGS
350
1B8
  3
DWGPROPS
350
2389
  0
DICTIONARY
  5
3F9
330
2
100
AcDbDictionary
280
     1
281
     1
  3
ACAD_LAYERFILTERS
360
5B7
  3
ACAD_LAYERSTATES
360
A8E
  3
ACLYDICTIONARY
360
5B6
  3
AMLAYER_GROUPCOLORS
360
1B62
  0
DICTIONARY
  5
8F
330
1F
100
AcDbDictionary
280
     1
281
     1
  3
ACAD_SORTENTS
360
194E
  0
DICTIONARY
  5
18F2
330
18F1
100
AcDbDictionary
280
     1
281
     1
  0
DICTIONARY
  5
1BE8
330
1BE3
100
AcDbDictionary
280
     1
281
     1
  3
ACAD_SORTENTS
360
1BE9
  0
DICTIONARY
  5
D79
330
D6B
100
AcDbDictionary
280
     1
281
     1
  3
ACAD_DIMASSOC
360
D7A
  0
DICTIONARY
  5
D9F
330
D92
100
AcDbDictionary
280
     1
281
     1
  3
ACAD_DIMASSOC
360
DA0
  0
DICTIONARY
  5
DC5
330
DB8
100
AcDbDictionary
280
     1
281
     1
  3
ACAD_DIMASSOC
360
DC6
  0
DICTIONARY
  5
DEB
330
DDE
100
AcDbDictionary
280
     1
281
     1
  3
ACAD_DIMASSOC
360
DEC
  0
DICTIONARY
  5
E11
330
E04
100
AcDbDictionary
280
     1
281
     1
  3
ACAD_DIMASSOC
360
E12
  0
DICTIONARY
  5
10B9
330
10AC
100
AcDbDictionary
280
     1
281
     1
  3
ACAD_DIMASSOC
360
10BA
  0
DICTIONARY
  5
2331
330
2322
100
AcDbDictionary
280
     1
281
     1
  3
ACAD_DIMASSOC
360
2332
  0
DICTIONARY
  5
236C
330
235D
100
AcDbDictionary
280
     1
281
     1
  3
ACAD_DIMASSOC
360
236D
  0
DICTIONARY
  5
BE
102
{ACAD_REACTORS
330
C
102
}
330
C
100
AcDbDictionary
281
     1
  0
DICTIONARY
  5
D
102
{ACAD_REACTORS
330
C
102
}
330
C
100
AcDbDictionary
281
     1
  0
DICTIONARY
  5
1A
102
{ACAD_REACTORS
330
C
102
}
330
C
100
AcDbDictionary
281
     1
  3
Model
350
22
  3
配置1
350
1E
  3
配置2
350
26
  0
DICTIONARY
  5
BD
102
{ACAD_REACTORS
330
C
102
}
330
C
100
AcDbDictionary
281
     1
  0
DICTIONARY
  5
17
102
{ACAD_REACTORS
330
C
102
}
330
C
100
AcDbDictionary
281
     1
  3
Standard
350
18
  0
DICTIONARY
  5
19
102
{ACAD_REACTORS
330
C
102
}
330
C
100
AcDbDictionary
281
     1
  0
ACDBDICTIONARYWDFLT
  5
E
102
{ACAD_REACTORS
330
C
102
}
330
C
100
AcDbDictionary
281
     1
  3
Normal
350
F
100
AcDbDictionaryWithDefault
340
F
  0
DICTIONARY
  5
11A
102
{ACAD_REACTORS
330
C
102
}
330
C
100
AcDbDictionary
281
     1
  3
Standard
350
11B
  0
DICTIONARY
  5
238A
102
{ACAD_REACTORS
330
C
102
}
330
C
100
AcDbDictionary
281
     1
  0
DICTIONARY
  5
94
102
{ACAD_REACTORS
330
C
102
}
330
C
100
AcDbDictionary
281
     1
  3
CTABLESTYLE
350
138
  3
DIMASSOC
350
96
  3
INDEXCTL
350
95
  3
PROJECTNAME
350
2282
  0
DICTIONARY
  5
5B
102
{ACAD_REACTORS
330
C
102
}
330
C
100
AcDbDictionary
281
     1
  3
AcmBOM
350
1B5
  3
AcmStdDictionary
350
61
  3
AMDTSECTSYM_ARROWCOLOR
350
123
  0
DICTIONARY
  5
41
102
{ACAD_REACTORS
330
C
102
}
330
C
100
AcDbDictionary
281
     1
  0
DICTIONARY
  5
1B8
102
{ACAD_REACTORS
330
C
102
}
330
C
100
AcDbDictionary
281
     1
  0
XRECORD
  5
2389
102
{ACAD_REACTORS
330
C
102
}
330
C
100
AcDbXrecord
280
     1
  1
DWGPROPS COOKIE
  2

  3

  4

  6

  7

  8

  9

300
AmdtFileType=84
301
=
302
=
303
=
304
=
305
=
306
=
307
=
308
=
309
=
 40
0.3921466319444444
 41
2454111.69355125
 42
2456013.401180914
  1

 90
        1
  0
DICTIONARY
  5
5B7
102
{ACAD_REACTORS
330
3F9
102
}
330
3F9
100
AcDbDictionary
281
     1
  0
DICTIONARY
  5
A8E
102
{ACAD_REACTORS
330
3F9
102
}
330
3F9
100
AcDbDictionary
281
     1
  0
DICTIONARY
  5
5B6
102
{ACAD_REACTORS
330
3F9
102
}
330
3F9
100
AcDbDictionary
281
     1
1001
ACAD
1000
<All
  0
DICTIONARY
  5
1B62
102
{ACAD_REACTORS
330
3F9
102
}
330
3F9
100
AcDbDictionary
280
     1
281
     1
  0
SORTENTSTABLE
  5
194E
102
{ACAD_REACTORS
330
8F
102
}
330
8F
100
AcDbSortentsTable
330
1F
331
1EC5
  5
1EC7
331
1E8E
  5
1E96
331
DB8
  5
E04
331
1293
  5
1295
331
12D2
  5
12D4
331
D59
  5
D92
331
129B
  5
129D
331
12DA
  5
12DC
331
C18
  5
C1A
331
1264
  5
1266
331
CCD
  5
CCF
331
D0C
  5
D0E
331
C96
  5
C98
331
12A3
  5
12A5
331
12E2
  5
12E4
331
C20
  5
C22
331
C57
  5
C59
331
126C
  5
126E
331
130B
  5
130D
331
134A
  5
134C
331
1C88
  5
1C8C
331
CD5
  5
CD7
331
D14
  5
D16
331
12AB
  5
12AD
331
12EA
  5
12EC
331
1274
  5
1276
331
C28
  5
C2A
331
C5F
  5
C61
331
C9E
  5
CA0
331
1313
  5
1315
331
1352
  5
1354
331
1C90
  5
1C9A
331
1E96
  5
1E9B
331
1ECD
  5
1ECF
331
1BEC
  5
1BF0
331
1B36
  5
1BAF
331
CDD
  5
CDF
331
D1C
  5
D1E
331
C30
  5
C32
331
C67
  5
C69
331
CA6
  5
CA9
331
131B
  5
131D
331
135A
  5
135C
331
1ED5
  5
1ED7
331
1AC7
  5
1B36
331
CE5
  5
CE7
331
D24
  5
D26
331
C6F
  5
C71
331
CAE
  5
CB0
331
1323
  5
1325
331
1362
  5
1364
331
1929
  5
192B
331
1BF4
  5
1BF6
331
1E67
  5
1E69
331
1EA6
  5
1EA8
331
1EDD
  5
1EDF
331
1E6F
  5
1E71
331
1EAE
  5
1EB0
331
1EED
  5
1EEF
331
12B3
  5
12B5
331
12F2
  5
12F4
331
127C
  5
127E
331
12BB
  5
12BD
331
12FA
  5
12FC
331
C38
  5
C3A
331
ED7
  5
F52
331
1284
  5
1286
331
CED
  5
CEF
331
D2C
  5
D2E
331
CB6
  5
CB8
331
1302
  5
1304
331
128C
  5
128E
331
12C3
  5
12C5
331
C40
  5
C42
331
C77
  5
C79
331
F4F
  5
F55
331
132B
  5
132D
331
136A
  5
136C
331
1931
  5
19C2
331
1CA8
  5
1CAA
331
D34
  5
D36
331
C48
  5
C4A
331
12CB
  5
12CD
331
C09
  5
C0B
331
C7F
  5
C81
331
CBE
  5
CC1
331
1333
  5
1335
331
1372
  5
1374
331
1EB6
  5
1EB8
331
1CB0
  5
1CB2
331
1E77
  5
1E79
331
1EF5
  5
1EF7
331
1AA0
  5
1AA2
331
137A
  5
137C
331
1BC5
  5
1BC9
331
CC6
  5
CC9
331
CFD
  5
CFF
331
C11
  5
C13
331
C87
  5
C8A
331
1CB8
  5
1CBA
331
1EBE
  5
1EC0
331
19C9
  5
19CB
331
D05
  5
D07
331
C8F
  5
C91
331
1343
  5
1345
331
1EC6
  5
1EC8
331
1E87
  5
1E89
331
D4A
  5
D6B
331
1294
  5
1296
331
12D3
  5
12D5
331
1006
  5
1037
331
129C
  5
129E
331
12DB
  5
12DD
331
C19
  5
C1B
331
C50
  5
C52
331
1265
  5
1267
331
1A11
  5
1A13
331
1AB0
  5
1ABE
331
CCE
  5
CD0
331
D0D
  5
D0F
331
C58
  5
C5A
331
12A4
  5
12A6
331
12E3
  5
12E5
331
C21
  5
C23
331
C97
  5
C99
331
126D
  5
126F
331
130C
  5
130E
331
134B
  5
134D
331
CD6
  5
CD8
331
D15
  5
D18
331
C29
  5
C2B
331
C60
  5
C62
331
C9F
  5
CA1
331
1314
  5
1316
331
1353
  5
1355
331
1036
  5
1038
331
1275
  5
1277
331
12AC
  5
12AE
331
12EB
  5
12ED
331
1ECE
  5
1ED0
331
CDE
  5
CE0
331
D1D
  5
D1F
331
C31
  5
C33
331
C68
  5
C6A
331
CA7
  5
CAA
331
131C
  5
131E
331
135B
  5
135D
331
1922
  5
1925
331
CE6
  5
CE8
331
D25
  5
D27
331
CAF
  5
CB1
331
1324
  5
1326
331
1363
  5
1365
331
192A
  5
192D
331
1BAE
  5
1BB0
331
1BF5
  5
1BF7
331
1ED6
  5
1ED8
331
1E68
  5
1E6A
331
1EA7
  5
1EA9
331
1EDE
  5
1EEC
331
1EAF
  5
1EB1
331
1EEE
  5
1EF0
331
D92
  5
DDE
331
127D
  5
127F
331
12B4
  5
12B6
331
12F3
  5
12F5
331
C39
  5
C3B
331
C70
  5
C72
331
1285
  5
1287
331
12BC
  5
12BE
331
12FB
  5
12FD
331
CEE
  5
CF0
331
D2D
  5
D2F
331
C78
  5
C7A
331
C02
  5
C04
331
C41
  5
C43
331
CB7
  5
CB9
331
132C
  5
132E
331
136B
  5
136D
331
1303
  5
1305
331
128D
  5
128F
331
12C4
  5
12C6
331
CF6
  5
CF8
331
D35
  5
D37
331
C49
  5
C4B
331
C0A
  5
C0C
331
C80
  5
C82
331
1334
  5
1336
331
1373
  5
1375
331
1BBE
  5
1BC0
331
12CC
  5
12CE
331
1CA9
  5
1CAB
331
1E70
  5
1E72
331
1EB7
  5
1EB9
331
1AA1
  5
1AB0
331
137B
  5
137D
331
19C2
  5
19C4
331
1BC6
  5
1BEC
331
CC7
  5
CCB
331
CFE
  5
D00
331
C12
  5
C14
331
1CB1
  5
1CB3
331
1E78
  5
1E7A
331
1EF6
  5
1EFB
331
19CA
  5
1A11
331
D06
  5
D08
331
1344
  5
1346
331
1CB9
  5
1CBB
331
1EBF
  5
1EC1
331
1EC7
  5
1EC9
331
1E88
  5
1E8A
331
F58
  5
1036
331
1295
  5
1297
331
12D4
  5
12D6
331
C1A
  5
C1C
331
C51
  5
C53
331
C90
  5
C92
331
D6B
  5
DB8
331
1266
  5
1268
331
129D
  5
129F
331
12DC
  5
12DE
331
1A12
  5
1A14
331
CCF
  5
CD1
331
D0E
  5
D10
331
C59
  5
C5B
331
C22
  5
C24
331
C98
  5
C9A
331
130D
  5
130F
331
134C
  5
134E
331
126E
  5
1270
331
12A5
  5
12A7
331
12E4
  5
12E6
331
CD7
  5
CD9
331
D16
  5
D19
331
CA0
  5
CA2
331
C2A
  5
C2C
331
C61
  5
C63
331
1315
  5
1317
331
1354
  5
1356
331
1037
  5
1039
331
1276
  5
1278
331
12AD
  5
12AF
331
12EC
  5
12EE
331
1AC1
  5
1AC7
331
1BEE
  5
1BF2
331
CDF
  5
CE1
331
D1E
  5
D20
331
C32
  5
C34
331
C69
  5
C6B
331
131D
  5
131F
331
135C
  5
135E
331
1ECF
  5
1ED1
331
CE7
  5
CE9
331
D26
  5
D28
331
1325
  5
1327
331
1364
  5
1366
331
192B
  5
192F
331
1BAF
  5
1BB1
331
1BF6
  5
1BFA
331
1C9A
  5
1C9D
331
1EA0
  5
1EA2
331
1ED7
  5
1ED9
331
1E69
  5
1E6B
331
1CA2
  5
1CA4
331
1EA8
  5
1EAA
331
1EDF
  5
1EED
331
1EEF
  5
1EF1
331
127E
  5
1280
331
12B5
  5
12B7
331
12F4
  5
12F6
331
C3A
  5
C3C
331
C71
  5
C73
331
CB0
  5
CB2
331
1286
  5
1288
331
12BD
  5
12BF
331
12FC
  5
12FE
331
CEF
  5
CF1
331
D2E
  5
D31
331
CB8
  5
CBA
331
C03
  5
C05
331
C42
  5
C44
331
C79
  5
C7B
331
132D
  5
132F
331
136C
  5
136E
331
1304
  5
1307
331
128E
  5
1290
331
12C5
  5
12C7
331
1EB0
  5
1EB2
331
CC0
  5
CC2
331
CF7
  5
CF9
331
D36
  5
D38
331
C4A
  5
C4C
331
C81
  5
C83
331
C0B
  5
C0D
331
1374
  5
1376
331
1BBF
  5
1BC1
331
12CD
  5
12CF
331
1CAA
  5
1CAC
331
1E71
  5
1E73
331
1EB8
  5
1EBA
331
1AA2
  5
1ABD
331
137C
  5
137E
331
19C3
  5
19C5
331
CFF
  5
D01
331
C13
  5
C15
331
C89
  5
C8B
331
133D
  5
133F
331
1CB2
  5
1CB4
331
1E79
  5
1E7E
331
1EF7
  5
2097
331
19CB
  5
1A12
331
D07
  5
D09
331
1345
  5
1347
331
1CBA
  5
1CBC
331
1EC0
  5
1EC2
331
2097
  5
2142
331
1E89
  5
1E8B
331
E2A
  5
ED7
331
1296
  5
1298
331
12D5
  5
12D7
331
C1B
  5
C1D
331
C52
  5
C54
331
C91
  5
C93
331
12DD
  5
12DF
331
1267
  5
1269
331
129E
  5
12A0
331
1A13
  5
1A15
331
CD0
  5
CD2
331
D0F
  5
D11
331
C99
  5
C9B
331
C23
  5
C25
331
C5A
  5
C5C
331
130E
  5
1310
331
134D
  5
134F
331
126F
  5
1271
331
12A6
  5
12A8
331
12E5
  5
12E7
331
CD8
  5
CDA
331
CA1
  5
CA3
331
C2B
  5
C2D
331
C62
  5
C64
331
1316
  5
1318
331
1355
  5
1357
331
1277
  5
1279
331
12AE
  5
12B0
331
12ED
  5
12EF
331
1C8B
  5
1C90
331
1EC8
  5
1ECA
331
CE0
  5
CE2
331
D1F
  5
D21
331
BF4
  5
BF4
331
C33
  5
C35
331
C6A
  5
C6C
331
CA9
  5
CAB
331
131E
  5
1320
331
135D
  5
135F
331
1924
  5
1926
331
1ED0
  5
1ED2
331
D27
  5
D29
331
1326
  5
1328
331
1365
  5
1367
331
1BB0
  5
1BB2
331
1BF7
  5
1BFB
331
1EA1
  5
1EA3
331
1ED8
  5
1EDA
331
1CA3
  5
1CA5
331
1E6A
  5
1E6C
331
1EA9
  5
1EAB
331
1038
  5
1048
331
1048
  5
104A
331
127F
  5
1281
331
12B6
  5
12B8
331
12F5
  5
12F7
331
CE8
  5
CEA
331
C3B
  5
C3D
331
C72
  5
C74
331
CB1
  5
CB3
331
1287
  5
1289
331
12BE
  5
12C0
331
12FD
  5
12FF
331
1A83
  5
1A85
331
CF0
  5
CF2
331
D2F
  5
D32
331
C04
  5
C06
331
C43
  5
C45
331
C7A
  5
C7C
331
CB9
  5
CBB
331
132E
  5
1330
331
136D
  5
136F
331
1305
  5
1308
331
F52
  5
F58
331
128F
  5
1291
331
12C6
  5
12C8
331
1EB1
  5
1EB3
331
1BC0
  5
1BC2
331
1375
  5
1377
331
1CAB
  5
1CAD
331
1E72
  5
1E74
331
1EF0
  5
1EF2
331
C4B
  5
C4D
331
C82
  5
C84
331
C0C
  5
C0E
331
12CE
  5
12D0
331
CC1
  5
CC3
331
CF8
  5
CFA
331
D37
  5
D39
331
1EB9
  5
1EBB
331
137D
  5
1922
331
19C4
  5
19C8
331
133E
  5
1340
331
1CB3
  5
1CB5
331
1E7A
  5
1E82
331
C14
  5
C16
331
C8A
  5
C8C
331
D00
  5
D02
331
1EC1
  5
1EC3
331
1346
  5
1348
331
1CBB
  5
1CBD
331
1E82
  5
1E87
331
2098
  5
2143
331
1E8A
  5
1E8C
331
1297
  5
1299
331
12D6
  5
12D8
331
C1C
  5
C1E
331
C53
  5
C55
331
C92
  5
C94
331
12DE
  5
12E0
331
1268
  5
126A
331
129F
  5
12A1
331
CC9
  5
CCC
331
D08
  5
D0A
331
1A14
  5
1A17
331
130F
  5
1311
331
134E
  5
1350
331
C5B
  5
C5D
331
C24
  5
C26
331
C9A
  5
C9C
331
1270
  5
1272
331
12A7
  5
12A9
331
12E6
  5
12E8
331
CD1
  5
CD3
331
D10
  5
D12
331
1317
  5
1319
331
1356
  5
1358
331
1C8C
  5
1C96
331
1E92
  5
1E9A
331
1EC9
  5
1ECB
331
CA2
  5
CA4
331
C2C
  5
C2E
331
C63
  5
C65
331
12AF
  5
12B1
331
12EE
  5
12F0
331
CD9
  5
CDB
331
D18
  5
D1A
331
1BF0
  5
1BF3
331
131F
  5
1321
331
135E
  5
1360
331
1925
  5
1927
331
1E9A
  5
1E9C
331
1ED1
  5
1ED3
331
BF5
  5
BF6
331
C34
  5
C36
331
C6B
  5
C6D
331
CAA
  5
CAC
331
CE1
  5
CE3
331
D20
  5
D22
331
1327
  5
1329
331
1366
  5
1368
331
192D
  5
1930
331
1BB1
  5
1BB3
331
1C9C
  5
1C9E
331
1E63
  5
1E65
331
1EA2
  5
1EA4
331
1ED9
  5
1EDB
331
1CA4
  5
1CA6
331
1E6B
  5
1E6D
331
1EAA
  5
1EAC
331
E04
  5
E8D
331
1039
  5
1049
331
1278
  5
127A
331
1049
  5
104B
331
1280
  5
1282
331
12B7
  5
12B9
331
12F6
  5
12F8
331
C3C
  5
C3E
331
C73
  5
C75
331
CB2
  5
CB4
331
1288
  5
128A
331
12BF
  5
12C1
331
12FE
  5
1300
331
CE9
  5
CEB
331
D28
  5
D2A
331
1A84
  5
1A86
331
132F
  5
1331
331
136E
  5
1370
331
C7B
  5
C7D
331
C05
  5
C07
331
C44
  5
C46
331
CBA
  5
CBC
331
12C7
  5
12C9
331
1EB2
  5
1EB4
331
1BC1
  5
1BC3
331
1337
  5
1339
331
1376
  5
1378
331
1CAC
  5
1CAE
331
1E73
  5
1E75
331
1EF1
  5
1EF3
331
D38
  5
D3B
331
C4C
  5
C4E
331
C83
  5
C85
331
C0D
  5
C0F
331
12CF
  5
12D1
331
CC2
  5
CC4
331
CF9
  5
CFB
331
137E
  5
1924
331
19C5
  5
19C9
331
1BC9
  5
1BEE
331
1CB4
  5
1CB6
331
1EBA
  5
1EBC
331
C15
  5
C17
331
C8B
  5
C8D
331
D01
  5
D03
331
1EC2
  5
1EC4
331
1347
  5
1349
331
1CBC
  5
1E63
331
1E83
  5
1E88
331
1E8B
  5
1E8D
331
1290
  5
1292
331
1298
  5
129A
331
12D7
  5
12D9
331
1308
  5
130A
331
C1D
  5
C1F
331
C54
  5
C56
331
C93
  5
C95
331
12DF
  5
12E1
331
1269
  5
126B
331
12A0
  5
12A2
331
D09
  5
D0B
331
1A15
  5
1A2E
331
1310
  5
1312
331
134F
  5
1351
331
C5C
  5
C5E
331
C25
  5
C27
331
C9B
  5
C9D
331
1271
  5
1273
331
12A8
  5
12AA
331
12E7
  5
12E9
331
CD2
  5
CD4
331
D11
  5
D13
331
1318
  5
131A
331
1357
  5
1359
331
1ECA
  5
1ECC
331
C2D
  5
C2F
331
C64
  5
C66
331
CA3
  5
CA5
331
12EF
  5
12F1
331
CDA
  5
CDC
331
D19
  5
D1B
331
1AC4
  5
1AC8
331
1320
  5
1322
331
135F
  5
1361
331
1926
  5
1928
331
1E9B
  5
1EA0
331
1ED2
  5
1ED4
331
CE2
  5
CE4
331
D21
  5
D23
331
BF6
  5
BF8
331
C35
  5
C37
331
C6C
  5
C6E
331
CAB
  5
CAD
331
1E64
  5
1E66
331
1367
  5
1369
331
1BB2
  5
1BB4
331
1C9D
  5
1CA2
331
1EA3
  5
1EA5
331
1EDA
  5
1EDC
331
1CA5
  5
1CA7
331
1E6C
  5
1E6E
331
1EAB
  5
1EAD
331
1279
  5
127B
331
12B0
  5
12B2
331
12B8
  5
12BA
331
12F7
  5
12F9
331
104A
  5
104F
331
1281
  5
1283
331
1328
  5
132A
331
CEA
  5
CEC
331
D29
  5
D2B
331
1289
  5
128B
331
12C0
  5
12C2
331
12FF
  5
1301
331
C3D
  5
C3F
331
C74
  5
C76
331
CB3
  5
CB5
331
1A85
  5
1A9F
331
1330
  5
1332
331
136F
  5
1371
331
1BBA
  5
1BBE
331
D31
  5
D33
331
C7C
  5
C7E
331
1307
  5
1309
331
12C8
  5
12CA
331
C06
  5
C08
331
C45
  5
C47
331
CBB
  5
CBD
331
1EB3
  5
1EB5
331
1BC2
  5
1BC4
331
1338
  5
133A
331
1377
  5
1379
331
1CAD
  5
1CAF
331
1E74
  5
1E76
331
1EF2
  5
1EF4
331
D39
  5
D4A
331
CC3
  5
CC5
331
CFA
  5
CFC
331
C4D
  5
C4F
331
C0E
  5
C10
331
C84
  5
C86
331
1340
  5
1342
331
1CB5
  5
1CB7
331
1EBB
  5
1EBD
331
D02
  5
D04
331
C16
  5
C18
331
C8C
  5
C8E
331
1CBD
  5
1E64
331
1EC3
  5
1EC5
331
1C86
  5
1C88
331
1E8C
  5
1E8E
331
1291
  5
1293
331
12D0
  5
12D2
331
1299
  5
129B
331
12D8
  5
12DA
331
1309
  5
130B
331
1348
  5
134A
331
CCB
  5
CCD
331
D0A
  5
D0C
331
C94
  5
C96
331
12E0
  5
12E2
331
12A1
  5
12A3
331
C1E
  5
C20
331
C55
  5
C57
331
DDE
  5
E2A
331
126A
  5
126C
331
1311
  5
1313
331
1350
  5
1352
331
CD3
  5
CD5
331
D12
  5
D14
331
C5D
  5
C5F
331
12A9
  5
12AB
331
12E8
  5
12EA
331
1272
  5
1274
331
C26
  5
C28
331
C9C
  5
C9E
331
1ABD
  5
1AC1
331
1319
  5
131B
331
1358
  5
135A
331
1ECB
  5
1ECD
331
CDB
  5
CDD
331
D1A
  5
D1C
331
C2E
  5
C30
331
C65
  5
C67
331
CA4
  5
CA6
331
1BF2
  5
1BF4
331
1321
  5
1323
331
1360
  5
1362
331
1927
  5
1929
331
1C96
  5
1C9C
331
1E9C
  5
1EA1
331
1ED3
  5
1ED5
331
2142
  5
BF7
331
CE3
  5
CE5
331
D22
  5
D24
331
BF7
  5
C02
331
C36
  5
C38
331
C6D
  5
C6F
331
CAC
  5
CAE
331
1E65
  5
1E67
331
1A2E
  5
1A84
331
192F
  5
1931
331
1BB3
  5
1BBA
331
1C9E
  5
1CA3
331
1EA4
  5
1EA6
331
1EDB
  5
1EDD
331
1CA6
  5
1CA8
331
1E6D
  5
1E6F
331
1EAC
  5
1EAE
331
12B1
  5
12B3
331
12F0
  5
12F2
331
127A
  5
127C
331
12B9
  5
12BB
331
12F8
  5
12FA
331
104B
  5
10AC
331
1282
  5
1284
331
1329
  5
132B
331
1368
  5
136A
331
D2A
  5
D2C
331
1300
  5
1302
331
128A
  5
128C
331
12C1
  5
12C3
331
C3E
  5
C40
331
C75
  5
C77
331
CB4
  5
CB6
331
1A86
  5
1AA0
331
1331
  5
1333
331
1370
  5
1372
331
D32
  5
D34
331
C46
  5
C48
331
12C9
  5
12CB
331
F55
  5
1006
331
C07
  5
C09
331
C7D
  5
C7F
331
CBC
  5
CBE
331
1EB4
  5
1EB6
331
1378
  5
137A
331
1BC3
  5
1BC5
331
1339
  5
133B
331
1CAE
  5
1CB0
331
1E75
  5
1E77
331
1EF3
  5
1EF5
331
CC4
  5
CC6
331
CFB
  5
CFD
331
C4E
  5
C50
331
C0F
  5
C11
331
C85
  5
C87
331
1341
  5
1343
331
1CB6
  5
1CB8
331
1EBC
  5
1EBE
331
1EFB
  5
2098
331
D03
  5
D05
331
C17
  5
C19
331
C8D
  5
C8F
331
1EC4
  5
1EC6
331
1C87
  5
1C8B
331
1E8D
  5
1E92
331
1292
  5
1294
331
12D1
  5
12D3
331
129A
  5
129C
331
12D9
  5
12DB
331
1263
  5
1265
331
130A
  5
130C
331
1349
  5
134B
331
CCC
  5
CCE
331
D0B
  5
D0D
331
C95
  5
C97
331
12A2
  5
12A4
331
12E1
  5
12E3
331
C1F
  5
C21
331
C56
  5
C58
331
126B
  5
126D
331
1A17
  5
1A83
331
1312
  5
1314
331
1351
  5
1353
331
CD4
  5
CD6
331
D13
  5
D15
331
12AA
  5
12AC
331
12E9
  5
12EB
331
1273
  5
1275
331
C27
  5
C29
331
C5E
  5
C60
331
C9D
  5
C9F
331
1ABE
  5
1AC4
331
131A
  5
131C
331
1359
  5
135B
331
1ECC
  5
1ECE
331
CDC
  5
CDE
331
D1B
  5
D1D
331
C2F
  5
C31
331
C66
  5
C68
331
CA5
  5
CA7
331
1ED4
  5
1ED6
331
2143
  5
BF5
331
CE4
  5
CE6
331
D23
  5
D25
331
C37
  5
C39
331
C6E
  5
C70
331
CAD
  5
CAF
331
1322
  5
1324
331
1361
  5
1363
331
1928
  5
192A
331
1BF3
  5
1BF5
331
1E66
  5
1E68
331
1EA5
  5
1EA7
331
1EDC
  5
1EDE
331
1BB4
  5
1BBC
331
1BFB
  5
1C87
331
1E6E
  5
1E70
331
1CA7
  5
1CA9
331
1EAD
  5
1EAF
331
1EEC
  5
1EEE
331
12B2
  5
12B4
331
12F1
  5
12F3
331
127B
  5
127D
331
12BA
  5
12BC
331
12F9
  5
12FB
331
BF8
  5
C03
331
1283
  5
1285
331
D2B
  5
D2D
331
1301
  5
1303
331
128B
  5
128D
331
12C2
  5
12C4
331
C3F
  5
C41
331
C76
  5
C78
331
CB5
  5
CB7
331
10AC
  5
1264
331
132A
  5
132C
331
1369
  5
136B
331
1930
  5
1955
331
CF4
  5
CF6
331
D33
  5
D35
331
CBD
  5
CC0
331
12CA
  5
12CC
331
C08
  5
C0A
331
C47
  5
C49
331
C7E
  5
C80
331
1332
  5
1334
331
1371
  5
1373
331
1BBC
  5
1BBF
331
1EB5
  5
1EB7
331
1CAF
  5
1CB1
331
1E76
  5
1E78
331
1EF4
  5
1EF6
331
1A9F
  5
1AA1
331
1379
  5
137B
331
1BC4
  5
1BC6
331
D3B
  5
D59
331
CC5
  5
CC7
331
CFC
  5
CFE
331
C4F
  5
C51
331
C10
  5
C12
331
C86
  5
C89
331
133A
  5
133C
331
1EBD
  5
1EBF
331
1CB7
  5
1CB9
331
1E7E
  5
1E83
331
19C8
  5
19CA
331
D04
  5
D06
331
C8E
  5
C90
331
1342
  5
1344
  0
SORTENTSTABLE
  5
1BE9
102
{ACAD_REACTORS
330
1BE8
102
}
330
1BE8
100
AcDbSortentsTable
330
1BE3
  0
DIMASSOC
  5
D7A
102
{ACAD_REACTORS
330
D79
102
}
330
D79
100
AcDbDimAssoc
330
D6B
 90
        3
 70
     0
 71
     0
  1
AcDbOsnapPointRef
 72
     1
331
D1D
 73
     0
 91
        0
 40
0.0
 10
0.0
 20
0.0
 30
2.000000000000000E+50
 75
     0
  1
AcDbOsnapPointRef
 72
     1
331
D20
 73
     0
 91
        0
 40
0.0
 10
0.0
 20
0.0
 30
2.000000000000000E+50
 75
     0
  0
DIMASSOC
  5
DA0
102
{ACAD_REACTORS
330
D9F
102
}
330
D9F
100
AcDbDimAssoc
330
D92
 90
        3
 70
     0
 71
     0
  1
AcDbOsnapPointRef
 72
    13
331
CF4
 73
     0
 91
        0
 40
0.0
 10
0.0
 20
0.0
 30
2.000000000000000E+50
 75
     0
  1
AcDbOsnapPointRef
 72
    13
331
D18
 73
     0
 91
        0
 40
0.0
 10
0.0
 20
0.0
 30
2.000000000000000E+50
 75
     0
  0
DIMASSOC
  5
DC6
102
{ACAD_REACTORS
330
DC5
102
}
330
DC5
100
AcDbDimAssoc
330
DB8
 90
        3
 70
     0
 71
     0
  1
AcDbOsnapPointRef
 72
    13
331
D18
 73
     0
 91
        0
 40
0.0
 10
0.0
 20
0.0
 30
2.000000000000000E+50
 75
     0
  1
AcDbOsnapPointRef
 72
     1
331
D15
 73
     0
 91
        0
 40
0.0
 10
0.0
 20
0.0
 30
2.000000000000000E+50
 75
     0
  0
DIMASSOC
  5
DEC
102
{ACAD_REACTORS
330
DEB
102
}
330
DEB
100
AcDbDimAssoc
330
DDE
 90
        3
 70
     0
 71
     0
  1
AcDbOsnapPointRef
 72
    13
331
CF4
 73
     0
 91
        0
 40
0.0
 10
0.0
 20
0.0
 30
2.000000000000000E+50
 75
     0
  1
AcDbOsnapPointRef
 72
     1
331
D15
 73
     0
 91
        0
 40
0.0
 10
0.0
 20
0.0
 30
2.000000000000000E+50
 75
     0
  0
DIMASSOC
  5
E12
102
{ACAD_REACTORS
330
E11
102
}
330
E11
100
AcDbDimAssoc
330
E04
 90
        3
 70
     0
 71
     0
  1
AcDbOsnapPointRef
 72
     1
331
D15
 73
     0
 91
        0
 40
0.0
 10
0.0
 20
0.0
 30
2.000000000000000E+50
 75
     0
  1
AcDbOsnapPointRef
 72
    13
331
D15
 73
     0
 91
        0
 40
0.0
 10
0.0
 20
0.0
 30
2.000000000000000E+50
 75
     0
  0
DIMASSOC
  5
10BA
102
{ACAD_REACTORS
330
10B9
102
}
330
10B9
100
AcDbDimAssoc
330
10AC
 90
        3
 70
     0
 71
     0
  1
AcDbOsnapPointRef
 72
    13
331
C65
 73
     0
 91
        0
 40
0.0
 10
0.0
 20
0.0
 30
2.000000000000000E+50
 75
     0
  1
AcDbOsnapPointRef
 72
    13
331
BF8
 73
     0
 91
        0
 40
0.0
 10
0.0
 20
0.0
 30
2.000000000000000E+50
 75
     0
  0
DIMASSOC
  5
2332
102
{ACAD_REACTORS
330
2331
102
}
330
2331
100
AcDbDimAssoc
330
2322
 90
        3
 70
     0
 71
     0
  1
AcDbOsnapPointRef
 72
    13
331
ED7
 73
     0
 91
        0
 40
0.0
 10
0.0
 20
0.0
 30
2.000000000000000E+50
 75
     0
  1
AcDbOsnapPointRef
 72
     1
331
ED7
 73
     0
 91
        0
 40
0.0
 10
0.0
 20
0.0
 30
2.000000000000000E+50
 75
     0
  0
DIMASSOC
  5
236D
102
{ACAD_REACTORS
330
236C
102
}
330
236C
100
AcDbDimAssoc
330
235D
 90
        3
 70
     0
 71
     0
  1
AcDbOsnapPointRef
 72
    13
331
133D
 73
     0
 91
        0
 40
0.0
 10
0.0
 20
0.0
 30
2.000000000000000E+50
 75
     0
  1
AcDbOsnapPointRef
 72
     1
331
133D
 73
     0
 91
        0
 40
0.0
 10
0.0
 20
0.0
 30
2.000000000000000E+50
 75
     0
  0
LAYOUT
  5
22
102
{ACAD_XDICTIONARY
360
238D
102
}
102
{ACAD_REACTORS
330
1A
102
}
330
1A
100
AcDbPlotSettings
  1

  2
\\RD\EPSON Stylus C63 Series單色
  4
A4
  6

 40
3.757083177566528
 41
3.757076978683471
 42
3.757080078125
 43
3.757080078125
 44
209.9733276367187
 45
296.9683227539062
 46
0.0
 47
0.0
 48
0.0
 49
0.0
140
0.0
141
0.0
142
1.0
143
0.3405120737814363
 70
 11952
 72
     1
 73
     0
 74
     0
  7
單色出圖.ctb
 75
     0
147
2.936753428137963
148
-2047.07469463503
149
-1261.649717473083
100
AcDbLayout
  1
Model
 70
     1
 71
     0
 10
0.0
 20
0.0
 11
12.0
 21
9.0
 12
0.0
 22
0.0
 32
0.0
 14
0.0
 24
0.0
 34
0.0
 15
0.0
 25
0.0
 35
0.0
146
0.0
 13
0.0
 23
0.0
 33
0.0
 16
1.0
 26
0.0
 36
0.0
 17
0.0
 27
1.0
 37
0.0
 76
     0
330
1F
1001
ACAD_PSEXT
1000
\\RD\EPSON Stylus C63 Series單色
1000
EPSON Stylus C63 Series
1000
\\RD
1000

1070
     0
  0
LAYOUT
  5
1E
102
{ACAD_XDICTIONARY
360
238B
102
}
102
{ACAD_REACTORS
330
1A
102
}
330
1A
100
AcDbPlotSettings
  1

  2

  4

  6

 40
0.0
 41
0.0
 42
0.0
 43
0.0
 44
0.0
 45
0.0
 46
0.0
 47
0.0
 48
0.0
 49
0.0
140
0.0
141
0.0
142
1.0
143
1.0
 70
   688
 72
     0
 73
     0
 74
     5
  7
單色出圖.ctb
 75
    16
147
1.0
148
0.0
149
0.0
100
AcDbLayout
  1
配置1
 70
     1
 71
     1
 10
0.0
 20
0.0
 11
420.0
 21
297.0
 12
0.0
 22
0.0
 32
0.0
 14
1.000000000000000E+20
 24
1.000000000000000E+20
 34
1.000000000000000E+20
 15
-1.000000000000000E+20
 25
-1.000000000000000E+20
 35
-1.000000000000000E+20
146
0.0
 13
0.0
 23
0.0
 33
0.0
 16
1.0
 26
0.0
 36
0.0
 17
0.0
 27
1.0
 37
0.0
 76
     0
330
1B
  0
LAYOUT
  5
26
102
{ACAD_XDICTIONARY
360
238F
102
}
102
{ACAD_REACTORS
330
1A
102
}
330
1A
100
AcDbPlotSettings
  1

  2

  4

  6

 40
0.0
 41
0.0
 42
0.0
 43
0.0
 44
0.0
 45
0.0
 46
0.0
 47
0.0
 48
0.0
 49
0.0
140
0.0
141
0.0
142
1.0
143
1.0
 70
   688
 72
     0
 73
     0
 74
     5
  7
單色出圖.ctb
 75
    16
147
1.0
148
0.0
149
0.0
100
AcDbLayout
  1
配置2
 70
     1
 71
     2
 10
0.0
 20
0.0
 11
12.0
 21
9.0
 12
0.0
 22
0.0
 32
0.0
 14
0.0
 24
0.0
 34
0.0
 15
0.0
 25
0.0
 35
0.0
146
0.0
 13
0.0
 23
0.0
 33
0.0
 16
1.0
 26
0.0
 36
0.0
 17
0.0
 27
1.0
 37
0.0
 76
     0
330
23
  0
MLINESTYLE
  5
18
102
{ACAD_REACTORS
330
17
102
}
330
17
100
AcDbMlineStyle
  2
STANDARD
 70
     0
  3

 62
   256
 51
90.0
 52
90.0
 71
     2
 49
0.5
 62
   256
  6
BYLAYER
 49
-0.5
 62
   256
  6
BYLAYER
  0
ACDBPLACEHOLDER
  5
F
102
{ACAD_REACTORS
330
E
102
}
330
E
  0
TABLESTYLE
  5
11B
102
{ACAD_REACTORS
330
11A
102
}
330
11A
100
AcDbTableStyle
  3
Standard
 70
     0
 71
     0
 40
1.5
 41
1.5
280
     0
281
     0
  7
STANDARD
140
4.5
170
     2
 62
     0
 63
     7
283
     0
274
    -2
284
     1
 64
     0
275
    -2
285
     1
 65
     0
276
    -2
286
     1
 66
     0
277
    -2
287
     1
 67
     0
278
    -2
288
     1
 68
     0
279
    -2
289
     1
 69
     0
  7
STANDARD
140
6.0
170
     5
 62
     0
 63
     7
283
     0
274
    -2
284
     1
 64
     0
275
    -2
285
     1
 65
     0
276
    -2
286
     1
 66
     0
277
    -2
287
     1
 67
     0
278
    -2
288
     1
 68
     0
279
    -2
289
     1
 69
     0
  7
STANDARD
140
4.5
170
     5
 62
     0
 63
     7
283
     0
274
    -2
284
     1
 64
     0
275
    -2
285
     1
 65
     0
276
    -2
286
     1
 66
     0
277
    -2
287
     1
 67
     0
278
    -2
288
     1
 68
     0
279
    -2
289
     1
 69
     0
  0
DICTIONARYVAR
  5
138
102
{ACAD_REACTORS
330
94
102
}
330
94
100
DictionaryVariables
280
     0
  1
STANDARD
  0
DICTIONARYVAR
  5
96
102
{ACAD_REACTORS
330
94
102
}
330
94
100
DictionaryVariables
280
     0
  1
2
  0
DICTIONARYVAR
  5
95
102
{ACAD_REACTORS
330
94
102
}
330
94
100
DictionaryVariables
280
     0
  1
0
  0
DICTIONARYVAR
  5
2282
102
{ACAD_REACTORS
330
94
102
}
330
94
100
DictionaryVariables
280
     0
  1

  0
DICTIONARY
  5
1B5
102
{ACAD_REACTORS
330
5B
102
}
330
5B
100
AcDbDictionary
281
     1
  0
DICTIONARY
  5
61
102
{ACAD_REACTORS
330
5B
102
}
330
5B
100
AcDbDictionary
281
     1
  0
XRECORD
  5
123
102
{ACAD_REACTORS
330
5B
102
}
330
5B
100
AcDbXrecord
280
     1
 90
-1023410169
  0
DICTIONARY
  5
238D
330
22
100
AcDbDictionary
280
     1
281
     1
  3
ACAD_XREC_ROUNDTRIP
360
238E
  0
DICTIONARY
  5
238B
330
1E
100
AcDbDictionary
280
     1
281
     1
  3
ACAD_XREC_ROUNDTRIP
360
238C
  0
DICTIONARY
  5
238F
330
26
100
AcDbDictionary
280
     1
281
     1
  3
ACAD_XREC_ROUNDTRIP
360
2390
  0
XRECORD
  5
238E
102
{ACAD_REACTORS
330
238D
102
}
330
238D
100
AcDbXrecord
280
     1
102
SHADEPLOT
 70
     0
102
SHADEPLOTRESLEVEL
 70
     2
102
SHADEPLOTCUSTOMDPI
 70
   300
  0
XRECORD
  5
238C
102
{ACAD_REACTORS
330
238B
102
}
330
238B
100
AcDbXrecord
280
     1
102
SHADEPLOT
 70
     0
102
SHADEPLOTRESLEVEL
 70
     2
102
SHADEPLOTCUSTOMDPI
 70
   300
  0
XRECORD
  5
2390
102
{ACAD_REACTORS
330
238F
102
}
330
238F
100
AcDbXrecord
280
     1
102
SHADEPLOT
 70
     0
102
SHADEPLOTRESLEVEL
 70
     2
102
SHADEPLOTCUSTOMDPI
 70
   300
  0
ENDSEC
  0
EOF
