  0
SECTION
  2
HEADER
  9
$ACADVER
  1
AC1015
  9
$ACADMAINTVER
 70
    20
  9
$DWGCODEPAGE
  3
ANSI_950
  9
$INSBASE
 10
0.0
 20
0.0
 30
0.0
  9
$EXTMIN
 10
26.6034849922014
 20
198.4211344291798
 30
-0.0000000000000036
  9
$EXTMAX
 10
359.3534849922014
 20
440.4211344291797
 30
158.5798481696603
  9
$LIMMIN
 10
0.0
 20
0.0
  9
$LIMMAX
 10
420.0
 20
297.0
  9
$ORTHOMODE
 70
     0
  9
$REGENMODE
 70
     1
  9
$FILLMODE
 70
     1
  9
$QTEXTMODE
 70
     0
  9
$MIRRTEXT
 70
     1
  9
$LTSCALE
 40
1.0
  9
$ATTMODE
 70
     1
  9
$TEXTSIZE
 40
3.0
  9
$TRACEWID
 40
1.0
  9
$TEXTSTYLE
  7
STANDARD
  9
$CLAYER
  8
0
  9
$CELTYPE
  6
ByLayer
  9
$CECOLOR
 62
   256
  9
$CELTSCALE
 40
1.0
  9
$DISPSILH
 70
     0
  9
$DIMSCALE
 40
1.0
  9
$DIMASZ
 40
3.0
  9
$DIMEXO
 40
1.0
  9
$DIMDLI
 40
8.0
  9
$DIMRND
 40
0.0
  9
$DIMDLE
 40
0.0
  9
$DIMEXE
 40
1.5
  9
$DIMTP
 40
0.1
  9
$DIMTM
 40
0.1
  9
$DIMTXT
 40
3.5
  9
$DIMCEN
 40
0.0
  9
$DIMTSZ
 40
0.0
  9
$DIMTOL
 70
     0
  9
$DIMLIM
 70
     0
  9
$DIMTIH
 70
     0
  9
$DIMTOH
 70
     0
  9
$DIMSE1
 70
     0
  9
$DIMSE2
 70
     0
  9
$DIMTAD
 70
     1
  9
$DIMZIN
 70
     8
  9
$DIMBLK
  1

  9
$DIMASO
 70
     1
  9
$DIMSHO
 70
     1
  9
$DIMPOST
  1

  9
$DIMAPOST
  1
"
  9
$DIMALT
 70
     0
  9
$DIMALTD
 70
     2
  9
$DIMALTF
 40
0.0393701
  9
$DIMLFAC
 40
1.0
  9
$DIMTOFL
 70
     1
  9
$DIMTVP
 40
0.0
  9
$DIMTIX
 70
     0
  9
$DIMSOXD
 70
     0
  9
$DIMSAH
 70
     0
  9
$DIMBLK1
  1

  9
$DIMBLK2
  1

  9
$DIMSTYLE
  2
AM_ISO
  9
$DIMCLRD
 70
   256
  9
$DIMCLRE
 70
   256
  9
$DIMCLRT
 70
   256
  9
$DIMTFAC
 40
0.6
  9
$DIMGAP
 40
0.7
  9
$DIMJUST
 70
     0
  9
$DIMSD1
 70
     0
  9
$DIMSD2
 70
     0
  9
$DIMTOLJ
 70
     0
  9
$DIMTZIN
 70
     8
  9
$DIMALTZ
 70
     0
  9
$DIMALTTZ
 70
     0
  9
$DIMUPT
 70
     0
  9
$DIMDEC
 70
     2
  9
$DIMTDEC
 70
     8
  9
$DIMALTU
 70
     2
  9
$DIMALTTD
 70
     2
  9
$DIMTXSTY
  7
STANDARD
  9
$DIMAUNIT
 70
     0
  9
$DIMADEC
 70
     0
  9
$DIMALTRND
 40
0.0
  9
$DIMAZIN
 70
     2
  9
$DIMDSEP
 70
    46
  9
$DIMATFIT
 70
     3
  9
$DIMFRAC
 70
     0
  9
$DIMLDRBLK
  1

  9
$DIMLUNIT
 70
     2
  9
$DIMLWD
 70
    -1
  9
$DIMLWE
 70
    -1
  9
$DIMTMOVE
 70
     0
  9
$LUNITS
 70
     2
  9
$LUPREC
 70
     2
  9
$SKETCHINC
 40
1.0
  9
$FILLETRAD
 40
2.5
  9
$AUNITS
 70
     0
  9
$AUPREC
 70
     0
  9
$MENU
  1
.
  9
$ELEVATION
 40
0.0
  9
$PELEVATION
 40
0.0
  9
$THICKNESS
 40
0.0
  9
$LIMCHECK
 70
     0
  9
$CHAMFERA
 40
2.5
  9
$CHAMFERB
 40
2.5
  9
$CHAMFERC
 40
20.0
  9
$CHAMFERD
 40
0.0
  9
$SKPOLY
 70
     0
  9
$TDCREATE
 40
2454111.693551250
  9
$TDUCREATE
 40
2454111.360217917
  9
$TDUPDATE
 40
2456013.414316216
  9
$TDUUPDATE
 40
2456013.080982882
  9
$TDINDWG
 40
0.4019579977
  9
$TDUSRTIMER
 40
0.4019579977
  9
$USRTIMER
 70
     1
  9
$ANGBASE
 50
0.0
  9
$ANGDIR
 70
     0
  9
$PDMODE
 70
     0
  9
$PDSIZE
 40
0.0
  9
$PLINEWID
 40
0.0
  9
$SPLFRAME
 70
     0
  9
$SPLINETYPE
 70
     6
  9
$SPLINESEGS
 70
     8
  9
$HANDSEED
  5
302B
  9
$SURFTAB1
 70
     6
  9
$SURFTAB2
 70
     6
  9
$SURFTYPE
 70
     6
  9
$SURFU
 70
     6
  9
$SURFV
 70
     6
  9
$UCSBASE
  2

  9
$UCSNAME
  2

  9
$UCSORG
 10
0.0
 20
0.0
 30
0.0
  9
$UCSXDIR
 10
1.0
 20
0.0
 30
0.0
  9
$UCSYDIR
 10
0.0
 20
1.0
 30
0.0
  9
$UCSORTHOREF
  2

  9
$UCSORTHOVIEW
 70
     0
  9
$UCSORGTOP
 10
0.0
 20
0.0
 30
0.0
  9
$UCSORGBOTTOM
 10
0.0
 20
0.0
 30
0.0
  9
$UCSORGLEFT
 10
0.0
 20
0.0
 30
0.0
  9
$UCSORGRIGHT
 10
0.0
 20
0.0
 30
0.0
  9
$UCSORGFRONT
 10
0.0
 20
0.0
 30
0.0
  9
$UCSORGBACK
 10
0.0
 20
0.0
 30
0.0
  9
$PUCSBASE
  2

  9
$PUCSNAME
  2

  9
$PUCSORG
 10
0.0
 20
0.0
 30
0.0
  9
$PUCSXDIR
 10
1.0
 20
0.0
 30
0.0
  9
$PUCSYDIR
 10
0.0
 20
1.0
 30
0.0
  9
$PUCSORTHOREF
  2

  9
$PUCSORTHOVIEW
 70
     0
  9
$PUCSORGTOP
 10
0.0
 20
0.0
 30
0.0
  9
$PUCSORGBOTTOM
 10
0.0
 20
0.0
 30
0.0
  9
$PUCSORGLEFT
 10
0.0
 20
0.0
 30
0.0
  9
$PUCSORGRIGHT
 10
0.0
 20
0.0
 30
0.0
  9
$PUCSORGFRONT
 10
0.0
 20
0.0
 30
0.0
  9
$PUCSORGBACK
 10
0.0
 20
0.0
 30
0.0
  9
$USERI1
 70
     0
  9
$USERI2
 70
     0
  9
$USERI3
 70
     0
  9
$USERI4
 70
     0
  9
$USERI5
 70
     0
  9
$USERR1
 40
0.0
  9
$USERR2
 40
0.0
  9
$USERR3
 40
0.0
  9
$USERR4
 40
0.0
  9
$USERR5
 40
0.0
  9
$WORLDVIEW
 70
     1
  9
$SHADEDGE
 70
     3
  9
$SHADEDIF
 70
    70
  9
$TILEMODE
 70
     1
  9
$MAXACTVP
 70
    64
  9
$PINSBASE
 10
0.0
 20
0.0
 30
0.0
  9
$PLIMCHECK
 70
     0
  9
$PEXTMIN
 10
1.000000000000000E+20
 20
1.000000000000000E+20
 30
1.000000000000000E+20
  9
$PEXTMAX
 10
-1.000000000000000E+20
 20
-1.000000000000000E+20
 30
-1.000000000000000E+20
  9
$PLIMMIN
 10
0.0
 20
0.0
  9
$PLIMMAX
 10
420.0
 20
297.0
  9
$UNITMODE
 70
     0
  9
$VISRETAIN
 70
     1
  9
$PLINEGEN
 70
     0
  9
$PSLTSCALE
 70
     1
  9
$TREEDEPTH
 70
  3020
  9
$CMLSTYLE
  2
Standard
  9
$CMLJUST
 70
     0
  9
$CMLSCALE
 40
20.0
  9
$PROXYGRAPHICS
 70
     1
  9
$MEASUREMENT
 70
     1
  9
$CELWEIGHT
370
    -1
  9
$ENDCAPS
280
     0
  9
$JOINSTYLE
280
     0
  9
$LWDISPLAY
290
     0
  9
$INSUNITS
 70
     4
  9
$HYPERLINKBASE
  1

  9
$STYLESHEET
  1
彩色出圖.ctb
  9
$XEDIT
290
     1
  9
$CEPSNTYPE
380
     0
  9
$PSTYLEMODE
290
     1
  9
$FINGERPRINTGUID
  2
{9C7769CB-C5EF-408F-B8E4-EFA57DEE5958}
  9
$VERSIONGUID
  2
{0C3C150B-8AC3-47CA-9DE2-F0C64487EF4A}
  9
$EXTNAMES
290
     1
  9
$PSVPSCALE
 40
0.0
  9
$OLESTARTUP
290
     0
  0
ENDSEC
  0
SECTION
  2
CLASSES
  0
CLASS
  1
ACDBDICTIONARYWDFLT
  2
AcDbDictionaryWithDefault
  3
ObjectDBX Classes
 90
        0
280
     0
281
     0
  0
CLASS
  1
ACDBPLACEHOLDER
  2
AcDbPlaceHolder
  3
ObjectDBX Classes
 90
        0
280
     0
281
     0
  0
CLASS
  1
LAYOUT
  2
AcDbLayout
  3
ObjectDBX Classes
 90
        0
280
     0
281
     0
  0
CLASS
  1
ACME_DOCUMENT
  2
AcMeDbDoc
  3
AcMeServices
 90
        0
280
     0
281
     0
  0
CLASS
  1
AMGSETTINGSOBJ
  2
AmgSettingsObj
  3
"AcadM|Product Description: AutoCAD Mechanical 2000|Company: Autodesk"
 90
        0
280
     0
281
     0
  0
CLASS
  1
ACMESCOPE
  2
AcMeScope
  3
AcMeServices
 90
        0
280
     0
281
     0
  0
CLASS
  1
ACMECOMMANDHISTORY
  2
AcMeCommandHistory
  3
AcMeServices
 90
        0
280
     0
281
     0
  0
CLASS
  1
ACIMSYSVARMAN
  2
AcImSysVarManager
  3
AcMeServices
 90
        0
280
     0
281
     0
  0
CLASS
  1
ACIMREALSYSVAR
  2
AcImRealSysVar
  3
AcMeServices
 90
        0
280
     0
281
     0
  0
CLASS
  1
ACIMINTSYSVAR
  2
AcImIntSysVar
  3
AcMeServices
 90
        0
280
     0
281
     0
  0
CLASS
  1
ACMEDRAWINGMAN
  2
AcMeDrawingMan
  3
AcMeServices
 90
        0
280
     0
281
     0
  0
CLASS
  1
ACMEVIEW
  2
AcMeView
  3
AcMeServices
 90
        0
280
     0
281
     0
  0
CLASS
  1
ACDBENTITYCACHE
  2
AcMeEntityCache
  3
AcMeServices
 90
        0
280
     0
281
     0
  0
CLASS
  1
GSMANAGER
  2
AcMeGSManager
  3
AcMeServices
 90
        0
280
     0
281
     0
  0
CLASS
  1
AMDTINTERNALREACTOR
  2
AmdtInternalReactor
  3
AcMeServices
 90
        0
280
     0
281
     0
  0
CLASS
  1
ACMESTATEMGR
  2
AcMeStateMgr
  3
AcMeServices
 90
        0
280
     0
281
     0
  0
CLASS
  1
ACGREFMASTER
  2
AcGrefMaster
  3
AcAttribServices
 90
        0
280
     0
281
     0
  0
CLASS
  1
ACME_DATABASE
  2
AcMeDbDatabase
  3
AcMeServices
 90
        0
280
     0
281
     0
  0
CLASS
  1
ACRFINSADJUSTERMGR
  2
AcRfInsAdjusterMgr
  3
AcMeServices
 90
        0
280
     0
281
     0
  0
CLASS
  1
ACGREFACADMASTER
  2
AcGrefacadMaster
  3
AcGrefServices
 90
        0
280
     0
281
     0
  0
CLASS
  1
AMIMASTER
  2
AmiMaster
  3
AmiServices
 90
        0
280
     0
281
     0
  0
CLASS
  1
ACMDATADICTIONARY
  2
AcmDataDictionary
  3
"AcmSymBB|Product Description: AutoCAD Mechanical 2004 DX|Company: Autodesk"
 90
        0
280
     0
281
     0
  0
CLASS
  1
ACMDATAENTRYBLOCK
  2
AcmDataEntryBlock
  3
"AcmSymBB|Product Description: AutoCAD Mechanical 2004 DX|Company: Autodesk"
 90
    32768
280
     0
281
     0
  0
CLASS
  1
ACIMSTRSYSVAR
  2
AcImStrSysVar
  3
AcMeServices
 90
        0
280
     0
281
     0
  0
CLASS
  1
ACMSTANDARDISO
  2
AcmStandardISO
  3
"Amdt_StdImp|Product Description: AutoCAD Mechanical 2004 DX|Company: Autodesk"
 90
        0
280
     0
281
     0
  0
CLASS
  1
AMGOBJPROPCFG
  2
AmgObjPropCfg
  3
"AmgLay|Product Description: AutoCAD Mechanical 2000|Company: Autodesk"
 90
        1
280
     0
281
     0
  0
CLASS
  1
AMDTEDGESTANDARDISO
  2
AmdtEdgeStdISO
  3
"Amdt_StdImp|Product Description: AutoCAD Mechanical 2004 DX|Company: Autodesk"
 90
    32768
280
     0
281
     0
  0
CLASS
  1
ACMSURFSTANDARDISO
  2
AcmSurfTextStdISO
  3
"Amdt_StdImp|Product Description: AutoCAD Mechanical 2004 DX|Company: Autodesk"
 90
        0
280
     0
281
     0
  0
CLASS
  1
ACMFCFSTANDARDISO
  2
AcmFCFStdISO
  3
"Amdt_StdImp|Product Description: AutoCAD Mechanical 2004 DX|Company: Autodesk"
 90
        0
280
     0
281
     0
  0
CLASS
  1
ACMWELDSTANDARDISO
  2
AcmWeldingStdISO
  3
"Amdt_StdImp|Product Description: AutoCAD Mechanical 2004 DX|Company: Autodesk"
 90
        0
280
     0
281
     0
  0
CLASS
  1
ACMIDSTANDARDISO
  2
AcmIdStdISO
  3
"Amdt_StdImp|Product Description: AutoCAD Mechanical 2004 DX|Company: Autodesk"
 90
        0
280
     0
281
     0
  0
CLASS
  1
ACMDATUMSTANDARDISO
  2
AcmDatumStdISO
  3
"Amdt_StdImp|Product Description: AutoCAD Mechanical 2004 DX|Company: Autodesk"
 90
        0
280
     0
281
     0
  0
CLASS
  1
ACMBOMSTANDARDISO
  2
AcmBOMStdISO
  3
"Amdt_StdImp|Product Description: AutoCAD Mechanical 2004 DX|Company: Autodesk"
 90
        0
280
     0
281
     0
  0
CLASS
  1
ACMDETAILSTANDARDISO
  2
AmdtDetailSymStdISO
  3
"Amdt_StdImp|Product Description: AutoCAD Mechanical 2004 DX|Company: Autodesk"
 90
        0
280
     0
281
     0
  0
CLASS
  1
ACMSECTIONSTANDARDISO
  2
AmdtSectionSymStdISO
  3
"Amdt_StdImp|Product Description: AutoCAD Mechanical 2004 DX|Company: Autodesk"
 90
        0
280
     0
281
     0
  0
CLASS
  1
ACMCENTERLINESTANDARDISO
  2
AmdtCenterLineStdISO
  3
"Amdt_StdImp|Product Description: AutoCAD Mechanical 2004 DX|Company: Autodesk"
 90
        0
280
     0
281
     0
  0
CLASS
  1
ACMNOTESTANDARDISO
  2
AmdtNoteStdISO
  3
"Amdt_StdImp|Product Description: AutoCAD Mechanical 2004 DX|Company: Autodesk"
 90
        0
280
     0
281
     0
  0
CLASS
  1
ACAMGLAYSTD
  2
AcAmgLayStd
  3
"AcAmgLayStd|Product Description: AutoCAD Mechanical 2000|Company: Autodesk"
 90
        0
280
     0
281
     0
  0
CLASS
  1
ACAMGDIMSTD
  2
AcAmgDimStd
  3
"AcAmgDimStd|Product Description: AutoCAD Mechanical 2000|Company: Autodesk"
 90
        0
280
     0
281
     0
  0
CLASS
  1
ACAMGHOLECHARTSTDISO
  2
AcAmgHoleChartStdISO
  3
ACMSYMBB_MODULE_NAME
 90
        0
280
     0
281
     0
  0
CLASS
  1
ACAMGTITLESTD
  2
AcAmgTitleStd
  3
"TITLEAPP"
 90
        0
280
     0
281
     0
  0
CLASS
  1
LAYER_INDEX
  2
AcDbLayerIndex
  3
ObjectDBX Classes
 90
    32768
280
     0
281
     0
  0
CLASS
  1
IDBUFFER
  2
AcDbIdBuffer
  3
ObjectDBX Classes
 90
    32768
280
     0
281
     0
  0
CLASS
  1
DICTIONARYVAR
  2
AcDbDictionaryVar
  3
ObjectDBX Classes
 90
        0
280
     0
281
     0
  0
CLASS
  1
AM_DRAWING_MGR
  2
AcDmDwgMgr
  3
AcMechDwgViewMgmt
 90
        0
280
     0
281
     0
  0
CLASS
  1
AM_DWG_DOCUMENT
  2
AcDmDwgDocument
  3
AcMechDwgViewMgmt
 90
        0
280
     0
281
     0
  0
CLASS
  1
AM_DWG_SHEET
  2
AcDmSheet
  3
AcMechDwgViewMgmt
 90
        0
280
     0
281
     0
  0
CLASS
  1
AM_VIEWDIMPARMAP
  2
AcDmViewDimParMap
  3
AcMechDwgViewMgmt
 90
        0
280
     0
281
     0
  0
CLASS
  1
AM_DWGMGR_NAME
  2
AcDmDwgMgrName
  3
AcMechDwgViewMgmt
 90
        0
280
     0
281
     0
  0
CLASS
  1
AMDTMENUSTATEMGR
  2
AmdtMenuStateMgr
  3
McadcomServices
 90
        0
280
     0
281
     0
  0
CLASS
  1
AMDTMCOMMENUSTATE
  2
AmdtMcomMenuState
  3
McadcomServices
 90
        0
280
     0
281
     0
  0
CLASS
  1
MAPIAMMOUDLE
  2
MApiAmModule
  3
MApiAmServices
 90
        0
280
     0
281
     0
  0
CLASS
  1
AMDTADMENUSTATE
  2
AmdtAdMenuState
  3
DesignerServices
 90
        0
280
     0
281
     0
  0
CLASS
  1
ADAPPL
  2
AcAdAppl
  3
DesignerServices
 90
        0
280
     0
281
     0
  0
CLASS
  1
DEPMGR
  2
AcAdDepMgr
  3
DesignerServices
 90
        0
280
     0
281
     0
  0
CLASS
  1
PARAMMGR
  2
AcAdParamMgr
  3
DesignerServices
 90
        0
280
     0
281
     0
  0
CLASS
  1
PARAMSCOPE
  2
AcAdParamScope
  3
DesignerServices
 90
        0
280
     0
281
     0
  0
CLASS
  1
NAMEDAPPL
  2
AcAdNamedAppl
  3
DesignerServices
 90
        0
280
     0
281
     0
  0
CLASS
  1
AMDTDMMENUSTATE
  2
AmdtDmMenuState
  3
AcMechDwgViewMgmt
 90
        0
280
     0
281
     0
  0
CLASS
  1
AMDTAMMENUSTATE
  2
AmdtAmMenuState
  3
DesignerAssemblies
 90
        0
280
     0
281
     0
  0
CLASS
  1
ACAMPROJECT
  2
AcAmProject
  3
DesignerAssemblies
 90
        0
280
     0
281
     0
  0
CLASS
  1
ACAMGRCOMPDEF
  2
AcAmGrCompDef
  3
DesignerAssemblies
 90
        0
280
     0
281
     0
  0
CLASS
  1
ACCMCONTEXT
  2
AcCmContext
  3
DesignerAssemblies
 90
        0
280
     0
281
     0
  0
CLASS
  1
ACAMCOMPDEF
  2
AcAmCompDef
  3
DesignerAssemblies
 90
        0
280
     0
281
     0
  0
CLASS
  1
ACAMCOMPDEFMGR
  2
AcAmCompDefMgr
  3
DesignerAssemblies
 90
        0
280
     0
281
     0
  0
CLASS
  1
AMCONTEXTMGR
  2
AcAmContextMgr
  3
DesignerAssemblies
 90
        0
280
     0
281
     0
  0
CLASS
  1
ACAMCONTEXTMODELER
  2
AcAmContextModeler
  3
DesignerAssemblies
 90
        0
280
     0
281
     0
  0
CLASS
  1
ACMTHREADLINESTANDARDISO
  2
AmdtThreadLineStdISO
  3
"Amdt_StdImp|Product Description: AutoCAD Mechanical 2004 DX|Company: Autodesk"
 90
        0
280
     0
281
     0
  0
CLASS
  1
CATALOGSTATE
  2
AcAmCatalogState
  3
DesignerAssemblies
 90
        0
280
     0
281
     0
  0
CLASS
  1
ACAMGRCOMPDEFSET
  2
AcAmGrCompDefSet
  3
DesignerAssemblies
 90
        0
280
     0
281
     0
  0
CLASS
  1
AMDTBROWSERDBTAB
  2
AmdtBrowserDbTab
  3
McadcomServices
 90
        0
280
     0
281
     0
  0
CLASS
  1
CBROWSERAPPOBJECT
  2
CBrowserAppObject
  3
McadcomServices
 90
        0
280
     0
281
     0
  0
CLASS
  1
DM_PLACEHOLDER
  2
AcDmSelsetPlaceholder
  3
AcMechDwgViewMgmt
 90
        0
280
     0
281
     0
  0
CLASS
  1
TABLESTYLE
  2
AcDbTableStyle
  3
ObjectDBX Classes
 90
     2047
280
     0
281
     0
  0
CLASS
  1
VAACXREFPANELOBJECT
  2
VaAcXREFPanelObject
  3
VAAC_ADDIN
 90
    32768
280
     0
281
     0
  0
CLASS
  1
VAACIMAGEINVENTORY
  2
VaAcImageInventory
  3
VAAC_ADDIN
 90
    32768
280
     0
281
     0
  0
CLASS
  1
AMDTNOTETEMPLATEDB
  2
AmdtNoteTemplateDB
  3
AMDT_STDIMP_MODULE_NAME
 90
        0
280
     0
281
     0
  0
CLASS
  1
ACMBOM
  2
AcmBom
  3
"AcmSymBB|Product Description: AutoCAD Mechanical 2004 DX|Company: Autodesk"
 90
    32768
280
     0
281
     0
  0
CLASS
  1
AMDTFORMULAUPDATEDISPATCHER
  2
AmdtFormulaUpdateDispatcher
  3
AcMeServices
 90
    32768
280
     0
281
     0
  0
CLASS
  1
ACMPARTLIST
  2
AcmPartList
  3
"AcmSymBB|Product Description: AutoCAD Mechanical 2004 DX|Company: Autodesk"
 90
    33791
280
     0
281
     1
  0
CLASS
  1
ACAMGFILTERDAT
  2
AcAmgFilterDat
  3
"AcadM|Product Description: AutoCAD Mechanical 2000|Company: Autodesk"
 90
    32768
280
     0
281
     0
  0
CLASS
  1
DIMASSOC
  2
AcDbDimAssoc
  3
"AcDbDimAssoc|Product Desc:     AcDim ARX App For Dimension|Company:          Autodesk, Inc.|WEB Address:      www.autodesk.com"
 90
        0
280
     0
281
     0
  0
CLASS
  1
ACMSTANDARDANSI
  2
AcmStandardANSI
  3
"Amdt_StdImp|Product Description: AutoCAD Mechanical 2004 DX|Company: Autodesk"
 90
    32768
280
     0
281
     0
  0
CLASS
  1
ACMSURFSTANDARDANSI
  2
AcmSurfTextStdANSI
  3
"Amdt_StdImp|Product Description: AutoCAD Mechanical 2004 DX|Company: Autodesk"
 90
    32768
280
     0
281
     0
  0
CLASS
  1
ACMFCFSTANDARDANSI
  2
AcmFCFStdANSI
  3
"Amdt_StdImp|Product Description: AutoCAD Mechanical 2004 DX|Company: Autodesk"
 90
    32768
280
     0
281
     0
  0
CLASS
  1
ACMWELDSTANDARDANSI
  2
AcmWeldingStdANSI
  3
"Amdt_StdImp|Product Description: AutoCAD Mechanical 2004 DX|Company: Autodesk"
 90
    32768
280
     0
281
     0
  0
CLASS
  1
ACMIDSTANDARDANSI
  2
AcmIdStdANSI
  3
"Amdt_StdImp|Product Description: AutoCAD Mechanical 2004 DX|Company: Autodesk"
 90
    32768
280
     0
281
     0
  0
CLASS
  1
ACMDATUMSTANDARDANSI
  2
AcmDatumStdANSI
  3
"Amdt_StdImp|Product Description: AutoCAD Mechanical 2004 DX|Company: Autodesk"
 90
    32768
280
     0
281
     0
  0
CLASS
  1
ACMBOMSTANDARDANSI
  2
AcmBOMStdANSI
  3
"Amdt_StdImp|Product Description: AutoCAD Mechanical 2004 DX|Company: Autodesk"
 90
    32768
280
     0
281
     0
  0
CLASS
  1
ACMDETAILSTANDARDANSI
  2
AmdtDetailSymStdANSI
  3
"Amdt_StdImp|Product Description: AutoCAD Mechanical 2004 DX|Company: Autodesk"
 90
    32768
280
     0
281
     0
  0
CLASS
  1
ACMSECTIONSTANDARDANSI
  2
AmdtSectionSymStdANSI
  3
"Amdt_StdImp|Product Description: AutoCAD Mechanical 2004 DX|Company: Autodesk"
 90
    32768
280
     0
281
     0
  0
CLASS
  1
ACMCENTERLINESTANDARDANSI
  2
AmdtCenterLineStdANSI
  3
"Amdt_StdImp|Product Description: AutoCAD Mechanical 2004 DX|Company: Autodesk"
 90
    32768
280
     0
281
     0
  0
CLASS
  1
ACMTHREADLINESTANDARDANSI
  2
AmdtThreadLineStdANSI
  3
"Amdt_StdImp|Product Description: AutoCAD Mechanical 2004 DX|Company: Autodesk"
 90
    32768
280
     0
281
     0
  0
CLASS
  1
ACMNOTESTANDARDANSI
  2
AmdtNoteStdANSI
  3
"Amdt_StdImp|Product Description: AutoCAD Mechanical 2004 DX|Company: Autodesk"
 90
    32768
280
     0
281
     0
  0
CLASS
  1
ACAMGHOLECHARTSTDANSI
  2
AcAmgHoleChartStdANSI
  3
ACMSYMBB_MODULE_NAME
 90
    32768
280
     0
281
     0
  0
CLASS
  1
AMDTNOTE
  2
AmdtNote
  3
"AcmSymBB|Product Description: AutoCAD Mechanical 2004 DX|Company: Autodesk"
 90
    33791
280
     0
281
     1
  0
CLASS
  1
SORTENTSTABLE
  2
AcDbSortentsTable
  3
ObjectDBX Classes
 90
        0
280
     0
281
     0
  0
CLASS
  1
STDPART2D
  2
AmgStdPart
  3
"AmgStdPart|Product Description: AutoCAD Mechanical 2000|Company: Autodesk"
 90
    33791
280
     0
281
     1
  0
CLASS
  1
ACAMSTDPCOMPDEF
  2
AcAmStdpCompDef
  3
DesignerAssemblies
 90
    32768
280
     0
281
     0
  0
CLASS
  1
ACRFATTGENMGR
  2
AcRfAttGeneralMgr
  3
AcAttribServices
 90
        0
280
     0
281
     0
  0
CLASS
  1
ACRFOBJATTMGR
  2
AcRfObjAttGroupMgr
  3
AcAttribServices
 90
    32768
280
     0
281
     0
  0
CLASS
  1
ACRFMCADAPIATTHOLDER
  2
AcRfMCADAPIAttHolder
  3
AcAttribServices
 90
    32768
280
     0
281
     0
  0
CLASS
  1
AMDTSYSATTR
  2
AmdtSystemAttribute
  3
AcAttribServices
 90
    32768
280
     0
281
     0
  0
CLASS
  1
ACAMCOMP
  2
AcAmComp
  3
DesignerAssemblies
 90
    32768
280
     0
281
     0
  0
CLASS
  1
AC_AM_STDP_VIEW_DEF
  2
AcAmStdpViewDef
  3
DesignerAssemblies
 90
    32768
280
     0
281
     0
  0
CLASS
  1
AC_AM_MVD_DEP_MGR
  2
AcAmMVDdepMgr
  3
DesignerAssemblies
 90
    32768
280
     0
281
     0
  0
CLASS
  1
AC_AM_MASTER_VIEW_DEF
  2
AcAmMasterViewDef
  3
DesignerAssemblies
 90
    32768
280
     0
281
     0
  0
CLASS
  1
AC_AM_DIRTY_NODES
  2
AcAmDirtyNodes
  3
DesignerAssemblies
 90
    32768
280
     0
281
     0
  0
CLASS
  1
AC_AM_MAPPER_CACHE
  2
AcAmMapperCache
  3
DesignerAssemblies
 90
    32768
280
     0
281
     0
  0
CLASS
  1
ACAMMVDBACKUPOBJECT
  2
AcAmMVDBackupObject
  3
DesignerAssemblies
 90
    32768
280
     0
281
     0
  0
CLASS
  1
AC_AM_COMP_VIEW_INST
  2
AcAmCompView
  3
DesignerAssemblies
 90
    32768
280
     0
281
     0
  0
CLASS
  1
AC_AM_2D_XREF_MGR
  2
AcAmXrefMgr2d
  3
DesignerAssemblies
 90
    32768
280
     0
281
     0
  0
CLASS
  1
AMDTEDGESTANDARDISO13715
  2
AmdtEdgeStdISO13715
  3
"Amdt_StdImp|Product Description: AutoCAD Mechanical 2004 DX|Company: Autodesk"
 90
        0
280
     0
281
     0
  0
ENDSEC
  0
SECTION
  2
TABLES
  0
TABLE
  2
VPORT
  5
8
330
0
100
AcDbSymbolTable
 70
    42
  0
VPORT
  5
3022
330
8
100
AcDbSymbolTableRecord
100
AcDbViewportTableRecord
  2
*Active
 70
     0
 10
0.0
 20
0.0
 11
1.0
 21
1.0
 12
243.7813777933247
 22
379.6988850967782
 13
0.0
 23
0.0
 14
2.5
 24
2.5
 15
10.0
 25
10.0
 16
0.0
 26
0.0
 36
1.0
 17
0.0
 27
0.0
 37
0.0
 40
298.7718349288118
 41
1.46004842615012
 42
50.0
 43
0.0
 44
0.0
 50
0.0
 51
0.0
 71
     0
 72
   100
 73
     1
 74
     3
 75
     0
 76
     0
 77
     0
 78
     0
281
     0
 65
     1
110
0.0
120
0.0
130
0.0
111
1.0
121
0.0
131
0.0
112
0.0
122
1.0
132
0.0
 79
     0
146
0.0
  0
ENDTAB
  0
TABLE
  2
LTYPE
  5
5
330
0
100
AcDbSymbolTable
 70
    16
  0
LTYPE
  5
14
330
5
100
AcDbSymbolTableRecord
100
AcDbLinetypeTableRecord
  2
ByBlock
 70
     0
  3

 72
    65
 73
     0
 40
0.0
  0
LTYPE
  5
15
330
5
100
AcDbSymbolTableRecord
100
AcDbLinetypeTableRecord
  2
ByLayer
 70
     0
  3

 72
    65
 73
     0
 40
0.0
  0
LTYPE
  5
16
330
5
100
AcDbSymbolTableRecord
100
AcDbLinetypeTableRecord
  2
Continuous
 70
     0
  3
Solid line
 72
    65
 73
     0
 40
0.0
  0
LTYPE
  5
64
330
5
100
AcDbSymbolTableRecord
100
AcDbLinetypeTableRecord
  2
AM_ISO02W050
 70
     0
  3
__ __ __ __ __ __ __ __ __ __ __ __ __ __ __
 72
    65
 73
     2
 40
7.5
 49
6.0
 74
     0
 49
-1.5
 74
     0
  0
LTYPE
  5
65
330
5
100
AcDbSymbolTableRecord
100
AcDbLinetypeTableRecord
  2
AM_ISO08W050
 70
     0
  3
____ . ____ . ____ . ____ . ____ . ____ . ____
 72
    65
 73
     4
 40
18.0
 49
12.0
 74
     0
 49
-1.5
 74
     0
 49
3.0
 74
     0
 49
-1.5
 74
     0
  0
LTYPE
  5
66
330
5
100
AcDbSymbolTableRecord
100
AcDbLinetypeTableRecord
  2
AM_ISO09W050
 70
     0
  3
_____ . . _____ . . _____ . . ____ .. ____
 72
    65
 73
     6
 40
22.5
 49
12.0
 74
     0
 49
-1.5
 74
     0
 49
3.0
 74
     0
 49
-1.5
 74
     0
 49
3.0
 74
     0
 49
-1.5
 74
     0
  0
LTYPE
  5
67
330
5
100
AcDbSymbolTableRecord
100
AcDbLinetypeTableRecord
  2
Amconstr
 70
     0
  3
_______________________
 72
    65
 73
     2
 40
9999.0
 49
9999.0
 74
     0
 49
0.0
 74
     0
  0
LTYPE
  5
68
330
5
100
AcDbSymbolTableRecord
100
AcDbLinetypeTableRecord
  2
AM_ISO08W050x2
 70
     0
  3
__ . __ . __ . __ . __ . __
 72
    65
 73
     4
 40
9.0
 49
6.0
 74
     0
 49
-0.75
 74
     0
 49
1.5
 74
     0
 49
-0.75
 74
     0
  0
LTYPE
  5
69
330
5
100
AcDbSymbolTableRecord
100
AcDbLinetypeTableRecord
  2
AM_ISO02W050x2
 70
     0
  3
 _ _ _ _ _ _ _ _ _ _ _ _
 72
    65
 73
     2
 40
3.75
 49
3.0
 74
     0
 49
-0.75
 74
     0
  0
LTYPE
  5
6C
330
5
100
AcDbSymbolTableRecord
100
AcDbLinetypeTableRecord
  2
Amzigzag
 70
     0
  3
/\/-/\/-/\/-/\/-/\/-/\/
 72
    65
 73
     2
 40
11.0001
 49
0.0001
 74
     4
 75
   135
340
6B
 46
0.04
 50
0.0
 44
0.0
 45
0.0
 49
-11.0
 74
     0
  0
LTYPE
  5
7A
330
5
100
AcDbSymbolTableRecord
100
AcDbLinetypeTableRecord
  2
ACISOWELD
 70
     0
  3
_ _ _ _ _
 72
    65
 73
     2
 40
2.0
 49
2.0
 74
     0
 49
-1.0
 74
     0
  0
LTYPE
  5
7B
330
5
100
AcDbSymbolTableRecord
100
AcDbLinetypeTableRecord
  2
ACISOTGB
 70
     0
  3
__ . . __ . .
 72
    65
 73
     6
 40
9.0
 49
4.0
 74
     0
 49
-1.0
 74
     0
 49
1.0
 74
     0
 49
-1.0
 74
     0
 49
1.0
 74
     0
 49
-1.0
 74
     0
  0
LTYPE
  5
7C
330
5
100
AcDbSymbolTableRecord
100
AcDbLinetypeTableRecord
  2
ACISOTGL
 70
     0
  3
_ _ _ _ _
 72
    65
 73
     2
 40
3.0
 49
2.0
 74
     0
 49
-1.0
 74
     0
  0
LTYPE
  5
7E
330
5
100
AcDbSymbolTableRecord
100
AcDbLinetypeTableRecord
  2
CENTER
 70
     0
  3
__ . __
 72
    65
 73
     4
 40
7.0
 49
4.0
 74
     0
 49
-1.0
 74
     0
 49
1.0
 74
     0
 49
-1.0
 74
     0
  0
LTYPE
  5
D8
330
5
100
AcDbSymbolTableRecord
100
AcDbLinetypeTableRecord
  2
HIDDEN
 70
     0
  3
Hidden __ __ __ __ __ __ __ __ __ __ __ __ __ _
 72
    65
 73
     2
 40
9.524999999999998
 49
6.349999999999999
 74
     0
 49
-3.174999999999999
 74
     0
  0
LTYPE
  5
D9
330
5
100
AcDbSymbolTableRecord
100
AcDbLinetypeTableRecord
  2
PHANTOM2
 70
     0
  3
Phantom (.5x) ___ _ _ ___ _ _ ___ _ _ ___ _ _
 72
    65
 73
     6
 40
31.75
 49
15.875
 74
     0
 49
-3.174999999999999
 74
     0
 49
3.174999999999999
 74
     0
 49
-3.174999999999999
 74
     0
 49
3.174999999999999
 74
     0
 49
-3.174999999999999
 74
     0
  0
LTYPE
  5
A81
330
5
100
AcDbSymbolTableRecord
100
AcDbLinetypeTableRecord
  2
ACANSTGB
 70
     0
  3
__ . . __ . .
 72
    65
 73
     6
 40
0.35433070866
 49
0.15748031496
 74
     0
 49
-0.03937007874
 74
     0
 49
0.03937007874
 74
     0
 49
-0.03937007874
 74
     0
 49
0.03937007874
 74
     0
 49
-0.03937007874
 74
     0
  0
LTYPE
  5
A82
330
5
100
AcDbSymbolTableRecord
100
AcDbLinetypeTableRecord
  2
ACANSTGL
 70
     0
  3
_ _ _ _ _
 72
    65
 73
     2
 40
0.11811023622
 49
0.07874015748
 74
     0
 49
-0.03937007874
 74
     0
  0
ENDTAB
  0
TABLE
  2
LAYER
  5
2
102
{ACAD_XDICTIONARY
360
3F9
102
}
330
0
100
AcDbSymbolTable
 70
     7
  0
LAYER
  5
10
330
2
100
AcDbSymbolTableRecord
100
AcDbLayerTableRecord
  2
0
 70
     0
 62
     7
  6
Continuous
370
    -3
390
F
  0
LAYER
  5
A83
330
2
100
AcDbSymbolTableRecord
100
AcDbLayerTableRecord
  2
AM_VIS
 70
     0
 62
     7
  6
Continuous
370
    50
390
F
  0
LAYER
  5
A84
330
2
100
AcDbSymbolTableRecord
100
AcDbLayerTableRecord
  2
AM_4
 70
     0
 62
     3
  6
Continuous
370
    25
390
F
  0
LAYER
  5
D49
330
2
100
AcDbSymbolTableRecord
100
AcDbLayerTableRecord
  2
AM_7
 70
     0
 62
     1
  6
CENTER
370
    25
390
F
  0
LAYER
  5
D5C
330
2
100
AcDbSymbolTableRecord
100
AcDbLayerTableRecord
  2
AM_5
 70
     0
 62
     5
  6
Continuous
370
    50
390
F
  0
LAYER
  5
D6C
330
2
100
AcDbSymbolTableRecord
100
AcDbLayerTableRecord
  2
Defpoints
 70
     0
 62
     7
  6
Continuous
290
     0
370
    -3
390
F
  0
LAYER
  5
1DC3
330
2
100
AcDbSymbolTableRecord
100
AcDbLayerTableRecord
  2
LOGO
 70
     0
 62
     7
  6
Continuous
370
    -3
390
F
  0
ENDTAB
  0
TABLE
  2
STYLE
  5
3
330
0
100
AcDbSymbolTable
 70
     7
  0
STYLE
  5
11
330
3
100
AcDbSymbolTableRecord
100
AcDbTextStyleTableRecord
  2
STANDARD
 70
     0
 40
0.0
 41
1.0
 50
0.0
 71
     0
 42
3.0
  3
ISOCP.SHX
  4
CHINESET.SHX
  0
STYLE
  5
6B
330
3
100
AcDbSymbolTableRecord
100
AcDbTextStyleTableRecord
  2

 70
     1
 40
0.0
 41
1.0
 50
0.0
 71
     0
 42
2.5
  3
ltypeshp.shx
  4

  0
STYLE
  5
6D
330
3
100
AcDbSymbolTableRecord
100
AcDbTextStyleTableRecord
  2
ACISOTS
 70
     0
 40
1.0
 41
1.0
 50
0.0
 71
     0
 42
1.0
  3
isocp.shx
  4
chineset.shx
  0
STYLE
  5
79
330
3
100
AcDbSymbolTableRecord
100
AcDbTextStyleTableRecord
  2
ACISOGDT
 70
     0
 40
0.0
 41
1.0
 50
0.0
 71
     0
 42
2.5
  3
amgdt.shx
  4
chineset.shx
  0
STYLE
  5
A85
330
3
100
AcDbSymbolTableRecord
100
AcDbTextStyleTableRecord
  2
ACANSTS
 70
     0
 40
1.0
 41
1.0
 50
0.0
 71
     0
 42
0.8
  3
romans.shx
  4
chineset.shx
  0
STYLE
  5
A86
330
3
100
AcDbSymbolTableRecord
100
AcDbTextStyleTableRecord
  2
ACANSGDT
 70
     0
 40
0.0
 41
1.0
 50
0.0
 71
     0
 42
0.8
  3
amgdtans.shx
  4

  0
STYLE
  5
1900
330
3
100
AcDbSymbolTableRecord
100
AcDbTextStyleTableRecord
  2
CHINESET
 70
     0
 40
3.0
 41
1.0
 50
0.0
 71
     0
 42
4.5
  3
simplex.shx
  4
CHINESET.shx
  0
ENDTAB
  0
TABLE
  2
VIEW
  5
6
330
0
100
AcDbSymbolTable
 70
     0
  0
ENDTAB
  0
TABLE
  2
UCS
  5
7
330
0
100
AcDbSymbolTable
 70
     0
  0
ENDTAB
  0
TABLE
  2
APPID
  5
9
330
0
100
AcDbSymbolTable
 70
    25
  0
APPID
  5
12
330
9
100
AcDbSymbolTableRecord
100
AcDbRegAppTableRecord
  2
ACAD
 70
     0
  0
APPID
  5
46
330
9
100
AcDbSymbolTableRecord
100
AcDbRegAppTableRecord
  2
MCAD_NO_VIS
 70
     0
  0
APPID
  5
47
330
9
100
AcDbSymbolTableRecord
100
AcDbRegAppTableRecord
  2
ACAD_TEMP_GRAPHIC
 70
     0
  0
APPID
  5
58
330
9
100
AcDbSymbolTableRecord
100
AcDbRegAppTableRecord
  2
ACATTRIBSERVICES
 70
     0
  0
APPID
  5
EE
330
9
100
AcDbSymbolTableRecord
100
AcDbRegAppTableRecord
  2
AD_DRAW
 70
     0
  0
APPID
  5
10C
330
9
100
AcDbSymbolTableRecord
100
AcDbRegAppTableRecord
  2
DESIGNERASSEMBLIES
 70
     0
  0
APPID
  5
111
330
9
100
AcDbSymbolTableRecord
100
AcDbRegAppTableRecord
  2
ACADM_DIM_EDIT
 70
     0
  0
APPID
  5
112
330
9
100
AcDbSymbolTableRecord
100
AcDbRegAppTableRecord
  2
AMDT_DM_ADJ
 70
     0
  0
APPID
  5
22C
330
9
100
AcDbSymbolTableRecord
100
AcDbRegAppTableRecord
  2
ACAD_DSTYLE_DIMTEXT_FILL
 70
     0
  0
APPID
  5
452
330
9
100
AcDbSymbolTableRecord
100
AcDbRegAppTableRecord
  2
GENIUS_GENOENT_13
 70
     0
  0
APPID
  5
453
330
9
100
AcDbSymbolTableRecord
100
AcDbRegAppTableRecord
  2
GENIUS_GENOBJ-N-CRS_13
 70
     0
  0
APPID
  5
454
330
9
100
AcDbSymbolTableRecord
100
AcDbRegAppTableRecord
  2
GENIUS_GENOLIS_13
 70
     0
  0
APPID
  5
455
330
9
100
AcDbSymbolTableRecord
100
AcDbRegAppTableRecord
  2
GENIUS_GENODEF_13
 70
     0
  0
APPID
  5
456
330
9
100
AcDbSymbolTableRecord
100
AcDbRegAppTableRecord
  2
GENIUS_GENOREF_13
 70
     0
  0
APPID
  5
6F3
330
9
100
AcDbSymbolTableRecord
100
AcDbRegAppTableRecord
  2
ACAD_PSEXT
 70
     0
  0
APPID
  5
808
330
9
100
AcDbSymbolTableRecord
100
AcDbRegAppTableRecord
  2
GENIUS_GENDTOL_13
 70
     0
  0
APPID
  5
D4B
330
9
100
AcDbSymbolTableRecord
100
AcDbRegAppTableRecord
  2
GENIUS_GENOBJ-N-CEN_13
 70
     0
  0
APPID
  5
D4C
330
9
100
AcDbSymbolTableRecord
100
AcDbRegAppTableRecord
  2
GENIUS_GENCEN_19
 70
     0
  0
APPID
  5
1B68
330
9
100
AcDbSymbolTableRecord
100
AcDbRegAppTableRecord
  2
GEVID1168474543
 70
     0
  0
APPID
  5
1B69
330
9
100
AcDbSymbolTableRecord
100
AcDbRegAppTableRecord
  2
GEVDC
 70
     0
  0
APPID
  5
1B73
330
9
100
AcDbSymbolTableRecord
100
AcDbRegAppTableRecord
  2
AMG_2DHIDE
 70
     0
  0
APPID
  5
1B74
330
9
100
AcDbSymbolTableRecord
100
AcDbRegAppTableRecord
  2
AMG_2DSTRUCT_BTR
 70
     0
  0
APPID
  5
1B85
330
9
100
AcDbSymbolTableRecord
100
AcDbRegAppTableRecord
  2
ACADM_2DVIEW_IGN_NOTIFY
 70
     0
  0
APPID
  5
1DC4
330
9
100
AcDbSymbolTableRecord
100
AcDbRegAppTableRecord
  2
GENIUS_GENREC_14
 70
     0
  0
APPID
  5
1DC5
330
9
100
AcDbSymbolTableRecord
100
AcDbRegAppTableRecord
  2
GENIUS_GENOBJ-N-REC_13
 70
     0
  0
ENDTAB
  0
TABLE
  2
DIMSTYLE
  5
A
330
0
100
AcDbSymbolTable
 70
    14
100
AcDbDimStyleTable
 71
     3
340
81
340
8B
340
86
  0
DIMSTYLE
105
81
330
A
100
AcDbSymbolTableRecord
100
AcDbDimStyleTableRecord
  2
AM_ISO
 70
     0
  4
"
 41
3.0
 42
1.0
 43
8.0
 44
1.5
 47
0.1
 48
0.1
 73
     0
 74
     0
 77
     1
 78
     8
 79
     2
140
3.5
141
0.0
143
0.0393701
146
0.6
147
0.7
172
     1
176
   256
177
   256
178
   256
271
     2
272
     2
283
     0
284
     8
340
11
371
    -1
372
    -1
  0
DIMSTYLE
105
82
330
A
100
AcDbSymbolTableRecord
100
AcDbDimStyleTableRecord
  2
AM_ISO$3
 70
     0
  4
"
 41
3.0
 42
1.0
 43
8.0
 44
1.5
 47
0.1
 48
0.1
 73
     0
 77
     1
 78
     8
 79
     2
140
3.5
141
0.0
143
0.0393701
146
0.6
147
0.7
176
   256
177
   256
178
   256
271
     2
272
     2
283
     0
284
     8
288
     1
289
     0
340
11
371
    -1
372
    -1
  0
DIMSTYLE
105
83
330
A
100
AcDbSymbolTableRecord
100
AcDbDimStyleTableRecord
  2
AM_ISO$4
 70
     0
  4
"
 41
3.0
 42
1.0
 43
8.0
 44
1.5
 47
0.1
 48
0.1
 73
     0
 77
     1
 78
     8
 79
     2
140
3.5
141
0.0
143
0.0393701
146
0.6
147
0.7
176
   256
177
   256
178
   256
271
     2
272
     2
283
     0
284
     8
288
     1
289
     0
340
11
371
    -1
372
    -1
  0
DIMSTYLE
105
84
330
A
100
AcDbSymbolTableRecord
100
AcDbDimStyleTableRecord
  2
AM_ISO$6
 70
     0
  4
"
 41
3.0
 42
1.0
 43
8.0
 44
1.5
 47
0.1
 48
0.1
 73
     0
 74
     0
 78
     8
 79
     2
140
3.5
141
0.0
143
0.0393701
146
0.6
147
0.7
172
     1
176
   256
177
   256
178
   256
271
     2
272
     2
283
     0
284
     8
340
11
371
    -1
372
    -1
  0
DIMSTYLE
105
85
330
A
100
AcDbSymbolTableRecord
100
AcDbDimStyleTableRecord
  2
AM_ISO$7
 70
     0
  4
"
 41
3.0
 42
1.0
 43
8.0
 44
1.5
 47
0.1
 48
0.1
 73
     0
 74
     0
 77
     1
 78
     8
 79
     2
140
5.0
141
0.0
143
0.0393701
146
0.6
147
0.7
172
     1
176
   256
177
   256
178
   256
271
     2
272
     2
283
     0
284
     8
340
11
371
    -1
372
    -1
  0
DIMSTYLE
105
86
330
A
100
AcDbSymbolTableRecord
100
AcDbDimStyleTableRecord
  2
AM_ISO$SF
 70
     0
  4
"
 41
2.5
 42
1.0
 43
10.0
 44
1.0
 47
0.1
 48
0.1
 73
     0
 74
     0
 75
     1
 76
     1
 77
     1
 78
     8
 79
     2
140
3.5
141
0.0
143
0.0393701
146
0.71
147
1.5
172
     1
176
   256
177
   256
178
     2
271
     2
272
     3
274
     4
283
     0
284
     8
340
11
371
    -1
372
    -1
  0
DIMSTYLE
105
8B
330
A
100
AcDbSymbolTableRecord
100
AcDbDimStyleTableRecord
  2
AM_ISO$SH
 70
     0
  4
"
 41
2.5
 42
1.0
 43
10.0
 44
1.0
 47
0.1
 48
0.1
 73
     0
 74
     0
 75
     1
 76
     1
 77
     1
 78
     8
 79
     2
140
3.5
141
0.0
143
0.0393701
144
2.0
146
0.71
147
1.5
172
     1
173
     1
176
   256
177
   256
178
     2
271
     2
272
     3
274
     4
283
     0
284
     8
340
11
343
87
371
    -1
372
    -1
  0
DIMSTYLE
105
40B
102
{ACAD_REACTORS
330
2429
330
242A
330
242B
330
242C
330
242D
330
2430
330
254D
330
25C7
330
25C1
330
25C2
330
25C3
330
25C4
330
25C6
330
295C
330
2A39
330
2A3A
330
2A3B
330
2A3C
330
2A3D
330
2A3E
330
2AE5
330
2AE6
330
2AE7
330
2AE8
330
2AE9
330
2AEA
330
2FBB
330
2FF6
102
}
330
A
100
AcDbSymbolTableRecord
100
AcDbDimStyleTableRecord
  2
AM_ISO$0
 70
     0
  4
"
 41
3.0
 42
1.0
 43
8.0
 44
1.5
 47
0.1
 48
0.1
 73
     0
 74
     0
 77
     1
 78
     8
 79
     2
140
3.5
141
0.0
143
0.0393701
146
0.6
147
0.7
172
     1
176
   256
177
   256
178
   256
271
     2
272
     2
283
     0
284
     8
340
11
371
    -1
372
    -1
  0
DIMSTYLE
105
A88
330
A
100
AcDbSymbolTableRecord
100
AcDbDimStyleTableRecord
  2
AM_ANSI
 70
     0
  4
mm
 40
0.5
 41
1.0
 42
1.0
 43
0.5
 44
1.0
 47
0.1
 48
0.1
 73
     0
 77
     3
 78
     9
 79
     2
140
1.5
141
0.0
146
0.71
147
0.5
176
   256
177
   256
178
     2
271
     2
272
     8
284
     7
340
11
371
    -1
372
    -1
  0
DIMSTYLE
105
A89
330
A
100
AcDbSymbolTableRecord
100
AcDbDimStyleTableRecord
  2
AM_ANSI$3
 70
     0
  4
mm
 40
0.5
 41
1.0
 42
1.0
 43
0.5
 44
1.0
 47
0.1
 48
0.1
 73
     0
 77
     3
 78
     9
 79
     2
140
1.5
141
0.0
146
0.71
147
0.5
176
   256
177
   256
178
     2
271
     2
272
     8
284
     7
288
     1
289
     0
340
11
371
    -1
372
    -1
  0
DIMSTYLE
105
A8A
330
A
100
AcDbSymbolTableRecord
100
AcDbDimStyleTableRecord
  2
AM_ANSI$4
 70
     0
  4
mm
 40
0.5
 41
1.0
 42
1.0
 43
0.5
 44
1.0
 47
0.1
 48
0.1
 73
     0
 77
     3
 78
     9
 79
     2
140
1.5
141
0.0
146
0.71
147
0.5
176
   256
177
   256
178
     2
271
     2
272
     8
284
     7
288
     1
289
     0
340
11
371
    -1
372
    -1
  0
DIMSTYLE
105
A8B
330
A
100
AcDbSymbolTableRecord
100
AcDbDimStyleTableRecord
  2
AM_ANSI$7
 70
     0
  4
mm
 40
0.5
 41
0.1
 42
1.0
 43
0.5
 44
1.0
 47
0.1
 48
0.1
 73
     0
 77
     3
 78
     9
 79
     2
140
0.24
141
0.0
146
0.71
147
0.06
176
   256
177
   256
178
     2
271
     2
272
     8
284
     7
340
11
371
    -1
372
    -1
  0
DIMSTYLE
105
A8C
330
A
100
AcDbSymbolTableRecord
100
AcDbDimStyleTableRecord
  2
AM_ANSI$SF
 70
     0
  4
mm
 40
0.5
 41
1.0
 42
1.0
 43
0.5
 44
1.0
 47
0.1
 48
0.1
 73
     0
 75
     1
 76
     1
 77
     3
 78
     9
 79
     2
140
1.5
141
0.0
146
0.71
147
0.5
176
   256
177
   256
178
     2
271
     2
272
     8
284
     7
340
11
371
    -1
372
    -1
  0
DIMSTYLE
105
A8D
330
A
100
AcDbSymbolTableRecord
100
AcDbDimStyleTableRecord
  2
AM_ANSI$SH
 70
     0
  4
mm
 40
0.5
 41
1.0
 42
1.0
 43
0.5
 44
1.0
 47
0.1
 48
0.1
 73
     0
 75
     1
 76
     1
 77
     3
 78
     9
 79
     2
140
1.5
141
0.0
146
0.71
147
0.5
173
     1
176
   256
177
   256
178
     2
271
     2
272
     8
284
     7
340
11
343
87
371
    -1
372
    -1
  0
ENDTAB
  0
TABLE
  2
BLOCK_RECORD
  5
1
330
0
100
AcDbSymbolTable
 70
    40
  0
BLOCK_RECORD
  5
1F
102
{ACAD_XDICTIONARY
360
8F
102
}
330
1
100
AcDbSymbolTableRecord
100
AcDbBlockTableRecord
  2
*Model_Space
340
22
  0
BLOCK_RECORD
  5
1B
330
1
100
AcDbSymbolTableRecord
100
AcDbBlockTableRecord
  2
*Paper_Space
340
1E
  0
BLOCK_RECORD
  5
23
330
1
100
AcDbSymbolTableRecord
100
AcDbBlockTableRecord
  2
*Paper_Space0
340
26
  0
BLOCK_RECORD
  5
87
330
1
100
AcDbSymbolTableRecord
100
AcDbBlockTableRecord
  2
GENAXEH
340
0
  0
BLOCK_RECORD
  5
18F1
102
{ACAD_XDICTIONARY
360
18F2
102
}
330
1
100
AcDbSymbolTableRecord
100
AcDbBlockTableRecord
  2
A$C5ECF147B
340
0
102
{BLKREFS
331
2C84
331
2CA2
102
}
  0
BLOCK_RECORD
  5
2431
330
1
100
AcDbSymbolTableRecord
100
AcDbBlockTableRecord
  2
*D4
340
0
  0
BLOCK_RECORD
  5
243D
330
1
100
AcDbSymbolTableRecord
100
AcDbBlockTableRecord
  2
*D5
340
0
  0
BLOCK_RECORD
  5
2449
330
1
100
AcDbSymbolTableRecord
100
AcDbBlockTableRecord
  2
*D6
340
0
  0
BLOCK_RECORD
  5
2455
330
1
100
AcDbSymbolTableRecord
100
AcDbBlockTableRecord
  2
*D7
340
0
  0
BLOCK_RECORD
  5
2462
330
1
100
AcDbSymbolTableRecord
100
AcDbBlockTableRecord
  2
*D8
340
0
  0
BLOCK_RECORD
  5
249D
330
1
100
AcDbSymbolTableRecord
100
AcDbBlockTableRecord
  2
*D9
340
0
  0
BLOCK_RECORD
  5
254E
330
1
100
AcDbSymbolTableRecord
100
AcDbBlockTableRecord
  2
*D10
340
0
  0
BLOCK_RECORD
  5
25B7
102
{ACAD_XDICTIONARY
360
25BC
102
}
330
1
100
AcDbSymbolTableRecord
100
AcDbBlockTableRecord
  2
A$C0DBE2BE5
340
0
102
{BLKREFS
331
25C0
331
25CA
331
2A3F
331
2AED
102
}
  0
BLOCK_RECORD
  5
25CB
330
1
100
AcDbSymbolTableRecord
100
AcDbBlockTableRecord
  2
*D12
340
0
  0
BLOCK_RECORD
  5
25D7
330
1
100
AcDbSymbolTableRecord
100
AcDbBlockTableRecord
  2
*D13
340
0
  0
BLOCK_RECORD
  5
25E3
330
1
100
AcDbSymbolTableRecord
100
AcDbBlockTableRecord
  2
*D14
340
0
  0
BLOCK_RECORD
  5
25EF
330
1
100
AcDbSymbolTableRecord
100
AcDbBlockTableRecord
  2
*D15
340
0
  0
BLOCK_RECORD
  5
25FB
330
1
100
AcDbSymbolTableRecord
100
AcDbBlockTableRecord
  2
*D16
340
0
  0
BLOCK_RECORD
  5
2613
330
1
100
AcDbSymbolTableRecord
100
AcDbBlockTableRecord
  2
*D17
340
0
  0
BLOCK_RECORD
  5
2668
330
1
100
AcDbSymbolTableRecord
100
AcDbBlockTableRecord
  2
*D18
340
0
  0
BLOCK_RECORD
  5
2960
330
1
100
AcDbSymbolTableRecord
100
AcDbBlockTableRecord
  2
*D19
340
0
  0
BLOCK_RECORD
  5
2A41
330
1
100
AcDbSymbolTableRecord
100
AcDbBlockTableRecord
  2
*D20
340
0
  0
BLOCK_RECORD
  5
2A4D
330
1
100
AcDbSymbolTableRecord
100
AcDbBlockTableRecord
  2
*D21
340
0
  0
BLOCK_RECORD
  5
2A59
330
1
100
AcDbSymbolTableRecord
100
AcDbBlockTableRecord
  2
*D22
340
0
  0
BLOCK_RECORD
  5
2A65
330
1
100
AcDbSymbolTableRecord
100
AcDbBlockTableRecord
  2
*D23
340
0
  0
BLOCK_RECORD
  5
2A71
330
1
100
AcDbSymbolTableRecord
100
AcDbBlockTableRecord
  2
*D24
340
0
  0
BLOCK_RECORD
  5
2A7D
330
1
100
AcDbSymbolTableRecord
100
AcDbBlockTableRecord
  2
*D25
340
0
  0
BLOCK_RECORD
  5
2A89
330
1
100
AcDbSymbolTableRecord
100
AcDbBlockTableRecord
  2
*D26
340
0
  0
BLOCK_RECORD
  5
2AEE
330
1
100
AcDbSymbolTableRecord
100
AcDbBlockTableRecord
  2
*D27
340
0
  0
BLOCK_RECORD
  5
2AFA
330
1
100
AcDbSymbolTableRecord
100
AcDbBlockTableRecord
  2
*D28
340
0
  0
BLOCK_RECORD
  5
2B06
330
1
100
AcDbSymbolTableRecord
100
AcDbBlockTableRecord
  2
*D29
340
0
  0
BLOCK_RECORD
  5
2B12
330
1
100
AcDbSymbolTableRecord
100
AcDbBlockTableRecord
  2
*D30
340
0
  0
BLOCK_RECORD
  5
2B1E
330
1
100
AcDbSymbolTableRecord
100
AcDbBlockTableRecord
  2
*D31
340
0
  0
BLOCK_RECORD
  5
2B2A
330
1
100
AcDbSymbolTableRecord
100
AcDbBlockTableRecord
  2
*D32
340
0
  0
BLOCK_RECORD
  5
2EFC
330
1
100
AcDbSymbolTableRecord
100
AcDbBlockTableRecord
  2
*S33
340
0
102
{BLKREFS
331
25A2
102
}
  0
BLOCK_RECORD
  5
2F04
330
1
100
AcDbSymbolTableRecord
100
AcDbBlockTableRecord
  2
*S34
340
0
102
{BLKREFS
331
25AD
102
}
  0
BLOCK_RECORD
  5
2F0C
330
1
100
AcDbSymbolTableRecord
100
AcDbBlockTableRecord
  2
*S35
340
0
102
{BLKREFS
331
25C9
102
}
  0
BLOCK_RECORD
  5
2F14
330
1
100
AcDbSymbolTableRecord
100
AcDbBlockTableRecord
  2
*S36
340
0
102
{BLKREFS
331
2AEC
102
}
  0
BLOCK_RECORD
  5
2FBC
330
1
100
AcDbSymbolTableRecord
100
AcDbBlockTableRecord
  2
*D38
340
0
  0
BLOCK_RECORD
  5
2FF7
330
1
100
AcDbSymbolTableRecord
100
AcDbBlockTableRecord
  2
*D39
340
0
  0
ENDTAB
  0
ENDSEC
  0
SECTION
  2
BLOCKS
  0
BLOCK
  5
20
330
1F
100
AcDbEntity
  8
0
100
AcDbBlockBegin
  2
*Model_Space
 70
     0
 10
0.0
 20
0.0
 30
0.0
  3
*Model_Space
  1

  0
ENDBLK
  5
21
330
1F
100
AcDbEntity
  8
0
100
AcDbBlockEnd
  0
BLOCK
  5
1C
330
1B
100
AcDbEntity
 67
     1
  8
0
100
AcDbBlockBegin
  2
*Paper_Space
 70
     0
 10
0.0
 20
0.0
 30
0.0
  3
*Paper_Space
  1

  0
ENDBLK
  5
1D
330
1B
100
AcDbEntity
 67
     1
  8
0
100
AcDbBlockEnd
  0
BLOCK
  5
24
330
23
100
AcDbEntity
  8
0
100
AcDbBlockBegin
  2
*Paper_Space0
 70
     0
 10
0.0
 20
0.0
 30
0.0
  3
*Paper_Space0
  1

  0
ENDBLK
  5
25
330
23
100
AcDbEntity
  8
0
100
AcDbBlockEnd
  0
BLOCK
  5
89
330
87
100
AcDbEntity
  8
0
100
AcDbBlockBegin
  2
GENAXEH
 70
     0
 10
0.0
 20
0.0
 30
0.0
  3
GENAXEH
  1

  0
LINE
  5
88
330
87
100
AcDbEntity
  8
0
100
AcDbLine
 10
-1.0
 20
0.0
 30
0.0
 11
1.0
 21
0.0
 31
0.0
  0
ENDBLK
  5
8A
330
87
100
AcDbEntity
  8
0
100
AcDbBlockEnd
  0
BLOCK
  5
18F3
330
18F1
100
AcDbEntity
  8
0
100
AcDbBlockBegin
  2
A$C5ECF147B
 70
     0
 10
0.0
 20
0.0
 30
0.0
  3
A$C5ECF147B
  1

  0
CIRCLE
  5
18F4
330
18F1
100
AcDbEntity
  8
0
100
AcDbCircle
 10
-3.079240456948355
 20
2.061381943681453
 30
0.0
 40
1.25
  0
CIRCLE
  5
18F5
330
18F1
100
AcDbEntity
  8
0
100
AcDbCircle
 10
-3.079240456948355
 20
2.061381943681453
 30
0.0
 40
0.75
  0
ENDBLK
  5
18F6
330
18F1
100
AcDbEntity
  8
0
100
AcDbBlockEnd
  0
BLOCK
  5
243B
330
2431
100
AcDbEntity
  8
0
100
AcDbBlockBegin
  2
*D4
 70
     1
 10
0.0
 20
0.0
 30
0.0
  3
*D4
  1

  0
LINE
  5
2596
330
2431
100
AcDbEntity
  8
AM_5
100
AcDbLine
 10
114.67127245532
 20
298.1147423051043
 30
0.0
 11
114.67127245532
 21
267.8262850451043
 31
0.0
  0
LINE
  5
2597
330
2431
100
AcDbEntity
  8
AM_5
100
AcDbLine
 10
128.67127245532
 20
290.1147423051043
 30
0.0
 11
128.67127245532
 21
267.8262850451043
 31
0.0
  0
LINE
  5
2598
330
2431
100
AcDbEntity
  8
AM_5
100
AcDbLine
 10
117.67127245532
 20
269.3262850451043
 30
0.0
 11
125.67127245532
 21
269.3262850451043
 31
0.0
  0
SOLID
  5
2599
330
2431
100
AcDbEntity
  8
AM_5
100
AcDbTrace
 10
117.67127245532
 20
269.8262850451043
 30
0.0
 11
117.67127245532
 21
268.8262850451043
 31
0.0
 12
114.67127245532
 22
269.3262850451043
 32
0.0
 13
114.67127245532
 23
269.3262850451043
 33
0.0
  0
SOLID
  5
259A
330
2431
100
AcDbEntity
  8
AM_5
100
AcDbTrace
 10
125.67127245532
 20
269.8262850451043
 30
0.0
 11
125.67127245532
 21
268.8262850451043
 31
0.0
 12
128.67127245532
 22
269.3262850451043
 32
0.0
 13
128.67127245532
 23
269.3262850451043
 33
0.0
  0
MTEXT
  5
259B
330
2431
100
AcDbEntity
  8
AM_5
100
AcDbMText
 10
121.67127245532
 20
271.7762850451043
 30
0.0
 40
3.5
 41
0.0
 71
     5
 72
     1
  1
14
 73
     1
 44
1.0
1001
ACAD
1000
MTEXTBEGIN
1070
    73
1070
     1
1070
    44
1040
1.0
1070
    74
1070
     0
1000
MTEXTEND
  0
POINT
  5
259C
330
2431
100
AcDbEntity
  8
Defpoints
 62
     0
100
AcDbPoint
 10
114.67127245532
 20
299.1147423051043
 30
0.0
  0
POINT
  5
259D
330
2431
100
AcDbEntity
  8
Defpoints
 62
     0
100
AcDbPoint
 10
128.67127245532
 20
291.1147423051043
 30
0.0
  0
POINT
  5
259E
330
2431
100
AcDbEntity
  8
Defpoints
 62
     0
100
AcDbPoint
 10
128.67127245532
 20
269.3262850451043
 30
0.0
  0
ENDBLK
  5
243C
330
2431
100
AcDbEntity
  8
0
100
AcDbBlockEnd
  0
BLOCK
  5
2447
330
243D
100
AcDbEntity
  8
0
100
AcDbBlockBegin
  2
*D5
 70
     1
 10
0.0
 20
0.0
 30
0.0
  3
*D5
  1

  0
LINE
  5
258D
330
243D
100
AcDbEntity
  8
AM_5
100
AcDbLine
 10
128.67127245532
 20
290.1147423051043
 30
0.0
 11
128.67127245532
 21
267.8262850451043
 31
0.0
  0
LINE
  5
258E
330
243D
100
AcDbEntity
  8
AM_5
100
AcDbLine
 10
158.17127245532
 20
290.4147422951043
 30
0.0
 11
158.17127245532
 21
267.8262850451043
 31
0.0
  0
LINE
  5
258F
330
243D
100
AcDbEntity
  8
AM_5
100
AcDbLine
 10
131.67127245532
 20
269.3262850451043
 30
0.0
 11
155.17127245532
 21
269.3262850451043
 31
0.0
  0
SOLID
  5
2590
330
243D
100
AcDbEntity
  8
AM_5
100
AcDbTrace
 10
131.67127245532
 20
269.8262850451043
 30
0.0
 11
131.67127245532
 21
268.8262850451043
 31
0.0
 12
128.67127245532
 22
269.3262850451043
 32
0.0
 13
128.67127245532
 23
269.3262850451043
 33
0.0
  0
SOLID
  5
2591
330
243D
100
AcDbEntity
  8
AM_5
100
AcDbTrace
 10
155.17127245532
 20
269.8262850451043
 30
0.0
 11
155.17127245532
 21
268.8262850451043
 31
0.0
 12
158.17127245532
 22
269.3262850451043
 32
0.0
 13
158.17127245532
 23
269.3262850451043
 33
0.0
  0
MTEXT
  5
2592
330
243D
100
AcDbEntity
  8
AM_5
100
AcDbMText
 10
143.42127245532
 20
271.7762850451043
 30
0.0
 40
3.5
 41
0.0
 71
     5
 72
     1
  1
S
 73
     1
 44
1.0
1001
ACAD
1000
MTEXTBEGIN
1070
    73
1070
     1
1070
    44
1040
1.0
1070
    74
1070
     0
1000
MTEXTEND
  0
POINT
  5
2593
330
243D
100
AcDbEntity
  8
Defpoints
 62
     0
100
AcDbPoint
 10
128.67127245532
 20
291.1147423051043
 30
0.0
  0
POINT
  5
2594
330
243D
100
AcDbEntity
  8
Defpoints
 62
     0
100
AcDbPoint
 10
158.17127245532
 20
291.4147422951043
 30
0.0
  0
POINT
  5
2595
330
243D
100
AcDbEntity
  8
Defpoints
 62
     0
100
AcDbPoint
 10
158.17127245532
 20
269.3262850451043
 30
0.0
  0
ENDBLK
  5
2448
330
243D
100
AcDbEntity
  8
0
100
AcDbBlockEnd
  0
BLOCK
  5
2453
330
2449
100
AcDbEntity
  8
0
100
AcDbBlockBegin
  2
*D6
 70
     1
 10
0.0
 20
0.0
 30
0.0
  3
*D6
  1

  0
LINE
  5
2584
330
2449
100
AcDbEntity
  8
AM_5
100
AcDbLine
 10
114.67127245532
 20
298.1147423051043
 30
0.0
 11
114.67127245532
 21
259.8262850451043
 31
0.0
  0
LINE
  5
2585
330
2449
100
AcDbEntity
  8
AM_5
100
AcDbLine
 10
158.17127245532
 20
290.4147422951043
 30
0.0
 11
158.17127245532
 21
259.8262850451043
 31
0.0
  0
LINE
  5
2586
330
2449
100
AcDbEntity
  8
AM_5
100
AcDbLine
 10
117.67127245532
 20
261.3262850451043
 30
0.0
 11
155.17127245532
 21
261.3262850451043
 31
0.0
  0
SOLID
  5
2587
330
2449
100
AcDbEntity
  8
AM_5
100
AcDbTrace
 10
117.67127245532
 20
261.8262850451043
 30
0.0
 11
117.67127245532
 21
260.8262850451043
 31
0.0
 12
114.67127245532
 22
261.3262850451043
 32
0.0
 13
114.67127245532
 23
261.3262850451043
 33
0.0
  0
SOLID
  5
2588
330
2449
100
AcDbEntity
  8
AM_5
100
AcDbTrace
 10
155.17127245532
 20
261.8262850451043
 30
0.0
 11
155.17127245532
 21
260.8262850451043
 31
0.0
 12
158.17127245532
 22
261.3262850451043
 32
0.0
 13
158.17127245532
 23
261.3262850451043
 33
0.0
  0
MTEXT
  5
2589
330
2449
100
AcDbEntity
  8
AM_5
100
AcDbMText
 10
136.42127245532
 20
263.7762850451043
 30
0.0
 40
3.5
 41
0.0
 71
     5
 72
     1
  1
Z
 73
     1
 44
1.0
1001
ACAD
1000
MTEXTBEGIN
1070
    73
1070
     1
1070
    44
1040
1.0
1070
    74
1070
     0
1000
MTEXTEND
  0
POINT
  5
258A
330
2449
100
AcDbEntity
  8
Defpoints
 62
     0
100
AcDbPoint
 10
114.67127245532
 20
299.1147423051043
 30
0.0
  0
POINT
  5
258B
330
2449
100
AcDbEntity
  8
Defpoints
 62
     0
100
AcDbPoint
 10
158.17127245532
 20
291.4147422951043
 30
0.0
  0
POINT
  5
258C
330
2449
100
AcDbEntity
  8
Defpoints
 62
     0
100
AcDbPoint
 10
158.17127245532
 20
261.3262850451043
 30
0.0
  0
ENDBLK
  5
2454
330
2449
100
AcDbEntity
  8
0
100
AcDbBlockEnd
  0
BLOCK
  5
2460
330
2455
100
AcDbEntity
  8
0
100
AcDbBlockBegin
  2
*D7
 70
     1
 10
0.0
 20
0.0
 30
0.0
  3
*D7
  1

  0
LINE
  5
24F2
330
2455
100
AcDbEntity
  8
AM_5
100
AcDbLine
 10
159.17127245532
 20
291.4147422951043
 30
0.0
 11
171.67127245532
 21
291.4147422951043
 31
0.0
  0
LINE
  5
24F3
330
2455
100
AcDbEntity
  8
AM_5
100
AcDbLine
 10
159.17127245532
 20
310.4147422951043
 30
0.0
 11
171.67127245532
 21
310.4147422951043
 31
0.0
  0
LINE
  5
24F4
330
2455
100
AcDbEntity
  8
AM_5
100
AcDbLine
 10
170.17127245532
 20
294.4147422951043
 30
0.0
 11
170.17127245532
 21
307.4147422951043
 31
0.0
  0
SOLID
  5
24F5
330
2455
100
AcDbEntity
  8
AM_5
100
AcDbTrace
 10
169.67127245532
 20
294.4147422951043
 30
0.0
 11
170.67127245532
 21
294.4147422951043
 31
0.0
 12
170.17127245532
 22
291.4147422951043
 32
0.0
 13
170.17127245532
 23
291.4147422951043
 33
0.0
  0
SOLID
  5
24F6
330
2455
100
AcDbEntity
  8
AM_5
100
AcDbTrace
 10
169.67127245532
 20
307.4147422951043
 30
0.0
 11
170.67127245532
 21
307.4147422951043
 31
0.0
 12
170.17127245532
 22
310.4147422951043
 32
0.0
 13
170.17127245532
 23
310.4147422951043
 33
0.0
  0
MTEXT
  5
24F7
330
2455
100
AcDbEntity
  8
AM_5
100
AcDbMText
 10
167.72127245532
 20
300.9147422951043
 30
0.0
 40
3.5
 41
0.0
 71
     5
 72
     1
  1
%%c19{}{\C5; d9}
 11
0.0000000000000001
 21
1.0
 31
0.0
 73
     1
 44
1.0
1001
ACAD
1000
MTEXTBEGIN
1070
    73
1070
     1
1070
    44
1040
1.0
1070
    74
1070
     0
1000
MTEXTEND
  0
POINT
  5
24F8
330
2455
100
AcDbEntity
  8
Defpoints
 62
     0
100
AcDbPoint
 10
158.17127245532
 20
291.4147422951043
 30
0.0
  0
POINT
  5
24F9
330
2455
100
AcDbEntity
  8
Defpoints
 62
     0
100
AcDbPoint
 10
158.17127245532
 20
310.4147422951043
 30
0.0
  0
POINT
  5
24FA
330
2455
100
AcDbEntity
  8
Defpoints
 62
     0
100
AcDbPoint
 10
170.17127245532
 20
310.4147422951043
 30
0.0
  0
ENDBLK
  5
2461
330
2455
100
AcDbEntity
  8
0
100
AcDbBlockEnd
  0
BLOCK
  5
246C
330
2462
100
AcDbEntity
  8
0
100
AcDbBlockBegin
  2
*D8
 70
     1
 10
0.0
 20
0.0
 30
0.0
  3
*D8
  1

  0
LINE
  5
2572
330
2462
100
AcDbEntity
  8
AM_5
100
AcDbLine
 10
128.67127245532
 20
290.1147423051043
 30
0.0
 11
128.67127245532
 21
275.8262850451043
 31
0.0
  0
LINE
  5
2573
330
2462
100
AcDbEntity
  8
AM_5
100
AcDbLine
 10
151.17127245532
 20
290.4147422951043
 30
0.0
 11
151.17127245532
 21
275.8262850451043
 31
0.0
  0
LINE
  5
2574
330
2462
100
AcDbEntity
  8
AM_5
100
AcDbLine
 10
131.67127245532
 20
277.3262850451043
 30
0.0
 11
148.17127245532
 21
277.3262850451043
 31
0.0
  0
SOLID
  5
2575
330
2462
100
AcDbEntity
  8
AM_5
100
AcDbTrace
 10
131.67127245532
 20
277.8262850451043
 30
0.0
 11
131.67127245532
 21
276.8262850451043
 31
0.0
 12
128.67127245532
 22
277.3262850451043
 32
0.0
 13
128.67127245532
 23
277.3262850451043
 33
0.0
  0
SOLID
  5
2576
330
2462
100
AcDbEntity
  8
AM_5
100
AcDbTrace
 10
148.17127245532
 20
277.8262850451043
 30
0.0
 11
148.17127245532
 21
276.8262850451043
 31
0.0
 12
151.17127245532
 22
277.3262850451043
 32
0.0
 13
151.17127245532
 23
277.3262850451043
 33
0.0
  0
MTEXT
  5
2577
330
2462
100
AcDbEntity
  8
AM_5
100
AcDbMText
 10
139.92127245532
 20
279.7762850451043
 30
0.0
 40
3.5
 41
0.0
 71
     5
 72
     1
  1
F
 73
     1
 44
1.0
1001
ACAD
1000
MTEXTBEGIN
1070
    73
1070
     1
1070
    44
1040
1.0
1070
    74
1070
     0
1000
MTEXTEND
  0
POINT
  5
2578
330
2462
100
AcDbEntity
  8
Defpoints
 62
     0
100
AcDbPoint
 10
128.67127245532
 20
291.1147423051043
 30
0.0
  0
POINT
  5
2579
330
2462
100
AcDbEntity
  8
Defpoints
 62
     0
100
AcDbPoint
 10
151.17127245532
 20
291.4147422951043
 30
0.0
  0
POINT
  5
257A
330
2462
100
AcDbEntity
  8
Defpoints
 62
     0
100
AcDbPoint
 10
151.17127245532
 20
277.3262850451043
 30
0.0
  0
ENDBLK
  5
246D
330
2462
100
AcDbEntity
  8
0
100
AcDbBlockEnd
  0
BLOCK
  5
24A7
330
249D
100
AcDbEntity
  8
0
100
AcDbBlockBegin
  2
*D9
 70
     1
 10
0.0
 20
0.0
 30
0.0
  3
*D9
  1

  0
LINE
  5
257B
330
249D
100
AcDbEntity
  8
AM_5
100
AcDbLine
 10
114.67127245532
 20
298.1147423051043
 30
0.0
 11
114.67127245532
 21
275.8262850451043
 31
0.0
  0
LINE
  5
257C
330
249D
100
AcDbEntity
  8
AM_5
100
AcDbLine
 10
126.67127245532
 20
297.4147423051043
 30
0.0
 11
126.67127245532
 21
275.8262850451043
 31
0.0
  0
LINE
  5
257D
330
249D
100
AcDbEntity
  8
AM_5
100
AcDbLine
 10
117.67127245532
 20
277.3262850451043
 30
0.0
 11
123.67127245532
 21
277.3262850451043
 31
0.0
  0
SOLID
  5
257E
330
249D
100
AcDbEntity
  8
AM_5
100
AcDbTrace
 10
117.67127245532
 20
277.8262850451043
 30
0.0
 11
117.67127245532
 21
276.8262850451043
 31
0.0
 12
114.67127245532
 22
277.3262850451043
 32
0.0
 13
114.67127245532
 23
277.3262850451043
 33
0.0
  0
SOLID
  5
257F
330
249D
100
AcDbEntity
  8
AM_5
100
AcDbTrace
 10
123.67127245532
 20
277.8262850451043
 30
0.0
 11
123.67127245532
 21
276.8262850451043
 31
0.0
 12
126.67127245532
 22
277.3262850451043
 32
0.0
 13
126.67127245532
 23
277.3262850451043
 33
0.0
  0
MTEXT
  5
2580
330
249D
100
AcDbEntity
  8
AM_5
100
AcDbMText
 10
120.67127245532
 20
279.7766295332933
 30
0.0
 40
3.5
 41
0.0
 71
     5
 72
     1
  1
12
 73
     1
 44
1.0
1001
ACAD
1000
MTEXTBEGIN
1070
    73
1070
     1
1070
    44
1040
1.0
1070
    74
1070
     0
1000
MTEXTEND
  0
POINT
  5
2581
330
249D
100
AcDbEntity
  8
Defpoints
 62
     0
100
AcDbPoint
 10
114.67127245532
 20
299.1147423051043
 30
0.0
  0
POINT
  5
2582
330
249D
100
AcDbEntity
  8
Defpoints
 62
     0
100
AcDbPoint
 10
126.67127245532
 20
298.4147423051043
 30
0.0
  0
POINT
  5
2583
330
249D
100
AcDbEntity
  8
Defpoints
 62
     0
100
AcDbPoint
 10
126.67127245532
 20
277.3262850451043
 30
0.0
  0
ENDBLK
  5
24A8
330
249D
100
AcDbEntity
  8
0
100
AcDbBlockEnd
  0
BLOCK
  5
2558
330
254E
100
AcDbEntity
  8
0
100
AcDbBlockBegin
  2
*D10
 70
     1
 10
0.0
 20
0.0
 30
0.0
  3
*D10
  1

  0
LINE
  5
2697
330
254E
100
AcDbEntity
  8
AM_5
100
AcDbLine
 10
68.60045525069669
 20
292.1205136751043
 30
0.0
 11
68.60045525069669
 21
275.8262850451043
 31
0.0
  0
LINE
  5
2698
330
254E
100
AcDbEntity
  8
AM_5
100
AcDbLine
 10
95.60045525069666
 20
292.1205136751043
 30
0.0
 11
95.60045525069666
 21
275.8262850451043
 31
0.0
  0
LINE
  5
2699
330
254E
100
AcDbEntity
  8
AM_5
100
AcDbLine
 10
71.60045525069668
 20
277.3262850451043
 30
0.0
 11
92.60045525069665
 21
277.3262850451043
 31
0.0
  0
SOLID
  5
269A
330
254E
100
AcDbEntity
  8
AM_5
100
AcDbTrace
 10
71.60045525069668
 20
277.8262850451043
 30
0.0
 11
71.60045525069668
 21
276.8262850451043
 31
0.0
 12
68.60045525069669
 22
277.3262850451043
 32
0.0
 13
68.60045525069669
 23
277.3262850451043
 33
0.0
  0
SOLID
  5
269B
330
254E
100
AcDbEntity
  8
AM_5
100
AcDbTrace
 10
92.60045525069665
 20
277.8262850451043
 30
0.0
 11
92.60045525069665
 21
276.8262850451043
 31
0.0
 12
95.60045525069666
 22
277.3262850451043
 32
0.0
 13
95.60045525069666
 23
277.3262850451043
 33
0.0
  0
MTEXT
  5
269C
330
254E
100
AcDbEntity
  8
AM_5
100
AcDbMText
 10
82.10045525069666
 20
279.7766295332933
 30
0.0
 40
3.5
 41
0.0
 71
     5
 72
     1
  1
27
 73
     1
 44
1.0
1001
ACAD
1000
MTEXTBEGIN
1070
    73
1070
     1
1070
    44
1040
1.0
1070
    74
1070
     0
1000
MTEXTEND
  0
POINT
  5
269D
330
254E
100
AcDbEntity
  8
Defpoints
 62
     0
100
AcDbPoint
 10
68.60045525069669
 20
293.1205136751044
 30
0.0
  0
POINT
  5
269E
330
254E
100
AcDbEntity
  8
Defpoints
 62
     0
100
AcDbPoint
 10
95.60045525069666
 20
293.1205136751043
 30
0.0
  0
POINT
  5
269F
330
254E
100
AcDbEntity
  8
Defpoints
 62
     0
100
AcDbPoint
 10
95.60045525069666
 20
277.3262850451043
 30
0.0
  0
ENDBLK
  5
2559
330
254E
100
AcDbEntity
  8
0
100
AcDbBlockEnd
  0
BLOCK
  5
25BE
330
25B7
100
AcDbEntity
  8
0
100
AcDbBlockBegin
  2
A$C0DBE2BE5
 70
     0
 10
0.0
 20
0.0
 30
0.0
  3
A$C0DBE2BE5
  1

  0
MTEXT
  5
25B8
330
25B7
100
AcDbEntity
  8
AM_5
 62
     5
100
AcDbMText
 10
-14.63961855242681
 20
20.97179559868442
 30
0.0
 40
2.939999999999999
 41
0.0
 71
     7
 72
     5
  1
SL
  7
ACISOTS
 73
     1
 44
1.0
1001
ACAD
1000
MTEXTBEGIN
1070
    73
1070
     1
1070
    44
1040
1.0
1070
    74
1070
     0
1000
MTEXTEND
  0
LINE
  5
25B9
330
25B7
100
AcDbEntity
  8
AM_7
  6
ACISOTGB
 62
     2
100
AcDbLine
 10
-4.5
 20
-18.14804319724698
 30
0.0
 11
-4.5
 21
21.77135757968762
 31
0.0
1001
GENIUS_GENOBJ-N-CEN_13
1002
{
1000
OWNER
1000
GEN
1002
}
1001
GENIUS_GENODEF_13
1002
{
1000
HIER
1070
     0
1002
}
1002
{
1000
MANEDIT
1070
     0
1002
}
1002
{
1000
NOSEL
1070
     0
1002
}
1002
{
1000
BEHIND
1070
     0
1002
}
1002
{
1000
OTHER
1070
     0
1002
}
1002
{
1000
REACTOR
1002
}
1001
GENIUS_GENCEN_19
1002
{
1040
3.0
1002
}
  0
LINE
  5
25BA
330
25B7
100
AcDbEntity
  8
AM_5
 62
     5
100
AcDbLine
 10
-15.553536598959
 20
19.8194341012998
 30
0.0
 11
-8.700000000000017
 21
19.8194341012998
 31
0.0
  0
TRACE
  5
25BB
330
25B7
100
AcDbEntity
  8
AM_5
 62
     5
370
    35
100
AcDbTrace
 10
-8.700000000000017
 20
20.37237458869975
 30
0.0
 11
-8.700000000000017
 21
19.26649361389985
 31
0.0
 12
-4.5
 22
19.8194341012998
 32
0.0
 13
-4.5
 23
19.8194341012998
 33
0.0
  0
ENDBLK
  5
25BF
330
25B7
100
AcDbEntity
  8
0
100
AcDbBlockEnd
  0
BLOCK
  5
25D5
330
25CB
100
AcDbEntity
  8
0
100
AcDbBlockBegin
  2
*D12
 70
     1
 10
0.0
 20
0.0
 30
0.0
  3
*D12
  1

  0
LINE
  5
2E9C
330
25CB
100
AcDbEntity
  8
AM_5
100
AcDbLine
 10
68.60045525069669
 20
382.9079236689905
 30
0.0
 11
68.60045525069669
 21
366.6136950389905
 31
0.0
  0
LINE
  5
2E9D
330
25CB
100
AcDbEntity
  8
AM_5
100
AcDbLine
 10
95.60045525069666
 20
382.9079236689905
 30
0.0
 11
95.60045525069666
 21
366.6136950389905
 31
0.0
  0
LINE
  5
2E9E
330
25CB
100
AcDbEntity
  8
AM_5
100
AcDbLine
 10
71.60045525069668
 20
368.1136950389905
 30
0.0
 11
92.60045525069665
 21
368.1136950389905
 31
0.0
  0
SOLID
  5
2E9F
330
25CB
100
AcDbEntity
  8
AM_5
100
AcDbTrace
 10
71.60045525069668
 20
368.6136950389905
 30
0.0
 11
71.60045525069668
 21
367.6136950389905
 31
0.0
 12
68.60045525069669
 22
368.1136950389905
 32
0.0
 13
68.60045525069669
 23
368.1136950389905
 33
0.0
  0
SOLID
  5
2EA0
330
25CB
100
AcDbEntity
  8
AM_5
100
AcDbTrace
 10
92.60045525069665
 20
368.6136950389905
 30
0.0
 11
92.60045525069665
 21
367.6136950389905
 31
0.0
 12
95.60045525069666
 22
368.1136950389905
 32
0.0
 13
95.60045525069666
 23
368.1136950389905
 33
0.0
  0
MTEXT
  5
2EA1
330
25CB
100
AcDbEntity
  8
AM_5
100
AcDbMText
 10
82.10045525069666
 20
370.5640395271795
 30
0.0
 40
3.5
 41
0.0
 71
     5
 72
     1
  1
27
 73
     1
 44
1.0
1001
ACAD
1000
MTEXTBEGIN
1070
    73
1070
     1
1070
    44
1040
1.0
1070
    74
1070
     0
1000
MTEXTEND
  0
POINT
  5
2EA2
330
25CB
100
AcDbEntity
  8
Defpoints
 62
     0
100
AcDbPoint
 10
68.60045525069669
 20
383.9079236689905
 30
0.0
  0
POINT
  5
2EA3
330
25CB
100
AcDbEntity
  8
Defpoints
 62
     0
100
AcDbPoint
 10
95.60045525069666
 20
383.9079236689905
 30
0.0
  0
POINT
  5
2EA4
330
25CB
100
AcDbEntity
  8
Defpoints
 62
     0
100
AcDbPoint
 10
95.60045525069666
 20
368.1136950389905
 30
0.0
  0
ENDBLK
  5
25D6
330
25CB
100
AcDbEntity
  8
0
100
AcDbBlockEnd
  0
BLOCK
  5
25E1
330
25D7
100
AcDbEntity
  8
0
100
AcDbBlockBegin
  2
*D13
 70
     1
 10
0.0
 20
0.0
 30
0.0
  3
*D13
  1

  0
LINE
  5
2E6F
330
25D7
100
AcDbEntity
  8
AM_5
100
AcDbLine
 10
114.67127245532
 20
388.9021522989905
 30
0.0
 11
114.67127245532
 21
358.6136950389905
 31
0.0
  0
LINE
  5
2E70
330
25D7
100
AcDbEntity
  8
AM_5
100
AcDbLine
 10
128.67127245532
 20
380.9021522989905
 30
0.0
 11
128.67127245532
 21
358.6136950389905
 31
0.0
  0
LINE
  5
2E71
330
25D7
100
AcDbEntity
  8
AM_5
100
AcDbLine
 10
117.67127245532
 20
360.1136950389905
 30
0.0
 11
125.67127245532
 21
360.1136950389905
 31
0.0
  0
SOLID
  5
2E72
330
25D7
100
AcDbEntity
  8
AM_5
100
AcDbTrace
 10
117.67127245532
 20
360.6136950389905
 30
0.0
 11
117.67127245532
 21
359.6136950389905
 31
0.0
 12
114.67127245532
 22
360.1136950389905
 32
0.0
 13
114.67127245532
 23
360.1136950389905
 33
0.0
  0
SOLID
  5
2E73
330
25D7
100
AcDbEntity
  8
AM_5
100
AcDbTrace
 10
125.67127245532
 20
360.6136950389905
 30
0.0
 11
125.67127245532
 21
359.6136950389905
 31
0.0
 12
128.67127245532
 22
360.1136950389905
 32
0.0
 13
128.67127245532
 23
360.1136950389905
 33
0.0
  0
MTEXT
  5
2E74
330
25D7
100
AcDbEntity
  8
AM_5
100
AcDbMText
 10
121.67127245532
 20
362.5636950389905
 30
0.0
 40
3.5
 41
0.0
 71
     5
 72
     1
  1
14
 73
     1
 44
1.0
1001
ACAD
1000
MTEXTBEGIN
1070
    73
1070
     1
1070
    44
1040
1.0
1070
    74
1070
     0
1000
MTEXTEND
  0
POINT
  5
2E75
330
25D7
100
AcDbEntity
  8
Defpoints
 62
     0
100
AcDbPoint
 10
114.67127245532
 20
389.9021522989905
 30
0.0
  0
POINT
  5
2E76
330
25D7
100
AcDbEntity
  8
Defpoints
 62
     0
100
AcDbPoint
 10
128.67127245532
 20
381.9021522989905
 30
0.0
  0
POINT
  5
2E77
330
25D7
100
AcDbEntity
  8
Defpoints
 62
     0
100
AcDbPoint
 10
128.67127245532
 20
360.1136950389905
 30
0.0
  0
ENDBLK
  5
25E2
330
25D7
100
AcDbEntity
  8
0
100
AcDbBlockEnd
  0
BLOCK
  5
25ED
330
25E3
100
AcDbEntity
  8
0
100
AcDbBlockBegin
  2
*D14
 70
     1
 10
0.0
 20
0.0
 30
0.0
  3
*D14
  1

  0
LINE
  5
2E78
330
25E3
100
AcDbEntity
  8
AM_5
100
AcDbLine
 10
128.67127245532
 20
380.9021522989905
 30
0.0
 11
128.67127245532
 21
358.6136950389905
 31
0.0
  0
LINE
  5
2E79
330
25E3
100
AcDbEntity
  8
AM_5
100
AcDbLine
 10
158.17127245532
 20
381.2021522889905
 30
0.0
 11
158.17127245532
 21
358.6136950389905
 31
0.0
  0
LINE
  5
2E7A
330
25E3
100
AcDbEntity
  8
AM_5
100
AcDbLine
 10
131.67127245532
 20
360.1136950389905
 30
0.0
 11
155.17127245532
 21
360.1136950389905
 31
0.0
  0
SOLID
  5
2E7B
330
25E3
100
AcDbEntity
  8
AM_5
100
AcDbTrace
 10
131.67127245532
 20
360.6136950389905
 30
0.0
 11
131.67127245532
 21
359.6136950389905
 31
0.0
 12
128.67127245532
 22
360.1136950389905
 32
0.0
 13
128.67127245532
 23
360.1136950389905
 33
0.0
  0
SOLID
  5
2E7C
330
25E3
100
AcDbEntity
  8
AM_5
100
AcDbTrace
 10
155.17127245532
 20
360.6136950389905
 30
0.0
 11
155.17127245532
 21
359.6136950389905
 31
0.0
 12
158.17127245532
 22
360.1136950389905
 32
0.0
 13
158.17127245532
 23
360.1136950389905
 33
0.0
  0
MTEXT
  5
2E7D
330
25E3
100
AcDbEntity
  8
AM_5
100
AcDbMText
 10
143.42127245532
 20
362.5636950389905
 30
0.0
 40
3.5
 41
0.0
 71
     5
 72
     1
  1
S
 73
     1
 44
1.0
1001
ACAD
1000
MTEXTBEGIN
1070
    73
1070
     1
1070
    44
1040
1.0
1070
    74
1070
     0
1000
MTEXTEND
  0
POINT
  5
2E7E
330
25E3
100
AcDbEntity
  8
Defpoints
 62
     0
100
AcDbPoint
 10
128.67127245532
 20
381.9021522989905
 30
0.0
  0
POINT
  5
2E7F
330
25E3
100
AcDbEntity
  8
Defpoints
 62
     0
100
AcDbPoint
 10
158.17127245532
 20
382.2021522889905
 30
0.0
  0
POINT
  5
2E80
330
25E3
100
AcDbEntity
  8
Defpoints
 62
     0
100
AcDbPoint
 10
158.17127245532
 20
360.1136950389905
 30
0.0
  0
ENDBLK
  5
25EE
330
25E3
100
AcDbEntity
  8
0
100
AcDbBlockEnd
  0
BLOCK
  5
25F9
330
25EF
100
AcDbEntity
  8
0
100
AcDbBlockBegin
  2
*D15
 70
     1
 10
0.0
 20
0.0
 30
0.0
  3
*D15
  1

  0
LINE
  5
2FA3
330
25EF
100
AcDbEntity
  8
AM_5
100
AcDbLine
 10
114.67127245532
 20
388.4021522990579
 30
0.0
 11
114.67127245532
 21
350.6136950389905
 31
0.0
  0
LINE
  5
2FA4
330
25EF
100
AcDbEntity
  8
AM_5
100
AcDbLine
 10
158.17127245532
 20
381.2021522889905
 30
0.0
 11
158.17127245532
 21
350.6136950389905
 31
0.0
  0
LINE
  5
2FA5
330
25EF
100
AcDbEntity
  8
AM_5
100
AcDbLine
 10
117.67127245532
 20
352.1136950389905
 30
0.0
 11
155.17127245532
 21
352.1136950389905
 31
0.0
  0
SOLID
  5
2FA6
330
25EF
100
AcDbEntity
  8
AM_5
100
AcDbTrace
 10
117.67127245532
 20
352.6136950389905
 30
0.0
 11
117.67127245532
 21
351.6136950389905
 31
0.0
 12
114.67127245532
 22
352.1136950389905
 32
0.0
 13
114.67127245532
 23
352.1136950389905
 33
0.0
  0
SOLID
  5
2FA7
330
25EF
100
AcDbEntity
  8
AM_5
100
AcDbTrace
 10
155.17127245532
 20
352.6136950389905
 30
0.0
 11
155.17127245532
 21
351.6136950389905
 31
0.0
 12
158.17127245532
 22
352.1136950389905
 32
0.0
 13
158.17127245532
 23
352.1136950389905
 33
0.0
  0
MTEXT
  5
2FA8
330
25EF
100
AcDbEntity
  8
AM_5
100
AcDbMText
 10
136.42127245532
 20
354.5636950389905
 30
0.0
 40
3.5
 41
0.0
 71
     5
 72
     1
  1
Z
 73
     1
 44
1.0
1001
ACAD
1000
MTEXTBEGIN
1070
    73
1070
     1
1070
    44
1040
1.0
1070
    74
1070
     0
1000
MTEXTEND
  0
POINT
  5
2FA9
330
25EF
100
AcDbEntity
  8
Defpoints
 62
     0
100
AcDbPoint
 10
114.67127245532
 20
389.4021522990578
 30
0.0
  0
POINT
  5
2FAA
330
25EF
100
AcDbEntity
  8
Defpoints
 62
     0
100
AcDbPoint
 10
158.17127245532
 20
382.2021522889905
 30
0.0
  0
POINT
  5
2FAB
330
25EF
100
AcDbEntity
  8
Defpoints
 62
     0
100
AcDbPoint
 10
158.17127245532
 20
352.1136950389905
 30
0.0
  0
ENDBLK
  5
25FA
330
25EF
100
AcDbEntity
  8
0
100
AcDbBlockEnd
  0
BLOCK
  5
2605
330
25FB
100
AcDbEntity
  8
0
100
AcDbBlockBegin
  2
*D16
 70
     1
 10
0.0
 20
0.0
 30
0.0
  3
*D16
  1

  0
LINE
  5
2E8A
330
25FB
100
AcDbEntity
  8
AM_5
100
AcDbLine
 10
159.17127245532
 20
382.2021522889905
 30
0.0
 11
171.67127245532
 21
382.2021522889905
 31
0.0
  0
LINE
  5
2E8B
330
25FB
100
AcDbEntity
  8
AM_5
100
AcDbLine
 10
159.17127245532
 20
401.2021522889904
 30
0.0
 11
171.67127245532
 21
401.2021522889904
 31
0.0
  0
LINE
  5
2E8C
330
25FB
100
AcDbEntity
  8
AM_5
100
AcDbLine
 10
170.17127245532
 20
385.2021522889905
 30
0.0
 11
170.17127245532
 21
398.2021522889905
 31
0.0
  0
SOLID
  5
2E8D
330
25FB
100
AcDbEntity
  8
AM_5
100
AcDbTrace
 10
169.67127245532
 20
385.2021522889905
 30
0.0
 11
170.67127245532
 21
385.2021522889905
 31
0.0
 12
170.17127245532
 22
382.2021522889905
 32
0.0
 13
170.17127245532
 23
382.2021522889905
 33
0.0
  0
SOLID
  5
2E8E
330
25FB
100
AcDbEntity
  8
AM_5
100
AcDbTrace
 10
169.67127245532
 20
398.2021522889905
 30
0.0
 11
170.67127245532
 21
398.2021522889905
 31
0.0
 12
170.17127245532
 22
401.2021522889904
 32
0.0
 13
170.17127245532
 23
401.2021522889904
 33
0.0
  0
MTEXT
  5
2E8F
330
25FB
100
AcDbEntity
  8
AM_5
100
AcDbMText
 10
167.72127245532
 20
391.7021522889905
 30
0.0
 40
3.5
 41
0.0
 71
     5
 72
     1
  1
%%c19{}{\C5; d9}
 11
0.0000000000000001
 21
1.0
 31
0.0
 73
     1
 44
1.0
1001
ACAD
1000
MTEXTBEGIN
1070
    73
1070
     1
1070
    44
1040
1.0
1070
    74
1070
     0
1000
MTEXTEND
  0
POINT
  5
2E90
330
25FB
100
AcDbEntity
  8
Defpoints
 62
     0
100
AcDbPoint
 10
158.17127245532
 20
382.2021522889905
 30
0.0
  0
POINT
  5
2E91
330
25FB
100
AcDbEntity
  8
Defpoints
 62
     0
100
AcDbPoint
 10
158.17127245532
 20
401.2021522889904
 30
0.0
  0
POINT
  5
2E92
330
25FB
100
AcDbEntity
  8
Defpoints
 62
     0
100
AcDbPoint
 10
170.17127245532
 20
401.2021522889904
 30
0.0
  0
ENDBLK
  5
2606
330
25FB
100
AcDbEntity
  8
0
100
AcDbBlockEnd
  0
BLOCK
  5
261D
330
2613
100
AcDbEntity
  8
0
100
AcDbBlockBegin
  2
*D17
 70
     1
 10
0.0
 20
0.0
 30
0.0
  3
*D17
  1

  0
LINE
  5
2E93
330
2613
100
AcDbEntity
  8
AM_5
100
AcDbLine
 10
128.67127245532
 20
380.9021522989905
 30
0.0
 11
128.67127245532
 21
366.6136950389905
 31
0.0
  0
LINE
  5
2E94
330
2613
100
AcDbEntity
  8
AM_5
100
AcDbLine
 10
151.17127245532
 20
381.2021522889905
 30
0.0
 11
151.17127245532
 21
366.6136950389905
 31
0.0
  0
LINE
  5
2E95
330
2613
100
AcDbEntity
  8
AM_5
100
AcDbLine
 10
131.67127245532
 20
368.1136950389905
 30
0.0
 11
148.17127245532
 21
368.1136950389905
 31
0.0
  0
SOLID
  5
2E96
330
2613
100
AcDbEntity
  8
AM_5
100
AcDbTrace
 10
131.67127245532
 20
368.6136950389905
 30
0.0
 11
131.67127245532
 21
367.6136950389905
 31
0.0
 12
128.67127245532
 22
368.1136950389905
 32
0.0
 13
128.67127245532
 23
368.1136950389905
 33
0.0
  0
SOLID
  5
2E97
330
2613
100
AcDbEntity
  8
AM_5
100
AcDbTrace
 10
148.17127245532
 20
368.6136950389905
 30
0.0
 11
148.17127245532
 21
367.6136950389905
 31
0.0
 12
151.17127245532
 22
368.1136950389905
 32
0.0
 13
151.17127245532
 23
368.1136950389905
 33
0.0
  0
MTEXT
  5
2E98
330
2613
100
AcDbEntity
  8
AM_5
100
AcDbMText
 10
139.92127245532
 20
370.5636950389905
 30
0.0
 40
3.5
 41
0.0
 71
     5
 72
     1
  1
F
 73
     1
 44
1.0
1001
ACAD
1000
MTEXTBEGIN
1070
    73
1070
     1
1070
    44
1040
1.0
1070
    74
1070
     0
1000
MTEXTEND
  0
POINT
  5
2E99
330
2613
100
AcDbEntity
  8
Defpoints
 62
     0
100
AcDbPoint
 10
128.67127245532
 20
381.9021522989905
 30
0.0
  0
POINT
  5
2E9A
330
2613
100
AcDbEntity
  8
Defpoints
 62
     0
100
AcDbPoint
 10
151.17127245532
 20
382.2021522889905
 30
0.0
  0
POINT
  5
2E9B
330
2613
100
AcDbEntity
  8
Defpoints
 62
     0
100
AcDbPoint
 10
151.17127245532
 20
368.1136950389905
 30
0.0
  0
ENDBLK
  5
261E
330
2613
100
AcDbEntity
  8
0
100
AcDbBlockEnd
  0
BLOCK
  5
2674
330
2668
100
AcDbEntity
  8
0
100
AcDbBlockBegin
  2
*D18
 70
     1
 10
0.0
 20
0.0
 30
0.0
  3
*D18
  1

  0
LINE
  5
2EA5
330
2668
100
AcDbEntity
  8
AM_5
100
AcDbLine
 10
114.37127245532
 20
394.2021522990578
 30
0.0
 11
108.229815980168
 21
394.2021522990578
 31
0.0
  0
LINE
  5
2EA6
330
2668
100
AcDbEntity
  8
AM_5
100
AcDbLine
 10
114.37127245532
 20
389.2021522990578
 30
0.0
 11
108.229815980168
 21
389.2021522990578
 31
0.0
  0
LINE
  5
2EA7
330
2668
100
AcDbEntity
  8
AM_5
100
AcDbLine
 10
109.7298159801679
 20
397.2021522990579
 30
0.0
 11
109.7298159801679
 21
400.2021522990578
 31
0.0
  0
LINE
  5
2EA8
330
2668
100
AcDbEntity
  8
AM_5
100
AcDbLine
 10
109.7298159801679
 20
386.2021522990578
 30
0.0
 11
109.7298159801679
 21
377.1071775522273
 31
0.0
  0
LINE
  5
2EA9
330
2668
100
AcDbEntity
  8
AM_5
100
AcDbLine
 10
109.7298159801679
 20
394.2021522990578
 30
0.0
 11
109.7298159801679
 21
389.2021522990578
 31
0.0
  0
SOLID
  5
2EAA
330
2668
100
AcDbEntity
  8
AM_5
100
AcDbTrace
 10
109.229815980168
 20
397.2021522990579
 30
0.0
 11
110.229815980168
 21
397.2021522990579
 31
0.0
 12
109.7298159801679
 22
394.2021522990578
 32
0.0
 13
109.7298159801679
 23
394.2021522990578
 33
0.0
  0
SOLID
  5
2EAB
330
2668
100
AcDbEntity
  8
AM_5
100
AcDbTrace
 10
109.229815980168
 20
386.2021522990578
 30
0.0
 11
110.229815980168
 21
386.2021522990578
 31
0.0
 12
109.7298159801679
 22
389.2021522990578
 32
0.0
 13
109.7298159801679
 23
389.2021522990578
 33
0.0
  0
MTEXT
  5
2EAC
330
2668
100
AcDbEntity
  8
AM_5
100
AcDbMText
 10
107.2798159801679
 20
380.1546649256426
 30
0.0
 40
3.5
 41
0.0
 71
     5
 72
     1
  1
%%c5
 11
0.0000000000000001
 21
1.0
 31
0.0
 73
     1
 44
1.0
1001
ACAD
1000
MTEXTBEGIN
1070
    73
1070
     1
1070
    44
1040
1.0
1070
    74
1070
     0
1000
MTEXTEND
  0
POINT
  5
2EAD
330
2668
100
AcDbEntity
  8
Defpoints
 62
     0
100
AcDbPoint
 10
115.37127245532
 20
394.2021522990578
 30
0.0
  0
POINT
  5
2EAE
330
2668
100
AcDbEntity
  8
Defpoints
 62
     0
100
AcDbPoint
 10
115.37127245532
 20
389.2021522990578
 30
0.0
  0
POINT
  5
2EAF
330
2668
100
AcDbEntity
  8
Defpoints
 62
     0
100
AcDbPoint
 10
109.7298159801679
 20
389.2021522990578
 30
0.0
  0
ENDBLK
  5
2675
330
2668
100
AcDbEntity
  8
0
100
AcDbBlockEnd
  0
BLOCK
  5
296A
330
2960
100
AcDbEntity
  8
0
100
AcDbBlockBegin
  2
*D19
 70
     1
 10
0.0
 20
0.0
 30
0.0
  3
*D19
  1

  0
LINE
  5
2DC8
330
2960
100
AcDbEntity
  8
AM_5
100
AcDbLine
 10
230.2895343529972
 20
292.1205136645036
 30
0.0
 11
230.2895343529972
 21
275.8262850345035
 31
0.0
  0
LINE
  5
2DC9
330
2960
100
AcDbEntity
  8
AM_5
100
AcDbLine
 10
257.2895343529972
 20
292.1205136645035
 30
0.0
 11
257.2895343529972
 21
275.8262850345035
 31
0.0
  0
LINE
  5
2DCA
330
2960
100
AcDbEntity
  8
AM_5
100
AcDbLine
 10
233.2895343529972
 20
277.3262850345036
 30
0.0
 11
254.2895343529972
 21
277.3262850345036
 31
0.0
  0
SOLID
  5
2DCB
330
2960
100
AcDbEntity
  8
AM_5
100
AcDbTrace
 10
233.2895343529972
 20
277.8262850345035
 30
0.0
 11
233.2895343529972
 21
276.8262850345035
 31
0.0
 12
230.2895343529972
 22
277.3262850345036
 32
0.0
 13
230.2895343529972
 23
277.3262850345036
 33
0.0
  0
SOLID
  5
2DCC
330
2960
100
AcDbEntity
  8
AM_5
100
AcDbTrace
 10
254.2895343529972
 20
277.8262850345035
 30
0.0
 11
254.2895343529972
 21
276.8262850345035
 31
0.0
 12
257.2895343529972
 22
277.3262850345036
 32
0.0
 13
257.2895343529972
 23
277.3262850345036
 33
0.0
  0
MTEXT
  5
2DCD
330
2960
100
AcDbEntity
  8
AM_5
100
AcDbMText
 10
243.7895343529972
 20
279.7766295226925
 30
0.0
 40
3.5
 41
0.0
 71
     5
 72
     1
  1
27
 73
     1
 44
1.0
1001
ACAD
1000
MTEXTBEGIN
1070
    73
1070
     1
1070
    44
1040
1.0
1070
    74
1070
     0
1000
MTEXTEND
  0
POINT
  5
2DCE
330
2960
100
AcDbEntity
  8
Defpoints
 62
     0
100
AcDbPoint
 10
230.2895343529972
 20
293.1205136645036
 30
0.0
  0
POINT
  5
2DCF
330
2960
100
AcDbEntity
  8
Defpoints
 62
     0
100
AcDbPoint
 10
257.2895343529972
 20
293.1205136645035
 30
0.0
  0
POINT
  5
2DD0
330
2960
100
AcDbEntity
  8
Defpoints
 62
     0
100
AcDbPoint
 10
257.2895343529972
 20
277.3262850345036
 30
0.0
  0
ENDBLK
  5
296B
330
2960
100
AcDbEntity
  8
0
100
AcDbBlockEnd
  0
BLOCK
  5
2A4B
330
2A41
100
AcDbEntity
  8
0
100
AcDbBlockBegin
  2
*D20
 70
     1
 10
0.0
 20
0.0
 30
0.0
  3
*D20
  1

  0
LINE
  5
2EB0
330
2A41
100
AcDbEntity
  8
AM_5
100
AcDbLine
 10
276.3603515576205
 20
388.9021522885919
 30
0.0
 11
276.3603515576205
 21
358.6136950285919
 31
0.0
  0
LINE
  5
2EB1
330
2A41
100
AcDbEntity
  8
AM_5
100
AcDbLine
 10
290.3603515576206
 20
380.9021522885919
 30
0.0
 11
290.3603515576206
 21
358.6136950285919
 31
0.0
  0
LINE
  5
2EB2
330
2A41
100
AcDbEntity
  8
AM_5
100
AcDbLine
 10
279.3603515576206
 20
360.113695028592
 30
0.0
 11
287.3603515576206
 21
360.113695028592
 31
0.0
  0
SOLID
  5
2EB3
330
2A41
100
AcDbEntity
  8
AM_5
100
AcDbTrace
 10
279.3603515576206
 20
360.6136950285919
 30
0.0
 11
279.3603515576206
 21
359.613695028592
 31
0.0
 12
276.3603515576205
 22
360.113695028592
 32
0.0
 13
276.3603515576205
 23
360.113695028592
 33
0.0
  0
SOLID
  5
2EB4
330
2A41
100
AcDbEntity
  8
AM_5
100
AcDbTrace
 10
287.3603515576206
 20
360.6136950285919
 30
0.0
 11
287.3603515576206
 21
359.613695028592
 31
0.0
 12
290.3603515576206
 22
360.113695028592
 32
0.0
 13
290.3603515576206
 23
360.113695028592
 33
0.0
  0
MTEXT
  5
2EB5
330
2A41
100
AcDbEntity
  8
AM_5
100
AcDbMText
 10
283.3603515576206
 20
362.5636950285919
 30
0.0
 40
3.5
 41
0.0
 71
     5
 72
     1
  1
14
 73
     1
 44
1.0
1001
ACAD
1000
MTEXTBEGIN
1070
    73
1070
     1
1070
    44
1040
1.0
1070
    74
1070
     0
1000
MTEXTEND
  0
POINT
  5
2EB6
330
2A41
100
AcDbEntity
  8
Defpoints
 62
     0
100
AcDbPoint
 10
276.3603515576205
 20
389.9021522885919
 30
0.0
  0
POINT
  5
2EB7
330
2A41
100
AcDbEntity
  8
Defpoints
 62
     0
100
AcDbPoint
 10
290.3603515576206
 20
381.9021522885919
 30
0.0
  0
POINT
  5
2EB8
330
2A41
100
AcDbEntity
  8
Defpoints
 62
     0
100
AcDbPoint
 10
290.3603515576206
 20
360.113695028592
 30
0.0
  0
ENDBLK
  5
2A4C
330
2A41
100
AcDbEntity
  8
0
100
AcDbBlockEnd
  0
BLOCK
  5
2A57
330
2A4D
100
AcDbEntity
  8
0
100
AcDbBlockBegin
  2
*D21
 70
     1
 10
0.0
 20
0.0
 30
0.0
  3
*D21
  1

  0
LINE
  5
2EB9
330
2A4D
100
AcDbEntity
  8
AM_5
100
AcDbLine
 10
290.3603515576206
 20
380.9021522885919
 30
0.0
 11
290.3603515576206
 21
358.6136950285919
 31
0.0
  0
LINE
  5
2EBA
330
2A4D
100
AcDbEntity
  8
AM_5
100
AcDbLine
 10
319.8603515576206
 20
381.2021522785919
 30
0.0
 11
319.8603515576206
 21
358.6136950285919
 31
0.0
  0
LINE
  5
2EBB
330
2A4D
100
AcDbEntity
  8
AM_5
100
AcDbLine
 10
293.3603515576205
 20
360.113695028592
 30
0.0
 11
316.8603515576206
 21
360.113695028592
 31
0.0
  0
SOLID
  5
2EBC
330
2A4D
100
AcDbEntity
  8
AM_5
100
AcDbTrace
 10
293.3603515576205
 20
360.6136950285919
 30
0.0
 11
293.3603515576205
 21
359.613695028592
 31
0.0
 12
290.3603515576206
 22
360.113695028592
 32
0.0
 13
290.3603515576206
 23
360.113695028592
 33
0.0
  0
SOLID
  5
2EBD
330
2A4D
100
AcDbEntity
  8
AM_5
100
AcDbTrace
 10
316.8603515576206
 20
360.6136950285919
 30
0.0
 11
316.8603515576206
 21
359.613695028592
 31
0.0
 12
319.8603515576206
 22
360.113695028592
 32
0.0
 13
319.8603515576206
 23
360.113695028592
 33
0.0
  0
MTEXT
  5
2EBE
330
2A4D
100
AcDbEntity
  8
AM_5
100
AcDbMText
 10
305.1103515576206
 20
362.5636950285919
 30
0.0
 40
3.5
 41
0.0
 71
     5
 72
     1
  1
S
 73
     1
 44
1.0
1001
ACAD
1000
MTEXTBEGIN
1070
    73
1070
     1
1070
    44
1040
1.0
1070
    74
1070
     0
1000
MTEXTEND
  0
POINT
  5
2EBF
330
2A4D
100
AcDbEntity
  8
Defpoints
 62
     0
100
AcDbPoint
 10
290.3603515576206
 20
381.9021522885919
 30
0.0
  0
POINT
  5
2EC0
330
2A4D
100
AcDbEntity
  8
Defpoints
 62
     0
100
AcDbPoint
 10
319.8603515576206
 20
382.2021522785919
 30
0.0
  0
POINT
  5
2EC1
330
2A4D
100
AcDbEntity
  8
Defpoints
 62
     0
100
AcDbPoint
 10
319.8603515576206
 20
360.113695028592
 30
0.0
  0
ENDBLK
  5
2A58
330
2A4D
100
AcDbEntity
  8
0
100
AcDbBlockEnd
  0
BLOCK
  5
2A63
330
2A59
100
AcDbEntity
  8
0
100
AcDbBlockBegin
  2
*D22
 70
     1
 10
0.0
 20
0.0
 30
0.0
  3
*D22
  1

  0
LINE
  5
2EC2
330
2A59
100
AcDbEntity
  8
AM_5
100
AcDbLine
 10
276.3603515576205
 20
388.9021522885919
 30
0.0
 11
276.3603515576205
 21
350.613695028592
 31
0.0
  0
LINE
  5
2EC3
330
2A59
100
AcDbEntity
  8
AM_5
100
AcDbLine
 10
319.8603515576206
 20
381.2021522785919
 30
0.0
 11
319.8603515576206
 21
350.613695028592
 31
0.0
  0
LINE
  5
2EC4
330
2A59
100
AcDbEntity
  8
AM_5
100
AcDbLine
 10
279.3603515576206
 20
352.1136950285919
 30
0.0
 11
316.8603515576206
 21
352.1136950285919
 31
0.0
  0
SOLID
  5
2EC5
330
2A59
100
AcDbEntity
  8
AM_5
100
AcDbTrace
 10
279.3603515576206
 20
352.613695028592
 30
0.0
 11
279.3603515576206
 21
351.613695028592
 31
0.0
 12
276.3603515576205
 22
352.1136950285919
 32
0.0
 13
276.3603515576205
 23
352.1136950285919
 33
0.0
  0
SOLID
  5
2EC6
330
2A59
100
AcDbEntity
  8
AM_5
100
AcDbTrace
 10
316.8603515576206
 20
352.613695028592
 30
0.0
 11
316.8603515576206
 21
351.613695028592
 31
0.0
 12
319.8603515576206
 22
352.1136950285919
 32
0.0
 13
319.8603515576206
 23
352.1136950285919
 33
0.0
  0
MTEXT
  5
2EC7
330
2A59
100
AcDbEntity
  8
AM_5
100
AcDbMText
 10
298.1103515576206
 20
354.563695028592
 30
0.0
 40
3.5
 41
0.0
 71
     5
 72
     1
  1
Z
 73
     1
 44
1.0
1001
ACAD
1000
MTEXTBEGIN
1070
    73
1070
     1
1070
    44
1040
1.0
1070
    74
1070
     0
1000
MTEXTEND
  0
POINT
  5
2EC8
330
2A59
100
AcDbEntity
  8
Defpoints
 62
     0
100
AcDbPoint
 10
276.3603515576205
 20
389.9021522885919
 30
0.0
  0
POINT
  5
2EC9
330
2A59
100
AcDbEntity
  8
Defpoints
 62
     0
100
AcDbPoint
 10
319.8603515576206
 20
382.2021522785919
 30
0.0
  0
POINT
  5
2ECA
330
2A59
100
AcDbEntity
  8
Defpoints
 62
     0
100
AcDbPoint
 10
319.8603515576206
 20
352.1136950285919
 30
0.0
  0
ENDBLK
  5
2A64
330
2A59
100
AcDbEntity
  8
0
100
AcDbBlockEnd
  0
BLOCK
  5
2A6F
330
2A65
100
AcDbEntity
  8
0
100
AcDbBlockBegin
  2
*D23
 70
     1
 10
0.0
 20
0.0
 30
0.0
  3
*D23
  1

  0
LINE
  5
2ECB
330
2A65
100
AcDbEntity
  8
AM_5
100
AcDbLine
 10
320.8603515576206
 20
382.2021522785919
 30
0.0
 11
333.3603515576205
 21
382.2021522785919
 31
0.0
  0
LINE
  5
2ECC
330
2A65
100
AcDbEntity
  8
AM_5
100
AcDbLine
 10
320.8603515576206
 20
401.2021522785919
 30
0.0
 11
333.3603515576206
 21
401.2021522785919
 31
0.0
  0
LINE
  5
2ECD
330
2A65
100
AcDbEntity
  8
AM_5
100
AcDbLine
 10
331.8603515576206
 20
385.202152278592
 30
0.0
 11
331.8603515576206
 21
398.2021522785919
 31
0.0
  0
SOLID
  5
2ECE
330
2A65
100
AcDbEntity
  8
AM_5
100
AcDbTrace
 10
331.3603515576206
 20
385.202152278592
 30
0.0
 11
332.3603515576206
 21
385.202152278592
 31
0.0
 12
331.8603515576205
 22
382.2021522785919
 32
0.0
 13
331.8603515576205
 23
382.2021522785919
 33
0.0
  0
SOLID
  5
2ECF
330
2A65
100
AcDbEntity
  8
AM_5
100
AcDbTrace
 10
331.3603515576206
 20
398.2021522785919
 30
0.0
 11
332.3603515576206
 21
398.2021522785919
 31
0.0
 12
331.8603515576206
 22
401.2021522785919
 32
0.0
 13
331.8603515576206
 23
401.2021522785919
 33
0.0
  0
MTEXT
  5
2ED0
330
2A65
100
AcDbEntity
  8
AM_5
100
AcDbMText
 10
329.4103515576205
 20
391.702152278592
 30
0.0
 40
3.5
 41
0.0
 71
     5
 72
     1
  1
%%c19{}{\C5; d9}
 11
0.0000000000000001
 21
1.0
 31
0.0
 73
     1
 44
1.0
1001
ACAD
1000
MTEXTBEGIN
1070
    73
1070
     1
1070
    44
1040
1.0
1070
    74
1070
     0
1000
MTEXTEND
  0
POINT
  5
2ED1
330
2A65
100
AcDbEntity
  8
Defpoints
 62
     0
100
AcDbPoint
 10
319.8603515576206
 20
382.2021522785919
 30
0.0
  0
POINT
  5
2ED2
330
2A65
100
AcDbEntity
  8
Defpoints
 62
     0
100
AcDbPoint
 10
319.8603515576206
 20
401.2021522785919
 30
0.0
  0
POINT
  5
2ED3
330
2A65
100
AcDbEntity
  8
Defpoints
 62
     0
100
AcDbPoint
 10
331.8603515576206
 20
401.2021522785919
 30
0.0
  0
ENDBLK
  5
2A70
330
2A65
100
AcDbEntity
  8
0
100
AcDbBlockEnd
  0
BLOCK
  5
2A7B
330
2A71
100
AcDbEntity
  8
0
100
AcDbBlockBegin
  2
*D24
 70
     1
 10
0.0
 20
0.0
 30
0.0
  3
*D24
  1

  0
LINE
  5
2ED4
330
2A71
100
AcDbEntity
  8
AM_5
100
AcDbLine
 10
290.3603515576206
 20
380.9021522885919
 30
0.0
 11
290.3603515576206
 21
366.613695028592
 31
0.0
  0
LINE
  5
2ED5
330
2A71
100
AcDbEntity
  8
AM_5
100
AcDbLine
 10
312.8603515576206
 20
381.2021522785919
 30
0.0
 11
312.8603515576206
 21
366.613695028592
 31
0.0
  0
LINE
  5
2ED6
330
2A71
100
AcDbEntity
  8
AM_5
100
AcDbLine
 10
293.3603515576205
 20
368.113695028592
 30
0.0
 11
309.8603515576205
 21
368.113695028592
 31
0.0
  0
SOLID
  5
2ED7
330
2A71
100
AcDbEntity
  8
AM_5
100
AcDbTrace
 10
293.3603515576205
 20
368.613695028592
 30
0.0
 11
293.3603515576205
 21
367.613695028592
 31
0.0
 12
290.3603515576206
 22
368.113695028592
 32
0.0
 13
290.3603515576206
 23
368.113695028592
 33
0.0
  0
SOLID
  5
2ED8
330
2A71
100
AcDbEntity
  8
AM_5
100
AcDbTrace
 10
309.8603515576205
 20
368.613695028592
 30
0.0
 11
309.8603515576205
 21
367.613695028592
 31
0.0
 12
312.8603515576206
 22
368.113695028592
 32
0.0
 13
312.8603515576206
 23
368.113695028592
 33
0.0
  0
MTEXT
  5
2ED9
330
2A71
100
AcDbEntity
  8
AM_5
100
AcDbMText
 10
301.6103515576205
 20
370.5636950285919
 30
0.0
 40
3.5
 41
0.0
 71
     5
 72
     1
  1
F
 73
     1
 44
1.0
1001
ACAD
1000
MTEXTBEGIN
1070
    73
1070
     1
1070
    44
1040
1.0
1070
    74
1070
     0
1000
MTEXTEND
  0
POINT
  5
2EDA
330
2A71
100
AcDbEntity
  8
Defpoints
 62
     0
100
AcDbPoint
 10
290.3603515576206
 20
381.9021522885919
 30
0.0
  0
POINT
  5
2EDB
330
2A71
100
AcDbEntity
  8
Defpoints
 62
     0
100
AcDbPoint
 10
312.8603515576206
 20
382.2021522785919
 30
0.0
  0
POINT
  5
2EDC
330
2A71
100
AcDbEntity
  8
Defpoints
 62
     0
100
AcDbPoint
 10
312.8603515576206
 20
368.113695028592
 30
0.0
  0
ENDBLK
  5
2A7C
330
2A71
100
AcDbEntity
  8
0
100
AcDbBlockEnd
  0
BLOCK
  5
2A87
330
2A7D
100
AcDbEntity
  8
0
100
AcDbBlockBegin
  2
*D25
 70
     1
 10
0.0
 20
0.0
 30
0.0
  3
*D25
  1

  0
LINE
  5
2EDD
330
2A7D
100
AcDbEntity
  8
AM_5
100
AcDbLine
 10
230.2895343529972
 20
382.907923658592
 30
0.0
 11
230.2895343529972
 21
366.613695028592
 31
0.0
  0
LINE
  5
2EDE
330
2A7D
100
AcDbEntity
  8
AM_5
100
AcDbLine
 10
257.2895343529972
 20
382.9079236585919
 30
0.0
 11
257.2895343529972
 21
366.613695028592
 31
0.0
  0
LINE
  5
2EDF
330
2A7D
100
AcDbEntity
  8
AM_5
100
AcDbLine
 10
233.2895343529972
 20
368.113695028592
 30
0.0
 11
254.2895343529972
 21
368.113695028592
 31
0.0
  0
SOLID
  5
2EE0
330
2A7D
100
AcDbEntity
  8
AM_5
100
AcDbTrace
 10
233.2895343529972
 20
368.613695028592
 30
0.0
 11
233.2895343529972
 21
367.613695028592
 31
0.0
 12
230.2895343529972
 22
368.113695028592
 32
0.0
 13
230.2895343529972
 23
368.113695028592
 33
0.0
  0
SOLID
  5
2EE1
330
2A7D
100
AcDbEntity
  8
AM_5
100
AcDbTrace
 10
254.2895343529972
 20
368.613695028592
 30
0.0
 11
254.2895343529972
 21
367.613695028592
 31
0.0
 12
257.2895343529972
 22
368.113695028592
 32
0.0
 13
257.2895343529972
 23
368.113695028592
 33
0.0
  0
MTEXT
  5
2EE2
330
2A7D
100
AcDbEntity
  8
AM_5
100
AcDbMText
 10
243.7895343529972
 20
370.5640395167809
 30
0.0
 40
3.5
 41
0.0
 71
     5
 72
     1
  1
27
 73
     1
 44
1.0
1001
ACAD
1000
MTEXTBEGIN
1070
    73
1070
     1
1070
    44
1040
1.0
1070
    74
1070
     0
1000
MTEXTEND
  0
POINT
  5
2EE3
330
2A7D
100
AcDbEntity
  8
Defpoints
 62
     0
100
AcDbPoint
 10
230.2895343529972
 20
383.907923658592
 30
0.0
  0
POINT
  5
2EE4
330
2A7D
100
AcDbEntity
  8
Defpoints
 62
     0
100
AcDbPoint
 10
257.2895343529972
 20
383.9079236585919
 30
0.0
  0
POINT
  5
2EE5
330
2A7D
100
AcDbEntity
  8
Defpoints
 62
     0
100
AcDbPoint
 10
257.2895343529972
 20
368.113695028592
 30
0.0
  0
ENDBLK
  5
2A88
330
2A7D
100
AcDbEntity
  8
0
100
AcDbBlockEnd
  0
BLOCK
  5
2A95
330
2A89
100
AcDbEntity
  8
0
100
AcDbBlockBegin
  2
*D26
 70
     1
 10
0.0
 20
0.0
 30
0.0
  3
*D26
  1

  0
LINE
  5
2EE6
330
2A89
100
AcDbEntity
  8
AM_5
100
AcDbLine
 10
276.0603515576205
 20
394.2021522886593
 30
0.0
 11
269.9188950824685
 21
394.2021522886593
 31
0.0
  0
LINE
  5
2EE7
330
2A89
100
AcDbEntity
  8
AM_5
100
AcDbLine
 10
276.0603515576205
 20
389.2021522886593
 30
0.0
 11
269.9188950824685
 21
389.2021522886593
 31
0.0
  0
LINE
  5
2EE8
330
2A89
100
AcDbEntity
  8
AM_5
100
AcDbLine
 10
271.4188950824685
 20
397.2021522886593
 30
0.0
 11
271.4188950824685
 21
400.2021522886592
 31
0.0
  0
LINE
  5
2EE9
330
2A89
100
AcDbEntity
  8
AM_5
100
AcDbLine
 10
271.4188950824685
 20
386.2021522886593
 30
0.0
 11
271.4188950824684
 21
377.1071775418287
 31
0.0
  0
LINE
  5
2EEA
330
2A89
100
AcDbEntity
  8
AM_5
100
AcDbLine
 10
271.4188950824685
 20
394.2021522886593
 30
0.0
 11
271.4188950824685
 21
389.2021522886593
 31
0.0
  0
SOLID
  5
2EEB
330
2A89
100
AcDbEntity
  8
AM_5
100
AcDbTrace
 10
270.9188950824685
 20
397.2021522886593
 30
0.0
 11
271.9188950824685
 21
397.2021522886593
 31
0.0
 12
271.4188950824685
 22
394.2021522886593
 32
0.0
 13
271.4188950824685
 23
394.2021522886593
 33
0.0
  0
SOLID
  5
2EEC
330
2A89
100
AcDbEntity
  8
AM_5
100
AcDbTrace
 10
270.9188950824685
 20
386.2021522886593
 30
0.0
 11
271.9188950824685
 21
386.2021522886593
 31
0.0
 12
271.4188950824685
 22
389.2021522886593
 32
0.0
 13
271.4188950824685
 23
389.2021522886593
 33
0.0
  0
MTEXT
  5
2EED
330
2A89
100
AcDbEntity
  8
AM_5
100
AcDbMText
 10
268.9688950824684
 20
380.1546649152441
 30
0.0
 40
3.5
 41
0.0
 71
     5
 72
     1
  1
%%c5
 11
0.0000000000000001
 21
1.0
 31
0.0
 73
     1
 44
1.0
1001
ACAD
1000
MTEXTBEGIN
1070
    73
1070
     1
1070
    44
1040
1.0
1070
    74
1070
     0
1000
MTEXTEND
  0
POINT
  5
2EEE
330
2A89
100
AcDbEntity
  8
Defpoints
 62
     0
100
AcDbPoint
 10
277.0603515576206
 20
394.2021522886593
 30
0.0
  0
POINT
  5
2EEF
330
2A89
100
AcDbEntity
  8
Defpoints
 62
     0
100
AcDbPoint
 10
277.0603515576206
 20
389.2021522886593
 30
0.0
  0
POINT
  5
2EF0
330
2A89
100
AcDbEntity
  8
Defpoints
 62
     0
100
AcDbPoint
 10
271.4188950824685
 20
389.2021522886593
 30
0.0
  0
ENDBLK
  5
2A96
330
2A89
100
AcDbEntity
  8
0
100
AcDbBlockEnd
  0
BLOCK
  5
2AF8
330
2AEE
100
AcDbEntity
  8
0
100
AcDbBlockBegin
  2
*D27
 70
     1
 10
0.0
 20
0.0
 30
0.0
  3
*D27
  1

  0
LINE
  5
2E12
330
2AEE
100
AcDbEntity
  8
AM_5
100
AcDbLine
 10
276.3603515576205
 20
298.1147422946384
 30
0.0
 11
276.3603515576205
 21
267.8262850346384
 31
0.0
  0
LINE
  5
2E13
330
2AEE
100
AcDbEntity
  8
AM_5
100
AcDbLine
 10
290.3603515576206
 20
290.1147422946383
 30
0.0
 11
290.3603515576206
 21
267.8262850346384
 31
0.0
  0
LINE
  5
2E14
330
2AEE
100
AcDbEntity
  8
AM_5
100
AcDbLine
 10
279.3603515576206
 20
269.3262850346384
 30
0.0
 11
287.3603515576206
 21
269.3262850346384
 31
0.0
  0
SOLID
  5
2E15
330
2AEE
100
AcDbEntity
  8
AM_5
100
AcDbTrace
 10
279.3603515576206
 20
269.8262850346384
 30
0.0
 11
279.3603515576206
 21
268.8262850346384
 31
0.0
 12
276.3603515576205
 22
269.3262850346384
 32
0.0
 13
276.3603515576205
 23
269.3262850346384
 33
0.0
  0
SOLID
  5
2E16
330
2AEE
100
AcDbEntity
  8
AM_5
100
AcDbTrace
 10
287.3603515576206
 20
269.8262850346384
 30
0.0
 11
287.3603515576206
 21
268.8262850346384
 31
0.0
 12
290.3603515576206
 22
269.3262850346384
 32
0.0
 13
290.3603515576206
 23
269.3262850346384
 33
0.0
  0
MTEXT
  5
2E17
330
2AEE
100
AcDbEntity
  8
AM_5
100
AcDbMText
 10
283.3603515576206
 20
271.7762850346383
 30
0.0
 40
3.5
 41
0.0
 71
     5
 72
     1
  1
14
 73
     1
 44
1.0
1001
ACAD
1000
MTEXTBEGIN
1070
    73
1070
     1
1070
    44
1040
1.0
1070
    74
1070
     0
1000
MTEXTEND
  0
POINT
  5
2E18
330
2AEE
100
AcDbEntity
  8
Defpoints
 62
     0
100
AcDbPoint
 10
276.3603515576205
 20
299.1147422946383
 30
0.0
  0
POINT
  5
2E19
330
2AEE
100
AcDbEntity
  8
Defpoints
 62
     0
100
AcDbPoint
 10
290.3603515576206
 20
291.1147422946383
 30
0.0
  0
POINT
  5
2E1A
330
2AEE
100
AcDbEntity
  8
Defpoints
 62
     0
100
AcDbPoint
 10
290.3603515576206
 20
269.3262850346384
 30
0.0
  0
ENDBLK
  5
2AF9
330
2AEE
100
AcDbEntity
  8
0
100
AcDbBlockEnd
  0
BLOCK
  5
2B04
330
2AFA
100
AcDbEntity
  8
0
100
AcDbBlockBegin
  2
*D28
 70
     1
 10
0.0
 20
0.0
 30
0.0
  3
*D28
  1

  0
LINE
  5
2E1B
330
2AFA
100
AcDbEntity
  8
AM_5
100
AcDbLine
 10
290.3603515576206
 20
290.1147422946383
 30
0.0
 11
290.3603515576206
 21
267.8262850346384
 31
0.0
  0
LINE
  5
2E1C
330
2AFA
100
AcDbEntity
  8
AM_5
100
AcDbLine
 10
319.8603515576206
 20
290.4147422846384
 30
0.0
 11
319.8603515576206
 21
267.8262850346384
 31
0.0
  0
LINE
  5
2E1D
330
2AFA
100
AcDbEntity
  8
AM_5
100
AcDbLine
 10
293.3603515576205
 20
269.3262850346384
 30
0.0
 11
316.8603515576206
 21
269.3262850346384
 31
0.0
  0
SOLID
  5
2E1E
330
2AFA
100
AcDbEntity
  8
AM_5
100
AcDbTrace
 10
293.3603515576205
 20
269.8262850346384
 30
0.0
 11
293.3603515576205
 21
268.8262850346384
 31
0.0
 12
290.3603515576206
 22
269.3262850346384
 32
0.0
 13
290.3603515576206
 23
269.3262850346384
 33
0.0
  0
SOLID
  5
2E1F
330
2AFA
100
AcDbEntity
  8
AM_5
100
AcDbTrace
 10
316.8603515576206
 20
269.8262850346384
 30
0.0
 11
316.8603515576206
 21
268.8262850346384
 31
0.0
 12
319.8603515576206
 22
269.3262850346384
 32
0.0
 13
319.8603515576206
 23
269.3262850346384
 33
0.0
  0
MTEXT
  5
2E20
330
2AFA
100
AcDbEntity
  8
AM_5
100
AcDbMText
 10
305.1103515576206
 20
271.7762850346383
 30
0.0
 40
3.5
 41
0.0
 71
     5
 72
     1
  1
S
 73
     1
 44
1.0
1001
ACAD
1000
MTEXTBEGIN
1070
    73
1070
     1
1070
    44
1040
1.0
1070
    74
1070
     0
1000
MTEXTEND
  0
POINT
  5
2E21
330
2AFA
100
AcDbEntity
  8
Defpoints
 62
     0
100
AcDbPoint
 10
290.3603515576206
 20
291.1147422946383
 30
0.0
  0
POINT
  5
2E22
330
2AFA
100
AcDbEntity
  8
Defpoints
 62
     0
100
AcDbPoint
 10
319.8603515576206
 20
291.4147422846383
 30
0.0
  0
POINT
  5
2E23
330
2AFA
100
AcDbEntity
  8
Defpoints
 62
     0
100
AcDbPoint
 10
319.8603515576206
 20
269.3262850346384
 30
0.0
  0
ENDBLK
  5
2B05
330
2AFA
100
AcDbEntity
  8
0
100
AcDbBlockEnd
  0
BLOCK
  5
2B10
330
2B06
100
AcDbEntity
  8
0
100
AcDbBlockBegin
  2
*D29
 70
     1
 10
0.0
 20
0.0
 30
0.0
  3
*D29
  1

  0
LINE
  5
2E24
330
2B06
100
AcDbEntity
  8
AM_5
100
AcDbLine
 10
276.3603515576205
 20
298.1147422946384
 30
0.0
 11
276.3603515576205
 21
259.8262850346384
 31
0.0
  0
LINE
  5
2E25
330
2B06
100
AcDbEntity
  8
AM_5
100
AcDbLine
 10
319.8603515576206
 20
290.4147422846384
 30
0.0
 11
319.8603515576206
 21
259.8262850346384
 31
0.0
  0
LINE
  5
2E26
330
2B06
100
AcDbEntity
  8
AM_5
100
AcDbLine
 10
279.3603515576206
 20
261.3262850346384
 30
0.0
 11
316.8603515576206
 21
261.3262850346384
 31
0.0
  0
SOLID
  5
2E27
330
2B06
100
AcDbEntity
  8
AM_5
100
AcDbTrace
 10
279.3603515576206
 20
261.8262850346384
 30
0.0
 11
279.3603515576206
 21
260.8262850346384
 31
0.0
 12
276.3603515576205
 22
261.3262850346384
 32
0.0
 13
276.3603515576205
 23
261.3262850346384
 33
0.0
  0
SOLID
  5
2E28
330
2B06
100
AcDbEntity
  8
AM_5
100
AcDbTrace
 10
316.8603515576206
 20
261.8262850346384
 30
0.0
 11
316.8603515576206
 21
260.8262850346384
 31
0.0
 12
319.8603515576206
 22
261.3262850346384
 32
0.0
 13
319.8603515576206
 23
261.3262850346384
 33
0.0
  0
MTEXT
  5
2E29
330
2B06
100
AcDbEntity
  8
AM_5
100
AcDbMText
 10
298.1103515576206
 20
263.7762850346383
 30
0.0
 40
3.5
 41
0.0
 71
     5
 72
     1
  1
Z
 73
     1
 44
1.0
1001
ACAD
1000
MTEXTBEGIN
1070
    73
1070
     1
1070
    44
1040
1.0
1070
    74
1070
     0
1000
MTEXTEND
  0
POINT
  5
2E2A
330
2B06
100
AcDbEntity
  8
Defpoints
 62
     0
100
AcDbPoint
 10
276.3603515576205
 20
299.1147422946383
 30
0.0
  0
POINT
  5
2E2B
330
2B06
100
AcDbEntity
  8
Defpoints
 62
     0
100
AcDbPoint
 10
319.8603515576206
 20
291.4147422846383
 30
0.0
  0
POINT
  5
2E2C
330
2B06
100
AcDbEntity
  8
Defpoints
 62
     0
100
AcDbPoint
 10
319.8603515576206
 20
261.3262850346384
 30
0.0
  0
ENDBLK
  5
2B11
330
2B06
100
AcDbEntity
  8
0
100
AcDbBlockEnd
  0
BLOCK
  5
2B1C
330
2B12
100
AcDbEntity
  8
0
100
AcDbBlockBegin
  2
*D30
 70
     1
 10
0.0
 20
0.0
 30
0.0
  3
*D30
  1

  0
LINE
  5
2E2D
330
2B12
100
AcDbEntity
  8
AM_5
100
AcDbLine
 10
320.8603515576206
 20
291.4147422846383
 30
0.0
 11
333.3603515576206
 21
291.4147422846383
 31
0.0
  0
LINE
  5
2E2E
330
2B12
100
AcDbEntity
  8
AM_5
100
AcDbLine
 10
320.8603515576206
 20
310.4147422846383
 30
0.0
 11
333.3603515576206
 21
310.4147422846383
 31
0.0
  0
LINE
  5
2E2F
330
2B12
100
AcDbEntity
  8
AM_5
100
AcDbLine
 10
331.8603515576206
 20
294.4147422846384
 30
0.0
 11
331.8603515576206
 21
307.4147422846384
 31
0.0
  0
SOLID
  5
2E30
330
2B12
100
AcDbEntity
  8
AM_5
100
AcDbTrace
 10
331.3603515576206
 20
294.4147422846384
 30
0.0
 11
332.3603515576206
 21
294.4147422846384
 31
0.0
 12
331.8603515576206
 22
291.4147422846383
 32
0.0
 13
331.8603515576206
 23
291.4147422846383
 33
0.0
  0
SOLID
  5
2E31
330
2B12
100
AcDbEntity
  8
AM_5
100
AcDbTrace
 10
331.3603515576206
 20
307.4147422846384
 30
0.0
 11
332.3603515576206
 21
307.4147422846384
 31
0.0
 12
331.8603515576206
 22
310.4147422846383
 32
0.0
 13
331.8603515576206
 23
310.4147422846383
 33
0.0
  0
MTEXT
  5
2E32
330
2B12
100
AcDbEntity
  8
AM_5
100
AcDbMText
 10
329.4103515576205
 20
300.9147422846384
 30
0.0
 40
3.5
 41
0.0
 71
     5
 72
     1
  1
%%c19{}{\C5; d9}
 11
0.0000000000000001
 21
1.0
 31
0.0
 73
     1
 44
1.0
1001
ACAD
1000
MTEXTBEGIN
1070
    73
1070
     1
1070
    44
1040
1.0
1070
    74
1070
     0
1000
MTEXTEND
  0
POINT
  5
2E33
330
2B12
100
AcDbEntity
  8
Defpoints
 62
     0
100
AcDbPoint
 10
319.8603515576206
 20
291.4147422846383
 30
0.0
  0
POINT
  5
2E34
330
2B12
100
AcDbEntity
  8
Defpoints
 62
     0
100
AcDbPoint
 10
319.8603515576206
 20
310.4147422846383
 30
0.0
  0
POINT
  5
2E35
330
2B12
100
AcDbEntity
  8
Defpoints
 62
     0
100
AcDbPoint
 10
331.8603515576206
 20
310.4147422846383
 30
0.0
  0
ENDBLK
  5
2B1D
330
2B12
100
AcDbEntity
  8
0
100
AcDbBlockEnd
  0
BLOCK
  5
2B28
330
2B1E
100
AcDbEntity
  8
0
100
AcDbBlockBegin
  2
*D31
 70
     1
 10
0.0
 20
0.0
 30
0.0
  3
*D31
  1

  0
LINE
  5
2E36
330
2B1E
100
AcDbEntity
  8
AM_5
100
AcDbLine
 10
276.3603515576205
 20
298.1147422946384
 30
0.0
 11
276.3603515576205
 21
275.8262850346384
 31
0.0
  0
LINE
  5
2E37
330
2B1E
100
AcDbEntity
  8
AM_5
100
AcDbLine
 10
288.3603515576206
 20
297.4147422946384
 30
0.0
 11
288.3603515576206
 21
275.8262850346384
 31
0.0
  0
LINE
  5
2E38
330
2B1E
100
AcDbEntity
  8
AM_5
100
AcDbLine
 10
279.3603515576206
 20
277.3262850346384
 30
0.0
 11
285.3603515576206
 21
277.3262850346384
 31
0.0
  0
SOLID
  5
2E39
330
2B1E
100
AcDbEntity
  8
AM_5
100
AcDbTrace
 10
279.3603515576206
 20
277.8262850346384
 30
0.0
 11
279.3603515576206
 21
276.8262850346384
 31
0.0
 12
276.3603515576205
 22
277.3262850346384
 32
0.0
 13
276.3603515576205
 23
277.3262850346384
 33
0.0
  0
SOLID
  5
2E3A
330
2B1E
100
AcDbEntity
  8
AM_5
100
AcDbTrace
 10
285.3603515576206
 20
277.8262850346384
 30
0.0
 11
285.3603515576206
 21
276.8262850346384
 31
0.0
 12
288.3603515576206
 22
277.3262850346384
 32
0.0
 13
288.3603515576206
 23
277.3262850346384
 33
0.0
  0
MTEXT
  5
2E3B
330
2B1E
100
AcDbEntity
  8
AM_5
100
AcDbMText
 10
282.3603515576206
 20
279.7766295228274
 30
0.0
 40
3.5
 41
0.0
 71
     5
 72
     1
  1
12
 73
     1
 44
1.0
1001
ACAD
1000
MTEXTBEGIN
1070
    73
1070
     1
1070
    44
1040
1.0
1070
    74
1070
     0
1000
MTEXTEND
  0
POINT
  5
2E3C
330
2B1E
100
AcDbEntity
  8
Defpoints
 62
     0
100
AcDbPoint
 10
276.3603515576205
 20
299.1147422946383
 30
0.0
  0
POINT
  5
2E3D
330
2B1E
100
AcDbEntity
  8
Defpoints
 62
     0
100
AcDbPoint
 10
288.3603515576206
 20
298.4147422946384
 30
0.0
  0
POINT
  5
2E3E
330
2B1E
100
AcDbEntity
  8
Defpoints
 62
     0
100
AcDbPoint
 10
288.3603515576206
 20
277.3262850346384
 30
0.0
  0
ENDBLK
  5
2B29
330
2B1E
100
AcDbEntity
  8
0
100
AcDbBlockEnd
  0
BLOCK
  5
2B34
330
2B2A
100
AcDbEntity
  8
0
100
AcDbBlockBegin
  2
*D32
 70
     1
 10
0.0
 20
0.0
 30
0.0
  3
*D32
  1

  0
LINE
  5
2E3F
330
2B2A
100
AcDbEntity
  8
AM_5
100
AcDbLine
 10
290.3603515576206
 20
290.1147422946383
 30
0.0
 11
290.3603515576206
 21
275.8262850346384
 31
0.0
  0
LINE
  5
2E40
330
2B2A
100
AcDbEntity
  8
AM_5
100
AcDbLine
 10
312.8603515576206
 20
290.4147422846384
 30
0.0
 11
312.8603515576206
 21
275.8262850346384
 31
0.0
  0
LINE
  5
2E41
330
2B2A
100
AcDbEntity
  8
AM_5
100
AcDbLine
 10
293.3603515576205
 20
277.3262850346384
 30
0.0
 11
309.8603515576205
 21
277.3262850346384
 31
0.0
  0
SOLID
  5
2E42
330
2B2A
100
AcDbEntity
  8
AM_5
100
AcDbTrace
 10
293.3603515576205
 20
277.8262850346384
 30
0.0
 11
293.3603515576205
 21
276.8262850346384
 31
0.0
 12
290.3603515576206
 22
277.3262850346384
 32
0.0
 13
290.3603515576206
 23
277.3262850346384
 33
0.0
  0
SOLID
  5
2E43
330
2B2A
100
AcDbEntity
  8
AM_5
100
AcDbTrace
 10
309.8603515576205
 20
277.8262850346384
 30
0.0
 11
309.8603515576205
 21
276.8262850346384
 31
0.0
 12
312.8603515576206
 22
277.3262850346384
 32
0.0
 13
312.8603515576206
 23
277.3262850346384
 33
0.0
  0
MTEXT
  5
2E44
330
2B2A
100
AcDbEntity
  8
AM_5
100
AcDbMText
 10
301.6103515576205
 20
279.7762850346384
 30
0.0
 40
3.5
 41
0.0
 71
     5
 72
     1
  1
F
 73
     1
 44
1.0
1001
ACAD
1000
MTEXTBEGIN
1070
    73
1070
     1
1070
    44
1040
1.0
1070
    74
1070
     0
1000
MTEXTEND
  0
POINT
  5
2E45
330
2B2A
100
AcDbEntity
  8
Defpoints
 62
     0
100
AcDbPoint
 10
290.3603515576206
 20
291.1147422946383
 30
0.0
  0
POINT
  5
2E46
330
2B2A
100
AcDbEntity
  8
Defpoints
 62
     0
100
AcDbPoint
 10
312.8603515576206
 20
291.4147422846383
 30
0.0
  0
POINT
  5
2E47
330
2B2A
100
AcDbEntity
  8
Defpoints
 62
     0
100
AcDbPoint
 10
312.8603515576206
 20
277.3262850346384
 30
0.0
  0
ENDBLK
  5
2B35
330
2B2A
100
AcDbEntity
  8
0
100
AcDbBlockEnd
  0
BLOCK
  5
2F01
330
2EFC
100
AcDbEntity
  8
0
100
AcDbBlockBegin
  2
*S33
 70
     1
 10
0.0
 20
0.0
 30
0.0
  3
*S33
  1

  0
LINE
  5
2EFD
330
2EFC
100
AcDbEntity
  8
AM_5
 62
     5
100
AcDbLine
 10
122.8233311725063
 20
311.6098816142825
 30
0.0
 11
110.3966942729335
 21
311.6098816142825
 31
0.0
  0
LINE
  5
2EFE
330
2EFC
100
AcDbEntity
  8
AM_5
 62
     5
100
AcDbLine
 10
110.3966942729335
 20
311.6098816142825
 30
0.0
 11
114.426043314816
 21
306.218314107071
 31
0.0
  0
TRACE
  5
2EFF
330
2EFC
100
AcDbEntity
  8
AM_5
 62
     5
370
    35
100
AcDbTrace
 10
114.0569460865683
 20
305.9424719589366
 30
0.0
 11
114.7951405430637
 21
306.4941562552056
 31
0.0
 12
116.52127245532
 22
303.4147423051043
 32
0.0
 13
116.52127245532
 23
303.4147423051043
 33
0.0
  0
MTEXT
  5
2F00
330
2EFC
100
AcDbEntity
  8
AM_5
 62
     5
100
AcDbMText
 10
122.8233311725063
 20
315.8856447070343
 30
0.0
 40
3.5
 41
0.0
 71
     9
 72
     5
  1

  7
ACISOTS
210
0.0
220
0.0
230
-1.0
 11
-1.0
 21
0.0
 31
0.0
 73
     1
 44
1.0
1001
ACAD
1000
MTEXTBEGIN
1070
    73
1070
     1
1070
    44
1040
1.0
1070
    74
1070
     0
1000
MTEXTEND
  0
ENDBLK
  5
2F02
330
2EFC
100
AcDbEntity
  8
0
100
AcDbBlockEnd
  0
BLOCK
  5
2F09
330
2F04
100
AcDbEntity
  8
0
100
AcDbBlockBegin
  2
*S34
 70
     1
 10
0.0
 20
0.0
 30
0.0
  3
*S34
  1

  0
LINE
  5
2F05
330
2F04
100
AcDbEntity
  8
AM_5
 62
     5
100
AcDbLine
 10
180.6749283176286
 20
283.5477656288917
 30
0.0
 11
166.941227741196
 21
283.5477656288917
 31
0.0
  0
LINE
  5
2F06
330
2F04
100
AcDbEntity
  8
AM_5
 62
     5
100
AcDbLine
 10
166.941227741196
 20
283.5477656288917
 30
0.0
 11
159.7489517152249
 21
297.7904938809593
 31
0.0
  0
TRACE
  5
2F07
330
2F04
100
AcDbEntity
  8
AM_5
 62
     5
370
    35
100
AcDbTrace
 10
160.1602668201865
 20
297.9981992949909
 30
0.0
 11
159.3376366102633
 21
297.5827884669278
 31
0.0
 12
158.17127245532
 22
300.9147422950369
 32
0.0
 13
158.17127245532
 23
300.9147422950369
 33
0.0
  0
MTEXT
  5
2F08
330
2F04
100
AcDbEntity
  8
AM_5
 62
     5
100
AcDbMText
 10
180.6749283176286
 20
288.7502974071969
 30
0.0
 40
3.5
 41
0.0
 71
     9
 72
     5
  1

  7
ACISOTS
210
0.0
220
0.0
230
-1.0
 11
-1.0
 21
0.0
 31
0.0
 73
     1
 44
1.0
1001
ACAD
1000
MTEXTBEGIN
1070
    73
1070
     1
1070
    44
1040
1.0
1070
    74
1070
     0
1000
MTEXTEND
  0
ENDBLK
  5
2F0A
330
2F04
100
AcDbEntity
  8
0
100
AcDbBlockEnd
  0
BLOCK
  5
2F11
330
2F0C
100
AcDbEntity
  8
0
100
AcDbBlockBegin
  2
*S35
 70
     1
 10
0.0
 20
0.0
 30
0.0
  3
*S35
  1

  0
LINE
  5
2F0D
330
2F0C
100
AcDbEntity
  8
AM_5
 62
     5
100
AcDbLine
 10
180.6749283176286
 20
374.3351756227779
 30
0.0
 11
166.941227741196
 21
374.3351756227779
 31
0.0
  0
LINE
  5
2F0E
330
2F0C
100
AcDbEntity
  8
AM_5
 62
     5
100
AcDbLine
 10
166.941227741196
 20
374.3351756227779
 30
0.0
 11
159.7489517152249
 21
388.5779038748455
 31
0.0
  0
TRACE
  5
2F0F
330
2F0C
100
AcDbEntity
  8
AM_5
 62
     5
370
    35
100
AcDbTrace
 10
160.1602668201865
 20
388.7856092888771
 30
0.0
 11
159.3376366102633
 21
388.3701984608139
 31
0.0
 12
158.17127245532
 22
391.7021522889231
 32
0.0
 13
158.17127245532
 23
391.7021522889231
 33
0.0
  0
MTEXT
  5
2F10
330
2F0C
100
AcDbEntity
  8
AM_5
 62
     5
100
AcDbMText
 10
180.6749283176286
 20
379.5377074010831
 30
0.0
 40
3.5
 41
0.0
 71
     9
 72
     5
  1

  7
ACISOTS
210
0.0
220
0.0
230
-1.0
 11
-1.0
 21
0.0
 31
0.0
 73
     1
 44
1.0
1001
ACAD
1000
MTEXTBEGIN
1070
    73
1070
     1
1070
    44
1040
1.0
1070
    74
1070
     0
1000
MTEXTEND
  0
ENDBLK
  5
2F12
330
2F0C
100
AcDbEntity
  8
0
100
AcDbBlockEnd
  0
BLOCK
  5
2F19
330
2F14
100
AcDbEntity
  8
0
100
AcDbBlockBegin
  2
*S36
 70
     1
 10
0.0
 20
0.0
 30
0.0
  3
*S36
  1

  0
LINE
  5
2F15
330
2F14
100
AcDbEntity
  8
AM_5
 62
     5
100
AcDbLine
 10
284.5124102748068
 20
311.6098816038165
 30
0.0
 11
272.085773375234
 21
311.6098816038165
 31
0.0
  0
LINE
  5
2F16
330
2F14
100
AcDbEntity
  8
AM_5
 62
     5
100
AcDbLine
 10
272.085773375234
 20
311.6098816038165
 30
0.0
 11
276.1151224171166
 21
306.2183140966051
 31
0.0
  0
TRACE
  5
2F17
330
2F14
100
AcDbEntity
  8
AM_5
 62
     5
370
    35
100
AcDbTrace
 10
275.7460251888689
 20
305.9424719484706
 30
0.0
 11
276.4842196453643
 21
306.4941562447396
 31
0.0
 12
278.2103515576206
 22
303.4147422946384
 32
0.0
 13
278.2103515576206
 23
303.4147422946384
 33
0.0
  0
MTEXT
  5
2F18
330
2F14
100
AcDbEntity
  8
AM_5
 62
     5
100
AcDbMText
 10
284.5124102748068
 20
315.8856446965683
 30
0.0
 40
3.5
 41
0.0
 71
     9
 72
     5
  1

  7
ACISOTS
210
0.0
220
0.0
230
-1.0
 11
-1.0
 21
0.0
 31
0.0
 73
     1
 44
1.0
1001
ACAD
1000
MTEXTBEGIN
1070
    73
1070
     1
1070
    44
1040
1.0
1070
    74
1070
     0
1000
MTEXTEND
  0
ENDBLK
  5
2F1A
330
2F14
100
AcDbEntity
  8
0
100
AcDbBlockEnd
  0
BLOCK
  5
2FC8
330
2FBC
100
AcDbEntity
  8
0
100
AcDbBlockBegin
  2
*D38
 70
     1
 10
0.0
 20
0.0
 30
0.0
  3
*D38
  1

  0
LINE
  5
2FDC
330
2FBC
100
AcDbEntity
  8
AM_5
100
AcDbLine
 10
114.37127245532
 20
394.702152299058
 30
0.0
 11
106.9214539292427
 21
394.702152299058
 31
0.0
  0
LINE
  5
2FDD
330
2FBC
100
AcDbEntity
  8
AM_5
100
AcDbLine
 10
114.37127245532
 20
388.7021522990579
 30
0.0
 11
106.9214539292427
 21
388.7021522990579
 31
0.0
  0
LINE
  5
2FDE
330
2FBC
100
AcDbEntity
  8
AM_5
100
AcDbLine
 10
108.4214539292427
 20
397.702152299058
 30
0.0
 11
108.4214539292427
 21
400.7021522990579
 31
0.0
  0
LINE
  5
2FDF
330
2FBC
100
AcDbEntity
  8
AM_5
100
AcDbLine
 10
108.4214539292427
 20
385.7021522990578
 30
0.0
 11
108.4214539292427
 21
376.5785302518137
 31
0.0
  0
LINE
  5
2FE0
330
2FBC
100
AcDbEntity
  8
AM_5
100
AcDbLine
 10
108.4214539292427
 20
394.702152299058
 30
0.0
 11
108.4214539292427
 21
388.7021522990579
 31
0.0
  0
SOLID
  5
2FE1
330
2FBC
100
AcDbEntity
  8
AM_5
100
AcDbTrace
 10
107.9214539292427
 20
397.702152299058
 30
0.0
 11
108.9214539292427
 21
397.702152299058
 31
0.0
 12
108.4214539292427
 22
394.702152299058
 32
0.0
 13
108.4214539292427
 23
394.702152299058
 33
0.0
  0
SOLID
  5
2FE2
330
2FBC
100
AcDbEntity
  8
AM_5
100
AcDbTrace
 10
107.9214539292427
 20
385.7021522990578
 30
0.0
 11
108.9214539292427
 21
385.7021522990578
 31
0.0
 12
108.4214539292427
 22
388.7021522990579
 32
0.0
 13
108.4214539292427
 23
388.7021522990579
 33
0.0
  0
MTEXT
  5
2FE3
330
2FBC
100
AcDbEntity
  8
AM_5
100
AcDbMText
 10
105.9714539292426
 20
379.6403412754358
 30
0.0
 40
3.5
 41
0.0
 71
     5
 72
     1
  1
%%c6
 11
0.0000000000000001
 21
1.0
 31
0.0
 73
     1
 44
1.0
1001
ACAD
1000
MTEXTBEGIN
1070
    73
1070
     1
1070
    44
1040
1.0
1070
    74
1070
     0
1000
MTEXTEND
  0
POINT
  5
2FE4
330
2FBC
100
AcDbEntity
  8
Defpoints
 62
     0
100
AcDbPoint
 10
115.37127245532
 20
394.702152299058
 30
0.0
  0
POINT
  5
2FE5
330
2FBC
100
AcDbEntity
  8
Defpoints
 62
     0
100
AcDbPoint
 10
115.37127245532
 20
388.7021522990579
 30
0.0
  0
POINT
  5
2FE6
330
2FBC
100
AcDbEntity
  8
Defpoints
 62
     0
100
AcDbPoint
 10
108.4214539292427
 20
388.7021522990579
 30
0.0
  0
ENDBLK
  5
2FC9
330
2FBC
100
AcDbEntity
  8
0
100
AcDbBlockEnd
  0
BLOCK
  5
3003
330
2FF7
100
AcDbEntity
  8
0
100
AcDbBlockBegin
  2
*D39
 70
     1
 10
0.0
 20
0.0
 30
0.0
  3
*D39
  1

  0
LINE
  5
3012
330
2FF7
100
AcDbEntity
  8
AM_5
100
AcDbLine
 10
276.0603515576206
 20
394.7021522885245
 30
0.0
 11
267.4841953259147
 21
394.7021522885245
 31
0.0
  0
LINE
  5
3013
330
2FF7
100
AcDbEntity
  8
AM_5
100
AcDbLine
 10
276.0603515576205
 20
388.7021522885246
 30
0.0
 11
267.4841953259147
 21
388.7021522885246
 31
0.0
  0
LINE
  5
3014
330
2FF7
100
AcDbEntity
  8
AM_5
100
AcDbLine
 10
268.9841953259147
 20
397.7021522885245
 30
0.0
 11
268.9841953259147
 21
400.7021522885245
 31
0.0
  0
LINE
  5
3015
330
2FF7
100
AcDbEntity
  8
AM_5
100
AcDbLine
 10
268.9841953259147
 20
385.7021522885245
 30
0.0
 11
268.9841953259147
 21
376.5785302412804
 31
0.0
  0
LINE
  5
3016
330
2FF7
100
AcDbEntity
  8
AM_5
100
AcDbLine
 10
268.9841953259147
 20
394.7021522885245
 30
0.0
 11
268.9841953259147
 21
388.7021522885246
 31
0.0
  0
SOLID
  5
3017
330
2FF7
100
AcDbEntity
  8
AM_5
100
AcDbTrace
 10
268.4841953259147
 20
397.7021522885245
 30
0.0
 11
269.4841953259147
 21
397.7021522885245
 31
0.0
 12
268.9841953259147
 22
394.7021522885245
 32
0.0
 13
268.9841953259147
 23
394.7021522885245
 33
0.0
  0
SOLID
  5
3018
330
2FF7
100
AcDbEntity
  8
AM_5
100
AcDbTrace
 10
268.4841953259147
 20
385.7021522885245
 30
0.0
 11
269.4841953259147
 21
385.7021522885245
 31
0.0
 12
268.9841953259147
 22
388.7021522885246
 32
0.0
 13
268.9841953259147
 23
388.7021522885246
 33
0.0
  0
MTEXT
  5
3019
330
2FF7
100
AcDbEntity
  8
AM_5
100
AcDbMText
 10
266.5341953259146
 20
379.6403412649025
 30
0.0
 40
3.5
 41
0.0
 71
     5
 72
     1
  1
%%c6
 11
0.0000000000000001
 21
1.0
 31
0.0
 73
     1
 44
1.0
1001
ACAD
1000
MTEXTBEGIN
1070
    73
1070
     1
1070
    44
1040
1.0
1070
    74
1070
     0
1000
MTEXTEND
  0
POINT
  5
301A
330
2FF7
100
AcDbEntity
  8
Defpoints
 62
     0
100
AcDbPoint
 10
277.0603515576206
 20
394.7021522885245
 30
0.0
  0
POINT
  5
301B
330
2FF7
100
AcDbEntity
  8
Defpoints
 62
     0
100
AcDbPoint
 10
277.0603515576206
 20
388.7021522885246
 30
0.0
  0
POINT
  5
301C
330
2FF7
100
AcDbEntity
  8
Defpoints
 62
     0
100
AcDbPoint
 10
268.9841953259147
 20
388.7021522885246
 30
0.0
  0
ENDBLK
  5
3004
330
2FF7
100
AcDbEntity
  8
0
100
AcDbBlockEnd
  0
ENDSEC
  0
SECTION
  2
ENTITIES
  0
TEXT
  5
1C90
330
1F
100
AcDbEntity
  8
0
100
AcDbText
 10
44.02536007754861
 20
428.8799813578539
 30
0.0
 40
4.4
  1
MCMJPB
100
AcDbText
  0
TEXT
  5
1C96
330
1F
100
AcDbEntity
  8
0
100
AcDbText
 10
44.02536007754861
 20
417.5629736306801
 30
0.0
 40
4.4
  1
Style:10
100
AcDbText
  0
TEXT
  5
1C9A
330
1F
100
AcDbEntity
  8
0
100
AcDbText
 10
44.02536007754861
 20
328.9119363134996
 30
0.0
 40
4.4
  1
Style:15
100
AcDbText
  0
TEXT
  5
1C9C
330
1F
100
AcDbEntity
  8
0
100
AcDbText
 10
210.3053950185018
 20
428.8799813578539
 30
0.0
 40
4.4
  1
MCMJPS
100
AcDbText
  0
TEXT
  5
1C9D
330
1F
100
AcDbEntity
  8
0
100
AcDbText
 10
210.3053950185018
 20
417.5629736306801
 30
0.0
 40
4.4
  1
Style:10
100
AcDbText
  0
TEXT
  5
1C9E
330
1F
100
AcDbEntity
  8
0
100
AcDbText
 10
210.3053950185018
 20
328.9119363134996
 30
0.0
 40
4.4
  1
Style:15
100
AcDbText
  0
TEXT
  5
1E63
330
1F
100
AcDbEntity
  8
LOGO
 62
     7
100
AcDbText
 10
81.23757063963727
 20
212.0175572294609
 30
0.0
 40
3.226199457013574
  1
Order example:
 41
0.8
  7
CHINESET
100
AcDbText
  0
TEXT
  5
1E64
330
1F
100
AcDbEntity
  8
LOGO
 62
     7
100
AcDbText
 10
81.81637750180971
 20
216.559378071815
 30
0.0
 40
4.839299185520362
  1
訂購代號：
  7
CHINESET
100
AcDbText
  0
LINE
  5
1E65
330
1F
100
AcDbEntity
  8
LOGO
 62
     4
100
AcDbLine
 10
79.83577603292542
 20
198.4211344291801
 30
0.0
 11
79.83577603292542
 21
222.6176303567821
 31
0.0
  0
TEXT
  5
1E66
330
1F
100
AcDbEntity
  8
LOGO
  6
Continuous
100
AcDbText
 10
35.29497509474959
 20
203.1744995384614
 30
0.0
 40
3.629474389140272
  1
金器工業股份有限公司
  7
CHINESET
100
AcDbText
  0
TEXT
  5
1E67
330
1F
100
AcDbEntity
  8
LOGO
  6
Continuous
100
AcDbText
 10
28.62834869799605
 20
199.5443140569026
 30
0.0
 40
2.419649592760181
  1
MINDMAN INDUSTRIAL CO., LTD.
 41
0.85
  7
CHINESET
100
AcDbText
  0
LINE
  5
1E68
330
1F
100
AcDbEntity
  8
LOGO
 62
     4
100
AcDbLine
 10
79.83577603292542
 20
217.7783311712617
 30
0.0
 11
44.3475820057759
 21
217.7783311712617
 31
0.0
  0
LINE
  5
1E69
330
1F
100
AcDbEntity
  8
LOGO
 62
     4
100
AcDbLine
 10
79.83577603292542
 20
212.9390319857413
 30
0.0
 11
44.3475820057759
 21
212.9390319857413
 31
0.0
  0
LINE
  5
1E6A
330
1F
100
AcDbEntity
  8
LOGO
 62
     4
100
AcDbLine
 10
79.83577603292542
 20
208.0997328002212
 30
0.0
 11
26.6034849922014
 21
208.0997328002212
 31
0.0
  0
LINE
  5
1E6B
330
1F
100
AcDbEntity
  8
LOGO
 62
     4
100
AcDbLine
 10
44.3475820057759
 20
208.0997328002212
 30
0.0
 11
44.3475820057759
 21
222.6176303567821
 31
0.0
  0
TEXT
  5
1E6C
330
1F
100
AcDbEntity
  8
LOGO
100
AcDbText
 10
68.6020876060882
 20
209.3095575966009
 30
0.0
 40
2.419649592760181
  1
mm
  7
CHINESET
 72
     1
 11
71.59784424474366
 21
210.519382392981
 31
0.0
100
AcDbText
 73
     2
  0
TEXT
  5
1E6D
330
1F
100
AcDbEntity
  8
LOGO
100
AcDbText
 10
67.33465210511859
 20
218.9881559676416
 30
0.0
 40
2.419649592760181
  1
1 : 1
  7
CHINESET
 72
     1
 11
71.59784424474366
 21
220.1979807640217
 31
0.0
100
AcDbText
 73
     2
  0
LINE
  5
1E6E
330
1F
100
AcDbEntity
  8
LOGO
 62
     4
100
AcDbLine
 10
63.70477874785746
 20
208.0997328002212
 30
0.0
 11
63.70477874785746
 21
222.6176303567821
 31
0.0
  0
TEXT
  5
1E6F
330
1F
100
AcDbEntity
  8
LOGO
100
AcDbText
 10
46.34271271909205
 20
218.989346740079
 30
158.5798481696603
 40
2.419649592760181
  1
比例 Scale:
 41
0.9
  7
CHINESET
 72
     4
 11
54.02618037681668
 21
220.1979807640217
 31
158.5798481696603
100
AcDbText
  0
TEXT
  5
1E70
330
1F
100
AcDbEntity
  8
LOGO
100
AcDbText
 10
46.20336682736613
 20
214.1828930276231
 30
158.5798481696603
 40
2.419649592760181
  1
投影  View:
 41
0.9
  7
CHINESET
 72
     4
 11
54.02618037681668
 21
215.3586815785014
 31
158.5798481696603
100
AcDbText
  0
TEXT
  5
1E71
330
1F
100
AcDbEntity
  8
LOGO
100
AcDbText
 10
46.43993078308688
 20
209.3095575966009
 30
158.5798481696603
 40
2.419649592760181
  1
單位  Unit:
 41
0.9
  7
CHINESET
 72
     4
 11
54.02618037681668
 21
210.519382392981
 31
158.5798481696603
100
AcDbText
  0
LWPOLYLINE
  5
1E72
330
1F
100
AcDbEntity
  8
LOGO
 62
     4
100
AcDbPolyline
 90
        4
 70
     1
 43
0.0
 10
26.6034849922014
 20
222.6176303567821
 10
359.3534849922014
 20
222.6176303567821
 10
359.3534849922014
 20
440.4211344291797
 10
26.6034849922014
 20
440.4211344291797
1001
GENIUS_GENREC_14
1002
{
1000
PYDIR
1011
26.6034849922014
1021
440.4211344291797
1031
0.0
1002
}
1002
{
1000
PXDIR
1011
359.3534849922014
1021
222.6176303567821
1031
0.0
1002
}
1002
{
1000
PORI
1011
26.6034849922014
1021
222.6176303567821
1031
0.0
1002
}
1002
{
1000
PINS
1011
26.6034849922014
1021
222.6176303567821
1031
0.0
1002
}
1002
{
1000
PINS2
1011
359.3534849922014
1021
440.4211344291797
1031
0.0
1002
}
1002
{
1000
C
1070
     1
1002
}
1001
GENIUS_GENODEF_13
1002
{
1000
HIER
1070
     0
1002
}
1002
{
1000
MANEDIT
1070
     0
1002
}
1002
{
1000
NOSEL
1070
     0
1002
}
1002
{
1000
BEHIND
1070
     0
1002
}
1002
{
1000
OTHER
1070
     0
1002
}
1002
{
1000
REACTOR
1002
}
1001
GENIUS_GENOBJ-N-REC_13
1002
{
1000
OWNER
1000
GEN
1002
}
  0
SOLID
  5
1E73
330
1F
100
AcDbEntity
  8
LOGO
 62
     5
100
AcDbTrace
 10
29.11391027711227
 20
212.122055838186
 30
0.0
 11
30.16010326941648
 21
212.1220558381857
 31
0.0
 12
34.52525334075443
 22
222.0428514548639
 32
0.0
 13
35.57144633305916
 23
222.0428514548633
 33
0.0
  0
SOLID
  5
1E74
330
1F
100
AcDbEntity
  8
LOGO
 62
     5
100
AcDbTrace
 10
30.59301071450898
 20
212.122055838186
 30
0.0
 11
31.63920370681308
 21
212.122055838186
 31
0.0
 12
35.57144633305916
 22
221.2491878055292
 32
0.0
 13
34.52525334075443
 23
217.4131468337471
 33
0.0
  0
SOLID
  5
1E75
330
1F
100
AcDbEntity
  8
LOGO
 62
     2
100
AcDbTrace
 10
30.16010326941648
 20
212.1220558381857
 30
0.0
 11
30.59301071450898
 21
212.122055838186
 31
0.0
 12
35.57144633305916
 22
222.0428514548633
 32
0.0
 13
36.00435377815109
 23
222.0428514548633
 33
0.0
  0
SOLID
  5
1E76
330
1F
100
AcDbEntity
  8
LOGO
 62
     5
100
AcDbTrace
 10
27.43660635250035
 20
208.514493795758
 30
0.0
 11
27.79736255674357
 21
208.514493795758
 31
0.0
 12
28.81328010691027
 22
210.3182748169718
 32
0.0
 13
29.17403631115241
 23
210.3182748169718
 33
0.0
  0
SOLID
  5
1E77
330
1F
100
AcDbEntity
  8
LOGO
 62
     5
100
AcDbTrace
 10
28.81328010691027
 20
210.3182748169718
 30
0.0
 11
29.17403631115241
 21
210.3182748169718
 31
0.0
 12
28.81328010691027
 22
208.514493795758
 32
0.0
 13
29.17403631115241
 23
208.514493795758
 33
0.0
  0
SOLID
  5
1E78
330
1F
100
AcDbEntity
  8
LOGO
 62
     5
100
AcDbTrace
 10
28.81328010691027
 20
208.514493795758
 30
0.0
 11
29.17403631115241
 21
208.514493795758
 31
0.0
 12
30.18995386132071
 22
210.3182748169718
 32
0.0
 13
30.55071006556335
 23
210.3182748169718
 33
0.0
  0
SOLID
  5
1E79
330
1F
100
AcDbEntity
  8
LOGO
 62
     5
100
AcDbTrace
 10
30.18995386132071
 20
210.3182748169718
 30
0.0
 11
30.55071006556335
 21
210.3182748169718
 31
0.0
 12
30.18995386132071
 22
208.514493795758
 32
0.0
 13
30.55071006556335
 23
208.514493795758
 33
0.0
  0
POLYLINE
  5
1E7A
330
1F
100
AcDbEntity
  8
LOGO
 62
     5
100
AcDb2dPolyline
 66
     1
 10
0.0
 20
0.0
 30
0.0
 40
0.3613343391855204
 41
0.3613343391855204
  0
VERTEX
  5
1E7B
330
1E7A
100
AcDbEntity
  8
LOGO
 62
     5
100
AcDbVertex
100
AcDb2dVertex
 10
42.28237893439017
 20
209.5967624084863
 30
0.0
 42
1.0
  0
VERTEX
  5
1E7C
330
1E7A
100
AcDbEntity
  8
LOGO
 62
     5
100
AcDbVertex
100
AcDb2dVertex
 10
41.19837591683335
 20
209.5967624084863
 30
0.0
 42
1.0
  0
SEQEND
  5
1E7D
330
1E7A
100
AcDbEntity
  8
LOGO
 62
     5
  0
POLYLINE
  5
1E7E
330
1F
100
AcDbEntity
  8
LOGO
 62
     5
100
AcDb2dPolyline
 66
     1
 10
0.0
 20
0.0
 30
0.0
 70
     1
  0
VERTEX
  5
1E7F
330
1E7E
100
AcDbEntity
  8
LOGO
 62
     5
100
AcDbVertex
100
AcDb2dVertex
 10
39.15498201228445
 20
209.4163843063646
 30
0.0
 42
1.000000057330635
  0
VERTEX
  5
1E80
330
1E7E
100
AcDbEntity
  8
LOGO
 62
     5
100
AcDbVertex
100
AcDb2dVertex
 10
40.23725062501296
 20
209.4163843063646
 30
0.0
 42
1.000000057330635
  0
SEQEND
  5
1E81
330
1E7E
100
AcDbEntity
  8
LOGO
 62
     5
  0
CIRCLE
  5
1E82
330
1F
100
AcDbEntity
  8
LOGO
 62
     5
100
AcDbCircle
 10
39.6961163186495
 20
209.4163843063646
 30
0.0
 40
0.5411343063642354
  0
POLYLINE
  5
1E83
330
1F
100
AcDbEntity
  8
LOGO
 62
     5
100
AcDb2dPolyline
 66
     1
 10
0.0
 20
0.0
 30
0.0
 70
     1
 40
0.3613343391855204
 41
0.3613343391855204
  0
VERTEX
  5
1E84
330
1E83
100
AcDbEntity
  8
LOGO
 62
     5
100
AcDbVertex
100
AcDb2dVertex
 10
38.97344764027798
 20
209.4163843063646
 30
0.0
 42
1.0
  0
VERTEX
  5
1E85
330
1E83
100
AcDbEntity
  8
LOGO
 62
     5
100
AcDbVertex
100
AcDb2dVertex
 10
40.41878499702
 20
209.4163843063646
 30
0.0
 42
1.0
  0
SEQEND
  5
1E86
330
1E83
100
AcDbEntity
  8
LOGO
 62
     5
  0
LINE
  5
1E87
330
1F
100
AcDbEntity
  8
LOGO
100
AcDbLine
 10
42.46188983409683
 20
208.514493795758
 30
0.0
 11
42.46188983409683
 21
209.5967624084863
 31
0.0
  0
SOLID
  5
1E88
330
1F
100
AcDbEntity
  8
LOGO
 62
     5
100
AcDbTrace
 10
40.23721454939408
 20
210.3182748169718
 30
0.0
 11
40.59797075363621
 21
210.3182748169718
 31
0.0
 12
40.23721454939408
 22
208.514493795758
 32
0.0
 13
40.59797075363621
 23
208.514493795758
 33
0.0
  0
SOLID
  5
1E89
330
1F
100
AcDbEntity
  8
LOGO
 62
     5
100
AcDbTrace
 10
41.01886501712562
 20
208.514493795758
 30
0.0
 11
41.37962122136883
 21
208.514493795758
 31
0.0
 12
41.01886501712562
 22
210.3182748169718
 32
0.0
 13
41.37962122136883
 23
210.3182748169718
 33
0.0
  0
SOLID
  5
1E8A
330
1F
100
AcDbEntity
  8
LOGO
 62
     5
100
AcDbTrace
 10
42.10113362985469
 20
209.5967624084863
 30
0.0
 11
42.46188983409683
 21
209.5967624084863
 31
0.0
 12
42.10113362985469
 22
208.514493795758
 32
0.0
 13
42.46188983409683
 23
208.514493795758
 33
0.0
  0
SOLID
  5
1E8B
330
1F
100
AcDbEntity
  8
LOGO
 62
     5
100
AcDbTrace
 10
40.98278939670126
 20
221.2491878055292
 30
0.0
 11
39.93659640439762
 21
217.4131468337471
 31
0.0
 12
40.98278939670126
 22
212.1220558381857
 32
0.0
 13
39.93659640439762
 23
212.1220558381857
 33
0.0
  0
SOLID
  5
1E8C
330
1F
100
AcDbEntity
  8
LOGO
 62
     5
100
AcDbTrace
 10
41.41569684179319
 20
212.1220558381857
 30
0.0
 11
42.46188983409683
 21
212.1220558381857
 31
0.0
 12
41.41569684179319
 22
222.0428514548633
 32
0.0
 13
42.46188983409683
 23
222.0428514548639
 33
0.0
  0
SOLID
  5
1E8D
330
1F
100
AcDbEntity
  8
LOGO
 62
     2
100
AcDbTrace
 10
40.98278939670126
 20
222.0428514548639
 30
0.0
 11
41.41569684179319
 21
222.0428514548633
 31
0.0
 12
40.98278939670126
 22
212.1220558381857
 32
0.0
 13
41.41569684179319
 23
212.1220558381857
 33
0.0
  0
POLYLINE
  5
1E8E
330
1F
100
AcDbEntity
  8
LOGO
 62
     5
100
AcDb2dPolyline
 66
     1
 10
0.0
 20
0.0
 30
0.0
 40
0.3613343391855204
 41
0.3613343391855204
  0
VERTEX
  5
1E8F
330
1E8E
100
AcDbEntity
  8
LOGO
 62
     5
100
AcDbVertex
100
AcDb2dVertex
 10
37.11151595649614
 20
209.5967624084863
 30
0.0
 42
1.0
  0
VERTEX
  5
1E90
330
1E8E
100
AcDbEntity
  8
LOGO
 62
     5
100
AcDbVertex
100
AcDb2dVertex
 10
36.02751293893937
 20
209.5967624084863
 30
0.0
 42
1.0
  0
SEQEND
  5
1E91
330
1E8E
100
AcDbEntity
  8
LOGO
 62
     5
  0
POLYLINE
  5
1E92
330
1F
100
AcDbEntity
  8
LOGO
 62
     5
100
AcDb2dPolyline
 66
     1
 10
0.0
 20
0.0
 30
0.0
 40
0.3613343391855204
 41
0.3613343391855204
  0
VERTEX
  5
1E93
330
1E92
100
AcDbEntity
  8
LOGO
 62
     5
100
AcDbVertex
100
AcDb2dVertex
 10
38.19378456922363
 20
209.5967624084863
 30
0.0
 42
1.0
  0
VERTEX
  5
1E94
330
1E92
100
AcDbEntity
  8
LOGO
 62
     5
100
AcDbVertex
100
AcDb2dVertex
 10
37.10978155166737
 20
209.5967624084863
 30
0.0
 42
1.0
  0
SEQEND
  5
1E95
330
1E92
100
AcDbEntity
  8
LOGO
 62
     5
  0
POLYLINE
  5
1E96
330
1F
100
AcDbEntity
  8
LOGO
 62
     5
100
AcDb2dPolyline
 66
     1
 10
0.0
 20
0.0
 30
0.0
 40
0.3613343391855204
 41
0.3613343391855204
  0
VERTEX
  5
1E97
330
1E96
100
AcDbEntity
  8
LOGO
 62
     5
100
AcDbVertex
100
AcDb2dVertex
 10
33.02292159132964
 20
209.5967624084863
 30
0.0
 42
1.0
  0
VERTEX
  5
1E98
330
1E96
100
AcDbEntity
  8
LOGO
 62
     5
100
AcDbVertex
100
AcDb2dVertex
 10
31.93891857377338
 20
209.5967624084863
 30
0.0
 42
1.0
  0
SEQEND
  5
1E99
330
1E96
100
AcDbEntity
  8
LOGO
 62
     5
  0
SOLID
  5
1E9A
330
1F
100
AcDbEntity
  8
LOGO
 62
     5
100
AcDbTrace
 10
31.75940767406615
 20
210.3182748169718
 30
0.0
 11
32.12016387830829
 21
210.3182748169718
 31
0.0
 12
31.75940767406615
 22
208.514493795758
 32
0.0
 13
32.12016387830829
 23
208.514493795758
 33
0.0
  0
SOLID
  5
1E9B
330
1F
100
AcDbEntity
  8
LOGO
 62
     5
100
AcDbTrace
 10
32.84167628679472
 20
209.5967624084863
 30
0.0
 11
33.20243249103788
 21
209.5967624084863
 31
0.0
 12
32.84167628679472
 22
208.514493795758
 32
0.0
 13
33.20243249103788
 23
208.514493795758
 33
0.0
  0
POLYLINE
  5
1E9C
330
1F
100
AcDbEntity
  8
LOGO
 62
     5
100
AcDb2dPolyline
 66
     1
 10
0.0
 20
0.0
 30
0.0
 70
     1
 40
0.3613343391855204
 41
0.3613343391855204
  0
VERTEX
  5
1E9D
330
1E9C
100
AcDbEntity
  8
LOGO
 62
     5
100
AcDbVertex
100
AcDb2dVertex
 10
33.80258466238343
 20
209.4163843063646
 30
0.0
 42
1.0
  0
VERTEX
  5
1E9E
330
1E9C
100
AcDbEntity
  8
LOGO
 62
     5
100
AcDbVertex
100
AcDb2dVertex
 10
35.24792201912595
 20
209.4163843063646
 30
0.0
 42
1.0
  0
SEQEND
  5
1E9F
330
1E9C
100
AcDbEntity
  8
LOGO
 62
     5
  0
SOLID
  5
1EA0
330
1F
100
AcDbEntity
  8
LOGO
 62
     5
100
AcDbTrace
 10
35.06635157149901
 20
210.8594091233364
 30
0.0
 11
35.42710777574166
 21
210.8594091233364
 31
0.0
 12
35.06635157149901
 22
208.514493795758
 32
0.0
 13
35.42710777574166
 23
208.514493795758
 33
0.0
  0
SOLID
  5
1EA1
330
1F
100
AcDbEntity
  8
LOGO
 62
     5
100
AcDbTrace
 10
35.84800203923271
 20
210.3182748169718
 30
0.0
 11
36.20875824347485
 21
210.3182748169718
 31
0.0
 12
35.84800203923271
 22
208.514493795758
 32
0.0
 13
36.20875824347485
 23
208.514493795758
 33
0.0
  0
SOLID
  5
1EA2
330
1F
100
AcDbEntity
  8
LOGO
 62
     5
100
AcDbTrace
 10
36.9302706519602
 20
209.5967624084863
 30
0.0
 11
37.29102685620336
 21
209.5967624084863
 31
0.0
 12
36.9302706519602
 22
208.514493795758
 32
0.0
 13
37.29102685620336
 23
208.514493795758
 33
0.0
  0
SOLID
  5
1EA3
330
1F
100
AcDbEntity
  8
LOGO
 62
     5
100
AcDbTrace
 10
38.01253926468871
 20
209.5967624084863
 30
0.0
 11
38.37329546893136
 21
209.5967624084863
 31
0.0
 12
38.01253926468871
 22
208.5144937957575
 32
0.0
 13
38.37329546893136
 23
208.5144937957575
 33
0.0
  0
SOLID
  5
1EA4
330
1F
100
AcDbEntity
  8
LOGO
 62
     5
100
AcDbTrace
 10
30.97775720633303
 20
210.570804159942
 30
0.0
 11
31.33851341057675
 21
210.570804159942
 31
0.0
 12
30.97775720633303
 22
210.8594091233364
 32
0.0
 13
31.33851341057675
 23
210.8594091233364
 33
0.0
  0
SOLID
  5
1EA5
330
1F
100
AcDbEntity
  8
LOGO
 62
     5
100
AcDbTrace
 10
30.97775720633303
 20
210.3182748169718
 30
0.0
 11
31.33851341057675
 21
210.3182748169718
 31
0.0
 12
30.97775720633303
 22
208.5144937957575
 32
0.0
 13
31.33851341057675
 23
208.514493795758
 33
0.0
  0
SOLID
  5
1EA6
330
1F
100
AcDbEntity
  8
LOGO
 62
     5
100
AcDbTrace
 10
34.52525334075443
 20
212.122055838186
 30
0.0
 11
35.57144633305916
 21
212.122055838186
 31
0.0
 12
34.52525334075443
 22
217.4131468337471
 32
0.0
 13
35.57144633305916
 23
221.2491878055292
 33
0.0
  0
SOLID
  5
1EA7
330
1F
100
AcDbEntity
  8
LOGO
 62
     5
100
AcDbTrace
 10
36.00435377815109
 20
222.0428514548633
 30
0.0
 11
37.05054677045473
 21
222.0428514548639
 31
0.0
 12
36.00435377815109
 22
212.9157194875201
 32
0.0
 13
37.05054677045473
 23
216.7517604593022
 33
0.0
  0
SOLID
  5
1EA8
330
1F
100
AcDbEntity
  8
LOGO
 62
     2
100
AcDbTrace
 10
35.57144633305916
 20
222.0428514548633
 30
0.0
 11
36.00435377815109
 21
222.0428514548633
 31
0.0
 12
35.57144633305916
 22
212.122055838186
 32
0.0
 13
36.00435377815109
 23
212.122055838186
 33
0.0
  0
SOLID
  5
1EA9
330
1F
100
AcDbEntity
  8
LOGO
 62
     5
100
AcDbTrace
 10
36.00435377815109
 20
212.9157194875201
 30
0.0
 11
37.05054677045473
 21
216.7517604593022
 31
0.0
 12
40.98278939670126
 22
222.0428514548639
 32
0.0
 13
39.93659640439762
 23
222.0428514548639
 33
0.0
  0
SOLID
  5
1EAA
330
1F
100
AcDbEntity
  8
LOGO
 62
     5
100
AcDbTrace
 10
36.00435377815109
 20
212.122055838186
 30
0.0
 11
37.05054677045473
 21
212.122055838186
 31
0.0
 12
40.98278939670126
 22
221.2491878055292
 32
0.0
 13
39.93659640439762
 23
217.4131468337471
 33
0.0
  0
SOLID
  5
1EAB
330
1F
100
AcDbEntity
  8
LOGO
 62
     2
100
AcDbTrace
 10
35.57144633305916
 20
212.122055838186
 30
0.0
 11
36.00435377815109
 21
212.122055838186
 31
0.0
 12
40.98278939670126
 22
222.0428514548639
 32
0.0
 13
41.41569684179319
 23
222.0428514548633
 33
0.0
  0
LWPOLYLINE
  5
1EAC
330
1F
100
AcDbEntity
  8
LOGO
 62
     4
100
AcDbPolyline
 90
        4
 70
     1
 43
0.0
 10
26.6034849922014
 20
222.6176303567821
 10
359.3534849922014
 20
222.6176303567821
 10
359.3534849922014
 20
198.4211344291798
 10
26.6034849922014
 20
198.4211344291798
1001
GENIUS_GENREC_14
1002
{
1000
PYDIR
1011
26.6034849922014
1021
198.4211344291798
1031
0.0
1002
}
1002
{
1000
PXDIR
1011
359.3534849922014
1021
222.6176303567821
1031
0.0
1002
}
1002
{
1000
PORI
1011
26.6034849922014
1021
222.6176303567821
1031
0.0
1002
}
1002
{
1000
PINS
1011
26.6034849922014
1021
222.6176303567821
1031
0.0
1002
}
1002
{
1000
PINS2
1011
359.3534849922014
1021
198.4211344291798
1031
0.0
1002
}
1002
{
1000
C
1070
     1
1002
}
1001
GENIUS_GENOBJ-N-REC_13
1002
{
1000
OWNER
1000
GEN
1002
}
1001
GENIUS_GENODEF_13
1002
{
1000
HIER
1070
     0
1002
}
1002
{
1000
MANEDIT
1070
     0
1002
}
1002
{
1000
NOSEL
1070
     0
1002
}
1002
{
1000
BEHIND
1070
     0
1002
}
1002
{
1000
OTHER
1070
     0
1002
}
1002
{
1000
REACTOR
1002
}
  0
LINE
  5
1EAD
330
1F
100
AcDbEntity
  8
LOGO
 62
     4
100
AcDbLine
 10
129.247979571404
 20
209.3095575966013
 30
0.0
 11
129.247979571404
 21
200.4375090898136
 31
0.0
  0
LINE
  5
1EAE
330
1F
100
AcDbEntity
  8
LOGO
 62
     4
100
AcDbLine
 10
113.116982286336
 20
209.3095575966013
 30
0.0
 11
113.116982286336
 21
200.4375090898136
 31
0.0
  0
LINE
  5
1EAF
330
1F
100
AcDbEntity
  8
LOGO
 62
     4
100
AcDbLine
 10
129.247979571404
 20
200.4375090898136
 30
0.0
 11
113.116982286336
 21
200.4375090898136
 31
0.0
  0
LINE
  5
1EB0
330
1F
100
AcDbEntity
  8
LOGO
 62
     4
100
AcDbLine
 10
149.6663809581789
 20
220.1979807640217
 30
0.0
 11
113.116982286336
 21
220.1979807640217
 31
0.0
  0
LINE
  5
1EB1
330
1F
100
AcDbEntity
  8
LOGO
 62
     4
100
AcDbLine
 10
149.6663809581789
 20
212.9390319857413
 30
0.0
 11
113.116982286336
 21
212.9390319857413
 31
0.0
  0
LINE
  5
1EB2
330
1F
100
AcDbEntity
  8
LOGO
 62
     4
100
AcDbLine
 10
113.116982286336
 20
220.1979807640217
 30
0.0
 11
113.116982286336
 21
212.9390319857413
 31
0.0
  0
LINE
  5
1EB3
330
1F
100
AcDbEntity
  8
LOGO
 62
     4
100
AcDbLine
 10
149.6663809581789
 20
220.1979807640217
 30
0.0
 11
149.6663809581789
 21
212.9390319857413
 31
0.0
  0
LINE
  5
1EB4
330
1F
100
AcDbEntity
  8
LOGO
 62
     4
100
AcDbLine
 10
122.0241138265361
 20
212.9390319857413
 30
0.0
 11
122.0241138265361
 21
209.3095575966013
 31
0.0
  0
TEXT
  5
1EB5
330
1F
100
AcDbEntity
  8
LOGO
  6
Continuous
100
AcDbText
 10
114.4067837989048
 20
214.4543269306253
 30
0.0
 40
4.235000000000001
  1
MCMJPB/S
  7
CHINESET
100
AcDbText
  0
LINE
  5
1EB6
330
1F
100
AcDbEntity
  8
LOGO
 62
     4
100
AcDbLine
 10
129.247979571404
 20
209.3095575966013
 30
0.0
 11
113.116982286336
 21
209.3095575966013
 31
0.0
  0
TEXT
  5
1EB7
330
1F
100
AcDbEntity
  8
LOGO
  6
Continuous
100
AcDbText
 10
118.2933682451541
 20
201.6897799229307
 30
158.5798481696603
 40
1.815
  1
Model
 41
0.8
  7
CHINESET
100
AcDbText
  0
TEXT
  5
1EB8
330
1F
100
AcDbEntity
  8
LOGO
100
AcDbText
 10
117.8102742471751
 20
205.0543987625129
 30
158.5798481696603
 40
3.025
  1
型號
  7
CHINESET
100
AcDbText
  0
LINE
  5
1EB9
330
1F
100
AcDbEntity
  8
LOGO
  6
Continuous
100
AcDbLine
 10
150.4380672076959
 20
216.5427940311239
 30
0.0
 11
153.6433541209127
 21
216.5427940311239
 31
0.0
  0
LINE
  5
1EBA
330
1F
100
AcDbEntity
  8
LOGO
 62
     4
100
AcDbLine
 10
160.6866196439816
 20
209.3095575966013
 30
0.0
 11
160.6866196439816
 21
200.4375090898136
 31
0.0
  0
LINE
  5
1EBB
330
1F
100
AcDbEntity
  8
LOGO
 62
     4
100
AcDbLine
 10
139.8599275841529
 20
209.3095575966013
 30
0.0
 11
139.8599275841529
 21
200.4375090898136
 31
0.0
  0
LINE
  5
1EBC
330
1F
100
AcDbEntity
  8
LOGO
 62
     4
100
AcDbLine
 10
160.6866196439816
 20
200.4375090898136
 30
0.0
 11
139.8599275841529
 21
200.4375090898136
 31
0.0
  0
LINE
  5
1EBD
330
1F
100
AcDbEntity
  8
LOGO
 62
     4
100
AcDbLine
 10
174.8299713492323
 20
220.1979807640217
 30
0.0
 11
154.6635262168799
 21
220.1979807640217
 31
0.0
  0
LINE
  5
1EBE
330
1F
100
AcDbEntity
  8
LOGO
 62
     4
100
AcDbLine
 10
174.8299713492323
 20
212.9390319857413
 30
0.0
 11
154.6635262168799
 21
212.9390319857413
 31
0.0
  0
LINE
  5
1EBF
330
1F
100
AcDbEntity
  8
LOGO
 62
     4
100
AcDbLine
 10
154.6635262168799
 20
220.1979807640217
 30
0.0
 11
154.6635262168799
 21
212.9390319857413
 31
0.0
  0
LINE
  5
1EC0
330
1F
100
AcDbEntity
  8
LOGO
 62
     4
100
AcDbLine
 10
174.8299713492323
 20
220.1979807640217
 30
0.0
 11
174.8299713492323
 21
212.9390319857413
 31
0.0
  0
LINE
  5
1EC1
330
1F
100
AcDbEntity
  8
LOGO
 62
     4
100
AcDbLine
 10
158.0444614864412
 20
212.9390319857413
 30
0.0
 11
158.0444614864411
 21
209.3095575966013
 31
0.0
  0
TEXT
  5
1EC2
330
1F
100
AcDbEntity
  8
LOGO
  6
Continuous
100
AcDbText
 10
155.843517853012
 20
214.4543269306253
 30
0.0
 40
4.235000000000001
  1
10/15
  7
CHINESET
100
AcDbText
  0
LINE
  5
1EC3
330
1F
100
AcDbEntity
  8
LOGO
 62
     4
100
AcDbLine
 10
160.6866196439816
 20
209.3095575966013
 30
0.0
 11
139.8599275841529
 21
209.3095575966013
 31
0.0
  0
LINE
  5
1EC4
330
1F
100
AcDbEntity
  8
LOGO
  6
Continuous
100
AcDbLine
 10
175.5223827732217
 20
216.5427940311239
 30
0.0
 11
178.7276696864385
 21
216.5427940311239
 31
0.0
  0
LINE
  5
1EC5
330
1F
100
AcDbEntity
  8
LOGO
 62
     4
100
AcDbLine
 10
182.2536424246811
 20
209.3095575966013
 30
0.0
 11
182.2536424246811
 21
200.4375090898136
 31
0.0
  0
LINE
  5
1EC6
330
1F
100
AcDbEntity
  8
LOGO
 62
     4
100
AcDbLine
 10
166.1226451396131
 20
209.3095575966013
 30
0.0
 11
166.1226451396131
 21
200.4375090898136
 31
0.0
  0
LINE
  5
1EC7
330
1F
100
AcDbEntity
  8
LOGO
 62
     4
100
AcDbLine
 10
182.2536424246811
 20
200.4375090898136
 30
0.0
 11
166.1226451396131
 21
200.4375090898136
 31
0.0
  0
LINE
  5
1EC8
330
1F
100
AcDbEntity
  8
LOGO
 62
     4
100
AcDbLine
 10
188.555695056773
 20
220.1979807640217
 30
0.0
 11
179.738768746802
 21
220.1979807640217
 31
0.0
  0
LINE
  5
1EC9
330
1F
100
AcDbEntity
  8
LOGO
 62
     4
100
AcDbLine
 10
188.555695056773
 20
212.9390319857413
 30
0.0
 11
179.738768746802
 21
212.9390319857413
 31
0.0
  0
LINE
  5
1ECA
330
1F
100
AcDbEntity
  8
LOGO
 62
     4
100
AcDbLine
 10
179.738768746802
 20
220.1979807640217
 30
0.0
 11
179.738768746802
 21
212.9390319857413
 31
0.0
  0
LINE
  5
1ECB
330
1F
100
AcDbEntity
  8
LOGO
 62
     4
100
AcDbLine
 10
188.555695056773
 20
220.1979807640217
 30
0.0
 11
188.555695056773
 21
212.9390319857413
 31
0.0
  0
LINE
  5
1ECC
330
1F
100
AcDbEntity
  8
LOGO
 62
     4
100
AcDbLine
 10
185.3159534561335
 20
212.9390319857413
 30
0.0
 11
185.3159534561335
 21
211.1242947911713
 31
0.0
  0
TEXT
  5
1ECD
330
1F
100
AcDbEntity
  8
LOGO
  6
Continuous
100
AcDbText
 10
180.7049154187751
 20
214.4543269306253
 30
0.0
 40
4.235000000000001
  1
15
  7
CHINESET
100
AcDbText
  0
LINE
  5
1ECE
330
1F
100
AcDbEntity
  8
LOGO
 62
     4
100
AcDbLine
 10
182.2536424246811
 20
209.3095575966013
 30
0.0
 11
166.1226451396131
 21
209.3095575966013
 31
0.0
  0
LINE
  5
1ECF
330
1F
100
AcDbEntity
  8
LOGO
  6
Continuous
100
AcDbLine
 10
189.5896771950513
 20
216.5427940311239
 30
0.0
 11
192.7949641082687
 21
216.5427940311239
 31
0.0
  0
LINE
  5
1ED0
330
1F
100
AcDbEntity
  8
LOGO
 62
     4
100
AcDbLine
 10
201.6554635150141
 20
209.3095575966013
 30
0.0
 11
201.6554635150141
 21
200.4375090898136
 31
0.0
  0
LINE
  5
1ED1
330
1F
100
AcDbEntity
  8
LOGO
 62
     4
100
AcDbLine
 10
188.5141946047244
 20
209.3095575966013
 30
0.0
 11
188.5141946047244
 21
200.4375090898136
 31
0.0
  0
LINE
  5
1ED2
330
1F
100
AcDbEntity
  8
LOGO
 62
     4
100
AcDbLine
 10
201.6554635150141
 20
200.4375090898136
 30
0.0
 11
188.5141946047244
 21
200.4375090898136
 31
0.0
  0
LINE
  5
1ED3
330
1F
100
AcDbEntity
  8
LOGO
 62
     4
100
AcDbLine
 10
201.5293830891526
 20
220.1979807640217
 30
0.0
 11
193.8060631686317
 21
220.1979807640217
 31
0.0
  0
LINE
  5
1ED4
330
1F
100
AcDbEntity
  8
LOGO
 62
     4
100
AcDbLine
 10
201.5293830891526
 20
212.9390319857413
 30
0.0
 11
193.8060631686317
 21
212.9390319857413
 31
0.0
  0
LINE
  5
1ED5
330
1F
100
AcDbEntity
  8
LOGO
 62
     4
100
AcDbLine
 10
193.8060631686317
 20
220.1979807640217
 30
0.0
 11
193.8060631686317
 21
212.9390319857413
 31
0.0
  0
LINE
  5
1ED6
330
1F
100
AcDbEntity
  8
LOGO
 62
     4
100
AcDbLine
 10
201.5293830891526
 20
220.1979807640217
 30
0.0
 11
201.5293830891526
 21
212.9390319857413
 31
0.0
  0
LINE
  5
1ED7
330
1F
100
AcDbEntity
  8
LOGO
 62
     4
100
AcDbLine
 10
197.6677231288921
 20
212.9390319857413
 30
0.0
 11
197.6677231288921
 21
209.3095575966013
 31
0.0
  0
TEXT
  5
1ED8
330
1F
100
AcDbEntity
  8
LOGO
  6
Continuous
100
AcDbText
 10
196.4091906022748
 20
214.4543269306253
 30
0.0
 40
4.235000000000001
  1
*
  7
CHINESET
100
AcDbText
  0
LINE
  5
1ED9
330
1F
100
AcDbEntity
  8
LOGO
 62
     4
100
AcDbLine
 10
201.6554635150141
 20
209.3095575966013
 30
0.0
 11
188.5141946047244
 21
209.3095575966013
 31
0.0
  0
TEXT
  5
1EDA
330
1F
100
AcDbEntity
  8
LOGO
  6
Continuous
100
AcDbText
 10
145.3775920909835
 20
201.6897799229307
 30
158.5798481696603
 40
1.815
  1
Acting type
 41
0.8
  7
CHINESET
100
AcDbText
  0
TEXT
  5
1EDB
330
1F
100
AcDbEntity
  8
LOGO
100
AcDbText
 10
145.3604941623613
 20
205.0543987625129
 30
158.5798481696603
 40
3.025
  1
作動型式
  7
CHINESET
100
AcDbText
  0
TEXT
  5
1EDC
330
1F
100
AcDbEntity
  8
LOGO
  6
Continuous
100
AcDbText
 10
169.5014297794423
 20
201.6897799229307
 30
158.5798481696603
 40
1.815
  1
Tube I.D.
 41
0.8
  7
CHINESET
100
AcDbText
  0
TEXT
  5
1EDD
330
1F
100
AcDbEntity
  8
LOGO
100
AcDbText
 10
170.6953913978783
 20
205.0543987625129
 30
158.5798481696603
 40
3.025
  1
內徑
  7
CHINESET
100
AcDbText
  0
TEXT
  5
1EDE
330
1F
100
AcDbEntity
  8
LOGO
  6
Continuous
100
AcDbText
 10
191.97758631868
 20
201.6897799229307
 30
158.5798481696603
 40
1.815
  1
Stroke
 41
0.8
  7
CHINESET
100
AcDbText
  0
TEXT
  5
1EDF
330
1F
100
AcDbEntity
  8
LOGO
100
AcDbText
 10
191.8517401850856
 20
205.0543987625129
 30
158.5798481696603
 40
3.025
  1
行程
  7
CHINESET
100
AcDbText
  0
TEXT
  5
1EEC
330
1F
100
AcDbEntity
  8
LOGO
100
AcDbText
 10
81.27955076498976
 20
199.7083784623249
 30
0.0
 40
2.42
  1
10701117
 41
0.7
  7
CHINESET
 72
     1
 11
86.84555076498975
 21
199.7083784623249
 31
0.0
100
AcDbText
  0
LINE
  5
1EED
330
1F
100
AcDbEntity
  8
LOGO
 62
     4
100
AcDbLine
 10
94.35577603292438
 20
203.2604336147011
 30
0.0
 11
94.35577603292541
 21
198.4211344291804
 31
0.0
  0
LINE
  5
1EEE
330
1F
100
AcDbEntity
  8
LOGO
 62
     4
100
AcDbLine
 10
94.35577603292438
 20
203.2604336147011
 30
0.0
 11
79.83577603292542
 21
203.2604336147011
 31
0.0
  0
CIRCLE
  5
1EEF
330
1F
100
AcDbEntity
  8
LOGO
  6
Continuous
100
AcDbCircle
 10
68.1850626138397
 20
215.363857226687
 30
0.0
 40
1.404905505687964
  0
CIRCLE
  5
1EF0
330
1F
100
AcDbEntity
  8
LOGO
  6
Continuous
100
AcDbCircle
 10
68.1850626138397
 20
215.363857226687
 30
0.0
 40
0.8231502570853727
  0
LINE
  5
1EF1
330
1F
100
AcDbEntity
  8
LOGO
100
AcDbLine
 10
77.0136518299239
 20
213.9589517209988
 30
0.0
 11
77.0136518299239
 21
216.7687627323753
 31
0.0
  0
LINE
  5
1EF2
330
1F
100
AcDbEntity
  8
LOGO
100
AcDbLine
 10
72.60935371501637
 20
214.5407069696018
 30
0.0
 11
72.60935371501637
 21
216.1870074837726
 31
0.0
  0
LINE
  5
1EF3
330
1F
100
AcDbEntity
  8
LOGO
  6
Continuous
100
AcDbLine
 10
72.60935371501637
 20
216.1870074837726
 30
0.0
 11
77.0136518299239
 21
216.7687627323753
 31
0.0
  0
LINE
  5
1EF4
330
1F
100
AcDbEntity
  8
LOGO
  6
Continuous
100
AcDbLine
 10
72.60935371501637
 20
214.5407069696018
 30
0.0
 11
77.0136518299239
 21
213.9589517209988
 31
0.0
  0
LINE
  5
1EF5
330
1F
100
AcDbEntity
  8
LOGO
  6
AM_ISO08W050x2
 48
0.3
100
AcDbLine
 10
66.24837933744544
 20
215.363857226687
 30
0.0
 11
70.12174589023397
 21
215.363857226687
 31
0.0
1001
GENIUS_GENOREF_13
1005
1EFA
  0
LINE
  5
1EF6
330
1F
100
AcDbEntity
  8
LOGO
  6
AM_ISO08W050x2
 48
0.3
100
AcDbLine
 10
68.1850626138397
 20
213.4271739502928
 30
0.0
 11
68.1850626138397
 21
217.3005405030813
 31
0.0
1001
GENIUS_GENOREF_13
1005
1EF9
  0
LINE
  5
1EF7
330
1F
100
AcDbEntity
  8
LOGO
  6
CENTER
 48
0.5
100
AcDbLine
 10
72.25713228271712
 20
215.363857226687
 30
0.0
 11
77.45715039264701
 21
215.363857226687
 31
0.0
1001
GENIUS_GENOREF_13
1005
1EF8
  0
POINT
  5
1EF8
330
1F
100
AcDbEntity
  8
0
 60
     1
100
AcDbPoint
 10
-2026.635189117381
 20
-903.9824920368866
 30
0.0
1001
GENIUS_GENOBJ-N-CRS_13
1002
{
1000
OWNER
1000
GEN
1002
}
1001
GENIUS_GENOLIS_13
1002
{
1000
ENT
1005
0
1005
0
1005
0
1005
1EF7
1002
}
1001
GENIUS_GENOENT_13
1002
{
1000
MYREF
1005
1EF8
1002
}
1002
{
1000
GRP
1005
0
1002
}
1001
GENIUS_GENODEF_13
1002
{
1000
HIER
1070
    10
1002
}
1002
{
1000
MANEDIT
1070
     1
1002
}
1002
{
1000
NOSEL
1070
     0
1002
}
1002
{
1000
BEHIND
1070
     0
1002
}
1002
{
1000
OTHER
1070
     0
1002
}
1002
{
1000
REACTOR
1002
}
  0
POINT
  5
1EF9
330
1F
100
AcDbEntity
  8
0
 60
     1
100
AcDbPoint
 10
-2037.959774340235
 20
-895.1069055582504
 30
0.0
1001
GENIUS_GENOBJ-N-CRS_13
1002
{
1000
OWNER
1000
GEN
1002
}
1001
GENIUS_GENOLIS_13
1002
{
1000
ENT
1005
0
1005
0
1005
0
1005
1EF6
1002
}
1001
GENIUS_GENOENT_13
1002
{
1000
MYREF
1005
1EF9
1002
}
1002
{
1000
GRP
1005
0
1002
}
1001
GENIUS_GENODEF_13
1002
{
1000
HIER
1070
    10
1002
}
1002
{
1000
MANEDIT
1070
     1
1002
}
1002
{
1000
NOSEL
1070
     0
1002
}
1002
{
1000
BEHIND
1070
     0
1002
}
1002
{
1000
OTHER
1070
     0
1002
}
1002
{
1000
REACTOR
1002
}
  0
POINT
  5
1EFA
330
1F
100
AcDbEntity
  8
0
 60
     1
100
AcDbPoint
 10
-2031.601100642399
 20
-903.9824920368866
 30
0.0
1001
GENIUS_GENOBJ-N-CRS_13
1002
{
1000
OWNER
1000
GEN
1002
}
1001
GENIUS_GENOLIS_13
1002
{
1000
ENT
1005
0
1005
0
1005
0
1005
1EF5
1002
}
1001
GENIUS_GENOENT_13
1002
{
1000
MYREF
1005
1EFA
1002
}
1002
{
1000
GRP
1005
0
1002
}
1001
GENIUS_GENODEF_13
1002
{
1000
HIER
1070
    10
1002
}
1002
{
1000
MANEDIT
1070
     1
1002
}
1002
{
1000
NOSEL
1070
     0
1002
}
1002
{
1000
BEHIND
1070
     0
1002
}
1002
{
1000
OTHER
1070
     0
1002
}
1002
{
1000
REACTOR
1002
}
  0
LINE
  5
1EFB
330
1F
100
AcDbEntity
  8
LOGO
 62
     4
100
AcDbLine
 10
192.9784849922014
 20
440.4211344291797
 30
0.0
 11
192.9784849922014
 21
222.6176303567821
 31
0.0
  0
LINE
  5
2097
330
1F
100
AcDbEntity
  8
LOGO
 62
     4
100
AcDbLine
 10
185.3159534561335
 20
211.1242947911713
 30
0.0
 11
170.8424782871448
 21
211.1242947911713
 31
0.0
  0
LINE
  5
2098
330
1F
100
AcDbEntity
  8
LOGO
 62
     4
100
AcDbLine
 10
170.8424782871448
 20
209.3095575966013
 30
0.0
 11
170.8424782871448
 21
211.1242947911713
 31
0.0
  0
LINE
  5
2273
330
1F
100
AcDbEntity
  8
AM_VIS
100
AcDbLine
 10
151.17127245532
 20
382.2021522890578
 30
0.0
 11
151.17127245532
 21
401.2021522890578
 31
0.0
  0
LINE
  5
2274
330
1F
100
AcDbEntity
  8
AM_VIS
100
AcDbLine
 10
155.47127245532
 20
401.2021522890578
 30
0.0
 11
155.47127245532
 21
382.2021522890578
 31
0.0
  0
LINE
  5
2275
330
1F
100
AcDbEntity
  8
AM_VIS
100
AcDbLine
 10
157.17127245532
 20
382.2021522890578
 30
0.0
 11
157.17127245532
 21
401.2021522890578
 31
0.0
  0
LINE
  5
2276
330
1F
100
AcDbEntity
  8
AM_VIS
100
AcDbLine
 10
158.17127245532
 20
401.2021522890578
 30
0.0
 11
158.17127245532
 21
382.2021522890578
 31
0.0
  0
LINE
  5
2278
330
1F
100
AcDbEntity
  8
AM_VIS
100
AcDbLine
 10
128.67127245532
 20
381.9021522990579
 30
0.0
 11
128.67127245532
 21
401.5021522990578
 31
0.0
  0
LINE
  5
2279
330
1F
100
AcDbEntity
  8
AM_VIS
100
AcDbLine
 10
130.17127245532
 20
381.8021522990579
 30
0.0
 11
130.17127245532
 21
401.6021522990578
 31
0.0
  0
LINE
  5
227A
330
1F
100
AcDbEntity
  8
AM_VIS
100
AcDbLine
 10
130.80635775122
 20
387.119576604102
 30
0.0
 11
130.80635775122
 21
385.3331861037623
 31
0.0
  0
LINE
  5
227B
330
1F
100
AcDbEntity
  8
AM_VIS
100
AcDbLine
 10
150.30524705182
 20
385.3331861037623
 30
0.0
 11
150.30524705182
 21
387.119576604102
 31
0.0
  0
LINE
  5
227C
330
1F
100
AcDbEntity
  8
AM_VIS
100
AcDbLine
 10
130.80635775122
 20
380.750610414009
 30
0.0
 11
130.80635775122
 21
380.7021522990579
 31
0.0
  0
LINE
  5
227D
330
1F
100
AcDbEntity
  8
AM_VIS
100
AcDbLine
 10
150.30524705182
 20
380.7021522990579
 30
0.0
 11
150.30524705182
 21
380.750610414009
 31
0.0
  0
LINE
  5
227E
330
1F
100
AcDbEntity
  8
AM_VIS
100
AcDbLine
 10
130.80635775122
 20
398.0711184774043
 30
0.0
 11
130.80635775122
 21
396.2847279940137
 31
0.0
  0
LINE
  5
227F
330
1F
100
AcDbEntity
  8
AM_VIS
100
AcDbLine
 10
150.30524705182
 20
396.2847279940137
 30
0.0
 11
150.30524705182
 21
398.0711184774042
 31
0.0
  0
LINE
  5
2280
330
1F
100
AcDbEntity
  8
AM_VIS
100
AcDbLine
 10
150.30524705182
 20
402.6536941860558
 30
0.0
 11
150.30524705182
 21
402.7021522990578
 31
0.0
  0
LINE
  5
2281
330
1F
100
AcDbEntity
  8
AM_VIS
100
AcDbLine
 10
130.80635775122
 20
402.7021522990578
 30
0.0
 11
130.80635775122
 21
402.6536941860557
 31
0.0
  0
LINE
  5
2282
330
1F
100
AcDbEntity
  8
AM_VIS
100
AcDbLine
 10
68.53853623300938
 20
399.4963809390579
 30
0.0
 11
68.53853623300938
 21
383.9079236690579
 31
0.0
  0
LINE
  5
2283
330
1F
100
AcDbEntity
  8
AM_VIS
100
AcDbLine
 10
68.53853623300938
 20
399.4963809390579
 30
0.0
 11
82.03853623300938
 21
407.2906095690578
 31
0.0
  0
LINE
  5
2284
330
1F
100
AcDbEntity
  8
AM_VIS
100
AcDbLine
 10
82.03853623300938
 20
407.2906095690578
 30
0.0
 11
95.53853623300938
 21
399.4963809390579
 31
0.0
  0
LINE
  5
2285
330
1F
100
AcDbEntity
  8
AM_VIS
100
AcDbLine
 10
95.53853623300938
 20
399.4963809390579
 30
0.0
 11
95.53853623300938
 21
383.9079236690578
 31
0.0
  0
LINE
  5
2286
330
1F
100
AcDbEntity
  8
AM_VIS
100
AcDbLine
 10
82.03853623300938
 20
376.1136950390579
 30
0.0
 11
95.53853623300938
 21
383.9079236690578
 31
0.0
  0
LINE
  5
2287
330
1F
100
AcDbEntity
  8
AM_VIS
100
AcDbLine
 10
68.53853623300938
 20
383.9079236690579
 30
0.0
 11
82.03853623300938
 21
376.1136950390579
 31
0.0
  0
CIRCLE
  5
2288
330
1F
100
AcDbEntity
  8
AM_VIS
100
AcDbCircle
 10
82.03853623300938
 20
391.7021522990578
 30
0.0
 40
12.99999999999999
  0
CIRCLE
  5
2289
330
1F
100
AcDbEntity
  8
AM_VIS
100
AcDbCircle
 10
82.03853623300938
 20
391.7021523040578
 30
0.0
 40
11.338
  0
ARC
  5
228A
330
1F
100
AcDbEntity
  8
AM_VIS
100
AcDbCircle
 10
82.03853623300938
 20
391.7021523040578
 30
0.0
 40
10.338
100
AcDbArc
 50
45.30843202274382
 51
74.69156799355289
  0
ARC
  5
228B
330
1F
100
AcDbEntity
  8
AM_VIS
100
AcDbCircle
 10
82.03853623300938
 20
391.7021523040578
 30
0.0
 40
10.338
100
AcDbArc
 50
345.3084322576779
 51
14.69156774232205
  0
ARC
  5
228C
330
1F
100
AcDbEntity
  8
AM_VIS
100
AcDbCircle
 10
82.03853623300938
 20
391.7021523040578
 30
0.0
 40
10.338
100
AcDbArc
 50
285.3084323849514
 51
314.6915675987534
  0
ARC
  5
228D
330
1F
100
AcDbEntity
  8
AM_VIS
100
AcDbCircle
 10
82.03853623300938
 20
391.7021523040578
 30
0.0
 40
10.338
100
AcDbArc
 50
225.3084324012466
 51
254.6915676150486
  0
ARC
  5
228E
330
1F
100
AcDbEntity
  8
AM_VIS
100
AcDbCircle
 10
82.03853623300938
 20
391.7021523040578
 30
0.0
 40
10.338
100
AcDbArc
 50
165.3084322576779
 51
194.691567742322
  0
ARC
  5
228F
330
1F
100
AcDbEntity
  8
AM_VIS
100
AcDbCircle
 10
82.03853623300938
 20
391.7021523040578
 30
0.0
 40
10.338
100
AcDbArc
 50
105.3084320064439
 51
134.6915679772562
  0
LINE
  5
2290
330
1F
100
AcDbEntity
  8
AM_VIS
100
AcDbLine
 10
68.53853623300938
 20
399.4963809390579
 30
0.0
 11
68.53853623300938
 21
383.9079236690578
 31
0.0
  0
LINE
  5
2291
330
1F
100
AcDbEntity
  8
AM_VIS
100
AcDbLine
 10
68.53853623300938
 20
399.4963809390579
 30
0.0
 11
82.03853623300938
 21
407.2906095690578
 31
0.0
  0
LINE
  5
2292
330
1F
100
AcDbEntity
  8
AM_VIS
100
AcDbLine
 10
82.03853623300938
 20
407.2906095690578
 30
0.0
 11
95.53853623300938
 21
399.4963809390579
 31
0.0
  0
LINE
  5
2293
330
1F
100
AcDbEntity
  8
AM_VIS
100
AcDbLine
 10
95.53853623300938
 20
399.4963809390579
 30
0.0
 11
95.53853623300938
 21
383.9079236690578
 31
0.0
  0
LINE
  5
2294
330
1F
100
AcDbEntity
  8
AM_VIS
100
AcDbLine
 10
82.03853623300938
 20
376.1136950390579
 30
0.0
 11
95.53853623300938
 21
383.9079236690578
 31
0.0
  0
LINE
  5
2295
330
1F
100
AcDbEntity
  8
AM_VIS
100
AcDbLine
 10
68.53853623300938
 20
383.9079236690578
 30
0.0
 11
82.03853623300938
 21
376.1136950390579
 31
0.0
  0
CIRCLE
  5
2296
330
1F
100
AcDbEntity
  8
AM_VIS
100
AcDbCircle
 10
82.03853623300938
 20
391.7021522990578
 30
0.0
 40
2.5
  0
CIRCLE
  5
2297
330
1F
100
AcDbEntity
  8
AM_VIS
100
AcDbCircle
 10
82.03853623300938
 20
391.7021522990578
 30
0.0
 40
1.799999999999997
  0
CIRCLE
  5
2298
330
1F
100
AcDbEntity
  8
AM_VIS
100
AcDbCircle
 10
82.03853623300938
 20
391.7021522990578
 30
0.0
 40
3.0
  0
CIRCLE
  5
229A
330
1F
100
AcDbEntity
  8
AM_VIS
100
AcDbCircle
 10
82.03853623300938
 20
397.3021522990578
 30
0.0
 40
0.4
  0
CIRCLE
  5
229B
330
1F
100
AcDbEntity
  8
AM_VIS
100
AcDbCircle
 10
82.03853623300938
 20
391.7021522990578
 30
0.0
 40
7.700000000000002
  0
LINE
  5
229C
330
1F
100
AcDbEntity
  8
AM_VIS
100
AcDbLine
 10
83.06990926931632
 20
380.750610414009
 30
0.0
 11
91.00716319610592
 21
385.3331861037623
 31
0.0
  0
LINE
  5
229D
330
1F
100
AcDbEntity
  8
AM_VIS
100
AcDbLine
 10
73.06990926991284
 20
385.3331861037623
 30
0.0
 11
81.00716319670244
 21
380.750610414009
 31
0.0
  0
LINE
  5
229E
330
1F
100
AcDbEntity
  8
AM_VIS
100
AcDbLine
 10
72.03853623300938
 20
396.2847279940137
 30
0.0
 11
72.03853623300938
 21
387.119576604102
 31
0.0
  0
LINE
  5
229F
330
1F
100
AcDbEntity
  8
AM_VIS
100
AcDbLine
 10
73.06990925787658
 20
398.0711184774043
 30
0.0
 11
81.00716321739895
 21
402.6536941860558
 31
0.0
  0
LINE
  5
22A0
330
1F
100
AcDbEntity
  8
AM_VIS
100
AcDbLine
 10
83.06990924861981
 20
402.6536941860557
 30
0.0
 11
91.00716320814218
 21
398.0711184774043
 31
0.0
  0
LINE
  5
22A1
330
1F
100
AcDbEntity
  8
AM_VIS
100
AcDbLine
 10
92.03853623300938
 20
396.2847279940137
 30
0.0
 11
92.03853623300938
 21
387.119576604102
 31
0.0
  0
CIRCLE
  5
22A2
330
1F
100
AcDbEntity
  8
AM_VIS
100
AcDbCircle
 10
82.03853623300938
 20
391.7021522990578
 30
0.0
 40
9.9
  0
CIRCLE
  5
22A4
330
1F
100
AcDbEntity
  8
AM_VIS
100
AcDbCircle
 10
82.03853623300938
 20
391.7021522990578
 30
0.0
 40
9.100000000000001
  0
ARC
  5
22A6
330
1F
100
AcDbEntity
  8
AM_VIS
100
AcDbCircle
 10
82.03853623300938
 20
391.7021522990578
 30
0.0
 40
11.0
100
AcDbArc
 50
324.6199772971676
 51
335.3800226713431
  0
ARC
  5
22A7
330
1F
100
AcDbEntity
  8
AM_VIS
100
AcDbCircle
 10
82.03853623300938
 20
391.7021522990578
 30
0.0
 40
11.0
100
AcDbArc
 50
264.6199773134652
 51
275.3800226865348
  0
ARC
  5
22A8
330
1F
100
AcDbEntity
  8
AM_VIS
100
AcDbCircle
 10
82.03853623300938
 20
391.7021522990578
 30
0.0
 40
11.0
100
AcDbArc
 50
204.6199773286569
 51
215.3800227028324
  0
ARC
  5
22A9
330
1F
100
AcDbEntity
  8
AM_VIS
100
AcDbCircle
 10
82.03853623300938
 20
391.7021522990578
 30
0.0
 40
11.0
100
AcDbArc
 50
24.61997732865687
 51
35.38002259455256
  0
ARC
  5
22AA
330
1F
100
AcDbEntity
  8
AM_VIS
100
AcDbCircle
 10
82.03853623300938
 20
391.7021522990578
 30
0.0
 40
11.0
100
AcDbArc
 50
84.61997742174528
 51
95.38002257825473
  0
ARC
  5
22AB
330
1F
100
AcDbEntity
  8
AM_VIS
100
AcDbCircle
 10
82.03853623300938
 20
391.7021522990578
 30
0.0
 40
11.0
100
AcDbArc
 50
144.6199774054474
 51
155.3800226713431
  0
LINE
  5
22AC
330
1F
100
AcDbEntity
  8
AM_4
100
AcDbLine
 10
115.37127245532
 20
298.8597423051043
 30
0.0
 11
117.67127245532
 21
298.8597423051043
 31
0.0
  0
LINE
  5
22AD
330
1F
100
AcDbEntity
  8
AM_4
100
AcDbLine
 10
115.37127245532
 20
302.9697423051043
 30
0.0
 11
117.67127245532
 21
302.9697423051043
 31
0.0
  0
LINE
  5
22AE
330
1F
100
AcDbEntity
  8
AM_4
100
AcDbLine
 10
126.67127245532
 20
302.9697423051043
 30
0.0
 11
127.11627245532
 21
303.4147423051043
 31
0.0
  0
LINE
  5
22AF
330
1F
100
AcDbEntity
  8
AM_4
100
AcDbLine
 10
126.67127245532
 20
298.8597423051043
 30
0.0
 11
127.11627245532
 21
298.4147423051043
 31
0.0
  0
LINE
  5
22B0
330
1F
100
AcDbEntity
  8
AM_4
 62
     7
100
AcDbLine
 10
126.67127245532
 20
298.4147423051043
 30
0.0
 11
126.67127245532
 21
303.4147423051043
 31
0.0
  0
ARC
  5
22B3
330
1F
100
AcDbEntity
  8
AM_4
100
AcDbCircle
 10
82.10045525069665
 20
300.9147423051043
 30
0.0
 40
2.055
100
AcDbArc
 50
259.9999999999982
 51
190.0000000000002
  0
LINE
  5
22B5
330
1F
100
AcDbEntity
  8
AM_VIS
100
AcDbLine
 10
123.569669299441
 20
305.5335444551043
 30
0.0
 11
121.3728756111991
 21
305.5335444551043
 31
0.0
  0
SPLINE
  5
22B6
330
1F
100
AcDbEntity
  8
AM_VIS
100
AcDbSpline
210
0.0
220
-0.0000000000000015
230
1.0
 70
    12
 71
     2
 72
     6
 73
     3
 74
     0
 42
0.0000000001
 43
0.0000000001
 40
4.628989808734346
 40
4.628989808734346
 40
4.628989808734346
 40
11.8735352595356
 40
11.8735352595356
 40
11.8735352595356
 10
121.3728756111991
 20
305.5335444551043
 30
0.0000000000000036
 41
1.479323899102684
 10
120.7062089426708
 20
304.3788439151215
 30
-0.0000000000000036
 41
1.708176103342426
 10
121.3728756112786
 20
303.2241433751043
 30
0.0
 41
1.479323899079039
  0
SPLINE
  5
22B7
330
1F
100
AcDbEntity
  8
AM_VIS
100
AcDbSpline
210
0.0
220
0.0
230
1.0
 70
    12
 71
     2
 72
     6
 73
     3
 74
     0
 42
0.0000000001
 43
0.0000000001
 40
4.628989818300265
 40
4.628989818300265
 40
4.628989818300265
 40
11.87353525715745
 40
11.87353525715745
 40
11.87353525715745
 10
121.3728756112786
 20
303.2241433751043
 30
0.0
 41
1.479323898831588
 10
120.7062089460079
 20
300.9147423013543
 30
0.0000000000000036
 41
1.708176101597508
 10
121.3728756141655
 20
298.6053412251045
 30
0.0
 41
1.479323897973389
  0
LINE
  5
22B8
330
1F
100
AcDbEntity
  8
AM_VIS
100
AcDbLine
 10
123.5696692993614
 20
303.2241433751043
 30
0.0
 11
121.3728756112786
 21
303.2241433751043
 31
0.0
  0
SPLINE
  5
22B9
330
1F
100
AcDbEntity
  8
AM_VIS
100
AcDbSpline
210
0.0
220
-0.0000000000000015
230
1.0
 70
    12
 71
     2
 72
     6
 73
     3
 74
     0
 42
0.0000000001
 43
0.0000000001
 40
4.628989814123841
 40
4.628989814123841
 40
4.628989814123841
 40
11.87353525526095
 40
11.87353525526095
 40
11.87353525526095
 10
121.3728756141654
 20
298.6053412251043
 30
0.0
 41
1.479323897739213
 10
120.7062089480836
 20
297.4506406857121
 30
0.0
 41
1.708176100375265
 10
121.3728756169725
 20
296.2959401451043
 30
-0.0000000000000036
 41
1.479323896904659
  0
LINE
  5
22BA
330
1F
100
AcDbEntity
  8
AM_VIS
100
AcDbLine
 10
123.5696692964747
 20
298.6053412251043
 30
0.0
 11
121.3728756141654
 21
298.6053412251043
 31
0.0
  0
LINE
  5
22BB
330
1F
100
AcDbEntity
  8
AM_VIS
100
AcDbLine
 10
123.5696692936674
 20
296.2959401451043
 30
0.0
 11
121.3728756169726
 21
296.2959401451043
 31
0.0
  0
SPLINE
  5
22BC
330
1F
100
AcDbEntity
  8
AM_VIS
100
AcDbSpline
210
0.0
220
-0.0000000000000015
230
1.0
 70
    12
 71
     2
 72
     6
 73
     3
 74
     0
 42
0.0000000001
 43
0.0000000001
 40
4.628989800914548
 40
4.628989800914548
 40
4.628989800914548
 40
11.87353524205171
 40
11.87353524205171
 40
11.87353524205171
 10
123.5696692936674
 20
296.2959401451043
 30
0.0
 41
1.479323896904661
 10
124.2363359625565
 20
297.4506406857121
 30
0.0
 41
1.708176100375268
 10
123.5696692964747
 20
298.6053412251043
 30
0.0000000000000036
 41
1.479323897739209
  0
SPLINE
  5
22BD
330
1F
100
AcDbEntity
  8
AM_VIS
100
AcDbSpline
210
0.0
220
0.0
230
1.0
 70
    12
 71
     2
 72
     6
 73
     3
 74
     0
 42
0.0000000001
 43
0.0000000001
 40
4.62898980471675
 40
4.62898980471675
 40
4.62898980471675
 40
11.87353524357387
 40
11.87353524357387
 40
11.87353524357387
 10
123.5696692964747
 20
298.6053412251043
 30
0.0
 41
1.479323897973393
 10
124.2363359646321
 20
300.9147423013544
 30
0.0
 41
1.708176101597507
 10
123.5696692993614
 20
303.2241433751043
 30
0.0
 41
1.479323898831589
  0
SPLINE
  5
22BE
330
1F
100
AcDbEntity
  8
AM_VIS
100
AcDbSpline
210
0.0
220
0.0000000000000015
230
1.0
 70
    12
 71
     2
 72
     6
 73
     3
 74
     0
 42
0.0000000001
 43
0.0000000001
 40
4.628989808360114
 40
4.628989808360114
 40
4.628989808360114
 40
11.87353525916132
 40
11.87353525916132
 40
11.87353525916132
 10
123.5696692993614
 20
303.2241433751043
 30
0.0
 41
1.47932389907904
 10
124.2363359679694
 20
304.3788439151216
 30
0.0000000000000036
 41
1.708176103342424
 10
123.5696692994409
 20
305.5335444551043
 30
-0.0000000000000036
 41
1.479323899102685
  0
LINE
  5
22BF
330
1F
100
AcDbEntity
  8
AM_VIS
100
AcDbLine
 10
120.87127245532
 20
297.1647423051043
 30
0.0
 11
121.3728756169726
 21
296.2959401451043
 31
0.0
  0
LINE
  5
22C0
330
1F
100
AcDbEntity
  8
AM_VIS
100
AcDbLine
 10
120.87127245532
 20
304.6647423051043
 30
0.0
 11
121.3728756111991
 21
305.5335444551043
 31
0.0
  0
LINE
  5
22C1
330
1F
100
AcDbEntity
  8
AM_VIS
100
AcDbLine
 10
124.07127245532
 20
304.6647423051043
 30
0.0
 11
123.569669299441
 21
305.5335444551043
 31
0.0
  0
LINE
  5
22C2
330
1F
100
AcDbEntity
  8
AM_VIS
100
AcDbLine
 10
124.07127245532
 20
297.1647423051043
 30
0.0
 11
123.5696692936674
 21
296.2959401451043
 31
0.0
  0
LINE
  5
22C3
330
1F
100
AcDbEntity
  8
AM_VIS
100
AcDbLine
 10
120.87127245532
 20
304.6647423051043
 30
0.0
 11
120.87127245532
 21
297.1647423051043
 31
0.0
  0
LINE
  5
22C4
330
1F
100
AcDbEntity
  8
AM_VIS
100
AcDbLine
 10
124.07127245532
 20
297.1647423051043
 30
0.0
 11
124.07127245532
 21
304.6647423051043
 31
0.0
  0
LINE
  5
22C5
330
1F
100
AcDbEntity
  8
AM_VIS
100
AcDbLine
 10
120.3696692994409
 20
305.5335444551043
 30
0.0
 11
118.1728756111991
 21
305.5335444551043
 31
0.0
  0
SPLINE
  5
22C6
330
1F
100
AcDbEntity
  8
AM_VIS
100
AcDbSpline
210
0.0
220
-0.0000000000000015
230
1.0
 70
    12
 71
     2
 72
     6
 73
     3
 74
     0
 42
0.0000000001
 43
0.0000000001
 40
4.628989808734346
 40
4.628989808734346
 40
4.628989808734346
 40
11.8735352595356
 40
11.8735352595356
 40
11.8735352595356
 10
118.1728756111991
 20
305.5335444551043
 30
0.0000000000000036
 41
1.479323899102684
 10
117.5062089426708
 20
304.3788439151215
 30
-0.0000000000000036
 41
1.708176103342426
 10
118.1728756112785
 20
303.2241433751043
 30
0.0
 41
1.479323899079039
  0
SPLINE
  5
22C7
330
1F
100
AcDbEntity
  8
AM_VIS
100
AcDbSpline
210
0.0
220
0.0
230
1.0
 70
    12
 71
     2
 72
     6
 73
     3
 74
     0
 42
0.0000000001
 43
0.0000000001
 40
4.628989818300265
 40
4.628989818300265
 40
4.628989818300265
 40
11.87353525715745
 40
11.87353525715745
 40
11.87353525715745
 10
118.1728756112786
 20
303.2241433751043
 30
0.0
 41
1.479323898831588
 10
117.506208946008
 20
300.9147423013543
 30
0.0000000000000036
 41
1.708176101597508
 10
118.1728756141654
 20
298.6053412251045
 30
0.0
 41
1.479323897973389
  0
LINE
  5
22C8
330
1F
100
AcDbEntity
  8
AM_VIS
100
AcDbLine
 10
120.3696692993614
 20
303.2241433751043
 30
0.0
 11
118.1728756112786
 21
303.2241433751043
 31
0.0
  0
SPLINE
  5
22C9
330
1F
100
AcDbEntity
  8
AM_VIS
100
AcDbSpline
210
0.0
220
-0.0000000000000015
230
1.0
 70
    12
 71
     2
 72
     6
 73
     3
 74
     0
 42
0.0000000001
 43
0.0000000001
 40
4.628989814123841
 40
4.628989814123841
 40
4.628989814123841
 40
11.87353525526095
 40
11.87353525526095
 40
11.87353525526095
 10
118.1728756141654
 20
298.6053412251043
 30
0.0
 41
1.479323897739213
 10
117.5062089480835
 20
297.4506406857121
 30
0.0
 41
1.708176100375265
 10
118.1728756169725
 20
296.2959401451043
 30
-0.0000000000000036
 41
1.479323896904659
  0
LINE
  5
22CA
330
1F
100
AcDbEntity
  8
AM_VIS
100
AcDbLine
 10
120.3696692964747
 20
298.6053412251043
 30
0.0
 11
118.1728756141654
 21
298.6053412251043
 31
0.0
  0
LINE
  5
22CB
330
1F
100
AcDbEntity
  8
AM_VIS
100
AcDbLine
 10
120.3696692936675
 20
296.2959401451043
 30
0.0
 11
118.1728756169726
 21
296.2959401451043
 31
0.0
  0
SPLINE
  5
22CC
330
1F
100
AcDbEntity
  8
AM_VIS
100
AcDbSpline
210
0.0
220
-0.0000000000000015
230
1.0
 70
    12
 71
     2
 72
     6
 73
     3
 74
     0
 42
0.0000000001
 43
0.0000000001
 40
4.628989800914548
 40
4.628989800914548
 40
4.628989800914548
 40
11.87353524205171
 40
11.87353524205171
 40
11.87353524205171
 10
120.3696692936675
 20
296.2959401451043
 30
0.0
 41
1.479323896904661
 10
121.0363359625566
 20
297.4506406857121
 30
0.0
 41
1.708176100375268
 10
120.3696692964748
 20
298.6053412251043
 30
0.0000000000000036
 41
1.479323897739209
  0
SPLINE
  5
22CD
330
1F
100
AcDbEntity
  8
AM_VIS
100
AcDbSpline
210
0.0
220
0.0
230
1.0
 70
    12
 71
     2
 72
     6
 73
     3
 74
     0
 42
0.0000000001
 43
0.0000000001
 40
4.62898980471675
 40
4.62898980471675
 40
4.62898980471675
 40
11.87353524357387
 40
11.87353524357387
 40
11.87353524357387
 10
120.3696692964747
 20
298.6053412251043
 30
0.0
 41
1.479323897973393
 10
121.0363359646321
 20
300.9147423013544
 30
0.0
 41
1.708176101597507
 10
120.3696692993613
 20
303.2241433751043
 30
0.0
 41
1.479323898831589
  0
SPLINE
  5
22CE
330
1F
100
AcDbEntity
  8
AM_VIS
100
AcDbSpline
210
0.0
220
0.0000000000000015
230
1.0
 70
    12
 71
     2
 72
     6
 73
     3
 74
     0
 42
0.0000000001
 43
0.0000000001
 40
4.628989808360114
 40
4.628989808360114
 40
4.628989808360114
 40
11.87353525916132
 40
11.87353525916132
 40
11.87353525916132
 10
120.3696692993614
 20
303.2241433751043
 30
0.0
 41
1.47932389907904
 10
121.0363359679692
 20
304.3788439151216
 30
0.0000000000000036
 41
1.708176103342424
 10
120.3696692994409
 20
305.5335444551043
 30
-0.0000000000000036
 41
1.479323899102685
  0
LINE
  5
22CF
330
1F
100
AcDbEntity
  8
AM_VIS
100
AcDbLine
 10
117.67127245532
 20
297.1647423051043
 30
0.0
 11
118.1728756169726
 21
296.2959401451043
 31
0.0
  0
LINE
  5
22D0
330
1F
100
AcDbEntity
  8
AM_VIS
100
AcDbLine
 10
117.67127245532
 20
304.6647423051043
 30
0.0
 11
118.1728756111991
 21
305.5335444551043
 31
0.0
  0
LINE
  5
22D1
330
1F
100
AcDbEntity
  8
AM_VIS
100
AcDbLine
 10
120.87127245532
 20
304.6647423051043
 30
0.0
 11
120.3696692994409
 21
305.5335444551043
 31
0.0
  0
LINE
  5
22D2
330
1F
100
AcDbEntity
  8
AM_VIS
100
AcDbLine
 10
120.87127245532
 20
297.1647423051043
 30
0.0
 11
120.3696692936675
 21
296.2959401451043
 31
0.0
  0
LINE
  5
22D3
330
1F
100
AcDbEntity
  8
AM_VIS
100
AcDbLine
 10
117.67127245532
 20
304.6647423051043
 30
0.0
 11
117.67127245532
 21
297.1647423051043
 31
0.0
  0
LINE
  5
22D4
330
1F
100
AcDbEntity
  8
AM_VIS
100
AcDbLine
 10
120.87127245532
 20
297.1647423051043
 30
0.0
 11
120.87127245532
 21
304.6647423051043
 31
0.0
  0
LINE
  5
22D5
330
1F
100
AcDbEntity
  8
AM_VIS
100
AcDbLine
 10
136.1768259541905
 20
316.5031995751043
 30
0.0
 11
134.1657189564495
 21
316.5031995751043
 31
0.0
  0
SPLINE
  5
22D6
330
1F
100
AcDbEntity
  8
AM_VIS
100
AcDbSpline
210
0.0
220
0.0
230
1.0
 70
    12
 71
     2
 72
     6
 73
     3
 74
     0
 42
0.0000000001
 43
0.0000000001
 40
7.802819137906116
 40
7.802819137906116
 40
7.802819137906116
 40
27.36041092005328
 40
27.36041092005328
 40
27.36041092005328
 10
134.1657189564495
 20
316.5031995751043
 30
0.0
 41
1.208735606485532
 10
131.9157189584391
 20
312.6060852602405
 30
0.0
 41
1.395727655407905
 10
134.1657189570788
 20
308.7089709451043
 30
0.0
 41
1.208735606440241
  0
SPLINE
  5
22D7
330
1F
100
AcDbEntity
  8
AM_VIS
100
AcDbSpline
210
0.0
220
0.0
230
1.0
 70
    12
 71
     2
 72
     6
 73
     3
 74
     0
 42
0.0000000001
 43
0.0000000001
 40
7.802819130927051
 40
7.802819130927051
 40
7.802819130927051
 40
27.36041092004651
 40
27.36041092004651
 40
27.36041092004651
 10
134.1657189570788
 20
308.7089709451043
 30
0.0
 41
1.208735606464541
 10
131.9157189558995
 20
300.9147423088543
 30
0.0
 41
1.395727655704816
 10
134.165718954192
 20
293.1205136751044
 30
0.0
 41
1.20873560667231
  0
LINE
  5
22D8
330
1F
100
AcDbEntity
  8
AM_VIS
100
AcDbLine
 10
136.1768259535612
 20
308.7089709451043
 30
0.0
 11
134.1657189570788
 21
308.7089709451043
 31
0.0
  0
SPLINE
  5
22D9
330
1F
100
AcDbEntity
  8
AM_VIS
100
AcDbSpline
210
0.0
220
0.0
230
1.0
 70
    12
 71
     2
 72
     6
 73
     3
 74
     0
 42
0.0000000001
 43
0.0000000001
 40
7.802819134611421
 40
7.802819134611421
 40
7.802819134611421
 40
27.36041092372489
 40
27.36041092372489
 40
27.36041092372489
 10
134.165718954192
 20
293.1205136751044
 30
0.0
 41
1.208735606710154
 10
131.9157189530265
 20
289.2233993593431
 30
0.0
 41
1.395727656063367
 10
134.1657189506759
 20
285.3262850451041
 30
0.0
 41
1.208735606963213
  0
LINE
  5
22DA
330
1F
100
AcDbEntity
  8
AM_VIS
100
AcDbLine
 10
136.176825956448
 20
293.1205136751044
 30
0.0
 11
134.165718954192
 21
293.1205136751044
 31
0.0
  0
LINE
  5
22DB
330
1F
100
AcDbEntity
  8
AM_VIS
100
AcDbLine
 10
136.176825959964
 20
285.3262850451043
 30
0.0
 11
134.165718950676
 21
285.3262850451043
 31
0.0
  0
SPLINE
  5
22DC
330
1F
100
AcDbEntity
  8
AM_VIS
100
AcDbSpline
210
0.0
220
0.0
230
1.0
 70
    12
 71
     2
 72
     6
 73
     3
 74
     0
 42
0.0000000001
 43
0.0000000001
 40
9.184371108675751
 40
9.184371108675751
 40
9.184371108675751
 40
29.55618316808382
 40
29.55618316808382
 40
29.55618316808382
 10
136.176825959964
 20
285.3262850451043
 30
0.0
 41
1.253724484949384
 10
138.4268259576135
 20
289.223399359343
 30
-0.0000000000000036
 41
1.447676337693022
 10
136.1768259564481
 20
293.1205136751044
 30
0.0
 41
1.253724484686906
  0
SPLINE
  5
22DD
330
1F
100
AcDbEntity
  8
AM_VIS
100
AcDbSpline
210
0.0
220
0.0
230
1.0
 70
    12
 71
     2
 72
     6
 73
     3
 74
     0
 42
0.0000000001
 43
0.0000000001
 40
9.184371097788462
 40
9.184371097788462
 40
9.184371097788462
 40
29.55618315401098
 40
29.55618315401098
 40
29.55618315401098
 10
136.176825956448
 20
293.1205136751044
 30
0.0
 41
1.253724484469834
 10
138.4268259547406
 20
300.9147423088543
 30
0.0
 41
1.447676337115798
 10
136.1768259535612
 20
308.7089709451042
 30
0.0
 41
1.253724484254331
  0
SPLINE
  5
22DE
330
1F
100
AcDbEntity
  8
AM_VIS
100
AcDbSpline
210
0.0
220
-0.0000000000000005
230
1.0
 70
    12
 71
     2
 72
     6
 73
     3
 74
     0
 42
0.0000000001
 43
0.0000000001
 40
9.184371087081885
 40
9.184371087081885
 40
9.184371087081885
 40
29.55618313324356
 40
29.55618313324356
 40
29.55618313324356
 10
136.1768259535612
 20
308.7089709451043
 30
0.0
 41
1.25372448407357
 10
138.4268259522008
 20
312.6060852602405
 30
0.0
 41
1.447676336628211
 10
136.1768259541906
 20
316.5031995751043
 30
0.0000000000000036
 41
1.253724484120546
  0
LINE
  5
22DF
330
1F
100
AcDbEntity
  8
AM_VIS
100
AcDbLine
 10
132.67127245532
 20
287.9147423051044
 30
0.0
 11
134.165718950676
 21
285.3262850451043
 31
0.0
  0
LINE
  5
22E0
330
1F
100
AcDbEntity
  8
AM_VIS
100
AcDbLine
 10
132.67127245532
 20
313.9147423051043
 30
0.0
 11
134.1657189564495
 21
316.5031995751043
 31
0.0
  0
LINE
  5
22E1
330
1F
100
AcDbEntity
  8
AM_VIS
100
AcDbLine
 10
137.67127245532
 20
313.9147423051044
 30
0.0
 11
136.1768259541905
 21
316.5031995751043
 31
0.0
  0
LINE
  5
22E2
330
1F
100
AcDbEntity
  8
AM_VIS
100
AcDbLine
 10
137.67127245532
 20
287.9147423051043
 30
0.0
 11
136.176825959964
 21
285.3262850451043
 31
0.0
  0
LINE
  5
22E3
330
1F
100
AcDbEntity
  8
AM_VIS
100
AcDbLine
 10
132.67127245532
 20
313.9147423051043
 30
0.0
 11
132.67127245532
 21
287.9147423051044
 31
0.0
  0
LINE
  5
22E4
330
1F
100
AcDbEntity
  8
AM_VIS
100
AcDbLine
 10
137.67127245532
 20
287.9147423051043
 30
0.0
 11
137.67127245532
 21
313.9147423051044
 31
0.0
  0
LINE
  5
22E5
330
1F
100
AcDbEntity
  8
AM_VIS
100
AcDbLine
 10
141.1768259541906
 20
316.5031995751043
 30
0.0
 11
139.1657189564495
 21
316.5031995751043
 31
0.0
  0
SPLINE
  5
22E6
330
1F
100
AcDbEntity
  8
AM_VIS
100
AcDbSpline
210
0.0
220
0.0
230
1.0
 70
    12
 71
     2
 72
     6
 73
     3
 74
     0
 42
0.0000000001
 43
0.0000000001
 40
7.802819137906116
 40
7.802819137906116
 40
7.802819137906116
 40
27.36041092005328
 40
27.36041092005328
 40
27.36041092005328
 10
139.1657189564495
 20
316.5031995751043
 30
0.0
 41
1.208735606485532
 10
136.9157189584391
 20
312.6060852602405
 30
0.0
 41
1.395727655407905
 10
139.1657189570788
 20
308.7089709451043
 30
0.0
 41
1.208735606440241
  0
SPLINE
  5
22E7
330
1F
100
AcDbEntity
  8
AM_VIS
100
AcDbSpline
210
0.0
220
0.0
230
1.0
 70
    12
 71
     2
 72
     6
 73
     3
 74
     0
 42
0.0000000001
 43
0.0000000001
 40
7.802819130927051
 40
7.802819130927051
 40
7.802819130927051
 40
27.36041092004651
 40
27.36041092004651
 40
27.36041092004651
 10
139.1657189570787
 20
308.7089709451043
 30
0.0
 41
1.208735606464541
 10
136.9157189558995
 20
300.9147423088543
 30
0.0
 41
1.395727655704816
 10
139.165718954192
 20
293.1205136751044
 30
0.0
 41
1.20873560667231
  0
LINE
  5
22E8
330
1F
100
AcDbEntity
  8
AM_VIS
100
AcDbLine
 10
141.1768259535612
 20
308.7089709451043
 30
0.0
 11
139.1657189570788
 21
308.7089709451043
 31
0.0
  0
SPLINE
  5
22E9
330
1F
100
AcDbEntity
  8
AM_VIS
100
AcDbSpline
210
0.0
220
0.0
230
1.0
 70
    12
 71
     2
 72
     6
 73
     3
 74
     0
 42
0.0000000001
 43
0.0000000001
 40
7.802819134611421
 40
7.802819134611421
 40
7.802819134611421
 40
27.36041092372489
 40
27.36041092372489
 40
27.36041092372489
 10
139.165718954192
 20
293.1205136751044
 30
0.0
 41
1.208735606710154
 10
136.9157189530265
 20
289.2233993593431
 30
0.0
 41
1.395727656063367
 10
139.1657189506759
 20
285.3262850451041
 30
0.0
 41
1.208735606963213
  0
LINE
  5
22EA
330
1F
100
AcDbEntity
  8
AM_VIS
100
AcDbLine
 10
141.176825956448
 20
293.1205136751044
 30
0.0
 11
139.165718954192
 21
293.1205136751044
 31
0.0
  0
LINE
  5
22EB
330
1F
100
AcDbEntity
  8
AM_VIS
100
AcDbLine
 10
141.176825959964
 20
285.3262850451043
 30
0.0
 11
139.165718950676
 21
285.3262850451043
 31
0.0
  0
SPLINE
  5
22EC
330
1F
100
AcDbEntity
  8
AM_VIS
100
AcDbSpline
210
0.0
220
0.0
230
1.0
 70
    12
 71
     2
 72
     6
 73
     3
 74
     0
 42
0.0000000001
 43
0.0000000001
 40
9.184371108675751
 40
9.184371108675751
 40
9.184371108675751
 40
29.55618316808382
 40
29.55618316808382
 40
29.55618316808382
 10
141.176825959964
 20
285.3262850451043
 30
0.0
 41
1.253724484949384
 10
143.4268259576136
 20
289.223399359343
 30
-0.0000000000000036
 41
1.447676337693022
 10
141.1768259564481
 20
293.1205136751044
 30
0.0
 41
1.253724484686906
  0
SPLINE
  5
22ED
330
1F
100
AcDbEntity
  8
AM_VIS
100
AcDbSpline
210
0.0
220
0.0
230
1.0
 70
    12
 71
     2
 72
     6
 73
     3
 74
     0
 42
0.0000000001
 43
0.0000000001
 40
9.184371097788462
 40
9.184371097788462
 40
9.184371097788462
 40
29.55618315401098
 40
29.55618315401098
 40
29.55618315401098
 10
141.176825956448
 20
293.1205136751043
 30
0.0
 41
1.253724484469834
 10
143.4268259547406
 20
300.9147423088543
 30
0.0
 41
1.447676337115798
 10
141.1768259535611
 20
308.7089709451042
 30
0.0
 41
1.253724484254331
  0
SPLINE
  5
22EE
330
1F
100
AcDbEntity
  8
AM_VIS
100
AcDbSpline
210
0.0
220
-0.0000000000000005
230
1.0
 70
    12
 71
     2
 72
     6
 73
     3
 74
     0
 42
0.0000000001
 43
0.0000000001
 40
9.184371087081885
 40
9.184371087081885
 40
9.184371087081885
 40
29.55618313324356
 40
29.55618313324356
 40
29.55618313324356
 10
141.1768259535612
 20
308.7089709451043
 30
0.0
 41
1.25372448407357
 10
143.4268259522009
 20
312.6060852602405
 30
0.0
 41
1.447676336628211
 10
141.1768259541906
 20
316.5031995751043
 30
0.0000000000000036
 41
1.253724484120546
  0
LINE
  5
22EF
330
1F
100
AcDbEntity
  8
AM_VIS
100
AcDbLine
 10
137.67127245532
 20
287.9147423051043
 30
0.0
 11
139.165718950676
 21
285.3262850451043
 31
0.0
  0
LINE
  5
22F0
330
1F
100
AcDbEntity
  8
AM_VIS
100
AcDbLine
 10
137.67127245532
 20
313.9147423051043
 30
0.0
 11
139.1657189564495
 21
316.5031995751043
 31
0.0
  0
LINE
  5
22F1
330
1F
100
AcDbEntity
  8
AM_VIS
100
AcDbLine
 10
142.67127245532
 20
313.9147423051043
 30
0.0
 11
141.1768259541906
 21
316.5031995751043
 31
0.0
  0
LINE
  5
22F2
330
1F
100
AcDbEntity
  8
AM_VIS
100
AcDbLine
 10
142.67127245532
 20
287.9147423051043
 30
0.0
 11
141.176825959964
 21
285.3262850451043
 31
0.0
  0
LINE
  5
22F3
330
1F
100
AcDbEntity
  8
AM_VIS
100
AcDbLine
 10
137.67127245532
 20
313.9147423051043
 30
0.0
 11
137.67127245532
 21
287.9147423051043
 31
0.0
  0
LINE
  5
22F4
330
1F
100
AcDbEntity
  8
AM_VIS
100
AcDbLine
 10
142.67127245532
 20
287.9147423051043
 30
0.0
 11
142.67127245532
 21
313.9147423051043
 31
0.0
  0
LINE
  5
22F5
330
1F
100
AcDbEntity
  8
AM_VIS
100
AcDbLine
 10
128.17127245532
 20
303.4147423051043
 30
0.0
 11
125.97127245532
 21
303.4147423051043
 31
0.0
  0
LINE
  5
22F6
330
1F
100
AcDbEntity
  8
AM_VIS
100
AcDbLine
 10
128.17127245532
 20
298.4147423051043
 30
0.0
 11
125.97127245532
 21
298.4147423051043
 31
0.0
  0
LINE
  5
22F7
330
1F
100
AcDbEntity
  8
AM_VIS
100
AcDbLine
 10
125.97127245532
 20
303.4147423051043
 30
0.0
 11
124.07127245532
 21
303.4147423051043
 31
0.0
  0
LINE
  5
22F8
330
1F
100
AcDbEntity
  8
AM_VIS
100
AcDbLine
 10
117.67127245532
 20
303.4147423051043
 30
0.0
 11
115.37127245532
 21
303.4147423051043
 31
0.0
  0
LINE
  5
22F9
330
1F
100
AcDbEntity
  8
AM_VIS
100
AcDbLine
 10
125.97127245532
 20
298.4147423051043
 30
0.0
 11
124.07127245532
 21
298.4147423051043
 31
0.0
  0
LINE
  5
22FA
330
1F
100
AcDbEntity
  8
AM_VIS
100
AcDbLine
 10
117.67127245532
 20
298.4147423051043
 30
0.0
 11
115.37127245532
 21
298.4147423051043
 31
0.0
  0
LINE
  5
22FB
330
1F
100
AcDbEntity
  8
AM_VIS
100
AcDbLine
 10
114.67127245532
 20
299.1147423051043
 30
0.0
 11
115.37127245532
 21
298.4147423051043
 31
0.0
  0
LINE
  5
22FC
330
1F
100
AcDbEntity
  8
AM_VIS
100
AcDbLine
 10
114.67127245532
 20
302.7147423051043
 30
0.0
 11
115.37127245532
 21
303.4147423051043
 31
0.0
  0
LINE
  5
22FD
330
1F
100
AcDbEntity
  8
AM_VIS
100
AcDbLine
 10
128.17127245532
 20
298.4147423051043
 30
0.0
 11
128.67127245532
 21
297.9147423051043
 31
0.0
  0
LINE
  5
22FE
330
1F
100
AcDbEntity
  8
AM_VIS
100
AcDbLine
 10
128.17127245532
 20
303.4147423051043
 30
0.0
 11
128.67127245532
 21
303.9147423051043
 31
0.0
  0
LINE
  5
22FF
330
1F
100
AcDbEntity
  8
AM_VIS
100
AcDbLine
 10
115.37127245532
 20
303.4147423051043
 30
0.0
 11
115.37127245532
 21
298.4147423051043
 31
0.0
  0
LINE
  5
2300
330
1F
100
AcDbEntity
  8
AM_VIS
100
AcDbLine
 10
114.67127245532
 20
299.1147423051043
 30
0.0
 11
114.67127245532
 21
302.7147423051043
 31
0.0
  0
LINE
  5
2301
330
1F
100
AcDbEntity
  8
AM_VIS
100
AcDbLine
 10
128.17127245532
 20
298.4147423051043
 30
0.0
 11
128.17127245532
 21
303.4147423051043
 31
0.0
  0
SPLINE
  5
2302
330
1F
100
AcDbEntity
  8
AM_VIS
100
AcDbSpline
210
0.0
220
0.0000000000000016
230
1.0
 70
    12
 71
     2
 72
     6
 73
     3
 74
     0
 42
0.0000000001
 43
0.0000000001
 40
10.84214655198994
 40
10.84214655198994
 40
10.84214655198994
 40
24.39041416841209
 40
24.39041416841209
 40
24.39041416841209
 10
150.3052470575681
 20
289.9632004200555
 30
0.0000000000000036
 41
1.404761905558833
 10
151.4074612051037
 20
292.2544882644983
 30
0.0
 41
1.54523809590523
 10
150.3052470551628
 20
294.5457761098087
 30
-0.0000000000000036
 41
1.404761905280156
  0
SPLINE
  5
2303
330
1F
100
AcDbEntity
  8
AM_VIS
100
AcDbSpline
210
0.0
220
0.0
230
1.0
 70
    12
 71
     2
 72
     6
 73
     3
 74
     0
 42
0.0000000001
 43
0.0000000001
 40
11.25418111124219
 40
11.25418111124219
 40
11.25418111124219
 40
25.00488671527372
 40
25.00488671527372
 40
25.00488671527372
 10
130.8063577478772
 20
294.5457761098087
 30
0.0
 41
1.423809524339188
 10
129.7041435979362
 20
292.2544882644982
 30
0.0000000000000036
 41
1.566190476871482
 10
130.806357745472
 20
289.9632004200555
 30
0.0
 41
1.423809524621644
  0
SPLINE
  5
2304
330
1F
100
AcDbEntity
  8
AM_VIS
100
AcDbSpline
210
0.0
220
0.0
230
1.0
 70
    12
 71
     2
 72
     6
 73
     3
 74
     0
 42
0.0000000001
 43
0.0000000001
 40
11.2541810829324
 40
11.2541810829324
 40
11.2541810829324
 40
25.00488673087696
 40
25.00488673087696
 40
25.00488673087696
 10
130.8063577569681
 20
311.8662841921022
 30
0.0
 41
1.423809523096824
 10
129.704143599514
 20
309.5749963373426
 30
0.0
 41
1.56619047639044
 10
130.8063577545629
 20
307.2837084834507
 30
0.0
 41
1.42380952337928
  0
SPLINE
  5
2305
330
1F
100
AcDbEntity
  8
AM_VIS
100
AcDbSpline
210
0.0
220
0.0000000000000008
230
1.0
 70
    12
 71
     2
 72
     6
 73
     3
 74
     0
 42
0.0000000001
 43
0.0000000001
 40
10.84214652386092
 40
10.84214652386092
 40
10.84214652386092
 40
24.39041418359548
 40
24.39041418359548
 40
24.39041418359548
 10
150.3052470484773
 20
307.2837084834507
 30
0.0
 41
1.40476190433861
 10
151.407461203526
 20
309.5749963373426
 30
0.0
 41
1.545238095436699
 10
150.3052470460719
 20
311.8662841921022
 30
-0.0000000000000036
 41
1.404761904059933
  0
SPLINE
  5
2306
330
1F
100
AcDbEntity
  8
AM_VIS
100
AcDbSpline
210
0.0
220
-0.0000000000000004
230
1.0
 70
    12
 71
     2
 72
     6
 73
     3
 74
     0
 42
0.0000000001
 43
0.0000000001
 40
11.25418109687855
 40
11.25418109687855
 40
11.25418109687855
 40
25.00488670603051
 40
25.00488670603051
 40
25.00488670603051
 10
130.8063577536252
 20
305.4973180000602
 30
0.0000000000000036
 41
1.423809523527064
 10
129.7041436013109
 20
300.9147423033688
 30
0.0
 41
1.566190476190476
 10
130.8063577488148
 20
296.3321666101485
 30
0.0
 41
1.423809524091977
  0
SPLINE
  5
2307
330
1F
100
AcDbEntity
  8
AM_VIS
100
AcDbSpline
210
0.0
220
0.0
230
1.0
 70
    12
 71
     2
 72
     6
 73
     3
 74
     0
 42
0.0000000001
 43
0.0000000001
 40
10.84214655109122
 40
10.84214655109122
 40
10.84214655109122
 40
24.39041417259433
 40
24.39041417259433
 40
24.39041417259433
 10
150.3052470542252
 20
296.3321666101484
 30
0.0
 41
1.40476190504058
 10
151.4074612017293
 20
300.9147423033688
 30
0.0
 41
1.545238095238095
 10
150.3052470494148
 20
305.4973180000601
 30
0.0
 41
1.404761904483226
  0
LINE
  5
2308
330
1F
100
AcDbEntity
  8
AM_VIS
100
AcDbLine
 10
150.3052470551629
 20
294.5457761098087
 30
0.0
 11
142.67127245532
 21
294.5457761098087
 31
0.0
  0
LINE
  5
2309
330
1F
100
AcDbEntity
  8
AM_VIS
100
AcDbLine
 10
132.67127245532
 20
294.5457761098087
 30
0.0
 11
130.8063577478772
 21
294.5457761098087
 31
0.0
  0
LINE
  5
230A
330
1F
100
AcDbEntity
  8
AM_VIS
100
AcDbLine
 10
130.8063577488147
 20
296.3321666101485
 30
0.0
 11
132.67127245532
 21
296.3321666101485
 31
0.0
  0
LINE
  5
230B
330
1F
100
AcDbEntity
  8
AM_VIS
100
AcDbLine
 10
142.67127245532
 20
296.3321666101485
 30
0.0
 11
150.3052470542252
 21
296.3321666101485
 31
0.0
  0
LINE
  5
230C
330
1F
100
AcDbEntity
  8
AM_VIS
100
AcDbLine
 10
130.8063577454719
 20
289.9632004200555
 30
0.0
 11
132.67127245532
 21
289.9632004200555
 31
0.0
  0
LINE
  5
230D
330
1F
100
AcDbEntity
  8
AM_VIS
100
AcDbLine
 10
142.67127245532
 20
289.9632004200555
 30
0.0
 11
150.3052470575681
 21
289.9632004200555
 31
0.0
  0
LINE
  5
230E
330
1F
100
AcDbEntity
  8
AM_VIS
100
AcDbLine
 10
150.3052470494148
 20
305.4973180000601
 30
0.0
 11
142.67127245532
 21
305.4973180000601
 31
0.0
  0
LINE
  5
230F
330
1F
100
AcDbEntity
  8
AM_VIS
100
AcDbLine
 10
132.67127245532
 20
305.4973180000601
 30
0.0
 11
130.8063577536252
 21
305.4973180000601
 31
0.0
  0
LINE
  5
2310
330
1F
100
AcDbEntity
  8
AM_VIS
100
AcDbLine
 10
130.8063577545629
 20
307.2837084834507
 30
0.0
 11
132.67127245532
 21
307.2837084834507
 31
0.0
  0
LINE
  5
2311
330
1F
100
AcDbEntity
  8
AM_VIS
100
AcDbLine
 10
142.67127245532
 20
307.2837084834507
 30
0.0
 11
150.3052470484772
 21
307.2837084834507
 31
0.0
  0
LINE
  5
2312
330
1F
100
AcDbEntity
  8
AM_VIS
100
AcDbLine
 10
150.3052470460719
 20
311.8662841921023
 30
0.0
 11
142.67127245532
 21
311.8662841921023
 31
0.0
  0
LINE
  5
2313
330
1F
100
AcDbEntity
  8
AM_VIS
100
AcDbLine
 10
132.67127245532
 20
311.8662841921023
 30
0.0
 11
130.8063577569681
 21
311.8662841921023
 31
0.0
  0
LINE
  5
2314
330
1F
100
AcDbEntity
  8
AM_VIS
100
AcDbLine
 10
158.17127245532
 20
310.4147422951043
 30
0.0
 11
157.17127245532
 21
310.4147422951043
 31
0.0
  0
LINE
  5
2315
330
1F
100
AcDbEntity
  8
AM_VIS
100
AcDbLine
 10
158.17127245532
 20
291.4147422951043
 30
0.0
 11
157.17127245532
 21
291.4147422951043
 31
0.0
  0
LINE
  5
2316
330
1F
100
AcDbEntity
  8
AM_VIS
100
AcDbLine
 10
151.17127245532
 20
310.4147422951043
 30
0.0
 11
150.3052470474899
 21
311.9147423026043
 31
0.0
  0
LINE
  5
2317
330
1F
100
AcDbEntity
  8
AM_VIS
100
AcDbLine
 10
151.17127245532
 20
291.4147422951043
 30
0.0
 11
150.3052470561501
 21
289.9147423026043
 31
0.0
  0
LINE
  5
2318
330
1F
100
AcDbEntity
  8
AM_VIS
100
AcDbLine
 10
155.47127245532
 20
310.4147422951043
 30
0.0
 11
151.17127245532
 21
310.4147422951043
 31
0.0
  0
LINE
  5
2319
330
1F
100
AcDbEntity
  8
AM_VIS
100
AcDbLine
 10
155.47127245532
 20
291.4147422951043
 30
0.0
 11
151.17127245532
 21
291.4147422951043
 31
0.0
  0
LINE
  5
231A
330
1F
100
AcDbEntity
  8
AM_VIS
100
AcDbLine
 10
155.47127245532
 20
292.4147422951043
 30
0.0
 11
157.17127245532
 21
292.4147422951043
 31
0.0
  0
LINE
  5
231B
330
1F
100
AcDbEntity
  8
AM_VIS
100
AcDbLine
 10
155.47127245532
 20
309.4147422951043
 30
0.0
 11
157.17127245532
 21
309.4147422951043
 31
0.0
  0
LINE
  5
231C
330
1F
100
AcDbEntity
  8
AM_VIS
100
AcDbLine
 10
128.77127245532
 20
291.0147423051043
 30
0.0
 11
130.17127245532
 21
291.0147423051043
 31
0.0
  0
LINE
  5
231D
330
1F
100
AcDbEntity
  8
AM_VIS
100
AcDbLine
 10
128.77127245532
 20
310.8147423051044
 30
0.0
 11
130.17127245532
 21
310.8147423051044
 31
0.0
  0
LINE
  5
231E
330
1F
100
AcDbEntity
  8
AM_VIS
100
AcDbLine
 10
128.67127245532
 20
291.1147423051043
 30
0.0
 11
128.77127245532
 21
291.0147423051043
 31
0.0
  0
LINE
  5
231F
330
1F
100
AcDbEntity
  8
AM_VIS
100
AcDbLine
 10
128.67127245532
 20
310.7147423051043
 30
0.0
 11
128.77127245532
 21
310.8147423051044
 31
0.0
  0
LINE
  5
2320
330
1F
100
AcDbEntity
  8
AM_VIS
100
AcDbLine
 10
130.1712724509899
 20
291.0147423026043
 30
0.0
 11
130.8063577468899
 21
289.9147423026043
 31
0.0
  0
LINE
  5
2321
330
1F
100
AcDbEntity
  8
AM_VIS
100
AcDbLine
 10
130.1712724596501
 20
310.8147423026043
 30
0.0
 11
130.8063577555501
 21
311.9147423026043
 31
0.0
  0
LINE
  5
2322
330
1F
100
AcDbEntity
  8
AM_VIS
100
AcDbLine
 10
130.80635775122
 20
289.9147423051043
 30
0.0
 11
132.67127245532
 21
289.9147423051043
 31
0.0
  0
LINE
  5
2323
330
1F
100
AcDbEntity
  8
AM_VIS
100
AcDbLine
 10
142.67127245532
 20
289.9147423051043
 30
0.0
 11
150.30524705182
 21
289.9147423051043
 31
0.0
  0
LINE
  5
2324
330
1F
100
AcDbEntity
  8
AM_VIS
100
AcDbLine
 10
130.80635775122
 20
311.9147423051043
 30
0.0
 11
132.67127245532
 21
311.9147423051043
 31
0.0
  0
LINE
  5
2325
330
1F
100
AcDbEntity
  8
AM_VIS
100
AcDbLine
 10
142.67127245532
 20
311.9147423051043
 30
0.0
 11
150.30524705182
 21
311.9147423051043
 31
0.0
  0
LINE
  5
2326
330
1F
100
AcDbEntity
  8
AM_VIS
100
AcDbLine
 10
151.17127245532
 20
291.4147422951043
 30
0.0
 11
151.17127245532
 21
310.4147422951043
 31
0.0
  0
LINE
  5
2327
330
1F
100
AcDbEntity
  8
AM_VIS
100
AcDbLine
 10
155.47127245532
 20
310.4147422951043
 30
0.0
 11
155.47127245532
 21
291.4147422951043
 31
0.0
  0
LINE
  5
2328
330
1F
100
AcDbEntity
  8
AM_VIS
100
AcDbLine
 10
157.17127245532
 20
291.4147422951043
 30
0.0
 11
157.17127245532
 21
310.4147422951043
 31
0.0
  0
LINE
  5
2329
330
1F
100
AcDbEntity
  8
AM_VIS
100
AcDbLine
 10
158.17127245532
 20
310.4147422951043
 30
0.0
 11
158.17127245532
 21
291.4147422951043
 31
0.0
  0
LINE
  5
232B
330
1F
100
AcDbEntity
  8
AM_VIS
100
AcDbLine
 10
128.67127245532
 20
291.1147423051043
 30
0.0
 11
128.67127245532
 21
310.7147423051043
 31
0.0
  0
LINE
  5
232C
330
1F
100
AcDbEntity
  8
AM_VIS
100
AcDbLine
 10
130.17127245532
 20
291.0147423051043
 30
0.0
 11
130.17127245532
 21
310.8147423051044
 31
0.0
  0
LINE
  5
232D
330
1F
100
AcDbEntity
  8
AM_VIS
100
AcDbLine
 10
130.80635775122
 20
296.3321666101485
 30
0.0
 11
130.80635775122
 21
294.5457761098087
 31
0.0
  0
LINE
  5
232E
330
1F
100
AcDbEntity
  8
AM_VIS
100
AcDbLine
 10
150.30524705182
 20
294.5457761098088
 30
0.0
 11
150.30524705182
 21
296.3321666101485
 31
0.0
  0
LINE
  5
232F
330
1F
100
AcDbEntity
  8
AM_VIS
100
AcDbLine
 10
130.80635775122
 20
289.9632004200555
 30
0.0
 11
130.80635775122
 21
289.9147423051043
 31
0.0
  0
LINE
  5
2330
330
1F
100
AcDbEntity
  8
AM_VIS
100
AcDbLine
 10
150.30524705182
 20
289.9147423051043
 30
0.0
 11
150.30524705182
 21
289.9632004200555
 31
0.0
  0
LINE
  5
2331
330
1F
100
AcDbEntity
  8
AM_VIS
100
AcDbLine
 10
130.80635775122
 20
307.2837084834507
 30
0.0
 11
130.80635775122
 21
305.4973180000602
 31
0.0
  0
LINE
  5
2332
330
1F
100
AcDbEntity
  8
AM_VIS
100
AcDbLine
 10
150.30524705182
 20
305.4973180000602
 30
0.0
 11
150.30524705182
 21
307.2837084834507
 31
0.0
  0
LINE
  5
2333
330
1F
100
AcDbEntity
  8
AM_VIS
100
AcDbLine
 10
150.30524705182
 20
311.8662841921023
 30
0.0
 11
150.30524705182
 21
311.9147423051043
 31
0.0
  0
LINE
  5
2334
330
1F
100
AcDbEntity
  8
AM_VIS
100
AcDbLine
 10
130.80635775122
 20
311.9147423051043
 30
0.0
 11
130.80635775122
 21
311.8662841921023
 31
0.0
  0
LINE
  5
2335
330
1F
100
AcDbEntity
  8
AM_VIS
100
AcDbLine
 10
78.10045525069665
 20
303.2241433751043
 30
0.0
 11
78.10045525069665
 21
298.6053412251043
 31
0.0
  0
LINE
  5
2336
330
1F
100
AcDbEntity
  8
AM_VIS
100
AcDbLine
 10
78.10045525069665
 20
303.2241433751043
 30
0.0
 11
82.10045525069665
 21
305.5335444551043
 31
0.0
  0
LINE
  5
2337
330
1F
100
AcDbEntity
  8
AM_VIS
100
AcDbLine
 10
82.10045525069665
 20
305.5335444551043
 30
0.0
 11
86.10045525069665
 21
303.2241433751043
 31
0.0
  0
LINE
  5
2338
330
1F
100
AcDbEntity
  8
AM_VIS
100
AcDbLine
 10
86.10045525069665
 20
303.2241433751043
 30
0.0
 11
86.10045525069665
 21
298.6053412251043
 31
0.0
  0
LINE
  5
2339
330
1F
100
AcDbEntity
  8
AM_VIS
100
AcDbLine
 10
82.10045525069665
 20
296.2959401451044
 30
0.0
 11
86.10045525069665
 21
298.6053412251043
 31
0.0
  0
LINE
  5
233A
330
1F
100
AcDbEntity
  8
AM_VIS
100
AcDbLine
 10
78.10045525069665
 20
298.6053412251043
 30
0.0
 11
82.10045525069665
 21
296.2959401451044
 31
0.0
  0
LINE
  5
233B
330
1F
100
AcDbEntity
  8
AM_VIS
100
AcDbLine
 10
78.10045525069665
 20
303.2241433751043
 30
0.0
 11
78.10045525069665
 21
298.6053412251043
 31
0.0
  0
LINE
  5
233C
330
1F
100
AcDbEntity
  8
AM_VIS
100
AcDbLine
 10
78.10045525069665
 20
303.2241433751043
 30
0.0
 11
82.10045525069665
 21
305.5335444551043
 31
0.0
  0
LINE
  5
233D
330
1F
100
AcDbEntity
  8
AM_VIS
100
AcDbLine
 10
82.10045525069665
 20
305.5335444551043
 30
0.0
 11
86.10045525069665
 21
303.2241433751043
 31
0.0
  0
LINE
  5
233E
330
1F
100
AcDbEntity
  8
AM_VIS
100
AcDbLine
 10
86.10045525069665
 20
303.2241433751043
 30
0.0
 11
86.10045525069665
 21
298.6053412251043
 31
0.0
  0
LINE
  5
233F
330
1F
100
AcDbEntity
  8
AM_VIS
100
AcDbLine
 10
82.10045525069665
 20
296.2959401451043
 30
0.0
 11
86.10045525069665
 21
298.6053412251043
 31
0.0
  0
LINE
  5
2340
330
1F
100
AcDbEntity
  8
AM_VIS
100
AcDbLine
 10
78.10045525069665
 20
298.6053412251043
 30
0.0
 11
82.10045525069665
 21
296.2959401451044
 31
0.0
  0
CIRCLE
  5
2341
330
1F
100
AcDbEntity
  8
AM_VIS
100
AcDbCircle
 10
82.10045525069665
 20
300.9147423051043
 30
0.0
 40
3.749999999999998
  0
CIRCLE
  5
2342
330
1F
100
AcDbEntity
  8
AM_VIS
100
AcDbCircle
 10
82.10045525069665
 20
300.9147423001043
 30
0.0
 40
2.767000000000001
  0
LINE
  5
2343
330
1F
100
AcDbEntity
  8
AM_VIS
100
AcDbLine
 10
68.60045525069665
 20
308.7089709451043
 30
0.0
 11
68.60045525069665
 21
293.1205136751044
 31
0.0
  0
LINE
  5
2344
330
1F
100
AcDbEntity
  8
AM_VIS
100
AcDbLine
 10
68.60045525069665
 20
308.7089709451043
 30
0.0
 11
82.10045525069665
 21
316.5031995751043
 31
0.0
  0
LINE
  5
2345
330
1F
100
AcDbEntity
  8
AM_VIS
100
AcDbLine
 10
82.10045525069665
 20
316.5031995751043
 30
0.0
 11
95.60045525069666
 21
308.7089709451043
 31
0.0
  0
LINE
  5
2346
330
1F
100
AcDbEntity
  8
AM_VIS
100
AcDbLine
 10
95.60045525069666
 20
308.7089709451043
 30
0.0
 11
95.60045525069666
 21
293.1205136751044
 31
0.0
  0
LINE
  5
2347
330
1F
100
AcDbEntity
  8
AM_VIS
100
AcDbLine
 10
82.10045525069665
 20
285.3262850451043
 30
0.0
 11
95.60045525069666
 21
293.1205136751044
 31
0.0
  0
LINE
  5
2348
330
1F
100
AcDbEntity
  8
AM_VIS
100
AcDbLine
 10
68.60045525069665
 20
293.1205136751044
 30
0.0
 11
82.10045525069665
 21
285.3262850451043
 31
0.0
  0
CIRCLE
  5
2349
330
1F
100
AcDbEntity
  8
AM_VIS
100
AcDbCircle
 10
82.10045525069665
 20
300.9147423051043
 30
0.0
 40
12.99999999999999
  0
CIRCLE
  5
234A
330
1F
100
AcDbEntity
  8
AM_VIS
100
AcDbCircle
 10
82.10045525069665
 20
300.9147423101043
 30
0.0
 40
11.338
  0
ARC
  5
234B
330
1F
100
AcDbEntity
  8
AM_VIS
100
AcDbCircle
 10
82.10045525069665
 20
300.9147423101043
 30
0.0
 40
10.338
100
AcDbArc
 50
45.30843202274382
 51
74.69156799355289
  0
ARC
  5
234C
330
1F
100
AcDbEntity
  8
AM_VIS
100
AcDbCircle
 10
82.10045525069665
 20
300.9147423101043
 30
0.0
 40
10.338
100
AcDbArc
 50
345.3084322576779
 51
14.69156774232205
  0
ARC
  5
234D
330
1F
100
AcDbEntity
  8
AM_VIS
100
AcDbCircle
 10
82.10045525069665
 20
300.9147423101043
 30
0.0
 40
10.338
100
AcDbArc
 50
285.3084323849514
 51
314.6915675987534
  0
ARC
  5
234E
330
1F
100
AcDbEntity
  8
AM_VIS
100
AcDbCircle
 10
82.10045525069665
 20
300.9147423101043
 30
0.0
 40
10.338
100
AcDbArc
 50
225.3084324012466
 51
254.6915676150486
  0
ARC
  5
234F
330
1F
100
AcDbEntity
  8
AM_VIS
100
AcDbCircle
 10
82.10045525069665
 20
300.9147423101043
 30
0.0
 40
10.338
100
AcDbArc
 50
165.3084322576779
 51
194.691567742322
  0
ARC
  5
2350
330
1F
100
AcDbEntity
  8
AM_VIS
100
AcDbCircle
 10
82.10045525069665
 20
300.9147423101043
 30
0.0
 40
10.338
100
AcDbArc
 50
105.3084320064439
 51
134.6915679772562
  0
LINE
  5
2351
330
1F
100
AcDbEntity
  8
AM_VIS
100
AcDbLine
 10
68.60045525069665
 20
308.7089709451043
 30
0.0
 11
68.60045525069665
 21
293.1205136751044
 31
0.0
  0
LINE
  5
2352
330
1F
100
AcDbEntity
  8
AM_VIS
100
AcDbLine
 10
68.60045525069665
 20
308.7089709451043
 30
0.0
 11
82.10045525069665
 21
316.5031995751043
 31
0.0
  0
LINE
  5
2353
330
1F
100
AcDbEntity
  8
AM_VIS
100
AcDbLine
 10
82.10045525069665
 20
316.5031995751043
 30
0.0
 11
95.60045525069666
 21
308.7089709451043
 31
0.0
  0
LINE
  5
2354
330
1F
100
AcDbEntity
  8
AM_VIS
100
AcDbLine
 10
95.60045525069666
 20
308.7089709451043
 30
0.0
 11
95.60045525069666
 21
293.1205136751043
 31
0.0
  0
LINE
  5
2355
330
1F
100
AcDbEntity
  8
AM_VIS
100
AcDbLine
 10
82.10045525069665
 20
285.3262850451043
 30
0.0
 11
95.60045525069666
 21
293.1205136751044
 31
0.0
  0
LINE
  5
2356
330
1F
100
AcDbEntity
  8
AM_VIS
100
AcDbLine
 10
68.60045525069665
 20
293.1205136751044
 30
0.0
 11
82.10045525069665
 21
285.3262850451043
 31
0.0
  0
CIRCLE
  5
2357
330
1F
100
AcDbEntity
  8
AM_VIS
100
AcDbCircle
 10
82.10045525069665
 20
300.9147423051043
 30
0.0
 40
2.5
  0
CIRCLE
  5
2358
330
1F
100
AcDbEntity
  8
AM_VIS
100
AcDbCircle
 10
82.10045525069665
 20
300.9147423051043
 30
0.0
 40
1.799999999999997
  0
LINE
  5
2359
330
1F
100
AcDbEntity
  8
AM_VIS
100
AcDbLine
 10
81.91298514785064
 20
306.1632211537859
 30
0.0
 11
82.28792535354267
 21
306.1632211537859
 31
0.0
  0
CIRCLE
  5
235A
330
1F
100
AcDbEntity
  8
AM_VIS
100
AcDbCircle
 10
82.10045525069665
 20
306.5147423051044
 30
0.0
 40
0.4
  0
CIRCLE
  5
235B
330
1F
100
AcDbEntity
  8
AM_VIS
100
AcDbCircle
 10
82.10045525069665
 20
300.9147423051043
 30
0.0
 40
7.700000000000002
  0
LINE
  5
235C
330
1F
100
AcDbEntity
  8
AM_VIS
100
AcDbLine
 10
83.13182828700361
 20
289.9632004200555
 30
0.0
 11
91.06908221379319
 21
294.5457761098087
 31
0.0
  0
LINE
  5
235D
330
1F
100
AcDbEntity
  8
AM_VIS
100
AcDbLine
 10
73.13182828760012
 20
294.5457761098087
 30
0.0
 11
81.0690822143897
 21
289.9632004200555
 31
0.0
  0
LINE
  5
235E
330
1F
100
AcDbEntity
  8
AM_VIS
100
AcDbLine
 10
72.10045525069666
 20
305.4973180000601
 30
0.0
 11
72.10045525069666
 21
296.3321666101485
 31
0.0
  0
LINE
  5
235F
330
1F
100
AcDbEntity
  8
AM_VIS
100
AcDbLine
 10
73.13182827556386
 20
307.2837084834507
 30
0.0
 11
81.06908223508623
 21
311.8662841921023
 31
0.0
  0
LINE
  5
2360
330
1F
100
AcDbEntity
  8
AM_VIS
100
AcDbLine
 10
83.13182826630708
 20
311.8662841921023
 30
0.0
 11
91.06908222582944
 21
307.2837084834507
 31
0.0
  0
LINE
  5
2361
330
1F
100
AcDbEntity
  8
AM_VIS
100
AcDbLine
 10
92.10045525069665
 20
305.4973180000602
 30
0.0
 11
92.10045525069665
 21
296.3321666101485
 31
0.0
  0
CIRCLE
  5
2362
330
1F
100
AcDbEntity
  8
AM_VIS
100
AcDbCircle
 10
82.10045525069665
 20
300.9147423051043
 30
0.0
 40
9.9
  0
CIRCLE
  5
2364
330
1F
100
AcDbEntity
  8
AM_VIS
100
AcDbCircle
 10
82.10045525069665
 20
300.9147423051043
 30
0.0
 40
9.100000000000001
  0
ARC
  5
2366
330
1F
100
AcDbEntity
  8
AM_VIS
100
AcDbCircle
 10
82.10045525069665
 20
300.9147423051043
 30
0.0
 40
11.0
100
AcDbArc
 50
324.6199772971676
 51
335.3800226713431
  0
ARC
  5
2367
330
1F
100
AcDbEntity
  8
AM_VIS
100
AcDbCircle
 10
82.10045525069665
 20
300.9147423051043
 30
0.0
 40
11.0
100
AcDbArc
 50
264.6199773134652
 51
275.3800226865348
  0
ARC
  5
2368
330
1F
100
AcDbEntity
  8
AM_VIS
100
AcDbCircle
 10
82.10045525069665
 20
300.9147423051043
 30
0.0
 40
11.0
100
AcDbArc
 50
204.6199773286569
 51
215.3800227028324
  0
ARC
  5
2369
330
1F
100
AcDbEntity
  8
AM_VIS
100
AcDbCircle
 10
82.10045525069665
 20
300.9147423051043
 30
0.0
 40
11.0
100
AcDbArc
 50
24.61997732865687
 51
35.38002259455256
  0
ARC
  5
236A
330
1F
100
AcDbEntity
  8
AM_VIS
100
AcDbCircle
 10
82.10045525069665
 20
300.9147423051043
 30
0.0
 40
11.0
100
AcDbArc
 50
84.61997742174528
 51
95.38002257825473
  0
ARC
  5
236B
330
1F
100
AcDbEntity
  8
AM_VIS
100
AcDbCircle
 10
82.10045525069665
 20
300.9147423051043
 30
0.0
 40
11.0
100
AcDbArc
 50
144.6199774054474
 51
155.3800226713431
  0
LINE
  5
236C
330
1F
100
AcDbEntity
  8
AM_VIS
100
AcDbLine
 10
136.1768259541905
 20
407.2906095690578
 30
0.0
 11
134.1657189564495
 21
407.2906095690578
 31
0.0
  0
SPLINE
  5
236D
330
1F
100
AcDbEntity
  8
AM_VIS
100
AcDbSpline
210
0.0
220
0.0
230
1.0
 70
    12
 71
     2
 72
     6
 73
     3
 74
     0
 42
0.0000000001
 43
0.0000000001
 40
7.802819137906116
 40
7.802819137906116
 40
7.802819137906116
 40
27.36041092005328
 40
27.36041092005328
 40
27.36041092005328
 10
134.1657189564495
 20
407.2906095690578
 30
0.0
 41
1.208735606485532
 10
131.9157189584391
 20
403.3934952541939
 30
0.0
 41
1.395727655407905
 10
134.1657189570788
 20
399.4963809390577
 30
0.0
 41
1.208735606440241
  0
SPLINE
  5
236E
330
1F
100
AcDbEntity
  8
AM_VIS
100
AcDbSpline
210
0.0
220
0.0
230
1.0
 70
    12
 71
     2
 72
     6
 73
     3
 74
     0
 42
0.0000000001
 43
0.0000000001
 40
7.802819130927051
 40
7.802819130927051
 40
7.802819130927051
 40
27.36041092004651
 40
27.36041092004651
 40
27.36041092004651
 10
134.1657189570788
 20
399.4963809390579
 30
0.0
 41
1.208735606464541
 10
131.9157189558994
 20
391.7021523028076
 30
0.0
 41
1.395727655704816
 10
134.165718954192
 20
383.9079236690578
 30
0.0
 41
1.20873560667231
  0
LINE
  5
236F
330
1F
100
AcDbEntity
  8
AM_VIS
100
AcDbLine
 10
136.1768259535612
 20
399.4963809390579
 30
0.0
 11
134.1657189570788
 21
399.4963809390579
 31
0.0
  0
SPLINE
  5
2370
330
1F
100
AcDbEntity
  8
AM_VIS
100
AcDbSpline
210
0.0
220
0.0
230
1.0
 70
    12
 71
     2
 72
     6
 73
     3
 74
     0
 42
0.0000000001
 43
0.0000000001
 40
7.802819134611421
 40
7.802819134611421
 40
7.802819134611421
 40
27.36041092372489
 40
27.36041092372489
 40
27.36041092372489
 10
134.165718954192
 20
383.9079236690578
 30
0.0
 41
1.208735606710154
 10
131.9157189530265
 20
380.0108093532967
 30
0.0
 41
1.395727656063367
 10
134.1657189506759
 20
376.1136950390576
 30
0.0
 41
1.208735606963213
  0
LINE
  5
2371
330
1F
100
AcDbEntity
  8
AM_VIS
100
AcDbLine
 10
136.176825956448
 20
383.9079236690579
 30
0.0
 11
134.165718954192
 21
383.9079236690579
 31
0.0
  0
LINE
  5
2372
330
1F
100
AcDbEntity
  8
AM_VIS
100
AcDbLine
 10
136.176825959964
 20
376.1136950390579
 30
0.0
 11
134.165718950676
 21
376.1136950390579
 31
0.0
  0
SPLINE
  5
2373
330
1F
100
AcDbEntity
  8
AM_VIS
100
AcDbSpline
210
0.0
220
0.0
230
1.0
 70
    12
 71
     2
 72
     6
 73
     3
 74
     0
 42
0.0000000001
 43
0.0000000001
 40
9.184371108675751
 40
9.184371108675751
 40
9.184371108675751
 40
29.55618316808382
 40
29.55618316808382
 40
29.55618316808382
 10
136.176825959964
 20
376.1136950390578
 30
0.0
 41
1.253724484949384
 10
138.4268259576135
 20
380.0108093532966
 30
-0.0000000000000036
 41
1.447676337693022
 10
136.1768259564481
 20
383.9079236690579
 30
0.0
 41
1.253724484686906
  0
SPLINE
  5
2374
330
1F
100
AcDbEntity
  8
AM_VIS
100
AcDbSpline
210
0.0
220
0.0
230
1.0
 70
    12
 71
     2
 72
     6
 73
     3
 74
     0
 42
0.0000000001
 43
0.0000000001
 40
9.184371097788462
 40
9.184371097788462
 40
9.184371097788462
 40
29.55618315401098
 40
29.55618315401098
 40
29.55618315401098
 10
136.1768259564479
 20
383.9079236690578
 30
0.0
 41
1.253724484469834
 10
138.4268259547406
 20
391.7021523028081
 30
0.0
 41
1.447676337115798
 10
136.1768259535612
 20
399.4963809390575
 30
0.0
 41
1.253724484254331
  0
SPLINE
  5
2375
330
1F
100
AcDbEntity
  8
AM_VIS
100
AcDbSpline
210
0.0
220
-0.0000000000000005
230
1.0
 70
    12
 71
     2
 72
     6
 73
     3
 74
     0
 42
0.0000000001
 43
0.0000000001
 40
9.184371087081885
 40
9.184371087081885
 40
9.184371087081885
 40
29.55618313324356
 40
29.55618313324356
 40
29.55618313324356
 10
136.1768259535611
 20
399.4963809390578
 30
0.0
 41
1.25372448407357
 10
138.4268259522008
 20
403.3934952541941
 30
0.0
 41
1.447676336628211
 10
136.1768259541904
 20
407.2906095690578
 30
0.0000000000000036
 41
1.253724484120546
  0
LINE
  5
2376
330
1F
100
AcDbEntity
  8
AM_VIS
100
AcDbLine
 10
132.67127245532
 20
378.7021522990579
 30
0.0
 11
134.165718950676
 21
376.1136950390579
 31
0.0
  0
LINE
  5
2377
330
1F
100
AcDbEntity
  8
AM_VIS
100
AcDbLine
 10
132.67127245532
 20
404.7021522990578
 30
0.0
 11
134.1657189564495
 21
407.2906095690578
 31
0.0
  0
LINE
  5
2378
330
1F
100
AcDbEntity
  8
AM_VIS
100
AcDbLine
 10
137.67127245532
 20
404.7021522990578
 30
0.0
 11
136.1768259541905
 21
407.2906095690578
 31
0.0
  0
LINE
  5
2379
330
1F
100
AcDbEntity
  8
AM_VIS
100
AcDbLine
 10
137.67127245532
 20
378.7021522990579
 30
0.0
 11
136.176825959964
 21
376.1136950390579
 31
0.0
  0
LINE
  5
237A
330
1F
100
AcDbEntity
  8
AM_VIS
100
AcDbLine
 10
132.67127245532
 20
404.7021522990578
 30
0.0
 11
132.67127245532
 21
378.7021522990579
 31
0.0
  0
LINE
  5
237B
330
1F
100
AcDbEntity
  8
AM_VIS
100
AcDbLine
 10
137.67127245532
 20
378.7021522990579
 30
0.0
 11
137.67127245532
 21
404.7021522990578
 31
0.0
  0
LINE
  5
237C
330
1F
100
AcDbEntity
  8
AM_VIS
100
AcDbLine
 10
141.1768259541906
 20
407.2906095690578
 30
0.0
 11
139.1657189564495
 21
407.2906095690578
 31
0.0
  0
SPLINE
  5
237D
330
1F
100
AcDbEntity
  8
AM_VIS
100
AcDbSpline
210
0.0
220
0.0
230
1.0
 70
    12
 71
     2
 72
     6
 73
     3
 74
     0
 42
0.0000000001
 43
0.0000000001
 40
7.802819137906116
 40
7.802819137906116
 40
7.802819137906116
 40
27.36041092005328
 40
27.36041092005328
 40
27.36041092005328
 10
139.1657189564495
 20
407.2906095690578
 30
0.0
 41
1.208735606485532
 10
136.9157189584391
 20
403.3934952541939
 30
0.0
 41
1.395727655407905
 10
139.1657189570788
 20
399.4963809390577
 30
0.0
 41
1.208735606440241
  0
SPLINE
  5
237E
330
1F
100
AcDbEntity
  8
AM_VIS
100
AcDbSpline
210
0.0
220
0.0
230
1.0
 70
    12
 71
     2
 72
     6
 73
     3
 74
     0
 42
0.0000000001
 43
0.0000000001
 40
7.802819130927051
 40
7.802819130927051
 40
7.802819130927051
 40
27.36041092004651
 40
27.36041092004651
 40
27.36041092004651
 10
139.1657189570787
 20
399.4963809390579
 30
0.0
 41
1.208735606464541
 10
136.9157189558995
 20
391.7021523028076
 30
0.0
 41
1.395727655704816
 10
139.165718954192
 20
383.9079236690578
 30
0.0
 41
1.20873560667231
  0
LINE
  5
237F
330
1F
100
AcDbEntity
  8
AM_VIS
100
AcDbLine
 10
141.1768259535612
 20
399.4963809390579
 30
0.0
 11
139.1657189570788
 21
399.4963809390579
 31
0.0
  0
SPLINE
  5
2380
330
1F
100
AcDbEntity
  8
AM_VIS
100
AcDbSpline
210
0.0
220
0.0
230
1.0
 70
    12
 71
     2
 72
     6
 73
     3
 74
     0
 42
0.0000000001
 43
0.0000000001
 40
7.802819134611421
 40
7.802819134611421
 40
7.802819134611421
 40
27.36041092372489
 40
27.36041092372489
 40
27.36041092372489
 10
139.165718954192
 20
383.9079236690578
 30
0.0
 41
1.208735606710154
 10
136.9157189530265
 20
380.0108093532967
 30
0.0
 41
1.395727656063367
 10
139.1657189506759
 20
376.1136950390576
 30
0.0
 41
1.208735606963213
  0
LINE
  5
2381
330
1F
100
AcDbEntity
  8
AM_VIS
100
AcDbLine
 10
141.176825956448
 20
383.9079236690578
 30
0.0
 11
139.165718954192
 21
383.9079236690578
 31
0.0
  0
LINE
  5
2382
330
1F
100
AcDbEntity
  8
AM_VIS
100
AcDbLine
 10
141.176825959964
 20
376.1136950390579
 30
0.0
 11
139.165718950676
 21
376.1136950390579
 31
0.0
  0
SPLINE
  5
2383
330
1F
100
AcDbEntity
  8
AM_VIS
100
AcDbSpline
210
0.0
220
0.0
230
1.0
 70
    12
 71
     2
 72
     6
 73
     3
 74
     0
 42
0.0000000001
 43
0.0000000001
 40
9.184371108675751
 40
9.184371108675751
 40
9.184371108675751
 40
29.55618316808382
 40
29.55618316808382
 40
29.55618316808382
 10
141.176825959964
 20
376.1136950390578
 30
0.0
 41
1.253724484949384
 10
143.4268259576136
 20
380.0108093532966
 30
-0.0000000000000036
 41
1.447676337693022
 10
141.1768259564481
 20
383.9079236690579
 30
0.0
 41
1.253724484686906
  0
SPLINE
  5
2384
330
1F
100
AcDbEntity
  8
AM_VIS
100
AcDbSpline
210
0.0
220
0.0
230
1.0
 70
    12
 71
     2
 72
     6
 73
     3
 74
     0
 42
0.0000000001
 43
0.0000000001
 40
9.184371097788462
 40
9.184371097788462
 40
9.184371097788462
 40
29.55618315401098
 40
29.55618315401098
 40
29.55618315401098
 10
141.176825956448
 20
383.9079236690578
 30
0.0
 41
1.253724484469834
 10
143.4268259547407
 20
391.7021523028081
 30
0.0
 41
1.447676337115798
 10
141.1768259535611
 20
399.4963809390575
 30
0.0
 41
1.253724484254331
  0
SPLINE
  5
2385
330
1F
100
AcDbEntity
  8
AM_VIS
100
AcDbSpline
210
0.0
220
-0.0000000000000005
230
1.0
 70
    12
 71
     2
 72
     6
 73
     3
 74
     0
 42
0.0000000001
 43
0.0000000001
 40
9.184371087081885
 40
9.184371087081885
 40
9.184371087081885
 40
29.55618313324356
 40
29.55618313324356
 40
29.55618313324356
 10
141.1768259535612
 20
399.4963809390578
 30
0.0
 41
1.25372448407357
 10
143.4268259522009
 20
403.3934952541939
 30
0.0
 41
1.447676336628211
 10
141.1768259541906
 20
407.2906095690578
 30
0.0000000000000036
 41
1.253724484120546
  0
LINE
  5
2386
330
1F
100
AcDbEntity
  8
AM_VIS
100
AcDbLine
 10
137.67127245532
 20
378.7021522990579
 30
0.0
 11
139.165718950676
 21
376.1136950390579
 31
0.0
  0
LINE
  5
2387
330
1F
100
AcDbEntity
  8
AM_VIS
100
AcDbLine
 10
137.67127245532
 20
404.7021522990578
 30
0.0
 11
139.1657189564495
 21
407.2906095690578
 31
0.0
  0
LINE
  5
2388
330
1F
100
AcDbEntity
  8
AM_VIS
100
AcDbLine
 10
142.67127245532
 20
404.7021522990578
 30
0.0
 11
141.1768259541906
 21
407.2906095690578
 31
0.0
  0
LINE
  5
2389
330
1F
100
AcDbEntity
  8
AM_VIS
100
AcDbLine
 10
142.67127245532
 20
378.7021522990579
 30
0.0
 11
141.176825959964
 21
376.1136950390579
 31
0.0
  0
LINE
  5
238A
330
1F
100
AcDbEntity
  8
AM_VIS
100
AcDbLine
 10
137.67127245532
 20
404.7021522990578
 30
0.0
 11
137.67127245532
 21
378.7021522990579
 31
0.0
  0
LINE
  5
238B
330
1F
100
AcDbEntity
  8
AM_VIS
100
AcDbLine
 10
142.67127245532
 20
378.7021522990579
 30
0.0
 11
142.67127245532
 21
404.7021522990578
 31
0.0
  0
LINE
  5
238E
330
1F
100
AcDbEntity
  8
AM_VIS
100
AcDbLine
 10
128.67127245532
 20
394.7021522990579
 30
0.0
 11
115.37127245532
 21
394.702152299058
 31
0.0
  0
LINE
  5
2390
330
1F
100
AcDbEntity
  8
AM_VIS
100
AcDbLine
 10
114.67127245532
 20
389.4021522990578
 30
0.0
 11
115.37127245532
 21
388.7021522990579
 31
0.0
  0
LINE
  5
2391
330
1F
100
AcDbEntity
  8
AM_VIS
100
AcDbLine
 10
114.67127245532
 20
394.002152299058
 30
0.0
 11
115.37127245532
 21
394.702152299058
 31
0.0
  0
LINE
  5
2394
102
{ACAD_REACTORS
330
2FCB
102
}
330
1F
100
AcDbEntity
  8
AM_VIS
100
AcDbLine
 10
115.37127245532
 20
394.702152299058
 30
0.0
 11
115.37127245532
 21
388.7021522990579
 31
0.0
  0
LINE
  5
2395
330
1F
100
AcDbEntity
  8
AM_VIS
100
AcDbLine
 10
114.67127245532
 20
389.4021522990578
 30
0.0
 11
114.67127245532
 21
394.002152299058
 31
0.0
  0
SPLINE
  5
2397
330
1F
100
AcDbEntity
  8
AM_VIS
100
AcDbSpline
210
0.0
220
0.0000000000000016
230
1.0
 70
    12
 71
     2
 72
     6
 73
     3
 74
     0
 42
0.0000000001
 43
0.0000000001
 40
10.84214655198994
 40
10.84214655198994
 40
10.84214655198994
 40
24.39041416841209
 40
24.39041416841209
 40
24.39041416841209
 10
150.3052470575682
 20
380.7506104140091
 30
0.0000000000000036
 41
1.404761905558833
 10
151.4074612051037
 20
383.0418982584518
 30
0.0
 41
1.54523809590523
 10
150.3052470551628
 20
385.3331861037622
 30
-0.0000000000000036
 41
1.404761905280156
  0
SPLINE
  5
2398
330
1F
100
AcDbEntity
  8
AM_VIS
100
AcDbSpline
210
0.0
220
0.0
230
1.0
 70
    12
 71
     2
 72
     6
 73
     3
 74
     0
 42
0.0000000001
 43
0.0000000001
 40
11.25418111124219
 40
11.25418111124219
 40
11.25418111124219
 40
25.00488671527372
 40
25.00488671527372
 40
25.00488671527372
 10
130.8063577478771
 20
385.3331861037623
 30
0.0
 41
1.423809524339188
 10
129.7041435979362
 20
383.0418982584518
 30
0.0000000000000036
 41
1.566190476871482
 10
130.806357745472
 20
380.7506104140092
 30
0.0
 41
1.423809524621644
  0
SPLINE
  5
2399
330
1F
100
AcDbEntity
  8
AM_VIS
100
AcDbSpline
210
0.0
220
0.0
230
1.0
 70
    12
 71
     2
 72
     6
 73
     3
 74
     0
 42
0.0000000001
 43
0.0000000001
 40
11.2541810829324
 40
11.2541810829324
 40
11.2541810829324
 40
25.00488673087696
 40
25.00488673087696
 40
25.00488673087696
 10
130.8063577569681
 20
402.6536941860557
 30
0.0
 41
1.423809523096824
 10
129.7041435995142
 20
400.3624063312964
 30
0.0
 41
1.56619047639044
 10
130.8063577545629
 20
398.0711184774042
 30
0.0
 41
1.42380952337928
  0
SPLINE
  5
239A
330
1F
100
AcDbEntity
  8
AM_VIS
100
AcDbSpline
210
0.0
220
0.0000000000000008
230
1.0
 70
    12
 71
     2
 72
     6
 73
     3
 74
     0
 42
0.0000000001
 43
0.0000000001
 40
10.84214652386092
 40
10.84214652386092
 40
10.84214652386092
 40
24.39041418359548
 40
24.39041418359548
 40
24.39041418359548
 10
150.3052470484773
 20
398.0711184774043
 30
0.0
 41
1.40476190433861
 10
151.407461203526
 20
400.3624063312961
 30
0.0
 41
1.545238095436699
 10
150.3052470460719
 20
402.6536941860556
 30
-0.0000000000000036
 41
1.404761904059933
  0
SPLINE
  5
239B
330
1F
100
AcDbEntity
  8
AM_VIS
100
AcDbSpline
210
0.0
220
-0.0000000000000004
230
1.0
 70
    12
 71
     2
 72
     6
 73
     3
 74
     0
 42
0.0000000001
 43
0.0000000001
 40
11.25418109687855
 40
11.25418109687855
 40
11.25418109687855
 40
25.00488670603051
 40
25.00488670603051
 40
25.00488670603051
 10
130.8063577536252
 20
396.2847279940137
 30
0.0000000000000036
 41
1.423809523527064
 10
129.7041436013109
 20
391.7021522973223
 30
0.0
 41
1.566190476190476
 10
130.8063577488148
 20
387.1195766041021
 30
0.0
 41
1.423809524091977
  0
SPLINE
  5
239C
330
1F
100
AcDbEntity
  8
AM_VIS
100
AcDbSpline
210
0.0
220
0.0
230
1.0
 70
    12
 71
     2
 72
     6
 73
     3
 74
     0
 42
0.0000000001
 43
0.0000000001
 40
10.84214655109122
 40
10.84214655109122
 40
10.84214655109122
 40
24.39041417259433
 40
24.39041417259433
 40
24.39041417259433
 10
150.3052470542252
 20
387.1195766041021
 30
0.0
 41
1.40476190504058
 10
151.4074612017291
 20
391.7021522973223
 30
0.0
 41
1.545238095238095
 10
150.3052470494148
 20
396.2847279940137
 30
0.0
 41
1.404761904483226
  0
LINE
  5
239D
330
1F
100
AcDbEntity
  8
AM_VIS
100
AcDbLine
 10
150.3052470551629
 20
385.3331861037623
 30
0.0
 11
142.67127245532
 21
385.3331861037623
 31
0.0
  0
LINE
  5
239E
330
1F
100
AcDbEntity
  8
AM_VIS
100
AcDbLine
 10
132.67127245532
 20
385.3331861037623
 30
0.0
 11
130.8063577478772
 21
385.3331861037623
 31
0.0
  0
LINE
  5
239F
330
1F
100
AcDbEntity
  8
AM_VIS
100
AcDbLine
 10
130.8063577488147
 20
387.119576604102
 30
0.0
 11
132.67127245532
 21
387.119576604102
 31
0.0
  0
LINE
  5
23A0
330
1F
100
AcDbEntity
  8
AM_VIS
100
AcDbLine
 10
142.67127245532
 20
387.119576604102
 30
0.0
 11
150.3052470542252
 21
387.119576604102
 31
0.0
  0
LINE
  5
23A1
330
1F
100
AcDbEntity
  8
AM_VIS
100
AcDbLine
 10
130.8063577454719
 20
380.750610414009
 30
0.0
 11
132.67127245532
 21
380.750610414009
 31
0.0
  0
LINE
  5
23A2
330
1F
100
AcDbEntity
  8
AM_VIS
100
AcDbLine
 10
142.67127245532
 20
380.750610414009
 30
0.0
 11
150.3052470575681
 21
380.750610414009
 31
0.0
  0
LINE
  5
23A3
330
1F
100
AcDbEntity
  8
AM_VIS
100
AcDbLine
 10
150.3052470494148
 20
396.2847279940137
 30
0.0
 11
142.67127245532
 21
396.2847279940137
 31
0.0
  0
LINE
  5
23A4
330
1F
100
AcDbEntity
  8
AM_VIS
100
AcDbLine
 10
132.67127245532
 20
396.2847279940137
 30
0.0
 11
130.8063577536252
 21
396.2847279940137
 31
0.0
  0
LINE
  5
23A5
330
1F
100
AcDbEntity
  8
AM_VIS
100
AcDbLine
 10
130.8063577545629
 20
398.0711184774042
 30
0.0
 11
132.67127245532
 21
398.0711184774042
 31
0.0
  0
LINE
  5
23A6
330
1F
100
AcDbEntity
  8
AM_VIS
100
AcDbLine
 10
142.67127245532
 20
398.0711184774042
 30
0.0
 11
150.3052470484772
 21
398.0711184774042
 31
0.0
  0
LINE
  5
23A7
330
1F
100
AcDbEntity
  8
AM_VIS
100
AcDbLine
 10
150.3052470460719
 20
402.6536941860557
 30
0.0
 11
142.67127245532
 21
402.6536941860557
 31
0.0
  0
LINE
  5
23A8
330
1F
100
AcDbEntity
  8
AM_VIS
100
AcDbLine
 10
132.67127245532
 20
402.6536941860557
 30
0.0
 11
130.8063577569681
 21
402.6536941860557
 31
0.0
  0
LINE
  5
23A9
330
1F
100
AcDbEntity
  8
AM_VIS
100
AcDbLine
 10
158.17127245532
 20
401.2021522890578
 30
0.0
 11
157.17127245532
 21
401.2021522890578
 31
0.0
  0
LINE
  5
23AA
330
1F
100
AcDbEntity
  8
AM_VIS
100
AcDbLine
 10
158.17127245532
 20
382.2021522890578
 30
0.0
 11
157.17127245532
 21
382.2021522890578
 31
0.0
  0
LINE
  5
23AB
330
1F
100
AcDbEntity
  8
AM_VIS
100
AcDbLine
 10
151.17127245532
 20
401.2021522890578
 30
0.0
 11
150.3052470474899
 21
402.7021522965578
 31
0.0
  0
LINE
  5
23AC
330
1F
100
AcDbEntity
  8
AM_VIS
100
AcDbLine
 10
151.17127245532
 20
382.2021522890578
 30
0.0
 11
150.3052470561501
 21
380.7021522965579
 31
0.0
  0
LINE
  5
23AD
330
1F
100
AcDbEntity
  8
AM_VIS
100
AcDbLine
 10
155.47127245532
 20
401.2021522890578
 30
0.0
 11
151.17127245532
 21
401.2021522890578
 31
0.0
  0
LINE
  5
23AE
330
1F
100
AcDbEntity
  8
AM_VIS
100
AcDbLine
 10
155.47127245532
 20
382.2021522890578
 30
0.0
 11
151.17127245532
 21
382.2021522890578
 31
0.0
  0
LINE
  5
23AF
330
1F
100
AcDbEntity
  8
AM_VIS
100
AcDbLine
 10
155.47127245532
 20
383.2021522890578
 30
0.0
 11
157.17127245532
 21
383.2021522890578
 31
0.0
  0
LINE
  5
23B0
330
1F
100
AcDbEntity
  8
AM_VIS
100
AcDbLine
 10
155.47127245532
 20
400.2021522890577
 30
0.0
 11
157.17127245532
 21
400.2021522890577
 31
0.0
  0
LINE
  5
23B1
330
1F
100
AcDbEntity
  8
AM_VIS
100
AcDbLine
 10
128.77127245532
 20
381.8021522990579
 30
0.0
 11
130.17127245532
 21
381.8021522990579
 31
0.0
  0
LINE
  5
23B2
330
1F
100
AcDbEntity
  8
AM_VIS
100
AcDbLine
 10
128.77127245532
 20
401.6021522990578
 30
0.0
 11
130.17127245532
 21
401.6021522990578
 31
0.0
  0
LINE
  5
23B3
330
1F
100
AcDbEntity
  8
AM_VIS
100
AcDbLine
 10
128.67127245532
 20
381.9021522990579
 30
0.0
 11
128.77127245532
 21
381.8021522990579
 31
0.0
  0
LINE
  5
23B4
330
1F
100
AcDbEntity
  8
AM_VIS
100
AcDbLine
 10
128.67127245532
 20
401.5021522990578
 30
0.0
 11
128.77127245532
 21
401.6021522990578
 31
0.0
  0
LINE
  5
23B5
330
1F
100
AcDbEntity
  8
AM_VIS
100
AcDbLine
 10
130.1712724509899
 20
381.8021522965578
 30
0.0
 11
130.8063577468899
 21
380.7021522965579
 31
0.0
  0
LINE
  5
23B6
330
1F
100
AcDbEntity
  8
AM_VIS
100
AcDbLine
 10
130.1712724596501
 20
401.6021522965578
 30
0.0
 11
130.8063577555501
 21
402.7021522965578
 31
0.0
  0
LINE
  5
23B7
330
1F
100
AcDbEntity
  8
AM_VIS
100
AcDbLine
 10
130.80635775122
 20
380.7021522990579
 30
0.0
 11
132.67127245532
 21
380.7021522990579
 31
0.0
  0
LINE
  5
23B8
330
1F
100
AcDbEntity
  8
AM_VIS
100
AcDbLine
 10
142.67127245532
 20
380.7021522990579
 30
0.0
 11
150.30524705182
 21
380.7021522990579
 31
0.0
  0
LINE
  5
23B9
330
1F
100
AcDbEntity
  8
AM_VIS
100
AcDbLine
 10
130.80635775122
 20
402.7021522990578
 30
0.0
 11
132.67127245532
 21
402.7021522990578
 31
0.0
  0
LINE
  5
23BA
330
1F
100
AcDbEntity
  8
AM_VIS
100
AcDbLine
 10
142.67127245532
 20
402.7021522990578
 30
0.0
 11
150.30524705182
 21
402.7021522990578
 31
0.0
  0
LINE
  5
23BC
330
1F
100
AcDbEntity
  8
AM_4
100
AcDbLine
 10
124.0712724553201
 20
302.9697423051043
 30
0.0
 11
126.67127245532
 21
302.9697423051043
 31
0.0
  0
LINE
  5
23BD
330
1F
100
AcDbEntity
  8
AM_4
100
AcDbLine
 10
124.0712724553201
 20
298.8597423051043
 30
0.0
 11
126.67127245532
 21
298.8597423051043
 31
0.0
  0
LINE
  5
23E9
330
1F
100
AcDbEntity
  8
AM_7
100
AcDbLine
 10
82.03853623300938
 20
391.7021522990578
 30
0.0
 11
99.62699350300937
 21
391.7021522990578
 31
0.0
1001
GENIUS_GENOREF_13
1005
23ED
  0
LINE
  5
23EA
330
1F
100
AcDbEntity
  8
AM_7
100
AcDbLine
 10
82.03853623300938
 20
391.7021522990578
 30
0.0
 11
82.03853623300938
 21
409.2906095690578
 31
0.0
1001
GENIUS_GENOREF_13
1005
23ED
  0
LINE
  5
23EB
330
1F
100
AcDbEntity
  8
AM_7
100
AcDbLine
 10
82.03853623300938
 20
391.7021522990578
 30
0.0
 11
64.45007896300939
 21
391.7021522990578
 31
0.0
1001
GENIUS_GENOREF_13
1005
23ED
  0
LINE
  5
23EC
330
1F
100
AcDbEntity
  8
AM_7
100
AcDbLine
 10
82.03853623300938
 20
391.7021522990578
 30
0.0
 11
82.03853623300938
 21
374.1136950290579
 31
0.0
1001
GENIUS_GENOREF_13
1005
23ED
  0
POINT
  5
23ED
330
1F
100
AcDbEntity
  8
0
 60
     1
100
AcDbPoint
 10
0.0
 20
0.0
 30
0.0
1001
GENIUS_GENOLIS_13
1002
{
1000
ENT
1005
23EC
1005
23EB
1005
23EA
1005
23E9
1002
}
1001
GENIUS_GENOENT_13
1002
{
1000
MYREF
1005
23ED
1002
}
1002
{
1000
GRP
1005
0
1002
}
1001
GENIUS_GENOBJ-N-CRS_13
1002
{
1000
OWNER
1000
GEN
1002
}
1001
GENIUS_GENODEF_13
1002
{
1000
HIER
1070
    10
1002
}
1002
{
1000
MANEDIT
1070
     0
1002
}
1002
{
1000
NOSEL
1070
     0
1002
}
1002
{
1000
BEHIND
1070
     0
1002
}
1002
{
1000
OTHER
1070
     0
1002
}
1002
{
1000
REACTOR
1002
}
  0
LINE
  5
23FB
330
1F
100
AcDbEntity
  8
AM_7
100
AcDbLine
 10
82.10045525069665
 20
300.9147423001043
 30
0.0
 11
99.68891252569665
 21
300.9147423001043
 31
0.0
1001
GENIUS_GENOREF_13
1005
23FF
  0
LINE
  5
23FC
330
1F
100
AcDbEntity
  8
AM_7
100
AcDbLine
 10
82.10045525069665
 20
300.9147423001043
 30
0.0
 11
82.10045525069665
 21
318.5031995751043
 31
0.0
1001
GENIUS_GENOREF_13
1005
23FF
  0
LINE
  5
23FD
330
1F
100
AcDbEntity
  8
AM_7
100
AcDbLine
 10
82.10045525069665
 20
300.9147423001043
 30
0.0
 11
64.51199797569666
 21
300.9147423001043
 31
0.0
1001
GENIUS_GENOREF_13
1005
23FF
  0
LINE
  5
23FE
330
1F
100
AcDbEntity
  8
AM_7
100
AcDbLine
 10
82.10045525069665
 20
300.9147423001043
 30
0.0
 11
82.10045525069665
 21
283.3262850251043
 31
0.0
1001
GENIUS_GENOREF_13
1005
23FF
  0
POINT
  5
23FF
330
1F
100
AcDbEntity
  8
0
 60
     1
100
AcDbPoint
 10
0.0
 20
0.0
 30
0.0
1001
GENIUS_GENOENT_13
1002
{
1000
MYREF
1005
23FF
1002
}
1002
{
1000
GRP
1005
0
1002
}
1001
GENIUS_GENOBJ-N-CRS_13
1002
{
1000
OWNER
1000
GEN
1002
}
1001
GENIUS_GENODEF_13
1002
{
1000
HIER
1070
    10
1002
}
1002
{
1000
MANEDIT
1070
     0
1002
}
1002
{
1000
NOSEL
1070
     0
1002
}
1002
{
1000
BEHIND
1070
     0
1002
}
1002
{
1000
OTHER
1070
     0
1002
}
1002
{
1000
REACTOR
1002
}
1001
GENIUS_GENOLIS_13
1002
{
1000
ENT
1005
23FE
1005
23FD
1005
23FC
1005
23FB
1002
}
  0
LINE
  5
240C
330
1F
100
AcDbEntity
  8
AM_7
100
AcDbLine
 10
112.67127245532
 20
300.9147423056377
 30
0.0
 11
160.17127245532
 21
300.914742294571
 31
0.0
1001
GENIUS_GENODEF_13
1002
{
1000
HIER
1070
     0
1002
}
1002
{
1000
MANEDIT
1070
     0
1002
}
1002
{
1000
NOSEL
1070
     0
1002
}
1002
{
1000
BEHIND
1070
     0
1002
}
1002
{
1000
OTHER
1070
     0
1002
}
1002
{
1000
REACTOR
1002
}
1001
GENIUS_GENOBJ-N-CEN_13
1002
{
1000
OWNER
1000
GEN
1002
}
1001
GENIUS_GENCEN_19
1002
{
1040
2.0
1002
}
  0
LINE
  5
2419
330
1F
100
AcDbEntity
  8
AM_7
100
AcDbLine
 10
112.67127245532
 20
391.7021522995911
 30
0.0
 11
160.17127245532
 21
391.7021522885245
 31
0.0
1001
GENIUS_GENOBJ-N-CEN_13
1002
{
1000
OWNER
1000
GEN
1002
}
1001
GENIUS_GENODEF_13
1002
{
1000
HIER
1070
     0
1002
}
1002
{
1000
MANEDIT
1070
     0
1002
}
1002
{
1000
NOSEL
1070
     0
1002
}
1002
{
1000
BEHIND
1070
     0
1002
}
1002
{
1000
OTHER
1070
     0
1002
}
1002
{
1000
REACTOR
1002
}
1001
GENIUS_GENCEN_19
1002
{
1040
2.0
1002
}
  0
LINE
  5
241A
330
1F
100
AcDbEntity
  8
AM_4
  6
HIDDEN
 48
0.2
100
AcDbLine
 10
157.8491036716713
 20
389.6351649909501
 30
0.0
 11
158.17127245532
 21
389.0771522890578
 31
0.0
  0
LINE
  5
241B
330
1F
100
AcDbEntity
  8
AM_4
  6
HIDDEN
 48
0.2
100
AcDbLine
 10
158.0991036716713
 20
389.2021522890578
 30
0.0
 11
153.17127245532
 21
389.2021522890578
 31
0.0
  0
LINE
  5
241C
330
1F
100
AcDbEntity
  8
AM_4
  6
HIDDEN
 48
0.2
100
AcDbLine
 10
157.8491036716713
 20
389.6351649909501
 30
0.0
 11
153.17127245532
 21
389.6351649909501
 31
0.0
  0
LINE
  5
241D
330
1F
100
AcDbEntity
  8
AM_4
  6
HIDDEN
 48
0.2
100
AcDbLine
 10
158.0991036716713
 20
394.2021522890578
 30
0.0
 11
153.17127245532
 21
394.2021522890578
 31
0.0
  0
LINE
  5
241E
330
1F
100
AcDbEntity
  8
AM_4
  6
HIDDEN
 48
0.2
100
AcDbLine
 10
157.8491036716713
 20
393.7691395871657
 30
0.0
 11
153.17127245532
 21
393.7691395871657
 31
0.0
  0
LINE
  5
241F
330
1F
100
AcDbEntity
  8
AM_4
  6
HIDDEN
 48
0.2
100
AcDbLine
 10
157.8491036716713
 20
389.6351649909501
 30
0.0
 11
157.8491036716713
 21
393.7691395871657
 31
0.0
  0
LINE
  5
2420
330
1F
100
AcDbEntity
  8
AM_4
  6
HIDDEN
 48
0.2
100
AcDbLine
 10
157.8491036716713
 20
393.7691395871657
 30
0.0
 11
158.17127245532
 21
394.3271522890579
 31
0.0
  0
LINE
  5
2421
330
1F
100
AcDbEntity
  8
AM_4
  6
HIDDEN
 48
0.2
100
AcDbLine
 10
157.8491036716713
 20
298.8477549969965
 30
0.0
 11
158.17127245532
 21
298.2897422951043
 31
0.0
  0
LINE
  5
2422
330
1F
100
AcDbEntity
  8
AM_4
  6
HIDDEN
 48
0.2
100
AcDbLine
 10
158.0991036716713
 20
298.4147422951043
 30
0.0
 11
153.17127245532
 21
298.4147422951043
 31
0.0
  0
LINE
  5
2423
330
1F
100
AcDbEntity
  8
AM_4
  6
HIDDEN
 48
0.2
100
AcDbLine
 10
157.8491036716713
 20
298.8477549969965
 30
0.0
 11
153.17127245532
 21
298.8477549969965
 31
0.0
  0
LINE
  5
2424
330
1F
100
AcDbEntity
  8
AM_4
  6
HIDDEN
 48
0.2
100
AcDbLine
 10
158.0991036716713
 20
303.4147422951043
 30
0.0
 11
153.17127245532
 21
303.4147422951043
 31
0.0
  0
LINE
  5
2425
330
1F
100
AcDbEntity
  8
AM_4
  6
HIDDEN
 48
0.2
100
AcDbLine
 10
157.8491036716713
 20
302.9817295932121
 30
0.0
 11
153.17127245532
 21
302.9817295932121
 31
0.0
  0
LINE
  5
2426
330
1F
100
AcDbEntity
  8
AM_4
  6
HIDDEN
 48
0.2
100
AcDbLine
 10
157.8491036716713
 20
298.8477549969965
 30
0.0
 11
157.8491036716713
 21
302.9817295932121
 31
0.0
  0
LINE
  5
2427
330
1F
100
AcDbEntity
  8
AM_4
  6
HIDDEN
 48
0.2
100
AcDbLine
 10
157.8491036716713
 20
302.9817295932121
 30
0.0
 11
158.17127245532
 21
303.5397422951043
 31
0.0
  0
DIMENSION
  5
2429
330
1F
100
AcDbEntity
  8
AM_5
100
AcDbDimension
  2
*D4
 10
128.67127245532
 20
269.3262850451043
 30
0.0
 11
121.67127245532
 21
271.7762850451043
 31
0.0
 70
    32
 71
     5
 42
14.0
  3
AM_ISO$0
100
AcDbAlignedDimension
 13
114.67127245532
 23
299.1147423051043
 33
0.0
 14
128.67127245532
 24
291.1147423051043
 34
0.0
100
AcDbRotatedDimension
1001
ACAD
1000
DSTYLE
1002
{
1070
    40
1040
1.0
1070
   144
1040
1.0
1070
   272
1070
     8
1002
}
  0
DIMENSION
  5
242A
330
1F
100
AcDbEntity
  8
AM_5
100
AcDbDimension
  2
*D5
 10
158.17127245532
 20
269.3262850451043
 30
0.0
 11
143.42127245532
 21
271.7762850451043
 31
0.0
 70
    32
  1
S
 71
     5
 42
29.5
  3
AM_ISO$0
100
AcDbAlignedDimension
 13
128.67127245532
 23
291.1147423051043
 33
0.0
 14
158.17127245532
 24
291.4147422951043
 34
0.0
100
AcDbRotatedDimension
1001
ACAD
1000
DSTYLE
1002
{
1070
    40
1040
1.0
1070
   144
1040
1.0
1070
   272
1070
     8
1002
}
  0
DIMENSION
  5
242B
330
1F
100
AcDbEntity
  8
AM_5
100
AcDbDimension
  2
*D6
 10
158.17127245532
 20
261.3262850451043
 30
0.0
 11
136.42127245532
 21
263.7762850451043
 31
0.0
 70
    32
  1
Z
 71
     5
 42
43.5
  3
AM_ISO$0
100
AcDbAlignedDimension
 13
114.67127245532
 23
299.1147423051043
 33
0.0
 14
158.17127245532
 24
291.4147422951043
 34
0.0
100
AcDbRotatedDimension
1001
ACAD
1000
DSTYLE
1002
{
1070
    40
1040
1.0
1070
   144
1040
1.0
1070
   272
1070
     8
1002
}
  0
DIMENSION
  5
242C
330
1F
100
AcDbEntity
  8
AM_5
100
AcDbDimension
  2
*D7
 10
170.17127245532
 20
310.4147422951043
 30
0.0
 11
167.72127245532
 21
300.9147422951043
 31
0.0
 70
    32
  1
%%c<>{}{\C5; d9}
 71
     5
 42
19.0
  3
AM_ISO$0
100
AcDbAlignedDimension
 13
158.17127245532
 23
291.4147422951043
 33
0.0
 14
158.17127245532
 24
310.4147422951043
 34
0.0
 50
90.0
100
AcDbRotatedDimension
1001
GENIUS_GENDTOL_13
1000
FitTxt
1000
d9
1000
{$3 $T}
1040
12.0
1001
ACAD
1000
DSTYLE
1002
{
1070
   286
1070
     0
1070
   284
1070
     8
1070
    48
1040
0.1
1070
    47
1040
0.1
1070
   272
1070
     8
1070
   274
1070
     3
1002
}
  0
DIMENSION
  5
242D
330
1F
100
AcDbEntity
  8
AM_5
100
AcDbDimension
  2
*D9
 10
126.67127245532
 20
277.3262850451043
 30
0.0
 11
120.67127245532
 21
279.7766295332933
 31
0.0
 70
    32
 71
     5
 42
12.0
  3
AM_ISO$0
100
AcDbAlignedDimension
 13
114.67127245532
 23
299.1147423051043
 33
0.0
 14
126.67127245532
 24
298.4147423051043
 34
0.0
100
AcDbRotatedDimension
1001
ACAD
1000
DSTYLE
1002
{
1070
    40
1040
1.0
1070
   144
1040
1.0
1070
   272
1070
     8
1002
}
  0
DIMENSION
  5
2430
330
1F
100
AcDbEntity
  8
AM_5
100
AcDbDimension
  2
*D8
 10
151.17127245532
 20
277.3262850451043
 30
0.0
 11
139.92127245532
 21
279.7762850451043
 31
0.0
 70
    32
  1
F
 71
     5
 42
22.5
  3
AM_ISO$0
100
AcDbAlignedDimension
 13
128.67127245532
 23
291.1147423051043
 33
0.0
 14
151.17127245532
 24
291.4147422951043
 34
0.0
100
AcDbRotatedDimension
1001
ACAD
1000
DSTYLE
1002
{
1070
    40
1040
1.0
1070
   144
1040
1.0
1070
   272
1070
     8
1002
}
  0
DIMENSION
  5
254D
330
1F
100
AcDbEntity
  8
AM_5
100
AcDbDimension
  2
*D10
 10
95.60045525069666
 20
277.3262850451043
 30
0.0
 11
82.10045525069666
 21
279.7766295332933
 31
0.0
 70
    32
 71
     5
 42
26.99999999999997
  3
AM_ISO$0
100
AcDbAlignedDimension
 13
68.60045525069669
 23
293.1205136751044
 33
0.0
 14
95.60045525069666
 24
293.1205136751043
 34
0.0
100
AcDbRotatedDimension
1001
ACAD
1000
DSTYLE
1002
{
1070
    40
1040
1.0
1070
   144
1040
1.0
1070
   272
1070
     8
1002
}
  0
TEXT
  5
259F
330
1F
100
AcDbEntity
  8
AM_5
100
AcDbText
 10
110.003357504968
 20
312.3115302410923
 30
0.0
 40
3.0
  1
M5x0.8
100
AcDbText
  0
INSERT
  5
25A2
330
1F
100
AcDbEntity
  8
AM_5
100
AcDbBlockReference
  2
*S33
 10
0.0
 20
0.0
 30
0.0
  0
TEXT
  5
25AC
330
1F
100
AcDbEntity
  8
AM_5
100
AcDbText
 10
168.3757352055178
 20
284.3302879653346
 30
0.0
 40
3.0
  1
M5x0.8
100
AcDbText
  0
INSERT
  5
25AD
330
1F
100
AcDbEntity
  8
AM_5
100
AcDbBlockReference
  2
*S34
 10
0.0
 20
0.0
 30
0.0
  0
INSERT
  5
25C0
330
1F
100
AcDbEntity
  8
0
100
AcDbBlockReference
  2
A$C0DBE2BE5
 10
151.17127245532
 20
300.9147422966678
 30
0.0
  0
DIMENSION
  5
25C1
330
1F
100
AcDbEntity
  8
AM_5
100
AcDbDimension
  2
*D13
 10
128.67127245532
 20
360.1136950389905
 30
0.0
 11
121.67127245532
 21
362.5636950389905
 31
0.0
 70
    32
 71
     5
 42
14.0
  3
AM_ISO$0
100
AcDbAlignedDimension
 13
114.67127245532
 23
389.9021522989905
 33
0.0
 14
128.67127245532
 24
381.9021522989905
 34
0.0
100
AcDbRotatedDimension
1001
ACAD
1000
DSTYLE
1002
{
1070
    40
1040
1.0
1070
   144
1040
1.0
1070
   272
1070
     8
1002
}
  0
DIMENSION
  5
25C2
330
1F
100
AcDbEntity
  8
AM_5
100
AcDbDimension
  2
*D14
 10
158.17127245532
 20
360.1136950389905
 30
0.0
 11
143.42127245532
 21
362.5636950389905
 31
0.0
 70
    32
  1
S
 71
     5
 42
29.5
  3
AM_ISO$0
100
AcDbAlignedDimension
 13
128.67127245532
 23
381.9021522989905
 33
0.0
 14
158.17127245532
 24
382.2021522889905
 34
0.0
100
AcDbRotatedDimension
1001
ACAD
1000
DSTYLE
1002
{
1070
    40
1040
1.0
1070
   144
1040
1.0
1070
   272
1070
     8
1002
}
  0
DIMENSION
  5
25C3
330
1F
100
AcDbEntity
  8
AM_5
100
AcDbDimension
  2
*D15
 10
158.17127245532
 20
352.1136950389905
 30
0.0
 11
136.42127245532
 21
354.5636950389905
 31
0.0
 70
    32
  1
Z
 71
     5
 42
43.5
  3
AM_ISO$0
100
AcDbAlignedDimension
 13
114.67127245532
 23
389.4021522990578
 33
0.0
 14
158.17127245532
 24
382.2021522889905
 34
0.0
100
AcDbRotatedDimension
1001
ACAD
1000
DSTYLE
1002
{
1070
    40
1040
1.0
1070
   144
1040
1.0
1070
   272
1070
     8
1002
}
  0
DIMENSION
  5
25C4
330
1F
100
AcDbEntity
  8
AM_5
100
AcDbDimension
  2
*D16
 10
170.17127245532
 20
401.2021522889904
 30
0.0
 11
167.72127245532
 21
391.7021522889905
 31
0.0
 70
    32
  1
%%c<>{}{\C5; d9}
 71
     5
 42
19.0
  3
AM_ISO$0
100
AcDbAlignedDimension
 13
158.17127245532
 23
382.2021522889905
 33
0.0
 14
158.17127245532
 24
401.2021522889904
 34
0.0
 50
90.0
100
AcDbRotatedDimension
1001
GENIUS_GENDTOL_13
1000
FitTxt
1000
d9
1000
{$3 $T}
1040
12.0
1001
ACAD
1000
DSTYLE
1002
{
1070
   286
1070
     0
1070
   284
1070
     8
1070
    48
1040
0.1
1070
    47
1040
0.1
1070
   272
1070
     8
1070
   274
1070
     3
1002
}
  0
DIMENSION
  5
25C6
330
1F
100
AcDbEntity
  8
AM_5
100
AcDbDimension
  2
*D17
 10
151.17127245532
 20
368.1136950389905
 30
0.0
 11
139.92127245532
 21
370.5636950389905
 31
0.0
 70
    32
  1
F
 71
     5
 42
22.5
  3
AM_ISO$0
100
AcDbAlignedDimension
 13
128.67127245532
 23
381.9021522989905
 33
0.0
 14
151.17127245532
 24
382.2021522889905
 34
0.0
100
AcDbRotatedDimension
1001
ACAD
1000
DSTYLE
1002
{
1070
    40
1040
1.0
1070
   144
1040
1.0
1070
   272
1070
     8
1002
}
  0
DIMENSION
  5
25C7
330
1F
100
AcDbEntity
  8
AM_5
100
AcDbDimension
  2
*D12
 10
95.60045525069666
 20
368.1136950389905
 30
0.0
 11
82.10045525069666
 21
370.5640395271795
 31
0.0
 70
    32
 71
     5
 42
26.99999999999997
  3
AM_ISO$0
100
AcDbAlignedDimension
 13
68.60045525069669
 23
383.9079236689905
 33
0.0
 14
95.60045525069666
 24
383.9079236689905
 34
0.0
100
AcDbRotatedDimension
1001
ACAD
1000
DSTYLE
1002
{
1070
    40
1040
1.0
1070
   144
1040
1.0
1070
   272
1070
     8
1002
}
  0
TEXT
  5
25C8
330
1F
100
AcDbEntity
  8
AM_5
100
AcDbText
 10
168.3757352055178
 20
375.1176979592208
 30
0.0
 40
3.0
  1
M5x0.8
100
AcDbText
  0
INSERT
  5
25C9
330
1F
100
AcDbEntity
  8
AM_5
100
AcDbBlockReference
  2
*S35
 10
0.0
 20
0.0
 30
0.0
  0
INSERT
  5
25CA
330
1F
100
AcDbEntity
  8
0
100
AcDbBlockReference
  2
A$C0DBE2BE5
 10
151.17127245532
 20
391.702152290554
 30
0.0
  0
LINE
  5
27D2
330
1F
100
AcDbEntity
  8
AM_4
100
AcDbLine
 10
277.0603515576206
 20
298.8597422945709
 30
0.0
 11
279.3603515576206
 21
298.8597422945709
 31
0.0
  0
LINE
  5
27D3
330
1F
100
AcDbEntity
  8
AM_4
100
AcDbLine
 10
277.0603515576206
 20
302.9697422945709
 30
0.0
 11
279.3603515576206
 21
302.9697422945708
 31
0.0
  0
LINE
  5
27D4
330
1F
100
AcDbEntity
  8
AM_4
100
AcDbLine
 10
288.3603515576206
 20
302.9697422945709
 30
0.0
 11
288.8053515576205
 21
303.4147422945709
 31
0.0
  0
LINE
  5
27D5
330
1F
100
AcDbEntity
  8
AM_4
100
AcDbLine
 10
288.3603515576206
 20
298.8597422945709
 30
0.0
 11
288.8053515576205
 21
298.414742294571
 31
0.0
  0
LINE
  5
27D6
330
1F
100
AcDbEntity
  8
AM_4
 62
     7
100
AcDbLine
 10
288.3603515576206
 20
298.414742294571
 30
0.0
 11
288.3603515576206
 21
303.4147422945709
 31
0.0
  0
LINE
  5
27D7
330
1F
100
AcDbEntity
  8
AM_VIS
100
AcDbLine
 10
317.4353515576206
 20
309.5397422845709
 30
0.0
 11
317.4353515576206
 21
292.2897422845709
 31
0.0
  0
LINE
  5
27D8
330
1F
100
AcDbEntity
  8
AM_VIS
100
AcDbLine
 10
318.6853515576205
 20
292.2897422845709
 30
0.0
 11
318.6853515576205
 21
309.5397422845709
 31
0.0
  0
ARC
  5
27D9
330
1F
100
AcDbEntity
  8
AM_VIS
100
AcDbCircle
 10
318.0603515576205
 20
309.5397422845709
 30
0.0
 40
0.625
100
AcDbArc
 50
0.0
 51
180.0
  0
ARC
  5
27DA
330
1F
100
AcDbEntity
  8
AM_VIS
100
AcDbCircle
 10
318.0603515576205
 20
292.2897422845709
 30
0.0
 40
0.625
100
AcDbArc
 50
180.0
 51
0.0
  0
LINE
  5
27DB
330
1F
100
AcDbEntity
  8
AM_VIS
100
AcDbLine
 10
285.2587484017415
 20
305.533544444571
 30
0.0
 11
283.0619547134996
 21
305.533544444571
 31
0.0
  0
SPLINE
  5
27DC
330
1F
100
AcDbEntity
  8
AM_VIS
100
AcDbSpline
210
0.0
220
-0.0000000000000015
230
1.0
 70
    12
 71
     2
 72
     6
 73
     3
 74
     0
 42
0.0000000001
 43
0.0000000001
 40
4.628989808734346
 40
4.628989808734346
 40
4.628989808734346
 40
11.8735352595356
 40
11.8735352595356
 40
11.8735352595356
 10
283.0619547134996
 20
305.533544444571
 30
0.0000000000000036
 41
1.479323899102684
 10
282.3952880449714
 20
304.3788439045881
 30
-0.0000000000000036
 41
1.708176103342426
 10
283.061954713579
 20
303.2241433645709
 30
0.0
 41
1.479323899079039
  0
SPLINE
  5
27DD
330
1F
100
AcDbEntity
  8
AM_VIS
100
AcDbSpline
210
0.0
220
0.0
230
1.0
 70
    12
 71
     2
 72
     6
 73
     3
 74
     0
 42
0.0000000001
 43
0.0000000001
 40
4.628989818300265
 40
4.628989818300265
 40
4.628989818300265
 40
11.87353525715745
 40
11.87353525715745
 40
11.87353525715745
 10
283.0619547135792
 20
303.224143364571
 30
0.0
 41
1.479323898831588
 10
282.3952880483085
 20
300.914742290821
 30
0.0000000000000036
 41
1.708176101597508
 10
283.0619547164661
 20
298.605341214571
 30
0.0
 41
1.479323897973389
  0
LINE
  5
27DE
330
1F
100
AcDbEntity
  8
AM_VIS
100
AcDbLine
 10
285.2587484016619
 20
303.224143364571
 30
0.0
 11
283.0619547135792
 21
303.224143364571
 31
0.0
  0
SPLINE
  5
27DF
330
1F
100
AcDbEntity
  8
AM_VIS
100
AcDbSpline
210
0.0
220
-0.0000000000000015
230
1.0
 70
    12
 71
     2
 72
     6
 73
     3
 74
     0
 42
0.0000000001
 43
0.0000000001
 40
4.628989814123841
 40
4.628989814123841
 40
4.628989814123841
 40
11.87353525526095
 40
11.87353525526095
 40
11.87353525526095
 10
283.0619547164659
 20
298.6053412145709
 30
0.0
 41
1.479323897739213
 10
282.3952880503841
 20
297.4506406751787
 30
0.0
 41
1.708176100375265
 10
283.061954719273
 20
296.2959401345709
 30
-0.0000000000000036
 41
1.479323896904659
  0
LINE
  5
27E0
330
1F
100
AcDbEntity
  8
AM_VIS
100
AcDbLine
 10
285.2587483987752
 20
298.6053412145709
 30
0.0
 11
283.0619547164659
 21
298.6053412145709
 31
0.0
  0
LINE
  5
27E1
330
1F
100
AcDbEntity
  8
AM_VIS
100
AcDbLine
 10
285.258748395968
 20
296.295940134571
 30
0.0
 11
283.0619547192732
 21
296.295940134571
 31
0.0
  0
SPLINE
  5
27E2
330
1F
100
AcDbEntity
  8
AM_VIS
100
AcDbSpline
210
0.0
220
-0.0000000000000015
230
1.0
 70
    12
 71
     2
 72
     6
 73
     3
 74
     0
 42
0.0000000001
 43
0.0000000001
 40
4.628989800914548
 40
4.628989800914548
 40
4.628989800914548
 40
11.87353524205171
 40
11.87353524205171
 40
11.87353524205171
 10
285.258748395968
 20
296.295940134571
 30
0.0
 41
1.479323896904661
 10
285.9254150648571
 20
297.4506406751788
 30
0.0
 41
1.708176100375268
 10
285.2587483987753
 20
298.605341214571
 30
0.0000000000000036
 41
1.479323897739209
  0
SPLINE
  5
27E3
330
1F
100
AcDbEntity
  8
AM_VIS
100
AcDbSpline
210
0.0
220
0.0
230
1.0
 70
    12
 71
     2
 72
     6
 73
     3
 74
     0
 42
0.0000000001
 43
0.0000000001
 40
4.62898980471675
 40
4.62898980471675
 40
4.62898980471675
 40
11.87353524357387
 40
11.87353524357387
 40
11.87353524357387
 10
285.2587483987752
 20
298.6053412145709
 30
0.0
 41
1.479323897973393
 10
285.9254150669327
 20
300.914742290821
 30
0.0
 41
1.708176101597507
 10
285.2587484016619
 20
303.224143364571
 30
0.0
 41
1.479323898831589
  0
SPLINE
  5
27E4
330
1F
100
AcDbEntity
  8
AM_VIS
100
AcDbSpline
210
0.0
220
0.0000000000000015
230
1.0
 70
    12
 71
     2
 72
     6
 73
     3
 74
     0
 42
0.0000000001
 43
0.0000000001
 40
4.628989808360114
 40
4.628989808360114
 40
4.628989808360114
 40
11.87353525916132
 40
11.87353525916132
 40
11.87353525916132
 10
285.2587484016619
 20
303.224143364571
 30
0.0
 41
1.47932389907904
 10
285.9254150702699
 20
304.3788439045883
 30
0.0000000000000036
 41
1.708176103342424
 10
285.2587484017415
 20
305.5335444445709
 30
-0.0000000000000036
 41
1.479323899102685
  0
LINE
  5
27E5
330
1F
100
AcDbEntity
  8
AM_VIS
100
AcDbLine
 10
282.5603515576205
 20
297.1647422945709
 30
0.0
 11
283.0619547192732
 21
296.295940134571
 31
0.0
  0
LINE
  5
27E6
330
1F
100
AcDbEntity
  8
AM_VIS
100
AcDbLine
 10
282.5603515576205
 20
304.664742294571
 30
0.0
 11
283.0619547134996
 21
305.5335444445709
 31
0.0
  0
LINE
  5
27E7
330
1F
100
AcDbEntity
  8
AM_VIS
100
AcDbLine
 10
285.7603515576205
 20
304.664742294571
 30
0.0
 11
285.2587484017415
 21
305.5335444445709
 31
0.0
  0
LINE
  5
27E8
330
1F
100
AcDbEntity
  8
AM_VIS
100
AcDbLine
 10
285.7603515576205
 20
297.1647422945709
 30
0.0
 11
285.258748395968
 21
296.295940134571
 31
0.0
  0
LINE
  5
27E9
330
1F
100
AcDbEntity
  8
AM_VIS
100
AcDbLine
 10
282.5603515576205
 20
304.664742294571
 30
0.0
 11
282.5603515576205
 21
297.1647422945709
 31
0.0
  0
LINE
  5
27EA
330
1F
100
AcDbEntity
  8
AM_VIS
100
AcDbLine
 10
285.7603515576205
 20
297.1647422945709
 30
0.0
 11
285.7603515576205
 21
304.664742294571
 31
0.0
  0
LINE
  5
27EB
330
1F
100
AcDbEntity
  8
AM_VIS
100
AcDbLine
 10
282.0587484017415
 20
305.533544444571
 30
0.0
 11
279.8619547134996
 21
305.533544444571
 31
0.0
  0
SPLINE
  5
27EC
330
1F
100
AcDbEntity
  8
AM_VIS
100
AcDbSpline
210
0.0
220
-0.0000000000000015
230
1.0
 70
    12
 71
     2
 72
     6
 73
     3
 74
     0
 42
0.0000000001
 43
0.0000000001
 40
4.628989808734346
 40
4.628989808734346
 40
4.628989808734346
 40
11.8735352595356
 40
11.8735352595356
 40
11.8735352595356
 10
279.8619547134996
 20
305.533544444571
 30
0.0000000000000036
 41
1.479323899102684
 10
279.1952880449714
 20
304.3788439045881
 30
-0.0000000000000036
 41
1.708176103342426
 10
279.8619547135791
 20
303.2241433645709
 30
0.0
 41
1.479323899079039
  0
SPLINE
  5
27ED
330
1F
100
AcDbEntity
  8
AM_VIS
100
AcDbSpline
210
0.0
220
0.0
230
1.0
 70
    12
 71
     2
 72
     6
 73
     3
 74
     0
 42
0.0000000001
 43
0.0000000001
 40
4.628989818300265
 40
4.628989818300265
 40
4.628989818300265
 40
11.87353525715745
 40
11.87353525715745
 40
11.87353525715745
 10
279.8619547135792
 20
303.224143364571
 30
0.0
 41
1.479323898831588
 10
279.1952880483086
 20
300.914742290821
 30
0.0000000000000036
 41
1.708176101597508
 10
279.861954716466
 20
298.605341214571
 30
0.0
 41
1.479323897973389
  0
LINE
  5
27EE
330
1F
100
AcDbEntity
  8
AM_VIS
100
AcDbLine
 10
282.0587484016619
 20
303.224143364571
 30
0.0
 11
279.8619547135792
 21
303.224143364571
 31
0.0
  0
SPLINE
  5
27EF
330
1F
100
AcDbEntity
  8
AM_VIS
100
AcDbSpline
210
0.0
220
-0.0000000000000015
230
1.0
 70
    12
 71
     2
 72
     6
 73
     3
 74
     0
 42
0.0000000001
 43
0.0000000001
 40
4.628989814123841
 40
4.628989814123841
 40
4.628989814123841
 40
11.87353525526095
 40
11.87353525526095
 40
11.87353525526095
 10
279.8619547164659
 20
298.6053412145709
 30
0.0
 41
1.479323897739213
 10
279.195288050384
 20
297.4506406751787
 30
0.0
 41
1.708176100375265
 10
279.8619547192731
 20
296.2959401345709
 30
-0.0000000000000036
 41
1.479323896904659
  0
LINE
  5
27F0
330
1F
100
AcDbEntity
  8
AM_VIS
100
AcDbLine
 10
282.0587483987752
 20
298.6053412145709
 30
0.0
 11
279.8619547164659
 21
298.6053412145709
 31
0.0
  0
LINE
  5
27F1
330
1F
100
AcDbEntity
  8
AM_VIS
100
AcDbLine
 10
282.058748395968
 20
296.295940134571
 30
0.0
 11
279.8619547192732
 21
296.295940134571
 31
0.0
  0
SPLINE
  5
27F2
330
1F
100
AcDbEntity
  8
AM_VIS
100
AcDbSpline
210
0.0
220
-0.0000000000000015
230
1.0
 70
    12
 71
     2
 72
     6
 73
     3
 74
     0
 42
0.0000000001
 43
0.0000000001
 40
4.628989800914548
 40
4.628989800914548
 40
4.628989800914548
 40
11.87353524205171
 40
11.87353524205171
 40
11.87353524205171
 10
282.058748395968
 20
296.295940134571
 30
0.0
 41
1.479323896904661
 10
282.7254150648571
 20
297.4506406751788
 30
0.0
 41
1.708176100375268
 10
282.0587483987753
 20
298.605341214571
 30
0.0000000000000036
 41
1.479323897739209
  0
SPLINE
  5
27F3
330
1F
100
AcDbEntity
  8
AM_VIS
100
AcDbSpline
210
0.0
220
0.0
230
1.0
 70
    12
 71
     2
 72
     6
 73
     3
 74
     0
 42
0.0000000001
 43
0.0000000001
 40
4.62898980471675
 40
4.62898980471675
 40
4.62898980471675
 40
11.87353524357387
 40
11.87353524357387
 40
11.87353524357387
 10
282.0587483987752
 20
298.6053412145709
 30
0.0
 41
1.479323897973393
 10
282.7254150669327
 20
300.914742290821
 30
0.0
 41
1.708176101597507
 10
282.0587484016619
 20
303.224143364571
 30
0.0
 41
1.479323898831589
  0
SPLINE
  5
27F4
330
1F
100
AcDbEntity
  8
AM_VIS
100
AcDbSpline
210
0.0
220
0.0000000000000015
230
1.0
 70
    12
 71
     2
 72
     6
 73
     3
 74
     0
 42
0.0000000001
 43
0.0000000001
 40
4.628989808360114
 40
4.628989808360114
 40
4.628989808360114
 40
11.87353525916132
 40
11.87353525916132
 40
11.87353525916132
 10
282.0587484016619
 20
303.224143364571
 30
0.0
 41
1.47932389907904
 10
282.7254150702699
 20
304.3788439045883
 30
0.0000000000000036
 41
1.708176103342424
 10
282.0587484017414
 20
305.5335444445709
 30
-0.0000000000000036
 41
1.479323899102685
  0
LINE
  5
27F5
330
1F
100
AcDbEntity
  8
AM_VIS
100
AcDbLine
 10
279.3603515576206
 20
297.1647422945709
 30
0.0
 11
279.8619547192732
 21
296.295940134571
 31
0.0
  0
LINE
  5
27F6
330
1F
100
AcDbEntity
  8
AM_VIS
100
AcDbLine
 10
279.3603515576206
 20
304.664742294571
 30
0.0
 11
279.8619547134996
 21
305.5335444445709
 31
0.0
  0
LINE
  5
27F7
330
1F
100
AcDbEntity
  8
AM_VIS
100
AcDbLine
 10
282.5603515576205
 20
304.664742294571
 30
0.0
 11
282.0587484017415
 21
305.5335444445709
 31
0.0
  0
LINE
  5
27F8
330
1F
100
AcDbEntity
  8
AM_VIS
100
AcDbLine
 10
282.5603515576205
 20
297.1647422945709
 30
0.0
 11
282.058748395968
 21
296.295940134571
 31
0.0
  0
LINE
  5
27F9
330
1F
100
AcDbEntity
  8
AM_VIS
100
AcDbLine
 10
279.3603515576206
 20
304.664742294571
 30
0.0
 11
279.3603515576206
 21
297.1647422945709
 31
0.0
  0
LINE
  5
27FA
330
1F
100
AcDbEntity
  8
AM_VIS
100
AcDbLine
 10
282.5603515576205
 20
297.1647422945709
 30
0.0
 11
282.5603515576205
 21
304.664742294571
 31
0.0
  0
LINE
  5
27FB
330
1F
100
AcDbEntity
  8
AM_VIS
100
AcDbLine
 10
297.8659050564911
 20
316.503199564571
 30
0.0
 11
295.8547980587501
 21
316.503199564571
 31
0.0
  0
SPLINE
  5
27FC
330
1F
100
AcDbEntity
  8
AM_VIS
100
AcDbSpline
210
0.0
220
0.0
230
1.0
 70
    12
 71
     2
 72
     6
 73
     3
 74
     0
 42
0.0000000001
 43
0.0000000001
 40
7.802819137906116
 40
7.802819137906116
 40
7.802819137906116
 40
27.36041092005328
 40
27.36041092005328
 40
27.36041092005328
 10
295.8547980587501
 20
316.5031995645709
 30
0.0
 41
1.208735606485532
 10
293.6047980607395
 20
312.6060852497072
 30
0.0
 41
1.395727655407905
 10
295.8547980593793
 20
308.7089709345709
 30
0.0
 41
1.208735606440241
  0
SPLINE
  5
27FD
330
1F
100
AcDbEntity
  8
AM_VIS
100
AcDbSpline
210
0.0
220
0.0
230
1.0
 70
    12
 71
     2
 72
     6
 73
     3
 74
     0
 42
0.0000000001
 43
0.0000000001
 40
7.802819130927051
 40
7.802819130927051
 40
7.802819130927051
 40
27.36041092004651
 40
27.36041092004651
 40
27.36041092004651
 10
295.8547980593793
 20
308.708970934571
 30
0.0
 41
1.208735606464541
 10
293.6047980582001
 20
300.914742298321
 30
0.0
 41
1.395727655704816
 10
295.8547980564926
 20
293.1205136645709
 30
0.0
 41
1.20873560667231
  0
LINE
  5
27FE
330
1F
100
AcDbEntity
  8
AM_VIS
100
AcDbLine
 10
297.8659050558618
 20
308.708970934571
 30
0.0
 11
295.8547980593793
 21
308.708970934571
 31
0.0
  0
SPLINE
  5
27FF
330
1F
100
AcDbEntity
  8
AM_VIS
100
AcDbSpline
210
0.0
220
0.0
230
1.0
 70
    12
 71
     2
 72
     6
 73
     3
 74
     0
 42
0.0000000001
 43
0.0000000001
 40
7.802819134611421
 40
7.802819134611421
 40
7.802819134611421
 40
27.36041092372489
 40
27.36041092372489
 40
27.36041092372489
 10
295.8547980564926
 20
293.1205136645709
 30
0.0
 41
1.208735606710154
 10
293.6047980553271
 20
289.2233993488097
 30
0.0
 41
1.395727656063367
 10
295.8547980529764
 20
285.326285034571
 30
0.0
 41
1.208735606963213
  0
LINE
  5
2800
330
1F
100
AcDbEntity
  8
AM_VIS
100
AcDbLine
 10
297.8659050587486
 20
293.120513664571
 30
0.0
 11
295.8547980564926
 21
293.120513664571
 31
0.0
  0
LINE
  5
2801
330
1F
100
AcDbEntity
  8
AM_VIS
100
AcDbLine
 10
297.8659050622646
 20
285.326285034571
 30
0.0
 11
295.8547980529766
 21
285.326285034571
 31
0.0
  0
SPLINE
  5
2802
330
1F
100
AcDbEntity
  8
AM_VIS
100
AcDbSpline
210
0.0
220
0.0
230
1.0
 70
    12
 71
     2
 72
     6
 73
     3
 74
     0
 42
0.0000000001
 43
0.0000000001
 40
9.184371108675751
 40
9.184371108675751
 40
9.184371108675751
 40
29.55618316808382
 40
29.55618316808382
 40
29.55618316808382
 10
297.8659050622646
 20
285.326285034571
 30
0.0
 41
1.253724484949384
 10
300.115905059914
 20
289.2233993488096
 30
-0.0000000000000036
 41
1.447676337693022
 10
297.8659050587486
 20
293.120513664571
 30
0.0
 41
1.253724484686906
  0
SPLINE
  5
2803
330
1F
100
AcDbEntity
  8
AM_VIS
100
AcDbSpline
210
0.0
220
0.0
230
1.0
 70
    12
 71
     2
 72
     6
 73
     3
 74
     0
 42
0.0000000001
 43
0.0000000001
 40
9.184371097788462
 40
9.184371097788462
 40
9.184371097788462
 40
29.55618315401098
 40
29.55618315401098
 40
29.55618315401098
 10
297.8659050587486
 20
293.1205136645709
 30
0.0
 41
1.253724484469834
 10
300.1159050570412
 20
300.914742298321
 30
0.0
 41
1.447676337115798
 10
297.8659050558616
 20
308.7089709345709
 30
0.0
 41
1.253724484254331
  0
SPLINE
  5
2804
330
1F
100
AcDbEntity
  8
AM_VIS
100
AcDbSpline
210
0.0
220
-0.0000000000000005
230
1.0
 70
    12
 71
     2
 72
     6
 73
     3
 74
     0
 42
0.0000000001
 43
0.0000000001
 40
9.184371087081885
 40
9.184371087081885
 40
9.184371087081885
 40
29.55618313324356
 40
29.55618313324356
 40
29.55618313324356
 10
297.8659050558617
 20
308.708970934571
 30
0.0
 41
1.25372448407357
 10
300.1159050545014
 20
312.6060852497072
 30
0.0
 41
1.447676336628211
 10
297.8659050564911
 20
316.503199564571
 30
0.0000000000000036
 41
1.253724484120546
  0
LINE
  5
2805
330
1F
100
AcDbEntity
  8
AM_VIS
100
AcDbLine
 10
294.3603515576206
 20
287.914742294571
 30
0.0
 11
295.8547980529766
 21
285.326285034571
 31
0.0
  0
LINE
  5
2806
330
1F
100
AcDbEntity
  8
AM_VIS
100
AcDbLine
 10
294.3603515576206
 20
313.9147422945709
 30
0.0
 11
295.8547980587501
 21
316.503199564571
 31
0.0
  0
LINE
  5
2807
330
1F
100
AcDbEntity
  8
AM_VIS
100
AcDbLine
 10
299.3603515576205
 20
313.9147422945709
 30
0.0
 11
297.8659050564911
 21
316.503199564571
 31
0.0
  0
LINE
  5
2808
330
1F
100
AcDbEntity
  8
AM_VIS
100
AcDbLine
 10
299.3603515576205
 20
287.914742294571
 30
0.0
 11
297.8659050622646
 21
285.326285034571
 31
0.0
  0
LINE
  5
2809
330
1F
100
AcDbEntity
  8
AM_VIS
100
AcDbLine
 10
294.3603515576206
 20
313.9147422945709
 30
0.0
 11
294.3603515576206
 21
287.914742294571
 31
0.0
  0
LINE
  5
280A
330
1F
100
AcDbEntity
  8
AM_VIS
100
AcDbLine
 10
299.3603515576205
 20
287.914742294571
 30
0.0
 11
299.3603515576205
 21
313.9147422945709
 31
0.0
  0
LINE
  5
280B
330
1F
100
AcDbEntity
  8
AM_VIS
100
AcDbLine
 10
289.8603515576206
 20
303.4147422945709
 30
0.0
 11
287.6603515576206
 21
303.4147422945709
 31
0.0
  0
LINE
  5
280C
330
1F
100
AcDbEntity
  8
AM_VIS
100
AcDbLine
 10
289.8603515576206
 20
298.414742294571
 30
0.0
 11
287.6603515576206
 21
298.414742294571
 31
0.0
  0
LINE
  5
280D
330
1F
100
AcDbEntity
  8
AM_VIS
100
AcDbLine
 10
287.6603515576206
 20
303.4147422945709
 30
0.0
 11
285.7603515576205
 21
303.4147422945709
 31
0.0
  0
LINE
  5
280E
330
1F
100
AcDbEntity
  8
AM_VIS
100
AcDbLine
 10
279.3603515576206
 20
303.4147422945709
 30
0.0
 11
277.0603515576206
 21
303.4147422945709
 31
0.0
  0
LINE
  5
280F
330
1F
100
AcDbEntity
  8
AM_VIS
100
AcDbLine
 10
287.6603515576206
 20
298.414742294571
 30
0.0
 11
285.7603515576205
 21
298.414742294571
 31
0.0
  0
LINE
  5
2810
330
1F
100
AcDbEntity
  8
AM_VIS
100
AcDbLine
 10
279.3603515576206
 20
298.414742294571
 30
0.0
 11
277.0603515576206
 21
298.414742294571
 31
0.0
  0
LINE
  5
2811
330
1F
100
AcDbEntity
  8
AM_VIS
100
AcDbLine
 10
276.3603515576205
 20
299.1147422945709
 30
0.0
 11
277.0603515576206
 21
298.414742294571
 31
0.0
  0
LINE
  5
2812
330
1F
100
AcDbEntity
  8
AM_VIS
100
AcDbLine
 10
276.3603515576205
 20
302.714742294571
 30
0.0
 11
277.0603515576206
 21
303.4147422945709
 31
0.0
  0
LINE
  5
2813
330
1F
100
AcDbEntity
  8
AM_VIS
100
AcDbLine
 10
289.8603515576206
 20
298.414742294571
 30
0.0
 11
290.3603515576206
 21
297.9147422945709
 31
0.0
  0
LINE
  5
2814
330
1F
100
AcDbEntity
  8
AM_VIS
100
AcDbLine
 10
289.8603515576206
 20
303.4147422945709
 30
0.0
 11
290.3603515576206
 21
303.9147422945709
 31
0.0
  0
LINE
  5
2815
330
1F
100
AcDbEntity
  8
AM_VIS
100
AcDbLine
 10
277.0603515576206
 20
303.4147422945709
 30
0.0
 11
277.0603515576206
 21
298.414742294571
 31
0.0
  0
LINE
  5
2816
330
1F
100
AcDbEntity
  8
AM_VIS
100
AcDbLine
 10
276.3603515576205
 20
299.1147422945709
 30
0.0
 11
276.3603515576205
 21
302.714742294571
 31
0.0
  0
LINE
  5
2817
330
1F
100
AcDbEntity
  8
AM_VIS
100
AcDbLine
 10
289.8603515576206
 20
298.414742294571
 30
0.0
 11
289.8603515576206
 21
303.4147422945709
 31
0.0
  0
SPLINE
  5
2818
330
1F
100
AcDbEntity
  8
AM_VIS
100
AcDbSpline
210
0.0
220
-0.0000000000000008
230
1.0
 70
    12
 71
     2
 72
     6
 73
     3
 74
     0
 42
0.0000000001
 43
0.0000000001
 40
10.84214651987418
 40
10.84214651987418
 40
10.84214651987418
 40
24.39041418708929
 40
24.39041418708929
 40
24.39041418708929
 10
311.9943261541208
 20
289.963200397573
 30
0.0
 41
1.404761904892844
 10
313.096540311161
 20
292.2544882518987
 30
0.0
 41
1.54523809643188
 10
311.9943261541208
 20
294.5457761062245
 30
0.0000000000000036
 41
1.404761904892843
  0
SPLINE
  5
2819
330
1F
100
AcDbEntity
  8
AM_VIS
100
AcDbSpline
210
0.0
220
0.0
230
1.0
 70
    12
 71
     2
 72
     6
 73
     3
 74
     0
 42
0.0000000001
 43
0.0000000001
 40
11.25418109228592
 40
11.25418109228592
 40
11.25418109228592
 40
25.00488674786935
 40
25.00488674786935
 40
25.00488674786935
 10
292.4954368535207
 20
294.5457761062245
 30
0.0
 41
1.423809523946625
 10
291.3932226964801
 20
292.2544882518987
 30
0.0
 41
1.566190477405273
 10
292.4954368535206
 20
289.963200397573
 30
0.0
 41
1.423809523946624
  0
SPLINE
  5
281A
330
1F
100
AcDbEntity
  8
AM_VIS
100
AcDbSpline
210
0.0
220
-0.0000000000000008
230
1.0
 70
    12
 71
     2
 72
     6
 73
     3
 74
     0
 42
0.0000000001
 43
0.0000000001
 40
11.25418111552803
 40
11.25418111552803
 40
11.25418111552803
 40
25.00488671192068
 40
25.00488671192068
 40
25.00488671192068
 10
292.4954368535204
 20
311.8662841696198
 30
0.0
 41
1.423809523771843
 10
291.3932227055711
 20
309.5749963247431
 30
0.0
 41
1.566190475856649
 10
292.4954368535205
 20
307.2837084798664
 30
-0.0000000000000036
 41
1.423809523771843
  0
SPLINE
  5
281B
330
1F
100
AcDbEntity
  8
AM_VIS
100
AcDbSpline
210
0.0
220
0.0
230
1.0
 70
    12
 71
     2
 72
     6
 73
     3
 74
     0
 42
0.0000000001
 43
0.0000000001
 40
10.84214654253812
 40
10.84214654253812
 40
10.84214654253812
 40
24.39041415147971
 40
24.39041415147971
 40
24.39041415147971
 10
311.9943261541207
 20
307.2837084798666
 30
0.0
 41
1.404761904725922
 10
313.09654030207
 20
309.5749963247431
 30
-0.0000000000000036
 41
1.545238094910048
 10
311.9943261541207
 20
311.8662841696198
 30
0.0
 41
1.404761904725922
  0
SPLINE
  5
281C
330
1F
100
AcDbEntity
  8
AM_VIS
100
AcDbSpline
210
0.0
220
-0.0000000000000004
230
1.0
 70
    12
 71
     2
 72
     6
 73
     3
 74
     0
 42
0.0000000001
 43
0.0000000001
 40
11.25418111051788
 40
11.25418111051788
 40
11.25418111051788
 40
25.00488671966984
 40
25.00488671966984
 40
25.00488671966984
 10
292.4954368535206
 20
305.4973179795268
 30
0.0000000000000036
 41
1.42380952380952
 10
291.3932227036116
 20
300.914742284571
 30
0.0
 41
1.566190476190476
 10
292.4954368535206
 20
296.3321665896151
 30
0.0
 41
1.423809523809522
  0
SPLINE
  5
281D
330
1F
100
AcDbEntity
  8
AM_VIS
100
AcDbSpline
210
0.0
220
0.0
230
1.0
 70
    12
 71
     2
 72
     6
 73
     3
 74
     0
 42
0.0000000001
 43
0.0000000001
 40
10.84214653765268
 40
10.84214653765268
 40
10.84214653765268
 40
24.39041415916938
 40
24.39041415916938
 40
24.39041415916938
 10
311.9943261541207
 20
296.3321665896151
 30
0.0
 41
1.404761904761904
 10
313.0965403040307
 20
300.9147422845751
 30
0.0
 41
1.545238095238236
 10
311.9943261541181
 20
305.497317979536
 30
0.0
 41
1.404761904761621
  0
LINE
  5
281E
330
1F
100
AcDbEntity
  8
AM_VIS
100
AcDbLine
 10
311.9943261541206
 20
294.5457761062245
 30
0.0
 11
299.3603515576205
 21
294.5457761062245
 31
0.0
  0
LINE
  5
281F
330
1F
100
AcDbEntity
  8
AM_VIS
100
AcDbLine
 10
294.3603515576206
 20
294.5457761062245
 30
0.0
 11
292.4954368535206
 21
294.5457761062245
 31
0.0
  0
LINE
  5
2820
330
1F
100
AcDbEntity
  8
AM_VIS
100
AcDbLine
 10
292.4954368535206
 20
296.3321665896151
 30
0.0
 11
294.3603515576206
 21
296.3321665896151
 31
0.0
  0
LINE
  5
2821
330
1F
100
AcDbEntity
  8
AM_VIS
100
AcDbLine
 10
299.3603515576205
 20
296.3321665896151
 30
0.0
 11
311.9943261541206
 21
296.3321665896151
 31
0.0
  0
LINE
  5
2822
330
1F
100
AcDbEntity
  8
AM_VIS
100
AcDbLine
 10
292.4954368535206
 20
289.963200397573
 30
0.0
 11
294.3603515576206
 21
289.963200397573
 31
0.0
  0
LINE
  5
2823
330
1F
100
AcDbEntity
  8
AM_VIS
100
AcDbLine
 10
299.3603515576205
 20
289.963200397573
 30
0.0
 11
311.9943261541206
 21
289.963200397573
 31
0.0
  0
LINE
  5
2824
330
1F
100
AcDbEntity
  8
AM_VIS
100
AcDbLine
 10
311.9943261541181
 20
305.4973179795268
 30
0.0
 11
299.3603515576205
 21
305.4973179795268
 31
0.0
  0
LINE
  5
2825
330
1F
100
AcDbEntity
  8
AM_VIS
100
AcDbLine
 10
294.3603515576206
 20
305.4973179795268
 30
0.0
 11
292.4954368535206
 21
305.4973179795268
 31
0.0
  0
LINE
  5
2826
330
1F
100
AcDbEntity
  8
AM_VIS
100
AcDbLine
 10
292.4954368535206
 20
307.2837084798665
 30
0.0
 11
294.3603515576206
 21
307.2837084798665
 31
0.0
  0
LINE
  5
2827
330
1F
100
AcDbEntity
  8
AM_VIS
100
AcDbLine
 10
299.3603515576205
 20
307.2837084798665
 30
0.0
 11
311.9943261541206
 21
307.2837084798665
 31
0.0
  0
LINE
  5
2828
330
1F
100
AcDbEntity
  8
AM_VIS
100
AcDbLine
 10
311.9943261541206
 20
311.8662841696198
 30
0.0
 11
299.3603515576205
 21
311.8662841696198
 31
0.0
  0
LINE
  5
2829
330
1F
100
AcDbEntity
  8
AM_VIS
100
AcDbLine
 10
294.3603515576206
 20
311.8662841696198
 30
0.0
 11
292.4954368535206
 21
311.8662841696198
 31
0.0
  0
LINE
  5
282A
330
1F
100
AcDbEntity
  8
AM_VIS
100
AcDbLine
 10
319.8603515576206
 20
310.4147422845709
 30
0.0
 11
318.8603515576206
 21
310.4147422845709
 31
0.0
  0
LINE
  5
282B
330
1F
100
AcDbEntity
  8
AM_VIS
100
AcDbLine
 10
319.8603515576206
 20
291.4147422845709
 30
0.0
 11
318.8603515576206
 21
291.4147422845709
 31
0.0
  0
LINE
  5
282C
330
1F
100
AcDbEntity
  8
AM_VIS
100
AcDbLine
 10
312.8603515576206
 20
310.4147422845709
 30
0.0
 11
311.9943261541206
 21
311.9147422845709
 31
0.0
  0
LINE
  5
282D
330
1F
100
AcDbEntity
  8
AM_VIS
100
AcDbLine
 10
312.8603515576206
 20
291.4147422845709
 30
0.0
 11
311.9943261541206
 21
289.9147422845709
 31
0.0
  0
LINE
  5
282E
330
1F
100
AcDbEntity
  8
AM_VIS
100
AcDbLine
 10
317.1603515576206
 20
310.4147422845709
 30
0.0
 11
312.8603515576206
 21
310.4147422845709
 31
0.0
  0
LINE
  5
282F
330
1F
100
AcDbEntity
  8
AM_VIS
100
AcDbLine
 10
317.1603515576206
 20
291.4147422845709
 30
0.0
 11
312.8603515576206
 21
291.4147422845709
 31
0.0
  0
LINE
  5
2830
330
1F
100
AcDbEntity
  8
AM_VIS
100
AcDbLine
 10
317.1603515576206
 20
292.414742284571
 30
0.0
 11
317.4353515576206
 21
292.414742284571
 31
0.0
  0
LINE
  5
2831
330
1F
100
AcDbEntity
  8
AM_VIS
100
AcDbLine
 10
318.6853515576205
 20
292.414742284571
 30
0.0
 11
318.8603515576206
 21
292.414742284571
 31
0.0
  0
LINE
  5
2832
330
1F
100
AcDbEntity
  8
AM_VIS
100
AcDbLine
 10
317.1603515576206
 20
309.4147422845709
 30
0.0
 11
317.4353515576206
 21
309.4147422845709
 31
0.0
  0
LINE
  5
2833
330
1F
100
AcDbEntity
  8
AM_VIS
100
AcDbLine
 10
318.6853515576205
 20
309.4147422845709
 30
0.0
 11
318.8603515576206
 21
309.4147422845709
 31
0.0
  0
LINE
  5
2834
330
1F
100
AcDbEntity
  8
AM_VIS
100
AcDbLine
 10
290.4603515576206
 20
291.014742294571
 30
0.0
 11
291.8603515576206
 21
291.014742294571
 31
0.0
  0
LINE
  5
2835
330
1F
100
AcDbEntity
  8
AM_VIS
100
AcDbLine
 10
290.4603515576206
 20
310.8147422945709
 30
0.0
 11
291.8603515576206
 21
310.8147422945709
 31
0.0
  0
LINE
  5
2836
330
1F
100
AcDbEntity
  8
AM_VIS
100
AcDbLine
 10
290.3603515576206
 20
291.114742294571
 30
0.0
 11
290.4603515576206
 21
291.014742294571
 31
0.0
  0
LINE
  5
2837
330
1F
100
AcDbEntity
  8
AM_VIS
100
AcDbLine
 10
290.3603515576206
 20
310.7147422945709
 30
0.0
 11
290.4603515576206
 21
310.8147422945709
 31
0.0
  0
LINE
  5
2838
330
1F
100
AcDbEntity
  8
AM_VIS
100
AcDbLine
 10
291.8603515532904
 20
291.0147422920709
 30
0.0
 11
292.4954368535206
 21
289.9147422845709
 31
0.0
  0
LINE
  5
2839
330
1F
100
AcDbEntity
  8
AM_VIS
100
AcDbLine
 10
291.8603515619507
 20
310.8147422920709
 30
0.0
 11
292.4954368535206
 21
311.9147422845709
 31
0.0
  0
LINE
  5
283A
330
1F
100
AcDbEntity
  8
AM_VIS
100
AcDbLine
 10
292.4954368535206
 20
289.9147422845709
 30
0.0
 11
294.3603515576206
 21
289.9147422845709
 31
0.0
  0
LINE
  5
283B
330
1F
100
AcDbEntity
  8
AM_VIS
100
AcDbLine
 10
299.3603515576205
 20
289.9147422845709
 30
0.0
 11
311.9943261541206
 21
289.9147422845709
 31
0.0
  0
LINE
  5
283C
330
1F
100
AcDbEntity
  8
AM_VIS
100
AcDbLine
 10
292.4954368535206
 20
311.9147422845709
 30
0.0
 11
294.3603515576206
 21
311.9147422845709
 31
0.0
  0
LINE
  5
283D
330
1F
100
AcDbEntity
  8
AM_VIS
100
AcDbLine
 10
299.3603515576205
 20
311.9147422845709
 30
0.0
 11
311.9943261541206
 21
311.9147422845709
 31
0.0
  0
LINE
  5
283E
330
1F
100
AcDbEntity
  8
AM_VIS
100
AcDbLine
 10
319.8603515576206
 20
310.4147422845709
 30
0.0
 11
319.8603515576206
 21
291.4147422845709
 31
0.0
  0
LINE
  5
283F
330
1F
100
AcDbEntity
  8
AM_VIS
100
AcDbLine
 10
312.8603515576206
 20
291.4147422845709
 30
0.0
 11
312.8603515576206
 21
310.4147422845709
 31
0.0
  0
LINE
  5
2840
330
1F
100
AcDbEntity
  8
AM_VIS
100
AcDbLine
 10
317.1603515576206
 20
310.4147422845709
 30
0.0
 11
317.1603515576206
 21
291.4147422845709
 31
0.0
  0
LINE
  5
2841
330
1F
100
AcDbEntity
  8
AM_VIS
100
AcDbLine
 10
318.8603515576206
 20
291.4147422845709
 30
0.0
 11
318.8603515576206
 21
310.4147422845709
 31
0.0
  0
LINE
  5
2842
330
1F
100
AcDbEntity
  8
AM_VIS
100
AcDbLine
 10
290.3603515576206
 20
291.114742294571
 30
0.0
 11
290.3603515576206
 21
310.7147422945709
 31
0.0
  0
LINE
  5
2843
330
1F
100
AcDbEntity
  8
AM_VIS
100
AcDbLine
 10
291.8603515576206
 20
291.014742294571
 30
0.0
 11
291.8603515576206
 21
310.8147422945709
 31
0.0
  0
LINE
  5
2844
330
1F
100
AcDbEntity
  8
AM_VIS
100
AcDbLine
 10
292.4954368535206
 20
296.3321665896151
 30
0.0
 11
292.4954368535206
 21
294.5457761062245
 31
0.0
  0
LINE
  5
2845
330
1F
100
AcDbEntity
  8
AM_VIS
100
AcDbLine
 10
311.9943261541206
 20
294.5457761062245
 30
0.0
 11
311.9943261541206
 21
296.3321665896151
 31
0.0
  0
LINE
  5
2846
330
1F
100
AcDbEntity
  8
AM_VIS
100
AcDbLine
 10
292.4954368535206
 20
289.963200397573
 30
0.0
 11
292.4954368535206
 21
289.9147422845709
 31
0.0
  0
LINE
  5
2847
330
1F
100
AcDbEntity
  8
AM_VIS
100
AcDbLine
 10
311.9943261541206
 20
289.9147422845709
 30
0.0
 11
311.9943261541206
 21
289.963200397573
 31
0.0
  0
LINE
  5
2848
330
1F
100
AcDbEntity
  8
AM_VIS
100
AcDbLine
 10
292.4954368535206
 20
307.2837084798665
 30
0.0
 11
292.4954368535206
 21
305.4973179795268
 31
0.0
  0
LINE
  5
2849
330
1F
100
AcDbEntity
  8
AM_VIS
100
AcDbLine
 10
311.9943261541206
 20
305.4973179795352
 30
0.0
 11
311.9943261541206
 21
307.2837084798665
 31
0.0
  0
LINE
  5
284A
330
1F
100
AcDbEntity
  8
AM_VIS
100
AcDbLine
 10
311.9943261541206
 20
311.8662841696198
 30
0.0
 11
311.9943261541206
 21
311.9147422845709
 31
0.0
  0
LINE
  5
284B
330
1F
100
AcDbEntity
  8
AM_VIS
100
AcDbLine
 10
292.4954368535206
 20
311.9147422845709
 30
0.0
 11
292.4954368535206
 21
311.8662841696198
 31
0.0
  0
LINE
  5
287D
330
1F
100
AcDbEntity
  8
AM_VIS
100
AcDbLine
 10
317.4353515576206
 20
400.3271522785245
 30
0.0
 11
317.4353515576206
 21
383.0771522785245
 31
0.0
  0
LINE
  5
287E
330
1F
100
AcDbEntity
  8
AM_VIS
100
AcDbLine
 10
318.6853515576205
 20
383.0771522785245
 30
0.0
 11
318.6853515576205
 21
400.3271522785245
 31
0.0
  0
ARC
  5
287F
330
1F
100
AcDbEntity
  8
AM_VIS
100
AcDbCircle
 10
318.0603515576205
 20
400.3271522785245
 30
0.0
 40
0.625
100
AcDbArc
 50
0.0
 51
180.0
  0
ARC
  5
2880
330
1F
100
AcDbEntity
  8
AM_VIS
100
AcDbCircle
 10
318.0603515576205
 20
383.0771522785245
 30
0.0
 40
0.625
100
AcDbArc
 50
180.0
 51
0.0
  0
LINE
  5
2881
330
1F
100
AcDbEntity
  8
AM_VIS
100
AcDbLine
 10
297.8659050564911
 20
407.2906095585246
 30
0.0
 11
295.8547980587501
 21
407.2906095585246
 31
0.0
  0
SPLINE
  5
2882
330
1F
100
AcDbEntity
  8
AM_VIS
100
AcDbSpline
210
0.0
220
0.0
230
1.0
 70
    12
 71
     2
 72
     6
 73
     3
 74
     0
 42
0.0000000001
 43
0.0000000001
 40
7.802819137906116
 40
7.802819137906116
 40
7.802819137906116
 40
27.36041092005328
 40
27.36041092005328
 40
27.36041092005328
 10
295.8547980587501
 20
407.2906095585246
 30
0.0
 41
1.208735606485532
 10
293.6047980607397
 20
403.3934952436607
 30
0.0
 41
1.395727655407905
 10
295.8547980593793
 20
399.4963809285246
 30
0.0
 41
1.208735606440241
  0
SPLINE
  5
2883
330
1F
100
AcDbEntity
  8
AM_VIS
100
AcDbSpline
210
0.0
220
0.0
230
1.0
 70
    12
 71
     2
 72
     6
 73
     3
 74
     0
 42
0.0000000001
 43
0.0000000001
 40
7.802819130927051
 40
7.802819130927051
 40
7.802819130927051
 40
27.36041092004651
 40
27.36041092004651
 40
27.36041092004651
 10
295.8547980593793
 20
399.4963809285245
 30
0.0
 41
1.208735606464541
 10
293.6047980582
 20
391.7021522922744
 30
0.0
 41
1.395727655704816
 10
295.8547980564926
 20
383.9079236585245
 30
0.0
 41
1.20873560667231
  0
LINE
  5
2884
330
1F
100
AcDbEntity
  8
AM_VIS
100
AcDbLine
 10
297.8659050558618
 20
399.4963809285246
 30
0.0
 11
295.8547980593793
 21
399.4963809285246
 31
0.0
  0
SPLINE
  5
2885
330
1F
100
AcDbEntity
  8
AM_VIS
100
AcDbSpline
210
0.0
220
0.0
230
1.0
 70
    12
 71
     2
 72
     6
 73
     3
 74
     0
 42
0.0000000001
 43
0.0000000001
 40
7.802819134611421
 40
7.802819134611421
 40
7.802819134611421
 40
27.36041092372489
 40
27.36041092372489
 40
27.36041092372489
 10
295.8547980564926
 20
383.9079236585245
 30
0.0
 41
1.208735606710154
 10
293.6047980553271
 20
380.0108093427634
 30
0.0
 41
1.395727656063367
 10
295.8547980529764
 20
376.1136950285244
 30
0.0
 41
1.208735606963213
  0
LINE
  5
2886
330
1F
100
AcDbEntity
  8
AM_VIS
100
AcDbLine
 10
297.8659050587486
 20
383.9079236585245
 30
0.0
 11
295.8547980564926
 21
383.9079236585245
 31
0.0
  0
LINE
  5
2887
330
1F
100
AcDbEntity
  8
AM_VIS
100
AcDbLine
 10
297.8659050622646
 20
376.1136950285246
 30
0.0
 11
295.8547980529766
 21
376.1136950285246
 31
0.0
  0
SPLINE
  5
2888
330
1F
100
AcDbEntity
  8
AM_VIS
100
AcDbSpline
210
0.0
220
0.0
230
1.0
 70
    12
 71
     2
 72
     6
 73
     3
 74
     0
 42
0.0000000001
 43
0.0000000001
 40
9.184371108675751
 40
9.184371108675751
 40
9.184371108675751
 40
29.55618316808382
 40
29.55618316808382
 40
29.55618316808382
 10
297.8659050622646
 20
376.1136950285246
 30
0.0
 41
1.253724484949384
 10
300.115905059914
 20
380.0108093427631
 30
-0.0000000000000036
 41
1.447676337693022
 10
297.8659050587486
 20
383.9079236585245
 30
0.0
 41
1.253724484686906
  0
SPLINE
  5
2889
330
1F
100
AcDbEntity
  8
AM_VIS
100
AcDbSpline
210
0.0
220
0.0
230
1.0
 70
    12
 71
     2
 72
     6
 73
     3
 74
     0
 42
0.0000000001
 43
0.0000000001
 40
9.184371097788462
 40
9.184371097788462
 40
9.184371097788462
 40
29.55618315401098
 40
29.55618315401098
 40
29.55618315401098
 10
297.8659050587486
 20
383.9079236585245
 30
0.0
 41
1.253724484469834
 10
300.1159050570412
 20
391.7021522922747
 30
0.0
 41
1.447676337115798
 10
297.8659050558616
 20
399.4963809285244
 30
0.0
 41
1.253724484254331
  0
SPLINE
  5
288A
330
1F
100
AcDbEntity
  8
AM_VIS
100
AcDbSpline
210
0.0
220
-0.0000000000000005
230
1.0
 70
    12
 71
     2
 72
     6
 73
     3
 74
     0
 42
0.0000000001
 43
0.0000000001
 40
9.184371087081885
 40
9.184371087081885
 40
9.184371087081885
 40
29.55618313324356
 40
29.55618313324356
 40
29.55618313324356
 10
297.8659050558617
 20
399.4963809285245
 30
0.0
 41
1.25372448407357
 10
300.1159050545014
 20
403.3934952436609
 30
0.0
 41
1.447676336628211
 10
297.8659050564911
 20
407.2906095585246
 30
0.0000000000000036
 41
1.253724484120546
  0
LINE
  5
288B
330
1F
100
AcDbEntity
  8
AM_VIS
100
AcDbLine
 10
294.3603515576206
 20
378.7021522885245
 30
0.0
 11
295.8547980529766
 21
376.1136950285246
 31
0.0
  0
LINE
  5
288C
330
1F
100
AcDbEntity
  8
AM_VIS
100
AcDbLine
 10
294.3603515576206
 20
404.7021522885245
 30
0.0
 11
295.8547980587501
 21
407.2906095585245
 31
0.0
  0
LINE
  5
288D
330
1F
100
AcDbEntity
  8
AM_VIS
100
AcDbLine
 10
299.3603515576205
 20
404.7021522885245
 30
0.0
 11
297.8659050564911
 21
407.2906095585246
 31
0.0
  0
LINE
  5
288E
330
1F
100
AcDbEntity
  8
AM_VIS
100
AcDbLine
 10
299.3603515576205
 20
378.7021522885245
 30
0.0
 11
297.8659050622646
 21
376.1136950285246
 31
0.0
  0
LINE
  5
288F
330
1F
100
AcDbEntity
  8
AM_VIS
100
AcDbLine
 10
294.3603515576206
 20
404.7021522885245
 30
0.0
 11
294.3603515576206
 21
378.7021522885245
 31
0.0
  0
LINE
  5
2890
330
1F
100
AcDbEntity
  8
AM_VIS
100
AcDbLine
 10
299.3603515576205
 20
378.7021522885245
 30
0.0
 11
299.3603515576205
 21
404.7021522885245
 31
0.0
  0
LINE
  5
2893
330
1F
100
AcDbEntity
  8
AM_VIS
100
AcDbLine
 10
290.3603515576206
 20
394.7021522885245
 30
0.0
 11
277.0603515576206
 21
394.7021522885245
 31
0.0
  0
LINE
  5
2894
330
1F
100
AcDbEntity
  8
AM_VIS
100
AcDbLine
 10
290.3603515576206
 20
388.7021522885246
 30
0.0
 11
277.0603515576206
 21
388.7021522885246
 31
0.0
  0
LINE
  5
2895
330
1F
100
AcDbEntity
  8
AM_VIS
100
AcDbLine
 10
276.3603515576205
 20
389.4021522885245
 30
0.0
 11
277.0603515576206
 21
388.7021522885246
 31
0.0
  0
LINE
  5
2896
330
1F
100
AcDbEntity
  8
AM_VIS
100
AcDbLine
 10
276.3603515576206
 20
394.0021522885245
 30
0.0
 11
277.0603515576206
 21
394.7021522885245
 31
0.0
  0
LINE
  5
2899
102
{ACAD_REACTORS
330
3006
102
}
330
1F
100
AcDbEntity
  8
AM_VIS
100
AcDbLine
 10
277.0603515576206
 20
394.7021522885245
 30
0.0
 11
277.0603515576206
 21
388.7021522885246
 31
0.0
  0
LINE
  5
289A
330
1F
100
AcDbEntity
  8
AM_VIS
100
AcDbLine
 10
276.3603515576205
 20
389.4021522885245
 30
0.0
 11
276.3603515576205
 21
394.0021522885244
 31
0.0
  0
SPLINE
  5
289C
330
1F
100
AcDbEntity
  8
AM_VIS
100
AcDbSpline
210
0.0
220
-0.0000000000000008
230
1.0
 70
    12
 71
     2
 72
     6
 73
     3
 74
     0
 42
0.0000000001
 43
0.0000000001
 40
10.84214651987418
 40
10.84214651987418
 40
10.84214651987418
 40
24.39041418708929
 40
24.39041418708929
 40
24.39041418708929
 10
311.9943261541208
 20
380.7506103915268
 30
0.0
 41
1.404761904892844
 10
313.096540311161
 20
383.0418982458524
 30
0.0
 41
1.54523809643188
 10
311.9943261541207
 20
385.3331861001781
 30
0.0000000000000036
 41
1.404761904892843
  0
SPLINE
  5
289D
330
1F
100
AcDbEntity
  8
AM_VIS
100
AcDbSpline
210
0.0
220
0.0
230
1.0
 70
    12
 71
     2
 72
     6
 73
     3
 74
     0
 42
0.0000000001
 43
0.0000000001
 40
11.25418109228592
 40
11.25418109228592
 40
11.25418109228592
 40
25.00488674786935
 40
25.00488674786935
 40
25.00488674786935
 10
292.4954368535206
 20
385.3331861001782
 30
0.0
 41
1.423809523946625
 10
291.3932226964801
 20
383.0418982458523
 30
0.0
 41
1.566190477405273
 10
292.4954368535206
 20
380.7506103915266
 30
0.0
 41
1.423809523946624
  0
SPLINE
  5
289E
330
1F
100
AcDbEntity
  8
AM_VIS
100
AcDbSpline
210
0.0
220
-0.0000000000000008
230
1.0
 70
    12
 71
     2
 72
     6
 73
     3
 74
     0
 42
0.0000000001
 43
0.0000000001
 40
11.25418111552803
 40
11.25418111552803
 40
11.25418111552803
 40
25.00488671192068
 40
25.00488671192068
 40
25.00488671192068
 10
292.4954368535206
 20
402.6536941635733
 30
0.0
 41
1.423809523771843
 10
291.3932227055711
 20
400.3624063186967
 30
0.0
 41
1.566190475856649
 10
292.4954368535205
 20
398.07111847382
 30
-0.0000000000000036
 41
1.423809523771843
  0
SPLINE
  5
289F
330
1F
100
AcDbEntity
  8
AM_VIS
100
AcDbSpline
210
0.0
220
0.0
230
1.0
 70
    12
 71
     2
 72
     6
 73
     3
 74
     0
 42
0.0000000001
 43
0.0000000001
 40
10.84214654253812
 40
10.84214654253812
 40
10.84214654253812
 40
24.39041415147971
 40
24.39041415147971
 40
24.39041415147971
 10
311.9943261541207
 20
398.0711184738202
 30
0.0
 41
1.404761904725922
 10
313.09654030207
 20
400.3624063186967
 30
-0.0000000000000036
 41
1.545238094910048
 10
311.9943261541207
 20
402.6536941635734
 30
0.0
 41
1.404761904725922
  0
SPLINE
  5
28A0
330
1F
100
AcDbEntity
  8
AM_VIS
100
AcDbSpline
210
0.0
220
0.0000000000000004
230
-1.0
 70
    12
 71
     2
 72
     6
 73
     3
 74
     0
 42
0.0000000001
 43
0.0000000001
 40
11.25418111051788
 40
11.25418111051788
 40
11.25418111051788
 40
25.00488671966984
 40
25.00488671966984
 40
25.00488671966984
 10
292.4954368535206
 20
396.2847279734805
 30
0.0000000000000036
 41
1.42380952380952
 10
291.3932227036115
 20
391.7021522785246
 30
0.0
 41
1.566190476190476
 10
292.4954368535206
 20
387.1195765835688
 30
0.0
 41
1.423809523809522
  0
SPLINE
  5
28A1
330
1F
100
AcDbEntity
  8
AM_VIS
100
AcDbSpline
210
0.0
220
0.0
230
1.0
 70
    12
 71
     2
 72
     6
 73
     3
 74
     0
 42
0.0000000001
 43
0.0000000001
 40
10.84214653765268
 40
10.84214653765268
 40
10.84214653765268
 40
24.39041415916938
 40
24.39041415916938
 40
24.39041415916938
 10
311.9943261541207
 20
387.1195765835688
 30
0.0
 41
1.404761904761904
 10
313.0965403040307
 20
391.7021522785287
 30
0.0
 41
1.545238095238236
 10
311.9943261541181
 20
396.2847279734897
 30
0.0
 41
1.404761904761621
  0
LINE
  5
28A2
330
1F
100
AcDbEntity
  8
AM_VIS
100
AcDbLine
 10
311.9943261541206
 20
385.3331861001781
 30
0.0
 11
299.3603515576205
 21
385.3331861001781
 31
0.0
  0
LINE
  5
28A3
330
1F
100
AcDbEntity
  8
AM_VIS
100
AcDbLine
 10
294.3603515576206
 20
385.3331861001781
 30
0.0
 11
292.4954368535206
 21
385.3331861001781
 31
0.0
  0
LINE
  5
28A4
330
1F
100
AcDbEntity
  8
AM_VIS
100
AcDbLine
 10
292.4954368535206
 20
387.1195765835687
 30
0.0
 11
294.3603515576206
 21
387.1195765835687
 31
0.0
  0
LINE
  5
28A5
330
1F
100
AcDbEntity
  8
AM_VIS
100
AcDbLine
 10
299.3603515576205
 20
387.1195765835687
 30
0.0
 11
311.9943261541206
 21
387.1195765835687
 31
0.0
  0
LINE
  5
28A6
330
1F
100
AcDbEntity
  8
AM_VIS
100
AcDbLine
 10
292.4954368535206
 20
380.7506103915266
 30
0.0
 11
294.3603515576206
 21
380.7506103915266
 31
0.0
  0
LINE
  5
28A7
330
1F
100
AcDbEntity
  8
AM_VIS
100
AcDbLine
 10
299.3603515576205
 20
380.7506103915266
 30
0.0
 11
311.9943261541206
 21
380.7506103915266
 31
0.0
  0
LINE
  5
28A8
330
1F
100
AcDbEntity
  8
AM_VIS
100
AcDbLine
 10
311.9943261541181
 20
396.2847279734804
 30
0.0
 11
299.3603515576205
 21
396.2847279734804
 31
0.0
  0
LINE
  5
28A9
330
1F
100
AcDbEntity
  8
AM_VIS
100
AcDbLine
 10
294.3603515576206
 20
396.2847279734804
 30
0.0
 11
292.4954368535206
 21
396.2847279734804
 31
0.0
  0
LINE
  5
28AA
330
1F
100
AcDbEntity
  8
AM_VIS
100
AcDbLine
 10
292.4954368535206
 20
398.0711184738201
 30
0.0
 11
294.3603515576206
 21
398.0711184738201
 31
0.0
  0
LINE
  5
28AB
330
1F
100
AcDbEntity
  8
AM_VIS
100
AcDbLine
 10
299.3603515576205
 20
398.0711184738201
 30
0.0
 11
311.9943261541206
 21
398.0711184738201
 31
0.0
  0
LINE
  5
28AC
330
1F
100
AcDbEntity
  8
AM_VIS
100
AcDbLine
 10
311.9943261541206
 20
402.6536941635733
 30
0.0
 11
299.3603515576205
 21
402.6536941635733
 31
0.0
  0
LINE
  5
28AD
330
1F
100
AcDbEntity
  8
AM_VIS
100
AcDbLine
 10
294.3603515576206
 20
402.6536941635733
 30
0.0
 11
292.4954368535206
 21
402.6536941635733
 31
0.0
  0
LINE
  5
28AE
330
1F
100
AcDbEntity
  8
AM_VIS
100
AcDbLine
 10
319.8603515576206
 20
401.2021522785245
 30
0.0
 11
318.8603515576206
 21
401.2021522785245
 31
0.0
  0
LINE
  5
28AF
330
1F
100
AcDbEntity
  8
AM_VIS
100
AcDbLine
 10
319.8603515576206
 20
382.2021522785245
 30
0.0
 11
318.8603515576206
 21
382.2021522785245
 31
0.0
  0
LINE
  5
28B0
330
1F
100
AcDbEntity
  8
AM_VIS
100
AcDbLine
 10
312.8603515576206
 20
401.2021522785245
 30
0.0
 11
311.9943261541206
 21
402.7021522785245
 31
0.0
  0
LINE
  5
28B1
330
1F
100
AcDbEntity
  8
AM_VIS
100
AcDbLine
 10
312.8603515576206
 20
382.2021522785245
 30
0.0
 11
311.9943261541206
 21
380.7021522785245
 31
0.0
  0
LINE
  5
28B2
330
1F
100
AcDbEntity
  8
AM_VIS
100
AcDbLine
 10
317.1603515576206
 20
401.2021522785245
 30
0.0
 11
312.8603515576206
 21
401.2021522785245
 31
0.0
  0
LINE
  5
28B3
330
1F
100
AcDbEntity
  8
AM_VIS
100
AcDbLine
 10
317.1603515576206
 20
382.2021522785245
 30
0.0
 11
312.8603515576206
 21
382.2021522785245
 31
0.0
  0
LINE
  5
28B4
330
1F
100
AcDbEntity
  8
AM_VIS
100
AcDbLine
 10
317.1603515576206
 20
383.2021522785245
 30
0.0
 11
317.4353515576206
 21
383.2021522785245
 31
0.0
  0
LINE
  5
28B5
330
1F
100
AcDbEntity
  8
AM_VIS
100
AcDbLine
 10
318.6853515576205
 20
383.2021522785245
 30
0.0
 11
318.8603515576206
 21
383.2021522785245
 31
0.0
  0
LINE
  5
28B6
330
1F
100
AcDbEntity
  8
AM_VIS
100
AcDbLine
 10
317.1603515576206
 20
400.2021522785245
 30
0.0
 11
317.4353515576206
 21
400.2021522785245
 31
0.0
  0
LINE
  5
28B7
330
1F
100
AcDbEntity
  8
AM_VIS
100
AcDbLine
 10
318.6853515576205
 20
400.2021522785245
 30
0.0
 11
318.8603515576206
 21
400.2021522785245
 31
0.0
  0
LINE
  5
28B8
330
1F
100
AcDbEntity
  8
AM_VIS
100
AcDbLine
 10
290.4603515576206
 20
381.8021522885246
 30
0.0
 11
291.8603515576206
 21
381.8021522885246
 31
0.0
  0
LINE
  5
28B9
330
1F
100
AcDbEntity
  8
AM_VIS
100
AcDbLine
 10
290.4603515576206
 20
401.6021522885244
 30
0.0
 11
291.8603515576206
 21
401.6021522885244
 31
0.0
  0
LINE
  5
28BA
330
1F
100
AcDbEntity
  8
AM_VIS
100
AcDbLine
 10
290.3603515576206
 20
381.9021522885246
 30
0.0
 11
290.4603515576206
 21
381.8021522885246
 31
0.0
  0
LINE
  5
28BB
330
1F
100
AcDbEntity
  8
AM_VIS
100
AcDbLine
 10
290.3603515576206
 20
401.5021522885245
 30
0.0
 11
290.4603515576206
 21
401.6021522885244
 31
0.0
  0
LINE
  5
28BC
330
1F
100
AcDbEntity
  8
AM_VIS
100
AcDbLine
 10
291.8603515532904
 20
381.8021522860245
 30
0.0
 11
292.4954368535206
 21
380.7021522785245
 31
0.0
  0
LINE
  5
28BD
330
1F
100
AcDbEntity
  8
AM_VIS
100
AcDbLine
 10
291.8603515619507
 20
401.6021522860245
 30
0.0
 11
292.4954368535206
 21
402.7021522785245
 31
0.0
  0
LINE
  5
28BE
330
1F
100
AcDbEntity
  8
AM_VIS
100
AcDbLine
 10
292.4954368535206
 20
380.7021522785245
 30
0.0
 11
294.3603515576206
 21
380.7021522785245
 31
0.0
  0
LINE
  5
28BF
330
1F
100
AcDbEntity
  8
AM_VIS
100
AcDbLine
 10
299.3603515576205
 20
380.7021522785245
 30
0.0
 11
311.9943261541206
 21
380.7021522785245
 31
0.0
  0
LINE
  5
28C0
330
1F
100
AcDbEntity
  8
AM_VIS
100
AcDbLine
 10
292.4954368535206
 20
402.7021522785245
 30
0.0
 11
294.3603515576206
 21
402.7021522785245
 31
0.0
  0
LINE
  5
28C1
330
1F
100
AcDbEntity
  8
AM_VIS
100
AcDbLine
 10
299.3603515576205
 20
402.7021522785245
 30
0.0
 11
311.9943261541206
 21
402.7021522785245
 31
0.0
  0
LINE
  5
28C2
330
1F
100
AcDbEntity
  8
AM_VIS
100
AcDbLine
 10
319.8603515576206
 20
401.2021522785245
 30
0.0
 11
319.8603515576206
 21
382.2021522785245
 31
0.0
  0
LINE
  5
28C3
330
1F
100
AcDbEntity
  8
AM_VIS
100
AcDbLine
 10
312.8603515576206
 20
382.2021522785245
 30
0.0
 11
312.8603515576206
 21
401.2021522785245
 31
0.0
  0
LINE
  5
28C4
330
1F
100
AcDbEntity
  8
AM_VIS
100
AcDbLine
 10
317.1603515576206
 20
401.2021522785245
 30
0.0
 11
317.1603515576206
 21
382.2021522785245
 31
0.0
  0
LINE
  5
28C5
330
1F
100
AcDbEntity
  8
AM_VIS
100
AcDbLine
 10
318.8603515576206
 20
382.2021522785245
 30
0.0
 11
318.8603515576206
 21
401.2021522785245
 31
0.0
  0
LINE
  5
28C6
330
1F
100
AcDbEntity
  8
AM_VIS
100
AcDbLine
 10
290.3603515576206
 20
381.9021522885246
 30
0.0
 11
290.3603515576206
 21
401.5021522885245
 31
0.0
  0
LINE
  5
28C7
330
1F
100
AcDbEntity
  8
AM_VIS
100
AcDbLine
 10
291.8603515576206
 20
381.8021522885246
 30
0.0
 11
291.8603515576206
 21
401.6021522885245
 31
0.0
  0
LINE
  5
28C8
330
1F
100
AcDbEntity
  8
AM_VIS
100
AcDbLine
 10
292.4954368535206
 20
387.1195765835687
 30
0.0
 11
292.4954368535206
 21
385.3331861001781
 31
0.0
  0
LINE
  5
28C9
330
1F
100
AcDbEntity
  8
AM_VIS
100
AcDbLine
 10
311.9943261541206
 20
385.3331861001781
 30
0.0
 11
311.9943261541206
 21
387.1195765835687
 31
0.0
  0
LINE
  5
28CA
330
1F
100
AcDbEntity
  8
AM_VIS
100
AcDbLine
 10
292.4954368535206
 20
380.7506103915266
 30
0.0
 11
292.4954368535206
 21
380.7021522785245
 31
0.0
  0
LINE
  5
28CB
330
1F
100
AcDbEntity
  8
AM_VIS
100
AcDbLine
 10
311.9943261541206
 20
380.7021522785245
 30
0.0
 11
311.9943261541206
 21
380.7506103915266
 31
0.0
  0
LINE
  5
28CC
330
1F
100
AcDbEntity
  8
AM_VIS
100
AcDbLine
 10
292.4954368535206
 20
398.0711184738201
 30
0.0
 11
292.4954368535206
 21
396.2847279734804
 31
0.0
  0
LINE
  5
28CD
330
1F
100
AcDbEntity
  8
AM_VIS
100
AcDbLine
 10
311.9943261541206
 20
396.2847279734888
 30
0.0
 11
311.9943261541206
 21
398.0711184738201
 31
0.0
  0
LINE
  5
28CE
330
1F
100
AcDbEntity
  8
AM_VIS
100
AcDbLine
 10
311.9943261541206
 20
402.6536941635733
 30
0.0
 11
311.9943261541206
 21
402.7021522785245
 31
0.0
  0
LINE
  5
28CF
330
1F
100
AcDbEntity
  8
AM_VIS
100
AcDbLine
 10
292.4954368535206
 20
402.7021522785245
 30
0.0
 11
292.4954368535206
 21
402.6536941635733
 31
0.0
  0
LINE
  5
28F7
330
1F
100
AcDbEntity
  8
AM_VIS
100
AcDbLine
 10
230.2276153353099
 20
399.4963809284571
 30
0.0
 11
230.2276153353099
 21
383.9079236584571
 31
0.0
  0
LINE
  5
28F8
330
1F
100
AcDbEntity
  8
AM_VIS
100
AcDbLine
 10
230.2276153353099
 20
399.4963809284571
 30
0.0
 11
243.7276153353099
 21
407.2906095584571
 31
0.0
  0
LINE
  5
28F9
330
1F
100
AcDbEntity
  8
AM_VIS
100
AcDbLine
 10
243.7276153353099
 20
407.2906095584571
 30
0.0
 11
257.2276153353099
 21
399.4963809284571
 31
0.0
  0
LINE
  5
28FA
330
1F
100
AcDbEntity
  8
AM_VIS
100
AcDbLine
 10
257.2276153353099
 20
399.4963809284571
 30
0.0
 11
257.2276153353099
 21
383.907923658457
 31
0.0
  0
LINE
  5
28FB
330
1F
100
AcDbEntity
  8
AM_VIS
100
AcDbLine
 10
243.7276153353099
 20
376.1136950284571
 30
0.0
 11
257.2276153353099
 21
383.907923658457
 31
0.0
  0
LINE
  5
28FC
330
1F
100
AcDbEntity
  8
AM_VIS
100
AcDbLine
 10
230.2276153353099
 20
383.9079236584571
 30
0.0
 11
243.7276153353099
 21
376.1136950284571
 31
0.0
  0
CIRCLE
  5
28FD
330
1F
100
AcDbEntity
  8
AM_VIS
100
AcDbCircle
 10
243.7276153353099
 20
391.7021522884571
 30
0.0
 40
12.99999999999999
  0
CIRCLE
  5
28FE
330
1F
100
AcDbEntity
  8
AM_VIS
100
AcDbCircle
 10
243.7276153353099
 20
391.7021522934571
 30
0.0
 40
11.338
  0
ARC
  5
28FF
330
1F
100
AcDbEntity
  8
AM_VIS
100
AcDbCircle
 10
243.7276153353099
 20
391.7021522934571
 30
0.0
 40
10.338
100
AcDbArc
 50
45.30843202274382
 51
74.69156799355289
  0
ARC
  5
2900
330
1F
100
AcDbEntity
  8
AM_VIS
100
AcDbCircle
 10
243.7276153353099
 20
391.7021522934571
 30
0.0
 40
10.338
100
AcDbArc
 50
345.3084322576779
 51
14.69156774232205
  0
ARC
  5
2901
330
1F
100
AcDbEntity
  8
AM_VIS
100
AcDbCircle
 10
243.7276153353099
 20
391.7021522934571
 30
0.0
 40
10.338
100
AcDbArc
 50
285.3084323849514
 51
314.6915675987534
  0
ARC
  5
2902
330
1F
100
AcDbEntity
  8
AM_VIS
100
AcDbCircle
 10
243.7276153353099
 20
391.7021522934571
 30
0.0
 40
10.338
100
AcDbArc
 50
225.3084324012466
 51
254.6915676150486
  0
ARC
  5
2903
330
1F
100
AcDbEntity
  8
AM_VIS
100
AcDbCircle
 10
243.7276153353099
 20
391.7021522934571
 30
0.0
 40
10.338
100
AcDbArc
 50
165.3084322576779
 51
194.691567742322
  0
ARC
  5
2904
330
1F
100
AcDbEntity
  8
AM_VIS
100
AcDbCircle
 10
243.7276153353099
 20
391.7021522934571
 30
0.0
 40
10.338
100
AcDbArc
 50
105.3084320064439
 51
134.6915679772562
  0
LINE
  5
2905
330
1F
100
AcDbEntity
  8
AM_VIS
100
AcDbLine
 10
230.2276153353099
 20
399.4963809284571
 30
0.0
 11
230.2276153353099
 21
383.907923658457
 31
0.0
  0
LINE
  5
2906
330
1F
100
AcDbEntity
  8
AM_VIS
100
AcDbLine
 10
230.2276153353099
 20
399.4963809284571
 30
0.0
 11
243.7276153353099
 21
407.290609558457
 31
0.0
  0
LINE
  5
2907
330
1F
100
AcDbEntity
  8
AM_VIS
100
AcDbLine
 10
243.7276153353099
 20
407.290609558457
 30
0.0
 11
257.2276153353099
 21
399.4963809284571
 31
0.0
  0
LINE
  5
2908
330
1F
100
AcDbEntity
  8
AM_VIS
100
AcDbLine
 10
257.2276153353099
 20
399.4963809284571
 30
0.0
 11
257.2276153353099
 21
383.907923658457
 31
0.0
  0
LINE
  5
2909
330
1F
100
AcDbEntity
  8
AM_VIS
100
AcDbLine
 10
243.7276153353099
 20
376.1136950284571
 30
0.0
 11
257.2276153353099
 21
383.907923658457
 31
0.0
  0
LINE
  5
290A
330
1F
100
AcDbEntity
  8
AM_VIS
100
AcDbLine
 10
230.2276153353099
 20
383.907923658457
 30
0.0
 11
243.7276153353099
 21
376.1136950284571
 31
0.0
  0
CIRCLE
  5
290B
330
1F
100
AcDbEntity
  8
AM_VIS
100
AcDbCircle
 10
243.7276153353099
 20
391.7021522884571
 30
0.0
 40
2.5
  0
CIRCLE
  5
290C
330
1F
100
AcDbEntity
  8
AM_VIS
100
AcDbCircle
 10
243.7276153353099
 20
391.7021522884571
 30
0.0
 40
1.799999999999997
  0
CIRCLE
  5
290D
330
1F
100
AcDbEntity
  8
AM_VIS
100
AcDbCircle
 10
243.7276153353099
 20
391.7021522884571
 30
0.0
 40
3.0
  0
CIRCLE
  5
290E
330
1F
100
AcDbEntity
  8
AM_VIS
100
AcDbCircle
 10
243.7276153353099
 20
397.3021522884571
 30
0.0
 40
0.4
  0
CIRCLE
  5
290F
330
1F
100
AcDbEntity
  8
AM_VIS
100
AcDbCircle
 10
243.7276153353099
 20
391.7021522884571
 30
0.0
 40
7.700000000000002
  0
LINE
  5
2910
330
1F
100
AcDbEntity
  8
AM_VIS
100
AcDbLine
 10
244.7589883716168
 20
380.7506104034083
 30
0.0
 11
252.6962422984064
 21
385.3331860931615
 31
0.0
  0
LINE
  5
2911
330
1F
100
AcDbEntity
  8
AM_VIS
100
AcDbLine
 10
234.7589883722134
 20
385.3331860931615
 30
0.0
 11
242.696242299003
 21
380.7506104034083
 31
0.0
  0
LINE
  5
2912
330
1F
100
AcDbEntity
  8
AM_VIS
100
AcDbLine
 10
233.7276153353099
 20
396.2847279834129
 30
0.0
 11
233.7276153353099
 21
387.1195765935013
 31
0.0
  0
LINE
  5
2913
330
1F
100
AcDbEntity
  8
AM_VIS
100
AcDbLine
 10
234.7589883601771
 20
398.0711184668035
 30
0.0
 11
242.6962423196995
 21
402.653694175455
 31
0.0
  0
LINE
  5
2914
330
1F
100
AcDbEntity
  8
AM_VIS
100
AcDbLine
 10
244.7589883509203
 20
402.653694175455
 30
0.0
 11
252.6962423104427
 21
398.0711184668035
 31
0.0
  0
LINE
  5
2915
330
1F
100
AcDbEntity
  8
AM_VIS
100
AcDbLine
 10
253.7276153353099
 20
396.2847279834129
 30
0.0
 11
253.7276153353099
 21
387.1195765935013
 31
0.0
  0
CIRCLE
  5
2916
330
1F
100
AcDbEntity
  8
AM_VIS
100
AcDbCircle
 10
243.7276153353099
 20
391.7021522884571
 30
0.0
 40
9.9
  0
CIRCLE
  5
2917
330
1F
100
AcDbEntity
  8
AM_VIS
100
AcDbCircle
 10
243.7276153353099
 20
391.7021522884571
 30
0.0
 40
9.100000000000001
  0
ARC
  5
2918
330
1F
100
AcDbEntity
  8
AM_VIS
100
AcDbCircle
 10
243.7276153353099
 20
391.7021522884571
 30
0.0
 40
11.0
100
AcDbArc
 50
324.6199772971676
 51
335.3800226713431
  0
ARC
  5
2919
330
1F
100
AcDbEntity
  8
AM_VIS
100
AcDbCircle
 10
243.7276153353099
 20
391.7021522884571
 30
0.0
 40
11.0
100
AcDbArc
 50
264.6199773134652
 51
275.3800226865348
  0
ARC
  5
291A
330
1F
100
AcDbEntity
  8
AM_VIS
100
AcDbCircle
 10
243.7276153353099
 20
391.7021522884571
 30
0.0
 40
11.0
100
AcDbArc
 50
204.6199773286569
 51
215.3800227028324
  0
ARC
  5
291B
330
1F
100
AcDbEntity
  8
AM_VIS
100
AcDbCircle
 10
243.7276153353099
 20
391.7021522884571
 30
0.0
 40
11.0
100
AcDbArc
 50
24.61997732865687
 51
35.38002259455256
  0
ARC
  5
291C
330
1F
100
AcDbEntity
  8
AM_VIS
100
AcDbCircle
 10
243.7276153353099
 20
391.7021522884571
 30
0.0
 40
11.0
100
AcDbArc
 50
84.61997742174528
 51
95.38002257825473
  0
ARC
  5
291D
330
1F
100
AcDbEntity
  8
AM_VIS
100
AcDbCircle
 10
243.7276153353099
 20
391.7021522884571
 30
0.0
 40
11.0
100
AcDbArc
 50
144.6199774054474
 51
155.3800226713431
  0
ARC
  5
291E
330
1F
100
AcDbEntity
  8
AM_4
100
AcDbCircle
 10
243.7895343529972
 20
300.9147422945035
 30
0.0
 40
2.055
100
AcDbArc
 50
259.9999999999982
 51
190.0000000000002
  0
LINE
  5
291F
330
1F
100
AcDbEntity
  8
AM_VIS
100
AcDbLine
 10
239.7895343529972
 20
303.2241433645035
 30
0.0
 11
239.7895343529972
 21
298.6053412145036
 31
0.0
  0
LINE
  5
2920
330
1F
100
AcDbEntity
  8
AM_VIS
100
AcDbLine
 10
239.7895343529972
 20
303.2241433645035
 30
0.0
 11
243.7895343529972
 21
305.5335444445035
 31
0.0
  0
LINE
  5
2921
330
1F
100
AcDbEntity
  8
AM_VIS
100
AcDbLine
 10
243.7895343529972
 20
305.5335444445035
 30
0.0
 11
247.7895343529972
 21
303.2241433645036
 31
0.0
  0
LINE
  5
2922
330
1F
100
AcDbEntity
  8
AM_VIS
100
AcDbLine
 10
247.7895343529972
 20
303.2241433645035
 30
0.0
 11
247.7895343529972
 21
298.6053412145036
 31
0.0
  0
LINE
  5
2923
330
1F
100
AcDbEntity
  8
AM_VIS
100
AcDbLine
 10
243.7895343529972
 20
296.2959401345035
 30
0.0
 11
247.7895343529972
 21
298.6053412145036
 31
0.0
  0
LINE
  5
2924
330
1F
100
AcDbEntity
  8
AM_VIS
100
AcDbLine
 10
239.7895343529972
 20
298.6053412145036
 30
0.0
 11
243.7895343529972
 21
296.2959401345035
 31
0.0
  0
LINE
  5
2925
330
1F
100
AcDbEntity
  8
AM_VIS
100
AcDbLine
 10
239.7895343529972
 20
303.2241433645035
 30
0.0
 11
239.7895343529972
 21
298.6053412145036
 31
0.0
  0
LINE
  5
2926
330
1F
100
AcDbEntity
  8
AM_VIS
100
AcDbLine
 10
239.7895343529972
 20
303.2241433645035
 30
0.0
 11
243.7895343529972
 21
305.5335444445035
 31
0.0
  0
LINE
  5
2927
330
1F
100
AcDbEntity
  8
AM_VIS
100
AcDbLine
 10
243.7895343529972
 20
305.5335444445035
 30
0.0
 11
247.7895343529972
 21
303.2241433645035
 31
0.0
  0
LINE
  5
2928
330
1F
100
AcDbEntity
  8
AM_VIS
100
AcDbLine
 10
247.7895343529972
 20
303.2241433645035
 30
0.0
 11
247.7895343529972
 21
298.6053412145036
 31
0.0
  0
LINE
  5
2929
330
1F
100
AcDbEntity
  8
AM_VIS
100
AcDbLine
 10
243.7895343529972
 20
296.2959401345035
 30
0.0
 11
247.7895343529972
 21
298.6053412145036
 31
0.0
  0
LINE
  5
292A
330
1F
100
AcDbEntity
  8
AM_VIS
100
AcDbLine
 10
239.7895343529972
 20
298.6053412145036
 30
0.0
 11
243.7895343529972
 21
296.2959401345035
 31
0.0
  0
CIRCLE
  5
292B
330
1F
100
AcDbEntity
  8
AM_VIS
100
AcDbCircle
 10
243.7895343529972
 20
300.9147422945035
 30
0.0
 40
3.749999999999998
  0
CIRCLE
  5
292C
330
1F
100
AcDbEntity
  8
AM_VIS
100
AcDbCircle
 10
243.7895343529972
 20
300.9147422895035
 30
0.0
 40
2.767000000000001
  0
LINE
  5
292D
330
1F
100
AcDbEntity
  8
AM_VIS
100
AcDbLine
 10
230.2895343529972
 20
308.7089709345036
 30
0.0
 11
230.2895343529972
 21
293.1205136645036
 31
0.0
  0
LINE
  5
292E
330
1F
100
AcDbEntity
  8
AM_VIS
100
AcDbLine
 10
230.2895343529972
 20
308.7089709345036
 30
0.0
 11
243.7895343529972
 21
316.5031995645035
 31
0.0
  0
LINE
  5
292F
330
1F
100
AcDbEntity
  8
AM_VIS
100
AcDbLine
 10
243.7895343529972
 20
316.5031995645035
 30
0.0
 11
257.2895343529972
 21
308.7089709345036
 31
0.0
  0
LINE
  5
2930
330
1F
100
AcDbEntity
  8
AM_VIS
100
AcDbLine
 10
257.2895343529972
 20
308.7089709345036
 30
0.0
 11
257.2895343529972
 21
293.1205136645036
 31
0.0
  0
LINE
  5
2931
330
1F
100
AcDbEntity
  8
AM_VIS
100
AcDbLine
 10
243.7895343529972
 20
285.3262850345036
 30
0.0
 11
257.2895343529972
 21
293.1205136645036
 31
0.0
  0
LINE
  5
2932
330
1F
100
AcDbEntity
  8
AM_VIS
100
AcDbLine
 10
230.2895343529972
 20
293.1205136645036
 30
0.0
 11
243.7895343529972
 21
285.3262850345036
 31
0.0
  0
CIRCLE
  5
2933
330
1F
100
AcDbEntity
  8
AM_VIS
100
AcDbCircle
 10
243.7895343529972
 20
300.9147422945035
 30
0.0
 40
12.99999999999999
  0
CIRCLE
  5
2934
330
1F
100
AcDbEntity
  8
AM_VIS
100
AcDbCircle
 10
243.7895343529972
 20
300.9147422995035
 30
0.0
 40
11.338
  0
ARC
  5
2935
330
1F
100
AcDbEntity
  8
AM_VIS
100
AcDbCircle
 10
243.7895343529972
 20
300.9147422995035
 30
0.0
 40
10.338
100
AcDbArc
 50
45.30843202274382
 51
74.69156799355289
  0
ARC
  5
2936
330
1F
100
AcDbEntity
  8
AM_VIS
100
AcDbCircle
 10
243.7895343529972
 20
300.9147422995035
 30
0.0
 40
10.338
100
AcDbArc
 50
345.3084322576779
 51
14.69156774232205
  0
ARC
  5
2937
330
1F
100
AcDbEntity
  8
AM_VIS
100
AcDbCircle
 10
243.7895343529972
 20
300.9147422995035
 30
0.0
 40
10.338
100
AcDbArc
 50
285.3084323849514
 51
314.6915675987534
  0
ARC
  5
2938
330
1F
100
AcDbEntity
  8
AM_VIS
100
AcDbCircle
 10
243.7895343529972
 20
300.9147422995035
 30
0.0
 40
10.338
100
AcDbArc
 50
225.3084324012466
 51
254.6915676150486
  0
ARC
  5
2939
330
1F
100
AcDbEntity
  8
AM_VIS
100
AcDbCircle
 10
243.7895343529972
 20
300.9147422995035
 30
0.0
 40
10.338
100
AcDbArc
 50
165.3084322576779
 51
194.691567742322
  0
ARC
  5
293A
330
1F
100
AcDbEntity
  8
AM_VIS
100
AcDbCircle
 10
243.7895343529972
 20
300.9147422995035
 30
0.0
 40
10.338
100
AcDbArc
 50
105.3084320064439
 51
134.6915679772562
  0
LINE
  5
293B
330
1F
100
AcDbEntity
  8
AM_VIS
100
AcDbLine
 10
230.2895343529972
 20
308.7089709345035
 30
0.0
 11
230.2895343529972
 21
293.1205136645036
 31
0.0
  0
LINE
  5
293C
330
1F
100
AcDbEntity
  8
AM_VIS
100
AcDbLine
 10
230.2895343529972
 20
308.7089709345035
 30
0.0
 11
243.7895343529972
 21
316.5031995645035
 31
0.0
  0
LINE
  5
293D
330
1F
100
AcDbEntity
  8
AM_VIS
100
AcDbLine
 10
243.7895343529972
 20
316.5031995645035
 30
0.0
 11
257.2895343529972
 21
308.7089709345035
 31
0.0
  0
LINE
  5
293E
330
1F
100
AcDbEntity
  8
AM_VIS
100
AcDbLine
 10
257.2895343529972
 20
308.7089709345035
 30
0.0
 11
257.2895343529972
 21
293.1205136645035
 31
0.0
  0
LINE
  5
293F
330
1F
100
AcDbEntity
  8
AM_VIS
100
AcDbLine
 10
243.7895343529972
 20
285.3262850345036
 30
0.0
 11
257.2895343529972
 21
293.1205136645036
 31
0.0
  0
LINE
  5
2940
330
1F
100
AcDbEntity
  8
AM_VIS
100
AcDbLine
 10
230.2895343529972
 20
293.1205136645036
 30
0.0
 11
243.7895343529972
 21
285.3262850345036
 31
0.0
  0
CIRCLE
  5
2941
330
1F
100
AcDbEntity
  8
AM_VIS
100
AcDbCircle
 10
243.7895343529972
 20
300.9147422945035
 30
0.0
 40
2.5
  0
CIRCLE
  5
2942
330
1F
100
AcDbEntity
  8
AM_VIS
100
AcDbCircle
 10
243.7895343529972
 20
300.9147422945035
 30
0.0
 40
1.799999999999997
  0
LINE
  5
2943
330
1F
100
AcDbEntity
  8
AM_VIS
100
AcDbLine
 10
243.6020642501512
 20
306.1632211431851
 30
0.0
 11
243.9770044558432
 21
306.1632211431851
 31
0.0
  0
CIRCLE
  5
2944
330
1F
100
AcDbEntity
  8
AM_VIS
100
AcDbCircle
 10
243.7895343529972
 20
306.5147422945035
 30
0.0
 40
0.4
  0
CIRCLE
  5
2945
330
1F
100
AcDbEntity
  8
AM_VIS
100
AcDbCircle
 10
243.7895343529972
 20
300.9147422945035
 30
0.0
 40
7.700000000000002
  0
LINE
  5
2946
330
1F
100
AcDbEntity
  8
AM_VIS
100
AcDbLine
 10
244.8209073893041
 20
289.9632004094547
 30
0.0
 11
252.7581613160937
 21
294.545776099208
 31
0.0
  0
LINE
  5
2947
330
1F
100
AcDbEntity
  8
AM_VIS
100
AcDbLine
 10
234.8209073899006
 20
294.545776099208
 30
0.0
 11
242.7581613166903
 21
289.9632004094547
 31
0.0
  0
LINE
  5
2948
330
1F
100
AcDbEntity
  8
AM_VIS
100
AcDbLine
 10
233.7895343529972
 20
305.4973179894594
 30
0.0
 11
233.7895343529972
 21
296.3321665995477
 31
0.0
  0
LINE
  5
2949
330
1F
100
AcDbEntity
  8
AM_VIS
100
AcDbLine
 10
234.8209073778644
 20
307.2837084728499
 30
0.0
 11
242.7581613373868
 21
311.8662841815015
 31
0.0
  0
LINE
  5
294A
330
1F
100
AcDbEntity
  8
AM_VIS
100
AcDbLine
 10
244.8209073686076
 20
311.8662841815015
 30
0.0
 11
252.75816132813
 21
307.2837084728499
 31
0.0
  0
LINE
  5
294B
330
1F
100
AcDbEntity
  8
AM_VIS
100
AcDbLine
 10
253.7895343529972
 20
305.4973179894594
 30
0.0
 11
253.7895343529972
 21
296.3321665995477
 31
0.0
  0
CIRCLE
  5
294C
330
1F
100
AcDbEntity
  8
AM_VIS
100
AcDbCircle
 10
243.7895343529972
 20
300.9147422945035
 30
0.0
 40
9.9
  0
CIRCLE
  5
294D
330
1F
100
AcDbEntity
  8
AM_VIS
100
AcDbCircle
 10
243.7895343529972
 20
300.9147422945035
 30
0.0
 40
9.100000000000001
  0
ARC
  5
294E
330
1F
100
AcDbEntity
  8
AM_VIS
100
AcDbCircle
 10
243.7895343529972
 20
300.9147422945035
 30
0.0
 40
11.0
100
AcDbArc
 50
324.6199772971676
 51
335.3800226713431
  0
ARC
  5
294F
330
1F
100
AcDbEntity
  8
AM_VIS
100
AcDbCircle
 10
243.7895343529972
 20
300.9147422945035
 30
0.0
 40
11.0
100
AcDbArc
 50
264.6199773134652
 51
275.3800226865348
  0
ARC
  5
2950
330
1F
100
AcDbEntity
  8
AM_VIS
100
AcDbCircle
 10
243.7895343529972
 20
300.9147422945035
 30
0.0
 40
11.0
100
AcDbArc
 50
204.6199773286569
 51
215.3800227028324
  0
ARC
  5
2951
330
1F
100
AcDbEntity
  8
AM_VIS
100
AcDbCircle
 10
243.7895343529972
 20
300.9147422945035
 30
0.0
 40
11.0
100
AcDbArc
 50
24.61997732865687
 51
35.38002259455256
  0
ARC
  5
2952
330
1F
100
AcDbEntity
  8
AM_VIS
100
AcDbCircle
 10
243.7895343529972
 20
300.9147422945035
 30
0.0
 40
11.0
100
AcDbArc
 50
84.61997742174528
 51
95.38002257825473
  0
ARC
  5
2953
330
1F
100
AcDbEntity
  8
AM_VIS
100
AcDbCircle
 10
243.7895343529972
 20
300.9147422945035
 30
0.0
 40
11.0
100
AcDbArc
 50
144.6199774054474
 51
155.3800226713431
  0
LINE
  5
2954
330
1F
100
AcDbEntity
  8
AM_7
100
AcDbLine
 10
243.7276153353099
 20
391.7021522884571
 30
0.0
 11
261.3160726053099
 21
391.7021522884571
 31
0.0
1001
GENIUS_GENOREF_13
1005
295F
  0
LINE
  5
2955
330
1F
100
AcDbEntity
  8
AM_7
100
AcDbLine
 10
243.7276153353099
 20
391.7021522884571
 30
0.0
 11
243.7276153353099
 21
409.290609558457
 31
0.0
1001
GENIUS_GENOREF_13
1005
295F
  0
LINE
  5
2956
330
1F
100
AcDbEntity
  8
AM_7
100
AcDbLine
 10
243.7276153353099
 20
391.7021522884571
 30
0.0
 11
226.1391580653099
 21
391.7021522884571
 31
0.0
1001
GENIUS_GENOREF_13
1005
295F
  0
LINE
  5
2957
330
1F
100
AcDbEntity
  8
AM_7
100
AcDbLine
 10
243.7276153353099
 20
391.7021522884571
 30
0.0
 11
243.7276153353099
 21
374.1136950184571
 31
0.0
1001
GENIUS_GENOREF_13
1005
295F
  0
LINE
  5
2958
330
1F
100
AcDbEntity
  8
AM_7
100
AcDbLine
 10
243.7895343529972
 20
300.9147422895035
 30
0.0
 11
261.3779916279972
 21
300.9147422895035
 31
0.0
1001
GENIUS_GENOREF_13
1005
295E
  0
LINE
  5
2959
330
1F
100
AcDbEntity
  8
AM_7
100
AcDbLine
 10
243.7895343529972
 20
300.9147422895035
 30
0.0
 11
243.7895343529972
 21
318.5031995645035
 31
0.0
1001
GENIUS_GENOREF_13
1005
295E
  0
LINE
  5
295A
330
1F
100
AcDbEntity
  8
AM_7
100
AcDbLine
 10
243.7895343529972
 20
300.9147422895035
 30
0.0
 11
226.2010770779972
 21
300.9147422895035
 31
0.0
1001
GENIUS_GENOREF_13
1005
295E
  0
LINE
  5
295B
330
1F
100
AcDbEntity
  8
AM_7
100
AcDbLine
 10
243.7895343529972
 20
300.9147422895035
 30
0.0
 11
243.7895343529972
 21
283.3262850145035
 31
0.0
1001
GENIUS_GENOREF_13
1005
295E
  0
DIMENSION
  5
295C
330
1F
100
AcDbEntity
  8
AM_5
100
AcDbDimension
  2
*D19
 10
257.2895343529972
 20
277.3262850345036
 30
0.0
 11
243.7895343529972
 21
279.7766295226925
 31
0.0
 70
    32
 71
     5
 42
26.99999999999997
  3
AM_ISO$0
100
AcDbAlignedDimension
 13
230.2895343529972
 23
293.1205136645036
 33
0.0
 14
257.2895343529972
 24
293.1205136645035
 34
0.0
100
AcDbRotatedDimension
1001
ACAD
1000
DSTYLE
1002
{
1070
    40
1040
1.0
1070
   144
1040
1.0
1070
   272
1070
     8
1002
}
  0
POINT
  5
295E
330
1F
100
AcDbEntity
  8
0
 60
     1
100
AcDbPoint
 10
141.1645700842217
 20
-0.000000010600786
 30
0.0
1001
GENIUS_GENOENT_13
1002
{
1000
MYREF
1005
295E
1002
}
1002
{
1000
GRP
1005
0
1002
}
1001
GENIUS_GENOBJ-N-CRS_13
1002
{
1000
OWNER
1000
GEN
1002
}
1001
GENIUS_GENODEF_13
1002
{
1000
HIER
1070
    10
1002
}
1002
{
1000
MANEDIT
1070
     0
1002
}
1002
{
1000
NOSEL
1070
     0
1002
}
1002
{
1000
BEHIND
1070
     0
1002
}
1002
{
1000
OTHER
1070
     0
1002
}
1002
{
1000
REACTOR
1002
}
1001
GENIUS_GENOLIS_13
1002
{
1000
ENT
1005
295B
1005
295A
1005
2959
1005
2958
1002
}
  0
POINT
  5
295F
330
1F
100
AcDbEntity
  8
0
 60
     1
100
AcDbPoint
 10
141.1645700842217
 20
-0.000000010600786
 30
0.0
1001
GENIUS_GENOLIS_13
1002
{
1000
ENT
1005
2957
1005
2956
1005
2955
1005
2954
1002
}
1001
GENIUS_GENOENT_13
1002
{
1000
MYREF
1005
295F
1002
}
1002
{
1000
GRP
1005
0
1002
}
1001
GENIUS_GENOBJ-N-CRS_13
1002
{
1000
OWNER
1000
GEN
1002
}
1001
GENIUS_GENODEF_13
1002
{
1000
HIER
1070
    10
1002
}
1002
{
1000
MANEDIT
1070
     0
1002
}
1002
{
1000
NOSEL
1070
     0
1002
}
1002
{
1000
BEHIND
1070
     0
1002
}
1002
{
1000
OTHER
1070
     0
1002
}
1002
{
1000
REACTOR
1002
}
  0
LINE
  5
2996
330
1F
100
AcDbEntity
  8
AM_7
100
AcDbLine
 10
274.3603515576205
 20
391.7021522890579
 30
0.0
 11
321.8603515576206
 21
391.7021522779912
 31
0.0
1001
GENIUS_GENOBJ-N-CEN_13
1002
{
1000
OWNER
1000
GEN
1002
}
1001
GENIUS_GENODEF_13
1002
{
1000
HIER
1070
     0
1002
}
1002
{
1000
MANEDIT
1070
     0
1002
}
1002
{
1000
NOSEL
1070
     0
1002
}
1002
{
1000
BEHIND
1070
     0
1002
}
1002
{
1000
OTHER
1070
     0
1002
}
1002
{
1000
REACTOR
1002
}
1001
GENIUS_GENCEN_19
1002
{
1040
2.0
1002
}
  0
LINE
  5
29A3
330
1F
100
AcDbEntity
  8
AM_7
100
AcDbLine
 10
274.3603515576205
 20
300.9147422951043
 30
0.0
 11
321.8603515576206
 21
300.9147422840376
 31
0.0
1001
GENIUS_GENODEF_13
1002
{
1000
HIER
1070
     0
1002
}
1002
{
1000
MANEDIT
1070
     0
1002
}
1002
{
1000
NOSEL
1070
     0
1002
}
1002
{
1000
BEHIND
1070
     0
1002
}
1002
{
1000
OTHER
1070
     0
1002
}
1002
{
1000
REACTOR
1002
}
1001
GENIUS_GENOBJ-N-CEN_13
1002
{
1000
OWNER
1000
GEN
1002
}
1001
GENIUS_GENCEN_19
1002
{
1040
2.0
1002
}
  0
LINE
  5
29A4
330
1F
100
AcDbEntity
  8
AM_4
100
AcDbLine
 10
285.7603515576205
 20
302.9697422945708
 30
0.0
 11
288.3603515576206
 21
302.9697422945709
 31
0.0
  0
LINE
  5
29A5
330
1F
100
AcDbEntity
  8
AM_4
100
AcDbLine
 10
285.7603515576205
 20
298.8597422945709
 30
0.0
 11
288.3603515576206
 21
298.8597422945709
 31
0.0
  0
DIMENSION
  5
2A39
330
1F
100
AcDbEntity
  8
AM_5
100
AcDbDimension
  2
*D20
 10
290.3603515576206
 20
360.113695028592
 30
0.0
 11
283.3603515576206
 21
362.5636950285919
 31
0.0
 70
    32
 71
     5
 42
14.0
  3
AM_ISO$0
100
AcDbAlignedDimension
 13
276.3603515576205
 23
389.9021522885919
 33
0.0
 14
290.3603515576206
 24
381.9021522885919
 34
0.0
100
AcDbRotatedDimension
1001
ACAD
1000
DSTYLE
1002
{
1070
    40
1040
1.0
1070
   144
1040
1.0
1070
   272
1070
     8
1002
}
  0
DIMENSION
  5
2A3A
330
1F
100
AcDbEntity
  8
AM_5
100
AcDbDimension
  2
*D21
 10
319.8603515576206
 20
360.113695028592
 30
0.0
 11
305.1103515576206
 21
362.5636950285919
 31
0.0
 70
    32
  1
S
 71
     5
 42
29.5
  3
AM_ISO$0
100
AcDbAlignedDimension
 13
290.3603515576206
 23
381.9021522885919
 33
0.0
 14
319.8603515576206
 24
382.2021522785919
 34
0.0
100
AcDbRotatedDimension
1001
ACAD
1000
DSTYLE
1002
{
1070
    40
1040
1.0
1070
   144
1040
1.0
1070
   272
1070
     8
1002
}
  0
DIMENSION
  5
2A3B
330
1F
100
AcDbEntity
  8
AM_5
100
AcDbDimension
  2
*D22
 10
319.8603515576206
 20
352.1136950285919
 30
0.0
 11
298.1103515576206
 21
354.563695028592
 31
0.0
 70
    32
  1
Z
 71
     5
 42
43.5
  3
AM_ISO$0
100
AcDbAlignedDimension
 13
276.3603515576205
 23
389.9021522885919
 33
0.0
 14
319.8603515576206
 24
382.2021522785919
 34
0.0
100
AcDbRotatedDimension
1001
ACAD
1000
DSTYLE
1002
{
1070
    40
1040
1.0
1070
   144
1040
1.0
1070
   272
1070
     8
1002
}
  0
DIMENSION
  5
2A3C
330
1F
100
AcDbEntity
  8
AM_5
100
AcDbDimension
  2
*D23
 10
331.8603515576206
 20
401.2021522785919
 30
0.0
 11
329.4103515576205
 21
391.702152278592
 31
0.0
 70
    32
  1
%%c<>{}{\C5; d9}
 71
     5
 42
19.0
  3
AM_ISO$0
100
AcDbAlignedDimension
 13
319.8603515576206
 23
382.2021522785919
 33
0.0
 14
319.8603515576206
 24
401.2021522785919
 34
0.0
 50
90.0
100
AcDbRotatedDimension
1001
GENIUS_GENDTOL_13
1000
FitTxt
1000
d9
1000
{$3 $T}
1040
12.0
1001
ACAD
1000
DSTYLE
1002
{
1070
   286
1070
     0
1070
   284
1070
     8
1070
    48
1040
0.1
1070
    47
1040
0.1
1070
   272
1070
     8
1070
   274
1070
     3
1002
}
  0
DIMENSION
  5
2A3D
330
1F
100
AcDbEntity
  8
AM_5
100
AcDbDimension
  2
*D24
 10
312.8603515576206
 20
368.113695028592
 30
0.0
 11
301.6103515576205
 21
370.5636950285919
 31
0.0
 70
    32
  1
F
 71
     5
 42
22.5
  3
AM_ISO$0
100
AcDbAlignedDimension
 13
290.3603515576206
 23
381.9021522885919
 33
0.0
 14
312.8603515576206
 24
382.2021522785919
 34
0.0
100
AcDbRotatedDimension
1001
ACAD
1000
DSTYLE
1002
{
1070
    40
1040
1.0
1070
   144
1040
1.0
1070
   272
1070
     8
1002
}
  0
DIMENSION
  5
2A3E
330
1F
100
AcDbEntity
  8
AM_5
100
AcDbDimension
  2
*D25
 10
257.2895343529972
 20
368.113695028592
 30
0.0
 11
243.7895343529972
 21
370.5640395167809
 31
0.0
 70
    32
 71
     5
 42
26.99999999999997
  3
AM_ISO$0
100
AcDbAlignedDimension
 13
230.2895343529972
 23
383.907923658592
 33
0.0
 14
257.2895343529972
 24
383.9079236585919
 34
0.0
100
AcDbRotatedDimension
1001
ACAD
1000
DSTYLE
1002
{
1070
    40
1040
1.0
1070
   144
1040
1.0
1070
   272
1070
     8
1002
}
  0
INSERT
  5
2A3F
330
1F
100
AcDbEntity
  8
0
100
AcDbBlockReference
  2
A$C0DBE2BE5
 10
310.8603515576206
 20
391.7021522801554
 30
0.0
  0
LINE
  5
2AE1
330
1F
100
AcDbEntity
  8
AM_4
  6
HIDDEN
 48
0.2
100
AcDbLine
 10
315.4168189703183
 20
392.1021522784571
 30
0.0
 11
319.8603515576206
 21
392.1021522784571
 31
0.0
1001
GENIUS_GENODEF_13
1002
{
1000
HIER
1070
     0
1002
}
1002
{
1000
MANEDIT
1070
     0
1002
}
1002
{
1000
NOSEL
1070
     0
1002
}
1002
{
1000
BEHIND
1070
     0
1002
}
1002
{
1000
OTHER
1070
     0
1002
}
1002
{
1000
REACTOR
1002
}
1001
GENIUS_GENOBJ-N-CEN_13
1002
{
1000
OWNER
1000
GEN
1002
}
1001
GENIUS_GENCEN_19
1002
{
1040
2.0
1002
}
  0
LINE
  5
2AE2
330
1F
100
AcDbEntity
  8
AM_4
  6
HIDDEN
 48
0.2
100
AcDbLine
 10
315.4168189703183
 20
391.3021522784571
 30
0.0
 11
319.8603515576206
 21
391.3021522784571
 31
0.0
1001
GENIUS_GENODEF_13
1002
{
1000
HIER
1070
     0
1002
}
1002
{
1000
MANEDIT
1070
     0
1002
}
1002
{
1000
NOSEL
1070
     0
1002
}
1002
{
1000
BEHIND
1070
     0
1002
}
1002
{
1000
OTHER
1070
     0
1002
}
1002
{
1000
REACTOR
1002
}
1001
GENIUS_GENOBJ-N-CEN_13
1002
{
1000
OWNER
1000
GEN
1002
}
1001
GENIUS_GENCEN_19
1002
{
1040
2.0
1002
}
  0
LINE
  5
2AE3
330
1F
100
AcDbEntity
  8
AM_4
  6
HIDDEN
 48
0.2
100
AcDbLine
 10
315.4168189703183
 20
301.3147422845035
 30
0.0
 11
319.8603515576206
 21
301.3147422845035
 31
0.0
1001
GENIUS_GENODEF_13
1002
{
1000
HIER
1070
     0
1002
}
1002
{
1000
MANEDIT
1070
     0
1002
}
1002
{
1000
NOSEL
1070
     0
1002
}
1002
{
1000
BEHIND
1070
     0
1002
}
1002
{
1000
OTHER
1070
     0
1002
}
1002
{
1000
REACTOR
1002
}
1001
GENIUS_GENOBJ-N-CEN_13
1002
{
1000
OWNER
1000
GEN
1002
}
1001
GENIUS_GENCEN_19
1002
{
1040
2.0
1002
}
  0
LINE
  5
2AE4
330
1F
100
AcDbEntity
  8
AM_4
  6
HIDDEN
 48
0.2
100
AcDbLine
 10
315.4168189703183
 20
300.5147422845035
 30
0.0
 11
319.8603515576206
 21
300.5147422845035
 31
0.0
1001
GENIUS_GENODEF_13
1002
{
1000
HIER
1070
     0
1002
}
1002
{
1000
MANEDIT
1070
     0
1002
}
1002
{
1000
NOSEL
1070
     0
1002
}
1002
{
1000
BEHIND
1070
     0
1002
}
1002
{
1000
OTHER
1070
     0
1002
}
1002
{
1000
REACTOR
1002
}
1001
GENIUS_GENOBJ-N-CEN_13
1002
{
1000
OWNER
1000
GEN
1002
}
1001
GENIUS_GENCEN_19
1002
{
1040
2.0
1002
}
  0
DIMENSION
  5
2AE5
330
1F
100
AcDbEntity
  8
AM_5
100
AcDbDimension
  2
*D27
 10
290.3603515576206
 20
269.3262850346384
 30
0.0
 11
283.3603515576206
 21
271.7762850346383
 31
0.0
 70
    32
 71
     5
 42
14.0
  3
AM_ISO$0
100
AcDbAlignedDimension
 13
276.3603515576205
 23
299.1147422946383
 33
0.0
 14
290.3603515576206
 24
291.1147422946383
 34
0.0
100
AcDbRotatedDimension
1001
ACAD
1000
DSTYLE
1002
{
1070
    40
1040
1.0
1070
   144
1040
1.0
1070
   272
1070
     8
1002
}
  0
DIMENSION
  5
2AE6
330
1F
100
AcDbEntity
  8
AM_5
100
AcDbDimension
  2
*D28
 10
319.8603515576206
 20
269.3262850346384
 30
0.0
 11
305.1103515576206
 21
271.7762850346383
 31
0.0
 70
    32
  1
S
 71
     5
 42
29.5
  3
AM_ISO$0
100
AcDbAlignedDimension
 13
290.3603515576206
 23
291.1147422946383
 33
0.0
 14
319.8603515576206
 24
291.4147422846383
 34
0.0
100
AcDbRotatedDimension
1001
ACAD
1000
DSTYLE
1002
{
1070
    40
1040
1.0
1070
   144
1040
1.0
1070
   272
1070
     8
1002
}
  0
DIMENSION
  5
2AE7
330
1F
100
AcDbEntity
  8
AM_5
100
AcDbDimension
  2
*D29
 10
319.8603515576206
 20
261.3262850346384
 30
0.0
 11
298.1103515576206
 21
263.7762850346383
 31
0.0
 70
    32
  1
Z
 71
     5
 42
43.5
  3
AM_ISO$0
100
AcDbAlignedDimension
 13
276.3603515576205
 23
299.1147422946383
 33
0.0
 14
319.8603515576206
 24
291.4147422846383
 34
0.0
100
AcDbRotatedDimension
1001
ACAD
1000
DSTYLE
1002
{
1070
    40
1040
1.0
1070
   144
1040
1.0
1070
   272
1070
     8
1002
}
  0
DIMENSION
  5
2AE8
330
1F
100
AcDbEntity
  8
AM_5
100
AcDbDimension
  2
*D30
 10
331.8603515576206
 20
310.4147422846383
 30
0.0
 11
329.4103515576205
 21
300.9147422846384
 31
0.0
 70
    32
  1
%%c<>{}{\C5; d9}
 71
     5
 42
19.0
  3
AM_ISO$0
100
AcDbAlignedDimension
 13
319.8603515576206
 23
291.4147422846383
 33
0.0
 14
319.8603515576206
 24
310.4147422846383
 34
0.0
 50
90.0
100
AcDbRotatedDimension
1001
GENIUS_GENDTOL_13
1000
FitTxt
1000
d9
1000
{$3 $T}
1040
12.0
1001
ACAD
1000
DSTYLE
1002
{
1070
   286
1070
     0
1070
   284
1070
     8
1070
    48
1040
0.1
1070
    47
1040
0.1
1070
   272
1070
     8
1070
   274
1070
     3
1002
}
  0
DIMENSION
  5
2AE9
330
1F
100
AcDbEntity
  8
AM_5
100
AcDbDimension
  2
*D31
 10
288.3603515576206
 20
277.3262850346384
 30
0.0
 11
282.3603515576206
 21
279.7766295228274
 31
0.0
 70
    32
 71
     5
 42
12.0
  3
AM_ISO$0
100
AcDbAlignedDimension
 13
276.3603515576205
 23
299.1147422946383
 33
0.0
 14
288.3603515576206
 24
298.4147422946384
 34
0.0
100
AcDbRotatedDimension
1001
ACAD
1000
DSTYLE
1002
{
1070
    40
1040
1.0
1070
   144
1040
1.0
1070
   272
1070
     8
1002
}
  0
DIMENSION
  5
2AEA
330
1F
100
AcDbEntity
  8
AM_5
100
AcDbDimension
  2
*D32
 10
312.8603515576206
 20
277.3262850346384
 30
0.0
 11
301.6103515576205
 21
279.7762850346384
 31
0.0
 70
    32
  1
F
 71
     5
 42
22.5
  3
AM_ISO$0
100
AcDbAlignedDimension
 13
290.3603515576206
 23
291.1147422946383
 33
0.0
 14
312.8603515576206
 24
291.4147422846383
 34
0.0
100
AcDbRotatedDimension
1001
ACAD
1000
DSTYLE
1002
{
1070
    40
1040
1.0
1070
   144
1040
1.0
1070
   272
1070
     8
1002
}
  0
TEXT
  5
2AEB
330
1F
100
AcDbEntity
  8
AM_5
100
AcDbText
 10
271.6924366072686
 20
312.3115302306264
 30
0.0
 40
3.0
  1
M5x0.8
100
AcDbText
  0
INSERT
  5
2AEC
330
1F
100
AcDbEntity
  8
AM_5
100
AcDbBlockReference
  2
*S36
 10
0.0
 20
0.0
 30
0.0
  0
INSERT
  5
2AED
330
1F
100
AcDbEntity
  8
0
100
AcDbBlockReference
  2
A$C0DBE2BE5
 10
310.8603515576206
 20
300.9147422862018
 30
0.0
  0
LINE
  5
2C7C
330
1F
100
AcDbEntity
  8
0
100
AcDbLine
 10
111.4736155624861
 20
247.0995972795659
 30
0.0
 11
111.473615562485
 21
233.6595972795664
 31
0.0
  0
LINE
  5
2C7D
330
1F
100
AcDbEntity
  8
0
100
AcDbLine
 10
120.725946663914
 20
247.0995972795659
 30
0.0
 11
120.7259466639149
 21
233.6595972795664
 31
0.0
  0
LINE
  5
2C7E
330
1F
100
AcDbEntity
  8
0
100
AcDbLine
 10
111.4736155624865
 20
233.6595972795662
 30
0.0
 11
143.3612278056382
 21
233.6595972795663
 31
0.0
  0
LINE
  5
2C7F
330
1F
100
AcDbEntity
  8
0
100
AcDbLine
 10
111.4736155624861
 20
243.739597279566
 30
0.0
 11
143.3612278056375
 21
243.7395972795661
 31
0.0
  0
TEXT
  5
2C80
330
1F
100
AcDbEntity
  8
0
100
AcDbText
 10
115.3616341274854
 20
240.9507485979506
 30
0.0
 40
2.10953224323072
  1
5
 41
0.8
  7
CHINESET
 72
     4
 11
115.9241760590135
 21
242.005514719566
 31
0.0
100
AcDbText
  0
TEXT
  5
2C81
330
1F
100
AcDbEntity
  8
0
100
AcDbText
 10
113.1646517772077
 20
244.5524902976601
 30
0.0
 40
1.679999999999999
  1
Stroke
 41
0.8
  7
CHINESET
100
AcDbText
  0
TEXT
  5
2C82
330
1F
100
AcDbEntity
  8
0
100
AcDbText
 10
129.5502235051723
 20
240.9681550673102
 30
0.0
 40
2.1
  1
23.5
 41
0.8
  7
CHINESET
100
AcDbText
  0
LINE
  5
2C83
330
1F
100
AcDbEntity
  8
0
100
AcDbLine
 10
111.4736155624861
 20
247.099597279566
 30
0.0
 11
143.3612278056373
 21
247.0995972795661
 31
0.0
  0
INSERT
  5
2C84
330
1F
100
AcDbEntity
  8
0
100
AcDbBlockReference
  2
A$C5ECF147B
 10
111.0228651495551
 20
237.3143486134122
 30
0.0
 41
0.6720000000000255
 42
0.6719999999999971
 43
0.6719999999999999
  0
TEXT
  5
2C85
330
1F
100
AcDbEntity
  8
0
100
AcDbText
 10
131.3427861872926
 20
244.3281550673103
 30
0.0
 40
2.1
  1
S
 41
0.8
  7
CHINESET
100
AcDbText
  0
LINE
  5
2C86
330
1F
100
AcDbEntity
  8
0
100
AcDbLine
 10
143.3612278056378
 20
247.0995972795659
 30
0.0
 11
143.3612278056382
 21
233.6595972795659
 31
0.0
  0
TEXT
  5
2C87
330
1F
100
AcDbEntity
  8
0
100
AcDbText
 10
137.0032538272801
 20
240.96815506731
 30
0.0
 40
2.1
  1
37.5
 41
0.8
  7
CHINESET
100
AcDbText
  0
TEXT
  5
2C88
330
1F
100
AcDbEntity
  8
0
100
AcDbText
 10
139.1642907752765
 20
244.3281550673103
 30
0.0
 40
2.1
  1
Z
 41
0.8
  7
CHINESET
100
AcDbText
  0
LINE
  5
2C89
330
1F
100
AcDbEntity
  8
0
100
AcDbLine
 10
111.4736155624863
 20
240.3795972795661
 30
0.0
 11
143.3612278056378
 21
240.3795972795662
 31
0.0
  0
LINE
  5
2C8A
330
1F
100
AcDbEntity
  8
0
100
AcDbLine
 10
111.4736155624865
 20
237.0195972795662
 30
0.0
 11
143.3612278056379
 21
237.0195972795662
 31
0.0
  0
TEXT
  5
2C8B
330
1F
100
AcDbEntity
  8
0
100
AcDbText
 10
114.7187290628819
 20
237.5907485979507
 30
0.0
 40
2.10953224323072
  1
10
 41
0.8
  7
CHINESET
 72
     4
 11
115.9241760590138
 21
238.6455147195661
 31
0.0
100
AcDbText
  0
TEXT
  5
2C8C
330
1F
100
AcDbEntity
  8
0
100
AcDbText
 10
114.7187290628822
 20
234.2307485979509
 30
0.0
 40
2.10953224323072
  1
15
 41
0.8
  7
CHINESET
 72
     4
 11
115.924176059014
 21
235.2855147195662
 31
0.0
100
AcDbText
  0
TEXT
  5
2C8D
330
1F
100
AcDbEntity
  8
0
100
AcDbText
 10
129.5502235051724
 20
237.6081550673103
 30
0.0
 40
2.1
  1
29.5
 41
0.8
  7
CHINESET
100
AcDbText
  0
TEXT
  5
2C8E
330
1F
100
AcDbEntity
  8
0
100
AcDbText
 10
137.0032538272802
 20
237.6081550673101
 30
0.0
 40
2.1
  1
43.5
 41
0.8
  7
CHINESET
100
AcDbText
  0
TEXT
  5
2C8F
330
1F
100
AcDbEntity
  8
0
100
AcDbText
 10
129.5502235051725
 20
234.2481550673104
 30
0.0
 40
2.1
  1
36
 41
0.8
  7
CHINESET
100
AcDbText
  0
TEXT
  5
2C90
330
1F
100
AcDbEntity
  8
0
100
AcDbText
 10
137.0032538272803
 20
234.2481550673102
 30
0.0
 40
2.1
  1
50
 41
0.8
  7
CHINESET
100
AcDbText
  0
LINE
  5
2C91
330
1F
100
AcDbEntity
  8
0
100
AcDbLine
 10
128.2710403778219
 20
247.0995972795661
 30
0.0
 11
128.2710403778224
 21
233.6595972795662
 31
0.0
  0
TEXT
  5
2C92
330
1F
100
AcDbEntity
  8
0
100
AcDbText
 10
122.1129906227775
 20
240.9681550673101
 30
0.0
 40
2.1
  1
16.5
 41
0.8
  7
CHINESET
100
AcDbText
  0
TEXT
  5
2C93
330
1F
100
AcDbEntity
  8
0
100
AcDbText
 10
123.9055526120447
 20
244.3281550673102
 30
0.0
 40
2.1
  1
F
 41
0.8
  7
CHINESET
100
AcDbText
  0
TEXT
  5
2C94
330
1F
100
AcDbEntity
  8
0
100
AcDbText
 10
122.1129906227776
 20
237.6081550673102
 30
0.0
 40
2.1
  1
22.5
 41
0.8
  7
CHINESET
100
AcDbText
  0
TEXT
  5
2C95
330
1F
100
AcDbEntity
  8
0
100
AcDbText
 10
122.1129906227777
 20
234.2481550673103
 30
0.0
 40
2.1
  1
29
 41
0.8
  7
CHINESET
100
AcDbText
  0
LINE
  5
2C96
330
1F
100
AcDbEntity
  8
0
100
AcDbLine
 10
135.8161340917297
 20
247.0995972795661
 30
0.0
 11
135.8161340917303
 21
233.6595972795663
 31
0.0
  0
LINE
  5
2C9A
330
1F
100
AcDbEntity
  8
0
100
AcDbLine
 10
273.1626946647866
 20
247.0995972690325
 30
0.0
 11
273.1626946647856
 21
233.659597269033
 31
0.0
  0
LINE
  5
2C9B
330
1F
100
AcDbEntity
  8
0
100
AcDbLine
 10
282.4150257662145
 20
247.0995972690325
 30
0.0
 11
282.4150257662154
 21
233.659597269033
 31
0.0
  0
LINE
  5
2C9C
330
1F
100
AcDbEntity
  8
0
100
AcDbLine
 10
273.1626946647871
 20
233.6595972690329
 30
0.0
 11
305.0503069079387
 21
233.6595972690329
 31
0.0
  0
LINE
  5
2C9D
330
1F
100
AcDbEntity
  8
0
100
AcDbLine
 10
273.1626946647866
 20
243.7395972690327
 30
0.0
 11
305.0503069079381
 21
243.7395972690328
 31
0.0
  0
TEXT
  5
2C9E
330
1F
100
AcDbEntity
  8
0
100
AcDbText
 10
277.0507132297859
 20
240.9507485874172
 30
0.0
 40
2.10953224323072
  1
5
 41
0.8
  7
CHINESET
 72
     4
 11
277.6132551613141
 21
242.0055147090326
 31
0.0
100
AcDbText
  0
TEXT
  5
2C9F
330
1F
100
AcDbEntity
  8
0
100
AcDbText
 10
274.8537308795083
 20
244.5524902871267
 30
0.0
 40
1.679999999999999
  1
Stroke
 41
0.8
  7
CHINESET
100
AcDbText
  0
TEXT
  5
2CA0
330
1F
100
AcDbEntity
  8
0
100
AcDbText
 10
291.2393026074728
 20
240.9681550567769
 30
0.0
 40
2.1
  1
23.5
 41
0.8
  7
CHINESET
100
AcDbText
  0
LINE
  5
2CA1
330
1F
100
AcDbEntity
  8
0
100
AcDbLine
 10
273.1626946647866
 20
247.0995972690326
 30
0.0
 11
305.0503069079379
 21
247.0995972690327
 31
0.0
  0
INSERT
  5
2CA2
330
1F
100
AcDbEntity
  8
0
100
AcDbBlockReference
  2
A$C5ECF147B
 10
272.7119442518557
 20
237.3143486028788
 30
0.0
 41
0.6720000000000255
 42
0.6719999999999971
 43
0.6719999999999999
  0
TEXT
  5
2CA3
330
1F
100
AcDbEntity
  8
0
100
AcDbText
 10
293.0318652895931
 20
244.3281550567769
 30
0.0
 40
2.1
  1
S
 41
0.8
  7
CHINESET
100
AcDbText
  0
LINE
  5
2CA4
330
1F
100
AcDbEntity
  8
0
100
AcDbLine
 10
305.0503069079383
 20
247.0995972690325
 30
0.0
 11
305.0503069079387
 21
233.6595972690325
 31
0.0
  0
TEXT
  5
2CA5
330
1F
100
AcDbEntity
  8
0
100
AcDbText
 10
298.6923329295806
 20
240.9681550567766
 30
0.0
 40
2.1
  1
37.5
 41
0.8
  7
CHINESET
100
AcDbText
  0
TEXT
  5
2CA6
330
1F
100
AcDbEntity
  8
0
100
AcDbText
 10
300.853369877577
 20
244.3281550567769
 30
0.0
 40
2.1
  1
Z
 41
0.8
  7
CHINESET
100
AcDbText
  0
LINE
  5
2CA7
330
1F
100
AcDbEntity
  8
0
100
AcDbLine
 10
273.1626946647868
 20
240.3795972690327
 30
0.0
 11
305.0503069079383
 21
240.3795972690328
 31
0.0
  0
LINE
  5
2CA8
330
1F
100
AcDbEntity
  8
0
100
AcDbLine
 10
273.1626946647871
 20
237.0195972690328
 30
0.0
 11
305.0503069079385
 21
237.0195972690329
 31
0.0
  0
TEXT
  5
2CA9
330
1F
100
AcDbEntity
  8
0
100
AcDbText
 10
276.4078081651825
 20
237.5907485874173
 30
0.0
 40
2.10953224323072
  1
10
 41
0.8
  7
CHINESET
 72
     4
 11
277.6132551613143
 21
238.6455147090327
 31
0.0
100
AcDbText
  0
TEXT
  5
2CAA
330
1F
100
AcDbEntity
  8
0
100
AcDbText
 10
276.4078081651827
 20
234.2307485874175
 30
0.0
 40
2.10953224323072
  1
15
 41
0.8
  7
CHINESET
 72
     4
 11
277.6132551613145
 21
235.2855147090329
 31
0.0
100
AcDbText
  0
TEXT
  5
2CAB
330
1F
100
AcDbEntity
  8
0
100
AcDbText
 10
291.239302607473
 20
237.608155056777
 30
0.0
 40
2.1
  1
29.5
 41
0.8
  7
CHINESET
100
AcDbText
  0
TEXT
  5
2CAC
330
1F
100
AcDbEntity
  8
0
100
AcDbText
 10
298.6923329295807
 20
237.6081550567768
 30
0.0
 40
2.1
  1
43.5
 41
0.8
  7
CHINESET
100
AcDbText
  0
TEXT
  5
2CAD
330
1F
100
AcDbEntity
  8
0
100
AcDbText
 10
291.2393026074731
 20
234.2481550567771
 30
0.0
 40
2.1
  1
36
 41
0.8
  7
CHINESET
100
AcDbText
  0
TEXT
  5
2CAE
330
1F
100
AcDbEntity
  8
0
100
AcDbText
 10
298.6923329295809
 20
234.2481550567768
 30
0.0
 40
2.1
  1
50
 41
0.8
  7
CHINESET
100
AcDbText
  0
LINE
  5
2CAF
330
1F
100
AcDbEntity
  8
0
100
AcDbLine
 10
289.9601194801224
 20
247.0995972690327
 30
0.0
 11
289.9601194801229
 21
233.6595972690329
 31
0.0
  0
TEXT
  5
2CB0
330
1F
100
AcDbEntity
  8
0
100
AcDbText
 10
283.802069725078
 20
240.9681550567768
 30
0.0
 40
2.1
  1
16.5
 41
0.8
  7
CHINESET
100
AcDbText
  0
TEXT
  5
2CB1
330
1F
100
AcDbEntity
  8
0
100
AcDbText
 10
285.5946317143453
 20
244.3281550567768
 30
0.0
 40
2.1
  1
F
 41
0.8
  7
CHINESET
100
AcDbText
  0
TEXT
  5
2CB2
330
1F
100
AcDbEntity
  8
0
100
AcDbText
 10
283.8020697250781
 20
237.6081550567769
 30
0.0
 40
2.1
  1
22.5
 41
0.8
  7
CHINESET
100
AcDbText
  0
TEXT
  5
2CB3
330
1F
100
AcDbEntity
  8
0
100
AcDbText
 10
283.8020697250783
 20
234.248155056777
 30
0.0
 40
2.1
  1
29
 41
0.8
  7
CHINESET
100
AcDbText
  0
LINE
  5
2CB4
330
1F
100
AcDbEntity
  8
0
100
AcDbLine
 10
297.5052131940302
 20
247.0995972690328
 30
0.0
 11
297.5052131940308
 21
233.6595972690329
 31
0.0
  0
LINE
  5
2FA2
102
{ACAD_REACTORS
330
2FCB
102
}
330
1F
100
AcDbEntity
  8
AM_VIS
100
AcDbLine
 10
128.67127245532
 20
388.7021522990579
 30
0.0
 11
115.37127245532
 21
388.7021522990579
 31
0.0
  0
DIMENSION
  5
2FBB
102
{ACAD_XDICTIONARY
360
2FCA
102
}
102
{ACAD_REACTORS
330
2FCB
102
}
330
1F
100
AcDbEntity
  8
AM_5
100
AcDbDimension
  2
*D38
 10
108.4214539292427
 20
388.7021522990579
 30
0.0
 11
105.9714539292426
 21
379.6403412754358
 31
0.0
 70
    32
  1
%%c<>
 71
     5
 42
6.000000000000113
  3
AM_ISO$0
100
AcDbAlignedDimension
 13
115.37127245532
 23
394.702152299058
 33
0.0
 14
115.37127245532
 24
388.7021522990579
 34
0.0
 50
90.0
100
AcDbRotatedDimension
1001
ACAD
1000
DSTYLE
1002
{
1070
    40
1040
1.0
1070
   144
1040
1.0
1070
   272
1070
     8
1002
}
  0
DIMENSION
  5
2FF6
102
{ACAD_XDICTIONARY
360
3005
102
}
102
{ACAD_REACTORS
330
3006
102
}
330
1F
100
AcDbEntity
  8
AM_5
100
AcDbDimension
  2
*D39
 10
268.9841953259147
 20
388.7021522885246
 30
0.0
 11
266.5341953259146
 21
379.6403412649025
 31
0.0
 70
    32
  1
%%c<>
 71
     5
 42
6.0
  3
AM_ISO$0
100
AcDbAlignedDimension
 13
277.0603515576206
 23
394.7021522885245
 33
0.0
 14
277.0603515576206
 24
388.7021522885246
 34
0.0
 50
90.0
100
AcDbRotatedDimension
1001
ACAD
1000
DSTYLE
1002
{
1070
    40
1040
1.0
1070
   144
1040
1.0
1070
   272
1070
     8
1002
}
  0
ENDSEC
  0
SECTION
  2
OBJECTS
  0
DICTIONARY
  5
C
330
0
100
AcDbDictionary
281
     1
  3
ACAD_COLOR
350
BE
  3
ACAD_GROUP
350
D
  3
ACAD_LAYOUT
350
1A
  3
ACAD_MATERIAL
350
BD
  3
ACAD_MLINESTYLE
350
17
  3
ACAD_PLOTSETTINGS
350
19
  3
ACAD_PLOTSTYLENAME
350
E
  3
ACAD_TABLESTYLE
350
11A
  3
ACDBHEADERROUNDTRIPXREC
350
3024
  3
AcDbVariableDictionary
350
94
  3
AcmDictionary
350
5B
  3
AMG
350
41
  3
AMGSNAPSETTINGS
350
1B8
  3
DWGPROPS
350
3023
  0
DICTIONARY
  5
3F9
330
2
100
AcDbDictionary
280
     1
281
     1
  3
ACAD_LAYERFILTERS
360
5B7
  3
ACAD_LAYERSTATES
360
A8E
  3
ACLYDICTIONARY
360
5B6
  3
AMLAYER_GROUPCOLORS
360
1B62
  0
DICTIONARY
  5
8F
330
1F
100
AcDbDictionary
280
     1
281
     1
  3
ACAD_SORTENTS
360
194E
  0
DICTIONARY
  5
18F2
330
18F1
100
AcDbDictionary
280
     1
281
     1
  0
DICTIONARY
  5
25BC
330
25B7
100
AcDbDictionary
280
     1
281
     1
  3
ACAD_SORTENTS
360
25BD
  0
DICTIONARY
  5
2FCA
330
2FBB
100
AcDbDictionary
280
     1
281
     1
  3
ACAD_DIMASSOC
360
2FCB
  0
DICTIONARY
  5
3005
330
2FF6
100
AcDbDictionary
280
     1
281
     1
  3
ACAD_DIMASSOC
360
3006
  0
DICTIONARY
  5
BE
102
{ACAD_REACTORS
330
C
102
}
330
C
100
AcDbDictionary
281
     1
  0
DICTIONARY
  5
D
102
{ACAD_REACTORS
330
C
102
}
330
C
100
AcDbDictionary
281
     1
  0
DICTIONARY
  5
1A
102
{ACAD_REACTORS
330
C
102
}
330
C
100
AcDbDictionary
281
     1
  3
Model
350
22
  3
配置1
350
1E
  3
配置2
350
26
  0
DICTIONARY
  5
BD
102
{ACAD_REACTORS
330
C
102
}
330
C
100
AcDbDictionary
281
     1
  0
DICTIONARY
  5
17
102
{ACAD_REACTORS
330
C
102
}
330
C
100
AcDbDictionary
281
     1
  3
Standard
350
18
  0
DICTIONARY
  5
19
102
{ACAD_REACTORS
330
C
102
}
330
C
100
AcDbDictionary
281
     1
  0
ACDBDICTIONARYWDFLT
  5
E
102
{ACAD_REACTORS
330
C
102
}
330
C
100
AcDbDictionary
281
     1
  3
Normal
350
F
100
AcDbDictionaryWithDefault
340
F
  0
DICTIONARY
  5
11A
102
{ACAD_REACTORS
330
C
102
}
330
C
100
AcDbDictionary
281
     1
  3
Standard
350
11B
  0
DICTIONARY
  5
3024
102
{ACAD_REACTORS
330
C
102
}
330
C
100
AcDbDictionary
281
     1
  0
DICTIONARY
  5
94
102
{ACAD_REACTORS
330
C
102
}
330
C
100
AcDbDictionary
281
     1
  3
CTABLESTYLE
350
138
  3
DIMASSOC
350
96
  3
INDEXCTL
350
95
  3
PROJECTNAME
350
2F25
  0
DICTIONARY
  5
5B
102
{ACAD_REACTORS
330
C
102
}
330
C
100
AcDbDictionary
281
     1
  3
AcmBOM
350
1B5
  3
AcmStdDictionary
350
61
  3
AMDTSECTSYM_ARROWCOLOR
350
123
  0
DICTIONARY
  5
41
102
{ACAD_REACTORS
330
C
102
}
330
C
100
AcDbDictionary
281
     1
  0
DICTIONARY
  5
1B8
102
{ACAD_REACTORS
330
C
102
}
330
C
100
AcDbDictionary
281
     1
  0
XRECORD
  5
3023
102
{ACAD_REACTORS
330
C
102
}
330
C
100
AcDbXrecord
280
     1
  1
DWGPROPS COOKIE
  2

  3

  4

  6

  7

  8

  9

300
AmdtFileType=84
301
=
302
=
303
=
304
=
305
=
306
=
307
=
308
=
309
=
 40
0.4019578125
 41
2454111.69355125
 42
2456013.414316216
  1

 90
        1
  0
DICTIONARY
  5
5B7
102
{ACAD_REACTORS
330
3F9
102
}
330
3F9
100
AcDbDictionary
281
     1
  0
DICTIONARY
  5
A8E
102
{ACAD_REACTORS
330
3F9
102
}
330
3F9
100
AcDbDictionary
281
     1
  0
DICTIONARY
  5
5B6
102
{ACAD_REACTORS
330
3F9
102
}
330
3F9
100
AcDbDictionary
281
     1
1001
ACAD
1000
<All
  0
DICTIONARY
  5
1B62
102
{ACAD_REACTORS
330
3F9
102
}
330
3F9
100
AcDbDictionary
280
     1
281
     1
  0
SORTENTSTABLE
  5
194E
102
{ACAD_REACTORS
330
8F
102
}
330
8F
100
AcDbSortentsTable
330
1F
331
2922
  5
2924
331
28CB
  5
28CD
331
288C
  5
288E
331
282D
  5
282F
331
27EE
  5
27F0
331
1E96
  5
1E96
331
2274
  5
2274
331
292A
  5
292C
331
27F6
  5
27F8
331
2894
  5
2896
331
22F0
  5
22F2
331
2424
  5
2424
331
23A5
  5
23A7
331
236E
  5
2370
331
22F8
  5
22FA
331
22B9
  5
22BB
331
232F
  5
2331
331
227C
  5
227C
331
242C
  5
242C
331
23AD
  5
23AF
331
2376
  5
2378
331
2337
  5
2339
331
2300
  5
2302
331
22C1
  5
22C3
331
29A3
  5
29A5
331
1ED5
  5
1ED5
331
2932
  5
2934
331
27FE
  5
2800
331
2284
  5
2284
331
1EDD
  5
1EDD
331
2835
  5
2837
331
289C
  5
289E
331
1EA6
  5
1EA6
331
1E67
  5
1E67
331
23B5
  5
23B7
331
237E
  5
2380
331
233F
  5
2341
331
2308
  5
230A
331
22C9
  5
22CB
331
293A
  5
293C
331
2806
  5
2808
331
228C
  5
228C
331
1EED
  5
1EED
331
283D
  5
283F
331
28A4
  5
28A6
331
1EAE
  5
1EAE
331
1E6F
  5
1E6F
331
28FB
  5
28FD
331
23BD
  5
22AD
331
2386
  5
2388
331
2347
  5
2349
331
2942
  5
2944
331
28AC
  5
28AE
331
2903
  5
2905
331
280E
  5
2810
331
2294
  5
2294
331
1EB6
  5
1EB6
331
1E77
  5
1E77
331
1EF5
  5
1EF5
331
2845
  5
2847
331
294A
  5
294C
331
290B
  5
290D
331
2816
  5
2818
331
27D7
  5
27D9
331
28B4
  5
28B6
331
2310
  5
2312
331
22D1
  5
22D3
331
238E
  5
2390
331
2318
  5
231A
331
22D9
  5
22DB
331
234F
  5
2351
331
25C1
  5
25C1
331
229C
  5
229C
331
1EBE
  5
1EBE
331
23FD
  5
23FD
331
1C90
  5
1C90
331
2357
  5
2359
331
22E1
  5
22E3
331
2320
  5
2322
331
2952
  5
2954
331
2913
  5
2915
331
28BC
  5
28BE
331
281E
  5
2820
331
27DF
  5
27E1
331
22A4
  5
22A4
331
1EC6
  5
1EC6
331
25C9
  5
25C9
331
287D
  5
287F
331
1E87
  5
1E87
331
239E
  5
23A0
331
235F
  5
2361
331
22E9
  5
22EB
331
295A
  5
295C
331
291B
  5
291D
331
28C4
  5
28C6
331
2885
  5
2887
331
27E7
  5
27E9
331
22AC
  5
22AC
331
241D
  5
241D
331
2367
  5
2369
331
1ECE
  5
1ECE
331
2826
  5
2828
331
2923
  5
2925
331
28CC
  5
28CE
331
288D
  5
288F
331
282E
  5
2830
331
27EF
  5
27F1
331
2275
  5
2275
331
292B
  5
292D
331
27F7
  5
27F9
331
2895
  5
2897
331
2328
  5
232B
331
22F1
  5
22F3
331
2425
  5
2425
331
23A6
  5
23A8
331
2330
  5
2332
331
22F9
  5
22FB
331
22BA
  5
22BC
331
236F
  5
2371
331
25A2
  5
25A2
331
227D
  5
227D
331
1ED6
  5
1ED6
331
23AE
  5
23B0
331
2377
  5
2379
331
2338
  5
233A
331
2301
  5
2303
331
22C2
  5
22C4
331
29A4
  5
27D5
331
242D
  5
242D
331
2933
  5
2935
331
27FF
  5
2801
331
2285
  5
2285
331
1EDE
  5
1EDE
331
2836
  5
2838
331
289D
  5
289F
331
1EA7
  5
1EA7
331
1E68
  5
1E68
331
23B6
  5
23B8
331
237F
  5
2381
331
2340
  5
2342
331
2309
  5
230B
331
22CA
  5
22CC
331
293B
  5
293D
331
283E
  5
2840
331
28A5
  5
28A7
331
28FC
  5
28FE
331
228D
  5
228D
331
1EEE
  5
1EEE
331
1EAF
  5
1EAF
331
1E70
  5
1E70
331
2387
  5
2389
331
2807
  5
2809
331
2943
  5
2945
331
28AD
  5
28AF
331
2904
  5
2906
331
280F
  5
2811
331
2295
  5
2295
331
1EB7
  5
1EB7
331
1EF6
  5
1EF6
331
2846
  5
2848
331
294B
  5
294D
331
290C
  5
290E
331
2817
  5
2819
331
28B5
  5
28B7
331
2311
  5
2313
331
2348
  5
234A
331
22D2
  5
22D4
331
2319
  5
231B
331
2350
  5
2352
331
22DA
  5
22DC
331
1E78
  5
1E78
331
25C2
  5
25C2
331
229D
  5
229D
331
1EBF
  5
1EBF
331
27D8
  5
27DA
331
2358
  5
235A
331
2397
  5
2399
331
22E2
  5
22E4
331
2321
  5
2323
331
23FE
  5
23FE
331
2953
  5
2955
331
2914
  5
2916
331
28BD
  5
28BF
331
281F
  5
2821
331
27E0
  5
27E2
331
1EC7
  5
1EC7
331
25CA
  5
25CA
331
287E
  5
2880
331
1E88
  5
1E88
331
239F
  5
23A1
331
2360
  5
2362
331
22EA
  5
22EC
331
295B
  5
295D
331
291C
  5
291E
331
28C5
  5
28C7
331
2886
  5
2888
331
2827
  5
2829
331
22AD
  5
22AE
331
241E
  5
241E
331
1ECF
  5
1ECF
331
27E8
  5
27EA
331
2924
  5
2926
331
28CD
  5
28CF
331
288E
  5
2890
331
27F0
  5
27F2
331
282F
  5
2831
331
2276
  5
2276
331
292C
  5
292E
331
2896
  5
2898
331
2368
  5
236A
331
2329
  5
232C
331
22F2
  5
22F4
331
22B3
  5
22B5
331
2426
  5
2426
331
2370
  5
2372
331
2331
  5
2333
331
22FA
  5
22FC
331
22BB
  5
22BD
331
23A7
  5
23A9
331
27F8
  5
27FA
331
227E
  5
227E
331
1ED7
  5
1ED7
331
1EA0
  5
1EA0
331
2378
  5
237A
331
2339
  5
233B
331
2302
  5
2304
331
22C3
  5
22C5
331
29A5
  5
27D3
331
23AF
  5
23B1
331
2934
  5
2936
331
2800
  5
2802
331
2286
  5
2286
331
1EDF
  5
1EDF
331
2837
  5
2839
331
289E
  5
28A0
331
1EA8
  5
1EA8
331
1E69
  5
1E69
331
23B7
  5
23B9
331
2380
  5
2382
331
2341
  5
2343
331
230A
  5
230C
331
22CB
  5
22CD
331
293C
  5
293E
331
283F
  5
2841
331
28A6
  5
28A8
331
28FD
  5
28FF
331
228E
  5
228E
331
1EEF
  5
1EEF
331
1EB0
  5
1EB0
331
1E71
  5
1E71
331
2808
  5
280A
331
2944
  5
2946
331
28AE
  5
28B0
331
2905
  5
2907
331
2810
  5
2812
331
2296
  5
2296
331
1EF7
  5
1EF7
331
2847
  5
2849
331
294C
  5
294E
331
290D
  5
290F
331
28B6
  5
28B8
331
2388
  5
238A
331
2312
  5
2314
331
2349
  5
234B
331
22D3
  5
22D5
331
1EB8
  5
1EB8
331
1E79
  5
1E79
331
231A
  5
231C
331
2351
  5
2353
331
22DB
  5
22DD
331
2390
  5
2392
331
2818
  5
281A
331
25C3
  5
25C3
331
229E
  5
229E
331
1EC0
  5
1EC0
331
27D9
  5
27DB
331
2359
  5
235B
331
2398
  5
239A
331
22E3
  5
22E5
331
2322
  5
2324
331
2954
  5
2956
331
2915
  5
2917
331
28BE
  5
28C0
331
2820
  5
2822
331
22A6
  5
22A6
331
27E1
  5
27E3
331
1EC8
  5
1EC8
331
2097
  5
2097
331
287F
  5
2881
331
1C9A
  5
1C9A
331
1E89
  5
1E89
331
2361
  5
2363
331
22EB
  5
22ED
331
295C
  5
2996
331
291D
  5
291F
331
28C6
  5
28C8
331
2887
  5
2889
331
2828
  5
282A
331
254D
  5
254D
331
241F
  5
241F
331
22AE
  5
22B0
331
27E9
  5
27EB
331
2925
  5
2927
331
28CE
  5
28F7
331
27F1
  5
27F3
331
288F
  5
2891
331
292D
  5
292F
331
23A0
  5
23A2
331
2369
  5
236B
331
22F3
  5
22F5
331
23A8
  5
23AA
331
2371
  5
2373
331
2332
  5
2334
331
22FB
  5
22FD
331
22BC
  5
22BE
331
2996
  5
29A4
331
2427
  5
2427
331
1ED0
  5
1ED0
331
27F9
  5
27FB
331
2830
  5
2832
331
1ED8
  5
1ED8
331
227F
  5
227F
331
1EA1
  5
1EA1
331
23B0
  5
23B2
331
233A
  5
233C
331
2303
  5
2305
331
22C4
  5
22C6
331
2379
  5
237B
331
2935
  5
2937
331
2801
  5
2803
331
2838
  5
283A
331
2287
  5
2287
331
25AC
  5
25AC
331
289F
  5
28A1
331
1EA9
  5
1EA9
331
1E6A
  5
1E6A
331
23B8
  5
23BA
331
2381
  5
2383
331
2342
  5
2344
331
230B
  5
230D
331
22CC
  5
22CE
331
293D
  5
293F
331
2840
  5
2842
331
28A7
  5
28A9
331
28FE
  5
2900
331
228F
  5
228F
331
1EF0
  5
1EF0
331
1EB1
  5
1EB1
331
1E72
  5
1E72
331
2809
  5
280B
331
2945
  5
2947
331
28AF
  5
28B1
331
2906
  5
2908
331
2811
  5
2813
331
27D2
  5
27D2
331
2297
  5
2297
331
2848
  5
284A
331
294D
  5
294F
331
290E
  5
2910
331
28B7
  5
28B9
331
2389
  5
238B
331
2313
  5
2315
331
234A
  5
234C
331
22D4
  5
22D6
331
1EB9
  5
1EB9
331
1E7A
  5
1E7A
331
231B
  5
231D
331
2352
  5
2354
331
22DC
  5
22DE
331
2391
  5
2393
331
2819
  5
281B
331
25C4
  5
25C4
331
229F
  5
229F
331
1EC1
  5
1EC1
331
27DA
  5
27DC
331
1E82
  5
1E82
331
2399
  5
239B
331
22E4
  5
22E6
331
2323
  5
2325
331
235A
  5
235C
331
2955
  5
2957
331
2916
  5
2918
331
28BF
  5
28C1
331
2821
  5
2823
331
22A7
  5
22A7
331
27E2
  5
27E4
331
1EC9
  5
1EC9
331
2098
  5
2098
331
2880
  5
2882
331
1E8A
  5
1E8A
331
2362
  5
2364
331
22EC
  5
22EE
331
291E
  5
2920
331
28C7
  5
28C9
331
2888
  5
288A
331
2829
  5
282B
331
1E92
  5
1E92
331
22AF
  5
22B3
331
27EA
  5
27EC
331
2926
  5
2928
331
28CF
  5
28F8
331
27F2
  5
27F4
331
2890
  5
2892
331
292E
  5
2930
331
2420
  5
2420
331
23A1
  5
23A3
331
236A
  5
236C
331
232B
  5
232D
331
22F4
  5
22F6
331
22B5
  5
22B7
331
2278
  5
2278
331
23A9
  5
23AB
331
2372
  5
2374
331
2333
  5
2335
331
22FC
  5
22FE
331
22BD
  5
22BF
331
1E9A
  5
1E9A
331
1ED1
  5
1ED1
331
27FA
  5
27FC
331
2280
  5
2280
331
1ED9
  5
1ED9
331
2831
  5
2833
331
1EA2
  5
1EA2
331
1E63
  5
1E63
331
2430
  5
2430
331
23B1
  5
23B3
331
237A
  5
237C
331
2304
  5
2306
331
22C5
  5
22C7
331
233B
  5
233D
331
2936
  5
2938
331
2802
  5
2804
331
2839
  5
283B
331
2288
  5
2288
331
25AD
  5
25AD
331
28A0
  5
28A2
331
1EAA
  5
1EAA
331
1E6B
  5
1E6B
331
28F7
  5
28F9
331
23B9
  5
23BC
331
2382
  5
2384
331
2343
  5
2345
331
230C
  5
230E
331
22CD
  5
22CF
331
293E
  5
2940
331
2841
  5
2843
331
28A8
  5
28AA
331
28FF
  5
2901
331
2290
  5
2290
331
1EF1
  5
1EF1
331
1EB2
  5
1EB2
331
1E73
  5
1E73
331
280A
  5
280C
331
2946
  5
2948
331
2907
  5
2909
331
28B0
  5
28B2
331
2812
  5
2814
331
27D3
  5
27D4
331
2849
  5
284B
331
294E
  5
2950
331
290F
  5
2911
331
238A
  5
238C
331
23E9
  5
23E9
331
2314
  5
2316
331
234B
  5
234D
331
22D5
  5
22D7
331
2298
  5
2298
331
1EBA
  5
1EBA
331
2353
  5
2355
331
22DD
  5
22DF
331
231C
  5
231E
331
281A
  5
281C
331
22A0
  5
22A0
331
1EC2
  5
1EC2
331
27DB
  5
27DD
331
28B8
  5
28BA
331
1E83
  5
1E83
331
239A
  5
239C
331
22E5
  5
22E7
331
2324
  5
2326
331
235B
  5
235D
331
2956
  5
2958
331
2917
  5
2919
331
28C0
  5
28C2
331
2822
  5
2824
331
27E3
  5
27E5
331
2881
  5
2883
331
1ECA
  5
1ECA
331
1C9C
  5
1C9C
331
1E8B
  5
1E8B
331
2419
  5
2419
331
22ED
  5
22EF
331
22A8
  5
22A8
331
291F
  5
2921
331
28C8
  5
28CA
331
2889
  5
288B
331
282A
  5
282C
331
27EB
  5
27ED
331
2927
  5
2929
331
27F3
  5
27F5
331
292F
  5
2931
331
2421
  5
2421
331
23A2
  5
23A4
331
236B
  5
236D
331
232C
  5
232E
331
22F5
  5
22F7
331
22B6
  5
22B8
331
2279
  5
2279
331
2429
  5
2429
331
23AA
  5
23AC
331
2373
  5
2375
331
2334
  5
2336
331
22FD
  5
22FF
331
22BE
  5
22C0
331
1E9B
  5
1E9B
331
1ED2
  5
1ED2
331
27FB
  5
27FD
331
2281
  5
2281
331
1EDA
  5
1EDA
331
2832
  5
2834
331
2899
  5
289B
331
1EA3
  5
1EA3
331
1E64
  5
1E64
331
23B2
  5
23B4
331
237B
  5
237D
331
233C
  5
233E
331
22C6
  5
22C8
331
2305
  5
2307
331
2937
  5
2939
331
2803
  5
2805
331
2289
  5
2289
331
283A
  5
283C
331
28A1
  5
28A3
331
1EAB
  5
1EAB
331
1E6C
  5
1E6C
331
28F8
  5
28FA
331
23BA
  5
23BD
331
2383
  5
2385
331
2344
  5
2346
331
230D
  5
230F
331
22CE
  5
22D0
331
293F
  5
2941
331
2842
  5
2844
331
28A9
  5
28AB
331
2900
  5
2902
331
280B
  5
280D
331
1EF2
  5
1EF2
331
1EB3
  5
1EB3
331
1E74
  5
1E74
331
2291
  5
2291
331
2947
  5
2949
331
2908
  5
290A
331
28B1
  5
28B3
331
2813
  5
2815
331
27D4
  5
27D6
331
284A
  5
287D
331
294F
  5
2951
331
238B
  5
238D
331
23EA
  5
23EA
331
2315
  5
2317
331
234C
  5
234E
331
22D6
  5
22D8
331
1EBB
  5
1EBB
331
2354
  5
2356
331
22DE
  5
22E0
331
231D
  5
231F
331
2910
  5
2912
331
281B
  5
281D
331
25C6
  5
25C6
331
22A1
  5
22A1
331
1EC3
  5
1EC3
331
27DC
  5
27DE
331
28B9
  5
28BB
331
239B
  5
239D
331
2325
  5
2327
331
235C
  5
235E
331
22E6
  5
22E8
331
2957
  5
2959
331
2918
  5
291A
331
28C1
  5
28C3
331
2823
  5
2825
331
27E4
  5
27E6
331
2882
  5
2884
331
1ECB
  5
1ECB
331
259F
  5
259F
331
1C9D
  5
1C9D
331
1E8C
  5
1E8C
331
241A
  5
241A
331
2364
  5
2366
331
22EE
  5
22F0
331
22A9
  5
22A9
331
2920
  5
2922
331
28C9
  5
28CB
331
288A
  5
288C
331
282B
  5
282D
331
27EC
  5
27EE
331
2928
  5
292A
331
27F4
  5
27F6
331
2422
  5
2422
331
23A3
  5
23A5
331
236C
  5
236E
331
232D
  5
232F
331
22F6
  5
22F8
331
22B7
  5
22B9
331
227A
  5
227A
331
242A
  5
242A
331
23AB
  5
23AD
331
2374
  5
2376
331
2335
  5
2337
331
22FE
  5
2300
331
22BF
  5
22C1
331
1E9C
  5
1E9C
331
1ED3
  5
1ED3
331
2930
  5
2932
331
27FC
  5
27FE
331
2282
  5
2282
331
1EDB
  5
1EDB
331
2833
  5
2835
331
289A
  5
289C
331
1EA4
  5
1EA4
331
1E65
  5
1E65
331
23B3
  5
23B5
331
237C
  5
237E
331
233D
  5
233F
331
2306
  5
2308
331
22C7
  5
22C9
331
2938
  5
293A
331
2804
  5
2806
331
228A
  5
228A
331
283B
  5
283D
331
28A2
  5
28A4
331
1EAC
  5
1EAC
331
1E6D
  5
1E6D
331
28F9
  5
28FB
331
2384
  5
2386
331
2345
  5
2347
331
230E
  5
2310
331
22CF
  5
22D1
331
2940
  5
2942
331
2843
  5
2845
331
28AA
  5
28AC
331
2901
  5
2903
331
280C
  5
280E
331
2292
  5
2292
331
1EB4
  5
1EB4
331
1E75
  5
1E75
331
1EF3
  5
1EF3
331
2948
  5
294A
331
2909
  5
290B
331
28B2
  5
28B4
331
2814
  5
2816
331
27D5
  5
27D7
331
284B
  5
287E
331
23EB
  5
23EB
331
2316
  5
2318
331
234D
  5
234F
331
22D7
  5
22D9
331
229A
  5
229A
331
23FB
  5
23FB
331
1EBC
  5
1EBC
331
1EFB
  5
1EFB
331
2355
  5
2357
331
2394
  5
2396
331
22DF
  5
22E1
331
231E
  5
2320
331
2950
  5
2952
331
2911
  5
2913
331
281C
  5
281E
331
27DD
  5
27DF
331
28BA
  5
28BC
331
22A2
  5
22A2
331
1EC4
  5
1EC4
331
1C96
  5
1C96
331
239C
  5
239E
331
2326
  5
2328
331
235D
  5
235F
331
22E7
  5
22E9
331
25C7
  5
25C7
331
2958
  5
295A
331
2919
  5
291B
331
28C2
  5
28C4
331
2824
  5
2826
331
27E5
  5
27E7
331
2883
  5
2885
331
22AA
  5
22AA
331
1C9E
  5
1C9E
331
1E8D
  5
1E8D
331
241B
  5
241B
331
22EF
  5
22F1
331
1ECC
  5
1ECC
331
2921
  5
2923
331
28CA
  5
28CC
331
288B
  5
288D
331
282C
  5
282E
331
27ED
  5
27EF
331
2273
  5
2273
331
2929
  5
292B
331
27F5
  5
27F7
331
2893
  5
2895
331
22B0
  5
22B4
331
2423
  5
2423
331
23A4
  5
23A6
331
236D
  5
236F
331
232E
  5
2330
331
22B8
  5
22BA
331
22F7
  5
22F9
331
227B
  5
227B
331
242B
  5
242B
331
23AC
  5
23AE
331
2375
  5
2377
331
2336
  5
2338
331
22FF
  5
2301
331
22C0
  5
22C2
331
1ED4
  5
1ED4
331
2931
  5
2933
331
27FD
  5
27FF
331
2283
  5
2283
331
1EDC
  5
1EDC
331
2834
  5
2836
331
1EA5
  5
1EA5
331
1E66
  5
1E66
331
23B4
  5
23B6
331
237D
  5
237F
331
233E
  5
2340
331
2307
  5
2309
331
22C8
  5
22CA
331
2939
  5
293B
331
2805
  5
2807
331
228B
  5
228B
331
1EEC
  5
1EEC
331
283C
  5
283E
331
28A3
  5
28A5
331
1EAD
  5
1EAD
331
1E6E
  5
1E6E
331
28FA
  5
28FC
331
23BC
  5
22AF
331
2385
  5
2387
331
2346
  5
2348
331
230F
  5
2311
331
2941
  5
2943
331
2844
  5
2846
331
28AB
  5
28AD
331
2902
  5
2904
331
280D
  5
280F
331
2293
  5
2293
331
1EB5
  5
1EB5
331
1E76
  5
1E76
331
1EF4
  5
1EF4
331
2949
  5
294B
331
290A
  5
290C
331
2815
  5
2817
331
27D6
  5
27D8
331
28B3
  5
28B5
331
22D0
  5
22D2
331
23EC
  5
23EC
331
2317
  5
2319
331
22D8
  5
22DA
331
234E
  5
2350
331
25C0
  5
25C0
331
229B
  5
229B
331
1EBD
  5
1EBD
331
23FC
  5
23FC
331
1E7E
  5
1E7E
331
2356
  5
2358
331
2395
  5
2397
331
22E0
  5
22E2
331
231F
  5
2321
331
2951
  5
2953
331
2912
  5
2914
331
281D
  5
281F
331
27DE
  5
27E0
331
1EC5
  5
1EC5
331
25C8
  5
25C8
331
28BB
  5
28BD
331
239D
  5
239F
331
240C
  5
240C
331
2327
  5
2329
331
235E
  5
2360
331
22E8
  5
22EA
331
2959
  5
295B
331
291A
  5
291C
331
28C3
  5
28C5
331
2825
  5
2827
331
27E6
  5
27E8
331
2884
  5
2886
331
22AB
  5
22AB
331
1E8E
  5
1E8E
331
241C
  5
241C
331
2366
  5
2368
331
1ECD
  5
1ECD
  0
SORTENTSTABLE
  5
25BD
102
{ACAD_REACTORS
330
25BC
102
}
330
25BC
100
AcDbSortentsTable
330
25B7
  0
DIMASSOC
  5
2FCB
102
{ACAD_REACTORS
330
2FCA
102
}
330
2FCA
100
AcDbDimAssoc
330
2FBB
 90
        3
 70
     0
 71
     0
  1
AcDbOsnapPointRef
 72
    13
331
2394
 73
     0
 91
        0
 40
0.0
 10
0.0
 20
0.0
 30
2.000000000000000E+50
 75
     0
  1
AcDbOsnapPointRef
 72
     1
331
2FA2
 73
     0
 91
        0
 40
0.0
 10
0.0
 20
0.0
 30
2.000000000000000E+50
 75
     0
  0
DIMASSOC
  5
3006
102
{ACAD_REACTORS
330
3005
102
}
330
3005
100
AcDbDimAssoc
330
2FF6
 90
        3
 70
     0
 71
     0
  1
AcDbOsnapPointRef
 72
    13
331
2899
 73
     0
 91
        0
 40
0.0
 10
0.0
 20
0.0
 30
2.000000000000000E+50
 75
     0
  1
AcDbOsnapPointRef
 72
     1
331
2899
 73
     0
 91
        0
 40
0.0
 10
0.0
 20
0.0
 30
2.000000000000000E+50
 75
     0
  0
LAYOUT
  5
22
102
{ACAD_XDICTIONARY
360
3027
102
}
102
{ACAD_REACTORS
330
1A
102
}
330
1A
100
AcDbPlotSettings
  1

  2
\\RD\EPSON Stylus C63 Series單色
  4
A4
  6

 40
3.757083177566528
 41
3.757076978683471
 42
3.757080078125
 43
3.757080078125
 44
209.9733276367187
 45
296.9683227539062
 46
0.0
 47
0.0
 48
0.0
 49
0.0
140
0.0
141
0.0
142
1.0
143
0.3405120737814363
 70
 11952
 72
     1
 73
     0
 74
     0
  7
單色出圖.ctb
 75
     0
147
2.936753428137963
148
-2047.07469463503
149
-1261.649717473083
100
AcDbLayout
  1
Model
 70
     1
 71
     0
 10
0.0
 20
0.0
 11
12.0
 21
9.0
 12
0.0
 22
0.0
 32
0.0
 14
0.0
 24
0.0
 34
0.0
 15
0.0
 25
0.0
 35
0.0
146
0.0
 13
0.0
 23
0.0
 33
0.0
 16
1.0
 26
0.0
 36
0.0
 17
0.0
 27
1.0
 37
0.0
 76
     0
330
1F
1001
ACAD_PSEXT
1000
\\RD\EPSON Stylus C63 Series單色
1000
EPSON Stylus C63 Series
1000
\\RD
1000

1070
     0
  0
LAYOUT
  5
1E
102
{ACAD_XDICTIONARY
360
3025
102
}
102
{ACAD_REACTORS
330
1A
102
}
330
1A
100
AcDbPlotSettings
  1

  2

  4

  6

 40
0.0
 41
0.0
 42
0.0
 43
0.0
 44
0.0
 45
0.0
 46
0.0
 47
0.0
 48
0.0
 49
0.0
140
0.0
141
0.0
142
1.0
143
1.0
 70
   688
 72
     0
 73
     0
 74
     5
  7
單色出圖.ctb
 75
    16
147
1.0
148
0.0
149
0.0
100
AcDbLayout
  1
配置1
 70
     1
 71
     1
 10
0.0
 20
0.0
 11
420.0
 21
297.0
 12
0.0
 22
0.0
 32
0.0
 14
1.000000000000000E+20
 24
1.000000000000000E+20
 34
1.000000000000000E+20
 15
-1.000000000000000E+20
 25
-1.000000000000000E+20
 35
-1.000000000000000E+20
146
0.0
 13
0.0
 23
0.0
 33
0.0
 16
1.0
 26
0.0
 36
0.0
 17
0.0
 27
1.0
 37
0.0
 76
     0
330
1B
  0
LAYOUT
  5
26
102
{ACAD_XDICTIONARY
360
3029
102
}
102
{ACAD_REACTORS
330
1A
102
}
330
1A
100
AcDbPlotSettings
  1

  2

  4

  6

 40
0.0
 41
0.0
 42
0.0
 43
0.0
 44
0.0
 45
0.0
 46
0.0
 47
0.0
 48
0.0
 49
0.0
140
0.0
141
0.0
142
1.0
143
1.0
 70
   688
 72
     0
 73
     0
 74
     5
  7
單色出圖.ctb
 75
    16
147
1.0
148
0.0
149
0.0
100
AcDbLayout
  1
配置2
 70
     1
 71
     2
 10
0.0
 20
0.0
 11
12.0
 21
9.0
 12
0.0
 22
0.0
 32
0.0
 14
0.0
 24
0.0
 34
0.0
 15
0.0
 25
0.0
 35
0.0
146
0.0
 13
0.0
 23
0.0
 33
0.0
 16
1.0
 26
0.0
 36
0.0
 17
0.0
 27
1.0
 37
0.0
 76
     0
330
23
  0
MLINESTYLE
  5
18
102
{ACAD_REACTORS
330
17
102
}
330
17
100
AcDbMlineStyle
  2
STANDARD
 70
     0
  3

 62
   256
 51
90.0
 52
90.0
 71
     2
 49
0.5
 62
   256
  6
BYLAYER
 49
-0.5
 62
   256
  6
BYLAYER
  0
ACDBPLACEHOLDER
  5
F
102
{ACAD_REACTORS
330
E
102
}
330
E
  0
TABLESTYLE
  5
11B
102
{ACAD_REACTORS
330
11A
102
}
330
11A
100
AcDbTableStyle
  3
Standard
 70
     0
 71
     0
 40
1.5
 41
1.5
280
     0
281
     0
  7
STANDARD
140
4.5
170
     2
 62
     0
 63
     7
283
     0
274
    -2
284
     1
 64
     0
275
    -2
285
     1
 65
     0
276
    -2
286
     1
 66
     0
277
    -2
287
     1
 67
     0
278
    -2
288
     1
 68
     0
279
    -2
289
     1
 69
     0
  7
STANDARD
140
6.0
170
     5
 62
     0
 63
     7
283
     0
274
    -2
284
     1
 64
     0
275
    -2
285
     1
 65
     0
276
    -2
286
     1
 66
     0
277
    -2
287
     1
 67
     0
278
    -2
288
     1
 68
     0
279
    -2
289
     1
 69
     0
  7
STANDARD
140
4.5
170
     5
 62
     0
 63
     7
283
     0
274
    -2
284
     1
 64
     0
275
    -2
285
     1
 65
     0
276
    -2
286
     1
 66
     0
277
    -2
287
     1
 67
     0
278
    -2
288
     1
 68
     0
279
    -2
289
     1
 69
     0
  0
DICTIONARYVAR
  5
138
102
{ACAD_REACTORS
330
94
102
}
330
94
100
DictionaryVariables
280
     0
  1
STANDARD
  0
DICTIONARYVAR
  5
96
102
{ACAD_REACTORS
330
94
102
}
330
94
100
DictionaryVariables
280
     0
  1
2
  0
DICTIONARYVAR
  5
95
102
{ACAD_REACTORS
330
94
102
}
330
94
100
DictionaryVariables
280
     0
  1
0
  0
DICTIONARYVAR
  5
2F25
102
{ACAD_REACTORS
330
94
102
}
330
94
100
DictionaryVariables
280
     0
  1

  0
DICTIONARY
  5
1B5
102
{ACAD_REACTORS
330
5B
102
}
330
5B
100
AcDbDictionary
281
     1
  0
DICTIONARY
  5
61
102
{ACAD_REACTORS
330
5B
102
}
330
5B
100
AcDbDictionary
281
     1
  0
XRECORD
  5
123
102
{ACAD_REACTORS
330
5B
102
}
330
5B
100
AcDbXrecord
280
     1
 90
-1023410169
  0
DICTIONARY
  5
3027
330
22
100
AcDbDictionary
280
     1
281
     1
  3
ACAD_XREC_ROUNDTRIP
360
3028
  0
DICTIONARY
  5
3025
330
1E
100
AcDbDictionary
280
     1
281
     1
  3
ACAD_XREC_ROUNDTRIP
360
3026
  0
DICTIONARY
  5
3029
330
26
100
AcDbDictionary
280
     1
281
     1
  3
ACAD_XREC_ROUNDTRIP
360
302A
  0
XRECORD
  5
3028
102
{ACAD_REACTORS
330
3027
102
}
330
3027
100
AcDbXrecord
280
     1
102
SHADEPLOT
 70
     0
102
SHADEPLOTRESLEVEL
 70
     2
102
SHADEPLOTCUSTOMDPI
 70
   300
  0
XRECORD
  5
3026
102
{ACAD_REACTORS
330
3025
102
}
330
3025
100
AcDbXrecord
280
     1
102
SHADEPLOT
 70
     0
102
SHADEPLOTRESLEVEL
 70
     2
102
SHADEPLOTCUSTOMDPI
 70
   300
  0
XRECORD
  5
302A
102
{ACAD_REACTORS
330
3029
102
}
330
3029
100
AcDbXrecord
280
     1
102
SHADEPLOT
 70
     0
102
SHADEPLOTRESLEVEL
 70
     2
102
SHADEPLOTCUSTOMDPI
 70
   300
  0
ENDSEC
  0
EOF
