  0
SECTION
  2
HEADER
  9
$ACADVER
  1
AC1015
  9
$ACADMAINTVER
 70
    20
  9
$DWGCODEPAGE
  3
ANSI_950
  9
$INSBASE
 10
0.0
 20
0.0
 30
0.0
  9
$EXTMIN
 10
36.06811625425257
 20
32.14448620256098
 30
-0.0069980611090728
  9
$EXTMAX
 10
338.5903939495217
 20
252.1663061813059
 30
144.1736985741788
  9
$LIMMIN
 10
0.0
 20
0.0
  9
$LIMMAX
 10
420.0
 20
297.0
  9
$ORTHOMODE
 70
     1
  9
$REGENMODE
 70
     1
  9
$FILLMODE
 70
     1
  9
$QTEXTMODE
 70
     0
  9
$MIRRTEXT
 70
     1
  9
$LTSCALE
 40
1.0
  9
$ATTMODE
 70
     1
  9
$TEXTSIZE
 40
3.0
  9
$TRACEWID
 40
1.0
  9
$TEXTSTYLE
  7
STANDARD
  9
$CLAYER
  8
0
  9
$CELTYPE
  6
ByLayer
  9
$CECOLOR
 62
   256
  9
$CELTSCALE
 40
1.0
  9
$DISPSILH
 70
     0
  9
$DIMSCALE
 40
1.0
  9
$DIMASZ
 40
3.0
  9
$DIMEXO
 40
1.0
  9
$DIMDLI
 40
8.0
  9
$DIMRND
 40
0.0
  9
$DIMDLE
 40
0.0
  9
$DIMEXE
 40
1.5
  9
$DIMTP
 40
0.1
  9
$DIMTM
 40
0.1
  9
$DIMTXT
 40
3.5
  9
$DIMCEN
 40
0.0
  9
$DIMTSZ
 40
0.0
  9
$DIMTOL
 70
     0
  9
$DIMLIM
 70
     0
  9
$DIMTIH
 70
     0
  9
$DIMTOH
 70
     0
  9
$DIMSE1
 70
     0
  9
$DIMSE2
 70
     0
  9
$DIMTAD
 70
     1
  9
$DIMZIN
 70
     8
  9
$DIMBLK
  1

  9
$DIMASO
 70
     1
  9
$DIMSHO
 70
     1
  9
$DIMPOST
  1

  9
$DIMAPOST
  1
"
  9
$DIMALT
 70
     0
  9
$DIMALTD
 70
     2
  9
$DIMALTF
 40
0.0393701
  9
$DIMLFAC
 40
1.0
  9
$DIMTOFL
 70
     1
  9
$DIMTVP
 40
0.0
  9
$DIMTIX
 70
     0
  9
$DIMSOXD
 70
     0
  9
$DIMSAH
 70
     0
  9
$DIMBLK1
  1

  9
$DIMBLK2
  1

  9
$DIMSTYLE
  2
AM_ISO
  9
$DIMCLRD
 70
   256
  9
$DIMCLRE
 70
   256
  9
$DIMCLRT
 70
   256
  9
$DIMTFAC
 40
0.6
  9
$DIMGAP
 40
0.7
  9
$DIMJUST
 70
     0
  9
$DIMSD1
 70
     0
  9
$DIMSD2
 70
     0
  9
$DIMTOLJ
 70
     0
  9
$DIMTZIN
 70
     8
  9
$DIMALTZ
 70
     0
  9
$DIMALTTZ
 70
     0
  9
$DIMUPT
 70
     0
  9
$DIMDEC
 70
     2
  9
$DIMTDEC
 70
     8
  9
$DIMALTU
 70
     2
  9
$DIMALTTD
 70
     2
  9
$DIMTXSTY
  7
STANDARD
  9
$DIMAUNIT
 70
     0
  9
$DIMADEC
 70
     0
  9
$DIMALTRND
 40
0.0
  9
$DIMAZIN
 70
     2
  9
$DIMDSEP
 70
    46
  9
$DIMATFIT
 70
     3
  9
$DIMFRAC
 70
     0
  9
$DIMLDRBLK
  1

  9
$DIMLUNIT
 70
     2
  9
$DIMLWD
 70
    -1
  9
$DIMLWE
 70
    -1
  9
$DIMTMOVE
 70
     0
  9
$LUNITS
 70
     2
  9
$LUPREC
 70
     2
  9
$SKETCHINC
 40
1.0
  9
$FILLETRAD
 40
2.5
  9
$AUNITS
 70
     0
  9
$AUPREC
 70
     0
  9
$MENU
  1
.
  9
$ELEVATION
 40
0.0
  9
$PELEVATION
 40
0.0
  9
$THICKNESS
 40
0.0
  9
$LIMCHECK
 70
     0
  9
$CHAMFERA
 40
0.5
  9
$CHAMFERB
 40
0.5
  9
$CHAMFERC
 40
20.0
  9
$CHAMFERD
 40
0.0
  9
$SKPOLY
 70
     0
  9
$TDCREATE
 40
2454111.693551250
  9
$TDUCREATE
 40
2454111.360217917
  9
$TDUPDATE
 40
2455125.671867859
  9
$TDUUPDATE
 40
2455125.338534525
  9
$TDINDWG
 40
0.4073909375
  9
$TDUSRTIMER
 40
0.4073909375
  9
$USRTIMER
 70
     1
  9
$ANGBASE
 50
0.0
  9
$ANGDIR
 70
     0
  9
$PDMODE
 70
     0
  9
$PDSIZE
 40
0.0
  9
$PLINEWID
 40
0.0
  9
$SPLFRAME
 70
     0
  9
$SPLINETYPE
 70
     6
  9
$SPLINESEGS
 70
     8
  9
$HANDSEED
  5
30D3
  9
$SURFTAB1
 70
     6
  9
$SURFTAB2
 70
     6
  9
$SURFTYPE
 70
     6
  9
$SURFU
 70
     6
  9
$SURFV
 70
     6
  9
$UCSBASE
  2

  9
$UCSNAME
  2

  9
$UCSORG
 10
0.0
 20
0.0
 30
0.0
  9
$UCSXDIR
 10
1.0
 20
0.0
 30
0.0
  9
$UCSYDIR
 10
0.0
 20
1.0
 30
0.0
  9
$UCSORTHOREF
  2

  9
$UCSORTHOVIEW
 70
     0
  9
$UCSORGTOP
 10
0.0
 20
0.0
 30
0.0
  9
$UCSORGBOTTOM
 10
0.0
 20
0.0
 30
0.0
  9
$UCSORGLEFT
 10
0.0
 20
0.0
 30
0.0
  9
$UCSORGRIGHT
 10
0.0
 20
0.0
 30
0.0
  9
$UCSORGFRONT
 10
0.0
 20
0.0
 30
0.0
  9
$UCSORGBACK
 10
0.0
 20
0.0
 30
0.0
  9
$PUCSBASE
  2

  9
$PUCSNAME
  2

  9
$PUCSORG
 10
0.0
 20
0.0
 30
0.0
  9
$PUCSXDIR
 10
1.0
 20
0.0
 30
0.0
  9
$PUCSYDIR
 10
0.0
 20
1.0
 30
0.0
  9
$PUCSORTHOREF
  2

  9
$PUCSORTHOVIEW
 70
     0
  9
$PUCSORGTOP
 10
0.0
 20
0.0
 30
0.0
  9
$PUCSORGBOTTOM
 10
0.0
 20
0.0
 30
0.0
  9
$PUCSORGLEFT
 10
0.0
 20
0.0
 30
0.0
  9
$PUCSORGRIGHT
 10
0.0
 20
0.0
 30
0.0
  9
$PUCSORGFRONT
 10
0.0
 20
0.0
 30
0.0
  9
$PUCSORGBACK
 10
0.0
 20
0.0
 30
0.0
  9
$USERI1
 70
     0
  9
$USERI2
 70
     0
  9
$USERI3
 70
     0
  9
$USERI4
 70
     0
  9
$USERI5
 70
     0
  9
$USERR1
 40
0.0
  9
$USERR2
 40
0.0
  9
$USERR3
 40
0.0
  9
$USERR4
 40
0.0
  9
$USERR5
 40
0.0
  9
$WORLDVIEW
 70
     1
  9
$SHADEDGE
 70
     3
  9
$SHADEDIF
 70
    70
  9
$TILEMODE
 70
     1
  9
$MAXACTVP
 70
    64
  9
$PINSBASE
 10
0.0
 20
0.0
 30
0.0
  9
$PLIMCHECK
 70
     0
  9
$PEXTMIN
 10
1.000000000000000E+20
 20
1.000000000000000E+20
 30
1.000000000000000E+20
  9
$PEXTMAX
 10
-1.000000000000000E+20
 20
-1.000000000000000E+20
 30
-1.000000000000000E+20
  9
$PLIMMIN
 10
0.0
 20
0.0
  9
$PLIMMAX
 10
420.0
 20
297.0
  9
$UNITMODE
 70
     0
  9
$VISRETAIN
 70
     1
  9
$PLINEGEN
 70
     0
  9
$PSLTSCALE
 70
     1
  9
$TREEDEPTH
 70
  3020
  9
$CMLSTYLE
  2
Standard
  9
$CMLJUST
 70
     0
  9
$CMLSCALE
 40
20.0
  9
$PROXYGRAPHICS
 70
     1
  9
$MEASUREMENT
 70
     1
  9
$CELWEIGHT
370
    -1
  9
$ENDCAPS
280
     0
  9
$JOINSTYLE
280
     0
  9
$LWDISPLAY
290
     0
  9
$INSUNITS
 70
     4
  9
$HYPERLINKBASE
  1

  9
$STYLESHEET
  1
彩色出圖.ctb
  9
$XEDIT
290
     1
  9
$CEPSNTYPE
380
     0
  9
$PSTYLEMODE
290
     1
  9
$FINGERPRINTGUID
  2
{9C7769CB-C5EF-408F-B8E4-EFA57DEE5958}
  9
$VERSIONGUID
  2
{76BCF0A7-9BE0-4E58-8BD8-EDC32D25487A}
  9
$EXTNAMES
290
     1
  9
$PSVPSCALE
 40
0.0
  9
$OLESTARTUP
290
     0
  0
ENDSEC
  0
SECTION
  2
CLASSES
  0
CLASS
  1
ACDBDICTIONARYWDFLT
  2
AcDbDictionaryWithDefault
  3
ObjectDBX Classes
 90
        0
280
     0
281
     0
  0
CLASS
  1
ACDBPLACEHOLDER
  2
AcDbPlaceHolder
  3
ObjectDBX Classes
 90
        0
280
     0
281
     0
  0
CLASS
  1
LAYOUT
  2
AcDbLayout
  3
ObjectDBX Classes
 90
        0
280
     0
281
     0
  0
CLASS
  1
ACME_DOCUMENT
  2
AcMeDbDoc
  3
AcMeServices
 90
        0
280
     0
281
     0
  0
CLASS
  1
AMGSETTINGSOBJ
  2
AmgSettingsObj
  3
"AcadM|Product Description: AutoCAD Mechanical 2000|Company: Autodesk"
 90
        0
280
     0
281
     0
  0
CLASS
  1
ACMESCOPE
  2
AcMeScope
  3
AcMeServices
 90
        0
280
     0
281
     0
  0
CLASS
  1
ACMECOMMANDHISTORY
  2
AcMeCommandHistory
  3
AcMeServices
 90
        0
280
     0
281
     0
  0
CLASS
  1
ACIMSYSVARMAN
  2
AcImSysVarManager
  3
AcMeServices
 90
        0
280
     0
281
     0
  0
CLASS
  1
ACIMREALSYSVAR
  2
AcImRealSysVar
  3
AcMeServices
 90
        0
280
     0
281
     0
  0
CLASS
  1
ACIMINTSYSVAR
  2
AcImIntSysVar
  3
AcMeServices
 90
        0
280
     0
281
     0
  0
CLASS
  1
ACMEDRAWINGMAN
  2
AcMeDrawingMan
  3
AcMeServices
 90
        0
280
     0
281
     0
  0
CLASS
  1
ACMEVIEW
  2
AcMeView
  3
AcMeServices
 90
        0
280
     0
281
     0
  0
CLASS
  1
ACDBENTITYCACHE
  2
AcMeEntityCache
  3
AcMeServices
 90
        0
280
     0
281
     0
  0
CLASS
  1
GSMANAGER
  2
AcMeGSManager
  3
AcMeServices
 90
        0
280
     0
281
     0
  0
CLASS
  1
AMDTINTERNALREACTOR
  2
AmdtInternalReactor
  3
AcMeServices
 90
        0
280
     0
281
     0
  0
CLASS
  1
ACMESTATEMGR
  2
AcMeStateMgr
  3
AcMeServices
 90
        0
280
     0
281
     0
  0
CLASS
  1
ACGREFMASTER
  2
AcGrefMaster
  3
AcAttribServices
 90
        0
280
     0
281
     0
  0
CLASS
  1
ACME_DATABASE
  2
AcMeDbDatabase
  3
AcMeServices
 90
        0
280
     0
281
     0
  0
CLASS
  1
ACRFINSADJUSTERMGR
  2
AcRfInsAdjusterMgr
  3
AcMeServices
 90
        0
280
     0
281
     0
  0
CLASS
  1
ACGREFACADMASTER
  2
AcGrefacadMaster
  3
AcGrefServices
 90
        0
280
     0
281
     0
  0
CLASS
  1
AMIMASTER
  2
AmiMaster
  3
AmiServices
 90
        0
280
     0
281
     0
  0
CLASS
  1
ACMDATADICTIONARY
  2
AcmDataDictionary
  3
"AcmSymBB|Product Description: AutoCAD Mechanical 2004 DX|Company: Autodesk"
 90
        0
280
     0
281
     0
  0
CLASS
  1
ACMDATAENTRYBLOCK
  2
AcmDataEntryBlock
  3
"AcmSymBB|Product Description: AutoCAD Mechanical 2004 DX|Company: Autodesk"
 90
        0
280
     0
281
     0
  0
CLASS
  1
ACIMSTRSYSVAR
  2
AcImStrSysVar
  3
AcMeServices
 90
        0
280
     0
281
     0
  0
CLASS
  1
ACMSTANDARDISO
  2
AcmStandardISO
  3
"Amdt_StdImp|Product Description: AutoCAD Mechanical 2004 DX|Company: Autodesk"
 90
        0
280
     0
281
     0
  0
CLASS
  1
AMGOBJPROPCFG
  2
AmgObjPropCfg
  3
"AmgLay|Product Description: AutoCAD Mechanical 2000|Company: Autodesk"
 90
        1
280
     0
281
     0
  0
CLASS
  1
AMDTEDGESTANDARDISO
  2
AmdtEdgeStdISO
  3
"Amdt_StdImp|Product Description: AutoCAD Mechanical 2004 DX|Company: Autodesk"
 90
    32768
280
     0
281
     0
  0
CLASS
  1
ACMSURFSTANDARDISO
  2
AcmSurfTextStdISO
  3
"Amdt_StdImp|Product Description: AutoCAD Mechanical 2004 DX|Company: Autodesk"
 90
        0
280
     0
281
     0
  0
CLASS
  1
ACMFCFSTANDARDISO
  2
AcmFCFStdISO
  3
"Amdt_StdImp|Product Description: AutoCAD Mechanical 2004 DX|Company: Autodesk"
 90
        0
280
     0
281
     0
  0
CLASS
  1
ACMWELDSTANDARDISO
  2
AcmWeldingStdISO
  3
"Amdt_StdImp|Product Description: AutoCAD Mechanical 2004 DX|Company: Autodesk"
 90
        0
280
     0
281
     0
  0
CLASS
  1
ACMIDSTANDARDISO
  2
AcmIdStdISO
  3
"Amdt_StdImp|Product Description: AutoCAD Mechanical 2004 DX|Company: Autodesk"
 90
        0
280
     0
281
     0
  0
CLASS
  1
ACMDATUMSTANDARDISO
  2
AcmDatumStdISO
  3
"Amdt_StdImp|Product Description: AutoCAD Mechanical 2004 DX|Company: Autodesk"
 90
        0
280
     0
281
     0
  0
CLASS
  1
ACMBOMSTANDARDISO
  2
AcmBOMStdISO
  3
"Amdt_StdImp|Product Description: AutoCAD Mechanical 2004 DX|Company: Autodesk"
 90
        0
280
     0
281
     0
  0
CLASS
  1
ACMDETAILSTANDARDISO
  2
AmdtDetailSymStdISO
  3
"Amdt_StdImp|Product Description: AutoCAD Mechanical 2004 DX|Company: Autodesk"
 90
        0
280
     0
281
     0
  0
CLASS
  1
ACMSECTIONSTANDARDISO
  2
AmdtSectionSymStdISO
  3
"Amdt_StdImp|Product Description: AutoCAD Mechanical 2004 DX|Company: Autodesk"
 90
        0
280
     0
281
     0
  0
CLASS
  1
ACMCENTERLINESTANDARDISO
  2
AmdtCenterLineStdISO
  3
"Amdt_StdImp|Product Description: AutoCAD Mechanical 2004 DX|Company: Autodesk"
 90
        0
280
     0
281
     0
  0
CLASS
  1
ACMNOTESTANDARDISO
  2
AmdtNoteStdISO
  3
"Amdt_StdImp|Product Description: AutoCAD Mechanical 2004 DX|Company: Autodesk"
 90
        0
280
     0
281
     0
  0
CLASS
  1
ACAMGLAYSTD
  2
AcAmgLayStd
  3
"AcAmgLayStd|Product Description: AutoCAD Mechanical 2000|Company: Autodesk"
 90
        0
280
     0
281
     0
  0
CLASS
  1
ACAMGDIMSTD
  2
AcAmgDimStd
  3
"AcAmgDimStd|Product Description: AutoCAD Mechanical 2000|Company: Autodesk"
 90
        0
280
     0
281
     0
  0
CLASS
  1
ACAMGHOLECHARTSTDISO
  2
AcAmgHoleChartStdISO
  3
ACMSYMBB_MODULE_NAME
 90
        0
280
     0
281
     0
  0
CLASS
  1
ACAMGTITLESTD
  2
AcAmgTitleStd
  3
"TITLEAPP"
 90
        0
280
     0
281
     0
  0
CLASS
  1
LAYER_INDEX
  2
AcDbLayerIndex
  3
ObjectDBX Classes
 90
        0
280
     0
281
     0
  0
CLASS
  1
IDBUFFER
  2
AcDbIdBuffer
  3
ObjectDBX Classes
 90
        0
280
     0
281
     0
  0
CLASS
  1
DICTIONARYVAR
  2
AcDbDictionaryVar
  3
ObjectDBX Classes
 90
        0
280
     0
281
     0
  0
CLASS
  1
AM_DRAWING_MGR
  2
AcDmDwgMgr
  3
AcMechDwgViewMgmt
 90
        0
280
     0
281
     0
  0
CLASS
  1
AM_DWG_DOCUMENT
  2
AcDmDwgDocument
  3
AcMechDwgViewMgmt
 90
        0
280
     0
281
     0
  0
CLASS
  1
AM_DWG_SHEET
  2
AcDmSheet
  3
AcMechDwgViewMgmt
 90
        0
280
     0
281
     0
  0
CLASS
  1
AM_VIEWDIMPARMAP
  2
AcDmViewDimParMap
  3
AcMechDwgViewMgmt
 90
        0
280
     0
281
     0
  0
CLASS
  1
AM_DWGMGR_NAME
  2
AcDmDwgMgrName
  3
AcMechDwgViewMgmt
 90
        0
280
     0
281
     0
  0
CLASS
  1
AMDTMENUSTATEMGR
  2
AmdtMenuStateMgr
  3
McadcomServices
 90
        0
280
     0
281
     0
  0
CLASS
  1
AMDTMCOMMENUSTATE
  2
AmdtMcomMenuState
  3
McadcomServices
 90
        0
280
     0
281
     0
  0
CLASS
  1
MAPIAMMOUDLE
  2
MApiAmModule
  3
MApiAmServices
 90
        0
280
     0
281
     0
  0
CLASS
  1
AMDTADMENUSTATE
  2
AmdtAdMenuState
  3
DesignerServices
 90
        0
280
     0
281
     0
  0
CLASS
  1
ADAPPL
  2
AcAdAppl
  3
DesignerServices
 90
        0
280
     0
281
     0
  0
CLASS
  1
DEPMGR
  2
AcAdDepMgr
  3
DesignerServices
 90
        0
280
     0
281
     0
  0
CLASS
  1
PARAMMGR
  2
AcAdParamMgr
  3
DesignerServices
 90
        0
280
     0
281
     0
  0
CLASS
  1
PARAMSCOPE
  2
AcAdParamScope
  3
DesignerServices
 90
        0
280
     0
281
     0
  0
CLASS
  1
NAMEDAPPL
  2
AcAdNamedAppl
  3
DesignerServices
 90
        0
280
     0
281
     0
  0
CLASS
  1
AMDTDMMENUSTATE
  2
AmdtDmMenuState
  3
AcMechDwgViewMgmt
 90
        0
280
     0
281
     0
  0
CLASS
  1
AMDTAMMENUSTATE
  2
AmdtAmMenuState
  3
DesignerAssemblies
 90
        0
280
     0
281
     0
  0
CLASS
  1
ACAMPROJECT
  2
AcAmProject
  3
DesignerAssemblies
 90
        0
280
     0
281
     0
  0
CLASS
  1
ACAMGRCOMPDEF
  2
AcAmGrCompDef
  3
DesignerAssemblies
 90
        0
280
     0
281
     0
  0
CLASS
  1
ACCMCONTEXT
  2
AcCmContext
  3
DesignerAssemblies
 90
        0
280
     0
281
     0
  0
CLASS
  1
ACAMCOMPDEF
  2
AcAmCompDef
  3
DesignerAssemblies
 90
        0
280
     0
281
     0
  0
CLASS
  1
ACAMCOMPDEFMGR
  2
AcAmCompDefMgr
  3
DesignerAssemblies
 90
        0
280
     0
281
     0
  0
CLASS
  1
AMCONTEXTMGR
  2
AcAmContextMgr
  3
DesignerAssemblies
 90
        0
280
     0
281
     0
  0
CLASS
  1
ACAMCONTEXTMODELER
  2
AcAmContextModeler
  3
DesignerAssemblies
 90
        0
280
     0
281
     0
  0
CLASS
  1
ACMTHREADLINESTANDARDISO
  2
AmdtThreadLineStdISO
  3
"Amdt_StdImp|Product Description: AutoCAD Mechanical 2004 DX|Company: Autodesk"
 90
        0
280
     0
281
     0
  0
CLASS
  1
CATALOGSTATE
  2
AcAmCatalogState
  3
DesignerAssemblies
 90
        0
280
     0
281
     0
  0
CLASS
  1
ACAMGRCOMPDEFSET
  2
AcAmGrCompDefSet
  3
DesignerAssemblies
 90
        0
280
     0
281
     0
  0
CLASS
  1
AMDTBROWSERDBTAB
  2
AmdtBrowserDbTab
  3
McadcomServices
 90
        0
280
     0
281
     0
  0
CLASS
  1
CBROWSERAPPOBJECT
  2
CBrowserAppObject
  3
McadcomServices
 90
        0
280
     0
281
     0
  0
CLASS
  1
DM_PLACEHOLDER
  2
AcDmSelsetPlaceholder
  3
AcMechDwgViewMgmt
 90
        0
280
     0
281
     0
  0
CLASS
  1
TABLESTYLE
  2
AcDbTableStyle
  3
ObjectDBX Classes
 90
     2047
280
     0
281
     0
  0
CLASS
  1
VAACXREFPANELOBJECT
  2
VaAcXREFPanelObject
  3
VAAC_ADDIN
 90
    32768
280
     0
281
     0
  0
CLASS
  1
VAACIMAGEINVENTORY
  2
VaAcImageInventory
  3
VAAC_ADDIN
 90
    32768
280
     0
281
     0
  0
CLASS
  1
AMDTNOTETEMPLATEDB
  2
AmdtNoteTemplateDB
  3
AMDT_STDIMP_MODULE_NAME
 90
        0
280
     0
281
     0
  0
CLASS
  1
ACMBOM
  2
AcmBom
  3
"AcmSymBB|Product Description: AutoCAD Mechanical 2004 DX|Company: Autodesk"
 90
    32768
280
     0
281
     0
  0
CLASS
  1
AMDTFORMULAUPDATEDISPATCHER
  2
AmdtFormulaUpdateDispatcher
  3
AcMeServices
 90
    32768
280
     0
281
     0
  0
CLASS
  1
ACMPARTLIST
  2
AcmPartList
  3
"AcmSymBB|Product Description: AutoCAD Mechanical 2004 DX|Company: Autodesk"
 90
    33791
280
     0
281
     1
  0
CLASS
  1
ACAMGFILTERDAT
  2
AcAmgFilterDat
  3
"AcadM|Product Description: AutoCAD Mechanical 2000|Company: Autodesk"
 90
    32768
280
     0
281
     0
  0
CLASS
  1
DIMASSOC
  2
AcDbDimAssoc
  3
"AcDbDimAssoc|Product Desc:     AcDim ARX App For Dimension|Company:          Autodesk, Inc.|WEB Address:      www.autodesk.com"
 90
    32768
280
     0
281
     0
  0
CLASS
  1
ACMSTANDARDANSI
  2
AcmStandardANSI
  3
"Amdt_StdImp|Product Description: AutoCAD Mechanical 2004 DX|Company: Autodesk"
 90
    32768
280
     0
281
     0
  0
CLASS
  1
ACMSURFSTANDARDANSI
  2
AcmSurfTextStdANSI
  3
"Amdt_StdImp|Product Description: AutoCAD Mechanical 2004 DX|Company: Autodesk"
 90
    32768
280
     0
281
     0
  0
CLASS
  1
ACMFCFSTANDARDANSI
  2
AcmFCFStdANSI
  3
"Amdt_StdImp|Product Description: AutoCAD Mechanical 2004 DX|Company: Autodesk"
 90
    32768
280
     0
281
     0
  0
CLASS
  1
ACMWELDSTANDARDANSI
  2
AcmWeldingStdANSI
  3
"Amdt_StdImp|Product Description: AutoCAD Mechanical 2004 DX|Company: Autodesk"
 90
    32768
280
     0
281
     0
  0
CLASS
  1
ACMIDSTANDARDANSI
  2
AcmIdStdANSI
  3
"Amdt_StdImp|Product Description: AutoCAD Mechanical 2004 DX|Company: Autodesk"
 90
    32768
280
     0
281
     0
  0
CLASS
  1
ACMDATUMSTANDARDANSI
  2
AcmDatumStdANSI
  3
"Amdt_StdImp|Product Description: AutoCAD Mechanical 2004 DX|Company: Autodesk"
 90
    32768
280
     0
281
     0
  0
CLASS
  1
ACMBOMSTANDARDANSI
  2
AcmBOMStdANSI
  3
"Amdt_StdImp|Product Description: AutoCAD Mechanical 2004 DX|Company: Autodesk"
 90
    32768
280
     0
281
     0
  0
CLASS
  1
ACMDETAILSTANDARDANSI
  2
AmdtDetailSymStdANSI
  3
"Amdt_StdImp|Product Description: AutoCAD Mechanical 2004 DX|Company: Autodesk"
 90
    32768
280
     0
281
     0
  0
CLASS
  1
ACMSECTIONSTANDARDANSI
  2
AmdtSectionSymStdANSI
  3
"Amdt_StdImp|Product Description: AutoCAD Mechanical 2004 DX|Company: Autodesk"
 90
    32768
280
     0
281
     0
  0
CLASS
  1
ACMCENTERLINESTANDARDANSI
  2
AmdtCenterLineStdANSI
  3
"Amdt_StdImp|Product Description: AutoCAD Mechanical 2004 DX|Company: Autodesk"
 90
    32768
280
     0
281
     0
  0
CLASS
  1
ACMTHREADLINESTANDARDANSI
  2
AmdtThreadLineStdANSI
  3
"Amdt_StdImp|Product Description: AutoCAD Mechanical 2004 DX|Company: Autodesk"
 90
    32768
280
     0
281
     0
  0
CLASS
  1
ACMNOTESTANDARDANSI
  2
AmdtNoteStdANSI
  3
"Amdt_StdImp|Product Description: AutoCAD Mechanical 2004 DX|Company: Autodesk"
 90
    32768
280
     0
281
     0
  0
CLASS
  1
ACAMGHOLECHARTSTDANSI
  2
AcAmgHoleChartStdANSI
  3
ACMSYMBB_MODULE_NAME
 90
    32768
280
     0
281
     0
  0
CLASS
  1
AMDTNOTE
  2
AmdtNote
  3
"AcmSymBB|Product Description: AutoCAD Mechanical 2004 DX|Company: Autodesk"
 90
    33791
280
     0
281
     1
  0
CLASS
  1
SORTENTSTABLE
  2
AcDbSortentsTable
  3
ObjectDBX Classes
 90
        0
280
     0
281
     0
  0
CLASS
  1
STDPART2D
  2
AmgStdPart
  3
"AmgStdPart|Product Description: AutoCAD Mechanical 2000|Company: Autodesk"
 90
    33791
280
     0
281
     1
  0
CLASS
  1
ACAMSTDPCOMPDEF
  2
AcAmStdpCompDef
  3
DesignerAssemblies
 90
    32768
280
     0
281
     0
  0
CLASS
  1
ACRFATTGENMGR
  2
AcRfAttGeneralMgr
  3
AcAttribServices
 90
    32768
280
     0
281
     0
  0
CLASS
  1
ACRFOBJATTMGR
  2
AcRfObjAttGroupMgr
  3
AcAttribServices
 90
    32768
280
     0
281
     0
  0
CLASS
  1
ACRFMCADAPIATTHOLDER
  2
AcRfMCADAPIAttHolder
  3
AcAttribServices
 90
    32768
280
     0
281
     0
  0
CLASS
  1
AMDTSYSATTR
  2
AmdtSystemAttribute
  3
AcAttribServices
 90
    32768
280
     0
281
     0
  0
CLASS
  1
ACAMCOMP
  2
AcAmComp
  3
DesignerAssemblies
 90
    32768
280
     0
281
     0
  0
CLASS
  1
AC_AM_STDP_VIEW_DEF
  2
AcAmStdpViewDef
  3
DesignerAssemblies
 90
    32768
280
     0
281
     0
  0
CLASS
  1
AC_AM_MVD_DEP_MGR
  2
AcAmMVDdepMgr
  3
DesignerAssemblies
 90
    32768
280
     0
281
     0
  0
CLASS
  1
AC_AM_MASTER_VIEW_DEF
  2
AcAmMasterViewDef
  3
DesignerAssemblies
 90
    32768
280
     0
281
     0
  0
CLASS
  1
AC_AM_DIRTY_NODES
  2
AcAmDirtyNodes
  3
DesignerAssemblies
 90
    32768
280
     0
281
     0
  0
CLASS
  1
AC_AM_MAPPER_CACHE
  2
AcAmMapperCache
  3
DesignerAssemblies
 90
    32768
280
     0
281
     0
  0
CLASS
  1
ACAMMVDBACKUPOBJECT
  2
AcAmMVDBackupObject
  3
DesignerAssemblies
 90
    32768
280
     0
281
     0
  0
CLASS
  1
AC_AM_COMP_VIEW_INST
  2
AcAmCompView
  3
DesignerAssemblies
 90
    32768
280
     0
281
     0
  0
CLASS
  1
AC_AM_2D_XREF_MGR
  2
AcAmXrefMgr2d
  3
DesignerAssemblies
 90
    32768
280
     0
281
     0
  0
CLASS
  1
ASAPP
  2
AcAsAppObject
  3
AutoSurfServices
 90
        0
280
     0
281
     0
  0
CLASS
  1
IM_STATIC_MAN
  2
AcImStaticVarManager
  3
AcMeServices
 90
        0
280
     0
281
     0
  0
CLASS
  1
ACIMDBLSTATICVAR
  2
AcImDblStaticVar
  3
AcMeServices
 90
        0
280
     0
281
     0
  0
CLASS
  1
ACIMSTRSTATICVAR
  2
AcImStrStaticVar
  3
AcMeServices
 90
        0
280
     0
281
     0
  0
CLASS
  1
ACIMINTSTATICVAR
  2
AcImIntStaticVar
  3
AcMeServices
 90
        0
280
     0
281
     0
  0
CLASS
  1
ACASGREFMASTER
  2
AcAsGrefMaster
  3
AutoSurfResolverServices
 90
        0
280
     0
281
     0
  0
CLASS
  1
ACADGREFMODULE
  2
AcAdGrefModule
  3
AdGrefServices
 90
        0
280
     0
281
     0
  0
CLASS
  1
AMDTMAPISURFMOUDULE
  2
AmdtMApiSurfModule
  3
MApiSurfServices
 90
        0
280
     0
281
     0
  0
CLASS
  1
MAPIADMODULE
  2
MApiAdModule
  3
MApiAdServices
 90
        0
280
     0
281
     0
  0
CLASS
  1
AMDTEDGESTANDARDISO13715
  2
AmdtEdgeStdISO13715
  3
"Amdt_StdImp|Product Description: AutoCAD Mechanical 2004 DX|Company: Autodesk"
 90
        0
280
     0
281
     0
  0
ENDSEC
  0
SECTION
  2
TABLES
  0
TABLE
  2
VPORT
  5
8
330
0
100
AcDbSymbolTable
 70
     3
  0
VPORT
  5
30CA
330
8
100
AcDbSymbolTableRecord
100
AcDbViewportTableRecord
  2
*Active
 70
     0
 10
0.0
 20
0.0
 11
1.0
 21
1.0
 12
-0.0000000000000284
 22
-71.15706502326125
 13
0.0
 23
0.0
 14
2.5
 24
2.5
 15
10.0
 25
10.0
 16
0.0
 26
0.0
 36
1.0
 17
187.3292551018872
 27
213.3124612151947
 37
0.0
 40
311.314977978308
 41
0.980169971671388
 42
50.0
 43
0.0
 44
0.0
 50
0.0
 51
0.0
 71
     0
 72
   100
 73
     1
 74
     3
 75
     0
 76
     0
 77
     0
 78
     0
281
     0
 65
     0
110
0.0
120
0.0
130
0.0
111
1.0
121
0.0
131
0.0
112
0.0
122
1.0
132
0.0
 79
     0
146
0.0
  0
ENDTAB
  0
TABLE
  2
LTYPE
  5
5
330
0
100
AcDbSymbolTable
 70
    18
  0
LTYPE
  5
14
330
5
100
AcDbSymbolTableRecord
100
AcDbLinetypeTableRecord
  2
ByBlock
 70
     0
  3

 72
    65
 73
     0
 40
0.0
  0
LTYPE
  5
15
330
5
100
AcDbSymbolTableRecord
100
AcDbLinetypeTableRecord
  2
ByLayer
 70
     0
  3

 72
    65
 73
     0
 40
0.0
  0
LTYPE
  5
16
330
5
100
AcDbSymbolTableRecord
100
AcDbLinetypeTableRecord
  2
Continuous
 70
     0
  3
Solid line
 72
    65
 73
     0
 40
0.0
  0
LTYPE
  5
64
330
5
100
AcDbSymbolTableRecord
100
AcDbLinetypeTableRecord
  2
AM_ISO02W050
 70
     0
  3
__ __ __ __ __ __ __ __ __ __ __ __ __ __ __
 72
    65
 73
     2
 40
7.5
 49
6.0
 74
     0
 49
-1.5
 74
     0
  0
LTYPE
  5
65
330
5
100
AcDbSymbolTableRecord
100
AcDbLinetypeTableRecord
  2
AM_ISO08W050
 70
     0
  3
____ . ____ . ____ . ____ . ____ . ____ . ____
 72
    65
 73
     4
 40
18.0
 49
12.0
 74
     0
 49
-1.5
 74
     0
 49
3.0
 74
     0
 49
-1.5
 74
     0
  0
LTYPE
  5
66
330
5
100
AcDbSymbolTableRecord
100
AcDbLinetypeTableRecord
  2
AM_ISO09W050
 70
     0
  3
_____ . . _____ . . _____ . . ____ .. ____
 72
    65
 73
     6
 40
22.5
 49
12.0
 74
     0
 49
-1.5
 74
     0
 49
3.0
 74
     0
 49
-1.5
 74
     0
 49
3.0
 74
     0
 49
-1.5
 74
     0
  0
LTYPE
  5
67
330
5
100
AcDbSymbolTableRecord
100
AcDbLinetypeTableRecord
  2
Amconstr
 70
     0
  3
_______________________
 72
    65
 73
     2
 40
9999.0
 49
9999.0
 74
     0
 49
0.0
 74
     0
  0
LTYPE
  5
68
330
5
100
AcDbSymbolTableRecord
100
AcDbLinetypeTableRecord
  2
AM_ISO08W050x2
 70
     0
  3
__ . __ . __ . __ . __ . __
 72
    65
 73
     4
 40
9.0
 49
6.0
 74
     0
 49
-0.75
 74
     0
 49
1.5
 74
     0
 49
-0.75
 74
     0
  0
LTYPE
  5
69
330
5
100
AcDbSymbolTableRecord
100
AcDbLinetypeTableRecord
  2
AM_ISO02W050x2
 70
     0
  3
 _ _ _ _ _ _ _ _ _ _ _ _
 72
    65
 73
     2
 40
3.75
 49
3.0
 74
     0
 49
-0.75
 74
     0
  0
LTYPE
  5
6C
330
5
100
AcDbSymbolTableRecord
100
AcDbLinetypeTableRecord
  2
Amzigzag
 70
     0
  3
/\/-/\/-/\/-/\/-/\/-/\/
 72
    65
 73
     2
 40
11.0001
 49
0.0001
 74
     4
 75
   135
340
6B
 46
0.04
 50
0.0
 44
0.0
 45
0.0
 49
-11.0
 74
     0
  0
LTYPE
  5
7A
330
5
100
AcDbSymbolTableRecord
100
AcDbLinetypeTableRecord
  2
ACISOWELD
 70
     0
  3
_ _ _ _ _
 72
    65
 73
     2
 40
2.0
 49
2.0
 74
     0
 49
-1.0
 74
     0
  0
LTYPE
  5
7B
330
5
100
AcDbSymbolTableRecord
100
AcDbLinetypeTableRecord
  2
ACISOTGB
 70
     0
  3
__ . . __ . .
 72
    65
 73
     6
 40
9.0
 49
4.0
 74
     0
 49
-1.0
 74
     0
 49
1.0
 74
     0
 49
-1.0
 74
     0
 49
1.0
 74
     0
 49
-1.0
 74
     0
  0
LTYPE
  5
7C
330
5
100
AcDbSymbolTableRecord
100
AcDbLinetypeTableRecord
  2
ACISOTGL
 70
     0
  3
_ _ _ _ _
 72
    65
 73
     2
 40
3.0
 49
2.0
 74
     0
 49
-1.0
 74
     0
  0
LTYPE
  5
7E
330
5
100
AcDbSymbolTableRecord
100
AcDbLinetypeTableRecord
  2
CENTER
 70
     0
  3
__ . __
 72
    65
 73
     4
 40
7.0
 49
4.0
 74
     0
 49
-1.0
 74
     0
 49
1.0
 74
     0
 49
-1.0
 74
     0
  0
LTYPE
  5
D8
330
5
100
AcDbSymbolTableRecord
100
AcDbLinetypeTableRecord
  2
HIDDEN
 70
     0
  3
Hidden __ __ __ __ __ __ __ __ __ __ __ __ __ _
 72
    65
 73
     2
 40
9.524999999999998
 49
6.349999999999999
 74
     0
 49
-3.174999999999999
 74
     0
  0
LTYPE
  5
D9
330
5
100
AcDbSymbolTableRecord
100
AcDbLinetypeTableRecord
  2
PHANTOM2
 70
     0
  3
Phantom (.5x) ___ _ _ ___ _ _ ___ _ _ ___ _ _
 72
    65
 73
     6
 40
31.75
 49
15.875
 74
     0
 49
-3.174999999999999
 74
     0
 49
3.174999999999999
 74
     0
 49
-3.174999999999999
 74
     0
 49
3.174999999999999
 74
     0
 49
-3.174999999999999
 74
     0
  0
LTYPE
  5
A81
330
5
100
AcDbSymbolTableRecord
100
AcDbLinetypeTableRecord
  2
ACANSTGB
 70
     0
  3
__ . . __ . .
 72
    65
 73
     6
 40
0.35433070866
 49
0.15748031496
 74
     0
 49
-0.03937007874
 74
     0
 49
0.03937007874
 74
     0
 49
-0.03937007874
 74
     0
 49
0.03937007874
 74
     0
 49
-0.03937007874
 74
     0
  0
LTYPE
  5
A82
330
5
100
AcDbSymbolTableRecord
100
AcDbLinetypeTableRecord
  2
ACANSTGL
 70
     0
  3
_ _ _ _ _
 72
    65
 73
     2
 40
0.11811023622
 49
0.07874015748
 74
     0
 49
-0.03937007874
 74
     0
  0
LTYPE
  5
3068
330
5
100
AcDbSymbolTableRecord
100
AcDbLinetypeTableRecord
  2
ASULTYPE
 70
     0
  3
實線
 72
    65
 73
     2
 40
3.0
 49
2.5
 74
     0
 49
0.5
 74
     0
  0
LTYPE
  5
3069
330
5
100
AcDbSymbolTableRecord
100
AcDbLinetypeTableRecord
  2
ASVLTYPE
 70
     0
  3
__ __ __ __ __ __ __ __ __ __ __ __ __ __ __ __ __ __ __ __ __
 72
    65
 73
     2
 40
0.75
 49
0.5
 74
     0
 49
-0.25
 74
     0
  0
ENDTAB
  0
TABLE
  2
LAYER
  5
2
102
{ACAD_XDICTIONARY
360
3F9
102
}
330
0
100
AcDbSymbolTable
 70
     7
  0
LAYER
  5
10
330
2
100
AcDbSymbolTableRecord
100
AcDbLayerTableRecord
  2
0
 70
     0
 62
     7
  6
Continuous
370
    -3
390
F
  0
LAYER
  5
A83
330
2
100
AcDbSymbolTableRecord
100
AcDbLayerTableRecord
  2
AM_VIS
 70
     0
 62
     7
  6
Continuous
370
    50
390
F
  0
LAYER
  5
A84
330
2
100
AcDbSymbolTableRecord
100
AcDbLayerTableRecord
  2
AM_4
 70
     0
 62
     3
  6
Continuous
370
    25
390
F
  0
LAYER
  5
D49
330
2
100
AcDbSymbolTableRecord
100
AcDbLayerTableRecord
  2
AM_7
 70
     0
 62
     1
  6
CENTER
370
    25
390
F
  0
LAYER
  5
D5C
330
2
100
AcDbSymbolTableRecord
100
AcDbLayerTableRecord
  2
AM_5
 70
     0
 62
     5
  6
Continuous
370
    50
390
F
  0
LAYER
  5
D6C
330
2
100
AcDbSymbolTableRecord
100
AcDbLayerTableRecord
  2
Defpoints
 70
     0
 62
     7
  6
Continuous
290
     0
370
    -3
390
F
  0
LAYER
  5
1DC3
330
2
100
AcDbSymbolTableRecord
100
AcDbLayerTableRecord
  2
LOGO
 70
     0
 62
     7
  6
Continuous
370
    -3
390
F
  0
ENDTAB
  0
TABLE
  2
STYLE
  5
3
330
0
100
AcDbSymbolTable
 70
     7
  0
STYLE
  5
11
330
3
100
AcDbSymbolTableRecord
100
AcDbTextStyleTableRecord
  2
STANDARD
 70
     0
 40
0.0
 41
1.0
 50
0.0
 71
     0
 42
3.0
  3
ISOCP.SHX
  4
CHINESET.SHX
  0
STYLE
  5
6B
330
3
100
AcDbSymbolTableRecord
100
AcDbTextStyleTableRecord
  2

 70
     1
 40
0.0
 41
1.0
 50
0.0
 71
     0
 42
2.5
  3
ltypeshp.shx
  4

  0
STYLE
  5
6D
330
3
100
AcDbSymbolTableRecord
100
AcDbTextStyleTableRecord
  2
ACISOTS
 70
     0
 40
1.0
 41
1.0
 50
0.0
 71
     0
 42
1.0
  3
isocp.shx
  4
chineset.shx
  0
STYLE
  5
79
330
3
100
AcDbSymbolTableRecord
100
AcDbTextStyleTableRecord
  2
ACISOGDT
 70
     0
 40
0.0
 41
1.0
 50
0.0
 71
     0
 42
2.5
  3
amgdt.shx
  4
chineset.shx
  0
STYLE
  5
A85
330
3
100
AcDbSymbolTableRecord
100
AcDbTextStyleTableRecord
  2
ACANSTS
 70
     0
 40
1.0
 41
1.0
 50
0.0
 71
     0
 42
0.8
  3
romans.shx
  4
chineset.shx
  0
STYLE
  5
A86
330
3
100
AcDbSymbolTableRecord
100
AcDbTextStyleTableRecord
  2
ACANSGDT
 70
     0
 40
0.0
 41
1.0
 50
0.0
 71
     0
 42
0.8
  3
amgdtans.shx
  4

  0
STYLE
  5
1900
330
3
100
AcDbSymbolTableRecord
100
AcDbTextStyleTableRecord
  2
CHINESET
 70
     0
 40
3.0
 41
1.0
 50
0.0
 71
     0
 42
4.5
  3
simplex.shx
  4
CHINESET.shx
  0
ENDTAB
  0
TABLE
  2
VIEW
  5
6
330
0
100
AcDbSymbolTable
 70
     0
  0
ENDTAB
  0
TABLE
  2
UCS
  5
7
330
0
100
AcDbSymbolTable
 70
     0
  0
ENDTAB
  0
TABLE
  2
APPID
  5
9
330
0
100
AcDbSymbolTable
 70
    30
  0
APPID
  5
12
330
9
100
AcDbSymbolTableRecord
100
AcDbRegAppTableRecord
  2
ACAD
 70
     0
  0
APPID
  5
46
330
9
100
AcDbSymbolTableRecord
100
AcDbRegAppTableRecord
  2
MCAD_NO_VIS
 70
     0
  0
APPID
  5
47
330
9
100
AcDbSymbolTableRecord
100
AcDbRegAppTableRecord
  2
ACAD_TEMP_GRAPHIC
 70
     0
  0
APPID
  5
58
330
9
100
AcDbSymbolTableRecord
100
AcDbRegAppTableRecord
  2
ACATTRIBSERVICES
 70
     0
  0
APPID
  5
EE
330
9
100
AcDbSymbolTableRecord
100
AcDbRegAppTableRecord
  2
AD_DRAW
 70
     0
  0
APPID
  5
10C
330
9
100
AcDbSymbolTableRecord
100
AcDbRegAppTableRecord
  2
DESIGNERASSEMBLIES
 70
     0
  0
APPID
  5
111
330
9
100
AcDbSymbolTableRecord
100
AcDbRegAppTableRecord
  2
ACADM_DIM_EDIT
 70
     0
  0
APPID
  5
112
330
9
100
AcDbSymbolTableRecord
100
AcDbRegAppTableRecord
  2
AMDT_DM_ADJ
 70
     0
  0
APPID
  5
22C
330
9
100
AcDbSymbolTableRecord
100
AcDbRegAppTableRecord
  2
ACAD_DSTYLE_DIMTEXT_FILL
 70
     0
  0
APPID
  5
452
330
9
100
AcDbSymbolTableRecord
100
AcDbRegAppTableRecord
  2
GENIUS_GENOENT_13
 70
     0
  0
APPID
  5
453
330
9
100
AcDbSymbolTableRecord
100
AcDbRegAppTableRecord
  2
GENIUS_GENOBJ-N-CRS_13
 70
     0
  0
APPID
  5
454
330
9
100
AcDbSymbolTableRecord
100
AcDbRegAppTableRecord
  2
GENIUS_GENOLIS_13
 70
     0
  0
APPID
  5
455
330
9
100
AcDbSymbolTableRecord
100
AcDbRegAppTableRecord
  2
GENIUS_GENODEF_13
 70
     0
  0
APPID
  5
456
330
9
100
AcDbSymbolTableRecord
100
AcDbRegAppTableRecord
  2
GENIUS_GENOREF_13
 70
     0
  0
APPID
  5
6F3
330
9
100
AcDbSymbolTableRecord
100
AcDbRegAppTableRecord
  2
ACAD_PSEXT
 70
     0
  0
APPID
  5
808
330
9
100
AcDbSymbolTableRecord
100
AcDbRegAppTableRecord
  2
GENIUS_GENDTOL_13
 70
     0
  0
APPID
  5
D4B
330
9
100
AcDbSymbolTableRecord
100
AcDbRegAppTableRecord
  2
GENIUS_GENOBJ-N-CEN_13
 70
     0
  0
APPID
  5
D4C
330
9
100
AcDbSymbolTableRecord
100
AcDbRegAppTableRecord
  2
GENIUS_GENCEN_19
 70
     0
  0
APPID
  5
1B68
330
9
100
AcDbSymbolTableRecord
100
AcDbRegAppTableRecord
  2
GEVID1168474543
 70
     0
  0
APPID
  5
1B69
330
9
100
AcDbSymbolTableRecord
100
AcDbRegAppTableRecord
  2
GEVDC
 70
     0
  0
APPID
  5
1B73
330
9
100
AcDbSymbolTableRecord
100
AcDbRegAppTableRecord
  2
AMG_2DHIDE
 70
     0
  0
APPID
  5
1B74
330
9
100
AcDbSymbolTableRecord
100
AcDbRegAppTableRecord
  2
AMG_2DSTRUCT_BTR
 70
     0
  0
APPID
  5
1B85
330
9
100
AcDbSymbolTableRecord
100
AcDbRegAppTableRecord
  2
ACADM_2DVIEW_IGN_NOTIFY
 70
     0
  0
APPID
  5
1DC4
330
9
100
AcDbSymbolTableRecord
100
AcDbRegAppTableRecord
  2
GENIUS_GENREC_14
 70
     0
  0
APPID
  5
1DC5
330
9
100
AcDbSymbolTableRecord
100
AcDbRegAppTableRecord
  2
GENIUS_GENOBJ-N-REC_13
 70
     0
  0
APPID
  5
2632
330
9
100
AcDbSymbolTableRecord
100
AcDbRegAppTableRecord
  2
GENIUS_GENDIMSH_14
 70
     0
  0
APPID
  5
2FE9
330
9
100
AcDbSymbolTableRecord
100
AcDbRegAppTableRecord
  2
GENIUS_GENDIM_13
 70
     0
  0
APPID
  5
2FEA
330
9
100
AcDbSymbolTableRecord
100
AcDbRegAppTableRecord
  2
GENIUS_GE3DTOL_13
 70
     0
  0
APPID
  5
306A
330
9
100
AcDbSymbolTableRecord
100
AcDbRegAppTableRecord
  2
ASURF_PCURVE_APPNAME
 70
     0
  0
APPID
  5
306F
330
9
100
AcDbSymbolTableRecord
100
AcDbRegAppTableRecord
  2
AMG_3D2D_5.0
 70
     0
  0
ENDTAB
  0
TABLE
  2
DIMSTYLE
  5
A
330
0
100
AcDbSymbolTable
 70
    14
100
AcDbDimStyleTable
 71
     3
340
81
340
8B
340
86
  0
DIMSTYLE
105
81
330
A
100
AcDbSymbolTableRecord
100
AcDbDimStyleTableRecord
  2
AM_ISO
 70
     0
  4
"
 41
3.0
 42
1.0
 43
8.0
 44
1.5
 47
0.1
 48
0.1
 73
     0
 74
     0
 77
     1
 78
     8
 79
     2
140
3.5
141
0.0
143
0.0393701
146
0.6
147
0.7
172
     1
176
   256
177
   256
178
   256
271
     2
272
     2
283
     0
284
     8
340
11
371
    -1
372
    -1
  0
DIMSTYLE
105
82
330
A
100
AcDbSymbolTableRecord
100
AcDbDimStyleTableRecord
  2
AM_ISO$3
 70
     0
  4
"
 41
3.0
 42
1.0
 43
8.0
 44
1.5
 47
0.1
 48
0.1
 73
     0
 77
     1
 78
     8
 79
     2
140
3.5
141
0.0
143
0.0393701
146
0.6
147
0.7
176
   256
177
   256
178
   256
271
     2
272
     2
283
     0
284
     8
288
     1
289
     0
340
11
371
    -1
372
    -1
  0
DIMSTYLE
105
83
330
A
100
AcDbSymbolTableRecord
100
AcDbDimStyleTableRecord
  2
AM_ISO$4
 70
     0
  4
"
 41
3.0
 42
1.0
 43
8.0
 44
1.5
 47
0.1
 48
0.1
 73
     0
 77
     1
 78
     8
 79
     2
140
3.5
141
0.0
143
0.0393701
146
0.6
147
0.7
176
   256
177
   256
178
   256
271
     2
272
     2
283
     0
284
     8
288
     1
289
     0
340
11
371
    -1
372
    -1
  0
DIMSTYLE
105
84
330
A
100
AcDbSymbolTableRecord
100
AcDbDimStyleTableRecord
  2
AM_ISO$6
 70
     0
  4
"
 41
3.0
 42
1.0
 43
8.0
 44
1.5
 47
0.1
 48
0.1
 73
     0
 74
     0
 78
     8
 79
     2
140
3.5
141
0.0
143
0.0393701
146
0.6
147
0.7
172
     1
176
   256
177
   256
178
   256
271
     2
272
     2
283
     0
284
     8
340
11
371
    -1
372
    -1
  0
DIMSTYLE
105
85
330
A
100
AcDbSymbolTableRecord
100
AcDbDimStyleTableRecord
  2
AM_ISO$7
 70
     0
  4
"
 41
3.0
 42
1.0
 43
8.0
 44
1.5
 47
0.1
 48
0.1
 73
     0
 74
     0
 77
     1
 78
     8
 79
     2
140
5.0
141
0.0
143
0.0393701
146
0.6
147
0.7
172
     1
176
   256
177
   256
178
   256
271
     2
272
     2
283
     0
284
     8
340
11
371
    -1
372
    -1
  0
DIMSTYLE
105
86
330
A
100
AcDbSymbolTableRecord
100
AcDbDimStyleTableRecord
  2
AM_ISO$SF
 70
     0
  4
"
 41
2.5
 42
1.0
 43
10.0
 44
1.0
 47
0.1
 48
0.1
 73
     0
 74
     0
 75
     1
 76
     1
 77
     1
 78
     8
 79
     2
140
3.5
141
0.0
143
0.0393701
146
0.71
147
1.5
172
     1
176
   256
177
   256
178
     2
271
     2
272
     3
274
     4
283
     0
284
     8
340
11
371
    -1
372
    -1
  0
DIMSTYLE
105
8B
330
A
100
AcDbSymbolTableRecord
100
AcDbDimStyleTableRecord
  2
AM_ISO$SH
 70
     0
  4
"
 41
2.5
 42
1.0
 43
10.0
 44
1.0
 47
0.1
 48
0.1
 73
     0
 74
     0
 75
     1
 76
     1
 77
     1
 78
     8
 79
     2
140
3.5
141
0.0
143
0.0393701
144
2.0
146
0.71
147
1.5
172
     1
173
     1
176
   256
177
   256
178
     2
271
     2
272
     3
274
     4
283
     0
284
     8
340
11
343
87
371
    -1
372
    -1
  0
DIMSTYLE
105
40B
102
{ACAD_REACTORS
330
2402
330
2403
330
2404
330
2405
330
2409
330
24E8
330
265C
330
265D
330
265E
330
2660
330
2661
330
2662
330
2A10
330
2A11
330
2A3F
330
2A40
330
2A41
330
2A42
330
2A44
330
2AD4
330
2AD5
330
2AD6
330
2AD8
330
2AD9
330
2B71
330
2C29
330
265F
330
2AD7
102
}
330
A
100
AcDbSymbolTableRecord
100
AcDbDimStyleTableRecord
  2
AM_ISO$0
 70
     0
  4
"
 41
3.0
 42
1.0
 43
8.0
 44
1.5
 47
0.1
 48
0.1
 73
     0
 74
     0
 77
     1
 78
     8
 79
     2
140
3.5
141
0.0
143
0.0393701
146
0.6
147
0.7
172
     1
176
   256
177
   256
178
   256
271
     2
272
     2
283
     0
284
     8
340
11
371
    -1
372
    -1
  0
DIMSTYLE
105
A88
330
A
100
AcDbSymbolTableRecord
100
AcDbDimStyleTableRecord
  2
AM_ANSI
 70
     0
  4
mm
 40
0.5
 41
1.0
 42
1.0
 43
0.5
 44
1.0
 47
0.1
 48
0.1
 73
     0
 77
     3
 78
     9
 79
     2
140
1.5
141
0.0
146
0.71
147
0.5
176
   256
177
   256
178
     2
271
     2
272
     8
284
     7
340
11
371
    -1
372
    -1
  0
DIMSTYLE
105
A89
330
A
100
AcDbSymbolTableRecord
100
AcDbDimStyleTableRecord
  2
AM_ANSI$3
 70
     0
  4
mm
 40
0.5
 41
1.0
 42
1.0
 43
0.5
 44
1.0
 47
0.1
 48
0.1
 73
     0
 77
     3
 78
     9
 79
     2
140
1.5
141
0.0
146
0.71
147
0.5
176
   256
177
   256
178
     2
271
     2
272
     8
284
     7
288
     1
289
     0
340
11
371
    -1
372
    -1
  0
DIMSTYLE
105
A8A
330
A
100
AcDbSymbolTableRecord
100
AcDbDimStyleTableRecord
  2
AM_ANSI$4
 70
     0
  4
mm
 40
0.5
 41
1.0
 42
1.0
 43
0.5
 44
1.0
 47
0.1
 48
0.1
 73
     0
 77
     3
 78
     9
 79
     2
140
1.5
141
0.0
146
0.71
147
0.5
176
   256
177
   256
178
     2
271
     2
272
     8
284
     7
288
     1
289
     0
340
11
371
    -1
372
    -1
  0
DIMSTYLE
105
A8B
330
A
100
AcDbSymbolTableRecord
100
AcDbDimStyleTableRecord
  2
AM_ANSI$7
 70
     0
  4
mm
 40
0.5
 41
0.1
 42
1.0
 43
0.5
 44
1.0
 47
0.1
 48
0.1
 73
     0
 77
     3
 78
     9
 79
     2
140
0.24
141
0.0
146
0.71
147
0.06
176
   256
177
   256
178
     2
271
     2
272
     8
284
     7
340
11
371
    -1
372
    -1
  0
DIMSTYLE
105
A8C
330
A
100
AcDbSymbolTableRecord
100
AcDbDimStyleTableRecord
  2
AM_ANSI$SF
 70
     0
  4
mm
 40
0.5
 41
1.0
 42
1.0
 43
0.5
 44
1.0
 47
0.1
 48
0.1
 73
     0
 75
     1
 76
     1
 77
     3
 78
     9
 79
     2
140
1.5
141
0.0
146
0.71
147
0.5
176
   256
177
   256
178
     2
271
     2
272
     8
284
     7
340
11
371
    -1
372
    -1
  0
DIMSTYLE
105
A8D
330
A
100
AcDbSymbolTableRecord
100
AcDbDimStyleTableRecord
  2
AM_ANSI$SH
 70
     0
  4
mm
 40
0.5
 41
1.0
 42
1.0
 43
0.5
 44
1.0
 47
0.1
 48
0.1
 73
     0
 75
     1
 76
     1
 77
     3
 78
     9
 79
     2
140
1.5
141
0.0
146
0.71
147
0.5
173
     1
176
   256
177
   256
178
     2
271
     2
272
     8
284
     7
340
11
343
87
371
    -1
372
    -1
  0
ENDTAB
  0
TABLE
  2
BLOCK_RECORD
  5
1
330
0
100
AcDbSymbolTable
 70
    39
  0
BLOCK_RECORD
  5
1F
102
{ACAD_XDICTIONARY
360
8F
102
}
330
1
100
AcDbSymbolTableRecord
100
AcDbBlockTableRecord
  2
*Model_Space
340
22
  0
BLOCK_RECORD
  5
1B
330
1
100
AcDbSymbolTableRecord
100
AcDbBlockTableRecord
  2
*Paper_Space
340
1E
  0
BLOCK_RECORD
  5
23
330
1
100
AcDbSymbolTableRecord
100
AcDbBlockTableRecord
  2
*Paper_Space0
340
26
  0
BLOCK_RECORD
  5
87
330
1
100
AcDbSymbolTableRecord
100
AcDbBlockTableRecord
  2
GENAXEH
340
0
  0
BLOCK_RECORD
  5
18F1
102
{ACAD_XDICTIONARY
360
18F2
102
}
330
1
100
AcDbSymbolTableRecord
100
AcDbBlockTableRecord
  2
A$C5ECF147B
340
0
102
{BLKREFS
331
192B
331
2D34
102
}
  0
BLOCK_RECORD
  5
240A
330
1
100
AcDbSymbolTableRecord
100
AcDbBlockTableRecord
  2
*D4
340
0
  0
BLOCK_RECORD
  5
2416
330
1
100
AcDbSymbolTableRecord
100
AcDbBlockTableRecord
  2
*D5
340
0
  0
BLOCK_RECORD
  5
2422
330
1
100
AcDbSymbolTableRecord
100
AcDbBlockTableRecord
  2
*D6
340
0
  0
BLOCK_RECORD
  5
242E
330
1
100
AcDbSymbolTableRecord
100
AcDbBlockTableRecord
  2
*D7
340
0
  0
BLOCK_RECORD
  5
243B
330
1
100
AcDbSymbolTableRecord
100
AcDbBlockTableRecord
  2
*D8
340
0
  0
BLOCK_RECORD
  5
24E9
330
1
100
AcDbSymbolTableRecord
100
AcDbBlockTableRecord
  2
*D9
340
0
  0
BLOCK_RECORD
  5
2633
330
1
100
AcDbSymbolTableRecord
100
AcDbBlockTableRecord
  2
GENDOT
340
0
102
{BLKREFS
331
2EF3
331
2F80
102
}
  0
BLOCK_RECORD
  5
2666
330
1
100
AcDbSymbolTableRecord
100
AcDbBlockTableRecord
  2
*D11
340
0
  0
BLOCK_RECORD
  5
2672
330
1
100
AcDbSymbolTableRecord
100
AcDbBlockTableRecord
  2
*D12
340
0
  0
BLOCK_RECORD
  5
267E
330
1
100
AcDbSymbolTableRecord
100
AcDbBlockTableRecord
  2
*D13
340
0
  0
BLOCK_RECORD
  5
268A
330
1
100
AcDbSymbolTableRecord
100
AcDbBlockTableRecord
  2
*D14
340
0
  0
BLOCK_RECORD
  5
2697
330
1
100
AcDbSymbolTableRecord
100
AcDbBlockTableRecord
  2
*D15
340
0
  0
BLOCK_RECORD
  5
26A3
330
1
100
AcDbSymbolTableRecord
100
AcDbBlockTableRecord
  2
*D16
340
0
  0
BLOCK_RECORD
  5
26AF
330
1
100
AcDbSymbolTableRecord
100
AcDbBlockTableRecord
  2
*D17
340
0
  0
BLOCK_RECORD
  5
2716
102
{ACAD_XDICTIONARY
360
271B
102
}
330
1
100
AcDbSymbolTableRecord
100
AcDbBlockTableRecord
  2
A$C01AA3924
340
0
102
{BLKREFS
331
271F
331
2720
331
2A45
331
2ADC
102
}
  0
BLOCK_RECORD
  5
2A14
330
1
100
AcDbSymbolTableRecord
100
AcDbBlockTableRecord
  2
*D19
340
0
  0
BLOCK_RECORD
  5
2A20
330
1
100
AcDbSymbolTableRecord
100
AcDbBlockTableRecord
  2
*D20
340
0
  0
BLOCK_RECORD
  5
2A46
330
1
100
AcDbSymbolTableRecord
100
AcDbBlockTableRecord
  2
*D21
340
0
  0
BLOCK_RECORD
  5
2A52
330
1
100
AcDbSymbolTableRecord
100
AcDbBlockTableRecord
  2
*D22
340
0
  0
BLOCK_RECORD
  5
2A5E
330
1
100
AcDbSymbolTableRecord
100
AcDbBlockTableRecord
  2
*D23
340
0
  0
BLOCK_RECORD
  5
2A6A
330
1
100
AcDbSymbolTableRecord
100
AcDbBlockTableRecord
  2
*D24
340
0
  0
BLOCK_RECORD
  5
2A83
330
1
100
AcDbSymbolTableRecord
100
AcDbBlockTableRecord
  2
*D25
340
0
  0
BLOCK_RECORD
  5
2ADD
330
1
100
AcDbSymbolTableRecord
100
AcDbBlockTableRecord
  2
*D26
340
0
  0
BLOCK_RECORD
  5
2AE9
330
1
100
AcDbSymbolTableRecord
100
AcDbBlockTableRecord
  2
*D27
340
0
  0
BLOCK_RECORD
  5
2AF5
330
1
100
AcDbSymbolTableRecord
100
AcDbBlockTableRecord
  2
*D28
340
0
  0
BLOCK_RECORD
  5
2B01
330
1
100
AcDbSymbolTableRecord
100
AcDbBlockTableRecord
  2
*D29
340
0
  0
BLOCK_RECORD
  5
2B0E
330
1
100
AcDbSymbolTableRecord
100
AcDbBlockTableRecord
  2
*D30
340
0
  0
BLOCK_RECORD
  5
2B1A
330
1
100
AcDbSymbolTableRecord
100
AcDbBlockTableRecord
  2
*D31
340
0
  0
BLOCK_RECORD
  5
2B72
330
1
100
AcDbSymbolTableRecord
100
AcDbBlockTableRecord
  2
*D32
340
0
  0
BLOCK_RECORD
  5
2C2B
330
1
100
AcDbSymbolTableRecord
100
AcDbBlockTableRecord
  2
*D33
340
0
  0
BLOCK_RECORD
  5
2FB3
330
1
100
AcDbSymbolTableRecord
100
AcDbBlockTableRecord
  2
*S34
340
0
102
{BLKREFS
331
2508
102
}
  0
BLOCK_RECORD
  5
2FBB
330
1
100
AcDbSymbolTableRecord
100
AcDbBlockTableRecord
  2
*S35
340
0
102
{BLKREFS
331
2664
102
}
  0
BLOCK_RECORD
  5
2FC3
330
1
100
AcDbSymbolTableRecord
100
AcDbBlockTableRecord
  2
*S36
340
0
102
{BLKREFS
331
2FA5
102
}
  0
BLOCK_RECORD
  5
2FCB
330
1
100
AcDbSymbolTableRecord
100
AcDbBlockTableRecord
  2
*S37
340
0
102
{BLKREFS
331
2FA7
102
}
  0
ENDTAB
  0
ENDSEC
  0
SECTION
  2
BLOCKS
  0
BLOCK
  5
20
330
1F
100
AcDbEntity
  8
0
100
AcDbBlockBegin
  2
*Model_Space
 70
     0
 10
0.0
 20
0.0
 30
0.0
  3
*Model_Space
  1

  0
ENDBLK
  5
21
330
1F
100
AcDbEntity
  8
0
100
AcDbBlockEnd
  0
BLOCK
  5
1C
330
1B
100
AcDbEntity
 67
     1
  8
0
100
AcDbBlockBegin
  2
*Paper_Space
 70
     0
 10
0.0
 20
0.0
 30
0.0
  3
*Paper_Space
  1

  0
ENDBLK
  5
1D
330
1B
100
AcDbEntity
 67
     1
  8
0
100
AcDbBlockEnd
  0
BLOCK
  5
24
330
23
100
AcDbEntity
  8
0
100
AcDbBlockBegin
  2
*Paper_Space0
 70
     0
 10
0.0
 20
0.0
 30
0.0
  3
*Paper_Space0
  1

  0
ENDBLK
  5
25
330
23
100
AcDbEntity
  8
0
100
AcDbBlockEnd
  0
BLOCK
  5
89
330
87
100
AcDbEntity
  8
0
100
AcDbBlockBegin
  2
GENAXEH
 70
     0
 10
0.0
 20
0.0
 30
0.0
  3
GENAXEH
  1

  0
LINE
  5
88
330
87
100
AcDbEntity
  8
0
100
AcDbLine
 10
-1.0
 20
0.0
 30
0.0
 11
1.0
 21
0.0
 31
0.0
  0
ENDBLK
  5
8A
330
87
100
AcDbEntity
  8
0
100
AcDbBlockEnd
  0
BLOCK
  5
18F3
330
18F1
100
AcDbEntity
  8
0
100
AcDbBlockBegin
  2
A$C5ECF147B
 70
     0
 10
0.0
 20
0.0
 30
0.0
  3
A$C5ECF147B
  1

  0
CIRCLE
  5
18F4
330
18F1
100
AcDbEntity
  8
0
100
AcDbCircle
 10
-3.079240456948355
 20
2.061381943681453
 30
0.0
 40
1.25
  0
CIRCLE
  5
18F5
330
18F1
100
AcDbEntity
  8
0
100
AcDbCircle
 10
-3.079240456948355
 20
2.061381943681453
 30
0.0
 40
0.75
  0
ENDBLK
  5
18F6
330
18F1
100
AcDbEntity
  8
0
100
AcDbBlockEnd
  0
BLOCK
  5
2414
330
240A
100
AcDbEntity
  8
0
100
AcDbBlockBegin
  2
*D4
 70
     1
 10
0.0
 20
0.0
 30
0.0
  3
*D4
  1

  0
LINE
  5
2E86
330
240A
100
AcDbEntity
  8
AM_5
100
AcDbLine
 10
98.40599866821207
 20
197.3737383524039
 30
0.0
 11
98.40599866821207
 21
172.654083232404
 31
0.0
  0
LINE
  5
2E87
330
240A
100
AcDbEntity
  8
AM_5
100
AcDbLine
 10
107.405998668212
 20
194.0737383524039
 30
0.0
 11
107.405998668212
 21
172.654083232404
 31
0.0
  0
LINE
  5
2E88
330
240A
100
AcDbEntity
  8
AM_5
100
AcDbLine
 10
101.405998668212
 20
174.154083232404
 30
0.0
 11
104.405998668212
 21
174.154083232404
 31
0.0
  0
SOLID
  5
2E89
330
240A
100
AcDbEntity
  8
AM_5
100
AcDbTrace
 10
101.405998668212
 20
174.654083232404
 30
0.0
 11
101.405998668212
 21
173.654083232404
 31
0.0
 12
98.40599866821207
 22
174.154083232404
 32
0.0
 13
98.40599866821207
 23
174.154083232404
 33
0.0
  0
SOLID
  5
2E8A
330
240A
100
AcDbEntity
  8
AM_5
100
AcDbTrace
 10
104.405998668212
 20
174.654083232404
 30
0.0
 11
104.405998668212
 21
173.654083232404
 31
0.0
 12
107.405998668212
 22
174.154083232404
 32
0.0
 13
107.405998668212
 23
174.154083232404
 33
0.0
  0
MTEXT
  5
2E8B
330
240A
100
AcDbEntity
  8
AM_5
100
AcDbMText
 10
102.9059986682121
 20
176.604083232404
 30
0.0
 40
3.5
 41
0.0
 71
     5
 72
     1
  1
9
 73
     1
 44
1.0
1001
ACAD
1000
MTEXTBEGIN
1070
    73
1070
     1
1070
    44
1040
1.0
1070
    74
1070
     0
1000
MTEXTEND
  0
POINT
  5
2E8C
330
240A
100
AcDbEntity
  8
Defpoints
 62
     0
100
AcDbPoint
 10
98.40599866821207
 20
198.3737383524039
 30
0.0
  0
POINT
  5
2E8D
330
240A
100
AcDbEntity
  8
Defpoints
 62
     0
100
AcDbPoint
 10
107.405998668212
 20
195.0737383524039
 30
0.0
  0
POINT
  5
2E8E
330
240A
100
AcDbEntity
  8
Defpoints
 62
     0
100
AcDbPoint
 10
107.405998668212
 20
174.154083232404
 30
0.0
  0
ENDBLK
  5
2415
330
240A
100
AcDbEntity
  8
0
100
AcDbBlockEnd
  0
BLOCK
  5
2420
330
2416
100
AcDbEntity
  8
0
100
AcDbBlockBegin
  2
*D5
 70
     1
 10
0.0
 20
0.0
 30
0.0
  3
*D5
  1

  0
LINE
  5
2E8F
330
2416
100
AcDbEntity
  8
AM_5
100
AcDbLine
 10
107.405998668212
 20
194.0737383524039
 30
0.0
 11
107.405998668212
 21
172.654083232404
 31
0.0
  0
LINE
  5
2E90
330
2416
100
AcDbEntity
  8
AM_5
100
AcDbLine
 10
132.9059986682121
 20
194.123738352404
 30
0.0
 11
132.9059986682121
 21
172.654083232404
 31
0.0
  0
LINE
  5
2E91
330
2416
100
AcDbEntity
  8
AM_5
100
AcDbLine
 10
110.4059986682121
 20
174.154083232404
 30
0.0
 11
129.9059986682121
 21
174.154083232404
 31
0.0
  0
SOLID
  5
2E92
330
2416
100
AcDbEntity
  8
AM_5
100
AcDbTrace
 10
110.4059986682121
 20
174.654083232404
 30
0.0
 11
110.4059986682121
 21
173.654083232404
 31
0.0
 12
107.405998668212
 22
174.154083232404
 32
0.0
 13
107.405998668212
 23
174.154083232404
 33
0.0
  0
SOLID
  5
2E93
330
2416
100
AcDbEntity
  8
AM_5
100
AcDbTrace
 10
129.9059986682121
 20
174.654083232404
 30
0.0
 11
129.9059986682121
 21
173.654083232404
 31
0.0
 12
132.9059986682121
 22
174.154083232404
 32
0.0
 13
132.9059986682121
 23
174.154083232404
 33
0.0
  0
MTEXT
  5
2E94
330
2416
100
AcDbEntity
  8
AM_5
100
AcDbMText
 10
120.155998668212
 20
176.604083232404
 30
0.0
 40
3.5
 41
0.0
 71
     5
 72
     1
  1
S
 73
     1
 44
1.0
1001
ACAD
1000
MTEXTBEGIN
1070
    73
1070
     1
1070
    44
1040
1.0
1070
    74
1070
     0
1000
MTEXTEND
  0
POINT
  5
2E95
330
2416
100
AcDbEntity
  8
Defpoints
 62
     0
100
AcDbPoint
 10
107.405998668212
 20
195.0737383524039
 30
0.0
  0
POINT
  5
2E96
330
2416
100
AcDbEntity
  8
Defpoints
 62
     0
100
AcDbPoint
 10
132.9059986682121
 20
195.1237383524039
 30
0.0
  0
POINT
  5
2E97
330
2416
100
AcDbEntity
  8
Defpoints
 62
     0
100
AcDbPoint
 10
132.9059986682121
 20
174.154083232404
 30
0.0
  0
ENDBLK
  5
2421
330
2416
100
AcDbEntity
  8
0
100
AcDbBlockEnd
  0
BLOCK
  5
242C
330
2422
100
AcDbEntity
  8
0
100
AcDbBlockBegin
  2
*D6
 70
     1
 10
0.0
 20
0.0
 30
0.0
  3
*D6
  1

  0
LINE
  5
2E98
330
2422
100
AcDbEntity
  8
AM_5
100
AcDbLine
 10
98.40599866821207
 20
197.3737383524039
 30
0.0
 11
98.40599866821207
 21
164.654083232404
 31
0.0
  0
LINE
  5
2E99
330
2422
100
AcDbEntity
  8
AM_5
100
AcDbLine
 10
132.9059986682121
 20
194.123738352404
 30
0.0
 11
132.9059986682121
 21
164.654083232404
 31
0.0
  0
LINE
  5
2E9A
330
2422
100
AcDbEntity
  8
AM_5
100
AcDbLine
 10
101.405998668212
 20
166.154083232404
 30
0.0
 11
129.9059986682121
 21
166.154083232404
 31
0.0
  0
SOLID
  5
2E9B
330
2422
100
AcDbEntity
  8
AM_5
100
AcDbTrace
 10
101.405998668212
 20
166.654083232404
 30
0.0
 11
101.405998668212
 21
165.654083232404
 31
0.0
 12
98.40599866821207
 22
166.154083232404
 32
0.0
 13
98.40599866821207
 23
166.154083232404
 33
0.0
  0
SOLID
  5
2E9C
330
2422
100
AcDbEntity
  8
AM_5
100
AcDbTrace
 10
129.9059986682121
 20
166.654083232404
 30
0.0
 11
129.9059986682121
 21
165.654083232404
 31
0.0
 12
132.9059986682121
 22
166.154083232404
 32
0.0
 13
132.9059986682121
 23
166.154083232404
 33
0.0
  0
MTEXT
  5
2E9D
330
2422
100
AcDbEntity
  8
AM_5
100
AcDbMText
 10
115.6559986682121
 20
168.604083232404
 30
0.0
 40
3.5
 41
0.0
 71
     5
 72
     1
  1
Z
 73
     1
 44
1.0
1001
ACAD
1000
MTEXTBEGIN
1070
    73
1070
     1
1070
    44
1040
1.0
1070
    74
1070
     0
1000
MTEXTEND
  0
POINT
  5
2E9E
330
2422
100
AcDbEntity
  8
Defpoints
 62
     0
100
AcDbPoint
 10
98.40599866821207
 20
198.3737383524039
 30
0.0
  0
POINT
  5
2E9F
330
2422
100
AcDbEntity
  8
Defpoints
 62
     0
100
AcDbPoint
 10
132.9059986682121
 20
195.1237383524039
 30
0.0
  0
POINT
  5
2EA0
330
2422
100
AcDbEntity
  8
Defpoints
 62
     0
100
AcDbPoint
 10
132.9059986682121
 20
166.154083232404
 30
0.0
  0
ENDBLK
  5
242D
330
2422
100
AcDbEntity
  8
0
100
AcDbBlockEnd
  0
BLOCK
  5
2439
330
242E
100
AcDbEntity
  8
0
100
AcDbBlockBegin
  2
*D7
 70
     1
 10
0.0
 20
0.0
 30
0.0
  3
*D7
  1

  0
LINE
  5
2EA1
330
242E
100
AcDbEntity
  8
AM_5
100
AcDbLine
 10
133.9059986682121
 20
195.1237383524039
 30
0.0
 11
146.4059986682121
 21
195.1237383524039
 31
0.0
  0
LINE
  5
2EA2
330
242E
100
AcDbEntity
  8
AM_5
100
AcDbLine
 10
133.9059986682121
 20
203.6237383524039
 30
0.0
 11
146.4059986682121
 21
203.6237383524039
 31
0.0
  0
LINE
  5
2EA3
330
242E
100
AcDbEntity
  8
AM_5
100
AcDbLine
 10
144.905998668212
 20
198.1237383524039
 30
0.0
 11
144.905998668212
 21
200.623738352404
 31
0.0
  0
LINE
  5
2EA4
330
242E
100
AcDbEntity
  8
AM_5
100
AcDbLine
 10
144.905998668212
 20
203.6237383524039
 30
0.0
 11
144.905998668212
 21
222.6243155289101
 31
0.0
  0
SOLID
  5
2EA5
330
242E
100
AcDbEntity
  8
AM_5
100
AcDbTrace
 10
144.4059986682121
 20
198.1237383524039
 30
0.0
 11
145.4059986682121
 21
198.1237383524039
 31
0.0
 12
144.905998668212
 22
195.1237383524039
 32
0.0
 13
144.905998668212
 23
195.1237383524039
 33
0.0
  0
SOLID
  5
2EA6
330
242E
100
AcDbEntity
  8
AM_5
100
AcDbTrace
 10
144.4059986682121
 20
200.623738352404
 30
0.0
 11
145.4059986682121
 21
200.623738352404
 31
0.0
 12
144.905998668212
 22
203.6237383524039
 32
0.0
 13
144.905998668212
 23
203.6237383524039
 33
0.0
  0
MTEXT
  5
2EA7
330
242E
100
AcDbEntity
  8
AM_5
100
AcDbMText
 10
142.455998668212
 20
214.6240269406571
 30
0.0
 40
3.5
 41
0.0
 71
     5
 72
     1
  1
%%c8.5{}{\C5; d9}
 11
0.0000000000000001
 21
1.0
 31
0.0
 73
     1
 44
1.0
1001
ACAD
1000
MTEXTBEGIN
1070
    73
1070
     1
1070
    44
1040
1.0
1070
    74
1070
     0
1000
MTEXTEND
  0
POINT
  5
2EA8
330
242E
100
AcDbEntity
  8
Defpoints
 62
     0
100
AcDbPoint
 10
132.9059986682121
 20
195.1237383524039
 30
0.0
  0
POINT
  5
2EA9
330
242E
100
AcDbEntity
  8
Defpoints
 62
     0
100
AcDbPoint
 10
132.9059986682121
 20
203.6237383524039
 30
0.0
  0
POINT
  5
2EAA
330
242E
100
AcDbEntity
  8
Defpoints
 62
     0
100
AcDbPoint
 10
144.905998668212
 20
203.6237383524039
 30
0.0
  0
ENDBLK
  5
243A
330
242E
100
AcDbEntity
  8
0
100
AcDbBlockEnd
  0
BLOCK
  5
2445
330
243B
100
AcDbEntity
  8
0
100
AcDbBlockBegin
  2
*D8
 70
     1
 10
0.0
 20
0.0
 30
0.0
  3
*D8
  1

  0
LINE
  5
2EB6
330
243B
100
AcDbEntity
  8
AM_5
100
AcDbLine
 10
107.405998668212
 20
194.0737383524039
 30
0.0
 11
107.405998668212
 21
180.6540832324037
 31
0.0
  0
LINE
  5
2EB7
330
243B
100
AcDbEntity
  8
AM_5
100
AcDbLine
 10
126.9059986682121
 20
194.123738352404
 30
0.0
 11
126.9059986682121
 21
180.6540832324037
 31
0.0
  0
LINE
  5
2EB8
330
243B
100
AcDbEntity
  8
AM_5
100
AcDbLine
 10
110.4059986682121
 20
182.1540832324037
 30
0.0
 11
123.9059986682121
 21
182.1540832324037
 31
0.0
  0
SOLID
  5
2EB9
330
243B
100
AcDbEntity
  8
AM_5
100
AcDbTrace
 10
110.4059986682121
 20
182.6540832324037
 30
0.0
 11
110.4059986682121
 21
181.6540832324037
 31
0.0
 12
107.405998668212
 22
182.1540832324037
 32
0.0
 13
107.405998668212
 23
182.1540832324037
 33
0.0
  0
SOLID
  5
2EBA
330
243B
100
AcDbEntity
  8
AM_5
100
AcDbTrace
 10
123.9059986682121
 20
182.6540832324037
 30
0.0
 11
123.9059986682121
 21
181.6540832324037
 31
0.0
 12
126.9059986682121
 22
182.1540832324037
 32
0.0
 13
126.9059986682121
 23
182.1540832324037
 33
0.0
  0
MTEXT
  5
2EBB
330
243B
100
AcDbEntity
  8
AM_5
100
AcDbMText
 10
117.1559986682121
 20
184.6040832324037
 30
0.0
 40
3.5
 41
0.0
 71
     5
 72
     1
  1
F
 73
     1
 44
1.0
1001
ACAD
1000
MTEXTBEGIN
1070
    73
1070
     1
1070
    44
1040
1.0
1070
    74
1070
     0
1000
MTEXTEND
  0
POINT
  5
2EBC
330
243B
100
AcDbEntity
  8
Defpoints
 62
     0
100
AcDbPoint
 10
107.405998668212
 20
195.0737383524039
 30
0.0
  0
POINT
  5
2EBD
330
243B
100
AcDbEntity
  8
Defpoints
 62
     0
100
AcDbPoint
 10
126.9059986682121
 20
195.1237383524039
 30
0.0
  0
POINT
  5
2EBE
330
243B
100
AcDbEntity
  8
Defpoints
 62
     0
100
AcDbPoint
 10
126.9059986682121
 20
182.1540832324037
 30
0.0
  0
ENDBLK
  5
2446
330
243B
100
AcDbEntity
  8
0
100
AcDbBlockEnd
  0
BLOCK
  5
24F3
330
24E9
100
AcDbEntity
  8
0
100
AcDbBlockBegin
  2
*D9
 70
     1
 10
0.0
 20
0.0
 30
0.0
  3
*D9
  1

  0
LINE
  5
2EBF
330
24E9
100
AcDbEntity
  8
AM_5
100
AcDbLine
 10
71.06492691607062
 20
194.9096367372663
 30
0.0
 11
71.06492691607062
 21
180.9248091772662
 31
0.0
  0
LINE
  5
2EC0
330
24E9
100
AcDbEntity
  8
AM_5
100
AcDbLine
 10
83.0649269160707
 20
194.9096367372662
 30
0.0
 11
83.0649269160707
 21
180.9248091772662
 31
0.0
  0
LINE
  5
2EC1
330
24E9
100
AcDbEntity
  8
AM_5
100
AcDbLine
 10
74.06492691607062
 20
182.4248091772662
 30
0.0
 11
80.0649269160707
 21
182.4248091772662
 31
0.0
  0
SOLID
  5
2EC2
330
24E9
100
AcDbEntity
  8
AM_5
100
AcDbTrace
 10
74.06492691607062
 20
182.9248091772662
 30
0.0
 11
74.06492691607062
 21
181.9248091772662
 31
0.0
 12
71.06492691607062
 22
182.4248091772662
 32
0.0
 13
71.06492691607062
 23
182.4248091772662
 33
0.0
  0
SOLID
  5
2EC3
330
24E9
100
AcDbEntity
  8
AM_5
100
AcDbTrace
 10
80.0649269160707
 20
182.9248091772662
 30
0.0
 11
80.0649269160707
 21
181.9248091772662
 31
0.0
 12
83.0649269160707
 22
182.4248091772662
 32
0.0
 13
83.0649269160707
 23
182.4248091772662
 33
0.0
  0
MTEXT
  5
2EC4
330
24E9
100
AcDbEntity
  8
AM_5
100
AcDbMText
 10
77.06492691607066
 20
184.8751536654551
 30
0.0
 40
3.5
 41
0.0
 71
     5
 72
     1
  1
12
 73
     1
 44
1.0
1001
ACAD
1000
MTEXTBEGIN
1070
    73
1070
     1
1070
    44
1040
1.0
1070
    74
1070
     0
1000
MTEXTEND
  0
POINT
  5
2EC5
330
24E9
100
AcDbEntity
  8
Defpoints
 62
     0
100
AcDbPoint
 10
71.06492691607062
 20
195.9096367372663
 30
0.0
  0
POINT
  5
2EC6
330
24E9
100
AcDbEntity
  8
Defpoints
 62
     0
100
AcDbPoint
 10
83.0649269160707
 20
195.9096367372662
 30
0.0
  0
POINT
  5
2EC7
330
24E9
100
AcDbEntity
  8
Defpoints
 62
     0
100
AcDbPoint
 10
83.0649269160707
 20
182.4248091772662
 30
0.0
  0
ENDBLK
  5
24F4
330
24E9
100
AcDbEntity
  8
0
100
AcDbBlockEnd
  0
BLOCK
  5
2636
330
2633
100
AcDbEntity
  8
0
100
AcDbBlockBegin
  2
GENDOT
 70
     0
 10
0.0
 20
0.0
 30
0.0
  3
GENDOT
  1

  0
LINE
  5
2634
330
2633
100
AcDbEntity
  8
0
100
AcDbLine
 10
0.0
 20
0.0
 30
0.0
 11
-1.0
 21
0.0
 31
0.0
  0
LWPOLYLINE
  5
2635
330
2633
100
AcDbEntity
  8
0
100
AcDbPolyline
 90
        2
 70
     1
 43
0.25
 10
-0.125
 20
0.0
 42
1.0
 10
0.125
 20
0.0
 42
1.0
  0
ENDBLK
  5
2637
330
2633
100
AcDbEntity
  8
0
100
AcDbBlockEnd
  0
BLOCK
  5
2670
330
2666
100
AcDbEntity
  8
0
100
AcDbBlockBegin
  2
*D11
 70
     1
 10
0.0
 20
0.0
 30
0.0
  3
*D11
  1

  0
LINE
  5
2EC8
330
2666
100
AcDbEntity
  8
AM_5
100
AcDbLine
 10
98.40599866821207
 20
120.0628439765141
 30
0.0
 11
98.40599866821207
 21
95.34318885651419
 31
0.0
  0
LINE
  5
2EC9
330
2666
100
AcDbEntity
  8
AM_5
100
AcDbLine
 10
107.405998668212
 20
116.7628439765141
 30
0.0
 11
107.405998668212
 21
95.34318885651419
 31
0.0
  0
LINE
  5
2ECA
330
2666
100
AcDbEntity
  8
AM_5
100
AcDbLine
 10
101.405998668212
 20
96.84318885651419
 30
0.0
 11
104.405998668212
 21
96.84318885651419
 31
0.0
  0
SOLID
  5
2ECB
330
2666
100
AcDbEntity
  8
AM_5
100
AcDbTrace
 10
101.405998668212
 20
97.34318885651418
 30
0.0
 11
101.405998668212
 21
96.34318885651419
 31
0.0
 12
98.40599866821207
 22
96.84318885651419
 32
0.0
 13
98.40599866821207
 23
96.84318885651419
 33
0.0
  0
SOLID
  5
2ECC
330
2666
100
AcDbEntity
  8
AM_5
100
AcDbTrace
 10
104.405998668212
 20
97.34318885651418
 30
0.0
 11
104.405998668212
 21
96.34318885651419
 31
0.0
 12
107.405998668212
 22
96.84318885651419
 32
0.0
 13
107.405998668212
 23
96.84318885651419
 33
0.0
  0
MTEXT
  5
2ECD
330
2666
100
AcDbEntity
  8
AM_5
100
AcDbMText
 10
102.9059986682121
 20
99.29318885651419
 30
0.0
 40
3.5
 41
0.0
 71
     5
 72
     1
  1
9
 73
     1
 44
1.0
1001
ACAD
1000
MTEXTBEGIN
1070
    73
1070
     1
1070
    44
1040
1.0
1070
    74
1070
     0
1000
MTEXTEND
  0
POINT
  5
2ECE
330
2666
100
AcDbEntity
  8
Defpoints
 62
     0
100
AcDbPoint
 10
98.40599866821207
 20
121.0628439765141
 30
0.0
  0
POINT
  5
2ECF
330
2666
100
AcDbEntity
  8
Defpoints
 62
     0
100
AcDbPoint
 10
107.405998668212
 20
117.7628439765141
 30
0.0
  0
POINT
  5
2ED0
330
2666
100
AcDbEntity
  8
Defpoints
 62
     0
100
AcDbPoint
 10
107.405998668212
 20
96.84318885651419
 30
0.0
  0
ENDBLK
  5
2671
330
2666
100
AcDbEntity
  8
0
100
AcDbBlockEnd
  0
BLOCK
  5
267C
330
2672
100
AcDbEntity
  8
0
100
AcDbBlockBegin
  2
*D12
 70
     1
 10
0.0
 20
0.0
 30
0.0
  3
*D12
  1

  0
LINE
  5
2ED1
330
2672
100
AcDbEntity
  8
AM_5
100
AcDbLine
 10
107.405998668212
 20
116.7628439765141
 30
0.0
 11
107.405998668212
 21
95.34318885651419
 31
0.0
  0
LINE
  5
2ED2
330
2672
100
AcDbEntity
  8
AM_5
100
AcDbLine
 10
132.9059986682121
 20
116.8128439765141
 30
0.0
 11
132.9059986682121
 21
95.34318885651419
 31
0.0
  0
LINE
  5
2ED3
330
2672
100
AcDbEntity
  8
AM_5
100
AcDbLine
 10
110.4059986682121
 20
96.84318885651419
 30
0.0
 11
129.9059986682121
 21
96.84318885651419
 31
0.0
  0
SOLID
  5
2ED4
330
2672
100
AcDbEntity
  8
AM_5
100
AcDbTrace
 10
110.4059986682121
 20
97.34318885651418
 30
0.0
 11
110.4059986682121
 21
96.34318885651419
 31
0.0
 12
107.405998668212
 22
96.84318885651419
 32
0.0
 13
107.405998668212
 23
96.84318885651419
 33
0.0
  0
SOLID
  5
2ED5
330
2672
100
AcDbEntity
  8
AM_5
100
AcDbTrace
 10
129.9059986682121
 20
97.34318885651418
 30
0.0
 11
129.9059986682121
 21
96.34318885651419
 31
0.0
 12
132.9059986682121
 22
96.84318885651419
 32
0.0
 13
132.9059986682121
 23
96.84318885651419
 33
0.0
  0
MTEXT
  5
2ED6
330
2672
100
AcDbEntity
  8
AM_5
100
AcDbMText
 10
120.155998668212
 20
99.29318885651419
 30
0.0
 40
3.5
 41
0.0
 71
     5
 72
     1
  1
S
 73
     1
 44
1.0
1001
ACAD
1000
MTEXTBEGIN
1070
    73
1070
     1
1070
    44
1040
1.0
1070
    74
1070
     0
1000
MTEXTEND
  0
POINT
  5
2ED7
330
2672
100
AcDbEntity
  8
Defpoints
 62
     0
100
AcDbPoint
 10
107.405998668212
 20
117.7628439765141
 30
0.0
  0
POINT
  5
2ED8
330
2672
100
AcDbEntity
  8
Defpoints
 62
     0
100
AcDbPoint
 10
132.9059986682121
 20
117.8128439765141
 30
0.0
  0
POINT
  5
2ED9
330
2672
100
AcDbEntity
  8
Defpoints
 62
     0
100
AcDbPoint
 10
132.9059986682121
 20
96.84318885651419
 30
0.0
  0
ENDBLK
  5
267D
330
2672
100
AcDbEntity
  8
0
100
AcDbBlockEnd
  0
BLOCK
  5
2688
330
267E
100
AcDbEntity
  8
0
100
AcDbBlockBegin
  2
*D13
 70
     1
 10
0.0
 20
0.0
 30
0.0
  3
*D13
  1

  0
LINE
  5
2EDA
330
267E
100
AcDbEntity
  8
AM_5
100
AcDbLine
 10
98.40599866821207
 20
120.0628439765141
 30
0.0
 11
98.40599866821207
 21
87.34318885651418
 31
0.0
  0
LINE
  5
2EDB
330
267E
100
AcDbEntity
  8
AM_5
100
AcDbLine
 10
132.9059986682121
 20
116.8128439765141
 30
0.0
 11
132.9059986682121
 21
87.34318885651418
 31
0.0
  0
LINE
  5
2EDC
330
267E
100
AcDbEntity
  8
AM_5
100
AcDbLine
 10
101.405998668212
 20
88.84318885651419
 30
0.0
 11
129.9059986682121
 21
88.84318885651419
 31
0.0
  0
SOLID
  5
2EDD
330
267E
100
AcDbEntity
  8
AM_5
100
AcDbTrace
 10
101.405998668212
 20
89.34318885651419
 30
0.0
 11
101.405998668212
 21
88.34318885651418
 31
0.0
 12
98.40599866821207
 22
88.84318885651419
 32
0.0
 13
98.40599866821207
 23
88.84318885651419
 33
0.0
  0
SOLID
  5
2EDE
330
267E
100
AcDbEntity
  8
AM_5
100
AcDbTrace
 10
129.9059986682121
 20
89.34318885651419
 30
0.0
 11
129.9059986682121
 21
88.34318885651418
 31
0.0
 12
132.9059986682121
 22
88.84318885651419
 32
0.0
 13
132.9059986682121
 23
88.84318885651419
 33
0.0
  0
MTEXT
  5
2EDF
330
267E
100
AcDbEntity
  8
AM_5
100
AcDbMText
 10
115.6559986682121
 20
91.2931888565142
 30
0.0
 40
3.5
 41
0.0
 71
     5
 72
     1
  1
Z
 73
     1
 44
1.0
1001
ACAD
1000
MTEXTBEGIN
1070
    73
1070
     1
1070
    44
1040
1.0
1070
    74
1070
     0
1000
MTEXTEND
  0
POINT
  5
2EE0
330
267E
100
AcDbEntity
  8
Defpoints
 62
     0
100
AcDbPoint
 10
98.40599866821207
 20
121.0628439765141
 30
0.0
  0
POINT
  5
2EE1
330
267E
100
AcDbEntity
  8
Defpoints
 62
     0
100
AcDbPoint
 10
132.9059986682121
 20
117.8128439765141
 30
0.0
  0
POINT
  5
2EE2
330
267E
100
AcDbEntity
  8
Defpoints
 62
     0
100
AcDbPoint
 10
132.9059986682121
 20
88.84318885651419
 30
0.0
  0
ENDBLK
  5
2689
330
267E
100
AcDbEntity
  8
0
100
AcDbBlockEnd
  0
BLOCK
  5
2695
330
268A
100
AcDbEntity
  8
0
100
AcDbBlockBegin
  2
*D14
 70
     1
 10
0.0
 20
0.0
 30
0.0
  3
*D14
  1

  0
LINE
  5
2EE3
330
268A
100
AcDbEntity
  8
AM_5
100
AcDbLine
 10
133.9059986682121
 20
117.8128439765141
 30
0.0
 11
146.4059986682121
 21
117.8128439765141
 31
0.0
  0
LINE
  5
2EE4
330
268A
100
AcDbEntity
  8
AM_5
100
AcDbLine
 10
133.9059986682121
 20
126.3128439765141
 30
0.0
 11
146.4059986682121
 21
126.3128439765141
 31
0.0
  0
LINE
  5
2EE5
330
268A
100
AcDbEntity
  8
AM_5
100
AcDbLine
 10
144.905998668212
 20
120.8128439765141
 30
0.0
 11
144.905998668212
 21
123.3128439765141
 31
0.0
  0
LINE
  5
2EE6
330
268A
100
AcDbEntity
  8
AM_5
100
AcDbLine
 10
144.905998668212
 20
126.3128439765141
 30
0.0
 11
144.905998668212
 21
145.3134211530203
 31
0.0
  0
SOLID
  5
2EE7
330
268A
100
AcDbEntity
  8
AM_5
100
AcDbTrace
 10
144.4059986682121
 20
120.8128439765141
 30
0.0
 11
145.4059986682121
 21
120.8128439765141
 31
0.0
 12
144.905998668212
 22
117.8128439765141
 32
0.0
 13
144.905998668212
 23
117.8128439765141
 33
0.0
  0
SOLID
  5
2EE8
330
268A
100
AcDbEntity
  8
AM_5
100
AcDbTrace
 10
144.4059986682121
 20
123.3128439765141
 30
0.0
 11
145.4059986682121
 21
123.3128439765141
 31
0.0
 12
144.905998668212
 22
126.3128439765141
 32
0.0
 13
144.905998668212
 23
126.3128439765141
 33
0.0
  0
MTEXT
  5
2EE9
330
268A
100
AcDbEntity
  8
AM_5
100
AcDbMText
 10
142.455998668212
 20
137.3131325647672
 30
0.0
 40
3.5
 41
0.0
 71
     5
 72
     1
  1
%%c8.5{}{\C5; d9}
 11
0.0000000000000001
 21
1.0
 31
0.0
 73
     1
 44
1.0
1001
ACAD
1000
MTEXTBEGIN
1070
    73
1070
     1
1070
    44
1040
1.0
1070
    74
1070
     0
1000
MTEXTEND
  0
POINT
  5
2EEA
330
268A
100
AcDbEntity
  8
Defpoints
 62
     0
100
AcDbPoint
 10
132.9059986682121
 20
117.8128439765141
 30
0.0
  0
POINT
  5
2EEB
330
268A
100
AcDbEntity
  8
Defpoints
 62
     0
100
AcDbPoint
 10
132.9059986682121
 20
126.3128439765141
 30
0.0
  0
POINT
  5
2EEC
330
268A
100
AcDbEntity
  8
Defpoints
 62
     0
100
AcDbPoint
 10
144.905998668212
 20
126.3128439765141
 30
0.0
  0
ENDBLK
  5
2696
330
268A
100
AcDbEntity
  8
0
100
AcDbBlockEnd
  0
BLOCK
  5
2707
330
2697
100
AcDbEntity
  8
0
100
AcDbBlockBegin
  2
*D15
 70
     1
 10
0.0
 20
0.0
 30
0.0
  3
*D15
  1

  0
LINE
  5
2EED
330
2697
100
AcDbEntity
  8
AM_5
100
AcDbLine
 10
98.40599866821207
 20
120.0628439765141
 30
0.0
 11
98.40599866821207
 21
103.3431888565142
 31
0.0
  0
LINE
  5
2EEE
330
2697
100
AcDbEntity
  8
AM_5
100
AcDbLine
 10
105.405998668212
 20
119.6628439765141
 30
0.0
 11
105.405998668212
 21
103.3431888565142
 31
0.0
  0
LINE
  5
2EEF
330
2697
100
AcDbEntity
  8
AM_5
100
AcDbLine
 10
95.40599866821208
 20
104.8431888565142
 30
0.0
 11
92.40599866821208
 21
104.8431888565142
 31
0.0
  0
LINE
  5
2EF0
330
2697
100
AcDbEntity
  8
AM_5
100
AcDbLine
 10
108.405998668212
 20
104.8431888565142
 30
0.0
 11
111.4059986682121
 21
104.8431888565142
 31
0.0
  0
LINE
  5
2EF1
330
2697
100
AcDbEntity
  8
AM_5
100
AcDbLine
 10
98.40599866821207
 20
104.8431888565142
 30
0.0
 11
105.405998668212
 21
104.8431888565142
 31
0.0
  0
SOLID
  5
2EF2
330
2697
100
AcDbEntity
  8
AM_5
100
AcDbTrace
 10
95.40599866821208
 20
105.3431888565142
 30
0.0
 11
95.40599866821208
 21
104.3431888565142
 31
0.0
 12
98.40599866821207
 22
104.8431888565142
 32
0.0
 13
98.40599866821207
 23
104.8431888565142
 33
0.0
  0
INSERT
  5
2EF3
330
2697
100
AcDbEntity
  8
AM_5
100
AcDbBlockReference
  2
GENDOT
 10
105.405998668212
 20
104.8431888565142
 30
0.0
 41
3.0
 42
3.0
 43
3.0
 50
180.0
  0
MTEXT
  5
2EF4
330
2697
100
AcDbEntity
  8
AM_5
100
AcDbMText
 10
101.9059986682121
 20
107.2931888565142
 30
0.0
 40
3.5
 41
0.0
 71
     5
 72
     1
  1
7
 73
     1
 44
1.0
1001
ACAD
1000
MTEXTBEGIN
1070
    73
1070
     1
1070
    44
1040
1.0
1070
    74
1070
     0
1000
MTEXTEND
  0
POINT
  5
2EF5
330
2697
100
AcDbEntity
  8
Defpoints
 62
     0
100
AcDbPoint
 10
98.40599866821207
 20
121.0628439765141
 30
0.0
  0
POINT
  5
2EF6
330
2697
100
AcDbEntity
  8
Defpoints
 62
     0
100
AcDbPoint
 10
105.405998668212
 20
120.6628439765141
 30
0.0
  0
POINT
  5
2EF7
330
2697
100
AcDbEntity
  8
Defpoints
 62
     0
100
AcDbPoint
 10
105.405998668212
 20
104.8431888565142
 30
0.0
  0
ENDBLK
  5
2708
330
2697
100
AcDbEntity
  8
0
100
AcDbBlockEnd
  0
BLOCK
  5
26AD
330
26A3
100
AcDbEntity
  8
0
100
AcDbBlockBegin
  2
*D16
 70
     1
 10
0.0
 20
0.0
 30
0.0
  3
*D16
  1

  0
LINE
  5
2EF8
330
26A3
100
AcDbEntity
  8
AM_5
100
AcDbLine
 10
107.405998668212
 20
116.7628439765141
 30
0.0
 11
107.405998668212
 21
103.3431888565139
 31
0.0
  0
LINE
  5
2EF9
330
26A3
100
AcDbEntity
  8
AM_5
100
AcDbLine
 10
126.9059986682121
 20
116.8128439765141
 30
0.0
 11
126.9059986682121
 21
103.3431888565139
 31
0.0
  0
LINE
  5
2EFA
330
26A3
100
AcDbEntity
  8
AM_5
100
AcDbLine
 10
110.4059986682121
 20
104.8431888565139
 30
0.0
 11
123.9059986682121
 21
104.8431888565139
 31
0.0
  0
SOLID
  5
2EFB
330
26A3
100
AcDbEntity
  8
AM_5
100
AcDbTrace
 10
110.4059986682121
 20
105.3431888565139
 30
0.0
 11
110.4059986682121
 21
104.3431888565139
 31
0.0
 12
107.405998668212
 22
104.8431888565139
 32
0.0
 13
107.405998668212
 23
104.8431888565139
 33
0.0
  0
SOLID
  5
2EFC
330
26A3
100
AcDbEntity
  8
AM_5
100
AcDbTrace
 10
123.9059986682121
 20
105.3431888565139
 30
0.0
 11
123.9059986682121
 21
104.3431888565139
 31
0.0
 12
126.9059986682121
 22
104.8431888565139
 32
0.0
 13
126.9059986682121
 23
104.8431888565139
 33
0.0
  0
MTEXT
  5
2EFD
330
26A3
100
AcDbEntity
  8
AM_5
100
AcDbMText
 10
117.1559986682121
 20
107.2931888565139
 30
0.0
 40
3.5
 41
0.0
 71
     5
 72
     1
  1
F
 73
     1
 44
1.0
1001
ACAD
1000
MTEXTBEGIN
1070
    73
1070
     1
1070
    44
1040
1.0
1070
    74
1070
     0
1000
MTEXTEND
  0
POINT
  5
2EFE
330
26A3
100
AcDbEntity
  8
Defpoints
 62
     0
100
AcDbPoint
 10
107.405998668212
 20
117.7628439765141
 30
0.0
  0
POINT
  5
2EFF
330
26A3
100
AcDbEntity
  8
Defpoints
 62
     0
100
AcDbPoint
 10
126.9059986682121
 20
117.8128439765141
 30
0.0
  0
POINT
  5
2F00
330
26A3
100
AcDbEntity
  8
Defpoints
 62
     0
100
AcDbPoint
 10
126.9059986682121
 20
104.8431888565139
 30
0.0
  0
ENDBLK
  5
26AE
330
26A3
100
AcDbEntity
  8
0
100
AcDbBlockEnd
  0
BLOCK
  5
26B9
330
26AF
100
AcDbEntity
  8
0
100
AcDbBlockBegin
  2
*D17
 70
     1
 10
0.0
 20
0.0
 30
0.0
  3
*D17
  1

  0
LINE
  5
2F01
330
26AF
100
AcDbEntity
  8
AM_5
100
AcDbLine
 10
71.06492691607062
 20
117.5987423613765
 30
0.0
 11
71.06492691607062
 21
103.6139148013764
 31
0.0
  0
LINE
  5
2F02
330
26AF
100
AcDbEntity
  8
AM_5
100
AcDbLine
 10
83.0649269160707
 20
117.5987423613764
 30
0.0
 11
83.0649269160707
 21
103.6139148013764
 31
0.0
  0
LINE
  5
2F03
330
26AF
100
AcDbEntity
  8
AM_5
100
AcDbLine
 10
74.06492691607062
 20
105.1139148013763
 30
0.0
 11
80.0649269160707
 21
105.1139148013763
 31
0.0
  0
SOLID
  5
2F04
330
26AF
100
AcDbEntity
  8
AM_5
100
AcDbTrace
 10
74.06492691607062
 20
105.6139148013764
 30
0.0
 11
74.06492691607062
 21
104.6139148013764
 31
0.0
 12
71.06492691607062
 22
105.1139148013763
 32
0.0
 13
71.06492691607062
 23
105.1139148013763
 33
0.0
  0
SOLID
  5
2F05
330
26AF
100
AcDbEntity
  8
AM_5
100
AcDbTrace
 10
80.0649269160707
 20
105.6139148013764
 30
0.0
 11
80.0649269160707
 21
104.6139148013764
 31
0.0
 12
83.0649269160707
 22
105.1139148013763
 32
0.0
 13
83.0649269160707
 23
105.1139148013763
 33
0.0
  0
MTEXT
  5
2F06
330
26AF
100
AcDbEntity
  8
AM_5
100
AcDbMText
 10
77.06492691607066
 20
107.5642592895653
 30
0.0
 40
3.5
 41
0.0
 71
     5
 72
     1
  1
12
 73
     1
 44
1.0
1001
ACAD
1000
MTEXTBEGIN
1070
    73
1070
     1
1070
    44
1040
1.0
1070
    74
1070
     0
1000
MTEXTEND
  0
POINT
  5
2F07
330
26AF
100
AcDbEntity
  8
Defpoints
 62
     0
100
AcDbPoint
 10
71.06492691607062
 20
118.5987423613765
 30
0.0
  0
POINT
  5
2F08
330
26AF
100
AcDbEntity
  8
Defpoints
 62
     0
100
AcDbPoint
 10
83.0649269160707
 20
118.5987423613764
 30
0.0
  0
POINT
  5
2F09
330
26AF
100
AcDbEntity
  8
Defpoints
 62
     0
100
AcDbPoint
 10
83.0649269160707
 20
105.1139148013763
 30
0.0
  0
ENDBLK
  5
26BA
330
26AF
100
AcDbEntity
  8
0
100
AcDbBlockEnd
  0
BLOCK
  5
271D
330
2716
100
AcDbEntity
  8
0
100
AcDbBlockBegin
  2
A$C01AA3924
 70
     0
 10
0.0
 20
0.0
 30
0.0
  3
A$C01AA3924
  1

  0
MTEXT
  5
2717
330
2716
100
AcDbEntity
  8
AM_5
 62
     5
100
AcDbMText
 10
-14.63961855242681
 20
13.23418887737352
 30
0.0
 40
2.939999999999999
 41
0.0
 71
     7
 72
     5
  1
SL
  7
ACISOTS
 73
     1
 44
1.0
1001
ACAD
1000
MTEXTBEGIN
1070
    73
1070
     1
1070
    44
1040
1.0
1070
    74
1070
     0
1000
MTEXTEND
  0
LINE
  5
2718
330
2716
100
AcDbEntity
  8
AM_7
  6
ACISOTGB
 62
     2
100
AcDbLine
 10
-4.5
 20
-8.642607202534122
 30
0.0
 11
-4.5
 21
14.03375085837672
 31
0.0
1001
GENIUS_GENOBJ-N-CEN_13
1002
{
1000
OWNER
1000
GEN
1002
}
1001
GENIUS_GENODEF_13
1002
{
1000
HIER
1070
     0
1002
}
1002
{
1000
MANEDIT
1070
     0
1002
}
1002
{
1000
NOSEL
1070
     0
1002
}
1002
{
1000
BEHIND
1070
     0
1002
}
1002
{
1000
OTHER
1070
     0
1002
}
1002
{
1000
REACTOR
1002
}
1001
GENIUS_GENCEN_19
1002
{
1040
3.0
1002
}
  0
LINE
  5
2719
330
2716
100
AcDbEntity
  8
AM_5
 62
     5
100
AcDbLine
 10
-15.553536598959
 20
12.08182737998891
 30
0.0
 11
-8.700000000000017
 21
12.08182737998891
 31
0.0
  0
TRACE
  5
271A
330
2716
100
AcDbEntity
  8
AM_5
 62
     5
370
    35
100
AcDbTrace
 10
-8.700000000000017
 20
12.63476786738886
 30
0.0
 11
-8.700000000000017
 21
11.52888689258896
 31
0.0
 12
-4.5
 22
12.08182737998891
 32
0.0
 13
-4.5
 23
12.08182737998891
 33
0.0
  0
ENDBLK
  5
271E
330
2716
100
AcDbEntity
  8
0
100
AcDbBlockEnd
  0
BLOCK
  5
2A1E
330
2A14
100
AcDbEntity
  8
0
100
AcDbBlockBegin
  2
*D19
 70
     1
 10
0.0
 20
0.0
 30
0.0
  3
*D19
  1

  0
LINE
  5
2F0A
330
2A14
100
AcDbEntity
  8
AM_5
100
AcDbLine
 10
227.1034155108855
 20
194.9096367372663
 30
0.0
 11
227.1034155108855
 21
180.9248091772662
 31
0.0
  0
LINE
  5
2F0B
330
2A14
100
AcDbEntity
  8
AM_5
100
AcDbLine
 10
239.1034155108856
 20
194.9096367372663
 30
0.0
 11
239.1034155108856
 21
180.9248091772662
 31
0.0
  0
LINE
  5
2F0C
330
2A14
100
AcDbEntity
  8
AM_5
100
AcDbLine
 10
230.1034155108855
 20
182.4248091772662
 30
0.0
 11
236.1034155108856
 21
182.4248091772662
 31
0.0
  0
SOLID
  5
2F0D
330
2A14
100
AcDbEntity
  8
AM_5
100
AcDbTrace
 10
230.1034155108855
 20
182.9248091772662
 30
0.0
 11
230.1034155108855
 21
181.9248091772662
 31
0.0
 12
227.1034155108855
 22
182.4248091772662
 32
0.0
 13
227.1034155108855
 23
182.4248091772662
 33
0.0
  0
SOLID
  5
2F0E
330
2A14
100
AcDbEntity
  8
AM_5
100
AcDbTrace
 10
236.1034155108856
 20
182.9248091772662
 30
0.0
 11
236.1034155108856
 21
181.9248091772662
 31
0.0
 12
239.1034155108856
 22
182.4248091772662
 32
0.0
 13
239.1034155108856
 23
182.4248091772662
 33
0.0
  0
MTEXT
  5
2F0F
330
2A14
100
AcDbEntity
  8
AM_5
100
AcDbMText
 10
233.1034155108856
 20
184.8751536654552
 30
0.0
 40
3.5
 41
0.0
 71
     5
 72
     1
  1
12
 73
     1
 44
1.0
1001
ACAD
1000
MTEXTBEGIN
1070
    73
1070
     1
1070
    44
1040
1.0
1070
    74
1070
     0
1000
MTEXTEND
  0
POINT
  5
2F10
330
2A14
100
AcDbEntity
  8
Defpoints
 62
     0
100
AcDbPoint
 10
227.1034155108855
 20
195.9096367372663
 30
0.0
  0
POINT
  5
2F11
330
2A14
100
AcDbEntity
  8
Defpoints
 62
     0
100
AcDbPoint
 10
239.1034155108856
 20
195.9096367372663
 30
0.0
  0
POINT
  5
2F12
330
2A14
100
AcDbEntity
  8
Defpoints
 62
     0
100
AcDbPoint
 10
239.1034155108856
 20
182.4248091772662
 30
0.0
  0
ENDBLK
  5
2A1F
330
2A14
100
AcDbEntity
  8
0
100
AcDbBlockEnd
  0
BLOCK
  5
2A2A
330
2A20
100
AcDbEntity
  8
0
100
AcDbBlockBegin
  2
*D20
 70
     1
 10
0.0
 20
0.0
 30
0.0
  3
*D20
  1

  0
LINE
  5
2F13
330
2A20
100
AcDbEntity
  8
AM_5
100
AcDbLine
 10
227.1034155108855
 20
117.5987423613765
 30
0.0
 11
227.1034155108855
 21
103.6139148013764
 31
0.0
  0
LINE
  5
2F14
330
2A20
100
AcDbEntity
  8
AM_5
100
AcDbLine
 10
239.1034155108856
 20
117.5987423613765
 30
0.0
 11
239.1034155108856
 21
103.6139148013764
 31
0.0
  0
LINE
  5
2F15
330
2A20
100
AcDbEntity
  8
AM_5
100
AcDbLine
 10
230.1034155108855
 20
105.1139148013764
 30
0.0
 11
236.1034155108856
 21
105.1139148013764
 31
0.0
  0
SOLID
  5
2F16
330
2A20
100
AcDbEntity
  8
AM_5
100
AcDbTrace
 10
230.1034155108855
 20
105.6139148013764
 30
0.0
 11
230.1034155108855
 21
104.6139148013764
 31
0.0
 12
227.1034155108855
 22
105.1139148013764
 32
0.0
 13
227.1034155108855
 23
105.1139148013764
 33
0.0
  0
SOLID
  5
2F17
330
2A20
100
AcDbEntity
  8
AM_5
100
AcDbTrace
 10
236.1034155108856
 20
105.6139148013764
 30
0.0
 11
236.1034155108856
 21
104.6139148013764
 31
0.0
 12
239.1034155108856
 22
105.1139148013764
 32
0.0
 13
239.1034155108856
 23
105.1139148013764
 33
0.0
  0
MTEXT
  5
2F18
330
2A20
100
AcDbEntity
  8
AM_5
100
AcDbMText
 10
233.1034155108856
 20
107.5642592895654
 30
0.0
 40
3.5
 41
0.0
 71
     5
 72
     1
  1
12
 73
     1
 44
1.0
1001
ACAD
1000
MTEXTBEGIN
1070
    73
1070
     1
1070
    44
1040
1.0
1070
    74
1070
     0
1000
MTEXTEND
  0
POINT
  5
2F19
330
2A20
100
AcDbEntity
  8
Defpoints
 62
     0
100
AcDbPoint
 10
227.1034155108855
 20
118.5987423613765
 30
0.0
  0
POINT
  5
2F1A
330
2A20
100
AcDbEntity
  8
Defpoints
 62
     0
100
AcDbPoint
 10
239.1034155108856
 20
118.5987423613765
 30
0.0
  0
POINT
  5
2F1B
330
2A20
100
AcDbEntity
  8
Defpoints
 62
     0
100
AcDbPoint
 10
239.1034155108856
 20
105.1139148013764
 30
0.0
  0
ENDBLK
  5
2A2B
330
2A20
100
AcDbEntity
  8
0
100
AcDbBlockEnd
  0
BLOCK
  5
2A50
330
2A46
100
AcDbEntity
  8
0
100
AcDbBlockBegin
  2
*D21
 70
     1
 10
0.0
 20
0.0
 30
0.0
  3
*D21
  1

  0
LINE
  5
2F1C
330
2A46
100
AcDbEntity
  8
AM_5
100
AcDbLine
 10
254.444487263027
 20
197.3737383524039
 30
0.0
 11
254.444487263027
 21
172.654083232404
 31
0.0
  0
LINE
  5
2F1D
330
2A46
100
AcDbEntity
  8
AM_5
100
AcDbLine
 10
263.444487263027
 20
194.0737383524039
 30
0.0
 11
263.444487263027
 21
172.654083232404
 31
0.0
  0
LINE
  5
2F1E
330
2A46
100
AcDbEntity
  8
AM_5
100
AcDbLine
 10
257.444487263027
 20
174.154083232404
 30
0.0
 11
260.444487263027
 21
174.154083232404
 31
0.0
  0
SOLID
  5
2F1F
330
2A46
100
AcDbEntity
  8
AM_5
100
AcDbTrace
 10
257.444487263027
 20
174.654083232404
 30
0.0
 11
257.444487263027
 21
173.654083232404
 31
0.0
 12
254.444487263027
 22
174.154083232404
 32
0.0
 13
254.444487263027
 23
174.154083232404
 33
0.0
  0
SOLID
  5
2F20
330
2A46
100
AcDbEntity
  8
AM_5
100
AcDbTrace
 10
260.444487263027
 20
174.654083232404
 30
0.0
 11
260.444487263027
 21
173.654083232404
 31
0.0
 12
263.444487263027
 22
174.154083232404
 32
0.0
 13
263.444487263027
 23
174.154083232404
 33
0.0
  0
MTEXT
  5
2F21
330
2A46
100
AcDbEntity
  8
AM_5
100
AcDbMText
 10
258.944487263027
 20
176.604083232404
 30
0.0
 40
3.5
 41
0.0
 71
     5
 72
     1
  1
9
 73
     1
 44
1.0
1001
ACAD
1000
MTEXTBEGIN
1070
    73
1070
     1
1070
    44
1040
1.0
1070
    74
1070
     0
1000
MTEXTEND
  0
POINT
  5
2F22
330
2A46
100
AcDbEntity
  8
Defpoints
 62
     0
100
AcDbPoint
 10
254.444487263027
 20
198.3737383524039
 30
0.0
  0
POINT
  5
2F23
330
2A46
100
AcDbEntity
  8
Defpoints
 62
     0
100
AcDbPoint
 10
263.444487263027
 20
195.0737383524039
 30
0.0
  0
POINT
  5
2F24
330
2A46
100
AcDbEntity
  8
Defpoints
 62
     0
100
AcDbPoint
 10
263.444487263027
 20
174.154083232404
 30
0.0
  0
ENDBLK
  5
2A51
330
2A46
100
AcDbEntity
  8
0
100
AcDbBlockEnd
  0
BLOCK
  5
2A5C
330
2A52
100
AcDbEntity
  8
0
100
AcDbBlockBegin
  2
*D22
 70
     1
 10
0.0
 20
0.0
 30
0.0
  3
*D22
  1

  0
LINE
  5
2F25
330
2A52
100
AcDbEntity
  8
AM_5
100
AcDbLine
 10
263.444487263027
 20
194.0737383524039
 30
0.0
 11
263.444487263027
 21
172.654083232404
 31
0.0
  0
LINE
  5
2F26
330
2A52
100
AcDbEntity
  8
AM_5
100
AcDbLine
 10
288.944487263027
 20
194.123738352404
 30
0.0
 11
288.944487263027
 21
172.654083232404
 31
0.0
  0
LINE
  5
2F27
330
2A52
100
AcDbEntity
  8
AM_5
100
AcDbLine
 10
266.444487263027
 20
174.154083232404
 30
0.0
 11
285.944487263027
 21
174.154083232404
 31
0.0
  0
SOLID
  5
2F28
330
2A52
100
AcDbEntity
  8
AM_5
100
AcDbTrace
 10
266.444487263027
 20
174.654083232404
 30
0.0
 11
266.444487263027
 21
173.654083232404
 31
0.0
 12
263.444487263027
 22
174.154083232404
 32
0.0
 13
263.444487263027
 23
174.154083232404
 33
0.0
  0
SOLID
  5
2F29
330
2A52
100
AcDbEntity
  8
AM_5
100
AcDbTrace
 10
285.944487263027
 20
174.654083232404
 30
0.0
 11
285.944487263027
 21
173.654083232404
 31
0.0
 12
288.944487263027
 22
174.154083232404
 32
0.0
 13
288.944487263027
 23
174.154083232404
 33
0.0
  0
MTEXT
  5
2F2A
330
2A52
100
AcDbEntity
  8
AM_5
100
AcDbMText
 10
276.194487263027
 20
176.604083232404
 30
0.0
 40
3.5
 41
0.0
 71
     5
 72
     1
  1
S
 73
     1
 44
1.0
1001
ACAD
1000
MTEXTBEGIN
1070
    73
1070
     1
1070
    44
1040
1.0
1070
    74
1070
     0
1000
MTEXTEND
  0
POINT
  5
2F2B
330
2A52
100
AcDbEntity
  8
Defpoints
 62
     0
100
AcDbPoint
 10
263.444487263027
 20
195.0737383524039
 30
0.0
  0
POINT
  5
2F2C
330
2A52
100
AcDbEntity
  8
Defpoints
 62
     0
100
AcDbPoint
 10
288.944487263027
 20
195.1237383524039
 30
0.0
  0
POINT
  5
2F2D
330
2A52
100
AcDbEntity
  8
Defpoints
 62
     0
100
AcDbPoint
 10
288.944487263027
 20
174.154083232404
 30
0.0
  0
ENDBLK
  5
2A5D
330
2A52
100
AcDbEntity
  8
0
100
AcDbBlockEnd
  0
BLOCK
  5
2A68
330
2A5E
100
AcDbEntity
  8
0
100
AcDbBlockBegin
  2
*D23
 70
     1
 10
0.0
 20
0.0
 30
0.0
  3
*D23
  1

  0
LINE
  5
2F2E
330
2A5E
100
AcDbEntity
  8
AM_5
100
AcDbLine
 10
254.444487263027
 20
197.3737383524039
 30
0.0
 11
254.444487263027
 21
164.654083232404
 31
0.0
  0
LINE
  5
2F2F
330
2A5E
100
AcDbEntity
  8
AM_5
100
AcDbLine
 10
288.944487263027
 20
194.123738352404
 30
0.0
 11
288.944487263027
 21
164.654083232404
 31
0.0
  0
LINE
  5
2F30
330
2A5E
100
AcDbEntity
  8
AM_5
100
AcDbLine
 10
257.444487263027
 20
166.154083232404
 30
0.0
 11
285.944487263027
 21
166.154083232404
 31
0.0
  0
SOLID
  5
2F31
330
2A5E
100
AcDbEntity
  8
AM_5
100
AcDbTrace
 10
257.444487263027
 20
166.654083232404
 30
0.0
 11
257.444487263027
 21
165.654083232404
 31
0.0
 12
254.444487263027
 22
166.154083232404
 32
0.0
 13
254.444487263027
 23
166.154083232404
 33
0.0
  0
SOLID
  5
2F32
330
2A5E
100
AcDbEntity
  8
AM_5
100
AcDbTrace
 10
285.944487263027
 20
166.654083232404
 30
0.0
 11
285.944487263027
 21
165.654083232404
 31
0.0
 12
288.944487263027
 22
166.154083232404
 32
0.0
 13
288.944487263027
 23
166.154083232404
 33
0.0
  0
MTEXT
  5
2F33
330
2A5E
100
AcDbEntity
  8
AM_5
100
AcDbMText
 10
271.694487263027
 20
168.604083232404
 30
0.0
 40
3.5
 41
0.0
 71
     5
 72
     1
  1
Z
 73
     1
 44
1.0
1001
ACAD
1000
MTEXTBEGIN
1070
    73
1070
     1
1070
    44
1040
1.0
1070
    74
1070
     0
1000
MTEXTEND
  0
POINT
  5
2F34
330
2A5E
100
AcDbEntity
  8
Defpoints
 62
     0
100
AcDbPoint
 10
254.444487263027
 20
198.3737383524039
 30
0.0
  0
POINT
  5
2F35
330
2A5E
100
AcDbEntity
  8
Defpoints
 62
     0
100
AcDbPoint
 10
288.944487263027
 20
195.1237383524039
 30
0.0
  0
POINT
  5
2F36
330
2A5E
100
AcDbEntity
  8
Defpoints
 62
     0
100
AcDbPoint
 10
288.944487263027
 20
166.154083232404
 30
0.0
  0
ENDBLK
  5
2A69
330
2A5E
100
AcDbEntity
  8
0
100
AcDbBlockEnd
  0
BLOCK
  5
2A75
330
2A6A
100
AcDbEntity
  8
0
100
AcDbBlockBegin
  2
*D24
 70
     1
 10
0.0
 20
0.0
 30
0.0
  3
*D24
  1

  0
LINE
  5
2F37
330
2A6A
100
AcDbEntity
  8
AM_5
100
AcDbLine
 10
289.944487263027
 20
195.1237383524039
 30
0.0
 11
302.444487263027
 21
195.1237383524039
 31
0.0
  0
LINE
  5
2F38
330
2A6A
100
AcDbEntity
  8
AM_5
100
AcDbLine
 10
289.944487263027
 20
203.6237383524039
 30
0.0
 11
302.444487263027
 21
203.6237383524039
 31
0.0
  0
LINE
  5
2F39
330
2A6A
100
AcDbEntity
  8
AM_5
100
AcDbLine
 10
300.944487263027
 20
198.1237383524039
 30
0.0
 11
300.944487263027
 21
200.623738352404
 31
0.0
  0
LINE
  5
2F3A
330
2A6A
100
AcDbEntity
  8
AM_5
100
AcDbLine
 10
300.944487263027
 20
203.6237383524039
 30
0.0
 11
300.944487263027
 21
222.6243155289101
 31
0.0
  0
SOLID
  5
2F3B
330
2A6A
100
AcDbEntity
  8
AM_5
100
AcDbTrace
 10
300.444487263027
 20
198.1237383524039
 30
0.0
 11
301.444487263027
 21
198.1237383524039
 31
0.0
 12
300.944487263027
 22
195.1237383524039
 32
0.0
 13
300.944487263027
 23
195.1237383524039
 33
0.0
  0
SOLID
  5
2F3C
330
2A6A
100
AcDbEntity
  8
AM_5
100
AcDbTrace
 10
300.444487263027
 20
200.623738352404
 30
0.0
 11
301.444487263027
 21
200.623738352404
 31
0.0
 12
300.944487263027
 22
203.6237383524039
 32
0.0
 13
300.944487263027
 23
203.6237383524039
 33
0.0
  0
MTEXT
  5
2F3D
330
2A6A
100
AcDbEntity
  8
AM_5
100
AcDbMText
 10
298.4944872630269
 20
214.6240269406571
 30
0.0
 40
3.5
 41
0.0
 71
     5
 72
     1
  1
%%c8.5{}{\C5; d9}
 11
0.0000000000000001
 21
1.0
 31
0.0
 73
     1
 44
1.0
1001
ACAD
1000
MTEXTBEGIN
1070
    73
1070
     1
1070
    44
1040
1.0
1070
    74
1070
     0
1000
MTEXTEND
  0
POINT
  5
2F3E
330
2A6A
100
AcDbEntity
  8
Defpoints
 62
     0
100
AcDbPoint
 10
288.944487263027
 20
195.1237383524039
 30
0.0
  0
POINT
  5
2F3F
330
2A6A
100
AcDbEntity
  8
Defpoints
 62
     0
100
AcDbPoint
 10
288.944487263027
 20
203.6237383524039
 30
0.0
  0
POINT
  5
2F40
330
2A6A
100
AcDbEntity
  8
Defpoints
 62
     0
100
AcDbPoint
 10
300.944487263027
 20
203.6237383524039
 30
0.0
  0
ENDBLK
  5
2A76
330
2A6A
100
AcDbEntity
  8
0
100
AcDbBlockEnd
  0
BLOCK
  5
2A8D
330
2A83
100
AcDbEntity
  8
0
100
AcDbBlockBegin
  2
*D25
 70
     1
 10
0.0
 20
0.0
 30
0.0
  3
*D25
  1

  0
LINE
  5
2F4C
330
2A83
100
AcDbEntity
  8
AM_5
100
AcDbLine
 10
263.444487263027
 20
194.0737383524039
 30
0.0
 11
263.444487263027
 21
180.6540832324037
 31
0.0
  0
LINE
  5
2F4D
330
2A83
100
AcDbEntity
  8
AM_5
100
AcDbLine
 10
282.944487263027
 20
194.123738352404
 30
0.0
 11
282.944487263027
 21
180.6540832324037
 31
0.0
  0
LINE
  5
2F4E
330
2A83
100
AcDbEntity
  8
AM_5
100
AcDbLine
 10
266.444487263027
 20
182.1540832324037
 30
0.0
 11
279.944487263027
 21
182.1540832324037
 31
0.0
  0
SOLID
  5
2F4F
330
2A83
100
AcDbEntity
  8
AM_5
100
AcDbTrace
 10
266.444487263027
 20
182.6540832324037
 30
0.0
 11
266.444487263027
 21
181.6540832324037
 31
0.0
 12
263.444487263027
 22
182.1540832324037
 32
0.0
 13
263.444487263027
 23
182.1540832324037
 33
0.0
  0
SOLID
  5
2F50
330
2A83
100
AcDbEntity
  8
AM_5
100
AcDbTrace
 10
279.944487263027
 20
182.6540832324037
 30
0.0
 11
279.944487263027
 21
181.6540832324037
 31
0.0
 12
282.944487263027
 22
182.1540832324037
 32
0.0
 13
282.944487263027
 23
182.1540832324037
 33
0.0
  0
MTEXT
  5
2F51
330
2A83
100
AcDbEntity
  8
AM_5
100
AcDbMText
 10
273.194487263027
 20
184.6040832324037
 30
0.0
 40
3.5
 41
0.0
 71
     5
 72
     1
  1
F
 73
     1
 44
1.0
1001
ACAD
1000
MTEXTBEGIN
1070
    73
1070
     1
1070
    44
1040
1.0
1070
    74
1070
     0
1000
MTEXTEND
  0
POINT
  5
2F52
330
2A83
100
AcDbEntity
  8
Defpoints
 62
     0
100
AcDbPoint
 10
263.444487263027
 20
195.0737383524039
 30
0.0
  0
POINT
  5
2F53
330
2A83
100
AcDbEntity
  8
Defpoints
 62
     0
100
AcDbPoint
 10
282.944487263027
 20
195.1237383524039
 30
0.0
  0
POINT
  5
2F54
330
2A83
100
AcDbEntity
  8
Defpoints
 62
     0
100
AcDbPoint
 10
282.944487263027
 20
182.1540832324037
 30
0.0
  0
ENDBLK
  5
2A8E
330
2A83
100
AcDbEntity
  8
0
100
AcDbBlockEnd
  0
BLOCK
  5
2AE7
330
2ADD
100
AcDbEntity
  8
0
100
AcDbBlockBegin
  2
*D26
 70
     1
 10
0.0
 20
0.0
 30
0.0
  3
*D26
  1

  0
LINE
  5
2F55
330
2ADD
100
AcDbEntity
  8
AM_5
100
AcDbLine
 10
254.444487263027
 20
120.0628439765141
 30
0.0
 11
254.444487263027
 21
95.34318885651419
 31
0.0
  0
LINE
  5
2F56
330
2ADD
100
AcDbEntity
  8
AM_5
100
AcDbLine
 10
263.444487263027
 20
116.7628439765141
 30
0.0
 11
263.444487263027
 21
95.34318885651419
 31
0.0
  0
LINE
  5
2F57
330
2ADD
100
AcDbEntity
  8
AM_5
100
AcDbLine
 10
257.444487263027
 20
96.84318885651419
 30
0.0
 11
260.444487263027
 21
96.84318885651419
 31
0.0
  0
SOLID
  5
2F58
330
2ADD
100
AcDbEntity
  8
AM_5
100
AcDbTrace
 10
257.444487263027
 20
97.34318885651418
 30
0.0
 11
257.444487263027
 21
96.34318885651419
 31
0.0
 12
254.444487263027
 22
96.84318885651419
 32
0.0
 13
254.444487263027
 23
96.84318885651419
 33
0.0
  0
SOLID
  5
2F59
330
2ADD
100
AcDbEntity
  8
AM_5
100
AcDbTrace
 10
260.444487263027
 20
97.34318885651418
 30
0.0
 11
260.444487263027
 21
96.34318885651419
 31
0.0
 12
263.444487263027
 22
96.84318885651419
 32
0.0
 13
263.444487263027
 23
96.84318885651419
 33
0.0
  0
MTEXT
  5
2F5A
330
2ADD
100
AcDbEntity
  8
AM_5
100
AcDbMText
 10
258.944487263027
 20
99.29318885651419
 30
0.0
 40
3.5
 41
0.0
 71
     5
 72
     1
  1
9
 73
     1
 44
1.0
1001
ACAD
1000
MTEXTBEGIN
1070
    73
1070
     1
1070
    44
1040
1.0
1070
    74
1070
     0
1000
MTEXTEND
  0
POINT
  5
2F5B
330
2ADD
100
AcDbEntity
  8
Defpoints
 62
     0
100
AcDbPoint
 10
254.444487263027
 20
121.0628439765141
 30
0.0
  0
POINT
  5
2F5C
330
2ADD
100
AcDbEntity
  8
Defpoints
 62
     0
100
AcDbPoint
 10
263.444487263027
 20
117.7628439765141
 30
0.0
  0
POINT
  5
2F5D
330
2ADD
100
AcDbEntity
  8
Defpoints
 62
     0
100
AcDbPoint
 10
263.444487263027
 20
96.84318885651419
 30
0.0
  0
ENDBLK
  5
2AE8
330
2ADD
100
AcDbEntity
  8
0
100
AcDbBlockEnd
  0
BLOCK
  5
2AF3
330
2AE9
100
AcDbEntity
  8
0
100
AcDbBlockBegin
  2
*D27
 70
     1
 10
0.0
 20
0.0
 30
0.0
  3
*D27
  1

  0
LINE
  5
2F5E
330
2AE9
100
AcDbEntity
  8
AM_5
100
AcDbLine
 10
263.444487263027
 20
116.7628439765141
 30
0.0
 11
263.444487263027
 21
95.34318885651419
 31
0.0
  0
LINE
  5
2F5F
330
2AE9
100
AcDbEntity
  8
AM_5
100
AcDbLine
 10
288.944487263027
 20
116.8128439765141
 30
0.0
 11
288.944487263027
 21
95.34318885651419
 31
0.0
  0
LINE
  5
2F60
330
2AE9
100
AcDbEntity
  8
AM_5
100
AcDbLine
 10
266.444487263027
 20
96.84318885651419
 30
0.0
 11
285.944487263027
 21
96.84318885651419
 31
0.0
  0
SOLID
  5
2F61
330
2AE9
100
AcDbEntity
  8
AM_5
100
AcDbTrace
 10
266.444487263027
 20
97.34318885651418
 30
0.0
 11
266.444487263027
 21
96.34318885651419
 31
0.0
 12
263.444487263027
 22
96.84318885651419
 32
0.0
 13
263.444487263027
 23
96.84318885651419
 33
0.0
  0
SOLID
  5
2F62
330
2AE9
100
AcDbEntity
  8
AM_5
100
AcDbTrace
 10
285.944487263027
 20
97.34318885651418
 30
0.0
 11
285.944487263027
 21
96.34318885651419
 31
0.0
 12
288.944487263027
 22
96.84318885651419
 32
0.0
 13
288.944487263027
 23
96.84318885651419
 33
0.0
  0
MTEXT
  5
2F63
330
2AE9
100
AcDbEntity
  8
AM_5
100
AcDbMText
 10
276.194487263027
 20
99.29318885651419
 30
0.0
 40
3.5
 41
0.0
 71
     5
 72
     1
  1
S
 73
     1
 44
1.0
1001
ACAD
1000
MTEXTBEGIN
1070
    73
1070
     1
1070
    44
1040
1.0
1070
    74
1070
     0
1000
MTEXTEND
  0
POINT
  5
2F64
330
2AE9
100
AcDbEntity
  8
Defpoints
 62
     0
100
AcDbPoint
 10
263.444487263027
 20
117.7628439765141
 30
0.0
  0
POINT
  5
2F65
330
2AE9
100
AcDbEntity
  8
Defpoints
 62
     0
100
AcDbPoint
 10
288.944487263027
 20
117.8128439765141
 30
0.0
  0
POINT
  5
2F66
330
2AE9
100
AcDbEntity
  8
Defpoints
 62
     0
100
AcDbPoint
 10
288.944487263027
 20
96.84318885651419
 30
0.0
  0
ENDBLK
  5
2AF4
330
2AE9
100
AcDbEntity
  8
0
100
AcDbBlockEnd
  0
BLOCK
  5
2AFF
330
2AF5
100
AcDbEntity
  8
0
100
AcDbBlockBegin
  2
*D28
 70
     1
 10
0.0
 20
0.0
 30
0.0
  3
*D28
  1

  0
LINE
  5
2F67
330
2AF5
100
AcDbEntity
  8
AM_5
100
AcDbLine
 10
254.444487263027
 20
120.0628439765141
 30
0.0
 11
254.444487263027
 21
87.34318885651418
 31
0.0
  0
LINE
  5
2F68
330
2AF5
100
AcDbEntity
  8
AM_5
100
AcDbLine
 10
288.944487263027
 20
116.8128439765141
 30
0.0
 11
288.944487263027
 21
87.34318885651418
 31
0.0
  0
LINE
  5
2F69
330
2AF5
100
AcDbEntity
  8
AM_5
100
AcDbLine
 10
257.444487263027
 20
88.84318885651419
 30
0.0
 11
285.944487263027
 21
88.84318885651419
 31
0.0
  0
SOLID
  5
2F6A
330
2AF5
100
AcDbEntity
  8
AM_5
100
AcDbTrace
 10
257.444487263027
 20
89.34318885651419
 30
0.0
 11
257.444487263027
 21
88.34318885651418
 31
0.0
 12
254.444487263027
 22
88.84318885651419
 32
0.0
 13
254.444487263027
 23
88.84318885651419
 33
0.0
  0
SOLID
  5
2F6B
330
2AF5
100
AcDbEntity
  8
AM_5
100
AcDbTrace
 10
285.944487263027
 20
89.34318885651419
 30
0.0
 11
285.944487263027
 21
88.34318885651418
 31
0.0
 12
288.944487263027
 22
88.84318885651419
 32
0.0
 13
288.944487263027
 23
88.84318885651419
 33
0.0
  0
MTEXT
  5
2F6C
330
2AF5
100
AcDbEntity
  8
AM_5
100
AcDbMText
 10
271.694487263027
 20
91.2931888565142
 30
0.0
 40
3.5
 41
0.0
 71
     5
 72
     1
  1
Z
 73
     1
 44
1.0
1001
ACAD
1000
MTEXTBEGIN
1070
    73
1070
     1
1070
    44
1040
1.0
1070
    74
1070
     0
1000
MTEXTEND
  0
POINT
  5
2F6D
330
2AF5
100
AcDbEntity
  8
Defpoints
 62
     0
100
AcDbPoint
 10
254.444487263027
 20
121.0628439765141
 30
0.0
  0
POINT
  5
2F6E
330
2AF5
100
AcDbEntity
  8
Defpoints
 62
     0
100
AcDbPoint
 10
288.944487263027
 20
117.8128439765141
 30
0.0
  0
POINT
  5
2F6F
330
2AF5
100
AcDbEntity
  8
Defpoints
 62
     0
100
AcDbPoint
 10
288.944487263027
 20
88.84318885651419
 30
0.0
  0
ENDBLK
  5
2B00
330
2AF5
100
AcDbEntity
  8
0
100
AcDbBlockEnd
  0
BLOCK
  5
2B0C
330
2B01
100
AcDbEntity
  8
0
100
AcDbBlockBegin
  2
*D29
 70
     1
 10
0.0
 20
0.0
 30
0.0
  3
*D29
  1

  0
LINE
  5
2F70
330
2B01
100
AcDbEntity
  8
AM_5
100
AcDbLine
 10
289.944487263027
 20
117.8128439765141
 30
0.0
 11
302.444487263027
 21
117.8128439765141
 31
0.0
  0
LINE
  5
2F71
330
2B01
100
AcDbEntity
  8
AM_5
100
AcDbLine
 10
289.944487263027
 20
126.3128439765141
 30
0.0
 11
302.444487263027
 21
126.3128439765141
 31
0.0
  0
LINE
  5
2F72
330
2B01
100
AcDbEntity
  8
AM_5
100
AcDbLine
 10
300.944487263027
 20
120.8128439765141
 30
0.0
 11
300.944487263027
 21
123.3128439765141
 31
0.0
  0
LINE
  5
2F73
330
2B01
100
AcDbEntity
  8
AM_5
100
AcDbLine
 10
300.944487263027
 20
126.3128439765141
 30
0.0
 11
300.944487263027
 21
145.3134211530203
 31
0.0
  0
SOLID
  5
2F74
330
2B01
100
AcDbEntity
  8
AM_5
100
AcDbTrace
 10
300.444487263027
 20
120.8128439765141
 30
0.0
 11
301.444487263027
 21
120.8128439765141
 31
0.0
 12
300.944487263027
 22
117.8128439765141
 32
0.0
 13
300.944487263027
 23
117.8128439765141
 33
0.0
  0
SOLID
  5
2F75
330
2B01
100
AcDbEntity
  8
AM_5
100
AcDbTrace
 10
300.444487263027
 20
123.3128439765141
 30
0.0
 11
301.444487263027
 21
123.3128439765141
 31
0.0
 12
300.944487263027
 22
126.3128439765141
 32
0.0
 13
300.944487263027
 23
126.3128439765141
 33
0.0
  0
MTEXT
  5
2F76
330
2B01
100
AcDbEntity
  8
AM_5
100
AcDbMText
 10
298.494487263027
 20
137.3131325647672
 30
0.0
 40
3.5
 41
0.0
 71
     5
 72
     1
  1
%%c8.5{}{\C5; d9}
 11
0.0000000000000001
 21
1.0
 31
0.0
 73
     1
 44
1.0
1001
ACAD
1000
MTEXTBEGIN
1070
    73
1070
     1
1070
    44
1040
1.0
1070
    74
1070
     0
1000
MTEXTEND
  0
POINT
  5
2F77
330
2B01
100
AcDbEntity
  8
Defpoints
 62
     0
100
AcDbPoint
 10
288.944487263027
 20
117.8128439765141
 30
0.0
  0
POINT
  5
2F78
330
2B01
100
AcDbEntity
  8
Defpoints
 62
     0
100
AcDbPoint
 10
288.944487263027
 20
126.3128439765141
 30
0.0
  0
POINT
  5
2F79
330
2B01
100
AcDbEntity
  8
Defpoints
 62
     0
100
AcDbPoint
 10
300.944487263027
 20
126.3128439765141
 30
0.0
  0
ENDBLK
  5
2B0D
330
2B01
100
AcDbEntity
  8
0
100
AcDbBlockEnd
  0
BLOCK
  5
2B69
330
2B0E
100
AcDbEntity
  8
0
100
AcDbBlockBegin
  2
*D30
 70
     1
 10
0.0
 20
0.0
 30
0.0
  3
*D30
  1

  0
LINE
  5
2F7A
330
2B0E
100
AcDbEntity
  8
AM_5
100
AcDbLine
 10
254.444487263027
 20
120.0628439765141
 30
0.0
 11
254.444487263027
 21
103.3431888565142
 31
0.0
  0
LINE
  5
2F7B
330
2B0E
100
AcDbEntity
  8
AM_5
100
AcDbLine
 10
261.444487263027
 20
119.6628439765141
 30
0.0
 11
261.444487263027
 21
103.3431888565142
 31
0.0
  0
LINE
  5
2F7C
330
2B0E
100
AcDbEntity
  8
AM_5
100
AcDbLine
 10
251.444487263027
 20
104.8431888565142
 30
0.0
 11
248.444487263027
 21
104.8431888565142
 31
0.0
  0
LINE
  5
2F7D
330
2B0E
100
AcDbEntity
  8
AM_5
100
AcDbLine
 10
264.444487263027
 20
104.8431888565142
 30
0.0
 11
267.444487263027
 21
104.8431888565142
 31
0.0
  0
LINE
  5
2F7E
330
2B0E
100
AcDbEntity
  8
AM_5
100
AcDbLine
 10
254.444487263027
 20
104.8431888565142
 30
0.0
 11
261.444487263027
 21
104.8431888565142
 31
0.0
  0
SOLID
  5
2F7F
330
2B0E
100
AcDbEntity
  8
AM_5
100
AcDbTrace
 10
251.444487263027
 20
105.3431888565142
 30
0.0
 11
251.444487263027
 21
104.3431888565142
 31
0.0
 12
254.444487263027
 22
104.8431888565142
 32
0.0
 13
254.444487263027
 23
104.8431888565142
 33
0.0
  0
INSERT
  5
2F80
330
2B0E
100
AcDbEntity
  8
AM_5
100
AcDbBlockReference
  2
GENDOT
 10
261.444487263027
 20
104.8431888565142
 30
0.0
 41
3.0
 42
3.0
 43
3.0
 50
180.0
  0
MTEXT
  5
2F81
330
2B0E
100
AcDbEntity
  8
AM_5
100
AcDbMText
 10
257.944487263027
 20
107.2931888565142
 30
0.0
 40
3.5
 41
0.0
 71
     5
 72
     1
  1
7
 73
     1
 44
1.0
1001
ACAD
1000
MTEXTBEGIN
1070
    73
1070
     1
1070
    44
1040
1.0
1070
    74
1070
     0
1000
MTEXTEND
  0
POINT
  5
2F82
330
2B0E
100
AcDbEntity
  8
Defpoints
 62
     0
100
AcDbPoint
 10
254.444487263027
 20
121.0628439765141
 30
0.0
  0
POINT
  5
2F83
330
2B0E
100
AcDbEntity
  8
Defpoints
 62
     0
100
AcDbPoint
 10
261.444487263027
 20
120.6628439765141
 30
0.0
  0
POINT
  5
2F84
330
2B0E
100
AcDbEntity
  8
Defpoints
 62
     0
100
AcDbPoint
 10
261.444487263027
 20
104.8431888565142
 30
0.0
  0
ENDBLK
  5
2B6A
330
2B0E
100
AcDbEntity
  8
0
100
AcDbBlockEnd
  0
BLOCK
  5
2B24
330
2B1A
100
AcDbEntity
  8
0
100
AcDbBlockBegin
  2
*D31
 70
     1
 10
0.0
 20
0.0
 30
0.0
  3
*D31
  1

  0
LINE
  5
2F85
330
2B1A
100
AcDbEntity
  8
AM_5
100
AcDbLine
 10
263.444487263027
 20
116.7628439765141
 30
0.0
 11
263.444487263027
 21
103.3431888565139
 31
0.0
  0
LINE
  5
2F86
330
2B1A
100
AcDbEntity
  8
AM_5
100
AcDbLine
 10
282.944487263027
 20
116.8128439765141
 30
0.0
 11
282.944487263027
 21
103.3431888565139
 31
0.0
  0
LINE
  5
2F87
330
2B1A
100
AcDbEntity
  8
AM_5
100
AcDbLine
 10
266.444487263027
 20
104.8431888565139
 30
0.0
 11
279.944487263027
 21
104.8431888565139
 31
0.0
  0
SOLID
  5
2F88
330
2B1A
100
AcDbEntity
  8
AM_5
100
AcDbTrace
 10
266.444487263027
 20
105.3431888565139
 30
0.0
 11
266.444487263027
 21
104.3431888565139
 31
0.0
 12
263.444487263027
 22
104.8431888565139
 32
0.0
 13
263.444487263027
 23
104.8431888565139
 33
0.0
  0
SOLID
  5
2F89
330
2B1A
100
AcDbEntity
  8
AM_5
100
AcDbTrace
 10
279.944487263027
 20
105.3431888565139
 30
0.0
 11
279.944487263027
 21
104.3431888565139
 31
0.0
 12
282.944487263027
 22
104.8431888565139
 32
0.0
 13
282.944487263027
 23
104.8431888565139
 33
0.0
  0
MTEXT
  5
2F8A
330
2B1A
100
AcDbEntity
  8
AM_5
100
AcDbMText
 10
273.194487263027
 20
107.2931888565139
 30
0.0
 40
3.5
 41
0.0
 71
     5
 72
     1
  1
F
 73
     1
 44
1.0
1001
ACAD
1000
MTEXTBEGIN
1070
    73
1070
     1
1070
    44
1040
1.0
1070
    74
1070
     0
1000
MTEXTEND
  0
POINT
  5
2F8B
330
2B1A
100
AcDbEntity
  8
Defpoints
 62
     0
100
AcDbPoint
 10
263.444487263027
 20
117.7628439765141
 30
0.0
  0
POINT
  5
2F8C
330
2B1A
100
AcDbEntity
  8
Defpoints
 62
     0
100
AcDbPoint
 10
282.944487263027
 20
117.8128439765141
 30
0.0
  0
POINT
  5
2F8D
330
2B1A
100
AcDbEntity
  8
Defpoints
 62
     0
100
AcDbPoint
 10
282.944487263027
 20
104.8431888565139
 30
0.0
  0
ENDBLK
  5
2B25
330
2B1A
100
AcDbEntity
  8
0
100
AcDbBlockEnd
  0
BLOCK
  5
2B7E
330
2B72
100
AcDbEntity
  8
0
100
AcDbBlockBegin
  2
*D32
 70
     1
 10
0.0
 20
0.0
 30
0.0
  3
*D32
  1

  0
LINE
  5
2F8E
330
2B72
100
AcDbEntity
  8
AM_5
100
AcDbLine
 10
97.9059986682121
 20
200.873738352404
 30
0.0
 11
91.95553316855212
 21
200.873738352404
 31
0.0
  0
LINE
  5
2F8F
330
2B72
100
AcDbEntity
  8
AM_5
100
AcDbLine
 10
97.90599866821207
 20
197.8737383524038
 30
0.0
 11
91.95553316855212
 21
197.8737383524038
 31
0.0
  0
LINE
  5
2F90
330
2B72
100
AcDbEntity
  8
AM_5
100
AcDbLine
 10
93.45553316855212
 20
194.8737383524038
 30
0.0
 11
93.45553316855212
 21
191.8737383524038
 31
0.0
  0
LINE
  5
2F91
330
2B72
100
AcDbEntity
  8
AM_5
100
AcDbLine
 10
93.45553316855212
 20
203.8737383524039
 30
0.0
 11
93.45553316855212
 21
218.9487383524039
 31
0.0
  0
LINE
  5
2F92
330
2B72
100
AcDbEntity
  8
AM_5
100
AcDbLine
 10
93.45553316855212
 20
197.8737383524038
 30
0.0
 11
93.45553316855212
 21
200.873738352404
 31
0.0
  0
SOLID
  5
2F93
330
2B72
100
AcDbEntity
  8
AM_5
100
AcDbTrace
 10
92.95553316855212
 20
194.8737383524038
 30
0.0
 11
93.95553316855211
 21
194.8737383524038
 31
0.0
 12
93.45553316855212
 22
197.8737383524038
 32
0.0
 13
93.45553316855212
 23
197.8737383524038
 33
0.0
  0
SOLID
  5
2F94
330
2B72
100
AcDbEntity
  8
AM_5
100
AcDbTrace
 10
92.95553316855212
 20
203.8737383524039
 30
0.0
 11
93.95553316855211
 21
203.8737383524039
 31
0.0
 12
93.45553316855212
 22
200.873738352404
 32
0.0
 13
93.45553316855212
 23
200.873738352404
 33
0.0
  0
MTEXT
  5
2F95
330
2B72
100
AcDbEntity
  8
AM_5
100
AcDbMText
 10
91.0055331685521
 20
212.9987383524039
 30
0.0
 40
3.5
 41
0.0
 71
     5
 72
     1
  1
%%c3{}{\C5; f8}
 11
0.0000000000000001
 21
1.0
 31
0.0
 73
     1
 44
1.0
1001
ACAD
1000
MTEXTBEGIN
1070
    73
1070
     1
1070
    44
1040
1.0
1070
    74
1070
     0
1000
MTEXTEND
  0
POINT
  5
2F96
330
2B72
100
AcDbEntity
  8
Defpoints
 62
     0
100
AcDbPoint
 10
98.90599866821212
 20
200.873738352404
 30
0.0
  0
POINT
  5
2F97
330
2B72
100
AcDbEntity
  8
Defpoints
 62
     0
100
AcDbPoint
 10
98.90599866821206
 20
197.8737383524038
 30
0.0
  0
POINT
  5
2F98
330
2B72
100
AcDbEntity
  8
Defpoints
 62
     0
100
AcDbPoint
 10
93.45553316855212
 20
197.8737383524038
 30
0.0
  0
ENDBLK
  5
2B7F
330
2B72
100
AcDbEntity
  8
0
100
AcDbBlockEnd
  0
BLOCK
  5
2C37
330
2C2B
100
AcDbEntity
  8
0
100
AcDbBlockBegin
  2
*D33
 70
     1
 10
0.0
 20
0.0
 30
0.0
  3
*D33
  1

  0
LINE
  5
2F99
330
2C2B
100
AcDbEntity
  8
AM_5
100
AcDbLine
 10
253.944487263027
 20
200.873738352404
 30
0.0
 11
247.9940217633671
 21
200.873738352404
 31
0.0
  0
LINE
  5
2F9A
330
2C2B
100
AcDbEntity
  8
AM_5
100
AcDbLine
 10
253.944487263027
 20
197.8737383524038
 30
0.0
 11
247.9940217633671
 21
197.8737383524038
 31
0.0
  0
LINE
  5
2F9B
330
2C2B
100
AcDbEntity
  8
AM_5
100
AcDbLine
 10
249.4940217633671
 20
194.8737383524038
 30
0.0
 11
249.494021763367
 21
191.8737383524038
 31
0.0
  0
LINE
  5
2F9C
330
2C2B
100
AcDbEntity
  8
AM_5
100
AcDbLine
 10
249.4940217633671
 20
203.8737383524039
 30
0.0
 11
249.4940217633671
 21
218.948738352404
 31
0.0
  0
LINE
  5
2F9D
330
2C2B
100
AcDbEntity
  8
AM_5
100
AcDbLine
 10
249.4940217633671
 20
197.8737383524038
 30
0.0
 11
249.4940217633671
 21
200.873738352404
 31
0.0
  0
SOLID
  5
2F9E
330
2C2B
100
AcDbEntity
  8
AM_5
100
AcDbTrace
 10
248.9940217633671
 20
194.8737383524038
 30
0.0
 11
249.9940217633671
 21
194.8737383524038
 31
0.0
 12
249.4940217633671
 22
197.8737383524038
 32
0.0
 13
249.4940217633671
 23
197.8737383524038
 33
0.0
  0
SOLID
  5
2F9F
330
2C2B
100
AcDbEntity
  8
AM_5
100
AcDbTrace
 10
248.9940217633671
 20
203.8737383524039
 30
0.0
 11
249.9940217633671
 21
203.8737383524039
 31
0.0
 12
249.4940217633671
 22
200.873738352404
 32
0.0
 13
249.4940217633671
 23
200.873738352404
 33
0.0
  0
MTEXT
  5
2FA0
330
2C2B
100
AcDbEntity
  8
AM_5
100
AcDbMText
 10
247.044021763367
 20
212.998738352404
 30
0.0
 40
3.5
 41
0.0
 71
     5
 72
     1
  1
%%c3{}{\C5; f8}
 11
0.0000000000000001
 21
1.0
 31
0.0
 73
     1
 44
1.0
1001
ACAD
1000
MTEXTBEGIN
1070
    73
1070
     1
1070
    44
1040
1.0
1070
    74
1070
     0
1000
MTEXTEND
  0
POINT
  5
2FA1
330
2C2B
100
AcDbEntity
  8
Defpoints
 62
     0
100
AcDbPoint
 10
254.944487263027
 20
200.873738352404
 30
0.0
  0
POINT
  5
2FA2
330
2C2B
100
AcDbEntity
  8
Defpoints
 62
     0
100
AcDbPoint
 10
254.944487263027
 20
197.8737383524038
 30
0.0
  0
POINT
  5
2FA3
330
2C2B
100
AcDbEntity
  8
Defpoints
 62
     0
100
AcDbPoint
 10
249.4940217633671
 20
197.8737383524038
 30
0.0
  0
ENDBLK
  5
2C38
330
2C2B
100
AcDbEntity
  8
0
100
AcDbBlockEnd
  0
BLOCK
  5
2FB8
330
2FB3
100
AcDbEntity
  8
0
100
AcDbBlockBegin
  2
*S34
 70
     1
 10
0.0
 20
0.0
 30
0.0
  3
*S34
  1

  0
LINE
  5
2FB4
330
2FB3
100
AcDbEntity
  8
AM_5
 62
     5
100
AcDbLine
 10
155.4096545305207
 20
184.5140373562283
 30
0.0
 11
141.6759539540881
 21
184.5140373562283
 31
0.0
  0
LINE
  5
2FB5
330
2FB3
100
AcDbEntity
  8
AM_5
 62
     5
100
AcDbLine
 10
141.6759539540881
 20
184.5140373562283
 30
0.0
 11
134.6849306977051
 21
196.3595384860308
 31
0.0
  0
TRACE
  5
2FB6
330
2FB3
100
AcDbEntity
  8
AM_5
 62
     5
370
    35
100
AcDbTrace
 10
135.0817576365702
 20
196.5937393297068
 30
0.0
 11
134.28810375884
 21
196.1253376423548
 31
0.0
 12
132.9059986682121
 22
199.373738352404
 32
0.0
 13
132.9059986682121
 23
199.373738352404
 33
0.0
  0
MTEXT
  5
2FB7
330
2FB3
100
AcDbEntity
  8
AM_5
 62
     5
100
AcDbMText
 10
155.4096545305207
 20
189.7165691345335
 30
0.0
 40
3.5
 41
0.0
 71
     9
 72
     5
  1

  7
ACISOTS
210
0.0
220
0.0
230
-1.0
 11
-1.0
 21
0.0
 31
0.0
 73
     1
 44
1.0
1001
ACAD
1000
MTEXTBEGIN
1070
    73
1070
     1
1070
    44
1040
1.0
1070
    74
1070
     0
1000
MTEXTEND
  0
ENDBLK
  5
2FB9
330
2FB3
100
AcDbEntity
  8
0
100
AcDbBlockEnd
  0
BLOCK
  5
2FC0
330
2FBB
100
AcDbEntity
  8
0
100
AcDbBlockBegin
  2
*S35
 70
     1
 10
0.0
 20
0.0
 30
0.0
  3
*S35
  1

  0
LINE
  5
2FBC
330
2FBB
100
AcDbEntity
  8
AM_5
 62
     5
100
AcDbLine
 10
155.4096545305207
 20
107.2031429803385
 30
0.0
 11
141.6759539540881
 21
107.2031429803385
 31
0.0
  0
LINE
  5
2FBD
330
2FBB
100
AcDbEntity
  8
AM_5
 62
     5
100
AcDbLine
 10
141.6759539540881
 20
107.2031429803385
 30
0.0
 11
134.6849306977051
 21
119.048644110141
 31
0.0
  0
TRACE
  5
2FBE
330
2FBB
100
AcDbEntity
  8
AM_5
 62
     5
370
    35
100
AcDbTrace
 10
135.0817576365702
 20
119.282844953817
 30
0.0
 11
134.28810375884
 21
118.8144432664649
 31
0.0
 12
132.9059986682121
 22
122.0628439765141
 32
0.0
 13
132.9059986682121
 23
122.0628439765141
 33
0.0
  0
MTEXT
  5
2FBF
330
2FBB
100
AcDbEntity
  8
AM_5
 62
     5
100
AcDbMText
 10
155.4096545305207
 20
112.4056747586437
 30
0.0
 40
3.5
 41
0.0
 71
     9
 72
     5
  1

  7
ACISOTS
210
0.0
220
0.0
230
-1.0
 11
-1.0
 21
0.0
 31
0.0
 73
     1
 44
1.0
1001
ACAD
1000
MTEXTBEGIN
1070
    73
1070
     1
1070
    44
1040
1.0
1070
    74
1070
     0
1000
MTEXTEND
  0
ENDBLK
  5
2FC1
330
2FBB
100
AcDbEntity
  8
0
100
AcDbBlockEnd
  0
BLOCK
  5
2FC8
330
2FC3
100
AcDbEntity
  8
0
100
AcDbBlockBegin
  2
*S36
 70
     1
 10
0.0
 20
0.0
 30
0.0
  3
*S36
  1

  0
LINE
  5
2FC4
330
2FC3
100
AcDbEntity
  8
AM_5
 62
     5
100
AcDbLine
 10
237.8363660844859
 20
133.9511167410716
 30
0.0
 11
251.3542595667701
 21
133.9511167410716
 31
0.0
  0
LINE
  5
2FC5
330
2FC3
100
AcDbEntity
  8
AM_5
 62
     5
100
AcDbLine
 10
251.3542595667701
 20
133.9511167410716
 30
0.0
 11
254.3193859018649
 21
126.7023047931696
 31
0.0
  0
TRACE
  5
2FC6
330
2FC3
100
AcDbEntity
  8
AM_5
 62
     5
370
    35
100
AcDbTrace
 10
253.8929027964185
 20
126.5278518901945
 30
0.0
 11
254.7458690073113
 21
126.8767576961447
 31
0.0
 12
255.644487263027
 22
123.4628439765141
 32
0.0
 13
255.644487263027
 23
123.4628439765141
 33
0.0
  0
MTEXT
  5
2FC7
330
2FC3
100
AcDbEntity
  8
AM_5
 62
     5
100
AcDbMText
 10
237.8363660844859
 20
138.2268798338234
 30
0.0
 40
3.499999999999999
 41
0.0
 71
     9
 72
     5
  1

  7
ACISOTS
 73
     1
 44
1.0
1001
ACAD
1000
MTEXTBEGIN
1070
    73
1070
     1
1070
    44
1040
1.0
1070
    74
1070
     0
1000
MTEXTEND
  0
ENDBLK
  5
2FC9
330
2FC3
100
AcDbEntity
  8
0
100
AcDbBlockEnd
  0
BLOCK
  5
2FD0
330
2FCB
100
AcDbEntity
  8
0
100
AcDbBlockBegin
  2
*S37
 70
     1
 10
0.0
 20
0.0
 30
0.0
  3
*S37
  1

  0
LINE
  5
2FCC
330
2FCB
100
AcDbEntity
  8
AM_5
 62
     5
100
AcDbLine
 10
81.797877489671
 20
133.9511167410716
 30
0.0
 11
95.31577097195521
 21
133.9511167410716
 31
0.0
  0
LINE
  5
2FCD
330
2FCB
100
AcDbEntity
  8
AM_5
 62
     5
100
AcDbLine
 10
95.31577097195521
 20
133.9511167410716
 30
0.0
 11
98.28089730704999
 21
126.7023047931696
 31
0.0
  0
TRACE
  5
2FCE
330
2FCB
100
AcDbEntity
  8
AM_5
 62
     5
370
    35
100
AcDbTrace
 10
97.85441420160363
 20
126.5278518901945
 30
0.0
 11
98.70738041249634
 21
126.8767576961447
 31
0.0
 12
99.60599866821207
 22
123.4628439765141
 32
0.0
 13
99.60599866821207
 23
123.4628439765141
 33
0.0
  0
MTEXT
  5
2FCF
330
2FCB
100
AcDbEntity
  8
AM_5
 62
     5
100
AcDbMText
 10
81.797877489671
 20
138.2268798338234
 30
0.0
 40
3.499999999999999
 41
0.0
 71
     9
 72
     5
  1

  7
ACISOTS
 73
     1
 44
1.0
1001
ACAD
1000
MTEXTBEGIN
1070
    73
1070
     1
1070
    44
1040
1.0
1070
    74
1070
     0
1000
MTEXTEND
  0
ENDBLK
  5
2FD1
330
2FCB
100
AcDbEntity
  8
0
100
AcDbBlockEnd
  0
ENDSEC
  0
SECTION
  2
ENTITIES
  0
LINE
  5
1922
330
1F
100
AcDbEntity
  8
0
100
AcDbLine
 10
95.97150611122435
 20
76.4429020060955
 30
0.0
 11
95.97150611122334
 21
63.00290200609601
 31
0.0
  0
LINE
  5
1924
330
1F
100
AcDbEntity
  8
0
100
AcDbLine
 10
105.2238372126522
 20
76.4429020060955
 30
0.0
 11
105.2238372126531
 21
63.00290200609601
 31
0.0
  0
LINE
  5
1925
330
1F
100
AcDbEntity
  8
0
100
AcDbLine
 10
95.97150611122481
 20
63.00290200609584
 30
0.0
 11
127.8591183543764
 21
63.00290200609589
 31
0.0
  0
LINE
  5
1926
330
1F
100
AcDbEntity
  8
0
100
AcDbLine
 10
95.97150611122435
 20
73.08290200609565
 30
0.0
 11
127.8591183543758
 21
73.08290200609576
 31
0.0
  0
TEXT
  5
1927
330
1F
100
AcDbEntity
  8
0
100
AcDbText
 10
99.85952467622366
 20
70.29405332448025
 30
0.0
 40
2.10953224323072
  1
5
 41
0.8
  7
CHINESET
 72
     4
 11
100.4220666077518
 21
71.3488194460956
 31
0.0
100
AcDbText
  0
TEXT
  5
1928
330
1F
100
AcDbEntity
  8
0
100
AcDbText
 10
97.66254232594599
 20
73.89579502418968
 30
0.0
 40
1.679999999999999
  1
Stroke
 41
0.8
  7
CHINESET
100
AcDbText
  0
TEXT
  5
1929
330
1F
100
AcDbEntity
  8
0
100
AcDbText
 10
114.0481140539105
 20
70.31145979383985
 30
0.0
 40
2.1
  1
18.5
 41
0.8
  7
CHINESET
100
AcDbText
  0
LINE
  5
192A
330
1F
100
AcDbEntity
  8
0
100
AcDbLine
 10
95.97150611122435
 20
76.4429020060956
 30
0.0
 11
127.8591183543756
 21
76.44290200609566
 31
0.0
  0
INSERT
  5
192B
330
1F
100
AcDbEntity
  8
0
100
AcDbBlockReference
  2
A$C5ECF147B
 10
95.52075569829344
 20
66.65765333994176
 30
0.0
 41
0.6720000000000255
 42
0.6719999999999971
 43
0.6719999999999999
  0
TEXT
  5
192D
330
1F
100
AcDbEntity
  8
0
100
AcDbText
 10
115.8406767360308
 20
73.67145979383986
 30
0.0
 40
2.1
  1
S
 41
0.8
  7
CHINESET
100
AcDbText
  0
LINE
  5
192F
330
1F
100
AcDbEntity
  8
0
100
AcDbLine
 10
127.859118354376
 20
76.4429020060955
 30
0.0
 11
127.8591183543764
 21
63.00290200609549
 31
0.0
  0
TEXT
  5
1930
330
1F
100
AcDbEntity
  8
0
100
AcDbText
 10
121.5011443760183
 20
70.31145979383961
 30
0.0
 40
2.1
  1
27.5
 41
0.8
  7
CHINESET
100
AcDbText
  0
TEXT
  5
1931
330
1F
100
AcDbEntity
  8
0
100
AcDbText
 10
123.6621813240148
 20
73.67145979383986
 30
0.0
 40
2.1
  1
Z
 41
0.8
  7
CHINESET
100
AcDbText
  0
LINE
  5
19C2
330
1F
100
AcDbEntity
  8
0
100
AcDbLine
 10
95.97150611122458
 20
69.72290200609569
 30
0.0
 11
127.859118354376
 21
69.72290200609575
 31
0.0
  0
LINE
  5
19C3
330
1F
100
AcDbEntity
  8
0
100
AcDbLine
 10
95.97150611122481
 20
66.36290200609574
 30
0.0
 11
127.8591183543762
 21
66.36290200609585
 31
0.0
  0
TEXT
  5
19C4
330
1F
100
AcDbEntity
  8
0
100
AcDbText
 10
99.21661961162023
 20
66.93405332448029
 30
0.0
 40
2.10953224323072
  1
10
 41
0.8
  7
CHINESET
 72
     4
 11
100.4220666077521
 21
67.98881944609565
 31
0.0
100
AcDbText
  0
TEXT
  5
19C5
330
1F
100
AcDbEntity
  8
0
100
AcDbText
 10
99.21661961162046
 20
63.57405332448045
 30
0.0
 40
2.10953224323072
  1
15
 41
0.8
  7
CHINESET
 72
     4
 11
100.4220666077523
 21
64.62881944609581
 31
0.0
100
AcDbText
  0
TEXT
  5
19C8
330
1F
100
AcDbEntity
  8
0
100
AcDbText
 10
114.0481140539107
 20
66.95145979383994
 30
0.0
 40
2.1
  1
25.5
 41
0.8
  7
CHINESET
100
AcDbText
  0
TEXT
  5
19C9
330
1F
100
AcDbEntity
  8
0
100
AcDbText
 10
121.5011443760185
 20
66.95145979383972
 30
0.0
 40
2.1
  1
34.5
 41
0.8
  7
CHINESET
100
AcDbText
  0
TEXT
  5
19CA
330
1F
100
AcDbEntity
  8
0
100
AcDbText
 10
114.0481140539108
 20
63.59145979384004
 30
0.0
 40
2.1
  1
32.5
 41
0.8
  7
CHINESET
100
AcDbText
  0
TEXT
  5
19CB
330
1F
100
AcDbEntity
  8
0
100
AcDbText
 10
121.5011443760186
 20
63.59145979383981
 30
0.0
 40
2.1
  1
41.5
 41
0.8
  7
CHINESET
100
AcDbText
  0
LINE
  5
1A11
330
1F
100
AcDbEntity
  8
0
100
AcDbLine
 10
112.7689309265602
 20
76.44290200609566
 30
0.0
 11
112.7689309265607
 21
63.00290200609584
 31
0.0
  0
TEXT
  5
1A12
330
1F
100
AcDbEntity
  8
0
100
AcDbText
 10
106.6108811715157
 20
70.31145979383973
 30
0.0
 40
2.1
  1
12.5
 41
0.8
  7
CHINESET
100
AcDbText
  0
TEXT
  5
1A13
330
1F
100
AcDbEntity
  8
0
100
AcDbText
 10
108.403443160783
 20
73.6714597938398
 30
0.0
 40
2.1
  1
F
 41
0.8
  7
CHINESET
100
AcDbText
  0
TEXT
  5
1A14
330
1F
100
AcDbEntity
  8
0
100
AcDbText
 10
106.6108811715158
 20
66.95145979383983
 30
0.0
 40
2.1
  1
19.5
 41
0.8
  7
CHINESET
100
AcDbText
  0
TEXT
  5
1A15
330
1F
100
AcDbEntity
  8
0
100
AcDbText
 10
106.610881171516
 20
63.59145979383993
 30
0.0
 40
2.1
  1
26.5
 41
0.8
  7
CHINESET
100
AcDbText
  0
LINE
  5
1A2E
330
1F
100
AcDbEntity
  8
0
100
AcDbLine
 10
120.314024640468
 20
76.44290200609572
 30
0.0
 11
120.3140246404686
 21
63.00290200609584
 31
0.0
  0
TEXT
  5
1C90
330
1F
100
AcDbEntity
  8
0
100
AcDbText
 10
56.10523162871436
 20
235.1318659369978
 30
0.0
 40
4.0
  1
MCMJPB
100
AcDbText
  0
TEXT
  5
1C96
330
1F
100
AcDbEntity
  8
0
100
AcDbText
 10
56.10523162871436
 20
224.8436770941124
 30
0.0
 40
4.0
  1
Style:10
100
AcDbText
  0
TEXT
  5
1C9A
330
1F
100
AcDbEntity
  8
0
100
AcDbText
 10
56.10523162871436
 20
150.7791015746176
 30
0.0
 40
4.0
  1
Style:15
100
AcDbText
  0
TEXT
  5
1C9C
330
1F
100
AcDbEntity
  8
0
100
AcDbText
 10
206.3359672724534
 20
235.1318659369978
 30
0.0
 40
4.0
  1
MCMJPS
100
AcDbText
  0
TEXT
  5
1C9D
330
1F
100
AcDbEntity
  8
0
100
AcDbText
 10
206.3359672724534
 20
224.8436770941124
 30
0.0
 40
4.0
  1
Style:10
100
AcDbText
  0
TEXT
  5
1C9E
330
1F
100
AcDbEntity
  8
0
100
AcDbText
 10
206.3359672724534
 20
150.7791015746176
 30
0.0
 40
4.0
  1
Style:15
100
AcDbText
  0
TEXT
  5
1E63
330
1F
100
AcDbEntity
  8
LOGO
 62
     7
100
AcDbText
 10
85.73604195194048
 20
44.51148422549147
 30
0.0
 40
2.932908597285067
  1
Order example:
 41
0.8
  7
CHINESET
100
AcDbText
  0
TEXT
  5
1E64
330
1F
100
AcDbEntity
  8
LOGO
 62
     7
100
AcDbText
 10
86.26223000846085
 20
48.64041226399513
 30
0.0
 40
4.399362895927601
  1
訂購代號：
  7
CHINESET
100
AcDbText
  0
LINE
  5
1E65
330
1F
100
AcDbEntity
  8
LOGO
 62
     4
100
AcDbLine
 10
84.46168321856609
 20
32.15109986159985
 30
0.0
 11
84.46168321856609
 21
54.14791434123799
 31
0.0
  0
TEXT
  5
1E66
330
1F
100
AcDbEntity
  8
LOGO
  6
Continuous
100
AcDbText
 10
43.97004600204259
 20
36.47234087003733
 30
0.0
 40
3.299522171945701
  1
金器工業股份有限公司
  7
CHINESET
100
AcDbText
  0
TEXT
  5
1E67
330
1F
100
AcDbEntity
  8
LOGO
  6
Continuous
100
AcDbText
 10
37.90947655044848
 20
33.17217225043848
 30
0.0
 40
2.1996814479638
  1
MINDMAN INDUSTRIAL CO., LTD.
 41
0.85
  7
CHINESET
100
AcDbText
  0
LINE
  5
1E68
330
1F
100
AcDbEntity
  8
LOGO
 62
     4
100
AcDbLine
 10
84.46168321856609
 20
49.74855144531036
 30
0.0
 11
52.19968864843012
 21
49.74855144531036
 31
0.0
  0
LINE
  5
1E69
330
1F
100
AcDbEntity
  8
LOGO
 62
     4
100
AcDbLine
 10
84.46168321856609
 20
45.34918854938273
 30
0.0
 11
52.19968864843012
 21
45.34918854938273
 31
0.0
  0
LINE
  5
1E6A
330
1F
100
AcDbEntity
  8
LOGO
 62
     4
100
AcDbLine
 10
84.46168321856609
 20
40.94982565345535
 30
0.0
 11
36.06869136336241
 21
40.94982565345535
 31
0.0
  0
LINE
  5
1E6B
330
1F
100
AcDbEntity
  8
LOGO
 62
     4
100
AcDbLine
 10
52.19968864843012
 20
40.94982565345535
 30
0.0
 11
52.19968864843012
 21
54.14791434123799
 31
0.0
  0
TEXT
  5
1E6C
330
1F
100
AcDbEntity
  8
LOGO
100
AcDbText
 10
74.24923919416857
 20
42.04966637743689
 30
0.0
 40
2.1996814479638
  1
mm
  7
CHINESET
 72
     1
 11
76.97265432021899
 21
43.14950710141879
 31
0.0
100
AcDbText
 73
     2
  0
TEXT
  5
1E6D
330
1F
100
AcDbEntity
  8
LOGO
100
AcDbText
 10
73.09702510237801
 20
50.84839216929215
 30
0.0
 40
2.1996814479638
  1
1 : 1
  7
CHINESET
 72
     1
 11
76.97265432021899
 21
51.94823289327406
 31
0.0
100
AcDbText
 73
     2
  0
LINE
  5
1E6E
330
1F
100
AcDbEntity
  8
LOGO
 62
     4
100
AcDbLine
 10
69.79714023214064
 20
40.94982565345535
 30
0.0
 11
69.79714023214064
 21
54.14791434123799
 31
0.0
  0
TEXT
  5
1E6F
330
1F
100
AcDbEntity
  8
LOGO
100
AcDbText
 10
54.0134438423539
 20
50.84947468968977
 30
144.1634983360548
 40
2.1996814479638
  1
比例 Scale:
 41
0.9
  7
CHINESET
 72
     4
 11
60.99841444028538
 21
51.94823289327406
 31
144.1634983360548
100
AcDbText
  0
TEXT
  5
1E70
330
1F
100
AcDbEntity
  8
LOGO
100
AcDbText
 10
53.88676575896671
 20
46.47997131472982
 30
144.1634983360548
 40
2.1996814479638
  1
投影  View:
 41
0.9
  7
CHINESET
 72
     4
 11
60.99841444028538
 21
47.54886999734642
 31
144.1634983360548
100
AcDbText
  0
TEXT
  5
1E71
330
1F
100
AcDbEntity
  8
LOGO
100
AcDbText
 10
54.10182390053102
 20
42.04966637743689
 30
144.1634983360548
 40
2.1996814479638
  1
單位  Unit:
 41
0.9
  7
CHINESET
 72
     4
 11
60.99841444028538
 21
43.14950710141879
 31
144.1634983360548
100
AcDbText
  0
LWPOLYLINE
  5
1E72
330
1F
100
AcDbEntity
  8
LOGO
 62
     4
100
AcDbPolyline
 90
        4
 70
     1
 43
0.0
 10
36.06869136336241
 20
54.14791434123799
 10
338.5686913633624
 20
54.14791434123799
 10
338.5686913633624
 20
252.1510998615995
 10
36.06869136336241
 20
252.1510998615995
1001
GENIUS_GENREC_14
1002
{
1000
PYDIR
1011
36.06869136336241
1021
252.1510998615995
1031
0.0
1002
}
1002
{
1000
PXDIR
1011
338.5686913633624
1021
54.14791434123799
1031
0.0
1002
}
1002
{
1000
PORI
1011
36.06869136336241
1021
54.14791434123799
1031
0.0
1002
}
1002
{
1000
PINS
1011
36.06869136336241
1021
54.14791434123799
1031
0.0
1002
}
1002
{
1000
PINS2
1011
338.5686913633624
1021
252.1510998615995
1031
0.0
1002
}
1002
{
1000
C
1070
     1
1002
}
1001
GENIUS_GENODEF_13
1002
{
1000
HIER
1070
     0
1002
}
1002
{
1000
MANEDIT
1070
     0
1002
}
1002
{
1000
NOSEL
1070
     0
1002
}
1002
{
1000
BEHIND
1070
     0
1002
}
1002
{
1000
OTHER
1070
     0
1002
}
1002
{
1000
REACTOR
1002
}
1001
GENIUS_GENOBJ-N-REC_13
1002
{
1000
OWNER
1000
GEN
1002
}
  0
SOLID
  5
1E73
330
1F
100
AcDbEntity
  8
LOGO
 62
     5
100
AcDbTrace
 10
38.35089616782685
 20
44.60648296069609
 30
0.0
 11
39.30198070628517
 21
44.60648296069584
 31
0.0
 12
43.27029895295604
 22
53.62538806676688
 32
0.0
 13
44.22138349141486
 23
53.62538806676639
 33
0.0
  0
SOLID
  5
1E74
330
1F
100
AcDbEntity
  8
LOGO
 62
     5
100
AcDbTrace
 10
39.69553292909655
 20
44.60648296069609
 30
0.0
 11
40.64661746755487
 21
44.60648296069609
 31
0.0
 12
44.22138349141486
 22
52.90387565828087
 32
0.0
 13
43.27029895295604
 23
49.41656568393351
 33
0.0
  0
SOLID
  5
1E75
330
1F
100
AcDbEntity
  8
LOGO
 62
     2
100
AcDbTrace
 10
39.30198070628517
 20
44.60648296069584
 30
0.0
 11
39.69553292909655
 21
44.60648296069609
 31
0.0
 12
44.22138349141486
 22
53.62538806676639
 32
0.0
 13
44.61493571422574
 23
53.62538806676639
 33
0.0
  0
SOLID
  5
1E76
330
1F
100
AcDbEntity
  8
LOGO
 62
     5
100
AcDbTrace
 10
36.82607441817963
 20
41.32688110394338
 30
0.0
 11
37.15403460385528
 21
41.32688110394338
 31
0.0
 12
38.07759601309772
 22
42.96668203231961
 32
0.0
 13
38.40555619877236
 23
42.96668203231961
 33
0.0
  0
SOLID
  5
1E77
330
1F
100
AcDbEntity
  8
LOGO
 62
     5
100
AcDbTrace
 10
38.07759601309772
 20
42.96668203231961
 30
0.0
 11
38.40555619877236
 21
42.96668203231961
 31
0.0
 12
38.07759601309772
 22
41.32688110394338
 32
0.0
 13
38.40555619877236
 23
41.32688110394338
 33
0.0
  0
SOLID
  5
1E78
330
1F
100
AcDbEntity
  8
LOGO
 62
     5
100
AcDbTrace
 10
38.07759601309772
 20
41.32688110394338
 30
0.0
 11
38.40555619877236
 21
41.32688110394338
 31
0.0
 12
39.3291176080163
 22
42.96668203231961
 32
0.0
 13
39.65707779369146
 23
42.96668203231961
 33
0.0
  0
SOLID
  5
1E79
330
1F
100
AcDbEntity
  8
LOGO
 62
     5
100
AcDbTrace
 10
39.3291176080163
 20
42.96668203231961
 30
0.0
 11
39.65707779369146
 21
42.96668203231961
 31
0.0
 12
39.3291176080163
 22
41.32688110394338
 32
0.0
 13
39.65707779369146
 23
41.32688110394338
 33
0.0
  0
POLYLINE
  5
1E7A
330
1F
100
AcDbEntity
  8
LOGO
 62
     5
100
AcDb2dPolyline
 66
     1
 10
0.0
 20
0.0
 30
0.0
 40
0.3284857628959275
 41
0.3284857628959275
  0
VERTEX
  5
1E7B
330
1E7A
100
AcDbEntity
  8
LOGO
 62
     5
100
AcDbVertex
100
AcDb2dVertex
 10
50.32223131080673
 20
42.31076166096907
 30
0.0
 42
1.0
  0
VERTEX
  5
1E7C
330
1E7A
100
AcDbEntity
  8
LOGO
 62
     5
100
AcDbVertex
100
AcDb2dVertex
 10
49.33677402211874
 20
42.31076166096907
 30
0.0
 42
1.0
  0
SEQEND
  5
1E7D
330
1E7A
100
AcDbEntity
  8
LOGO
 62
     5
  0
POLYLINE
  5
1E7E
330
1F
100
AcDbEntity
  8
LOGO
 62
     5
100
AcDb2dPolyline
 66
     1
 10
0.0
 20
0.0
 30
0.0
 70
     1
  0
VERTEX
  5
1E7F
330
1E7E
100
AcDbEntity
  8
LOGO
 62
     5
100
AcDbVertex
100
AcDb2dVertex
 10
47.47914319980149
 20
42.14678156813124
 30
0.0
 42
1.000000057330635
  0
VERTEX
  5
1E80
330
1E7E
100
AcDbEntity
  8
LOGO
 62
     5
100
AcDbVertex
100
AcDb2dVertex
 10
48.46302375682744
 20
42.14678156813124
 30
0.0
 42
1.000000057330635
  0
SEQEND
  5
1E81
330
1E7E
100
AcDbEntity
  8
LOGO
 62
     5
  0
CIRCLE
  5
1E82
330
1F
100
AcDbEntity
  8
LOGO
 62
     5
100
AcDbCircle
 10
47.97108347831522
 20
42.14678156813124
 30
0.0
 40
0.4919402785129413
  0
POLYLINE
  5
1E83
330
1F
100
AcDbEntity
  8
LOGO
 62
     5
100
AcDb2dPolyline
 66
     1
 10
0.0
 20
0.0
 30
0.0
 70
     1
 40
0.3284857628959275
 41
0.3284857628959275
  0
VERTEX
  5
1E84
330
1E83
100
AcDbEntity
  8
LOGO
 62
     5
100
AcDbVertex
100
AcDb2dVertex
 10
47.31411195252289
 20
42.14678156813124
 30
0.0
 42
1.0
  0
VERTEX
  5
1E85
330
1E83
100
AcDbEntity
  8
LOGO
 62
     5
100
AcDbVertex
100
AcDb2dVertex
 10
48.62805500410654
 20
42.14678156813124
 30
0.0
 42
1.0
  0
SEQEND
  5
1E86
330
1E83
100
AcDbEntity
  8
LOGO
 62
     5
  0
LINE
  5
1E87
330
1F
100
AcDbEntity
  8
LOGO
100
AcDbLine
 10
50.48542303781278
 20
41.32688110394338
 30
0.0
 11
50.48542303781278
 21
42.31076166096907
 31
0.0
  0
SOLID
  5
1E88
330
1F
100
AcDbEntity
  8
LOGO
 62
     5
100
AcDbTrace
 10
48.46299096081034
 20
42.96668203231961
 30
0.0
 11
48.79095114648499
 21
42.96668203231961
 31
0.0
 12
48.46299096081034
 22
41.32688110394338
 32
0.0
 13
48.79095114648499
 23
41.32688110394338
 33
0.0
  0
SOLID
  5
1E89
330
1F
100
AcDbEntity
  8
LOGO
 62
     5
100
AcDbTrace
 10
49.17358229511169
 20
41.32688110394338
 30
0.0
 11
49.50154248078733
 21
41.32688110394338
 31
0.0
 12
49.17358229511169
 22
42.96668203231961
 32
0.0
 13
49.50154248078733
 23
42.96668203231961
 33
0.0
  0
SOLID
  5
1E8A
330
1F
100
AcDbEntity
  8
LOGO
 62
     5
100
AcDbTrace
 10
50.15746285213814
 20
42.31076166096907
 30
0.0
 11
50.48542303781278
 21
42.31076166096907
 31
0.0
 12
50.15746285213814
 22
41.32688110394338
 32
0.0
 13
50.48542303781278
 23
41.32688110394338
 33
0.0
  0
SOLID
  5
1E8B
330
1F
100
AcDbEntity
  8
LOGO
 62
     5
100
AcDbTrace
 10
49.14078627654408
 20
52.90387565828087
 30
0.0
 11
48.18970173808626
 21
49.41656568393351
 31
0.0
 12
49.14078627654408
 22
44.60648296069584
 32
0.0
 13
48.18970173808626
 23
44.60648296069584
 33
0.0
  0
SOLID
  5
1E8C
330
1F
100
AcDbEntity
  8
LOGO
 62
     5
100
AcDbTrace
 10
49.53433849935496
 20
44.60648296069584
 30
0.0
 11
50.48542303781278
 21
44.60648296069584
 31
0.0
 12
49.53433849935496
 22
53.62538806676639
 32
0.0
 13
50.48542303781278
 23
53.62538806676688
 33
0.0
  0
SOLID
  5
1E8D
330
1F
100
AcDbEntity
  8
LOGO
 62
     2
100
AcDbTrace
 10
49.14078627654408
 20
53.62538806676688
 30
0.0
 11
49.53433849935496
 21
53.62538806676639
 31
0.0
 12
49.14078627654408
 22
44.60648296069584
 32
0.0
 13
49.53433849935496
 23
44.60648296069584
 33
0.0
  0
POLYLINE
  5
1E8E
330
1F
100
AcDbEntity
  8
LOGO
 62
     5
100
AcDb2dPolyline
 66
     1
 10
0.0
 20
0.0
 30
0.0
 40
0.3284857628959275
 41
0.3284857628959275
  0
VERTEX
  5
1E8F
330
1E8E
100
AcDbEntity
  8
LOGO
 62
     5
100
AcDbVertex
100
AcDb2dVertex
 10
45.62144678544855
 20
42.31076166096907
 30
0.0
 42
1.0
  0
VERTEX
  5
1E90
330
1E8E
100
AcDbEntity
  8
LOGO
 62
     5
100
AcDbVertex
100
AcDb2dVertex
 10
44.63598949676057
 20
42.31076166096907
 30
0.0
 42
1.0
  0
SEQEND
  5
1E91
330
1E8E
100
AcDbEntity
  8
LOGO
 62
     5
  0
POLYLINE
  5
1E92
330
1F
100
AcDbEntity
  8
LOGO
 62
     5
100
AcDb2dPolyline
 66
     1
 10
0.0
 20
0.0
 30
0.0
 40
0.3284857628959275
 41
0.3284857628959275
  0
VERTEX
  5
1E93
330
1E92
100
AcDbEntity
  8
LOGO
 62
     5
100
AcDbVertex
100
AcDb2dVertex
 10
46.60532734247349
 20
42.31076166096907
 30
0.0
 42
1.0
  0
VERTEX
  5
1E94
330
1E92
100
AcDbEntity
  8
LOGO
 62
     5
100
AcDbVertex
100
AcDb2dVertex
 10
45.619870053786
 20
42.31076166096907
 30
0.0
 42
1.0
  0
SEQEND
  5
1E95
330
1E92
100
AcDbEntity
  8
LOGO
 62
     5
  0
POLYLINE
  5
1E96
330
1F
100
AcDbEntity
  8
LOGO
 62
     5
100
AcDb2dPolyline
 66
     1
 10
0.0
 20
0.0
 30
0.0
 40
0.3284857628959275
 41
0.3284857628959275
  0
VERTEX
  5
1E97
330
1E96
100
AcDbEntity
  8
LOGO
 62
     5
100
AcDbVertex
100
AcDb2dVertex
 10
41.90454281711531
 20
42.31076166096907
 30
0.0
 42
1.0
  0
VERTEX
  5
1E98
330
1E96
100
AcDbEntity
  8
LOGO
 62
     5
100
AcDbVertex
100
AcDb2dVertex
 10
40.91908552842783
 20
42.31076166096907
 30
0.0
 42
1.0
  0
SEQEND
  5
1E99
330
1E96
100
AcDbEntity
  8
LOGO
 62
     5
  0
SOLID
  5
1E9A
330
1F
100
AcDbEntity
  8
LOGO
 62
     5
100
AcDbTrace
 10
40.75589380142128
 20
42.96668203231961
 30
0.0
 11
41.08385398709592
 21
42.96668203231961
 31
0.0
 12
40.75589380142128
 22
41.32688110394338
 32
0.0
 13
41.08385398709592
 23
41.32688110394338
 33
0.0
  0
SOLID
  5
1E9B
330
1F
100
AcDbEntity
  8
LOGO
 62
     5
100
AcDbTrace
 10
41.73977435844721
 20
42.31076166096907
 30
0.0
 11
42.06773454412287
 21
42.31076166096907
 31
0.0
 12
41.73977435844721
 22
41.32688110394338
 32
0.0
 13
42.06773454412287
 23
41.32688110394338
 33
0.0
  0
POLYLINE
  5
1E9C
330
1F
100
AcDbEntity
  8
LOGO
 62
     5
100
AcDb2dPolyline
 66
     1
 10
0.0
 20
0.0
 30
0.0
 70
     1
 40
0.3284857628959275
 41
0.3284857628959275
  0
VERTEX
  5
1E9D
330
1E9C
100
AcDbEntity
  8
LOGO
 62
     5
100
AcDbVertex
100
AcDb2dVertex
 10
42.61332742716422
 20
42.14678156813124
 30
0.0
 42
1.0
  0
VERTEX
  5
1E9E
330
1E9C
100
AcDbEntity
  8
LOGO
 62
     5
100
AcDbVertex
100
AcDb2dVertex
 10
43.92727047874837
 20
42.14678156813124
 30
0.0
 42
1.0
  0
SEQEND
  5
1E9F
330
1E9C
100
AcDbEntity
  8
LOGO
 62
     5
  0
SOLID
  5
1EA0
330
1F
100
AcDbEntity
  8
LOGO
 62
     5
100
AcDbTrace
 10
43.76220643545116
 20
43.45862231083283
 30
0.0
 11
44.09016662112631
 21
43.45862231083283
 31
0.0
 12
43.76220643545116
 22
41.32688110394338
 32
0.0
 13
44.09016662112631
 23
41.32688110394338
 33
0.0
  0
SOLID
  5
1EA1
330
1F
100
AcDbEntity
  8
LOGO
 62
     5
100
AcDbTrace
 10
44.47279776975451
 20
42.96668203231961
 30
0.0
 11
44.80075795542916
 21
42.96668203231961
 31
0.0
 12
44.47279776975451
 22
41.32688110394338
 32
0.0
 13
44.80075795542916
 23
41.32688110394338
 33
0.0
  0
SOLID
  5
1EA2
330
1F
100
AcDbEntity
  8
LOGO
 62
     5
100
AcDbTrace
 10
45.45667832677945
 20
42.31076166096907
 30
0.0
 11
45.7846385124551
 21
42.31076166096907
 31
0.0
 12
45.45667832677945
 22
41.32688110394338
 32
0.0
 13
45.7846385124551
 23
41.32688110394338
 33
0.0
  0
SOLID
  5
1EA3
330
1F
100
AcDbEntity
  8
LOGO
 62
     5
100
AcDbTrace
 10
46.44055888380539
 20
42.31076166096907
 30
0.0
 11
46.76851906948054
 21
42.31076166096907
 31
0.0
 12
46.44055888380539
 22
41.32688110394288
 32
0.0
 13
46.76851906948054
 23
41.32688110394288
 33
0.0
  0
SOLID
  5
1EA4
330
1F
100
AcDbEntity
  8
LOGO
 62
     5
100
AcDbTrace
 10
40.04530246711843
 20
43.19625416229242
 30
0.0
 11
40.37326265279458
 21
43.19625416229242
 31
0.0
 12
40.04530246711843
 22
43.45862231083283
 32
0.0
 13
40.37326265279458
 23
43.45862231083283
 33
0.0
  0
SOLID
  5
1EA5
330
1F
100
AcDbEntity
  8
LOGO
 62
     5
100
AcDbTrace
 10
40.04530246711843
 20
42.96668203231961
 30
0.0
 11
40.37326265279458
 21
42.96668203231961
 31
0.0
 12
40.04530246711843
 22
41.32688110394288
 32
0.0
 13
40.37326265279458
 23
41.32688110394338
 33
0.0
  0
SOLID
  5
1EA6
330
1F
100
AcDbEntity
  8
LOGO
 62
     5
100
AcDbTrace
 10
43.27029895295604
 20
44.60648296069609
 30
0.0
 11
44.22138349141486
 21
44.60648296069609
 31
0.0
 12
43.27029895295604
 22
49.41656568393351
 32
0.0
 13
44.22138349141486
 23
52.90387565828087
 33
0.0
  0
SOLID
  5
1EA7
330
1F
100
AcDbEntity
  8
LOGO
 62
     5
100
AcDbTrace
 10
44.61493571422574
 20
53.62538806676639
 30
0.0
 11
45.56602025268357
 21
53.62538806676688
 31
0.0
 12
44.61493571422574
 22
45.32799536918162
 32
0.0
 13
45.56602025268357
 23
48.81530534352898
 33
0.0
  0
SOLID
  5
1EA8
330
1F
100
AcDbEntity
  8
LOGO
 62
     2
100
AcDbTrace
 10
44.22138349141486
 20
53.62538806676639
 30
0.0
 11
44.61493571422574
 21
53.62538806676639
 31
0.0
 12
44.22138349141486
 22
44.60648296069609
 32
0.0
 13
44.61493571422574
 23
44.60648296069609
 33
0.0
  0
SOLID
  5
1EA9
330
1F
100
AcDbEntity
  8
LOGO
 62
     5
100
AcDbTrace
 10
44.61493571422574
 20
45.32799536918162
 30
0.0
 11
45.56602025268357
 21
48.81530534352898
 31
0.0
 12
49.14078627654408
 22
53.62538806676688
 32
0.0
 13
48.18970173808626
 23
53.62538806676688
 33
0.0
  0
SOLID
  5
1EAA
330
1F
100
AcDbEntity
  8
LOGO
 62
     5
100
AcDbTrace
 10
44.61493571422574
 20
44.60648296069609
 30
0.0
 11
45.56602025268357
 21
44.60648296069609
 31
0.0
 12
49.14078627654408
 22
52.90387565828087
 32
0.0
 13
48.18970173808626
 23
49.41656568393351
 33
0.0
  0
SOLID
  5
1EAB
330
1F
100
AcDbEntity
  8
LOGO
 62
     2
100
AcDbTrace
 10
44.22138349141486
 20
44.60648296069609
 30
0.0
 11
44.61493571422574
 21
44.60648296069609
 31
0.0
 12
49.14078627654408
 22
53.62538806676688
 32
0.0
 13
49.53433849935496
 23
53.62538806676639
 33
0.0
  0
LWPOLYLINE
  5
1EAC
330
1F
100
AcDbEntity
  8
LOGO
 62
     4
100
AcDbPolyline
 90
        4
 70
     1
 43
0.0
 10
36.06869136336241
 20
54.14791434123799
 10
338.5686913633624
 20
54.14791434123799
 10
338.5686913633624
 20
32.15109986159959
 10
36.06869136336241
 20
32.15109986159959
1001
GENIUS_GENREC_14
1002
{
1000
PYDIR
1011
36.06869136336241
1021
32.15109986159959
1031
0.0
1002
}
1002
{
1000
PXDIR
1011
338.5686913633624
1021
54.14791434123799
1031
0.0
1002
}
1002
{
1000
PORI
1011
36.06869136336241
1021
54.14791434123799
1031
0.0
1002
}
1002
{
1000
PINS
1011
36.06869136336241
1021
54.14791434123799
1031
0.0
1002
}
1002
{
1000
PINS2
1011
338.5686913633624
1021
32.15109986159959
1031
0.0
1002
}
1002
{
1000
C
1070
     1
1002
}
1001
GENIUS_GENOBJ-N-REC_13
1002
{
1000
OWNER
1000
GEN
1002
}
1001
GENIUS_GENODEF_13
1002
{
1000
HIER
1070
     0
1002
}
1002
{
1000
MANEDIT
1070
     0
1002
}
1002
{
1000
NOSEL
1070
     0
1002
}
1002
{
1000
BEHIND
1070
     0
1002
}
1002
{
1000
OTHER
1070
     0
1002
}
1002
{
1000
REACTOR
1002
}
  0
LINE
  5
1EAD
330
1F
100
AcDbEntity
  8
LOGO
 62
     4
100
AcDbLine
 10
129.3818682535466
 20
42.04966637743733
 30
0.0
 11
129.3818682535466
 21
33.98416773490296
 31
0.0
  0
LINE
  5
1EAE
330
1F
100
AcDbEntity
  8
LOGO
 62
     4
100
AcDbLine
 10
114.7173252671211
 20
42.04966637743733
 30
0.0
 11
114.7173252671211
 21
33.98416773490296
 31
0.0
  0
LINE
  5
1EAF
330
1F
100
AcDbEntity
  8
LOGO
 62
     4
100
AcDbLine
 10
129.3818682535466
 20
33.98416773490296
 30
0.0
 11
114.7173252671211
 21
33.98416773490296
 31
0.0
  0
LINE
  5
1EB0
330
1F
100
AcDbEntity
  8
LOGO
 62
     4
100
AcDbLine
 10
147.9440513324329
 20
51.94823289327406
 30
0.0
 11
114.7173252671211
 21
51.94823289327406
 31
0.0
  0
LINE
  5
1EB1
330
1F
100
AcDbEntity
  8
LOGO
 62
     4
100
AcDbLine
 10
147.9440513324329
 20
45.34918854938273
 30
0.0
 11
114.7173252671211
 21
45.34918854938273
 31
0.0
  0
LINE
  5
1EB2
330
1F
100
AcDbEntity
  8
LOGO
 62
     4
100
AcDbLine
 10
114.7173252671211
 20
51.94823289327406
 30
0.0
 11
114.7173252671211
 21
45.34918854938273
 31
0.0
  0
LINE
  5
1EB3
330
1F
100
AcDbEntity
  8
LOGO
 62
     4
100
AcDbLine
 10
147.9440513324329
 20
51.94823289327406
 30
0.0
 11
147.9440513324329
 21
45.34918854938273
 31
0.0
  0
LINE
  5
1EB4
330
1F
100
AcDbEntity
  8
LOGO
 62
     4
100
AcDbLine
 10
122.8147175763939
 20
45.34918854938273
 30
0.0
 11
122.8147175763939
 21
42.04966637743733
 31
0.0
  0
TEXT
  5
1EB5
330
1F
100
AcDbEntity
  8
LOGO
  6
Continuous
100
AcDbText
 10
115.8898720967291
 20
46.72672940836821
 30
0.0
 40
3.85
  1
MCMJPB/S
  7
CHINESET
100
AcDbText
  0
LINE
  5
1EB6
330
1F
100
AcDbEntity
  8
LOGO
 62
     4
100
AcDbLine
 10
129.3818682535466
 20
42.04966637743733
 30
0.0
 11
114.7173252671211
 21
42.04966637743733
 31
0.0
  0
TEXT
  5
1EB7
330
1F
100
AcDbEntity
  8
LOGO
  6
Continuous
100
AcDbText
 10
119.4231306842285
 20
35.12259576500948
 30
144.1634983360548
 40
1.65
  1
Model
 41
0.8
  7
CHINESET
100
AcDbText
  0
TEXT
  5
1EB8
330
1F
100
AcDbEntity
  8
LOGO
100
AcDbText
 10
118.9839543224294
 20
38.18134016462959
 30
144.1634983360548
 40
2.75
  1
型號
  7
CHINESET
100
AcDbText
  0
LINE
  5
1EB9
330
1F
100
AcDbEntity
  8
LOGO
  6
Continuous
100
AcDbLine
 10
148.6455842865392
 20
48.62533586336694
 30
0.0
 11
151.5594814803727
 21
48.62533586336694
 31
0.0
  0
LINE
  5
1EBA
330
1F
100
AcDbEntity
  8
LOGO
 62
     4
100
AcDbLine
 10
157.9624501377081
 20
42.04966637743733
 30
0.0
 11
157.9624501377081
 21
33.98416773490296
 31
0.0
  0
LINE
  5
1EBB
330
1F
100
AcDbEntity
  8
LOGO
 62
     4
100
AcDbLine
 10
139.029093719682
 20
42.04966637743733
 30
0.0
 11
139.029093719682
 21
33.98416773490296
 31
0.0
  0
LINE
  5
1EBC
330
1F
100
AcDbEntity
  8
LOGO
 62
     4
100
AcDbLine
 10
157.9624501377081
 20
33.98416773490296
 30
0.0
 11
139.029093719682
 21
33.98416773490296
 31
0.0
  0
LINE
  5
1EBD
330
1F
100
AcDbEntity
  8
LOGO
 62
     4
100
AcDbLine
 10
170.8200425970268
 20
51.94823289327406
 30
0.0
 11
152.4869106585247
 21
51.94823289327406
 31
0.0
  0
LINE
  5
1EBE
330
1F
100
AcDbEntity
  8
LOGO
 62
     4
100
AcDbLine
 10
170.8200425970268
 20
45.34918854938273
 30
0.0
 11
152.4869106585247
 21
45.34918854938273
 31
0.0
  0
LINE
  5
1EBF
330
1F
100
AcDbEntity
  8
LOGO
 62
     4
100
AcDbLine
 10
152.4869106585247
 20
51.94823289327406
 30
0.0
 11
152.4869106585247
 21
45.34918854938273
 31
0.0
  0
LINE
  5
1EC0
330
1F
100
AcDbEntity
  8
LOGO
 62
     4
100
AcDbLine
 10
170.8200425970268
 20
51.94823289327406
 30
0.0
 11
170.8200425970268
 21
45.34918854938273
 31
0.0
  0
LINE
  5
1EC1
330
1F
100
AcDbEntity
  8
LOGO
 62
     4
100
AcDbLine
 10
155.5604881763077
 20
45.34918854938273
 30
0.0
 11
155.5604881763076
 21
42.04966637743733
 31
0.0
  0
TEXT
  5
1EC2
330
1F
100
AcDbEntity
  8
LOGO
  6
Continuous
100
AcDbText
 10
153.5596303277357
 20
46.72672940836821
 30
0.0
 40
3.85
  1
10/15
  7
CHINESET
100
AcDbText
  0
LINE
  5
1EC3
330
1F
100
AcDbEntity
  8
LOGO
 62
     4
100
AcDbLine
 10
157.9624501377081
 20
42.04966637743733
 30
0.0
 11
139.029093719682
 21
42.04966637743733
 31
0.0
  0
LINE
  5
1EC4
330
1F
100
AcDbEntity
  8
LOGO
  6
Continuous
100
AcDbLine
 10
171.4495075279263
 20
48.62533586336694
 30
0.0
 11
174.3634047217598
 21
48.62533586336694
 31
0.0
  0
LINE
  5
1EC5
330
1F
100
AcDbEntity
  8
LOGO
 62
     4
100
AcDbLine
 10
177.5688344837984
 20
42.04966637743733
 30
0.0
 11
177.5688344837984
 21
33.98416773490296
 31
0.0
  0
LINE
  5
1EC6
330
1F
100
AcDbEntity
  8
LOGO
 62
     4
100
AcDbLine
 10
162.904291497373
 20
42.04966637743733
 30
0.0
 11
162.904291497373
 21
33.98416773490296
 31
0.0
  0
LINE
  5
1EC7
330
1F
100
AcDbEntity
  8
LOGO
 62
     4
100
AcDbLine
 10
177.5688344837984
 20
33.98416773490296
 30
0.0
 11
162.904291497373
 21
33.98416773490296
 31
0.0
  0
LINE
  5
1EC8
330
1F
100
AcDbEntity
  8
LOGO
 62
     4
100
AcDbLine
 10
183.2979732402457
 20
51.94823289327406
 30
0.0
 11
175.2825856857266
 21
51.94823289327406
 31
0.0
  0
LINE
  5
1EC9
330
1F
100
AcDbEntity
  8
LOGO
 62
     4
100
AcDbLine
 10
183.2979732402457
 20
45.34918854938273
 30
0.0
 11
175.2825856857266
 21
45.34918854938273
 31
0.0
  0
LINE
  5
1ECA
330
1F
100
AcDbEntity
  8
LOGO
 62
     4
100
AcDbLine
 10
175.2825856857266
 20
51.94823289327406
 30
0.0
 11
175.2825856857266
 21
45.34918854938273
 31
0.0
  0
LINE
  5
1ECB
330
1F
100
AcDbEntity
  8
LOGO
 62
     4
100
AcDbLine
 10
183.2979732402457
 20
51.94823289327406
 30
0.0
 11
183.2979732402457
 21
45.34918854938273
 31
0.0
  0
LINE
  5
1ECC
330
1F
100
AcDbEntity
  8
LOGO
 62
     4
100
AcDbLine
 10
180.3527536033007
 20
45.34918854938273
 30
0.0
 11
180.3527536033007
 21
43.69942746341002
 31
0.0
  0
TEXT
  5
1ECD
330
1F
100
AcDbEntity
  8
LOGO
  6
Continuous
100
AcDbText
 10
178.2698570633673
 20
46.72672940836821
 30
0.0
 40
3.85
  1
6
  7
CHINESET
100
AcDbText
  0
LINE
  5
1ECE
330
1F
100
AcDbEntity
  8
LOGO
 62
     4
100
AcDbLine
 10
177.5688344837984
 20
42.04966637743733
 30
0.0
 11
162.904291497373
 21
42.04966637743733
 31
0.0
  0
LINE
  5
1ECF
330
1F
100
AcDbEntity
  8
LOGO
  6
Continuous
100
AcDbLine
 10
184.2379570023169
 20
48.62533586336694
 30
0.0
 11
187.1518541961508
 21
48.62533586336694
 31
0.0
  0
LINE
  5
1ED0
330
1F
100
AcDbEntity
  8
LOGO
 62
     4
100
AcDbLine
 10
195.2068536568284
 20
42.04966637743733
 30
0.0
 11
195.2068536568284
 21
33.98416773490296
 31
0.0
  0
LINE
  5
1ED1
330
1F
100
AcDbEntity
  8
LOGO
 62
     4
100
AcDbLine
 10
183.2602455565651
 20
42.04966637743733
 30
0.0
 11
183.2602455565651
 21
33.98416773490296
 31
0.0
  0
LINE
  5
1ED2
330
1F
100
AcDbEntity
  8
LOGO
 62
     4
100
AcDbLine
 10
195.2068536568284
 20
33.98416773490296
 30
0.0
 11
183.2602455565651
 21
33.98416773490296
 31
0.0
  0
LINE
  5
1ED3
330
1F
100
AcDbEntity
  8
LOGO
 62
     4
100
AcDbLine
 10
195.0922350878634
 20
51.94823289327406
 30
0.0
 11
188.0710351601172
 21
51.94823289327406
 31
0.0
  0
LINE
  5
1ED4
330
1F
100
AcDbEntity
  8
LOGO
 62
     4
100
AcDbLine
 10
195.0922350878634
 20
45.34918854938273
 30
0.0
 11
188.0710351601172
 21
45.34918854938273
 31
0.0
  0
LINE
  5
1ED5
330
1F
100
AcDbEntity
  8
LOGO
 62
     4
100
AcDbLine
 10
188.0710351601172
 20
51.94823289327406
 30
0.0
 11
188.0710351601172
 21
45.34918854938273
 31
0.0
  0
LINE
  5
1ED6
330
1F
100
AcDbEntity
  8
LOGO
 62
     4
100
AcDbLine
 10
195.0922350878634
 20
51.94823289327406
 30
0.0
 11
195.0922350878634
 21
45.34918854938273
 31
0.0
  0
LINE
  5
1ED7
330
1F
100
AcDbEntity
  8
LOGO
 62
     4
100
AcDbLine
 10
191.5816351239903
 20
45.34918854938273
 30
0.0
 11
191.5816351239903
 21
42.04966637743733
 31
0.0
  0
TEXT
  5
1ED8
330
1F
100
AcDbEntity
  8
LOGO
  6
Continuous
100
AcDbText
 10
190.4375146452473
 20
46.72672940836821
 30
0.0
 40
3.85
  1
*
  7
CHINESET
100
AcDbText
  0
LINE
  5
1ED9
330
1F
100
AcDbEntity
  8
LOGO
 62
     4
100
AcDbLine
 10
195.2068536568284
 20
42.04966637743733
 30
0.0
 11
183.2602455565651
 21
42.04966637743733
 31
0.0
  0
TEXT
  5
1EDA
330
1F
100
AcDbEntity
  8
LOGO
  6
Continuous
100
AcDbText
 10
144.0451523622552
 20
35.12259576500948
 30
144.1634983360548
 40
1.65
  1
Acting type
 41
0.8
  7
CHINESET
100
AcDbText
  0
TEXT
  5
1EDB
330
1F
100
AcDbEntity
  8
LOGO
100
AcDbText
 10
144.0296087907805
 20
38.18134016462959
 30
144.1634983360548
 40
2.75
  1
作動型式
  7
CHINESET
100
AcDbText
  0
TEXT
  5
1EDC
330
1F
100
AcDbEntity
  8
LOGO
  6
Continuous
100
AcDbText
 10
165.9759138972178
 20
35.12259576500948
 30
144.1634983360548
 40
1.65
  1
Tube I.D.
 41
0.8
  7
CHINESET
100
AcDbText
  0
TEXT
  5
1EDD
330
1F
100
AcDbEntity
  8
LOGO
100
AcDbText
 10
167.0613335503414
 20
38.18134016462959
 30
144.1634983360548
 40
2.75
  1
內徑
  7
CHINESET
100
AcDbText
  0
TEXT
  5
1EDE
330
1F
100
AcDbEntity
  8
LOGO
  6
Continuous
100
AcDbText
 10
186.4087834783429
 20
35.12259576500948
 30
144.1634983360548
 40
1.65
  1
Stroke
 41
0.8
  7
CHINESET
100
AcDbText
  0
TEXT
  5
1EDF
330
1F
100
AcDbEntity
  8
LOGO
100
AcDbText
 10
186.294377902348
 20
38.18134016462959
 30
144.1634983360548
 40
2.75
  1
行程
  7
CHINESET
100
AcDbText
  0
TEXT
  5
1EEC
330
1F
100
AcDbEntity
  8
LOGO
100
AcDbText
 10
85.62753903559418
 20
33.32132170991334
 30
0.0
 40
2.2
  1
10701123
 41
0.7
  7
CHINESET
 72
     1
 11
90.83420570226085
 21
33.32132170991334
 31
0.0
100
AcDbText
  0
LINE
  5
1EED
330
1F
100
AcDbEntity
  8
LOGO
 62
     4
100
AcDbLine
 10
97.66168321856509
 20
36.55046275752797
 30
0.0
 11
97.66168321856609
 21
32.1510998616001
 31
0.0
  0
LINE
  5
1EEE
330
1F
100
AcDbEntity
  8
LOGO
 62
     4
100
AcDbLine
 10
97.66168321856509
 20
36.55046275752797
 30
0.0
 11
84.46168321856609
 21
36.55046275752797
 31
0.0
  0
CIRCLE
  5
1EEF
330
1F
100
AcDbEntity
  8
LOGO
  6
Continuous
100
AcDbCircle
 10
73.87012556485179
 20
47.55357513206067
 30
0.0
 40
1.277186823352694
  0
CIRCLE
  5
1EF0
330
1F
100
AcDbEntity
  8
LOGO
  6
Continuous
100
AcDbCircle
 10
73.87012556485179
 20
47.55357513206067
 30
0.0
 40
0.748318415532157
  0
LINE
  5
1EF1
330
1F
100
AcDbEntity
  8
LOGO
100
AcDbLine
 10
81.89611576129195
 20
46.27638830870774
 30
0.0
 11
81.89611576129195
 21
48.83076195541362
 31
0.0
  0
LINE
  5
1EF2
330
1F
100
AcDbEntity
  8
LOGO
100
AcDbLine
 10
77.89220838410329
 20
46.80525671652865
 30
0.0
 11
77.89220838410329
 21
48.30189354759295
 31
0.0
  0
LINE
  5
1EF3
330
1F
100
AcDbEntity
  8
LOGO
  6
Continuous
100
AcDbLine
 10
77.89220838410329
 20
48.30189354759295
 30
0.0
 11
81.89611576129195
 21
48.83076195541362
 31
0.0
  0
LINE
  5
1EF4
330
1F
100
AcDbEntity
  8
LOGO
  6
Continuous
100
AcDbLine
 10
77.89220838410329
 20
46.80525671652865
 30
0.0
 11
81.89611576129195
 21
46.27638830870774
 31
0.0
  0
LINE
  5
1EF5
330
1F
100
AcDbEntity
  8
LOGO
  6
AM_ISO08W050x2
 48
0.3
100
AcDbLine
 10
72.10950440449337
 20
47.55357513206067
 30
0.0
 11
75.6307467252102
 21
47.55357513206067
 31
0.0
1001
GENIUS_GENOREF_13
1005
1EFA
  0
LINE
  5
1EF6
330
1F
100
AcDbEntity
  8
LOGO
  6
AM_ISO08W050x2
 48
0.3
100
AcDbLine
 10
73.87012556485179
 20
45.79295397170226
 30
0.0
 11
73.87012556485179
 21
49.31419629241909
 31
0.0
1001
GENIUS_GENOREF_13
1005
1EF9
  0
LINE
  5
1EF7
330
1F
100
AcDbEntity
  8
LOGO
  6
CENTER
 48
0.5
100
AcDbLine
 10
77.57200708201304
 20
47.55357513206067
 30
0.0
 11
82.29929627285841
 21
47.55357513206067
 31
0.0
1001
GENIUS_GENOREF_13
1005
1EF8
  0
POINT
  5
1EF8
330
1F
100
AcDbEntity
  8
0
 60
     1
100
AcDbPoint
 10
-2026.635189117381
 20
-903.9824920368866
 30
0.0
1001
GENIUS_GENOBJ-N-CRS_13
1002
{
1000
OWNER
1000
GEN
1002
}
1001
GENIUS_GENOLIS_13
1002
{
1000
ENT
1005
0
1005
0
1005
0
1005
1EF7
1002
}
1001
GENIUS_GENOENT_13
1002
{
1000
MYREF
1005
1EF8
1002
}
1002
{
1000
GRP
1005
0
1002
}
1001
GENIUS_GENODEF_13
1002
{
1000
HIER
1070
    10
1002
}
1002
{
1000
MANEDIT
1070
     1
1002
}
1002
{
1000
NOSEL
1070
     0
1002
}
1002
{
1000
BEHIND
1070
     0
1002
}
1002
{
1000
OTHER
1070
     0
1002
}
1002
{
1000
REACTOR
1002
}
  0
POINT
  5
1EF9
330
1F
100
AcDbEntity
  8
0
 60
     1
100
AcDbPoint
 10
-2037.959774340235
 20
-895.1069055582504
 30
0.0
1001
GENIUS_GENOBJ-N-CRS_13
1002
{
1000
OWNER
1000
GEN
1002
}
1001
GENIUS_GENOLIS_13
1002
{
1000
ENT
1005
0
1005
0
1005
0
1005
1EF6
1002
}
1001
GENIUS_GENOENT_13
1002
{
1000
MYREF
1005
1EF9
1002
}
1002
{
1000
GRP
1005
0
1002
}
1001
GENIUS_GENODEF_13
1002
{
1000
HIER
1070
    10
1002
}
1002
{
1000
MANEDIT
1070
     1
1002
}
1002
{
1000
NOSEL
1070
     0
1002
}
1002
{
1000
BEHIND
1070
     0
1002
}
1002
{
1000
OTHER
1070
     0
1002
}
1002
{
1000
REACTOR
1002
}
  0
POINT
  5
1EFA
330
1F
100
AcDbEntity
  8
0
 60
     1
100
AcDbPoint
 10
-2031.601100642399
 20
-903.9824920368866
 30
0.0
1001
GENIUS_GENOBJ-N-CRS_13
1002
{
1000
OWNER
1000
GEN
1002
}
1001
GENIUS_GENOLIS_13
1002
{
1000
ENT
1005
0
1005
0
1005
0
1005
1EF5
1002
}
1001
GENIUS_GENOENT_13
1002
{
1000
MYREF
1005
1EFA
1002
}
1002
{
1000
GRP
1005
0
1002
}
1001
GENIUS_GENODEF_13
1002
{
1000
HIER
1070
    10
1002
}
1002
{
1000
MANEDIT
1070
     1
1002
}
1002
{
1000
NOSEL
1070
     0
1002
}
1002
{
1000
BEHIND
1070
     0
1002
}
1002
{
1000
OTHER
1070
     0
1002
}
1002
{
1000
REACTOR
1002
}
  0
LINE
  5
1EFB
330
1F
100
AcDbEntity
  8
LOGO
 62
     4
100
AcDbLine
 10
187.3186913633624
 20
252.1510998615995
 30
0.0
 11
187.3186913633624
 21
54.14791434123799
 31
0.0
  0
LINE
  5
2097
330
1F
100
AcDbEntity
  8
LOGO
 62
     4
100
AcDbLine
 10
180.3527536033007
 20
43.69942746341003
 30
0.0
 11
167.19504890422
 21
43.69942746341003
 31
0.0
  0
LINE
  5
2098
330
1F
100
AcDbEntity
  8
LOGO
 62
     4
100
AcDbLine
 10
167.19504890422
 20
42.04966637743733
 30
0.0
 11
167.19504890422
 21
43.69942746341003
 31
0.0
  0
LINE
  5
227C
330
1F
100
AcDbEntity
  8
AM_VIS
100
AcDbLine
 10
116.7257627160524
 20
115.1346407462386
 30
0.0
 11
115.0862346203717
 21
115.1346407462386
 31
0.0
  0
SPLINE
  5
227D
330
1F
100
AcDbEntity
  8
AM_VIS
100
AcDbSpline
210
0.0
220
0.0
230
1.0
 70
    12
 71
     2
 72
     6
 73
     3
 74
     0
 42
0.0000000001
 43
0.0000000001
 40
2.490579903672005
 40
2.490579903672005
 40
2.490579903672005
 40
10.6369992080047
 40
10.6369992080047
 40
10.6369992080047
 10
115.0862346203718
 20
118.5987423613765
 30
0.0
 41
1.140916470546976
 10
114.0862346203718
 20
116.8666915538075
 30
0.0
 41
1.31741686278635
 10
115.0862346203716
 20
115.1346407462385
 30
0.0
 41
1.140916470546978
  0
SPLINE
  5
227E
330
1F
100
AcDbEntity
  8
AM_VIS
100
AcDbSpline
210
0.0
220
0.0000000000000005
230
1.0
 70
    12
 71
     2
 72
     6
 73
     3
 74
     0
 42
0.0000000001
 43
0.0000000001
 40
2.490579903672053
 40
2.490579903672053
 40
2.490579903672053
 40
10.63699920800474
 40
10.63699920800474
 40
10.63699920800474
 10
115.0862346203716
 20
128.9910472067895
 30
-0.0000000000000036
 41
1.140916470546978
 10
114.0862346203717
 20
127.2589963992208
 30
0.0
 41
1.317416862786348
 10
115.0862346203718
 20
125.5269455916519
 30
-0.0000000000000018
 41
1.140916470546975
  0
LINE
  5
227F
330
1F
100
AcDbEntity
  8
AM_VIS
100
AcDbLine
 10
116.7257627160524
 20
128.9910472067897
 30
0.0
 11
115.0862346203717
 21
128.9910472067897
 31
0.0
  0
LINE
  5
2280
330
1F
100
AcDbEntity
  8
AM_VIS
100
AcDbLine
 10
116.7257627160523
 20
118.5987423613763
 30
0.0
 11
115.0862346203717
 21
118.5987423613763
 31
0.0
  0
SPLINE
  5
2281
330
1F
100
AcDbEntity
  8
AM_VIS
100
AcDbSpline
210
0.0
220
0.0000000000000003
230
1.0
 70
    12
 71
     2
 72
     6
 73
     3
 74
     0
 42
0.0000000001
 43
0.0000000001
 40
2.490579903672012
 40
2.490579903672012
 40
2.490579903672012
 40
10.63699920800469
 40
10.63699920800469
 40
10.63699920800469
 10
115.0862346203718
 20
125.5269455916519
 30
-0.0000000000000018
 41
1.140916470546975
 10
114.0862346203716
 20
122.0628439765139
 30
-0.0000000000000018
 41
1.317416862786347
 10
115.0862346203717
 20
118.5987423613763
 30
0.0
 41
1.140916470546976
  0
LINE
  5
2282
330
1F
100
AcDbEntity
  8
AM_VIS
100
AcDbLine
 10
116.7257627160523
 20
125.5269455916519
 30
0.0
 11
115.0862346203717
 21
125.5269455916519
 31
0.0
  0
SPLINE
  5
2283
330
1F
100
AcDbEntity
  8
AM_VIS
100
AcDbSpline
210
0.0
220
0.0000000000000005
230
1.0
 70
    12
 71
     2
 72
     6
 73
     3
 74
     0
 42
0.0000000001
 43
0.0000000001
 40
2.490579903672062
 40
2.490579903672062
 40
2.490579903672062
 40
10.63699920800476
 40
10.63699920800476
 40
10.63699920800476
 10
116.7257627160525
 20
115.1346407462386
 30
0.0000000000000036
 41
1.140916470546979
 10
117.7257627160524
 20
116.8666915538074
 30
0.0000000000000018
 41
1.317416862786351
 10
116.7257627160525
 20
118.5987423613764
 30
0.0000000000000018
 41
1.140916470546976
  0
SPLINE
  5
2284
330
1F
100
AcDbEntity
  8
AM_VIS
100
AcDbSpline
210
0.0
220
0.0000000000000003
230
1.0
 70
    12
 71
     2
 72
     6
 73
     3
 74
     0
 42
0.0000000001
 43
0.0000000001
 40
2.490579903672027
 40
2.490579903672027
 40
2.490579903672027
 40
10.6369992080047
 40
10.6369992080047
 40
10.6369992080047
 10
116.7257627160523
 20
118.5987423613763
 30
0.0000000000000018
 41
1.140916470546976
 10
117.7257627160524
 20
122.0628439765143
 30
0.0000000000000036
 41
1.317416862786347
 10
116.7257627160524
 20
125.5269455916519
 30
0.0
 41
1.140916470546975
  0
SPLINE
  5
2285
330
1F
100
AcDbEntity
  8
AM_VIS
100
AcDbSpline
210
0.0
220
0.0000000000000005
230
1.0
 70
    12
 71
     2
 72
     6
 73
     3
 74
     0
 42
0.0000000001
 43
0.0000000001
 40
2.490579903672001
 40
2.490579903672001
 40
2.490579903672001
 40
10.63699920800468
 40
10.63699920800468
 40
10.63699920800468
 10
116.7257627160524
 20
125.5269455916519
 30
0.0
 41
1.140916470546975
 10
117.7257627160524
 20
127.2589963992207
 30
0.0
 41
1.317416862786348
 10
116.7257627160523
 20
128.9910472067895
 30
-0.0000000000000018
 41
1.140916470546978
  0
LINE
  5
2286
330
1F
100
AcDbEntity
  8
AM_VIS
100
AcDbLine
 10
114.4059986682121
 20
116.3128439765141
 30
0.0
 11
115.0862346203717
 21
115.1346407462386
 31
0.0
  0
LINE
  5
2287
330
1F
100
AcDbEntity
  8
AM_VIS
100
AcDbLine
 10
114.4059986682121
 20
127.8128439765142
 30
0.0
 11
115.0862346203717
 21
128.9910472067897
 31
0.0
  0
LINE
  5
2288
330
1F
100
AcDbEntity
  8
AM_VIS
100
AcDbLine
 10
117.4059986682121
 20
127.8128439765142
 30
0.0
 11
116.7257627160524
 21
128.9910472067897
 31
0.0
  0
LINE
  5
2289
330
1F
100
AcDbEntity
  8
AM_VIS
100
AcDbLine
 10
117.4059986682121
 20
116.3128439765141
 30
0.0
 11
116.7257627160524
 21
115.1346407462386
 31
0.0
  0
LINE
  5
228A
330
1F
100
AcDbEntity
  8
AM_VIS
100
AcDbLine
 10
114.4059986682121
 20
127.8128439765142
 30
0.0
 11
114.4059986682121
 21
116.3128439765141
 31
0.0
  0
LINE
  5
228B
330
1F
100
AcDbEntity
  8
AM_VIS
100
AcDbLine
 10
117.4059986682121
 20
116.3128439765141
 30
0.0
 11
117.4059986682121
 21
127.8128439765142
 31
0.0
  0
SPLINE
  5
228C
330
1F
100
AcDbEntity
  8
AM_VIS
100
AcDbSpline
210
0.0
220
0.0
230
1.0
 70
    12
 71
     2
 72
     6
 73
     3
 74
     0
 42
0.0000000001
 43
0.0000000001
 40
0.0
 40
0.0
 40
0.0
 40
4.39696865275752
 40
4.39696865275752
 40
4.39696865275752
 10
126.5595885066983
 20
117.076004923599
 30
0.0000000000000018
 41
1.0
 10
127.1080712624285
 20
118.1657296594842
 30
0.0000000000000036
 41
1.111111111111102
 10
126.5595885066983
 20
119.2554543953692
 30
0.0000000000000018
 41
1.0
  0
LINE
  5
228D
330
1F
100
AcDbEntity
  8
AM_VIS
100
AcDbLine
 10
108.7524088297258
 20
117.076004923599
 30
0.0
 11
111.4059986682121
 21
117.076004923599
 31
0.0
  0
LINE
  5
228E
330
1F
100
AcDbEntity
  8
AM_VIS
100
AcDbLine
 10
117.4059986682121
 20
117.076004923599
 30
0.0
 11
126.5595885066983
 21
117.076004923599
 31
0.0
  0
LINE
  5
228F
330
1F
100
AcDbEntity
  8
AM_VIS
100
AcDbLine
 10
126.5595885066983
 20
119.2554543953692
 30
0.0
 11
117.4059986682121
 21
119.2554543953692
 31
0.0
  0
LINE
  5
2290
330
1F
100
AcDbEntity
  8
AM_VIS
100
AcDbLine
 10
111.4059986682121
 20
119.2554543953692
 30
0.0
 11
108.7524088297258
 21
119.2554543953692
 31
0.0
  0
SPLINE
  5
2291
330
1F
100
AcDbEntity
  8
AM_VIS
100
AcDbSpline
210
0.0
220
0.0000000000000004
230
1.0
 70
    12
 71
     2
 72
     6
 73
     3
 74
     0
 42
0.0000000001
 43
0.0000000001
 40
0.0
 40
0.0
 40
0.0
 40
4.396968652757528
 40
4.396968652757528
 40
4.396968652757528
 10
126.5595885066983
 20
119.8833945047439
 30
0.0000000000000018
 41
1.0
 10
127.1080712624284
 20
122.0628439765142
 30
0.0000000000000018
 41
1.111111111111105
 10
126.5595885066983
 20
124.2422934482844
 30
0.0
 41
1.0
  0
LINE
  5
2292
330
1F
100
AcDbEntity
  8
AM_VIS
100
AcDbLine
 10
108.7524088297258
 20
119.8833945047439
 30
0.0
 11
111.4059986682121
 21
119.8833945047439
 31
0.0
  0
LINE
  5
2293
330
1F
100
AcDbEntity
  8
AM_VIS
100
AcDbLine
 10
117.4059986682121
 20
119.8833945047439
 30
0.0
 11
126.5595885066983
 21
119.8833945047439
 31
0.0
  0
LINE
  5
2294
330
1F
100
AcDbEntity
  8
AM_VIS
100
AcDbLine
 10
126.5595885066983
 20
124.2422934482843
 30
0.0
 11
117.4059986682121
 21
124.2422934482843
 31
0.0
  0
LINE
  5
2295
330
1F
100
AcDbEntity
  8
AM_VIS
100
AcDbLine
 10
111.4059986682121
 20
124.2422934482843
 30
0.0
 11
108.7524088297258
 21
124.2422934482843
 31
0.0
  0
SPLINE
  5
2296
330
1F
100
AcDbEntity
  8
AM_VIS
100
AcDbSpline
210
0.0
220
0.0
230
1.0
 70
    12
 71
     2
 72
     6
 73
     3
 74
     0
 42
0.0000000001
 43
0.0000000001
 40
0.0
 40
0.0
 40
0.0
 40
4.396968652757449
 40
4.396968652757449
 40
4.396968652757449
 10
126.5595885066983
 20
124.8702335576591
 30
0.0
 41
1.0
 10
127.1080712624284
 20
125.9599582935442
 30
0.0
 41
1.111111111111095
 10
126.5595885066983
 20
127.0496830294292
 30
0.0
 41
1.0
  0
LINE
  5
2297
330
1F
100
AcDbEntity
  8
AM_VIS
100
AcDbLine
 10
108.7524088297258
 20
124.8702335576591
 30
0.0
 11
111.4059986682121
 21
124.8702335576591
 31
0.0
  0
LINE
  5
2298
330
1F
100
AcDbEntity
  8
AM_VIS
100
AcDbLine
 10
117.4059986682121
 20
124.8702335576591
 30
0.0
 11
126.5595885066983
 21
124.8702335576591
 31
0.0
  0
LINE
  5
2299
330
1F
100
AcDbEntity
  8
AM_VIS
100
AcDbLine
 10
126.5595885066983
 20
127.0496830294292
 30
0.0
 11
117.4059986682121
 21
127.0496830294292
 31
0.0
  0
LINE
  5
229A
330
1F
100
AcDbEntity
  8
AM_VIS
100
AcDbLine
 10
111.4059986682121
 20
127.0496830294292
 30
0.0
 11
108.7524088297258
 21
127.0496830294292
 31
0.0
  0
SPLINE
  5
229B
330
1F
100
AcDbEntity
  8
AM_VIS
100
AcDbSpline
210
0.0
220
0.0000000000000004
230
1.0
 70
    12
 71
     2
 72
     6
 73
     3
 74
     0
 42
0.0000000001
 43
0.0000000001
 40
0.7244801790705148
 40
0.7244801790705148
 40
0.7244801790705148
 40
5.33522278394663
 40
5.33522278394663
 40
5.33522278394663
 10
108.7524088297258
 20
124.2422934482846
 30
-0.0000000000000018
 41
1.042105263157895
 10
108.2039260739957
 20
122.0628439765142
 30
0.0
 41
1.157894736842101
 10
108.7524088297258
 20
119.8833945047439
 30
0.0
 41
1.042105263157895
  0
SPLINE
  5
229C
330
1F
100
AcDbEntity
  8
AM_VIS
100
AcDbSpline
210
0.0
220
-0.0000000000000008
230
1.0
 70
    12
 71
     2
 72
     6
 73
     3
 74
     0
 42
0.0000000001
 43
0.0000000001
 40
0.7244801790705182
 40
0.7244801790705182
 40
0.7244801790705182
 40
5.335222783946617
 40
5.335222783946617
 40
5.335222783946617
 10
108.7524088297257
 20
119.2554543953692
 30
0.0
 41
1.042105263157894
 10
108.2039260739956
 20
118.1657296594841
 30
0.0
 41
1.157894736842097
 10
108.7524088297257
 20
117.0760049235989
 30
-0.0000000000000018
 41
1.042105263157895
  0
SPLINE
  5
229D
330
1F
100
AcDbEntity
  8
AM_VIS
100
AcDbSpline
210
0.0
220
0.0
230
1.0
 70
    12
 71
     2
 72
     6
 73
     3
 74
     0
 42
0.0000000001
 43
0.0000000001
 40
0.7244801790705267
 40
0.7244801790705267
 40
0.7244801790705267
 40
5.33522278394656
 40
5.33522278394656
 40
5.33522278394656
 10
108.7524088297256
 20
127.0496830294291
 30
-0.0000000000000018
 41
1.042105263157893
 10
108.2039260739957
 20
125.9599582935442
 30
-0.0000000000000018
 41
1.157894736842088
 10
108.7524088297257
 20
124.8702335576588
 30
-0.0000000000000018
 41
1.042105263157893
  0
LINE
  5
229E
330
1F
100
AcDbEntity
  8
AM_VIS
100
AcDbLine
 10
131.9059986682121
 20
117.8128439765141
 30
0.0
 11
132.9059986682121
 21
117.8128439765141
 31
0.0
  0
LINE
  5
229F
330
1F
100
AcDbEntity
  8
AM_VIS
100
AcDbLine
 10
131.9059986682121
 20
126.3128439765142
 30
0.0
 11
132.9059986682121
 21
126.3128439765142
 31
0.0
  0
LINE
  5
22A0
330
1F
100
AcDbEntity
  8
AM_VIS
100
AcDbLine
 10
126.5595885066983
 20
117.0628439765141
 30
0.0
 11
117.4059986682121
 21
117.0628439765141
 31
0.0
  0
LINE
  5
22A1
330
1F
100
AcDbEntity
  8
AM_VIS
100
AcDbLine
 10
111.4059986682121
 20
117.0628439765141
 30
0.0
 11
108.7524088297258
 21
117.0628439765141
 31
0.0
  0
LINE
  5
22A2
330
1F
100
AcDbEntity
  8
AM_VIS
100
AcDbLine
 10
126.9059986682121
 20
126.4628439765141
 30
0.0
 11
126.5595885066983
 21
127.0628439765141
 31
0.0
  0
LINE
  5
22A3
330
1F
100
AcDbEntity
  8
AM_VIS
100
AcDbLine
 10
126.9059986682121
 20
117.6628439765141
 30
0.0
 11
126.5595885066983
 21
117.0628439765141
 31
0.0
  0
LINE
  5
22A4
330
1F
100
AcDbEntity
  8
AM_VIS
100
AcDbLine
 10
126.9059986682121
 20
117.8128439765141
 30
0.0
 11
130.405998668212
 21
117.8128439765141
 31
0.0
  0
LINE
  5
22A5
330
1F
100
AcDbEntity
  8
AM_VIS
100
AcDbLine
 10
126.9059986682121
 20
126.3128439765142
 30
0.0
 11
130.405998668212
 21
126.3128439765142
 31
0.0
  0
LINE
  5
22A6
330
1F
100
AcDbEntity
  8
AM_VIS
100
AcDbLine
 10
130.405998668212
 20
118.5128439765141
 30
0.0
 11
131.9059986682121
 21
118.5128439765141
 31
0.0
  0
LINE
  5
22A7
330
1F
100
AcDbEntity
  8
AM_VIS
100
AcDbLine
 10
130.405998668212
 20
125.6128439765141
 30
0.0
 11
131.9059986682121
 21
125.6128439765141
 31
0.0
  0
LINE
  5
22A8
330
1F
100
AcDbEntity
  8
AM_VIS
100
AcDbLine
 10
107.5059986682121
 20
117.6628439765141
 30
0.0
 11
108.405998668212
 21
117.6628439765141
 31
0.0
  0
LINE
  5
22A9
330
1F
100
AcDbEntity
  8
AM_VIS
100
AcDbLine
 10
107.505998668212
 20
126.4628439765141
 30
0.0
 11
108.405998668212
 21
126.4628439765141
 31
0.0
  0
LINE
  5
22AA
330
1F
100
AcDbEntity
  8
AM_VIS
100
AcDbLine
 10
107.405998668212
 20
117.7628439765141
 30
0.0
 11
107.505998668212
 21
117.6628439765141
 31
0.0
  0
LINE
  5
22AB
330
1F
100
AcDbEntity
  8
AM_VIS
100
AcDbLine
 10
107.405998668212
 20
126.3628439765142
 30
0.0
 11
107.505998668212
 21
126.4628439765141
 31
0.0
  0
LINE
  5
22AC
330
1F
100
AcDbEntity
  8
AM_VIS
100
AcDbLine
 10
126.5595885066983
 20
127.0628439765142
 30
0.0
 11
117.4059986682121
 21
127.0628439765142
 31
0.0
  0
LINE
  5
22AD
330
1F
100
AcDbEntity
  8
AM_VIS
100
AcDbLine
 10
111.4059986682121
 20
127.0628439765142
 30
0.0
 11
108.7524088297258
 21
127.0628439765142
 31
0.0
  0
LINE
  5
22AE
330
1F
100
AcDbEntity
  8
AM_VIS
100
AcDbLine
 10
108.405998668212
 20
117.6628439765141
 30
0.0
 11
108.7524088297258
 21
117.0628439765141
 31
0.0
  0
LINE
  5
22AF
330
1F
100
AcDbEntity
  8
AM_VIS
100
AcDbLine
 10
108.405998668212
 20
126.4628439765141
 30
0.0
 11
108.7524088297258
 21
127.0628439765141
 31
0.0
  0
LINE
  5
22B0
330
1F
100
AcDbEntity
  8
AM_VIS
100
AcDbLine
 10
126.5595885066983
 20
117.076004923599
 30
0.0
 11
126.5595885066983
 21
117.0628439765141
 31
0.0
  0
LINE
  5
22B1
330
1F
100
AcDbEntity
  8
AM_VIS
100
AcDbLine
 10
126.9059986682121
 20
117.6628439765141
 30
0.0
 11
126.9059986682121
 21
126.4628439765141
 31
0.0
  0
LINE
  5
22B2
330
1F
100
AcDbEntity
  8
AM_VIS
100
AcDbLine
 10
126.5595885066983
 20
119.8833945047439
 30
0.0
 11
126.5595885066983
 21
119.2554543953692
 31
0.0
  0
LINE
  5
22B3
330
1F
100
AcDbEntity
  8
AM_VIS
100
AcDbLine
 10
126.5595885066983
 20
124.8702335576591
 30
0.0
 11
126.5595885066983
 21
124.2422934482844
 31
0.0
  0
LINE
  5
22B4
330
1F
100
AcDbEntity
  8
AM_VIS
100
AcDbLine
 10
130.405998668212
 20
126.3128439765142
 30
0.0
 11
130.405998668212
 21
117.8128439765141
 31
0.0
  0
LINE
  5
22B5
330
1F
100
AcDbEntity
  8
AM_VIS
100
AcDbLine
 10
131.9059986682121
 20
117.8128439765141
 30
0.0
 11
131.9059986682121
 21
126.3128439765142
 31
0.0
  0
LINE
  5
22B6
330
1F
100
AcDbEntity
  8
AM_VIS
100
AcDbLine
 10
132.9059986682121
 20
126.3128439765142
 30
0.0
 11
132.9059986682121
 21
117.8128439765141
 31
0.0
  0
LINE
  5
22B7
330
1F
100
AcDbEntity
  8
AM_VIS
100
AcDbLine
 10
107.405998668212
 20
117.7628439765141
 30
0.0
 11
107.405998668212
 21
126.3628439765142
 31
0.0
  0
LINE
  5
22B8
330
1F
100
AcDbEntity
  8
AM_VIS
100
AcDbLine
 10
126.5595885066983
 20
127.0628439765142
 30
0.0
 11
126.5595885066983
 21
127.0496830294292
 31
0.0
  0
LINE
  5
22B9
330
1F
100
AcDbEntity
  8
AM_VIS
100
AcDbLine
 10
108.405998668212
 20
117.6628439765141
 30
0.0
 11
108.405998668212
 21
126.4628439765141
 31
0.0
  0
LINE
  5
22BA
330
1F
100
AcDbEntity
  8
AM_VIS
100
AcDbLine
 10
108.7524088297258
 20
124.2422934482843
 30
0.0
 11
108.7524088297258
 21
124.8702335576591
 31
0.0
  0
LINE
  5
22BB
330
1F
100
AcDbEntity
  8
AM_VIS
100
AcDbLine
 10
108.7524088297258
 20
119.2554543953692
 30
0.0
 11
108.7524088297258
 21
119.8833945047439
 31
0.0
  0
LINE
  5
22BC
330
1F
100
AcDbEntity
  8
AM_VIS
100
AcDbLine
 10
108.7524088297258
 20
117.0628439765141
 30
0.0
 11
108.7524088297258
 21
117.076004923599
 31
0.0
  0
LINE
  5
22BD
330
1F
100
AcDbEntity
  8
AM_VIS
100
AcDbLine
 10
108.7524088297258
 20
127.0496830294292
 30
0.0
 11
108.7524088297258
 21
127.0628439765142
 31
0.0
  0
LINE
  5
22BE
330
1F
100
AcDbEntity
  8
AM_VIS
100
AcDbLine
 10
103.7026435482312
 20
120.4751307362426
 30
0.0
 11
102.5093537881929
 21
120.4751307362426
 31
0.0
  0
LINE
  5
22BF
330
1F
100
AcDbEntity
  8
AM_VIS
100
AcDbLine
 10
103.7026435482312
 20
118.8874174959712
 30
0.0
 11
102.5093537881929
 21
118.8874174959712
 31
0.0
  0
SPLINE
  5
22C0
330
1F
100
AcDbEntity
  8
AM_VIS
100
AcDbSpline
210
0.0
220
0.0
230
1.0
 70
    12
 71
     2
 72
     6
 73
     3
 74
     0
 42
0.0000000001
 43
0.0000000001
 40
0.0
 40
0.0
 40
0.0
 40
3.213199379714416
 40
3.213199379714416
 40
3.213199379714416
 10
102.5093537881929
 20
120.4751307362426
 30
0.0
 41
1.0
 10
102.0510204548595
 20
119.681274116107
 30
0.0
 41
1.154700538379267
 10
102.5093537881929
 20
118.8874174959711
 30
0.0
 41
1.0
  0
SPLINE
  5
22C1
330
1F
100
AcDbEntity
  8
AM_VIS
100
AcDbSpline
210
0.0
220
0.0000000000000006
230
1.0
 70
    12
 71
     2
 72
     6
 73
     3
 74
     0
 42
0.0000000001
 43
0.0000000001
 40
0.0
 40
0.0
 40
0.0
 40
3.213199379714319
 40
3.213199379714319
 40
3.213199379714319
 10
102.5093537881929
 20
123.6505572167855
 30
-0.0000000000000018
 41
1.0
 10
102.0510204548594
 20
122.0628439765137
 30
0.0
 41
1.154700538379257
 10
102.5093537881929
 20
120.4751307362426
 30
0.0
 41
1.0
  0
LINE
  5
22C2
330
1F
100
AcDbEntity
  8
AM_VIS
100
AcDbLine
 10
103.7026435482312
 20
123.6505572167855
 30
0.0
 11
102.5093537881929
 21
123.6505572167855
 31
0.0
  0
SPLINE
  5
22C3
330
1F
100
AcDbEntity
  8
AM_VIS
100
AcDbSpline
210
0.0
220
-0.0000000000000011
230
1.0
 70
    12
 71
     2
 72
     6
 73
     3
 74
     0
 42
0.0000000001
 43
0.0000000001
 40
0.0
 40
0.0
 40
0.0
 40
3.213199379714279
 40
3.213199379714279
 40
3.213199379714279
 10
102.5093537881929
 20
125.2382704570571
 30
0.0
 41
1.0
 10
102.0510204548595
 20
124.4444138369212
 30
0.0
 41
1.15470053837925
 10
102.5093537881929
 20
123.6505572167855
 30
-0.0000000000000018
 41
1.0
  0
LINE
  5
22C4
330
1F
100
AcDbEntity
  8
AM_VIS
100
AcDbLine
 10
103.7026435482312
 20
125.2382704570571
 30
0.0
 11
102.5093537881929
 21
125.2382704570571
 31
0.0
  0
SPLINE
  5
22C5
330
1F
100
AcDbEntity
  8
AM_VIS
100
AcDbSpline
210
0.0
220
0.0
230
1.0
 70
    12
 71
     2
 72
     6
 73
     3
 74
     0
 42
0.0000000001
 43
0.0000000001
 40
0.0
 40
0.0
 40
0.0
 40
3.213199379714476
 40
3.213199379714476
 40
3.213199379714476
 10
103.7026435482312
 20
118.8874174959711
 30
0.0
 41
1.0
 10
104.1609768815645
 20
119.6812741161068
 30
0.0
 41
1.154700538379272
 10
103.7026435482312
 20
120.4751307362426
 30
0.0
 41
1.0
  0
SPLINE
  5
22C6
330
1F
100
AcDbEntity
  8
AM_VIS
100
AcDbSpline
210
0.0
220
0.0000000000000006
230
1.0
 70
    12
 71
     2
 72
     6
 73
     3
 74
     0
 42
0.0000000001
 43
0.0000000001
 40
0.0
 40
0.0
 40
0.0
 40
3.21319937971438
 40
3.21319937971438
 40
3.21319937971438
 10
103.7026435482312
 20
120.4751307362426
 30
0.0
 41
1.0
 10
104.1609768815645
 20
122.062843976514
 30
-0.0000000000000018
 41
1.154700538379262
 10
103.7026435482312
 20
123.6505572167855
 30
-0.0000000000000018
 41
1.0
  0
SPLINE
  5
22C7
330
1F
100
AcDbEntity
  8
AM_VIS
100
AcDbSpline
210
0.0
220
-0.0000000000000011
230
1.0
 70
    12
 71
     2
 72
     6
 73
     3
 74
     0
 42
0.0000000001
 43
0.0000000001
 40
0.0
 40
0.0
 40
0.0
 40
3.213199379714342
 40
3.213199379714342
 40
3.213199379714342
 10
103.7026435482312
 20
123.6505572167855
 30
-0.0000000000000018
 41
1.0
 10
104.1609768815646
 20
124.4444138369213
 30
-0.0000000000000018
 41
1.154700538379258
 10
103.7026435482312
 20
125.2382704570571
 30
0.0
 41
1.0
  0
LINE
  5
22C8
330
1F
100
AcDbEntity
  8
AM_VIS
100
AcDbLine
 10
102.205998668212
 20
119.4128439765141
 30
0.0
 11
102.5093537881929
 21
118.8874174959711
 31
0.0
  0
LINE
  5
22C9
330
1F
100
AcDbEntity
  8
AM_VIS
100
AcDbLine
 10
102.205998668212
 20
124.712843976514
 30
0.0
 11
102.5093537881929
 21
125.2382704570571
 31
0.0
  0
LINE
  5
22CA
330
1F
100
AcDbEntity
  8
AM_VIS
100
AcDbLine
 10
104.005998668212
 20
124.712843976514
 30
0.0
 11
103.7026435482312
 21
125.2382704570571
 31
0.0
  0
LINE
  5
22CB
330
1F
100
AcDbEntity
  8
AM_VIS
100
AcDbLine
 10
104.005998668212
 20
119.4128439765141
 30
0.0
 11
103.7026435482312
 21
118.8874174959711
 31
0.0
  0
LINE
  5
22CC
330
1F
100
AcDbEntity
  8
AM_VIS
100
AcDbLine
 10
102.205998668212
 20
124.712843976514
 30
0.0
 11
102.205998668212
 21
119.4128439765141
 31
0.0
  0
LINE
  5
22CD
330
1F
100
AcDbEntity
  8
AM_VIS
100
AcDbLine
 10
104.005998668212
 20
119.4128439765141
 30
0.0
 11
104.005998668212
 21
124.712843976514
 31
0.0
  0
LINE
  5
22CE
330
1F
100
AcDbEntity
  8
AM_VIS
100
AcDbLine
 10
101.9026435482312
 20
120.4751307362426
 30
0.0
 11
100.7093537881929
 21
120.4751307362426
 31
0.0
  0
LINE
  5
22CF
330
1F
100
AcDbEntity
  8
AM_VIS
100
AcDbLine
 10
101.9026435482312
 20
118.8874174959712
 30
0.0
 11
100.7093537881929
 21
118.8874174959712
 31
0.0
  0
SPLINE
  5
22D0
330
1F
100
AcDbEntity
  8
AM_VIS
100
AcDbSpline
210
0.0
220
0.0
230
1.0
 70
    12
 71
     2
 72
     6
 73
     3
 74
     0
 42
0.0000000001
 43
0.0000000001
 40
0.0
 40
0.0
 40
0.0
 40
3.213199379714416
 40
3.213199379714416
 40
3.213199379714416
 10
100.7093537881928
 20
120.4751307362426
 30
0.0
 41
1.0
 10
100.2510204548595
 20
119.681274116107
 30
0.0
 41
1.154700538379267
 10
100.7093537881928
 20
118.8874174959711
 30
0.0
 41
1.0
  0
SPLINE
  5
22D1
330
1F
100
AcDbEntity
  8
AM_VIS
100
AcDbSpline
210
0.0
220
0.0
230
1.0
 70
    12
 71
     2
 72
     6
 73
     3
 74
     0
 42
0.0000000001
 43
0.0000000001
 40
0.0
 40
0.0
 40
0.0
 40
3.213199379714319
 40
3.213199379714319
 40
3.213199379714319
 10
100.7093537881928
 20
123.6505572167855
 30
0.0
 41
1.0
 10
100.2510204548595
 20
122.0628439765137
 30
0.0
 41
1.154700538379257
 10
100.7093537881928
 20
120.4751307362426
 30
0.0
 41
1.0
  0
LINE
  5
22D2
330
1F
100
AcDbEntity
  8
AM_VIS
100
AcDbLine
 10
101.9026435482312
 20
123.6505572167855
 30
0.0
 11
100.7093537881929
 21
123.6505572167855
 31
0.0
  0
SPLINE
  5
22D3
330
1F
100
AcDbEntity
  8
AM_VIS
100
AcDbSpline
210
0.0
220
0.0
230
1.0
 70
    12
 71
     2
 72
     6
 73
     3
 74
     0
 42
0.0000000001
 43
0.0000000001
 40
0.0
 40
0.0
 40
0.0
 40
3.213199379714279
 40
3.213199379714279
 40
3.213199379714279
 10
100.7093537881928
 20
125.2382704570571
 30
0.0
 41
1.0
 10
100.2510204548594
 20
124.4444138369212
 30
0.0
 41
1.15470053837925
 10
100.7093537881928
 20
123.6505572167855
 30
0.0
 41
1.0
  0
LINE
  5
22D4
330
1F
100
AcDbEntity
  8
AM_VIS
100
AcDbLine
 10
101.9026435482312
 20
125.2382704570571
 30
0.0
 11
100.7093537881929
 21
125.2382704570571
 31
0.0
  0
SPLINE
  5
22D5
330
1F
100
AcDbEntity
  8
AM_VIS
100
AcDbSpline
210
0.0
220
0.0
230
1.0
 70
    12
 71
     2
 72
     6
 73
     3
 74
     0
 42
0.0000000001
 43
0.0000000001
 40
0.0
 40
0.0
 40
0.0
 40
3.213199379714476
 40
3.213199379714476
 40
3.213199379714476
 10
101.9026435482312
 20
118.8874174959711
 30
0.0
 41
1.0
 10
102.3609768815645
 20
119.6812741161068
 30
0.0
 41
1.154700538379272
 10
101.9026435482312
 20
120.4751307362426
 30
0.0
 41
1.0
  0
SPLINE
  5
22D6
330
1F
100
AcDbEntity
  8
AM_VIS
100
AcDbSpline
210
0.0
220
0.0
230
1.0
 70
    12
 71
     2
 72
     6
 73
     3
 74
     0
 42
0.0000000001
 43
0.0000000001
 40
0.0
 40
0.0
 40
0.0
 40
3.21319937971438
 40
3.21319937971438
 40
3.21319937971438
 10
101.9026435482312
 20
120.4751307362426
 30
0.0
 41
1.0
 10
102.3609768815645
 20
122.062843976514
 30
-0.0000000000000018
 41
1.154700538379262
 10
101.9026435482312
 20
123.6505572167855
 30
0.0
 41
1.0
  0
SPLINE
  5
22D7
330
1F
100
AcDbEntity
  8
AM_VIS
100
AcDbSpline
210
0.0
220
0.0
230
1.0
 70
    12
 71
     2
 72
     6
 73
     3
 74
     0
 42
0.0000000001
 43
0.0000000001
 40
0.0
 40
0.0
 40
0.0
 40
3.213199379714342
 40
3.213199379714342
 40
3.213199379714342
 10
101.9026435482312
 20
123.6505572167855
 30
0.0
 41
1.0
 10
102.3609768815646
 20
124.4444138369213
 30
0.0
 41
1.154700538379258
 10
101.9026435482312
 20
125.2382704570571
 30
0.0
 41
1.0
  0
LINE
  5
22D8
330
1F
100
AcDbEntity
  8
AM_VIS
100
AcDbLine
 10
100.405998668212
 20
119.4128439765141
 30
0.0
 11
100.7093537881929
 21
118.8874174959711
 31
0.0
  0
LINE
  5
22D9
330
1F
100
AcDbEntity
  8
AM_VIS
100
AcDbLine
 10
100.405998668212
 20
124.712843976514
 30
0.0
 11
100.7093537881929
 21
125.2382704570571
 31
0.0
  0
LINE
  5
22DA
330
1F
100
AcDbEntity
  8
AM_VIS
100
AcDbLine
 10
102.205998668212
 20
124.712843976514
 30
0.0
 11
101.9026435482312
 21
125.2382704570571
 31
0.0
  0
LINE
  5
22DB
330
1F
100
AcDbEntity
  8
AM_VIS
100
AcDbLine
 10
102.205998668212
 20
119.4128439765141
 30
0.0
 11
101.9026435482312
 21
118.8874174959711
 31
0.0
  0
LINE
  5
22DC
330
1F
100
AcDbEntity
  8
AM_VIS
100
AcDbLine
 10
100.405998668212
 20
124.712843976514
 30
0.0
 11
100.405998668212
 21
119.4128439765141
 31
0.0
  0
LINE
  5
22DD
330
1F
100
AcDbEntity
  8
AM_VIS
100
AcDbLine
 10
102.205998668212
 20
119.4128439765141
 30
0.0
 11
102.205998668212
 21
124.712843976514
 31
0.0
  0
LINE
  5
22DE
330
1F
100
AcDbEntity
  8
AM_VIS
100
AcDbLine
 10
107.405998668212
 20
123.5628439765142
 30
0.0
 11
105.505998668212
 21
123.5628439765142
 31
0.0
  0
LINE
  5
22DF
330
1F
100
AcDbEntity
  8
AM_VIS
100
AcDbLine
 10
107.405998668212
 20
120.5628439765142
 30
0.0
 11
105.505998668212
 21
120.5628439765142
 31
0.0
  0
LINE
  5
22E0
330
1F
100
AcDbEntity
  8
AM_VIS
100
AcDbLine
 10
105.405998668212
 20
120.6628439765141
 30
0.0
 11
105.505998668212
 21
120.5628439765141
 31
0.0
  0
LINE
  5
22E1
330
1F
100
AcDbEntity
  8
AM_VIS
100
AcDbLine
 10
105.405998668212
 20
123.4628439765141
 30
0.0
 11
105.505998668212
 21
123.5628439765141
 31
0.0
  0
LINE
  5
22E2
330
1F
100
AcDbEntity
  8
AM_VIS
100
AcDbLine
 10
105.405998668212
 20
123.4628439765141
 30
0.0
 11
104.005998668212
 21
123.4628439765141
 31
0.0
  0
LINE
  5
22E3
330
1F
100
AcDbEntity
  8
AM_VIS
100
AcDbLine
 10
100.405998668212
 20
123.4628439765141
 30
0.0
 11
98.80599866821206
 21
123.4628439765141
 31
0.0
  0
LINE
  5
22E4
330
1F
100
AcDbEntity
  8
AM_VIS
100
AcDbLine
 10
105.405998668212
 20
120.6628439765141
 30
0.0
 11
104.005998668212
 21
120.6628439765141
 31
0.0
  0
LINE
  5
22E5
330
1F
100
AcDbEntity
  8
AM_VIS
100
AcDbLine
 10
100.405998668212
 20
120.6628439765141
 30
0.0
 11
98.80599866821206
 21
120.6628439765141
 31
0.0
  0
LINE
  5
22E6
330
1F
100
AcDbEntity
  8
AM_VIS
100
AcDbLine
 10
98.40599866821207
 20
121.0628439765141
 30
0.0
 11
98.80599866821206
 21
120.6628439765141
 31
0.0
  0
LINE
  5
22E7
330
1F
100
AcDbEntity
  8
AM_VIS
100
AcDbLine
 10
98.40599866821207
 20
123.0628439765141
 30
0.0
 11
98.80599866821206
 21
123.4628439765141
 31
0.0
  0
LINE
  5
22E8
330
1F
100
AcDbEntity
  8
AM_VIS
100
AcDbLine
 10
105.405998668212
 20
120.6628439765141
 30
0.0
 11
105.405998668212
 21
123.4628439765141
 31
0.0
  0
LINE
  5
22E9
330
1F
100
AcDbEntity
  8
AM_VIS
100
AcDbLine
 10
98.80599866821206
 20
123.4628439765141
 30
0.0
 11
98.80599866821206
 21
120.6628439765141
 31
0.0
  0
LINE
  5
22EA
330
1F
100
AcDbEntity
  8
AM_VIS
100
AcDbLine
 10
98.40599866821207
 20
121.0628439765141
 30
0.0
 11
98.40599866821207
 21
123.0628439765141
 31
0.0
  0
SPLINE
  5
22EB
330
1F
100
AcDbEntity
  8
AM_VIS
100
AcDbSpline
210
0.0
220
0.0
230
1.0
 70
    12
 71
     2
 72
     6
 73
     3
 74
     0
 42
0.0000000001
 43
0.0000000001
 40
2.490579903672054
 40
2.490579903672054
 40
2.490579903672054
 40
10.63699920800477
 40
10.63699920800477
 40
10.63699920800477
 10
113.7257627160524
 20
115.1346407462385
 30
0.0
 41
1.140916470546979
 10
114.7257627160524
 20
116.8666915538075
 30
0.0
 41
1.317416862786353
 10
113.7257627160523
 20
118.5987423613763
 30
0.0
 41
1.140916470546978
  0
LINE
  5
22EC
330
1F
100
AcDbEntity
  8
AM_VIS
100
AcDbLine
 10
112.0862346203717
 20
115.1346407462386
 30
0.0
 11
113.7257627160523
 21
115.1346407462386
 31
0.0
  0
SPLINE
  5
22ED
330
1F
100
AcDbEntity
  8
AM_VIS
100
AcDbSpline
210
0.0
220
0.0
230
1.0
 70
    12
 71
     2
 72
     6
 73
     3
 74
     0
 42
0.0000000001
 43
0.0000000001
 40
2.490579903672053
 40
2.490579903672053
 40
2.490579903672053
 40
10.63699920800474
 40
10.63699920800474
 40
10.63699920800474
 10
113.7257627160523
 20
118.5987423613763
 30
-0.0000000000000018
 41
1.140916470546978
 10
114.7257627160524
 20
122.0628439765142
 30
0.0000000000000018
 41
1.317416862786348
 10
113.7257627160524
 20
125.5269455916519
 30
-0.0000000000000018
 41
1.140916470546975
  0
LINE
  5
22EE
330
1F
100
AcDbEntity
  8
AM_VIS
100
AcDbLine
 10
112.0862346203717
 20
118.5987423613764
 30
0.0
 11
113.7257627160523
 21
118.5987423613764
 31
0.0
  0
LINE
  5
22EF
330
1F
100
AcDbEntity
  8
AM_VIS
100
AcDbLine
 10
112.0862346203717
 20
128.9910472067897
 30
0.0
 11
113.7257627160523
 21
128.9910472067897
 31
0.0
  0
SPLINE
  5
22F0
330
1F
100
AcDbEntity
  8
AM_VIS
100
AcDbSpline
210
0.0
220
0.0
230
1.0
 70
    12
 71
     2
 72
     6
 73
     3
 74
     0
 42
0.0000000001
 43
0.0000000001
 40
2.490579903672012
 40
2.490579903672012
 40
2.490579903672012
 40
10.63699920800469
 40
10.63699920800469
 40
10.63699920800469
 10
113.7257627160524
 20
125.5269455916519
 30
-0.0000000000000018
 41
1.140916470546975
 10
114.7257627160523
 20
127.2589963992206
 30
-0.0000000000000036
 41
1.317416862786347
 10
113.7257627160523
 20
128.9910472067897
 30
-0.0000000000000018
 41
1.140916470546976
  0
LINE
  5
22F1
330
1F
100
AcDbEntity
  8
AM_VIS
100
AcDbLine
 10
112.0862346203717
 20
125.5269455916519
 30
0.0
 11
113.7257627160523
 21
125.5269455916519
 31
0.0
  0
SPLINE
  5
22F2
330
1F
100
AcDbEntity
  8
AM_VIS
100
AcDbSpline
210
0.0
220
0.0
230
1.0
 70
    12
 71
     2
 72
     6
 73
     3
 74
     0
 42
0.0000000001
 43
0.0000000001
 40
2.490579903672027
 40
2.490579903672027
 40
2.490579903672027
 40
10.6369992080047
 40
10.6369992080047
 40
10.6369992080047
 10
112.0862346203717
 20
128.9910472067897
 30
-0.0000000000000018
 41
1.140916470546976
 10
111.0862346203718
 20
127.2589963992207
 30
0.0
 41
1.317416862786347
 10
112.0862346203717
 20
125.5269455916519
 30
-0.0000000000000018
 41
1.140916470546975
  0
SPLINE
  5
22F3
330
1F
100
AcDbEntity
  8
AM_VIS
100
AcDbSpline
210
0.0
220
0.0
230
1.0
 70
    12
 71
     2
 72
     6
 73
     3
 74
     0
 42
0.0000000001
 43
0.0000000001
 40
2.490579903672001
 40
2.490579903672001
 40
2.490579903672001
 40
10.63699920800468
 40
10.63699920800468
 40
10.63699920800468
 10
112.0862346203718
 20
125.5269455916519
 30
-0.0000000000000018
 41
1.140916470546975
 10
111.0862346203717
 20
122.0628439765142
 30
0.0
 41
1.317416862786348
 10
112.0862346203716
 20
118.5987423613763
 30
-0.0000000000000018
 41
1.140916470546978
  0
SPLINE
  5
22F4
330
1F
100
AcDbEntity
  8
AM_VIS
100
AcDbSpline
210
0.0
220
0.0000000000000005
230
1.0
 70
    12
 71
     2
 72
     6
 73
     3
 74
     0
 42
0.0000000001
 43
0.0000000001
 40
2.490579903672021
 40
2.490579903672021
 40
2.490579903672021
 40
10.63699920800474
 40
10.63699920800474
 40
10.63699920800474
 10
112.0862346203717
 20
118.5987423613763
 30
0.0
 41
1.140916470546978
 10
111.0862346203717
 20
116.8666915538075
 30
0.0
 41
1.317416862786354
 10
112.0862346203718
 20
115.1346407462387
 30
0.0000000000000018
 41
1.140916470546979
  0
LINE
  5
22F5
330
1F
100
AcDbEntity
  8
AM_VIS
100
AcDbLine
 10
114.4059986682121
 20
127.8128439765142
 30
0.0
 11
113.7257627160523
 21
128.9910472067897
 31
0.0
  0
LINE
  5
22F6
330
1F
100
AcDbEntity
  8
AM_VIS
100
AcDbLine
 10
114.4059986682121
 20
116.3128439765141
 30
0.0
 11
113.7257627160524
 21
115.1346407462386
 31
0.0
  0
LINE
  5
22F7
330
1F
100
AcDbEntity
  8
AM_VIS
100
AcDbLine
 10
111.4059986682121
 20
116.3128439765141
 30
0.0
 11
112.0862346203717
 21
115.1346407462386
 31
0.0
  0
LINE
  5
22F8
330
1F
100
AcDbEntity
  8
AM_VIS
100
AcDbLine
 10
111.4059986682121
 20
127.8128439765142
 30
0.0
 11
112.0862346203717
 21
128.9910472067897
 31
0.0
  0
LINE
  5
22F9
330
1F
100
AcDbEntity
  8
AM_VIS
100
AcDbLine
 10
114.4059986682121
 20
116.3128439765141
 30
0.0
 11
114.4059986682121
 21
127.8128439765142
 31
0.0
  0
LINE
  5
22FA
330
1F
100
AcDbEntity
  8
AM_VIS
100
AcDbLine
 10
111.4059986682121
 20
127.8128439765142
 30
0.0
 11
111.4059986682121
 21
116.3128439765141
 31
0.0
  0
LINE
  5
22FB
330
1F
100
AcDbEntity
  8
AM_VIS
100
AcDbLine
 10
77.06492691607064
 20
115.1346407462386
 30
0.0
 11
83.0649269160707
 21
118.5987423613763
 31
0.0
  0
LINE
  5
22FC
330
1F
100
AcDbEntity
  8
AM_VIS
100
AcDbLine
 10
71.06492691607065
 20
118.5987423613763
 30
0.0
 11
77.06492691607064
 21
115.1346407462386
 31
0.0
  0
LINE
  5
22FD
330
1F
100
AcDbEntity
  8
AM_VIS
100
AcDbLine
 10
71.06492691607065
 20
125.5269455916519
 30
0.0
 11
71.06492691607065
 21
118.5987423613763
 31
0.0
  0
LINE
  5
22FE
330
1F
100
AcDbEntity
  8
AM_VIS
100
AcDbLine
 10
71.06492691607065
 20
125.5269455916519
 30
0.0
 11
77.06492691607071
 21
128.9910472067897
 31
0.0
  0
LINE
  5
22FF
330
1F
100
AcDbEntity
  8
AM_VIS
100
AcDbLine
 10
77.06492691607071
 20
128.9910472067897
 30
0.0
 11
83.0649269160707
 21
125.5269455916519
 31
0.0
  0
LINE
  5
2300
330
1F
100
AcDbEntity
  8
AM_VIS
100
AcDbLine
 10
83.0649269160707
 20
125.5269455916519
 30
0.0
 11
83.0649269160707
 21
118.5987423613763
 31
0.0
  0
LINE
  5
2301
330
1F
100
AcDbEntity
  8
AM_VIS
100
AcDbLine
 10
81.5649269160707
 20
124.2422934482843
 30
0.0
 11
81.5649269160707
 21
119.8833945047439
 31
0.0
  0
LINE
  5
2302
330
1F
100
AcDbEntity
  8
AM_VIS
100
AcDbLine
 10
77.42746830725304
 20
117.076004923599
 30
0.0
 11
81.20238552488832
 21
119.2554543953692
 31
0.0
  0
LINE
  5
2303
330
1F
100
AcDbEntity
  8
AM_VIS
100
AcDbLine
 10
72.92746830725286
 20
119.2554543953694
 30
0.0
 11
76.70238552488843
 21
117.076004923599
 31
0.0
  0
LINE
  5
2304
330
1F
100
AcDbEntity
  8
AM_VIS
100
AcDbLine
 10
72.5649269160707
 20
124.2422934482845
 30
0.0
 11
72.5649269160707
 21
119.8833945047437
 31
0.0
  0
LINE
  5
2305
330
1F
100
AcDbEntity
  8
AM_VIS
100
AcDbLine
 10
72.92746830725298
 20
124.8702335576588
 30
0.0
 11
76.70238552488831
 21
127.0496830294292
 31
0.0
  0
LINE
  5
2306
330
1F
100
AcDbEntity
  8
AM_VIS
100
AcDbLine
 10
77.42746830725309
 20
127.0496830294292
 30
0.0
 11
81.20238552488832
 21
124.8702335576591
 31
0.0
  0
CIRCLE
  5
2308
330
1F
100
AcDbEntity
  8
AM_VIS
100
AcDbCircle
 10
77.06492691607064
 20
122.0628439765142
 30
0.0
 40
3.849999999999999
  0
CIRCLE
  5
230A
330
1F
100
AcDbEntity
  8
AM_VIS
100
AcDbCircle
 10
77.06492691607064
 20
122.0628439765142
 30
0.0
 40
4.4
  0
ARC
  5
230B
330
1F
100
AcDbEntity
  8
AM_VIS
100
AcDbCircle
 10
77.06492691607064
 20
122.0628439765142
 30
0.0
 40
5.0
100
AcDbArc
 50
25.8419327631649
 51
34.15806723683317
  0
ARC
  5
230C
330
1F
100
AcDbEntity
  8
AM_VIS
100
AcDbCircle
 10
77.06492691607064
 20
122.0628439765142
 30
0.0
 40
5.0
100
AcDbArc
 50
325.8419327631668
 51
334.1580672368351
  0
ARC
  5
230D
330
1F
100
AcDbEntity
  8
AM_VIS
100
AcDbCircle
 10
77.06492691607064
 20
122.0628439765142
 30
0.0
 40
5.0
100
AcDbArc
 50
265.8419327631677
 51
274.1580672368323
  0
ARC
  5
230E
330
1F
100
AcDbEntity
  8
AM_VIS
100
AcDbCircle
 10
77.06492691607064
 20
122.0628439765142
 30
0.0
 40
5.0
100
AcDbArc
 50
205.8419327631686
 51
214.1580672368295
  0
ARC
  5
230F
330
1F
100
AcDbEntity
  8
AM_VIS
100
AcDbCircle
 10
77.06492691607064
 20
122.0628439765142
 30
0.0
 40
5.0
100
AcDbArc
 50
145.8419327631668
 51
154.1580672368314
  0
ARC
  5
2310
330
1F
100
AcDbEntity
  8
AM_VIS
100
AcDbCircle
 10
77.06492691607064
 20
122.0628439765142
 30
0.0
 40
5.0
100
AcDbArc
 50
85.84193276316765
 51
94.15806723683232
  0
LINE
  5
2311
330
1F
100
AcDbEntity
  8
AM_VIS
100
AcDbLine
 10
77.06492691607059
 20
118.8874174959711
 30
0.0
 11
79.8149269160707
 21
120.4751307362426
 31
0.0
  0
LINE
  5
2312
330
1F
100
AcDbEntity
  8
AM_VIS
100
AcDbLine
 10
74.31492691607065
 20
120.4751307362426
 30
0.0
 11
77.06492691607071
 21
118.8874174959711
 31
0.0
  0
LINE
  5
2313
330
1F
100
AcDbEntity
  8
AM_VIS
100
AcDbLine
 10
74.3149269160707
 20
123.6505572167855
 30
0.0
 11
74.3149269160707
 21
120.4751307362426
 31
0.0
  0
LINE
  5
2314
330
1F
100
AcDbEntity
  8
AM_VIS
100
AcDbLine
 10
79.8149269160707
 20
123.6505572167855
 30
0.0
 11
79.8149269160707
 21
120.4751307362426
 31
0.0
  0
LINE
  5
2315
330
1F
100
AcDbEntity
  8
AM_VIS
100
AcDbLine
 10
74.3149269160707
 20
123.6505572167855
 30
0.0
 11
77.06492691607071
 21
125.2382704570571
 31
0.0
  0
LINE
  5
2316
330
1F
100
AcDbEntity
  8
AM_VIS
100
AcDbLine
 10
77.06492691607071
 20
125.2382704570571
 30
0.0
 11
79.8149269160707
 21
123.6505572167855
 31
0.0
  0
LINE
  5
2317
330
1F
100
AcDbEntity
  8
AM_VIS
100
AcDbLine
 10
77.06492691607053
 20
118.8874174959711
 30
0.0
 11
79.81492691607065
 21
120.4751307362426
 31
0.0
  0
LINE
  5
2318
330
1F
100
AcDbEntity
  8
AM_VIS
100
AcDbLine
 10
74.31492691607059
 20
120.4751307362426
 30
0.0
 11
77.06492691607064
 21
118.8874174959711
 31
0.0
  0
LINE
  5
2319
330
1F
100
AcDbEntity
  8
AM_VIS
100
AcDbLine
 10
74.31492691607059
 20
123.6505572167855
 30
0.0
 11
74.31492691607059
 21
120.4751307362426
 31
0.0
  0
LINE
  5
231A
330
1F
100
AcDbEntity
  8
AM_VIS
100
AcDbLine
 10
79.81492691607058
 20
123.6505572167855
 30
0.0
 11
79.81492691607058
 21
120.4751307362426
 31
0.0
  0
LINE
  5
231B
330
1F
100
AcDbEntity
  8
AM_VIS
100
AcDbLine
 10
74.31492691607059
 20
123.6505572167855
 30
0.0
 11
77.06492691607059
 21
125.2382704570571
 31
0.0
  0
LINE
  5
231C
330
1F
100
AcDbEntity
  8
AM_VIS
100
AcDbLine
 10
77.06492691607059
 20
125.2382704570571
 30
0.0
 11
79.81492691607058
 21
123.6505572167855
 31
0.0
  0
CIRCLE
  5
231D
330
1F
100
AcDbEntity
  8
AM_VIS
100
AcDbCircle
 10
77.06492691607059
 20
122.0628439765141
 30
0.0
 40
2.65
  0
CIRCLE
  5
231E
330
1F
100
AcDbEntity
  8
AM_VIS
100
AcDbCircle
 10
77.06492691607059
 20
122.0628439765141
 30
0.0
 40
1.55
  0
CIRCLE
  5
231F
330
1F
100
AcDbEntity
  8
AM_VIS
100
AcDbCircle
 10
77.06492691607064
 20
122.0628439765141
 30
0.0
 40
1.399999999999999
  0
CIRCLE
  5
2320
330
1F
100
AcDbEntity
  8
AM_VIS
100
AcDbCircle
 10
77.06492691607064
 20
122.0628439765141
 30
0.0
 40
0.9999999999999998
  0
LINE
  5
2321
330
1F
100
AcDbEntity
  8
AM_VIS
100
AcDbLine
 10
71.06492691607065
 20
125.5269455916519
 30
0.0
 11
71.06492691607065
 21
118.5987423613763
 31
0.0
  0
LINE
  5
2322
330
1F
100
AcDbEntity
  8
AM_VIS
100
AcDbLine
 10
71.06492691607065
 20
125.5269455916519
 30
0.0
 11
77.06492691607064
 21
128.9910472067897
 31
0.0
  0
LINE
  5
2323
330
1F
100
AcDbEntity
  8
AM_VIS
100
AcDbLine
 10
77.06492691607064
 20
128.9910472067897
 30
0.0
 11
83.0649269160707
 21
125.5269455916519
 31
0.0
  0
LINE
  5
2324
330
1F
100
AcDbEntity
  8
AM_VIS
100
AcDbLine
 10
83.0649269160707
 20
125.5269455916519
 30
0.0
 11
83.0649269160707
 21
118.5987423613764
 31
0.0
  0
LINE
  5
2325
330
1F
100
AcDbEntity
  8
AM_VIS
100
AcDbLine
 10
77.06492691607064
 20
115.1346407462386
 30
0.0
 11
83.0649269160707
 21
118.5987423613764
 31
0.0
  0
LINE
  5
2326
330
1F
100
AcDbEntity
  8
AM_VIS
100
AcDbLine
 10
71.06492691607065
 20
118.5987423613763
 30
0.0
 11
77.06492691607064
 21
115.1346407462386
 31
0.0
  0
CIRCLE
  5
2327
330
1F
100
AcDbEntity
  8
AM_VIS
100
AcDbCircle
 10
77.06492691607064
 20
122.0628439765142
 30
0.0
 40
5.749999999999999
  0
CIRCLE
  5
2328
330
1F
100
AcDbEntity
  8
AM_VIS
100
AcDbCircle
 10
77.06492691607064
 20
122.0628439765142
 30
0.0
 40
5.019615242270666
  0
ARC
  5
2329
330
1F
100
AcDbEntity
  8
AM_VIS
100
AcDbCircle
 10
77.06492691607064
 20
122.0628439765142
 30
0.0
 40
2.95
100
AcDbArc
 50
218.78093020738
 51
261.2190697926193
  0
ARC
  5
232A
330
1F
100
AcDbEntity
  8
AM_VIS
100
AcDbCircle
 10
77.06492691607064
 20
122.0628439765142
 30
0.0
 40
2.95
100
AcDbArc
 50
158.7809302073772
 51
201.2190697926227
  0
ARC
  5
232B
330
1F
100
AcDbEntity
  8
AM_VIS
100
AcDbCircle
 10
77.06492691607064
 20
122.0628439765142
 30
0.0
 40
2.95
100
AcDbArc
 50
98.7809302073774
 51
141.21906979262
  0
ARC
  5
232C
330
1F
100
AcDbEntity
  8
AM_VIS
100
AcDbCircle
 10
77.06492691607064
 20
122.0628439765142
 30
0.0
 40
2.95
100
AcDbArc
 50
38.78093020738
 51
81.21906979262261
  0
ARC
  5
232D
330
1F
100
AcDbEntity
  8
AM_VIS
100
AcDbCircle
 10
77.06492691607064
 20
122.0628439765142
 30
0.0
 40
2.95
100
AcDbArc
 50
338.7809302073805
 51
21.21906979261944
  0
ARC
  5
232E
330
1F
100
AcDbEntity
  8
AM_VIS
100
AcDbCircle
 10
77.06492691607064
 20
122.0628439765142
 30
0.0
 40
2.95
100
AcDbArc
 50
278.7809302073774
 51
321.21906979262
  0
LINE
  5
232F
330
1F
100
AcDbEntity
  8
AM_VIS
100
AcDbLine
 10
116.7257627160524
 20
192.4455351221284
 30
0.0
 11
115.0862346203717
 21
192.4455351221284
 31
0.0
  0
SPLINE
  5
2330
330
1F
100
AcDbEntity
  8
AM_VIS
100
AcDbSpline
210
0.0
220
-0.0000000000000005
230
1.0
 70
    12
 71
     2
 72
     6
 73
     3
 74
     0
 42
0.0000000001
 43
0.0000000001
 40
2.490579903672005
 40
2.490579903672005
 40
2.490579903672005
 40
10.6369992080047
 40
10.6369992080047
 40
10.6369992080047
 10
115.0862346203718
 20
195.9096367372664
 30
0.0000000000000018
 41
1.140916470546976
 10
114.0862346203718
 20
194.1775859296976
 30
0.0
 41
1.31741686278635
 10
115.0862346203716
 20
192.4455351221284
 30
0.0
 41
1.140916470546978
  0
SPLINE
  5
2331
330
1F
100
AcDbEntity
  8
AM_VIS
100
AcDbSpline
210
0.0
220
0.0000000000000005
230
1.0
 70
    12
 71
     2
 72
     6
 73
     3
 74
     0
 42
0.0000000001
 43
0.0000000001
 40
2.490579903672053
 40
2.490579903672053
 40
2.490579903672053
 40
10.63699920800474
 40
10.63699920800474
 40
10.63699920800474
 10
115.0862346203716
 20
206.3019415826795
 30
-0.0000000000000018
 41
1.140916470546978
 10
114.0862346203717
 20
204.5698907751108
 30
0.0
 41
1.317416862786348
 10
115.0862346203718
 20
202.8378399675419
 30
0.0
 41
1.140916470546975
  0
LINE
  5
2332
330
1F
100
AcDbEntity
  8
AM_VIS
100
AcDbLine
 10
116.7257627160523
 20
206.3019415826795
 30
0.0
 11
115.0862346203717
 21
206.3019415826795
 31
0.0
  0
LINE
  5
2333
330
1F
100
AcDbEntity
  8
AM_VIS
100
AcDbLine
 10
116.7257627160523
 20
195.9096367372662
 30
0.0
 11
115.0862346203717
 21
195.9096367372662
 31
0.0
  0
SPLINE
  5
2334
330
1F
100
AcDbEntity
  8
AM_VIS
100
AcDbSpline
210
0.0
220
0.0000000000000003
230
1.0
 70
    12
 71
     2
 72
     6
 73
     3
 74
     0
 42
0.0000000001
 43
0.0000000001
 40
2.490579903672012
 40
2.490579903672012
 40
2.490579903672012
 40
10.63699920800469
 40
10.63699920800469
 40
10.63699920800469
 10
115.0862346203718
 20
202.8378399675419
 30
0.0
 41
1.140916470546975
 10
114.0862346203716
 20
199.3737383524038
 30
-0.0000000000000018
 41
1.317416862786347
 10
115.0862346203717
 20
195.9096367372662
 30
0.0000000000000018
 41
1.140916470546976
  0
LINE
  5
2335
330
1F
100
AcDbEntity
  8
AM_VIS
100
AcDbLine
 10
116.7257627160523
 20
202.8378399675418
 30
0.0
 11
115.0862346203717
 21
202.8378399675418
 31
0.0
  0
SPLINE
  5
2336
330
1F
100
AcDbEntity
  8
AM_VIS
100
AcDbSpline
210
0.0
220
0.0
230
1.0
 70
    12
 71
     2
 72
     6
 73
     3
 74
     0
 42
0.0000000001
 43
0.0000000001
 40
2.490579903672062
 40
2.490579903672062
 40
2.490579903672062
 40
10.63699920800476
 40
10.63699920800476
 40
10.63699920800476
 10
116.7257627160525
 20
192.4455351221286
 30
0.0000000000000018
 41
1.140916470546979
 10
117.7257627160524
 20
194.1775859296974
 30
0.0
 41
1.317416862786351
 10
116.7257627160524
 20
195.9096367372664
 30
0.0000000000000018
 41
1.140916470546976
  0
SPLINE
  5
2337
330
1F
100
AcDbEntity
  8
AM_VIS
100
AcDbSpline
210
0.0
220
0.0000000000000003
230
1.0
 70
    12
 71
     2
 72
     6
 73
     3
 74
     0
 42
0.0000000001
 43
0.0000000001
 40
2.490579903672027
 40
2.490579903672027
 40
2.490579903672027
 40
10.6369992080047
 40
10.6369992080047
 40
10.6369992080047
 10
116.7257627160523
 20
195.9096367372662
 30
0.0000000000000018
 41
1.140916470546976
 10
117.7257627160524
 20
199.3737383524042
 30
0.0000000000000036
 41
1.317416862786347
 10
116.7257627160524
 20
202.8378399675419
 30
0.0
 41
1.140916470546975
  0
SPLINE
  5
2338
330
1F
100
AcDbEntity
  8
AM_VIS
100
AcDbSpline
210
0.0
220
0.0000000000000005
230
1.0
 70
    12
 71
     2
 72
     6
 73
     3
 74
     0
 42
0.0000000001
 43
0.0000000001
 40
2.490579903672001
 40
2.490579903672001
 40
2.490579903672001
 40
10.63699920800468
 40
10.63699920800468
 40
10.63699920800468
 10
116.7257627160524
 20
202.8378399675418
 30
0.0
 41
1.140916470546975
 10
117.7257627160524
 20
204.5698907751107
 30
0.0
 41
1.317416862786348
 10
116.7257627160523
 20
206.3019415826795
 30
-0.0000000000000018
 41
1.140916470546978
  0
LINE
  5
2339
330
1F
100
AcDbEntity
  8
AM_VIS
100
AcDbLine
 10
114.4059986682121
 20
193.6237383524039
 30
0.0
 11
115.0862346203717
 21
192.4455351221284
 31
0.0
  0
LINE
  5
233A
330
1F
100
AcDbEntity
  8
AM_VIS
100
AcDbLine
 10
114.4059986682121
 20
205.123738352404
 30
0.0
 11
115.0862346203717
 21
206.3019415826795
 31
0.0
  0
LINE
  5
233B
330
1F
100
AcDbEntity
  8
AM_VIS
100
AcDbLine
 10
117.4059986682121
 20
205.123738352404
 30
0.0
 11
116.7257627160523
 21
206.3019415826795
 31
0.0
  0
LINE
  5
233C
330
1F
100
AcDbEntity
  8
AM_VIS
100
AcDbLine
 10
117.4059986682121
 20
193.6237383524039
 30
0.0
 11
116.7257627160524
 21
192.4455351221284
 31
0.0
  0
LINE
  5
233D
330
1F
100
AcDbEntity
  8
AM_VIS
100
AcDbLine
 10
114.4059986682121
 20
205.123738352404
 30
0.0
 11
114.4059986682121
 21
193.6237383524039
 31
0.0
  0
LINE
  5
233E
330
1F
100
AcDbEntity
  8
AM_VIS
100
AcDbLine
 10
117.4059986682121
 20
193.6237383524039
 30
0.0
 11
117.4059986682121
 21
205.123738352404
 31
0.0
  0
SPLINE
  5
233F
330
1F
100
AcDbEntity
  8
AM_VIS
100
AcDbSpline
210
0.0
220
0.0
230
1.0
 70
    12
 71
     2
 72
     6
 73
     3
 74
     0
 42
0.0000000001
 43
0.0000000001
 40
0.0
 40
0.0
 40
0.0
 40
4.39696865275752
 40
4.39696865275752
 40
4.39696865275752
 10
126.5595885066983
 20
194.3868992994888
 30
0.0
 41
1.0
 10
127.1080712624285
 20
195.476624035374
 30
0.0
 41
1.111111111111102
 10
126.5595885066983
 20
196.5663487712591
 30
0.0
 41
1.0
  0
LINE
  5
2340
330
1F
100
AcDbEntity
  8
AM_VIS
100
AcDbLine
 10
108.7524088297258
 20
194.3868992994888
 30
0.0
 11
111.4059986682121
 21
194.3868992994888
 31
0.0
  0
LINE
  5
2341
330
1F
100
AcDbEntity
  8
AM_VIS
100
AcDbLine
 10
117.4059986682121
 20
194.3868992994888
 30
0.0
 11
126.5595885066983
 21
194.3868992994888
 31
0.0
  0
LINE
  5
2342
330
1F
100
AcDbEntity
  8
AM_VIS
100
AcDbLine
 10
126.5595885066983
 20
196.5663487712591
 30
0.0
 11
117.4059986682121
 21
196.5663487712591
 31
0.0
  0
LINE
  5
2343
330
1F
100
AcDbEntity
  8
AM_VIS
100
AcDbLine
 10
111.4059986682121
 20
196.5663487712591
 30
0.0
 11
108.7524088297258
 21
196.5663487712591
 31
0.0
  0
SPLINE
  5
2344
330
1F
100
AcDbEntity
  8
AM_VIS
100
AcDbSpline
210
0.0
220
0.0
230
1.0
 70
    12
 71
     2
 72
     6
 73
     3
 74
     0
 42
0.0000000001
 43
0.0000000001
 40
0.0
 40
0.0
 40
0.0
 40
4.396968652757528
 40
4.396968652757528
 40
4.396968652757528
 10
126.5595885066983
 20
197.1942888806337
 30
0.0
 41
1.0
 10
127.1080712624284
 20
199.3737383524039
 30
0.0
 41
1.111111111111105
 10
126.5595885066983
 20
201.5531878241743
 30
0.0
 41
1.0
  0
LINE
  5
2345
330
1F
100
AcDbEntity
  8
AM_VIS
100
AcDbLine
 10
108.7524088297258
 20
197.1942888806337
 30
0.0
 11
111.4059986682121
 21
197.1942888806337
 31
0.0
  0
LINE
  5
2346
330
1F
100
AcDbEntity
  8
AM_VIS
100
AcDbLine
 10
117.4059986682121
 20
197.1942888806337
 30
0.0
 11
126.5595885066983
 21
197.1942888806337
 31
0.0
  0
LINE
  5
2347
330
1F
100
AcDbEntity
  8
AM_VIS
100
AcDbLine
 10
126.5595885066983
 20
201.5531878241743
 30
0.0
 11
117.4059986682121
 21
201.5531878241743
 31
0.0
  0
LINE
  5
2348
330
1F
100
AcDbEntity
  8
AM_VIS
100
AcDbLine
 10
111.4059986682121
 20
201.5531878241743
 30
0.0
 11
108.7524088297258
 21
201.5531878241743
 31
0.0
  0
SPLINE
  5
2349
330
1F
100
AcDbEntity
  8
AM_VIS
100
AcDbSpline
210
0.0
220
0.0
230
1.0
 70
    12
 71
     2
 72
     6
 73
     3
 74
     0
 42
0.0000000001
 43
0.0000000001
 40
0.0
 40
0.0
 40
0.0
 40
4.396968652757449
 40
4.396968652757449
 40
4.396968652757449
 10
126.5595885066983
 20
202.1811279335488
 30
0.0
 41
1.0
 10
127.1080712624284
 20
203.270852669434
 30
0.0
 41
1.111111111111095
 10
126.5595885066983
 20
204.3605774053191
 30
0.0
 41
1.0
  0
LINE
  5
234A
330
1F
100
AcDbEntity
  8
AM_VIS
100
AcDbLine
 10
108.7524088297258
 20
202.1811279335488
 30
0.0
 11
111.4059986682121
 21
202.1811279335488
 31
0.0
  0
LINE
  5
234B
330
1F
100
AcDbEntity
  8
AM_VIS
100
AcDbLine
 10
117.4059986682121
 20
202.1811279335488
 30
0.0
 11
126.5595885066983
 21
202.1811279335488
 31
0.0
  0
LINE
  5
234C
330
1F
100
AcDbEntity
  8
AM_VIS
100
AcDbLine
 10
126.5595885066983
 20
204.3605774053191
 30
0.0
 11
117.4059986682121
 21
204.3605774053191
 31
0.0
  0
LINE
  5
234D
330
1F
100
AcDbEntity
  8
AM_VIS
100
AcDbLine
 10
111.4059986682121
 20
204.3605774053191
 30
0.0
 11
108.7524088297258
 21
204.3605774053191
 31
0.0
  0
SPLINE
  5
234E
330
1F
100
AcDbEntity
  8
AM_VIS
100
AcDbSpline
210
0.0
220
0.0
230
1.0
 70
    12
 71
     2
 72
     6
 73
     3
 74
     0
 42
0.0000000001
 43
0.0000000001
 40
0.7244801790705148
 40
0.7244801790705148
 40
0.7244801790705148
 40
5.33522278394663
 40
5.33522278394663
 40
5.33522278394663
 10
108.7524088297258
 20
201.5531878241743
 30
0.0
 41
1.042105263157895
 10
108.2039260739957
 20
199.3737383524039
 30
0.0000000000000018
 41
1.157894736842101
 10
108.7524088297258
 20
197.1942888806338
 30
0.0
 41
1.042105263157895
  0
SPLINE
  5
234F
330
1F
100
AcDbEntity
  8
AM_VIS
100
AcDbSpline
210
0.0
220
-0.0000000000000008
230
1.0
 70
    12
 71
     2
 72
     6
 73
     3
 74
     0
 42
0.0000000001
 43
0.0000000001
 40
0.7244801790705182
 40
0.7244801790705182
 40
0.7244801790705182
 40
5.335222783946617
 40
5.335222783946617
 40
5.335222783946617
 10
108.7524088297257
 20
196.5663487712589
 30
0.0
 41
1.042105263157894
 10
108.2039260739956
 20
195.4766240353738
 30
0.0
 41
1.157894736842097
 10
108.7524088297257
 20
194.3868992994885
 30
-0.0000000000000018
 41
1.042105263157895
  0
SPLINE
  5
2350
330
1F
100
AcDbEntity
  8
AM_VIS
100
AcDbSpline
210
0.0
220
-0.0000000000000008
230
1.0
 70
    12
 71
     2
 72
     6
 73
     3
 74
     0
 42
0.0000000001
 43
0.0000000001
 40
0.7244801790705267
 40
0.7244801790705267
 40
0.7244801790705267
 40
5.33522278394656
 40
5.33522278394656
 40
5.33522278394656
 10
108.7524088297256
 20
204.3605774053188
 30
0.0
 41
1.042105263157893
 10
108.2039260739957
 20
203.270852669434
 30
0.0
 41
1.157894736842088
 10
108.7524088297257
 20
202.1811279335488
 30
-0.0000000000000018
 41
1.042105263157893
  0
LINE
  5
2351
330
1F
100
AcDbEntity
  8
AM_VIS
100
AcDbLine
 10
131.9059986682121
 20
195.1237383524039
 30
0.0
 11
132.9059986682121
 21
195.1237383524039
 31
0.0
  0
LINE
  5
2352
330
1F
100
AcDbEntity
  8
AM_VIS
100
AcDbLine
 10
131.9059986682121
 20
203.6237383524039
 30
0.0
 11
132.9059986682121
 21
203.6237383524039
 31
0.0
  0
LINE
  5
2353
330
1F
100
AcDbEntity
  8
AM_VIS
100
AcDbLine
 10
126.5595885066983
 20
194.3737383524039
 30
0.0
 11
117.4059986682121
 21
194.3737383524039
 31
0.0
  0
LINE
  5
2354
330
1F
100
AcDbEntity
  8
AM_VIS
100
AcDbLine
 10
111.4059986682121
 20
194.3737383524039
 30
0.0
 11
108.7524088297258
 21
194.3737383524039
 31
0.0
  0
LINE
  5
2355
330
1F
100
AcDbEntity
  8
AM_VIS
100
AcDbLine
 10
126.9059986682121
 20
203.773738352404
 30
0.0
 11
126.5595885066983
 21
204.373738352404
 31
0.0
  0
LINE
  5
2356
330
1F
100
AcDbEntity
  8
AM_VIS
100
AcDbLine
 10
126.9059986682121
 20
194.973738352404
 30
0.0
 11
126.5595885066983
 21
194.3737383524039
 31
0.0
  0
LINE
  5
2357
330
1F
100
AcDbEntity
  8
AM_VIS
100
AcDbLine
 10
126.9059986682121
 20
195.1237383524039
 30
0.0
 11
130.405998668212
 21
195.1237383524039
 31
0.0
  0
LINE
  5
2358
330
1F
100
AcDbEntity
  8
AM_VIS
100
AcDbLine
 10
126.9059986682121
 20
203.6237383524039
 30
0.0
 11
130.405998668212
 21
203.6237383524039
 31
0.0
  0
LINE
  5
2359
330
1F
100
AcDbEntity
  8
AM_VIS
100
AcDbLine
 10
130.405998668212
 20
195.8237383524039
 30
0.0
 11
131.9059986682121
 21
195.8237383524039
 31
0.0
  0
LINE
  5
235A
330
1F
100
AcDbEntity
  8
AM_VIS
100
AcDbLine
 10
130.405998668212
 20
202.923738352404
 30
0.0
 11
131.9059986682121
 21
202.923738352404
 31
0.0
  0
LINE
  5
235B
330
1F
100
AcDbEntity
  8
AM_VIS
100
AcDbLine
 10
107.5059986682121
 20
194.9737383524039
 30
0.0
 11
108.405998668212
 21
194.9737383524039
 31
0.0
  0
LINE
  5
235C
330
1F
100
AcDbEntity
  8
AM_VIS
100
AcDbLine
 10
107.505998668212
 20
203.773738352404
 30
0.0
 11
108.405998668212
 21
203.773738352404
 31
0.0
  0
LINE
  5
235D
330
1F
100
AcDbEntity
  8
AM_VIS
100
AcDbLine
 10
107.405998668212
 20
195.0737383524039
 30
0.0
 11
107.505998668212
 21
194.9737383524039
 31
0.0
  0
LINE
  5
235E
330
1F
100
AcDbEntity
  8
AM_VIS
100
AcDbLine
 10
107.405998668212
 20
203.673738352404
 30
0.0
 11
107.505998668212
 21
203.773738352404
 31
0.0
  0
LINE
  5
235F
330
1F
100
AcDbEntity
  8
AM_VIS
100
AcDbLine
 10
126.5595885066983
 20
204.373738352404
 30
0.0
 11
117.4059986682121
 21
204.373738352404
 31
0.0
  0
LINE
  5
2360
330
1F
100
AcDbEntity
  8
AM_VIS
100
AcDbLine
 10
111.4059986682121
 20
204.373738352404
 30
0.0
 11
108.7524088297258
 21
204.373738352404
 31
0.0
  0
LINE
  5
2361
330
1F
100
AcDbEntity
  8
AM_VIS
100
AcDbLine
 10
108.405998668212
 20
194.9737383524039
 30
0.0
 11
108.7524088297258
 21
194.3737383524039
 31
0.0
  0
LINE
  5
2362
330
1F
100
AcDbEntity
  8
AM_VIS
100
AcDbLine
 10
108.405998668212
 20
203.773738352404
 30
0.0
 11
108.7524088297258
 21
204.373738352404
 31
0.0
  0
LINE
  5
2363
330
1F
100
AcDbEntity
  8
AM_VIS
100
AcDbLine
 10
126.5595885066983
 20
194.3868992994888
 30
0.0
 11
126.5595885066983
 21
194.3737383524039
 31
0.0
  0
LINE
  5
2364
330
1F
100
AcDbEntity
  8
AM_VIS
100
AcDbLine
 10
126.9059986682121
 20
194.973738352404
 30
0.0
 11
126.9059986682121
 21
203.773738352404
 31
0.0
  0
LINE
  5
2365
330
1F
100
AcDbEntity
  8
AM_VIS
100
AcDbLine
 10
126.5595885066983
 20
197.1942888806337
 30
0.0
 11
126.5595885066983
 21
196.5663487712591
 31
0.0
  0
LINE
  5
2366
330
1F
100
AcDbEntity
  8
AM_VIS
100
AcDbLine
 10
126.5595885066983
 20
202.1811279335488
 30
0.0
 11
126.5595885066983
 21
201.5531878241743
 31
0.0
  0
LINE
  5
2367
330
1F
100
AcDbEntity
  8
AM_VIS
100
AcDbLine
 10
130.405998668212
 20
203.6237383524039
 30
0.0
 11
130.405998668212
 21
195.1237383524039
 31
0.0
  0
LINE
  5
2368
330
1F
100
AcDbEntity
  8
AM_VIS
100
AcDbLine
 10
131.9059986682121
 20
195.1237383524039
 30
0.0
 11
131.9059986682121
 21
203.6237383524039
 31
0.0
  0
LINE
  5
2369
330
1F
100
AcDbEntity
  8
AM_VIS
100
AcDbLine
 10
132.9059986682121
 20
203.6237383524039
 30
0.0
 11
132.9059986682121
 21
195.1237383524039
 31
0.0
  0
LINE
  5
236A
330
1F
100
AcDbEntity
  8
AM_VIS
100
AcDbLine
 10
107.405998668212
 20
195.0737383524039
 30
0.0
 11
107.405998668212
 21
203.673738352404
 31
0.0
  0
LINE
  5
236B
330
1F
100
AcDbEntity
  8
AM_VIS
100
AcDbLine
 10
126.5595885066983
 20
204.373738352404
 30
0.0
 11
126.5595885066983
 21
204.3605774053191
 31
0.0
  0
LINE
  5
236C
330
1F
100
AcDbEntity
  8
AM_VIS
100
AcDbLine
 10
108.405998668212
 20
194.9737383524039
 30
0.0
 11
108.405998668212
 21
203.773738352404
 31
0.0
  0
LINE
  5
236D
330
1F
100
AcDbEntity
  8
AM_VIS
100
AcDbLine
 10
108.7524088297258
 20
201.5531878241743
 30
0.0
 11
108.7524088297258
 21
202.1811279335489
 31
0.0
  0
LINE
  5
236E
330
1F
100
AcDbEntity
  8
AM_VIS
100
AcDbLine
 10
108.7524088297258
 20
196.5663487712591
 30
0.0
 11
108.7524088297258
 21
197.1942888806337
 31
0.0
  0
LINE
  5
236F
330
1F
100
AcDbEntity
  8
AM_VIS
100
AcDbLine
 10
108.7524088297258
 20
194.3737383524039
 30
0.0
 11
108.7524088297258
 21
194.3868992994888
 31
0.0
  0
LINE
  5
2370
330
1F
100
AcDbEntity
  8
AM_VIS
100
AcDbLine
 10
108.7524088297258
 20
204.3605774053191
 30
0.0
 11
108.7524088297258
 21
204.373738352404
 31
0.0
  0
LINE
  5
2371
330
1F
100
AcDbEntity
  8
AM_VIS
100
AcDbLine
 10
107.405998668212
 20
200.873738352404
 30
0.0
 11
98.90599866821208
 21
200.873738352404
 31
0.0
  0
LINE
  5
2372
330
1F
100
AcDbEntity
  8
AM_VIS
100
AcDbLine
 10
107.405998668212
 20
197.8737383524039
 30
0.0
 11
98.90599866821208
 21
197.8737383524038
 31
0.0
  0
SPLINE
  5
237C
330
1F
100
AcDbEntity
  8
AM_VIS
100
AcDbSpline
210
0.0
220
0.0
230
1.0
 70
    12
 71
     2
 72
     6
 73
     3
 74
     0
 42
0.0000000001
 43
0.0000000001
 40
2.490579903672054
 40
2.490579903672054
 40
2.490579903672054
 40
10.63699920800477
 40
10.63699920800477
 40
10.63699920800477
 10
113.7257627160524
 20
192.4455351221285
 30
0.0
 41
1.140916470546979
 10
114.7257627160524
 20
194.1775859296972
 30
0.0000000000000018
 41
1.317416862786353
 10
113.7257627160523
 20
195.9096367372662
 30
0.0
 41
1.140916470546978
  0
LINE
  5
237D
330
1F
100
AcDbEntity
  8
AM_VIS
100
AcDbLine
 10
112.0862346203717
 20
192.4455351221284
 30
0.0
 11
113.7257627160523
 21
192.4455351221284
 31
0.0
  0
SPLINE
  5
237E
330
1F
100
AcDbEntity
  8
AM_VIS
100
AcDbSpline
210
0.0
220
0.0
230
1.0
 70
    12
 71
     2
 72
     6
 73
     3
 74
     0
 42
0.0000000001
 43
0.0000000001
 40
2.490579903672053
 40
2.490579903672053
 40
2.490579903672053
 40
10.63699920800474
 40
10.63699920800474
 40
10.63699920800474
 10
113.7257627160523
 20
195.9096367372661
 30
-0.0000000000000018
 41
1.140916470546978
 10
114.7257627160525
 20
199.373738352404
 30
0.0000000000000036
 41
1.317416862786348
 10
113.7257627160524
 20
202.8378399675419
 30
-0.0000000000000018
 41
1.140916470546975
  0
LINE
  5
237F
330
1F
100
AcDbEntity
  8
AM_VIS
100
AcDbLine
 10
112.0862346203717
 20
195.9096367372662
 30
0.0
 11
113.7257627160523
 21
195.9096367372662
 31
0.0
  0
LINE
  5
2380
330
1F
100
AcDbEntity
  8
AM_VIS
100
AcDbLine
 10
112.0862346203717
 20
206.3019415826795
 30
0.0
 11
113.7257627160523
 21
206.3019415826795
 31
0.0
  0
SPLINE
  5
2381
330
1F
100
AcDbEntity
  8
AM_VIS
100
AcDbSpline
210
0.0
220
0.0
230
1.0
 70
    12
 71
     2
 72
     6
 73
     3
 74
     0
 42
0.0000000001
 43
0.0000000001
 40
2.490579903672012
 40
2.490579903672012
 40
2.490579903672012
 40
10.63699920800469
 40
10.63699920800469
 40
10.63699920800469
 10
113.7257627160524
 20
202.8378399675419
 30
-0.0000000000000018
 41
1.140916470546975
 10
114.7257627160523
 20
204.5698907751105
 30
-0.0000000000000018
 41
1.317416862786347
 10
113.7257627160523
 20
206.3019415826795
 30
-0.0000000000000018
 41
1.140916470546976
  0
LINE
  5
2382
330
1F
100
AcDbEntity
  8
AM_VIS
100
AcDbLine
 10
112.0862346203717
 20
202.8378399675418
 30
0.0
 11
113.7257627160523
 21
202.8378399675418
 31
0.0
  0
SPLINE
  5
2383
330
1F
100
AcDbEntity
  8
AM_VIS
100
AcDbSpline
210
0.0
220
-0.0000000000000005
230
1.0
 70
    12
 71
     2
 72
     6
 73
     3
 74
     0
 42
0.0000000001
 43
0.0000000001
 40
2.490579903672027
 40
2.490579903672027
 40
2.490579903672027
 40
10.6369992080047
 40
10.6369992080047
 40
10.6369992080047
 10
112.0862346203717
 20
206.3019415826795
 30
0.0
 41
1.140916470546976
 10
111.0862346203718
 20
204.5698907751108
 30
0.0
 41
1.317416862786347
 10
112.0862346203717
 20
202.8378399675419
 30
-0.0000000000000018
 41
1.140916470546975
  0
SPLINE
  5
2384
330
1F
100
AcDbEntity
  8
AM_VIS
100
AcDbSpline
210
0.0
220
0.0
230
1.0
 70
    12
 71
     2
 72
     6
 73
     3
 74
     0
 42
0.0000000001
 43
0.0000000001
 40
2.490579903672001
 40
2.490579903672001
 40
2.490579903672001
 40
10.63699920800468
 40
10.63699920800468
 40
10.63699920800468
 10
112.0862346203718
 20
202.8378399675418
 30
-0.0000000000000018
 41
1.140916470546975
 10
111.0862346203717
 20
199.373738352404
 30
0.0
 41
1.317416862786348
 10
112.0862346203716
 20
195.9096367372661
 30
-0.0000000000000018
 41
1.140916470546978
  0
SPLINE
  5
2385
330
1F
100
AcDbEntity
  8
AM_VIS
100
AcDbSpline
210
0.0
220
0.0000000000000005
230
1.0
 70
    12
 71
     2
 72
     6
 73
     3
 74
     0
 42
0.0000000001
 43
0.0000000001
 40
2.490579903672021
 40
2.490579903672021
 40
2.490579903672021
 40
10.63699920800474
 40
10.63699920800474
 40
10.63699920800474
 10
112.0862346203717
 20
195.9096367372662
 30
0.0
 41
1.140916470546978
 10
111.0862346203717
 20
194.1775859296973
 30
0.0
 41
1.317416862786354
 10
112.0862346203718
 20
192.4455351221285
 30
0.0000000000000018
 41
1.140916470546979
  0
LINE
  5
2386
330
1F
100
AcDbEntity
  8
AM_VIS
100
AcDbLine
 10
114.4059986682121
 20
205.123738352404
 30
0.0
 11
113.7257627160523
 21
206.3019415826795
 31
0.0
  0
LINE
  5
2387
330
1F
100
AcDbEntity
  8
AM_VIS
100
AcDbLine
 10
114.4059986682121
 20
193.6237383524039
 30
0.0
 11
113.7257627160524
 21
192.4455351221284
 31
0.0
  0
LINE
  5
2388
330
1F
100
AcDbEntity
  8
AM_VIS
100
AcDbLine
 10
111.4059986682121
 20
193.6237383524039
 30
0.0
 11
112.0862346203717
 21
192.4455351221284
 31
0.0
  0
LINE
  5
2389
330
1F
100
AcDbEntity
  8
AM_VIS
100
AcDbLine
 10
111.4059986682121
 20
205.123738352404
 30
0.0
 11
112.0862346203717
 21
206.3019415826795
 31
0.0
  0
LINE
  5
238A
330
1F
100
AcDbEntity
  8
AM_VIS
100
AcDbLine
 10
114.4059986682121
 20
193.6237383524039
 30
0.0
 11
114.4059986682121
 21
205.123738352404
 31
0.0
  0
LINE
  5
238B
330
1F
100
AcDbEntity
  8
AM_VIS
100
AcDbLine
 10
111.4059986682121
 20
205.123738352404
 30
0.0
 11
111.4059986682121
 21
193.6237383524039
 31
0.0
  0
LINE
  5
238C
330
1F
100
AcDbEntity
  8
AM_VIS
100
AcDbLine
 10
77.06492691607064
 20
192.4455351221284
 30
0.0
 11
83.0649269160707
 21
195.9096367372662
 31
0.0
  0
LINE
  5
238D
330
1F
100
AcDbEntity
  8
AM_VIS
100
AcDbLine
 10
71.06492691607065
 20
195.9096367372662
 30
0.0
 11
77.06492691607064
 21
192.4455351221284
 31
0.0
  0
LINE
  5
238E
330
1F
100
AcDbEntity
  8
AM_VIS
100
AcDbLine
 10
71.06492691607058
 20
202.8378399675417
 30
0.0
 11
71.06492691607058
 21
195.9096367372662
 31
0.0
  0
LINE
  5
238F
330
1F
100
AcDbEntity
  8
AM_VIS
100
AcDbLine
 10
71.06492691607065
 20
202.8378399675417
 30
0.0
 11
77.06492691607064
 21
206.3019415826795
 31
0.0
  0
LINE
  5
2390
330
1F
100
AcDbEntity
  8
AM_VIS
100
AcDbLine
 10
77.06492691607064
 20
206.3019415826795
 30
0.0
 11
83.06492691607065
 21
202.8378399675418
 31
0.0
  0
LINE
  5
2391
330
1F
100
AcDbEntity
  8
AM_VIS
100
AcDbLine
 10
83.06492691607065
 20
202.8378399675418
 30
0.0
 11
83.06492691607065
 21
195.9096367372662
 31
0.0
  0
LINE
  5
2392
330
1F
100
AcDbEntity
  8
AM_VIS
100
AcDbLine
 10
81.56492691607065
 20
201.5531878241743
 30
0.0
 11
81.56492691607065
 21
197.1942888806337
 31
0.0
  0
LINE
  5
2393
330
1F
100
AcDbEntity
  8
AM_VIS
100
AcDbLine
 10
77.42746830725298
 20
194.3868992994888
 30
0.0
 11
81.20238552488826
 21
196.5663487712591
 31
0.0
  0
LINE
  5
2394
330
1F
100
AcDbEntity
  8
AM_VIS
100
AcDbLine
 10
72.92746830725286
 20
196.5663487712592
 30
0.0
 11
76.70238552488843
 21
194.3868992994888
 31
0.0
  0
LINE
  5
2395
330
1F
100
AcDbEntity
  8
AM_VIS
100
AcDbLine
 10
72.5649269160707
 20
201.5531878241744
 30
0.0
 11
72.5649269160707
 21
197.1942888806335
 31
0.0
  0
LINE
  5
2396
330
1F
100
AcDbEntity
  8
AM_VIS
100
AcDbLine
 10
72.92746830725292
 20
202.1811279335488
 30
0.0
 11
76.70238552488831
 21
204.3605774053191
 31
0.0
  0
LINE
  5
2397
330
1F
100
AcDbEntity
  8
AM_VIS
100
AcDbLine
 10
77.42746830725304
 20
204.3605774053191
 30
0.0
 11
81.20238552488826
 21
202.1811279335488
 31
0.0
  0
CIRCLE
  5
2399
330
1F
100
AcDbEntity
  8
AM_VIS
100
AcDbCircle
 10
77.06492691607059
 20
199.373738352404
 30
0.0
 40
3.849999999999999
  0
CIRCLE
  5
239B
330
1F
100
AcDbEntity
  8
AM_VIS
100
AcDbCircle
 10
77.06492691607059
 20
199.373738352404
 30
0.0
 40
4.4
  0
ARC
  5
239C
330
1F
100
AcDbEntity
  8
AM_VIS
100
AcDbCircle
 10
77.06492691607064
 20
199.373738352404
 30
0.0
 40
5.0
100
AcDbArc
 50
25.8419327631649
 51
34.15806723683317
  0
ARC
  5
239D
330
1F
100
AcDbEntity
  8
AM_VIS
100
AcDbCircle
 10
77.06492691607064
 20
199.373738352404
 30
0.0
 40
5.0
100
AcDbArc
 50
325.8419327631668
 51
334.1580672368351
  0
ARC
  5
239E
330
1F
100
AcDbEntity
  8
AM_VIS
100
AcDbCircle
 10
77.06492691607064
 20
199.373738352404
 30
0.0
 40
5.0
100
AcDbArc
 50
265.8419327631677
 51
274.1580672368323
  0
ARC
  5
239F
330
1F
100
AcDbEntity
  8
AM_VIS
100
AcDbCircle
 10
77.06492691607064
 20
199.373738352404
 30
0.0
 40
5.0
100
AcDbArc
 50
205.8419327631686
 51
214.1580672368295
  0
ARC
  5
23A0
330
1F
100
AcDbEntity
  8
AM_VIS
100
AcDbCircle
 10
77.06492691607064
 20
199.373738352404
 30
0.0
 40
5.0
100
AcDbArc
 50
145.8419327631668
 51
154.1580672368314
  0
ARC
  5
23A1
330
1F
100
AcDbEntity
  8
AM_VIS
100
AcDbCircle
 10
77.06492691607064
 20
199.373738352404
 30
0.0
 40
5.0
100
AcDbArc
 50
85.84193276316765
 51
94.15806723683232
  0
CIRCLE
  5
23A2
330
1F
100
AcDbEntity
  8
AM_VIS
100
AcDbCircle
 10
77.06492691607059
 20
199.373738352404
 30
0.0
 40
1.5
  0
CIRCLE
  5
23A4
330
1F
100
AcDbEntity
  8
AM_VIS
100
AcDbCircle
 10
77.06492691607059
 20
199.373738352404
 30
0.0
 40
0.9999999999999998
  0
LINE
  5
23A5
330
1F
100
AcDbEntity
  8
AM_VIS
100
AcDbLine
 10
71.06492691607058
 20
202.8378399675417
 30
0.0
 11
71.06492691607058
 21
195.9096367372662
 31
0.0
  0
LINE
  5
23A6
330
1F
100
AcDbEntity
  8
AM_VIS
100
AcDbLine
 10
71.06492691607058
 20
202.8378399675417
 30
0.0
 11
77.06492691607064
 21
206.3019415826795
 31
0.0
  0
LINE
  5
23A7
330
1F
100
AcDbEntity
  8
AM_VIS
100
AcDbLine
 10
77.06492691607064
 20
206.3019415826795
 30
0.0
 11
83.06492691607065
 21
202.8378399675418
 31
0.0
  0
LINE
  5
23A8
330
1F
100
AcDbEntity
  8
AM_VIS
100
AcDbLine
 10
83.06492691607065
 20
202.8378399675418
 30
0.0
 11
83.06492691607065
 21
195.9096367372662
 31
0.0
  0
LINE
  5
23A9
330
1F
100
AcDbEntity
  8
AM_VIS
100
AcDbLine
 10
77.06492691607064
 20
192.4455351221284
 30
0.0
 11
83.06492691607065
 21
195.9096367372662
 31
0.0
  0
LINE
  5
23AA
330
1F
100
AcDbEntity
  8
AM_VIS
100
AcDbLine
 10
71.06492691607058
 20
195.9096367372662
 30
0.0
 11
77.06492691607064
 21
192.4455351221284
 31
0.0
  0
CIRCLE
  5
23AB
330
1F
100
AcDbEntity
  8
AM_VIS
100
AcDbCircle
 10
77.06492691607059
 20
199.373738352404
 30
0.0
 40
5.749999999999999
  0
CIRCLE
  5
23AC
330
1F
100
AcDbEntity
  8
AM_VIS
100
AcDbCircle
 10
77.06492691607059
 20
199.373738352404
 30
0.0
 40
5.019615242270666
  0
CIRCLE
  5
23AD
330
1F
100
AcDbEntity
  8
AM_VIS
100
AcDbCircle
 10
77.06492691607059
 20
201.573738352404
 30
0.0
 40
0.4
  0
CIRCLE
  5
23AE
330
1F
100
AcDbEntity
  8
AM_VIS
100
AcDbCircle
 10
77.06492691607059
 20
199.373738352404
 30
0.0
 40
2.95
  0
LINE
  5
23D1
330
1F
100
AcDbEntity
  8
AM_7
100
AcDbLine
 10
77.06492691607064
 20
122.0628439765141
 30
0.0
 11
85.0649269160707
 21
122.0628439765141
 31
0.0
1001
GENIUS_GENOREF_13
1005
23D5
  0
LINE
  5
23D2
330
1F
100
AcDbEntity
  8
AM_7
100
AcDbLine
 10
77.06492691607064
 20
122.0628439765141
 30
0.0
 11
77.06492691607064
 21
130.0628439765141
 31
0.0
1001
GENIUS_GENOREF_13
1005
23D5
  0
LINE
  5
23D3
330
1F
100
AcDbEntity
  8
AM_7
100
AcDbLine
 10
77.06492691607064
 20
122.0628439765141
 30
0.0
 11
69.06492691607059
 21
122.0628439765141
 31
0.0
1001
GENIUS_GENOREF_13
1005
23D5
  0
LINE
  5
23D4
330
1F
100
AcDbEntity
  8
AM_7
100
AcDbLine
 10
77.06492691607064
 20
122.0628439765141
 30
0.0
 11
77.06492691607064
 21
114.062843976514
 31
0.0
1001
GENIUS_GENOREF_13
1005
23D5
  0
POINT
  5
23D5
330
1F
100
AcDbEntity
  8
0
 60
     1
100
AcDbPoint
 10
0.0
 20
0.0
 30
0.0
1001
GENIUS_GENOENT_13
1002
{
1000
MYREF
1005
23D5
1002
}
1002
{
1000
GRP
1005
0
1002
}
1001
GENIUS_GENOBJ-N-CRS_13
1002
{
1000
OWNER
1000
GEN
1002
}
1001
GENIUS_GENOLIS_13
1002
{
1000
ENT
1005
23D4
1005
23D3
1005
23D2
1005
23D1
1002
}
1001
GENIUS_GENODEF_13
1002
{
1000
HIER
1070
    10
1002
}
1002
{
1000
MANEDIT
1070
     0
1002
}
1002
{
1000
NOSEL
1070
     0
1002
}
1002
{
1000
BEHIND
1070
     0
1002
}
1002
{
1000
OTHER
1070
     0
1002
}
1002
{
1000
REACTOR
1002
}
  0
LINE
  5
23E3
330
1F
100
AcDbEntity
  8
AM_7
100
AcDbLine
 10
77.06492691607059
 20
199.373738352404
 30
0.0
 11
85.06492691607064
 21
199.373738352404
 31
0.0
1001
GENIUS_GENOREF_13
1005
23E7
  0
LINE
  5
23E4
330
1F
100
AcDbEntity
  8
AM_7
100
AcDbLine
 10
77.06492691607059
 20
199.373738352404
 30
0.0
 11
77.06492691607059
 21
207.373738352404
 31
0.0
1001
GENIUS_GENOREF_13
1005
23E7
  0
LINE
  5
23E5
330
1F
100
AcDbEntity
  8
AM_7
100
AcDbLine
 10
77.06492691607059
 20
199.373738352404
 30
0.0
 11
69.06492691607053
 21
199.373738352404
 31
0.0
1001
GENIUS_GENOREF_13
1005
23E7
  0
LINE
  5
23E6
330
1F
100
AcDbEntity
  8
AM_7
100
AcDbLine
 10
77.06492691607059
 20
199.373738352404
 30
0.0
 11
77.06492691607059
 21
191.3737383524039
 31
0.0
1001
GENIUS_GENOREF_13
1005
23E7
  0
POINT
  5
23E7
330
1F
100
AcDbEntity
  8
0
 60
     1
100
AcDbPoint
 10
0.0
 20
0.0
 30
0.0
1001
GENIUS_GENODEF_13
1002
{
1000
HIER
1070
    10
1002
}
1002
{
1000
MANEDIT
1070
     0
1002
}
1002
{
1000
NOSEL
1070
     0
1002
}
1002
{
1000
BEHIND
1070
     0
1002
}
1002
{
1000
OTHER
1070
     0
1002
}
1002
{
1000
REACTOR
1002
}
1001
GENIUS_GENOENT_13
1002
{
1000
MYREF
1005
23E7
1002
}
1002
{
1000
GRP
1005
0
1002
}
1001
GENIUS_GENOBJ-N-CRS_13
1002
{
1000
OWNER
1000
GEN
1002
}
1001
GENIUS_GENOLIS_13
1002
{
1000
ENT
1005
23E6
1005
23E5
1005
23E4
1005
23E3
1002
}
  0
LINE
  5
23F4
330
1F
100
AcDbEntity
  8
AM_7
100
AcDbLine
 10
96.40599866821208
 20
199.373738352404
 30
0.0
 11
134.9059986682121
 21
199.373738352404
 31
0.0
1001
GENIUS_GENOBJ-N-CEN_13
1002
{
1000
OWNER
1000
GEN
1002
}
1001
GENIUS_GENODEF_13
1002
{
1000
HIER
1070
     0
1002
}
1002
{
1000
MANEDIT
1070
     0
1002
}
1002
{
1000
NOSEL
1070
     0
1002
}
1002
{
1000
BEHIND
1070
     0
1002
}
1002
{
1000
OTHER
1070
     0
1002
}
1002
{
1000
REACTOR
1002
}
1001
GENIUS_GENCEN_19
1002
{
1040
2.0
1002
}
  0
LINE
  5
2401
330
1F
100
AcDbEntity
  8
AM_7
100
AcDbLine
 10
96.40599866821208
 20
122.0628439765141
 30
0.0
 11
134.9059986682121
 21
122.0628439765141
 31
0.0
1001
GENIUS_GENODEF_13
1002
{
1000
HIER
1070
     0
1002
}
1002
{
1000
MANEDIT
1070
     0
1002
}
1002
{
1000
NOSEL
1070
     0
1002
}
1002
{
1000
BEHIND
1070
     0
1002
}
1002
{
1000
OTHER
1070
     0
1002
}
1002
{
1000
REACTOR
1002
}
1001
GENIUS_GENOBJ-N-CEN_13
1002
{
1000
OWNER
1000
GEN
1002
}
1001
GENIUS_GENCEN_19
1002
{
1040
2.0
1002
}
  0
DIMENSION
  5
2402
330
1F
100
AcDbEntity
  8
AM_5
100
AcDbDimension
  2
*D4
 10
107.405998668212
 20
174.154083232404
 30
0.0
 11
102.9059986682121
 21
176.604083232404
 31
0.0
 70
    32
 71
     5
 42
9.0
  3
AM_ISO$0
100
AcDbAlignedDimension
 13
98.40599866821207
 23
198.3737383524039
 33
0.0
 14
107.405998668212
 24
195.0737383524039
 34
0.0
100
AcDbRotatedDimension
1001
ACAD
1000
DSTYLE
1002
{
1070
    40
1040
1.0
1070
   144
1040
1.0
1070
   272
1070
     8
1002
}
  0
DIMENSION
  5
2403
330
1F
100
AcDbEntity
  8
AM_5
100
AcDbDimension
  2
*D5
 10
132.9059986682121
 20
174.154083232404
 30
0.0
 11
120.155998668212
 21
176.604083232404
 31
0.0
 70
    32
  1
S
 71
     5
 42
25.5
  3
AM_ISO$0
100
AcDbAlignedDimension
 13
107.405998668212
 23
195.0737383524039
 33
0.0
 14
132.9059986682121
 24
195.1237383524039
 34
0.0
100
AcDbRotatedDimension
1001
ACAD
1000
DSTYLE
1002
{
1070
    40
1040
1.0
1070
   144
1040
1.0
1070
   272
1070
     8
1002
}
  0
DIMENSION
  5
2404
330
1F
100
AcDbEntity
  8
AM_5
100
AcDbDimension
  2
*D6
 10
132.9059986682121
 20
166.154083232404
 30
0.0
 11
115.6559986682121
 21
168.604083232404
 31
0.0
 70
    32
  1
Z
 71
     5
 42
34.5
  3
AM_ISO$0
100
AcDbAlignedDimension
 13
98.40599866821207
 23
198.3737383524039
 33
0.0
 14
132.9059986682121
 24
195.1237383524039
 34
0.0
100
AcDbRotatedDimension
1001
ACAD
1000
DSTYLE
1002
{
1070
    40
1040
1.0
1070
   144
1040
1.0
1070
   272
1070
     8
1002
}
  0
DIMENSION
  5
2405
330
1F
100
AcDbEntity
  8
AM_5
100
AcDbDimension
  2
*D7
 10
144.905998668212
 20
203.6237383524039
 30
0.0
 11
142.455998668212
 21
214.6240269406571
 31
0.0
 70
    32
  1
%%c<>{}{\C5; d9}
 71
     5
 42
8.5
  3
AM_ISO$0
100
AcDbAlignedDimension
 13
132.9059986682121
 23
195.1237383524039
 33
0.0
 14
132.9059986682121
 24
203.6237383524039
 34
0.0
 50
90.0
100
AcDbRotatedDimension
1001
GENIUS_GENDTOL_13
1000
FitTxt
1000
d9
1000
{$3 $T}
1040
12.0
1001
ACAD
1000
DSTYLE
1002
{
1070
   286
1070
     0
1070
   284
1070
     8
1070
    48
1040
0.1
1070
    47
1040
0.1
1070
   272
1070
     8
1070
   274
1070
     3
1002
}
  0
DIMENSION
  5
2409
330
1F
100
AcDbEntity
  8
AM_5
100
AcDbDimension
  2
*D8
 10
126.9059986682121
 20
182.1540832324037
 30
0.0
 11
117.1559986682121
 21
184.6040832324037
 31
0.0
 70
    32
  1
F
 71
     5
 42
19.5
  3
AM_ISO$0
100
AcDbAlignedDimension
 13
107.405998668212
 23
195.0737383524039
 33
0.0
 14
126.9059986682121
 24
195.1237383524039
 34
0.0
100
AcDbRotatedDimension
1001
ACAD
1000
DSTYLE
1002
{
1070
    40
1040
1.0
1070
   144
1040
1.0
1070
   272
1070
     8
1002
}
  0
DIMENSION
  5
24E8
330
1F
100
AcDbEntity
  8
AM_5
100
AcDbDimension
  2
*D9
 10
83.0649269160707
 20
182.4248091772662
 30
0.0
 11
77.06492691607066
 21
184.8751536654551
 31
0.0
 70
    32
 71
     5
 42
12.00000000000008
  3
AM_ISO$0
100
AcDbAlignedDimension
 13
71.06492691607062
 23
195.9096367372663
 33
0.0
 14
83.0649269160707
 24
195.9096367372662
 34
0.0
100
AcDbRotatedDimension
1001
ACAD
1000
DSTYLE
1002
{
1070
    40
1040
1.0
1070
   144
1040
1.0
1070
   272
1070
     8
1002
}
  0
TEXT
  5
2507
330
1F
100
AcDbEntity
  8
AM_5
100
AcDbText
 10
143.1104614184099
 20
185.2965596926712
 30
0.0
 40
3.0
  1
M5x0.8
100
AcDbText
  0
INSERT
  5
2508
330
1F
100
AcDbEntity
  8
AM_5
100
AcDbBlockReference
  2
*S34
 10
0.0
 20
0.0
 30
0.0
  0
LINE
  5
2509
330
1F
100
AcDbEntity
  8
AM_4
  6
HIDDEN
 48
0.2
100
AcDbLine
 10
132.5838298845634
 20
197.3067510542961
 30
0.0
 11
132.9059986682121
 21
196.7487383524039
 31
0.0
  0
LINE
  5
250A
330
1F
100
AcDbEntity
  8
AM_4
  6
HIDDEN
 48
0.2
100
AcDbLine
 10
132.8338298845634
 20
196.8737383524039
 30
0.0
 11
127.9059986682121
 21
196.8737383524039
 31
0.0
  0
LINE
  5
250B
330
1F
100
AcDbEntity
  8
AM_4
  6
HIDDEN
 48
0.2
100
AcDbLine
 10
132.5838298845634
 20
197.3067510542961
 30
0.0
 11
127.9059986682121
 21
197.3067510542962
 31
0.0
  0
LINE
  5
250C
330
1F
100
AcDbEntity
  8
AM_4
  6
HIDDEN
 48
0.2
100
AcDbLine
 10
132.8338298845634
 20
201.873738352404
 30
0.0
 11
127.9059986682121
 21
201.873738352404
 31
0.0
  0
LINE
  5
250D
330
1F
100
AcDbEntity
  8
AM_4
  6
HIDDEN
 48
0.2
100
AcDbLine
 10
132.5838298845634
 20
201.4407256505118
 30
0.0
 11
127.9059986682121
 21
201.4407256505118
 31
0.0
  0
LINE
  5
250E
330
1F
100
AcDbEntity
  8
AM_4
  6
HIDDEN
 48
0.2
100
AcDbLine
 10
132.5838298845634
 20
197.3067510542961
 30
0.0
 11
132.5838298845634
 21
201.4407256505118
 31
0.0
  0
LINE
  5
250F
330
1F
100
AcDbEntity
  8
AM_4
  6
HIDDEN
 48
0.2
100
AcDbLine
 10
132.5838298845634
 20
201.4407256505118
 30
0.0
 11
132.9059986682121
 21
201.998738352404
 31
0.0
  0
DIMENSION
  5
265C
330
1F
100
AcDbEntity
  8
AM_5
100
AcDbDimension
  2
*D11
 10
107.405998668212
 20
96.84318885651419
 30
0.0
 11
102.9059986682121
 21
99.29318885651419
 31
0.0
 70
    32
 71
     5
 42
9.0
  3
AM_ISO$0
100
AcDbAlignedDimension
 13
98.40599866821207
 23
121.0628439765141
 33
0.0
 14
107.405998668212
 24
117.7628439765141
 34
0.0
100
AcDbRotatedDimension
1001
ACAD
1000
DSTYLE
1002
{
1070
    40
1040
1.0
1070
   144
1040
1.0
1070
   272
1070
     8
1002
}
  0
DIMENSION
  5
265D
330
1F
100
AcDbEntity
  8
AM_5
100
AcDbDimension
  2
*D12
 10
132.9059986682121
 20
96.84318885651419
 30
0.0
 11
120.155998668212
 21
99.29318885651419
 31
0.0
 70
    32
  1
S
 71
     5
 42
25.5
  3
AM_ISO$0
100
AcDbAlignedDimension
 13
107.405998668212
 23
117.7628439765141
 33
0.0
 14
132.9059986682121
 24
117.8128439765141
 34
0.0
100
AcDbRotatedDimension
1001
ACAD
1000
DSTYLE
1002
{
1070
    40
1040
1.0
1070
   144
1040
1.0
1070
   272
1070
     8
1002
}
  0
DIMENSION
  5
265E
330
1F
100
AcDbEntity
  8
AM_5
100
AcDbDimension
  2
*D13
 10
132.9059986682121
 20
88.84318885651419
 30
0.0
 11
115.6559986682121
 21
91.2931888565142
 31
0.0
 70
    32
  1
Z
 71
     5
 42
34.5
  3
AM_ISO$0
100
AcDbAlignedDimension
 13
98.40599866821207
 23
121.0628439765141
 33
0.0
 14
132.9059986682121
 24
117.8128439765141
 34
0.0
100
AcDbRotatedDimension
1001
ACAD
1000
DSTYLE
1002
{
1070
    40
1040
1.0
1070
   144
1040
1.0
1070
   272
1070
     8
1002
}
  0
DIMENSION
  5
265F
330
1F
100
AcDbEntity
  8
AM_5
100
AcDbDimension
  2
*D14
 10
144.905998668212
 20
126.3128439765141
 30
0.0
 11
142.455998668212
 21
137.3131325647672
 31
0.0
 70
    32
  1
%%c<>{}{\C5; d9}
 71
     5
 42
8.5
  3
AM_ISO$0
100
AcDbAlignedDimension
 13
132.9059986682121
 23
117.8128439765141
 33
0.0
 14
132.9059986682121
 24
126.3128439765141
 34
0.0
 50
90.0
100
AcDbRotatedDimension
1001
GENIUS_GENDTOL_13
1000
FitTxt
1000
d9
1000
{$3 $T}
1040
12.0
1001
ACAD
1000
DSTYLE
1002
{
1070
   286
1070
     0
1070
   284
1070
     8
1070
    48
1040
0.1
1070
    47
1040
0.1
1070
   272
1070
     8
1070
   274
1070
     3
1002
}
  0
DIMENSION
  5
2660
330
1F
100
AcDbEntity
  8
AM_5
100
AcDbDimension
  2
*D15
 10
105.405998668212
 20
104.8431888565142
 30
0.0
 11
101.9059986682121
 21
107.2931888565142
 31
0.0
 70
    32
 71
     5
 42
7.0
  3
AM_ISO$0
100
AcDbAlignedDimension
 13
98.40599866821207
 23
121.0628439765141
 33
0.0
 14
105.405998668212
 24
120.6628439765141
 34
0.0
100
AcDbRotatedDimension
1001
ACAD
1000
DSTYLE
1002
{
1070
   173
1070
     1
1070
   174
1070
     1
1070
   272
1070
     8
1070
   344
1005
2633
1002
}
  0
DIMENSION
  5
2661
330
1F
100
AcDbEntity
  8
AM_5
100
AcDbDimension
  2
*D16
 10
126.9059986682121
 20
104.8431888565139
 30
0.0
 11
117.1559986682121
 21
107.2931888565139
 31
0.0
 70
    32
  1
F
 71
     5
 42
19.5
  3
AM_ISO$0
100
AcDbAlignedDimension
 13
107.405998668212
 23
117.7628439765141
 33
0.0
 14
126.9059986682121
 24
117.8128439765141
 34
0.0
100
AcDbRotatedDimension
1001
ACAD
1000
DSTYLE
1002
{
1070
    40
1040
1.0
1070
   144
1040
1.0
1070
   272
1070
     8
1002
}
  0
DIMENSION
  5
2662
330
1F
100
AcDbEntity
  8
AM_5
100
AcDbDimension
  2
*D17
 10
83.0649269160707
 20
105.1139148013763
 30
0.0
 11
77.06492691607066
 21
107.5642592895653
 31
0.0
 70
    32
 71
     5
 42
12.00000000000008
  3
AM_ISO$0
100
AcDbAlignedDimension
 13
71.06492691607062
 23
118.5987423613765
 33
0.0
 14
83.0649269160707
 24
118.5987423613764
 34
0.0
100
AcDbRotatedDimension
1001
ACAD
1000
DSTYLE
1002
{
1070
    40
1040
1.0
1070
   144
1040
1.0
1070
   272
1070
     8
1002
}
  0
TEXT
  5
2663
330
1F
100
AcDbEntity
  8
AM_5
100
AcDbText
 10
143.1104614184099
 20
107.9856653167814
 30
0.0
 40
3.0
  1
M5x0.8
100
AcDbText
  0
INSERT
  5
2664
330
1F
100
AcDbEntity
  8
AM_5
100
AcDbBlockReference
  2
*S35
 10
0.0
 20
0.0
 30
0.0
  0
LINE
  5
270A
330
1F
100
AcDbEntity
  8
AM_4
  6
HIDDEN
 48
0.2
100
AcDbLine
 10
132.5838298845634
 20
119.9958566784063
 30
0.0
 11
132.9059986682121
 21
119.4378439765141
 31
0.0
  0
LINE
  5
270B
330
1F
100
AcDbEntity
  8
AM_4
  6
HIDDEN
 48
0.2
100
AcDbLine
 10
132.8338298845634
 20
119.5628439765141
 30
0.0
 11
127.9059986682121
 21
119.5628439765141
 31
0.0
  0
LINE
  5
270C
330
1F
100
AcDbEntity
  8
AM_4
  6
HIDDEN
 48
0.2
100
AcDbLine
 10
132.5838298845634
 20
119.9958566784063
 30
0.0
 11
127.9059986682121
 21
119.9958566784063
 31
0.0
  0
LINE
  5
270D
330
1F
100
AcDbEntity
  8
AM_4
  6
HIDDEN
 48
0.2
100
AcDbLine
 10
132.8338298845634
 20
124.5628439765141
 30
0.0
 11
127.9059986682121
 21
124.5628439765141
 31
0.0
  0
LINE
  5
270E
330
1F
100
AcDbEntity
  8
AM_4
  6
HIDDEN
 48
0.2
100
AcDbLine
 10
132.5838298845634
 20
124.129831274622
 30
0.0
 11
127.9059986682121
 21
124.129831274622
 31
0.0
  0
LINE
  5
270F
330
1F
100
AcDbEntity
  8
AM_4
  6
HIDDEN
 48
0.2
100
AcDbLine
 10
132.5838298845634
 20
119.9958566784063
 30
0.0
 11
132.5838298845634
 21
124.129831274622
 31
0.0
  0
LINE
  5
2710
330
1F
100
AcDbEntity
  8
AM_4
  6
HIDDEN
 48
0.2
100
AcDbLine
 10
132.5838298845634
 20
124.129831274622
 30
0.0
 11
132.9059986682121
 21
124.6878439765141
 31
0.0
  0
INSERT
  5
271F
330
1F
100
AcDbEntity
  8
0
100
AcDbBlockReference
  2
A$C01AA3924
 10
126.9059986682121
 20
199.373738352404
 30
0.0
  0
INSERT
  5
2720
330
1F
100
AcDbEntity
  8
0
100
AcDbBlockReference
  2
A$C01AA3924
 10
126.9059986682121
 20
122.0628439765141
 30
0.0
  0
LINE
  5
2789
330
1F
100
AcDbEntity
  8
0
 62
     3
100
AcDbLine
 10
98.60599866821207
 20
123.2628439765141
 30
0.0
 11
100.405998668212
 21
123.2628439765141
 31
0.0
  0
LINE
  5
278A
330
1F
100
AcDbEntity
  8
0
 62
     3
100
AcDbLine
 10
104.005998668212
 20
123.2628439765141
 30
0.0
 11
105.405998668212
 21
123.2628439765141
 31
0.0
  0
LINE
  5
278B
330
1F
100
AcDbEntity
  8
0
 62
     3
100
AcDbLine
 10
98.60599866821207
 20
120.862843976514
 30
0.0
 11
100.405998668212
 21
120.862843976514
 31
0.0
  0
LINE
  5
278C
330
1F
100
AcDbEntity
  8
0
 62
     3
100
AcDbLine
 10
104.005998668212
 20
120.862843976514
 30
0.0
 11
105.405998668212
 21
120.862843976514
 31
0.0
  0
LINE
  5
28A4
330
1F
100
AcDbEntity
  8
AM_VIS
100
AcDbLine
 10
265.444487263027
 20
127.8128439765141
 30
0.0
 11
265.444487263027
 21
116.3128439765141
 31
0.0
  0
LINE
  5
28A5
330
1F
100
AcDbEntity
  8
AM_VIS
100
AcDbLine
 10
268.444487263027
 20
116.3128439765141
 30
0.0
 11
268.444487263027
 21
127.8128439765141
 31
0.0
  0
SPLINE
  5
28A6
330
1F
100
AcDbEntity
  8
AM_VIS
100
AcDbSpline
210
0.0
220
0.0000000000000001
230
1.0
 70
     8
 71
     1
 72
    42
 73
    40
 74
     0
 42
0.0000000001
 43
0.0000000001
 40
0.0
 40
0.0
 40
0.0568888888888889
 40
0.1137777777777778
 40
0.1706666666666667
 40
0.2316836543599195
 40
0.2927006420531724
 40
0.3537176297464252
 40
0.4277776219810052
 40
0.5018376142155852
 40
0.5758976064501651
 40
0.6503967542346163
 40
0.7248959020190675
 40
0.7993950498035188
 40
0.8738941975879701
 40
0.958520111930267
 40
1.043146026272564
 40
1.127771940614861
 40
1.212397854957158
 40
1.297023769299455
 40
1.3917932402601
 40
1.486562711220744
 40
1.581332182181389
 40
1.676101653142034
 40
1.770871124102679
 40
1.865640595063323
 40
1.959598226599484
 40
2.053555858135645
 40
2.147513489671806
 40
2.241471121207967
 40
2.335428752744128
 40
2.429386384280289
 40
2.517891814027575
 40
2.606397243774861
 40
2.694902673522148
 40
2.783408103269434
 40
2.857885710673737
 40
2.932363318078039
 40
3.006840925482341
 40
3.074216789536067
 40
3.141592653589794
 40
3.141592653589794
 10
287.944487263027
 20
118.0628439765141
 30
0.0
 10
287.9432739606725
 20
118.0401006931132
 30
0.0
 10
287.9396379792159
 20
118.0174309949904
 30
0.0
 10
287.9335910827768
 20
117.9949082293407
 30
0.0
 10
287.924448147887
 20
117.9709973695906
 30
0.0
 10
287.9125883585687
 20
117.947428355364
 30
0.0
 10
287.8980558559831
 20
117.9242889085948
 30
0.0
 10
287.876904724587
 20
117.8969040928599
 30
0.0
 10
287.8520123241368
 20
117.8704290219463
 30
0.0
 10
287.8235151241291
 20
117.8450088421449
 30
0.0
 10
287.7913699822486
 20
117.8206430934287
 30
-0.0000000000000001
 10
287.7559135997554
 20
117.7976209677973
 30
-0.0000000000000001
 10
287.7173426729349
 20
117.7760701817937
 30
-0.0000000000000001
 10
287.675871176183
 20
117.7561102896209
 30
-0.0000000000000001
 10
287.625536015103
 20
117.7355072060409
 30
-0.0000000000000001
 10
287.5721157206779
 20
117.7172469609006
 30
0.0
 10
287.5159926365074
 20
117.7014602477487
 30
0.0
 10
287.4575684507943
 20
117.6882600563921
 30
0.0000000000000001
 10
287.3972613213516
 20
117.6777408641961
 30
0.0000000000000001
 10
287.3280237712272
 20
117.6692353041696
 30
0.0
 10
287.2575877933393
 20
117.6642621980559
 30
0.0
 10
287.1865855176769
 20
117.6628661771585
 30
0.0
 10
287.1156541564868
 20
117.6650597701127
 30
0.0000000000000001
 10
287.0454302855915
 20
117.6708232904467
 30
0.0000000000000001
 10
286.9765441314188
 20
117.6801050132586
 30
0.0000000000000001
 10
286.910177256432
 20
117.69269841662
 30
0.0
 10
286.846318434654
 20
117.7085570752932
 30
-0.0000000000000001
 10
286.7855309994856
 20
117.7275410914242
 30
-0.0000000000000001
 10
286.7283511899556
 20
117.7494829966812
 30
-0.0000000000000001
 10
286.6752834202649
 20
117.7741892295831
 30
0.0
 10
286.6267958300742
 20
117.8014418430116
 30
0.0
 10
286.5856953354207
 20
117.8292266932074
 30
0.0
 10
286.5493605243464
 20
117.8588403226633
 30
0.0
 10
286.5180758293553
 20
117.8900509129511
 30
0.0
 10
286.4920861501423
 20
117.9226141444753
 30
0.0
 10
286.4744689608409
 20
117.9508774487958
 30
0.0
 10
286.4608438053427
 20
117.9797615347854
 30
0.0
 10
286.4512862262847
 20
118.0091062589489
 30
-0.0000000000000001
 10
286.4461889342982
 20
118.0359140164791
 30
-0.0000000000000001
 10
286.444487263027
 20
118.0628439765141
 30
-0.0000000000000001
  0
SPLINE
  5
28A7
330
1F
100
AcDbEntity
  8
AM_VIS
100
AcDbSpline
210
0.0
220
0.0
230
1.0
 70
     8
 71
     1
 72
    42
 73
    40
 74
     0
 42
0.0000000001
 43
0.0000000001
 40
0.0
 40
0.0
 40
0.0568888888888889
 40
0.1137777777777778
 40
0.1706666666666667
 40
0.2316836543599195
 40
0.2927006420531723
 40
0.3537176297464251
 40
0.4277776219810052
 40
0.5018376142155851
 40
0.575897606450165
 40
0.6503967542346162
 40
0.7248959020190675
 40
0.7993950498035188
 40
0.8738941975879699
 40
0.9585201119302668
 40
1.043146026272563
 40
1.12777194061486
 40
1.212397854957157
 40
1.297023769299454
 40
1.391793240260099
 40
1.486562711220744
 40
1.581332182181388
 40
1.676101653142033
 40
1.770871124102678
 40
1.865640595063323
 40
1.959598226599483
 40
2.053555858135645
 40
2.147513489671806
 40
2.241471121207966
 40
2.335428752744127
 40
2.429386384280288
 40
2.517891814027575
 40
2.606397243774861
 40
2.694902673522147
 40
2.783408103269433
 40
2.857885710673736
 40
2.932363318078038
 40
3.006840925482341
 40
3.074216789536067
 40
3.141592653589794
 40
3.141592653589794
 10
287.944487263027
 20
126.0628439765141
 30
0.0
 10
287.9432739606725
 20
126.0855872599151
 30
0.0
 10
287.9396379792159
 20
126.1082569580378
 30
0.0
 10
287.9335910827768
 20
126.1307797236875
 30
0.0
 10
287.924448147887
 20
126.1546905834376
 30
0.0
 10
287.9125883585687
 20
126.1782595976643
 30
0.0
 10
287.8980558559831
 20
126.2013990444334
 30
0.0
 10
287.876904724587
 20
126.2287838601682
 30
0.0000000000000001
 10
287.8520123241368
 20
126.255258931082
 30
0.0000000000000001
 10
287.8235151241291
 20
126.2806791108832
 30
0.0000000000000001
 10
287.7913699822486
 20
126.3050448595995
 30
0.0
 10
287.7559135997554
 20
126.3280669852309
 30
0.0
 10
287.7173426729349
 20
126.3496177712345
 30
0.0
 10
287.675871176183
 20
126.3695776634073
 30
0.0
 10
287.625536015103
 20
126.3901807469873
 30
0.0
 10
287.5721157206779
 20
126.4084409921277
 30
0.0
 10
287.5159926365074
 20
126.4242277052795
 30
0.0
 10
287.4575684507943
 20
126.4374278966361
 30
0.0000000000000001
 10
287.3972613213516
 20
126.447947088832
 30
0.0000000000000001
 10
287.3280237712272
 20
126.4564526488586
 30
0.0
 10
287.2575877933393
 20
126.4614257549723
 30
0.0
 10
287.1865855176769
 20
126.4628217758698
 30
0.0
 10
287.1156541564868
 20
126.4606281829155
 30
0.0
 10
287.0454302855915
 20
126.4548646625816
 30
0.0000000000000001
 10
286.9765441314188
 20
126.4455829397696
 30
0.0000000000000001
 10
286.910177256432
 20
126.4329895364082
 30
0.0000000000000001
 10
286.846318434654
 20
126.417130877735
 30
0.0
 10
286.7855309994856
 20
126.398146861604
 30
0.0
 10
286.7283511899556
 20
126.3762049563471
 30
0.0
 10
286.6752834202649
 20
126.3514987234451
 30
0.0
 10
286.6267958300742
 20
126.3242461100167
 30
0.0
 10
286.5856953354207
 20
126.2964612598208
 30
0.0
 10
286.5493605243464
 20
126.2668476303649
 30
0.0
 10
286.5180758293553
 20
126.2356370400771
 30
0.0000000000000001
 10
286.4920861501423
 20
126.2030738085529
 30
0.0000000000000001
 10
286.4744689608409
 20
126.1748105042325
 30
0.0000000000000001
 10
286.4608438053427
 20
126.1459264182428
 30
0.0000000000000001
 10
286.4512862262847
 20
126.1165816940793
 30
0.0
 10
286.4461889342982
 20
126.0897739365492
 30
0.0
 10
286.444487263027
 20
126.0628439765141
 30
0.0
  0
SPLINE
  5
28A8
330
1F
100
AcDbEntity
  8
AM_VIS
100
AcDbSpline
210
0.0
220
0.0
230
1.0
 70
    12
 71
     2
 72
     6
 73
     3
 74
     0
 42
0.0000000001
 43
0.0000000001
 40
0.0
 40
0.0
 40
0.0
 40
4.39696865275752
 40
4.39696865275752
 40
4.39696865275752
 10
282.5980771015132
 20
117.076004923599
 30
0.0
 41
1.0
 10
283.1465598572435
 20
118.1657296594842
 30
0.0000000000000001
 41
1.111111111111102
 10
282.5980771015132
 20
119.2554543953692
 30
0.0
 41
1.0
  0
LINE
  5
28A9
330
1F
100
AcDbEntity
  8
AM_VIS
100
AcDbLine
 10
264.7908974245408
 20
117.076004923599
 30
0.0
 11
265.444487263027
 21
117.076004923599
 31
0.0
  0
LINE
  5
28AA
330
1F
100
AcDbEntity
  8
AM_VIS
100
AcDbLine
 10
268.444487263027
 20
117.076004923599
 30
0.0
 11
282.5980771015132
 21
117.076004923599
 31
0.0
  0
LINE
  5
28AB
330
1F
100
AcDbEntity
  8
AM_VIS
100
AcDbLine
 10
282.5980771015132
 20
119.2554543953692
 30
0.0
 11
268.444487263027
 21
119.2554543953692
 31
0.0
  0
LINE
  5
28AC
330
1F
100
AcDbEntity
  8
AM_VIS
100
AcDbLine
 10
265.444487263027
 20
119.2554543953692
 30
0.0
 11
264.7908974245408
 21
119.2554543953692
 31
0.0
  0
SPLINE
  5
28AD
330
1F
100
AcDbEntity
  8
AM_VIS
100
AcDbSpline
210
0.0
220
0.0
230
1.0
 70
    12
 71
     2
 72
     6
 73
     3
 74
     0
 42
0.0000000001
 43
0.0000000001
 40
0.0
 40
0.0
 40
0.0
 40
4.396968652757528
 40
4.396968652757528
 40
4.396968652757528
 10
282.5980771015132
 20
119.8833945047438
 30
0.0
 41
1.0
 10
283.1465598572434
 20
122.0628439765141
 30
0.0
 41
1.111111111111105
 10
282.5980771015132
 20
124.2422934482844
 30
0.0
 41
1.0
  0
LINE
  5
28AE
330
1F
100
AcDbEntity
  8
AM_VIS
100
AcDbLine
 10
264.7908974245408
 20
119.8833945047438
 30
0.0
 11
265.444487263027
 21
119.8833945047438
 31
0.0
  0
LINE
  5
28AF
330
1F
100
AcDbEntity
  8
AM_VIS
100
AcDbLine
 10
268.444487263027
 20
119.8833945047438
 30
0.0
 11
282.5980771015132
 21
119.8833945047438
 31
0.0
  0
LINE
  5
28B0
330
1F
100
AcDbEntity
  8
AM_VIS
100
AcDbLine
 10
282.5980771015132
 20
124.2422934482844
 30
0.0
 11
268.444487263027
 21
124.2422934482844
 31
0.0
  0
LINE
  5
28B1
330
1F
100
AcDbEntity
  8
AM_VIS
100
AcDbLine
 10
265.444487263027
 20
124.2422934482844
 30
0.0
 11
264.7908974245408
 21
124.2422934482844
 31
0.0
  0
SPLINE
  5
28B2
330
1F
100
AcDbEntity
  8
AM_VIS
100
AcDbSpline
210
0.0
220
0.0
230
1.0
 70
    12
 71
     2
 72
     6
 73
     3
 74
     0
 42
0.0000000001
 43
0.0000000001
 40
0.0
 40
0.0
 40
0.0
 40
4.396968652757449
 40
4.396968652757449
 40
4.396968652757449
 10
282.5980771015132
 20
124.870233557659
 30
0.0
 41
1.0
 10
283.1465598572433
 20
125.9599582935442
 30
0.0
 41
1.111111111111095
 10
282.5980771015132
 20
127.0496830294292
 30
0.0
 41
1.0
  0
LINE
  5
28B3
330
1F
100
AcDbEntity
  8
AM_VIS
100
AcDbLine
 10
264.7908974245408
 20
124.870233557659
 30
0.0
 11
265.444487263027
 21
124.870233557659
 31
0.0
  0
LINE
  5
28B4
330
1F
100
AcDbEntity
  8
AM_VIS
100
AcDbLine
 10
268.444487263027
 20
124.870233557659
 30
0.0
 11
282.5980771015132
 21
124.870233557659
 31
0.0
  0
LINE
  5
28B5
330
1F
100
AcDbEntity
  8
AM_VIS
100
AcDbLine
 10
282.5980771015132
 20
127.0496830294292
 30
0.0
 11
268.444487263027
 21
127.0496830294292
 31
0.0
  0
LINE
  5
28B6
330
1F
100
AcDbEntity
  8
AM_VIS
100
AcDbLine
 10
265.444487263027
 20
127.0496830294292
 30
0.0
 11
264.7908974245408
 21
127.0496830294292
 31
0.0
  0
SPLINE
  5
28B7
330
1F
100
AcDbEntity
  8
AM_VIS
100
AcDbSpline
210
0.0
220
0.0
230
1.0
 70
    12
 71
     2
 72
     6
 73
     3
 74
     0
 42
0.0000000001
 43
0.0000000001
 40
0.7244801790705148
 40
0.7244801790705148
 40
0.7244801790705148
 40
5.33522278394663
 40
5.33522278394663
 40
5.33522278394663
 10
264.790897424541
 20
124.2422934482844
 30
0.0
 41
1.042105263157895
 10
264.2424146688106
 20
122.0628439765141
 30
0.0
 41
1.157894736842101
 10
264.790897424541
 20
119.8833945047438
 30
0.0000000000000001
 41
1.042105263157895
  0
SPLINE
  5
28B8
330
1F
100
AcDbEntity
  8
AM_VIS
100
AcDbSpline
210
0.0
220
0.0
230
1.0
 70
    12
 71
     2
 72
     6
 73
     3
 74
     0
 42
0.0000000001
 43
0.0000000001
 40
0.7244801790705197
 40
0.7244801790705197
 40
0.7244801790705197
 40
5.33522278394662
 40
5.33522278394662
 40
5.33522278394662
 10
264.7908974245406
 20
119.2554543953691
 30
0.0
 41
1.042105263157895
 10
264.2424146688105
 20
118.165729659484
 30
0.0
 41
1.157894736842097
 10
264.7908974245406
 20
117.0760049235989
 30
0.0
 41
1.042105263157895
  0
SPLINE
  5
28B9
330
1F
100
AcDbEntity
  8
AM_VIS
100
AcDbSpline
210
0.0
220
0.0
230
1.0
 70
    12
 71
     2
 72
     6
 73
     3
 74
     0
 42
0.0000000001
 43
0.0000000001
 40
0.724480179070532
 40
0.724480179070532
 40
0.724480179070532
 40
5.335222783946553
 40
5.335222783946553
 40
5.335222783946553
 10
264.7908974245407
 20
127.0496830294292
 30
-0.0000000000000001
 41
1.042105263157893
 10
264.2424146688105
 20
125.9599582935441
 30
0.0
 41
1.157894736842088
 10
264.7908974245407
 20
124.8702335576588
 30
-0.0000000000000001
 41
1.042105263157893
  0
LINE
  5
28BA
330
1F
100
AcDbEntity
  8
AM_VIS
100
AcDbLine
 10
287.944487263027
 20
117.8128439765141
 30
0.0
 11
288.944487263027
 21
117.8128439765141
 31
0.0
  0
LINE
  5
28BB
330
1F
100
AcDbEntity
  8
AM_VIS
100
AcDbLine
 10
287.944487263027
 20
126.3128439765141
 30
0.0
 11
288.944487263027
 21
126.3128439765141
 31
0.0
  0
LINE
  5
28BC
330
1F
100
AcDbEntity
  8
AM_VIS
100
AcDbLine
 10
282.5980771015132
 20
117.0628439765141
 30
0.0
 11
268.444487263027
 21
117.0628439765141
 31
0.0
  0
LINE
  5
28BD
330
1F
100
AcDbEntity
  8
AM_VIS
100
AcDbLine
 10
265.444487263027
 20
117.0628439765141
 30
0.0
 11
264.7908974245408
 21
117.0628439765141
 31
0.0
  0
LINE
  5
28BE
330
1F
100
AcDbEntity
  8
AM_VIS
100
AcDbLine
 10
282.944487263027
 20
126.4628439765141
 30
0.0
 11
282.5980771015132
 21
127.0628439765141
 31
0.0
  0
LINE
  5
28BF
330
1F
100
AcDbEntity
  8
AM_VIS
100
AcDbLine
 10
282.944487263027
 20
117.6628439765141
 30
0.0
 11
282.5980771015132
 21
117.0628439765141
 31
0.0
  0
LINE
  5
28C0
330
1F
100
AcDbEntity
  8
AM_VIS
100
AcDbLine
 10
282.944487263027
 20
117.8128439765141
 30
0.0
 11
286.444487263027
 21
117.8128439765141
 31
0.0
  0
LINE
  5
28C1
330
1F
100
AcDbEntity
  8
AM_VIS
100
AcDbLine
 10
282.944487263027
 20
126.3128439765141
 30
0.0
 11
286.444487263027
 21
126.3128439765141
 31
0.0
  0
LINE
  5
28C2
330
1F
100
AcDbEntity
  8
AM_VIS
100
AcDbLine
 10
263.544487263027
 20
117.6628439765141
 30
0.0
 11
264.444487263027
 21
117.6628439765141
 31
0.0
  0
LINE
  5
28C3
330
1F
100
AcDbEntity
  8
AM_VIS
100
AcDbLine
 10
263.544487263027
 20
126.4628439765141
 30
0.0
 11
264.444487263027
 21
126.4628439765141
 31
0.0
  0
LINE
  5
28C4
330
1F
100
AcDbEntity
  8
AM_VIS
100
AcDbLine
 10
263.444487263027
 20
117.7628439765141
 30
0.0
 11
263.544487263027
 21
117.6628439765141
 31
0.0
  0
LINE
  5
28C5
330
1F
100
AcDbEntity
  8
AM_VIS
100
AcDbLine
 10
263.444487263027
 20
126.3628439765141
 30
0.0
 11
263.5444872630269
 21
126.4628439765141
 31
0.0
  0
LINE
  5
28C6
330
1F
100
AcDbEntity
  8
AM_VIS
100
AcDbLine
 10
282.5980771015132
 20
127.0628439765141
 30
0.0
 11
268.444487263027
 21
127.0628439765141
 31
0.0
  0
LINE
  5
28C7
330
1F
100
AcDbEntity
  8
AM_VIS
100
AcDbLine
 10
265.444487263027
 20
127.0628439765141
 30
0.0
 11
264.7908974245408
 21
127.0628439765141
 31
0.0
  0
LINE
  5
28C8
330
1F
100
AcDbEntity
  8
AM_VIS
100
AcDbLine
 10
264.444487263027
 20
117.6628439765141
 30
0.0
 11
264.7908974245408
 21
117.0628439765141
 31
0.0
  0
LINE
  5
28C9
330
1F
100
AcDbEntity
  8
AM_VIS
100
AcDbLine
 10
264.444487263027
 20
126.4628439765141
 30
0.0
 11
264.7908974245408
 21
127.0628439765141
 31
0.0
  0
LINE
  5
28CA
330
1F
100
AcDbEntity
  8
AM_VIS
100
AcDbLine
 10
288.944487263027
 20
126.3128439765141
 30
0.0
 11
288.944487263027
 21
117.8128439765141
 31
0.0
  0
LINE
  5
28CB
330
1F
100
AcDbEntity
  8
AM_VIS
100
AcDbLine
 10
282.5980771015132
 20
117.076004923599
 30
0.0
 11
282.5980771015132
 21
117.0628439765141
 31
0.0
  0
LINE
  5
28CC
330
1F
100
AcDbEntity
  8
AM_VIS
100
AcDbLine
 10
282.944487263027
 20
117.6628439765141
 30
0.0
 11
282.944487263027
 21
126.4628439765141
 31
0.0
  0
LINE
  5
28CD
330
1F
100
AcDbEntity
  8
AM_VIS
100
AcDbLine
 10
282.5980771015132
 20
119.8833945047438
 30
0.0
 11
282.5980771015132
 21
119.2554543953692
 31
0.0
  0
LINE
  5
28CE
330
1F
100
AcDbEntity
  8
AM_VIS
100
AcDbLine
 10
282.5980771015132
 20
124.870233557659
 30
0.0
 11
282.5980771015132
 21
124.2422934482844
 31
0.0
  0
LINE
  5
28CF
330
1F
100
AcDbEntity
  8
AM_VIS
100
AcDbLine
 10
286.444487263027
 20
126.3128439765141
 30
0.0
 11
286.444487263027
 21
117.8128439765141
 31
0.0
  0
LINE
  5
28D0
330
1F
100
AcDbEntity
  8
AM_VIS
100
AcDbLine
 10
287.944487263027
 20
117.8128439765141
 30
0.0
 11
287.944487263027
 21
126.3128439765141
 31
0.0
  0
LINE
  5
28D1
330
1F
100
AcDbEntity
  8
AM_VIS
100
AcDbLine
 10
263.444487263027
 20
117.7628439765141
 30
0.0
 11
263.444487263027
 21
126.3628439765141
 31
0.0
  0
LINE
  5
28D3
330
1F
100
AcDbEntity
  8
AM_VIS
100
AcDbLine
 10
282.5980771015132
 20
127.0628439765141
 30
0.0
 11
282.5980771015132
 21
127.0496830294292
 31
0.0
  0
LINE
  5
28D4
330
1F
100
AcDbEntity
  8
AM_VIS
100
AcDbLine
 10
264.444487263027
 20
117.6628439765141
 30
0.0
 11
264.444487263027
 21
126.4628439765141
 31
0.0
  0
LINE
  5
28D5
330
1F
100
AcDbEntity
  8
AM_VIS
100
AcDbLine
 10
264.7908974245408
 20
124.2422934482844
 30
0.0
 11
264.7908974245408
 21
124.870233557659
 31
0.0
  0
LINE
  5
28D6
330
1F
100
AcDbEntity
  8
AM_VIS
100
AcDbLine
 10
264.7908974245408
 20
119.2554543953692
 30
0.0
 11
264.7908974245408
 21
119.8833945047439
 31
0.0
  0
LINE
  5
28D7
330
1F
100
AcDbEntity
  8
AM_VIS
100
AcDbLine
 10
264.7908974245408
 20
117.0628439765141
 30
0.0
 11
264.7908974245408
 21
117.076004923599
 31
0.0
  0
LINE
  5
28D8
330
1F
100
AcDbEntity
  8
AM_VIS
100
AcDbLine
 10
264.7908974245408
 20
127.0496830294292
 30
0.0
 11
264.7908974245408
 21
127.0628439765141
 31
0.0
  0
LINE
  5
2913
330
1F
100
AcDbEntity
  8
AM_VIS
100
AcDbLine
 10
267.7642513108673
 20
206.3019415826795
 30
0.0
 11
266.1247232151866
 21
206.3019415826795
 31
0.0
  0
LINE
  5
2914
330
1F
100
AcDbEntity
  8
AM_VIS
100
AcDbLine
 10
267.7642513108673
 20
202.8378399675417
 30
0.0
 11
266.1247232151866
 21
202.8378399675417
 31
0.0
  0
SPLINE
  5
2915
330
1F
100
AcDbEntity
  8
AM_VIS
100
AcDbSpline
210
0.0
220
0.0
230
1.0
 70
    12
 71
     2
 72
     6
 73
     3
 74
     0
 42
0.0000000001
 43
0.0000000001
 40
2.490579903672046
 40
2.490579903672046
 40
2.490579903672046
 40
10.63699920800476
 40
10.63699920800476
 40
10.63699920800476
 10
266.1247232151867
 20
206.3019415826797
 30
0.0
 41
1.140916470546979
 10
265.1247232151866
 20
204.5698907751106
 30
0.0
 41
1.317416862786354
 10
266.1247232151867
 20
202.8378399675418
 30
-0.0000000000000001
 41
1.14091647054698
  0
SPLINE
  5
2916
330
1F
100
AcDbEntity
  8
AM_VIS
100
AcDbSpline
210
0.0
220
0.0
230
1.0
 70
    12
 71
     2
 72
     6
 73
     3
 74
     0
 42
0.0000000001
 43
0.0000000001
 40
2.490579903672056
 40
2.490579903672056
 40
2.490579903672056
 40
10.63699920800476
 40
10.63699920800476
 40
10.63699920800476
 10
266.1247232151866
 20
202.8378399675418
 30
-0.0000000000000001
 41
1.14091647054698
 10
265.1247232151868
 20
199.373738352404
 30
0.0000000000000001
 41
1.317416862786354
 10
266.1247232151866
 20
195.9096367372661
 30
0.0
 41
1.140916470546979
  0
SPLINE
  5
2917
330
1F
100
AcDbEntity
  8
AM_VIS
100
AcDbSpline
210
0.0
220
0.0
230
1.0
 70
    12
 71
     2
 72
     6
 73
     3
 74
     0
 42
0.0000000001
 43
0.0000000001
 40
2.490579903672054
 40
2.490579903672054
 40
2.490579903672054
 40
10.63699920800477
 40
10.63699920800477
 40
10.63699920800477
 10
266.1247232151866
 20
195.9096367372661
 30
0.0
 41
1.140916470546979
 10
265.1247232151866
 20
194.1775859296972
 30
0.0
 41
1.317416862786353
 10
266.1247232151865
 20
192.4455351221283
 30
0.0
 41
1.140916470546978
  0
LINE
  5
2918
330
1F
100
AcDbEntity
  8
AM_VIS
100
AcDbLine
 10
267.7642513108673
 20
195.9096367372661
 30
0.0
 11
266.1247232151866
 21
195.9096367372661
 31
0.0
  0
LINE
  5
2919
330
1F
100
AcDbEntity
  8
AM_VIS
100
AcDbLine
 10
267.7642513108673
 20
192.4455351221284
 30
0.0
 11
266.1247232151867
 21
192.4455351221284
 31
0.0
  0
SPLINE
  5
291A
330
1F
100
AcDbEntity
  8
AM_VIS
100
AcDbSpline
210
0.0
220
0.0
230
1.0
 70
    12
 71
     2
 72
     6
 73
     3
 74
     0
 42
0.0000000001
 43
0.0000000001
 40
2.49057990367205
 40
2.49057990367205
 40
2.49057990367205
 40
10.63699920800476
 40
10.63699920800476
 40
10.63699920800476
 10
267.7642513108675
 20
202.8378399675418
 30
0.0
 41
1.14091647054698
 10
268.7642513108674
 20
204.5698907751106
 30
0.0
 41
1.317416862786354
 10
267.7642513108675
 20
206.3019415826795
 30
0.0
 41
1.14091647054698
  0
SPLINE
  5
291B
330
1F
100
AcDbEntity
  8
AM_VIS
100
AcDbSpline
210
0.0
220
0.0
230
1.0
 70
    12
 71
     2
 72
     6
 73
     3
 74
     0
 42
0.0000000001
 43
0.0000000001
 40
2.490579903672021
 40
2.490579903672021
 40
2.490579903672021
 40
10.63699920800474
 40
10.63699920800474
 40
10.63699920800474
 10
267.7642513108673
 20
192.4455351221283
 30
-0.0000000000000001
 41
1.140916470546978
 10
268.7642513108674
 20
194.1775859296973
 30
0.0
 41
1.317416862786354
 10
267.7642513108675
 20
195.9096367372662
 30
0.0000000000000001
 41
1.140916470546979
  0
SPLINE
  5
291C
330
1F
100
AcDbEntity
  8
AM_VIS
100
AcDbSpline
210
0.0
220
0.0
230
1.0
 70
    12
 71
     2
 72
     6
 73
     3
 74
     0
 42
0.0000000001
 43
0.0000000001
 40
2.490579903672045
 40
2.490579903672045
 40
2.490579903672045
 40
10.63699920800475
 40
10.63699920800475
 40
10.63699920800475
 10
267.7642513108675
 20
195.9096367372662
 30
0.0000000000000001
 41
1.140916470546979
 10
268.7642513108674
 20
199.373738352404
 30
0.0000000000000001
 41
1.317416862786353
 10
267.7642513108673
 20
202.8378399675418
 30
0.0
 41
1.14091647054698
  0
LINE
  5
291D
330
1F
100
AcDbEntity
  8
AM_VIS
100
AcDbLine
 10
265.444487263027
 20
193.6237383524039
 30
0.0
 11
266.1247232151866
 21
192.4455351221284
 31
0.0
  0
LINE
  5
291E
330
1F
100
AcDbEntity
  8
AM_VIS
100
AcDbLine
 10
265.444487263027
 20
205.123738352404
 30
0.0
 11
266.1247232151866
 21
206.3019415826795
 31
0.0
  0
LINE
  5
291F
330
1F
100
AcDbEntity
  8
AM_VIS
100
AcDbLine
 10
268.444487263027
 20
205.123738352404
 30
0.0
 11
267.7642513108673
 21
206.3019415826795
 31
0.0
  0
LINE
  5
2920
330
1F
100
AcDbEntity
  8
AM_VIS
100
AcDbLine
 10
268.444487263027
 20
193.6237383524039
 30
0.0
 11
267.7642513108673
 21
192.4455351221284
 31
0.0
  0
LINE
  5
2921
330
1F
100
AcDbEntity
  8
AM_VIS
100
AcDbLine
 10
265.444487263027
 20
205.123738352404
 30
0.0
 11
265.444487263027
 21
193.6237383524039
 31
0.0
  0
LINE
  5
2922
330
1F
100
AcDbEntity
  8
AM_VIS
100
AcDbLine
 10
268.444487263027
 20
193.6237383524039
 30
0.0
 11
268.444487263027
 21
205.123738352404
 31
0.0
  0
SPLINE
  5
2923
330
1F
100
AcDbEntity
  8
AM_VIS
100
AcDbSpline
210
0.0
220
0.0000000000000001
230
1.0
 70
     8
 71
     1
 72
    42
 73
    40
 74
     0
 42
0.0000000001
 43
0.0000000001
 40
0.0
 40
0.0
 40
0.0568888888888889
 40
0.1137777777777778
 40
0.1706666666666667
 40
0.2316836543599195
 40
0.2927006420531724
 40
0.3537176297464252
 40
0.4277776219810052
 40
0.5018376142155852
 40
0.5758976064501651
 40
0.6503967542346163
 40
0.7248959020190675
 40
0.7993950498035188
 40
0.8738941975879701
 40
0.958520111930267
 40
1.043146026272564
 40
1.127771940614861
 40
1.212397854957158
 40
1.297023769299455
 40
1.3917932402601
 40
1.486562711220744
 40
1.581332182181389
 40
1.676101653142034
 40
1.770871124102679
 40
1.865640595063323
 40
1.959598226599484
 40
2.053555858135645
 40
2.147513489671806
 40
2.241471121207967
 40
2.335428752744128
 40
2.429386384280289
 40
2.517891814027575
 40
2.606397243774861
 40
2.694902673522148
 40
2.783408103269434
 40
2.857885710673737
 40
2.932363318078039
 40
3.006840925482341
 40
3.074216789536067
 40
3.141592653589794
 40
3.141592653589794
 10
287.944487263027
 20
195.3737383524039
 30
0.0
 10
287.9432739606725
 20
195.350995069003
 30
0.0
 10
287.9396379792158
 20
195.3283253708802
 30
0.0
 10
287.9335910827768
 20
195.3058026052305
 30
0.0
 10
287.924448147887
 20
195.2818917454804
 30
0.0
 10
287.9125883585687
 20
195.2583227312537
 30
0.0
 10
287.898055855983
 20
195.2351832844847
 30
0.0
 10
287.876904724587
 20
195.2077984687498
 30
0.0
 10
287.8520123241368
 20
195.1813233978361
 30
0.0
 10
287.8235151241291
 20
195.1559032180347
 30
0.0
 10
287.7913699822486
 20
195.1315374693185
 30
-0.0000000000000001
 10
287.7559135997554
 20
195.1085153436872
 30
-0.0000000000000001
 10
287.7173426729348
 20
195.0869645576836
 30
-0.0000000000000001
 10
287.675871176183
 20
195.0670046655108
 30
-0.0000000000000001
 10
287.6255360151031
 20
195.0464015819308
 30
-0.0000000000000001
 10
287.5721157206779
 20
195.0281413367904
 30
0.0
 10
287.5159926365075
 20
195.0123546236385
 30
0.0
 10
287.4575684507943
 20
194.9991544322819
 30
0.0000000000000001
 10
287.3972613213515
 20
194.988635240086
 30
0.0000000000000001
 10
287.3280237712272
 20
194.9801296800595
 30
0.0
 10
287.2575877933393
 20
194.9751565739457
 30
0.0
 10
287.1865855176769
 20
194.9737605530483
 30
0.0
 10
287.1156541564868
 20
194.9759541460025
 30
0.0000000000000001
 10
287.0454302855915
 20
194.9817176663365
 30
0.0000000000000001
 10
286.9765441314188
 20
194.9909993891484
 30
0.0000000000000001
 10
286.910177256432
 20
195.0035927925098
 30
0.0
 10
286.846318434654
 20
195.019451451183
 30
-0.0000000000000001
 10
286.7855309994856
 20
195.0384354673141
 30
-0.0000000000000001
 10
286.7283511899556
 20
195.060377372571
 30
-0.0000000000000001
 10
286.6752834202649
 20
195.0850836054729
 30
0.0
 10
286.6267958300742
 20
195.1123362189014
 30
0.0
 10
286.5856953354207
 20
195.1401210690973
 30
0.0
 10
286.5493605243463
 20
195.1697346985531
 30
0.0
 10
286.5180758293553
 20
195.200945288841
 30
0.0
 10
286.4920861501422
 20
195.2335085203651
 30
0.0
 10
286.4744689608409
 20
195.2617718246856
 30
0.0
 10
286.4608438053427
 20
195.2906559106753
 30
0.0
 10
286.4512862262847
 20
195.3200006348387
 30
-0.0000000000000001
 10
286.4461889342982
 20
195.3468083923689
 30
-0.0000000000000001
 10
286.444487263027
 20
195.3737383524039
 30
-0.0000000000000001
  0
SPLINE
  5
2924
330
1F
100
AcDbEntity
  8
AM_VIS
100
AcDbSpline
210
0.0
220
0.0
230
1.0
 70
     8
 71
     1
 72
    42
 73
    40
 74
     0
 42
0.0000000001
 43
0.0000000001
 40
0.0
 40
0.0
 40
0.0568888888888889
 40
0.1137777777777778
 40
0.1706666666666667
 40
0.2316836543599195
 40
0.2927006420531723
 40
0.3537176297464251
 40
0.4277776219810052
 40
0.5018376142155851
 40
0.575897606450165
 40
0.6503967542346162
 40
0.7248959020190675
 40
0.7993950498035188
 40
0.8738941975879699
 40
0.9585201119302668
 40
1.043146026272563
 40
1.12777194061486
 40
1.212397854957157
 40
1.297023769299454
 40
1.391793240260099
 40
1.486562711220744
 40
1.581332182181388
 40
1.676101653142033
 40
1.770871124102678
 40
1.865640595063323
 40
1.959598226599483
 40
2.053555858135645
 40
2.147513489671806
 40
2.241471121207966
 40
2.335428752744127
 40
2.429386384280288
 40
2.517891814027575
 40
2.606397243774861
 40
2.694902673522147
 40
2.783408103269433
 40
2.857885710673736
 40
2.932363318078038
 40
3.006840925482341
 40
3.074216789536067
 40
3.141592653589794
 40
3.141592653589794
 10
287.944487263027
 20
203.3737383524039
 30
0.0
 10
287.9432739606725
 20
203.3964816358049
 30
0.0
 10
287.9396379792158
 20
203.4191513339277
 30
0.0
 10
287.9335910827768
 20
203.4416740995774
 30
0.0
 10
287.924448147887
 20
203.4655849593275
 30
0.0
 10
287.9125883585687
 20
203.4891539735542
 30
0.0
 10
287.898055855983
 20
203.5122934203232
 30
0.0
 10
287.876904724587
 20
203.5396782360581
 30
0.0000000000000001
 10
287.8520123241368
 20
203.5661533069718
 30
0.0000000000000001
 10
287.8235151241291
 20
203.5915734867731
 30
0.0000000000000001
 10
287.7913699822486
 20
203.6159392354893
 30
0.0
 10
287.7559135997554
 20
203.6389613611207
 30
0.0
 10
287.7173426729348
 20
203.6605121471243
 30
0.0
 10
287.675871176183
 20
203.6804720392971
 30
0.0
 10
287.6255360151031
 20
203.7010751228771
 30
0.0
 10
287.5721157206779
 20
203.7193353680175
 30
0.0
 10
287.5159926365075
 20
203.7351220811694
 30
0.0
 10
287.4575684507943
 20
203.748322272526
 30
0.0000000000000001
 10
287.3972613213515
 20
203.7588414647219
 30
0.0000000000000001
 10
287.3280237712272
 20
203.7673470247484
 30
0.0
 10
287.2575877933393
 20
203.7723201308622
 30
0.0
 10
287.1865855176769
 20
203.7737161517596
 30
0.0
 10
287.1156541564868
 20
203.7715225588054
 30
0.0
 10
287.0454302855915
 20
203.7657590384714
 30
0.0000000000000001
 10
286.9765441314188
 20
203.7564773156595
 30
0.0000000000000001
 10
286.910177256432
 20
203.7438839122981
 30
0.0000000000000001
 10
286.846318434654
 20
203.7280252536249
 30
0.0
 10
286.7855309994856
 20
203.7090412374938
 30
0.0
 10
286.7283511899556
 20
203.6870993322369
 30
0.0
 10
286.6752834202649
 20
203.662393099335
 30
0.0
 10
286.6267958300742
 20
203.6351404859065
 30
0.0
 10
286.5856953354207
 20
203.6073556357106
 30
0.0
 10
286.5493605243463
 20
203.5777420062548
 30
0.0
 10
286.5180758293553
 20
203.5465314159669
 30
0.0000000000000001
 10
286.4920861501422
 20
203.5139681844428
 30
0.0000000000000001
 10
286.4744689608409
 20
203.4857048801223
 30
0.0000000000000001
 10
286.4608438053427
 20
203.4568207941326
 30
0.0000000000000001
 10
286.4512862262847
 20
203.4274760699692
 30
0.0
 10
286.4461889342982
 20
203.400668312439
 30
0.0
 10
286.444487263027
 20
203.3737383524039
 30
0.0
  0
SPLINE
  5
2925
330
1F
100
AcDbEntity
  8
AM_VIS
100
AcDbSpline
210
0.0
220
0.0
230
1.0
 70
    12
 71
     2
 72
     6
 73
     3
 74
     0
 42
0.0000000001
 43
0.0000000001
 40
0.0
 40
0.0
 40
0.0
 40
4.39696865275752
 40
4.39696865275752
 40
4.39696865275752
 10
282.5980771015133
 20
194.3868992994888
 30
0.0
 41
1.0
 10
283.1465598572434
 20
195.476624035374
 30
0.0000000000000001
 41
1.111111111111102
 10
282.5980771015133
 20
196.5663487712591
 30
0.0
 41
1.0
  0
LINE
  5
2926
330
1F
100
AcDbEntity
  8
AM_VIS
100
AcDbLine
 10
264.7908974245408
 20
194.3868992994888
 30
0.0
 11
265.444487263027
 21
194.3868992994888
 31
0.0
  0
LINE
  5
2927
330
1F
100
AcDbEntity
  8
AM_VIS
100
AcDbLine
 10
268.444487263027
 20
194.3868992994888
 30
0.0
 11
282.5980771015133
 21
194.3868992994888
 31
0.0
  0
LINE
  5
2928
330
1F
100
AcDbEntity
  8
AM_VIS
100
AcDbLine
 10
282.5980771015133
 20
196.5663487712591
 30
0.0
 11
268.444487263027
 21
196.5663487712591
 31
0.0
  0
LINE
  5
2929
330
1F
100
AcDbEntity
  8
AM_VIS
100
AcDbLine
 10
265.444487263027
 20
196.5663487712591
 30
0.0
 11
264.7908974245407
 21
196.5663487712591
 31
0.0
  0
SPLINE
  5
292A
330
1F
100
AcDbEntity
  8
AM_VIS
100
AcDbSpline
210
0.0
220
0.0
230
1.0
 70
    12
 71
     2
 72
     6
 73
     3
 74
     0
 42
0.0000000001
 43
0.0000000001
 40
0.0
 40
0.0
 40
0.0
 40
4.396968652757528
 40
4.396968652757528
 40
4.396968652757528
 10
282.5980771015133
 20
197.1942888806337
 30
0.0
 41
1.0
 10
283.1465598572433
 20
199.373738352404
 30
0.0
 41
1.111111111111105
 10
282.5980771015133
 20
201.5531878241743
 30
0.0
 41
1.0
  0
LINE
  5
292B
330
1F
100
AcDbEntity
  8
AM_VIS
100
AcDbLine
 10
264.7908974245407
 20
197.1942888806337
 30
0.0
 11
265.444487263027
 21
197.1942888806337
 31
0.0
  0
LINE
  5
292C
330
1F
100
AcDbEntity
  8
AM_VIS
100
AcDbLine
 10
268.444487263027
 20
197.1942888806337
 30
0.0
 11
282.5980771015133
 21
197.1942888806337
 31
0.0
  0
LINE
  5
292D
330
1F
100
AcDbEntity
  8
AM_VIS
100
AcDbLine
 10
282.5980771015133
 20
201.5531878241743
 30
0.0
 11
268.444487263027
 21
201.5531878241743
 31
0.0
  0
LINE
  5
292E
330
1F
100
AcDbEntity
  8
AM_VIS
100
AcDbLine
 10
265.444487263027
 20
201.5531878241743
 30
0.0
 11
264.7908974245408
 21
201.5531878241743
 31
0.0
  0
SPLINE
  5
292F
330
1F
100
AcDbEntity
  8
AM_VIS
100
AcDbSpline
210
0.0
220
0.0
230
1.0
 70
    12
 71
     2
 72
     6
 73
     3
 74
     0
 42
0.0000000001
 43
0.0000000001
 40
0.0
 40
0.0
 40
0.0
 40
4.396968652757449
 40
4.396968652757449
 40
4.396968652757449
 10
282.5980771015133
 20
202.1811279335488
 30
0.0
 41
1.0
 10
283.1465598572433
 20
203.270852669434
 30
0.0
 41
1.111111111111095
 10
282.5980771015133
 20
204.3605774053191
 30
0.0
 41
1.0
  0
LINE
  5
2930
330
1F
100
AcDbEntity
  8
AM_VIS
100
AcDbLine
 10
264.7908974245408
 20
202.1811279335488
 30
0.0
 11
265.444487263027
 21
202.1811279335488
 31
0.0
  0
LINE
  5
2931
330
1F
100
AcDbEntity
  8
AM_VIS
100
AcDbLine
 10
268.444487263027
 20
202.1811279335488
 30
0.0
 11
282.5980771015133
 21
202.1811279335488
 31
0.0
  0
LINE
  5
2932
330
1F
100
AcDbEntity
  8
AM_VIS
100
AcDbLine
 10
282.5980771015133
 20
204.3605774053191
 30
0.0
 11
268.444487263027
 21
204.3605774053191
 31
0.0
  0
LINE
  5
2933
330
1F
100
AcDbEntity
  8
AM_VIS
100
AcDbLine
 10
265.444487263027
 20
204.3605774053191
 30
0.0
 11
264.7908974245407
 21
204.3605774053191
 31
0.0
  0
SPLINE
  5
2934
330
1F
100
AcDbEntity
  8
AM_VIS
100
AcDbSpline
210
0.0
220
0.0
230
1.0
 70
    12
 71
     2
 72
     6
 73
     3
 74
     0
 42
0.0000000001
 43
0.0000000001
 40
0.7244801790705148
 40
0.7244801790705148
 40
0.7244801790705148
 40
5.33522278394663
 40
5.33522278394663
 40
5.33522278394663
 10
264.790897424541
 20
201.5531878241743
 30
0.0
 41
1.042105263157895
 10
264.2424146688106
 20
199.373738352404
 30
0.0
 41
1.157894736842101
 10
264.7908974245407
 20
197.1942888806338
 30
0.0000000000000001
 41
1.042105263157895
  0
SPLINE
  5
2935
330
1F
100
AcDbEntity
  8
AM_VIS
100
AcDbSpline
210
0.0
220
0.0
230
1.0
 70
    12
 71
     2
 72
     6
 73
     3
 74
     0
 42
0.0000000001
 43
0.0000000001
 40
0.7244801790705197
 40
0.7244801790705197
 40
0.7244801790705197
 40
5.33522278394662
 40
5.33522278394662
 40
5.33522278394662
 10
264.7908974245406
 20
196.5663487712588
 30
0.0
 41
1.042105263157895
 10
264.2424146688106
 20
195.4766240353739
 30
0.0
 41
1.157894736842097
 10
264.7908974245407
 20
194.3868992994888
 30
0.0
 41
1.042105263157895
  0
SPLINE
  5
2936
330
1F
100
AcDbEntity
  8
AM_VIS
100
AcDbSpline
210
0.0
220
0.0
230
1.0
 70
    12
 71
     2
 72
     6
 73
     3
 74
     0
 42
0.0000000001
 43
0.0000000001
 40
0.724480179070532
 40
0.724480179070532
 40
0.724480179070532
 40
5.335222783946553
 40
5.335222783946553
 40
5.335222783946553
 10
264.7908974245406
 20
204.360577405319
 30
-0.0000000000000001
 41
1.042105263157893
 10
264.2424146688105
 20
203.270852669434
 30
0.0
 41
1.157894736842088
 10
264.7908974245406
 20
202.1811279335486
 30
-0.0000000000000001
 41
1.042105263157893
  0
LINE
  5
2937
330
1F
100
AcDbEntity
  8
AM_VIS
100
AcDbLine
 10
287.944487263027
 20
195.1237383524039
 30
0.0
 11
288.944487263027
 21
195.1237383524039
 31
0.0
  0
LINE
  5
2938
330
1F
100
AcDbEntity
  8
AM_VIS
100
AcDbLine
 10
287.944487263027
 20
203.6237383524039
 30
0.0
 11
288.944487263027
 21
203.6237383524039
 31
0.0
  0
LINE
  5
2939
330
1F
100
AcDbEntity
  8
AM_VIS
100
AcDbLine
 10
282.5980771015133
 20
194.3737383524039
 30
0.0
 11
268.444487263027
 21
194.3737383524039
 31
0.0
  0
LINE
  5
293A
330
1F
100
AcDbEntity
  8
AM_VIS
100
AcDbLine
 10
265.444487263027
 20
194.3737383524039
 30
0.0
 11
264.7908974245407
 21
194.3737383524039
 31
0.0
  0
LINE
  5
293B
330
1F
100
AcDbEntity
  8
AM_VIS
100
AcDbLine
 10
282.944487263027
 20
203.7737383524039
 30
0.0
 11
282.5980771015133
 21
204.373738352404
 31
0.0
  0
LINE
  5
293C
330
1F
100
AcDbEntity
  8
AM_VIS
100
AcDbLine
 10
282.944487263027
 20
194.973738352404
 30
0.0
 11
282.5980771015133
 21
194.3737383524039
 31
0.0
  0
LINE
  5
293D
330
1F
100
AcDbEntity
  8
AM_VIS
100
AcDbLine
 10
282.944487263027
 20
195.1237383524039
 30
0.0
 11
286.444487263027
 21
195.1237383524039
 31
0.0
  0
LINE
  5
293E
330
1F
100
AcDbEntity
  8
AM_VIS
100
AcDbLine
 10
282.944487263027
 20
203.6237383524039
 30
0.0
 11
286.444487263027
 21
203.6237383524039
 31
0.0
  0
LINE
  5
293F
330
1F
100
AcDbEntity
  8
AM_VIS
100
AcDbLine
 10
263.544487263027
 20
194.973738352404
 30
0.0
 11
264.444487263027
 21
194.973738352404
 31
0.0
  0
LINE
  5
2940
330
1F
100
AcDbEntity
  8
AM_VIS
100
AcDbLine
 10
263.544487263027
 20
203.7737383524039
 30
0.0
 11
264.444487263027
 21
203.7737383524039
 31
0.0
  0
LINE
  5
2941
330
1F
100
AcDbEntity
  8
AM_VIS
100
AcDbLine
 10
263.444487263027
 20
195.0737383524039
 30
0.0
 11
263.544487263027
 21
194.973738352404
 31
0.0
  0
LINE
  5
2942
330
1F
100
AcDbEntity
  8
AM_VIS
100
AcDbLine
 10
263.444487263027
 20
203.673738352404
 30
0.0
 11
263.544487263027
 21
203.7737383524039
 31
0.0
  0
LINE
  5
2943
330
1F
100
AcDbEntity
  8
AM_VIS
100
AcDbLine
 10
282.5980771015133
 20
204.373738352404
 30
0.0
 11
268.444487263027
 21
204.373738352404
 31
0.0
  0
LINE
  5
2944
330
1F
100
AcDbEntity
  8
AM_VIS
100
AcDbLine
 10
265.444487263027
 20
204.373738352404
 30
0.0
 11
264.7908974245407
 21
204.373738352404
 31
0.0
  0
LINE
  5
2945
330
1F
100
AcDbEntity
  8
AM_VIS
100
AcDbLine
 10
264.444487263027
 20
194.973738352404
 30
0.0
 11
264.7908974245408
 21
194.3737383524039
 31
0.0
  0
LINE
  5
2946
330
1F
100
AcDbEntity
  8
AM_VIS
100
AcDbLine
 10
264.444487263027
 20
203.7737383524039
 30
0.0
 11
264.7908974245407
 21
204.373738352404
 31
0.0
  0
LINE
  5
2947
330
1F
100
AcDbEntity
  8
AM_VIS
100
AcDbLine
 10
288.944487263027
 20
203.6237383524039
 30
0.0
 11
288.944487263027
 21
195.1237383524039
 31
0.0
  0
LINE
  5
2948
330
1F
100
AcDbEntity
  8
AM_VIS
100
AcDbLine
 10
282.5980771015133
 20
194.3868992994888
 30
0.0
 11
282.5980771015133
 21
194.3737383524039
 31
0.0
  0
LINE
  5
2949
330
1F
100
AcDbEntity
  8
AM_VIS
100
AcDbLine
 10
282.944487263027
 20
194.973738352404
 30
0.0
 11
282.944487263027
 21
203.7737383524039
 31
0.0
  0
LINE
  5
294A
330
1F
100
AcDbEntity
  8
AM_VIS
100
AcDbLine
 10
282.5980771015133
 20
197.1942888806337
 30
0.0
 11
282.5980771015133
 21
196.5663487712591
 31
0.0
  0
LINE
  5
294B
330
1F
100
AcDbEntity
  8
AM_VIS
100
AcDbLine
 10
282.5980771015133
 20
202.1811279335488
 30
0.0
 11
282.5980771015133
 21
201.5531878241743
 31
0.0
  0
LINE
  5
294C
330
1F
100
AcDbEntity
  8
AM_VIS
100
AcDbLine
 10
286.444487263027
 20
203.6237383524039
 30
0.0
 11
286.444487263027
 21
195.1237383524039
 31
0.0
  0
LINE
  5
294D
330
1F
100
AcDbEntity
  8
AM_VIS
100
AcDbLine
 10
287.944487263027
 20
195.1237383524039
 30
0.0
 11
287.944487263027
 21
203.6237383524039
 31
0.0
  0
LINE
  5
294E
330
1F
100
AcDbEntity
  8
AM_VIS
100
AcDbLine
 10
263.444487263027
 20
195.0737383524039
 30
0.0
 11
263.444487263027
 21
203.673738352404
 31
0.0
  0
LINE
  5
2950
330
1F
100
AcDbEntity
  8
AM_VIS
100
AcDbLine
 10
282.5980771015133
 20
204.373738352404
 30
0.0
 11
282.5980771015133
 21
204.3605774053191
 31
0.0
  0
LINE
  5
2951
330
1F
100
AcDbEntity
  8
AM_VIS
100
AcDbLine
 10
264.444487263027
 20
194.973738352404
 30
0.0
 11
264.444487263027
 21
203.7737383524039
 31
0.0
  0
LINE
  5
2952
330
1F
100
AcDbEntity
  8
AM_VIS
100
AcDbLine
 10
264.7908974245408
 20
201.5531878241743
 30
0.0
 11
264.7908974245408
 21
202.1811279335488
 31
0.0
  0
LINE
  5
2953
330
1F
100
AcDbEntity
  8
AM_VIS
100
AcDbLine
 10
264.7908974245408
 20
196.5663487712591
 30
0.0
 11
264.7908974245408
 21
197.1942888806337
 31
0.0
  0
LINE
  5
2954
330
1F
100
AcDbEntity
  8
AM_VIS
100
AcDbLine
 10
264.7908974245408
 20
194.3737383524039
 30
0.0
 11
264.7908974245408
 21
194.3868992994888
 31
0.0
  0
LINE
  5
2955
330
1F
100
AcDbEntity
  8
AM_VIS
100
AcDbLine
 10
264.7908974245408
 20
204.3605774053191
 30
0.0
 11
264.7908974245408
 21
204.373738352404
 31
0.0
  0
LINE
  5
2974
330
1F
100
AcDbEntity
  8
AM_VIS
100
AcDbLine
 10
259.7411321430461
 20
125.238270457057
 30
0.0
 11
258.5478423830078
 21
125.238270457057
 31
0.0
  0
LINE
  5
2975
330
1F
100
AcDbEntity
  8
AM_VIS
100
AcDbLine
 10
259.7411321430462
 20
123.6505572167856
 30
0.0
 11
258.5478423830078
 21
123.6505572167856
 31
0.0
  0
LINE
  5
2976
330
1F
100
AcDbEntity
  8
AM_VIS
100
AcDbLine
 10
259.7411321430461
 20
120.4751307362426
 30
0.0
 11
258.5478423830078
 21
120.4751307362426
 31
0.0
  0
SPLINE
  5
2977
330
1F
100
AcDbEntity
  8
AM_VIS
100
AcDbSpline
210
0.0
220
0.0
230
1.0
 70
    12
 71
     2
 72
     6
 73
     3
 74
     0
 42
0.0000000001
 43
0.0000000001
 40
0.0
 40
0.0
 40
0.0
 40
3.213199379714416
 40
3.213199379714416
 40
3.213199379714416
 10
258.5478423830078
 20
125.238270457057
 30
0.0
 41
1.0
 10
258.0895090496745
 20
124.4444138369213
 30
-0.0000000000000001
 41
1.154700538379267
 10
258.5478423830078
 20
123.6505572167855
 30
-0.0000000000000001
 41
1.0
  0
SPLINE
  5
2978
330
1F
100
AcDbEntity
  8
AM_VIS
100
AcDbSpline
210
0.0
220
0.0
230
1.0
 70
    12
 71
     2
 72
     6
 73
     3
 74
     0
 42
0.0000000001
 43
0.0000000001
 40
0.0
 40
0.0
 40
0.0
 40
3.213199379714325
 40
3.213199379714325
 40
3.213199379714325
 10
258.5478423830078
 20
123.6505572167856
 30
-0.0000000000000001
 41
1.0
 10
258.0895090496743
 20
122.0628439765139
 30
0.0
 41
1.154700538379256
 10
258.5478423830078
 20
120.4751307362426
 30
0.0
 41
1.0
  0
SPLINE
  5
2979
330
1F
100
AcDbEntity
  8
AM_VIS
100
AcDbSpline
210
0.0
220
0.0
230
1.0
 70
    12
 71
     2
 72
     6
 73
     3
 74
     0
 42
0.0000000001
 43
0.0000000001
 40
0.0
 40
0.0
 40
0.0
 40
3.213199379714319
 40
3.213199379714319
 40
3.213199379714319
 10
258.5478423830078
 20
120.4751307362426
 30
0.0
 41
1.0
 10
258.0895090496743
 20
119.6812741161068
 30
-0.0000000000000001
 41
1.154700538379257
 10
258.5478423830078
 20
118.8874174959711
 30
-0.0000000000000001
 41
1.0
  0
LINE
  5
297A
330
1F
100
AcDbEntity
  8
AM_VIS
100
AcDbLine
 10
259.7411321430461
 20
118.8874174959711
 30
0.0
 11
258.5478423830078
 21
118.8874174959711
 31
0.0
  0
SPLINE
  5
297B
330
1F
100
AcDbEntity
  8
AM_VIS
100
AcDbSpline
210
0.0
220
0.0
230
1.0
 70
    12
 71
     2
 72
     6
 73
     3
 74
     0
 42
0.0000000001
 43
0.0000000001
 40
0.0
 40
0.0
 40
0.0
 40
3.213199379714388
 40
3.213199379714388
 40
3.213199379714388
 10
259.7411321430461
 20
120.4751307362426
 30
0.0
 41
1.0
 10
260.1994654763795
 20
122.062843976514
 30
0.0
 41
1.15470053837926
 10
259.7411321430461
 20
123.6505572167856
 30
0.0
 41
1.0
  0
SPLINE
  5
297C
330
1F
100
AcDbEntity
  8
AM_VIS
100
AcDbSpline
210
0.0
220
0.0
230
1.0
 70
    12
 71
     2
 72
     6
 73
     3
 74
     0
 42
0.0000000001
 43
0.0000000001
 40
0.0
 40
0.0
 40
0.0
 40
3.213199379714476
 40
3.213199379714476
 40
3.213199379714476
 10
259.7411321430462
 20
123.6505572167855
 30
0.0
 41
1.0
 10
260.1994654763794
 20
124.4444138369212
 30
-0.0000000000000001
 41
1.154700538379272
 10
259.7411321430461
 20
125.238270457057
 30
0.0
 41
1.0
  0
SPLINE
  5
297D
330
1F
100
AcDbEntity
  8
AM_VIS
100
AcDbSpline
210
0.0
220
0.0
230
1.0
 70
    12
 71
     2
 72
     6
 73
     3
 74
     0
 42
0.0000000001
 43
0.0000000001
 40
0.0
 40
0.0
 40
0.0
 40
3.21319937971438
 40
3.21319937971438
 40
3.21319937971438
 10
259.7411321430461
 20
118.8874174959711
 30
0.0
 41
1.0
 10
260.1994654763795
 20
119.6812741161069
 30
0.0
 41
1.15470053837926
 10
259.7411321430461
 20
120.4751307362427
 30
0.0
 41
1.0
  0
LINE
  5
297E
330
1F
100
AcDbEntity
  8
AM_VIS
100
AcDbLine
 10
258.244487263027
 20
119.4128439765141
 30
0.0
 11
258.5478423830078
 21
118.8874174959712
 31
0.0
  0
LINE
  5
297F
330
1F
100
AcDbEntity
  8
AM_VIS
100
AcDbLine
 10
258.244487263027
 20
124.7128439765141
 30
0.0
 11
258.5478423830078
 21
125.238270457057
 31
0.0
  0
LINE
  5
2980
330
1F
100
AcDbEntity
  8
AM_VIS
100
AcDbLine
 10
260.044487263027
 20
124.7128439765141
 30
0.0
 11
259.7411321430462
 21
125.238270457057
 31
0.0
  0
LINE
  5
2981
330
1F
100
AcDbEntity
  8
AM_VIS
100
AcDbLine
 10
260.044487263027
 20
119.4128439765141
 30
0.0
 11
259.7411321430462
 21
118.8874174959711
 31
0.0
  0
LINE
  5
2982
330
1F
100
AcDbEntity
  8
AM_VIS
100
AcDbLine
 10
258.244487263027
 20
124.7128439765141
 30
0.0
 11
258.244487263027
 21
119.4128439765141
 31
0.0
  0
LINE
  5
2983
330
1F
100
AcDbEntity
  8
AM_VIS
100
AcDbLine
 10
260.044487263027
 20
119.4128439765141
 30
0.0
 11
260.044487263027
 21
124.7128439765141
 31
0.0
  0
LINE
  5
2984
330
1F
100
AcDbEntity
  8
AM_VIS
100
AcDbLine
 10
257.9411321430462
 20
125.238270457057
 30
0.0
 11
256.7478423830078
 21
125.238270457057
 31
0.0
  0
LINE
  5
2985
330
1F
100
AcDbEntity
  8
AM_VIS
100
AcDbLine
 10
257.9411321430462
 20
123.6505572167856
 30
0.0
 11
256.7478423830078
 21
123.6505572167856
 31
0.0
  0
LINE
  5
2986
330
1F
100
AcDbEntity
  8
AM_VIS
100
AcDbLine
 10
257.9411321430462
 20
120.4751307362426
 30
0.0
 11
256.7478423830078
 21
120.4751307362426
 31
0.0
  0
SPLINE
  5
2987
330
1F
100
AcDbEntity
  8
AM_VIS
100
AcDbSpline
210
0.0
220
0.0
230
1.0
 70
    12
 71
     2
 72
     6
 73
     3
 74
     0
 42
0.0000000001
 43
0.0000000001
 40
0.0
 40
0.0
 40
0.0
 40
3.213199379714416
 40
3.213199379714416
 40
3.213199379714416
 10
256.7478423830078
 20
125.238270457057
 30
0.0
 41
1.0
 10
256.2895090496744
 20
124.4444138369213
 30
-0.0000000000000001
 41
1.154700538379267
 10
256.7478423830078
 20
123.6505572167855
 30
-0.0000000000000001
 41
1.0
  0
SPLINE
  5
2988
330
1F
100
AcDbEntity
  8
AM_VIS
100
AcDbSpline
210
0.0
220
0.0
230
1.0
 70
    12
 71
     2
 72
     6
 73
     3
 74
     0
 42
0.0000000001
 43
0.0000000001
 40
0.0
 40
0.0
 40
0.0
 40
3.213199379714325
 40
3.213199379714325
 40
3.213199379714325
 10
256.7478423830078
 20
123.6505572167856
 30
-0.0000000000000001
 41
1.0
 10
256.2895090496744
 20
122.0628439765139
 30
-0.0000000000000001
 41
1.154700538379256
 10
256.7478423830078
 20
120.4751307362426
 30
0.0
 41
1.0
  0
SPLINE
  5
2989
330
1F
100
AcDbEntity
  8
AM_VIS
100
AcDbSpline
210
0.0
220
0.0
230
1.0
 70
    12
 71
     2
 72
     6
 73
     3
 74
     0
 42
0.0000000001
 43
0.0000000001
 40
0.0
 40
0.0
 40
0.0
 40
3.213199379714319
 40
3.213199379714319
 40
3.213199379714319
 10
256.7478423830078
 20
120.4751307362426
 30
0.0
 41
1.0
 10
256.2895090496744
 20
119.6812741161068
 30
0.0
 41
1.154700538379257
 10
256.7478423830078
 20
118.8874174959711
 30
-0.0000000000000001
 41
1.0
  0
LINE
  5
298A
330
1F
100
AcDbEntity
  8
AM_VIS
100
AcDbLine
 10
257.9411321430462
 20
118.8874174959711
 30
0.0
 11
256.7478423830078
 21
118.8874174959711
 31
0.0
  0
SPLINE
  5
298B
330
1F
100
AcDbEntity
  8
AM_VIS
100
AcDbSpline
210
0.0
220
0.0
230
1.0
 70
    12
 71
     2
 72
     6
 73
     3
 74
     0
 42
0.0000000001
 43
0.0000000001
 40
0.0
 40
0.0
 40
0.0
 40
3.213199379714388
 40
3.213199379714388
 40
3.213199379714388
 10
257.9411321430462
 20
120.4751307362426
 30
0.0
 41
1.0
 10
258.3994654763793
 20
122.062843976514
 30
0.0
 41
1.15470053837926
 10
257.9411321430462
 20
123.6505572167856
 30
0.0
 41
1.0
  0
SPLINE
  5
298C
330
1F
100
AcDbEntity
  8
AM_VIS
100
AcDbSpline
210
0.0
220
0.0
230
1.0
 70
    12
 71
     2
 72
     6
 73
     3
 74
     0
 42
0.0000000001
 43
0.0000000001
 40
0.0
 40
0.0
 40
0.0
 40
3.213199379714476
 40
3.213199379714476
 40
3.213199379714476
 10
257.9411321430462
 20
123.6505572167855
 30
0.0
 41
1.0
 10
258.3994654763794
 20
124.4444138369212
 30
0.0
 41
1.154700538379272
 10
257.9411321430462
 20
125.238270457057
 30
0.0
 41
1.0
  0
SPLINE
  5
298D
330
1F
100
AcDbEntity
  8
AM_VIS
100
AcDbSpline
210
0.0
220
0.0
230
1.0
 70
    12
 71
     2
 72
     6
 73
     3
 74
     0
 42
0.0000000001
 43
0.0000000001
 40
0.0
 40
0.0
 40
0.0
 40
3.21319937971438
 40
3.21319937971438
 40
3.21319937971438
 10
257.9411321430462
 20
118.8874174959711
 30
0.0
 41
1.0
 10
258.3994654763795
 20
119.6812741161069
 30
0.0
 41
1.15470053837926
 10
257.9411321430462
 20
120.4751307362427
 30
0.0
 41
1.0
  0
LINE
  5
298E
330
1F
100
AcDbEntity
  8
AM_VIS
100
AcDbLine
 10
256.444487263027
 20
119.4128439765141
 30
0.0
 11
256.7478423830078
 21
118.8874174959712
 31
0.0
  0
LINE
  5
298F
330
1F
100
AcDbEntity
  8
AM_VIS
100
AcDbLine
 10
256.444487263027
 20
124.7128439765141
 30
0.0
 11
256.7478423830078
 21
125.238270457057
 31
0.0
  0
LINE
  5
2990
330
1F
100
AcDbEntity
  8
AM_VIS
100
AcDbLine
 10
258.244487263027
 20
124.7128439765141
 30
0.0
 11
257.9411321430462
 21
125.238270457057
 31
0.0
  0
LINE
  5
2991
330
1F
100
AcDbEntity
  8
AM_VIS
100
AcDbLine
 10
258.244487263027
 20
119.4128439765141
 30
0.0
 11
257.9411321430462
 21
118.8874174959711
 31
0.0
  0
LINE
  5
2992
330
1F
100
AcDbEntity
  8
AM_VIS
100
AcDbLine
 10
256.444487263027
 20
124.7128439765141
 30
0.0
 11
256.444487263027
 21
119.4128439765141
 31
0.0
  0
LINE
  5
2993
330
1F
100
AcDbEntity
  8
AM_VIS
100
AcDbLine
 10
258.244487263027
 20
119.4128439765141
 30
0.0
 11
258.244487263027
 21
124.7128439765141
 31
0.0
  0
LINE
  5
2994
330
1F
100
AcDbEntity
  8
AM_VIS
100
AcDbLine
 10
263.444487263027
 20
123.5628439765141
 30
0.0
 11
261.5444872630269
 21
123.5628439765141
 31
0.0
  0
LINE
  5
2995
330
1F
100
AcDbEntity
  8
AM_VIS
100
AcDbLine
 10
263.444487263027
 20
120.5628439765141
 30
0.0
 11
261.5444872630269
 21
120.5628439765141
 31
0.0
  0
LINE
  5
2996
330
1F
100
AcDbEntity
  8
AM_VIS
100
AcDbLine
 10
261.444487263027
 20
120.6628439765141
 30
0.0
 11
261.5444872630269
 21
120.5628439765141
 31
0.0
  0
LINE
  5
2997
330
1F
100
AcDbEntity
  8
AM_VIS
100
AcDbLine
 10
261.444487263027
 20
123.4628439765141
 30
0.0
 11
261.5444872630269
 21
123.5628439765141
 31
0.0
  0
LINE
  5
2998
330
1F
100
AcDbEntity
  8
AM_VIS
100
AcDbLine
 10
261.444487263027
 20
123.4628439765141
 30
0.0
 11
260.044487263027
 21
123.4628439765141
 31
0.0
  0
LINE
  5
2999
330
1F
100
AcDbEntity
  8
AM_VIS
100
AcDbLine
 10
256.444487263027
 20
123.4628439765141
 30
0.0
 11
254.844487263027
 21
123.4628439765141
 31
0.0
  0
LINE
  5
299A
330
1F
100
AcDbEntity
  8
AM_VIS
100
AcDbLine
 10
261.444487263027
 20
120.6628439765141
 30
0.0
 11
260.044487263027
 21
120.6628439765141
 31
0.0
  0
LINE
  5
299B
330
1F
100
AcDbEntity
  8
AM_VIS
100
AcDbLine
 10
256.444487263027
 20
120.6628439765141
 30
0.0
 11
254.844487263027
 21
120.6628439765141
 31
0.0
  0
LINE
  5
299C
330
1F
100
AcDbEntity
  8
AM_VIS
100
AcDbLine
 10
254.444487263027
 20
121.0628439765141
 30
0.0
 11
254.844487263027
 21
120.6628439765141
 31
0.0
  0
LINE
  5
299D
330
1F
100
AcDbEntity
  8
AM_VIS
100
AcDbLine
 10
254.444487263027
 20
123.0628439765141
 30
0.0
 11
254.844487263027
 21
123.4628439765141
 31
0.0
  0
LINE
  5
299F
330
1F
100
AcDbEntity
  8
AM_VIS
100
AcDbLine
 10
261.444487263027
 20
120.6628439765141
 30
0.0
 11
261.444487263027
 21
123.4628439765141
 31
0.0
  0
LINE
  5
29A0
330
1F
100
AcDbEntity
  8
AM_VIS
100
AcDbLine
 10
254.844487263027
 20
123.4628439765141
 30
0.0
 11
254.844487263027
 21
120.6628439765142
 31
0.0
  0
LINE
  5
29A1
330
1F
100
AcDbEntity
  8
AM_VIS
100
AcDbLine
 10
254.444487263027
 20
121.0628439765141
 30
0.0
 11
254.444487263027
 21
123.0628439765141
 31
0.0
  0
LINE
  5
29A2
330
1F
100
AcDbEntity
  8
AM_VIS
100
AcDbLine
 10
267.7642513108673
 20
128.9910472067896
 30
0.0
 11
266.1247232151866
 21
128.9910472067896
 31
0.0
  0
LINE
  5
29A3
330
1F
100
AcDbEntity
  8
AM_VIS
100
AcDbLine
 10
267.7642513108673
 20
125.5269455916519
 30
0.0
 11
266.1247232151866
 21
125.5269455916519
 31
0.0
  0
SPLINE
  5
29A4
330
1F
100
AcDbEntity
  8
AM_VIS
100
AcDbSpline
210
0.0
220
0.0
230
1.0
 70
    12
 71
     2
 72
     6
 73
     3
 74
     0
 42
0.0000000001
 43
0.0000000001
 40
2.490579903672046
 40
2.490579903672046
 40
2.490579903672046
 40
10.63699920800476
 40
10.63699920800476
 40
10.63699920800476
 10
266.1247232151867
 20
128.9910472067896
 30
0.0
 41
1.140916470546979
 10
265.1247232151867
 20
127.2589963992208
 30
0.0
 41
1.317416862786354
 10
266.1247232151867
 20
125.5269455916519
 30
-0.0000000000000001
 41
1.14091647054698
  0
SPLINE
  5
29A5
330
1F
100
AcDbEntity
  8
AM_VIS
100
AcDbSpline
210
0.0
220
0.0
230
1.0
 70
    12
 71
     2
 72
     6
 73
     3
 74
     0
 42
0.0000000001
 43
0.0000000001
 40
2.490579903672056
 40
2.490579903672056
 40
2.490579903672056
 40
10.63699920800476
 40
10.63699920800476
 40
10.63699920800476
 10
266.1247232151866
 20
125.5269455916519
 30
-0.0000000000000001
 41
1.14091647054698
 10
265.1247232151868
 20
122.0628439765142
 30
0.0000000000000001
 41
1.317416862786354
 10
266.1247232151866
 20
118.5987423613763
 30
0.0
 41
1.140916470546979
  0
SPLINE
  5
29A6
330
1F
100
AcDbEntity
  8
AM_VIS
100
AcDbSpline
210
0.0
220
0.0
230
1.0
 70
    12
 71
     2
 72
     6
 73
     3
 74
     0
 42
0.0000000001
 43
0.0000000001
 40
2.490579903672054
 40
2.490579903672054
 40
2.490579903672054
 40
10.63699920800477
 40
10.63699920800477
 40
10.63699920800477
 10
266.1247232151866
 20
118.5987423613763
 30
0.0
 41
1.140916470546979
 10
265.1247232151866
 20
116.8666915538074
 30
0.0
 41
1.317416862786353
 10
266.1247232151865
 20
115.1346407462385
 30
0.0
 41
1.140916470546978
  0
LINE
  5
29A7
330
1F
100
AcDbEntity
  8
AM_VIS
100
AcDbLine
 10
267.7642513108673
 20
118.5987423613763
 30
0.0
 11
266.1247232151866
 21
118.5987423613763
 31
0.0
  0
LINE
  5
29A8
330
1F
100
AcDbEntity
  8
AM_VIS
100
AcDbLine
 10
267.7642513108673
 20
115.1346407462386
 30
0.0
 11
266.1247232151866
 21
115.1346407462386
 31
0.0
  0
SPLINE
  5
29A9
330
1F
100
AcDbEntity
  8
AM_VIS
100
AcDbSpline
210
0.0
220
0.0
230
1.0
 70
    12
 71
     2
 72
     6
 73
     3
 74
     0
 42
0.0000000001
 43
0.0000000001
 40
2.49057990367205
 40
2.49057990367205
 40
2.49057990367205
 40
10.63699920800476
 40
10.63699920800476
 40
10.63699920800476
 10
267.7642513108675
 20
125.5269455916519
 30
0.0
 41
1.14091647054698
 10
268.7642513108674
 20
127.2589963992208
 30
0.0
 41
1.317416862786354
 10
267.7642513108675
 20
128.9910472067896
 30
0.0
 41
1.14091647054698
  0
SPLINE
  5
29AA
330
1F
100
AcDbEntity
  8
AM_VIS
100
AcDbSpline
210
0.0
220
0.0
230
1.0
 70
    12
 71
     2
 72
     6
 73
     3
 74
     0
 42
0.0000000001
 43
0.0000000001
 40
2.490579903672021
 40
2.490579903672021
 40
2.490579903672021
 40
10.63699920800474
 40
10.63699920800474
 40
10.63699920800474
 10
267.7642513108673
 20
115.1346407462385
 30
-0.0000000000000001
 41
1.140916470546978
 10
268.7642513108674
 20
116.8666915538074
 30
0.0
 41
1.317416862786354
 10
267.7642513108675
 20
118.5987423613765
 30
0.0000000000000001
 41
1.140916470546979
  0
SPLINE
  5
29AB
330
1F
100
AcDbEntity
  8
AM_VIS
100
AcDbSpline
210
0.0
220
0.0
230
1.0
 70
    12
 71
     2
 72
     6
 73
     3
 74
     0
 42
0.0000000001
 43
0.0000000001
 40
2.490579903672045
 40
2.490579903672045
 40
2.490579903672045
 40
10.63699920800475
 40
10.63699920800475
 40
10.63699920800475
 10
267.7642513108675
 20
118.5987423613765
 30
0.0000000000000001
 41
1.140916470546979
 10
268.7642513108674
 20
122.0628439765141
 30
0.0000000000000001
 41
1.317416862786353
 10
267.7642513108673
 20
125.5269455916519
 30
0.0
 41
1.14091647054698
  0
LINE
  5
29AC
330
1F
100
AcDbEntity
  8
AM_VIS
100
AcDbLine
 10
265.444487263027
 20
116.3128439765141
 30
0.0
 11
266.1247232151866
 21
115.1346407462386
 31
0.0
  0
LINE
  5
29AD
330
1F
100
AcDbEntity
  8
AM_VIS
100
AcDbLine
 10
265.444487263027
 20
127.8128439765141
 30
0.0
 11
266.1247232151866
 21
128.9910472067896
 31
0.0
  0
LINE
  5
29AE
330
1F
100
AcDbEntity
  8
AM_VIS
100
AcDbLine
 10
268.444487263027
 20
127.8128439765141
 30
0.0
 11
267.7642513108673
 21
128.9910472067896
 31
0.0
  0
LINE
  5
29AF
330
1F
100
AcDbEntity
  8
AM_VIS
100
AcDbLine
 10
268.444487263027
 20
116.3128439765141
 30
0.0
 11
267.7642513108673
 21
115.1346407462386
 31
0.0
  0
LINE
  5
29B5
330
1F
100
AcDbEntity
  8
AM_VIS
100
AcDbLine
 10
233.1034155108856
 20
115.1346407462387
 30
0.0
 11
239.1034155108856
 21
118.5987423613764
 31
0.0
  0
LINE
  5
29B6
330
1F
100
AcDbEntity
  8
AM_VIS
100
AcDbLine
 10
227.1034155108856
 20
118.5987423613764
 30
0.0
 11
233.1034155108856
 21
115.1346407462387
 31
0.0
  0
LINE
  5
29B7
330
1F
100
AcDbEntity
  8
AM_VIS
100
AcDbLine
 10
227.1034155108856
 20
125.5269455916519
 30
0.0
 11
227.1034155108856
 21
118.5987423613764
 31
0.0
  0
LINE
  5
29B8
330
1F
100
AcDbEntity
  8
AM_VIS
100
AcDbLine
 10
227.1034155108856
 20
125.5269455916519
 30
0.0
 11
233.1034155108856
 21
128.9910472067897
 31
0.0
  0
LINE
  5
29B9
330
1F
100
AcDbEntity
  8
AM_VIS
100
AcDbLine
 10
233.1034155108856
 20
128.9910472067897
 30
0.0
 11
239.1034155108856
 21
125.5269455916519
 31
0.0
  0
LINE
  5
29BA
330
1F
100
AcDbEntity
  8
AM_VIS
100
AcDbLine
 10
239.1034155108856
 20
125.5269455916519
 30
0.0
 11
239.1034155108856
 21
118.5987423613764
 31
0.0
  0
LINE
  5
29BB
330
1F
100
AcDbEntity
  8
AM_VIS
100
AcDbLine
 10
237.6034155108856
 20
124.2422934482844
 30
0.0
 11
237.6034155108856
 21
119.8833945047439
 31
0.0
  0
LINE
  5
29BC
330
1F
100
AcDbEntity
  8
AM_VIS
100
AcDbLine
 10
233.4659569020679
 20
117.076004923599
 30
0.0
 11
237.2408741197032
 21
119.2554543953693
 31
0.0
  0
LINE
  5
29BD
330
1F
100
AcDbEntity
  8
AM_VIS
100
AcDbLine
 10
228.9659569020678
 20
119.2554543953695
 30
0.0
 11
232.7408741197033
 21
117.076004923599
 31
0.0
  0
LINE
  5
29BE
330
1F
100
AcDbEntity
  8
AM_VIS
100
AcDbLine
 10
228.6034155108856
 20
124.2422934482846
 30
0.0
 11
228.6034155108856
 21
119.8833945047437
 31
0.0
  0
LINE
  5
29BF
330
1F
100
AcDbEntity
  8
AM_VIS
100
AcDbLine
 10
228.9659569020679
 20
124.8702335576589
 30
0.0
 11
232.7408741197032
 21
127.0496830294292
 31
0.0
  0
LINE
  5
29C0
330
1F
100
AcDbEntity
  8
AM_VIS
100
AcDbLine
 10
233.465956902068
 20
127.0496830294292
 30
0.0
 11
237.2408741197032
 21
124.8702335576591
 31
0.0
  0
CIRCLE
  5
29C1
330
1F
100
AcDbEntity
  8
AM_VIS
100
AcDbCircle
 10
233.1034155108856
 20
122.0628439765143
 30
0.0
 40
3.849999999999999
  0
CIRCLE
  5
29C2
330
1F
100
AcDbEntity
  8
AM_VIS
100
AcDbCircle
 10
233.1034155108856
 20
122.0628439765143
 30
0.0
 40
4.4
  0
ARC
  5
29C3
330
1F
100
AcDbEntity
  8
AM_VIS
100
AcDbCircle
 10
233.1034155108856
 20
122.0628439765143
 30
0.0
 40
5.0
100
AcDbArc
 50
25.8419327631649
 51
34.15806723683317
  0
ARC
  5
29C4
330
1F
100
AcDbEntity
  8
AM_VIS
100
AcDbCircle
 10
233.1034155108856
 20
122.0628439765143
 30
0.0
 40
5.0
100
AcDbArc
 50
325.8419327631668
 51
334.1580672368351
  0
ARC
  5
29C5
330
1F
100
AcDbEntity
  8
AM_VIS
100
AcDbCircle
 10
233.1034155108856
 20
122.0628439765143
 30
0.0
 40
5.0
100
AcDbArc
 50
265.8419327631677
 51
274.1580672368323
  0
ARC
  5
29C6
330
1F
100
AcDbEntity
  8
AM_VIS
100
AcDbCircle
 10
233.1034155108856
 20
122.0628439765143
 30
0.0
 40
5.0
100
AcDbArc
 50
205.8419327631686
 51
214.1580672368295
  0
ARC
  5
29C7
330
1F
100
AcDbEntity
  8
AM_VIS
100
AcDbCircle
 10
233.1034155108856
 20
122.0628439765143
 30
0.0
 40
5.0
100
AcDbArc
 50
145.8419327631668
 51
154.1580672368314
  0
ARC
  5
29C8
330
1F
100
AcDbEntity
  8
AM_VIS
100
AcDbCircle
 10
233.1034155108856
 20
122.0628439765143
 30
0.0
 40
5.0
100
AcDbArc
 50
85.84193276316765
 51
94.15806723683232
  0
LINE
  5
29C9
330
1F
100
AcDbEntity
  8
AM_VIS
100
AcDbLine
 10
233.1034155108855
 20
118.8874174959712
 30
0.0
 11
235.8534155108856
 21
120.4751307362427
 31
0.0
  0
LINE
  5
29CA
330
1F
100
AcDbEntity
  8
AM_VIS
100
AcDbLine
 10
230.3534155108855
 20
120.4751307362427
 30
0.0
 11
233.1034155108856
 21
118.8874174959712
 31
0.0
  0
LINE
  5
29CB
330
1F
100
AcDbEntity
  8
AM_VIS
100
AcDbLine
 10
230.3534155108856
 20
123.6505572167856
 30
0.0
 11
230.3534155108856
 21
120.4751307362427
 31
0.0
  0
LINE
  5
29CC
330
1F
100
AcDbEntity
  8
AM_VIS
100
AcDbLine
 10
235.8534155108856
 20
123.6505572167856
 30
0.0
 11
235.8534155108856
 21
120.4751307362427
 31
0.0
  0
LINE
  5
29CD
330
1F
100
AcDbEntity
  8
AM_VIS
100
AcDbLine
 10
230.3534155108856
 20
123.6505572167856
 30
0.0
 11
233.1034155108856
 21
125.2382704570571
 31
0.0
  0
LINE
  5
29CE
330
1F
100
AcDbEntity
  8
AM_VIS
100
AcDbLine
 10
233.1034155108856
 20
125.2382704570571
 30
0.0
 11
235.8534155108856
 21
123.6505572167856
 31
0.0
  0
LINE
  5
29CF
330
1F
100
AcDbEntity
  8
AM_VIS
100
AcDbLine
 10
233.1034155108854
 20
118.8874174959712
 30
0.0
 11
235.8534155108856
 21
120.4751307362427
 31
0.0
  0
LINE
  5
29D0
330
1F
100
AcDbEntity
  8
AM_VIS
100
AcDbLine
 10
230.3534155108855
 20
120.4751307362427
 30
0.0
 11
233.1034155108856
 21
118.8874174959712
 31
0.0
  0
LINE
  5
29D1
330
1F
100
AcDbEntity
  8
AM_VIS
100
AcDbLine
 10
230.3534155108855
 20
123.6505572167856
 30
0.0
 11
230.3534155108855
 21
120.4751307362427
 31
0.0
  0
LINE
  5
29D2
330
1F
100
AcDbEntity
  8
AM_VIS
100
AcDbLine
 10
235.8534155108855
 20
123.6505572167856
 30
0.0
 11
235.8534155108855
 21
120.4751307362427
 31
0.0
  0
LINE
  5
29D3
330
1F
100
AcDbEntity
  8
AM_VIS
100
AcDbLine
 10
230.3534155108855
 20
123.6505572167856
 30
0.0
 11
233.1034155108855
 21
125.2382704570571
 31
0.0
  0
LINE
  5
29D4
330
1F
100
AcDbEntity
  8
AM_VIS
100
AcDbLine
 10
233.1034155108855
 20
125.2382704570571
 30
0.0
 11
235.8534155108855
 21
123.6505572167856
 31
0.0
  0
CIRCLE
  5
29D5
330
1F
100
AcDbEntity
  8
AM_VIS
100
AcDbCircle
 10
233.1034155108855
 20
122.0628439765141
 30
0.0
 40
2.65
  0
CIRCLE
  5
29D6
330
1F
100
AcDbEntity
  8
AM_VIS
100
AcDbCircle
 10
233.1034155108855
 20
122.0628439765141
 30
0.0
 40
1.55
  0
CIRCLE
  5
29D7
330
1F
100
AcDbEntity
  8
AM_VIS
100
AcDbCircle
 10
233.1034155108856
 20
122.0628439765141
 30
0.0
 40
1.399999999999999
  0
CIRCLE
  5
29D8
330
1F
100
AcDbEntity
  8
AM_VIS
100
AcDbCircle
 10
233.1034155108856
 20
122.0628439765141
 30
0.0
 40
0.9999999999999998
  0
LINE
  5
29D9
330
1F
100
AcDbEntity
  8
AM_VIS
100
AcDbLine
 10
227.1034155108856
 20
125.5269455916519
 30
0.0
 11
227.1034155108856
 21
118.5987423613764
 31
0.0
  0
LINE
  5
29DA
330
1F
100
AcDbEntity
  8
AM_VIS
100
AcDbLine
 10
227.1034155108856
 20
125.5269455916519
 30
0.0
 11
233.1034155108856
 21
128.9910472067897
 31
0.0
  0
LINE
  5
29DB
330
1F
100
AcDbEntity
  8
AM_VIS
100
AcDbLine
 10
233.1034155108856
 20
128.9910472067897
 30
0.0
 11
239.1034155108856
 21
125.5269455916519
 31
0.0
  0
LINE
  5
29DC
330
1F
100
AcDbEntity
  8
AM_VIS
100
AcDbLine
 10
239.1034155108856
 20
125.5269455916519
 30
0.0
 11
239.1034155108856
 21
118.5987423613765
 31
0.0
  0
LINE
  5
29DD
330
1F
100
AcDbEntity
  8
AM_VIS
100
AcDbLine
 10
233.1034155108856
 20
115.1346407462387
 30
0.0
 11
239.1034155108856
 21
118.5987423613765
 31
0.0
  0
LINE
  5
29DE
330
1F
100
AcDbEntity
  8
AM_VIS
100
AcDbLine
 10
227.1034155108856
 20
118.5987423613764
 30
0.0
 11
233.1034155108856
 21
115.1346407462387
 31
0.0
  0
CIRCLE
  5
29DF
330
1F
100
AcDbEntity
  8
AM_VIS
100
AcDbCircle
 10
233.1034155108856
 20
122.0628439765143
 30
0.0
 40
5.749999999999999
  0
CIRCLE
  5
29E0
330
1F
100
AcDbEntity
  8
AM_VIS
100
AcDbCircle
 10
233.1034155108856
 20
122.0628439765143
 30
0.0
 40
5.019615242270666
  0
ARC
  5
29E1
330
1F
100
AcDbEntity
  8
AM_VIS
100
AcDbCircle
 10
233.1034155108856
 20
122.0628439765143
 30
0.0
 40
2.95
100
AcDbArc
 50
218.78093020738
 51
261.2190697926193
  0
ARC
  5
29E2
330
1F
100
AcDbEntity
  8
AM_VIS
100
AcDbCircle
 10
233.1034155108856
 20
122.0628439765143
 30
0.0
 40
2.95
100
AcDbArc
 50
158.7809302073772
 51
201.2190697926227
  0
ARC
  5
29E3
330
1F
100
AcDbEntity
  8
AM_VIS
100
AcDbCircle
 10
233.1034155108856
 20
122.0628439765143
 30
0.0
 40
2.95
100
AcDbArc
 50
98.7809302073774
 51
141.21906979262
  0
ARC
  5
29E4
330
1F
100
AcDbEntity
  8
AM_VIS
100
AcDbCircle
 10
233.1034155108856
 20
122.0628439765143
 30
0.0
 40
2.95
100
AcDbArc
 50
38.78093020738
 51
81.21906979262261
  0
ARC
  5
29E5
330
1F
100
AcDbEntity
  8
AM_VIS
100
AcDbCircle
 10
233.1034155108856
 20
122.0628439765143
 30
0.0
 40
2.95
100
AcDbArc
 50
338.7809302073805
 51
21.21906979261944
  0
ARC
  5
29E6
330
1F
100
AcDbEntity
  8
AM_VIS
100
AcDbCircle
 10
233.1034155108856
 20
122.0628439765143
 30
0.0
 40
2.95
100
AcDbArc
 50
278.7809302073774
 51
321.21906979262
  0
LINE
  5
29E7
330
1F
100
AcDbEntity
  8
AM_VIS
100
AcDbLine
 10
233.1034155108856
 20
192.4455351221285
 30
0.0
 11
239.1034155108856
 21
195.9096367372663
 31
0.0
  0
LINE
  5
29E8
330
1F
100
AcDbEntity
  8
AM_VIS
100
AcDbLine
 10
227.1034155108856
 20
195.9096367372663
 30
0.0
 11
233.1034155108856
 21
192.4455351221285
 31
0.0
  0
LINE
  5
29E9
330
1F
100
AcDbEntity
  8
AM_VIS
100
AcDbLine
 10
227.1034155108855
 20
202.8378399675418
 30
0.0
 11
227.1034155108855
 21
195.9096367372663
 31
0.0
  0
LINE
  5
29EA
330
1F
100
AcDbEntity
  8
AM_VIS
100
AcDbLine
 10
227.1034155108856
 20
202.8378399675418
 30
0.0
 11
233.1034155108856
 21
206.3019415826795
 31
0.0
  0
LINE
  5
29EB
330
1F
100
AcDbEntity
  8
AM_VIS
100
AcDbLine
 10
233.1034155108856
 20
206.3019415826795
 30
0.0
 11
239.1034155108855
 21
202.8378399675418
 31
0.0
  0
LINE
  5
29EC
330
1F
100
AcDbEntity
  8
AM_VIS
100
AcDbLine
 10
239.1034155108855
 20
202.8378399675418
 30
0.0
 11
239.1034155108855
 21
195.9096367372663
 31
0.0
  0
LINE
  5
29ED
330
1F
100
AcDbEntity
  8
AM_VIS
100
AcDbLine
 10
237.6034155108856
 20
201.5531878241743
 30
0.0
 11
237.6034155108856
 21
197.1942888806337
 31
0.0
  0
LINE
  5
29EE
330
1F
100
AcDbEntity
  8
AM_VIS
100
AcDbLine
 10
233.4659569020679
 20
194.3868992994889
 30
0.0
 11
237.2408741197032
 21
196.5663487712592
 31
0.0
  0
LINE
  5
29EF
330
1F
100
AcDbEntity
  8
AM_VIS
100
AcDbLine
 10
228.9659569020678
 20
196.5663487712593
 30
0.0
 11
232.7408741197033
 21
194.3868992994888
 31
0.0
  0
LINE
  5
29F0
330
1F
100
AcDbEntity
  8
AM_VIS
100
AcDbLine
 10
228.6034155108856
 20
201.5531878241745
 30
0.0
 11
228.6034155108856
 21
197.1942888806336
 31
0.0
  0
LINE
  5
29F1
330
1F
100
AcDbEntity
  8
AM_VIS
100
AcDbLine
 10
228.9659569020678
 20
202.1811279335488
 30
0.0
 11
232.7408741197032
 21
204.3605774053192
 31
0.0
  0
LINE
  5
29F2
330
1F
100
AcDbEntity
  8
AM_VIS
100
AcDbLine
 10
233.4659569020679
 20
204.3605774053192
 30
0.0
 11
237.2408741197032
 21
202.1811279335489
 31
0.0
  0
CIRCLE
  5
29F3
330
1F
100
AcDbEntity
  8
AM_VIS
100
AcDbCircle
 10
233.1034155108855
 20
199.373738352404
 30
0.0
 40
3.849999999999999
  0
CIRCLE
  5
29F4
330
1F
100
AcDbEntity
  8
AM_VIS
100
AcDbCircle
 10
233.1034155108855
 20
199.373738352404
 30
0.0
 40
4.4
  0
ARC
  5
29F5
330
1F
100
AcDbEntity
  8
AM_VIS
100
AcDbCircle
 10
233.1034155108856
 20
199.373738352404
 30
0.0
 40
5.0
100
AcDbArc
 50
25.8419327631649
 51
34.15806723683317
  0
ARC
  5
29F6
330
1F
100
AcDbEntity
  8
AM_VIS
100
AcDbCircle
 10
233.1034155108856
 20
199.373738352404
 30
0.0
 40
5.0
100
AcDbArc
 50
325.8419327631668
 51
334.1580672368351
  0
ARC
  5
29F7
330
1F
100
AcDbEntity
  8
AM_VIS
100
AcDbCircle
 10
233.1034155108856
 20
199.373738352404
 30
0.0
 40
5.0
100
AcDbArc
 50
265.8419327631677
 51
274.1580672368323
  0
ARC
  5
29F8
330
1F
100
AcDbEntity
  8
AM_VIS
100
AcDbCircle
 10
233.1034155108856
 20
199.373738352404
 30
0.0
 40
5.0
100
AcDbArc
 50
205.8419327631686
 51
214.1580672368295
  0
ARC
  5
29F9
330
1F
100
AcDbEntity
  8
AM_VIS
100
AcDbCircle
 10
233.1034155108856
 20
199.373738352404
 30
0.0
 40
5.0
100
AcDbArc
 50
145.8419327631668
 51
154.1580672368314
  0
ARC
  5
29FA
330
1F
100
AcDbEntity
  8
AM_VIS
100
AcDbCircle
 10
233.1034155108856
 20
199.373738352404
 30
0.0
 40
5.0
100
AcDbArc
 50
85.84193276316765
 51
94.15806723683232
  0
CIRCLE
  5
29FB
330
1F
100
AcDbEntity
  8
AM_VIS
100
AcDbCircle
 10
233.1034155108855
 20
199.373738352404
 30
0.0
 40
1.5
  0
CIRCLE
  5
29FC
330
1F
100
AcDbEntity
  8
AM_VIS
100
AcDbCircle
 10
233.1034155108855
 20
199.373738352404
 30
0.0
 40
1.399999999999999
  0
CIRCLE
  5
29FD
330
1F
100
AcDbEntity
  8
AM_VIS
100
AcDbCircle
 10
233.1034155108855
 20
199.373738352404
 30
0.0
 40
0.9999999999999998
  0
LINE
  5
29FE
330
1F
100
AcDbEntity
  8
AM_VIS
100
AcDbLine
 10
227.1034155108855
 20
202.8378399675418
 30
0.0
 11
227.1034155108855
 21
195.9096367372663
 31
0.0
  0
LINE
  5
29FF
330
1F
100
AcDbEntity
  8
AM_VIS
100
AcDbLine
 10
227.1034155108855
 20
202.8378399675418
 30
0.0
 11
233.1034155108856
 21
206.3019415826795
 31
0.0
  0
LINE
  5
2A00
330
1F
100
AcDbEntity
  8
AM_VIS
100
AcDbLine
 10
233.1034155108856
 20
206.3019415826795
 30
0.0
 11
239.1034155108855
 21
202.8378399675418
 31
0.0
  0
LINE
  5
2A01
330
1F
100
AcDbEntity
  8
AM_VIS
100
AcDbLine
 10
239.1034155108855
 20
202.8378399675418
 30
0.0
 11
239.1034155108855
 21
195.9096367372663
 31
0.0
  0
LINE
  5
2A02
330
1F
100
AcDbEntity
  8
AM_VIS
100
AcDbLine
 10
233.1034155108856
 20
192.4455351221285
 30
0.0
 11
239.1034155108855
 21
195.9096367372663
 31
0.0
  0
LINE
  5
2A03
330
1F
100
AcDbEntity
  8
AM_VIS
100
AcDbLine
 10
227.1034155108855
 20
195.9096367372663
 30
0.0
 11
233.1034155108856
 21
192.4455351221285
 31
0.0
  0
CIRCLE
  5
2A04
330
1F
100
AcDbEntity
  8
AM_VIS
100
AcDbCircle
 10
233.1034155108855
 20
199.373738352404
 30
0.0
 40
5.749999999999999
  0
CIRCLE
  5
2A05
330
1F
100
AcDbEntity
  8
AM_VIS
100
AcDbCircle
 10
233.1034155108855
 20
199.373738352404
 30
0.0
 40
5.019615242270666
  0
CIRCLE
  5
2A06
330
1F
100
AcDbEntity
  8
AM_VIS
100
AcDbCircle
 10
233.1034155108855
 20
201.573738352404
 30
0.0
 40
0.4
  0
CIRCLE
  5
2A07
330
1F
100
AcDbEntity
  8
AM_VIS
100
AcDbCircle
 10
233.1034155108855
 20
199.373738352404
 30
0.0
 40
2.95
  0
LINE
  5
2A08
330
1F
100
AcDbEntity
  8
AM_7
100
AcDbLine
 10
233.1034155108856
 20
122.0628439765141
 30
0.0
 11
241.1034155108856
 21
122.0628439765141
 31
0.0
1001
GENIUS_GENOREF_13
1005
2A13
  0
LINE
  5
2A09
330
1F
100
AcDbEntity
  8
AM_7
100
AcDbLine
 10
233.1034155108856
 20
122.0628439765141
 30
0.0
 11
233.1034155108856
 21
130.0628439765142
 31
0.0
1001
GENIUS_GENOREF_13
1005
2A13
  0
LINE
  5
2A0A
330
1F
100
AcDbEntity
  8
AM_7
100
AcDbLine
 10
233.1034155108856
 20
122.0628439765141
 30
0.0
 11
225.1034155108855
 21
122.0628439765141
 31
0.0
1001
GENIUS_GENOREF_13
1005
2A13
  0
LINE
  5
2A0B
330
1F
100
AcDbEntity
  8
AM_7
100
AcDbLine
 10
233.1034155108856
 20
122.0628439765141
 30
0.0
 11
233.1034155108856
 21
114.0628439765141
 31
0.0
1001
GENIUS_GENOREF_13
1005
2A13
  0
LINE
  5
2A0C
330
1F
100
AcDbEntity
  8
AM_7
100
AcDbLine
 10
233.1034155108855
 20
199.373738352404
 30
0.0
 11
241.1034155108855
 21
199.373738352404
 31
0.0
1001
GENIUS_GENOREF_13
1005
2A12
  0
LINE
  5
2A0D
330
1F
100
AcDbEntity
  8
AM_7
100
AcDbLine
 10
233.1034155108855
 20
199.373738352404
 30
0.0
 11
233.1034155108855
 21
207.3737383524041
 31
0.0
1001
GENIUS_GENOREF_13
1005
2A12
  0
LINE
  5
2A0E
330
1F
100
AcDbEntity
  8
AM_7
100
AcDbLine
 10
233.1034155108855
 20
199.373738352404
 30
0.0
 11
225.1034155108854
 21
199.373738352404
 31
0.0
1001
GENIUS_GENOREF_13
1005
2A12
  0
LINE
  5
2A0F
330
1F
100
AcDbEntity
  8
AM_7
100
AcDbLine
 10
233.1034155108855
 20
199.373738352404
 30
0.0
 11
233.1034155108855
 21
191.3737383524039
 31
0.0
1001
GENIUS_GENOREF_13
1005
2A12
  0
DIMENSION
  5
2A10
330
1F
100
AcDbEntity
  8
AM_5
100
AcDbDimension
  2
*D19
 10
239.1034155108856
 20
182.4248091772662
 30
0.0
 11
233.1034155108856
 21
184.8751536654552
 31
0.0
 70
    32
 71
     5
 42
12.00000000000008
  3
AM_ISO$0
100
AcDbAlignedDimension
 13
227.1034155108855
 23
195.9096367372663
 33
0.0
 14
239.1034155108856
 24
195.9096367372663
 34
0.0
100
AcDbRotatedDimension
1001
ACAD
1000
DSTYLE
1002
{
1070
    40
1040
1.0
1070
   144
1040
1.0
1070
   272
1070
     8
1002
}
  0
DIMENSION
  5
2A11
330
1F
100
AcDbEntity
  8
AM_5
100
AcDbDimension
  2
*D20
 10
239.1034155108856
 20
105.1139148013764
 30
0.0
 11
233.1034155108856
 21
107.5642592895654
 31
0.0
 70
    32
 71
     5
 42
12.00000000000008
  3
AM_ISO$0
100
AcDbAlignedDimension
 13
227.1034155108855
 23
118.5987423613765
 33
0.0
 14
239.1034155108856
 24
118.5987423613765
 34
0.0
100
AcDbRotatedDimension
1001
ACAD
1000
DSTYLE
1002
{
1070
    40
1040
1.0
1070
   144
1040
1.0
1070
   272
1070
     8
1002
}
  0
POINT
  5
2A12
330
1F
100
AcDbEntity
  8
0
 60
     1
100
AcDbPoint
 10
115.8480508230048
 20
0.0000000000000568
 30
0.0
1001
GENIUS_GENODEF_13
1002
{
1000
HIER
1070
    10
1002
}
1002
{
1000
MANEDIT
1070
     0
1002
}
1002
{
1000
NOSEL
1070
     0
1002
}
1002
{
1000
BEHIND
1070
     0
1002
}
1002
{
1000
OTHER
1070
     0
1002
}
1002
{
1000
REACTOR
1002
}
1001
GENIUS_GENOENT_13
1002
{
1000
MYREF
1005
2A12
1002
}
1002
{
1000
GRP
1005
0
1002
}
1001
GENIUS_GENOBJ-N-CRS_13
1002
{
1000
OWNER
1000
GEN
1002
}
1001
GENIUS_GENOLIS_13
1002
{
1000
ENT
1005
2A0F
1005
2A0E
1005
2A0D
1005
2A0C
1002
}
  0
POINT
  5
2A13
330
1F
100
AcDbEntity
  8
0
 60
     1
100
AcDbPoint
 10
115.8480508230048
 20
0.0000000000000568
 30
0.0
1001
GENIUS_GENOENT_13
1002
{
1000
MYREF
1005
2A13
1002
}
1002
{
1000
GRP
1005
0
1002
}
1001
GENIUS_GENOBJ-N-CRS_13
1002
{
1000
OWNER
1000
GEN
1002
}
1001
GENIUS_GENOLIS_13
1002
{
1000
ENT
1005
2A0B
1005
2A0A
1005
2A09
1005
2A08
1002
}
1001
GENIUS_GENODEF_13
1002
{
1000
HIER
1070
    10
1002
}
1002
{
1000
MANEDIT
1070
     0
1002
}
1002
{
1000
NOSEL
1070
     0
1002
}
1002
{
1000
BEHIND
1070
     0
1002
}
1002
{
1000
OTHER
1070
     0
1002
}
1002
{
1000
REACTOR
1002
}
  0
LINE
  5
2A3E
330
1F
100
AcDbEntity
  8
AM_7
100
AcDbLine
 10
252.444487263027
 20
199.373738352404
 30
0.0
 11
290.944487263027
 21
199.373738352404
 31
0.0
1001
GENIUS_GENOBJ-N-CEN_13
1002
{
1000
OWNER
1000
GEN
1002
}
1001
GENIUS_GENODEF_13
1002
{
1000
HIER
1070
     0
1002
}
1002
{
1000
MANEDIT
1070
     0
1002
}
1002
{
1000
NOSEL
1070
     0
1002
}
1002
{
1000
BEHIND
1070
     0
1002
}
1002
{
1000
OTHER
1070
     0
1002
}
1002
{
1000
REACTOR
1002
}
1001
GENIUS_GENCEN_19
1002
{
1040
2.0
1002
}
  0
DIMENSION
  5
2A3F
330
1F
100
AcDbEntity
  8
AM_5
100
AcDbDimension
  2
*D21
 10
263.444487263027
 20
174.154083232404
 30
0.0
 11
258.944487263027
 21
176.604083232404
 31
0.0
 70
    32
 71
     5
 42
9.0
  3
AM_ISO$0
100
AcDbAlignedDimension
 13
254.444487263027
 23
198.3737383524039
 33
0.0
 14
263.444487263027
 24
195.0737383524039
 34
0.0
100
AcDbRotatedDimension
1001
ACAD
1000
DSTYLE
1002
{
1070
    40
1040
1.0
1070
   144
1040
1.0
1070
   272
1070
     8
1002
}
  0
DIMENSION
  5
2A40
330
1F
100
AcDbEntity
  8
AM_5
100
AcDbDimension
  2
*D22
 10
288.944487263027
 20
174.154083232404
 30
0.0
 11
276.194487263027
 21
176.604083232404
 31
0.0
 70
    32
  1
S
 71
     5
 42
25.5
  3
AM_ISO$0
100
AcDbAlignedDimension
 13
263.444487263027
 23
195.0737383524039
 33
0.0
 14
288.944487263027
 24
195.1237383524039
 34
0.0
100
AcDbRotatedDimension
1001
ACAD
1000
DSTYLE
1002
{
1070
    40
1040
1.0
1070
   144
1040
1.0
1070
   272
1070
     8
1002
}
  0
DIMENSION
  5
2A41
330
1F
100
AcDbEntity
  8
AM_5
100
AcDbDimension
  2
*D23
 10
288.944487263027
 20
166.154083232404
 30
0.0
 11
271.694487263027
 21
168.604083232404
 31
0.0
 70
    32
  1
Z
 71
     5
 42
34.5
  3
AM_ISO$0
100
AcDbAlignedDimension
 13
254.444487263027
 23
198.3737383524039
 33
0.0
 14
288.944487263027
 24
195.1237383524039
 34
0.0
100
AcDbRotatedDimension
1001
ACAD
1000
DSTYLE
1002
{
1070
    40
1040
1.0
1070
   144
1040
1.0
1070
   272
1070
     8
1002
}
  0
DIMENSION
  5
2A42
330
1F
100
AcDbEntity
  8
AM_5
100
AcDbDimension
  2
*D24
 10
300.944487263027
 20
203.6237383524039
 30
0.0
 11
298.4944872630269
 21
214.6240269406571
 31
0.0
 70
    32
  1
%%c<>{}{\C5; d9}
 71
     5
 42
8.5
  3
AM_ISO$0
100
AcDbAlignedDimension
 13
288.944487263027
 23
195.1237383524039
 33
0.0
 14
288.944487263027
 24
203.6237383524039
 34
0.0
 50
90.0
100
AcDbRotatedDimension
1001
GENIUS_GENDTOL_13
1000
FitTxt
1000
d9
1000
{$3 $T}
1040
12.0
1001
ACAD
1000
DSTYLE
1002
{
1070
   286
1070
     0
1070
   284
1070
     8
1070
    48
1040
0.1
1070
    47
1040
0.1
1070
   272
1070
     8
1070
   274
1070
     3
1002
}
  0
DIMENSION
  5
2A44
330
1F
100
AcDbEntity
  8
AM_5
100
AcDbDimension
  2
*D25
 10
282.944487263027
 20
182.1540832324037
 30
0.0
 11
273.194487263027
 21
184.6040832324037
 31
0.0
 70
    32
  1
F
 71
     5
 42
19.5
  3
AM_ISO$0
100
AcDbAlignedDimension
 13
263.444487263027
 23
195.0737383524039
 33
0.0
 14
282.944487263027
 24
195.1237383524039
 34
0.0
100
AcDbRotatedDimension
1001
ACAD
1000
DSTYLE
1002
{
1070
    40
1040
1.0
1070
   144
1040
1.0
1070
   272
1070
     8
1002
}
  0
INSERT
  5
2A45
330
1F
100
AcDbEntity
  8
0
100
AcDbBlockReference
  2
A$C01AA3924
 10
279.444487263027
 20
199.373738352404
 30
0.0
  0
DIMENSION
  5
2AD4
330
1F
100
AcDbEntity
  8
AM_5
100
AcDbDimension
  2
*D26
 10
263.444487263027
 20
96.84318885651419
 30
0.0
 11
258.944487263027
 21
99.29318885651419
 31
0.0
 70
    32
 71
     5
 42
9.0
  3
AM_ISO$0
100
AcDbAlignedDimension
 13
254.444487263027
 23
121.0628439765141
 33
0.0
 14
263.444487263027
 24
117.7628439765141
 34
0.0
100
AcDbRotatedDimension
1001
ACAD
1000
DSTYLE
1002
{
1070
    40
1040
1.0
1070
   144
1040
1.0
1070
   272
1070
     8
1002
}
  0
DIMENSION
  5
2AD5
330
1F
100
AcDbEntity
  8
AM_5
100
AcDbDimension
  2
*D27
 10
288.944487263027
 20
96.84318885651419
 30
0.0
 11
276.194487263027
 21
99.29318885651419
 31
0.0
 70
    32
  1
S
 71
     5
 42
25.5
  3
AM_ISO$0
100
AcDbAlignedDimension
 13
263.444487263027
 23
117.7628439765141
 33
0.0
 14
288.944487263027
 24
117.8128439765141
 34
0.0
100
AcDbRotatedDimension
1001
ACAD
1000
DSTYLE
1002
{
1070
    40
1040
1.0
1070
   144
1040
1.0
1070
   272
1070
     8
1002
}
  0
DIMENSION
  5
2AD6
330
1F
100
AcDbEntity
  8
AM_5
100
AcDbDimension
  2
*D28
 10
288.944487263027
 20
88.84318885651419
 30
0.0
 11
271.694487263027
 21
91.2931888565142
 31
0.0
 70
    32
  1
Z
 71
     5
 42
34.5
  3
AM_ISO$0
100
AcDbAlignedDimension
 13
254.444487263027
 23
121.0628439765141
 33
0.0
 14
288.944487263027
 24
117.8128439765141
 34
0.0
100
AcDbRotatedDimension
1001
ACAD
1000
DSTYLE
1002
{
1070
    40
1040
1.0
1070
   144
1040
1.0
1070
   272
1070
     8
1002
}
  0
DIMENSION
  5
2AD7
330
1F
100
AcDbEntity
  8
AM_5
100
AcDbDimension
  2
*D29
 10
300.944487263027
 20
126.3128439765141
 30
0.0
 11
298.494487263027
 21
137.3131325647672
 31
0.0
 70
    32
  1
%%c<>{}{\C5; d9}
 71
     5
 42
8.5
  3
AM_ISO$0
100
AcDbAlignedDimension
 13
288.944487263027
 23
117.8128439765141
 33
0.0
 14
288.944487263027
 24
126.3128439765141
 34
0.0
 50
90.0
100
AcDbRotatedDimension
1001
GENIUS_GENDTOL_13
1000
FitTxt
1000
d9
1000
{$3 $T}
1040
12.0
1001
ACAD
1000
DSTYLE
1002
{
1070
   286
1070
     0
1070
   284
1070
     8
1070
    48
1040
0.1
1070
    47
1040
0.1
1070
   272
1070
     8
1070
   274
1070
     3
1002
}
  0
DIMENSION
  5
2AD8
330
1F
100
AcDbEntity
  8
AM_5
100
AcDbDimension
  2
*D30
 10
261.444487263027
 20
104.8431888565142
 30
0.0
 11
257.944487263027
 21
107.2931888565142
 31
0.0
 70
    32
 71
     5
 42
7.0
  3
AM_ISO$0
100
AcDbAlignedDimension
 13
254.444487263027
 23
121.0628439765141
 33
0.0
 14
261.444487263027
 24
120.6628439765141
 34
0.0
100
AcDbRotatedDimension
1001
ACAD
1000
DSTYLE
1002
{
1070
   173
1070
     1
1070
   174
1070
     1
1070
   272
1070
     8
1070
   344
1005
2633
1002
}
  0
DIMENSION
  5
2AD9
330
1F
100
AcDbEntity
  8
AM_5
100
AcDbDimension
  2
*D31
 10
282.944487263027
 20
104.8431888565139
 30
0.0
 11
273.194487263027
 21
107.2931888565139
 31
0.0
 70
    32
  1
F
 71
     5
 42
19.5
  3
AM_ISO$0
100
AcDbAlignedDimension
 13
263.444487263027
 23
117.7628439765141
 33
0.0
 14
282.944487263027
 24
117.8128439765141
 34
0.0
100
AcDbRotatedDimension
1001
ACAD
1000
DSTYLE
1002
{
1070
    40
1040
1.0
1070
   144
1040
1.0
1070
   272
1070
     8
1002
}
  0
INSERT
  5
2ADC
330
1F
100
AcDbEntity
  8
0
100
AcDbBlockReference
  2
A$C01AA3924
 10
279.444487263027
 20
122.0628439765141
 30
0.0
  0
LINE
  5
2B6C
330
1F
100
AcDbEntity
  8
AM_7
100
AcDbLine
 10
252.444487263027
 20
122.0628439765141
 30
0.0
 11
290.944487263027
 21
122.0628439765141
 31
0.0
1001
GENIUS_GENODEF_13
1002
{
1000
HIER
1070
     0
1002
}
1002
{
1000
MANEDIT
1070
     0
1002
}
1002
{
1000
NOSEL
1070
     0
1002
}
1002
{
1000
BEHIND
1070
     0
1002
}
1002
{
1000
OTHER
1070
     0
1002
}
1002
{
1000
REACTOR
1002
}
1001
GENIUS_GENOBJ-N-CEN_13
1002
{
1000
OWNER
1000
GEN
1002
}
1001
GENIUS_GENCEN_19
1002
{
1040
2.0
1002
}
  0
LINE
  5
2B6D
330
1F
100
AcDbEntity
  8
0
 62
     3
100
AcDbLine
 10
254.644487263027
 20
123.2628439765141
 30
0.0
 11
256.444487263027
 21
123.2628439765141
 31
0.0
  0
LINE
  5
2B6E
330
1F
100
AcDbEntity
  8
0
 62
     3
100
AcDbLine
 10
260.0444872630269
 20
123.2628439765141
 30
0.0
 11
261.444487263027
 21
123.2628439765141
 31
0.0
  0
LINE
  5
2B6F
330
1F
100
AcDbEntity
  8
0
 62
     3
100
AcDbLine
 10
254.644487263027
 20
120.8628439765141
 30
0.0
 11
256.444487263027
 21
120.8628439765141
 31
0.0
  0
LINE
  5
2B70
330
1F
100
AcDbEntity
  8
0
 62
     3
100
AcDbLine
 10
260.0444872630269
 20
120.8628439765141
 30
0.0
 11
261.444487263027
 21
120.8628439765141
 31
0.0
  0
DIMENSION
  5
2B71
330
1F
100
AcDbEntity
  8
AM_5
100
AcDbDimension
  2
*D32
 10
93.45553316855212
 20
197.8737383524038
 30
0.0
 11
93.45553316855209
 21
212.9987383524039
 31
0.0
 70
   160
  1
%%c<>{}{\C5; f8}
 71
     5
 42
3.000000000000113
  3
AM_ISO$0
100
AcDbAlignedDimension
 13
98.90599866821212
 23
200.873738352404
 33
0.0
 14
98.90599866821206
 24
197.8737383524038
 34
0.0
 50
90.0
100
AcDbRotatedDimension
1001
GENIUS_GENDTOL_13
1000
FitTxt
1000
f8
1000
{$3 $T}
1040
3.0
1001
ACAD
1000
DSTYLE
1002
{
1070
   286
1070
     0
1070
   284
1070
     8
1070
    48
1040
0.1
1070
    47
1040
0.1
1070
   272
1070
     8
1070
   274
1070
     3
1002
}
  0
LINE
  5
2BF4
330
1F
100
AcDbEntity
  8
0
100
AcDbLine
 10
98.40599866821207
 20
198.3737383524038
 30
0.0
 11
98.40599866821207
 21
200.373738352404
 31
0.0
  0
LINE
  5
2C0B
330
1F
100
AcDbEntity
  8
0
100
AcDbLine
 10
98.40599866821207
 20
198.3737383524038
 30
0.0
 11
98.90599866821208
 21
197.8737383524038
 31
0.0
  0
LINE
  5
2C0C
330
1F
100
AcDbEntity
  8
0
100
AcDbLine
 10
98.40599866821207
 20
200.373738352404
 30
0.0
 11
98.90599866821208
 21
200.873738352404
 31
0.0
  0
LINE
  5
2C25
330
1F
100
AcDbEntity
  8
AM_VIS
100
AcDbLine
 10
263.444487263027
 20
200.873738352404
 30
0.0
 11
254.944487263027
 21
200.873738352404
 31
0.0
  0
LINE
  5
2C26
330
1F
100
AcDbEntity
  8
0
100
AcDbLine
 10
254.444487263027
 20
200.373738352404
 30
0.0
 11
254.944487263027
 21
200.873738352404
 31
0.0
  0
LINE
  5
2C27
330
1F
100
AcDbEntity
  8
AM_VIS
100
AcDbLine
 10
263.444487263027
 20
197.8737383524039
 30
0.0
 11
254.944487263027
 21
197.8737383524038
 31
0.0
  0
LINE
  5
2C28
330
1F
100
AcDbEntity
  8
0
100
AcDbLine
 10
254.444487263027
 20
198.3737383524038
 30
0.0
 11
254.944487263027
 21
197.8737383524038
 31
0.0
  0
DIMENSION
  5
2C29
330
1F
100
AcDbEntity
  8
AM_5
100
AcDbDimension
  2
*D33
 10
249.4940217633671
 20
197.8737383524038
 30
0.0
 11
249.494021763367
 21
212.998738352404
 31
0.0
 70
   160
  1
%%c<>{}{\C5; f8}
 71
     5
 42
3.000000000000113
  3
AM_ISO$0
100
AcDbAlignedDimension
 13
254.944487263027
 23
200.873738352404
 33
0.0
 14
254.944487263027
 24
197.8737383524038
 34
0.0
 50
90.0
100
AcDbRotatedDimension
1001
GENIUS_GENDTOL_13
1000
FitTxt
1000
f8
1000
{$3 $T}
1040
3.0
1001
ACAD
1000
DSTYLE
1002
{
1070
   286
1070
     0
1070
   284
1070
     8
1070
    48
1040
0.1
1070
    47
1040
0.1
1070
   272
1070
     8
1070
   274
1070
     3
1002
}
  0
LINE
  5
2C2A
330
1F
100
AcDbEntity
  8
0
100
AcDbLine
 10
254.444487263027
 20
198.3737383524038
 30
0.0
 11
254.444487263027
 21
200.373738352404
 31
0.0
  0
TEXT
  5
2C89
330
1F
100
AcDbEntity
  8
AM_5
100
AcDbText
 10
237.9936911517772
 20
134.7336390775145
 30
0.0
 40
3.0
  1
M3x0.5
100
AcDbText
  0
LINE
  5
2C95
330
1F
100
AcDbEntity
  8
AM_4
  6
HIDDEN
 48
0.2
100
AcDbLine
 10
284.5009546757248
 20
199.7737383524039
 30
0.0
 11
288.944487263027
 21
199.7737383524039
 31
0.0
1001
GENIUS_GENODEF_13
1002
{
1000
HIER
1070
     0
1002
}
1002
{
1000
MANEDIT
1070
     0
1002
}
1002
{
1000
NOSEL
1070
     0
1002
}
1002
{
1000
BEHIND
1070
     0
1002
}
1002
{
1000
OTHER
1070
     0
1002
}
1002
{
1000
REACTOR
1002
}
1001
GENIUS_GENOBJ-N-CEN_13
1002
{
1000
OWNER
1000
GEN
1002
}
1001
GENIUS_GENCEN_19
1002
{
1040
2.0
1002
}
  0
LINE
  5
2C96
330
1F
100
AcDbEntity
  8
AM_4
  6
HIDDEN
 48
0.2
100
AcDbLine
 10
284.5009546757248
 20
198.973738352404
 30
0.0
 11
288.944487263027
 21
198.973738352404
 31
0.0
1001
GENIUS_GENODEF_13
1002
{
1000
HIER
1070
     0
1002
}
1002
{
1000
MANEDIT
1070
     0
1002
}
1002
{
1000
NOSEL
1070
     0
1002
}
1002
{
1000
BEHIND
1070
     0
1002
}
1002
{
1000
OTHER
1070
     0
1002
}
1002
{
1000
REACTOR
1002
}
1001
GENIUS_GENOBJ-N-CEN_13
1002
{
1000
OWNER
1000
GEN
1002
}
1001
GENIUS_GENCEN_19
1002
{
1040
2.0
1002
}
  0
LINE
  5
2C97
330
1F
100
AcDbEntity
  8
AM_4
  6
HIDDEN
 48
0.2
100
AcDbLine
 10
284.5009546757248
 20
122.4628439765141
 30
0.0
 11
288.944487263027
 21
122.4628439765141
 31
0.0
1001
GENIUS_GENODEF_13
1002
{
1000
HIER
1070
     0
1002
}
1002
{
1000
MANEDIT
1070
     0
1002
}
1002
{
1000
NOSEL
1070
     0
1002
}
1002
{
1000
BEHIND
1070
     0
1002
}
1002
{
1000
OTHER
1070
     0
1002
}
1002
{
1000
REACTOR
1002
}
1001
GENIUS_GENOBJ-N-CEN_13
1002
{
1000
OWNER
1000
GEN
1002
}
1001
GENIUS_GENCEN_19
1002
{
1040
2.0
1002
}
  0
LINE
  5
2C98
330
1F
100
AcDbEntity
  8
AM_4
  6
HIDDEN
 48
0.2
100
AcDbLine
 10
284.5009546757248
 20
121.6628439765142
 30
0.0
 11
288.944487263027
 21
121.6628439765142
 31
0.0
1001
GENIUS_GENODEF_13
1002
{
1000
HIER
1070
     0
1002
}
1002
{
1000
MANEDIT
1070
     0
1002
}
1002
{
1000
NOSEL
1070
     0
1002
}
1002
{
1000
BEHIND
1070
     0
1002
}
1002
{
1000
OTHER
1070
     0
1002
}
1002
{
1000
REACTOR
1002
}
1001
GENIUS_GENOBJ-N-CEN_13
1002
{
1000
OWNER
1000
GEN
1002
}
1001
GENIUS_GENCEN_19
1002
{
1040
2.0
1002
}
  0
LINE
  5
2D2C
330
1F
100
AcDbEntity
  8
0
100
AcDbLine
 10
252.0099947060393
 20
76.4429020060955
 30
0.0
 11
252.0099947060383
 21
63.00290200609601
 31
0.0
  0
LINE
  5
2D2D
330
1F
100
AcDbEntity
  8
0
100
AcDbLine
 10
261.2623258074671
 20
76.4429020060955
 30
0.0
 11
261.2623258074681
 21
63.00290200609601
 31
0.0
  0
LINE
  5
2D2E
330
1F
100
AcDbEntity
  8
0
100
AcDbLine
 10
252.0099947060397
 20
63.00290200609584
 30
0.0
 11
283.8976069491914
 21
63.00290200609589
 31
0.0
  0
LINE
  5
2D2F
330
1F
100
AcDbEntity
  8
0
100
AcDbLine
 10
252.0099947060393
 20
73.08290200609565
 30
0.0
 11
283.8976069491907
 21
73.08290200609576
 31
0.0
  0
TEXT
  5
2D30
330
1F
100
AcDbEntity
  8
0
100
AcDbText
 10
255.8980132710386
 20
70.29405332448025
 30
0.0
 40
2.10953224323072
  1
5
 41
0.8
  7
CHINESET
 72
     4
 11
256.4605552025668
 21
71.3488194460956
 31
0.0
100
AcDbText
  0
TEXT
  5
2D31
330
1F
100
AcDbEntity
  8
0
100
AcDbText
 10
253.7010309207609
 20
73.89579502418968
 30
0.0
 40
1.679999999999999
  1
Stroke
 41
0.8
  7
CHINESET
100
AcDbText
  0
TEXT
  5
2D32
330
1F
100
AcDbEntity
  8
0
100
AcDbText
 10
270.0866026487255
 20
70.31145979383985
 30
0.0
 40
2.1
  1
18.5
 41
0.8
  7
CHINESET
100
AcDbText
  0
LINE
  5
2D33
330
1F
100
AcDbEntity
  8
0
100
AcDbLine
 10
252.0099947060393
 20
76.4429020060956
 30
0.0
 11
283.8976069491905
 21
76.44290200609566
 31
0.0
  0
INSERT
  5
2D34
330
1F
100
AcDbEntity
  8
0
100
AcDbBlockReference
  2
A$C5ECF147B
 10
251.5592442931084
 20
66.65765333994176
 30
0.0
 41
0.6720000000000255
 42
0.6719999999999971
 43
0.6719999999999999
  0
TEXT
  5
2D35
330
1F
100
AcDbEntity
  8
0
100
AcDbText
 10
271.8791653308457
 20
73.67145979383986
 30
0.0
 40
2.1
  1
S
 41
0.8
  7
CHINESET
100
AcDbText
  0
LINE
  5
2D36
330
1F
100
AcDbEntity
  8
0
100
AcDbLine
 10
283.897606949191
 20
76.4429020060955
 30
0.0
 11
283.8976069491914
 21
63.00290200609549
 31
0.0
  0
TEXT
  5
2D37
330
1F
100
AcDbEntity
  8
0
100
AcDbText
 10
277.5396329708333
 20
70.31145979383961
 30
0.0
 40
2.1
  1
27.5
 41
0.8
  7
CHINESET
100
AcDbText
  0
TEXT
  5
2D38
330
1F
100
AcDbEntity
  8
0
100
AcDbText
 10
279.7006699188297
 20
73.67145979383986
 30
0.0
 40
2.1
  1
Z
 41
0.8
  7
CHINESET
100
AcDbText
  0
LINE
  5
2D39
330
1F
100
AcDbEntity
  8
0
100
AcDbLine
 10
252.0099947060395
 20
69.72290200609569
 30
0.0
 11
283.897606949191
 21
69.72290200609575
 31
0.0
  0
LINE
  5
2D3A
330
1F
100
AcDbEntity
  8
0
100
AcDbLine
 10
252.0099947060397
 20
66.36290200609574
 30
0.0
 11
283.8976069491911
 21
66.36290200609585
 31
0.0
  0
TEXT
  5
2D3B
330
1F
100
AcDbEntity
  8
0
100
AcDbText
 10
255.2551082064351
 20
66.93405332448029
 30
0.0
 40
2.10953224323072
  1
10
 41
0.8
  7
CHINESET
 72
     4
 11
256.460555202567
 21
67.98881944609565
 31
0.0
100
AcDbText
  0
TEXT
  5
2D3C
330
1F
100
AcDbEntity
  8
0
100
AcDbText
 10
255.2551082064354
 20
63.57405332448045
 30
0.0
 40
2.10953224323072
  1
15
 41
0.8
  7
CHINESET
 72
     4
 11
256.4605552025672
 21
64.62881944609581
 31
0.0
100
AcDbText
  0
TEXT
  5
2D3D
330
1F
100
AcDbEntity
  8
0
100
AcDbText
 10
270.0866026487256
 20
66.95145979383994
 30
0.0
 40
2.1
  1
25.5
 41
0.8
  7
CHINESET
100
AcDbText
  0
TEXT
  5
2D3E
330
1F
100
AcDbEntity
  8
0
100
AcDbText
 10
277.5396329708334
 20
66.95145979383972
 30
0.0
 40
2.1
  1
34.5
 41
0.8
  7
CHINESET
100
AcDbText
  0
TEXT
  5
2D3F
330
1F
100
AcDbEntity
  8
0
100
AcDbText
 10
270.0866026487257
 20
63.59145979384004
 30
0.0
 40
2.1
  1
32.5
 41
0.8
  7
CHINESET
100
AcDbText
  0
TEXT
  5
2D40
330
1F
100
AcDbEntity
  8
0
100
AcDbText
 10
277.5396329708335
 20
63.59145979383981
 30
0.0
 40
2.1
  1
41.5
 41
0.8
  7
CHINESET
100
AcDbText
  0
LINE
  5
2D41
330
1F
100
AcDbEntity
  8
0
100
AcDbLine
 10
268.8074195213751
 20
76.44290200609566
 30
0.0
 11
268.8074195213756
 21
63.00290200609584
 31
0.0
  0
TEXT
  5
2D42
330
1F
100
AcDbEntity
  8
0
100
AcDbText
 10
262.6493697663307
 20
70.31145979383973
 30
0.0
 40
2.1
  1
12.5
 41
0.8
  7
CHINESET
100
AcDbText
  0
TEXT
  5
2D43
330
1F
100
AcDbEntity
  8
0
100
AcDbText
 10
264.4419317555979
 20
73.6714597938398
 30
0.0
 40
2.1
  1
F
 41
0.8
  7
CHINESET
100
AcDbText
  0
TEXT
  5
2D44
330
1F
100
AcDbEntity
  8
0
100
AcDbText
 10
262.6493697663308
 20
66.95145979383983
 30
0.0
 40
2.1
  1
19.5
 41
0.8
  7
CHINESET
100
AcDbText
  0
TEXT
  5
2D45
330
1F
100
AcDbEntity
  8
0
100
AcDbText
 10
262.6493697663309
 20
63.59145979383993
 30
0.0
 40
2.1
  1
26.5
 41
0.8
  7
CHINESET
100
AcDbText
  0
LINE
  5
2D46
330
1F
100
AcDbEntity
  8
0
100
AcDbLine
 10
276.3525132352829
 20
76.44290200609572
 30
0.0
 11
276.3525132352835
 21
63.00290200609584
 31
0.0
  0
INSERT
  5
2FA5
330
1F
100
AcDbEntity
  8
AM_5
100
AcDbBlockReference
  2
*S36
 10
0.0
 20
0.0
 30
0.0
  0
TEXT
  5
2FA6
330
1F
100
AcDbEntity
  8
AM_5
100
AcDbText
 10
81.95520255696232
 20
134.7336390775144
 30
0.0
 40
3.0
  1
M3x0.5
100
AcDbText
  0
INSERT
  5
2FA7
330
1F
100
AcDbEntity
  8
AM_5
100
AcDbBlockReference
  2
*S37
 10
0.0
 20
0.0
 30
0.0
  0
ENDSEC
  0
SECTION
  2
OBJECTS
  0
DICTIONARY
  5
C
330
0
100
AcDbDictionary
281
     1
  3
ACAD_COLOR
350
BE
  3
ACAD_GROUP
350
D
  3
ACAD_LAYOUT
350
1A
  3
ACAD_MATERIAL
350
BD
  3
ACAD_MLINESTYLE
350
17
  3
ACAD_PLOTSETTINGS
350
19
  3
ACAD_PLOTSTYLENAME
350
E
  3
ACAD_TABLESTYLE
350
11A
  3
ACDBHEADERROUNDTRIPXREC
350
30CC
  3
AcDbVariableDictionary
350
94
  3
AcmDictionary
350
5B
  3
AMG
350
41
  3
AMGSNAPSETTINGS
350
1B8
  3
DWGPROPS
350
30CB
  3
MAPISURF_MODULE
350
306D
  0
DICTIONARY
  5
3F9
330
2
100
AcDbDictionary
280
     1
281
     1
  3
ACAD_LAYERFILTERS
360
5B7
  3
ACAD_LAYERSTATES
360
A8E
  3
ACLYDICTIONARY
360
5B6
  3
AMLAYER_GROUPCOLORS
360
1B62
  0
DICTIONARY
  5
8F
330
1F
100
AcDbDictionary
280
     1
281
     1
  3
ACAD_INDEX
360
30C1
  3
ACAD_SORTENTS
360
194E
  0
DICTIONARY
  5
18F2
330
18F1
100
AcDbDictionary
280
     1
281
     1
  0
DICTIONARY
  5
271B
330
2716
100
AcDbDictionary
280
     1
281
     1
  3
ACAD_SORTENTS
360
271C
  0
DICTIONARY
  5
BE
102
{ACAD_REACTORS
330
C
102
}
330
C
100
AcDbDictionary
281
     1
  0
DICTIONARY
  5
D
102
{ACAD_REACTORS
330
C
102
}
330
C
100
AcDbDictionary
281
     1
  0
DICTIONARY
  5
1A
102
{ACAD_REACTORS
330
C
102
}
330
C
100
AcDbDictionary
281
     1
  3
Model
350
22
  3
配置1
350
1E
  3
配置2
350
26
  0
DICTIONARY
  5
BD
102
{ACAD_REACTORS
330
C
102
}
330
C
100
AcDbDictionary
281
     1
  0
DICTIONARY
  5
17
102
{ACAD_REACTORS
330
C
102
}
330
C
100
AcDbDictionary
281
     1
  3
Standard
350
18
  0
DICTIONARY
  5
19
102
{ACAD_REACTORS
330
C
102
}
330
C
100
AcDbDictionary
281
     1
  0
ACDBDICTIONARYWDFLT
  5
E
102
{ACAD_REACTORS
330
C
102
}
330
C
100
AcDbDictionary
281
     1
  3
Normal
350
F
100
AcDbDictionaryWithDefault
340
F
  0
DICTIONARY
  5
11A
102
{ACAD_REACTORS
330
C
102
}
330
C
100
AcDbDictionary
281
     1
  3
Standard
350
11B
  0
DICTIONARY
  5
30CC
102
{ACAD_REACTORS
330
C
102
}
330
C
100
AcDbDictionary
281
     1
  0
DICTIONARY
  5
94
102
{ACAD_REACTORS
330
C
102
}
330
C
100
AcDbDictionary
281
     1
  3
CTABLESTYLE
350
138
  3
DIMASSOC
350
96
  3
INDEXCTL
350
95
  3
PROJECTNAME
350
2FDD
  0
DICTIONARY
  5
5B
102
{ACAD_REACTORS
330
C
102
}
330
C
100
AcDbDictionary
281
     1
  3
AcmBOM
350
1B5
  3
AcmStdDictionary
350
61
  3
AMDTSECTSYM_ARROWCOLOR
350
123
  0
DICTIONARY
  5
41
102
{ACAD_REACTORS
330
C
102
}
330
C
100
AcDbDictionary
281
     1
  3
AcMgSettings
350
2FE7
  0
DICTIONARY
  5
1B8
102
{ACAD_REACTORS
330
C
102
}
330
C
100
AcDbDictionary
281
     1
  0
XRECORD
  5
30CB
102
{ACAD_REACTORS
330
C
102
}
330
C
100
AcDbXrecord
280
     1
  1
DWGPROPS COOKIE
  2

  3

  4

  6

  7

  8

  9

300
AmdtFileType=84
301
=
302
=
303
=
304
=
305
=
306
=
307
=
308
=
309
=
 40
0.4073905787037038
 41
2454111.69355125
 42
2455125.671867859
  1

 90
        1
  0
DICTIONARY
  5
5B7
102
{ACAD_REACTORS
330
3F9
102
}
330
3F9
100
AcDbDictionary
281
     1
  0
DICTIONARY
  5
A8E
102
{ACAD_REACTORS
330
3F9
102
}
330
3F9
100
AcDbDictionary
281
     1
  0
DICTIONARY
  5
5B6
102
{ACAD_REACTORS
330
3F9
102
}
330
3F9
100
AcDbDictionary
281
     1
1001
ACAD
1000
<All
  0
DICTIONARY
  5
1B62
102
{ACAD_REACTORS
330
3F9
102
}
330
3F9
100
AcDbDictionary
280
     1
281
     1
  0
DICTIONARY
  5
30C1
102
{ACAD_REACTORS
330
8F
102
}
330
8F
100
AcDbDictionary
281
     1
  3
*A1
350
30C2
  0
SORTENTSTABLE
  5
194E
102
{ACAD_REACTORS
330
8F
102
}
330
8F
100
AcDbSortentsTable
330
1F
331
24E8
  5
2508
331
250F
  5
265D
331
2356
  5
2356
331
2337
  5
2337
331
238C
  5
238E
331
23AB
  5
23AD
331
2402
  5
2404
331
1EF6
  5
1EF6
331
1ECF
  5
1ECF
331
227D
  5
227D
331
1EB0
  5
1EB0
331
1927
  5
1927
331
1E7A
  5
1E7A
331
29BB
  5
29BD
331
29DA
  5
29DC
331
29F9
  5
29FB
331
2985
  5
2987
331
299C
  5
299F
331
2A10
  5
2A3E
331
292F
  5
2931
331
294E
  5
2951
331
28C9
  5
28CB
331
28AA
  5
28AC
331
2357
  5
2357
331
238D
  5
238F
331
23AC
  5
23AE
331
2403
  5
2405
331
1EF7
  5
1EF7
331
227E
  5
227E
331
1ED0
  5
1ED0
331
1EB1
  5
1EB1
331
29BC
  5
29BE
331
29DB
  5
29DD
331
29FA
  5
29FC
331
2986
  5
2988
331
299D
  5
29A0
331
2A11
  5
2A3F
331
2930
  5
2932
331
28CA
  5
28CC
331
28AB
  5
28AD
331
238E
  5
2390
331
23AD
  5
23D1
331
2404
  5
2406
331
227F
  5
227F
331
1ED1
  5
1ED1
331
1EB2
  5
1EB2
331
2C0B
  5
237D
331
2987
  5
2989
331
29BD
  5
29BF
331
29DC
  5
29DE
331
29FB
  5
29FD
331
2B6C
  5
2B6E
331
2931
  5
2933
331
2950
  5
2952
331
28CB
  5
28CD
331
28AC
  5
28AE
331
238F
  5
2391
331
23AE
  5
23D2
331
2405
  5
2409
331
1ED2
  5
1ED2
331
1EB3
  5
1EB3
331
2C0C
  5
2372
331
29BE
  5
29C0
331
29DD
  5
29DF
331
29FC
  5
29FE
331
299F
  5
29A1
331
2B6D
  5
2B6F
331
2913
  5
2915
331
2932
  5
2934
331
2951
  5
2953
331
28CC
  5
28CE
331
2988
  5
298A
331
28AD
  5
28AF
331
1ED3
  5
1ED3
331
1EB4
  5
1EB4
331
1E7E
  5
1E7E
331
29BF
  5
29C1
331
29DE
  5
29E0
331
29FD
  5
29FF
331
2B6E
  5
2B70
331
2914
  5
2916
331
2933
  5
2935
331
2952
  5
2954
331
28CD
  5
28CF
331
2989
  5
298B
331
29A0
  5
29A2
331
28AE
  5
28B0
331
1EFB
  5
1EFB
331
1ED4
  5
1ED4
331
1EB5
  5
1EB5
331
29DF
  5
29E1
331
29FE
  5
2A00
331
2B6F
  5
2B71
331
2915
  5
2917
331
2934
  5
2936
331
2953
  5
2955
331
28CE
  5
28D0
331
298A
  5
298C
331
29A1
  5
29A3
331
29C0
  5
29C2
331
28AF
  5
28B1
331
1ED5
  5
1ED5
331
1EB6
  5
1EB6
331
29FF
  5
2A01
331
2B70
  5
2BB7
331
2916
  5
2918
331
2935
  5
2937
331
2954
  5
2974
331
270A
  5
270C
331
28B0
  5
28B2
331
28CF
  5
28D1
331
298B
  5
298D
331
29A2
  5
29A4
331
29C1
  5
29C3
331
29E0
  5
29E2
331
1ED6
  5
1ED6
331
1EB7
  5
1EB7
331
2B71
  5
2BF4
331
2AD4
  5
2AD6
331
2A3E
  5
2A40
331
2917
  5
2919
331
270B
  5
270D
331
28B1
  5
28B3
331
2936
  5
2938
331
2955
  5
2975
331
298C
  5
298E
331
29A3
  5
29A5
331
29C2
  5
29C4
331
29E1
  5
29E3
331
2A00
  5
2A02
331
1ED7
  5
1ED7
331
2AD5
  5
2AD7
331
2A3F
  5
2A41
331
2918
  5
291A
331
270C
  5
270E
331
28B2
  5
28B4
331
2937
  5
2939
331
298D
  5
298F
331
29A4
  5
29A6
331
29C3
  5
29C5
331
29E2
  5
29E4
331
2A01
  5
2A03
331
2AD6
  5
2AD8
331
2A40
  5
2A42
331
2919
  5
291B
331
270D
  5
270F
331
28B3
  5
28B5
331
2938
  5
293A
331
298E
  5
2990
331
29A5
  5
29A7
331
29C4
  5
29C6
331
29E3
  5
29E5
331
2A02
  5
2A04
331
2AD7
  5
2AD9
331
2A41
  5
2A43
331
291A
  5
291C
331
270E
  5
2710
331
28B4
  5
28B6
331
2939
  5
293B
331
298F
  5
2991
331
29A6
  5
29A8
331
29C5
  5
29C7
331
29E4
  5
29E6
331
2A03
  5
2A05
331
2AD8
  5
2ADA
331
2A42
  5
2A44
331
291B
  5
291D
331
28B5
  5
28B7
331
293A
  5
293C
331
29A7
  5
29A9
331
29C6
  5
29C8
331
29E5
  5
29E7
331
2A04
  5
2A06
331
270F
  5
2711
331
2AD9
  5
2ADB
331
291C
  5
291E
331
28B6
  5
28B8
331
293B
  5
293D
331
29A8
  5
29AA
331
29C7
  5
29C9
331
29E6
  5
29E8
331
2A05
  5
2A07
331
2A44
  5
2AD4
331
293C
  5
293E
331
29A9
  5
29AB
331
29C8
  5
29CA
331
29E7
  5
29E9
331
2A06
  5
2A08
331
28B7
  5
28B9
331
291D
  5
291F
331
2A45
  5
2AD5
331
293D
  5
293F
331
2974
  5
2976
331
29AA
  5
29AC
331
29C9
  5
29CB
331
29E8
  5
29EA
331
2A07
  5
2A09
331
291E
  5
2920
331
2ADC
  5
2B6D
331
293E
  5
2940
331
2975
  5
2977
331
29AB
  5
29AD
331
29CA
  5
29CC
331
29E9
  5
29EB
331
291F
  5
2921
331
293F
  5
2941
331
2976
  5
2978
331
29AC
  5
29AE
331
29CB
  5
29CD
331
29EA
  5
29EC
331
2977
  5
2979
331
29AD
  5
29AF
331
29CC
  5
29CE
331
29EB
  5
29ED
331
29AE
  5
29B5
331
29CD
  5
29CF
331
29EC
  5
29EE
331
29AF
  5
29B6
331
29CE
  5
29D0
331
29ED
  5
29EF
331
29CF
  5
29D1
331
29EE
  5
29F0
331
29EF
  5
29F1
331
2BF4
  5
2C0C
331
2280
  5
2280
331
2281
  5
2281
331
22A0
  5
22A0
331
22C0
  5
22C0
331
22A1
  5
22A1
331
2282
  5
2282
331
22E0
  5
22E0
331
22C1
  5
22C1
331
22A2
  5
22A2
331
2283
  5
2283
331
22F8
  5
22F8
331
22E1
  5
22E1
331
22C2
  5
22C2
331
22A3
  5
22A3
331
2284
  5
2284
331
2318
  5
2318
331
22F9
  5
22F9
331
22E2
  5
22E2
331
22C3
  5
22C3
331
22A4
  5
22A4
331
2285
  5
2285
331
2338
  5
2338
331
2319
  5
2319
331
22FA
  5
22FA
331
22E3
  5
22E3
331
22C4
  5
22C4
331
22A5
  5
22A5
331
2286
  5
2286
331
1928
  5
1928
331
2358
  5
2358
331
2339
  5
2339
331
231A
  5
231A
331
22FB
  5
22FB
331
22E4
  5
22E4
331
22C5
  5
22C5
331
22A6
  5
22A6
331
2287
  5
2287
331
19C8
  5
19C8
331
1929
  5
1929
331
2359
  5
2359
331
233A
  5
233A
331
231B
  5
231B
331
22FC
  5
22FC
331
22E5
  5
22E5
331
22C6
  5
22C6
331
22A7
  5
22A7
331
2288
  5
2288
331
2370
  5
2370
331
19C9
  5
19C9
331
192A
  5
192A
331
235A
  5
235A
331
233B
  5
233B
331
231C
  5
231C
331
22FD
  5
22FD
331
22E6
  5
22E6
331
22A8
  5
22A8
331
2289
  5
2289
331
22C7
  5
22C7
331
2371
  5
2371
331
2390
  5
2392
331
19CA
  5
19CA
331
192B
  5
192B
331
235B
  5
235B
331
233C
  5
233C
331
231D
  5
231D
331
22FE
  5
22FE
331
22C8
  5
22C8
331
22A9
  5
22A9
331
228A
  5
228A
331
22E7
  5
22E7
331
2372
  5
237C
331
2391
  5
2393
331
19CB
  5
19CB
331
235C
  5
235C
331
233D
  5
233D
331
22FF
  5
22FF
331
22E8
  5
22E8
331
22C9
  5
22C9
331
22AA
  5
22AA
331
228B
  5
228B
331
231E
  5
231E
331
2392
  5
2394
331
23D1
  5
23D3
331
192D
  5
192D
331
233E
  5
233E
331
231F
  5
231F
331
2300
  5
2300
331
22E9
  5
22E9
331
22CA
  5
22CA
331
22AB
  5
22AB
331
228C
  5
228C
331
235D
  5
235D
331
2393
  5
2395
331
23D2
  5
23D4
331
2409
  5
2507
331
235E
  5
235E
331
233F
  5
233F
331
2320
  5
2320
331
2301
  5
2301
331
22EA
  5
22EA
331
22CB
  5
22CB
331
22AC
  5
22AC
331
228D
  5
228D
331
2394
  5
2396
331
23D3
  5
23E3
331
1EB8
  5
1EB8
331
1E82
  5
1E82
331
1E63
  5
1E63
331
192F
  5
192F
331
235F
  5
235F
331
2340
  5
2340
331
2321
  5
2321
331
2302
  5
2302
331
22EB
  5
22EB
331
22CC
  5
22CC
331
22AD
  5
22AD
331
228E
  5
228E
331
2395
  5
2397
331
23D4
  5
23E4
331
1ED8
  5
1ED8
331
1EB9
  5
1EB9
331
1E64
  5
1E64
331
1E83
  5
1E83
331
1E9A
  5
1E9A
331
1930
  5
1930
331
2360
  5
2360
331
2341
  5
2341
331
2322
  5
2322
331
2303
  5
2303
331
22EC
  5
22EC
331
22CD
  5
22CD
331
22AE
  5
22AE
331
228F
  5
228F
331
2396
  5
2399
331
1ED9
  5
1ED9
331
1EBA
  5
1EBA
331
1E65
  5
1E65
331
1E9B
  5
1E9B
331
1931
  5
1931
331
2361
  5
2361
331
2342
  5
2342
331
2323
  5
2323
331
2304
  5
2304
331
22ED
  5
22ED
331
22CE
  5
22CE
331
22AF
  5
22AF
331
2290
  5
2290
331
2397
  5
239B
331
1EDA
  5
1EDA
331
1EBB
  5
1EBB
331
1E66
  5
1E66
331
1E9C
  5
1E9C
331
1A11
  5
1A11
331
2362
  5
2362
331
2343
  5
2343
331
2324
  5
2324
331
2305
  5
2305
331
22EE
  5
22EE
331
22B0
  5
22B0
331
2291
  5
2291
331
22CF
  5
22CF
331
1EDB
  5
1EDB
331
1EBC
  5
1EBC
331
1E67
  5
1E67
331
1A12
  5
1A12
331
1C90
  5
1C90
331
2710
  5
2712
331
2363
  5
2363
331
2344
  5
2344
331
2325
  5
2325
331
22EF
  5
22EF
331
22D0
  5
22D0
331
22B1
  5
22B1
331
2292
  5
2292
331
2306
  5
2306
331
2399
  5
239C
331
265C
  5
265E
331
1EDC
  5
1EDC
331
1EBD
  5
1EBD
331
1E87
  5
1E87
331
1E68
  5
1E68
331
1A13
  5
1A13
331
265D
  5
265F
331
2364
  5
2364
331
22F0
  5
22F0
331
2326
  5
2326
331
22D1
  5
22D1
331
22B2
  5
22B2
331
2293
  5
2293
331
2345
  5
2345
331
1EDD
  5
1EDD
331
1EBE
  5
1EBE
331
1E88
  5
1E88
331
1E69
  5
1E69
331
1A14
  5
1A14
331
28B8
  5
28BA
331
2789
  5
278B
331
237C
  5
237E
331
239B
  5
239D
331
265E
  5
2660
331
2365
  5
2365
331
2346
  5
2346
331
2327
  5
2327
331
22F1
  5
22F1
331
2308
  5
2308
331
22D2
  5
22D2
331
22B3
  5
22B3
331
2294
  5
2294
331
1EDE
  5
1EDE
331
1EBF
  5
1EBF
331
1E89
  5
1E89
331
1E6A
  5
1E6A
331
1EA0
  5
1EA0
331
1A15
  5
1A15
331
28B9
  5
28BB
331
28D0
  5
28D3
331
278A
  5
278C
331
23E3
  5
23E5
331
237D
  5
237F
331
239C
  5
239E
331
265F
  5
2661
331
2366
  5
2366
331
2347
  5
2347
331
22F2
  5
22F2
331
2328
  5
2328
331
22D3
  5
22D3
331
22B4
  5
22B4
331
2295
  5
2295
331
1EDF
  5
1EDF
331
1EC0
  5
1EC0
331
1E8A
  5
1E8A
331
1E6B
  5
1E6B
331
1EA1
  5
1EA1
331
28BA
  5
28BC
331
28D1
  5
28D4
331
278B
  5
28A4
331
2920
  5
2922
331
237E
  5
2380
331
239D
  5
239F
331
23E4
  5
23E6
331
2660
  5
2662
331
2367
  5
2367
331
2348
  5
2348
331
2329
  5
2329
331
22F3
  5
22F3
331
230A
  5
230A
331
22D4
  5
22D4
331
22B5
  5
22B5
331
2296
  5
2296
331
1EC1
  5
1EC1
331
2097
  5
2097
331
1E6C
  5
1E6C
331
1E8B
  5
1E8B
331
1EA2
  5
1EA2
331
2940
  5
2942
331
28BB
  5
28BD
331
278C
  5
28A5
331
2921
  5
2923
331
237F
  5
2381
331
239E
  5
23A0
331
23E5
  5
23F4
331
2661
  5
2663
331
2368
  5
2368
331
2349
  5
2349
331
232A
  5
232A
331
22F4
  5
22F4
331
230B
  5
230B
331
22D5
  5
22D5
331
22B6
  5
22B6
331
2297
  5
2297
331
1EC2
  5
1EC2
331
2098
  5
2098
331
1E8C
  5
1E8C
331
1E6D
  5
1E6D
331
1EA3
  5
1EA3
331
1C96
  5
1C96
331
2941
  5
2943
331
2978
  5
297A
331
28BC
  5
28BE
331
28D3
  5
28D5
331
2922
  5
2924
331
2380
  5
2382
331
239F
  5
23A1
331
23E6
  5
2401
331
2662
  5
2664
331
2369
  5
2369
331
234A
  5
234A
331
232B
  5
232B
331
22F5
  5
22F5
331
230C
  5
230C
331
22D6
  5
22D6
331
2298
  5
2298
331
22B7
  5
22B7
331
1EC3
  5
1EC3
331
1E8D
  5
1E8D
331
1E6E
  5
1E6E
331
1EA4
  5
1EA4
331
2942
  5
2944
331
2979
  5
297B
331
2990
  5
2992
331
28BD
  5
28BF
331
28D4
  5
28D6
331
2923
  5
2925
331
2381
  5
2383
331
23A0
  5
23A2
331
2663
  5
270A
331
236A
  5
236A
331
234B
  5
234B
331
232C
  5
232C
331
22F6
  5
22F6
331
230D
  5
230D
331
22B8
  5
22B8
331
2299
  5
2299
331
22D7
  5
22D7
331
1EC4
  5
1EC4
331
1E8E
  5
1E8E
331
1E6F
  5
1E6F
331
1EA5
  5
1EA5
331
2943
  5
2945
331
297A
  5
297C
331
2991
  5
2993
331
28BE
  5
28C0
331
28D5
  5
28D7
331
2924
  5
2926
331
2382
  5
2384
331
23A1
  5
23A3
331
2664
  5
270B
331
236B
  5
236B
331
234C
  5
234C
331
232D
  5
232D
331
22F7
  5
22F7
331
22D8
  5
22D8
331
22B9
  5
22B9
331
229A
  5
229A
331
230E
  5
230E
331
1EEC
  5
1EEC
331
1EC5
  5
1EC5
331
1E70
  5
1E70
331
1EA6
  5
1EA6
331
29D0
  5
29D2
331
2944
  5
2946
331
297B
  5
297D
331
2992
  5
2994
331
28BF
  5
28C1
331
28D6
  5
28D8
331
2925
  5
2927
331
2383
  5
2385
331
23A2
  5
23A4
331
236C
  5
236C
331
232E
  5
232E
331
22D9
  5
22D9
331
22BA
  5
22BA
331
229B
  5
229B
331
230F
  5
230F
331
234D
  5
234D
331
1EED
  5
1EED
331
1EC6
  5
1EC6
331
1E71
  5
1E71
331
1EA7
  5
1EA7
331
1C9A
  5
1C9A
331
29D1
  5
29D3
331
29F0
  5
29F2
331
2945
  5
2947
331
297C
  5
297E
331
2993
  5
2995
331
28D7
  5
2907
331
2926
  5
2928
331
28C0
  5
28C2
331
2384
  5
2386
331
2507
  5
2509
331
236D
  5
236D
331
234E
  5
234E
331
2310
  5
2310
331
22DA
  5
22DA
331
22BB
  5
22BB
331
229C
  5
229C
331
232F
  5
232F
331
1EEE
  5
1EEE
331
1EC7
  5
1EC7
331
1E72
  5
1E72
331
1EA8
  5
1EA8
331
29D2
  5
29D4
331
29F1
  5
29F3
331
2946
  5
2948
331
297D
  5
297F
331
2994
  5
2996
331
2A08
  5
2A0A
331
28D8
  5
2908
331
2927
  5
2929
331
28C1
  5
28C3
331
2385
  5
2387
331
23A4
  5
23A6
331
2508
  5
250A
331
236E
  5
236E
331
2330
  5
2330
331
2311
  5
2311
331
22DB
  5
22DB
331
22BC
  5
22BC
331
229D
  5
229D
331
234F
  5
234F
331
1EEF
  5
1EEF
331
1EC8
  5
1EC8
331
1E92
  5
1E92
331
1E73
  5
1E73
331
1EA9
  5
1EA9
331
1C9C
  5
1C9C
331
1A2E
  5
1A2E
331
29D3
  5
29D5
331
29F2
  5
29F4
331
2947
  5
2949
331
297E
  5
2980
331
2995
  5
2997
331
2A09
  5
2A0B
331
2928
  5
292A
331
28C2
  5
28C4
331
2386
  5
2388
331
23A5
  5
23A7
331
23F4
  5
2402
331
2509
  5
250B
331
2350
  5
2350
331
2331
  5
2331
331
2312
  5
2312
331
22DC
  5
22DC
331
22BD
  5
22BD
331
229E
  5
229E
331
236F
  5
236F
331
1EF0
  5
1EF0
331
1EC9
  5
1EC9
331
1E74
  5
1E74
331
1EAA
  5
1EAA
331
1C9D
  5
1C9D
331
29B5
  5
29B7
331
29D4
  5
29D6
331
29F3
  5
29F5
331
297F
  5
2981
331
2996
  5
2998
331
2A0A
  5
2A0C
331
2929
  5
292B
331
2948
  5
294A
331
28A4
  5
28A6
331
28C3
  5
28C5
331
2387
  5
2389
331
23A6
  5
23A8
331
2351
  5
2351
331
2332
  5
2332
331
2313
  5
2313
331
22DD
  5
22DD
331
22BE
  5
22BE
331
229F
  5
229F
331
250A
  5
250C
331
1EF1
  5
1EF1
331
1ECA
  5
1ECA
331
1E75
  5
1E75
331
1EAB
  5
1EAB
331
1C9E
  5
1C9E
331
1922
  5
1922
331
29B6
  5
29B8
331
29D5
  5
29D7
331
29F4
  5
29F6
331
2980
  5
2982
331
2997
  5
2999
331
2A0B
  5
2A0D
331
292A
  5
292C
331
2949
  5
294B
331
28A5
  5
28A7
331
28C4
  5
28C6
331
23A7
  5
23A9
331
250B
  5
250D
331
2352
  5
2352
331
2333
  5
2333
331
2314
  5
2314
331
22DE
  5
22DE
331
22BF
  5
22BF
331
2388
  5
238A
331
1EF2
  5
1EF2
331
1ECB
  5
1ECB
331
1E76
  5
1E76
331
1EAC
  5
1EAC
331
19C2
  5
19C2
331
29B7
  5
29B9
331
29D6
  5
29D8
331
29F5
  5
29F7
331
2981
  5
2983
331
2998
  5
299A
331
2A0C
  5
2A0E
331
292B
  5
292D
331
294A
  5
294C
331
28A6
  5
28A8
331
271F
  5
2789
331
28C5
  5
28C7
331
250C
  5
250E
331
2353
  5
2353
331
2334
  5
2334
331
2315
  5
2315
331
22DF
  5
22DF
331
2389
  5
238B
331
23A8
  5
23AA
331
1EF3
  5
1EF3
331
1ECC
  5
1ECC
331
1E96
  5
1E96
331
1E77
  5
1E77
331
1EAD
  5
1EAD
331
1924
  5
1924
331
19C3
  5
19C3
331
29B8
  5
29BA
331
29D7
  5
29D9
331
29F6
  5
29F8
331
2982
  5
2984
331
2999
  5
299B
331
2A0D
  5
2A0F
331
292C
  5
292E
331
294B
  5
294D
331
28A7
  5
28A9
331
2720
  5
278A
331
28C6
  5
28C8
331
250D
  5
250F
331
2354
  5
2354
331
2335
  5
2335
331
2316
  5
2316
331
238A
  5
238C
331
23A9
  5
23AB
331
1EF4
  5
1EF4
331
1ECD
  5
1ECD
331
1EAE
  5
1EAE
331
1E78
  5
1E78
331
1925
  5
1925
331
19C4
  5
19C4
331
29B9
  5
29BB
331
29D8
  5
29DA
331
29F7
  5
29F9
331
2983
  5
2985
331
299A
  5
299C
331
2A0E
  5
2A10
331
292D
  5
292F
331
294C
  5
294E
331
28A8
  5
28AA
331
28C7
  5
28C9
331
250E
  5
265C
331
2336
  5
2336
331
2317
  5
2317
331
2355
  5
2355
331
238B
  5
238D
331
23AA
  5
23AC
331
2401
  5
2403
331
1EF5
  5
1EF5
331
1ECE
  5
1ECE
331
1EAF
  5
1EAF
331
227C
  5
227C
331
1E79
  5
1E79
331
1926
  5
1926
331
19C5
  5
19C5
331
29BA
  5
29BC
331
29D9
  5
29DB
331
29F8
  5
29FA
331
2984
  5
2986
331
299B
  5
299D
331
2A0F
  5
2A11
331
292E
  5
2930
331
294D
  5
2950
331
28C8
  5
28CA
331
28A9
  5
28AB
  0
SORTENTSTABLE
  5
271C
102
{ACAD_REACTORS
330
271B
102
}
330
271B
100
AcDbSortentsTable
330
2716
  0
LAYOUT
  5
22
102
{ACAD_XDICTIONARY
360
30CF
102
}
102
{ACAD_REACTORS
330
1A
102
}
330
1A
100
AcDbPlotSettings
  1

  2
\\RD\EPSON Stylus C63 Series單色
  4
A4
  6

 40
3.757083177566528
 41
3.757076978683471
 42
3.757080078125
 43
3.757080078125
 44
209.9733276367187
 45
296.9683227539062
 46
0.0
 47
0.0
 48
0.0
 49
0.0
140
0.0
141
0.0
142
1.0
143
0.3405120737814363
 70
 11952
 72
     1
 73
     0
 74
     0
  7
彩色出圖.ctb
 75
     0
147
2.936753428137963
148
-2047.07469463503
149
-1261.649717473083
100
AcDbLayout
  1
Model
 70
     1
 71
     0
 10
0.0
 20
0.0
 11
12.0
 21
9.0
 12
0.0
 22
0.0
 32
0.0
 14
0.0
 24
0.0
 34
0.0
 15
0.0
 25
0.0
 35
0.0
146
0.0
 13
0.0
 23
0.0
 33
0.0
 16
1.0
 26
0.0
 36
0.0
 17
0.0
 27
1.0
 37
0.0
 76
     0
330
1F
1001
ACAD_PSEXT
1000
\\RD\EPSON Stylus C63 Series單色
1000
EPSON Stylus C63 Series
1000
\\RD
1000

1070
     0
  0
LAYOUT
  5
1E
102
{ACAD_XDICTIONARY
360
30CD
102
}
102
{ACAD_REACTORS
330
1A
102
}
330
1A
100
AcDbPlotSettings
  1

  2

  4

  6

 40
0.0
 41
0.0
 42
0.0
 43
0.0
 44
0.0
 45
0.0
 46
0.0
 47
0.0
 48
0.0
 49
0.0
140
0.0
141
0.0
142
1.0
143
1.0
 70
   688
 72
     0
 73
     0
 74
     5
  7
彩色出圖.ctb
 75
    16
147
1.0
148
0.0
149
0.0
100
AcDbLayout
  1
配置1
 70
     1
 71
     1
 10
0.0
 20
0.0
 11
420.0
 21
297.0
 12
0.0
 22
0.0
 32
0.0
 14
1.000000000000000E+20
 24
1.000000000000000E+20
 34
1.000000000000000E+20
 15
-1.000000000000000E+20
 25
-1.000000000000000E+20
 35
-1.000000000000000E+20
146
0.0
 13
0.0
 23
0.0
 33
0.0
 16
1.0
 26
0.0
 36
0.0
 17
0.0
 27
1.0
 37
0.0
 76
     0
330
1B
  0
LAYOUT
  5
26
102
{ACAD_XDICTIONARY
360
30D1
102
}
102
{ACAD_REACTORS
330
1A
102
}
330
1A
100
AcDbPlotSettings
  1

  2

  4

  6

 40
0.0
 41
0.0
 42
0.0
 43
0.0
 44
0.0
 45
0.0
 46
0.0
 47
0.0
 48
0.0
 49
0.0
140
0.0
141
0.0
142
1.0
143
1.0
 70
   688
 72
     0
 73
     0
 74
     5
  7
彩色出圖.ctb
 75
    16
147
1.0
148
0.0
149
0.0
100
AcDbLayout
  1
配置2
 70
     1
 71
     2
 10
0.0
 20
0.0
 11
12.0
 21
9.0
 12
0.0
 22
0.0
 32
0.0
 14
0.0
 24
0.0
 34
0.0
 15
0.0
 25
0.0
 35
0.0
146
0.0
 13
0.0
 23
0.0
 33
0.0
 16
1.0
 26
0.0
 36
0.0
 17
0.0
 27
1.0
 37
0.0
 76
     0
330
23
  0
MLINESTYLE
  5
18
102
{ACAD_REACTORS
330
17
102
}
330
17
100
AcDbMlineStyle
  2
STANDARD
 70
     0
  3

 62
   256
 51
90.0
 52
90.0
 71
     2
 49
0.5
 62
   256
  6
BYLAYER
 49
-0.5
 62
   256
  6
BYLAYER
  0
ACDBPLACEHOLDER
  5
F
102
{ACAD_REACTORS
330
E
102
}
330
E
  0
TABLESTYLE
  5
11B
102
{ACAD_REACTORS
330
11A
102
}
330
11A
100
AcDbTableStyle
  3
Standard
 70
     0
 71
     0
 40
1.5
 41
1.5
280
     0
281
     0
  7
STANDARD
140
4.5
170
     2
 62
     0
 63
     7
283
     0
274
    -2
284
     1
 64
     0
275
    -2
285
     1
 65
     0
276
    -2
286
     1
 66
     0
277
    -2
287
     1
 67
     0
278
    -2
288
     1
 68
     0
279
    -2
289
     1
 69
     0
  7
STANDARD
140
6.0
170
     5
 62
     0
 63
     7
283
     0
274
    -2
284
     1
 64
     0
275
    -2
285
     1
 65
     0
276
    -2
286
     1
 66
     0
277
    -2
287
     1
 67
     0
278
    -2
288
     1
 68
     0
279
    -2
289
     1
 69
     0
  7
STANDARD
140
4.5
170
     5
 62
     0
 63
     7
283
     0
274
    -2
284
     1
 64
     0
275
    -2
285
     1
 65
     0
276
    -2
286
     1
 66
     0
277
    -2
287
     1
 67
     0
278
    -2
288
     1
 68
     0
279
    -2
289
     1
 69
     0
  0
DICTIONARYVAR
  5
138
102
{ACAD_REACTORS
330
94
102
}
330
94
100
DictionaryVariables
280
     0
  1
STANDARD
  0
DICTIONARYVAR
  5
96
102
{ACAD_REACTORS
330
94
102
}
330
94
100
DictionaryVariables
280
     0
  1
2
  0
DICTIONARYVAR
  5
95
102
{ACAD_REACTORS
330
94
102
}
330
94
100
DictionaryVariables
280
     0
  1
1
  0
DICTIONARYVAR
  5
2FDD
102
{ACAD_REACTORS
330
94
102
}
330
94
100
DictionaryVariables
280
     0
  1

  0
DICTIONARY
  5
1B5
102
{ACAD_REACTORS
330
5B
102
}
330
5B
100
AcDbDictionary
281
     1
  0
DICTIONARY
  5
61
102
{ACAD_REACTORS
330
5B
102
}
330
5B
100
AcDbDictionary
281
     1
  0
XRECORD
  5
123
102
{ACAD_REACTORS
330
5B
102
}
330
5B
100
AcDbXrecord
280
     1
 90
-1023410169
  0
DICTIONARY
  5
2FE7
102
{ACAD_REACTORS
330
41
102
}
330
41
100
AcDbDictionary
281
     1
  3
DWGSETTINGS
350
2FE8
  3
TRANSSETTINGS
350
2FEB
  0
LAYER_INDEX
  5
30C2
102
{ACAD_REACTORS
330
30C1
102
}
330
30C1
100
AcDbIndex
 40
2455125.671867859
100
AcDbLayerIndex
  8
0
360
30C3
 90
       85
  8
AM_VIS
360
30C4
 90
      555
  8
AM_4
360
30C5
 90
       18
  8
AM_7
360
30C6
 90
       20
  8
AM_5
360
30C7
 90
       36
  8
Defpoints
360
30C8
 90
        0
  8
LOGO
360
30C9
 90
      119
  0
DICTIONARY
  5
30CF
330
22
100
AcDbDictionary
280
     1
281
     1
  3
ACAD_XREC_ROUNDTRIP
360
30D0
  0
DICTIONARY
  5
30CD
330
1E
100
AcDbDictionary
280
     1
281
     1
  3
ACAD_XREC_ROUNDTRIP
360
30CE
  0
DICTIONARY
  5
30D1
330
26
100
AcDbDictionary
280
     1
281
     1
  3
ACAD_XREC_ROUNDTRIP
360
30D2
  0
IDBUFFER
  5
30C3
330
0
100
AcDbIdBuffer
330
2B6D
330
2B6E
330
2B6F
330
2B70
330
2BF4
330
2C0B
330
2C0C
330
2C26
330
2C28
330
2C2A
330
2D2C
330
2D2D
330
2D2E
330
2D2F
330
2D30
330
2D31
330
2D32
330
2D33
330
2D34
330
2D35
330
2D36
330
2D37
330
2D38
330
2D39
330
2D3A
330
2D3B
330
2D3C
330
2D3D
330
2D3E
330
2D3F
330
2D40
330
2D41
330
2D42
330
2D43
330
2D44
330
2D45
330
2D46
330
1922
330
1924
330
1925
330
1926
330
1927
330
1928
330
1929
330
192A
330
192B
330
192D
330
192F
330
1930
330
1931
330
19C2
330
19C3
330
19C4
330
19C5
330
19C8
330
19C9
330
19CA
330
19CB
330
1A11
330
1A12
330
1A13
330
1A14
330
1A15
330
1A2E
330
1C90
330
1C96
330
1C9A
330
1C9C
330
1C9D
330
1C9E
330
1EF8
330
1EF9
330
1EFA
330
23D5
330
23E7
330
271F
330
2720
330
2789
330
278A
330
278B
330
278C
330
2A12
330
2A13
330
2A45
330
2ADC
  0
IDBUFFER
  5
30C4
330
0
100
AcDbIdBuffer
330
29CF
330
29D0
330
29D1
330
29D2
330
29D3
330
29D4
330
29D5
330
29D6
330
29D7
330
29D8
330
29D9
330
29DA
330
29DB
330
29DC
330
29DD
330
29DE
330
29DF
330
29E0
330
29E1
330
29E2
330
29E3
330
29E4
330
29E5
330
29E6
330
29E7
330
29E8
330
29E9
330
29EA
330
29EB
330
29EC
330
29ED
330
29EE
330
29EF
330
29F0
330
29F1
330
29F2
330
29F3
330
29F4
330
29F5
330
29F6
330
29F7
330
29F8
330
29F9
330
29FA
330
29FB
330
29FC
330
29FD
330
29FE
330
29FF
330
2A00
330
2A01
330
2A02
330
2A03
330
2A04
330
2A05
330
2A06
330
2A07
330
2C25
330
2C27
330
227C
330
227D
330
227E
330
227F
330
2280
330
2281
330
2282
330
2283
330
2284
330
2285
330
2286
330
2287
330
2288
330
2289
330
228A
330
228B
330
228C
330
228D
330
228E
330
228F
330
2290
330
2291
330
2292
330
2293
330
2294
330
2295
330
2296
330
2297
330
2298
330
2299
330
229A
330
229B
330
229C
330
229D
330
229E
330
229F
330
22A0
330
22A1
330
22A2
330
22A3
330
22A4
330
22A5
330
22A6
330
22A7
330
22A8
330
22A9
330
22AA
330
22AB
330
22AC
330
22AD
330
22AE
330
22AF
330
22B0
330
22B1
330
22B2
330
22B3
330
22B4
330
22B5
330
22B6
330
22B7
330
22B8
330
22B9
330
22BA
330
22BB
330
22BC
330
22BD
330
22BE
330
22BF
330
22C0
330
22C1
330
22C2
330
22C3
330
22C4
330
22C5
330
22C6
330
22C7
330
22C8
330
22C9
330
22CA
330
22CB
330
22CC
330
22CD
330
22CE
330
22CF
330
22D0
330
22D1
330
22D2
330
22D3
330
22D4
330
22D5
330
22D6
330
22D7
330
22D8
330
22D9
330
22DA
330
22DB
330
22DC
330
22DD
330
22DE
330
22DF
330
22E0
330
22E1
330
22E2
330
22E3
330
22E4
330
22E5
330
22E6
330
22E7
330
22E8
330
22E9
330
22EA
330
22EB
330
22EC
330
22ED
330
22EE
330
22EF
330
22F0
330
22F1
330
22F2
330
22F3
330
22F4
330
22F5
330
22F6
330
22F7
330
22F8
330
22F9
330
22FA
330
22FB
330
22FC
330
22FD
330
22FE
330
22FF
330
2300
330
2301
330
2302
330
2303
330
2304
330
2305
330
2306
330
2308
330
230A
330
230B
330
230C
330
230D
330
230E
330
230F
330
2310
330
2311
330
2312
330
2313
330
2314
330
2315
330
2316
330
2317
330
2318
330
2319
330
231A
330
231B
330
231C
330
231D
330
231E
330
231F
330
2320
330
2321
330
2322
330
2323
330
2324
330
2325
330
2326
330
2327
330
2328
330
2329
330
232A
330
232B
330
232C
330
232D
330
232E
330
232F
330
2330
330
2331
330
2332
330
2333
330
2334
330
2335
330
2336
330
2337
330
2338
330
2339
330
233A
330
233B
330
233C
330
233D
330
233E
330
233F
330
2340
330
2341
330
2342
330
2343
330
2344
330
2345
330
2346
330
2347
330
2348
330
2349
330
234A
330
234B
330
234C
330
234D
330
234E
330
234F
330
2350
330
2351
330
2352
330
2353
330
2354
330
2355
330
2356
330
2357
330
2358
330
2359
330
235A
330
235B
330
235C
330
235D
330
235E
330
235F
330
2360
330
2361
330
2362
330
2363
330
2364
330
2365
330
2366
330
2367
330
2368
330
2369
330
236A
330
236B
330
236C
330
236D
330
236E
330
236F
330
2370
330
2371
330
2372
330
237C
330
237D
330
237E
330
237F
330
2380
330
2381
330
2382
330
2383
330
2384
330
2385
330
2386
330
2387
330
2388
330
2389
330
238A
330
238B
330
238C
330
238D
330
238E
330
238F
330
2390
330
2391
330
2392
330
2393
330
2394
330
2395
330
2396
330
2397
330
2399
330
239B
330
239C
330
239D
330
239E
330
239F
330
23A0
330
23A1
330
23A2
330
23A4
330
23A5
330
23A6
330
23A7
330
23A8
330
23A9
330
23AA
330
23AB
330
23AC
330
23AD
330
23AE
330
28A4
330
28A5
330
28A6
330
28A7
330
28A8
330
28A9
330
28AA
330
28AB
330
28AC
330
28AD
330
28AE
330
28AF
330
28B0
330
28B1
330
28B2
330
28B3
330
28B4
330
28B5
330
28B6
330
28B7
330
28B8
330
28B9
330
28BA
330
28BB
330
28BC
330
28BD
330
28BE
330
28BF
330
28C0
330
28C1
330
28C2
330
28C3
330
28C4
330
28C5
330
28C6
330
28C7
330
28C8
330
28C9
330
28CA
330
28CB
330
28CC
330
28CD
330
28CE
330
28CF
330
28D0
330
28D1
330
28D3
330
28D4
330
28D5
330
28D6
330
28D7
330
28D8
330
2913
330
2914
330
2915
330
2916
330
2917
330
2918
330
2919
330
291A
330
291B
330
291C
330
291D
330
291E
330
291F
330
2920
330
2921
330
2922
330
2923
330
2924
330
2925
330
2926
330
2927
330
2928
330
2929
330
292A
330
292B
330
292C
330
292D
330
292E
330
292F
330
2930
330
2931
330
2932
330
2933
330
2934
330
2935
330
2936
330
2937
330
2938
330
2939
330
293A
330
293B
330
293C
330
293D
330
293E
330
293F
330
2940
330
2941
330
2942
330
2943
330
2944
330
2945
330
2946
330
2947
330
2948
330
2949
330
294A
330
294B
330
294C
330
294D
330
294E
330
2950
330
2951
330
2952
330
2953
330
2954
330
2955
330
2974
330
2975
330
2976
330
2977
330
2978
330
2979
330
297A
330
297B
330
297C
330
297D
330
297E
330
297F
330
2980
330
2981
330
2982
330
2983
330
2984
330
2985
330
2986
330
2987
330
2988
330
2989
330
298A
330
298B
330
298C
330
298D
330
298E
330
298F
330
2990
330
2991
330
2992
330
2993
330
2994
330
2995
330
2996
330
2997
330
2998
330
2999
330
299A
330
299B
330
299C
330
299D
330
299F
330
29A0
330
29A1
330
29A2
330
29A3
330
29A4
330
29A5
330
29A6
330
29A7
330
29A8
330
29A9
330
29AA
330
29AB
330
29AC
330
29AD
330
29AE
330
29AF
330
29B5
330
29B6
330
29B7
330
29B8
330
29B9
330
29BA
330
29BB
330
29BC
330
29BD
330
29BE
330
29BF
330
29C0
330
29C1
330
29C2
330
29C3
330
29C4
330
29C5
330
29C6
330
29C7
330
29C8
330
29C9
330
29CA
330
29CB
330
29CC
330
29CD
330
29CE
  0
IDBUFFER
  5
30C5
330
0
100
AcDbIdBuffer
330
2C97
330
2C98
330
2509
330
250A
330
250B
330
250C
330
250D
330
250E
330
250F
330
270A
330
270B
330
270C
330
270D
330
270E
330
270F
330
2710
330
2C95
330
2C96
  0
IDBUFFER
  5
30C6
330
0
100
AcDbIdBuffer
330
2A0E
330
2A0F
330
2A3E
330
2B6C
330
23D1
330
23D2
330
23D3
330
23D4
330
23E3
330
23E4
330
23E5
330
23E6
330
23F4
330
2401
330
2A08
330
2A09
330
2A0A
330
2A0B
330
2A0C
330
2A0D
  0
IDBUFFER
  5
30C7
330
0
100
AcDbIdBuffer
330
2664
330
2A10
330
2A11
330
2A3F
330
2A40
330
2A41
330
2A42
330
2A44
330
2AD4
330
2AD5
330
2AD6
330
2AD7
330
2AD8
330
2AD9
330
2B71
330
2C29
330
2C89
330
2FA5
330
2FA6
330
2FA7
330
2402
330
2403
330
2404
330
2405
330
2409
330
24E8
330
2507
330
2508
330
265C
330
265D
330
265E
330
265F
330
2660
330
2661
330
2662
330
2663
  0
IDBUFFER
  5
30C8
330
0
100
AcDbIdBuffer
  0
IDBUFFER
  5
30C9
330
0
100
AcDbIdBuffer
330
1EF4
330
1EF5
330
1EF6
330
1EF7
330
1EFB
330
2097
330
2098
330
1E63
330
1E64
330
1E65
330
1E66
330
1E67
330
1E68
330
1E69
330
1E6A
330
1E6B
330
1E6C
330
1E6D
330
1E6E
330
1E6F
330
1E70
330
1E71
330
1E72
330
1E73
330
1E74
330
1E75
330
1E76
330
1E77
330
1E78
330
1E79
330
1E7A
330
1E7E
330
1E82
330
1E83
330
1E87
330
1E88
330
1E89
330
1E8A
330
1E8B
330
1E8C
330
1E8D
330
1E8E
330
1E92
330
1E96
330
1E9A
330
1E9B
330
1E9C
330
1EA0
330
1EA1
330
1EA2
330
1EA3
330
1EA4
330
1EA5
330
1EA6
330
1EA7
330
1EA8
330
1EA9
330
1EAA
330
1EAB
330
1EAC
330
1EAD
330
1EAE
330
1EAF
330
1EB0
330
1EB1
330
1EB2
330
1EB3
330
1EB4
330
1EB5
330
1EB6
330
1EB7
330
1EB8
330
1EB9
330
1EBA
330
1EBB
330
1EBC
330
1EBD
330
1EBE
330
1EBF
330
1EC0
330
1EC1
330
1EC2
330
1EC3
330
1EC4
330
1EC5
330
1EC6
330
1EC7
330
1EC8
330
1EC9
330
1ECA
330
1ECB
330
1ECC
330
1ECD
330
1ECE
330
1ECF
330
1ED0
330
1ED1
330
1ED2
330
1ED3
330
1ED4
330
1ED5
330
1ED6
330
1ED7
330
1ED8
330
1ED9
330
1EDA
330
1EDB
330
1EDC
330
1EDD
330
1EDE
330
1EDF
330
1EEC
330
1EED
330
1EEE
330
1EEF
330
1EF0
330
1EF1
330
1EF2
330
1EF3
  0
XRECORD
  5
30D0
102
{ACAD_REACTORS
330
30CF
102
}
330
30CF
100
AcDbXrecord
280
     1
102
SHADEPLOT
 70
     0
102
SHADEPLOTRESLEVEL
 70
     2
102
SHADEPLOTCUSTOMDPI
 70
   300
  0
XRECORD
  5
30CE
102
{ACAD_REACTORS
330
30CD
102
}
330
30CD
100
AcDbXrecord
280
     1
102
SHADEPLOT
 70
     0
102
SHADEPLOTRESLEVEL
 70
     2
102
SHADEPLOTCUSTOMDPI
 70
   300
  0
XRECORD
  5
30D2
102
{ACAD_REACTORS
330
30D1
102
}
330
30D1
100
AcDbXrecord
280
     1
102
SHADEPLOT
 70
     0
102
SHADEPLOTRESLEVEL
 70
     2
102
SHADEPLOTCUSTOMDPI
 70
   300
  0
ENDSEC
  0
EOF
