  0
SECTION
  2
HEADER
  9
$ACADVER
  1
AC1015
  9
$ACADMAINTVER
 70
    20
  9
$DWGCODEPAGE
  3
ANSI_950
  9
$INSBASE
 10
0.0
 20
0.0
 30
0.0
  9
$EXTMIN
 10
2044.024589492934
 20
1208.134668653521
 30
-0.0000852875556347
  9
$EXTMAX
 10
2785.25072576449
 20
1752.206996083522
 30
317.4149662543489
  9
$LIMMIN
 10
0.0
 20
0.0
  9
$LIMMAX
 10
420.0
 20
297.0
  9
$ORTHOMODE
 70
     1
  9
$REGENMODE
 70
     1
  9
$FILLMODE
 70
     1
  9
$QTEXTMODE
 70
     0
  9
$MIRRTEXT
 70
     1
  9
$LTSCALE
 40
1.0
  9
$ATTMODE
 70
     1
  9
$TEXTSIZE
 40
3.0
  9
$TRACEWID
 40
1.0
  9
$TEXTSTYLE
  7
CHINESET
  9
$CLAYER
  8
0
  9
$CELTYPE
  6
ByLayer
  9
$CECOLOR
 62
   256
  9
$CELTSCALE
 40
1.0
  9
$DISPSILH
 70
     0
  9
$DIMSCALE
 40
1.0
  9
$DIMASZ
 40
6.0
  9
$DIMEXO
 40
1.0
  9
$DIMDLI
 40
14.0
  9
$DIMRND
 40
0.0
  9
$DIMDLE
 40
0.0
  9
$DIMEXE
 40
1.5
  9
$DIMTP
 40
0.1
  9
$DIMTM
 40
0.1
  9
$DIMTXT
 40
6.0
  9
$DIMCEN
 40
0.0
  9
$DIMTSZ
 40
0.0
  9
$DIMTOL
 70
     0
  9
$DIMLIM
 70
     0
  9
$DIMTIH
 70
     0
  9
$DIMTOH
 70
     0
  9
$DIMSE1
 70
     0
  9
$DIMSE2
 70
     0
  9
$DIMTAD
 70
     1
  9
$DIMZIN
 70
     9
  9
$DIMBLK
  1

  9
$DIMASO
 70
     1
  9
$DIMSHO
 70
     1
  9
$DIMPOST
  1

  9
$DIMAPOST
  1
"
  9
$DIMALT
 70
     0
  9
$DIMALTD
 70
     2
  9
$DIMALTF
 40
0.0393701
  9
$DIMLFAC
 40
1.0
  9
$DIMTOFL
 70
     1
  9
$DIMTVP
 40
0.0
  9
$DIMTIX
 70
     0
  9
$DIMSOXD
 70
     0
  9
$DIMSAH
 70
     0
  9
$DIMBLK1
  1

  9
$DIMBLK2
  1

  9
$DIMSTYLE
  2
AM_ISO
  9
$DIMCLRD
 70
   256
  9
$DIMCLRE
 70
   256
  9
$DIMCLRT
 70
   256
  9
$DIMTFAC
 40
0.71
  9
$DIMGAP
 40
1.5
  9
$DIMJUST
 70
     0
  9
$DIMSD1
 70
     0
  9
$DIMSD2
 70
     0
  9
$DIMTOLJ
 70
     2
  9
$DIMTZIN
 70
     8
  9
$DIMALTZ
 70
     0
  9
$DIMALTTZ
 70
     0
  9
$DIMUPT
 70
     0
  9
$DIMDEC
 70
     2
  9
$DIMTDEC
 70
     8
  9
$DIMALTU
 70
     2
  9
$DIMALTTD
 70
     2
  9
$DIMTXSTY
  7
STANDARD
  9
$DIMAUNIT
 70
     0
  9
$DIMADEC
 70
     0
  9
$DIMALTRND
 40
0.0
  9
$DIMAZIN
 70
     2
  9
$DIMDSEP
 70
    46
  9
$DIMATFIT
 70
     3
  9
$DIMFRAC
 70
     0
  9
$DIMLDRBLK
  1

  9
$DIMLUNIT
 70
     2
  9
$DIMLWD
 70
    -1
  9
$DIMLWE
 70
    -1
  9
$DIMTMOVE
 70
     0
  9
$LUNITS
 70
     2
  9
$LUPREC
 70
     2
  9
$SKETCHINC
 40
1.0
  9
$FILLETRAD
 40
2.5
  9
$AUNITS
 70
     0
  9
$AUPREC
 70
     0
  9
$MENU
  1
.
  9
$ELEVATION
 40
0.0
  9
$PELEVATION
 40
0.0
  9
$THICKNESS
 40
0.0
  9
$LIMCHECK
 70
     0
  9
$CHAMFERA
 40
2.5
  9
$CHAMFERB
 40
2.5
  9
$CHAMFERC
 40
20.0
  9
$CHAMFERD
 40
0.0
  9
$SKPOLY
 70
     0
  9
$TDCREATE
 40
2453516.660980903
  9
$TDUCREATE
 40
2453516.327647569
  9
$TDUPDATE
 40
2453517.562777593
  9
$TDUUPDATE
 40
2453517.229444259
  9
$TDINDWG
 40
0.1671757523
  9
$TDUSRTIMER
 40
0.1671757523
  9
$USRTIMER
 70
     1
  9
$ANGBASE
 50
0.0
  9
$ANGDIR
 70
     0
  9
$PDMODE
 70
     0
  9
$PDSIZE
 40
0.0
  9
$PLINEWID
 40
0.0
  9
$SPLFRAME
 70
     0
  9
$SPLINETYPE
 70
     6
  9
$SPLINESEGS
 70
     8
  9
$HANDSEED
  5
145F
  9
$SURFTAB1
 70
     6
  9
$SURFTAB2
 70
     6
  9
$SURFTYPE
 70
     6
  9
$SURFU
 70
     6
  9
$SURFV
 70
     6
  9
$UCSBASE
  2

  9
$UCSNAME
  2

  9
$UCSORG
 10
0.0
 20
0.0
 30
0.0
  9
$UCSXDIR
 10
1.0
 20
0.0
 30
0.0
  9
$UCSYDIR
 10
0.0
 20
1.0
 30
0.0
  9
$UCSORTHOREF
  2

  9
$UCSORTHOVIEW
 70
     0
  9
$UCSORGTOP
 10
0.0
 20
0.0
 30
0.0
  9
$UCSORGBOTTOM
 10
0.0
 20
0.0
 30
0.0
  9
$UCSORGLEFT
 10
0.0
 20
0.0
 30
0.0
  9
$UCSORGRIGHT
 10
0.0
 20
0.0
 30
0.0
  9
$UCSORGFRONT
 10
0.0
 20
0.0
 30
0.0
  9
$UCSORGBACK
 10
0.0
 20
0.0
 30
0.0
  9
$PUCSBASE
  2

  9
$PUCSNAME
  2

  9
$PUCSORG
 10
0.0
 20
0.0
 30
0.0
  9
$PUCSXDIR
 10
1.0
 20
0.0
 30
0.0
  9
$PUCSYDIR
 10
0.0
 20
1.0
 30
0.0
  9
$PUCSORTHOREF
  2

  9
$PUCSORTHOVIEW
 70
     0
  9
$PUCSORGTOP
 10
0.0
 20
0.0
 30
0.0
  9
$PUCSORGBOTTOM
 10
0.0
 20
0.0
 30
0.0
  9
$PUCSORGLEFT
 10
0.0
 20
0.0
 30
0.0
  9
$PUCSORGRIGHT
 10
0.0
 20
0.0
 30
0.0
  9
$PUCSORGFRONT
 10
0.0
 20
0.0
 30
0.0
  9
$PUCSORGBACK
 10
0.0
 20
0.0
 30
0.0
  9
$USERI1
 70
     0
  9
$USERI2
 70
     0
  9
$USERI3
 70
     0
  9
$USERI4
 70
     0
  9
$USERI5
 70
     0
  9
$USERR1
 40
0.0
  9
$USERR2
 40
0.0
  9
$USERR3
 40
0.0
  9
$USERR4
 40
0.0
  9
$USERR5
 40
0.0
  9
$WORLDVIEW
 70
     1
  9
$SHADEDGE
 70
     3
  9
$SHADEDIF
 70
    70
  9
$TILEMODE
 70
     1
  9
$MAXACTVP
 70
    64
  9
$PINSBASE
 10
0.0
 20
0.0
 30
0.0
  9
$PLIMCHECK
 70
     0
  9
$PEXTMIN
 10
1.000000000000000E+20
 20
1.000000000000000E+20
 30
1.000000000000000E+20
  9
$PEXTMAX
 10
-1.000000000000000E+20
 20
-1.000000000000000E+20
 30
-1.000000000000000E+20
  9
$PLIMMIN
 10
0.0
 20
0.0
  9
$PLIMMAX
 10
420.0
 20
297.0
  9
$UNITMODE
 70
     0
  9
$VISRETAIN
 70
     1
  9
$PLINEGEN
 70
     0
  9
$PSLTSCALE
 70
     1
  9
$TREEDEPTH
 70
  3020
  9
$CMLSTYLE
  2
Standard
  9
$CMLJUST
 70
     0
  9
$CMLSCALE
 40
20.0
  9
$PROXYGRAPHICS
 70
     1
  9
$MEASUREMENT
 70
     1
  9
$CELWEIGHT
370
    -1
  9
$ENDCAPS
280
     0
  9
$JOINSTYLE
280
     0
  9
$LWDISPLAY
290
     0
  9
$INSUNITS
 70
     4
  9
$HYPERLINKBASE
  1

  9
$STYLESHEET
  1
彩色出圖.ctb
  9
$XEDIT
290
     1
  9
$CEPSNTYPE
380
     0
  9
$PSTYLEMODE
290
     1
  9
$FINGERPRINTGUID
  2
{29CC662F-A346-429B-BD7A-24EDE505A841}
  9
$VERSIONGUID
  2
{C16EDB3B-BEDB-484B-AE9D-66D773BB2153}
  9
$EXTNAMES
290
     1
  9
$PSVPSCALE
 40
0.0
  9
$OLESTARTUP
290
     0
  0
ENDSEC
  0
SECTION
  2
CLASSES
  0
CLASS
  1
ACDBDICTIONARYWDFLT
  2
AcDbDictionaryWithDefault
  3
ObjectDBX Classes
 90
        0
280
     0
281
     0
  0
CLASS
  1
ACDBPLACEHOLDER
  2
AcDbPlaceHolder
  3
ObjectDBX Classes
 90
        0
280
     0
281
     0
  0
CLASS
  1
LAYOUT
  2
AcDbLayout
  3
ObjectDBX Classes
 90
        0
280
     0
281
     0
  0
CLASS
  1
ACME_DOCUMENT
  2
AcMeDbDoc
  3
AcMeServices
 90
        0
280
     0
281
     0
  0
CLASS
  1
AMGSETTINGSOBJ
  2
AmgSettingsObj
  3
"AcadM|Product Description: AutoCAD Mechanical 2000|Company: Autodesk"
 90
        0
280
     0
281
     0
  0
CLASS
  1
ACMESCOPE
  2
AcMeScope
  3
AcMeServices
 90
        0
280
     0
281
     0
  0
CLASS
  1
ACMECOMMANDHISTORY
  2
AcMeCommandHistory
  3
AcMeServices
 90
        0
280
     0
281
     0
  0
CLASS
  1
ACIMSYSVARMAN
  2
AcImSysVarManager
  3
AcMeServices
 90
        0
280
     0
281
     0
  0
CLASS
  1
ACIMREALSYSVAR
  2
AcImRealSysVar
  3
AcMeServices
 90
        0
280
     0
281
     0
  0
CLASS
  1
ACIMINTSYSVAR
  2
AcImIntSysVar
  3
AcMeServices
 90
        0
280
     0
281
     0
  0
CLASS
  1
ACMEDRAWINGMAN
  2
AcMeDrawingMan
  3
AcMeServices
 90
        0
280
     0
281
     0
  0
CLASS
  1
ACMEVIEW
  2
AcMeView
  3
AcMeServices
 90
        0
280
     0
281
     0
  0
CLASS
  1
ACDBENTITYCACHE
  2
AcMeEntityCache
  3
AcMeServices
 90
        0
280
     0
281
     0
  0
CLASS
  1
GSMANAGER
  2
AcMeGSManager
  3
AcMeServices
 90
        0
280
     0
281
     0
  0
CLASS
  1
AMDTINTERNALREACTOR
  2
AmdtInternalReactor
  3
AcMeServices
 90
        0
280
     0
281
     0
  0
CLASS
  1
ACMESTATEMGR
  2
AcMeStateMgr
  3
AcMeServices
 90
        0
280
     0
281
     0
  0
CLASS
  1
ACGREFMASTER
  2
AcGrefMaster
  3
AcAttribServices
 90
        0
280
     0
281
     0
  0
CLASS
  1
ACME_DATABASE
  2
AcMeDbDatabase
  3
AcMeServices
 90
        0
280
     0
281
     0
  0
CLASS
  1
ACRFINSADJUSTERMGR
  2
AcRfInsAdjusterMgr
  3
AcMeServices
 90
        0
280
     0
281
     0
  0
CLASS
  1
ACGREFACADMASTER
  2
AcGrefacadMaster
  3
AcGrefServices
 90
        0
280
     0
281
     0
  0
CLASS
  1
AMIMASTER
  2
AmiMaster
  3
AmiServices
 90
        0
280
     0
281
     0
  0
CLASS
  1
ACMDATADICTIONARY
  2
AcmDataDictionary
  3
"AcmSymBB|Product Description: AutoCAD Mechanical 2004 DX|Company: Autodesk"
 90
        0
280
     0
281
     0
  0
CLASS
  1
ACMDATAENTRYBLOCK
  2
AcmDataEntryBlock
  3
"AcmSymBB|Product Description: AutoCAD Mechanical 2004 DX|Company: Autodesk"
 90
        0
280
     0
281
     0
  0
CLASS
  1
ACIMSTRSYSVAR
  2
AcImStrSysVar
  3
AcMeServices
 90
        0
280
     0
281
     0
  0
CLASS
  1
ACMSTANDARDISO
  2
AcmStandardISO
  3
"Amdt_StdImp|Product Description: AutoCAD Mechanical 2004 DX|Company: Autodesk"
 90
        0
280
     0
281
     0
  0
CLASS
  1
AMGOBJPROPCFG
  2
AmgObjPropCfg
  3
"AmgLay|Product Description: AutoCAD Mechanical 2000|Company: Autodesk"
 90
        1
280
     0
281
     0
  0
CLASS
  1
AMDTEDGESTANDARDISO
  2
AmdtEdgeStdISO
  3
"Amdt_StdImp|Product Description: AutoCAD Mechanical 2004 DX|Company: Autodesk"
 90
        0
280
     0
281
     0
  0
CLASS
  1
ACMSURFSTANDARDISO
  2
AcmSurfTextStdISO
  3
"Amdt_StdImp|Product Description: AutoCAD Mechanical 2004 DX|Company: Autodesk"
 90
        0
280
     0
281
     0
  0
CLASS
  1
ACMFCFSTANDARDISO
  2
AcmFCFStdISO
  3
"Amdt_StdImp|Product Description: AutoCAD Mechanical 2004 DX|Company: Autodesk"
 90
        0
280
     0
281
     0
  0
CLASS
  1
ACMWELDSTANDARDISO
  2
AcmWeldingStdISO
  3
"Amdt_StdImp|Product Description: AutoCAD Mechanical 2004 DX|Company: Autodesk"
 90
        0
280
     0
281
     0
  0
CLASS
  1
ACMIDSTANDARDISO
  2
AcmIdStdISO
  3
"Amdt_StdImp|Product Description: AutoCAD Mechanical 2004 DX|Company: Autodesk"
 90
        0
280
     0
281
     0
  0
CLASS
  1
ACMDATUMSTANDARDISO
  2
AcmDatumStdISO
  3
"Amdt_StdImp|Product Description: AutoCAD Mechanical 2004 DX|Company: Autodesk"
 90
        0
280
     0
281
     0
  0
CLASS
  1
ACMBOMSTANDARDISO
  2
AcmBOMStdISO
  3
"Amdt_StdImp|Product Description: AutoCAD Mechanical 2004 DX|Company: Autodesk"
 90
        0
280
     0
281
     0
  0
CLASS
  1
ACMDETAILSTANDARDISO
  2
AmdtDetailSymStdISO
  3
"Amdt_StdImp|Product Description: AutoCAD Mechanical 2004 DX|Company: Autodesk"
 90
        0
280
     0
281
     0
  0
CLASS
  1
ACMSECTIONSTANDARDISO
  2
AmdtSectionSymStdISO
  3
"Amdt_StdImp|Product Description: AutoCAD Mechanical 2004 DX|Company: Autodesk"
 90
        0
280
     0
281
     0
  0
CLASS
  1
ACMCENTERLINESTANDARDISO
  2
AmdtCenterLineStdISO
  3
"Amdt_StdImp|Product Description: AutoCAD Mechanical 2004 DX|Company: Autodesk"
 90
        0
280
     0
281
     0
  0
CLASS
  1
ACMNOTESTANDARDISO
  2
AmdtNoteStdISO
  3
"Amdt_StdImp|Product Description: AutoCAD Mechanical 2004 DX|Company: Autodesk"
 90
        0
280
     0
281
     0
  0
CLASS
  1
ACAMGLAYSTD
  2
AcAmgLayStd
  3
"AcAmgLayStd|Product Description: AutoCAD Mechanical 2000|Company: Autodesk"
 90
        0
280
     0
281
     0
  0
CLASS
  1
ACAMGDIMSTD
  2
AcAmgDimStd
  3
"AcAmgDimStd|Product Description: AutoCAD Mechanical 2000|Company: Autodesk"
 90
        0
280
     0
281
     0
  0
CLASS
  1
ACAMGHOLECHARTSTDISO
  2
AcAmgHoleChartStdISO
  3
ACMSYMBB_MODULE_NAME
 90
        0
280
     0
281
     0
  0
CLASS
  1
ACAMGTITLESTD
  2
AcAmgTitleStd
  3
"TITLEAPP"
 90
        0
280
     0
281
     0
  0
CLASS
  1
LAYER_INDEX
  2
AcDbLayerIndex
  3
ObjectDBX Classes
 90
    32768
280
     0
281
     0
  0
CLASS
  1
IDBUFFER
  2
AcDbIdBuffer
  3
ObjectDBX Classes
 90
    32768
280
     0
281
     0
  0
CLASS
  1
DICTIONARYVAR
  2
AcDbDictionaryVar
  3
ObjectDBX Classes
 90
        0
280
     0
281
     0
  0
CLASS
  1
AM_DRAWING_MGR
  2
AcDmDwgMgr
  3
AcMechDwgViewMgmt
 90
        0
280
     0
281
     0
  0
CLASS
  1
AM_DWG_DOCUMENT
  2
AcDmDwgDocument
  3
AcMechDwgViewMgmt
 90
        0
280
     0
281
     0
  0
CLASS
  1
AM_DWG_SHEET
  2
AcDmSheet
  3
AcMechDwgViewMgmt
 90
        0
280
     0
281
     0
  0
CLASS
  1
AM_VIEWDIMPARMAP
  2
AcDmViewDimParMap
  3
AcMechDwgViewMgmt
 90
        0
280
     0
281
     0
  0
CLASS
  1
AM_DWGMGR_NAME
  2
AcDmDwgMgrName
  3
AcMechDwgViewMgmt
 90
        0
280
     0
281
     0
  0
CLASS
  1
AMDTMENUSTATEMGR
  2
AmdtMenuStateMgr
  3
McadcomServices
 90
        0
280
     0
281
     0
  0
CLASS
  1
AMDTMCOMMENUSTATE
  2
AmdtMcomMenuState
  3
McadcomServices
 90
        0
280
     0
281
     0
  0
CLASS
  1
MAPIAMMOUDLE
  2
MApiAmModule
  3
MApiAmServices
 90
        0
280
     0
281
     0
  0
CLASS
  1
AMDTADMENUSTATE
  2
AmdtAdMenuState
  3
DesignerServices
 90
        0
280
     0
281
     0
  0
CLASS
  1
ADAPPL
  2
AcAdAppl
  3
DesignerServices
 90
        0
280
     0
281
     0
  0
CLASS
  1
DEPMGR
  2
AcAdDepMgr
  3
DesignerServices
 90
        0
280
     0
281
     0
  0
CLASS
  1
PARAMMGR
  2
AcAdParamMgr
  3
DesignerServices
 90
        0
280
     0
281
     0
  0
CLASS
  1
PARAMSCOPE
  2
AcAdParamScope
  3
DesignerServices
 90
        0
280
     0
281
     0
  0
CLASS
  1
NAMEDAPPL
  2
AcAdNamedAppl
  3
DesignerServices
 90
        0
280
     0
281
     0
  0
CLASS
  1
AMDTDMMENUSTATE
  2
AmdtDmMenuState
  3
AcMechDwgViewMgmt
 90
        0
280
     0
281
     0
  0
CLASS
  1
AMDTAMMENUSTATE
  2
AmdtAmMenuState
  3
DesignerAssemblies
 90
        0
280
     0
281
     0
  0
CLASS
  1
ACAMPROJECT
  2
AcAmProject
  3
DesignerAssemblies
 90
        0
280
     0
281
     0
  0
CLASS
  1
ACAMGRCOMPDEF
  2
AcAmGrCompDef
  3
DesignerAssemblies
 90
        0
280
     0
281
     0
  0
CLASS
  1
ACCMCONTEXT
  2
AcCmContext
  3
DesignerAssemblies
 90
        0
280
     0
281
     0
  0
CLASS
  1
ACAMCOMPDEF
  2
AcAmCompDef
  3
DesignerAssemblies
 90
        0
280
     0
281
     0
  0
CLASS
  1
ACAMCOMPDEFMGR
  2
AcAmCompDefMgr
  3
DesignerAssemblies
 90
        0
280
     0
281
     0
  0
CLASS
  1
AMCONTEXTMGR
  2
AcAmContextMgr
  3
DesignerAssemblies
 90
        0
280
     0
281
     0
  0
CLASS
  1
ACAMCONTEXTMODELER
  2
AcAmContextModeler
  3
DesignerAssemblies
 90
        0
280
     0
281
     0
  0
CLASS
  1
ACMTHREADLINESTANDARDISO
  2
AmdtThreadLineStdISO
  3
"Amdt_StdImp|Product Description: AutoCAD Mechanical 2004 DX|Company: Autodesk"
 90
        0
280
     0
281
     0
  0
CLASS
  1
CATALOGSTATE
  2
AcAmCatalogState
  3
DesignerAssemblies
 90
        0
280
     0
281
     0
  0
CLASS
  1
ACAMGRCOMPDEFSET
  2
AcAmGrCompDefSet
  3
DesignerAssemblies
 90
        0
280
     0
281
     0
  0
CLASS
  1
AMDTBROWSERDBTAB
  2
AmdtBrowserDbTab
  3
McadcomServices
 90
        0
280
     0
281
     0
  0
CLASS
  1
CBROWSERAPPOBJECT
  2
CBrowserAppObject
  3
McadcomServices
 90
        0
280
     0
281
     0
  0
CLASS
  1
DM_PLACEHOLDER
  2
AcDmSelsetPlaceholder
  3
AcMechDwgViewMgmt
 90
        0
280
     0
281
     0
  0
CLASS
  1
TABLESTYLE
  2
AcDbTableStyle
  3
ObjectDBX Classes
 90
     2047
280
     0
281
     0
  0
CLASS
  1
VAACXREFPANELOBJECT
  2
VaAcXREFPanelObject
  3
VAAC_ADDIN
 90
        0
280
     0
281
     0
  0
CLASS
  1
VAACIMAGEINVENTORY
  2
VaAcImageInventory
  3
VAAC_ADDIN
 90
        0
280
     0
281
     0
  0
CLASS
  1
AMDTNOTETEMPLATEDB
  2
AmdtNoteTemplateDB
  3
AMDT_STDIMP_MODULE_NAME
 90
        0
280
     0
281
     0
  0
CLASS
  1
ACMBOM
  2
AcmBom
  3
"AcmSymBB|Product Description: AutoCAD Mechanical 2004 DX|Company: Autodesk"
 90
    32768
280
     0
281
     0
  0
CLASS
  1
AMDTFORMULAUPDATEDISPATCHER
  2
AmdtFormulaUpdateDispatcher
  3
AcMeServices
 90
    32768
280
     0
281
     0
  0
CLASS
  1
ACMPARTLIST
  2
AcmPartList
  3
"AcmSymBB|Product Description: AutoCAD Mechanical 2004 DX|Company: Autodesk"
 90
    33791
280
     0
281
     1
  0
CLASS
  1
ACAMGFILTERDAT
  2
AcAmgFilterDat
  3
"AcadM|Product Description: AutoCAD Mechanical 2000|Company: Autodesk"
 90
        0
280
     0
281
     0
  0
CLASS
  1
DIMASSOC
  2
AcDbDimAssoc
  3
"AcDbDimAssoc|Product Desc:     AcDim ARX App For Dimension|Company:          Autodesk, Inc.|WEB Address:      www.autodesk.com"
 90
    32768
280
     0
281
     0
  0
CLASS
  1
AMDTNOTE
  2
AmdtNote
  3
"AcmSymBB|Product Description: AutoCAD Mechanical 2004 DX|Company: Autodesk"
 90
     1023
280
     0
281
     1
  0
CLASS
  1
SORTENTSTABLE
  2
AcDbSortentsTable
  3
ObjectDBX Classes
 90
    32768
280
     0
281
     0
  0
CLASS
  1
ACMSTANDARDANSI
  2
AcmStandardANSI
  3
"Amdt_StdImp|Product Description: AutoCAD Mechanical 2004 DX|Company: Autodesk"
 90
        0
280
     0
281
     0
  0
CLASS
  1
ACMSURFSTANDARDANSI
  2
AcmSurfTextStdANSI
  3
"Amdt_StdImp|Product Description: AutoCAD Mechanical 2004 DX|Company: Autodesk"
 90
        0
280
     0
281
     0
  0
CLASS
  1
ACMFCFSTANDARDANSI
  2
AcmFCFStdANSI
  3
"Amdt_StdImp|Product Description: AutoCAD Mechanical 2004 DX|Company: Autodesk"
 90
        0
280
     0
281
     0
  0
CLASS
  1
ACMWELDSTANDARDANSI
  2
AcmWeldingStdANSI
  3
"Amdt_StdImp|Product Description: AutoCAD Mechanical 2004 DX|Company: Autodesk"
 90
        0
280
     0
281
     0
  0
CLASS
  1
ACMIDSTANDARDANSI
  2
AcmIdStdANSI
  3
"Amdt_StdImp|Product Description: AutoCAD Mechanical 2004 DX|Company: Autodesk"
 90
        0
280
     0
281
     0
  0
CLASS
  1
ACMDATUMSTANDARDANSI
  2
AcmDatumStdANSI
  3
"Amdt_StdImp|Product Description: AutoCAD Mechanical 2004 DX|Company: Autodesk"
 90
        0
280
     0
281
     0
  0
CLASS
  1
ACMBOMSTANDARDANSI
  2
AcmBOMStdANSI
  3
"Amdt_StdImp|Product Description: AutoCAD Mechanical 2004 DX|Company: Autodesk"
 90
        0
280
     0
281
     0
  0
CLASS
  1
ACMDETAILSTANDARDANSI
  2
AmdtDetailSymStdANSI
  3
"Amdt_StdImp|Product Description: AutoCAD Mechanical 2004 DX|Company: Autodesk"
 90
        0
280
     0
281
     0
  0
CLASS
  1
ACMSECTIONSTANDARDANSI
  2
AmdtSectionSymStdANSI
  3
"Amdt_StdImp|Product Description: AutoCAD Mechanical 2004 DX|Company: Autodesk"
 90
        0
280
     0
281
     0
  0
CLASS
  1
ACMCENTERLINESTANDARDANSI
  2
AmdtCenterLineStdANSI
  3
"Amdt_StdImp|Product Description: AutoCAD Mechanical 2004 DX|Company: Autodesk"
 90
        0
280
     0
281
     0
  0
CLASS
  1
ACMTHREADLINESTANDARDANSI
  2
AmdtThreadLineStdANSI
  3
"Amdt_StdImp|Product Description: AutoCAD Mechanical 2004 DX|Company: Autodesk"
 90
        0
280
     0
281
     0
  0
CLASS
  1
ACMNOTESTANDARDANSI
  2
AmdtNoteStdANSI
  3
"Amdt_StdImp|Product Description: AutoCAD Mechanical 2004 DX|Company: Autodesk"
 90
        0
280
     0
281
     0
  0
CLASS
  1
ACAMGHOLECHARTSTDANSI
  2
AcAmgHoleChartStdANSI
  3
ACMSYMBB_MODULE_NAME
 90
        0
280
     0
281
     0
  0
CLASS
  1
ACRFATTGENMGR
  2
AcRfAttGeneralMgr
  3
AcAttribServices
 90
        0
280
     0
281
     0
  0
ENDSEC
  0
SECTION
  2
TABLES
  0
TABLE
  2
VPORT
  5
8
330
0
100
AcDbSymbolTable
 70
     3
  0
VPORT
  5
1456
330
8
100
AcDbSymbolTableRecord
100
AcDbViewportTableRecord
  2
*Active
 70
     0
 10
0.0
 20
0.0
 11
1.0
 21
1.0
 12
2414.776466370947
 22
1480.104904042997
 13
0.0
 23
0.0
 14
2.5
 24
2.5
 15
10.0
 25
10.0
 16
0.0
 26
0.0
 36
1.0
 17
0.0
 27
0.0
 37
0.0
 40
550.583383913941
 41
1.81766917293233
 42
50.0
 43
0.0
 44
0.0
 50
0.0
 51
0.0
 71
     0
 72
   100
 73
     1
 74
     3
 75
     0
 76
     0
 77
     0
 78
     0
281
     0
 65
     1
110
0.0
120
0.0
130
0.0
111
1.0
121
0.0
131
0.0
112
0.0
122
1.0
132
0.0
 79
     0
146
0.0
  0
ENDTAB
  0
TABLE
  2
LTYPE
  5
5
330
0
100
AcDbSymbolTable
 70
    17
  0
LTYPE
  5
14
330
5
100
AcDbSymbolTableRecord
100
AcDbLinetypeTableRecord
  2
ByBlock
 70
     0
  3

 72
    65
 73
     0
 40
0.0
  0
LTYPE
  5
15
330
5
100
AcDbSymbolTableRecord
100
AcDbLinetypeTableRecord
  2
ByLayer
 70
     0
  3

 72
    65
 73
     0
 40
0.0
  0
LTYPE
  5
16
330
5
100
AcDbSymbolTableRecord
100
AcDbLinetypeTableRecord
  2
Continuous
 70
     0
  3
Solid line
 72
    65
 73
     0
 40
0.0
  0
LTYPE
  5
64
330
5
100
AcDbSymbolTableRecord
100
AcDbLinetypeTableRecord
  2
AM_ISO02W050
 70
     0
  3
__ __ __ __ __ __ __ __ __ __ __ __ __ __ __
 72
    65
 73
     2
 40
7.5
 49
6.0
 74
     0
 49
-1.5
 74
     0
  0
LTYPE
  5
65
330
5
100
AcDbSymbolTableRecord
100
AcDbLinetypeTableRecord
  2
AM_ISO08W050
 70
     0
  3
____ . ____ . ____ . ____ . ____ . ____ . ____
 72
    65
 73
     4
 40
18.0
 49
12.0
 74
     0
 49
-1.5
 74
     0
 49
3.0
 74
     0
 49
-1.5
 74
     0
  0
LTYPE
  5
66
330
5
100
AcDbSymbolTableRecord
100
AcDbLinetypeTableRecord
  2
AM_ISO09W050
 70
     0
  3
_____ . . _____ . . _____ . . ____ .. ____
 72
    65
 73
     6
 40
22.5
 49
12.0
 74
     0
 49
-1.5
 74
     0
 49
3.0
 74
     0
 49
-1.5
 74
     0
 49
3.0
 74
     0
 49
-1.5
 74
     0
  0
LTYPE
  5
67
330
5
100
AcDbSymbolTableRecord
100
AcDbLinetypeTableRecord
  2
Amconstr
 70
     0
  3
_______________________
 72
    65
 73
     2
 40
9999.0
 49
9999.0
 74
     0
 49
0.0
 74
     0
  0
LTYPE
  5
68
330
5
100
AcDbSymbolTableRecord
100
AcDbLinetypeTableRecord
  2
AM_ISO08W050x2
 70
     0
  3
__ . __ . __ . __ . __ . __
 72
    65
 73
     4
 40
9.0
 49
6.0
 74
     0
 49
-0.75
 74
     0
 49
1.5
 74
     0
 49
-0.75
 74
     0
  0
LTYPE
  5
69
330
5
100
AcDbSymbolTableRecord
100
AcDbLinetypeTableRecord
  2
AM_ISO02W050x2
 70
     0
  3
 _ _ _ _ _ _ _ _ _ _ _ _
 72
    65
 73
     2
 40
3.75
 49
3.0
 74
     0
 49
-0.75
 74
     0
  0
LTYPE
  5
6C
330
5
100
AcDbSymbolTableRecord
100
AcDbLinetypeTableRecord
  2
Amzigzag
 70
     0
  3
/\/-/\/-/\/-/\/-/\/-/\/
 72
    65
 73
     2
 40
11.0001
 49
0.0001
 74
     4
 75
   135
340
6B
 46
0.04
 50
0.0
 44
0.0
 45
0.0
 49
-11.0
 74
     0
  0
LTYPE
  5
7A
330
5
100
AcDbSymbolTableRecord
100
AcDbLinetypeTableRecord
  2
ACISOWELD
 70
     0
  3
_ _ _ _ _
 72
    65
 73
     2
 40
2.0
 49
2.0
 74
     0
 49
-1.0
 74
     0
  0
LTYPE
  5
7B
330
5
100
AcDbSymbolTableRecord
100
AcDbLinetypeTableRecord
  2
ACISOTGB
 70
     0
  3
__ . . __ . .
 72
    65
 73
     6
 40
9.0
 49
4.0
 74
     0
 49
-1.0
 74
     0
 49
1.0
 74
     0
 49
-1.0
 74
     0
 49
1.0
 74
     0
 49
-1.0
 74
     0
  0
LTYPE
  5
7C
330
5
100
AcDbSymbolTableRecord
100
AcDbLinetypeTableRecord
  2
ACISOTGL
 70
     0
  3
_ _ _ _ _
 72
    65
 73
     2
 40
3.0
 49
2.0
 74
     0
 49
-1.0
 74
     0
  0
LTYPE
  5
7E
330
5
100
AcDbSymbolTableRecord
100
AcDbLinetypeTableRecord
  2
CENTER
 70
     0
  3
__ . __
 72
    65
 73
     4
 40
7.0
 49
4.0
 74
     0
 49
-1.0
 74
     0
 49
1.0
 74
     0
 49
-1.0
 74
     0
  0
LTYPE
  5
D8
330
5
100
AcDbSymbolTableRecord
100
AcDbLinetypeTableRecord
  2
HIDDEN
 70
     0
  3
Hidden __ __ __ __ __ __ __ __ __ __ __ __ __ _
 72
    65
 73
     2
 40
9.524999999999998
 49
6.349999999999999
 74
     0
 49
-3.174999999999999
 74
     0
  0
LTYPE
  5
D9
330
5
100
AcDbSymbolTableRecord
100
AcDbLinetypeTableRecord
  2
PHANTOM2
 70
     0
  3
Phantom (.5x) ___ _ _ ___ _ _ ___ _ _ ___ _ _
 72
    65
 73
     6
 40
31.75
 49
15.875
 74
     0
 49
-3.174999999999999
 74
     0
 49
3.174999999999999
 74
     0
 49
-3.174999999999999
 74
     0
 49
3.174999999999999
 74
     0
 49
-3.174999999999999
 74
     0
  0
LTYPE
  5
122E
330
5
100
AcDbSymbolTableRecord
100
AcDbLinetypeTableRecord
  2
DASHED
 70
     0
  3
__ __ __ __ __ __ __ __ __ __ __ __ __ __ __ __
 72
    65
 73
     2
 40
0.75
 49
0.5
 74
     0
 49
-0.25
 74
     0
  0
LTYPE
  5
1232
330
5
100
AcDbSymbolTableRecord
100
AcDbLinetypeTableRecord
  2
ACANSTGB
 70
     0
  3
__ . . __ . .
 72
    65
 73
     6
 40
0.35433070866
 49
0.15748031496
 74
     0
 49
-0.03937007874
 74
     0
 49
0.03937007874
 74
     0
 49
-0.03937007874
 74
     0
 49
0.03937007874
 74
     0
 49
-0.03937007874
 74
     0
  0
LTYPE
  5
1233
330
5
100
AcDbSymbolTableRecord
100
AcDbLinetypeTableRecord
  2
ACANSTGL
 70
     0
  3
_ _ _ _ _
 72
    65
 73
     2
 40
0.11811023622
 49
0.07874015748
 74
     0
 49
-0.03937007874
 74
     0
  0
ENDTAB
  0
TABLE
  2
LAYER
  5
2
102
{ACAD_XDICTIONARY
360
3F9
102
}
330
0
100
AcDbSymbolTable
 70
     9
  0
LAYER
  5
10
330
2
100
AcDbSymbolTableRecord
100
AcDbLayerTableRecord
  2
0
 70
     0
 62
     7
  6
Continuous
370
    -3
390
F
  0
LAYER
  5
206
330
2
100
AcDbSymbolTableRecord
100
AcDbLayerTableRecord
  2
Defpoints
 70
     0
 62
     7
  6
Continuous
290
     0
370
    -3
390
F
  0
LAYER
  5
5AE
330
2
100
AcDbSymbolTableRecord
100
AcDbLayerTableRecord
  2
AM_7
 70
     0
 62
     1
  6
CENTER
370
    25
390
F
  0
LAYER
  5
7A0
330
2
100
AcDbSymbolTableRecord
100
AcDbLayerTableRecord
  2
AM_5
 70
     0
 62
     5
  6
Continuous
370
    50
390
F
  0
LAYER
  5
7A1
330
2
100
AcDbSymbolTableRecord
100
AcDbLayerTableRecord
  2
AM_4
 70
     0
 62
     3
  6
Continuous
370
    25
390
F
  0
LAYER
  5
7A2
330
2
100
AcDbSymbolTableRecord
100
AcDbLayerTableRecord
  2
AM_0
 70
     0
 62
     7
  6
Continuous
370
    50
390
F
  0
LAYER
  5
7A3
330
2
100
AcDbSymbolTableRecord
100
AcDbLayerTableRecord
  2
CENTER
 70
     0
 62
     1
  6
CENTER
370
    -3
390
F
  0
LAYER
  5
FA9
330
2
100
AcDbSymbolTableRecord
100
AcDbLayerTableRecord
  2
LOGO
 70
     0
 62
     7
  6
Continuous
370
    -3
390
F
  0
LAYER
  5
1234
330
2
100
AcDbSymbolTableRecord
100
AcDbLayerTableRecord
  2
HIDDEN
 70
     0
 62
     3
  6
HIDDEN
370
    -3
390
F
  0
ENDTAB
  0
TABLE
  2
STYLE
  5
3
330
0
100
AcDbSymbolTable
 70
     8
  0
STYLE
  5
11
330
3
100
AcDbSymbolTableRecord
100
AcDbTextStyleTableRecord
  2
STANDARD
 70
     0
 40
0.0
 41
1.0
 50
0.0
 71
     0
 42
3.0
  3
ISOCP.SHX
  4
CHINESET.SHX
  0
STYLE
  5
6B
330
3
100
AcDbSymbolTableRecord
100
AcDbTextStyleTableRecord
  2

 70
     1
 40
0.0
 41
1.0
 50
0.0
 71
     0
 42
2.5
  3
ltypeshp.shx
  4

  0
STYLE
  5
6D
330
3
100
AcDbSymbolTableRecord
100
AcDbTextStyleTableRecord
  2
ACISOTS
 70
     0
 40
1.0
 41
1.0
 50
0.0
 71
     0
 42
1.0
  3
isocp.shx
  4
chineset.shx
  0
STYLE
  5
79
330
3
100
AcDbSymbolTableRecord
100
AcDbTextStyleTableRecord
  2
ACISOGDT
 70
     0
 40
0.0
 41
1.0
 50
0.0
 71
     0
 42
2.5
  3
amgdt.shx
  4
chineset.shx
  0
STYLE
  5
60C
330
3
100
AcDbSymbolTableRecord
100
AcDbTextStyleTableRecord
  2
CHINESET
 70
     0
 40
0.0
 41
1.0
 50
0.0
 71
     0
 42
3.0
  3
simplex.shx
  4
CHINESET.SHX
  0
STYLE
  5
1235
330
3
100
AcDbSymbolTableRecord
100
AcDbTextStyleTableRecord
  2
ACANSTS
 70
     0
 40
1.0
 41
1.0
 50
0.0
 71
     0
 42
1.0
  3
romans.shx
  4
chineset.shx
  0
STYLE
  5
1236
330
3
100
AcDbSymbolTableRecord
100
AcDbTextStyleTableRecord
  2
ACANSGDT
 70
     0
 40
0.0
 41
1.0
 50
0.0
 71
     0
 42
1.0
  3
amgdtans.shx
  4

  0
ENDTAB
  0
TABLE
  2
VIEW
  5
6
330
0
100
AcDbSymbolTable
 70
     0
  0
ENDTAB
  0
TABLE
  2
UCS
  5
7
330
0
100
AcDbSymbolTable
 70
     0
  0
ENDTAB
  0
TABLE
  2
APPID
  5
9
330
0
100
AcDbSymbolTable
 70
    20
  0
APPID
  5
12
330
9
100
AcDbSymbolTableRecord
100
AcDbRegAppTableRecord
  2
ACAD
 70
     0
  0
APPID
  5
46
330
9
100
AcDbSymbolTableRecord
100
AcDbRegAppTableRecord
  2
MCAD_NO_VIS
 70
     0
  0
APPID
  5
47
330
9
100
AcDbSymbolTableRecord
100
AcDbRegAppTableRecord
  2
ACAD_TEMP_GRAPHIC
 70
     0
  0
APPID
  5
58
330
9
100
AcDbSymbolTableRecord
100
AcDbRegAppTableRecord
  2
ACATTRIBSERVICES
 70
     0
  0
APPID
  5
EE
330
9
100
AcDbSymbolTableRecord
100
AcDbRegAppTableRecord
  2
AD_DRAW
 70
     0
  0
APPID
  5
10C
330
9
100
AcDbSymbolTableRecord
100
AcDbRegAppTableRecord
  2
DESIGNERASSEMBLIES
 70
     0
  0
APPID
  5
111
330
9
100
AcDbSymbolTableRecord
100
AcDbRegAppTableRecord
  2
ACADM_DIM_EDIT
 70
     0
  0
APPID
  5
112
330
9
100
AcDbSymbolTableRecord
100
AcDbRegAppTableRecord
  2
AMDT_DM_ADJ
 70
     0
  0
APPID
  5
22C
330
9
100
AcDbSymbolTableRecord
100
AcDbRegAppTableRecord
  2
ACAD_DSTYLE_DIMTEXT_FILL
 70
     0
  0
APPID
  5
452
330
9
100
AcDbSymbolTableRecord
100
AcDbRegAppTableRecord
  2
GENIUS_GENOENT_13
 70
     0
  0
APPID
  5
453
330
9
100
AcDbSymbolTableRecord
100
AcDbRegAppTableRecord
  2
GENIUS_GENOBJ-N-CRS_13
 70
     0
  0
APPID
  5
454
330
9
100
AcDbSymbolTableRecord
100
AcDbRegAppTableRecord
  2
GENIUS_GENOLIS_13
 70
     0
  0
APPID
  5
455
330
9
100
AcDbSymbolTableRecord
100
AcDbRegAppTableRecord
  2
GENIUS_GENODEF_13
 70
     0
  0
APPID
  5
456
330
9
100
AcDbSymbolTableRecord
100
AcDbRegAppTableRecord
  2
GENIUS_GENOREF_13
 70
     0
  0
APPID
  5
7A5
330
9
100
AcDbSymbolTableRecord
100
AcDbRegAppTableRecord
  2
GENIUS_GENOBJ-N-CEN_13
 70
     0
  0
APPID
  5
7A6
330
9
100
AcDbSymbolTableRecord
100
AcDbRegAppTableRecord
  2
GENIUS_GENCEN_19
 70
     0
  0
APPID
  5
FAB
330
9
100
AcDbSymbolTableRecord
100
AcDbRegAppTableRecord
  2
GENIUS_GENREC_14
 70
     0
  0
APPID
  5
FAC
330
9
100
AcDbSymbolTableRecord
100
AcDbRegAppTableRecord
  2
GENIUS_GENOBJ-N-REC_13
 70
     0
  0
APPID
  5
13EC
330
9
100
AcDbSymbolTableRecord
100
AcDbRegAppTableRecord
  2
GENIUS_GENDTOL_13
 70
     0
  0
APPID
  5
1420
330
9
100
AcDbSymbolTableRecord
100
AcDbRegAppTableRecord
  2
ACAD_PSEXT
 70
     0
  0
ENDTAB
  0
TABLE
  2
DIMSTYLE
  5
A
330
0
100
AcDbSymbolTable
 70
    16
100
AcDbDimStyleTable
 71
     3
340
81
340
8B
340
86
  0
DIMSTYLE
105
81
330
A
100
AcDbSymbolTableRecord
100
AcDbDimStyleTableRecord
  2
AM_ISO
 70
     0
  4
"
 41
6.0
 42
1.0
 43
14.0
 44
1.5
 47
0.1
 48
0.1
 73
     0
 74
     0
 77
     1
 78
     9
 79
     2
140
6.0
141
0.0
143
0.0393701
146
0.71
147
1.5
172
     1
176
   256
177
   256
178
   256
271
     2
272
     2
283
     2
284
     8
340
11
371
    -1
372
    -1
  0
DIMSTYLE
105
82
330
A
100
AcDbSymbolTableRecord
100
AcDbDimStyleTableRecord
  2
AM_ISO$3
 70
     0
  4
"
 41
6.0
 42
1.0
 43
14.0
 44
1.5
 47
0.1
 48
0.1
 73
     0
 77
     1
 78
     9
 79
     2
140
6.0
141
0.0
143
0.0393701
146
0.71
147
1.5
176
   256
177
   256
178
   256
271
     2
272
     2
283
     2
284
     8
288
     1
289
     0
340
11
371
    -1
372
    -1
  0
DIMSTYLE
105
83
330
A
100
AcDbSymbolTableRecord
100
AcDbDimStyleTableRecord
  2
AM_ISO$4
 70
     0
  4
"
 41
6.0
 42
1.0
 43
14.0
 44
1.5
 47
0.1
 48
0.1
 73
     0
 77
     1
 78
     9
 79
     2
140
6.0
141
0.0
143
0.0393701
146
0.71
147
1.5
176
   256
177
   256
178
   256
271
     2
272
     2
283
     2
284
     8
288
     1
289
     0
340
11
371
    -1
372
    -1
  0
DIMSTYLE
105
84
330
A
100
AcDbSymbolTableRecord
100
AcDbDimStyleTableRecord
  2
AM_ISO$6
 70
     0
  4
"
 41
6.0
 42
1.0
 43
14.0
 44
1.5
 47
0.1
 48
0.1
 73
     0
 74
     0
 78
     9
 79
     2
140
6.0
141
0.0
143
0.0393701
146
0.71
147
1.5
172
     1
176
   256
177
   256
178
   256
271
     2
272
     2
283
     2
284
     8
340
11
371
    -1
372
    -1
  0
DIMSTYLE
105
85
330
A
100
AcDbSymbolTableRecord
100
AcDbDimStyleTableRecord
  2
AM_ISO$7
 70
     0
  4
"
 41
6.0
 42
1.0
 43
14.0
 44
1.5
 47
0.1
 48
0.1
 73
     0
 74
     0
 77
     1
 78
     9
 79
     2
140
5.0
141
0.0
143
0.0393701
146
0.71
147
1.5
172
     1
176
   256
177
   256
178
   256
271
     2
272
     2
283
     2
284
     8
340
11
371
    -1
372
    -1
  0
DIMSTYLE
105
86
330
A
100
AcDbSymbolTableRecord
100
AcDbDimStyleTableRecord
  2
AM_ISO$SF
 70
     0
  4
"
 41
2.5
 42
1.0
 43
10.0
 44
1.0
 47
0.1
 48
0.1
 73
     0
 74
     0
 75
     1
 76
     1
 77
     1
 78
     8
 79
     2
140
3.5
141
0.0
143
0.0393701
146
0.71
147
1.5
172
     1
176
   256
177
   256
178
     2
271
     2
272
     3
274
     4
283
     0
284
     8
340
11
371
    -1
372
    -1
  0
DIMSTYLE
105
8B
330
A
100
AcDbSymbolTableRecord
100
AcDbDimStyleTableRecord
  2
AM_ISO$SH
 70
     0
  4
"
 41
2.5
 42
1.0
 43
10.0
 44
1.0
 47
0.1
 48
0.1
 73
     0
 74
     0
 75
     1
 76
     1
 77
     1
 78
     8
 79
     2
140
3.5
141
0.0
143
0.0393701
144
2.0
146
0.71
147
1.5
172
     1
173
     1
176
   256
177
   256
178
     2
271
     2
272
     3
274
     4
283
     0
284
     8
340
11
343
87
371
    -1
372
    -1
  0
DIMSTYLE
105
40B
102
{ACAD_REACTORS
330
A65
330
A66
330
A67
330
A80
330
A83
330
A84
330
A85
330
A86
330
A87
330
A88
330
A89
330
A8A
330
A8B
330
A8C
102
}
330
A
100
AcDbSymbolTableRecord
100
AcDbDimStyleTableRecord
  2
AM_ISO$0
 70
     0
  4
"
 41
6.0
 42
1.0
 43
14.0
 44
1.5
 47
0.1
 48
0.1
 73
     0
 74
     0
 77
     1
 78
     9
 79
     2
140
6.0
141
0.0
143
0.0393701
146
0.71
147
1.5
172
     1
176
   256
177
   256
178
   256
271
     2
272
     2
283
     2
284
     8
340
11
371
    -1
372
    -1
  0
DIMSTYLE
105
1237
330
A
100
AcDbSymbolTableRecord
100
AcDbDimStyleTableRecord
  2
STANDARD
 70
     0
271
     2
272
     2
279
     2
340
11
  0
DIMSTYLE
105
1238
330
A
100
AcDbSymbolTableRecord
100
AcDbDimStyleTableRecord
  2
AM_ANSI
 70
     0
  4
mm
 41
0.1
 42
0.05
 43
0.5
 44
0.1
 47
0.1
 48
0.1
 78
     7
 79
     2
140
0.12
141
0.0
146
0.71
147
0.06
176
   256
177
   256
178
     2
274
     4
284
     7
340
11
371
    -1
372
    -1
  0
DIMSTYLE
105
1239
330
A
100
AcDbSymbolTableRecord
100
AcDbDimStyleTableRecord
  2
AM_ANSI$3
 70
     0
  4
mm
 41
0.1
 42
0.05
 43
0.5
 44
0.1
 47
0.1
 48
0.1
 78
     7
 79
     2
140
0.12
141
0.0
146
0.71
147
0.06
176
   256
177
   256
178
     2
274
     4
284
     7
288
     1
289
     0
340
11
371
    -1
372
    -1
  0
DIMSTYLE
105
123A
330
A
100
AcDbSymbolTableRecord
100
AcDbDimStyleTableRecord
  2
AM_ANSI$4
 70
     0
  4
mm
 41
0.1
 42
0.05
 43
0.5
 44
0.1
 47
0.1
 48
0.1
 78
     7
 79
     2
140
0.12
141
0.0
146
0.71
147
0.06
176
   256
177
   256
178
     2
274
     4
284
     7
288
     1
289
     0
340
11
371
    -1
372
    -1
  0
DIMSTYLE
105
123B
330
A
100
AcDbSymbolTableRecord
100
AcDbDimStyleTableRecord
  2
AM_ANSI$7
 70
     0
  4
mm
 41
0.1
 42
0.05
 43
0.5
 44
0.1
 47
0.1
 48
0.1
 78
     7
 79
     2
140
0.24
141
0.0
146
0.71
147
0.06
176
   256
177
   256
178
     2
274
     4
284
     7
340
11
371
    -1
372
    -1
  0
DIMSTYLE
105
123C
330
A
100
AcDbSymbolTableRecord
100
AcDbDimStyleTableRecord
  2
AM_ANSI$SF
 70
     0
  4
mm
 41
0.1
 42
0.05
 43
0.5
 44
0.1
 47
0.1
 48
0.1
 75
     1
 76
     1
 78
     7
 79
     2
140
0.12
141
0.0
146
0.71
147
0.06
176
   256
177
   256
178
     2
274
     4
284
     7
340
11
371
    -1
372
    -1
  0
DIMSTYLE
105
123D
330
A
100
AcDbSymbolTableRecord
100
AcDbDimStyleTableRecord
  2
AM_ANSI$SH
 70
     0
  4
mm
 41
0.1
 42
0.05
 43
0.5
 44
0.1
 47
0.1
 48
0.1
 75
     1
 76
     1
 78
     7
 79
     2
140
0.12
141
0.0
146
0.71
147
0.06
173
     1
176
   256
177
   256
178
     2
274
     4
284
     7
340
11
341
87
343
87
371
    -1
372
    -1
  0
ENDTAB
  0
TABLE
  2
BLOCK_RECORD
  5
1
330
0
100
AcDbSymbolTable
 70
    20
  0
BLOCK_RECORD
  5
1F
102
{ACAD_XDICTIONARY
360
8F
102
}
330
1
100
AcDbSymbolTableRecord
100
AcDbBlockTableRecord
  2
*Model_Space
340
22
  0
BLOCK_RECORD
  5
1B
330
1
100
AcDbSymbolTableRecord
100
AcDbBlockTableRecord
  2
*Paper_Space
340
1E
  0
BLOCK_RECORD
  5
23
330
1
100
AcDbSymbolTableRecord
100
AcDbBlockTableRecord
  2
*Paper_Space0
340
26
  0
BLOCK_RECORD
  5
87
330
1
100
AcDbSymbolTableRecord
100
AcDbBlockTableRecord
  2
GENAXEH
340
0
  0
BLOCK_RECORD
  5
A94
330
1
100
AcDbSymbolTableRecord
100
AcDbBlockTableRecord
  2
*D3
340
0
  0
BLOCK_RECORD
  5
AA0
330
1
100
AcDbSymbolTableRecord
100
AcDbBlockTableRecord
  2
*D4
340
0
  0
BLOCK_RECORD
  5
AAC
330
1
100
AcDbSymbolTableRecord
100
AcDbBlockTableRecord
  2
*D5
340
0
  0
BLOCK_RECORD
  5
AB8
330
1
100
AcDbSymbolTableRecord
100
AcDbBlockTableRecord
  2
*D6
340
0
  0
BLOCK_RECORD
  5
AC4
330
1
100
AcDbSymbolTableRecord
100
AcDbBlockTableRecord
  2
*D7
340
0
  0
BLOCK_RECORD
  5
AD0
330
1
100
AcDbSymbolTableRecord
100
AcDbBlockTableRecord
  2
*D8
340
0
  0
BLOCK_RECORD
  5
ADC
330
1
100
AcDbSymbolTableRecord
100
AcDbBlockTableRecord
  2
*D9
340
0
  0
BLOCK_RECORD
  5
AEA
330
1
100
AcDbSymbolTableRecord
100
AcDbBlockTableRecord
  2
*D10
340
0
  0
BLOCK_RECORD
  5
AF6
330
1
100
AcDbSymbolTableRecord
100
AcDbBlockTableRecord
  2
*D11
340
0
  0
BLOCK_RECORD
  5
B02
330
1
100
AcDbSymbolTableRecord
100
AcDbBlockTableRecord
  2
*D12
340
0
  0
BLOCK_RECORD
  5
B0E
330
1
100
AcDbSymbolTableRecord
100
AcDbBlockTableRecord
  2
*D13
340
0
  0
BLOCK_RECORD
  5
B1A
330
1
100
AcDbSymbolTableRecord
100
AcDbBlockTableRecord
  2
*D14
340
0
  0
BLOCK_RECORD
  5
B26
330
1
100
AcDbSymbolTableRecord
100
AcDbBlockTableRecord
  2
*D15
340
0
  0
BLOCK_RECORD
  5
B32
330
1
100
AcDbSymbolTableRecord
100
AcDbBlockTableRecord
  2
*D16
340
0
  0
BLOCK_RECORD
  5
1444
330
1
100
AcDbSymbolTableRecord
100
AcDbBlockTableRecord
  2
*S18
340
0
  0
BLOCK_RECORD
  5
144C
330
1
100
AcDbSymbolTableRecord
100
AcDbBlockTableRecord
  2
*S19
340
0
  0
ENDTAB
  0
ENDSEC
  0
SECTION
  2
BLOCKS
  0
BLOCK
  5
20
330
1F
100
AcDbEntity
  8
0
100
AcDbBlockBegin
  2
*Model_Space
 70
     0
 10
0.0
 20
0.0
 30
0.0
  3
*Model_Space
  1

  0
ENDBLK
  5
21
330
1F
100
AcDbEntity
  8
0
100
AcDbBlockEnd
  0
BLOCK
  5
1C
330
1B
100
AcDbEntity
 67
     1
  8
0
100
AcDbBlockBegin
  2
*Paper_Space
 70
     0
 10
0.0
 20
0.0
 30
0.0
  3
*Paper_Space
  1

  0
ENDBLK
  5
1D
330
1B
100
AcDbEntity
 67
     1
  8
0
100
AcDbBlockEnd
  0
BLOCK
  5
24
330
23
100
AcDbEntity
  8
0
100
AcDbBlockBegin
  2
*Paper_Space0
 70
     0
 10
0.0
 20
0.0
 30
0.0
  3
*Paper_Space0
  1

  0
ENDBLK
  5
25
330
23
100
AcDbEntity
  8
0
100
AcDbBlockEnd
  0
BLOCK
  5
89
330
87
100
AcDbEntity
  8
0
100
AcDbBlockBegin
  2
GENAXEH
 70
     0
 10
0.0
 20
0.0
 30
0.0
  3
GENAXEH
  1

  0
LINE
  5
88
330
87
100
AcDbEntity
  8
0
100
AcDbLine
 10
-1.0
 20
0.0
 30
0.0
 11
1.0
 21
0.0
 31
0.0
  0
ENDBLK
  5
8A
330
87
100
AcDbEntity
  8
0
100
AcDbBlockEnd
  0
BLOCK
  5
A9E
330
A94
100
AcDbEntity
  8
0
100
AcDbBlockBegin
  2
*D3
 70
     1
 10
0.0
 20
0.0
 30
0.0
  3
*D3
  1

  0
LINE
  5
1164
330
A94
100
AcDbEntity
  8
AM_5
100
AcDbLine
 10
2168.895020982256
 20
1590.509747371635
 30
0.0
 11
2238.895020982257
 21
1590.509747371635
 31
0.0
  0
LINE
  5
1165
330
A94
100
AcDbEntity
  8
AM_5
100
AcDbLine
 10
2168.895020982256
 20
1550.509747371635
 30
0.0
 11
2238.895020982257
 21
1550.509747371635
 31
0.0
  0
LINE
  5
1166
330
A94
100
AcDbEntity
  8
AM_5
100
AcDbLine
 10
2237.395020982257
 20
1584.509747371635
 30
0.0
 11
2237.395020982257
 21
1556.509747371635
 31
0.0
  0
SOLID
  5
1167
330
A94
100
AcDbEntity
  8
AM_5
100
AcDbTrace
 10
2236.395020982257
 20
1584.509747371635
 30
0.0
 11
2238.395020982256
 21
1584.509747371635
 31
0.0
 12
2237.395020982257
 22
1590.509747371635
 32
0.0
 13
2237.395020982257
 23
1590.509747371635
 33
0.0
  0
SOLID
  5
1168
330
A94
100
AcDbEntity
  8
AM_5
100
AcDbTrace
 10
2236.395020982257
 20
1556.509747371635
 30
0.0
 11
2238.395020982256
 21
1556.509747371635
 31
0.0
 12
2237.395020982257
 22
1550.509747371635
 32
0.0
 13
2237.395020982257
 23
1550.509747371635
 33
0.0
  0
MTEXT
  5
1169
330
A94
100
AcDbEntity
  8
AM_5
100
AcDbMText
 10
2233.395020982256
 20
1570.972076138758
 30
0.0
 40
5.0
 41
0.0
 71
     5
 72
     1
  1
\A2;40
 11
0.0000000000000001
 21
1.0
 31
0.0
 73
     1
 44
1.0
1001
ACAD
1000
MTEXTBEGIN
1070
    73
1070
     1
1070
    44
1040
1.0
1070
    74
1070
     0
1000
MTEXTEND
  0
POINT
  5
116A
330
A94
100
AcDbEntity
  8
Defpoints
 62
     0
100
AcDbPoint
 10
2167.895020982256
 20
1590.509747371635
 30
0.0
  0
POINT
  5
116B
330
A94
100
AcDbEntity
  8
Defpoints
 62
     0
100
AcDbPoint
 10
2167.895020982256
 20
1550.509747371635
 30
0.0
  0
POINT
  5
116C
330
A94
100
AcDbEntity
  8
Defpoints
 62
     0
100
AcDbPoint
 10
2237.395020982257
 20
1550.509747371635
 30
0.0
  0
ENDBLK
  5
A9F
330
A94
100
AcDbEntity
  8
0
100
AcDbBlockEnd
  0
BLOCK
  5
AAA
330
AA0
100
AcDbEntity
  8
0
100
AcDbBlockBegin
  2
*D4
 70
     1
 10
0.0
 20
0.0
 30
0.0
  3
*D4
  1

  0
LINE
  5
116D
330
AA0
100
AcDbEntity
  8
AM_5
100
AcDbLine
 10
2212.145020982256
 20
1615.509747371635
 30
0.0
 11
2252.895020982256
 21
1615.509747371635
 31
0.0
  0
LINE
  5
116E
330
AA0
100
AcDbEntity
  8
AM_5
100
AcDbLine
 10
2212.145020982256
 20
1525.509747371635
 30
0.0
 11
2252.895020982256
 21
1525.509747371635
 31
0.0
  0
LINE
  5
116F
330
AA0
100
AcDbEntity
  8
AM_5
100
AcDbLine
 10
2251.395020982256
 20
1609.509747371635
 30
0.0
 11
2251.395020982256
 21
1531.509747371635
 31
0.0
  0
SOLID
  5
1170
330
AA0
100
AcDbEntity
  8
AM_5
100
AcDbTrace
 10
2250.395020982256
 20
1609.509747371635
 30
0.0
 11
2252.395020982257
 21
1609.509747371635
 31
0.0
 12
2251.395020982256
 22
1615.509747371635
 32
0.0
 13
2251.395020982256
 23
1615.509747371635
 33
0.0
  0
SOLID
  5
1171
330
AA0
100
AcDbEntity
  8
AM_5
100
AcDbTrace
 10
2250.395020982256
 20
1531.509747371635
 30
0.0
 11
2252.395020982257
 21
1531.509747371635
 31
0.0
 12
2251.395020982256
 22
1525.509747371635
 32
0.0
 13
2251.395020982256
 23
1525.509747371635
 33
0.0
  0
MTEXT
  5
1172
330
AA0
100
AcDbEntity
  8
AM_5
100
AcDbMText
 10
2247.395020982256
 20
1570.509747371635
 30
0.0
 40
5.0
 41
0.0
 71
     5
 72
     1
  1
\A2;90
 11
0.0000000000000001
 21
1.0
 31
0.0
 73
     1
 44
1.0
1001
ACAD
1000
MTEXTBEGIN
1070
    73
1070
     1
1070
    44
1040
1.0
1070
    74
1070
     0
1000
MTEXTEND
  0
POINT
  5
1173
330
AA0
100
AcDbEntity
  8
Defpoints
 62
     0
100
AcDbPoint
 10
2211.145020982256
 20
1615.509747371635
 30
0.0
  0
POINT
  5
1174
330
AA0
100
AcDbEntity
  8
Defpoints
 62
     0
100
AcDbPoint
 10
2211.145020982256
 20
1525.509747371635
 30
0.0
  0
POINT
  5
1175
330
AA0
100
AcDbEntity
  8
Defpoints
 62
     0
100
AcDbPoint
 10
2251.395020982256
 20
1525.509747371635
 30
0.0
  0
ENDBLK
  5
AAB
330
AA0
100
AcDbEntity
  8
0
100
AcDbBlockEnd
  0
BLOCK
  5
AB6
330
AAC
100
AcDbEntity
  8
0
100
AcDbBlockBegin
  2
*D5
 70
     1
 10
0.0
 20
0.0
 30
0.0
  3
*D5
  1

  0
LINE
  5
1176
330
AAC
100
AcDbEntity
  8
AM_5
100
AcDbLine
 10
2202.895020982257
 20
1629.509747371635
 30
0.0
 11
2266.895020982257
 21
1629.509747371635
 31
0.0
  0
LINE
  5
1177
330
AAC
100
AcDbEntity
  8
AM_5
100
AcDbLine
 10
2202.895020982256
 20
1511.509747371635
 30
0.0
 11
2266.895020982257
 21
1511.509747371635
 31
0.0
  0
LINE
  5
1178
330
AAC
100
AcDbEntity
  8
AM_5
100
AcDbLine
 10
2265.395020982257
 20
1623.509747371635
 30
0.0
 11
2265.395020982257
 21
1517.509747371635
 31
0.0
  0
SOLID
  5
1179
330
AAC
100
AcDbEntity
  8
AM_5
100
AcDbTrace
 10
2264.395020982257
 20
1623.509747371635
 30
0.0
 11
2266.395020982256
 21
1623.509747371635
 31
0.0
 12
2265.395020982257
 22
1629.509747371635
 32
0.0
 13
2265.395020982257
 23
1629.509747371635
 33
0.0
  0
SOLID
  5
117A
330
AAC
100
AcDbEntity
  8
AM_5
100
AcDbTrace
 10
2264.395020982257
 20
1517.509747371635
 30
0.0
 11
2266.395020982256
 21
1517.509747371635
 31
0.0
 12
2265.395020982257
 22
1511.509747371635
 32
0.0
 13
2265.395020982257
 23
1511.509747371635
 33
0.0
  0
MTEXT
  5
117B
330
AAC
100
AcDbEntity
  8
AM_5
100
AcDbMText
 10
2261.395020982256
 20
1570.509747371635
 30
0.0
 40
5.0
 41
0.0
 71
     5
 72
     1
  1
\A2;{\Famgdt|c136;o}118
 11
0.0000000000000001
 21
1.0
 31
0.0
 73
     1
 44
1.0
1001
ACAD
1000
MTEXTBEGIN
1070
    73
1070
     1
1070
    44
1040
1.0
1070
    74
1070
     0
1000
MTEXTEND
  0
POINT
  5
117C
330
AAC
100
AcDbEntity
  8
Defpoints
 62
     0
100
AcDbPoint
 10
2201.895020982257
 20
1629.509747371635
 30
0.0
  0
POINT
  5
117D
330
AAC
100
AcDbEntity
  8
Defpoints
 62
     0
100
AcDbPoint
 10
2201.895020982256
 20
1511.509747371635
 30
0.0
  0
POINT
  5
117E
330
AAC
100
AcDbEntity
  8
Defpoints
 62
     0
100
AcDbPoint
 10
2265.395020982257
 20
1511.509747371635
 30
0.0
  0
ENDBLK
  5
AB7
330
AAC
100
AcDbEntity
  8
0
100
AcDbBlockEnd
  0
BLOCK
  5
AC2
330
AB8
100
AcDbEntity
  8
0
100
AcDbBlockBegin
  2
*D6
 70
     1
 10
0.0
 20
0.0
 30
0.0
  3
*D6
  1

  0
LINE
  5
117F
330
AB8
100
AcDbEntity
  8
AM_5
100
AcDbLine
 10
2073.895020982257
 20
1569.509747371635
 30
0.0
 11
2073.895020982257
 21
1491.268529199276
 31
0.0
  0
LINE
  5
1180
330
AB8
100
AcDbEntity
  8
AM_5
100
AcDbLine
 10
2152.895020982256
 20
1507.095363809991
 30
0.0
 11
2152.895020982256
 21
1491.268529199276
 31
0.0
  0
LINE
  5
1181
330
AB8
100
AcDbEntity
  8
AM_5
100
AcDbLine
 10
2079.895020982257
 20
1492.768529199276
 30
0.0
 11
2146.895020982256
 21
1492.768529199276
 31
0.0
  0
SOLID
  5
1182
330
AB8
100
AcDbEntity
  8
AM_5
100
AcDbTrace
 10
2079.895020982257
 20
1493.768529199276
 30
0.0
 11
2079.895020982257
 21
1491.768529199276
 31
0.0
 12
2073.895020982257
 22
1492.768529199276
 32
0.0
 13
2073.895020982257
 23
1492.768529199276
 33
0.0
  0
SOLID
  5
1183
330
AB8
100
AcDbEntity
  8
AM_5
100
AcDbTrace
 10
2146.895020982256
 20
1493.768529199276
 30
0.0
 11
2146.895020982256
 21
1491.768529199276
 31
0.0
 12
2152.895020982256
 22
1492.768529199276
 32
0.0
 13
2152.895020982256
 23
1492.768529199276
 33
0.0
  0
MTEXT
  5
1184
330
AB8
100
AcDbEntity
  8
AM_5
100
AcDbMText
 10
2113.395020982256
 20
1496.768529199276
 30
0.0
 40
5.0
 41
0.0
 71
     5
 72
     1
  1
\A2;79
 73
     1
 44
1.0
1001
ACAD
1000
MTEXTBEGIN
1070
    73
1070
     1
1070
    44
1040
1.0
1070
    74
1070
     0
1000
MTEXTEND
  0
POINT
  5
1185
330
AB8
100
AcDbEntity
  8
Defpoints
 62
     0
100
AcDbPoint
 10
2073.895020982257
 20
1570.509747371635
 30
0.0
  0
POINT
  5
1186
330
AB8
100
AcDbEntity
  8
Defpoints
 62
     0
100
AcDbPoint
 10
2152.895020982256
 20
1508.095363809991
 30
0.0
  0
POINT
  5
1187
330
AB8
100
AcDbEntity
  8
Defpoints
 62
     0
100
AcDbPoint
 10
2152.895020982256
 20
1492.768529199276
 30
0.0
  0
ENDBLK
  5
AC3
330
AB8
100
AcDbEntity
  8
0
100
AcDbBlockEnd
  0
BLOCK
  5
ACE
330
AC4
100
AcDbEntity
  8
0
100
AcDbBlockBegin
  2
*D7
 70
     1
 10
0.0
 20
0.0
 30
0.0
  3
*D7
  1

  0
LINE
  5
1188
330
AC4
100
AcDbEntity
  8
AM_5
100
AcDbLine
 10
2212.270020982256
 20
1294.768346080103
 30
0.0
 11
2225.395020982256
 21
1294.768346080103
 31
0.0
  0
LINE
  5
1189
330
AC4
100
AcDbEntity
  8
AM_5
100
AcDbLine
 10
2167.745020982256
 20
1313.268346080103
 30
0.0
 11
2225.395020982256
 21
1313.268346080103
 31
0.0
  0
LINE
  5
118A
330
AC4
100
AcDbEntity
  8
AM_5
100
AcDbLine
 10
2223.895020982256
 20
1300.768346080103
 30
0.0
 11
2223.895020982256
 21
1307.268346080103
 31
0.0
  0
SOLID
  5
118B
330
AC4
100
AcDbEntity
  8
AM_5
100
AcDbTrace
 10
2222.895020982256
 20
1300.768346080103
 30
0.0
 11
2224.895020982256
 21
1300.768346080103
 31
0.0
 12
2223.895020982256
 22
1294.768346080103
 32
0.0
 13
2223.895020982256
 23
1294.768346080103
 33
0.0
  0
SOLID
  5
118C
330
AC4
100
AcDbEntity
  8
AM_5
100
AcDbTrace
 10
2222.895020982256
 20
1307.268346080103
 30
0.0
 11
2224.895020982256
 21
1307.268346080103
 31
0.0
 12
2223.895020982256
 22
1313.268346080103
 32
0.0
 13
2223.895020982256
 23
1313.268346080103
 33
0.0
  0
MTEXT
  5
118D
330
AC4
100
AcDbEntity
  8
AM_5
100
AcDbMText
 10
2219.895020982256
 20
1304.018346080103
 30
0.0
 40
5.0
 41
0.0
 71
     5
 72
     1
  1
\A2;18.5
 11
0.0000000000000001
 21
1.0
 31
0.0
 73
     1
 44
1.0
1001
ACAD
1000
MTEXTBEGIN
1070
    73
1070
     1
1070
    44
1040
1.0
1070
    74
1070
     0
1000
MTEXTEND
  0
POINT
  5
118E
330
AC4
100
AcDbEntity
  8
Defpoints
 62
     0
100
AcDbPoint
 10
2211.270020982256
 20
1294.768346080103
 30
0.0
  0
POINT
  5
118F
330
AC4
100
AcDbEntity
  8
Defpoints
 62
     0
100
AcDbPoint
 10
2166.745020982256
 20
1313.268346080103
 30
0.0
  0
POINT
  5
1190
330
AC4
100
AcDbEntity
  8
Defpoints
 62
     0
100
AcDbPoint
 10
2223.895020982256
 20
1313.268346080103
 30
0.0
  0
ENDBLK
  5
ACF
330
AC4
100
AcDbEntity
  8
0
100
AcDbBlockEnd
  0
BLOCK
  5
ADA
330
AD0
100
AcDbEntity
  8
0
100
AcDbBlockBegin
  2
*D8
 70
     1
 10
0.0
 20
0.0
 30
0.0
  3
*D8
  1

  0
LINE
  5
1191
330
AD0
100
AcDbEntity
  8
AM_5
100
AcDbLine
 10
2212.270020982256
 20
1294.768346080103
 30
0.0
 11
2239.395020982256
 21
1294.768346080103
 31
0.0
  0
LINE
  5
1192
330
AD0
100
AcDbEntity
  8
AM_5
100
AcDbLine
 10
2212.895020982256
 20
1331.768346080103
 30
0.0
 11
2239.395020982256
 21
1331.768346080103
 31
0.0
  0
LINE
  5
1193
330
AD0
100
AcDbEntity
  8
AM_5
100
AcDbLine
 10
2237.895020982256
 20
1300.768346080103
 30
0.0
 11
2237.895020982256
 21
1325.768346080103
 31
0.0
  0
SOLID
  5
1194
330
AD0
100
AcDbEntity
  8
AM_5
100
AcDbTrace
 10
2236.895020982256
 20
1300.768346080103
 30
0.0
 11
2238.895020982256
 21
1300.768346080103
 31
0.0
 12
2237.895020982256
 22
1294.768346080103
 32
0.0
 13
2237.895020982256
 23
1294.768346080103
 33
0.0
  0
SOLID
  5
1195
330
AD0
100
AcDbEntity
  8
AM_5
100
AcDbTrace
 10
2236.895020982256
 20
1325.768346080103
 30
0.0
 11
2238.895020982256
 21
1325.768346080103
 31
0.0
 12
2237.895020982256
 22
1331.768346080103
 32
0.0
 13
2237.895020982256
 23
1331.768346080103
 33
0.0
  0
MTEXT
  5
1196
330
AD0
100
AcDbEntity
  8
AM_5
100
AcDbMText
 10
2233.895020982256
 20
1313.268346080103
 30
0.0
 40
5.0
 41
0.0
 71
     5
 72
     1
  1
\A2;37
 11
0.0000000000000001
 21
1.0
 31
0.0
 73
     1
 44
1.0
1001
ACAD
1000
MTEXTBEGIN
1070
    73
1070
     1
1070
    44
1040
1.0
1070
    74
1070
     0
1000
MTEXTEND
  0
POINT
  5
1197
330
AD0
100
AcDbEntity
  8
Defpoints
 62
     0
100
AcDbPoint
 10
2211.270020982256
 20
1294.768346080103
 30
0.0
  0
POINT
  5
1198
330
AD0
100
AcDbEntity
  8
Defpoints
 62
     0
100
AcDbPoint
 10
2211.895020982256
 20
1331.768346080103
 30
0.0
  0
POINT
  5
1199
330
AD0
100
AcDbEntity
  8
Defpoints
 62
     0
100
AcDbPoint
 10
2237.895020982256
 20
1331.768346080103
 30
0.0
  0
ENDBLK
  5
ADB
330
AD0
100
AcDbEntity
  8
0
100
AcDbBlockEnd
  0
BLOCK
  5
AE8
330
ADC
100
AcDbEntity
  8
0
100
AcDbBlockBegin
  2
*D9
 70
     1
 10
0.0
 20
0.0
 30
0.0
  3
*D9
  1

  0
LINE
  5
119A
330
ADC
100
AcDbEntity
  8
AM_5
100
AcDbLine
 10
2178.895020982256
 20
1289.768346080103
 30
0.0
 11
2225.395020982256
 21
1289.768346080103
 31
0.0
  0
LINE
  5
119B
330
ADC
100
AcDbEntity
  8
AM_5
100
AcDbLine
 10
2212.270020982256
 20
1294.768346080103
 30
0.0
 11
2225.395020982256
 21
1294.768346080103
 31
0.0
  0
LINE
  5
119C
330
ADC
100
AcDbEntity
  8
AM_5
100
AcDbLine
 10
2223.895020982256
 20
1300.768346080103
 30
0.0
 11
2223.895020982256
 21
1306.768346080103
 31
0.0
  0
LINE
  5
119D
330
ADC
100
AcDbEntity
  8
AM_5
100
AcDbLine
 10
2223.895020982256
 20
1283.768346080103
 30
0.0
 11
2223.895020982256
 21
1272.561239298916
 31
0.0
  0
LINE
  5
119E
330
ADC
100
AcDbEntity
  8
AM_5
100
AcDbLine
 10
2223.895020982256
 20
1294.768346080103
 30
0.0
 11
2223.895020982256
 21
1289.768346080103
 31
0.0
  0
SOLID
  5
119F
330
ADC
100
AcDbEntity
  8
AM_5
100
AcDbTrace
 10
2222.895020982256
 20
1300.768346080103
 30
0.0
 11
2224.895020982256
 21
1300.768346080103
 31
0.0
 12
2223.895020982256
 22
1294.768346080103
 32
0.0
 13
2223.895020982256
 23
1294.768346080103
 33
0.0
  0
SOLID
  5
11A0
330
ADC
100
AcDbEntity
  8
AM_5
100
AcDbTrace
 10
2222.895020982256
 20
1283.768346080103
 30
0.0
 11
2224.895020982256
 21
1283.768346080103
 31
0.0
 12
2223.895020982256
 22
1289.768346080103
 32
0.0
 13
2223.895020982256
 23
1289.768346080103
 33
0.0
  0
MTEXT
  5
11A1
330
ADC
100
AcDbEntity
  8
AM_5
100
AcDbMText
 10
2219.895020982256
 20
1275.16479268951
 30
0.0
 40
5.0
 41
0.0
 71
     5
 72
     1
  1
\A2;5
 11
0.0000000000000001
 21
1.0
 31
0.0
 73
     1
 44
1.0
1001
ACAD
1000
MTEXTBEGIN
1070
    73
1070
     1
1070
    44
1040
1.0
1070
    74
1070
     0
1000
MTEXTEND
  0
POINT
  5
11A2
330
ADC
100
AcDbEntity
  8
Defpoints
 62
     0
100
AcDbPoint
 10
2177.895020982256
 20
1289.768346080103
 30
0.0
  0
POINT
  5
11A3
330
ADC
100
AcDbEntity
  8
Defpoints
 62
     0
100
AcDbPoint
 10
2211.270020982256
 20
1294.768346080103
 30
0.0
  0
POINT
  5
11A4
330
ADC
100
AcDbEntity
  8
Defpoints
 62
     0
100
AcDbPoint
 10
2223.895020982256
 20
1294.768346080103
 30
0.0
  0
ENDBLK
  5
AE9
330
ADC
100
AcDbEntity
  8
0
100
AcDbBlockEnd
  0
BLOCK
  5
AF4
330
AEA
100
AcDbEntity
  8
0
100
AcDbBlockBegin
  2
*D10
 70
     1
 10
0.0
 20
0.0
 30
0.0
  3
*D10
  1

  0
LINE
  5
13F7
330
AEA
100
AcDbEntity
  8
AM_5
100
AcDbLine
 10
2178.895020982256
 20
1289.768346080103
 30
0.0
 11
2267.395020982256
 21
1289.768346080103
 31
0.0
  0
LINE
  5
13F8
330
AEA
100
AcDbEntity
  8
AM_5
100
AcDbLine
 10
2177.895020982256
 20
1461.768346080104
 30
0.0
 11
2267.395020982256
 21
1461.768346080104
 31
0.0
  0
LINE
  5
13F9
330
AEA
100
AcDbEntity
  8
AM_5
100
AcDbLine
 10
2265.895020982256
 20
1295.768346080103
 30
0.0
 11
2265.895020982256
 21
1455.768346080104
 31
0.0
  0
SOLID
  5
13FA
330
AEA
100
AcDbEntity
  8
AM_5
100
AcDbTrace
 10
2264.895020982256
 20
1295.768346080103
 30
0.0
 11
2266.895020982256
 21
1295.768346080103
 31
0.0
 12
2265.895020982256
 22
1289.768346080103
 32
0.0
 13
2265.895020982256
 23
1289.768346080103
 33
0.0
  0
SOLID
  5
13FB
330
AEA
100
AcDbEntity
  8
AM_5
100
AcDbTrace
 10
2264.895020982256
 20
1455.768346080104
 30
0.0
 11
2266.895020982256
 21
1455.768346080104
 31
0.0
 12
2265.895020982256
 22
1461.768346080104
 32
0.0
 13
2265.895020982256
 23
1461.768346080104
 33
0.0
  0
MTEXT
  5
13FC
330
AEA
100
AcDbEntity
  8
AM_5
100
AcDbMText
 10
2261.178919639502
 20
1375.768346080104
 30
0.0
 40
5.0
 41
0.0
 71
     5
 72
     1
  1
\A2;122+length
 11
0.0000000000000001
 21
1.0
 31
0.0
 73
     1
 44
1.0
1001
ACAD
1000
MTEXTBEGIN
1070
    73
1070
     1
1070
    44
1040
1.0
1070
    74
1070
     0
1000
MTEXTEND
  0
POINT
  5
13FD
330
AEA
100
AcDbEntity
  8
Defpoints
 62
     0
100
AcDbPoint
 10
2177.895020982256
 20
1289.768346080103
 30
0.0
  0
POINT
  5
13FE
330
AEA
100
AcDbEntity
  8
Defpoints
 62
     0
100
AcDbPoint
 10
2176.895020982256
 20
1461.768346080104
 30
0.0
  0
POINT
  5
13FF
330
AEA
100
AcDbEntity
  8
Defpoints
 62
     0
100
AcDbPoint
 10
2265.895020982256
 20
1461.768346080104
 30
0.0
  0
ENDBLK
  5
AF5
330
AEA
100
AcDbEntity
  8
0
100
AcDbBlockEnd
  0
BLOCK
  5
B00
330
AF6
100
AcDbEntity
  8
0
100
AcDbBlockBegin
  2
*D11
 70
     1
 10
0.0
 20
0.0
 30
0.0
  3
*D11
  1

  0
LINE
  5
11AE
330
AF6
100
AcDbEntity
  8
AM_5
100
AcDbLine
 10
2212.270020982256
 20
1434.768346080103
 30
0.0
 11
2239.395020982256
 21
1434.768346080103
 31
0.0
  0
LINE
  5
11AF
330
AF6
100
AcDbEntity
  8
AM_5
100
AcDbLine
 10
2178.895020982256
 20
1449.768346080103
 30
0.0
 11
2239.395020982256
 21
1449.768346080103
 31
0.0
  0
LINE
  5
11B0
330
AF6
100
AcDbEntity
  8
AM_5
100
AcDbLine
 10
2237.895020982256
 20
1428.768346080103
 30
0.0
 11
2237.895020982256
 21
1422.768346080103
 31
0.0
  0
LINE
  5
11B1
330
AF6
100
AcDbEntity
  8
AM_5
100
AcDbLine
 10
2237.895020982256
 20
1455.768346080103
 30
0.0
 11
2237.895020982256
 21
1461.768346080103
 31
0.0
  0
LINE
  5
11B2
330
AF6
100
AcDbEntity
  8
AM_5
100
AcDbLine
 10
2237.895020982256
 20
1434.768346080103
 30
0.0
 11
2237.895020982256
 21
1449.768346080103
 31
0.0
  0
SOLID
  5
11B3
330
AF6
100
AcDbEntity
  8
AM_5
100
AcDbTrace
 10
2236.895020982256
 20
1428.768346080103
 30
0.0
 11
2238.895020982256
 21
1428.768346080103
 31
0.0
 12
2237.895020982256
 22
1434.768346080103
 32
0.0
 13
2237.895020982256
 23
1434.768346080103
 33
0.0
  0
SOLID
  5
11B4
330
AF6
100
AcDbEntity
  8
AM_5
100
AcDbTrace
 10
2236.895020982256
 20
1455.768346080103
 30
0.0
 11
2238.895020982256
 21
1455.768346080103
 31
0.0
 12
2237.895020982256
 22
1449.768346080103
 32
0.0
 13
2237.895020982256
 23
1449.768346080103
 33
0.0
  0
MTEXT
  5
11B5
330
AF6
100
AcDbEntity
  8
AM_5
100
AcDbMText
 10
2233.895020982256
 20
1442.268346080103
 30
0.0
 40
5.0
 41
0.0
 71
     5
 72
     1
  1
\A2;15
 11
0.0000000000000001
 21
1.0
 31
0.0
 73
     1
 44
1.0
1001
ACAD
1000
MTEXTBEGIN
1070
    73
1070
     1
1070
    44
1040
1.0
1070
    74
1070
     0
1000
MTEXTEND
  0
POINT
  5
11B6
330
AF6
100
AcDbEntity
  8
Defpoints
 62
     0
100
AcDbPoint
 10
2211.270020982256
 20
1434.768346080103
 30
0.0
  0
POINT
  5
11B7
330
AF6
100
AcDbEntity
  8
Defpoints
 62
     0
100
AcDbPoint
 10
2177.895020982256
 20
1449.768346080103
 30
0.0
  0
POINT
  5
11B8
330
AF6
100
AcDbEntity
  8
Defpoints
 62
     0
100
AcDbPoint
 10
2237.895020982256
 20
1449.768346080103
 30
0.0
  0
ENDBLK
  5
B01
330
AF6
100
AcDbEntity
  8
0
100
AcDbBlockEnd
  0
BLOCK
  5
B0C
330
B02
100
AcDbEntity
  8
0
100
AcDbBlockBegin
  2
*D12
 70
     1
 10
0.0
 20
0.0
 30
0.0
  3
*D12
  1

  0
LINE
  5
11B9
330
B02
100
AcDbEntity
  8
AM_5
100
AcDbLine
 10
2212.270020982256
 20
1434.768346080103
 30
0.0
 11
2253.395020982256
 21
1434.768346080103
 31
0.0
  0
LINE
  5
11BA
330
B02
100
AcDbEntity
  8
AM_5
100
AcDbLine
 10
2177.895020982256
 20
1461.768346080104
 30
0.0
 11
2253.395020982256
 21
1461.768346080104
 31
0.0
  0
LINE
  5
11BB
330
B02
100
AcDbEntity
  8
AM_5
100
AcDbLine
 10
2251.895020982256
 20
1440.768346080103
 30
0.0
 11
2251.895020982256
 21
1455.768346080104
 31
0.0
  0
SOLID
  5
11BC
330
B02
100
AcDbEntity
  8
AM_5
100
AcDbTrace
 10
2250.895020982256
 20
1440.768346080103
 30
0.0
 11
2252.895020982256
 21
1440.768346080103
 31
0.0
 12
2251.895020982256
 22
1434.768346080103
 32
0.0
 13
2251.895020982256
 23
1434.768346080103
 33
0.0
  0
SOLID
  5
11BD
330
B02
100
AcDbEntity
  8
AM_5
100
AcDbTrace
 10
2250.895020982256
 20
1455.768346080104
 30
0.0
 11
2252.895020982256
 21
1455.768346080104
 31
0.0
 12
2251.895020982256
 22
1461.768346080104
 32
0.0
 13
2251.895020982256
 23
1461.768346080104
 33
0.0
  0
MTEXT
  5
11BE
330
B02
100
AcDbEntity
  8
AM_5
100
AcDbMText
 10
2247.894528856271
 20
1448.268346080103
 30
0.0
 40
5.0
 41
0.0
 71
     5
 72
     1
  1
\A2;27
 11
0.0000000000000001
 21
1.0
 31
0.0
 73
     1
 44
1.0
1001
ACAD
1000
MTEXTBEGIN
1070
    73
1070
     1
1070
    44
1040
1.0
1070
    74
1070
     0
1000
MTEXTEND
  0
POINT
  5
11BF
330
B02
100
AcDbEntity
  8
Defpoints
 62
     0
100
AcDbPoint
 10
2211.270020982256
 20
1434.768346080103
 30
0.0
  0
POINT
  5
11C0
330
B02
100
AcDbEntity
  8
Defpoints
 62
     0
100
AcDbPoint
 10
2176.895020982256
 20
1461.768346080104
 30
0.0
  0
POINT
  5
11C1
330
B02
100
AcDbEntity
  8
Defpoints
 62
     0
100
AcDbPoint
 10
2251.895020982256
 20
1461.768346080104
 30
0.0
  0
ENDBLK
  5
B0D
330
B02
100
AcDbEntity
  8
0
100
AcDbBlockEnd
  0
BLOCK
  5
B18
330
B0E
100
AcDbEntity
  8
0
100
AcDbBlockBegin
  2
*D13
 70
     1
 10
0.0
 20
0.0
 30
0.0
  3
*D13
  1

  0
LINE
  5
13ED
330
B0E
100
AcDbEntity
  8
AM_5
100
AcDbLine
 10
2212.270020982256
 20
1294.768346080103
 30
0.0
 11
2253.395020982256
 21
1294.768346080103
 31
0.0
  0
LINE
  5
13EE
330
B0E
100
AcDbEntity
  8
AM_5
100
AcDbLine
 10
2212.270020982256
 20
1434.768346080103
 30
0.0
 11
2253.395020982256
 21
1434.768346080103
 31
0.0
  0
LINE
  5
13EF
330
B0E
100
AcDbEntity
  8
AM_5
100
AcDbLine
 10
2251.895020982256
 20
1300.768346080103
 30
0.0
 11
2251.895020982256
 21
1428.768346080103
 31
0.0
  0
SOLID
  5
13F0
330
B0E
100
AcDbEntity
  8
AM_5
100
AcDbTrace
 10
2250.895020982256
 20
1300.768346080103
 30
0.0
 11
2252.895020982256
 21
1300.768346080103
 31
0.0
 12
2251.895020982256
 22
1294.768346080103
 32
0.0
 13
2251.895020982256
 23
1294.768346080103
 33
0.0
  0
SOLID
  5
13F1
330
B0E
100
AcDbEntity
  8
AM_5
100
AcDbTrace
 10
2250.895020982256
 20
1428.768346080103
 30
0.0
 11
2252.895020982256
 21
1428.768346080103
 31
0.0
 12
2251.895020982256
 22
1434.768346080103
 32
0.0
 13
2251.895020982256
 23
1434.768346080103
 33
0.0
  0
MTEXT
  5
13F2
330
B0E
100
AcDbEntity
  8
AM_5
100
AcDbMText
 10
2247.180620163036
 20
1364.768346080103
 30
0.0
 40
5.0
 41
0.0
 71
     5
 72
     1
  1
\A2;90+length
 11
0.0000000000000001
 21
1.0
 31
0.0
 73
     1
 44
1.0
1001
ACAD
1000
MTEXTBEGIN
1070
    73
1070
     1
1070
    44
1040
1.0
1070
    74
1070
     0
1000
MTEXTEND
  0
POINT
  5
13F3
330
B0E
100
AcDbEntity
  8
Defpoints
 62
     0
100
AcDbPoint
 10
2211.270020982256
 20
1294.768346080103
 30
0.0
  0
POINT
  5
13F4
330
B0E
100
AcDbEntity
  8
Defpoints
 62
     0
100
AcDbPoint
 10
2211.270020982256
 20
1434.768346080103
 30
0.0
  0
POINT
  5
13F5
330
B0E
100
AcDbEntity
  8
Defpoints
 62
     0
100
AcDbPoint
 10
2251.895020982256
 20
1434.768346080103
 30
0.0
  0
ENDBLK
  5
B19
330
B0E
100
AcDbEntity
  8
0
100
AcDbBlockEnd
  0
BLOCK
  5
B24
330
B1A
100
AcDbEntity
  8
0
100
AcDbBlockBegin
  2
*D14
 70
     1
 10
0.0
 20
0.0
 30
0.0
  3
*D14
  1

  0
LINE
  5
11CB
330
B1A
100
AcDbEntity
  8
AM_5
100
AcDbLine
 10
2212.895020982256
 20
1397.768346080102
 30
0.0
 11
2239.395020982256
 21
1397.768346080102
 31
0.0
  0
LINE
  5
11CC
330
B1A
100
AcDbEntity
  8
AM_5
100
AcDbLine
 10
2212.270020982256
 20
1434.768346080103
 30
0.0
 11
2239.395020982256
 21
1434.768346080103
 31
0.0
  0
LINE
  5
11CD
330
B1A
100
AcDbEntity
  8
AM_5
100
AcDbLine
 10
2237.895020982256
 20
1403.768346080102
 30
0.0
 11
2237.895020982256
 21
1428.768346080103
 31
0.0
  0
SOLID
  5
11CE
330
B1A
100
AcDbEntity
  8
AM_5
100
AcDbTrace
 10
2236.895020982256
 20
1403.768346080102
 30
0.0
 11
2238.895020982256
 21
1403.768346080102
 31
0.0
 12
2237.895020982256
 22
1397.768346080102
 32
0.0
 13
2237.895020982256
 23
1397.768346080102
 33
0.0
  0
SOLID
  5
11CF
330
B1A
100
AcDbEntity
  8
AM_5
100
AcDbTrace
 10
2236.895020982256
 20
1428.768346080103
 30
0.0
 11
2238.895020982256
 21
1428.768346080103
 31
0.0
 12
2237.895020982256
 22
1434.768346080103
 32
0.0
 13
2237.895020982256
 23
1434.768346080103
 33
0.0
  0
MTEXT
  5
11D0
330
B1A
100
AcDbEntity
  8
AM_5
100
AcDbMText
 10
2233.895020982256
 20
1416.268346080103
 30
0.0
 40
5.0
 41
0.0
 71
     5
 72
     1
  1
\A2;37
 11
0.0000000000000001
 21
1.0
 31
0.0
 73
     1
 44
1.0
1001
ACAD
1000
MTEXTBEGIN
1070
    73
1070
     1
1070
    44
1040
1.0
1070
    74
1070
     0
1000
MTEXTEND
  0
POINT
  5
11D1
330
B1A
100
AcDbEntity
  8
Defpoints
 62
     0
100
AcDbPoint
 10
2211.895020982256
 20
1397.768346080102
 30
0.0
  0
POINT
  5
11D2
330
B1A
100
AcDbEntity
  8
Defpoints
 62
     0
100
AcDbPoint
 10
2211.270020982256
 20
1434.768346080103
 30
0.0
  0
POINT
  5
11D3
330
B1A
100
AcDbEntity
  8
Defpoints
 62
     0
100
AcDbPoint
 10
2237.895020982256
 20
1434.768346080103
 30
0.0
  0
ENDBLK
  5
B25
330
B1A
100
AcDbEntity
  8
0
100
AcDbBlockEnd
  0
BLOCK
  5
B30
330
B26
100
AcDbEntity
  8
0
100
AcDbBlockBegin
  2
*D15
 70
     1
 10
0.0
 20
0.0
 30
0.0
  3
*D15
  1

  0
LINE
  5
11D4
330
B26
100
AcDbEntity
  8
AM_5
100
AcDbLine
 10
2212.270020982256
 20
1434.768346080103
 30
0.0
 11
2225.395020982256
 21
1434.768346080103
 31
0.0
  0
LINE
  5
11D5
330
B26
100
AcDbEntity
  8
AM_5
100
AcDbLine
 10
2167.745020982256
 20
1416.268346080103
 30
0.0
 11
2225.395020982256
 21
1416.268346080103
 31
0.0
  0
LINE
  5
11D6
330
B26
100
AcDbEntity
  8
AM_5
100
AcDbLine
 10
2223.895020982256
 20
1428.768346080103
 30
0.0
 11
2223.895020982256
 21
1422.268346080103
 31
0.0
  0
SOLID
  5
11D7
330
B26
100
AcDbEntity
  8
AM_5
100
AcDbTrace
 10
2222.895020982256
 20
1428.768346080103
 30
0.0
 11
2224.895020982256
 21
1428.768346080103
 31
0.0
 12
2223.895020982256
 22
1434.768346080103
 32
0.0
 13
2223.895020982256
 23
1434.768346080103
 33
0.0
  0
SOLID
  5
11D8
330
B26
100
AcDbEntity
  8
AM_5
100
AcDbTrace
 10
2222.895020982256
 20
1422.268346080103
 30
0.0
 11
2224.895020982256
 21
1422.268346080103
 31
0.0
 12
2223.895020982256
 22
1416.268346080103
 32
0.0
 13
2223.895020982256
 23
1416.268346080103
 33
0.0
  0
MTEXT
  5
11D9
330
B26
100
AcDbEntity
  8
AM_5
100
AcDbMText
 10
2219.895020982256
 20
1425.518346080103
 30
0.0
 40
5.0
 41
0.0
 71
     5
 72
     1
  1
\A2;18.5
 11
0.0000000000000001
 21
1.0
 31
0.0
 73
     1
 44
1.0
1001
ACAD
1000
MTEXTBEGIN
1070
    73
1070
     1
1070
    44
1040
1.0
1070
    74
1070
     0
1000
MTEXTEND
  0
POINT
  5
11DA
330
B26
100
AcDbEntity
  8
Defpoints
 62
     0
100
AcDbPoint
 10
2211.270020982256
 20
1434.768346080103
 30
0.0
  0
POINT
  5
11DB
330
B26
100
AcDbEntity
  8
Defpoints
 62
     0
100
AcDbPoint
 10
2166.745020982256
 20
1416.268346080103
 30
0.0
  0
POINT
  5
11DC
330
B26
100
AcDbEntity
  8
Defpoints
 62
     0
100
AcDbPoint
 10
2223.895020982256
 20
1416.268346080103
 30
0.0
  0
ENDBLK
  5
B31
330
B26
100
AcDbEntity
  8
0
100
AcDbBlockEnd
  0
BLOCK
  5
B3C
330
B32
100
AcDbEntity
  8
0
100
AcDbBlockBegin
  2
*D16
 70
     1
 10
0.0
 20
0.0
 30
0.0
  3
*D16
  1

  0
LINE
  5
11DD
330
B32
100
AcDbEntity
  8
AM_5
100
AcDbLine
 10
2126.895020982256
 20
1289.768346080103
 30
0.0
 11
2126.895020982256
 21
1274.368691619725
 31
0.0
  0
LINE
  5
11DE
330
B32
100
AcDbEntity
  8
AM_5
100
AcDbLine
 10
2178.895020982256
 20
1289.768346080103
 30
0.0
 11
2178.895020982256
 21
1274.368691619725
 31
0.0
  0
LINE
  5
11DF
330
B32
100
AcDbEntity
  8
AM_5
100
AcDbLine
 10
2132.895020982256
 20
1275.868691619725
 30
0.0
 11
2172.895020982256
 21
1275.868691619725
 31
0.0
  0
SOLID
  5
11E0
330
B32
100
AcDbEntity
  8
AM_5
100
AcDbTrace
 10
2132.895020982256
 20
1276.868691619725
 30
0.0
 11
2132.895020982256
 21
1274.868691619725
 31
0.0
 12
2126.895020982256
 22
1275.868691619725
 32
0.0
 13
2126.895020982256
 23
1275.868691619725
 33
0.0
  0
SOLID
  5
11E1
330
B32
100
AcDbEntity
  8
AM_5
100
AcDbTrace
 10
2172.895020982256
 20
1276.868691619725
 30
0.0
 11
2172.895020982256
 21
1274.868691619725
 31
0.0
 12
2178.895020982256
 22
1275.868691619725
 32
0.0
 13
2178.895020982256
 23
1275.868691619725
 33
0.0
  0
MTEXT
  5
11E2
330
B32
100
AcDbEntity
  8
AM_5
100
AcDbMText
 10
2152.895020982256
 20
1279.86918374571
 30
0.0
 40
5.0
 41
0.0
 71
     5
 72
     1
  1
\A2;%%c52
 73
     1
 44
1.0
1001
ACAD
1000
MTEXTBEGIN
1070
    73
1070
     1
1070
    44
1040
1.0
1070
    74
1070
     0
1000
MTEXTEND
  0
POINT
  5
11E3
330
B32
100
AcDbEntity
  8
Defpoints
 62
     0
100
AcDbPoint
 10
2126.895020982256
 20
1290.768346080103
 30
0.0
  0
POINT
  5
11E4
330
B32
100
AcDbEntity
  8
Defpoints
 62
     0
100
AcDbPoint
 10
2178.895020982256
 20
1290.768346080103
 30
0.0
  0
POINT
  5
11E5
330
B32
100
AcDbEntity
  8
Defpoints
 62
     0
100
AcDbPoint
 10
2178.895020982256
 20
1275.868691619725
 30
0.0
  0
ENDBLK
  5
B3D
330
B32
100
AcDbEntity
  8
0
100
AcDbBlockEnd
  0
BLOCK
  5
1449
330
1444
100
AcDbEntity
  8
0
100
AcDbBlockBegin
  2
*S18
 70
     1
 10
0.0
 20
0.0
 30
0.0
  3
*S18
  1

  0
LINE
  5
1445
330
1444
100
AcDbEntity
  8
AM_5
 62
     5
100
AcDbLine
 10
2251.965882898211
 20
1498.058618842534
 30
0.0
 11
2218.661713498455
 21
1498.058618842534
 31
0.0
  0
LINE
  5
1446
330
1444
100
AcDbEntity
  8
AM_5
 62
     5
100
AcDbLine
 10
2218.661713498455
 20
1498.058618842534
 30
0.0
 11
2204.221255531674
 21
1518.823584674993
 31
0.0
  0
TRACE
  5
1447
330
1444
100
AcDbEntity
  8
AM_5
 62
     5
370
    35
100
AcDbTrace
 10
2204.599555740749
 20
1519.086663762725
 30
0.0
 11
2203.842955322599
 21
1518.560505587262
 31
0.0
 12
2202.222971460152
 22
1521.69706005674
 32
0.0
 13
2202.222971460152
 23
1521.69706005674
 33
0.0
  0
MTEXT
  5
1448
330
1444
100
AcDbEntity
  8
AM_5
 62
     2
100
AcDbMText
 10
2251.965882898211
 20
1491.086433090925
 30
0.0
 40
3.5
 41
0.0
 71
     9
 72
     5
  1

  7
ACISOTS
210
0.0
220
0.0
230
-1.0
 11
-1.0
 21
0.0
 31
0.0
 73
     1
 44
1.0
1001
ACAD
1000
MTEXTBEGIN
1070
    73
1070
     1
1070
    44
1040
1.0
1070
    74
1070
     0
1000
MTEXTEND
  0
ENDBLK
  5
144A
330
1444
100
AcDbEntity
  8
0
100
AcDbBlockEnd
  0
BLOCK
  5
1451
330
144C
100
AcDbEntity
  8
0
100
AcDbBlockBegin
  2
*S19
 70
     1
 10
0.0
 20
0.0
 30
0.0
  3
*S19
  1

  0
LINE
  5
144D
330
144C
100
AcDbEntity
  8
AM_5
 62
     5
100
AcDbLine
 10
2085.149608612492
 20
1278.844757301499
 30
0.0
 11
2112.226068403462
 21
1278.844757301499
 31
0.0
  0
LINE
  5
144E
330
144C
100
AcDbEntity
  8
AM_5
 62
     5
100
AcDbLine
 10
2112.226068403462
 20
1278.844757301499
 30
0.0
 11
2142.57424999713
 21
1306.417278406745
 31
0.0
  0
TRACE
  5
144F
330
144C
100
AcDbEntity
  8
AM_5
 62
     5
370
    35
100
AcDbTrace
 10
2142.884103701927
 20
1306.076232462316
 30
0.0
 11
2142.264396292334
 21
1306.758324351174
 31
0.0
 12
2145.164751143714
 22
1308.770850969796
 32
0.0
 13
2145.164751143714
 23
1308.770850969796
 33
0.0
  0
MTEXT
  5
1450
330
144C
100
AcDbEntity
  8
AM_5
 62
     2
100
AcDbMText
 10
2085.149608612492
 20
1278.709489563271
 30
0.0
 40
3.5
 41
0.0
 71
     9
 72
     5
  1

  7
ACISOTS
 73
     1
 44
1.0
1001
ACAD
1000
MTEXTBEGIN
1070
    73
1070
     1
1070
    44
1040
1.0
1070
    74
1070
     0
1000
MTEXTEND
  0
ENDBLK
  5
1452
330
144C
100
AcDbEntity
  8
0
100
AcDbBlockEnd
  0
ENDSEC
  0
SECTION
  2
ENTITIES
  0
LINE
  5
921
330
1F
100
AcDbEntity
  8
CENTER
  6
CENTER
100
AcDbLine
 10
2361.772784983352
 20
1280.840463528726
 30
0.0
 11
2361.772784983352
 21
1457.401504616663
 31
0.0
  0
LINE
  5
922
330
1F
100
AcDbEntity
  8
0
100
AcDbLine
 10
2420.772784983352
 20
1397.768346080103
 30
0.0
 11
2420.772784983352
 21
1434.768346080103
 31
0.0
  0
LINE
  5
923
330
1F
100
AcDbEntity
  8
0
100
AcDbLine
 10
2302.772784983352
 20
1397.768346080103
 30
0.0
 11
2302.772784983352
 21
1434.068346080103
 31
0.0
  0
LINE
  5
924
330
1F
100
AcDbEntity
  8
0
100
AcDbLine
 10
2416.272784983352
 20
1397.268346080103
 30
0.0
 11
2416.272784983352
 21
1397.768346080103
 31
0.0
  0
LINE
  5
925
330
1F
100
AcDbEntity
  8
0
100
AcDbLine
 10
2094.520019565696
 20
1434.768346080103
 30
0.0
 11
2211.270020982256
 21
1434.768346080103
 31
0.0
  0
LINE
  5
926
330
1F
100
AcDbEntity
  8
0
100
AcDbLine
 10
2136.895020982256
 20
1401.268346080103
 30
0.0
 11
2168.895020982256
 21
1401.268346080103
 31
0.0
  0
LINE
  5
927
330
1F
100
AcDbEntity
  8
0
100
AcDbLine
 10
2136.895020982256
 20
1431.268346080103
 30
0.0
 11
2168.895020982256
 21
1431.268346080103
 31
0.0
  0
CIRCLE
  5
928
330
1F
100
AcDbEntity
  8
0
100
AcDbCircle
 10
2152.895020982256
 20
1416.268346080103
 30
0.0
 40
13.7
  0
LINE
  5
929
330
1F
100
AcDbEntity
  8
0
100
AcDbLine
 10
2211.895020982256
 20
1397.768346080102
 30
0.0
 11
2093.895020982256
 21
1397.768346080103
 31
0.0
  0
LINE
  5
92A
330
1F
100
AcDbEntity
  8
0
100
AcDbLine
 10
2207.395020982257
 20
1397.268346080102
 30
0.0
 11
2098.395020982256
 21
1397.268346080102
 31
0.0
  0
LINE
  5
92B
330
1F
100
AcDbEntity
  8
0
100
AcDbLine
 10
2136.895020982256
 20
1431.268346080103
 30
0.0
 11
2132.895020982256
 21
1427.268346080103
 31
0.0
  0
LINE
  5
92C
330
1F
100
AcDbEntity
  8
0
100
AcDbLine
 10
2093.895020982256
 20
1397.768346080102
 30
0.0
 11
2093.895020982256
 21
1434.143346080103
 31
0.0
  0
LINE
  5
92D
330
1F
100
AcDbEntity
  8
CENTER
  6
CENTER
100
AcDbLine
 10
2152.895020982256
 20
1287.868691619725
 30
0.0
 11
2152.895020982256
 21
1458.358362613352
 31
0.0
  0
LINE
  5
92E
330
1F
100
AcDbEntity
  8
0
100
AcDbLine
 10
2098.395020982256
 20
1397.268346080102
 30
0.0
 11
2098.395020982256
 21
1397.768346080102
 31
0.0
  0
LINE
  5
92F
330
1F
100
AcDbEntity
  8
0
100
AcDbLine
 10
2132.895020982256
 20
1405.268346080102
 30
0.0
 11
2136.895020982256
 21
1401.268346080103
 31
0.0
  0
LINE
  5
930
330
1F
100
AcDbEntity
  8
0
100
AcDbLine
 10
2132.895020982256
 20
1405.268346080102
 30
0.0
 11
2132.895020982256
 21
1427.268346080103
 31
0.0
  0
ARC
  5
931
330
1F
100
AcDbEntity
  8
0
100
AcDbCircle
 10
2094.520020982256
 20
1434.143346080103
 30
0.0
 40
0.625
100
AcDbArc
 50
90.0
 51
180.0
  0
LINE
  5
932
330
1F
100
AcDbEntity
  8
0
100
AcDbLine
 10
2168.895020982256
 20
1431.268346080103
 30
0.0
 11
2172.895020982256
 21
1427.268346080103
 31
0.0
  0
LINE
  5
933
330
1F
100
AcDbEntity
  8
0
100
AcDbLine
 10
2168.895020982256
 20
1401.268346080103
 30
0.0
 11
2172.895020982256
 21
1405.268346080102
 31
0.0
  0
LINE
  5
934
330
1F
100
AcDbEntity
  8
0
100
AcDbLine
 10
2172.895020982256
 20
1405.268346080102
 30
0.0
 11
2172.895020982256
 21
1427.268346080103
 31
0.0
  0
LINE
  5
935
330
1F
100
AcDbEntity
  8
0
100
AcDbLine
 10
2307.272784983352
 20
1397.268346080103
 30
0.0
 11
2416.272784983352
 21
1397.268346080103
 31
0.0
  0
LINE
  5
936
330
1F
100
AcDbEntity
  8
0
100
AcDbLine
 10
2307.272784983352
 20
1397.268346080103
 30
0.0
 11
2307.272784983352
 21
1397.768346080103
 31
0.0
  0
LINE
  5
937
330
1F
100
AcDbEntity
  8
0
100
AcDbLine
 10
2302.772784983352
 20
1397.768346080103
 30
0.0
 11
2420.772784983352
 21
1397.768346080103
 31
0.0
  0
LINE
  5
938
330
1F
100
AcDbEntity
  8
0
100
AcDbLine
 10
2303.472784983352
 20
1434.768346080103
 30
0.0
 11
2420.772784983352
 21
1434.768346080103
 31
0.0
  0
LINE
  5
939
330
1F
100
AcDbEntity
  8
0
100
AcDbLine
 10
2173.670359910767
 20
1551.502175396091
 30
0.0
 11
2185.843173484121
 21
1539.329361822737
 31
0.0
  0
LINE
  5
93A
330
1F
100
AcDbEntity
  8
0
100
AcDbLine
 10
2171.902592957801
 20
1549.734408443124
 30
0.0
 11
2184.075406531154
 21
1537.561594869771
 31
0.0
  0
LINE
  5
93B
330
1F
100
AcDbEntity
  8
0
100
AcDbLine
 10
2133.887449006712
 20
1549.734408443125
 30
0.0
 11
2121.714635433357
 21
1537.56159486977
 31
0.0
  0
LINE
  5
93C
330
1F
100
AcDbEntity
  8
0
100
AcDbLine
 10
2132.119682053745
 20
1551.50217539609
 30
0.0
 11
2119.946868480392
 21
1539.329361822737
 31
0.0
  0
LINE
  5
93D
330
1F
100
AcDbEntity
  8
0
100
AcDbLine
 10
2142.895020982256
 20
1533.509747371635
 30
0.0
 11
2142.895020982256
 21
1545.20357223591
 31
0.0
  0
LINE
  5
93E
330
1F
100
AcDbEntity
  8
0
100
AcDbLine
 10
2162.895020982256
 20
1533.509747371635
 30
0.0
 11
2162.895020982256
 21
1545.20357223591
 31
0.0
  0
ARC
  5
93F
330
1F
100
AcDbEntity
  8
0
100
AcDbCircle
 10
2100.895020982256
 20
1543.509747371635
 30
0.0
 40
4.0
100
AcDbArc
 50
346.6576362029059
 51
103.3423637970784
  0
ARC
  5
940
330
1F
100
AcDbEntity
  8
0
100
AcDbCircle
 10
2204.895020982256
 20
1543.509747371635
 30
0.0
 40
4.0
100
AcDbArc
 50
76.65763620292159
 51
193.3423637970941
  0
LINE
  5
941
330
1F
100
AcDbEntity
  8
0
100
AcDbLine
 10
2093.895020982257
 20
1521.509747371635
 30
0.0
 11
2093.895020982257
 21
1619.509747371635
 31
0.0
  0
LINE
  5
942
330
1F
100
AcDbEntity
  8
0
100
AcDbLine
 10
2211.895020982256
 20
1521.509747371635
 30
0.0
 11
2211.895020982257
 21
1619.509747371635
 31
0.0
  0
LINE
  5
943
330
1F
100
AcDbEntity
  8
CENTER
  6
CENTER
100
AcDbLine
 10
2152.895020982256
 20
1508.095363809991
 30
0.0
 11
2152.895020982256
 21
1632.924130933279
 31
0.0
  0
LINE
  5
944
330
1F
100
AcDbEntity
  8
CENTER
  6
CENTER
100
AcDbLine
 10
2215.792893321095
 20
1570.509747371635
 30
0.0
 11
2087.901592705515
 21
1570.509747371635
 31
0.0
  0
ARC
  5
945
330
1F
100
AcDbEntity
  8
0
100
AcDbCircle
 10
2152.895020982256
 20
1570.509747371635
 30
0.0
 40
38.0
100
AcDbArc
 50
94.90629075764918
 51
130.0937092423624
  0
LINE
  5
946
330
1F
100
AcDbEntity
  8
0
100
AcDbLine
 10
2173.570465661919
 20
1626.509747371635
 30
0.0
 11
2132.219576302593
 21
1626.509747371635
 31
0.0
  0
ARC
  5
947
330
1F
100
AcDbEntity
  8
0
100
AcDbCircle
 10
2147.645020982257
 20
1622.509747371635
 30
0.0
 40
4.0
100
AcDbArc
 50
0.0
 51
90.0
  0
CIRCLE
  5
948
330
1F
100
AcDbEntity
  8
0
100
AcDbCircle
 10
2152.895020982256
 20
1570.509747371635
 30
0.0
 40
25.45
  0
LINE
  5
949
330
1F
100
AcDbEntity
  8
0
100
AcDbLine
 10
2201.895020982257
 20
1629.509747371635
 30
0.0
 11
2103.895020982257
 21
1629.509747371635
 31
0.0
  0
LINE
  5
94A
330
1F
100
AcDbEntity
  8
0
100
AcDbLine
 10
2336.772784983352
 20
1449.768346080103
 30
0.0
 11
2386.772784983352
 21
1449.768346080103
 31
0.0
  0
ARC
  5
94B
330
1F
100
AcDbEntity
  8
0
100
AcDbCircle
 10
2152.895020982256
 20
1570.509747371635
 30
0.0
 40
38.0
100
AcDbArc
 50
49.90629075763754
 51
85.09370924235081
  0
ARC
  5
94C
330
1F
100
AcDbEntity
  8
0
100
AcDbCircle
 10
2194.895020982256
 20
1612.509747371635
 30
0.0
 40
11.0
100
AcDbArc
 50
180.0
 51
270.0
  0
LINE
  5
94D
330
1F
100
AcDbEntity
  8
0
100
AcDbLine
 10
2151.645020982256
 20
1598.640513447233
 30
0.0
 11
2151.645020982256
 21
1622.509747371635
 31
0.0
  0
LINE
  5
94E
330
1F
100
AcDbEntity
  8
0
100
AcDbLine
 10
2154.145020982256
 20
1598.640513447233
 30
0.0
 11
2154.145020982256
 21
1622.509747371635
 31
0.0
  0
LINE
  5
94F
330
1F
100
AcDbEntity
  8
0
100
AcDbLine
 10
2184.075406531154
 20
1603.4578998735
 30
0.0
 11
2171.9025929578
 21
1591.285086300146
 31
0.0
  0
LINE
  5
950
330
1F
100
AcDbEntity
  8
0
100
AcDbLine
 10
2185.843173484121
 20
1601.690132920533
 30
0.0
 11
2173.670359910768
 21
1589.51731934718
 31
0.0
  0
ARC
  5
951
330
1F
100
AcDbEntity
  8
0
100
AcDbCircle
 10
2198.570465661919
 20
1599.009747371635
 30
0.0
 40
2.5
100
AcDbArc
 50
346.6576362029059
 51
90.0
  0
ARC
  5
952
330
1F
100
AcDbEntity
  8
0
100
AcDbCircle
 10
2204.895020982256
 20
1597.509747371635
 30
0.0
 40
4.0
100
AcDbArc
 50
166.6576362029059
 51
283.3423637970784
  0
ARC
  5
953
330
1F
100
AcDbEntity
  8
0
100
AcDbCircle
 10
2188.671600608867
 20
1598.861705795787
 30
0.0
 40
4.0
100
AcDbArc
 50
65.48731511472316
 51
135.0
  0
ARC
  5
954
330
1F
100
AcDbEntity
  8
0
100
AcDbCircle
 10
2201.895020982257
 20
1619.509747371635
 30
0.0
 40
10.0
100
AcDbArc
 50
0.0
 51
90.0
  0
CIRCLE
  5
955
330
1F
100
AcDbEntity
  8
0
100
AcDbCircle
 10
2197.895020982256
 20
1615.509747371635
 30
0.0
 40
9.8
  0
LINE
  5
956
330
1F
100
AcDbEntity
  8
0
100
AcDbLine
 10
2198.570465661919
 20
1601.509747371635
 30
0.0
 11
2194.895020982256
 21
1601.509747371635
 31
0.0
  0
LINE
  5
957
330
1F
100
AcDbEntity
  8
0
100
AcDbLine
 10
2183.895020982257
 20
1612.509747371635
 30
0.0
 11
2183.895020982257
 21
1616.185192051298
 31
0.0
  0
ARC
  5
958
330
1F
100
AcDbEntity
  8
0
100
AcDbCircle
 10
2179.895020982256
 20
1622.509747371635
 30
0.0
 40
4.0
100
AcDbArc
 50
166.6576362029059
 51
283.3423637970784
  0
ARC
  5
959
330
1F
100
AcDbEntity
  8
0
100
AcDbCircle
 10
2181.395020982257
 20
1616.185192051298
 30
0.0
 40
2.5
100
AcDbArc
 50
0.0
 51
103.3423637970784
  0
ARC
  5
95A
330
1F
100
AcDbEntity
  8
0
100
AcDbCircle
 10
2173.570465661919
 20
1624.009747371635
 30
0.0
 40
2.5
100
AcDbArc
 50
346.6576362029059
 51
90.0
  0
ARC
  5
95B
330
1F
100
AcDbEntity
  8
0
100
AcDbCircle
 10
2181.246979406408
 20
1606.286326998246
 30
0.0
 40
4.0
100
AcDbArc
 50
315.0
 51
24.51268488528226
  0
ARC
  5
95C
330
1F
100
AcDbEntity
  8
0
100
AcDbCircle
 10
2158.145020982256
 20
1622.509747371635
 30
0.0
 40
4.0
100
AcDbArc
 50
90.0
 51
180.0
  0
LINE
  5
95D
330
1F
100
AcDbEntity
  8
0
100
AcDbLine
 10
2205.895020982256
 20
1577.009747371635
 30
0.0
 11
2179.712039832233
 21
1577.009747371635
 31
0.0
  0
LINE
  5
95E
330
1F
100
AcDbEntity
  8
0
100
AcDbLine
 10
2205.895020982256
 20
1564.009747371635
 30
0.0
 11
2179.712039832233
 21
1564.009747371635
 31
0.0
  0
ARC
  5
95F
330
1F
100
AcDbEntity
  8
0
100
AcDbCircle
 10
2152.895020982256
 20
1570.509747371635
 30
0.0
 40
38.0
100
AcDbArc
 50
319.9062907576375
 51
347.0744829265515
  0
ARC
  5
960
330
1F
100
AcDbEntity
  8
0
100
AcDbCircle
 10
2152.895020982256
 20
1570.509747371635
 30
0.0
 40
38.0
100
AcDbArc
 50
12.92551707344849
 51
40.09370924236246
  0
LINE
  5
961
330
1F
100
AcDbEntity
  8
0
100
AcDbLine
 10
2204.895020982256
 20
1569.259747371635
 30
0.0
 11
2181.025787057854
 21
1569.259747371635
 31
0.0
  0
LINE
  5
962
330
1F
100
AcDbEntity
  8
0
100
AcDbLine
 10
2204.895020982256
 20
1571.759747371635
 30
0.0
 11
2181.025787057854
 21
1571.759747371635
 31
0.0
  0
LINE
  5
963
330
1F
100
AcDbEntity
  8
0
100
AcDbLine
 10
2208.895020982257
 20
1549.834302691972
 30
0.0
 11
2208.895020982257
 21
1591.185192051299
 31
0.0
  0
ARC
  5
964
330
1F
100
AcDbEntity
  8
0
100
AcDbCircle
 10
2204.895020982256
 20
1575.759747371635
 30
0.0
 40
4.0
100
AcDbArc
 50
270.0
 51
0.0
  0
ARC
  5
965
330
1F
100
AcDbEntity
  8
0
100
AcDbCircle
 10
2205.895020982256
 20
1580.009747371635
 30
0.0
 40
3.0
100
AcDbArc
 50
270.0
 51
0.0
  0
ARC
  5
966
330
1F
100
AcDbEntity
  8
0
100
AcDbCircle
 10
2206.395020982257
 20
1591.185192051299
 30
0.0
 40
2.5
100
AcDbArc
 50
0.0
 51
103.3423637970784
  0
ARC
  5
967
330
1F
100
AcDbEntity
  8
0
100
AcDbCircle
 10
2205.895020982256
 20
1561.009747371635
 30
0.0
 40
3.0
100
AcDbArc
 50
0.0
 51
90.0
  0
ARC
  5
968
330
1F
100
AcDbEntity
  8
0
100
AcDbCircle
 10
2204.895020982256
 20
1565.259747371635
 30
0.0
 40
4.0
100
AcDbArc
 50
0.0
 51
90.0
  0
ARC
  5
969
330
1F
100
AcDbEntity
  8
0
100
AcDbCircle
 10
2206.395020982257
 20
1549.834302691972
 30
0.0
 40
2.5
100
AcDbArc
 50
256.6576362028962
 51
0.0
  0
ARC
  5
96A
330
1F
100
AcDbEntity
  8
0
100
AcDbCircle
 10
2181.025787057854
 20
1574.759747371635
 30
0.0
 40
3.0
100
AcDbArc
 50
188.5912814814417
 51
270.0
  0
ARC
  5
96B
330
1F
100
AcDbEntity
  8
0
100
AcDbCircle
 10
2169.781272614241
 20
1593.406406643705
 30
0.0
 40
3.0
100
AcDbArc
 50
233.5912814814482
 51
315.0
  0
ARC
  5
96C
330
1F
100
AcDbEntity
  8
0
100
AcDbCircle
 10
2175.791680254327
 20
1587.39599900362
 30
0.0
 40
3.0
100
AcDbArc
 50
135.0
 51
216.4087185185518
  0
ARC
  5
96D
330
1F
100
AcDbEntity
  8
0
100
AcDbCircle
 10
2179.712039832233
 20
1580.009747371635
 30
0.0
 40
3.0
100
AcDbArc
 50
199.5068258084435
 51
270.0
  0
ARC
  5
96E
330
1F
100
AcDbEntity
  8
0
100
AcDbCircle
 10
2157.145020982256
 20
1598.640513447233
 30
0.0
 40
3.0
100
AcDbArc
 50
180.0
 51
261.4087185185583
  0
ARC
  5
96F
330
1F
100
AcDbEntity
  8
0
100
AcDbCircle
 10
2148.645020982256
 20
1598.640513447233
 30
0.0
 40
3.0
100
AcDbArc
 50
278.5912814814417
 51
0.0
  0
ARC
  5
970
330
1F
100
AcDbEntity
  8
0
100
AcDbCircle
 10
2169.781272614241
 20
1547.613088099565
 30
0.0
 40
3.0
100
AcDbArc
 50
45.0
 51
126.4087185185518
  0
ARC
  5
971
330
1F
100
AcDbEntity
  8
0
100
AcDbCircle
 10
2179.712039832233
 20
1561.009747371635
 30
0.0
 40
3.0
100
AcDbArc
 50
90.0
 51
160.4931741915564
  0
ARC
  5
972
330
1F
100
AcDbEntity
  8
0
100
AcDbCircle
 10
2181.025787057854
 20
1566.259747371635
 30
0.0
 40
3.0
100
AcDbArc
 50
90.0
 51
171.4087185185583
  0
ARC
  5
973
330
1F
100
AcDbEntity
  8
0
100
AcDbCircle
 10
2175.791680254327
 20
1553.62349573965
 30
0.0
 40
3.0
100
AcDbArc
 50
143.5912814814482
 51
225.0
  0
ARC
  5
974
330
1F
100
AcDbEntity
  8
0
100
AcDbCircle
 10
2165.895020982256
 20
1545.20357223591
 30
0.0
 40
3.0
100
AcDbArc
 50
117.1899559319115
 51
180.0
  0
ARC
  5
975
330
1F
100
AcDbEntity
  8
0
100
AcDbCircle
 10
2110.895020982256
 20
1612.509747371635
 30
0.0
 40
11.0
100
AcDbArc
 50
270.0
 51
0.0
  0
LINE
  5
976
330
1F
100
AcDbEntity
  8
0
100
AcDbLine
 10
2119.946868480392
 20
1601.690132920533
 30
0.0
 11
2132.119682053746
 21
1589.517319347179
 31
0.0
  0
LINE
  5
977
330
1F
100
AcDbEntity
  8
0
100
AcDbLine
 10
2121.714635433358
 20
1603.457899873499
 30
0.0
 11
2133.887449006712
 21
1591.285086300146
 31
0.0
  0
ARC
  5
978
330
1F
100
AcDbEntity
  8
0
100
AcDbCircle
 10
2107.219576302594
 20
1599.009747371635
 30
0.0
 40
2.5
100
AcDbArc
 50
90.0
 51
193.3423637970941
  0
ARC
  5
979
330
1F
100
AcDbEntity
  8
0
100
AcDbCircle
 10
2100.895020982256
 20
1597.509747371635
 30
0.0
 40
4.0
100
AcDbArc
 50
256.6576362028962
 51
13.34236379709408
  0
CIRCLE
  5
97A
330
1F
100
AcDbEntity
  8
0
100
AcDbCircle
 10
2107.895020982256
 20
1615.509747371635
 30
0.0
 40
9.8
  0
LINE
  5
97B
330
1F
100
AcDbEntity
  8
0
100
AcDbLine
 10
2110.895020982256
 20
1601.509747371635
 30
0.0
 11
2107.219576302594
 21
1601.509747371635
 31
0.0
  0
ARC
  5
97C
330
1F
100
AcDbEntity
  8
0
100
AcDbCircle
 10
2132.219576302593
 20
1624.009747371635
 30
0.0
 40
2.5
100
AcDbArc
 50
90.0
 51
193.3423637970941
  0
ARC
  5
97D
330
1F
100
AcDbEntity
  8
0
100
AcDbCircle
 10
2125.895020982256
 20
1622.509747371635
 30
0.0
 40
4.0
100
AcDbArc
 50
256.6576362028962
 51
13.34236379709408
  0
LINE
  5
97E
330
1F
100
AcDbEntity
  8
0
100
AcDbLine
 10
2121.895020982256
 20
1612.509747371635
 30
0.0
 11
2121.895020982256
 21
1616.185192051299
 31
0.0
  0
ARC
  5
97F
330
1F
100
AcDbEntity
  8
0
100
AcDbCircle
 10
2124.395020982256
 20
1616.185192051299
 30
0.0
 40
2.5
100
AcDbArc
 50
76.65763620292159
 51
180.0
  0
ARC
  5
980
330
1F
100
AcDbEntity
  8
0
100
AcDbCircle
 10
2117.118441355646
 20
1598.861705795787
 30
0.0
 40
4.0
100
AcDbArc
 50
45.0
 51
114.5126848852768
  0
ARC
  5
981
330
1F
100
AcDbEntity
  8
0
100
AcDbCircle
 10
2124.543062558105
 20
1606.286326998246
 30
0.0
 40
4.0
100
AcDbArc
 50
155.4873151147177
 51
225.0
  0
ARC
  5
982
330
1F
100
AcDbEntity
  8
0
100
AcDbCircle
 10
2103.895020982256
 20
1619.509747371635
 30
0.0
 40
10.0
100
AcDbArc
 50
90.0
 51
180.0
  0
LINE
  5
983
330
1F
100
AcDbEntity
  8
0
100
AcDbLine
 10
2126.07800213228
 20
1564.009747371635
 30
0.0
 11
2099.895020982256
 21
1564.009747371635
 31
0.0
  0
LINE
  5
984
330
1F
100
AcDbEntity
  8
0
100
AcDbLine
 10
2126.07800213228
 20
1577.009747371635
 30
0.0
 11
2099.895020982256
 21
1577.009747371635
 31
0.0
  0
LINE
  5
985
330
1F
100
AcDbEntity
  8
0
100
AcDbLine
 10
2124.764254906659
 20
1569.259747371635
 30
0.0
 11
2100.895020982256
 21
1569.259747371635
 31
0.0
  0
LINE
  5
986
330
1F
100
AcDbEntity
  8
0
100
AcDbLine
 10
2124.764254906659
 20
1571.759747371635
 30
0.0
 11
2100.895020982256
 21
1571.759747371635
 31
0.0
  0
ARC
  5
987
330
1F
100
AcDbEntity
  8
0
100
AcDbCircle
 10
2124.764254906659
 20
1574.759747371635
 30
0.0
 40
3.0
100
AcDbArc
 50
270.0
 51
351.4087185185583
  0
ARC
  5
988
330
1F
100
AcDbEntity
  8
0
100
AcDbCircle
 10
2129.998361710186
 20
1587.39599900362
 30
0.0
 40
3.0
100
AcDbArc
 50
323.5912814814482
 51
45.0
  0
ARC
  5
989
330
1F
100
AcDbEntity
  8
0
100
AcDbCircle
 10
2136.008769350272
 20
1593.406406643706
 30
0.0
 40
3.0
100
AcDbArc
 50
225.0
 51
306.4087185185518
  0
ARC
  5
98A
330
1F
100
AcDbEntity
  8
0
100
AcDbCircle
 10
2152.895020982256
 20
1570.509747371635
 30
0.0
 40
38.0
100
AcDbArc
 50
139.9062907576375
 51
167.0744829265515
  0
ARC
  5
98B
330
1F
100
AcDbEntity
  8
0
100
AcDbCircle
 10
2126.07800213228
 20
1580.009747371635
 30
0.0
 40
3.0
100
AcDbArc
 50
270.0
 51
340.4931741915565
  0
ARC
  5
98C
330
1F
100
AcDbEntity
  8
0
100
AcDbCircle
 10
2139.895020982256
 20
1545.20357223591
 30
0.0
 40
3.0
100
AcDbArc
 50
0.0
 51
62.8100440680885
  0
ARC
  5
98D
330
1F
100
AcDbEntity
  8
0
100
AcDbCircle
 10
2129.998361710186
 20
1553.62349573965
 30
0.0
 40
3.0
100
AcDbArc
 50
315.0
 51
36.4087185185518
  0
ARC
  5
98E
330
1F
100
AcDbEntity
  8
0
100
AcDbCircle
 10
2136.008769350272
 20
1547.613088099565
 30
0.0
 40
3.0
100
AcDbArc
 50
53.5912814814482
 51
135.0
  0
ARC
  5
98F
330
1F
100
AcDbEntity
  8
0
100
AcDbCircle
 10
2152.895020982256
 20
1570.509747371635
 30
0.0
 40
38.0
100
AcDbArc
 50
192.9255170734485
 51
220.0937092423625
  0
ARC
  5
990
330
1F
100
AcDbEntity
  8
0
100
AcDbCircle
 10
2124.764254906659
 20
1566.259747371635
 30
0.0
 40
3.0
100
AcDbArc
 50
8.591281481441695
 51
90.0
  0
ARC
  5
991
330
1F
100
AcDbEntity
  8
0
100
AcDbCircle
 10
2126.07800213228
 20
1561.009747371635
 30
0.0
 40
3.0
100
AcDbArc
 50
19.50682580844354
 51
90.0
  0
LINE
  5
992
330
1F
100
AcDbEntity
  8
0
100
AcDbLine
 10
2096.895020982256
 20
1591.185192051297
 30
0.0
 11
2096.895020982256
 21
1549.834302691972
 31
0.0
  0
ARC
  5
993
330
1F
100
AcDbEntity
  8
0
100
AcDbCircle
 10
2100.895020982256
 20
1575.759747371635
 30
0.0
 40
4.0
100
AcDbArc
 50
180.0
 51
270.0
  0
ARC
  5
994
330
1F
100
AcDbEntity
  8
0
100
AcDbCircle
 10
2099.395020982256
 20
1591.185192051297
 30
0.0
 40
2.5
100
AcDbArc
 50
76.65763620292159
 51
180.0
  0
ARC
  5
995
330
1F
100
AcDbEntity
  8
0
100
AcDbCircle
 10
2099.895020982256
 20
1580.009747371635
 30
0.0
 40
3.0
100
AcDbArc
 50
180.0
 51
270.0
  0
ARC
  5
996
330
1F
100
AcDbEntity
  8
0
100
AcDbCircle
 10
2100.895020982256
 20
1565.259747371635
 30
0.0
 40
4.0
100
AcDbArc
 50
90.0
 51
180.0
  0
ARC
  5
997
330
1F
100
AcDbEntity
  8
0
100
AcDbCircle
 10
2099.895020982256
 20
1561.009747371635
 30
0.0
 40
3.0
100
AcDbArc
 50
90.0
 51
180.0
  0
ARC
  5
998
330
1F
100
AcDbEntity
  8
0
100
AcDbCircle
 10
2099.395020982256
 20
1549.834302691972
 30
0.0
 40
2.5
100
AcDbArc
 50
180.0
 51
283.3423637970784
  0
LINE
  5
999
330
1F
100
AcDbEntity
  8
0
100
AcDbLine
 10
2162.895020982256
 20
1533.509747371635
 30
0.0
 11
2142.895020982256
 21
1533.509747371635
 31
0.0
  0
LINE
  5
99A
330
1F
100
AcDbEntity
  8
0
100
AcDbLine
 10
2167.895020982256
 20
1528.509747371635
 30
0.0
 11
2137.895020982256
 21
1528.509747371635
 31
0.0
  0
LINE
  5
99B
330
1F
100
AcDbEntity
  8
0
100
AcDbLine
 10
2173.57046566192
 20
1514.509747371635
 30
0.0
 11
2132.219576302594
 21
1514.509747371635
 31
0.0
  0
LINE
  5
99C
330
1F
100
AcDbEntity
  8
0
100
AcDbLine
 10
2201.895020982256
 20
1511.509747371635
 30
0.0
 11
2103.895020982257
 21
1511.509747371635
 31
0.0
  0
ARC
  5
99D
330
1F
100
AcDbEntity
  8
0
100
AcDbCircle
 10
2194.895020982256
 20
1528.509747371635
 30
0.0
 40
11.0
100
AcDbArc
 50
90.0
 51
180.0
  0
ARC
  5
99E
330
1F
100
AcDbEntity
  8
0
100
AcDbCircle
 10
2188.671600608866
 20
1542.157788947483
 30
0.0
 40
4.0
100
AcDbArc
 50
225.0
 51
294.5126848852768
  0
ARC
  5
99F
330
1F
100
AcDbEntity
  8
0
100
AcDbCircle
 10
2201.895020982256
 20
1521.509747371635
 30
0.0
 40
10.0
100
AcDbArc
 50
270.0
 51
0.0
  0
CIRCLE
  5
9A0
330
1F
100
AcDbEntity
  8
0
100
AcDbCircle
 10
2197.895020982256
 20
1525.509747371635
 30
0.0
 40
9.8
  0
LINE
  5
9A1
330
1F
100
AcDbEntity
  8
0
100
AcDbLine
 10
2198.570465661919
 20
1539.509747371635
 30
0.0
 11
2194.895020982256
 21
1539.509747371635
 31
0.0
  0
ARC
  5
9A2
330
1F
100
AcDbEntity
  8
0
100
AcDbCircle
 10
2198.570465661919
 20
1542.009747371635
 30
0.0
 40
2.5
100
AcDbArc
 50
270.0
 51
13.34236379709408
  0
ARC
  5
9A3
330
1F
100
AcDbEntity
  8
0
100
AcDbCircle
 10
2173.57046566192
 20
1517.009747371635
 30
0.0
 40
2.5
100
AcDbArc
 50
270.0
 51
13.34236379709408
  0
ARC
  5
9A4
330
1F
100
AcDbEntity
  8
0
100
AcDbCircle
 10
2179.895020982256
 20
1518.509747371635
 30
0.0
 40
4.0
100
AcDbArc
 50
76.65763620292159
 51
193.3423637970941
  0
ARC
  5
9A5
330
1F
100
AcDbEntity
  8
0
100
AcDbCircle
 10
2152.895020982256
 20
1570.509747371635
 30
0.0
 40
38.0
100
AcDbArc
 50
288.4084801705812
 51
310.0937092423625
  0
LINE
  5
9A6
330
1F
100
AcDbEntity
  8
0
100
AcDbLine
 10
2180.930780938487
 20
1526.509747371635
 30
0.0
 11
2124.859261026025
 21
1526.509747371635
 31
0.0
  0
ARC
  5
9A7
330
1F
100
AcDbEntity
  8
0
100
AcDbCircle
 10
2181.246979406408
 20
1534.733167745025
 30
0.0
 40
4.0
100
AcDbArc
 50
335.4873151147178
 51
45.0
  0
ARC
  5
9A8
330
1F
100
AcDbEntity
  8
0
100
AcDbCircle
 10
2181.395020982257
 20
1524.834302691972
 30
0.0
 40
2.5
100
AcDbArc
 50
256.6576362028962
 51
0.0
  0
ARC
  5
9A9
330
1F
100
AcDbEntity
  8
0
100
AcDbCircle
 10
2180.930780938487
 20
1529.509747371635
 30
0.0
 40
3.0
100
AcDbArc
 50
270.0
 51
355.9039562418553
  0
LINE
  5
9AA
330
1F
100
AcDbEntity
  8
0
100
AcDbLine
 10
2183.895020982257
 20
1524.834302691972
 30
0.0
 11
2183.895020982257
 21
1528.509747371635
 31
0.0
  0
LINE
  5
9AB
330
1F
100
AcDbEntity
  8
0
100
AcDbLine
 10
2167.895020982256
 20
1528.509747371635
 30
0.0
 11
2162.895020982256
 21
1533.509747371635
 31
0.0
  0
LINE
  5
9AC
330
1F
100
AcDbEntity
  8
0
100
AcDbLine
 10
2167.895020982256
 20
1526.509747371635
 30
0.0
 11
2167.895020982256
 21
1528.509747371635
 31
0.0
  0
CIRCLE
  5
9AD
330
1F
100
AcDbEntity
  8
0
100
AcDbCircle
 10
2107.895020982256
 20
1525.509747371635
 30
0.0
 40
9.8
  0
LINE
  5
9AE
330
1F
100
AcDbEntity
  8
0
100
AcDbLine
 10
2110.895020982256
 20
1539.509747371635
 30
0.0
 11
2107.219576302592
 21
1539.509747371635
 31
0.0
  0
ARC
  5
9AF
330
1F
100
AcDbEntity
  8
0
100
AcDbCircle
 10
2132.219576302594
 20
1517.009747371635
 30
0.0
 40
2.5
100
AcDbArc
 50
166.6576362029059
 51
270.0
  0
ARC
  5
9B0
330
1F
100
AcDbEntity
  8
0
100
AcDbCircle
 10
2125.895020982256
 20
1518.509747371635
 30
0.0
 40
4.0
100
AcDbArc
 50
346.6576362029059
 51
103.3423637970784
  0
ARC
  5
9B1
330
1F
100
AcDbEntity
  8
0
100
AcDbCircle
 10
2152.895020982256
 20
1570.509747371635
 30
0.0
 40
38.0
100
AcDbArc
 50
229.9062907576375
 51
251.5915198294187
  0
LINE
  5
9B2
330
1F
100
AcDbEntity
  8
0
100
AcDbLine
 10
2137.895020982256
 20
1528.509747371635
 30
0.0
 11
2142.895020982256
 21
1533.509747371635
 31
0.0
  0
LINE
  5
9B3
330
1F
100
AcDbEntity
  8
0
100
AcDbLine
 10
2137.895020982256
 20
1526.509747371635
 30
0.0
 11
2137.895020982256
 21
1528.509747371635
 31
0.0
  0
ARC
  5
9B4
330
1F
100
AcDbEntity
  8
0
100
AcDbCircle
 10
2110.895020982256
 20
1528.509747371635
 30
0.0
 40
11.0
100
AcDbArc
 50
0.0
 51
90.0
  0
ARC
  5
9B5
330
1F
100
AcDbEntity
  8
0
100
AcDbCircle
 10
2117.118441355646
 20
1542.157788947483
 30
0.0
 40
4.0
100
AcDbArc
 50
245.4873151147232
 51
315.0
  0
ARC
  5
9B6
330
1F
100
AcDbEntity
  8
0
100
AcDbCircle
 10
2124.543062558104
 20
1534.733167745024
 30
0.0
 40
4.0
100
AcDbArc
 50
135.0
 51
204.5126848852823
  0
ARC
  5
9B7
330
1F
100
AcDbEntity
  8
0
100
AcDbCircle
 10
2124.395020982256
 20
1524.834302691972
 30
0.0
 40
2.5
100
AcDbArc
 50
180.0
 51
283.3423637970784
  0
ARC
  5
9B8
330
1F
100
AcDbEntity
  8
0
100
AcDbCircle
 10
2124.859261026025
 20
1529.509747371635
 30
0.0
 40
3.0
100
AcDbArc
 50
184.0960437581447
 51
270.0
  0
LINE
  5
9B9
330
1F
100
AcDbEntity
  8
0
100
AcDbLine
 10
2121.895020982256
 20
1524.834302691973
 30
0.0
 11
2121.895020982256
 21
1528.509747371635
 31
0.0
  0
ARC
  5
9BA
330
1F
100
AcDbEntity
  8
0
100
AcDbCircle
 10
2103.895020982257
 20
1521.509747371635
 30
0.0
 40
10.0
100
AcDbArc
 50
180.0
 51
270.0
  0
ARC
  5
9BB
330
1F
100
AcDbEntity
  8
0
100
AcDbCircle
 10
2107.219576302592
 20
1542.009747371635
 30
0.0
 40
2.5
100
AcDbArc
 50
166.6576362029059
 51
270.0
  0
ARC
  5
9BC
330
1F
100
AcDbEntity
  8
0
100
AcDbCircle
 10
2303.472784983352
 20
1434.068346080103
 30
0.0
 40
0.7000000000000001
100
AcDbArc
 50
90.0
 51
180.0
  0
LINE
  5
9BD
330
1F
100
AcDbEntity
  8
0
100
AcDbLine
 10
2211.895020982256
 20
1397.768346080102
 30
0.0
 11
2211.895020982256
 21
1434.143346080103
 31
0.0
  0
ARC
  5
9BE
330
1F
100
AcDbEntity
  8
0
100
AcDbCircle
 10
2211.270020982256
 20
1434.143346080103
 30
0.0
 40
0.625
100
AcDbArc
 50
0.0
 51
90.0
  0
LINE
  5
9BF
330
1F
100
AcDbEntity
  8
0
100
AcDbLine
 10
2207.395020982257
 20
1397.268346080102
 30
0.0
 11
2207.395020982257
 21
1397.768346080102
 31
0.0
  0
LINE
  5
9C0
330
1F
100
AcDbEntity
  8
CENTER
  6
CENTER
100
AcDbLine
 10
2349.58702795956
 20
1408.268346080103
 30
0.0
 11
2374.444376360035
 21
1408.268346080103
 31
0.0
  0
CIRCLE
  5
9C1
330
1F
100
AcDbEntity
  8
0
100
AcDbCircle
 10
2361.772784983352
 20
1408.268346080103
 30
0.0
 40
8.25
  0
CIRCLE
  5
9C2
330
1F
100
AcDbEntity
  8
0
100
AcDbCircle
 10
2361.772784983352
 20
1408.268346080103
 30
0.0
 40
3.6
  0
CIRCLE
  5
9C3
330
1F
100
AcDbEntity
  8
0
100
AcDbCircle
 10
2361.772784983352
 20
1408.268346080103
 30
0.0
 40
3.149999999999999
  0
LINE
  5
9C4
330
1F
100
AcDbEntity
  8
0
100
AcDbLine
 10
2335.772784983352
 20
1434.768346080103
 30
0.0
 11
2335.772784983352
 21
1448.768346080103
 31
0.0
  0
LINE
  5
9C5
330
1F
100
AcDbEntity
  8
0
100
AcDbLine
 10
2387.772784983352
 20
1434.768346080103
 30
0.0
 11
2387.772784983352
 21
1448.768346080103
 31
0.0
  0
LINE
  5
9C6
330
1F
100
AcDbEntity
  8
0
100
AcDbLine
 10
2335.772784983352
 20
1448.768346080103
 30
0.0
 11
2336.772784983352
 21
1449.768346080103
 31
0.0
  0
LINE
  5
9C7
330
1F
100
AcDbEntity
  8
0
100
AcDbLine
 10
2386.772784983352
 20
1449.768346080103
 30
0.0
 11
2387.772784983352
 21
1448.768346080103
 31
0.0
  0
LINE
  5
9C8
330
1F
100
AcDbEntity
  8
0
100
AcDbLine
 10
2335.772784983352
 20
1448.768346080103
 30
0.0
 11
2387.772784983352
 21
1448.768346080103
 31
0.0
  0
LINE
  5
9C9
330
1F
100
AcDbEntity
  8
0
100
AcDbLine
 10
2126.895020982256
 20
1448.768346080103
 30
0.0
 11
2178.895020982256
 21
1448.768346080103
 31
0.0
  0
LINE
  5
9CA
330
1F
100
AcDbEntity
  8
0
100
AcDbLine
 10
2127.895020982256
 20
1449.768346080103
 30
0.0
 11
2177.895020982256
 21
1449.768346080103
 31
0.0
  0
LINE
  5
9CB
330
1F
100
AcDbEntity
  8
0
100
AcDbLine
 10
2178.895020982256
 20
1434.768346080103
 30
0.0
 11
2178.895020982256
 21
1448.768346080103
 31
0.0
  0
LINE
  5
9CC
330
1F
100
AcDbEntity
  8
0
100
AcDbLine
 10
2177.895020982256
 20
1449.768346080103
 30
0.0
 11
2178.895020982256
 21
1448.768346080103
 31
0.0
  0
LINE
  5
9CD
330
1F
100
AcDbEntity
  8
0
100
AcDbLine
 10
2126.895020982256
 20
1434.768346080103
 30
0.0
 11
2126.895020982256
 21
1448.768346080103
 31
0.0
  0
LINE
  5
9CE
330
1F
100
AcDbEntity
  8
0
100
AcDbLine
 10
2126.895020982256
 20
1448.768346080103
 30
0.0
 11
2127.895020982256
 21
1449.768346080103
 31
0.0
  0
LINE
  5
9CF
330
1F
100
AcDbEntity
  8
0
100
AcDbLine
 10
2308.572784983352
 20
1331.768346080103
 30
0.0
 11
2308.572784983352
 21
1397.768346080103
 31
0.0
  0
LINE
  5
9D0
330
1F
100
AcDbEntity
  8
0
100
AcDbLine
 10
2414.972784983352
 20
1331.768346080103
 30
0.0
 11
2414.972784983352
 21
1397.768346080103
 31
0.0
  0
LINE
  5
9D1
330
1F
100
AcDbEntity
  8
0
100
AcDbLine
 10
2093.895020982256
 20
1331.768346080103
 30
0.0
 11
2093.895020982256
 21
1295.393346080103
 31
0.0
  0
LINE
  5
9D2
330
1F
100
AcDbEntity
  8
0
100
AcDbLine
 10
2132.895020982256
 20
1324.268346080103
 30
0.0
 11
2132.895020982256
 21
1302.268346080103
 31
0.0
  0
LINE
  5
9D3
330
1F
100
AcDbEntity
  8
0
100
AcDbLine
 10
2172.895020982256
 20
1324.268346080103
 30
0.0
 11
2172.895020982256
 21
1302.268346080103
 31
0.0
  0
CIRCLE
  5
9D4
330
1F
100
AcDbEntity
  8
0
100
AcDbCircle
 10
2152.895020982256
 20
1313.268346080103
 30
0.0
 40
13.7
  0
LINE
  5
9D5
330
1F
100
AcDbEntity
  8
0
100
AcDbLine
 10
2211.895020982256
 20
1331.768346080103
 30
0.0
 11
2211.895020982256
 21
1295.393346080103
 31
0.0
  0
LINE
  5
9D6
330
1F
100
AcDbEntity
  8
0
100
AcDbLine
 10
2211.895020982256
 20
1331.768346080103
 30
0.0
 11
2093.895020982256
 21
1331.768346080102
 31
0.0
  0
LINE
  5
9D7
330
1F
100
AcDbEntity
  8
0
100
AcDbLine
 10
2207.395020982257
 20
1332.268346080103
 30
0.0
 11
2098.395020982256
 21
1332.268346080103
 31
0.0
  0
LINE
  5
9D8
330
1F
100
AcDbEntity
  8
0
100
AcDbLine
 10
2136.895020982256
 20
1328.268346080103
 30
0.0
 11
2168.895020982256
 21
1328.268346080103
 31
0.0
  0
LINE
  5
9D9
330
1F
100
AcDbEntity
  8
0
100
AcDbLine
 10
2207.395020982257
 20
1332.268346080103
 30
0.0
 11
2207.395020982257
 21
1331.768346080103
 31
0.0
  0
LINE
  5
9DA
330
1F
100
AcDbEntity
  8
0
100
AcDbLine
 10
2168.895020982256
 20
1328.268346080103
 30
0.0
 11
2172.895020982256
 21
1324.268346080103
 31
0.0
  0
LINE
  5
9DB
330
1F
100
AcDbEntity
  8
0
100
AcDbLine
 10
2132.895020982256
 20
1324.268346080103
 30
0.0
 11
2136.895020982256
 21
1328.268346080103
 31
0.0
  0
LINE
  5
9DC
330
1F
100
AcDbEntity
  8
0
100
AcDbLine
 10
2098.395020982256
 20
1332.268346080103
 30
0.0
 11
2098.395020982256
 21
1331.768346080103
 31
0.0
  0
LINE
  5
9DD
330
1F
100
AcDbEntity
  8
0
100
AcDbLine
 10
2094.520019565696
 20
1294.768346080103
 30
0.0
 11
2211.270020982256
 21
1294.768346080103
 31
0.0
  0
ARC
  5
9DE
330
1F
100
AcDbEntity
  8
0
100
AcDbCircle
 10
2211.270020982256
 20
1295.393346080103
 30
0.0
 40
0.625
100
AcDbArc
 50
270.0
 51
0.0
  0
LINE
  5
9DF
330
1F
100
AcDbEntity
  8
0
100
AcDbLine
 10
2126.895020982256
 20
1290.768346080103
 30
0.0
 11
2178.895020982256
 21
1290.768346080103
 31
0.0
  0
LINE
  5
9E0
330
1F
100
AcDbEntity
  8
0
100
AcDbLine
 10
2127.895020982256
 20
1289.768346080103
 30
0.0
 11
2177.895020982256
 21
1289.768346080103
 31
0.0
  0
LINE
  5
9E1
330
1F
100
AcDbEntity
  8
0
100
AcDbLine
 10
2136.895020982256
 20
1298.268346080103
 30
0.0
 11
2168.895020982256
 21
1298.268346080103
 31
0.0
  0
LINE
  5
9E2
330
1F
100
AcDbEntity
  8
0
100
AcDbLine
 10
2178.895020982256
 20
1294.768346080103
 30
0.0
 11
2178.895020982256
 21
1290.768346080103
 31
0.0
  0
LINE
  5
9E3
330
1F
100
AcDbEntity
  8
0
100
AcDbLine
 10
2168.895020982256
 20
1298.268346080103
 30
0.0
 11
2172.895020982256
 21
1302.268346080103
 31
0.0
  0
LINE
  5
9E4
330
1F
100
AcDbEntity
  8
0
100
AcDbLine
 10
2177.895020982256
 20
1289.768346080103
 30
0.0
 11
2178.895020982256
 21
1290.768346080103
 31
0.0
  0
LINE
  5
9E5
330
1F
100
AcDbEntity
  8
0
100
AcDbLine
 10
2126.895020982256
 20
1294.768346080103
 30
0.0
 11
2126.895020982256
 21
1290.768346080103
 31
0.0
  0
LINE
  5
9E6
330
1F
100
AcDbEntity
  8
0
100
AcDbLine
 10
2136.895020982256
 20
1298.268346080103
 30
0.0
 11
2132.895020982256
 21
1302.268346080103
 31
0.0
  0
LINE
  5
9E7
330
1F
100
AcDbEntity
  8
0
100
AcDbLine
 10
2126.895020982256
 20
1290.768346080103
 30
0.0
 11
2127.895020982256
 21
1289.768346080103
 31
0.0
  0
ARC
  5
9E8
330
1F
100
AcDbEntity
  8
0
100
AcDbCircle
 10
2094.520020982256
 20
1295.393346080103
 30
0.0
 40
0.625
100
AcDbArc
 50
180.0
 51
270.0
  0
LINE
  5
9E9
330
1F
100
AcDbEntity
  8
0
100
AcDbLine
 10
2302.772784983352
 20
1331.768346080103
 30
0.0
 11
2302.772784983352
 21
1295.468346080103
 31
0.0
  0
CIRCLE
  5
9EA
330
1F
100
AcDbEntity
  8
0
100
AcDbCircle
 10
2361.772784983352
 20
1321.268346080103
 30
0.0
 40
8.25
  0
CIRCLE
  5
9EB
330
1F
100
AcDbEntity
  8
0
100
AcDbCircle
 10
2361.772784983352
 20
1321.268346080103
 30
0.0
 40
3.6
  0
CIRCLE
  5
9EC
330
1F
100
AcDbEntity
  8
0
100
AcDbCircle
 10
2361.772784983352
 20
1321.268346080103
 30
0.0
 40
3.149999999999999
  0
LINE
  5
9ED
330
1F
100
AcDbEntity
  8
0
100
AcDbLine
 10
2420.772784983352
 20
1331.768346080103
 30
0.0
 11
2420.772784983352
 21
1294.768346080103
 31
0.0
  0
LINE
  5
9EE
330
1F
100
AcDbEntity
  8
0
100
AcDbLine
 10
2307.272784983352
 20
1332.268346080103
 30
0.0
 11
2416.272784983352
 21
1332.268346080103
 31
0.0
  0
LINE
  5
9EF
330
1F
100
AcDbEntity
  8
0
100
AcDbLine
 10
2302.772784983352
 20
1331.768346080103
 30
0.0
 11
2420.772784983352
 21
1331.768346080103
 31
0.0
  0
LINE
  5
9F0
330
1F
100
AcDbEntity
  8
0
100
AcDbLine
 10
2416.272784983352
 20
1332.268346080103
 30
0.0
 11
2416.272784983352
 21
1331.768346080103
 31
0.0
  0
LINE
  5
9F1
330
1F
100
AcDbEntity
  8
CENTER
  6
CENTER
100
AcDbLine
 10
2349.58702795956
 20
1321.268346080103
 30
0.0
 11
2374.444376360035
 21
1321.268346080103
 31
0.0
  0
LINE
  5
9F2
330
1F
100
AcDbEntity
  8
0
100
AcDbLine
 10
2307.272784983352
 20
1332.268346080103
 30
0.0
 11
2307.272784983352
 21
1331.768346080103
 31
0.0
  0
LINE
  5
9F3
330
1F
100
AcDbEntity
  8
0
100
AcDbLine
 10
2336.772784983352
 20
1289.768346080103
 30
0.0
 11
2386.772784983352
 21
1289.768346080103
 31
0.0
  0
LINE
  5
9F4
330
1F
100
AcDbEntity
  8
0
100
AcDbLine
 10
2335.772784983352
 20
1290.768346080103
 30
0.0
 11
2387.772784983352
 21
1290.768346080103
 31
0.0
  0
LINE
  5
9F5
330
1F
100
AcDbEntity
  8
0
100
AcDbLine
 10
2303.472784983352
 20
1294.768346080103
 30
0.0
 11
2420.772784983352
 21
1294.768346080103
 31
0.0
  0
LINE
  5
9F6
330
1F
100
AcDbEntity
  8
0
100
AcDbLine
 10
2387.772784983352
 20
1294.768346080103
 30
0.0
 11
2387.772784983352
 21
1290.768346080103
 31
0.0
  0
LINE
  5
9F7
330
1F
100
AcDbEntity
  8
0
100
AcDbLine
 10
2386.772784983352
 20
1289.768346080103
 30
0.0
 11
2387.772784983352
 21
1290.768346080103
 31
0.0
  0
LINE
  5
9F8
330
1F
100
AcDbEntity
  8
0
100
AcDbLine
 10
2335.772784983352
 20
1294.768346080103
 30
0.0
 11
2335.772784983352
 21
1290.768346080103
 31
0.0
  0
ARC
  5
9F9
330
1F
100
AcDbEntity
  8
0
100
AcDbCircle
 10
2303.472784983352
 20
1295.468346080103
 30
0.0
 40
0.7000000000000001
100
AcDbArc
 50
180.0
 51
270.0
  0
LINE
  5
9FA
330
1F
100
AcDbEntity
  8
0
100
AcDbLine
 10
2335.772784983352
 20
1290.768346080103
 30
0.0
 11
2336.772784983352
 21
1289.768346080103
 31
0.0
  0
LINE
  5
9FB
330
1F
100
AcDbEntity
  8
0
100
AcDbLine
 10
2206.095020982256
 20
1331.768346080102
 30
0.0
 11
2206.095020982256
 21
1397.768346080102
 31
0.0
  0
LINE
  5
9FC
330
1F
100
AcDbEntity
  8
0
100
AcDbLine
 10
2099.695020982256
 20
1331.768346080102
 30
0.0
 11
2099.695020982256
 21
1397.768346080102
 31
0.0
  0
ARC
  5
9FD
330
1F
100
AcDbEntity
  8
AM_4
100
AcDbCircle
 10
2152.895020982256
 20
1313.268346080103
 30
0.0
 40
10.84999999999999
100
AcDbArc
 50
259.9999999999939
 51
169.9999999999961
  0
LINE
  5
9FE
330
1F
100
AcDbEntity
  8
AM_7
  6
AM_ISO08W050x2
100
AcDbLine
 10
2152.895020982256
 20
1327.118346080103
 30
0.0
 11
2152.895020982256
 21
1299.418346080103
 31
0.0
  0
CIRCLE
  5
9FF
330
1F
100
AcDbEntity
  8
AM_0
100
AcDbCircle
 10
2152.895020982256
 20
1313.268346080103
 30
0.0
 40
9.3155
  0
LINE
  5
A00
330
1F
100
AcDbEntity
  8
AM_7
  6
AM_ISO08W050x2
100
AcDbLine
 10
2139.045020982256
 20
1313.268346080103
 30
0.0
 11
2166.745020982256
 21
1313.268346080103
 31
0.0
  0
ARC
  5
A01
330
1F
100
AcDbEntity
  8
AM_4
100
AcDbCircle
 10
2152.895020982256
 20
1416.268346080103
 30
0.0
 40
10.84999999999999
100
AcDbArc
 50
259.9999999999939
 51
169.9999999999961
  0
LINE
  5
A02
330
1F
100
AcDbEntity
  8
AM_7
  6
AM_ISO08W050x2
100
AcDbLine
 10
2152.895020982256
 20
1430.118346080102
 30
0.0
 11
2152.895020982256
 21
1402.418346080103
 31
0.0
  0
CIRCLE
  5
A03
330
1F
100
AcDbEntity
  8
AM_0
100
AcDbCircle
 10
2152.895020982256
 20
1416.268346080103
 30
0.0
 40
9.3155
  0
LINE
  5
A04
330
1F
100
AcDbEntity
  8
AM_7
  6
AM_ISO08W050x2
100
AcDbLine
 10
2139.045020982256
 20
1416.268346080103
 30
0.0
 11
2166.745020982256
 21
1416.268346080103
 31
0.0
  0
LINE
  5
A05
330
1F
100
AcDbEntity
  8
0
100
AcDbLine
 10
2087.019376635239
 20
1410.759693657396
 30
0.0
 11
2093.895020982256
 21
1410.759693657396
 31
0.0
  0
ARC
  5
A06
330
1F
100
AcDbEntity
  8
0
100
AcDbCircle
 10
2087.019376635239
 20
1409.759693657396
 30
0.0
 40
1.0
100
AcDbArc
 50
90.0
 51
180.0
  0
LINE
  5
A07
330
1F
100
AcDbEntity
  8
0
100
AcDbLine
 10
2078.627071789825
 20
1421.151998502809
 30
0.0
 11
2093.895020982256
 21
1421.151998502809
 31
0.0
  0
ARC
  5
A08
330
1F
100
AcDbEntity
  8
0
100
AcDbCircle
 10
2078.627071789825
 20
1418.151998502809
 30
0.0
 40
3.0
100
AcDbArc
 50
90.0
 51
180.0
  0
LINE
  5
A09
330
1F
100
AcDbEntity
  8
0
100
AcDbLine
 10
2086.019376635238
 20
1409.759693657396
 30
0.0
 11
2086.019376635238
 21
1407.151998502809
 31
0.0
  0
LINE
  5
A0A
330
1F
100
AcDbEntity
  8
0
100
AcDbLine
 10
2075.627071789825
 20
1418.151998502809
 30
0.0
 11
2075.627071789825
 21
1407.151998502809
 31
0.0
  0
LINE
  5
A0B
330
1F
100
AcDbEntity
  8
0
100
AcDbLine
 10
2073.895020982256
 20
1399.151998502809
 30
0.0
 11
2073.895020982256
 21
1405.151998502809
 31
0.0
  0
LINE
  5
A0C
330
1F
100
AcDbEntity
  8
0
100
AcDbLine
 10
2073.895020982256
 20
1405.151998502809
 30
0.0
 11
2087.751427442807
 21
1405.151998502809
 31
0.0
  0
LINE
  5
A0D
330
1F
100
AcDbEntity
  8
0
100
AcDbLine
 10
2073.895020982256
 20
1399.151998502809
 30
0.0
 11
2087.751427442808
 21
1399.151998502809
 31
0.0
  0
LINE
  5
A0E
330
1F
100
AcDbEntity
  8
0
100
AcDbLine
 10
2087.751427442808
 20
1399.151998502809
 30
0.0
 11
2087.751427442808
 21
1405.151998502809
 31
0.0
  0
LINE
  5
A0F
330
1F
100
AcDbEntity
  8
0
100
AcDbLine
 10
2077.359122597394
 20
1400.151998502809
 30
0.0
 11
2077.359122597394
 21
1404.15199850281
 31
0.0
  0
LINE
  5
A10
330
1F
100
AcDbEntity
  8
0
100
AcDbLine
 10
2084.28732582767
 20
1400.151998502809
 30
0.0
 11
2084.28732582767
 21
1404.15199850281
 31
0.0
  0
LINE
  5
A11
330
1F
100
AcDbEntity
  8
0
100
AcDbLine
 10
2074.823224212532
 20
1397.151998502809
 30
0.0
 11
2086.823224212532
 21
1397.151998502809
 31
0.0
  0
LINE
  5
A12
330
1F
100
AcDbEntity
  8
0
100
AcDbLine
 10
2086.823224212532
 20
1397.151998502809
 30
0.0
 11
2086.823224212532
 21
1399.151998502809
 31
0.0
  0
LINE
  5
A13
330
1F
100
AcDbEntity
  8
0
100
AcDbLine
 10
2074.823224212532
 20
1397.151998502809
 30
0.0
 11
2074.823224212532
 21
1399.151998502809
 31
0.0
  0
LINE
  5
A14
330
1F
100
AcDbEntity
  8
0
100
AcDbLine
 10
2074.823224212532
 20
1407.151998502809
 30
0.0
 11
2086.823224212532
 21
1407.151998502809
 31
0.0
  0
LINE
  5
A15
330
1F
100
AcDbEntity
  8
0
100
AcDbLine
 10
2086.823224212532
 20
1407.151998502809
 30
0.0
 11
2086.823224212532
 21
1405.151998502809
 31
0.0
  0
LINE
  5
A16
330
1F
100
AcDbEntity
  8
0
100
AcDbLine
 10
2074.823224212532
 20
1407.151998502809
 30
0.0
 11
2074.823224212532
 21
1405.151998502809
 31
0.0
  0
ARC
  5
A17
330
1F
100
AcDbEntity
  8
0
100
AcDbCircle
 10
2074.802263213634
 20
1402.920543775234
 30
0.0
 40
3.768603565485
100
AcDbArc
 50
256.0699585645992
 51
312.7236798454829
  0
ARC
  5
A18
330
1F
100
AcDbEntity
  8
0
100
AcDbCircle
 10
2080.823224212533
 20
1405.65199850281
 30
0.0
 40
6.500000000000228
100
AcDbArc
 50
237.7957724960376
 51
302.2042275039624
  0
ARC
  5
A19
330
1F
100
AcDbEntity
  8
0
100
AcDbCircle
 10
2080.823224212533
 20
1398.651998502809
 30
0.0
 40
6.500000000000228
100
AcDbArc
 50
57.79577249603764
 51
122.2042275039623
  0
ARC
  5
A1A
330
1F
100
AcDbEntity
  8
0
100
AcDbCircle
 10
2086.84418521143
 20
1402.920543775234
 30
0.0
 40
3.768603565485
100
AcDbArc
 50
227.2763201545171
 51
283.9300414354008
  0
ARC
  5
A1B
330
1F
100
AcDbEntity
  8
0
100
AcDbCircle
 10
2074.802263213634
 20
1401.383453230385
 30
0.0
 40
3.768603565485
100
AcDbArc
 50
47.27632015451706
 51
103.9300414354008
  0
ARC
  5
A1C
330
1F
100
AcDbEntity
  8
0
100
AcDbCircle
 10
2086.84418521143
 20
1401.383453230385
 30
0.0
 40
3.768603565485
100
AcDbArc
 50
76.06995856459921
 51
132.7236798454829
  0
LINE
  5
A1D
330
1F
100
AcDbEntity
  8
0
100
AcDbLine
 10
2093.895020982256
 20
1410.759693657396
 30
0.0
 11
2093.895020982256
 21
1421.151998502809
 31
0.0
  0
LINE
  5
A1E
330
1F
100
AcDbEntity
  8
AM_7
100
AcDbLine
 10
2080.823224212532
 20
1303.458049746802
 30
0.0
 11
2080.823224212532
 21
1422.564973578692
 31
0.0
1001
GENIUS_GENODEF_13
1002
{
1000
HIER
1070
     0
1002
}
1002
{
1000
MANEDIT
1070
     0
1002
}
1002
{
1000
NOSEL
1070
     0
1002
}
1002
{
1000
BEHIND
1070
     0
1002
}
1002
{
1000
OTHER
1070
     0
1002
}
1002
{
1000
REACTOR
1002
}
1001
GENIUS_GENOBJ-N-CEN_13
1002
{
1000
OWNER
1000
GEN
1002
}
1001
GENIUS_GENCEN_19
1002
{
1040
3.0
1002
}
  0
LINE
  5
A1F
330
1F
100
AcDbEntity
  8
0
100
AcDbLine
 10
2087.019376635239
 20
1318.77699850281
 30
0.0
 11
2093.895020982256
 21
1318.77699850281
 31
0.0
  0
ARC
  5
A20
330
1F
100
AcDbEntity
  8
0
100
AcDbCircle
 10
2087.019376635239
 20
1319.77699850281
 30
0.0
 40
1.0
100
AcDbArc
 50
180.0
 51
270.0
  0
LINE
  5
A21
330
1F
100
AcDbEntity
  8
0
100
AcDbLine
 10
2078.627071789825
 20
1308.384693657396
 30
0.0
 11
2093.895020982256
 21
1308.384693657396
 31
0.0
  0
ARC
  5
A22
330
1F
100
AcDbEntity
  8
0
100
AcDbCircle
 10
2078.627071789825
 20
1311.384693657396
 30
0.0
 40
3.0
100
AcDbArc
 50
180.0
 51
270.0
  0
LINE
  5
A23
330
1F
100
AcDbEntity
  8
0
100
AcDbLine
 10
2086.019376635238
 20
1319.77699850281
 30
0.0
 11
2086.019376635238
 21
1322.384693657396
 31
0.0
  0
LINE
  5
A24
330
1F
100
AcDbEntity
  8
0
100
AcDbLine
 10
2075.627071789825
 20
1311.384693657396
 30
0.0
 11
2075.627071789825
 21
1322.384693657396
 31
0.0
  0
LINE
  5
A25
330
1F
100
AcDbEntity
  8
0
100
AcDbLine
 10
2073.895020982256
 20
1330.384693657396
 30
0.0
 11
2073.895020982256
 21
1324.384693657396
 31
0.0
  0
LINE
  5
A26
330
1F
100
AcDbEntity
  8
0
100
AcDbLine
 10
2073.895020982256
 20
1324.384693657396
 30
0.0
 11
2087.751427442807
 21
1324.384693657396
 31
0.0
  0
LINE
  5
A27
330
1F
100
AcDbEntity
  8
0
100
AcDbLine
 10
2073.895020982256
 20
1330.384693657396
 30
0.0
 11
2087.751427442808
 21
1330.384693657396
 31
0.0
  0
LINE
  5
A28
330
1F
100
AcDbEntity
  8
0
100
AcDbLine
 10
2087.751427442808
 20
1330.384693657396
 30
0.0
 11
2087.751427442808
 21
1324.384693657396
 31
0.0
  0
LINE
  5
A29
330
1F
100
AcDbEntity
  8
0
100
AcDbLine
 10
2077.359122597394
 20
1329.384693657396
 30
0.0
 11
2077.359122597394
 21
1325.384693657396
 31
0.0
  0
LINE
  5
A2A
330
1F
100
AcDbEntity
  8
0
100
AcDbLine
 10
2084.28732582767
 20
1329.384693657396
 30
0.0
 11
2084.28732582767
 21
1325.384693657396
 31
0.0
  0
LINE
  5
A2B
330
1F
100
AcDbEntity
  8
0
100
AcDbLine
 10
2074.823224212532
 20
1332.384693657396
 30
0.0
 11
2086.823224212532
 21
1332.384693657396
 31
0.0
  0
LINE
  5
A2C
330
1F
100
AcDbEntity
  8
0
100
AcDbLine
 10
2086.823224212532
 20
1332.384693657396
 30
0.0
 11
2086.823224212532
 21
1330.384693657396
 31
0.0
  0
LINE
  5
A2D
330
1F
100
AcDbEntity
  8
0
100
AcDbLine
 10
2074.823224212532
 20
1332.384693657396
 30
0.0
 11
2074.823224212532
 21
1330.384693657396
 31
0.0
  0
LINE
  5
A2E
330
1F
100
AcDbEntity
  8
0
100
AcDbLine
 10
2074.823224212532
 20
1322.384693657396
 30
0.0
 11
2086.823224212532
 21
1322.384693657396
 31
0.0
  0
LINE
  5
A2F
330
1F
100
AcDbEntity
  8
0
100
AcDbLine
 10
2086.823224212532
 20
1322.384693657396
 30
0.0
 11
2086.823224212532
 21
1324.384693657396
 31
0.0
  0
LINE
  5
A30
330
1F
100
AcDbEntity
  8
0
100
AcDbLine
 10
2074.823224212532
 20
1322.384693657396
 30
0.0
 11
2074.823224212532
 21
1324.384693657396
 31
0.0
  0
ARC
  5
A31
330
1F
100
AcDbEntity
  8
0
100
AcDbCircle
 10
2074.802263213634
 20
1326.616148384972
 30
0.0
 40
3.768603565485
100
AcDbArc
 50
47.27632015451706
 51
103.9300414354008
  0
ARC
  5
A32
330
1F
100
AcDbEntity
  8
0
100
AcDbCircle
 10
2080.823224212533
 20
1323.884693657396
 30
0.0
 40
6.500000000000228
100
AcDbArc
 50
57.79577249603764
 51
122.2042275039623
  0
ARC
  5
A33
330
1F
100
AcDbEntity
  8
0
100
AcDbCircle
 10
2080.823224212533
 20
1330.884693657396
 30
0.0
 40
6.500000000000228
100
AcDbArc
 50
237.7957724960376
 51
302.2042275039624
  0
ARC
  5
A34
330
1F
100
AcDbEntity
  8
0
100
AcDbCircle
 10
2086.84418521143
 20
1326.616148384972
 30
0.0
 40
3.768603565485
100
AcDbArc
 50
76.06995856459921
 51
132.7236798454829
  0
ARC
  5
A35
330
1F
100
AcDbEntity
  8
0
100
AcDbCircle
 10
2074.802263213634
 20
1328.15323892982
 30
0.0
 40
3.768603565485
100
AcDbArc
 50
256.0699585645992
 51
312.7236798454829
  0
ARC
  5
A36
330
1F
100
AcDbEntity
  8
0
100
AcDbCircle
 10
2086.84418521143
 20
1328.15323892982
 30
0.0
 40
3.768603565485
100
AcDbArc
 50
227.2763201545171
 51
283.9300414354008
  0
LINE
  5
A37
330
1F
100
AcDbEntity
  8
0
100
AcDbLine
 10
2083.823224212531
 20
1332.384693657396
 30
0.0
 11
2083.823224212532
 21
1397.15199850281
 31
0.0
  0
LINE
  5
A38
330
1F
100
AcDbEntity
  8
0
100
AcDbLine
 10
2077.823224212532
 20
1332.384693657396
 30
0.0
 11
2077.823224212532
 21
1397.15199850281
 31
0.0
  0
LINE
  5
A39
330
1F
100
AcDbEntity
  8
0
  6
CENTER
 62
     1
100
AcDbLine
 10
2152.895020982256
 20
1597.509747371635
 30
0.0
 11
2152.895020982256
 21
1543.509747371635
 31
0.0
  0
LINE
  5
A3A
330
1F
100
AcDbEntity
  8
0
  6
CENTER
 62
     1
100
AcDbLine
 10
2125.895020982256
 20
1570.509747371635
 30
0.0
 11
2179.895020982256
 21
1570.509747371635
 31
0.0
  0
LINE
  5
A3B
330
1F
100
AcDbEntity
  8
0
100
AcDbLine
 10
2128.895020982256
 20
1461.768346080104
 30
0.0
 11
2176.895020982256
 21
1461.768346080104
 31
0.0
  0
LINE
  5
A3C
330
1F
100
AcDbEntity
  8
0
100
AcDbLine
 10
2128.395020982256
 20
1449.768346080102
 30
0.0
 11
2177.395020982256
 21
1449.768346080104
 31
0.0
  0
LINE
  5
A3D
330
1F
100
AcDbEntity
  8
0
  6
CENTER
 62
     1
100
AcDbLine
 10
2152.895020982256
 20
1463.768346080104
 30
0.0
 11
2152.895020982256
 21
1447.268346080104
 31
0.0
  0
LINE
  5
A3E
330
1F
100
AcDbEntity
  8
0
  6
Continuous
100
AcDbLine
 10
2127.895020982256
 20
1460.768346080104
 30
0.0
 11
2127.895020982256
 21
1450.268346080102
 31
0.0
  0
LINE
  5
A3F
330
1F
100
AcDbEntity
  8
0
  6
Continuous
100
AcDbLine
 10
2177.895020982256
 20
1460.768346080104
 30
0.0
 11
2177.895020982256
 21
1450.268346080104
 31
0.0
  0
LINE
  5
A40
330
1F
100
AcDbEntity
  8
0
100
AcDbLine
 10
2177.895020982256
 20
1450.268346080104
 30
0.0
 11
2177.395020982256
 21
1449.768346080104
 31
0.0
  0
LINE
  5
A41
330
1F
100
AcDbEntity
  8
0
100
AcDbLine
 10
2128.395020982256
 20
1449.768346080102
 30
0.0
 11
2127.895020982256
 21
1450.268346080102
 31
0.0
  0
LINE
  5
A42
330
1F
100
AcDbEntity
  8
0
100
AcDbLine
 10
2176.895020982256
 20
1461.768346080104
 30
0.0
 11
2177.895020982256
 21
1460.768346080104
 31
0.0
  0
LINE
  5
A43
330
1F
100
AcDbEntity
  8
0
100
AcDbLine
 10
2128.895020982256
 20
1461.768346080104
 30
0.0
 11
2127.895020982256
 21
1460.768346080104
 31
0.0
  0
CIRCLE
  5
A44
330
1F
100
AcDbEntity
  8
0
100
AcDbCircle
 10
2152.895020982256
 20
1570.509747371635
 30
0.0
 40
25.0
  0
ARC
  5
A45
330
1F
100
AcDbEntity
  8
0
100
AcDbCircle
 10
2152.895020982256
 20
1570.509747371635
 30
0.0
 40
24.0
100
AcDbArc
 50
303.5573097618804
 51
56.44269023811951
  0
LINE
  5
A46
330
1F
100
AcDbEntity
  8
0
  6
Continuous
100
AcDbLine
 10
2137.895020982256
 20
1590.509747371635
 30
0.0
 11
2167.895020982256
 21
1590.509747371635
 31
0.0
  0
LINE
  5
A47
330
1F
100
AcDbEntity
  8
0
  6
Continuous
100
AcDbLine
 10
2137.895020982256
 20
1550.509747371635
 30
0.0
 11
2167.895020982256
 21
1550.509747371635
 31
0.0
  0
ARC
  5
A48
330
1F
100
AcDbEntity
  8
0
100
AcDbCircle
 10
2152.895020982256
 20
1570.509747371635
 30
0.0
 40
24.0
100
AcDbArc
 50
123.5573097618805
 51
236.4426902381195
  0
LINE
  5
A49
330
1F
100
AcDbEntity
  8
0
100
AcDbLine
 10
2127.895020982256
 20
1460.768346080104
 30
0.0
 11
2137.895020982256
 21
1460.768346080104
 31
0.0
  0
LINE
  5
A4A
330
1F
100
AcDbEntity
  8
0
100
AcDbLine
 10
2167.895020982256
 20
1461.768346080104
 30
0.0
 11
2167.895020982256
 21
1451.768346080104
 31
0.0
  0
LINE
  5
A4B
330
1F
100
AcDbEntity
  8
0
100
AcDbLine
 10
2137.895020982256
 20
1451.768346080104
 30
0.0
 11
2167.895020982256
 21
1451.768346080104
 31
0.0
  0
LINE
  5
A4D
330
1F
100
AcDbEntity
  8
0
100
AcDbLine
 10
2137.895020982256
 20
1461.768346080104
 30
0.0
 11
2137.895020982256
 21
1451.768346080104
 31
0.0
  0
LINE
  5
A4E
330
1F
100
AcDbEntity
  8
0
100
AcDbLine
 10
2167.895020982256
 20
1460.768346080104
 30
0.0
 11
2177.895020982256
 21
1460.768346080104
 31
0.0
  0
LINE
  5
A4F
330
1F
100
AcDbEntity
  8
0
100
AcDbLine
 10
2137.895020982256
 20
1461.768346080104
 30
0.0
 11
2167.895020982256
 21
1451.768346080104
 31
0.0
  0
LINE
  5
A50
330
1F
100
AcDbEntity
  8
0
100
AcDbLine
 10
2137.895020982256
 20
1451.768346080104
 30
0.0
 11
2167.895020982256
 21
1461.768346080104
 31
0.0
  0
LINE
  5
A51
330
1F
100
AcDbEntity
  8
0
100
AcDbLine
 10
2336.772784983352
 20
1449.768346080103
 30
0.0
 11
2386.772784983352
 21
1449.768346080103
 31
0.0
  0
LINE
  5
A52
330
1F
100
AcDbEntity
  8
0
100
AcDbLine
 10
2336.772784983352
 20
1451.768346080103
 30
0.0
 11
2386.772784983352
 21
1451.768346080103
 31
0.0
  0
LINE
  5
A53
330
1F
100
AcDbEntity
  8
0
100
AcDbLine
 10
2336.772784983352
 20
1451.768346080103
 30
0.0
 11
2336.772784983352
 21
1449.768346080103
 31
0.0
  0
LINE
  5
A54
330
1F
100
AcDbEntity
  8
0
100
AcDbLine
 10
2386.772784983352
 20
1449.768346080103
 30
0.0
 11
2386.772784983352
 21
1451.768346080103
 31
0.0
  0
LINE
  5
A55
330
1F
100
AcDbEntity
  8
AM_7
  6
AM_ISO08W050x2
100
AcDbLine
 10
2361.772784983352
 20
1448.048393165174
 30
0.0
 11
2361.772784983352
 21
1463.639157448573
 31
0.0
1001
GENIUS_GENOBJ-N-CEN_13
1002
{
1000
OWNER
1000
GEN
1002
}
1001
GENIUS_GENODEF_13
1002
{
1000
HIER
1070
     0
1002
}
1002
{
1000
MANEDIT
1070
     0
1002
}
1002
{
1000
NOSEL
1070
     0
1002
}
1002
{
1000
BEHIND
1070
     0
1002
}
1002
{
1000
OTHER
1070
     0
1002
}
1002
{
1000
REACTOR
1002
}
1001
GENIUS_GENCEN_19
1002
{
1040
3.0
1002
}
  0
LINE
  5
A56
330
1F
100
AcDbEntity
  8
0
100
AcDbLine
 10
2381.772784983352
 20
1451.768346080103
 30
0.0
 11
2381.772784983352
 21
1461.768346080103
 31
0.0
1001
GENIUS_GENOBJ-N-CEN_13
1002
{
1000
OWNER
1000
GEN
1002
}
1001
GENIUS_GENODEF_13
1002
{
1000
HIER
1070
     0
1002
}
1002
{
1000
MANEDIT
1070
     0
1002
}
1002
{
1000
NOSEL
1070
     0
1002
}
1002
{
1000
BEHIND
1070
     0
1002
}
1002
{
1000
OTHER
1070
     0
1002
}
1002
{
1000
REACTOR
1002
}
1001
GENIUS_GENCEN_19
1002
{
1040
3.0
1002
}
  0
LINE
  5
A57
330
1F
100
AcDbEntity
  8
0
100
AcDbLine
 10
2341.772784983352
 20
1451.768346080103
 30
0.0
 11
2341.772784983352
 21
1461.768346080103
 31
0.0
1001
GENIUS_GENOBJ-N-CEN_13
1002
{
1000
OWNER
1000
GEN
1002
}
1001
GENIUS_GENODEF_13
1002
{
1000
HIER
1070
     0
1002
}
1002
{
1000
MANEDIT
1070
     0
1002
}
1002
{
1000
NOSEL
1070
     0
1002
}
1002
{
1000
BEHIND
1070
     0
1002
}
1002
{
1000
OTHER
1070
     0
1002
}
1002
{
1000
REACTOR
1002
}
1001
GENIUS_GENCEN_19
1002
{
1040
3.0
1002
}
  0
LINE
  5
A58
330
1F
100
AcDbEntity
  8
0
100
AcDbLine
 10
2341.772784983352
 20
1461.768346080103
 30
0.0
 11
2381.772784983352
 21
1461.768346080103
 31
0.0
  0
LINE
  5
A59
330
1F
100
AcDbEntity
  8
0
100
AcDbLine
 10
2341.772784983352
 20
1460.768346080103
 30
0.0
 11
2381.772784983352
 21
1460.768346080103
 31
0.0
  0
LINE
  5
A5A
330
1F
100
AcDbEntity
  8
0
100
AcDbLine
 10
2078.225148001179
 20
1566.009747371635
 30
0.0
 11
2093.895020982257
 21
1566.009747371635
 31
0.0
  0
LINE
  5
A5B
330
1F
100
AcDbEntity
  8
0
100
AcDbLine
 10
2078.225148001179
 20
1575.009747371635
 30
0.0
 11
2093.895020982257
 21
1575.009747371635
 31
0.0
  0
LINE
  5
A5C
330
1F
100
AcDbEntity
  8
0
100
AcDbLine
 10
2093.895020982257
 20
1566.009747371635
 30
0.0
 11
2093.895020982257
 21
1575.009747371635
 31
0.0
  0
LWPOLYLINE
  5
A5D
330
1F
100
AcDbEntity
  8
0
100
AcDbPolyline
 90
        7
 70
     0
 43
0.0
 10
2085.153351231455
 20
1575.009747371635
 10
2084.28732582767
 20
1576.509747371635
 10
2077.359122597394
 20
1576.509747371635
 10
2073.895020982257
 20
1570.509747371635
 10
2077.359122597394
 20
1564.509747371635
 10
2084.28732582767
 20
1564.509747371635
 10
2085.153351231455
 20
1566.009747371635
  0
ARC
  5
A5E
330
1F
100
AcDbEntity
  8
0
100
AcDbCircle
 10
2080.823224212533
 20
1570.509747371635
 30
0.0
 40
6.0
100
AcDbArc
 50
48.59037789072048
 51
311.4096221092796
  0
LINE
  5
A5F
330
1F
100
AcDbEntity
  8
AM_7
  6
AM_ISO08W050x2
100
AcDbLine
 10
2080.823224212533
 20
1570.509747371635
 30
0.0
 11
2080.823224212533
 21
1579.509747371635
 31
0.0
1001
GENIUS_GENOREF_13
1005
A93
  0
LINE
  5
A60
330
1F
100
AcDbEntity
  8
AM_7
  6
AM_ISO08W050x2
100
AcDbLine
 10
2080.823224212533
 20
1570.509747371635
 30
0.0
 11
2071.823224212533
 21
1570.509747371635
 31
0.0
1001
GENIUS_GENOREF_13
1005
A93
  0
LINE
  5
A61
330
1F
100
AcDbEntity
  8
AM_7
  6
AM_ISO08W050x2
100
AcDbLine
 10
2080.823224212533
 20
1570.509747371635
 30
0.0
 11
2080.823224212533
 21
1561.509747371635
 31
0.0
1001
GENIUS_GENOREF_13
1005
A93
  0
LINE
  5
A62
330
1F
100
AcDbEntity
  8
AM_7
  6
AM_ISO08W050x2
100
AcDbLine
 10
2080.823224212533
 20
1570.509747371635
 30
0.0
 11
2096.675755472555
 21
1570.509747371635
 31
0.0
1001
GENIUS_GENOREF_13
1005
A93
  0
LINE
  5
A63
330
1F
100
AcDbEntity
  8
0
100
AcDbLine
 10
2078.225148001179
 20
1575.009747371635
 30
0.0
 11
2075.627071789826
 21
1570.509747371635
 31
0.0
  0
LINE
  5
A64
330
1F
100
AcDbEntity
  8
0
100
AcDbLine
 10
2075.627071789826
 20
1570.509747371635
 30
0.0
 11
2078.225148001179
 21
1566.009747371635
 31
0.0
  0
DIMENSION
  5
A65
330
1F
100
AcDbEntity
  8
AM_5
100
AcDbDimension
  2
*D3
 10
2237.395020982257
 20
1550.509747371635
 30
0.0
 11
2237.395020982256
 21
1570.972076138758
 31
0.0
 70
   160
 71
     5
 42
40.0
  3
AM_ISO$0
100
AcDbAlignedDimension
 13
2167.895020982256
 23
1590.509747371635
 33
0.0
 14
2167.895020982256
 24
1550.509747371635
 34
0.0
 50
90.0
100
AcDbRotatedDimension
1001
ACAD
1000
DSTYLE
1002
{
1070
   140
1040
5.0
1070
   272
1070
     8
1002
}
  0
DIMENSION
  5
A66
330
1F
100
AcDbEntity
  8
AM_5
100
AcDbDimension
  2
*D4
 10
2251.395020982256
 20
1525.509747371635
 30
0.0
 11
2247.395020982256
 21
1570.509747371635
 31
0.0
 70
    32
 71
     5
 42
90.0
  3
AM_ISO$0
100
AcDbAlignedDimension
 13
2211.145020982256
 23
1615.509747371635
 33
0.0
 14
2211.145020982256
 24
1525.509747371635
 34
0.0
 50
90.0
100
AcDbRotatedDimension
1001
ACAD
1000
DSTYLE
1002
{
1070
   140
1040
5.0
1070
   272
1070
     8
1002
}
  0
DIMENSION
  5
A67
330
1F
100
AcDbEntity
  8
AM_5
100
AcDbDimension
  2
*D5
 10
2265.395020982257
 20
1511.509747371635
 30
0.0
 11
2261.395020982256
 21
1570.509747371635
 31
0.0
 70
    32
  1
{\Famgdt;o}<>
 71
     5
 42
117.9999999999997
  3
AM_ISO$0
100
AcDbAlignedDimension
 13
2201.895020982257
 23
1629.509747371635
 33
0.0
 14
2201.895020982256
 24
1511.509747371635
 34
0.0
 50
90.0
100
AcDbRotatedDimension
1001
ACAD
1000
DSTYLE
1002
{
1070
   140
1040
5.0
1070
    40
1040
1.0
1070
   144
1040
1.0
1070
   272
1070
     8
1002
}
  0
ARC
  5
A68
330
1F
100
AcDbEntity
  8
AM_4
100
AcDbCircle
 10
2107.895020982256
 20
1615.509747371635
 30
0.0
 40
6.0
100
AcDbArc
 50
259.9999999999939
 51
169.9999999999961
  0
CIRCLE
  5
A69
330
1F
100
AcDbEntity
  8
AM_0
100
AcDbCircle
 10
2107.895020982256
 20
1615.509747371635
 30
0.0
 40
5.05278471461085
  0
LINE
  5
A6A
330
1F
100
AcDbEntity
  8
AM_7
100
AcDbLine
 10
2107.895020982256
 20
1615.509747371635
 30
0.0
 11
2121.145020982256
 21
1615.509747371635
 31
0.0
1001
GENIUS_GENOREF_13
1005
A92
  0
LINE
  5
A6B
330
1F
100
AcDbEntity
  8
AM_7
100
AcDbLine
 10
2107.895020982256
 20
1615.509747371635
 30
0.0
 11
2107.895020982256
 21
1628.759747371635
 31
0.0
1001
GENIUS_GENOREF_13
1005
A92
  0
LINE
  5
A6C
330
1F
100
AcDbEntity
  8
AM_7
100
AcDbLine
 10
2107.895020982256
 20
1615.509747371635
 30
0.0
 11
2094.645020982256
 21
1615.509747371635
 31
0.0
1001
GENIUS_GENOREF_13
1005
A92
  0
LINE
  5
A6D
330
1F
100
AcDbEntity
  8
AM_7
100
AcDbLine
 10
2107.895020982256
 20
1615.509747371635
 30
0.0
 11
2107.895020982256
 21
1602.259747371635
 31
0.0
1001
GENIUS_GENOREF_13
1005
A92
  0
ARC
  5
A6E
330
1F
100
AcDbEntity
  8
AM_4
100
AcDbCircle
 10
2197.895020982256
 20
1615.509747371635
 30
0.0
 40
6.0
100
AcDbArc
 50
259.9999999999939
 51
169.9999999999961
  0
CIRCLE
  5
A6F
330
1F
100
AcDbEntity
  8
AM_0
100
AcDbCircle
 10
2197.895020982256
 20
1615.509747371635
 30
0.0
 40
5.05278471461085
  0
LINE
  5
A70
330
1F
100
AcDbEntity
  8
AM_7
100
AcDbLine
 10
2197.895020982256
 20
1615.509747371635
 30
0.0
 11
2211.145020982256
 21
1615.509747371635
 31
0.0
1001
GENIUS_GENOREF_13
1005
A91
  0
LINE
  5
A71
330
1F
100
AcDbEntity
  8
AM_7
100
AcDbLine
 10
2197.895020982256
 20
1615.509747371635
 30
0.0
 11
2197.895020982256
 21
1628.759747371635
 31
0.0
1001
GENIUS_GENOREF_13
1005
A91
  0
LINE
  5
A72
330
1F
100
AcDbEntity
  8
AM_7
100
AcDbLine
 10
2197.895020982256
 20
1615.509747371635
 30
0.0
 11
2184.645020982256
 21
1615.509747371635
 31
0.0
1001
GENIUS_GENOREF_13
1005
A91
  0
LINE
  5
A73
330
1F
100
AcDbEntity
  8
AM_7
100
AcDbLine
 10
2197.895020982256
 20
1615.509747371635
 30
0.0
 11
2197.895020982256
 21
1602.259747371635
 31
0.0
1001
GENIUS_GENOREF_13
1005
A91
  0
ARC
  5
A74
330
1F
100
AcDbEntity
  8
AM_4
100
AcDbCircle
 10
2197.895020982256
 20
1525.509747371635
 30
0.0
 40
6.0
100
AcDbArc
 50
259.9999999999939
 51
169.9999999999961
  0
CIRCLE
  5
A75
330
1F
100
AcDbEntity
  8
AM_0
100
AcDbCircle
 10
2197.895020982256
 20
1525.509747371635
 30
0.0
 40
5.05278471461085
  0
LINE
  5
A76
330
1F
100
AcDbEntity
  8
AM_7
100
AcDbLine
 10
2197.895020982256
 20
1525.509747371635
 30
0.0
 11
2211.145020982256
 21
1525.509747371635
 31
0.0
1001
GENIUS_GENOREF_13
1005
A90
  0
LINE
  5
A77
330
1F
100
AcDbEntity
  8
AM_7
100
AcDbLine
 10
2197.895020982256
 20
1525.509747371635
 30
0.0
 11
2197.895020982256
 21
1538.759747371635
 31
0.0
1001
GENIUS_GENOREF_13
1005
A90
  0
LINE
  5
A78
330
1F
100
AcDbEntity
  8
AM_7
100
AcDbLine
 10
2197.895020982256
 20
1525.509747371635
 30
0.0
 11
2184.645020982256
 21
1525.509747371635
 31
0.0
1001
GENIUS_GENOREF_13
1005
A90
  0
LINE
  5
A79
330
1F
100
AcDbEntity
  8
AM_7
100
AcDbLine
 10
2197.895020982256
 20
1525.509747371635
 30
0.0
 11
2197.895020982256
 21
1512.259747371635
 31
0.0
1001
GENIUS_GENOREF_13
1005
A90
  0
ARC
  5
A7A
330
1F
100
AcDbEntity
  8
AM_4
100
AcDbCircle
 10
2107.895020982256
 20
1525.509747371635
 30
0.0
 40
6.0
100
AcDbArc
 50
259.9999999999939
 51
169.9999999999961
  0
CIRCLE
  5
A7B
330
1F
100
AcDbEntity
  8
AM_0
100
AcDbCircle
 10
2107.895020982256
 20
1525.509747371635
 30
0.0
 40
5.05278471461085
  0
LINE
  5
A7C
330
1F
100
AcDbEntity
  8
AM_7
100
AcDbLine
 10
2107.895020982256
 20
1525.509747371635
 30
0.0
 11
2121.145020982256
 21
1525.509747371635
 31
0.0
1001
GENIUS_GENOREF_13
1005
A8F
  0
LINE
  5
A7D
330
1F
100
AcDbEntity
  8
AM_7
100
AcDbLine
 10
2107.895020982256
 20
1525.509747371635
 30
0.0
 11
2107.895020982256
 21
1538.759747371635
 31
0.0
1001
GENIUS_GENOREF_13
1005
A8F
  0
LINE
  5
A7E
330
1F
100
AcDbEntity
  8
AM_7
100
AcDbLine
 10
2107.895020982256
 20
1525.509747371635
 30
0.0
 11
2094.645020982256
 21
1525.509747371635
 31
0.0
1001
GENIUS_GENOREF_13
1005
A8F
  0
LINE
  5
A7F
330
1F
100
AcDbEntity
  8
AM_7
100
AcDbLine
 10
2107.895020982256
 20
1525.509747371635
 30
0.0
 11
2107.895020982256
 21
1512.259747371635
 31
0.0
1001
GENIUS_GENOREF_13
1005
A8F
  0
DIMENSION
  5
A80
330
1F
100
AcDbEntity
  8
AM_5
100
AcDbDimension
  2
*D6
 10
2152.895020982256
 20
1492.768529199276
 30
0.0
 11
2113.395020982256
 21
1496.768529199276
 31
0.0
 70
    32
 71
     5
 42
78.99999999999909
  3
AM_ISO$0
100
AcDbAlignedDimension
 13
2073.895020982257
 23
1570.509747371635
 33
0.0
 14
2152.895020982256
 24
1508.095363809991
 34
0.0
100
AcDbRotatedDimension
1001
ACAD
1000
DSTYLE
1002
{
1070
   140
1040
5.0
1070
   272
1070
     8
1002
}
  0
TEXT
  5
A81
330
1F
100
AcDbEntity
  8
AM_5
100
AcDbText
 10
2218.883549174893
 20
1499.090936406053
 30
0.0
 40
5.0
  1
4-M12x1.75
100
AcDbText
  0
INSERT
  5
A82
330
1F
100
AcDbEntity
  8
AM_5
100
AcDbBlockReference
  2
*S18
 10
0.0
 20
0.0
 30
0.0
  0
DIMENSION
  5
A83
330
1F
100
AcDbEntity
  8
AM_5
100
AcDbDimension
  2
*D7
 10
2223.895020982256
 20
1313.268346080103
 30
0.0
 11
2219.895020982256
 21
1304.018346080103
 31
0.0
 70
    32
 71
     5
 42
18.5
  3
AM_ISO$0
100
AcDbAlignedDimension
 13
2211.270020982256
 23
1294.768346080103
 33
0.0
 14
2166.745020982256
 24
1313.268346080103
 34
0.0
 50
90.0
100
AcDbRotatedDimension
1001
ACAD
1000
DSTYLE
1002
{
1070
   140
1040
5.0
1070
   272
1070
     8
1002
}
  0
DIMENSION
  5
A84
330
1F
100
AcDbEntity
  8
AM_5
100
AcDbDimension
  2
*D8
 10
2237.895020982256
 20
1331.768346080103
 30
0.0
 11
2233.895020982256
 21
1313.268346080103
 31
0.0
 70
    32
 71
     5
 42
37.0
  3
AM_ISO$0
100
AcDbAlignedDimension
 13
2211.270020982256
 23
1294.768346080103
 33
0.0
 14
2211.895020982256
 24
1331.768346080103
 34
0.0
 50
90.0
100
AcDbRotatedDimension
1001
ACAD
1000
DSTYLE
1002
{
1070
   140
1040
5.0
1070
   272
1070
     8
1002
}
  0
DIMENSION
  5
A85
330
1F
100
AcDbEntity
  8
AM_5
100
AcDbDimension
  2
*D9
 10
2223.895020982256
 20
1294.768346080103
 30
0.0
 11
2223.895020982256
 21
1275.16479268951
 31
0.0
 70
   160
 71
     5
 42
5.0
  3
AM_ISO$0
100
AcDbAlignedDimension
 13
2177.895020982256
 23
1289.768346080103
 33
0.0
 14
2211.270020982256
 24
1294.768346080103
 34
0.0
 50
90.0
100
AcDbRotatedDimension
1001
ACAD
1000
DSTYLE
1002
{
1070
   140
1040
5.0
1070
   272
1070
     8
1002
}
  0
DIMENSION
  5
A86
330
1F
100
AcDbEntity
  8
AM_5
100
AcDbDimension
  2
*D10
 10
2265.895020982256
 20
1461.768346080104
 30
0.0
 11
2261.178919639502
 21
1375.768346080104
 31
0.0
 70
    32
  1
122+length
 71
     5
 42
172.0000000000009
  3
AM_ISO$0
100
AcDbAlignedDimension
 13
2177.895020982256
 23
1289.768346080103
 33
0.0
 14
2176.895020982256
 24
1461.768346080104
 34
0.0
 50
90.0
100
AcDbRotatedDimension
1001
ACAD
1000
DSTYLE
1002
{
1070
   140
1040
5.0
1070
   272
1070
     8
1002
}
  0
DIMENSION
  5
A87
330
1F
100
AcDbEntity
  8
AM_5
100
AcDbDimension
  2
*D11
 10
2237.895020982256
 20
1449.768346080103
 30
0.0
 11
2233.895020982256
 21
1442.268346080103
 31
0.0
 70
    32
 71
     5
 42
15.0
  3
AM_ISO$0
100
AcDbAlignedDimension
 13
2211.270020982256
 23
1434.768346080103
 33
0.0
 14
2177.895020982256
 24
1449.768346080103
 34
0.0
 50
90.0
100
AcDbRotatedDimension
1001
ACAD
1000
DSTYLE
1002
{
1070
   140
1040
5.0
1070
   272
1070
     8
1002
}
  0
DIMENSION
  5
A88
330
1F
100
AcDbEntity
  8
AM_5
100
AcDbDimension
  2
*D12
 10
2251.895020982256
 20
1461.768346080104
 30
0.0
 11
2247.894528856271
 21
1448.268346080103
 31
0.0
 70
    32
 71
     5
 42
27.00000000000091
  3
AM_ISO$0
100
AcDbAlignedDimension
 13
2211.270020982256
 23
1434.768346080103
 33
0.0
 14
2176.895020982256
 24
1461.768346080104
 34
0.0
 50
90.0
100
AcDbRotatedDimension
1001
ACAD
1000
DSTYLE
1002
{
1070
   140
1040
5.0
1070
   272
1070
     8
1002
}
  0
DIMENSION
  5
A89
330
1F
100
AcDbEntity
  8
AM_5
100
AcDbDimension
  2
*D13
 10
2251.895020982256
 20
1434.768346080103
 30
0.0
 11
2247.180620163036
 21
1364.768346080103
 31
0.0
 70
    32
  1
90+length
 71
     5
 42
139.9999999999995
  3
AM_ISO$0
100
AcDbAlignedDimension
 13
2211.270020982256
 23
1294.768346080103
 33
0.0
 14
2211.270020982256
 24
1434.768346080103
 34
0.0
 50
90.0
100
AcDbRotatedDimension
1001
ACAD
1000
DSTYLE
1002
{
1070
   140
1040
5.0
1070
   272
1070
     8
1002
}
  0
DIMENSION
  5
A8A
330
1F
100
AcDbEntity
  8
AM_5
100
AcDbDimension
  2
*D14
 10
2237.895020982256
 20
1434.768346080103
 30
0.0
 11
2233.895020982256
 21
1416.268346080103
 31
0.0
 70
    32
 71
     5
 42
37.0
  3
AM_ISO$0
100
AcDbAlignedDimension
 13
2211.895020982256
 23
1397.768346080102
 33
0.0
 14
2211.270020982256
 24
1434.768346080103
 34
0.0
 50
90.0
100
AcDbRotatedDimension
1001
ACAD
1000
DSTYLE
1002
{
1070
   140
1040
5.0
1070
   272
1070
     8
1002
}
  0
DIMENSION
  5
A8B
330
1F
100
AcDbEntity
  8
AM_5
100
AcDbDimension
  2
*D15
 10
2223.895020982256
 20
1416.268346080103
 30
0.0
 11
2219.895020982256
 21
1425.518346080103
 31
0.0
 70
    32
 71
     5
 42
18.50000000000045
  3
AM_ISO$0
100
AcDbAlignedDimension
 13
2211.270020982256
 23
1434.768346080103
 33
0.0
 14
2166.745020982256
 24
1416.268346080103
 34
0.0
 50
90.0
100
AcDbRotatedDimension
1001
ACAD
1000
DSTYLE
1002
{
1070
   140
1040
5.0
1070
   272
1070
     8
1002
}
  0
DIMENSION
  5
A8C
330
1F
100
AcDbEntity
  8
AM_5
100
AcDbDimension
  2
*D16
 10
2178.895020982256
 20
1275.868691619725
 30
0.0
 11
2152.895020982256
 21
1279.86918374571
 31
0.0
 70
    32
  1
%%c<>
 71
     5
 42
52.0
  3
AM_ISO$0
100
AcDbAlignedDimension
 13
2126.895020982256
 23
1290.768346080103
 33
0.0
 14
2178.895020982256
 24
1290.768346080103
 34
0.0
100
AcDbRotatedDimension
1001
ACAD
1000
DSTYLE
1002
{
1070
   140
1040
5.0
1070
   272
1070
     8
1002
}
  0
INSERT
  5
A8D
330
1F
100
AcDbEntity
  8
AM_5
100
AcDbBlockReference
  2
*S19
 10
0.0
 20
0.0
 30
0.0
  0
TEXT
  5
A8E
330
1F
100
AcDbEntity
  8
AM_5
100
AcDbText
 10
2087.265120640126
 20
1280.911143016859
 30
0.0
 40
5.0
  1
2-PT1/2
100
AcDbText
  0
POINT
  5
A8F
330
1F
100
AcDbEntity
  8
0
 60
     1
100
AcDbPoint
 10
1323.050935861286
 20
1153.266635815394
 30
0.0
1001
GENIUS_GENOLIS_13
1002
{
1000
ENT
1005
A7F
1005
A7E
1005
A7D
1005
A7C
1002
}
1001
GENIUS_GENOENT_13
1002
{
1000
MYREF
1005
A8F
1002
}
1002
{
1000
GRP
1005
0
1002
}
1001
GENIUS_GENOBJ-N-CRS_13
1002
{
1000
OWNER
1000
GEN
1002
}
1001
GENIUS_GENODEF_13
1002
{
1000
HIER
1070
    10
1002
}
1002
{
1000
MANEDIT
1070
     0
1002
}
1002
{
1000
NOSEL
1070
     0
1002
}
1002
{
1000
BEHIND
1070
     0
1002
}
1002
{
1000
OTHER
1070
     0
1002
}
1002
{
1000
REACTOR
1002
}
  0
POINT
  5
A90
330
1F
100
AcDbEntity
  8
0
 60
     1
100
AcDbPoint
 10
1413.050935861286
 20
1153.266635815394
 30
0.0
1001
GENIUS_GENOLIS_13
1002
{
1000
ENT
1005
A79
1005
A78
1005
A77
1005
A76
1002
}
1001
GENIUS_GENOENT_13
1002
{
1000
MYREF
1005
A90
1002
}
1002
{
1000
GRP
1005
0
1002
}
1001
GENIUS_GENOBJ-N-CRS_13
1002
{
1000
OWNER
1000
GEN
1002
}
1001
GENIUS_GENODEF_13
1002
{
1000
HIER
1070
    10
1002
}
1002
{
1000
MANEDIT
1070
     0
1002
}
1002
{
1000
NOSEL
1070
     0
1002
}
1002
{
1000
BEHIND
1070
     0
1002
}
1002
{
1000
OTHER
1070
     0
1002
}
1002
{
1000
REACTOR
1002
}
  0
POINT
  5
A91
330
1F
100
AcDbEntity
  8
0
 60
     1
100
AcDbPoint
 10
1413.050935861286
 20
1243.266635815394
 30
0.0
1001
GENIUS_GENOLIS_13
1002
{
1000
ENT
1005
A73
1005
A72
1005
A71
1005
A70
1002
}
1001
GENIUS_GENOENT_13
1002
{
1000
MYREF
1005
A91
1002
}
1002
{
1000
GRP
1005
0
1002
}
1001
GENIUS_GENOBJ-N-CRS_13
1002
{
1000
OWNER
1000
GEN
1002
}
1001
GENIUS_GENODEF_13
1002
{
1000
HIER
1070
    10
1002
}
1002
{
1000
MANEDIT
1070
     0
1002
}
1002
{
1000
NOSEL
1070
     0
1002
}
1002
{
1000
BEHIND
1070
     0
1002
}
1002
{
1000
OTHER
1070
     0
1002
}
1002
{
1000
REACTOR
1002
}
  0
POINT
  5
A92
330
1F
100
AcDbEntity
  8
0
 60
     1
100
AcDbPoint
 10
1323.050935861286
 20
1243.266635815394
 30
0.0
1001
GENIUS_GENOLIS_13
1002
{
1000
ENT
1005
A6D
1005
A6C
1005
A6B
1005
A6A
1002
}
1001
GENIUS_GENOENT_13
1002
{
1000
MYREF
1005
A92
1002
}
1002
{
1000
GRP
1005
0
1002
}
1001
GENIUS_GENOBJ-N-CRS_13
1002
{
1000
OWNER
1000
GEN
1002
}
1001
GENIUS_GENODEF_13
1002
{
1000
HIER
1070
    10
1002
}
1002
{
1000
MANEDIT
1070
     0
1002
}
1002
{
1000
NOSEL
1070
     0
1002
}
1002
{
1000
BEHIND
1070
     0
1002
}
1002
{
1000
OTHER
1070
     0
1002
}
1002
{
1000
REACTOR
1002
}
  0
POINT
  5
A93
330
1F
100
AcDbEntity
  8
0
 60
     1
100
AcDbPoint
 10
970.3127489880259
 20
582.0402434776626
 30
0.0
1001
GENIUS_GENOLIS_13
1002
{
1000
ENT
1005
A62
1005
A61
1005
A60
1005
A5F
1002
}
1001
GENIUS_GENOENT_13
1002
{
1000
MYREF
1005
A93
1002
}
1002
{
1000
GRP
1005
0
1002
}
1001
GENIUS_GENODEF_13
1002
{
1000
HIER
1070
    10
1002
}
1002
{
1000
MANEDIT
1070
     0
1002
}
1002
{
1000
NOSEL
1070
     0
1002
}
1002
{
1000
BEHIND
1070
     0
1002
}
1002
{
1000
OTHER
1070
     0
1002
}
1002
{
1000
REACTOR
1002
}
1001
GENIUS_GENOBJ-N-CRS_13
1002
{
1000
OWNER
1000
GEN
1002
}
  0
TEXT
  5
103C
330
1F
100
AcDbEntity
  8
LOGO
 62
     7
100
AcDbText
 10
2153.544489990866
 20
1235.366015878029
 30
0.0
 40
6.457375004069645
  1
Order example:
 41
0.8
  7
CHINESET
100
AcDbText
  0
TEXT
  5
103D
330
1F
100
AcDbEntity
  8
LOGO
 62
     7
100
AcDbText
 10
2154.702996466914
 20
1244.456662867204
 30
0.0
 40
9.686062506104471
  1
訂購代號:
  7
CHINESET
100
AcDbText
  0
LINE
  5
103E
330
1F
100
AcDbEntity
  8
LOGO
 62
     1
100
AcDbLine
 10
2785.224934183183
 20
1256.582511685462
 30
0.0
 11
2044.192051082291
 21
1256.582511685462
 31
0.0
  0
LINE
  5
103F
330
1F
100
AcDbEntity
  8
LOGO
 62
     1
100
AcDbLine
 10
2150.738738649441
 20
1208.15219915494
 30
0.0
 11
2150.738738649441
 21
1256.582511685462
 31
0.0
  0
TEXT
  5
1040
330
1F
100
AcDbEntity
  8
LOGO
  6
Continuous
 62
     5
100
AcDbText
 10
2061.588437041723
 20
1217.666260963847
 30
0.0
 40
7.264546879578354
  1
金器工業股份有限公司
  7
CHINESET
100
AcDbText
  0
TEXT
  5
1041
330
1F
100
AcDbEntity
  8
LOGO
  6
Continuous
 62
     5
100
AcDbText
 10
2048.244901643661
 20
1210.400290802643
 30
0.0
 40
4.843031253052235
  1
MINDMAN INDUSTRIAL CO., LTD.
 41
0.85
  7
CHINESET
100
AcDbText
  0
LINE
  5
1042
330
1F
100
AcDbEntity
  8
LOGO
 62
     1
100
AcDbLine
 10
2150.738738649441
 20
1246.896449179358
 30
0.0
 11
2079.707613604675
 21
1246.896449179358
 31
0.0
  0
LINE
  5
1043
330
1F
100
AcDbEntity
  8
LOGO
 62
     1
100
AcDbLine
 10
2150.738738649441
 20
1237.210386673253
 30
0.0
 11
2079.707613604675
 21
1237.210386673253
 31
0.0
  0
LINE
  5
1044
330
1F
100
AcDbEntity
  8
LOGO
 62
     1
100
AcDbLine
 10
2150.738738649441
 20
1227.524324167149
 30
0.0
 11
2044.192051082291
 21
1227.524324167149
 31
0.0
  0
LINE
  5
1045
330
1F
100
AcDbEntity
  8
LOGO
 62
     1
100
AcDbLine
 10
2079.707613604675
 20
1227.524324167149
 30
0.0
 11
2079.707613604675
 21
1256.582511685462
 31
0.0
  0
TEXT
  5
1046
330
1F
100
AcDbEntity
  8
LOGO
 62
     6
100
AcDbText
 10
2125.717209060283
 20
1229.945839793675
 30
0.0
 40
4.843031253052235
  1
m/m
  7
CHINESET
 72
     1
 11
2134.250168887089
 21
1232.367355420201
 31
0.0
100
AcDbText
 73
     2
  0
TEXT
  5
1047
330
1F
100
AcDbEntity
  8
LOGO
 62
     6
100
AcDbText
 10
2125.717209060283
 20
1249.317964805884
 30
0.0
 40
4.843031253052235
  1
1 : 1
  7
CHINESET
 72
     1
 11
2134.250168887089
 21
1251.73948043241
 31
0.0
100
AcDbText
 73
     2
  0
LINE
  5
1048
330
1F
100
AcDbEntity
  8
LOGO
 62
     1
100
AcDbLine
 10
2118.451863629092
 20
1227.524324167149
 30
0.0
 11
2118.451863629092
 21
1256.582511685462
 31
0.0
  0
CIRCLE
  5
1049
330
1F
100
AcDbEntity
  8
LOGO
  6
Continuous
 62
     6
100
AcDbCircle
 10
2127.419341750892
 20
1242.063777205596
 30
0.0
 40
2.811977937627902
  0
CIRCLE
  5
104A
330
1F
100
AcDbEntity
  8
LOGO
  6
Continuous
 62
     6
100
AcDbCircle
 10
2127.419341750892
 20
1242.063777205596
 30
0.0
 40
1.647570141127273
  0
LINE
  5
104B
330
1F
100
AcDbEntity
  8
LOGO
 62
     6
100
AcDbLine
 10
2145.090137399068
 20
1239.251799267968
 30
0.0
 11
2145.090137399068
 21
1244.875755143224
 31
0.0
  0
LINE
  5
104C
330
1F
100
AcDbEntity
  8
LOGO
 62
     6
100
AcDbLine
 10
2136.274747979839
 20
1240.416207064469
 30
0.0
 11
2136.274747979839
 21
1243.711347346724
 31
0.0
  0
LINE
  5
104D
330
1F
100
AcDbEntity
  8
LOGO
  6
Continuous
 62
     6
100
AcDbLine
 10
2136.274747979839
 20
1243.711347346724
 30
0.0
 11
2145.090137399068
 21
1244.875755143224
 31
0.0
  0
LINE
  5
104E
330
1F
100
AcDbEntity
  8
LOGO
  6
Continuous
 62
     6
100
AcDbLine
 10
2136.274747979839
 20
1240.416207064469
 30
0.0
 11
2145.090137399068
 21
1239.251799267968
 31
0.0
  0
LINE
  5
104F
330
1F
100
AcDbEntity
  8
LOGO
 62
     6
100
AcDbLine
 10
2293.642199386062
 20
1251.73948043241
 30
0.0
 11
2267.723258240948
 21
1251.73948043241
 31
0.0
  0
LINE
  5
1050
330
1F
100
AcDbEntity
  8
LOGO
 62
     6
100
AcDbLine
 10
2293.642199386062
 20
1229.945839793675
 30
0.0
 11
2267.723258240948
 21
1229.945839793675
 31
0.0
  0
LINE
  5
1051
330
1F
100
AcDbEntity
  8
LOGO
 62
     6
100
AcDbLine
 10
2293.642199386062
 20
1237.210386673253
 30
0.0
 11
2267.723258240948
 21
1237.210386673253
 31
0.0
  0
LINE
  5
1052
330
1F
100
AcDbEntity
  8
LOGO
 62
     6
100
AcDbLine
 10
2293.642199386062
 20
1212.188058532484
 30
0.0
 11
2267.723258240948
 21
1212.188058532484
 31
0.0
  0
LINE
  5
1053
330
1F
100
AcDbEntity
  8
LOGO
 62
     6
100
AcDbLine
 10
2267.723258240948
 20
1229.945839793675
 30
0.0
 11
2267.723258240948
 21
1212.188058532484
 31
0.0
  0
LINE
  5
1054
330
1F
100
AcDbEntity
  8
LOGO
 62
     6
100
AcDbLine
 10
2252.868046611171
 20
1229.945839793675
 30
0.0
 11
2252.868046611171
 21
1212.188058532484
 31
0.0
  0
LINE
  5
1055
330
1F
100
AcDbEntity
  8
LOGO
 62
     6
100
AcDbLine
 10
2220.581171590822
 20
1229.945839793675
 30
0.0
 11
2220.581171590822
 21
1212.188058532484
 31
0.0
  0
LINE
  5
1056
330
1F
100
AcDbEntity
  8
LOGO
 62
     6
100
AcDbLine
 10
2252.868046611171
 20
1212.188058532484
 30
0.0
 11
2220.581171590822
 21
1212.188058532484
 31
0.0
  0
LINE
  5
1057
330
1F
100
AcDbEntity
  8
LOGO
  6
Continuous
 62
     7
100
AcDbLine
 10
2258.599878617505
 20
1244.423469206598
 30
0.0
 11
2265.015396278474
 21
1244.423469206598
 31
0.0
  0
LINE
  5
1058
330
1F
100
AcDbEntity
  8
LOGO
 62
     6
100
AcDbLine
 10
2256.096734113206
 20
1251.73948043241
 30
0.0
 11
2217.352484088788
 21
1251.73948043241
 31
0.0
  0
LINE
  5
1059
330
1F
100
AcDbEntity
  8
LOGO
 62
     6
100
AcDbLine
 10
2256.096734113206
 20
1237.210386673253
 30
0.0
 11
2217.352484088788
 21
1237.210386673253
 31
0.0
  0
LINE
  5
105A
330
1F
100
AcDbEntity
  8
LOGO
 62
     6
100
AcDbLine
 10
2217.352484088788
 20
1251.73948043241
 30
0.0
 11
2217.352484088788
 21
1237.210386673253
 31
0.0
  0
LINE
  5
105B
330
1F
100
AcDbEntity
  8
LOGO
 62
     6
100
AcDbLine
 10
2256.096734113206
 20
1251.73948043241
 30
0.0
 11
2256.096734113206
 21
1237.210386673253
 31
0.0
  0
LINE
  5
105C
330
1F
100
AcDbEntity
  8
LOGO
 62
     6
100
AcDbLine
 10
2236.724609100997
 20
1237.210386673253
 30
0.0
 11
2236.724609100997
 21
1229.945839793675
 31
0.0
  0
TEXT
  5
105D
330
1F
100
AcDbEntity
  8
LOGO
  6
Continuous
 62
     7
100
AcDbText
 10
2220.773355370706
 20
1240.439074175288
 30
0.0
 40
8.071718755087056
  1
MCQA
  7
CHINESET
 72
     1
 11
2236.724609100997
 21
1244.474933552832
 31
0.0
100
AcDbText
 73
     2
  0
LINE
  5
105E
330
1F
100
AcDbEntity
  8
LOGO
 62
     6
100
AcDbLine
 10
2252.868046611171
 20
1229.945839793675
 30
0.0
 11
2220.581171590822
 21
1229.945839793675
 31
0.0
  0
TEXT
  5
105F
330
1F
100
AcDbEntity
  8
LOGO
  6
Continuous
 62
     7
100
AcDbText
 10
2271.826900444408
 20
1240.347540375984
 30
0.0
 40
8.071718755087056
  1
100
  7
CHINESET
 72
     1
 11
2281.436089438559
 21
1244.383399753528
 31
0.0
100
AcDbText
 73
     2
  0
LINE
  5
1060
330
1F
100
AcDbEntity
  8
LOGO
 62
     6
100
AcDbLine
 10
2280.682728441262
 20
1237.210386673253
 30
0.0
 11
2280.682728441262
 21
1229.945839793675
 31
0.0
  0
LINE
  5
1061
330
1F
100
AcDbEntity
  8
LOGO
 62
     6
100
AcDbLine
 10
2267.723258240948
 20
1251.73948043241
 30
0.0
 11
2267.723258240948
 21
1237.210386673253
 31
0.0
  0
LINE
  5
1062
330
1F
100
AcDbEntity
  8
LOGO
 62
     6
100
AcDbLine
 10
2330.351513429504
 20
1229.945839793675
 30
0.0
 11
2330.351513429504
 21
1212.121099922334
 31
0.0
  0
LINE
  5
1063
330
1F
100
AcDbEntity
  8
LOGO
 62
     6
100
AcDbLine
 10
2306.687787673578
 20
1229.945839793675
 30
0.0
 11
2306.687787673578
 21
1212.188058532484
 31
0.0
  0
LINE
  5
1064
330
1F
100
AcDbEntity
  8
LOGO
 62
     6
100
AcDbLine
 10
2293.642199386062
 20
1229.945839793675
 30
0.0
 11
2293.642199386062
 21
1212.188058532484
 31
0.0
  0
LINE
  5
1065
330
1F
100
AcDbEntity
  8
LOGO
 62
     6
100
AcDbLine
 10
2330.351513429504
 20
1212.188058532484
 30
0.0
 11
2306.687787673578
 21
1212.188058532484
 31
0.0
  0
LINE
  5
1066
330
1F
100
AcDbEntity
  8
LOGO
 62
     6
100
AcDbLine
 10
2330.351513429504
 20
1229.945839793675
 30
0.0
 11
2306.687787673578
 21
1229.945839793675
 31
0.0
  0
LINE
  5
1067
330
1F
100
AcDbEntity
  8
LOGO
 62
     6
100
AcDbLine
 10
2331.965857180522
 20
1237.210386673253
 30
0.0
 11
2305.073443922561
 21
1237.210386673253
 31
0.0
  0
LINE
  5
1068
330
1F
100
AcDbEntity
  8
LOGO
 62
     6
100
AcDbLine
 10
2331.965857180522
 20
1251.73948043241
 30
0.0
 11
2305.073443922561
 21
1251.73948043241
 31
0.0
  0
LINE
  5
1069
330
1F
100
AcDbEntity
  8
LOGO
 62
     6
100
AcDbLine
 10
2318.861553899999
 20
1237.210386673253
 30
0.0
 11
2318.861553899999
 21
1229.945839793675
 31
0.0
  0
LINE
  5
106A
330
1F
100
AcDbEntity
  8
LOGO
  6
Continuous
 62
     7
100
AcDbLine
 10
2296.145343890361
 20
1244.423469206598
 30
0.0
 11
2302.56086155133
 21
1244.423469206598
 31
0.0
  0
LINE
  5
106B
330
1F
100
AcDbEntity
  8
LOGO
 62
     6
100
AcDbLine
 10
2305.073443922561
 20
1251.73948043241
 30
0.0
 11
2305.073443922561
 21
1237.210386673253
 31
0.0
  0
LINE
  5
106C
330
1F
100
AcDbEntity
  8
LOGO
 62
     6
100
AcDbLine
 10
2293.642199386062
 20
1251.73948043241
 30
0.0
 11
2293.642199386062
 21
1237.210386673253
 31
0.0
  0
TEXT
  5
106D
330
1F
100
AcDbEntity
  8
LOGO
  6
Continuous
 62
     7
100
AcDbText
 10
2312.738762660572
 20
1240.347540375984
 30
0.0
 40
8.071718755087056
  1
50
  7
CHINESET
 72
     1
 11
2319.273011176595
 21
1244.383399753528
 31
0.0
100
AcDbText
 73
     2
  0
LINE
  5
106E
330
1F
100
AcDbEntity
  8
LOGO
 62
     6
100
AcDbLine
 10
2331.965857180522
 20
1251.73948043241
 30
0.0
 11
2331.965857180522
 21
1237.210386673253
 31
0.0
  0
TEXT
  5
106F
330
1F
100
AcDbEntity
  8
LOGO
 62
     6
100
AcDbText
 10
2083.70095232092
 20
1249.320348187406
 30
317.4042898971376
 40
4.843031253052235
  1
比例 Scale:
 41
0.9
  7
CHINESET
 72
     4
 11
2099.079738616884
 21
1251.73948043241
 31
317.4042898971376
100
AcDbText
  0
TEXT
  5
1070
330
1F
100
AcDbEntity
  8
LOGO
 62
     6
100
AcDbText
 10
2085.393851191964
 20
1239.700027288288
 30
317.4042898971376
 40
4.843031253052235
  1
投影 View:
 41
0.9
  7
CHINESET
 72
     4
 11
2099.079738616884
 21
1242.053417926305
 31
317.4042898971376
100
AcDbText
  0
TEXT
  5
1071
330
1F
100
AcDbEntity
  8
LOGO
 62
     6
100
AcDbText
 10
2085.867343979651
 20
1229.945839793675
 30
317.4042898971376
 40
4.843031253052235
  1
單位 Unit:
 41
0.9
  7
CHINESET
 72
     4
 11
2099.079738616884
 21
1232.367355420201
 31
317.4042898971376
100
AcDbText
  0
TEXT
  5
1072
330
1F
100
AcDbEntity
  8
LOGO
  6
Continuous
 62
     6
100
AcDbText
 10
2229.037257905676
 20
1214.205988221255
 30
317.4042898971376
 40
4.035859377543528
  1
Model
  7
CHINESET
 72
     4
 11
2236.724609100997
 21
1216.223917910027
 31
317.4042898971376
100
AcDbText
  0
TEXT
  5
1073
330
1F
100
AcDbEntity
  8
LOGO
  6
Continuous
 62
     6
100
AcDbText
 10
2275.685950536547
 20
1214.205988221255
 30
317.4042898971376
 40
4.035859377543528
  1
Bore
 41
0.8
  7
CHINESET
 72
     4
 11
2280.682728813506
 21
1216.223917910027
 31
317.4042898971376
100
AcDbText
  0
TEXT
  5
1074
330
1F
100
AcDbEntity
  8
LOGO
 62
     6
100
AcDbText
 10
2230.132705451009
 20
1221.149573055847
 30
317.4042898971376
 40
6.457375004069645
  1
型號
  7
CHINESET
 72
     4
 11
2236.724609100997
 21
1224.295636665114
 31
317.4042898971376
100
AcDbText
  0
TEXT
  5
1075
330
1F
100
AcDbEntity
  8
LOGO
 62
     6
100
AcDbText
 10
2274.507863965864
 20
1221.066949163079
 30
317.4042898971376
 40
6.457375004069645
  1
內徑
 41
0.9
  7
CHINESET
 72
     4
 11
2280.682728813506
 21
1224.295636665114
 31
317.4042898971376
100
AcDbText
  0
TEXT
  5
1076
330
1F
100
AcDbEntity
  8
LOGO
  6
Continuous
 62
     6
100
AcDbText
 10
2310.986046380126
 20
1214.878631450846
 30
317.4042898971376
 40
4.035859377543528
  1
Length
 41
0.8
  7
CHINESET
 72
     4
 11
2318.519650551541
 21
1216.223917910027
 31
317.4042898971376
100
AcDbText
  0
TEXT
  5
1077
330
1F
100
AcDbEntity
  8
LOGO
 62
     6
100
AcDbText
 10
2312.708013047878
 20
1221.268477311787
 30
317.4042898971376
 40
6.457375004069645
  1
長度
 41
0.9
  7
CHINESET
 72
     4
 11
2318.519650551541
 21
1224.295636665114
 31
317.4042898971376
100
AcDbText
  0
LWPOLYLINE
  5
1078
330
1F
100
AcDbEntity
  8
0
 62
     4
100
AcDbPolyline
 90
        4
 70
     1
 43
0.0
 10
2044.192051082291
 20
1256.582511685462
 10
2785.224934183182
 20
1256.582511685462
 10
2785.224934183182
 20
1752.112155500651
 10
2044.192051082291
 20
1752.112155500651
1001
GENIUS_GENREC_14
1002
{
1000
PYDIR
1011
2044.192051082291
1021
1752.112155500651
1031
0.0
1002
}
1002
{
1000
PXDIR
1011
2785.224934183182
1021
1256.582511685462
1031
0.0
1002
}
1002
{
1000
PORI
1011
2044.192051082291
1021
1256.582511685462
1031
0.0
1002
}
1002
{
1000
PINS
1011
2044.192051082291
1021
1256.582511685462
1031
0.0
1002
}
1002
{
1000
PINS2
1011
2785.224934183182
1021
1752.112155500651
1031
0.0
1002
}
1002
{
1000
C
1070
     1
1002
}
1001
GENIUS_GENODEF_13
1002
{
1000
HIER
1070
     0
1002
}
1002
{
1000
MANEDIT
1070
     0
1002
}
1002
{
1000
NOSEL
1070
     0
1002
}
1002
{
1000
BEHIND
1070
     0
1002
}
1002
{
1000
OTHER
1070
     0
1002
}
1002
{
1000
REACTOR
1002
}
1001
GENIUS_GENOBJ-N-REC_13
1002
{
1000
OWNER
1000
GEN
1002
}
  0
SOLID
  5
1079
330
1F
100
AcDbEntity
  8
LOGO
 62
     5
100
AcDbTrace
 10
2049.216773732073
 20
1235.575174274133
 30
0.0
 11
2051.310773364754
 21
1235.575174274132
 31
0.0
 12
2060.047806314901
 22
1255.432067342648
 32
0.0
 13
2062.14180594758
 23
1255.432067342646
 33
0.0
  0
SOLID
  5
107A
330
1F
100
AcDbEntity
  8
LOGO
 62
     5
100
AcDbTrace
 10
2052.177255971381
 20
1235.575174274133
 30
0.0
 11
2054.27125560406
 21
1235.575174274133
 31
0.0
 12
2062.14180594758
 22
1253.843515897166
 32
0.0
 13
2060.047806314901
 23
1246.165517244006
 33
0.0
  0
SOLID
  5
107B
330
1F
100
AcDbEntity
  8
LOGO
 62
     2
100
AcDbTrace
 10
2051.310773364754
 20
1235.575174274132
 30
0.0
 11
2052.177255971381
 21
1235.575174274133
 31
0.0
 12
2062.14180594758
 22
1255.432067342646
 32
0.0
 13
2063.008288554206
 23
1255.432067342646
 33
0.0
  0
SOLID
  5
107C
330
1F
100
AcDbEntity
  8
LOGO
 62
     5
100
AcDbTrace
 10
2045.859578809276
 20
1228.354485885583
 30
0.0
 11
2046.581647648132
 21
1228.354485885583
 31
0.0
 12
2048.615049699695
 22
1231.964830079857
 32
0.0
 13
2049.33711853855
 23
1231.964830079857
 33
0.0
  0
SOLID
  5
107D
330
1F
100
AcDbEntity
  8
LOGO
 62
     5
100
AcDbTrace
 10
2048.615049699695
 20
1231.964830079857
 30
0.0
 11
2049.33711853855
 21
1231.964830079857
 31
0.0
 12
2048.615049699695
 22
1228.354485885583
 32
0.0
 13
2049.33711853855
 23
1228.354485885583
 33
0.0
  0
SOLID
  5
107E
330
1F
100
AcDbEntity
  8
LOGO
 62
     5
100
AcDbTrace
 10
2048.615049699695
 20
1228.354485885583
 30
0.0
 11
2049.33711853855
 21
1228.354485885583
 31
0.0
 12
2051.370520590114
 22
1231.964830079857
 32
0.0
 13
2052.092589428969
 23
1231.964830079857
 33
0.0
  0
SOLID
  5
107F
330
1F
100
AcDbEntity
  8
LOGO
 62
     5
100
AcDbTrace
 10
2051.370520590114
 20
1231.964830079857
 30
0.0
 11
2052.092589428969
 21
1231.964830079857
 31
0.0
 12
2051.370520590114
 22
1228.354485885583
 32
0.0
 13
2052.092589428969
 23
1228.354485885583
 33
0.0
  0
POLYLINE
  5
1080
330
1F
100
AcDbEntity
  8
LOGO
 62
     5
100
AcDb2dPolyline
 66
     1
 10
0.0
 20
0.0
 30
0.0
 40
0.7232260004558006
 41
0.7232260004558006
  0
VERTEX
  5
1081
330
1080
100
AcDbEntity
  8
LOGO
 62
     5
100
AcDbVertex
100
AcDb2dVertex
 10
2075.574022092686
 20
1230.520692402147
 30
0.0
 42
1.0
  0
VERTEX
  5
1082
330
1080
100
AcDbEntity
  8
LOGO
 62
     5
100
AcDbVertex
100
AcDb2dVertex
 10
2073.404344091319
 20
1230.520692402147
 30
0.0
 42
1.0
  0
SEQEND
  5
1083
330
1080
100
AcDbEntity
  8
LOGO
 62
     5
  0
POLYLINE
  5
1084
330
1F
100
AcDbEntity
  8
LOGO
 62
     5
100
AcDb2dPolyline
 66
     1
 10
0.0
 20
0.0
 30
0.0
 70
     1
  0
VERTEX
  5
1085
330
1084
100
AcDbEntity
  8
LOGO
 62
     5
100
AcDbVertex
100
AcDb2dVertex
 10
2069.314404551461
 20
1230.15965798272
 30
0.0
 42
1.000000057330635
  0
VERTEX
  5
1086
330
1084
100
AcDbEntity
  8
LOGO
 62
     5
100
AcDbVertex
100
AcDb2dVertex
 10
2071.480611068027
 20
1230.15965798272
 30
0.0
 42
1.000000057330635
  0
SEQEND
  5
1087
330
1084
100
AcDbEntity
  8
LOGO
 62
     5
  0
CIRCLE
  5
1088
330
1F
100
AcDbEntity
  8
LOGO
 62
     5
100
AcDbCircle
 10
2070.397507809745
 20
1230.15965798272
 30
0.0
 40
1.083103258282607
  0
POLYLINE
  5
1089
330
1F
100
AcDbEntity
  8
LOGO
 62
     5
100
AcDb2dPolyline
 66
     1
 10
0.0
 20
0.0
 30
0.0
 70
     1
 40
0.7232260004558006
 41
0.7232260004558006
  0
VERTEX
  5
108A
330
1089
100
AcDbEntity
  8
LOGO
 62
     5
100
AcDbVertex
100
AcDb2dVertex
 10
2068.951055808833
 20
1230.15965798272
 30
0.0
 42
1.0
  0
VERTEX
  5
108B
330
1089
100
AcDbEntity
  8
LOGO
 62
     5
100
AcDbVertex
100
AcDb2dVertex
 10
2071.843959810657
 20
1230.15965798272
 30
0.0
 42
1.0
  0
SEQEND
  5
108C
330
1089
100
AcDbEntity
  8
LOGO
 62
     5
  0
LINE
  5
108D
330
1F
100
AcDbEntity
  8
LOGO
 62
     5
100
AcDbLine
 10
2075.933320769712
 20
1228.354485885583
 30
0.0
 11
2075.933320769712
 21
1230.520692402147
 31
0.0
  0
SOLID
  5
108E
330
1F
100
AcDbEntity
  8
LOGO
 62
     5
100
AcDbTrace
 10
2071.480538861145
 20
1231.964830079857
 30
0.0
 11
2072.202607699999
 21
1231.964830079857
 31
0.0
 12
2071.480538861145
 22
1228.354485885583
 32
0.0
 13
2072.202607699999
 23
1228.354485885583
 33
0.0
  0
SOLID
  5
108F
330
1F
100
AcDbEntity
  8
LOGO
 62
     5
100
AcDbTrace
 10
2073.045045414291
 20
1228.354485885583
 30
0.0
 11
2073.767114253147
 21
1228.354485885583
 31
0.0
 12
2073.045045414291
 22
1231.964830079857
 32
0.0
 13
2073.767114253147
 23
1231.964830079857
 33
0.0
  0
SOLID
  5
1090
330
1F
100
AcDbEntity
  8
LOGO
 62
     5
100
AcDbTrace
 10
2075.211251930857
 20
1230.520692402147
 30
0.0
 11
2075.933320769712
 21
1230.520692402147
 31
0.0
 12
2075.211251930857
 22
1228.354485885583
 32
0.0
 13
2075.933320769712
 23
1228.354485885583
 33
0.0
  0
SOLID
  5
1091
330
1F
100
AcDbEntity
  8
LOGO
 62
     5
100
AcDbTrace
 10
2072.972838530406
 20
1253.843515897166
 30
0.0
 11
2070.878838897726
 21
1246.165517244006
 31
0.0
 12
2072.972838530406
 22
1235.575174274132
 32
0.0
 13
2070.878838897726
 23
1235.575174274132
 33
0.0
  0
SOLID
  5
1092
330
1F
100
AcDbEntity
  8
LOGO
 62
     5
100
AcDbTrace
 10
2073.839321137031
 20
1235.575174274132
 30
0.0
 11
2075.933320769712
 21
1235.575174274132
 31
0.0
 12
2073.839321137031
 22
1255.432067342646
 32
0.0
 13
2075.933320769712
 23
1255.432067342648
 33
0.0
  0
SOLID
  5
1093
330
1F
100
AcDbEntity
  8
LOGO
 62
     2
100
AcDbTrace
 10
2072.972838530406
 20
1255.432067342648
 30
0.0
 11
2073.839321137031
 21
1255.432067342646
 31
0.0
 12
2072.972838530406
 22
1235.575174274132
 32
0.0
 13
2073.839321137031
 23
1235.575174274132
 33
0.0
  0
POLYLINE
  5
1094
330
1F
100
AcDbEntity
  8
LOGO
 62
     5
100
AcDb2dPolyline
 66
     1
 10
0.0
 20
0.0
 30
0.0
 40
0.7232260004558006
 41
0.7232260004558006
  0
VERTEX
  5
1095
330
1094
100
AcDbEntity
  8
LOGO
 62
     5
100
AcDbVertex
100
AcDb2dVertex
 10
2065.22432059784
 20
1230.520692402147
 30
0.0
 42
1.0
  0
VERTEX
  5
1096
330
1094
100
AcDbEntity
  8
LOGO
 62
     5
100
AcDbVertex
100
AcDb2dVertex
 10
2063.054642596473
 20
1230.520692402147
 30
0.0
 42
1.0
  0
SEQEND
  5
1097
330
1094
100
AcDbEntity
  8
LOGO
 62
     5
  0
POLYLINE
  5
1098
330
1F
100
AcDbEntity
  8
LOGO
 62
     5
100
AcDb2dPolyline
 66
     1
 10
0.0
 20
0.0
 30
0.0
 40
0.7232260004558006
 41
0.7232260004558006
  0
VERTEX
  5
1099
330
1098
100
AcDbEntity
  8
LOGO
 62
     5
100
AcDbVertex
100
AcDb2dVertex
 10
2067.390527114404
 20
1230.520692402147
 30
0.0
 42
1.0
  0
VERTEX
  5
109A
330
1098
100
AcDbEntity
  8
LOGO
 62
     5
100
AcDbVertex
100
AcDb2dVertex
 10
2065.220849113036
 20
1230.520692402147
 30
0.0
 42
1.0
  0
SEQEND
  5
109B
330
1098
100
AcDbEntity
  8
LOGO
 62
     5
  0
POLYLINE
  5
109C
330
1F
100
AcDbEntity
  8
LOGO
 62
     5
100
AcDb2dPolyline
 66
     1
 10
0.0
 20
0.0
 30
0.0
 40
0.7232260004558006
 41
0.7232260004558006
  0
VERTEX
  5
109D
330
109C
100
AcDbEntity
  8
LOGO
 62
     5
100
AcDbVertex
100
AcDb2dVertex
 10
2057.04082561956
 20
1230.520692402147
 30
0.0
 42
1.0
  0
VERTEX
  5
109E
330
109C
100
AcDbEntity
  8
LOGO
 62
     5
100
AcDbVertex
100
AcDb2dVertex
 10
2054.871147618193
 20
1230.520692402147
 30
0.0
 42
1.0
  0
SEQEND
  5
109F
330
109C
100
AcDbEntity
  8
LOGO
 62
     5
  0
SOLID
  5
10A0
330
1F
100
AcDbEntity
  8
LOGO
 62
     5
100
AcDbTrace
 10
2054.511848941167
 20
1231.964830079857
 30
0.0
 11
2055.233917780021
 21
1231.964830079857
 31
0.0
 12
2054.511848941167
 22
1228.354485885583
 32
0.0
 13
2055.233917780021
 23
1228.354485885583
 33
0.0
  0
SOLID
  5
10A1
330
1F
100
AcDbEntity
  8
LOGO
 62
     5
100
AcDbTrace
 10
2056.678055457732
 20
1230.520692402147
 30
0.0
 11
2057.400124296587
 21
1230.520692402147
 31
0.0
 12
2056.678055457732
 22
1228.354485885583
 32
0.0
 13
2057.400124296587
 23
1228.354485885583
 33
0.0
  0
POLYLINE
  5
10A2
330
1F
100
AcDbEntity
  8
LOGO
 62
     5
100
AcDb2dPolyline
 66
     1
 10
0.0
 20
0.0
 30
0.0
 70
     1
 40
0.7232260004558006
 41
0.7232260004558006
  0
VERTEX
  5
10A3
330
10A2
100
AcDbEntity
  8
LOGO
 62
     5
100
AcDbVertex
100
AcDb2dVertex
 10
2058.601354313987
 20
1230.15965798272
 30
0.0
 42
1.0
  0
VERTEX
  5
10A4
330
10A2
100
AcDbEntity
  8
LOGO
 62
     5
100
AcDbVertex
100
AcDb2dVertex
 10
2061.494258315811
 20
1230.15965798272
 30
0.0
 42
1.0
  0
SEQEND
  5
10A5
330
10A2
100
AcDbEntity
  8
LOGO
 62
     5
  0
SOLID
  5
10A6
330
1F
100
AcDbEntity
  8
LOGO
 62
     5
100
AcDbTrace
 10
2061.1308373663
 20
1233.04793333814
 30
0.0
 11
2061.852906205153
 21
1233.04793333814
 31
0.0
 12
2061.1308373663
 22
1228.354485885583
 32
0.0
 13
2061.852906205153
 23
1228.354485885583
 33
0.0
  0
SOLID
  5
10A7
330
1F
100
AcDbEntity
  8
LOGO
 62
     5
100
AcDbTrace
 10
2062.695343919447
 20
1231.964830079857
 30
0.0
 11
2063.417412758302
 21
1231.964830079857
 31
0.0
 12
2062.695343919447
 22
1228.354485885583
 32
0.0
 13
2063.417412758302
 23
1228.354485885583
 33
0.0
  0
SOLID
  5
10A8
330
1F
100
AcDbEntity
  8
LOGO
 62
     5
100
AcDbTrace
 10
2064.861550436011
 20
1230.520692402147
 30
0.0
 11
2065.583619274867
 21
1230.520692402147
 31
0.0
 12
2064.861550436011
 22
1228.354485885583
 32
0.0
 13
2065.583619274867
 23
1228.354485885583
 33
0.0
  0
SOLID
  5
10A9
330
1F
100
AcDbEntity
  8
LOGO
 62
     5
100
AcDbTrace
 10
2067.027756952576
 20
1230.520692402147
 30
0.0
 11
2067.74982579143
 21
1230.520692402147
 31
0.0
 12
2067.027756952576
 22
1228.354485885581
 32
0.0
 13
2067.74982579143
 23
1228.354485885581
 33
0.0
  0
SOLID
  5
10AA
330
1F
100
AcDbEntity
  8
LOGO
 62
     5
100
AcDbTrace
 10
2052.947342388018
 20
1232.470278267055
 30
0.0
 11
2053.669411226874
 21
1232.470278267055
 31
0.0
 12
2052.947342388018
 22
1233.04793333814
 32
0.0
 13
2053.669411226874
 23
1233.04793333814
 33
0.0
  0
SOLID
  5
10AB
330
1F
100
AcDbEntity
  8
LOGO
 62
     5
100
AcDbTrace
 10
2052.947342388018
 20
1231.964830079857
 30
0.0
 11
2053.669411226874
 21
1231.964830079857
 31
0.0
 12
2052.947342388018
 22
1228.354485885581
 32
0.0
 13
2053.669411226874
 23
1228.354485885583
 33
0.0
  0
SOLID
  5
10AC
330
1F
100
AcDbEntity
  8
LOGO
 62
     5
100
AcDbTrace
 10
2060.047806314901
 20
1235.575174274133
 30
0.0
 11
2062.14180594758
 21
1235.575174274133
 31
0.0
 12
2060.047806314901
 22
1246.165517244006
 32
0.0
 13
2062.14180594758
 23
1253.843515897166
 33
0.0
  0
SOLID
  5
10AD
330
1F
100
AcDbEntity
  8
LOGO
 62
     5
100
AcDbTrace
 10
2063.008288554206
 20
1255.432067342646
 30
0.0
 11
2065.102288186886
 21
1255.432067342648
 31
0.0
 12
2063.008288554206
 22
1237.163725719613
 32
0.0
 13
2065.102288186886
 23
1244.841724372773
 33
0.0
  0
SOLID
  5
10AE
330
1F
100
AcDbEntity
  8
LOGO
 62
     2
100
AcDbTrace
 10
2062.14180594758
 20
1255.432067342646
 30
0.0
 11
2063.008288554206
 21
1255.432067342646
 31
0.0
 12
2062.14180594758
 22
1235.575174274133
 32
0.0
 13
2063.008288554206
 23
1235.575174274133
 33
0.0
  0
SOLID
  5
10AF
330
1F
100
AcDbEntity
  8
LOGO
 62
     5
100
AcDbTrace
 10
2063.008288554206
 20
1237.163725719613
 30
0.0
 11
2065.102288186886
 21
1244.841724372773
 31
0.0
 12
2072.972838530406
 22
1255.432067342648
 32
0.0
 13
2070.878838897726
 23
1255.432067342648
 33
0.0
  0
SOLID
  5
10B0
330
1F
100
AcDbEntity
  8
LOGO
 62
     5
100
AcDbTrace
 10
2063.008288554206
 20
1235.575174274133
 30
0.0
 11
2065.102288186886
 21
1235.575174274133
 31
0.0
 12
2072.972838530406
 22
1253.843515897166
 32
0.0
 13
2070.878838897726
 23
1246.165517244006
 33
0.0
  0
SOLID
  5
10B1
330
1F
100
AcDbEntity
  8
LOGO
 62
     2
100
AcDbTrace
 10
2062.14180594758
 20
1235.575174274133
 30
0.0
 11
2063.008288554206
 21
1235.575174274133
 31
0.0
 12
2072.972838530406
 22
1255.432067342648
 32
0.0
 13
2073.839321137031
 23
1255.432067342646
 33
0.0
  0
TEXT
  5
10B2
330
1F
100
AcDbEntity
  8
0
100
AcDbText
 10
2152.807838399267
 20
1210.728672666426
 30
0.0
 40
4.038437843256959
  1
1050525
 41
0.8
  7
CHINESET
 72
     1
 11
2162.807779725428
 21
1210.728672666426
 31
0.0
100
AcDbText
  0
LINE
  5
10B3
330
1F
100
AcDbEntity
  8
LOGO
 62
     1
100
AcDbLine
 10
2175.26802724284
 20
1217.838261661045
 30
0.0
 11
2175.26802724284
 21
1208.15219915494
 31
0.0
  0
LINE
  5
10B4
330
1F
100
AcDbEntity
  8
LOGO
 62
     1
100
AcDbLine
 10
2175.26802724284
 20
1217.838261661045
 30
0.0
 11
2150.738738649441
 21
1217.838261661045
 31
0.0
  0
LWPOLYLINE
  5
10B5
330
1F
100
AcDbEntity
  8
0
 62
     1
100
AcDbPolyline
 90
        4
 70
     1
 43
0.0
 10
2044.192051082291
 20
1256.582511685462
 10
2785.224934183182
 20
1256.582511685462
 10
2785.224934183182
 20
1208.152199154939
 10
2044.192051082291
 20
1208.152199154939
1001
GENIUS_GENREC_14
1002
{
1000
PYDIR
1011
2044.192051082291
1021
1208.152199154939
1031
0.0
1002
}
1002
{
1000
PXDIR
1011
2785.224934183182
1021
1256.582511685462
1031
0.0
1002
}
1002
{
1000
PORI
1011
2044.192051082291
1021
1256.582511685462
1031
0.0
1002
}
1002
{
1000
PINS
1011
2044.192051082291
1021
1256.582511685462
1031
0.0
1002
}
1002
{
1000
PINS2
1011
2785.224934183182
1021
1208.152199154939
1031
0.0
1002
}
1002
{
1000
C
1070
     1
1002
}
1001
GENIUS_GENOBJ-N-REC_13
1002
{
1000
OWNER
1000
GEN
1002
}
1001
GENIUS_GENODEF_13
1002
{
1000
HIER
1070
     0
1002
}
1002
{
1000
MANEDIT
1070
     0
1002
}
1002
{
1000
NOSEL
1070
     0
1002
}
1002
{
1000
BEHIND
1070
     0
1002
}
1002
{
1000
OTHER
1070
     0
1002
}
1002
{
1000
REACTOR
1002
}
  0
LINE
  5
10B6
330
1F
100
AcDbEntity
  8
LOGO
 62
     6
100
AcDbLine
 10
2377.816219454955
 20
1229.945839793675
 30
0.0
 11
2377.816219454955
 21
1212.121099922334
 31
0.0
  0
LINE
  5
10B7
330
1F
100
AcDbEntity
  8
LOGO
 62
     6
100
AcDbLine
 10
2335.431579448146
 20
1229.945839793675
 30
0.0
 11
2335.431579448146
 21
1212.188058532484
 31
0.0
  0
LINE
  5
10B8
330
1F
100
AcDbEntity
  8
LOGO
 62
     6
100
AcDbLine
 10
2377.816219454955
 20
1212.188058532484
 30
0.0
 11
2335.431579448146
 21
1212.188058532484
 31
0.0
  0
LINE
  5
10B9
330
1F
100
AcDbEntity
  8
LOGO
 62
     6
100
AcDbLine
 10
2377.816219454955
 20
1229.945839793675
 30
0.0
 11
2335.431579448146
 21
1229.945839793675
 31
0.0
  0
LINE
  5
10BA
330
1F
100
AcDbEntity
  8
LOGO
 62
     6
100
AcDbLine
 10
2370.452286299604
 20
1237.210386673253
 30
0.0
 11
2343.559873041643
 21
1237.210386673253
 31
0.0
  0
LINE
  5
10BB
330
1F
100
AcDbEntity
  8
LOGO
 62
     6
100
AcDbLine
 10
2370.452286299604
 20
1251.73948043241
 30
0.0
 11
2343.559873041643
 21
1251.73948043241
 31
0.0
  0
LINE
  5
10BC
330
1F
100
AcDbEntity
  8
LOGO
 62
     6
100
AcDbLine
 10
2357.347983019083
 20
1237.210386673253
 30
0.0
 11
2357.347983019083
 21
1229.945839793675
 31
0.0
  0
LINE
  5
10BD
330
1F
100
AcDbEntity
  8
LOGO
 62
     6
100
AcDbLine
 10
2343.559873041643
 20
1251.73948043241
 30
0.0
 11
2343.559873041643
 21
1237.210386673253
 31
0.0
  0
TEXT
  5
10BE
330
1F
100
AcDbEntity
  8
LOGO
  6
Continuous
 62
     7
100
AcDbText
 10
2350.840824219889
 20
1240.347540375984
 30
0.0
 40
8.071718755087056
  1
AH
  7
CHINESET
 72
     1
 11
2357.759440295678
 21
1244.383399753528
 31
0.0
100
AcDbText
 73
     2
  0
LINE
  5
10BF
330
1F
100
AcDbEntity
  8
LOGO
 62
     6
100
AcDbLine
 10
2370.452286299604
 20
1251.73948043241
 30
0.0
 11
2370.452286299604
 21
1237.210386673253
 31
0.0
  0
TEXT
  5
10C0
330
1F
100
AcDbEntity
  8
LOGO
  6
Continuous
 62
     6
100
AcDbText
 10
2337.787701682321
 20
1214.205988221255
 30
317.4042898971376
 40
4.035859377543528
  1
Air-Oil coverter
 41
0.8
  7
CHINESET
 72
     4
 11
2357.006079670624
 21
1216.223917910027
 31
317.4042898971376
100
AcDbText
  0
TEXT
  5
10C1
330
1F
100
AcDbEntity
  8
LOGO
 62
     6
100
AcDbText
 10
2351.194442166961
 20
1221.232196948616
 30
317.4042898971376
 40
6.457375004069645
  1
型式
 41
0.9
  7
CHINESET
 72
     4
 11
2357.006079670624
 21
1224.295636665114
 31
317.4042898971376
100
AcDbText
  0
LINE
  5
10C2
330
1F
100
AcDbEntity
  8
LOGO
  6
Continuous
 62
     7
100
AcDbLine
 10
2334.202686825165
 20
1244.423469206598
 30
0.0
 11
2340.618204486134
 21
1244.423469206598
 31
0.0
  0
TEXT
  5
10C3
330
1F
100
AcDbEntity
  8
0
100
AcDbText
 10
2074.209605923835
 20
1714.405199964845
 30
0.0
 40
12.012
  1
Length=50mm
100
AcDbText
  0
LINE
  5
130D
330
1F
100
AcDbEntity
  8
0
 62
     7
100
AcDbLine
 10
2722.783889673758
 20
1611.711777628701
 30
0.0
 11
2722.783889673758
 21
1559.711777628701
 31
0.0
  0
LINE
  5
130E
330
1F
100
AcDbEntity
  8
0
 62
     7
100
AcDbLine
 10
2604.783889673758
 20
1611.711777628701
 30
0.0
 11
2604.783889673758
 21
1559.711777628701
 31
0.0
  0
LINE
  5
130F
330
1F
100
AcDbEntity
  8
0
 62
     7
100
AcDbLine
 10
2604.783889673758
 20
1559.711777628701
 30
0.0
 11
2722.783889673758
 21
1559.711777628701
 31
0.0
  0
LINE
  5
1310
330
1F
100
AcDbEntity
  8
0
 62
     7
100
AcDbLine
 10
2607.783889673758
 20
1614.711777628701
 30
0.0
 11
2647.170641947922
 21
1614.711777628701
 31
0.0
  0
LINE
  5
1311
330
1F
100
AcDbEntity
  8
0
 62
     7
100
AcDbLine
 10
2608.783890023856
 20
1614.711777628701
 30
0.0
 11
2645.476125609714
 21
1614.711777628701
 31
0.0
  0
LINE
  5
1312
330
1F
100
AcDbEntity
  8
0
 62
     7
100
AcDbLine
 10
2608.783889673758
 20
1614.711777628701
 30
0.0
 11
2645.476125609714
 21
1614.711777628701
 31
0.0
  0
LINE
  5
1313
330
1F
100
AcDbEntity
  8
0
 62
     7
100
AcDbLine
 10
2604.783889673758
 20
1565.711777628701
 30
0.0
 11
2722.783889673758
 21
1565.711777628701
 31
0.0
  0
LINE
  5
1314
330
1F
100
AcDbEntity
  8
HIDDEN
  6
HIDDEN
100
AcDbLine
 10
2610.783889673758
 20
1565.711777628701
 30
0.0
 11
2610.783889673758
 21
1559.711777628701
 31
0.0
  0
LINE
  5
1315
330
1F
100
AcDbEntity
  8
HIDDEN
  6
HIDDEN
100
AcDbLine
 10
2624.783889673758
 20
1565.711777628701
 30
0.0
 11
2624.783889673758
 21
1559.711777628701
 31
0.0
  0
LINE
  5
1316
330
1F
100
AcDbEntity
  8
HIDDEN
  6
HIDDEN
100
AcDbLine
 10
2702.783889673758
 20
1565.711777628701
 30
0.0
 11
2702.783889673758
 21
1559.711777628701
 31
0.0
  0
LINE
  5
1317
330
1F
100
AcDbEntity
  8
HIDDEN
  6
HIDDEN
100
AcDbLine
 10
2716.783889673758
 20
1565.711777628701
 30
0.0
 11
2716.783889673758
 21
1559.711777628701
 31
0.0
  0
LINE
  5
1318
330
1F
100
AcDbEntity
  8
0
 62
     7
100
AcDbLine
 10
2680.397137399594
 20
1614.711777628701
 30
0.0
 11
2719.783889673758
 21
1614.711777628701
 31
0.0
  0
LINE
  5
1319
330
1F
100
AcDbEntity
  8
0
 62
     7
100
AcDbLine
 10
2681.091653737802
 20
1614.711777628701
 30
0.0
 11
2717.783889673758
 21
1614.711777628701
 31
0.0
  0
ARC
  5
131A
330
1F
100
AcDbEntity
  8
0
 62
     7
100
AcDbCircle
 10
2719.783889673758
 20
1611.711777628701
 30
0.0
 40
3.0
100
AcDbArc
 50
0.0
 51
90.0
  0
ARC
  5
131B
330
1F
100
AcDbEntity
  8
0
 62
     7
100
AcDbCircle
 10
2607.783889673758
 20
1611.711777628701
 30
0.0
 40
3.0
100
AcDbArc
 50
90.0
 51
180.0
  0
LINE
  5
131C
330
1F
100
AcDbEntity
  8
0
 62
     7
100
AcDbLine
 10
2681.091653737802
 20
1614.711777628701
 30
0.0
 11
2717.783891056277
 21
1614.711777628701
 31
0.0
  0
LINE
  5
131D
330
1F
100
AcDbEntity
  8
CENTER
  6
CENTER
100
AcDbLine
 10
2663.783889673758
 20
1623.713764528201
 30
0.0
 11
2663.783889673758
 21
1556.139248635542
 31
0.0
  0
LINE
  5
131E
330
1F
100
AcDbEntity
  8
CENTER
  6
CENTER
100
AcDbLine
 10
2617.783889673758
 20
1570.932523072148
 30
0.0
 11
2617.783889673758
 21
1556.187800088675
 31
0.0
  0
LINE
  5
131F
330
1F
100
AcDbEntity
  8
CENTER
  6
CENTER
100
AcDbLine
 10
2709.783889673758
 20
1572.316563457842
 30
0.0
 11
2709.783889673758
 21
1556.187800088675
 31
0.0
  0
CIRCLE
  5
1320
330
1F
100
AcDbEntity
  8
0
 62
     7
100
AcDbCircle
 10
2708.783889673758
 20
1589.711777628701
 30
0.0
 40
7.0
  0
CIRCLE
  5
1321
330
1F
100
AcDbEntity
  8
0
 62
     7
100
AcDbCircle
 10
2618.783889673758
 20
1589.711777628701
 30
0.0
 40
7.0
  0
ARC
  5
1323
330
1F
100
AcDbEntity
  8
0
 62
     7
100
AcDbCircle
 10
2663.783889673758
 20
1570.404546427548
 30
0.0
 40
2.000000000000014
100
AcDbArc
 50
54.42919734346243
 51
125.5708026565375
  0
LINE
  5
1324
330
1F
100
AcDbEntity
  8
0
 62
     7
100
AcDbLine
 10
2664.947306767272
 20
1572.031341026297
 30
0.0
 11
2673.783889673758
 21
1565.711777628701
 31
0.0
  0
LINE
  5
1325
330
1F
100
AcDbEntity
  8
0
 62
     7
100
AcDbLine
 10
2653.783889673758
 20
1565.711777628701
 30
0.0
 11
2662.620472580244
 21
1572.031341026297
 31
0.0
  0
ARC
  5
1326
330
1F
100
AcDbEntity
  8
0
100
AcDbCircle
 10
2663.783889673758
 20
1634.711777628701
 30
0.0
 40
26.0
100
AcDbArc
 50
230.2848627681673
 51
309.7151372318327
  0
LINE
  5
1327
330
1F
100
AcDbEntity
  8
CENTER
  6
CENTER
100
AcDbLine
 10
2617.783889673758
 20
1589.711777628701
 30
0.0
 11
2619.783889673758
 21
1589.711777628701
 31
0.0
  0
LINE
  5
1328
330
1F
100
AcDbEntity
  8
CENTER
  6
CENTER
100
AcDbLine
 10
2618.783889673758
 20
1588.711777628701
 30
0.0
 11
2618.783889673758
 21
1590.711777628701
 31
0.0
  0
LINE
  5
1329
330
1F
100
AcDbEntity
  8
CENTER
  6
CENTER
100
AcDbLine
 10
2616.783889673758
 20
1589.711777628701
 30
0.0
 11
2610.783889673758
 21
1589.711777628701
 31
0.0
  0
LINE
  5
132A
330
1F
100
AcDbEntity
  8
CENTER
  6
CENTER
100
AcDbLine
 10
2620.783889673758
 20
1589.711777628701
 30
0.0
 11
2626.783889673758
 21
1589.711777628701
 31
0.0
  0
LINE
  5
132B
330
1F
100
AcDbEntity
  8
CENTER
  6
CENTER
100
AcDbLine
 10
2618.783889673758
 20
1587.711777628701
 30
0.0
 11
2618.783889673758
 21
1581.711777628701
 31
0.0
  0
LINE
  5
132C
330
1F
100
AcDbEntity
  8
CENTER
  6
CENTER
100
AcDbLine
 10
2618.783889673758
 20
1591.711777628701
 30
0.0
 11
2618.783889673758
 21
1597.711777628701
 31
0.0
  0
LINE
  5
132D
330
1F
100
AcDbEntity
  8
CENTER
  6
CENTER
100
AcDbLine
 10
2707.783889673758
 20
1589.711777628701
 30
0.0
 11
2709.783889673758
 21
1589.711777628701
 31
0.0
  0
LINE
  5
132E
330
1F
100
AcDbEntity
  8
CENTER
  6
CENTER
100
AcDbLine
 10
2708.783889673758
 20
1588.711777628701
 30
0.0
 11
2708.783889673758
 21
1590.711777628701
 31
0.0
  0
LINE
  5
132F
330
1F
100
AcDbEntity
  8
CENTER
  6
CENTER
100
AcDbLine
 10
2706.783889673758
 20
1589.711777628701
 30
0.0
 11
2700.783889673758
 21
1589.711777628701
 31
0.0
  0
LINE
  5
1330
330
1F
100
AcDbEntity
  8
CENTER
  6
CENTER
100
AcDbLine
 10
2710.783889673758
 20
1589.711777628701
 30
0.0
 11
2716.783889673758
 21
1589.711777628701
 31
0.0
  0
LINE
  5
1331
330
1F
100
AcDbEntity
  8
CENTER
  6
CENTER
100
AcDbLine
 10
2708.783889673758
 20
1587.711777628701
 30
0.0
 11
2708.783889673758
 21
1581.711777628701
 31
0.0
  0
LINE
  5
1332
330
1F
100
AcDbEntity
  8
CENTER
  6
CENTER
100
AcDbLine
 10
2708.783889673758
 20
1591.711777628701
 30
0.0
 11
2708.783889673758
 21
1597.711777628701
 31
0.0
  0
LINE
  5
1333
330
1F
100
AcDbEntity
  8
0
 62
     7
100
AcDbLine
 10
2527.274281433982
 20
1614.711777628701
 30
0.0
 11
2527.274281433982
 21
1572.404546427548
 31
0.0
  0
LINE
  5
1334
330
1F
100
AcDbEntity
  8
0
 62
     7
100
AcDbLine
 10
2521.274281433981
 20
1614.711777628701
 30
0.0
 11
2521.274281433981
 21
1566.404546427548
 31
0.0
  0
LINE
  5
1335
330
1F
100
AcDbEntity
  8
0
 62
     7
100
AcDbLine
 10
2581.274281433981
 20
1566.404546427548
 30
0.0
 11
2533.274281433981
 21
1566.404546427548
 31
0.0
  0
LINE
  5
1336
330
1F
100
AcDbEntity
  8
0
 62
     7
100
AcDbLine
 10
2581.274281433981
 20
1560.404546427547
 30
0.0
 11
2527.274281433982
 21
1560.404546427547
 31
0.0
  0
LINE
  5
1337
330
1F
100
AcDbEntity
  8
0
 62
     7
100
AcDbLine
 10
2581.274281433981
 20
1566.404546427548
 30
0.0
 11
2581.274281433981
 21
1560.404546427547
 31
0.0
  0
LINE
  5
1338
330
1F
100
AcDbEntity
  8
HIDDEN
  6
HIDDEN
100
AcDbLine
 10
2571.505050664751
 20
1566.404546427548
 30
0.0
 11
2571.505050664751
 21
1560.404546427547
 31
0.0
  0
LINE
  5
1339
330
1F
100
AcDbEntity
  8
CENTER
  6
CENTER
100
AcDbLine
 10
2564.274281433981
 20
1569.643613178623
 30
0.0
 11
2564.274281433981
 21
1558.404546427548
 31
0.0
  0
LINE
  5
133A
330
1F
100
AcDbEntity
  8
HIDDEN
  6
HIDDEN
100
AcDbLine
 10
2557.274281433982
 20
1560.404546427547
 30
0.0
 11
2557.274281433982
 21
1566.404546427548
 31
0.0
  0
ARC
  5
133B
330
1F
100
AcDbEntity
  8
0
 62
     7
100
AcDbCircle
 10
2533.274281433981
 20
1572.404546427548
 30
0.0
 40
6.0
100
AcDbArc
 50
180.0
 51
270.0
  0
LINE
  5
133C
330
1F
100
AcDbEntity
  8
0
 62
     7
100
AcDbLine
 10
2533.387586995884
 20
1566.404546427548
 30
0.0
 11
2527.274281433982
 21
1572.517851989451
 31
0.0
  0
LINE
  5
133D
330
1F
100
AcDbEntity
  8
HIDDEN
  6
DASHED
100
AcDbLine
 10
2530.902305621646
 20
1560.404546427547
 30
0.0
 11
2521.274281433981
 21
1570.032570615212
 31
0.0
  0
ARC
  5
133E
330
1F
100
AcDbEntity
  8
0
 62
     7
100
AcDbCircle
 10
2527.274281433982
 20
1566.404546427548
 30
0.0
 40
6.0
100
AcDbArc
 50
180.0
 51
270.0
  0
LINE
  5
133F
330
1F
100
AcDbEntity
  8
CENTER
  6
CENTER
100
AcDbLine
 10
2535.812742972443
 20
1589.711777628701
 30
0.0
 11
2512.274281433982
 21
1589.711777628701
 31
0.0
  0
LINE
  5
1340
330
1F
100
AcDbEntity
  8
HIDDEN
  6
HIDDEN
100
AcDbLine
 10
2527.274281433982
 20
1582.711777628701
 30
0.0
 11
2521.274281433981
 21
1582.711777628701
 31
0.0
  0
LINE
  5
1341
330
1F
100
AcDbEntity
  8
CENTER
  6
CENTER
100
AcDbLine
 10
2708.783889673758
 20
1671.016776011811
 30
0.0
 11
2710.783889673758
 21
1671.016776011811
 31
0.0
  0
CIRCLE
  5
1342
330
1F
100
AcDbEntity
  8
0
100
AcDbCircle
 10
2709.783889673758
 20
1671.016776011811
 30
0.0
 40
7.0
  0
LINE
  5
1343
330
1F
100
AcDbEntity
  8
0
100
AcDbLine
 10
2604.783889673758
 20
1708.016776011811
 30
0.0
 11
2722.783889673758
 21
1708.016776011811
 31
0.0
  0
LINE
  5
1344
330
1F
100
AcDbEntity
  8
0
100
AcDbLine
 10
2608.783889673758
 20
1654.016776011811
 30
0.0
 11
2718.783889673758
 21
1654.016776011811
 31
0.0
  0
LINE
  5
1345
330
1F
100
AcDbEntity
  8
0
100
AcDbLine
 10
2604.783889673758
 20
1714.016776011811
 30
0.0
 11
2722.783889673758
 21
1714.016776011811
 31
0.0
  0
LINE
  5
1346
330
1F
100
AcDbEntity
  8
0
100
AcDbLine
 10
2604.783889673758
 20
1714.016776011811
 30
0.0
 11
2604.783889673758
 21
1658.016776011811
 31
0.0
  0
ARC
  5
1347
330
1F
100
AcDbEntity
  8
0
100
AcDbCircle
 10
2608.783889673758
 20
1658.016776011811
 30
0.0
 40
4.0
100
AcDbArc
 50
180.0
 51
270.0
  0
LINE
  5
1348
330
1F
100
AcDbEntity
  8
CENTER
  6
CENTER
100
AcDbLine
 10
2617.783889673758
 20
1673.016776011811
 30
0.0
 11
2617.783889673758
 21
1679.016776011811
 31
0.0
  0
CIRCLE
  5
1349
330
1F
100
AcDbEntity
  8
0
100
AcDbCircle
 10
2617.783889673758
 20
1671.016776011811
 30
0.0
 40
7.0
  0
LINE
  5
134A
330
1F
100
AcDbEntity
  8
CENTER
  6
CENTER
100
AcDbLine
 10
2619.783889673758
 20
1671.016776011811
 30
0.0
 11
2625.783889673758
 21
1671.016776011811
 31
0.0
  0
LINE
  5
134B
330
1F
100
AcDbEntity
  8
CENTER
  6
CENTER
100
AcDbLine
 10
2615.783889673758
 20
1671.016776011811
 30
0.0
 11
2609.783889673758
 21
1671.016776011811
 31
0.0
  0
LINE
  5
134C
330
1F
100
AcDbEntity
  8
CENTER
  6
CENTER
100
AcDbLine
 10
2617.783889673758
 20
1669.016776011811
 30
0.0
 11
2617.783889673758
 21
1663.016776011811
 31
0.0
  0
LINE
  5
134D
330
1F
100
AcDbEntity
  8
CENTER
  6
CENTER
100
AcDbLine
 10
2616.783889673758
 20
1671.016776011811
 30
0.0
 11
2618.783889673758
 21
1671.016776011811
 31
0.0
  0
LINE
  5
134E
330
1F
100
AcDbEntity
  8
CENTER
  6
CENTER
100
AcDbLine
 10
2617.783889673758
 20
1670.016776011811
 30
0.0
 11
2617.783889673758
 21
1672.016776011811
 31
0.0
  0
LINE
  5
134F
330
1F
100
AcDbEntity
  8
HIDDEN
  6
HIDDEN
100
AcDbLine
 10
2527.274281433982
 20
1596.7117776287
 30
0.0
 11
2521.274281433981
 21
1596.7117776287
 31
0.0
  0
LINE
  5
1350
330
1F
100
AcDbEntity
  8
0
 62
     7
100
AcDbLine
 10
2527.274281433982
 20
1614.711777628701
 30
0.0
 11
2521.274281433981
 21
1614.711777628701
 31
0.0
  0
LINE
  5
1351
330
1F
100
AcDbEntity
  8
0
 62
     7
100
AcDbLine
 10
2527.274281433982
 20
1614.711777628701
 30
0.0
 11
2521.274281433981
 21
1614.711777628701
 31
0.0
  0
LINE
  5
1352
330
1F
100
AcDbEntity
  8
0
 62
     7
100
AcDbLine
 10
2527.274281433982
 20
1614.711777628701
 30
0.0
 11
2521.274281433981
 21
1614.711777628701
 31
0.0
  0
LINE
  5
1353
330
1F
100
AcDbEntity
  8
CENTER
  6
CENTER
100
AcDbLine
 10
2663.783889673758
 20
1722.746835744643
 30
0.0
 11
2663.783889673758
 21
1644.933357803716
 31
0.0
  0
LINE
  5
1354
330
1F
100
AcDbEntity
  8
CENTER
  6
CENTER
100
AcDbLine
 10
2707.783889673758
 20
1671.016776011811
 30
0.0
 11
2701.783889673758
 21
1671.016776011811
 31
0.0
  0
LINE
  5
1355
330
1F
100
AcDbEntity
  8
0
100
AcDbLine
 10
2647.168889673758
 20
1714.016776011811
 30
0.0
 11
2647.168889673758
 21
1708.016776011811
 31
0.0
  0
LINE
  5
1356
330
1F
100
AcDbEntity
  8
0
100
AcDbLine
 10
2680.398889673758
 20
1714.016776011811
 30
0.0
 11
2680.398889673758
 21
1708.016776011811
 31
0.0
  0
LINE
  5
1357
330
1F
100
AcDbEntity
  8
0
100
AcDbLine
 10
2722.783889673758
 20
1714.016776011811
 30
0.0
 11
2722.783889673758
 21
1658.016776011811
 31
0.0
  0
ARC
  5
1358
330
1F
100
AcDbEntity
  8
0
100
AcDbCircle
 10
2718.783889673758
 20
1658.016776011811
 30
0.0
 40
4.0
100
AcDbArc
 50
270.0
 51
0.0
  0
LINE
  5
1359
330
1F
100
AcDbEntity
  8
CENTER
  6
CENTER
100
AcDbLine
 10
2709.783889673758
 20
1673.016776011811
 30
0.0
 11
2709.783889673758
 21
1679.016776011811
 31
0.0
  0
LINE
  5
135A
330
1F
100
AcDbEntity
  8
CENTER
  6
CENTER
100
AcDbLine
 10
2711.783889673758
 20
1671.016776011811
 30
0.0
 11
2717.783889673758
 21
1671.016776011811
 31
0.0
  0
LINE
  5
135B
330
1F
100
AcDbEntity
  8
CENTER
  6
CENTER
100
AcDbLine
 10
2709.783889673758
 20
1669.016776011811
 30
0.0
 11
2709.783889673758
 21
1663.016776011811
 31
0.0
  0
LINE
  5
135C
330
1F
100
AcDbEntity
  8
CENTER
  6
CENTER
100
AcDbLine
 10
2709.783889673758
 20
1670.016776011811
 30
0.0
 11
2709.783889673758
 21
1672.016776011811
 31
0.0
  0
LINE
  5
135D
330
1F
100
AcDbEntity
  8
CENTER
  6
CENTER
100
AcDbLine
 10
2642.899151024999
 20
1419.050554892884
 30
0.0
 11
2642.899151024999
 21
1287.050554892884
 31
0.0
  0
LINE
  5
135E
330
1F
100
AcDbEntity
  8
0
100
AcDbLine
 10
2732.899151024999
 20
1414.550554892884
 30
0.0
 11
2732.899151024999
 21
1291.550554892884
 31
0.0
  0
LINE
  5
135F
330
1F
100
AcDbEntity
  8
0
100
AcDbLine
 10
2552.899151024999
 20
1414.550554892884
 30
0.0
 11
2552.899151024999
 21
1291.550554892884
 31
0.0
  0
LINE
  5
1360
330
1F
100
AcDbEntity
  8
0
100
AcDbLine
 10
2553.399151024999
 20
1415.050554892884
 30
0.0
 11
2732.399151024999
 21
1415.050554892884
 31
0.0
  0
LINE
  5
1361
330
1F
100
AcDbEntity
  8
0
100
AcDbLine
 10
2529.550183116957
 20
1415.050554892884
 30
0.0
 11
2529.550183116957
 21
1291.050554892884
 31
0.0
  0
LINE
  5
1362
330
1F
100
AcDbEntity
  8
0
100
AcDbLine
 10
2511.550183116957
 20
1415.050554892884
 30
0.0
 11
2511.550183116957
 21
1291.050554892884
 31
0.0
  0
LINE
  5
1363
330
1F
100
AcDbEntity
  8
0
100
AcDbLine
 10
2553.399151024999
 20
1291.050554892884
 30
0.0
 11
2732.399151024999
 21
1291.050554892884
 31
0.0
  0
LINE
  5
1364
330
1F
100
AcDbEntity
  8
CENTER
  6
CENTER
100
AcDbLine
 10
2548.899151024999
 20
1353.050554892884
 30
0.0
 11
2736.899151024999
 21
1353.050554892884
 31
0.0
  0
CIRCLE
  5
1365
330
1F
100
AcDbEntity
  8
0
100
AcDbCircle
 10
2717.899151024999
 20
1307.050554892884
 30
0.0
 40
7.0
  0
CIRCLE
  5
1366
330
1F
100
AcDbEntity
  8
0
100
AcDbCircle
 10
2687.899151024999
 20
1308.050554892884
 30
0.0
 40
11.5
  0
CIRCLE
  5
1367
330
1F
100
AcDbEntity
  8
0
100
AcDbCircle
 10
2687.899151024999
 20
1308.050554892884
 30
0.0
 40
7.0
  0
LINE
  5
1368
330
1F
100
AcDbEntity
  8
CENTER
  6
CENTER
100
AcDbLine
 10
2716.899151024999
 20
1307.050554892884
 30
0.0
 11
2718.899151024999
 21
1307.050554892884
 31
0.0
  0
LINE
  5
1369
330
1F
100
AcDbEntity
  8
CENTER
  6
CENTER
100
AcDbLine
 10
2717.899151024999
 20
1306.050554892884
 30
0.0
 11
2717.899151024999
 21
1308.050554892884
 31
0.0
  0
LINE
  5
136A
330
1F
100
AcDbEntity
  8
CENTER
  6
CENTER
100
AcDbLine
 10
2715.899151024999
 20
1307.050554892884
 30
0.0
 11
2709.899151024999
 21
1307.050554892884
 31
0.0
  0
LINE
  5
136B
330
1F
100
AcDbEntity
  8
CENTER
  6
CENTER
100
AcDbLine
 10
2719.899151024999
 20
1307.050554892884
 30
0.0
 11
2725.899151024999
 21
1307.050554892884
 31
0.0
  0
LINE
  5
136C
330
1F
100
AcDbEntity
  8
CENTER
  6
CENTER
100
AcDbLine
 10
2717.899151024999
 20
1305.050554892884
 30
0.0
 11
2717.899151024999
 21
1299.050554892884
 31
0.0
  0
LINE
  5
136D
330
1F
100
AcDbEntity
  8
CENTER
  6
CENTER
100
AcDbLine
 10
2717.899151024999
 20
1309.050554892884
 30
0.0
 11
2717.899151024999
 21
1315.050554892884
 31
0.0
  0
CIRCLE
  5
136E
330
1F
100
AcDbEntity
  8
0
100
AcDbCircle
 10
2687.899151024999
 20
1308.050554892884
 30
0.0
 40
11.5
  0
LINE
  5
136F
330
1F
100
AcDbEntity
  8
CENTER
  6
CENTER
100
AcDbLine
 10
2701.399151024999
 20
1308.050554892884
 30
0.0
 11
2674.399151024999
 21
1308.050554892884
 31
0.0
  0
CIRCLE
  5
1370
330
1F
100
AcDbEntity
  8
0
100
AcDbCircle
 10
2687.899151024999
 20
1308.050554892884
 30
0.0
 40
7.0
  0
LINE
  5
1371
330
1F
100
AcDbEntity
  8
CENTER
  6
CENTER
100
AcDbLine
 10
2687.899151024999
 20
1321.550554892884
 30
0.0
 11
2687.899151024999
 21
1294.550554892884
 31
0.0
  0
LINE
  5
1375
330
1F
100
AcDbEntity
  8
CENTER
  6
CENTER
100
AcDbLine
 10
2509.550183116957
 20
1399.050554892884
 30
0.0
 11
2531.550183116957
 21
1399.050554892884
 31
0.0
  0
LINE
  5
1376
330
1F
100
AcDbEntity
  8
CENTER
  6
CENTER
100
AcDbLine
 10
2719.899151024999
 20
1399.050554892884
 30
0.0
 11
2725.899151024999
 21
1399.050554892884
 31
0.0
  0
CIRCLE
  5
1377
330
1F
100
AcDbEntity
  8
0
100
AcDbCircle
 10
2717.899151024999
 20
1399.050554892884
 30
0.0
 40
7.0
  0
LINE
  5
1378
330
1F
100
AcDbEntity
  8
CENTER
  6
CENTER
100
AcDbLine
 10
2717.899151024999
 20
1401.050554892884
 30
0.0
 11
2717.899151024999
 21
1407.050554892884
 31
0.0
  0
LINE
  5
1379
330
1F
100
AcDbEntity
  8
CENTER
  6
CENTER
100
AcDbLine
 10
2717.899151024999
 20
1397.050554892884
 30
0.0
 11
2717.899151024999
 21
1391.050554892884
 31
0.0
  0
LINE
  5
137A
330
1F
100
AcDbEntity
  8
CENTER
  6
CENTER
100
AcDbLine
 10
2715.899151024999
 20
1399.050554892884
 30
0.0
 11
2709.899151024999
 21
1399.050554892884
 31
0.0
  0
LINE
  5
137B
330
1F
100
AcDbEntity
  8
CENTER
  6
CENTER
100
AcDbLine
 10
2716.899151024999
 20
1399.050554892884
 30
0.0
 11
2718.899151024999
 21
1399.050554892884
 31
0.0
  0
LINE
  5
137C
330
1F
100
AcDbEntity
  8
CENTER
  6
CENTER
100
AcDbLine
 10
2717.899151024999
 20
1400.050554892884
 30
0.0
 11
2717.899151024999
 21
1398.050554892884
 31
0.0
  0
LINE
  5
137D
330
1F
100
AcDbEntity
  8
CENTER
  6
CENTER
100
AcDbLine
 10
2565.899151024999
 20
1307.050554892884
 30
0.0
 11
2559.899151024999
 21
1307.050554892884
 31
0.0
  0
CIRCLE
  5
137E
330
1F
100
AcDbEntity
  8
0
100
AcDbCircle
 10
2567.899151024999
 20
1307.050554892884
 30
0.0
 40
7.0
  0
LINE
  5
137F
330
1F
100
AcDbEntity
  8
CENTER
  6
CENTER
100
AcDbLine
 10
2567.899151024999
 20
1305.050554892884
 30
0.0
 11
2567.899151024999
 21
1299.050554892884
 31
0.0
  0
LINE
  5
1380
330
1F
100
AcDbEntity
  8
CENTER
  6
CENTER
100
AcDbLine
 10
2567.899151024999
 20
1309.050554892884
 30
0.0
 11
2567.899151024999
 21
1315.050554892884
 31
0.0
  0
LINE
  5
1381
330
1F
100
AcDbEntity
  8
CENTER
  6
CENTER
100
AcDbLine
 10
2569.899151024999
 20
1307.050554892884
 30
0.0
 11
2575.899151024999
 21
1307.050554892884
 31
0.0
  0
LINE
  5
1382
330
1F
100
AcDbEntity
  8
CENTER
  6
CENTER
100
AcDbLine
 10
2568.899151024999
 20
1307.050554892884
 30
0.0
 11
2566.899151024999
 21
1307.050554892884
 31
0.0
  0
LINE
  5
1383
330
1F
100
AcDbEntity
  8
CENTER
  6
CENTER
100
AcDbLine
 10
2567.899151024999
 20
1306.050554892884
 30
0.0
 11
2567.899151024999
 21
1308.050554892884
 31
0.0
  0
LINE
  5
1384
330
1F
100
AcDbEntity
  8
CENTER
  6
CENTER
100
AcDbLine
 10
2567.899151024999
 20
1401.050554892884
 30
0.0
 11
2567.899151024999
 21
1407.050554892884
 31
0.0
  0
CIRCLE
  5
1385
330
1F
100
AcDbEntity
  8
0
100
AcDbCircle
 10
2567.899151024999
 20
1399.050554892884
 30
0.0
 40
7.0
  0
LINE
  5
1386
330
1F
100
AcDbEntity
  8
CENTER
  6
CENTER
100
AcDbLine
 10
2565.899151024999
 20
1399.050554892884
 30
0.0
 11
2559.899151024999
 21
1399.050554892884
 31
0.0
  0
LINE
  5
1387
330
1F
100
AcDbEntity
  8
CENTER
  6
CENTER
100
AcDbLine
 10
2567.899151024999
 20
1397.050554892884
 30
0.0
 11
2567.899151024999
 21
1391.050554892884
 31
0.0
  0
LINE
  5
1388
330
1F
100
AcDbEntity
  8
CENTER
  6
CENTER
100
AcDbLine
 10
2569.899151024999
 20
1399.050554892884
 30
0.0
 11
2575.899151024999
 21
1399.050554892884
 31
0.0
  0
LINE
  5
1389
330
1F
100
AcDbEntity
  8
CENTER
  6
CENTER
100
AcDbLine
 10
2567.899151024999
 20
1400.050554892884
 30
0.0
 11
2567.899151024999
 21
1398.050554892884
 31
0.0
  0
LINE
  5
138A
330
1F
100
AcDbEntity
  8
CENTER
  6
CENTER
100
AcDbLine
 10
2568.899151024999
 20
1399.050554892884
 30
0.0
 11
2566.899151024999
 21
1399.050554892884
 31
0.0
  0
CIRCLE
  5
138B
330
1F
100
AcDbEntity
  8
0
100
AcDbCircle
 10
2687.899151024999
 20
1398.050554892884
 30
0.0
 40
7.0
  0
CIRCLE
  5
138C
330
1F
100
AcDbEntity
  8
0
100
AcDbCircle
 10
2687.899151024999
 20
1398.050554892884
 30
0.0
 40
7.0
  0
CIRCLE
  5
138D
330
1F
100
AcDbEntity
  8
0
100
AcDbCircle
 10
2687.899151024999
 20
1398.050554892884
 30
0.0
 40
11.5
  0
CIRCLE
  5
138E
330
1F
100
AcDbEntity
  8
0
100
AcDbCircle
 10
2687.899151024999
 20
1398.050554892884
 30
0.0
 40
11.5
  0
LINE
  5
138F
330
1F
100
AcDbEntity
  8
CENTER
  6
CENTER
100
AcDbLine
 10
2701.399151024999
 20
1398.050554892884
 30
0.0
 11
2674.399151024999
 21
1398.050554892884
 31
0.0
  0
LINE
  5
1390
330
1F
100
AcDbEntity
  8
CENTER
  6
CENTER
100
AcDbLine
 10
2687.899151024999
 20
1384.550554892884
 30
0.0
 11
2687.899151024999
 21
1411.550554892884
 31
0.0
  0
LINE
  5
1391
330
1F
100
AcDbEntity
  8
CENTER
  6
CENTER
100
AcDbLine
 10
2584.399151024999
 20
1398.050554892884
 30
0.0
 11
2611.399151025
 21
1398.050554892884
 31
0.0
  0
CIRCLE
  5
1392
330
1F
100
AcDbEntity
  8
0
100
AcDbCircle
 10
2597.899151024999
 20
1398.050554892884
 30
0.0
 40
11.5
  0
CIRCLE
  5
1393
330
1F
100
AcDbEntity
  8
0
100
AcDbCircle
 10
2597.899151024999
 20
1398.050554892884
 30
0.0
 40
11.5
  0
CIRCLE
  5
1394
330
1F
100
AcDbEntity
  8
0
100
AcDbCircle
 10
2597.899151024999
 20
1398.050554892884
 30
0.0
 40
7.0
  0
CIRCLE
  5
1395
330
1F
100
AcDbEntity
  8
0
100
AcDbCircle
 10
2597.899151024999
 20
1398.050554892884
 30
0.0
 40
7.0
  0
LINE
  5
1396
330
1F
100
AcDbEntity
  8
CENTER
  6
CENTER
100
AcDbLine
 10
2597.899151024999
 20
1384.550554892884
 30
0.0
 11
2597.899151024999
 21
1411.550554892884
 31
0.0
  0
CIRCLE
  5
1397
330
1F
100
AcDbEntity
  8
0
100
AcDbCircle
 10
2597.899151024999
 20
1308.050554892884
 30
0.0
 40
7.0
  0
CIRCLE
  5
1398
330
1F
100
AcDbEntity
  8
0
100
AcDbCircle
 10
2597.899151024999
 20
1308.050554892884
 30
0.0
 40
7.0
  0
CIRCLE
  5
1399
330
1F
100
AcDbEntity
  8
0
100
AcDbCircle
 10
2597.899151024999
 20
1308.050554892884
 30
0.0
 40
11.5
  0
CIRCLE
  5
139A
330
1F
100
AcDbEntity
  8
0
100
AcDbCircle
 10
2597.899151024999
 20
1308.050554892884
 30
0.0
 40
11.5
  0
LINE
  5
139B
330
1F
100
AcDbEntity
  8
CENTER
  6
CENTER
100
AcDbLine
 10
2584.399151024999
 20
1308.050554892884
 30
0.0
 11
2611.399151025
 21
1308.050554892884
 31
0.0
  0
LINE
  5
139C
330
1F
100
AcDbEntity
  8
CENTER
  6
CENTER
100
AcDbLine
 10
2597.899151024999
 20
1321.550554892884
 30
0.0
 11
2597.899151024999
 21
1294.550554892884
 31
0.0
  0
LINE
  5
139D
330
1F
100
AcDbEntity
  8
0
100
AcDbLine
 10
2732.899151024999
 20
1414.550554892884
 30
0.0
 11
2732.399151024999
 21
1415.050554892884
 31
0.0
  0
LINE
  5
139E
330
1F
100
AcDbEntity
  8
0
100
AcDbLine
 10
2732.899151024999
 20
1291.550554892884
 30
0.0
 11
2732.399151024999
 21
1291.050554892884
 31
0.0
  0
LINE
  5
139F
330
1F
100
AcDbEntity
  8
0
100
AcDbLine
 10
2553.399151024999
 20
1291.050554892884
 30
0.0
 11
2552.899151024999
 21
1291.550554892884
 31
0.0
  0
LINE
  5
13A0
330
1F
100
AcDbEntity
  8
0
100
AcDbLine
 10
2553.399151024999
 20
1415.050554892884
 30
0.0
 11
2552.899151024999
 21
1414.550554892884
 31
0.0
  0
CIRCLE
  5
13A1
330
1F
100
AcDbEntity
  8
0
100
AcDbCircle
 10
2642.899151024999
 20
1353.050554892884
 30
0.0
 40
26.0
  0
LINE
  5
13A2
330
1F
100
AcDbEntity
  8
0
100
AcDbLine
 10
2511.550183116957
 20
1415.050554892884
 30
0.0
 11
2529.550183116957
 21
1415.050554892884
 31
0.0
  0
LINE
  5
13A3
330
1F
100
AcDbEntity
  8
0
100
AcDbLine
 10
2511.550183116957
 20
1291.050554892884
 30
0.0
 11
2529.550183116957
 21
1291.050554892884
 31
0.0
  0
LINE
  5
13A4
330
1F
100
AcDbEntity
  8
CENTER
  6
CENTER
100
AcDbLine
 10
2509.550183116957
 20
1353.050554892884
 30
0.0
 11
2531.550183116957
 21
1353.050554892884
 31
0.0
  0
LINE
  5
13A5
330
1F
100
AcDbEntity
  8
HIDDEN
  6
HIDDEN
100
AcDbLine
 10
2511.550183116957
 20
1379.050554892884
 30
0.0
 11
2529.550183116957
 21
1379.050554892884
 31
0.0
  0
LINE
  5
13A6
330
1F
100
AcDbEntity
  8
HIDDEN
  6
HIDDEN
100
AcDbLine
 10
2511.550183116957
 20
1327.050554892884
 30
0.0
 11
2529.550183116957
 21
1327.050554892884
 31
0.0
  0
LINE
  5
13A7
330
1F
100
AcDbEntity
  8
HIDDEN
  6
HIDDEN
100
AcDbLine
 10
2511.550183116957
 20
1406.050554892884
 30
0.0
 11
2529.550183116957
 21
1406.050554892884
 31
0.0
  0
LINE
  5
13A8
330
1F
100
AcDbEntity
  8
HIDDEN
  6
HIDDEN
100
AcDbLine
 10
2511.550183116957
 20
1392.050554892884
 30
0.0
 11
2529.550183116957
 21
1392.050554892884
 31
0.0
  0
LINE
  5
13A9
330
1F
100
AcDbEntity
  8
HIDDEN
  6
HIDDEN
100
AcDbLine
 10
2511.550183116957
 20
1314.050554892884
 30
0.0
 11
2529.550183116957
 21
1314.050554892884
 31
0.0
  0
LINE
  5
13AA
330
1F
100
AcDbEntity
  8
HIDDEN
  6
HIDDEN
100
AcDbLine
 10
2511.550183116957
 20
1300.050554892884
 30
0.0
 11
2529.550183116957
 21
1300.050554892884
 31
0.0
  0
LINE
  5
13AB
330
1F
100
AcDbEntity
  8
CENTER
  6
CENTER
100
AcDbLine
 10
2509.550183116957
 20
1307.050554892884
 30
0.0
 11
2531.550183116957
 21
1307.050554892884
 31
0.0
  0
LINE
  5
13AC
330
1F
100
AcDbEntity
  8
0
100
AcDbLine
 10
2732.899151024999
 20
1450.491698957786
 30
0.0
 11
2552.899151024999
 21
1450.491698957786
 31
0.0
  0
LINE
  5
13AD
330
1F
100
AcDbEntity
  8
0
100
AcDbLine
 10
2732.899151024999
 20
1468.491698957786
 30
0.0
 11
2552.899151024999
 21
1468.491698957786
 31
0.0
  0
LINE
  5
13AE
330
1F
100
AcDbEntity
  8
0
100
AcDbLine
 10
2552.899151024999
 20
1468.491698957786
 30
0.0
 11
2552.899151024999
 21
1450.491698957786
 31
0.0
  0
LINE
  5
13AF
330
1F
100
AcDbEntity
  8
HIDDEN
  6
HIDDEN
100
AcDbLine
 10
2560.899151024999
 20
1468.491698957786
 30
0.0
 11
2560.899151024999
 21
1450.491698957787
 31
0.0
  0
LINE
  5
13B1
330
1F
100
AcDbEntity
  8
HIDDEN
  6
HIDDEN
100
AcDbLine
 10
2574.899151024999
 20
1468.491698957786
 30
0.0
 11
2574.899151024999
 21
1450.491698957787
 31
0.0
  0
LINE
  5
13B2
330
1F
100
AcDbEntity
  8
CENTER
  6
CENTER
100
AcDbLine
 10
2567.899151024999
 20
1470.491698957786
 30
0.0
 11
2567.899151024999
 21
1448.491698957786
 31
0.0
  0
LINE
  5
13B3
330
1F
100
AcDbEntity
  8
HIDDEN
  6
HIDDEN
100
AcDbLine
 10
2616.899151024999
 20
1468.491698957786
 30
0.0
 11
2616.899151024999
 21
1450.491698957786
 31
0.0
  0
LINE
  5
13B5
330
1F
100
AcDbEntity
  8
CENTER
  6
CENTER
100
AcDbLine
 10
2642.899151024999
 20
1470.491698957786
 30
0.0
 11
2642.899151024999
 21
1448.491698957786
 31
0.0
  0
LINE
  5
13B6
330
1F
100
AcDbEntity
  8
HIDDEN
  6
HIDDEN
100
AcDbLine
 10
2668.899151024999
 20
1468.491698957786
 30
0.0
 11
2668.899151024999
 21
1450.491698957786
 31
0.0
  0
LINE
  5
13B8
330
1F
100
AcDbEntity
  8
CENTER
  6
CENTER
100
AcDbLine
 10
2717.899151024999
 20
1470.491698957786
 30
0.0
 11
2717.899151024999
 21
1448.491698957786
 31
0.0
  0
LINE
  5
13B9
330
1F
100
AcDbEntity
  8
HIDDEN
  6
HIDDEN
100
AcDbLine
 10
2710.899151024999
 20
1468.491698957786
 30
0.0
 11
2710.899151024999
 21
1450.491698957787
 31
0.0
  0
LINE
  5
13BA
330
1F
100
AcDbEntity
  8
0
100
AcDbLine
 10
2732.899151024999
 20
1468.491698957786
 30
0.0
 11
2732.899151024999
 21
1450.491698957786
 31
0.0
  0
LINE
  5
13BB
330
1F
100
AcDbEntity
  8
HIDDEN
  6
HIDDEN
100
AcDbLine
 10
2724.899151024999
 20
1468.491698957786
 30
0.0
 11
2724.899151024999
 21
1450.491698957787
 31
0.0
  0
LINE
  5
13C2
330
1F
100
AcDbEntity
  8
0
 62
     4
100
AcDbLine
 10
2472.063739625764
 20
1752.112155500651
 30
0.0
 11
2472.063739625764
 21
1256.582511685462
 31
0.0
  0
LINE
  5
13C3
330
1F
100
AcDbEntity
  8
0
 62
     4
100
AcDbLine
 10
2472.063739625764
 20
1527.02451078217
 30
0.0
 11
2785.224934183182
 21
1527.02451078217
 31
0.0
  0
TEXT
  5
13C6
330
1F
100
AcDbEntity
  8
0
100
AcDbText
 10
2484.389258435249
 20
1714.405199964845
 30
0.0
 40
12.012
  1
LB
100
AcDbText
  0
TEXT
  5
13C8
330
1F
100
AcDbEntity
  8
0
100
AcDbText
 10
2484.389258435249
 20
1492.086956082238
 30
0.0
 40
12.012
  1
FAC
100
AcDbText
  0
ENDSEC
  0
SECTION
  2
OBJECTS
  0
DICTIONARY
  5
C
330
0
100
AcDbDictionary
281
     1
  3
ACAD_COLOR
350
BE
  3
ACAD_GROUP
350
D
  3
ACAD_LAYOUT
350
1A
  3
ACAD_MATERIAL
350
BD
  3
ACAD_MLINESTYLE
350
17
  3
ACAD_PLOTSETTINGS
350
19
  3
ACAD_PLOTSTYLENAME
350
E
  3
ACAD_TABLESTYLE
350
11A
  3
ACDBHEADERROUNDTRIPXREC
350
1458
  3
AcDbVariableDictionary
350
94
  3
AcmDictionary
350
5B
  3
AMG
350
41
  3
AMGSNAPSETTINGS
350
1B8
  3
DWGPROPS
350
1457
  0
DICTIONARY
  5
3F9
330
2
100
AcDbDictionary
280
     1
281
     1
  3
ACAD_LAYERFILTERS
360
13C0
  3
ACAD_LAYERSTATES
360
7A7
  3
ACLYDICTIONARY
360
13BF
  0
DICTIONARY
  5
8F
330
1F
100
AcDbDictionary
280
     1
281
     1
  0
DICTIONARY
  5
BE
102
{ACAD_REACTORS
330
C
102
}
330
C
100
AcDbDictionary
281
     1
  0
DICTIONARY
  5
D
102
{ACAD_REACTORS
330
C
102
}
330
C
100
AcDbDictionary
281
     1
  0
DICTIONARY
  5
1A
102
{ACAD_REACTORS
330
C
102
}
330
C
100
AcDbDictionary
281
     1
  3
Model
350
22
  3
配置1
350
1E
  3
配置2
350
26
  0
DICTIONARY
  5
BD
102
{ACAD_REACTORS
330
C
102
}
330
C
100
AcDbDictionary
281
     1
  0
DICTIONARY
  5
17
102
{ACAD_REACTORS
330
C
102
}
330
C
100
AcDbDictionary
281
     1
  3
Standard
350
18
  0
DICTIONARY
  5
19
102
{ACAD_REACTORS
330
C
102
}
330
C
100
AcDbDictionary
281
     1
  0
ACDBDICTIONARYWDFLT
  5
E
102
{ACAD_REACTORS
330
C
102
}
330
C
100
AcDbDictionary
281
     1
  3
Normal
350
F
100
AcDbDictionaryWithDefault
340
F
  0
DICTIONARY
  5
11A
102
{ACAD_REACTORS
330
C
102
}
330
C
100
AcDbDictionary
281
     1
  3
Standard
350
11B
  0
DICTIONARY
  5
1458
102
{ACAD_REACTORS
330
C
102
}
330
C
100
AcDbDictionary
281
     1
  0
DICTIONARY
  5
94
102
{ACAD_REACTORS
330
C
102
}
330
C
100
AcDbDictionary
281
     1
  3
CTABLESTYLE
350
138
  3
DIMASSOC
350
96
  3
INDEXCTL
350
95
  3
PROJECTNAME
350
1455
  0
DICTIONARY
  5
5B
102
{ACAD_REACTORS
330
C
102
}
330
C
100
AcDbDictionary
281
     1
  3
AcmBOM
350
1B5
  3
AcmStdDictionary
350
61
  3
AMDTSECTSYM_ARROWCOLOR
350
123
  0
DICTIONARY
  5
41
102
{ACAD_REACTORS
330
C
102
}
330
C
100
AcDbDictionary
281
     1
  0
DICTIONARY
  5
1B8
102
{ACAD_REACTORS
330
C
102
}
330
C
100
AcDbDictionary
281
     1
  0
XRECORD
  5
1457
102
{ACAD_REACTORS
330
C
102
}
330
C
100
AcDbXrecord
280
     1
  1
DWGPROPS COOKIE
  2

  3

  4

  6

  7

  8

  9

300
AmdtFileType=84
301
=
302
=
303
=
304
=
305
=
306
=
307
=
308
=
309
=
 40
0.1671753935185185
 41
2453516.660980903
 42
2453517.562777593
  1

 90
        1
  0
DICTIONARY
  5
13C0
102
{ACAD_REACTORS
330
3F9
102
}
330
3F9
100
AcDbDictionary
281
     1
  0
DICTIONARY
  5
7A7
102
{ACAD_REACTORS
330
3F9
102
}
330
3F9
100
AcDbDictionary
281
     1
  0
DICTIONARY
  5
13BF
102
{ACAD_REACTORS
330
3F9
102
}
330
3F9
100
AcDbDictionary
281
     1
1001
ACAD
1000
<All
  0
LAYOUT
  5
22
102
{ACAD_XDICTIONARY
360
145B
102
}
102
{ACAD_REACTORS
330
1A
102
}
330
1A
100
AcDbPlotSettings
  1

  2
\\RD\EPSON Stylus C63 Series單色
  4
A4
  6

 40
3.757083177566528
 41
3.757076978683471
 42
3.757080078125
 43
3.757080078125
 44
209.9733276367187
 45
296.9683227539062
 46
0.0
 47
0.0
 48
0.0
 49
0.0
140
0.0
141
0.0
142
1.0
143
3.45746775369062
 70
 11952
 72
     1
 73
     1
 74
     0
  7

 75
     0
147
0.2892290170841262
148
-1914.387244336378
149
-1204.813212086026
100
AcDbLayout
  1
Model
 70
     1
 71
     0
 10
0.0
 20
0.0
 11
12.0
 21
9.0
 12
0.0
 22
0.0
 32
0.0
 14
0.0
 24
0.0
 34
0.0
 15
0.0
 25
0.0
 35
0.0
146
0.0
 13
0.0
 23
0.0
 33
0.0
 16
1.0
 26
0.0
 36
0.0
 17
0.0
 27
1.0
 37
0.0
 76
     0
330
1F
1001
ACAD_PSEXT
1000
\\RD\EPSON Stylus C63 Series單色
1000
EPSON Stylus C63 Series
1000
\\RD
1000

1070
     0
  0
LAYOUT
  5
1E
102
{ACAD_XDICTIONARY
360
1459
102
}
102
{ACAD_REACTORS
330
1A
102
}
330
1A
100
AcDbPlotSettings
  1

  2

  4

  6

 40
0.0
 41
0.0
 42
0.0
 43
0.0
 44
0.0
 45
0.0
 46
0.0
 47
0.0
 48
0.0
 49
0.0
140
0.0
141
0.0
142
1.0
143
1.0
 70
   688
 72
     0
 73
     0
 74
     5
  7

 75
    16
147
1.0
148
0.0
149
0.0
100
AcDbLayout
  1
配置1
 70
     1
 71
     1
 10
0.0
 20
0.0
 11
420.0
 21
297.0
 12
0.0
 22
0.0
 32
0.0
 14
1.000000000000000E+20
 24
1.000000000000000E+20
 34
1.000000000000000E+20
 15
-1.000000000000000E+20
 25
-1.000000000000000E+20
 35
-1.000000000000000E+20
146
0.0
 13
0.0
 23
0.0
 33
0.0
 16
1.0
 26
0.0
 36
0.0
 17
0.0
 27
1.0
 37
0.0
 76
     0
330
1B
  0
LAYOUT
  5
26
102
{ACAD_XDICTIONARY
360
145D
102
}
102
{ACAD_REACTORS
330
1A
102
}
330
1A
100
AcDbPlotSettings
  1

  2

  4

  6

 40
0.0
 41
0.0
 42
0.0
 43
0.0
 44
0.0
 45
0.0
 46
0.0
 47
0.0
 48
0.0
 49
0.0
140
0.0
141
0.0
142
1.0
143
1.0
 70
   688
 72
     0
 73
     0
 74
     5
  7

 75
    16
147
1.0
148
0.0
149
0.0
100
AcDbLayout
  1
配置2
 70
     1
 71
     2
 10
0.0
 20
0.0
 11
12.0
 21
9.0
 12
0.0
 22
0.0
 32
0.0
 14
0.0
 24
0.0
 34
0.0
 15
0.0
 25
0.0
 35
0.0
146
0.0
 13
0.0
 23
0.0
 33
0.0
 16
1.0
 26
0.0
 36
0.0
 17
0.0
 27
1.0
 37
0.0
 76
     0
330
23
  0
MLINESTYLE
  5
18
102
{ACAD_REACTORS
330
17
102
}
330
17
100
AcDbMlineStyle
  2
STANDARD
 70
     0
  3

 62
   256
 51
90.0
 52
90.0
 71
     2
 49
0.5
 62
   256
  6
BYLAYER
 49
-0.5
 62
   256
  6
BYLAYER
  0
ACDBPLACEHOLDER
  5
F
102
{ACAD_REACTORS
330
E
102
}
330
E
  0
TABLESTYLE
  5
11B
102
{ACAD_REACTORS
330
11A
102
}
330
11A
100
AcDbTableStyle
  3
Standard
 70
     0
 71
     0
 40
1.5
 41
1.5
280
     0
281
     0
  7
STANDARD
140
4.5
170
     2
 62
     0
 63
     7
283
     0
274
    -2
284
     1
 64
     0
275
    -2
285
     1
 65
     0
276
    -2
286
     1
 66
     0
277
    -2
287
     1
 67
     0
278
    -2
288
     1
 68
     0
279
    -2
289
     1
 69
     0
  7
STANDARD
140
6.0
170
     5
 62
     0
 63
     7
283
     0
274
    -2
284
     1
 64
     0
275
    -2
285
     1
 65
     0
276
    -2
286
     1
 66
     0
277
    -2
287
     1
 67
     0
278
    -2
288
     1
 68
     0
279
    -2
289
     1
 69
     0
  7
STANDARD
140
4.5
170
     5
 62
     0
 63
     7
283
     0
274
    -2
284
     1
 64
     0
275
    -2
285
     1
 65
     0
276
    -2
286
     1
 66
     0
277
    -2
287
     1
 67
     0
278
    -2
288
     1
 68
     0
279
    -2
289
     1
 69
     0
  0
DICTIONARYVAR
  5
138
102
{ACAD_REACTORS
330
94
102
}
330
94
100
DictionaryVariables
280
     0
  1
STANDARD
  0
DICTIONARYVAR
  5
96
102
{ACAD_REACTORS
330
94
102
}
330
94
100
DictionaryVariables
280
     0
  1
2
  0
DICTIONARYVAR
  5
95
102
{ACAD_REACTORS
330
94
102
}
330
94
100
DictionaryVariables
280
     0
  1
0
  0
DICTIONARYVAR
  5
1455
102
{ACAD_REACTORS
330
94
102
}
330
94
100
DictionaryVariables
280
     0
  1

  0
DICTIONARY
  5
1B5
102
{ACAD_REACTORS
330
5B
102
}
330
5B
100
AcDbDictionary
281
     1
  0
DICTIONARY
  5
61
102
{ACAD_REACTORS
330
5B
102
}
330
5B
100
AcDbDictionary
281
     1
  0
XRECORD
  5
123
102
{ACAD_REACTORS
330
5B
102
}
330
5B
100
AcDbXrecord
280
     1
 90
-1023410169
  0
DICTIONARY
  5
145B
330
22
100
AcDbDictionary
280
     1
281
     1
  3
ACAD_XREC_ROUNDTRIP
360
145C
  0
DICTIONARY
  5
1459
330
1E
100
AcDbDictionary
280
     1
281
     1
  3
ACAD_XREC_ROUNDTRIP
360
145A
  0
DICTIONARY
  5
145D
330
26
100
AcDbDictionary
280
     1
281
     1
  3
ACAD_XREC_ROUNDTRIP
360
145E
  0
XRECORD
  5
145C
102
{ACAD_REACTORS
330
145B
102
}
330
145B
100
AcDbXrecord
280
     1
102
SHADEPLOT
 70
     0
102
SHADEPLOTRESLEVEL
 70
     2
102
SHADEPLOTCUSTOMDPI
 70
   300
  0
XRECORD
  5
145A
102
{ACAD_REACTORS
330
1459
102
}
330
1459
100
AcDbXrecord
280
     1
102
SHADEPLOT
 70
     0
102
SHADEPLOTRESLEVEL
 70
     2
102
SHADEPLOTCUSTOMDPI
 70
   300
  0
XRECORD
  5
145E
102
{ACAD_REACTORS
330
145D
102
}
330
145D
100
AcDbXrecord
280
     1
102
SHADEPLOT
 70
     0
102
SHADEPLOTRESLEVEL
 70
     2
102
SHADEPLOTCUSTOMDPI
 70
   300
  0
ENDSEC
  0
EOF
