  0
SECTION
  2
HEADER
  9
$ACADVER
  1
AC1015
  9
$ACADMAINTVER
 70
    20
  9
$DWGCODEPAGE
  3
ANSI_950
  9
$INSBASE
 10
0.0
 20
0.0
 30
0.0
  9
$EXTMIN
 10
2070.524269757559
 20
1226.724000145055
 30
-0.0209842289294784
  9
$EXTMAX
 10
2986.114897645279
 20
1816.210011024239
 30
317.4196305071327
  9
$LIMMIN
 10
0.0
 20
0.0
  9
$LIMMAX
 10
420.0
 20
297.0
  9
$ORTHOMODE
 70
     1
  9
$REGENMODE
 70
     1
  9
$FILLMODE
 70
     1
  9
$QTEXTMODE
 70
     0
  9
$MIRRTEXT
 70
     1
  9
$LTSCALE
 40
1.0
  9
$ATTMODE
 70
     1
  9
$TEXTSIZE
 40
3.0
  9
$TRACEWID
 40
1.0
  9
$TEXTSTYLE
  7
CHINESET
  9
$CLAYER
  8
0
  9
$CELTYPE
  6
ByLayer
  9
$CECOLOR
 62
   256
  9
$CELTSCALE
 40
1.0
  9
$DISPSILH
 70
     0
  9
$DIMSCALE
 40
1.0
  9
$DIMASZ
 40
6.0
  9
$DIMEXO
 40
1.0
  9
$DIMDLI
 40
14.0
  9
$DIMRND
 40
0.0
  9
$DIMDLE
 40
0.0
  9
$DIMEXE
 40
1.5
  9
$DIMTP
 40
0.1
  9
$DIMTM
 40
0.1
  9
$DIMTXT
 40
6.0
  9
$DIMCEN
 40
0.0
  9
$DIMTSZ
 40
0.0
  9
$DIMTOL
 70
     0
  9
$DIMLIM
 70
     0
  9
$DIMTIH
 70
     0
  9
$DIMTOH
 70
     0
  9
$DIMSE1
 70
     0
  9
$DIMSE2
 70
     0
  9
$DIMTAD
 70
     1
  9
$DIMZIN
 70
     9
  9
$DIMBLK
  1

  9
$DIMASO
 70
     1
  9
$DIMSHO
 70
     1
  9
$DIMPOST
  1

  9
$DIMAPOST
  1
"
  9
$DIMALT
 70
     0
  9
$DIMALTD
 70
     2
  9
$DIMALTF
 40
0.0393701
  9
$DIMLFAC
 40
1.0
  9
$DIMTOFL
 70
     1
  9
$DIMTVP
 40
0.0
  9
$DIMTIX
 70
     0
  9
$DIMSOXD
 70
     0
  9
$DIMSAH
 70
     0
  9
$DIMBLK1
  1

  9
$DIMBLK2
  1

  9
$DIMSTYLE
  2
AM_ISO
  9
$DIMCLRD
 70
   256
  9
$DIMCLRE
 70
   256
  9
$DIMCLRT
 70
   256
  9
$DIMTFAC
 40
0.71
  9
$DIMGAP
 40
1.5
  9
$DIMJUST
 70
     0
  9
$DIMSD1
 70
     0
  9
$DIMSD2
 70
     0
  9
$DIMTOLJ
 70
     2
  9
$DIMTZIN
 70
     8
  9
$DIMALTZ
 70
     0
  9
$DIMALTTZ
 70
     0
  9
$DIMUPT
 70
     0
  9
$DIMDEC
 70
     2
  9
$DIMTDEC
 70
     8
  9
$DIMALTU
 70
     2
  9
$DIMALTTD
 70
     2
  9
$DIMTXSTY
  7
STANDARD
  9
$DIMAUNIT
 70
     0
  9
$DIMADEC
 70
     0
  9
$DIMALTRND
 40
0.0
  9
$DIMAZIN
 70
     2
  9
$DIMDSEP
 70
    46
  9
$DIMATFIT
 70
     3
  9
$DIMFRAC
 70
     0
  9
$DIMLDRBLK
  1

  9
$DIMLUNIT
 70
     2
  9
$DIMLWD
 70
    -1
  9
$DIMLWE
 70
    -1
  9
$DIMTMOVE
 70
     0
  9
$LUNITS
 70
     2
  9
$LUPREC
 70
     2
  9
$SKETCHINC
 40
1.0
  9
$FILLETRAD
 40
15.0
  9
$AUNITS
 70
     0
  9
$AUPREC
 70
     0
  9
$MENU
  1
.
  9
$ELEVATION
 40
0.0
  9
$PELEVATION
 40
0.0
  9
$THICKNESS
 40
0.0
  9
$LIMCHECK
 70
     0
  9
$CHAMFERA
 40
2.5
  9
$CHAMFERB
 40
2.5
  9
$CHAMFERC
 40
20.0
  9
$CHAMFERD
 40
0.0
  9
$SKPOLY
 70
     0
  9
$TDCREATE
 40
2453516.660980903
  9
$TDUCREATE
 40
2453516.327647569
  9
$TDUPDATE
 40
2453517.563595556
  9
$TDUUPDATE
 40
2453517.230262222
  9
$TDINDWG
 40
0.2526050810
  9
$TDUSRTIMER
 40
0.2526050810
  9
$USRTIMER
 70
     1
  9
$ANGBASE
 50
0.0
  9
$ANGDIR
 70
     0
  9
$PDMODE
 70
     0
  9
$PDSIZE
 40
0.0
  9
$PLINEWID
 40
0.0
  9
$SPLFRAME
 70
     0
  9
$SPLINETYPE
 70
     6
  9
$SPLINESEGS
 70
     8
  9
$HANDSEED
  5
2D43
  9
$SURFTAB1
 70
     6
  9
$SURFTAB2
 70
     6
  9
$SURFTYPE
 70
     6
  9
$SURFU
 70
     6
  9
$SURFV
 70
     6
  9
$UCSBASE
  2

  9
$UCSNAME
  2

  9
$UCSORG
 10
0.0
 20
0.0
 30
0.0
  9
$UCSXDIR
 10
1.0
 20
0.0
 30
0.0
  9
$UCSYDIR
 10
0.0
 20
1.0
 30
0.0
  9
$UCSORTHOREF
  2

  9
$UCSORTHOVIEW
 70
     0
  9
$UCSORGTOP
 10
0.0
 20
0.0
 30
0.0
  9
$UCSORGBOTTOM
 10
0.0
 20
0.0
 30
0.0
  9
$UCSORGLEFT
 10
0.0
 20
0.0
 30
0.0
  9
$UCSORGRIGHT
 10
0.0
 20
0.0
 30
0.0
  9
$UCSORGFRONT
 10
0.0
 20
0.0
 30
0.0
  9
$UCSORGBACK
 10
0.0
 20
0.0
 30
0.0
  9
$PUCSBASE
  2

  9
$PUCSNAME
  2

  9
$PUCSORG
 10
0.0
 20
0.0
 30
0.0
  9
$PUCSXDIR
 10
1.0
 20
0.0
 30
0.0
  9
$PUCSYDIR
 10
0.0
 20
1.0
 30
0.0
  9
$PUCSORTHOREF
  2

  9
$PUCSORTHOVIEW
 70
     0
  9
$PUCSORGTOP
 10
0.0
 20
0.0
 30
0.0
  9
$PUCSORGBOTTOM
 10
0.0
 20
0.0
 30
0.0
  9
$PUCSORGLEFT
 10
0.0
 20
0.0
 30
0.0
  9
$PUCSORGRIGHT
 10
0.0
 20
0.0
 30
0.0
  9
$PUCSORGFRONT
 10
0.0
 20
0.0
 30
0.0
  9
$PUCSORGBACK
 10
0.0
 20
0.0
 30
0.0
  9
$USERI1
 70
     0
  9
$USERI2
 70
     0
  9
$USERI3
 70
     0
  9
$USERI4
 70
     0
  9
$USERI5
 70
     0
  9
$USERR1
 40
0.0
  9
$USERR2
 40
0.0
  9
$USERR3
 40
0.0
  9
$USERR4
 40
0.0
  9
$USERR5
 40
0.0
  9
$WORLDVIEW
 70
     1
  9
$SHADEDGE
 70
     3
  9
$SHADEDIF
 70
    70
  9
$TILEMODE
 70
     1
  9
$MAXACTVP
 70
    64
  9
$PINSBASE
 10
0.0
 20
0.0
 30
0.0
  9
$PLIMCHECK
 70
     0
  9
$PEXTMIN
 10
1.000000000000000E+20
 20
1.000000000000000E+20
 30
1.000000000000000E+20
  9
$PEXTMAX
 10
-1.000000000000000E+20
 20
-1.000000000000000E+20
 30
-1.000000000000000E+20
  9
$PLIMMIN
 10
0.0
 20
0.0
  9
$PLIMMAX
 10
420.0
 20
297.0
  9
$UNITMODE
 70
     0
  9
$VISRETAIN
 70
     1
  9
$PLINEGEN
 70
     0
  9
$PSLTSCALE
 70
     1
  9
$TREEDEPTH
 70
  3020
  9
$CMLSTYLE
  2
Standard
  9
$CMLJUST
 70
     0
  9
$CMLSCALE
 40
20.0
  9
$PROXYGRAPHICS
 70
     1
  9
$MEASUREMENT
 70
     1
  9
$CELWEIGHT
370
    -1
  9
$ENDCAPS
280
     0
  9
$JOINSTYLE
280
     0
  9
$LWDISPLAY
290
     0
  9
$INSUNITS
 70
     4
  9
$HYPERLINKBASE
  1

  9
$STYLESHEET
  1
彩色出圖.ctb
  9
$XEDIT
290
     1
  9
$CEPSNTYPE
380
     0
  9
$PSTYLEMODE
290
     1
  9
$FINGERPRINTGUID
  2
{29CC662F-A346-429B-BD7A-24EDE505A841}
  9
$VERSIONGUID
  2
{2BD58269-FD18-4DF0-A778-56452E8611BD}
  9
$EXTNAMES
290
     1
  9
$PSVPSCALE
 40
0.0
  9
$OLESTARTUP
290
     0
  0
ENDSEC
  0
SECTION
  2
CLASSES
  0
CLASS
  1
ACDBDICTIONARYWDFLT
  2
AcDbDictionaryWithDefault
  3
ObjectDBX Classes
 90
        0
280
     0
281
     0
  0
CLASS
  1
ACDBPLACEHOLDER
  2
AcDbPlaceHolder
  3
ObjectDBX Classes
 90
        0
280
     0
281
     0
  0
CLASS
  1
LAYOUT
  2
AcDbLayout
  3
ObjectDBX Classes
 90
        0
280
     0
281
     0
  0
CLASS
  1
ACME_DOCUMENT
  2
AcMeDbDoc
  3
AcMeServices
 90
        0
280
     0
281
     0
  0
CLASS
  1
AMGSETTINGSOBJ
  2
AmgSettingsObj
  3
"AcadM|Product Description: AutoCAD Mechanical 2000|Company: Autodesk"
 90
        0
280
     0
281
     0
  0
CLASS
  1
ACMESCOPE
  2
AcMeScope
  3
AcMeServices
 90
        0
280
     0
281
     0
  0
CLASS
  1
ACMECOMMANDHISTORY
  2
AcMeCommandHistory
  3
AcMeServices
 90
        0
280
     0
281
     0
  0
CLASS
  1
ACIMSYSVARMAN
  2
AcImSysVarManager
  3
AcMeServices
 90
        0
280
     0
281
     0
  0
CLASS
  1
ACIMREALSYSVAR
  2
AcImRealSysVar
  3
AcMeServices
 90
        0
280
     0
281
     0
  0
CLASS
  1
ACIMINTSYSVAR
  2
AcImIntSysVar
  3
AcMeServices
 90
        0
280
     0
281
     0
  0
CLASS
  1
ACMEDRAWINGMAN
  2
AcMeDrawingMan
  3
AcMeServices
 90
        0
280
     0
281
     0
  0
CLASS
  1
ACMEVIEW
  2
AcMeView
  3
AcMeServices
 90
        0
280
     0
281
     0
  0
CLASS
  1
ACDBENTITYCACHE
  2
AcMeEntityCache
  3
AcMeServices
 90
        0
280
     0
281
     0
  0
CLASS
  1
GSMANAGER
  2
AcMeGSManager
  3
AcMeServices
 90
        0
280
     0
281
     0
  0
CLASS
  1
AMDTINTERNALREACTOR
  2
AmdtInternalReactor
  3
AcMeServices
 90
        0
280
     0
281
     0
  0
CLASS
  1
ACMESTATEMGR
  2
AcMeStateMgr
  3
AcMeServices
 90
        0
280
     0
281
     0
  0
CLASS
  1
ACGREFMASTER
  2
AcGrefMaster
  3
AcAttribServices
 90
        0
280
     0
281
     0
  0
CLASS
  1
ACME_DATABASE
  2
AcMeDbDatabase
  3
AcMeServices
 90
        0
280
     0
281
     0
  0
CLASS
  1
ACRFINSADJUSTERMGR
  2
AcRfInsAdjusterMgr
  3
AcMeServices
 90
        0
280
     0
281
     0
  0
CLASS
  1
ACGREFACADMASTER
  2
AcGrefacadMaster
  3
AcGrefServices
 90
        0
280
     0
281
     0
  0
CLASS
  1
AMIMASTER
  2
AmiMaster
  3
AmiServices
 90
        0
280
     0
281
     0
  0
CLASS
  1
ACMDATADICTIONARY
  2
AcmDataDictionary
  3
"AcmSymBB|Product Description: AutoCAD Mechanical 2004 DX|Company: Autodesk"
 90
        0
280
     0
281
     0
  0
CLASS
  1
ACMDATAENTRYBLOCK
  2
AcmDataEntryBlock
  3
"AcmSymBB|Product Description: AutoCAD Mechanical 2004 DX|Company: Autodesk"
 90
        0
280
     0
281
     0
  0
CLASS
  1
ACIMSTRSYSVAR
  2
AcImStrSysVar
  3
AcMeServices
 90
        0
280
     0
281
     0
  0
CLASS
  1
ACMSTANDARDISO
  2
AcmStandardISO
  3
"Amdt_StdImp|Product Description: AutoCAD Mechanical 2004 DX|Company: Autodesk"
 90
        0
280
     0
281
     0
  0
CLASS
  1
AMGOBJPROPCFG
  2
AmgObjPropCfg
  3
"AmgLay|Product Description: AutoCAD Mechanical 2000|Company: Autodesk"
 90
        1
280
     0
281
     0
  0
CLASS
  1
AMDTEDGESTANDARDISO
  2
AmdtEdgeStdISO
  3
"Amdt_StdImp|Product Description: AutoCAD Mechanical 2004 DX|Company: Autodesk"
 90
        0
280
     0
281
     0
  0
CLASS
  1
ACMSURFSTANDARDISO
  2
AcmSurfTextStdISO
  3
"Amdt_StdImp|Product Description: AutoCAD Mechanical 2004 DX|Company: Autodesk"
 90
        0
280
     0
281
     0
  0
CLASS
  1
ACMFCFSTANDARDISO
  2
AcmFCFStdISO
  3
"Amdt_StdImp|Product Description: AutoCAD Mechanical 2004 DX|Company: Autodesk"
 90
        0
280
     0
281
     0
  0
CLASS
  1
ACMWELDSTANDARDISO
  2
AcmWeldingStdISO
  3
"Amdt_StdImp|Product Description: AutoCAD Mechanical 2004 DX|Company: Autodesk"
 90
        0
280
     0
281
     0
  0
CLASS
  1
ACMIDSTANDARDISO
  2
AcmIdStdISO
  3
"Amdt_StdImp|Product Description: AutoCAD Mechanical 2004 DX|Company: Autodesk"
 90
        0
280
     0
281
     0
  0
CLASS
  1
ACMDATUMSTANDARDISO
  2
AcmDatumStdISO
  3
"Amdt_StdImp|Product Description: AutoCAD Mechanical 2004 DX|Company: Autodesk"
 90
        0
280
     0
281
     0
  0
CLASS
  1
ACMBOMSTANDARDISO
  2
AcmBOMStdISO
  3
"Amdt_StdImp|Product Description: AutoCAD Mechanical 2004 DX|Company: Autodesk"
 90
        0
280
     0
281
     0
  0
CLASS
  1
ACMDETAILSTANDARDISO
  2
AmdtDetailSymStdISO
  3
"Amdt_StdImp|Product Description: AutoCAD Mechanical 2004 DX|Company: Autodesk"
 90
        0
280
     0
281
     0
  0
CLASS
  1
ACMSECTIONSTANDARDISO
  2
AmdtSectionSymStdISO
  3
"Amdt_StdImp|Product Description: AutoCAD Mechanical 2004 DX|Company: Autodesk"
 90
        0
280
     0
281
     0
  0
CLASS
  1
ACMCENTERLINESTANDARDISO
  2
AmdtCenterLineStdISO
  3
"Amdt_StdImp|Product Description: AutoCAD Mechanical 2004 DX|Company: Autodesk"
 90
        0
280
     0
281
     0
  0
CLASS
  1
ACMNOTESTANDARDISO
  2
AmdtNoteStdISO
  3
"Amdt_StdImp|Product Description: AutoCAD Mechanical 2004 DX|Company: Autodesk"
 90
        0
280
     0
281
     0
  0
CLASS
  1
ACAMGLAYSTD
  2
AcAmgLayStd
  3
"AcAmgLayStd|Product Description: AutoCAD Mechanical 2000|Company: Autodesk"
 90
        0
280
     0
281
     0
  0
CLASS
  1
ACAMGDIMSTD
  2
AcAmgDimStd
  3
"AcAmgDimStd|Product Description: AutoCAD Mechanical 2000|Company: Autodesk"
 90
        0
280
     0
281
     0
  0
CLASS
  1
ACAMGHOLECHARTSTDISO
  2
AcAmgHoleChartStdISO
  3
ACMSYMBB_MODULE_NAME
 90
        0
280
     0
281
     0
  0
CLASS
  1
ACAMGTITLESTD
  2
AcAmgTitleStd
  3
"TITLEAPP"
 90
        0
280
     0
281
     0
  0
CLASS
  1
LAYER_INDEX
  2
AcDbLayerIndex
  3
ObjectDBX Classes
 90
    32768
280
     0
281
     0
  0
CLASS
  1
IDBUFFER
  2
AcDbIdBuffer
  3
ObjectDBX Classes
 90
    32768
280
     0
281
     0
  0
CLASS
  1
DICTIONARYVAR
  2
AcDbDictionaryVar
  3
ObjectDBX Classes
 90
        0
280
     0
281
     0
  0
CLASS
  1
AM_DRAWING_MGR
  2
AcDmDwgMgr
  3
AcMechDwgViewMgmt
 90
        0
280
     0
281
     0
  0
CLASS
  1
AM_DWG_DOCUMENT
  2
AcDmDwgDocument
  3
AcMechDwgViewMgmt
 90
        0
280
     0
281
     0
  0
CLASS
  1
AM_DWG_SHEET
  2
AcDmSheet
  3
AcMechDwgViewMgmt
 90
        0
280
     0
281
     0
  0
CLASS
  1
AM_VIEWDIMPARMAP
  2
AcDmViewDimParMap
  3
AcMechDwgViewMgmt
 90
        0
280
     0
281
     0
  0
CLASS
  1
AM_DWGMGR_NAME
  2
AcDmDwgMgrName
  3
AcMechDwgViewMgmt
 90
        0
280
     0
281
     0
  0
CLASS
  1
AMDTMENUSTATEMGR
  2
AmdtMenuStateMgr
  3
McadcomServices
 90
        0
280
     0
281
     0
  0
CLASS
  1
AMDTMCOMMENUSTATE
  2
AmdtMcomMenuState
  3
McadcomServices
 90
        0
280
     0
281
     0
  0
CLASS
  1
MAPIAMMOUDLE
  2
MApiAmModule
  3
MApiAmServices
 90
        0
280
     0
281
     0
  0
CLASS
  1
AMDTADMENUSTATE
  2
AmdtAdMenuState
  3
DesignerServices
 90
        0
280
     0
281
     0
  0
CLASS
  1
ADAPPL
  2
AcAdAppl
  3
DesignerServices
 90
        0
280
     0
281
     0
  0
CLASS
  1
DEPMGR
  2
AcAdDepMgr
  3
DesignerServices
 90
        0
280
     0
281
     0
  0
CLASS
  1
PARAMMGR
  2
AcAdParamMgr
  3
DesignerServices
 90
        0
280
     0
281
     0
  0
CLASS
  1
PARAMSCOPE
  2
AcAdParamScope
  3
DesignerServices
 90
        0
280
     0
281
     0
  0
CLASS
  1
NAMEDAPPL
  2
AcAdNamedAppl
  3
DesignerServices
 90
        0
280
     0
281
     0
  0
CLASS
  1
AMDTDMMENUSTATE
  2
AmdtDmMenuState
  3
AcMechDwgViewMgmt
 90
        0
280
     0
281
     0
  0
CLASS
  1
AMDTAMMENUSTATE
  2
AmdtAmMenuState
  3
DesignerAssemblies
 90
        0
280
     0
281
     0
  0
CLASS
  1
ACAMPROJECT
  2
AcAmProject
  3
DesignerAssemblies
 90
        0
280
     0
281
     0
  0
CLASS
  1
ACAMGRCOMPDEF
  2
AcAmGrCompDef
  3
DesignerAssemblies
 90
        0
280
     0
281
     0
  0
CLASS
  1
ACCMCONTEXT
  2
AcCmContext
  3
DesignerAssemblies
 90
        0
280
     0
281
     0
  0
CLASS
  1
ACAMCOMPDEF
  2
AcAmCompDef
  3
DesignerAssemblies
 90
        0
280
     0
281
     0
  0
CLASS
  1
ACAMCOMPDEFMGR
  2
AcAmCompDefMgr
  3
DesignerAssemblies
 90
        0
280
     0
281
     0
  0
CLASS
  1
AMCONTEXTMGR
  2
AcAmContextMgr
  3
DesignerAssemblies
 90
        0
280
     0
281
     0
  0
CLASS
  1
ACAMCONTEXTMODELER
  2
AcAmContextModeler
  3
DesignerAssemblies
 90
        0
280
     0
281
     0
  0
CLASS
  1
ACMTHREADLINESTANDARDISO
  2
AmdtThreadLineStdISO
  3
"Amdt_StdImp|Product Description: AutoCAD Mechanical 2004 DX|Company: Autodesk"
 90
        0
280
     0
281
     0
  0
CLASS
  1
CATALOGSTATE
  2
AcAmCatalogState
  3
DesignerAssemblies
 90
        0
280
     0
281
     0
  0
CLASS
  1
ACAMGRCOMPDEFSET
  2
AcAmGrCompDefSet
  3
DesignerAssemblies
 90
        0
280
     0
281
     0
  0
CLASS
  1
AMDTBROWSERDBTAB
  2
AmdtBrowserDbTab
  3
McadcomServices
 90
        0
280
     0
281
     0
  0
CLASS
  1
CBROWSERAPPOBJECT
  2
CBrowserAppObject
  3
McadcomServices
 90
        0
280
     0
281
     0
  0
CLASS
  1
DM_PLACEHOLDER
  2
AcDmSelsetPlaceholder
  3
AcMechDwgViewMgmt
 90
        0
280
     0
281
     0
  0
CLASS
  1
TABLESTYLE
  2
AcDbTableStyle
  3
ObjectDBX Classes
 90
     2047
280
     0
281
     0
  0
CLASS
  1
VAACXREFPANELOBJECT
  2
VaAcXREFPanelObject
  3
VAAC_ADDIN
 90
        0
280
     0
281
     0
  0
CLASS
  1
VAACIMAGEINVENTORY
  2
VaAcImageInventory
  3
VAAC_ADDIN
 90
        0
280
     0
281
     0
  0
CLASS
  1
AMDTNOTETEMPLATEDB
  2
AmdtNoteTemplateDB
  3
AMDT_STDIMP_MODULE_NAME
 90
        0
280
     0
281
     0
  0
CLASS
  1
ACMBOM
  2
AcmBom
  3
"AcmSymBB|Product Description: AutoCAD Mechanical 2004 DX|Company: Autodesk"
 90
    32768
280
     0
281
     0
  0
CLASS
  1
AMDTFORMULAUPDATEDISPATCHER
  2
AmdtFormulaUpdateDispatcher
  3
AcMeServices
 90
    32768
280
     0
281
     0
  0
CLASS
  1
ACMPARTLIST
  2
AcmPartList
  3
"AcmSymBB|Product Description: AutoCAD Mechanical 2004 DX|Company: Autodesk"
 90
    33791
280
     0
281
     1
  0
CLASS
  1
ACAMGFILTERDAT
  2
AcAmgFilterDat
  3
"AcadM|Product Description: AutoCAD Mechanical 2000|Company: Autodesk"
 90
        0
280
     0
281
     0
  0
CLASS
  1
DIMASSOC
  2
AcDbDimAssoc
  3
"AcDbDimAssoc|Product Desc:     AcDim ARX App For Dimension|Company:          Autodesk, Inc.|WEB Address:      www.autodesk.com"
 90
        0
280
     0
281
     0
  0
CLASS
  1
AMDTNOTE
  2
AmdtNote
  3
"AcmSymBB|Product Description: AutoCAD Mechanical 2004 DX|Company: Autodesk"
 90
     1023
280
     0
281
     1
  0
CLASS
  1
SORTENTSTABLE
  2
AcDbSortentsTable
  3
ObjectDBX Classes
 90
        0
280
     0
281
     0
  0
CLASS
  1
ACMSTANDARDANSI
  2
AcmStandardANSI
  3
"Amdt_StdImp|Product Description: AutoCAD Mechanical 2004 DX|Company: Autodesk"
 90
        0
280
     0
281
     0
  0
CLASS
  1
ACMSURFSTANDARDANSI
  2
AcmSurfTextStdANSI
  3
"Amdt_StdImp|Product Description: AutoCAD Mechanical 2004 DX|Company: Autodesk"
 90
        0
280
     0
281
     0
  0
CLASS
  1
ACMFCFSTANDARDANSI
  2
AcmFCFStdANSI
  3
"Amdt_StdImp|Product Description: AutoCAD Mechanical 2004 DX|Company: Autodesk"
 90
        0
280
     0
281
     0
  0
CLASS
  1
ACMWELDSTANDARDANSI
  2
AcmWeldingStdANSI
  3
"Amdt_StdImp|Product Description: AutoCAD Mechanical 2004 DX|Company: Autodesk"
 90
        0
280
     0
281
     0
  0
CLASS
  1
ACMIDSTANDARDANSI
  2
AcmIdStdANSI
  3
"Amdt_StdImp|Product Description: AutoCAD Mechanical 2004 DX|Company: Autodesk"
 90
        0
280
     0
281
     0
  0
CLASS
  1
ACMDATUMSTANDARDANSI
  2
AcmDatumStdANSI
  3
"Amdt_StdImp|Product Description: AutoCAD Mechanical 2004 DX|Company: Autodesk"
 90
        0
280
     0
281
     0
  0
CLASS
  1
ACMBOMSTANDARDANSI
  2
AcmBOMStdANSI
  3
"Amdt_StdImp|Product Description: AutoCAD Mechanical 2004 DX|Company: Autodesk"
 90
        0
280
     0
281
     0
  0
CLASS
  1
ACMDETAILSTANDARDANSI
  2
AmdtDetailSymStdANSI
  3
"Amdt_StdImp|Product Description: AutoCAD Mechanical 2004 DX|Company: Autodesk"
 90
        0
280
     0
281
     0
  0
CLASS
  1
ACMSECTIONSTANDARDANSI
  2
AmdtSectionSymStdANSI
  3
"Amdt_StdImp|Product Description: AutoCAD Mechanical 2004 DX|Company: Autodesk"
 90
        0
280
     0
281
     0
  0
CLASS
  1
ACMCENTERLINESTANDARDANSI
  2
AmdtCenterLineStdANSI
  3
"Amdt_StdImp|Product Description: AutoCAD Mechanical 2004 DX|Company: Autodesk"
 90
        0
280
     0
281
     0
  0
CLASS
  1
ACMTHREADLINESTANDARDANSI
  2
AmdtThreadLineStdANSI
  3
"Amdt_StdImp|Product Description: AutoCAD Mechanical 2004 DX|Company: Autodesk"
 90
        0
280
     0
281
     0
  0
CLASS
  1
ACMNOTESTANDARDANSI
  2
AmdtNoteStdANSI
  3
"Amdt_StdImp|Product Description: AutoCAD Mechanical 2004 DX|Company: Autodesk"
 90
        0
280
     0
281
     0
  0
CLASS
  1
ACAMGHOLECHARTSTDANSI
  2
AcAmgHoleChartStdANSI
  3
ACMSYMBB_MODULE_NAME
 90
        0
280
     0
281
     0
  0
CLASS
  1
STDPART2D
  2
AmgStdPart
  3
"AmgStdPart|Product Description: AutoCAD Mechanical 2000|Company: Autodesk"
 90
    33791
280
     0
281
     1
  0
CLASS
  1
ACAMSTDPCOMPDEF
  2
AcAmStdpCompDef
  3
DesignerAssemblies
 90
    32768
280
     0
281
     0
  0
CLASS
  1
ACRFATTGENMGR
  2
AcRfAttGeneralMgr
  3
AcAttribServices
 90
        0
280
     0
281
     0
  0
CLASS
  1
ACRFOBJATTMGR
  2
AcRfObjAttGroupMgr
  3
AcAttribServices
 90
    32768
280
     0
281
     0
  0
CLASS
  1
ACRFMCADAPIATTHOLDER
  2
AcRfMCADAPIAttHolder
  3
AcAttribServices
 90
    32768
280
     0
281
     0
  0
CLASS
  1
AMDTSYSATTR
  2
AmdtSystemAttribute
  3
AcAttribServices
 90
    32768
280
     0
281
     0
  0
CLASS
  1
ACAMCOMP
  2
AcAmComp
  3
DesignerAssemblies
 90
    32768
280
     0
281
     0
  0
CLASS
  1
AC_AM_STDP_VIEW_DEF
  2
AcAmStdpViewDef
  3
DesignerAssemblies
 90
    32768
280
     0
281
     0
  0
CLASS
  1
AC_AM_MVD_DEP_MGR
  2
AcAmMVDdepMgr
  3
DesignerAssemblies
 90
        0
280
     0
281
     0
  0
CLASS
  1
AC_AM_MASTER_VIEW_DEF
  2
AcAmMasterViewDef
  3
DesignerAssemblies
 90
        0
280
     0
281
     0
  0
CLASS
  1
AC_AM_DIRTY_NODES
  2
AcAmDirtyNodes
  3
DesignerAssemblies
 90
        0
280
     0
281
     0
  0
CLASS
  1
AC_AM_MAPPER_CACHE
  2
AcAmMapperCache
  3
DesignerAssemblies
 90
        0
280
     0
281
     0
  0
CLASS
  1
ACAMMVDBACKUPOBJECT
  2
AcAmMVDBackupObject
  3
DesignerAssemblies
 90
        0
280
     0
281
     0
  0
CLASS
  1
AC_AM_COMP_VIEW_INST
  2
AcAmCompView
  3
DesignerAssemblies
 90
    32768
280
     0
281
     0
  0
CLASS
  1
AC_AM_2D_XREF_MGR
  2
AcAmXrefMgr2d
  3
DesignerAssemblies
 90
        0
280
     0
281
     0
  0
ENDSEC
  0
SECTION
  2
TABLES
  0
TABLE
  2
VPORT
  5
8
330
0
100
AcDbSymbolTable
 70
     3
  0
VPORT
  5
2D3A
330
8
100
AcDbSymbolTableRecord
100
AcDbViewportTableRecord
  2
*Active
 70
     0
 10
0.0
 20
0.0
 11
1.0
 21
1.0
 12
2528.347868783789
 22
1521.560862435606
 13
0.0
 23
0.0
 14
2.5
 24
2.5
 15
10.0
 25
10.0
 16
0.0
 26
0.0
 36
1.0
 17
0.0
 27
0.0
 37
0.0
 40
596.6057991693674
 41
1.817669172932331
 42
50.0
 43
0.0
 44
0.0
 50
0.0
 51
0.0
 71
     0
 72
   100
 73
     1
 74
     3
 75
     0
 76
     0
 77
     0
 78
     0
281
     0
 65
     1
110
0.0
120
0.0
130
0.0
111
1.0
121
0.0
131
0.0
112
0.0
122
1.0
132
0.0
 79
     0
146
0.0
  0
ENDTAB
  0
TABLE
  2
LTYPE
  5
5
330
0
100
AcDbSymbolTable
 70
    16
  0
LTYPE
  5
14
330
5
100
AcDbSymbolTableRecord
100
AcDbLinetypeTableRecord
  2
ByBlock
 70
     0
  3

 72
    65
 73
     0
 40
0.0
  0
LTYPE
  5
15
330
5
100
AcDbSymbolTableRecord
100
AcDbLinetypeTableRecord
  2
ByLayer
 70
     0
  3

 72
    65
 73
     0
 40
0.0
  0
LTYPE
  5
16
330
5
100
AcDbSymbolTableRecord
100
AcDbLinetypeTableRecord
  2
Continuous
 70
     0
  3
Solid line
 72
    65
 73
     0
 40
0.0
  0
LTYPE
  5
64
330
5
100
AcDbSymbolTableRecord
100
AcDbLinetypeTableRecord
  2
AM_ISO02W050
 70
     0
  3
__ __ __ __ __ __ __ __ __ __ __ __ __ __ __
 72
    65
 73
     2
 40
7.5
 49
6.0
 74
     0
 49
-1.5
 74
     0
  0
LTYPE
  5
65
330
5
100
AcDbSymbolTableRecord
100
AcDbLinetypeTableRecord
  2
AM_ISO08W050
 70
     0
  3
____ . ____ . ____ . ____ . ____ . ____ . ____
 72
    65
 73
     4
 40
18.0
 49
12.0
 74
     0
 49
-1.5
 74
     0
 49
3.0
 74
     0
 49
-1.5
 74
     0
  0
LTYPE
  5
66
330
5
100
AcDbSymbolTableRecord
100
AcDbLinetypeTableRecord
  2
AM_ISO09W050
 70
     0
  3
_____ . . _____ . . _____ . . ____ .. ____
 72
    65
 73
     6
 40
22.5
 49
12.0
 74
     0
 49
-1.5
 74
     0
 49
3.0
 74
     0
 49
-1.5
 74
     0
 49
3.0
 74
     0
 49
-1.5
 74
     0
  0
LTYPE
  5
67
330
5
100
AcDbSymbolTableRecord
100
AcDbLinetypeTableRecord
  2
Amconstr
 70
     0
  3
_______________________
 72
    65
 73
     2
 40
9999.0
 49
9999.0
 74
     0
 49
0.0
 74
     0
  0
LTYPE
  5
68
330
5
100
AcDbSymbolTableRecord
100
AcDbLinetypeTableRecord
  2
AM_ISO08W050x2
 70
     0
  3
__ . __ . __ . __ . __ . __
 72
    65
 73
     4
 40
9.0
 49
6.0
 74
     0
 49
-0.75
 74
     0
 49
1.5
 74
     0
 49
-0.75
 74
     0
  0
LTYPE
  5
69
330
5
100
AcDbSymbolTableRecord
100
AcDbLinetypeTableRecord
  2
AM_ISO02W050x2
 70
     0
  3
 _ _ _ _ _ _ _ _ _ _ _ _
 72
    65
 73
     2
 40
3.75
 49
3.0
 74
     0
 49
-0.75
 74
     0
  0
LTYPE
  5
6C
330
5
100
AcDbSymbolTableRecord
100
AcDbLinetypeTableRecord
  2
Amzigzag
 70
     0
  3
/\/-/\/-/\/-/\/-/\/-/\/
 72
    65
 73
     2
 40
11.0001
 49
0.0001
 74
     4
 75
   135
340
6B
 46
0.04
 50
0.0
 44
0.0
 45
0.0
 49
-11.0
 74
     0
  0
LTYPE
  5
7A
330
5
100
AcDbSymbolTableRecord
100
AcDbLinetypeTableRecord
  2
ACISOWELD
 70
     0
  3
_ _ _ _ _
 72
    65
 73
     2
 40
2.0
 49
2.0
 74
     0
 49
-1.0
 74
     0
  0
LTYPE
  5
7B
330
5
100
AcDbSymbolTableRecord
100
AcDbLinetypeTableRecord
  2
ACISOTGB
 70
     0
  3
__ . . __ . .
 72
    65
 73
     6
 40
9.0
 49
4.0
 74
     0
 49
-1.0
 74
     0
 49
1.0
 74
     0
 49
-1.0
 74
     0
 49
1.0
 74
     0
 49
-1.0
 74
     0
  0
LTYPE
  5
7C
330
5
100
AcDbSymbolTableRecord
100
AcDbLinetypeTableRecord
  2
ACISOTGL
 70
     0
  3
_ _ _ _ _
 72
    65
 73
     2
 40
3.0
 49
2.0
 74
     0
 49
-1.0
 74
     0
  0
LTYPE
  5
7E
330
5
100
AcDbSymbolTableRecord
100
AcDbLinetypeTableRecord
  2
CENTER
 70
     0
  3
__ . __
 72
    65
 73
     4
 40
7.0
 49
4.0
 74
     0
 49
-1.0
 74
     0
 49
1.0
 74
     0
 49
-1.0
 74
     0
  0
LTYPE
  5
D8
330
5
100
AcDbSymbolTableRecord
100
AcDbLinetypeTableRecord
  2
HIDDEN
 70
     0
  3
Hidden __ __ __ __ __ __ __ __ __ __ __ __ __ _
 72
    65
 73
     2
 40
9.524999999999998
 49
6.349999999999999
 74
     0
 49
-3.174999999999999
 74
     0
  0
LTYPE
  5
D9
330
5
100
AcDbSymbolTableRecord
100
AcDbLinetypeTableRecord
  2
PHANTOM2
 70
     0
  3
Phantom (.5x) ___ _ _ ___ _ _ ___ _ _ ___ _ _
 72
    65
 73
     6
 40
31.75
 49
15.875
 74
     0
 49
-3.174999999999999
 74
     0
 49
3.174999999999999
 74
     0
 49
-3.174999999999999
 74
     0
 49
3.174999999999999
 74
     0
 49
-3.174999999999999
 74
     0
  0
LTYPE
  5
1214
330
5
100
AcDbSymbolTableRecord
100
AcDbLinetypeTableRecord
  2
ACANSTGB
 70
     0
  3
__ . . __ . .
 72
    65
 73
     6
 40
0.35433070866
 49
0.15748031496
 74
     0
 49
-0.03937007874
 74
     0
 49
0.03937007874
 74
     0
 49
-0.03937007874
 74
     0
 49
0.03937007874
 74
     0
 49
-0.03937007874
 74
     0
  0
LTYPE
  5
1215
330
5
100
AcDbSymbolTableRecord
100
AcDbLinetypeTableRecord
  2
ACANSTGL
 70
     0
  3
_ _ _ _ _
 72
    65
 73
     2
 40
0.11811023622
 49
0.07874015748
 74
     0
 49
-0.03937007874
 74
     0
  0
ENDTAB
  0
TABLE
  2
LAYER
  5
2
102
{ACAD_XDICTIONARY
360
3F9
102
}
330
0
100
AcDbSymbolTable
 70
    10
  0
LAYER
  5
10
330
2
100
AcDbSymbolTableRecord
100
AcDbLayerTableRecord
  2
0
 70
     0
 62
     7
  6
Continuous
370
    -3
390
F
  0
LAYER
  5
206
330
2
100
AcDbSymbolTableRecord
100
AcDbLayerTableRecord
  2
Defpoints
 70
     0
 62
     7
  6
Continuous
290
     0
370
    -3
390
F
  0
LAYER
  5
5AE
330
2
100
AcDbSymbolTableRecord
100
AcDbLayerTableRecord
  2
AM_7
 70
     0
 62
     1
  6
CENTER
370
    25
390
F
  0
LAYER
  5
7A0
330
2
100
AcDbSymbolTableRecord
100
AcDbLayerTableRecord
  2
AM_5
 70
     0
 62
     5
  6
Continuous
370
    50
390
F
  0
LAYER
  5
7A1
330
2
100
AcDbSymbolTableRecord
100
AcDbLayerTableRecord
  2
AM_4
 70
     0
 62
     3
  6
Continuous
370
    25
390
F
  0
LAYER
  5
7A2
330
2
100
AcDbSymbolTableRecord
100
AcDbLayerTableRecord
  2
AM_0
 70
     0
 62
     7
  6
Continuous
370
    50
390
F
  0
LAYER
  5
7A3
330
2
100
AcDbSymbolTableRecord
100
AcDbLayerTableRecord
  2
CENTER
 70
     0
 62
     1
  6
CENTER
370
    -3
390
F
  0
LAYER
  5
FA9
330
2
100
AcDbSymbolTableRecord
100
AcDbLayerTableRecord
  2
LOGO
 70
     0
 62
     7
  6
Continuous
370
    -3
390
F
  0
LAYER
  5
1217
330
2
100
AcDbSymbolTableRecord
100
AcDbLayerTableRecord
  2
AM_VIS
 70
     2
 62
     7
  6
Continuous
370
    50
390
F
  0
LAYER
  5
2A9E
330
2
100
AcDbSymbolTableRecord
100
AcDbLayerTableRecord
  2
HIDDEN
 70
     0
 62
     3
  6
HIDDEN
370
    -3
390
F
  0
ENDTAB
  0
TABLE
  2
STYLE
  5
3
330
0
100
AcDbSymbolTable
 70
     8
  0
STYLE
  5
11
330
3
100
AcDbSymbolTableRecord
100
AcDbTextStyleTableRecord
  2
STANDARD
 70
     0
 40
0.0
 41
1.0
 50
0.0
 71
     0
 42
3.0
  3
ISOCP.SHX
  4
CHINESET.SHX
  0
STYLE
  5
6B
330
3
100
AcDbSymbolTableRecord
100
AcDbTextStyleTableRecord
  2

 70
     1
 40
0.0
 41
1.0
 50
0.0
 71
     0
 42
2.5
  3
ltypeshp.shx
  4

  0
STYLE
  5
6D
330
3
100
AcDbSymbolTableRecord
100
AcDbTextStyleTableRecord
  2
ACISOTS
 70
     0
 40
1.0
 41
1.0
 50
0.0
 71
     0
 42
1.0
  3
isocp.shx
  4
chineset.shx
  0
STYLE
  5
79
330
3
100
AcDbSymbolTableRecord
100
AcDbTextStyleTableRecord
  2
ACISOGDT
 70
     0
 40
0.0
 41
1.0
 50
0.0
 71
     0
 42
2.5
  3
amgdt.shx
  4
chineset.shx
  0
STYLE
  5
60C
330
3
100
AcDbSymbolTableRecord
100
AcDbTextStyleTableRecord
  2
CHINESET
 70
     0
 40
0.0
 41
1.0
 50
0.0
 71
     0
 42
3.0
  3
simplex.shx
  4
CHINESET.SHX
  0
STYLE
  5
1218
330
3
100
AcDbSymbolTableRecord
100
AcDbTextStyleTableRecord
  2
ACANSTS
 70
     0
 40
1.0
 41
1.0
 50
0.0
 71
     0
 42
1.0
  3
romans.shx
  4
chineset.shx
  0
STYLE
  5
1219
330
3
100
AcDbSymbolTableRecord
100
AcDbTextStyleTableRecord
  2
ACANSGDT
 70
     0
 40
0.0
 41
1.0
 50
0.0
 71
     0
 42
1.0
  3
amgdtans.shx
  4

  0
ENDTAB
  0
TABLE
  2
VIEW
  5
6
330
0
100
AcDbSymbolTable
 70
     0
  0
ENDTAB
  0
TABLE
  2
UCS
  5
7
330
0
100
AcDbSymbolTable
 70
     0
  0
ENDTAB
  0
TABLE
  2
APPID
  5
9
330
0
100
AcDbSymbolTable
 70
    26
  0
APPID
  5
12
330
9
100
AcDbSymbolTableRecord
100
AcDbRegAppTableRecord
  2
ACAD
 70
     0
  0
APPID
  5
46
330
9
100
AcDbSymbolTableRecord
100
AcDbRegAppTableRecord
  2
MCAD_NO_VIS
 70
     0
  0
APPID
  5
47
330
9
100
AcDbSymbolTableRecord
100
AcDbRegAppTableRecord
  2
ACAD_TEMP_GRAPHIC
 70
     0
  0
APPID
  5
58
330
9
100
AcDbSymbolTableRecord
100
AcDbRegAppTableRecord
  2
ACATTRIBSERVICES
 70
     0
  0
APPID
  5
EE
330
9
100
AcDbSymbolTableRecord
100
AcDbRegAppTableRecord
  2
AD_DRAW
 70
     0
  0
APPID
  5
10C
330
9
100
AcDbSymbolTableRecord
100
AcDbRegAppTableRecord
  2
DESIGNERASSEMBLIES
 70
     0
  0
APPID
  5
111
330
9
100
AcDbSymbolTableRecord
100
AcDbRegAppTableRecord
  2
ACADM_DIM_EDIT
 70
     0
  0
APPID
  5
112
330
9
100
AcDbSymbolTableRecord
100
AcDbRegAppTableRecord
  2
AMDT_DM_ADJ
 70
     0
  0
APPID
  5
22C
330
9
100
AcDbSymbolTableRecord
100
AcDbRegAppTableRecord
  2
ACAD_DSTYLE_DIMTEXT_FILL
 70
     0
  0
APPID
  5
452
330
9
100
AcDbSymbolTableRecord
100
AcDbRegAppTableRecord
  2
GENIUS_GENOENT_13
 70
     0
  0
APPID
  5
453
330
9
100
AcDbSymbolTableRecord
100
AcDbRegAppTableRecord
  2
GENIUS_GENOBJ-N-CRS_13
 70
     0
  0
APPID
  5
454
330
9
100
AcDbSymbolTableRecord
100
AcDbRegAppTableRecord
  2
GENIUS_GENOLIS_13
 70
     0
  0
APPID
  5
455
330
9
100
AcDbSymbolTableRecord
100
AcDbRegAppTableRecord
  2
GENIUS_GENODEF_13
 70
     0
  0
APPID
  5
456
330
9
100
AcDbSymbolTableRecord
100
AcDbRegAppTableRecord
  2
GENIUS_GENOREF_13
 70
     0
  0
APPID
  5
7A5
330
9
100
AcDbSymbolTableRecord
100
AcDbRegAppTableRecord
  2
GENIUS_GENOBJ-N-CEN_13
 70
     0
  0
APPID
  5
7A6
330
9
100
AcDbSymbolTableRecord
100
AcDbRegAppTableRecord
  2
GENIUS_GENCEN_19
 70
     0
  0
APPID
  5
FAB
330
9
100
AcDbSymbolTableRecord
100
AcDbRegAppTableRecord
  2
GENIUS_GENREC_14
 70
     0
  0
APPID
  5
FAC
330
9
100
AcDbSymbolTableRecord
100
AcDbRegAppTableRecord
  2
GENIUS_GENOBJ-N-REC_13
 70
     0
  0
APPID
  5
1AAE
330
9
100
AcDbSymbolTableRecord
100
AcDbRegAppTableRecord
  2
GENIUS_GENDTOL_13
 70
     0
  0
APPID
  5
1B1A
330
9
100
AcDbSymbolTableRecord
100
AcDbRegAppTableRecord
  2
ACAD_PSEXT
 70
     0
  0
APPID
  5
2C20
330
9
100
AcDbSymbolTableRecord
100
AcDbRegAppTableRecord
  2
GEVID1117084758
 70
     0
  0
APPID
  5
2C21
330
9
100
AcDbSymbolTableRecord
100
AcDbRegAppTableRecord
  2
GEVDC
 70
     0
  0
APPID
  5
2C22
330
9
100
AcDbSymbolTableRecord
100
AcDbRegAppTableRecord
  2
GEVRADREF
 70
     0
  0
APPID
  5
2C2B
330
9
100
AcDbSymbolTableRecord
100
AcDbRegAppTableRecord
  2
AMG_2DHIDE
 70
     0
  0
APPID
  5
2C2C
330
9
100
AcDbSymbolTableRecord
100
AcDbRegAppTableRecord
  2
AMG_2DSTRUCT_BTR
 70
     0
  0
APPID
  5
2C3D
330
9
100
AcDbSymbolTableRecord
100
AcDbRegAppTableRecord
  2
ACADM_2DVIEW_IGN_NOTIFY
 70
     0
  0
ENDTAB
  0
TABLE
  2
DIMSTYLE
  5
A
330
0
100
AcDbSymbolTable
 70
    16
100
AcDbDimStyleTable
 71
     3
340
81
340
8B
340
86
  0
DIMSTYLE
105
81
330
A
100
AcDbSymbolTableRecord
100
AcDbDimStyleTableRecord
  2
AM_ISO
 70
     0
  4
"
 41
6.0
 42
1.0
 43
14.0
 44
1.5
 47
0.1
 48
0.1
 73
     0
 74
     0
 77
     1
 78
     9
 79
     2
140
6.0
141
0.0
143
0.0393701
146
0.71
147
1.5
172
     1
176
   256
177
   256
178
   256
271
     2
272
     2
283
     2
284
     8
340
11
371
    -1
372
    -1
  0
DIMSTYLE
105
82
330
A
100
AcDbSymbolTableRecord
100
AcDbDimStyleTableRecord
  2
AM_ISO$3
 70
     0
  4
"
 41
6.0
 42
1.0
 43
14.0
 44
1.5
 47
0.1
 48
0.1
 73
     0
 77
     1
 78
     9
 79
     2
140
6.0
141
0.0
143
0.0393701
146
0.71
147
1.5
176
   256
177
   256
178
   256
271
     2
272
     2
283
     2
284
     8
288
     1
289
     0
340
11
371
    -1
372
    -1
  0
DIMSTYLE
105
83
330
A
100
AcDbSymbolTableRecord
100
AcDbDimStyleTableRecord
  2
AM_ISO$4
 70
     0
  4
"
 41
6.0
 42
1.0
 43
14.0
 44
1.5
 47
0.1
 48
0.1
 73
     0
 77
     1
 78
     9
 79
     2
140
6.0
141
0.0
143
0.0393701
146
0.71
147
1.5
176
   256
177
   256
178
   256
271
     2
272
     2
283
     2
284
     8
288
     1
289
     0
340
11
371
    -1
372
    -1
  0
DIMSTYLE
105
84
330
A
100
AcDbSymbolTableRecord
100
AcDbDimStyleTableRecord
  2
AM_ISO$6
 70
     0
  4
"
 41
6.0
 42
1.0
 43
14.0
 44
1.5
 47
0.1
 48
0.1
 73
     0
 74
     0
 78
     9
 79
     2
140
6.0
141
0.0
143
0.0393701
146
0.71
147
1.5
172
     1
176
   256
177
   256
178
   256
271
     2
272
     2
283
     2
284
     8
340
11
371
    -1
372
    -1
  0
DIMSTYLE
105
85
330
A
100
AcDbSymbolTableRecord
100
AcDbDimStyleTableRecord
  2
AM_ISO$7
 70
     0
  4
"
 41
6.0
 42
1.0
 43
14.0
 44
1.5
 47
0.1
 48
0.1
 73
     0
 74
     0
 77
     1
 78
     9
 79
     2
140
5.0
141
0.0
143
0.0393701
146
0.71
147
1.5
172
     1
176
   256
177
   256
178
   256
271
     2
272
     2
283
     2
284
     8
340
11
371
    -1
372
    -1
  0
DIMSTYLE
105
86
330
A
100
AcDbSymbolTableRecord
100
AcDbDimStyleTableRecord
  2
AM_ISO$SF
 70
     0
  4
"
 41
2.5
 42
1.0
 43
10.0
 44
1.0
 47
0.1
 48
0.1
 73
     0
 74
     0
 75
     1
 76
     1
 77
     1
 78
     8
 79
     2
140
3.5
141
0.0
143
0.0393701
146
0.71
147
1.5
172
     1
176
   256
177
   256
178
     2
271
     2
272
     3
274
     4
283
     0
284
     8
340
11
371
    -1
372
    -1
  0
DIMSTYLE
105
8B
330
A
100
AcDbSymbolTableRecord
100
AcDbDimStyleTableRecord
  2
AM_ISO$SH
 70
     0
  4
"
 41
2.5
 42
1.0
 43
10.0
 44
1.0
 47
0.1
 48
0.1
 73
     0
 74
     0
 75
     1
 76
     1
 77
     1
 78
     8
 79
     2
140
3.5
141
0.0
143
0.0393701
144
2.0
146
0.71
147
1.5
172
     1
173
     1
176
   256
177
   256
178
     2
271
     2
272
     3
274
     4
283
     0
284
     8
340
11
343
87
371
    -1
372
    -1
  0
DIMSTYLE
105
40B
102
{ACAD_REACTORS
330
284D
330
2850
330
2853
330
2854
330
2934
330
20D6
330
2955
330
2958
102
}
330
A
100
AcDbSymbolTableRecord
100
AcDbDimStyleTableRecord
  2
AM_ISO$0
 70
     0
  4
"
 41
6.0
 42
1.0
 43
14.0
 44
1.5
 47
0.1
 48
0.1
 73
     0
 74
     0
 77
     1
 78
     9
 79
     2
140
6.0
141
0.0
143
0.0393701
146
0.71
147
1.5
172
     1
176
   256
177
   256
178
   256
271
     2
272
     2
283
     2
284
     8
340
11
371
    -1
372
    -1
  0
DIMSTYLE
105
121B
330
A
100
AcDbSymbolTableRecord
100
AcDbDimStyleTableRecord
  2
AM_ANSI
 70
     0
  4
mm
 41
0.1
 42
0.05
 43
0.5
 44
0.1
 47
0.1
 48
0.1
 78
     7
 79
     2
140
0.12
141
0.0
146
0.71
147
0.06
176
   256
177
   256
178
     2
274
     4
284
     7
340
11
371
    -1
372
    -1
  0
DIMSTYLE
105
121C
330
A
100
AcDbSymbolTableRecord
100
AcDbDimStyleTableRecord
  2
AM_ANSI$3
 70
     0
  4
mm
 41
0.1
 42
0.05
 43
0.5
 44
0.1
 47
0.1
 48
0.1
 78
     7
 79
     2
140
0.12
141
0.0
146
0.71
147
0.06
176
   256
177
   256
178
     2
274
     4
284
     7
288
     1
289
     0
340
11
371
    -1
372
    -1
  0
DIMSTYLE
105
121D
330
A
100
AcDbSymbolTableRecord
100
AcDbDimStyleTableRecord
  2
AM_ANSI$4
 70
     0
  4
mm
 41
0.1
 42
0.05
 43
0.5
 44
0.1
 47
0.1
 48
0.1
 78
     7
 79
     2
140
0.12
141
0.0
146
0.71
147
0.06
176
   256
177
   256
178
     2
274
     4
284
     7
288
     1
289
     0
340
11
371
    -1
372
    -1
  0
DIMSTYLE
105
121E
330
A
100
AcDbSymbolTableRecord
100
AcDbDimStyleTableRecord
  2
AM_ANSI$7
 70
     0
  4
mm
 41
0.1
 42
0.05
 43
0.5
 44
0.1
 47
0.1
 48
0.1
 78
     7
 79
     2
140
0.24
141
0.0
146
0.71
147
0.06
176
   256
177
   256
178
     2
274
     4
284
     7
340
11
371
    -1
372
    -1
  0
DIMSTYLE
105
121F
330
A
100
AcDbSymbolTableRecord
100
AcDbDimStyleTableRecord
  2
AM_ANSI$SF
 70
     0
  4
mm
 41
0.1
 42
0.05
 43
0.5
 44
0.1
 47
0.1
 48
0.1
 75
     1
 76
     1
 78
     7
 79
     2
140
0.12
141
0.0
146
0.71
147
0.06
176
   256
177
   256
178
     2
274
     4
284
     7
340
11
371
    -1
372
    -1
  0
DIMSTYLE
105
1220
330
A
100
AcDbSymbolTableRecord
100
AcDbDimStyleTableRecord
  2
AM_ANSI$SH
 70
     0
  4
mm
 41
0.1
 42
0.05
 43
0.5
 44
0.1
 47
0.1
 48
0.1
 75
     1
 76
     1
 78
     7
 79
     2
140
0.12
141
0.0
146
0.71
147
0.06
173
     1
176
   256
177
   256
178
     2
274
     4
284
     7
340
11
341
87
343
87
371
    -1
372
    -1
  0
DIMSTYLE
105
188C
330
A
100
AcDbSymbolTableRecord
100
AcDbDimStyleTableRecord
  2
STANDARD
 70
     0
 41
2.5
 42
1.0
 43
2.0
 44
1.0
 73
     0
 74
     0
 77
     3
 78
     8
140
3.0
141
-3.0
146
0.6
147
0.8
172
     1
176
     5
177
     5
178
     5
271
     2
272
     8
284
     8
340
60C
  0
ENDTAB
  0
TABLE
  2
BLOCK_RECORD
  5
1
330
0
100
AcDbSymbolTable
 70
    15
  0
BLOCK_RECORD
  5
1F
102
{ACAD_XDICTIONARY
360
8F
102
}
330
1
100
AcDbSymbolTableRecord
100
AcDbBlockTableRecord
  2
*Model_Space
340
22
  0
BLOCK_RECORD
  5
1B
330
1
100
AcDbSymbolTableRecord
100
AcDbBlockTableRecord
  2
*Paper_Space
340
1E
  0
BLOCK_RECORD
  5
23
330
1
100
AcDbSymbolTableRecord
100
AcDbBlockTableRecord
  2
*Paper_Space0
340
26
  0
BLOCK_RECORD
  5
87
330
1
100
AcDbSymbolTableRecord
100
AcDbBlockTableRecord
  2
GENAXEH
340
0
  0
BLOCK_RECORD
  5
20D7
330
1
100
AcDbSymbolTableRecord
100
AcDbBlockTableRecord
  2
*D3
340
0
  0
BLOCK_RECORD
  5
2857
330
1
100
AcDbSymbolTableRecord
100
AcDbBlockTableRecord
  2
*D4
340
0
  0
BLOCK_RECORD
  5
2863
330
1
100
AcDbSymbolTableRecord
100
AcDbBlockTableRecord
  2
*D5
340
0
  0
BLOCK_RECORD
  5
286F
330
1
100
AcDbSymbolTableRecord
100
AcDbBlockTableRecord
  2
*D6
340
0
  0
BLOCK_RECORD
  5
2884
330
1
100
AcDbSymbolTableRecord
100
AcDbBlockTableRecord
  2
*D7
340
0
  0
BLOCK_RECORD
  5
2937
330
1
100
AcDbSymbolTableRecord
100
AcDbBlockTableRecord
  2
*D8
340
0
  0
BLOCK_RECORD
  5
295B
330
1
100
AcDbSymbolTableRecord
100
AcDbBlockTableRecord
  2
*D9
340
0
  0
BLOCK_RECORD
  5
2967
330
1
100
AcDbSymbolTableRecord
100
AcDbBlockTableRecord
  2
*D10
340
0
  0
BLOCK_RECORD
  5
2C41
330
1
100
AcDbSymbolTableRecord
100
AcDbBlockTableRecord
  2
*U12
340
0
  0
BLOCK_RECORD
  5
2D30
330
1
100
AcDbSymbolTableRecord
100
AcDbBlockTableRecord
  2
*S14
340
0
  0
ENDTAB
  0
ENDSEC
  0
SECTION
  2
BLOCKS
  0
BLOCK
  5
20
330
1F
100
AcDbEntity
  8
0
100
AcDbBlockBegin
  2
*Model_Space
 70
     0
 10
0.0
 20
0.0
 30
0.0
  3
*Model_Space
  1

  0
ENDBLK
  5
21
330
1F
100
AcDbEntity
  8
0
100
AcDbBlockEnd
  0
BLOCK
  5
1C
330
1B
100
AcDbEntity
 67
     1
  8
0
100
AcDbBlockBegin
  2
*Paper_Space
 70
     0
 10
0.0
 20
0.0
 30
0.0
  3
*Paper_Space
  1

  0
ENDBLK
  5
1D
330
1B
100
AcDbEntity
 67
     1
  8
0
100
AcDbBlockEnd
  0
BLOCK
  5
24
330
23
100
AcDbEntity
  8
0
100
AcDbBlockBegin
  2
*Paper_Space0
 70
     0
 10
0.0
 20
0.0
 30
0.0
  3
*Paper_Space0
  1

  0
ENDBLK
  5
25
330
23
100
AcDbEntity
  8
0
100
AcDbBlockEnd
  0
BLOCK
  5
89
330
87
100
AcDbEntity
  8
0
100
AcDbBlockBegin
  2
GENAXEH
 70
     0
 10
0.0
 20
0.0
 30
0.0
  3
GENAXEH
  1

  0
LINE
  5
88
330
87
100
AcDbEntity
  8
0
100
AcDbLine
 10
-1.0
 20
0.0
 30
0.0
 11
1.0
 21
0.0
 31
0.0
  0
ENDBLK
  5
8A
330
87
100
AcDbEntity
  8
0
100
AcDbBlockEnd
  0
BLOCK
  5
20E1
330
20D7
100
AcDbEntity
  8
0
100
AcDbBlockBegin
  2
*D3
 70
     1
 10
0.0
 20
0.0
 30
0.0
  3
*D3
  1

  0
LINE
  5
2CA7
330
20D7
100
AcDbEntity
  8
AM_5
100
AcDbLine
 10
2298.667247889417
 20
1663.291059141518
 30
0.0
 11
2312.167247889417
 21
1663.291059141518
 31
0.0
  0
LINE
  5
2CA8
330
20D7
100
AcDbEntity
  8
AM_5
100
AcDbLine
 10
2225.552533766956
 20
1568.291059141518
 30
0.0
 11
2312.167247889417
 21
1568.291059141518
 31
0.0
  0
LINE
  5
2CA9
330
20D7
100
AcDbEntity
  8
AM_5
100
AcDbLine
 10
2310.667247889417
 20
1657.291059141518
 30
0.0
 11
2310.667247889417
 21
1574.291059141518
 31
0.0
  0
SOLID
  5
2CAA
330
20D7
100
AcDbEntity
  8
AM_5
100
AcDbTrace
 10
2309.667247889418
 20
1657.291059141518
 30
0.0
 11
2311.667247889417
 21
1657.291059141518
 31
0.0
 12
2310.667247889417
 22
1663.291059141518
 32
0.0
 13
2310.667247889417
 23
1663.291059141518
 33
0.0
  0
SOLID
  5
2CAB
330
20D7
100
AcDbEntity
  8
AM_5
100
AcDbTrace
 10
2309.667247889418
 20
1574.291059141518
 30
0.0
 11
2311.667247889417
 21
1574.291059141518
 31
0.0
 12
2310.667247889417
 22
1568.291059141518
 32
0.0
 13
2310.667247889417
 23
1568.291059141518
 33
0.0
  0
MTEXT
  5
2CAC
330
20D7
100
AcDbEntity
  8
AM_5
100
AcDbMText
 10
2306.167247889417
 20
1615.791059141519
 30
0.0
 40
6.0
 41
0.0
 71
     5
 72
     1
  1
\A2;95
 11
0.0000000000000001
 21
1.0
 31
0.0
 73
     1
 44
1.0
1001
ACAD
1000
MTEXTBEGIN
1070
    73
1070
     1
1070
    44
1040
1.0
1070
    74
1070
     0
1000
MTEXTEND
  0
POINT
  5
2CAD
330
20D7
100
AcDbEntity
  8
Defpoints
 62
     0
100
AcDbPoint
 10
2297.667247889418
 20
1663.291059141518
 30
0.0
  0
POINT
  5
2CAE
330
20D7
100
AcDbEntity
  8
Defpoints
 62
     0
100
AcDbPoint
 10
2224.552533766956
 20
1568.291059141518
 30
0.0
  0
POINT
  5
2CAF
330
20D7
100
AcDbEntity
  8
Defpoints
 62
     0
100
AcDbPoint
 10
2310.667247889417
 20
1568.291059141518
 30
0.0
  0
ENDBLK
  5
20E2
330
20D7
100
AcDbEntity
  8
0
100
AcDbBlockEnd
  0
BLOCK
  5
2861
330
2857
100
AcDbEntity
  8
0
100
AcDbBlockBegin
  2
*D4
 70
     1
 10
0.0
 20
0.0
 30
0.0
  3
*D4
  1

  0
LINE
  5
2CC2
330
2857
100
AcDbEntity
  8
AM_5
100
AcDbLine
 10
2287.843063506131
 20
1326.050252385792
 30
0.0
 11
2321.181012996348
 21
1326.050252385792
 31
0.0
  0
LINE
  5
2CC3
330
2857
100
AcDbEntity
  8
AM_5
100
AcDbLine
 10
2287.843063506131
 20
1466.050252385791
 30
0.0
 11
2321.181012996348
 21
1466.050252385791
 31
0.0
  0
LINE
  5
2CC4
330
2857
100
AcDbEntity
  8
AM_5
100
AcDbLine
 10
2319.681012996348
 20
1332.050252385792
 30
0.0
 11
2319.681012996348
 21
1460.050252385791
 31
0.0
  0
SOLID
  5
2CC5
330
2857
100
AcDbEntity
  8
AM_5
100
AcDbTrace
 10
2318.681012996348
 20
1332.050252385792
 30
0.0
 11
2320.681012996348
 21
1332.050252385792
 31
0.0
 12
2319.681012996348
 22
1326.050252385792
 32
0.0
 13
2319.681012996348
 23
1326.050252385792
 33
0.0
  0
SOLID
  5
2CC6
330
2857
100
AcDbEntity
  8
AM_5
100
AcDbTrace
 10
2318.681012996348
 20
1460.050252385791
 30
0.0
 11
2320.681012996348
 21
1460.050252385791
 31
0.0
 12
2319.681012996348
 22
1466.050252385791
 32
0.0
 13
2319.681012996348
 23
1466.050252385791
 33
0.0
  0
MTEXT
  5
2CC7
330
2857
100
AcDbEntity
  8
AM_5
100
AcDbMText
 10
2314.323732013284
 20
1396.050252385792
 30
0.0
 40
6.0
 41
0.0
 71
     5
 72
     1
  1
\A2;90+length
 11
0.0000000000000001
 21
1.0
 31
0.0
 73
     1
 44
1.0
1001
ACAD
1000
MTEXTBEGIN
1070
    73
1070
     1
1070
    44
1040
1.0
1070
    74
1070
     0
1000
MTEXTEND
  0
POINT
  5
2CC8
330
2857
100
AcDbEntity
  8
Defpoints
 62
     0
100
AcDbPoint
 10
2286.843063506131
 20
1326.050252385792
 30
0.0
  0
POINT
  5
2CC9
330
2857
100
AcDbEntity
  8
Defpoints
 62
     0
100
AcDbPoint
 10
2286.843063506131
 20
1466.050252385791
 30
0.0
  0
POINT
  5
2CCA
330
2857
100
AcDbEntity
  8
Defpoints
 62
     0
100
AcDbPoint
 10
2319.681012996348
 20
1466.050252385791
 30
0.0
  0
ENDBLK
  5
2862
330
2857
100
AcDbEntity
  8
0
100
AcDbBlockEnd
  0
BLOCK
  5
286D
330
2863
100
AcDbEntity
  8
0
100
AcDbBlockBegin
  2
*D5
 70
     1
 10
0.0
 20
0.0
 30
0.0
  3
*D5
  1

  0
LINE
  5
2CB0
330
2863
100
AcDbEntity
  8
AM_5
100
AcDbLine
 10
2287.843063506131
 20
1326.050252385792
 30
0.0
 11
2307.181012996346
 21
1326.050252385792
 31
0.0
  0
LINE
  5
2CB1
330
2863
100
AcDbEntity
  8
AM_5
100
AcDbLine
 10
2288.681012996345
 20
1358.050252385792
 30
0.0
 11
2307.181012996346
 21
1358.050252385792
 31
0.0
  0
LINE
  5
2CB2
330
2863
100
AcDbEntity
  8
AM_5
100
AcDbLine
 10
2305.681012996346
 20
1332.050252385792
 30
0.0
 11
2305.681012996346
 21
1352.050252385792
 31
0.0
  0
SOLID
  5
2CB3
330
2863
100
AcDbEntity
  8
AM_5
100
AcDbTrace
 10
2304.681012996346
 20
1332.050252385792
 30
0.0
 11
2306.681012996346
 21
1332.050252385792
 31
0.0
 12
2305.681012996346
 22
1326.050252385792
 32
0.0
 13
2305.681012996346
 23
1326.050252385792
 33
0.0
  0
SOLID
  5
2CB4
330
2863
100
AcDbEntity
  8
AM_5
100
AcDbTrace
 10
2304.681012996346
 20
1352.050252385792
 30
0.0
 11
2306.681012996346
 21
1352.050252385792
 31
0.0
 12
2305.681012996346
 22
1358.050252385792
 32
0.0
 13
2305.681012996346
 23
1358.050252385792
 33
0.0
  0
MTEXT
  5
2CB5
330
2863
100
AcDbEntity
  8
AM_5
100
AcDbMText
 10
2301.180422445164
 20
1342.050252385792
 30
0.0
 40
6.0
 41
0.0
 71
     5
 72
     1
  1
\A2;32
 11
0.0000000000000001
 21
1.0
 31
0.0
 73
     1
 44
1.0
1001
ACAD
1000
MTEXTBEGIN
1070
    73
1070
     1
1070
    44
1040
1.0
1070
    74
1070
     0
1000
MTEXTEND
  0
POINT
  5
2CB6
330
2863
100
AcDbEntity
  8
Defpoints
 62
     0
100
AcDbPoint
 10
2286.843063506131
 20
1326.050252385792
 30
0.0
  0
POINT
  5
2CB7
330
2863
100
AcDbEntity
  8
Defpoints
 62
     0
100
AcDbPoint
 10
2287.681012996344
 20
1358.050252385792
 30
0.0
  0
POINT
  5
2CB8
330
2863
100
AcDbEntity
  8
Defpoints
 62
     0
100
AcDbPoint
 10
2305.681012996346
 20
1358.050252385792
 30
0.0
  0
ENDBLK
  5
286E
330
2863
100
AcDbEntity
  8
0
100
AcDbBlockEnd
  0
BLOCK
  5
2879
330
286F
100
AcDbEntity
  8
0
100
AcDbBlockBegin
  2
*D6
 70
     1
 10
0.0
 20
0.0
 30
0.0
  3
*D6
  1

  0
LINE
  5
2CB9
330
286F
100
AcDbEntity
  8
AM_5
100
AcDbLine
 10
2288.681012996345
 20
1434.050252385791
 30
0.0
 11
2307.181012996345
 21
1434.050252385791
 31
0.0
  0
LINE
  5
2CBA
330
286F
100
AcDbEntity
  8
AM_5
100
AcDbLine
 10
2287.843063506131
 20
1466.050252385792
 30
0.0
 11
2307.181012996345
 21
1466.050252385792
 31
0.0
  0
LINE
  5
2CBB
330
286F
100
AcDbEntity
  8
AM_5
100
AcDbLine
 10
2305.681012996345
 20
1440.050252385791
 30
0.0
 11
2305.681012996345
 21
1460.050252385792
 31
0.0
  0
SOLID
  5
2CBC
330
286F
100
AcDbEntity
  8
AM_5
100
AcDbTrace
 10
2304.681012996345
 20
1440.050252385791
 30
0.0
 11
2306.681012996345
 21
1440.050252385791
 31
0.0
 12
2305.681012996345
 22
1434.050252385791
 32
0.0
 13
2305.681012996345
 23
1434.050252385791
 33
0.0
  0
SOLID
  5
2CBD
330
286F
100
AcDbEntity
  8
AM_5
100
AcDbTrace
 10
2304.681012996345
 20
1460.050252385792
 30
0.0
 11
2306.681012996345
 21
1460.050252385792
 31
0.0
 12
2305.681012996345
 22
1466.050252385792
 32
0.0
 13
2305.681012996345
 23
1466.050252385792
 33
0.0
  0
MTEXT
  5
2CBE
330
286F
100
AcDbEntity
  8
AM_5
100
AcDbMText
 10
2301.180422445163
 20
1450.050252385792
 30
0.0
 40
6.0
 41
0.0
 71
     5
 72
     1
  1
\A2;32
 11
0.0000000000000001
 21
1.0
 31
0.0
 73
     1
 44
1.0
1001
ACAD
1000
MTEXTBEGIN
1070
    73
1070
     1
1070
    44
1040
1.0
1070
    74
1070
     0
1000
MTEXTEND
  0
POINT
  5
2CBF
330
286F
100
AcDbEntity
  8
Defpoints
 62
     0
100
AcDbPoint
 10
2287.681012996344
 20
1434.050252385791
 30
0.0
  0
POINT
  5
2CC0
330
286F
100
AcDbEntity
  8
Defpoints
 62
     0
100
AcDbPoint
 10
2286.843063506131
 20
1466.050252385792
 30
0.0
  0
POINT
  5
2CC1
330
286F
100
AcDbEntity
  8
Defpoints
 62
     0
100
AcDbPoint
 10
2305.681012996345
 20
1466.050252385792
 30
0.0
  0
ENDBLK
  5
287A
330
286F
100
AcDbEntity
  8
0
100
AcDbBlockEnd
  0
BLOCK
  5
288E
330
2884
100
AcDbEntity
  8
0
100
AcDbBlockBegin
  2
*D7
 70
     1
 10
0.0
 20
0.0
 30
0.0
  3
*D7
  1

  0
LINE
  5
2CCB
330
2884
100
AcDbEntity
  8
AM_5
100
AcDbLine
 10
2242.681012996345
 20
1316.050252385793
 30
0.0
 11
2335.181012996345
 21
1316.050252385793
 31
0.0
  0
LINE
  5
2CCC
330
2884
100
AcDbEntity
  8
AM_5
100
AcDbLine
 10
2242.681012996344
 20
1513.050252385792
 30
0.0
 11
2335.181012996345
 21
1513.050252385792
 31
0.0
  0
LINE
  5
2CCD
330
2884
100
AcDbEntity
  8
AM_5
100
AcDbLine
 10
2333.681012996345
 20
1322.050252385793
 30
0.0
 11
2333.681012996345
 21
1507.050252385791
 31
0.0
  0
SOLID
  5
2CCE
330
2884
100
AcDbEntity
  8
AM_5
100
AcDbTrace
 10
2332.681012996345
 20
1322.050252385793
 30
0.0
 11
2334.681012996345
 21
1322.050252385793
 31
0.0
 12
2333.681012996345
 22
1316.050252385793
 32
0.0
 13
2333.681012996345
 23
1316.050252385793
 33
0.0
  0
SOLID
  5
2CCF
330
2884
100
AcDbEntity
  8
AM_5
100
AcDbTrace
 10
2332.681012996345
 20
1507.050252385791
 30
0.0
 11
2334.681012996345
 21
1507.050252385791
 31
0.0
 12
2333.681012996345
 22
1513.050252385792
 32
0.0
 13
2333.681012996345
 23
1513.050252385792
 33
0.0
  0
MTEXT
  5
2CD0
330
2884
100
AcDbEntity
  8
AM_5
100
AcDbMText
 10
2328.322281936221
 20
1414.550252385792
 30
0.0
 40
6.0
 41
0.0
 71
     5
 72
     1
  1
\A2;147+length
 11
0.0000000000000001
 21
1.0
 31
0.0
 73
     1
 44
1.0
1001
ACAD
1000
MTEXTBEGIN
1070
    73
1070
     1
1070
    44
1040
1.0
1070
    74
1070
     0
1000
MTEXTEND
  0
POINT
  5
2CD1
330
2884
100
AcDbEntity
  8
Defpoints
 62
     0
100
AcDbPoint
 10
2241.681012996345
 20
1316.050252385793
 30
0.0
  0
POINT
  5
2CD2
330
2884
100
AcDbEntity
  8
Defpoints
 62
     0
100
AcDbPoint
 10
2241.681012996344
 20
1513.050252385792
 30
0.0
  0
POINT
  5
2CD3
330
2884
100
AcDbEntity
  8
Defpoints
 62
     0
100
AcDbPoint
 10
2333.681012996345
 20
1513.050252385792
 30
0.0
  0
ENDBLK
  5
288F
330
2884
100
AcDbEntity
  8
0
100
AcDbBlockEnd
  0
BLOCK
  5
2941
330
2937
100
AcDbEntity
  8
0
100
AcDbBlockBegin
  2
*D8
 70
     1
 10
0.0
 20
0.0
 30
0.0
  3
*D8
  1

  0
LINE
  5
2CD4
330
2937
100
AcDbEntity
  8
AM_5
100
AcDbLine
 10
2182.681012996345
 20
1513.050252385791
 30
0.0
 11
2182.681012996345
 21
1534.39168470943
 31
0.0
  0
LINE
  5
2CD5
330
2937
100
AcDbEntity
  8
AM_5
100
AcDbLine
 10
2242.681012996344
 20
1513.050252385791
 30
0.0
 11
2242.681012996344
 21
1534.39168470943
 31
0.0
  0
LINE
  5
2CD6
330
2937
100
AcDbEntity
  8
AM_5
100
AcDbLine
 10
2188.681012996345
 20
1532.89168470943
 30
0.0
 11
2236.681012996344
 21
1532.89168470943
 31
0.0
  0
SOLID
  5
2CD7
330
2937
100
AcDbEntity
  8
AM_5
100
AcDbTrace
 10
2188.681012996345
 20
1533.89168470943
 30
0.0
 11
2188.681012996345
 21
1531.89168470943
 31
0.0
 12
2182.681012996345
 22
1532.89168470943
 32
0.0
 13
2182.681012996345
 23
1532.89168470943
 33
0.0
  0
SOLID
  5
2CD8
330
2937
100
AcDbEntity
  8
AM_5
100
AcDbTrace
 10
2236.681012996344
 20
1533.89168470943
 30
0.0
 11
2236.681012996344
 21
1531.89168470943
 31
0.0
 12
2242.681012996344
 22
1532.89168470943
 32
0.0
 13
2242.681012996344
 23
1532.89168470943
 33
0.0
  0
MTEXT
  5
2CD9
330
2937
100
AcDbEntity
  8
AM_5
100
AcDbMText
 10
2212.681012996345
 20
1537.39168470943
 30
0.0
 40
6.0
 41
0.0
 71
     5
 72
     1
  1
\A2;%%c60
 73
     1
 44
1.0
1001
ACAD
1000
MTEXTBEGIN
1070
    73
1070
     1
1070
    44
1040
1.0
1070
    74
1070
     0
1000
MTEXTEND
  0
POINT
  5
2CDA
330
2937
100
AcDbEntity
  8
Defpoints
 62
     0
100
AcDbPoint
 10
2182.681012996345
 20
1512.050252385791
 30
0.0
  0
POINT
  5
2CDB
330
2937
100
AcDbEntity
  8
Defpoints
 62
     0
100
AcDbPoint
 10
2242.681012996344
 20
1512.050252385791
 30
0.0
  0
POINT
  5
2CDC
330
2937
100
AcDbEntity
  8
Defpoints
 62
     0
100
AcDbPoint
 10
2242.681012996344
 20
1532.89168470943
 30
0.0
  0
ENDBLK
  5
2942
330
2937
100
AcDbEntity
  8
0
100
AcDbBlockEnd
  0
BLOCK
  5
2965
330
295B
100
AcDbEntity
  8
0
100
AcDbBlockBegin
  2
*D9
 70
     1
 10
0.0
 20
0.0
 30
0.0
  3
*D9
  1

  0
LINE
  5
2CDD
330
295B
100
AcDbEntity
  8
AM_5
100
AcDbLine
 10
2190.256725991415
 20
1684.29105738748
 30
0.0
 11
2118.797686376748
 21
1684.29105738748
 31
0.0
  0
LINE
  5
2CDE
330
295B
100
AcDbEntity
  8
AM_5
100
AcDbLine
 10
2190.256729430018
 20
1642.29105738748
 30
0.0
 11
2118.797686376748
 21
1642.29105738748
 31
0.0
  0
LINE
  5
2CDF
330
295B
100
AcDbEntity
  8
AM_5
100
AcDbLine
 10
2120.297686376748
 20
1678.29105738748
 30
0.0
 11
2120.297686376748
 21
1648.29105738748
 31
0.0
  0
SOLID
  5
2CE0
330
295B
100
AcDbEntity
  8
AM_5
100
AcDbTrace
 10
2119.297686376748
 20
1678.29105738748
 30
0.0
 11
2121.297686376748
 21
1678.29105738748
 31
0.0
 12
2120.297686376748
 22
1684.29105738748
 32
0.0
 13
2120.297686376748
 23
1684.29105738748
 33
0.0
  0
SOLID
  5
2CE1
330
295B
100
AcDbEntity
  8
AM_5
100
AcDbTrace
 10
2119.297686376748
 20
1648.29105738748
 30
0.0
 11
2121.297686376748
 21
1648.29105738748
 31
0.0
 12
2120.297686376748
 22
1642.29105738748
 32
0.0
 13
2120.297686376748
 23
1642.29105738748
 33
0.0
  0
MTEXT
  5
2CE2
330
295B
100
AcDbEntity
  8
AM_5
100
AcDbMText
 10
2115.797095825566
 20
1663.29105738748
 30
0.0
 40
6.0
 41
0.0
 71
     5
 72
     1
  1
\A2;42
 11
0.0000000000000001
 21
1.0
 31
0.0
 73
     1
 44
1.0
1001
ACAD
1000
MTEXTBEGIN
1070
    73
1070
     1
1070
    44
1040
1.0
1070
    74
1070
     0
1000
MTEXTEND
  0
POINT
  5
2CE3
330
295B
100
AcDbEntity
  8
Defpoints
 62
     0
100
AcDbPoint
 10
2191.256725991415
 20
1684.29105738748
 30
0.0
  0
POINT
  5
2CE4
330
295B
100
AcDbEntity
  8
Defpoints
 62
     0
100
AcDbPoint
 10
2191.256729430017
 20
1642.29105738748
 30
0.0
  0
POINT
  5
2CE5
330
295B
100
AcDbEntity
  8
Defpoints
 62
     0
100
AcDbPoint
 10
2120.297686376748
 20
1642.29105738748
 30
0.0
  0
ENDBLK
  5
2966
330
295B
100
AcDbEntity
  8
0
100
AcDbBlockEnd
  0
BLOCK
  5
2971
330
2967
100
AcDbEntity
  8
0
100
AcDbBlockBegin
  2
*D10
 70
     1
 10
0.0
 20
0.0
 30
0.0
  3
*D10
  1

  0
LINE
  5
2CE6
330
2967
100
AcDbEntity
  8
AM_5
100
AcDbLine
 10
2151.681012996345
 20
1588.291059141518
 30
0.0
 11
2104.797686376748
 21
1588.291059141518
 31
0.0
  0
LINE
  5
2CE7
330
2967
100
AcDbEntity
  8
AM_5
100
AcDbLine
 10
2151.681012996345
 20
1738.291059141518
 30
0.0
 11
2104.797686376748
 21
1738.291059141518
 31
0.0
  0
LINE
  5
2CE8
330
2967
100
AcDbEntity
  8
AM_5
100
AcDbLine
 10
2106.297686376748
 20
1594.291059141518
 30
0.0
 11
2106.297686376748
 21
1732.291059141518
 31
0.0
  0
SOLID
  5
2CE9
330
2967
100
AcDbEntity
  8
AM_5
100
AcDbTrace
 10
2105.297686376748
 20
1594.291059141518
 30
0.0
 11
2107.297686376748
 21
1594.291059141518
 31
0.0
 12
2106.297686376748
 22
1588.291059141518
 32
0.0
 13
2106.297686376748
 23
1588.291059141518
 33
0.0
  0
SOLID
  5
2CEA
330
2967
100
AcDbEntity
  8
AM_5
100
AcDbTrace
 10
2105.297686376748
 20
1732.291059141518
 30
0.0
 11
2107.297686376748
 21
1732.291059141518
 31
0.0
 12
2106.297686376748
 22
1738.291059141518
 32
0.0
 13
2106.297686376748
 23
1738.291059141518
 33
0.0
  0
MTEXT
  5
2CEB
330
2967
100
AcDbEntity
  8
AM_5
100
AcDbMText
 10
2101.797686376748
 20
1663.291059141518
 30
0.0
 40
6.0
 41
0.0
 71
     5
 72
     1
  1
\A2;{\Famgdt|c136;o}150
 11
0.0000000000000001
 21
1.0
 31
0.0
 73
     1
 44
1.0
1001
ACAD
1000
MTEXTBEGIN
1070
    73
1070
     1
1070
    44
1040
1.0
1070
    74
1070
     0
1000
MTEXTEND
  0
POINT
  5
2CEC
330
2967
100
AcDbEntity
  8
Defpoints
 62
     0
100
AcDbPoint
 10
2152.681012996345
 20
1588.291059141518
 30
0.0
  0
POINT
  5
2CED
330
2967
100
AcDbEntity
  8
Defpoints
 62
     0
100
AcDbPoint
 10
2152.681012996345
 20
1738.291059141518
 30
0.0
  0
POINT
  5
2CEE
330
2967
100
AcDbEntity
  8
Defpoints
 62
     0
100
AcDbPoint
 10
2106.297686376748
 20
1738.291059141518
 30
0.0
  0
ENDBLK
  5
2972
330
2967
100
AcDbEntity
  8
0
100
AcDbBlockEnd
  0
BLOCK
  5
2C42
330
2C41
100
AcDbEntity
  8
0
100
AcDbBlockBegin
  2
*U12
 70
     1
 10
0.0
 20
0.0
 30
0.0
  3
*U12
  1

  0
ENDBLK
  5
2C43
330
2C41
100
AcDbEntity
  8
0
100
AcDbBlockEnd
  0
BLOCK
  5
2D35
330
2D30
100
AcDbEntity
  8
0
100
AcDbBlockBegin
  2
*S14
 70
     1
 10
0.0
 20
0.0
 30
0.0
  3
*S14
  1

  0
LINE
  5
2D31
330
2D30
100
AcDbEntity
  8
AM_5
 62
     5
100
AcDbLine
 10
2171.22142841163
 20
1296.147020899327
 30
0.0
 11
2198.2978882026
 21
1296.147020899327
 31
0.0
  0
LINE
  5
2D32
330
2D30
100
AcDbEntity
  8
AM_5
 62
     5
100
AcDbLine
 10
2198.2978882026
 20
1296.147020899327
 30
0.0
 11
2215.365739922449
 21
1333.566622283221
 31
0.0
  0
TRACE
  5
2D33
330
2D30
100
AcDbEntity
  8
AM_5
 62
     5
370
    35
100
AcDbTrace
 10
2215.784972869278
 20
1333.3754014923
 30
0.0
 11
2214.94650697562
 21
1333.757843074141
 31
0.0
 12
2216.818206038003
 22
1336.751012677499
 32
0.0
 13
2216.818206038003
 23
1336.751012677499
 33
0.0
  0
MTEXT
  5
2D34
330
2D30
100
AcDbEntity
  8
AM_5
 62
     2
100
AcDbMText
 10
2171.22142841163
 20
1296.011753161099
 30
0.0
 40
3.5
 41
0.0
 71
     9
 72
     5
  1

  7
ACISOTS
 73
     1
 44
1.0
1001
ACAD
1000
MTEXTBEGIN
1070
    73
1070
     1
1070
    44
1040
1.0
1070
    74
1070
     0
1000
MTEXTEND
  0
ENDBLK
  5
2D36
330
2D30
100
AcDbEntity
  8
0
100
AcDbBlockEnd
  0
ENDSEC
  0
SECTION
  2
ENTITIES
  0
TEXT
  5
103C
330
1F
100
AcDbEntity
  8
LOGO
 62
     7
100
AcDbText
 10
2180.058866028897
 20
1254.066246966681
 30
0.0
 40
6.457375004069645
  1
Order example:
 41
0.8
  7
CHINESET
100
AcDbText
  0
TEXT
  5
103D
330
1F
100
AcDbEntity
  8
LOGO
 62
     7
100
AcDbText
 10
2181.217372504946
 20
1263.156893955857
 30
0.0
 40
9.686062506104471
  1
訂購代號:
  7
CHINESET
100
AcDbText
  0
LINE
  5
103E
330
1F
100
AcDbEntity
  8
LOGO
 62
     1
100
AcDbLine
 10
2985.891527513137
 20
1275.282742774115
 30
0.0
 11
2070.706427120323
 21
1275.282742774115
 31
0.0
  0
LINE
  5
103F
330
1F
100
AcDbEntity
  8
LOGO
 62
     1
100
AcDbLine
 10
2177.253114687472
 20
1226.852430243593
 30
0.0
 11
2177.253114687472
 21
1275.282742774115
 31
0.0
  0
TEXT
  5
1040
330
1F
100
AcDbEntity
  8
LOGO
  6
Continuous
 62
     5
100
AcDbText
 10
2088.102813079754
 20
1236.366492052499
 30
0.0
 40
7.264546879578354
  1
金器工業股份有限公司
  7
CHINESET
100
AcDbText
  0
TEXT
  5
1041
330
1F
100
AcDbEntity
  8
LOGO
  6
Continuous
 62
     5
100
AcDbText
 10
2074.759277681692
 20
1229.100521891296
 30
0.0
 40
4.843031253052235
  1
MINDMAN INDUSTRIAL CO., LTD.
 41
0.85
  7
CHINESET
100
AcDbText
  0
LINE
  5
1042
330
1F
100
AcDbEntity
  8
LOGO
 62
     1
100
AcDbLine
 10
2177.253114687472
 20
1265.596680268011
 30
0.0
 11
2106.221989642707
 21
1265.596680268011
 31
0.0
  0
LINE
  5
1043
330
1F
100
AcDbEntity
  8
LOGO
 62
     1
100
AcDbLine
 10
2177.253114687472
 20
1255.910617761906
 30
0.0
 11
2106.221989642707
 21
1255.910617761906
 31
0.0
  0
LINE
  5
1044
330
1F
100
AcDbEntity
  8
LOGO
 62
     1
100
AcDbLine
 10
2177.253114687472
 20
1246.224555255802
 30
0.0
 11
2070.706427120323
 21
1246.224555255802
 31
0.0
  0
LINE
  5
1045
330
1F
100
AcDbEntity
  8
LOGO
 62
     1
100
AcDbLine
 10
2106.221989642707
 20
1246.224555255802
 30
0.0
 11
2106.221989642707
 21
1275.282742774115
 31
0.0
  0
TEXT
  5
1046
330
1F
100
AcDbEntity
  8
LOGO
 62
     6
100
AcDbText
 10
2152.231585098314
 20
1248.646070882328
 30
0.0
 40
4.843031253052235
  1
m/m
  7
CHINESET
 72
     1
 11
2160.76454492512
 21
1251.067586508854
 31
0.0
100
AcDbText
 73
     2
  0
TEXT
  5
1047
330
1F
100
AcDbEntity
  8
LOGO
 62
     6
100
AcDbText
 10
2152.231585098314
 20
1268.018195894537
 30
0.0
 40
4.843031253052235
  1
1 : 1
  7
CHINESET
 72
     1
 11
2160.76454492512
 21
1270.439711521063
 31
0.0
100
AcDbText
 73
     2
  0
LINE
  5
1048
330
1F
100
AcDbEntity
  8
LOGO
 62
     1
100
AcDbLine
 10
2144.966239667124
 20
1246.224555255802
 30
0.0
 11
2144.966239667124
 21
1275.282742774115
 31
0.0
  0
CIRCLE
  5
1049
330
1F
100
AcDbEntity
  8
LOGO
  6
Continuous
 62
     6
100
AcDbCircle
 10
2153.933717788924
 20
1260.764008294249
 30
0.0
 40
2.811977937627902
  0
CIRCLE
  5
104A
330
1F
100
AcDbEntity
  8
LOGO
  6
Continuous
 62
     6
100
AcDbCircle
 10
2153.933717788924
 20
1260.764008294249
 30
0.0
 40
1.647570141127273
  0
LINE
  5
104B
330
1F
100
AcDbEntity
  8
LOGO
 62
     6
100
AcDbLine
 10
2171.6045134371
 20
1257.952030356621
 30
0.0
 11
2171.6045134371
 21
1263.575986231877
 31
0.0
  0
LINE
  5
104C
330
1F
100
AcDbEntity
  8
LOGO
 62
     6
100
AcDbLine
 10
2162.789124017871
 20
1259.116438153122
 30
0.0
 11
2162.789124017871
 21
1262.411578435377
 31
0.0
  0
LINE
  5
104D
330
1F
100
AcDbEntity
  8
LOGO
  6
Continuous
 62
     6
100
AcDbLine
 10
2162.789124017871
 20
1262.411578435377
 30
0.0
 11
2171.6045134371
 21
1263.575986231877
 31
0.0
  0
LINE
  5
104E
330
1F
100
AcDbEntity
  8
LOGO
  6
Continuous
 62
     6
100
AcDbLine
 10
2162.789124017871
 20
1259.116438153122
 30
0.0
 11
2171.6045134371
 21
1257.952030356621
 31
0.0
  0
LINE
  5
104F
330
1F
100
AcDbEntity
  8
LOGO
 62
     6
100
AcDbLine
 10
2320.156575424094
 20
1270.439711521063
 30
0.0
 11
2294.23763427898
 21
1270.439711521063
 31
0.0
  0
LINE
  5
1050
330
1F
100
AcDbEntity
  8
LOGO
 62
     6
100
AcDbLine
 10
2320.156575424094
 20
1248.646070882328
 30
0.0
 11
2294.23763427898
 21
1248.646070882328
 31
0.0
  0
LINE
  5
1051
330
1F
100
AcDbEntity
  8
LOGO
 62
     6
100
AcDbLine
 10
2320.156575424094
 20
1255.910617761906
 30
0.0
 11
2294.23763427898
 21
1255.910617761906
 31
0.0
  0
LINE
  5
1052
330
1F
100
AcDbEntity
  8
LOGO
 62
     6
100
AcDbLine
 10
2320.156575424094
 20
1230.888289621136
 30
0.0
 11
2294.23763427898
 21
1230.888289621136
 31
0.0
  0
LINE
  5
1053
330
1F
100
AcDbEntity
  8
LOGO
 62
     6
100
AcDbLine
 10
2294.23763427898
 20
1248.646070882328
 30
0.0
 11
2294.23763427898
 21
1230.888289621136
 31
0.0
  0
LINE
  5
1054
330
1F
100
AcDbEntity
  8
LOGO
 62
     6
100
AcDbLine
 10
2279.382422649202
 20
1248.646070882328
 30
0.0
 11
2279.382422649202
 21
1230.888289621136
 31
0.0
  0
LINE
  5
1055
330
1F
100
AcDbEntity
  8
LOGO
 62
     6
100
AcDbLine
 10
2247.095547628854
 20
1248.646070882328
 30
0.0
 11
2247.095547628854
 21
1230.888289621136
 31
0.0
  0
LINE
  5
1056
330
1F
100
AcDbEntity
  8
LOGO
 62
     6
100
AcDbLine
 10
2279.382422649202
 20
1230.888289621136
 30
0.0
 11
2247.095547628854
 21
1230.888289621136
 31
0.0
  0
LINE
  5
1057
330
1F
100
AcDbEntity
  8
LOGO
  6
Continuous
 62
     7
100
AcDbLine
 10
2285.114254655536
 20
1263.12370029525
 30
0.0
 11
2291.529772316506
 21
1263.12370029525
 31
0.0
  0
LINE
  5
1058
330
1F
100
AcDbEntity
  8
LOGO
 62
     6
100
AcDbLine
 10
2282.611110151237
 20
1270.439711521063
 30
0.0
 11
2243.866860126819
 21
1270.439711521063
 31
0.0
  0
LINE
  5
1059
330
1F
100
AcDbEntity
  8
LOGO
 62
     6
100
AcDbLine
 10
2282.611110151237
 20
1255.910617761906
 30
0.0
 11
2243.866860126819
 21
1255.910617761906
 31
0.0
  0
LINE
  5
105A
330
1F
100
AcDbEntity
  8
LOGO
 62
     6
100
AcDbLine
 10
2243.866860126819
 20
1270.439711521063
 30
0.0
 11
2243.866860126819
 21
1255.910617761906
 31
0.0
  0
LINE
  5
105B
330
1F
100
AcDbEntity
  8
LOGO
 62
     6
100
AcDbLine
 10
2282.611110151237
 20
1270.439711521063
 30
0.0
 11
2282.611110151237
 21
1255.910617761906
 31
0.0
  0
LINE
  5
105C
330
1F
100
AcDbEntity
  8
LOGO
 62
     6
100
AcDbLine
 10
2263.238985139028
 20
1255.910617761906
 30
0.0
 11
2263.238985139028
 21
1248.646070882328
 31
0.0
  0
TEXT
  5
105D
330
1F
100
AcDbEntity
  8
LOGO
  6
Continuous
 62
     7
100
AcDbText
 10
2247.287731408737
 20
1259.139305263941
 30
0.0
 40
8.071718755087056
  1
MCQA
  7
CHINESET
 72
     1
 11
2263.238985139028
 21
1263.175164641484
 31
0.0
100
AcDbText
 73
     2
  0
LINE
  5
105E
330
1F
100
AcDbEntity
  8
LOGO
 62
     6
100
AcDbLine
 10
2279.382422649202
 20
1248.646070882328
 30
0.0
 11
2247.095547628854
 21
1248.646070882328
 31
0.0
  0
TEXT
  5
105F
330
1F
100
AcDbEntity
  8
LOGO
  6
Continuous
 62
     7
100
AcDbText
 10
2298.341276482439
 20
1259.047771464637
 30
0.0
 40
8.071718755087056
  1
125
  7
CHINESET
 72
     1
 11
2307.95046547659
 21
1263.08363084218
 31
0.0
100
AcDbText
 73
     2
  0
LINE
  5
1060
330
1F
100
AcDbEntity
  8
LOGO
 62
     6
100
AcDbLine
 10
2307.197104479293
 20
1255.910617761906
 30
0.0
 11
2307.197104479293
 21
1248.646070882328
 31
0.0
  0
LINE
  5
1061
330
1F
100
AcDbEntity
  8
LOGO
 62
     6
100
AcDbLine
 10
2294.23763427898
 20
1270.439711521063
 30
0.0
 11
2294.23763427898
 21
1255.910617761906
 31
0.0
  0
LINE
  5
1062
330
1F
100
AcDbEntity
  8
LOGO
 62
     6
100
AcDbLine
 10
2356.865889467536
 20
1248.646070882328
 30
0.0
 11
2356.865889467536
 21
1230.821331010987
 31
0.0
  0
LINE
  5
1063
330
1F
100
AcDbEntity
  8
LOGO
 62
     6
100
AcDbLine
 10
2333.20216371161
 20
1248.646070882328
 30
0.0
 11
2333.20216371161
 21
1230.888289621136
 31
0.0
  0
LINE
  5
1064
330
1F
100
AcDbEntity
  8
LOGO
 62
     6
100
AcDbLine
 10
2320.156575424094
 20
1248.646070882328
 30
0.0
 11
2320.156575424094
 21
1230.888289621136
 31
0.0
  0
LINE
  5
1065
330
1F
100
AcDbEntity
  8
LOGO
 62
     6
100
AcDbLine
 10
2356.865889467536
 20
1230.888289621136
 30
0.0
 11
2333.20216371161
 21
1230.888289621136
 31
0.0
  0
LINE
  5
1066
330
1F
100
AcDbEntity
  8
LOGO
 62
     6
100
AcDbLine
 10
2356.865889467536
 20
1248.646070882328
 30
0.0
 11
2333.20216371161
 21
1248.646070882328
 31
0.0
  0
LINE
  5
1067
330
1F
100
AcDbEntity
  8
LOGO
 62
     6
100
AcDbLine
 10
2358.480233218553
 20
1255.910617761906
 30
0.0
 11
2331.587819960592
 21
1255.910617761906
 31
0.0
  0
LINE
  5
1068
330
1F
100
AcDbEntity
  8
LOGO
 62
     6
100
AcDbLine
 10
2358.480233218553
 20
1270.439711521063
 30
0.0
 11
2331.587819960592
 21
1270.439711521063
 31
0.0
  0
LINE
  5
1069
330
1F
100
AcDbEntity
  8
LOGO
 62
     6
100
AcDbLine
 10
2345.375929938031
 20
1255.910617761906
 30
0.0
 11
2345.375929938031
 21
1248.646070882328
 31
0.0
  0
LINE
  5
106A
330
1F
100
AcDbEntity
  8
LOGO
  6
Continuous
 62
     7
100
AcDbLine
 10
2322.659719928393
 20
1263.12370029525
 30
0.0
 11
2329.075237589362
 21
1263.12370029525
 31
0.0
  0
LINE
  5
106B
330
1F
100
AcDbEntity
  8
LOGO
 62
     6
100
AcDbLine
 10
2331.587819960592
 20
1270.439711521063
 30
0.0
 11
2331.587819960592
 21
1255.910617761906
 31
0.0
  0
LINE
  5
106C
330
1F
100
AcDbEntity
  8
LOGO
 62
     6
100
AcDbLine
 10
2320.156575424094
 20
1270.439711521063
 30
0.0
 11
2320.156575424094
 21
1255.910617761906
 31
0.0
  0
TEXT
  5
106D
330
1F
100
AcDbEntity
  8
LOGO
  6
Continuous
 62
     7
100
AcDbText
 10
2339.253138698604
 20
1259.047771464637
 30
0.0
 40
8.071718755087056
  1
50
  7
CHINESET
 72
     1
 11
2345.787387214627
 21
1263.08363084218
 31
0.0
100
AcDbText
 73
     2
  0
LINE
  5
106E
330
1F
100
AcDbEntity
  8
LOGO
 62
     6
100
AcDbLine
 10
2358.480233218553
 20
1270.439711521063
 30
0.0
 11
2358.480233218553
 21
1255.910617761906
 31
0.0
  0
TEXT
  5
106F
330
1F
100
AcDbEntity
  8
LOGO
 62
     6
100
AcDbText
 10
2110.215328358952
 20
1268.020579276059
 30
317.4042898971376
 40
4.843031253052235
  1
比例 Scale:
 41
0.9
  7
CHINESET
 72
     4
 11
2125.594114654916
 21
1270.439711521063
 31
317.4042898971376
100
AcDbText
  0
TEXT
  5
1070
330
1F
100
AcDbEntity
  8
LOGO
 62
     6
100
AcDbText
 10
2111.908227229996
 20
1258.400258376941
 30
317.4042898971376
 40
4.843031253052235
  1
投影 View:
 41
0.9
  7
CHINESET
 72
     4
 11
2125.594114654916
 21
1260.753649014958
 31
317.4042898971376
100
AcDbText
  0
TEXT
  5
1071
330
1F
100
AcDbEntity
  8
LOGO
 62
     6
100
AcDbText
 10
2112.381720017683
 20
1248.646070882328
 30
317.4042898971376
 40
4.843031253052235
  1
單位 Unit:
 41
0.9
  7
CHINESET
 72
     4
 11
2125.594114654916
 21
1251.067586508854
 31
317.4042898971376
100
AcDbText
  0
TEXT
  5
1072
330
1F
100
AcDbEntity
  8
LOGO
  6
Continuous
 62
     6
100
AcDbText
 10
2255.551633943707
 20
1232.906219309908
 30
317.4042898971376
 40
4.035859377543528
  1
Model
  7
CHINESET
 72
     4
 11
2263.238985139028
 21
1234.92414899868
 31
317.4042898971376
100
AcDbText
  0
TEXT
  5
1073
330
1F
100
AcDbEntity
  8
LOGO
  6
Continuous
 62
     6
100
AcDbText
 10
2302.200326574578
 20
1232.906219309908
 30
317.4042898971376
 40
4.035859377543528
  1
Bore
 41
0.8
  7
CHINESET
 72
     4
 11
2307.197104851537
 21
1234.92414899868
 31
317.4042898971376
100
AcDbText
  0
TEXT
  5
1074
330
1F
100
AcDbEntity
  8
LOGO
 62
     6
100
AcDbText
 10
2256.64708148904
 20
1239.8498041445
 30
317.4042898971376
 40
6.457375004069645
  1
型號
  7
CHINESET
 72
     4
 11
2263.238985139028
 21
1242.995867753767
 31
317.4042898971376
100
AcDbText
  0
TEXT
  5
1075
330
1F
100
AcDbEntity
  8
LOGO
 62
     6
100
AcDbText
 10
2301.022240003895
 20
1239.767180251732
 30
317.4042898971376
 40
6.457375004069645
  1
內徑
 41
0.9
  7
CHINESET
 72
     4
 11
2307.197104851537
 21
1242.995867753767
 31
317.4042898971376
100
AcDbText
  0
TEXT
  5
1076
330
1F
100
AcDbEntity
  8
LOGO
  6
Continuous
 62
     6
100
AcDbText
 10
2337.500422418158
 20
1233.578862539499
 30
317.4042898971376
 40
4.035859377543528
  1
Length
 41
0.8
  7
CHINESET
 72
     4
 11
2345.034026589572
 21
1234.92414899868
 31
317.4042898971376
100
AcDbText
  0
TEXT
  5
1077
330
1F
100
AcDbEntity
  8
LOGO
 62
     6
100
AcDbText
 10
2339.22238908591
 20
1239.96870840044
 30
317.4042898971376
 40
6.457375004069645
  1
長度
 41
0.9
  7
CHINESET
 72
     4
 11
2345.034026589572
 21
1242.995867753767
 31
317.4042898971376
100
AcDbText
  0
LWPOLYLINE
  5
1078
330
1F
100
AcDbEntity
  8
0
 62
     4
100
AcDbPolyline
 90
        4
 70
     1
 43
0.0
 10
2070.706427120323
 20
1275.282742774115
 10
2985.891527513135
 20
1275.282742774115
 10
2985.891527513135
 20
1816.166740967532
 10
2070.706427120323
 20
1816.166740967532
1001
GENIUS_GENREC_14
1002
{
1000
PYDIR
1011
2070.706427120323
1021
1816.166740967532
1031
0.0
1002
}
1002
{
1000
PXDIR
1011
2985.891527513135
1021
1275.282742774115
1031
0.0
1002
}
1002
{
1000
PORI
1011
2070.706427120323
1021
1275.282742774115
1031
0.0
1002
}
1002
{
1000
PINS
1011
2070.706427120323
1021
1275.282742774115
1031
0.0
1002
}
1002
{
1000
PINS2
1011
2985.891527513135
1021
1816.166740967532
1031
0.0
1002
}
1002
{
1000
C
1070
     1
1002
}
1001
GENIUS_GENODEF_13
1002
{
1000
HIER
1070
     0
1002
}
1002
{
1000
MANEDIT
1070
     0
1002
}
1002
{
1000
NOSEL
1070
     0
1002
}
1002
{
1000
BEHIND
1070
     0
1002
}
1002
{
1000
OTHER
1070
     0
1002
}
1002
{
1000
REACTOR
1002
}
1001
GENIUS_GENOBJ-N-REC_13
1002
{
1000
OWNER
1000
GEN
1002
}
  0
SOLID
  5
1079
330
1F
100
AcDbEntity
  8
LOGO
 62
     5
100
AcDbTrace
 10
2075.731149770105
 20
1254.275405362786
 30
0.0
 11
2077.825149402785
 21
1254.275405362785
 31
0.0
 12
2086.562182352932
 22
1274.132298431301
 32
0.0
 13
2088.656181985611
 23
1274.132298431299
 33
0.0
  0
SOLID
  5
107A
330
1F
100
AcDbEntity
  8
LOGO
 62
     5
100
AcDbTrace
 10
2078.691632009412
 20
1254.275405362786
 30
0.0
 11
2080.785631642092
 21
1254.275405362786
 31
0.0
 12
2088.656181985611
 22
1272.543746985818
 32
0.0
 13
2086.562182352932
 23
1264.865748332659
 33
0.0
  0
SOLID
  5
107B
330
1F
100
AcDbEntity
  8
LOGO
 62
     2
100
AcDbTrace
 10
2077.825149402785
 20
1254.275405362785
 30
0.0
 11
2078.691632009412
 21
1254.275405362786
 31
0.0
 12
2088.656181985611
 22
1274.132298431299
 32
0.0
 13
2089.522664592237
 23
1274.132298431299
 33
0.0
  0
SOLID
  5
107C
330
1F
100
AcDbEntity
  8
LOGO
 62
     5
100
AcDbTrace
 10
2072.373954847308
 20
1247.054716974236
 30
0.0
 11
2073.096023686164
 21
1247.054716974236
 31
0.0
 12
2075.129425737726
 22
1250.66506116851
 32
0.0
 13
2075.851494576582
 23
1250.66506116851
 33
0.0
  0
SOLID
  5
107D
330
1F
100
AcDbEntity
  8
LOGO
 62
     5
100
AcDbTrace
 10
2075.129425737726
 20
1250.66506116851
 30
0.0
 11
2075.851494576582
 21
1250.66506116851
 31
0.0
 12
2075.129425737726
 22
1247.054716974236
 32
0.0
 13
2075.851494576582
 23
1247.054716974236
 33
0.0
  0
SOLID
  5
107E
330
1F
100
AcDbEntity
  8
LOGO
 62
     5
100
AcDbTrace
 10
2075.129425737726
 20
1247.054716974236
 30
0.0
 11
2075.851494576582
 21
1247.054716974236
 31
0.0
 12
2077.884896628146
 22
1250.66506116851
 32
0.0
 13
2078.606965467001
 23
1250.66506116851
 33
0.0
  0
SOLID
  5
107F
330
1F
100
AcDbEntity
  8
LOGO
 62
     5
100
AcDbTrace
 10
2077.884896628146
 20
1250.66506116851
 30
0.0
 11
2078.606965467001
 21
1250.66506116851
 31
0.0
 12
2077.884896628146
 22
1247.054716974236
 32
0.0
 13
2078.606965467001
 23
1247.054716974236
 33
0.0
  0
POLYLINE
  5
1080
330
1F
100
AcDbEntity
  8
LOGO
 62
     5
100
AcDb2dPolyline
 66
     1
 10
0.0
 20
0.0
 30
0.0
 40
0.7232260004558006
 41
0.7232260004558006
  0
VERTEX
  5
1081
330
1080
100
AcDbEntity
  8
LOGO
 62
     5
100
AcDbVertex
100
AcDb2dVertex
 10
2102.088398130717
 20
1249.2209234908
 30
0.0
 42
1.0
  0
VERTEX
  5
1082
330
1080
100
AcDbEntity
  8
LOGO
 62
     5
100
AcDbVertex
100
AcDb2dVertex
 10
2099.91872012935
 20
1249.2209234908
 30
0.0
 42
1.0
  0
SEQEND
  5
1083
330
1080
100
AcDbEntity
  8
LOGO
 62
     5
  0
POLYLINE
  5
1084
330
1F
100
AcDbEntity
  8
LOGO
 62
     5
100
AcDb2dPolyline
 66
     1
 10
0.0
 20
0.0
 30
0.0
 70
     1
  0
VERTEX
  5
1085
330
1084
100
AcDbEntity
  8
LOGO
 62
     5
100
AcDbVertex
100
AcDb2dVertex
 10
2095.828780589493
 20
1248.859889071372
 30
0.0
 42
1.000000057330635
  0
VERTEX
  5
1086
330
1084
100
AcDbEntity
  8
LOGO
 62
     5
100
AcDbVertex
100
AcDb2dVertex
 10
2097.994987106059
 20
1248.859889071372
 30
0.0
 42
1.000000057330635
  0
SEQEND
  5
1087
330
1084
100
AcDbEntity
  8
LOGO
 62
     5
  0
CIRCLE
  5
1088
330
1F
100
AcDbEntity
  8
LOGO
 62
     5
100
AcDbCircle
 10
2096.911883847776
 20
1248.859889071372
 30
0.0
 40
1.083103258282607
  0
POLYLINE
  5
1089
330
1F
100
AcDbEntity
  8
LOGO
 62
     5
100
AcDb2dPolyline
 66
     1
 10
0.0
 20
0.0
 30
0.0
 70
     1
 40
0.7232260004558006
 41
0.7232260004558006
  0
VERTEX
  5
108A
330
1089
100
AcDbEntity
  8
LOGO
 62
     5
100
AcDbVertex
100
AcDb2dVertex
 10
2095.465431846865
 20
1248.859889071372
 30
0.0
 42
1.0
  0
VERTEX
  5
108B
330
1089
100
AcDbEntity
  8
LOGO
 62
     5
100
AcDbVertex
100
AcDb2dVertex
 10
2098.358335848689
 20
1248.859889071372
 30
0.0
 42
1.0
  0
SEQEND
  5
108C
330
1089
100
AcDbEntity
  8
LOGO
 62
     5
  0
LINE
  5
108D
330
1F
100
AcDbEntity
  8
LOGO
 62
     5
100
AcDbLine
 10
2102.447696807743
 20
1247.054716974236
 30
0.0
 11
2102.447696807743
 21
1249.2209234908
 31
0.0
  0
SOLID
  5
108E
330
1F
100
AcDbEntity
  8
LOGO
 62
     5
100
AcDbTrace
 10
2097.994914899177
 20
1250.66506116851
 30
0.0
 11
2098.716983738031
 21
1250.66506116851
 31
0.0
 12
2097.994914899177
 22
1247.054716974236
 32
0.0
 13
2098.716983738031
 23
1247.054716974236
 33
0.0
  0
SOLID
  5
108F
330
1F
100
AcDbEntity
  8
LOGO
 62
     5
100
AcDbTrace
 10
2099.559421452322
 20
1247.054716974236
 30
0.0
 11
2100.281490291178
 21
1247.054716974236
 31
0.0
 12
2099.559421452322
 22
1250.66506116851
 32
0.0
 13
2100.281490291178
 23
1250.66506116851
 33
0.0
  0
SOLID
  5
1090
330
1F
100
AcDbEntity
  8
LOGO
 62
     5
100
AcDbTrace
 10
2101.725627968889
 20
1249.2209234908
 30
0.0
 11
2102.447696807743
 21
1249.2209234908
 31
0.0
 12
2101.725627968889
 22
1247.054716974236
 32
0.0
 13
2102.447696807743
 23
1247.054716974236
 33
0.0
  0
SOLID
  5
1091
330
1F
100
AcDbEntity
  8
LOGO
 62
     5
100
AcDbTrace
 10
2099.487214568437
 20
1272.543746985818
 30
0.0
 11
2097.393214935758
 21
1264.865748332659
 31
0.0
 12
2099.487214568437
 22
1254.275405362785
 32
0.0
 13
2097.393214935758
 23
1254.275405362785
 33
0.0
  0
SOLID
  5
1092
330
1F
100
AcDbEntity
  8
LOGO
 62
     5
100
AcDbTrace
 10
2100.353697175063
 20
1254.275405362785
 30
0.0
 11
2102.447696807743
 21
1254.275405362785
 31
0.0
 12
2100.353697175063
 22
1274.132298431299
 32
0.0
 13
2102.447696807743
 23
1274.132298431301
 33
0.0
  0
SOLID
  5
1093
330
1F
100
AcDbEntity
  8
LOGO
 62
     2
100
AcDbTrace
 10
2099.487214568437
 20
1274.132298431301
 30
0.0
 11
2100.353697175063
 21
1274.132298431299
 31
0.0
 12
2099.487214568437
 22
1254.275405362785
 32
0.0
 13
2100.353697175063
 23
1254.275405362785
 33
0.0
  0
POLYLINE
  5
1094
330
1F
100
AcDbEntity
  8
LOGO
 62
     5
100
AcDb2dPolyline
 66
     1
 10
0.0
 20
0.0
 30
0.0
 40
0.7232260004558006
 41
0.7232260004558006
  0
VERTEX
  5
1095
330
1094
100
AcDbEntity
  8
LOGO
 62
     5
100
AcDbVertex
100
AcDb2dVertex
 10
2091.738696635871
 20
1249.2209234908
 30
0.0
 42
1.0
  0
VERTEX
  5
1096
330
1094
100
AcDbEntity
  8
LOGO
 62
     5
100
AcDbVertex
100
AcDb2dVertex
 10
2089.569018634504
 20
1249.2209234908
 30
0.0
 42
1.0
  0
SEQEND
  5
1097
330
1094
100
AcDbEntity
  8
LOGO
 62
     5
  0
POLYLINE
  5
1098
330
1F
100
AcDbEntity
  8
LOGO
 62
     5
100
AcDb2dPolyline
 66
     1
 10
0.0
 20
0.0
 30
0.0
 40
0.7232260004558006
 41
0.7232260004558006
  0
VERTEX
  5
1099
330
1098
100
AcDbEntity
  8
LOGO
 62
     5
100
AcDbVertex
100
AcDb2dVertex
 10
2093.904903152436
 20
1249.2209234908
 30
0.0
 42
1.0
  0
VERTEX
  5
109A
330
1098
100
AcDbEntity
  8
LOGO
 62
     5
100
AcDbVertex
100
AcDb2dVertex
 10
2091.735225151068
 20
1249.2209234908
 30
0.0
 42
1.0
  0
SEQEND
  5
109B
330
1098
100
AcDbEntity
  8
LOGO
 62
     5
  0
POLYLINE
  5
109C
330
1F
100
AcDbEntity
  8
LOGO
 62
     5
100
AcDb2dPolyline
 66
     1
 10
0.0
 20
0.0
 30
0.0
 40
0.7232260004558006
 41
0.7232260004558006
  0
VERTEX
  5
109D
330
109C
100
AcDbEntity
  8
LOGO
 62
     5
100
AcDbVertex
100
AcDb2dVertex
 10
2083.555201657592
 20
1249.2209234908
 30
0.0
 42
1.0
  0
VERTEX
  5
109E
330
109C
100
AcDbEntity
  8
LOGO
 62
     5
100
AcDbVertex
100
AcDb2dVertex
 10
2081.385523656225
 20
1249.2209234908
 30
0.0
 42
1.0
  0
SEQEND
  5
109F
330
109C
100
AcDbEntity
  8
LOGO
 62
     5
  0
SOLID
  5
10A0
330
1F
100
AcDbEntity
  8
LOGO
 62
     5
100
AcDbTrace
 10
2081.026224979198
 20
1250.66506116851
 30
0.0
 11
2081.748293818053
 21
1250.66506116851
 31
0.0
 12
2081.026224979198
 22
1247.054716974236
 32
0.0
 13
2081.748293818053
 23
1247.054716974236
 33
0.0
  0
SOLID
  5
10A1
330
1F
100
AcDbEntity
  8
LOGO
 62
     5
100
AcDbTrace
 10
2083.192431495763
 20
1249.2209234908
 30
0.0
 11
2083.914500334619
 21
1249.2209234908
 31
0.0
 12
2083.192431495763
 22
1247.054716974236
 32
0.0
 13
2083.914500334619
 23
1247.054716974236
 33
0.0
  0
POLYLINE
  5
10A2
330
1F
100
AcDbEntity
  8
LOGO
 62
     5
100
AcDb2dPolyline
 66
     1
 10
0.0
 20
0.0
 30
0.0
 70
     1
 40
0.7232260004558006
 41
0.7232260004558006
  0
VERTEX
  5
10A3
330
10A2
100
AcDbEntity
  8
LOGO
 62
     5
100
AcDbVertex
100
AcDb2dVertex
 10
2085.115730352019
 20
1248.859889071372
 30
0.0
 42
1.0
  0
VERTEX
  5
10A4
330
10A2
100
AcDbEntity
  8
LOGO
 62
     5
100
AcDbVertex
100
AcDb2dVertex
 10
2088.008634353842
 20
1248.859889071372
 30
0.0
 42
1.0
  0
SEQEND
  5
10A5
330
10A2
100
AcDbEntity
  8
LOGO
 62
     5
  0
SOLID
  5
10A6
330
1F
100
AcDbEntity
  8
LOGO
 62
     5
100
AcDbTrace
 10
2087.645213404331
 20
1251.748164426793
 30
0.0
 11
2088.367282243185
 21
1251.748164426793
 31
0.0
 12
2087.645213404331
 22
1247.054716974236
 32
0.0
 13
2088.367282243185
 23
1247.054716974236
 33
0.0
  0
SOLID
  5
10A7
330
1F
100
AcDbEntity
  8
LOGO
 62
     5
100
AcDbTrace
 10
2089.209719957479
 20
1250.66506116851
 30
0.0
 11
2089.931788796333
 21
1250.66506116851
 31
0.0
 12
2089.209719957479
 22
1247.054716974236
 32
0.0
 13
2089.931788796333
 23
1247.054716974236
 33
0.0
  0
SOLID
  5
10A8
330
1F
100
AcDbEntity
  8
LOGO
 62
     5
100
AcDbTrace
 10
2091.375926474043
 20
1249.2209234908
 30
0.0
 11
2092.097995312898
 21
1249.2209234908
 31
0.0
 12
2091.375926474043
 22
1247.054716974236
 32
0.0
 13
2092.097995312898
 23
1247.054716974236
 33
0.0
  0
SOLID
  5
10A9
330
1F
100
AcDbEntity
  8
LOGO
 62
     5
100
AcDbTrace
 10
2093.542132990608
 20
1249.2209234908
 30
0.0
 11
2094.264201829462
 21
1249.2209234908
 31
0.0
 12
2093.542132990608
 22
1247.054716974234
 32
0.0
 13
2094.264201829462
 23
1247.054716974234
 33
0.0
  0
SOLID
  5
10AA
330
1F
100
AcDbEntity
  8
LOGO
 62
     5
100
AcDbTrace
 10
2079.461718426049
 20
1251.170509355708
 30
0.0
 11
2080.183787264906
 21
1251.170509355708
 31
0.0
 12
2079.461718426049
 22
1251.748164426793
 32
0.0
 13
2080.183787264906
 23
1251.748164426793
 33
0.0
  0
SOLID
  5
10AB
330
1F
100
AcDbEntity
  8
LOGO
 62
     5
100
AcDbTrace
 10
2079.461718426049
 20
1250.66506116851
 30
0.0
 11
2080.183787264906
 21
1250.66506116851
 31
0.0
 12
2079.461718426049
 22
1247.054716974234
 32
0.0
 13
2080.183787264906
 23
1247.054716974236
 33
0.0
  0
SOLID
  5
10AC
330
1F
100
AcDbEntity
  8
LOGO
 62
     5
100
AcDbTrace
 10
2086.562182352932
 20
1254.275405362786
 30
0.0
 11
2088.656181985611
 21
1254.275405362786
 31
0.0
 12
2086.562182352932
 22
1264.865748332659
 32
0.0
 13
2088.656181985611
 23
1272.543746985818
 33
0.0
  0
SOLID
  5
10AD
330
1F
100
AcDbEntity
  8
LOGO
 62
     5
100
AcDbTrace
 10
2089.522664592237
 20
1274.132298431299
 30
0.0
 11
2091.616664224917
 21
1274.132298431301
 31
0.0
 12
2089.522664592237
 22
1255.863956808266
 32
0.0
 13
2091.616664224917
 23
1263.541955461426
 33
0.0
  0
SOLID
  5
10AE
330
1F
100
AcDbEntity
  8
LOGO
 62
     2
100
AcDbTrace
 10
2088.656181985611
 20
1274.132298431299
 30
0.0
 11
2089.522664592237
 21
1274.132298431299
 31
0.0
 12
2088.656181985611
 22
1254.275405362786
 32
0.0
 13
2089.522664592237
 23
1254.275405362786
 33
0.0
  0
SOLID
  5
10AF
330
1F
100
AcDbEntity
  8
LOGO
 62
     5
100
AcDbTrace
 10
2089.522664592237
 20
1255.863956808266
 30
0.0
 11
2091.616664224917
 21
1263.541955461426
 31
0.0
 12
2099.487214568437
 22
1274.132298431301
 32
0.0
 13
2097.393214935758
 23
1274.132298431301
 33
0.0
  0
SOLID
  5
10B0
330
1F
100
AcDbEntity
  8
LOGO
 62
     5
100
AcDbTrace
 10
2089.522664592237
 20
1254.275405362786
 30
0.0
 11
2091.616664224917
 21
1254.275405362786
 31
0.0
 12
2099.487214568437
 22
1272.543746985818
 32
0.0
 13
2097.393214935758
 23
1264.865748332659
 33
0.0
  0
SOLID
  5
10B1
330
1F
100
AcDbEntity
  8
LOGO
 62
     2
100
AcDbTrace
 10
2088.656181985611
 20
1254.275405362786
 30
0.0
 11
2089.522664592237
 21
1254.275405362786
 31
0.0
 12
2099.487214568437
 22
1274.132298431301
 32
0.0
 13
2100.353697175063
 23
1274.132298431299
 33
0.0
  0
TEXT
  5
10B2
330
1F
100
AcDbEntity
  8
0
100
AcDbText
 10
2179.399137062885
 20
1229.428903755078
 30
0.0
 40
4.038437843256959
  1
1050526
 41
0.8
  7
CHINESET
 72
     1
 11
2189.322155763459
 21
1229.428903755078
 31
0.0
100
AcDbText
  0
LINE
  5
10B3
330
1F
100
AcDbEntity
  8
LOGO
 62
     1
100
AcDbLine
 10
2201.782403280872
 20
1236.538492749698
 30
0.0
 11
2201.782403280872
 21
1226.852430243593
 31
0.0
  0
LINE
  5
10B4
330
1F
100
AcDbEntity
  8
LOGO
 62
     1
100
AcDbLine
 10
2201.782403280872
 20
1236.538492749698
 30
0.0
 11
2177.253114687472
 21
1236.538492749698
 31
0.0
  0
LWPOLYLINE
  5
10B5
330
1F
100
AcDbEntity
  8
0
 62
     1
100
AcDbPolyline
 90
        4
 70
     1
 43
0.0
 10
2070.706427120323
 20
1275.282742774115
 10
2985.891527513135
 20
1275.282742774115
 10
2985.891527513135
 20
1226.852430243593
 10
2070.706427120323
 20
1226.852430243593
1001
GENIUS_GENREC_14
1002
{
1000
PYDIR
1011
2070.706427120323
1021
1226.852430243593
1031
0.0
1002
}
1002
{
1000
PXDIR
1011
2985.891527513135
1021
1275.282742774115
1031
0.0
1002
}
1002
{
1000
PORI
1011
2070.706427120323
1021
1275.282742774115
1031
0.0
1002
}
1002
{
1000
PINS
1011
2070.706427120323
1021
1275.282742774115
1031
0.0
1002
}
1002
{
1000
PINS2
1011
2985.891527513135
1021
1226.852430243593
1031
0.0
1002
}
1002
{
1000
C
1070
     1
1002
}
1001
GENIUS_GENOBJ-N-REC_13
1002
{
1000
OWNER
1000
GEN
1002
}
1001
GENIUS_GENODEF_13
1002
{
1000
HIER
1070
     0
1002
}
1002
{
1000
MANEDIT
1070
     0
1002
}
1002
{
1000
NOSEL
1070
     0
1002
}
1002
{
1000
BEHIND
1070
     0
1002
}
1002
{
1000
OTHER
1070
     0
1002
}
1002
{
1000
REACTOR
1002
}
  0
LINE
  5
10B6
330
1F
100
AcDbEntity
  8
LOGO
 62
     6
100
AcDbLine
 10
2404.330595492987
 20
1248.646070882328
 30
0.0
 11
2404.330595492987
 21
1230.821331010987
 31
0.0
  0
LINE
  5
10B7
330
1F
100
AcDbEntity
  8
LOGO
 62
     6
100
AcDbLine
 10
2361.945955486177
 20
1248.646070882328
 30
0.0
 11
2361.945955486177
 21
1230.888289621136
 31
0.0
  0
LINE
  5
10B8
330
1F
100
AcDbEntity
  8
LOGO
 62
     6
100
AcDbLine
 10
2404.330595492987
 20
1230.888289621136
 30
0.0
 11
2361.945955486177
 21
1230.888289621136
 31
0.0
  0
LINE
  5
10B9
330
1F
100
AcDbEntity
  8
LOGO
 62
     6
100
AcDbLine
 10
2404.330595492987
 20
1248.646070882328
 30
0.0
 11
2361.945955486177
 21
1248.646070882328
 31
0.0
  0
LINE
  5
10BA
330
1F
100
AcDbEntity
  8
LOGO
 62
     6
100
AcDbLine
 10
2396.966662337636
 20
1255.910617761906
 30
0.0
 11
2370.074249079675
 21
1255.910617761906
 31
0.0
  0
LINE
  5
10BB
330
1F
100
AcDbEntity
  8
LOGO
 62
     6
100
AcDbLine
 10
2396.966662337636
 20
1270.439711521063
 30
0.0
 11
2370.074249079675
 21
1270.439711521063
 31
0.0
  0
LINE
  5
10BC
330
1F
100
AcDbEntity
  8
LOGO
 62
     6
100
AcDbLine
 10
2383.862359057115
 20
1255.910617761906
 30
0.0
 11
2383.862359057115
 21
1248.646070882328
 31
0.0
  0
LINE
  5
10BD
330
1F
100
AcDbEntity
  8
LOGO
 62
     6
100
AcDbLine
 10
2370.074249079675
 20
1270.439711521063
 30
0.0
 11
2370.074249079675
 21
1255.910617761906
 31
0.0
  0
TEXT
  5
10BE
330
1F
100
AcDbEntity
  8
LOGO
  6
Continuous
 62
     7
100
AcDbText
 10
2377.355200257921
 20
1259.047771464637
 30
0.0
 40
8.071718755087056
  1
AH
  7
CHINESET
 72
     1
 11
2384.27381633371
 21
1263.08363084218
 31
0.0
100
AcDbText
 73
     2
  0
LINE
  5
10BF
330
1F
100
AcDbEntity
  8
LOGO
 62
     6
100
AcDbLine
 10
2396.966662337636
 20
1270.439711521063
 30
0.0
 11
2396.966662337636
 21
1255.910617761906
 31
0.0
  0
TEXT
  5
10C0
330
1F
100
AcDbEntity
  8
LOGO
  6
Continuous
 62
     6
100
AcDbText
 10
2364.302077720353
 20
1232.906219309908
 30
317.4042898971376
 40
4.035859377543528
  1
Air-Oil coverter
 41
0.8
  7
CHINESET
 72
     4
 11
2383.520455708655
 21
1234.92414899868
 31
317.4042898971376
100
AcDbText
  0
TEXT
  5
10C1
330
1F
100
AcDbEntity
  8
LOGO
 62
     6
100
AcDbText
 10
2377.708818204993
 20
1239.932428037269
 30
317.4042898971376
 40
6.457375004069645
  1
型式
 41
0.9
  7
CHINESET
 72
     4
 11
2383.520455708655
 21
1242.995867753767
 31
317.4042898971376
100
AcDbText
  0
LINE
  5
10C2
330
1F
100
AcDbEntity
  8
LOGO
  6
Continuous
 62
     7
100
AcDbLine
 10
2360.717062863196
 20
1263.12370029525
 30
0.0
 11
2367.132580524165
 21
1263.12370029525
 31
0.0
  0
TEXT
  5
10C3
330
1F
100
AcDbEntity
  8
0
100
AcDbText
 10
2100.723981961867
 20
1786.05257444151
 30
0.0
 40
12.012
  1
Length=50mm
100
AcDbText
  0
LINE
  5
1491
330
1F
100
AcDbEntity
  8
0
 62
     1
100
AcDbLine
 10
2462.366379410672
 20
1323.550252385792
 30
0.0
 11
2462.366379410672
 21
1328.550252385792
 31
0.0
  0
LINE
  5
1492
330
1F
100
AcDbEntity
  8
0
 62
     1
100
AcDbLine
 10
2464.866379410671
 20
1326.050252385792
 30
0.0
 11
2459.866379410672
 21
1326.050252385792
 31
0.0
  0
LINE
  5
1493
330
1F
100
AcDbEntity
  8
CENTER
  6
CENTER
100
AcDbLine
 10
2212.681012996345
 20
1577.619868161949
 30
0.0
 11
2212.681012996345
 21
1746.023636347759
 31
0.0
  0
LINE
  5
1494
102
{ACAD_REACTORS
330
20E4
102
}
330
1F
100
AcDbEntity
  8
CENTER
  6
CENTER
100
AcDbLine
 10
2297.667247889418
 20
1663.291059141518
 30
0.0
 11
2127.694778103272
 21
1663.291059141518
 31
0.0
  0
LINE
  5
1495
330
1F
100
AcDbEntity
  8
0
 62
     7
100
AcDbLine
 10
2286.843063506131
 20
1722.453109651304
 30
0.0
 11
2286.843063506131
 21
1604.129008631732
 31
0.0
  0
LINE
  5
1496
330
1F
100
AcDbEntity
  8
0
 62
     7
100
AcDbLine
 10
2138.518962486559
 20
1722.453109651304
 30
0.0
 11
2138.518962486559
 21
1604.129005123656
 31
0.0
  0
LINE
  5
1497
330
1F
100
AcDbEntity
  8
0
 62
     7
100
AcDbLine
 10
2271.843063506131
 20
1589.129008631732
 30
0.0
 11
2153.5189705998
 21
1589.129008631732
 31
0.0
  0
LINE
  5
1498
330
1F
100
AcDbEntity
  8
0
 62
     7
100
AcDbLine
 10
2271.843063506131
 20
1737.453109651304
 30
0.0
 11
2153.518962486558
 21
1737.453109651304
 31
0.0
  0
ARC
  5
1499
330
1F
100
AcDbEntity
  8
0
 62
     7
100
AcDbCircle
 10
2153.518962486558
 20
1604.129008631732
 30
0.0
 40
15.0
100
AcDbArc
 50
180.0
 51
270.0
  0
ARC
  5
149A
330
1F
100
AcDbEntity
  8
0
 62
     7
100
AcDbCircle
 10
2271.843063506131
 20
1604.129008631732
 30
0.0
 40
15.0
100
AcDbArc
 50
270.0
 51
0.0
  0
ARC
  5
149B
330
1F
100
AcDbEntity
  8
0
 62
     7
100
AcDbCircle
 10
2271.843063506131
 20
1722.453109651304
 30
0.0
 40
15.0
100
AcDbArc
 50
0.0
 51
90.0
  0
ARC
  5
149C
330
1F
100
AcDbEntity
  8
0
 62
     7
100
AcDbCircle
 10
2153.518962486558
 20
1722.453109651304
 30
0.0
 40
15.0
100
AcDbArc
 50
90.0
 51
180.0
  0
LINE
  5
149D
330
1F
100
AcDbEntity
  8
0
 62
     7
100
AcDbLine
 10
2179.681012996345
 20
1601.129008631732
 30
0.0
 11
2179.681012996345
 21
1618.291059141518
 31
0.0
  0
LINE
  5
149E
330
1F
100
AcDbEntity
  8
0
 62
     7
100
AcDbLine
 10
2167.681012996345
 20
1630.291059141518
 30
0.0
 11
2150.518962486558
 21
1630.291059141518
 31
0.0
  0
LINE
  5
149F
330
1F
100
AcDbEntity
  8
0
 62
     7
100
AcDbLine
 10
2245.681012996345
 20
1601.129008631732
 30
0.0
 11
2245.681012996345
 21
1618.291059141518
 31
0.0
  0
LINE
  5
14A0
330
1F
100
AcDbEntity
  8
0
 62
     7
100
AcDbLine
 10
2179.681012996345
 20
1725.453109651304
 30
0.0
 11
2179.681012996345
 21
1708.291059141518
 31
0.0
  0
LINE
  5
14A1
330
1F
100
AcDbEntity
  8
0
 62
     7
100
AcDbLine
 10
2245.681012996345
 20
1725.453109651304
 30
0.0
 11
2245.681012996345
 21
1708.291059141518
 31
0.0
  0
LINE
  5
14A2
330
1F
100
AcDbEntity
  8
0
 62
     7
100
AcDbLine
 10
2167.681012996345
 20
1696.291059141518
 30
0.0
 11
2150.518962486558
 21
1696.291059141518
 31
0.0
  0
LINE
  5
14A3
330
1F
100
AcDbEntity
  8
0
 62
     7
100
AcDbLine
 10
2257.681012996345
 20
1630.291059141518
 30
0.0
 11
2274.843063506131
 21
1630.291059141518
 31
0.0
  0
LINE
  5
14A4
330
1F
100
AcDbEntity
  8
0
 62
     7
100
AcDbLine
 10
2257.681012996345
 20
1696.291059141518
 30
0.0
 11
2274.843063506131
 21
1696.291059141518
 31
0.0
  0
ARC
  5
14A5
330
1F
100
AcDbEntity
  8
0
 62
     7
100
AcDbCircle
 10
2167.681012996344
 20
1618.291059141517
 30
0.0
 40
12.0
100
AcDbArc
 50
0.0
 51
90.0
  0
ARC
  5
14A6
330
1F
100
AcDbEntity
  8
0
 62
     7
100
AcDbCircle
 10
2257.681012996344
 20
1618.291059141517
 30
0.0
 40
12.0
100
AcDbArc
 50
90.0
 51
180.0
  0
ARC
  5
14A7
330
1F
100
AcDbEntity
  8
0
 62
     7
100
AcDbCircle
 10
2167.681012996344
 20
1708.291059141518
 30
0.0
 40
12.0
100
AcDbArc
 50
270.0
 51
0.0
  0
ARC
  5
14A8
330
1F
100
AcDbEntity
  8
0
 62
     7
100
AcDbCircle
 10
2257.681012996344
 20
1708.291059141518
 30
0.0
 40
12.0
100
AcDbArc
 50
180.0
 51
270.0
  0
LINE
  5
14A9
330
1F
100
AcDbEntity
  8
0
 62
     7
100
AcDbLine
 10
2186.681012996345
 20
1601.129008631733
 30
0.0
 11
2186.681012996345
 21
1618.291059141518
 31
0.0
  0
LINE
  5
14AA
330
1F
100
AcDbEntity
  8
0
 62
     7
100
AcDbLine
 10
2238.681012996345
 20
1601.129008631733
 30
0.0
 11
2238.681012996345
 21
1618.291059141518
 31
0.0
  0
LINE
  5
14AB
330
1F
100
AcDbEntity
  8
0
 62
     7
100
AcDbLine
 10
2257.681012996346
 20
1637.291059141518
 30
0.0
 11
2274.843063506131
 21
1637.291059141518
 31
0.0
  0
LINE
  5
14AC
330
1F
100
AcDbEntity
  8
0
 62
     7
100
AcDbLine
 10
2257.681012996345
 20
1689.291059141518
 30
0.0
 11
2274.843063506131
 21
1689.291059141518
 31
0.0
  0
LINE
  5
14AD
330
1F
100
AcDbEntity
  8
0
 62
     7
100
AcDbLine
 10
2238.681012996345
 20
1725.453109651304
 30
0.0
 11
2238.681012996345
 21
1708.291059141518
 31
0.0
  0
LINE
  5
14AE
330
1F
100
AcDbEntity
  8
0
 62
     7
100
AcDbLine
 10
2186.681012996345
 20
1725.453109651304
 30
0.0
 11
2186.681012996345
 21
1708.291059141518
 31
0.0
  0
LINE
  5
14AF
330
1F
100
AcDbEntity
  8
0
 62
     7
100
AcDbLine
 10
2167.681012996345
 20
1689.291059141518
 30
0.0
 11
2150.518962486558
 21
1689.291059141518
 31
0.0
  0
LINE
  5
14B0
330
1F
100
AcDbEntity
  8
0
 62
     7
100
AcDbLine
 10
2167.681012996345
 20
1637.291059141518
 30
0.0
 11
2150.518962486558
 21
1637.291059141518
 31
0.0
  0
LINE
  5
14B1
330
1F
100
AcDbEntity
  8
0
 62
     7
100
AcDbLine
 10
2145.518962486558
 20
1684.291059141518
 30
0.0
 11
2145.518962486558
 21
1642.291059141518
 31
0.0
  0
LINE
  5
14B2
330
1F
100
AcDbEntity
  8
0
 62
     7
100
AcDbLine
 10
2233.681012996345
 20
1596.129008631732
 30
0.0
 11
2191.681012996345
 21
1596.129008631732
 31
0.0
  0
LINE
  5
14B3
330
1F
100
AcDbEntity
  8
0
 62
     7
100
AcDbLine
 10
2279.843063506131
 20
1684.291059141518
 30
0.0
 11
2279.843063506131
 21
1642.291059141518
 31
0.0
  0
LINE
  5
14B4
330
1F
100
AcDbEntity
  8
0
 62
     7
100
AcDbLine
 10
2233.681012996345
 20
1730.453109651304
 30
0.0
 11
2191.681012996345
 21
1730.453109651304
 31
0.0
  0
CIRCLE
  5
14B5
330
1F
100
AcDbEntity
  8
0
 62
     7
100
AcDbCircle
 10
2154.181012996344
 20
1721.791059141518
 30
0.0
 40
8.0
  0
LINE
  5
14B6
330
1F
100
AcDbEntity
  8
CENTER
  6
CENTER
100
AcDbLine
 10
2272.681012996345
 20
1604.791059141518
 30
0.0
 11
2269.681012996345
 21
1604.791059141518
 31
0.0
  0
LINE
  5
14B7
330
1F
100
AcDbEntity
  8
CENTER
  6
CENTER
100
AcDbLine
 10
2271.181012996345
 20
1606.291059141518
 30
0.0
 11
2271.181012996345
 21
1603.291059141518
 31
0.0
  0
LINE
  5
14B8
330
1F
100
AcDbEntity
  8
CENTER
  6
CENTER
100
AcDbLine
 10
2274.181012996345
 20
1604.791059141518
 30
0.0
 11
2280.681012996345
 21
1604.791059141518
 31
0.0
  0
LINE
  5
14B9
330
1F
100
AcDbEntity
  8
CENTER
  6
CENTER
100
AcDbLine
 10
2268.181012996345
 20
1604.791059141518
 30
0.0
 11
2261.681012996345
 21
1604.791059141518
 31
0.0
  0
LINE
  5
14BA
330
1F
100
AcDbEntity
  8
CENTER
  6
CENTER
100
AcDbLine
 10
2271.181012996345
 20
1607.791059141518
 30
0.0
 11
2271.181012996345
 21
1614.291059141518
 31
0.0
  0
LINE
  5
14BB
330
1F
100
AcDbEntity
  8
CENTER
  6
CENTER
100
AcDbLine
 10
2271.181012996345
 20
1601.791059141518
 30
0.0
 11
2271.181012996345
 21
1595.291059141518
 31
0.0
  0
LINE
  5
14BC
330
1F
100
AcDbEntity
  8
CENTER
  6
CENTER
100
AcDbLine
 10
2155.681012996345
 20
1604.791059141518
 30
0.0
 11
2152.681012996345
 21
1604.791059141518
 31
0.0
  0
LINE
  5
14BD
330
1F
100
AcDbEntity
  8
CENTER
  6
CENTER
100
AcDbLine
 10
2154.181012996345
 20
1606.291059141518
 30
0.0
 11
2154.181012996345
 21
1603.291059141518
 31
0.0
  0
LINE
  5
14BE
330
1F
100
AcDbEntity
  8
CENTER
  6
CENTER
100
AcDbLine
 10
2157.181012996344
 20
1604.791059141518
 30
0.0
 11
2163.681012996345
 21
1604.791059141518
 31
0.0
  0
LINE
  5
14BF
330
1F
100
AcDbEntity
  8
CENTER
  6
CENTER
100
AcDbLine
 10
2151.181012996345
 20
1604.791059141518
 30
0.0
 11
2144.681012996345
 21
1604.791059141518
 31
0.0
  0
LINE
  5
14C0
330
1F
100
AcDbEntity
  8
CENTER
  6
CENTER
100
AcDbLine
 10
2154.181012996345
 20
1607.791059141518
 30
0.0
 11
2154.181012996345
 21
1614.291059141518
 31
0.0
  0
LINE
  5
14C1
330
1F
100
AcDbEntity
  8
CENTER
  6
CENTER
100
AcDbLine
 10
2154.181012996345
 20
1601.791059141518
 30
0.0
 11
2154.181012996345
 21
1595.291059141518
 31
0.0
  0
LINE
  5
14C2
330
1F
100
AcDbEntity
  8
CENTER
  6
CENTER
100
AcDbLine
 10
2155.681012996345
 20
1721.791059141518
 30
0.0
 11
2152.681012996345
 21
1721.791059141518
 31
0.0
  0
LINE
  5
14C3
330
1F
100
AcDbEntity
  8
CENTER
  6
CENTER
100
AcDbLine
 10
2154.181012996345
 20
1723.291059141518
 30
0.0
 11
2154.181012996345
 21
1720.291059141518
 31
0.0
  0
LINE
  5
14C4
330
1F
100
AcDbEntity
  8
CENTER
  6
CENTER
100
AcDbLine
 10
2157.181012996344
 20
1721.791059141518
 30
0.0
 11
2163.681012996345
 21
1721.791059141518
 31
0.0
  0
LINE
  5
14C5
330
1F
100
AcDbEntity
  8
CENTER
  6
CENTER
100
AcDbLine
 10
2151.181012996345
 20
1721.791059141518
 30
0.0
 11
2144.681012996345
 21
1721.791059141518
 31
0.0
  0
LINE
  5
14C6
330
1F
100
AcDbEntity
  8
CENTER
  6
CENTER
100
AcDbLine
 10
2154.181012996345
 20
1724.791059141518
 30
0.0
 11
2154.181012996345
 21
1731.291059141518
 31
0.0
  0
LINE
  5
14C7
330
1F
100
AcDbEntity
  8
CENTER
  6
CENTER
100
AcDbLine
 10
2154.181012996345
 20
1718.791059141518
 30
0.0
 11
2154.181012996345
 21
1712.291059141518
 31
0.0
  0
LINE
  5
14C8
330
1F
100
AcDbEntity
  8
CENTER
  6
CENTER
100
AcDbLine
 10
2272.681012996345
 20
1721.791059141518
 30
0.0
 11
2269.681012996345
 21
1721.791059141518
 31
0.0
  0
LINE
  5
14C9
330
1F
100
AcDbEntity
  8
CENTER
  6
CENTER
100
AcDbLine
 10
2271.181012996345
 20
1723.291059141518
 30
0.0
 11
2271.181012996345
 21
1720.291059141518
 31
0.0
  0
LINE
  5
14CA
330
1F
100
AcDbEntity
  8
CENTER
  6
CENTER
100
AcDbLine
 10
2274.181012996345
 20
1721.791059141518
 30
0.0
 11
2280.681012996345
 21
1721.791059141518
 31
0.0
  0
LINE
  5
14CB
330
1F
100
AcDbEntity
  8
CENTER
  6
CENTER
100
AcDbLine
 10
2268.181012996345
 20
1721.791059141518
 30
0.0
 11
2261.681012996345
 21
1721.791059141518
 31
0.0
  0
LINE
  5
14CC
330
1F
100
AcDbEntity
  8
CENTER
  6
CENTER
100
AcDbLine
 10
2271.181012996345
 20
1724.791059141518
 30
0.0
 11
2271.181012996345
 21
1731.291059141518
 31
0.0
  0
LINE
  5
14CD
330
1F
100
AcDbEntity
  8
CENTER
  6
CENTER
100
AcDbLine
 10
2271.181012996345
 20
1718.791059141518
 30
0.0
 11
2271.181012996345
 21
1712.291059141518
 31
0.0
  0
LINE
  5
14CE
330
1F
100
AcDbEntity
  8
0
 62
     7
100
AcDbLine
 10
2287.681012996344
 20
1434.050252385791
 30
0.0
 11
2286.843063506131
 21
1466.050252385791
 31
0.0
  0
LINE
  5
14CF
330
1F
100
AcDbEntity
  8
0
 62
     7
100
AcDbLine
 10
2137.681012996345
 20
1434.050252385791
 30
0.0
 11
2138.518962486559
 21
1466.050252385791
 31
0.0
  0
LINE
  5
14D0
330
1F
100
AcDbEntity
  8
0
 62
     7
100
AcDbLine
 10
2280.681012996345
 20
1433.050252385791
 30
0.0
 11
2231.704328850028
 21
1433.050252385791
 31
0.0
  0
LINE
  5
14D1
330
1F
100
AcDbEntity
  8
0
 62
     7
100
AcDbLine
 10
2287.681012996344
 20
1434.050252385791
 30
0.0
 11
2231.066969530634
 21
1434.050252385791
 31
0.0
  0
LINE
  5
14D2
330
1F
100
AcDbEntity
  8
0
 62
     7
100
AcDbLine
 10
2280.681012996345
 20
1433.050252385791
 30
0.0
 11
2280.681012996345
 21
1434.050252385791
 31
0.0
  0
LINE
  5
14D3
330
1F
100
AcDbEntity
  8
0
 62
     7
100
AcDbLine
 10
2138.518962486559
 20
1466.050252385791
 30
0.0
 11
2141.481012996345
 21
1466.050252385792
 31
0.0
  0
LINE
  5
14D4
330
1F
100
AcDbEntity
  8
0
 62
     7
100
AcDbLine
 10
2144.681012996345
 20
1433.050252385791
 30
0.0
 11
2144.681012996345
 21
1434.050252385791
 31
0.0
  0
LINE
  5
14D5
330
1F
100
AcDbEntity
  8
CENTER
  6
CENTER
100
AcDbLine
 10
2212.681012996345
 20
1308.215553257769
 30
0.0
 11
2212.681012996345
 21
1518.631156361259
 31
0.0
  0
LINE
  5
14D6
330
1F
100
AcDbEntity
  8
0
 62
     7
100
AcDbLine
 10
2287.157294564961
 20
1454.050252385791
 30
0.0
 11
2214.436012016337
 21
1454.050252385791
 31
0.0
  0
LINE
  5
14D7
330
1F
100
AcDbEntity
  8
0
 62
     7
100
AcDbLine
 10
2245.681012996345
 20
1466.050252385791
 30
0.0
 11
2245.681012996345
 21
1454.050252385791
 31
0.0
  0
LINE
  5
14D8
330
1F
100
AcDbEntity
  8
0
 62
     7
100
AcDbLine
 10
2179.681012996345
 20
1466.050252385791
 30
0.0
 11
2179.681012996345
 21
1454.050252385791
 31
0.0
  0
LINE
  5
14D9
330
1F
100
AcDbEntity
  8
0
 62
     7
100
AcDbLine
 10
2257.681012996345
 20
1466.050252385791
 30
0.0
 11
2257.681012996345
 21
1454.050252385791
 31
0.0
  0
LINE
  5
14DA
330
1F
100
AcDbEntity
  8
0
 62
     7
100
AcDbLine
 10
2167.681012996345
 20
1466.050252385791
 30
0.0
 11
2167.681012996345
 21
1454.050252385791
 31
0.0
  0
CIRCLE
  5
14DD
330
1F
100
AcDbEntity
  8
0
 62
     7
100
AcDbCircle
 10
2201.681012996345
 20
1449.050252385791
 30
0.0
 40
13.69999999999993
  0
LINE
  5
14E4
330
1F
100
AcDbEntity
  8
0
 62
     7
100
AcDbLine
 10
2190.125457440789
 20
1596.377140902767
 30
0.0
 11
2190.125457440789
 21
1637.19996968003
 31
0.0
  0
LINE
  5
14E5
330
1F
100
AcDbEntity
  8
0
 62
     7
100
AcDbLine
 10
2217.575644064115
 20
1596.129008631732
 30
0.0
 11
2217.575644064115
 21
1634.707102335113
 31
0.0
  0
LINE
  5
14E6
330
1F
100
AcDbEntity
  8
0
 62
     7
100
AcDbLine
 10
2223.334244845071
 20
1596.129008631732
 30
0.0
 11
2223.334244845071
 21
1636.318690851409
 31
0.0
  0
LINE
  5
14E7
330
1F
100
AcDbEntity
  8
0
 62
     7
100
AcDbLine
 10
2233.797232618972
 20
1596.130359514291
 30
0.0
 11
2233.797232618971
 21
1638.398558421972
 31
0.0
  0
LINE
  5
14E8
330
1F
100
AcDbEntity
  8
0
 62
     7
100
AcDbLine
 10
2191.564793373719
 20
1730.451758768745
 30
0.0
 11
2191.564793373719
 21
1688.183559861065
 31
0.0
  0
LINE
  5
14E9
330
1F
100
AcDbEntity
  8
0
 62
     7
100
AcDbLine
 10
2202.027781147618
 20
1730.453109651304
 30
0.0
 11
2202.027781147618
 21
1690.263427431627
 31
0.0
  0
LINE
  5
14EA
330
1F
100
AcDbEntity
  8
0
 62
     7
100
AcDbLine
 10
2207.786381928574
 20
1730.453109651304
 30
0.0
 11
2207.786381928574
 21
1691.875015947922
 31
0.0
  0
LINE
  5
14EB
330
1F
100
AcDbEntity
  8
0
 62
     7
100
AcDbLine
 10
2235.236568551901
 20
1730.20497738027
 30
0.0
 11
2235.236568551901
 21
1689.382148603006
 31
0.0
  0
ARC
  5
14EC
330
1F
100
AcDbEntity
  8
0
 62
     7
100
AcDbCircle
 10
2191.681012996344
 20
1601.129008631732
 30
0.0
 40
12.0
100
AcDbArc
 50
180.0
 51
270.0
  0
ARC
  5
14ED
330
1F
100
AcDbEntity
  8
0
 62
     7
100
AcDbCircle
 10
2233.681012996344
 20
1601.129008631732
 30
0.0
 40
12.0
100
AcDbArc
 50
270.0
 51
0.0
  0
ARC
  5
14EE
330
1F
100
AcDbEntity
  8
0
 62
     7
100
AcDbCircle
 10
2274.84306350613
 20
1684.291059141518
 30
0.0
 40
12.0
100
AcDbArc
 50
0.0
 51
90.0
  0
ARC
  5
14EF
330
1F
100
AcDbEntity
  8
0
 62
     7
100
AcDbCircle
 10
2274.84306350613
 20
1642.291059141518
 30
0.0
 40
12.0
100
AcDbArc
 50
270.0
 51
0.0
  0
ARC
  5
14F0
330
1F
100
AcDbEntity
  8
0
 62
     7
100
AcDbCircle
 10
2150.518962486558
 20
1642.291059141518
 30
0.0
 40
12.0
100
AcDbArc
 50
180.0
 51
270.0
  0
ARC
  5
14F1
330
1F
100
AcDbEntity
  8
0
 62
     7
100
AcDbCircle
 10
2150.518962486558
 20
1684.291059141518
 30
0.0
 40
12.0
100
AcDbArc
 50
90.0
 51
180.0
  0
ARC
  5
14F2
330
1F
100
AcDbEntity
  8
0
 62
     7
100
AcDbCircle
 10
2233.681012996344
 20
1725.453109651303
 30
0.0
 40
12.0
100
AcDbArc
 50
0.0
 51
90.0
  0
ARC
  5
14F3
330
1F
100
AcDbEntity
  8
0
 62
     7
100
AcDbCircle
 10
2191.681012996344
 20
1725.453109651303
 30
0.0
 40
12.0
100
AcDbArc
 50
90.0
 51
180.0
  0
LINE
  5
14F4
330
1F
100
AcDbEntity
  8
0
100
AcDbLine
 10
2243.848299187486
 20
1690.922811426726
 30
0.0
 11
2238.456591178157
 21
1685.531103417398
 31
0.0
  0
LINE
  5
14F5
330
1F
100
AcDbEntity
  8
0
100
AcDbLine
 10
2240.312765281556
 20
1694.458345332662
 30
0.0
 11
2234.921057272226
 21
1689.066637323333
 31
0.0
  0
LINE
  5
14F6
330
1F
100
AcDbEntity
  8
0
100
AcDbLine
 10
2181.513726805202
 20
1690.922811426728
 30
0.0
 11
2186.90543481453
 21
1685.5311034174
 31
0.0
  0
LINE
  5
14F7
330
1F
100
AcDbEntity
  8
0
100
AcDbLine
 10
2185.049260711132
 20
1694.458345332664
 30
0.0
 11
2190.440968720464
 21
1689.066637323332
 31
0.0
  0
LINE
  5
14F8
330
1F
100
AcDbEntity
  8
0
 62
     7
100
AcDbLine
 10
2234.921057272226
 20
1637.515480959704
 30
0.0
 11
2240.312765281556
 21
1632.123772950374
 31
0.0
  0
LINE
  5
14F9
330
1F
100
AcDbEntity
  8
0
 62
     7
100
AcDbLine
 10
2238.456591178159
 20
1641.051014865637
 30
0.0
 11
2243.848299187488
 21
1635.659306856308
 31
0.0
  0
LINE
  5
14FA
330
1F
100
AcDbEntity
  8
0
 62
     7
100
AcDbLine
 10
2190.440968720463
 20
1637.515480959703
 30
0.0
 11
2185.049260711135
 21
1632.123772950376
 31
0.0
  0
LINE
  5
14FB
330
1F
100
AcDbEntity
  8
0
 62
     7
100
AcDbLine
 10
2186.90543481453
 20
1641.051014865637
 30
0.0
 11
2181.513726805202
 21
1635.659306856308
 31
0.0
  0
ARC
  5
14FC
330
1F
100
AcDbEntity
  8
0
 62
     7
100
AcDbCircle
 10
2182.662794127411
 20
1645.293655552755
 30
0.0
 40
6.0
100
AcDbArc
 50
315.0000000000092
 51
30.94476717977619
  0
ARC
  5
14FD
330
1F
100
AcDbEntity
  8
0
 62
     7
100
AcDbCircle
 10
2194.683609407582
 20
1633.272840272584
 30
0.0
 40
6.0
100
AcDbArc
 50
59.05523282023509
 51
135.0000000000092
  0
ARC
  5
14FE
330
1F
100
AcDbEntity
  8
0
 62
     7
100
AcDbCircle
 10
2230.678416585107
 20
1633.272840272585
 30
0.0
 40
6.0
100
AcDbArc
 50
44.9999999999908
 51
120.9447671797649
  0
ARC
  5
14FF
330
1F
100
AcDbEntity
  8
0
 62
     7
100
AcDbCircle
 10
2242.699231865278
 20
1645.293655552755
 30
0.0
 40
6.0
100
AcDbArc
 50
149.0552328202238
 51
224.9999999999908
  0
ARC
  5
1500
330
1F
100
AcDbEntity
  8
0
100
AcDbCircle
 10
2242.699231865276
 20
1681.288462730278
 30
0.0
 40
6.0
100
AcDbArc
 50
135.0000000000092
 51
210.9447671797761
  0
ARC
  5
1501
330
1F
100
AcDbEntity
  8
0
100
AcDbCircle
 10
2230.678416585107
 20
1693.309278010452
 30
0.0
 40
6.0
100
AcDbArc
 50
239.055232820235
 51
315.0000000000092
  0
ARC
  5
1502
330
1F
100
AcDbEntity
  8
0
100
AcDbCircle
 10
2194.683609407583
 20
1693.309278010451
 30
0.0
 40
6.0
100
AcDbArc
 50
224.9999999999908
 51
300.9447671797649
  0
ARC
  5
1503
330
1F
100
AcDbEntity
  8
0
100
AcDbCircle
 10
2182.66279412741
 20
1681.28846273028
 30
0.0
 40
6.0
100
AcDbArc
 50
329.0552328202239
 51
44.9999999999908
  0
LINE
  5
1504
330
1F
100
AcDbEntity
  8
0
 62
     7
100
AcDbLine
 10
2537.366379410672
 20
1434.050252385792
 30
0.0
 11
2536.561100683467
 21
1464.102606282408
 31
0.0
  0
LINE
  5
1505
330
1F
100
AcDbEntity
  8
0
 62
     7
100
AcDbLine
 10
2387.366379410671
 20
1434.050252385792
 30
0.0
 11
2388.171658137876
 21
1464.102606282408
 31
0.0
  0
LINE
  5
1506
330
1F
100
AcDbEntity
  8
0
 62
     7
100
AcDbLine
 10
2530.366379410672
 20
1433.050252385792
 30
0.0
 11
2530.366379410672
 21
1434.050252385792
 31
0.0
  0
LINE
  5
1507
330
1F
100
AcDbEntity
  8
0
 62
     7
100
AcDbLine
 10
2394.366379410671
 20
1433.050252385792
 30
0.0
 11
2394.366379410671
 21
1434.050252385792
 31
0.0
  0
LINE
  5
1508
330
1F
100
AcDbEntity
  8
0
 62
     7
100
AcDbLine
 10
2387.366379410671
 20
1434.050252385792
 30
0.0
 11
2537.366379410672
 21
1434.050252385791
 31
0.0
  0
LINE
  5
1509
330
1F
100
AcDbEntity
  8
CENTER
  6
CENTER
100
AcDbLine
 10
2462.366379410672
 20
1310.731626388321
 30
0.0
 11
2462.366379410672
 21
1519.659029357689
 31
0.0
  0
LINE
  5
150A
330
1F
100
AcDbEntity
  8
0
 62
     7
100
AcDbLine
 10
2390.170972787827
 20
1466.050252385791
 30
0.0
 11
2391.166379410671
 21
1466.050252385792
 31
0.0
  0
LINE
  5
150B
330
1F
100
AcDbEntity
  8
0
 62
     7
100
AcDbLine
 10
2394.366379410671
 20
1433.050252385792
 30
0.0
 11
2530.366379410672
 21
1433.050252385793
 31
0.0
  0
LINE
  5
150C
330
1F
100
AcDbEntity
  8
0
 62
     7
100
AcDbLine
 10
2388.864254712978
 20
1453.350252385791
 30
0.0
 11
2441.366379410672
 21
1453.350252385791
 31
0.0
  0
LINE
  5
150D
330
1F
100
AcDbEntity
  8
0
 62
     7
100
AcDbLine
 10
2483.366379410672
 20
1453.35025238579
 30
0.0
 11
2535.868504108365
 21
1453.35025238579
 31
0.0
  0
ARC
  5
150E
330
1F
100
AcDbEntity
  8
0
 62
     7
100
AcDbCircle
 10
2388.864254712977
 20
1452.350252385791
 30
0.0
 40
1.0
100
AcDbArc
 50
90.0
 51
178.4999999999842
  0
ARC
  5
150F
330
1F
100
AcDbEntity
  8
0
 62
     7
100
AcDbCircle
 10
2535.868504108367
 20
1452.35025238579
 30
0.0
 40
1.0
100
AcDbArc
 50
1.500000000015822
 51
90.0
  0
ARC
  5
1510
330
1F
100
AcDbEntity
  8
0
 62
     7
100
AcDbCircle
 10
2390.170972787827
 20
1464.050252385791
 30
0.0
 40
2.0
100
AcDbArc
 50
90.0
 51
178.4999999999842
  0
ARC
  5
1511
330
1F
100
AcDbEntity
  8
0
 62
     7
100
AcDbCircle
 10
2534.561786033516
 20
1464.050252385791
 30
0.0
 40
2.0
100
AcDbArc
 50
1.500000000015822
 51
90.0
  0
ARC
  5
1512
330
1F
100
AcDbEntity
  8
0
 62
     7
100
AcDbCircle
 10
2150.518962486558
 20
1684.291059141518
 30
0.0
 40
5.0
100
AcDbArc
 50
90.0
 51
180.0
  0
ARC
  5
1513
330
1F
100
AcDbEntity
  8
0
 62
     7
100
AcDbCircle
 10
2150.518962486558
 20
1642.291059141518
 30
0.0
 40
5.0
100
AcDbArc
 50
180.0
 51
270.0
  0
ARC
  5
1514
330
1F
100
AcDbEntity
  8
0
 62
     7
100
AcDbCircle
 10
2274.84306350613
 20
1642.291059141518
 30
0.0
 40
5.0
100
AcDbArc
 50
270.0
 51
0.0
  0
ARC
  5
1515
330
1F
100
AcDbEntity
  8
0
 62
     7
100
AcDbCircle
 10
2274.84306350613
 20
1684.291059141518
 30
0.0
 40
5.0
100
AcDbArc
 50
0.0
 51
90.0
  0
ARC
  5
1516
330
1F
100
AcDbEntity
  8
0
 62
     7
100
AcDbCircle
 10
2191.681012996344
 20
1601.129008631732
 30
0.0
 40
5.0
100
AcDbArc
 50
180.0
 51
270.0
  0
ARC
  5
1517
330
1F
100
AcDbEntity
  8
0
 62
     7
100
AcDbCircle
 10
2233.681012996344
 20
1601.129008631732
 30
0.0
 40
5.0
100
AcDbArc
 50
270.0
 51
0.0
  0
ARC
  5
1518
330
1F
100
AcDbEntity
  8
0
 62
     7
100
AcDbCircle
 10
2233.681012996344
 20
1725.453109651304
 30
0.0
 40
5.0
100
AcDbArc
 50
0.0
 51
90.0
  0
ARC
  5
1519
330
1F
100
AcDbEntity
  8
0
 62
     7
100
AcDbCircle
 10
2191.681012996344
 20
1725.453109651303
 30
0.0
 40
5.0
100
AcDbArc
 50
90.0
 51
180.0
  0
ARC
  5
151A
330
1F
100
AcDbEntity
  8
0
 62
     7
100
AcDbCircle
 10
2257.681012996344
 20
1708.291059141518
 30
0.0
 40
19.0
100
AcDbArc
 50
180.0
 51
208.5840382979491
  0
ARC
  5
151B
330
1F
100
AcDbEntity
  8
0
 62
     7
100
AcDbCircle
 10
2257.681012996344
 20
1708.291059141518
 30
0.0
 40
19.0
100
AcDbArc
 50
241.4159617020509
 51
270.0
  0
ARC
  5
151C
330
1F
100
AcDbEntity
  8
0
100
AcDbCircle
 10
2246.676726312231
 20
1688.094384301979
 30
0.0
 40
4.0
100
AcDbArc
 50
61.41596170205097
 51
135.0000000000092
  0
ARC
  5
151D
330
1F
100
AcDbEntity
  8
0
100
AcDbCircle
 10
2237.48433815681
 20
1697.286772457409
 30
0.0
 40
4.0
100
AcDbArc
 50
315.0000000000092
 51
28.58403829794902
  0
ARC
  5
151E
330
1F
100
AcDbEntity
  8
0
 62
     7
100
AcDbCircle
 10
2167.681012996344
 20
1708.291059141518
 30
0.0
 40
19.0
100
AcDbArc
 50
270.0
 51
298.5840382979491
  0
ARC
  5
151F
330
1F
100
AcDbEntity
  8
0
 62
     7
100
AcDbCircle
 10
2167.681012996344
 20
1618.291059141517
 30
0.0
 40
19.0
100
AcDbArc
 50
0.0
 51
28.58403829794902
  0
ARC
  5
1520
330
1F
100
AcDbEntity
  8
0
 62
     7
100
AcDbCircle
 10
2257.681012996344
 20
1618.291059141517
 30
0.0
 40
19.0
100
AcDbArc
 50
90.0
 51
118.584038297949
  0
ARC
  5
1521
330
1F
100
AcDbEntity
  8
0
 62
     7
100
AcDbCircle
 10
2257.681012996344
 20
1618.291059141517
 30
0.0
 40
19.0
100
AcDbArc
 50
151.4159617020508
 51
180.0
  0
ARC
  5
1522
330
1F
100
AcDbEntity
  8
0
 62
     7
100
AcDbCircle
 10
2237.48433815681
 20
1629.295345825628
 30
0.0
 40
4.0
100
AcDbArc
 50
331.4159617020509
 51
44.9999999999908
  0
ARC
  5
1523
330
1F
100
AcDbEntity
  8
0
 62
     7
100
AcDbCircle
 10
2246.676726312234
 20
1638.487733981054
 30
0.0
 40
4.0
100
AcDbArc
 50
224.9999999999908
 51
298.5840382979491
  0
ARC
  5
1524
330
1F
100
AcDbEntity
  8
0
 62
     7
100
AcDbCircle
 10
2167.681012996344
 20
1618.291059141517
 30
0.0
 40
19.0
100
AcDbArc
 50
61.41596170205097
 51
90.0
  0
ARC
  5
1525
330
1F
100
AcDbEntity
  8
0
 62
     7
100
AcDbCircle
 10
2178.685299680456
 20
1638.487733981054
 30
0.0
 40
4.0
100
AcDbArc
 50
241.4159617020509
 51
315.0000000000092
  0
ARC
  5
1526
330
1F
100
AcDbEntity
  8
0
 62
     7
100
AcDbCircle
 10
2187.877687835881
 20
1629.29534582563
 30
0.0
 40
4.0
100
AcDbArc
 50
135.0000000000092
 51
208.5840382979491
  0
ARC
  5
1527
330
1F
100
AcDbEntity
  8
0
 62
     7
100
AcDbCircle
 10
2167.681012996344
 20
1708.291059141518
 30
0.0
 40
19.0
100
AcDbArc
 50
331.4159617020509
 51
0.0
  0
ARC
  5
1528
330
1F
100
AcDbEntity
  8
0
100
AcDbCircle
 10
2178.685299680456
 20
1688.094384301982
 30
0.0
 40
4.0
100
AcDbArc
 50
44.9999999999908
 51
118.584038297949
  0
ARC
  5
1529
330
1F
100
AcDbEntity
  8
0
100
AcDbCircle
 10
2187.877687835877
 20
1697.28677245741
 30
0.0
 40
4.0
100
AcDbArc
 50
151.4159617020508
 51
224.9999999999908
  0
LINE
  5
152A
330
1F
100
AcDbEntity
  8
0
  6
Continuous
 62
     7
100
AcDbLine
 10
2429.366379410672
 20
1453.350252385791
 30
0.0
 11
2429.366379410672
 21
1466.050252385791
 31
0.0
  0
LINE
  5
152B
330
1F
100
AcDbEntity
  8
0
  6
Continuous
 62
     7
100
AcDbLine
 10
2495.366379410672
 20
1453.35025238579
 30
0.0
 11
2495.366379410672
 21
1466.050252385791
 31
0.0
  0
CIRCLE
  5
152C
330
1F
100
AcDbEntity
  8
0
100
AcDbCircle
 10
2212.681012996344
 20
1663.291059141518
 30
0.0
 40
28.99999999999977
  0
LINE
  5
1530
330
1F
100
AcDbEntity
  8
0
 62
     7
100
AcDbLine
 10
2241.681012996345
 20
1466.050252385791
 30
0.0
 11
2241.681012996345
 21
1498.050252385791
 31
0.0
  0
LINE
  5
1531
330
1F
100
AcDbEntity
  8
0
 62
     7
100
AcDbLine
 10
2183.681012996345
 20
1466.050252385791
 30
0.0
 11
2183.681012996345
 21
1498.050252385791
 31
0.0
  0
LINE
  5
1532
330
1F
100
AcDbEntity
  8
0
 62
     7
100
AcDbLine
 10
2241.681012996345
 20
1498.050252385791
 30
0.0
 11
2183.681012996345
 21
1498.050252385791
 31
0.0
  0
LINE
  5
1533
330
1F
100
AcDbEntity
  8
0
 62
     7
100
AcDbLine
 10
2191.681012996345
 20
1454.050252385791
 30
0.0
 11
2137.681012996345
 21
1454.050252385791
 31
0.0
  0
LINE
  5
1534
330
1F
100
AcDbEntity
  8
0
 62
     7
100
AcDbLine
 10
2491.366379410671
 20
1466.050252385791
 30
0.0
 11
2491.366379410671
 21
1498.050252385791
 31
0.0
  0
LINE
  5
1535
330
1F
100
AcDbEntity
  8
0
 62
     7
100
AcDbLine
 10
2491.366379410671
 20
1498.050252385791
 30
0.0
 11
2433.366379410672
 21
1498.050252385791
 31
0.0
  0
LINE
  5
1536
330
1F
100
AcDbEntity
  8
0
 62
     7
100
AcDbLine
 10
2433.366379410672
 20
1466.050252385791
 30
0.0
 11
2433.366379410672
 21
1498.050252385791
 31
0.0
  0
LINE
  5
1537
330
1F
100
AcDbEntity
  8
0
 62
     7
100
AcDbLine
 10
2394.866379410672
 20
1359.050252385792
 30
0.0
 11
2394.866379410672
 21
1433.050252385792
 31
0.0
  0
LINE
  5
1538
330
1F
100
AcDbEntity
  8
0
 62
     7
100
AcDbLine
 10
2529.866379410672
 20
1359.050252385793
 30
0.0
 11
2529.866379410672
 21
1433.050252385793
 31
0.0
  0
LINE
  5
1539
330
1F
100
AcDbEntity
  8
0
 62
     7
100
AcDbLine
 10
2483.366379410672
 20
1338.750252385793
 30
0.0
 11
2535.868504108365
 21
1338.750252385793
 31
0.0
  0
LINE
  5
153A
330
1F
100
AcDbEntity
  8
0
 62
     7
100
AcDbLine
 10
2390.170972787827
 20
1326.050252385792
 30
0.0
 11
2391.166379410671
 21
1326.050252385792
 31
0.0
  0
LINE
  5
153B
330
1F
100
AcDbEntity
  8
0
 62
     7
100
AcDbLine
 10
2387.366379410671
 20
1358.050252385792
 30
0.0
 11
2537.366379410672
 21
1358.050252385792
 31
0.0
  0
LINE
  5
153C
330
1F
100
AcDbEntity
  8
0
 62
     7
100
AcDbLine
 10
2394.366379410671
 20
1359.050252385792
 30
0.0
 11
2530.366379410672
 21
1359.05025238579
 31
0.0
  0
LINE
  5
153D
330
1F
100
AcDbEntity
  8
0
 62
     7
100
AcDbLine
 10
2537.366379410672
 20
1358.050252385792
 30
0.0
 11
2536.561100683467
 21
1327.997898489176
 31
0.0
  0
LINE
  5
153E
330
1F
100
AcDbEntity
  8
0
 62
     7
100
AcDbLine
 10
2530.366379410672
 20
1359.050252385792
 30
0.0
 11
2530.366379410672
 21
1358.050252385792
 31
0.0
  0
ARC
  5
153F
330
1F
100
AcDbEntity
  8
0
 62
     7
100
AcDbCircle
 10
2535.868504108367
 20
1339.750252385793
 30
0.0
 40
1.0
100
AcDbArc
 50
270.0
 51
358.4999999999841
  0
ARC
  5
1540
330
1F
100
AcDbEntity
  8
0
 62
     7
100
AcDbCircle
 10
2534.561786033516
 20
1328.050252385792
 30
0.0
 40
2.0
100
AcDbArc
 50
270.0
 51
358.4999999999841
  0
LINE
  5
1541
330
1F
100
AcDbEntity
  8
0
 62
     7
100
AcDbLine
 10
2388.864254712978
 20
1338.750252385792
 30
0.0
 11
2441.366379410672
 21
1338.750252385792
 31
0.0
  0
LINE
  5
1542
330
1F
100
AcDbEntity
  8
0
  6
Continuous
 62
     7
100
AcDbLine
 10
2495.366379410672
 20
1338.750252385793
 30
0.0
 11
2495.366379410672
 21
1326.050252385792
 31
0.0
  0
LINE
  5
1543
330
1F
100
AcDbEntity
  8
0
  6
Continuous
 62
     7
100
AcDbLine
 10
2429.366379410672
 20
1338.750252385792
 30
0.0
 11
2429.366379410672
 21
1326.050252385792
 31
0.0
  0
LINE
  5
1544
330
1F
100
AcDbEntity
  8
0
 62
     7
100
AcDbLine
 10
2387.366379410671
 20
1358.050252385792
 30
0.0
 11
2388.171658137876
 21
1327.997898489176
 31
0.0
  0
LINE
  5
1545
330
1F
100
AcDbEntity
  8
0
 62
     7
100
AcDbLine
 10
2394.366379410671
 20
1359.050252385792
 30
0.0
 11
2394.366379410671
 21
1358.050252385792
 31
0.0
  0
ARC
  5
1546
330
1F
100
AcDbEntity
  8
0
 62
     7
100
AcDbCircle
 10
2388.864254712977
 20
1339.750252385792
 30
0.0
 40
1.0
100
AcDbArc
 50
181.5000000000158
 51
270.0
  0
ARC
  5
1547
330
1F
100
AcDbEntity
  8
0
 62
     7
100
AcDbCircle
 10
2390.170972787827
 20
1328.050252385792
 30
0.0
 40
2.0
100
AcDbArc
 50
181.5000000000158
 51
270.0
  0
LINE
  5
1549
330
1F
100
AcDbEntity
  8
0
 62
     7
100
AcDbLine
 10
2138.518962486559
 20
1326.050252385792
 30
0.0
 11
2141.481012996345
 21
1326.050252385792
 31
0.0
  0
LINE
  5
154A
330
1F
100
AcDbEntity
  8
0
 62
     7
100
AcDbLine
 10
2280.681012996345
 20
1359.050252385792
 30
0.0
 11
2208.312519182269
 21
1359.050252385792
 31
0.0
  0
LINE
  5
154B
330
1F
100
AcDbEntity
  8
0
 62
     7
100
AcDbLine
 10
2287.681012996344
 20
1358.050252385792
 30
0.0
 11
2207.968191568979
 21
1358.050252385792
 31
0.0
  0
CIRCLE
  5
154C
330
1F
100
AcDbEntity
  8
0
 62
     7
100
AcDbCircle
 10
2223.681012996344
 20
1343.050252385792
 30
0.0
 40
13.69999999999993
  0
LINE
  5
154D
330
1F
100
AcDbEntity
  8
0
 62
     7
100
AcDbLine
 10
2287.157294564961
 20
1338.050252385792
 30
0.0
 11
2233.681012996345
 21
1338.050252385792
 31
0.0
  0
LINE
  5
154E
330
1F
100
AcDbEntity
  8
0
 62
     7
100
AcDbLine
 10
2287.681012996344
 20
1358.050252385792
 30
0.0
 11
2286.843063506131
 21
1326.050252385792
 31
0.0
  0
LINE
  5
154F
330
1F
100
AcDbEntity
  8
0
 62
     7
100
AcDbLine
 10
2280.681012996345
 20
1359.050252385792
 30
0.0
 11
2280.681012996345
 21
1358.050252385792
 31
0.0
  0
LINE
  5
1550
330
1F
100
AcDbEntity
  8
0
 62
     7
100
AcDbLine
 10
2245.681012996345
 20
1326.050252385792
 30
0.0
 11
2245.681012996345
 21
1338.050252385792
 31
0.0
  0
LINE
  5
1551
330
1F
100
AcDbEntity
  8
0
 62
     7
100
AcDbLine
 10
2257.681012996345
 20
1326.050252385792
 30
0.0
 11
2257.681012996345
 21
1338.050252385792
 31
0.0
  0
LINE
  5
1552
330
1F
100
AcDbEntity
  8
0
 62
     7
100
AcDbLine
 10
2210.926013976352
 20
1338.050252385792
 30
0.0
 11
2137.681012996345
 21
1338.050252385792
 31
0.0
  0
LINE
  5
1556
330
1F
100
AcDbEntity
  8
0
 62
     7
100
AcDbLine
 10
2179.681012996345
 20
1326.050252385792
 30
0.0
 11
2179.681012996345
 21
1338.050252385792
 31
0.0
  0
LINE
  5
1557
330
1F
100
AcDbEntity
  8
0
 62
     7
100
AcDbLine
 10
2167.681012996345
 20
1326.050252385792
 30
0.0
 11
2167.681012996345
 21
1338.050252385792
 31
0.0
  0
LINE
  5
155C
330
1F
100
AcDbEntity
  8
0
 62
     7
100
AcDbLine
 10
2137.681012996345
 20
1358.050252385792
 30
0.0
 11
2138.518962486559
 21
1326.050252385792
 31
0.0
  0
LINE
  5
155D
330
1F
100
AcDbEntity
  8
0
 62
     7
100
AcDbLine
 10
2144.681012996345
 20
1359.050252385792
 30
0.0
 11
2144.681012996345
 21
1358.050252385792
 31
0.0
  0
LINE
  5
155E
330
1F
100
AcDbEntity
  8
0
 62
     7
100
AcDbLine
 10
2280.181012996345
 20
1359.050252385793
 30
0.0
 11
2280.181012996345
 21
1433.050252385793
 31
0.0
  0
LINE
  5
155F
330
1F
100
AcDbEntity
  8
0
 62
     7
100
AcDbLine
 10
2145.181012996345
 20
1359.050252385792
 30
0.0
 11
2145.181012996345
 21
1433.050252385792
 31
0.0
  0
LINE
  5
1560
330
1F
100
AcDbEntity
  8
0
 62
     7
100
AcDbLine
 10
2241.681012996345
 20
1326.050252385792
 30
0.0
 11
2241.681012996345
 21
1316.050252385792
 31
0.0
  0
LINE
  5
1561
330
1F
100
AcDbEntity
  8
0
 62
     7
100
AcDbLine
 10
2241.681012996345
 20
1316.050252385792
 30
0.0
 11
2183.681012996345
 21
1316.050252385792
 31
0.0
  0
LINE
  5
1562
330
1F
100
AcDbEntity
  8
0
 62
     7
100
AcDbLine
 10
2183.681012996345
 20
1326.050252385792
 30
0.0
 11
2183.681012996345
 21
1316.050252385792
 31
0.0
  0
LINE
  5
1563
330
1F
100
AcDbEntity
  8
0
 62
     7
100
AcDbLine
 10
2491.366379410671
 20
1316.050252385792
 30
0.0
 11
2433.366379410672
 21
1316.050252385792
 31
0.0
  0
LINE
  5
1564
330
1F
100
AcDbEntity
  8
0
 62
     7
100
AcDbLine
 10
2491.366379410671
 20
1326.050252385792
 30
0.0
 11
2491.366379410671
 21
1316.050252385792
 31
0.0
  0
LINE
  5
1565
330
1F
100
AcDbEntity
  8
0
 62
     7
100
AcDbLine
 10
2433.366379410672
 20
1326.050252385792
 30
0.0
 11
2433.366379410672
 21
1316.050252385792
 31
0.0
  0
LINE
  5
1566
330
1F
100
AcDbEntity
  8
CENTER
  6
CENTER
100
AcDbLine
 10
2403.866379410672
 20
1489.983531560687
 30
0.0
 11
2403.866379410672
 21
1302.364001786629
 31
0.0
  0
LINE
  5
1567
330
1F
100
AcDbEntity
  8
0
 62
     7
100
AcDbLine
 10
2392.866379410671
 20
1456.350252385791
 30
0.0
 11
2414.866379410672
 21
1456.350252385791
 31
0.0
  0
LINE
  5
1568
330
1F
100
AcDbEntity
  8
0
 62
     7
100
AcDbLine
 10
2392.866379410671
 20
1467.350252385792
 30
0.0
 11
2414.866379410672
 21
1467.350252385791
 31
0.0
  0
LINE
  5
1569
330
1F
100
AcDbEntity
  8
0
100
AcDbLine
 10
2391.166379410671
 20
1466.174251073831
 30
0.0
 11
2391.166379410671
 21
1457.526253697752
 31
0.0
  0
LINE
  5
156A
330
1F
100
AcDbEntity
  8
0
100
AcDbLine
 10
2416.566379410672
 20
1466.174251073831
 30
0.0
 11
2416.566379410672
 21
1457.526253697752
 31
0.0
  0
POLYLINE
  5
156B
330
1F
100
AcDbEntity
  8
0
100
AcDb2dPolyline
 66
     1
 10
0.0
 20
0.0
 30
0.0
 70
     1
  0
VERTEX
  5
156C
330
156B
100
AcDbEntity
  8
0
100
AcDbVertex
100
AcDb2dVertex
 10
2282.181012996344
 20
1611.141912102604
 30
0.0
  0
VERTEX
  5
156D
330
156B
100
AcDbEntity
  8
0
100
AcDbVertex
100
AcDb2dVertex
 10
2271.181012996344
 20
1617.49276506369
 30
0.0
  0
VERTEX
  5
156E
330
156B
100
AcDbEntity
  8
0
100
AcDbVertex
100
AcDb2dVertex
 10
2260.181012996344
 20
1611.141912102604
 30
0.0
  0
VERTEX
  5
156F
330
156B
100
AcDbEntity
  8
0
100
AcDbVertex
100
AcDb2dVertex
 10
2260.181012996344
 20
1598.440206180432
 30
0.0
  0
VERTEX
  5
1570
330
156B
100
AcDbEntity
  8
0
100
AcDbVertex
100
AcDb2dVertex
 10
2271.181012996344
 20
1592.089353219346
 30
0.0
  0
VERTEX
  5
1571
330
156B
100
AcDbEntity
  8
0
100
AcDbVertex
100
AcDb2dVertex
 10
2282.181012996344
 20
1598.440206180432
 30
0.0
  0
SEQEND
  5
1572
330
156B
100
AcDbEntity
  8
0
  0
CIRCLE
  5
1573
330
1F
100
AcDbEntity
  8
0
100
AcDbCircle
 10
2271.181012996344
 20
1604.791059141518
 30
0.0
 40
7.0
  0
CIRCLE
  5
1574
330
1F
100
AcDbEntity
  8
0
100
AcDbCircle
 10
2271.181012996344
 20
1604.791059141518
 30
0.0
 40
6.25
  0
LINE
  5
1575
330
1F
100
AcDbEntity
  8
0
100
AcDbLine
 10
2397.515526449586
 20
1466.174251073831
 30
0.0
 11
2397.515526449586
 21
1457.526253697752
 31
0.0
  0
LINE
  5
1576
330
1F
100
AcDbEntity
  8
0
100
AcDbLine
 10
2410.217232371758
 20
1466.174251073831
 30
0.0
 11
2410.217232371758
 21
1457.526253697752
 31
0.0
  0
CIRCLE
  5
1577
330
1F
100
AcDbEntity
  8
0
100
AcDbCircle
 10
2271.181012996344
 20
1604.791059141518
 30
0.0
 40
11.0
  0
LINE
  5
1578
330
1F
100
AcDbEntity
  8
0
100
AcDbLine
 10
2392.866379410671
 20
1467.350252385792
 30
0.0
 11
2391.166379410671
 21
1466.174251073831
 31
0.0
  0
ARC
  5
1579
330
1F
100
AcDbEntity
  8
0
100
AcDbCircle
 10
2403.866379410672
 20
1449.613744783801
 30
0.0
 40
17.73650760199044
100
AcDbArc
 50
69.01848642667049
 51
110.9815135733295
  0
ARC
  5
157A
330
1F
100
AcDbEntity
  8
0
100
AcDbCircle
 10
2389.375676440498
 20
1443.772417282121
 30
0.0
 40
23.83483407539935
100
AcDbArc
 50
70.03106137245828
 51
81.57852309832639
  0
LINE
  5
157B
330
1F
100
AcDbEntity
  8
0
 62
     7
100
AcDbLine
 10
2416.566379410672
 20
1466.050252385791
 30
0.0
 11
2508.166379410671
 21
1466.050252385791
 31
0.0
  0
ARC
  5
157C
330
1F
100
AcDbEntity
  8
0
100
AcDbCircle
 10
2418.357082380845
 20
1443.772417282121
 30
0.0
 40
23.83483407539935
100
AcDbArc
 50
98.42147690167358
 51
109.9689386275418
  0
LINE
  5
157D
330
1F
100
AcDbEntity
  8
0
100
AcDbLine
 10
2414.866379410672
 20
1467.350252385792
 30
0.0
 11
2416.566379410672
 21
1466.174251073831
 31
0.0
  0
ARC
  5
157E
330
1F
100
AcDbEntity
  8
0
100
AcDbCircle
 10
2403.866379410672
 20
1474.086759987782
 30
0.0
 40
17.73650760199044
100
AcDbArc
 50
249.0184864266705
 51
290.9815135733295
  0
LINE
  5
157F
330
1F
100
AcDbEntity
  8
0
100
AcDbLine
 10
2414.866379410672
 20
1456.350252385791
 30
0.0
 11
2416.566379410672
 21
1457.526253697752
 31
0.0
  0
ARC
  5
1580
330
1F
100
AcDbEntity
  8
0
100
AcDbCircle
 10
2418.357082380845
 20
1479.928087489462
 30
0.0
 40
23.83483407539935
100
AcDbArc
 50
250.0310613724582
 51
261.5785230983264
  0
ARC
  5
1581
330
1F
100
AcDbEntity
  8
0
100
AcDbCircle
 10
2389.375676440498
 20
1479.928087489462
 30
0.0
 40
23.83483407539935
100
AcDbArc
 50
278.4214769016736
 51
289.9689386275418
  0
LINE
  5
1582
330
1F
100
AcDbEntity
  8
0
100
AcDbLine
 10
2392.866379410671
 20
1456.350252385791
 30
0.0
 11
2391.166379410671
 21
1457.526253697752
 31
0.0
  0
LINE
  5
1583
330
1F
100
AcDbEntity
  8
0
100
AcDbLine
 10
2392.866379410671
 20
1456.350252385791
 30
0.0
 11
2392.866379410671
 21
1453.350252385791
 31
0.0
  0
LINE
  5
1584
330
1F
100
AcDbEntity
  8
0
100
AcDbLine
 10
2414.866379410672
 20
1456.350252385791
 30
0.0
 11
2414.866379410672
 21
1453.350252385791
 31
0.0
  0
LINE
  5
1585
330
1F
100
AcDbEntity
  8
0
100
AcDbLine
 10
2403.866379410672
 20
1453.350252385791
 30
0.0
 11
2400.866379410672
 21
1456.350252385791
 31
0.0
  0
LINE
  5
1586
330
1F
100
AcDbEntity
  8
0
100
AcDbLine
 10
2406.694806535418
 20
1453.350252385791
 30
0.0
 11
2403.694806535418
 21
1456.350252385792
 31
0.0
  0
LINE
  5
1587
330
1F
100
AcDbEntity
  8
0
 62
     7
100
AcDbLine
 10
2398.866379410671
 20
1486.050252385791
 30
0.0
 11
2408.866379410671
 21
1486.050252385791
 31
0.0
  0
LINE
  5
1588
330
1F
100
AcDbEntity
  8
0
100
AcDbLine
 10
2396.866379410671
 20
1484.050252385791
 30
0.0
 11
2396.866379410671
 21
1467.350252385792
 31
0.0
  0
LINE
  5
1589
330
1F
100
AcDbEntity
  8
0
100
AcDbLine
 10
2410.866379410672
 20
1484.050252385791
 30
0.0
 11
2410.866379410672
 21
1467.350252385791
 31
0.0
  0
LINE
  5
158A
330
1F
100
AcDbEntity
  8
0
100
AcDbLine
 10
2396.866379410671
 20
1484.050252385791
 30
0.0
 11
2398.866379410671
 21
1486.050252385791
 31
0.0
  0
LINE
  5
158B
330
1F
100
AcDbEntity
  8
0
100
AcDbLine
 10
2408.866379410671
 20
1486.050252385791
 30
0.0
 11
2410.866379410672
 21
1484.050252385791
 31
0.0
  0
LINE
  5
158C
330
1F
100
AcDbEntity
  8
0
100
AcDbLine
 10
2410.116379410672
 20
1484.800252385791
 30
0.0
 11
2410.116379410672
 21
1467.350252385791
 31
0.0
  0
LINE
  5
158D
330
1F
100
AcDbEntity
  8
0
100
AcDbLine
 10
2397.616379410671
 20
1484.800252385791
 30
0.0
 11
2397.616379410671
 21
1467.350252385792
 31
0.0
  0
LINE
  5
158E
330
1F
100
AcDbEntity
  8
0
100
AcDbLine
 10
2410.866379410672
 20
1484.050252385791
 30
0.0
 11
2396.866379410671
 21
1484.050252385791
 31
0.0
  0
LINE
  5
158F
330
1F
100
AcDbEntity
  8
0
100
AcDbLine
 10
2397.366379410672
 20
1434.050252385792
 30
0.0
 11
2397.366379410672
 21
1358.050252385792
 31
0.0
  0
LINE
  5
1590
330
1F
100
AcDbEntity
  8
0
100
AcDbLine
 10
2410.366379410671
 20
1434.050252385792
 30
0.0
 11
2410.366379410671
 21
1358.050252385792
 31
0.0
  0
LINE
  5
1591
330
1F
100
AcDbEntity
  8
0
100
AcDbLine
 10
2520.866379410671
 20
1453.350252385791
 30
0.0
 11
2523.866379410671
 21
1456.350252385791
 31
0.0
  0
LINE
  5
1592
330
1F
100
AcDbEntity
  8
0
100
AcDbLine
 10
2518.037952285925
 20
1453.350252385791
 30
0.0
 11
2521.037952285925
 21
1456.350252385792
 31
0.0
  0
LINE
  5
1593
330
1F
100
AcDbEntity
  8
0
100
AcDbLine
 10
2531.866379410671
 20
1456.350252385791
 30
0.0
 11
2531.866379410671
 21
1453.350252385791
 31
0.0
  0
LINE
  5
1594
330
1F
100
AcDbEntity
  8
0
100
AcDbLine
 10
2509.866379410671
 20
1456.350252385791
 30
0.0
 11
2509.866379410671
 21
1453.350252385791
 31
0.0
  0
LINE
  5
1595
330
1F
100
AcDbEntity
  8
0
100
AcDbLine
 10
2513.866379410671
 20
1484.050252385791
 30
0.0
 11
2527.866379410671
 21
1484.050252385791
 31
0.0
  0
LINE
  5
1596
330
1F
100
AcDbEntity
  8
0
100
AcDbLine
 10
2515.866379410671
 20
1486.050252385791
 30
0.0
 11
2513.866379410671
 21
1484.050252385791
 31
0.0
  0
LINE
  5
1597
330
1F
100
AcDbEntity
  8
0
 62
     7
100
AcDbLine
 10
2531.866379410671
 20
1467.350252385792
 30
0.0
 11
2509.866379410671
 21
1467.350252385791
 31
0.0
  0
LINE
  5
1598
330
1F
100
AcDbEntity
  8
0
 62
     7
100
AcDbLine
 10
2531.866379410671
 20
1456.350252385791
 30
0.0
 11
2509.866379410671
 21
1456.350252385791
 31
0.0
  0
ARC
  5
1599
330
1F
100
AcDbEntity
  8
0
100
AcDbCircle
 10
2520.866379410671
 20
1474.086759987782
 30
0.0
 40
17.73650760199044
100
AcDbArc
 50
249.0184864266705
 51
290.9815135733295
  0
ARC
  5
159A
330
1F
100
AcDbEntity
  8
0
100
AcDbCircle
 10
2520.866379410671
 20
1449.613744783801
 30
0.0
 40
17.73650760199044
100
AcDbArc
 50
69.01848642667049
 51
110.9815135733295
  0
LINE
  5
159B
330
1F
100
AcDbEntity
  8
0
100
AcDbLine
 10
2514.616379410671
 20
1484.800252385791
 30
0.0
 11
2514.616379410671
 21
1467.350252385791
 31
0.0
  0
LINE
  5
159C
330
1F
100
AcDbEntity
  8
0
100
AcDbLine
 10
2513.866379410671
 20
1484.050252385791
 30
0.0
 11
2513.866379410671
 21
1467.350252385791
 31
0.0
  0
LINE
  5
159D
330
1F
100
AcDbEntity
  8
0
100
AcDbLine
 10
2508.166379410671
 20
1466.174251073831
 30
0.0
 11
2508.166379410671
 21
1457.526253697752
 31
0.0
  0
LINE
  5
159E
330
1F
100
AcDbEntity
  8
0
100
AcDbLine
 10
2514.515526449585
 20
1466.174251073831
 30
0.0
 11
2514.515526449585
 21
1457.526253697752
 31
0.0
  0
ARC
  5
159F
330
1F
100
AcDbEntity
  8
0
100
AcDbCircle
 10
2506.375676440498
 20
1479.928087489462
 30
0.0
 40
23.83483407539935
100
AcDbArc
 50
278.4214769016736
 51
289.9689386275418
  0
LINE
  5
15A0
330
1F
100
AcDbEntity
  8
0
100
AcDbLine
 10
2509.866379410671
 20
1456.350252385791
 30
0.0
 11
2508.166379410671
 21
1457.526253697752
 31
0.0
  0
LINE
  5
15A1
330
1F
100
AcDbEntity
  8
0
100
AcDbLine
 10
2509.866379410671
 20
1467.350252385792
 30
0.0
 11
2508.166379410671
 21
1466.174251073831
 31
0.0
  0
ARC
  5
15A2
330
1F
100
AcDbEntity
  8
0
100
AcDbCircle
 10
2506.375676440498
 20
1443.772417282121
 30
0.0
 40
23.83483407539935
100
AcDbArc
 50
70.03106137245828
 51
81.57852309832639
  0
LINE
  5
15A3
330
1F
100
AcDbEntity
  8
0
100
AcDbLine
 10
2527.116379410671
 20
1484.800252385791
 30
0.0
 11
2527.116379410671
 21
1467.350252385792
 31
0.0
  0
LINE
  5
15A4
330
1F
100
AcDbEntity
  8
0
100
AcDbLine
 10
2527.866379410671
 20
1484.050252385791
 30
0.0
 11
2527.866379410671
 21
1467.350252385792
 31
0.0
  0
LINE
  5
15A5
330
1F
100
AcDbEntity
  8
0
100
AcDbLine
 10
2527.217232371757
 20
1466.174251073831
 30
0.0
 11
2527.217232371757
 21
1457.526253697752
 31
0.0
  0
ARC
  5
15A6
330
1F
100
AcDbEntity
  8
0
100
AcDbCircle
 10
2535.357082380844
 20
1479.928087489462
 30
0.0
 40
23.83483407539935
100
AcDbArc
 50
250.0310613724582
 51
261.5785230983264
  0
ARC
  5
15A7
330
1F
100
AcDbEntity
  8
0
100
AcDbCircle
 10
2535.357082380844
 20
1443.772417282121
 30
0.0
 40
23.83483407539935
100
AcDbArc
 50
98.42147690167358
 51
109.9689386275418
  0
LINE
  5
15A8
330
1F
100
AcDbEntity
  8
0
 62
     7
100
AcDbLine
 10
2525.866379410671
 20
1486.050252385791
 30
0.0
 11
2515.866379410671
 21
1486.050252385791
 31
0.0
  0
LINE
  5
15A9
330
1F
100
AcDbEntity
  8
0
100
AcDbLine
 10
2527.866379410671
 20
1484.050252385791
 30
0.0
 11
2525.866379410671
 21
1486.050252385791
 31
0.0
  0
LINE
  5
15AA
330
1F
100
AcDbEntity
  8
0
100
AcDbLine
 10
2533.566379410671
 20
1466.174251073831
 30
0.0
 11
2533.566379410671
 21
1457.526253697752
 31
0.0
  0
LINE
  5
15AB
330
1F
100
AcDbEntity
  8
0
100
AcDbLine
 10
2531.866379410671
 20
1456.350252385791
 30
0.0
 11
2533.566379410671
 21
1457.526253697752
 31
0.0
  0
LINE
  5
15AC
330
1F
100
AcDbEntity
  8
0
100
AcDbLine
 10
2531.866379410671
 20
1467.350252385792
 30
0.0
 11
2533.566379410671
 21
1466.174251073831
 31
0.0
  0
LINE
  5
15AD
330
1F
100
AcDbEntity
  8
0
100
AcDbLine
 10
2403.866379410672
 20
1338.750252385792
 30
0.0
 11
2400.866379410672
 21
1335.750252385792
 31
0.0
  0
LINE
  5
15AE
330
1F
100
AcDbEntity
  8
0
100
AcDbLine
 10
2406.694806535418
 20
1338.750252385792
 30
0.0
 11
2403.694806535418
 21
1335.750252385792
 31
0.0
  0
LINE
  5
15AF
330
1F
100
AcDbEntity
  8
0
100
AcDbLine
 10
2392.866379410671
 20
1335.750252385792
 30
0.0
 11
2392.866379410671
 21
1338.750252385792
 31
0.0
  0
LINE
  5
15B0
330
1F
100
AcDbEntity
  8
0
100
AcDbLine
 10
2414.866379410672
 20
1335.750252385792
 30
0.0
 11
2414.866379410672
 21
1338.750252385792
 31
0.0
  0
LINE
  5
15B1
330
1F
100
AcDbEntity
  8
0
100
AcDbLine
 10
2410.866379410672
 20
1308.050252385792
 30
0.0
 11
2396.866379410671
 21
1308.050252385792
 31
0.0
  0
LINE
  5
15B2
330
1F
100
AcDbEntity
  8
0
100
AcDbLine
 10
2408.866379410671
 20
1306.050252385792
 30
0.0
 11
2410.866379410672
 21
1308.050252385792
 31
0.0
  0
LINE
  5
15B3
330
1F
100
AcDbEntity
  8
0
 62
     7
100
AcDbLine
 10
2392.866379410671
 20
1324.750252385792
 30
0.0
 11
2414.866379410672
 21
1324.750252385792
 31
0.0
  0
LINE
  5
15B4
330
1F
100
AcDbEntity
  8
0
 62
     7
100
AcDbLine
 10
2392.866379410671
 20
1335.750252385792
 30
0.0
 11
2414.866379410672
 21
1335.750252385792
 31
0.0
  0
ARC
  5
15B5
330
1F
100
AcDbEntity
  8
0
100
AcDbCircle
 10
2403.866379410672
 20
1318.013744783801
 30
0.0
 40
17.73650760199044
100
AcDbArc
 50
69.01848642667049
 51
110.9815135733295
  0
ARC
  5
15B6
330
1F
100
AcDbEntity
  8
0
100
AcDbCircle
 10
2403.866379410672
 20
1342.486759987782
 30
0.0
 40
17.73650760199044
100
AcDbArc
 50
249.0184864266705
 51
290.9815135733295
  0
LINE
  5
15B7
330
1F
100
AcDbEntity
  8
0
100
AcDbLine
 10
2410.116379410672
 20
1307.300252385792
 30
0.0
 11
2410.116379410672
 21
1324.750252385792
 31
0.0
  0
LINE
  5
15B8
330
1F
100
AcDbEntity
  8
0
100
AcDbLine
 10
2410.866379410672
 20
1308.050252385792
 30
0.0
 11
2410.866379410672
 21
1324.750252385792
 31
0.0
  0
LINE
  5
15B9
330
1F
100
AcDbEntity
  8
0
100
AcDbLine
 10
2416.566379410672
 20
1325.926253697752
 30
0.0
 11
2416.566379410672
 21
1334.574251073832
 31
0.0
  0
LINE
  5
15BA
330
1F
100
AcDbEntity
  8
0
100
AcDbLine
 10
2410.217232371758
 20
1325.926253697752
 30
0.0
 11
2410.217232371758
 21
1334.574251073832
 31
0.0
  0
ARC
  5
15BB
330
1F
100
AcDbEntity
  8
0
100
AcDbCircle
 10
2418.357082380845
 20
1312.172417282122
 30
0.0
 40
23.83483407539935
100
AcDbArc
 50
98.42147690167358
 51
109.9689386275418
  0
LINE
  5
15BC
330
1F
100
AcDbEntity
  8
0
100
AcDbLine
 10
2414.866379410672
 20
1335.750252385792
 30
0.0
 11
2416.566379410672
 21
1334.574251073832
 31
0.0
  0
LINE
  5
15BD
330
1F
100
AcDbEntity
  8
0
100
AcDbLine
 10
2414.866379410672
 20
1324.750252385792
 30
0.0
 11
2416.566379410672
 21
1325.926253697752
 31
0.0
  0
ARC
  5
15BE
330
1F
100
AcDbEntity
  8
0
100
AcDbCircle
 10
2418.357082380845
 20
1348.328087489462
 30
0.0
 40
23.83483407539935
100
AcDbArc
 50
250.0310613724582
 51
261.5785230983264
  0
LINE
  5
15BF
330
1F
100
AcDbEntity
  8
0
100
AcDbLine
 10
2397.616379410671
 20
1307.300252385792
 30
0.0
 11
2397.616379410671
 21
1324.750252385792
 31
0.0
  0
LINE
  5
15C0
330
1F
100
AcDbEntity
  8
0
100
AcDbLine
 10
2396.866379410671
 20
1308.050252385792
 30
0.0
 11
2396.866379410671
 21
1324.750252385792
 31
0.0
  0
LINE
  5
15C1
330
1F
100
AcDbEntity
  8
0
100
AcDbLine
 10
2397.515526449586
 20
1325.926253697752
 30
0.0
 11
2397.515526449586
 21
1334.574251073832
 31
0.0
  0
ARC
  5
15C2
330
1F
100
AcDbEntity
  8
0
100
AcDbCircle
 10
2389.375676440498
 20
1312.172417282122
 30
0.0
 40
23.83483407539935
100
AcDbArc
 50
70.03106137245828
 51
81.57852309832639
  0
ARC
  5
15C3
330
1F
100
AcDbEntity
  8
0
100
AcDbCircle
 10
2389.375676440498
 20
1348.328087489462
 30
0.0
 40
23.83483407539935
100
AcDbArc
 50
278.4214769016736
 51
289.9689386275418
  0
LINE
  5
15C4
330
1F
100
AcDbEntity
  8
0
 62
     7
100
AcDbLine
 10
2398.866379410671
 20
1306.050252385792
 30
0.0
 11
2408.866379410671
 21
1306.050252385792
 31
0.0
  0
LINE
  5
15C5
330
1F
100
AcDbEntity
  8
0
100
AcDbLine
 10
2396.866379410671
 20
1308.050252385792
 30
0.0
 11
2398.866379410671
 21
1306.050252385792
 31
0.0
  0
LINE
  5
15C6
330
1F
100
AcDbEntity
  8
0
100
AcDbLine
 10
2391.166379410671
 20
1325.926253697752
 30
0.0
 11
2391.166379410671
 21
1334.574251073832
 31
0.0
  0
LINE
  5
15C7
330
1F
100
AcDbEntity
  8
0
100
AcDbLine
 10
2392.866379410671
 20
1335.750252385792
 30
0.0
 11
2391.166379410671
 21
1334.574251073832
 31
0.0
  0
LINE
  5
15C8
330
1F
100
AcDbEntity
  8
0
100
AcDbLine
 10
2392.866379410671
 20
1324.750252385792
 30
0.0
 11
2391.166379410671
 21
1325.926253697752
 31
0.0
  0
LINE
  5
15C9
330
1F
100
AcDbEntity
  8
0
100
AcDbLine
 10
2527.866379410671
 20
1308.050252385792
 30
0.0
 11
2525.866379410671
 21
1306.050252385792
 31
0.0
  0
ARC
  5
15CA
330
1F
100
AcDbEntity
  8
0
100
AcDbCircle
 10
2520.866379410671
 20
1342.486759987782
 30
0.0
 40
17.73650760199044
100
AcDbArc
 50
249.0184864266705
 51
290.9815135733295
  0
ARC
  5
15CB
330
1F
100
AcDbEntity
  8
0
100
AcDbCircle
 10
2520.866379410671
 20
1318.013744783801
 30
0.0
 40
17.73650760199044
100
AcDbArc
 50
69.01848642667049
 51
110.9815135733295
  0
LINE
  5
15CC
330
1F
100
AcDbEntity
  8
0
 62
     7
100
AcDbLine
 10
2531.866379410671
 20
1335.750252385792
 30
0.0
 11
2509.866379410671
 21
1335.750252385792
 31
0.0
  0
LINE
  5
15CD
330
1F
100
AcDbEntity
  8
0
 62
     7
100
AcDbLine
 10
2531.866379410671
 20
1324.750252385792
 30
0.0
 11
2509.866379410671
 21
1324.750252385792
 31
0.0
  0
LINE
  5
15CE
330
1F
100
AcDbEntity
  8
0
100
AcDbLine
 10
2513.866379410671
 20
1308.050252385792
 30
0.0
 11
2527.866379410671
 21
1308.050252385792
 31
0.0
  0
LINE
  5
15CF
330
1F
100
AcDbEntity
  8
0
100
AcDbLine
 10
2531.866379410671
 20
1335.750252385792
 30
0.0
 11
2531.866379410671
 21
1338.750252385792
 31
0.0
  0
LINE
  5
15D0
330
1F
100
AcDbEntity
  8
0
100
AcDbLine
 10
2527.866379410671
 20
1308.050252385792
 30
0.0
 11
2527.866379410671
 21
1324.750252385792
 31
0.0
  0
LINE
  5
15D1
330
1F
100
AcDbEntity
  8
0
100
AcDbLine
 10
2531.866379410671
 20
1324.750252385792
 30
0.0
 11
2533.566379410671
 21
1325.926253697752
 31
0.0
  0
LINE
  5
15D2
330
1F
100
AcDbEntity
  8
0
100
AcDbLine
 10
2531.866379410671
 20
1335.750252385792
 30
0.0
 11
2533.566379410671
 21
1334.574251073832
 31
0.0
  0
LINE
  5
15D3
330
1F
100
AcDbEntity
  8
0
100
AcDbLine
 10
2533.566379410671
 20
1325.926253697752
 30
0.0
 11
2533.566379410671
 21
1334.574251073832
 31
0.0
  0
ARC
  5
15D4
330
1F
100
AcDbEntity
  8
0
100
AcDbCircle
 10
2535.357082380844
 20
1348.328087489462
 30
0.0
 40
23.83483407539935
100
AcDbArc
 50
250.0310613724582
 51
261.5785230983264
  0
ARC
  5
15D5
330
1F
100
AcDbEntity
  8
0
100
AcDbCircle
 10
2535.357082380844
 20
1312.172417282122
 30
0.0
 40
23.83483407539935
100
AcDbArc
 50
98.42147690167358
 51
109.9689386275418
  0
LINE
  5
15D6
330
1F
100
AcDbEntity
  8
0
100
AcDbLine
 10
2527.217232371757
 20
1325.926253697752
 30
0.0
 11
2527.217232371757
 21
1334.574251073832
 31
0.0
  0
LINE
  5
15D7
330
1F
100
AcDbEntity
  8
0
100
AcDbLine
 10
2509.866379410671
 20
1335.750252385792
 30
0.0
 11
2509.866379410671
 21
1338.750252385792
 31
0.0
  0
LINE
  5
15D8
330
1F
100
AcDbEntity
  8
0
100
AcDbLine
 10
2518.037952285925
 20
1338.750252385792
 30
0.0
 11
2521.037952285925
 21
1335.750252385792
 31
0.0
  0
LINE
  5
15D9
330
1F
100
AcDbEntity
  8
0
100
AcDbLine
 10
2520.866379410671
 20
1338.750252385792
 30
0.0
 11
2523.866379410671
 21
1335.750252385792
 31
0.0
  0
LINE
  5
15DA
330
1F
100
AcDbEntity
  8
0
100
AcDbLine
 10
2527.116379410671
 20
1307.300252385792
 30
0.0
 11
2527.116379410671
 21
1324.750252385792
 31
0.0
  0
LINE
  5
15DB
330
1F
100
AcDbEntity
  8
0
100
AcDbLine
 10
2513.866379410671
 20
1308.050252385792
 30
0.0
 11
2513.866379410671
 21
1324.750252385792
 31
0.0
  0
LINE
  5
15DC
330
1F
100
AcDbEntity
  8
0
100
AcDbLine
 10
2514.616379410671
 20
1307.300252385792
 30
0.0
 11
2514.616379410671
 21
1324.750252385792
 31
0.0
  0
ARC
  5
15DD
330
1F
100
AcDbEntity
  8
0
100
AcDbCircle
 10
2506.375676440498
 20
1348.328087489462
 30
0.0
 40
23.83483407539935
100
AcDbArc
 50
278.4214769016736
 51
289.9689386275418
  0
LINE
  5
15DE
330
1F
100
AcDbEntity
  8
0
100
AcDbLine
 10
2509.866379410671
 20
1324.750252385792
 30
0.0
 11
2508.166379410671
 21
1325.926253697752
 31
0.0
  0
LINE
  5
15DF
330
1F
100
AcDbEntity
  8
0
100
AcDbLine
 10
2509.866379410671
 20
1335.750252385792
 30
0.0
 11
2508.166379410671
 21
1334.574251073832
 31
0.0
  0
ARC
  5
15E0
330
1F
100
AcDbEntity
  8
0
100
AcDbCircle
 10
2506.375676440498
 20
1312.172417282122
 30
0.0
 40
23.83483407539935
100
AcDbArc
 50
70.03106137245828
 51
81.57852309832639
  0
LINE
  5
15E1
330
1F
100
AcDbEntity
  8
0
100
AcDbLine
 10
2514.515526449585
 20
1325.926253697752
 30
0.0
 11
2514.515526449585
 21
1334.574251073832
 31
0.0
  0
LINE
  5
15E2
330
1F
100
AcDbEntity
  8
0
100
AcDbLine
 10
2508.166379410671
 20
1325.926253697752
 30
0.0
 11
2508.166379410671
 21
1334.574251073832
 31
0.0
  0
LINE
  5
15E3
330
1F
100
AcDbEntity
  8
0
 62
     7
100
AcDbLine
 10
2525.866379410671
 20
1306.050252385792
 30
0.0
 11
2515.866379410671
 21
1306.050252385792
 31
0.0
  0
LINE
  5
15E4
330
1F
100
AcDbEntity
  8
0
100
AcDbLine
 10
2515.866379410671
 20
1306.050252385792
 30
0.0
 11
2513.866379410671
 21
1308.050252385792
 31
0.0
  0
LINE
  5
15E5
330
1F
100
AcDbEntity
  8
CENTER
  6
CENTER
100
AcDbLine
 10
2520.866379410671
 20
1491.935392804337
 30
0.0
 11
2520.866379410671
 21
1301.388071164804
 31
0.0
  0
LINE
  5
15E6
330
1F
100
AcDbEntity
  8
0
100
AcDbLine
 10
2514.366379410671
 20
1434.050252385792
 30
0.0
 11
2514.366379410671
 21
1358.050252385792
 31
0.0
  0
LINE
  5
15E7
330
1F
100
AcDbEntity
  8
0
100
AcDbLine
 10
2527.366379410671
 20
1434.050252385792
 30
0.0
 11
2527.366379410671
 21
1358.050252385792
 31
0.0
  0
LINE
  5
15E8
330
1F
100
AcDbEntity
  8
0
 62
     7
100
AcDbLine
 10
2416.566379410672
 20
1326.050252385792
 30
0.0
 11
2508.166379410671
 21
1326.050252385792
 31
0.0
  0
LINE
  5
15E9
330
1F
100
AcDbEntity
  8
0
 62
     7
100
AcDbLine
 10
2533.566379410671
 20
1326.050252385792
 30
0.0
 11
2534.561786033516
 21
1326.050252385792
 31
0.0
  0
LINE
  5
15EA
330
1F
100
AcDbEntity
  8
0
 62
     7
100
AcDbLine
 10
2533.566379410671
 20
1466.050252385791
 30
0.0
 11
2534.561786033516
 21
1466.050252385791
 31
0.0
  0
LINE
  5
15EB
330
1F
100
AcDbEntity
  8
0
100
AcDbLine
 10
2147.181012996345
 20
1308.050252385792
 30
0.0
 11
2147.181012996345
 21
1324.750252385792
 31
0.0
  0
LINE
  5
15EC
330
1F
100
AcDbEntity
  8
0
100
AcDbLine
 10
2147.931012996345
 20
1307.300252385792
 30
0.0
 11
2147.931012996345
 21
1324.750252385792
 31
0.0
  0
LINE
  5
15ED
330
1F
100
AcDbEntity
  8
0
100
AcDbLine
 10
2161.181012996345
 20
1308.050252385792
 30
0.0
 11
2161.181012996345
 21
1324.750252385792
 31
0.0
  0
LINE
  5
15EE
330
1F
100
AcDbEntity
  8
0
100
AcDbLine
 10
2160.431012996345
 20
1307.300252385792
 30
0.0
 11
2160.431012996345
 21
1324.750252385792
 31
0.0
  0
LINE
  5
15EF
330
1F
100
AcDbEntity
  8
0
100
AcDbLine
 10
2159.181012996345
 20
1306.050252385792
 30
0.0
 11
2161.181012996345
 21
1308.050252385792
 31
0.0
  0
LINE
  5
15F0
330
1F
100
AcDbEntity
  8
0
100
AcDbLine
 10
2161.181012996345
 20
1308.050252385792
 30
0.0
 11
2147.181012996345
 21
1308.050252385792
 31
0.0
  0
LINE
  5
15F1
330
1F
100
AcDbEntity
  8
0
100
AcDbLine
 10
2147.181012996345
 20
1308.050252385792
 30
0.0
 11
2149.181012996345
 21
1306.050252385792
 31
0.0
  0
LINE
  5
15F2
330
1F
100
AcDbEntity
  8
0
 62
     7
100
AcDbLine
 10
2149.181012996345
 20
1306.050252385792
 30
0.0
 11
2159.181012996345
 21
1306.050252385792
 31
0.0
  0
ARC
  5
15F3
330
1F
100
AcDbEntity
  8
0
100
AcDbCircle
 10
2154.181012996345
 20
1342.486759987782
 30
0.0
 40
17.73650760199044
100
AcDbArc
 50
249.0184864266705
 51
290.9815135733295
  0
ARC
  5
15F4
330
1F
100
AcDbEntity
  8
0
100
AcDbCircle
 10
2154.181012996345
 20
1318.013744783801
 30
0.0
 40
17.73650760199044
100
AcDbArc
 50
69.01848642667049
 51
110.9815135733295
  0
LINE
  5
15F5
330
1F
100
AcDbEntity
  8
0
 62
     7
100
AcDbLine
 10
2143.181012996345
 20
1335.750252385792
 30
0.0
 11
2165.181012996345
 21
1335.750252385792
 31
0.0
  0
LINE
  5
15F6
330
1F
100
AcDbEntity
  8
0
 62
     7
100
AcDbLine
 10
2143.181012996345
 20
1324.750252385792
 30
0.0
 11
2165.181012996345
 21
1324.750252385792
 31
0.0
  0
LINE
  5
15F7
330
1F
100
AcDbEntity
  8
0
100
AcDbLine
 10
2160.531865957432
 20
1325.926253697752
 30
0.0
 11
2160.531865957432
 21
1334.574251073832
 31
0.0
  0
LINE
  5
15F8
330
1F
100
AcDbEntity
  8
0
100
AcDbLine
 10
2166.881012996345
 20
1325.926253697752
 30
0.0
 11
2166.881012996345
 21
1334.574251073832
 31
0.0
  0
ARC
  5
15F9
330
1F
100
AcDbEntity
  8
0
100
AcDbCircle
 10
2168.671715966518
 20
1348.328087489462
 30
0.0
 40
23.83483407539935
100
AcDbArc
 50
250.0310613724582
 51
261.5785230983264
  0
LINE
  5
15FA
330
1F
100
AcDbEntity
  8
0
100
AcDbLine
 10
2165.181012996345
 20
1324.750252385792
 30
0.0
 11
2166.881012996345
 21
1325.926253697752
 31
0.0
  0
LINE
  5
15FB
330
1F
100
AcDbEntity
  8
0
100
AcDbLine
 10
2165.181012996345
 20
1335.750252385792
 30
0.0
 11
2166.881012996345
 21
1334.574251073832
 31
0.0
  0
ARC
  5
15FC
330
1F
100
AcDbEntity
  8
0
100
AcDbCircle
 10
2168.671715966518
 20
1312.172417282122
 30
0.0
 40
23.83483407539935
100
AcDbArc
 50
98.42147690167358
 51
109.9689386275418
  0
LINE
  5
15FD
330
1F
100
AcDbEntity
  8
0
100
AcDbLine
 10
2165.181012996345
 20
1335.750252385792
 30
0.0
 11
2165.181012996345
 21
1338.750252385792
 31
0.0
  0
LINE
  5
15FE
330
1F
100
AcDbEntity
  8
0
100
AcDbLine
 10
2141.481012996345
 20
1325.926253697752
 30
0.0
 11
2141.481012996345
 21
1334.574251073832
 31
0.0
  0
LINE
  5
15FF
330
1F
100
AcDbEntity
  8
0
100
AcDbLine
 10
2147.83016003526
 20
1325.926253697752
 30
0.0
 11
2147.83016003526
 21
1334.574251073832
 31
0.0
  0
LINE
  5
1600
330
1F
100
AcDbEntity
  8
0
100
AcDbLine
 10
2143.181012996345
 20
1324.750252385792
 30
0.0
 11
2141.481012996345
 21
1325.926253697752
 31
0.0
  0
ARC
  5
1601
330
1F
100
AcDbEntity
  8
0
100
AcDbCircle
 10
2139.690310026172
 20
1348.328087489462
 30
0.0
 40
23.83483407539935
100
AcDbArc
 50
278.4214769016736
 51
289.9689386275418
  0
LINE
  5
1602
330
1F
100
AcDbEntity
  8
0
100
AcDbLine
 10
2143.181012996345
 20
1335.750252385792
 30
0.0
 11
2141.481012996345
 21
1334.574251073832
 31
0.0
  0
ARC
  5
1603
330
1F
100
AcDbEntity
  8
0
100
AcDbCircle
 10
2139.690310026172
 20
1312.172417282122
 30
0.0
 40
23.83483407539935
100
AcDbArc
 50
70.03106137245828
 51
81.57852309832639
  0
LINE
  5
1604
330
1F
100
AcDbEntity
  8
0
100
AcDbLine
 10
2143.181012996345
 20
1335.750252385792
 30
0.0
 11
2143.181012996345
 21
1338.750252385792
 31
0.0
  0
LINE
  5
1605
330
1F
100
AcDbEntity
  8
0
100
AcDbLine
 10
2157.009440121091
 20
1338.750252385792
 30
0.0
 11
2154.009440121091
 21
1335.750252385792
 31
0.0
  0
LINE
  5
1606
330
1F
100
AcDbEntity
  8
0
100
AcDbLine
 10
2154.181012996345
 20
1338.750252385792
 30
0.0
 11
2151.181012996345
 21
1335.750252385792
 31
0.0
  0
LINE
  5
1607
330
1F
100
AcDbEntity
  8
0
100
AcDbLine
 10
2154.181012996345
 20
1453.350252385791
 30
0.0
 11
2151.181012996345
 21
1456.350252385791
 31
0.0
  0
LINE
  5
1608
330
1F
100
AcDbEntity
  8
0
100
AcDbLine
 10
2157.009440121091
 20
1453.350252385791
 30
0.0
 11
2154.009440121091
 21
1456.350252385791
 31
0.0
  0
LINE
  5
1609
330
1F
100
AcDbEntity
  8
0
100
AcDbLine
 10
2143.181012996345
 20
1456.350252385791
 30
0.0
 11
2143.181012996345
 21
1453.350252385791
 31
0.0
  0
LINE
  5
160A
330
1F
100
AcDbEntity
  8
0
100
AcDbLine
 10
2165.181012996345
 20
1456.350252385791
 30
0.0
 11
2165.181012996345
 21
1453.350252385791
 31
0.0
  0
LINE
  5
160B
330
1F
100
AcDbEntity
  8
0
100
AcDbLine
 10
2161.181012996345
 20
1484.050252385791
 30
0.0
 11
2147.181012996345
 21
1484.050252385791
 31
0.0
  0
LINE
  5
160C
330
1F
100
AcDbEntity
  8
0
100
AcDbLine
 10
2159.181012996345
 20
1486.050252385791
 30
0.0
 11
2161.181012996345
 21
1484.050252385791
 31
0.0
  0
LINE
  5
160D
330
1F
100
AcDbEntity
  8
0
 62
     7
100
AcDbLine
 10
2143.181012996345
 20
1467.350252385791
 30
0.0
 11
2165.181012996345
 21
1467.350252385791
 31
0.0
  0
LINE
  5
160E
330
1F
100
AcDbEntity
  8
0
 62
     7
100
AcDbLine
 10
2143.181012996345
 20
1456.350252385791
 30
0.0
 11
2165.181012996345
 21
1456.350252385791
 31
0.0
  0
ARC
  5
160F
330
1F
100
AcDbEntity
  8
0
100
AcDbCircle
 10
2154.181012996345
 20
1474.086759987782
 30
0.0
 40
17.73650760199044
100
AcDbArc
 50
249.0184864266705
 51
290.9815135733295
  0
ARC
  5
1610
330
1F
100
AcDbEntity
  8
0
100
AcDbCircle
 10
2154.181012996345
 20
1449.613744783801
 30
0.0
 40
17.73650760199044
100
AcDbArc
 50
69.01848642667049
 51
110.9815135733295
  0
LINE
  5
1611
330
1F
100
AcDbEntity
  8
0
100
AcDbLine
 10
2160.431012996345
 20
1484.800252385791
 30
0.0
 11
2160.431012996345
 21
1467.350252385791
 31
0.0
  0
LINE
  5
1612
330
1F
100
AcDbEntity
  8
0
100
AcDbLine
 10
2161.181012996345
 20
1484.050252385791
 30
0.0
 11
2161.181012996345
 21
1467.350252385791
 31
0.0
  0
LINE
  5
1613
330
1F
100
AcDbEntity
  8
0
100
AcDbLine
 10
2166.881012996345
 20
1466.174251073831
 30
0.0
 11
2166.881012996345
 21
1457.526253697752
 31
0.0
  0
LINE
  5
1614
330
1F
100
AcDbEntity
  8
0
100
AcDbLine
 10
2160.531865957432
 20
1466.174251073831
 30
0.0
 11
2160.531865957432
 21
1457.526253697752
 31
0.0
  0
ARC
  5
1615
330
1F
100
AcDbEntity
  8
0
100
AcDbCircle
 10
2168.671715966518
 20
1479.928087489462
 30
0.0
 40
23.83483407539935
100
AcDbArc
 50
250.0310613724582
 51
261.5785230983264
  0
LINE
  5
1616
330
1F
100
AcDbEntity
  8
0
100
AcDbLine
 10
2165.181012996345
 20
1456.350252385791
 30
0.0
 11
2166.881012996345
 21
1457.526253697752
 31
0.0
  0
LINE
  5
1617
330
1F
100
AcDbEntity
  8
0
100
AcDbLine
 10
2165.181012996345
 20
1467.350252385791
 30
0.0
 11
2166.881012996345
 21
1466.174251073831
 31
0.0
  0
ARC
  5
1618
330
1F
100
AcDbEntity
  8
0
100
AcDbCircle
 10
2168.671715966518
 20
1443.772417282121
 30
0.0
 40
23.83483407539935
100
AcDbArc
 50
98.42147690167358
 51
109.9689386275418
  0
LINE
  5
1619
330
1F
100
AcDbEntity
  8
0
100
AcDbLine
 10
2147.931012996345
 20
1484.800252385791
 30
0.0
 11
2147.931012996345
 21
1467.350252385791
 31
0.0
  0
LINE
  5
161A
330
1F
100
AcDbEntity
  8
0
100
AcDbLine
 10
2147.181012996345
 20
1484.050252385791
 30
0.0
 11
2147.181012996345
 21
1467.350252385791
 31
0.0
  0
LINE
  5
161B
330
1F
100
AcDbEntity
  8
0
100
AcDbLine
 10
2147.83016003526
 20
1466.174251073831
 30
0.0
 11
2147.83016003526
 21
1457.526253697752
 31
0.0
  0
LINE
  5
161C
330
1F
100
AcDbEntity
  8
0
100
AcDbLine
 10
2141.481012996345
 20
1466.174251073831
 30
0.0
 11
2141.481012996345
 21
1457.526253697752
 31
0.0
  0
LINE
  5
161D
330
1F
100
AcDbEntity
  8
0
100
AcDbLine
 10
2143.181012996345
 20
1456.350252385791
 30
0.0
 11
2141.481012996345
 21
1457.526253697752
 31
0.0
  0
ARC
  5
161E
330
1F
100
AcDbEntity
  8
0
100
AcDbCircle
 10
2139.690310026172
 20
1479.928087489462
 30
0.0
 40
23.83483407539935
100
AcDbArc
 50
278.4214769016736
 51
289.9689386275418
  0
ARC
  5
161F
330
1F
100
AcDbEntity
  8
0
100
AcDbCircle
 10
2139.690310026172
 20
1443.772417282121
 30
0.0
 40
23.83483407539935
100
AcDbArc
 50
70.03106137245828
 51
81.57852309832639
  0
LINE
  5
1620
330
1F
100
AcDbEntity
  8
0
100
AcDbLine
 10
2143.181012996345
 20
1467.350252385791
 30
0.0
 11
2141.481012996345
 21
1466.174251073831
 31
0.0
  0
LINE
  5
1621
330
1F
100
AcDbEntity
  8
0
 62
     7
100
AcDbLine
 10
2149.181012996345
 20
1486.050252385791
 30
0.0
 11
2159.181012996345
 21
1486.050252385791
 31
0.0
  0
LINE
  5
1622
330
1F
100
AcDbEntity
  8
0
100
AcDbLine
 10
2147.181012996345
 20
1484.050252385791
 30
0.0
 11
2149.181012996345
 21
1486.050252385791
 31
0.0
  0
LINE
  5
1623
330
1F
100
AcDbEntity
  8
0
100
AcDbLine
 10
2264.931012996344
 20
1307.300252385792
 30
0.0
 11
2264.931012996344
 21
1324.750252385792
 31
0.0
  0
LINE
  5
1624
330
1F
100
AcDbEntity
  8
0
100
AcDbLine
 10
2264.181012996344
 20
1308.050252385792
 30
0.0
 11
2264.181012996344
 21
1324.750252385792
 31
0.0
  0
LINE
  5
1625
330
1F
100
AcDbEntity
  8
0
100
AcDbLine
 10
2277.431012996344
 20
1307.300252385792
 30
0.0
 11
2277.431012996344
 21
1324.750252385792
 31
0.0
  0
LINE
  5
1626
330
1F
100
AcDbEntity
  8
0
100
AcDbLine
 10
2278.181012996344
 20
1308.050252385792
 30
0.0
 11
2278.181012996344
 21
1324.750252385792
 31
0.0
  0
LINE
  5
1627
330
1F
100
AcDbEntity
  8
0
100
AcDbLine
 10
2264.181012996344
 20
1308.050252385792
 30
0.0
 11
2278.181012996344
 21
1308.050252385792
 31
0.0
  0
LINE
  5
1628
330
1F
100
AcDbEntity
  8
0
100
AcDbLine
 10
2278.181012996344
 20
1308.050252385792
 30
0.0
 11
2276.181012996344
 21
1306.050252385792
 31
0.0
  0
LINE
  5
1629
330
1F
100
AcDbEntity
  8
0
100
AcDbLine
 10
2266.181012996344
 20
1306.050252385792
 30
0.0
 11
2264.181012996344
 21
1308.050252385792
 31
0.0
  0
LINE
  5
162A
330
1F
100
AcDbEntity
  8
0
 62
     7
100
AcDbLine
 10
2276.181012996344
 20
1306.050252385792
 30
0.0
 11
2266.181012996344
 21
1306.050252385792
 31
0.0
  0
LINE
  5
162B
330
1F
100
AcDbEntity
  8
0
 62
     7
100
AcDbLine
 10
2282.181012996344
 20
1324.750252385792
 30
0.0
 11
2260.181012996344
 21
1324.750252385792
 31
0.0
  0
LINE
  5
162C
330
1F
100
AcDbEntity
  8
0
 62
     7
100
AcDbLine
 10
2282.181012996344
 20
1335.750252385792
 30
0.0
 11
2260.181012996344
 21
1335.750252385792
 31
0.0
  0
ARC
  5
162D
330
1F
100
AcDbEntity
  8
0
100
AcDbCircle
 10
2271.181012996344
 20
1318.013744783801
 30
0.0
 40
17.73650760199044
100
AcDbArc
 50
69.01848642667049
 51
110.9815135733295
  0
ARC
  5
162E
330
1F
100
AcDbEntity
  8
0
100
AcDbCircle
 10
2271.181012996344
 20
1342.486759987782
 30
0.0
 40
17.73650760199044
100
AcDbArc
 50
249.0184864266705
 51
290.9815135733295
  0
LINE
  5
162F
330
1F
100
AcDbEntity
  8
0
100
AcDbLine
 10
2277.531865957431
 20
1325.926253697752
 30
0.0
 11
2277.531865957431
 21
1334.574251073832
 31
0.0
  0
LINE
  5
1630
330
1F
100
AcDbEntity
  8
0
100
AcDbLine
 10
2283.881012996344
 20
1325.926253697752
 30
0.0
 11
2283.881012996344
 21
1334.574251073832
 31
0.0
  0
ARC
  5
1631
330
1F
100
AcDbEntity
  8
0
100
AcDbCircle
 10
2285.671715966517
 20
1348.328087489462
 30
0.0
 40
23.83483407539935
100
AcDbArc
 50
250.0310613724582
 51
261.5785230983264
  0
LINE
  5
1632
330
1F
100
AcDbEntity
  8
0
100
AcDbLine
 10
2282.181012996344
 20
1324.750252385792
 30
0.0
 11
2283.881012996344
 21
1325.926253697752
 31
0.0
  0
ARC
  5
1633
330
1F
100
AcDbEntity
  8
0
100
AcDbCircle
 10
2285.671715966517
 20
1312.172417282122
 30
0.0
 40
23.83483407539935
100
AcDbArc
 50
98.42147690167358
 51
109.9689386275418
  0
LINE
  5
1634
330
1F
100
AcDbEntity
  8
0
100
AcDbLine
 10
2282.181012996344
 20
1335.750252385792
 30
0.0
 11
2283.881012996344
 21
1334.574251073832
 31
0.0
  0
LINE
  5
1635
330
1F
100
AcDbEntity
  8
0
100
AcDbLine
 10
2282.181012996344
 20
1335.750252385792
 30
0.0
 11
2282.181012996344
 21
1338.750252385792
 31
0.0
  0
LINE
  5
1636
330
1F
100
AcDbEntity
  8
0
100
AcDbLine
 10
2258.481012996345
 20
1325.926253697752
 30
0.0
 11
2258.481012996345
 21
1334.574251073832
 31
0.0
  0
LINE
  5
1637
330
1F
100
AcDbEntity
  8
0
100
AcDbLine
 10
2264.830160035259
 20
1325.926253697752
 30
0.0
 11
2264.830160035259
 21
1334.574251073832
 31
0.0
  0
LINE
  5
1638
330
1F
100
AcDbEntity
  8
0
100
AcDbLine
 10
2260.181012996344
 20
1324.750252385792
 30
0.0
 11
2258.481012996345
 21
1325.926253697752
 31
0.0
  0
ARC
  5
1639
330
1F
100
AcDbEntity
  8
0
100
AcDbCircle
 10
2256.690310026171
 20
1348.328087489462
 30
0.0
 40
23.83483407539935
100
AcDbArc
 50
278.4214769016736
 51
289.9689386275418
  0
ARC
  5
163A
330
1F
100
AcDbEntity
  8
0
100
AcDbCircle
 10
2256.690310026171
 20
1312.172417282122
 30
0.0
 40
23.83483407539935
100
AcDbArc
 50
70.03106137245828
 51
81.57852309832639
  0
LINE
  5
163B
330
1F
100
AcDbEntity
  8
0
100
AcDbLine
 10
2260.181012996344
 20
1335.750252385792
 30
0.0
 11
2258.481012996345
 21
1334.574251073832
 31
0.0
  0
LINE
  5
163C
330
1F
100
AcDbEntity
  8
0
100
AcDbLine
 10
2271.181012996344
 20
1338.750252385792
 30
0.0
 11
2274.181012996344
 21
1335.750252385792
 31
0.0
  0
LINE
  5
163D
330
1F
100
AcDbEntity
  8
0
100
AcDbLine
 10
2268.352585871598
 20
1338.750252385792
 30
0.0
 11
2271.352585871599
 21
1335.750252385792
 31
0.0
  0
LINE
  5
163E
330
1F
100
AcDbEntity
  8
0
100
AcDbLine
 10
2260.181012996344
 20
1335.750252385792
 30
0.0
 11
2260.181012996344
 21
1338.750252385792
 31
0.0
  0
LINE
  5
163F
330
1F
100
AcDbEntity
  8
0
100
AcDbLine
 10
2278.181012996344
 20
1484.050252385791
 30
0.0
 11
2276.181012996344
 21
1486.050252385791
 31
0.0
  0
ARC
  5
1640
330
1F
100
AcDbEntity
  8
0
100
AcDbCircle
 10
2271.181012996344
 20
1449.613744783801
 30
0.0
 40
17.73650760199044
100
AcDbArc
 50
69.01848642667049
 51
110.9815135733295
  0
ARC
  5
1641
330
1F
100
AcDbEntity
  8
0
100
AcDbCircle
 10
2271.181012996344
 20
1474.086759987782
 30
0.0
 40
17.73650760199044
100
AcDbArc
 50
249.0184864266705
 51
290.9815135733295
  0
LINE
  5
1642
330
1F
100
AcDbEntity
  8
0
 62
     7
100
AcDbLine
 10
2282.181012996344
 20
1456.350252385791
 30
0.0
 11
2260.181012996344
 21
1456.350252385791
 31
0.0
  0
LINE
  5
1643
330
1F
100
AcDbEntity
  8
0
 62
     7
100
AcDbLine
 10
2282.181012996344
 20
1467.350252385791
 30
0.0
 11
2260.181012996344
 21
1467.350252385791
 31
0.0
  0
LINE
  5
1644
330
1F
100
AcDbEntity
  8
0
100
AcDbLine
 10
2264.181012996344
 20
1484.050252385791
 30
0.0
 11
2278.181012996344
 21
1484.050252385791
 31
0.0
  0
LINE
  5
1645
330
1F
100
AcDbEntity
  8
0
100
AcDbLine
 10
2282.181012996344
 20
1456.350252385791
 30
0.0
 11
2282.181012996344
 21
1453.350252385791
 31
0.0
  0
LINE
  5
1646
330
1F
100
AcDbEntity
  8
0
100
AcDbLine
 10
2278.181012996344
 20
1484.050252385791
 30
0.0
 11
2278.181012996344
 21
1467.350252385791
 31
0.0
  0
LINE
  5
1647
330
1F
100
AcDbEntity
  8
0
100
AcDbLine
 10
2282.181012996344
 20
1467.350252385791
 30
0.0
 11
2283.881012996344
 21
1466.174251073831
 31
0.0
  0
LINE
  5
1648
330
1F
100
AcDbEntity
  8
0
100
AcDbLine
 10
2282.181012996344
 20
1456.350252385791
 30
0.0
 11
2283.881012996344
 21
1457.526253697752
 31
0.0
  0
LINE
  5
1649
330
1F
100
AcDbEntity
  8
0
100
AcDbLine
 10
2283.881012996344
 20
1466.174251073831
 30
0.0
 11
2283.881012996344
 21
1457.526253697752
 31
0.0
  0
ARC
  5
164A
330
1F
100
AcDbEntity
  8
0
100
AcDbCircle
 10
2285.671715966517
 20
1443.772417282121
 30
0.0
 40
23.83483407539935
100
AcDbArc
 50
98.42147690167358
 51
109.9689386275418
  0
ARC
  5
164B
330
1F
100
AcDbEntity
  8
0
100
AcDbCircle
 10
2285.671715966517
 20
1479.928087489462
 30
0.0
 40
23.83483407539935
100
AcDbArc
 50
250.0310613724582
 51
261.5785230983264
  0
LINE
  5
164C
330
1F
100
AcDbEntity
  8
0
100
AcDbLine
 10
2277.531865957431
 20
1466.174251073831
 30
0.0
 11
2277.531865957431
 21
1457.526253697752
 31
0.0
  0
LINE
  5
164D
330
1F
100
AcDbEntity
  8
0
100
AcDbLine
 10
2260.181012996344
 20
1456.350252385791
 30
0.0
 11
2260.181012996344
 21
1453.350252385791
 31
0.0
  0
LINE
  5
164E
330
1F
100
AcDbEntity
  8
0
100
AcDbLine
 10
2268.352585871598
 20
1453.350252385791
 30
0.0
 11
2271.352585871599
 21
1456.350252385791
 31
0.0
  0
LINE
  5
164F
330
1F
100
AcDbEntity
  8
0
100
AcDbLine
 10
2271.181012996344
 20
1453.350252385791
 30
0.0
 11
2274.181012996344
 21
1456.350252385791
 31
0.0
  0
LINE
  5
1650
330
1F
100
AcDbEntity
  8
0
100
AcDbLine
 10
2277.431012996344
 20
1484.800252385791
 30
0.0
 11
2277.431012996344
 21
1467.350252385791
 31
0.0
  0
LINE
  5
1651
330
1F
100
AcDbEntity
  8
0
100
AcDbLine
 10
2264.181012996344
 20
1484.050252385791
 30
0.0
 11
2264.181012996344
 21
1467.350252385791
 31
0.0
  0
LINE
  5
1652
330
1F
100
AcDbEntity
  8
0
100
AcDbLine
 10
2264.931012996344
 20
1484.800252385791
 30
0.0
 11
2264.931012996344
 21
1467.350252385791
 31
0.0
  0
ARC
  5
1653
330
1F
100
AcDbEntity
  8
0
100
AcDbCircle
 10
2256.690310026171
 20
1443.772417282121
 30
0.0
 40
23.83483407539935
100
AcDbArc
 50
70.03106137245828
 51
81.57852309832639
  0
LINE
  5
1654
330
1F
100
AcDbEntity
  8
0
100
AcDbLine
 10
2260.181012996344
 20
1467.350252385791
 30
0.0
 11
2258.481012996345
 21
1466.174251073831
 31
0.0
  0
LINE
  5
1655
330
1F
100
AcDbEntity
  8
0
100
AcDbLine
 10
2260.181012996344
 20
1456.350252385791
 30
0.0
 11
2258.481012996345
 21
1457.526253697752
 31
0.0
  0
ARC
  5
1656
330
1F
100
AcDbEntity
  8
0
100
AcDbCircle
 10
2256.690310026171
 20
1479.928087489462
 30
0.0
 40
23.83483407539935
100
AcDbArc
 50
278.4214769016736
 51
289.9689386275418
  0
LINE
  5
1657
330
1F
100
AcDbEntity
  8
0
100
AcDbLine
 10
2264.830160035259
 20
1466.174251073831
 30
0.0
 11
2264.830160035259
 21
1457.526253697752
 31
0.0
  0
LINE
  5
1658
330
1F
100
AcDbEntity
  8
0
100
AcDbLine
 10
2258.481012996345
 20
1466.174251073831
 30
0.0
 11
2258.481012996345
 21
1457.526253697752
 31
0.0
  0
LINE
  5
1659
330
1F
100
AcDbEntity
  8
0
 62
     7
100
AcDbLine
 10
2276.181012996344
 20
1486.050252385791
 30
0.0
 11
2266.181012996344
 21
1486.050252385791
 31
0.0
  0
LINE
  5
165A
330
1F
100
AcDbEntity
  8
0
100
AcDbLine
 10
2266.181012996344
 20
1486.050252385791
 30
0.0
 11
2264.181012996344
 21
1484.050252385791
 31
0.0
  0
LINE
  5
165B
330
1F
100
AcDbEntity
  8
CENTER
  6
CENTER
100
AcDbLine
 10
2271.181012996344
 20
1491.935392804337
 30
0.0
 11
2271.181012996344
 21
1301.388071164804
 31
0.0
  0
LINE
  5
165C
330
1F
100
AcDbEntity
  8
CENTER
  6
CENTER
100
AcDbLine
 10
2154.181012996345
 20
1489.983531560687
 30
0.0
 11
2154.181012996345
 21
1302.364001786629
 31
0.0
  0
LINE
  5
165D
330
1F
100
AcDbEntity
  8
0
100
AcDbLine
 10
2160.681012996345
 20
1434.050252385792
 30
0.0
 11
2160.681012996345
 21
1358.050252385792
 31
0.0
  0
LINE
  5
165E
330
1F
100
AcDbEntity
  8
0
100
AcDbLine
 10
2147.681012996345
 20
1434.050252385792
 30
0.0
 11
2147.681012996345
 21
1358.050252385792
 31
0.0
  0
LINE
  5
165F
330
1F
100
AcDbEntity
  8
0
100
AcDbLine
 10
2264.681012996344
 20
1434.050252385792
 30
0.0
 11
2264.681012996344
 21
1358.050252385792
 31
0.0
  0
LINE
  5
1660
330
1F
100
AcDbEntity
  8
0
100
AcDbLine
 10
2277.681012996344
 20
1434.050252385792
 30
0.0
 11
2277.681012996344
 21
1358.050252385792
 31
0.0
  0
CIRCLE
  5
1661
330
1F
100
AcDbEntity
  8
0
100
AcDbCircle
 10
2271.181012996344
 20
1721.791059141518
 30
0.0
 40
6.25
  0
CIRCLE
  5
1662
330
1F
100
AcDbEntity
  8
0
100
AcDbCircle
 10
2271.181012996344
 20
1721.791059141518
 30
0.0
 40
11.0
  0
CIRCLE
  5
1663
330
1F
100
AcDbEntity
  8
0
100
AcDbCircle
 10
2271.181012996344
 20
1721.791059141518
 30
0.0
 40
7.0
  0
POLYLINE
  5
1664
330
1F
100
AcDbEntity
  8
0
100
AcDb2dPolyline
 66
     1
 10
0.0
 20
0.0
 30
0.0
 70
     1
  0
VERTEX
  5
1665
330
1664
100
AcDbEntity
  8
0
100
AcDbVertex
100
AcDb2dVertex
 10
2282.181012996344
 20
1728.141912102604
 30
0.0
  0
VERTEX
  5
1666
330
1664
100
AcDbEntity
  8
0
100
AcDbVertex
100
AcDb2dVertex
 10
2271.181012996344
 20
1734.49276506369
 30
0.0
  0
VERTEX
  5
1667
330
1664
100
AcDbEntity
  8
0
100
AcDbVertex
100
AcDb2dVertex
 10
2260.181012996344
 20
1728.141912102604
 30
0.0
  0
VERTEX
  5
1668
330
1664
100
AcDbEntity
  8
0
100
AcDbVertex
100
AcDb2dVertex
 10
2260.181012996344
 20
1715.440206180432
 30
0.0
  0
VERTEX
  5
1669
330
1664
100
AcDbEntity
  8
0
100
AcDbVertex
100
AcDb2dVertex
 10
2271.181012996344
 20
1709.089353219346
 30
0.0
  0
VERTEX
  5
166A
330
1664
100
AcDbEntity
  8
0
100
AcDbVertex
100
AcDb2dVertex
 10
2282.181012996344
 20
1715.440206180432
 30
0.0
  0
SEQEND
  5
166B
330
1664
100
AcDbEntity
  8
0
  0
CIRCLE
  5
166C
330
1F
100
AcDbEntity
  8
0
100
AcDbCircle
 10
2154.181012996344
 20
1721.791059141518
 30
0.0
 40
6.25
  0
CIRCLE
  5
166D
330
1F
100
AcDbEntity
  8
0
100
AcDbCircle
 10
2154.181012996344
 20
1721.791059141518
 30
0.0
 40
11.0
  0
CIRCLE
  5
166E
330
1F
100
AcDbEntity
  8
0
100
AcDbCircle
 10
2154.181012996344
 20
1721.791059141518
 30
0.0
 40
7.0
  0
POLYLINE
  5
166F
330
1F
100
AcDbEntity
  8
0
100
AcDb2dPolyline
 66
     1
 10
0.0
 20
0.0
 30
0.0
 70
     1
  0
VERTEX
  5
1670
330
166F
100
AcDbEntity
  8
0
100
AcDbVertex
100
AcDb2dVertex
 10
2165.181012996344
 20
1728.141912102604
 30
0.0
  0
VERTEX
  5
1671
330
166F
100
AcDbEntity
  8
0
100
AcDbVertex
100
AcDb2dVertex
 10
2154.181012996344
 20
1734.49276506369
 30
0.0
  0
VERTEX
  5
1672
330
166F
100
AcDbEntity
  8
0
100
AcDbVertex
100
AcDb2dVertex
 10
2143.181012996344
 20
1728.141912102604
 30
0.0
  0
VERTEX
  5
1673
330
166F
100
AcDbEntity
  8
0
100
AcDbVertex
100
AcDb2dVertex
 10
2143.181012996344
 20
1715.440206180432
 30
0.0
  0
VERTEX
  5
1674
330
166F
100
AcDbEntity
  8
0
100
AcDbVertex
100
AcDb2dVertex
 10
2154.181012996344
 20
1709.089353219346
 30
0.0
  0
VERTEX
  5
1675
330
166F
100
AcDbEntity
  8
0
100
AcDbVertex
100
AcDb2dVertex
 10
2165.181012996344
 20
1715.440206180432
 30
0.0
  0
SEQEND
  5
1676
330
166F
100
AcDbEntity
  8
0
  0
CIRCLE
  5
1677
330
1F
100
AcDbEntity
  8
0
100
AcDbCircle
 10
2154.181012996344
 20
1604.791059141518
 30
0.0
 40
6.25
  0
CIRCLE
  5
1678
330
1F
100
AcDbEntity
  8
0
100
AcDbCircle
 10
2154.181012996344
 20
1604.791059141518
 30
0.0
 40
11.0
  0
CIRCLE
  5
1679
330
1F
100
AcDbEntity
  8
0
100
AcDbCircle
 10
2154.181012996344
 20
1604.791059141518
 30
0.0
 40
7.0
  0
POLYLINE
  5
167A
330
1F
100
AcDbEntity
  8
0
100
AcDb2dPolyline
 66
     1
 10
0.0
 20
0.0
 30
0.0
 70
     1
  0
VERTEX
  5
167B
330
167A
100
AcDbEntity
  8
0
100
AcDbVertex
100
AcDb2dVertex
 10
2165.181012996344
 20
1611.141912102604
 30
0.0
  0
VERTEX
  5
167C
330
167A
100
AcDbEntity
  8
0
100
AcDbVertex
100
AcDb2dVertex
 10
2154.181012996344
 20
1617.49276506369
 30
0.0
  0
VERTEX
  5
167D
330
167A
100
AcDbEntity
  8
0
100
AcDbVertex
100
AcDb2dVertex
 10
2143.181012996344
 20
1611.141912102604
 30
0.0
  0
VERTEX
  5
167E
330
167A
100
AcDbEntity
  8
0
100
AcDbVertex
100
AcDb2dVertex
 10
2143.181012996344
 20
1598.440206180432
 30
0.0
  0
VERTEX
  5
167F
330
167A
100
AcDbEntity
  8
0
100
AcDbVertex
100
AcDb2dVertex
 10
2154.181012996344
 20
1592.089353219346
 30
0.0
  0
VERTEX
  5
1680
330
167A
100
AcDbEntity
  8
0
100
AcDbVertex
100
AcDb2dVertex
 10
2165.181012996344
 20
1598.440206180432
 30
0.0
  0
SEQEND
  5
1681
330
167A
100
AcDbEntity
  8
0
  0
LINE
  5
1682
330
1F
100
AcDbEntity
  8
0
 62
     7
100
AcDbLine
 10
2166.881012996345
 20
1466.050252385792
 30
0.0
 11
2258.481012996345
 21
1466.050252385791
 31
0.0
  0
LINE
  5
1683
330
1F
100
AcDbEntity
  8
0
 62
     7
100
AcDbLine
 10
2166.881012996345
 20
1326.050252385792
 30
0.0
 11
2258.481012996345
 21
1326.050252385792
 31
0.0
  0
LINE
  5
1684
330
1F
100
AcDbEntity
  8
0
 62
     7
100
AcDbLine
 10
2283.881012996344
 20
1326.050252385792
 30
0.0
 11
2286.843063506131
 21
1326.050252385792
 31
0.0
  0
LINE
  5
1685
330
1F
100
AcDbEntity
  8
0
 62
     7
100
AcDbLine
 10
2283.881012996344
 20
1466.050252385791
 30
0.0
 11
2286.843063506131
 21
1466.050252385791
 31
0.0
  0
LINE
  5
1865
330
1F
100
AcDbEntity
  8
0
 62
     7
100
AcDbLine
 10
2217.049506810421
 20
1433.050252385791
 30
0.0
 11
2144.681012996345
 21
1433.050252385791
 31
0.0
  0
LINE
  5
1866
330
1F
100
AcDbEntity
  8
0
 62
     7
100
AcDbLine
 10
2217.393834423711
 20
1434.050252385791
 30
0.0
 11
2137.681012996345
 21
1434.050252385791
 31
0.0
  0
LINE
  5
1867
330
1F
100
AcDbEntity
  8
0
 62
     7
100
AcDbLine
 10
2194.295056462055
 20
1358.050252385792
 30
0.0
 11
2137.681012996345
 21
1358.050252385792
 31
0.0
  0
LINE
  5
1868
330
1F
100
AcDbEntity
  8
0
 62
     7
100
AcDbLine
 10
2193.657697142661
 20
1359.050252385792
 30
0.0
 11
2144.681012996345
 21
1359.050252385792
 31
0.0
  0
LINE
  5
1965
330
1F
100
AcDbEntity
  8
0
100
AcDbLine
 10
2183.681012996345
 20
1513.050252385791
 30
0.0
 11
2241.681012996345
 21
1513.050252385791
 31
0.0
  0
LINE
  5
1966
330
1F
100
AcDbEntity
  8
0
100
AcDbLine
 10
2182.681012996345
 20
1512.050252385791
 30
0.0
 11
2182.681012996345
 21
1499.050252385791
 31
0.0
  0
LINE
  5
1967
330
1F
100
AcDbEntity
  8
0
100
AcDbLine
 10
2242.681012996345
 20
1512.050252385791
 30
0.0
 11
2242.681012996345
 21
1499.050252385791
 31
0.0
  0
LINE
  5
1968
330
1F
100
AcDbEntity
  8
0
100
AcDbLine
 10
2183.681012996345
 20
1498.050252385791
 30
0.0
 11
2241.681012996345
 21
1498.050252385791
 31
0.0
  0
LINE
  5
1969
330
1F
100
AcDbEntity
  8
0
100
AcDbLine
 10
2191.256727710717
 20
1502.050252385791
 30
0.0
 11
2234.105298281973
 21
1502.050252385791
 31
0.0
  0
LINE
  5
196A
330
1F
100
AcDbEntity
  8
0
  6
CENTER
 62
     1
100
AcDbLine
 10
2212.681012996345
 20
1518.274127044059
 30
0.0
 11
2212.681012996345
 21
1492.770841025133
 31
0.0
  0
LINE
  5
196B
330
1F
100
AcDbEntity
  8
0
100
AcDbLine
 10
2183.681012996345
 20
1498.050252385791
 30
0.0
 11
2182.681012996345
 21
1499.050252385791
 31
0.0
  0
LINE
  5
196C
330
1F
100
AcDbEntity
  8
0
100
AcDbLine
 10
2241.681012996345
 20
1498.050252385791
 30
0.0
 11
2242.681012996345
 21
1499.050252385791
 31
0.0
  0
LINE
  5
196D
330
1F
100
AcDbEntity
  8
0
100
AcDbLine
 10
2182.681012996345
 20
1499.050252385791
 30
0.0
 11
2242.681012996345
 21
1499.050252385791
 31
0.0
  0
LINE
  5
196E
330
1F
100
AcDbEntity
  8
0
100
AcDbLine
 10
2182.681012996345
 20
1512.050252385791
 30
0.0
 11
2191.256727710717
 21
1512.050252385791
 31
0.0
  0
LINE
  5
196F
330
1F
100
AcDbEntity
  8
0
100
AcDbLine
 10
2191.256727710717
 20
1512.050252385791
 30
0.0
 11
2191.256727710717
 21
1502.050252385791
 31
0.0
  0
LINE
  5
1970
330
1F
100
AcDbEntity
  8
0
100
AcDbLine
 10
2234.105298281973
 20
1512.050252385791
 30
0.0
 11
2234.105298281973
 21
1502.050252385791
 31
0.0
  0
LINE
  5
1971
330
1F
100
AcDbEntity
  8
0
100
AcDbLine
 10
2234.105298281973
 20
1512.050252385791
 30
0.0
 11
2242.681012996345
 21
1512.050252385791
 31
0.0
  0
LINE
  5
1972
330
1F
100
AcDbEntity
  8
0
100
AcDbLine
 10
2191.256727710717
 20
1512.050252385791
 30
0.0
 11
2192.681012996345
 21
1513.050252385791
 31
0.0
  0
LINE
  5
1973
330
1F
100
AcDbEntity
  8
0
100
AcDbLine
 10
2234.105298281973
 20
1512.050252385791
 30
0.0
 11
2232.681012996345
 21
1513.050252385791
 31
0.0
  0
LINE
  5
1974
330
1F
100
AcDbEntity
  8
0
100
AcDbLine
 10
2191.968870353531
 20
1512.550252385791
 30
0.0
 11
2233.920075457032
 21
1502.050252385791
 31
0.0
  0
LINE
  5
1975
330
1F
100
AcDbEntity
  8
0
100
AcDbLine
 10
2191.256727710717
 20
1502.050252385791
 30
0.0
 11
2233.393155639159
 21
1512.550252385791
 31
0.0
  0
LINE
  5
1976
330
1F
100
AcDbEntity
  8
0
100
AcDbLine
 10
2241.681012996345
 20
1513.050252385791
 30
0.0
 11
2242.681012996345
 21
1512.050252385791
 31
0.0
  0
LINE
  5
1977
330
1F
100
AcDbEntity
  8
0
100
AcDbLine
 10
2183.681012996345
 20
1513.050252385791
 30
0.0
 11
2182.681012996345
 21
1512.050252385791
 31
0.0
  0
LINE
  5
1978
330
1F
100
AcDbEntity
  8
0
100
AcDbLine
 10
2432.366379410672
 20
1498.050252385791
 30
0.0
 11
2492.366379410672
 21
1498.050252385791
 31
0.0
  0
LINE
  5
1979
330
1F
100
AcDbEntity
  8
0
100
AcDbLine
 10
2432.366379410672
 20
1498.050252385791
 30
0.0
 11
2432.366379410672
 21
1502.050252385791
 31
0.0
  0
LINE
  5
197A
330
1F
100
AcDbEntity
  8
0
100
AcDbLine
 10
2432.366379410672
 20
1502.050252385791
 30
0.0
 11
2492.366379410672
 21
1502.050252385791
 31
0.0
  0
LINE
  5
197B
330
1F
100
AcDbEntity
  8
0
100
AcDbLine
 10
2492.366379410672
 20
1502.050252385791
 30
0.0
 11
2492.366379410672
 21
1498.050252385791
 31
0.0
  0
LINE
  5
197C
330
1F
100
AcDbEntity
  8
AM_7
  6
AM_ISO08W050x2
100
AcDbLine
 10
2462.366379410672
 20
1496.050252385791
 30
0.0
 11
2462.366379410672
 21
1516.312228537143
 31
0.0
1001
GENIUS_GENODEF_13
1002
{
1000
HIER
1070
     0
1002
}
1002
{
1000
MANEDIT
1070
     0
1002
}
1002
{
1000
NOSEL
1070
     0
1002
}
1002
{
1000
BEHIND
1070
     0
1002
}
1002
{
1000
OTHER
1070
     0
1002
}
1002
{
1000
REACTOR
1002
}
1001
GENIUS_GENOBJ-N-CEN_13
1002
{
1000
OWNER
1000
GEN
1002
}
1001
GENIUS_GENCEN_19
1002
{
1040
2.0
1002
}
  0
LINE
  5
197D
330
1F
100
AcDbEntity
  8
0
100
AcDbLine
 10
2484.366379410671
 20
1502.050252385791
 30
0.0
 11
2484.366379410672
 21
1513.050252385791
 31
0.0
1001
GENIUS_GENODEF_13
1002
{
1000
HIER
1070
     0
1002
}
1002
{
1000
MANEDIT
1070
     0
1002
}
1002
{
1000
NOSEL
1070
     0
1002
}
1002
{
1000
BEHIND
1070
     0
1002
}
1002
{
1000
OTHER
1070
     0
1002
}
1002
{
1000
REACTOR
1002
}
1001
GENIUS_GENOBJ-N-CEN_13
1002
{
1000
OWNER
1000
GEN
1002
}
1001
GENIUS_GENCEN_19
1002
{
1040
2.0
1002
}
  0
LINE
  5
197E
330
1F
100
AcDbEntity
  8
0
100
AcDbLine
 10
2440.366379410672
 20
1502.050252385791
 30
0.0
 11
2440.366379410672
 21
1513.050252385791
 31
0.0
1001
GENIUS_GENODEF_13
1002
{
1000
HIER
1070
     0
1002
}
1002
{
1000
MANEDIT
1070
     0
1002
}
1002
{
1000
NOSEL
1070
     0
1002
}
1002
{
1000
BEHIND
1070
     0
1002
}
1002
{
1000
OTHER
1070
     0
1002
}
1002
{
1000
REACTOR
1002
}
1001
GENIUS_GENOBJ-N-CEN_13
1002
{
1000
OWNER
1000
GEN
1002
}
1001
GENIUS_GENCEN_19
1002
{
1040
2.0
1002
}
  0
LINE
  5
197F
330
1F
100
AcDbEntity
  8
0
100
AcDbLine
 10
2440.366379410673
 20
1513.050252385791
 30
0.0
 11
2484.366379410672
 21
1513.050252385791
 31
0.0
  0
CIRCLE
  5
1980
330
1F
100
AcDbEntity
  8
0
100
AcDbCircle
 10
2212.681012996345
 20
1663.291059141518
 30
0.0
 40
30.0
  0
LINE
  5
1981
330
1F
100
AcDbEntity
  8
0
100
AcDbLine
 10
2191.256727710717
 20
1642.291059141518
 30
0.0
 11
2234.105298281973
 21
1642.291059141518
 31
0.0
  0
LINE
  5
1982
330
1F
100
AcDbEntity
  8
0
100
AcDbLine
 10
2191.256727710717
 20
1684.291059141518
 30
0.0
 11
2234.105298281973
 21
1684.291059141518
 31
0.0
  0
LINE
  5
1983
330
1F
100
AcDbEntity
  8
0
  6
CENTER
 62
     1
100
AcDbLine
 10
2212.681012996345
 20
1662.291059141518
 30
0.0
 11
2212.681012996345
 21
1664.291059141518
 31
0.0
  0
LINE
  5
1984
330
1F
100
AcDbEntity
  8
0
  6
CENTER
 62
     1
100
AcDbLine
 10
2213.681012996345
 20
1663.291059141518
 30
0.0
 11
2211.681012996345
 21
1663.291059141518
 31
0.0
  0
LINE
  5
1985
330
1F
100
AcDbEntity
  8
0
  6
CENTER
 62
     1
100
AcDbLine
 10
2212.681012996345
 20
1661.291059141518
 30
0.0
 11
2212.681012996345
 21
1632.291059141518
 31
0.0
  0
LINE
  5
1986
330
1F
100
AcDbEntity
  8
0
  6
CENTER
 62
     1
100
AcDbLine
 10
2212.681012996345
 20
1665.291059141518
 30
0.0
 11
2212.681012996345
 21
1694.291059141518
 31
0.0
  0
LINE
  5
1987
330
1F
100
AcDbEntity
  8
0
  6
CENTER
 62
     1
100
AcDbLine
 10
2214.681012996345
 20
1663.291059141518
 30
0.0
 11
2243.681012996345
 21
1663.291059141518
 31
0.0
  0
LINE
  5
1988
330
1F
100
AcDbEntity
  8
0
  6
CENTER
 62
     1
100
AcDbLine
 10
2210.681012996345
 20
1663.291059141518
 30
0.0
 11
2181.681012996345
 21
1663.291059141518
 31
0.0
  0
ARC
  5
1989
330
1F
100
AcDbEntity
  8
0
100
AcDbCircle
 10
2212.681012996345
 20
1663.291059141518
 30
0.0
 40
29.0
100
AcDbArc
 50
133.6028189727126
 51
226.3971810272874
  0
ARC
  5
198A
330
1F
100
AcDbEntity
  8
0
100
AcDbCircle
 10
2212.681012996345
 20
1663.291059141518
 30
0.0
 40
29.0
100
AcDbArc
 50
313.6028189727126
 51
46.39718102728738
  0
LINE
  5
1F1B
330
1F
100
AcDbEntity
  8
AM_7
100
AcDbLine
 10
2200.851105829518
 20
1359.451477088412
 30
0.0
 11
2200.017448976979
 21
1356.87235120087
 31
0.0
  0
LINE
  5
1F1C
330
1F
100
AcDbEntity
  8
AM_7
100
AcDbLine
 10
2226.453361882299
 20
1438.658456751695
 30
0.0
 11
2201.22643796498
 21
1360.612660882498
 31
0.0
  0
LINE
  5
1F1F
330
1F
100
AcDbEntity
  8
AM_7
100
AcDbLine
 10
2191.181012996347
 20
1346.550252385791
 30
0.0
 11
2196.681012996347
 21
1346.550252385791
 31
0.0
  0
LINE
  5
1F20
330
1F
100
AcDbEntity
  8
AM_7
100
AcDbLine
 10
2196.681012996347
 20
1346.550252385791
 30
0.0
 11
2202.181012996347
 21
1346.550252385791
 31
0.0
  0
LINE
  5
1F21
330
1F
100
AcDbEntity
  8
AM_7
100
AcDbLine
 10
2196.681012996347
 20
1341.050252385791
 30
0.0
 11
2196.681012996347
 21
1346.550252385791
 31
0.0
  0
LINE
  5
1F22
330
1F
100
AcDbEntity
  8
AM_7
100
AcDbLine
 10
2196.681012996347
 20
1346.550252385791
 30
0.0
 11
2196.681012996347
 21
1352.050252385791
 31
0.0
  0
LINE
  5
1F23
330
1F
100
AcDbEntity
  8
AM_7
100
AcDbLine
 10
2228.681012996347
 20
1445.550252385791
 30
0.0
 11
2228.681012996347
 21
1445.550252385791
 31
0.0
  0
LINE
  5
1F24
330
1F
100
AcDbEntity
  8
AM_7
100
AcDbLine
 10
2228.681012996347
 20
1445.550252385791
 30
0.0
 11
2228.681012996347
 21
1445.550252385791
 31
0.0
  0
LINE
  5
1F25
330
1F
100
AcDbEntity
  8
AM_7
100
AcDbLine
 10
2223.181012996346
 20
1445.550252385791
 30
0.0
 11
2228.681012996347
 21
1445.550252385791
 31
0.0
  0
LINE
  5
1F26
330
1F
100
AcDbEntity
  8
AM_7
100
AcDbLine
 10
2228.681012996347
 20
1445.550252385791
 30
0.0
 11
2234.181012996347
 21
1445.550252385791
 31
0.0
  0
LINE
  5
1F27
330
1F
100
AcDbEntity
  8
AM_7
100
AcDbLine
 10
2228.681012996347
 20
1440.050252385791
 30
0.0
 11
2228.681012996347
 21
1445.550252385791
 31
0.0
  0
LINE
  5
1F28
330
1F
100
AcDbEntity
  8
AM_7
100
AcDbLine
 10
2228.681012996347
 20
1445.550252385791
 30
0.0
 11
2228.681012996347
 21
1451.050252385791
 31
0.0
  0
LINE
  5
1F29
330
1F
100
AcDbEntity
  8
AM_VIS
100
AcDbLine
 10
2208.082279981198
 20
1362.314810826019
 30
0.0
 11
2206.522375992561
 21
1357.488857861171
 31
0.0
  0
LINE
  5
1F2A
330
1F
100
AcDbEntity
  8
AM_VIS
100
AcDbLine
 10
2206.379634870721
 20
1357.047252515481
 30
0.0
 11
2206.52237599256
 21
1357.488857861171
 31
0.0
  0
SPLINE
  5
1F2B
330
1F
100
AcDbEntity
  8
AM_VIS
100
AcDbSpline
210
0.0000000000001017
220
0.000000000000656
230
1.0
 70
    12
 71
     2
 72
     6
 73
     3
 74
     0
 42
0.0000000001
 43
0.0000000001
 40
5.403036174764437
 40
5.403036174764437
 40
5.403036174764437
 40
9.146099121898608
 40
9.146099121898608
 40
9.146099121898608
 10
2203.525053042495
 20
1357.969945631676
 30
0.0
 41
1.0
 10
2204.84986907951
 20
1357.541722266176
 30
0.0
 41
1.055507145648787
 10
2206.52237599256
 20
1357.488857861171
 30
0.0000000000001137
 41
1.034106888326794
  0
SPLINE
  5
1F2C
330
1F
100
AcDbEntity
  8
AM_VIS
100
AcDbSpline
210
0.0
220
0.0
230
1.0
 70
    12
 71
     2
 72
     6
 73
     3
 74
     0
 42
0.0000000001
 43
0.0000000001
 40
1.659973227630032
 40
1.659973227630032
 40
1.659973227630032
 40
5.403036174764437
 40
5.403036174764437
 40
5.403036174764437
 10
2200.813212336108
 20
1359.334244093561
 30
0.0
 41
1.034106888326791
 10
2202.200237005479
 20
1358.398168997176
 30
0.0
 41
1.05550714564879
 10
2203.525053042495
 20
1357.969945631676
 30
0.0
 41
1.0
  0
LINE
  5
1F2D
330
1F
100
AcDbEntity
  8
AM_VIS
100
AcDbLine
 10
2194.961307558268
 20
1360.738024980113
 30
0.0
 11
2195.104048680097
 21
1361.17963032577
 31
0.0
  0
LINE
  5
1F2E
330
1F
100
AcDbEntity
  8
AM_VIS
100
AcDbLine
 10
2202.373116324745
 20
1364.160197058408
 30
0.0
 11
2200.813212336107
 21
1359.33424409356
 31
0.0
  0
SPLINE
  5
1F2F
330
1F
100
AcDbEntity
  8
AM_VIS
100
AcDbSpline
210
-0.0000000000000715
220
-0.0000000000004612
230
1.0
 70
    12
 71
     2
 72
     6
 73
     3
 74
     0
 42
0.0000000001
 43
0.0000000001
 40
5.403036174624904
 40
5.403036174624904
 40
5.403036174624904
 40
9.146099121473541
 40
9.146099121473541
 40
9.146099121473541
 10
2197.815889386212
 20
1359.81533186401
 30
0.0
 41
1.0
 10
2199.140705422938
 20
1359.387108498604
 30
-0.0000000000001137
 41
1.055507145448435
 10
2200.813212336107
 20
1359.334244093561
 30
0.0
 41
1.034106888207567
  0
SPLINE
  5
1F30
330
1F
100
AcDbEntity
  8
AM_VIS
100
AcDbSpline
210
-0.0000000000002565
220
-0.0000000000005085
230
1.0
 70
    12
 71
     2
 72
     6
 73
     3
 74
     0
 42
0.0000000001
 43
0.0000000001
 40
1.659973227912226
 40
1.659973227912226
 40
1.659973227912226
 40
5.403036174624904
 40
5.403036174624904
 40
5.403036174624904
 10
2195.104048680097
 20
1361.179630325769
 30
0.0
 41
1.034106888209122
 10
2196.491073349531
 20
1360.243555229402
 30
-0.0000000000001137
 41
1.055507145446419
 10
2197.815889386212
 20
1359.81533186401
 30
0.0
 41
1.0
  0
LINE
  5
1F31
330
1F
100
AcDbEntity
  8
AM_VIS
100
AcDbLine
 10
2196.663952668755
 20
1366.005583290683
 30
0.0
 11
2195.104048680097
 21
1361.17963032577
 31
0.0
  0
LINE
  5
1F32
330
1F
100
AcDbEntity
  8
AM_VIS
100
AcDbLine
 10
2196.663952668756
 20
1366.005583290683
 30
0.0
 11
2196.806693790584
 21
1366.44718863634
 31
0.0
  0
SPLINE
  5
1F33
330
1F
100
AcDbEntity
  8
AM_VIS
100
AcDbSpline
210
0.0
220
0.0
230
1.0
 70
    12
 71
     2
 72
     6
 73
     3
 74
     0
 42
0.0000000001
 43
0.0000000001
 40
5.403036174624906
 40
5.403036174624906
 40
5.403036174624906
 40
9.146099121337583
 40
9.146099121337583
 40
9.146099121337583
 10
2199.661275618527
 20
1365.524495520237
 30
0.0
 41
1.0
 10
2198.336459581845
 20
1365.952718885628
 30
0.0
 41
1.055507145446417
 10
2196.663952668755
 20
1366.005583290683
 30
0.0
 41
1.03410688820912
  0
SPLINE
  5
1F34
330
1F
100
AcDbEntity
  8
AM_VIS
100
AcDbSpline
210
0.0
220
0.0
230
1.0
 70
    12
 71
     2
 72
     6
 73
     3
 74
     0
 42
0.0000000001
 43
0.0000000001
 40
5.403036174764437
 40
5.403036174764437
 40
5.403036174764437
 40
9.146099121898842
 40
9.146099121898842
 40
9.146099121898842
 10
2205.370439274811
 20
1363.679109287903
 30
0.0
 41
1.0
 10
2204.045623237794
 20
1364.107332653403
 30
0.0
 41
1.055507145648788
 10
2202.373116324745
 20
1364.160197058408
 30
0.0
 41
1.03410688832679
  0
SPLINE
  5
1F35
330
1F
100
AcDbEntity
  8
AM_VIS
100
AcDbSpline
210
0.0
220
0.0
230
1.0
 70
    12
 71
     2
 72
     6
 73
     3
 74
     0
 42
0.0000000001
 43
0.0000000001
 40
1.659973227776267
 40
1.659973227776267
 40
1.659973227776267
 40
5.403036174624906
 40
5.403036174624906
 40
5.403036174624906
 10
2202.373116324745
 20
1364.160197058408
 30
0.0
 41
1.034106888207565
 10
2200.986091655253
 20
1365.09627215483
 30
0.0
 41
1.055507145448432
 10
2199.661275618527
 20
1365.524495520237
 30
0.0
 41
1.0
  0
LINE
  5
1F36
330
1F
100
AcDbEntity
  8
AM_VIS
100
AcDbLine
 10
2208.082279981198
 20
1362.314810826019
 30
0.0
 11
2208.225021103038
 21
1362.756416171708
 31
0.0
  0
SPLINE
  5
1F37
330
1F
100
AcDbEntity
  8
AM_VIS
100
AcDbSpline
210
0.000000000001162
220
0.0000000000023035
230
-1.0
 70
    12
 71
     2
 72
     6
 73
     3
 74
     0
 42
0.0000000001
 43
0.0000000001
 40
1.659973227630266
 40
1.659973227630266
 40
1.659973227630266
 40
5.403036174764437
 40
5.403036174764437
 40
5.403036174764437
 10
2208.082279981199
 20
1362.314810826021
 30
-0.0000000000001137
 41
1.034106888326792
 10
2206.695255311826
 20
1363.250885922403
 30
0.0
 41
1.055507145648785
 10
2205.370439274811
 20
1363.679109287903
 30
0.0
 41
1.0
  0
LINE
  5
1F38
330
1F
100
AcDbEntity
  8
AM_VIS
100
AcDbLine
 10
2194.961307558155
 20
1360.73802498015
 30
0.0
 11
2194.34617881405
 21
1358.834970428074
 31
0.0
  0
LINE
  5
1F39
330
1F
100
AcDbEntity
  8
AM_VIS
100
AcDbLine
 10
2206.379634870609
 20
1357.047252515518
 30
0.0
 11
2205.764506126503
 21
1355.144197963442
 31
0.0
  0
LINE
  5
1F3A
330
1F
100
AcDbEntity
  8
AM_VIS
100
AcDbLine
 10
2208.225021102924
 20
1362.756416171745
 30
0.0
 11
2208.840149847029
 21
1364.65947072382
 31
0.0
  0
LINE
  5
1F3B
330
1F
100
AcDbEntity
  8
AM_VIS
100
AcDbLine
 10
2196.806693790471
 20
1366.447188636376
 30
0.0
 11
2197.421822534576
 21
1368.350243188452
 31
0.0
  0
LINE
  5
1F3C
330
1F
100
AcDbEntity
  8
AM_VIS
100
AcDbLine
 10
2205.764506126503
 20
1355.144197963442
 30
0.0
 11
2194.34617881405
 21
1358.834970428074
 31
0.0
  0
LINE
  5
1F3D
330
1F
100
AcDbEntity
  8
AM_VIS
100
AcDbLine
 10
2206.379634870609
 20
1357.047252515518
 30
0.0
 11
2203.525053042495
 21
1357.969945631676
 31
0.0
  0
LINE
  5
1F3E
330
1F
100
AcDbEntity
  8
AM_VIS
100
AcDbLine
 10
2203.525053042495
 20
1357.969945631676
 30
0.0
 11
2197.815889386268
 21
1359.815331863992
 31
0.0
  0
LINE
  5
1F3F
330
1F
100
AcDbEntity
  8
AM_VIS
100
AcDbLine
 10
2197.815889386268
 20
1359.815331863992
 30
0.0
 11
2194.961307558155
 21
1360.73802498015
 31
0.0
  0
LINE
  5
1F40
330
1F
100
AcDbEntity
  8
AM_VIS
100
AcDbLine
 10
2208.225021102924
 20
1362.756416171745
 30
0.0
 11
2205.370439274811
 21
1363.679109287903
 31
0.0
  0
LINE
  5
1F41
330
1F
100
AcDbEntity
  8
AM_VIS
100
AcDbLine
 10
2205.370439274811
 20
1363.679109287903
 30
0.0
 11
2199.661275618584
 21
1365.524495520219
 31
0.0
  0
LINE
  5
1F42
330
1F
100
AcDbEntity
  8
AM_VIS
100
AcDbLine
 10
2199.661275618584
 20
1365.524495520218
 30
0.0
 11
2196.806693790471
 21
1366.447188636376
 31
0.0
  0
LINE
  5
1F43
330
1F
100
AcDbEntity
  8
AM_VIS
100
AcDbLine
 10
2197.421822534576
 20
1368.350243188452
 30
0.0
 11
2208.840149847029
 21
1364.65947072382
 31
0.0
  0
LINE
  5
1F44
330
1F
100
AcDbEntity
  8
AM_VIS
100
AcDbLine
 10
2200.055342470276
 20
1356.989584195759
 30
0.0
 11
2195.766515275408
 21
1343.721025061638
 31
0.0
  0
LINE
  5
1F45
330
1F
100
AcDbEntity
  8
AM_VIS
100
AcDbLine
 10
2195.821046091908
 20
1358.358245651393
 30
0.0
 11
2192.32241595688
 21
1347.534358671152
 31
0.0
  0
LINE
  5
1F46
330
1F
100
AcDbEntity
  8
AM_VIS
100
AcDbLine
 10
2204.289638848644
 20
1355.620922740124
 30
0.0
 11
2200.791008713617
 21
1344.797035759883
 31
0.0
  0
LINE
  5
1F47
330
1F
100
AcDbEntity
  8
AM_VIS
100
AcDbLine
 10
2195.100618876667
 20
1341.660908078032
 30
0.0
 11
2200.125112314875
 21
1342.736918776277
 31
0.0
  0
LINE
  5
1F48
330
1F
100
AcDbEntity
  8
AM_VIS
100
AcDbLine
 10
2200.791008713617
 20
1344.797035759883
 30
0.0
 11
2195.766515275408
 21
1343.721025061638
 31
0.0
  0
LINE
  5
1F49
330
1F
100
AcDbEntity
  8
AM_VIS
100
AcDbLine
 10
2200.791008713617
 20
1344.797035759883
 30
0.0
 11
2200.125112314875
 21
1342.736918776277
 31
0.0
  0
LINE
  5
1F4A
330
1F
100
AcDbEntity
  8
AM_VIS
100
AcDbLine
 10
2195.766515275408
 20
1343.721025061638
 30
0.0
 11
2192.32241595688
 21
1347.534358671152
 31
0.0
  0
LINE
  5
1F4B
330
1F
100
AcDbEntity
  8
AM_VIS
100
AcDbLine
 10
2195.766515275408
 20
1343.721025061638
 30
0.0
 11
2195.100618876667
 21
1341.660908078032
 31
0.0
  0
LINE
  5
1F4C
330
1F
100
AcDbEntity
  8
AM_VIS
100
AcDbLine
 10
2191.656519558139
 20
1345.474241687546
 30
0.0
 11
2195.100618876667
 21
1341.660908078032
 31
0.0
  0
LINE
  5
1F4D
330
1F
100
AcDbEntity
  8
AM_VIS
100
AcDbLine
 10
2191.656519558139
 20
1345.474241687546
 30
0.0
 11
2192.32241595688
 21
1347.534358671152
 31
0.0
  0
LINE
  5
1F4E
330
1F
100
AcDbEntity
  8
AM_VIS
100
AcDbLine
 10
2217.279746011494
 20
1429.785693945564
 30
0.0
 11
2218.839650000132
 21
1434.611646910411
 31
0.0
  0
LINE
  5
1F4F
330
1F
100
AcDbEntity
  8
AM_VIS
100
AcDbLine
 10
2218.839650000131
 20
1434.611646910411
 30
0.0
 11
2218.982391121971
 21
1435.053252256101
 31
0.0
  0
SPLINE
  5
1F50
330
1F
100
AcDbEntity
  8
AM_VIS
100
AcDbSpline
210
-0.0000000000001017
220
-0.000000000000656
230
1.0
 70
    12
 71
     2
 72
     6
 73
     3
 74
     0
 42
0.0000000001
 43
0.0000000001
 40
5.403036174764437
 40
5.403036174764437
 40
5.403036174764437
 40
9.146099121898608
 40
9.146099121898608
 40
9.146099121898608
 10
2221.836972950197
 20
1434.130559139906
 30
0.0
 41
1.0
 10
2220.512156913182
 20
1434.558782505407
 30
0.0
 41
1.055507145648787
 10
2218.839650000132
 20
1434.611646910411
 30
0.0000000000001137
 41
1.034106888326794
  0
SPLINE
  5
1F51
330
1F
100
AcDbEntity
  8
AM_VIS
100
AcDbSpline
210
0.0
220
0.0
230
1.0
 70
    12
 71
     2
 72
     6
 73
     3
 74
     0
 42
0.0000000001
 43
0.0000000001
 40
1.659973227630032
 40
1.659973227630032
 40
1.659973227630032
 40
5.403036174764437
 40
5.403036174764437
 40
5.403036174764437
 10
2224.548813656585
 20
1432.766260678023
 30
0.0
 41
1.034106888326791
 10
2223.161788987212
 20
1433.702335774406
 30
0.0
 41
1.05550714564879
 10
2221.836972950197
 20
1434.130559139906
 30
0.0
 41
1.0
  0
LINE
  5
1F52
330
1F
100
AcDbEntity
  8
AM_VIS
100
AcDbLine
 10
2230.257977312595
 20
1430.920874445813
 30
0.0
 11
2230.400718434424
 21
1431.362479791469
 31
0.0
  0
LINE
  5
1F53
330
1F
100
AcDbEntity
  8
AM_VIS
100
AcDbLine
 10
2222.988909667948
 20
1427.940307713175
 30
0.0
 11
2224.548813656585
 21
1432.766260678022
 31
0.0
  0
SPLINE
  5
1F54
330
1F
100
AcDbEntity
  8
AM_VIS
100
AcDbSpline
210
0.0000000000000715
220
0.0000000000004612
230
1.0
 70
    12
 71
     2
 72
     6
 73
     3
 74
     0
 42
0.0000000001
 43
0.0000000001
 40
5.403036174624904
 40
5.403036174624904
 40
5.403036174624904
 40
9.146099121473541
 40
9.146099121473541
 40
9.146099121473541
 10
2227.546136606481
 20
1432.285172907572
 30
0.0
 41
1.0
 10
2226.221320569754
 20
1432.713396272979
 30
-0.0000000000001137
 41
1.055507145448435
 10
2224.548813656585
 20
1432.766260678023
 30
0.0
 41
1.034106888207567
  0
SPLINE
  5
1F55
330
1F
100
AcDbEntity
  8
AM_VIS
100
AcDbSpline
210
0.0000000000002565
220
0.0000000000005085
230
1.0
 70
    12
 71
     2
 72
     6
 73
     3
 74
     0
 42
0.0000000001
 43
0.0000000001
 40
1.659973227912226
 40
1.659973227912226
 40
1.659973227912226
 40
5.403036174624904
 40
5.403036174624904
 40
5.403036174624904
 10
2230.257977312593
 20
1430.920874445812
 30
0.0
 41
1.034106888209122
 10
2228.870952643163
 20
1431.856949542181
 30
-0.0000000000001137
 41
1.055507145446419
 10
2227.546136606481
 20
1432.285172907572
 30
0.0
 41
1.0
  0
LINE
  5
1F56
330
1F
100
AcDbEntity
  8
AM_VIS
100
AcDbLine
 10
2228.698073323937
 20
1426.0949214809
 30
0.0
 11
2230.257977312596
 21
1430.920874445813
 31
0.0
  0
LINE
  5
1F57
330
1F
100
AcDbEntity
  8
AM_VIS
100
AcDbLine
 10
2228.555332202108
 20
1425.653316135243
 30
0.0
 11
2228.698073323937
 21
1426.0949214809
 31
0.0
  0
SPLINE
  5
1F58
330
1F
100
AcDbEntity
  8
AM_VIS
100
AcDbSpline
210
0.0
220
0.0
230
1.0
 70
    12
 71
     2
 72
     6
 73
     3
 74
     0
 42
0.0000000001
 43
0.0000000001
 40
5.403036174624906
 40
5.403036174624906
 40
5.403036174624906
 40
9.146099121337583
 40
9.146099121337583
 40
9.146099121337583
 10
2225.700750374165
 20
1426.576009251346
 30
0.0
 41
1.0
 10
2227.025566410846
 20
1426.147785885953
 30
0.0
 41
1.055507145446417
 10
2228.698073323938
 20
1426.094921480901
 30
0.0
 41
1.03410688820912
  0
SPLINE
  5
1F59
330
1F
100
AcDbEntity
  8
AM_VIS
100
AcDbSpline
210
0.0
220
0.0
230
1.0
 70
    12
 71
     2
 72
     6
 73
     3
 74
     0
 42
0.0000000001
 43
0.0000000001
 40
5.403036174764437
 40
5.403036174764437
 40
5.403036174764437
 40
9.146099121898842
 40
9.146099121898842
 40
9.146099121898842
 10
2219.991586717882
 20
1428.42139548368
 30
0.0
 41
1.0
 10
2221.316402754897
 20
1427.993172118179
 30
0.0
 41
1.055507145648788
 10
2222.988909667947
 20
1427.940307713174
 30
0.0
 41
1.03410688832679
  0
SPLINE
  5
1F5A
330
1F
100
AcDbEntity
  8
AM_VIS
100
AcDbSpline
210
0.0
220
0.0
230
1.0
 70
    12
 71
     2
 72
     6
 73
     3
 74
     0
 42
0.0000000001
 43
0.0000000001
 40
1.659973227776267
 40
1.659973227776267
 40
1.659973227776267
 40
5.403036174624906
 40
5.403036174624906
 40
5.403036174624906
 10
2222.988909667948
 20
1427.940307713175
 30
0.0
 41
1.034106888207565
 10
2224.375934337439
 20
1427.004232616752
 30
0.0
 41
1.055507145448432
 10
2225.700750374165
 20
1426.576009251346
 30
0.0
 41
1.0
  0
LINE
  5
1F5B
330
1F
100
AcDbEntity
  8
AM_VIS
100
AcDbLine
 10
2217.137004889655
 20
1429.344088599874
 30
0.0
 11
2217.279746011494
 21
1429.785693945564
 31
0.0
  0
SPLINE
  5
1F5C
330
1F
100
AcDbEntity
  8
AM_VIS
100
AcDbSpline
210
0.000000000001162
220
0.0000000000023035
230
1.0
 70
    12
 71
     2
 72
     6
 73
     3
 74
     0
 42
0.0000000001
 43
0.0000000001
 40
1.659973227630266
 40
1.659973227630266
 40
1.659973227630266
 40
5.403036174764437
 40
5.403036174764437
 40
5.403036174764437
 10
2217.279746011496
 20
1429.785693945564
 30
-0.0000000000001137
 41
1.034106888326792
 10
2218.666770680866
 20
1428.84961884918
 30
0.0
 41
1.055507145648785
 10
2219.991586717882
 20
1428.42139548368
 30
0.0
 41
1.0
  0
LINE
  5
1F5D
330
1F
100
AcDbEntity
  8
AM_VIS
100
AcDbLine
 10
2230.400718434538
 20
1431.362479791433
 30
0.0
 11
2231.015847178643
 21
1433.265534343508
 31
0.0
  0
LINE
  5
1F5E
330
1F
100
AcDbEntity
  8
AM_VIS
100
AcDbLine
 10
2218.982391122084
 20
1435.053252256064
 30
0.0
 11
2219.597519866189
 21
1436.95630680814
 31
0.0
  0
LINE
  5
1F5F
330
1F
100
AcDbEntity
  8
AM_VIS
100
AcDbLine
 10
2217.137004889769
 20
1429.344088599838
 30
0.0
 11
2216.521876145663
 21
1427.441034047762
 31
0.0
  0
LINE
  5
1F60
330
1F
100
AcDbEntity
  8
AM_VIS
100
AcDbLine
 10
2228.555332202222
 20
1425.653316135206
 30
0.0
 11
2227.940203458117
 21
1423.750261583131
 31
0.0
  0
LINE
  5
1F61
330
1F
100
AcDbEntity
  8
AM_VIS
100
AcDbLine
 10
2219.597519866189
 20
1436.95630680814
 30
0.0
 11
2231.015847178643
 21
1433.265534343508
 31
0.0
  0
LINE
  5
1F62
330
1F
100
AcDbEntity
  8
AM_VIS
100
AcDbLine
 10
2218.982391122084
 20
1435.053252256064
 30
0.0
 11
2221.836972950197
 21
1434.130559139906
 31
0.0
  0
LINE
  5
1F63
330
1F
100
AcDbEntity
  8
AM_VIS
100
AcDbLine
 10
2221.836972950197
 20
1434.130559139906
 30
0.0
 11
2227.546136606424
 21
1432.28517290759
 31
0.0
  0
LINE
  5
1F64
330
1F
100
AcDbEntity
  8
AM_VIS
100
AcDbLine
 10
2227.546136606424
 20
1432.28517290759
 30
0.0
 11
2230.400718434538
 21
1431.362479791433
 31
0.0
  0
LINE
  5
1F65
330
1F
100
AcDbEntity
  8
AM_VIS
100
AcDbLine
 10
2217.137004889769
 20
1429.344088599838
 30
0.0
 11
2219.991586717882
 21
1428.42139548368
 31
0.0
  0
LINE
  5
1F66
330
1F
100
AcDbEntity
  8
AM_VIS
100
AcDbLine
 10
2219.991586717882
 20
1428.42139548368
 30
0.0
 11
2225.700750374108
 21
1426.576009251364
 31
0.0
  0
LINE
  5
1F67
330
1F
100
AcDbEntity
  8
AM_VIS
100
AcDbLine
 10
2225.700750374108
 20
1426.576009251364
 30
0.0
 11
2228.555332202222
 21
1425.653316135206
 31
0.0
  0
LINE
  5
1F68
330
1F
100
AcDbEntity
  8
AM_VIS
100
AcDbLine
 10
2227.940203458117
 20
1423.750261583131
 30
0.0
 11
2216.521876145663
 21
1427.441034047762
 31
0.0
  0
LINE
  5
1F69
330
1F
100
AcDbEntity
  8
AM_VIS
100
AcDbLine
 10
2225.306683522417
 20
1435.110920575824
 30
0.0
 11
2229.595510717284
 21
1448.379479709944
 31
0.0
  0
LINE
  5
1F6A
330
1F
100
AcDbEntity
  8
AM_VIS
100
AcDbLine
 10
2229.540979900784
 20
1433.742259120189
 30
0.0
 11
2233.039610035812
 21
1444.56614610043
 31
0.0
  0
LINE
  5
1F6B
330
1F
100
AcDbEntity
  8
AM_VIS
100
AcDbLine
 10
2221.072387144048
 20
1436.479582031458
 30
0.0
 11
2224.571017279076
 21
1447.303469011699
 31
0.0
  0
LINE
  5
1F6C
330
1F
100
AcDbEntity
  8
AM_VIS
100
AcDbLine
 10
2230.261407116026
 20
1450.43959669355
 30
0.0
 11
2225.236913677818
 21
1449.363585995305
 31
0.0
  0
LINE
  5
1F6D
330
1F
100
AcDbEntity
  8
AM_VIS
100
AcDbLine
 10
2224.571017279076
 20
1447.303469011699
 30
0.0
 11
2229.595510717284
 21
1448.379479709944
 31
0.0
  0
LINE
  5
1F6E
330
1F
100
AcDbEntity
  8
AM_VIS
100
AcDbLine
 10
2224.571017279076
 20
1447.303469011699
 30
0.0
 11
2225.236913677818
 21
1449.363585995305
 31
0.0
  0
LINE
  5
1F6F
330
1F
100
AcDbEntity
  8
AM_VIS
100
AcDbLine
 10
2229.595510717284
 20
1448.379479709944
 30
0.0
 11
2233.039610035812
 21
1444.56614610043
 31
0.0
  0
LINE
  5
1F70
330
1F
100
AcDbEntity
  8
AM_VIS
100
AcDbLine
 10
2229.595510717284
 20
1448.379479709944
 30
0.0
 11
2230.261407116026
 21
1450.43959669355
 31
0.0
  0
LINE
  5
1F71
330
1F
100
AcDbEntity
  8
AM_VIS
100
AcDbLine
 10
2233.705506434554
 20
1446.626263084036
 30
0.0
 11
2230.261407116026
 21
1450.43959669355
 31
0.0
  0
LINE
  5
1F72
330
1F
100
AcDbEntity
  8
AM_VIS
100
AcDbLine
 10
2233.705506434554
 20
1446.626263084036
 30
0.0
 11
2233.039610035812
 21
1444.56614610043
 31
0.0
  0
ARC
  5
1F73
330
1F
100
AcDbEntity
  8
AM_VIS
100
AcDbCircle
 10
2228.681012996347
 20
1445.550252385791
 30
0.0
 40
5.0
100
AcDbArc
 50
74.9607374967746
 51
129.2142437313172
  0
LINE
  5
1F74
330
1F
100
AcDbEntity
  8
AM_VIS
100
AcDbLine
 10
2205.985568018911
 20
1365.58216383998
 30
0.0
 11
2225.085621630003
 21
1424.672954699289
 31
0.0
  0
LINE
  5
1F75
330
1F
100
AcDbEntity
  8
AM_VIS
100
AcDbLine
 10
2200.276404362686
 20
1367.427550072295
 30
0.0
 11
2219.376457973776
 21
1426.518340931604
 31
0.0
  0
ARC
  5
1F76
330
1F
100
AcDbEntity
  8
AM_4
100
AcDbCircle
 10
2223.681012996344
 20
1343.050252385792
 30
0.0
 40
10.84999999999999
100
AcDbArc
 50
259.9999999999939
 51
169.9999999999961
  0
CIRCLE
  5
1F77
330
1F
100
AcDbEntity
  8
AM_0
100
AcDbCircle
 10
2223.681012996344
 20
1343.050252385792
 30
0.0
 40
9.3155
  0
ARC
  5
1F78
330
1F
100
AcDbEntity
  8
AM_4
100
AcDbCircle
 10
2201.681012996345
 20
1449.050252385791
 30
0.0
 40
10.84999999999999
100
AcDbArc
 50
259.9999999999939
 51
169.9999999999961
  0
CIRCLE
  5
1F79
330
1F
100
AcDbEntity
  8
AM_0
100
AcDbCircle
 10
2201.681012996345
 20
1449.050252385791
 30
0.0
 40
9.3155
  0
LINE
  5
1F87
330
1F
100
AcDbEntity
  8
AM_7
100
AcDbLine
 10
2223.681012996344
 20
1343.050252385792
 30
0.0
 11
2239.381012996344
 21
1343.050252385792
 31
0.0
1001
GENIUS_GENOREF_13
1005
1F8B
  0
LINE
  5
1F88
330
1F
100
AcDbEntity
  8
AM_7
100
AcDbLine
 10
2223.681012996344
 20
1343.050252385792
 30
0.0
 11
2223.681012996344
 21
1358.750252385792
 31
0.0
1001
GENIUS_GENOREF_13
1005
1F8B
  0
LINE
  5
1F89
330
1F
100
AcDbEntity
  8
AM_7
100
AcDbLine
 10
2223.681012996344
 20
1343.050252385792
 30
0.0
 11
2207.981012996345
 21
1343.050252385792
 31
0.0
1001
GENIUS_GENOREF_13
1005
1F8B
  0
LINE
  5
1F8A
330
1F
100
AcDbEntity
  8
AM_7
100
AcDbLine
 10
2223.681012996344
 20
1343.050252385792
 30
0.0
 11
2223.681012996344
 21
1327.350252385792
 31
0.0
1001
GENIUS_GENOREF_13
1005
1F8B
  0
POINT
  5
1F8B
330
1F
100
AcDbEntity
  8
0
 60
     1
100
AcDbPoint
 10
0.0
 20
0.0
 30
0.0
1001
GENIUS_GENOLIS_13
1002
{
1000
ENT
1005
1F8A
1005
1F89
1005
1F88
1005
1F87
1002
}
1001
GENIUS_GENOBJ-N-CRS_13
1002
{
1000
OWNER
1000
GEN
1002
}
1001
GENIUS_GENOENT_13
1002
{
1000
MYREF
1005
1F8B
1002
}
1002
{
1000
GRP
1005
0
1002
}
1001
GENIUS_GENODEF_13
1002
{
1000
HIER
1070
    10
1002
}
1002
{
1000
MANEDIT
1070
     0
1002
}
1002
{
1000
NOSEL
1070
     0
1002
}
1002
{
1000
BEHIND
1070
     0
1002
}
1002
{
1000
OTHER
1070
     0
1002
}
1002
{
1000
REACTOR
1002
}
  0
LINE
  5
1F99
330
1F
100
AcDbEntity
  8
AM_7
100
AcDbLine
 10
2201.681012996345
 20
1449.050252385791
 30
0.0
 11
2217.381012996345
 21
1449.050252385791
 31
0.0
1001
GENIUS_GENOREF_13
1005
1F9D
  0
LINE
  5
1F9A
330
1F
100
AcDbEntity
  8
AM_7
100
AcDbLine
 10
2201.681012996345
 20
1449.050252385791
 30
0.0
 11
2201.681012996345
 21
1464.750252385791
 31
0.0
1001
GENIUS_GENOREF_13
1005
1F9D
  0
LINE
  5
1F9B
330
1F
100
AcDbEntity
  8
AM_7
100
AcDbLine
 10
2201.681012996345
 20
1449.050252385791
 30
0.0
 11
2185.981012996345
 21
1449.050252385791
 31
0.0
1001
GENIUS_GENOREF_13
1005
1F9D
  0
LINE
  5
1F9C
330
1F
100
AcDbEntity
  8
AM_7
100
AcDbLine
 10
2201.681012996345
 20
1449.050252385791
 30
0.0
 11
2201.681012996345
 21
1433.350252385791
 31
0.0
1001
GENIUS_GENOREF_13
1005
1F9D
  0
POINT
  5
1F9D
330
1F
100
AcDbEntity
  8
0
 60
     1
100
AcDbPoint
 10
0.0
 20
0.0
 30
0.0
1001
GENIUS_GENODEF_13
1002
{
1000
HIER
1070
    10
1002
}
1002
{
1000
MANEDIT
1070
     0
1002
}
1002
{
1000
NOSEL
1070
     0
1002
}
1002
{
1000
BEHIND
1070
     0
1002
}
1002
{
1000
OTHER
1070
     0
1002
}
1002
{
1000
REACTOR
1002
}
1001
GENIUS_GENOENT_13
1002
{
1000
MYREF
1005
1F9D
1002
}
1002
{
1000
GRP
1005
0
1002
}
1001
GENIUS_GENOBJ-N-CRS_13
1002
{
1000
OWNER
1000
GEN
1002
}
1001
GENIUS_GENOLIS_13
1002
{
1000
ENT
1005
1F9C
1005
1F9B
1005
1F9A
1005
1F99
1002
}
  0
SPLINE
  5
1FB0
330
1F
100
AcDbEntity
  8
AM_VIS
100
AcDbSpline
210
0.0
220
0.0
230
1.0
 70
    12
 71
     2
 72
     6
 73
     3
 74
     0
 42
0.0000000001
 43
0.0000000001
 40
1.659973227630032
 40
1.659973227630032
 40
1.659973227630032
 40
3.614443023209928
 40
3.614443023209928
 40
3.614443023209928
 10
2367.366379410671
 20
1432.766260678023
 30
0.0
 41
1.034106888326791
 10
2367.85578953116
 20
1433.259821366828
 30
0.0
 41
1.045281201220862
 10
2368.294582641017
 20
1433.601637030857
 30
0.0
 41
1.035486799389562
  0
SPLINE
  5
1FB1
330
1F
100
AcDbEntity
  8
AM_VIS
100
AcDbSpline
210
0.0
220
0.0
230
1.0
 70
    12
 71
     2
 72
     6
 73
     3
 74
     0
 42
0.0000000001
 43
0.0000000001
 40
7.191629326520459
 40
7.191629326520459
 40
7.191629326520459
 40
9.14609912205179
 40
9.14609912205179
 40
9.14609912205179
 10
2380.294582641015
 20
1433.601637030792
 30
0.0
 41
1.035486799516021
 10
2380.733375750815
 20
1433.259821366818
 30
0.0
 41
1.045281201381515
 10
2381.222785871221
 20
1432.766260678087
 30
0.0
 41
1.034106888449133
  0
SPLINE
  5
1FB2
330
1F
100
AcDbEntity
  8
AM_VIS
100
AcDbSpline
210
0.0
220
0.0
230
1.0
 70
    12
 71
     2
 72
     6
 73
     3
 74
     0
 42
0.0000000001
 43
0.0000000001
 40
5.403036174764437
 40
5.403036174764437
 40
5.403036174764437
 40
9.146099121626717
 40
9.146099121626717
 40
9.146099121626717
 10
2379.490735063723
 20
1432.28517290759
 30
0.0
 41
1.0
 10
2378.686887486457
 20
1431.856949542121
 30
0.0
 41
1.055507145644755
 10
2377.758684256223
 20
1430.920874445845
 30
0.0
 41
1.034106888329903
  0
SPLINE
  5
1FB3
330
1F
100
AcDbEntity
  8
AM_VIS
100
AcDbSpline
210
-0.0000000000003354
220
0.0000000000012327
230
-1.0
 70
    12
 71
     2
 72
     6
 73
     3
 74
     0
 42
0.0000000001
 43
0.0000000001
 40
1.659973227902392
 40
1.659973227902392
 40
1.659973227902392
 40
5.403036174764437
 40
5.403036174764437
 40
5.403036174764437
 10
2381.222785871224
 20
1432.766260678089
 30
0.0000000000001137
 41
1.034106888329906
 10
2380.29458264099
 20
1432.713396273061
 30
0.0000000000001137
 41
1.055507145644751
 10
2379.490735063723
 20
1432.28517290759
 30
0.0
 41
1.0
  0
LINE
  5
1FB4
330
1F
100
AcDbEntity
  8
AM_VIS
100
AcDbLine
 10
2381.222785871222
 20
1427.940307713108
 30
0.0
 11
2381.222785871222
 21
1432.766260678088
 31
0.0
  0
SPLINE
  5
1FB5
330
1F
100
AcDbEntity
  8
AM_VIS
100
AcDbSpline
210
0.0
220
0.0
230
1.0
 70
    12
 71
     2
 72
     6
 73
     3
 74
     0
 42
0.0000000001
 43
0.0000000001
 40
5.403036174903729
 40
5.403036174903729
 40
5.403036174903729
 40
9.14609912218747
 40
9.14609912218747
 40
9.14609912218747
 10
2374.294582641016
 20
1431.362479791469
 30
0.0
 41
1.0
 10
2372.686887486078
 20
1431.362479791468
 30
0.0
 41
1.055507145846788
 10
2370.830481025671
 20
1430.920874445812
 30
0.0
 41
1.034106888447367
  0
SPLINE
  5
1FB6
330
1F
100
AcDbEntity
  8
AM_VIS
100
AcDbSpline
210
0.0
220
0.0
230
1.0
 70
    12
 71
     2
 72
     6
 73
     3
 74
     0
 42
0.0000000001
 43
0.0000000001
 40
1.659973227756171
 40
1.659973227756171
 40
1.659973227756171
 40
5.403036174903729
 40
5.403036174903729
 40
5.403036174903729
 10
2377.758684256222
 20
1430.920874445844
 30
0.0
 41
1.034106888448917
 10
2375.902277795897
 20
1431.362479791468
 30
0.0
 41
1.055507145844757
 10
2374.294582641016
 20
1431.362479791469
 30
0.0
 41
1.0
  0
LINE
  5
1FB7
330
1F
100
AcDbEntity
  8
AM_VIS
100
AcDbLine
 10
2377.758684256223
 20
1426.094921480866
 30
0.0
 11
2377.758684256223
 21
1430.920874445845
 31
0.0
  0
LINE
  5
1FB8
330
1F
100
AcDbEntity
  8
AM_VIS
100
AcDbLine
 10
2367.366379410672
 20
1427.940307713174
 30
0.0
 11
2367.366379410672
 21
1432.766260678022
 31
0.0
  0
SPLINE
  5
1FB9
330
1F
100
AcDbEntity
  8
AM_VIS
100
AcDbSpline
210
-0.000000000000197
220
-0.0000000000007238
230
1.0
 70
    12
 71
     2
 72
     6
 73
     3
 74
     0
 42
0.0000000001
 43
0.0000000001
 40
5.403036174624904
 40
5.403036174624904
 40
5.403036174624904
 40
9.146099121473541
 40
9.146099121473541
 40
9.146099121473541
 10
2369.098430218206
 20
1432.285172907572
 30
0.0
 41
1.0
 10
2368.29458264106
 20
1432.713396272978
 30
0.0
 41
1.055507145448435
 10
2367.366379410671
 20
1432.766260678023
 30
0.0000000000001137
 41
1.034106888207567
  0
SPLINE
  5
1FBA
330
1F
100
AcDbEntity
  8
AM_VIS
100
AcDbSpline
210
-0.0000000000024739
220
-0.0000000000031184
230
1.0
 70
    12
 71
     2
 72
     6
 73
     3
 74
     0
 42
0.0000000001
 43
0.0000000001
 40
1.659973227912226
 40
1.659973227912226
 40
1.659973227912226
 40
5.403036174624904
 40
5.403036174624904
 40
5.403036174624904
 10
2370.830481025671
 20
1430.920874445811
 30
-0.0000000000001137
 41
1.034106888209122
 10
2369.902277795325
 20
1431.856949542181
 30
0.0
 41
1.055507145446419
 10
2369.098430218206
 20
1432.285172907572
 30
0.0
 41
1.0
  0
LINE
  5
1FBB
330
1F
100
AcDbEntity
  8
AM_VIS
100
AcDbLine
 10
2370.830481025672
 20
1426.094921480899
 30
0.0
 11
2370.830481025672
 21
1430.920874445812
 31
0.0
  0
SPLINE
  5
1FBC
330
1F
100
AcDbEntity
  8
AM_VIS
100
AcDbSpline
210
-0.0000000000005462
220
0.0000000000006884
230
1.0
 70
    12
 71
     2
 72
     6
 73
     3
 74
     0
 42
0.0000000001
 43
0.0000000001
 40
5.403036174764437
 40
5.403036174764437
 40
5.403036174764437
 40
9.146099121626482
 40
9.146099121626482
 40
9.146099121626482
 10
2379.490735063723
 20
1426.576009251364
 30
0.0
 41
1.0
 10
2380.294582640988
 20
1427.004232616835
 30
0.0000000000001137
 41
1.055507145644749
 10
2381.222785871222
 20
1427.940307713108
 30
0.0
 41
1.034106888329904
  0
SPLINE
  5
1FBD
330
1F
100
AcDbEntity
  8
AM_VIS
100
AcDbSpline
210
0.0
220
0.0
230
1.0
 70
    12
 71
     2
 72
     6
 73
     3
 74
     0
 42
0.0000000001
 43
0.0000000001
 40
1.659973227902159
 40
1.659973227902159
 40
1.659973227902159
 40
5.403036174764437
 40
5.403036174764437
 40
5.403036174764437
 10
2377.758684256222
 20
1426.094921480865
 30
0.0
 41
1.034106888329902
 10
2378.686887486458
 20
1426.147785885893
 30
0.0
 41
1.055507145644753
 10
2379.490735063723
 20
1426.576009251364
 30
0.0
 41
1.0
  0
SPLINE
  5
1FBE
330
1F
100
AcDbEntity
  8
AM_VIS
100
AcDbSpline
210
0.0
220
0.0
230
1.0
 70
    12
 71
     2
 72
     6
 73
     3
 74
     0
 42
0.0000000001
 43
0.0000000001
 40
5.403036174903726
 40
5.403036174903726
 40
5.403036174903726
 40
9.146099122051285
 40
9.146099122051285
 40
9.146099122051285
 10
2374.294582641016
 20
1425.653316135242
 30
0.0
 41
1.0
 10
2375.902277795898
 20
1425.653316135242
 30
0.0
 41
1.055507145844764
 10
2377.758684256223
 20
1426.094921480867
 30
0.0
 41
1.034106888448921
  0
SPLINE
  5
1FBF
330
1F
100
AcDbEntity
  8
AM_VIS
100
AcDbSpline
210
0.000000000000156
220
0.0000000000011973
230
1.0
 70
    12
 71
     2
 72
     6
 73
     3
 74
     0
 42
0.0000000001
 43
0.0000000001
 40
1.659973227619985
 40
1.659973227619985
 40
1.659973227619985
 40
5.403036174903726
 40
5.403036174903726
 40
5.403036174903726
 10
2370.83048102567
 20
1426.094921480899
 30
-0.0000000000001137
 41
1.034106888447368
 10
2372.686887486079
 20
1425.653316135242
 30
0.0
 41
1.05550714584679
 10
2374.294582641016
 20
1425.653316135242
 30
0.0
 41
1.0
  0
SPLINE
  5
1FC0
330
1F
100
AcDbEntity
  8
AM_VIS
100
AcDbSpline
210
0.0
220
0.0
230
1.0
 70
    12
 71
     2
 72
     6
 73
     3
 74
     0
 42
0.0000000001
 43
0.0000000001
 40
5.403036174624906
 40
5.403036174624906
 40
5.403036174624906
 40
9.146099121337583
 40
9.146099121337583
 40
9.146099121337583
 10
2369.098430218206
 20
1426.576009251345
 30
0.0
 41
1.0
 10
2369.902277795323
 20
1426.147785885952
 30
0.0
 41
1.055507145446417
 10
2370.830481025673
 20
1426.094921480899
 30
0.0
 41
1.03410688820912
  0
SPLINE
  5
1FC1
330
1F
100
AcDbEntity
  8
AM_VIS
100
AcDbSpline
210
0.0
220
0.0
230
1.0
 70
    12
 71
     2
 72
     6
 73
     3
 74
     0
 42
0.0000000001
 43
0.0000000001
 40
1.659973227776267
 40
1.659973227776267
 40
1.659973227776267
 40
5.403036174624906
 40
5.403036174624906
 40
5.403036174624906
 10
2367.366379410672
 20
1427.940307713174
 30
0.0
 41
1.034106888207565
 10
2368.294582641061
 20
1427.004232616751
 30
0.0
 41
1.055507145448432
 10
2369.098430218206
 20
1426.576009251345
 30
0.0
 41
1.0
  0
LINE
  5
1FC2
330
1F
100
AcDbEntity
  8
AM_VIS
100
AcDbLine
 10
2380.294582641016
 20
1433.207866023748
 30
0.0
 11
2380.294582641016
 21
1435.110920575824
 31
0.0
  0
LINE
  5
1FC3
330
1F
100
AcDbEntity
  8
AM_VIS
100
AcDbLine
 10
2368.294582641016
 20
1433.207866023748
 30
0.0
 11
2368.294582641016
 21
1435.110920575824
 31
0.0
  0
LINE
  5
1FC4
330
1F
100
AcDbEntity
  8
AM_VIS
100
AcDbLine
 10
2378.872246301811
 20
1426.305725409257
 30
0.0
 11
2378.94686349028
 21
1426.33281002991
 31
0.0
  0
LINE
  5
1FC5
330
1F
100
AcDbEntity
  8
AM_VIS
100
AcDbLine
 10
2369.716918980221
 20
1426.305725409257
 30
0.0
 11
2369.64230179168
 21
1426.332810029937
 31
0.0
  0
LINE
  5
1FC6
330
1F
100
AcDbEntity
  8
AM_VIS
100
AcDbLine
 10
2368.294582641016
 20
1427.104931360348
 30
0.0
 11
2368.294582641016
 21
1425.595647815446
 31
0.0
  0
LINE
  5
1FC7
330
1F
100
AcDbEntity
  8
AM_VIS
100
AcDbLine
 10
2380.294582641016
 20
1427.104931360412
 30
0.0
 11
2380.294582641016
 21
1425.595647815446
 31
0.0
  0
ELLIPSE
  5
1FC8
330
1F
100
AcDbEntity
  8
AM_VIS
100
AcDbEllipse
 10
2374.294582641016
 20
1435.110920575824
 30
0.0
 11
-5.999999999999962
 21
0.0000000000000057
 31
0.0
210
0.0
220
0.0
230
1.0
 40
0.3075643720526405
 41
-0.5425344050258614
 42
3.684127058615948
  0
ELLIPSE
  5
1FC9
330
1F
100
AcDbEntity
  8
AM_VIS
100
AcDbEllipse
 10
2374.294582641016
 20
1433.207866023748
 30
0.0
 11
6.0
 21
0.0000000000004973
 31
0.0
210
0.0
220
0.0
230
1.0
 40
0.3075643720525192
 41
3.14159265358977
 42
3.66519142918833
  0
ELLIPSE
  5
1FCA
330
1F
100
AcDbEntity
  8
AM_VIS
100
AcDbEllipse
 10
2374.294582641016
 20
1433.207866023748
 30
0.0
 11
-6.000000000000294
 21
0.0000000000001349
 31
0.0
210
0.0
220
0.0
230
1.0
 40
0.3075643720526235
 41
0.5235987755986562
 42
1.570796326795206
  0
ELLIPSE
  5
1FCB
330
1F
100
AcDbEntity
  8
AM_VIS
100
AcDbEllipse
 10
2374.294582641016
 20
1433.207866023748
 30
0.0
 11
-5.999999999999866
 21
0.0000000000001935
 31
0.0
210
0.0
220
0.0
230
1.0
 40
0.3075643720526454
 41
1.570796326795209
 42
2.617993877991882
  0
ELLIPSE
  5
1FCC
330
1F
100
AcDbEntity
  8
AM_VIS
100
AcDbEllipse
 10
2374.294582641016
 20
1433.207866023748
 30
0.0
 11
-5.999999999999997
 21
0.0000000000002335
 31
0.0
210
0.0
220
0.0
230
1.0
 40
0.307564372052608
 41
2.617993877991846
 42
3.141592653590166
  0
ELLIPSE
  5
1FCD
330
1F
100
AcDbEntity
  8
AM_VIS
100
AcDbEllipse
 10
2374.294582641016
 20
1427.498702367522
 30
0.0
 11
6.000000000001134
 21
0.0000000000004453
 31
0.0
210
0.0
220
0.0
230
1.0
 40
0.3075643720525803
 41
-1.570796326794616
 42
-0.7029414556942468
  0
ELLIPSE
  5
1FCE
330
1F
100
AcDbEntity
  8
AM_VIS
100
AcDbEllipse
 10
2374.294582641016
 20
1427.498702367522
 30
0.0
 11
-6.000000000000555
 21
0.0000000000001816
 31
0.0
210
0.0
220
0.0
230
1.0
 40
0.3075643720526101
 41
0.7029414556945879
 42
1.570796326795209
  0
ELLIPSE
  5
1FCF
330
1F
100
AcDbEntity
  8
AM_VIS
100
AcDbEllipse
 10
2374.294582641016
 20
1425.595647815446
 30
0.0
 11
5.999999999999998
 21
0.0000000000044356
 31
0.0
210
0.0
220
0.0
230
1.0
 40
0.3075643720526386
 41
3.141592653587636
 42
6.283185307177428
  0
LINE
  5
1FD0
330
1F
100
AcDbEntity
  8
AM_VIS
100
AcDbLine
 10
2371.725373943123
 20
1433.742259120189
 30
0.0
 11
2369.156165245228
 21
1435.110920575823
 31
0.0
  0
LINE
  5
1FD1
330
1F
100
AcDbEntity
  8
AM_VIS
100
AcDbLine
 10
2369.156165245228
 20
1435.110920575823
 30
0.0
 11
2369.156165245228
 21
1448.379479709943
 31
0.0
  0
LINE
  5
1FD2
330
1F
100
AcDbEntity
  8
AM_VIS
100
AcDbLine
 10
2376.863791338911
 20
1433.742259120189
 30
0.0
 11
2371.725373943123
 21
1433.742259120189
 31
0.0
  0
LINE
  5
1FD3
330
1F
100
AcDbEntity
  8
AM_VIS
100
AcDbLine
 10
2371.725373943123
 20
1433.742259120189
 30
0.0
 11
2371.725373943123
 21
1444.566146100429
 31
0.0
  0
LINE
  5
1FD4
330
1F
100
AcDbEntity
  8
AM_VIS
100
AcDbLine
 10
2379.433000036804
 20
1435.110920575823
 30
0.0
 11
2379.433000036804
 21
1440.660908078032
 31
0.0
  0
LINE
  5
1FD5
330
1F
100
AcDbEntity
  8
AM_VIS
100
AcDbLine
 10
2379.433000036804
 20
1435.110920575823
 30
0.0
 11
2376.863791338911
 21
1433.742259120189
 31
0.0
  0
LINE
  5
1FD6
330
1F
100
AcDbEntity
  8
AM_VIS
100
AcDbLine
 10
2376.863791338911
 20
1433.742259120189
 30
0.0
 11
2376.863791338911
 21
1441.736918776277
 31
0.0
  0
LINE
  5
1FD7
330
1F
100
AcDbEntity
  8
AM_VIS
100
AcDbLine
 10
2376.863791338911
 20
1441.736918776277
 30
0.0
 11
2387.366379410673
 21
1441.736918776277
 31
0.0
  0
LINE
  5
1FD8
330
1F
100
AcDbEntity
  8
AM_VIS
100
AcDbLine
 10
2379.433000036804
 20
1440.660908078032
 30
0.0
 11
2387.366379410673
 21
1440.660908078032
 31
0.0
  0
LINE
  5
1FD9
330
1F
100
AcDbEntity
  8
AM_VIS
100
AcDbLine
 10
2379.433000036804
 20
1440.660908078032
 30
0.0
 11
2376.863791338911
 21
1441.736918776277
 31
0.0
  0
LINE
  5
1FDA
330
1F
100
AcDbEntity
  8
AM_VIS
100
AcDbLine
 10
2387.366379410673
 20
1446.626263084036
 30
0.0
 11
2373.890437452584
 21
1446.626263084036
 31
0.0
  0
LINE
  5
1FDB
330
1F
100
AcDbEntity
  8
AM_VIS
100
AcDbLine
 10
2387.366379410672
 20
1450.43959669355
 30
0.0
 11
2371.321228754689
 21
1450.43959669355
 31
0.0
  0
LINE
  5
1FDC
330
1F
100
AcDbEntity
  8
AM_VIS
100
AcDbLine
 10
2369.156165245228
 20
1448.379479709943
 30
0.0
 11
2371.725373943123
 21
1444.566146100429
 31
0.0
  0
ELLIPSE
  5
1FDD
330
1F
100
AcDbEntity
  8
AM_VIS
100
AcDbEllipse
 10
2372.042916591176
 20
1447.692774048741
 30
0.0
 11
-2.439541296877521
 21
2.002242542508646
 31
0.0
210
0.0
220
0.0
230
1.0
 40
0.7708175679742984
 41
-0.754038071504478
 42
0.5640780001480992
  0
LINE
  5
1FDE
330
1F
100
AcDbEntity
  8
AM_VIS
100
AcDbLine
 10
2373.890437452584
 20
1446.626263084036
 30
0.0
 11
2371.321228754689
 21
1450.43959669355
 31
0.0
  0
ELLIPSE
  5
1FDF
330
1F
100
AcDbEntity
  8
AM_VIS
100
AcDbEllipse
 10
2374.612125289071
 20
1443.879440439228
 30
0.0
 11
-2.439541296877521
 21
2.002242542508646
 31
0.0
210
0.0
220
0.0
230
1.0
 40
0.7708175679742984
 41
-0.754038071504478
 42
0.5640780001480992
  0
LINE
  5
1FE0
330
1F
100
AcDbEntity
  8
AM_VIS
100
AcDbLine
 10
2377.758684255947
 20
1362.314810826051
 30
0.0
 11
2377.758684255947
 21
1357.488857861137
 31
0.0
  0
LINE
  5
1FE1
330
1F
100
AcDbEntity
  8
AM_VIS
100
AcDbLine
 10
2370.830481025946
 20
1362.314810826018
 30
0.0
 11
2370.830481025946
 21
1357.48885786117
 31
0.0
  0
SPLINE
  5
1FE2
330
1F
100
AcDbEntity
  8
AM_VIS
100
AcDbSpline
210
0.0
220
0.0
230
1.0
 70
    12
 71
     2
 72
     6
 73
     3
 74
     0
 42
0.0000000001
 43
0.0000000001
 40
1.65997322777625
 40
1.65997322777625
 40
1.65997322777625
 40
5.403036174625144
 40
5.403036174625144
 40
5.403036174625144
 10
2370.830481025947
 20
1357.488857861172
 30
0.0
 41
1.034106888207774
 10
2372.686887486725
 20
1357.047252515482
 30
0.0
 41
1.055507145448775
 10
2374.294582641015
 20
1357.047252515481
 30
0.0
 41
1.0
  0
SPLINE
  5
1FE3
330
1F
100
AcDbEntity
  8
AM_VIS
100
AcDbSpline
210
0.0
220
0.0
230
1.0
 70
    12
 71
     2
 72
     6
 73
     3
 74
     0
 42
0.0000000001
 43
0.0000000001
 40
5.403036174764437
 40
5.403036174764437
 40
5.403036174764437
 40
9.146099121898608
 40
9.146099121898608
 40
9.146099121898608
 10
2369.098430218309
 20
1357.969945631675
 30
0.0
 41
1.0
 10
2369.90227779563
 20
1357.541722266175
 30
0.0
 41
1.055507145648787
 10
2370.830481025946
 20
1357.488857861169
 30
0.0
 41
1.034106888326794
  0
SPLINE
  5
1FE4
330
1F
100
AcDbEntity
  8
AM_VIS
100
AcDbSpline
210
0.0
220
0.0
230
1.0
 70
    12
 71
     2
 72
     6
 73
     3
 74
     0
 42
0.0000000001
 43
0.0000000001
 40
1.659973227630032
 40
1.659973227630032
 40
1.659973227630032
 40
5.403036174764437
 40
5.403036174764437
 40
5.403036174764437
 10
2367.36637941067
 20
1359.334244093559
 30
0.0
 41
1.034106888326791
 10
2368.294582640988
 20
1358.398168997175
 30
0.0
 41
1.05550714564879
 10
2369.098430218309
 20
1357.969945631675
 30
0.0
 41
1.0
  0
SPLINE
  5
1FE5
330
1F
100
AcDbEntity
  8
AM_VIS
100
AcDbSpline
210
0.0
220
0.0
230
1.0
 70
    12
 71
     2
 72
     6
 73
     3
 74
     0
 42
0.0000000001
 43
0.0000000001
 40
5.403036174903967
 40
5.403036174903967
 40
5.403036174903967
 40
9.14609912205179
 40
9.14609912205179
 40
9.14609912205179
 10
2379.490735063619
 20
1357.969945631694
 30
0.0
 41
1.0
 10
2380.294582641061
 20
1358.398168997258
 30
0.0
 41
1.055507145845111
 10
2381.222785871221
 20
1359.334244093494
 30
0.0
 41
1.034106888449133
  0
SPLINE
  5
1FE6
330
1F
100
AcDbEntity
  8
AM_VIS
100
AcDbSpline
210
0.000000000000078
220
-0.0000000000005986
230
1.0
 70
    12
 71
     2
 72
     6
 73
     3
 74
     0
 42
0.0000000001
 43
0.0000000001
 40
5.403036174625144
 40
5.403036174625144
 40
5.403036174625144
 40
9.146099121337847
 40
9.146099121337847
 40
9.146099121337847
 10
2374.294582641015
 20
1357.047252515481
 30
0.0
 41
1.0
 10
2375.902277795251
 20
1357.047252515481
 30
-0.0000000000001137
 41
1.055507145446752
 10
2377.758684255946
 20
1357.488857861136
 30
0.0
 41
1.034106888209329
  0
SPLINE
  5
1FE7
330
1F
100
AcDbEntity
  8
AM_VIS
100
AcDbSpline
210
0.000000000000197
220
-0.0000000000007238
230
1.0
 70
    12
 71
     2
 72
     6
 73
     3
 74
     0
 42
0.0000000001
 43
0.0000000001
 40
1.659973227620207
 40
1.659973227620207
 40
1.659973227620207
 40
5.403036174903967
 40
5.403036174903967
 40
5.403036174903967
 10
2377.758684255947
 20
1357.488857861137
 30
-0.0000000000001137
 41
1.034106888447578
 10
2378.68688748615
 20
1357.541722266115
 30
0.0
 41
1.055507145847127
 10
2379.490735063619
 20
1357.969945631694
 30
0.0
 41
1.0
  0
LINE
  5
1FE8
330
1F
100
AcDbEntity
  8
AM_VIS
100
AcDbLine
 10
2381.222785871221
 20
1364.160197058473
 30
0.0
 11
2381.222785871221
 21
1359.334244093494
 31
0.0
  0
LINE
  5
1FE9
330
1F
100
AcDbEntity
  8
AM_VIS
100
AcDbLine
 10
2367.36637941067
 20
1364.160197058407
 30
0.0
 11
2367.36637941067
 21
1359.334244093559
 31
0.0
  0
SPLINE
  5
1FEA
330
1F
100
AcDbEntity
  8
AM_VIS
100
AcDbSpline
210
-0.000000000000197
220
0.0000000000007238
230
1.0
 70
    12
 71
     2
 72
     6
 73
     3
 74
     0
 42
0.0000000001
 43
0.0000000001
 40
1.659973227756147
 40
1.659973227756147
 40
1.659973227756147
 40
5.403036174903967
 40
5.403036174903967
 40
5.403036174903967
 10
2381.222785871221
 20
1364.160197058472
 30
-0.0000000000001137
 41
1.03410688844913
 10
2380.294582641059
 20
1364.107332653485
 30
0.0
 41
1.055507145845105
 10
2379.490735063619
 20
1363.679109287921
 30
0.0
 41
1.0
  0
SPLINE
  5
1FEB
330
1F
100
AcDbEntity
  8
AM_VIS
100
AcDbSpline
210
0.0
220
0.0
230
1.0
 70
    12
 71
     2
 72
     6
 73
     3
 74
     0
 42
0.0000000001
 43
0.0000000001
 40
7.191629326319197
 40
7.191629326319197
 40
7.191629326319197
 40
9.146099121626482
 40
9.146099121626482
 40
9.146099121626482
 10
2380.294582641015
 20
1364.995573411169
 30
0.0
 41
1.035486799389563
 10
2380.73337575081
 20
1364.653757747187
 30
0.0
 41
1.045281201219494
 10
2381.222785871221
 20
1364.160197058473
 30
0.0
 41
1.034106888329904
  0
SPLINE
  5
1FEC
330
1F
100
AcDbEntity
  8
AM_VIS
100
AcDbSpline
210
0.0
220
0.0
230
1.0
 70
    12
 71
     2
 72
     6
 73
     3
 74
     0
 42
0.0000000001
 43
0.0000000001
 40
5.403036174764437
 40
5.403036174764437
 40
5.403036174764437
 40
9.146099121898842
 40
9.146099121898842
 40
9.146099121898842
 10
2369.098430218309
 20
1363.679109287902
 30
0.0
 41
1.0
 10
2368.294582640988
 20
1364.107332653402
 30
0.0
 41
1.055507145648788
 10
2367.366379410671
 20
1364.160197058407
 30
0.0
 41
1.03410688832679
  0
SPLINE
  5
1FED
330
1F
100
AcDbEntity
  8
AM_VIS
100
AcDbSpline
210
0.0000000000214334
220
-0.0000000000237602
230
1.0
 70
    12
 71
     2
 72
     6
 73
     3
 74
     0
 42
0.0000000001
 43
0.0000000001
 40
1.659973227776267
 40
1.659973227776267
 40
1.659973227776267
 40
3.614443023131926
 40
3.614443023131926
 40
3.614443023131926
 10
2367.366379410672
 20
1364.160197058407
 30
0.0
 41
1.034106888207565
 10
2367.855789531159
 20
1364.653757747197
 30
0.0
 41
1.045281201058844
 10
2368.294582641016
 20
1364.995573411234
 30
0.0000000000001137
 41
1.035486799263108
  0
SPLINE
  5
1FEE
330
1F
100
AcDbEntity
  8
AM_VIS
100
AcDbSpline
210
0.0
220
0.0
230
1.0
 70
    12
 71
     2
 72
     6
 73
     3
 74
     0
 42
0.0000000001
 43
0.0000000001
 40
5.403036174625142
 40
5.403036174625142
 40
5.403036174625142
 40
9.146099121474035
 40
9.146099121474035
 40
9.146099121474035
 10
2374.294582641015
 20
1362.756416171708
 30
0.0
 41
1.0
 10
2372.686887486723
 20
1362.756416171708
 30
0.0
 41
1.055507145448771
 10
2370.830481025945
 20
1362.314810826018
 30
0.0
 41
1.034106888207771
  0
SPLINE
  5
1FEF
330
1F
100
AcDbEntity
  8
AM_VIS
100
AcDbSpline
210
0.0
220
0.0
230
1.0
 70
    12
 71
     2
 72
     6
 73
     3
 74
     0
 42
0.0000000001
 43
0.0000000001
 40
1.659973227630266
 40
1.659973227630266
 40
1.659973227630266
 40
5.403036174764437
 40
5.403036174764437
 40
5.403036174764437
 10
2370.830481025947
 20
1362.31481082602
 30
0.0
 41
1.034106888326792
 10
2369.90227779563
 20
1363.250885922402
 30
0.0
 41
1.055507145648785
 10
2369.098430218309
 20
1363.679109287902
 30
0.0
 41
1.0
  0
SPLINE
  5
1FF0
330
1F
100
AcDbEntity
  8
AM_VIS
100
AcDbSpline
210
0.0000000000024739
220
-0.0000000000031184
230
-1.0
 70
    12
 71
     2
 72
     6
 73
     3
 74
     0
 42
0.0000000001
 43
0.0000000001
 40
5.403036174903967
 40
5.403036174903967
 40
5.403036174903967
 40
9.146099122187724
 40
9.146099122187724
 40
9.146099122187724
 10
2379.490735063619
 20
1363.679109287921
 30
0.0
 41
1.0
 10
2378.686887486148
 20
1363.250885922341
 30
0.0
 41
1.055507145847123
 10
2377.758684255947
 20
1362.314810826051
 30
0.0000000000001137
 41
1.034106888447576
  0
SPLINE
  5
1FF1
330
1F
100
AcDbEntity
  8
AM_VIS
100
AcDbSpline
210
0.0
220
0.0
230
1.0
 70
    12
 71
     2
 72
     6
 73
     3
 74
     0
 42
0.0000000001
 43
0.0000000001
 40
1.659973227912439
 40
1.659973227912439
 40
1.659973227912439
 40
5.403036174625142
 40
5.403036174625142
 40
5.403036174625142
 10
2377.758684255946
 20
1362.31481082605
 30
0.0
 41
1.034106888209327
 10
2375.902277795251
 20
1362.756416171708
 30
0.0
 41
1.055507145446749
 10
2374.294582641015
 20
1362.756416171708
 30
0.0
 41
1.0
  0
LINE
  5
1FF2
330
1F
100
AcDbEntity
  8
AM_VIS
100
AcDbLine
 10
2368.294582641015
 20
1358.498867740724
 30
0.0
 11
2368.294582641015
 21
1356.989584195758
 31
0.0
  0
LINE
  5
1FF3
330
1F
100
AcDbEntity
  8
AM_VIS
100
AcDbLine
 10
2380.294582641015
 20
1358.498867740789
 30
0.0
 11
2380.294582641015
 21
1356.989584195758
 31
0.0
  0
LINE
  5
1FF4
330
1F
100
AcDbEntity
  8
AM_VIS
100
AcDbLine
 10
2369.71691898022
 20
1357.699661789568
 30
0.0
 11
2369.642301791751
 21
1357.726746410222
 31
0.0
  0
LINE
  5
1FF5
330
1F
100
AcDbEntity
  8
AM_VIS
100
AcDbLine
 10
2378.87224630181
 20
1357.699661789568
 30
0.0
 11
2378.946863490206
 21
1357.726746410196
 31
0.0
  0
LINE
  5
1FF6
330
1F
100
AcDbEntity
  8
AM_VIS
100
AcDbLine
 10
2380.294582641015
 20
1364.60180240406
 30
0.0
 11
2380.294582641015
 21
1366.504856956135
 31
0.0
  0
LINE
  5
1FF7
330
1F
100
AcDbEntity
  8
AM_VIS
100
AcDbLine
 10
2368.294582641015
 20
1364.60180240406
 30
0.0
 11
2368.294582641015
 21
1366.504856956135
 31
0.0
  0
ELLIPSE
  5
1FF8
330
1F
100
AcDbEntity
  8
AM_VIS
100
AcDbEllipse
 10
2374.294582641015
 20
1356.989584195758
 30
0.0
 11
6.0
 21
0.0
 31
0.0
210
0.0
220
0.0
230
1.0
 40
0.3075643720526197
 41
3.141592653589855
 42
6.283185307179647
  0
ELLIPSE
  5
1FF9
330
1F
100
AcDbEntity
  8
AM_VIS
100
AcDbEllipse
 10
2374.294582641015
 20
1358.892638747833
 30
0.0
 11
5.999999999999767
 21
0.0000000000002841
 31
0.0
210
0.0
220
0.0
230
1.0
 40
0.3075643720526505
 41
3.844534109283967
 42
4.71238898038475
  0
ELLIPSE
  5
1FFA
330
1F
100
AcDbEntity
  8
AM_VIS
100
AcDbEllipse
 10
2374.294582641015
 20
1358.892638747833
 30
0.0
 11
-5.99999999999947
 21
0.000000000000075
 31
0.0
210
0.0
220
0.0
230
1.0
 40
0.3075643720526658
 41
1.570796326794976
 42
2.438651197895666
  0
ELLIPSE
  5
1FFB
330
1F
100
AcDbEntity
  8
AM_VIS
100
AcDbEllipse
 10
2374.294582641015
 20
1364.60180240406
 30
0.0
 11
-5.999999999999999
 21
0.0000000000003747
 31
0.0
210
0.0
220
0.0
230
1.0
 40
0.3075643720524852
 41
2.61799387799155
 42
3.141592653589996
  0
ELLIPSE
  5
1FFC
330
1F
100
AcDbEntity
  8
AM_VIS
100
AcDbEllipse
 10
2374.294582641015
 20
1364.60180240406
 30
0.0
 11
-5.999999999999114
 21
0.0000000000003095
 31
0.0
210
0.0
220
0.0
230
1.0
 40
0.307564372052684
 41
1.570796326794988
 42
2.617993877991803
  0
ELLIPSE
  5
1FFD
330
1F
100
AcDbEntity
  8
AM_VIS
100
AcDbEllipse
 10
2374.294582641015
 20
1364.60180240406
 30
0.0
 11
5.999999999999435
 21
0.0000000000003921
 31
0.0
210
0.0
220
0.0
230
1.0
 40
0.3075643720526676
 41
3.665191429188021
 42
4.712388980384745
  0
ELLIPSE
  5
1FFE
330
1F
100
AcDbEntity
  8
AM_VIS
100
AcDbEllipse
 10
2374.294582641015
 20
1364.60180240406
 30
0.0
 11
-6.0
 21
0.0000000000004906
 31
0.0
210
0.0
220
0.0
230
1.0
 40
0.307564372052782
 41
0.0000000000002653
 42
0.5235987755984369
  0
ELLIPSE
  5
1FFF
330
1F
100
AcDbEntity
  8
AM_VIS
100
AcDbEllipse
 10
2374.294582641015
 20
1366.504856956135
 30
0.0
 11
-6.00000000000023
 21
0.0000000000000896
 31
0.0
210
0.0
220
0.0
230
1.0
 40
0.3075643720526268
 41
-1.047197551196527
 42
4.188790204786418
  0
LINE
  5
2000
330
1F
100
AcDbEntity
  8
AM_VIS
100
AcDbLine
 10
2369.156165245227
 20
1356.036796300735
 30
0.0
 11
2369.156165245227
 21
1343.721025061638
 31
0.0
  0
LINE
  5
2001
330
1F
100
AcDbEntity
  8
AM_VIS
100
AcDbLine
 10
2379.433000036803
 20
1356.036796300735
 30
0.0
 11
2379.433000036803
 21
1351.439596693549
 31
0.0
  0
LINE
  5
2002
330
1F
100
AcDbEntity
  8
AM_VIS
100
AcDbLine
 10
2376.863791338909
 20
1347.626263084036
 30
0.0
 11
2379.433000036803
 21
1351.43959669355
 31
0.0
  0
LINE
  5
2003
330
1F
100
AcDbEntity
  8
AM_VIS
100
AcDbLine
 10
2379.433000036803
 20
1351.43959669355
 30
0.0
 11
2387.366379410671
 21
1351.43959669355
 31
0.0
  0
LINE
  5
2004
330
1F
100
AcDbEntity
  8
AM_VIS
100
AcDbLine
 10
2387.366379410671
 20
1341.660908078032
 30
0.0
 11
2371.321228754688
 21
1341.660908078032
 31
0.0
  0
LINE
  5
2005
330
1F
100
AcDbEntity
  8
AM_VIS
100
AcDbLine
 10
2371.725373943122
 20
1355.321939463496
 30
0.0
 11
2371.725373943122
 21
1344.797035759883
 31
0.0
  0
LINE
  5
2006
330
1F
100
AcDbEntity
  8
AM_VIS
100
AcDbLine
 10
2376.863791338909
 20
1355.321939463496
 30
0.0
 11
2376.863791338909
 21
1347.626263084036
 31
0.0
  0
LINE
  5
2007
330
1F
100
AcDbEntity
  8
AM_VIS
100
AcDbLine
 10
2376.863791338909
 20
1347.626263084036
 30
0.0
 11
2387.366379410671
 21
1347.626263084036
 31
0.0
  0
LINE
  5
2008
330
1F
100
AcDbEntity
  8
AM_VIS
100
AcDbLine
 10
2387.366379410671
 20
1342.736918776277
 30
0.0
 11
2373.890437452583
 21
1342.736918776277
 31
0.0
  0
LINE
  5
2009
330
1F
100
AcDbEntity
  8
AM_VIS
100
AcDbLine
 10
2371.321228754688
 20
1341.660908078032
 30
0.0
 11
2373.890437452583
 21
1342.736918776277
 31
0.0
  0
LINE
  5
200A
330
1F
100
AcDbEntity
  8
AM_VIS
100
AcDbLine
 10
2371.725373943122
 20
1344.797035759883
 30
0.0
 11
2369.156165245227
 21
1343.721025061638
 31
0.0
  0
ELLIPSE
  5
200B
330
1F
100
AcDbEntity
  8
AM_VIS
100
AcDbEllipse
 10
2374.61212528907
 20
1345.483741421085
 30
0.0
 11
2.439541296877547
 21
2.002242542508869
 31
0.0
210
0.0
220
0.0
230
0.9999999999999998
 40
0.7708175679741927
 41
2.577514653441575
 42
3.895630725094287
  0
ELLIPSE
  5
200C
330
1F
100
AcDbEntity
  8
AM_VIS
100
AcDbEllipse
 10
2372.042916591176
 20
1344.40773072284
 30
0.0
 11
2.439541296877547
 21
2.002242542508869
 31
0.0
210
0.0
220
0.0
230
0.9999999999999998
 40
0.7708175679741927
 41
2.577514653441575
 42
3.895630725094287
  0
LINE
  5
200D
330
1F
100
AcDbEntity
  8
AM_VIS
100
AcDbLine
 10
2371.294582641015
 20
1423.997496458467
 30
0.0
 11
2371.294582641015
 21
1366.504856956135
 31
0.0
  0
LINE
  5
200E
330
1F
100
AcDbEntity
  8
AM_VIS
100
AcDbLine
 10
2377.294582641015
 20
1423.997496458466
 30
0.0
 11
2377.294582641015
 21
1366.504856956135
 31
0.0
  0
LINE
  5
206C
330
1F
100
AcDbEntity
  8
AM_VIS
100
AcDbLine
 10
2217.279750068104
 20
1578.683363986793
 30
0.0
 11
2218.839654056762
 21
1578.683363986793
 31
0.0
  0
LINE
  5
206D
330
1F
100
AcDbEntity
  8
AM_VIS
100
AcDbLine
 10
2217.279750068115
 20
1571.755160756794
 30
0.0
 11
2218.839654056752
 21
1571.755160756794
 31
0.0
  0
SPLINE
  5
206E
330
1F
100
AcDbEntity
  8
AM_VIS
100
AcDbSpline
210
-0.0000000000001817
220
0.0000000000000098
230
1.0
 70
    12
 71
     2
 72
     6
 73
     3
 74
     0
 42
0.0000000001
 43
0.0000000001
 40
1.65997322777625
 40
1.65997322777625
 40
1.65997322777625
 40
5.403036174625144
 40
5.403036174625144
 40
5.403036174625144
 10
2218.839654056754
 20
1571.755160756794
 30
0.0000000000000071
 41
1.034106888207774
 10
2218.98239517859
 20
1573.611567217571
 30
0.0
 41
1.055507145448775
 10
2218.982395178591
 20
1575.219262371862
 30
0.0
 41
1.0
  0
LINE
  5
206F
330
1F
100
AcDbEntity
  8
AM_VIS
100
AcDbLine
 10
2221.843329150294
 20
1570.034127769673
 30
0.0
 11
2218.844278195186
 21
1571.763181345043
 31
0.0
  0
LINE
  5
2070
330
1F
100
AcDbEntity
  8
AM_VIS
100
AcDbLine
 10
2224.562846028171
 20
1568.295404345813
 30
0.0
 11
2221.843730896236
 21
1570.033674819922
 31
0.0
  0
LINE
  5
2071
330
1F
100
AcDbEntity
  8
AM_VIS
100
AcDbLine
 10
2223.659433394862
 20
1581.554094515446
 30
0.0
 11
2221.83996866229
 21
1580.410654412607
 31
0.0
  0
SPLINE
  5
2072
330
1F
100
AcDbEntity
  8
AM_VIS
100
AcDbSpline
210
0.0
220
0.0
230
1.0
 70
    12
 71
     2
 72
     6
 73
     3
 74
     0
 42
0.0000000001
 43
0.0000000001
 40
5.403036174625144
 40
5.403036174625144
 40
5.403036174625144
 40
9.146099121337847
 40
9.146099121337847
 40
9.146099121337847
 10
2218.982395178591
 20
1575.219262371862
 30
0.0
 41
1.0
 10
2218.982395178592
 20
1576.826957526097
 30
0.0
 41
1.055507145446752
 10
2218.839654056761
 20
1578.683363986792
 30
0.0
 41
1.034106888209329
  0
LINE
  5
2073
330
1F
100
AcDbEntity
  8
AM_VIS
100
AcDbLine
 10
2221.84332915035
 20
1580.404396973949
 30
0.0
 11
2218.844278195199
 21
1578.675343398541
 31
0.0
  0
LINE
  5
2074
330
1F
100
AcDbEntity
  8
AM_VIS
100
AcDbLine
 10
2222.988913724547
 20
1582.147465602069
 30
0.0
 11
2223.656523614757
 21
1582.147465602069
 31
0.0
  0
LINE
  5
2075
330
1F
100
AcDbEntity
  8
AM_VIS
100
AcDbLine
 10
2222.988913724568
 20
1568.291059141518
 30
0.0
 11
2224.55518133997
 21
1568.291059141518
 31
0.0
  0
LINE
  5
2076
330
1F
100
AcDbEntity
  8
AM_VIS
100
AcDbLine
 10
2226.37140067347
 20
1569.320695812979
 30
0.0
 11
2224.555181339969
 21
1568.291059141518
 31
0.0
  0
LINE
  5
2077
330
1F
100
AcDbEntity
  8
AM_VIS
100
AcDbLine
 10
2222.98428958611
 20
1582.155486190321
 30
0.0
 11
2219.985238631083
 21
1580.426432614981
 31
0.0
  0
LINE
  5
2078
330
1F
100
AcDbEntity
  8
AM_VIS
100
AcDbLine
 10
2222.984289586133
 20
1568.283038553268
 30
0.0
 11
2219.985238631026
 21
1570.012092128638
 31
0.0
  0
SPLINE
  5
2079
330
1F
100
AcDbEntity
  8
AM_VIS
100
AcDbSpline
210
0.0000000000000085
220
0.0000000000000005
230
1.0
 70
    12
 71
     2
 72
     6
 73
     3
 74
     0
 42
0.0000000001
 43
0.0000000001
 40
5.403036174625142
 40
5.403036174625142
 40
5.403036174625142
 40
9.146099121474035
 40
9.146099121474035
 40
9.146099121474035
 10
2217.137008946275
 20
1575.219262371863
 30
0.0
 41
1.0
 10
2217.137008946274
 20
1573.611567217571
 30
-0.0000000000000071
 41
1.055507145448771
 10
2217.279750068115
 20
1571.755160756793
 30
0.0
 41
1.034106888207771
  0
LINE
  5
207A
330
1F
100
AcDbEntity
  8
AM_VIS
100
AcDbLine
 10
2219.984836885084
 20
1570.012545078389
 30
0.0
 11
2217.273708343833
 21
1571.745709900807
 31
0.0
  0
LINE
  5
207B
330
1F
100
AcDbEntity
  8
AM_VIS
100
AcDbLine
 10
2219.984836885142
 20
1580.42597966523
 30
0.0
 11
2217.27370834382
 21
1578.692814842783
 31
0.0
  0
SPLINE
  5
207C
330
1F
100
AcDbEntity
  8
AM_VIS
100
AcDbSpline
210
0.0
220
0.0
230
1.0
 70
    12
 71
     2
 72
     6
 73
     3
 74
     0
 42
0.0000000001
 43
0.0000000001
 40
1.659973227912439
 40
1.659973227912439
 40
1.659973227912439
 40
5.403036174625142
 40
5.403036174625142
 40
5.403036174625142
 10
2217.279750068104
 20
1578.683363986793
 30
0.0
 41
1.034106888209327
 10
2217.137008946274
 20
1576.826957526098
 30
0.0
 41
1.055507145446749
 10
2217.137008946275
 20
1575.219262371863
 30
0.0
 41
1.0
  0
LINE
  5
207D
330
1F
100
AcDbEntity
  8
AM_VIS
100
AcDbLine
 10
2224.691558834931
 20
1569.219262371863
 30
0.0
 11
2225.306687579037
 21
1569.219262371863
 31
0.0
  0
ELLIPSE
  5
207E
330
1F
100
AcDbEntity
  8
AM_VIS
100
AcDbEllipse
 10
2225.306687579037
 20
1575.219262371863
 30
0.0
 11
0.0000000000003201
 21
5.999999999999948
 31
0.0
210
0.0
220
0.0
230
1.0
 40
0.9515272760377694
 41
0.2932215596449958
 42
3.684127058615994
  0
ELLIPSE
  5
207F
330
1F
100
AcDbEntity
  8
AM_VIS
100
AcDbEllipse
 10
2224.691558834931
 20
1575.219262371863
 30
0.0
 11
-0.0000000000129973
 21
6.000000000000662
 31
0.0
210
0.0
220
0.0
230
1.0
 40
0.9515272760376936
 41
1.570796326792873
 42
2.617993877989356
  0
ELLIPSE
  5
2080
330
1F
100
AcDbEntity
  8
AM_VIS
100
AcDbEllipse
 10
2224.691558834931
 20
1575.219262371863
 30
0.0
 11
0.0000000000064611
 21
6.0
 31
0.0
210
0.0
220
0.0
230
1.0
 40
0.951527276037582
 41
2.617993877992631
 42
3.141592653590923
  0
ELLIPSE
  5
2081
330
1F
100
AcDbEntity
  8
AM_VIS
100
AcDbEllipse
 10
2224.691558834931
 20
1575.219262371863
 30
0.0
 11
0.0000000000225805
 21
6.000000000000454
 31
0.0
210
0.0
220
0.0
230
1.0
 40
0.9515272760380147
 41
0.182301758707575
 42
0.5235987756021246
  0
ELLIPSE
  5
2082
330
1F
100
AcDbEntity
  8
AM_VIS
100
AcDbEllipse
 10
2224.691558834931
 20
1575.219262371863
 30
0.0
 11
0.0000000000074812
 21
6.000000000000458
 31
0.0
210
0.0
220
0.0
230
1.0
 40
0.9515272760377261
 41
0.523598775599655
 42
1.57079632679612
  0
ELLIPSE
  5
2083
330
1F
100
AcDbEntity
  8
AM_VIS
100
AcDbEllipse
 10
2222.23104385851
 20
1575.219262371863
 30
0.0
 11
0.0000000000020733
 21
5.999999999999919
 31
0.0
210
0.0
220
0.0
230
1.0
 40
0.9515272760378124
 41
0.1872426603626061
 42
0.8769391018616419
  0
ELLIPSE
  5
2084
330
1F
100
AcDbEntity
  8
AM_VIS
100
AcDbEllipse
 10
2222.23104385851
 20
1575.219262371863
 30
0.0
 11
0.0000000000026218
 21
5.999999999999412
 31
0.0
210
0.0
220
0.0
230
1.0
 40
0.951527276037892
 41
1.063811331433138
 42
2.077781322157572
  0
ELLIPSE
  5
2085
330
1F
100
AcDbEntity
  8
AM_VIS
100
AcDbEllipse
 10
2222.23104385851
 20
1575.219262371863
 30
0.0
 11
0.0000000000015018
 21
5.999999999999927
 31
0.0
210
0.0
220
0.0
230
1.0
 40
0.9515272760377566
 41
2.264653551787621
 42
2.954349993167081
  0
LINE
  5
2086
330
1F
100
AcDbEntity
  8
AM_VIS
100
AcDbLine
 10
2221.072391200669
 20
1577.788471069756
 30
0.0
 11
2223.656523614757
 21
1579.356423542027
 31
0.0
  0
LINE
  5
2087
330
1F
100
AcDbEntity
  8
AM_VIS
100
AcDbLine
 10
2225.306687579037
 20
1570.080844976075
 30
0.0
 11
2221.072391200669
 21
1572.650053673969
 31
0.0
  0
LINE
  5
2088
330
1F
100
AcDbEntity
  8
AM_VIS
100
AcDbLine
 10
2225.306687579037
 20
1570.080844976075
 30
0.0
 11
2229.595514773905
 21
1570.080844976075
 31
0.0
  0
LINE
  5
2089
330
1F
100
AcDbEntity
  8
AM_VIS
100
AcDbLine
 10
2233.705510491173
 20
1589.129008631733
 30
0.0
 11
2233.705510491173
 21
1574.81511718343
 31
0.0
  0
LINE
  5
208A
330
1F
100
AcDbEntity
  8
AM_VIS
100
AcDbLine
 10
2230.261411172645
 20
1589.129008631732
 30
0.0
 11
2230.261411172645
 21
1572.245908485536
 31
0.0
  0
LINE
  5
208B
330
1F
100
AcDbEntity
  8
AM_VIS
100
AcDbLine
 10
2221.072391200669
 20
1572.650053673969
 30
0.0
 11
2224.571021335696
 21
1572.650053673968
 31
0.0
  0
LINE
  5
208C
330
1F
100
AcDbEntity
  8
AM_VIS
100
AcDbLine
 10
2221.072391200669
 20
1572.650053673969
 30
0.0
 11
2221.072391200669
 21
1577.788471069756
 31
0.0
  0
LINE
  5
208D
330
1F
100
AcDbEntity
  8
AM_VIS
100
AcDbLine
 10
2221.072391200669
 20
1577.788471069756
 30
0.0
 11
2223.656523614758
 21
1577.788471069756
 31
0.0
  0
LINE
  5
208E
330
1F
100
AcDbEntity
  8
AM_VIS
100
AcDbLine
 10
2223.656523614758
 20
1577.788471069756
 30
0.0
 11
2223.656523614757
 21
1589.129008631732
 31
0.0
  0
LINE
  5
208F
330
1F
100
AcDbEntity
  8
AM_VIS
100
AcDbLine
 10
2225.236917734437
 20
1589.129008631732
 30
0.0
 11
2225.236917734437
 21
1574.815117183429
 31
0.0
  0
LINE
  5
2090
330
1F
100
AcDbEntity
  8
AM_VIS
100
AcDbLine
 10
2230.261411172645
 20
1572.245908485536
 30
0.0
 11
2225.236917734437
 21
1574.815117183429
 31
0.0
  0
LINE
  5
2091
330
1F
100
AcDbEntity
  8
AM_VIS
100
AcDbLine
 10
2224.571021335696
 20
1572.650053673968
 30
0.0
 11
2229.595514773905
 21
1570.080844976075
 31
0.0
  0
ELLIPSE
  5
2092
330
1F
100
AcDbEntity
  8
AM_VIS
100
AcDbEllipse
 10
2224.349055869449
 20
1575.536805019916
 30
0.0
 11
-0.2433374462155968
 21
2.885853346505714
 31
0.0
210
0.0
220
0.0
230
1.0
 40
0.2958795821057225
 41
3.116649026696846
 42
4.434765098349628
  0
ELLIPSE
  5
2093
330
1F
100
AcDbEntity
  8
AM_VIS
100
AcDbEllipse
 10
2229.373549307656
 20
1572.967596322023
 30
0.0
 11
-0.2433374462155968
 21
2.885853346505714
 31
0.0
210
0.0
220
0.0
230
1.0
 40
0.2958795821057225
 41
3.116649026696846
 42
4.434765098349628
  0
LINE
  5
2094
330
1F
100
AcDbEntity
  8
AM_VIS
100
AcDbLine
 10
2233.705510491173
 20
1574.81511718343
 30
0.0
 11
2230.261411172645
 21
1572.245908485536
 31
0.0
  0
ELLIPSE
  5
2095
330
1F
100
AcDbEntity
  8
AM_VIS
100
AcDbEllipse
 10
2232.817648626186
 20
1575.536805019917
 30
0.0
 11
-0.2433374462165025
 21
2.885853346505177
 31
0.0
210
0.0
220
0.0
230
1.0
 40
0.2958795821056884
 41
3.323735587157658
 42
4.434765098348753
  0
LINE
  5
2096
330
1F
100
AcDbEntity
  8
AM_VIS
100
AcDbLine
 10
2229.767528376445
 20
1570.142523021405
 30
0.0
 11
2233.211627694974
 21
1572.711731719299
 31
0.0
  0
LINE
  5
2097
330
1F
100
AcDbEntity
  8
AM_VIS
100
AcDbLine
 10
2197.809139553471
 20
1580.425979665333
 30
0.0
 11
2195.098011012426
 21
1578.692814843053
 31
0.0
  0
LINE
  5
2098
330
1F
100
AcDbEntity
  8
AM_VIS
100
AcDbLine
 10
2200.80859225427
 20
1582.155486190317
 30
0.0
 11
2197.809541299413
 21
1580.426432615084
 31
0.0
  0
LINE
  5
2099
330
1F
100
AcDbEntity
  8
AM_VIS
100
AcDbLine
 10
2202.373120381385
 20
1582.147465602068
 30
0.0
 11
2200.813216392705
 21
1582.147465602068
 31
0.0
  0
SPLINE
  5
209A
330
1F
100
AcDbEntity
  8
AM_VIS
100
AcDbSpline
210
0.0
220
0.0
230
1.0
 70
    12
 71
     2
 72
     6
 73
     3
 74
     0
 42
0.0000000001
 43
0.0000000001
 40
5.403036174903729
 40
5.403036174903729
 40
5.403036174903729
 40
9.14609912218747
 40
9.14609912218747
 40
9.14609912218747
 10
2194.961311614889
 20
1575.219262371861
 30
0.0
 41
1.0
 10
2194.961311614889
 20
1573.611567216923
 30
0.0
 41
1.055507145846788
 10
2195.104052736716
 20
1571.755160756517
 30
0.0
 41
1.034106888447367
  0
SPLINE
  5
209B
330
1F
100
AcDbEntity
  8
AM_VIS
100
AcDbSpline
210
0.0
220
0.0
230
1.0
 70
    12
 71
     2
 72
     6
 73
     3
 74
     0
 42
0.0000000001
 43
0.0000000001
 40
1.659973227756171
 40
1.659973227756171
 40
1.659973227756171
 40
5.403036174903729
 40
5.403036174903729
 40
5.403036174903729
 10
2195.104052736704
 20
1578.683363987066
 30
0.0
 41
1.034106888448917
 10
2194.961311614889
 20
1576.826957526743
 30
0.0
 41
1.055507145844757
 10
2194.961311614889
 20
1575.219262371861
 30
0.0
 41
1.0
  0
LINE
  5
209C
330
1F
100
AcDbEntity
  8
AM_VIS
100
AcDbLine
 10
2196.663956725386
 20
1578.683363987068
 30
0.0
 11
2195.104052736706
 21
1578.683363987068
 31
0.0
  0
LINE
  5
209D
330
1F
100
AcDbEntity
  8
AM_VIS
100
AcDbLine
 10
2202.373120381365
 20
1568.291059141517
 30
0.0
 11
2200.813216392727
 21
1568.291059141517
 31
0.0
  0
LINE
  5
209E
330
1F
100
AcDbEntity
  8
AM_VIS
100
AcDbLine
 10
2200.808592254294
 20
1568.283038553271
 30
0.0
 11
2197.809541299355
 21
1570.012092128533
 31
0.0
  0
LINE
  5
209F
330
1F
100
AcDbEntity
  8
AM_VIS
100
AcDbLine
 10
2197.809139553414
 20
1570.012545078286
 30
0.0
 11
2195.098011012438
 21
1571.745709900535
 31
0.0
  0
LINE
  5
20A0
330
1F
100
AcDbEntity
  8
AM_VIS
100
AcDbLine
 10
2196.663956725376
 20
1571.755160756517
 30
0.0
 11
2195.104052736717
 21
1571.755160756517
 31
0.0
  0
LINE
  5
20A1
330
1F
100
AcDbEntity
  8
AM_VIS
100
AcDbLine
 10
2204.195703341172
 20
1581.117828930881
 30
0.0
 11
2202.374668147479
 21
1582.150195771634
 31
0.0
  0
LINE
  5
20A2
330
1F
100
AcDbEntity
  8
AM_VIS
100
AcDbLine
 10
2202.379162105666
 20
1582.138014746083
 30
0.0
 11
2199.668033564621
 21
1580.404849923804
 31
0.0
  0
LINE
  5
20A3
330
1F
100
AcDbEntity
  8
AM_VIS
100
AcDbLine
 10
2199.667631818679
 20
1580.404396974052
 30
0.0
 11
2196.66858086382
 21
1578.675343398819
 31
0.0
  0
SPLINE
  5
20A4
330
1F
100
AcDbEntity
  8
AM_VIS
100
AcDbSpline
210
0.0
220
0.0
230
1.0
 70
    12
 71
     2
 72
     6
 73
     3
 74
     0
 42
0.0000000001
 43
0.0000000001
 40
5.403036174903726
 40
5.403036174903726
 40
5.403036174903726
 40
9.146099122051285
 40
9.146099122051285
 40
9.146099122051285
 10
2196.806697847204
 20
1575.219262371861
 30
0.0
 41
1.0
 10
2196.806697847204
 20
1576.826957526744
 30
0.0
 41
1.055507145844764
 10
2196.663956725386
 20
1578.683363987068
 30
0.0
 41
1.034106888448921
  0
SPLINE
  5
20A5
330
1F
100
AcDbEntity
  8
AM_VIS
100
AcDbSpline
210
0.0000000000001817
220
-0.0000000000000098
230
1.0
 70
    12
 71
     2
 72
     6
 73
     3
 74
     0
 42
0.0000000001
 43
0.0000000001
 40
1.659973227619985
 40
1.659973227619985
 40
1.659973227619985
 40
5.403036174903726
 40
5.403036174903726
 40
5.403036174903726
 10
2196.663956725377
 20
1571.755160756516
 30
-0.0000000000000071
 41
1.034106888447368
 10
2196.806697847204
 20
1573.611567216924
 30
0.0
 41
1.05550714584679
 10
2196.806697847204
 20
1575.219262371861
 30
0.0
 41
1.0
  0
LINE
  5
20A6
330
1F
100
AcDbEntity
  8
AM_VIS
100
AcDbLine
 10
2199.667631818623
 20
1570.034127769569
 30
0.0
 11
2196.668580863809
 21
1571.763181344763
 31
0.0
  0
LINE
  5
20A7
330
1F
100
AcDbEntity
  8
AM_VIS
100
AcDbLine
 10
2204.195703341514
 20
1569.320695812909
 30
0.0
 11
2202.374668147459
 21
1568.288328971951
 31
0.0
  0
LINE
  5
20A8
330
1F
100
AcDbEntity
  8
AM_VIS
100
AcDbLine
 10
2202.379162105644
 20
1568.3005099975
 30
0.0
 11
2199.668033564565
 21
1570.033674819818
 31
0.0
  0
LINE
  5
20A9
330
1F
100
AcDbEntity
  8
AM_VIS
100
AcDbLine
 10
2208.116435868868
 20
1572.219239044258
 30
0.0
 11
2208.082588511526
 21
1571.755138551192
 31
0.0
  0
LINE
  5
20AA
330
1F
100
AcDbEntity
  8
AM_VIS
100
AcDbLine
 10
2208.082531675027
 20
1571.754787499351
 30
0.0
 11
2207.520371939159
 21
1571.381823286878
 31
0.0
  0
LINE
  5
20AB
330
1F
100
AcDbEntity
  8
AM_VIS
100
AcDbLine
 10
2208.082531675037
 20
1578.683737244235
 30
0.0
 11
2207.520371939372
 21
1579.056701456575
 31
0.0
  0
LINE
  5
20AC
330
1F
100
AcDbEntity
  8
AM_VIS
100
AcDbLine
 10
2208.116435868867
 20
1578.219285699465
 30
0.0
 11
2208.082588511536
 21
1578.683386192394
 31
0.0
  0
LINE
  5
20AD
330
1F
100
AcDbEntity
  8
AM_VIS
100
AcDbLine
 10
2202.515861503317
 20
1569.219262371862
 30
0.0
 11
2203.130990247422
 21
1569.219262371862
 31
0.0
  0
LINE
  5
20AE
330
1F
100
AcDbEntity
  8
AM_VIS
100
AcDbLine
 10
2202.515861503317
 20
1581.219262371862
 30
0.0
 11
2203.130990247422
 21
1581.219262371862
 31
0.0
  0
ELLIPSE
  5
20AF
330
1F
100
AcDbEntity
  8
AM_VIS
100
AcDbEllipse
 10
2200.055346526896
 20
1575.219262371861
 30
0.0
 11
0.0000000000002724
 21
5.999999999999908
 31
0.0
210
0.0
220
0.0
230
1.0
 40
0.9515272760378127
 41
2.264653551846137
 42
2.954349993105831
  0
ELLIPSE
  5
20B0
330
1F
100
AcDbEntity
  8
AM_VIS
100
AcDbEllipse
 10
2200.055346526896
 20
1575.219262371861
 30
0.0
 11
-0.0000000000043326
 21
5.999999999999923
 31
0.0
210
0.0
220
0.0
230
1.0
 40
0.9515272760377413
 41
0.1872426604224622
 42
0.8769391018018204
  0
ELLIPSE
  5
20B1
330
1F
100
AcDbEntity
  8
AM_VIS
100
AcDbEllipse
 10
2200.055346526896
 20
1575.219262371861
 30
0.0
 11
0.0000000000026218
 21
5.999999999999511
 31
0.0
210
0.0
220
0.0
230
1.0
 40
0.9515272760378763
 41
1.063811331353083
 42
2.077781322237627
  0
ELLIPSE
  5
20B2
330
1F
100
AcDbEntity
  8
AM_VIS
100
AcDbEllipse
 10
2202.515861503317
 20
1575.219262371861
 30
0.0
 11
0.000000000011435
 21
6.000000000000684
 31
0.0
210
0.0
220
0.0
230
1.0
 40
0.9515272760376902
 41
0.5235987756003478
 42
1.570796326796785
  0
ELLIPSE
  5
20B3
330
1F
100
AcDbEntity
  8
AM_VIS
100
AcDbEllipse
 10
2202.515861503317
 20
1575.219262371861
 30
0.0
 11
0.0000000000023967
 21
6.0
 31
0.0
210
0.0
220
0.0
230
1.0
 40
0.9515272760378771
 41
0.0000000000004197
 42
0.5235987755987166
  0
ELLIPSE
  5
20B4
330
1F
100
AcDbEntity
  8
AM_VIS
100
AcDbEllipse
 10
2202.515861503317
 20
1575.219262371861
 30
0.0
 11
-0.0000000000108498
 21
5.999999999999999
 31
0.0
210
0.0
220
0.0
230
1.0
 40
0.9515272760380819
 41
2.61799387798981
 42
3.141592653587892
  0
ELLIPSE
  5
20B5
330
1F
100
AcDbEntity
  8
AM_VIS
100
AcDbEllipse
 10
2202.515861503317
 20
1575.219262371861
 30
0.0
 11
0.0000000000009461
 21
5.999999999999917
 31
0.0
210
0.0
220
0.0
230
1.0
 40
0.9515272760378119
 41
1.570796326795122
 42
2.617993877991706
  0
ELLIPSE
  5
20B6
330
1F
100
AcDbEntity
  8
AM_VIS
100
AcDbEllipse
 10
2203.130990247422
 20
1575.219262371861
 30
0.0
 11
0.0000000000026366
 21
5.999999999999626
 31
0.0
210
0.0
220
0.0
230
1.0
 40
0.951527276037858
 41
-1.047197551196099
 42
4.188790204786816
  0
LINE
  5
20B7
330
1F
100
AcDbEntity
  8
AM_VIS
100
AcDbLine
 10
2197.107658976668
 20
1570.080844976074
 30
0.0
 11
2195.766519332029
 21
1570.080844976074
 31
0.0
  0
LINE
  5
20B8
330
1F
100
AcDbEntity
  8
AM_VIS
100
AcDbLine
 10
2194.896070636461
 20
1572.650053673968
 30
0.0
 11
2192.3224200135
 21
1572.650053673968
 31
0.0
  0
LINE
  5
20B9
330
1F
100
AcDbEntity
  8
AM_VIS
100
AcDbLine
 10
2194.896070636461
 20
1577.788471069755
 30
0.0
 11
2193.236917734438
 21
1577.788471069755
 31
0.0
  0
LINE
  5
20BA
330
1F
100
AcDbEntity
  8
AM_VIS
100
AcDbLine
 10
2193.236917734438
 20
1577.788471069755
 30
0.0
 11
2193.236917734438
 21
1589.129008631731
 31
0.0
  0
LINE
  5
20BB
330
1F
100
AcDbEntity
  8
AM_VIS
100
AcDbLine
 10
2198.261411172646
 20
1580.915362859873
 30
0.0
 11
2198.261411172646
 21
1589.129008631731
 31
0.0
  0
LINE
  5
20BC
330
1F
100
AcDbEntity
  8
AM_VIS
100
AcDbLine
 10
2195.492916905328
 20
1578.94204660201
 30
0.0
 11
2193.236917734439
 21
1577.788471069755
 31
0.0
  0
LINE
  5
20BD
330
1F
100
AcDbEntity
  8
AM_VIS
100
AcDbLine
 10
2191.656523614758
 20
1589.129008631731
 30
0.0
 11
2191.656523614759
 21
1574.815117183428
 31
0.0
  0
LINE
  5
20BE
330
1F
100
AcDbEntity
  8
AM_VIS
100
AcDbLine
 10
2201.705510491175
 20
1582.147465602068
 30
0.0
 11
2201.705510491175
 21
1589.129008631732
 31
0.0
  0
LINE
  5
20BF
330
1F
100
AcDbEntity
  8
AM_VIS
100
AcDbLine
 10
2195.766519332029
 20
1570.080844976074
 30
0.0
 11
2192.3224200135
 21
1572.650053673968
 31
0.0
  0
ELLIPSE
  5
20C0
330
1F
100
AcDbEntity
  8
AM_VIS
100
AcDbEllipse
 10
2195.988484798276
 20
1572.967596322022
 30
0.0
 11
0.2433374462145879
 21
2.885853346505717
 31
0.0
210
0.0
220
0.0
230
0.9999999999999998
 40
0.2958795821065388
 41
2.959449720020155
 42
3.166536280481497
  0
ELLIPSE
  5
20C1
330
1F
100
AcDbEntity
  8
AM_VIS
100
AcDbEllipse
 10
2192.544385479748
 20
1575.536805019915
 30
0.0
 11
0.2433374462156562
 21
2.885853346505714
 31
0.0
210
0.0
220
0.0
230
1.0
 40
0.2958795821057167
 41
1.848420208830776
 42
3.166536280483867
  0
LINE
  5
20C2
330
1F
100
AcDbEntity
  8
AM_VIS
100
AcDbLine
 10
2195.594505729488
 20
1570.142523021404
 30
0.0
 11
2192.150406410959
 21
1572.711731719298
 31
0.0
  0
LINE
  5
20C3
330
1F
100
AcDbEntity
  8
AM_VIS
100
AcDbLine
 10
2217.245918095184
 20
1578.219262371862
 30
0.0
 11
2203.130990247423
 21
1578.219262371862
 31
0.0
  0
LINE
  5
20C4
330
1F
100
AcDbEntity
  8
AM_VIS
100
AcDbLine
 10
2217.245918095184
 20
1572.219262371862
 30
0.0
 11
2203.130990247423
 21
1572.219262371862
 31
0.0
  0
DIMENSION
  5
20D6
102
{ACAD_XDICTIONARY
360
20E3
102
}
102
{ACAD_REACTORS
330
20E4
102
}
330
1F
100
AcDbEntity
  8
AM_5
100
AcDbDimension
  2
*D3
 10
2310.667247889417
 20
1568.291059141518
 30
0.0
 11
2306.167247889417
 21
1615.791059141519
 31
0.0
 70
    32
 71
     5
 42
94.99999999999976
  3
AM_ISO$0
100
AcDbAlignedDimension
 13
2297.667247889418
 23
1663.291059141518
 33
0.0
 14
2224.552533766956
 24
1568.291059141518
 34
0.0
 50
90.0
100
AcDbRotatedDimension
1001
ACAD
1000
DSTYLE
1002
{
1070
   272
1070
     8
1002
}
  0
LINE
  5
2142
330
1F
100
AcDbEntity
  8
AM_7
100
AcDbLine
 10
2374.294582641018
 20
1453.128097236185
 30
0.0
 11
2374.294582641015
 21
1341.156165931335
 31
0.0
1001
GENIUS_GENOBJ-N-CEN_13
1002
{
1000
OWNER
1000
GEN
1002
}
1001
GENIUS_GENODEF_13
1002
{
1000
HIER
1070
     0
1002
}
1002
{
1000
MANEDIT
1070
     0
1002
}
1002
{
1000
NOSEL
1070
     0
1002
}
1002
{
1000
BEHIND
1070
     0
1002
}
1002
{
1000
OTHER
1070
     0
1002
}
1002
{
1000
REACTOR
1002
}
1001
GENIUS_GENCEN_19
1002
{
1040
2.0
1002
}
  0
DIMENSION
  5
284D
330
1F
100
AcDbEntity
  8
AM_5
100
AcDbDimension
  2
*D5
 10
2305.681012996346
 20
1358.050252385792
 30
0.0
 11
2301.180422445164
 21
1342.050252385792
 31
0.0
 70
    32
 71
     5
 42
31.99999999999955
  3
AM_ISO$0
100
AcDbAlignedDimension
 13
2286.843063506131
 23
1326.050252385792
 33
0.0
 14
2287.681012996344
 24
1358.050252385792
 34
0.0
 50
90.0
100
AcDbRotatedDimension
1001
ACAD
1000
DSTYLE
1002
{
1070
    40
1040
1.0
1070
   144
1040
1.0
1070
   272
1070
     8
1002
}
  0
DIMENSION
  5
2850
330
1F
100
AcDbEntity
  8
AM_5
100
AcDbDimension
  2
*D6
 10
2305.681012996345
 20
1466.050252385792
 30
0.0
 11
2301.180422445163
 21
1450.050252385792
 31
0.0
 70
    32
 71
     5
 42
32.00000000000045
  3
AM_ISO$0
100
AcDbAlignedDimension
 13
2287.681012996344
 23
1434.050252385791
 33
0.0
 14
2286.843063506131
 24
1466.050252385792
 34
0.0
 50
90.0
100
AcDbRotatedDimension
1001
ACAD
1000
DSTYLE
1002
{
1070
    40
1040
1.0
1070
   144
1040
1.0
1070
   272
1070
     8
1002
}
  0
DIMENSION
  5
2853
330
1F
100
AcDbEntity
  8
AM_5
100
AcDbDimension
  2
*D4
 10
2319.681012996348
 20
1466.050252385791
 30
0.0
 11
2314.323732013284
 21
1396.050252385792
 31
0.0
 70
    32
  1
90+length
 71
     5
 42
139.9999999999991
  3
AM_ISO$0
100
AcDbAlignedDimension
 13
2286.843063506131
 23
1326.050252385792
 33
0.0
 14
2286.843063506131
 24
1466.050252385791
 34
0.0
 50
90.0
100
AcDbRotatedDimension
1001
ACAD
1000
DSTYLE
1002
{
1070
    40
1040
1.0
1070
   144
1040
1.0
1070
   272
1070
     8
1002
}
  0
DIMENSION
  5
2854
330
1F
100
AcDbEntity
  8
AM_5
100
AcDbDimension
  2
*D7
 10
2333.681012996345
 20
1513.050252385792
 30
0.0
 11
2328.322281936221
 21
1414.550252385792
 31
0.0
 70
    32
  1
147+length
 71
     5
 42
196.9999999999991
  3
AM_ISO$0
100
AcDbAlignedDimension
 13
2241.681012996345
 23
1316.050252385793
 33
0.0
 14
2241.681012996344
 24
1513.050252385792
 34
0.0
 50
90.0
100
AcDbRotatedDimension
1001
ACAD
1000
DSTYLE
1002
{
1070
    40
1040
1.0
1070
   144
1040
1.0
1070
   272
1070
     8
1002
}
  0
INSERT
  5
2932
330
1F
100
AcDbEntity
  8
AM_5
100
AcDbBlockReference
  2
*S14
 10
0.0
 20
0.0
 30
0.0
  0
TEXT
  5
2933
330
1F
100
AcDbEntity
  8
AM_5
100
AcDbText
 10
2173.336940439265
 20
1298.213406614687
 30
0.0
 40
5.0
  1
2-PT1/2
100
AcDbText
  0
DIMENSION
  5
2934
330
1F
100
AcDbEntity
  8
AM_5
100
AcDbDimension
  2
*D8
 10
2242.681012996344
 20
1532.89168470943
 30
0.0
 11
2212.681012996345
 21
1537.39168470943
 31
0.0
 70
    32
  1
%%c<>
 71
     5
 42
59.99999999999909
  3
AM_ISO$0
100
AcDbAlignedDimension
 13
2182.681012996345
 23
1512.050252385791
 33
0.0
 14
2242.681012996344
 24
1512.050252385791
 34
0.0
100
AcDbRotatedDimension
1001
ACAD
1000
DSTYLE
1002
{
1070
    40
1040
1.0
1070
   144
1040
1.0
1070
   272
1070
     8
1002
}
  0
DIMENSION
  5
2955
330
1F
100
AcDbEntity
  8
AM_5
100
AcDbDimension
  2
*D9
 10
2120.297686376748
 20
1642.29105738748
 30
0.0
 11
2115.797095825566
 21
1663.29105738748
 31
0.0
 70
    32
 71
     5
 42
42.0
  3
AM_ISO$0
100
AcDbAlignedDimension
 13
2191.256725991415
 23
1684.29105738748
 33
0.0
 14
2191.256729430017
 24
1642.29105738748
 34
0.0
 50
90.0
100
AcDbRotatedDimension
1001
ACAD
1000
DSTYLE
1002
{
1070
    40
1040
1.0
1070
   144
1040
1.0
1070
   272
1070
     8
1002
}
  0
DIMENSION
  5
2958
330
1F
100
AcDbEntity
  8
AM_5
100
AcDbDimension
  2
*D10
 10
2106.297686376748
 20
1738.291059141518
 30
0.0
 11
2101.797686376748
 21
1663.291059141518
 31
0.0
 70
    32
  1
{\Famgdt;o}<>
 71
     5
 42
150.0
  3
AM_ISO$0
100
AcDbAlignedDimension
 13
2152.681012996345
 23
1588.291059141518
 33
0.0
 14
2152.681012996345
 24
1738.291059141518
 34
0.0
 50
90.0
100
AcDbRotatedDimension
1001
ACAD
1000
DSTYLE
1002
{
1070
    40
1040
1.0
1070
   144
1040
1.0
1070
   272
1070
     8
1002
}
  0
LINE
  5
29C5
330
1F
100
AcDbEntity
  8
0
100
AcDbLine
 10
2152.681012996345
 20
1588.291059141518
 30
0.0
 11
2272.681012996345
 21
1588.291059141518
 31
0.0
  0
LINE
  5
29C6
330
1F
100
AcDbEntity
  8
0
100
AcDbLine
 10
2287.681012996344
 20
1603.291059141518
 30
0.0
 11
2287.681012996344
 21
1723.291059141518
 31
0.0
  0
LINE
  5
29C7
330
1F
100
AcDbEntity
  8
0
100
AcDbLine
 10
2272.681012996344
 20
1738.291059141518
 30
0.0
 11
2152.681012996345
 21
1738.291059141518
 31
0.0
  0
LINE
  5
29C8
330
1F
100
AcDbEntity
  8
0
100
AcDbLine
 10
2137.681012996345
 20
1723.291059141518
 30
0.0
 11
2137.681012996345
 21
1603.291059141518
 31
0.0
  0
ARC
  5
29E0
330
1F
100
AcDbEntity
  8
0
100
AcDbCircle
 10
2152.681012996345
 20
1723.291059141518
 30
0.0
 40
15.0
100
AcDbArc
 50
90.0
 51
180.0
  0
ARC
  5
29E1
330
1F
100
AcDbEntity
  8
0
100
AcDbCircle
 10
2272.681012996344
 20
1723.291059141518
 30
0.0
 40
15.0
100
AcDbArc
 50
0.0
 51
90.0
  0
ARC
  5
29E2
330
1F
100
AcDbEntity
  8
0
100
AcDbCircle
 10
2272.681012996345
 20
1603.291059141518
 30
0.0
 40
15.0
100
AcDbArc
 50
270.0
 51
0.0000000000001908
  0
ARC
  5
29E3
330
1F
100
AcDbEntity
  8
0
100
AcDbCircle
 10
2152.681012996345
 20
1603.291059141518
 30
0.0
 40
15.0
100
AcDbArc
 50
180.0
 51
270.0
  0
LINE
  5
2B45
330
1F
100
AcDbEntity
  8
HIDDEN
  6
HIDDEN
100
AcDbLine
 10
2908.656405881563
 20
1515.769555423368
 30
0.0
 11
2908.656405881563
 21
1495.769555423368
 31
0.0
  0
LINE
  5
2B46
330
1F
100
AcDbEntity
  8
HIDDEN
  6
HIDDEN
100
AcDbLine
 10
2890.656405881563
 20
1515.769555423368
 30
0.0
 11
2890.656405881563
 21
1495.769555423368
 31
0.0
  0
LINE
  5
2B47
330
1F
100
AcDbEntity
  8
CENTER
  6
CENTER
100
AcDbLine
 10
2899.656405881563
 20
1518.730859509253
 30
0.0
 11
2899.656405881563
 21
1492.924669940755
 31
0.0
  0
LINE
  5
2B48
330
1F
100
AcDbEntity
  8
HIDDEN
  6
HIDDEN
100
AcDbLine
 10
2872.656405881563
 20
1515.769555423368
 30
0.0
 11
2872.656405881563
 21
1495.769555423368
 31
0.0
  0
LINE
  5
2B49
330
1F
100
AcDbEntity
  8
HIDDEN
  6
HIDDEN
100
AcDbLine
 10
2873.656405881563
 20
1515.769555423368
 30
0.0
 11
2873.656405881563
 21
1495.769555423368
 31
0.0
  0
LINE
  5
2B4A
330
1F
100
AcDbEntity
  8
HIDDEN
  6
HIDDEN
100
AcDbLine
 10
2860.656405881563
 20
1515.769555423368
 30
0.0
 11
2860.656405881563
 21
1495.769555423368
 31
0.0
  0
LINE
  5
2B4B
330
1F
100
AcDbEntity
  8
HIDDEN
  6
HIDDEN
100
AcDbLine
 10
2859.656405881563
 20
1515.769555423368
 30
0.0
 11
2859.656405881563
 21
1502.353854590784
 31
0.0
  0
LINE
  5
2B4C
330
1F
100
AcDbEntity
  8
HIDDEN
  6
HIDDEN
100
AcDbLine
 10
2859.656405881563
 20
1502.353854590784
 30
0.0
 11
2859.656405881563
 21
1495.769555423368
 31
0.0
  0
LINE
  5
2B4D
330
1F
100
AcDbEntity
  8
CENTER
  6
CENTER
100
AcDbLine
 10
2866.656405881563
 20
1518.730859509253
 30
0.0
 11
2866.656405881563
 21
1492.924669940755
 31
0.0
  0
LINE
  5
2B4E
330
1F
100
AcDbEntity
  8
HIDDEN
  6
HIDDEN
100
AcDbLine
 10
2838.156405881563
 20
1515.769555423368
 30
0.0
 11
2838.156405881563
 21
1495.769555423368
 31
0.0
  0
LINE
  5
2B4F
330
1F
100
AcDbEntity
  8
CENTER
  6
CENTER
100
AcDbLine
 10
2808.156405881563
 20
1518.730859509253
 30
0.0
 11
2808.156405881563
 21
1492.924669940755
 31
0.0
  0
LINE
  5
2B50
330
1F
100
AcDbEntity
  8
HIDDEN
  6
HIDDEN
100
AcDbLine
 10
2778.156405881563
 20
1515.769555423368
 30
0.0
 11
2778.156405881563
 21
1495.769555423368
 31
0.0
  0
LINE
  5
2B51
330
1F
100
AcDbEntity
  8
CENTER
  6
CENTER
100
AcDbLine
 10
2749.656405881563
 20
1518.730859509253
 30
0.0
 11
2749.656405881563
 21
1492.924669940755
 31
0.0
  0
LINE
  5
2B52
330
1F
100
AcDbEntity
  8
HIDDEN
  6
HIDDEN
100
AcDbLine
 10
2756.656405881563
 20
1502.353854590784
 30
0.0
 11
2756.656405881563
 21
1495.769555423368
 31
0.0
  0
LINE
  5
2B53
330
1F
100
AcDbEntity
  8
HIDDEN
  6
HIDDEN
100
AcDbLine
 10
2756.656405881563
 20
1515.769555423368
 30
0.0
 11
2756.656405881563
 21
1502.353854590784
 31
0.0
  0
LINE
  5
2B54
330
1F
100
AcDbEntity
  8
HIDDEN
  6
HIDDEN
100
AcDbLine
 10
2755.656405881563
 20
1515.769555423368
 30
0.0
 11
2755.656405881563
 21
1495.769555423368
 31
0.0
  0
LINE
  5
2B55
330
1F
100
AcDbEntity
  8
HIDDEN
  6
HIDDEN
100
AcDbLine
 10
2742.656405881564
 20
1515.769555423368
 30
0.0
 11
2742.656405881564
 21
1495.769555423368
 31
0.0
  0
LINE
  5
2B56
330
1F
100
AcDbEntity
  8
HIDDEN
  6
HIDDEN
100
AcDbLine
 10
2743.656405881564
 20
1515.769555423368
 30
0.0
 11
2743.656405881564
 21
1495.769555423368
 31
0.0
  0
LINE
  5
2B57
330
1F
100
AcDbEntity
  8
CENTER
  6
CENTER
100
AcDbLine
 10
2716.656405881563
 20
1518.730859509253
 30
0.0
 11
2716.656405881563
 21
1492.924669940755
 31
0.0
  0
LINE
  5
2B58
330
1F
100
AcDbEntity
  8
HIDDEN
  6
HIDDEN
100
AcDbLine
 10
2725.656405881563
 20
1515.769555423368
 30
0.0
 11
2725.656405881563
 21
1495.769555423368
 31
0.0
  0
LINE
  5
2B59
330
1F
100
AcDbEntity
  8
HIDDEN
  6
HIDDEN
100
AcDbLine
 10
2707.656405881563
 20
1515.769555423368
 30
0.0
 11
2707.656405881563
 21
1495.769555423368
 31
0.0
  0
LINE
  5
2B5A
330
1F
100
AcDbEntity
  8
0
100
AcDbLine
 10
2697.156405881563
 20
1515.769555423368
 30
0.0
 11
2697.156405881563
 21
1495.769555423368
 31
0.0
  0
LINE
  5
2B5B
330
1F
100
AcDbEntity
  8
0
100
AcDbLine
 10
2919.156405881563
 20
1515.769555423368
 30
0.0
 11
2919.156405881563
 21
1495.769555423368
 31
0.0
  0
LINE
  5
2B5C
330
1F
100
AcDbEntity
  8
0
100
AcDbLine
 10
2697.156405881563
 20
1495.769555423368
 30
0.0
 11
2919.156405881563
 21
1495.769555423368
 31
0.0
  0
LINE
  5
2B5D
330
1F
100
AcDbEntity
  8
0
100
AcDbLine
 10
2697.156405881563
 20
1515.769555423368
 30
0.0
 11
2919.156405881563
 21
1515.769555423368
 31
0.0
  0
ARC
  5
2B5E
330
1F
100
AcDbEntity
  8
0
100
AcDbCircle
 10
2909.156405881563
 20
1313.399487711316
 30
0.0
 40
10.0
100
AcDbArc
 50
270.0
 51
0.0
  0
ARC
  5
2B5F
330
1F
100
AcDbEntity
  8
0
100
AcDbCircle
 10
2707.156405881563
 20
1313.399487711316
 30
0.0
 40
10.0
100
AcDbArc
 50
180.0
 51
270.0
  0
ARC
  5
2B60
330
1F
100
AcDbEntity
  8
0
100
AcDbCircle
 10
2707.156405881563
 20
1448.399487711316
 30
0.0
 40
10.0
100
AcDbArc
 50
90.0
 51
180.0
  0
ARC
  5
2B61
330
1F
100
AcDbEntity
  8
0
100
AcDbCircle
 10
2909.156405881562
 20
1448.399487711316
 30
0.0
 40
10.0
100
AcDbArc
 50
0.0
 51
90.0
  0
CIRCLE
  5
2B62
330
1F
100
AcDbEntity
  8
0
100
AcDbCircle
 10
2808.156405881563
 20
1380.899487711316
 30
0.0
 40
30.0
  0
CIRCLE
  5
2B7B
330
1F
100
AcDbEntity
  8
0
100
AcDbCircle
 10
2899.656405881563
 20
1442.399487711316
 30
0.0
 40
9.0
  0
CIRCLE
  5
2B7C
330
1F
100
AcDbEntity
  8
0
100
AcDbCircle
 10
2899.656405881563
 20
1319.399487711316
 30
0.0
 40
9.0
  0
CIRCLE
  5
2B7D
330
1F
100
AcDbEntity
  8
0
100
AcDbCircle
 10
2716.656405881563
 20
1319.399487711316
 30
0.0
 40
9.0
  0
CIRCLE
  5
2B7E
330
1F
100
AcDbEntity
  8
0
100
AcDbCircle
 10
2716.656405881563
 20
1442.399487711316
 30
0.0
 40
9.0
  0
LINE
  5
2B7F
330
1F
100
AcDbEntity
  8
0
100
AcDbLine
 10
2707.156405881563
 20
1303.399487711316
 30
0.0
 11
2909.156405881563
 21
1303.399487711316
 31
0.0
  0
LINE
  5
2B80
330
1F
100
AcDbEntity
  8
0
100
AcDbLine
 10
2707.156405881563
 20
1458.399487711316
 30
0.0
 11
2909.156405881562
 21
1458.399487711316
 31
0.0
  0
LINE
  5
2B81
330
1F
100
AcDbEntity
  8
0
100
AcDbLine
 10
2697.156405881563
 20
1448.399487711316
 30
0.0
 11
2697.156405881563
 21
1313.399487711316
 31
0.0
  0
LINE
  5
2B82
330
1F
100
AcDbEntity
  8
0
100
AcDbLine
 10
2919.156405881563
 20
1448.399487711316
 30
0.0
 11
2919.156405881563
 21
1313.399490251953
 31
0.0
  0
LINE
  5
2B83
330
1F
100
AcDbEntity
  8
AM_7
100
AcDbLine
 10
2808.156405881563
 20
1461.344693190768
 30
0.0
 11
2808.156405881563
 21
1298.604967163371
 31
0.0
  0
LINE
  5
2B84
330
1F
100
AcDbEntity
  8
AM_7
100
AcDbLine
 10
2692.298547269931
 20
1380.899487711316
 30
0.0
 11
2923.257023587236
 21
1380.899487711316
 31
0.0
  0
LINE
  5
2B85
330
1F
100
AcDbEntity
  8
0
100
AcDbLine
 10
2656.361693419925
 20
1303.399487711316
 30
0.0
 11
2656.361693419925
 21
1458.399487711316
 31
0.0
  0
LINE
  5
2B86
330
1F
100
AcDbEntity
  8
0
100
AcDbLine
 10
2636.361693419925
 20
1303.399487711316
 30
0.0
 11
2636.361693419925
 21
1458.399487711316
 31
0.0
  0
LINE
  5
2B87
330
1F
100
AcDbEntity
  8
CENTER
  6
CENTER
100
AcDbLine
 10
2659.322997505811
 20
1319.399487711316
 30
0.0
 11
2633.516807937313
 21
1319.399487711316
 31
0.0
  0
LINE
  5
2B88
330
1F
100
AcDbEntity
  8
HIDDEN
  6
HIDDEN
100
AcDbLine
 10
2656.361693419925
 20
1310.399487711316
 30
0.0
 11
2636.361693419925
 21
1310.399487711316
 31
0.0
  0
LINE
  5
2B89
330
1F
100
AcDbEntity
  8
0
100
AcDbLine
 10
2656.361693419925
 20
1303.399487711316
 30
0.0
 11
2636.361693419925
 21
1303.399487711316
 31
0.0
  0
LINE
  5
2B8A
330
1F
100
AcDbEntity
  8
HIDDEN
  6
HIDDEN
100
AcDbLine
 10
2656.361693419925
 20
1328.399487711316
 30
0.0
 11
2636.361693419925
 21
1328.399487711316
 31
0.0
  0
LINE
  5
2B8B
330
1F
100
AcDbEntity
  8
HIDDEN
  6
HIDDEN
100
AcDbLine
 10
2656.361693419925
 20
1350.899487711316
 30
0.0
 11
2636.361693419925
 21
1350.899487711316
 31
0.0
  0
LINE
  5
2B8C
330
1F
100
AcDbEntity
  8
CENTER
  6
CENTER
100
AcDbLine
 10
2659.322997505811
 20
1380.899487711316
 30
0.0
 11
2633.516807937313
 21
1380.899487711316
 31
0.0
  0
LINE
  5
2B8D
330
1F
100
AcDbEntity
  8
HIDDEN
  6
HIDDEN
100
AcDbLine
 10
2656.361693419925
 20
1410.899487711316
 30
0.0
 11
2636.361693419925
 21
1410.899487711316
 31
0.0
  0
LINE
  5
2B8E
330
1F
100
AcDbEntity
  8
HIDDEN
  6
HIDDEN
100
AcDbLine
 10
2656.361693419925
 20
1433.399487711316
 30
0.0
 11
2636.361693419925
 21
1433.399487711316
 31
0.0
  0
LINE
  5
2B8F
330
1F
100
AcDbEntity
  8
CENTER
  6
CENTER
100
AcDbLine
 10
2659.322997505811
 20
1442.399487711316
 30
0.0
 11
2633.516807937313
 21
1442.399487711316
 31
0.0
  0
LINE
  5
2B90
330
1F
100
AcDbEntity
  8
0
100
AcDbLine
 10
2656.361693419925
 20
1458.399487711316
 30
0.0
 11
2636.361693419925
 21
1458.399487711316
 31
0.0
  0
LINE
  5
2B91
330
1F
100
AcDbEntity
  8
HIDDEN
  6
HIDDEN
100
AcDbLine
 10
2656.361693419925
 20
1451.399487711316
 30
0.0
 11
2636.361693419925
 21
1451.399487711316
 31
0.0
  0
POLYLINE
  5
2B92
330
1F
100
AcDbEntity
  8
0
100
AcDb2dPolyline
 66
     1
 10
0.0
 20
0.0
 30
0.0
  0
VERTEX
  5
2B93
330
2B92
100
AcDbEntity
  8
0
100
AcDbVertex
100
AcDb2dVertex
 10
2731.565937601642
 20
1665.01028810245
 30
0.0
  0
VERTEX
  5
2B94
330
2B92
100
AcDbEntity
  8
0
100
AcDbVertex
100
AcDb2dVertex
 10
2731.565937601642
 20
1618.51028810245
 30
0.0
  0
SEQEND
  5
2B95
330
2B92
100
AcDbEntity
  8
0
  0
POLYLINE
  5
2B96
330
1F
100
AcDbEntity
  8
0
100
AcDb2dPolyline
 66
     1
 10
0.0
 20
0.0
 30
0.0
  0
VERTEX
  5
2B97
330
2B96
100
AcDbEntity
  8
0
100
AcDbVertex
100
AcDb2dVertex
 10
2881.565937601642
 20
1665.01028810245
 30
0.0
  0
VERTEX
  5
2B98
330
2B96
100
AcDbEntity
  8
0
100
AcDbVertex
100
AcDb2dVertex
 10
2881.565937601642
 20
1618.51028810245
 30
0.0
  0
SEQEND
  5
2B99
330
2B96
100
AcDbEntity
  8
0
  0
POLYLINE
  5
2B9A
330
1F
100
AcDbEntity
  8
0
100
AcDb2dPolyline
 66
     1
 10
0.0
 20
0.0
 30
0.0
  0
VERTEX
  5
2B9B
330
2B9A
100
AcDbEntity
  8
0
100
AcDbVertex
100
AcDb2dVertex
 10
2731.565937601642
 20
1665.01028810245
 30
0.0
  0
VERTEX
  5
2B9C
330
2B9A
100
AcDbEntity
  8
0
100
AcDbVertex
100
AcDb2dVertex
 10
2881.565937601642
 20
1665.01028810245
 30
0.0
  0
SEQEND
  5
2B9D
330
2B9A
100
AcDbEntity
  8
0
  0
POLYLINE
  5
2B9E
330
1F
100
AcDbEntity
  8
0
100
AcDb2dPolyline
 66
     1
 10
0.0
 20
0.0
 30
0.0
  0
VERTEX
  5
2B9F
330
2B9E
100
AcDbEntity
  8
0
100
AcDbVertex
100
AcDb2dVertex
 10
2731.565937601642
 20
1618.51028810245
 30
0.0
  0
VERTEX
  5
2BA0
330
2B9E
100
AcDbEntity
  8
0
100
AcDbVertex
100
AcDb2dVertex
 10
2881.565937601642
 20
1618.51028810245
 30
0.0
  0
SEQEND
  5
2BA1
330
2B9E
100
AcDbEntity
  8
0
  0
POLYLINE
  5
2BA2
330
1F
100
AcDbEntity
  8
0
100
AcDb2dPolyline
 66
     1
 10
0.0
 20
0.0
 30
0.0
  0
VERTEX
  5
2BA3
330
2BA2
100
AcDbEntity
  8
0
100
AcDbVertex
100
AcDb2dVertex
 10
2731.565937601642
 20
1624.51028810245
 30
0.0
  0
VERTEX
  5
2BA4
330
2BA2
100
AcDbEntity
  8
0
100
AcDbVertex
100
AcDb2dVertex
 10
2881.565937601642
 20
1624.51028810245
 30
0.0
  0
SEQEND
  5
2BA5
330
2BA2
100
AcDbEntity
  8
0
  0
LINE
  5
2BA6
330
1F
100
AcDbEntity
  8
CENTER
  6
CENTER
100
AcDbLine
 10
2748.065937601642
 20
1628.989485610173
 30
0.0
 11
2748.065937601642
 21
1614.581780509495
 31
0.0
  0
CIRCLE
  5
2BA7
330
1F
100
AcDbEntity
  8
0
100
AcDbCircle
 10
2865.065937601642
 20
1645.01028810245
 30
0.0
 40
8.0
  0
CIRCLE
  5
2BA8
330
1F
100
AcDbEntity
  8
0
100
AcDbCircle
 10
2748.065937601642
 20
1645.01028810245
 30
0.0
 40
8.0
  0
LINE
  5
2BA9
330
1F
100
AcDbEntity
  8
HIDDEN
  6
HIDDEN
100
AcDbLine
 10
2740.065937601642
 20
1624.51028810245
 30
0.0
 11
2740.065937601642
 21
1618.51028810245
 31
0.0
  0
LINE
  5
2BAA
330
1F
100
AcDbEntity
  8
HIDDEN
  6
HIDDEN
100
AcDbLine
 10
2756.065937601642
 20
1624.51028810245
 30
0.0
 11
2756.065937601642
 21
1618.51028810245
 31
0.0
  0
LINE
  5
2BAB
330
1F
100
AcDbEntity
  8
HIDDEN
  6
HIDDEN
100
AcDbLine
 10
2857.065937601642
 20
1624.51028810245
 30
0.0
 11
2857.065937601642
 21
1618.51028810245
 31
0.0
  0
LINE
  5
2BAC
330
1F
100
AcDbEntity
  8
HIDDEN
  6
HIDDEN
100
AcDbLine
 10
2873.065937601642
 20
1624.51028810245
 30
0.0
 11
2873.065937601642
 21
1618.51028810245
 31
0.0
  0
LINE
  5
2BAD
330
1F
100
AcDbEntity
  8
CENTER
  6
CENTER
100
AcDbLine
 10
2865.065937601642
 20
1628.989485610173
 30
0.0
 11
2865.065937601642
 21
1614.581780509495
 31
0.0
  0
LINE
  5
2BAE
330
1F
100
AcDbEntity
  8
CENTER
  6
CENTER
100
AcDbLine
 10
2747.065937601641
 20
1645.01028810245
 30
0.0
 11
2749.065937601641
 21
1645.01028810245
 31
0.0
  0
LINE
  5
2BAF
330
1F
100
AcDbEntity
  8
CENTER
  6
CENTER
100
AcDbLine
 10
2748.065937601641
 20
1644.01028810245
 30
0.0
 11
2748.065937601641
 21
1646.01028810245
 31
0.0
  0
LINE
  5
2BB0
330
1F
100
AcDbEntity
  8
CENTER
  6
CENTER
100
AcDbLine
 10
2746.065937601641
 20
1645.01028810245
 30
0.0
 11
2739.065937601641
 21
1645.01028810245
 31
0.0
  0
LINE
  5
2BB1
330
1F
100
AcDbEntity
  8
CENTER
  6
CENTER
100
AcDbLine
 10
2750.065937601641
 20
1645.01028810245
 30
0.0
 11
2757.065937601641
 21
1645.01028810245
 31
0.0
  0
LINE
  5
2BB2
330
1F
100
AcDbEntity
  8
CENTER
  6
CENTER
100
AcDbLine
 10
2748.065937601641
 20
1643.01028810245
 30
0.0
 11
2748.065937601641
 21
1636.01028810245
 31
0.0
  0
LINE
  5
2BB3
330
1F
100
AcDbEntity
  8
CENTER
  6
CENTER
100
AcDbLine
 10
2748.065937601641
 20
1647.01028810245
 30
0.0
 11
2748.065937601641
 21
1654.01028810245
 31
0.0
  0
LINE
  5
2BB4
330
1F
100
AcDbEntity
  8
CENTER
  6
CENTER
100
AcDbLine
 10
2864.065937601642
 20
1645.01028810245
 30
0.0
 11
2866.065937601641
 21
1645.01028810245
 31
0.0
  0
LINE
  5
2BB5
330
1F
100
AcDbEntity
  8
CENTER
  6
CENTER
100
AcDbLine
 10
2865.065937601642
 20
1644.01028810245
 30
0.0
 11
2865.065937601642
 21
1646.01028810245
 31
0.0
  0
LINE
  5
2BB6
330
1F
100
AcDbEntity
  8
CENTER
  6
CENTER
100
AcDbLine
 10
2863.065937601641
 20
1645.01028810245
 30
0.0
 11
2856.065937601642
 21
1645.01028810245
 31
0.0
  0
LINE
  5
2BB7
330
1F
100
AcDbEntity
  8
CENTER
  6
CENTER
100
AcDbLine
 10
2867.065937601642
 20
1645.01028810245
 30
0.0
 11
2874.065937601642
 21
1645.01028810245
 31
0.0
  0
LINE
  5
2BB8
330
1F
100
AcDbEntity
  8
CENTER
  6
CENTER
100
AcDbLine
 10
2865.065937601642
 20
1643.01028810245
 30
0.0
 11
2865.065937601642
 21
1636.01028810245
 31
0.0
  0
LINE
  5
2BB9
330
1F
100
AcDbEntity
  8
CENTER
  6
CENTER
100
AcDbLine
 10
2865.065937601642
 20
1647.01028810245
 30
0.0
 11
2865.065937601642
 21
1654.01028810245
 31
0.0
  0
ARC
  5
2BBA
330
1F
100
AcDbEntity
  8
0
100
AcDbCircle
 10
2703.760777170173
 20
1621.51028810245
 30
0.0
 40
3.0
100
AcDbArc
 50
0.0
 51
90.0
  0
LINE
  5
2BBB
330
1F
100
AcDbEntity
  8
0
100
AcDbLine
 10
2706.760777170174
 20
1618.51028810245
 30
0.0
 11
2641.760777170173
 21
1618.510288102449
 31
0.0
  0
LINE
  5
2BBC
330
1F
100
AcDbEntity
  8
0
100
AcDbLine
 10
2706.760777170174
 20
1621.51028810245
 30
0.0
 11
2706.760777170174
 21
1618.51028810245
 31
0.0
  0
LINE
  5
2BBD
330
1F
100
AcDbEntity
  8
0
100
AcDbLine
 10
2703.760777170173
 20
1624.51028810245
 30
0.0
 11
2650.760777170173
 21
1624.51028810245
 31
0.0
  0
LINE
  5
2BBE
330
1F
100
AcDbEntity
  8
CENTER
  6
CENTER
100
AcDbLine
 10
2689.760777170173
 20
1628.989485610173
 30
0.0
 11
2689.760777170173
 21
1614.581780509495
 31
0.0
  0
LINE
  5
2BBF
330
1F
100
AcDbEntity
  8
HIDDEN
  6
HIDDEN
100
AcDbLine
 10
2697.760777170174
 20
1624.51028810245
 30
0.0
 11
2697.760777170174
 21
1618.510288102449
 31
0.0
  0
LINE
  5
2BC0
330
1F
100
AcDbEntity
  8
HIDDEN
  6
HIDDEN
100
AcDbLine
 10
2681.760777170174
 20
1624.51028810245
 30
0.0
 11
2681.760777170174
 21
1618.510288102449
 31
0.0
  0
LINE
  5
2BC1
330
1F
100
AcDbEntity
  8
0
100
AcDbLine
 10
2641.760777170173
 20
1665.01028810245
 30
0.0
 11
2641.760777170173
 21
1618.510288102449
 31
0.0
  0
LINE
  5
2BC2
330
1F
100
AcDbEntity
  8
0
100
AcDbLine
 10
2647.760777170173
 20
1665.01028810245
 30
0.0
 11
2647.760777170173
 21
1627.510288102449
 31
0.0
  0
ARC
  5
2BC3
330
1F
100
AcDbEntity
  8
0
100
AcDbCircle
 10
2650.760777170173
 20
1627.510288102449
 30
0.0
 40
3.0
100
AcDbArc
 50
180.0
 51
270.0
  0
LINE
  5
2BC4
330
1F
100
AcDbEntity
  8
HIDDEN
  6
HIDDEN
100
AcDbLine
 10
2647.760777170173
 20
1637.010288102449
 30
0.0
 11
2641.760777170173
 21
1637.010288102449
 31
0.0
  0
LINE
  5
2BC5
330
1F
100
AcDbEntity
  8
0
100
AcDbLine
 10
2647.760777170173
 20
1665.01028810245
 30
0.0
 11
2641.760777170173
 21
1665.01028810245
 31
0.0
  0
LINE
  5
2BC6
330
1F
100
AcDbEntity
  8
HIDDEN
  6
HIDDEN
100
AcDbLine
 10
2647.760777170173
 20
1653.010288102449
 30
0.0
 11
2641.760777170173
 21
1653.010288102449
 31
0.0
  0
LINE
  5
2BC7
330
1F
100
AcDbEntity
  8
CENTER
  6
CENTER
100
AcDbLine
 10
2652.239974677897
 20
1645.010288102449
 30
0.0
 11
2637.832269577219
 21
1645.010288102449
 31
0.0
  0
LINE
  5
2BCC
330
1F
100
AcDbEntity
  8
0
100
AcDbLine
 10
2731.565937601642
 20
1760.784355960848
 30
0.0
 11
2881.565937601642
 21
1760.784355960848
 31
0.0
  0
LINE
  5
2BCD
330
1F
100
AcDbEntity
  8
0
100
AcDbLine
 10
2731.565937601642
 20
1754.784355960848
 30
0.0
 11
2881.565937601642
 21
1754.784355960848
 31
0.0
  0
LINE
  5
2BCE
330
1F
100
AcDbEntity
  8
0
100
AcDbLine
 10
2731.565937601642
 20
1695.784355960848
 30
0.0
 11
2881.565937601642
 21
1695.784355960848
 31
0.0
  0
LINE
  5
2BCF
330
1F
100
AcDbEntity
  8
0
100
AcDbLine
 10
2731.565937601642
 20
1760.784355960848
 30
0.0
 11
2731.565937601642
 21
1695.784355960848
 31
0.0
  0
CIRCLE
  5
2BD0
330
1F
100
AcDbEntity
  8
0
100
AcDbCircle
 10
2748.065937601642
 20
1712.784355960848
 30
0.0
 40
8.0
  0
LINE
  5
2BD1
330
1F
100
AcDbEntity
  8
CENTER
  6
CENTER
100
AcDbLine
 10
2748.065937601642
 20
1750.305158453124
 30
0.0
 11
2748.065937601642
 21
1764.712863553802
 31
0.0
  0
LINE
  5
2BD2
330
1F
100
AcDbEntity
  8
HIDDEN
  6
HIDDEN
100
AcDbLine
 10
2756.065937601642
 20
1754.784355960848
 30
0.0
 11
2756.065937601642
 21
1760.784355960848
 31
0.0
  0
LINE
  5
2BD3
330
1F
100
AcDbEntity
  8
HIDDEN
  6
HIDDEN
100
AcDbLine
 10
2740.065937601642
 20
1754.784355960848
 30
0.0
 11
2740.065937601642
 21
1760.784355960848
 31
0.0
  0
LINE
  5
2BD4
330
1F
100
AcDbEntity
  8
0
100
AcDbLine
 10
2881.565937601642
 20
1760.784355960848
 30
0.0
 11
2881.565937601642
 21
1695.784355960848
 31
0.0
  0
CIRCLE
  5
2BD5
330
1F
100
AcDbEntity
  8
0
100
AcDbCircle
 10
2865.065937601642
 20
1712.784355960848
 30
0.0
 40
8.0
  0
LINE
  5
2BD6
330
1F
100
AcDbEntity
  8
CENTER
  6
CENTER
100
AcDbLine
 10
2865.065937601642
 20
1750.305158453124
 30
0.0
 11
2865.065937601642
 21
1764.712863553802
 31
0.0
  0
LINE
  5
2BD7
330
1F
100
AcDbEntity
  8
HIDDEN
  6
HIDDEN
100
AcDbLine
 10
2857.065937601642
 20
1754.784355960848
 30
0.0
 11
2857.065937601642
 21
1760.784355960848
 31
0.0
  0
LINE
  5
2BD8
330
1F
100
AcDbEntity
  8
HIDDEN
  6
HIDDEN
100
AcDbLine
 10
2873.065937601642
 20
1754.784355960848
 30
0.0
 11
2873.065937601642
 21
1760.784355960848
 31
0.0
  0
LINE
  5
2BD9
330
1F
100
AcDbEntity
  8
CENTER
  6
CENTER
100
AcDbLine
 10
2865.065937601642
 20
1713.784355960848
 30
0.0
 11
2865.065937601642
 21
1711.784355960848
 31
0.0
  0
LINE
  5
2BDA
330
1F
100
AcDbEntity
  8
CENTER
  6
CENTER
100
AcDbLine
 10
2864.065937601642
 20
1712.784355960848
 30
0.0
 11
2866.065937601642
 21
1712.784355960848
 31
0.0
  0
LINE
  5
2BDB
330
1F
100
AcDbEntity
  8
CENTER
  6
CENTER
100
AcDbLine
 10
2865.065937601642
 20
1714.784355960848
 30
0.0
 11
2865.065937601642
 21
1721.784355960848
 31
0.0
  0
LINE
  5
2BDC
330
1F
100
AcDbEntity
  8
CENTER
  6
CENTER
100
AcDbLine
 10
2865.065937601642
 20
1710.784355960848
 30
0.0
 11
2865.065937601642
 21
1703.784355960848
 31
0.0
  0
LINE
  5
2BDD
330
1F
100
AcDbEntity
  8
CENTER
  6
CENTER
100
AcDbLine
 10
2863.065937601642
 20
1712.784355960848
 30
0.0
 11
2856.065937601642
 21
1712.784355960848
 31
0.0
  0
LINE
  5
2BDE
330
1F
100
AcDbEntity
  8
CENTER
  6
CENTER
100
AcDbLine
 10
2867.065937601642
 20
1712.784355960848
 30
0.0
 11
2874.065937601642
 21
1712.784355960848
 31
0.0
  0
LINE
  5
2BDF
330
1F
100
AcDbEntity
  8
CENTER
  6
CENTER
100
AcDbLine
 10
2748.065937601642
 20
1713.784355960848
 30
0.0
 11
2748.065937601642
 21
1711.784355960848
 31
0.0
  0
LINE
  5
2BE0
330
1F
100
AcDbEntity
  8
CENTER
  6
CENTER
100
AcDbLine
 10
2747.065937601642
 20
1712.784355960848
 30
0.0
 11
2749.065937601642
 21
1712.784355960848
 31
0.0
  0
LINE
  5
2BE1
330
1F
100
AcDbEntity
  8
CENTER
  6
CENTER
100
AcDbLine
 10
2748.065937601642
 20
1714.784355960848
 30
0.0
 11
2748.065937601642
 21
1721.784355960848
 31
0.0
  0
LINE
  5
2BE2
330
1F
100
AcDbEntity
  8
CENTER
  6
CENTER
100
AcDbLine
 10
2748.065937601642
 20
1710.784355960848
 30
0.0
 11
2748.065937601642
 21
1703.784355960848
 31
0.0
  0
LINE
  5
2BE3
330
1F
100
AcDbEntity
  8
CENTER
  6
CENTER
100
AcDbLine
 10
2746.065937601642
 20
1712.784355960848
 30
0.0
 11
2739.065937601642
 21
1712.784355960848
 31
0.0
  0
LINE
  5
2BE4
330
1F
100
AcDbEntity
  8
CENTER
  6
CENTER
100
AcDbLine
 10
2750.065937601642
 20
1712.784355960848
 30
0.0
 11
2757.065937601642
 21
1712.784355960848
 31
0.0
  0
LINE
  5
2BEA
330
1F
100
AcDbEntity
  8
0
 62
     4
100
AcDbLine
 10
2584.534678275414
 20
1816.166740967532
 30
0.0
 11
2584.534678275414
 21
1275.282742774115
 31
0.0
  0
LINE
  5
2BEB
330
1F
100
AcDbEntity
  8
0
 62
     4
100
AcDbLine
 10
2584.534678275414
 20
1569.646611563147
 30
0.0
 11
2985.891527513135
 21
1569.646611563147
 31
0.0
  0
TEXT
  5
2BED
330
1F
100
AcDbEntity
  8
0
100
AcDbText
 10
2606.646811879847
 20
1786.05257444151
 30
0.0
 40
12.012
  1
LB
100
AcDbText
  0
TEXT
  5
2BEF
330
1F
100
AcDbEntity
  8
0
100
AcDbText
 10
2606.646811879847
 20
1538.45076816972
 30
0.0
 40
12.012
  1
FAC
100
AcDbText
  0
ARC
  5
2C4D
330
1F
100
AcDbEntity
  8
AM_4
100
AcDbCircle
 10
2749.656405881563
 20
1439.399487711316
 30
0.0
 40
7.0
100
AcDbArc
 50
260.0
 51
170.0
  0
CIRCLE
  5
2C4E
330
1F
100
AcDbEntity
  8
AM_0
100
AcDbCircle
 10
2749.656405881563
 20
1439.399487711316
 30
0.0
 40
5.917468245269549
  0
LINE
  5
2C4F
330
1F
100
AcDbEntity
  8
AM_7
  6
AM_ISO08W050x2
100
AcDbLine
 10
2740.656405881563
 20
1439.399487711316
 30
0.0
 11
2758.656405881563
 21
1439.399487711316
 31
0.0
  0
LINE
  5
2C50
330
1F
100
AcDbEntity
  8
AM_7
  6
AM_ISO08W050x2
100
AcDbLine
 10
2749.656405881563
 20
1430.399487711316
 30
0.0
 11
2749.656405881563
 21
1448.399487711316
 31
0.0
  0
ARC
  5
2C52
330
1F
100
AcDbEntity
  8
AM_4
100
AcDbCircle
 10
2866.656405881563
 20
1439.399487711316
 30
0.0
 40
7.0
100
AcDbArc
 50
260.0
 51
170.0
  0
CIRCLE
  5
2C53
330
1F
100
AcDbEntity
  8
AM_0
100
AcDbCircle
 10
2866.656405881563
 20
1439.399487711316
 30
0.0
 40
5.917468245269549
  0
LINE
  5
2C54
330
1F
100
AcDbEntity
  8
AM_7
  6
AM_ISO08W050x2
100
AcDbLine
 10
2857.656405881563
 20
1439.399487711316
 30
0.0
 11
2875.656405881563
 21
1439.399487711316
 31
0.0
  0
LINE
  5
2C55
330
1F
100
AcDbEntity
  8
AM_7
  6
AM_ISO08W050x2
100
AcDbLine
 10
2866.656405881563
 20
1430.399487711316
 30
0.0
 11
2866.656405881563
 21
1448.399487711316
 31
0.0
  0
ARC
  5
2C57
330
1F
100
AcDbEntity
  8
AM_4
100
AcDbCircle
 10
2749.656405881563
 20
1322.399487711316
 30
0.0
 40
7.0
100
AcDbArc
 50
260.0
 51
170.0
  0
CIRCLE
  5
2C58
330
1F
100
AcDbEntity
  8
AM_0
100
AcDbCircle
 10
2749.656405881563
 20
1322.399487711316
 30
0.0
 40
5.917468245269549
  0
LINE
  5
2C59
330
1F
100
AcDbEntity
  8
AM_7
  6
AM_ISO08W050x2
100
AcDbLine
 10
2740.656405881563
 20
1322.399487711316
 30
0.0
 11
2758.656405881563
 21
1322.399487711316
 31
0.0
  0
LINE
  5
2C5A
330
1F
100
AcDbEntity
  8
AM_7
  6
AM_ISO08W050x2
100
AcDbLine
 10
2749.656405881563
 20
1313.399487711316
 30
0.0
 11
2749.656405881563
 21
1331.399487711316
 31
0.0
  0
ARC
  5
2C5B
330
1F
100
AcDbEntity
  8
AM_4
100
AcDbCircle
 10
2866.656405881563
 20
1322.399487711316
 30
0.0
 40
7.0
100
AcDbArc
 50
260.0
 51
170.0
  0
CIRCLE
  5
2C5C
330
1F
100
AcDbEntity
  8
AM_0
100
AcDbCircle
 10
2866.656405881563
 20
1322.399487711316
 30
0.0
 40
5.917468245269549
  0
LINE
  5
2C5D
330
1F
100
AcDbEntity
  8
AM_7
  6
AM_ISO08W050x2
100
AcDbLine
 10
2857.656405881563
 20
1322.399487711316
 30
0.0
 11
2875.656405881563
 21
1322.399487711316
 31
0.0
  0
LINE
  5
2C5E
330
1F
100
AcDbEntity
  8
AM_7
  6
AM_ISO08W050x2
100
AcDbLine
 10
2866.656405881563
 20
1313.399487711316
 30
0.0
 11
2866.656405881563
 21
1331.399487711316
 31
0.0
  0
LINE
  5
2C6C
330
1F
100
AcDbEntity
  8
AM_7
100
AcDbLine
 10
2899.656405881563
 20
1319.399487711316
 30
0.0
 11
2910.656405881563
 21
1319.399487711316
 31
0.0
1001
GENIUS_GENOREF_13
1005
2C70
  0
LINE
  5
2C6D
330
1F
100
AcDbEntity
  8
AM_7
100
AcDbLine
 10
2899.656405881563
 20
1319.399487711316
 30
0.0
 11
2899.656405881563
 21
1330.399487711316
 31
0.0
1001
GENIUS_GENOREF_13
1005
2C70
  0
LINE
  5
2C6E
330
1F
100
AcDbEntity
  8
AM_7
100
AcDbLine
 10
2899.656405881563
 20
1319.399487711316
 30
0.0
 11
2888.656405881563
 21
1319.399487711316
 31
0.0
1001
GENIUS_GENOREF_13
1005
2C70
  0
LINE
  5
2C6F
330
1F
100
AcDbEntity
  8
AM_7
100
AcDbLine
 10
2899.656405881563
 20
1319.399487711316
 30
0.0
 11
2899.656405881563
 21
1308.399487711316
 31
0.0
1001
GENIUS_GENOREF_13
1005
2C70
  0
POINT
  5
2C70
330
1F
100
AcDbEntity
  8
0
 60
     1
100
AcDbPoint
 10
0.0
 20
0.0
 30
0.0
1001
GENIUS_GENOBJ-N-CRS_13
1002
{
1000
OWNER
1000
GEN
1002
}
1001
GENIUS_GENOENT_13
1002
{
1000
MYREF
1005
2C70
1002
}
1002
{
1000
GRP
1005
0
1002
}
1001
GENIUS_GENOLIS_13
1002
{
1000
ENT
1005
2C6F
1005
2C6E
1005
2C6D
1005
2C6C
1002
}
1001
GENIUS_GENODEF_13
1002
{
1000
HIER
1070
    10
1002
}
1002
{
1000
MANEDIT
1070
     0
1002
}
1002
{
1000
NOSEL
1070
     0
1002
}
1002
{
1000
BEHIND
1070
     0
1002
}
1002
{
1000
OTHER
1070
     0
1002
}
1002
{
1000
REACTOR
1002
}
  0
LINE
  5
2C7E
330
1F
100
AcDbEntity
  8
AM_7
100
AcDbLine
 10
2716.656405881563
 20
1319.399487711316
 30
0.0
 11
2727.656405881563
 21
1319.399487711316
 31
0.0
1001
GENIUS_GENOREF_13
1005
2C82
  0
LINE
  5
2C7F
330
1F
100
AcDbEntity
  8
AM_7
100
AcDbLine
 10
2716.656405881563
 20
1319.399487711316
 30
0.0
 11
2716.656405881563
 21
1330.399487711316
 31
0.0
1001
GENIUS_GENOREF_13
1005
2C82
  0
LINE
  5
2C80
330
1F
100
AcDbEntity
  8
AM_7
100
AcDbLine
 10
2716.656405881563
 20
1319.399487711316
 30
0.0
 11
2705.656405881563
 21
1319.399487711316
 31
0.0
1001
GENIUS_GENOREF_13
1005
2C82
  0
LINE
  5
2C81
330
1F
100
AcDbEntity
  8
AM_7
100
AcDbLine
 10
2716.656405881563
 20
1319.399487711316
 30
0.0
 11
2716.656405881563
 21
1308.399487711316
 31
0.0
1001
GENIUS_GENOREF_13
1005
2C82
  0
POINT
  5
2C82
330
1F
100
AcDbEntity
  8
0
 60
     1
100
AcDbPoint
 10
0.0
 20
0.0
 30
0.0
1001
GENIUS_GENOLIS_13
1002
{
1000
ENT
1005
2C81
1005
2C80
1005
2C7F
1005
2C7E
1002
}
1001
GENIUS_GENOENT_13
1002
{
1000
MYREF
1005
2C82
1002
}
1002
{
1000
GRP
1005
0
1002
}
1001
GENIUS_GENOBJ-N-CRS_13
1002
{
1000
OWNER
1000
GEN
1002
}
1001
GENIUS_GENODEF_13
1002
{
1000
HIER
1070
    10
1002
}
1002
{
1000
MANEDIT
1070
     0
1002
}
1002
{
1000
NOSEL
1070
     0
1002
}
1002
{
1000
BEHIND
1070
     0
1002
}
1002
{
1000
OTHER
1070
     0
1002
}
1002
{
1000
REACTOR
1002
}
  0
LINE
  5
2C90
330
1F
100
AcDbEntity
  8
AM_7
100
AcDbLine
 10
2716.656405881563
 20
1442.399487711316
 30
0.0
 11
2727.656405881563
 21
1442.399487711316
 31
0.0
1001
GENIUS_GENOREF_13
1005
2C94
  0
LINE
  5
2C91
330
1F
100
AcDbEntity
  8
AM_7
100
AcDbLine
 10
2716.656405881563
 20
1442.399487711316
 30
0.0
 11
2716.656405881563
 21
1453.399487711316
 31
0.0
1001
GENIUS_GENOREF_13
1005
2C94
  0
LINE
  5
2C92
330
1F
100
AcDbEntity
  8
AM_7
100
AcDbLine
 10
2716.656405881563
 20
1442.399487711316
 30
0.0
 11
2705.656405881563
 21
1442.399487711316
 31
0.0
1001
GENIUS_GENOREF_13
1005
2C94
  0
LINE
  5
2C93
330
1F
100
AcDbEntity
  8
AM_7
100
AcDbLine
 10
2716.656405881563
 20
1442.399487711316
 30
0.0
 11
2716.656405881563
 21
1431.399487711316
 31
0.0
1001
GENIUS_GENOREF_13
1005
2C94
  0
POINT
  5
2C94
330
1F
100
AcDbEntity
  8
0
 60
     1
100
AcDbPoint
 10
0.0
 20
0.0
 30
0.0
1001
GENIUS_GENODEF_13
1002
{
1000
HIER
1070
    10
1002
}
1002
{
1000
MANEDIT
1070
     0
1002
}
1002
{
1000
NOSEL
1070
     0
1002
}
1002
{
1000
BEHIND
1070
     0
1002
}
1002
{
1000
OTHER
1070
     0
1002
}
1002
{
1000
REACTOR
1002
}
1001
GENIUS_GENOLIS_13
1002
{
1000
ENT
1005
2C93
1005
2C92
1005
2C91
1005
2C90
1002
}
1001
GENIUS_GENOENT_13
1002
{
1000
MYREF
1005
2C94
1002
}
1002
{
1000
GRP
1005
0
1002
}
1001
GENIUS_GENOBJ-N-CRS_13
1002
{
1000
OWNER
1000
GEN
1002
}
  0
LINE
  5
2CA2
330
1F
100
AcDbEntity
  8
AM_7
100
AcDbLine
 10
2899.656405881563
 20
1442.399487711316
 30
0.0
 11
2910.656405881563
 21
1442.399487711316
 31
0.0
1001
GENIUS_GENOREF_13
1005
2CA6
  0
LINE
  5
2CA3
330
1F
100
AcDbEntity
  8
AM_7
100
AcDbLine
 10
2899.656405881563
 20
1442.399487711316
 30
0.0
 11
2899.656405881563
 21
1453.399487711316
 31
0.0
1001
GENIUS_GENOREF_13
1005
2CA6
  0
LINE
  5
2CA4
330
1F
100
AcDbEntity
  8
AM_7
100
AcDbLine
 10
2899.656405881563
 20
1442.399487711316
 30
0.0
 11
2888.656405881563
 21
1442.399487711316
 31
0.0
1001
GENIUS_GENOREF_13
1005
2CA6
  0
LINE
  5
2CA5
330
1F
100
AcDbEntity
  8
AM_7
100
AcDbLine
 10
2899.656405881563
 20
1442.399487711316
 30
0.0
 11
2899.656405881563
 21
1431.399487711316
 31
0.0
1001
GENIUS_GENOREF_13
1005
2CA6
  0
POINT
  5
2CA6
330
1F
100
AcDbEntity
  8
0
 60
     1
100
AcDbPoint
 10
0.0
 20
0.0
 30
0.0
1001
GENIUS_GENODEF_13
1002
{
1000
HIER
1070
    10
1002
}
1002
{
1000
MANEDIT
1070
     0
1002
}
1002
{
1000
NOSEL
1070
     0
1002
}
1002
{
1000
BEHIND
1070
     0
1002
}
1002
{
1000
OTHER
1070
     0
1002
}
1002
{
1000
REACTOR
1002
}
1001
GENIUS_GENOENT_13
1002
{
1000
MYREF
1005
2CA6
1002
}
1002
{
1000
GRP
1005
0
1002
}
1001
GENIUS_GENOBJ-N-CRS_13
1002
{
1000
OWNER
1000
GEN
1002
}
1001
GENIUS_GENOLIS_13
1002
{
1000
ENT
1005
2CA5
1005
2CA4
1005
2CA3
1005
2CA2
1002
}
  0
ENDSEC
  0
SECTION
  2
OBJECTS
  0
DICTIONARY
  5
C
330
0
100
AcDbDictionary
281
     1
  3
ACAD_COLOR
350
BE
  3
ACAD_GROUP
350
D
  3
ACAD_LAYOUT
350
1A
  3
ACAD_MATERIAL
350
BD
  3
ACAD_MLINESTYLE
350
17
  3
ACAD_PLOTSETTINGS
350
19
  3
ACAD_PLOTSTYLENAME
350
E
  3
ACAD_TABLESTYLE
350
11A
  3
ACDBHEADERROUNDTRIPXREC
350
2D3C
  3
AcDbVariableDictionary
350
94
  3
AcmDictionary
350
5B
  3
AMG
350
41
  3
AMGSNAPSETTINGS
350
1B8
  3
DWGPROPS
350
2D3B
  0
DICTIONARY
  5
3F9
330
2
100
AcDbDictionary
280
     1
281
     1
  3
ACAD_LAYERFILTERS
360
2BE8
  3
ACAD_LAYERSTATES
360
7A7
  3
ACLYDICTIONARY
360
2BE7
  0
DICTIONARY
  5
8F
330
1F
100
AcDbDictionary
280
     1
281
     1
  3
ACAD_SORTENTS
360
17D9
  0
DICTIONARY
  5
20E3
330
20D6
100
AcDbDictionary
280
     1
281
     1
  3
ACAD_DIMASSOC
360
20E4
  0
DICTIONARY
  5
BE
102
{ACAD_REACTORS
330
C
102
}
330
C
100
AcDbDictionary
281
     1
  0
DICTIONARY
  5
D
102
{ACAD_REACTORS
330
C
102
}
330
C
100
AcDbDictionary
281
     1
  0
DICTIONARY
  5
1A
102
{ACAD_REACTORS
330
C
102
}
330
C
100
AcDbDictionary
281
     1
  3
Model
350
22
  3
配置1
350
1E
  3
配置2
350
26
  0
DICTIONARY
  5
BD
102
{ACAD_REACTORS
330
C
102
}
330
C
100
AcDbDictionary
281
     1
  0
DICTIONARY
  5
17
102
{ACAD_REACTORS
330
C
102
}
330
C
100
AcDbDictionary
281
     1
  3
Standard
350
18
  0
DICTIONARY
  5
19
102
{ACAD_REACTORS
330
C
102
}
330
C
100
AcDbDictionary
281
     1
  0
ACDBDICTIONARYWDFLT
  5
E
102
{ACAD_REACTORS
330
C
102
}
330
C
100
AcDbDictionary
281
     1
  3
Normal
350
F
100
AcDbDictionaryWithDefault
340
F
  0
DICTIONARY
  5
11A
102
{ACAD_REACTORS
330
C
102
}
330
C
100
AcDbDictionary
281
     1
  3
Standard
350
11B
  0
DICTIONARY
  5
2D3C
102
{ACAD_REACTORS
330
C
102
}
330
C
100
AcDbDictionary
281
     1
  0
DICTIONARY
  5
94
102
{ACAD_REACTORS
330
C
102
}
330
C
100
AcDbDictionary
281
     1
  3
CTABLESTYLE
350
138
  3
DIMASSOC
350
96
  3
INDEXCTL
350
95
  3
PROJECTNAME
350
2D39
  0
DICTIONARY
  5
5B
102
{ACAD_REACTORS
330
C
102
}
330
C
100
AcDbDictionary
281
     1
  3
AcmBOM
350
1B5
  3
AcmStdDictionary
350
61
  3
AMDTSECTSYM_ARROWCOLOR
350
123
  0
DICTIONARY
  5
41
102
{ACAD_REACTORS
330
C
102
}
330
C
100
AcDbDictionary
281
     1
  0
DICTIONARY
  5
1B8
102
{ACAD_REACTORS
330
C
102
}
330
C
100
AcDbDictionary
281
     1
  0
XRECORD
  5
2D3B
102
{ACAD_REACTORS
330
C
102
}
330
C
100
AcDbXrecord
280
     1
  1
DWGPROPS COOKIE
  2

  3

  4

  6

  7

  8

  9

300
AmdtFileType=84
301
=
302
=
303
=
304
=
305
=
306
=
307
=
308
=
309
=
 40
0.2526047222222222
 41
2453516.660980903
 42
2453517.563595556
  1

 90
        1
  0
DICTIONARY
  5
2BE8
102
{ACAD_REACTORS
330
3F9
102
}
330
3F9
100
AcDbDictionary
281
     1
  0
DICTIONARY
  5
7A7
102
{ACAD_REACTORS
330
3F9
102
}
330
3F9
100
AcDbDictionary
281
     1
  0
DICTIONARY
  5
2BE7
102
{ACAD_REACTORS
330
3F9
102
}
330
3F9
100
AcDbDictionary
281
     1
1001
ACAD
1000
<All
  0
SORTENTSTABLE
  5
17D9
102
{ACAD_REACTORS
330
8F
102
}
330
8F
100
AcDbSortentsTable
330
1F
331
20A8
  5
20A8
331
2091
  5
2091
331
1FFB
  5
1FFB
331
1F6F
  5
1F6F
331
1F50
  5
1F50
331
1F39
  5
1F39
331
1983
  5
1983
331
1FC5
  5
1FC5
331
1FDC
  5
1FDC
331
2072
  5
2072
331
14A6
  5
14A6
331
20A9
  5
20A9
331
2092
  5
2092
331
1FFC
  5
1FFC
331
1F70
  5
1F70
331
1F51
  5
1F51
331
1F3A
  5
1F3A
331
1F1B
  5
1F1B
331
1965
  5
1965
331
1984
  5
1984
331
1FC6
  5
1FC6
331
1FDD
  5
1FDD
331
2073
  5
2073
331
14A7
  5
14A7
331
2850
  5
2850
331
20AA
  5
20AA
331
2093
  5
2093
331
1FFD
  5
1FFD
331
1F71
  5
1F71
331
1F52
  5
1F52
331
1F3B
  5
1F3B
331
1F1C
  5
1F1C
331
1966
  5
1966
331
1985
  5
1985
331
1FC7
  5
1FC7
331
1FDE
  5
1FDE
331
2074
  5
2074
331
20AB
  5
20AB
331
2094
  5
2094
331
1FFE
  5
1FFE
331
1F99
  5
1F99
331
1F72
  5
1F72
331
1F53
  5
1F53
331
1F3C
  5
1F3C
331
1967
  5
1967
331
1986
  5
1986
331
1FC8
  5
1FC8
331
1FDF
  5
1FDF
331
2075
  5
2075
331
20AC
  5
20AC
331
2095
  5
2095
331
1FFF
  5
1FFF
331
1F9A
  5
1F9A
331
1F73
  5
1F73
331
1F54
  5
1F54
331
1F3D
  5
1F3D
331
1968
  5
1968
331
1987
  5
1987
331
1FC9
  5
1FC9
331
1FE0
  5
1FE0
331
2076
  5
2076
331
2853
  5
2853
331
20AD
  5
20AD
331
2096
  5
2096
331
2000
  5
2000
331
1F9B
  5
1F9B
331
1F74
  5
1F74
331
1F55
  5
1F55
331
1F3E
  5
1F3E
331
1F1F
  5
1F1F
331
1969
  5
1969
331
1988
  5
1988
331
1FCA
  5
1FCA
331
1FE1
  5
1FE1
331
2077
  5
2077
331
2854
  5
2854
331
20AE
  5
20AE
331
2097
  5
2097
331
2001
  5
2001
331
1F9C
  5
1F9C
331
1F75
  5
1F75
331
1F56
  5
1F56
331
1F3F
  5
1F3F
331
1F20
  5
1F20
331
196A
  5
196A
331
1989
  5
1989
331
1FCB
  5
1FCB
331
1FE2
  5
1FE2
331
2078
  5
2078
331
20AF
  5
20AF
331
2098
  5
2098
331
2002
  5
2002
331
1F76
  5
1F76
331
1F57
  5
1F57
331
1F40
  5
1F40
331
1F21
  5
1F21
331
196B
  5
196B
331
198A
  5
198A
331
1FCC
  5
1FCC
331
1FE3
  5
1FE3
331
2079
  5
2079
331
20D6
  5
20D6
331
20B0
  5
20B0
331
2099
  5
2099
331
2003
  5
2003
331
1F77
  5
1F77
331
1F58
  5
1F58
331
1F41
  5
1F41
331
1F22
  5
1F22
331
196C
  5
196C
331
1FCD
  5
1FCD
331
1FE4
  5
1FE4
331
207A
  5
207A
331
20B1
  5
20B1
331
209A
  5
209A
331
2004
  5
2004
331
1F78
  5
1F78
331
1F59
  5
1F59
331
1F42
  5
1F42
331
1F23
  5
1F23
331
196D
  5
196D
331
1FCE
  5
1FCE
331
1FE5
  5
1FE5
331
207B
  5
207B
331
20B2
  5
20B2
331
209B
  5
209B
331
2005
  5
2005
331
1FCF
  5
1FCF
331
1F79
  5
1F79
331
1F5A
  5
1F5A
331
1F43
  5
1F43
331
1F24
  5
1F24
331
196E
  5
196E
331
1FB0
  5
1FB0
331
1FE6
  5
1FE6
331
207C
  5
207C
331
20B3
  5
20B3
331
209C
  5
209C
331
2006
  5
2006
331
1FD0
  5
1FD0
331
1F5B
  5
1F5B
331
1F44
  5
1F44
331
1F25
  5
1F25
331
196F
  5
196F
331
1FB1
  5
1FB1
331
1FE7
  5
1FE7
331
207D
  5
207D
331
14C0
  5
14C0
331
20B4
  5
20B4
331
209D
  5
209D
331
1FE8
  5
1FE8
331
1FD1
  5
1FD1
331
1F5C
  5
1F5C
331
1F45
  5
1F45
331
1F26
  5
1F26
331
1970
  5
1970
331
1FB2
  5
1FB2
331
2007
  5
2007
331
207E
  5
207E
331
14C1
  5
14C1
331
209E
  5
209E
331
207F
  5
207F
331
2008
  5
2008
331
1FE9
  5
1FE9
331
1FD2
  5
1FD2
331
1F5D
  5
1F5D
331
1F46
  5
1F46
331
1F27
  5
1F27
331
1971
  5
1971
331
1FB3
  5
1FB3
331
20B5
  5
20B5
331
1500
  5
1502
331
14C2
  5
14C2
331
209F
  5
209F
331
2009
  5
2009
331
1FEA
  5
1FEA
331
1FD3
  5
1FD3
331
1F5E
  5
1F5E
331
1F47
  5
1F47
331
1F28
  5
1F28
331
1972
  5
1972
331
1FB4
  5
1FB4
331
2080
  5
2080
331
20B6
  5
20B6
331
1520
  5
1522
331
1501
  5
1503
331
14C3
  5
14C3
331
2B58
  5
2B58
331
20A0
  5
20A0
331
200A
  5
200A
331
1FEB
  5
1FEB
331
1FB5
  5
1FB5
331
1F5F
  5
1F5F
331
1F29
  5
1F29
331
1973
  5
1973
331
1FD4
  5
1FD4
331
2081
  5
2081
331
20B7
  5
20B7
331
1521
  5
1523
331
1502
  5
1504
331
14C4
  5
14C4
331
1538
  5
153A
331
2B59
  5
2B59
331
2B80
  5
2B80
331
20B8
  5
20B8
331
20A1
  5
20A1
331
200B
  5
200B
331
1FEC
  5
1FEC
331
1FB6
  5
1FB6
331
1F60
  5
1F60
331
1F2A
  5
1F2A
331
1974
  5
1974
331
1FD5
  5
1FD5
331
2082
  5
2082
331
1503
  5
1505
331
14E4
  5
14E6
331
14C5
  5
14C5
331
1522
  5
1524
331
1539
  5
153B
331
2B5A
  5
2B5A
331
2B81
  5
2B81
331
20B9
  5
20B9
331
20A2
  5
20A2
331
200C
  5
200C
331
1FED
  5
1FED
331
1FB7
  5
1FB7
331
1F61
  5
1F61
331
1F2B
  5
1F2B
331
1975
  5
1975
331
1FD6
  5
1FD6
331
2083
  5
2083
331
1578
  5
157C
331
1523
  5
1525
331
1504
  5
1506
331
14E5
  5
14E7
331
14C6
  5
14C6
331
153A
  5
153C
331
2BC0
  5
2BC0
331
2B5B
  5
2B5B
331
2B82
  5
2B82
331
20BA
  5
20BA
331
20A3
  5
20A3
331
200D
  5
200D
331
1FEE
  5
1FEE
331
1FB8
  5
1FB8
331
1F62
  5
1F62
331
1F2C
  5
1F2C
331
1976
  5
1976
331
1FD7
  5
1FD7
331
2084
  5
2084
331
1598
  5
159C
331
153B
  5
153D
331
14E6
  5
14E8
331
14C7
  5
14C7
331
1505
  5
1507
331
1524
  5
1526
331
1579
  5
157D
331
2BA2
  5
2BA2
331
2BC1
  5
2BC1
331
2BE0
  5
2BE0
331
2B5C
  5
2B5C
331
2B83
  5
2B83
331
20BB
  5
20BB
331
20A4
  5
20A4
331
200E
  5
200E
331
1FB9
  5
1FB9
331
1F63
  5
1F63
331
1F2D
  5
1F2D
331
1977
  5
1977
331
1FEF
  5
1FEF
331
2085
  5
2085
331
2142
  5
2142
331
15B0
  5
15B4
331
153C
  5
153E
331
1525
  5
1527
331
14E7
  5
14E9
331
14C8
  5
14C8
331
1506
  5
1508
331
157A
  5
157E
331
1599
  5
159D
331
2BC2
  5
2BC2
331
2BE1
  5
2BE1
331
2B5D
  5
2B5D
331
2B84
  5
2B84
331
20BC
  5
20BC
331
20A5
  5
20A5
331
1FBA
  5
1FBA
331
1F64
  5
1F64
331
1F2E
  5
1F2E
331
1FF0
  5
1FF0
331
2086
  5
2086
331
15D0
  5
15D4
331
15B1
  5
15B5
331
159A
  5
159E
331
155C
  5
1560
331
153D
  5
153F
331
14E8
  5
14EA
331
14C9
  5
14C9
331
1507
  5
1509
331
1526
  5
1528
331
157B
  5
157F
331
2BC3
  5
2BC3
331
2BE2
  5
2BE2
331
2B5E
  5
2B5E
331
2B85
  5
2B85
331
2932
  5
2932
331
20BD
  5
20BD
331
20A6
  5
20A6
331
1FBB
  5
1FBB
331
1F65
  5
1F65
331
1F2F
  5
1F2F
331
1FF1
  5
1FF1
331
2087
  5
2087
331
15D1
  5
15D5
331
15B2
  5
15B6
331
155D
  5
1561
331
153E
  5
1540
331
1527
  5
1529
331
14E9
  5
14EB
331
14CA
  5
14CA
331
1508
  5
150A
331
157C
  5
1580
331
159B
  5
159F
331
15F0
  5
15F4
331
2BC4
  5
2BC4
331
2BE3
  5
2BE3
331
2B5F
  5
2B5F
331
2B86
  5
2B86
331
2933
  5
2933
331
20BE
  5
20BE
331
20A7
  5
20A7
331
1FBC
  5
1FBC
331
1F66
  5
1F66
331
1FF2
  5
1FF2
331
2088
  5
2088
331
1610
  5
1614
331
15D2
  5
15D6
331
15B3
  5
15B7
331
159C
  5
15A0
331
155E
  5
1562
331
153F
  5
1541
331
14EA
  5
14EC
331
14CB
  5
14CB
331
1509
  5
150B
331
1528
  5
152A
331
157D
  5
1581
331
15F1
  5
15F5
331
2BA6
  5
2BA6
331
2BC5
  5
2BC5
331
2BE4
  5
2BE4
331
2B87
  5
2B87
331
2B60
  5
2B60
331
2934
  5
2934
331
20BF
  5
20BF
331
1FBD
  5
1FBD
331
1F67
  5
1F67
331
1FF3
  5
1FF3
331
2089
  5
2089
331
15D3
  5
15D7
331
15B4
  5
15B8
331
155F
  5
1563
331
1540
  5
1542
331
1529
  5
152B
331
14EB
  5
14ED
331
14CC
  5
14CC
331
150A
  5
150C
331
157E
  5
1582
331
159D
  5
15A1
331
15F2
  5
15F6
331
1611
  5
1615
331
1628
  5
162C
331
2BA7
  5
2BA7
331
2BC6
  5
2BC6
331
2B88
  5
2B88
331
2B61
  5
2B61
331
20C0
  5
20C0
331
1FBE
  5
1FBE
331
1F87
  5
1F87
331
1FF4
  5
1FF4
331
208A
  5
208A
331
1648
  5
164C
331
1612
  5
1616
331
15D4
  5
15D8
331
15B5
  5
15B9
331
159E
  5
15A2
331
1560
  5
1564
331
1541
  5
1543
331
14EC
  5
14EE
331
14CD
  5
14CD
331
150B
  5
150D
331
152A
  5
152C
331
157F
  5
1583
331
15F3
  5
15F7
331
1629
  5
162D
331
2BA8
  5
2BA8
331
2BC7
  5
2BC7
331
2B89
  5
2B89
331
2955
  5
2955
331
2B62
  5
2B62
331
20C1
  5
20C1
331
208B
  5
208B
331
1FBF
  5
1FBF
331
1FF5
  5
1FF5
331
206C
  5
206C
331
1649
  5
164D
331
15D5
  5
15D9
331
15B6
  5
15BA
331
159F
  5
15A3
331
1561
  5
1565
331
1542
  5
1544
331
152B
  5
152D
331
14ED
  5
14EF
331
14CE
  5
14CE
331
150C
  5
150E
331
1580
  5
1584
331
15F4
  5
15F8
331
1613
  5
1617
331
162A
  5
162E
331
2C4D
  5
2C4D
331
2BA9
  5
2BA9
331
2B8A
  5
2B8A
331
29C5
  5
29C5
331
20C2
  5
20C2
331
208C
  5
208C
331
1FF6
  5
1FF6
331
206D
  5
206D
331
164A
  5
164E
331
1614
  5
1618
331
15D6
  5
15DA
331
15B7
  5
15BB
331
15A0
  5
15A4
331
1562
  5
1566
331
1543
  5
1545
331
14EE
  5
14F0
331
14CF
  5
14CF
331
150D
  5
150F
331
152C
  5
152E
331
1581
  5
1585
331
15F5
  5
15F9
331
162B
  5
162F
331
2C4E
  5
2C4E
331
2BAA
  5
2BAA
331
2B8B
  5
2B8B
331
29C6
  5
29C7
331
2B45
  5
2B45
331
20C3
  5
20C3
331
208D
  5
208D
331
1FF7
  5
1FF7
331
206E
  5
206E
331
164B
  5
164F
331
15D7
  5
15DB
331
15B8
  5
15BC
331
15A1
  5
15A5
331
1563
  5
1567
331
1544
  5
1546
331
14EF
  5
14F1
331
14D0
  5
14D0
331
150E
  5
1510
331
1582
  5
1586
331
15F6
  5
15FA
331
1615
  5
1619
331
162C
  5
1630
331
2BAB
  5
2BAB
331
2B8C
  5
2B8C
331
2958
  5
2958
331
29C7
  5
29E1
331
2B46
  5
2B46
331
2C4F
  5
2C4F
331
20C4
  5
20C4
331
208E
  5
208E
331
206F
  5
206F
331
164C
  5
1650
331
1616
  5
161A
331
15F7
  5
15FB
331
15D8
  5
15DC
331
15B9
  5
15BD
331
1564
  5
1568
331
1545
  5
1547
331
14F0
  5
14F2
331
14D1
  5
14D2
331
150F
  5
1511
331
1583
  5
1587
331
15A2
  5
15A6
331
162D
  5
1631
331
2BAC
  5
2BAC
331
2BEA
  5
2BEA
331
2B8D
  5
2B8D
331
2C50
  5
2C50
331
29C8
  5
29E3
331
2B47
  5
2B47
331
1058
  5
1058
331
208F
  5
208F
331
166C
  5
1677
331
164D
  5
1651
331
15F8
  5
15FC
331
15D9
  5
15DD
331
15BA
  5
15BE
331
15A3
  5
15A7
331
1565
  5
1569
331
1546
  5
1548
331
14D2
  5
14D4
331
14F1
  5
14F3
331
1510
  5
1512
331
1584
  5
1588
331
1617
  5
161B
331
162E
  5
1632
331
2BAD
  5
2BAD
331
2BCC
  5
2BCC
331
2BEB
  5
2BEB
331
2B8E
  5
2B8E
331
2B48
  5
2B48
331
1078
  5
1078
331
1059
  5
1059
331
284D
  5
284D
331
166D
  5
1678
331
164E
  5
1652
331
1618
  5
161C
331
15F9
  5
15FD
331
15DA
  5
15DE
331
15BB
  5
15BF
331
1566
  5
156A
331
1547
  5
1549
331
1530
  5
1532
331
14F2
  5
14F4
331
14D3
  5
14D5
331
1511
  5
1513
331
1585
  5
1589
331
15A4
  5
15A8
331
162F
  5
1633
331
2BAE
  5
2BAE
331
2BCD
  5
2BCD
331
2B8F
  5
2B8F
331
2B49
  5
2B49
331
105A
  5
105A
331
1079
  5
1079
331
1098
  5
1098
331
166E
  5
1679
331
1630
  5
1634
331
15FA
  5
15FE
331
15DB
  5
15DF
331
15BC
  5
15C0
331
15A5
  5
15A9
331
1567
  5
156B
331
1531
  5
1533
331
14D4
  5
14D6
331
14F3
  5
14F5
331
1512
  5
1514
331
1586
  5
158A
331
1619
  5
161D
331
164F
  5
1653
331
2BAF
  5
2BAF
331
2BCE
  5
2BCE
331
2BED
  5
2BED
331
2B90
  5
2B90
331
2B4A
  5
2B4A
331
10B0
  5
10B0
331
107A
  5
107A
331
103C
  5
103C
331
105B
  5
105B
331
1650
  5
1654
331
1631
  5
1635
331
161A
  5
161E
331
15FB
  5
15FF
331
15DC
  5
15E0
331
15BD
  5
15C1
331
1549
  5
154B
331
1532
  5
1534
331
14F4
  5
14F6
331
14D5
  5
14D7
331
1513
  5
1515
331
1568
  5
1573
331
1587
  5
158B
331
15A6
  5
15AA
331
166F
  5
167A
331
2BB0
  5
2BB0
331
2BCF
  5
2BCF
331
2B91
  5
2B91
331
2B4B
  5
2B4B
331
105C
  5
105C
331
103D
  5
103D
331
107B
  5
107B
331
10B1
  5
10B1
331
1651
  5
1655
331
1632
  5
1636
331
15FC
  5
1600
331
15DD
  5
15E1
331
15BE
  5
15C2
331
15A7
  5
15AB
331
1569
  5
1574
331
154A
  5
154C
331
14D6
  5
14D8
331
14F5
  5
14F7
331
1514
  5
1516
331
1533
  5
1535
331
1588
  5
158C
331
161B
  5
161F
331
2BB1
  5
2BB1
331
2BD0
  5
2BD0
331
2BEF
  5
2BEF
331
2B7B
  5
2B7B
331
2B92
  5
2B92
331
2B4C
  5
2B4C
331
10B2
  5
10B2
331
107C
  5
107C
331
103E
  5
103E
331
105D
  5
105D
331
1652
  5
1656
331
1633
  5
1637
331
161C
  5
1620
331
15FD
  5
1601
331
15DE
  5
15E2
331
15BF
  5
15C3
331
154B
  5
154E
331
1534
  5
1536
331
14F6
  5
14F8
331
14D7
  5
14D9
331
1515
  5
1517
331
156A
  5
1575
331
1589
  5
158D
331
15A8
  5
15AC
331
2B7C
  5
2B7C
331
2BB2
  5
2BB2
331
2BD1
  5
2BD1
331
2B4D
  5
2B4D
331
10B3
  5
10B3
331
105E
  5
105E
331
103F
  5
103F
331
107D
  5
107D
331
109C
  5
109C
331
14A8
  5
14A8
331
1653
  5
1657
331
1634
  5
1638
331
15FE
  5
1602
331
15DF
  5
15E3
331
15C0
  5
15C4
331
15A9
  5
15AD
331
156B
  5
1576
331
154C
  5
1550
331
14D8
  5
14DA
331
14F7
  5
14F9
331
1516
  5
1518
331
1535
  5
1537
331
158A
  5
158E
331
161D
  5
1621
331
2B7D
  5
2B7D
331
2BB3
  5
2BB3
331
2BD2
  5
2BD2
331
2B4E
  5
2B4E
331
10B4
  5
10B4
331
107E
  5
107E
331
1040
  5
1040
331
105F
  5
105F
331
14A9
  5
14A9
331
1654
  5
1658
331
1635
  5
1639
331
161E
  5
1622
331
15FF
  5
1603
331
15C1
  5
15C5
331
154D
  5
1551
331
1536
  5
1538
331
14F8
  5
14FA
331
14D9
  5
14DB
331
1517
  5
1519
331
158B
  5
158F
331
15AA
  5
15AE
331
15E0
  5
15E4
331
2B7E
  5
2B7E
331
2BB4
  5
2BB4
331
2BD3
  5
2BD3
331
29E0
  5
29E2
331
2B4F
  5
2B4F
331
10B5
  5
10B5
331
1060
  5
1060
331
1041
  5
1041
331
107F
  5
107F
331
14AA
  5
14AA
331
1655
  5
1659
331
1636
  5
163A
331
161F
  5
1623
331
1600
  5
1604
331
15E1
  5
15E5
331
15C2
  5
15C6
331
15AB
  5
15AF
331
154E
  5
1552
331
14DA
  5
14DC
331
14F9
  5
14FB
331
1518
  5
151A
331
1537
  5
1539
331
158C
  5
1590
331
2BB5
  5
2BB5
331
2BD4
  5
2BD4
331
2B7F
  5
2B7F
331
2B96
  5
2B96
331
29E1
  5
29E0
331
2B50
  5
2B50
331
10B6
  5
10B6
331
1042
  5
1042
331
1061
  5
1061
331
1080
  5
1080
331
14AB
  5
14AB
331
1656
  5
165A
331
1637
  5
163B
331
1620
  5
1624
331
1601
  5
1605
331
15C3
  5
15C7
331
154F
  5
1553
331
14FA
  5
14FC
331
1519
  5
151B
331
158D
  5
1591
331
15AC
  5
15B0
331
15E2
  5
15E6
331
2BB6
  5
2BB6
331
2BD5
  5
2BD5
331
29E2
  5
29C8
331
2B51
  5
2B51
331
10B7
  5
10B7
331
1062
  5
1062
331
1043
  5
1043
331
10A0
  5
10A0
331
14AC
  5
14AC
331
1865
  5
14D1
331
1638
  5
163C
331
1621
  5
1625
331
1602
  5
1606
331
15E3
  5
15E7
331
15C4
  5
15C8
331
15AD
  5
15B1
331
1550
  5
1554
331
14FB
  5
14FD
331
151A
  5
151C
331
158E
  5
1592
331
1657
  5
165B
331
2BB7
  5
2BB7
331
2BD6
  5
2BD6
331
29E3
  5
29C6
331
2B52
  5
2B52
331
10B8
  5
10B8
331
1044
  5
1044
331
1063
  5
1063
331
10A1
  5
10A1
331
14AD
  5
14AD
331
1866
  5
14D3
331
1658
  5
165C
331
1639
  5
163D
331
1603
  5
1607
331
15C5
  5
15C9
331
1551
  5
1555
331
14FC
  5
14FE
331
14DD
  5
14DF
331
151B
  5
151D
331
158F
  5
1593
331
15AE
  5
15B2
331
15E4
  5
15E8
331
1622
  5
1626
331
1677
  5
1682
331
2BD7
  5
2BD7
331
2B53
  5
2B53
331
2BB8
  5
2BB8
331
10B9
  5
10B9
331
1064
  5
1064
331
1045
  5
1045
331
10A2
  5
10A2
331
14AE
  5
14AE
331
1867
  5
154F
331
163A
  5
163E
331
1623
  5
1627
331
1604
  5
1608
331
15E5
  5
15E9
331
15AF
  5
15B3
331
1590
  5
1594
331
151C
  5
151E
331
14FD
  5
14FF
331
1552
  5
1556
331
15C6
  5
15CA
331
1659
  5
165D
331
1678
  5
1683
331
2B54
  5
2B54
331
2B9A
  5
2B9A
331
2BB9
  5
2BB9
331
2BD8
  5
2BD8
331
10BA
  5
10BA
331
1065
  5
1065
331
1046
  5
1046
331
1084
  5
1084
331
14AF
  5
14AF
331
1868
  5
154D
331
163B
  5
163F
331
1605
  5
1609
331
151D
  5
151F
331
14FE
  5
1500
331
1591
  5
1595
331
15C7
  5
15CB
331
15E6
  5
15EA
331
1624
  5
1628
331
165A
  5
165E
331
1679
  5
1684
331
2B55
  5
2B55
331
2BBA
  5
2BBA
331
2BD9
  5
2BD9
331
14B0
  5
14B0
331
1066
  5
1066
331
1047
  5
1047
331
10BB
  5
10BB
331
1491
  5
1491
331
163C
  5
1640
331
1625
  5
1629
331
1606
  5
160A
331
15E7
  5
15EB
331
1592
  5
1596
331
151E
  5
1520
331
14FF
  5
1501
331
1573
  5
1577
331
15C8
  5
15CC
331
165B
  5
165F
331
167A
  5
1685
331
2B56
  5
2B56
331
2BBB
  5
2BBB
331
2BDA
  5
2BDA
331
14B1
  5
14B1
331
10BC
  5
10BC
331
1067
  5
1067
331
1048
  5
1048
331
1492
  5
1492
331
165C
  5
1660
331
163D
  5
1641
331
1607
  5
160B
331
1593
  5
1597
331
151F
  5
1521
331
1574
  5
1578
331
15C9
  5
15CD
331
15E8
  5
15EC
331
1626
  5
162A
331
2B57
  5
2B57
331
2BBC
  5
2BBC
331
2BDB
  5
2BDB
331
14B2
  5
14B2
331
10BD
  5
10BD
331
1049
  5
1049
331
1068
  5
1068
331
10A6
  5
10A6
331
1493
  5
1493
331
163E
  5
1642
331
1627
  5
162B
331
1608
  5
160C
331
15E9
  5
15ED
331
1594
  5
1598
331
1556
  5
155A
331
1575
  5
1579
331
15CA
  5
15CE
331
165D
  5
1661
331
2B9E
  5
2B9E
331
2BBD
  5
2BBD
331
2BDC
  5
2BDC
331
10BE
  5
10BE
331
10A7
  5
10A7
331
1069
  5
1069
331
104A
  5
104A
331
1088
  5
1088
331
1494
  5
1494
331
14B3
  5
14B3
331
165E
  5
1662
331
163F
  5
1643
331
1609
  5
160D
331
1595
  5
1599
331
1576
  5
157A
331
1557
  5
155B
331
15CB
  5
15CF
331
15EA
  5
15EE
331
2BBE
  5
2BBE
331
2BDD
  5
2BDD
331
14B4
  5
14B4
331
10BF
  5
10BF
331
104B
  5
104B
331
106A
  5
106A
331
1089
  5
1089
331
10A8
  5
10A8
331
1495
  5
1495
331
1640
  5
1644
331
160A
  5
160E
331
15EB
  5
15EF
331
1596
  5
159A
331
1577
  5
157B
331
15CC
  5
15D0
331
165F
  5
1663
331
2BBF
  5
2BBF
331
2BDE
  5
2BDE
331
10C0
  5
10C0
331
106B
  5
106B
331
104C
  5
104C
331
10A9
  5
10A9
331
1496
  5
1496
331
14B5
  5
14B5
331
1660
  5
1664
331
1641
  5
1645
331
160B
  5
160F
331
15EC
  5
15F0
331
1597
  5
159B
331
15CD
  5
15D1
331
2BDF
  5
2BDF
331
14B6
  5
14B6
331
10C1
  5
10C1
331
104D
  5
104D
331
106C
  5
106C
331
10AA
  5
10AA
331
1497
  5
1497
331
1642
  5
1646
331
15ED
  5
15F1
331
15CE
  5
15D2
331
160C
  5
1610
331
1661
  5
166C
331
14B7
  5
14B7
331
10C2
  5
10C2
331
106D
  5
106D
331
104E
  5
104E
331
10AB
  5
10AB
331
1498
  5
1498
331
1662
  5
166D
331
1643
  5
1647
331
15EE
  5
15F2
331
15CF
  5
15D3
331
160D
  5
1611
331
14B8
  5
14B8
331
10C3
  5
10C3
331
10AC
  5
10AC
331
104F
  5
104F
331
106E
  5
106E
331
108D
  5
108D
331
1499
  5
1499
331
1644
  5
1648
331
15EF
  5
15F3
331
160E
  5
1612
331
1663
  5
166E
331
1682
  5
16B1
331
149A
  5
149A
331
10AD
  5
10AD
331
106F
  5
106F
331
1050
  5
1050
331
108E
  5
108E
331
14B9
  5
14B9
331
1664
  5
166F
331
1645
  5
1649
331
160F
  5
1613
331
1683
  5
16B4
331
1978
  5
1978
331
14BA
  5
14BA
331
149B
  5
149B
331
10AE
  5
10AE
331
1051
  5
1051
331
1070
  5
1070
331
108F
  5
108F
331
1646
  5
164A
331
1684
  5
16CB
331
1979
  5
1979
331
1090
  5
1090
331
1071
  5
1071
331
1052
  5
1052
331
10AF
  5
10AF
331
149C
  5
149C
331
14BB
  5
14BB
331
1647
  5
164B
331
1685
  5
16CE
331
1F30
  5
1F30
331
197A
  5
197A
331
14BC
  5
14BC
331
1091
  5
1091
331
1053
  5
1053
331
1072
  5
1072
331
149D
  5
149D
331
1F48
  5
1F48
331
1F31
  5
1F31
331
197B
  5
197B
331
1092
  5
1092
331
1073
  5
1073
331
1054
  5
1054
331
149E
  5
149E
331
14BD
  5
14BD
331
1F68
  5
1F68
331
1F49
  5
1F49
331
1F32
  5
1F32
331
197C
  5
197C
331
14BE
  5
14BE
331
1093
  5
1093
331
1055
  5
1055
331
1074
  5
1074
331
149F
  5
149F
331
1F88
  5
1F88
331
1F69
  5
1F69
331
1F4A
  5
1F4A
331
1F33
  5
1F33
331
197D
  5
197D
331
1094
  5
1094
331
1075
  5
1075
331
1056
  5
1056
331
14A0
  5
14A0
331
14BF
  5
14BF
331
1FC0
  5
1FC0
331
1F89
  5
1F89
331
1F6A
  5
1F6A
331
1F4B
  5
1F4B
331
1F34
  5
1F34
331
197E
  5
197E
331
14A1
  5
14A1
331
1076
  5
1076
331
1057
  5
1057
331
1FC1
  5
1FC1
331
1F8A
  5
1F8A
331
1F6B
  5
1F6B
331
1F4C
  5
1F4C
331
1F35
  5
1F35
331
197F
  5
197F
331
1FD8
  5
1FD8
331
14A2
  5
14A2
331
1077
  5
1077
331
1FF8
  5
1FF8
331
1FC2
  5
1FC2
331
1F6C
  5
1F6C
331
1F4D
  5
1F4D
331
1980
  5
1980
331
1F36
  5
1F36
331
1FD9
  5
1FD9
331
14A3
  5
14A3
331
1FF9
  5
1FF9
331
1FC3
  5
1FC3
331
1F6D
  5
1F6D
331
1F4E
  5
1F4E
331
1981
  5
1981
331
1F37
  5
1F37
331
1FDA
  5
1FDA
331
2070
  5
2070
331
14A4
  5
14A4
331
2090
  5
2090
331
1FFA
  5
1FFA
331
1FC4
  5
1FC4
331
1F6E
  5
1F6E
331
1F4F
  5
1F4F
331
1982
  5
1982
331
1F38
  5
1F38
331
1FDB
  5
1FDB
331
2071
  5
2071
331
14A5
  5
14A5
  0
DIMASSOC
  5
20E4
102
{ACAD_REACTORS
330
20E3
102
}
330
20E3
100
AcDbDimAssoc
330
20D6
 90
        1
 70
     0
 71
     0
  1
AcDbOsnapPointRef
 72
    13
331
1494
 73
     0
 91
        0
 40
0.0
 10
0.0
 20
0.0
 30
2.000000000000000E+50
 75
     0
  0
LAYOUT
  5
22
102
{ACAD_XDICTIONARY
360
2D3F
102
}
102
{ACAD_REACTORS
330
1A
102
}
330
1A
100
AcDbPlotSettings
  1

  2
\\RD\EPSON Stylus C63 Series單色
  4
A4
  6

 40
3.757083177566528
 41
3.757076978683471
 42
3.757080078125
 43
3.757080078125
 44
209.9733276367187
 45
296.9683227539062
 46
0.0
 47
0.0
 48
0.0
 49
0.0
140
0.0
141
0.0
142
1.0
143
3.746472146742677
 70
 11952
 72
     1
 73
     1
 74
     0
  7

 75
     0
147
0.2669177724621381
148
-1986.13188401238
149
-1223.257962850922
100
AcDbLayout
  1
Model
 70
     1
 71
     0
 10
0.0
 20
0.0
 11
12.0
 21
9.0
 12
0.0
 22
0.0
 32
0.0
 14
0.0
 24
0.0
 34
0.0
 15
0.0
 25
0.0
 35
0.0
146
0.0
 13
0.0
 23
0.0
 33
0.0
 16
1.0
 26
0.0
 36
0.0
 17
0.0
 27
1.0
 37
0.0
 76
     0
330
1F
1001
ACAD_PSEXT
1000
\\RD\EPSON Stylus C63 Series單色
1000
EPSON Stylus C63 Series
1000
\\RD
1000

1070
     0
  0
LAYOUT
  5
1E
102
{ACAD_XDICTIONARY
360
2D3D
102
}
102
{ACAD_REACTORS
330
1A
102
}
330
1A
100
AcDbPlotSettings
  1

  2

  4

  6

 40
0.0
 41
0.0
 42
0.0
 43
0.0
 44
0.0
 45
0.0
 46
0.0
 47
0.0
 48
0.0
 49
0.0
140
0.0
141
0.0
142
1.0
143
1.0
 70
   688
 72
     0
 73
     0
 74
     5
  7

 75
    16
147
1.0
148
0.0
149
0.0
100
AcDbLayout
  1
配置1
 70
     1
 71
     1
 10
0.0
 20
0.0
 11
420.0
 21
297.0
 12
0.0
 22
0.0
 32
0.0
 14
1.000000000000000E+20
 24
1.000000000000000E+20
 34
1.000000000000000E+20
 15
-1.000000000000000E+20
 25
-1.000000000000000E+20
 35
-1.000000000000000E+20
146
0.0
 13
0.0
 23
0.0
 33
0.0
 16
1.0
 26
0.0
 36
0.0
 17
0.0
 27
1.0
 37
0.0
 76
     0
330
1B
  0
LAYOUT
  5
26
102
{ACAD_XDICTIONARY
360
2D41
102
}
102
{ACAD_REACTORS
330
1A
102
}
330
1A
100
AcDbPlotSettings
  1

  2

  4

  6

 40
0.0
 41
0.0
 42
0.0
 43
0.0
 44
0.0
 45
0.0
 46
0.0
 47
0.0
 48
0.0
 49
0.0
140
0.0
141
0.0
142
1.0
143
1.0
 70
   688
 72
     0
 73
     0
 74
     5
  7

 75
    16
147
1.0
148
0.0
149
0.0
100
AcDbLayout
  1
配置2
 70
     1
 71
     2
 10
0.0
 20
0.0
 11
12.0
 21
9.0
 12
0.0
 22
0.0
 32
0.0
 14
0.0
 24
0.0
 34
0.0
 15
0.0
 25
0.0
 35
0.0
146
0.0
 13
0.0
 23
0.0
 33
0.0
 16
1.0
 26
0.0
 36
0.0
 17
0.0
 27
1.0
 37
0.0
 76
     0
330
23
  0
MLINESTYLE
  5
18
102
{ACAD_REACTORS
330
17
102
}
330
17
100
AcDbMlineStyle
  2
STANDARD
 70
     0
  3

 62
   256
 51
90.0
 52
90.0
 71
     2
 49
0.5
 62
   256
  6
BYLAYER
 49
-0.5
 62
   256
  6
BYLAYER
  0
ACDBPLACEHOLDER
  5
F
102
{ACAD_REACTORS
330
E
102
}
330
E
  0
TABLESTYLE
  5
11B
102
{ACAD_REACTORS
330
11A
102
}
330
11A
100
AcDbTableStyle
  3
Standard
 70
     0
 71
     0
 40
1.5
 41
1.5
280
     0
281
     0
  7
STANDARD
140
4.5
170
     2
 62
     0
 63
     7
283
     0
274
    -2
284
     1
 64
     0
275
    -2
285
     1
 65
     0
276
    -2
286
     1
 66
     0
277
    -2
287
     1
 67
     0
278
    -2
288
     1
 68
     0
279
    -2
289
     1
 69
     0
  7
STANDARD
140
6.0
170
     5
 62
     0
 63
     7
283
     0
274
    -2
284
     1
 64
     0
275
    -2
285
     1
 65
     0
276
    -2
286
     1
 66
     0
277
    -2
287
     1
 67
     0
278
    -2
288
     1
 68
     0
279
    -2
289
     1
 69
     0
  7
STANDARD
140
4.5
170
     5
 62
     0
 63
     7
283
     0
274
    -2
284
     1
 64
     0
275
    -2
285
     1
 65
     0
276
    -2
286
     1
 66
     0
277
    -2
287
     1
 67
     0
278
    -2
288
     1
 68
     0
279
    -2
289
     1
 69
     0
  0
DICTIONARYVAR
  5
138
102
{ACAD_REACTORS
330
94
102
}
330
94
100
DictionaryVariables
280
     0
  1
STANDARD
  0
DICTIONARYVAR
  5
96
102
{ACAD_REACTORS
330
94
102
}
330
94
100
DictionaryVariables
280
     0
  1
2
  0
DICTIONARYVAR
  5
95
102
{ACAD_REACTORS
330
94
102
}
330
94
100
DictionaryVariables
280
     0
  1
0
  0
DICTIONARYVAR
  5
2D39
102
{ACAD_REACTORS
330
94
102
}
330
94
100
DictionaryVariables
280
     0
  1

  0
DICTIONARY
  5
1B5
102
{ACAD_REACTORS
330
5B
102
}
330
5B
100
AcDbDictionary
281
     1
  0
DICTIONARY
  5
61
102
{ACAD_REACTORS
330
5B
102
}
330
5B
100
AcDbDictionary
281
     1
  0
XRECORD
  5
123
102
{ACAD_REACTORS
330
5B
102
}
330
5B
100
AcDbXrecord
280
     1
 90
-1023410169
  0
DICTIONARY
  5
2D3F
330
22
100
AcDbDictionary
280
     1
281
     1
  3
ACAD_XREC_ROUNDTRIP
360
2D40
  0
DICTIONARY
  5
2D3D
330
1E
100
AcDbDictionary
280
     1
281
     1
  3
ACAD_XREC_ROUNDTRIP
360
2D3E
  0
DICTIONARY
  5
2D41
330
26
100
AcDbDictionary
280
     1
281
     1
  3
ACAD_XREC_ROUNDTRIP
360
2D42
  0
XRECORD
  5
2D40
102
{ACAD_REACTORS
330
2D3F
102
}
330
2D3F
100
AcDbXrecord
280
     1
102
SHADEPLOT
 70
     0
102
SHADEPLOTRESLEVEL
 70
     2
102
SHADEPLOTCUSTOMDPI
 70
   300
  0
XRECORD
  5
2D3E
102
{ACAD_REACTORS
330
2D3D
102
}
330
2D3D
100
AcDbXrecord
280
     1
102
SHADEPLOT
 70
     0
102
SHADEPLOTRESLEVEL
 70
     2
102
SHADEPLOTCUSTOMDPI
 70
   300
  0
XRECORD
  5
2D42
102
{ACAD_REACTORS
330
2D41
102
}
330
2D41
100
AcDbXrecord
280
     1
102
SHADEPLOT
 70
     0
102
SHADEPLOTRESLEVEL
 70
     2
102
SHADEPLOTCUSTOMDPI
 70
   300
  0
ENDSEC
  0
EOF
