  0
SECTION
  2
HEADER
  9
$ACADVER
  1
AC1015
  9
$ACADMAINTVER
 70
    20
  9
$DWGCODEPAGE
  3
ANSI_950
  9
$INSBASE
 10
0.0
 20
0.0
 30
0.0
  9
$EXTMIN
 10
718.9792227245757
 20
75.71104648163438
 30
0.0
  9
$EXTMAX
 10
1214.310623166795
 20
414.4357244512169
 30
186.835893843527
  9
$LIMMIN
 10
0.0
 20
0.0
  9
$LIMMAX
 10
420.0
 20
297.0
  9
$ORTHOMODE
 70
     1
  9
$REGENMODE
 70
     1
  9
$FILLMODE
 70
     1
  9
$QTEXTMODE
 70
     0
  9
$MIRRTEXT
 70
     1
  9
$LTSCALE
 40
1.0
  9
$ATTMODE
 70
     1
  9
$TEXTSIZE
 40
3.5
  9
$TRACEWID
 40
1.0
  9
$TEXTSTYLE
  7
STANDARD
  9
$CLAYER
  8
0
  9
$CELTYPE
  6
ByLayer
  9
$CECOLOR
 62
   256
  9
$CELTSCALE
 40
1.0
  9
$DISPSILH
 70
     0
  9
$DIMSCALE
 40
1.0
  9
$DIMASZ
 40
3.0
  9
$DIMEXO
 40
1.0
  9
$DIMDLI
 40
8.0
  9
$DIMRND
 40
0.0
  9
$DIMDLE
 40
0.0
  9
$DIMEXE
 40
1.5
  9
$DIMTP
 40
0.1
  9
$DIMTM
 40
0.1
  9
$DIMTXT
 40
3.5
  9
$DIMCEN
 40
3.0
  9
$DIMTSZ
 40
0.0
  9
$DIMTOL
 70
     0
  9
$DIMLIM
 70
     0
  9
$DIMTIH
 70
     0
  9
$DIMTOH
 70
     0
  9
$DIMSE1
 70
     0
  9
$DIMSE2
 70
     0
  9
$DIMTAD
 70
     1
  9
$DIMZIN
 70
     8
  9
$DIMBLK
  1

  9
$DIMASO
 70
     1
  9
$DIMSHO
 70
     1
  9
$DIMPOST
  1

  9
$DIMAPOST
  1
"
  9
$DIMALT
 70
     0
  9
$DIMALTD
 70
     2
  9
$DIMALTF
 40
0.0393701
  9
$DIMLFAC
 40
1.0
  9
$DIMTOFL
 70
     1
  9
$DIMTVP
 40
0.0
  9
$DIMTIX
 70
     0
  9
$DIMSOXD
 70
     0
  9
$DIMSAH
 70
     0
  9
$DIMBLK1
  1

  9
$DIMBLK2
  1

  9
$DIMSTYLE
  2
AM_ISO
  9
$DIMCLRD
 70
   256
  9
$DIMCLRE
 70
   256
  9
$DIMCLRT
 70
   256
  9
$DIMTFAC
 40
0.71
  9
$DIMGAP
 40
0.8
  9
$DIMJUST
 70
     0
  9
$DIMSD1
 70
     0
  9
$DIMSD2
 70
     0
  9
$DIMTOLJ
 70
     0
  9
$DIMTZIN
 70
     8
  9
$DIMALTZ
 70
     0
  9
$DIMALTTZ
 70
     0
  9
$DIMUPT
 70
     0
  9
$DIMDEC
 70
     2
  9
$DIMTDEC
 70
     8
  9
$DIMALTU
 70
     2
  9
$DIMALTTD
 70
     2
  9
$DIMTXSTY
  7
STANDARD
  9
$DIMAUNIT
 70
     0
  9
$DIMADEC
 70
     0
  9
$DIMALTRND
 40
0.0
  9
$DIMAZIN
 70
     2
  9
$DIMDSEP
 70
    46
  9
$DIMATFIT
 70
     3
  9
$DIMFRAC
 70
     0
  9
$DIMLDRBLK
  1

  9
$DIMLUNIT
 70
     2
  9
$DIMLWD
 70
    -1
  9
$DIMLWE
 70
    -1
  9
$DIMTMOVE
 70
     0
  9
$LUNITS
 70
     2
  9
$LUPREC
 70
     2
  9
$SKETCHINC
 40
1.0
  9
$FILLETRAD
 40
3.0
  9
$AUNITS
 70
     0
  9
$AUPREC
 70
     0
  9
$MENU
  1
.
  9
$ELEVATION
 40
0.0
  9
$PELEVATION
 40
0.0
  9
$THICKNESS
 40
0.0
  9
$LIMCHECK
 70
     0
  9
$CHAMFERA
 40
0.5
  9
$CHAMFERB
 40
0.5
  9
$CHAMFERC
 40
20.0
  9
$CHAMFERD
 40
0.0
  9
$SKPOLY
 70
     0
  9
$TDCREATE
 40
2453021.369367211
  9
$TDUCREATE
 40
2453021.036033877
  9
$TDUPDATE
 40
2453517.561236979
  9
$TDUUPDATE
 40
2453517.227903646
  9
$TDINDWG
 40
0.6192978356
  9
$TDUSRTIMER
 40
0.6192974884
  9
$USRTIMER
 70
     1
  9
$ANGBASE
 50
0.0
  9
$ANGDIR
 70
     0
  9
$PDMODE
 70
     0
  9
$PDSIZE
 40
0.0
  9
$PLINEWID
 40
0.0
  9
$SPLFRAME
 70
     0
  9
$SPLINETYPE
 70
     6
  9
$SPLINESEGS
 70
     8
  9
$HANDSEED
  5
32D4
  9
$SURFTAB1
 70
     6
  9
$SURFTAB2
 70
     6
  9
$SURFTYPE
 70
     6
  9
$SURFU
 70
     6
  9
$SURFV
 70
     6
  9
$UCSBASE
  2

  9
$UCSNAME
  2

  9
$UCSORG
 10
0.0
 20
0.0
 30
0.0
  9
$UCSXDIR
 10
1.0
 20
0.0
 30
0.0
  9
$UCSYDIR
 10
0.0
 20
1.0
 30
0.0
  9
$UCSORTHOREF
  2

  9
$UCSORTHOVIEW
 70
     0
  9
$UCSORGTOP
 10
0.0
 20
0.0
 30
0.0
  9
$UCSORGBOTTOM
 10
0.0
 20
0.0
 30
0.0
  9
$UCSORGLEFT
 10
0.0
 20
0.0
 30
0.0
  9
$UCSORGRIGHT
 10
0.0
 20
0.0
 30
0.0
  9
$UCSORGFRONT
 10
0.0
 20
0.0
 30
0.0
  9
$UCSORGBACK
 10
0.0
 20
0.0
 30
0.0
  9
$PUCSBASE
  2

  9
$PUCSNAME
  2

  9
$PUCSORG
 10
0.0
 20
0.0
 30
0.0
  9
$PUCSXDIR
 10
1.0
 20
0.0
 30
0.0
  9
$PUCSYDIR
 10
0.0
 20
1.0
 30
0.0
  9
$PUCSORTHOREF
  2

  9
$PUCSORTHOVIEW
 70
     0
  9
$PUCSORGTOP
 10
0.0
 20
0.0
 30
0.0
  9
$PUCSORGBOTTOM
 10
0.0
 20
0.0
 30
0.0
  9
$PUCSORGLEFT
 10
0.0
 20
0.0
 30
0.0
  9
$PUCSORGRIGHT
 10
0.0
 20
0.0
 30
0.0
  9
$PUCSORGFRONT
 10
0.0
 20
0.0
 30
0.0
  9
$PUCSORGBACK
 10
0.0
 20
0.0
 30
0.0
  9
$USERI1
 70
     0
  9
$USERI2
 70
     0
  9
$USERI3
 70
     0
  9
$USERI4
 70
     0
  9
$USERI5
 70
     0
  9
$USERR1
 40
0.0
  9
$USERR2
 40
0.0
  9
$USERR3
 40
0.0
  9
$USERR4
 40
0.0
  9
$USERR5
 40
0.0
  9
$WORLDVIEW
 70
     1
  9
$SHADEDGE
 70
     3
  9
$SHADEDIF
 70
    70
  9
$TILEMODE
 70
     1
  9
$MAXACTVP
 70
    64
  9
$PINSBASE
 10
0.0
 20
0.0
 30
0.0
  9
$PLIMCHECK
 70
     0
  9
$PEXTMIN
 10
1.000000000000000E+20
 20
1.000000000000000E+20
 30
1.000000000000000E+20
  9
$PEXTMAX
 10
-1.000000000000000E+20
 20
-1.000000000000000E+20
 30
-1.000000000000000E+20
  9
$PLIMMIN
 10
0.0
 20
0.0
  9
$PLIMMAX
 10
420.0
 20
297.0
  9
$UNITMODE
 70
     0
  9
$VISRETAIN
 70
     1
  9
$PLINEGEN
 70
     0
  9
$PSLTSCALE
 70
     1
  9
$TREEDEPTH
 70
  3020
  9
$CMLSTYLE
  2
Standard
  9
$CMLJUST
 70
     0
  9
$CMLSCALE
 40
20.0
  9
$PROXYGRAPHICS
 70
     1
  9
$MEASUREMENT
 70
     1
  9
$CELWEIGHT
370
    -1
  9
$ENDCAPS
280
     0
  9
$JOINSTYLE
280
     0
  9
$LWDISPLAY
290
     0
  9
$INSUNITS
 70
     4
  9
$HYPERLINKBASE
  1

  9
$STYLESHEET
  1
彩色出圖.ctb
  9
$XEDIT
290
     1
  9
$CEPSNTYPE
380
     0
  9
$PSTYLEMODE
290
     1
  9
$FINGERPRINTGUID
  2
{6C02722A-18D3-491A-897A-B8025DE410A9}
  9
$VERSIONGUID
  2
{581704C7-2641-41A3-B2DC-EA6C3E6A55D6}
  9
$EXTNAMES
290
     1
  9
$PSVPSCALE
 40
0.0
  9
$OLESTARTUP
290
     0
  0
ENDSEC
  0
SECTION
  2
CLASSES
  0
CLASS
  1
ACDBDICTIONARYWDFLT
  2
AcDbDictionaryWithDefault
  3
ObjectDBX Classes
 90
        0
280
     0
281
     0
  0
CLASS
  1
ACDBPLACEHOLDER
  2
AcDbPlaceHolder
  3
ObjectDBX Classes
 90
        0
280
     0
281
     0
  0
CLASS
  1
LAYOUT
  2
AcDbLayout
  3
ObjectDBX Classes
 90
        0
280
     0
281
     0
  0
CLASS
  1
AMGSETTINGSOBJ
  2
AmgSettingsObj
  3
"AcadM|Product Description: AutoCAD Mechanical 2000|Company: Autodesk"
 90
        0
280
     0
281
     0
  0
CLASS
  1
ACME_DOCUMENT
  2
AcMeDbDoc
  3
AcMeServices
 90
        0
280
     0
281
     0
  0
CLASS
  1
ACMESCOPE
  2
AcMeScope
  3
AcMeServices
 90
        0
280
     0
281
     0
  0
CLASS
  1
ACMECOMMANDHISTORY
  2
AcMeCommandHistory
  3
AcMeServices
 90
        0
280
     0
281
     0
  0
CLASS
  1
ACIMSYSVARMAN
  2
AcImSysVarManager
  3
AcMeServices
 90
        0
280
     0
281
     0
  0
CLASS
  1
ACIMREALSYSVAR
  2
AcImRealSysVar
  3
AcMeServices
 90
        0
280
     0
281
     0
  0
CLASS
  1
ACIMINTSYSVAR
  2
AcImIntSysVar
  3
AcMeServices
 90
        0
280
     0
281
     0
  0
CLASS
  1
ACMEDRAWINGMAN
  2
AcMeDrawingMan
  3
AcMeServices
 90
        0
280
     0
281
     0
  0
CLASS
  1
ACMEVIEW
  2
AcMeView
  3
AcMeServices
 90
        0
280
     0
281
     0
  0
CLASS
  1
ACDBENTITYCACHE
  2
AcMeEntityCache
  3
AcMeServices
 90
        0
280
     0
281
     0
  0
CLASS
  1
GSMANAGER
  2
AcMeGSManager
  3
AcMeServices
 90
        0
280
     0
281
     0
  0
CLASS
  1
AMDTINTERNALREACTOR
  2
AmdtInternalReactor
  3
AcMeServices
 90
        0
280
     0
281
     0
  0
CLASS
  1
ACMESTATEMGR
  2
AcMeStateMgr
  3
AcMeServices
 90
        0
280
     0
281
     0
  0
CLASS
  1
ACGREFMASTER
  2
AcGrefMaster
  3
AcAttribServices
 90
        0
280
     0
281
     0
  0
CLASS
  1
ACME_DATABASE
  2
AcMeDbDatabase
  3
AcMeServices
 90
        0
280
     0
281
     0
  0
CLASS
  1
ACRFINSADJUSTERMGR
  2
AcRfInsAdjusterMgr
  3
AcMeServices
 90
        0
280
     0
281
     0
  0
CLASS
  1
ACGREFACADMASTER
  2
AcGrefacadMaster
  3
AcGrefServices
 90
        0
280
     0
281
     0
  0
CLASS
  1
AMIMASTER
  2
AmiMaster
  3
AmiServices
 90
        0
280
     0
281
     0
  0
CLASS
  1
ACMDATADICTIONARY
  2
AcmDataDictionary
  3
"AcmSymBB|Product Description: AutoCAD Mechanical 2004 DX|Company: Autodesk"
 90
        0
280
     0
281
     0
  0
CLASS
  1
ACMDATAENTRYBLOCK
  2
AcmDataEntryBlock
  3
"AcmSymBB|Product Description: AutoCAD Mechanical 2004 DX|Company: Autodesk"
 90
    32768
280
     0
281
     0
  0
CLASS
  1
ACIMSTRSYSVAR
  2
AcImStrSysVar
  3
AcMeServices
 90
        0
280
     0
281
     0
  0
CLASS
  1
ACMSTANDARDISO
  2
AcmStandardISO
  3
"Amdt_StdImp|Product Description: AutoCAD Mechanical 2004 DX|Company: Autodesk"
 90
        0
280
     0
281
     0
  0
CLASS
  1
AMGOBJPROPCFG
  2
AmgObjPropCfg
  3
"AmgLay|Product Description: AutoCAD Mechanical 2000|Company: Autodesk"
 90
        1
280
     0
281
     0
  0
CLASS
  1
AMDTEDGESTANDARDISO
  2
AmdtEdgeStdISO
  3
"Amdt_StdImp|Product Description: AutoCAD Mechanical 2004 DX|Company: Autodesk"
 90
    32768
280
     0
281
     0
  0
CLASS
  1
ACMSURFSTANDARDISO
  2
AcmSurfTextStdISO
  3
"Amdt_StdImp|Product Description: AutoCAD Mechanical 2004 DX|Company: Autodesk"
 90
        0
280
     0
281
     0
  0
CLASS
  1
ACMFCFSTANDARDISO
  2
AcmFCFStdISO
  3
"Amdt_StdImp|Product Description: AutoCAD Mechanical 2004 DX|Company: Autodesk"
 90
        0
280
     0
281
     0
  0
CLASS
  1
ACMWELDSTANDARDISO
  2
AcmWeldingStdISO
  3
"Amdt_StdImp|Product Description: AutoCAD Mechanical 2004 DX|Company: Autodesk"
 90
        0
280
     0
281
     0
  0
CLASS
  1
ACMIDSTANDARDISO
  2
AcmIdStdISO
  3
"Amdt_StdImp|Product Description: AutoCAD Mechanical 2004 DX|Company: Autodesk"
 90
        0
280
     0
281
     0
  0
CLASS
  1
ACMDATUMSTANDARDISO
  2
AcmDatumStdISO
  3
"Amdt_StdImp|Product Description: AutoCAD Mechanical 2004 DX|Company: Autodesk"
 90
        0
280
     0
281
     0
  0
CLASS
  1
ACMBOMSTANDARDISO
  2
AcmBOMStdISO
  3
"Amdt_StdImp|Product Description: AutoCAD Mechanical 2004 DX|Company: Autodesk"
 90
        0
280
     0
281
     0
  0
CLASS
  1
ACMDETAILSTANDARDISO
  2
AmdtDetailSymStdISO
  3
"Amdt_StdImp|Product Description: AutoCAD Mechanical 2004 DX|Company: Autodesk"
 90
        0
280
     0
281
     0
  0
CLASS
  1
ACMSECTIONSTANDARDISO
  2
AmdtSectionSymStdISO
  3
"Amdt_StdImp|Product Description: AutoCAD Mechanical 2004 DX|Company: Autodesk"
 90
        0
280
     0
281
     0
  0
CLASS
  1
ACMCENTERLINESTANDARDISO
  2
AmdtCenterLineStdISO
  3
"Amdt_StdImp|Product Description: AutoCAD Mechanical 2004 DX|Company: Autodesk"
 90
        0
280
     0
281
     0
  0
CLASS
  1
ACMNOTESTANDARDISO
  2
AmdtNoteStdISO
  3
"Amdt_StdImp|Product Description: AutoCAD Mechanical 2004 DX|Company: Autodesk"
 90
        0
280
     0
281
     0
  0
CLASS
  1
ACAMGLAYSTD
  2
AcAmgLayStd
  3
"AcAmgLayStd|Product Description: AutoCAD Mechanical 2000|Company: Autodesk"
 90
        0
280
     0
281
     0
  0
CLASS
  1
ACAMGDIMSTD
  2
AcAmgDimStd
  3
"AcAmgDimStd|Product Description: AutoCAD Mechanical 2000|Company: Autodesk"
 90
        0
280
     0
281
     0
  0
CLASS
  1
ACAMGHOLECHARTSTDISO
  2
AcAmgHoleChartStdISO
  3
ACMSYMBB_MODULE_NAME
 90
        0
280
     0
281
     0
  0
CLASS
  1
ACAMGTITLESTD
  2
AcAmgTitleStd
  3
"TITLEAPP"
 90
        0
280
     0
281
     0
  0
CLASS
  1
LAYER_INDEX
  2
AcDbLayerIndex
  3
ObjectDBX Classes
 90
    32768
280
     0
281
     0
  0
CLASS
  1
IDBUFFER
  2
AcDbIdBuffer
  3
ObjectDBX Classes
 90
    32768
280
     0
281
     0
  0
CLASS
  1
DICTIONARYVAR
  2
AcDbDictionaryVar
  3
ObjectDBX Classes
 90
        0
280
     0
281
     0
  0
CLASS
  1
ACAMGFILTERDAT
  2
AcAmgFilterDat
  3
"AcadM|Product Description: AutoCAD Mechanical 2000|Company: Autodesk"
 90
    32768
280
     0
281
     0
  0
CLASS
  1
AMDTFORMULAUPDATEDISPATCHER
  2
AmdtFormulaUpdateDispatcher
  3
AcMeServices
 90
    32768
280
     0
281
     0
  0
CLASS
  1
DIMASSOC
  2
AcDbDimAssoc
  3
"AcDbDimAssoc|Product Desc:     AcDim ARX App For Dimension|Company:          Autodesk, Inc.|WEB Address:      www.autodesk.com"
 90
    32768
280
     0
281
     0
  0
CLASS
  1
AMDTNOTE
  2
AmdtNote
  3
"AcmSymBB|Product Description: AutoCAD Mechanical 2004 DX|Company: Autodesk"
 90
     1023
280
     0
281
     1
  0
CLASS
  1
TABLESTYLE
  2
AcDbTableStyle
  3
ObjectDBX Classes
 90
     2047
280
     0
281
     0
  0
CLASS
  1
AM_DRAWING_MGR
  2
AcDmDwgMgr
  3
AcMechDwgViewMgmt
 90
        0
280
     0
281
     0
  0
CLASS
  1
AM_DWG_DOCUMENT
  2
AcDmDwgDocument
  3
AcMechDwgViewMgmt
 90
        0
280
     0
281
     0
  0
CLASS
  1
AM_DWG_SHEET
  2
AcDmSheet
  3
AcMechDwgViewMgmt
 90
        0
280
     0
281
     0
  0
CLASS
  1
AM_VIEWDIMPARMAP
  2
AcDmViewDimParMap
  3
AcMechDwgViewMgmt
 90
        0
280
     0
281
     0
  0
CLASS
  1
AM_DWGMGR_NAME
  2
AcDmDwgMgrName
  3
AcMechDwgViewMgmt
 90
        0
280
     0
281
     0
  0
CLASS
  1
AMDTMENUSTATEMGR
  2
AmdtMenuStateMgr
  3
McadcomServices
 90
        0
280
     0
281
     0
  0
CLASS
  1
AMDTMCOMMENUSTATE
  2
AmdtMcomMenuState
  3
McadcomServices
 90
        0
280
     0
281
     0
  0
CLASS
  1
MAPIAMMOUDLE
  2
MApiAmModule
  3
MApiAmServices
 90
        0
280
     0
281
     0
  0
CLASS
  1
AMDTADMENUSTATE
  2
AmdtAdMenuState
  3
DesignerServices
 90
        0
280
     0
281
     0
  0
CLASS
  1
ADAPPL
  2
AcAdAppl
  3
DesignerServices
 90
        0
280
     0
281
     0
  0
CLASS
  1
DEPMGR
  2
AcAdDepMgr
  3
DesignerServices
 90
        0
280
     0
281
     0
  0
CLASS
  1
PARAMMGR
  2
AcAdParamMgr
  3
DesignerServices
 90
        0
280
     0
281
     0
  0
CLASS
  1
PARAMSCOPE
  2
AcAdParamScope
  3
DesignerServices
 90
        0
280
     0
281
     0
  0
CLASS
  1
NAMEDAPPL
  2
AcAdNamedAppl
  3
DesignerServices
 90
        0
280
     0
281
     0
  0
CLASS
  1
AMDTDMMENUSTATE
  2
AmdtDmMenuState
  3
AcMechDwgViewMgmt
 90
        0
280
     0
281
     0
  0
CLASS
  1
AMDTAMMENUSTATE
  2
AmdtAmMenuState
  3
DesignerAssemblies
 90
        0
280
     0
281
     0
  0
CLASS
  1
ACAMPROJECT
  2
AcAmProject
  3
DesignerAssemblies
 90
        0
280
     0
281
     0
  0
CLASS
  1
ACAMGRCOMPDEF
  2
AcAmGrCompDef
  3
DesignerAssemblies
 90
        0
280
     0
281
     0
  0
CLASS
  1
ACCMCONTEXT
  2
AcCmContext
  3
DesignerAssemblies
 90
        0
280
     0
281
     0
  0
CLASS
  1
ACAMCOMPDEF
  2
AcAmCompDef
  3
DesignerAssemblies
 90
        0
280
     0
281
     0
  0
CLASS
  1
ACAMCOMPDEFMGR
  2
AcAmCompDefMgr
  3
DesignerAssemblies
 90
        0
280
     0
281
     0
  0
CLASS
  1
AMCONTEXTMGR
  2
AcAmContextMgr
  3
DesignerAssemblies
 90
        0
280
     0
281
     0
  0
CLASS
  1
ACAMCONTEXTMODELER
  2
AcAmContextModeler
  3
DesignerAssemblies
 90
        0
280
     0
281
     0
  0
CLASS
  1
ACMTHREADLINESTANDARDISO
  2
AmdtThreadLineStdISO
  3
"Amdt_StdImp|Product Description: AutoCAD Mechanical 2004 DX|Company: Autodesk"
 90
        0
280
     0
281
     0
  0
CLASS
  1
CATALOGSTATE
  2
AcAmCatalogState
  3
DesignerAssemblies
 90
        0
280
     0
281
     0
  0
CLASS
  1
ACAMGRCOMPDEFSET
  2
AcAmGrCompDefSet
  3
DesignerAssemblies
 90
        0
280
     0
281
     0
  0
CLASS
  1
AMDTBROWSERDBTAB
  2
AmdtBrowserDbTab
  3
McadcomServices
 90
        0
280
     0
281
     0
  0
CLASS
  1
CBROWSERAPPOBJECT
  2
CBrowserAppObject
  3
McadcomServices
 90
        0
280
     0
281
     0
  0
CLASS
  1
DM_PLACEHOLDER
  2
AcDmSelsetPlaceholder
  3
AcMechDwgViewMgmt
 90
        0
280
     0
281
     0
  0
CLASS
  1
VAACXREFPANELOBJECT
  2
VaAcXREFPanelObject
  3
VAAC_ADDIN
 90
        0
280
     0
281
     0
  0
CLASS
  1
VAACIMAGEINVENTORY
  2
VaAcImageInventory
  3
VAAC_ADDIN
 90
        0
280
     0
281
     0
  0
CLASS
  1
AMDTEDGESTANDARDISO13715
  2
AmdtEdgeStdISO13715
  3
"Amdt_StdImp|Product Description: AutoCAD Mechanical 2004 DX|Company: Autodesk"
 90
        0
280
     0
281
     0
  0
CLASS
  1
AMDTNOTETEMPLATEDB
  2
AmdtNoteTemplateDB
  3
AMDT_STDIMP_MODULE_NAME
 90
        0
280
     0
281
     0
  0
CLASS
  1
ACRFATTGENMGR
  2
AcRfAttGeneralMgr
  3
AcAttribServices
 90
        0
280
     0
281
     0
  0
CLASS
  1
SORTENTSTABLE
  2
AcDbSortentsTable
  3
ObjectDBX Classes
 90
        0
280
     0
281
     0
  0
CLASS
  1
STDPART2D
  2
AmgStdPart
  3
"AmgStdPart|Product Description: AutoCAD Mechanical 2000|Company: Autodesk"
 90
     1023
280
     0
281
     1
  0
CLASS
  1
ACAMSTDPCOMPDEF
  2
AcAmStdpCompDef
  3
DesignerAssemblies
 90
    32768
280
     0
281
     0
  0
CLASS
  1
ACRFOBJATTMGR
  2
AcRfObjAttGroupMgr
  3
AcAttribServices
 90
    32768
280
     0
281
     0
  0
CLASS
  1
ACRFMCADAPIATTHOLDER
  2
AcRfMCADAPIAttHolder
  3
AcAttribServices
 90
    32768
280
     0
281
     0
  0
CLASS
  1
AMDTSYSATTR
  2
AmdtSystemAttribute
  3
AcAttribServices
 90
    32768
280
     0
281
     0
  0
CLASS
  1
ACAMCOMP
  2
AcAmComp
  3
DesignerAssemblies
 90
    32768
280
     0
281
     0
  0
CLASS
  1
AC_AM_STDP_VIEW_DEF
  2
AcAmStdpViewDef
  3
DesignerAssemblies
 90
    32768
280
     0
281
     0
  0
CLASS
  1
AC_AM_MVD_DEP_MGR
  2
AcAmMVDdepMgr
  3
DesignerAssemblies
 90
        0
280
     0
281
     0
  0
CLASS
  1
AC_AM_MASTER_VIEW_DEF
  2
AcAmMasterViewDef
  3
DesignerAssemblies
 90
        0
280
     0
281
     0
  0
CLASS
  1
AC_AM_DIRTY_NODES
  2
AcAmDirtyNodes
  3
DesignerAssemblies
 90
        0
280
     0
281
     0
  0
CLASS
  1
AC_AM_MAPPER_CACHE
  2
AcAmMapperCache
  3
DesignerAssemblies
 90
        0
280
     0
281
     0
  0
CLASS
  1
ACAMMVDBACKUPOBJECT
  2
AcAmMVDBackupObject
  3
DesignerAssemblies
 90
        0
280
     0
281
     0
  0
CLASS
  1
AC_AM_COMP_VIEW_INST
  2
AcAmCompView
  3
DesignerAssemblies
 90
    32768
280
     0
281
     0
  0
CLASS
  1
AC_AM_2D_XREF_MGR
  2
AcAmXrefMgr2d
  3
DesignerAssemblies
 90
        0
280
     0
281
     0
  0
CLASS
  1
ACMSTANDARDANSI
  2
AcmStandardANSI
  3
"Amdt_StdImp|Product Description: AutoCAD Mechanical 2004 DX|Company: Autodesk"
 90
        0
280
     0
281
     0
  0
CLASS
  1
ACMSURFSTANDARDANSI
  2
AcmSurfTextStdANSI
  3
"Amdt_StdImp|Product Description: AutoCAD Mechanical 2004 DX|Company: Autodesk"
 90
        0
280
     0
281
     0
  0
CLASS
  1
ACMFCFSTANDARDANSI
  2
AcmFCFStdANSI
  3
"Amdt_StdImp|Product Description: AutoCAD Mechanical 2004 DX|Company: Autodesk"
 90
        0
280
     0
281
     0
  0
CLASS
  1
ACMWELDSTANDARDANSI
  2
AcmWeldingStdANSI
  3
"Amdt_StdImp|Product Description: AutoCAD Mechanical 2004 DX|Company: Autodesk"
 90
        0
280
     0
281
     0
  0
CLASS
  1
ACMIDSTANDARDANSI
  2
AcmIdStdANSI
  3
"Amdt_StdImp|Product Description: AutoCAD Mechanical 2004 DX|Company: Autodesk"
 90
        0
280
     0
281
     0
  0
CLASS
  1
ACMDATUMSTANDARDANSI
  2
AcmDatumStdANSI
  3
"Amdt_StdImp|Product Description: AutoCAD Mechanical 2004 DX|Company: Autodesk"
 90
        0
280
     0
281
     0
  0
CLASS
  1
ACMBOMSTANDARDANSI
  2
AcmBOMStdANSI
  3
"Amdt_StdImp|Product Description: AutoCAD Mechanical 2004 DX|Company: Autodesk"
 90
        0
280
     0
281
     0
  0
CLASS
  1
ACMDETAILSTANDARDANSI
  2
AmdtDetailSymStdANSI
  3
"Amdt_StdImp|Product Description: AutoCAD Mechanical 2004 DX|Company: Autodesk"
 90
        0
280
     0
281
     0
  0
CLASS
  1
ACMSECTIONSTANDARDANSI
  2
AmdtSectionSymStdANSI
  3
"Amdt_StdImp|Product Description: AutoCAD Mechanical 2004 DX|Company: Autodesk"
 90
        0
280
     0
281
     0
  0
CLASS
  1
ACMCENTERLINESTANDARDANSI
  2
AmdtCenterLineStdANSI
  3
"Amdt_StdImp|Product Description: AutoCAD Mechanical 2004 DX|Company: Autodesk"
 90
        0
280
     0
281
     0
  0
CLASS
  1
ACMTHREADLINESTANDARDANSI
  2
AmdtThreadLineStdANSI
  3
"Amdt_StdImp|Product Description: AutoCAD Mechanical 2004 DX|Company: Autodesk"
 90
        0
280
     0
281
     0
  0
CLASS
  1
ACMNOTESTANDARDANSI
  2
AmdtNoteStdANSI
  3
"Amdt_StdImp|Product Description: AutoCAD Mechanical 2004 DX|Company: Autodesk"
 90
        0
280
     0
281
     0
  0
CLASS
  1
ACAMGHOLECHARTSTDANSI
  2
AcAmgHoleChartStdANSI
  3
ACMSYMBB_MODULE_NAME
 90
        0
280
     0
281
     0
  0
ENDSEC
  0
SECTION
  2
TABLES
  0
TABLE
  2
VPORT
  5
8
330
0
100
AcDbSymbolTable
 70
     3
  0
VPORT
  5
32CB
330
8
100
AcDbSymbolTableRecord
100
AcDbViewportTableRecord
  2
*Active
 70
     0
 10
0.0
 20
0.0
 11
1.0
 21
1.0
 12
966.6221913197293
 22
245.0660544183698
 13
0.0
 23
0.0
 14
2.5
 24
2.5
 15
10.0
 25
10.0
 16
0.0
 26
0.0
 36
1.0
 17
0.0
 27
0.0
 37
0.0
 40
342.6613295249009
 41
1.81766917293233
 42
50.0
 43
0.0
 44
0.0
 50
0.0
 51
0.0
 71
     0
 72
   100
 73
     1
 74
     3
 75
     0
 76
     0
 77
     0
 78
     0
281
     0
 65
     1
110
0.0
120
0.0
130
0.0
111
1.0
121
0.0
131
0.0
112
0.0
122
1.0
132
0.0
 79
     0
146
0.0
  0
ENDTAB
  0
TABLE
  2
LTYPE
  5
5
330
0
100
AcDbSymbolTable
 70
    16
  0
LTYPE
  5
14
330
5
100
AcDbSymbolTableRecord
100
AcDbLinetypeTableRecord
  2
ByBlock
 70
     0
  3

 72
    65
 73
     0
 40
0.0
  0
LTYPE
  5
15
330
5
100
AcDbSymbolTableRecord
100
AcDbLinetypeTableRecord
  2
ByLayer
 70
     0
  3

 72
    65
 73
     0
 40
0.0
  0
LTYPE
  5
16
330
5
100
AcDbSymbolTableRecord
100
AcDbLinetypeTableRecord
  2
Continuous
 70
     0
  3
Solid line
 72
    65
 73
     0
 40
0.0
  0
LTYPE
  5
4D
330
5
100
AcDbSymbolTableRecord
100
AcDbLinetypeTableRecord
  2
AM_ISO02W050
 70
     0
  3
__ __ __ __ __ __ __ __ __ __ __ __ __ __ __
 72
    65
 73
     2
 40
7.5
 49
6.0
 74
     0
 49
-1.5
 74
     0
  0
LTYPE
  5
4E
330
5
100
AcDbSymbolTableRecord
100
AcDbLinetypeTableRecord
  2
AM_ISO08W050
 70
     0
  3
____ . ____ . ____ . ____ . ____ . ____ . ____
 72
    65
 73
     4
 40
18.0
 49
12.0
 74
     0
 49
-1.5
 74
     0
 49
3.0
 74
     0
 49
-1.5
 74
     0
  0
LTYPE
  5
4F
330
5
100
AcDbSymbolTableRecord
100
AcDbLinetypeTableRecord
  2
AM_ISO09W050
 70
     0
  3
_____ . . _____ . . _____ . . ____ .. ____
 72
    65
 73
     6
 40
22.5
 49
12.0
 74
     0
 49
-1.5
 74
     0
 49
3.0
 74
     0
 49
-1.5
 74
     0
 49
3.0
 74
     0
 49
-1.5
 74
     0
  0
LTYPE
  5
50
330
5
100
AcDbSymbolTableRecord
100
AcDbLinetypeTableRecord
  2
Amconstr
 70
     0
  3
_______________________
 72
    65
 73
     2
 40
9999.0
 49
9999.0
 74
     0
 49
0.0
 74
     0
  0
LTYPE
  5
51
330
5
100
AcDbSymbolTableRecord
100
AcDbLinetypeTableRecord
  2
AM_ISO08W050x2
 70
     0
  3
__ . __ . __ . __ . __ . __
 72
    65
 73
     4
 40
9.0
 49
6.0
 74
     0
 49
-0.75
 74
     0
 49
1.5
 74
     0
 49
-0.75
 74
     0
  0
LTYPE
  5
52
330
5
100
AcDbSymbolTableRecord
100
AcDbLinetypeTableRecord
  2
AM_ISO02W050x2
 70
     0
  3
 _ _ _ _ _ _ _ _ _ _ _ _
 72
    65
 73
     2
 40
3.75
 49
3.0
 74
     0
 49
-0.75
 74
     0
  0
LTYPE
  5
55
330
5
100
AcDbSymbolTableRecord
100
AcDbLinetypeTableRecord
  2
Amzigzag
 70
     0
  3
/\/-/\/-/\/-/\/-/\/-/\/
 72
    65
 73
     2
 40
11.0001
 49
0.0001
 74
     4
 75
   135
340
54
 46
0.04
 50
0.0
 44
0.0
 45
0.0
 49
-11.0
 74
     0
  0
LTYPE
  5
63
330
5
100
AcDbSymbolTableRecord
100
AcDbLinetypeTableRecord
  2
ACISOWELD
 70
     0
  3
_ _ _ _ _
 72
    65
 73
     2
 40
2.0
 49
2.0
 74
     0
 49
-1.0
 74
     0
  0
LTYPE
  5
64
330
5
100
AcDbSymbolTableRecord
100
AcDbLinetypeTableRecord
  2
ACISOTGB
 70
     0
  3
__ . . __ . .
 72
    65
 73
     6
 40
9.0
 49
4.0
 74
     0
 49
-1.0
 74
     0
 49
1.0
 74
     0
 49
-1.0
 74
     0
 49
1.0
 74
     0
 49
-1.0
 74
     0
  0
LTYPE
  5
65
330
5
100
AcDbSymbolTableRecord
100
AcDbLinetypeTableRecord
  2
ACISOTGL
 70
     0
  3
_ _ _ _ _
 72
    65
 73
     2
 40
3.0
 49
2.0
 74
     0
 49
-1.0
 74
     0
  0
LTYPE
  5
68
330
5
100
AcDbSymbolTableRecord
100
AcDbLinetypeTableRecord
  2
CENTER
 70
     0
  3
__ . __
 72
    65
 73
     4
 40
7.0
 49
4.0
 74
     0
 49
-1.0
 74
     0
 49
1.0
 74
     0
 49
-1.0
 74
     0
  0
LTYPE
  5
806
330
5
100
AcDbSymbolTableRecord
100
AcDbLinetypeTableRecord
  2
HIDDEN
 70
     0
  3
Hidden __ __ __ __ __ __ __ __ __ __ __ __ __ _
 72
    65
 73
     2
 40
9.524999999999998
 49
6.349999999999999
 74
     0
 49
-3.174999999999999
 74
     0
  0
LTYPE
  5
807
330
5
100
AcDbSymbolTableRecord
100
AcDbLinetypeTableRecord
  2
PHANTOM2
 70
     0
  3
Phantom (.5x) ___ _ _ ___ _ _ ___ _ _ ___ _ _
 72
    65
 73
     6
 40
31.75
 49
15.875
 74
     0
 49
-3.174999999999999
 74
     0
 49
3.174999999999999
 74
     0
 49
-3.174999999999999
 74
     0
 49
3.174999999999999
 74
     0
 49
-3.174999999999999
 74
     0
  0
LTYPE
  5
1658
330
5
100
AcDbSymbolTableRecord
100
AcDbLinetypeTableRecord
  2
ACANSTGB
 70
     0
  3
__ . . __ . .
 72
    65
 73
     6
 40
0.35433070866
 49
0.15748031496
 74
     0
 49
-0.03937007874
 74
     0
 49
0.03937007874
 74
     0
 49
-0.03937007874
 74
     0
 49
0.03937007874
 74
     0
 49
-0.03937007874
 74
     0
  0
LTYPE
  5
1659
330
5
100
AcDbSymbolTableRecord
100
AcDbLinetypeTableRecord
  2
ACANSTGL
 70
     0
  3
_ _ _ _ _
 72
    65
 73
     2
 40
0.11811023622
 49
0.07874015748
 74
     0
 49
-0.03937007874
 74
     0
  0
ENDTAB
  0
TABLE
  2
LAYER
  5
2
102
{ACAD_XDICTIONARY
360
AAB
102
}
330
0
100
AcDbSymbolTable
 70
     8
  0
LAYER
  5
10
330
2
100
AcDbSymbolTableRecord
100
AcDbLayerTableRecord
  2
0
 70
     0
 62
     7
  6
Continuous
370
    -3
390
F
  0
LAYER
  5
42A
330
2
100
AcDbSymbolTableRecord
100
AcDbLayerTableRecord
  2
AM_5
 70
     0
 62
     5
  6
Continuous
370
    50
390
F
  0
LAYER
  5
43E
330
2
100
AcDbSymbolTableRecord
100
AcDbLayerTableRecord
  2
Defpoints
 70
     0
 62
     7
  6
Continuous
290
     0
370
    -3
390
F
  0
LAYER
  5
CD5
330
2
100
AcDbSymbolTableRecord
100
AcDbLayerTableRecord
  2
AM_7
 70
     0
 62
     1
  6
CENTER
370
    25
390
F
  0
LAYER
  5
CD7
330
2
100
AcDbSymbolTableRecord
100
AcDbLayerTableRecord
  2
AM_4
 70
     0
 62
     3
  6
Continuous
370
    25
390
F
  0
LAYER
  5
CD9
330
2
100
AcDbSymbolTableRecord
100
AcDbLayerTableRecord
  2
AM_0
 70
     0
 62
     7
  6
Continuous
370
    50
390
F
  0
LAYER
  5
135E
330
2
100
AcDbSymbolTableRecord
100
AcDbLayerTableRecord
  2
LOGO
 70
     0
 62
     7
  6
Continuous
370
    -3
390
F
  0
LAYER
  5
240E
330
2
100
AcDbSymbolTableRecord
100
AcDbLayerTableRecord
  2
AM_9
 70
     0
 62
  -253
  6
Continuous
370
     0
390
F
  0
ENDTAB
  0
TABLE
  2
STYLE
  5
3
330
0
100
AcDbSymbolTable
 70
     8
  0
STYLE
  5
11
330
3
100
AcDbSymbolTableRecord
100
AcDbTextStyleTableRecord
  2
STANDARD
 70
     0
 40
0.0
 41
1.0
 50
0.0
 71
     0
 42
3.5
  3
ISOCP.SHX
  4
CHINESET.SHX
  0
STYLE
  5
54
330
3
100
AcDbSymbolTableRecord
100
AcDbTextStyleTableRecord
  2

 70
     1
 40
0.0
 41
1.0
 50
0.0
 71
     0
 42
2.5
  3
ltypeshp.shx
  4

  0
STYLE
  5
56
330
3
100
AcDbSymbolTableRecord
100
AcDbTextStyleTableRecord
  2
ACISOTS
 70
     0
 40
1.0
 41
1.0
 50
0.0
 71
     0
 42
2.5
  3
isocp.shx
  4
chineset.shx
  0
STYLE
  5
62
330
3
100
AcDbSymbolTableRecord
100
AcDbTextStyleTableRecord
  2
ACISOGDT
 70
     0
 40
0.0
 41
1.0
 50
0.0
 71
     0
 42
3.5
  3
amgdt.shx
  4

  0
STYLE
  5
1360
330
3
100
AcDbSymbolTableRecord
100
AcDbTextStyleTableRecord
  2
CHINESET
 70
     0
 40
0.0
 41
1.0
 50
0.0
 71
     0
 42
4.0
  3
simplex.shx
  4
chineset.shx
  0
STYLE
  5
165C
330
3
100
AcDbSymbolTableRecord
100
AcDbTextStyleTableRecord
  2
ACANSTS
 70
     0
 40
1.0
 41
1.0
 50
0.0
 71
     0
 42
3.0
  3
romans.shx
  4
chineset.shx
  0
STYLE
  5
165D
330
3
100
AcDbSymbolTableRecord
100
AcDbTextStyleTableRecord
  2
ACANSGDT
 70
     0
 40
0.0
 41
1.0
 50
0.0
 71
     0
 42
3.0
  3
amgdtans.shx
  4

  0
ENDTAB
  0
TABLE
  2
VIEW
  5
6
330
0
100
AcDbSymbolTable
 70
     0
  0
ENDTAB
  0
TABLE
  2
UCS
  5
7
330
0
100
AcDbSymbolTable
 70
     0
  0
ENDTAB
  0
TABLE
  2
APPID
  5
9
330
0
100
AcDbSymbolTable
 70
    32
  0
APPID
  5
12
330
9
100
AcDbSymbolTableRecord
100
AcDbRegAppTableRecord
  2
ACAD
 70
     0
  0
APPID
  5
30
330
9
100
AcDbSymbolTableRecord
100
AcDbRegAppTableRecord
  2
MCAD_NO_VIS
 70
     0
  0
APPID
  5
31
330
9
100
AcDbSymbolTableRecord
100
AcDbRegAppTableRecord
  2
ACAD_TEMP_GRAPHIC
 70
     0
  0
APPID
  5
42
330
9
100
AcDbSymbolTableRecord
100
AcDbRegAppTableRecord
  2
ACATTRIBSERVICES
 70
     0
  0
APPID
  5
20A
330
9
100
AcDbSymbolTableRecord
100
AcDbRegAppTableRecord
  2
GENIUS_GENODEF_13
 70
     0
  0
APPID
  5
20B
330
9
100
AcDbSymbolTableRecord
100
AcDbRegAppTableRecord
  2
GENIUS_GENOBJ-N-HTC_13
 70
     0
  0
APPID
  5
20C
330
9
100
AcDbSymbolTableRecord
100
AcDbRegAppTableRecord
  2
GENIUS_GENHATCH_13
 70
     0
  0
APPID
  5
809
330
9
100
AcDbSymbolTableRecord
100
AcDbRegAppTableRecord
  2
AD_DRAW
 70
     0
  0
APPID
  5
827
330
9
100
AcDbSymbolTableRecord
100
AcDbRegAppTableRecord
  2
DESIGNERASSEMBLIES
 70
     0
  0
APPID
  5
82C
330
9
100
AcDbSymbolTableRecord
100
AcDbRegAppTableRecord
  2
ACADM_DIM_EDIT
 70
     0
  0
APPID
  5
82D
330
9
100
AcDbSymbolTableRecord
100
AcDbRegAppTableRecord
  2
AMDT_DM_ADJ
 70
     0
  0
APPID
  5
FE4
330
9
100
AcDbSymbolTableRecord
100
AcDbRegAppTableRecord
  2
GENIUS_GENDTOL_13
 70
     0
  0
APPID
  5
108C
330
9
100
AcDbSymbolTableRecord
100
AcDbRegAppTableRecord
  2
ACAD_DSTYLE_DIMTEXT_FILL
 70
     0
  0
APPID
  5
1201
330
9
100
AcDbSymbolTableRecord
100
AcDbRegAppTableRecord
  2
GEVID1116400677
 70
     0
  0
APPID
  5
1202
330
9
100
AcDbSymbolTableRecord
100
AcDbRegAppTableRecord
  2
GEVDC
 70
     0
  0
APPID
  5
1203
330
9
100
AcDbSymbolTableRecord
100
AcDbRegAppTableRecord
  2
GEVRADREF
 70
     0
  0
APPID
  5
120C
330
9
100
AcDbSymbolTableRecord
100
AcDbRegAppTableRecord
  2
AMG_2DHIDE
 70
     0
  0
APPID
  5
120D
330
9
100
AcDbSymbolTableRecord
100
AcDbRegAppTableRecord
  2
AMG_2DSTRUCT_BTR
 70
     0
  0
APPID
  5
121E
330
9
100
AcDbSymbolTableRecord
100
AcDbRegAppTableRecord
  2
ACADM_2DVIEW_IGN_NOTIFY
 70
     0
  0
APPID
  5
1361
330
9
100
AcDbSymbolTableRecord
100
AcDbRegAppTableRecord
  2
GENIUS_GENREC_14
 70
     0
  0
APPID
  5
1362
330
9
100
AcDbSymbolTableRecord
100
AcDbRegAppTableRecord
  2
GENIUS_GENOBJ-N-REC_13
 70
     0
  0
APPID
  5
1E4E
330
9
100
AcDbSymbolTableRecord
100
AcDbRegAppTableRecord
  2
GENIUS_GENOBJ-N-CEN_13
 70
     0
  0
APPID
  5
1E4F
330
9
100
AcDbSymbolTableRecord
100
AcDbRegAppTableRecord
  2
GENIUS_GENCEN_19
 70
     0
  0
APPID
  5
1E80
330
9
100
AcDbSymbolTableRecord
100
AcDbRegAppTableRecord
  2
GENIUS_GENOLIS_13
 70
     0
  0
APPID
  5
1E81
330
9
100
AcDbSymbolTableRecord
100
AcDbRegAppTableRecord
  2
GENIUS_GENOENT_13
 70
     0
  0
APPID
  5
1E82
330
9
100
AcDbSymbolTableRecord
100
AcDbRegAppTableRecord
  2
GENIUS_GENOBJ-N-CRS_13
 70
     0
  0
APPID
  5
1E83
330
9
100
AcDbSymbolTableRecord
100
AcDbRegAppTableRecord
  2
GENIUS_GENOREF_13
 70
     0
  0
APPID
  5
1EAE
330
9
100
AcDbSymbolTableRecord
100
AcDbRegAppTableRecord
  2
GEVID1116990276
 70
     0
  0
APPID
  5
1EAF
330
9
100
AcDbSymbolTableRecord
100
AcDbRegAppTableRecord
  2
GEVMK
 70
     0
  0
APPID
  5
23FE
330
9
100
AcDbSymbolTableRecord
100
AcDbRegAppTableRecord
  2
GEVID1116990277
 70
     0
  0
APPID
  5
24AE
330
9
100
AcDbSymbolTableRecord
100
AcDbRegAppTableRecord
  2
GEVID1116990278
 70
     0
  0
APPID
  5
2920
330
9
100
AcDbSymbolTableRecord
100
AcDbRegAppTableRecord
  2
GEVID1116990279
 70
     0
  0
ENDTAB
  0
TABLE
  2
DIMSTYLE
  5
A
330
0
100
AcDbSymbolTable
 70
    16
100
AcDbDimStyleTable
 71
     2
340
6B
340
75
  0
DIMSTYLE
105
6B
330
A
100
AcDbSymbolTableRecord
100
AcDbDimStyleTableRecord
  2
AM_ISO
 70
     0
  4
"
 41
3.0
 42
1.0
 43
8.0
 44
1.5
 47
0.1
 48
0.1
 73
     0
 74
     0
 77
     1
 78
     8
 79
     2
140
3.5
141
3.0
143
0.0393701
146
0.71
147
0.8
172
     1
176
   256
177
   256
178
   256
271
     2
272
     2
283
     0
284
     8
340
11
371
    -1
372
    -1
  0
DIMSTYLE
105
6C
330
A
100
AcDbSymbolTableRecord
100
AcDbDimStyleTableRecord
  2
AM_ISO$3
 70
     0
  4
"
 41
3.0
 42
1.0
 43
8.0
 44
1.5
 47
0.1
 48
0.1
 73
     0
 77
     1
 78
     8
 79
     2
140
3.5
141
3.0
143
0.0393701
146
0.71
147
0.8
176
   256
177
   256
178
   256
271
     2
272
     2
283
     0
284
     8
288
     1
289
     0
340
11
371
    -1
372
    -1
  0
DIMSTYLE
105
6D
330
A
100
AcDbSymbolTableRecord
100
AcDbDimStyleTableRecord
  2
AM_ISO$4
 70
     0
  4
"
 41
3.0
 42
1.0
 43
8.0
 44
1.5
 47
0.1
 48
0.1
 73
     0
 77
     1
 78
     8
 79
     2
140
3.5
141
3.0
143
0.0393701
146
0.71
147
0.8
176
   256
177
   256
178
   256
271
     2
272
     2
283
     0
284
     8
288
     1
289
     0
340
11
371
    -1
372
    -1
  0
DIMSTYLE
105
6E
330
A
100
AcDbSymbolTableRecord
100
AcDbDimStyleTableRecord
  2
AM_ISO$6
 70
     0
  4
"
 41
3.0
 42
1.0
 43
8.0
 44
1.5
 47
0.1
 48
0.1
 73
     0
 74
     0
 78
     8
 79
     2
140
3.5
141
3.0
143
0.0393701
146
0.71
147
0.8
172
     1
176
   256
177
   256
178
   256
271
     2
272
     2
283
     0
284
     8
340
11
371
    -1
372
    -1
  0
DIMSTYLE
105
6F
330
A
100
AcDbSymbolTableRecord
100
AcDbDimStyleTableRecord
  2
AM_ISO$7
 70
     0
  4
"
 41
3.0
 42
1.0
 43
8.0
 44
1.5
 47
0.1
 48
0.1
 73
     0
 74
     0
 77
     1
 78
     8
 79
     2
140
5.0
141
3.0
143
0.0393701
146
0.71
147
0.8
172
     1
176
   256
177
   256
178
   256
271
     2
272
     2
283
     0
284
     8
340
11
371
    -1
372
    -1
  0
DIMSTYLE
105
70
330
A
100
AcDbSymbolTableRecord
100
AcDbDimStyleTableRecord
  2
AM_ISO$SF
 70
     0
  4
"
 41
2.5
 42
1.0
 43
10.0
 44
1.0
 47
0.1
 48
0.1
 73
     0
 74
     0
 75
     1
 76
     1
 77
     1
 78
     8
 79
     2
140
3.5
141
0.0
143
0.0393701
146
0.71
147
1.5
172
     1
176
   256
177
   256
178
     2
271
     2
272
     3
274
     4
283
     0
284
     8
340
11
371
    -1
372
    -1
  0
DIMSTYLE
105
75
330
A
100
AcDbSymbolTableRecord
100
AcDbDimStyleTableRecord
  2
AM_ISO$SH
 70
     0
  4
"
 41
2.5
 42
1.0
 43
10.0
 44
1.0
 47
0.1
 48
0.1
 73
     0
 74
     0
 75
     1
 76
     1
 77
     1
 78
     8
 79
     2
140
3.5
141
0.0
143
0.0393701
144
2.0
146
0.71
147
1.5
172
     1
173
     1
176
   256
177
   256
178
     2
271
     2
272
     3
274
     4
283
     0
284
     8
340
11
343
71
371
    -1
372
    -1
  0
DIMSTYLE
105
AAA
102
{ACAD_REACTORS
330
29DE
330
29E1
330
29E4
330
29E7
330
2C2F
330
2C32
330
2C35
330
2C36
330
2C39
330
2C3C
330
2C3D
330
2C40
330
2C43
330
2DC6
102
}
330
A
100
AcDbSymbolTableRecord
100
AcDbDimStyleTableRecord
  2
AM_ISO$0
 70
     0
  4
"
 41
3.0
 42
1.0
 43
8.0
 44
1.5
 47
0.1
 48
0.1000000001
 73
     0
 74
     0
 77
     1
 78
     8
 79
     2
140
3.0
141
0.0
143
0.0393701
146
0.71
147
1.0
172
     1
176
   256
177
   256
178
   256
271
     2
272
     2
283
     2
284
     8
340
11
371
    -1
372
    -1
  0
DIMSTYLE
105
165F
330
A
100
AcDbSymbolTableRecord
100
AcDbDimStyleTableRecord
  2
AM_ANSI
 70
     0
  4
mm
 41
0.1
 42
0.05
 43
0.5
 44
0.1
 47
0.1
 48
0.1
 78
     7
 79
     2
140
0.12
141
0.0
146
0.71
147
0.06
176
   256
177
   256
178
     2
274
     4
284
     7
340
11
371
    -1
372
    -1
  0
DIMSTYLE
105
1660
330
A
100
AcDbSymbolTableRecord
100
AcDbDimStyleTableRecord
  2
AM_ANSI$3
 70
     0
  4
mm
 41
0.1
 42
0.05
 43
0.5
 44
0.1
 47
0.1
 48
0.1
 78
     7
 79
     2
140
0.12
141
0.0
146
0.71
147
0.06
176
   256
177
   256
178
     2
274
     4
284
     7
288
     1
289
     0
340
11
371
    -1
372
    -1
  0
DIMSTYLE
105
1661
330
A
100
AcDbSymbolTableRecord
100
AcDbDimStyleTableRecord
  2
AM_ANSI$4
 70
     0
  4
mm
 41
0.1
 42
0.05
 43
0.5
 44
0.1
 47
0.1
 48
0.1
 78
     7
 79
     2
140
0.12
141
0.0
146
0.71
147
0.06
176
   256
177
   256
178
     2
274
     4
284
     7
288
     1
289
     0
340
11
371
    -1
372
    -1
  0
DIMSTYLE
105
1662
330
A
100
AcDbSymbolTableRecord
100
AcDbDimStyleTableRecord
  2
AM_ANSI$7
 70
     0
  4
mm
 41
0.1
 42
0.05
 43
0.5
 44
0.1
 47
0.1
 48
0.1
 78
     7
 79
     2
140
0.24
141
0.0
146
0.71
147
0.06
176
   256
177
   256
178
     2
274
     4
284
     7
340
11
371
    -1
372
    -1
  0
DIMSTYLE
105
1663
330
A
100
AcDbSymbolTableRecord
100
AcDbDimStyleTableRecord
  2
AM_ANSI$SF
 70
     0
  4
mm
 41
0.1
 42
0.05
 43
0.5
 44
0.1
 47
0.1
 48
0.1
 75
     1
 76
     1
 78
     7
 79
     2
140
0.12
141
0.0
146
0.71
147
0.06
176
   256
177
   256
178
     2
274
     4
284
     7
340
11
371
    -1
372
    -1
  0
DIMSTYLE
105
1664
330
A
100
AcDbSymbolTableRecord
100
AcDbDimStyleTableRecord
  2
AM_ANSI$SH
 70
     0
  4
mm
 41
0.1
 42
0.05
 43
0.5
 44
0.1
 47
0.1
 48
0.1
 75
     1
 76
     1
 78
     7
 79
     2
140
0.12
141
0.0
146
0.71
147
0.06
173
     1
176
   256
177
   256
178
     2
274
     4
284
     7
340
11
341
71
343
71
371
    -1
372
    -1
  0
DIMSTYLE
105
18DA
330
A
100
AcDbSymbolTableRecord
100
AcDbDimStyleTableRecord
  2
STANDARD
 70
     0
 41
2.5
 42
1.0
 43
2.0
 44
1.0
 73
     0
 74
     0
 77
     3
 78
     8
140
3.0
141
-3.0
146
0.6
147
0.8
172
     1
176
     5
177
     5
178
     5
271
     2
272
     8
284
     8
340
1360
  0
ENDTAB
  0
TABLE
  2
BLOCK_RECORD
  5
1
330
0
100
AcDbSymbolTable
 70
    26
  0
BLOCK_RECORD
  5
1F
102
{ACAD_XDICTIONARY
360
7D
102
}
330
1
100
AcDbSymbolTableRecord
100
AcDbBlockTableRecord
  2
*Model_Space
340
22
  0
BLOCK_RECORD
  5
1B
330
1
100
AcDbSymbolTableRecord
100
AcDbBlockTableRecord
  2
*Paper_Space
340
1E
  0
BLOCK_RECORD
  5
23
330
1
100
AcDbSymbolTableRecord
100
AcDbBlockTableRecord
  2
*Paper_Space0
340
26
  0
BLOCK_RECORD
  5
71
330
1
100
AcDbSymbolTableRecord
100
AcDbBlockTableRecord
  2
GENAXEH
340
0
  0
BLOCK_RECORD
  5
1222
330
1
100
AcDbSymbolTableRecord
100
AcDbBlockTableRecord
  2
*U4
340
0
  0
BLOCK_RECORD
  5
29EC
330
1
100
AcDbSymbolTableRecord
100
AcDbBlockTableRecord
  2
*D5
340
0
  0
BLOCK_RECORD
  5
29F8
330
1
100
AcDbSymbolTableRecord
100
AcDbBlockTableRecord
  2
*D6
340
0
  0
BLOCK_RECORD
  5
2A04
330
1
100
AcDbSymbolTableRecord
100
AcDbBlockTableRecord
  2
*D7
340
0
  0
BLOCK_RECORD
  5
2A10
330
1
100
AcDbSymbolTableRecord
100
AcDbBlockTableRecord
  2
*D8
340
0
  0
BLOCK_RECORD
  5
2C46
330
1
100
AcDbSymbolTableRecord
100
AcDbBlockTableRecord
  2
*D9
340
0
  0
BLOCK_RECORD
  5
2C54
330
1
100
AcDbSymbolTableRecord
100
AcDbBlockTableRecord
  2
*D10
340
0
  0
BLOCK_RECORD
  5
2C60
330
1
100
AcDbSymbolTableRecord
100
AcDbBlockTableRecord
  2
*D11
340
0
  0
BLOCK_RECORD
  5
2C6C
330
1
100
AcDbSymbolTableRecord
100
AcDbBlockTableRecord
  2
*D12
340
0
  0
BLOCK_RECORD
  5
2C83
330
1
100
AcDbSymbolTableRecord
100
AcDbBlockTableRecord
  2
*D13
340
0
  0
BLOCK_RECORD
  5
2C8F
330
1
100
AcDbSymbolTableRecord
100
AcDbBlockTableRecord
  2
*D14
340
0
  0
BLOCK_RECORD
  5
2CA4
330
1
100
AcDbSymbolTableRecord
100
AcDbBlockTableRecord
  2
*D15
340
0
  0
BLOCK_RECORD
  5
2CB0
330
1
100
AcDbSymbolTableRecord
100
AcDbBlockTableRecord
  2
*D16
340
0
  0
BLOCK_RECORD
  5
2CBC
330
1
100
AcDbSymbolTableRecord
100
AcDbBlockTableRecord
  2
*D17
340
0
  0
BLOCK_RECORD
  5
2DCB
330
1
100
AcDbSymbolTableRecord
100
AcDbBlockTableRecord
  2
*D18
340
0
  0
BLOCK_RECORD
  5
329A
330
1
100
AcDbSymbolTableRecord
100
AcDbBlockTableRecord
  2
*U20
340
0
  0
BLOCK_RECORD
  5
32A2
330
1
100
AcDbSymbolTableRecord
100
AcDbBlockTableRecord
  2
*U21
340
0
  0
BLOCK_RECORD
  5
32AA
330
1
100
AcDbSymbolTableRecord
100
AcDbBlockTableRecord
  2
*U22
340
0
  0
BLOCK_RECORD
  5
32B2
330
1
100
AcDbSymbolTableRecord
100
AcDbBlockTableRecord
  2
*U23
340
0
  0
BLOCK_RECORD
  5
32BA
330
1
100
AcDbSymbolTableRecord
100
AcDbBlockTableRecord
  2
*S24
340
0
  0
BLOCK_RECORD
  5
32C2
330
1
100
AcDbSymbolTableRecord
100
AcDbBlockTableRecord
  2
*S25
340
0
  0
ENDTAB
  0
ENDSEC
  0
SECTION
  2
BLOCKS
  0
BLOCK
  5
20
330
1F
100
AcDbEntity
  8
0
100
AcDbBlockBegin
  2
*Model_Space
 70
     0
 10
0.0
 20
0.0
 30
0.0
  3
*Model_Space
  1

  0
ENDBLK
  5
21
330
1F
100
AcDbEntity
  8
0
100
AcDbBlockEnd
  0
BLOCK
  5
1C
330
1B
100
AcDbEntity
 67
     1
  8
0
100
AcDbBlockBegin
  2
*Paper_Space
 70
     0
 10
0.0
 20
0.0
 30
0.0
  3
*Paper_Space
  1

  0
ENDBLK
  5
1D
330
1B
100
AcDbEntity
 67
     1
  8
0
100
AcDbBlockEnd
  0
BLOCK
  5
24
330
23
100
AcDbEntity
  8
0
100
AcDbBlockBegin
  2
*Paper_Space0
 70
     0
 10
0.0
 20
0.0
 30
0.0
  3
*Paper_Space0
  1

  0
ENDBLK
  5
25
330
23
100
AcDbEntity
  8
0
100
AcDbBlockEnd
  0
BLOCK
  5
73
330
71
100
AcDbEntity
  8
0
100
AcDbBlockBegin
  2
GENAXEH
 70
     0
 10
0.0
 20
0.0
 30
0.0
  3
GENAXEH
  1

  0
LINE
  5
72
330
71
100
AcDbEntity
  8
0
100
AcDbLine
 10
-1.0
 20
0.0
 30
0.0
 11
1.0
 21
0.0
 31
0.0
  0
ENDBLK
  5
74
330
71
100
AcDbEntity
  8
0
100
AcDbBlockEnd
  0
BLOCK
  5
1223
330
1222
100
AcDbEntity
  8
0
100
AcDbBlockBegin
  2
*U4
 70
     1
 10
0.0
 20
0.0
 30
0.0
  3
*U4
  1

  0
ENDBLK
  5
1224
330
1222
100
AcDbEntity
  8
0
100
AcDbBlockEnd
  0
BLOCK
  5
29F6
330
29EC
100
AcDbEntity
  8
0
100
AcDbBlockBegin
  2
*D5
 70
     1
 10
0.0
 20
0.0
 30
0.0
  3
*D5
  1

  0
LINE
  5
3159
330
29EC
100
AcDbEntity
  8
AM_5
100
AcDbLine
 10
800.54209519506
 20
299.4089702315457
 30
0.0
 11
800.54209519506
 21
291.3048677255556
 31
0.0
  0
LINE
  5
315A
330
29EC
100
AcDbEntity
  8
AM_5
100
AcDbLine
 10
747.5420951950602
 20
334.5459565329156
 30
0.0
 11
747.5420951950602
 21
291.3048677255556
 31
0.0
  0
LINE
  5
315B
330
29EC
100
AcDbEntity
  8
AM_5
100
AcDbLine
 10
797.54209519506
 20
292.8048677255556
 30
0.0
 11
750.5420951950602
 21
292.8048677255556
 31
0.0
  0
SOLID
  5
315C
330
29EC
100
AcDbEntity
  8
AM_5
100
AcDbTrace
 10
797.54209519506
 20
293.3048677255556
 30
0.0
 11
797.54209519506
 21
292.3048677255556
 31
0.0
 12
800.54209519506
 22
292.8048677255556
 32
0.0
 13
800.54209519506
 23
292.8048677255556
 33
0.0
  0
SOLID
  5
315D
330
29EC
100
AcDbEntity
  8
AM_5
100
AcDbTrace
 10
750.5420951950602
 20
293.3048677255556
 30
0.0
 11
750.5420951950602
 21
292.3048677255556
 31
0.0
 12
747.5420951950602
 22
292.8048677255556
 32
0.0
 13
747.5420951950602
 23
292.8048677255556
 33
0.0
  0
MTEXT
  5
315E
330
29EC
100
AcDbEntity
  8
AM_5
100
AcDbMText
 10
775.04209519506
 20
295.3048677255556
 30
0.0
 40
3.0
 41
0.0
 71
     5
 72
     1
  1
\A2;53
 73
     1
 44
1.0
1001
ACAD
1000
MTEXTBEGIN
1070
    73
1070
     1
1070
    44
1040
1.0
1070
    74
1070
     0
1000
MTEXTEND
  0
POINT
  5
315F
330
29EC
100
AcDbEntity
  8
Defpoints
 62
     0
100
AcDbPoint
 10
800.54209519506
 20
300.4089702315457
 30
0.0
  0
POINT
  5
3160
330
29EC
100
AcDbEntity
  8
Defpoints
 62
     0
100
AcDbPoint
 10
747.5420951950602
 20
335.5459565329156
 30
0.0
  0
POINT
  5
3161
330
29EC
100
AcDbEntity
  8
Defpoints
 62
     0
100
AcDbPoint
 10
747.5420951950602
 20
292.8048677255556
 30
0.0
  0
ENDBLK
  5
29F7
330
29EC
100
AcDbEntity
  8
0
100
AcDbBlockEnd
  0
BLOCK
  5
2A02
330
29F8
100
AcDbEntity
  8
0
100
AcDbBlockBegin
  2
*D6
 70
     1
 10
0.0
 20
0.0
 30
0.0
  3
*D6
  1

  0
LINE
  5
3162
330
29F8
100
AcDbEntity
  8
AM_5
100
AcDbLine
 10
814.0145648783263
 20
349.5459565329156
 30
0.0
 11
845.0420951950601
 21
349.5459565329156
 31
0.0
  0
LINE
  5
3163
330
29F8
100
AcDbEntity
  8
AM_5
100
AcDbLine
 10
814.0145648783265
 20
321.5459565329156
 30
0.0
 11
845.0420951950601
 21
321.5459565329156
 31
0.0
  0
LINE
  5
3164
330
29F8
100
AcDbEntity
  8
AM_5
100
AcDbLine
 10
843.54209519506
 20
346.5459565329156
 30
0.0
 11
843.54209519506
 21
324.5459565329156
 31
0.0
  0
SOLID
  5
3165
330
29F8
100
AcDbEntity
  8
AM_5
100
AcDbTrace
 10
843.0420951950601
 20
346.5459565329156
 30
0.0
 11
844.0420951950601
 21
346.5459565329156
 31
0.0
 12
843.54209519506
 22
349.5459565329156
 32
0.0
 13
843.54209519506
 23
349.5459565329156
 33
0.0
  0
SOLID
  5
3166
330
29F8
100
AcDbEntity
  8
AM_5
100
AcDbTrace
 10
843.0420951950601
 20
324.5459565329156
 30
0.0
 11
844.0420951950601
 21
324.5459565329156
 31
0.0
 12
843.54209519506
 22
321.5459565329156
 32
0.0
 13
843.54209519506
 23
321.5459565329156
 33
0.0
  0
MTEXT
  5
3167
330
29F8
100
AcDbEntity
  8
AM_5
100
AcDbMText
 10
841.0417999194693
 20
335.5459565329156
 30
0.0
 40
3.0
 41
0.0
 71
     5
 72
     1
  1
\A2;28
 11
0.0000000000000001
 21
1.0
 31
0.0
 73
     1
 44
1.0
1001
ACAD
1000
MTEXTBEGIN
1070
    73
1070
     1
1070
    44
1040
1.0
1070
    74
1070
     0
1000
MTEXTEND
  0
POINT
  5
3168
330
29F8
100
AcDbEntity
  8
Defpoints
 62
     0
100
AcDbPoint
 10
813.0145648783264
 20
349.5459565329156
 30
0.0
  0
POINT
  5
3169
330
29F8
100
AcDbEntity
  8
Defpoints
 62
     0
100
AcDbPoint
 10
813.0145648783265
 20
321.5459565329156
 30
0.0
  0
POINT
  5
316A
330
29F8
100
AcDbEntity
  8
Defpoints
 62
     0
100
AcDbPoint
 10
843.54209519506
 20
321.5459565329156
 30
0.0
  0
ENDBLK
  5
2A03
330
29F8
100
AcDbEntity
  8
0
100
AcDbBlockEnd
  0
BLOCK
  5
2A0E
330
2A04
100
AcDbEntity
  8
0
100
AcDbBlockBegin
  2
*D7
 70
     1
 10
0.0
 20
0.0
 30
0.0
  3
*D7
  1

  0
LINE
  5
316B
330
2A04
100
AcDbEntity
  8
AM_5
100
AcDbLine
 10
832.6420951950598
 20
359.5459565329155
 30
0.0
 11
853.0420951950599
 21
359.5459565329155
 31
0.0
  0
LINE
  5
316C
330
2A04
100
AcDbEntity
  8
AM_5
100
AcDbLine
 10
832.6420951950598
 20
311.5459565329156
 30
0.0
 11
853.0420951950599
 21
311.5459565329156
 31
0.0
  0
LINE
  5
316D
330
2A04
100
AcDbEntity
  8
AM_5
100
AcDbLine
 10
851.54209519506
 20
356.5459565329155
 30
0.0
 11
851.54209519506
 21
314.5459565329156
 31
0.0
  0
SOLID
  5
316E
330
2A04
100
AcDbEntity
  8
AM_5
100
AcDbTrace
 10
851.0420951950599
 20
356.5459565329155
 30
0.0
 11
852.0420951950599
 21
356.5459565329155
 31
0.0
 12
851.54209519506
 22
359.5459565329155
 32
0.0
 13
851.54209519506
 23
359.5459565329155
 33
0.0
  0
SOLID
  5
316F
330
2A04
100
AcDbEntity
  8
AM_5
100
AcDbTrace
 10
851.0420951950599
 20
314.5459565329156
 30
0.0
 11
852.0420951950599
 21
314.5459565329156
 31
0.0
 12
851.54209519506
 22
311.5459565329156
 32
0.0
 13
851.54209519506
 23
311.5459565329156
 33
0.0
  0
MTEXT
  5
3170
330
2A04
100
AcDbEntity
  8
AM_5
100
AcDbMText
 10
849.0420951950598
 20
335.5459565329157
 30
0.0
 40
3.0
 41
0.0
 71
     5
 72
     1
  1
\A2;48
 11
0.0000000000000001
 21
1.0
 31
0.0
 73
     1
 44
1.0
1001
ACAD
1000
MTEXTBEGIN
1070
    73
1070
     1
1070
    44
1040
1.0
1070
    74
1070
     0
1000
MTEXTEND
  0
POINT
  5
3171
330
2A04
100
AcDbEntity
  8
Defpoints
 62
     0
100
AcDbPoint
 10
831.6420951950599
 20
359.5459565329155
 30
0.0
  0
POINT
  5
3172
330
2A04
100
AcDbEntity
  8
Defpoints
 62
     0
100
AcDbPoint
 10
831.6420951950599
 20
311.5459565329156
 30
0.0
  0
POINT
  5
3173
330
2A04
100
AcDbEntity
  8
Defpoints
 62
     0
100
AcDbPoint
 10
851.54209519506
 20
311.5459565329156
 30
0.0
  0
ENDBLK
  5
2A0F
330
2A04
100
AcDbEntity
  8
0
100
AcDbBlockEnd
  0
BLOCK
  5
2A1A
330
2A10
100
AcDbEntity
  8
0
100
AcDbBlockBegin
  2
*D8
 70
     1
 10
0.0
 20
0.0
 30
0.0
  3
*D8
  1

  0
LINE
  5
3174
330
2A10
100
AcDbEntity
  8
AM_5
100
AcDbLine
 10
829.54209519506
 20
368.5459565329156
 30
0.0
 11
861.0420951950599
 21
368.5459565329156
 31
0.0
  0
LINE
  5
3175
330
2A10
100
AcDbEntity
  8
AM_5
100
AcDbLine
 10
829.54209519506
 20
302.5459565329156
 30
0.0
 11
861.0420951950599
 21
302.5459565329156
 31
0.0
  0
LINE
  5
3176
330
2A10
100
AcDbEntity
  8
AM_5
100
AcDbLine
 10
859.54209519506
 20
365.5459565329156
 30
0.0
 11
859.54209519506
 21
305.5459565329156
 31
0.0
  0
SOLID
  5
3177
330
2A10
100
AcDbEntity
  8
AM_5
100
AcDbTrace
 10
859.04209519506
 20
365.5459565329156
 30
0.0
 11
860.0420951950599
 21
365.5459565329156
 31
0.0
 12
859.54209519506
 22
368.5459565329156
 32
0.0
 13
859.54209519506
 23
368.5459565329156
 33
0.0
  0
SOLID
  5
3178
330
2A10
100
AcDbEntity
  8
AM_5
100
AcDbTrace
 10
859.04209519506
 20
305.5459565329156
 30
0.0
 11
860.0420951950599
 21
305.5459565329156
 31
0.0
 12
859.54209519506
 22
302.5459565329156
 32
0.0
 13
859.54209519506
 23
302.5459565329156
 33
0.0
  0
MTEXT
  5
3179
330
2A10
100
AcDbEntity
  8
AM_5
100
AcDbMText
 10
857.0420951950598
 20
335.5459565329157
 30
0.0
 40
3.0
 41
0.0
 71
     5
 72
     1
  1
\A2;{\Famgdt|c136;o}66
 11
0.0000000000000001
 21
1.0
 31
0.0
 73
     1
 44
1.0
1001
ACAD
1000
MTEXTBEGIN
1070
    73
1070
     1
1070
    44
1040
1.0
1070
    74
1070
     0
1000
MTEXTEND
  0
POINT
  5
317A
330
2A10
100
AcDbEntity
  8
Defpoints
 62
     0
100
AcDbPoint
 10
828.54209519506
 20
368.5459565329156
 30
0.0
  0
POINT
  5
317B
330
2A10
100
AcDbEntity
  8
Defpoints
 62
     0
100
AcDbPoint
 10
828.54209519506
 20
302.5459565329156
 30
0.0
  0
POINT
  5
317C
330
2A10
100
AcDbEntity
  8
Defpoints
 62
     0
100
AcDbPoint
 10
859.54209519506
 20
302.5459565329156
 30
0.0
  0
ENDBLK
  5
2A1B
330
2A10
100
AcDbEntity
  8
0
100
AcDbBlockEnd
  0
BLOCK
  5
2C52
330
2C46
100
AcDbEntity
  8
0
100
AcDbBlockBegin
  2
*D9
 70
     1
 10
0.0
 20
0.0
 30
0.0
  3
*D9
  1

  0
LINE
  5
318F
330
2C46
100
AcDbEntity
  8
AM_5
100
AcDbLine
 10
820.3515825676136
 20
129.9144623500949
 30
0.0
 11
845.1692689415681
 21
129.9144623500949
 31
0.0
  0
LINE
  5
3190
330
2C46
100
AcDbEntity
  8
AM_5
100
AcDbLine
 10
834.046461923654
 20
132.9144623500949
 30
0.0
 11
845.1692689415681
 21
132.9144623500949
 31
0.0
  0
LINE
  5
3191
330
2C46
100
AcDbEntity
  8
AM_5
100
AcDbLine
 10
843.669268941568
 20
135.9144623500949
 30
0.0
 11
843.669268941568
 21
138.9144623500949
 31
0.0
  0
LINE
  5
3192
330
2C46
100
AcDbEntity
  8
AM_5
100
AcDbLine
 10
843.669268941568
 20
126.9144623500949
 30
0.0
 11
843.669268941568
 21
117.890198281383
 31
0.0
  0
LINE
  5
3193
330
2C46
100
AcDbEntity
  8
AM_5
100
AcDbLine
 10
843.669268941568
 20
132.9144623500949
 30
0.0
 11
843.669268941568
 21
129.9144623500949
 31
0.0
  0
SOLID
  5
3194
330
2C46
100
AcDbEntity
  8
AM_5
100
AcDbTrace
 10
843.1692689415681
 20
135.9144623500949
 30
0.0
 11
844.1692689415681
 21
135.9144623500949
 31
0.0
 12
843.669268941568
 22
132.9144623500949
 32
0.0
 13
843.669268941568
 23
132.9144623500949
 33
0.0
  0
SOLID
  5
3195
330
2C46
100
AcDbEntity
  8
AM_5
100
AcDbTrace
 10
843.1692689415681
 20
126.9144623500949
 30
0.0
 11
844.1692689415681
 21
126.9144623500949
 31
0.0
 12
843.669268941568
 22
129.9144623500949
 32
0.0
 13
843.669268941568
 23
129.9144623500949
 33
0.0
  0
MTEXT
  5
3196
330
2C46
100
AcDbEntity
  8
AM_5
100
AcDbMText
 10
841.1692689415682
 20
119.5523303157391
 30
0.0
 40
3.0
 41
0.0
 71
     5
 72
     1
  1
\A2;3
 11
0.0000000000000001
 21
1.0
 31
0.0
 73
     1
 44
1.0
1001
ACAD
1000
MTEXTBEGIN
1070
    73
1070
     1
1070
    44
1040
1.0
1070
    74
1070
     0
1000
MTEXTEND
  0
POINT
  5
3197
330
2C46
100
AcDbEntity
  8
Defpoints
 62
     0
100
AcDbPoint
 10
819.3515825676136
 20
129.9144623500949
 30
0.0
  0
POINT
  5
3198
330
2C46
100
AcDbEntity
  8
Defpoints
 62
     0
100
AcDbPoint
 10
833.046461923654
 20
132.9144623500949
 30
0.0
  0
POINT
  5
3199
330
2C46
100
AcDbEntity
  8
Defpoints
 62
     0
100
AcDbPoint
 10
843.669268941568
 20
132.9144623500949
 30
0.0
  0
ENDBLK
  5
2C53
330
2C46
100
AcDbEntity
  8
0
100
AcDbBlockEnd
  0
BLOCK
  5
2C5E
330
2C54
100
AcDbEntity
  8
0
100
AcDbBlockBegin
  2
*D10
 70
     1
 10
0.0
 20
0.0
 30
0.0
  3
*D10
  1

  0
LINE
  5
31AC
330
2C54
100
AcDbEntity
  8
AM_5
100
AcDbLine
 10
834.046461923654
 20
248.9144623500948
 30
0.0
 11
861.1692689415679
 21
248.9144623500948
 31
0.0
  0
LINE
  5
31AD
330
2C54
100
AcDbEntity
  8
AM_5
100
AcDbLine
 10
819.2920951950597
 20
269.9144623500949
 30
0.0
 11
861.1692689415681
 21
269.9144623500949
 31
0.0
  0
LINE
  5
31AE
330
2C54
100
AcDbEntity
  8
AM_5
100
AcDbLine
 10
859.669268941568
 20
251.9144623500948
 30
0.0
 11
859.669268941568
 21
266.9144623500949
 31
0.0
  0
SOLID
  5
31AF
330
2C54
100
AcDbEntity
  8
AM_5
100
AcDbTrace
 10
859.169268941568
 20
251.9144623500948
 30
0.0
 11
860.1692689415679
 21
251.9144623500948
 31
0.0
 12
859.669268941568
 22
248.9144623500948
 32
0.0
 13
859.669268941568
 23
248.9144623500948
 33
0.0
  0
SOLID
  5
31B0
330
2C54
100
AcDbEntity
  8
AM_5
100
AcDbTrace
 10
859.1692689415681
 20
266.9144623500949
 30
0.0
 11
860.1692689415681
 21
266.9144623500949
 31
0.0
 12
859.669268941568
 22
269.9144623500949
 32
0.0
 13
859.669268941568
 23
269.9144623500949
 33
0.0
  0
MTEXT
  5
31B1
330
2C54
100
AcDbEntity
  8
AM_5
100
AcDbMText
 10
857.1689736659774
 20
259.414462350095
 30
0.0
 40
3.0
 41
0.0
 71
     5
 72
     1
  1
\A2;21
 11
0.0000000000000001
 21
1.0
 31
0.0
 73
     1
 44
1.0
1001
ACAD
1000
MTEXTBEGIN
1070
    73
1070
     1
1070
    44
1040
1.0
1070
    74
1070
     0
1000
MTEXTEND
  0
POINT
  5
31B2
330
2C54
100
AcDbEntity
  8
Defpoints
 62
     0
100
AcDbPoint
 10
833.046461923654
 20
248.9144623500948
 30
0.0
  0
POINT
  5
31B3
330
2C54
100
AcDbEntity
  8
Defpoints
 62
     0
100
AcDbPoint
 10
818.2920951950597
 20
269.9144623500949
 30
0.0
  0
POINT
  5
31B4
330
2C54
100
AcDbEntity
  8
Defpoints
 62
     0
100
AcDbPoint
 10
859.669268941568
 20
269.9144623500949
 30
0.0
  0
ENDBLK
  5
2C5F
330
2C54
100
AcDbEntity
  8
0
100
AcDbBlockEnd
  0
BLOCK
  5
2C6A
330
2C60
100
AcDbEntity
  8
0
100
AcDbBlockBegin
  2
*D11
 70
     1
 10
0.0
 20
0.0
 30
0.0
  3
*D11
  1

  0
LINE
  5
317D
330
2C60
100
AcDbEntity
  8
AM_5
100
AcDbLine
 10
834.046461923654
 20
132.9144623500949
 30
0.0
 11
845.1692689415681
 21
132.9144623500949
 31
0.0
  0
LINE
  5
317E
330
2C60
100
AcDbEntity
  8
AM_5
100
AcDbLine
 10
813.1920951950601
 20
146.9144623500948
 30
0.0
 11
845.1692689415681
 21
146.9144623500948
 31
0.0
  0
LINE
  5
317F
330
2C60
100
AcDbEntity
  8
AM_5
100
AcDbLine
 10
843.669268941568
 20
135.9144623500949
 30
0.0
 11
843.669268941568
 21
143.9144623500948
 31
0.0
  0
SOLID
  5
3180
330
2C60
100
AcDbEntity
  8
AM_5
100
AcDbTrace
 10
843.1692689415681
 20
135.9144623500949
 30
0.0
 11
844.1692689415681
 21
135.9144623500949
 31
0.0
 12
843.669268941568
 22
132.9144623500949
 32
0.0
 13
843.669268941568
 23
132.9144623500949
 33
0.0
  0
SOLID
  5
3181
330
2C60
100
AcDbEntity
  8
AM_5
100
AcDbTrace
 10
843.1692689415681
 20
143.9144623500948
 30
0.0
 11
844.1692689415681
 21
143.9144623500948
 31
0.0
 12
843.669268941568
 22
146.9144623500948
 32
0.0
 13
843.669268941568
 23
146.9144623500948
 33
0.0
  0
MTEXT
  5
3182
330
2C60
100
AcDbEntity
  8
AM_5
100
AcDbMText
 10
841.1692689415682
 20
139.914462350095
 30
0.0
 40
3.0
 41
0.0
 71
     5
 72
     1
  1
\A2;14
 11
0.0000000000000001
 21
1.0
 31
0.0
 73
     1
 44
1.0
1001
ACAD
1000
MTEXTBEGIN
1070
    73
1070
     1
1070
    44
1040
1.0
1070
    74
1070
     0
1000
MTEXTEND
  0
POINT
  5
3183
330
2C60
100
AcDbEntity
  8
Defpoints
 62
     0
100
AcDbPoint
 10
833.046461923654
 20
132.9144623500949
 30
0.0
  0
POINT
  5
3184
330
2C60
100
AcDbEntity
  8
Defpoints
 62
     0
100
AcDbPoint
 10
812.1920951950601
 20
146.9144623500948
 30
0.0
  0
POINT
  5
3185
330
2C60
100
AcDbEntity
  8
Defpoints
 62
     0
100
AcDbPoint
 10
843.669268941568
 20
146.9144623500948
 30
0.0
  0
ENDBLK
  5
2C6B
330
2C60
100
AcDbEntity
  8
0
100
AcDbBlockEnd
  0
BLOCK
  5
2C76
330
2C6C
100
AcDbEntity
  8
0
100
AcDbBlockBegin
  2
*D12
 70
     1
 10
0.0
 20
0.0
 30
0.0
  3
*D12
  1

  0
LINE
  5
3186
330
2C6C
100
AcDbEntity
  8
AM_5
100
AcDbLine
 10
834.046461923654
 20
132.9144623500948
 30
0.0
 11
853.1692689415681
 21
132.9144623500948
 31
0.0
  0
LINE
  5
3187
330
2C6C
100
AcDbEntity
  8
AM_5
100
AcDbLine
 10
834.79209519506
 20
160.9144623500949
 30
0.0
 11
853.1692689415681
 21
160.9144623500949
 31
0.0
  0
LINE
  5
3188
330
2C6C
100
AcDbEntity
  8
AM_5
100
AcDbLine
 10
851.669268941568
 20
135.9144623500948
 30
0.0
 11
851.669268941568
 21
157.9144623500949
 31
0.0
  0
SOLID
  5
3189
330
2C6C
100
AcDbEntity
  8
AM_5
100
AcDbTrace
 10
851.1692689415681
 20
135.9144623500948
 30
0.0
 11
852.1692689415681
 21
135.9144623500948
 31
0.0
 12
851.669268941568
 22
132.9144623500948
 32
0.0
 13
851.669268941568
 23
132.9144623500948
 33
0.0
  0
SOLID
  5
318A
330
2C6C
100
AcDbEntity
  8
AM_5
100
AcDbTrace
 10
851.1692689415681
 20
157.9144623500949
 30
0.0
 11
852.1692689415681
 21
157.9144623500949
 31
0.0
 12
851.669268941568
 22
160.9144623500949
 32
0.0
 13
851.669268941568
 23
160.9144623500949
 33
0.0
  0
MTEXT
  5
318B
330
2C6C
100
AcDbEntity
  8
AM_5
100
AcDbMText
 10
849.1689736659775
 20
146.914462350095
 30
0.0
 40
3.0
 41
0.0
 71
     5
 72
     1
  1
\A2;28
 11
0.0000000000000001
 21
1.0
 31
0.0
 73
     1
 44
1.0
1001
ACAD
1000
MTEXTBEGIN
1070
    73
1070
     1
1070
    44
1040
1.0
1070
    74
1070
     0
1000
MTEXTEND
  0
POINT
  5
318C
330
2C6C
100
AcDbEntity
  8
Defpoints
 62
     0
100
AcDbPoint
 10
833.046461923654
 20
132.9144623500948
 30
0.0
  0
POINT
  5
318D
330
2C6C
100
AcDbEntity
  8
Defpoints
 62
     0
100
AcDbPoint
 10
833.79209519506
 20
160.9144623500949
 30
0.0
  0
POINT
  5
318E
330
2C6C
100
AcDbEntity
  8
Defpoints
 62
     0
100
AcDbPoint
 10
851.669268941568
 20
160.9144623500949
 30
0.0
  0
ENDBLK
  5
2C77
330
2C6C
100
AcDbEntity
  8
0
100
AcDbBlockEnd
  0
BLOCK
  5
2C8D
330
2C83
100
AcDbEntity
  8
0
100
AcDbBlockBegin
  2
*D13
 70
     1
 10
0.0
 20
0.0
 30
0.0
  3
*D13
  1

  0
LINE
  5
322D
330
2C83
100
AcDbEntity
  8
AM_5
100
AcDbLine
 10
821.0420951950597
 20
129.9144623500949
 30
0.0
 11
869.1692689415685
 21
129.9144623500949
 31
0.0
  0
LINE
  5
322E
330
2C83
100
AcDbEntity
  8
AM_5
100
AcDbLine
 10
819.2920951950597
 20
269.9144623500949
 30
0.0
 11
869.1692689415686
 21
269.9144623500949
 31
0.0
  0
LINE
  5
322F
330
2C83
100
AcDbEntity
  8
AM_5
100
AcDbLine
 10
867.6692689415684
 20
132.9144623500949
 30
0.0
 11
867.6692689415686
 21
266.9144623500949
 31
0.0
  0
SOLID
  5
3230
330
2C83
100
AcDbEntity
  8
AM_5
100
AcDbTrace
 10
867.1692689415685
 20
132.9144623500949
 30
0.0
 11
868.1692689415685
 21
132.9144623500949
 31
0.0
 12
867.6692689415684
 22
129.9144623500949
 32
0.0
 13
867.6692689415684
 23
129.9144623500949
 33
0.0
  0
SOLID
  5
3231
330
2C83
100
AcDbEntity
  8
AM_5
100
AcDbTrace
 10
867.1692689415685
 20
266.9144623500949
 30
0.0
 11
868.1692689415685
 21
266.9144623500949
 31
0.0
 12
867.6692689415686
 22
269.9144623500949
 32
0.0
 13
867.6692689415686
 23
269.9144623500949
 33
0.0
  0
MTEXT
  5
3232
330
2C83
100
AcDbEntity
  8
AM_5
100
AcDbMText
 10
864.7406284500364
 20
199.914462350095
 30
0.0
 40
3.0
 41
0.0
 71
     5
 72
     1
  1
\A2;90+length
 11
0.0000000000000001
 21
1.0
 31
0.0
 73
     1
 44
1.0
1001
ACAD
1000
MTEXTBEGIN
1070
    73
1070
     1
1070
    44
1040
1.0
1070
    74
1070
     0
1000
MTEXTEND
  0
POINT
  5
3233
330
2C83
100
AcDbEntity
  8
Defpoints
 62
     0
100
AcDbPoint
 10
820.0420951950597
 20
129.9144623500949
 30
0.0
  0
POINT
  5
3234
330
2C83
100
AcDbEntity
  8
Defpoints
 62
     0
100
AcDbPoint
 10
818.2920951950597
 20
269.9144623500949
 30
0.0
  0
POINT
  5
3235
330
2C83
100
AcDbEntity
  8
Defpoints
 62
     0
100
AcDbPoint
 10
867.6692689415686
 20
269.9144623500949
 30
0.0
  0
ENDBLK
  5
2C8E
330
2C83
100
AcDbEntity
  8
0
100
AcDbBlockEnd
  0
BLOCK
  5
2C99
330
2C8F
100
AcDbEntity
  8
0
100
AcDbBlockBegin
  2
*D14
 70
     1
 10
0.0
 20
0.0
 30
0.0
  3
*D14
  1

  0
LINE
  5
31A3
330
2C8F
100
AcDbEntity
  8
AM_5
100
AcDbLine
 10
834.046461923654
 20
248.9144623500948
 30
0.0
 11
853.1692689415677
 21
248.9144623500948
 31
0.0
  0
LINE
  5
31A4
330
2C8F
100
AcDbEntity
  8
AM_5
100
AcDbLine
 10
820.1420951950598
 20
259.9144623500949
 30
0.0
 11
853.1692689415679
 21
259.9144623500949
 31
0.0
  0
LINE
  5
31A5
330
2C8F
100
AcDbEntity
  8
AM_5
100
AcDbLine
 10
851.6692689415677
 20
251.9144623500948
 30
0.0
 11
851.6692689415679
 21
256.914462350095
 31
0.0
  0
SOLID
  5
31A6
330
2C8F
100
AcDbEntity
  8
AM_5
100
AcDbTrace
 10
851.1692689415678
 20
251.9144623500948
 30
0.0
 11
852.1692689415678
 21
251.9144623500948
 31
0.0
 12
851.6692689415677
 22
248.9144623500948
 32
0.0
 13
851.6692689415677
 23
248.9144623500948
 33
0.0
  0
SOLID
  5
31A7
330
2C8F
100
AcDbEntity
  8
AM_5
100
AcDbTrace
 10
851.1692689415678
 20
256.914462350095
 30
0.0
 11
852.1692689415679
 21
256.914462350095
 31
0.0
 12
851.6692689415679
 22
259.9144623500949
 32
0.0
 13
851.6692689415679
 23
259.9144623500949
 33
0.0
  0
MTEXT
  5
31A8
330
2C8F
100
AcDbEntity
  8
AM_5
100
AcDbMText
 10
849.1692689415678
 20
254.414462350095
 30
0.0
 40
3.0
 41
0.0
 71
     5
 72
     1
  1
\A2;11
 11
0.0000000000000001
 21
1.0
 31
0.0
 73
     1
 44
1.0
1001
ACAD
1000
MTEXTBEGIN
1070
    73
1070
     1
1070
    44
1040
1.0
1070
    74
1070
     0
1000
MTEXTEND
  0
POINT
  5
31A9
330
2C8F
100
AcDbEntity
  8
Defpoints
 62
     0
100
AcDbPoint
 10
833.046461923654
 20
248.9144623500948
 30
0.0
  0
POINT
  5
31AA
330
2C8F
100
AcDbEntity
  8
Defpoints
 62
     0
100
AcDbPoint
 10
819.1420951950599
 20
259.9144623500949
 30
0.0
  0
POINT
  5
31AB
330
2C8F
100
AcDbEntity
  8
Defpoints
 62
     0
100
AcDbPoint
 10
851.6692689415679
 20
259.9144623500949
 30
0.0
  0
ENDBLK
  5
2C9A
330
2C8F
100
AcDbEntity
  8
0
100
AcDbBlockEnd
  0
BLOCK
  5
2CAE
330
2CA4
100
AcDbEntity
  8
0
100
AcDbBlockBegin
  2
*D15
 70
     1
 10
0.0
 20
0.0
 30
0.0
  3
*D15
  1

  0
LINE
  5
3223
330
2CA4
100
AcDbEntity
  8
AM_5
100
AcDbLine
 10
834.046461923654
 20
132.9144623500949
 30
0.0
 11
861.1692689415681
 21
132.9144623500949
 31
0.0
  0
LINE
  5
3224
330
2CA4
100
AcDbEntity
  8
AM_5
100
AcDbLine
 10
834.046461923654
 20
248.914462350095
 30
0.0
 11
861.1692689415681
 21
248.914462350095
 31
0.0
  0
LINE
  5
3225
330
2CA4
100
AcDbEntity
  8
AM_5
100
AcDbLine
 10
859.669268941568
 20
135.9144623500949
 30
0.0
 11
859.669268941568
 21
245.9144623500949
 31
0.0
  0
SOLID
  5
3226
330
2CA4
100
AcDbEntity
  8
AM_5
100
AcDbTrace
 10
859.1692689415681
 20
135.9144623500949
 30
0.0
 11
860.1692689415681
 21
135.9144623500949
 31
0.0
 12
859.669268941568
 22
132.9144623500949
 32
0.0
 13
859.669268941568
 23
132.9144623500949
 33
0.0
  0
SOLID
  5
3227
330
2CA4
100
AcDbEntity
  8
AM_5
100
AcDbTrace
 10
859.1692689415681
 20
245.9144623500949
 30
0.0
 11
860.1692689415681
 21
245.9144623500949
 31
0.0
 12
859.669268941568
 22
248.914462350095
 32
0.0
 13
859.669268941568
 23
248.914462350095
 33
0.0
  0
MTEXT
  5
3228
330
2CA4
100
AcDbEntity
  8
AM_5
100
AcDbMText
 10
856.7399034115068
 20
190.914462350095
 30
0.0
 40
3.0
 41
0.0
 71
     5
 72
     1
  1
\A2;66+length
 11
0.0000000000000001
 21
1.0
 31
0.0
 73
     1
 44
1.0
1001
ACAD
1000
MTEXTBEGIN
1070
    73
1070
     1
1070
    44
1040
1.0
1070
    74
1070
     0
1000
MTEXTEND
  0
POINT
  5
3229
330
2CA4
100
AcDbEntity
  8
Defpoints
 62
     0
100
AcDbPoint
 10
833.046461923654
 20
132.9144623500949
 30
0.0
  0
POINT
  5
322A
330
2CA4
100
AcDbEntity
  8
Defpoints
 62
     0
100
AcDbPoint
 10
833.046461923654
 20
248.914462350095
 30
0.0
  0
POINT
  5
322B
330
2CA4
100
AcDbEntity
  8
Defpoints
 62
     0
100
AcDbPoint
 10
859.669268941568
 20
248.914462350095
 30
0.0
  0
ENDBLK
  5
2CAF
330
2CA4
100
AcDbEntity
  8
0
100
AcDbBlockEnd
  0
BLOCK
  5
2CBA
330
2CB0
100
AcDbEntity
  8
0
100
AcDbBlockBegin
  2
*D16
 70
     1
 10
0.0
 20
0.0
 30
0.0
  3
*D16
  1

  0
LINE
  5
31BE
330
2CB0
100
AcDbEntity
  8
AM_5
100
AcDbLine
 10
834.79209519506
 20
220.9144623500949
 30
0.0
 11
853.1692689415679
 21
220.9144623500949
 31
0.0
  0
LINE
  5
31BF
330
2CB0
100
AcDbEntity
  8
AM_5
100
AcDbLine
 10
834.046461923654
 20
248.914462350095
 30
0.0
 11
853.1692689415679
 21
248.914462350095
 31
0.0
  0
LINE
  5
31C0
330
2CB0
100
AcDbEntity
  8
AM_5
100
AcDbLine
 10
851.6692689415679
 20
223.914462350095
 30
0.0
 11
851.6692689415679
 21
245.9144623500949
 31
0.0
  0
SOLID
  5
31C1
330
2CB0
100
AcDbEntity
  8
AM_5
100
AcDbTrace
 10
851.1692689415678
 20
223.914462350095
 30
0.0
 11
852.1692689415679
 21
223.914462350095
 31
0.0
 12
851.6692689415679
 22
220.9144623500949
 32
0.0
 13
851.6692689415679
 23
220.9144623500949
 33
0.0
  0
SOLID
  5
31C2
330
2CB0
100
AcDbEntity
  8
AM_5
100
AcDbTrace
 10
851.1692689415678
 20
245.9144623500949
 30
0.0
 11
852.1692689415679
 21
245.9144623500949
 31
0.0
 12
851.6692689415679
 22
248.914462350095
 32
0.0
 13
851.6692689415679
 23
248.914462350095
 33
0.0
  0
MTEXT
  5
31C3
330
2CB0
100
AcDbEntity
  8
AM_5
100
AcDbMText
 10
849.1689736659774
 20
234.9144623500951
 30
0.0
 40
3.0
 41
0.0
 71
     5
 72
     1
  1
\A2;28
 11
0.0000000000000001
 21
1.0
 31
0.0
 73
     1
 44
1.0
1001
ACAD
1000
MTEXTBEGIN
1070
    73
1070
     1
1070
    44
1040
1.0
1070
    74
1070
     0
1000
MTEXTEND
  0
POINT
  5
31C4
330
2CB0
100
AcDbEntity
  8
Defpoints
 62
     0
100
AcDbPoint
 10
833.79209519506
 20
220.9144623500949
 30
0.0
  0
POINT
  5
31C5
330
2CB0
100
AcDbEntity
  8
Defpoints
 62
     0
100
AcDbPoint
 10
833.046461923654
 20
248.914462350095
 30
0.0
  0
POINT
  5
31C6
330
2CB0
100
AcDbEntity
  8
Defpoints
 62
     0
100
AcDbPoint
 10
851.6692689415679
 20
248.914462350095
 30
0.0
  0
ENDBLK
  5
2CBB
330
2CB0
100
AcDbEntity
  8
0
100
AcDbBlockEnd
  0
BLOCK
  5
2CC6
330
2CBC
100
AcDbEntity
  8
0
100
AcDbBlockBegin
  2
*D17
 70
     1
 10
0.0
 20
0.0
 30
0.0
  3
*D17
  1

  0
LINE
  5
31C7
330
2CBC
100
AcDbEntity
  8
AM_5
100
AcDbLine
 10
834.046461923654
 20
248.914462350095
 30
0.0
 11
845.1692689415679
 21
248.914462350095
 31
0.0
  0
LINE
  5
31C8
330
2CBC
100
AcDbEntity
  8
AM_5
100
AcDbLine
 10
813.1920951950601
 20
234.9144623500949
 30
0.0
 11
845.1692689415679
 21
234.9144623500948
 31
0.0
  0
LINE
  5
31C9
330
2CBC
100
AcDbEntity
  8
AM_5
100
AcDbLine
 10
843.6692689415679
 20
245.9144623500949
 30
0.0
 11
843.6692689415679
 21
237.9144623500948
 31
0.0
  0
SOLID
  5
31CA
330
2CBC
100
AcDbEntity
  8
AM_5
100
AcDbTrace
 10
843.169268941568
 20
245.9144623500949
 30
0.0
 11
844.1692689415679
 21
245.9144623500949
 31
0.0
 12
843.6692689415679
 22
248.914462350095
 32
0.0
 13
843.6692689415679
 23
248.914462350095
 33
0.0
  0
SOLID
  5
31CB
330
2CBC
100
AcDbEntity
  8
AM_5
100
AcDbTrace
 10
843.169268941568
 20
237.9144623500948
 30
0.0
 11
844.1692689415679
 21
237.9144623500948
 31
0.0
 12
843.6692689415679
 22
234.9144623500948
 32
0.0
 13
843.6692689415679
 23
234.9144623500948
 33
0.0
  0
MTEXT
  5
31CC
330
2CBC
100
AcDbEntity
  8
AM_5
100
AcDbMText
 10
841.1692689415678
 20
241.9144623500951
 30
0.0
 40
3.0
 41
0.0
 71
     5
 72
     1
  1
\A2;14
 11
0.0000000000000001
 21
1.0
 31
0.0
 73
     1
 44
1.0
1001
ACAD
1000
MTEXTBEGIN
1070
    73
1070
     1
1070
    44
1040
1.0
1070
    74
1070
     0
1000
MTEXTEND
  0
POINT
  5
31CD
330
2CBC
100
AcDbEntity
  8
Defpoints
 62
     0
100
AcDbPoint
 10
833.046461923654
 20
248.914462350095
 30
0.0
  0
POINT
  5
31CE
330
2CBC
100
AcDbEntity
  8
Defpoints
 62
     0
100
AcDbPoint
 10
812.1920951950601
 20
234.9144623500949
 30
0.0
  0
POINT
  5
31CF
330
2CBC
100
AcDbEntity
  8
Defpoints
 62
     0
100
AcDbPoint
 10
843.6692689415679
 20
234.9144623500948
 30
0.0
  0
ENDBLK
  5
2CC7
330
2CBC
100
AcDbEntity
  8
0
100
AcDbBlockEnd
  0
BLOCK
  5
2DD5
330
2DCB
100
AcDbEntity
  8
0
100
AcDbBlockBegin
  2
*D18
 70
     1
 10
0.0
 20
0.0
 30
0.0
  3
*D18
  1

  0
LINE
  5
31D0
330
2DCB
100
AcDbEntity
  8
AM_5
100
AcDbLine
 10
780.54209519506
 20
129.4144623500949
 30
0.0
 11
780.54209519506
 21
118.414462350095
 31
0.0
  0
LINE
  5
31D1
330
2DCB
100
AcDbEntity
  8
AM_5
100
AcDbLine
 10
820.5420951950598
 20
129.4144623500949
 30
0.0
 11
820.5420951950598
 21
118.414462350095
 31
0.0
  0
LINE
  5
31D2
330
2DCB
100
AcDbEntity
  8
AM_5
100
AcDbLine
 10
783.54209519506
 20
119.9144623500949
 30
0.0
 11
817.5420951950597
 21
119.9144623500949
 31
0.0
  0
SOLID
  5
31D3
330
2DCB
100
AcDbEntity
  8
AM_5
100
AcDbTrace
 10
783.54209519506
 20
120.414462350095
 30
0.0
 11
783.54209519506
 21
119.414462350095
 31
0.0
 12
780.54209519506
 22
119.9144623500949
 32
0.0
 13
780.54209519506
 23
119.9144623500949
 33
0.0
  0
SOLID
  5
31D4
330
2DCB
100
AcDbEntity
  8
AM_5
100
AcDbTrace
 10
817.5420951950597
 20
120.414462350095
 30
0.0
 11
817.5420951950597
 21
119.414462350095
 31
0.0
 12
820.5420951950598
 22
119.9144623500949
 32
0.0
 13
820.5420951950598
 23
119.9144623500949
 33
0.0
  0
MTEXT
  5
31D5
330
2DCB
100
AcDbEntity
  8
AM_5
100
AcDbMText
 10
800.5420951950599
 20
122.414462350095
 30
0.0
 40
3.0
 41
0.0
 71
     5
 72
     1
  1
\A2;%%c40
 73
     1
 44
1.0
1001
ACAD
1000
MTEXTBEGIN
1070
    73
1070
     1
1070
    44
1040
1.0
1070
    74
1070
     0
1000
MTEXTEND
  0
POINT
  5
31D6
330
2DCB
100
AcDbEntity
  8
Defpoints
 62
     0
100
AcDbPoint
 10
780.54209519506
 20
130.4144623500949
 30
0.0
  0
POINT
  5
31D7
330
2DCB
100
AcDbEntity
  8
Defpoints
 62
     0
100
AcDbPoint
 10
820.5420951950598
 20
130.4144623500949
 30
0.0
  0
POINT
  5
31D8
330
2DCB
100
AcDbEntity
  8
Defpoints
 62
     0
100
AcDbPoint
 10
820.5420951950598
 20
119.9144623500949
 30
0.0
  0
ENDBLK
  5
2DD6
330
2DCB
100
AcDbEntity
  8
0
100
AcDbBlockEnd
  0
BLOCK
  5
329F
330
329A
100
AcDbEntity
  8
0
100
AcDbBlockBegin
  2
*U20
 70
     1
 10
0.0
 20
0.0
 30
0.0
  3
*U20
  1

  0
ARC
  5
329B
330
329A
100
AcDbEntity
  8
AM_4
100
AcDbCircle
 10
776.5420951950596
 20
359.5459565329155
 30
0.0
 40
4.0
100
AcDbArc
 50
260.0
 51
170.0
  0
CIRCLE
  5
329C
330
329A
100
AcDbEntity
  8
AM_0
100
AcDbCircle
 10
776.5420951950596
 20
359.5459565329155
 30
0.0
 40
3.323417653293459
  0
LINE
  5
329D
330
329A
100
AcDbEntity
  8
AM_7
  6
AM_ISO08W050x2
100
AcDbLine
 10
769.5420951950596
 20
359.5459565329155
 30
0.0
 11
783.5420951950595
 21
359.5459565329155
 31
0.0
  0
LINE
  5
329E
330
329A
100
AcDbEntity
  8
AM_7
  6
AM_ISO08W050x2
100
AcDbLine
 10
776.5420951950596
 20
352.5459565329155
 30
0.0
 11
776.5420951950596
 21
366.5459565329155
 31
0.0
  0
ENDBLK
  5
32A0
330
329A
100
AcDbEntity
  8
0
100
AcDbBlockEnd
  0
BLOCK
  5
32A7
330
32A2
100
AcDbEntity
  8
0
100
AcDbBlockBegin
  2
*U21
 70
     1
 10
0.0
 20
0.0
 30
0.0
  3
*U21
  1

  0
ARC
  5
32A3
330
32A2
100
AcDbEntity
  8
AM_4
100
AcDbCircle
 10
824.5420951950595
 20
359.5459565329154
 30
0.0
 40
4.0
100
AcDbArc
 50
260.0
 51
170.0
  0
CIRCLE
  5
32A4
330
32A2
100
AcDbEntity
  8
AM_0
100
AcDbCircle
 10
824.5420951950595
 20
359.5459565329154
 30
0.0
 40
3.323417653293459
  0
LINE
  5
32A5
330
32A2
100
AcDbEntity
  8
AM_7
  6
AM_ISO08W050x2
100
AcDbLine
 10
817.5420951950595
 20
359.5459565329154
 30
0.0
 11
831.5420951950596
 21
359.5459565329154
 31
0.0
  0
LINE
  5
32A6
330
32A2
100
AcDbEntity
  8
AM_7
  6
AM_ISO08W050x2
100
AcDbLine
 10
824.5420951950595
 20
352.5459565329154
 30
0.0
 11
824.5420951950595
 21
366.5459565329154
 31
0.0
  0
ENDBLK
  5
32A8
330
32A2
100
AcDbEntity
  8
0
100
AcDbBlockEnd
  0
BLOCK
  5
32AF
330
32AA
100
AcDbEntity
  8
0
100
AcDbBlockBegin
  2
*U22
 70
     1
 10
0.0
 20
0.0
 30
0.0
  3
*U22
  1

  0
ARC
  5
32AB
330
32AA
100
AcDbEntity
  8
AM_4
100
AcDbCircle
 10
824.5420951950595
 20
311.5459565329155
 30
0.0
 40
4.0
100
AcDbArc
 50
260.0
 51
170.0
  0
CIRCLE
  5
32AC
330
32AA
100
AcDbEntity
  8
AM_0
100
AcDbCircle
 10
824.5420951950595
 20
311.5459565329155
 30
0.0
 40
3.323417653293459
  0
LINE
  5
32AD
330
32AA
100
AcDbEntity
  8
AM_7
  6
AM_ISO08W050x2
100
AcDbLine
 10
817.5420951950595
 20
311.5459565329155
 30
0.0
 11
831.5420951950596
 21
311.5459565329155
 31
0.0
  0
LINE
  5
32AE
330
32AA
100
AcDbEntity
  8
AM_7
  6
AM_ISO08W050x2
100
AcDbLine
 10
824.5420951950595
 20
304.5459565329155
 30
0.0
 11
824.5420951950595
 21
318.5459565329155
 31
0.0
  0
ENDBLK
  5
32B0
330
32AA
100
AcDbEntity
  8
0
100
AcDbBlockEnd
  0
BLOCK
  5
32B7
330
32B2
100
AcDbEntity
  8
0
100
AcDbBlockBegin
  2
*U23
 70
     1
 10
0.0
 20
0.0
 30
0.0
  3
*U23
  1

  0
ARC
  5
32B3
330
32B2
100
AcDbEntity
  8
AM_4
100
AcDbCircle
 10
776.5420951950596
 20
311.5459565329155
 30
0.0
 40
4.0
100
AcDbArc
 50
260.0
 51
170.0
  0
CIRCLE
  5
32B4
330
32B2
100
AcDbEntity
  8
AM_0
100
AcDbCircle
 10
776.5420951950596
 20
311.5459565329155
 30
0.0
 40
3.323417653293459
  0
LINE
  5
32B5
330
32B2
100
AcDbEntity
  8
AM_7
  6
AM_ISO08W050x2
100
AcDbLine
 10
769.5420951950596
 20
311.5459565329155
 30
0.0
 11
783.5420951950595
 21
311.5459565329155
 31
0.0
  0
LINE
  5
32B6
330
32B2
100
AcDbEntity
  8
AM_7
  6
AM_ISO08W050x2
100
AcDbLine
 10
776.5420951950596
 20
304.5459565329155
 30
0.0
 11
776.5420951950596
 21
318.5459565329155
 31
0.0
  0
ENDBLK
  5
32B8
330
32B2
100
AcDbEntity
  8
0
100
AcDbBlockEnd
  0
BLOCK
  5
32BF
330
32BA
100
AcDbEntity
  8
0
100
AcDbBlockBegin
  2
*S24
 70
     1
 10
0.0
 20
0.0
 30
0.0
  3
*S24
  1

  0
LINE
  5
32BB
330
32BA
100
AcDbEntity
  8
AM_5
 62
     5
100
AcDbLine
 10
859.9564600363512
 20
291.74071906669
 30
0.0
 11
840.0935638083424
 21
291.74071906669
 31
0.0
  0
LINE
  5
32BC
330
32BA
100
AcDbEntity
  8
AM_5
 62
     5
100
AcDbLine
 10
840.0935638083424
 20
291.74071906669
 30
0.0
 11
829.6234857513619
 21
305.766229311931
 31
0.0
  0
TRACE
  5
32BD
330
32BA
100
AcDbEntity
  8
AM_5
 62
     5
370
    35
100
AcDbTrace
 10
829.992731711585
 20
306.0418723336937
 30
0.0
 11
829.2542397911386
 21
305.4905862901683
 31
0.0
 12
827.5297691258224
 22
308.5709308454172
 32
0.0
 13
827.5297691258224
 23
308.5709308454172
 33
0.0
  0
MTEXT
  5
32BE
330
32BA
100
AcDbEntity
  8
AM_5
 62
     2
100
AcDbMText
 10
859.9564600363512
 20
287.0720396854743
 30
0.0
 40
3.5
 41
0.0
 71
     9
 72
     5
  1

  7
ACISOTS
210
0.0
220
0.0
230
-1.0
 11
-1.0
 21
0.0
 31
0.0
 73
     1
 44
1.0
1001
ACAD
1000
MTEXTBEGIN
1070
    73
1070
     1
1070
    44
1040
1.0
1070
    74
1070
     0
1000
MTEXTEND
  0
ENDBLK
  5
32C0
330
32BA
100
AcDbEntity
  8
0
100
AcDbBlockEnd
  0
BLOCK
  5
32C7
330
32C2
100
AcDbEntity
  8
0
100
AcDbBlockBegin
  2
*S25
 70
     1
 10
0.0
 20
0.0
 30
0.0
  3
*S25
  1

  0
LINE
  5
32C3
330
32C2
100
AcDbEntity
  8
AM_5
 62
     5
100
AcDbLine
 10
756.5779110608227
 20
122.0468242110059
 30
0.0
 11
772.8961030571418
 21
122.0468242110059
 31
0.0
  0
LINE
  5
32C4
330
32C2
100
AcDbEntity
  8
AM_5
 62
     5
100
AcDbLine
 10
772.8961030571418
 20
122.0468242110059
 30
0.0
 11
792.0145717236479
 21
139.9320281825356
 31
0.0
  0
TRACE
  5
32C5
330
32C2
100
AcDbEntity
  8
AM_5
 62
     5
370
    35
100
AcDbTrace
 10
792.3293611556019
 20
139.5955326132963
 30
0.0
 11
791.6997822916938
 21
140.2685237517749
 31
0.0
 12
794.5705093390147
 22
142.3230913156111
 32
0.0
 13
794.5705093390147
 23
142.3230913156111
 33
0.0
  0
MTEXT
  5
32C6
330
32C2
100
AcDbEntity
  8
AM_5
 62
     2
100
AcDbMText
 10
756.5779110608227
 20
117.3781448297902
 30
0.0
 40
3.5
 41
0.0
 71
     9
 72
     5
  1

  7
ACISOTS
 73
     1
 44
1.0
1001
ACAD
1000
MTEXTBEGIN
1070
    73
1070
     1
1070
    44
1040
1.0
1070
    74
1070
     0
1000
MTEXTEND
  0
ENDBLK
  5
32C8
330
32C2
100
AcDbEntity
  8
0
100
AcDbBlockEnd
  0
ENDSEC
  0
SECTION
  2
ENTITIES
  0
TEXT
  5
13F1
330
1F
100
AcDbEntity
  8
LOGO
 62
     7
100
AcDbText
 10
783.3481090873731
 20
91.73010461723796
 30
0.0
 40
3.801049542081446
  1
Order example:
 41
0.8
  7
CHINESET
100
AcDbText
  0
TEXT
  5
13F2
330
1F
100
AcDbEntity
  8
LOGO
 62
     7
100
AcDbText
 10
784.0300488086232
 20
97.08119535513873
 30
0.0
 40
5.70157431312217
  1
訂購代號:
  7
CHINESET
100
AcDbText
  0
LINE
  5
13F3
330
1F
100
AcDbEntity
  8
LOGO
 62
     1
100
AcDbLine
 10
1214.310623166795
 20
104.2189180472453
 30
0.0
 11
718.9792227245757
 21
104.2189180472453
 31
0.0
  0
LINE
  5
13F5
330
1F
100
AcDbEntity
  8
LOGO
 62
     1
100
AcDbLine
 10
781.6965401689197
 20
75.7110464816344
 30
0.0
 11
781.6965401689197
 21
104.2189180472453
 31
0.0
  0
TEXT
  5
13F7
330
1F
100
AcDbEntity
  8
LOGO
  6
Continuous
 62
     5
100
AcDbText
 10
729.2193783363057
 20
81.31137482856932
 30
0.0
 40
4.276180734841628
  1
金器工業股份有限公司
  7
CHINESET
100
AcDbText
  0
TEXT
  5
13F8
330
1F
100
AcDbEntity
  8
LOGO
  6
Continuous
 62
     5
100
AcDbText
 10
721.3648803270394
 20
77.03435629756921
 30
0.0
 40
2.850787156561085
  1
MINDMAN INDUSTRIAL CO., LTD.
 41
0.85
  7
CHINESET
100
AcDbText
  0
LINE
  5
13F9
330
1F
100
AcDbEntity
  8
LOGO
 62
     1
100
AcDbLine
 10
781.6965401689197
 20
98.51734373412325
 30
0.0
 11
739.8849952060239
 21
98.51734373412325
 31
0.0
  0
LINE
  5
13FA
330
1F
100
AcDbEntity
  8
LOGO
 62
     1
100
AcDbLine
 10
781.6965401689197
 20
92.81576942100091
 30
0.0
 11
739.8849952060239
 21
92.81576942100091
 31
0.0
  0
LINE
  5
13FB
330
1F
100
AcDbEntity
  8
LOGO
 62
     1
100
AcDbLine
 10
781.6965401689197
 20
87.11419510787882
 30
0.0
 11
718.9792227245757
 21
87.11419510787882
 31
0.0
  0
LINE
  5
13FC
330
1F
100
AcDbEntity
  8
LOGO
 62
     1
100
AcDbLine
 10
739.8849952060239
 20
87.11419510787882
 30
0.0
 11
739.8849952060239
 21
104.2189180472453
 31
0.0
  0
TEXT
  5
13FD
330
1F
100
AcDbEntity
  8
LOGO
 62
     6
100
AcDbText
 10
766.967943250341
 20
88.53958868615933
 30
0.0
 40
2.850787156561085
  1
m/m
  7
CHINESET
 72
     1
 11
771.990758716663
 21
89.96498226443987
 31
0.0
100
AcDbText
 73
     2
  0
TEXT
  5
13FE
330
1F
100
AcDbEntity
  8
LOGO
 62
     6
100
AcDbText
 10
766.967943250341
 20
99.94273731240376
 30
0.0
 40
2.850787156561085
  1
1 : 1
  7
CHINESET
 72
     1
 11
771.990758716663
 21
101.3681308906843
 31
0.0
100
AcDbText
 73
     2
  0
LINE
  5
13FF
330
1F
100
AcDbEntity
  8
LOGO
 62
     1
100
AcDbLine
 10
762.6912924585123
 20
87.11419510787882
 30
0.0
 11
762.6912924585123
 21
104.2189180472453
 31
0.0
  0
CIRCLE
  5
1400
330
1F
100
AcDbEntity
  8
LOGO
  6
Continuous
 62
     6
100
AcDbCircle
 10
767.9698814497063
 20
95.67265443215141
 30
0.0
 40
1.655234123065092
  0
CIRCLE
  5
1401
330
1F
100
AcDbEntity
  8
LOGO
  6
Continuous
 62
     6
100
AcDbCircle
 10
767.9698814497063
 20
95.67265443215141
 30
0.0
 40
0.9698206665296751
  0
LINE
  5
1402
330
1F
100
AcDbEntity
  8
LOGO
 62
     6
100
AcDbLine
 10
778.3715647442932
 20
94.01742030908627
 30
0.0
 11
778.3715647442932
 21
97.32788855521661
 31
0.0
  0
LINE
  5
1403
330
1F
100
AcDbEntity
  8
LOGO
 62
     6
100
AcDbLine
 10
773.182500783456
 20
94.70283376562182
 30
0.0
 11
773.182500783456
 21
96.64247509868125
 31
0.0
  0
LINE
  5
1404
330
1F
100
AcDbEntity
  8
LOGO
  6
Continuous
 62
     6
100
AcDbLine
 10
773.182500783456
 20
96.64247509868125
 30
0.0
 11
778.3715647442932
 21
97.32788855521661
 31
0.0
  0
LINE
  5
1405
330
1F
100
AcDbEntity
  8
LOGO
  6
Continuous
 62
     6
100
AcDbLine
 10
773.182500783456
 20
94.70283376562182
 30
0.0
 11
778.3715647442932
 21
94.01742030908627
 31
0.0
  0
LINE
  5
1406
330
1F
100
AcDbEntity
  8
LOGO
 62
     6
100
AcDbLine
 10
865.8147977662341
 20
101.3681308906843
 30
0.0
 11
850.5579512444226
 21
101.3681308906843
 31
0.0
  0
LINE
  5
1407
330
1F
100
AcDbEntity
  8
LOGO
 62
     6
100
AcDbLine
 10
865.8147977662341
 20
88.53958868615945
 30
0.0
 11
850.5579512444226
 21
88.53958868615945
 31
0.0
  0
LINE
  5
1408
330
1F
100
AcDbEntity
  8
LOGO
 62
     6
100
AcDbLine
 10
865.8147977662341
 20
92.81576942100091
 30
0.0
 11
850.5579512444226
 21
92.81576942100091
 31
0.0
  0
LINE
  5
1409
330
1F
100
AcDbEntity
  8
LOGO
 62
     6
100
AcDbLine
 10
865.8147977662341
 20
78.08670244543552
 30
0.0
 11
850.5579512444226
 21
78.08670244543527
 31
0.0
  0
LINE
  5
140A
330
1F
100
AcDbEntity
  8
LOGO
 62
     6
100
AcDbLine
 10
850.5579512444226
 20
88.53958868615945
 30
0.0
 11
850.5579512444226
 21
78.08670244543552
 31
0.0
  0
LINE
  5
140D
330
1F
100
AcDbEntity
  8
LOGO
 62
     6
100
AcDbLine
 10
841.8136247452952
 20
88.53958868615945
 30
0.0
 11
841.8136247452952
 21
78.08670244543527
 31
0.0
  0
LINE
  5
140E
330
1F
100
AcDbEntity
  8
LOGO
 62
     6
100
AcDbLine
 10
822.8083770348879
 20
88.53958868615945
 30
0.0
 11
822.8083770348879
 21
78.08670244543527
 31
0.0
  0
LINE
  5
140F
330
1F
100
AcDbEntity
  8
LOGO
 62
     6
100
AcDbLine
 10
841.8136247452952
 20
78.08670244543527
 30
0.0
 11
822.8083770348879
 21
78.08670244543527
 31
0.0
  0
LINE
  5
1411
330
1F
100
AcDbEntity
  8
LOGO
  6
Continuous
 62
     7
100
AcDbLine
 10
845.1875928684463
 20
97.06165633992446
 30
0.0
 11
848.9640036316549
 21
97.06165633992446
 31
0.0
  0
LINE
  5
1412
330
1F
100
AcDbEntity
  8
LOGO
 62
     6
100
AcDbLine
 10
843.7141495163357
 20
101.3681308906843
 30
0.0
 11
820.9078522638472
 21
101.3681308906843
 31
0.0
  0
LINE
  5
1413
330
1F
100
AcDbEntity
  8
LOGO
 62
     6
100
AcDbLine
 10
843.7141495163357
 20
92.81576942100091
 30
0.0
 11
820.9078522638472
 21
92.81576942100091
 31
0.0
  0
LINE
  5
1414
330
1F
100
AcDbEntity
  8
LOGO
 62
     6
100
AcDbLine
 10
820.9078522638472
 20
101.3681308906843
 30
0.0
 11
820.9078522638472
 21
92.81576942100091
 31
0.0
  0
LINE
  5
1415
330
1F
100
AcDbEntity
  8
LOGO
 62
     6
100
AcDbLine
 10
843.7141495163357
 20
101.3681308906843
 30
0.0
 11
843.7141495163357
 21
92.81576942100091
 31
0.0
  0
LINE
  5
1416
330
1F
100
AcDbEntity
  8
LOGO
 62
     6
100
AcDbLine
 10
832.3110008900915
 20
92.81576942100091
 30
0.0
 11
832.3110008900915
 21
88.53958868615945
 31
0.0
  0
TEXT
  5
1417
330
1F
100
AcDbEntity
  8
LOGO
  6
Continuous
 62
     7
100
AcDbText
 10
822.9215035093545
 20
94.71629419204163
 30
0.0
 40
4.751311927601808
  1
MCQA
  7
CHINESET
 72
     1
 11
832.3110008900915
 21
97.09195015584255
 31
0.0
100
AcDbText
 73
     2
  0
LINE
  5
1418
330
1F
100
AcDbEntity
  8
LOGO
 62
     6
100
AcDbLine
 10
841.8136247452952
 20
88.53958868615945
 30
0.0
 11
822.8083770348879
 21
88.53958868615945
 31
0.0
  0
TEXT
  5
141F
330
1F
100
AcDbEntity
  8
LOGO
  6
Continuous
 62
     7
100
AcDbText
 10
854.7835302757546
 20
94.66241401538944
 30
0.0
 40
4.751311927601808
  1
50
  7
CHINESET
 72
     1
 11
858.6298304076228
 21
97.03806997919036
 31
0.0
100
AcDbText
 73
     2
  0
LINE
  5
1421
330
1F
100
AcDbEntity
  8
LOGO
 62
     6
100
AcDbLine
 10
858.1863742862125
 20
92.81576942100091
 30
0.0
 11
858.1863742862125
 21
88.53958868615945
 31
0.0
  0
LINE
  5
1422
330
1F
100
AcDbEntity
  8
LOGO
 62
     6
100
AcDbLine
 10
850.5579512444226
 20
101.3681308906843
 30
0.0
 11
850.5579512444226
 21
92.81576942100091
 31
0.0
  0
LINE
  5
1425
330
1F
100
AcDbEntity
  8
LOGO
 62
     6
100
AcDbLine
 10
887.4232565048103
 20
88.53958868615945
 30
0.0
 11
887.4232565048103
 21
78.04728813322852
 31
0.0
  0
LINE
  5
1426
330
1F
100
AcDbEntity
  8
LOGO
 62
     6
100
AcDbLine
 10
873.49391309641
 20
88.53958868615945
 30
0.0
 11
873.49391309641
 21
78.08670244543527
 31
0.0
  0
LINE
  5
1427
330
1F
100
AcDbEntity
  8
LOGO
 62
     6
100
AcDbLine
 10
865.8147977662341
 20
88.53958868615945
 30
0.0
 11
865.8147977662341
 21
78.08670244543552
 31
0.0
  0
LINE
  5
1428
330
1F
100
AcDbEntity
  8
LOGO
 62
     6
100
AcDbLine
 10
887.4232565048103
 20
78.08670244543527
 30
0.0
 11
873.49391309641
 21
78.08670244543527
 31
0.0
  0
LINE
  5
1429
330
1F
100
AcDbEntity
  8
LOGO
 62
     6
100
AcDbLine
 10
887.4232565048103
 20
88.53958868615945
 30
0.0
 11
873.49391309641
 21
88.53958868615945
 31
0.0
  0
LINE
  5
142A
330
1F
100
AcDbEntity
  8
LOGO
 62
     6
100
AcDbLine
 10
888.3735188903306
 20
92.81576942100091
 30
0.0
 11
872.5436507108895
 21
92.81576942100091
 31
0.0
  0
LINE
  5
142B
330
1F
100
AcDbEntity
  8
LOGO
 62
     6
100
AcDbLine
 10
888.3735188903306
 20
101.3681308906843
 30
0.0
 11
872.5436507108895
 21
101.3681308906843
 31
0.0
  0
LINE
  5
142C
330
1F
100
AcDbEntity
  8
LOGO
 62
     6
100
AcDbLine
 10
880.6598417456189
 20
92.81576942100091
 30
0.0
 11
880.6598417456189
 21
88.53958868615945
 31
0.0
  0
LINE
  5
142D
330
1F
100
AcDbEntity
  8
LOGO
  6
Continuous
 62
     7
100
AcDbLine
 10
867.2882411183445
 20
97.06165633992446
 30
0.0
 11
871.0646518815529
 21
97.06165633992446
 31
0.0
  0
LINE
  5
142E
330
1F
100
AcDbEntity
  8
LOGO
 62
     6
100
AcDbLine
 10
872.5436507108895
 20
101.3681308906843
 30
0.0
 11
872.5436507108895
 21
92.81576942100091
 31
0.0
  0
LINE
  5
142F
330
1F
100
AcDbEntity
  8
LOGO
 62
     6
100
AcDbLine
 10
865.8147977662341
 20
101.3681308906843
 30
0.0
 11
865.8147977662341
 21
92.81576942100091
 31
0.0
  0
TEXT
  5
1430
330
1F
100
AcDbEntity
  8
LOGO
  6
Continuous
 62
     7
100
AcDbText
 10
877.0557405710363
 20
94.66241401538944
 30
0.0
 40
4.751311927601808
  1
50
  7
CHINESET
 72
     1
 11
880.9020407029045
 21
97.03806997919036
 31
0.0
100
AcDbText
 73
     2
  0
LINE
  5
1431
330
1F
100
AcDbEntity
  8
LOGO
 62
     6
100
AcDbLine
 10
888.3735188903306
 20
101.3681308906843
 30
0.0
 11
888.3735188903306
 21
92.81576942100091
 31
0.0
  0
TEXT
  5
1432
330
1F
100
AcDbEntity
  8
LOGO
 62
     6
100
AcDbText
 10
742.2356219373489
 20
99.94414025883907
 30
186.835893843527
 40
2.850787156561085
  1
比例 Scale:
 41
0.9
  7
CHINESET
 72
     4
 11
751.2881438322681
 21
101.3681308906843
 31
186.835893843527
100
AcDbText
  0
TEXT
  5
1433
330
1F
100
AcDbEntity
  8
LOGO
 62
     6
100
AcDbText
 10
743.2321247693075
 20
94.28126388489081
 30
186.835893843527
 40
2.850787156561085
  1
投影 View:
 41
0.9
  7
CHINESET
 72
     4
 11
751.2881438322681
 21
95.66655657756191
 31
186.835893843527
100
AcDbText
  0
TEXT
  5
1434
330
1F
100
AcDbEntity
  8
LOGO
 62
     6
100
AcDbText
 10
743.5108401207749
 20
88.53958868615933
 30
186.835893843527
 40
2.850787156561085
  1
單位 Unit:
 41
0.9
  7
CHINESET
 72
     4
 11
751.2881438322681
 21
89.96498226443987
 31
186.835893843527
100
AcDbText
  0
TEXT
  5
1435
330
1F
100
AcDbEntity
  8
LOGO
  6
Continuous
 62
     6
100
AcDbText
 10
827.785941911423
 20
79.27453042733574
 30
186.835893843527
 40
2.375655963800904
  1
Model
  7
CHINESET
 72
     4
 11
832.3110008900915
 21
80.46235840923619
 31
186.835893843527
100
AcDbText
  0
TEXT
  5
1437
330
1F
100
AcDbEntity
  8
LOGO
  6
Continuous
 62
     6
100
AcDbText
 10
855.2450861691939
 20
79.27453042733574
 30
186.835893843527
 40
2.375655963800904
  1
Bore
 41
0.8
  7
CHINESET
 72
     4
 11
858.1863745053285
 21
80.46235840923619
 31
186.835893843527
100
AcDbText
  0
TEXT
  5
1438
330
1F
100
AcDbEntity
  8
LOGO
 62
     6
100
AcDbText
 10
828.4307628158833
 20
83.36178104222158
 30
186.835893843527
 40
3.801049542081446
  1
型號
  7
CHINESET
 72
     4
 11
832.3110008900915
 21
85.21367033683803
 31
186.835893843527
100
AcDbText
  0
TEXT
  5
143A
330
1F
100
AcDbEntity
  8
LOGO
 62
     6
100
AcDbText
 10
854.551620880713
 20
83.31314556579732
 30
186.835893843527
 40
3.801049542081446
  1
內徑
 41
0.9
  7
CHINESET
 72
     4
 11
858.1863745053285
 21
85.21367033683803
 31
186.835893843527
100
AcDbText
  0
TEXT
  5
143B
330
1F
100
AcDbEntity
  8
LOGO
  6
Continuous
 62
     6
100
AcDbText
 10
876.0240270015149
 20
79.67047308796923
 30
186.835893843527
 40
2.375655963800904
  1
Length
 41
0.8
  7
CHINESET
 72
     4
 11
880.45858480061
 21
80.46235840923619
 31
186.835893843527
100
AcDbText
  0
TEXT
  5
143C
330
1F
100
AcDbEntity
  8
LOGO
 62
     6
100
AcDbText
 10
877.0376402127366
 20
83.43177248105011
 30
186.835893843527
 40
3.801049542081446
  1
長度
 41
0.9
  7
CHINESET
 72
     4
 11
880.45858480061
 21
85.21367033683803
 31
186.835893843527
100
AcDbText
  0
LWPOLYLINE
  5
143D
330
1F
100
AcDbEntity
  8
0
 62
     4
100
AcDbPolyline
 90
        4
 70
     1
 43
0.0
 10
718.979222724576
 20
104.2189180472453
 10
1214.310623166795
 20
104.2189180472453
 10
1214.310623166795
 20
414.4357244512169
 10
718.979222724576
 20
414.4357244512169
1001
GENIUS_GENREC_14
1002
{
1000
PYDIR
1011
718.979222724576
1021
414.4357244512169
1031
0.0
1002
}
1002
{
1000
PXDIR
1011
1214.310623166795
1021
104.2189180472453
1031
0.0
1002
}
1002
{
1000
PORI
1011
718.979222724576
1021
104.2189180472453
1031
0.0
1002
}
1002
{
1000
PINS
1011
718.979222724576
1021
104.2189180472453
1031
0.0
1002
}
1002
{
1000
PINS2
1011
1214.310623166795
1021
414.4357244512169
1031
0.0
1002
}
1002
{
1000
C
1070
     1
1002
}
1001
GENIUS_GENODEF_13
1002
{
1000
HIER
1070
     0
1002
}
1002
{
1000
MANEDIT
1070
     0
1002
}
1002
{
1000
NOSEL
1070
     0
1002
}
1002
{
1000
BEHIND
1070
     0
1002
}
1002
{
1000
OTHER
1070
     0
1002
}
1002
{
1000
REACTOR
1002
}
1001
GENIUS_GENOBJ-N-REC_13
1002
{
1000
OWNER
1000
GEN
1002
}
  0
SOLID
  5
143E
330
1F
100
AcDbEntity
  8
LOGO
 62
     5
100
AcDbTrace
 10
721.936960151162
 20
91.8532229780631
 30
0.0
 11
723.1695657130041
 21
91.85322297806258
 31
0.0
 12
728.3125061606901
 22
103.5417239955309
 32
0.0
 13
729.545111722532
 23
103.5417239955299
 33
0.0
  0
SOLID
  5
143F
330
1F
100
AcDbEntity
  8
LOGO
 62
     5
100
AcDbTrace
 10
723.679609393767
 20
91.8532229780631
 30
0.0
 11
724.9122149556089
 21
91.8532229780631
 31
0.0
 12
729.545111722532
 22
102.6066439141328
 32
0.0
 13
728.3125061606901
 23
98.08709018737852
 33
0.0
  0
SOLID
  5
1440
330
1F
100
AcDbEntity
  8
LOGO
 62
     2
100
AcDbTrace
 10
723.1695657130041
 20
91.85322297806258
 30
0.0
 11
723.679609393767
 21
91.8532229780631
 31
0.0
 12
729.545111722532
 22
103.5417239955299
 32
0.0
 13
730.0551554032946
 23
103.5417239955299
 33
0.0
  0
SOLID
  5
1441
330
1F
100
AcDbEntity
  8
LOGO
 62
     5
100
AcDbTrace
 10
719.9607911636194
 20
87.60285897171163
 30
0.0
 11
720.3858275642552
 21
87.60285897171163
 31
0.0
 12
721.5827631506331
 22
89.72804097488701
 32
0.0
 13
722.007799551268
 23
89.72804097488701
 33
0.0
  0
SOLID
  5
1442
330
1F
100
AcDbEntity
  8
LOGO
 62
     5
100
AcDbTrace
 10
721.5827631506331
 20
89.72804097488701
 30
0.0
 11
722.007799551268
 21
89.72804097488701
 31
0.0
 12
721.5827631506331
 22
87.60285897171163
 32
0.0
 13
722.007799551268
 23
87.60285897171163
 33
0.0
  0
SOLID
  5
1443
330
1F
100
AcDbEntity
  8
LOGO
 62
     5
100
AcDbTrace
 10
721.5827631506331
 20
87.60285897171163
 30
0.0
 11
722.007799551268
 21
87.60285897171163
 31
0.0
 12
723.2047351376474
 22
89.72804097488701
 32
0.0
 13
723.6297715382821
 23
89.72804097488701
 33
0.0
  0
SOLID
  5
1444
330
1F
100
AcDbEntity
  8
LOGO
 62
     5
100
AcDbTrace
 10
723.2047351376474
 20
89.72804097488701
 30
0.0
 11
723.6297715382821
 21
89.72804097488701
 31
0.0
 12
723.2047351376474
 22
87.60285897171163
 32
0.0
 13
723.6297715382821
 23
87.60285897171163
 33
0.0
  0
POLYLINE
  5
1445
330
1F
100
AcDbEntity
  8
LOGO
 62
     5
100
AcDb2dPolyline
 66
     1
 10
0.0
 20
0.0
 30
0.0
 40
0.4257175487131221
 41
0.4257175487131221
  0
VERTEX
  5
1446
330
1445
100
AcDbEntity
  8
LOGO
 62
     5
100
AcDbVertex
100
AcDb2dVertex
 10
737.4518104964638
 20
88.87796817361666
 30
0.0
 42
1.0
  0
VERTEX
  5
1447
330
1445
100
AcDbEntity
  8
LOGO
 62
     5
100
AcDbVertex
100
AcDb2dVertex
 10
736.1746578503242
 20
88.87796817361666
 30
0.0
 42
1.0
  0
SEQEND
  5
1448
330
1445
100
AcDbEntity
  8
LOGO
 62
     5
  0
POLYLINE
  5
1449
330
1F
100
AcDbEntity
  8
LOGO
 62
     5
100
AcDb2dPolyline
 66
     1
 10
0.0
 20
0.0
 30
0.0
 70
     1
  0
VERTEX
  5
144A
330
1449
100
AcDbEntity
  8
LOGO
 62
     5
100
AcDbVertex
100
AcDb2dVertex
 10
733.7671683046012
 20
88.66544997329922
 30
0.0
 42
1.000000057330635
  0
VERTEX
  5
144B
330
1449
100
AcDbEntity
  8
LOGO
 62
     5
100
AcDbVertex
100
AcDb2dVertex
 10
735.0422775065071
 20
88.66544997329922
 30
0.0
 42
1.000000057330635
  0
SEQEND
  5
144C
330
1449
100
AcDbEntity
  8
LOGO
 62
     5
  0
CIRCLE
  5
144D
330
1F
100
AcDbEntity
  8
LOGO
 62
     5
100
AcDbCircle
 10
734.4047229055545
 20
88.66544997329922
 30
0.0
 40
0.6375546009527719
  0
POLYLINE
  5
144E
330
1F
100
AcDbEntity
  8
LOGO
 62
     5
100
AcDb2dPolyline
 66
     1
 10
0.0
 20
0.0
 30
0.0
 70
     1
 40
0.4257175487131221
 41
0.4257175487131221
  0
VERTEX
  5
144F
330
144E
100
AcDbEntity
  8
LOGO
 62
     5
100
AcDbVertex
100
AcDb2dVertex
 10
733.5532878081281
 20
88.66544997329922
 30
0.0
 42
1.0
  0
VERTEX
  5
1450
330
144E
100
AcDbEntity
  8
LOGO
 62
     5
100
AcDbVertex
100
AcDb2dVertex
 10
735.2561580029806
 20
88.66544997329922
 30
0.0
 42
1.0
  0
SEQEND
  5
1451
330
144E
100
AcDbEntity
  8
LOGO
 62
     5
  0
LINE
  5
1452
330
1F
100
AcDbEntity
  8
LOGO
 62
     5
100
AcDbLine
 10
737.6633069746641
 20
87.60285897171163
 30
0.0
 11
737.6633069746641
 21
88.87796817361666
 31
0.0
  0
SOLID
  5
1453
330
1F
100
AcDbEntity
  8
LOGO
 62
     5
100
AcDbTrace
 10
735.0422350028679
 20
89.72804097488701
 30
0.0
 11
735.4672714035026
 21
89.72804097488701
 31
0.0
 12
735.0422350028679
 22
87.60285897171163
 32
0.0
 13
735.4672714035026
 23
87.60285897171163
 33
0.0
  0
SOLID
  5
1454
330
1F
100
AcDbEntity
  8
LOGO
 62
     5
100
AcDbTrace
 10
735.9631613721233
 20
87.60285897171163
 30
0.0
 11
736.3881977727588
 21
87.60285897171163
 31
0.0
 12
735.9631613721233
 22
89.72804097488701
 32
0.0
 13
736.3881977727588
 23
89.72804097488701
 33
0.0
  0
SOLID
  5
1455
330
1F
100
AcDbEntity
  8
LOGO
 62
     5
100
AcDbTrace
 10
737.2382705740292
 20
88.87796817361666
 30
0.0
 11
737.6633069746641
 21
88.87796817361666
 31
0.0
 12
737.2382705740292
 22
87.60285897171163
 32
0.0
 13
737.6633069746641
 23
87.60285897171163
 33
0.0
  0
SOLID
  5
1456
330
1F
100
AcDbEntity
  8
LOGO
 62
     5
100
AcDbTrace
 10
735.9206577320597
 20
102.6066439141328
 30
0.0
 11
734.6880521702177
 21
98.08709018737852
 31
0.0
 12
735.9206577320597
 22
91.85322297806258
 32
0.0
 13
734.6880521702177
 23
91.85322297806258
 33
0.0
  0
SOLID
  5
1457
330
1F
100
AcDbEntity
  8
LOGO
 62
     5
100
AcDbTrace
 10
736.4307014128224
 20
91.85322297806258
 30
0.0
 11
737.6633069746641
 21
91.85322297806258
 31
0.0
 12
736.4307014128224
 22
103.5417239955299
 32
0.0
 13
737.6633069746641
 23
103.5417239955309
 33
0.0
  0
SOLID
  5
1458
330
1F
100
AcDbEntity
  8
LOGO
 62
     2
100
AcDbTrace
 10
735.9206577320597
 20
103.5417239955309
 30
0.0
 11
736.4307014128224
 21
103.5417239955299
 31
0.0
 12
735.9206577320597
 22
91.85322297806258
 32
0.0
 13
736.4307014128224
 23
91.85322297806258
 33
0.0
  0
POLYLINE
  5
1459
330
1F
100
AcDbEntity
  8
LOGO
 62
     5
100
AcDb2dPolyline
 66
     1
 10
0.0
 20
0.0
 30
0.0
 40
0.4257175487131221
 41
0.4257175487131221
  0
VERTEX
  5
145A
330
1459
100
AcDbEntity
  8
LOGO
 62
     5
100
AcDbVertex
100
AcDb2dVertex
 10
731.3595937515993
 20
88.87796817361666
 30
0.0
 42
1.0
  0
VERTEX
  5
145B
330
1459
100
AcDbEntity
  8
LOGO
 62
     5
100
AcDbVertex
100
AcDb2dVertex
 10
730.0824411054597
 20
88.87796817361666
 30
0.0
 42
1.0
  0
SEQEND
  5
145C
330
1459
100
AcDbEntity
  8
LOGO
 62
     5
  0
POLYLINE
  5
145D
330
1F
100
AcDbEntity
  8
LOGO
 62
     5
100
AcDb2dPolyline
 66
     1
 10
0.0
 20
0.0
 30
0.0
 40
0.4257175487131221
 41
0.4257175487131221
  0
VERTEX
  5
145E
330
145D
100
AcDbEntity
  8
LOGO
 62
     5
100
AcDbVertex
100
AcDb2dVertex
 10
732.6347029535045
 20
88.87796817361666
 30
0.0
 42
1.0
  0
VERTEX
  5
145F
330
145D
100
AcDbEntity
  8
LOGO
 62
     5
100
AcDbVertex
100
AcDb2dVertex
 10
731.357550307365
 20
88.87796817361666
 30
0.0
 42
1.0
  0
SEQEND
  5
1460
330
145D
100
AcDbEntity
  8
LOGO
 62
     5
  0
POLYLINE
  5
1461
330
1F
100
AcDbEntity
  8
LOGO
 62
     5
100
AcDb2dPolyline
 66
     1
 10
0.0
 20
0.0
 30
0.0
 40
0.4257175487131221
 41
0.4257175487131221
  0
VERTEX
  5
1462
330
1461
100
AcDbEntity
  8
LOGO
 62
     5
100
AcDbVertex
100
AcDb2dVertex
 10
726.5424862086403
 20
88.87796817361666
 30
0.0
 42
1.0
  0
VERTEX
  5
1463
330
1461
100
AcDbEntity
  8
LOGO
 62
     5
100
AcDbVertex
100
AcDb2dVertex
 10
725.2653335625009
 20
88.87796817361666
 30
0.0
 42
1.0
  0
SEQEND
  5
1464
330
1461
100
AcDbEntity
  8
LOGO
 62
     5
  0
SOLID
  5
1465
330
1F
100
AcDbEntity
  8
LOGO
 62
     5
100
AcDbTrace
 10
725.0538370843006
 20
89.72804097488701
 30
0.0
 11
725.4788734849353
 21
89.72804097488701
 31
0.0
 12
725.0538370843006
 22
87.60285897171163
 32
0.0
 13
725.4788734849353
 23
87.60285897171163
 33
0.0
  0
SOLID
  5
1466
330
1F
100
AcDbEntity
  8
LOGO
 62
     5
100
AcDbTrace
 10
726.328946286206
 20
88.87796817361666
 30
0.0
 11
726.7539826868414
 21
88.87796817361666
 31
0.0
 12
726.328946286206
 22
87.60285897171163
 32
0.0
 13
726.7539826868414
 23
87.60285897171163
 33
0.0
  0
POLYLINE
  5
1467
330
1F
100
AcDbEntity
  8
LOGO
 62
     5
100
AcDb2dPolyline
 66
     1
 10
0.0
 20
0.0
 30
0.0
 70
     1
 40
0.4257175487131221
 41
0.4257175487131221
  0
VERTEX
  5
1468
330
1467
100
AcDbEntity
  8
LOGO
 62
     5
100
AcDbVertex
100
AcDb2dVertex
 10
727.4610710632635
 20
88.66544997329922
 30
0.0
 42
1.0
  0
VERTEX
  5
1469
330
1467
100
AcDbEntity
  8
LOGO
 62
     5
100
AcDbVertex
100
AcDb2dVertex
 10
729.1639412581157
 20
88.66544997329922
 30
0.0
 42
1.0
  0
SEQEND
  5
146A
330
1467
100
AcDbEntity
  8
LOGO
 62
     5
  0
SOLID
  5
146B
330
1F
100
AcDbEntity
  8
LOGO
 62
     5
100
AcDbTrace
 10
728.9500182580033
 20
90.36559557584014
 30
0.0
 11
729.3750546586379
 21
90.36559557584014
 31
0.0
 12
728.9500182580033
 22
87.60285897171163
 32
0.0
 13
729.3750546586379
 23
87.60285897171163
 33
0.0
  0
SOLID
  5
146C
330
1F
100
AcDbEntity
  8
LOGO
 62
     5
100
AcDbTrace
 10
729.8709446272597
 20
89.72804097488701
 30
0.0
 11
730.2959810278945
 21
89.72804097488701
 31
0.0
 12
729.8709446272597
 22
87.60285897171163
 32
0.0
 13
730.2959810278945
 23
87.60285897171163
 33
0.0
  0
SOLID
  5
146D
330
1F
100
AcDbEntity
  8
LOGO
 62
     5
100
AcDbTrace
 10
731.1460538291648
 20
88.87796817361666
 30
0.0
 11
731.5710902298
 21
88.87796817361666
 31
0.0
 12
731.1460538291648
 22
87.60285897171163
 32
0.0
 13
731.5710902298
 23
87.60285897171163
 33
0.0
  0
SOLID
  5
146E
330
1F
100
AcDbEntity
  8
LOGO
 62
     5
100
AcDbTrace
 10
732.4211630310704
 20
88.87796817361666
 30
0.0
 11
732.8461994317049
 21
88.87796817361666
 31
0.0
 12
732.4211630310704
 22
87.60285897171067
 32
0.0
 13
732.8461994317049
 23
87.60285897171067
 33
0.0
  0
SOLID
  5
146F
330
1F
100
AcDbEntity
  8
LOGO
 62
     5
100
AcDbTrace
 10
724.1329107150439
 20
90.02556645533143
 30
0.0
 11
724.55794711568
 21
90.02556645533143
 31
0.0
 12
724.1329107150439
 22
90.36559557584014
 32
0.0
 13
724.55794711568
 23
90.36559557584014
 33
0.0
  0
SOLID
  5
1470
330
1F
100
AcDbEntity
  8
LOGO
 62
     5
100
AcDbTrace
 10
724.1329107150439
 20
89.72804097488701
 30
0.0
 11
724.55794711568
 21
89.72804097488701
 31
0.0
 12
724.1329107150439
 22
87.60285897171067
 32
0.0
 13
724.55794711568
 23
87.60285897171163
 33
0.0
  0
SOLID
  5
1471
330
1F
100
AcDbEntity
  8
LOGO
 62
     5
100
AcDbTrace
 10
728.3125061606901
 20
91.8532229780631
 30
0.0
 11
729.545111722532
 21
91.8532229780631
 31
0.0
 12
728.3125061606901
 22
98.08709018737852
 32
0.0
 13
729.545111722532
 23
102.6066439141328
 33
0.0
  0
SOLID
  5
1472
330
1F
100
AcDbEntity
  8
LOGO
 62
     5
100
AcDbTrace
 10
730.0551554032946
 20
103.5417239955299
 30
0.0
 11
731.2877609651366
 21
103.5417239955309
 31
0.0
 12
730.0551554032946
 22
92.78830305946017
 32
0.0
 13
731.2877609651366
 23
97.30785678621451
 33
0.0
  0
SOLID
  5
1473
330
1F
100
AcDbEntity
  8
LOGO
 62
     2
100
AcDbTrace
 10
729.545111722532
 20
103.5417239955299
 30
0.0
 11
730.0551554032946
 21
103.5417239955299
 31
0.0
 12
729.545111722532
 22
91.8532229780631
 32
0.0
 13
730.0551554032946
 23
91.8532229780631
 33
0.0
  0
SOLID
  5
1474
330
1F
100
AcDbEntity
  8
LOGO
 62
     5
100
AcDbTrace
 10
730.0551554032946
 20
92.78830305946017
 30
0.0
 11
731.2877609651366
 21
97.30785678621451
 31
0.0
 12
735.9206577320597
 22
103.5417239955309
 32
0.0
 13
734.6880521702177
 23
103.5417239955309
 33
0.0
  0
SOLID
  5
1475
330
1F
100
AcDbEntity
  8
LOGO
 62
     5
100
AcDbTrace
 10
730.0551554032946
 20
91.8532229780631
 30
0.0
 11
731.2877609651366
 21
91.8532229780631
 31
0.0
 12
735.9206577320597
 22
102.6066439141328
 32
0.0
 13
734.6880521702177
 23
98.08709018737852
 33
0.0
  0
SOLID
  5
1476
330
1F
100
AcDbEntity
  8
LOGO
 62
     2
100
AcDbTrace
 10
729.545111722532
 20
91.8532229780631
 30
0.0
 11
730.0551554032946
 21
91.8532229780631
 31
0.0
 12
735.9206577320597
 22
103.5417239955309
 32
0.0
 13
736.4307014128224
 23
103.5417239955299
 33
0.0
  0
TEXT
  5
1477
330
1F
100
AcDbEntity
  8
0
100
AcDbText
 10
782.9144887396072
 20
77.22765399704825
 30
0.0
 40
2.377173743999999
  1
1050525
 41
0.8
  7
CHINESET
 72
     1
 11
788.80082372475
 21
77.22765399704825
 31
0.0
100
AcDbText
  0
LINE
  5
1478
330
1F
100
AcDbEntity
  8
LOGO
 62
     1
100
AcDbLine
 10
796.1353858479709
 20
81.41262079475671
 30
0.0
 11
796.1353858479712
 21
75.7110464816344
 31
0.0
  0
LINE
  5
1479
330
1F
100
AcDbEntity
  8
LOGO
 62
     1
100
AcDbLine
 10
796.1353858479709
 20
81.41262079475671
 30
0.0
 11
781.6965401689197
 21
81.41262079475671
 31
0.0
  0
LWPOLYLINE
  5
14B8
330
1F
100
AcDbEntity
  8
0
 62
     1
100
AcDbPolyline
 90
        4
 70
     1
 43
0.0
 10
718.979222724576
 20
104.2189180472453
 10
1214.310623166795
 20
104.2189180472453
 10
1214.310623166795
 20
75.71104648163438
 10
718.979222724576
 20
75.71104648163438
1001
GENIUS_GENREC_14
1002
{
1000
PYDIR
1011
718.979222724576
1021
75.71104648163438
1031
0.0
1002
}
1002
{
1000
PXDIR
1011
1214.310623166795
1021
104.2189180472453
1031
0.0
1002
}
1002
{
1000
PORI
1011
718.979222724576
1021
104.2189180472453
1031
0.0
1002
}
1002
{
1000
PINS
1011
718.979222724576
1021
104.2189180472453
1031
0.0
1002
}
1002
{
1000
PINS2
1011
1214.310623166795
1021
75.71104648163438
1031
0.0
1002
}
1002
{
1000
C
1070
     1
1002
}
1001
GENIUS_GENOBJ-N-REC_13
1002
{
1000
OWNER
1000
GEN
1002
}
1001
GENIUS_GENODEF_13
1002
{
1000
HIER
1070
     0
1002
}
1002
{
1000
MANEDIT
1070
     0
1002
}
1002
{
1000
NOSEL
1070
     0
1002
}
1002
{
1000
BEHIND
1070
     0
1002
}
1002
{
1000
OTHER
1070
     0
1002
}
1002
{
1000
REACTOR
1002
}
  0
LINE
  5
2259
330
1F
100
AcDbEntity
  8
LOGO
 62
     6
100
AcDbLine
 10
915.3627364001799
 20
88.53958868615945
 30
0.0
 11
915.3627364001799
 21
78.04728813322852
 31
0.0
  0
LINE
  5
225A
330
1F
100
AcDbEntity
  8
LOGO
 62
     6
100
AcDbLine
 10
890.4135710833697
 20
88.53958868615945
 30
0.0
 11
890.4135710833697
 21
78.08670244543527
 31
0.0
  0
LINE
  5
225B
330
1F
100
AcDbEntity
  8
LOGO
 62
     6
100
AcDbLine
 10
915.3627364001799
 20
78.08670244543527
 30
0.0
 11
890.4135710833697
 21
78.08670244543527
 31
0.0
  0
LINE
  5
225C
330
1F
100
AcDbEntity
  8
LOGO
 62
     6
100
AcDbLine
 10
915.3627364001799
 20
88.53958868615945
 30
0.0
 11
890.4135710833697
 21
88.53958868615945
 31
0.0
  0
LINE
  5
225D
330
1F
100
AcDbEntity
  8
LOGO
 62
     6
100
AcDbLine
 10
911.0280532308699
 20
92.81576942100091
 30
0.0
 11
895.198185051429
 21
92.81576942100091
 31
0.0
  0
LINE
  5
225E
330
1F
100
AcDbEntity
  8
LOGO
 62
     6
100
AcDbLine
 10
911.0280532308699
 20
101.3681308906843
 30
0.0
 11
895.198185051429
 21
101.3681308906843
 31
0.0
  0
LINE
  5
225F
330
1F
100
AcDbEntity
  8
LOGO
 62
     6
100
AcDbLine
 10
903.3143760861586
 20
92.81576942100091
 30
0.0
 11
903.3143760861586
 21
88.53958868615945
 31
0.0
  0
LINE
  5
2260
330
1F
100
AcDbEntity
  8
LOGO
 62
     6
100
AcDbLine
 10
895.198185051429
 20
101.3681308906843
 30
0.0
 11
895.198185051429
 21
92.81576942100091
 31
0.0
  0
TEXT
  5
2261
330
1F
100
AcDbEntity
  8
LOGO
  6
Continuous
 62
     7
100
AcDbText
 10
899.4840219626425
 20
94.66241401538944
 30
0.0
 40
4.751311927601808
  1
AH
  7
CHINESET
 72
     1
 11
903.5565750434441
 21
97.03806997919036
 31
0.0
100
AcDbText
 73
     2
  0
LINE
  5
2262
330
1F
100
AcDbEntity
  8
LOGO
 62
     6
100
AcDbLine
 10
911.0280532308699
 20
101.3681308906843
 30
0.0
 11
911.0280532308699
 21
92.81576942100091
 31
0.0
  0
TEXT
  5
2263
330
1F
100
AcDbEntity
  8
LOGO
  6
Continuous
 62
     6
100
AcDbText
 10
891.8004716944786
 20
79.27453042733574
 30
186.835893843527
 40
2.375655963800904
  1
Air-Oil coverter
 41
0.8
  7
CHINESET
 72
     4
 11
903.1131191411496
 21
80.46235840923619
 31
186.835893843527
100
AcDbText
  0
TEXT
  5
2264
330
1F
100
AcDbEntity
  8
LOGO
 62
     6
100
AcDbText
 10
899.6921745532763
 20
83.41041651864586
 30
186.835893843527
 40
3.801049542081446
  1
型式
 41
0.9
  7
CHINESET
 72
     4
 11
903.1131191411496
 21
85.21367033683803
 31
186.835893843527
100
AcDbText
  0
LINE
  5
2266
330
1F
100
AcDbEntity
  8
LOGO
  6
Continuous
 62
     7
100
AcDbLine
 10
889.6901994751075
 20
97.06165633992446
 30
0.0
 11
893.4666102383159
 21
97.06165633992446
 31
0.0
  0
TEXT
  5
2571
330
1F
100
AcDbEntity
  8
0
100
AcDbText
 10
734.0280398845932
 20
397.7401758594267
 30
0.0
 40
7.700000000000001
  1
Length=50mm
100
AcDbText
  0
LINE
  5
27F5
330
1F
100
AcDbEntity
  8
0
100
AcDbLine
 10
833.79209519506
 20
220.9144623500949
 30
0.0
 11
767.29209519506
 21
220.9144623500949
 31
0.0
  0
LINE
  5
27F6
330
1F
100
AcDbEntity
  8
0
100
AcDbLine
 10
819.1420951950599
 20
259.9144623500949
 30
0.0
 11
781.9420951950601
 21
259.9144623500949
 31
0.0
  0
LINE
  5
27F7
330
1F
100
AcDbEntity
  8
0
100
AcDbLine
 10
780.9159182467522
 20
258.9148050251194
 30
0.0
 11
820.1682721433678
 21
258.9148050251194
 31
0.0
  0
LINE
  5
27F8
330
1F
100
AcDbEntity
  8
0
100
AcDbLine
 10
823.5420951950599
 20
247.9144623500949
 30
0.0
 11
777.54209519506
 21
247.9144623500949
 31
0.0
  0
CIRCLE
  5
27F9
330
1F
100
AcDbEntity
  8
0
100
AcDbCircle
 10
800.54209519506
 20
234.9144623500949
 30
0.0
 40
11.1
  0
LINE
  5
27FD
330
1F
100
AcDbEntity
  8
0
100
AcDbLine
 10
833.046461923654
 20
248.914462350095
 30
0.0
 11
768.0377284664659
 21
248.914462350095
 31
0.0
  0
LINE
  5
2800
330
1F
100
AcDbEntity
  8
0
100
AcDbLine
 10
823.5420951950599
 20
133.9144623500949
 30
0.0
 11
777.54209519506
 21
133.9144623500949
 31
0.0
  0
LINE
  5
2801
330
1F
100
AcDbEntity
  8
0
100
AcDbLine
 10
833.046461923654
 20
132.9144623500949
 30
0.0
 11
768.0377284664659
 21
132.9144623500949
 31
0.0
  0
CIRCLE
  5
2805
330
1F
100
AcDbEntity
  8
0
100
AcDbCircle
 10
800.54209519506
 20
146.9144623500948
 30
0.0
 40
11.1
  0
LINE
  5
2806
330
1F
100
AcDbEntity
  8
0
100
AcDbLine
 10
833.79209519506
 20
160.9144623500949
 30
0.0
 11
767.29209519506
 21
160.9144623500949
 31
0.0
  0
LINE
  5
2807
330
1F
100
AcDbEntity
  8
0
100
AcDbLine
 10
951.4380796516613
 20
258.9148050251067
 30
0.0
 11
951.4380796516613
 21
248.9144623500822
 31
0.0
  0
LINE
  5
2808
330
1F
100
AcDbEntity
  8
0
100
AcDbLine
 10
912.1857257550457
 20
258.9148050251067
 30
0.0
 11
912.1857257550457
 21
248.9144623500822
 31
0.0
  0
LINE
  5
2809
330
1F
100
AcDbEntity
  8
0
100
AcDbLine
 10
820.1682721433678
 20
258.9148050251194
 30
0.0
 11
820.1682721433678
 21
248.914462350095
 31
0.0
  0
LINE
  5
280A
330
1F
100
AcDbEntity
  8
AM_7
100
AcDbLine
 10
931.8119027033535
 20
119.8077292081568
 30
0.0
 11
931.8119027033535
 21
279.368163102645
 31
0.0
  0
LINE
  5
280B
330
1F
100
AcDbEntity
  8
0
100
AcDbLine
 10
898.8119027033535
 20
248.9144623500822
 30
0.0
 11
964.8119027033535
 21
248.9144623500822
 31
0.0
  0
LINE
  5
280C
330
1F
100
AcDbEntity
  8
0
100
AcDbLine
 10
898.5619027033536
 20
220.9144623500822
 30
0.0
 11
965.0619027033535
 21
220.9144623500822
 31
0.0
  0
LINE
  5
280D
330
1F
100
AcDbEntity
  8
0
100
AcDbLine
 10
911.9762383824919
 20
130.9141196750577
 30
0.0
 11
913.0024153307999
 21
129.9144623500822
 31
0.0
  0
LINE
  5
280F
330
1F
100
AcDbEntity
  8
0
100
AcDbLine
 10
898.8119027033535
 20
132.9144623500822
 30
0.0
 11
964.8119027033535
 21
132.9144623500822
 31
0.0
  0
LINE
  5
2810
330
1F
100
AcDbEntity
  8
0
100
AcDbLine
 10
898.5619027033536
 20
160.9144623500822
 30
0.0
 11
965.0619027033535
 21
160.9144623500822
 31
0.0
  0
LINE
  5
2811
330
1F
100
AcDbEntity
  8
0
100
AcDbLine
 10
950.6213900759071
 20
129.9144623500822
 30
0.0
 11
913.0024153307999
 21
129.9144623500822
 31
0.0
  0
LINE
  5
2812
330
1F
100
AcDbEntity
  8
0
100
AcDbLine
 10
958.8119027033535
 20
160.9144623500822
 30
0.0
 11
958.8119027033535
 21
220.9144623500822
 31
0.0
  0
LINE
  5
2813
330
1F
100
AcDbEntity
  8
0
100
AcDbLine
 10
964.8119027033535
 20
248.9144623500822
 30
0.0
 11
965.0619027033535
 21
220.9144623500822
 31
0.0
  0
LINE
  5
2814
330
1F
100
AcDbEntity
  8
0
100
AcDbLine
 10
964.8119027033535
 20
132.9144623500822
 30
0.0
 11
965.0619027033535
 21
160.9144623500822
 31
0.0
  0
LINE
  5
2815
330
1F
100
AcDbEntity
  8
0
100
AcDbLine
 10
951.6999478406146
 20
132.9144623500822
 30
0.0
 11
951.6475670242147
 21
130.9141196750577
 31
0.0
  0
LINE
  5
2816
330
1F
100
AcDbEntity
  8
0
100
AcDbLine
 10
950.6213900759071
 20
129.9144623500822
 30
0.0
 11
951.6475670242147
 21
130.9141196750577
 31
0.0
  0
LINE
  5
2817
330
1F
100
AcDbEntity
  8
AM_7
100
AcDbLine
 10
923.8119027033535
 20
228.9144623500822
 30
0.0
 11
939.8119027033535
 21
228.9144623500822
 31
0.0
  0
CIRCLE
  5
2818
330
1F
100
AcDbEntity
  8
0
100
AcDbCircle
 10
931.8119027033535
 20
228.9144623500821
 30
0.0
 40
4.507144869887852
  0
ARC
  5
2819
330
1F
100
AcDbEntity
  8
0
100
AcDbCircle
 10
931.8119027033535
 20
228.9144623500821
 30
0.0
 40
8.0
100
AcDbArc
 50
0.0
 51
180.0
  0
CIRCLE
  5
281A
330
1F
100
AcDbEntity
  8
0
100
AcDbCircle
 10
931.8119027033535
 20
152.9144623500821
 30
0.0
 40
4.507144869887852
  0
ARC
  5
281B
330
1F
100
AcDbEntity
  8
0
100
AcDbCircle
 10
931.8119027033535
 20
152.9144623500821
 30
0.0
 40
8.0
100
AcDbArc
 50
180.0
 51
0.0
  0
LINE
  5
281C
330
1F
100
AcDbEntity
  8
AM_7
100
AcDbLine
 10
923.8119027033535
 20
152.9144623500822
 30
0.0
 11
939.8119027033535
 21
152.9144623500822
 31
0.0
  0
LINE
  5
281D
330
1F
100
AcDbEntity
  8
0
 62
     3
100
AcDbLine
 10
934.3119027033536
 20
132.9144623500822
 30
0.0
 11
929.3119027033535
 21
132.9144623500822
 31
0.0
  0
LINE
  5
281E
330
1F
100
AcDbEntity
  8
0
 62
     3
100
AcDbLine
 10
931.8119027033535
 20
130.4144623500822
 30
0.0
 11
931.8119027033535
 21
135.4144623500822
 31
0.0
  0
CIRCLE
  5
281F
330
1F
100
AcDbEntity
  8
0
100
AcDbCircle
 10
931.8119027033535
 20
228.9144623500821
 30
0.0
 40
1.736538404558942
  0
LINE
  5
2820
330
1F
100
AcDbEntity
  8
0
  6
Continuous
100
AcDbLine
 10
939.8119027033535
 20
228.9144623500822
 30
0.0
 11
939.8119027033535
 21
220.9144623500822
 31
0.0
  0
CIRCLE
  5
2821
330
1F
100
AcDbEntity
  8
0
100
AcDbCircle
 10
931.8119027033535
 20
228.9144623500821
 30
0.0
 40
3.90265267599112
  0
CIRCLE
  5
2822
330
1F
100
AcDbEntity
  8
0
100
AcDbCircle
 10
931.8119027033535
 20
228.9144623500821
 30
0.0
 40
3.461107854892858
  0
CIRCLE
  5
2823
330
1F
100
AcDbEntity
  8
0
100
AcDbCircle
 10
931.8119027033535
 20
228.9144623500821
 30
0.0
 40
2.794023490102617
  0
CIRCLE
  5
2824
330
1F
100
AcDbEntity
  8
0
100
AcDbCircle
 10
931.8119027033535
 20
152.9144623500821
 30
0.0
 40
3.90265267599112
  0
CIRCLE
  5
2825
330
1F
100
AcDbEntity
  8
0
100
AcDbCircle
 10
931.8119027033535
 20
152.9144623500821
 30
0.0
 40
3.461107854892858
  0
CIRCLE
  5
2826
330
1F
100
AcDbEntity
  8
0
100
AcDbCircle
 10
931.8119027033535
 20
152.9144623500821
 30
0.0
 40
2.794023490102617
  0
CIRCLE
  5
2827
330
1F
100
AcDbEntity
  8
0
100
AcDbCircle
 10
931.8119027033535
 20
152.9144623500821
 30
0.0
 40
1.736538404558942
  0
LINE
  5
2828
330
1F
100
AcDbEntity
  8
0
  6
Continuous
100
AcDbLine
 10
939.8119027033535
 20
152.9144623500822
 30
0.0
 11
939.8119027033535
 21
160.9144623500822
 31
0.0
  0
LINE
  5
2829
330
1F
100
AcDbEntity
  8
0
 62
     1
100
AcDbLine
 10
934.3119027033536
 20
132.9144623500822
 30
0.0
 11
929.3119027033535
 21
132.9144623500822
 31
0.0
  0
LINE
  5
282A
330
1F
100
AcDbEntity
  8
0
 62
     1
100
AcDbLine
 10
931.8119027033535
 20
130.4144623500822
 30
0.0
 11
931.8119027033535
 21
135.4144623500822
 31
0.0
  0
LINE
  5
282B
330
1F
100
AcDbEntity
  8
0
  6
Continuous
100
AcDbLine
 10
923.8119027033535
 20
228.9144623500822
 30
0.0
 11
923.8119027033535
 21
220.9144623500822
 31
0.0
  0
LINE
  5
282C
330
1F
100
AcDbEntity
  8
0
  6
Continuous
100
AcDbLine
 10
923.8119027033535
 20
152.9144623500822
 30
0.0
 11
923.8119027033535
 21
160.9144623500822
 31
0.0
  0
LINE
  5
282D
330
1F
100
AcDbEntity
  8
0
100
AcDbLine
 10
904.8119027033536
 20
160.9144623500822
 30
0.0
 11
904.8119027033536
 21
220.9144623500822
 31
0.0
  0
LINE
  5
282E
330
1F
100
AcDbEntity
  8
0
100
AcDbLine
 10
898.5619027033536
 20
248.9082099545892
 30
0.0
 11
898.5619027033536
 21
220.9144623500822
 31
0.0
  0
LINE
  5
282F
330
1F
100
AcDbEntity
  8
0
100
AcDbLine
 10
911.9238575660924
 20
132.9144623500822
 30
0.0
 11
911.9762383824919
 21
130.9141196750577
 31
0.0
  0
LINE
  5
2830
330
1F
100
AcDbEntity
  8
0
100
AcDbLine
 10
898.8119027033535
 20
132.9144623500822
 30
0.0
 11
898.5619027033536
 21
160.9144623500822
 31
0.0
  0
LINE
  5
2831
330
1F
100
AcDbEntity
  8
0
100
AcDbLine
 10
898.5619027033536
 20
135.9144623500822
 30
0.0
 11
898.7855869138797
 21
135.9144623500822
 31
0.0
  0
LINE
  5
2832
330
1F
100
AcDbEntity
  8
0
100
AcDbLine
 10
898.5619027033536
 20
135.9144623500822
 30
0.0
 11
898.5619027033536
 21
160.9144623500822
 31
0.0
  0
LINE
  5
2833
330
1F
100
AcDbEntity
  8
0
100
AcDbLine
 10
827.54209519506
 20
160.9144623500949
 30
0.0
 11
827.54209519506
 21
220.9144623500949
 31
0.0
  0
ARC
  5
2834
330
1F
100
AcDbEntity
  8
0
100
AcDbCircle
 10
833.046461923654
 20
248.4144623500948
 30
0.0
 40
0.5
100
AcDbArc
 50
0.502581666719042
 51
90.0
  0
LINE
  5
2835
330
1F
100
AcDbEntity
  8
0
100
AcDbLine
 10
833.79209519506
 20
220.9144623500949
 30
0.0
 11
833.546442688076
 21
248.4188481462741
 31
0.0
  0
LINE
  5
2836
330
1F
100
AcDbEntity
  8
0
100
AcDbLine
 10
825.54209519506
 20
220.9144623500949
 30
0.0
 11
825.54209519506
 21
245.9144623500949
 31
0.0
  0
ARC
  5
2837
330
1F
100
AcDbEntity
  8
0
100
AcDbCircle
 10
823.5420951950599
 20
245.9144623500948
 30
0.0
 40
2.0
100
AcDbArc
 50
0.0
 51
90.0
  0
ARC
  5
2838
330
1F
100
AcDbEntity
  8
0
100
AcDbCircle
 10
833.046461923654
 20
133.4144623500948
 30
0.0
 40
0.5
100
AcDbArc
 50
270.0
 51
359.4974183332809
  0
LINE
  5
2839
330
1F
100
AcDbEntity
  8
0
100
AcDbLine
 10
833.79209519506
 20
160.9144623500949
 30
0.0
 11
833.5464426880758
 21
133.4100765539158
 31
0.0
  0
ARC
  5
283A
330
1F
100
AcDbEntity
  8
0
100
AcDbCircle
 10
823.5420951950599
 20
135.9144623500948
 30
0.0
 40
2.0
100
AcDbArc
 50
270.0
 51
0.0
  0
LINE
  5
283B
330
1F
100
AcDbEntity
  8
0
100
AcDbLine
 10
825.54209519506
 20
160.9144623500949
 30
0.0
 11
825.54209519506
 21
135.9144623500949
 31
0.0
  0
LINE
  5
2842
330
1F
100
AcDbEntity
  8
0
100
AcDbLine
 10
912.1857257550457
 20
258.9148050251067
 30
0.0
 11
913.2119027033537
 21
259.9144623500822
 31
0.0
  0
LINE
  5
2843
330
1F
100
AcDbEntity
  8
0
100
AcDbLine
 10
912.1857257550457
 20
258.9148050251067
 30
0.0
 11
951.4380796516613
 21
258.9148050251067
 31
0.0
  0
LINE
  5
2844
330
1F
100
AcDbEntity
  8
AM_7
100
AcDbLine
 10
776.5420951950602
 20
318.6459565329155
 30
0.0
 11
776.5420951950602
 21
304.445956532915
 31
0.0
  0
LINE
  5
2845
330
1F
100
AcDbEntity
  8
0
100
AcDbLine
 10
767.5420951950602
 20
307.5459565329156
 30
0.0
 11
767.5420951950602
 21
363.5459565329156
 31
0.0
  0
LINE
  5
2846
330
1F
100
AcDbEntity
  8
0
100
AcDbLine
 10
788.0420951950602
 20
313.5459565329156
 30
0.0
 11
788.0420951950602
 21
319.3972628509002
 31
0.0
  0
ARC
  5
2847
330
1F
100
AcDbEntity
  8
0
100
AcDbCircle
 10
779.54209519506
 20
314.5459565329155
 30
0.0
 40
6.0
100
AcDbArc
 50
0.0
 51
90.0
  0
CIRCLE
  5
2848
330
1F
100
AcDbEntity
  8
0
100
AcDbCircle
 10
776.54209519506
 20
311.5459565329155
 30
0.0
 40
7.099999999999999
  0
LINE
  5
2849
330
1F
100
AcDbEntity
  8
AM_7
100
AcDbLine
 10
800.54209519506
 20
300.4089702315457
 30
0.0
 11
800.54209519506
 21
375.2254201890112
 31
0.0
  0
LINE
  5
284A
330
1F
100
AcDbEntity
  8
0
100
AcDbLine
 10
813.04209519506
 20
313.5459565329156
 30
0.0
 11
813.04209519506
 21
319.3972628509002
 31
0.0
  0
LINE
  5
284B
330
1F
100
AcDbEntity
  8
AM_7
100
AcDbLine
 10
824.5420951950601
 20
318.6459565329155
 30
0.0
 11
824.5420951950601
 21
304.445956532915
 31
0.0
  0
ARC
  5
284C
330
1F
100
AcDbEntity
  8
0
100
AcDbCircle
 10
821.54209519506
 20
314.5459565329155
 30
0.0
 40
6.0
100
AcDbArc
 50
90.0
 51
180.0
  0
CIRCLE
  5
284D
330
1F
100
AcDbEntity
  8
0
100
AcDbCircle
 10
824.5420951950601
 20
311.5459565329155
 30
0.0
 40
7.099999999999999
  0
LINE
  5
284E
330
1F
100
AcDbEntity
  8
0
100
AcDbLine
 10
833.5420951950601
 20
307.5459565329156
 30
0.0
 11
833.5420951950601
 21
363.5459565329156
 31
0.0
  0
CIRCLE
  5
284F
330
1F
100
AcDbEntity
  8
0
100
AcDbCircle
 10
800.54209519506
 20
335.5459565329155
 30
0.0
 40
19.6
  0
LINE
  5
2850
330
1F
100
AcDbEntity
  8
0
100
AcDbLine
 10
950.4119027033535
 20
259.9144623500822
 30
0.0
 11
913.2119027033537
 21
259.9144623500822
 31
0.0
  0
ARC
  5
2851
330
1F
100
AcDbEntity
  8
0
100
AcDbCircle
 10
771.54209519506
 20
345.0818549177774
 30
0.0
 40
1.5
100
AcDbArc
 50
81.78678929827688
 51
180.0
  0
ARC
  5
2852
330
1F
100
AcDbEntity
  8
0
100
AcDbCircle
 10
829.54209519506
 20
345.0818549177774
 30
0.0
 40
1.5
100
AcDbArc
 50
0.0
 51
98.21321070172311
  0
LINE
  5
2854
330
1F
100
AcDbEntity
  8
AM_7
100
AcDbLine
 10
776.5420951950602
 20
352.4459565329155
 30
0.0
 11
776.5420951950602
 21
366.6459565329162
 31
0.0
  0
ARC
  5
2855
330
1F
100
AcDbEntity
  8
0
100
AcDbCircle
 10
787.04209519506
 20
360.5818549177787
 30
0.0
 40
1.5
100
AcDbArc
 50
81.78678929827688
 51
180.0
  0
LINE
  5
2856
330
1F
100
AcDbEntity
  8
0
100
AcDbLine
 10
801.79209519506
 20
356.0227116469466
 30
0.0
 11
801.79209519506
 21
365.0459565329156
 31
0.0
  0
LINE
  5
2857
330
1F
100
AcDbEntity
  8
0
100
AcDbLine
 10
799.29209519506
 20
356.0227116469466
 30
0.0
 11
799.29209519506
 21
365.0459565329156
 31
0.0
  0
CIRCLE
  5
2859
330
1F
100
AcDbEntity
  8
0
100
AcDbCircle
 10
776.54209519506
 20
359.5459565329155
 30
0.0
 40
7.099999999999999
  0
ARC
  5
285A
330
1F
100
AcDbEntity
  8
0
100
AcDbCircle
 10
814.04209519506
 20
360.5818549177787
 30
0.0
 40
1.5
100
AcDbArc
 50
0.0
 51
98.21321070172311
  0
LINE
  5
285B
330
1F
100
AcDbEntity
  8
AM_7
100
AcDbLine
 10
824.5420951950601
 20
352.4459565329155
 30
0.0
 11
824.5420951950601
 21
366.6459565329162
 31
0.0
  0
CIRCLE
  5
285D
330
1F
100
AcDbEntity
  8
0
100
AcDbCircle
 10
824.5420951950601
 20
359.5459565329155
 30
0.0
 40
7.099999999999999
  0
LINE
  5
285E
330
1F
100
AcDbEntity
  8
0
100
AcDbLine
 10
828.54209519506
 20
368.5459565329156
 30
0.0
 11
772.5420951950602
 21
368.5459565329156
 31
0.0
  0
LINE
  5
285F
330
1F
100
AcDbEntity
  8
0
100
AcDbLine
 10
810.0779935799218
 20
366.0459565329156
 30
0.0
 11
791.0061968101984
 21
366.0459565329156
 31
0.0
  0
ARC
  5
2860
330
1F
100
AcDbEntity
  8
0
100
AcDbCircle
 10
810.0779935799218
 20
364.5459565329155
 30
0.0
 40
1.5
100
AcDbArc
 50
351.7867892982643
 51
90.0
  0
ARC
  5
2861
330
1F
100
AcDbEntity
  8
0
100
AcDbCircle
 10
813.5420951950599
 20
364.0459565329155
 30
0.0
 40
2.0
100
AcDbArc
 50
171.7867892982642
 51
278.2132107017232
  0
ARC
  5
2862
330
1F
100
AcDbEntity
  8
0
100
AcDbCircle
 10
828.54209519506
 20
363.5459565329155
 30
0.0
 40
5.0
100
AcDbArc
 50
0.0
 51
90.0
  0
ARC
  5
2863
330
1F
100
AcDbEntity
  8
0
100
AcDbCircle
 10
772.54209519506
 20
363.5459565329155
 30
0.0
 40
5.0
100
AcDbArc
 50
90.0
 51
180.0
  0
ARC
  5
2864
330
1F
100
AcDbEntity
  8
0
100
AcDbCircle
 10
791.0061968101981
 20
364.5459565329155
 30
0.0
 40
1.5
100
AcDbArc
 50
90.0
 51
188.2132107017389
  0
ARC
  5
2865
330
1F
100
AcDbEntity
  8
0
100
AcDbCircle
 10
787.54209519506
 20
364.0459565329155
 30
0.0
 40
2.0
100
AcDbArc
 50
261.7867892982769
 51
8.213210701738944
  0
ARC
  5
2866
330
1F
100
AcDbEntity
  8
0
100
AcDbCircle
 10
798.29209519506
 20
365.0459565329155
 30
0.0
 40
1.0
100
AcDbArc
 50
0.0
 51
90.0
  0
ARC
  5
2867
330
1F
100
AcDbEntity
  8
0
100
AcDbCircle
 10
802.79209519506
 20
365.0459565329155
 30
0.0
 40
1.0
100
AcDbArc
 50
90.0
 51
180.0
  0
LINE
  5
2868
330
1F
100
AcDbEntity
  8
0
100
AcDbLine
 10
950.4119027033535
 20
259.9144623500822
 30
0.0
 11
951.4380796516613
 21
258.9148050251067
 31
0.0
  0
ARC
  5
2869
330
1F
100
AcDbEntity
  8
0
100
AcDbCircle
 10
816.6123378505581
 20
348.4342186730736
 30
0.0
 40
1.0
100
AcDbArc
 50
135.0000000000057
 51
218.7294557783753
  0
ARC
  5
286A
330
1F
100
AcDbEntity
  8
0
100
AcDbCircle
 10
813.4303573352172
 20
351.6161991884127
 30
0.0
 40
1.0
100
AcDbArc
 50
231.2705442216427
 51
315.0000000000058
  0
LINE
  5
286B
330
1F
100
AcDbEntity
  8
0
100
AcDbLine
 10
815.5420951950599
 20
356.5459565329156
 30
0.0
 11
815.5420951950599
 21
360.5818549177789
 31
0.0
  0
ARC
  5
286C
330
1F
100
AcDbEntity
  8
0
100
AcDbCircle
 10
815.2640216225773
 20
353.4498634757712
 30
0.0
 40
1.0
100
AcDbArc
 50
315.0000000000058
 51
26.25065915299637
  0
LINE
  5
286D
330
1F
100
AcDbEntity
  8
0
100
AcDbLine
 10
814.1374641164038
 20
350.9090924072264
 30
0.0
 11
815.9711284037621
 21
352.7427566945848
 31
0.0
  0
ARC
  5
286E
330
1F
100
AcDbEntity
  8
0
100
AcDbCircle
 10
818.4460021379182
 20
350.2678829604337
 30
0.0
 40
1.0
100
AcDbArc
 50
63.74934084699675
 51
135.0000000000057
  0
LINE
  5
286F
330
1F
100
AcDbEntity
  8
0
100
AcDbLine
 10
815.9052310693715
 20
349.1413254542601
 30
0.0
 11
817.7388953567314
 21
350.9749897416205
 31
0.0
  0
ARC
  5
2870
330
1F
100
AcDbEntity
  8
0
100
AcDbCircle
 10
821.54209519506
 20
356.5459565329155
 30
0.0
 40
6.0
100
AcDbArc
 50
180.0
 51
270.0
  0
ARC
  5
2871
330
1F
100
AcDbEntity
  8
0
100
AcDbCircle
 10
825.5779935799219
 20
349.0459565329155
 30
0.0
 40
1.5
100
AcDbArc
 50
351.7867892982611
 51
90.0
  0
ARC
  5
2872
330
1F
100
AcDbEntity
  8
0
100
AcDbCircle
 10
829.0420951950601
 20
348.5459565329155
 30
0.0
 40
2.0
100
AcDbArc
 50
171.7867892982611
 51
278.2132107017232
  0
LINE
  5
2873
330
1F
100
AcDbEntity
  8
0
100
AcDbLine
 10
825.5779935799219
 20
350.5459565329156
 30
0.0
 11
821.54209519506
 21
350.5459565329156
 31
0.0
  0
LINE
  5
2874
330
1F
100
AcDbEntity
  8
AM_7
100
AcDbLine
 10
817.4420951950596
 20
359.5459565329156
 30
0.0
 11
831.6420951950604
 21
359.5459565329156
 31
0.0
  0
ARC
  5
2875
330
1F
100
AcDbEntity
  8
0
100
AcDbCircle
 10
775.5061968101982
 20
349.0459565329155
 30
0.0
 40
1.5
100
AcDbArc
 50
90.0
 51
188.2132107017389
  0
ARC
  5
2876
330
1F
100
AcDbEntity
  8
0
100
AcDbCircle
 10
772.04209519506
 20
348.5459565329155
 30
0.0
 40
2.0
100
AcDbArc
 50
261.7867892982769
 51
8.213210701738944
  0
ARC
  5
2877
330
1F
100
AcDbEntity
  8
0
100
AcDbCircle
 10
784.4718525395619
 20
348.4342186730736
 30
0.0
 40
1.0
100
AcDbArc
 50
321.2705442216247
 51
44.99999999999424
  0
LINE
  5
2878
330
1F
100
AcDbEntity
  8
0
100
AcDbLine
 10
785.1789593207488
 20
349.1413254542601
 30
0.0
 11
783.3452950333887
 21
350.9749897416205
 31
0.0
  0
ARC
  5
2879
330
1F
100
AcDbEntity
  8
0
100
AcDbCircle
 10
782.6381882522018
 20
350.2678829604337
 30
0.0
 40
1.0
100
AcDbArc
 50
44.99999999999424
 51
116.2506591530032
  0
LINE
  5
287A
330
1F
100
AcDbEntity
  8
0
100
AcDbLine
 10
785.5420951950602
 20
356.5459565329156
 30
0.0
 11
785.5420951950602
 21
360.5818549177789
 31
0.0
  0
ARC
  5
287B
330
1F
100
AcDbEntity
  8
0
100
AcDbCircle
 10
785.8201687675427
 20
353.4498634757712
 30
0.0
 40
1.0
100
AcDbArc
 50
153.7493408470036
 51
224.9999999999943
  0
ARC
  5
287C
330
1F
100
AcDbEntity
  8
0
100
AcDbCircle
 10
787.653833054901
 20
351.6161991884127
 30
0.0
 40
1.0
100
AcDbArc
 50
224.9999999999943
 51
308.7294557783573
  0
ARC
  5
287D
330
1F
100
AcDbEntity
  8
0
100
AcDbCircle
 10
779.54209519506
 20
356.5459565329155
 30
0.0
 40
6.0
100
AcDbArc
 50
270.0
 51
0.0
  0
LINE
  5
287E
330
1F
100
AcDbEntity
  8
0
100
AcDbLine
 10
786.9467262737164
 20
350.9090924072264
 30
0.0
 11
785.1130619863582
 21
352.7427566945848
 31
0.0
  0
ARC
  5
287F
330
1F
100
AcDbEntity
  8
0
100
AcDbCircle
 10
798.29209519506
 20
356.0227116469465
 30
0.0
 40
1.0
100
AcDbArc
 50
276.2705442216675
 51
0.0
  0
ARC
  5
2880
330
1F
100
AcDbEntity
  8
0
100
AcDbCircle
 10
802.79209519506
 20
356.0227116469463
 30
0.0
 40
1.0
100
AcDbArc
 50
180.0
 51
263.7294557783325
  0
LINE
  5
2881
330
1F
100
AcDbEntity
  8
0
100
AcDbLine
 10
779.5420951950602
 20
350.5459565329156
 30
0.0
 11
775.5061953308488
 21
350.5459565329156
 31
0.0
  0
LINE
  5
2882
330
1F
100
AcDbEntity
  8
AM_7
100
AcDbLine
 10
783.6420951950606
 20
359.5459565329156
 30
0.0
 11
769.4420951950599
 21
359.5459565329156
 31
0.0
  0
LINE
  5
288B
330
1F
100
AcDbEntity
  8
0
100
AcDbLine
 10
770.0420951950603
 20
326.0100581480529
 30
0.0
 11
770.0420951950603
 21
345.0818534237921
 31
0.0
  0
LINE
  5
288C
330
1F
100
AcDbEntity
  8
0
100
AcDbLine
 10
831.04209519506
 20
326.0100581480529
 30
0.0
 11
831.04209519506
 21
345.0818549177775
 31
0.0
  0
LINE
  5
288D
330
1F
100
AcDbEntity
  8
AM_7
100
AcDbLine
 10
835.8093989271074
 20
335.5459565329156
 30
0.0
 11
764.3113097397761
 21
335.5459565329156
 31
0.0
  0
ARC
  5
289B
330
1F
100
AcDbEntity
  8
0
100
AcDbCircle
 10
821.0188503090902
 20
333.2959565329155
 30
0.0
 40
1.0
100
AcDbArc
 50
90.0
 51
173.7294557783555
  0
ARC
  5
289C
330
1F
100
AcDbEntity
  8
0
100
AcDbCircle
 10
821.0188503090902
 20
337.7959565329155
 30
0.0
 40
1.0
100
AcDbArc
 50
186.2705442216445
 51
270.0
  0
ARC
  5
289D
330
1F
100
AcDbEntity
  8
0
100
AcDbCircle
 10
830.04209519506
 20
333.2959565329155
 30
0.0
 40
1.0
100
AcDbArc
 50
0.0
 51
90.0
  0
ARC
  5
289E
330
1F
100
AcDbEntity
  8
0
100
AcDbCircle
 10
830.04209519506
 20
337.7959565329153
 30
0.0
 40
1.0
100
AcDbArc
 50
270.0
 51
0.0
  0
LINE
  5
289F
330
1F
100
AcDbEntity
  8
0
100
AcDbLine
 10
830.04209519506
 20
342.0459565329156
 30
0.0
 11
819.7282881472856
 21
342.0459565329156
 31
0.0
  0
LINE
  5
28A0
330
1F
100
AcDbEntity
  8
0
100
AcDbLine
 10
821.0188503090902
 20
334.2959565329156
 30
0.0
 11
830.04209519506
 21
334.2959565329156
 31
0.0
  0
LINE
  5
28A1
330
1F
100
AcDbEntity
  8
0
100
AcDbLine
 10
821.0188503090902
 20
336.7959565329156
 30
0.0
 11
830.04209519506
 21
336.7959565329156
 31
0.0
  0
ARC
  5
28A2
330
1F
100
AcDbEntity
  8
0
100
AcDbCircle
 10
830.04209519506
 20
343.0459565329155
 30
0.0
 40
1.0
100
AcDbArc
 50
270.0
 51
0.0
  0
ARC
  5
28A3
330
1F
100
AcDbEntity
  8
0
100
AcDbCircle
 10
819.7282881472856
 20
343.0459565329155
 30
0.0
 40
1.0
100
AcDbArc
 50
201.3508319569759
 51
270.0
  0
ARC
  5
28A4
330
1F
100
AcDbEntity
  8
0
100
AcDbCircle
 10
771.04209519506
 20
333.2959565329155
 30
0.0
 40
1.0
100
AcDbArc
 50
90.0
 51
180.0
  0
ARC
  5
28A5
330
1F
100
AcDbEntity
  8
0
100
AcDbCircle
 10
771.04209519506
 20
337.7959565329153
 30
0.0
 40
1.0
100
AcDbArc
 50
180.0
 51
270.0
  0
ARC
  5
28A6
330
1F
100
AcDbEntity
  8
0
100
AcDbCircle
 10
771.04209519506
 20
343.0459565329155
 30
0.0
 40
1.0
100
AcDbArc
 50
180.0
 51
270.0
  0
ARC
  5
28A7
330
1F
100
AcDbEntity
  8
0
100
AcDbCircle
 10
780.0653400810297
 20
333.2959565329155
 30
0.0
 40
1.0
100
AcDbArc
 50
6.270544221644458
 51
90.0
  0
ARC
  5
28A8
330
1F
100
AcDbEntity
  8
0
100
AcDbCircle
 10
780.0653400810297
 20
337.7959565329155
 30
0.0
 40
1.0
100
AcDbArc
 50
270.0
 51
353.7294557783555
  0
ARC
  5
28A9
330
1F
100
AcDbEntity
  8
0
100
AcDbCircle
 10
781.3559022428344
 20
343.0459565329155
 30
0.0
 40
1.0
100
AcDbArc
 50
270.0
 51
338.6491680430241
  0
LINE
  5
28AA
330
1F
100
AcDbEntity
  8
0
100
AcDbLine
 10
771.0420951950602
 20
342.0459565329156
 30
0.0
 11
781.3559022428346
 21
342.0459565329156
 31
0.0
  0
LINE
  5
28AB
330
1F
100
AcDbEntity
  8
0
100
AcDbLine
 10
780.0653400810299
 20
336.7959565329156
 30
0.0
 11
771.0420951950602
 21
336.7959565329156
 31
0.0
  0
LINE
  5
28AC
330
1F
100
AcDbEntity
  8
0
100
AcDbLine
 10
780.0653400810299
 20
334.2959565329156
 30
0.0
 11
771.0420951950602
 21
334.2959565329156
 31
0.0
  0
LINE
  5
28B5
330
1F
100
AcDbEntity
  8
0
100
AcDbLine
 10
814.1374641164038
 20
320.1828206586049
 30
0.0
 11
815.9711284037621
 21
318.3491563712464
 31
0.0
  0
ARC
  5
28B6
330
1F
100
AcDbEntity
  8
0
100
AcDbCircle
 10
815.2640216225773
 20
317.6420495900596
 30
0.0
 40
1.0
100
AcDbArc
 50
333.7493408470036
 51
44.99999999999424
  0
ARC
  5
28B7
330
1F
100
AcDbEntity
  8
0
100
AcDbCircle
 10
813.4303573352172
 20
319.4757138774181
 30
0.0
 40
1.0
100
AcDbArc
 50
44.99999999999424
 51
128.7294557783574
  0
ARC
  5
28B8
330
1F
100
AcDbEntity
  8
0
100
AcDbCircle
 10
814.04209519506
 20
319.3972628509001
 30
0.0
 40
1.0
100
AcDbArc
 50
100.6533718851504
 51
180.0
  0
ARC
  5
28B9
330
1F
100
AcDbEntity
  8
0
100
AcDbCircle
 10
818.4460021379182
 20
320.8240301053971
 30
0.0
 40
1.0
100
AcDbArc
 50
224.9999999999943
 51
296.2506591530033
  0
LINE
  5
28BA
330
1F
100
AcDbEntity
  8
0
100
AcDbLine
 10
815.9052310693715
 20
321.9505876115709
 30
0.0
 11
817.7388953567314
 21
320.1169233242108
 31
0.0
  0
ARC
  5
28BB
330
1F
100
AcDbEntity
  8
0
100
AcDbCircle
 10
819.7282881472856
 20
328.0459565329155
 30
0.0
 40
1.0
100
AcDbArc
 50
90.0
 51
158.6491680430241
  0
ARC
  5
28BC
330
1F
100
AcDbEntity
  8
0
100
AcDbCircle
 10
816.6123378505581
 20
322.6576943927574
 30
0.0
 40
1.0
100
AcDbArc
 50
141.2705442216247
 51
224.9999999999943
  0
ARC
  5
28BD
330
1F
100
AcDbEntity
  8
0
100
AcDbCircle
 10
825.5779935799219
 20
322.0459565329155
 30
0.0
 40
1.5
100
AcDbArc
 50
270.0
 51
8.213210701738944
  0
ARC
  5
28BE
330
1F
100
AcDbEntity
  8
0
100
AcDbCircle
 10
829.54209519506
 20
326.0100581480527
 30
0.0
 40
1.5
100
AcDbArc
 50
261.7867892982769
 51
0.0
  0
ARC
  5
28BF
330
1F
100
AcDbEntity
  8
0
100
AcDbCircle
 10
830.04209519506
 20
328.0459565329155
 30
0.0
 40
1.0
100
AcDbArc
 50
0.0
 51
90.0
  0
ARC
  5
28C0
330
1F
100
AcDbEntity
  8
0
100
AcDbCircle
 10
829.0420951950601
 20
322.5459565329155
 30
0.0
 40
2.0
100
AcDbArc
 50
81.78678929827688
 51
188.2132107017389
  0
LINE
  5
28C1
330
1F
100
AcDbEntity
  8
0
100
AcDbLine
 10
825.5779935799219
 20
320.5459565329156
 30
0.0
 11
821.54209519506
 21
320.5459565329156
 31
0.0
  0
LINE
  5
28C2
330
1F
100
AcDbEntity
  8
0
100
AcDbLine
 10
830.04209519506
 20
329.0459565329156
 30
0.0
 11
819.7282881472856
 21
329.0459565329156
 31
0.0
  0
ARC
  5
28C3
330
1F
100
AcDbEntity
  8
0
100
AcDbCircle
 10
775.5061968101982
 20
322.0459565329155
 30
0.0
 40
1.5
100
AcDbArc
 50
171.7867892982611
 51
270.0
  0
ARC
  5
28C4
330
1F
100
AcDbEntity
  8
0
100
AcDbCircle
 10
771.54209519506
 20
326.0100581480527
 30
0.0
 40
1.5
100
AcDbArc
 50
180.0
 51
278.2132107017232
  0
ARC
  5
28C5
330
1F
100
AcDbEntity
  8
0
100
AcDbCircle
 10
771.04209519506
 20
328.0459565329155
 30
0.0
 40
1.0
100
AcDbArc
 50
90.0
 51
180.0
  0
ARC
  5
28C6
330
1F
100
AcDbEntity
  8
0
100
AcDbCircle
 10
772.04209519506
 20
322.5459565329155
 30
0.0
 40
2.0
100
AcDbArc
 50
351.7867892982643
 51
98.21321070172311
  0
ARC
  5
28C7
330
1F
100
AcDbEntity
  8
0
100
AcDbCircle
 10
785.8201687675427
 20
317.6420495900596
 30
0.0
 40
1.0
100
AcDbArc
 50
135.0000000000057
 51
206.2506591529964
  0
LINE
  5
28C8
330
1F
100
AcDbEntity
  8
0
100
AcDbLine
 10
785.1789593207488
 20
321.9505876115709
 30
0.0
 11
783.3452950333887
 21
320.1169233242108
 31
0.0
  0
ARC
  5
28C9
330
1F
100
AcDbEntity
  8
0
100
AcDbCircle
 10
782.6381882522018
 20
320.8240301053971
 30
0.0
 40
1.0
100
AcDbArc
 50
243.7493408469968
 51
315.0000000000058
  0
ARC
  5
28CA
330
1F
100
AcDbEntity
  8
0
100
AcDbCircle
 10
787.653833054901
 20
319.4757138774181
 30
0.0
 40
1.0
100
AcDbArc
 50
51.27054422164261
 51
135.0000000000057
  0
ARC
  5
28CB
330
1F
100
AcDbEntity
  8
0
100
AcDbCircle
 10
787.04209519506
 20
319.3972628509001
 30
0.0
 40
1.0
100
AcDbArc
 50
0.0
 51
79.34662811484956
  0
LINE
  5
28CC
330
1F
100
AcDbEntity
  8
0
100
AcDbLine
 10
786.9467262737164
 20
320.1828206586049
 30
0.0
 11
785.1130619863582
 21
318.3491563712464
 31
0.0
  0
ARC
  5
28CD
330
1F
100
AcDbEntity
  8
0
100
AcDbCircle
 10
781.3559022428344
 20
328.0459565329155
 30
0.0
 40
1.0
100
AcDbArc
 50
21.35083195697513
 51
90.0
  0
ARC
  5
28CE
330
1F
100
AcDbEntity
  8
0
100
AcDbCircle
 10
784.4718525395619
 20
322.6576943927574
 30
0.0
 40
1.0
100
AcDbArc
 50
315.0000000000058
 51
38.72945577837529
  0
LINE
  5
28CF
330
1F
100
AcDbEntity
  8
0
100
AcDbLine
 10
779.5420951950602
 20
320.5459565329156
 30
0.0
 11
775.506193985417
 21
320.5459565329156
 31
0.0
  0
LINE
  5
28D0
330
1F
100
AcDbEntity
  8
0
100
AcDbLine
 10
771.0420951950602
 20
329.0459565329156
 30
0.0
 11
781.3559022428346
 21
329.0459565329156
 31
0.0
  0
ARC
  5
28D1
330
1F
100
AcDbEntity
  8
0
100
AcDbCircle
 10
772.54209519506
 20
307.5459565329155
 30
0.0
 40
5.0
100
AcDbArc
 50
180.0
 51
270.0
  0
ARC
  5
28D2
330
1F
100
AcDbEntity
  8
0
100
AcDbCircle
 10
828.54209519506
 20
307.5459565329155
 30
0.0
 40
5.0
100
AcDbArc
 50
270.0
 51
0.0
  0
ARC
  5
28D3
330
1F
100
AcDbEntity
  8
0
100
AcDbCircle
 10
806.7420951950589
 20
313.0459565329155
 30
0.0
 40
0.5
100
AcDbArc
 50
180.0
 51
270.0
  0
LINE
  5
28D4
330
1F
100
AcDbEntity
  8
0
100
AcDbLine
 10
828.54209519506
 20
302.5459565329156
 30
0.0
 11
772.5420951950602
 21
302.5459565329156
 31
0.0
  0
LINE
  5
28D5
330
1F
100
AcDbEntity
  8
0
100
AcDbLine
 10
810.0779953278724
 20
305.0459565329156
 30
0.0
 11
791.0061968101984
 21
305.0459565329156
 31
0.0
  0
LINE
  5
28D6
330
1F
100
AcDbEntity
  8
0
100
AcDbLine
 10
825.54209519506
 20
302.0459565329156
 30
0.0
 11
775.5420951950602
 21
302.0459565329156
 31
0.0
  0
ARC
  5
28D7
330
1F
100
AcDbEntity
  8
0
100
AcDbCircle
 10
810.0779935799218
 20
306.5459565329155
 30
0.0
 40
1.5
100
AcDbArc
 50
270.0
 51
8.213210701735667
  0
ARC
  5
28D8
330
1F
100
AcDbEntity
  8
0
100
AcDbCircle
 10
814.04209519506
 20
310.5100581480523
 30
0.0
 40
1.5
100
AcDbArc
 50
261.7867892982769
 51
0.0
  0
ARC
  5
28D9
330
1F
100
AcDbEntity
  8
0
100
AcDbCircle
 10
813.5420951950599
 20
307.0459565329153
 30
0.0
 40
2.0
100
AcDbArc
 50
81.78678929827688
 51
188.2132107017357
  0
ARC
  5
28DA
330
1F
100
AcDbEntity
  8
0
100
AcDbCircle
 10
814.04209519506
 20
314.0459565329155
 30
0.0
 40
1.5
100
AcDbArc
 50
270.0
 51
0.0
  0
ARC
  5
28DB
330
1F
100
AcDbEntity
  8
0
100
AcDbCircle
 10
814.04209519506
 20
313.5459565329155
 30
0.0
 40
1.0
100
AcDbArc
 50
180.0
 51
270.0
  0
LINE
  5
28DC
330
1F
100
AcDbEntity
  8
0
100
AcDbLine
 10
815.5420951950599
 20
310.5100581480524
 30
0.0
 11
815.5420951950599
 21
314.5459565329156
 31
0.0
  0
LINE
  5
28DD
330
1F
100
AcDbEntity
  8
AM_7
100
AcDbLine
 10
817.4420951950596
 20
311.5459565329156
 30
0.0
 11
831.6420951950604
 21
311.5459565329156
 31
0.0
  0
LINE
  5
28DF
330
1F
100
AcDbEntity
  8
0
  6
CENTER
100
AcDbLine
 10
825.54209519506
 20
302.0459565329156
 30
0.0
 11
825.54209519506
 21
302.5459565329156
 31
0.0
  0
LINE
  5
28E0
330
1F
100
AcDbEntity
  8
0
100
AcDbLine
 10
814.04209519506
 20
312.5459565329156
 30
0.0
 11
806.7420951950589
 21
312.5459565329156
 31
0.0
  0
LINE
  5
28E1
330
1F
100
AcDbEntity
  8
0
100
AcDbLine
 10
785.5420951950602
 20
310.5100581480522
 30
0.0
 11
785.5420951950602
 21
314.5459565329156
 31
0.0
  0
ARC
  5
28E2
330
1F
100
AcDbEntity
  8
0
100
AcDbCircle
 10
791.0061968101981
 20
306.5459565329155
 30
0.0
 40
1.5
100
AcDbArc
 50
171.7867892982611
 51
270.0
  0
ARC
  5
28E3
330
1F
100
AcDbEntity
  8
0
100
AcDbCircle
 10
787.04209519506
 20
313.5459565329155
 30
0.0
 40
1.0
100
AcDbArc
 50
270.0
 51
0.0
  0
ARC
  5
28E4
330
1F
100
AcDbEntity
  8
0
100
AcDbCircle
 10
787.54209519506
 20
307.0459565329153
 30
0.0
 40
2.0
100
AcDbArc
 50
351.7867892982611
 51
98.21321070172311
  0
ARC
  5
28E5
330
1F
100
AcDbEntity
  8
0
100
AcDbCircle
 10
787.04209519506
 20
310.5100581480521
 30
0.0
 40
1.5
100
AcDbArc
 50
180.0
 51
278.2132107017232
  0
ARC
  5
28E6
330
1F
100
AcDbEntity
  8
0
100
AcDbCircle
 10
787.04209519506
 20
314.0459565329155
 30
0.0
 40
1.5
100
AcDbArc
 50
180.0
 51
270.0
  0
LINE
  5
28E7
330
1F
100
AcDbEntity
  8
0
100
AcDbLine
 10
794.3420951950593
 20
312.5459565329156
 30
0.0
 11
787.0420942911116
 21
312.5459565329156
 31
0.0
  0
LINE
  5
28E9
330
1F
100
AcDbEntity
  8
AM_7
100
AcDbLine
 10
783.6420951950606
 20
311.5459565329156
 30
0.0
 11
769.4420951950599
 21
311.5459565329156
 31
0.0
  0
LINE
  5
28EA
330
1F
100
AcDbEntity
  8
0
  6
CENTER
100
AcDbLine
 10
775.5420951950602
 20
302.0459565329156
 30
0.0
 11
775.5420951950602
 21
302.5459565329156
 31
0.0
  0
LINE
  5
28F1
330
1F
100
AcDbEntity
  8
0
100
AcDbLine
 10
819.1420951950599
 20
259.9144623500949
 30
0.0
 11
820.1682721433678
 21
258.9148050251194
 31
0.0
  0
LINE
  5
28F2
330
1F
100
AcDbEntity
  8
0
100
AcDbLine
 10
780.9159182467522
 20
258.9148050251194
 30
0.0
 11
780.9159182467522
 21
248.914462350095
 31
0.0
  0
LINE
  5
28F3
330
1F
100
AcDbEntity
  8
AM_7
100
AcDbLine
 10
800.54209519506
 20
276.7418202792035
 30
0.0
 11
800.54209519506
 21
127.9476577749149
 31
0.0
  0
ARC
  5
28F4
330
1F
100
AcDbEntity
  8
0
100
AcDbCircle
 10
777.54209519506
 20
245.9144623500949
 30
0.0
 40
2.0
100
AcDbArc
 50
90.0
 51
180.0
  0
ARC
  5
28F5
330
1F
100
AcDbEntity
  8
0
100
AcDbCircle
 10
777.54209519506
 20
135.9144623500948
 30
0.0
 40
2.0
100
AcDbArc
 50
180.0
 51
270.0
  0
LINE
  5
28FE
330
1F
100
AcDbEntity
  8
0
100
AcDbLine
 10
773.54209519506
 20
160.9144623500949
 30
0.0
 11
773.54209519506
 21
220.9144623500949
 31
0.0
  0
ARC
  5
28FF
330
1F
100
AcDbEntity
  8
0
100
AcDbCircle
 10
768.0377284664659
 20
248.4144623500949
 30
0.0
 40
0.5
100
AcDbArc
 50
90.0
 51
179.4974183332809
  0
LINE
  5
2900
330
1F
100
AcDbEntity
  8
0
100
AcDbLine
 10
767.29209519506
 20
220.9144623500949
 30
0.0
 11
767.5377477020442
 21
248.4188481462741
 31
0.0
  0
LINE
  5
2901
330
1F
100
AcDbEntity
  8
0
100
AcDbLine
 10
775.54209519506
 20
220.9144623500949
 30
0.0
 11
775.54209519506
 21
245.9144623500949
 31
0.0
  0
ARC
  5
2902
330
1F
100
AcDbEntity
  8
0
100
AcDbCircle
 10
768.0377284664659
 20
133.4144623500948
 30
0.0
 40
0.5
100
AcDbArc
 50
180.502581666719
 51
270.0
  0
LINE
  5
2903
330
1F
100
AcDbEntity
  8
0
100
AcDbLine
 10
775.54209519506
 20
160.9144623500949
 30
0.0
 11
775.54209519506
 21
135.9144623500949
 31
0.0
  0
LINE
  5
2904
330
1F
100
AcDbEntity
  8
0
100
AcDbLine
 10
767.29209519506
 20
160.9144623500949
 30
0.0
 11
767.5377477020442
 21
133.4100765539158
 31
0.0
  0
LINE
  5
290B
330
1F
100
AcDbEntity
  8
0
100
AcDbLine
 10
780.9159182467522
 20
258.9148050251194
 30
0.0
 11
781.9420951950601
 21
259.9144623500949
 31
0.0
  0
ARC
  5
293D
330
1F
100
AcDbEntity
  8
AM_4
100
AcDbCircle
 10
800.54209519506
 20
234.9144623500949
 30
0.0
 40
8.649999999999998
100
AcDbArc
 50
260.0
 51
170.0
  0
LINE
  5
293E
330
1F
100
AcDbEntity
  8
AM_7
  6
AM_ISO08W050x2
100
AcDbLine
 10
800.54209519506
 20
246.5644623500949
 30
0.0
 11
800.54209519506
 21
223.2644623500949
 31
0.0
  0
CIRCLE
  5
293F
330
1F
100
AcDbEntity
  8
AM_0
100
AcDbCircle
 10
800.54209519506
 20
234.9144623500949
 30
0.0
 40
7.474999999999998
  0
LINE
  5
2940
330
1F
100
AcDbEntity
  8
AM_7
  6
AM_ISO08W050x2
100
AcDbLine
 10
788.8920951950599
 20
234.9144623500949
 30
0.0
 11
812.1920951950601
 21
234.9144623500949
 31
0.0
  0
ARC
  5
2941
330
1F
100
AcDbEntity
  8
AM_4
100
AcDbCircle
 10
800.54209519506
 20
146.9144623500948
 30
0.0
 40
8.649999999999998
100
AcDbArc
 50
260.0
 51
170.0
  0
LINE
  5
2942
330
1F
100
AcDbEntity
  8
AM_7
  6
AM_ISO08W050x2
100
AcDbLine
 10
800.54209519506
 20
158.5644623500948
 30
0.0
 11
800.54209519506
 21
135.2644623500948
 31
0.0
  0
CIRCLE
  5
2943
330
1F
100
AcDbEntity
  8
AM_0
100
AcDbCircle
 10
800.54209519506
 20
146.9144623500948
 30
0.0
 40
7.474999999999998
  0
LINE
  5
2944
330
1F
100
AcDbEntity
  8
AM_7
  6
AM_ISO08W050x2
100
AcDbLine
 10
788.8920951950599
 20
146.9144623500948
 30
0.0
 11
812.1920951950601
 21
146.9144623500948
 31
0.0
  0
LINE
  5
299A
330
1F
100
AcDbEntity
  8
0
100
AcDbLine
 10
760.5414903644041
 20
229.7183099273881
 30
0.0
 11
767.4171347114217
 21
229.7183099273881
 31
0.0
  0
ARC
  5
299B
330
1F
100
AcDbEntity
  8
0
100
AcDbCircle
 10
760.5414903644039
 20
228.7183099273881
 30
0.0
 40
1.0
100
AcDbArc
 50
90.0
 51
180.0
  0
LINE
  5
299C
330
1F
100
AcDbEntity
  8
0
100
AcDbLine
 10
752.1491855189906
 20
240.1106147728016
 30
0.0
 11
767.4635435961272
 21
240.1106147728016
 31
0.0
  0
ARC
  5
299D
330
1F
100
AcDbEntity
  8
0
100
AcDbCircle
 10
752.1491855189903
 20
237.1106147728016
 30
0.0
 40
3.0
100
AcDbArc
 50
90.0
 51
180.0
  0
LINE
  5
299E
330
1F
100
AcDbEntity
  8
0
100
AcDbLine
 10
759.5414903644041
 20
228.7183099273881
 30
0.0
 11
759.5414903644041
 21
226.1106147728016
 31
0.0
  0
LINE
  5
299F
330
1F
100
AcDbEntity
  8
0
100
AcDbLine
 10
749.1491855189906
 20
237.1106147728016
 30
0.0
 11
749.1491855189906
 21
226.1106147728016
 31
0.0
  0
LINE
  5
29A0
330
1F
100
AcDbEntity
  8
0
100
AcDbLine
 10
747.4171347114218
 20
218.1106147728016
 30
0.0
 11
747.4171347114218
 21
224.1106147728016
 31
0.0
  0
LINE
  5
29A1
330
1F
100
AcDbEntity
  8
0
100
AcDbLine
 10
747.4171347114218
 20
224.1106147728016
 30
0.0
 11
761.2735411719727
 21
224.1106147728016
 31
0.0
  0
LINE
  5
29A2
330
1F
100
AcDbEntity
  8
0
100
AcDbLine
 10
747.4171347114218
 20
218.1106147728016
 30
0.0
 11
761.273541171973
 21
218.1106147728016
 31
0.0
  0
LINE
  5
29A3
330
1F
100
AcDbEntity
  8
0
100
AcDbLine
 10
761.273541171973
 20
218.1106147728016
 30
0.0
 11
761.273541171973
 21
224.1106147728016
 31
0.0
  0
LINE
  5
29A4
330
1F
100
AcDbEntity
  8
0
100
AcDbLine
 10
750.8812363265596
 20
219.1106147728016
 30
0.0
 11
750.8812363265596
 21
223.1106147728019
 31
0.0
  0
LINE
  5
29A5
330
1F
100
AcDbEntity
  8
0
100
AcDbLine
 10
757.809439556835
 20
219.1106147728014
 30
0.0
 11
757.809439556835
 21
223.1106147728021
 31
0.0
  0
LINE
  5
29A6
330
1F
100
AcDbEntity
  8
0
100
AcDbLine
 10
748.3453379416974
 20
216.1106147728016
 30
0.0
 11
760.3453379416974
 21
216.1106147728016
 31
0.0
  0
LINE
  5
29A7
330
1F
100
AcDbEntity
  8
0
100
AcDbLine
 10
760.3453379416974
 20
216.1106147728016
 30
0.0
 11
760.3453379416974
 21
218.1106147728016
 31
0.0
  0
LINE
  5
29A8
330
1F
100
AcDbEntity
  8
0
100
AcDbLine
 10
748.3453379416974
 20
216.1106147728016
 30
0.0
 11
748.3453379416974
 21
218.1106147728016
 31
0.0
  0
LINE
  5
29A9
330
1F
100
AcDbEntity
  8
0
100
AcDbLine
 10
748.3453379416974
 20
226.1106147728016
 30
0.0
 11
760.3453379416974
 21
226.1106147728016
 31
0.0
  0
LINE
  5
29AA
330
1F
100
AcDbEntity
  8
0
100
AcDbLine
 10
760.3453379416974
 20
226.1106147728016
 30
0.0
 11
760.3453379416974
 21
224.1106147728016
 31
0.0
  0
LINE
  5
29AB
330
1F
100
AcDbEntity
  8
0
100
AcDbLine
 10
748.3453379416974
 20
226.1106147728016
 30
0.0
 11
748.3453379416974
 21
224.1106147728016
 31
0.0
  0
ARC
  5
29AC
330
1F
100
AcDbEntity
  8
0
100
AcDbCircle
 10
748.3243769427993
 20
221.8791600452258
 30
0.0
 40
3.768603565485
100
AcDbArc
 50
256.0699585645965
 51
312.7236798454837
  0
ARC
  5
29AD
330
1F
100
AcDbEntity
  8
0
100
AcDbCircle
 10
754.3453379416976
 20
224.6106147728018
 30
0.0
 40
6.500000000000228
100
AcDbArc
 50
237.7957724960285
 51
302.204227503967
  0
ARC
  5
29AE
330
1F
100
AcDbEntity
  8
0
100
AcDbCircle
 10
754.3453379416976
 20
217.6106147728016
 30
0.0
 40
6.500000000000228
100
AcDbArc
 50
57.79577249603295
 51
122.2042275039715
  0
ARC
  5
29AF
330
1F
100
AcDbEntity
  8
0
100
AcDbCircle
 10
760.3662989405959
 20
221.8791600452258
 30
0.0
 40
3.768603565485
100
AcDbArc
 50
227.2763201545163
 51
283.9300414354035
  0
ARC
  5
29B0
330
1F
100
AcDbEntity
  8
0
100
AcDbCircle
 10
748.3243769427993
 20
220.3420695003775
 30
0.0
 40
3.768603565485
100
AcDbArc
 50
47.27632015451622
 51
103.9300414354035
  0
ARC
  5
29B1
330
1F
100
AcDbEntity
  8
0
100
AcDbCircle
 10
760.3662989405959
 20
220.3420695003775
 30
0.0
 40
3.768603565485
100
AcDbArc
 50
76.06995856459652
 51
132.7236798454837
  0
LINE
  5
29B3
330
1F
100
AcDbEntity
  8
AM_7
100
AcDbLine
 10
754.3453379416973
 20
139.9957798915226
 30
0.0
 11
754.3453379416973
 21
241.5235898486846
 31
0.0
1001
GENIUS_GENODEF_13
1002
{
1000
HIER
1070
     0
1002
}
1002
{
1000
MANEDIT
1070
     0
1002
}
1002
{
1000
NOSEL
1070
     0
1002
}
1002
{
1000
BEHIND
1070
     0
1002
}
1002
{
1000
OTHER
1070
     0
1002
}
1002
{
1000
REACTOR
1002
}
1001
GENIUS_GENOBJ-N-CEN_13
1002
{
1000
OWNER
1000
GEN
1002
}
1001
GENIUS_GENCEN_19
1002
{
1040
3.0
1002
}
  0
LINE
  5
29B4
330
1F
100
AcDbEntity
  8
0
100
AcDbLine
 10
760.5414903644041
 20
152.1106147728017
 30
0.0
 11
767.3707258267163
 21
152.1106147728017
 31
0.0
  0
ARC
  5
29B5
330
1F
100
AcDbEntity
  8
0
100
AcDbCircle
 10
760.5414903644039
 20
153.1106147728018
 30
0.0
 40
1.0
100
AcDbArc
 50
180.0
 51
270.0
  0
LINE
  5
29B6
330
1F
100
AcDbEntity
  8
0
100
AcDbLine
 10
752.1491855189906
 20
141.7183099273882
 30
0.0
 11
767.4635435961272
 21
141.7183099273882
 31
0.0
  0
ARC
  5
29B7
330
1F
100
AcDbEntity
  8
0
100
AcDbCircle
 10
752.1491855189903
 20
144.7183099273883
 30
0.0
 40
3.0
100
AcDbArc
 50
180.0
 51
270.0
  0
LINE
  5
29B8
330
1F
100
AcDbEntity
  8
0
100
AcDbLine
 10
759.5414903644041
 20
153.1106147728017
 30
0.0
 11
759.5414903644041
 21
155.7183099273882
 31
0.0
  0
LINE
  5
29B9
330
1F
100
AcDbEntity
  8
0
100
AcDbLine
 10
749.1491855189906
 20
144.7183099273882
 30
0.0
 11
749.1491855189906
 21
155.7183099273882
 31
0.0
  0
LINE
  5
29BA
330
1F
100
AcDbEntity
  8
0
100
AcDbLine
 10
747.4171347114218
 20
163.7183099273882
 30
0.0
 11
747.4171347114218
 21
157.7183099273882
 31
0.0
  0
LINE
  5
29BB
330
1F
100
AcDbEntity
  8
0
100
AcDbLine
 10
747.4171347114218
 20
157.7183099273882
 30
0.0
 11
761.2735411719727
 21
157.7183099273882
 31
0.0
  0
LINE
  5
29BC
330
1F
100
AcDbEntity
  8
0
100
AcDbLine
 10
747.4171347114218
 20
163.7183099273882
 30
0.0
 11
761.273541171973
 21
163.7183099273882
 31
0.0
  0
LINE
  5
29BD
330
1F
100
AcDbEntity
  8
0
100
AcDbLine
 10
761.273541171973
 20
163.7183099273882
 30
0.0
 11
761.273541171973
 21
157.7183099273882
 31
0.0
  0
LINE
  5
29BE
330
1F
100
AcDbEntity
  8
0
100
AcDbLine
 10
750.8812363265596
 20
162.7183099273882
 30
0.0
 11
750.8812363265596
 21
158.718309927388
 31
0.0
  0
LINE
  5
29BF
330
1F
100
AcDbEntity
  8
0
100
AcDbLine
 10
757.809439556835
 20
162.7183099273884
 30
0.0
 11
757.809439556835
 21
158.7183099273878
 31
0.0
  0
LINE
  5
29C0
330
1F
100
AcDbEntity
  8
0
100
AcDbLine
 10
748.3453379416974
 20
165.7183099273882
 30
0.0
 11
760.3453379416974
 21
165.7183099273882
 31
0.0
  0
LINE
  5
29C1
330
1F
100
AcDbEntity
  8
0
100
AcDbLine
 10
760.3453379416974
 20
165.7183099273882
 30
0.0
 11
760.3453379416974
 21
163.7183099273882
 31
0.0
  0
LINE
  5
29C2
330
1F
100
AcDbEntity
  8
0
100
AcDbLine
 10
748.3453379416974
 20
165.7183099273882
 30
0.0
 11
748.3453379416974
 21
163.7183099273882
 31
0.0
  0
LINE
  5
29C3
330
1F
100
AcDbEntity
  8
0
100
AcDbLine
 10
748.3453379416974
 20
155.7183099273882
 30
0.0
 11
760.3453379416974
 21
155.7183099273882
 31
0.0
  0
LINE
  5
29C4
330
1F
100
AcDbEntity
  8
0
100
AcDbLine
 10
760.3453379416974
 20
155.7183099273882
 30
0.0
 11
760.3453379416974
 21
157.7183099273882
 31
0.0
  0
LINE
  5
29C5
330
1F
100
AcDbEntity
  8
0
100
AcDbLine
 10
748.3453379416974
 20
155.7183099273882
 30
0.0
 11
748.3453379416974
 21
157.7183099273882
 31
0.0
  0
ARC
  5
29C6
330
1F
100
AcDbEntity
  8
0
100
AcDbCircle
 10
748.3243769427993
 20
159.949764654964
 30
0.0
 40
3.768603565485
100
AcDbArc
 50
47.27632015451625
 51
103.9300414354035
  0
ARC
  5
29C7
330
1F
100
AcDbEntity
  8
0
100
AcDbCircle
 10
754.3453379416976
 20
157.2183099273881
 30
0.0
 40
6.500000000000228
100
AcDbArc
 50
57.795772496033
 51
122.2042275039714
  0
ARC
  5
29C8
330
1F
100
AcDbEntity
  8
0
100
AcDbCircle
 10
754.3453379416976
 20
164.2183099273883
 30
0.0
 40
6.500000000000228
100
AcDbArc
 50
237.7957724960285
 51
302.204227503967
  0
ARC
  5
29C9
330
1F
100
AcDbEntity
  8
0
100
AcDbCircle
 10
760.3662989405959
 20
159.949764654964
 30
0.0
 40
3.768603565485
100
AcDbArc
 50
76.06995856459649
 51
132.7236798454837
  0
ARC
  5
29CA
330
1F
100
AcDbEntity
  8
0
100
AcDbCircle
 10
748.3243769427993
 20
161.4868551998123
 30
0.0
 40
3.768603565485
100
AcDbArc
 50
256.0699585645965
 51
312.7236798454837
  0
ARC
  5
29CB
330
1F
100
AcDbEntity
  8
0
100
AcDbCircle
 10
760.3662989405959
 20
161.4868551998123
 30
0.0
 40
3.768603565485
100
AcDbArc
 50
227.2763201545163
 51
283.9300414354034
  0
LINE
  5
29CF
330
1F
100
AcDbEntity
  8
0
100
AcDbLine
 10
757.3453379416974
 20
165.7183099273882
 30
0.0
 11
757.3453379416974
 21
216.1106147728016
 31
0.0
  0
LINE
  5
29D0
330
1F
100
AcDbEntity
  8
0
100
AcDbLine
 10
751.3453379416973
 20
165.7183099273882
 30
0.0
 11
751.3453379416973
 21
216.1106147728016
 31
0.0
  0
LINE
  5
29D2
330
1F
100
AcDbEntity
  8
0
100
AcDbLine
 10
751.8722222139825
 20
331.0459565329156
 30
0.0
 11
767.5420951950602
 21
331.0459565329156
 31
0.0
  0
LINE
  5
29D3
330
1F
100
AcDbEntity
  8
0
100
AcDbLine
 10
751.8722222139822
 20
340.0459565329156
 30
0.0
 11
767.5420951950602
 21
340.0459565329156
 31
0.0
  0
LINE
  5
29D4
330
1F
100
AcDbEntity
  8
0
100
AcDbLine
 10
767.5420951950602
 20
331.0459565329156
 30
0.0
 11
767.5420951950602
 21
340.0459565329156
 31
0.0
  0
LWPOLYLINE
  5
29D5
330
1F
100
AcDbEntity
  8
0
100
AcDbPolyline
 90
        7
 70
     0
 43
0.0
 10
758.8004254442578
 20
340.0459565329156
 10
757.9344000404735
 20
341.5459565329156
 10
751.0061968101982
 20
341.5459565329156
 10
747.5420951950602
 20
335.5459565329156
 10
751.0061968101982
 20
329.5459565329156
 10
757.9344000404735
 20
329.5459565329156
 10
758.8004254442578
 20
331.0459565329156
  0
ARC
  5
29D6
330
1F
100
AcDbEntity
  8
0
100
AcDbCircle
 10
754.4702984253356
 20
335.5459565329156
 30
0.0
 40
6.0
100
AcDbArc
 50
48.59037789072921
 51
311.4096221092704
  0
LINE
  5
29D7
330
1F
100
AcDbEntity
  8
AM_7
  6
AM_ISO08W050x2
100
AcDbLine
 10
754.4702984253358
 20
335.5459565329156
 30
0.0
 11
754.4702984253358
 21
344.5459565329156
 31
0.0
1001
GENIUS_GENOREF_13
1005
29DD
  0
LINE
  5
29D8
330
1F
100
AcDbEntity
  8
AM_7
  6
AM_ISO08W050x2
100
AcDbLine
 10
754.4702984253358
 20
335.5459565329156
 30
0.0
 11
745.4702984253358
 21
335.5459565329156
 31
0.0
1001
GENIUS_GENOREF_13
1005
29DD
  0
LINE
  5
29D9
330
1F
100
AcDbEntity
  8
AM_7
  6
AM_ISO08W050x2
100
AcDbLine
 10
754.4702984253358
 20
335.5459565329156
 30
0.0
 11
754.4702984253358
 21
326.5459565329156
 31
0.0
1001
GENIUS_GENOREF_13
1005
29DD
  0
LINE
  5
29DA
330
1F
100
AcDbEntity
  8
AM_7
  6
AM_ISO08W050x2
100
AcDbLine
 10
754.4702984253358
 20
335.5459565329156
 30
0.0
 11
770.3228296853588
 21
335.5459565329156
 31
0.0
1001
GENIUS_GENOREF_13
1005
29DD
  0
LINE
  5
29DB
330
1F
100
AcDbEntity
  8
0
100
AcDbLine
 10
751.8722222139825
 20
340.0459565329156
 30
0.0
 11
749.2741460026291
 21
335.5459565329156
 31
0.0
  0
LINE
  5
29DC
330
1F
100
AcDbEntity
  8
0
100
AcDbLine
 10
749.2741460026291
 20
335.5459565329156
 30
0.0
 11
751.8722222139825
 21
331.0459565329156
 31
0.0
  0
POINT
  5
29DD
330
1F
100
AcDbEntity
  8
0
 60
     1
100
AcDbPoint
 10
-39.33833936743736
 20
-343.5745874980007
 30
0.0
1001
GENIUS_GENOLIS_13
1002
{
1000
ENT
1005
29DA
1005
29D9
1005
29D8
1005
29D7
1002
}
1001
GENIUS_GENOENT_13
1002
{
1000
MYREF
1005
29DD
1002
}
1002
{
1000
GRP
1005
0
1002
}
1001
GENIUS_GENODEF_13
1002
{
1000
HIER
1070
    10
1002
}
1002
{
1000
MANEDIT
1070
     0
1002
}
1002
{
1000
NOSEL
1070
     0
1002
}
1002
{
1000
BEHIND
1070
     0
1002
}
1002
{
1000
OTHER
1070
     0
1002
}
1002
{
1000
REACTOR
1002
}
1001
GENIUS_GENOBJ-N-CRS_13
1002
{
1000
OWNER
1000
GEN
1002
}
  0
DIMENSION
  5
29DE
330
1F
100
AcDbEntity
  8
AM_5
100
AcDbDimension
  2
*D5
 10
747.5420951950602
 20
292.8048677255556
 30
0.0
 11
775.04209519506
 21
292.8048677255556
 31
0.0
 70
   160
 71
     5
 42
52.99999999999977
  3
AM_ISO$0
100
AcDbAlignedDimension
 13
800.54209519506
 23
300.4089702315457
 33
0.0
 14
747.5420951950602
 24
335.5459565329156
 34
0.0
 50
180.0
100
AcDbRotatedDimension
1001
ACAD
1000
DSTYLE
1002
{
1070
    40
1040
1.0
1070
   144
1040
1.0
1070
   272
1070
     8
1002
}
  0
DIMENSION
  5
29E1
330
1F
100
AcDbEntity
  8
AM_5
100
AcDbDimension
  2
*D6
 10
843.54209519506
 20
321.5459565329156
 30
0.0
 11
843.54209519506
 21
335.5459565329156
 31
0.0
 70
   160
 71
     5
 42
28.0
  3
AM_ISO$0
100
AcDbAlignedDimension
 13
813.0145648783264
 23
349.5459565329156
 33
0.0
 14
813.0145648783265
 24
321.5459565329156
 34
0.0
 50
90.0
100
AcDbRotatedDimension
1001
ACAD
1000
DSTYLE
1002
{
1070
    40
1040
1.0
1070
   144
1040
1.0
1070
   272
1070
     8
1002
}
  0
DIMENSION
  5
29E4
330
1F
100
AcDbEntity
  8
AM_5
100
AcDbDimension
  2
*D7
 10
851.54209519506
 20
311.5459565329156
 30
0.0
 11
849.0420951950598
 21
335.5459565329157
 31
0.0
 70
    32
 71
     5
 42
47.99999999999989
  3
AM_ISO$0
100
AcDbAlignedDimension
 13
831.6420951950599
 23
359.5459565329155
 33
0.0
 14
831.6420951950599
 24
311.5459565329156
 34
0.0
 50
90.0
100
AcDbRotatedDimension
1001
ACAD
1000
DSTYLE
1002
{
1070
    40
1040
1.0
1070
   144
1040
1.0
1070
   272
1070
     8
1002
}
  0
DIMENSION
  5
29E7
330
1F
100
AcDbEntity
  8
AM_5
100
AcDbDimension
  2
*D8
 10
859.54209519506
 20
302.5459565329156
 30
0.0
 11
857.0420951950598
 21
335.5459565329157
 31
0.0
 70
    32
  1
{\Famgdt;o}<>
 71
     5
 42
66.0
  3
AM_ISO$0
100
AcDbAlignedDimension
 13
828.54209519506
 23
368.5459565329156
 33
0.0
 14
828.54209519506
 24
302.5459565329156
 34
0.0
 50
90.0
100
AcDbRotatedDimension
1001
ACAD
1000
DSTYLE
1002
{
1070
    40
1040
1.0
1070
   144
1040
1.0
1070
   272
1070
     8
1002
}
  0
TEXT
  5
29EA
330
1F
100
AcDbEntity
  8
AM_5
100
AcDbText
 10
840.7964005204137
 20
292.7730366302085
 30
0.0
 40
3.0
  1
4-M8x1.25
100
AcDbText
  0
INSERT
  5
29EB
330
1F
100
AcDbEntity
  8
AM_5
100
AcDbBlockReference
  2
*S24
 10
0.0
 20
0.0
 30
0.0
  0
INSERT
  5
2A88
330
1F
100
AcDbEntity
  8
AM_0
100
AcDbBlockReference
  2
*U20
 10
0.0
 20
0.0
 30
0.0
  0
INSERT
  5
2A89
330
1F
100
AcDbEntity
  8
AM_0
100
AcDbBlockReference
  2
*U21
 10
0.0
 20
0.0
 30
0.0
  0
INSERT
  5
2A8A
330
1F
100
AcDbEntity
  8
AM_0
100
AcDbBlockReference
  2
*U22
 10
0.0
 20
0.0
 30
0.0
  0
INSERT
  5
2A8B
330
1F
100
AcDbEntity
  8
AM_0
100
AcDbBlockReference
  2
*U23
 10
0.0
 20
0.0
 30
0.0
  0
LINE
  5
2B37
330
1F
100
AcDbEntity
  8
0
100
AcDbLine
 10
782.7920951950598
 20
269.9144623500949
 30
0.0
 11
818.2920951950597
 21
269.9144623500949
 31
0.0
  0
LINE
  5
2B38
330
1F
100
AcDbEntity
  8
AM_7
100
AcDbLine
 10
800.54209519506
 20
356.1039149127555
 30
0.0
 11
800.54209519506
 21
314.7244345841036
 31
0.0
  0
LINE
  5
2B39
330
1F
100
AcDbEntity
  8
0
100
AcDbLine
 10
819.2920951950597
 20
268.9144623500949
 30
0.0
 11
819.2920951950597
 21
260.4144623500949
 31
0.0
  0
LINE
  5
2B3A
330
1F
100
AcDbEntity
  8
0
100
AcDbLine
 10
781.7920951950598
 20
268.9144623500949
 30
0.0
 11
781.7920951950598
 21
260.4144623500949
 31
0.0
  0
LINE
  5
2B3B
330
1F
100
AcDbEntity
  8
0
100
AcDbLine
 10
782.2920951950598
 20
259.9144623500949
 30
0.0
 11
818.7920951950598
 21
259.9144623500949
 31
0.0
  0
LINE
  5
2B47
330
1F
100
AcDbEntity
  8
0
100
AcDbLine
 10
788.0696255117934
 20
261.9144623500949
 30
0.0
 11
813.0145648783264
 21
261.9144623500949
 31
0.0
  0
LINE
  5
2B48
330
1F
100
AcDbEntity
  8
0
100
AcDbLine
 10
819.2920951950597
 20
260.4144623500949
 30
0.0
 11
818.7920951950598
 21
259.9144623500949
 31
0.0
  0
LINE
  5
2B49
330
1F
100
AcDbEntity
  8
0
100
AcDbLine
 10
782.2920951950598
 20
259.9144623500949
 30
0.0
 11
781.7920951950598
 21
260.4144623500949
 31
0.0
  0
LINE
  5
2B4A
330
1F
100
AcDbEntity
  8
0
100
AcDbLine
 10
818.2920951950597
 20
269.9144623500949
 30
0.0
 11
819.2920951950597
 21
268.9144623500949
 31
0.0
  0
LINE
  5
2B4B
330
1F
100
AcDbEntity
  8
0
100
AcDbLine
 10
782.7920951950598
 20
269.9144623500949
 30
0.0
 11
781.7920951950598
 21
268.9144623500949
 31
0.0
  0
LINE
  5
2B4C
330
1F
100
AcDbEntity
  8
0
100
AcDbLine
 10
781.7920951950598
 20
260.4144623500949
 30
0.0
 11
819.2920951950597
 21
260.4144623500949
 31
0.0
  0
LINE
  5
2B4D
330
1F
100
AcDbEntity
  8
0
100
AcDbLine
 10
781.7920951950598
 20
268.9144623500949
 30
0.0
 11
788.0696255117934
 21
268.9144623500949
 31
0.0
  0
LINE
  5
2B4E
330
1F
100
AcDbEntity
  8
AM_7
100
AcDbLine
 10
779.4721991099727
 20
335.5459565329156
 30
0.0
 11
820.5624819543459
 21
335.5459565329156
 31
0.0
  0
CIRCLE
  5
2B4F
330
1F
100
AcDbEntity
  8
0
100
AcDbCircle
 10
800.54209519506
 20
335.5459565329156
 30
0.0
 40
18.75000000000003
  0
ARC
  5
2B50
330
1F
100
AcDbEntity
  8
0
100
AcDbCircle
 10
800.54209519506
 20
335.5459565329156
 30
0.0
 40
17.75000000000003
100
AcDbArc
 50
307.932790919286
 51
52.06720908071402
  0
LINE
  5
2B51
330
1F
100
AcDbEntity
  8
0
100
AcDbLine
 10
788.0696255117936
 20
349.5459565329156
 30
0.0
 11
813.0145648783264
 21
349.5459565329156
 31
0.0
  0
LINE
  5
2B52
330
1F
100
AcDbEntity
  8
0
100
AcDbLine
 10
788.0696255117936
 20
321.5459565329156
 30
0.0
 11
813.0145648783265
 21
321.5459565329156
 31
0.0
  0
ARC
  5
2B53
330
1F
100
AcDbEntity
  8
0
100
AcDbCircle
 10
800.54209519506
 20
335.5459565329156
 30
0.0
 40
17.75000000000003
100
AcDbArc
 50
127.9327909192859
 51
232.067209080714
  0
LINE
  5
2B54
330
1F
100
AcDbEntity
  8
0
  6
CENTER
 62
     1
100
AcDbLine
 10
800.5420951950597
 20
271.2652256410781
 30
0.0
 11
800.54209519506
 21
257.5898439955865
 31
0.0
  0
LINE
  5
2B55
330
1F
100
AcDbEntity
  8
0
100
AcDbLine
 10
813.0145648783264
 20
269.9144623500949
 30
0.0
 11
813.0145648783264
 21
261.9144623500949
 31
0.0
  0
LINE
  5
2B56
330
1F
100
AcDbEntity
  8
0
100
AcDbLine
 10
788.0696255117934
 20
269.9144623500949
 30
0.0
 11
788.0696255117934
 21
261.9144623500949
 31
0.0
  0
LINE
  5
2B57
330
1F
100
AcDbEntity
  8
0
100
AcDbLine
 10
813.0145648783264
 20
268.9144623500949
 30
0.0
 11
819.2920951950597
 21
268.9144623500949
 31
0.0
  0
LINE
  5
2B5F
330
1F
100
AcDbEntity
  8
0
100
AcDbLine
 10
788.0696255117934
 20
269.9144623500949
 30
0.0
 11
813.0145648783264
 21
261.9144623500949
 31
0.0
  0
LINE
  5
2B60
330
1F
100
AcDbEntity
  8
0
100
AcDbLine
 10
813.0145648783264
 20
269.9144623500949
 30
0.0
 11
788.0696255117934
 21
261.9144623500949
 31
0.0
  0
LINE
  5
2C19
330
1F
100
AcDbEntity
  8
0
100
AcDbLine
 10
913.0619027033535
 20
259.9144623500822
 30
0.0
 11
950.5619027033535
 21
259.9144623500822
 31
0.0
  0
LINE
  5
2C1A
330
1F
100
AcDbEntity
  8
0
100
AcDbLine
 10
913.0619027033535
 20
259.9144623500822
 30
0.0
 11
913.0619027033537
 21
261.9144623500822
 31
0.0
  0
LINE
  5
2C1B
330
1F
100
AcDbEntity
  8
0
100
AcDbLine
 10
950.5619027033535
 20
259.9144623500822
 30
0.0
 11
950.5619027033535
 21
261.9144623500822
 31
0.0
  0
LINE
  5
2C1C
330
1F
100
AcDbEntity
  8
0
100
AcDbLine
 10
913.0619027033537
 20
261.9144623500822
 30
0.0
 11
950.5619027033535
 21
261.9144623500822
 31
0.0
  0
LINE
  5
2C29
330
1F
100
AcDbEntity
  8
AM_7
  6
AM_ISO08W050x2
100
AcDbLine
 10
931.8119027033535
 20
258.3696458832465
 30
0.0
 11
931.8119027033535
 21
271.3542538043616
 31
0.0
1001
GENIUS_GENODEF_13
1002
{
1000
HIER
1070
     0
1002
}
1002
{
1000
MANEDIT
1070
     0
1002
}
1002
{
1000
NOSEL
1070
     0
1002
}
1002
{
1000
BEHIND
1070
     0
1002
}
1002
{
1000
OTHER
1070
     0
1002
}
1002
{
1000
REACTOR
1002
}
1001
GENIUS_GENOBJ-N-CEN_13
1002
{
1000
OWNER
1000
GEN
1002
}
1001
GENIUS_GENCEN_19
1002
{
1040
3.0
1002
}
  0
LINE
  5
2C2A
330
1F
100
AcDbEntity
  8
0
100
AcDbLine
 10
917.8119027033538
 20
269.9144623500822
 30
0.0
 11
945.8119027033538
 21
269.9144623500822
 31
0.0
  0
LINE
  5
2C2C
330
1F
100
AcDbEntity
  8
0
100
AcDbLine
 10
917.8119027033535
 20
261.9144623500822
 30
0.0
 11
917.8119027033538
 21
269.9144623500822
 31
0.0
1001
GENIUS_GENODEF_13
1002
{
1000
HIER
1070
     0
1002
}
1002
{
1000
MANEDIT
1070
     0
1002
}
1002
{
1000
NOSEL
1070
     0
1002
}
1002
{
1000
BEHIND
1070
     0
1002
}
1002
{
1000
OTHER
1070
     0
1002
}
1002
{
1000
REACTOR
1002
}
1001
GENIUS_GENOBJ-N-CEN_13
1002
{
1000
OWNER
1000
GEN
1002
}
1001
GENIUS_GENCEN_19
1002
{
1040
3.0
1002
}
  0
LINE
  5
2C2D
330
1F
100
AcDbEntity
  8
0
100
AcDbLine
 10
945.8119027033536
 20
261.9144623500822
 30
0.0
 11
945.8119027033538
 21
269.9144623500822
 31
0.0
1001
GENIUS_GENODEF_13
1002
{
1000
HIER
1070
     0
1002
}
1002
{
1000
MANEDIT
1070
     0
1002
}
1002
{
1000
NOSEL
1070
     0
1002
}
1002
{
1000
BEHIND
1070
     0
1002
}
1002
{
1000
OTHER
1070
     0
1002
}
1002
{
1000
REACTOR
1002
}
1001
GENIUS_GENOBJ-N-CEN_13
1002
{
1000
OWNER
1000
GEN
1002
}
1001
GENIUS_GENCEN_19
1002
{
1040
3.0
1002
}
  0
LINE
  5
2C2E
330
1F
100
AcDbEntity
  8
0
100
AcDbLine
 10
917.8119027033535
 20
268.9144623500822
 30
0.0
 11
945.8119027033538
 21
268.9144623500822
 31
0.0
  0
DIMENSION
  5
2C2F
330
1F
100
AcDbEntity
  8
AM_5
100
AcDbDimension
  2
*D11
 10
843.669268941568
 20
146.9144623500948
 30
0.0
 11
841.1692689415682
 21
139.914462350095
 31
0.0
 70
    32
 71
     5
 42
13.99999999999989
  3
AM_ISO$0
100
AcDbAlignedDimension
 13
833.046461923654
 23
132.9144623500949
 33
0.0
 14
812.1920951950601
 24
146.9144623500948
 34
0.0
 50
90.0
100
AcDbRotatedDimension
1001
ACAD
1000
DSTYLE
1002
{
1070
    40
1040
1.0
1070
   144
1040
1.0
1070
   272
1070
     8
1002
}
  0
DIMENSION
  5
2C32
330
1F
100
AcDbEntity
  8
AM_5
100
AcDbDimension
  2
*D12
 10
851.669268941568
 20
160.9144623500949
 30
0.0
 11
849.1689736659775
 21
146.914462350095
 31
0.0
 70
    32
 71
     5
 42
28.00000000000009
  3
AM_ISO$0
100
AcDbAlignedDimension
 13
833.046461923654
 23
132.9144623500948
 33
0.0
 14
833.79209519506
 24
160.9144623500949
 34
0.0
 50
90.0
100
AcDbRotatedDimension
1001
ACAD
1000
DSTYLE
1002
{
1070
    40
1040
1.0
1070
   144
1040
1.0
1070
   272
1070
     8
1002
}
  0
DIMENSION
  5
2C35
330
1F
100
AcDbEntity
  8
AM_5
100
AcDbDimension
  2
*D9
 10
843.669268941568
 20
132.9144623500949
 30
0.0
 11
843.669268941568
 21
119.5523303157391
 31
0.0
 70
   160
 71
     5
 42
3.000000000000028
  3
AM_ISO$0
100
AcDbAlignedDimension
 13
819.3515825676136
 23
129.9144623500949
 33
0.0
 14
833.046461923654
 24
132.9144623500949
 34
0.0
 50
90.0
100
AcDbRotatedDimension
1001
ACAD
1000
DSTYLE
1002
{
1070
    40
1040
1.0
1070
   144
1040
1.0
1070
   272
1070
     8
1002
}
  0
DIMENSION
  5
2C36
330
1F
100
AcDbEntity
  8
AM_5
100
AcDbDimension
  2
*D13
 10
867.6692689415686
 20
269.9144623500949
 30
0.0
 11
864.7406284500364
 21
199.914462350095
 31
0.0
 70
    32
  1
90+length
 71
     5
 42
140.0
  3
AM_ISO$0
100
AcDbAlignedDimension
 13
820.0420951950597
 23
129.9144623500949
 33
0.0
 14
818.2920951950597
 24
269.9144623500949
 34
0.0
 50
90.0
100
AcDbRotatedDimension
1001
ACAD
1000
DSTYLE
1002
{
1070
    40
1040
1.0
1070
   144
1040
1.0
1070
   272
1070
     8
1002
}
  0
DIMENSION
  5
2C39
330
1F
100
AcDbEntity
  8
AM_5
100
AcDbDimension
  2
*D14
 10
851.6692689415679
 20
259.9144623500949
 30
0.0
 11
849.1692689415678
 21
254.414462350095
 31
0.0
 70
    32
 71
     5
 42
11.00000000000008
  3
AM_ISO$0
100
AcDbAlignedDimension
 13
833.046461923654
 23
248.9144623500948
 33
0.0
 14
819.1420951950599
 24
259.9144623500949
 34
0.0
 50
90.0
100
AcDbRotatedDimension
1001
ACAD
1000
DSTYLE
1002
{
1070
    40
1040
1.0
1070
   144
1040
1.0
1070
   272
1070
     8
1002
}
  0
DIMENSION
  5
2C3C
330
1F
100
AcDbEntity
  8
AM_5
100
AcDbDimension
  2
*D10
 10
859.669268941568
 20
269.9144623500949
 30
0.0
 11
857.1689736659774
 21
259.414462350095
 31
0.0
 70
    32
 71
     5
 42
21.00000000000008
  3
AM_ISO$0
100
AcDbAlignedDimension
 13
833.046461923654
 23
248.9144623500948
 33
0.0
 14
818.2920951950597
 24
269.9144623500949
 34
0.0
 50
90.0
100
AcDbRotatedDimension
1001
ACAD
1000
DSTYLE
1002
{
1070
    40
1040
1.0
1070
   144
1040
1.0
1070
   272
1070
     8
1002
}
  0
DIMENSION
  5
2C3D
330
1F
100
AcDbEntity
  8
AM_5
100
AcDbDimension
  2
*D15
 10
859.669268941568
 20
248.914462350095
 30
0.0
 11
856.7399034115068
 21
190.914462350095
 31
0.0
 70
    32
  1
66+length
 71
     5
 42
116.0
  3
AM_ISO$0
100
AcDbAlignedDimension
 13
833.046461923654
 23
132.9144623500949
 33
0.0
 14
833.046461923654
 24
248.914462350095
 34
0.0
 50
90.0
100
AcDbRotatedDimension
1001
ACAD
1000
DSTYLE
1002
{
1070
    40
1040
1.0
1070
   144
1040
1.0
1070
   272
1070
     8
1002
}
  0
DIMENSION
  5
2C40
330
1F
100
AcDbEntity
  8
AM_5
100
AcDbDimension
  2
*D16
 10
851.6692689415679
 20
248.914462350095
 30
0.0
 11
849.1689736659774
 21
234.9144623500951
 31
0.0
 70
    32
 71
     5
 42
28.0
  3
AM_ISO$0
100
AcDbAlignedDimension
 13
833.79209519506
 23
220.9144623500949
 33
0.0
 14
833.046461923654
 24
248.914462350095
 34
0.0
 50
90.0
100
AcDbRotatedDimension
1001
ACAD
1000
DSTYLE
1002
{
1070
    40
1040
1.0
1070
   144
1040
1.0
1070
   272
1070
     8
1002
}
  0
DIMENSION
  5
2C43
330
1F
100
AcDbEntity
  8
AM_5
100
AcDbDimension
  2
*D17
 10
843.6692689415679
 20
234.9144623500948
 30
0.0
 11
841.1692689415678
 21
241.9144623500951
 31
0.0
 70
    32
 71
     5
 42
14.00000000000008
  3
AM_ISO$0
100
AcDbAlignedDimension
 13
833.046461923654
 23
248.914462350095
 33
0.0
 14
812.1920951950601
 24
234.9144623500949
 34
0.0
 50
90.0
100
AcDbRotatedDimension
1001
ACAD
1000
DSTYLE
1002
{
1070
    40
1040
1.0
1070
   144
1040
1.0
1070
   272
1070
     8
1002
}
  0
LINE
  5
2DB6
330
1F
100
AcDbEntity
  8
0
100
AcDbLine
 10
820.54209519506
 20
132.9144623500949
 30
0.0
 11
820.5420951950598
 21
130.4144623500949
 31
0.0
  0
LINE
  5
2DB7
330
1F
100
AcDbEntity
  8
0
100
AcDbLine
 10
820.0420951950597
 20
129.9144623500949
 30
0.0
 11
781.04209519506
 21
129.9144623500949
 31
0.0
  0
LINE
  5
2DB8
330
1F
100
AcDbEntity
  8
0
100
AcDbLine
 10
780.54209519506
 20
130.4144623500949
 30
0.0
 11
780.54209519506
 21
132.9144623500949
 31
0.0
  0
LINE
  5
2DBA
330
1F
100
AcDbEntity
  8
0
100
AcDbLine
 10
780.54209519506
 20
130.4144623500949
 30
0.0
 11
781.04209519506
 21
129.9144623500949
 31
0.0
  0
LINE
  5
2DBB
330
1F
100
AcDbEntity
  8
0
100
AcDbLine
 10
820.0420951950597
 20
129.9144623500949
 30
0.0
 11
820.5420951950598
 21
130.4144623500949
 31
0.0
  0
DIMENSION
  5
2DC6
330
1F
100
AcDbEntity
  8
AM_5
100
AcDbDimension
  2
*D18
 10
820.5420951950598
 20
119.9144623500949
 30
0.0
 11
800.5420951950599
 21
122.414462350095
 31
0.0
 70
    32
  1
%%c<>
 71
     5
 42
39.99999999999977
  3
AM_ISO$0
100
AcDbAlignedDimension
 13
780.54209519506
 23
130.4144623500949
 33
0.0
 14
820.5420951950598
 24
130.4144623500949
 34
0.0
100
AcDbRotatedDimension
1001
ACAD
1000
DSTYLE
1002
{
1070
    40
1040
1.0
1070
   144
1040
1.0
1070
   272
1070
     8
1002
}
  0
INSERT
  5
2DC9
330
1F
100
AcDbEntity
  8
AM_5
100
AcDbBlockReference
  2
*S25
 10
0.0
 20
0.0
 30
0.0
  0
TEXT
  5
2DCA
330
1F
100
AcDbEntity
  8
AM_5
100
AcDbText
 10
757.2807477728938
 20
123.0791417745245
 30
0.0
 40
3.0
  1
2-PT1/4
100
AcDbText
  0
LINE
  5
3027
330
1F
100
AcDbEntity
  8
0
100
AcDbLine
 10
1179.802256785976
 20
232.2250508521844
 30
0.0
 11
1069.802256785975
 21
232.2250508521844
 31
0.0
  0
LINE
  5
3028
330
1F
100
AcDbEntity
  8
0
100
AcDbLine
 10
1179.802256785976
 20
220.2250508521844
 30
0.0
 11
1069.802256785975
 21
220.2250508521844
 31
0.0
  0
LINE
  5
3029
330
1F
100
AcDbEntity
  8
AM_7
100
AcDbLine
 10
1124.802256785976
 20
202.418558714886
 30
0.0
 11
1124.802256785976
 21
125.418558714886
 31
0.0
  0
CIRCLE
  5
302A
330
1F
100
AcDbEntity
  8
0
100
AcDbCircle
 10
1124.802256785976
 20
163.918558714886
 30
0.0
 40
20.0
  0
LINE
  5
302B
330
1F
100
AcDbEntity
  8
0
100
AcDbLine
 10
1043.511311158377
 20
200.418558714886
 30
0.0
 11
1043.511311158377
 21
127.418558714886
 31
0.0
  0
LINE
  5
302C
330
1F
100
AcDbEntity
  8
0
100
AcDbLine
 10
1069.802256785975
 20
199.918558714886
 30
0.0
 11
1069.802256785975
 21
127.918558714886
 31
0.0
  0
LINE
  5
302D
330
1F
100
AcDbEntity
  8
0
100
AcDbLine
 10
1179.802256785976
 20
199.918558714886
 30
0.0
 11
1179.802256785976
 21
127.918558714886
 31
0.0
  0
LINE
  5
302E
330
1F
100
AcDbEntity
  8
0
100
AcDbLine
 10
1031.511311158377
 20
200.418558714886
 30
0.0
 11
1031.511311158377
 21
127.418558714886
 31
0.0
  0
CIRCLE
  5
302F
330
1F
100
AcDbEntity
  8
0
100
AcDbCircle
 10
1148.802256785975
 20
139.918558714886
 30
0.0
 40
4.5
  0
CIRCLE
  5
3030
330
1F
100
AcDbEntity
  8
0
100
AcDbCircle
 10
1148.802256785975
 20
139.918558714886
 30
0.0
 40
7.0
  0
LINE
  5
3031
330
1F
100
AcDbEntity
  8
AM_7
100
AcDbLine
 10
1079.802256785975
 20
137.918558714886
 30
0.0
 11
1079.802256785975
 21
139.918558714886
 31
0.0
  0
LINE
  5
3032
330
1F
100
AcDbEntity
  8
AM_7
100
AcDbLine
 10
1169.802256785976
 20
137.918558714886
 30
0.0
 11
1169.802256785976
 21
139.918558714886
 31
0.0
  0
CIRCLE
  5
3033
330
1F
100
AcDbEntity
  8
0
100
AcDbCircle
 10
1079.802256785975
 20
138.918558714886
 30
0.0
 40
4.5
  0
CIRCLE
  5
3034
330
1F
100
AcDbEntity
  8
0
100
AcDbCircle
 10
1169.802256785976
 20
138.918558714886
 30
0.0
 40
4.5
  0
CIRCLE
  5
3035
330
1F
100
AcDbEntity
  8
0
100
AcDbCircle
 10
1100.802256785976
 20
139.918558714886
 30
0.0
 40
7.0
  0
CIRCLE
  5
3036
330
1F
100
AcDbEntity
  8
0
100
AcDbCircle
 10
1100.802256785976
 20
139.918558714886
 30
0.0
 40
4.5
  0
LINE
  5
3037
330
1F
100
AcDbEntity
  8
0
100
AcDbLine
 10
1070.302256785976
 20
127.418558714886
 30
0.0
 11
1179.302256785976
 21
127.418558714886
 31
0.0
  0
LINE
  5
3038
330
1F
100
AcDbEntity
  8
0
100
AcDbLine
 10
1070.302256785976
 20
127.418558714886
 30
0.0
 11
1069.802256785975
 21
127.918558714886
 31
0.0
  0
LINE
  5
3039
330
1F
100
AcDbEntity
  8
0
100
AcDbLine
 10
1031.511311158377
 20
127.418558714886
 30
0.0
 11
1043.511311158377
 21
127.418558714886
 31
0.0
  0
LINE
  5
303A
330
1F
100
AcDbEntity
  8
AM_7
100
AcDbLine
 10
1079.802256785975
 20
136.918558714886
 30
0.0
 11
1079.802256785975
 21
133.418558714886
 31
0.0
  0
LINE
  5
303B
330
1F
100
AcDbEntity
  8
0
100
AcDbLine
 10
1179.802256785976
 20
127.918558714886
 30
0.0
 11
1179.302256785976
 21
127.418558714886
 31
0.0
  0
LINE
  5
303C
330
1F
100
AcDbEntity
  8
AM_7
100
AcDbLine
 10
1100.802256785976
 20
137.918558714886
 30
0.0
 11
1100.802256785976
 21
131.918558714886
 31
0.0
  0
LINE
  5
303D
330
1F
100
AcDbEntity
  8
AM_7
100
AcDbLine
 10
1148.802256785975
 20
137.918558714886
 30
0.0
 11
1148.802256785975
 21
131.918558714886
 31
0.0
  0
LINE
  5
303E
330
1F
100
AcDbEntity
  8
AM_7
100
AcDbLine
 10
1169.802256785976
 20
136.918558714886
 30
0.0
 11
1169.802256785976
 21
133.418558714886
 31
0.0
  0
LINE
  5
303F
330
1F
100
AcDbEntity
  8
AM_7
100
AcDbLine
 10
1066.742270076284
 20
163.918558714886
 30
0.0
 11
1183.711636495593
 21
163.918558714886
 31
0.0
  0
LINE
  5
3041
330
1F
100
AcDbEntity
  8
AM_7
100
AcDbLine
 10
1026.3460097992
 20
138.918558714886
 30
0.0
 11
1048.419611002783
 21
138.918558714886
 31
0.0
  0
LINE
  5
3042
330
1F
100
AcDbEntity
  8
0
  6
HIDDEN
 62
     3
100
AcDbLine
 10
1031.511311158377
 20
143.918558714886
 30
0.0
 11
1043.511311158377
 21
143.918558714886
 31
0.0
  0
LINE
  5
3043
330
1F
100
AcDbEntity
  8
AM_7
100
AcDbLine
 10
1079.802256785975
 20
140.918558714886
 30
0.0
 11
1079.802256785975
 21
144.418558714886
 31
0.0
  0
LINE
  5
3044
330
1F
100
AcDbEntity
  8
AM_7
100
AcDbLine
 10
1077.802256785975
 20
138.918558714886
 30
0.0
 11
1074.302256785975
 21
138.918558714886
 31
0.0
  0
LINE
  5
3045
330
1F
100
AcDbEntity
  8
AM_7
100
AcDbLine
 10
1078.802256785976
 20
138.918558714886
 30
0.0
 11
1080.802256785975
 21
138.918558714886
 31
0.0
  0
LINE
  5
3046
330
1F
100
AcDbEntity
  8
AM_7
100
AcDbLine
 10
1026.3460097992
 20
163.918558714886
 30
0.0
 11
1048.419611002783
 21
163.918558714886
 31
0.0
  0
LINE
  5
3047
330
1F
100
AcDbEntity
  8
AM_7
100
AcDbLine
 10
1100.802256785976
 20
141.918558714886
 30
0.0
 11
1100.802256785976
 21
147.918558714886
 31
0.0
  0
LINE
  5
3048
330
1F
100
AcDbEntity
  8
AM_7
100
AcDbLine
 10
1102.802256785976
 20
139.918558714886
 30
0.0
 11
1108.802256785976
 21
139.918558714886
 31
0.0
  0
LINE
  5
3049
330
1F
100
AcDbEntity
  8
AM_7
100
AcDbLine
 10
1098.802256785975
 20
139.918558714886
 30
0.0
 11
1092.802256785976
 21
139.918558714886
 31
0.0
  0
LINE
  5
304A
330
1F
100
AcDbEntity
  8
AM_7
100
AcDbLine
 10
1100.802256785976
 20
138.918558714886
 30
0.0
 11
1100.802256785976
 21
140.918558714886
 31
0.0
  0
LINE
  5
304B
330
1F
100
AcDbEntity
  8
AM_7
100
AcDbLine
 10
1099.802256785975
 20
139.918558714886
 30
0.0
 11
1101.802256785975
 21
139.918558714886
 31
0.0
  0
LINE
  5
304C
330
1F
100
AcDbEntity
  8
AM_7
100
AcDbLine
 10
1081.802256785975
 20
138.918558714886
 30
0.0
 11
1085.302256785976
 21
138.918558714886
 31
0.0
  0
LINE
  5
304D
330
1F
100
AcDbEntity
  8
AM_7
100
AcDbLine
 10
1148.802256785975
 20
141.918558714886
 30
0.0
 11
1148.802256785975
 21
147.918558714886
 31
0.0
  0
LINE
  5
304E
330
1F
100
AcDbEntity
  8
AM_7
100
AcDbLine
 10
1150.802256785976
 20
139.918558714886
 30
0.0
 11
1156.802256785975
 21
139.918558714886
 31
0.0
  0
LINE
  5
304F
330
1F
100
AcDbEntity
  8
AM_7
100
AcDbLine
 10
1146.802256785975
 20
139.918558714886
 30
0.0
 11
1140.802256785976
 21
139.918558714886
 31
0.0
  0
LINE
  5
3050
330
1F
100
AcDbEntity
  8
AM_7
100
AcDbLine
 10
1148.802256785975
 20
138.918558714886
 30
0.0
 11
1148.802256785975
 21
140.918558714886
 31
0.0
  0
LINE
  5
3051
330
1F
100
AcDbEntity
  8
AM_7
100
AcDbLine
 10
1147.802256785976
 20
139.918558714886
 30
0.0
 11
1149.802256785976
 21
139.918558714886
 31
0.0
  0
LINE
  5
3052
330
1F
100
AcDbEntity
  8
AM_7
100
AcDbLine
 10
1169.802256785976
 20
140.918558714886
 30
0.0
 11
1169.802256785976
 21
144.418558714886
 31
0.0
  0
LINE
  5
3053
330
1F
100
AcDbEntity
  8
AM_7
100
AcDbLine
 10
1171.802256785976
 20
138.918558714886
 30
0.0
 11
1175.302256785975
 21
138.918558714886
 31
0.0
  0
LINE
  5
3054
330
1F
100
AcDbEntity
  8
AM_7
100
AcDbLine
 10
1167.802256785976
 20
138.918558714886
 30
0.0
 11
1164.302256785975
 21
138.918558714886
 31
0.0
  0
LINE
  5
3055
330
1F
100
AcDbEntity
  8
AM_7
100
AcDbLine
 10
1168.802256785975
 20
138.918558714886
 30
0.0
 11
1170.802256785975
 21
138.918558714886
 31
0.0
  0
CIRCLE
  5
3056
330
1F
100
AcDbEntity
  8
0
100
AcDbCircle
 10
1079.802256785975
 20
188.918558714886
 30
0.0
 40
4.5
  0
LINE
  5
3058
330
1F
100
AcDbEntity
  8
0
  6
HIDDEN
 62
     3
100
AcDbLine
 10
1031.511311158377
 20
183.918558714886
 30
0.0
 11
1043.511311158377
 21
183.918558714886
 31
0.0
  0
LINE
  5
3059
330
1F
100
AcDbEntity
  8
AM_7
100
AcDbLine
 10
1026.3460097992
 20
188.918558714886
 30
0.0
 11
1047.658452002751
 21
188.918558714886
 31
0.0
  0
LINE
  5
305A
330
1F
100
AcDbEntity
  8
AM_7
100
AcDbLine
 10
1079.802256785975
 20
190.918558714886
 30
0.0
 11
1079.802256785975
 21
194.418558714886
 31
0.0
  0
LINE
  5
305B
330
1F
100
AcDbEntity
  8
AM_7
100
AcDbLine
 10
1079.802256785975
 20
186.918558714886
 30
0.0
 11
1079.802256785975
 21
183.418558714886
 31
0.0
  0
LINE
  5
305C
330
1F
100
AcDbEntity
  8
AM_7
100
AcDbLine
 10
1077.802256785975
 20
188.918558714886
 30
0.0
 11
1074.302256785975
 21
188.918558714886
 31
0.0
  0
LINE
  5
305D
330
1F
100
AcDbEntity
  8
AM_7
100
AcDbLine
 10
1079.802256785975
 20
187.918558714886
 30
0.0
 11
1079.802256785975
 21
189.918558714886
 31
0.0
  0
LINE
  5
305E
330
1F
100
AcDbEntity
  8
AM_7
100
AcDbLine
 10
1078.802256785976
 20
188.918558714886
 30
0.0
 11
1080.802256785975
 21
188.918558714886
 31
0.0
  0
LINE
  5
305F
330
1F
100
AcDbEntity
  8
AM_7
100
AcDbLine
 10
1100.802256785976
 20
185.918558714886
 30
0.0
 11
1100.802256785976
 21
179.918558714886
 31
0.0
  0
LINE
  5
3060
330
1F
100
AcDbEntity
  8
AM_7
100
AcDbLine
 10
1148.802256785975
 20
185.918558714886
 30
0.0
 11
1148.802256785975
 21
179.918558714886
 31
0.0
  0
CIRCLE
  5
3061
330
1F
100
AcDbEntity
  8
0
100
AcDbCircle
 10
1100.802256785976
 20
187.918558714886
 30
0.0
 40
7.0
  0
CIRCLE
  5
3062
330
1F
100
AcDbEntity
  8
0
100
AcDbCircle
 10
1148.802256785975
 20
187.918558714886
 30
0.0
 40
7.0
  0
LINE
  5
3063
330
1F
100
AcDbEntity
  8
AM_7
100
AcDbLine
 10
1081.802256785975
 20
188.918558714886
 30
0.0
 11
1085.302256785976
 21
188.918558714886
 31
0.0
  0
LINE
  5
3064
330
1F
100
AcDbEntity
  8
AM_7
100
AcDbLine
 10
1100.802256785976
 20
189.918558714886
 30
0.0
 11
1100.802256785976
 21
195.918558714886
 31
0.0
  0
LINE
  5
3065
330
1F
100
AcDbEntity
  8
AM_7
100
AcDbLine
 10
1102.802256785976
 20
187.918558714886
 30
0.0
 11
1108.802256785976
 21
187.918558714886
 31
0.0
  0
LINE
  5
3066
330
1F
100
AcDbEntity
  8
AM_7
100
AcDbLine
 10
1098.802256785975
 20
187.918558714886
 30
0.0
 11
1092.802256785976
 21
187.918558714886
 31
0.0
  0
LINE
  5
3067
330
1F
100
AcDbEntity
  8
AM_7
100
AcDbLine
 10
1100.802256785976
 20
186.918558714886
 30
0.0
 11
1100.802256785976
 21
188.918558714886
 31
0.0
  0
LINE
  5
3068
330
1F
100
AcDbEntity
  8
AM_7
100
AcDbLine
 10
1099.802256785975
 20
187.918558714886
 30
0.0
 11
1101.802256785975
 21
187.918558714886
 31
0.0
  0
LINE
  5
3069
330
1F
100
AcDbEntity
  8
AM_7
100
AcDbLine
 10
1148.802256785975
 20
189.918558714886
 30
0.0
 11
1148.802256785975
 21
195.918558714886
 31
0.0
  0
LINE
  5
306A
330
1F
100
AcDbEntity
  8
AM_7
100
AcDbLine
 10
1150.802256785976
 20
187.918558714886
 30
0.0
 11
1156.802256785975
 21
187.918558714886
 31
0.0
  0
LINE
  5
306B
330
1F
100
AcDbEntity
  8
AM_7
100
AcDbLine
 10
1146.802256785975
 20
187.918558714886
 30
0.0
 11
1140.802256785976
 21
187.918558714886
 31
0.0
  0
LINE
  5
306C
330
1F
100
AcDbEntity
  8
AM_7
100
AcDbLine
 10
1148.802256785975
 20
186.918558714886
 30
0.0
 11
1148.802256785975
 21
188.918558714886
 31
0.0
  0
LINE
  5
306D
330
1F
100
AcDbEntity
  8
AM_7
100
AcDbLine
 10
1147.802256785976
 20
187.918558714886
 30
0.0
 11
1149.802256785976
 21
187.918558714886
 31
0.0
  0
LINE
  5
306E
330
1F
100
AcDbEntity
  8
AM_7
100
AcDbLine
 10
1169.802256785976
 20
190.918558714886
 30
0.0
 11
1169.802256785976
 21
194.418558714886
 31
0.0
  0
LINE
  5
306F
330
1F
100
AcDbEntity
  8
AM_7
100
AcDbLine
 10
1169.802256785976
 20
186.918558714886
 30
0.0
 11
1169.802256785976
 21
183.418558714886
 31
0.0
  0
LINE
  5
3070
330
1F
100
AcDbEntity
  8
AM_7
100
AcDbLine
 10
1171.802256785976
 20
188.918558714886
 30
0.0
 11
1175.302256785975
 21
188.918558714886
 31
0.0
  0
LINE
  5
3071
330
1F
100
AcDbEntity
  8
AM_7
100
AcDbLine
 10
1167.802256785976
 20
188.918558714886
 30
0.0
 11
1164.302256785975
 21
188.918558714886
 31
0.0
  0
LINE
  5
3072
330
1F
100
AcDbEntity
  8
AM_7
100
AcDbLine
 10
1169.802256785976
 20
187.918558714886
 30
0.0
 11
1169.802256785976
 21
189.918558714886
 31
0.0
  0
LINE
  5
3073
330
1F
100
AcDbEntity
  8
AM_7
100
AcDbLine
 10
1168.802256785975
 20
188.918558714886
 30
0.0
 11
1170.802256785975
 21
188.918558714886
 31
0.0
  0
CIRCLE
  5
3074
330
1F
100
AcDbEntity
  8
0
100
AcDbCircle
 10
1169.802256785976
 20
188.918558714886
 30
0.0
 40
4.5
  0
CIRCLE
  5
3075
330
1F
100
AcDbEntity
  8
0
100
AcDbCircle
 10
1100.802256785976
 20
187.918558714886
 30
0.0
 40
4.5
  0
CIRCLE
  5
3076
330
1F
100
AcDbEntity
  8
0
100
AcDbCircle
 10
1148.802256785975
 20
187.918558714886
 30
0.0
 40
4.5
  0
LINE
  5
3077
330
1F
100
AcDbEntity
  8
0
100
AcDbLine
 10
1070.302256785976
 20
200.418558714886
 30
0.0
 11
1179.302256785976
 21
200.418558714886
 31
0.0
  0
LINE
  5
3078
330
1F
100
AcDbEntity
  8
0
100
AcDbLine
 10
1070.302256785976
 20
200.418558714886
 30
0.0
 11
1069.802256785975
 21
199.918558714886
 31
0.0
  0
LINE
  5
3079
330
1F
100
AcDbEntity
  8
0
100
AcDbLine
 10
1031.511311158377
 20
200.418558714886
 30
0.0
 11
1043.511311158377
 21
200.418558714886
 31
0.0
  0
LINE
  5
307A
330
1F
100
AcDbEntity
  8
0
  6
HIDDEN
 62
     3
100
AcDbLine
 10
1075.302256785975
 20
232.2250508521844
 30
0.0
 11
1075.302256785975
 21
220.2250508521844
 31
0.0
  0
LINE
  5
307B
330
1F
100
AcDbEntity
  8
0
100
AcDbLine
 10
1069.802256785975
 20
232.2250508521844
 30
0.0
 11
1069.802256785975
 21
220.2250508521844
 31
0.0
  0
LINE
  5
307C
330
1F
100
AcDbEntity
  8
0
100
AcDbLine
 10
1179.802256785976
 20
199.918558714886
 30
0.0
 11
1179.302256785976
 21
200.418558714886
 31
0.0
  0
LINE
  5
307D
330
1F
100
AcDbEntity
  8
AM_7
100
AcDbLine
 10
1102.903720916913
 20
355.7676996786303
 30
0.0
 11
1099.403720916913
 21
355.7676996786303
 31
0.0
  0
CIRCLE
  5
307E
330
1F
100
AcDbEntity
  8
0
100
AcDbCircle
 10
1104.903720916913
 20
355.7676996786303
 30
0.0
 40
4.5
  0
LINE
  5
307F
330
1F
100
AcDbEntity
  8
0
100
AcDbLine
 10
1096.903720916913
 20
382.767699678603
 30
0.0
 11
1162.903720916913
 21
382.767699678603
 31
0.0
  0
LINE
  5
3080
330
1F
100
AcDbEntity
  8
0
100
AcDbLine
 10
1098.903720916913
 20
342.767699678643
 30
0.0
 11
1160.903720916913
 21
342.767699678643
 31
0.0
  0
LINE
  5
3081
330
1F
100
AcDbEntity
  8
0
100
AcDbLine
 10
1096.903720916913
 20
379.5676996786022
 30
0.0
 11
1162.903720916913
 21
379.5676996786022
 31
0.0
  0
LINE
  5
3082
330
1F
100
AcDbEntity
  8
0
  6
HIDDEN
 62
     3
100
AcDbLine
 10
1084.302256785975
 20
232.2250508521844
 30
0.0
 11
1084.302256785975
 21
220.2250508521844
 31
0.0
  0
LINE
  5
3083
330
1F
100
AcDbEntity
  8
AM_7
100
AcDbLine
 10
1079.802256785975
 20
237.3903522113611
 30
0.0
 11
1079.802256785975
 21
215.3167510077779
 31
0.0
  0
LINE
  5
3085
330
1F
100
AcDbEntity
  8
0
  6
HIDDEN
 62
     3
100
AcDbLine
 10
1104.802256785975
 20
232.2250508521844
 30
0.0
 11
1104.802256785975
 21
220.2250508521844
 31
0.0
  0
LINE
  5
3086
330
1F
100
AcDbEntity
  8
AM_7
100
AcDbLine
 10
1124.802256785976
 20
237.3903522113611
 30
0.0
 11
1124.802256785976
 21
215.3167510077779
 31
0.0
  0
LINE
  5
3088
330
1F
100
AcDbEntity
  8
0
  6
HIDDEN
 62
     3
100
AcDbLine
 10
1144.802256785975
 20
232.2250508521844
 30
0.0
 11
1144.802256785975
 21
220.2250508521844
 31
0.0
  0
LINE
  5
3089
330
1F
100
AcDbEntity
  8
0
  6
HIDDEN
 62
     3
100
AcDbLine
 10
1165.302256785976
 20
232.2250508521844
 30
0.0
 11
1165.302256785976
 21
220.2250508521844
 31
0.0
  0
LINE
  5
308A
330
1F
100
AcDbEntity
  8
0
  6
HIDDEN
 62
     3
100
AcDbLine
 10
1174.302256785975
 20
232.2250508521844
 30
0.0
 11
1174.302256785975
 21
220.2250508521844
 31
0.0
  0
LINE
  5
308B
330
1F
100
AcDbEntity
  8
AM_7
100
AcDbLine
 10
1169.802256785976
 20
237.3903522113611
 30
0.0
 11
1169.802256785976
 21
215.3167510077779
 31
0.0
  0
LINE
  5
308C
330
1F
100
AcDbEntity
  8
0
100
AcDbLine
 10
1179.802256785976
 20
232.2250508521844
 30
0.0
 11
1179.802256785976
 21
220.2250508521844
 31
0.0
  0
LINE
  5
308D
330
1F
100
AcDbEntity
  8
AM_7
100
AcDbLine
 10
1129.903720916913
 20
327.2027993783182
 30
0.0
 11
1129.903720916913
 21
288.9249804254851
 31
0.0
  0
ARC
  5
308E
330
1F
100
AcDbEntity
  8
0
100
AcDbCircle
 10
1042.669703929534
 20
295.0244898128488
 30
0.0
 40
2.999999999996999
100
AcDbArc
 50
180.0
 51
270.0
  0
LINE
  5
308F
330
1F
100
AcDbEntity
  8
0
  6
HIDDEN
 62
     3
100
AcDbLine
 10
1062.169703929514
 20
295.2244898128486
 30
0.0
 11
1062.169703929514
 21
292.0244898128519
 31
0.0
  0
LINE
  5
3090
330
1F
100
AcDbEntity
  8
AM_7
100
AcDbLine
 10
1066.669703929508
 20
296.5078098967666
 30
0.0
 11
1066.669703929508
 21
290.7188247940659
 31
0.0
  0
LINE
  5
3091
330
1F
100
AcDbEntity
  8
0
100
AcDbLine
 10
1079.669703929496
 20
295.2244898128486
 30
0.0
 11
1079.669703929496
 21
292.0244898128519
 31
0.0
  0
LINE
  5
3092
330
1F
100
AcDbEntity
  8
0
  6
HIDDEN
 62
     3
100
AcDbLine
 10
1071.169703929505
 20
295.2244898128486
 30
0.0
 11
1071.169703929505
 21
292.0244898128519
 31
0.0
  0
LINE
  5
3093
330
1F
100
AcDbEntity
  8
0
  6
HIDDEN
 62
     3
100
AcDbLine
 10
1047.083917491901
 20
292.0244898128519
 30
0.0
 11
1039.669703929535
 21
299.4387033752175
 31
0.0
  0
LINE
  5
3094
330
1F
100
AcDbEntity
  8
AM_7
100
AcDbLine
 10
1104.903720916938
 20
297.7218968607599
 30
0.0
 11
1104.903720916938
 21
290.5244198351377
 31
0.0
  0
LINE
  5
3095
330
1F
100
AcDbEntity
  8
AM_7
100
AcDbLine
 10
1154.903720916887
 20
297.4553235198798
 30
0.0
 11
1154.903720916887
 21
290.5244198351377
 31
0.0
  0
LINE
  5
3096
330
1F
100
AcDbEntity
  8
0
  6
HIDDEN
 62
     3
100
AcDbLine
 10
1109.403720916933
 20
295.2244898128487
 30
0.0
 11
1109.403720916933
 21
292.0244898128519
 31
0.0
  0
LINE
  5
3097
330
1F
100
AcDbEntity
  8
0
  6
HIDDEN
 62
     3
100
AcDbLine
 10
1100.403720916942
 20
295.2244898128487
 30
0.0
 11
1100.403720916942
 21
292.0244898128519
 31
0.0
  0
LINE
  5
3098
330
1F
100
AcDbEntity
  8
0
  6
HIDDEN
 62
     3
100
AcDbLine
 10
1150.403720916893
 20
295.2244898128487
 30
0.0
 11
1150.403720916893
 21
292.0244898128519
 31
0.0
  0
LINE
  5
3099
330
1F
100
AcDbEntity
  8
0
  6
HIDDEN
 62
     3
100
AcDbLine
 10
1159.403720916884
 20
295.2244898128487
 30
0.0
 11
1159.403720916884
 21
292.0244898128519
 31
0.0
  0
LINE
  5
309A
330
1F
100
AcDbEntity
  8
0
100
AcDbLine
 10
1096.903720916945
 20
320.0244898128238
 30
0.0
 11
1096.903720916945
 21
292.0244898128519
 31
0.0
  0
LINE
  5
309B
330
1F
100
AcDbEntity
  8
0
100
AcDbLine
 10
1162.90372091688
 20
320.0244898128238
 30
0.0
 11
1162.90372091688
 21
292.0244898128519
 31
0.0
  0
LINE
  5
309C
330
1F
100
AcDbEntity
  8
0
100
AcDbLine
 10
1096.903720916945
 20
292.0244898128519
 30
0.0
 11
1162.90372091688
 21
292.0244898128519
 31
0.0
  0
LINE
  5
309D
330
1F
100
AcDbEntity
  8
0
100
AcDbLine
 10
1079.669703929496
 20
292.0244898128519
 30
0.0
 11
1042.669703929534
 21
292.0244898128519
 31
0.0
  0
LINE
  5
309E
330
1F
100
AcDbEntity
  8
0
100
AcDbLine
 10
1096.903720916945
 20
295.2244898128487
 30
0.0
 11
1162.90372091688
 21
295.2244898128487
 31
0.0
  0
LINE
  5
309F
330
1F
100
AcDbEntity
  8
0
100
AcDbLine
 10
1143.132477472222
 20
322.0244898128219
 30
0.0
 11
1160.903720916882
 21
322.0244898128219
 31
0.0
  0
LINE
  5
30A0
330
1F
100
AcDbEntity
  8
AM_7
100
AcDbLine
 10
1105.903720916936
 20
311.0244898128328
 30
0.0
 11
1105.903720916936
 21
307.5244898128364
 31
0.0
  0
ARC
  5
30A1
330
1F
100
AcDbEntity
  8
0
100
AcDbCircle
 10
1123.500596679487
 20
296.2244898128476
 30
0.0
 40
0.9999999999989999
100
AcDbArc
 50
270.0
 51
313.9111164697352
  0
ARC
  5
30A2
330
1F
100
AcDbEntity
  8
0
100
AcDbCircle
 10
1136.306845154338
 20
296.2244898128476
 30
0.0
 40
0.9999999999989999
100
AcDbArc
 50
226.0888835302647
 51
270.0
  0
LINE
  5
30A3
330
1F
100
AcDbEntity
  8
0
100
AcDbLine
 10
1124.194138295314
 20
295.5040732478574
 30
0.0
 11
1128.516637685256
 21
299.6653229428263
 31
0.0
  0
LINE
  5
30A4
330
1F
100
AcDbEntity
  8
0
100
AcDbLine
 10
1135.613303538512
 20
295.5040732478574
 30
0.0
 11
1131.29080414857
 21
299.6653229428263
 31
0.0
  0
ARC
  5
30A5
330
1F
100
AcDbEntity
  8
0
100
AcDbCircle
 10
1129.903720916913
 20
298.2244898128456
 30
0.0
 40
1.999999999997999
100
AcDbArc
 50
46.08888353026475
 51
133.9111164697352
  0
LINE
  5
30A6
330
1F
100
AcDbEntity
  8
AM_7
100
AcDbLine
 10
1105.903720916936
 20
315.0244898128288
 30
0.0
 11
1105.903720916936
 21
318.5244898128253
 31
0.0
  0
LINE
  5
30A7
330
1F
100
AcDbEntity
  8
AM_7
100
AcDbLine
 10
1107.903720916935
 20
313.0244898128308
 30
0.0
 11
1111.403720916931
 21
313.0244898128308
 31
0.0
  0
LINE
  5
30A8
330
1F
100
AcDbEntity
  8
AM_7
100
AcDbLine
 10
1103.903720916938
 20
313.0244898128308
 30
0.0
 11
1100.403720916942
 21
313.0244898128308
 31
0.0
  0
LINE
  5
30A9
330
1F
100
AcDbEntity
  8
AM_7
100
AcDbLine
 10
1105.903720916936
 20
312.0244898128319
 30
0.0
 11
1105.903720916936
 21
314.0244898128299
 31
0.0
  0
LINE
  5
30AA
330
1F
100
AcDbEntity
  8
AM_7
100
AcDbLine
 10
1104.903720916938
 20
313.0244898128308
 30
0.0
 11
1106.903720916935
 21
313.0244898128308
 31
0.0
  0
ARC
  5
30AB
330
1F
100
AcDbEntity
  8
0
100
AcDbCircle
 10
1098.903720916944
 20
320.0244898128238
 30
0.0
 40
1.999999999997999
100
AcDbArc
 50
90.0
 51
180.0
  0
ARC
  5
30AC
330
1F
100
AcDbEntity
  8
0
100
AcDbCircle
 10
1129.903720916913
 20
337.0244898128069
 30
0.0
 40
19.99999999997999
100
AcDbArc
 50
228.5903778907162
 51
311.4096221092838
  0
CIRCLE
  5
30AD
330
1F
100
AcDbEntity
  8
0
100
AcDbCircle
 10
1105.903720916936
 20
313.0244898128308
 30
0.0
 40
4.499999999995499
  0
LINE
  5
30AE
330
1F
100
AcDbEntity
  8
0
100
AcDbLine
 10
1098.903720916944
 20
322.0244898128219
 30
0.0
 11
1116.674964361602
 21
322.0244898128219
 31
0.0
  0
LINE
  5
30AF
330
1F
100
AcDbEntity
  8
0
100
AcDbLine
 10
1042.869703929532
 20
322.0244898128219
 30
0.0
 11
1042.869703929532
 21
298.2244898128456
 31
0.0
  0
LINE
  5
30B0
330
1F
100
AcDbEntity
  8
0
100
AcDbLine
 10
1039.669703929535
 20
322.0244898128219
 30
0.0
 11
1039.669703929535
 21
295.0244898128488
 31
0.0
  0
LINE
  5
30B1
330
1F
100
AcDbEntity
  8
AM_7
100
AcDbLine
 10
1153.903720916889
 20
311.0244898128328
 30
0.0
 11
1153.903720916889
 21
307.5244898128364
 31
0.0
  0
LINE
  5
30B2
330
1F
100
AcDbEntity
  8
0
100
AcDbLine
 10
1079.669703929496
 20
295.2244898128486
 30
0.0
 11
1045.869703929529
 21
295.2244898128486
 31
0.0
  0
LINE
  5
30B3
330
1F
100
AcDbEntity
  8
0
  6
Continuous
100
AcDbLine
 10
1049.540771741391
 20
295.2244898128486
 30
0.0
 11
1042.869703929532
 21
301.8955576247075
 31
0.0
  0
ARC
  5
30B4
330
1F
100
AcDbEntity
  8
0
100
AcDbCircle
 10
1045.869703929529
 20
298.2244898128456
 30
0.0
 40
2.999999999996999
100
AcDbArc
 50
180.0
 51
270.0
  0
LINE
  5
30B5
330
1F
100
AcDbEntity
  8
0
100
AcDbLine
 10
1042.869703929532
 20
322.0244898128219
 30
0.0
 11
1042.669703929534
 21
322.0244898128219
 31
0.0
  0
LINE
  5
30B6
330
1F
100
AcDbEntity
  8
0
100
AcDbLine
 10
1042.869703929532
 20
322.0244898128219
 30
0.0
 11
1039.669703929535
 21
322.0244898128219
 31
0.0
  0
LINE
  5
30B7
330
1F
100
AcDbEntity
  8
0
  6
HIDDEN
 62
     3
100
AcDbLine
 10
1042.869703929532
 20
308.5244898128353
 30
0.0
 11
1039.669703929535
 21
308.5244898128353
 31
0.0
  0
LINE
  5
30B8
330
1F
100
AcDbEntity
  8
0
  6
HIDDEN
 62
     3
100
AcDbLine
 10
1042.869703929532
 20
317.5244898128263
 30
0.0
 11
1039.669703929535
 21
317.5244898128263
 31
0.0
  0
LINE
  5
30B9
330
1F
100
AcDbEntity
  8
AM_7
100
AcDbLine
 10
1044.978408171755
 20
313.0244898128308
 30
0.0
 11
1038.036255818844
 21
313.0244898128308
 31
0.0
  0
LINE
  5
30BA
330
1F
100
AcDbEntity
  8
AM_7
100
AcDbLine
 10
1153.903720916889
 20
315.0244898128288
 30
0.0
 11
1153.903720916889
 21
318.5244898128253
 31
0.0
  0
LINE
  5
30BB
330
1F
100
AcDbEntity
  8
AM_7
100
AcDbLine
 10
1155.903720916887
 20
313.0244898128308
 30
0.0
 11
1159.403720916884
 21
313.0244898128308
 31
0.0
  0
LINE
  5
30BC
330
1F
100
AcDbEntity
  8
AM_7
100
AcDbLine
 10
1151.903720916891
 20
313.0244898128308
 30
0.0
 11
1148.403720916895
 21
313.0244898128308
 31
0.0
  0
LINE
  5
30BD
330
1F
100
AcDbEntity
  8
AM_7
100
AcDbLine
 10
1153.903720916889
 20
312.0244898128319
 30
0.0
 11
1153.903720916889
 21
314.0244898128299
 31
0.0
  0
LINE
  5
30BE
330
1F
100
AcDbEntity
  8
AM_7
100
AcDbLine
 10
1152.903720916889
 20
313.0244898128308
 30
0.0
 11
1154.903720916887
 21
313.0244898128308
 31
0.0
  0
ARC
  5
30BF
330
1F
100
AcDbEntity
  8
0
100
AcDbCircle
 10
1160.903720916882
 20
320.0244898128238
 30
0.0
 40
1.999999999997999
100
AcDbArc
 50
0.0
 51
90.0
  0
CIRCLE
  5
30C0
330
1F
100
AcDbEntity
  8
0
100
AcDbCircle
 10
1153.903720916889
 20
313.0244898128308
 30
0.0
 40
4.499999999995499
  0
ARC
  5
30C1
330
1F
100
AcDbEntity
  8
0
100
AcDbCircle
 10
1098.903720916913
 20
344.767699678643
 30
0.0
 40
2.0
100
AcDbArc
 50
180.0
 51
270.0
  0
LINE
  5
30C2
330
1F
100
AcDbEntity
  8
0
100
AcDbLine
 10
1096.903720916913
 20
344.767699678643
 30
0.0
 11
1096.903720916913
 21
382.767699678603
 31
0.0
  0
ARC
  5
30C3
330
1F
100
AcDbEntity
  8
0
100
AcDbCircle
 10
1160.903720916913
 20
344.767699678643
 30
0.0
 40
2.0
100
AcDbArc
 50
270.0
 51
0.0
  0
LINE
  5
30C4
330
1F
100
AcDbEntity
  8
AM_7
100
AcDbLine
 10
1104.903720916913
 20
354.7676996786303
 30
0.0
 11
1104.903720916913
 21
356.7676996786303
 31
0.0
  0
LINE
  5
30C5
330
1F
100
AcDbEntity
  8
AM_7
100
AcDbLine
 10
1103.903720916913
 20
355.7676996786303
 30
0.0
 11
1105.903720916913
 21
355.7676996786303
 31
0.0
  0
LINE
  5
30C6
330
1F
100
AcDbEntity
  8
AM_7
100
AcDbLine
 10
1104.903720916913
 20
357.7676996786303
 30
0.0
 11
1104.903720916913
 21
361.2676996786303
 31
0.0
  0
LINE
  5
30C7
330
1F
100
AcDbEntity
  8
AM_7
100
AcDbLine
 10
1106.903720916913
 20
355.7676996786303
 30
0.0
 11
1110.403720916913
 21
355.7676996786303
 31
0.0
  0
LINE
  5
30C8
330
1F
100
AcDbEntity
  8
AM_7
100
AcDbLine
 10
1104.903720916913
 20
353.7676996786303
 30
0.0
 11
1104.903720916913
 21
350.2676996786302
 31
0.0
  0
LINE
  5
30C9
330
1F
100
AcDbEntity
  8
AM_7
100
AcDbLine
 10
1129.903720916913
 20
389.8720894435518
 30
0.0
 11
1129.903720916913
 21
338.5595075775884
 31
0.0
  0
LINE
  5
30CA
330
1F
100
AcDbEntity
  8
0
100
AcDbLine
 10
1116.673720916913
 20
382.767699678603
 30
0.0
 11
1116.673720916913
 21
379.5676996786022
 31
0.0
  0
LINE
  5
30CB
330
1F
100
AcDbEntity
  8
0
  6
CENTER
100
AcDbLine
 10
1143.133720916913
 20
382.767699678603
 30
0.0
 11
1143.133720916913
 21
379.5676996786022
 31
0.0
  0
CIRCLE
  5
30CC
330
1F
100
AcDbEntity
  8
0
100
AcDbCircle
 10
1154.903720916913
 20
355.7676996786303
 30
0.0
 40
4.5
  0
LINE
  5
30CD
330
1F
100
AcDbEntity
  8
AM_7
100
AcDbLine
 10
1154.903720916913
 20
354.7676996786303
 30
0.0
 11
1154.903720916913
 21
356.7676996786303
 31
0.0
  0
LINE
  5
30CE
330
1F
100
AcDbEntity
  8
AM_7
100
AcDbLine
 10
1153.903720916913
 20
355.7676996786303
 30
0.0
 11
1155.903720916913
 21
355.7676996786303
 31
0.0
  0
LINE
  5
30CF
330
1F
100
AcDbEntity
  8
AM_7
100
AcDbLine
 10
1154.903720916913
 20
357.7676996786303
 30
0.0
 11
1154.903720916913
 21
361.2676996786303
 31
0.0
  0
LINE
  5
30D0
330
1F
100
AcDbEntity
  8
AM_7
100
AcDbLine
 10
1152.903720916913
 20
355.7676996786303
 30
0.0
 11
1149.403720916913
 21
355.7676996786303
 31
0.0
  0
LINE
  5
30D1
330
1F
100
AcDbEntity
  8
AM_7
100
AcDbLine
 10
1156.903720916913
 20
355.7676996786303
 30
0.0
 11
1160.403720916913
 21
355.7676996786303
 31
0.0
  0
LINE
  5
30D2
330
1F
100
AcDbEntity
  8
AM_7
100
AcDbLine
 10
1154.903720916913
 20
353.7676996786303
 30
0.0
 11
1154.903720916913
 21
350.2676996786302
 31
0.0
  0
LINE
  5
30D3
330
1F
100
AcDbEntity
  8
0
100
AcDbLine
 10
1162.903720916913
 20
344.767699678643
 30
0.0
 11
1162.903720916913
 21
382.767699678603
 31
0.0
  0
LINE
  5
30D7
330
1F
100
AcDbEntity
  8
0
 62
     4
100
AcDbLine
 10
996.3802746509147
 20
414.4357244512169
 30
0.0
 11
996.3802746509147
 21
104.2189180472453
 31
0.0
  0
LINE
  5
30D8
330
1F
100
AcDbEntity
  8
0
 62
     4
100
AcDbLine
 10
996.3802746509147
 20
271.6110405447318
 30
0.0
 11
1214.310623166795
 21
271.6110405447318
 31
0.0
  0
TEXT
  5
31D9
330
1F
100
AcDbEntity
  8
0
100
AcDbText
 10
1009.236011959558
 20
397.7401758594267
 30
0.0
 40
7.700000000000001
  1
LB
100
AcDbText
  0
TEXT
  5
31DB
330
1F
100
AcDbEntity
  8
0
100
AcDbText
 10
1009.236011959558
 20
255.792110852856
 30
0.0
 40
7.700000000000001
  1
FAC
100
AcDbText
  0
ENDSEC
  0
SECTION
  2
OBJECTS
  0
DICTIONARY
  5
C
330
0
100
AcDbDictionary
281
     1
  3
ACAD_COLOR
350
7D1
  3
ACAD_GROUP
350
D
  3
ACAD_LAYOUT
350
1A
  3
ACAD_MATERIAL
350
7D0
  3
ACAD_MLINESTYLE
350
17
  3
ACAD_PLOTSETTINGS
350
19
  3
ACAD_PLOTSTYLENAME
350
E
  3
ACAD_TABLESTYLE
350
7D2
  3
ACDBHEADERROUNDTRIPXREC
350
32CD
  3
AcDbVariableDictionary
350
82
  3
AcmDictionary
350
45
  3
AMG
350
2B
  3
AMGSNAPSETTINGS
350
87
  3
DWGPROPS
350
32CC
  0
DICTIONARY
  5
AAB
330
2
100
AcDbDictionary
280
     1
281
     1
  3
ACAD_LAYERSTATES
360
AAC
  3
AMLAYER_GROUPCOLORS
360
15F6
  0
DICTIONARY
  5
7D
330
1F
100
AcDbDictionary
280
     1
281
     1
  3
ACAD_SORTENTS
360
EEA
  0
DICTIONARY
  5
7D1
102
{ACAD_REACTORS
330
C
102
}
330
C
100
AcDbDictionary
281
     1
  0
DICTIONARY
  5
D
102
{ACAD_REACTORS
330
C
102
}
330
C
100
AcDbDictionary
281
     1
  0
DICTIONARY
  5
1A
102
{ACAD_REACTORS
330
C
102
}
330
C
100
AcDbDictionary
281
     1
  3
Layout1
350
1E
  3
Layout2
350
26
  3
Model
350
22
  0
DICTIONARY
  5
7D0
102
{ACAD_REACTORS
330
C
102
}
330
C
100
AcDbDictionary
281
     1
  0
DICTIONARY
  5
17
102
{ACAD_REACTORS
330
C
102
}
330
C
100
AcDbDictionary
281
     1
  3
Standard
350
18
  0
DICTIONARY
  5
19
102
{ACAD_REACTORS
330
C
102
}
330
C
100
AcDbDictionary
281
     1
  0
ACDBDICTIONARYWDFLT
  5
E
102
{ACAD_REACTORS
330
C
102
}
330
C
100
AcDbDictionary
281
     1
  3
Normal
350
F
100
AcDbDictionaryWithDefault
340
F
  0
DICTIONARY
  5
7D2
102
{ACAD_REACTORS
330
C
102
}
330
C
100
AcDbDictionary
281
     1
  3
Standard
350
7D3
  0
DICTIONARY
  5
32CD
102
{ACAD_REACTORS
330
C
102
}
330
C
100
AcDbDictionary
281
     1
  0
DICTIONARY
  5
82
102
{ACAD_REACTORS
330
C
102
}
330
C
100
AcDbDictionary
281
     1
  3
CTABLESTYLE
350
847
  3
DIMASSOC
350
85
  3
HIDETEXT
350
84
  3
INDEXCTL
350
83
  3
PROJECTNAME
350
848
  0
DICTIONARY
  5
45
102
{ACAD_REACTORS
330
C
102
}
330
C
100
AcDbDictionary
281
     1
  3
AcmStdDictionary
350
4A
  3
AMDTSECTSYM_ARROWCOLOR
350
7DF
  0
DICTIONARY
  5
2B
102
{ACAD_REACTORS
330
C
102
}
330
C
100
AcDbDictionary
281
     1
  0
DICTIONARY
  5
87
102
{ACAD_REACTORS
330
C
102
}
330
C
100
AcDbDictionary
281
     1
  0
XRECORD
  5
32CC
102
{ACAD_REACTORS
330
C
102
}
330
C
100
AcDbXrecord
280
     1
  1
DWGPROPS COOKIE
  2

  3

  4

  6

  7

  8

  9

300
AmdtFileType=84
301
=
302
=
303
=
304
=
305
=
306
=
307
=
308
=
309
=
 40
0.6192974652777778
 41
2453021.369367211
 42
2453517.561236979
  1

 90
        1
  0
DICTIONARY
  5
AAC
102
{ACAD_REACTORS
330
AAB
102
}
330
AAB
100
AcDbDictionary
281
     1
  0
DICTIONARY
  5
15F6
102
{ACAD_REACTORS
330
AAB
102
}
330
AAB
100
AcDbDictionary
280
     1
281
     1
  0
SORTENTSTABLE
  5
EEA
102
{ACAD_REACTORS
330
7D
102
}
330
7D
100
AcDbSortentsTable
330
1F
331
29EA
  5
29EA
331
2B39
  5
2B39
331
2DB6
  5
2DB6
331
2940
  5
2940
331
28E1
  5
28E1
331
28AA
  5
28AA
331
282C
  5
282C
331
2863
  5
2863
331
28E9
  5
28E9
331
27F5
  5
27F5
331
2834
  5
2834
331
286B
  5
286B
331
29A0
  5
29A0
331
28F1
  5
28F1
331
28BA
  5
28BA
331
225E
  5
225E
331
27FD
  5
27FD
331
2873
  5
2873
331
29A8
  5
29A8
331
28C2
  5
28C2
331
2266
  5
2266
331
2805
  5
2805
331
2844
  5
2844
331
287B
  5
287B
331
142B
  5
142B
331
13FC
  5
13FC
331
1433
  5
1433
331
1472
  5
1472
331
29CB
  5
29CB
331
2B49
  5
2B49
331
2C40
  5
2C40
331
29D3
  5
29D3
331
2B51
  5
2B51
331
29DB
  5
29DB
331
2A8A
  5
2A8A
331
29B0
  5
29B0
331
2901
  5
2901
331
28CA
  5
28CA
331
280D
  5
280D
331
284C
  5
284C
331
29B8
  5
29B8
331
28D2
  5
28D2
331
2815
  5
2815
331
2854
  5
2854
331
288B
  5
288B
331
29C0
  5
29C0
331
28DA
  5
28DA
331
289B
  5
289B
331
281D
  5
281D
331
28A3
  5
28A3
331
2825
  5
2825
331
1404
  5
1404
331
143B
  5
143B
331
1443
  5
1443
331
1414
  5
1414
331
1453
  5
1453
331
29EB
  5
29EB
331
2C19
  5
2C19
331
2C29
  5
2C29
331
2B3A
  5
2B3A
331
2C39
  5
2C39
331
2DB7
  5
2DB8
331
2941
  5
2941
331
28E2
  5
28E2
331
28AB
  5
28AB
331
282D
  5
282D
331
2864
  5
2864
331
28EA
  5
28EA
331
27F6
  5
27F6
331
2835
  5
2835
331
286C
  5
286C
331
29A1
  5
29A1
331
28F2
  5
28F2
331
28BB
  5
28BB
331
225F
  5
225F
331
2874
  5
2874
331
29A9
  5
29A9
331
28C3
  5
28C3
331
2806
  5
2806
331
2845
  5
2845
331
287C
  5
287C
331
13F5
  5
13F5
331
142C
  5
142C
331
146B
  5
146B
331
13FD
  5
13FD
331
1434
  5
1434
331
1473
  5
1473
331
2B4A
  5
2B4A
331
29D4
  5
29D4
331
2B52
  5
2B52
331
29DC
  5
29DC
331
29E4
  5
29E4
331
2A8B
  5
2A8B
331
29B1
  5
29B1
331
2902
  5
2902
331
28CB
  5
28CB
331
284D
  5
284D
331
29B9
  5
29B9
331
28D3
  5
28D3
331
2816
  5
2816
331
2855
  5
2855
331
288C
  5
288C
331
29C1
  5
29C1
331
289C
  5
289C
331
281E
  5
281E
331
285D
  5
285D
331
28DB
  5
28DB
331
28A4
  5
28A4
331
2826
  5
2826
331
1405
  5
1405
331
143C
  5
143C
331
140D
  5
140D
331
1444
  5
1444
331
1415
  5
1415
331
1454
  5
1454
331
2C1A
  5
2C1A
331
2C2A
  5
2C2A
331
2B3B
  5
2B3B
331
2C32
  5
2C32
331
2942
  5
2942
331
28AC
  5
28AC
331
282E
  5
282E
331
2865
  5
2865
331
28E3
  5
28E3
331
27F7
  5
27F7
331
2836
  5
2836
331
286D
  5
286D
331
299A
  5
299A
331
28BC
  5
28BC
331
2260
  5
2260
331
2875
  5
2875
331
28F3
  5
28F3
331
29A2
  5
29A2
331
28C4
  5
28C4
331
2807
  5
2807
331
2846
  5
2846
331
287D
  5
287D
331
29AA
  5
29AA
331
1425
  5
1425
331
142D
  5
142D
331
146C
  5
146C
331
13FE
  5
13FE
331
1435
  5
1435
331
1474
  5
1474
331
2B4B
  5
2B4B
331
2DB8
  5
2DBB
331
29D5
  5
29D5
331
2B53
  5
2B53
331
28CC
  5
28CC
331
280F
  5
280F
331
284E
  5
284E
331
2903
  5
2903
331
28D4
  5
28D4
331
2817
  5
2817
331
2856
  5
2856
331
288D
  5
288D
331
290B
  5
290B
331
29BA
  5
29BA
331
289D
  5
289D
331
281F
  5
281F
331
285E
  5
285E
331
28DC
  5
28DC
331
29C2
  5
29C2
331
28A5
  5
28A5
331
2827
  5
2827
331
1406
  5
1406
331
143D
  5
143D
331
140E
  5
140E
331
1445
  5
1445
331
1416
  5
1416
331
144D
  5
144D
331
1455
  5
1455
331
2C1B
  5
2C1B
331
2943
  5
2943
331
282F
  5
282F
331
2866
  5
2866
331
28E4
  5
28E4
331
28B5
  5
28B5
331
27F8
  5
27F8
331
2259
  5
2259
331
2837
  5
2837
331
286E
  5
286E
331
299B
  5
299B
331
28BD
  5
28BD
331
2800
  5
2800
331
2261
  5
2261
331
2876
  5
2876
331
28F4
  5
28F4
331
29A3
  5
29A3
331
28C5
  5
28C5
331
2847
  5
2847
331
287E
  5
287E
331
29AB
  5
29AB
331
145D
  5
145D
331
1426
  5
1426
331
1465
  5
1465
331
13F7
  5
13F7
331
142E
  5
142E
331
146D
  5
146D
331
13FF
  5
13FF
331
1475
  5
1475
331
2C43
  5
2C43
331
2B4C
  5
2B4C
331
29D6
  5
29D6
331
2B54
  5
2B54
331
29DE
  5
29DE
331
2808
  5
2808
331
28CD
  5
28CD
331
2810
  5
2810
331
284F
  5
284F
331
2904
  5
2904
331
29B3
  5
29B3
331
28D5
  5
28D5
331
2818
  5
2818
331
2857
  5
2857
331
29BB
  5
29BB
331
289E
  5
289E
331
2820
  5
2820
331
285F
  5
285F
331
28DD
  5
28DD
331
29C3
  5
29C3
331
28A6
  5
28A6
331
1407
  5
1407
331
143E
  5
143E
331
140F
  5
140F
331
1417
  5
1417
331
144E
  5
144E
331
1456
  5
1456
331
2C1C
  5
2C1C
331
2C2C
  5
2C2C
331
2C3C
  5
2C3C
331
2828
  5
2828
331
2571
  5
2571
331
2944
  5
2944
331
2830
  5
2830
331
2867
  5
2867
331
28E5
  5
28E5
331
28B6
  5
28B6
331
27F9
  5
27F9
331
225A
  5
225A
331
2838
  5
2838
331
286F
  5
286F
331
299C
  5
299C
331
28BE
  5
28BE
331
2801
  5
2801
331
2262
  5
2262
331
2877
  5
2877
331
28F5
  5
28F5
331
29A4
  5
29A4
331
28C6
  5
28C6
331
287F
  5
287F
331
29AC
  5
29AC
331
141F
  5
141F
331
1427
  5
1427
331
1466
  5
1466
331
13F8
  5
13F8
331
142F
  5
142F
331
146E
  5
146E
331
1437
  5
1437
331
1476
  5
1476
331
2B4D
  5
2B4D
331
29CF
  5
29CF
331
2B55
  5
2B55
331
29D7
  5
29D7
331
29E7
  5
29E7
331
2809
  5
2809
331
2848
  5
2848
331
28CE
  5
28CE
331
2811
  5
2811
331
2850
  5
2850
331
29B4
  5
29B4
331
28D6
  5
28D6
331
2819
  5
2819
331
29BC
  5
29BC
331
289F
  5
289F
331
2821
  5
2821
331
29C4
  5
29C4
331
28A7
  5
28A7
331
293D
  5
293D
331
1400
  5
1400
331
1408
  5
1408
331
143F
  5
143F
331
1457
  5
1457
331
2C2D
  5
2C2D
331
2C35
  5
2C35
331
2C3D
  5
2C3D
331
2829
  5
2829
331
2860
  5
2860
331
2831
  5
2831
331
2868
  5
2868
331
28E6
  5
28E6
331
28B7
  5
28B7
331
2839
  5
2839
331
225B
  5
225B
331
2870
  5
2870
331
299D
  5
299D
331
28BF
  5
28BF
331
2878
  5
2878
331
2263
  5
2263
331
29A5
  5
29A5
331
28C7
  5
28C7
331
28FE
  5
28FE
331
29AD
  5
29AD
331
1418
  5
1418
331
13F1
  5
13F1
331
1428
  5
1428
331
1467
  5
1467
331
13F9
  5
13F9
331
1430
  5
1430
331
146F
  5
146F
331
1477
  5
1477
331
29C8
  5
29C8
331
2B4E
  5
2B4E
331
29D0
  5
29D0
331
2DBB
  5
2DB7
331
2B56
  5
2B56
331
29D8
  5
29D8
331
280A
  5
280A
331
2849
  5
2849
331
2880
  5
2880
331
28CF
  5
28CF
331
2812
  5
2812
331
2851
  5
2851
331
29B5
  5
29B5
331
28D7
  5
28D7
331
281A
  5
281A
331
2859
  5
2859
331
29BD
  5
29BD
331
28DF
  5
28DF
331
2822
  5
2822
331
28A0
  5
28A0
331
29C5
  5
29C5
331
293E
  5
293E
331
1401
  5
1401
331
1438
  5
1438
331
1409
  5
1409
331
1440
  5
1440
331
1411
  5
1411
331
2B37
  5
2B37
331
2C2E
  5
2C2E
331
2C36
  5
2C36
331
2B47
  5
2B47
331
28A8
  5
28A8
331
282A
  5
282A
331
2861
  5
2861
331
28E7
  5
28E7
331
2832
  5
2832
331
2869
  5
2869
331
28B8
  5
28B8
331
225C
  5
225C
331
283A
  5
283A
331
2871
  5
2871
331
299E
  5
299E
331
28C0
  5
28C0
331
2264
  5
2264
331
2842
  5
2842
331
2879
  5
2879
331
29A6
  5
29A6
331
28FF
  5
28FF
331
29AE
  5
29AE
331
1458
  5
1458
331
1421
  5
1421
331
13F2
  5
13F2
331
1429
  5
1429
331
13FA
  5
13FA
331
1431
  5
1431
331
1470
  5
1470
331
29C9
  5
29C9
331
2B4F
  5
2B4F
331
2B57
  5
2B57
331
29D9
  5
29D9
331
2B5F
  5
2B5F
331
29E1
  5
29E1
331
2A88
  5
2A88
331
28C8
  5
28C8
331
280B
  5
280B
331
284A
  5
284A
331
2881
  5
2881
331
28D0
  5
28D0
331
2813
  5
2813
331
2852
  5
2852
331
29B6
  5
29B6
331
28D8
  5
28D8
331
281B
  5
281B
331
285A
  5
285A
331
29BE
  5
29BE
331
28A1
  5
28A1
331
2823
  5
2823
331
29C6
  5
29C6
331
293F
  5
293F
331
1402
  5
1402
331
1478
  5
1478
331
140A
  5
140A
331
1441
  5
1441
331
14B8
  5
14B8
331
1412
  5
1412
331
1449
  5
1449
331
2B38
  5
2B38
331
2C2F
  5
2C2F
331
28E0
  5
28E0
331
28A9
  5
28A9
331
282B
  5
282B
331
2862
  5
2862
331
2833
  5
2833
331
286A
  5
286A
331
299F
  5
299F
331
28B9
  5
28B9
331
225D
  5
225D
331
283B
  5
283B
331
2872
  5
2872
331
29A7
  5
29A7
331
28C1
  5
28C1
331
2843
  5
2843
331
287A
  5
287A
331
29AF
  5
29AF
331
1459
  5
1459
331
1422
  5
1422
331
1461
  5
1461
331
13F3
  5
13F3
331
142A
  5
142A
331
13FB
  5
13FB
331
1432
  5
1432
331
1471
  5
1471
331
2B48
  5
2B48
331
29CA
  5
29CA
331
29D2
  5
29D2
331
2B50
  5
2B50
331
29DA
  5
29DA
331
2B60
  5
2B60
331
2A89
  5
2A89
331
2900
  5
2900
331
28C9
  5
28C9
331
280C
  5
280C
331
284B
  5
284B
331
2882
  5
2882
331
29B7
  5
29B7
331
28D1
  5
28D1
331
2814
  5
2814
331
29BF
  5
29BF
331
28D9
  5
28D9
331
281C
  5
281C
331
285B
  5
285B
331
29C7
  5
29C7
331
28A2
  5
28A2
331
2824
  5
2824
331
1403
  5
1403
331
143A
  5
143A
331
1479
  5
1479
331
1442
  5
1442
331
1413
  5
1413
331
1452
  5
1452
  0
LAYOUT
  5
1E
102
{ACAD_XDICTIONARY
360
32CE
102
}
102
{ACAD_REACTORS
330
1A
102
}
330
1A
100
AcDbPlotSettings
  1

  2
自動 RD 上的 Epson Stylus Photo 750 單色
  4

  6

 40
0.0
 41
0.0
 42
0.0
 43
0.0
 44
0.0
 45
0.0
 46
0.0
 47
0.0
 48
0.0
 49
0.0
140
0.0
141
0.0
142
1.0
143
1.0
 70
   688
 72
     0
 73
     0
 74
     5
  7
單色出圖.ctb
 75
    16
147
1.0
148
0.0
149
0.0
100
AcDbLayout
  1
Layout1
 70
     1
 71
     1
 10
0.0
 20
0.0
 11
420.0
 21
297.0
 12
0.0
 22
0.0
 32
0.0
 14
1.000000000000000E+20
 24
1.000000000000000E+20
 34
1.000000000000000E+20
 15
-1.000000000000000E+20
 25
-1.000000000000000E+20
 35
-1.000000000000000E+20
146
0.0
 13
0.0
 23
0.0
 33
0.0
 16
1.0
 26
0.0
 36
0.0
 17
0.0
 27
1.0
 37
0.0
 76
     0
330
1B
  0
LAYOUT
  5
26
102
{ACAD_XDICTIONARY
360
32D2
102
}
102
{ACAD_REACTORS
330
1A
102
}
330
1A
100
AcDbPlotSettings
  1

  2
自動 RD 上的 Epson Stylus Photo 750 單色
  4

  6

 40
0.0
 41
0.0
 42
0.0
 43
0.0
 44
0.0
 45
0.0
 46
0.0
 47
0.0
 48
0.0
 49
0.0
140
0.0
141
0.0
142
1.0
143
1.0
 70
   688
 72
     0
 73
     0
 74
     5
  7
單色出圖.ctb
 75
    16
147
1.0
148
0.0
149
0.0
100
AcDbLayout
  1
Layout2
 70
     1
 71
     2
 10
0.0
 20
0.0
 11
12.0
 21
9.0
 12
0.0
 22
0.0
 32
0.0
 14
0.0
 24
0.0
 34
0.0
 15
0.0
 25
0.0
 35
0.0
146
0.0
 13
0.0
 23
0.0
 33
0.0
 16
1.0
 26
0.0
 36
0.0
 17
0.0
 27
1.0
 37
0.0
 76
     0
330
23
  0
LAYOUT
  5
22
102
{ACAD_XDICTIONARY
360
32D0
102
}
102
{ACAD_REACTORS
330
1A
102
}
330
1A
100
AcDbPlotSettings
  1

  2
自動 RD 上的 Epson Stylus Photo 750 單色
  4
A4
  6

 40
3.757083177566528
 41
14.7637300491333
 42
3.757080078125
 43
3.757080078125
 44
209.9733276367187
 45
296.9683227539062
 46
7.54
 47
0.0
 48
0.0
 49
0.0
140
0.0
141
0.0
142
1.0
143
1.817317462545654
 70
 11956
 72
     1
 73
     0
 74
     1
  7
單色出圖.ctb
 75
     0
147
0.5502615919395967
148
-125.5654918467224
149
222.8859553785132
100
AcDbLayout
  1
Model
 70
     1
 71
     0
 10
0.0
 20
0.0
 11
12.0
 21
9.0
 12
0.0
 22
0.0
 32
0.0
 14
0.0
 24
0.0
 34
0.0
 15
0.0
 25
0.0
 35
0.0
146
0.0
 13
0.0
 23
0.0
 33
0.0
 16
1.0
 26
0.0
 36
0.0
 17
0.0
 27
1.0
 37
0.0
 76
     0
330
1F
  0
MLINESTYLE
  5
18
102
{ACAD_REACTORS
330
17
102
}
330
17
100
AcDbMlineStyle
  2
STANDARD
 70
     0
  3

 62
   256
 51
90.0
 52
90.0
 71
     2
 49
0.5
 62
   256
  6
BYLAYER
 49
-0.5
 62
   256
  6
BYLAYER
  0
ACDBPLACEHOLDER
  5
F
102
{ACAD_REACTORS
330
E
102
}
330
E
  0
TABLESTYLE
  5
7D3
102
{ACAD_REACTORS
330
7D2
102
}
330
7D2
100
AcDbTableStyle
  3
Standard
 70
     0
 71
     0
 40
1.5
 41
1.5
280
     0
281
     0
  7
STANDARD
140
4.5
170
     2
 62
     0
 63
     7
283
     0
274
    -2
284
     1
 64
     0
275
    -2
285
     1
 65
     0
276
    -2
286
     1
 66
     0
277
    -2
287
     1
 67
     0
278
    -2
288
     1
 68
     0
279
    -2
289
     1
 69
     0
  7
STANDARD
140
6.0
170
     5
 62
     0
 63
     7
283
     0
274
    -2
284
     1
 64
     0
275
    -2
285
     1
 65
     0
276
    -2
286
     1
 66
     0
277
    -2
287
     1
 67
     0
278
    -2
288
     1
 68
     0
279
    -2
289
     1
 69
     0
  7
STANDARD
140
4.5
170
     5
 62
     0
 63
     7
283
     0
274
    -2
284
     1
 64
     0
275
    -2
285
     1
 65
     0
276
    -2
286
     1
 66
     0
277
    -2
287
     1
 67
     0
278
    -2
288
     1
 68
     0
279
    -2
289
     1
 69
     0
  0
DICTIONARYVAR
  5
847
102
{ACAD_REACTORS
330
82
102
}
330
82
100
DictionaryVariables
280
     0
  1
STANDARD
  0
DICTIONARYVAR
  5
85
102
{ACAD_REACTORS
330
82
102
}
330
82
100
DictionaryVariables
280
     0
  1
2
  0
DICTIONARYVAR
  5
84
102
{ACAD_REACTORS
330
82
102
}
330
82
100
DictionaryVariables
280
     0
  1
1
  0
DICTIONARYVAR
  5
83
102
{ACAD_REACTORS
330
82
102
}
330
82
100
DictionaryVariables
280
     0
  1
0
  0
DICTIONARYVAR
  5
848
102
{ACAD_REACTORS
330
82
102
}
330
82
100
DictionaryVariables
280
     0
  1

  0
DICTIONARY
  5
4A
102
{ACAD_REACTORS
330
45
102
}
330
45
100
AcDbDictionary
281
     1
  0
XRECORD
  5
7DF
102
{ACAD_REACTORS
330
45
102
}
330
45
100
AcDbXrecord
280
     1
 90
-1023410169
  0
DICTIONARY
  5
32CE
330
1E
100
AcDbDictionary
280
     1
281
     1
  3
ACAD_XREC_ROUNDTRIP
360
32CF
  0
DICTIONARY
  5
32D2
330
26
100
AcDbDictionary
280
     1
281
     1
  3
ACAD_XREC_ROUNDTRIP
360
32D3
  0
DICTIONARY
  5
32D0
330
22
100
AcDbDictionary
280
     1
281
     1
  3
ACAD_XREC_ROUNDTRIP
360
32D1
  0
XRECORD
  5
32CF
102
{ACAD_REACTORS
330
32CE
102
}
330
32CE
100
AcDbXrecord
280
     1
102
SHADEPLOT
 70
     0
102
SHADEPLOTRESLEVEL
 70
     2
102
SHADEPLOTCUSTOMDPI
 70
   300
  0
XRECORD
  5
32D3
102
{ACAD_REACTORS
330
32D2
102
}
330
32D2
100
AcDbXrecord
280
     1
102
SHADEPLOT
 70
     0
102
SHADEPLOTRESLEVEL
 70
     2
102
SHADEPLOTCUSTOMDPI
 70
   300
  0
XRECORD
  5
32D1
102
{ACAD_REACTORS
330
32D0
102
}
330
32D0
100
AcDbXrecord
280
     1
102
SHADEPLOT
 70
     0
102
SHADEPLOTRESLEVEL
 70
     2
102
SHADEPLOTCUSTOMDPI
 70
   300
  0
ENDSEC
  0
EOF
