  0
SECTION
  2
HEADER
  9
$ACADVER
  1
AC1015
  9
$ACADMAINTVER
 70
    20
  9
$DWGCODEPAGE
  3
ANSI_950
  9
$INSBASE
 10
0.0
 20
0.0
 30
0.0
  9
$EXTMIN
 10
714.0040592305317
 20
75.91410687353368
 30
-0.0041365858606923
  9
$EXTMAX
 10
1379.121311530046
 20
545.0546295903491
 30
271.2898582367107
  9
$LIMMIN
 10
0.0
 20
0.0
  9
$LIMMAX
 10
420.0
 20
297.0
  9
$ORTHOMODE
 70
     1
  9
$REGENMODE
 70
     1
  9
$FILLMODE
 70
     1
  9
$QTEXTMODE
 70
     0
  9
$MIRRTEXT
 70
     1
  9
$LTSCALE
 40
1.0
  9
$ATTMODE
 70
     1
  9
$TEXTSIZE
 40
3.5
  9
$TRACEWID
 40
1.0
  9
$TEXTSTYLE
  7
STANDARD
  9
$CLAYER
  8
0
  9
$CELTYPE
  6
ByLayer
  9
$CECOLOR
 62
   256
  9
$CELTSCALE
 40
1.0
  9
$DISPSILH
 70
     0
  9
$DIMSCALE
 40
1.0
  9
$DIMASZ
 40
3.0
  9
$DIMEXO
 40
1.0
  9
$DIMDLI
 40
8.0
  9
$DIMRND
 40
0.0
  9
$DIMDLE
 40
0.0
  9
$DIMEXE
 40
1.5
  9
$DIMTP
 40
0.1
  9
$DIMTM
 40
0.1
  9
$DIMTXT
 40
3.5
  9
$DIMCEN
 40
3.0
  9
$DIMTSZ
 40
0.0
  9
$DIMTOL
 70
     0
  9
$DIMLIM
 70
     0
  9
$DIMTIH
 70
     0
  9
$DIMTOH
 70
     0
  9
$DIMSE1
 70
     0
  9
$DIMSE2
 70
     0
  9
$DIMTAD
 70
     1
  9
$DIMZIN
 70
     8
  9
$DIMBLK
  1

  9
$DIMASO
 70
     1
  9
$DIMSHO
 70
     1
  9
$DIMPOST
  1

  9
$DIMAPOST
  1
"
  9
$DIMALT
 70
     0
  9
$DIMALTD
 70
     2
  9
$DIMALTF
 40
0.0393701
  9
$DIMLFAC
 40
1.0
  9
$DIMTOFL
 70
     1
  9
$DIMTVP
 40
0.0
  9
$DIMTIX
 70
     0
  9
$DIMSOXD
 70
     0
  9
$DIMSAH
 70
     0
  9
$DIMBLK1
  1

  9
$DIMBLK2
  1

  9
$DIMSTYLE
  2
AM_ISO
  9
$DIMCLRD
 70
   256
  9
$DIMCLRE
 70
   256
  9
$DIMCLRT
 70
   256
  9
$DIMTFAC
 40
0.71
  9
$DIMGAP
 40
0.8
  9
$DIMJUST
 70
     0
  9
$DIMSD1
 70
     0
  9
$DIMSD2
 70
     0
  9
$DIMTOLJ
 70
     0
  9
$DIMTZIN
 70
     8
  9
$DIMALTZ
 70
     0
  9
$DIMALTTZ
 70
     0
  9
$DIMUPT
 70
     0
  9
$DIMDEC
 70
     2
  9
$DIMTDEC
 70
     8
  9
$DIMALTU
 70
     2
  9
$DIMALTTD
 70
     2
  9
$DIMTXSTY
  7
STANDARD
  9
$DIMAUNIT
 70
     0
  9
$DIMADEC
 70
     0
  9
$DIMALTRND
 40
0.0
  9
$DIMAZIN
 70
     2
  9
$DIMDSEP
 70
    46
  9
$DIMATFIT
 70
     3
  9
$DIMFRAC
 70
     0
  9
$DIMLDRBLK
  1

  9
$DIMLUNIT
 70
     2
  9
$DIMLWD
 70
    -1
  9
$DIMLWE
 70
    -1
  9
$DIMTMOVE
 70
     0
  9
$LUNITS
 70
     2
  9
$LUPREC
 70
     2
  9
$SKETCHINC
 40
1.0
  9
$FILLETRAD
 40
3.0
  9
$AUNITS
 70
     0
  9
$AUPREC
 70
     0
  9
$MENU
  1
.
  9
$ELEVATION
 40
0.0
  9
$PELEVATION
 40
0.0
  9
$THICKNESS
 40
0.0
  9
$LIMCHECK
 70
     0
  9
$CHAMFERA
 40
0.5
  9
$CHAMFERB
 40
0.5
  9
$CHAMFERC
 40
20.0
  9
$CHAMFERD
 40
0.0
  9
$SKPOLY
 70
     0
  9
$TDCREATE
 40
2453021.369367211
  9
$TDUCREATE
 40
2453021.036033877
  9
$TDUPDATE
 40
2453517.562299075
  9
$TDUUPDATE
 40
2453517.228965741
  9
$TDINDWG
 40
0.6711590856
  9
$TDUSRTIMER
 40
0.6711587384
  9
$USRTIMER
 70
     1
  9
$ANGBASE
 50
0.0
  9
$ANGDIR
 70
     0
  9
$PDMODE
 70
     0
  9
$PDSIZE
 40
0.0
  9
$PLINEWID
 40
0.0
  9
$SPLFRAME
 70
     0
  9
$SPLINETYPE
 70
     6
  9
$SPLINESEGS
 70
     8
  9
$HANDSEED
  5
430D
  9
$SURFTAB1
 70
     6
  9
$SURFTAB2
 70
     6
  9
$SURFTYPE
 70
     6
  9
$SURFU
 70
     6
  9
$SURFV
 70
     6
  9
$UCSBASE
  2

  9
$UCSNAME
  2

  9
$UCSORG
 10
0.0
 20
0.0
 30
0.0
  9
$UCSXDIR
 10
1.0
 20
0.0
 30
0.0
  9
$UCSYDIR
 10
0.0
 20
1.0
 30
0.0
  9
$UCSORTHOREF
  2

  9
$UCSORTHOVIEW
 70
     0
  9
$UCSORGTOP
 10
0.0
 20
0.0
 30
0.0
  9
$UCSORGBOTTOM
 10
0.0
 20
0.0
 30
0.0
  9
$UCSORGLEFT
 10
0.0
 20
0.0
 30
0.0
  9
$UCSORGRIGHT
 10
0.0
 20
0.0
 30
0.0
  9
$UCSORGFRONT
 10
0.0
 20
0.0
 30
0.0
  9
$UCSORGBACK
 10
0.0
 20
0.0
 30
0.0
  9
$PUCSBASE
  2

  9
$PUCSNAME
  2

  9
$PUCSORG
 10
0.0
 20
0.0
 30
0.0
  9
$PUCSXDIR
 10
1.0
 20
0.0
 30
0.0
  9
$PUCSYDIR
 10
0.0
 20
1.0
 30
0.0
  9
$PUCSORTHOREF
  2

  9
$PUCSORTHOVIEW
 70
     0
  9
$PUCSORGTOP
 10
0.0
 20
0.0
 30
0.0
  9
$PUCSORGBOTTOM
 10
0.0
 20
0.0
 30
0.0
  9
$PUCSORGLEFT
 10
0.0
 20
0.0
 30
0.0
  9
$PUCSORGRIGHT
 10
0.0
 20
0.0
 30
0.0
  9
$PUCSORGFRONT
 10
0.0
 20
0.0
 30
0.0
  9
$PUCSORGBACK
 10
0.0
 20
0.0
 30
0.0
  9
$USERI1
 70
     0
  9
$USERI2
 70
     0
  9
$USERI3
 70
     0
  9
$USERI4
 70
     0
  9
$USERI5
 70
     0
  9
$USERR1
 40
0.0
  9
$USERR2
 40
0.0
  9
$USERR3
 40
0.0
  9
$USERR4
 40
0.0
  9
$USERR5
 40
0.0
  9
$WORLDVIEW
 70
     1
  9
$SHADEDGE
 70
     3
  9
$SHADEDIF
 70
    70
  9
$TILEMODE
 70
     1
  9
$MAXACTVP
 70
    64
  9
$PINSBASE
 10
0.0
 20
0.0
 30
0.0
  9
$PLIMCHECK
 70
     0
  9
$PEXTMIN
 10
1.000000000000000E+20
 20
1.000000000000000E+20
 30
1.000000000000000E+20
  9
$PEXTMAX
 10
-1.000000000000000E+20
 20
-1.000000000000000E+20
 30
-1.000000000000000E+20
  9
$PLIMMIN
 10
0.0
 20
0.0
  9
$PLIMMAX
 10
420.0
 20
297.0
  9
$UNITMODE
 70
     0
  9
$VISRETAIN
 70
     1
  9
$PLINEGEN
 70
     0
  9
$PSLTSCALE
 70
     1
  9
$TREEDEPTH
 70
  3020
  9
$CMLSTYLE
  2
Standard
  9
$CMLJUST
 70
     0
  9
$CMLSCALE
 40
20.0
  9
$PROXYGRAPHICS
 70
     1
  9
$MEASUREMENT
 70
     1
  9
$CELWEIGHT
370
    -1
  9
$ENDCAPS
280
     0
  9
$JOINSTYLE
280
     0
  9
$LWDISPLAY
290
     0
  9
$INSUNITS
 70
     4
  9
$HYPERLINKBASE
  1

  9
$STYLESHEET
  1
彩色出圖.ctb
  9
$XEDIT
290
     1
  9
$CEPSNTYPE
380
     0
  9
$PSTYLEMODE
290
     1
  9
$FINGERPRINTGUID
  2
{6C02722A-18D3-491A-897A-B8025DE410A9}
  9
$VERSIONGUID
  2
{5EDF1AE8-443B-4068-86D9-EED85E8E0F88}
  9
$EXTNAMES
290
     1
  9
$PSVPSCALE
 40
0.0
  9
$OLESTARTUP
290
     0
  0
ENDSEC
  0
SECTION
  2
CLASSES
  0
CLASS
  1
ACDBDICTIONARYWDFLT
  2
AcDbDictionaryWithDefault
  3
ObjectDBX Classes
 90
        0
280
     0
281
     0
  0
CLASS
  1
ACDBPLACEHOLDER
  2
AcDbPlaceHolder
  3
ObjectDBX Classes
 90
        0
280
     0
281
     0
  0
CLASS
  1
LAYOUT
  2
AcDbLayout
  3
ObjectDBX Classes
 90
        0
280
     0
281
     0
  0
CLASS
  1
AMGSETTINGSOBJ
  2
AmgSettingsObj
  3
"AcadM|Product Description: AutoCAD Mechanical 2000|Company: Autodesk"
 90
        0
280
     0
281
     0
  0
CLASS
  1
ACME_DOCUMENT
  2
AcMeDbDoc
  3
AcMeServices
 90
        0
280
     0
281
     0
  0
CLASS
  1
ACMESCOPE
  2
AcMeScope
  3
AcMeServices
 90
        0
280
     0
281
     0
  0
CLASS
  1
ACMECOMMANDHISTORY
  2
AcMeCommandHistory
  3
AcMeServices
 90
        0
280
     0
281
     0
  0
CLASS
  1
ACIMSYSVARMAN
  2
AcImSysVarManager
  3
AcMeServices
 90
        0
280
     0
281
     0
  0
CLASS
  1
ACIMREALSYSVAR
  2
AcImRealSysVar
  3
AcMeServices
 90
        0
280
     0
281
     0
  0
CLASS
  1
ACIMINTSYSVAR
  2
AcImIntSysVar
  3
AcMeServices
 90
        0
280
     0
281
     0
  0
CLASS
  1
ACMEDRAWINGMAN
  2
AcMeDrawingMan
  3
AcMeServices
 90
        0
280
     0
281
     0
  0
CLASS
  1
ACMEVIEW
  2
AcMeView
  3
AcMeServices
 90
        0
280
     0
281
     0
  0
CLASS
  1
ACDBENTITYCACHE
  2
AcMeEntityCache
  3
AcMeServices
 90
        0
280
     0
281
     0
  0
CLASS
  1
GSMANAGER
  2
AcMeGSManager
  3
AcMeServices
 90
        0
280
     0
281
     0
  0
CLASS
  1
AMDTINTERNALREACTOR
  2
AmdtInternalReactor
  3
AcMeServices
 90
        0
280
     0
281
     0
  0
CLASS
  1
ACMESTATEMGR
  2
AcMeStateMgr
  3
AcMeServices
 90
        0
280
     0
281
     0
  0
CLASS
  1
ACGREFMASTER
  2
AcGrefMaster
  3
AcAttribServices
 90
        0
280
     0
281
     0
  0
CLASS
  1
ACME_DATABASE
  2
AcMeDbDatabase
  3
AcMeServices
 90
        0
280
     0
281
     0
  0
CLASS
  1
ACRFINSADJUSTERMGR
  2
AcRfInsAdjusterMgr
  3
AcMeServices
 90
        0
280
     0
281
     0
  0
CLASS
  1
ACGREFACADMASTER
  2
AcGrefacadMaster
  3
AcGrefServices
 90
        0
280
     0
281
     0
  0
CLASS
  1
AMIMASTER
  2
AmiMaster
  3
AmiServices
 90
        0
280
     0
281
     0
  0
CLASS
  1
ACMDATADICTIONARY
  2
AcmDataDictionary
  3
"AcmSymBB|Product Description: AutoCAD Mechanical 2004 DX|Company: Autodesk"
 90
        0
280
     0
281
     0
  0
CLASS
  1
ACMDATAENTRYBLOCK
  2
AcmDataEntryBlock
  3
"AcmSymBB|Product Description: AutoCAD Mechanical 2004 DX|Company: Autodesk"
 90
    32768
280
     0
281
     0
  0
CLASS
  1
ACIMSTRSYSVAR
  2
AcImStrSysVar
  3
AcMeServices
 90
        0
280
     0
281
     0
  0
CLASS
  1
ACMSTANDARDISO
  2
AcmStandardISO
  3
"Amdt_StdImp|Product Description: AutoCAD Mechanical 2004 DX|Company: Autodesk"
 90
        0
280
     0
281
     0
  0
CLASS
  1
AMGOBJPROPCFG
  2
AmgObjPropCfg
  3
"AmgLay|Product Description: AutoCAD Mechanical 2000|Company: Autodesk"
 90
        1
280
     0
281
     0
  0
CLASS
  1
AMDTEDGESTANDARDISO
  2
AmdtEdgeStdISO
  3
"Amdt_StdImp|Product Description: AutoCAD Mechanical 2004 DX|Company: Autodesk"
 90
    32768
280
     0
281
     0
  0
CLASS
  1
ACMSURFSTANDARDISO
  2
AcmSurfTextStdISO
  3
"Amdt_StdImp|Product Description: AutoCAD Mechanical 2004 DX|Company: Autodesk"
 90
        0
280
     0
281
     0
  0
CLASS
  1
ACMFCFSTANDARDISO
  2
AcmFCFStdISO
  3
"Amdt_StdImp|Product Description: AutoCAD Mechanical 2004 DX|Company: Autodesk"
 90
        0
280
     0
281
     0
  0
CLASS
  1
ACMWELDSTANDARDISO
  2
AcmWeldingStdISO
  3
"Amdt_StdImp|Product Description: AutoCAD Mechanical 2004 DX|Company: Autodesk"
 90
        0
280
     0
281
     0
  0
CLASS
  1
ACMIDSTANDARDISO
  2
AcmIdStdISO
  3
"Amdt_StdImp|Product Description: AutoCAD Mechanical 2004 DX|Company: Autodesk"
 90
        0
280
     0
281
     0
  0
CLASS
  1
ACMDATUMSTANDARDISO
  2
AcmDatumStdISO
  3
"Amdt_StdImp|Product Description: AutoCAD Mechanical 2004 DX|Company: Autodesk"
 90
        0
280
     0
281
     0
  0
CLASS
  1
ACMBOMSTANDARDISO
  2
AcmBOMStdISO
  3
"Amdt_StdImp|Product Description: AutoCAD Mechanical 2004 DX|Company: Autodesk"
 90
        0
280
     0
281
     0
  0
CLASS
  1
ACMDETAILSTANDARDISO
  2
AmdtDetailSymStdISO
  3
"Amdt_StdImp|Product Description: AutoCAD Mechanical 2004 DX|Company: Autodesk"
 90
        0
280
     0
281
     0
  0
CLASS
  1
ACMSECTIONSTANDARDISO
  2
AmdtSectionSymStdISO
  3
"Amdt_StdImp|Product Description: AutoCAD Mechanical 2004 DX|Company: Autodesk"
 90
        0
280
     0
281
     0
  0
CLASS
  1
ACMCENTERLINESTANDARDISO
  2
AmdtCenterLineStdISO
  3
"Amdt_StdImp|Product Description: AutoCAD Mechanical 2004 DX|Company: Autodesk"
 90
        0
280
     0
281
     0
  0
CLASS
  1
ACMNOTESTANDARDISO
  2
AmdtNoteStdISO
  3
"Amdt_StdImp|Product Description: AutoCAD Mechanical 2004 DX|Company: Autodesk"
 90
        0
280
     0
281
     0
  0
CLASS
  1
ACAMGLAYSTD
  2
AcAmgLayStd
  3
"AcAmgLayStd|Product Description: AutoCAD Mechanical 2000|Company: Autodesk"
 90
        0
280
     0
281
     0
  0
CLASS
  1
ACAMGDIMSTD
  2
AcAmgDimStd
  3
"AcAmgDimStd|Product Description: AutoCAD Mechanical 2000|Company: Autodesk"
 90
        0
280
     0
281
     0
  0
CLASS
  1
ACAMGHOLECHARTSTDISO
  2
AcAmgHoleChartStdISO
  3
ACMSYMBB_MODULE_NAME
 90
        0
280
     0
281
     0
  0
CLASS
  1
ACAMGTITLESTD
  2
AcAmgTitleStd
  3
"TITLEAPP"
 90
        0
280
     0
281
     0
  0
CLASS
  1
LAYER_INDEX
  2
AcDbLayerIndex
  3
ObjectDBX Classes
 90
    32768
280
     0
281
     0
  0
CLASS
  1
IDBUFFER
  2
AcDbIdBuffer
  3
ObjectDBX Classes
 90
    32768
280
     0
281
     0
  0
CLASS
  1
DICTIONARYVAR
  2
AcDbDictionaryVar
  3
ObjectDBX Classes
 90
        0
280
     0
281
     0
  0
CLASS
  1
ACAMGFILTERDAT
  2
AcAmgFilterDat
  3
"AcadM|Product Description: AutoCAD Mechanical 2000|Company: Autodesk"
 90
    32768
280
     0
281
     0
  0
CLASS
  1
AMDTFORMULAUPDATEDISPATCHER
  2
AmdtFormulaUpdateDispatcher
  3
AcMeServices
 90
    32768
280
     0
281
     0
  0
CLASS
  1
DIMASSOC
  2
AcDbDimAssoc
  3
"AcDbDimAssoc|Product Desc:     AcDim ARX App For Dimension|Company:          Autodesk, Inc.|WEB Address:      www.autodesk.com"
 90
        0
280
     0
281
     0
  0
CLASS
  1
AMDTNOTE
  2
AmdtNote
  3
"AcmSymBB|Product Description: AutoCAD Mechanical 2004 DX|Company: Autodesk"
 90
     1023
280
     0
281
     1
  0
CLASS
  1
TABLESTYLE
  2
AcDbTableStyle
  3
ObjectDBX Classes
 90
     2047
280
     0
281
     0
  0
CLASS
  1
AM_DRAWING_MGR
  2
AcDmDwgMgr
  3
AcMechDwgViewMgmt
 90
        0
280
     0
281
     0
  0
CLASS
  1
AM_DWG_DOCUMENT
  2
AcDmDwgDocument
  3
AcMechDwgViewMgmt
 90
        0
280
     0
281
     0
  0
CLASS
  1
AM_DWG_SHEET
  2
AcDmSheet
  3
AcMechDwgViewMgmt
 90
        0
280
     0
281
     0
  0
CLASS
  1
AM_VIEWDIMPARMAP
  2
AcDmViewDimParMap
  3
AcMechDwgViewMgmt
 90
        0
280
     0
281
     0
  0
CLASS
  1
AM_DWGMGR_NAME
  2
AcDmDwgMgrName
  3
AcMechDwgViewMgmt
 90
        0
280
     0
281
     0
  0
CLASS
  1
AMDTMENUSTATEMGR
  2
AmdtMenuStateMgr
  3
McadcomServices
 90
        0
280
     0
281
     0
  0
CLASS
  1
AMDTMCOMMENUSTATE
  2
AmdtMcomMenuState
  3
McadcomServices
 90
        0
280
     0
281
     0
  0
CLASS
  1
MAPIAMMOUDLE
  2
MApiAmModule
  3
MApiAmServices
 90
        0
280
     0
281
     0
  0
CLASS
  1
AMDTADMENUSTATE
  2
AmdtAdMenuState
  3
DesignerServices
 90
        0
280
     0
281
     0
  0
CLASS
  1
ADAPPL
  2
AcAdAppl
  3
DesignerServices
 90
        0
280
     0
281
     0
  0
CLASS
  1
DEPMGR
  2
AcAdDepMgr
  3
DesignerServices
 90
        0
280
     0
281
     0
  0
CLASS
  1
PARAMMGR
  2
AcAdParamMgr
  3
DesignerServices
 90
        0
280
     0
281
     0
  0
CLASS
  1
PARAMSCOPE
  2
AcAdParamScope
  3
DesignerServices
 90
        0
280
     0
281
     0
  0
CLASS
  1
NAMEDAPPL
  2
AcAdNamedAppl
  3
DesignerServices
 90
        0
280
     0
281
     0
  0
CLASS
  1
AMDTDMMENUSTATE
  2
AmdtDmMenuState
  3
AcMechDwgViewMgmt
 90
        0
280
     0
281
     0
  0
CLASS
  1
AMDTAMMENUSTATE
  2
AmdtAmMenuState
  3
DesignerAssemblies
 90
        0
280
     0
281
     0
  0
CLASS
  1
ACAMPROJECT
  2
AcAmProject
  3
DesignerAssemblies
 90
        0
280
     0
281
     0
  0
CLASS
  1
ACAMGRCOMPDEF
  2
AcAmGrCompDef
  3
DesignerAssemblies
 90
        0
280
     0
281
     0
  0
CLASS
  1
ACCMCONTEXT
  2
AcCmContext
  3
DesignerAssemblies
 90
        0
280
     0
281
     0
  0
CLASS
  1
ACAMCOMPDEF
  2
AcAmCompDef
  3
DesignerAssemblies
 90
        0
280
     0
281
     0
  0
CLASS
  1
ACAMCOMPDEFMGR
  2
AcAmCompDefMgr
  3
DesignerAssemblies
 90
        0
280
     0
281
     0
  0
CLASS
  1
AMCONTEXTMGR
  2
AcAmContextMgr
  3
DesignerAssemblies
 90
        0
280
     0
281
     0
  0
CLASS
  1
ACAMCONTEXTMODELER
  2
AcAmContextModeler
  3
DesignerAssemblies
 90
        0
280
     0
281
     0
  0
CLASS
  1
ACMTHREADLINESTANDARDISO
  2
AmdtThreadLineStdISO
  3
"Amdt_StdImp|Product Description: AutoCAD Mechanical 2004 DX|Company: Autodesk"
 90
        0
280
     0
281
     0
  0
CLASS
  1
CATALOGSTATE
  2
AcAmCatalogState
  3
DesignerAssemblies
 90
        0
280
     0
281
     0
  0
CLASS
  1
ACAMGRCOMPDEFSET
  2
AcAmGrCompDefSet
  3
DesignerAssemblies
 90
        0
280
     0
281
     0
  0
CLASS
  1
AMDTBROWSERDBTAB
  2
AmdtBrowserDbTab
  3
McadcomServices
 90
        0
280
     0
281
     0
  0
CLASS
  1
CBROWSERAPPOBJECT
  2
CBrowserAppObject
  3
McadcomServices
 90
        0
280
     0
281
     0
  0
CLASS
  1
DM_PLACEHOLDER
  2
AcDmSelsetPlaceholder
  3
AcMechDwgViewMgmt
 90
        0
280
     0
281
     0
  0
CLASS
  1
VAACXREFPANELOBJECT
  2
VaAcXREFPanelObject
  3
VAAC_ADDIN
 90
        0
280
     0
281
     0
  0
CLASS
  1
VAACIMAGEINVENTORY
  2
VaAcImageInventory
  3
VAAC_ADDIN
 90
        0
280
     0
281
     0
  0
CLASS
  1
AMDTEDGESTANDARDISO13715
  2
AmdtEdgeStdISO13715
  3
"Amdt_StdImp|Product Description: AutoCAD Mechanical 2004 DX|Company: Autodesk"
 90
        0
280
     0
281
     0
  0
CLASS
  1
AMDTNOTETEMPLATEDB
  2
AmdtNoteTemplateDB
  3
AMDT_STDIMP_MODULE_NAME
 90
        0
280
     0
281
     0
  0
CLASS
  1
ACRFATTGENMGR
  2
AcRfAttGeneralMgr
  3
AcAttribServices
 90
        0
280
     0
281
     0
  0
CLASS
  1
SORTENTSTABLE
  2
AcDbSortentsTable
  3
ObjectDBX Classes
 90
        0
280
     0
281
     0
  0
CLASS
  1
STDPART2D
  2
AmgStdPart
  3
"AmgStdPart|Product Description: AutoCAD Mechanical 2000|Company: Autodesk"
 90
    33791
280
     0
281
     1
  0
CLASS
  1
ACAMSTDPCOMPDEF
  2
AcAmStdpCompDef
  3
DesignerAssemblies
 90
    32768
280
     0
281
     0
  0
CLASS
  1
ACRFOBJATTMGR
  2
AcRfObjAttGroupMgr
  3
AcAttribServices
 90
    32768
280
     0
281
     0
  0
CLASS
  1
ACRFMCADAPIATTHOLDER
  2
AcRfMCADAPIAttHolder
  3
AcAttribServices
 90
    32768
280
     0
281
     0
  0
CLASS
  1
AMDTSYSATTR
  2
AmdtSystemAttribute
  3
AcAttribServices
 90
    32768
280
     0
281
     0
  0
CLASS
  1
ACAMCOMP
  2
AcAmComp
  3
DesignerAssemblies
 90
    32768
280
     0
281
     0
  0
CLASS
  1
AC_AM_STDP_VIEW_DEF
  2
AcAmStdpViewDef
  3
DesignerAssemblies
 90
    32768
280
     0
281
     0
  0
CLASS
  1
AC_AM_MVD_DEP_MGR
  2
AcAmMVDdepMgr
  3
DesignerAssemblies
 90
        0
280
     0
281
     0
  0
CLASS
  1
AC_AM_MASTER_VIEW_DEF
  2
AcAmMasterViewDef
  3
DesignerAssemblies
 90
        0
280
     0
281
     0
  0
CLASS
  1
AC_AM_DIRTY_NODES
  2
AcAmDirtyNodes
  3
DesignerAssemblies
 90
        0
280
     0
281
     0
  0
CLASS
  1
AC_AM_MAPPER_CACHE
  2
AcAmMapperCache
  3
DesignerAssemblies
 90
        0
280
     0
281
     0
  0
CLASS
  1
ACAMMVDBACKUPOBJECT
  2
AcAmMVDBackupObject
  3
DesignerAssemblies
 90
        0
280
     0
281
     0
  0
CLASS
  1
AC_AM_COMP_VIEW_INST
  2
AcAmCompView
  3
DesignerAssemblies
 90
    32768
280
     0
281
     0
  0
CLASS
  1
AC_AM_2D_XREF_MGR
  2
AcAmXrefMgr2d
  3
DesignerAssemblies
 90
        0
280
     0
281
     0
  0
CLASS
  1
ACMSTANDARDANSI
  2
AcmStandardANSI
  3
"Amdt_StdImp|Product Description: AutoCAD Mechanical 2004 DX|Company: Autodesk"
 90
        0
280
     0
281
     0
  0
CLASS
  1
ACMSURFSTANDARDANSI
  2
AcmSurfTextStdANSI
  3
"Amdt_StdImp|Product Description: AutoCAD Mechanical 2004 DX|Company: Autodesk"
 90
        0
280
     0
281
     0
  0
CLASS
  1
ACMFCFSTANDARDANSI
  2
AcmFCFStdANSI
  3
"Amdt_StdImp|Product Description: AutoCAD Mechanical 2004 DX|Company: Autodesk"
 90
        0
280
     0
281
     0
  0
CLASS
  1
ACMWELDSTANDARDANSI
  2
AcmWeldingStdANSI
  3
"Amdt_StdImp|Product Description: AutoCAD Mechanical 2004 DX|Company: Autodesk"
 90
        0
280
     0
281
     0
  0
CLASS
  1
ACMIDSTANDARDANSI
  2
AcmIdStdANSI
  3
"Amdt_StdImp|Product Description: AutoCAD Mechanical 2004 DX|Company: Autodesk"
 90
        0
280
     0
281
     0
  0
CLASS
  1
ACMDATUMSTANDARDANSI
  2
AcmDatumStdANSI
  3
"Amdt_StdImp|Product Description: AutoCAD Mechanical 2004 DX|Company: Autodesk"
 90
        0
280
     0
281
     0
  0
CLASS
  1
ACMBOMSTANDARDANSI
  2
AcmBOMStdANSI
  3
"Amdt_StdImp|Product Description: AutoCAD Mechanical 2004 DX|Company: Autodesk"
 90
        0
280
     0
281
     0
  0
CLASS
  1
ACMDETAILSTANDARDANSI
  2
AmdtDetailSymStdANSI
  3
"Amdt_StdImp|Product Description: AutoCAD Mechanical 2004 DX|Company: Autodesk"
 90
        0
280
     0
281
     0
  0
CLASS
  1
ACMSECTIONSTANDARDANSI
  2
AmdtSectionSymStdANSI
  3
"Amdt_StdImp|Product Description: AutoCAD Mechanical 2004 DX|Company: Autodesk"
 90
        0
280
     0
281
     0
  0
CLASS
  1
ACMCENTERLINESTANDARDANSI
  2
AmdtCenterLineStdANSI
  3
"Amdt_StdImp|Product Description: AutoCAD Mechanical 2004 DX|Company: Autodesk"
 90
        0
280
     0
281
     0
  0
CLASS
  1
ACMTHREADLINESTANDARDANSI
  2
AmdtThreadLineStdANSI
  3
"Amdt_StdImp|Product Description: AutoCAD Mechanical 2004 DX|Company: Autodesk"
 90
        0
280
     0
281
     0
  0
CLASS
  1
ACMNOTESTANDARDANSI
  2
AmdtNoteStdANSI
  3
"Amdt_StdImp|Product Description: AutoCAD Mechanical 2004 DX|Company: Autodesk"
 90
        0
280
     0
281
     0
  0
CLASS
  1
ACAMGHOLECHARTSTDANSI
  2
AcAmgHoleChartStdANSI
  3
ACMSYMBB_MODULE_NAME
 90
        0
280
     0
281
     0
  0
ENDSEC
  0
SECTION
  2
TABLES
  0
TABLE
  2
VPORT
  5
8
330
0
100
AcDbSymbolTable
 70
     3
  0
VPORT
  5
4304
330
8
100
AcDbSymbolTableRecord
100
AcDbViewportTableRecord
  2
*Active
 70
     0
 10
0.0
 20
0.0
 11
1.0
 21
1.0
 12
1046.583355465442
 22
310.491268967657
 13
0.0
 23
0.0
 14
2.5
 24
2.5
 15
10.0
 25
10.0
 16
0.0
 26
0.0
 36
1.0
 17
0.0
 27
0.0
 37
0.0
 40
474.608921914729
 41
1.817669172932331
 42
50.0
 43
0.0
 44
0.0
 50
0.0
 51
0.0
 71
     0
 72
   100
 73
     1
 74
     3
 75
     0
 76
     0
 77
     0
 78
     0
281
     0
 65
     1
110
0.0
120
0.0
130
0.0
111
1.0
121
0.0
131
0.0
112
0.0
122
1.0
132
0.0
 79
     0
146
0.0
  0
ENDTAB
  0
TABLE
  2
LTYPE
  5
5
330
0
100
AcDbSymbolTable
 70
    16
  0
LTYPE
  5
14
330
5
100
AcDbSymbolTableRecord
100
AcDbLinetypeTableRecord
  2
ByBlock
 70
     0
  3

 72
    65
 73
     0
 40
0.0
  0
LTYPE
  5
15
330
5
100
AcDbSymbolTableRecord
100
AcDbLinetypeTableRecord
  2
ByLayer
 70
     0
  3

 72
    65
 73
     0
 40
0.0
  0
LTYPE
  5
16
330
5
100
AcDbSymbolTableRecord
100
AcDbLinetypeTableRecord
  2
Continuous
 70
     0
  3
Solid line
 72
    65
 73
     0
 40
0.0
  0
LTYPE
  5
4D
330
5
100
AcDbSymbolTableRecord
100
AcDbLinetypeTableRecord
  2
AM_ISO02W050
 70
     0
  3
__ __ __ __ __ __ __ __ __ __ __ __ __ __ __
 72
    65
 73
     2
 40
7.5
 49
6.0
 74
     0
 49
-1.5
 74
     0
  0
LTYPE
  5
4E
330
5
100
AcDbSymbolTableRecord
100
AcDbLinetypeTableRecord
  2
AM_ISO08W050
 70
     0
  3
____ . ____ . ____ . ____ . ____ . ____ . ____
 72
    65
 73
     4
 40
18.0
 49
12.0
 74
     0
 49
-1.5
 74
     0
 49
3.0
 74
     0
 49
-1.5
 74
     0
  0
LTYPE
  5
4F
330
5
100
AcDbSymbolTableRecord
100
AcDbLinetypeTableRecord
  2
AM_ISO09W050
 70
     0
  3
_____ . . _____ . . _____ . . ____ .. ____
 72
    65
 73
     6
 40
22.5
 49
12.0
 74
     0
 49
-1.5
 74
     0
 49
3.0
 74
     0
 49
-1.5
 74
     0
 49
3.0
 74
     0
 49
-1.5
 74
     0
  0
LTYPE
  5
50
330
5
100
AcDbSymbolTableRecord
100
AcDbLinetypeTableRecord
  2
Amconstr
 70
     0
  3
_______________________
 72
    65
 73
     2
 40
9999.0
 49
9999.0
 74
     0
 49
0.0
 74
     0
  0
LTYPE
  5
51
330
5
100
AcDbSymbolTableRecord
100
AcDbLinetypeTableRecord
  2
AM_ISO08W050x2
 70
     0
  3
__ . __ . __ . __ . __ . __
 72
    65
 73
     4
 40
9.0
 49
6.0
 74
     0
 49
-0.75
 74
     0
 49
1.5
 74
     0
 49
-0.75
 74
     0
  0
LTYPE
  5
52
330
5
100
AcDbSymbolTableRecord
100
AcDbLinetypeTableRecord
  2
AM_ISO02W050x2
 70
     0
  3
 _ _ _ _ _ _ _ _ _ _ _ _
 72
    65
 73
     2
 40
3.75
 49
3.0
 74
     0
 49
-0.75
 74
     0
  0
LTYPE
  5
55
330
5
100
AcDbSymbolTableRecord
100
AcDbLinetypeTableRecord
  2
Amzigzag
 70
     0
  3
/\/-/\/-/\/-/\/-/\/-/\/
 72
    65
 73
     2
 40
11.0001
 49
0.0001
 74
     4
 75
   135
340
54
 46
0.04
 50
0.0
 44
0.0
 45
0.0
 49
-11.0
 74
     0
  0
LTYPE
  5
63
330
5
100
AcDbSymbolTableRecord
100
AcDbLinetypeTableRecord
  2
ACISOWELD
 70
     0
  3
_ _ _ _ _
 72
    65
 73
     2
 40
2.0
 49
2.0
 74
     0
 49
-1.0
 74
     0
  0
LTYPE
  5
64
330
5
100
AcDbSymbolTableRecord
100
AcDbLinetypeTableRecord
  2
ACISOTGB
 70
     0
  3
__ . . __ . .
 72
    65
 73
     6
 40
9.0
 49
4.0
 74
     0
 49
-1.0
 74
     0
 49
1.0
 74
     0
 49
-1.0
 74
     0
 49
1.0
 74
     0
 49
-1.0
 74
     0
  0
LTYPE
  5
65
330
5
100
AcDbSymbolTableRecord
100
AcDbLinetypeTableRecord
  2
ACISOTGL
 70
     0
  3
_ _ _ _ _
 72
    65
 73
     2
 40
3.0
 49
2.0
 74
     0
 49
-1.0
 74
     0
  0
LTYPE
  5
68
330
5
100
AcDbSymbolTableRecord
100
AcDbLinetypeTableRecord
  2
CENTER
 70
     0
  3
__ . __
 72
    65
 73
     4
 40
7.0
 49
4.0
 74
     0
 49
-1.0
 74
     0
 49
1.0
 74
     0
 49
-1.0
 74
     0
  0
LTYPE
  5
806
330
5
100
AcDbSymbolTableRecord
100
AcDbLinetypeTableRecord
  2
HIDDEN
 70
     0
  3
Hidden __ __ __ __ __ __ __ __ __ __ __ __ __ _
 72
    65
 73
     2
 40
9.524999999999998
 49
6.349999999999999
 74
     0
 49
-3.174999999999999
 74
     0
  0
LTYPE
  5
807
330
5
100
AcDbSymbolTableRecord
100
AcDbLinetypeTableRecord
  2
PHANTOM2
 70
     0
  3
Phantom (.5x) ___ _ _ ___ _ _ ___ _ _ ___ _ _
 72
    65
 73
     6
 40
31.75
 49
15.875
 74
     0
 49
-3.174999999999999
 74
     0
 49
3.174999999999999
 74
     0
 49
-3.174999999999999
 74
     0
 49
3.174999999999999
 74
     0
 49
-3.174999999999999
 74
     0
  0
LTYPE
  5
1658
330
5
100
AcDbSymbolTableRecord
100
AcDbLinetypeTableRecord
  2
ACANSTGB
 70
     0
  3
__ . . __ . .
 72
    65
 73
     6
 40
0.35433070866
 49
0.15748031496
 74
     0
 49
-0.03937007874
 74
     0
 49
0.03937007874
 74
     0
 49
-0.03937007874
 74
     0
 49
0.03937007874
 74
     0
 49
-0.03937007874
 74
     0
  0
LTYPE
  5
1659
330
5
100
AcDbSymbolTableRecord
100
AcDbLinetypeTableRecord
  2
ACANSTGL
 70
     0
  3
_ _ _ _ _
 72
    65
 73
     2
 40
0.11811023622
 49
0.07874015748
 74
     0
 49
-0.03937007874
 74
     0
  0
ENDTAB
  0
TABLE
  2
LAYER
  5
2
102
{ACAD_XDICTIONARY
360
AAB
102
}
330
0
100
AcDbSymbolTable
 70
     9
  0
LAYER
  5
10
330
2
100
AcDbSymbolTableRecord
100
AcDbLayerTableRecord
  2
0
 70
     0
 62
     7
  6
Continuous
370
    -3
390
F
  0
LAYER
  5
42A
330
2
100
AcDbSymbolTableRecord
100
AcDbLayerTableRecord
  2
AM_5
 70
     0
 62
     5
  6
Continuous
370
    50
390
F
  0
LAYER
  5
43E
330
2
100
AcDbSymbolTableRecord
100
AcDbLayerTableRecord
  2
Defpoints
 70
     0
 62
     7
  6
Continuous
290
     0
370
    -3
390
F
  0
LAYER
  5
CD5
330
2
100
AcDbSymbolTableRecord
100
AcDbLayerTableRecord
  2
AM_7
 70
     0
 62
     1
  6
CENTER
370
    25
390
F
  0
LAYER
  5
CD7
330
2
100
AcDbSymbolTableRecord
100
AcDbLayerTableRecord
  2
AM_4
 70
     0
 62
     3
  6
Continuous
370
    25
390
F
  0
LAYER
  5
CD9
330
2
100
AcDbSymbolTableRecord
100
AcDbLayerTableRecord
  2
AM_0
 70
     0
 62
     7
  6
Continuous
370
    50
390
F
  0
LAYER
  5
135E
330
2
100
AcDbSymbolTableRecord
100
AcDbLayerTableRecord
  2
LOGO
 70
     0
 62
     7
  6
Continuous
370
    -3
390
F
  0
LAYER
  5
2F56
330
2
100
AcDbSymbolTableRecord
100
AcDbLayerTableRecord
  2
CENTER
 70
     0
 62
     1
  6
CENTER
370
    -3
390
F
  0
LAYER
  5
4047
330
2
100
AcDbSymbolTableRecord
100
AcDbLayerTableRecord
  2
HIDDEN
 70
     0
 62
     3
  6
HIDDEN
370
    -3
390
F
  0
ENDTAB
  0
TABLE
  2
STYLE
  5
3
330
0
100
AcDbSymbolTable
 70
     8
  0
STYLE
  5
11
330
3
100
AcDbSymbolTableRecord
100
AcDbTextStyleTableRecord
  2
STANDARD
 70
     0
 40
0.0
 41
1.0
 50
0.0
 71
     0
 42
3.5
  3
ISOCP.SHX
  4
CHINESET.SHX
  0
STYLE
  5
54
330
3
100
AcDbSymbolTableRecord
100
AcDbTextStyleTableRecord
  2

 70
     1
 40
0.0
 41
1.0
 50
0.0
 71
     0
 42
2.5
  3
ltypeshp.shx
  4

  0
STYLE
  5
56
330
3
100
AcDbSymbolTableRecord
100
AcDbTextStyleTableRecord
  2
ACISOTS
 70
     0
 40
1.0
 41
1.0
 50
0.0
 71
     0
 42
2.5
  3
isocp.shx
  4
chineset.shx
  0
STYLE
  5
62
330
3
100
AcDbSymbolTableRecord
100
AcDbTextStyleTableRecord
  2
ACISOGDT
 70
     0
 40
0.0
 41
1.0
 50
0.0
 71
     0
 42
3.5
  3
amgdt.shx
  4

  0
STYLE
  5
1360
330
3
100
AcDbSymbolTableRecord
100
AcDbTextStyleTableRecord
  2
CHINESET
 70
     0
 40
0.0
 41
1.0
 50
0.0
 71
     0
 42
4.0
  3
simplex.shx
  4
chineset.shx
  0
STYLE
  5
165C
330
3
100
AcDbSymbolTableRecord
100
AcDbTextStyleTableRecord
  2
ACANSTS
 70
     0
 40
1.0
 41
1.0
 50
0.0
 71
     0
 42
3.0
  3
romans.shx
  4
chineset.shx
  0
STYLE
  5
165D
330
3
100
AcDbSymbolTableRecord
100
AcDbTextStyleTableRecord
  2
ACANSGDT
 70
     0
 40
0.0
 41
1.0
 50
0.0
 71
     0
 42
3.0
  3
amgdtans.shx
  4

  0
ENDTAB
  0
TABLE
  2
VIEW
  5
6
330
0
100
AcDbSymbolTable
 70
     0
  0
ENDTAB
  0
TABLE
  2
UCS
  5
7
330
0
100
AcDbSymbolTable
 70
     0
  0
ENDTAB
  0
TABLE
  2
APPID
  5
9
330
0
100
AcDbSymbolTable
 70
    35
  0
APPID
  5
12
330
9
100
AcDbSymbolTableRecord
100
AcDbRegAppTableRecord
  2
ACAD
 70
     0
  0
APPID
  5
30
330
9
100
AcDbSymbolTableRecord
100
AcDbRegAppTableRecord
  2
MCAD_NO_VIS
 70
     0
  0
APPID
  5
31
330
9
100
AcDbSymbolTableRecord
100
AcDbRegAppTableRecord
  2
ACAD_TEMP_GRAPHIC
 70
     0
  0
APPID
  5
42
330
9
100
AcDbSymbolTableRecord
100
AcDbRegAppTableRecord
  2
ACATTRIBSERVICES
 70
     0
  0
APPID
  5
20A
330
9
100
AcDbSymbolTableRecord
100
AcDbRegAppTableRecord
  2
GENIUS_GENODEF_13
 70
     0
  0
APPID
  5
20B
330
9
100
AcDbSymbolTableRecord
100
AcDbRegAppTableRecord
  2
GENIUS_GENOBJ-N-HTC_13
 70
     0
  0
APPID
  5
20C
330
9
100
AcDbSymbolTableRecord
100
AcDbRegAppTableRecord
  2
GENIUS_GENHATCH_13
 70
     0
  0
APPID
  5
809
330
9
100
AcDbSymbolTableRecord
100
AcDbRegAppTableRecord
  2
AD_DRAW
 70
     0
  0
APPID
  5
827
330
9
100
AcDbSymbolTableRecord
100
AcDbRegAppTableRecord
  2
DESIGNERASSEMBLIES
 70
     0
  0
APPID
  5
82C
330
9
100
AcDbSymbolTableRecord
100
AcDbRegAppTableRecord
  2
ACADM_DIM_EDIT
 70
     0
  0
APPID
  5
82D
330
9
100
AcDbSymbolTableRecord
100
AcDbRegAppTableRecord
  2
AMDT_DM_ADJ
 70
     0
  0
APPID
  5
FE4
330
9
100
AcDbSymbolTableRecord
100
AcDbRegAppTableRecord
  2
GENIUS_GENDTOL_13
 70
     0
  0
APPID
  5
108C
330
9
100
AcDbSymbolTableRecord
100
AcDbRegAppTableRecord
  2
ACAD_DSTYLE_DIMTEXT_FILL
 70
     0
  0
APPID
  5
1201
330
9
100
AcDbSymbolTableRecord
100
AcDbRegAppTableRecord
  2
GEVID1116400677
 70
     0
  0
APPID
  5
1202
330
9
100
AcDbSymbolTableRecord
100
AcDbRegAppTableRecord
  2
GEVDC
 70
     0
  0
APPID
  5
1203
330
9
100
AcDbSymbolTableRecord
100
AcDbRegAppTableRecord
  2
GEVRADREF
 70
     0
  0
APPID
  5
120C
330
9
100
AcDbSymbolTableRecord
100
AcDbRegAppTableRecord
  2
AMG_2DHIDE
 70
     0
  0
APPID
  5
120D
330
9
100
AcDbSymbolTableRecord
100
AcDbRegAppTableRecord
  2
AMG_2DSTRUCT_BTR
 70
     0
  0
APPID
  5
121E
330
9
100
AcDbSymbolTableRecord
100
AcDbRegAppTableRecord
  2
ACADM_2DVIEW_IGN_NOTIFY
 70
     0
  0
APPID
  5
1361
330
9
100
AcDbSymbolTableRecord
100
AcDbRegAppTableRecord
  2
GENIUS_GENREC_14
 70
     0
  0
APPID
  5
1362
330
9
100
AcDbSymbolTableRecord
100
AcDbRegAppTableRecord
  2
GENIUS_GENOBJ-N-REC_13
 70
     0
  0
APPID
  5
1E4E
330
9
100
AcDbSymbolTableRecord
100
AcDbRegAppTableRecord
  2
GENIUS_GENOBJ-N-CEN_13
 70
     0
  0
APPID
  5
1E4F
330
9
100
AcDbSymbolTableRecord
100
AcDbRegAppTableRecord
  2
GENIUS_GENCEN_19
 70
     0
  0
APPID
  5
1E80
330
9
100
AcDbSymbolTableRecord
100
AcDbRegAppTableRecord
  2
GENIUS_GENOLIS_13
 70
     0
  0
APPID
  5
1E81
330
9
100
AcDbSymbolTableRecord
100
AcDbRegAppTableRecord
  2
GENIUS_GENOENT_13
 70
     0
  0
APPID
  5
1E82
330
9
100
AcDbSymbolTableRecord
100
AcDbRegAppTableRecord
  2
GENIUS_GENOBJ-N-CRS_13
 70
     0
  0
APPID
  5
1E83
330
9
100
AcDbSymbolTableRecord
100
AcDbRegAppTableRecord
  2
GENIUS_GENOREF_13
 70
     0
  0
APPID
  5
1EAE
330
9
100
AcDbSymbolTableRecord
100
AcDbRegAppTableRecord
  2
GEVID1116990276
 70
     0
  0
APPID
  5
1EAF
330
9
100
AcDbSymbolTableRecord
100
AcDbRegAppTableRecord
  2
GEVMK
 70
     0
  0
APPID
  5
23FE
330
9
100
AcDbSymbolTableRecord
100
AcDbRegAppTableRecord
  2
GEVID1116990277
 70
     0
  0
APPID
  5
24AE
330
9
100
AcDbSymbolTableRecord
100
AcDbRegAppTableRecord
  2
GEVID1116990278
 70
     0
  0
APPID
  5
2920
330
9
100
AcDbSymbolTableRecord
100
AcDbRegAppTableRecord
  2
GEVID1116990279
 70
     0
  0
APPID
  5
3B25
330
9
100
AcDbSymbolTableRecord
100
AcDbRegAppTableRecord
  2
GEVID1116990280
 70
     0
  0
APPID
  5
3B57
330
9
100
AcDbSymbolTableRecord
100
AcDbRegAppTableRecord
  2
GEVID1116990281
 70
     0
  0
APPID
  5
4048
330
9
100
AcDbSymbolTableRecord
100
AcDbRegAppTableRecord
  2
ACAD_PSEXT
 70
     0
  0
ENDTAB
  0
TABLE
  2
DIMSTYLE
  5
A
330
0
100
AcDbSymbolTable
 70
    16
100
AcDbDimStyleTable
 71
     2
340
6B
340
75
  0
DIMSTYLE
105
6B
330
A
100
AcDbSymbolTableRecord
100
AcDbDimStyleTableRecord
  2
AM_ISO
 70
     0
  4
"
 41
3.0
 42
1.0
 43
8.0
 44
1.5
 47
0.1
 48
0.1
 73
     0
 74
     0
 77
     1
 78
     8
 79
     2
140
3.5
141
3.0
143
0.0393701
146
0.71
147
0.8
172
     1
176
   256
177
   256
178
   256
271
     2
272
     2
283
     0
284
     8
340
11
371
    -1
372
    -1
  0
DIMSTYLE
105
6C
330
A
100
AcDbSymbolTableRecord
100
AcDbDimStyleTableRecord
  2
AM_ISO$3
 70
     0
  4
"
 41
3.0
 42
1.0
 43
8.0
 44
1.5
 47
0.1
 48
0.1
 73
     0
 77
     1
 78
     8
 79
     2
140
3.5
141
3.0
143
0.0393701
146
0.71
147
0.8
176
   256
177
   256
178
   256
271
     2
272
     2
283
     0
284
     8
288
     1
289
     0
340
11
371
    -1
372
    -1
  0
DIMSTYLE
105
6D
330
A
100
AcDbSymbolTableRecord
100
AcDbDimStyleTableRecord
  2
AM_ISO$4
 70
     0
  4
"
 41
3.0
 42
1.0
 43
8.0
 44
1.5
 47
0.1
 48
0.1
 73
     0
 77
     1
 78
     8
 79
     2
140
3.5
141
3.0
143
0.0393701
146
0.71
147
0.8
176
   256
177
   256
178
   256
271
     2
272
     2
283
     0
284
     8
288
     1
289
     0
340
11
371
    -1
372
    -1
  0
DIMSTYLE
105
6E
330
A
100
AcDbSymbolTableRecord
100
AcDbDimStyleTableRecord
  2
AM_ISO$6
 70
     0
  4
"
 41
3.0
 42
1.0
 43
8.0
 44
1.5
 47
0.1
 48
0.1
 73
     0
 74
     0
 78
     8
 79
     2
140
3.5
141
3.0
143
0.0393701
146
0.71
147
0.8
172
     1
176
   256
177
   256
178
   256
271
     2
272
     2
283
     0
284
     8
340
11
371
    -1
372
    -1
  0
DIMSTYLE
105
6F
330
A
100
AcDbSymbolTableRecord
100
AcDbDimStyleTableRecord
  2
AM_ISO$7
 70
     0
  4
"
 41
3.0
 42
1.0
 43
8.0
 44
1.5
 47
0.1
 48
0.1
 73
     0
 74
     0
 77
     1
 78
     8
 79
     2
140
5.0
141
3.0
143
0.0393701
146
0.71
147
0.8
172
     1
176
   256
177
   256
178
   256
271
     2
272
     2
283
     0
284
     8
340
11
371
    -1
372
    -1
  0
DIMSTYLE
105
70
330
A
100
AcDbSymbolTableRecord
100
AcDbDimStyleTableRecord
  2
AM_ISO$SF
 70
     0
  4
"
 41
2.5
 42
1.0
 43
10.0
 44
1.0
 47
0.1
 48
0.1
 73
     0
 74
     0
 75
     1
 76
     1
 77
     1
 78
     8
 79
     2
140
3.5
141
0.0
143
0.0393701
146
0.71
147
1.5
172
     1
176
   256
177
   256
178
     2
271
     2
272
     3
274
     4
283
     0
284
     8
340
11
371
    -1
372
    -1
  0
DIMSTYLE
105
75
330
A
100
AcDbSymbolTableRecord
100
AcDbDimStyleTableRecord
  2
AM_ISO$SH
 70
     0
  4
"
 41
2.5
 42
1.0
 43
10.0
 44
1.0
 47
0.1
 48
0.1
 73
     0
 74
     0
 75
     1
 76
     1
 77
     1
 78
     8
 79
     2
140
3.5
141
0.0
143
0.0393701
144
2.0
146
0.71
147
1.5
172
     1
173
     1
176
   256
177
   256
178
     2
271
     2
272
     3
274
     4
283
     0
284
     8
340
11
343
71
371
    -1
372
    -1
  0
DIMSTYLE
105
AAA
102
{ACAD_REACTORS
330
3C26
330
3C27
330
3C28
330
3CA2
330
3CA3
330
3CA4
330
3CA5
330
3CA6
330
3CA7
330
3CA8
330
3CA9
330
3CAA
330
3EB7
330
3C02
102
}
330
A
100
AcDbSymbolTableRecord
100
AcDbDimStyleTableRecord
  2
AM_ISO$0
 70
     0
  4
"
 41
3.0
 42
1.0
 43
8.0
 44
1.5
 47
0.1
 48
0.1000000001
 73
     0
 74
     0
 77
     1
 78
     8
 79
     2
140
3.0
141
0.0
143
0.0393701
146
0.71
147
1.0
172
     1
176
   256
177
   256
178
   256
271
     2
272
     2
283
     2
284
     8
340
11
371
    -1
372
    -1
  0
DIMSTYLE
105
165F
330
A
100
AcDbSymbolTableRecord
100
AcDbDimStyleTableRecord
  2
AM_ANSI
 70
     0
  4
mm
 41
0.1
 42
0.05
 43
0.5
 44
0.1
 47
0.1
 48
0.1
 78
     7
 79
     2
140
0.12
141
0.0
146
0.71
147
0.06
176
   256
177
   256
178
     2
274
     4
284
     7
340
11
371
    -1
372
    -1
  0
DIMSTYLE
105
1660
330
A
100
AcDbSymbolTableRecord
100
AcDbDimStyleTableRecord
  2
AM_ANSI$3
 70
     0
  4
mm
 41
0.1
 42
0.05
 43
0.5
 44
0.1
 47
0.1
 48
0.1
 78
     7
 79
     2
140
0.12
141
0.0
146
0.71
147
0.06
176
   256
177
   256
178
     2
274
     4
284
     7
288
     1
289
     0
340
11
371
    -1
372
    -1
  0
DIMSTYLE
105
1661
330
A
100
AcDbSymbolTableRecord
100
AcDbDimStyleTableRecord
  2
AM_ANSI$4
 70
     0
  4
mm
 41
0.1
 42
0.05
 43
0.5
 44
0.1
 47
0.1
 48
0.1
 78
     7
 79
     2
140
0.12
141
0.0
146
0.71
147
0.06
176
   256
177
   256
178
     2
274
     4
284
     7
288
     1
289
     0
340
11
371
    -1
372
    -1
  0
DIMSTYLE
105
1662
330
A
100
AcDbSymbolTableRecord
100
AcDbDimStyleTableRecord
  2
AM_ANSI$7
 70
     0
  4
mm
 41
0.1
 42
0.05
 43
0.5
 44
0.1
 47
0.1
 48
0.1
 78
     7
 79
     2
140
0.24
141
0.0
146
0.71
147
0.06
176
   256
177
   256
178
     2
274
     4
284
     7
340
11
371
    -1
372
    -1
  0
DIMSTYLE
105
1663
330
A
100
AcDbSymbolTableRecord
100
AcDbDimStyleTableRecord
  2
AM_ANSI$SF
 70
     0
  4
mm
 41
0.1
 42
0.05
 43
0.5
 44
0.1
 47
0.1
 48
0.1
 75
     1
 76
     1
 78
     7
 79
     2
140
0.12
141
0.0
146
0.71
147
0.06
176
   256
177
   256
178
     2
274
     4
284
     7
340
11
371
    -1
372
    -1
  0
DIMSTYLE
105
1664
330
A
100
AcDbSymbolTableRecord
100
AcDbDimStyleTableRecord
  2
AM_ANSI$SH
 70
     0
  4
mm
 41
0.1
 42
0.05
 43
0.5
 44
0.1
 47
0.1
 48
0.1
 75
     1
 76
     1
 78
     7
 79
     2
140
0.12
141
0.0
146
0.71
147
0.06
173
     1
176
   256
177
   256
178
     2
274
     4
284
     7
340
11
341
71
343
71
371
    -1
372
    -1
  0
DIMSTYLE
105
18DA
330
A
100
AcDbSymbolTableRecord
100
AcDbDimStyleTableRecord
  2
STANDARD
 70
     0
 41
2.5
 42
1.0
 43
2.0
 44
1.0
 73
     0
 74
     0
 77
     3
 78
     8
140
3.0
141
-3.0
146
0.6
147
0.8
172
     1
176
     5
177
     5
178
     5
271
     2
272
     8
284
     8
340
1360
  0
ENDTAB
  0
TABLE
  2
BLOCK_RECORD
  5
1
330
0
100
AcDbSymbolTable
 70
    22
  0
BLOCK_RECORD
  5
1F
102
{ACAD_XDICTIONARY
360
7D
102
}
330
1
100
AcDbSymbolTableRecord
100
AcDbBlockTableRecord
  2
*Model_Space
340
22
  0
BLOCK_RECORD
  5
1B
330
1
100
AcDbSymbolTableRecord
100
AcDbBlockTableRecord
  2
*Paper_Space
340
1E
  0
BLOCK_RECORD
  5
23
330
1
100
AcDbSymbolTableRecord
100
AcDbBlockTableRecord
  2
*Paper_Space0
340
26
  0
BLOCK_RECORD
  5
71
330
1
100
AcDbSymbolTableRecord
100
AcDbBlockTableRecord
  2
GENAXEH
340
0
  0
BLOCK_RECORD
  5
1222
330
1
100
AcDbSymbolTableRecord
100
AcDbBlockTableRecord
  2
*U4
340
0
  0
BLOCK_RECORD
  5
3C03
330
1
100
AcDbSymbolTableRecord
100
AcDbBlockTableRecord
  2
*D5
340
0
  0
BLOCK_RECORD
  5
3C2B
330
1
100
AcDbSymbolTableRecord
100
AcDbBlockTableRecord
  2
*D6
340
0
  0
BLOCK_RECORD
  5
3C37
330
1
100
AcDbSymbolTableRecord
100
AcDbBlockTableRecord
  2
*D7
340
0
  0
BLOCK_RECORD
  5
3C43
330
1
100
AcDbSymbolTableRecord
100
AcDbBlockTableRecord
  2
*D8
340
0
  0
BLOCK_RECORD
  5
3CAB
330
1
100
AcDbSymbolTableRecord
100
AcDbBlockTableRecord
  2
*D9
340
0
  0
BLOCK_RECORD
  5
3CB7
330
1
100
AcDbSymbolTableRecord
100
AcDbBlockTableRecord
  2
*D10
340
0
  0
BLOCK_RECORD
  5
3CC3
330
1
100
AcDbSymbolTableRecord
100
AcDbBlockTableRecord
  2
*D11
340
0
  0
BLOCK_RECORD
  5
3CD1
330
1
100
AcDbSymbolTableRecord
100
AcDbBlockTableRecord
  2
*D12
340
0
  0
BLOCK_RECORD
  5
3CDD
330
1
100
AcDbSymbolTableRecord
100
AcDbBlockTableRecord
  2
*D13
340
0
  0
BLOCK_RECORD
  5
3CE9
330
1
100
AcDbSymbolTableRecord
100
AcDbBlockTableRecord
  2
*D14
340
0
  0
BLOCK_RECORD
  5
3CF5
330
1
100
AcDbSymbolTableRecord
100
AcDbBlockTableRecord
  2
*D15
340
0
  0
BLOCK_RECORD
  5
3D01
330
1
100
AcDbSymbolTableRecord
100
AcDbBlockTableRecord
  2
*D16
340
0
  0
BLOCK_RECORD
  5
3D0D
330
1
100
AcDbSymbolTableRecord
100
AcDbBlockTableRecord
  2
*D17
340
0
  0
BLOCK_RECORD
  5
3EBA
330
1
100
AcDbSymbolTableRecord
100
AcDbBlockTableRecord
  2
*D18
340
0
  0
BLOCK_RECORD
  5
42F3
330
1
100
AcDbSymbolTableRecord
100
AcDbBlockTableRecord
  2
*S20
340
0
  0
BLOCK_RECORD
  5
42FB
330
1
100
AcDbSymbolTableRecord
100
AcDbBlockTableRecord
  2
*S21
340
0
  0
ENDTAB
  0
ENDSEC
  0
SECTION
  2
BLOCKS
  0
BLOCK
  5
20
330
1F
100
AcDbEntity
  8
0
100
AcDbBlockBegin
  2
*Model_Space
 70
     0
 10
0.0
 20
0.0
 30
0.0
  3
*Model_Space
  1

  0
ENDBLK
  5
21
330
1F
100
AcDbEntity
  8
0
100
AcDbBlockEnd
  0
BLOCK
  5
1C
330
1B
100
AcDbEntity
 67
     1
  8
0
100
AcDbBlockBegin
  2
*Paper_Space
 70
     0
 10
0.0
 20
0.0
 30
0.0
  3
*Paper_Space
  1

  0
ENDBLK
  5
1D
330
1B
100
AcDbEntity
 67
     1
  8
0
100
AcDbBlockEnd
  0
BLOCK
  5
24
330
23
100
AcDbEntity
  8
0
100
AcDbBlockBegin
  2
*Paper_Space0
 70
     0
 10
0.0
 20
0.0
 30
0.0
  3
*Paper_Space0
  1

  0
ENDBLK
  5
25
330
23
100
AcDbEntity
  8
0
100
AcDbBlockEnd
  0
BLOCK
  5
73
330
71
100
AcDbEntity
  8
0
100
AcDbBlockBegin
  2
GENAXEH
 70
     0
 10
0.0
 20
0.0
 30
0.0
  3
GENAXEH
  1

  0
LINE
  5
72
330
71
100
AcDbEntity
  8
0
100
AcDbLine
 10
-1.0
 20
0.0
 30
0.0
 11
1.0
 21
0.0
 31
0.0
  0
ENDBLK
  5
74
330
71
100
AcDbEntity
  8
0
100
AcDbBlockEnd
  0
BLOCK
  5
1223
330
1222
100
AcDbEntity
  8
0
100
AcDbBlockBegin
  2
*U4
 70
     1
 10
0.0
 20
0.0
 30
0.0
  3
*U4
  1

  0
ENDBLK
  5
1224
330
1222
100
AcDbEntity
  8
0
100
AcDbBlockEnd
  0
BLOCK
  5
3C0D
330
3C03
100
AcDbEntity
  8
0
100
AcDbBlockBegin
  2
*D5
 70
     1
 10
0.0
 20
0.0
 30
0.0
  3
*D5
  1

  0
LINE
  5
41D8
330
3C03
100
AcDbEntity
  8
AM_5
100
AcDbLine
 10
751.8440851209698
 20
412.9992477823743
 30
0.0
 11
751.8440851209698
 21
352.4992477823744
 31
0.0
  0
LINE
  5
41D9
330
3C03
100
AcDbEntity
  8
AM_5
100
AcDbLine
 10
821.8440851209697
 20
360.2937683303196
 30
0.0
 11
821.8440851209697
 21
352.4992477823744
 31
0.0
  0
LINE
  5
41DA
330
3C03
100
AcDbEntity
  8
AM_5
100
AcDbLine
 10
754.8440851209697
 20
353.9992477823744
 30
0.0
 11
818.8440851209698
 21
353.9992477823744
 31
0.0
  0
SOLID
  5
41DB
330
3C03
100
AcDbEntity
  8
AM_5
100
AcDbTrace
 10
754.8440851209697
 20
354.4992477823744
 30
0.0
 11
754.8440851209697
 21
353.4992477823744
 31
0.0
 12
751.8440851209698
 22
353.9992477823744
 32
0.0
 13
751.8440851209698
 23
353.9992477823744
 33
0.0
  0
SOLID
  5
41DC
330
3C03
100
AcDbEntity
  8
AM_5
100
AcDbTrace
 10
818.8440851209698
 20
354.4992477823744
 30
0.0
 11
818.8440851209698
 21
353.4992477823744
 31
0.0
 12
821.8440851209697
 22
353.9992477823744
 32
0.0
 13
821.8440851209697
 23
353.9992477823744
 33
0.0
  0
MTEXT
  5
41DD
330
3C03
100
AcDbEntity
  8
AM_5
100
AcDbMText
 10
786.8440851209697
 20
356.4992477823744
 30
0.0
 40
3.0
 41
0.0
 71
     5
 72
     1
  1
\A2;70
 73
     1
 44
1.0
1001
ACAD
1000
MTEXTBEGIN
1070
    73
1070
     1
1070
    44
1040
1.0
1070
    74
1070
     0
1000
MTEXTEND
  0
POINT
  5
41DE
330
3C03
100
AcDbEntity
  8
Defpoints
 62
     0
100
AcDbPoint
 10
751.8440851209698
 20
413.9992477823743
 30
0.0
  0
POINT
  5
41DF
330
3C03
100
AcDbEntity
  8
Defpoints
 62
     0
100
AcDbPoint
 10
821.8440851209697
 20
361.2937683303196
 30
0.0
  0
POINT
  5
41E0
330
3C03
100
AcDbEntity
  8
Defpoints
 62
     0
100
AcDbPoint
 10
821.8440851209697
 20
353.9992477823744
 30
0.0
  0
ENDBLK
  5
3C0E
330
3C03
100
AcDbEntity
  8
0
100
AcDbBlockEnd
  0
BLOCK
  5
3C35
330
3C2B
100
AcDbEntity
  8
0
100
AcDbBlockBegin
  2
*D6
 70
     1
 10
0.0
 20
0.0
 30
0.0
  3
*D6
  1

  0
LINE
  5
41E1
330
3C2B
100
AcDbEntity
  8
AM_5
100
AcDbLine
 10
835.9231714804982
 20
431.9992477823744
 30
0.0
 11
883.3440851209699
 21
431.9992477823744
 31
0.0
  0
LINE
  5
41E2
330
3C2B
100
AcDbEntity
  8
AM_5
100
AcDbLine
 10
835.9231714804977
 20
395.9992477823744
 30
0.0
 11
883.3440851209699
 21
395.9992477823744
 31
0.0
  0
LINE
  5
41E3
330
3C2B
100
AcDbEntity
  8
AM_5
100
AcDbLine
 10
881.8440851209699
 20
428.9992477823743
 30
0.0
 11
881.8440851209699
 21
398.9992477823744
 31
0.0
  0
SOLID
  5
41E4
330
3C2B
100
AcDbEntity
  8
AM_5
100
AcDbTrace
 10
881.3440851209699
 20
428.9992477823743
 30
0.0
 11
882.3440851209699
 21
428.9992477823743
 31
0.0
 12
881.8440851209699
 22
431.9992477823744
 32
0.0
 13
881.8440851209699
 23
431.9992477823744
 33
0.0
  0
SOLID
  5
41E5
330
3C2B
100
AcDbEntity
  8
AM_5
100
AcDbTrace
 10
881.3440851209699
 20
398.9992477823744
 30
0.0
 11
882.3440851209699
 21
398.9992477823744
 31
0.0
 12
881.8440851209699
 22
395.9992477823744
 32
0.0
 13
881.8440851209699
 23
395.9992477823744
 33
0.0
  0
MTEXT
  5
41E6
330
3C2B
100
AcDbEntity
  8
AM_5
100
AcDbMText
 10
879.3440851209698
 20
414.4615765494974
 30
0.0
 40
3.0
 41
0.0
 71
     5
 72
     1
  1
\A2;36
 11
0.0000000000000001
 21
1.0
 31
0.0
 73
     1
 44
1.0
1001
ACAD
1000
MTEXTBEGIN
1070
    73
1070
     1
1070
    44
1040
1.0
1070
    74
1070
     0
1000
MTEXTEND
  0
POINT
  5
41E7
330
3C2B
100
AcDbEntity
  8
Defpoints
 62
     0
100
AcDbPoint
 10
834.9231714804982
 20
431.9992477823744
 30
0.0
  0
POINT
  5
41E8
330
3C2B
100
AcDbEntity
  8
Defpoints
 62
     0
100
AcDbPoint
 10
834.9231714804977
 20
395.9992477823744
 30
0.0
  0
POINT
  5
41E9
330
3C2B
100
AcDbEntity
  8
Defpoints
 62
     0
100
AcDbPoint
 10
881.8440851209699
 20
395.9992477823744
 30
0.0
  0
ENDBLK
  5
3C36
330
3C2B
100
AcDbEntity
  8
0
100
AcDbBlockEnd
  0
BLOCK
  5
3C41
330
3C37
100
AcDbEntity
  8
0
100
AcDbBlockBegin
  2
*D7
 70
     1
 10
0.0
 20
0.0
 30
0.0
  3
*D7
  1

  0
LINE
  5
41EA
330
3C37
100
AcDbEntity
  8
AM_5
100
AcDbLine
 10
872.8440851209697
 20
450.9992477823742
 30
0.0
 11
891.3440851209697
 21
450.9992477823742
 31
0.0
  0
LINE
  5
41EB
330
3C37
100
AcDbEntity
  8
AM_5
100
AcDbLine
 10
873.0940851209698
 20
376.9992477823743
 30
0.0
 11
891.3440851209697
 21
376.9992477823743
 31
0.0
  0
LINE
  5
41EC
330
3C37
100
AcDbEntity
  8
AM_5
100
AcDbLine
 10
889.8440851209697
 20
447.9992477823742
 30
0.0
 11
889.8440851209697
 21
379.9992477823743
 31
0.0
  0
SOLID
  5
41ED
330
3C37
100
AcDbEntity
  8
AM_5
100
AcDbTrace
 10
889.3440851209698
 20
447.9992477823742
 30
0.0
 11
890.3440851209698
 21
447.9992477823742
 31
0.0
 12
889.8440851209697
 22
450.9992477823742
 32
0.0
 13
889.8440851209697
 23
450.9992477823742
 33
0.0
  0
SOLID
  5
41EE
330
3C37
100
AcDbEntity
  8
AM_5
100
AcDbTrace
 10
889.3440851209698
 20
379.9992477823743
 30
0.0
 11
890.3440851209698
 21
379.9992477823743
 31
0.0
 12
889.8440851209697
 22
376.9992477823743
 32
0.0
 13
889.8440851209697
 23
376.9992477823743
 33
0.0
  0
MTEXT
  5
41EF
330
3C37
100
AcDbEntity
  8
AM_5
100
AcDbMText
 10
887.3440851209696
 20
413.9992477823743
 30
0.0
 40
3.0
 41
0.0
 71
     5
 72
     1
  1
\A2;74
 11
0.0000000000000001
 21
1.0
 31
0.0
 73
     1
 44
1.0
1001
ACAD
1000
MTEXTBEGIN
1070
    73
1070
     1
1070
    44
1040
1.0
1070
    74
1070
     0
1000
MTEXTEND
  0
POINT
  5
41F0
330
3C37
100
AcDbEntity
  8
Defpoints
 62
     0
100
AcDbPoint
 10
871.8440851209697
 20
450.9992477823742
 30
0.0
  0
POINT
  5
41F1
330
3C37
100
AcDbEntity
  8
Defpoints
 62
     0
100
AcDbPoint
 10
872.0940851209698
 20
376.9992477823743
 30
0.0
  0
POINT
  5
41F2
330
3C37
100
AcDbEntity
  8
Defpoints
 62
     0
100
AcDbPoint
 10
889.8440851209697
 20
376.9992477823743
 30
0.0
  0
ENDBLK
  5
3C42
330
3C37
100
AcDbEntity
  8
0
100
AcDbBlockEnd
  0
BLOCK
  5
3C4D
330
3C43
100
AcDbEntity
  8
0
100
AcDbBlockBegin
  2
*D8
 70
     1
 10
0.0
 20
0.0
 30
0.0
  3
*D8
  1

  0
LINE
  5
41F3
330
3C43
100
AcDbEntity
  8
AM_5
100
AcDbLine
 10
864.8440851209697
 20
463.9992477823742
 30
0.0
 11
899.3440851209697
 21
463.9992477823741
 31
0.0
  0
LINE
  5
41F4
330
3C43
100
AcDbEntity
  8
AM_5
100
AcDbLine
 10
864.8440851209697
 20
363.9992477823744
 30
0.0
 11
899.3440851209697
 21
363.9992477823743
 31
0.0
  0
LINE
  5
41F5
330
3C43
100
AcDbEntity
  8
AM_5
100
AcDbLine
 10
897.8440851209697
 20
460.9992477823742
 30
0.0
 11
897.8440851209697
 21
366.9992477823743
 31
0.0
  0
SOLID
  5
41F6
330
3C43
100
AcDbEntity
  8
AM_5
100
AcDbTrace
 10
897.3440851209698
 20
460.9992477823742
 30
0.0
 11
898.3440851209698
 21
460.9992477823742
 31
0.0
 12
897.8440851209697
 22
463.9992477823741
 32
0.0
 13
897.8440851209697
 23
463.9992477823741
 33
0.0
  0
SOLID
  5
41F7
330
3C43
100
AcDbEntity
  8
AM_5
100
AcDbTrace
 10
897.3440851209698
 20
366.9992477823743
 30
0.0
 11
898.3440851209698
 21
366.9992477823743
 31
0.0
 12
897.8440851209697
 22
363.9992477823743
 32
0.0
 13
897.8440851209697
 23
363.9992477823743
 33
0.0
  0
MTEXT
  5
41F8
330
3C43
100
AcDbEntity
  8
AM_5
100
AcDbMText
 10
895.3440851209697
 20
413.9992477823744
 30
0.0
 40
3.0
 41
0.0
 71
     5
 72
     1
  1
\A2;{\Famgdt|c136;o}100
 11
0.0000000000000001
 21
1.0
 31
0.0
 73
     1
 44
1.0
1001
ACAD
1000
MTEXTBEGIN
1070
    73
1070
     1
1070
    44
1040
1.0
1070
    74
1070
     0
1000
MTEXTEND
  0
POINT
  5
41F9
330
3C43
100
AcDbEntity
  8
Defpoints
 62
     0
100
AcDbPoint
 10
863.8440851209697
 20
463.9992477823742
 30
0.0
  0
POINT
  5
41FA
330
3C43
100
AcDbEntity
  8
Defpoints
 62
     0
100
AcDbPoint
 10
863.8440851209697
 20
363.9992477823744
 30
0.0
  0
POINT
  5
41FB
330
3C43
100
AcDbEntity
  8
Defpoints
 62
     0
100
AcDbPoint
 10
897.8440851209697
 20
363.9992477823743
 30
0.0
  0
ENDBLK
  5
3C4E
330
3C43
100
AcDbEntity
  8
0
100
AcDbBlockEnd
  0
BLOCK
  5
3CB5
330
3CAB
100
AcDbEntity
  8
0
100
AcDbBlockBegin
  2
*D9
 70
     1
 10
0.0
 20
0.0
 30
0.0
  3
*D9
  1

  0
LINE
  5
41FC
330
3CAB
100
AcDbEntity
  8
AM_5
100
AcDbLine
 10
872.8440851209697
 20
161.5779563480314
 30
0.0
 11
883.1668921388839
 21
161.5779563480314
 31
0.0
  0
LINE
  5
41FD
330
3CAB
100
AcDbEntity
  8
AM_5
100
AcDbLine
 10
836.6940851209697
 20
178.5779563480313
 30
0.0
 11
883.1668921388839
 21
178.5779563480313
 31
0.0
  0
LINE
  5
41FE
330
3CAB
100
AcDbEntity
  8
AM_5
100
AcDbLine
 10
881.6668921388838
 20
164.5779563480314
 30
0.0
 11
881.6668921388838
 21
175.5779563480313
 31
0.0
  0
SOLID
  5
41FF
330
3CAB
100
AcDbEntity
  8
AM_5
100
AcDbTrace
 10
881.1668921388839
 20
164.5779563480314
 30
0.0
 11
882.1668921388839
 21
164.5779563480314
 31
0.0
 12
881.6668921388838
 22
161.5779563480314
 32
0.0
 13
881.6668921388838
 23
161.5779563480314
 33
0.0
  0
SOLID
  5
4200
330
3CAB
100
AcDbEntity
  8
AM_5
100
AcDbTrace
 10
881.1668921388839
 20
175.5779563480313
 30
0.0
 11
882.1668921388839
 21
175.5779563480313
 31
0.0
 12
881.6668921388838
 22
178.5779563480313
 32
0.0
 13
881.6668921388838
 23
178.5779563480313
 33
0.0
  0
MTEXT
  5
4201
330
3CAB
100
AcDbEntity
  8
AM_5
100
AcDbMText
 10
879.1668921388838
 20
170.0779563480315
 30
0.0
 40
3.0
 41
0.0
 71
     5
 72
     1
  1
\A2;17
 11
0.0000000000000001
 21
1.0
 31
0.0
 73
     1
 44
1.0
1001
ACAD
1000
MTEXTBEGIN
1070
    73
1070
     1
1070
    44
1040
1.0
1070
    74
1070
     0
1000
MTEXTEND
  0
POINT
  5
4202
330
3CAB
100
AcDbEntity
  8
Defpoints
 62
     0
100
AcDbPoint
 10
871.8440851209697
 20
161.5779563480314
 30
0.0
  0
POINT
  5
4203
330
3CAB
100
AcDbEntity
  8
Defpoints
 62
     0
100
AcDbPoint
 10
835.6940851209696
 20
178.5779563480313
 30
0.0
  0
POINT
  5
4204
330
3CAB
100
AcDbEntity
  8
Defpoints
 62
     0
100
AcDbPoint
 10
881.6668921388838
 20
178.5779563480313
 30
0.0
  0
ENDBLK
  5
3CB6
330
3CAB
100
AcDbEntity
  8
0
100
AcDbBlockEnd
  0
BLOCK
  5
3CC1
330
3CB7
100
AcDbEntity
  8
0
100
AcDbBlockBegin
  2
*D10
 70
     1
 10
0.0
 20
0.0
 30
0.0
  3
*D10
  1

  0
LINE
  5
4205
330
3CB7
100
AcDbEntity
  8
AM_5
100
AcDbLine
 10
872.8440851209697
 20
161.5779563480314
 30
0.0
 11
891.1668921388839
 21
161.5779563480314
 31
0.0
  0
LINE
  5
4206
330
3CB7
100
AcDbEntity
  8
AM_5
100
AcDbLine
 10
872.8440851209697
 20
195.5779563480314
 30
0.0
 11
891.1668921388839
 21
195.5779563480314
 31
0.0
  0
LINE
  5
4207
330
3CB7
100
AcDbEntity
  8
AM_5
100
AcDbLine
 10
889.6668921388839
 20
164.5779563480314
 30
0.0
 11
889.6668921388839
 21
192.5779563480314
 31
0.0
  0
SOLID
  5
4208
330
3CB7
100
AcDbEntity
  8
AM_5
100
AcDbTrace
 10
889.166892138884
 20
164.5779563480314
 30
0.0
 11
890.1668921388839
 21
164.5779563480314
 31
0.0
 12
889.6668921388839
 22
161.5779563480314
 32
0.0
 13
889.6668921388839
 23
161.5779563480314
 33
0.0
  0
SOLID
  5
4209
330
3CB7
100
AcDbEntity
  8
AM_5
100
AcDbTrace
 10
889.166892138884
 20
192.5779563480314
 30
0.0
 11
890.1668921388839
 21
192.5779563480314
 31
0.0
 12
889.6668921388839
 22
195.5779563480314
 32
0.0
 13
889.6668921388839
 23
195.5779563480314
 33
0.0
  0
MTEXT
  5
420A
330
3CB7
100
AcDbEntity
  8
AM_5
100
AcDbMText
 10
887.1668921388838
 20
178.5779563480315
 30
0.0
 40
3.0
 41
0.0
 71
     5
 72
     1
  1
\A2;34
 11
0.0000000000000001
 21
1.0
 31
0.0
 73
     1
 44
1.0
1001
ACAD
1000
MTEXTBEGIN
1070
    73
1070
     1
1070
    44
1040
1.0
1070
    74
1070
     0
1000
MTEXTEND
  0
POINT
  5
420B
330
3CB7
100
AcDbEntity
  8
Defpoints
 62
     0
100
AcDbPoint
 10
871.8440851209697
 20
161.5779563480314
 30
0.0
  0
POINT
  5
420C
330
3CB7
100
AcDbEntity
  8
Defpoints
 62
     0
100
AcDbPoint
 10
871.8440851209697
 20
195.5779563480314
 30
0.0
  0
POINT
  5
420D
330
3CB7
100
AcDbEntity
  8
Defpoints
 62
     0
100
AcDbPoint
 10
889.6668921388839
 20
195.5779563480314
 30
0.0
  0
ENDBLK
  5
3CC2
330
3CB7
100
AcDbEntity
  8
0
100
AcDbBlockEnd
  0
BLOCK
  5
3CCF
330
3CC3
100
AcDbEntity
  8
0
100
AcDbBlockBegin
  2
*D11
 70
     1
 10
0.0
 20
0.0
 30
0.0
  3
*D11
  1

  0
LINE
  5
420E
330
3CC3
100
AcDbEntity
  8
AM_5
100
AcDbLine
 10
844.8440851209698
 20
157.5779563480314
 30
0.0
 11
883.1668921388839
 21
157.5779563480314
 31
0.0
  0
LINE
  5
420F
330
3CC3
100
AcDbEntity
  8
AM_5
100
AcDbLine
 10
872.8440851209697
 20
161.5779563480314
 30
0.0
 11
883.1668921388839
 21
161.5779563480314
 31
0.0
  0
LINE
  5
4210
330
3CC3
100
AcDbEntity
  8
AM_5
100
AcDbLine
 10
881.6668921388838
 20
164.5779563480314
 30
0.0
 11
881.6668921388838
 21
167.5779563480314
 31
0.0
  0
LINE
  5
4211
330
3CC3
100
AcDbEntity
  8
AM_5
100
AcDbLine
 10
881.6668921388838
 20
154.5779563480314
 30
0.0
 11
881.6668921388838
 21
148.0779563480314
 31
0.0
  0
LINE
  5
4212
330
3CC3
100
AcDbEntity
  8
AM_5
100
AcDbLine
 10
881.6668921388838
 20
161.5779563480314
 30
0.0
 11
881.6668921388838
 21
157.5779563480314
 31
0.0
  0
SOLID
  5
4213
330
3CC3
100
AcDbEntity
  8
AM_5
100
AcDbTrace
 10
881.1668921388839
 20
164.5779563480314
 30
0.0
 11
882.1668921388839
 21
164.5779563480314
 31
0.0
 12
881.6668921388838
 22
161.5779563480314
 32
0.0
 13
881.6668921388838
 23
161.5779563480314
 33
0.0
  0
SOLID
  5
4214
330
3CC3
100
AcDbEntity
  8
AM_5
100
AcDbTrace
 10
881.1668921388839
 20
154.5779563480314
 30
0.0
 11
882.1668921388839
 21
154.5779563480314
 31
0.0
 12
881.6668921388838
 22
157.5779563480314
 32
0.0
 13
881.6668921388838
 23
157.5779563480314
 33
0.0
  0
MTEXT
  5
4215
330
3CC3
100
AcDbEntity
  8
AM_5
100
AcDbMText
 10
879.1668921388838
 20
149.8279563480315
 30
0.0
 40
3.0
 41
0.0
 71
     5
 72
     1
  1
\A2;4
 11
0.0000000000000001
 21
1.0
 31
0.0
 73
     1
 44
1.0
1001
ACAD
1000
MTEXTBEGIN
1070
    73
1070
     1
1070
    44
1040
1.0
1070
    74
1070
     0
1000
MTEXTEND
  0
POINT
  5
4216
330
3CC3
100
AcDbEntity
  8
Defpoints
 62
     0
100
AcDbPoint
 10
843.8440851209698
 20
157.5779563480314
 30
0.0
  0
POINT
  5
4217
330
3CC3
100
AcDbEntity
  8
Defpoints
 62
     0
100
AcDbPoint
 10
871.8440851209697
 20
161.5779563480314
 30
0.0
  0
POINT
  5
4218
330
3CC3
100
AcDbEntity
  8
Defpoints
 62
     0
100
AcDbPoint
 10
881.6668921388838
 20
161.5779563480314
 30
0.0
  0
ENDBLK
  5
3CD0
330
3CC3
100
AcDbEntity
  8
0
100
AcDbBlockEnd
  0
BLOCK
  5
3CDB
330
3CD1
100
AcDbEntity
  8
0
100
AcDbBlockBegin
  2
*D12
 70
     1
 10
0.0
 20
0.0
 30
0.0
  3
*D12
  1

  0
LINE
  5
42A6
330
3CD1
100
AcDbEntity
  8
AM_5
100
AcDbLine
 10
844.8440851209698
 20
157.5779563480314
 30
0.0
 11
907.1668921388843
 21
157.5779563480314
 31
0.0
  0
LINE
  5
42A7
330
3CD1
100
AcDbEntity
  8
AM_5
100
AcDbLine
 10
843.5940851209698
 20
320.5779563480316
 30
0.0
 11
907.1668921388843
 21
320.5779563480316
 31
0.0
  0
LINE
  5
42A8
330
3CD1
100
AcDbEntity
  8
AM_5
100
AcDbLine
 10
905.6668921388842
 20
160.5779563480314
 30
0.0
 11
905.6668921388844
 21
317.5779563480316
 31
0.0
  0
SOLID
  5
42A9
330
3CD1
100
AcDbEntity
  8
AM_5
100
AcDbTrace
 10
905.1668921388841
 20
160.5779563480314
 30
0.0
 11
906.1668921388841
 21
160.5779563480314
 31
0.0
 12
905.6668921388842
 22
157.5779563480314
 32
0.0
 13
905.6668921388842
 23
157.5779563480314
 33
0.0
  0
SOLID
  5
42AA
330
3CD1
100
AcDbEntity
  8
AM_5
100
AcDbTrace
 10
905.1668921388843
 20
317.5779563480316
 30
0.0
 11
906.1668921388843
 21
317.5779563480316
 31
0.0
 12
905.6668921388844
 22
320.5779563480316
 32
0.0
 13
905.6668921388844
 23
320.5779563480316
 33
0.0
  0
MTEXT
  5
42AB
330
3CD1
100
AcDbEntity
  8
AM_5
100
AcDbMText
 10
902.7375266088228
 20
239.0779563480316
 30
0.0
 40
3.0
 41
0.0
 71
     5
 72
     1
  1
\A2;113+length
 11
0.0000000000000001
 21
1.0
 31
0.0
 73
     1
 44
1.0
1001
ACAD
1000
MTEXTBEGIN
1070
    73
1070
     1
1070
    44
1040
1.0
1070
    74
1070
     0
1000
MTEXTEND
  0
POINT
  5
42AC
330
3CD1
100
AcDbEntity
  8
Defpoints
 62
     0
100
AcDbPoint
 10
843.8440851209698
 20
157.5779563480314
 30
0.0
  0
POINT
  5
42AD
330
3CD1
100
AcDbEntity
  8
Defpoints
 62
     0
100
AcDbPoint
 10
842.5940851209698
 20
320.5779563480316
 30
0.0
  0
POINT
  5
42AE
330
3CD1
100
AcDbEntity
  8
Defpoints
 62
     0
100
AcDbPoint
 10
905.6668921388844
 20
320.5779563480316
 30
0.0
  0
ENDBLK
  5
3CDC
330
3CD1
100
AcDbEntity
  8
0
100
AcDbBlockEnd
  0
BLOCK
  5
3CE7
330
3CDD
100
AcDbEntity
  8
0
100
AcDbBlockBegin
  2
*D13
 70
     1
 10
0.0
 20
0.0
 30
0.0
  3
*D13
  1

  0
LINE
  5
4222
330
3CDD
100
AcDbEntity
  8
AM_5
100
AcDbLine
 10
872.8440851209697
 20
293.5779563480314
 30
0.0
 11
891.1668921388836
 21
293.5779563480314
 31
0.0
  0
LINE
  5
4223
330
3CDD
100
AcDbEntity
  8
AM_5
100
AcDbLine
 10
844.5940851209694
 20
308.5779563480314
 30
0.0
 11
891.1668921388836
 21
308.5779563480314
 31
0.0
  0
LINE
  5
4224
330
3CDD
100
AcDbEntity
  8
AM_5
100
AcDbLine
 10
889.6668921388837
 20
296.5779563480314
 30
0.0
 11
889.6668921388837
 21
305.5779563480314
 31
0.0
  0
SOLID
  5
4225
330
3CDD
100
AcDbEntity
  8
AM_5
100
AcDbTrace
 10
889.1668921388836
 20
296.5779563480314
 30
0.0
 11
890.1668921388836
 21
296.5779563480314
 31
0.0
 12
889.6668921388837
 22
293.5779563480314
 32
0.0
 13
889.6668921388837
 23
293.5779563480314
 33
0.0
  0
SOLID
  5
4226
330
3CDD
100
AcDbEntity
  8
AM_5
100
AcDbTrace
 10
889.1668921388836
 20
305.5779563480314
 30
0.0
 11
890.1668921388836
 21
305.5779563480314
 31
0.0
 12
889.6668921388837
 22
308.5779563480314
 32
0.0
 13
889.6668921388837
 23
308.5779563480314
 33
0.0
  0
MTEXT
  5
4227
330
3CDD
100
AcDbEntity
  8
AM_5
100
AcDbMText
 10
887.1668921388835
 20
301.0779563480316
 30
0.0
 40
3.0
 41
0.0
 71
     5
 72
     1
  1
\A2;15
 11
0.0000000000000001
 21
1.0
 31
0.0
 73
     1
 44
1.0
1001
ACAD
1000
MTEXTBEGIN
1070
    73
1070
     1
1070
    44
1040
1.0
1070
    74
1070
     0
1000
MTEXTEND
  0
POINT
  5
4228
330
3CDD
100
AcDbEntity
  8
Defpoints
 62
     0
100
AcDbPoint
 10
871.8440851209697
 20
293.5779563480314
 30
0.0
  0
POINT
  5
4229
330
3CDD
100
AcDbEntity
  8
Defpoints
 62
     0
100
AcDbPoint
 10
843.5940851209695
 20
308.5779563480314
 30
0.0
  0
POINT
  5
422A
330
3CDD
100
AcDbEntity
  8
Defpoints
 62
     0
100
AcDbPoint
 10
889.6668921388837
 20
308.5779563480314
 30
0.0
  0
ENDBLK
  5
3CE8
330
3CDD
100
AcDbEntity
  8
0
100
AcDbBlockEnd
  0
BLOCK
  5
3CF3
330
3CE9
100
AcDbEntity
  8
0
100
AcDbBlockBegin
  2
*D14
 70
     1
 10
0.0
 20
0.0
 30
0.0
  3
*D14
  1

  0
LINE
  5
422B
330
3CE9
100
AcDbEntity
  8
AM_5
100
AcDbLine
 10
872.8440851209697
 20
293.5779563480314
 30
0.0
 11
899.1668921388839
 21
293.5779563480314
 31
0.0
  0
LINE
  5
422C
330
3CE9
100
AcDbEntity
  8
AM_5
100
AcDbLine
 10
843.5940851209698
 20
320.5779563480316
 30
0.0
 11
899.1668921388839
 21
320.5779563480316
 31
0.0
  0
LINE
  5
422D
330
3CE9
100
AcDbEntity
  8
AM_5
100
AcDbLine
 10
897.6668921388839
 20
296.5779563480314
 30
0.0
 11
897.6668921388839
 21
317.5779563480316
 31
0.0
  0
SOLID
  5
422E
330
3CE9
100
AcDbEntity
  8
AM_5
100
AcDbTrace
 10
897.1668921388838
 20
296.5779563480314
 30
0.0
 11
898.1668921388839
 21
296.5779563480314
 31
0.0
 12
897.6668921388839
 22
293.5779563480314
 32
0.0
 13
897.6668921388839
 23
293.5779563480314
 33
0.0
  0
SOLID
  5
422F
330
3CE9
100
AcDbEntity
  8
AM_5
100
AcDbTrace
 10
897.1668921388838
 20
317.5779563480316
 30
0.0
 11
898.1668921388839
 21
317.5779563480316
 31
0.0
 12
897.6668921388839
 22
320.5779563480316
 32
0.0
 13
897.6668921388839
 23
320.5779563480316
 33
0.0
  0
MTEXT
  5
4230
330
3CE9
100
AcDbEntity
  8
AM_5
100
AcDbMText
 10
895.1665968632932
 20
307.0779563480316
 30
0.0
 40
3.0
 41
0.0
 71
     5
 72
     1
  1
\A2;27
 11
0.0000000000000001
 21
1.0
 31
0.0
 73
     1
 44
1.0
1001
ACAD
1000
MTEXTBEGIN
1070
    73
1070
     1
1070
    44
1040
1.0
1070
    74
1070
     0
1000
MTEXTEND
  0
POINT
  5
4231
330
3CE9
100
AcDbEntity
  8
Defpoints
 62
     0
100
AcDbPoint
 10
871.8440851209697
 20
293.5779563480314
 30
0.0
  0
POINT
  5
4232
330
3CE9
100
AcDbEntity
  8
Defpoints
 62
     0
100
AcDbPoint
 10
842.5940851209698
 20
320.5779563480316
 30
0.0
  0
POINT
  5
4233
330
3CE9
100
AcDbEntity
  8
Defpoints
 62
     0
100
AcDbPoint
 10
897.6668921388839
 20
320.5779563480316
 30
0.0
  0
ENDBLK
  5
3CF4
330
3CE9
100
AcDbEntity
  8
0
100
AcDbBlockEnd
  0
BLOCK
  5
3CFF
330
3CF5
100
AcDbEntity
  8
0
100
AcDbBlockBegin
  2
*D15
 70
     1
 10
0.0
 20
0.0
 30
0.0
  3
*D15
  1

  0
LINE
  5
429C
330
3CF5
100
AcDbEntity
  8
AM_5
100
AcDbLine
 10
872.8440851209697
 20
161.5779563480314
 30
0.0
 11
899.1668921388837
 21
161.5779563480314
 31
0.0
  0
LINE
  5
429D
330
3CF5
100
AcDbEntity
  8
AM_5
100
AcDbLine
 10
872.8440851209697
 20
293.5779563480314
 30
0.0
 11
899.1668921388839
 21
293.5779563480314
 31
0.0
  0
LINE
  5
429E
330
3CF5
100
AcDbEntity
  8
AM_5
100
AcDbLine
 10
897.6668921388837
 20
164.5779563480314
 30
0.0
 11
897.6668921388839
 21
290.5779563480314
 31
0.0
  0
SOLID
  5
429F
330
3CF5
100
AcDbEntity
  8
AM_5
100
AcDbTrace
 10
897.1668921388838
 20
164.5779563480314
 30
0.0
 11
898.1668921388838
 21
164.5779563480314
 31
0.0
 12
897.6668921388837
 22
161.5779563480314
 32
0.0
 13
897.6668921388837
 23
161.5779563480314
 33
0.0
  0
SOLID
  5
42A0
330
3CF5
100
AcDbEntity
  8
AM_5
100
AcDbTrace
 10
897.1668921388838
 20
290.5779563480314
 30
0.0
 11
898.1668921388839
 21
290.5779563480314
 31
0.0
 12
897.6668921388839
 22
293.5779563480314
 32
0.0
 13
897.6668921388839
 23
293.5779563480314
 33
0.0
  0
MTEXT
  5
42A1
330
3CF5
100
AcDbEntity
  8
AM_5
100
AcDbMText
 10
894.7372313332317
 20
227.5779563480315
 30
0.0
 40
3.0
 41
0.0
 71
     5
 72
     1
  1
\A2;82+length
 11
0.0000000000000001
 21
1.0
 31
0.0
 73
     1
 44
1.0
1001
ACAD
1000
MTEXTBEGIN
1070
    73
1070
     1
1070
    44
1040
1.0
1070
    74
1070
     0
1000
MTEXTEND
  0
POINT
  5
42A2
330
3CF5
100
AcDbEntity
  8
Defpoints
 62
     0
100
AcDbPoint
 10
871.8440851209697
 20
161.5779563480314
 30
0.0
  0
POINT
  5
42A3
330
3CF5
100
AcDbEntity
  8
Defpoints
 62
     0
100
AcDbPoint
 10
871.8440851209697
 20
293.5779563480314
 30
0.0
  0
POINT
  5
42A4
330
3CF5
100
AcDbEntity
  8
Defpoints
 62
     0
100
AcDbPoint
 10
897.6668921388839
 20
293.5779563480314
 30
0.0
  0
ENDBLK
  5
3D00
330
3CF5
100
AcDbEntity
  8
0
100
AcDbBlockEnd
  0
BLOCK
  5
3D0B
330
3D01
100
AcDbEntity
  8
0
100
AcDbBlockBegin
  2
*D16
 70
     1
 10
0.0
 20
0.0
 30
0.0
  3
*D16
  1

  0
LINE
  5
423D
330
3D01
100
AcDbEntity
  8
AM_5
100
AcDbLine
 10
872.8440851209697
 20
259.5779563480314
 30
0.0
 11
891.1668921388836
 21
259.5779563480314
 31
0.0
  0
LINE
  5
423E
330
3D01
100
AcDbEntity
  8
AM_5
100
AcDbLine
 10
872.8440851209697
 20
293.5779563480314
 30
0.0
 11
891.1668921388836
 21
293.5779563480314
 31
0.0
  0
LINE
  5
423F
330
3D01
100
AcDbEntity
  8
AM_5
100
AcDbLine
 10
889.6668921388837
 20
262.5779563480314
 30
0.0
 11
889.6668921388837
 21
290.5779563480314
 31
0.0
  0
SOLID
  5
4240
330
3D01
100
AcDbEntity
  8
AM_5
100
AcDbTrace
 10
889.1668921388836
 20
262.5779563480314
 30
0.0
 11
890.1668921388836
 21
262.5779563480314
 31
0.0
 12
889.6668921388837
 22
259.5779563480314
 32
0.0
 13
889.6668921388837
 23
259.5779563480314
 33
0.0
  0
SOLID
  5
4241
330
3D01
100
AcDbEntity
  8
AM_5
100
AcDbTrace
 10
889.1668921388836
 20
290.5779563480314
 30
0.0
 11
890.1668921388836
 21
290.5779563480314
 31
0.0
 12
889.6668921388837
 22
293.5779563480314
 32
0.0
 13
889.6668921388837
 23
293.5779563480314
 33
0.0
  0
MTEXT
  5
4242
330
3D01
100
AcDbEntity
  8
AM_5
100
AcDbMText
 10
887.1668921388835
 20
276.5779563480315
 30
0.0
 40
3.0
 41
0.0
 71
     5
 72
     1
  1
\A2;34
 11
0.0000000000000001
 21
1.0
 31
0.0
 73
     1
 44
1.0
1001
ACAD
1000
MTEXTBEGIN
1070
    73
1070
     1
1070
    44
1040
1.0
1070
    74
1070
     0
1000
MTEXTEND
  0
POINT
  5
4243
330
3D01
100
AcDbEntity
  8
Defpoints
 62
     0
100
AcDbPoint
 10
871.8440851209697
 20
259.5779563480314
 30
0.0
  0
POINT
  5
4244
330
3D01
100
AcDbEntity
  8
Defpoints
 62
     0
100
AcDbPoint
 10
871.8440851209697
 20
293.5779563480314
 30
0.0
  0
POINT
  5
4245
330
3D01
100
AcDbEntity
  8
Defpoints
 62
     0
100
AcDbPoint
 10
889.6668921388837
 20
293.5779563480314
 30
0.0
  0
ENDBLK
  5
3D0C
330
3D01
100
AcDbEntity
  8
0
100
AcDbBlockEnd
  0
BLOCK
  5
3D17
330
3D0D
100
AcDbEntity
  8
0
100
AcDbBlockBegin
  2
*D17
 70
     1
 10
0.0
 20
0.0
 30
0.0
  3
*D17
  1

  0
LINE
  5
4246
330
3D0D
100
AcDbEntity
  8
AM_5
100
AcDbLine
 10
872.8440851209697
 20
293.5779563480314
 30
0.0
 11
883.1668921388837
 21
293.5779563480314
 31
0.0
  0
LINE
  5
4247
330
3D0D
100
AcDbEntity
  8
AM_5
100
AcDbLine
 10
836.5440851209697
 20
276.5779563480313
 30
0.0
 11
883.1668921388837
 21
276.5779563480313
 31
0.0
  0
LINE
  5
4248
330
3D0D
100
AcDbEntity
  8
AM_5
100
AcDbLine
 10
881.6668921388837
 20
290.5779563480314
 30
0.0
 11
881.6668921388837
 21
279.5779563480313
 31
0.0
  0
SOLID
  5
4249
330
3D0D
100
AcDbEntity
  8
AM_5
100
AcDbTrace
 10
881.1668921388836
 20
290.5779563480314
 30
0.0
 11
882.1668921388836
 21
290.5779563480314
 31
0.0
 12
881.6668921388837
 22
293.5779563480314
 32
0.0
 13
881.6668921388837
 23
293.5779563480314
 33
0.0
  0
SOLID
  5
424A
330
3D0D
100
AcDbEntity
  8
AM_5
100
AcDbTrace
 10
881.1668921388836
 20
279.5779563480313
 30
0.0
 11
882.1668921388836
 21
279.5779563480313
 31
0.0
 12
881.6668921388837
 22
276.5779563480313
 32
0.0
 13
881.6668921388837
 23
276.5779563480313
 33
0.0
  0
MTEXT
  5
424B
330
3D0D
100
AcDbEntity
  8
AM_5
100
AcDbMText
 10
879.1668921388835
 20
285.0779563480315
 30
0.0
 40
3.0
 41
0.0
 71
     5
 72
     1
  1
\A2;17
 11
0.0000000000000001
 21
1.0
 31
0.0
 73
     1
 44
1.0
1001
ACAD
1000
MTEXTBEGIN
1070
    73
1070
     1
1070
    44
1040
1.0
1070
    74
1070
     0
1000
MTEXTEND
  0
POINT
  5
424C
330
3D0D
100
AcDbEntity
  8
Defpoints
 62
     0
100
AcDbPoint
 10
871.8440851209697
 20
293.5779563480314
 30
0.0
  0
POINT
  5
424D
330
3D0D
100
AcDbEntity
  8
Defpoints
 62
     0
100
AcDbPoint
 10
835.5440851209698
 20
276.5779563480313
 30
0.0
  0
POINT
  5
424E
330
3D0D
100
AcDbEntity
  8
Defpoints
 62
     0
100
AcDbPoint
 10
881.6668921388837
 20
276.5779563480313
 30
0.0
  0
ENDBLK
  5
3D18
330
3D0D
100
AcDbEntity
  8
0
100
AcDbBlockEnd
  0
BLOCK
  5
3EC4
330
3EBA
100
AcDbEntity
  8
0
100
AcDbBlockBegin
  2
*D18
 70
     1
 10
0.0
 20
0.0
 30
0.0
  3
*D18
  1

  0
LINE
  5
424F
330
3EBA
100
AcDbEntity
  8
AM_5
100
AcDbLine
 10
799.3440851209697
 20
157.0779563480314
 30
0.0
 11
799.3440851209697
 21
146.0779563480315
 31
0.0
  0
LINE
  5
4250
330
3EBA
100
AcDbEntity
  8
AM_5
100
AcDbLine
 10
844.3440851209697
 20
157.0779563480314
 30
0.0
 11
844.3440851209697
 21
146.0779563480315
 31
0.0
  0
LINE
  5
4251
330
3EBA
100
AcDbEntity
  8
AM_5
100
AcDbLine
 10
802.3440851209697
 20
147.5779563480315
 30
0.0
 11
841.3440851209697
 21
147.5779563480315
 31
0.0
  0
SOLID
  5
4252
330
3EBA
100
AcDbEntity
  8
AM_5
100
AcDbTrace
 10
802.3440851209697
 20
148.0779563480315
 30
0.0
 11
802.3440851209697
 21
147.0779563480315
 31
0.0
 12
799.3440851209697
 22
147.5779563480315
 32
0.0
 13
799.3440851209697
 23
147.5779563480315
 33
0.0
  0
SOLID
  5
4253
330
3EBA
100
AcDbEntity
  8
AM_5
100
AcDbTrace
 10
841.3440851209697
 20
148.0779563480315
 30
0.0
 11
841.3440851209697
 21
147.0779563480315
 31
0.0
 12
844.3440851209697
 22
147.5779563480315
 32
0.0
 13
844.3440851209697
 23
147.5779563480315
 33
0.0
  0
MTEXT
  5
4254
330
3EBA
100
AcDbEntity
  8
AM_5
100
AcDbMText
 10
821.8440851209697
 20
150.0779563480315
 30
0.0
 40
3.0
 41
0.0
 71
     5
 72
     1
  1
\A2;%%c45
 73
     1
 44
1.0
1001
ACAD
1000
MTEXTBEGIN
1070
    73
1070
     1
1070
    44
1040
1.0
1070
    74
1070
     0
1000
MTEXTEND
  0
POINT
  5
4255
330
3EBA
100
AcDbEntity
  8
Defpoints
 62
     0
100
AcDbPoint
 10
799.3440851209697
 20
158.0779563480314
 30
0.0
  0
POINT
  5
4256
330
3EBA
100
AcDbEntity
  8
Defpoints
 62
     0
100
AcDbPoint
 10
844.3440851209697
 20
158.0779563480314
 30
0.0
  0
POINT
  5
4257
330
3EBA
100
AcDbEntity
  8
Defpoints
 62
     0
100
AcDbPoint
 10
844.3440851209697
 20
147.5779563480315
 30
0.0
  0
ENDBLK
  5
3EC5
330
3EBA
100
AcDbEntity
  8
0
100
AcDbBlockEnd
  0
BLOCK
  5
42F8
330
42F3
100
AcDbEntity
  8
0
100
AcDbBlockBegin
  2
*S20
 70
     1
 10
0.0
 20
0.0
 30
0.0
  3
*S20
  1

  0
LINE
  5
42F4
330
42F3
100
AcDbEntity
  8
AM_5
 62
     5
100
AcDbLine
 10
899.1980433547544
 20
353.5599805760297
 30
0.0
 11
879.3351471267456
 21
353.5599805760297
 31
0.0
  0
LINE
  5
42F5
330
42F3
100
AcDbEntity
  8
AM_5
 62
     5
100
AcDbLine
 10
879.3351471267456
 20
353.5599805760297
 30
0.0
 11
865.7177551958746
 21
370.6573711227383
 31
0.0
  0
TRACE
  5
42F6
330
42F3
100
AcDbEntity
  8
AM_5
 62
     5
370
    35
100
AcDbTrace
 10
866.0781883677195
 20
370.9444418165082
 30
0.0
 11
865.3573220240298
 21
370.3703004289685
 31
0.0
 12
863.5372367833006
 22
373.3951328823561
 32
0.0
 13
863.5372367833006
 23
373.3951328823561
 33
0.0
  0
MTEXT
  5
42F7
330
42F3
100
AcDbEntity
  8
AM_5
 62
     2
100
AcDbMText
 10
899.1980433547544
 20
348.8913011948139
 30
0.0
 40
3.5
 41
0.0
 71
     9
 72
     5
  1

  7
ACISOTS
210
0.0
220
0.0
230
-1.0
 11
-1.0
 21
0.0
 31
0.0
 73
     1
 44
1.0
1001
ACAD
1000
MTEXTBEGIN
1070
    73
1070
     1
1070
    44
1040
1.0
1070
    74
1070
     0
1000
MTEXTEND
  0
ENDBLK
  5
42F9
330
42F3
100
AcDbEntity
  8
0
100
AcDbBlockEnd
  0
BLOCK
  5
4300
330
42FB
100
AcDbEntity
  8
0
100
AcDbBlockBegin
  2
*S21
 70
     1
 10
0.0
 20
0.0
 30
0.0
  3
*S21
  1

  0
LINE
  5
42FC
330
42FB
100
AcDbEntity
  8
AM_5
 62
     5
100
AcDbLine
 10
775.0113001967661
 20
149.7103182089425
 30
0.0
 11
791.3294921930851
 21
149.7103182089425
 31
0.0
  0
LINE
  5
42FD
330
42FB
100
AcDbEntity
  8
AM_5
 62
     5
100
AcDbLine
 10
791.3294921930851
 20
149.7103182089425
 30
0.0
 11
811.8036161913913
 21
170.5909651943485
 31
0.0
  0
TRACE
  5
42FE
330
42FB
100
AcDbEntity
  8
AM_5
 62
     5
370
    35
100
AcDbTrace
 10
812.1326264893831
 20
170.26836036115
 30
0.0
 11
811.4746058933995
 21
170.9135700275469
 31
0.0
 12
814.2540431908765
 22
173.0900465295983
 32
0.0
 13
814.2540431908765
 23
173.0900465295983
 33
0.0
  0
MTEXT
  5
42FF
330
42FB
100
AcDbEntity
  8
AM_5
 62
     2
100
AcDbMText
 10
775.0113001967661
 20
145.0416388277268
 30
0.0
 40
3.5
 41
0.0
 71
     9
 72
     5
  1

  7
ACISOTS
 73
     1
 44
1.0
1001
ACAD
1000
MTEXTBEGIN
1070
    73
1070
     1
1070
    44
1040
1.0
1070
    74
1070
     0
1000
MTEXTEND
  0
ENDBLK
  5
4301
330
42FB
100
AcDbEntity
  8
0
100
AcDbBlockEnd
  0
ENDSEC
  0
SECTION
  2
ENTITIES
  0
TEXT
  5
13F1
330
1F
100
AcDbEntity
  8
LOGO
 62
     7
100
AcDbText
 10
807.48333413113
 20
99.21455841951534
 30
0.0
 40
5.51912393510226
  1
Order example:
 41
0.8
  7
CHINESET
100
AcDbText
  0
TEXT
  5
13F2
330
1F
100
AcDbEntity
  8
LOGO
 62
     7
100
AcDbText
 10
808.4735106063851
 20
106.9843421709472
 30
0.0
 40
8.278685902653393
  1
訂購代號:
  7
CHINESET
100
AcDbText
  0
LINE
  5
13F3
330
1F
100
AcDbEntity
  8
LOGO
 62
     1
100
AcDbLine
 10
1379.091318345954
 20
117.348315519886
 30
0.0
 11
714.0197111323482
 21
117.348315519886
 31
0.0
  0
LINE
  5
13F5
330
1F
100
AcDbEntity
  8
LOGO
 62
     1
100
AcDbLine
 10
805.0852560615357
 20
75.95488600661894
 30
0.0
 11
805.0852560615357
 21
117.348315519886
 31
0.0
  0
TEXT
  5
13F7
330
1F
100
AcDbEntity
  8
LOGO
  6
Continuous
 62
     5
100
AcDbText
 10
728.88841708058
 20
84.08656276636845
 30
0.0
 40
6.209014426990045
  1
金器工業股份有限公司
  7
CHINESET
100
AcDbText
  0
TEXT
  5
13F8
330
1F
100
AcDbEntity
  8
LOGO
  6
Continuous
 62
     5
100
AcDbText
 10
717.4836859711254
 20
77.8763318593563
 30
0.0
 40
4.139342951326696
  1
MINDMAN INDUSTRIAL CO., LTD.
 41
0.85
  7
CHINESET
100
AcDbText
  0
LINE
  5
13F9
330
1F
100
AcDbEntity
  8
LOGO
 62
     1
100
AcDbLine
 10
805.0852560615357
 20
109.0696296172327
 30
0.0
 11
744.374892775411
 21
109.0696296172327
 31
0.0
  0
LINE
  5
13FA
330
1F
100
AcDbEntity
  8
LOGO
 62
     1
100
AcDbLine
 10
805.0852560615357
 20
100.7909437145791
 30
0.0
 11
744.374892775411
 21
100.7909437145791
 31
0.0
  0
LINE
  5
13FB
330
1F
100
AcDbEntity
  8
LOGO
 62
     1
100
AcDbLine
 10
805.0852560615357
 20
92.51225781192585
 30
0.0
 11
714.0197111323482
 21
92.51225781192585
 31
0.0
  0
LINE
  5
13FC
330
1F
100
AcDbEntity
  8
LOGO
 62
     1
100
AcDbLine
 10
744.374892775411
 20
92.51225781192585
 30
0.0
 11
744.374892775411
 21
117.348315519886
 31
0.0
  0
TEXT
  5
13FD
330
1F
100
AcDbEntity
  8
LOGO
 62
     6
100
AcDbText
 10
783.6993333357593
 20
94.58192928758913
 30
0.0
 40
4.139342951326696
  1
m/m
  7
CHINESET
 72
     1
 11
790.9924613928588
 21
96.6516007632525
 31
0.0
100
AcDbText
 73
     2
  0
TEXT
  5
13FE
330
1F
100
AcDbEntity
  8
LOGO
 62
     6
100
AcDbText
 10
783.6993333357593
 20
111.139301092896
 30
0.0
 40
4.139342951326696
  1
1 : 1
  7
CHINESET
 72
     1
 11
790.9924613928588
 21
113.2089725685594
 31
0.0
100
AcDbText
 73
     2
  0
LINE
  5
13FF
330
1F
100
AcDbEntity
  8
LOGO
 62
     1
100
AcDbLine
 10
777.4896363860242
 20
92.51225781192585
 30
0.0
 11
777.4896363860242
 21
117.348315519886
 31
0.0
  0
CIRCLE
  5
1400
330
1F
100
AcDbEntity
  8
LOGO
  6
Continuous
 62
     6
100
AcDbCircle
 10
785.1541476012378
 20
104.9391407507696
 30
0.0
 40
2.403399946690514
  0
CIRCLE
  5
1401
330
1F
100
AcDbEntity
  8
LOGO
  6
Continuous
 62
     6
100
AcDbCircle
 10
785.1541476012378
 20
104.9391407507696
 30
0.0
 40
1.408179607801088
  0
LINE
  5
1402
330
1F
100
AcDbEntity
  8
LOGO
 62
     6
100
AcDbLine
 10
800.2573917449781
 20
102.535740804079
 30
0.0
 11
800.2573917449781
 21
107.3425406974603
 31
0.0
  0
LINE
  5
1403
330
1F
100
AcDbEntity
  8
LOGO
 62
     6
100
AcDbLine
 10
792.7228708738422
 20
103.5309611429686
 30
0.0
 11
792.7228708738422
 21
106.3473203585709
 31
0.0
  0
LINE
  5
1404
330
1F
100
AcDbEntity
  8
LOGO
  6
Continuous
 62
     6
100
AcDbLine
 10
792.7228708738422
 20
106.3473203585709
 30
0.0
 11
800.2573917449781
 21
107.3425406974603
 31
0.0
  0
LINE
  5
1405
330
1F
100
AcDbEntity
  8
LOGO
  6
Continuous
 62
     6
100
AcDbLine
 10
792.7228708738422
 20
103.5309611429686
 30
0.0
 11
800.2573917449781
 21
102.535740804079
 31
0.0
  0
LINE
  5
1406
330
1F
100
AcDbEntity
  8
LOGO
 62
     6
100
AcDbLine
 10
927.2249660928363
 20
113.2089725685594
 30
0.0
 11
905.0720249431657
 21
113.2089725685594
 31
0.0
  0
LINE
  5
1407
330
1F
100
AcDbEntity
  8
LOGO
 62
     6
100
AcDbLine
 10
927.2249660928363
 20
94.58192928758931
 30
0.0
 11
905.0720249431657
 21
94.58192928758931
 31
0.0
  0
LINE
  5
1408
330
1F
100
AcDbEntity
  8
LOGO
 62
     6
100
AcDbLine
 10
927.2249660928363
 20
100.7909437145791
 30
0.0
 11
905.0720249431657
 21
100.7909437145791
 31
0.0
  0
LINE
  5
1409
330
1F
100
AcDbEntity
  8
LOGO
 62
     6
100
AcDbLine
 10
927.2249660928363
 20
79.40433846605817
 30
0.0
 11
905.0720249431657
 21
79.40433846605782
 31
0.0
  0
LINE
  5
140A
330
1F
100
AcDbEntity
  8
LOGO
 62
     6
100
AcDbLine
 10
905.0720249431657
 20
94.58192928758931
 30
0.0
 11
905.0720249431657
 21
79.40433846605817
 31
0.0
  0
LINE
  5
140D
330
1F
100
AcDbEntity
  8
LOGO
 62
     6
100
AcDbLine
 10
892.3752628664331
 20
94.58192928758931
 30
0.0
 11
892.3752628664331
 21
79.40433846605782
 31
0.0
  0
LINE
  5
140E
330
1F
100
AcDbEntity
  8
LOGO
 62
     6
100
AcDbLine
 10
864.7796431909213
 20
94.58192928758931
 30
0.0
 11
864.7796431909213
 21
79.40433846605782
 31
0.0
  0
LINE
  5
140F
330
1F
100
AcDbEntity
  8
LOGO
 62
     6
100
AcDbLine
 10
892.3752628664331
 20
79.40433846605782
 30
0.0
 11
864.7796431909213
 21
79.40433846605782
 31
0.0
  0
LINE
  5
1411
330
1F
100
AcDbEntity
  8
LOGO
  6
Continuous
 62
     7
100
AcDbLine
 10
897.2742645812482
 20
106.9559715208561
 30
0.0
 11
902.7576130094271
 21
106.9559715208561
 31
0.0
  0
LINE
  5
1412
330
1F
100
AcDbEntity
  8
LOGO
 62
     6
100
AcDbLine
 10
895.134824833984
 20
113.2089725685594
 30
0.0
 11
862.0200812233704
 21
113.2089725685594
 31
0.0
  0
LINE
  5
1413
330
1F
100
AcDbEntity
  8
LOGO
 62
     6
100
AcDbLine
 10
895.134824833984
 20
100.7909437145791
 30
0.0
 11
862.0200812233704
 21
100.7909437145791
 31
0.0
  0
LINE
  5
1414
330
1F
100
AcDbEntity
  8
LOGO
 62
     6
100
AcDbLine
 10
862.0200812233704
 20
113.2089725685594
 30
0.0
 11
862.0200812233704
 21
100.7909437145791
 31
0.0
  0
LINE
  5
1415
330
1F
100
AcDbEntity
  8
LOGO
 62
     6
100
AcDbLine
 10
895.134824833984
 20
113.2089725685594
 30
0.0
 11
895.134824833984
 21
100.7909437145791
 31
0.0
  0
LINE
  5
1416
330
1F
100
AcDbEntity
  8
LOGO
 62
     6
100
AcDbLine
 10
878.577453028677
 20
100.7909437145791
 30
0.0
 11
878.577453028677
 21
94.58192928758931
 31
0.0
  0
TEXT
  5
1417
330
1F
100
AcDbEntity
  8
LOGO
  6
Continuous
 62
     7
100
AcDbText
 10
864.9439028318472
 20
103.5505056821302
 30
0.0
 40
6.898904918877826
  1
MCQA
  7
CHINESET
 72
     1
 11
878.577453028677
 21
106.9999581415691
 31
0.0
100
AcDbText
 73
     2
  0
LINE
  5
1418
330
1F
100
AcDbEntity
  8
LOGO
 62
     6
100
AcDbLine
 10
892.3752628664331
 20
94.58192928758931
 30
0.0
 11
864.7796431909213
 21
94.58192928758931
 31
0.0
  0
TEXT
  5
141F
330
1F
100
AcDbEntity
  8
LOGO
  6
Continuous
 62
     7
100
AcDbText
 10
911.2075656966597
 20
103.4722716656312
 30
0.0
 40
6.898904918877826
  1
80
  7
CHINESET
 72
     1
 11
916.7923934881324
 21
106.9217241250702
 31
0.0
100
AcDbText
 73
     2
  0
LINE
  5
1421
330
1F
100
AcDbEntity
  8
LOGO
 62
     6
100
AcDbLine
 10
916.1484951998449
 20
100.7909437145791
 30
0.0
 11
916.1484951998449
 21
94.58192928758931
 31
0.0
  0
LINE
  5
1422
330
1F
100
AcDbEntity
  8
LOGO
 62
     6
100
AcDbLine
 10
905.0720249431657
 20
113.2089725685594
 30
0.0
 11
905.0720249431657
 21
100.7909437145791
 31
0.0
  0
LINE
  5
1425
330
1F
100
AcDbEntity
  8
LOGO
 62
     6
100
AcDbLine
 10
958.6004481812487
 20
94.58192928758931
 30
0.0
 11
958.6004481812487
 21
79.34710888473361
 31
0.0
  0
LINE
  5
1426
330
1F
100
AcDbEntity
  8
LOGO
 62
     6
100
AcDbLine
 10
938.3750415522515
 20
94.58192928758931
 30
0.0
 11
938.3750415522515
 21
79.40433846605782
 31
0.0
  0
LINE
  5
1427
330
1F
100
AcDbEntity
  8
LOGO
 62
     6
100
AcDbLine
 10
927.2249660928363
 20
94.58192928758931
 30
0.0
 11
927.2249660928363
 21
79.40433846605817
 31
0.0
  0
LINE
  5
1428
330
1F
100
AcDbEntity
  8
LOGO
 62
     6
100
AcDbLine
 10
958.6004481812487
 20
79.40433846605782
 30
0.0
 11
938.3750415522515
 21
79.40433846605782
 31
0.0
  0
LINE
  5
1429
330
1F
100
AcDbEntity
  8
LOGO
 62
     6
100
AcDbLine
 10
958.6004481812487
 20
94.58192928758931
 30
0.0
 11
938.3750415522515
 21
94.58192928758931
 31
0.0
  0
LINE
  5
142A
330
1F
100
AcDbEntity
  8
LOGO
 62
     6
100
AcDbLine
 10
959.9802291650242
 20
100.7909437145791
 30
0.0
 11
936.9952605684758
 21
100.7909437145791
 31
0.0
  0
LINE
  5
142B
330
1F
100
AcDbEntity
  8
LOGO
 62
     6
100
AcDbLine
 10
959.9802291650242
 20
113.2089725685594
 30
0.0
 11
936.9952605684758
 21
113.2089725685594
 31
0.0
  0
LINE
  5
142C
330
1F
100
AcDbEntity
  8
LOGO
 62
     6
100
AcDbLine
 10
948.7799699509029
 20
100.7909437145791
 30
0.0
 11
948.7799699509029
 21
94.58192928758931
 31
0.0
  0
LINE
  5
142D
330
1F
100
AcDbEntity
  8
LOGO
  6
Continuous
 62
     7
100
AcDbLine
 10
929.3644058401003
 20
106.9559715208561
 30
0.0
 11
934.8477542682791
 21
106.9559715208561
 31
0.0
  0
LINE
  5
142E
330
1F
100
AcDbEntity
  8
LOGO
 62
     6
100
AcDbLine
 10
936.9952605684758
 20
113.2089725685594
 30
0.0
 11
936.9952605684758
 21
100.7909437145791
 31
0.0
  0
LINE
  5
142F
330
1F
100
AcDbEntity
  8
LOGO
 62
     6
100
AcDbLine
 10
927.2249660928363
 20
113.2089725685594
 30
0.0
 11
927.2249660928363
 21
100.7909437145791
 31
0.0
  0
TEXT
  5
1430
330
1F
100
AcDbEntity
  8
LOGO
  6
Continuous
 62
     7
100
AcDbText
 10
943.546815045409
 20
103.4722716656312
 30
0.0
 40
6.898904918877826
  1
50
  7
CHINESET
 72
     1
 11
949.1316428368815
 21
106.9217241250702
 31
0.0
100
AcDbText
 73
     2
  0
LINE
  5
1431
330
1F
100
AcDbEntity
  8
LOGO
 62
     6
100
AcDbLine
 10
959.9802291650242
 20
113.2089725685594
 30
0.0
 11
959.9802291650242
 21
100.7909437145791
 31
0.0
  0
TEXT
  5
1432
330
1F
100
AcDbEntity
  8
LOGO
 62
     6
100
AcDbText
 10
747.7880027892949
 20
111.1413381711201
 30
271.2857178608013
 40
4.139342951326696
  1
比例 Scale:
 41
0.9
  7
CHINESET
 72
     4
 11
760.9322645807175
 21
113.2089725685594
 31
271.2857178608013
100
AcDbText
  0
TEXT
  5
1433
330
1F
100
AcDbEntity
  8
LOGO
 62
     6
100
AcDbText
 10
749.2349249012987
 20
102.9188416761472
 30
271.2857178608013
 40
4.139342951326696
  1
投影 View:
 41
0.9
  7
CHINESET
 72
     4
 11
760.9322645807175
 21
104.9302866659057
 31
271.2857178608013
100
AcDbText
  0
TEXT
  5
1434
330
1F
100
AcDbEntity
  8
LOGO
 62
     6
100
AcDbText
 10
749.6396195916294
 20
94.58192928758913
 30
271.2857178608013
 40
4.139342951326696
  1
單位 Unit:
 41
0.9
  7
CHINESET
 72
     4
 11
760.9322645807175
 21
96.6516007632525
 31
271.2857178608013
100
AcDbText
  0
TEXT
  5
1435
330
1F
100
AcDbEntity
  8
LOGO
  6
Continuous
 62
     6
100
AcDbText
 10
872.0070673916508
 20
81.12906469577731
 30
271.2857178608013
 40
3.449452459438913
  1
Model
  7
CHINESET
 72
     4
 11
878.577453028677
 21
82.85379092549677
 31
271.2857178608013
100
AcDbText
  0
TEXT
  5
1437
330
1F
100
AcDbEntity
  8
LOGO
  6
Continuous
 62
     6
100
AcDbText
 10
911.8777448539338
 20
81.12906469577731
 30
271.2857178608013
 40
3.449452459438913
  1
Bore
 41
0.8
  7
CHINESET
 72
     4
 11
916.1484955180011
 21
82.85379092549677
 31
271.2857178608013
100
AcDbText
  0
TEXT
  5
1438
330
1F
100
AcDbEntity
  8
LOGO
 62
     6
100
AcDbText
 10
872.9433473449269
 20
87.06375258859152
 30
271.2857178608013
 40
5.51912393510226
  1
型號
  7
CHINESET
 72
     4
 11
878.577453028677
 21
89.75269584437461
 31
271.2857178608013
100
AcDbText
  0
TEXT
  5
143A
330
1F
100
AcDbEntity
  8
LOGO
 62
     6
100
AcDbText
 10
910.8708332550595
 20
86.99313387682348
 30
271.2857178608013
 40
5.51912393510226
  1
內徑
 41
0.9
  7
CHINESET
 72
     4
 11
916.1484955180011
 21
89.75269584437461
 31
271.2857178608013
100
AcDbText
  0
TEXT
  5
143B
330
1F
100
AcDbEntity
  8
LOGO
  6
Continuous
 62
     6
100
AcDbText
 10
942.0487669424639
 20
81.70397343901713
 30
271.2857178608013
 40
3.449452459438913
  1
Length
 41
0.8
  7
CHINESET
 72
     4
 11
948.4877448667498
 21
82.85379092549677
 31
271.2857178608013
100
AcDbText
  0
TEXT
  5
143C
330
1F
100
AcDbEntity
  8
LOGO
 62
     6
100
AcDbText
 10
943.5205333251577
 20
87.16538015777052
 30
271.2857178608013
 40
5.51912393510226
  1
長度
 41
0.9
  7
CHINESET
 72
     4
 11
948.4877448667498
 21
89.75269584437461
 31
271.2857178608013
100
AcDbText
  0
LWPOLYLINE
  5
143D
330
1F
100
AcDbEntity
  8
0
 62
     4
100
AcDbPolyline
 90
        4
 70
     1
 43
0.0
 10
714.0197111323486
 20
117.348315519886
 10
1379.091318345953
 20
117.348315519886
 10
1379.091318345953
 20
545.0230927203741
 10
714.0197111323486
 20
545.0230927203741
1001
GENIUS_GENREC_14
1002
{
1000
PYDIR
1011
714.0197111323486
1021
545.0230927203741
1031
0.0
1002
}
1002
{
1000
PXDIR
1011
1379.091318345953
1021
117.348315519886
1031
0.0
1002
}
1002
{
1000
PORI
1011
714.0197111323486
1021
117.348315519886
1031
0.0
1002
}
1002
{
1000
PINS
1011
714.0197111323486
1021
117.348315519886
1031
0.0
1002
}
1002
{
1000
PINS2
1011
1379.091318345953
1021
545.0230927203741
1031
0.0
1002
}
1002
{
1000
C
1070
     1
1002
}
1001
GENIUS_GENODEF_13
1002
{
1000
HIER
1070
     0
1002
}
1002
{
1000
MANEDIT
1070
     0
1002
}
1002
{
1000
NOSEL
1070
     0
1002
}
1002
{
1000
BEHIND
1070
     0
1002
}
1002
{
1000
OTHER
1070
     0
1002
}
1002
{
1000
REACTOR
1002
}
1001
GENIUS_GENOBJ-N-REC_13
1002
{
1000
OWNER
1000
GEN
1002
}
  0
SOLID
  5
143E
330
1F
100
AcDbEntity
  8
LOGO
 62
     5
100
AcDbTrace
 10
718.3143458757515
 20
99.39332627943343
 30
0.0
 11
720.1040891515462
 21
99.39332627943269
 31
0.0
 12
727.5716386815862
 22
116.3650297567966
 32
0.0
 13
729.3613819573807
 23
116.3650297567953
 33
0.0
  0
SOLID
  5
143F
330
1F
100
AcDbEntity
  8
LOGO
 62
     5
100
AcDbTrace
 10
720.8446725760141
 20
99.39332627943343
 30
0.0
 11
722.6344158518081
 21
99.39332627943343
 31
0.0
 12
729.3613819573807
 22
115.0072934786067
 32
0.0
 13
727.5716386815862
 23
108.4449014673594
 33
0.0
  0
SOLID
  5
1440
330
1F
100
AcDbEntity
  8
LOGO
 62
     2
100
AcDbTrace
 10
720.1040891515462
 20
99.39332627943269
 30
0.0
 11
720.8446725760141
 21
99.39332627943343
 31
0.0
 12
729.3613819573807
 22
116.3650297567953
 32
0.0
 13
730.1019653818478
 23
116.3650297567953
 33
0.0
  0
SOLID
  5
1441
330
1F
100
AcDbEntity
  8
LOGO
 62
     5
100
AcDbTrace
 10
715.4449485058396
 20
93.2217977422111
 30
0.0
 11
716.0621013595629
 21
93.2217977422111
 31
0.0
 12
717.8000518309836
 22
96.30756201082174
 32
0.0
 13
718.4172046847054
 23
96.30756201082174
 33
0.0
  0
SOLID
  5
1442
330
1F
100
AcDbEntity
  8
LOGO
 62
     5
100
AcDbTrace
 10
717.8000518309836
 20
96.30756201082174
 30
0.0
 11
718.4172046847054
 21
96.30756201082174
 31
0.0
 12
717.8000518309836
 22
93.2217977422111
 32
0.0
 13
718.4172046847054
 23
93.2217977422111
 33
0.0
  0
SOLID
  5
1443
330
1F
100
AcDbEntity
  8
LOGO
 62
     5
100
AcDbTrace
 10
717.8000518309836
 20
93.2217977422111
 30
0.0
 11
718.4172046847054
 21
93.2217977422111
 31
0.0
 12
720.1551551561282
 22
96.30756201082174
 32
0.0
 13
720.7723080098499
 23
96.30756201082174
 33
0.0
  0
SOLID
  5
1444
330
1F
100
AcDbEntity
  8
LOGO
 62
     5
100
AcDbTrace
 10
720.1551551561282
 20
96.30756201082174
 30
0.0
 11
720.7723080098499
 21
96.30756201082174
 31
0.0
 12
720.1551551561282
 22
93.2217977422111
 32
0.0
 13
720.7723080098499
 23
93.2217977422111
 33
0.0
  0
POLYLINE
  5
1445
330
1F
100
AcDbEntity
  8
LOGO
 62
     5
100
AcDb2dPolyline
 66
     1
 10
0.0
 20
0.0
 30
0.0
 40
0.6181418807314535
 41
0.6181418807314535
  0
VERTEX
  5
1446
330
1445
100
AcDbEntity
  8
LOGO
 62
     5
100
AcDbVertex
100
AcDb2dVertex
 10
740.8419085771297
 20
95.07325630337717
 30
0.0
 42
1.0
  0
VERTEX
  5
1447
330
1445
100
AcDbEntity
  8
LOGO
 62
     5
100
AcDbVertex
100
AcDb2dVertex
 10
738.9874829349349
 20
95.07325630337717
 30
0.0
 42
1.0
  0
SEQEND
  5
1448
330
1445
100
AcDbEntity
  8
LOGO
 62
     5
  0
POLYLINE
  5
1449
330
1F
100
AcDbEntity
  8
LOGO
 62
     5
100
AcDb2dPolyline
 66
     1
 10
0.0
 20
0.0
 30
0.0
 70
     1
  0
VERTEX
  5
144A
330
1449
100
AcDbEntity
  8
LOGO
 62
     5
100
AcDbVertex
100
AcDb2dVertex
 10
735.4918081145451
 20
94.76467987651625
 30
0.0
 42
1.000000057330635
  0
VERTEX
  5
144B
330
1449
100
AcDbEntity
  8
LOGO
 62
     5
100
AcDbVertex
100
AcDb2dVertex
 10
737.3432666757126
 20
94.76467987651625
 30
0.0
 42
1.000000057330635
  0
SEQEND
  5
144C
330
1449
100
AcDbEntity
  8
LOGO
 62
     5
  0
CIRCLE
  5
144D
330
1F
100
AcDbEntity
  8
LOGO
 62
     5
100
AcDbCircle
 10
736.4175373951293
 20
94.76467987651625
 30
0.0
 40
0.9257292805834248
  0
POLYLINE
  5
144E
330
1F
100
AcDbEntity
  8
LOGO
 62
     5
100
AcDb2dPolyline
 66
     1
 10
0.0
 20
0.0
 30
0.0
 70
     1
 40
0.6181418807314535
 41
0.6181418807314535
  0
VERTEX
  5
144F
330
144E
100
AcDbEntity
  8
LOGO
 62
     5
100
AcDbVertex
100
AcDb2dVertex
 10
735.1812536336661
 20
94.76467987651625
 30
0.0
 42
1.0
  0
VERTEX
  5
1450
330
144E
100
AcDbEntity
  8
LOGO
 62
     5
100
AcDbVertex
100
AcDb2dVertex
 10
737.6538211565919
 20
94.76467987651625
 30
0.0
 42
1.0
  0
SEQEND
  5
1451
330
144E
100
AcDbEntity
  8
LOGO
 62
     5
  0
LINE
  5
1452
330
1F
100
AcDbEntity
  8
LOGO
 62
     5
100
AcDbLine
 10
741.1490014634765
 20
93.2217977422111
 30
0.0
 11
741.1490014634765
 21
95.07325630337717
 31
0.0
  0
SOLID
  5
1453
330
1F
100
AcDbEntity
  8
LOGO
 62
     5
100
AcDbTrace
 10
737.3432049604284
 20
96.30756201082174
 30
0.0
 11
737.9603578141499
 21
96.30756201082174
 31
0.0
 12
737.3432049604284
 22
93.2217977422111
 32
0.0
 13
737.9603578141499
 23
93.2217977422111
 33
0.0
  0
SOLID
  5
1454
330
1F
100
AcDbEntity
  8
LOGO
 62
     5
100
AcDbTrace
 10
738.6803900485872
 20
93.2217977422111
 30
0.0
 11
739.2975429023099
 21
93.2217977422111
 31
0.0
 12
738.6803900485872
 22
96.30756201082174
 32
0.0
 13
739.2975429023099
 23
96.30756201082174
 33
0.0
  0
SOLID
  5
1455
330
1F
100
AcDbEntity
  8
LOGO
 62
     5
100
AcDbTrace
 10
740.5318486097546
 20
95.07325630337717
 30
0.0
 11
741.1490014634765
 21
95.07325630337717
 31
0.0
 12
740.5318486097546
 22
93.2217977422111
 32
0.0
 13
741.1490014634765
 23
93.2217977422111
 33
0.0
  0
SOLID
  5
1456
330
1F
100
AcDbEntity
  8
LOGO
 62
     5
100
AcDbTrace
 10
738.6186747632149
 20
115.0072934786067
 30
0.0
 11
736.8289314874203
 21
108.4449014673594
 31
0.0
 12
738.6186747632149
 22
99.39332627943269
 32
0.0
 13
736.8289314874203
 23
99.39332627943269
 33
0.0
  0
SOLID
  5
1457
330
1F
100
AcDbEntity
  8
LOGO
 62
     5
100
AcDbTrace
 10
739.3592581876823
 20
99.39332627943269
 30
0.0
 11
741.1490014634765
 21
99.39332627943269
 31
0.0
 12
739.3592581876823
 22
116.3650297567953
 32
0.0
 13
741.1490014634765
 23
116.3650297567966
 33
0.0
  0
SOLID
  5
1458
330
1F
100
AcDbEntity
  8
LOGO
 62
     2
100
AcDbTrace
 10
738.6186747632149
 20
116.3650297567966
 30
0.0
 11
739.3592581876823
 21
116.3650297567953
 31
0.0
 12
738.6186747632149
 22
99.39332627943269
 32
0.0
 13
739.3592581876823
 23
99.39332627943269
 33
0.0
  0
POLYLINE
  5
1459
330
1F
100
AcDbEntity
  8
LOGO
 62
     5
100
AcDb2dPolyline
 66
     1
 10
0.0
 20
0.0
 30
0.0
 40
0.6181418807314535
 41
0.6181418807314535
  0
VERTEX
  5
145A
330
1459
100
AcDbEntity
  8
LOGO
 62
     5
100
AcDbVertex
100
AcDb2dVertex
 10
731.9960098635864
 20
95.07325630337717
 30
0.0
 42
1.0
  0
VERTEX
  5
145B
330
1459
100
AcDbEntity
  8
LOGO
 62
     5
100
AcDbVertex
100
AcDb2dVertex
 10
730.1415842213916
 20
95.07325630337717
 30
0.0
 42
1.0
  0
SEQEND
  5
145C
330
1459
100
AcDbEntity
  8
LOGO
 62
     5
  0
POLYLINE
  5
145D
330
1F
100
AcDbEntity
  8
LOGO
 62
     5
100
AcDb2dPolyline
 66
     1
 10
0.0
 20
0.0
 30
0.0
 40
0.6181418807314535
 41
0.6181418807314535
  0
VERTEX
  5
145E
330
145D
100
AcDbEntity
  8
LOGO
 62
     5
100
AcDbVertex
100
AcDb2dVertex
 10
733.8474684247528
 20
95.07325630337717
 30
0.0
 42
1.0
  0
VERTEX
  5
145F
330
145D
100
AcDbEntity
  8
LOGO
 62
     5
100
AcDbVertex
100
AcDb2dVertex
 10
731.9930427825583
 20
95.07325630337717
 30
0.0
 42
1.0
  0
SEQEND
  5
1460
330
145D
100
AcDbEntity
  8
LOGO
 62
     5
  0
POLYLINE
  5
1461
330
1F
100
AcDbEntity
  8
LOGO
 62
     5
100
AcDb2dPolyline
 66
     1
 10
0.0
 20
0.0
 30
0.0
 40
0.6181418807314535
 41
0.6181418807314535
  0
VERTEX
  5
1462
330
1461
100
AcDbEntity
  8
LOGO
 62
     5
100
AcDbVertex
100
AcDb2dVertex
 10
725.0015697112099
 20
95.07325630337717
 30
0.0
 42
1.0
  0
VERTEX
  5
1463
330
1461
100
AcDbEntity
  8
LOGO
 62
     5
100
AcDbVertex
100
AcDb2dVertex
 10
723.1471440690157
 20
95.07325630337717
 30
0.0
 42
1.0
  0
SEQEND
  5
1464
330
1461
100
AcDbEntity
  8
LOGO
 62
     5
  0
SOLID
  5
1465
330
1F
100
AcDbEntity
  8
LOGO
 62
     5
100
AcDbTrace
 10
722.8400511826688
 20
96.30756201082174
 30
0.0
 11
723.4572040363903
 21
96.30756201082174
 31
0.0
 12
722.8400511826688
 22
93.2217977422111
 32
0.0
 13
723.4572040363903
 23
93.2217977422111
 33
0.0
  0
SOLID
  5
1466
330
1F
100
AcDbEntity
  8
LOGO
 62
     5
100
AcDbTrace
 10
724.6915097438352
 20
95.07325630337717
 30
0.0
 11
725.3086625975579
 21
95.07325630337717
 31
0.0
 12
724.6915097438352
 22
93.2217977422111
 32
0.0
 13
725.3086625975579
 23
93.2217977422111
 33
0.0
  0
POLYLINE
  5
1467
330
1F
100
AcDbEntity
  8
LOGO
 62
     5
100
AcDb2dPolyline
 66
     1
 10
0.0
 20
0.0
 30
0.0
 70
     1
 40
0.6181418807314535
 41
0.6181418807314535
  0
VERTEX
  5
1468
330
1467
100
AcDbEntity
  8
LOGO
 62
     5
100
AcDbVertex
100
AcDb2dVertex
 10
726.3353549201228
 20
94.76467987651625
 30
0.0
 42
1.0
  0
VERTEX
  5
1469
330
1467
100
AcDbEntity
  8
LOGO
 62
     5
100
AcDbVertex
100
AcDb2dVertex
 10
728.8079224430482
 20
94.76467987651625
 30
0.0
 42
1.0
  0
SEQEND
  5
146A
330
1467
100
AcDbEntity
  8
LOGO
 62
     5
  0
SOLID
  5
146B
330
1F
100
AcDbEntity
  8
LOGO
 62
     5
100
AcDbTrace
 10
728.497306246885
 20
97.23329129140569
 30
0.0
 11
729.1144591006063
 21
97.23329129140569
 31
0.0
 12
728.497306246885
 22
93.2217977422111
 32
0.0
 13
729.1144591006063
 23
93.2217977422111
 33
0.0
  0
SOLID
  5
146C
330
1F
100
AcDbEntity
  8
LOGO
 62
     5
100
AcDbTrace
 10
729.8344913350454
 20
96.30756201082174
 30
0.0
 11
730.451644188767
 21
96.30756201082174
 31
0.0
 12
729.8344913350454
 22
93.2217977422111
 32
0.0
 13
730.451644188767
 23
93.2217977422111
 33
0.0
  0
SOLID
  5
146D
330
1F
100
AcDbEntity
  8
LOGO
 62
     5
100
AcDbTrace
 10
731.6859498962116
 20
95.07325630337717
 30
0.0
 11
732.3031027499339
 21
95.07325630337717
 31
0.0
 12
731.6859498962116
 22
93.2217977422111
 32
0.0
 13
732.3031027499339
 23
93.2217977422111
 33
0.0
  0
SOLID
  5
146E
330
1F
100
AcDbEntity
  8
LOGO
 62
     5
100
AcDbTrace
 10
733.5374084573783
 20
95.07325630337717
 30
0.0
 11
734.1545613110997
 21
95.07325630337717
 31
0.0
 12
733.5374084573783
 22
93.2217977422097
 32
0.0
 13
734.1545613110997
 23
93.2217977422097
 33
0.0
  0
SOLID
  5
146F
330
1F
100
AcDbEntity
  8
LOGO
 62
     5
100
AcDbTrace
 10
721.502866094508
 20
96.73956900842703
 30
0.0
 11
722.1200189482315
 21
96.73956900842703
 31
0.0
 12
721.502866094508
 22
97.23329129140569
 32
0.0
 13
722.1200189482315
 23
97.23329129140569
 33
0.0
  0
SOLID
  5
1470
330
1F
100
AcDbEntity
  8
LOGO
 62
     5
100
AcDbTrace
 10
721.502866094508
 20
96.30756201082174
 30
0.0
 11
722.1200189482315
 21
96.30756201082174
 31
0.0
 12
721.502866094508
 22
93.2217977422097
 32
0.0
 13
722.1200189482315
 23
93.2217977422111
 33
0.0
  0
SOLID
  5
1471
330
1F
100
AcDbEntity
  8
LOGO
 62
     5
100
AcDbTrace
 10
727.5716386815862
 20
99.39332627943343
 30
0.0
 11
729.3613819573807
 21
99.39332627943343
 31
0.0
 12
727.5716386815862
 22
108.4449014673594
 32
0.0
 13
729.3613819573807
 23
115.0072934786067
 33
0.0
  0
SOLID
  5
1472
330
1F
100
AcDbEntity
  8
LOGO
 62
     5
100
AcDbTrace
 10
730.1019653818478
 20
116.3650297567953
 30
0.0
 11
731.8917086576425
 21
116.3650297567966
 31
0.0
 12
730.1019653818478
 22
100.751062557622
 32
0.0
 13
731.8917086576425
 23
107.3134545688692
 33
0.0
  0
SOLID
  5
1473
330
1F
100
AcDbEntity
  8
LOGO
 62
     2
100
AcDbTrace
 10
729.3613819573807
 20
116.3650297567953
 30
0.0
 11
730.1019653818478
 21
116.3650297567953
 31
0.0
 12
729.3613819573807
 22
99.39332627943343
 32
0.0
 13
730.1019653818478
 23
99.39332627943343
 33
0.0
  0
SOLID
  5
1474
330
1F
100
AcDbEntity
  8
LOGO
 62
     5
100
AcDbTrace
 10
730.1019653818478
 20
100.751062557622
 30
0.0
 11
731.8917086576425
 21
107.3134545688692
 31
0.0
 12
738.6186747632149
 22
116.3650297567966
 32
0.0
 13
736.8289314874203
 23
116.3650297567966
 33
0.0
  0
SOLID
  5
1475
330
1F
100
AcDbEntity
  8
LOGO
 62
     5
100
AcDbTrace
 10
730.1019653818478
 20
99.39332627943343
 30
0.0
 11
731.8917086576425
 21
99.39332627943343
 31
0.0
 12
738.6186747632149
 22
115.0072934786067
 32
0.0
 13
736.8289314874203
 23
108.4449014673594
 33
0.0
  0
SOLID
  5
1476
330
1F
100
AcDbEntity
  8
LOGO
 62
     2
100
AcDbTrace
 10
729.3613819573807
 20
99.39332627943343
 30
0.0
 11
730.1019653818478
 21
99.39332627943343
 31
0.0
 12
738.6186747632149
 22
116.3650297567966
 32
0.0
 13
739.3592581876823
 23
116.3650297567953
 33
0.0
  0
TEXT
  5
1477
330
1F
100
AcDbEntity
  8
0
100
AcDbText
 10
806.8537173861738
 20
78.15700011899984
 30
0.0
 40
3.451656276287999
  1
1050525
 41
0.8
  7
CHINESET
 72
     1
 11
815.4006757846014
 21
78.15700011899984
 31
0.0
100
AcDbText
  0
LINE
  5
1478
330
1F
100
AcDbEntity
  8
LOGO
 62
     1
100
AcDbLine
 10
826.0504599875179
 20
84.23357190927253
 30
0.0
 11
826.0504599875183
 21
75.95488600661894
 31
0.0
  0
LINE
  5
1479
330
1F
100
AcDbEntity
  8
LOGO
 62
     1
100
AcDbLine
 10
826.0504599875179
 20
84.23357190927253
 30
0.0
 11
805.0852560615357
 21
84.23357190927253
 31
0.0
  0
LWPOLYLINE
  5
14B8
330
1F
100
AcDbEntity
  8
0
 62
     1
100
AcDbPolyline
 90
        4
 70
     1
 43
0.0
 10
714.0197111323486
 20
117.348315519886
 10
1379.091318345953
 20
117.348315519886
 10
1379.091318345953
 20
75.95488600661892
 10
714.0197111323486
 20
75.95488600661892
1001
GENIUS_GENREC_14
1002
{
1000
PYDIR
1011
714.0197111323486
1021
75.95488600661892
1031
0.0
1002
}
1002
{
1000
PXDIR
1011
1379.091318345953
1021
117.348315519886
1031
0.0
1002
}
1002
{
1000
PORI
1011
714.0197111323486
1021
117.348315519886
1031
0.0
1002
}
1002
{
1000
PINS
1011
714.0197111323486
1021
117.348315519886
1031
0.0
1002
}
1002
{
1000
PINS2
1011
1379.091318345953
1021
75.95488600661892
1031
0.0
1002
}
1002
{
1000
C
1070
     1
1002
}
1001
GENIUS_GENOBJ-N-REC_13
1002
{
1000
OWNER
1000
GEN
1002
}
1001
GENIUS_GENODEF_13
1002
{
1000
HIER
1070
     0
1002
}
1002
{
1000
MANEDIT
1070
     0
1002
}
1002
{
1000
NOSEL
1070
     0
1002
}
1002
{
1000
BEHIND
1070
     0
1002
}
1002
{
1000
OTHER
1070
     0
1002
}
1002
{
1000
REACTOR
1002
}
  0
LINE
  5
2259
330
1F
100
AcDbEntity
  8
LOGO
 62
     6
100
AcDbLine
 10
999.1685729893257
 20
94.58192928758931
 30
0.0
 11
999.1685729893257
 21
79.34710888473361
 31
0.0
  0
LINE
  5
225A
330
1F
100
AcDbEntity
  8
LOGO
 62
     6
100
AcDbLine
 10
962.9423849493171
 20
94.58192928758931
 30
0.0
 11
962.9423849493171
 21
79.40433846605782
 31
0.0
  0
LINE
  5
225B
330
1F
100
AcDbEntity
  8
LOGO
 62
     6
100
AcDbLine
 10
999.1685729893257
 20
79.40433846605782
 30
0.0
 11
962.9423849493171
 21
79.40433846605782
 31
0.0
  0
LINE
  5
225C
330
1F
100
AcDbEntity
  8
LOGO
 62
     6
100
AcDbLine
 10
999.1685729893257
 20
94.58192928758931
 30
0.0
 11
962.9423849493171
 21
94.58192928758931
 31
0.0
  0
LINE
  5
225D
330
1F
100
AcDbEntity
  8
LOGO
 62
     6
100
AcDbLine
 10
992.8746130274873
 20
100.7909437145791
 30
0.0
 11
969.8896444309392
 21
100.7909437145791
 31
0.0
  0
LINE
  5
225E
330
1F
100
AcDbEntity
  8
LOGO
 62
     6
100
AcDbLine
 10
992.8746130274873
 20
113.2089725685594
 30
0.0
 11
969.8896444309392
 21
113.2089725685594
 31
0.0
  0
LINE
  5
225F
330
1F
100
AcDbEntity
  8
LOGO
 62
     6
100
AcDbLine
 10
981.6743538133662
 20
100.7909437145791
 30
0.0
 11
981.6743538133662
 21
94.58192928758931
 31
0.0
  0
LINE
  5
2260
330
1F
100
AcDbEntity
  8
LOGO
 62
     6
100
AcDbLine
 10
969.8896444309392
 20
113.2089725685594
 30
0.0
 11
969.8896444309392
 21
100.7909437145791
 31
0.0
  0
TEXT
  5
2261
330
1F
100
AcDbEntity
  8
LOGO
  6
Continuous
 62
     7
100
AcDbText
 10
976.1126796260212
 20
103.4722716656312
 30
0.0
 40
6.898904918877826
  1
AH
  7
CHINESET
 72
     1
 11
982.026026699345
 21
106.9217241250702
 31
0.0
100
AcDbText
 73
     2
  0
LINE
  5
2262
330
1F
100
AcDbEntity
  8
LOGO
 62
     6
100
AcDbLine
 10
992.8746130274873
 20
113.2089725685594
 30
0.0
 11
992.8746130274873
 21
100.7909437145791
 31
0.0
  0
TEXT
  5
2263
330
1F
100
AcDbEntity
  8
LOGO
  6
Continuous
 62
     6
100
AcDbText
 10
964.9561646366473
 20
81.12906469577731
 30
271.2857178608013
 40
3.449452459438913
  1
Air-Oil coverter
 41
0.8
  7
CHINESET
 72
     4
 11
981.3821287292135
 21
82.85379092549677
 31
271.2857178608013
100
AcDbText
  0
TEXT
  5
2264
330
1F
100
AcDbEntity
  8
LOGO
 62
     6
100
AcDbText
 10
976.4149171876214
 20
87.13437130035956
 30
271.2857178608013
 40
5.51912393510226
  1
型式
 41
0.9
  7
CHINESET
 72
     4
 11
981.3821287292135
 21
89.75269584437461
 31
271.2857178608013
100
AcDbText
  0
LINE
  5
2266
330
1F
100
AcDbEntity
  8
LOGO
  6
Continuous
 62
     7
100
AcDbLine
 10
961.8920493741205
 20
106.9559715208561
 30
0.0
 11
967.3753978022988
 21
106.9559715208561
 31
0.0
  0
TEXT
  5
2571
330
1F
100
AcDbEntity
  8
0
100
AcDbText
 10
741.0057990210803
 20
516.5863715253807
 30
0.0
 40
9.24
  1
Length=50mm
100
AcDbText
  0
LINE
  5
3815
330
1F
100
AcDbEntity
  8
CENTER
  6
CENTER
100
AcDbLine
 10
821.8440851209697
 20
155.6679928065448
 30
0.0
 11
821.8440851209697
 21
323.2676096289307
 31
0.0
  0
LINE
  5
3816
330
1F
100
AcDbEntity
  8
CENTER
  6
CENTER
100
AcDbLine
 10
981.409687512763
 20
149.6463617100848
 30
0.0
 11
981.409687512763
 21
325.4373666854064
 31
0.0
  0
LINE
  5
3818
330
1F
100
AcDbEntity
  8
0
100
AcDbLine
 10
931.409687512763
 20
161.5779563480314
 30
0.0
 11
1031.409687512763
 21
161.5779563480314
 31
0.0
  0
LINE
  5
3819
330
1F
100
AcDbEntity
  8
0
100
AcDbLine
 10
936.9096875127629
 20
196.0779563480314
 30
0.0
 11
1025.909687512763
 21
196.0779563480314
 31
0.0
  0
LINE
  5
381A
330
1F
100
AcDbEntity
  8
0
100
AcDbLine
 10
931.409687512763
 20
293.5779563480314
 30
0.0
 11
1031.409687512763
 21
293.5779563480314
 31
0.0
  0
LINE
  5
381B
330
1F
100
AcDbEntity
  8
0
100
AcDbLine
 10
936.9096875127629
 20
259.0779563480314
 30
0.0
 11
1025.909687512763
 21
259.0779563480314
 31
0.0
  0
LINE
  5
381C
330
1F
100
AcDbEntity
  8
0
100
AcDbLine
 10
1024.609687512763
 20
196.0779563480314
 30
0.0
 11
1024.609687512763
 21
259.0779563480314
 31
0.0
  0
LINE
  5
381D
330
1F
100
AcDbEntity
  8
0
100
AcDbLine
 10
1031.409687512763
 20
195.5779563480314
 30
0.0
 11
1031.409687512763
 21
161.5779563480314
 31
0.0
  0
LINE
  5
381E
330
1F
100
AcDbEntity
  8
0
100
AcDbLine
 10
1025.909687512763
 20
196.0779563480314
 30
0.0
 11
1025.909687512763
 21
195.5779563480314
 31
0.0
  0
LINE
  5
381F
330
1F
100
AcDbEntity
  8
0
100
AcDbLine
 10
1025.909687512763
 20
195.5779563480314
 30
0.0
 11
1031.409687512763
 21
195.5779563480314
 31
0.0
  0
LINE
  5
3820
330
1F
100
AcDbEntity
  8
0
100
AcDbLine
 10
958.909687512763
 20
158.0779563480314
 30
0.0
 11
1003.909687512763
 21
158.0779563480314
 31
0.0
  0
LINE
  5
3821
330
1F
100
AcDbEntity
  8
0
100
AcDbLine
 10
959.4096875127629
 20
157.5779563480314
 30
0.0
 11
1003.409687512763
 21
157.5779563480314
 31
0.0
  0
CIRCLE
  5
3822
330
1F
100
AcDbEntity
  8
0
100
AcDbCircle
 10
981.409687512763
 20
185.5779563480313
 30
0.0
 40
3.149999999999999
  0
CIRCLE
  5
3823
330
1F
100
AcDbEntity
  8
0
100
AcDbCircle
 10
981.409687512763
 20
185.5779563480313
 30
0.0
 40
3.6
  0
CIRCLE
  5
3824
330
1F
100
AcDbEntity
  8
0
100
AcDbCircle
 10
981.409687512763
 20
185.5779563480313
 30
0.0
 40
8.25
  0
LINE
  5
3825
330
1F
100
AcDbEntity
  8
CENTER
  6
CENTER
100
AcDbLine
 10
969.1835212292881
 20
185.5779563480314
 30
0.0
 11
993.635853796238
 21
185.5779563480314
 31
0.0
  0
LINE
  5
3826
330
1F
100
AcDbEntity
  8
0
100
AcDbLine
 10
1003.409687512763
 20
157.5779563480314
 30
0.0
 11
1003.909687512763
 21
158.0779563480314
 31
0.0
  0
LINE
  5
3827
330
1F
100
AcDbEntity
  8
0
100
AcDbLine
 10
1003.909687512763
 20
161.5779563480314
 30
0.0
 11
1003.909687512763
 21
158.0779563480314
 31
0.0
  0
LINE
  5
3828
330
1F
100
AcDbEntity
  8
0
 62
     3
100
AcDbLine
 10
981.409687512763
 20
159.0779563480314
 30
0.0
 11
981.409687512763
 21
164.0779563480314
 31
0.0
  0
LINE
  5
3829
330
1F
100
AcDbEntity
  8
0
 62
     1
100
AcDbLine
 10
981.409687512763
 20
159.0779563480314
 30
0.0
 11
981.409687512763
 21
164.0779563480314
 31
0.0
  0
LINE
  5
382A
330
1F
100
AcDbEntity
  8
0
 62
     3
100
AcDbLine
 10
983.909687512763
 20
161.5779563480314
 30
0.0
 11
978.9096875127629
 21
161.5779563480314
 31
0.0
  0
LINE
  5
382B
330
1F
100
AcDbEntity
  8
0
 62
     1
100
AcDbLine
 10
983.909687512763
 20
161.5779563480314
 30
0.0
 11
978.9096875127629
 21
161.5779563480314
 31
0.0
  0
LINE
  5
382C
330
1F
100
AcDbEntity
  8
0
100
AcDbLine
 10
959.4096875127629
 20
157.5779563480314
 30
0.0
 11
958.909687512763
 21
158.0779563480314
 31
0.0
  0
LINE
  5
382D
330
1F
100
AcDbEntity
  8
0
100
AcDbLine
 10
958.909687512763
 20
161.5779563480314
 30
0.0
 11
958.909687512763
 21
158.0779563480314
 31
0.0
  0
LINE
  5
382E
330
1F
100
AcDbEntity
  8
0
100
AcDbLine
 10
1031.409687512763
 20
259.5779563480314
 30
0.0
 11
1031.409687512763
 21
293.5779563480314
 31
0.0
  0
LINE
  5
382F
330
1F
100
AcDbEntity
  8
0
100
AcDbLine
 10
1025.909687512763
 20
259.5779563480314
 30
0.0
 11
1031.409687512763
 21
259.5779563480314
 31
0.0
  0
LINE
  5
3830
330
1F
100
AcDbEntity
  8
0
100
AcDbLine
 10
1025.909687512763
 20
259.0779563480314
 30
0.0
 11
1025.909687512763
 21
259.5779563480314
 31
0.0
  0
LINE
  5
3831
330
1F
100
AcDbEntity
  8
0
100
AcDbLine
 10
1003.909687512763
 20
293.5779563480314
 30
0.0
 11
1003.909687512763
 21
308.0779563480314
 31
0.0
  0
LINE
  5
3832
330
1F
100
AcDbEntity
  8
0
100
AcDbLine
 10
958.909687512763
 20
293.5779563480314
 30
0.0
 11
958.909687512763
 21
308.0779563480314
 31
0.0
  0
CIRCLE
  5
3833
330
1F
100
AcDbEntity
  8
0
100
AcDbCircle
 10
981.409687512763
 20
269.5779563480313
 30
0.0
 40
3.149999999999999
  0
CIRCLE
  5
3834
330
1F
100
AcDbEntity
  8
0
100
AcDbCircle
 10
981.409687512763
 20
269.5779563480313
 30
0.0
 40
3.6
  0
CIRCLE
  5
3835
330
1F
100
AcDbEntity
  8
0
100
AcDbCircle
 10
981.409687512763
 20
269.5779563480313
 30
0.0
 40
8.25
  0
LINE
  5
3836
330
1F
100
AcDbEntity
  8
CENTER
  6
CENTER
100
AcDbLine
 10
969.1835212292881
 20
269.5779563480314
 30
0.0
 11
993.635853796238
 21
269.5779563480314
 31
0.0
  0
LINE
  5
383E
330
1F
100
AcDbEntity
  8
0
100
AcDbLine
 10
959.4096875127629
 20
308.5779563480314
 30
0.0
 11
1003.409687512763
 21
308.5779563480314
 31
0.0
  0
LINE
  5
3841
330
1F
100
AcDbEntity
  8
0
100
AcDbLine
 10
1003.409687512763
 20
308.5779563480314
 30
0.0
 11
1003.909687512763
 21
308.0779563480314
 31
0.0
  0
LINE
  5
3848
330
1F
100
AcDbEntity
  8
0
100
AcDbLine
 10
959.4096875127629
 20
308.5779563480314
 30
0.0
 11
958.909687512763
 21
308.0779563480314
 31
0.0
  0
LINE
  5
384D
330
1F
100
AcDbEntity
  8
0
100
AcDbLine
 10
778.6440851209698
 20
196.0779563480314
 30
0.0
 11
778.6440851209698
 21
259.0779563480314
 31
0.0
  0
LINE
  5
384E
330
1F
100
AcDbEntity
  8
0
100
AcDbLine
 10
865.0440851209697
 20
196.0779563480314
 30
0.0
 11
865.0440851209697
 21
259.0779563480314
 31
0.0
  0
LINE
  5
384F
330
1F
100
AcDbEntity
  8
0
100
AcDbLine
 10
938.2096875127631
 20
196.0779563480314
 30
0.0
 11
938.2096875127631
 21
259.0779563480314
 31
0.0
  0
LINE
  5
3851
330
1F
100
AcDbEntity
  8
0
100
AcDbLine
 10
799.8440851209697
 20
157.5779563480314
 30
0.0
 11
843.8440851209698
 21
157.5779563480314
 31
0.0
  0
LINE
  5
3852
330
1F
100
AcDbEntity
  8
0
100
AcDbLine
 10
771.8440851209698
 20
161.5779563480314
 30
0.0
 11
871.8440851209697
 21
161.5779563480314
 31
0.0
  0
LINE
  5
3853
330
1F
100
AcDbEntity
  8
0
100
AcDbLine
 10
805.8440851209697
 20
163.5779563480314
 30
0.0
 11
837.8440851209697
 21
163.5779563480314
 31
0.0
  0
LINE
  5
3854
330
1F
100
AcDbEntity
  8
0
100
AcDbLine
 10
821.8440851209697
 20
195.5779563480314
 30
0.0
 11
871.8440851209697
 21
195.5779563480314
 31
0.0
  0
LINE
  5
3855
330
1F
100
AcDbEntity
  8
0
100
AcDbLine
 10
821.8440851209697
 20
196.0779563480314
 30
0.0
 11
866.3440851209697
 21
196.0779563480314
 31
0.0
  0
LINE
  5
3856
330
1F
100
AcDbEntity
  8
0
100
AcDbLine
 10
805.8440851209697
 20
193.5779563480314
 30
0.0
 11
837.8440851209697
 21
193.5779563480314
 31
0.0
  0
CIRCLE
  5
3859
330
1F
100
AcDbEntity
  8
0
100
AcDbCircle
 10
821.8440851209697
 20
178.5779563480313
 30
0.0
 40
13.7
  0
LINE
  5
385B
330
1F
100
AcDbEntity
  8
0
100
AcDbLine
 10
871.8440851209697
 20
195.5779563480314
 30
0.0
 11
871.8440851209697
 21
161.5779563480314
 31
0.0
  0
LINE
  5
385C
330
1F
100
AcDbEntity
  8
0
100
AcDbLine
 10
931.409687512763
 20
195.5779563480314
 30
0.0
 11
931.409687512763
 21
161.5779563480314
 31
0.0
  0
LINE
  5
385D
330
1F
100
AcDbEntity
  8
0
100
AcDbLine
 10
841.8440851209698
 20
189.5779563480314
 30
0.0
 11
841.8440851209698
 21
167.5779563480314
 31
0.0
  0
LINE
  5
385E
330
1F
100
AcDbEntity
  8
0
100
AcDbLine
 10
844.3440851209697
 20
161.5779563480314
 30
0.0
 11
844.3440851209697
 21
158.0779563480314
 31
0.0
  0
LINE
  5
385F
330
1F
100
AcDbEntity
  8
0
100
AcDbLine
 10
843.8440851209698
 20
157.5779563480314
 30
0.0
 11
844.3440851209697
 21
158.0779563480314
 31
0.0
  0
LINE
  5
3860
330
1F
100
AcDbEntity
  8
0
100
AcDbLine
 10
841.8440851209698
 20
167.5779563480314
 30
0.0
 11
837.8440851209697
 21
163.5779563480314
 31
0.0
  0
LINE
  5
3864
330
1F
100
AcDbEntity
  8
0
100
AcDbLine
 10
837.8440851209697
 20
193.5779563480314
 30
0.0
 11
841.8440851209698
 21
189.5779563480314
 31
0.0
  0
LINE
  5
3866
330
1F
100
AcDbEntity
  8
0
100
AcDbLine
 10
936.9096875127629
 20
196.0779563480314
 30
0.0
 11
936.9096875127629
 21
195.5779563480314
 31
0.0
  0
LINE
  5
3867
330
1F
100
AcDbEntity
  8
0
100
AcDbLine
 10
931.409687512763
 20
195.5779563480314
 30
0.0
 11
936.9096875127629
 21
195.5779563480314
 31
0.0
  0
LINE
  5
3868
330
1F
100
AcDbEntity
  8
0
100
AcDbLine
 10
866.3440851209697
 20
196.0779563480314
 30
0.0
 11
866.3440851209697
 21
195.5779563480314
 31
0.0
  0
LINE
  5
3869
330
1F
100
AcDbEntity
  8
0
100
AcDbLine
 10
771.8440851209698
 20
195.5779563480314
 30
0.0
 11
771.8440851209698
 21
161.5779563480314
 31
0.0
  0
LINE
  5
386A
330
1F
100
AcDbEntity
  8
0
100
AcDbLine
 10
801.8440851209698
 20
189.5779563480314
 30
0.0
 11
801.8440851209698
 21
167.5779563480314
 31
0.0
  0
LINE
  5
386C
330
1F
100
AcDbEntity
  8
0
100
AcDbLine
 10
799.3440851209697
 20
161.5779563480314
 30
0.0
 11
799.3440851209697
 21
158.0779563480314
 31
0.0
  0
LINE
  5
386D
330
1F
100
AcDbEntity
  8
0
100
AcDbLine
 10
799.8440851209697
 20
157.5779563480314
 30
0.0
 11
799.3440851209697
 21
158.0779563480314
 31
0.0
  0
LINE
  5
386E
330
1F
100
AcDbEntity
  8
0
100
AcDbLine
 10
801.8440851209698
 20
167.5779563480314
 30
0.0
 11
805.8440851209697
 21
163.5779563480314
 31
0.0
  0
LINE
  5
386F
330
1F
100
AcDbEntity
  8
0
100
AcDbLine
 10
801.8440851209698
 20
189.5779563480314
 30
0.0
 11
805.8440851209697
 21
193.5779563480314
 31
0.0
  0
LINE
  5
3870
330
1F
100
AcDbEntity
  8
0
100
AcDbLine
 10
821.8440851209697
 20
195.5779563480314
 30
0.0
 11
771.8440851209698
 21
195.5779563480314
 31
0.0
  0
LINE
  5
3871
330
1F
100
AcDbEntity
  8
0
100
AcDbLine
 10
821.8440851209697
 20
196.0779563480314
 30
0.0
 11
777.3440851209698
 21
196.0779563480314
 31
0.0
  0
LINE
  5
3872
330
1F
100
AcDbEntity
  8
0
100
AcDbLine
 10
777.3440851209698
 20
196.0779563480314
 30
0.0
 11
777.3440851209698
 21
195.5779563480314
 31
0.0
  0
LINE
  5
3877
330
1F
100
AcDbEntity
  8
0
100
AcDbLine
 10
799.8440851209697
 20
308.5779563480314
 30
0.0
 11
843.8440851209698
 21
308.5779563480314
 31
0.0
  0
LINE
  5
3878
330
1F
100
AcDbEntity
  8
0
100
AcDbLine
 10
771.8440851209698
 20
293.5779563480314
 30
0.0
 11
871.8440851209697
 21
293.5779563480314
 31
0.0
  0
LINE
  5
3879
330
1F
100
AcDbEntity
  8
0
100
AcDbLine
 10
805.8440851209697
 20
261.5779563480314
 30
0.0
 11
837.8440851209697
 21
261.5779563480314
 31
0.0
  0
LINE
  5
387A
330
1F
100
AcDbEntity
  8
0
100
AcDbLine
 10
805.8440851209697
 20
291.5779563480314
 30
0.0
 11
837.8440851209697
 21
291.5779563480314
 31
0.0
  0
CIRCLE
  5
387D
330
1F
100
AcDbEntity
  8
0
100
AcDbCircle
 10
821.8440851209697
 20
276.5779563480313
 30
0.0
 40
13.7
  0
LINE
  5
387F
330
1F
100
AcDbEntity
  8
0
100
AcDbLine
 10
821.8440851209697
 20
259.5779563480314
 30
0.0
 11
871.8440851209697
 21
259.5779563480314
 31
0.0
  0
LINE
  5
3880
330
1F
100
AcDbEntity
  8
0
100
AcDbLine
 10
821.8440851209697
 20
259.0779563480314
 30
0.0
 11
866.3440851209697
 21
259.0779563480314
 31
0.0
  0
LINE
  5
3881
330
1F
100
AcDbEntity
  8
0
100
AcDbLine
 10
844.3440851209697
 20
293.5779563480314
 30
0.0
 11
844.3440851209697
 21
308.0779563480314
 31
0.0
  0
LINE
  5
3882
330
1F
100
AcDbEntity
  8
0
100
AcDbLine
 10
871.8440851209697
 20
259.5779563480314
 30
0.0
 11
871.8440851209697
 21
293.5779563480314
 31
0.0
  0
LINE
  5
3883
330
1F
100
AcDbEntity
  8
0
100
AcDbLine
 10
931.409687512763
 20
259.5779563480314
 30
0.0
 11
931.409687512763
 21
293.5779563480314
 31
0.0
  0
LINE
  5
3884
330
1F
100
AcDbEntity
  8
0
100
AcDbLine
 10
936.9096875127629
 20
259.0779563480314
 30
0.0
 11
936.9096875127629
 21
259.5779563480314
 31
0.0
  0
LINE
  5
3885
330
1F
100
AcDbEntity
  8
0
100
AcDbLine
 10
931.409687512763
 20
259.5779563480314
 30
0.0
 11
936.9096875127629
 21
259.5779563480314
 31
0.0
  0
LINE
  5
3886
330
1F
100
AcDbEntity
  8
0
100
AcDbLine
 10
841.8440851209698
 20
265.5779563480314
 30
0.0
 11
841.8440851209698
 21
287.5779563480314
 31
0.0
  0
LINE
  5
3887
330
1F
100
AcDbEntity
  8
0
100
AcDbLine
 10
866.3440851209697
 20
259.0779563480314
 30
0.0
 11
866.3440851209697
 21
259.5779563480314
 31
0.0
  0
LINE
  5
388C
330
1F
100
AcDbEntity
  8
0
100
AcDbLine
 10
837.8440851209697
 20
261.5779563480314
 30
0.0
 11
841.8440851209698
 21
265.5779563480314
 31
0.0
  0
LINE
  5
388D
330
1F
100
AcDbEntity
  8
0
100
AcDbLine
 10
841.8440851209698
 20
287.5779563480314
 30
0.0
 11
837.8440851209697
 21
291.5779563480314
 31
0.0
  0
LINE
  5
388F
330
1F
100
AcDbEntity
  8
0
100
AcDbLine
 10
843.8440851209698
 20
308.5779563480314
 30
0.0
 11
844.3440851209697
 21
308.0779563480314
 31
0.0
  0
LINE
  5
3892
330
1F
100
AcDbEntity
  8
0
100
AcDbLine
 10
799.3440851209697
 20
293.5779563480314
 30
0.0
 11
799.3440851209697
 21
308.0779563480314
 31
0.0
  0
LINE
  5
3893
330
1F
100
AcDbEntity
  8
0
100
AcDbLine
 10
821.8440851209697
 20
259.0779563480314
 30
0.0
 11
777.3440851209698
 21
259.0779563480314
 31
0.0
  0
LINE
  5
3894
330
1F
100
AcDbEntity
  8
0
100
AcDbLine
 10
821.8440851209697
 20
259.5779563480314
 30
0.0
 11
771.8440851209698
 21
259.5779563480314
 31
0.0
  0
LINE
  5
3895
330
1F
100
AcDbEntity
  8
0
100
AcDbLine
 10
801.8440851209698
 20
265.5779563480314
 30
0.0
 11
801.8440851209698
 21
287.5779563480314
 31
0.0
  0
LINE
  5
3897
330
1F
100
AcDbEntity
  8
0
100
AcDbLine
 10
801.8440851209698
 20
265.5779563480314
 30
0.0
 11
805.8440851209697
 21
261.5779563480314
 31
0.0
  0
LINE
  5
389C
330
1F
100
AcDbEntity
  8
0
100
AcDbLine
 10
801.8440851209698
 20
287.5779563480314
 30
0.0
 11
805.8440851209697
 21
291.5779563480314
 31
0.0
  0
LINE
  5
389D
330
1F
100
AcDbEntity
  8
0
100
AcDbLine
 10
771.8440851209698
 20
259.5779563480314
 30
0.0
 11
771.8440851209698
 21
293.5779563480314
 31
0.0
  0
LINE
  5
389E
330
1F
100
AcDbEntity
  8
0
100
AcDbLine
 10
777.3440851209698
 20
259.0779563480314
 30
0.0
 11
777.3440851209698
 21
259.5779563480314
 31
0.0
  0
LINE
  5
38A0
330
1F
100
AcDbEntity
  8
0
100
AcDbLine
 10
799.8440851209697
 20
308.5779563480314
 30
0.0
 11
799.3440851209697
 21
308.0779563480314
 31
0.0
  0
ARC
  5
38A3
330
1F
100
AcDbEntity
  8
0
100
AcDbCircle
 10
843.3440851209697
 20
380.4992477823743
 30
0.0
 40
2.5
100
AcDbArc
 50
270.0
 51
0.0
  0
ARC
  5
38A4
330
1F
100
AcDbEntity
  8
0
100
AcDbCircle
 10
800.3440851209697
 20
380.4992477823743
 30
0.0
 40
2.5
100
AcDbArc
 50
180.0
 51
270.0
  0
CIRCLE
  5
38A7
330
1F
100
AcDbEntity
  8
0
100
AcDbCircle
 10
858.8440851209698
 20
376.9992477823743
 30
0.0
 40
10.25
  0
CIRCLE
  5
38A9
330
1F
100
AcDbEntity
  8
0
100
AcDbCircle
 10
784.8440851209698
 20
376.9992477823743
 30
0.0
 40
10.25
  0
LINE
  5
38AB
330
1F
100
AcDbEntity
  8
0
100
AcDbLine
 10
835.8440851209698
 20
377.9992477823744
 30
0.0
 11
835.8440851209698
 21
380.9992477823746
 31
0.0
  0
LINE
  5
38AC
330
1F
100
AcDbEntity
  8
0
100
AcDbLine
 10
807.8440851209698
 20
377.9992477823744
 30
0.0
 11
807.8440851209698
 21
380.9992477823744
 31
0.0
  0
LINE
  5
38AD
330
1F
100
AcDbEntity
  8
0
100
AcDbLine
 10
845.8440851209697
 20
375.4764733574259
 30
0.0
 11
845.8440851209697
 21
381.9992477823744
 31
0.0
  0
LINE
  5
38AE
330
1F
100
AcDbEntity
  8
0
100
AcDbLine
 10
797.8440851209693
 20
375.4764733574273
 30
0.0
 11
797.8440851209698
 21
381.9992477823742
 31
0.0
  0
LINE
  5
38AF
330
1F
100
AcDbEntity
  8
0
100
AcDbLine
 10
871.8440851209697
 20
371.9992477823744
 30
0.0
 11
871.8440851209697
 21
455.9992477823743
 31
0.0
  0
LINE
  5
38B0
330
1F
100
AcDbEntity
  8
0
100
AcDbLine
 10
771.8440851209698
 20
371.9992477823744
 30
0.0
 11
771.8440851209698
 21
455.9992477823746
 31
0.0
  0
LINE
  5
38B1
102
{ACAD_REACTORS
330
3C10
102
}
330
1F
100
AcDbEntity
  8
CENTER
  6
CENTER
100
AcDbLine
 10
821.8440851209697
 20
361.2937683303196
 30
0.0
 11
821.8440851209697
 21
466.7047272344293
 31
0.0
  0
LINE
  5
38B2
330
1F
100
AcDbEntity
  8
0
100
AcDbLine
 10
868.3440851209697
 20
415.4992477823744
 30
0.0
 11
844.2048207975972
 21
415.4992477823744
 31
0.0
  0
LINE
  5
38B3
330
1F
100
AcDbEntity
  8
0
100
AcDbLine
 10
868.3440851209697
 20
412.4992477823743
 30
0.0
 11
844.2048207975972
 21
412.4992477823743
 31
0.0
  0
LINE
  5
38B4
330
1F
100
AcDbEntity
  8
CENTER
  6
CENTER
100
AcDbLine
 10
874.8509485380559
 20
413.9992477823743
 30
0.0
 11
765.3227398919666
 21
413.9992477823743
 31
0.0
  0
ARC
  5
38B5
330
1F
100
AcDbEntity
  8
0
100
AcDbCircle
 10
844.9146832926684
 20
423.4992477823742
 30
0.0
 40
3.0
100
AcDbArc
 50
202.3808611227597
 51
270.0
  0
ARC
  5
38B6
330
1F
100
AcDbEntity
  8
0
100
AcDbCircle
 10
844.9146832926684
 20
404.4992477823742
 30
0.0
 40
3.0
100
AcDbArc
 50
90.0
 51
157.6191388772402
  0
LINE
  5
38B7
330
1F
100
AcDbEntity
  8
0
100
AcDbLine
 10
840.2577349487136
 20
430.2915772665588
 30
0.0
 11
847.8072105094611
 21
437.8410528273064
 31
0.0
  0
LINE
  5
38B8
330
1F
100
AcDbEntity
  8
0
100
AcDbLine
 10
838.1364146051542
 20
432.4128976101185
 30
0.0
 11
845.6858901659007
 21
439.962373170865
 31
0.0
  0
LINE
  5
38B9
330
1F
100
AcDbEntity
  8
0
100
AcDbLine
 10
847.8072105094611
 20
390.1574427374426
 30
0.0
 11
840.2577349487142
 21
397.7069182981897
 31
0.0
  0
LINE
  5
38BA
330
1F
100
AcDbEntity
  8
0
100
AcDbLine
 10
845.6858901659007
 20
388.0361223938837
 30
0.0
 11
838.1364146051533
 21
395.5855979546311
 31
0.0
  0
ARC
  5
38BB
330
1F
100
AcDbEntity
  8
0
100
AcDbCircle
 10
843.3440851209697
 20
452.5220222073229
 30
0.0
 40
2.5
100
AcDbArc
 50
0.0
 51
95.21590857046241
  0
LINE
  5
38BC
330
1F
100
AcDbEntity
  8
0
100
AcDbLine
 10
863.8440851209697
 20
463.9992477823743
 30
0.0
 11
779.8440851209698
 21
463.9992477823746
 31
0.0
  0
CIRCLE
  5
38BE
330
1F
100
AcDbEntity
  8
0
100
AcDbCircle
 10
858.8440851209698
 20
450.9992477823742
 30
0.0
 40
10.25
  0
ARC
  5
38C0
330
1F
100
AcDbEntity
  8
0
100
AcDbCircle
 10
863.8440851209697
 20
455.9992477823742
 30
0.0
 40
8.0
100
AcDbArc
 50
0.0
 51
90.0
  0
LINE
  5
38C5
330
1F
100
AcDbEntity
  8
0
100
AcDbLine
 10
868.8440851209698
 20
398.4764733574259
 30
0.0
 11
868.8440851209698
 21
429.5220222073234
 31
0.0
  0
ARC
  5
38C6
330
1F
100
AcDbEntity
  8
0
100
AcDbCircle
 10
865.8440851209698
 20
423.4992477823742
 30
0.0
 40
3.0
100
AcDbArc
 50
270.0
 51
0.0
  0
ARC
  5
38C7
330
1F
100
AcDbEntity
  8
0
100
AcDbCircle
 10
866.3440851209697
 20
429.5220222073234
 30
0.0
 40
2.5
100
AcDbArc
 50
0.0
 51
95.21590857046241
  0
ARC
  5
38C8
330
1F
100
AcDbEntity
  8
0
100
AcDbCircle
 10
860.366859545919
 20
435.4992477823742
 30
0.0
 40
2.5
100
AcDbArc
 50
354.7840914295441
 51
90.0
  0
LINE
  5
38CA
330
1F
100
AcDbEntity
  8
0
100
AcDbLine
 10
860.366859545919
 20
437.9992477823743
 30
0.0
 11
853.8440851209697
 21
437.9992477823746
 31
0.0
  0
ARC
  5
38CB
330
1F
100
AcDbEntity
  8
0
100
AcDbCircle
 10
853.8440851209697
 20
445.9992477823742
 30
0.0
 40
8.0
100
AcDbArc
 50
200.8522600829791
 51
249.1477244068474
  0
ARC
  5
38CC
330
1F
100
AcDbEntity
  8
0
100
AcDbCircle
 10
849.9285308530206
 20
435.7197324837464
 30
0.0
 40
3.0
100
AcDbArc
 50
69.1477399170282
 51
134.9999999999953
  0
ARC
  5
38CD
330
1F
100
AcDbEntity
  8
0
100
AcDbCircle
 10
853.8440851209697
 20
445.9992477823742
 30
0.0
 40
8.0
100
AcDbArc
 50
249.1477399170274
 51
270.0
  0
ARC
  5
38CE
330
1F
100
AcDbEntity
  8
0
100
AcDbCircle
 10
843.564569822341
 20
442.0836935144244
 30
0.0
 40
3.0
100
AcDbArc
 50
314.9999999999954
 51
20.85226008297907
  0
ARC
  5
38CF
330
1F
100
AcDbEntity
  8
0
100
AcDbCircle
 10
853.8440851209697
 20
445.9992477823742
 30
0.0
 40
8.0
100
AcDbArc
 50
180.0
 51
200.8522600829791
  0
LINE
  5
38D0
330
1F
100
AcDbEntity
  8
0
100
AcDbLine
 10
845.8440851209697
 20
445.9992477823745
 30
0.0
 11
845.8440851209697
 21
452.5220222073232
 31
0.0
  0
LINE
  5
38D1
330
1F
100
AcDbEntity
  8
0
100
AcDbLine
 10
865.8440851209698
 20
420.4992477823745
 30
0.0
 11
844.9146832926684
 21
420.4992477823745
 31
0.0
  0
ARC
  5
38D2
330
1F
100
AcDbEntity
  8
0
100
AcDbCircle
 10
865.8440851209698
 20
434.9992477823742
 30
0.0
 40
3.0
100
AcDbArc
 50
174.7840914295441
 51
275.2159085704494
  0
ARC
  5
38D3
330
1F
100
AcDbEntity
  8
0
100
AcDbCircle
 10
821.8440851209697
 20
413.9992477823742
 30
0.0
 40
30.0
100
AcDbArc
 50
15.46600995341933
 51
39.26082952273543
  0
ARC
  5
38D4
330
1F
100
AcDbEntity
  8
0
100
AcDbCircle
 10
865.8440851209698
 20
404.4992477823742
 30
0.0
 40
3.0
100
AcDbArc
 50
0.0
 51
90.0
  0
ARC
  5
38D5
330
1F
100
AcDbEntity
  8
0
100
AcDbCircle
 10
866.3440851209697
 20
398.4764733574256
 30
0.0
 40
2.5
100
AcDbArc
 50
264.7840914295506
 51
0.0
  0
ARC
  5
38D6
330
1F
100
AcDbEntity
  8
0
100
AcDbCircle
 10
868.3440851209697
 20
411.9992477823742
 30
0.0
 40
0.5
100
AcDbArc
 50
0.0
 51
90.0
  0
ARC
  5
38D7
330
1F
100
AcDbEntity
  8
0
100
AcDbCircle
 10
868.3440851209697
 20
415.9992477823742
 30
0.0
 40
0.5
100
AcDbArc
 50
270.0
 51
0.0
  0
ARC
  5
38D8
330
1F
100
AcDbEntity
  8
0
100
AcDbCircle
 10
821.8440851209697
 20
413.9992477823742
 30
0.0
 40
30.0
100
AcDbArc
 50
320.7391704772646
 51
344.5339900465806
  0
LINE
  5
38D9
330
1F
100
AcDbEntity
  8
0
100
AcDbLine
 10
865.8440851209698
 20
407.4992477823744
 30
0.0
 11
844.9146832926684
 21
407.4992477823744
 31
0.0
  0
LINE
  5
38DA
330
1F
100
AcDbEntity
  8
0
100
AcDbLine
 10
860.3668595459181
 20
389.9992477823744
 30
0.0
 11
853.8440851209697
 21
389.9992477823744
 31
0.0
  0
ARC
  5
38DB
330
1F
100
AcDbEntity
  8
0
100
AcDbCircle
 10
860.3668595459181
 20
392.4992477823743
 30
0.0
 40
2.5
100
AcDbArc
 50
270.0
 51
5.215908570452665
  0
ARC
  5
38DC
330
1F
100
AcDbEntity
  8
0
100
AcDbCircle
 10
865.8440851209698
 20
392.9992477823743
 30
0.0
 40
3.0
100
AcDbArc
 50
84.78409142953758
 51
185.2159085704559
  0
ARC
  5
38DD
330
1F
100
AcDbEntity
  8
0
100
AcDbCircle
 10
853.8440851209697
 20
381.9992477823742
 30
0.0
 40
8.0
100
AcDbArc
 50
110.8522760223573
 51
159.1477439193321
  0
ARC
  5
38DE
330
1F
100
AcDbEntity
  8
0
100
AcDbCircle
 10
843.564569822341
 20
385.9148020503238
 30
0.0
 40
3.0
100
AcDbArc
 50
339.1477399170209
 51
45.00000000000464
  0
ARC
  5
38DF
330
1F
100
AcDbEntity
  8
0
100
AcDbCircle
 10
853.8440851209697
 20
381.9992477823742
 30
0.0
 40
8.0
100
AcDbArc
 50
159.1477399170209
 51
180.0
  0
ARC
  5
38E0
330
1F
100
AcDbEntity
  8
0
100
AcDbCircle
 10
849.9285308530206
 20
392.278763081002
 30
0.0
 40
3.0
100
AcDbArc
 50
225.0000000000046
 51
290.8522600829726
  0
ARC
  5
38E1
330
1F
100
AcDbEntity
  8
0
100
AcDbCircle
 10
853.8440851209697
 20
381.9992477823742
 30
0.0
 40
8.0
100
AcDbArc
 50
90.0
 51
110.8522600829727
  0
LINE
  5
38E2
330
1F
100
AcDbEntity
  8
0
100
AcDbLine
 10
823.3440851209698
 20
438.5400811015588
 30
0.0
 11
823.3440851209698
 21
457.9992477823745
 31
0.0
  0
LINE
  5
38E3
330
1F
100
AcDbEntity
  8
0
100
AcDbLine
 10
820.3440851209698
 20
438.5400811015588
 30
0.0
 11
820.3440851209698
 21
457.9992477823743
 31
0.0
  0
ARC
  5
38E4
330
1F
100
AcDbEntity
  8
0
100
AcDbCircle
 10
800.3440851209697
 20
452.5220222073229
 30
0.0
 40
2.5
100
AcDbArc
 50
84.78409142953758
 51
180.0
  0
ARC
  5
38E5
330
1F
100
AcDbEntity
  8
0
100
AcDbCircle
 10
842.8440851209698
 20
457.9992477823743
 30
0.0
 40
3.0
100
AcDbArc
 50
174.7840914295441
 51
275.2159085704494
  0
ARC
  5
38E6
330
1F
100
AcDbEntity
  8
0
100
AcDbCircle
 10
800.8440851209698
 20
457.9992477823743
 30
0.0
 40
3.0
100
AcDbArc
 50
264.7840914295506
 51
5.215908570452665
  0
CIRCLE
  5
38E9
330
1F
100
AcDbEntity
  8
0
100
AcDbCircle
 10
784.8440851209698
 20
450.9992477823742
 30
0.0
 40
10.25
  0
ARC
  5
38EA
330
1F
100
AcDbEntity
  8
0
100
AcDbCircle
 10
826.3440851209697
 20
457.9992477823743
 30
0.0
 40
3.0
100
AcDbArc
 50
90.0
 51
180.0
  0
LINE
  5
38EB
330
1F
100
AcDbEntity
  8
0
100
AcDbLine
 10
837.3668595459184
 20
460.9992477823745
 30
0.0
 11
806.3213072626686
 21
460.9992477823745
 31
0.0
  0
ARC
  5
38EC
330
1F
100
AcDbEntity
  8
0
100
AcDbCircle
 10
837.3668595459184
 20
458.4992477823742
 30
0.0
 40
2.5
100
AcDbArc
 50
354.7840914295441
 51
90.0
  0
ARC
  5
38ED
330
1F
100
AcDbEntity
  8
0
100
AcDbCircle
 10
817.3440851209697
 20
457.9992477823743
 30
0.0
 40
3.0
100
AcDbArc
 50
0.0
 51
90.0
  0
ARC
  5
38EE
330
1F
100
AcDbEntity
  8
0
100
AcDbCircle
 10
806.3213106960207
 20
458.4992477823742
 30
0.0
 40
2.5
100
AcDbArc
 50
90.0
 51
185.2159085704559
  0
ARC
  5
38EF
330
1F
100
AcDbEntity
  8
0
100
AcDbCircle
 10
779.8440851209698
 20
455.9992477823742
 30
0.0
 40
8.0
100
AcDbArc
 50
90.0
 51
180.0
  0
ARC
  5
38F0
330
1F
100
AcDbEntity
  8
0
100
AcDbCircle
 10
798.7734869492705
 20
404.4992477823742
 30
0.0
 40
3.0
100
AcDbArc
 50
22.38086112275975
 51
90.0
  0
ARC
  5
38F1
330
1F
100
AcDbEntity
  8
0
100
AcDbCircle
 10
798.7734869492705
 20
423.4992477823742
 30
0.0
 40
3.0
100
AcDbArc
 50
270.0
 51
337.6191388772402
  0
LINE
  5
38F2
330
1F
100
AcDbEntity
  8
0
100
AcDbLine
 10
803.4304352932258
 20
430.2915772665589
 30
0.0
 11
795.8809597324793
 21
437.8410528273052
 31
0.0
  0
LINE
  5
38F3
330
1F
100
AcDbEntity
  8
0
100
AcDbLine
 10
805.5517556367854
 20
432.4128976101185
 30
0.0
 11
798.002280076038
 21
439.9623731708657
 31
0.0
  0
LINE
  5
38F4
330
1F
100
AcDbEntity
  8
0
100
AcDbLine
 10
795.8809597324784
 20
390.1574427374428
 30
0.0
 11
803.4304352932254
 21
397.7069182981897
 31
0.0
  0
LINE
  5
38F5
330
1F
100
AcDbEntity
  8
0
100
AcDbLine
 10
798.0022800760385
 20
388.0361223938835
 30
0.0
 11
805.5517556367854
 21
395.5855979546304
 31
0.0
  0
CIRCLE
  5
38F6
330
1F
100
AcDbEntity
  8
0
100
AcDbCircle
 10
821.8440851209697
 20
413.9992477823742
 30
0.0
 40
21.95
  0
ARC
  5
38F8
330
1F
100
AcDbEntity
  8
0
100
AcDbCircle
 10
826.3440851209697
 20
438.5400811015586
 30
0.0
 40
3.0
100
AcDbArc
 50
180.0
 51
259.6092284919816
  0
ARC
  5
38F9
330
1F
100
AcDbEntity
  8
0
100
AcDbCircle
 10
821.8440851209697
 20
413.9992477823742
 30
0.0
 40
30.0
100
AcDbArc
 50
50.73917047727008
 51
84.26082952272542
  0
ARC
  5
38FA
330
1F
100
AcDbEntity
  8
0
100
AcDbCircle
 10
842.3790552922733
 20
428.1702569229988
 30
0.0
 40
3.0
100
AcDbArc
 50
134.9999999999953
 51
214.609228491983
  0
ARC
  5
38FB
330
1F
100
AcDbEntity
  8
0
100
AcDbCircle
 10
836.0150942615941
 20
434.5342179536779
 30
0.0
 40
3.0
100
AcDbArc
 50
235.3907715080178
 51
314.9999999999954
  0
ARC
  5
38FC
330
1F
100
AcDbEntity
  8
0
100
AcDbCircle
 10
817.3440851209697
 20
438.5400811015586
 30
0.0
 40
3.0
100
AcDbArc
 50
280.3907715080185
 51
0.0
  0
ARC
  5
38FD
330
1F
100
AcDbEntity
  8
0
100
AcDbCircle
 10
821.8440851209697
 20
413.9992477823742
 30
0.0
 40
30.0
100
AcDbArc
 50
95.73917047727457
 51
129.260829522732
  0
ARC
  5
38FE
330
1F
100
AcDbEntity
  8
0
100
AcDbCircle
 10
801.3091149496657
 20
428.1702569229991
 30
0.0
 40
3.0
100
AcDbArc
 50
325.390771508017
 51
45.00000000000464
  0
ARC
  5
38FF
330
1F
100
AcDbEntity
  8
0
100
AcDbCircle
 10
807.6730759803449
 20
434.5342179536779
 30
0.0
 40
3.0
100
AcDbArc
 50
225.0000000000046
 51
304.609228491984
  0
LINE
  5
3900
330
1F
100
AcDbEntity
  8
0
100
AcDbLine
 10
831.8440851209697
 20
385.7149765349125
 30
0.0
 11
811.8440851209697
 21
385.7149765349127
 31
0.0
  0
LINE
  5
3901
330
1F
100
AcDbEntity
  8
0
100
AcDbLine
 10
835.8440851209698
 20
380.9992477823744
 30
0.0
 11
807.8440851209698
 21
380.9992477823744
 31
0.0
  0
ARC
  5
3902
330
1F
100
AcDbEntity
  8
0
100
AcDbCircle
 10
842.3790552922737
 20
399.8282386417494
 30
0.0
 40
3.0
100
AcDbArc
 50
145.390771508017
 51
225.0000000000046
  0
ARC
  5
3903
330
1F
100
AcDbEntity
  8
0
100
AcDbCircle
 10
844.2048207975972
 20
415.9992477823742
 30
0.0
 40
0.5
100
AcDbArc
 50
185.1110769852894
 51
270.0
  0
ARC
  5
3904
330
1F
100
AcDbEntity
  8
0
100
AcDbCircle
 10
844.2048207975972
 20
411.9992477823742
 30
0.0
 40
0.5
100
AcDbArc
 50
90.0
 51
174.8889230147105
  0
LINE
  5
3905
330
1F
100
AcDbEntity
  8
0
100
AcDbLine
 10
835.8440851209698
 20
380.9992477823746
 30
0.0
 11
831.8440851209697
 21
385.7149765349127
 31
0.0
  0
ARC
  5
3906
330
1F
100
AcDbEntity
  8
0
100
AcDbCircle
 10
821.8440851209697
 20
413.9992477823742
 30
0.0
 40
30.0
100
AcDbArc
 50
292.5403104635102
 51
309.26082952273
  0
ARC
  5
3907
330
1F
100
AcDbEntity
  8
0
100
AcDbCircle
 10
836.0150942615938
 20
393.4642776110712
 30
0.0
 40
3.0
100
AcDbArc
 50
45.00000000000464
 51
124.6092284919821
  0
LINE
  5
3908
330
1F
100
AcDbEntity
  8
0
100
AcDbLine
 10
831.8440851209697
 20
385.7149765349127
 30
0.0
 11
831.8440851209697
 21
394.4594806394428
 31
0.0
  0
ARC
  5
3909
330
1F
100
AcDbEntity
  8
0
100
AcDbCircle
 10
801.3091149496657
 20
399.8282386417494
 30
0.0
 40
3.0
100
AcDbArc
 50
314.9999999999954
 51
34.60922849198297
  0
ARC
  5
390A
330
1F
100
AcDbEntity
  8
0
100
AcDbCircle
 10
807.6730759803449
 20
393.4642776110706
 30
0.0
 40
3.0
100
AcDbArc
 50
55.39077150801784
 51
134.9999999999953
  0
ARC
  5
390B
330
1F
100
AcDbEntity
  8
0
100
AcDbCircle
 10
821.8440851209697
 20
413.9992477823742
 30
0.0
 40
30.0
100
AcDbArc
 50
230.7391704772701
 51
247.4596895364899
  0
LINE
  5
390C
330
1F
100
AcDbEntity
  8
0
100
AcDbLine
 10
807.8440851209698
 20
380.9992477823744
 30
0.0
 11
811.8440851209697
 21
385.7149765349127
 31
0.0
  0
LINE
  5
390D
330
1F
100
AcDbEntity
  8
0
100
AcDbLine
 10
811.8440851209697
 20
385.7149765349127
 30
0.0
 11
811.8440851209697
 21
394.4594806394428
 31
0.0
  0
LINE
  5
390E
330
1F
100
AcDbEntity
  8
0
100
AcDbLine
 10
774.8440851209697
 20
398.476473357425
 30
0.0
 11
774.8440851209697
 21
429.5220222073233
 31
0.0
  0
LINE
  5
390F
330
1F
100
AcDbEntity
  8
0
100
AcDbLine
 10
798.7734869492705
 20
420.4992477823745
 30
0.0
 11
777.8440851209698
 21
420.4992477823745
 31
0.0
  0
ARC
  5
3910
330
1F
100
AcDbEntity
  8
0
100
AcDbCircle
 10
777.8440851209698
 20
434.9992477823742
 30
0.0
 40
3.0
100
AcDbArc
 50
264.7840914295506
 51
5.215908570455942
  0
ARC
  5
3911
330
1F
100
AcDbEntity
  8
0
100
AcDbCircle
 10
783.3213106960206
 20
435.4992477823742
 30
0.0
 40
2.5
100
AcDbArc
 50
90.0
 51
185.2159085704559
  0
ARC
  5
3912
330
1F
100
AcDbEntity
  8
0
100
AcDbCircle
 10
789.8440851209698
 20
445.9992477823742
 30
0.0
 40
8.0
100
AcDbArc
 50
270.0
 51
290.8522600829726
  0
ARC
  5
3913
330
1F
100
AcDbEntity
  8
0
100
AcDbCircle
 10
789.8440851209698
 20
445.9992477823742
 30
0.0
 40
8.0
100
AcDbArc
 50
290.8522600829726
 51
339.1477272986048
  0
ARC
  5
3914
330
1F
100
AcDbEntity
  8
0
100
AcDbCircle
 10
793.7596393889198
 20
435.7197324837454
 30
0.0
 40
3.0
100
AcDbArc
 50
45.00000000000464
 51
110.8522600829727
  0
ARC
  5
3915
330
1F
100
AcDbEntity
  8
0
100
AcDbCircle
 10
800.123600419598
 20
442.0836935144251
 30
0.0
 40
3.0
100
AcDbArc
 50
159.1477399170239
 51
225.0000000000046
  0
ARC
  5
3916
330
1F
100
AcDbEntity
  8
0
100
AcDbCircle
 10
789.8440851209698
 20
445.9992477823742
 30
0.0
 40
8.0
100
AcDbArc
 50
339.1477399170239
 51
0.0
  0
LINE
  5
3917
330
1F
100
AcDbEntity
  8
0
100
AcDbLine
 10
797.8440851209698
 20
445.9992477823743
 30
0.0
 11
797.8440851209698
 21
452.5220222073232
 31
0.0
  0
LINE
  5
3919
330
1F
100
AcDbEntity
  8
0
100
AcDbLine
 10
789.8440851209698
 20
437.9992477823746
 30
0.0
 11
783.3213106960206
 21
437.9992477823746
 31
0.0
  0
ARC
  5
391A
330
1F
100
AcDbEntity
  8
0
100
AcDbCircle
 10
821.8440851209697
 20
413.9992477823742
 30
0.0
 40
30.0
100
AcDbArc
 50
140.7391704772645
 51
164.5339900465806
  0
ARC
  5
391B
330
1F
100
AcDbEntity
  8
0
100
AcDbCircle
 10
777.8440851209698
 20
423.4992477823742
 30
0.0
 40
3.0
100
AcDbArc
 50
180.0
 51
270.0
  0
ARC
  5
391C
330
1F
100
AcDbEntity
  8
0
100
AcDbCircle
 10
777.3440851209698
 20
429.5220222073232
 30
0.0
 40
2.5
100
AcDbArc
 50
84.78409142953758
 51
180.0
  0
LINE
  5
391D
330
1F
100
AcDbEntity
  8
0
100
AcDbLine
 10
799.4833494443423
 20
415.4992477823744
 30
0.0
 11
775.3440851209697
 21
415.4992477823744
 31
0.0
  0
LINE
  5
391E
330
1F
100
AcDbEntity
  8
0
100
AcDbLine
 10
799.4833494443423
 20
412.4992477823743
 30
0.0
 11
775.3440851209697
 21
412.4992477823743
 31
0.0
  0
LINE
  5
391F
330
1F
100
AcDbEntity
  8
0
100
AcDbLine
 10
798.7734869492705
 20
407.4992477823744
 30
0.0
 11
777.8440851209698
 21
407.4992477823744
 31
0.0
  0
ARC
  5
3920
330
1F
100
AcDbEntity
  8
0
100
AcDbCircle
 10
777.8440851209698
 20
392.9992477823743
 30
0.0
 40
3.0
100
AcDbArc
 50
354.7840914295441
 51
95.21590857046241
  0
ARC
  5
3921
330
1F
100
AcDbEntity
  8
0
100
AcDbCircle
 10
821.8440851209697
 20
413.9992477823742
 30
0.0
 40
30.0
100
AcDbArc
 50
195.4660099534194
 51
219.2608295227354
  0
ARC
  5
3922
330
1F
100
AcDbEntity
  8
0
100
AcDbCircle
 10
799.4833494443423
 20
415.9992477823742
 30
0.0
 40
0.5
100
AcDbArc
 50
270.0
 51
354.8889230147105
  0
ARC
  5
3923
330
1F
100
AcDbEntity
  8
0
100
AcDbCircle
 10
799.4833494443423
 20
411.9992477823742
 30
0.0
 40
0.5
100
AcDbArc
 50
5.111076985289493
 51
90.0
  0
ARC
  5
3924
330
1F
100
AcDbEntity
  8
0
100
AcDbCircle
 10
789.8440851209698
 20
381.9992477823742
 30
0.0
 40
8.0
100
AcDbArc
 50
69.14773991702732
 51
90.0
  0
ARC
  5
3925
330
1F
100
AcDbEntity
  8
0
100
AcDbCircle
 10
789.8440851209698
 20
381.9992477823742
 30
0.0
 40
8.0
100
AcDbArc
 50
20.85224874021914
 51
69.14775286001024
  0
ARC
  5
3926
330
1F
100
AcDbEntity
  8
0
100
AcDbCircle
 10
800.123600419598
 20
385.9148020503236
 30
0.0
 40
3.0
100
AcDbArc
 50
134.9999999999953
 51
200.8522600829791
  0
ARC
  5
3927
330
1F
100
AcDbEntity
  8
0
100
AcDbCircle
 10
789.8440851209698
 20
381.9992477823742
 30
0.0
 40
8.0
100
AcDbArc
 50
359.9999999999968
 51
20.85226008297611
  0
ARC
  5
3928
330
1F
100
AcDbEntity
  8
0
100
AcDbCircle
 10
793.7596393889188
 20
392.2787630810025
 30
0.0
 40
3.0
100
AcDbArc
 50
249.1477399170274
 51
314.9999999999954
  0
ARC
  5
3929
330
1F
100
AcDbEntity
  8
0
100
AcDbCircle
 10
783.3213106960193
 20
392.4992477823743
 30
0.0
 40
2.5
100
AcDbArc
 50
174.7840914295441
 51
270.0
  0
LINE
  5
392A
330
1F
100
AcDbEntity
  8
0
100
AcDbLine
 10
789.8440851209698
 20
389.9992477823744
 30
0.0
 11
783.3213106960193
 21
389.9992477823744
 31
0.0
  0
ARC
  5
392B
330
1F
100
AcDbEntity
  8
0
100
AcDbCircle
 10
777.3440851209698
 20
398.4764733574246
 30
0.0
 40
2.5
100
AcDbArc
 50
180.0
 51
275.2159085704494
  0
ARC
  5
392C
330
1F
100
AcDbEntity
  8
0
100
AcDbCircle
 10
775.3440851209697
 20
415.9992477823742
 30
0.0
 40
0.5
100
AcDbArc
 50
180.0
 51
270.0
  0
ARC
  5
392D
330
1F
100
AcDbEntity
  8
0
100
AcDbCircle
 10
775.3440851209697
 20
411.9992477823742
 30
0.0
 40
0.5
100
AcDbArc
 50
90.0
 51
180.0
  0
ARC
  5
392E
330
1F
100
AcDbEntity
  8
0
100
AcDbCircle
 10
777.8440851209698
 20
404.4992477823742
 30
0.0
 40
3.0
100
AcDbArc
 50
90.0
 51
180.0
  0
ARC
  5
392F
330
1F
100
AcDbEntity
  8
0
100
AcDbCircle
 10
843.3440851209697
 20
375.4764733574258
 30
0.0
 40
2.5
100
AcDbArc
 50
264.7840914295506
 51
0.0
  0
LINE
  5
3930
330
1F
100
AcDbEntity
  8
0
100
AcDbLine
 10
863.8440851209697
 20
363.9992477823744
 30
0.0
 11
779.8440851209698
 21
363.9992477823744
 31
0.0
  0
ARC
  5
3934
330
1F
100
AcDbEntity
  8
0
100
AcDbCircle
 10
863.8440851209697
 20
371.9992477823743
 30
0.0
 40
8.0
100
AcDbArc
 50
270.0
 51
0.0
  0
ARC
  5
3937
330
1F
100
AcDbEntity
  8
0
100
AcDbCircle
 10
800.8440851209698
 20
369.9992477823743
 30
0.0
 40
3.0
100
AcDbArc
 50
354.7840914295473
 51
95.21590857046241
  0
LINE
  5
3938
330
1F
100
AcDbEntity
  8
0
100
AcDbLine
 10
843.3440851209697
 20
377.9992477823744
 30
0.0
 11
800.3440851209697
 21
377.9992477823744
 31
0.0
  0
LINE
  5
3939
330
1F
100
AcDbEntity
  8
0
100
AcDbLine
 10
837.3668595459184
 20
366.9992477823746
 30
0.0
 11
806.3213106960215
 21
366.9992477823744
 31
0.0
  0
ARC
  5
393A
330
1F
100
AcDbEntity
  8
0
100
AcDbCircle
 10
837.3668595459184
 20
369.4992477823742
 30
0.0
 40
2.5
100
AcDbArc
 50
270.0
 51
5.215908570452665
  0
ARC
  5
393B
330
1F
100
AcDbEntity
  8
0
100
AcDbCircle
 10
842.8440851209698
 20
369.9992477823743
 30
0.0
 40
3.0
100
AcDbArc
 50
84.78409142953758
 51
185.2159085704559
  0
ARC
  5
393C
330
1F
100
AcDbEntity
  8
0
100
AcDbCircle
 10
806.3213106960215
 20
369.4992477823742
 30
0.0
 40
2.5
100
AcDbArc
 50
174.7840914295441
 51
270.0
  0
ARC
  5
393D
330
1F
100
AcDbEntity
  8
0
100
AcDbCircle
 10
779.8440851209698
 20
371.9992477823743
 30
0.0
 40
8.0
100
AcDbArc
 50
180.0
 51
270.0
  0
ARC
  5
393E
330
1F
100
AcDbEntity
  8
0
100
AcDbCircle
 10
800.3440851209697
 20
375.4764733574272
 30
0.0
 40
2.5
100
AcDbArc
 50
180.0
 51
275.2159085704494
  0
CIRCLE
  5
3A17
330
1F
100
AcDbEntity
  8
0
100
AcDbCircle
 10
821.8440851209697
 20
413.9992477823743
 30
0.0
 40
22.25
  0
LINE
  5
3A18
330
1F
100
AcDbEntity
  8
0
100
AcDbLine
 10
801.0940851209698
 20
320.5779563480316
 30
0.0
 11
842.5940851209698
 21
320.5779563480316
 31
0.0
  0
LINE
  5
3A19
330
1F
100
AcDbEntity
  8
0
100
AcDbLine
 10
844.0940851209697
 20
319.0779563480317
 30
0.0
 11
844.0940851209697
 21
309.0779563480317
 31
0.0
  0
LINE
  5
3A1A
330
1F
100
AcDbEntity
  8
0
100
AcDbLine
 10
799.5940851209698
 20
319.0779563480317
 30
0.0
 11
799.5940851209698
 21
309.0779563480312
 31
0.0
  0
LINE
  5
3A1B
330
1F
100
AcDbEntity
  8
0
100
AcDbLine
 10
800.0940851209698
 20
308.5779563480312
 30
0.0
 11
843.5940851209698
 21
308.5779563480317
 31
0.0
  0
LINE
  5
3A1C
330
1F
100
AcDbEntity
  8
0
100
AcDbLine
 10
808.7649987614414
 20
310.5779563480317
 30
0.0
 11
834.9231714804982
 21
310.5779563480317
 31
0.0
  0
LINE
  5
3A1F
330
1F
100
AcDbEntity
  8
0
100
AcDbLine
 10
808.7649987614414
 20
395.9992477823744
 30
0.0
 11
834.9231714804977
 21
395.9992477823744
 31
0.0
  0
LINE
  5
3A20
330
1F
100
AcDbEntity
  8
0
100
AcDbLine
 10
834.9231714804982
 20
320.5779563480316
 30
0.0
 11
834.9231714804982
 21
310.5779563480312
 31
0.0
  0
LINE
  5
3A21
330
1F
100
AcDbEntity
  8
0
100
AcDbLine
 10
808.7649987614414
 20
431.9992477823744
 30
0.0
 11
834.9231714804982
 21
431.9992477823744
 31
0.0
  0
ARC
  5
3A22
330
1F
100
AcDbEntity
  8
0
100
AcDbCircle
 10
821.8440851209697
 20
413.9992477823743
 30
0.0
 40
20.75
100
AcDbArc
 50
119.8340588283803
 51
240.1659411716197
  0
ARC
  5
3A23
330
1F
100
AcDbEntity
  8
0
100
AcDbCircle
 10
821.8440851209697
 20
413.9992477823743
 30
0.0
 40
20.75
100
AcDbArc
 50
299.8340588283803
 51
60.16594117161969
  0
LINE
  5
3A24
330
1F
100
AcDbEntity
  8
0
100
AcDbLine
 10
808.7649987614414
 20
320.5779563480316
 30
0.0
 11
808.7649987614414
 21
310.5779563480312
 31
0.0
  0
LINE
  5
3A25
330
1F
100
AcDbEntity
  8
0
100
AcDbLine
 10
842.5940851209698
 20
320.5779563480316
 30
0.0
 11
844.0940851209697
 21
319.0779563480317
 31
0.0
  0
LINE
  5
3A26
330
1F
100
AcDbEntity
  8
0
100
AcDbLine
 10
801.0940851209698
 20
320.5779563480316
 30
0.0
 11
799.5940851209698
 21
319.0779563480317
 31
0.0
  0
LINE
  5
3A27
330
1F
100
AcDbEntity
  8
0
100
AcDbLine
 10
799.5940851209698
 20
319.0779563480317
 30
0.0
 11
808.7649987614414
 21
319.0779563480317
 31
0.0
  0
LINE
  5
3A28
330
1F
100
AcDbEntity
  8
0
100
AcDbLine
 10
834.9231714804982
 20
319.0779563480317
 30
0.0
 11
844.0940851209697
 21
319.0779563480317
 31
0.0
  0
LINE
  5
3A29
330
1F
100
AcDbEntity
  8
0
100
AcDbLine
 10
808.7649987614414
 20
320.5779563480316
 30
0.0
 11
834.9231714804982
 21
310.5779563480317
 31
0.0
  0
LINE
  5
3A2A
330
1F
100
AcDbEntity
  8
0
100
AcDbLine
 10
834.9231714804982
 20
320.5779563480316
 30
0.0
 11
808.7649987614414
 21
310.5779563480317
 31
0.0
  0
LINE
  5
3A2B
330
1F
100
AcDbEntity
  8
0
100
AcDbLine
 10
844.0940851209697
 20
309.0779563480317
 30
0.0
 11
843.5940851209698
 21
308.5779563480317
 31
0.0
  0
LINE
  5
3A2C
330
1F
100
AcDbEntity
  8
0
100
AcDbLine
 10
799.5940851209698
 20
309.0779563480317
 30
0.0
 11
800.0940851209698
 21
308.5779563480317
 31
0.0
  0
LINE
  5
3A2D
330
1F
100
AcDbEntity
  8
0
100
AcDbLine
 10
799.5940851209698
 20
309.0779563480312
 30
0.0
 11
800.0940851209698
 21
308.5779563480312
 31
0.0
  0
LINE
  5
3A2E
330
1F
100
AcDbEntity
  8
0
100
AcDbLine
 10
799.5940851209698
 20
309.0779563480312
 30
0.0
 11
800.0940851209698
 21
308.5779563480312
 31
0.0
  0
LINE
  5
3AE3
330
1F
100
AcDbEntity
  8
AM_7
100
AcDbLine
 10
821.8440851209697
 20
413.9992477823743
 30
0.0
 11
845.5940851209698
 21
413.9992477823743
 31
0.0
1001
GENIUS_GENOREF_13
1005
3AE7
  0
LINE
  5
3AE4
330
1F
100
AcDbEntity
  8
AM_7
100
AcDbLine
 10
821.8440851209697
 20
413.9992477823743
 30
0.0
 11
821.8440851209697
 21
437.7492477823743
 31
0.0
1001
GENIUS_GENOREF_13
1005
3AE7
  0
LINE
  5
3AE5
330
1F
100
AcDbEntity
  8
AM_7
100
AcDbLine
 10
821.8440851209697
 20
413.9992477823743
 30
0.0
 11
798.0940851209697
 21
413.9992477823743
 31
0.0
1001
GENIUS_GENOREF_13
1005
3AE7
  0
LINE
  5
3AE6
330
1F
100
AcDbEntity
  8
AM_7
100
AcDbLine
 10
821.8440851209697
 20
413.9992477823743
 30
0.0
 11
821.8440851209697
 21
390.2492477823744
 31
0.0
1001
GENIUS_GENOREF_13
1005
3AE7
  0
POINT
  5
3AE7
330
1F
100
AcDbEntity
  8
0
 60
     1
100
AcDbPoint
 10
0.0
 20
0.0
 30
0.0
1001
GENIUS_GENOLIS_13
1002
{
1000
ENT
1005
3AE6
1005
3AE5
1005
3AE4
1005
3AE3
1002
}
1001
GENIUS_GENODEF_13
1002
{
1000
HIER
1070
    10
1002
}
1002
{
1000
MANEDIT
1070
     0
1002
}
1002
{
1000
NOSEL
1070
     0
1002
}
1002
{
1000
BEHIND
1070
     0
1002
}
1002
{
1000
OTHER
1070
     0
1002
}
1002
{
1000
REACTOR
1002
}
1001
GENIUS_GENOENT_13
1002
{
1000
MYREF
1005
3AE7
1002
}
1002
{
1000
GRP
1005
0
1002
}
1001
GENIUS_GENOBJ-N-CRS_13
1002
{
1000
OWNER
1000
GEN
1002
}
  0
LINE
  5
3AF8
330
1F
100
AcDbEntity
  8
AM_7
  6
AM_ISO08W050x2
100
AcDbLine
 10
821.8440851209697
 20
305.5779563480314
 30
0.0
 11
821.8440851209697
 21
323.5779563480317
 31
0.0
1001
GENIUS_GENOBJ-N-CEN_13
1002
{
1000
OWNER
1000
GEN
1002
}
1001
GENIUS_GENODEF_13
1002
{
1000
HIER
1070
     0
1002
}
1002
{
1000
MANEDIT
1070
     0
1002
}
1002
{
1000
NOSEL
1070
     0
1002
}
1002
{
1000
BEHIND
1070
     0
1002
}
1002
{
1000
OTHER
1070
     0
1002
}
1002
{
1000
REACTOR
1002
}
1001
GENIUS_GENCEN_19
1002
{
1040
3.0
1002
}
  0
LINE
  5
3AF9
330
1F
100
AcDbEntity
  8
0
100
AcDbLine
 10
959.1596875127629
 20
308.5779563480314
 30
0.0
 11
1003.659687512763
 21
308.5779563480314
 31
0.0
  0
LINE
  5
3AFB
330
1F
100
AcDbEntity
  8
0
100
AcDbLine
 10
959.1596875127629
 20
310.5779563480314
 30
0.0
 11
1003.659687512763
 21
310.5779563480314
 31
0.0
  0
LINE
  5
3AFC
330
1F
100
AcDbEntity
  8
0
100
AcDbLine
 10
959.1596875127629
 20
308.5779563480314
 30
0.0
 11
959.1596875127629
 21
310.5779563480314
 31
0.0
  0
LINE
  5
3AFD
330
1F
100
AcDbEntity
  8
0
100
AcDbLine
 10
1003.659687512763
 20
308.5779563480314
 30
0.0
 11
1003.659687512763
 21
310.5779563480314
 31
0.0
  0
LINE
  5
3B0C
330
1F
100
AcDbEntity
  8
AM_7
  6
AM_ISO08W050x2
100
AcDbLine
 10
981.409687512763
 20
305.5779563480314
 30
0.0
 11
981.409687512763
 21
324.0362931234679
 31
0.0
1001
GENIUS_GENOBJ-N-CEN_13
1002
{
1000
OWNER
1000
GEN
1002
}
1001
GENIUS_GENODEF_13
1002
{
1000
HIER
1070
     0
1002
}
1002
{
1000
MANEDIT
1070
     0
1002
}
1002
{
1000
NOSEL
1070
     0
1002
}
1002
{
1000
BEHIND
1070
     0
1002
}
1002
{
1000
OTHER
1070
     0
1002
}
1002
{
1000
REACTOR
1002
}
1001
GENIUS_GENCEN_19
1002
{
1040
3.0
1002
}
  0
LINE
  5
3B10
330
1F
100
AcDbEntity
  8
0
100
AcDbLine
 10
963.409687512763
 20
320.5779563480314
 30
0.0
 11
999.4096875127631
 21
320.5779563480315
 31
0.0
  0
LINE
  5
3B11
330
1F
100
AcDbEntity
  8
0
100
AcDbLine
 10
963.4096875127632
 20
310.5779563480314
 30
0.0
 11
963.409687512763
 21
320.5779563480314
 31
0.0
1001
GENIUS_GENOBJ-N-CEN_13
1002
{
1000
OWNER
1000
GEN
1002
}
1001
GENIUS_GENODEF_13
1002
{
1000
HIER
1070
     0
1002
}
1002
{
1000
MANEDIT
1070
     0
1002
}
1002
{
1000
NOSEL
1070
     0
1002
}
1002
{
1000
BEHIND
1070
     0
1002
}
1002
{
1000
OTHER
1070
     0
1002
}
1002
{
1000
REACTOR
1002
}
1001
GENIUS_GENCEN_19
1002
{
1040
3.0
1002
}
  0
LINE
  5
3B12
330
1F
100
AcDbEntity
  8
0
100
AcDbLine
 10
999.4096875127629
 20
310.5779563480314
 30
0.0
 11
999.4096875127631
 21
320.5779563480315
 31
0.0
1001
GENIUS_GENOBJ-N-CEN_13
1002
{
1000
OWNER
1000
GEN
1002
}
1001
GENIUS_GENODEF_13
1002
{
1000
HIER
1070
     0
1002
}
1002
{
1000
MANEDIT
1070
     0
1002
}
1002
{
1000
NOSEL
1070
     0
1002
}
1002
{
1000
BEHIND
1070
     0
1002
}
1002
{
1000
OTHER
1070
     0
1002
}
1002
{
1000
REACTOR
1002
}
1001
GENIUS_GENCEN_19
1002
{
1040
3.0
1002
}
  0
LINE
  5
3B15
330
1F
100
AcDbEntity
  8
0
100
AcDbLine
 10
963.4096875127632
 20
319.0779563480313
 30
0.0
 11
999.4096875127631
 21
319.0779563480313
 31
0.0
  0
ARC
  5
3B43
330
1F
100
AcDbEntity
  8
AM_4
100
AcDbCircle
 10
821.8440851209697
 20
178.5779563480313
 30
0.0
 40
10.84999999999999
100
AcDbArc
 50
260.0
 51
170.0
  0
LINE
  5
3B44
330
1F
100
AcDbEntity
  8
AM_7
  6
AM_ISO08W050x2
100
AcDbLine
 10
821.8440851209697
 20
192.4279563480313
 30
0.0
 11
821.8440851209697
 21
164.7279563480313
 31
0.0
  0
CIRCLE
  5
3B45
330
1F
100
AcDbEntity
  8
AM_0
100
AcDbCircle
 10
821.8440851209697
 20
178.5779563480313
 30
0.0
 40
9.3155
  0
LINE
  5
3B46
330
1F
100
AcDbEntity
  8
AM_7
  6
AM_ISO08W050x2
100
AcDbLine
 10
807.9940851209698
 20
178.5779563480313
 30
0.0
 11
835.6940851209696
 21
178.5779563480313
 31
0.0
  0
ARC
  5
3B47
330
1F
100
AcDbEntity
  8
AM_4
100
AcDbCircle
 10
821.8440851209697
 20
276.5779563480313
 30
0.0
 40
10.84999999999999
100
AcDbArc
 50
260.0
 51
170.0
  0
LINE
  5
3B48
330
1F
100
AcDbEntity
  8
AM_7
  6
AM_ISO08W050x2
100
AcDbLine
 10
821.8440851209697
 20
290.4279563480313
 30
0.0
 11
821.8440851209697
 21
262.7279563480314
 31
0.0
  0
CIRCLE
  5
3B49
330
1F
100
AcDbEntity
  8
AM_0
100
AcDbCircle
 10
821.8440851209697
 20
276.5779563480313
 30
0.0
 40
9.3155
  0
LINE
  5
3B4A
330
1F
100
AcDbEntity
  8
AM_7
  6
AM_ISO08W050x2
100
AcDbLine
 10
807.9940851209698
 20
276.5779563480313
 30
0.0
 11
835.6940851209696
 21
276.5779563480313
 31
0.0
  0
ARC
  5
3B74
330
1F
100
AcDbEntity
  8
AM_4
100
AcDbCircle
 10
784.8440851209698
 20
450.9992477823742
 30
0.0
 40
6.0
100
AcDbArc
 50
260.0
 51
170.0
  0
CIRCLE
  5
3B75
330
1F
100
AcDbEntity
  8
AM_0
100
AcDbCircle
 10
784.8440851209698
 20
450.9992477823742
 30
0.0
 40
5.05278471461085
  0
LINE
  5
3B85
330
1F
100
AcDbEntity
  8
AM_7
100
AcDbLine
 10
784.8440851209698
 20
450.9992477823742
 30
0.0
 11
798.0940851209697
 21
450.9992477823742
 31
0.0
1001
GENIUS_GENOREF_13
1005
3B89
  0
LINE
  5
3B86
330
1F
100
AcDbEntity
  8
AM_7
100
AcDbLine
 10
784.8440851209698
 20
450.9992477823742
 30
0.0
 11
784.8440851209698
 21
464.2492477823743
 31
0.0
1001
GENIUS_GENOREF_13
1005
3B89
  0
LINE
  5
3B87
330
1F
100
AcDbEntity
  8
AM_7
100
AcDbLine
 10
784.8440851209698
 20
450.9992477823742
 30
0.0
 11
771.5940851209698
 21
450.9992477823742
 31
0.0
1001
GENIUS_GENOREF_13
1005
3B89
  0
LINE
  5
3B88
330
1F
100
AcDbEntity
  8
AM_7
100
AcDbLine
 10
784.8440851209698
 20
450.9992477823742
 30
0.0
 11
784.8440851209698
 21
437.7492477823742
 31
0.0
1001
GENIUS_GENOREF_13
1005
3B89
  0
POINT
  5
3B89
330
1F
100
AcDbEntity
  8
0
 60
     1
100
AcDbPoint
 10
0.0
 20
0.0
 30
0.0
1001
GENIUS_GENOLIS_13
1002
{
1000
ENT
1005
3B88
1005
3B87
1005
3B86
1005
3B85
1002
}
1001
GENIUS_GENOENT_13
1002
{
1000
MYREF
1005
3B89
1002
}
1002
{
1000
GRP
1005
0
1002
}
1001
GENIUS_GENOBJ-N-CRS_13
1002
{
1000
OWNER
1000
GEN
1002
}
1001
GENIUS_GENODEF_13
1002
{
1000
HIER
1070
    10
1002
}
1002
{
1000
MANEDIT
1070
     0
1002
}
1002
{
1000
NOSEL
1070
     0
1002
}
1002
{
1000
BEHIND
1070
     0
1002
}
1002
{
1000
OTHER
1070
     0
1002
}
1002
{
1000
REACTOR
1002
}
  0
ARC
  5
3B8A
330
1F
100
AcDbEntity
  8
AM_4
100
AcDbCircle
 10
858.8440851209698
 20
450.9992477823742
 30
0.0
 40
6.0
100
AcDbArc
 50
260.0
 51
170.0
  0
CIRCLE
  5
3B8B
330
1F
100
AcDbEntity
  8
AM_0
100
AcDbCircle
 10
858.8440851209698
 20
450.9992477823742
 30
0.0
 40
5.05278471461085
  0
LINE
  5
3B8C
330
1F
100
AcDbEntity
  8
AM_7
100
AcDbLine
 10
858.8440851209698
 20
450.9992477823742
 30
0.0
 11
872.0940851209698
 21
450.9992477823742
 31
0.0
1001
GENIUS_GENOREF_13
1005
3B90
  0
LINE
  5
3B8D
330
1F
100
AcDbEntity
  8
AM_7
100
AcDbLine
 10
858.8440851209698
 20
450.9992477823742
 30
0.0
 11
858.8440851209698
 21
464.2492477823743
 31
0.0
1001
GENIUS_GENOREF_13
1005
3B90
  0
LINE
  5
3B8E
330
1F
100
AcDbEntity
  8
AM_7
100
AcDbLine
 10
858.8440851209698
 20
450.9992477823742
 30
0.0
 11
845.5940851209698
 21
450.9992477823742
 31
0.0
1001
GENIUS_GENOREF_13
1005
3B90
  0
LINE
  5
3B8F
330
1F
100
AcDbEntity
  8
AM_7
100
AcDbLine
 10
858.8440851209698
 20
450.9992477823742
 30
0.0
 11
858.8440851209698
 21
437.7492477823742
 31
0.0
1001
GENIUS_GENOREF_13
1005
3B90
  0
POINT
  5
3B90
330
1F
100
AcDbEntity
  8
0
 60
     1
100
AcDbPoint
 10
74.0
 20
0.0
 30
0.0
1001
GENIUS_GENOLIS_13
1002
{
1000
ENT
1005
3B8F
1005
3B8E
1005
3B8D
1005
3B8C
1002
}
1001
GENIUS_GENOENT_13
1002
{
1000
MYREF
1005
3B90
1002
}
1002
{
1000
GRP
1005
0
1002
}
1001
GENIUS_GENOBJ-N-CRS_13
1002
{
1000
OWNER
1000
GEN
1002
}
1001
GENIUS_GENODEF_13
1002
{
1000
HIER
1070
    10
1002
}
1002
{
1000
MANEDIT
1070
     0
1002
}
1002
{
1000
NOSEL
1070
     0
1002
}
1002
{
1000
BEHIND
1070
     0
1002
}
1002
{
1000
OTHER
1070
     0
1002
}
1002
{
1000
REACTOR
1002
}
  0
ARC
  5
3B91
330
1F
100
AcDbEntity
  8
AM_4
100
AcDbCircle
 10
858.8440851209698
 20
376.9992477823743
 30
0.0
 40
6.0
100
AcDbArc
 50
260.0
 51
170.0
  0
CIRCLE
  5
3B92
330
1F
100
AcDbEntity
  8
AM_0
100
AcDbCircle
 10
858.8440851209698
 20
376.9992477823743
 30
0.0
 40
5.05278471461085
  0
LINE
  5
3B93
330
1F
100
AcDbEntity
  8
AM_7
100
AcDbLine
 10
858.8440851209698
 20
376.9992477823743
 30
0.0
 11
872.0940851209698
 21
376.9992477823743
 31
0.0
1001
GENIUS_GENOREF_13
1005
3B97
  0
LINE
  5
3B94
330
1F
100
AcDbEntity
  8
AM_7
100
AcDbLine
 10
858.8440851209698
 20
376.9992477823743
 30
0.0
 11
858.8440851209698
 21
390.2492477823742
 31
0.0
1001
GENIUS_GENOREF_13
1005
3B97
  0
LINE
  5
3B95
330
1F
100
AcDbEntity
  8
AM_7
100
AcDbLine
 10
858.8440851209698
 20
376.9992477823743
 30
0.0
 11
845.5940851209698
 21
376.9992477823743
 31
0.0
1001
GENIUS_GENOREF_13
1005
3B97
  0
LINE
  5
3B96
330
1F
100
AcDbEntity
  8
AM_7
100
AcDbLine
 10
858.8440851209698
 20
376.9992477823743
 30
0.0
 11
858.8440851209698
 21
363.7492477823743
 31
0.0
1001
GENIUS_GENOREF_13
1005
3B97
  0
POINT
  5
3B97
330
1F
100
AcDbEntity
  8
0
 60
     1
100
AcDbPoint
 10
74.0
 20
-74.0
 30
0.0
1001
GENIUS_GENOLIS_13
1002
{
1000
ENT
1005
3B96
1005
3B95
1005
3B94
1005
3B93
1002
}
1001
GENIUS_GENOENT_13
1002
{
1000
MYREF
1005
3B97
1002
}
1002
{
1000
GRP
1005
0
1002
}
1001
GENIUS_GENOBJ-N-CRS_13
1002
{
1000
OWNER
1000
GEN
1002
}
1001
GENIUS_GENODEF_13
1002
{
1000
HIER
1070
    10
1002
}
1002
{
1000
MANEDIT
1070
     0
1002
}
1002
{
1000
NOSEL
1070
     0
1002
}
1002
{
1000
BEHIND
1070
     0
1002
}
1002
{
1000
OTHER
1070
     0
1002
}
1002
{
1000
REACTOR
1002
}
  0
ARC
  5
3B98
330
1F
100
AcDbEntity
  8
AM_4
100
AcDbCircle
 10
784.8440851209698
 20
376.9992477823743
 30
0.0
 40
6.0
100
AcDbArc
 50
260.0
 51
170.0
  0
CIRCLE
  5
3B99
330
1F
100
AcDbEntity
  8
AM_0
100
AcDbCircle
 10
784.8440851209698
 20
376.9992477823743
 30
0.0
 40
5.05278471461085
  0
LINE
  5
3B9A
330
1F
100
AcDbEntity
  8
AM_7
100
AcDbLine
 10
784.8440851209698
 20
376.9992477823743
 30
0.0
 11
798.0940851209697
 21
376.9992477823743
 31
0.0
1001
GENIUS_GENOREF_13
1005
3B9E
  0
LINE
  5
3B9B
330
1F
100
AcDbEntity
  8
AM_7
100
AcDbLine
 10
784.8440851209698
 20
376.9992477823743
 30
0.0
 11
784.8440851209698
 21
390.2492477823742
 31
0.0
1001
GENIUS_GENOREF_13
1005
3B9E
  0
LINE
  5
3B9C
330
1F
100
AcDbEntity
  8
AM_7
100
AcDbLine
 10
784.8440851209698
 20
376.9992477823743
 30
0.0
 11
771.5940851209698
 21
376.9992477823743
 31
0.0
1001
GENIUS_GENOREF_13
1005
3B9E
  0
LINE
  5
3B9D
330
1F
100
AcDbEntity
  8
AM_7
100
AcDbLine
 10
784.8440851209698
 20
376.9992477823743
 30
0.0
 11
784.8440851209698
 21
363.7492477823743
 31
0.0
1001
GENIUS_GENOREF_13
1005
3B9E
  0
POINT
  5
3B9E
330
1F
100
AcDbEntity
  8
0
 60
     1
100
AcDbPoint
 10
0.0
 20
-74.0
 30
0.0
1001
GENIUS_GENOLIS_13
1002
{
1000
ENT
1005
3B9D
1005
3B9C
1005
3B9B
1005
3B9A
1002
}
1001
GENIUS_GENOENT_13
1002
{
1000
MYREF
1005
3B9E
1002
}
1002
{
1000
GRP
1005
0
1002
}
1001
GENIUS_GENOBJ-N-CRS_13
1002
{
1000
OWNER
1000
GEN
1002
}
1001
GENIUS_GENODEF_13
1002
{
1000
HIER
1070
    10
1002
}
1002
{
1000
MANEDIT
1070
     0
1002
}
1002
{
1000
NOSEL
1070
     0
1002
}
1002
{
1000
BEHIND
1070
     0
1002
}
1002
{
1000
OTHER
1070
     0
1002
}
1002
{
1000
REACTOR
1002
}
  0
LINE
  5
3BB1
330
1F
100
AcDbEntity
  8
0
100
AcDbLine
 10
764.968440773952
 20
271.1318039253246
 30
0.0
 11
771.8440851209698
 21
271.1318039253246
 31
0.0
  0
ARC
  5
3BB2
330
1F
100
AcDbEntity
  8
0
100
AcDbCircle
 10
764.9684407739519
 20
270.1318039253246
 30
0.0
 40
1.0
100
AcDbArc
 50
90.0
 51
180.0
  0
LINE
  5
3BB3
330
1F
100
AcDbEntity
  8
0
100
AcDbLine
 10
756.5761359285386
 20
281.5241087707381
 30
0.0
 11
771.8440851209698
 21
281.5241087707381
 31
0.0
  0
ARC
  5
3BB4
330
1F
100
AcDbEntity
  8
0
100
AcDbCircle
 10
756.5761359285383
 20
278.524108770738
 30
0.0
 40
3.0
100
AcDbArc
 50
90.0
 51
180.0
  0
LINE
  5
3BB5
330
1F
100
AcDbEntity
  8
0
100
AcDbLine
 10
763.9684407739521
 20
270.1318039253246
 30
0.0
 11
763.9684407739521
 21
267.5241087707381
 31
0.0
  0
LINE
  5
3BB6
330
1F
100
AcDbEntity
  8
0
100
AcDbLine
 10
753.5761359285386
 20
278.524108770738
 30
0.0
 11
753.5761359285386
 21
267.5241087707381
 31
0.0
  0
LINE
  5
3BB7
330
1F
100
AcDbEntity
  8
0
100
AcDbLine
 10
751.8440851209698
 20
259.5241087707381
 30
0.0
 11
751.8440851209698
 21
265.5241087707381
 31
0.0
  0
LINE
  5
3BB8
330
1F
100
AcDbEntity
  8
0
100
AcDbLine
 10
751.8440851209698
 20
265.5241087707381
 30
0.0
 11
765.7004915815207
 21
265.5241087707381
 31
0.0
  0
LINE
  5
3BB9
330
1F
100
AcDbEntity
  8
0
100
AcDbLine
 10
751.8440851209698
 20
259.5241087707381
 30
0.0
 11
765.700491581521
 21
259.5241087707381
 31
0.0
  0
LINE
  5
3BBA
330
1F
100
AcDbEntity
  8
0
100
AcDbLine
 10
765.700491581521
 20
259.5241087707381
 30
0.0
 11
765.700491581521
 21
265.5241087707381
 31
0.0
  0
LINE
  5
3BBB
330
1F
100
AcDbEntity
  8
0
100
AcDbLine
 10
755.3081867361076
 20
260.524108770738
 30
0.0
 11
755.3081867361076
 21
264.5241087707383
 31
0.0
  0
LINE
  5
3BBC
330
1F
100
AcDbEntity
  8
0
100
AcDbLine
 10
762.236389966383
 20
260.5241087707378
 30
0.0
 11
762.236389966383
 21
264.5241087707385
 31
0.0
  0
LINE
  5
3BBD
330
1F
100
AcDbEntity
  8
0
100
AcDbLine
 10
752.7722883512454
 20
257.5241087707381
 30
0.0
 11
764.7722883512454
 21
257.5241087707381
 31
0.0
  0
LINE
  5
3BBE
330
1F
100
AcDbEntity
  8
0
100
AcDbLine
 10
764.7722883512454
 20
257.5241087707381
 30
0.0
 11
764.7722883512454
 21
259.5241087707381
 31
0.0
  0
LINE
  5
3BBF
330
1F
100
AcDbEntity
  8
0
100
AcDbLine
 10
752.7722883512454
 20
257.5241087707381
 30
0.0
 11
752.7722883512454
 21
259.5241087707381
 31
0.0
  0
LINE
  5
3BC0
330
1F
100
AcDbEntity
  8
0
100
AcDbLine
 10
752.7722883512454
 20
267.5241087707381
 30
0.0
 11
764.7722883512454
 21
267.5241087707381
 31
0.0
  0
LINE
  5
3BC1
330
1F
100
AcDbEntity
  8
0
100
AcDbLine
 10
764.7722883512454
 20
267.5241087707381
 30
0.0
 11
764.7722883512454
 21
265.5241087707381
 31
0.0
  0
LINE
  5
3BC2
330
1F
100
AcDbEntity
  8
0
100
AcDbLine
 10
752.7722883512454
 20
267.5241087707381
 30
0.0
 11
752.7722883512454
 21
265.5241087707381
 31
0.0
  0
ARC
  5
3BC3
330
1F
100
AcDbEntity
  8
0
100
AcDbCircle
 10
752.7513273523473
 20
263.2926540431623
 30
0.0
 40
3.768603565485
100
AcDbArc
 50
256.0699585645965
 51
312.7236798454837
  0
ARC
  5
3BC4
330
1F
100
AcDbEntity
  8
0
100
AcDbCircle
 10
758.7722883512456
 20
266.0241087707383
 30
0.0
 40
6.500000000000228
100
AcDbArc
 50
237.7957724960285
 51
302.204227503967
  0
ARC
  5
3BC5
330
1F
100
AcDbEntity
  8
0
100
AcDbCircle
 10
758.7722883512456
 20
259.0241087707381
 30
0.0
 40
6.500000000000228
100
AcDbArc
 50
57.79577249603295
 51
122.2042275039715
  0
ARC
  5
3BC6
330
1F
100
AcDbEntity
  8
0
100
AcDbCircle
 10
764.7932493501439
 20
263.2926540431623
 30
0.0
 40
3.768603565485
100
AcDbArc
 50
227.2763201545163
 51
283.9300414354035
  0
ARC
  5
3BC7
330
1F
100
AcDbEntity
  8
0
100
AcDbCircle
 10
752.7513273523473
 20
261.755563498314
 30
0.0
 40
3.768603565485
100
AcDbArc
 50
47.27632015451622
 51
103.9300414354035
  0
ARC
  5
3BC8
330
1F
100
AcDbEntity
  8
0
100
AcDbCircle
 10
764.7932493501439
 20
261.755563498314
 30
0.0
 40
3.768603565485
100
AcDbArc
 50
76.06995856459652
 51
132.7236798454837
  0
LINE
  5
3BC9
330
1F
100
AcDbEntity
  8
0
100
AcDbLine
 10
771.8440851209698
 20
271.1318039253246
 30
0.0
 11
771.8440851209698
 21
281.5241087707381
 31
0.0
  0
LINE
  5
3BCA
330
1F
100
AcDbEntity
  8
AM_7
100
AcDbLine
 10
758.7722883512453
 20
169.9637191691929
 30
0.0
 11
758.7722883512453
 21
282.937083846621
 31
0.0
1001
GENIUS_GENODEF_13
1002
{
1000
HIER
1070
     0
1002
}
1002
{
1000
MANEDIT
1070
     0
1002
}
1002
{
1000
NOSEL
1070
     0
1002
}
1002
{
1000
BEHIND
1070
     0
1002
}
1002
{
1000
OTHER
1070
     0
1002
}
1002
{
1000
REACTOR
1002
}
1001
GENIUS_GENOBJ-N-CEN_13
1002
{
1000
OWNER
1000
GEN
1002
}
1001
GENIUS_GENCEN_19
1002
{
1040
3.0
1002
}
  0
LINE
  5
3BCB
330
1F
100
AcDbEntity
  8
0
100
AcDbLine
 10
764.968440773952
 20
184.0241087707382
 30
0.0
 11
771.8440851209698
 21
184.0241087707382
 31
0.0
  0
ARC
  5
3BCC
330
1F
100
AcDbEntity
  8
0
100
AcDbCircle
 10
764.9684407739519
 20
185.0241087707383
 30
0.0
 40
1.0
100
AcDbArc
 50
180.0
 51
270.0
  0
LINE
  5
3BCD
330
1F
100
AcDbEntity
  8
0
100
AcDbLine
 10
756.5761359285386
 20
173.6318039253247
 30
0.0
 11
771.8440851209698
 21
173.6318039253247
 31
0.0
  0
ARC
  5
3BCE
330
1F
100
AcDbEntity
  8
0
100
AcDbCircle
 10
756.5761359285383
 20
176.6318039253248
 30
0.0
 40
3.0
100
AcDbArc
 50
180.0
 51
270.0
  0
LINE
  5
3BCF
330
1F
100
AcDbEntity
  8
0
100
AcDbLine
 10
763.9684407739521
 20
185.0241087707382
 30
0.0
 11
763.9684407739521
 21
187.6318039253247
 31
0.0
  0
LINE
  5
3BD0
330
1F
100
AcDbEntity
  8
0
100
AcDbLine
 10
753.5761359285386
 20
176.6318039253247
 30
0.0
 11
753.5761359285386
 21
187.6318039253247
 31
0.0
  0
LINE
  5
3BD1
330
1F
100
AcDbEntity
  8
0
100
AcDbLine
 10
751.8440851209698
 20
195.6318039253247
 30
0.0
 11
751.8440851209698
 21
189.6318039253247
 31
0.0
  0
LINE
  5
3BD2
330
1F
100
AcDbEntity
  8
0
100
AcDbLine
 10
751.8440851209698
 20
189.6318039253247
 30
0.0
 11
765.7004915815207
 21
189.6318039253247
 31
0.0
  0
LINE
  5
3BD3
330
1F
100
AcDbEntity
  8
0
100
AcDbLine
 10
751.8440851209698
 20
195.6318039253247
 30
0.0
 11
765.700491581521
 21
195.6318039253247
 31
0.0
  0
LINE
  5
3BD4
330
1F
100
AcDbEntity
  8
0
100
AcDbLine
 10
765.700491581521
 20
195.6318039253247
 30
0.0
 11
765.700491581521
 21
189.6318039253247
 31
0.0
  0
LINE
  5
3BD5
330
1F
100
AcDbEntity
  8
0
100
AcDbLine
 10
755.3081867361076
 20
194.6318039253247
 30
0.0
 11
755.3081867361076
 21
190.6318039253245
 31
0.0
  0
LINE
  5
3BD6
330
1F
100
AcDbEntity
  8
0
100
AcDbLine
 10
762.236389966383
 20
194.631803925325
 30
0.0
 11
762.236389966383
 21
190.6318039253243
 31
0.0
  0
LINE
  5
3BD7
330
1F
100
AcDbEntity
  8
0
100
AcDbLine
 10
752.7722883512454
 20
197.6318039253247
 30
0.0
 11
764.7722883512454
 21
197.6318039253247
 31
0.0
  0
LINE
  5
3BD8
330
1F
100
AcDbEntity
  8
0
100
AcDbLine
 10
764.7722883512454
 20
197.6318039253247
 30
0.0
 11
764.7722883512454
 21
195.6318039253247
 31
0.0
  0
LINE
  5
3BD9
330
1F
100
AcDbEntity
  8
0
100
AcDbLine
 10
752.7722883512454
 20
197.6318039253247
 30
0.0
 11
752.7722883512454
 21
195.6318039253247
 31
0.0
  0
LINE
  5
3BDA
330
1F
100
AcDbEntity
  8
0
100
AcDbLine
 10
752.7722883512454
 20
187.6318039253247
 30
0.0
 11
764.7722883512454
 21
187.6318039253247
 31
0.0
  0
LINE
  5
3BDB
330
1F
100
AcDbEntity
  8
0
100
AcDbLine
 10
764.7722883512454
 20
187.6318039253247
 30
0.0
 11
764.7722883512454
 21
189.6318039253247
 31
0.0
  0
LINE
  5
3BDC
330
1F
100
AcDbEntity
  8
0
100
AcDbLine
 10
752.7722883512454
 20
187.6318039253247
 30
0.0
 11
752.7722883512454
 21
189.6318039253247
 31
0.0
  0
ARC
  5
3BDD
330
1F
100
AcDbEntity
  8
0
100
AcDbCircle
 10
752.7513273523473
 20
191.8632586529005
 30
0.0
 40
3.768603565485
100
AcDbArc
 50
47.27632015451625
 51
103.9300414354035
  0
ARC
  5
3BDE
330
1F
100
AcDbEntity
  8
0
100
AcDbCircle
 10
758.7722883512456
 20
189.1318039253246
 30
0.0
 40
6.500000000000228
100
AcDbArc
 50
57.795772496033
 51
122.2042275039714
  0
ARC
  5
3BDF
330
1F
100
AcDbEntity
  8
0
100
AcDbCircle
 10
758.7722883512456
 20
196.1318039253248
 30
0.0
 40
6.500000000000228
100
AcDbArc
 50
237.7957724960285
 51
302.204227503967
  0
ARC
  5
3BE0
330
1F
100
AcDbEntity
  8
0
100
AcDbCircle
 10
764.7932493501439
 20
191.8632586529005
 30
0.0
 40
3.768603565485
100
AcDbArc
 50
76.06995856459649
 51
132.7236798454837
  0
ARC
  5
3BE1
330
1F
100
AcDbEntity
  8
0
100
AcDbCircle
 10
752.7513273523473
 20
193.4003491977488
 30
0.0
 40
3.768603565485
100
AcDbArc
 50
256.0699585645965
 51
312.7236798454837
  0
ARC
  5
3BE2
330
1F
100
AcDbEntity
  8
0
100
AcDbCircle
 10
764.7932493501439
 20
193.4003491977488
 30
0.0
 40
3.768603565485
100
AcDbArc
 50
227.2763201545163
 51
283.9300414354034
  0
LINE
  5
3BE5
330
1F
100
AcDbEntity
  8
0
100
AcDbLine
 10
761.7722883512451
 20
197.6318039253247
 30
0.0
 11
761.7722883512453
 21
257.5241087707381
 31
0.0
  0
LINE
  5
3BE6
330
1F
100
AcDbEntity
  8
0
100
AcDbLine
 10
755.7722883512456
 20
197.6318039253247
 30
0.0
 11
755.7722883512454
 21
257.5241087707381
 31
0.0
  0
LINE
  5
3BE7
330
1F
100
AcDbEntity
  8
0
100
AcDbLine
 10
756.1742121398919
 20
409.4992477823743
 30
0.0
 11
771.8440851209698
 21
409.4992477823743
 31
0.0
  0
LINE
  5
3BE8
330
1F
100
AcDbEntity
  8
0
100
AcDbLine
 10
756.1742121398918
 20
418.4992477823743
 30
0.0
 11
771.8440851209698
 21
418.4992477823743
 31
0.0
  0
LINE
  5
3BE9
330
1F
100
AcDbEntity
  8
0
100
AcDbLine
 10
771.8440851209698
 20
409.4992477823743
 30
0.0
 11
771.8440851209698
 21
418.4992477823743
 31
0.0
  0
LWPOLYLINE
  5
3BEA
102
{ACAD_REACTORS
330
3C10
102
}
330
1F
100
AcDbEntity
  8
0
100
AcDbPolyline
 90
        7
 70
     0
 43
0.0
 10
763.1024153701673
 20
418.4992477823743
 10
762.236389966383
 20
419.9992477823744
 10
755.3081867361076
 20
419.9992477823744
 10
751.8440851209698
 20
413.9992477823743
 10
755.3081867361076
 20
407.9992477823743
 10
762.236389966383
 20
407.9992477823743
 10
763.1024153701673
 20
409.4992477823743
  0
ARC
  5
3BEB
330
1F
100
AcDbEntity
  8
0
100
AcDbCircle
 10
758.7722883512451
 20
413.9992477823743
 30
0.0
 40
6.0
100
AcDbArc
 50
48.59037789072921
 51
311.4096221092704
  0
LINE
  5
3BEC
330
1F
100
AcDbEntity
  8
AM_7
  6
AM_ISO08W050x2
100
AcDbLine
 10
758.7722883512453
 20
413.9992477823743
 30
0.0
 11
758.7722883512453
 21
422.9992477823743
 31
0.0
1001
GENIUS_GENOREF_13
1005
3BF2
  0
LINE
  5
3BED
330
1F
100
AcDbEntity
  8
AM_7
  6
AM_ISO08W050x2
100
AcDbLine
 10
758.7722883512453
 20
413.9992477823743
 30
0.0
 11
749.7722883512453
 21
413.9992477823743
 31
0.0
1001
GENIUS_GENOREF_13
1005
3BF2
  0
LINE
  5
3BEE
330
1F
100
AcDbEntity
  8
AM_7
  6
AM_ISO08W050x2
100
AcDbLine
 10
758.7722883512453
 20
413.9992477823743
 30
0.0
 11
758.7722883512453
 21
404.9992477823743
 31
0.0
1001
GENIUS_GENOREF_13
1005
3BF2
  0
LINE
  5
3BEF
330
1F
100
AcDbEntity
  8
AM_7
  6
AM_ISO08W050x2
100
AcDbLine
 10
758.7722883512453
 20
413.9992477823743
 30
0.0
 11
774.6248196112683
 21
413.9992477823743
 31
0.0
1001
GENIUS_GENOREF_13
1005
3BF2
  0
LINE
  5
3BF0
330
1F
100
AcDbEntity
  8
0
100
AcDbLine
 10
756.1742121398919
 20
418.4992477823743
 30
0.0
 11
753.5761359285386
 21
413.9992477823743
 31
0.0
  0
LINE
  5
3BF1
330
1F
100
AcDbEntity
  8
0
100
AcDbLine
 10
753.5761359285386
 20
413.9992477823743
 30
0.0
 11
756.1742121398919
 21
409.4992477823743
 31
0.0
  0
POINT
  5
3BF2
330
1F
100
AcDbEntity
  8
0
 60
     1
100
AcDbPoint
 10
203.7866228787111
 20
-661.301333519604
 30
0.0
1001
GENIUS_GENOLIS_13
1002
{
1000
ENT
1005
3BEF
1005
3BEE
1005
3BED
1005
3BEC
1002
}
1001
GENIUS_GENOENT_13
1002
{
1000
MYREF
1005
3BF2
1002
}
1002
{
1000
GRP
1005
0
1002
}
1001
GENIUS_GENODEF_13
1002
{
1000
HIER
1070
    10
1002
}
1002
{
1000
MANEDIT
1070
     0
1002
}
1002
{
1000
NOSEL
1070
     0
1002
}
1002
{
1000
BEHIND
1070
     0
1002
}
1002
{
1000
OTHER
1070
     0
1002
}
1002
{
1000
REACTOR
1002
}
1001
GENIUS_GENOBJ-N-CRS_13
1002
{
1000
OWNER
1000
GEN
1002
}
  0
DIMENSION
  5
3C02
102
{ACAD_XDICTIONARY
360
3C0F
102
}
102
{ACAD_REACTORS
330
3C10
102
}
330
1F
100
AcDbEntity
  8
AM_5
100
AcDbDimension
  2
*D5
 10
821.8440851209697
 20
353.9992477823744
 30
0.0
 11
786.8440851209697
 21
356.4992477823744
 31
0.0
 70
    32
 71
     5
 42
70.0
  3
AM_ISO$0
100
AcDbAlignedDimension
 13
751.8440851209698
 23
413.9992477823743
 33
0.0
 14
821.8440851209697
 24
361.2937683303196
 34
0.0
100
AcDbRotatedDimension
1001
ACAD
1000
DSTYLE
1002
{
1070
   272
1070
     8
1002
}
  0
DIMENSION
  5
3C26
330
1F
100
AcDbEntity
  8
AM_5
100
AcDbDimension
  2
*D6
 10
881.8440851209699
 20
395.9992477823744
 30
0.0
 11
881.8440851209699
 21
414.4615765494974
 31
0.0
 70
   160
 71
     5
 42
36.0
  3
AM_ISO$0
100
AcDbAlignedDimension
 13
834.9231714804982
 23
431.9992477823744
 33
0.0
 14
834.9231714804977
 24
395.9992477823744
 34
0.0
 50
90.0
100
AcDbRotatedDimension
1001
ACAD
1000
DSTYLE
1002
{
1070
    40
1040
1.0
1070
   144
1040
1.0
1070
   272
1070
     8
1002
}
  0
DIMENSION
  5
3C27
330
1F
100
AcDbEntity
  8
AM_5
100
AcDbDimension
  2
*D7
 10
889.8440851209697
 20
376.9992477823743
 30
0.0
 11
887.3440851209696
 21
413.9992477823743
 31
0.0
 70
    32
 71
     5
 42
74.0
  3
AM_ISO$0
100
AcDbAlignedDimension
 13
871.8440851209697
 23
450.9992477823742
 33
0.0
 14
872.0940851209698
 24
376.9992477823743
 34
0.0
 50
90.0
100
AcDbRotatedDimension
1001
ACAD
1000
DSTYLE
1002
{
1070
    40
1040
1.0
1070
   144
1040
1.0
1070
   272
1070
     8
1002
}
  0
DIMENSION
  5
3C28
330
1F
100
AcDbEntity
  8
AM_5
100
AcDbDimension
  2
*D8
 10
897.8440851209697
 20
363.9992477823743
 30
0.0
 11
895.3440851209697
 21
413.9992477823744
 31
0.0
 70
    32
  1
{\Famgdt;o}<>
 71
     5
 42
99.99999999999989
  3
AM_ISO$0
100
AcDbAlignedDimension
 13
863.8440851209697
 23
463.9992477823742
 33
0.0
 14
863.8440851209697
 24
363.9992477823744
 34
0.0
 50
90.0
100
AcDbRotatedDimension
1001
ACAD
1000
DSTYLE
1002
{
1070
    40
1040
1.0
1070
   144
1040
1.0
1070
   272
1070
     8
1002
}
  0
TEXT
  5
3C29
330
1F
100
AcDbEntity
  8
AM_5
100
AcDbText
 10
879.5569828031842
 20
354.5922981395482
 30
0.0
 40
3.0
  1
4-M12x1.75
100
AcDbText
  0
INSERT
  5
3C2A
330
1F
100
AcDbEntity
  8
AM_5
100
AcDbBlockReference
  2
*S20
 10
0.0
 20
0.0
 30
0.0
  0
DIMENSION
  5
3CA2
330
1F
100
AcDbEntity
  8
AM_5
100
AcDbDimension
  2
*D9
 10
881.6668921388838
 20
178.5779563480313
 30
0.0
 11
879.1668921388838
 21
170.0779563480315
 31
0.0
 70
    32
 71
     5
 42
16.99999999999991
  3
AM_ISO$0
100
AcDbAlignedDimension
 13
871.8440851209697
 23
161.5779563480314
 33
0.0
 14
835.6940851209696
 24
178.5779563480313
 34
0.0
 50
90.0
100
AcDbRotatedDimension
1001
ACAD
1000
DSTYLE
1002
{
1070
    40
1040
1.0
1070
   144
1040
1.0
1070
   272
1070
     8
1002
}
  0
DIMENSION
  5
3CA3
330
1F
100
AcDbEntity
  8
AM_5
100
AcDbDimension
  2
*D10
 10
889.6668921388839
 20
195.5779563480314
 30
0.0
 11
887.1668921388838
 21
178.5779563480315
 31
0.0
 70
    32
 71
     5
 42
34.0
  3
AM_ISO$0
100
AcDbAlignedDimension
 13
871.8440851209697
 23
161.5779563480314
 33
0.0
 14
871.8440851209697
 24
195.5779563480314
 34
0.0
 50
90.0
100
AcDbRotatedDimension
1001
ACAD
1000
DSTYLE
1002
{
1070
    40
1040
1.0
1070
   144
1040
1.0
1070
   272
1070
     8
1002
}
  0
DIMENSION
  5
3CA4
330
1F
100
AcDbEntity
  8
AM_5
100
AcDbDimension
  2
*D11
 10
881.6668921388838
 20
161.5779563480314
 30
0.0
 11
881.6668921388838
 21
149.8279563480315
 31
0.0
 70
   160
 71
     5
 42
4.0
  3
AM_ISO$0
100
AcDbAlignedDimension
 13
843.8440851209698
 23
157.5779563480314
 33
0.0
 14
871.8440851209697
 24
161.5779563480314
 34
0.0
 50
90.0
100
AcDbRotatedDimension
1001
ACAD
1000
DSTYLE
1002
{
1070
    40
1040
1.0
1070
   144
1040
1.0
1070
   272
1070
     8
1002
}
  0
DIMENSION
  5
3CA5
330
1F
100
AcDbEntity
  8
AM_5
100
AcDbDimension
  2
*D12
 10
905.6668921388844
 20
320.5779563480316
 30
0.0
 11
902.7375266088228
 21
239.0779563480316
 31
0.0
 70
    32
  1
113+length
 71
     5
 42
163.0000000000002
  3
AM_ISO$0
100
AcDbAlignedDimension
 13
843.8440851209698
 23
157.5779563480314
 33
0.0
 14
842.5940851209698
 24
320.5779563480316
 34
0.0
 50
90.0
100
AcDbRotatedDimension
1001
ACAD
1000
DSTYLE
1002
{
1070
    40
1040
1.0
1070
   144
1040
1.0
1070
   272
1070
     8
1002
}
  0
DIMENSION
  5
3CA6
330
1F
100
AcDbEntity
  8
AM_5
100
AcDbDimension
  2
*D13
 10
889.6668921388837
 20
308.5779563480314
 30
0.0
 11
887.1668921388835
 21
301.0779563480316
 31
0.0
 70
    32
 71
     5
 42
15.0
  3
AM_ISO$0
100
AcDbAlignedDimension
 13
871.8440851209697
 23
293.5779563480314
 33
0.0
 14
843.5940851209695
 24
308.5779563480314
 34
0.0
 50
90.0
100
AcDbRotatedDimension
1001
ACAD
1000
DSTYLE
1002
{
1070
    40
1040
1.0
1070
   144
1040
1.0
1070
   272
1070
     8
1002
}
  0
DIMENSION
  5
3CA7
330
1F
100
AcDbEntity
  8
AM_5
100
AcDbDimension
  2
*D14
 10
897.6668921388839
 20
320.5779563480316
 30
0.0
 11
895.1665968632932
 21
307.0779563480316
 31
0.0
 70
    32
 71
     5
 42
27.00000000000023
  3
AM_ISO$0
100
AcDbAlignedDimension
 13
871.8440851209697
 23
293.5779563480314
 33
0.0
 14
842.5940851209698
 24
320.5779563480316
 34
0.0
 50
90.0
100
AcDbRotatedDimension
1001
ACAD
1000
DSTYLE
1002
{
1070
    40
1040
1.0
1070
   144
1040
1.0
1070
   272
1070
     8
1002
}
  0
DIMENSION
  5
3CA8
330
1F
100
AcDbEntity
  8
AM_5
100
AcDbDimension
  2
*D15
 10
897.6668921388839
 20
293.5779563480314
 30
0.0
 11
894.7372313332317
 21
227.5779563480315
 31
0.0
 70
    32
  1
82+length
 71
     5
 42
132.0
  3
AM_ISO$0
100
AcDbAlignedDimension
 13
871.8440851209697
 23
161.5779563480314
 33
0.0
 14
871.8440851209697
 24
293.5779563480314
 34
0.0
 50
90.0
100
AcDbRotatedDimension
1001
ACAD
1000
DSTYLE
1002
{
1070
    40
1040
1.0
1070
   144
1040
1.0
1070
   272
1070
     8
1002
}
  0
DIMENSION
  5
3CA9
330
1F
100
AcDbEntity
  8
AM_5
100
AcDbDimension
  2
*D16
 10
889.6668921388837
 20
293.5779563480314
 30
0.0
 11
887.1668921388835
 21
276.5779563480315
 31
0.0
 70
    32
 71
     5
 42
34.0
  3
AM_ISO$0
100
AcDbAlignedDimension
 13
871.8440851209697
 23
259.5779563480314
 33
0.0
 14
871.8440851209697
 24
293.5779563480314
 34
0.0
 50
90.0
100
AcDbRotatedDimension
1001
ACAD
1000
DSTYLE
1002
{
1070
    40
1040
1.0
1070
   144
1040
1.0
1070
   272
1070
     8
1002
}
  0
DIMENSION
  5
3CAA
330
1F
100
AcDbEntity
  8
AM_5
100
AcDbDimension
  2
*D17
 10
881.6668921388837
 20
276.5779563480313
 30
0.0
 11
879.1668921388835
 21
285.0779563480315
 31
0.0
 70
    32
 71
     5
 42
17.00000000000011
  3
AM_ISO$0
100
AcDbAlignedDimension
 13
871.8440851209697
 23
293.5779563480314
 33
0.0
 14
835.5440851209698
 24
276.5779563480313
 34
0.0
 50
90.0
100
AcDbRotatedDimension
1001
ACAD
1000
DSTYLE
1002
{
1070
    40
1040
1.0
1070
   144
1040
1.0
1070
   272
1070
     8
1002
}
  0
DIMENSION
  5
3EB7
330
1F
100
AcDbEntity
  8
AM_5
100
AcDbDimension
  2
*D18
 10
844.3440851209697
 20
147.5779563480315
 30
0.0
 11
821.8440851209697
 21
150.0779563480315
 31
0.0
 70
    32
  1
%%c<>
 71
     5
 42
45.0
  3
AM_ISO$0
100
AcDbAlignedDimension
 13
799.3440851209697
 23
158.0779563480314
 33
0.0
 14
844.3440851209697
 24
158.0779563480314
 34
0.0
100
AcDbRotatedDimension
1001
ACAD
1000
DSTYLE
1002
{
1070
    40
1040
1.0
1070
   144
1040
1.0
1070
   272
1070
     8
1002
}
  0
INSERT
  5
3EB8
330
1F
100
AcDbEntity
  8
AM_5
100
AcDbBlockReference
  2
*S21
 10
0.0
 20
0.0
 30
0.0
  0
TEXT
  5
3EB9
330
1F
100
AcDbEntity
  8
AM_5
100
AcDbText
 10
775.7141369088372
 20
150.742635772461
 30
0.0
 40
3.0
  1
2-PT1/2
100
AcDbText
  0
LINE
  5
409D
330
1F
100
AcDbEntity
  8
CENTER
  6
CENTER
100
AcDbLine
 10
1299.805701226401
 20
404.6355052273216
 30
0.0
 11
1301.805701226401
 21
404.6355052273216
 31
0.0
  0
CIRCLE
  5
409E
330
1F
100
AcDbEntity
  8
0
 62
     7
100
AcDbCircle
 10
1300.805701226402
 20
404.6355052273216
 30
0.0
 40
7.0
  0
LINE
  5
409F
330
1F
100
AcDbEntity
  8
0
 62
     7
100
AcDbLine
 10
1274.113465290446
 20
421.6355052273216
 30
0.0
 11
1310.805702608921
 21
421.6355052273216
 31
0.0
  0
LINE
  5
40A0
330
1F
100
AcDbEntity
  8
0
 62
     7
100
AcDbLine
 10
1274.113465290446
 20
421.6355052273216
 30
0.0
 11
1310.805701226401
 21
421.6355052273216
 31
0.0
  0
LINE
  5
40A1
330
1F
100
AcDbEntity
  8
0
 62
     7
100
AcDbLine
 10
1274.113465290446
 20
421.6355052273216
 30
0.0
 11
1310.805701226401
 21
421.6355052273216
 31
0.0
  0
LINE
  5
40A2
330
1F
100
AcDbEntity
  8
0
 62
     7
100
AcDbLine
 10
1213.805701226402
 20
382.6355052273216
 30
0.0
 11
1313.805701226401
 21
382.6355052273216
 31
0.0
  0
LINE
  5
40A3
330
1F
100
AcDbEntity
  8
0
 62
     7
100
AcDbLine
 10
1213.805701226402
 20
376.6355052273216
 30
0.0
 11
1313.805701226401
 21
376.6355052273216
 31
0.0
  0
LINE
  5
40A4
330
1F
100
AcDbEntity
  8
CENTER
  6
CENTER
100
AcDbLine
 10
1263.805701226402
 20
429.8441172780333
 30
0.0
 11
1263.805701226402
 21
373.1115276872959
 31
0.0
  0
ARC
  5
40A5
330
1F
100
AcDbEntity
  8
0
 62
     7
100
AcDbCircle
 10
1216.805701226402
 20
418.6355052273215
 30
0.0
 40
3.0
100
AcDbArc
 50
90.0
 51
180.0
  0
LINE
  5
40A6
330
1F
100
AcDbEntity
  8
0
 62
     7
100
AcDbLine
 10
1213.805701226402
 20
418.6355052273215
 30
0.0
 11
1213.805701226402
 21
376.6355052273216
 31
0.0
  0
LINE
  5
40A7
330
1F
100
AcDbEntity
  8
0
 62
     7
100
AcDbLine
 10
1253.805701226402
 20
382.6355052273216
 30
0.0
 11
1262.642284132887
 21
388.9550686249174
 31
0.0
  0
ARC
  5
40A8
330
1F
100
AcDbEntity
  8
0
 62
     7
100
AcDbCircle
 10
1263.805701226402
 20
441.6355052273216
 30
0.0
 40
22.5
100
AcDbArc
 50
242.7339555492736
 51
297.2660444507265
  0
LINE
  5
40A9
330
1F
100
AcDbEntity
  8
HIDDEN
  6
HIDDEN
100
AcDbLine
 10
1218.805701226401
 20
382.6355052273216
 30
0.0
 11
1218.805701226401
 21
376.6355052273216
 31
0.0
  0
LINE
  5
40AA
330
1F
100
AcDbEntity
  8
CENTER
  6
CENTER
100
AcDbLine
 10
1225.805701226401
 20
387.8562506707682
 30
0.0
 11
1225.805701226401
 21
373.1115276872959
 31
0.0
  0
LINE
  5
40AB
330
1F
100
AcDbEntity
  8
HIDDEN
  6
HIDDEN
100
AcDbLine
 10
1232.805701226402
 20
382.6355052273216
 30
0.0
 11
1232.805701226402
 21
376.6355052273216
 31
0.0
  0
LINE
  5
40AC
330
1F
100
AcDbEntity
  8
0
 62
     7
100
AcDbLine
 10
1216.805701226402
 20
421.6355052273216
 30
0.0
 11
1253.497937162358
 21
421.6355052273216
 31
0.0
  0
LINE
  5
40AD
330
1F
100
AcDbEntity
  8
0
 62
     7
100
AcDbLine
 10
1216.805701576499
 20
421.6355052273216
 30
0.0
 11
1253.497937162358
 21
421.6355052273216
 31
0.0
  0
LINE
  5
40AE
330
1F
100
AcDbEntity
  8
0
 62
     7
100
AcDbLine
 10
1216.805702619799
 20
421.6355052273216
 30
0.0
 11
1253.497937162357
 21
421.6355052273216
 31
0.0
  0
LINE
  5
40AF
330
1F
100
AcDbEntity
  8
CENTER
  6
CENTER
100
AcDbLine
 10
1226.805701226401
 20
406.6355052273215
 30
0.0
 11
1226.805701226401
 21
412.6355052273216
 31
0.0
  0
CIRCLE
  5
40B0
330
1F
100
AcDbEntity
  8
0
 62
     7
100
AcDbCircle
 10
1226.805701226401
 20
404.6355052273216
 30
0.0
 40
7.0
  0
LINE
  5
40B1
330
1F
100
AcDbEntity
  8
CENTER
  6
CENTER
100
AcDbLine
 10
1224.805701226401
 20
404.6355052273216
 30
0.0
 11
1218.805701226401
 21
404.6355052273216
 31
0.0
  0
LINE
  5
40B2
330
1F
100
AcDbEntity
  8
CENTER
  6
CENTER
100
AcDbLine
 10
1226.805701226401
 20
402.6355052273215
 30
0.0
 11
1226.805701226401
 21
396.6355052273216
 31
0.0
  0
LINE
  5
40B3
330
1F
100
AcDbEntity
  8
CENTER
  6
CENTER
100
AcDbLine
 10
1228.805701226401
 20
404.6355052273216
 30
0.0
 11
1234.805701226401
 21
404.6355052273216
 31
0.0
  0
LINE
  5
40B4
330
1F
100
AcDbEntity
  8
CENTER
  6
CENTER
100
AcDbLine
 10
1226.805701226401
 20
403.6355052273215
 30
0.0
 11
1226.805701226401
 21
405.6355052273215
 31
0.0
  0
LINE
  5
40B5
330
1F
100
AcDbEntity
  8
CENTER
  6
CENTER
100
AcDbLine
 10
1225.805701226401
 20
404.6355052273216
 30
0.0
 11
1227.805701226401
 21
404.6355052273216
 31
0.0
  0
ARC
  5
40B6
330
1F
100
AcDbEntity
  8
0
 62
     7
100
AcDbCircle
 10
1263.805701226402
 20
387.3282740261683
 30
0.0
 40
2.000000000000014
100
AcDbArc
 50
54.42919734345863
 51
125.5708026565413
  0
LINE
  5
40B7
330
1F
100
AcDbEntity
  8
0
 62
     7
100
AcDbLine
 10
1264.969118319916
 20
388.9550686249174
 30
0.0
 11
1273.805701226401
 21
382.6355052273216
 31
0.0
  0
LINE
  5
40B8
330
1F
100
AcDbEntity
  8
HIDDEN
  6
HIDDEN
100
AcDbLine
 10
1294.805701226402
 20
382.6355052273216
 30
0.0
 11
1294.805701226402
 21
376.6355052273216
 31
0.0
  0
LINE
  5
40B9
330
1F
100
AcDbEntity
  8
CENTER
  6
CENTER
100
AcDbLine
 10
1300.805701226402
 20
406.6355052273215
 30
0.0
 11
1300.805701226402
 21
412.6355052273216
 31
0.0
  0
LINE
  5
40BA
330
1F
100
AcDbEntity
  8
CENTER
  6
CENTER
100
AcDbLine
 10
1300.805701226402
 20
402.6355052273215
 30
0.0
 11
1300.805701226402
 21
396.6355052273216
 31
0.0
  0
LINE
  5
40BB
330
1F
100
AcDbEntity
  8
CENTER
  6
CENTER
100
AcDbLine
 10
1298.805701226402
 20
404.6355052273216
 30
0.0
 11
1292.805701226402
 21
404.6355052273216
 31
0.0
  0
LINE
  5
40BC
330
1F
100
AcDbEntity
  8
CENTER
  6
CENTER
100
AcDbLine
 10
1300.805701226402
 20
403.6355052273215
 30
0.0
 11
1300.805701226402
 21
405.6355052273215
 31
0.0
  0
LINE
  5
40BE
330
1F
100
AcDbEntity
  8
0
 62
     7
100
AcDbLine
 10
1191.942192647881
 20
377.3282740261683
 30
0.0
 11
1137.942192647882
 21
377.3282740261683
 31
0.0
  0
LINE
  5
40BF
330
1F
100
AcDbEntity
  8
0
 62
     7
100
AcDbLine
 10
1191.942192647881
 20
383.3282740261683
 30
0.0
 11
1143.942192647881
 21
383.3282740261683
 31
0.0
  0
LINE
  5
40C0
330
1F
100
AcDbEntity
  8
CENTER
  6
CENTER
100
AcDbLine
 10
1146.480654186343
 20
405.3282740261683
 30
0.0
 11
1122.942192647881
 21
405.3282740261683
 31
0.0
  0
ARC
  5
40C1
330
1F
100
AcDbEntity
  8
0
 62
     7
100
AcDbCircle
 10
1143.942192647881
 20
389.3282740261683
 30
0.0
 40
6.0
100
AcDbArc
 50
180.0
 51
270.0
  0
LINE
  5
40C2
330
1F
100
AcDbEntity
  8
0
 62
     7
100
AcDbLine
 10
1131.942192647882
 20
422.3282740261683
 30
0.0
 11
1131.942192647882
 21
383.3282740261683
 31
0.0
  0
LINE
  5
40C3
330
1F
100
AcDbEntity
  8
CENTER
  6
CENTER
100
AcDbLine
 10
1301.805701226401
 20
389.240291056463
 30
0.0
 11
1301.805701226401
 21
373.1115276872959
 31
0.0
  0
LINE
  5
40C4
330
1F
100
AcDbEntity
  8
0
 62
     7
100
AcDbLine
 10
1313.805701226401
 20
418.6355052273216
 30
0.0
 11
1313.805701226401
 21
376.6355052273216
 31
0.0
  0
LINE
  5
40C5
330
1F
100
AcDbEntity
  8
HIDDEN
  6
HIDDEN
100
AcDbLine
 10
1308.805701226402
 20
382.6355052273216
 30
0.0
 11
1308.805701226402
 21
376.6355052273216
 31
0.0
  0
ARC
  5
40C6
330
1F
100
AcDbEntity
  8
0
 62
     7
100
AcDbCircle
 10
1137.942192647882
 20
383.3282740261683
 30
0.0
 40
6.0
100
AcDbArc
 50
180.0
 51
270.0
  0
LINE
  5
40C7
330
1F
100
AcDbEntity
  8
HIDDEN
  6
HIDDEN
100
AcDbLine
 10
1141.570216835546
 20
377.3282740261683
 30
0.0
 11
1131.942192647882
 21
386.9562982138327
 31
0.0
  0
LINE
  5
40C8
330
1F
100
AcDbEntity
  8
CENTER
  6
CENTER
100
AcDbLine
 10
1302.805701226401
 20
404.6355052273216
 30
0.0
 11
1308.805701226402
 21
404.6355052273216
 31
0.0
  0
ARC
  5
40C9
330
1F
100
AcDbEntity
  8
0
 62
     7
100
AcDbCircle
 10
1310.805701226401
 20
418.6355052273216
 30
0.0
 40
3.0
100
AcDbArc
 50
0.0
 51
90.0
  0
LINE
  5
40CA
330
1F
100
AcDbEntity
  8
0
 62
     7
100
AcDbLine
 10
1137.942192647882
 20
422.3282740261683
 30
0.0
 11
1137.942192647882
 21
389.3282740261683
 31
0.0
  0
LINE
  5
40CB
330
1F
100
AcDbEntity
  8
HIDDEN
  6
HIDDEN
100
AcDbLine
 10
1137.942192647882
 20
398.3282740261686
 30
0.0
 11
1131.942192647882
 21
398.3282740261686
 31
0.0
  0
LINE
  5
40CC
330
1F
100
AcDbEntity
  8
0
 62
     7
100
AcDbLine
 10
1137.942192647882
 20
422.3282740261683
 30
0.0
 11
1131.942192647882
 21
422.3282740261683
 31
0.0
  0
LINE
  5
40CD
330
1F
100
AcDbEntity
  8
0
 62
     7
100
AcDbLine
 10
1137.942192647882
 20
422.3282740261683
 30
0.0
 11
1131.942192647882
 21
422.3282740261683
 31
0.0
  0
LINE
  5
40CE
330
1F
100
AcDbEntity
  8
0
 62
     7
100
AcDbLine
 10
1137.942192647882
 20
422.3282740261683
 30
0.0
 11
1131.942192647882
 21
422.3282740261683
 31
0.0
  0
LINE
  5
40CF
330
1F
100
AcDbEntity
  8
HIDDEN
  6
HIDDEN
100
AcDbLine
 10
1137.942192647882
 20
412.3282740261677
 30
0.0
 11
1131.942192647882
 21
412.3282740261677
 31
0.0
  0
LINE
  5
40D0
330
1F
100
AcDbEntity
  8
HIDDEN
  6
HIDDEN
100
AcDbLine
 10
1168.942192647882
 20
377.3282740261683
 30
0.0
 11
1168.942192647882
 21
383.3282740261683
 31
0.0
  0
LINE
  5
40D1
330
1F
100
AcDbEntity
  8
CENTER
  6
CENTER
100
AcDbLine
 10
1175.942192647881
 20
388.1584089815259
 30
0.0
 11
1175.942192647881
 21
371.0759825781804
 31
0.0
  0
LINE
  5
40D2
330
1F
100
AcDbEntity
  8
HIDDEN
  6
HIDDEN
100
AcDbLine
 10
1183.172961878651
 20
383.3282740261683
 30
0.0
 11
1183.172961878651
 21
377.3282740261683
 31
0.0
  0
LINE
  5
40D3
330
1F
100
AcDbEntity
  8
0
 62
     7
100
AcDbLine
 10
1191.942192647881
 20
383.3282740261683
 30
0.0
 11
1191.942192647881
 21
377.3282740261683
 31
0.0
  0
LINE
  5
40D4
330
1F
100
AcDbEntity
  8
0
100
AcDbLine
 10
1213.805701226402
 20
443.6339610239355
 30
0.0
 11
1213.805701226402
 21
500.6339610239357
 31
0.0
  0
LINE
  5
40D5
330
1F
100
AcDbEntity
  8
0
100
AcDbLine
 10
1313.805701226402
 20
443.6339610239357
 30
0.0
 11
1313.805701226402
 21
500.6339610239357
 31
0.0
  0
LINE
  5
40D6
330
1F
100
AcDbEntity
  8
CENTER
  6
CENTER
100
AcDbLine
 10
1263.805701226402
 20
505.2161125640274
 30
0.0
 11
1263.805701226402
 21
435.9864475947301
 31
0.0
  0
LINE
  5
40D7
330
1F
100
AcDbEntity
  8
0
100
AcDbLine
 10
1213.805701226402
 20
500.6339610239357
 30
0.0
 11
1313.805701226402
 21
500.633961023936
 31
0.0
  0
LINE
  5
40D8
330
1F
100
AcDbEntity
  8
0
100
AcDbLine
 10
1213.805701226402
 20
494.6339610239357
 30
0.0
 11
1313.805701226402
 21
494.6339610239359
 31
0.0
  0
LINE
  5
40D9
330
1F
100
AcDbEntity
  8
CENTER
  6
CENTER
100
AcDbLine
 10
1227.805701226402
 20
456.6339610239357
 30
0.0
 11
1233.805701226402
 21
456.6339610239357
 31
0.0
  0
CIRCLE
  5
40DA
330
1F
100
AcDbEntity
  8
0
100
AcDbCircle
 10
1225.805701226402
 20
456.6339610239357
 30
0.0
 40
7.0
  0
LINE
  5
40DB
330
1F
100
AcDbEntity
  8
CENTER
  6
CENTER
100
AcDbLine
 10
1225.805701226402
 20
455.6339610239357
 30
0.0
 11
1225.805701226402
 21
457.6339610239357
 31
0.0
  0
LINE
  5
40DC
330
1F
100
AcDbEntity
  8
CENTER
  6
CENTER
100
AcDbLine
 10
1224.805701226402
 20
456.6339610239357
 30
0.0
 11
1226.805701226402
 21
456.6339610239357
 31
0.0
  0
LINE
  5
40DD
330
1F
100
AcDbEntity
  8
CENTER
  6
CENTER
100
AcDbLine
 10
1225.805701226402
 20
458.6339610239357
 30
0.0
 11
1225.805701226402
 21
464.6339610239357
 31
0.0
  0
LINE
  5
40DE
330
1F
100
AcDbEntity
  8
CENTER
  6
CENTER
100
AcDbLine
 10
1223.805701226402
 20
456.6339610239357
 30
0.0
 11
1217.805701226402
 21
456.6339610239357
 31
0.0
  0
LINE
  5
40DF
330
1F
100
AcDbEntity
  8
CENTER
  6
CENTER
100
AcDbLine
 10
1225.805701226402
 20
454.6339610239357
 30
0.0
 11
1225.805701226402
 21
448.6339610239357
 31
0.0
  0
LINE
  5
40E0
330
1F
100
AcDbEntity
  8
0
100
AcDbLine
 10
1253.495701226402
 20
500.633961023936
 30
0.0
 11
1253.495701226402
 21
494.6339610239359
 31
0.0
  0
LINE
  5
40E1
330
1F
100
AcDbEntity
  8
0
100
AcDbLine
 10
1274.115701226402
 20
500.633961023936
 30
0.0
 11
1274.115701226402
 21
494.6339610239359
 31
0.0
  0
LINE
  5
40E2
330
1F
100
AcDbEntity
  8
CENTER
  6
CENTER
100
AcDbLine
 10
1303.805701226402
 20
456.6339610239357
 30
0.0
 11
1309.805701226402
 21
456.6339610239357
 31
0.0
  0
CIRCLE
  5
40E3
330
1F
100
AcDbEntity
  8
0
100
AcDbCircle
 10
1301.805701226402
 20
456.6339610239357
 30
0.0
 40
7.0
  0
LINE
  5
40E4
330
1F
100
AcDbEntity
  8
CENTER
  6
CENTER
100
AcDbLine
 10
1301.805701226402
 20
455.6339610239357
 30
0.0
 11
1301.805701226402
 21
457.6339610239357
 31
0.0
  0
LINE
  5
40E5
330
1F
100
AcDbEntity
  8
CENTER
  6
CENTER
100
AcDbLine
 10
1300.805701226402
 20
456.6339610239357
 30
0.0
 11
1302.805701226402
 21
456.6339610239357
 31
0.0
  0
LINE
  5
40E6
330
1F
100
AcDbEntity
  8
CENTER
  6
CENTER
100
AcDbLine
 10
1301.805701226402
 20
458.6339610239357
 30
0.0
 11
1301.805701226402
 21
464.6339610239357
 31
0.0
  0
LINE
  5
40E7
330
1F
100
AcDbEntity
  8
CENTER
  6
CENTER
100
AcDbLine
 10
1299.805701226402
 20
456.6339610239357
 30
0.0
 11
1293.805701226402
 21
456.6339610239357
 31
0.0
  0
LINE
  5
40E8
330
1F
100
AcDbEntity
  8
CENTER
  6
CENTER
100
AcDbLine
 10
1301.805701226402
 20
454.6339610239357
 30
0.0
 11
1301.805701226402
 21
448.6339610239357
 31
0.0
  0
LINE
  5
40E9
330
1F
100
AcDbEntity
  8
0
100
AcDbLine
 10
1216.805701226402
 20
440.6339610239355
 30
0.0
 11
1310.805701226402
 21
440.6339610239357
 31
0.0
  0
ARC
  5
40EA
330
1F
100
AcDbEntity
  8
0
100
AcDbCircle
 10
1216.805701226402
 20
443.6339610239355
 30
0.0
 40
3.0
100
AcDbArc
 50
180.0
 51
270.0
  0
ARC
  5
40EB
330
1F
100
AcDbEntity
  8
0
100
AcDbCircle
 10
1310.805701226402
 20
443.6339610239357
 30
0.0
 40
3.0
100
AcDbArc
 50
270.0
 51
0.0
  0
CIRCLE
  5
414F
330
1F
100
AcDbEntity
  8
0
100
AcDbCircle
 10
1286.033356658047
 20
230.8208833515652
 30
0.0
 40
7.0
  0
LINE
  5
4150
330
1F
100
AcDbEntity
  8
CENTER
  6
CENTER
100
AcDbLine
 10
1286.033356658047
 20
217.3208833515651
 30
0.0
 11
1286.033356658047
 21
244.3208833515653
 31
0.0
  0
CIRCLE
  5
4151
330
1F
100
AcDbEntity
  8
0
100
AcDbCircle
 10
1286.033356658047
 20
230.8208833515652
 30
0.0
 40
11.5
  0
LINE
  5
4152
330
1F
100
AcDbEntity
  8
CENTER
  6
CENTER
100
AcDbLine
 10
1212.033356658047
 20
217.3208833515651
 30
0.0
 11
1212.033356658047
 21
244.3208833515653
 31
0.0
  0
CIRCLE
  5
4153
330
1F
100
AcDbEntity
  8
0
100
AcDbCircle
 10
1212.033356658047
 20
230.8208833515652
 30
0.0
 40
7.0
  0
CIRCLE
  5
4154
330
1F
100
AcDbEntity
  8
0
100
AcDbCircle
 10
1286.033356658047
 20
230.8208833515652
 30
0.0
 40
7.0
  0
CIRCLE
  5
4155
330
1F
100
AcDbEntity
  8
0
100
AcDbCircle
 10
1212.033356658047
 20
230.8208833515652
 30
0.0
 40
11.5
  0
CIRCLE
  5
4156
330
1F
100
AcDbEntity
  8
0
100
AcDbCircle
 10
1184.033356658047
 20
231.8208833515652
 30
0.0
 40
7.0
  0
CIRCLE
  5
4157
330
1F
100
AcDbEntity
  8
0
100
AcDbCircle
 10
1314.033356658047
 20
231.8208833515652
 30
0.0
 40
7.0
  0
LINE
  5
4158
330
1F
100
AcDbEntity
  8
0
100
AcDbLine
 10
1125.338321726799
 20
247.8208833515652
 30
0.0
 11
1125.338321726799
 21
139.8208833515652
 31
0.0
  0
LINE
  5
4159
330
1F
100
AcDbEntity
  8
0
100
AcDbLine
 10
1143.338321726799
 20
247.8208833515652
 30
0.0
 11
1143.338321726799
 21
139.8208833515652
 31
0.0
  0
LINE
  5
415A
330
1F
100
AcDbEntity
  8
0
100
AcDbLine
 10
1169.033356658047
 20
247.3208833515652
 30
0.0
 11
1169.033356658047
 21
140.3208833515652
 31
0.0
  0
LINE
  5
415B
330
1F
100
AcDbEntity
  8
0
100
AcDbLine
 10
1329.033356658047
 20
247.3208833515652
 30
0.0
 11
1329.033356658047
 21
140.3208833515652
 31
0.0
  0
LINE
  5
415C
330
1F
100
AcDbEntity
  8
CENTER
  6
CENTER
100
AcDbLine
 10
1249.033356658047
 20
249.8208833515652
 30
0.0
 11
1249.033356658047
 21
137.8208833515652
 31
0.0
  0
CIRCLE
  5
415D
330
1F
100
AcDbEntity
  8
0
100
AcDbCircle
 10
1249.033356658047
 20
193.8208833515652
 30
0.0
 40
22.5
  0
LINE
  5
415E
330
1F
100
AcDbEntity
  8
CENTER
  6
CENTER
100
AcDbLine
 10
1167.033356658047
 20
193.8208833515652
 30
0.0
 11
1331.033356658047
 21
193.8208833515652
 31
0.0
  0
LINE
  5
415F
330
1F
100
AcDbEntity
  8
0
100
AcDbLine
 10
1169.533356658047
 20
139.8208833515652
 30
0.0
 11
1328.533356658047
 21
139.8208833515652
 31
0.0
  0
LINE
  5
4160
330
1F
100
AcDbEntity
  8
HIDDEN
  6
HIDDEN
100
AcDbLine
 10
1125.338321726799
 20
148.8208833515652
 30
0.0
 11
1143.338321726799
 21
148.8208833515652
 31
0.0
  0
LINE
  5
4161
330
1F
100
AcDbEntity
  8
CENTER
  6
CENTER
100
AcDbLine
 10
1123.338321726799
 20
155.8208833515652
 30
0.0
 11
1145.338321726799
 21
155.8208833515652
 31
0.0
  0
LINE
  5
4162
330
1F
100
AcDbEntity
  8
0
100
AcDbLine
 10
1125.338321726799
 20
139.8208833515652
 30
0.0
 11
1143.338321726799
 21
139.8208833515652
 31
0.0
  0
LINE
  5
4163
330
1F
100
AcDbEntity
  8
HIDDEN
  6
HIDDEN
100
AcDbLine
 10
1125.338321726799
 20
162.8208833515652
 30
0.0
 11
1143.338321726799
 21
162.8208833515652
 31
0.0
  0
LINE
  5
4164
330
1F
100
AcDbEntity
  8
HIDDEN
  6
HIDDEN
100
AcDbLine
 10
1125.338321726799
 20
224.8208833515652
 30
0.0
 11
1143.338321726799
 21
224.8208833515653
 31
0.0
  0
LINE
  5
4165
330
1F
100
AcDbEntity
  8
CENTER
  6
CENTER
100
AcDbLine
 10
1123.338321726799
 20
231.8208833515652
 30
0.0
 11
1145.338321726799
 21
231.8208833515652
 31
0.0
  0
LINE
  5
4166
330
1F
100
AcDbEntity
  8
HIDDEN
  6
HIDDEN
100
AcDbLine
 10
1125.338321726799
 20
171.3208833515652
 30
0.0
 11
1143.338321726799
 21
171.3208833515652
 31
0.0
  0
LINE
  5
4167
330
1F
100
AcDbEntity
  8
HIDDEN
  6
HIDDEN
100
AcDbLine
 10
1125.338321726799
 20
216.3208833515652
 30
0.0
 11
1143.338321726799
 21
216.3208833515652
 31
0.0
  0
LINE
  5
4168
330
1F
100
AcDbEntity
  8
CENTER
  6
CENTER
100
AcDbLine
 10
1123.338321726799
 20
193.8208833515652
 30
0.0
 11
1145.338321726799
 21
193.8208833515652
 31
0.0
  0
CIRCLE
  5
416C
330
1F
100
AcDbEntity
  8
0
100
AcDbCircle
 10
1212.033356658047
 20
156.8208833515652
 30
0.0
 40
7.0
  0
LINE
  5
416D
330
1F
100
AcDbEntity
  8
CENTER
  6
CENTER
100
AcDbLine
 10
1212.033356658047
 20
170.3208833515653
 30
0.0
 11
1212.033356658047
 21
143.3208833515651
 31
0.0
  0
CIRCLE
  5
416E
330
1F
100
AcDbEntity
  8
0
100
AcDbCircle
 10
1212.033356658047
 20
156.8208833515652
 30
0.0
 40
11.5
  0
LINE
  5
416F
330
1F
100
AcDbEntity
  8
CENTER
  6
CENTER
100
AcDbLine
 10
1184.033356658047
 20
157.8208833515652
 30
0.0
 11
1184.033356658047
 21
163.8208833515652
 31
0.0
  0
CIRCLE
  5
4170
330
1F
100
AcDbEntity
  8
0
100
AcDbCircle
 10
1212.033356658047
 20
156.8208833515652
 30
0.0
 40
7.0
  0
CIRCLE
  5
4171
330
1F
100
AcDbEntity
  8
0
100
AcDbCircle
 10
1212.033356658047
 20
156.8208833515652
 30
0.0
 40
11.5
  0
CIRCLE
  5
4172
330
1F
100
AcDbEntity
  8
0
100
AcDbCircle
 10
1184.033356658047
 20
155.8208833515652
 30
0.0
 40
7.0
  0
LINE
  5
4173
330
1F
100
AcDbEntity
  8
CENTER
  6
CENTER
100
AcDbLine
 10
1183.033356658047
 20
155.8208833515652
 30
0.0
 11
1185.033356658047
 21
155.8208833515652
 31
0.0
  0
LINE
  5
4174
330
1F
100
AcDbEntity
  8
0
100
AcDbLine
 10
1169.033356658047
 20
140.3208833515652
 30
0.0
 11
1169.533356658047
 21
139.8208833515652
 31
0.0
  0
LINE
  5
4175
330
1F
100
AcDbEntity
  8
CENTER
  6
CENTER
100
AcDbLine
 10
1182.033356658047
 20
155.8208833515652
 30
0.0
 11
1176.033356658047
 21
155.8208833515652
 31
0.0
  0
LINE
  5
4176
330
1F
100
AcDbEntity
  8
CENTER
  6
CENTER
100
AcDbLine
 10
1198.533356658047
 20
156.8208833515652
 30
0.0
 11
1225.533356658047
 21
156.8208833515652
 31
0.0
  0
LINE
  5
4177
330
1F
100
AcDbEntity
  8
CENTER
  6
CENTER
100
AcDbLine
 10
1184.033356658047
 20
153.8208833515652
 30
0.0
 11
1184.033356658047
 21
147.8208833515652
 31
0.0
  0
LINE
  5
4178
330
1F
100
AcDbEntity
  8
CENTER
  6
CENTER
100
AcDbLine
 10
1186.033356658047
 20
155.8208833515652
 30
0.0
 11
1192.033356658047
 21
155.8208833515652
 31
0.0
  0
LINE
  5
4179
330
1F
100
AcDbEntity
  8
CENTER
  6
CENTER
100
AcDbLine
 10
1184.033356658047
 20
154.8208833515652
 30
0.0
 11
1184.033356658047
 21
156.8208833515652
 31
0.0
  0
LINE
  5
417A
330
1F
100
AcDbEntity
  8
CENTER
  6
CENTER
100
AcDbLine
 10
1183.033356658047
 20
231.8208833515652
 30
0.0
 11
1185.033356658047
 21
231.8208833515652
 31
0.0
  0
LINE
  5
417B
330
1F
100
AcDbEntity
  8
CENTER
  6
CENTER
100
AcDbLine
 10
1182.033356658047
 20
231.8208833515652
 30
0.0
 11
1176.033356658047
 21
231.8208833515652
 31
0.0
  0
LINE
  5
417C
330
1F
100
AcDbEntity
  8
CENTER
  6
CENTER
100
AcDbLine
 10
1198.533356658047
 20
230.8208833515652
 30
0.0
 11
1225.533356658047
 21
230.8208833515652
 31
0.0
  0
LINE
  5
417D
330
1F
100
AcDbEntity
  8
CENTER
  6
CENTER
100
AcDbLine
 10
1184.033356658047
 20
229.8208833515652
 30
0.0
 11
1184.033356658047
 21
223.8208833515652
 31
0.0
  0
LINE
  5
417E
330
1F
100
AcDbEntity
  8
CENTER
  6
CENTER
100
AcDbLine
 10
1186.033356658047
 20
231.8208833515652
 30
0.0
 11
1192.033356658047
 21
231.8208833515652
 31
0.0
  0
LINE
  5
417F
330
1F
100
AcDbEntity
  8
CENTER
  6
CENTER
100
AcDbLine
 10
1184.033356658047
 20
230.8208833515652
 30
0.0
 11
1184.033356658047
 21
232.8208833515652
 31
0.0
  0
LINE
  5
4180
330
1F
100
AcDbEntity
  8
CENTER
  6
CENTER
100
AcDbLine
 10
1313.033356658047
 20
155.8208833515652
 30
0.0
 11
1315.033356658047
 21
155.8208833515652
 31
0.0
  0
LINE
  5
4181
330
1F
100
AcDbEntity
  8
CENTER
  6
CENTER
100
AcDbLine
 10
1313.033356658047
 20
231.8208833515652
 30
0.0
 11
1315.033356658047
 21
231.8208833515652
 31
0.0
  0
CIRCLE
  5
4182
330
1F
100
AcDbEntity
  8
0
100
AcDbCircle
 10
1314.033356658047
 20
155.8208833515652
 30
0.0
 40
7.0
  0
LINE
  5
4183
330
1F
100
AcDbEntity
  8
CENTER
  6
CENTER
100
AcDbLine
 10
1286.033356658047
 20
170.3208833515653
 30
0.0
 11
1286.033356658047
 21
143.3208833515651
 31
0.0
  0
CIRCLE
  5
4184
330
1F
100
AcDbEntity
  8
0
100
AcDbCircle
 10
1286.033356658047
 20
156.8208833515652
 30
0.0
 40
7.0
  0
CIRCLE
  5
4185
330
1F
100
AcDbEntity
  8
0
100
AcDbCircle
 10
1286.033356658047
 20
156.8208833515652
 30
0.0
 40
11.5
  0
CIRCLE
  5
4186
330
1F
100
AcDbEntity
  8
0
100
AcDbCircle
 10
1286.033356658047
 20
156.8208833515652
 30
0.0
 40
7.0
  0
CIRCLE
  5
4187
330
1F
100
AcDbEntity
  8
0
100
AcDbCircle
 10
1286.033356658047
 20
156.8208833515652
 30
0.0
 40
11.5
  0
LINE
  5
4188
330
1F
100
AcDbEntity
  8
CENTER
  6
CENTER
100
AcDbLine
 10
1299.533356658047
 20
156.8208833515652
 30
0.0
 11
1272.533356658047
 21
156.8208833515652
 31
0.0
  0
LINE
  5
4189
330
1F
100
AcDbEntity
  8
CENTER
  6
CENTER
100
AcDbLine
 10
1312.033356658047
 20
155.8208833515652
 30
0.0
 11
1306.033356658047
 21
155.8208833515652
 31
0.0
  0
LINE
  5
418A
330
1F
100
AcDbEntity
  8
CENTER
  6
CENTER
100
AcDbLine
 10
1299.533356658047
 20
230.8208833515652
 30
0.0
 11
1272.533356658047
 21
230.8208833515652
 31
0.0
  0
LINE
  5
418B
330
1F
100
AcDbEntity
  8
CENTER
  6
CENTER
100
AcDbLine
 10
1312.033356658047
 20
231.8208833515652
 30
0.0
 11
1306.033356658047
 21
231.8208833515652
 31
0.0
  0
LINE
  5
418C
330
1F
100
AcDbEntity
  8
CENTER
  6
CENTER
100
AcDbLine
 10
1314.033356658047
 20
157.8208833515652
 30
0.0
 11
1314.033356658047
 21
163.8208833515652
 31
0.0
  0
LINE
  5
418D
330
1F
100
AcDbEntity
  8
CENTER
  6
CENTER
100
AcDbLine
 10
1314.033356658047
 20
153.8208833515652
 30
0.0
 11
1314.033356658047
 21
147.8208833515652
 31
0.0
  0
LINE
  5
418E
330
1F
100
AcDbEntity
  8
CENTER
  6
CENTER
100
AcDbLine
 10
1316.033356658047
 20
155.8208833515652
 30
0.0
 11
1322.033356658047
 21
155.8208833515652
 31
0.0
  0
LINE
  5
418F
330
1F
100
AcDbEntity
  8
CENTER
  6
CENTER
100
AcDbLine
 10
1314.033356658047
 20
154.8208833515652
 30
0.0
 11
1314.033356658047
 21
156.8208833515652
 31
0.0
  0
LINE
  5
4190
330
1F
100
AcDbEntity
  8
0
100
AcDbLine
 10
1329.033356658047
 20
140.3208833515652
 30
0.0
 11
1328.533356658047
 21
139.8208833515652
 31
0.0
  0
LINE
  5
4191
330
1F
100
AcDbEntity
  8
CENTER
  6
CENTER
100
AcDbLine
 10
1314.033356658047
 20
229.8208833515652
 30
0.0
 11
1314.033356658047
 21
223.8208833515652
 31
0.0
  0
LINE
  5
4192
330
1F
100
AcDbEntity
  8
CENTER
  6
CENTER
100
AcDbLine
 10
1316.033356658047
 20
231.8208833515652
 30
0.0
 11
1322.033356658047
 21
231.8208833515652
 31
0.0
  0
LINE
  5
4193
330
1F
100
AcDbEntity
  8
CENTER
  6
CENTER
100
AcDbLine
 10
1314.033356658047
 20
230.8208833515652
 30
0.0
 11
1314.033356658047
 21
232.8208833515652
 31
0.0
  0
LINE
  5
4194
330
1F
100
AcDbEntity
  8
0
100
AcDbLine
 10
1169.533356658047
 20
247.8208833515652
 30
0.0
 11
1328.533356658047
 21
247.8208833515652
 31
0.0
  0
LINE
  5
4195
330
1F
100
AcDbEntity
  8
0
100
AcDbLine
 10
1329.033356658047
 20
303.4761302581837
 30
0.0
 11
1169.033356658047
 21
303.4761302581837
 31
0.0
  0
LINE
  5
4196
330
1F
100
AcDbEntity
  8
0
100
AcDbLine
 10
1329.033356658047
 20
285.4761302581837
 30
0.0
 11
1169.033356658047
 21
285.4761302581837
 31
0.0
  0
LINE
  5
4197
330
1F
100
AcDbEntity
  8
HIDDEN
  6
HIDDEN
100
AcDbLine
 10
1191.033356658047
 20
303.4761302581837
 30
0.0
 11
1191.033356658047
 21
285.4761302581837
 31
0.0
  0
LINE
  5
4198
330
1F
100
AcDbEntity
  8
CENTER
  6
CENTER
100
AcDbLine
 10
1184.033356658047
 20
305.4761302581837
 30
0.0
 11
1184.033356658047
 21
283.4761302581837
 31
0.0
  0
LINE
  5
4199
330
1F
100
AcDbEntity
  8
0
100
AcDbLine
 10
1169.033356658047
 20
303.4761302581837
 30
0.0
 11
1169.033356658047
 21
285.4761302581837
 31
0.0
  0
LINE
  5
419A
330
1F
100
AcDbEntity
  8
HIDDEN
  6
HIDDEN
100
AcDbLine
 10
1177.033356658047
 20
303.4761302581837
 30
0.0
 11
1177.033356658047
 21
285.4761302581837
 31
0.0
  0
LINE
  5
419B
330
1F
100
AcDbEntity
  8
HIDDEN
  6
HIDDEN
100
AcDbLine
 10
1125.338321726799
 20
238.8208833515653
 30
0.0
 11
1143.338321726799
 21
238.8208833515652
 31
0.0
  0
LINE
  5
419C
330
1F
100
AcDbEntity
  8
0
100
AcDbLine
 10
1125.338321726799
 20
247.8208833515652
 30
0.0
 11
1143.338321726799
 21
247.8208833515652
 31
0.0
  0
LINE
  5
419D
330
1F
100
AcDbEntity
  8
HIDDEN
  6
HIDDEN
100
AcDbLine
 10
1271.533356658047
 20
303.4761302581837
 30
0.0
 11
1271.533356658047
 21
285.4761302581837
 31
0.0
  0
LINE
  5
419E
330
1F
100
AcDbEntity
  8
CENTER
  6
CENTER
100
AcDbLine
 10
1249.033356658047
 20
305.4761302581837
 30
0.0
 11
1249.033356658047
 21
283.4761302581837
 31
0.0
  0
LINE
  5
419F
330
1F
100
AcDbEntity
  8
HIDDEN
  6
HIDDEN
100
AcDbLine
 10
1226.533356658047
 20
303.4761302581837
 30
0.0
 11
1226.533356658047
 21
285.4761302581837
 31
0.0
  0
LINE
  5
41A3
330
1F
100
AcDbEntity
  8
0
100
AcDbLine
 10
1169.533356658047
 20
247.8208833515652
 30
0.0
 11
1169.033356658047
 21
247.3208833515652
 31
0.0
  0
LINE
  5
41A4
330
1F
100
AcDbEntity
  8
CENTER
  6
CENTER
100
AcDbLine
 10
1184.033356658047
 20
233.8208833515652
 30
0.0
 11
1184.033356658047
 21
239.8208833515652
 31
0.0
  0
LINE
  5
41A5
330
1F
100
AcDbEntity
  8
HIDDEN
  6
HIDDEN
100
AcDbLine
 10
1321.033356658047
 20
303.4761302581837
 30
0.0
 11
1321.033356658047
 21
285.4761302581837
 31
0.0
  0
LINE
  5
41A6
330
1F
100
AcDbEntity
  8
HIDDEN
  6
HIDDEN
100
AcDbLine
 10
1307.033356658047
 20
303.4761302581837
 30
0.0
 11
1307.033356658047
 21
285.4761302581837
 31
0.0
  0
LINE
  5
41A7
330
1F
100
AcDbEntity
  8
CENTER
  6
CENTER
100
AcDbLine
 10
1314.033356658047
 20
305.4761302581837
 30
0.0
 11
1314.033356658047
 21
283.4761302581837
 31
0.0
  0
LINE
  5
41A8
330
1F
100
AcDbEntity
  8
0
100
AcDbLine
 10
1329.033356658047
 20
303.4761302581837
 30
0.0
 11
1329.033356658047
 21
285.4761302581837
 31
0.0
  0
LINE
  5
41A9
330
1F
100
AcDbEntity
  8
CENTER
  6
CENTER
100
AcDbLine
 10
1314.033356658047
 20
233.8208833515652
 30
0.0
 11
1314.033356658047
 21
239.8208833515652
 31
0.0
  0
LINE
  5
41AA
330
1F
100
AcDbEntity
  8
0
100
AcDbLine
 10
1328.533356658047
 20
247.8208833515652
 30
0.0
 11
1329.033356658047
 21
247.3208833515652
 31
0.0
  0
LINE
  5
41AE
330
1F
100
AcDbEntity
  8
0
 62
     4
100
AcDbLine
 10
1082.98739876166
 20
545.0230927203741
 30
0.0
 11
1082.98739876166
 21
117.348315519886
 31
0.0
  0
LINE
  5
41D3
330
1F
100
AcDbEntity
  8
0
100
AcDbLine
 10
1082.98739876166
 20
341.3006987097383
 30
0.0
 11
1379.091318345953
 21
341.3006987097383
 31
0.0
  0
TEXT
  5
41D4
330
1F
100
AcDbEntity
  8
0
100
AcDbText
 10
1105.505372548687
 20
511.2673425126225
 30
0.0
 40
9.24
  1
LB
100
AcDbText
  0
TEXT
  5
41D6
330
1F
100
AcDbEntity
  8
0
100
AcDbText
 10
1105.505372548687
 20
301.2609158990045
 30
0.0
 40
9.24
  1
FAC
100
AcDbText
  0
ENDSEC
  0
SECTION
  2
OBJECTS
  0
DICTIONARY
  5
C
330
0
100
AcDbDictionary
281
     1
  3
ACAD_COLOR
350
7D1
  3
ACAD_GROUP
350
D
  3
ACAD_LAYOUT
350
1A
  3
ACAD_MATERIAL
350
7D0
  3
ACAD_MLINESTYLE
350
17
  3
ACAD_PLOTSETTINGS
350
19
  3
ACAD_PLOTSTYLENAME
350
E
  3
ACAD_TABLESTYLE
350
7D2
  3
ACDBHEADERROUNDTRIPXREC
350
4306
  3
AcDbVariableDictionary
350
82
  3
AcmDictionary
350
45
  3
AMG
350
2B
  3
AMGSNAPSETTINGS
350
87
  3
DWGPROPS
350
4305
  0
DICTIONARY
  5
AAB
330
2
100
AcDbDictionary
280
     1
281
     1
  3
ACAD_LAYERFILTERS
360
4299
  3
ACAD_LAYERSTATES
360
AAC
  3
ACLYDICTIONARY
360
4298
  3
AMLAYER_GROUPCOLORS
360
15F6
  0
DICTIONARY
  5
7D
330
1F
100
AcDbDictionary
280
     1
281
     1
  3
ACAD_SORTENTS
360
EEA
  0
DICTIONARY
  5
3C0F
330
3C02
100
AcDbDictionary
280
     1
281
     1
  3
ACAD_DIMASSOC
360
3C10
  0
DICTIONARY
  5
7D1
102
{ACAD_REACTORS
330
C
102
}
330
C
100
AcDbDictionary
281
     1
  0
DICTIONARY
  5
D
102
{ACAD_REACTORS
330
C
102
}
330
C
100
AcDbDictionary
281
     1
  0
DICTIONARY
  5
1A
102
{ACAD_REACTORS
330
C
102
}
330
C
100
AcDbDictionary
281
     1
  3
Layout1
350
1E
  3
Layout2
350
26
  3
Model
350
22
  0
DICTIONARY
  5
7D0
102
{ACAD_REACTORS
330
C
102
}
330
C
100
AcDbDictionary
281
     1
  0
DICTIONARY
  5
17
102
{ACAD_REACTORS
330
C
102
}
330
C
100
AcDbDictionary
281
     1
  3
Standard
350
18
  0
DICTIONARY
  5
19
102
{ACAD_REACTORS
330
C
102
}
330
C
100
AcDbDictionary
281
     1
  0
ACDBDICTIONARYWDFLT
  5
E
102
{ACAD_REACTORS
330
C
102
}
330
C
100
AcDbDictionary
281
     1
  3
Normal
350
F
100
AcDbDictionaryWithDefault
340
F
  0
DICTIONARY
  5
7D2
102
{ACAD_REACTORS
330
C
102
}
330
C
100
AcDbDictionary
281
     1
  3
Standard
350
7D3
  0
DICTIONARY
  5
4306
102
{ACAD_REACTORS
330
C
102
}
330
C
100
AcDbDictionary
281
     1
  0
DICTIONARY
  5
82
102
{ACAD_REACTORS
330
C
102
}
330
C
100
AcDbDictionary
281
     1
  3
CTABLESTYLE
350
847
  3
DIMASSOC
350
85
  3
HIDETEXT
350
84
  3
INDEXCTL
350
83
  3
PROJECTNAME
350
848
  0
DICTIONARY
  5
45
102
{ACAD_REACTORS
330
C
102
}
330
C
100
AcDbDictionary
281
     1
  3
AcmStdDictionary
350
4A
  3
AMDTSECTSYM_ARROWCOLOR
350
7DF
  0
DICTIONARY
  5
2B
102
{ACAD_REACTORS
330
C
102
}
330
C
100
AcDbDictionary
281
     1
  0
DICTIONARY
  5
87
102
{ACAD_REACTORS
330
C
102
}
330
C
100
AcDbDictionary
281
     1
  0
XRECORD
  5
4305
102
{ACAD_REACTORS
330
C
102
}
330
C
100
AcDbXrecord
280
     1
  1
DWGPROPS COOKIE
  2

  3

  4

  6

  7

  8

  9

300
AmdtFileType=84
301
=
302
=
303
=
304
=
305
=
306
=
307
=
308
=
309
=
 40
0.6711587268518519
 41
2453021.369367211
 42
2453517.562299075
  1

 90
        1
  0
DICTIONARY
  5
4299
102
{ACAD_REACTORS
330
AAB
102
}
330
AAB
100
AcDbDictionary
281
     1
  0
DICTIONARY
  5
AAC
102
{ACAD_REACTORS
330
AAB
102
}
330
AAB
100
AcDbDictionary
281
     1
  0
DICTIONARY
  5
4298
102
{ACAD_REACTORS
330
AAB
102
}
330
AAB
100
AcDbDictionary
281
     1
1001
ACAD
1000
<All
  0
DICTIONARY
  5
15F6
102
{ACAD_REACTORS
330
AAB
102
}
330
AAB
100
AcDbDictionary
280
     1
281
     1
  0
SORTENTSTABLE
  5
EEA
102
{ACAD_REACTORS
330
7D
102
}
330
7D
100
AcDbSortentsTable
330
1F
331
3AF9
  5
3AF9
331
3B11
  5
3B12
331
38F3
  5
38F3
331
387D
  5
387D
331
38BC
  5
38BC
331
38FB
  5
38FB
331
3885
  5
3885
331
384E
  5
384E
331
393A
  5
393A
331
3903
  5
3903
331
388D
  5
388D
331
2260
  5
2260
331
3856
  5
3856
331
38CC
  5
38CC
331
390B
  5
390B
331
3895
  5
3895
331
381F
  5
381F
331
385E
  5
385E
331
38D4
  5
38D4
331
3A1A
  5
3A1A
331
142B
  5
142B
331
13FC
  5
13FC
331
1433
  5
1433
331
1472
  5
1472
331
3B49
  5
3B49
331
3913
  5
3913
331
389D
  5
389D
331
3827
  5
3827
331
3866
  5
3866
331
38DC
  5
38DC
331
3A22
  5
3A22
331
391B
  5
391B
331
382F
  5
382F
331
386E
  5
386E
331
38E4
  5
38E4
331
3A2A
  5
3A2A
331
1404
  5
1404
331
143B
  5
143B
331
38EC
  5
38EC
331
38AD
  5
38AD
331
3923
  5
3923
331
1443
  5
1443
331
38B5
  5
38B5
331
392B
  5
392B
331
1414
  5
1414
331
1453
  5
1453
331
3B12
  5
3B14
331
38F4
  5
38F4
331
38FC
  5
38FC
331
3886
  5
3886
331
384F
  5
384F
331
2259
  5
2259
331
38C5
  5
38C5
331
393B
  5
393B
331
3904
  5
3904
331
3818
  5
3818
331
2261
  5
2261
331
38CD
  5
38CD
331
390C
  5
390C
331
385F
  5
385F
331
38D5
  5
38D5
331
3A1B
  5
3A1B
331
13F5
  5
13F5
331
142C
  5
142C
331
146B
  5
146B
331
13FD
  5
13FD
331
1434
  5
1434
331
1473
  5
1473
331
3B4A
  5
3B4A
331
3820
  5
3820
331
3914
  5
3914
331
389E
  5
389E
331
3828
  5
3828
331
3867
  5
3867
331
38DD
  5
38DD
331
3A23
  5
3A23
331
391C
  5
391C
331
386F
  5
386F
331
3830
  5
3830
331
2571
  5
2571
331
38E5
  5
38E5
331
3A2B
  5
3A2B
331
1405
  5
1405
331
143C
  5
143C
331
3AE3
  5
3AE3
331
38ED
  5
38ED
331
3877
  5
3877
331
38AE
  5
38AE
331
3924
  5
3924
331
140D
  5
140D
331
1444
  5
1444
331
38B6
  5
38B6
331
392C
  5
392C
331
1415
  5
1415
331
1454
  5
1454
331
3AFB
  5
3AFB
331
38F5
  5
38F5
331
387F
  5
387F
331
3848
  5
3848
331
38BE
  5
38BE
331
3934
  5
3934
331
38FD
  5
38FD
331
225A
  5
225A
331
3887
  5
3887
331
38C6
  5
38C6
331
393C
  5
393C
331
3905
  5
3905
331
388F
  5
388F
331
2262
  5
2262
331
3819
  5
3819
331
38CE
  5
38CE
331
1425
  5
1425
331
390D
  5
390D
331
3897
  5
3897
331
38D6
  5
38D6
331
3A1C
  5
3A1C
331
142D
  5
142D
331
146C
  5
146C
331
13FE
  5
13FE
331
1435
  5
1435
331
1474
  5
1474
331
3B43
  5
3B43
331
3821
  5
3821
331
3860
  5
3860
331
3915
  5
3915
331
3829
  5
3829
331
3868
  5
3868
331
38DE
  5
38DE
331
3A24
  5
3A24
331
391D
  5
391D
331
38A7
  5
38A7
331
3870
  5
3870
331
3831
  5
3831
331
38E6
  5
38E6
331
3A2C
  5
3A2C
331
1406
  5
1406
331
143D
  5
143D
331
3AE4
  5
3AE4
331
38EE
  5
38EE
331
38AF
  5
38AF
331
3925
  5
3925
331
140E
  5
140E
331
1445
  5
1445
331
38B7
  5
38B7
331
392D
  5
392D
331
1416
  5
1416
331
144D
  5
144D
331
1455
  5
1455
331
3AFC
  5
3AFC
331
3B0C
  5
3B10
331
3878
  5
3878
331
3841
  5
3841
331
38F6
  5
38F6
331
3880
  5
3880
331
38FE
  5
38FE
331
38C7
  5
38C7
331
225B
  5
225B
331
3851
  5
3851
331
393D
  5
393D
331
145D
  5
145D
331
3906
  5
3906
331
2263
  5
2263
331
381A
  5
381A
331
3859
  5
3859
331
38CF
  5
38CF
331
1426
  5
1426
331
1465
  5
1465
331
390E
  5
390E
331
38D7
  5
38D7
331
13F7
  5
13F7
331
142E
  5
142E
331
146D
  5
146D
331
13FF
  5
13FF
331
1475
  5
1475
331
3B44
  5
3B44
331
3822
  5
3822
331
3916
  5
3916
331
38A0
  5
38A0
331
382A
  5
382A
331
3869
  5
3869
331
38DF
  5
38DF
331
3A25
  5
3A25
331
391E
  5
391E
331
3871
  5
3871
331
3832
  5
3832
331
3A2D
  5
3A2D
331
1407
  5
1407
331
143E
  5
143E
331
38EF
  5
38EF
331
38B0
  5
38B0
331
3926
  5
3926
331
3AE5
  5
3AE5
331
140F
  5
140F
331
392E
  5
392E
331
1417
  5
1417
331
144E
  5
144E
331
1456
  5
1456
331
3AFD
  5
3AFF
331
3B15
  5
3B15
331
3879
  5
3879
331
38B8
  5
38B8
331
3881
  5
3881
331
38C0
  5
38C0
331
38FF
  5
38FF
331
225C
  5
225C
331
3852
  5
3852
331
38C8
  5
38C8
331
393E
  5
393E
331
141F
  5
141F
331
3907
  5
3907
331
2264
  5
2264
331
381B
  5
381B
331
38D0
  5
38D0
331
1427
  5
1427
331
1466
  5
1466
331
390F
  5
390F
331
13F8
  5
13F8
331
142F
  5
142F
331
146E
  5
146E
331
1437
  5
1437
331
1476
  5
1476
331
3B45
  5
3B45
331
3823
  5
3823
331
38D8
  5
38D8
331
3917
  5
3917
331
382B
  5
382B
331
386A
  5
386A
331
38E0
  5
38E0
331
3A26
  5
3A26
331
1400
  5
1400
331
391F
  5
391F
331
3872
  5
3872
331
3833
  5
3833
331
38A9
  5
38A9
331
3A2E
  5
3A2E
331
1408
  5
1408
331
143F
  5
143F
331
38B1
  5
38B1
331
3927
  5
3927
331
3AE6
  5
3AE6
331
392F
  5
392F
331
1457
  5
1457
331
38F0
  5
38F0
331
387A
  5
387A
331
38B9
  5
38B9
331
38F8
  5
38F8
331
3882
  5
3882
331
3937
  5
3937
331
1418
  5
1418
331
3900
  5
3900
331
225D
  5
225D
331
3853
  5
3853
331
3908
  5
3908
331
3892
  5
3892
331
381C
  5
381C
331
385B
  5
385B
331
38D1
  5
38D1
331
3A17
  5
3A17
331
13F1
  5
13F1
331
1428
  5
1428
331
1467
  5
1467
331
3A1F
  5
3A1F
331
13F9
  5
13F9
331
1430
  5
1430
331
146F
  5
146F
331
1477
  5
1477
331
3B46
  5
3B46
331
3910
  5
3910
331
3824
  5
3824
331
38D9
  5
38D9
331
382C
  5
382C
331
38E1
  5
38E1
331
3A27
  5
3A27
331
1401
  5
1401
331
1438
  5
1438
331
38E9
  5
38E9
331
3834
  5
3834
331
3920
  5
3920
331
1409
  5
1409
331
1440
  5
1440
331
38B2
  5
38B2
331
3928
  5
3928
331
1411
  5
1411
331
38F1
  5
38F1
331
38BA
  5
38BA
331
3930
  5
3930
331
38F9
  5
38F9
331
3883
  5
3883
331
3938
  5
3938
331
1458
  5
1458
331
3901
  5
3901
331
225E
  5
225E
331
3815
  5
3815
331
3854
  5
3854
331
38CA
  5
38CA
331
1421
  5
1421
331
3909
  5
3909
331
3893
  5
3893
331
2266
  5
2266
331
381D
  5
381D
331
385C
  5
385C
331
38D2
  5
38D2
331
3A18
  5
3A18
331
13F2
  5
13F2
331
1429
  5
1429
331
13FA
  5
13FA
331
1431
  5
1431
331
1470
  5
1470
331
3B47
  5
3B47
331
3911
  5
3911
331
3825
  5
3825
331
3864
  5
3864
331
38DA
  5
38DA
331
3A20
  5
3A20
331
3919
  5
3919
331
38A3
  5
38A3
331
382D
  5
382D
331
386C
  5
386C
331
38E2
  5
38E2
331
3A28
  5
3A28
331
1402
  5
1402
331
1478
  5
1478
331
38EA
  5
38EA
331
3835
  5
3835
331
38AB
  5
38AB
331
3921
  5
3921
331
140A
  5
140A
331
1441
  5
1441
331
14B8
  5
14B8
331
38B3
  5
38B3
331
3929
  5
3929
331
1412
  5
1412
331
1449
  5
1449
331
3AF8
  5
3AF8
331
3B10
  5
3B0E
331
38F2
  5
38F2
331
38BB
  5
38BB
331
38FA
  5
38FA
331
3884
  5
3884
331
384D
  5
384D
331
3939
  5
3939
331
1459
  5
1459
331
3902
  5
3902
331
388C
  5
388C
331
225F
  5
225F
331
3816
  5
3816
331
3855
  5
3855
331
38CB
  5
38CB
331
1422
  5
1422
331
1461
  5
1461
331
390A
  5
390A
331
3894
  5
3894
331
381E
  5
381E
331
385D
  5
385D
331
38D3
  5
38D3
331
3A19
  5
3A19
331
13F3
  5
13F3
331
142A
  5
142A
331
13FB
  5
13FB
331
1432
  5
1432
331
1471
  5
1471
331
3B48
  5
3B48
331
3912
  5
3912
331
3826
  5
3826
331
389C
  5
389C
331
38DB
  5
38DB
331
3A21
  5
3A21
331
391A
  5
391A
331
38A4
  5
38A4
331
382E
  5
382E
331
386D
  5
386D
331
38E3
  5
38E3
331
3A29
  5
3A29
331
1403
  5
1403
331
143A
  5
143A
331
1479
  5
1479
331
38EB
  5
38EB
331
3836
  5
3836
331
38AC
  5
38AC
331
3922
  5
3922
331
1442
  5
1442
331
383E
  5
383E
331
38B4
  5
38B4
331
392A
  5
392A
331
1413
  5
1413
331
1452
  5
1452
  0
DIMASSOC
  5
3C10
102
{ACAD_REACTORS
330
3C0F
102
}
330
3C0F
100
AcDbDimAssoc
330
3C02
 90
        3
 70
     0
 71
     0
  1
AcDbOsnapPointRef
 72
     1
331
3BEA
 73
     2
 91
        3
 40
0.0
 10
0.0
 20
0.0
 30
2.000000000000000E+50
 75
     0
  1
AcDbOsnapPointRef
 72
    13
331
38B1
 73
     0
 91
        0
 40
0.0
 10
0.0
 20
0.0
 30
2.000000000000000E+50
 75
     0
  0
LAYOUT
  5
1E
102
{ACAD_XDICTIONARY
360
4307
102
}
102
{ACAD_REACTORS
330
1A
102
}
330
1A
100
AcDbPlotSettings
  1

  2
自動 RD 上的 Epson Stylus Photo 750 單色
  4

  6

 40
0.0
 41
0.0
 42
0.0
 43
0.0
 44
0.0
 45
0.0
 46
0.0
 47
0.0
 48
0.0
 49
0.0
140
0.0
141
0.0
142
1.0
143
1.0
 70
   688
 72
     0
 73
     0
 74
     5
  7
單色出圖.ctb
 75
    16
147
1.0
148
0.0
149
0.0
100
AcDbLayout
  1
Layout1
 70
     1
 71
     1
 10
0.0
 20
0.0
 11
420.0
 21
297.0
 12
0.0
 22
0.0
 32
0.0
 14
1.000000000000000E+20
 24
1.000000000000000E+20
 34
1.000000000000000E+20
 15
-1.000000000000000E+20
 25
-1.000000000000000E+20
 35
-1.000000000000000E+20
146
0.0
 13
0.0
 23
0.0
 33
0.0
 16
1.0
 26
0.0
 36
0.0
 17
0.0
 27
1.0
 37
0.0
 76
     0
330
1B
  0
LAYOUT
  5
26
102
{ACAD_XDICTIONARY
360
430B
102
}
102
{ACAD_REACTORS
330
1A
102
}
330
1A
100
AcDbPlotSettings
  1

  2
自動 RD 上的 Epson Stylus Photo 750 單色
  4

  6

 40
0.0
 41
0.0
 42
0.0
 43
0.0
 44
0.0
 45
0.0
 46
0.0
 47
0.0
 48
0.0
 49
0.0
140
0.0
141
0.0
142
1.0
143
1.0
 70
   688
 72
     0
 73
     0
 74
     5
  7
單色出圖.ctb
 75
    16
147
1.0
148
0.0
149
0.0
100
AcDbLayout
  1
Layout2
 70
     1
 71
     2
 10
0.0
 20
0.0
 11
12.0
 21
9.0
 12
0.0
 22
0.0
 32
0.0
 14
0.0
 24
0.0
 34
0.0
 15
0.0
 25
0.0
 35
0.0
146
0.0
 13
0.0
 23
0.0
 33
0.0
 16
1.0
 26
0.0
 36
0.0
 17
0.0
 27
1.0
 37
0.0
 76
     0
330
23
  0
LAYOUT
  5
22
102
{ACAD_XDICTIONARY
360
4309
102
}
102
{ACAD_REACTORS
330
1A
102
}
330
1A
100
AcDbPlotSettings
  1

  2
自動 RD 上的 Epson Stylus Photo 750 單色
  4
A4
  6

 40
3.757083177566528
 41
14.7637300491333
 42
3.757080078125
 43
3.757080078125
 44
209.9733276367187
 45
296.9683227539062
 46
7.54
 47
0.0
 48
0.0
 49
0.0
140
0.0
141
0.0
142
1.0
143
1.817317462545654
 70
 11956
 72
     1
 73
     0
 74
     1
  7
單色出圖.ctb
 75
     0
147
0.5502615919395967
148
-125.5654918467224
149
222.8859553785132
100
AcDbLayout
  1
Model
 70
     1
 71
     0
 10
0.0
 20
0.0
 11
12.0
 21
9.0
 12
0.0
 22
0.0
 32
0.0
 14
0.0
 24
0.0
 34
0.0
 15
0.0
 25
0.0
 35
0.0
146
0.0
 13
0.0
 23
0.0
 33
0.0
 16
1.0
 26
0.0
 36
0.0
 17
0.0
 27
1.0
 37
0.0
 76
     0
330
1F
  0
MLINESTYLE
  5
18
102
{ACAD_REACTORS
330
17
102
}
330
17
100
AcDbMlineStyle
  2
STANDARD
 70
     0
  3

 62
   256
 51
90.0
 52
90.0
 71
     2
 49
0.5
 62
   256
  6
BYLAYER
 49
-0.5
 62
   256
  6
BYLAYER
  0
ACDBPLACEHOLDER
  5
F
102
{ACAD_REACTORS
330
E
102
}
330
E
  0
TABLESTYLE
  5
7D3
102
{ACAD_REACTORS
330
7D2
102
}
330
7D2
100
AcDbTableStyle
  3
Standard
 70
     0
 71
     0
 40
1.5
 41
1.5
280
     0
281
     0
  7
STANDARD
140
4.5
170
     2
 62
     0
 63
     7
283
     0
274
    -2
284
     1
 64
     0
275
    -2
285
     1
 65
     0
276
    -2
286
     1
 66
     0
277
    -2
287
     1
 67
     0
278
    -2
288
     1
 68
     0
279
    -2
289
     1
 69
     0
  7
STANDARD
140
6.0
170
     5
 62
     0
 63
     7
283
     0
274
    -2
284
     1
 64
     0
275
    -2
285
     1
 65
     0
276
    -2
286
     1
 66
     0
277
    -2
287
     1
 67
     0
278
    -2
288
     1
 68
     0
279
    -2
289
     1
 69
     0
  7
STANDARD
140
4.5
170
     5
 62
     0
 63
     7
283
     0
274
    -2
284
     1
 64
     0
275
    -2
285
     1
 65
     0
276
    -2
286
     1
 66
     0
277
    -2
287
     1
 67
     0
278
    -2
288
     1
 68
     0
279
    -2
289
     1
 69
     0
  0
DICTIONARYVAR
  5
847
102
{ACAD_REACTORS
330
82
102
}
330
82
100
DictionaryVariables
280
     0
  1
STANDARD
  0
DICTIONARYVAR
  5
85
102
{ACAD_REACTORS
330
82
102
}
330
82
100
DictionaryVariables
280
     0
  1
2
  0
DICTIONARYVAR
  5
84
102
{ACAD_REACTORS
330
82
102
}
330
82
100
DictionaryVariables
280
     0
  1
1
  0
DICTIONARYVAR
  5
83
102
{ACAD_REACTORS
330
82
102
}
330
82
100
DictionaryVariables
280
     0
  1
0
  0
DICTIONARYVAR
  5
848
102
{ACAD_REACTORS
330
82
102
}
330
82
100
DictionaryVariables
280
     0
  1

  0
DICTIONARY
  5
4A
102
{ACAD_REACTORS
330
45
102
}
330
45
100
AcDbDictionary
281
     1
  0
XRECORD
  5
7DF
102
{ACAD_REACTORS
330
45
102
}
330
45
100
AcDbXrecord
280
     1
 90
-1023410169
  0
DICTIONARY
  5
4307
330
1E
100
AcDbDictionary
280
     1
281
     1
  3
ACAD_XREC_ROUNDTRIP
360
4308
  0
DICTIONARY
  5
430B
330
26
100
AcDbDictionary
280
     1
281
     1
  3
ACAD_XREC_ROUNDTRIP
360
430C
  0
DICTIONARY
  5
4309
330
22
100
AcDbDictionary
280
     1
281
     1
  3
ACAD_XREC_ROUNDTRIP
360
430A
  0
XRECORD
  5
4308
102
{ACAD_REACTORS
330
4307
102
}
330
4307
100
AcDbXrecord
280
     1
102
SHADEPLOT
 70
     0
102
SHADEPLOTRESLEVEL
 70
     2
102
SHADEPLOTCUSTOMDPI
 70
   300
  0
XRECORD
  5
430C
102
{ACAD_REACTORS
330
430B
102
}
330
430B
100
AcDbXrecord
280
     1
102
SHADEPLOT
 70
     0
102
SHADEPLOTRESLEVEL
 70
     2
102
SHADEPLOTCUSTOMDPI
 70
   300
  0
XRECORD
  5
430A
102
{ACAD_REACTORS
330
4309
102
}
330
4309
100
AcDbXrecord
280
     1
102
SHADEPLOT
 70
     0
102
SHADEPLOTRESLEVEL
 70
     2
102
SHADEPLOTCUSTOMDPI
 70
   300
  0
ENDSEC
  0
EOF
