  0
SECTION
  2
HEADER
  9
$ACADVER
  1
AC1015
  9
$ACADMAINTVER
 70
    20
  9
$DWGCODEPAGE
  3
ANSI_950
  9
$INSBASE
 10
0.0
 20
0.0
 30
0.0
  9
$EXTMIN
 10
1225.384772504617
 20
771.8475458694201
 30
-0.0005687627002651
  9
$EXTMAX
 10
1245.047007486752
 20
786.1214707547206
 30
9.319603532783126
  9
$LIMMIN
 10
0.0
 20
0.0
  9
$LIMMAX
 10
297.0
 20
420.0
  9
$ORTHOMODE
 70
     0
  9
$REGENMODE
 70
     1
  9
$FILLMODE
 70
     1
  9
$QTEXTMODE
 70
     0
  9
$MIRRTEXT
 70
     1
  9
$LTSCALE
 40
0.5
  9
$ATTMODE
 70
     1
  9
$TEXTSIZE
 40
0.5
  9
$TRACEWID
 40
0.05
  9
$TEXTSTYLE
  7
CHINESET
  9
$CLAYER
  8
0
  9
$CELTYPE
  6
BYLAYER
  9
$CECOLOR
 62
   256
  9
$CELTSCALE
 40
0.5
  9
$DISPSILH
 70
     0
  9
$DIMSCALE
 40
1.0
  9
$DIMASZ
 40
0.12
  9
$DIMEXO
 40
0.06
  9
$DIMDLI
 40
0.3
  9
$DIMRND
 40
0.0
  9
$DIMDLE
 40
0.0
  9
$DIMEXE
 40
0.08
  9
$DIMTP
 40
0.01
  9
$DIMTM
 40
0.01
  9
$DIMTXT
 40
0.12
  9
$DIMCEN
 40
0.0
  9
$DIMTSZ
 40
0.0
  9
$DIMTOL
 70
     0
  9
$DIMLIM
 70
     0
  9
$DIMTIH
 70
     0
  9
$DIMTOH
 70
     0
  9
$DIMSE1
 70
     0
  9
$DIMSE2
 70
     0
  9
$DIMTAD
 70
     3
  9
$DIMZIN
 70
    10
  9
$DIMBLK
  1

  9
$DIMASO
 70
     1
  9
$DIMSHO
 70
     1
  9
$DIMPOST
  1

  9
$DIMAPOST
  1

  9
$DIMALT
 70
     1
  9
$DIMALTD
 70
     2
  9
$DIMALTF
 40
25.4
  9
$DIMLFAC
 40
1.0
  9
$DIMTOFL
 70
     1
  9
$DIMTVP
 40
0.0
  9
$DIMTIX
 70
     0
  9
$DIMSOXD
 70
     0
  9
$DIMSAH
 70
     0
  9
$DIMBLK1
  1

  9
$DIMBLK2
  1

  9
$DIMSTYLE
  2
STANDARD
  9
$DIMCLRD
 70
   256
  9
$DIMCLRE
 70
   256
  9
$DIMCLRT
 70
   256
  9
$DIMTFAC
 40
0.6
  9
$DIMGAP
 40
0.04
  9
$DIMJUST
 70
     0
  9
$DIMSD1
 70
     0
  9
$DIMSD2
 70
     0
  9
$DIMTOLJ
 70
     1
  9
$DIMTZIN
 70
     8
  9
$DIMALTZ
 70
    10
  9
$DIMALTTZ
 70
     0
  9
$DIMUPT
 70
     0
  9
$DIMDEC
 70
     2
  9
$DIMTDEC
 70
     8
  9
$DIMALTU
 70
     2
  9
$DIMALTTD
 70
     2
  9
$DIMTXSTY
  7
DAYUS
  9
$DIMAUNIT
 70
     0
  9
$DIMADEC
 70
     0
  9
$DIMALTRND
 40
0.0
  9
$DIMAZIN
 70
     2
  9
$DIMDSEP
 70
    46
  9
$DIMATFIT
 70
     3
  9
$DIMFRAC
 70
     0
  9
$DIMLDRBLK
  1

  9
$DIMLUNIT
 70
     2
  9
$DIMLWD
 70
    -1
  9
$DIMLWE
 70
    -1
  9
$DIMTMOVE
 70
     0
  9
$LUNITS
 70
     2
  9
$LUPREC
 70
     4
  9
$SKETCHINC
 40
0.1
  9
$FILLETRAD
 40
0.5
  9
$AUNITS
 70
     0
  9
$AUPREC
 70
     0
  9
$MENU
  1
.
  9
$ELEVATION
 40
0.0
  9
$PELEVATION
 40
0.0
  9
$THICKNESS
 40
0.0
  9
$LIMCHECK
 70
     0
  9
$CHAMFERA
 40
0.5
  9
$CHAMFERB
 40
0.5
  9
$CHAMFERC
 40
1.0
  9
$CHAMFERD
 40
0.0
  9
$SKPOLY
 70
     0
  9
$TDCREATE
 40
2452243.440373877
  9
$TDUCREATE
 40
2452243.107040544
  9
$TDUPDATE
 40
2455342.654199931
  9
$TDUUPDATE
 40
2455342.320866598
  9
$TDINDWG
 40
0.9922378472
  9
$TDUSRTIMER
 40
0.9922113079
  9
$USRTIMER
 70
     1
  9
$ANGBASE
 50
0.0
  9
$ANGDIR
 70
     0
  9
$PDMODE
 70
     0
  9
$PDSIZE
 40
0.0
  9
$PLINEWID
 40
0.0
  9
$SPLFRAME
 70
     0
  9
$SPLINETYPE
 70
     6
  9
$SPLINESEGS
 70
     8
  9
$HANDSEED
  5
FD3E
  9
$SURFTAB1
 70
     6
  9
$SURFTAB2
 70
     6
  9
$SURFTYPE
 70
     6
  9
$SURFU
 70
     6
  9
$SURFV
 70
     6
  9
$UCSBASE
  2

  9
$UCSNAME
  2

  9
$UCSORG
 10
0.0
 20
0.0
 30
0.0
  9
$UCSXDIR
 10
1.0
 20
0.0
 30
0.0
  9
$UCSYDIR
 10
0.0
 20
1.0
 30
0.0
  9
$UCSORTHOREF
  2

  9
$UCSORTHOVIEW
 70
     0
  9
$UCSORGTOP
 10
0.0
 20
0.0
 30
0.0
  9
$UCSORGBOTTOM
 10
0.0
 20
0.0
 30
0.0
  9
$UCSORGLEFT
 10
0.0
 20
0.0
 30
0.0
  9
$UCSORGRIGHT
 10
0.0
 20
0.0
 30
0.0
  9
$UCSORGFRONT
 10
0.0
 20
0.0
 30
0.0
  9
$UCSORGBACK
 10
0.0
 20
0.0
 30
0.0
  9
$PUCSBASE
  2

  9
$PUCSNAME
  2

  9
$PUCSORG
 10
0.0
 20
0.0
 30
0.0
  9
$PUCSXDIR
 10
1.0
 20
0.0
 30
0.0
  9
$PUCSYDIR
 10
0.0
 20
1.0
 30
0.0
  9
$PUCSORTHOREF
  2

  9
$PUCSORTHOVIEW
 70
     0
  9
$PUCSORGTOP
 10
0.0
 20
0.0
 30
0.0
  9
$PUCSORGBOTTOM
 10
0.0
 20
0.0
 30
0.0
  9
$PUCSORGLEFT
 10
0.0
 20
0.0
 30
0.0
  9
$PUCSORGRIGHT
 10
0.0
 20
0.0
 30
0.0
  9
$PUCSORGFRONT
 10
0.0
 20
0.0
 30
0.0
  9
$PUCSORGBACK
 10
0.0
 20
0.0
 30
0.0
  9
$USERI1
 70
     0
  9
$USERI2
 70
     0
  9
$USERI3
 70
     0
  9
$USERI4
 70
     0
  9
$USERI5
 70
     0
  9
$USERR1
 40
0.0
  9
$USERR2
 40
0.0
  9
$USERR3
 40
0.0
  9
$USERR4
 40
0.0
  9
$USERR5
 40
0.0
  9
$WORLDVIEW
 70
     1
  9
$SHADEDGE
 70
     3
  9
$SHADEDIF
 70
    70
  9
$TILEMODE
 70
     1
  9
$MAXACTVP
 70
    48
  9
$PINSBASE
 10
0.0
 20
0.0
 30
0.0
  9
$PLIMCHECK
 70
     0
  9
$PEXTMIN
 10
27.8447512626648
 20
20.24591643810271
 30
0.0
  9
$PEXTMAX
 10
250.6027613639831
 20
182.2132479429245
 30
0.0
  9
$PLIMMIN
 10
-3.757080078125
 20
-3.757083177566528
  9
$PLIMMAX
 10
293.2112426757813
 20
206.2162444591522
  9
$UNITMODE
 70
     0
  9
$VISRETAIN
 70
     1
  9
$PLINEGEN
 70
     0
  9
$PSLTSCALE
 70
     1
  9
$TREEDEPTH
 70
  3020
  9
$CMLSTYLE
  2
STANDARD
  9
$CMLJUST
 70
     0
  9
$CMLSCALE
 40
1.0
  9
$PROXYGRAPHICS
 70
     1
  9
$MEASUREMENT
 70
     1
  9
$CELWEIGHT
370
    -1
  9
$ENDCAPS
280
     0
  9
$JOINSTYLE
280
     0
  9
$LWDISPLAY
290
     0
  9
$INSUNITS
 70
     0
  9
$HYPERLINKBASE
  1

  9
$STYLESHEET
  1

  9
$XEDIT
290
     1
  9
$CEPSNTYPE
380
     0
  9
$PSTYLEMODE
290
     1
  9
$FINGERPRINTGUID
  2
{07D7BE12-0192-11D3-8697-0060B085A428}
  9
$VERSIONGUID
  2
{6CFE763A-D1C2-4603-B403-3929281CC720}
  9
$EXTNAMES
290
     1
  9
$PSVPSCALE
 40
0.0
  9
$OLESTARTUP
290
     0
  0
ENDSEC
  0
SECTION
  2
CLASSES
  0
CLASS
  1
ACMESTATEMGR
  2
AcMeStateMgr
  3
AcMeServices
 90
        0
280
     0
281
     0
  0
CLASS
  1
ACMESCOPE
  2
AcMeScope
  3
AcMeServices
 90
        0
280
     0
281
     0
  0
CLASS
  1
ACMECOMMANDHISTORY
  2
AcMeCommandHistory
  3
AcMeServices
 90
        0
280
     0
281
     0
  0
CLASS
  1
ACRFINSADJUSTERMGR
  2
AcRfInsAdjusterMgr
  3
AcMeServices
 90
        0
280
     0
281
     0
  0
CLASS
  1
ACMEDRAWINGMAN
  2
AcMeDrawingMan
  3
AcMeServices
 90
        0
280
     0
281
     0
  0
CLASS
  1
AMATTR
  2
AcMeAttribute
  3
AcMeServices
 90
    32768
280
     0
281
     0
  0
CLASS
  1
ACMEBOMCOLUMN
  2
AcMeBOMColumn
  3
AcMeServices
 90
    32768
280
     0
281
     0
  0
CLASS
  1
ACMEBOMCONF
  2
AcMeBOMConf
  3
AcMeServices
 90
    32768
280
     0
281
     0
  0
CLASS
  1
ACMEBOMTABLE
  2
AcMeBOMTable
  3
AcMeServices
 90
    32768
280
     0
281
     0
  0
CLASS
  1
ACMEBOMENTRY
  2
AcMeBOMEntry
  3
AcMeServices
 90
    32768
280
     0
281
     0
  0
CLASS
  1
ACMEVIEW
  2
AcMeView
  3
AcMeServices
 90
        0
280
     0
281
     0
  0
CLASS
  1
ACGREFMASTER
  2
AcGrefMaster
  3
AcAttribServices
 90
        0
280
     0
281
     0
  0
CLASS
  1
AMIMASTER
  2
AmiMaster
  3
AmiServices
 90
        0
280
     0
281
     0
  0
CLASS
  1
ACASGREFMASTER
  2
AcAsGrefMaster
  3
AutoSurfResolverServices
 90
        0
280
     0
281
     0
  0
CLASS
  1
ADAPPL
  2
AcAdAppl
  3
DesignerServices
 90
        0
280
     0
281
     0
  0
CLASS
  1
DEPMGR
  2
AcAdDepMgr
  3
DesignerServices
 90
        0
280
     0
281
     0
  0
CLASS
  1
PARAMMGR
  2
AcAdParamMgr
  3
DesignerServices
 90
        0
280
     0
281
     0
  0
CLASS
  1
PARAMSCOPE
  2
AcAdParamScope
  3
DesignerServices
 90
        0
280
     0
281
     0
  0
CLASS
  1
ACIMSYSVARMAN
  2
AcImSysVarManager
  3
AcMeServices
 90
        0
280
     0
281
     0
  0
CLASS
  1
ACIMINTSYSVAR
  2
AcImIntSysVar
  3
AcMeServices
 90
        0
280
     0
281
     0
  0
CLASS
  1
ACIMREALSYSVAR
  2
AcImRealSysVar
  3
AcMeServices
 90
        0
280
     0
281
     0
  0
CLASS
  1
ACIMSTRSYSVAR
  2
AcImStrSysVar
  3
AcMeServices
 90
        0
280
     0
281
     0
  0
CLASS
  1
NAMEDAPPL
  2
AcAdNamedAppl
  3
DesignerServices
 90
        0
280
     0
281
     0
  0
CLASS
  1
ADHNTMPLT
  2
AdHoleNoteTemplateMgr
  3
DesignerServices
 90
    32768
280
     0
281
     0
  0
CLASS
  1
AM_HNTEMPLATE_MGR_NAME
  2
AdHoleNoteTemplateMgrName
  3
DesignerServices
 90
    32768
280
     0
281
     0
  0
CLASS
  1
ACADGREFMODULE
  2
AcAdGrefModule
  3
AdGrefServices
 90
        0
280
     0
281
     0
  0
CLASS
  1
AM_DRAWING_MGR
  2
AcDmDwgMgr
  3
AcMechDwgViewMgmt
 90
        0
280
     0
281
     0
  0
CLASS
  1
AM_DWG_DOCUMENT
  2
AcDmDwgDocument
  3
AcMechDwgViewMgmt
 90
        0
280
     0
281
     0
  0
CLASS
  1
AM_DWG_SHEET
  2
AcDmSheet
  3
AcMechDwgViewMgmt
 90
        0
280
     0
281
     0
  0
CLASS
  1
AM_VIEWDIMPARMAP
  2
AcDmViewDimParMap
  3
AcMechDwgViewMgmt
 90
        0
280
     0
281
     0
  0
CLASS
  1
AM_DWGMGR_NAME
  2
AcDmDwgMgrName
  3
AcMechDwgViewMgmt
 90
        0
280
     0
281
     0
  0
CLASS
  1
ACAMPROJECT
  2
AcAmProject
  3
DesignerAssemblies
 90
        0
280
     0
281
     0
  0
CLASS
  1
ACAMGRCOMPSET
  2
AcAmGrCompSet
  3
DesignerAssemblies
 90
    32768
280
     1
281
     0
  0
CLASS
  1
ACAMGRCOMPDEFSET
  2
AcAmGrCompDefSet
  3
DesignerAssemblies
 90
        0
280
     0
281
     0
  0
CLASS
  1
ACAMGRCOMPDEF
  2
AcAmGrCompDef
  3
DesignerAssemblies
 90
        0
280
     0
281
     0
  0
CLASS
  1
ACCMCONTEXT
  2
AcCmContext
  3
DesignerAssemblies
 90
        0
280
     0
281
     0
  0
CLASS
  1
ACAMCOMPDEF
  2
AcAmCompDef
  3
DesignerAssemblies
 90
        0
280
     0
281
     0
  0
CLASS
  1
ACAMCOMPDEFMGR
  2
AcAmCompDefMgr
  3
DesignerAssemblies
 90
        0
280
     0
281
     0
  0
CLASS
  1
AMCONTEXTMGR
  2
AcAmContextMgr
  3
DesignerAssemblies
 90
        0
280
     0
281
     0
  0
CLASS
  1
ACAMCONTEXTMODELER
  2
AcAmContextModeler
  3
DesignerAssemblies
 90
        0
280
     0
281
     0
  0
CLASS
  1
ACDMVIEWGEOM
  2
AcDmViewGeometry
  3
AcMechDwgViewMgmt
 90
    32768
280
     0
281
     1
  0
CLASS
  1
CBROWSERAPPOBJECT
  2
CBrowserAppObject
  3
McadcomServices
 90
        0
280
     0
281
     0
  0
CLASS
  1
IM_STATIC_MAN
  2
AcImStaticVarManager
  3
AcMeServices
 90
        0
280
     0
281
     0
  0
CLASS
  1
ASAPP
  2
AcAsAppObject
  3
AutoSurfServices
 90
        0
280
     0
281
     0
  0
CLASS
  1
ACIMDBLSTATICVAR
  2
AcImDblStaticVar
  3
AcMeServices
 90
        0
280
     0
281
     0
  0
CLASS
  1
ACIMSTRSTATICVAR
  2
AcImStrStaticVar
  3
AcMeServices
 90
        0
280
     0
281
     0
  0
CLASS
  1
ACIMINTSTATICVAR
  2
AcImIntStaticVar
  3
AcMeServices
 90
        0
280
     0
281
     0
  0
CLASS
  1
CATALOGSTATE
  2
AcAmCatalogState
  3
DesignerAssemblies
 90
        0
280
     0
281
     0
  0
CLASS
  1
DM_PLACEHOLDER
  2
AcDmSelsetPlaceholder
  3
AcMechDwgViewMgmt
 90
        0
280
     0
281
     0
  0
CLASS
  1
DICTIONARYVAR
  2
AcDbDictionaryVar
  3
ObjectDBX Classes
 90
        0
280
     0
281
     0
  0
CLASS
  1
ACMSTANDARDJIS
  2
AcmStandardJIS
  3
"Amdt_StdImp|Product Description: AutoCAD Mechanical 2004 DX|Company: Autodesk"
 90
    32768
280
     0
281
     0
  0
CLASS
  1
ACMSTANDARDANSI
  2
AcmStandardANSI
  3
"Amdt_StdImp|Product Description: AutoCAD Mechanical 2004 DX|Company: Autodesk"
 90
    32768
280
     0
281
     0
  0
CLASS
  1
ACMSTANDARDBSI
  2
AcmStandardBSI
  3
"Amdt_StdImp|Product Description: AutoCAD Mechanical 2004 DX|Company: Autodesk"
 90
    32768
280
     0
281
     0
  0
CLASS
  1
ACMSTANDARDDIN
  2
AcmStandardDIN
  3
"Amdt_StdImp|Product Description: AutoCAD Mechanical 2004 DX|Company: Autodesk"
 90
    32768
280
     0
281
     0
  0
CLASS
  1
ACMSTANDARDISO
  2
AcmStandardISO
  3
"Amdt_StdImp|Product Description: AutoCAD Mechanical 2004 DX|Company: Autodesk"
 90
        0
280
     0
281
     0
  0
CLASS
  1
LAYER_INDEX
  2
AcDbLayerIndex
  3
ObjectDBX Classes
 90
        0
280
     0
281
     0
  0
CLASS
  1
IDBUFFER
  2
AcDbIdBuffer
  3
ObjectDBX Classes
 90
        0
280
     0
281
     0
  0
CLASS
  1
ACDBDICTIONARYWDFLT
  2
AcDbDictionaryWithDefault
  3
ObjectDBX Classes
 90
        0
280
     0
281
     0
  0
CLASS
  1
ACDBPLACEHOLDER
  2
AcDbPlaceHolder
  3
ObjectDBX Classes
 90
        0
280
     0
281
     0
  0
CLASS
  1
LAYOUT
  2
AcDbLayout
  3
ObjectDBX Classes
 90
        0
280
     0
281
     0
  0
CLASS
  1
ACME_DOCUMENT
  2
AcMeDbDoc
  3
AcMeServices
 90
        0
280
     0
281
     0
  0
CLASS
  1
AMGSETTINGSOBJ
  2
AmgSettingsObj
  3
"AcadM|Product Description: AutoCAD Mechanical 2000|Company: Autodesk"
 90
        0
280
     0
281
     0
  0
CLASS
  1
AMGOBJPROPCFG
  2
AmgObjPropCfg
  3
"AmgLay|Product Description: AutoCAD Mechanical 2000|Company: Autodesk"
 90
        1
280
     0
281
     0
  0
CLASS
  1
ACDBENTITYCACHE
  2
AcMeEntityCache
  3
AcMeServices
 90
        0
280
     0
281
     0
  0
CLASS
  1
GSMANAGER
  2
AcMeGSManager
  3
AcMeServices
 90
        0
280
     0
281
     0
  0
CLASS
  1
AMDTINTERNALREACTOR
  2
AmdtInternalReactor
  3
AcMeServices
 90
        0
280
     0
281
     0
  0
CLASS
  1
ACME_DATABASE
  2
AcMeDbDatabase
  3
AcMeServices
 90
        0
280
     0
281
     0
  0
CLASS
  1
ACGREFACADMASTER
  2
AcGrefacadMaster
  3
AcGrefServices
 90
        0
280
     0
281
     0
  0
CLASS
  1
AMDTMENUSTATEMGR
  2
AmdtMenuStateMgr
  3
McadcomServices
 90
        0
280
     0
281
     0
  0
CLASS
  1
AMDTMCOMMENUSTATE
  2
AmdtMcomMenuState
  3
McadcomServices
 90
        0
280
     0
281
     0
  0
CLASS
  1
MAPIADMODULE
  2
MApiAdModule
  3
MApiAdServices
 90
        0
280
     0
281
     0
  0
CLASS
  1
AMDTDMMENUSTATE
  2
AmdtDmMenuState
  3
AcMechDwgViewMgmt
 90
        0
280
     0
281
     0
  0
CLASS
  1
AMDTADMENUSTATE
  2
AmdtAdMenuState
  3
DesignerServices
 90
        0
280
     0
281
     0
  0
CLASS
  1
AMDTAMMENUSTATE
  2
AmdtAmMenuState
  3
DesignerAssemblies
 90
        0
280
     0
281
     0
  0
CLASS
  1
ACMDATADICTIONARY
  2
AcmDataDictionary
  3
"AcmSymBB|Product Description: AutoCAD Mechanical 2004 DX|Company: Autodesk"
 90
        0
280
     0
281
     0
  0
CLASS
  1
ACMDATAENTRYBLOCK
  2
AcmDataEntryBlock
  3
"AcmSymBB|Product Description: AutoCAD Mechanical 2004 DX|Company: Autodesk"
 90
        0
280
     0
281
     0
  0
CLASS
  1
AMDTBROWSERDBTAB
  2
AmdtBrowserDbTab
  3
McadcomServices
 90
        0
280
     0
281
     0
  0
CLASS
  1
ACAMGFILTERDAT
  2
AcAmgFilterDat
  3
"AcadM|Product Description: AutoCAD Mechanical 2000|Company: Autodesk"
 90
    32768
280
     0
281
     0
  0
CLASS
  1
MAPIAMMOUDLE
  2
MApiAmModule
  3
MApiAmServices
 90
        0
280
     0
281
     0
  0
CLASS
  1
ACAMEXTERNALCOMPDEF
  2
AcAmExternalCompDef
  3
DesignerAssemblies
 90
    32768
280
     0
281
     0
  0
CLASS
  1
ACCMBODY
  2
AcCmBody
  3
DesignerAssemblies
 90
    32768
280
     0
281
     0
  0
CLASS
  1
ACAMCOMPENT
  2
AcAmCompEnt
  3
DesignerAssemblies
 90
    32768
280
     0
281
     1
  0
CLASS
  1
ACAMCOMPFEEDBACK
  2
AcAmCompFeedback
  3
DesignerAssemblies
 90
    32768
280
     0
281
     0
  0
CLASS
  1
ACAMCOMP
  2
AcAmComp
  3
DesignerAssemblies
 90
    32768
280
     0
281
     0
  0
CLASS
  1
ACAMCOMPENTCLONE
  2
AcAmCompEntClone
  3
DesignerAssemblies
 90
    32768
280
     0
281
     1
  0
CLASS
  1
ACAMCLONEREACTOR
  2
AcAmGrCompCloneReactor
  3
DesignerAssemblies
 90
    32768
280
     0
281
     0
  0
CLASS
  1
ADPART
  2
AcAdPart
  3
DesignerServices
 90
    32768
280
     0
281
     1
  0
CLASS
  1
WORKPLANEDISPLAYMGR
  2
AcAdDisplayMgr
  3
DesignerServices
 90
    32768
280
     0
281
     0
  0
CLASS
  1
PARAM
  2
AcAdParam
  3
DesignerServices
 90
    32768
280
     0
281
     0
  0
CLASS
  1
ADDATUMAXISABS
  2
AcAdDatumAxisAbs
  3
DesignerServices
 90
    32768
280
     0
281
     0
  0
CLASS
  1
ADBASE
  2
AcAdBase
  3
DesignerServices
 90
    32768
280
     0
281
     0
  0
CLASS
  1
ADDATUMPLANEABS
  2
AcAdDatumPlaneAbs
  3
DesignerServices
 90
    32768
280
     0
281
     0
  0
CLASS
  1
BODYID
  2
AcAdBodyId
  3
DesignerServices
 90
    32768
280
     0
281
     0
  0
CLASS
  1
ADDATUMORIENTEDPLANE
  2
AcAdDatumOrientedPlane
  3
DesignerServices
 90
    32768
280
     0
281
     0
  0
CLASS
  1
ACADCONSGROUP
  2
AcAdConstraintGroup
  3
DesignerServices
 90
    32768
280
     0
281
     0
  0
CLASS
  1
ACADREFLINEACAD
  2
AcAdVirtualReferenceLine
  3
DesignerServices
 90
    32768
280
     0
281
     0
  0
CLASS
  1
ACADCONSLINE
  2
AcAdConstrainedLine
  3
DesignerServices
 90
    32768
280
     0
281
     0
  0
CLASS
  1
ACADLINEACAD
  2
AcAdVirtualBoundedLineAcad
  3
DesignerServices
 90
    32768
280
     0
281
     0
  0
CLASS
  1
ACADCONSPOINT
  2
AcAdConstrainedPoint
  3
DesignerServices
 90
    32768
280
     0
281
     0
  0
CLASS
  1
ADPCURCNS
  2
AcAdPointCurveConstr
  3
DesignerServices
 90
    32768
280
     0
281
     0
  0
CLASS
  1
ADHORCNS
  2
AcAdHorizontalConstr
  3
DesignerServices
 90
    32768
280
     0
281
     0
  0
CLASS
  1
ADVERCNS
  2
AcAdVerticalConstr
  3
DesignerServices
 90
    32768
280
     0
281
     0
  0
CLASS
  1
ACAD_FIXCONSTRAINT
  2
AcAdFixedConstraint
  3
DesignerServices
 90
    32768
280
     0
281
     0
  0
CLASS
  1
ADVDISTCNS
  2
AcAdVerticalDistanceConstr
  3
DesignerServices
 90
    32768
280
     0
281
     0
  0
CLASS
  1
ADHDISTCNS
  2
AcAdHorizontalDistanceConstr
  3
DesignerServices
 90
    32768
280
     0
281
     0
  0
CLASS
  1
ACADIMPPTACAD
  2
AcAdVirtualImplicitPoint
  3
DesignerServices
 90
    32768
280
     0
281
     0
  0
CLASS
  1
ADCLPROF2D
  2
AcAdClosedProfile2d
  3
DesignerServices
 90
    32768
280
     0
281
     0
  0
CLASS
  1
DEPEDGEFEATUREORDERING
  2
AcAdDepEdgeFeatureOrdering
  3
DesignerServices
 90
    32768
280
     0
281
     0
  0
CLASS
  1
ACADVOLFEATWITHTRIM
  2
AcAdVolFeatWithTrim
  3
DesignerServices
 90
    32768
280
     0
281
     0
  0
CLASS
  1
ADPLANEID
  2
AcAdPlaneId
  3
DesignerServices
 90
    32768
280
     0
281
     0
  0
CLASS
  1
OSTREFID
  2
AcAdOrientedStraightRefId
  3
DesignerServices
 90
    32768
280
     0
281
     0
  0
CLASS
  1
STREFID
  2
AcAdStraightRefId
  3
DesignerServices
 90
    32768
280
     0
281
     0
  0
CLASS
  1
CNRREFID
  2
AcAdCornerId
  3
DesignerServices
 90
    32768
280
     0
281
     0
  0
CLASS
  1
ADSTRAIGHTID
  2
AcAdStraightId
  3
DesignerServices
 90
    32768
280
     0
281
     0
  0
CLASS
  1
HVREFID
  2
AcAdHVRefId
  3
DesignerServices
 90
    32768
280
     0
281
     0
  0
CLASS
  1
ADDATUMPLANEFACE
  2
AcAdDatumPlaneFace
  3
DesignerServices
 90
    32768
280
     0
281
     0
  0
CLASS
  1
ADDATUMPOINT2EDGES
  2
AcAdDatumPoint2Edges
  3
DesignerServices
 90
    32768
280
     0
281
     0
  0
CLASS
  1
ADDATUMAXISEDGE
  2
AcAdDatumAxisEdge
  3
DesignerServices
 90
    32768
280
     0
281
     0
  0
CLASS
  1
ADHOLEFEAT
  2
AcAdHoleFeat
  3
DesignerServices
 90
    32768
280
     0
281
     0
  0
CLASS
  1
DATUMPLANEDISPLAY
  2
AcAdDatumPlaneDisplay
  3
DesignerServices
 90
    32768
280
     0
281
     1
  0
CLASS
  1
ADDATUMPLANEOFFSET
  2
AcAdDatumPlaneOffset
  3
DesignerServices
 90
    32768
280
     0
281
     0
  0
CLASS
  1
ADDATUMPLANEAXISPLANE
  2
AcAdDatumPlaneAxisPlane
  3
DesignerServices
 90
    32768
280
     0
281
     0
  0
CLASS
  1
ADSURFGEOMID
  2
AcAdSurfGeomId
  3
DesignerServices
 90
    32768
280
     0
281
     0
  0
CLASS
  1
EDGEID
  2
AcAdEdgeId
  3
DesignerServices
 90
    32768
280
     0
281
     0
  0
CLASS
  1
ACADLINEDEPID
  2
AcAdVirtualLineDepId
  3
DesignerServices
 90
    32768
280
     0
281
     0
  0
CLASS
  1
ADCOLNCNS
  2
AcAdColinearConstr
  3
DesignerServices
 90
    32768
280
     0
281
     0
  0
CLASS
  1
ACADBOUNDEDLINEDATUMID
  2
AcAdVirtualBoundedLineDatumId
  3
DesignerServices
 90
    32768
280
     0
281
     0
  0
CLASS
  1
DATUMAXISDISPLAY
  2
AcAdDatumAxisDisplay
  3
DesignerServices
 90
    32768
280
     0
281
     1
  0
CLASS
  1
ADDATUMAXISCENTER
  2
AcAdDatumAxisCenter
  3
DesignerServices
 90
    32768
280
     0
281
     0
  0
CLASS
  1
ACADCIRCLEACAD
  2
AcAdVirtualCircleAcad
  3
DesignerServices
 90
    32768
280
     0
281
     0
  0
CLASS
  1
ACADCONSCIRCLE
  2
AcAdConstrainedCircle
  3
DesignerServices
 90
    32768
280
     0
281
     0
  0
CLASS
  1
ADCTRPTCNS
  2
AcAdCenterPointConstr
  3
DesignerServices
 90
    32768
280
     0
281
     0
  0
CLASS
  1
ADACADDIACNS
  2
AcAdAcadDiameterConstr
  3
DesignerServices
 90
    32768
280
     0
281
     0
  0
CLASS
  1
ACADPOINTDEPID
  2
AcAdVirtualPointDepId
  3
DesignerServices
 90
    32768
280
     0
281
     0
  0
CLASS
  1
ADDATUMPOINTAXISPLANE
  2
AcAdDatumPointAxisPlane
  3
DesignerServices
 90
    32768
280
     0
281
     0
  0
CLASS
  1
ADFILLET
  2
AcAdFillet
  3
DesignerServices
 90
    32768
280
     0
281
     0
  0
CLASS
  1
ADFEATRECTARRAY
  2
AcAdRectangularFeatArray
  3
DesignerServices
 90
    32768
280
     0
281
     0
  0
CLASS
  1
DEPEDGESECONDARYDEPID
  2
AcAdDepEdgeSecondaryDepId
  3
DesignerServices
 90
    32768
280
     0
281
     0
  0
CLASS
  1
CIRREFID
  2
AcAdCircleRefId
  3
DesignerServices
 90
    32768
280
     0
281
     0
  0
CLASS
  1
ACADCIRCDEPID
  2
AcAdVirtualCircleDepId
  3
DesignerServices
 90
    32768
280
     0
281
     0
  0
CLASS
  1
ADVIRTUALPOINTWORKPOINTFREE
  2
AcAdVirtualPointWorkPointFree
  3
DesignerServices
 90
    32768
280
     0
281
     0
  0
CLASS
  1
ADWORKPOINTDISPLAY
  2
AcAdWorkPointDisplay
  3
DesignerServices
 90
    32768
280
     0
281
     1
  0
CLASS
  1
ADWORKPOINTSKETCH
  2
AcAdWorkPointSketch
  3
DesignerServices
 90
    32768
280
     0
281
     0
  0
CLASS
  1
FACEID
  2
AcAdFaceId
  3
DesignerServices
 90
    32768
280
     0
281
     0
  0
CLASS
  1
ACAMGROUNDEDBASECOMP
  2
AcAmGroundedBaseComp
  3
DesignerAssemblies
 90
    32768
280
     0
281
     0
  0
CLASS
  1
SILEDGEID
  2
AcAdSilhouetteEdgeId
  3
DesignerServices
 90
    32768
280
     0
281
     0
  0
CLASS
  1
ADCONCCNS
  2
AcAdConcentricConstr
  3
DesignerServices
 90
    32768
280
     0
281
     0
  0
CLASS
  1
ACADPARTCIRCEDGRES
  2
AcAdPartCircEdgRes
  3
AdGrefServices
 90
    32768
280
     0
281
     0
  0
CLASS
  1
ACRFINSADJ
  2
AcRfInsAdjuster
  3
AcMeServices
 90
    32768
280
     0
281
     0
  0
CLASS
  1
ACADPARTPLANARFACERES
  2
AcAdPartPlanarFaceRes
  3
AdGrefServices
 90
    32768
280
     0
281
     0
  0
CLASS
  1
ACMELINEARARROW
  2
AcImLinearArrowDisplay
  3
AcMeServices
 90
    32768
280
     0
281
     1
  0
CLASS
  1
ACAMEXPR
  2
AcAmExpr
  3
DesignerAssemblies
 90
    32768
280
     0
281
     0
  0
CLASS
  1
ACCMINSERTPLPL
  2
AcCmInsertPlPl
  3
AcCmServices
 90
    32768
280
     0
281
     0
  0
CLASS
  1
ACCMCONSTREACTOR
  2
AcCmConstraintReactor
  3
DesignerAssemblies
 90
    32768
280
     0
281
     0
  0
CLASS
  1
ACAD_CIRCLE
  2
AcAdCircle
  3
DesignerServices
 90
    32768
280
     0
281
     1
  0
CLASS
  1
ADCONSTDSP
  2
AcAdConstraintDisplayTag
  3
DesignerServices
 90
    32768
280
     0
281
     1
  0
CLASS
  1
ADCONSDISP
  2
AcAdConstraintDisplay
  3
DesignerServices
 90
    32768
280
     0
281
     1
  0
CLASS
  1
ACMEPOINT
  2
AcImPointDisplay
  3
AcMeServices
 90
    32768
280
     0
281
     1
  0
CLASS
  1
ACMEPLINE
  2
AcImPlineDisplay
  3
AcMeServices
 90
    32768
280
     0
281
     1
  0
CLASS
  1
ACMECIRCARC
  2
AcImCircArcDisplay
  3
AcMeServices
 90
    32768
280
     0
281
     1
  0
CLASS
  1
ACADPARTCYLINDERFACERES
  2
AcAdPartCylinderFaceRes
  3
AdGrefServices
 90
    32768
280
     0
281
     0
  0
CLASS
  1
ACADPARTAXISRES
  2
AcAdPartAxisRes
  3
AdGrefServices
 90
    32768
280
     0
281
     0
  0
CLASS
  1
ACADPARTDATUMPLANERES
  2
AcAdPartDatumPlaneRes
  3
AdGrefServices
 90
    32768
280
     0
281
     0
  0
CLASS
  1
ADDATUMPLANETANGENTPLANE
  2
AcAdDatumPlaneTangentPlane
  3
DesignerServices
 90
    32768
280
     0
281
     0
  0
CLASS
  1
ACADPARTDATUMPOINTRES
  2
AcAdPartDatumPointRes
  3
AdGrefServices
 90
    32768
280
     0
281
     0
  0
CLASS
  1
ADPROJCNS
  2
AcAdProjectionConstr
  3
DesignerServices
 90
    32768
280
     0
281
     0
  0
CLASS
  1
ACADSKETCHPOINTRES
  2
AcAdSketchPointRes
  3
DesignerServices
 90
    32768
280
     0
281
     0
  0
CLASS
  1
ACADSKETCHLINERES
  2
AcAdSketchLineRes
  3
DesignerServices
 90
    32768
280
     0
281
     0
  0
CLASS
  1
ACAD_LINE
  2
AcAdLine
  3
DesignerServices
 90
    32768
280
     0
281
     1
  0
CLASS
  1
ADPERPCNS
  2
AcAdPerpendicularConstr
  3
DesignerServices
 90
    32768
280
     0
281
     0
  0
CLASS
  1
ADVIRTUALPOINTWORKPOINTFIXED
  2
AcAdVirtualPointWorkPointFixed
  3
DesignerServices
 90
    32768
280
     0
281
     0
  0
CLASS
  1
NEWSTDPARTPARLIST
  2
AmgNewParListFiler
  3
"AmgParList|Product Description: AutoCAD Mechanical 2000|Company: Autodesk"
 90
    33791
280
     0
281
     0
  0
CLASS
  1
ACMSURFSTANDARDANSI
  2
AcmSurfTextStdANSI
  3
"Amdt_StdImp|Product Description: AutoCAD Mechanical 2004 DX|Company: Autodesk"
 90
    32768
280
     0
281
     0
  0
CLASS
  1
ACMFCFSTANDARDANSI
  2
AcmFCFStdANSI
  3
"Amdt_StdImp|Product Description: AutoCAD Mechanical 2004 DX|Company: Autodesk"
 90
    32768
280
     0
281
     0
  0
CLASS
  1
ACMWELDSTANDARDANSI
  2
AcmWeldingStdANSI
  3
"Amdt_StdImp|Product Description: AutoCAD Mechanical 2004 DX|Company: Autodesk"
 90
    32768
280
     0
281
     0
  0
CLASS
  1
ACMIDSTANDARDANSI
  2
AcmIdStdANSI
  3
"Amdt_StdImp|Product Description: AutoCAD Mechanical 2004 DX|Company: Autodesk"
 90
    32768
280
     0
281
     0
  0
CLASS
  1
ACMDATUMSTANDARDANSI
  2
AcmDatumStdANSI
  3
"Amdt_StdImp|Product Description: AutoCAD Mechanical 2004 DX|Company: Autodesk"
 90
    32768
280
     0
281
     0
  0
CLASS
  1
ACMBOMSTANDARDANSI
  2
AcmBOMStdANSI
  3
"Amdt_StdImp|Product Description: AutoCAD Mechanical 2004 DX|Company: Autodesk"
 90
    32768
280
     0
281
     0
  0
CLASS
  1
ACAMGRBLOCKRECORD
  2
AcAmGrBlockRecord
  3
DesignerAssemblies
 90
    32768
280
     0
281
     0
  0
CLASS
  1
ACAMVIEWREACTOR
  2
AcAmViewReactor
  3
DesignerAssemblies
 90
    32768
280
     0
281
     0
  0
CLASS
  1
AMVIEW
  2
AcAmView
  3
DesignerAssemblies
 90
    32768
280
     0
281
     0
  0
CLASS
  1
ACAMVIEWCONTEXT
  2
AcAmViewContext
  3
DesignerAssemblies
 90
    32768
280
     0
281
     0
  0
CLASS
  1
ACAMCOMPVIEWREACTOR
  2
AcAmGrCompViewReactor
  3
DesignerAssemblies
 90
    32768
280
     0
281
     0
  0
CLASS
  1
ACAMCOMPENTVIEW
  2
AcAmCompEntView
  3
DesignerAssemblies
 90
    32768
280
     0
281
     1
  0
CLASS
  1
ACAMVIEWENTITYFILTER
  2
AcAmViewEntityFilter
  3
DesignerAssemblies
 90
    32768
280
     0
281
     0
  0
CLASS
  1
AM_GREF_PLANE
  2
AcDmGrefPlnDef
  3
AcMechDwgViewMgmt
 90
    32768
280
     0
281
     0
  0
CLASS
  1
AM_ABS_AXIS
  2
AcDmAbsAxisDef
  3
AcMechDwgViewMgmt
 90
    32768
280
     0
281
     0
  0
CLASS
  1
AM_BASE_VIEW_ORIENT
  2
AcDmBaseViewOr
  3
AcMechDwgViewMgmt
 90
    32768
280
     0
281
     0
  0
CLASS
  1
AM_DWG_VIEWPORT
  2
AcDmViewport
  3
AcMechDwgViewMgmt
 90
    32768
280
     0
281
     0
  0
CLASS
  1
AM_VIEW_DISPLAY
  2
AcDmDwgViewDisplay
  3
AcMechDwgViewMgmt
 90
    32768
280
     0
281
     0
  0
CLASS
  1
AM_CLDFLTS
  2
AcDmClDflts
  3
AcMechDwgViewMgmt
 90
    32768
280
     0
281
     0
  0
CLASS
  1
AM_BASE_VIEW
  2
AcDmBaseView
  3
AcMechDwgViewMgmt
 90
    32768
280
     0
281
     0
  0
CLASS
  1
ACDMVWEDLINE
  2
AcDmViewEdgeLine
  3
AcMechDwgViewMgmt
 90
    32768
280
     0
281
     1
  0
CLASS
  1
ACDMVWEDCIRC
  2
AcDmViewEdgeCircle
  3
AcMechDwgViewMgmt
 90
    32768
280
     0
281
     1
  0
CLASS
  1
ACDMVWEDARC
  2
AcDmViewEdgeArc
  3
AcMechDwgViewMgmt
 90
    32768
280
     0
281
     1
  0
CLASS
  1
AM_ADCIRCTRLINE
  2
AcAdBullsEyeCl
  3
DesignerServices
 90
    32768
280
     0
281
     0
  0
CLASS
  1
AD_CIRCTAPH
  2
AcAdTapHoleCircDisp
  3
DesignerServices
 90
    32768
280
     0
281
     0
  0
CLASS
  1
AM_ORTHO_VIEW_ORIENT
  2
AcDmOrthoViewOr
  3
AcMechDwgViewMgmt
 90
    32768
280
     0
281
     0
  0
CLASS
  1
AM_ORTHO_VIEW
  2
AcDmOrthoView
  3
AcMechDwgViewMgmt
 90
    32768
280
     0
281
     0
  0
CLASS
  1
AM_GREF_POINT
  2
AcDmGrefPntDef
  3
AcMechDwgViewMgmt
 90
    32768
280
     0
281
     0
  0
CLASS
  1
AM_FULLPOINTSECTION
  2
AcDmFullPointSection
  3
AcMechDwgViewMgmt
 90
    32768
280
     0
281
     0
  0
CLASS
  1
AM_SECTIONSYMBOL
  2
AcDmSectionSymbol
  3
AcMechDwgViewMgmt
 90
    32768
280
     0
281
     0
  0
CLASS
  1
AM_VIEWLABEL
  2
AcDmViewLabel
  3
AcMechDwgViewMgmt
 90
    32768
280
     0
281
     0
  0
CLASS
  1
ACDMVWEDSPLINE
  2
AcDmViewEdgeSpline
  3
AcMechDwgViewMgmt
 90
    32768
280
     0
281
     1
  0
CLASS
  1
ACDMVWEDELLIPSE
  2
AcDmViewEdgeEllipse
  3
AcMechDwgViewMgmt
 90
    32768
280
     0
281
     1
  0
CLASS
  1
AM_ADLINCTRLINE
  2
AcAdLineCl
  3
DesignerServices
 90
    32768
280
     0
281
     0
  0
CLASS
  1
AD_LINETAPH
  2
AcAdTapHoleLineDisp
  3
DesignerServices
 90
    32768
280
     0
281
     0
  0
CLASS
  1
ACDMGREFEDIT
  2
AcDmViewEntityGeomrefEdit
  3
AcMechDwgViewMgmt
 90
    32768
280
     0
281
     0
  0
CLASS
  1
ACDMVIEWLINEDGERES
  2
AcDmViewLinEdgeRes
  3
AcMechDwgViewMgmt
 90
    32768
280
     0
281
     0
  0
CLASS
  1
AM_VIEWDIMLINEAR
  2
AcDmViewDimLinear
  3
AcMechDwgViewMgmt
 90
    32768
280
     0
281
     0
  0
CLASS
  1
ACRFATTGENMGR
  2
AcRfAttGeneralMgr
  3
AcAttribServices
 90
    32768
280
     0
281
     0
  0
CLASS
  1
AM_HALFPOINTSECTION
  2
AcDmHalfPointSection
  3
AcMechDwgViewMgmt
 90
    32768
280
     0
281
     0
  0
CLASS
  1
AMDTMAPISURFMOUDULE
  2
AmdtMApiSurfModule
  3
MApiSurfServices
 90
        0
280
     0
281
     0
  0
CLASS
  1
ACDMPARTVIEWDATA
  2
AcDmPartViewData
  3
AcMechDwgViewMgmt
 90
    32768
280
     0
281
     0
  0
CLASS
  1
ACDMDISPLAYATTRIBS
  2
AcDmDisplayAttribs
  3
AcMechDwgViewMgmt
 90
    32768
280
     0
281
     0
  0
CLASS
  1
ACDMBODYINSTANCEDATA
  2
AcDmBodyInstanceData
  3
AcMechDwgViewMgmt
 90
    32768
280
     0
281
     0
  0
CLASS
  1
AMDTFORMULAUPDATEDISPATCHER
  2
AmdtFormulaUpdateDispatcher
  3
AcMeServices
 90
    32768
280
     0
281
     0
  0
CLASS
  1
ACAMGTITLESTD
  2
AcAmgTitleStd
  3
"TITLEAPP"
 90
        0
280
     0
281
     0
  0
CLASS
  1
ACMDETAILSTANDARDANSI
  2
AmdtDetailSymStdANSI
  3
"Amdt_StdImp|Product Description: AutoCAD Mechanical 2004 DX|Company: Autodesk"
 90
    32768
280
     0
281
     0
  0
CLASS
  1
ACMSECTIONSTANDARDANSI
  2
AmdtSectionSymStdANSI
  3
"Amdt_StdImp|Product Description: AutoCAD Mechanical 2004 DX|Company: Autodesk"
 90
    32768
280
     0
281
     0
  0
CLASS
  1
ACMCENTERLINESTANDARDANSI
  2
AmdtCenterLineStdANSI
  3
"Amdt_StdImp|Product Description: AutoCAD Mechanical 2004 DX|Company: Autodesk"
 90
    32768
280
     0
281
     0
  0
CLASS
  1
ACMTHREADLINESTANDARDANSI
  2
AmdtThreadLineStdANSI
  3
"Amdt_StdImp|Product Description: AutoCAD Mechanical 2004 DX|Company: Autodesk"
 90
    32768
280
     0
281
     0
  0
CLASS
  1
ACMNOTESTANDARDANSI
  2
AmdtNoteStdANSI
  3
"Amdt_StdImp|Product Description: AutoCAD Mechanical 2004 DX|Company: Autodesk"
 90
    32768
280
     0
281
     0
  0
CLASS
  1
ACAMGLAYSTD
  2
AcAmgLayStd
  3
"AcAmgLayStd|Product Description: AutoCAD Mechanical 2000|Company: Autodesk"
 90
        0
280
     0
281
     0
  0
CLASS
  1
ACAMGDIMSTD
  2
AcAmgDimStd
  3
"AcAmgDimStd|Product Description: AutoCAD Mechanical 2000|Company: Autodesk"
 90
        0
280
     0
281
     0
  0
CLASS
  1
ACAMGHOLECHARTSTDANSI
  2
AcAmgHoleChartStdANSI
  3
ACMSYMBB_MODULE_NAME
 90
    32768
280
     0
281
     0
  0
CLASS
  1
AM_ABS_PLANE
  2
AcDmAbsPlnDef
  3
AcMechDwgViewMgmt
 90
    32768
280
     0
281
     0
  0
CLASS
  1
ACADPARTPOINTRES
  2
AcAdPartPointRes
  3
AdGrefServices
 90
    32768
280
     0
281
     0
  0
CLASS
  1
ACDBLINERES
  2
AcDbLineRes
  3
AcGrefServices
 90
    32768
280
     0
281
     0
  0
CLASS
  1
ACADPARTLINEDGRES
  2
AcAdPartLinEdgRes
  3
AdGrefServices
 90
    32768
280
     0
281
     0
  0
CLASS
  1
AM_GREF_AXIS
  2
AcDmGrefAxisDef
  3
AcMechDwgViewMgmt
 90
    32768
280
     0
281
     0
  0
CLASS
  1
ACADPARTSPLINEEDGERES
  2
AcAdPartSplineEdgeRes
  3
AdGrefServices
 90
    32768
280
     0
281
     0
  0
CLASS
  1
AMDTEDGESTANDARDISO
  2
AmdtEdgeStdISO
  3
"Amdt_StdImp|Product Description: AutoCAD Mechanical 2004 DX|Company: Autodesk"
 90
    32768
280
     0
281
     0
  0
CLASS
  1
ACMSURFSTANDARDISO
  2
AcmSurfTextStdISO
  3
"Amdt_StdImp|Product Description: AutoCAD Mechanical 2004 DX|Company: Autodesk"
 90
        0
280
     0
281
     0
  0
CLASS
  1
ACMFCFSTANDARDISO
  2
AcmFCFStdISO
  3
"Amdt_StdImp|Product Description: AutoCAD Mechanical 2004 DX|Company: Autodesk"
 90
        0
280
     0
281
     0
  0
CLASS
  1
ACMWELDSTANDARDISO
  2
AcmWeldingStdISO
  3
"Amdt_StdImp|Product Description: AutoCAD Mechanical 2004 DX|Company: Autodesk"
 90
        0
280
     0
281
     0
  0
CLASS
  1
ACMIDSTANDARDISO
  2
AcmIdStdISO
  3
"Amdt_StdImp|Product Description: AutoCAD Mechanical 2004 DX|Company: Autodesk"
 90
        0
280
     0
281
     0
  0
CLASS
  1
ACMDATUMSTANDARDISO
  2
AcmDatumStdISO
  3
"Amdt_StdImp|Product Description: AutoCAD Mechanical 2004 DX|Company: Autodesk"
 90
        0
280
     0
281
     0
  0
CLASS
  1
ACMBOMSTANDARDISO
  2
AcmBOMStdISO
  3
"Amdt_StdImp|Product Description: AutoCAD Mechanical 2004 DX|Company: Autodesk"
 90
        0
280
     0
281
     0
  0
CLASS
  1
ACMDETAILSTANDARDISO
  2
AmdtDetailSymStdISO
  3
"Amdt_StdImp|Product Description: AutoCAD Mechanical 2004 DX|Company: Autodesk"
 90
        0
280
     0
281
     0
  0
CLASS
  1
ACMSECTIONSTANDARDISO
  2
AmdtSectionSymStdISO
  3
"Amdt_StdImp|Product Description: AutoCAD Mechanical 2004 DX|Company: Autodesk"
 90
        0
280
     0
281
     0
  0
CLASS
  1
ACMCENTERLINESTANDARDISO
  2
AmdtCenterLineStdISO
  3
"Amdt_StdImp|Product Description: AutoCAD Mechanical 2004 DX|Company: Autodesk"
 90
        0
280
     0
281
     0
  0
CLASS
  1
ACMNOTESTANDARDISO
  2
AmdtNoteStdISO
  3
"Amdt_StdImp|Product Description: AutoCAD Mechanical 2004 DX|Company: Autodesk"
 90
        0
280
     0
281
     0
  0
CLASS
  1
ACAMGHOLECHARTSTDISO
  2
AcAmgHoleChartStdISO
  3
ACMSYMBB_MODULE_NAME
 90
        0
280
     0
281
     0
  0
CLASS
  1
TABLESTYLE
  2
AcDbTableStyle
  3
ObjectDBX Classes
 90
     2047
280
     0
281
     0
  0
CLASS
  1
AMDTEDGESTANDARDISO13715
  2
AmdtEdgeStdISO13715
  3
"Amdt_StdImp|Product Description: AutoCAD Mechanical 2004 DX|Company: Autodesk"
 90
        0
280
     0
281
     0
  0
CLASS
  1
ACMTHREADLINESTANDARDISO
  2
AmdtThreadLineStdISO
  3
"Amdt_StdImp|Product Description: AutoCAD Mechanical 2004 DX|Company: Autodesk"
 90
        0
280
     0
281
     0
  0
CLASS
  1
AMDTNOTETEMPLATEDB
  2
AmdtNoteTemplateDB
  3
AMDT_STDIMP_MODULE_NAME
 90
        0
280
     0
281
     0
  0
CLASS
  1
ACMDIMBREAKPERSREACTOR
  2
AcmDimBreakPersReactor
  3
amgDimApp().moduleName()
 90
     1023
280
     0
281
     0
  0
CLASS
  1
SORTENTSTABLE
  2
AcDbSortentsTable
  3
ObjectDBX Classes
 90
        0
280
     0
281
     0
  0
ENDSEC
  0
SECTION
  2
TABLES
  0
TABLE
  2
VPORT
  5
1A
330
0
100
AcDbSymbolTable
 70
     9
  0
VPORT
  5
FD2F
330
1A
100
AcDbSymbolTableRecord
100
AcDbViewportTableRecord
  2
*Active
 70
     0
 10
0.0
 20
0.0
 11
1.0
 21
1.0
 12
25.82672360173365
 22
0.3079529988071954
 13
0.0
 23
0.0
 14
0.5
 24
0.5
 15
0.5
 25
0.5
 16
0.0
 26
0.0
 36
1.0
 17
1209.389166393951
 27
778.6765553132632
 37
0.0
 40
20.20505071596499
 41
0.9815602836879431
 42
50.0
 43
0.0
 44
0.0
 50
0.0
 51
0.0
 71
     0
 72
   100
 73
     1
 74
     1
 75
     0
 76
     1
 77
     0
 78
     0
281
     0
 65
     0
110
0.0
120
0.0
130
0.0
111
1.0
121
0.0
131
0.0
112
0.0
122
1.0
132
0.0
 79
     0
146
0.0
  0
ENDTAB
  0
TABLE
  2
LTYPE
  5
15
330
0
100
AcDbSymbolTable
 70
    18
  0
LTYPE
  5
16
330
15
100
AcDbSymbolTableRecord
100
AcDbLinetypeTableRecord
  2
BYBLOCK
 70
     0
  3

 72
    65
 73
     0
 40
0.0
  0
LTYPE
  5
17
330
15
100
AcDbSymbolTableRecord
100
AcDbLinetypeTableRecord
  2
BYLAYER
 70
     0
  3

 72
    65
 73
     0
 40
0.0
  0
LTYPE
  5
9
330
15
100
AcDbSymbolTableRecord
100
AcDbLinetypeTableRecord
  2
CONTINUOUS
 70
     0
  3
Solid line
 72
    65
 73
     0
 40
0.0
  0
LTYPE
  5
2B
330
15
100
AcDbSymbolTableRecord
100
AcDbLinetypeTableRecord
  2
CENTER
 70
     0
  3
____ _ ____ _ ____ _ ____ _ ____ _ ____ _ ____ 
 72
    65
 73
     4
 40
2.0
 49
1.25
 74
     0
 49
-0.25
 74
     0
 49
0.25
 74
     0
 49
-0.25
 74
     0
  0
LTYPE
  5
39
330
15
100
AcDbSymbolTableRecord
100
AcDbLinetypeTableRecord
  2
HIDDEN2
 70
     0
  3
Hidden (.5x) _ _ _ _ _ _ _ _ _ _ _ _ _ _ _ _ _
 72
    65
 73
     2
 40
4.762499999999999
 49
3.174999999999999
 74
     0
 49
-1.587499999999999
 74
     0
  0
LTYPE
  5
2303
330
15
100
AcDbSymbolTableRecord
100
AcDbLinetypeTableRecord
  2
DASHED
 70
     0
  3
__ __ __ __ __ __ __ __ __ __ __ __ __ __ __ __
 72
    65
 73
     2
 40
0.75
 49
0.5
 74
     0
 49
-0.25
 74
     0
  0
LTYPE
  5
242F
330
15
100
AcDbSymbolTableRecord
100
AcDbLinetypeTableRecord
  2
HIDDEN
 70
     0
  3
Hidden __ __ __ __ __ __ __ __ __ __ __ __ __ _
 72
    65
 73
     2
 40
9.524999999999998
 49
6.349999999999999
 74
     0
 49
-3.174999999999999
 74
     0
  0
LTYPE
  5
F639
330
15
100
AcDbSymbolTableRecord
100
AcDbLinetypeTableRecord
  2
AM_ISO02W050
 70
     0
  3
__ __ __ __ __ __ __ __ __ __ __ __ __ __ __
 72
    65
 73
     2
 40
7.5
 49
6.0
 74
     0
 49
-1.5
 74
     0
  0
LTYPE
  5
F63A
330
15
100
AcDbSymbolTableRecord
100
AcDbLinetypeTableRecord
  2
AM_ISO08W050
 70
     0
  3
____ . ____ . ____ . ____ . ____ . ____ . ____
 72
    65
 73
     4
 40
18.0
 49
12.0
 74
     0
 49
-1.5
 74
     0
 49
3.0
 74
     0
 49
-1.5
 74
     0
  0
LTYPE
  5
F63B
330
15
100
AcDbSymbolTableRecord
100
AcDbLinetypeTableRecord
  2
AM_ISO09W050
 70
     0
  3
_____ . . _____ . . _____ . . ____ .. ____
 72
    65
 73
     6
 40
22.5
 49
12.0
 74
     0
 49
-1.5
 74
     0
 49
3.0
 74
     0
 49
-1.5
 74
     0
 49
3.0
 74
     0
 49
-1.5
 74
     0
  0
LTYPE
  5
F63C
330
15
100
AcDbSymbolTableRecord
100
AcDbLinetypeTableRecord
  2
Amconstr
 70
     0
  3
_______________________
 72
    65
 73
     2
 40
9999.0
 49
9999.0
 74
     0
 49
0.0
 74
     0
  0
LTYPE
  5
F63D
330
15
100
AcDbSymbolTableRecord
100
AcDbLinetypeTableRecord
  2
AM_ISO08W050x2
 70
     0
  3
__ . __ . __ . __ . __ . __
 72
    65
 73
     4
 40
9.0
 49
6.0
 74
     0
 49
-0.75
 74
     0
 49
1.5
 74
     0
 49
-0.75
 74
     0
  0
LTYPE
  5
F63E
330
15
100
AcDbSymbolTableRecord
100
AcDbLinetypeTableRecord
  2
AM_ISO02W050x2
 70
     0
  3
 _ _ _ _ _ _ _ _ _ _ _ _
 72
    65
 73
     2
 40
3.75
 49
3.0
 74
     0
 49
-0.75
 74
     0
  0
LTYPE
  5
F641
330
15
100
AcDbSymbolTableRecord
100
AcDbLinetypeTableRecord
  2
Amzigzag
 70
     0
  3
/\/-/\/-/\/-/\/-/\/-/\/
 72
    65
 73
     2
 40
11.0001
 49
0.0001
 74
     4
 75
   135
340
F640
 46
0.04
 50
0.0
 44
0.0
 45
0.0
 49
-11.0
 74
     0
  0
LTYPE
  5
F64F
330
15
100
AcDbSymbolTableRecord
100
AcDbLinetypeTableRecord
  2
ACISOWELD
 70
     0
  3
_ _ _ _ _
 72
    65
 73
     2
 40
2.0
 49
2.0
 74
     0
 49
-1.0
 74
     0
  0
LTYPE
  5
F650
330
15
100
AcDbSymbolTableRecord
100
AcDbLinetypeTableRecord
  2
ACISOTGB
 70
     0
  3
__ . . __ . .
 72
    65
 73
     6
 40
9.0
 49
4.0
 74
     0
 49
-1.0
 74
     0
 49
1.0
 74
     0
 49
-1.0
 74
     0
 49
1.0
 74
     0
 49
-1.0
 74
     0
  0
LTYPE
  5
F651
330
15
100
AcDbSymbolTableRecord
100
AcDbLinetypeTableRecord
  2
ACISOTGL
 70
     0
  3
_ _ _ _ _
 72
    65
 73
     2
 40
3.0
 49
2.0
 74
     0
 49
-1.0
 74
     0
  0
LTYPE
  5
F92B
330
15
100
AcDbSymbolTableRecord
100
AcDbLinetypeTableRecord
  2
PHANTOM2
 70
     0
  3
Phantom (.5x) ___ _ _ ___ _ _ ___ _ _ ___ _ _
 72
    65
 73
     6
 40
31.75
 49
15.875
 74
     0
 49
-3.174999999999999
 74
     0
 49
3.174999999999999
 74
     0
 49
-3.174999999999999
 74
     0
 49
3.174999999999999
 74
     0
 49
-3.174999999999999
 74
     0
  0
ENDTAB
  0
TABLE
  2
LAYER
  5
11
102
{ACAD_XDICTIONARY
360
F9DB
102
}
330
0
100
AcDbSymbolTable
 70
     9
  0
LAYER
  5
5
330
11
100
AcDbSymbolTableRecord
100
AcDbLayerTableRecord
  2
0
 70
     0
 62
     7
  6
CONTINUOUS
370
    -3
390
6
  0
LAYER
  5
8B
330
11
100
AcDbSymbolTableRecord
100
AcDbLayerTableRecord
  2
AM_VIS
 70
     0
 62
     7
  6
CONTINUOUS
370
    30
390
6
  0
LAYER
  5
2A
330
11
100
AcDbSymbolTableRecord
100
AcDbLayerTableRecord
  2
AM_7
 70
     0
 62
     1
  6
CENTER
370
    15
390
6
  0
LAYER
  5
38
330
11
100
AcDbSymbolTableRecord
100
AcDbLayerTableRecord
  2
AM_4
 70
     0
 62
     5
  6
CONTINUOUS
370
    30
390
6
  0
LAYER
  5
1F8
330
11
100
AcDbSymbolTableRecord
100
AcDbLayerTableRecord
  2
DIM
 70
     0
 62
     5
  6
CONTINUOUS
370
    -3
390
6
  0
LAYER
  5
1FA
330
11
100
AcDbSymbolTableRecord
100
AcDbLayerTableRecord
  2
Defpoints
 70
     0
 62
     7
  6
CONTINUOUS
290
     0
370
    -3
390
6
  0
LAYER
  5
1FDE
330
11
100
AcDbSymbolTableRecord
100
AcDbLayerTableRecord
  2
LOGO
 70
     0
 62
     7
  6
CONTINUOUS
370
    -3
390
6
  0
LAYER
  5
2431
330
11
100
AcDbSymbolTableRecord
100
AcDbLayerTableRecord
  2
AM_HID
 70
     0
 62
     5
  6
HIDDEN
370
    50
390
6
  0
LAYER
  5
FC84
330
11
100
AcDbSymbolTableRecord
100
AcDbLayerTableRecord
  2
SL
 70
     0
 62
     2
  6
CONTINUOUS
370
    -3
390
6
1001
AcAecLayerStandard
1000

1000

  0
ENDTAB
  0
TABLE
  2
STYLE
  5
12
330
0
100
AcDbSymbolTable
 70
     7
  0
STYLE
  5
13
330
12
100
AcDbSymbolTableRecord
100
AcDbTextStyleTableRecord
  2
STANDARD
 70
     0
 40
0.0
 41
1.0
 50
0.0
 71
     0
 42
0.2
  3
txt
  4

  0
STYLE
  5
21
330
12
100
AcDbSymbolTableRecord
100
AcDbTextStyleTableRecord
  2
DAYUS
 70
     0
 40
0.0
 41
1.0
 50
0.0
 71
     0
 42
3.0
  3
simplex.shx
  4
dayus.shx
  0
STYLE
  5
208
330
12
100
AcDbSymbolTableRecord
100
AcDbTextStyleTableRecord
  2
CHINESET
 70
     0
 40
0.0
 41
1.0
 50
0.0
 71
     0
 42
0.5
  3
simplex.shx
  4
chineset.shx
  0
STYLE
  5
F640
330
12
100
AcDbSymbolTableRecord
100
AcDbTextStyleTableRecord
  2

 70
     1
 40
0.0
 41
1.0
 50
0.0
 71
     0
 42
0.5
  3
ltypeshp.shx
  4

  0
STYLE
  5
F642
330
12
100
AcDbSymbolTableRecord
100
AcDbTextStyleTableRecord
  2
ACISOTS
 70
     0
 40
1.0
 41
1.0
 50
0.0
 71
     0
 42
0.5
  3
isocp.shx
  4
chineset.shx
  0
STYLE
  5
F64E
330
12
100
AcDbSymbolTableRecord
100
AcDbTextStyleTableRecord
  2
ACISOGDT
 70
     0
 40
0.0
 41
1.0
 50
0.0
 71
     0
 42
0.5
  3
amgdt.shx
  4

  0
ENDTAB
  0
TABLE
  2
VIEW
  5
18
330
0
100
AcDbSymbolTable
 70
     0
  0
ENDTAB
  0
TABLE
  2
UCS
  5
19
330
0
100
AcDbSymbolTable
 70
     0
  0
ENDTAB
  0
TABLE
  2
APPID
  5
1C
330
0
100
AcDbSymbolTable
 70
    23
  0
APPID
  5
1D
330
1C
100
AcDbSymbolTableRecord
100
AcDbRegAppTableRecord
  2
ACAD
 70
     0
  0
APPID
  5
F61B
330
1C
100
AcDbSymbolTableRecord
100
AcDbRegAppTableRecord
  2
MCAD_NO_VIS
 70
     0
  0
APPID
  5
F61C
330
1C
100
AcDbSymbolTableRecord
100
AcDbRegAppTableRecord
  2
ACAD_TEMP_GRAPHIC
 70
     0
  0
APPID
  5
F62D
330
1C
100
AcDbSymbolTableRecord
100
AcDbRegAppTableRecord
  2
ACATTRIBSERVICES
 70
     0
  0
APPID
  5
F662
330
1C
100
AcDbSymbolTableRecord
100
AcDbRegAppTableRecord
  2
GENIUS_GENSCREG_15
 70
     0
  0
APPID
  5
F663
330
1C
100
AcDbSymbolTableRecord
100
AcDbRegAppTableRecord
  2
GENIUS_GENOBJ-N-SDF_13
 70
     0
  0
APPID
  5
F664
330
1C
100
AcDbSymbolTableRecord
100
AcDbRegAppTableRecord
  2
GENIUS_GENODEF_13
 70
     0
  0
APPID
  5
F8F8
330
1C
100
AcDbSymbolTableRecord
100
AcDbRegAppTableRecord
  2
GENIUS_GENDIM_13
 70
     0
  0
APPID
  5
F8F9
330
1C
100
AcDbSymbolTableRecord
100
AcDbRegAppTableRecord
  2
GENIUS_GENDTOL_13
 70
     0
  0
APPID
  5
F8FA
330
1C
100
AcDbSymbolTableRecord
100
AcDbRegAppTableRecord
  2
GENIUS_GE3DTOL_13
 70
     0
  0
APPID
  5
F92D
330
1C
100
AcDbSymbolTableRecord
100
AcDbRegAppTableRecord
  2
AD_DRAW
 70
     0
  0
APPID
  5
F979
330
1C
100
AcDbSymbolTableRecord
100
AcDbRegAppTableRecord
  2
ASURF_PCURVE_APPNAME
 70
     0
  0
APPID
  5
F97E
330
1C
100
AcDbSymbolTableRecord
100
AcDbRegAppTableRecord
  2
AMG_3D2D_5.0
 70
     0
  0
APPID
  5
F9AD
330
1C
100
AcDbSymbolTableRecord
100
AcDbRegAppTableRecord
  2
DESIGNERASSEMBLIES
 70
     0
  0
APPID
  5
F9B3
330
1C
100
AcDbSymbolTableRecord
100
AcDbRegAppTableRecord
  2
ACADM_DIM_EDIT
 70
     0
  0
APPID
  5
F9B4
330
1C
100
AcDbSymbolTableRecord
100
AcDbRegAppTableRecord
  2
AMDT_DM_ADJ
 70
     0
  0
APPID
  5
F9D5
330
1C
100
AcDbSymbolTableRecord
100
AcDbRegAppTableRecord
  2
GENIUS_GENOENT_13
 70
     0
  0
APPID
  5
F9D6
330
1C
100
AcDbSymbolTableRecord
100
AcDbRegAppTableRecord
  2
GENIUS_GENOBJ-N-CRS_13
 70
     0
  0
APPID
  5
F9D7
330
1C
100
AcDbSymbolTableRecord
100
AcDbRegAppTableRecord
  2
GENIUS_GENOLIS_13
 70
     0
  0
APPID
  5
F9D8
330
1C
100
AcDbSymbolTableRecord
100
AcDbRegAppTableRecord
  2
GENIUS_GENOREF_13
 70
     0
  0
APPID
  5
F9D9
330
1C
100
AcDbSymbolTableRecord
100
AcDbRegAppTableRecord
  2
GENIUS_GENREC_14
 70
     0
  0
APPID
  5
F9DA
330
1C
100
AcDbSymbolTableRecord
100
AcDbRegAppTableRecord
  2
GENIUS_GENOBJ-N-REC_13
 70
     0
  0
APPID
  5
FC85
330
1C
100
AcDbSymbolTableRecord
100
AcDbRegAppTableRecord
  2
AcAecLayerStandard
 70
     0
  0
ENDTAB
  0
TABLE
  2
DIMSTYLE
  5
1E
330
0
100
AcDbSymbolTable
 70
     8
100
AcDbDimStyleTable
 71
     0
  0
DIMSTYLE
105
22
102
{ACAD_REACTORS
330
E254
330
E261
330
E26E
330
E27B
330
E288
330
E295
330
E2A2
330
E2B0
330
E2BD
330
E2CB
330
E2D9
330
E2E8
330
E2F5
330
E303
330
E310
330
E31D
330
E32A
330
E337
330
E344
330
E351
330
E38B
330
E38D
330
E38F
330
E391
330
E393
330
E395
102
}
330
1E
100
AcDbSymbolTableRecord
100
AcDbDimStyleTableRecord
  2
STANDARD
 70
     0
 41
0.12
 42
0.06
 43
0.3
 44
0.08
 47
0.01
 48
0.01
 73
     0
 74
     0
 77
     3
 78
    10
 79
     2
140
0.12
141
0.0
146
0.6
147
0.04
170
     1
172
     1
176
   256
177
   256
178
   256
271
     2
272
     2
284
     8
285
    10
340
21
371
    -1
372
    -1
  0
DIMSTYLE
105
F655
330
1E
100
AcDbSymbolTableRecord
100
AcDbDimStyleTableRecord
  2
AM_ISO
 70
     0
  4
"
 41
2.5
 42
1.0
 43
10.0
 44
1.0
 47
0.1
 48
0.1
 73
     0
 74
     0
 77
     1
 78
     8
 79
     2
140
3.5
141
0.0
143
0.0393701
146
0.71
147
1.5
172
     1
176
   256
177
   256
178
     2
271
     2
272
     3
274
     4
283
     0
284
     8
340
13
371
    -1
372
    -1
  0
DIMSTYLE
105
F656
330
1E
100
AcDbSymbolTableRecord
100
AcDbDimStyleTableRecord
  2
AM_ISO$3
 70
     0
  4
"
 41
2.5
 42
1.0
 43
10.0
 44
1.0
 47
0.1
 48
0.1
 73
     0
 77
     1
 78
     8
 79
     2
140
3.5
141
0.0
143
0.0393701
146
0.71
147
1.5
176
   256
177
   256
178
     2
271
     2
272
     3
274
     4
283
     0
284
     8
288
     1
289
     0
340
13
371
    -1
372
    -1
  0
DIMSTYLE
105
F657
330
1E
100
AcDbSymbolTableRecord
100
AcDbDimStyleTableRecord
  2
AM_ISO$4
 70
     0
  4
"
 41
2.5
 42
1.0
 43
10.0
 44
1.0
 47
0.1
 48
0.1
 73
     0
 77
     1
 78
     8
 79
     2
140
3.5
141
0.0
143
0.0393701
146
0.71
147
1.5
176
   256
177
   256
178
     2
271
     2
272
     3
274
     4
283
     0
284
     8
288
     1
289
     0
340
13
371
    -1
372
    -1
  0
DIMSTYLE
105
F658
330
1E
100
AcDbSymbolTableRecord
100
AcDbDimStyleTableRecord
  2
AM_ISO$6
 70
     0
  4
"
 41
2.5
 42
1.0
 43
10.0
 44
1.0
 47
0.1
 48
0.1
 73
     0
 74
     0
 78
     8
 79
     2
140
3.5
141
0.0
143
0.0393701
146
0.71
147
1.5
172
     1
176
   256
177
   256
178
     2
271
     2
272
     3
274
     4
283
     0
284
     8
340
13
371
    -1
372
    -1
  0
DIMSTYLE
105
F659
330
1E
100
AcDbSymbolTableRecord
100
AcDbDimStyleTableRecord
  2
AM_ISO$7
 70
     0
  4
"
 41
2.5
 42
1.0
 43
10.0
 44
1.0
 47
0.1
 48
0.1
 73
     0
 74
     0
 77
     1
 78
     8
 79
     2
140
5.0
141
0.0
143
0.0393701
146
0.71
147
1.5
172
     1
176
   256
177
   256
178
     2
271
     2
272
     3
274
     4
283
     0
284
     8
340
13
371
    -1
372
    -1
  0
DIMSTYLE
105
F65A
330
1E
100
AcDbSymbolTableRecord
100
AcDbDimStyleTableRecord
  2
AM_ISO$SF
 70
     0
  4
"
 41
2.5
 42
1.0
 43
10.0
 44
1.0
 47
0.1
 48
0.1
 73
     0
 74
     0
 75
     1
 76
     1
 77
     1
 78
     8
 79
     2
140
3.5
141
0.0
143
0.0393701
146
0.71
147
1.5
172
     1
176
   256
177
   256
178
     2
271
     2
272
     3
274
     4
283
     0
284
     8
340
13
371
    -1
372
    -1
  0
DIMSTYLE
105
F65F
330
1E
100
AcDbSymbolTableRecord
100
AcDbDimStyleTableRecord
  2
AM_ISO$SH
 70
     0
  4
"
 41
2.5
 42
1.0
 43
10.0
 44
1.0
 47
0.1
 48
0.1
 73
     0
 74
     0
 75
     1
 76
     1
 77
     1
 78
     8
 79
     2
140
3.5
141
0.0
143
0.0393701
144
2.0
146
0.71
147
1.5
172
     1
173
     1
176
   256
177
   256
178
     2
271
     2
272
     3
274
     4
283
     0
284
     8
340
13
341
F65B
343
F65B
371
    -1
372
    -1
  0
ENDTAB
  0
TABLE
  2
BLOCK_RECORD
  5
1
330
0
100
AcDbSymbolTable
 70
    27
  0
BLOCK_RECORD
  5
2
102
{ACAD_XDICTIONARY
360
3
102
}
330
1
100
AcDbSymbolTableRecord
100
AcDbBlockTableRecord
  2
*MODEL_SPACE
340
B
  0
BLOCK_RECORD
  5
BBB
102
{ACAD_XDICTIONARY
360
F5CE
102
}
330
1
100
AcDbSymbolTableRecord
100
AcDbBlockTableRecord
  2
*Paper_Space
340
BBC
  0
BLOCK_RECORD
  5
D
102
{ACAD_XDICTIONARY
360
F5D0
102
}
330
1
100
AcDbSymbolTableRecord
100
AcDbBlockTableRecord
  2
*Paper_Space0
340
10
  0
BLOCK_RECORD
  5
E255
330
1
100
AcDbSymbolTableRecord
100
AcDbBlockTableRecord
  2
*D1
340
0
  0
BLOCK_RECORD
  5
E262
330
1
100
AcDbSymbolTableRecord
100
AcDbBlockTableRecord
  2
*D2
340
0
  0
BLOCK_RECORD
  5
E26F
330
1
100
AcDbSymbolTableRecord
100
AcDbBlockTableRecord
  2
*D3
340
0
  0
BLOCK_RECORD
  5
E27C
330
1
100
AcDbSymbolTableRecord
100
AcDbBlockTableRecord
  2
*D4
340
0
  0
BLOCK_RECORD
  5
E289
330
1
100
AcDbSymbolTableRecord
100
AcDbBlockTableRecord
  2
*D5
340
0
  0
BLOCK_RECORD
  5
E296
330
1
100
AcDbSymbolTableRecord
100
AcDbBlockTableRecord
  2
*D6
340
0
  0
BLOCK_RECORD
  5
E2A3
330
1
100
AcDbSymbolTableRecord
100
AcDbBlockTableRecord
  2
*D7
340
0
  0
BLOCK_RECORD
  5
E2B1
330
1
100
AcDbSymbolTableRecord
100
AcDbBlockTableRecord
  2
*D8
340
0
  0
BLOCK_RECORD
  5
E2BE
330
1
100
AcDbSymbolTableRecord
100
AcDbBlockTableRecord
  2
*D9
340
0
  0
BLOCK_RECORD
  5
E2CC
330
1
100
AcDbSymbolTableRecord
100
AcDbBlockTableRecord
  2
*D10
340
0
  0
BLOCK_RECORD
  5
E2DA
330
1
100
AcDbSymbolTableRecord
100
AcDbBlockTableRecord
  2
*D11
340
0
  0
BLOCK_RECORD
  5
E2E9
330
1
100
AcDbSymbolTableRecord
100
AcDbBlockTableRecord
  2
*D12
340
0
  0
BLOCK_RECORD
  5
E2F6
330
1
100
AcDbSymbolTableRecord
100
AcDbBlockTableRecord
  2
*D13
340
0
  0
BLOCK_RECORD
  5
E304
330
1
100
AcDbSymbolTableRecord
100
AcDbBlockTableRecord
  2
*D14
340
0
  0
BLOCK_RECORD
  5
E311
330
1
100
AcDbSymbolTableRecord
100
AcDbBlockTableRecord
  2
*D15
340
0
  0
BLOCK_RECORD
  5
E31E
330
1
100
AcDbSymbolTableRecord
100
AcDbBlockTableRecord
  2
*D16
340
0
  0
BLOCK_RECORD
  5
E32B
330
1
100
AcDbSymbolTableRecord
100
AcDbBlockTableRecord
  2
*D17
340
0
  0
BLOCK_RECORD
  5
E338
330
1
100
AcDbSymbolTableRecord
100
AcDbBlockTableRecord
  2
*D18
340
0
  0
BLOCK_RECORD
  5
E345
330
1
100
AcDbSymbolTableRecord
100
AcDbBlockTableRecord
  2
*D19
340
0
  0
BLOCK_RECORD
  5
E352
330
1
100
AcDbSymbolTableRecord
100
AcDbBlockTableRecord
  2
*D20
340
0
  0
BLOCK_RECORD
  5
F65B
330
1
100
AcDbSymbolTableRecord
100
AcDbBlockTableRecord
  2
GENAXEH
340
0
  0
BLOCK_RECORD
  5
FC74
102
{ACAD_XDICTIONARY
360
FC75
102
}
330
1
100
AcDbSymbolTableRecord
100
AcDbBlockTableRecord
  2
A$C0FBC3824
340
0
102
{BLKREFS
331
FC88
331
FC90
102
}
  0
BLOCK_RECORD
  5
FC7C
102
{ACAD_XDICTIONARY
360
FC7D
102
}
330
1
100
AcDbSymbolTableRecord
100
AcDbBlockTableRecord
  2
A$C7A150A0F
340
0
102
{BLKREFS
331
FC89
331
FC91
102
}
  0
ENDTAB
  0
ENDSEC
  0
SECTION
  2
BLOCKS
  0
BLOCK
  5
4
330
2
100
AcDbEntity
  8
0
100
AcDbBlockBegin
  2
*MODEL_SPACE
 70
     0
 10
0.0
 20
0.0
 30
0.0
  3
*MODEL_SPACE
  1

  0
ENDBLK
  5
A
330
2
100
AcDbEntity
  8
0
100
AcDbBlockEnd
  0
BLOCK
  5
BBD
330
BBB
100
AcDbEntity
 67
     1
  8
0
100
AcDbBlockBegin
  2
*Paper_Space
 70
     0
 10
0.0
 20
0.0
 30
0.0
  3
*Paper_Space
  1

  0
ENDBLK
  5
BBE
330
BBB
100
AcDbEntity
 67
     1
  8
0
100
AcDbBlockEnd
  0
BLOCK
  5
E
330
D
100
AcDbEntity
  8
0
100
AcDbBlockBegin
  2
*Paper_Space0
 70
     0
 10
0.0
 20
0.0
 30
0.0
  3
*Paper_Space0
  1

  0
VIEWPORT
  5
640
102
{ACAD_XDICTIONARY
360
FD36
102
}
330
D
100
AcDbEntity
  8
0
100
AcDbViewport
 10
184.9324014823572
 20
101.2295806407929
 30
0.0
 40
377.3789631209644
 41
209.9733276367188
 69
     0
 12
184.9324014823572
 22
101.2295806407929
 13
0.0
 23
0.0
 14
0.5
 24
0.5
 15
0.5
 25
0.5
 16
0.0
 26
0.0
 36
1.0
 17
0.0
 27
0.0
 37
0.0
 42
50.0
 43
0.0
 44
0.0
 45
209.9733276367188
 50
0.0
 51
0.0
 72
   100
 90
    32800
  1

281
     0
 71
     1
 74
     0
110
0.0
120
0.0
130
0.0
111
1.0
121
0.0
131
0.0
112
0.0
122
1.0
132
0.0
 79
     0
146
0.0
1001
GENIUS_GENOBJ-N-SDF_13
1002
{
1000
OWNER
1000
GEN
1002
}
1001
GENIUS_GENODEF_13
1002
{
1000
HIER
1070
     0
1002
}
1002
{
1000
MANEDIT
1070
     0
1002
}
1002
{
1000
NOSEL
1070
     0
1002
}
1002
{
1000
BEHIND
1070
     0
1002
}
1002
{
1000
OTHER
1070
     0
1002
}
1002
{
1000
REACTOR
1002
}
1001
GENIUS_GENSCREG_15
1000
PF
1040
1.0
1000
DF
1040
1.0
1000
MIN
1011
-3.757080078125
1021
-3.757083177566528
1031
0.0
1000
MAX
1011
373.6218830428394
1021
206.2162444591523
1031
0.0
1000
FLAGS
1070
     2
  0
ENDBLK
  5
F
330
D
100
AcDbEntity
  8
0
100
AcDbBlockEnd
  0
BLOCK
  5
E25F
330
E255
100
AcDbEntity
  8
0
 48
0.5
100
AcDbBlockBegin
  2
*D1
 70
     1
 10
0.0
 20
0.0
 30
0.0
  3
*D1
  1

  0
LINE
  5
FB18
330
E255
100
AcDbEntity
  8
DIM
 48
0.5
100
AcDbLine
 10
1231.323476131975
 20
777.5935245842058
 30
0.0
 11
1231.323476131975
 21
777.0907572829652
 31
0.0
  0
LINE
  5
FB19
330
E255
100
AcDbEntity
  8
DIM
 48
0.5
100
AcDbLine
 10
1229.260976131975
 20
777.5935245842058
 30
0.0
 11
1229.260976131975
 21
777.0907572829652
 31
0.0
  0
LINE
  5
FB1A
330
E255
100
AcDbEntity
  8
DIM
 48
0.5
100
AcDbLine
 10
1231.203476131975
 20
777.1707572829653
 30
0.0
 11
1229.380976131975
 21
777.1707572829653
 31
0.0
  0
SOLID
  5
FB1B
330
E255
100
AcDbEntity
  8
DIM
 48
0.5
100
AcDbTrace
 10
1231.203476131975
 20
777.1907572829652
 30
0.0
 11
1231.203476131975
 21
777.1507572829652
 31
0.0
 12
1231.323476131975
 22
777.1707572829653
 32
0.0
 13
1231.323476131975
 23
777.1707572829653
 33
0.0
  0
SOLID
  5
FB1C
330
E255
100
AcDbEntity
  8
DIM
 48
0.5
100
AcDbTrace
 10
1229.380976131975
 20
777.1907572829652
 30
0.0
 11
1229.380976131975
 21
777.1507572829652
 31
0.0
 12
1229.260976131975
 22
777.1707572829653
 32
0.0
 13
1229.260976131975
 23
777.1707572829653
 33
0.0
  0
MTEXT
  5
FB1D
330
E255
100
AcDbEntity
  8
DIM
 48
0.5
100
AcDbMText
 10
1230.292226131975
 20
777.3021858543939
 30
0.0
 40
0.12
 41
0.0
 71
     5
 72
     1
  1
\A1;2.06 [52.39]
  7
DAYUS
 73
     1
 44
1.0
1001
ACAD
1000
MTEXTBEGIN
1070
    73
1070
     1
1070
    44
1040
1.0
1070
    74
1070
     0
1000
MTEXTEND
  0
POINT
  5
FB1E
330
E255
100
AcDbEntity
  8
Defpoints
 62
     0
 48
0.5
100
AcDbPoint
 10
1231.323476131975
 20
777.6535245842057
 30
0.0
  0
POINT
  5
FB1F
330
E255
100
AcDbEntity
  8
Defpoints
 62
     0
 48
0.5
100
AcDbPoint
 10
1229.260976131975
 20
777.6535245842057
 30
0.0
  0
POINT
  5
FB20
330
E255
100
AcDbEntity
  8
Defpoints
 62
     0
 48
0.5
100
AcDbPoint
 10
1229.260976131975
 20
777.1707572829653
 30
0.0
  0
ENDBLK
  5
E260
330
E255
100
AcDbEntity
  8
0
 48
0.5
100
AcDbBlockEnd
  0
BLOCK
  5
E26C
330
E262
100
AcDbEntity
  8
0
 48
0.5
100
AcDbBlockBegin
  2
*D2
 70
     1
 10
0.0
 20
0.0
 30
0.0
  3
*D2
  1

  0
LINE
  5
FB21
330
E262
100
AcDbEntity
  8
DIM
 48
0.5
100
AcDbLine
 10
1228.632226131975
 20
777.6310836393239
 30
0.0
 11
1228.632226131975
 21
776.7021247864546
 31
0.0
  0
LINE
  5
FB22
330
E262
100
AcDbEntity
  8
DIM
 48
0.5
100
AcDbLine
 10
1231.952226131975
 20
777.6310836393239
 30
0.0
 11
1231.952226131975
 21
776.7021247864546
 31
0.0
  0
LINE
  5
FB23
330
E262
100
AcDbEntity
  8
DIM
 48
0.5
100
AcDbLine
 10
1228.752226131975
 20
776.7821247864547
 30
0.0
 11
1231.832226131976
 21
776.7821247864547
 31
0.0
  0
SOLID
  5
FB24
330
E262
100
AcDbEntity
  8
DIM
 48
0.5
100
AcDbTrace
 10
1228.752226131975
 20
776.8021247864546
 30
0.0
 11
1228.752226131975
 21
776.7621247864547
 31
0.0
 12
1228.632226131975
 22
776.7821247864547
 32
0.0
 13
1228.632226131975
 23
776.7821247864547
 33
0.0
  0
SOLID
  5
FB25
330
E262
100
AcDbEntity
  8
DIM
 48
0.5
100
AcDbTrace
 10
1231.832226131976
 20
776.8021247864546
 30
0.0
 11
1231.832226131976
 21
776.7621247864547
 31
0.0
 12
1231.952226131975
 22
776.7821247864547
 32
0.0
 13
1231.952226131975
 23
776.7821247864547
 33
0.0
  0
MTEXT
  5
FB26
330
E262
100
AcDbEntity
  8
DIM
 48
0.5
100
AcDbMText
 10
1230.292226131975
 20
776.9135533578833
 30
0.0
 40
0.12
 41
0.0
 71
     5
 72
     1
  1
\A1;3.32 [84.33]
  7
DAYUS
 73
     1
 44
1.0
1001
ACAD
1000
MTEXTBEGIN
1070
    73
1070
     1
1070
    44
1040
1.0
1070
    74
1070
     0
1000
MTEXTEND
  0
POINT
  5
FB27
330
E262
100
AcDbEntity
  8
Defpoints
 62
     0
 48
0.5
100
AcDbPoint
 10
1228.632226131975
 20
777.6910836393239
 30
0.0
  0
POINT
  5
FB28
330
E262
100
AcDbEntity
  8
Defpoints
 62
     0
 48
0.5
100
AcDbPoint
 10
1231.952226131975
 20
777.6910836393239
 30
0.0
  0
POINT
  5
FB29
330
E262
100
AcDbEntity
  8
Defpoints
 62
     0
 48
0.5
100
AcDbPoint
 10
1231.952226131975
 20
776.7821247864547
 30
0.0
  0
ENDBLK
  5
E26D
330
E262
100
AcDbEntity
  8
0
 48
0.5
100
AcDbBlockEnd
  0
BLOCK
  5
E279
330
E26F
100
AcDbEntity
  8
0
 48
0.5
100
AcDbBlockBegin
  2
*D3
 70
     1
 10
0.0
 20
0.0
 30
0.0
  3
*D3
  1

  0
LINE
  5
FB2A
330
E26F
100
AcDbEntity
  8
DIM
 48
0.5
100
AcDbLine
 10
1228.042400669331
 20
777.9873849180436
 30
0.0
 11
1228.042400669331
 21
776.357358790001
 31
0.0
  0
LINE
  5
FB2B
330
E26F
100
AcDbEntity
  8
DIM
 48
0.5
100
AcDbLine
 10
1232.542051594619
 20
777.9873849180436
 30
0.0
 11
1232.542051594619
 21
776.357358790001
 31
0.0
  0
LINE
  5
FB2C
330
E26F
100
AcDbEntity
  8
DIM
 48
0.5
100
AcDbLine
 10
1228.162400669331
 20
776.4373587900011
 30
0.0
 11
1232.42205159462
 21
776.4373587900011
 31
0.0
  0
SOLID
  5
FB2D
330
E26F
100
AcDbEntity
  8
DIM
 48
0.5
100
AcDbTrace
 10
1228.162400669331
 20
776.457358790001
 30
0.0
 11
1228.162400669331
 21
776.4173587900011
 31
0.0
 12
1228.042400669331
 22
776.4373587900011
 32
0.0
 13
1228.042400669331
 23
776.4373587900011
 33
0.0
  0
SOLID
  5
FB2E
330
E26F
100
AcDbEntity
  8
DIM
 48
0.5
100
AcDbTrace
 10
1232.42205159462
 20
776.457358790001
 30
0.0
 11
1232.42205159462
 21
776.4173587900011
 31
0.0
 12
1232.542051594619
 22
776.4373587900011
 32
0.0
 13
1232.542051594619
 23
776.4373587900011
 33
0.0
  0
MTEXT
  5
FB2F
330
E26F
100
AcDbEntity
  8
DIM
 48
0.5
100
AcDbMText
 10
1230.292226131975
 20
776.5687873614297
 30
0.0
 40
0.12
 41
0.0
 71
     5
 72
     1
  1
\A1;4.5 [114.29]
  7
DAYUS
 73
     1
 44
1.0
1001
ACAD
1000
MTEXTBEGIN
1070
    73
1070
     1
1070
    44
1040
1.0
1070
    74
1070
     0
1000
MTEXTEND
  0
POINT
  5
FB30
330
E26F
100
AcDbEntity
  8
Defpoints
 62
     0
 48
0.5
100
AcDbPoint
 10
1228.042400669331
 20
778.0473849180435
 30
0.0
  0
POINT
  5
FB31
330
E26F
100
AcDbEntity
  8
Defpoints
 62
     0
 48
0.5
100
AcDbPoint
 10
1232.542051594619
 20
778.0473849180435
 30
0.0
  0
POINT
  5
FB32
330
E26F
100
AcDbEntity
  8
Defpoints
 62
     0
 48
0.5
100
AcDbPoint
 10
1232.542051594619
 20
776.4373587900011
 30
0.0
  0
ENDBLK
  5
E27A
330
E26F
100
AcDbEntity
  8
0
 48
0.5
100
AcDbBlockEnd
  0
BLOCK
  5
E286
330
E27C
100
AcDbEntity
  8
0
 48
0.5
100
AcDbBlockBegin
  2
*D4
 70
     1
 10
0.0
 20
0.0
 30
0.0
  3
*D4
  1

  0
LINE
  5
FB33
330
E27C
100
AcDbEntity
  8
DIM
 48
0.5
100
AcDbLine
 10
1228.225769236834
 20
777.6835245842058
 30
0.0
 11
1227.454952541618
 21
777.6835245842058
 31
0.0
  0
LINE
  5
FB34
330
E27C
100
AcDbEntity
  8
DIM
 48
0.5
100
AcDbLine
 10
1227.918985312669
 20
779.9335245842058
 30
0.0
 11
1227.454952541618
 21
779.9335245842058
 31
0.0
  0
LINE
  5
FB35
330
E27C
100
AcDbEntity
  8
DIM
 48
0.5
100
AcDbLine
 10
1227.534952541617
 20
777.8035245842058
 30
0.0
 11
1227.534952541617
 21
779.8135245842058
 31
0.0
  0
SOLID
  5
FB36
330
E27C
100
AcDbEntity
  8
DIM
 48
0.5
100
AcDbTrace
 10
1227.514952541617
 20
777.8035245842058
 30
0.0
 11
1227.554952541617
 21
777.8035245842058
 31
0.0
 12
1227.534952541617
 22
777.6835245842058
 32
0.0
 13
1227.534952541617
 23
777.6835245842058
 33
0.0
  0
SOLID
  5
FB37
330
E27C
100
AcDbEntity
  8
DIM
 48
0.5
100
AcDbTrace
 10
1227.514952541617
 20
779.8135245842058
 30
0.0
 11
1227.554952541617
 21
779.8135245842058
 31
0.0
 12
1227.534952541617
 22
779.9335245842058
 32
0.0
 13
1227.534952541617
 23
779.9335245842058
 33
0.0
  0
MTEXT
  5
FB38
330
E27C
100
AcDbEntity
  8
DIM
 48
0.5
100
AcDbMText
 10
1227.403523970189
 20
778.808524584206
 30
0.0
 40
0.12
 41
0.0
 71
     5
 72
     1
  1
\A1;2.25 [57.15]
  7
DAYUS
 11
0.0000000000000001
 21
1.0
 31
0.0
 73
     1
 44
1.0
1001
ACAD
1000
MTEXTBEGIN
1070
    73
1070
     1
1070
    44
1040
1.0
1070
    74
1070
     0
1000
MTEXTEND
  0
POINT
  5
FB39
330
E27C
100
AcDbEntity
  8
Defpoints
 62
     0
 48
0.5
100
AcDbPoint
 10
1228.285769236834
 20
777.6835245842058
 30
0.0
  0
POINT
  5
FB3A
330
E27C
100
AcDbEntity
  8
Defpoints
 62
     0
 48
0.5
100
AcDbPoint
 10
1227.978985312669
 20
779.9335245842058
 30
0.0
  0
POINT
  5
FB3B
330
E27C
100
AcDbEntity
  8
Defpoints
 62
     0
 48
0.5
100
AcDbPoint
 10
1227.534952541617
 20
779.9335245842058
 30
0.0
  0
ENDBLK
  5
E287
330
E27C
100
AcDbEntity
  8
0
 48
0.5
100
AcDbBlockEnd
  0
BLOCK
  5
E293
330
E289
100
AcDbEntity
  8
0
 48
0.5
100
AcDbBlockBegin
  2
*D5
 70
     1
 10
0.0
 20
0.0
 30
0.0
  3
*D5
  1

  0
LINE
  5
FB3C
330
E289
100
AcDbEntity
  8
DIM
 48
0.5
100
AcDbLine
 10
1228.376086465813
 20
782.18335004685
 30
0.0
 11
1226.937133477106
 21
782.18335004685
 31
0.0
  0
LINE
  5
FB3D
330
E289
100
AcDbEntity
  8
DIM
 48
0.5
100
AcDbLine
 10
1228.2782685883
 20
777.6835245842058
 30
0.0
 11
1226.937133477106
 21
777.6835245842058
 31
0.0
  0
LINE
  5
FB3E
330
E289
100
AcDbEntity
  8
DIM
 48
0.5
100
AcDbLine
 10
1227.017133477106
 20
782.06335004685
 30
0.0
 11
1227.017133477106
 21
777.8035245842058
 31
0.0
  0
SOLID
  5
FB3F
330
E289
100
AcDbEntity
  8
DIM
 48
0.5
100
AcDbTrace
 10
1226.997133477106
 20
782.06335004685
 30
0.0
 11
1227.037133477106
 21
782.06335004685
 31
0.0
 12
1227.017133477106
 22
782.18335004685
 32
0.0
 13
1227.017133477106
 23
782.18335004685
 33
0.0
  0
SOLID
  5
FB40
330
E289
100
AcDbEntity
  8
DIM
 48
0.5
100
AcDbTrace
 10
1226.997133477106
 20
777.8035245842058
 30
0.0
 11
1227.037133477106
 21
777.8035245842058
 31
0.0
 12
1227.017133477106
 22
777.6835245842058
 32
0.0
 13
1227.017133477106
 23
777.6835245842058
 33
0.0
  0
MTEXT
  5
FB41
330
E289
100
AcDbEntity
  8
DIM
 48
0.5
100
AcDbMText
 10
1226.885704905677
 20
779.933437315528
 30
0.0
 40
0.12
 41
0.0
 71
     5
 72
     1
  1
\A1;4.5 [114.3]
  7
DAYUS
 11
0.0000000000000001
 21
1.0
 31
0.0
 73
     1
 44
1.0
1001
ACAD
1000
MTEXTBEGIN
1070
    73
1070
     1
1070
    44
1040
1.0
1070
    74
1070
     0
1000
MTEXTEND
  0
POINT
  5
FB42
330
E289
100
AcDbEntity
  8
Defpoints
 62
     0
 48
0.5
100
AcDbPoint
 10
1228.436086465813
 20
782.18335004685
 30
0.0
  0
POINT
  5
FB43
330
E289
100
AcDbEntity
  8
Defpoints
 62
     0
 48
0.5
100
AcDbPoint
 10
1228.3382685883
 20
777.6835245842058
 30
0.0
  0
POINT
  5
FB44
330
E289
100
AcDbEntity
  8
Defpoints
 62
     0
 48
0.5
100
AcDbPoint
 10
1227.017133477106
 20
777.6835245842058
 30
0.0
  0
ENDBLK
  5
E294
330
E289
100
AcDbEntity
  8
0
 48
0.5
100
AcDbBlockEnd
  0
BLOCK
  5
E2A0
330
E296
100
AcDbEntity
  8
0
 48
0.5
100
AcDbBlockBegin
  2
*D6
 70
     1
 10
0.0
 20
0.0
 30
0.0
  3
*D6
  1

  0
LINE
  5
FB45
330
E296
100
AcDbEntity
  8
DIM
 48
0.5
100
AcDbLine
 10
1242.710468569541
 20
779.2435897988618
 30
0.0
 11
1243.240544202507
 21
779.2435897988618
 31
0.0
  0
LINE
  5
FB46
330
E296
100
AcDbEntity
  8
DIM
 48
0.5
100
AcDbLine
 10
1242.710468569541
 20
780.7233342913272
 30
0.0
 11
1243.240544202507
 21
780.7233342913272
 31
0.0
  0
LINE
  5
FB47
330
E296
100
AcDbEntity
  8
DIM
 48
0.5
100
AcDbLine
 10
1243.160544202507
 20
779.3635897988618
 30
0.0
 11
1243.160544202507
 21
780.6033342913272
 31
0.0
  0
SOLID
  5
FB48
330
E296
100
AcDbEntity
  8
DIM
 48
0.5
100
AcDbTrace
 10
1243.140544202507
 20
779.3635897988618
 30
0.0
 11
1243.180544202507
 21
779.3635897988618
 31
0.0
 12
1243.160544202507
 22
779.2435897988618
 32
0.0
 13
1243.160544202507
 23
779.2435897988618
 33
0.0
  0
SOLID
  5
FB49
330
E296
100
AcDbEntity
  8
DIM
 48
0.5
100
AcDbTrace
 10
1243.140544202507
 20
780.6033342913272
 30
0.0
 11
1243.180544202507
 21
780.6033342913272
 31
0.0
 12
1243.160544202507
 22
780.7233342913272
 32
0.0
 13
1243.160544202507
 23
780.7233342913272
 33
0.0
  0
MTEXT
  5
FB4A
330
E296
100
AcDbEntity
  8
DIM
 48
0.5
100
AcDbMText
 10
1243.029115631078
 20
779.9834620450946
 30
0.0
 40
0.12
 41
0.0
 71
     5
 72
     1
  1
\A1;%%c1.48 [37.59]
  7
DAYUS
 11
0.0000000000000001
 21
1.0
 31
0.0
 73
     1
 44
1.0
1001
ACAD
1000
MTEXTBEGIN
1070
    73
1070
     1
1070
    44
1040
1.0
1070
    74
1070
     0
1000
MTEXTEND
  0
POINT
  5
FB4B
330
E296
100
AcDbEntity
  8
Defpoints
 62
     0
 48
0.5
100
AcDbPoint
 10
1242.650468569541
 20
779.2435897988618
 30
0.0
  0
POINT
  5
FB4C
330
E296
100
AcDbEntity
  8
Defpoints
 62
     0
 48
0.5
100
AcDbPoint
 10
1242.650468569541
 20
780.7233342913272
 30
0.0
  0
POINT
  5
FB4D
330
E296
100
AcDbEntity
  8
Defpoints
 62
     0
 48
0.5
100
AcDbPoint
 10
1243.160544202507
 20
780.7233342913272
 30
0.0
  0
ENDBLK
  5
E2A1
330
E296
100
AcDbEntity
  8
0
 48
0.5
100
AcDbBlockEnd
  0
BLOCK
  5
E2AE
330
E2A3
100
AcDbEntity
  8
0
 48
0.5
100
AcDbBlockBegin
  2
*D7
 70
     1
 10
0.0
 20
0.0
 30
0.0
  3
*D7
  1

  0
LINE
  5
FB4E
330
E2A3
100
AcDbEntity
  8
DIM
 48
0.5
100
AcDbLine
 10
1236.841069333386
 20
779.4834620450946
 30
0.0
 11
1235.370873754766
 21
779.4834620450946
 31
0.0
  0
LINE
  5
FB4F
330
E2A3
100
AcDbEntity
  8
DIM
 48
0.5
100
AcDbLine
 10
1236.841069333386
 20
780.4834620450946
 30
0.0
 11
1235.370873754766
 21
780.4834620450946
 31
0.0
  0
LINE
  5
FB50
330
E2A3
100
AcDbEntity
  8
DIM
 48
0.5
100
AcDbLine
 10
1235.450873754766
 20
779.6034620450946
 30
0.0
 11
1235.450873754766
 21
780.3634620450946
 31
0.0
  0
SOLID
  5
FB51
330
E2A3
100
AcDbEntity
  8
DIM
 48
0.5
100
AcDbTrace
 10
1235.430873754766
 20
779.6034620450946
 30
0.0
 11
1235.470873754766
 21
779.6034620450946
 31
0.0
 12
1235.450873754766
 22
779.4834620450946
 32
0.0
 13
1235.450873754766
 23
779.4834620450946
 33
0.0
  0
SOLID
  5
FB52
330
E2A3
100
AcDbEntity
  8
DIM
 48
0.5
100
AcDbTrace
 10
1235.430873754766
 20
780.3634620450946
 30
0.0
 11
1235.470873754766
 21
780.3634620450946
 31
0.0
 12
1235.450873754766
 22
780.4834620450946
 32
0.0
 13
1235.450873754766
 23
780.4834620450946
 33
0.0
  0
MTEXT
  5
FB53
330
E2A3
100
AcDbEntity
  8
DIM
 48
0.5
100
AcDbMText
 10
1235.319445183338
 20
779.9834620450947
 30
0.0
 40
0.12
 41
0.0
 71
     5
 72
     1
  1
\A1;%%c1 [25.4]
  7
DAYUS
 11
0.0000000000000001
 21
1.0
 31
0.0
 73
     1
 44
1.0
1001
ACAD
1000
MTEXTBEGIN
1070
    73
1070
     1
1070
    44
1040
1.0
1070
    74
1070
     0
1000
MTEXTEND
  0
POINT
  5
FB54
330
E2A3
100
AcDbEntity
  8
Defpoints
 62
     0
 48
0.5
100
AcDbPoint
 10
1236.901069333386
 20
779.4834620450946
 30
0.0
  0
POINT
  5
FB55
330
E2A3
100
AcDbEntity
  8
Defpoints
 62
     0
 48
0.5
100
AcDbPoint
 10
1236.901069333386
 20
780.4834620450946
 30
0.0
  0
POINT
  5
FB56
330
E2A3
100
AcDbEntity
  8
Defpoints
 62
     0
 48
0.5
100
AcDbPoint
 10
1235.450873754766
 20
780.4834620450946
 30
0.0
  0
ENDBLK
  5
E2AF
330
E2A3
100
AcDbEntity
  8
0
 48
0.5
100
AcDbBlockEnd
  0
BLOCK
  5
E2BB
330
E2B1
100
AcDbEntity
  8
0
 48
0.5
100
AcDbBlockBegin
  2
*D8
 70
     1
 10
0.0
 20
0.0
 30
0.0
  3
*D8
  1

  0
LINE
  5
FB57
330
E2B1
100
AcDbEntity
  8
DIM
 48
0.5
100
AcDbLine
 10
1237.299909041668
 20
780.7334620450945
 30
0.0
 11
1234.938262353403
 21
780.7334620450945
 31
0.0
  0
LINE
  5
FB58
330
E2B1
100
AcDbEntity
  8
DIM
 48
0.5
100
AcDbLine
 10
1237.299909041668
 20
779.2334620450946
 30
0.0
 11
1234.938262353403
 21
779.2334620450946
 31
0.0
  0
LINE
  5
FB59
330
E2B1
100
AcDbEntity
  8
DIM
 48
0.5
100
AcDbLine
 10
1235.018262353403
 20
780.6134620450945
 30
0.0
 11
1235.018262353403
 21
779.3534620450945
 31
0.0
  0
SOLID
  5
FB5A
330
E2B1
100
AcDbEntity
  8
DIM
 48
0.5
100
AcDbTrace
 10
1234.998262353403
 20
780.6134620450945
 30
0.0
 11
1235.038262353403
 21
780.6134620450945
 31
0.0
 12
1235.018262353403
 22
780.7334620450945
 32
0.0
 13
1235.018262353403
 23
780.7334620450945
 33
0.0
  0
SOLID
  5
FB5B
330
E2B1
100
AcDbEntity
  8
DIM
 48
0.5
100
AcDbTrace
 10
1234.998262353403
 20
779.3534620450945
 30
0.0
 11
1235.038262353403
 21
779.3534620450945
 31
0.0
 12
1235.018262353403
 22
779.2334620450946
 32
0.0
 13
1235.018262353403
 23
779.2334620450946
 33
0.0
  0
MTEXT
  5
FB5C
330
E2B1
100
AcDbEntity
  8
DIM
 48
0.5
100
AcDbMText
 10
1234.886833781974
 20
779.9834620450947
 30
0.0
 40
0.12
 41
0.0
 71
     5
 72
     1
  1
\A1;%%c1.5 [38.1]
  7
DAYUS
 11
0.0000000000000001
 21
1.0
 31
0.0
 73
     1
 44
1.0
1001
ACAD
1000
MTEXTBEGIN
1070
    73
1070
     1
1070
    44
1040
1.0
1070
    74
1070
     0
1000
MTEXTEND
  0
POINT
  5
FB5D
330
E2B1
100
AcDbEntity
  8
Defpoints
 62
     0
 48
0.5
100
AcDbPoint
 10
1237.359909041668
 20
780.7334620450945
 30
0.0
  0
POINT
  5
FB5E
330
E2B1
100
AcDbEntity
  8
Defpoints
 62
     0
 48
0.5
100
AcDbPoint
 10
1237.359909041668
 20
779.2334620450946
 30
0.0
  0
POINT
  5
FB5F
330
E2B1
100
AcDbEntity
  8
Defpoints
 62
     0
 48
0.5
100
AcDbPoint
 10
1235.018262353403
 20
779.2334620450946
 30
0.0
  0
ENDBLK
  5
E2BC
330
E2B1
100
AcDbEntity
  8
0
 48
0.5
100
AcDbBlockEnd
  0
BLOCK
  5
E2C9
330
E2BE
100
AcDbEntity
  8
0
 48
0.5
100
AcDbBlockBegin
  2
*D9
 70
     1
 10
0.0
 20
0.0
 30
0.0
  3
*D9
  1

  0
LINE
  5
FB60
330
E2BE
100
AcDbEntity
  8
DIM
 48
0.5
100
AcDbLine
 10
1236.502329175876
 20
779.3609620450946
 30
0.0
 11
1236.502329175876
 21
778.0983198350335
 31
0.0
  0
LINE
  5
FB61
330
E2BE
100
AcDbEntity
  8
DIM
 48
0.5
100
AcDbLine
 10
1236.081329175876
 20
779.3609620450946
 30
0.0
 11
1236.081329175876
 21
778.0983198350335
 31
0.0
  0
LINE
  5
FB62
330
E2BE
100
AcDbEntity
  8
DIM
 48
0.5
100
AcDbLine
 10
1236.382329175876
 20
778.1783198350336
 30
0.0
 11
1236.201329175876
 21
778.1783198350336
 31
0.0
  0
LINE
  5
FB63
330
E2BE
100
AcDbEntity
  8
DIM
 48
0.5
100
AcDbLine
 10
1236.081329175876
 20
778.1783198350336
 30
0.0
 11
1234.281055450799
 21
778.1783198350336
 31
0.0
  0
SOLID
  5
FB64
330
E2BE
100
AcDbEntity
  8
DIM
 48
0.5
100
AcDbTrace
 10
1236.382329175876
 20
778.1983198350335
 30
0.0
 11
1236.382329175876
 21
778.1583198350335
 31
0.0
 12
1236.502329175876
 22
778.1783198350336
 32
0.0
 13
1236.502329175876
 23
778.1783198350336
 33
0.0
  0
SOLID
  5
FB65
330
E2BE
100
AcDbEntity
  8
DIM
 48
0.5
100
AcDbTrace
 10
1236.201329175876
 20
778.1983198350335
 30
0.0
 11
1236.201329175876
 21
778.1583198350335
 31
0.0
 12
1236.081329175876
 22
778.1783198350336
 32
0.0
 13
1236.081329175876
 23
778.1783198350336
 33
0.0
  0
MTEXT
  5
FB66
330
E2BE
100
AcDbEntity
  8
DIM
 48
0.5
100
AcDbMText
 10
1234.883912593657
 20
778.3097484064621
 30
0.0
 40
0.12
 41
0.0
 71
     5
 72
     1
  1
\A1;0.42 [10.69]
  7
DAYUS
 73
     1
 44
1.0
1001
ACAD
1000
MTEXTBEGIN
1070
    73
1070
     1
1070
    44
1040
1.0
1070
    74
1070
     0
1000
MTEXTEND
  0
POINT
  5
FB67
330
E2BE
100
AcDbEntity
  8
Defpoints
 62
     0
 48
0.5
100
AcDbPoint
 10
1236.502329175876
 20
779.4209620450946
 30
0.0
  0
POINT
  5
FB68
330
E2BE
100
AcDbEntity
  8
Defpoints
 62
     0
 48
0.5
100
AcDbPoint
 10
1236.081329175876
 20
779.4209620450946
 30
0.0
  0
POINT
  5
FB69
330
E2BE
100
AcDbEntity
  8
Defpoints
 62
     0
 48
0.5
100
AcDbPoint
 10
1236.081329175876
 20
778.1783198350336
 30
0.0
  0
ENDBLK
  5
E2CA
330
E2BE
100
AcDbEntity
  8
0
 48
0.5
100
AcDbBlockEnd
  0
BLOCK
  5
E2D7
330
E2CC
100
AcDbEntity
  8
0
 48
0.5
100
AcDbBlockBegin
  2
*D10
 70
     1
 10
0.0
 20
0.0
 30
0.0
  3
*D10
  1

  0
LINE
  5
FB6A
330
E2CC
100
AcDbEntity
  8
DIM
 48
0.5
100
AcDbLine
 10
1236.822329175905
 20
779.5022022025749
 30
0.0
 11
1236.822329175905
 21
777.1555802601453
 31
0.0
  0
LINE
  5
FB6B
330
E2CC
100
AcDbEntity
  8
DIM
 48
0.5
100
AcDbLine
 10
1237.359909041668
 20
779.1734620450946
 30
0.0
 11
1237.359909041668
 21
777.1555802601453
 31
0.0
  0
LINE
  5
FB6C
330
E2CC
100
AcDbEntity
  8
DIM
 48
0.5
100
AcDbLine
 10
1237.239909041668
 20
777.2355802601453
 30
0.0
 11
1236.942329175905
 21
777.2355802601453
 31
0.0
  0
LINE
  5
FB6D
330
E2CC
100
AcDbEntity
  8
DIM
 48
0.5
100
AcDbLine
 10
1236.822329175905
 20
777.2355802601453
 30
0.0
 11
1235.075796427267
 21
777.2355802601453
 31
0.0
  0
SOLID
  5
FB6E
330
E2CC
100
AcDbEntity
  8
DIM
 48
0.5
100
AcDbTrace
 10
1237.239909041668
 20
777.2555802601454
 30
0.0
 11
1237.239909041668
 21
777.2155802601454
 31
0.0
 12
1237.359909041668
 22
777.2355802601453
 32
0.0
 13
1237.359909041668
 23
777.2355802601453
 33
0.0
  0
SOLID
  5
FB6F
330
E2CC
100
AcDbEntity
  8
DIM
 48
0.5
100
AcDbTrace
 10
1236.942329175905
 20
777.2555802601454
 30
0.0
 11
1236.942329175905
 21
777.2155802601454
 31
0.0
 12
1236.822329175905
 22
777.2355802601453
 32
0.0
 13
1236.822329175905
 23
777.2355802601453
 33
0.0
  0
MTEXT
  5
FB70
330
E2CC
100
AcDbEntity
  8
DIM
 48
0.5
100
AcDbMText
 10
1235.678653570124
 20
777.367008831574
 30
0.0
 40
0.12
 41
0.0
 71
     5
 72
     1
  1
\A1;0.54 [13.65]
  7
DAYUS
 73
     1
 44
1.0
1001
ACAD
1000
MTEXTBEGIN
1070
    73
1070
     1
1070
    44
1040
1.0
1070
    74
1070
     0
1000
MTEXTEND
  0
POINT
  5
FB71
330
E2CC
100
AcDbEntity
  8
Defpoints
 62
     0
 48
0.5
100
AcDbPoint
 10
1236.822329175905
 20
779.5622022025749
 30
0.0
  0
POINT
  5
FB72
330
E2CC
100
AcDbEntity
  8
Defpoints
 62
     0
 48
0.5
100
AcDbPoint
 10
1237.359909041668
 20
779.2334620450946
 30
0.0
  0
POINT
  5
FB73
330
E2CC
100
AcDbEntity
  8
Defpoints
 62
     0
 48
0.5
100
AcDbPoint
 10
1237.359909041668
 20
777.2355802601453
 30
0.0
  0
ENDBLK
  5
E2D8
330
E2CC
100
AcDbEntity
  8
0
 48
0.5
100
AcDbBlockEnd
  0
BLOCK
  5
E2E5
330
E2DA
100
AcDbEntity
  8
0
 48
0.5
100
AcDbBlockBegin
  2
*D11
 70
     1
 10
0.0
 20
0.0
 30
0.0
  3
*D11
  1

  0
LINE
  5
FB74
330
E2DA
100
AcDbEntity
  8
DIM
 48
0.5
100
AcDbLine
 10
1236.822329175905
 20
779.5022022025749
 30
0.0
 11
1236.822329175905
 21
777.6566207072866
 31
0.0
  0
LINE
  5
FB75
330
E2DA
100
AcDbEntity
  8
DIM
 48
0.5
100
AcDbLine
 10
1235.697329175906
 20
779.6075171632049
 30
0.0
 11
1235.697329175906
 21
777.6566207072866
 31
0.0
  0
LINE
  5
FB76
330
E2DA
100
AcDbEntity
  8
DIM
 48
0.5
100
AcDbLine
 10
1236.702329175906
 20
777.7366207072867
 30
0.0
 11
1235.817329175906
 21
777.7366207072867
 31
0.0
  0
LINE
  5
FB77
330
E2DA
100
AcDbEntity
  8
DIM
 48
0.5
100
AcDbLine
 10
1235.697329175906
 20
777.7366207072867
 30
0.0
 11
1234.394472033049
 21
777.7366207072867
 31
0.0
  0
SOLID
  5
FB78
330
E2DA
100
AcDbEntity
  8
DIM
 48
0.5
100
AcDbTrace
 10
1236.702329175906
 20
777.7566207072866
 30
0.0
 11
1236.702329175906
 21
777.7166207072866
 31
0.0
 12
1236.822329175905
 22
777.7366207072867
 32
0.0
 13
1236.822329175905
 23
777.7366207072867
 33
0.0
  0
SOLID
  5
FB79
330
E2DA
100
AcDbEntity
  8
DIM
 48
0.5
100
AcDbTrace
 10
1235.817329175906
 20
777.7566207072866
 30
0.0
 11
1235.817329175906
 21
777.7166207072866
 31
0.0
 12
1235.697329175906
 22
777.7366207072867
 32
0.0
 13
1235.697329175906
 23
777.7366207072867
 33
0.0
  0
MTEXT
  5
FB7A
330
E2DA
100
AcDbEntity
  8
DIM
 48
0.5
100
AcDbMText
 10
1234.985900604477
 20
777.8680492787152
 30
0.0
 40
0.12
 41
0.0
 71
     5
 72
     1
  1
\A1;1.13 [28.58]
  7
DAYUS
 73
     1
 44
1.0
1001
ACAD
1000
MTEXTBEGIN
1070
    73
1070
     1
1070
    44
1040
1.0
1070
    74
1070
     0
1000
MTEXTEND
  0
POINT
  5
FB7B
330
E2DA
100
AcDbEntity
  8
Defpoints
 62
     0
 48
0.5
100
AcDbPoint
 10
1236.822329175905
 20
779.5622022025749
 30
0.0
  0
POINT
  5
FB7C
330
E2DA
100
AcDbEntity
  8
Defpoints
 62
     0
 48
0.5
100
AcDbPoint
 10
1235.697329175906
 20
779.6675171632048
 30
0.0
  0
POINT
  5
FB7D
330
E2DA
100
AcDbEntity
  8
Defpoints
 62
     0
 48
0.5
100
AcDbPoint
 10
1235.697329175906
 20
777.7366207072867
 30
0.0
  0
ENDBLK
  5
E2E6
330
E2DA
100
AcDbEntity
  8
0
 48
0.5
100
AcDbBlockEnd
  0
BLOCK
  5
E2F3
330
E2E9
100
AcDbEntity
  8
0
 48
0.5
100
AcDbBlockBegin
  2
*D12
 70
     1
 10
0.0
 20
0.0
 30
0.0
  3
*D12
  1

  0
LINE
  5
FB7E
330
E2E9
100
AcDbEntity
  8
DIM
 48
0.5
100
AcDbLine
 10
1238.197343569541
 20
777.6734620450946
 30
0.0
 11
1238.197343569541
 21
777.1555802601453
 31
0.0
  0
LINE
  5
FB7F
330
E2E9
100
AcDbEntity
  8
DIM
 48
0.5
100
AcDbLine
 10
1239.767343569541
 20
777.6734620450946
 30
0.0
 11
1239.767343569541
 21
777.1555802601453
 31
0.0
  0
LINE
  5
FB80
330
E2E9
100
AcDbEntity
  8
DIM
 48
0.5
100
AcDbLine
 10
1238.317343569541
 20
777.2355802601453
 30
0.0
 11
1239.647343569541
 21
777.2355802601453
 31
0.0
  0
SOLID
  5
FB81
330
E2E9
100
AcDbEntity
  8
DIM
 48
0.5
100
AcDbTrace
 10
1238.317343569541
 20
777.2555802601454
 30
0.0
 11
1238.317343569541
 21
777.2155802601454
 31
0.0
 12
1238.197343569541
 22
777.2355802601453
 32
0.0
 13
1238.197343569541
 23
777.2355802601453
 33
0.0
  0
SOLID
  5
FB82
330
E2E9
100
AcDbEntity
  8
DIM
 48
0.5
100
AcDbTrace
 10
1239.647343569541
 20
777.2555802601454
 30
0.0
 11
1239.647343569541
 21
777.2155802601454
 31
0.0
 12
1239.767343569541
 22
777.2355802601453
 32
0.0
 13
1239.767343569541
 23
777.2355802601453
 33
0.0
  0
MTEXT
  5
FB83
330
E2E9
100
AcDbEntity
  8
DIM
 48
0.5
100
AcDbMText
 10
1238.982343569541
 20
777.367008831574
 30
0.0
 40
0.12
 41
0.0
 71
     5
 72
     1
  1
\A1;1.57 [39.88]
  7
DAYUS
 73
     1
 44
1.0
1001
ACAD
1000
MTEXTBEGIN
1070
    73
1070
     1
1070
    44
1040
1.0
1070
    74
1070
     0
1000
MTEXTEND
  0
POINT
  5
FB84
330
E2E9
100
AcDbEntity
  8
Defpoints
 62
     0
 48
0.5
100
AcDbPoint
 10
1238.197343569541
 20
777.7334620450946
 30
0.0
  0
POINT
  5
FB85
330
E2E9
100
AcDbEntity
  8
Defpoints
 62
     0
 48
0.5
100
AcDbPoint
 10
1239.767343569541
 20
777.7334620450946
 30
0.0
  0
POINT
  5
FB86
330
E2E9
100
AcDbEntity
  8
Defpoints
 62
     0
 48
0.5
100
AcDbPoint
 10
1239.767343569541
 20
777.2355802601453
 30
0.0
  0
ENDBLK
  5
E2F4
330
E2E9
100
AcDbEntity
  8
0
 48
0.5
100
AcDbBlockEnd
  0
BLOCK
  5
E301
330
E2F6
100
AcDbEntity
  8
0
 48
0.5
100
AcDbBlockBegin
  2
*D13
 70
     1
 10
0.0
 20
0.0
 30
0.0
  3
*D13
  1

  0
LINE
  5
FB87
330
E2F6
100
AcDbEntity
  8
DIM
 48
0.5
100
AcDbLine
 10
1241.267343569541
 20
777.6734620450945
 30
0.0
 11
1241.267343569541
 21
777.1555802601453
 31
0.0
  0
LINE
  5
FB88
330
E2F6
100
AcDbEntity
  8
DIM
 48
0.5
100
AcDbLine
 10
1242.447343569541
 20
777.6734620450945
 30
0.0
 11
1242.447343569541
 21
777.1555802601453
 31
0.0
  0
LINE
  5
FB89
330
E2F6
100
AcDbEntity
  8
DIM
 48
0.5
100
AcDbLine
 10
1241.387343569541
 20
777.2355802601453
 30
0.0
 11
1242.327343569541
 21
777.2355802601453
 31
0.0
  0
LINE
  5
FB8A
330
E2F6
100
AcDbEntity
  8
DIM
 48
0.5
100
AcDbLine
 10
1242.447343569541
 20
777.2355802601453
 30
0.0
 11
1243.750200712398
 21
777.2355802601453
 31
0.0
  0
SOLID
  5
FB8B
330
E2F6
100
AcDbEntity
  8
DIM
 48
0.5
100
AcDbTrace
 10
1241.387343569541
 20
777.2555802601454
 30
0.0
 11
1241.387343569541
 21
777.2155802601454
 31
0.0
 12
1241.267343569541
 22
777.2355802601453
 32
0.0
 13
1241.267343569541
 23
777.2355802601453
 33
0.0
  0
SOLID
  5
FB8C
330
E2F6
100
AcDbEntity
  8
DIM
 48
0.5
100
AcDbTrace
 10
1242.327343569541
 20
777.2555802601454
 30
0.0
 11
1242.327343569541
 21
777.2155802601454
 31
0.0
 12
1242.447343569541
 22
777.2355802601453
 32
0.0
 13
1242.447343569541
 23
777.2355802601453
 33
0.0
  0
MTEXT
  5
FB8D
330
E2F6
100
AcDbEntity
  8
DIM
 48
0.5
100
AcDbMText
 10
1243.15877214097
 20
777.367008831574
 30
0.0
 40
0.12
 41
0.0
 71
     5
 72
     1
  1
\A1;1.18 [29.97]
  7
DAYUS
 73
     1
 44
1.0
1001
ACAD
1000
MTEXTBEGIN
1070
    73
1070
     1
1070
    44
1040
1.0
1070
    74
1070
     0
1000
MTEXTEND
  0
POINT
  5
FB8E
330
E2F6
100
AcDbEntity
  8
Defpoints
 62
     0
 48
0.5
100
AcDbPoint
 10
1241.267343569541
 20
777.7334620450944
 30
0.0
  0
POINT
  5
FB8F
330
E2F6
100
AcDbEntity
  8
Defpoints
 62
     0
 48
0.5
100
AcDbPoint
 10
1242.447343569541
 20
777.7334620450944
 30
0.0
  0
POINT
  5
FB90
330
E2F6
100
AcDbEntity
  8
Defpoints
 62
     0
 48
0.5
100
AcDbPoint
 10
1242.447343569541
 20
777.2355802601453
 30
0.0
  0
ENDBLK
  5
E302
330
E2F6
100
AcDbEntity
  8
0
 48
0.5
100
AcDbBlockEnd
  0
BLOCK
  5
E30E
330
E304
100
AcDbEntity
  8
0
 48
0.5
100
AcDbBlockBegin
  2
*D14
 70
     1
 10
0.0
 20
0.0
 30
0.0
  3
*D14
  1

  0
LINE
  5
FBFC
330
E304
100
AcDbEntity
  8
DIM
 48
0.5
100
AcDbLine
 10
1236.822329175905
 20
779.4234620450946
 30
0.0
 11
1236.822329175905
 21
779.2934620450945
 31
0.0
  0
LINE
  5
FBFD
330
E304
100
AcDbEntity
  8
DIM
 48
0.5
100
AcDbLine
 10
1239.25986325458
 20
777.6434620450945
 30
0.0
 11
1239.25986325458
 21
777.5184374030024
 31
0.0
  0
LINE
  5
FBFE
330
E304
100
AcDbEntity
  8
DIM
 48
0.5
100
AcDbLine
 10
1236.942329175905
 20
776.7935436938894
 30
0.0
 11
1239.13986325458
 21
776.7935436938894
 31
0.0
  0
SOLID
  5
FBFF
330
E304
100
AcDbEntity
  8
DIM
 48
0.5
100
AcDbTrace
 10
1236.942329175905
 20
776.8135436938893
 30
0.0
 11
1236.942329175905
 21
776.7735436938894
 31
0.0
 12
1236.822329175905
 22
776.7935436938894
 32
0.0
 13
1236.822329175905
 23
776.7935436938894
 33
0.0
  0
SOLID
  5
FC00
330
E304
100
AcDbEntity
  8
DIM
 48
0.5
100
AcDbTrace
 10
1239.13986325458
 20
776.8135436938893
 30
0.0
 11
1239.13986325458
 21
776.7735436938894
 31
0.0
 12
1239.25986325458
 22
776.7935436938894
 32
0.0
 13
1239.25986325458
 23
776.7935436938894
 33
0.0
  0
MTEXT
  5
FC01
330
E304
100
AcDbEntity
  8
DIM
 48
0.5
100
AcDbMText
 10
1238.041096215243
 20
776.924972265318
 30
0.0
 40
0.12
 41
0.0
 71
     5
 72
     1
  1
\A1;2.44 [61.91]
  7
DAYUS
 73
     1
 44
1.0
1001
ACAD
1000
MTEXTBEGIN
1070
    73
1070
     1
1070
    44
1040
1.0
1070
    74
1070
     0
1000
MTEXTEND
  0
POINT
  5
FC02
330
E304
100
AcDbEntity
  8
Defpoints
 62
     0
 48
0.5
100
AcDbPoint
 10
1236.822329175905
 20
779.5622022025749
 30
0.0
  0
POINT
  5
FC03
330
E304
100
AcDbEntity
  8
Defpoints
 62
     0
 48
0.5
100
AcDbPoint
 10
1239.25986325458
 20
777.7034620450945
 30
0.0
  0
POINT
  5
FC04
330
E304
100
AcDbEntity
  8
Defpoints
 62
     0
 48
0.5
100
AcDbPoint
 10
1239.25986325458
 20
776.7935436938894
 30
0.0
  0
LINE
  5
FC05
330
E304
100
AcDbEntity
  8
DIM
 48
0.5
100
AcDbLine
 10
1239.25986325458
 20
777.1755802601455
 30
0.0
 11
1239.25986325458
 21
776.7135436938894
 31
0.0
  0
LINE
  5
FC06
330
E304
100
AcDbEntity
  8
DIM
 48
0.5
100
AcDbLine
 10
1236.822329175905
 20
777.1755802601455
 30
0.0
 11
1236.822329175905
 21
776.7135436938894
 31
0.0
  0
LINE
  5
FC07
330
E304
100
AcDbEntity
  8
DIM
 48
0.5
100
AcDbLine
 10
1236.822329175905
 20
779.1734620450946
 30
0.0
 11
1236.822329175905
 21
777.2955802601453
 31
0.0
  0
ENDBLK
  5
E30F
330
E304
100
AcDbEntity
  8
0
 48
0.5
100
AcDbBlockEnd
  0
BLOCK
  5
E31B
330
E311
100
AcDbEntity
  8
0
 48
0.5
100
AcDbBlockBegin
  2
*D15
 70
     1
 10
0.0
 20
0.0
 30
0.0
  3
*D15
  1

  0
LINE
  5
FC08
330
E311
100
AcDbEntity
  8
DIM
 48
0.5
100
AcDbLine
 10
1239.25986325458
 20
777.6434620450945
 30
0.0
 11
1239.25986325458
 21
777.5184374030024
 31
0.0
  0
LINE
  5
FC09
330
E311
100
AcDbEntity
  8
DIM
 48
0.5
100
AcDbLine
 10
1241.884666404186
 20
777.6434620450945
 30
0.0
 11
1241.884666404186
 21
777.2955802601453
 31
0.0
  0
LINE
  5
FC0A
330
E311
100
AcDbEntity
  8
DIM
 48
0.5
100
AcDbLine
 10
1239.37986325458
 20
776.7935436938894
 30
0.0
 11
1241.764666404187
 21
776.7935436938894
 31
0.0
  0
SOLID
  5
FC0B
330
E311
100
AcDbEntity
  8
DIM
 48
0.5
100
AcDbTrace
 10
1239.37986325458
 20
776.8135436938893
 30
0.0
 11
1239.37986325458
 21
776.7735436938894
 31
0.0
 12
1239.25986325458
 22
776.7935436938894
 32
0.0
 13
1239.25986325458
 23
776.7935436938894
 33
0.0
  0
SOLID
  5
FC0C
330
E311
100
AcDbEntity
  8
DIM
 48
0.5
100
AcDbTrace
 10
1241.764666404187
 20
776.8135436938893
 30
0.0
 11
1241.764666404187
 21
776.7735436938894
 31
0.0
 12
1241.884666404186
 22
776.7935436938894
 32
0.0
 13
1241.884666404186
 23
776.7935436938894
 33
0.0
  0
MTEXT
  5
FC0D
330
E311
100
AcDbEntity
  8
DIM
 48
0.5
100
AcDbMText
 10
1240.572264829383
 20
776.924972265318
 30
0.0
 40
0.12
 41
0.0
 71
     5
 72
     1
  1
\A1;2.62 [66.67]
  7
DAYUS
 73
     1
 44
1.0
1001
ACAD
1000
MTEXTBEGIN
1070
    73
1070
     1
1070
    44
1040
1.0
1070
    74
1070
     0
1000
MTEXTEND
  0
POINT
  5
FC0E
330
E311
100
AcDbEntity
  8
Defpoints
 62
     0
 48
0.5
100
AcDbPoint
 10
1239.25986325458
 20
777.7034620450945
 30
0.0
  0
POINT
  5
FC0F
330
E311
100
AcDbEntity
  8
Defpoints
 62
     0
 48
0.5
100
AcDbPoint
 10
1241.884666404186
 20
777.7034620450945
 30
0.0
  0
POINT
  5
FC10
330
E311
100
AcDbEntity
  8
Defpoints
 62
     0
 48
0.5
100
AcDbPoint
 10
1241.884666404186
 20
776.7935436938894
 30
0.0
  0
LINE
  5
FC11
330
E311
100
AcDbEntity
  8
DIM
 48
0.5
100
AcDbLine
 10
1241.884666404186
 20
777.1755802601455
 30
0.0
 11
1241.884666404186
 21
776.7135436938894
 31
0.0
  0
LINE
  5
FC12
330
E311
100
AcDbEntity
  8
DIM
 48
0.5
100
AcDbLine
 10
1239.25986325458
 20
777.1755802601455
 30
0.0
 11
1239.25986325458
 21
776.7135436938894
 31
0.0
  0
ENDBLK
  5
E31C
330
E311
100
AcDbEntity
  8
0
 48
0.5
100
AcDbBlockEnd
  0
BLOCK
  5
E328
330
E31E
100
AcDbEntity
  8
0
 48
0.5
100
AcDbBlockBegin
  2
*D16
 70
     1
 10
0.0
 20
0.0
 30
0.0
  3
*D16
  1

  0
LINE
  5
FCF5
330
E31E
100
AcDbEntity
  8
DIM
 48
0.5
100
AcDbLine
 10
1236.822329175905
 20
780.4647218876141
 30
0.0
 11
1236.822329175905
 21
783.3317300706022
 31
0.0
  0
LINE
  5
FCF6
330
E31E
100
AcDbEntity
  8
DIM
 48
0.5
100
AcDbLine
 10
1239.157343569541
 20
782.3533850125612
 30
0.0
 11
1239.157343569541
 21
783.3317300706022
 31
0.0
  0
LINE
  5
FCF7
330
E31E
100
AcDbEntity
  8
DIM
 48
0.5
100
AcDbLine
 10
1236.942329175905
 20
783.2517300706022
 30
0.0
 11
1239.037343569541
 21
783.2517300706022
 31
0.0
  0
SOLID
  5
FCF8
330
E31E
100
AcDbEntity
  8
DIM
 48
0.5
100
AcDbTrace
 10
1236.942329175905
 20
783.2717300706022
 30
0.0
 11
1236.942329175905
 21
783.2317300706022
 31
0.0
 12
1236.822329175905
 22
783.2517300706022
 32
0.0
 13
1236.822329175905
 23
783.2517300706022
 33
0.0
  0
SOLID
  5
FCF9
330
E31E
100
AcDbEntity
  8
DIM
 48
0.5
100
AcDbTrace
 10
1239.037343569541
 20
783.2717300706022
 30
0.0
 11
1239.037343569541
 21
783.2317300706022
 31
0.0
 12
1239.157343569541
 22
783.2517300706022
 32
0.0
 13
1239.157343569541
 23
783.2517300706022
 33
0.0
  0
MTEXT
  5
FCFA
330
E31E
100
AcDbEntity
  8
DIM
 48
0.5
100
AcDbMText
 10
1237.989836372723
 20
783.3831586420308
 30
0.0
 40
0.12
 41
0.0
 71
     5
 72
     1
  1
\A1;2.34 [59.31]
  7
DAYUS
 73
     1
 44
1.0
1001
ACAD
1000
MTEXTBEGIN
1070
    73
1070
     1
1070
    44
1040
1.0
1070
    74
1070
     0
1000
MTEXTEND
  0
POINT
  5
FCFB
330
E31E
100
AcDbEntity
  8
Defpoints
 62
     0
 48
0.5
100
AcDbPoint
 10
1236.822329175905
 20
780.4047218876141
 30
0.0
  0
POINT
  5
FCFC
330
E31E
100
AcDbEntity
  8
Defpoints
 62
     0
 48
0.5
100
AcDbPoint
 10
1239.157343569541
 20
782.2933850125613
 30
0.0
  0
POINT
  5
FCFD
330
E31E
100
AcDbEntity
  8
Defpoints
 62
     0
 48
0.5
100
AcDbPoint
 10
1239.157343569541
 20
783.2517300706022
 30
0.0
  0
ENDBLK
  5
E329
330
E31E
100
AcDbEntity
  8
0
 48
0.5
100
AcDbBlockEnd
  0
BLOCK
  5
E335
330
E32B
100
AcDbEntity
  8
0
 48
0.5
100
AcDbBlockBegin
  2
*D17
 70
     1
 10
0.0
 20
0.0
 30
0.0
  3
*D17
  1

  0
LINE
  5
FCC4
330
E32B
100
AcDbEntity
  8
DIM
 48
0.5
100
AcDbLine
 10
1239.157343569541
 20
782.3533850125612
 30
0.0
 11
1239.157343569541
 21
783.3317300706022
 31
0.0
  0
LINE
  5
FCC5
330
E32B
100
AcDbEntity
  8
DIM
 48
0.5
100
AcDbLine
 10
1241.877343569541
 20
782.3533850125612
 30
0.0
 11
1241.877343569541
 21
783.3317300706022
 31
0.0
  0
LINE
  5
FCC6
330
E32B
100
AcDbEntity
  8
DIM
 48
0.5
100
AcDbLine
 10
1239.277343569541
 20
783.2517300706022
 30
0.0
 11
1241.757343569541
 21
783.2517300706022
 31
0.0
  0
SOLID
  5
FCC7
330
E32B
100
AcDbEntity
  8
DIM
 48
0.5
100
AcDbTrace
 10
1239.277343569541
 20
783.2717300706022
 30
0.0
 11
1239.277343569541
 21
783.2317300706022
 31
0.0
 12
1239.157343569541
 22
783.2517300706022
 32
0.0
 13
1239.157343569541
 23
783.2517300706022
 33
0.0
  0
SOLID
  5
FCC8
330
E32B
100
AcDbEntity
  8
DIM
 48
0.5
100
AcDbTrace
 10
1241.757343569541
 20
783.2717300706022
 30
0.0
 11
1241.757343569541
 21
783.2317300706022
 31
0.0
 12
1241.877343569541
 22
783.2517300706022
 32
0.0
 13
1241.877343569541
 23
783.2517300706022
 33
0.0
  0
MTEXT
  5
FCC9
330
E32B
100
AcDbEntity
  8
DIM
 48
0.5
100
AcDbMText
 10
1240.508911022588
 20
783.3831586420308
 30
0.0
 40
0.12
 41
0.0
 71
     5
 72
     1
  1
\A1;2.72 [69.09]
  7
DAYUS
 73
     1
 44
1.0
1001
ACAD
1000
MTEXTBEGIN
1070
    73
1070
     1
1070
    44
1040
1.0
1070
    74
1070
     0
1000
MTEXTEND
  0
POINT
  5
FCCA
330
E32B
100
AcDbEntity
  8
Defpoints
 62
     0
 48
0.5
100
AcDbPoint
 10
1239.157343569541
 20
782.2933850125613
 30
0.0
  0
POINT
  5
FCCB
330
E32B
100
AcDbEntity
  8
Defpoints
 62
     0
 48
0.5
100
AcDbPoint
 10
1241.877343569541
 20
782.2933850125613
 30
0.0
  0
POINT
  5
FCCC
330
E32B
100
AcDbEntity
  8
Defpoints
 62
     0
 48
0.5
100
AcDbPoint
 10
1241.877343569541
 20
783.2517300706022
 30
0.0
  0
ENDBLK
  5
E336
330
E32B
100
AcDbEntity
  8
0
 48
0.5
100
AcDbBlockEnd
  0
BLOCK
  5
E342
330
E338
100
AcDbEntity
  8
0
 48
0.5
100
AcDbBlockBegin
  2
*D18
 70
     1
 10
0.0
 20
0.0
 30
0.0
  3
*D18
  1

  0
LINE
  5
FCFE
330
E338
100
AcDbEntity
  8
DIM
 48
0.5
100
AcDbLine
 10
1236.822329175905
 20
780.5434620450945
 30
0.0
 11
1236.822329175905
 21
780.6734620450947
 31
0.0
  0
LINE
  5
FCFF
330
E338
100
AcDbEntity
  8
DIM
 48
0.5
100
AcDbLine
 10
1238.197343569541
 20
782.2795863253071
 30
0.0
 11
1238.197343569541
 21
783.1917300706022
 31
0.0
  0
LINE
  5
FD00
330
E338
100
AcDbEntity
  8
DIM
 48
0.5
100
AcDbLine
 10
1236.942329175905
 20
783.61713330396
 30
0.0
 11
1238.077343569541
 21
783.61713330396
 31
0.0
  0
SOLID
  5
FD01
330
E338
100
AcDbEntity
  8
DIM
 48
0.5
100
AcDbTrace
 10
1236.942329175905
 20
783.63713330396
 30
0.0
 11
1236.942329175905
 21
783.5971333039601
 31
0.0
 12
1236.822329175905
 22
783.61713330396
 32
0.0
 13
1236.822329175905
 23
783.61713330396
 33
0.0
  0
SOLID
  5
FD02
330
E338
100
AcDbEntity
  8
DIM
 48
0.5
100
AcDbTrace
 10
1238.077343569541
 20
783.63713330396
 30
0.0
 11
1238.077343569541
 21
783.5971333039601
 31
0.0
 12
1238.197343569541
 22
783.61713330396
 32
0.0
 13
1238.197343569541
 23
783.61713330396
 33
0.0
  0
MTEXT
  5
FD03
330
E338
100
AcDbEntity
  8
DIM
 48
0.5
100
AcDbMText
 10
1237.509836372723
 20
783.7485618753886
 30
0.0
 40
0.12
 41
0.0
 71
     5
 72
     1
  1
\A1;1.38 [34.93]
  7
DAYUS
 73
     1
 44
1.0
1001
ACAD
1000
MTEXTBEGIN
1070
    73
1070
     1
1070
    44
1040
1.0
1070
    74
1070
     0
1000
MTEXTEND
  0
POINT
  5
FD04
330
E338
100
AcDbEntity
  8
Defpoints
 62
     0
 48
0.5
100
AcDbPoint
 10
1236.822329175905
 20
780.4047218876141
 30
0.0
  0
POINT
  5
FD05
330
E338
100
AcDbEntity
  8
Defpoints
 62
     0
 48
0.5
100
AcDbPoint
 10
1238.197343569541
 20
782.2195863253072
 30
0.0
  0
POINT
  5
FD06
330
E338
100
AcDbEntity
  8
Defpoints
 62
     0
 48
0.5
100
AcDbPoint
 10
1238.197343569541
 20
783.61713330396
 30
0.0
  0
LINE
  5
FD07
330
E338
100
AcDbEntity
  8
DIM
 48
0.5
100
AcDbLine
 10
1238.197343569541
 20
783.5345872134594
 30
0.0
 11
1238.197343569541
 21
783.69713330396
 31
0.0
  0
LINE
  5
FD08
330
E338
100
AcDbEntity
  8
DIM
 48
0.5
100
AcDbLine
 10
1236.822329175905
 20
780.7934620450945
 30
0.0
 11
1236.822329175905
 21
783.69713330396
 31
0.0
  0
ENDBLK
  5
E343
330
E338
100
AcDbEntity
  8
0
 48
0.5
100
AcDbBlockEnd
  0
BLOCK
  5
E34F
330
E345
100
AcDbEntity
  8
0
 48
0.5
100
AcDbBlockBegin
  2
*D19
 70
     1
 10
0.0
 20
0.0
 30
0.0
  3
*D19
  1

  0
LINE
  5
FD09
330
E345
100
AcDbEntity
  8
DIM
 48
0.5
100
AcDbLine
 10
1238.197343569541
 20
782.2795863253071
 30
0.0
 11
1238.197343569541
 21
783.1917300706022
 31
0.0
  0
LINE
  5
FD0A
330
E345
100
AcDbEntity
  8
DIM
 48
0.5
100
AcDbLine
 10
1242.447343569541
 20
782.2829898037455
 30
0.0
 11
1242.447343569541
 21
783.69713330396
 31
0.0
  0
LINE
  5
FD0B
330
E345
100
AcDbEntity
  8
DIM
 48
0.5
100
AcDbLine
 10
1238.317343569541
 20
783.61713330396
 30
0.0
 11
1242.327343569541
 21
783.61713330396
 31
0.0
  0
SOLID
  5
FD0C
330
E345
100
AcDbEntity
  8
DIM
 48
0.5
100
AcDbTrace
 10
1238.317343569541
 20
783.63713330396
 30
0.0
 11
1238.317343569541
 21
783.5971333039601
 31
0.0
 12
1238.197343569541
 22
783.61713330396
 32
0.0
 13
1238.197343569541
 23
783.61713330396
 33
0.0
  0
SOLID
  5
FD0D
330
E345
100
AcDbEntity
  8
DIM
 48
0.5
100
AcDbTrace
 10
1242.327343569541
 20
783.63713330396
 30
0.0
 11
1242.327343569541
 21
783.5971333039601
 31
0.0
 12
1242.447343569541
 22
783.61713330396
 32
0.0
 13
1242.447343569541
 23
783.61713330396
 33
0.0
  0
MTEXT
  5
FD0E
330
E345
100
AcDbEntity
  8
DIM
 48
0.5
100
AcDbMText
 10
1240.287868634051
 20
783.7485618753886
 30
0.0
 40
0.12
 41
0.0
 71
     5
 72
     1
  1
\A1;4.25 [107.95]
  7
DAYUS
 73
     1
 44
1.0
1001
ACAD
1000
MTEXTBEGIN
1070
    73
1070
     1
1070
    44
1040
1.0
1070
    74
1070
     0
1000
MTEXTEND
  0
POINT
  5
FD0F
330
E345
100
AcDbEntity
  8
Defpoints
 62
     0
 48
0.5
100
AcDbPoint
 10
1238.197343569541
 20
782.2195863253072
 30
0.0
  0
POINT
  5
FD10
330
E345
100
AcDbEntity
  8
Defpoints
 62
     0
 48
0.5
100
AcDbPoint
 10
1242.447343569541
 20
782.2229898037456
 30
0.0
  0
POINT
  5
FD11
330
E345
100
AcDbEntity
  8
Defpoints
 62
     0
 48
0.5
100
AcDbPoint
 10
1242.447343569541
 20
783.61713330396
 30
0.0
  0
LINE
  5
FD12
330
E345
100
AcDbEntity
  8
DIM
 48
0.5
100
AcDbLine
 10
1238.197343569541
 20
783.5345872134594
 30
0.0
 11
1238.197343569541
 21
783.69713330396
 31
0.0
  0
ENDBLK
  5
E350
330
E345
100
AcDbEntity
  8
0
 48
0.5
100
AcDbBlockEnd
  0
BLOCK
  5
E35C
330
E352
100
AcDbEntity
  8
0
 48
0.5
100
AcDbBlockBegin
  2
*D20
 70
     1
 10
0.0
 20
0.0
 30
0.0
  3
*D20
  1

  0
LINE
  5
FC92
330
E352
100
AcDbEntity
  8
DIM
 48
0.5
100
AcDbLine
 10
1236.822329175905
 20
780.4647218876141
 30
0.0
 11
1236.822329175905
 21
784.062536490247
 31
0.0
  0
LINE
  5
FC93
330
E352
100
AcDbEntity
  8
DIM
 48
0.5
100
AcDbLine
 10
1242.650468569541
 20
780.7833342913271
 30
0.0
 11
1242.650468569541
 21
784.062536490247
 31
0.0
  0
LINE
  5
FC94
330
E352
100
AcDbEntity
  8
DIM
 48
0.5
100
AcDbLine
 10
1236.942329175905
 20
783.9825364902469
 30
0.0
 11
1242.530468569541
 21
783.9825364902469
 31
0.0
  0
SOLID
  5
FC95
330
E352
100
AcDbEntity
  8
DIM
 48
0.5
100
AcDbTrace
 10
1236.942329175905
 20
784.0025364902469
 30
0.0
 11
1236.942329175905
 21
783.9625364902469
 31
0.0
 12
1236.822329175905
 22
783.9825364902469
 32
0.0
 13
1236.822329175905
 23
783.9825364902469
 33
0.0
  0
SOLID
  5
FC96
330
E352
100
AcDbEntity
  8
DIM
 48
0.5
100
AcDbTrace
 10
1242.530468569541
 20
784.0025364902469
 30
0.0
 11
1242.530468569541
 21
783.9625364902469
 31
0.0
 12
1242.650468569541
 22
783.9825364902469
 32
0.0
 13
1242.650468569541
 23
783.9825364902469
 33
0.0
  0
MTEXT
  5
FC97
330
E352
100
AcDbEntity
  8
DIM
 48
0.5
100
AcDbMText
 10
1239.718259382599
 20
784.1139650616756
 30
0.0
 40
0.12
 41
0.0
 71
     5
 72
     1
  1
\A1;5.83 [148.03]
  7
DAYUS
 73
     1
 44
1.0
1001
ACAD
1000
MTEXTBEGIN
1070
    73
1070
     1
1070
    44
1040
1.0
1070
    74
1070
     0
1000
MTEXTEND
  0
POINT
  5
FC98
330
E352
100
AcDbEntity
  8
Defpoints
 62
     0
 48
0.5
100
AcDbPoint
 10
1236.822329175905
 20
780.4047218876141
 30
0.0
  0
POINT
  5
FC99
330
E352
100
AcDbEntity
  8
Defpoints
 62
     0
 48
0.5
100
AcDbPoint
 10
1242.650468569541
 20
780.7233342913272
 30
0.0
  0
POINT
  5
FC9A
330
E352
100
AcDbEntity
  8
Defpoints
 62
     0
 48
0.5
100
AcDbPoint
 10
1242.650468569541
 20
783.9825364902469
 30
0.0
  0
ENDBLK
  5
E35D
330
E352
100
AcDbEntity
  8
0
 48
0.5
100
AcDbBlockEnd
  0
BLOCK
  5
F65D
330
F65B
100
AcDbEntity
  8
0
 48
0.5
100
AcDbBlockBegin
  2
GENAXEH
 70
     0
 10
0.0
 20
0.0
 30
0.0
  3
GENAXEH
  1

  0
LINE
  5
F65C
330
F65B
100
AcDbEntity
  8
0
100
AcDbLine
 10
-1.0
 20
0.0
 30
0.0
 11
1.0
 21
0.0
 31
0.0
  0
ENDBLK
  5
F65E
330
F65B
100
AcDbEntity
  8
0
 48
0.5
100
AcDbBlockEnd
  0
BLOCK
  5
FC77
330
FC74
100
AcDbEntity
  8
0
 48
0.5
100
AcDbBlockBegin
  2
A$C0FBC3824
 70
     0
 10
0.0
 20
0.0
 30
0.0
  3
A$C0FBC3824
  1

  0
TEXT
  5
FC78
330
FC74
100
AcDbEntity
  8
0
 62
     4
100
AcDbText
 10
0.0000000077036475
 20
0.1971057862360794
 30
0.0
 40
0.09
  1
0
 41
0.75
  7
CHINESET
100
AcDbText
  0
LINE
  5
FC79
330
FC74
100
AcDbEntity
  8
0
 62
     4
100
AcDbLine
 10
0.0234936358031064
 20
0.0000000178492883
 30
0.0
 11
0.0234936358031064
 21
0.1569089626860887
 31
0.0
  0
TEXT
  5
FC7A
330
FC74
100
AcDbEntity
  8
0
 62
     4
100
AcDbText
 10
0.1606473260601433
 20
0.2195738566518912
 30
0.0
 40
0.09
  1
Stroke
 41
0.75
  7
CHINESET
100
AcDbText
  0
ENDBLK
  5
FC7B
330
FC74
100
AcDbEntity
  8
0
 48
0.5
100
AcDbBlockEnd
  0
BLOCK
  5
FC7F
330
FC7C
100
AcDbEntity
  8
0
 48
0.5
100
AcDbBlockBegin
  2
A$C7A150A0F
 70
     0
 10
0.0
 20
0.0
 30
0.0
  3
A$C7A150A0F
  1

  0
LINE
  5
FC80
330
FC7C
100
AcDbEntity
  8
SL
100
AcDbLine
 10
0.3679920646077335
 20
0.0207352438358157
 30
0.0
 11
0.0
 21
0.0207352438358157
 31
0.0
  0
TRACE
  5
FC81
330
FC7C
100
AcDbEntity
  8
SL
370
    35
100
AcDbTrace
 10
0.2104920646077062
 20
0.041470512113392
 30
0.0
 11
0.2104920646077062
 21
-0.0000000244416469
 31
0.0
 12
0.3679920646077335
 22
0.0207352438358157
 32
0.0
 13
0.3679920646077335
 23
0.0207352438358157
 33
0.0
  0
MTEXT
  5
FC82
330
FC7C
100
AcDbEntity
  8
SL
100
AcDbMText
 10
0.0362430161771954
 20
0.0639487999877702
 30
0.0
 40
0.11025
 41
0.0
 71
     7
 72
     5
  1
SL
  7
ACISOTS
 73
     1
 44
1.0
1001
ACAD
1000
MTEXTBEGIN
1070
    73
1070
     1
1070
    44
1040
1.0
1070
    74
1070
     0
1000
MTEXTEND
  0
ENDBLK
  5
FC83
330
FC7C
100
AcDbEntity
  8
0
 48
0.5
100
AcDbBlockEnd
  0
ENDSEC
  0
SECTION
  2
ENTITIES
  0
MTEXT
  5
57F
330
2
100
AcDbEntity
  8
DIM
100
AcDbMText
 10
171.0016381545888
 20
211.4728669478691
 30
0.0
 40
3.0
 41
0.0
 71
     1
 72
     1
  1

  7
DAYUS
 73
     1
 44
1.0
1001
ACAD
1000
MTEXTBEGIN
1070
    73
1070
     1
1070
    44
1040
1.0
1070
    74
1070
     0
1000
MTEXTEND
  0
MTEXT
  5
9C8
330
2
100
AcDbEntity
  8
DIM
100
AcDbMText
 10
395.9238044175249
 20
214.0436425362303
 30
0.0
 40
3.0
 41
0.0
 71
     1
 72
     1
  1

  7
DAYUS
 73
     1
 44
1.0
1001
ACAD
1000
MTEXTBEGIN
1070
    73
1070
     1
1070
    44
1040
1.0
1070
    74
1070
     0
1000
MTEXTEND
  0
MTEXT
  5
9CE
330
2
100
AcDbEntity
  8
DIM
100
AcDbMText
 10
451.7751899652814
 20
173.9181305121135
 30
0.0
 40
3.0
 41
0.0
 71
     1
 72
     1
  1

  7
DAYUS
 73
     1
 44
1.0
1001
ACAD
1000
MTEXTBEGIN
1070
    73
1070
     1
1070
    44
1040
1.0
1070
    74
1070
     0
1000
MTEXTEND
  0
MTEXT
  5
9D0
330
2
100
AcDbEntity
  8
DIM
100
AcDbMText
 10
259.9703903886596
 20
176.2910840214814
 30
0.0
 40
3.0
 41
0.0
 71
     9
 72
     1
  1

  7
DAYUS
 73
     1
 44
1.0
1001
ACAD
1000
MTEXTBEGIN
1070
    73
1070
     1
1070
    44
1040
1.0
1070
    74
1070
     0
1000
MTEXTEND
  0
MTEXT
  5
9D4
330
2
100
AcDbEntity
  8
DIM
100
AcDbMText
 10
392.9133010604914
 20
171.5405871675761
 30
0.0
 40
3.0
 41
0.0
 71
     1
 72
     1
  1

  7
DAYUS
 73
     1
 44
1.0
1001
ACAD
1000
MTEXTBEGIN
1070
    73
1070
     1
1070
    44
1040
1.0
1070
    74
1070
     0
1000
MTEXTEND
  0
MTEXT
  5
158C
330
2
100
AcDbEntity
  8
DIM
100
AcDbMText
 10
110.8318657981983
 20
-15.08812259434717
 30
0.0
 40
3.0
 41
0.0
 71
     9
 72
     1
  1

  7
DAYUS
 73
     1
 44
1.0
1001
ACAD
1000
MTEXTBEGIN
1070
    73
1070
     1
1070
    44
1040
1.0
1070
    74
1070
     0
1000
MTEXTEND
  0
MTEXT
  5
158F
330
2
100
AcDbEntity
  8
DIM
100
AcDbMText
 10
119.2699599670356
 20
34.7510220230256
 30
0.0
 40
3.0
 41
0.0
 71
     9
 72
     1
  1

  7
DAYUS
 73
     1
 44
1.0
1001
ACAD
1000
MTEXTBEGIN
1070
    73
1070
     1
1070
    44
1040
1.0
1070
    74
1070
     0
1000
MTEXTEND
  0
MTEXT
  5
1591
330
2
100
AcDbEntity
  8
DIM
100
AcDbMText
 10
189.5967930303953
 20
-13.46778498091794
 30
0.0
 40
3.0
 41
0.0
 71
     1
 72
     1
  1

  7
DAYUS
 73
     1
 44
1.0
1001
ACAD
1000
MTEXTBEGIN
1070
    73
1070
     1
1070
    44
1040
1.0
1070
    74
1070
     0
1000
MTEXTEND
  0
MTEXT
  5
1598
330
2
100
AcDbEntity
  8
DIM
100
AcDbMText
 10
90.58412912106287
 20
-25.41282672788975
 30
0.0
 40
3.0
 41
0.0
 71
     9
 72
     1
  1

  7
DAYUS
 73
     1
 44
1.0
1001
ACAD
1000
MTEXTBEGIN
1070
    73
1070
     1
1070
    44
1040
1.0
1070
    74
1070
     0
1000
MTEXTEND
  0
MTEXT
  5
159A
330
2
100
AcDbEntity
  8
DIM
100
AcDbMText
 10
208.5571760105661
 20
-51.68695673963509
 30
0.0
 40
3.0
 41
0.0
 71
     1
 72
     1
  1

  7
DAYUS
 73
     1
 44
1.0
1001
ACAD
1000
MTEXTBEGIN
1070
    73
1070
     1
1070
    44
1040
1.0
1070
    74
1070
     0
1000
MTEXTEND
  0
MTEXT
  5
159D
330
2
100
AcDbEntity
  8
DIM
100
AcDbMText
 10
99.56138925954311
 20
147.6387806501056
 30
0.0
 40
3.0
 41
0.0
 71
     9
 72
     1
  1

  7
DAYUS
 73
     1
 44
1.0
1001
ACAD
1000
MTEXTBEGIN
1070
    73
1070
     1
1070
    44
1040
1.0
1070
    74
1070
     0
1000
MTEXTEND
  0
MTEXT
  5
159F
330
2
100
AcDbEntity
  8
DIM
100
AcDbMText
 10
304.2962861880261
 20
161.94800970186
 30
0.0
 40
3.0
 41
0.0
 71
     9
 72
     1
  1

  7
DAYUS
 73
     1
 44
1.0
1001
ACAD
1000
MTEXTBEGIN
1070
    73
1070
     1
1070
    44
1040
1.0
1070
    74
1070
     0
1000
MTEXTEND
  0
MTEXT
  5
15A2
330
2
100
AcDbEntity
  8
DIM
100
AcDbMText
 10
43.89870096097361
 20
-23.29567037714901
 30
0.0
 40
3.0
 41
0.0
 71
     9
 72
     1
  1

  7
DAYUS
 73
     1
 44
1.0
1001
ACAD
1000
MTEXTBEGIN
1070
    73
1070
     1
1070
    44
1040
1.0
1070
    74
1070
     0
1000
MTEXTEND
  0
MTEXT
  5
1ECC
330
2
100
AcDbEntity
  8
DIM
100
AcDbMText
 10
386.6447020568979
 20
28.34246059625048
 30
0.0
 40
3.0
 41
0.0
 71
     1
 72
     1
  1

  7
DAYUS
 73
     1
 44
1.0
1001
ACAD
1000
MTEXTBEGIN
1070
    73
1070
     1
1070
    44
1040
1.0
1070
    74
1070
     0
1000
MTEXTEND
  0
MTEXT
  5
1ECE
330
2
100
AcDbEntity
  8
DIM
100
AcDbMText
 10
319.574162593258
 20
28.70880813750205
 30
0.0
 40
3.0
 41
0.0
 71
     9
 72
     1
  1

  7
DAYUS
 73
     1
 44
1.0
1001
ACAD
1000
MTEXTBEGIN
1070
    73
1070
     1
1070
    44
1040
1.0
1070
    74
1070
     0
1000
MTEXTEND
  0
MTEXT
  5
1ED0
330
2
100
AcDbEntity
  8
DIM
100
AcDbMText
 10
378.371508435386
 20
-16.25474400202404
 30
0.0
 40
3.0
 41
0.0
 71
     1
 72
     1
  1

  7
DAYUS
 73
     1
 44
1.0
1001
ACAD
1000
MTEXTBEGIN
1070
    73
1070
     1
1070
    44
1040
1.0
1070
    74
1070
     0
1000
MTEXTEND
  0
MTEXT
  5
1ED2
330
2
100
AcDbEntity
  8
DIM
100
AcDbMText
 10
252.8508589257123
 20
-19.0290972650472
 30
0.0
 40
3.0
 41
0.0
 71
     9
 72
     1
  1

  7
DAYUS
 73
     1
 44
1.0
1001
ACAD
1000
MTEXTBEGIN
1070
    73
1070
     1
1070
    44
1040
1.0
1070
    74
1070
     0
1000
MTEXTEND
  0
MTEXT
  5
1ED4
330
2
100
AcDbEntity
  8
DIM
100
AcDbMText
 10
408.0172303915572
 20
-23.72879443427905
 30
0.0
 40
3.0
 41
0.0
 71
     1
 72
     1
  1

  7
DAYUS
 73
     1
 44
1.0
1001
ACAD
1000
MTEXTBEGIN
1070
    73
1070
     1
1070
    44
1040
1.0
1070
    74
1070
     0
1000
MTEXTEND
  0
TEXT
  5
2415
330
2
100
AcDbEntity
  8
LOGO
  6
Continuous
 62
     6
100
AcDbText
 10
725.6097667457372
 20
-105.2238066289788
 30
0.0
 40
2.164502164502164
  1

  7
CHINESET
 72
     4
 11
725.6097667457372
 21
-105.2238066289788
 31
0.0
100
AcDbText
  0
LINE
  5
4695
330
2
100
AcDbEntity
  8
AM_7
 60
     1
100
AcDbLine
 10
821.9829340872449
 20
370.6532985828056
 30
0.0
 11
785.5829340872447
 21
370.6532985828056
 31
0.0
  0
LINE
  5
46DE
330
2
100
AcDbEntity
  8
AM_7
 60
     1
100
AcDbLine
 10
717.3295627225357
 20
370.6532985828056
 30
0.0
 11
720.3295627225356
 21
370.6532985828056
 31
0.0
  0
LINE
  5
46DF
330
2
100
AcDbEntity
  8
AM_7
 60
     1
100
AcDbLine
 10
718.8295627225357
 20
369.1532985828057
 30
0.0
 11
718.8295627225357
 21
372.1532985828056
 31
0.0
  0
LINE
  5
46E0
330
2
100
AcDbEntity
  8
AM_7
 60
     1
100
AcDbLine
 10
709.8295627225357
 20
370.6532985828056
 30
0.0
 11
716.3295627225356
 21
370.6532985828056
 31
0.0
  0
LINE
  5
46E1
330
2
100
AcDbEntity
  8
AM_7
 60
     1
100
AcDbLine
 10
721.3295627225356
 20
370.6532985828056
 30
0.0
 11
727.8295627225356
 21
370.6532985828056
 31
0.0
  0
LINE
  5
46E2
330
2
100
AcDbEntity
  8
AM_7
 60
     1
100
AcDbLine
 10
718.8295627225357
 20
361.6532985828056
 30
0.0
 11
718.8295627225357
 21
368.1532985828056
 31
0.0
  0
LINE
  5
46E3
330
2
100
AcDbEntity
  8
AM_7
 60
     1
100
AcDbLine
 10
718.8295627225357
 20
373.1532985828057
 30
0.0
 11
718.8295627225357
 21
379.6532985828056
 31
0.0
  0
LINE
  5
46E4
330
2
100
AcDbEntity
  8
AM_7
 60
     1
100
AcDbLine
 10
709.0795627225356
 20
362.4032985828056
 30
0.0
 11
712.0795627225357
 21
362.4032985828056
 31
0.0
  0
LINE
  5
46E5
330
2
100
AcDbEntity
  8
AM_7
 60
     1
100
AcDbLine
 10
710.5795627225356
 20
360.9032985828056
 30
0.0
 11
710.5795627225356
 21
363.9032985828056
 31
0.0
  0
LINE
  5
46E6
330
2
100
AcDbEntity
  8
AM_7
 60
     1
100
AcDbLine
 10
706.8142627225356
 20
362.4032985828056
 30
0.0
 11
708.0795627225357
 21
362.4032985828056
 31
0.0
  0
LINE
  5
46E7
330
2
100
AcDbEntity
  8
AM_7
 60
     1
100
AcDbLine
 10
713.0795627225356
 20
362.4032985828056
 30
0.0
 11
714.3448627225356
 21
362.4032985828056
 31
0.0
  0
LINE
  5
46E8
330
2
100
AcDbEntity
  8
AM_7
 60
     1
100
AcDbLine
 10
710.5795627225356
 20
358.6379985828056
 30
0.0
 11
710.5795627225356
 21
359.9032985828056
 31
0.0
  0
LINE
  5
46E9
330
2
100
AcDbEntity
  8
AM_7
 60
     1
100
AcDbLine
 10
710.5795627225356
 20
364.9032985828057
 30
0.0
 11
710.5795627225356
 21
366.1685985828057
 31
0.0
  0
LINE
  5
46EA
330
2
100
AcDbEntity
  8
AM_7
 60
     1
100
AcDbLine
 10
725.5795627225356
 20
362.4032985828056
 30
0.0
 11
728.5795627225357
 21
362.4032985828056
 31
0.0
  0
LINE
  5
46EB
330
2
100
AcDbEntity
  8
AM_7
 60
     1
100
AcDbLine
 10
727.0795627225356
 20
360.9032985828056
 30
0.0
 11
727.0795627225356
 21
363.9032985828056
 31
0.0
  0
LINE
  5
46EC
330
2
100
AcDbEntity
  8
AM_7
 60
     1
100
AcDbLine
 10
723.3142627225356
 20
362.4032985828056
 30
0.0
 11
724.5795627225357
 21
362.4032985828056
 31
0.0
  0
LINE
  5
46ED
330
2
100
AcDbEntity
  8
AM_7
 60
     1
100
AcDbLine
 10
729.5795627225357
 20
362.4032985828056
 30
0.0
 11
730.8448627225356
 21
362.4032985828056
 31
0.0
  0
LINE
  5
46EE
330
2
100
AcDbEntity
  8
AM_7
 60
     1
100
AcDbLine
 10
727.0795627225356
 20
358.6379985828056
 30
0.0
 11
727.0795627225356
 21
359.9032985828056
 31
0.0
  0
LINE
  5
46EF
330
2
100
AcDbEntity
  8
AM_7
 60
     1
100
AcDbLine
 10
727.0795627225356
 20
364.9032985828057
 30
0.0
 11
727.0795627225356
 21
366.1685985828057
 31
0.0
  0
LINE
  5
46F0
330
2
100
AcDbEntity
  8
AM_7
 60
     1
100
AcDbLine
 10
725.5795627225356
 20
378.9032985828056
 30
0.0
 11
728.5795627225357
 21
378.9032985828056
 31
0.0
  0
LINE
  5
46F1
330
2
100
AcDbEntity
  8
AM_7
 60
     1
100
AcDbLine
 10
727.0795627225356
 20
377.4032985828057
 30
0.0
 11
727.0795627225356
 21
380.4032985828056
 31
0.0
  0
LINE
  5
46F2
330
2
100
AcDbEntity
  8
AM_7
 60
     1
100
AcDbLine
 10
723.3142627225356
 20
378.9032985828056
 30
0.0
 11
724.5795627225357
 21
378.9032985828056
 31
0.0
  0
LINE
  5
46F3
330
2
100
AcDbEntity
  8
AM_7
 60
     1
100
AcDbLine
 10
729.5795627225357
 20
378.9032985828056
 30
0.0
 11
730.8448627225356
 21
378.9032985828056
 31
0.0
  0
LINE
  5
46F4
330
2
100
AcDbEntity
  8
AM_7
 60
     1
100
AcDbLine
 10
727.0795627225356
 20
375.1379985828056
 30
0.0
 11
727.0795627225356
 21
376.4032985828056
 31
0.0
  0
LINE
  5
46F5
330
2
100
AcDbEntity
  8
AM_7
 60
     1
100
AcDbLine
 10
727.0795627225356
 20
381.4032985828056
 30
0.0
 11
727.0795627225356
 21
382.6685985828057
 31
0.0
  0
LINE
  5
46F6
330
2
100
AcDbEntity
  8
AM_7
 60
     1
100
AcDbLine
 10
709.0795627225356
 20
378.9032985828056
 30
0.0
 11
712.0795627225357
 21
378.9032985828056
 31
0.0
  0
LINE
  5
46F7
330
2
100
AcDbEntity
  8
AM_7
 60
     1
100
AcDbLine
 10
710.5795627225356
 20
377.4032985828057
 30
0.0
 11
710.5795627225356
 21
380.4032985828056
 31
0.0
  0
LINE
  5
46F8
330
2
100
AcDbEntity
  8
AM_7
 60
     1
100
AcDbLine
 10
706.8142627225356
 20
378.9032985828056
 30
0.0
 11
708.0795627225357
 21
378.9032985828056
 31
0.0
  0
LINE
  5
46F9
330
2
100
AcDbEntity
  8
AM_7
 60
     1
100
AcDbLine
 10
713.0795627225356
 20
378.9032985828056
 30
0.0
 11
714.3448627225356
 21
378.9032985828056
 31
0.0
  0
LINE
  5
46FA
330
2
100
AcDbEntity
  8
AM_7
 60
     1
100
AcDbLine
 10
710.5795627225356
 20
375.1379985828056
 30
0.0
 11
710.5795627225356
 21
376.4032985828056
 31
0.0
  0
LINE
  5
46FB
330
2
100
AcDbEntity
  8
AM_7
 60
     1
100
AcDbLine
 10
710.5795627225356
 20
381.4032985828056
 30
0.0
 11
710.5795627225356
 21
382.6685985828057
 31
0.0
  0
MTEXT
  5
5255
330
2
100
AcDbEntity
  8
DIM
100
AcDbMText
 10
425.4771973450544
 20
385.6437927217159
 30
0.0
 40
3.0
 41
0.0
 71
     9
 72
     1
  1

  7
DAYUS
 73
     1
 44
1.0
1001
ACAD
1000
MTEXTBEGIN
1070
    73
1070
     1
1070
    44
1040
1.0
1070
    74
1070
     0
1000
MTEXTEND
  0
MTEXT
  5
55B3
330
2
100
AcDbEntity
  8
DIM
100
AcDbMText
 10
337.3922889508355
 20
381.3937824807733
 30
0.0
 40
3.0
 41
0.0
 71
     9
 72
     1
  1

  7
DAYUS
 73
     1
 44
1.0
1001
ACAD
1000
MTEXTBEGIN
1070
    73
1070
     1
1070
    44
1040
1.0
1070
    74
1070
     0
1000
MTEXTEND
  0
MTEXT
  5
55B5
330
2
100
AcDbEntity
  8
DIM
100
AcDbMText
 10
464.3020910635148
 20
395.4959283372091
 30
0.0
 40
3.0
 41
0.0
 71
     1
 72
     1
  1

  7
DAYUS
 73
     1
 44
1.0
1001
ACAD
1000
MTEXTBEGIN
1070
    73
1070
     1
1070
    44
1040
1.0
1070
    74
1070
     0
1000
MTEXTEND
  0
MTEXT
  5
55B7
330
2
100
AcDbEntity
  8
DIM
100
AcDbMText
 10
497.4191386176732
 20
388.3459056991758
 30
0.0
 40
3.0
 41
0.0
 71
     9
 72
     1
  1

  7
DAYUS
 73
     1
 44
1.0
1001
ACAD
1000
MTEXTBEGIN
1070
    73
1070
     1
1070
    44
1040
1.0
1070
    74
1070
     0
1000
MTEXTEND
  0
MTEXT
  5
55B9
330
2
100
AcDbEntity
  8
DIM
100
AcDbMText
 10
551.0659257174618
 20
385.0690272050015
 30
0.0
 40
3.0
 41
0.0
 71
     1
 72
     1
  1

  7
DAYUS
 73
     1
 44
1.0
1001
ACAD
1000
MTEXTBEGIN
1070
    73
1070
     1
1070
    44
1040
1.0
1070
    74
1070
     0
1000
MTEXTEND
  0
MTEXT
  5
55BB
330
2
100
AcDbEntity
  8
DIM
100
AcDbMText
 10
536.2490338467599
 20
355.9566858156474
 30
0.0
 40
3.0
 41
0.0
 71
     1
 72
     1
  1

  7
DAYUS
 73
     1
 44
1.0
1001
ACAD
1000
MTEXTBEGIN
1070
    73
1070
     1
1070
    44
1040
1.0
1070
    74
1070
     0
1000
MTEXTEND
  0
MTEXT
  5
55BE
330
2
100
AcDbEntity
  8
DIM
100
AcDbMText
 10
630.4343546649713
 20
392.9941675949847
 30
0.0
 40
3.0
 41
0.0
 71
     1
 72
     1
  1

  7
DAYUS
 73
     1
 44
1.0
1001
ACAD
1000
MTEXTBEGIN
1070
    73
1070
     1
1070
    44
1040
1.0
1070
    74
1070
     0
1000
MTEXTEND
  0
MTEXT
  5
5818
330
2
100
AcDbEntity
  8
DIM
100
AcDbMText
 10
674.2365354058436
 20
381.9223807155993
 30
0.0
 40
3.0
 41
0.0
 71
     9
 72
     1
  1

  7
DAYUS
 73
     1
 44
1.0
1001
ACAD
1000
MTEXTBEGIN
1070
    73
1070
     1
1070
    44
1040
1.0
1070
    74
1070
     0
1000
MTEXTEND
  0
MTEXT
  5
581A
330
2
100
AcDbEntity
  8
DIM
100
AcDbMText
 10
809.5660606680956
 20
394.5445933493984
 30
0.0
 40
3.0
 41
0.0
 71
     1
 72
     1
  1

  7
DAYUS
 73
     1
 44
1.0
1001
ACAD
1000
MTEXTBEGIN
1070
    73
1070
     1
1070
    44
1040
1.0
1070
    74
1070
     0
1000
MTEXTEND
  0
MTEXT
  5
581C
330
2
100
AcDbEntity
  8
DIM
100
AcDbMText
 10
888.0882125058304
 20
352.3853584481396
 30
0.0
 40
3.0
 41
0.0
 71
     1
 72
     1
  1

  7
DAYUS
 73
     1
 44
1.0
1001
ACAD
1000
MTEXTBEGIN
1070
    73
1070
     1
1070
    44
1040
1.0
1070
    74
1070
     0
1000
MTEXTEND
  0
MTEXT
  5
581E
330
2
100
AcDbEntity
  8
DIM
100
AcDbMText
 10
841.6122928642023
 20
381.4409665153828
 30
0.0
 40
3.0
 41
0.0
 71
     9
 72
     1
  1

  7
DAYUS
 73
     1
 44
1.0
1001
ACAD
1000
MTEXTBEGIN
1070
    73
1070
     1
1070
    44
1040
1.0
1070
    74
1070
     0
1000
MTEXTEND
  0
MTEXT
  5
5820
330
2
100
AcDbEntity
  8
DIM
100
AcDbMText
 10
905.1656554192106
 20
381.7631554776815
 30
0.0
 40
3.0
 41
0.0
 71
     1
 72
     1
  1

  7
DAYUS
 73
     1
 44
1.0
1001
ACAD
1000
MTEXTBEGIN
1070
    73
1070
     1
1070
    44
1040
1.0
1070
    74
1070
     0
1000
MTEXTEND
  0
MTEXT
  5
5823
330
2
100
AcDbEntity
  8
DIM
100
AcDbMText
 10
981.8056800376997
 20
387.8743827474727
 30
0.0
 40
3.0
 41
0.0
 71
     1
 72
     1
  1

  7
DAYUS
 73
     1
 44
1.0
1001
ACAD
1000
MTEXTBEGIN
1070
    73
1070
     1
1070
    44
1040
1.0
1070
    74
1070
     0
1000
MTEXTEND
  0
MTEXT
  5
5825
330
2
100
AcDbEntity
  8
DIM
100
AcDbMText
 10
630.3069158966652
 20
392.3413846481697
 30
0.0
 40
3.0
 41
0.0
 71
     1
 72
     1
  1

  7
DAYUS
 73
     1
 44
1.0
1001
ACAD
1000
MTEXTBEGIN
1070
    73
1070
     1
1070
    44
1040
1.0
1070
    74
1070
     0
1000
MTEXTEND
  0
MTEXT
  5
5BAB
330
2
100
AcDbEntity
  8
DIM
100
AcDbMText
 10
684.8805297782558
 20
338.1595951305617
 30
0.0
 40
3.0
 41
0.0
 71
     9
 72
     1
  1

  7
DAYUS
 73
     1
 44
1.0
1001
ACAD
1000
MTEXTBEGIN
1070
    73
1070
     1
1070
    44
1040
1.0
1070
    74
1070
     0
1000
MTEXTEND
  0
MTEXT
  5
5BAD
330
2
100
AcDbEntity
  8
DIM
100
AcDbMText
 10
830.0252386234504
 20
355.9987340734346
 30
0.0
 40
3.0
 41
0.0
 71
     1
 72
     1
  1

  7
DAYUS
 73
     1
 44
1.0
1001
ACAD
1000
MTEXTBEGIN
1070
    73
1070
     1
1070
    44
1040
1.0
1070
    74
1070
     0
1000
MTEXTEND
  0
MTEXT
  5
5BAF
330
2
100
AcDbEntity
  8
DIM
100
AcDbMText
 10
866.9398601322594
 20
342.7022485991038
 30
0.0
 40
3.0
 41
0.0
 71
     9
 72
     1
  1

  7
DAYUS
 73
     1
 44
1.0
1001
ACAD
1000
MTEXTBEGIN
1070
    73
1070
     1
1070
    44
1040
1.0
1070
    74
1070
     0
1000
MTEXTEND
  0
MTEXT
  5
5BB1
330
2
100
AcDbEntity
  8
DIM
100
AcDbMText
 10
914.1167593491697
 20
312.0125777437993
 30
0.0
 40
3.0
 41
0.0
 71
     1
 72
     1
  1

  7
DAYUS
 73
     1
 44
1.0
1001
ACAD
1000
MTEXTBEGIN
1070
    73
1070
     1
1070
    44
1040
1.0
1070
    74
1070
     0
1000
MTEXTEND
  0
MTEXT
  5
5BB3
330
2
100
AcDbEntity
  8
DIM
100
AcDbMText
 10
928.3641264699406
 20
344.1897799651356
 30
0.0
 40
3.0
 41
0.0
 71
     1
 72
     1
  1

  7
DAYUS
 73
     1
 44
1.0
1001
ACAD
1000
MTEXTBEGIN
1070
    73
1070
     1
1070
    44
1040
1.0
1070
    74
1070
     0
1000
MTEXTEND
  0
MTEXT
  5
5BB5
330
2
100
AcDbEntity
  8
DIM
100
AcDbMText
 10
1013.024197505859
 20
347.9904155724335
 30
0.0
 40
3.0
 41
0.0
 71
     1
 72
     1
  1

  7
DAYUS
 73
     1
 44
1.0
1001
ACAD
1000
MTEXTBEGIN
1070
    73
1070
     1
1070
    44
1040
1.0
1070
    74
1070
     0
1000
MTEXTEND
  0
MTEXT
  5
5D19
330
2
100
AcDbEntity
  8
DIM
100
AcDbMText
 10
1132.296897199865
 20
137.4323107276391
 30
0.0
 40
3.0
 41
0.0
 71
     9
 72
     1
  1

  7
DAYUS
 73
     1
 44
1.0
1001
ACAD
1000
MTEXTBEGIN
1070
    73
1070
     1
1070
    44
1040
1.0
1070
    74
1070
     0
1000
MTEXTEND
  0
MTEXT
  5
5D1B
330
2
100
AcDbEntity
  8
DIM
100
AcDbMText
 10
1287.262763063576
 20
157.1269881484054
 30
0.0
 40
3.0
 41
0.0
 71
     1
 72
     1
  1

  7
DAYUS
 73
     1
 44
1.0
1001
ACAD
1000
MTEXTBEGIN
1070
    73
1070
     1
1070
    44
1040
1.0
1070
    74
1070
     0
1000
MTEXTEND
  0
MTEXT
  5
5D1D
330
2
100
AcDbEntity
  8
DIM
100
AcDbMText
 10
1330.112480616849
 20
142.7720950737402
 30
0.0
 40
3.0
 41
0.0
 71
     9
 72
     1
  1

  7
DAYUS
 73
     1
 44
1.0
1001
ACAD
1000
MTEXTBEGIN
1070
    73
1070
     1
1070
    44
1040
1.0
1070
    74
1070
     0
1000
MTEXTEND
  0
MTEXT
  5
5D1F
330
2
100
AcDbEntity
  8
DIM
100
AcDbMText
 10
1386.41599530958
 20
103.2245127401093
 30
0.0
 40
3.0
 41
0.0
 71
     1
 72
     1
  1

  7
DAYUS
 73
     1
 44
1.0
1001
ACAD
1000
MTEXTBEGIN
1070
    73
1070
     1
1070
    44
1040
1.0
1070
    74
1070
     0
1000
MTEXTEND
  0
MTEXT
  5
5D21
330
2
100
AcDbEntity
  8
DIM
100
AcDbMText
 10
1399.467586840553
 20
144.5024959794691
 30
0.0
 40
3.0
 41
0.0
 71
     1
 72
     1
  1

  7
DAYUS
 73
     1
 44
1.0
1001
ACAD
1000
MTEXTBEGIN
1070
    73
1070
     1
1070
    44
1040
1.0
1070
    74
1070
     0
1000
MTEXTEND
  0
MTEXT
  5
5D24
330
2
100
AcDbEntity
  8
DIM
100
AcDbMText
 10
1488.579011607569
 20
148.6537444685686
 30
0.0
 40
3.0
 41
0.0
 71
     1
 72
     1
  1

  7
DAYUS
 73
     1
 44
1.0
1001
ACAD
1000
MTEXTBEGIN
1070
    73
1070
     1
1070
    44
1040
1.0
1070
    74
1070
     0
1000
MTEXTEND
  0
MTEXT
  5
5E8E
330
2
100
AcDbEntity
  8
DIM
100
AcDbMText
 10
658.928637628099
 20
-79.58414497709418
 30
0.0
 40
3.0
 41
0.0
 71
     9
 72
     1
  1

  7
DAYUS
 73
     1
 44
1.0
1001
ACAD
1000
MTEXTBEGIN
1070
    73
1070
     1
1070
    44
1040
1.0
1070
    74
1070
     0
1000
MTEXTEND
  0
MTEXT
  5
5E90
330
2
100
AcDbEntity
  8
DIM
100
AcDbMText
 10
842.7524841695728
 20
-54.74642897263265
 30
0.0
 40
3.0
 41
0.0
 71
     1
 72
     1
  1

  7
DAYUS
 73
     1
 44
1.0
1001
ACAD
1000
MTEXTBEGIN
1070
    73
1070
     1
1070
    44
1040
1.0
1070
    74
1070
     0
1000
MTEXTEND
  0
MTEXT
  5
5E92
330
2
100
AcDbEntity
  8
DIM
100
AcDbMText
 10
894.8077202077158
 20
-74.48212912349254
 30
0.0
 40
3.0
 41
0.0
 71
     9
 72
     1
  1

  7
DAYUS
 73
     1
 44
1.0
1001
ACAD
1000
MTEXTBEGIN
1070
    73
1070
     1
1070
    44
1040
1.0
1070
    74
1070
     0
1000
MTEXTEND
  0
MTEXT
  5
5E94
330
2
100
AcDbEntity
  8
DIM
100
AcDbMText
 10
962.0232820996996
 20
-118.8582107879997
 30
0.0
 40
3.0
 41
0.0
 71
     1
 72
     1
  1

  7
DAYUS
 73
     1
 44
1.0
1001
ACAD
1000
MTEXTBEGIN
1070
    73
1070
     1
1070
    44
1040
1.0
1070
    74
1070
     0
1000
MTEXTEND
  0
MTEXT
  5
5E96
330
2
100
AcDbEntity
  8
DIM
100
AcDbMText
 10
973.0410095899967
 20
-68.50784959554267
 30
0.0
 40
3.0
 41
0.0
 71
     1
 72
     1
  1

  7
DAYUS
 73
     1
 44
1.0
1001
ACAD
1000
MTEXTBEGIN
1070
    73
1070
     1
1070
    44
1040
1.0
1070
    74
1070
     0
1000
MTEXTEND
  0
MTEXT
  5
5E99
330
2
100
AcDbEntity
  8
DIM
100
AcDbMText
 10
1085.7340529482
 20
-65.46466959922986
 30
0.0
 40
3.0
 41
0.0
 71
     1
 72
     1
  1

  7
DAYUS
 73
     1
 44
1.0
1001
ACAD
1000
MTEXTBEGIN
1070
    73
1070
     1
1070
    44
1040
1.0
1070
    74
1070
     0
1000
MTEXTEND
  0
MTEXT
  5
5FD8
330
2
100
AcDbEntity
  8
DIM
100
AcDbMText
 10
633.7072948690917
 20
-502.7427877496786
 30
0.0
 40
3.0
 41
0.0
 71
     9
 72
     1
  1

  7
DAYUS
 73
     1
 44
1.0
1001
ACAD
1000
MTEXTBEGIN
1070
    73
1070
     1
1070
    44
1040
1.0
1070
    74
1070
     0
1000
MTEXTEND
  0
MTEXT
  5
5FDA
330
2
100
AcDbEntity
  8
DIM
100
AcDbMText
 10
827.0953012499091
 20
-475.7102669926271
 30
0.0
 40
3.0
 41
0.0
 71
     1
 72
     1
  1

  7
DAYUS
 73
     1
 44
1.0
1001
ACAD
1000
MTEXTBEGIN
1070
    73
1070
     1
1070
    44
1040
1.0
1070
    74
1070
     0
1000
MTEXTEND
  0
MTEXT
  5
5FDC
330
2
100
AcDbEntity
  8
DIM
100
AcDbMText
 10
882.8280559962202
 20
-495.8443240051528
 30
0.0
 40
3.0
 41
0.0
 71
     9
 72
     1
  1

  7
DAYUS
 73
     1
 44
1.0
1001
ACAD
1000
MTEXTBEGIN
1070
    73
1070
     1
1070
    44
1040
1.0
1070
    74
1070
     0
1000
MTEXTEND
  0
MTEXT
  5
5FDE
330
2
100
AcDbEntity
  8
DIM
100
AcDbMText
 10
948.0591214104412
 20
-547.2299946926262
 30
0.0
 40
3.0
 41
0.0
 71
     1
 72
     1
  1

  7
DAYUS
 73
     1
 44
1.0
1001
ACAD
1000
MTEXTBEGIN
1070
    73
1070
     1
1070
    44
1040
1.0
1070
    74
1070
     0
1000
MTEXTEND
  0
MTEXT
  5
5FE0
330
2
100
AcDbEntity
  8
DIM
100
AcDbMText
 10
957.8725249226929
 20
-495.3335721753492
 30
0.0
 40
3.0
 41
0.0
 71
     1
 72
     1
  1

  7
DAYUS
 73
     1
 44
1.0
1001
ACAD
1000
MTEXTBEGIN
1070
    73
1070
     1
1070
    44
1040
1.0
1070
    74
1070
     0
1000
MTEXTEND
  0
ARC
  5
9CE8
330
2
100
AcDbEntity
  8
AM_VIS
100
AcDbCircle
 10
1230.292226131975
 20
779.9335245842058
 30
0.0
 40
0.5675
100
AcDbArc
 50
352.5007121865364
 51
7.499287813463612
  0
ARC
  5
9CEA
330
2
100
AcDbEntity
  8
AM_VIS
100
AcDbCircle
 10
1230.292226131975
 20
779.9335245842058
 30
0.0
 40
0.5675
100
AcDbArc
 50
292.5007121865505
 51
307.4992878134472
  0
ARC
  5
9CEC
330
2
100
AcDbEntity
  8
AM_VIS
100
AcDbCircle
 10
1230.292226131975
 20
779.9335245842058
 30
0.0
 40
0.5675
100
AcDbArc
 50
232.5007121865522
 51
247.499287813449
  0
ARC
  5
9CEE
330
2
100
AcDbEntity
  8
AM_VIS
100
AcDbCircle
 10
1230.292226131975
 20
779.9335245842058
 30
0.0
 40
0.5675
100
AcDbArc
 50
172.5007121865488
 51
187.4992878134512
  0
ARC
  5
9CF0
330
2
100
AcDbEntity
  8
AM_VIS
100
AcDbCircle
 10
1230.292226131975
 20
779.9335245842058
 30
0.0
 40
0.5675
100
AcDbArc
 50
112.5007121865384
 51
127.4992878134592
  0
CIRCLE
  5
9CF2
330
2
100
AcDbEntity
  8
AM_VIS
100
AcDbCircle
 10
1230.292226131975
 20
779.9335245842058
 30
0.0
 40
0.7110998148602956
  0
CIRCLE
  5
9CF7
330
2
100
AcDbEntity
  8
AM_VIS
100
AcDbCircle
 10
1230.292226131975
 20
779.9335245842058
 30
0.0
 40
0.75
  0
ARC
  5
9CF8
330
2
100
AcDbEntity
  8
AM_VIS
100
AcDbCircle
 10
1228.245966289456
 20
779.8079094267254
 30
0.0
 40
0.078740157480315
100
AcDbArc
 50
90.0
 51
180.0
  0
ARC
  5
9CF9
330
2
100
AcDbEntity
  8
AM_VIS
100
AcDbCircle
 10
1229.078235270676
 20
779.8079094267254
 30
0.0
 40
0.078740157480315
100
AcDbArc
 50
5.907537147111621
 51
90.0
  0
ARC
  5
9CFA
330
2
100
AcDbEntity
  8
AM_VIS
100
AcDbCircle
 10
1230.292226131975
 20
779.9335245842058
 30
0.0
 40
1.141732283464566
100
AcDbArc
 50
185.9075371471113
 51
219.0924628528887
  0
ARC
  5
9CFB
330
2
100
AcDbEntity
  8
AM_VIS
100
AcDbCircle
 10
1229.344981631978
 20
779.1639267435571
 30
0.0
 40
0.078740157480315
100
AcDbArc
 50
315.0
 51
39.09246285288869
  0
ARC
  5
9CFC
330
2
100
AcDbEntity
  8
AM_VIS
100
AcDbCircle
 10
1228.922890245975
 20
778.7418353575539
 30
0.0
 40
0.078740157480315
100
AcDbArc
 50
238.1735725069213
 51
315.0000000000003
  0
ARC
  5
9CFD
330
2
100
AcDbEntity
  8
AM_VIS
100
AcDbCircle
 10
1228.632226131975
 20
778.2735245842058
 30
0.0
 40
0.4724409448818899
100
AcDbArc
 50
58.17357250692144
 51
90.0
  0
ARC
  5
9CFE
330
2
100
AcDbEntity
  8
AM_VIS
100
AcDbCircle
 10
1228.245966289456
 20
778.824705686568
 30
0.0
 40
0.078740157480315
100
AcDbArc
 50
180.0
 51
270.0
  0
ARC
  5
9CFF
330
2
100
AcDbEntity
  8
AM_VIS
100
AcDbCircle
 10
1228.632226131975
 20
778.2735245842058
 30
0.0
 40
0.4724409448818899
100
AcDbArc
 50
0.0
 51
30.52248781407011
  0
ARC
  5
9D00
330
2
100
AcDbEntity
  8
AM_VIS
100
AcDbCircle
 10
1229.107030009554
 20
778.5534565142131
 30
0.0
 40
0.078740157480315
100
AcDbArc
 50
134.9999999999996
 51
210.5224878140699
  0
ARC
  5
9D01
330
2
100
AcDbEntity
  8
AM_VIS
100
AcDbCircle
 10
1229.532175825658
 20
778.9786023303169
 30
0.0
 40
0.078740157480315
100
AcDbArc
 50
51.48270105113089
 51
135.0
  0
ARC
  5
9D02
330
2
100
AcDbEntity
  8
AM_VIS
100
AcDbCircle
 10
1230.292226131975
 20
779.9335245842058
 30
0.0
 40
1.141732283464566
100
AcDbArc
 50
231.4827010511309
 51
263.5172989488692
  0
ARC
  5
9D03
330
2
100
AcDbEntity
  8
AM_VIS
100
AcDbCircle
 10
1230.154430856385
 20
778.7208558573349
 30
0.0
 40
0.078740157480315
100
AcDbArc
 50
0.0
 51
83.51729894886947
  0
ARC
  5
9D04
330
2
100
AcDbEntity
  8
AM_VIS
100
AcDbCircle
 10
1230.154430856385
 20
777.8872647416862
 30
0.0
 40
0.078740157480315
100
AcDbArc
 50
270.0
 51
0.0
  0
ARC
  5
9D05
330
2
100
AcDbEntity
  8
AM_VIS
100
AcDbCircle
 10
1229.183407234337
 20
777.8872647416862
 30
0.0
 40
0.078740157480315
100
AcDbArc
 50
180.0
 51
270.0
  0
ARC
  5
9D06
330
2
100
AcDbEntity
  8
AM_VIS
100
AcDbCircle
 10
1231.401045029613
 20
777.8872647416862
 30
0.0
 40
0.078740157480315
100
AcDbArc
 50
270.0
 51
0.0
  0
ARC
  5
9D07
330
2
100
AcDbEntity
  8
AM_VIS
100
AcDbCircle
 10
1230.417841289456
 20
777.8872647416862
 30
0.0
 40
0.078740157480315
100
AcDbArc
 50
180.0
 51
270.0
  0
ARC
  5
9D08
330
2
100
AcDbEntity
  8
AM_VIS
100
AcDbCircle
 10
1230.417841289456
 20
778.7195337229069
 30
0.0
 40
0.078740157480315
100
AcDbArc
 50
95.90753714711134
 51
180.0
  0
ARC
  5
9D09
330
2
100
AcDbEntity
  8
AM_VIS
100
AcDbCircle
 10
1230.292226131975
 20
779.9335245842058
 30
0.0
 40
1.141732283464566
100
AcDbArc
 50
275.9075371471113
 51
309.0924628528887
  0
ARC
  5
9D0A
330
2
100
AcDbEntity
  8
AM_VIS
100
AcDbCircle
 10
1231.061823972624
 20
778.9862800842087
 30
0.0
 40
0.078740157480315
100
AcDbArc
 50
45.00000000000036
 51
129.0924628528887
  0
ARC
  5
9D0B
330
2
100
AcDbEntity
  8
AM_VIS
100
AcDbCircle
 10
1231.483915358627
 20
778.5641886982056
 30
0.0
 40
0.078740157480315
100
AcDbArc
 50
328.1735725069215
 51
45.0
  0
ARC
  5
9D0C
330
2
100
AcDbEntity
  8
AM_VIS
100
AcDbCircle
 10
1231.952226131975
 20
778.2735245842058
 30
0.0
 40
0.4724409448818899
100
AcDbArc
 50
148.1735725069214
 51
180.0
  0
ARC
  5
9D0D
330
2
100
AcDbEntity
  8
AM_VIS
100
AcDbCircle
 10
1229.532175825658
 20
780.8884468380947
 30
0.0
 40
0.078740157480315
100
AcDbArc
 50
225.0000000000003
 51
308.5172989488691
  0
ARC
  5
9D0E
330
2
100
AcDbEntity
  8
AM_VIS
100
AcDbCircle
 10
1229.107030009554
 20
781.3135926541985
 30
0.0
 40
0.078740157480315
100
AcDbArc
 50
149.4775121859301
 51
225.0
  0
ARC
  5
9D0F
330
2
100
AcDbEntity
  8
AM_VIS
100
AcDbCircle
 10
1228.632226131975
 20
781.5935245842058
 30
0.0
 40
0.4724409448818899
100
AcDbArc
 50
329.4775121859299
 51
0.0
  0
ARC
  5
9D10
330
2
100
AcDbEntity
  8
AM_VIS
100
AcDbCircle
 10
1229.183407234337
 20
781.9797844267254
 30
0.0
 40
0.078740157480315
100
AcDbArc
 50
90.0
 51
180.0
  0
ARC
  5
9D11
330
2
100
AcDbEntity
  8
AM_VIS
100
AcDbCircle
 10
1230.154430856385
 20
781.9797844267254
 30
0.0
 40
0.078740157480315
100
AcDbArc
 50
0.0
 51
90.0
  0
ARC
  5
9D12
330
2
100
AcDbEntity
  8
AM_VIS
100
AcDbCircle
 10
1230.154430856385
 20
781.1461933110767
 30
0.0
 40
0.078740157480315
100
AcDbArc
 50
276.4827010511305
 51
0.0
  0
ARC
  5
9D13
330
2
100
AcDbEntity
  8
AM_VIS
100
AcDbCircle
 10
1230.292226131975
 20
779.9335245842058
 30
0.0
 40
1.141732283464566
100
AcDbArc
 50
96.48270105113079
 51
128.5172989488691
  0
ARC
  5
9D14
330
2
100
AcDbEntity
  8
AM_VIS
100
AcDbCircle
 10
1232.338485974495
 20
779.7957293086152
 30
0.0
 40
0.078740157480315
100
AcDbArc
 50
0.0
 51
90.0
  0
ARC
  5
9D15
330
2
100
AcDbEntity
  8
AM_VIS
100
AcDbCircle
 10
1232.338485974495
 20
778.824705686568
 30
0.0
 40
0.078740157480315
100
AcDbArc
 50
270.0
 51
0.0
  0
ARC
  5
9D16
330
2
100
AcDbEntity
  8
AM_VIS
100
AcDbCircle
 10
1231.952226131975
 20
778.2735245842058
 30
0.0
 40
0.4724409448818899
100
AcDbArc
 50
90.0
 51
120.5224878140701
  0
ARC
  5
9D17
330
2
100
AcDbEntity
  8
AM_VIS
100
AcDbCircle
 10
1231.672294201968
 20
778.7483284617843
 30
0.0
 40
0.078740157480315
100
AcDbArc
 50
224.9999999999996
 51
300.5224878140698
  0
ARC
  5
9D18
330
2
100
AcDbEntity
  8
AM_VIS
100
AcDbCircle
 10
1231.247148385864
 20
779.1734742778881
 30
0.0
 40
0.078740157480315
100
AcDbArc
 50
141.4827010511309
 51
225.0
  0
ARC
  5
9D19
330
2
100
AcDbEntity
  8
AM_VIS
100
AcDbCircle
 10
1230.292226131975
 20
779.9335245842058
 30
0.0
 40
1.141732283464566
100
AcDbArc
 50
321.4827010511308
 51
353.5172989488692
  0
ARC
  5
9D1A
330
2
100
AcDbEntity
  8
AM_VIS
100
AcDbCircle
 10
1231.504894858846
 20
779.7957293086152
 30
0.0
 40
0.078740157480315
100
AcDbArc
 50
90.0
 51
173.5172989488687
  0
ARC
  5
9D1B
330
2
100
AcDbEntity
  8
AM_VIS
100
AcDbCircle
 10
1231.506216993274
 20
780.0591397416861
 30
0.0
 40
0.078740157480315
100
AcDbArc
 50
185.9075371471116
 51
270.0
  0
ARC
  5
9D1C
330
2
100
AcDbEntity
  8
AM_VIS
100
AcDbCircle
 10
1230.292226131975
 20
779.9335245842058
 30
0.0
 40
1.141732283464566
100
AcDbArc
 50
5.90753714711134
 51
39.09246285288869
  0
ARC
  5
9D1D
330
2
100
AcDbEntity
  8
AM_VIS
100
AcDbCircle
 10
1231.239470631972
 20
780.7031224248547
 30
0.0
 40
0.078740157480315
100
AcDbArc
 50
134.9999999999996
 51
219.0924628528883
  0
ARC
  5
9D1E
330
2
100
AcDbEntity
  8
AM_VIS
100
AcDbCircle
 10
1231.661562017976
 20
781.1252138108577
 30
0.0
 40
0.078740157480315
100
AcDbArc
 50
58.1735725069211
 51
135.0
  0
ARC
  5
9D1F
330
2
100
AcDbEntity
  8
AM_VIS
100
AcDbCircle
 10
1231.952226131975
 20
781.5935245842058
 30
0.0
 40
0.4724409448818899
100
AcDbArc
 50
238.1735725069215
 51
270.0
  0
ARC
  5
9D20
330
2
100
AcDbEntity
  8
AM_VIS
100
AcDbCircle
 10
1232.338485974495
 20
781.0423434818436
 30
0.0
 40
0.078740157480315
100
AcDbArc
 50
0.0
 51
90.0
  0
ARC
  5
9D21
330
2
100
AcDbEntity
  8
AM_VIS
100
AcDbCircle
 10
1232.338485974495
 20
780.0591397416861
 30
0.0
 40
0.078740157480315
100
AcDbArc
 50
270.0
 51
0.0
  0
ARC
  5
9D22
330
2
100
AcDbEntity
  8
AM_VIS
100
AcDbCircle
 10
1230.430021407566
 20
781.9797844267254
 30
0.0
 40
0.078740157480315
100
AcDbArc
 50
90.0
 51
180.0
  0
ARC
  5
9D23
330
2
100
AcDbEntity
  8
AM_VIS
100
AcDbCircle
 10
1231.401045029613
 20
781.9797844267254
 30
0.0
 40
0.078740157480315
100
AcDbArc
 50
0.0
 51
90.0
  0
ARC
  5
9D24
330
2
100
AcDbEntity
  8
AM_VIS
100
AcDbCircle
 10
1231.952226131975
 20
781.5935245842058
 30
0.0
 40
0.4724409448818899
100
AcDbArc
 50
180.0
 51
210.5224878140701
  0
ARC
  5
9D25
330
2
100
AcDbEntity
  8
AM_VIS
100
AcDbCircle
 10
1231.477422254397
 20
781.3135926541985
 30
0.0
 40
0.078740157480315
100
AcDbArc
 50
315.0
 51
30.52248781406988
  0
ARC
  5
9D26
330
2
100
AcDbEntity
  8
AM_VIS
100
AcDbCircle
 10
1231.052276438293
 20
780.8884468380947
 30
0.0
 40
0.078740157480315
100
AcDbArc
 50
231.4827010511309
 51
315.0
  0
ARC
  5
9D27
330
2
100
AcDbEntity
  8
AM_VIS
100
AcDbCircle
 10
1230.292226131975
 20
779.9335245842058
 30
0.0
 40
1.141732283464566
100
AcDbArc
 50
51.48270105113068
 51
83.5172989488692
  0
ARC
  5
9D28
330
2
100
AcDbEntity
  8
AM_VIS
100
AcDbCircle
 10
1230.430021407566
 20
781.1461933110767
 30
0.0
 40
0.078740157480315
100
AcDbArc
 50
180.0
 51
263.5172989488695
  0
ARC
  5
9D29
330
2
100
AcDbEntity
  8
AM_VIS
100
AcDbCircle
 10
1228.912158061983
 20
781.1187207066272
 30
0.0
 40
0.078740157480315
100
AcDbArc
 50
45.0
 51
120.5224878140701
  0
ARC
  5
9D2A
330
2
100
AcDbEntity
  8
AM_VIS
100
AcDbCircle
 10
1229.337303878086
 20
780.6935748905235
 30
0.0
 40
0.078740157480315
100
AcDbArc
 50
321.4827010511308
 51
45.0
  0
ARC
  5
9D2B
330
2
100
AcDbEntity
  8
AM_VIS
100
AcDbCircle
 10
1230.292226131975
 20
779.9335245842058
 30
0.0
 40
1.141732283464566
100
AcDbArc
 50
141.4827010511307
 51
173.5172989488692
  0
ARC
  5
9D2C
330
2
100
AcDbEntity
  8
AM_VIS
100
AcDbCircle
 10
1229.079557405104
 20
780.0713198597963
 30
0.0
 40
0.078740157480315
100
AcDbArc
 50
270.0
 51
353.5172989488687
  0
ARC
  5
9D2D
330
2
100
AcDbEntity
  8
AM_VIS
100
AcDbCircle
 10
1228.245966289456
 20
780.0713198597963
 30
0.0
 40
0.078740157480315
100
AcDbArc
 50
180.0
 51
270.0
  0
ARC
  5
9D2E
330
2
100
AcDbEntity
  8
AM_VIS
100
AcDbCircle
 10
1228.245966289456
 20
781.0423434818436
 30
0.0
 40
0.078740157480315
100
AcDbArc
 50
90.0
 51
180.0
  0
ARC
  5
9D2F
330
2
100
AcDbEntity
  8
AM_VIS
100
AcDbCircle
 10
1228.632226131975
 20
781.5935245842058
 30
0.0
 40
0.4724409448818899
100
AcDbArc
 50
270.0
 51
300.5224878140702
  0
CIRCLE
  5
9D30
330
2
100
AcDbEntity
  8
AM_VIS
100
AcDbCircle
 10
1231.952226131975
 20
781.5935245842058
 30
0.0
 40
0.4090997175990736
  0
CIRCLE
  5
9D31
330
2
100
AcDbEntity
  8
AM_VIS
100
AcDbCircle
 10
1228.632226131975
 20
781.5935245842058
 30
0.0
 40
0.4090997175990736
  0
CIRCLE
  5
9D32
330
2
100
AcDbEntity
  8
AM_VIS
100
AcDbCircle
 10
1231.952226131975
 20
778.2735245842058
 30
0.0
 40
0.4090997175990736
  0
CIRCLE
  5
9D33
330
2
100
AcDbEntity
  8
AM_VIS
100
AcDbCircle
 10
1228.632226131975
 20
778.2735245842058
 30
0.0
 40
0.4090997175990736
  0
ARC
  5
9D39
330
2
100
AcDbEntity
  8
AM_VIS
100
AcDbCircle
 10
1228.226281250086
 20
779.3744694660955
 30
0.0
 40
0.0590551181102362
100
AcDbArc
 50
90.0
 51
180.0
  0
ARC
  5
9D3A
330
2
100
AcDbEntity
  8
AM_VIS
100
AcDbCircle
 10
1229.229518383488
 20
779.3744694660955
 30
0.0
 40
0.0590551181102361
100
AcDbArc
 50
27.74736181039607
 51
90.0
  0
ARC
  5
9D3B
330
2
100
AcDbEntity
  8
AM_VIS
100
AcDbCircle
 10
1229.229518383488
 20
780.4925797023161
 30
0.0
 40
0.0590551181102361
100
AcDbArc
 50
270.0
 51
332.2526381896039
  0
ARC
  5
9D3C
330
2
100
AcDbEntity
  8
AM_VIS
100
AcDbCircle
 10
1228.226281250086
 20
780.4925797023161
 30
0.0
 40
0.0590551181102362
100
AcDbArc
 50
180.0
 51
270.0
  0
ARC
  5
9D3D
330
2
100
AcDbEntity
  8
AM_VIS
100
AcDbCircle
 10
1231.354933880463
 20
780.4925797023161
 30
0.0
 40
0.0590551181102365
100
AcDbArc
 50
207.7473618103955
 51
270.0
  0
ARC
  5
9D3E
330
2
100
AcDbEntity
  8
AM_VIS
100
AcDbCircle
 10
1232.358171013865
 20
780.4925797023161
 30
0.0
 40
0.0590551181102361
100
AcDbArc
 50
270.0
 51
0.0
  0
ARC
  5
9D3F
330
2
100
AcDbEntity
  8
AM_VIS
100
AcDbCircle
 10
1232.358171013865
 20
779.3744694660955
 30
0.0
 40
0.0590551181102363
100
AcDbArc
 50
0.0
 51
90.0
  0
ARC
  5
9D40
330
2
100
AcDbEntity
  8
AM_VIS
100
AcDbCircle
 10
1231.354933880463
 20
779.3744694660955
 30
0.0
 40
0.0590551181102363
100
AcDbArc
 50
90.0
 51
152.2526381896043
  0
ARC
  5
9D41
330
2
100
AcDbEntity
  8
AM_VIS
100
AcDbCircle
 10
1231.020572588668
 20
781.9994694660955
 30
0.0
 40
0.0590551181102361
100
AcDbArc
 50
90.0
 51
180.0
  0
ARC
  5
9D42
330
2
100
AcDbEntity
  8
AM_VIS
100
AcDbCircle
 10
1231.020572588668
 20
780.888198257669
 30
0.0
 40
0.0590551181102361
100
AcDbArc
 50
180.0
 51
232.6590069833693
  0
ARC
  5
9D43
330
2
100
AcDbEntity
  8
AM_VIS
100
AcDbCircle
 10
1229.563879675282
 20
780.888198257669
 30
0.0
 40
0.0590551181102362
100
AcDbArc
 50
307.3409930166308
 51
0.0
  0
ARC
  5
9D44
330
2
100
AcDbEntity
  8
AM_VIS
100
AcDbCircle
 10
1229.563879675282
 20
781.9994694660955
 30
0.0
 40
0.0590551181102363
100
AcDbArc
 50
0.0
 51
90.0
  0
CIRCLE
  5
9D4F
330
2
100
AcDbEntity
  8
AM_VIS
100
AcDbCircle
 10
1231.952226131975
 20
781.5935245842058
 30
0.0
 40
0.4036075570122108
  0
CIRCLE
  5
9D53
330
2
100
AcDbEntity
  8
AM_VIS
100
AcDbCircle
 10
1228.632226131975
 20
781.5935245842058
 30
0.0
 40
0.4036075570122108
  0
CIRCLE
  5
9D57
330
2
100
AcDbEntity
  8
AM_VIS
100
AcDbCircle
 10
1231.952226131975
 20
778.2735245842058
 30
0.0
 40
0.4036075570122108
  0
CIRCLE
  5
9D5B
330
2
100
AcDbEntity
  8
AM_VIS
100
AcDbCircle
 10
1228.632226131975
 20
778.2735245842058
 30
0.0
 40
0.4036075570122108
  0
LINE
  5
9D9A
330
2
100
AcDbEntity
  8
AM_HID
100
AcDbLine
 10
1228.167226131975
 20
779.4335245842058
 30
0.0
 11
1228.226281250086
 21
779.4335245842058
 31
0.0
  0
CIRCLE
  5
9E1A
330
2
100
AcDbEntity
  8
AM_VIS
100
AcDbCircle
 10
1230.292226131975
 20
779.9335245842058
 30
0.0
 40
0.3159448818897638
  0
CIRCLE
  5
9E1B
330
2
100
AcDbEntity
  8
AM_VIS
100
AcDbCircle
 10
1230.292226131975
 20
779.9335245842058
 30
0.0
 40
0.375
  0
LINE
  5
9E37
330
2
100
AcDbEntity
  8
AM_VIS
100
AcDbLine
 10
1228.725976131975
 20
781.4311448209962
 30
0.0
 11
1228.819726131975
 21
781.4852714087327
 31
0.0
  0
LINE
  5
9E38
330
2
100
AcDbEntity
  8
AM_VIS
100
AcDbLine
 10
1228.632226131975
 20
781.3770182332597
 30
0.0
 11
1228.725976131975
 21
781.4311448209962
 31
0.0
  0
LINE
  5
9E39
330
2
100
AcDbEntity
  8
AM_VIS
100
AcDbLine
 10
1228.538476131975
 20
781.4311448209962
 30
0.0
 11
1228.632226131975
 21
781.3770182332597
 31
0.0
  0
LINE
  5
9E3A
330
2
100
AcDbEntity
  8
AM_VIS
100
AcDbLine
 10
1228.444726131975
 20
781.4852714087327
 30
0.0
 11
1228.538476131975
 21
781.4311448209962
 31
0.0
  0
LINE
  5
9E3B
330
2
100
AcDbEntity
  8
AM_VIS
100
AcDbLine
 10
1228.444726131975
 20
781.5935245842058
 30
0.0
 11
1228.444726131975
 21
781.4852714087327
 31
0.0
  0
LINE
  5
9E3C
330
2
100
AcDbEntity
  8
AM_VIS
100
AcDbLine
 10
1228.444726131975
 20
781.7017777596788
 30
0.0
 11
1228.444726131975
 21
781.5935245842058
 31
0.0
  0
LINE
  5
9E3D
330
2
100
AcDbEntity
  8
AM_VIS
100
AcDbLine
 10
1228.444726131975
 20
781.7017777596788
 30
0.0
 11
1228.538476131975
 21
781.7559043474154
 31
0.0
  0
LINE
  5
9E3E
330
2
100
AcDbEntity
  8
AM_VIS
100
AcDbLine
 10
1228.538476131975
 20
781.7559043474154
 30
0.0
 11
1228.632226131975
 21
781.8100309351519
 31
0.0
  0
LINE
  5
9E3F
330
2
100
AcDbEntity
  8
AM_VIS
100
AcDbLine
 10
1228.632226131975
 20
781.8100309351519
 30
0.0
 11
1228.725976131975
 21
781.7559043474154
 31
0.0
  0
LINE
  5
9E40
330
2
100
AcDbEntity
  8
AM_VIS
100
AcDbLine
 10
1228.725976131975
 20
781.7559043474154
 30
0.0
 11
1228.819726131975
 21
781.7017777596788
 31
0.0
  0
LINE
  5
9E41
330
2
100
AcDbEntity
  8
AM_VIS
100
AcDbLine
 10
1228.819726131975
 20
781.7017777596788
 30
0.0
 11
1228.819726131975
 21
781.5935245842058
 31
0.0
  0
LINE
  5
9E42
330
2
100
AcDbEntity
  8
AM_VIS
100
AcDbLine
 10
1228.819726131975
 20
781.5935245842058
 30
0.0
 11
1228.819726131975
 21
781.4852714087327
 31
0.0
  0
CIRCLE
  5
9E4B
330
2
100
AcDbEntity
  8
AM_VIS
100
AcDbCircle
 10
1228.632226131975
 20
781.5935245842058
 30
0.0
 40
0.3937007874015747
  0
CIRCLE
  5
9E4C
330
2
100
AcDbEntity
  8
AM_VIS
100
AcDbCircle
 10
1228.632226131975
 20
781.5935245842058
 30
0.0
 40
0.2263779527559082
  0
ARC
  5
9E4D
330
2
100
AcDbEntity
  8
AM_VIS
100
AcDbCircle
 10
1228.632226131975
 20
781.5935245842058
 30
0.0
 40
0.1896850393700787
100
AcDbArc
 50
128.7049945725095
 51
171.2950054274814
  0
ARC
  5
9E4E
330
2
100
AcDbEntity
  8
AM_VIS
100
AcDbCircle
 10
1228.632226131975
 20
781.5935245842058
 30
0.0
 40
0.1896850393700787
100
AcDbArc
 50
188.7049945725188
 51
231.2950054274764
  0
ARC
  5
9E4F
330
2
100
AcDbEntity
  8
AM_VIS
100
AcDbCircle
 10
1228.632226131975
 20
781.5935245842058
 30
0.0
 40
0.1896850393700787
100
AcDbArc
 50
248.7049945725236
 51
291.2950054274809
  0
ARC
  5
9E50
330
2
100
AcDbEntity
  8
AM_VIS
100
AcDbCircle
 10
1228.632226131975
 20
781.5935245842058
 30
0.0
 40
0.1896850393700787
100
AcDbArc
 50
308.7049945725192
 51
351.2950054274897
  0
ARC
  5
9E51
330
2
100
AcDbEntity
  8
AM_VIS
100
AcDbCircle
 10
1228.632226131975
 20
781.5935245842058
 30
0.0
 40
0.1896850393700787
100
AcDbArc
 50
8.704994572510504
 51
51.29500542749481
  0
ARC
  5
9E52
330
2
100
AcDbEntity
  8
AM_VIS
100
AcDbCircle
 10
1228.632226131975
 20
781.5935245842058
 30
0.0
 40
0.1896850393700787
100
AcDbArc
 50
68.70499457250542
 51
111.2950054274904
  0
CIRCLE
  5
9E53
330
2
100
AcDbEntity
  8
AM_VIS
100
AcDbCircle
 10
1228.632226131975
 20
781.5935245842058
 30
0.0
 40
0.17
  0
LINE
  5
9E54
330
2
100
AcDbEntity
  8
AM_VIS
100
AcDbLine
 10
1232.045976131975
 20
781.4311448209962
 30
0.0
 11
1232.139726131975
 21
781.4852714087327
 31
0.0
  0
LINE
  5
9E55
330
2
100
AcDbEntity
  8
AM_VIS
100
AcDbLine
 10
1231.952226131975
 20
781.3770182332597
 30
0.0
 11
1232.045976131975
 21
781.4311448209962
 31
0.0
  0
LINE
  5
9E56
330
2
100
AcDbEntity
  8
AM_VIS
100
AcDbLine
 10
1231.858476131975
 20
781.4311448209962
 30
0.0
 11
1231.952226131975
 21
781.3770182332597
 31
0.0
  0
LINE
  5
9E57
330
2
100
AcDbEntity
  8
AM_VIS
100
AcDbLine
 10
1231.764726131975
 20
781.4852714087327
 30
0.0
 11
1231.858476131975
 21
781.4311448209962
 31
0.0
  0
LINE
  5
9E58
330
2
100
AcDbEntity
  8
AM_VIS
100
AcDbLine
 10
1231.764726131975
 20
781.5935245842058
 30
0.0
 11
1231.764726131975
 21
781.4852714087327
 31
0.0
  0
LINE
  5
9E59
330
2
100
AcDbEntity
  8
AM_VIS
100
AcDbLine
 10
1231.764726131975
 20
781.7017777596788
 30
0.0
 11
1231.764726131975
 21
781.5935245842058
 31
0.0
  0
LINE
  5
9E5A
330
2
100
AcDbEntity
  8
AM_VIS
100
AcDbLine
 10
1231.764726131975
 20
781.7017777596788
 30
0.0
 11
1231.858476131975
 21
781.7559043474154
 31
0.0
  0
LINE
  5
9E5B
330
2
100
AcDbEntity
  8
AM_VIS
100
AcDbLine
 10
1231.858476131975
 20
781.7559043474154
 30
0.0
 11
1231.952226131975
 21
781.8100309351519
 31
0.0
  0
LINE
  5
9E5C
330
2
100
AcDbEntity
  8
AM_VIS
100
AcDbLine
 10
1231.952226131975
 20
781.8100309351519
 30
0.0
 11
1232.045976131975
 21
781.7559043474154
 31
0.0
  0
LINE
  5
9E5D
330
2
100
AcDbEntity
  8
AM_VIS
100
AcDbLine
 10
1232.045976131975
 20
781.7559043474154
 30
0.0
 11
1232.139726131975
 21
781.7017777596788
 31
0.0
  0
LINE
  5
9E5E
330
2
100
AcDbEntity
  8
AM_VIS
100
AcDbLine
 10
1232.139726131975
 20
781.7017777596788
 30
0.0
 11
1232.139726131975
 21
781.5935245842058
 31
0.0
  0
LINE
  5
9E5F
330
2
100
AcDbEntity
  8
AM_VIS
100
AcDbLine
 10
1232.139726131975
 20
781.5935245842058
 30
0.0
 11
1232.139726131975
 21
781.4852714087327
 31
0.0
  0
CIRCLE
  5
9E68
330
2
100
AcDbEntity
  8
AM_VIS
100
AcDbCircle
 10
1231.952226131975
 20
781.5935245842058
 30
0.0
 40
0.3937007874015747
  0
CIRCLE
  5
9E69
330
2
100
AcDbEntity
  8
AM_VIS
100
AcDbCircle
 10
1231.952226131975
 20
781.5935245842058
 30
0.0
 40
0.2263779527559082
  0
ARC
  5
9E6A
330
2
100
AcDbEntity
  8
AM_VIS
100
AcDbCircle
 10
1231.952226131975
 20
781.5935245842058
 30
0.0
 40
0.1896850393700787
100
AcDbArc
 50
128.7049945725097
 51
171.2950054274814
  0
ARC
  5
9E6B
330
2
100
AcDbEntity
  8
AM_VIS
100
AcDbCircle
 10
1231.952226131975
 20
781.5935245842058
 30
0.0
 40
0.1896850393700787
100
AcDbArc
 50
188.7049945725188
 51
231.2950054274764
  0
ARC
  5
9E6C
330
2
100
AcDbEntity
  8
AM_VIS
100
AcDbCircle
 10
1231.952226131975
 20
781.5935245842058
 30
0.0
 40
0.1896850393700787
100
AcDbArc
 50
248.7049945725236
 51
291.2950054274809
  0
ARC
  5
9E6D
330
2
100
AcDbEntity
  8
AM_VIS
100
AcDbCircle
 10
1231.952226131975
 20
781.5935245842058
 30
0.0
 40
0.1896850393700787
100
AcDbArc
 50
308.7049945725192
 51
351.2950054274897
  0
ARC
  5
9E6E
330
2
100
AcDbEntity
  8
AM_VIS
100
AcDbCircle
 10
1231.952226131975
 20
781.5935245842058
 30
0.0
 40
0.1896850393700787
100
AcDbArc
 50
8.704994572510504
 51
51.29500542749481
  0
ARC
  5
9E6F
330
2
100
AcDbEntity
  8
AM_VIS
100
AcDbCircle
 10
1231.952226131975
 20
781.5935245842058
 30
0.0
 40
0.1896850393700787
100
AcDbArc
 50
68.70499457250542
 51
111.2950054274904
  0
CIRCLE
  5
9E70
330
2
100
AcDbEntity
  8
AM_VIS
100
AcDbCircle
 10
1231.952226131975
 20
781.5935245842058
 30
0.0
 40
0.17
  0
LINE
  5
9E71
330
2
100
AcDbEntity
  8
AM_VIS
100
AcDbLine
 10
1228.725976131975
 20
778.1111448209963
 30
0.0
 11
1228.819726131975
 21
778.1652714087328
 31
0.0
  0
LINE
  5
9E72
330
2
100
AcDbEntity
  8
AM_VIS
100
AcDbLine
 10
1228.632226131975
 20
778.0570182332597
 30
0.0
 11
1228.725976131975
 21
778.1111448209963
 31
0.0
  0
LINE
  5
9E73
330
2
100
AcDbEntity
  8
AM_VIS
100
AcDbLine
 10
1228.538476131975
 20
778.1111448209963
 30
0.0
 11
1228.632226131975
 21
778.0570182332597
 31
0.0
  0
LINE
  5
9E74
330
2
100
AcDbEntity
  8
AM_VIS
100
AcDbLine
 10
1228.444726131975
 20
778.1652714087328
 30
0.0
 11
1228.538476131975
 21
778.1111448209963
 31
0.0
  0
LINE
  5
9E75
330
2
100
AcDbEntity
  8
AM_VIS
100
AcDbLine
 10
1228.444726131975
 20
778.2735245842058
 30
0.0
 11
1228.444726131975
 21
778.1652714087328
 31
0.0
  0
LINE
  5
9E76
330
2
100
AcDbEntity
  8
AM_VIS
100
AcDbLine
 10
1228.444726131975
 20
778.3817777596789
 30
0.0
 11
1228.444726131975
 21
778.2735245842058
 31
0.0
  0
LINE
  5
9E77
330
2
100
AcDbEntity
  8
AM_VIS
100
AcDbLine
 10
1228.444726131975
 20
778.3817777596789
 30
0.0
 11
1228.538476131975
 21
778.4359043474154
 31
0.0
  0
LINE
  5
9E78
330
2
100
AcDbEntity
  8
AM_VIS
100
AcDbLine
 10
1228.538476131975
 20
778.4359043474154
 30
0.0
 11
1228.632226131975
 21
778.4900309351519
 31
0.0
  0
LINE
  5
9E79
330
2
100
AcDbEntity
  8
AM_VIS
100
AcDbLine
 10
1228.632226131975
 20
778.4900309351519
 30
0.0
 11
1228.725976131975
 21
778.4359043474154
 31
0.0
  0
LINE
  5
9E7A
330
2
100
AcDbEntity
  8
AM_VIS
100
AcDbLine
 10
1228.725976131975
 20
778.4359043474154
 30
0.0
 11
1228.819726131975
 21
778.3817777596789
 31
0.0
  0
LINE
  5
9E7B
330
2
100
AcDbEntity
  8
AM_VIS
100
AcDbLine
 10
1228.819726131975
 20
778.3817777596789
 30
0.0
 11
1228.819726131975
 21
778.2735245842058
 31
0.0
  0
LINE
  5
9E7C
330
2
100
AcDbEntity
  8
AM_VIS
100
AcDbLine
 10
1228.819726131975
 20
778.2735245842058
 30
0.0
 11
1228.819726131975
 21
778.1652714087328
 31
0.0
  0
CIRCLE
  5
9E85
330
2
100
AcDbEntity
  8
AM_VIS
100
AcDbCircle
 10
1228.632226131975
 20
778.2735245842058
 30
0.0
 40
0.3937007874015747
  0
CIRCLE
  5
9E86
330
2
100
AcDbEntity
  8
AM_VIS
100
AcDbCircle
 10
1228.632226131975
 20
778.2735245842058
 30
0.0
 40
0.2263779527559082
  0
ARC
  5
9E87
330
2
100
AcDbEntity
  8
AM_VIS
100
AcDbCircle
 10
1228.632226131975
 20
778.2735245842058
 30
0.0
 40
0.1896850393700787
100
AcDbArc
 50
128.7049945725095
 51
171.2950054274814
  0
ARC
  5
9E88
330
2
100
AcDbEntity
  8
AM_VIS
100
AcDbCircle
 10
1228.632226131975
 20
778.2735245842058
 30
0.0
 40
0.1896850393700787
100
AcDbArc
 50
188.7049945725188
 51
231.2950054274765
  0
ARC
  5
9E89
330
2
100
AcDbEntity
  8
AM_VIS
100
AcDbCircle
 10
1228.632226131975
 20
778.2735245842058
 30
0.0
 40
0.1896850393700787
100
AcDbArc
 50
248.7049945725236
 51
291.2950054274809
  0
ARC
  5
9E8A
330
2
100
AcDbEntity
  8
AM_VIS
100
AcDbCircle
 10
1228.632226131975
 20
778.2735245842058
 30
0.0
 40
0.1896850393700787
100
AcDbArc
 50
308.7049945725192
 51
351.2950054274897
  0
ARC
  5
9E8B
330
2
100
AcDbEntity
  8
AM_VIS
100
AcDbCircle
 10
1228.632226131975
 20
778.2735245842058
 30
0.0
 40
0.1896850393700787
100
AcDbArc
 50
8.704994572510248
 51
51.29500542749461
  0
ARC
  5
9E8C
330
2
100
AcDbEntity
  8
AM_VIS
100
AcDbCircle
 10
1228.632226131975
 20
778.2735245842058
 30
0.0
 40
0.1896850393700787
100
AcDbArc
 50
68.70499457250542
 51
111.2950054274904
  0
CIRCLE
  5
9E8D
330
2
100
AcDbEntity
  8
AM_VIS
100
AcDbCircle
 10
1228.632226131975
 20
778.2735245842058
 30
0.0
 40
0.17
  0
LINE
  5
9E8E
330
2
100
AcDbEntity
  8
AM_VIS
100
AcDbLine
 10
1232.045976131975
 20
778.1111448209963
 30
0.0
 11
1232.139726131975
 21
778.1652714087328
 31
0.0
  0
LINE
  5
9E8F
330
2
100
AcDbEntity
  8
AM_VIS
100
AcDbLine
 10
1231.952226131975
 20
778.0570182332597
 30
0.0
 11
1232.045976131975
 21
778.1111448209963
 31
0.0
  0
LINE
  5
9E90
330
2
100
AcDbEntity
  8
AM_VIS
100
AcDbLine
 10
1231.858476131975
 20
778.1111448209963
 30
0.0
 11
1231.952226131975
 21
778.0570182332597
 31
0.0
  0
LINE
  5
9E91
330
2
100
AcDbEntity
  8
AM_VIS
100
AcDbLine
 10
1231.764726131975
 20
778.1652714087328
 30
0.0
 11
1231.858476131975
 21
778.1111448209963
 31
0.0
  0
LINE
  5
9E92
330
2
100
AcDbEntity
  8
AM_VIS
100
AcDbLine
 10
1231.764726131975
 20
778.2735245842058
 30
0.0
 11
1231.764726131975
 21
778.1652714087328
 31
0.0
  0
LINE
  5
9E93
330
2
100
AcDbEntity
  8
AM_VIS
100
AcDbLine
 10
1231.764726131975
 20
778.3817777596789
 30
0.0
 11
1231.764726131975
 21
778.2735245842058
 31
0.0
  0
LINE
  5
9E94
330
2
100
AcDbEntity
  8
AM_VIS
100
AcDbLine
 10
1231.764726131975
 20
778.3817777596789
 30
0.0
 11
1231.858476131975
 21
778.4359043474154
 31
0.0
  0
LINE
  5
9E95
330
2
100
AcDbEntity
  8
AM_VIS
100
AcDbLine
 10
1231.858476131975
 20
778.4359043474154
 30
0.0
 11
1231.952226131975
 21
778.4900309351519
 31
0.0
  0
LINE
  5
9E96
330
2
100
AcDbEntity
  8
AM_VIS
100
AcDbLine
 10
1231.952226131975
 20
778.4900309351519
 30
0.0
 11
1232.045976131975
 21
778.4359043474154
 31
0.0
  0
LINE
  5
9E97
330
2
100
AcDbEntity
  8
AM_VIS
100
AcDbLine
 10
1232.045976131975
 20
778.4359043474154
 30
0.0
 11
1232.139726131975
 21
778.3817777596789
 31
0.0
  0
LINE
  5
9E98
330
2
100
AcDbEntity
  8
AM_VIS
100
AcDbLine
 10
1232.139726131975
 20
778.3817777596789
 30
0.0
 11
1232.139726131975
 21
778.2735245842058
 31
0.0
  0
LINE
  5
9E99
330
2
100
AcDbEntity
  8
AM_VIS
100
AcDbLine
 10
1232.139726131975
 20
778.2735245842058
 30
0.0
 11
1232.139726131975
 21
778.1652714087328
 31
0.0
  0
CIRCLE
  5
9EA2
330
2
100
AcDbEntity
  8
AM_VIS
100
AcDbCircle
 10
1231.952226131975
 20
778.2735245842058
 30
0.0
 40
0.3937007874015747
  0
CIRCLE
  5
9EA3
330
2
100
AcDbEntity
  8
AM_VIS
100
AcDbCircle
 10
1231.952226131975
 20
778.2735245842058
 30
0.0
 40
0.2263779527559082
  0
ARC
  5
9EA4
330
2
100
AcDbEntity
  8
AM_VIS
100
AcDbCircle
 10
1231.952226131975
 20
778.2735245842058
 30
0.0
 40
0.1896850393700787
100
AcDbArc
 50
128.7049945725097
 51
171.2950054274814
  0
ARC
  5
9EA5
330
2
100
AcDbEntity
  8
AM_VIS
100
AcDbCircle
 10
1231.952226131975
 20
778.2735245842058
 30
0.0
 40
0.1896850393700787
100
AcDbArc
 50
188.7049945725188
 51
231.2950054274765
  0
ARC
  5
9EA6
330
2
100
AcDbEntity
  8
AM_VIS
100
AcDbCircle
 10
1231.952226131975
 20
778.2735245842058
 30
0.0
 40
0.1896850393700787
100
AcDbArc
 50
248.7049945725236
 51
291.2950054274809
  0
ARC
  5
9EA7
330
2
100
AcDbEntity
  8
AM_VIS
100
AcDbCircle
 10
1231.952226131975
 20
778.2735245842058
 30
0.0
 40
0.1896850393700787
100
AcDbArc
 50
308.7049945725191
 51
351.2950054274897
  0
ARC
  5
9EA8
330
2
100
AcDbEntity
  8
AM_VIS
100
AcDbCircle
 10
1231.952226131975
 20
778.2735245842058
 30
0.0
 40
0.1896850393700787
100
AcDbArc
 50
8.704994572510248
 51
51.29500542749461
  0
ARC
  5
9EA9
330
2
100
AcDbEntity
  8
AM_VIS
100
AcDbCircle
 10
1231.952226131975
 20
778.2735245842058
 30
0.0
 40
0.1896850393700787
100
AcDbArc
 50
68.70499457250542
 51
111.2950054274904
  0
CIRCLE
  5
9EAA
330
2
100
AcDbEntity
  8
AM_VIS
100
AcDbCircle
 10
1231.952226131975
 20
778.2735245842058
 30
0.0
 40
0.17
  0
CIRCLE
  5
9EAE
330
2
100
AcDbEntity
  8
AM_VIS
100
AcDbCircle
 10
1228.632226131975
 20
781.5935245842058
 30
0.0
 40
0.1481299212598425
  0
CIRCLE
  5
9EB2
330
2
100
AcDbEntity
  8
AM_VIS
100
AcDbCircle
 10
1231.952226131975
 20
781.5935245842058
 30
0.0
 40
0.1481299212598425
  0
CIRCLE
  5
9EB6
330
2
100
AcDbEntity
  8
AM_VIS
100
AcDbCircle
 10
1228.632226131975
 20
778.2735245842058
 30
0.0
 40
0.1481299212598425
  0
CIRCLE
  5
9EBA
330
2
100
AcDbEntity
  8
AM_VIS
100
AcDbCircle
 10
1231.952226131975
 20
778.2735245842058
 30
0.0
 40
0.1481299212598425
  0
LINE
  5
9EC7
330
2
100
AcDbEntity
  8
AM_7
 48
0.2
100
AcDbLine
 10
1232.628932093347
 20
779.9335245842058
 30
0.0
 11
1230.958226263646
 21
779.9335245842058
 31
0.0
  0
LINE
  5
9EC8
330
2
100
AcDbEntity
  8
AM_7
 48
0.2
100
AcDbLine
 10
1231.792344242211
 20
779.9335245842058
 30
0.0
 11
1231.902344242212
 21
779.9335245842058
 31
0.0
  0
LINE
  5
9ECA
330
2
100
AcDbEntity
  8
AM_7
 48
0.2
100
AcDbLine
 10
1231.658604084711
 20
779.9335245842058
 30
0.0
 11
1231.636344242211
 21
779.9335245842058
 31
0.0
  0
LINE
  5
9ECB
330
2
100
AcDbEntity
  8
AM_7
 48
0.2
100
AcDbLine
 10
1232.058344242212
 20
779.9335245842058
 30
0.0
 11
1232.036084399712
 21
779.9335245842058
 31
0.0
  0
LINE
  5
9ECE
330
2
100
AcDbEntity
  8
AM_7
 48
0.2
100
AcDbLine
 10
1227.978985312669
 20
779.9335245842058
 30
0.0
 11
1229.554433741408
 21
779.9335245842058
 31
0.0
  0
LINE
  5
9ECF
330
2
100
AcDbEntity
  8
AM_7
 48
0.2
100
AcDbLine
 10
1230.292226131975
 20
782.2434475516725
 30
0.0
 11
1230.292226131975
 21
780.5354249508284
 31
0.0
  0
LINE
  5
9ED0
330
2
100
AcDbEntity
  8
AM_7
 48
0.2
100
AcDbLine
 10
1231.323476131975
 20
777.6535245842057
 30
0.0
 11
1231.323476131975
 21
778.6325727558576
 31
0.0
  0
LINE
  5
9ED1
330
2
100
AcDbEntity
  8
AM_7
 48
0.2
100
AcDbLine
 10
1229.260976131975
 20
777.6535245842057
 30
0.0
 11
1229.260976131975
 21
778.6325727558576
 31
0.0
  0
LINE
  5
9ED2
330
2
100
AcDbEntity
  8
AM_7
 48
0.2
100
AcDbLine
 10
1228.682108021739
 20
779.9335245842058
 30
0.0
 11
1228.792108021739
 21
779.9335245842058
 31
0.0
  0
LINE
  5
9ED4
330
2
100
AcDbEntity
  8
AM_7
 48
0.2
100
AcDbLine
 10
1228.548367864256
 20
779.9335245842058
 30
0.0
 11
1228.526108021739
 21
779.9335245842058
 31
0.0
  0
LINE
  5
9ED5
330
2
100
AcDbEntity
  8
AM_7
 48
0.2
100
AcDbLine
 10
1228.948108021739
 20
779.9335245842058
 30
0.0
 11
1228.925848179222
 21
779.9335245842058
 31
0.0
  0
LINE
  5
9ED9
330
2
100
AcDbEntity
  8
AM_7
 48
0.2
100
AcDbLine
 10
1230.292226131975
 20
778.3234064739696
 30
0.0
 11
1230.292226131975
 21
778.4334064739696
 31
0.0
  0
LINE
  5
9EDC
330
2
100
AcDbEntity
  8
AM_7
 48
0.2
100
AcDbLine
 10
1230.292226131975
 20
778.1896663164866
 30
0.0
 11
1230.292226131975
 21
778.1674064739696
 31
0.0
  0
LINE
  5
9EDD
330
2
100
AcDbEntity
  8
AM_7
 48
0.2
100
AcDbLine
 10
1230.292226131975
 20
778.5894064739696
 30
0.0
 11
1230.292226131975
 21
778.5671466314526
 31
0.0
  0
LINE
  5
9EDE
330
2
100
AcDbEntity
  8
AM_7
 48
0.2
100
AcDbLine
 10
1228.577226131975
 20
778.2735245842058
 30
0.0
 11
1228.687226131975
 21
778.2735245842058
 31
0.0
  0
LINE
  5
9EDF
330
2
100
AcDbEntity
  8
AM_7
 48
0.2
100
AcDbLine
 10
1228.632226131975
 20
778.2185245842058
 30
0.0
 11
1228.632226131975
 21
778.3285245842058
 31
0.0
  0
LINE
  5
9EE0
330
2
100
AcDbEntity
  8
AM_7
 48
0.2
100
AcDbLine
 10
1228.049785187093
 20
778.2735245842058
 30
0.0
 11
1228.421226131975
 21
778.2735245842058
 31
0.0
  0
LINE
  5
9EE1
330
2
100
AcDbEntity
  8
AM_7
 48
0.2
100
AcDbLine
 10
1228.843226131975
 20
778.2735245842058
 30
0.0
 11
1229.214667076857
 21
778.2735245842058
 31
0.0
  0
LINE
  5
9EE2
330
2
100
AcDbEntity
  8
AM_7
 48
0.2
100
AcDbLine
 10
1228.632226131975
 20
777.6910836393239
 30
0.0
 11
1228.632226131975
 21
778.0625245842058
 31
0.0
  0
LINE
  5
9EE3
330
2
100
AcDbEntity
  8
AM_7
 48
0.2
100
AcDbLine
 10
1228.632226131975
 20
778.4845245842058
 30
0.0
 11
1228.632226131975
 21
778.8559655290876
 31
0.0
  0
LINE
  5
9EE4
330
2
100
AcDbEntity
  8
AM_7
 48
0.2
100
AcDbLine
 10
1231.897226131975
 20
778.2735245842058
 30
0.0
 11
1232.007226131975
 21
778.2735245842058
 31
0.0
  0
LINE
  5
9EE5
330
2
100
AcDbEntity
  8
AM_7
 48
0.2
100
AcDbLine
 10
1231.952226131975
 20
778.2185245842058
 30
0.0
 11
1231.952226131975
 21
778.3285245842058
 31
0.0
  0
LINE
  5
9EE6
330
2
100
AcDbEntity
  8
AM_7
 48
0.2
100
AcDbLine
 10
1231.369785187093
 20
778.2735245842058
 30
0.0
 11
1231.741226131976
 21
778.2735245842058
 31
0.0
  0
LINE
  5
9EE7
330
2
100
AcDbEntity
  8
AM_7
 48
0.2
100
AcDbLine
 10
1232.163226131975
 20
778.2735245842058
 30
0.0
 11
1232.534667076857
 21
778.2735245842058
 31
0.0
  0
LINE
  5
9EE8
330
2
100
AcDbEntity
  8
AM_7
 48
0.2
100
AcDbLine
 10
1231.952226131975
 20
777.6910836393239
 30
0.0
 11
1231.952226131975
 21
778.0625245842058
 31
0.0
  0
LINE
  5
9EE9
330
2
100
AcDbEntity
  8
AM_7
 48
0.2
100
AcDbLine
 10
1231.952226131975
 20
778.4845245842058
 30
0.0
 11
1231.952226131975
 21
778.8559655290876
 31
0.0
  0
LINE
  5
9EEA
330
2
100
AcDbEntity
  8
AM_7
 48
0.2
100
AcDbLine
 10
1231.897226131975
 20
781.5935245842058
 30
0.0
 11
1232.007226131975
 21
781.5935245842058
 31
0.0
  0
LINE
  5
9EEB
330
2
100
AcDbEntity
  8
AM_7
 48
0.2
100
AcDbLine
 10
1231.952226131975
 20
781.5385245842057
 30
0.0
 11
1231.952226131975
 21
781.6485245842057
 31
0.0
  0
LINE
  5
9EEC
330
2
100
AcDbEntity
  8
AM_7
 48
0.2
100
AcDbLine
 10
1231.369785187093
 20
781.5935245842058
 30
0.0
 11
1231.741226131976
 21
781.5935245842058
 31
0.0
  0
LINE
  5
9EED
330
2
100
AcDbEntity
  8
AM_7
 48
0.2
100
AcDbLine
 10
1232.163226131975
 20
781.5935245842058
 30
0.0
 11
1232.534667076857
 21
781.5935245842058
 31
0.0
  0
LINE
  5
9EEE
330
2
100
AcDbEntity
  8
AM_7
 48
0.2
100
AcDbLine
 10
1231.952226131975
 20
781.0110836393239
 30
0.0
 11
1231.952226131975
 21
781.3825245842058
 31
0.0
  0
LINE
  5
9EEF
330
2
100
AcDbEntity
  8
AM_7
 48
0.2
100
AcDbLine
 10
1231.952226131975
 20
781.8045245842058
 30
0.0
 11
1231.952226131975
 21
782.1759655290877
 31
0.0
  0
LINE
  5
9EF0
330
2
100
AcDbEntity
  8
AM_7
 48
0.2
100
AcDbLine
 10
1228.577226131975
 20
781.5935245842058
 30
0.0
 11
1228.687226131975
 21
781.5935245842058
 31
0.0
  0
LINE
  5
9EF1
330
2
100
AcDbEntity
  8
AM_7
 48
0.2
100
AcDbLine
 10
1228.632226131975
 20
781.5385245842057
 30
0.0
 11
1228.632226131975
 21
781.6485245842057
 31
0.0
  0
LINE
  5
9EF2
330
2
100
AcDbEntity
  8
AM_7
 48
0.2
100
AcDbLine
 10
1228.049785187093
 20
781.5935245842058
 30
0.0
 11
1228.421226131975
 21
781.5935245842058
 31
0.0
  0
LINE
  5
9EF3
330
2
100
AcDbEntity
  8
AM_7
 48
0.2
100
AcDbLine
 10
1228.843226131975
 20
781.5935245842058
 30
0.0
 11
1229.214667076857
 21
781.5935245842058
 31
0.0
  0
LINE
  5
9EF4
330
2
100
AcDbEntity
  8
AM_7
 48
0.2
100
AcDbLine
 10
1228.632226131975
 20
781.0110836393239
 30
0.0
 11
1228.632226131975
 21
781.3825245842058
 31
0.0
  0
LINE
  5
9EF5
330
2
100
AcDbEntity
  8
AM_7
 48
0.2
100
AcDbLine
 10
1228.632226131975
 20
781.8045245842058
 30
0.0
 11
1228.632226131975
 21
782.1759655290877
 31
0.0
  0
LINE
  5
9EF6
330
2
100
AcDbEntity
  8
AM_7
 48
0.2
100
AcDbLine
 10
1230.237226131975
 20
779.9335245842058
 30
0.0
 11
1230.347226131975
 21
779.9335245842058
 31
0.0
  0
LINE
  5
9EF7
330
2
100
AcDbEntity
  8
AM_7
 48
0.2
100
AcDbLine
 10
1230.292226131975
 20
779.8785245842059
 30
0.0
 11
1230.292226131975
 21
779.9885245842058
 31
0.0
  0
LINE
  5
9EF8
330
2
100
AcDbEntity
  8
AM_7
 48
0.2
100
AcDbLine
 10
1228.087737942999
 20
779.9335245842058
 30
0.0
 11
1230.081226131975
 21
779.9335245842058
 31
0.0
  0
LINE
  5
9EF9
330
2
100
AcDbEntity
  8
AM_7
 48
0.2
100
AcDbLine
 10
1230.503226131975
 20
779.9335245842058
 30
0.0
 11
1232.496714320952
 21
779.9335245842058
 31
0.0
  0
LINE
  5
9EFA
330
2
100
AcDbEntity
  8
AM_7
 48
0.2
100
AcDbLine
 10
1230.292226131975
 20
777.7290363952295
 30
0.0
 11
1230.292226131975
 21
779.7225245842058
 31
0.0
  0
LINE
  5
9EFB
330
2
100
AcDbEntity
  8
AM_7
 48
0.2
100
AcDbLine
 10
1230.292226131975
 20
780.1445245842058
 30
0.0
 11
1230.292226131975
 21
782.1380127731822
 31
0.0
  0
LINE
  5
9EFF
330
2
100
AcDbEntity
  8
AM_4
  6
DASHED
100
AcDbLine
 10
1231.573476131975
 20
777.7635245842057
 30
0.0
 11
1231.573476131975
 21
778.3085245842059
 31
0.0
  0
LINE
  5
9F00
330
2
100
AcDbEntity
  8
AM_4
  6
DASHED
100
AcDbLine
 10
1231.073476131975
 20
777.7635245842057
 30
0.0
 11
1231.073476131975
 21
778.3085245842059
 31
0.0
  0
LINE
  5
9F01
330
2
100
AcDbEntity
  8
AM_4
  6
DASHED
100
AcDbLine
 10
1231.573476131975
 20
778.3085245842059
 30
0.0
 11
1231.073476131975
 21
778.3085245842059
 31
0.0
  0
LINE
  5
9F02
330
2
100
AcDbEntity
  8
AM_4
  6
DASHED
100
AcDbLine
 10
1229.510976131975
 20
777.7635245842057
 30
0.0
 11
1229.510976131975
 21
778.3085245842059
 31
0.0
  0
LINE
  5
9F03
330
2
100
AcDbEntity
  8
AM_4
  6
DASHED
100
AcDbLine
 10
1229.010976131975
 20
777.7635245842057
 30
0.0
 11
1229.010976131975
 21
778.3085245842059
 31
0.0
  0
LINE
  5
9F04
330
2
100
AcDbEntity
  8
AM_4
  6
DASHED
100
AcDbLine
 10
1229.510976131975
 20
778.3085245842059
 30
0.0
 11
1229.010976131975
 21
778.3085245842059
 31
0.0
  0
LINE
  5
9F08
330
2
100
AcDbEntity
  8
AM_4
  6
DASHED
100
AcDbLine
 10
1229.510976131975
 20
777.7635245842057
 30
0.0
 11
1229.510976131975
 21
778.3085245842057
 31
0.0
  0
LINE
  5
9F09
330
2
100
AcDbEntity
  8
AM_4
  6
DASHED
100
AcDbLine
 10
1229.010976131975
 20
777.7635245842057
 30
0.0
 11
1229.010976131975
 21
778.3085245842057
 31
0.0
  0
LINE
  5
9F0A
330
2
100
AcDbEntity
  8
AM_4
  6
DASHED
100
AcDbLine
 10
1229.510976131975
 20
778.3085245842057
 30
0.0
 11
1229.010976131975
 21
778.3085245842057
 31
0.0
  0
LINE
  5
9F0B
330
2
100
AcDbEntity
  8
AM_4
  6
DASHED
100
AcDbLine
 10
1231.573476131975
 20
777.7635245842057
 30
0.0
 11
1231.573476131975
 21
778.3085245842057
 31
0.0
  0
LINE
  5
9F0C
330
2
100
AcDbEntity
  8
AM_4
  6
DASHED
100
AcDbLine
 10
1231.073476131975
 20
777.7635245842057
 30
0.0
 11
1231.073476131975
 21
778.3085245842057
 31
0.0
  0
LINE
  5
9F0D
330
2
100
AcDbEntity
  8
AM_4
  6
DASHED
100
AcDbLine
 10
1231.573476131975
 20
778.3085245842057
 30
0.0
 11
1231.073476131975
 21
778.3085245842057
 31
0.0
  0
CIRCLE
  5
9F14
330
2
100
AcDbEntity
  8
AM_4
  6
HIDDEN2
100
AcDbCircle
 10
1228.632226131975
 20
781.5935245842058
 30
0.0
 40
0.16215
  0
CIRCLE
  5
9F15
330
2
100
AcDbEntity
  8
AM_4
  6
HIDDEN2
100
AcDbCircle
 10
1231.952226131975
 20
781.5935245842058
 30
0.0
 40
0.16215
  0
CIRCLE
  5
9F16
330
2
100
AcDbEntity
  8
AM_4
  6
HIDDEN2
100
AcDbCircle
 10
1228.632226131975
 20
778.2735245842058
 30
0.0
 40
0.16215
  0
CIRCLE
  5
9F17
330
2
100
AcDbEntity
  8
AM_4
  6
HIDDEN2
100
AcDbCircle
 10
1231.952226131975
 20
778.2735245842058
 30
0.0
 40
0.16215
  0
LINE
  5
9F18
330
2
100
AcDbEntity
  8
AM_7
 48
0.2
100
AcDbLine
 10
1235.646384294016
 20
779.9834620450946
 30
0.0
 11
1242.750688311414
 21
779.9834620450946
 31
0.0
  0
LINE
  5
9F19
330
2
100
AcDbEntity
  8
AM_7
 48
0.2
100
AcDbLine
 10
1239.157343569541
 20
782.2933850125613
 30
0.0
 11
1239.157343569541
 21
780.5853624117171
 31
0.0
  0
LINE
  5
9F1A
330
2
100
AcDbEntity
  8
AM_7
 48
0.2
100
AcDbLine
 10
1239.102343569541
 20
779.9834620450946
 30
0.0
 11
1239.212343569541
 21
779.9834620450946
 31
0.0
  0
LINE
  5
9F1B
330
2
100
AcDbEntity
  8
AM_7
 48
0.2
100
AcDbLine
 10
1239.157343569541
 20
779.9284620450945
 30
0.0
 11
1239.157343569541
 21
780.0384620450945
 31
0.0
  0
LINE
  5
9F1C
330
2
100
AcDbEntity
  8
AM_7
 48
0.2
100
AcDbLine
 10
1238.547343569541
 20
779.9834620450946
 30
0.0
 11
1238.946343569541
 21
779.9834620450946
 31
0.0
  0
LINE
  5
9F1D
330
2
100
AcDbEntity
  8
AM_7
 48
0.2
100
AcDbLine
 10
1239.368343569541
 20
779.9834620450946
 30
0.0
 11
1239.767343569541
 21
779.9834620450946
 31
0.0
  0
LINE
  5
9F1E
330
2
100
AcDbEntity
  8
AM_7
 48
0.2
100
AcDbLine
 10
1239.157343569541
 20
779.3734620450946
 30
0.0
 11
1239.157343569541
 21
779.7724620450946
 31
0.0
  0
LINE
  5
9F1F
330
2
100
AcDbEntity
  8
AM_7
 48
0.2
100
AcDbLine
 10
1239.157343569541
 20
780.1944620450945
 30
0.0
 11
1239.157343569541
 21
780.5934620450945
 31
0.0
  0
LINE
  5
9F20
330
2
100
AcDbEntity
  8
AM_7
 48
0.2
100
AcDbLine
 10
1239.25986325458
 20
777.7034620450945
 30
0.0
 11
1239.25986325458
 21
778.6825102167463
 31
0.0
  0
LINE
  5
9F22
330
2
100
AcDbEntity
  8
AM_7
 48
0.2
100
AcDbLine
 10
1238.087343569541
 20
781.6434620450945
 30
0.0
 11
1242.557343569541
 21
781.6434620450945
 31
0.0
  0
LINE
  5
9F23
330
2
100
AcDbEntity
  8
AM_7
 48
0.2
100
AcDbLine
 10
1238.087343569541
 20
778.3234620450945
 30
0.0
 11
1242.557343569541
 21
778.3234620450945
 31
0.0
  0
LINE
  5
9F24
330
2
100
AcDbEntity
  8
AM_7
 48
0.2
100
AcDbLine
 10
1241.877343569541
 20
782.2933850125613
 30
0.0
 11
1241.877343569541
 21
780.5853624117171
 31
0.0
  0
LINE
  5
9F25
330
2
100
AcDbEntity
  8
AM_7
 48
0.2
100
AcDbLine
 10
1241.822343569541
 20
779.9834620450945
 30
0.0
 11
1241.932343569541
 21
779.9834620450945
 31
0.0
  0
LINE
  5
9F26
330
2
100
AcDbEntity
  8
AM_7
 48
0.2
100
AcDbLine
 10
1241.877343569541
 20
779.9284620450945
 30
0.0
 11
1241.877343569541
 21
780.0384620450945
 31
0.0
  0
LINE
  5
9F27
330
2
100
AcDbEntity
  8
AM_7
 48
0.2
100
AcDbLine
 10
1241.267343569541
 20
779.9834620450945
 30
0.0
 11
1241.666343569541
 21
779.9834620450945
 31
0.0
  0
LINE
  5
9F28
330
2
100
AcDbEntity
  8
AM_7
 48
0.2
100
AcDbLine
 10
1242.088343569541
 20
779.9834620450945
 30
0.0
 11
1242.487343569541
 21
779.9834620450945
 31
0.0
  0
LINE
  5
9F29
330
2
100
AcDbEntity
  8
AM_7
 48
0.2
100
AcDbLine
 10
1241.877343569541
 20
779.3734620450946
 30
0.0
 11
1241.877343569541
 21
779.7724620450946
 31
0.0
  0
LINE
  5
9F2A
330
2
100
AcDbEntity
  8
AM_7
 48
0.2
100
AcDbLine
 10
1241.877343569541
 20
780.1944620450945
 30
0.0
 11
1241.877343569541
 21
780.5934620450945
 31
0.0
  0
LINE
  5
9F2B
330
2
100
AcDbEntity
  8
AM_7
 48
0.2
100
AcDbLine
 10
1241.884666404186
 20
777.7034620450945
 30
0.0
 11
1241.884666404186
 21
778.6798654837854
 31
0.0
  0
CIRCLE
  5
9F2D
330
2
100
AcDbEntity
  8
AM_4
  6
HIDDEN2
100
AcDbCircle
 10
1239.157343569541
 20
779.9834620450946
 30
0.0
 40
0.1574805
  0
LINE
  5
9F2E
330
2
100
AcDbEntity
  8
AM_4
  6
DASHED
100
AcDbLine
 10
1239.50986325458
 20
777.8134620450945
 30
0.0
 11
1239.50986325458
 21
778.3584620450946
 31
0.0
  0
LINE
  5
9F2F
330
2
100
AcDbEntity
  8
AM_4
  6
DASHED
100
AcDbLine
 10
1239.00986325458
 20
777.8134620450945
 30
0.0
 11
1239.00986325458
 21
778.3584620450946
 31
0.0
  0
LINE
  5
9F30
330
2
100
AcDbEntity
  8
AM_4
  6
DASHED
100
AcDbLine
 10
1239.50986325458
 20
778.3584620450946
 30
0.0
 11
1239.00986325458
 21
778.3584620450946
 31
0.0
  0
LINE
  5
9F31
330
2
100
AcDbEntity
  8
AM_4
  6
DASHED
100
AcDbLine
 10
1238.739567978991
 20
782.1833850125614
 30
0.0
 11
1238.739567978991
 21
781.7216510214945
 31
0.0
  0
LINE
  5
9F32
330
2
100
AcDbEntity
  8
AM_4
  6
DASHED
100
AcDbLine
 10
1239.575119160091
 20
782.1833850125614
 30
0.0
 11
1239.575119160091
 21
781.7216510214945
 31
0.0
  0
LINE
  5
9F33
330
2
100
AcDbEntity
  8
AM_4
  6
DASHED
100
AcDbLine
 10
1238.739567978991
 20
781.7216510214945
 30
0.0
 11
1239.575119160091
 21
781.7216510214945
 31
0.0
  0
CIRCLE
  5
9F34
330
2
100
AcDbEntity
  8
AM_4
  6
HIDDEN2
100
AcDbCircle
 10
1241.877343569541
 20
779.9834620450945
 30
0.0
 40
0.1574805
  0
LINE
  5
9F35
330
2
100
AcDbEntity
  8
AM_4
  6
DASHED
100
AcDbLine
 10
1242.134666404187
 20
777.8134620450945
 30
0.0
 11
1242.134666404187
 21
778.3584620450945
 31
0.0
  0
LINE
  5
9F36
330
2
100
AcDbEntity
  8
AM_4
  6
DASHED
100
AcDbLine
 10
1241.634666404187
 20
777.8134620450945
 30
0.0
 11
1241.634666404187
 21
778.3584620450945
 31
0.0
  0
LINE
  5
9F37
330
2
100
AcDbEntity
  8
AM_4
  6
DASHED
100
AcDbLine
 10
1242.134666404187
 20
778.3584620450945
 30
0.0
 11
1241.634666404187
 21
778.3584620450945
 31
0.0
  0
LINE
  5
9F38
330
2
100
AcDbEntity
  8
AM_4
  6
DASHED
100
AcDbLine
 10
1241.459567978991
 20
782.1833850125613
 30
0.0
 11
1241.459567978991
 21
781.7216510214945
 31
0.0
  0
LINE
  5
9F39
330
2
100
AcDbEntity
  8
AM_4
  6
DASHED
100
AcDbLine
 10
1242.295119160091
 20
782.1833850125613
 30
0.0
 11
1242.295119160091
 21
781.7216510214945
 31
0.0
  0
LINE
  5
9F3A
330
2
100
AcDbEntity
  8
AM_4
  6
DASHED
100
AcDbLine
 10
1241.459567978991
 20
781.7216510214945
 30
0.0
 11
1242.295119160091
 21
781.7216510214945
 31
0.0
  0
LINE
  5
9F3F
330
2
100
AcDbEntity
  8
AM_4
 62
     7
100
AcDbLine
 10
1235.756384294016
 20
779.6092120450945
 30
0.0
 11
1235.756384294016
 21
780.3577120450945
 31
0.0
  0
LINE
  5
9F45
330
2
100
AcDbEntity
  8
AM_4
  6
DASHED
100
AcDbLine
 10
1238.428524671903
 20
778.1359620450944
 30
0.0
 11
1239.330886876627
 21
778.1359620450944
 31
0.0
  0
LINE
  5
9F46
330
2
100
AcDbEntity
  8
AM_4
  6
DASHED
100
AcDbLine
 10
1238.428524671903
 20
778.5109620450945
 30
0.0
 11
1239.330886876627
 21
778.5109620450945
 31
0.0
  0
LINE
  5
9F49
330
2
100
AcDbEntity
  8
AM_4
  6
DASHED
100
AcDbLine
 10
1242.216162467179
 20
778.5109620450945
 30
0.0
 11
1241.313800262454
 21
778.5109620450945
 31
0.0
  0
LINE
  5
9F4A
330
2
100
AcDbEntity
  8
AM_4
  6
DASHED
100
AcDbLine
 10
1242.216162467179
 20
778.1359620450944
 30
0.0
 11
1241.313800262454
 21
778.1359620450944
 31
0.0
  0
LINE
  5
9F4F
330
2
100
AcDbEntity
  8
AM_4
  6
DASHED
100
AcDbLine
 10
1241.805926246706
 20
778.4856120450945
 30
0.0
 11
1241.254745144344
 21
778.4856120450945
 31
0.0
  0
LINE
  5
9F50
330
2
100
AcDbEntity
  8
AM_4
  6
DASHED
100
AcDbLine
 10
1241.805926246706
 20
778.1613120450945
 30
0.0
 11
1241.254745144344
 21
778.1613120450945
 31
0.0
  0
LINE
  5
9F51
330
2
100
AcDbEntity
  8
AM_4
  6
DASHED
100
AcDbLine
 10
1238.884666404186
 20
778.1613120450945
 30
0.0
 11
1239.514587664029
 21
778.1613120450945
 31
0.0
  0
LINE
  5
9F52
330
2
100
AcDbEntity
  8
AM_4
  6
DASHED
100
AcDbLine
 10
1238.884666404186
 20
778.4856120450945
 30
0.0
 11
1239.514587664029
 21
778.4856120450945
 31
0.0
  0
ELLIPSE
  5
9F59
330
2
100
AcDbEntity
  8
AM_VIS
100
AcDbEllipse
 10
1230.292226131975
 20
782.1780584327175
 30
0.0
 11
-0.4064276472371548
 21
-0.0000000000000032
 31
0.0
210
0.0
220
0.0
230
1.0
 40
0.0087272179886579
 41
1.570796326795807
 42
7.853981633975394
  0
LINE
  5
9F5A
330
2
100
AcDbEntity
  8
AM_VIS
100
AcDbLine
 10
1228.436086465813
 20
782.18335004685
 30
0.0
 11
1232.148365798138
 21
782.18335004685
 31
0.0
  0
LINE
  5
9F5B
330
2
100
AcDbEntity
  8
AM_VIS
100
AcDbLine
 10
1228.449787648244
 20
782.1696488644184
 30
0.0
 11
1232.134664615706
 21
782.1696488644184
 31
0.0
  0
LINE
  5
9F5C
330
2
100
AcDbEntity
  8
AM_VIS
100
AcDbLine
 10
1232.24618367565
 20
777.6835245842058
 30
0.0
 11
1232.298683027117
 21
777.6835245842058
 31
0.0
  0
LINE
  5
9F5D
330
2
100
AcDbEntity
  8
AM_VIS
100
AcDbLine
 10
1228.3382685883
 20
777.6835245842058
 30
0.0
 11
1232.24618367565
 21
777.6835245842058
 31
0.0
  0
LINE
  5
9F5E
330
2
100
AcDbEntity
  8
AM_VIS
100
AcDbLine
 10
1228.285769236834
 20
777.6835245842058
 30
0.0
 11
1228.3382685883
 21
777.6835245842058
 31
0.0
  0
ELLIPSE
  5
9F5F
330
2
100
AcDbEntity
  8
AM_VIS
100
AcDbEllipse
 10
1232.148335815727
 20
781.7896342679579
 30
0.0
 11
0.2784096972956256
 21
0.2784096972956256
 31
0.0
210
0.0
220
0.0
230
1.0
 40
0.9999238504775709
 41
5.497825219993076
 42
7.068545394366093
  0
LINE
  5
9F60
330
2
100
AcDbEntity
  8
AM_VIS
100
AcDbLine
 10
1232.542051594619
 20
778.0473849180435
 30
0.0
 11
1232.542051594619
 21
781.7896642503681
 31
0.0
  0
ELLIPSE
  5
9F61
330
2
100
AcDbEntity
  8
AM_VIS
100
AcDbEllipse
 10
1232.148335815727
 20
778.0474149004536
 30
0.0
 11
0.2784096972956256
 21
-0.2784096972956256
 31
0.0
210
0.0
220
0.0
230
1.0
 40
0.9999238504775703
 41
5.88956501767617
 42
7.068545394366094
  0
ELLIPSE
  5
9F62
330
2
100
AcDbEntity
  8
AM_VIS
100
AcDbEllipse
 10
1228.436116448223
 20
778.0474149004536
 30
0.0
 11
-0.2784096972956259
 21
-0.2784096972956256
 31
0.0
210
0.0
220
0.0
230
1.0
 40
0.9999238504775703
 41
5.497825219993075
 42
6.676805596683
  0
LINE
  5
9F63
330
2
100
AcDbEntity
  8
AM_VIS
100
AcDbLine
 10
1228.042400669331
 20
781.7896642503681
 30
0.0
 11
1228.042400669331
 21
778.0473849180435
 31
0.0
  0
ELLIPSE
  5
9F64
330
2
100
AcDbEntity
  8
AM_VIS
100
AcDbEllipse
 10
1228.436116448223
 20
781.7896342679579
 30
0.0
 11
-0.2784096972956252
 21
0.278409697295626
 31
0.0
210
0.0
220
0.0
230
1.0
 40
0.9999238504775703
 41
5.497825219993078
 42
7.068545394366096
  0
ELLIPSE
  5
9F65
330
2
100
AcDbEntity
  8
AM_VIS
100
AcDbEllipse
 10
1228.449817630655
 20
778.0611160828851
 30
0.0
 11
-0.2784096972956259
 21
-0.2784096972956256
 31
0.0
210
0.0
220
0.0
230
1.0
 40
0.9999238504775703
 41
5.497825219993077
 42
6.781363410867069
  0
ELLIPSE
  5
9F67
330
2
100
AcDbEntity
  8
AM_VIS
100
AcDbEllipse
 10
1232.134634633296
 20
778.0611160828851
 30
0.0
 11
0.2784096972956256
 21
-0.2784096972956256
 31
0.0
210
0.0
220
0.0
230
1.0
 40
0.9999238504775703
 41
5.785007203492098
 42
7.068545394366096
  0
LINE
  5
9F68
330
2
100
AcDbEntity
  8
AM_VIS
100
AcDbLine
 10
1232.528350412188
 20
781.7759630679366
 30
0.0
 11
1232.528350412188
 21
778.0610861004751
 31
0.0
  0
ELLIPSE
  5
9F69
330
2
100
AcDbEntity
  8
AM_VIS
100
AcDbEllipse
 10
1232.134634633296
 20
781.7759330855263
 30
0.0
 11
0.2784096972956256
 21
0.2784096972956256
 31
0.0
210
0.0
220
0.0
230
1.0
 40
0.9999238504775709
 41
5.497825219993078
 42
7.068545394366095
  0
ELLIPSE
  5
9F6A
330
2
100
AcDbEntity
  8
AM_VIS
100
AcDbEllipse
 10
1228.449817630655
 20
781.7759330855263
 30
0.0
 11
-0.2784096972956252
 21
0.278409697295626
 31
0.0
210
0.0
220
0.0
230
1.0
 40
0.9999238504775703
 41
5.49782521999308
 42
7.068545394366098
  0
LINE
  5
9F6B
330
2
100
AcDbEntity
  8
AM_VIS
100
AcDbLine
 10
1228.056101851763
 20
778.0610861004751
 30
0.0
 11
1228.056101851763
 21
781.7759630679366
 31
0.0
  0
LINE
  5
9F6C
330
2
100
AcDbEntity
  8
AM_VIS
100
AcDbLine
 10
1228.167226131975
 20
779.8079094267254
 30
0.0
 11
1228.167226131975
 21
778.824705686568
 31
0.0
  0
LINE
  5
9F6D
330
2
100
AcDbEntity
  8
AM_VIS
100
AcDbLine
 10
1229.078235270676
 20
779.8866495842059
 30
0.0
 11
1228.245966289456
 21
779.8866495842059
 31
0.0
  0
LINE
  5
9F6E
330
2
100
AcDbEntity
  8
AM_VIS
100
AcDbLine
 10
1228.978567945281
 20
778.6861576582479
 30
0.0
 11
1229.400659331284
 21
779.108249044251
 31
0.0
  0
LINE
  5
9F6F
330
2
100
AcDbEntity
  8
AM_VIS
100
AcDbLine
 10
1228.245966289456
 20
778.7459655290876
 30
0.0
 11
1228.632226131975
 21
778.7459655290876
 31
0.0
  0
LINE
  5
9F70
330
2
100
AcDbEntity
  8
AM_VIS
100
AcDbLine
 10
1229.104667076857
 20
778.2735245842058
 30
0.0
 11
1229.104667076857
 21
777.8872647416862
 31
0.0
  0
LINE
  5
9F71
330
2
100
AcDbEntity
  8
AM_VIS
100
AcDbLine
 10
1229.476498126351
 20
779.034280029623
 30
0.0
 11
1229.051352310248
 21
778.6091342135192
 31
0.0
  0
LINE
  5
9F72
330
2
100
AcDbEntity
  8
AM_VIS
100
AcDbLine
 10
1230.233171013865
 20
777.8872647416862
 30
0.0
 11
1230.233171013865
 21
778.7208558573349
 31
0.0
  0
LINE
  5
9F73
330
2
100
AcDbEntity
  8
AM_VIS
100
AcDbLine
 10
1229.183407234337
 20
777.8085245842058
 30
0.0
 11
1230.154430856385
 21
777.8085245842058
 31
0.0
  0
LINE
  5
9F74
330
2
100
AcDbEntity
  8
AM_VIS
100
AcDbLine
 10
1230.417841289456
 20
777.8085245842058
 30
0.0
 11
1231.401045029613
 21
777.8085245842058
 31
0.0
  0
LINE
  5
9F75
330
2
100
AcDbEntity
  8
AM_VIS
100
AcDbLine
 10
1230.339101131975
 20
778.7195337229069
 30
0.0
 11
1230.339101131975
 21
777.8872647416862
 31
0.0
  0
LINE
  5
9F76
330
2
100
AcDbEntity
  8
AM_VIS
100
AcDbLine
 10
1231.539593057933
 20
778.6198663975117
 30
0.0
 11
1231.11750167193
 21
779.0419577835148
 31
0.0
  0
LINE
  5
9F77
330
2
100
AcDbEntity
  8
AM_VIS
100
AcDbLine
 10
1231.479785187093
 20
777.8872647416862
 30
0.0
 11
1231.479785187093
 21
778.2735245842058
 31
0.0
  0
LINE
  5
9F78
330
2
100
AcDbEntity
  8
AM_VIS
100
AcDbLine
 10
1229.051352310248
 20
781.2579149548923
 30
0.0
 11
1229.476498126351
 21
780.8327691387886
 31
0.0
  0
LINE
  5
9F79
330
2
100
AcDbEntity
  8
AM_VIS
100
AcDbLine
 10
1229.104667076857
 20
781.9797844267254
 30
0.0
 11
1229.104667076857
 21
781.5935245842058
 31
0.0
  0
LINE
  5
9F7A
330
2
100
AcDbEntity
  8
AM_VIS
100
AcDbLine
 10
1230.154430856385
 20
782.0585245842059
 30
0.0
 11
1229.183407234337
 21
782.0585245842059
 31
0.0
  0
LINE
  5
9F7B
330
2
100
AcDbEntity
  8
AM_VIS
100
AcDbLine
 10
1230.233171013865
 20
781.1461933110767
 30
0.0
 11
1230.233171013865
 21
781.9797844267254
 31
0.0
  0
LINE
  5
9F7C
330
2
100
AcDbEntity
  8
AM_VIS
100
AcDbLine
 10
1232.338485974495
 20
779.8744694660955
 30
0.0
 11
1231.504894858846
 21
779.8744694660955
 31
0.0
  0
LINE
  5
9F7D
330
2
100
AcDbEntity
  8
AM_VIS
100
AcDbLine
 10
1232.417226131975
 20
778.824705686568
 30
0.0
 11
1232.417226131975
 21
779.7957293086152
 31
0.0
  0
LINE
  5
9F7E
330
2
100
AcDbEntity
  8
AM_VIS
100
AcDbLine
 10
1231.952226131975
 20
778.7459655290876
 30
0.0
 11
1232.338485974495
 21
778.7459655290876
 31
0.0
  0
LINE
  5
9F7F
330
2
100
AcDbEntity
  8
AM_VIS
100
AcDbLine
 10
1231.191470686558
 20
779.117796578582
 30
0.0
 11
1231.616616502662
 21
778.6926507624782
 31
0.0
  0
LINE
  5
9F80
330
2
100
AcDbEntity
  8
AM_VIS
100
AcDbLine
 10
1231.506216993274
 20
779.9803995842059
 30
0.0
 11
1232.338485974495
 21
779.9803995842059
 31
0.0
  0
LINE
  5
9F81
330
2
100
AcDbEntity
  8
AM_VIS
100
AcDbLine
 10
1231.605884318669
 20
781.1808915101637
 30
0.0
 11
1231.183792932666
 21
780.7588001241606
 31
0.0
  0
LINE
  5
9F82
330
2
100
AcDbEntity
  8
AM_VIS
100
AcDbLine
 10
1232.338485974495
 20
781.1210836393239
 30
0.0
 11
1231.952226131975
 21
781.1210836393239
 31
0.0
  0
LINE
  5
9F83
330
2
100
AcDbEntity
  8
AM_VIS
100
AcDbLine
 10
1232.417226131975
 20
780.0591397416861
 30
0.0
 11
1232.417226131975
 21
781.0423434818436
 31
0.0
  0
LINE
  5
9F84
330
2
100
AcDbEntity
  8
AM_VIS
100
AcDbLine
 10
1230.351281250086
 20
781.9797844267254
 30
0.0
 11
1230.351281250086
 21
781.1461933110767
 31
0.0
  0
LINE
  5
9F85
330
2
100
AcDbEntity
  8
AM_VIS
100
AcDbLine
 10
1231.401045029613
 20
782.0585245842059
 30
0.0
 11
1230.430021407566
 21
782.0585245842059
 31
0.0
  0
LINE
  5
9F86
330
2
100
AcDbEntity
  8
AM_VIS
100
AcDbLine
 10
1231.479785187093
 20
781.5935245842058
 30
0.0
 11
1231.479785187093
 21
781.9797844267254
 31
0.0
  0
LINE
  5
9F87
330
2
100
AcDbEntity
  8
AM_VIS
100
AcDbLine
 10
1231.107954137599
 20
780.8327691387886
 30
0.0
 11
1231.533099953703
 21
781.2579149548923
 31
0.0
  0
LINE
  5
9F88
330
2
100
AcDbEntity
  8
AM_VIS
100
AcDbLine
 10
1229.392981577392
 20
780.7492525898297
 30
0.0
 11
1228.967835761289
 21
781.1743984059334
 31
0.0
  0
LINE
  5
9F89
330
2
100
AcDbEntity
  8
AM_VIS
100
AcDbLine
 10
1228.245966289456
 20
779.9925797023161
 30
0.0
 11
1229.079557405104
 21
779.9925797023161
 31
0.0
  0
LINE
  5
9F8A
330
2
100
AcDbEntity
  8
AM_VIS
100
AcDbLine
 10
1228.167226131975
 20
781.0423434818436
 30
0.0
 11
1228.167226131975
 21
780.0713198597963
 31
0.0
  0
LINE
  5
9F8B
330
2
100
AcDbEntity
  8
AM_VIS
100
AcDbLine
 10
1228.632226131975
 20
781.1210836393239
 30
0.0
 11
1228.245966289456
 21
781.1210836393239
 31
0.0
  0
SPLINE
  5
9F8C
330
2
100
AcDbEntity
  8
AM_VIS
100
AcDbSpline
210
0.0
220
0.0
230
1.0
 70
    11
 71
     3
 72
    38
 73
    34
 74
     0
 42
0.0000000001
 43
0.0000000001
 40
0.0
 40
0.0
 40
0.0
 40
0.0
 40
0.084066881890108
 40
0.084066881890108
 40
0.168133763780216
 40
0.168133763780216
 40
0.2522006456703241
 40
0.2522006456703241
 40
0.3362675275604321
 40
0.3362675275604321
 40
0.4203344094505402
 40
0.4203344094505402
 40
0.5044012913406482
 40
0.5044012913406482
 40
0.5884681732307562
 40
0.5884681732307562
 40
0.6725350551208642
 40
0.6725350551208642
 40
0.7566019370109723
 40
0.7566019370109723
 40
0.8406688189010802
 40
0.8406688189010802
 40
0.9247357007911883
 40
0.9247357007911883
 40
1.008802582681296
 40
1.008802582681296
 40
1.092869464571404
 40
1.092869464571404
 40
1.155919625988985
 40
1.155919625988985
 40
1.250494868115356
 40
1.250494868115356
 40
1.345070110241728
 40
1.345070110241728
 40
1.345070110241728
 40
1.345070110241728
 10
1232.538616383171
 20
779.9335245842057
 30
0.0
 10
1232.538616383171
 20
779.9148443990023
 30
0.0
 10
1232.538601270964
 20
779.8944439015887
 30
0.0
 10
1232.538453339037
 20
779.8412079004446
 30
0.0
 10
1232.538320315212
 20
779.8127385179483
 30
0.0
 10
1232.537942373454
 20
779.7646146949656
 30
0.0
 10
1232.537703049395
 20
779.7457262333428
 30
0.0
 10
1232.537221474796
 20
779.722407160618
 30
0.0
 10
1232.536973988984
 20
779.7169895882295
 30
0.0
 10
1232.536479495791
 20
779.7169885015214
 30
0.0
 10
1232.536232085406
 20
779.7226248126774
 30
0.0
 10
1232.53577501284
 20
779.7443196980089
 30
0.0
 10
1232.535565508551
 20
779.7603579381205
 30
0.0
 10
1232.535215549208
 20
779.8004577360794
 30
0.0
 10
1232.535075583388
 20
779.8244625940289
 30
0.0
 10
1232.534886231532
 20
779.8768379516668
 30
0.0
 10
1232.534837029122
 20
779.9051911079864
 30
0.0
 10
1232.534837029122
 20
779.9618580604251
 30
0.0
 10
1232.534886231532
 20
779.9902112167447
 30
0.0
 10
1232.535075583388
 20
780.0425865743825
 30
0.0
 10
1232.535215549208
 20
780.066591432332
 30
0.0
 10
1232.535565508551
 20
780.1066912302909
 30
0.0
 10
1232.53577501284
 20
780.1227294704026
 30
0.0
 10
1232.536232085406
 20
780.1444243557341
 30
0.0
 10
1232.536479495791
 20
780.1500606668901
 30
0.0
 10
1232.536973988984
 20
780.150059580182
 30
0.0
 10
1232.537221474796
 20
780.1446420077935
 30
0.0
 10
1232.53764285257
 20
780.1242378191593
 30
0.0
 10
1232.537822013618
 20
780.1116429891233
 30
0.0
 10
1232.538218855044
 20
780.0713020338207
 30
0.0
 10
1232.538397533537
 20
780.0397777837878
 30
0.0
 10
1232.538596235062
 20
779.9788316826489
 30
0.0
 10
1232.538616383171
 20
779.9545397925596
 30
0.0
 10
1232.538616383171
 20
779.9335245842057
 30
0.0
  0
LINE
  5
9F8F
330
2
100
AcDbEntity
  8
AM_VIS
100
AcDbLine
 10
1228.226281250086
 20
779.4335245842058
 30
0.0
 11
1229.229518383488
 21
779.4335245842058
 31
0.0
  0
LINE
  5
9F90
330
2
100
AcDbEntity
  8
AM_VIS
100
AcDbLine
 10
1228.226281250086
 20
780.4335245842058
 30
0.0
 11
1229.229518383488
 21
780.4335245842058
 31
0.0
  0
LINE
  5
9F91
330
2
100
AcDbEntity
  8
AM_VIS
100
AcDbLine
 10
1232.358171013865
 20
780.4335245842058
 30
0.0
 11
1231.354933880463
 21
780.4335245842058
 31
0.0
  0
LINE
  5
9F92
330
2
100
AcDbEntity
  8
AM_VIS
100
AcDbLine
 10
1232.358171013865
 20
779.4335245842058
 30
0.0
 11
1231.354933880463
 21
779.4335245842058
 31
0.0
  0
LINE
  5
9F93
330
2
100
AcDbEntity
  8
AM_VIS
100
AcDbLine
 10
1230.961517470558
 20
781.9994694660955
 30
0.0
 11
1230.961517470558
 21
780.888198257669
 31
0.0
  0
LINE
  5
9F94
330
2
100
AcDbEntity
  8
AM_VIS
100
AcDbLine
 10
1229.622934793393
 20
781.9994694660955
 30
0.0
 11
1229.622934793393
 21
780.888198257669
 31
0.0
  0
SPLINE
  5
9F96
330
2
100
AcDbEntity
  8
AM_VIS
100
AcDbSpline
210
0.0
220
0.0
230
1.0
 70
    11
 71
     3
 72
    38
 73
    34
 74
     0
 42
0.0000000001
 43
0.0000000001
 40
0.0
 40
0.0
 40
0.0
 40
0.0
 40
0.0840668375009913
 40
0.0840668375009913
 40
0.1681336750019825
 40
0.1681336750019825
 40
0.2522005125029738
 40
0.2522005125029738
 40
0.336267350003965
 40
0.336267350003965
 40
0.4203341875049563
 40
0.4203341875049563
 40
0.5044010250059476
 40
0.5044010250059476
 40
0.5884678625069389
 40
0.5884678625069389
 40
0.6725347000079301
 40
0.6725347000079301
 40
0.7566015375089213
 40
0.7566015375089213
 40
0.8406683750099123
 40
0.8406683750099123
 40
0.9247352125109035
 40
0.9247352125109035
 40
1.008802050011894
 40
1.008802050011894
 40
1.092868887512886
 40
1.092868887512886
 40
1.155919015638629
 40
1.155919015638629
 40
1.250494207827244
 40
1.250494207827244
 40
1.34506940001586
 40
1.34506940001586
 40
1.34506940001586
 40
1.34506940001586
 10
1228.049616733021
 20
779.9335245842057
 30
0.0
 10
1228.049616733021
 20
779.9148404425827
 30
0.0
 10
1228.049601630107
 20
779.8944624718243
 30
0.0
 10
1228.04945386906
 20
779.841257565241
 30
0.0
 10
1228.049320987922
 20
779.8127946267133
 30
0.0
 10
1228.048943181441
 20
779.7646581438534
 30
0.0
 10
1228.048703697188
 20
779.7457433561732
 30
0.0
 10
1228.048221808598
 20
779.7224038303227
 30
0.0
 10
1228.047974228571
 20
779.7169880247747
 30
0.0
 10
1228.047479735005
 20
779.7169902777988
 30
0.0
 10
1228.047232336554
 20
779.7226280327022
 30
0.0
 10
1228.046775279105
 20
779.7443254490905
 30
0.0
 10
1228.046565791851
 20
779.7603642175972
 30
0.0
 10
1228.046215861941
 20
779.8004638488852
 30
0.0
 10
1228.046075908096
 20
779.8244684214455
 30
0.0
 10
1228.045886577644
 20
779.8768411817503
 30
0.0
 10
1228.045837380828
 20
779.9051926154906
 30
0.0
 10
1228.045837380828
 20
779.9618565529209
 30
0.0
 10
1228.045886577644
 20
779.9902079866612
 30
0.0
 10
1228.046075908096
 20
780.0425807469659
 30
0.0
 10
1228.046215861941
 20
780.0665853195262
 30
0.0
 10
1228.046565791851
 20
780.1066849508142
 30
0.0
 10
1228.046775279105
 20
780.1227237193208
 30
0.0
 10
1228.047232336554
 20
780.1444211357093
 30
0.0
 10
1228.047479735005
 20
780.1500588906127
 30
0.0
 10
1228.047974228571
 20
780.1500611436368
 30
0.0
 10
1228.048221808598
 20
780.1446453380886
 30
0.0
 10
1228.048643461115
 20
780.1242232529695
 30
0.0
 10
1228.04882277753
 20
780.11161041092
 30
0.0
 10
1228.049219625022
 20
780.0712449050945
 30
0.0
 10
1228.049398112889
 20
780.0397253146987
 30
0.0
 10
1228.049596611074
 20
779.978805672776
 30
0.0
 10
1228.049616733021
 20
779.9545442435316
 30
0.0
 10
1228.049616733021
 20
779.9335245842057
 30
0.0
  0
LINE
  5
9F9C
330
2
100
AcDbEntity
  8
AM_HID
  6
DASHED
100
AcDbLine
 10
1231.540476131975
 20
777.7635245842057
 30
0.0
 11
1231.620476131975
 21
777.6835245842058
 31
0.0
  0
LINE
  5
9F9D
330
2
100
AcDbEntity
  8
AM_HID
  6
DASHED
100
AcDbLine
 10
1231.106476131975
 20
777.7635245842057
 30
0.0
 11
1231.026476131975
 21
777.6835245842058
 31
0.0
  0
LINE
  5
9F9E
330
2
100
AcDbEntity
  8
AM_HID
  6
DASHED
100
AcDbLine
 10
1231.106476131975
 20
777.7635245842057
 30
0.0
 11
1231.106476131975
 21
778.3921860015286
 31
0.0
  0
LINE
  5
9F9F
330
2
100
AcDbEntity
  8
AM_HID
  6
DASHED
100
AcDbLine
 10
1231.540476131975
 20
777.7635245842057
 30
0.0
 11
1231.540476131975
 21
778.3921860015286
 31
0.0
  0
LINE
  5
9FA0
330
2
100
AcDbEntity
  8
AM_HID
  6
DASHED
100
AcDbLine
 10
1229.477976131975
 20
777.7635245842057
 30
0.0
 11
1229.557976131975
 21
777.6835245842058
 31
0.0
  0
LINE
  5
9FA1
330
2
100
AcDbEntity
  8
AM_HID
  6
DASHED
100
AcDbLine
 10
1229.043976131975
 20
777.7635245842057
 30
0.0
 11
1228.963976131975
 21
777.6835245842058
 31
0.0
  0
LINE
  5
9FA2
330
2
100
AcDbEntity
  8
AM_HID
  6
DASHED
100
AcDbLine
 10
1229.043976131975
 20
777.7635245842057
 30
0.0
 11
1229.043976131975
 21
778.3921860015286
 31
0.0
  0
LINE
  5
9FA3
330
2
100
AcDbEntity
  8
AM_HID
  6
DASHED
100
AcDbLine
 10
1229.477976131975
 20
777.7635245842057
 30
0.0
 11
1229.477976131975
 21
778.3921860015286
 31
0.0
  0
LINE
  5
9FA4
330
2
100
AcDbEntity
  8
AM_HID
  6
DASHED
100
AcDbLine
 10
1231.323476131975
 20
778.5225727558576
 30
0.0
 11
1231.540476131975
 21
778.3921860015286
 31
0.0
  0
LINE
  5
9FA5
330
2
100
AcDbEntity
  8
AM_HID
  6
DASHED
100
AcDbLine
 10
1231.323476131975
 20
778.5225727558576
 30
0.0
 11
1231.106476131975
 21
778.3921860015286
 31
0.0
  0
LINE
  5
9FA6
330
2
100
AcDbEntity
  8
AM_HID
  6
DASHED
100
AcDbLine
 10
1229.260976131975
 20
778.5225727558576
 30
0.0
 11
1229.477976131975
 21
778.3921860015286
 31
0.0
  0
LINE
  5
9FA7
330
2
100
AcDbEntity
  8
AM_HID
  6
DASHED
100
AcDbLine
 10
1229.260976131975
 20
778.5225727558576
 30
0.0
 11
1229.043976131975
 21
778.3921860015286
 31
0.0
  0
LINE
  5
9FC1
330
2
100
AcDbEntity
  8
AM_HID
  6
DASHED
100
AcDbLine
 10
1231.540476131975
 20
777.7635245842057
 30
0.0
 11
1231.323476131975
 21
777.7635245842057
 31
0.0
  0
LINE
  5
9FC2
330
2
100
AcDbEntity
  8
AM_HID
  6
DASHED
100
AcDbLine
 10
1231.323476131975
 20
777.7635245842057
 30
0.0
 11
1231.106476131975
 21
777.7635245842057
 31
0.0
  0
LINE
  5
9FC3
330
2
100
AcDbEntity
  8
AM_HID
  6
DASHED
100
AcDbLine
 10
1231.540476131975
 20
778.3921860015286
 30
0.0
 11
1231.323476131975
 21
778.3921860015286
 31
0.0
  0
LINE
  5
9FC4
330
2
100
AcDbEntity
  8
AM_HID
  6
DASHED
100
AcDbLine
 10
1231.323476131975
 20
778.3921860015286
 30
0.0
 11
1231.106476131975
 21
778.3921860015286
 31
0.0
  0
LINE
  5
9FC5
330
2
100
AcDbEntity
  8
AM_HID
  6
DASHED
100
AcDbLine
 10
1229.477976131975
 20
777.7635245842057
 30
0.0
 11
1229.260976131975
 21
777.7635245842057
 31
0.0
  0
LINE
  5
9FC6
330
2
100
AcDbEntity
  8
AM_HID
  6
DASHED
100
AcDbLine
 10
1229.260976131975
 20
777.7635245842057
 30
0.0
 11
1229.043976131975
 21
777.7635245842057
 31
0.0
  0
LINE
  5
9FC7
330
2
100
AcDbEntity
  8
AM_HID
  6
DASHED
100
AcDbLine
 10
1229.477976131975
 20
778.3921860015286
 30
0.0
 11
1229.260976131975
 21
778.3921860015286
 31
0.0
  0
LINE
  5
9FC8
330
2
100
AcDbEntity
  8
AM_HID
  6
DASHED
100
AcDbLine
 10
1229.260976131975
 20
778.3921860015286
 30
0.0
 11
1229.043976131975
 21
778.3921860015286
 31
0.0
  0
ARC
  5
9FD5
330
2
100
AcDbEntity
  8
AM_VIS
100
AcDbCircle
 10
1230.292226131975
 20
779.9335245842058
 30
0.0
 40
0.5675
100
AcDbArc
 50
52.50071218652854
 51
67.49928781347289
  0
LINE
  5
9FFF
330
2
100
AcDbEntity
  8
AM_VIS
100
AcDbLine
 10
1239.078603413541
 20
780.0289226953572
 30
0.0
 11
1239.117973491541
 21
780.0516530204885
 31
0.0
  0
LINE
  5
A000
330
2
100
AcDbEntity
  8
AM_VIS
100
AcDbLine
 10
1239.117973491541
 20
780.0516530204885
 30
0.0
 11
1239.157343569541
 21
780.0743833456198
 31
0.0
  0
LINE
  5
A001
330
2
100
AcDbEntity
  8
AM_VIS
100
AcDbLine
 10
1239.157343569541
 20
780.0743833456198
 30
0.0
 11
1239.196713647541
 21
780.0516530204885
 31
0.0
  0
LINE
  5
A002
330
2
100
AcDbEntity
  8
AM_VIS
100
AcDbLine
 10
1239.196713647541
 20
780.0516530204885
 30
0.0
 11
1239.236083725541
 21
780.0289226953572
 31
0.0
  0
LINE
  5
A003
330
2
100
AcDbEntity
  8
AM_VIS
100
AcDbLine
 10
1239.236083725541
 20
780.0289226953572
 30
0.0
 11
1239.236083725541
 21
779.9834620450945
 31
0.0
  0
LINE
  5
A004
330
2
100
AcDbEntity
  8
AM_VIS
100
AcDbLine
 10
1239.236083725541
 20
779.9834620450945
 30
0.0
 11
1239.236083725541
 21
779.9380013948319
 31
0.0
  0
LINE
  5
A005
330
2
100
AcDbEntity
  8
AM_VIS
100
AcDbLine
 10
1239.196713647541
 20
779.9152710697005
 30
0.0
 11
1239.236083725541
 21
779.9380013948319
 31
0.0
  0
LINE
  5
A006
330
2
100
AcDbEntity
  8
AM_VIS
100
AcDbLine
 10
1239.157343569541
 20
779.8925407445692
 30
0.0
 11
1239.196713647541
 21
779.9152710697005
 31
0.0
  0
LINE
  5
A007
330
2
100
AcDbEntity
  8
AM_VIS
100
AcDbLine
 10
1239.117973491541
 20
779.9152710697005
 30
0.0
 11
1239.157343569541
 21
779.8925407445692
 31
0.0
  0
LINE
  5
A008
330
2
100
AcDbEntity
  8
AM_VIS
100
AcDbLine
 10
1239.078603413541
 20
779.9380013948319
 30
0.0
 11
1239.117973491541
 21
779.9152710697005
 31
0.0
  0
LINE
  5
A009
330
2
100
AcDbEntity
  8
AM_VIS
100
AcDbLine
 10
1239.078603413541
 20
779.9834620450945
 30
0.0
 11
1239.078603413541
 21
779.9380013948319
 31
0.0
  0
LINE
  5
A00A
330
2
100
AcDbEntity
  8
AM_VIS
100
AcDbLine
 10
1239.078603413541
 20
780.0289226953572
 30
0.0
 11
1239.078603413541
 21
779.9834620450945
 31
0.0
  0
ARC
  5
A00C
330
2
100
AcDbEntity
  8
AM_VIS
100
AcDbCircle
 10
1239.157343569541
 20
779.9834620450945
 30
0.0
 40
0.0787401559999872
100
AcDbArc
 50
180.0
 51
240.0000000000001
  0
ARC
  5
A00D
330
2
100
AcDbEntity
  8
AM_VIS
100
AcDbCircle
 10
1239.157343569541
 20
779.9834620450945
 30
0.0
 40
0.0787401559999872
100
AcDbArc
 50
240.0000000000001
 51
299.9999999999999
  0
ARC
  5
A00E
330
2
100
AcDbEntity
  8
AM_VIS
100
AcDbCircle
 10
1239.157343569541
 20
779.9834620450945
 30
0.0
 40
0.0787401559999872
100
AcDbArc
 50
299.9999999999999
 51
0.0
  0
ARC
  5
A00F
330
2
100
AcDbEntity
  8
AM_VIS
100
AcDbCircle
 10
1239.157343569541
 20
779.9834620450945
 30
0.0
 40
0.0787401559999872
100
AcDbArc
 50
0.0
 51
59.99999999999985
  0
ARC
  5
A010
330
2
100
AcDbEntity
  8
AM_VIS
100
AcDbCircle
 10
1239.157343569541
 20
779.9834620450945
 30
0.0
 40
0.0787401559999872
100
AcDbArc
 50
59.99999999999985
 51
119.9999999999998
  0
ARC
  5
A011
330
2
100
AcDbEntity
  8
AM_VIS
100
AcDbCircle
 10
1239.157343569541
 20
779.9834620450945
 30
0.0
 40
0.0787401559999872
100
AcDbArc
 50
119.9999999999998
 51
180.0
  0
ARC
  5
A014
330
2
100
AcDbEntity
  8
AM_VIS
100
AcDbCircle
 10
1239.157343569541
 20
779.9834620450945
 30
0.0
 40
0.1929133821999688
100
AcDbArc
 50
71.7757439858776
 51
90.0
  0
ARC
  5
A016
330
2
100
AcDbEntity
  8
AM_VIS
100
AcDbCircle
 10
1239.157343569541
 20
779.9834620450945
 30
0.0
 40
0.1929133821999688
100
AcDbArc
 50
11.77574398587074
 51
48.22425601414147
  0
ARC
  5
A018
330
2
100
AcDbEntity
  8
AM_VIS
100
AcDbCircle
 10
1239.157343569541
 20
779.9834620450945
 30
0.0
 40
0.1929133821999688
100
AcDbArc
 50
311.7757439858616
 51
348.2242560141345
  0
ARC
  5
A01A
330
2
100
AcDbEntity
  8
AM_VIS
100
AcDbCircle
 10
1239.157343569541
 20
779.9834620450945
 30
0.0
 40
0.1929133821999688
100
AcDbArc
 50
251.7757439858592
 51
288.2242560141257
  0
ARC
  5
A01C
330
2
100
AcDbEntity
  8
AM_VIS
100
AcDbCircle
 10
1239.157343569541
 20
779.9834620450945
 30
0.0
 40
0.1929133821999688
100
AcDbArc
 50
191.7757439858658
 51
228.2242560141233
  0
ARC
  5
A01E
330
2
100
AcDbEntity
  8
AM_VIS
100
AcDbCircle
 10
1239.157343569541
 20
779.9834620450945
 30
0.0
 40
0.1929133821999688
100
AcDbArc
 50
131.775743985875
 51
168.2242560141295
  0
ARC
  5
A020
330
2
100
AcDbEntity
  8
AM_VIS
100
AcDbCircle
 10
1239.157343569541
 20
779.9834620450945
 30
0.0
 40
0.1929133821999688
100
AcDbArc
 50
90.0
 51
108.2242560141392
  0
LINE
  5
A022
330
2
100
AcDbEntity
  8
AM_VIS
100
AcDbLine
 10
1241.798603413541
 20
780.0289226953572
 30
0.0
 11
1241.837973491541
 21
780.0516530204885
 31
0.0
  0
LINE
  5
A023
330
2
100
AcDbEntity
  8
AM_VIS
100
AcDbLine
 10
1241.837973491541
 20
780.0516530204885
 30
0.0
 11
1241.877343569541
 21
780.0743833456198
 31
0.0
  0
LINE
  5
A024
330
2
100
AcDbEntity
  8
AM_VIS
100
AcDbLine
 10
1241.877343569541
 20
780.0743833456198
 30
0.0
 11
1241.916713647541
 21
780.0516530204885
 31
0.0
  0
LINE
  5
A025
330
2
100
AcDbEntity
  8
AM_VIS
100
AcDbLine
 10
1241.916713647541
 20
780.0516530204885
 30
0.0
 11
1241.956083725541
 21
780.0289226953572
 31
0.0
  0
LINE
  5
A026
330
2
100
AcDbEntity
  8
AM_VIS
100
AcDbLine
 10
1241.956083725541
 20
780.0289226953572
 30
0.0
 11
1241.956083725541
 21
779.9834620450945
 31
0.0
  0
LINE
  5
A027
330
2
100
AcDbEntity
  8
AM_VIS
100
AcDbLine
 10
1241.956083725541
 20
779.9834620450945
 30
0.0
 11
1241.956083725541
 21
779.9380013948319
 31
0.0
  0
LINE
  5
A028
330
2
100
AcDbEntity
  8
AM_VIS
100
AcDbLine
 10
1241.916713647541
 20
779.9152710697005
 30
0.0
 11
1241.956083725541
 21
779.9380013948319
 31
0.0
  0
LINE
  5
A029
330
2
100
AcDbEntity
  8
AM_VIS
100
AcDbLine
 10
1241.877343569541
 20
779.8925407445692
 30
0.0
 11
1241.916713647541
 21
779.9152710697005
 31
0.0
  0
LINE
  5
A02A
330
2
100
AcDbEntity
  8
AM_VIS
100
AcDbLine
 10
1241.837973491541
 20
779.9152710697005
 30
0.0
 11
1241.877343569541
 21
779.8925407445692
 31
0.0
  0
LINE
  5
A02B
330
2
100
AcDbEntity
  8
AM_VIS
100
AcDbLine
 10
1241.798603413541
 20
779.9380013948319
 30
0.0
 11
1241.837973491541
 21
779.9152710697005
 31
0.0
  0
LINE
  5
A02C
330
2
100
AcDbEntity
  8
AM_VIS
100
AcDbLine
 10
1241.798603413541
 20
779.9834620450945
 30
0.0
 11
1241.798603413541
 21
779.9380013948319
 31
0.0
  0
LINE
  5
A02D
330
2
100
AcDbEntity
  8
AM_VIS
100
AcDbLine
 10
1241.798603413541
 20
780.0289226953572
 30
0.0
 11
1241.798603413541
 21
779.9834620450945
 31
0.0
  0
ARC
  5
A02F
330
2
100
AcDbEntity
  8
AM_VIS
100
AcDbCircle
 10
1241.877343569541
 20
779.9834620450945
 30
0.0
 40
0.0787401559999872
100
AcDbArc
 50
180.0
 51
240.0000000000001
  0
ARC
  5
A030
330
2
100
AcDbEntity
  8
AM_VIS
100
AcDbCircle
 10
1241.877343569541
 20
779.9834620450945
 30
0.0
 40
0.0787401559999872
100
AcDbArc
 50
240.0000000000001
 51
299.9999999999999
  0
ARC
  5
A031
330
2
100
AcDbEntity
  8
AM_VIS
100
AcDbCircle
 10
1241.877343569541
 20
779.9834620450945
 30
0.0
 40
0.0787401559999872
100
AcDbArc
 50
299.9999999999999
 51
0.0
  0
ARC
  5
A032
330
2
100
AcDbEntity
  8
AM_VIS
100
AcDbCircle
 10
1241.877343569541
 20
779.9834620450945
 30
0.0
 40
0.0787401559999872
100
AcDbArc
 50
0.0
 51
60.00000000000008
  0
ARC
  5
A033
330
2
100
AcDbEntity
  8
AM_VIS
100
AcDbCircle
 10
1241.877343569541
 20
779.9834620450945
 30
0.0
 40
0.0787401559999872
100
AcDbArc
 50
60.00000000000008
 51
119.9999999999999
  0
ARC
  5
A034
330
2
100
AcDbEntity
  8
AM_VIS
100
AcDbCircle
 10
1241.877343569541
 20
779.9834620450945
 30
0.0
 40
0.0787401559999872
100
AcDbArc
 50
119.9999999999999
 51
180.0
  0
ARC
  5
A037
330
2
100
AcDbEntity
  8
AM_VIS
100
AcDbCircle
 10
1241.877343569541
 20
779.9834620450945
 30
0.0
 40
0.1929133821999688
100
AcDbArc
 50
71.77574398587784
 51
90.0
  0
ARC
  5
A039
330
2
100
AcDbEntity
  8
AM_VIS
100
AcDbCircle
 10
1241.877343569541
 20
779.9834620450945
 30
0.0
 40
0.1929133821999688
100
AcDbArc
 50
11.77574398587074
 51
48.22425601414185
  0
ARC
  5
A03B
330
2
100
AcDbEntity
  8
AM_VIS
100
AcDbCircle
 10
1241.877343569541
 20
779.9834620450945
 30
0.0
 40
0.1929133821999688
100
AcDbArc
 50
311.7757439858613
 51
348.2242560141348
  0
ARC
  5
A03D
330
2
100
AcDbEntity
  8
AM_VIS
100
AcDbCircle
 10
1241.877343569541
 20
779.9834620450945
 30
0.0
 40
0.1929133821999688
100
AcDbArc
 50
251.7757439858589
 51
288.2242560141254
  0
ARC
  5
A03F
330
2
100
AcDbEntity
  8
AM_VIS
100
AcDbCircle
 10
1241.877343569541
 20
779.9834620450945
 30
0.0
 40
0.1929133821999688
100
AcDbArc
 50
191.7757439858658
 51
228.2242560141229
  0
ARC
  5
A041
330
2
100
AcDbEntity
  8
AM_VIS
100
AcDbCircle
 10
1241.877343569541
 20
779.9834620450945
 30
0.0
 40
0.1929133821999688
100
AcDbArc
 50
131.7757439858754
 51
168.2242560141295
  0
ARC
  5
A043
330
2
100
AcDbEntity
  8
AM_VIS
100
AcDbCircle
 10
1241.877343569541
 20
779.9834620450945
 30
0.0
 40
0.1929133821999688
100
AcDbArc
 50
90.0
 51
108.2242560141394
  0
LINE
  5
A045
330
2
100
AcDbEntity
  8
AM_VIS
100
AcDbLine
 10
1239.309823225974
 20
780.0228321230945
 30
0.0
 11
1239.311042760686
 21
780.0228321230945
 31
0.0
  0
LINE
  5
A046
330
2
100
AcDbEntity
  8
AM_VIS
100
AcDbLine
 10
1239.311042760686
 20
779.9440919670945
 30
0.0
 11
1239.309823225974
 21
779.9440919670945
 31
0.0
  0
LINE
  5
A047
330
2
100
AcDbEntity
  8
AM_VIS
100
AcDbLine
 10
1239.200097677416
 20
779.8306696020217
 30
0.0
 11
1239.19948791006
 21
779.8317257500634
 31
0.0
  0
LINE
  5
A048
330
2
100
AcDbEntity
  8
AM_VIS
100
AcDbLine
 10
1239.267678885454
 20
779.8710958280634
 30
0.0
 11
1239.26828865281
 21
779.8700396800218
 31
0.0
  0
LINE
  5
A049
330
2
100
AcDbEntity
  8
AM_VIS
100
AcDbLine
 10
1239.19948791006
 20
780.1351983401257
 30
0.0
 11
1239.200097677416
 21
780.1362544881673
 31
0.0
  0
LINE
  5
A04A
330
2
100
AcDbEntity
  8
AM_VIS
100
AcDbLine
 10
1239.26828865281
 20
780.0968844101673
 30
0.0
 11
1239.267678885454
 21
780.0958282621258
 31
0.0
  0
LINE
  5
A04B
330
2
100
AcDbEntity
  8
AM_VIS
100
AcDbLine
 10
1239.046398486271
 20
779.8700396800218
 30
0.0
 11
1239.047008253628
 21
779.8710958280634
 31
0.0
  0
LINE
  5
A04C
330
2
100
AcDbEntity
  8
AM_VIS
100
AcDbLine
 10
1239.115199229021
 20
779.8317257500634
 30
0.0
 11
1239.114589461665
 21
779.8306696020217
 31
0.0
  0
LINE
  5
A04D
330
2
100
AcDbEntity
  8
AM_VIS
100
AcDbLine
 10
1239.047008253628
 20
780.0958282621258
 30
0.0
 11
1239.046398486271
 21
780.0968844101673
 31
0.0
  0
LINE
  5
A04E
330
2
100
AcDbEntity
  8
AM_VIS
100
AcDbLine
 10
1239.114589461665
 20
780.1362544881673
 30
0.0
 11
1239.115199229021
 21
780.1351983401257
 31
0.0
  0
LINE
  5
A04F
330
2
100
AcDbEntity
  8
AM_VIS
100
AcDbLine
 10
1239.003644378396
 20
780.0228321230945
 30
0.0
 11
1239.004863913108
 21
780.0228321230945
 31
0.0
  0
LINE
  5
A050
330
2
100
AcDbEntity
  8
AM_VIS
100
AcDbLine
 10
1239.004863913108
 20
779.9440919670945
 30
0.0
 11
1239.003644378396
 21
779.9440919670945
 31
0.0
  0
LINE
  5
A051
330
2
100
AcDbEntity
  8
AM_VIS
100
AcDbLine
 10
1239.311042760686
 20
780.0228321230945
 30
0.0
 11
1239.350216886276
 21
780.0228321230945
 31
0.0
  0
LINE
  5
A054
330
2
100
AcDbEntity
  8
AM_VIS
100
AcDbLine
 10
1239.311042760686
 20
779.9440919670945
 30
0.0
 11
1239.350216886276
 21
779.9440919670945
 31
0.0
  0
LINE
  5
A055
330
2
100
AcDbEntity
  8
AM_VIS
100
AcDbLine
 10
1239.200097677416
 20
780.1362544881673
 30
0.0
 11
1239.219684740212
 21
780.1701802760995
 31
0.0
  0
LINE
  5
A058
330
2
100
AcDbEntity
  8
AM_VIS
100
AcDbLine
 10
1239.26828865281
 20
780.0968844101673
 30
0.0
 11
1239.287875715606
 21
780.1308101980996
 31
0.0
  0
LINE
  5
A05A
330
2
100
AcDbEntity
  8
AM_VIS
100
AcDbLine
 10
1239.200097677416
 20
779.8306696020217
 30
0.0
 11
1239.219684740212
 21
779.7967438140894
 31
0.0
  0
LINE
  5
A05B
330
2
100
AcDbEntity
  8
AM_VIS
100
AcDbLine
 10
1239.26828865281
 20
779.8700396800218
 30
0.0
 11
1239.287875715606
 21
779.8361138920895
 31
0.0
  0
LINE
  5
A05E
330
2
100
AcDbEntity
  8
AM_VIS
100
AcDbLine
 10
1239.026811423476
 20
779.8361138920895
 30
0.0
 11
1239.046398486271
 21
779.8700396800218
 31
0.0
  0
LINE
  5
A05F
330
2
100
AcDbEntity
  8
AM_VIS
100
AcDbLine
 10
1239.09500239887
 20
779.7967438140894
 30
0.0
 11
1239.114589461665
 21
779.8306696020217
 31
0.0
  0
LINE
  5
A061
330
2
100
AcDbEntity
  8
AM_VIS
100
AcDbLine
 10
1239.026811423476
 20
780.1308101980995
 30
0.0
 11
1239.046398486271
 21
780.0968844101673
 31
0.0
  0
LINE
  5
A064
330
2
100
AcDbEntity
  8
AM_VIS
100
AcDbLine
 10
1239.09500239887
 20
780.1701802760995
 30
0.0
 11
1239.114589461665
 21
780.1362544881673
 31
0.0
  0
LINE
  5
A065
330
2
100
AcDbEntity
  8
AM_VIS
100
AcDbLine
 10
1238.964470252805
 20
779.9440919670945
 30
0.0
 11
1239.003644378396
 21
779.9440919670945
 31
0.0
  0
LINE
  5
A068
330
2
100
AcDbEntity
  8
AM_VIS
100
AcDbLine
 10
1238.964470252805
 20
780.0228321230945
 30
0.0
 11
1239.003644378396
 21
780.0228321230945
 31
0.0
  0
ARC
  5
A069
330
2
100
AcDbEntity
  8
AM_VIS
100
AcDbCircle
 10
1239.157343569541
 20
779.9834620450946
 30
0.0
 40
0.1586614143399932
100
AcDbArc
 50
345.6325874171615
 51
14.36741258283853
  0
ARC
  5
A06A
330
2
100
AcDbEntity
  8
AM_VIS
100
AcDbCircle
 10
1239.157343569541
 20
779.9834620450946
 30
0.0
 40
0.1586614143399932
100
AcDbArc
 50
285.632587417162
 51
314.367412582839
  0
ARC
  5
A06B
330
2
100
AcDbEntity
  8
AM_VIS
100
AcDbCircle
 10
1239.157343569541
 20
779.9834620450946
 30
0.0
 40
0.1586614143399932
100
AcDbArc
 50
45.63258741716173
 51
74.36741258283852
  0
ARC
  5
A06C
330
2
100
AcDbEntity
  8
AM_VIS
100
AcDbCircle
 10
1239.157343569541
 20
779.9834620450946
 30
0.0
 40
0.1586614143399932
100
AcDbArc
 50
225.6325874171621
 51
254.3674125828391
  0
ARC
  5
A06D
330
2
100
AcDbEntity
  8
AM_VIS
100
AcDbCircle
 10
1239.157343569541
 20
779.9834620450946
 30
0.0
 40
0.1586614143399932
100
AcDbArc
 50
105.6325874171619
 51
134.3674125828386
  0
ARC
  5
A06E
330
2
100
AcDbEntity
  8
AM_VIS
100
AcDbCircle
 10
1239.157343569541
 20
779.9834620450946
 30
0.0
 40
0.1586614143399932
100
AcDbArc
 50
165.632587417162
 51
194.3674125828388
  0
CIRCLE
  5
A075
330
2
100
AcDbEntity
  8
AM_VIS
100
AcDbCircle
 10
1239.157343569541
 20
779.9834620450946
 30
0.0
 40
0.1574803119999933
  0
CIRCLE
  5
A076
330
2
100
AcDbEntity
  8
AM_VIS
100
AcDbCircle
 10
1239.157343569541
 20
779.9834620450946
 30
0.0
 40
0.0984251949999958
  0
LINE
  5
A077
330
2
100
AcDbEntity
  8
AM_VIS
100
AcDbLine
 10
1242.029823225974
 20
780.0228321230945
 30
0.0
 11
1242.031042760686
 21
780.0228321230945
 31
0.0
  0
LINE
  5
A078
330
2
100
AcDbEntity
  8
AM_VIS
100
AcDbLine
 10
1242.031042760686
 20
779.9440919670945
 30
0.0
 11
1242.029823225974
 21
779.9440919670945
 31
0.0
  0
LINE
  5
A079
330
2
100
AcDbEntity
  8
AM_VIS
100
AcDbLine
 10
1241.920097677416
 20
779.8306696020217
 30
0.0
 11
1241.91948791006
 21
779.8317257500634
 31
0.0
  0
LINE
  5
A07A
330
2
100
AcDbEntity
  8
AM_VIS
100
AcDbLine
 10
1241.987678885454
 20
779.8710958280634
 30
0.0
 11
1241.98828865281
 21
779.8700396800218
 31
0.0
  0
LINE
  5
A07B
330
2
100
AcDbEntity
  8
AM_VIS
100
AcDbLine
 10
1241.91948791006
 20
780.1351983401257
 30
0.0
 11
1241.920097677416
 21
780.1362544881673
 31
0.0
  0
LINE
  5
A07C
330
2
100
AcDbEntity
  8
AM_VIS
100
AcDbLine
 10
1241.98828865281
 20
780.0968844101673
 30
0.0
 11
1241.987678885454
 21
780.0958282621258
 31
0.0
  0
LINE
  5
A07D
330
2
100
AcDbEntity
  8
AM_VIS
100
AcDbLine
 10
1241.766398486271
 20
779.8700396800218
 30
0.0
 11
1241.767008253627
 21
779.8710958280634
 31
0.0
  0
LINE
  5
A07E
330
2
100
AcDbEntity
  8
AM_VIS
100
AcDbLine
 10
1241.835199229021
 20
779.8317257500634
 30
0.0
 11
1241.834589461665
 21
779.8306696020217
 31
0.0
  0
LINE
  5
A07F
330
2
100
AcDbEntity
  8
AM_VIS
100
AcDbLine
 10
1241.767008253627
 20
780.0958282621258
 30
0.0
 11
1241.766398486271
 21
780.0968844101673
 31
0.0
  0
LINE
  5
A080
330
2
100
AcDbEntity
  8
AM_VIS
100
AcDbLine
 10
1241.834589461665
 20
780.1362544881673
 30
0.0
 11
1241.835199229021
 21
780.1351983401257
 31
0.0
  0
LINE
  5
A081
330
2
100
AcDbEntity
  8
AM_VIS
100
AcDbLine
 10
1241.723644378396
 20
780.0228321230945
 30
0.0
 11
1241.724863913108
 21
780.0228321230945
 31
0.0
  0
LINE
  5
A082
330
2
100
AcDbEntity
  8
AM_VIS
100
AcDbLine
 10
1241.724863913108
 20
779.9440919670945
 30
0.0
 11
1241.723644378396
 21
779.9440919670945
 31
0.0
  0
LINE
  5
A083
330
2
100
AcDbEntity
  8
AM_VIS
100
AcDbLine
 10
1242.031042760686
 20
780.0228321230945
 30
0.0
 11
1242.070216886276
 21
780.0228321230945
 31
0.0
  0
LINE
  5
A086
330
2
100
AcDbEntity
  8
AM_VIS
100
AcDbLine
 10
1242.031042760686
 20
779.9440919670945
 30
0.0
 11
1242.070216886276
 21
779.9440919670945
 31
0.0
  0
LINE
  5
A087
330
2
100
AcDbEntity
  8
AM_VIS
100
AcDbLine
 10
1241.920097677416
 20
780.1362544881673
 30
0.0
 11
1241.939684740211
 21
780.1701802760995
 31
0.0
  0
LINE
  5
A08A
330
2
100
AcDbEntity
  8
AM_VIS
100
AcDbLine
 10
1241.98828865281
 20
780.0968844101673
 30
0.0
 11
1242.007875715606
 21
780.1308101980996
 31
0.0
  0
LINE
  5
A08C
330
2
100
AcDbEntity
  8
AM_VIS
100
AcDbLine
 10
1241.920097677416
 20
779.8306696020217
 30
0.0
 11
1241.939684740211
 21
779.7967438140894
 31
0.0
  0
LINE
  5
A08D
330
2
100
AcDbEntity
  8
AM_VIS
100
AcDbLine
 10
1241.98828865281
 20
779.8700396800218
 30
0.0
 11
1242.007875715606
 21
779.8361138920894
 31
0.0
  0
LINE
  5
A090
330
2
100
AcDbEntity
  8
AM_VIS
100
AcDbLine
 10
1241.746811423476
 20
779.8361138920895
 30
0.0
 11
1241.766398486271
 21
779.8700396800218
 31
0.0
  0
LINE
  5
A091
330
2
100
AcDbEntity
  8
AM_VIS
100
AcDbLine
 10
1241.81500239887
 20
779.7967438140894
 30
0.0
 11
1241.834589461665
 21
779.8306696020217
 31
0.0
  0
LINE
  5
A093
330
2
100
AcDbEntity
  8
AM_VIS
100
AcDbLine
 10
1241.746811423476
 20
780.1308101980995
 30
0.0
 11
1241.766398486271
 21
780.0968844101673
 31
0.0
  0
LINE
  5
A096
330
2
100
AcDbEntity
  8
AM_VIS
100
AcDbLine
 10
1241.81500239887
 20
780.1701802760995
 30
0.0
 11
1241.834589461665
 21
780.1362544881673
 31
0.0
  0
LINE
  5
A097
330
2
100
AcDbEntity
  8
AM_VIS
100
AcDbLine
 10
1241.684470252806
 20
779.9440919670945
 30
0.0
 11
1241.723644378396
 21
779.9440919670945
 31
0.0
  0
LINE
  5
A09A
330
2
100
AcDbEntity
  8
AM_VIS
100
AcDbLine
 10
1241.684470252805
 20
780.0228321230945
 30
0.0
 11
1241.723644378396
 21
780.0228321230945
 31
0.0
  0
ARC
  5
A09B
330
2
100
AcDbEntity
  8
AM_VIS
100
AcDbCircle
 10
1241.877343569541
 20
779.9834620450946
 30
0.0
 40
0.1586614143399932
100
AcDbArc
 50
345.6325874171615
 51
14.36741258283853
  0
ARC
  5
A09C
330
2
100
AcDbEntity
  8
AM_VIS
100
AcDbCircle
 10
1241.877343569541
 20
779.9834620450946
 30
0.0
 40
0.1586614143399932
100
AcDbArc
 50
285.632587417162
 51
314.367412582839
  0
ARC
  5
A09D
330
2
100
AcDbEntity
  8
AM_VIS
100
AcDbCircle
 10
1241.877343569541
 20
779.9834620450946
 30
0.0
 40
0.1586614143399932
100
AcDbArc
 50
45.63258741716173
 51
74.36741258283828
  0
ARC
  5
A09E
330
2
100
AcDbEntity
  8
AM_VIS
100
AcDbCircle
 10
1241.877343569541
 20
779.9834620450946
 30
0.0
 40
0.1586614143399932
100
AcDbArc
 50
225.6325874171621
 51
254.3674125828391
  0
ARC
  5
A09F
330
2
100
AcDbEntity
  8
AM_VIS
100
AcDbCircle
 10
1241.877343569541
 20
779.9834620450946
 30
0.0
 40
0.1586614143399932
100
AcDbArc
 50
105.6325874171619
 51
134.3674125828386
  0
ARC
  5
A0A0
330
2
100
AcDbEntity
  8
AM_VIS
100
AcDbCircle
 10
1241.877343569541
 20
779.9834620450946
 30
0.0
 40
0.1586614143399932
100
AcDbArc
 50
165.632587417162
 51
194.3674125828388
  0
CIRCLE
  5
A0A7
330
2
100
AcDbEntity
  8
AM_VIS
100
AcDbCircle
 10
1241.877343569541
 20
779.9834620450946
 30
0.0
 40
0.1574803119999933
  0
CIRCLE
  5
A0A8
330
2
100
AcDbEntity
  8
AM_VIS
100
AcDbCircle
 10
1241.877343569541
 20
779.9834620450946
 30
0.0
 40
0.0984251949999958
  0
SPLINE
  5
A0CF
330
2
100
AcDbEntity
  8
AM_VIS
100
AcDbSpline
210
0.0
220
0.0
230
1.0
 70
    12
 71
     2
 72
     6
 73
     3
 74
     0
 42
0.0000000001
 43
0.0000000001
 40
0.0
 40
0.0
 40
0.0
 40
0.6547392207575644
 40
0.6547392207575644
 40
0.6547392207575644
 10
1236.461672976931
 20
779.6586182950944
 30
0.0
 41
1.0
 10
1236.537411541095
 20
779.4961964200944
 30
0.0000000000000004
 41
1.154700538379303
 10
1236.461672976931
 20
779.3337745450944
 30
0.0
 41
1.0
  0
LINE
  5
A0D0
330
2
100
AcDbEntity
  8
AM_VIS
100
AcDbLine
 10
1236.461672976931
 20
779.6586182950946
 30
0.0
 11
1236.121985374822
 21
779.6586182950946
 31
0.0
  0
SPLINE
  5
A0D1
330
2
100
AcDbEntity
  8
AM_VIS
100
AcDbSpline
210
0.0
220
0.0
230
1.0
 70
    12
 71
     2
 72
     6
 73
     3
 74
     0
 42
0.0000000001
 43
0.0000000001
 40
0.0
 40
0.0
 40
0.0
 40
0.6547392207574632
 40
0.6547392207574632
 40
0.6547392207574632
 10
1236.121985374822
 20
779.3337745450944
 30
0.0
 41
1.0
 10
1236.046246810657
 20
779.4961964200946
 30
-0.0000000000000004
 41
1.154700538377436
 10
1236.121985374822
 20
779.6586182950944
 30
0.0
 41
1.0
  0
LINE
  5
A0D2
330
2
100
AcDbEntity
  8
AM_VIS
100
AcDbLine
 10
1236.461672976931
 20
779.3337745450945
 30
0.0
 11
1236.121985374822
 21
779.3337745450945
 31
0.0
  0
LINE
  5
A0D3
330
2
100
AcDbEntity
  8
AM_VIS
100
AcDbLine
 10
1236.461672976931
 20
780.6331495450945
 30
0.0
 11
1236.121985374822
 21
780.6331495450945
 31
0.0
  0
SPLINE
  5
A0D4
330
2
100
AcDbEntity
  8
AM_VIS
100
AcDbSpline
210
0.0
220
0.0
230
1.0
 70
    12
 71
     2
 72
     6
 73
     3
 74
     0
 42
0.0000000001
 43
0.0000000001
 40
0.0
 40
0.0
 40
0.0
 40
0.6547392207576305
 40
0.6547392207576305
 40
0.6547392207576305
 10
1236.461672976931
 20
780.6331495450945
 30
0.0
 41
1.0
 10
1236.537411541095
 20
780.4707276700944
 30
0.0000000000000004
 41
1.154700538379303
 10
1236.461672976931
 20
780.3083057950943
 30
0.0
 41
1.0
  0
SPLINE
  5
A0D5
330
2
100
AcDbEntity
  8
AM_VIS
100
AcDbSpline
210
0.0
220
0.0
230
1.0
 70
    12
 71
     2
 72
     6
 73
     3
 74
     0
 42
0.0000000001
 43
0.0000000001
 40
0.0
 40
0.0
 40
0.0
 40
0.6547392207574415
 40
0.6547392207574415
 40
0.6547392207574415
 10
1236.121985374822
 20
780.3083057950945
 30
0.0
 41
1.0
 10
1236.046246810657
 20
780.4707276700944
 30
-0.0000000000000004
 41
1.154700538379178
 10
1236.121985374822
 20
780.6331495450944
 30
0.0
 41
1.0
  0
LINE
  5
A0D6
330
2
100
AcDbEntity
  8
AM_VIS
100
AcDbLine
 10
1236.461672976931
 20
780.3083057950945
 30
0.0
 11
1236.121985374822
 21
780.3083057950945
 31
0.0
  0
SPLINE
  5
A0D7
330
2
100
AcDbEntity
  8
AM_VIS
100
AcDbSpline
210
0.0
220
0.0
230
1.0
 70
    12
 71
     2
 72
     6
 73
     3
 74
     0
 42
0.0000000001
 43
0.0000000001
 40
0.0
 40
0.0
 40
0.0
 40
0.6547392207575929
 40
0.6547392207575929
 40
0.6547392207575929
 10
1236.461672976931
 20
780.3083057950945
 30
0.0
 41
1.0
 10
1236.537411541095
 20
779.9834620450945
 30
0.0000000000000004
 41
1.154700538379303
 10
1236.461672976931
 20
779.6586182950944
 30
0.0
 41
1.0
  0
SPLINE
  5
A0D8
330
2
100
AcDbEntity
  8
AM_VIS
100
AcDbSpline
210
0.0
220
0.0
230
1.0
 70
    12
 71
     2
 72
     6
 73
     3
 74
     0
 42
0.0000000001
 43
0.0000000001
 40
0.0
 40
0.0
 40
0.0
 40
0.654739220757458
 40
0.654739220757458
 40
0.654739220757458
 10
1236.121985374822
 20
779.6586182950944
 30
0.0
 41
1.0
 10
1236.046246810657
 20
779.9834620450945
 30
-0.0000000000000004
 41
1.154700538379178
 10
1236.121985374822
 20
780.3083057950943
 30
0.0
 41
1.0
  0
LINE
  5
A0DF
330
2
100
AcDbEntity
  8
AM_VIS
100
AcDbLine
 10
1236.081329175876
 20
780.5459620450944
 30
0.0
 11
1236.121985374822
 21
780.6331495450945
 31
0.0
  0
LINE
  5
A0E0
330
2
100
AcDbEntity
  8
AM_VIS
100
AcDbLine
 10
1236.081329175876
 20
779.4209620450946
 30
0.0
 11
1236.121985374822
 21
779.3337745450945
 31
0.0
  0
LINE
  5
A0E1
330
2
100
AcDbEntity
  8
AM_VIS
100
AcDbLine
 10
1236.502329175876
 20
779.4209620450946
 30
0.0
 11
1236.461672976931
 21
779.3337745450945
 31
0.0
  0
LINE
  5
A0E2
330
2
100
AcDbEntity
  8
AM_VIS
100
AcDbLine
 10
1236.502329175876
 20
780.5459620450944
 30
0.0
 11
1236.461672976931
 21
780.6331495450945
 31
0.0
  0
LINE
  5
A0E5
330
2
100
AcDbEntity
  8
AM_VIS
100
AcDbLine
 10
1236.081329175876
 20
779.4209620450945
 30
0.0
 11
1236.081329175876
 21
780.5459620450944
 31
0.0
  0
LINE
  5
A0E6
330
2
100
AcDbEntity
  8
AM_VIS
100
AcDbLine
 10
1236.502329175876
 20
779.4209620450946
 30
0.0
 11
1236.502329175876
 21
780.5459620450944
 31
0.0
  0
LINE
  5
A142
330
2
100
AcDbEntity
  8
AM_VIS
100
AcDbLine
 10
1237.222329175905
 20
779.7414005859566
 30
0.0
 11
1236.901069333386
 21
779.7414005859566
 31
0.0
  0
LINE
  5
A143
330
2
100
AcDbEntity
  8
AM_VIS
100
AcDbLine
 10
1236.901069333386
 20
780.2255235042325
 30
0.0
 11
1237.222329175905
 21
780.2255235042325
 31
0.0
  0
ARC
  5
A144
330
2
100
AcDbEntity
  8
AM_VIS
100
AcDbCircle
 10
1236.784829175906
 20
779.9834620450946
 30
0.0
 40
0.5000000000001183
100
AcDbArc
 50
5.731967965197684
 51
28.95502437185993
  0
ARC
  5
A145
330
2
100
AcDbEntity
  8
AM_VIS
100
AcDbCircle
 10
1236.784829175906
 20
779.9834620450946
 30
0.0
 40
0.5000000000001183
100
AcDbArc
 50
331.0449756281403
 51
354.2680320348023
  0
LINE
  5
A146
330
2
100
AcDbEntity
  8
AM_VIS
100
AcDbLine
 10
1237.222329175905
 20
780.2255235042325
 30
0.0
 11
1237.222329175905
 21
779.7414005859566
 31
0.0
  0
SPLINE
  5
A147
330
2
100
AcDbEntity
  8
AM_VIS
100
AcDbSpline
210
0.0
220
0.0
230
1.0
 70
     8
 71
     3
 72
    26
 73
    22
 74
     0
 42
0.0000000001
 43
0.0000000001
 40
0.2579067718374106
 40
0.2579067718374106
 40
0.2579067718374106
 40
0.2579067718374106
 40
0.2760272332000926
 40
0.2760272332000926
 40
0.3004309077463354
 40
0.3004309077463354
 40
0.3410706943395526
 40
0.3410706943395526
 40
0.4284421190071869
 40
0.4284421190071869
 40
0.5158135436748211
 40
0.5158135436748211
 40
0.6031849683424553
 40
0.6031849683424553
 40
0.6905563930100895
 40
0.6905563930100895
 40
0.7311961796033068
 40
0.7311961796033068
 40
0.7555998541495495
 40
0.7555998541495495
 40
0.7737203155122315
 40
0.7737203155122315
 40
0.7737203155122315
 40
0.7737203155122315
 10
1236.901069333386
 20
779.7414005859565
 30
0.0
 10
1236.895029179598
 20
779.7414005859565
 30
0.0
 10
1236.888017125321
 20
779.7432355993106
 30
0.0
 10
1236.875364343082
 20
779.7496254006415
 30
0.0
 10
1236.868091868256
 20
779.7561367294548
 30
0.0
 10
1236.854393928986
 20
779.7729426476417
 30
0.0
 10
1236.847336209301
 20
779.7875865321517
 30
0.0
 10
1236.83318735612
 20
779.8278428771196
 30
0.0
 10
1236.829022953599
 20
779.8590937388362
 30
0.0
 10
1236.824442059212
 20
779.9223415427771
 30
0.0
 10
1236.8240221421
 20
779.9543382368719
 30
0.0
 10
1236.8240221421
 20
780.012585853317
 30
0.0
 10
1236.824442059212
 20
780.0445825474118
 30
0.0
 10
1236.829022953599
 20
780.1078303513527
 30
0.0
 10
1236.83318735612
 20
780.1390812130693
 30
0.0
 10
1236.847336209301
 20
780.1793375580372
 30
0.0
 10
1236.854393928986
 20
780.1939814425472
 30
0.0
 10
1236.868091868256
 20
780.2107873607341
 30
0.0
 10
1236.875364343082
 20
780.2172986895474
 30
0.0
 10
1236.888017125321
 20
780.2236884908783
 30
0.0
 10
1236.895029179598
 20
780.2255235042324
 30
0.0
 10
1236.901069333386
 20
780.2255235042324
 30
0.0
  0
LINE
  5
A148
330
2
100
AcDbEntity
  8
AM_VIS
100
AcDbLine
 10
1235.697329175906
 20
780.2994069269844
 30
0.0
 11
1235.756384294016
 21
780.3584620450946
 31
0.0
  0
LINE
  5
A149
330
2
100
AcDbEntity
  8
AM_VIS
100
AcDbLine
 10
1235.697329175906
 20
779.6675171632048
 30
0.0
 11
1235.756384294016
 21
779.6084620450946
 31
0.0
  0
LINE
  5
A14A
330
2
100
AcDbEntity
  8
AM_VIS
100
AcDbLine
 10
1236.527329175906
 20
779.6084620450946
 30
0.0
 11
1236.502329175876
 21
779.6084620450946
 31
0.0
  0
LINE
  5
A14C
330
2
100
AcDbEntity
  8
AM_VIS
100
AcDbLine
 10
1236.081329175876
 20
779.6084620450946
 30
0.0
 11
1235.756384294016
 21
779.6084620450946
 31
0.0
  0
LINE
  5
A14D
330
2
100
AcDbEntity
  8
AM_VIS
100
AcDbLine
 10
1236.527329175906
 20
780.3584620450946
 30
0.0
 11
1236.502329175876
 21
780.3584620450946
 31
0.0
  0
LINE
  5
A14F
330
2
100
AcDbEntity
  8
AM_VIS
100
AcDbLine
 10
1236.081329175876
 20
780.3584620450946
 30
0.0
 11
1235.756384294016
 21
780.3584620450946
 31
0.0
  0
LINE
  5
A150
330
2
100
AcDbEntity
  8
AM_VIS
100
AcDbLine
 10
1236.822329175905
 20
779.6084620450946
 30
0.0
 11
1236.527329175906
 21
779.6084620450946
 31
0.0
  0
LINE
  5
A151
330
2
100
AcDbEntity
  8
AM_VIS
100
AcDbLine
 10
1236.822329175905
 20
780.3584620450946
 30
0.0
 11
1236.527329175906
 21
780.3584620450946
 31
0.0
  0
LINE
  5
A156
330
2
100
AcDbEntity
  8
AM_VIS
100
AcDbLine
 10
1237.322343569541
 20
779.4834620450946
 30
0.0
 11
1236.901069333386
 21
779.4834620450946
 31
0.0
  0
LINE
  5
A159
330
2
100
AcDbEntity
  8
AM_VIS
100
AcDbLine
 10
1237.322343569541
 20
780.4834620450946
 30
0.0
 11
1236.901069333386
 21
780.4834620450946
 31
0.0
  0
LINE
  5
A160
330
2
100
AcDbEntity
  8
AM_VIS
100
AcDbLine
 10
1235.697329175906
 20
779.6675171632048
 30
0.0
 11
1235.697329175906
 21
780.2994069269844
 31
0.0
  0
LINE
  5
A161
330
2
100
AcDbEntity
  8
AM_VIS
100
AcDbLine
 10
1235.756384294016
 20
780.3584620450946
 30
0.0
 11
1235.756384294016
 21
779.6084620450946
 31
0.0
  0
LINE
  5
A163
330
2
100
AcDbEntity
  8
AM_VIS
100
AcDbLine
 10
1237.282329175906
 20
779.9335245842059
 30
0.0
 11
1237.282329175906
 21
780.0333995059832
 31
0.0
  0
LINE
  5
A166
330
2
100
AcDbEntity
  8
AM_VIS
100
AcDbLine
 10
1236.822329175905
 20
779.5622022025749
 30
0.0
 11
1236.822329175905
 21
780.4047218876141
 31
0.0
  0
ARC
  5
A167
330
2
100
AcDbEntity
  8
AM_VIS
100
AcDbCircle
 10
1236.901069333386
 20
780.4047218876141
 30
0.0
 40
0.078740157480315
100
AcDbArc
 50
90.0
 51
180.0
  0
ARC
  5
A168
330
2
100
AcDbEntity
  8
AM_VIS
100
AcDbCircle
 10
1236.901069333386
 20
779.5622022025749
 30
0.0
 40
0.078740157480315
100
AcDbArc
 50
180.0
 51
270.0
  0
LINE
  5
A19C
330
2
100
AcDbEntity
  8
AM_VIS
100
AcDbLine
 10
1241.267343569541
 20
777.8889738561182
 30
0.0
 11
1239.767343569541
 21
777.8889738561182
 31
0.0
  0
LINE
  5
A19D
330
2
100
AcDbEntity
  8
AM_VIS
100
AcDbLine
 10
1241.267343569541
 20
782.0779502340709
 30
0.0
 11
1239.767343569541
 21
782.0779502340709
 31
0.0
  0
SPLINE
  5
A1CD
330
2
100
AcDbEntity
  8
AM_HID
  6
DASHED
100
AcDbSpline
210
0.0
220
0.0
230
1.0
 70
    12
 71
     2
 72
     6
 73
     3
 74
     0
 42
0.0000000001
 43
0.0000000001
 40
0.1047253799322007
 40
0.1047253799322007
 40
0.1047253799322007
 40
0.1712226222250946
 40
0.1712226222250946
 40
0.1712226222250946
 10
1238.408839632533
 20
778.1754364116117
 30
0.0
 41
1.104378685872313
 10
1238.413184541143
 20
778.1610822818852
 30
0.0
 41
1.117248610715556
 10
1238.408839632533
 20
778.1467281521583
 30
0.0
 41
1.104378685872313
  0
SPLINE
  5
A1CE
330
2
100
AcDbEntity
  8
AM_HID
100
AcDbSpline
210
0.0
220
0.0
230
1.0
 70
    12
 71
     2
 72
     6
 73
     3
 74
     0
 42
0.0000000001
 43
0.0000000001
 40
0.1047253799322266
 40
0.1047253799322266
 40
0.1047253799322266
 40
0.1712226222250543
 40
0.1712226222250543
 40
0.1712226222250543
 10
1238.408839632533
 20
778.3521703045476
 30
0.0
 41
1.104378685872335
 10
1238.413184541143
 20
778.3234620450945
 30
0.0
 41
1.117248610715556
 10
1238.408839632533
 20
778.2947537856413
 30
0.0
 41
1.104378685872335
  0
SPLINE
  5
A1CF
330
2
100
AcDbEntity
  8
AM_HID
  6
DASHED
100
AcDbSpline
210
0.0
220
0.0
230
1.0
 70
    12
 71
     2
 72
     6
 73
     3
 74
     0
 42
0.0000000001
 43
0.0000000001
 40
0.10472537993224
 40
0.10472537993224
 40
0.10472537993224
 40
0.1712226222250338
 40
0.1712226222250338
 40
0.1712226222250338
 10
1238.408839632533
 20
778.5001959380306
 30
0.0
 41
1.104378685872377
 10
1238.413184541143
 20
778.485841808304
 30
0.0
 41
1.11724861071559
 10
1238.408839632533
 20
778.4714876785776
 30
0.0
 41
1.104378685872377
  0
LINE
  5
A1D0
330
2
100
AcDbEntity
  8
AM_HID
  6
DASHED
100
AcDbLine
 10
1238.408839632533
 20
778.1069556941485
 30
0.0
 11
1238.408839632533
 21
778.1467281521583
 31
0.0
  0
LINE
  5
A1D1
330
2
100
AcDbEntity
  8
AM_HID
  6
DASHED
100
AcDbLine
 10
1238.408839632533
 20
778.1754364116115
 30
0.0
 11
1238.408839632533
 21
778.2152088696215
 31
0.0
  0
LINE
  5
A1D2
330
2
100
AcDbEntity
  8
AM_HID
  6
DASHED
100
AcDbLine
 10
1238.408839632533
 20
778.2152088696215
 30
0.0
 11
1238.408839632533
 21
778.2947537856414
 31
0.0
  0
LINE
  5
A1D3
330
2
100
AcDbEntity
  8
AM_HID
  6
DASHED
100
AcDbLine
 10
1238.408839632533
 20
778.5001959380307
 30
0.0
 11
1238.408839632533
 21
778.5399683960406
 31
0.0
  0
SPLINE
  5
A1D4
330
2
100
AcDbEntity
  8
AM_HID
  6
DASHED
100
AcDbSpline
210
0.0
220
0.0
230
1.0
 70
    12
 71
     2
 72
     6
 73
     3
 74
     0
 42
0.0000000001
 43
0.0000000001
 40
0.1292293968816917
 40
0.1292293968816917
 40
0.1292293968816917
 40
0.2414947778997552
 40
0.2414947778997552
 40
0.2414947778997552
 10
1238.231285829022
 20
778.1610822818849
 30
0.0
 41
1.0
 10
1238.231285829022
 20
778.1862025186755
 30
0.0
 41
1.043922227234014
 10
1238.214539004496
 20
778.2152088696213
 30
0.0
 41
1.011531391115998
  0
SPLINE
  5
A1D5
330
2
100
AcDbEntity
  8
AM_HID
  6
DASHED
100
AcDbSpline
210
0.0
220
0.0
230
1.0
 70
    12
 71
     2
 72
     6
 73
     3
 74
     0
 42
0.0000000001
 43
0.0000000001
 40
0.0169640158636355
 40
0.0169640158636355
 40
0.0169640158636355
 40
0.1292293968816917
 40
0.1292293968816917
 40
0.1292293968816917
 10
1238.214539004495
 20
778.1069556941483
 30
0.0
 41
1.011531391116
 10
1238.231285829022
 20
778.1359620450944
 30
0.0
 41
1.043922227234004
 10
1238.231285829022
 20
778.1610822818849
 30
0.0
 41
1.0
  0
SPLINE
  5
A1D6
330
2
100
AcDbEntity
  8
AM_HID
  6
DASHED
100
AcDbSpline
210
0.0
220
0.0
230
1.0
 70
    12
 71
     2
 72
     6
 73
     3
 74
     0
 42
0.0000000001
 43
0.0000000001
 40
0.1292293968816813
 40
0.1292293968816813
 40
0.1292293968816813
 40
0.2414947778997357
 40
0.2414947778997357
 40
0.2414947778997357
 10
1238.231285829022
 20
778.485841808304
 30
0.0
 41
1.0
 10
1238.231285829022
 20
778.5109620450946
 30
0.0
 41
1.043922227233406
 10
1238.214539004495
 20
778.5399683960405
 30
0.0
 41
1.011531391115839
  0
SPLINE
  5
A1D7
330
2
100
AcDbEntity
  8
AM_HID
  6
DASHED
100
AcDbSpline
210
0.0
220
0.0
230
1.0
 70
    12
 71
     2
 72
     6
 73
     3
 74
     0
 42
0.0000000001
 43
0.0000000001
 40
0.0169640158636275
 40
0.0169640158636275
 40
0.0169640158636275
 40
0.1292293968816813
 40
0.1292293968816813
 40
0.1292293968816813
 10
1238.214539004495
 20
778.4317152205675
 30
0.0
 41
1.011531391115839
 10
1238.231285829022
 20
778.4607215715136
 30
0.0
 41
1.043922227233405
 10
1238.231285829022
 20
778.485841808304
 30
0.0
 41
1.0
  0
SPLINE
  5
A1D8
330
2
100
AcDbEntity
  8
AM_HID
  6
DASHED
100
AcDbSpline
210
0.0
220
0.0
230
1.0
 70
    12
 71
     2
 72
     6
 73
     3
 74
     0
 42
0.0000000001
 43
0.0000000001
 40
0.1292293968816848
 40
0.1292293968816848
 40
0.1292293968816848
 40
0.2414947778997426
 40
0.2414947778997426
 40
0.2414947778997426
 10
1238.231285829022
 20
778.3234620450945
 30
0.0
 41
1.0
 10
1238.231285829022
 20
778.3737025186752
 30
0.0
 41
1.043922227233458
 10
1238.214539004495
 20
778.4317152205675
 30
0.0
 41
1.011531391115852
  0
SPLINE
  5
A1D9
330
2
100
AcDbEntity
  8
AM_HID
  6
DASHED
100
AcDbSpline
210
0.0
220
0.0
230
1.0
 70
    12
 71
     2
 72
     6
 73
     3
 74
     0
 42
0.0000000001
 43
0.0000000001
 40
0.0169640158636345
 40
0.0169640158636345
 40
0.0169640158636345
 40
0.1292293968816848
 40
0.1292293968816848
 40
0.1292293968816848
 10
1238.214539004496
 20
778.2152088696215
 30
0.0
 41
1.011531391115856
 10
1238.231285829022
 20
778.2732215715136
 30
0.0
 41
1.043922227233456
 10
1238.231285829022
 20
778.3234620450945
 30
0.0
 41
1.0
  0
LINE
  5
A1DA
330
2
100
AcDbEntity
  8
AM_HID
  6
DASHED
100
AcDbLine
 10
1238.214539004495
 20
778.5399683960406
 30
0.0
 11
1238.408839632533
 21
778.5399683960406
 31
0.0
  0
LINE
  5
A1DB
330
2
100
AcDbEntity
  8
AM_HID
  6
DASHED
100
AcDbLine
 10
1238.214539004495
 20
778.1069556941485
 30
0.0
 11
1238.408839632533
 21
778.1069556941485
 31
0.0
  0
LINE
  5
A1DC
330
2
100
AcDbEntity
  8
AM_HID
  6
DASHED
100
AcDbLine
 10
1238.214539004495
 20
778.2152088696215
 30
0.0
 11
1238.408839632533
 21
778.2152088696215
 31
0.0
  0
LINE
  5
A1DD
330
2
100
AcDbEntity
  8
AM_HID
  6
DASHED
100
AcDbLine
 10
1238.214539004495
 20
778.4317152205676
 30
0.0
 11
1238.408839632533
 21
778.4317152205676
 31
0.0
  0
LINE
  5
A1DE
330
2
100
AcDbEntity
  8
AM_HID
  6
DASHED
100
AcDbLine
 10
1238.408839632533
 20
778.3521703045477
 30
0.0
 11
1238.408839632533
 21
778.4317152205676
 31
0.0
  0
LINE
  5
A1DF
330
2
100
AcDbEntity
  8
AM_HID
  6
DASHED
100
AcDbLine
 10
1238.408839632533
 20
778.4317152205676
 30
0.0
 11
1238.408839632533
 21
778.4714876785775
 31
0.0
  0
LINE
  5
A1E0
330
2
100
AcDbEntity
  8
AM_HID
  6
DASHED
100
AcDbLine
 10
1238.531674278202
 20
778.5931470844645
 30
0.0
 11
1239.330886876627
 21
778.5931470844645
 31
0.0
  0
LINE
  5
A1E1
330
2
100
AcDbEntity
  8
AM_HID
  6
DASHED
100
AcDbLine
 10
1238.531674278202
 20
778.0537770057244
 30
0.0
 11
1239.330886876627
 21
778.0537770057244
 31
0.0
  0
LINE
  5
A1E2
330
2
100
AcDbEntity
  8
AM_HID
  6
DASHED
100
AcDbLine
 10
1238.228524671903
 20
778.7171628324961
 30
0.0
 11
1238.492304199462
 21
778.7171628324961
 31
0.0
  0
LINE
  5
A1E3
330
2
100
AcDbEntity
  8
AM_HID
  6
DASHED
100
AcDbLine
 10
1238.228524671903
 20
777.9297612576929
 30
0.0
 11
1238.492304199462
 21
777.9297612576929
 31
0.0
  0
LINE
  5
A1E4
330
2
100
AcDbEntity
  8
AM_HID
  6
DASHED
100
AcDbLine
 10
1238.428524671903
 20
778.1534620450945
 30
0.0
 11
1238.408839632533
 21
778.1337770057245
 31
0.0
  0
LINE
  5
A1E5
330
2
100
AcDbEntity
  8
AM_HID
  6
DASHED
100
AcDbLine
 10
1238.428524671903
 20
778.4934620450946
 30
0.0
 11
1238.408839632533
 21
778.5131470844646
 31
0.0
  0
LINE
  5
A1E6
330
2
100
AcDbEntity
  8
AM_HID
  6
DASHED
100
AcDbLine
 10
1238.428524671903
 20
778.4934620450946
 30
0.0
 11
1239.330886876627
 21
778.4934620450946
 31
0.0
  0
LINE
  5
A1E7
330
2
100
AcDbEntity
  8
AM_HID
  6
DASHED
100
AcDbLine
 10
1238.428524671903
 20
778.1534620450945
 30
0.0
 11
1239.330886876627
 21
778.1534620450945
 31
0.0
  0
LINE
  5
A1E8
330
2
100
AcDbEntity
  8
AM_HID
  6
DASHED
100
AcDbLine
 10
1239.330886876627
 20
778.4934620450946
 30
0.0
 11
1239.350571915998
 21
778.5131470844646
 31
0.0
  0
LINE
  5
A1E9
330
2
100
AcDbEntity
  8
AM_HID
  6
DASHED
100
AcDbLine
 10
1239.330886876627
 20
778.1534620450945
 30
0.0
 11
1239.350571915998
 21
778.1337770057245
 31
0.0
  0
LINE
  5
A1EA
330
2
100
AcDbEntity
  8
AM_HID
100
AcDbLine
 10
1238.214539004495
 20
778.1069556941485
 30
0.0
 11
1238.208839632533
 21
778.0970840923385
 31
0.0
  0
LINE
  5
A1EB
330
2
100
AcDbEntity
  8
AM_HID
  6
DASHED
100
AcDbLine
 10
1238.214539004495
 20
778.5399683960406
 30
0.0
 11
1238.208839632533
 21
778.5498399978504
 31
0.0
  0
LINE
  5
A1EC
330
2
100
AcDbEntity
  8
AM_HID
  6
DASHED
100
AcDbLine
 10
1239.350571915998
 20
778.5734620450945
 30
0.0
 11
1239.350571915998
 21
778.3234620450945
 31
0.0
  0
LINE
  5
A1ED
330
2
100
AcDbEntity
  8
AM_HID
  6
DASHED
100
AcDbLine
 10
1239.350571915998
 20
778.3234620450945
 30
0.0
 11
1239.350571915998
 21
778.0734620450945
 31
0.0
  0
LINE
  5
A1EE
330
2
100
AcDbEntity
  8
AM_HID
  6
DASHED
100
AcDbLine
 10
1238.208839632533
 20
777.9494462970631
 30
0.0
 11
1238.208839632533
 21
778.697477793126
 31
0.0
  0
LINE
  5
A1EF
330
2
100
AcDbEntity
  8
AM_HID
  6
DASHED
100
AcDbLine
 10
1238.428524671903
 20
778.1534620450945
 30
0.0
 11
1238.428524671903
 21
778.4934620450946
 31
0.0
  0
LINE
  5
A1F0
330
2
100
AcDbEntity
  8
AM_HID
  6
DASHED
100
AcDbLine
 10
1239.330886876627
 20
778.4934620450946
 30
0.0
 11
1239.330886876627
 21
778.1534620450945
 31
0.0
  0
ARC
  5
A1F1
330
2
100
AcDbEntity
  8
AM_HID
  6
DASHED
100
AcDbCircle
 10
1239.330886876627
 20
778.5734620450945
 30
0.0
 40
0.0196850393700788
100
AcDbArc
 50
0.0
 51
90.0
  0
ARC
  5
A1F2
330
2
100
AcDbEntity
  8
AM_HID
  6
DASHED
100
AcDbCircle
 10
1239.330886876627
 20
778.0734620450945
 30
0.0
 40
0.0196850393700788
100
AcDbArc
 50
270.0
 51
0.0
  0
ARC
  5
A1F3
330
2
100
AcDbEntity
  8
AM_HID
  6
DASHED
100
AcDbCircle
 10
1238.531674278202
 20
778.0340919663544
 30
0.0
 40
0.0196850393700788
100
AcDbArc
 50
90.0
 51
180.0
  0
ARC
  5
A1F4
330
2
100
AcDbEntity
  8
AM_HID
  6
DASHED
100
AcDbCircle
 10
1238.531674278202
 20
778.6128321238346
 30
0.0
 40
0.0196850393700788
100
AcDbArc
 50
180.0
 51
270.0
  0
ARC
  5
A1F5
330
2
100
AcDbEntity
  8
AM_HID
  6
DASHED
100
AcDbCircle
 10
1238.492304199462
 20
777.9494462970631
 30
0.0
 40
0.0196850393700788
100
AcDbArc
 50
270.0
 51
0.0
  0
ARC
  5
A1F6
330
2
100
AcDbEntity
  8
AM_HID
  6
DASHED
100
AcDbCircle
 10
1238.492304199462
 20
778.697477793126
 30
0.0
 40
0.0196850393700788
100
AcDbArc
 50
0.0
 51
90.0
  0
ARC
  5
A1F7
330
2
100
AcDbEntity
  8
AM_HID
100
AcDbCircle
 10
1238.228524671903
 20
777.9494462970631
 30
0.0
 40
0.0196850393700788
100
AcDbArc
 50
180.0
 51
270.0
  0
ARC
  5
A1F8
330
2
100
AcDbEntity
  8
AM_HID
  6
DASHED
100
AcDbCircle
 10
1238.228524671903
 20
778.697477793126
 30
0.0
 40
0.0196850393700788
100
AcDbArc
 50
90.0
 51
180.0
  0
SPLINE
  5
A225
330
2
100
AcDbEntity
  8
AM_HID
  6
DASHED
100
AcDbSpline
210
0.0
220
0.0
230
1.0
 70
    12
 71
     2
 72
     6
 73
     3
 74
     0
 42
0.0000000001
 43
0.0000000001
 40
0.1047253799322007
 40
0.1047253799322007
 40
0.1047253799322007
 40
0.1712226222250946
 40
0.1712226222250946
 40
0.1712226222250946
 10
1242.235847506549
 20
778.4714876785774
 30
0.0
 41
1.104378685872313
 10
1242.231502597938
 20
778.4858418083041
 30
0.0
 41
1.117248610715556
 10
1242.235847506549
 20
778.5001959380306
 30
0.0
 41
1.104378685872313
  0
SPLINE
  5
A226
330
2
100
AcDbEntity
  8
AM_HID
  6
DASHED
100
AcDbSpline
210
0.0
220
0.0
230
1.0
 70
    12
 71
     2
 72
     6
 73
     3
 74
     0
 42
0.0000000001
 43
0.0000000001
 40
0.1047253799322266
 40
0.1047253799322266
 40
0.1047253799322266
 40
0.1712226222250543
 40
0.1712226222250543
 40
0.1712226222250543
 10
1242.235847506549
 20
778.2947537856413
 30
0.0
 41
1.104378685872335
 10
1242.231502597938
 20
778.3234620450944
 30
0.0
 41
1.117248610715556
 10
1242.235847506549
 20
778.3521703045476
 30
0.0
 41
1.104378685872335
  0
SPLINE
  5
A227
330
2
100
AcDbEntity
  8
AM_HID
  6
DASHED
100
AcDbSpline
210
0.0
220
0.0
230
1.0
 70
    12
 71
     2
 72
     6
 73
     3
 74
     0
 42
0.0000000001
 43
0.0000000001
 40
0.10472537993224
 40
0.10472537993224
 40
0.10472537993224
 40
0.1712226222250338
 40
0.1712226222250338
 40
0.1712226222250338
 10
1242.235847506549
 20
778.1467281521583
 30
0.0
 41
1.104378685872377
 10
1242.231502597938
 20
778.1610822818849
 30
0.0
 41
1.11724861071559
 10
1242.235847506549
 20
778.1754364116116
 30
0.0
 41
1.104378685872377
  0
LINE
  5
A228
330
2
100
AcDbEntity
  8
AM_HID
  6
DASHED
100
AcDbLine
 10
1242.235847506549
 20
778.5399683960406
 30
0.0
 11
1242.235847506549
 21
778.5001959380307
 31
0.0
  0
LINE
  5
A229
330
2
100
AcDbEntity
  8
AM_HID
  6
DASHED
100
AcDbLine
 10
1242.235847506549
 20
778.4714876785775
 30
0.0
 11
1242.235847506549
 21
778.4317152205676
 31
0.0
  0
LINE
  5
A22A
330
2
100
AcDbEntity
  8
AM_HID
  6
DASHED
100
AcDbLine
 10
1242.235847506549
 20
778.4317152205676
 30
0.0
 11
1242.235847506549
 21
778.3521703045476
 31
0.0
  0
LINE
  5
A22B
330
2
100
AcDbEntity
  8
AM_HID
  6
DASHED
100
AcDbLine
 10
1242.235847506549
 20
778.1467281521583
 30
0.0
 11
1242.235847506549
 21
778.1069556941483
 31
0.0
  0
SPLINE
  5
A22C
330
2
100
AcDbEntity
  8
AM_HID
  6
DASHED
100
AcDbSpline
210
0.0
220
0.0
230
1.0
 70
    12
 71
     2
 72
     6
 73
     3
 74
     0
 42
0.0000000001
 43
0.0000000001
 40
0.1292293968816917
 40
0.1292293968816917
 40
0.1292293968816917
 40
0.2414947778997552
 40
0.2414947778997552
 40
0.2414947778997552
 10
1242.41340131006
 20
778.485841808304
 30
0.0
 41
1.0
 10
1242.41340131006
 20
778.4607215715139
 30
0.0
 41
1.043922227234014
 10
1242.430148134587
 20
778.4317152205675
 30
0.0
 41
1.011531391115998
  0
SPLINE
  5
A22D
330
2
100
AcDbEntity
  8
AM_HID
  6
DASHED
100
AcDbSpline
210
0.0
220
0.0
230
1.0
 70
    12
 71
     2
 72
     6
 73
     3
 74
     0
 42
0.0000000001
 43
0.0000000001
 40
0.0169640158636355
 40
0.0169640158636355
 40
0.0169640158636355
 40
0.1292293968816917
 40
0.1292293968816917
 40
0.1292293968816917
 10
1242.430148134587
 20
778.5399683960405
 30
0.0
 41
1.011531391116
 10
1242.41340131006
 20
778.5109620450944
 30
0.0
 41
1.043922227234004
 10
1242.41340131006
 20
778.485841808304
 30
0.0
 41
1.0
  0
SPLINE
  5
A22E
330
2
100
AcDbEntity
  8
AM_HID
  6
DASHED
100
AcDbSpline
210
0.0
220
0.0
230
1.0
 70
    12
 71
     2
 72
     6
 73
     3
 74
     0
 42
0.0000000001
 43
0.0000000001
 40
0.1292293968816813
 40
0.1292293968816813
 40
0.1292293968816813
 40
0.2414947778997357
 40
0.2414947778997357
 40
0.2414947778997357
 10
1242.41340131006
 20
778.1610822818849
 30
0.0
 41
1.0
 10
1242.41340131006
 20
778.1359620450944
 30
0.0
 41
1.043922227233406
 10
1242.430148134587
 20
778.1069556941483
 30
0.0
 41
1.011531391115839
  0
SPLINE
  5
A22F
330
2
100
AcDbEntity
  8
AM_HID
  6
DASHED
100
AcDbSpline
210
0.0
220
0.0
230
1.0
 70
    12
 71
     2
 72
     6
 73
     3
 74
     0
 42
0.0000000001
 43
0.0000000001
 40
0.0169640158636275
 40
0.0169640158636275
 40
0.0169640158636275
 40
0.1292293968816813
 40
0.1292293968816813
 40
0.1292293968816813
 10
1242.430148134586
 20
778.2152088696213
 30
0.0
 41
1.011531391115839
 10
1242.41340131006
 20
778.1862025186751
 30
0.0
 41
1.043922227233405
 10
1242.41340131006
 20
778.1610822818849
 30
0.0
 41
1.0
  0
SPLINE
  5
A230
330
2
100
AcDbEntity
  8
AM_HID
  6
DASHED
100
AcDbSpline
210
0.0
220
0.0
230
1.0
 70
    12
 71
     2
 72
     6
 73
     3
 74
     0
 42
0.0000000001
 43
0.0000000001
 40
0.1292293968816848
 40
0.1292293968816848
 40
0.1292293968816848
 40
0.2414947778997426
 40
0.2414947778997426
 40
0.2414947778997426
 10
1242.41340131006
 20
778.3234620450944
 30
0.0
 41
1.0
 10
1242.41340131006
 20
778.2732215715136
 30
0.0
 41
1.043922227233458
 10
1242.430148134587
 20
778.2152088696216
 30
0.0
 41
1.011531391115852
  0
SPLINE
  5
A231
330
2
100
AcDbEntity
  8
AM_HID
  6
DASHED
100
AcDbSpline
210
0.0
220
0.0
230
1.0
 70
    12
 71
     2
 72
     6
 73
     3
 74
     0
 42
0.0000000001
 43
0.0000000001
 40
0.0169640158636345
 40
0.0169640158636345
 40
0.0169640158636345
 40
0.1292293968816848
 40
0.1292293968816848
 40
0.1292293968816848
 10
1242.430148134587
 20
778.4317152205675
 30
0.0
 41
1.011531391115856
 10
1242.41340131006
 20
778.3737025186755
 30
0.0
 41
1.043922227233456
 10
1242.41340131006
 20
778.3234620450944
 30
0.0
 41
1.0
  0
LINE
  5
A232
330
2
100
AcDbEntity
  8
AM_HID
  6
DASHED
100
AcDbLine
 10
1242.430148134587
 20
778.1069556941483
 30
0.0
 11
1242.235847506549
 21
778.1069556941483
 31
0.0
  0
LINE
  5
A233
330
2
100
AcDbEntity
  8
AM_HID
  6
DASHED
100
AcDbLine
 10
1242.430148134587
 20
778.5399683960406
 30
0.0
 11
1242.235847506549
 21
778.5399683960406
 31
0.0
  0
LINE
  5
A234
330
2
100
AcDbEntity
  8
AM_HID
  6
DASHED
100
AcDbLine
 10
1242.430148134587
 20
778.4317152205676
 30
0.0
 11
1242.235847506549
 21
778.4317152205676
 31
0.0
  0
LINE
  5
A235
330
2
100
AcDbEntity
  8
AM_HID
  6
DASHED
100
AcDbLine
 10
1242.430148134587
 20
778.2152088696215
 30
0.0
 11
1242.235847506549
 21
778.2152088696215
 31
0.0
  0
LINE
  5
A236
330
2
100
AcDbEntity
  8
AM_HID
  6
DASHED
100
AcDbLine
 10
1242.235847506549
 20
778.2947537856414
 30
0.0
 11
1242.235847506549
 21
778.2152088696215
 31
0.0
  0
LINE
  5
A237
330
2
100
AcDbEntity
  8
AM_HID
  6
DASHED
100
AcDbLine
 10
1242.235847506549
 20
778.2152088696215
 30
0.0
 11
1242.235847506549
 21
778.1754364116115
 31
0.0
  0
LINE
  5
A238
330
2
100
AcDbEntity
  8
AM_HID
  6
DASHED
100
AcDbLine
 10
1242.11301286088
 20
778.0537770057244
 30
0.0
 11
1241.313800262454
 21
778.0537770057244
 31
0.0
  0
LINE
  5
A239
330
2
100
AcDbEntity
  8
AM_HID
  6
DASHED
100
AcDbLine
 10
1242.11301286088
 20
778.5931470844645
 30
0.0
 11
1241.313800262454
 21
778.5931470844645
 31
0.0
  0
LINE
  5
A23A
330
2
100
AcDbEntity
  8
AM_HID
  6
DASHED
100
AcDbLine
 10
1242.416162467179
 20
777.9297612576929
 30
0.0
 11
1242.15238293962
 21
777.9297612576929
 31
0.0
  0
LINE
  5
A23B
330
2
100
AcDbEntity
  8
AM_HID
  6
DASHED
100
AcDbLine
 10
1242.416162467179
 20
778.7171628324961
 30
0.0
 11
1242.15238293962
 21
778.7171628324961
 31
0.0
  0
LINE
  5
A23C
330
2
100
AcDbEntity
  8
AM_HID
  6
DASHED
100
AcDbLine
 10
1242.216162467179
 20
778.4934620450946
 30
0.0
 11
1242.235847506549
 21
778.5131470844646
 31
0.0
  0
LINE
  5
A23D
330
2
100
AcDbEntity
  8
AM_HID
  6
DASHED
100
AcDbLine
 10
1242.216162467179
 20
778.1534620450945
 30
0.0
 11
1242.235847506549
 21
778.1337770057245
 31
0.0
  0
LINE
  5
A23E
330
2
100
AcDbEntity
  8
AM_HID
  6
DASHED
100
AcDbLine
 10
1242.216162467179
 20
778.1534620450945
 30
0.0
 11
1241.313800262454
 21
778.1534620450945
 31
0.0
  0
LINE
  5
A23F
330
2
100
AcDbEntity
  8
AM_HID
  6
DASHED
100
AcDbLine
 10
1242.216162467179
 20
778.4934620450946
 30
0.0
 11
1241.313800262454
 21
778.4934620450946
 31
0.0
  0
LINE
  5
A240
330
2
100
AcDbEntity
  8
AM_HID
  6
DASHED
100
AcDbLine
 10
1241.313800262454
 20
778.1534620450945
 30
0.0
 11
1241.294115223084
 21
778.1337770057245
 31
0.0
  0
LINE
  5
A241
330
2
100
AcDbEntity
  8
AM_HID
  6
DASHED
100
AcDbLine
 10
1241.313800262454
 20
778.4934620450946
 30
0.0
 11
1241.294115223084
 21
778.5131470844646
 31
0.0
  0
LINE
  5
A242
330
2
100
AcDbEntity
  8
AM_HID
  6
DASHED
100
AcDbLine
 10
1242.430148134587
 20
778.5399683960406
 30
0.0
 11
1242.435847506549
 21
778.5498399978504
 31
0.0
  0
LINE
  5
A243
330
2
100
AcDbEntity
  8
AM_HID
100
AcDbLine
 10
1242.430148134587
 20
778.1069556941483
 30
0.0
 11
1242.435847506549
 21
778.0970840923385
 31
0.0
  0
LINE
  5
A244
330
2
100
AcDbEntity
  8
AM_HID
  6
DASHED
100
AcDbLine
 10
1241.294115223084
 20
778.0734620450945
 30
0.0
 11
1241.294115223084
 21
778.3234620450945
 31
0.0
  0
LINE
  5
A245
330
2
100
AcDbEntity
  8
AM_HID
  6
DASHED
100
AcDbLine
 10
1241.294115223084
 20
778.3234620450945
 30
0.0
 11
1241.294115223084
 21
778.5734620450945
 31
0.0
  0
LINE
  5
A246
330
2
100
AcDbEntity
  8
AM_HID
  6
DASHED
100
AcDbLine
 10
1242.435847506549
 20
778.697477793126
 30
0.0
 11
1242.435847506549
 21
777.949446297063
 31
0.0
  0
LINE
  5
A247
330
2
100
AcDbEntity
  8
AM_HID
  6
DASHED
100
AcDbLine
 10
1242.216162467179
 20
778.4934620450946
 30
0.0
 11
1242.216162467179
 21
778.1534620450945
 31
0.0
  0
LINE
  5
A248
330
2
100
AcDbEntity
  8
AM_HID
  6
DASHED
100
AcDbLine
 10
1241.313800262454
 20
778.1534620450945
 30
0.0
 11
1241.313800262454
 21
778.4934620450946
 31
0.0
  0
ARC
  5
A249
330
2
100
AcDbEntity
  8
AM_HID
  6
DASHED
100
AcDbCircle
 10
1241.313800262454
 20
778.0734620450945
 30
0.0
 40
0.0196850393700788
100
AcDbArc
 50
180.0
 51
270.0
  0
ARC
  5
A24A
330
2
100
AcDbEntity
  8
AM_HID
  6
DASHED
100
AcDbCircle
 10
1241.313800262454
 20
778.5734620450945
 30
0.0
 40
0.0196850393700788
100
AcDbArc
 50
90.0
 51
180.0
  0
ARC
  5
A24B
330
2
100
AcDbEntity
  8
AM_HID
  6
DASHED
100
AcDbCircle
 10
1242.11301286088
 20
778.6128321238346
 30
0.0
 40
0.0196850393700788
100
AcDbArc
 50
270.0
 51
0.0
  0
ARC
  5
A24C
330
2
100
AcDbEntity
  8
AM_HID
  6
DASHED
100
AcDbCircle
 10
1242.11301286088
 20
778.0340919663544
 30
0.0
 40
0.0196850393700788
100
AcDbArc
 50
0.0
 51
90.0
  0
ARC
  5
A24D
330
2
100
AcDbEntity
  8
AM_HID
  6
DASHED
100
AcDbCircle
 10
1242.15238293962
 20
778.697477793126
 30
0.0
 40
0.0196850393700788
100
AcDbArc
 50
90.0
 51
180.0
  0
ARC
  5
A24E
330
2
100
AcDbEntity
  8
AM_HID
  6
DASHED
100
AcDbCircle
 10
1242.15238293962
 20
777.949446297063
 30
0.0
 40
0.0196850393700788
100
AcDbArc
 50
180.0
 51
270.0
  0
ARC
  5
A24F
330
2
100
AcDbEntity
  8
AM_HID
  6
DASHED
100
AcDbCircle
 10
1242.416162467179
 20
778.697477793126
 30
0.0
 40
0.0196850393700788
100
AcDbArc
 50
0.0
 51
90.0
  0
ARC
  5
A250
330
2
100
AcDbEntity
  8
AM_HID
  6
DASHED
100
AcDbCircle
 10
1242.416162467179
 20
777.949446297063
 30
0.0
 40
0.0196850393700788
100
AcDbArc
 50
270.0
 51
0.0
  0
LINE
  5
A25E
330
2
100
AcDbEntity
  8
AM_VIS
100
AcDbLine
 10
1241.267343569541
 20
781.4716116513937
 30
0.0
 11
1239.767343569541
 21
781.4716116513937
 31
0.0
  0
LINE
  5
A261
330
2
100
AcDbEntity
  8
AM_VIS
100
AcDbLine
 10
1241.267343569541
 20
781.8153124387953
 30
0.0
 11
1239.767343569541
 21
781.8153124387953
 31
0.0
  0
LINE
  5
A271
330
2
100
AcDbEntity
  8
AM_HID
  6
DASHED
100
AcDbLine
 10
1241.294115223084
 20
778.4991510214724
 30
0.0
 11
1241.305926246706
 21
778.5109620450945
 31
0.0
  0
LINE
  5
A272
330
2
100
AcDbEntity
  8
AM_HID
  6
DASHED
100
AcDbLine
 10
1241.294115223084
 20
778.1477730687165
 30
0.0
 11
1241.305926246706
 21
778.1359620450944
 31
0.0
  0
LINE
  5
A273
330
2
100
AcDbEntity
  8
AM_HID
  6
DASHED
100
AcDbLine
 10
1241.805926246706
 20
778.1359620450944
 30
0.0
 11
1241.305926246706
 21
778.1359620450944
 31
0.0
  0
LINE
  5
A274
330
2
100
AcDbEntity
  8
AM_HID
  6
DASHED
100
AcDbLine
 10
1241.805926246706
 20
778.5109620450945
 30
0.0
 11
1241.305926246706
 21
778.5109620450945
 31
0.0
  0
LINE
  5
A275
330
2
100
AcDbEntity
  8
AM_HID
  6
DASHED
100
AcDbLine
 10
1239.475217585289
 20
778.1477730687165
 30
0.0
 11
1239.463406561667
 21
778.1359620450944
 31
0.0
  0
LINE
  5
A276
330
2
100
AcDbEntity
  8
AM_HID
  6
DASHED
100
AcDbLine
 10
1239.475217585289
 20
778.4991510214724
 30
0.0
 11
1239.463406561667
 21
778.5109620450945
 31
0.0
  0
LINE
  5
A277
330
2
100
AcDbEntity
  8
AM_HID
  6
DASHED
100
AcDbLine
 10
1238.884666404186
 20
778.5109620450945
 30
0.0
 11
1239.463406561667
 21
778.5109620450945
 31
0.0
  0
LINE
  5
A278
330
2
100
AcDbEntity
  8
AM_HID
  6
DASHED
100
AcDbLine
 10
1238.884666404186
 20
778.1359620450944
 30
0.0
 11
1239.463406561667
 21
778.1359620450944
 31
0.0
  0
LINE
  5
A279
330
2
100
AcDbEntity
  8
AM_HID
  6
DASHED
100
AcDbLine
 10
1241.845296325446
 20
778.1753321238347
 30
0.0
 11
1241.805926246706
 21
778.1359620450944
 31
0.0
  0
LINE
  5
A27A
330
2
100
AcDbEntity
  8
AM_HID
  6
DASHED
100
AcDbLine
 10
1241.845296325446
 20
778.4715919663543
 30
0.0
 11
1241.805926246706
 21
778.5109620450945
 31
0.0
  0
LINE
  5
A27B
330
2
100
AcDbEntity
  8
AM_HID
  6
DASHED
100
AcDbLine
 10
1238.845296325446
 20
778.4715919663543
 30
0.0
 11
1238.884666404186
 21
778.5109620450945
 31
0.0
  0
LINE
  5
A27C
330
2
100
AcDbEntity
  8
AM_HID
  6
DASHED
100
AcDbLine
 10
1238.845296325446
 20
778.1753321238347
 30
0.0
 11
1238.884666404186
 21
778.1359620450944
 31
0.0
  0
LINE
  5
A27D
330
2
100
AcDbEntity
  8
AM_HID
  6
DASHED
100
AcDbLine
 10
1241.294115223084
 20
778.1516116513937
 30
0.0
 11
1241.267343569541
 21
778.1516116513937
 31
0.0
  0
LINE
  5
A27E
330
2
100
AcDbEntity
  8
AM_VIS
100
AcDbLine
 10
1241.267343569541
 20
778.1516116513937
 30
0.0
 11
1239.767343569541
 21
778.1516116513937
 31
0.0
  0
LINE
  5
A27F
330
2
100
AcDbEntity
  8
AM_HID
  6
DASHED
100
AcDbLine
 10
1239.767343569541
 20
778.1516116513937
 30
0.0
 11
1239.475217585289
 21
778.1516116513937
 31
0.0
  0
LINE
  5
A280
330
2
100
AcDbEntity
  8
AM_HID
  6
DASHED
100
AcDbLine
 10
1241.294115223084
 20
778.4953124387953
 30
0.0
 11
1241.267343569541
 21
778.4953124387953
 31
0.0
  0
LINE
  5
A281
330
2
100
AcDbEntity
  8
AM_VIS
100
AcDbLine
 10
1241.267343569541
 20
778.4953124387953
 30
0.0
 11
1239.767343569541
 21
778.4953124387953
 31
0.0
  0
LINE
  5
A282
330
2
100
AcDbEntity
  8
AM_HID
  6
DASHED
100
AcDbLine
 10
1239.767343569541
 20
778.4953124387953
 30
0.0
 11
1239.475217585289
 21
778.4953124387953
 31
0.0
  0
LINE
  5
A283
330
2
100
AcDbEntity
  8
AM_HID
  6
DASHED
100
AcDbLine
 10
1241.305926246706
 20
778.5109620450945
 30
0.0
 11
1241.305926246706
 21
778.3234620450945
 31
0.0
  0
LINE
  5
A284
330
2
100
AcDbEntity
  8
AM_HID
  6
DASHED
100
AcDbLine
 10
1241.305926246706
 20
778.3234620450945
 30
0.0
 11
1241.305926246706
 21
778.1359620450944
 31
0.0
  0
LINE
  5
A285
330
2
100
AcDbEntity
  8
AM_HID
  6
DASHED
100
AcDbLine
 10
1241.805926246706
 20
778.1359620450944
 30
0.0
 11
1241.805926246706
 21
778.3234620450945
 31
0.0
  0
LINE
  5
A286
330
2
100
AcDbEntity
  8
AM_HID
  6
DASHED
100
AcDbLine
 10
1241.805926246706
 20
778.3234620450945
 30
0.0
 11
1241.805926246706
 21
778.5109620450945
 31
0.0
  0
LINE
  5
A287
330
2
100
AcDbEntity
  8
AM_HID
  6
DASHED
100
AcDbLine
 10
1239.475217585289
 20
778.4991510214724
 30
0.0
 11
1239.475217585289
 21
778.3234620450945
 31
0.0
  0
LINE
  5
A288
330
2
100
AcDbEntity
  8
AM_HID
  6
DASHED
100
AcDbLine
 10
1239.475217585289
 20
778.3234620450945
 30
0.0
 11
1239.475217585289
 21
778.1477730687165
 31
0.0
  0
LINE
  5
A289
330
2
100
AcDbEntity
  8
AM_HID
  6
DASHED
100
AcDbLine
 10
1239.463406561667
 20
778.1359620450944
 30
0.0
 11
1239.463406561667
 21
778.3234620450945
 31
0.0
  0
LINE
  5
A28A
330
2
100
AcDbEntity
  8
AM_HID
  6
DASHED
100
AcDbLine
 10
1239.463406561667
 20
778.3234620450945
 30
0.0
 11
1239.463406561667
 21
778.5109620450945
 31
0.0
  0
LINE
  5
A28B
330
2
100
AcDbEntity
  8
AM_HID
  6
DASHED
100
AcDbLine
 10
1238.884666404186
 20
778.5109620450945
 30
0.0
 11
1238.884666404186
 21
778.3234620450945
 31
0.0
  0
LINE
  5
A28C
330
2
100
AcDbEntity
  8
AM_HID
  6
DASHED
100
AcDbLine
 10
1238.884666404186
 20
778.3234620450945
 30
0.0
 11
1238.884666404186
 21
778.1359620450944
 31
0.0
  0
LINE
  5
A28D
330
2
100
AcDbEntity
  8
AM_HID
  6
DASHED
100
AcDbLine
 10
1241.845296325446
 20
778.4715919663543
 30
0.0
 11
1241.845296325446
 21
778.3234620450945
 31
0.0
  0
LINE
  5
A28E
330
2
100
AcDbEntity
  8
AM_HID
  6
DASHED
100
AcDbLine
 10
1241.845296325446
 20
778.3234620450945
 30
0.0
 11
1241.845296325446
 21
778.1753321238347
 31
0.0
  0
LINE
  5
A28F
330
2
100
AcDbEntity
  8
AM_HID
  6
DASHED
100
AcDbLine
 10
1238.845296325446
 20
778.1753321238347
 30
0.0
 11
1238.845296325446
 21
778.3234620450945
 31
0.0
  0
LINE
  5
A290
330
2
100
AcDbEntity
  8
AM_HID
  6
DASHED
100
AcDbLine
 10
1238.845296325446
 20
778.3234620450945
 30
0.0
 11
1238.845296325446
 21
778.4715919663543
 31
0.0
  0
LINE
  5
A35D
330
2
100
AcDbEntity
  8
AM_VIS
100
AcDbLine
 10
1230.292226131975
 20
779.2838370842058
 30
0.0
 11
1230.854872011496
 21
779.6086808342058
 31
0.0
  0
LINE
  5
A35E
330
2
100
AcDbEntity
  8
AM_VIS
100
AcDbLine
 10
1229.729580252454
 20
779.6086808342058
 30
0.0
 11
1230.292226131975
 21
779.2838370842058
 31
0.0
  0
LINE
  5
A35F
330
2
100
AcDbEntity
  8
AM_VIS
100
AcDbLine
 10
1229.729580252454
 20
780.2583683342057
 30
0.0
 11
1229.729580252454
 21
779.6086808342058
 31
0.0
  0
LINE
  5
A360
330
2
100
AcDbEntity
  8
AM_VIS
100
AcDbLine
 10
1229.729580252454
 20
780.2583683342058
 30
0.0
 11
1230.292226131975
 21
780.5832120842057
 31
0.0
  0
LINE
  5
A361
330
2
100
AcDbEntity
  8
AM_VIS
100
AcDbLine
 10
1230.292226131975
 20
780.5832120842057
 30
0.0
 11
1230.854872011496
 21
780.2583683342058
 31
0.0
  0
LINE
  5
A362
330
2
100
AcDbEntity
  8
AM_VIS
100
AcDbLine
 10
1230.854872011496
 20
780.2583683342057
 30
0.0
 11
1230.854872011496
 21
779.6086808342058
 31
0.0
  0
CIRCLE
  5
A364
330
2
100
AcDbEntity
  8
AM_VIS
100
AcDbCircle
 10
1230.292226131975
 20
779.9335245842057
 30
0.0
 40
0.5625000000000001
  0
LINE
  5
A36C
330
2
100
AcDbEntity
  8
AM_VIS
100
AcDbLine
 10
1239.767343569541
 20
782.2332875077387
 30
0.0
 11
1238.197343569541
 21
782.2195863253072
 31
0.0
  0
LINE
  5
A36D
330
2
100
AcDbEntity
  8
AM_VIS
100
AcDbLine
 10
1238.197343569541
 20
777.7334620450946
 30
0.0
 11
1239.767343569541
 21
777.7334620450946
 31
0.0
  0
LINE
  5
A36E
330
2
100
AcDbEntity
  8
AM_VIS
100
AcDbLine
 10
1239.767343569541
 20
782.2332875077387
 30
0.0
 11
1239.767343569541
 21
781.8396017112568
 31
0.0
  0
LINE
  5
A36F
330
2
100
AcDbEntity
  8
AM_VIS
100
AcDbLine
 10
1239.767343569541
 20
778.0973223789323
 30
0.0
 11
1239.767343569541
 21
781.8396017112568
 31
0.0
  0
LINE
  5
A370
330
2
100
AcDbEntity
  8
AM_VIS
100
AcDbLine
 10
1239.767343569541
 20
778.0973223789323
 30
0.0
 11
1239.767343569541
 21
777.7334620450946
 31
0.0
  0
LINE
  5
A372
330
2
100
AcDbEntity
  8
AM_VIS
100
AcDbLine
 10
1238.197343569541
 20
777.7334620450946
 30
0.0
 11
1238.197343569541
 21
778.1110235613638
 31
0.0
  0
LINE
  5
A373
330
2
100
AcDbEntity
  8
AM_VIS
100
AcDbLine
 10
1238.197343569541
 20
781.8259005288252
 30
0.0
 11
1238.197343569541
 21
778.1110235613638
 31
0.0
  0
LINE
  5
A374
330
2
100
AcDbEntity
  8
AM_VIS
100
AcDbLine
 10
1238.197343569541
 20
781.8259005288252
 30
0.0
 11
1238.197343569541
 21
782.2195863253072
 31
0.0
  0
CIRCLE
  5
A377
330
2
100
AcDbEntity
  8
AM_VIS
100
AcDbCircle
 10
1239.157171787346
 20
779.9834620450946
 30
0.0
 40
0.2165355393703317
  0
CIRCLE
  5
A390
330
2
100
AcDbEntity
  8
AM_VIS
100
AcDbCircle
 10
1239.157343569541
 20
779.9834620450946
 30
0.0
 40
0.1968505000000001
  0
LINE
  5
A396
330
2
100
AcDbEntity
  8
AM_HID
  6
DASHED
100
AcDbLine
 10
1239.47686325458
 20
777.8134620450945
 30
0.0
 11
1239.55686325458
 21
777.7334620450946
 31
0.0
  0
LINE
  5
A397
330
2
100
AcDbEntity
  8
AM_HID
  6
DASHED
100
AcDbLine
 10
1239.04286325458
 20
777.8134620450945
 30
0.0
 11
1238.96286325458
 21
777.7334620450946
 31
0.0
  0
LINE
  5
A398
330
2
100
AcDbEntity
  8
AM_HID
  6
DASHED
100
AcDbLine
 10
1239.04286325458
 20
777.8134620450945
 30
0.0
 11
1239.04286325458
 21
778.4421234624174
 31
0.0
  0
LINE
  5
A399
330
2
100
AcDbEntity
  8
AM_HID
  6
DASHED
100
AcDbLine
 10
1239.47686325458
 20
777.8134620450945
 30
0.0
 11
1239.47686325458
 21
778.4421234624174
 31
0.0
  0
LINE
  5
A39A
330
2
100
AcDbEntity
  8
AM_HID
  6
DASHED
100
AcDbLine
 10
1239.25986325458
 20
778.5725102167463
 30
0.0
 11
1239.47686325458
 21
778.4421234624174
 31
0.0
  0
LINE
  5
A39B
330
2
100
AcDbEntity
  8
AM_HID
  6
DASHED
100
AcDbLine
 10
1239.25986325458
 20
778.5725102167463
 30
0.0
 11
1239.04286325458
 21
778.4421234624174
 31
0.0
  0
LINE
  5
A3AD
330
2
100
AcDbEntity
  8
AM_HID
  6
DASHED
100
AcDbLine
 10
1238.820177178713
 20
781.6288009057093
 30
0.0
 11
1238.796693963241
 21
781.6429110450946
 31
0.0
  0
LINE
  5
A3AE
330
2
100
AcDbEntity
  8
AM_HID
  6
DASHED
100
AcDbLine
 10
1239.494509960369
 20
781.6288009057093
 30
0.0
 11
1239.517993175841
 21
781.6429110450946
 31
0.0
  0
LINE
  5
A3AF
330
2
100
AcDbEntity
  8
AM_HID
  6
DASHED
100
AcDbLine
 10
1239.517993175841
 20
782.1833850125614
 30
0.0
 11
1239.517993175841
 21
781.6429110450946
 31
0.0
  0
LINE
  5
A3B0
330
2
100
AcDbEntity
  8
AM_HID
  6
DASHED
100
AcDbLine
 10
1238.796693963241
 20
782.1833850125614
 30
0.0
 11
1238.796693963241
 21
781.6429110450946
 31
0.0
  0
LINE
  5
A3B1
330
2
100
AcDbEntity
  8
AM_VIS
100
AcDbLine
 10
1237.359909041668
 20
780.7334620450945
 30
0.0
 11
1238.197343569541
 21
780.7334620450945
 31
0.0
  0
LINE
  5
A3B2
330
2
100
AcDbEntity
  8
AM_VIS
100
AcDbLine
 10
1237.359909041668
 20
779.2334620450946
 30
0.0
 11
1238.197343569541
 21
779.2334620450946
 31
0.0
  0
LINE
  5
A3C6
330
2
100
AcDbEntity
  8
AM_HID
  6
DASHED
100
AcDbLine
 10
1238.796693963241
 20
782.1833850125614
 30
0.0
 11
1238.754540692452
 21
782.2244489109322
 31
0.0
  0
LINE
  5
A3C7
330
2
100
AcDbEntity
  8
AM_HID
  6
DASHED
100
AcDbLine
 10
1239.517993175841
 20
782.1833850125614
 30
0.0
 11
1239.567428605756
 21
782.2315428762804
 31
0.0
  0
LINE
  5
A3C8
330
2
100
AcDbEntity
  8
AM_HID
  6
DASHED
100
AcDbLine
 10
1238.842900792639
 20
780.7610211002127
 30
0.0
 11
1238.820177178713
 21
781.6288009057093
 31
0.0
  0
LINE
  5
A3C9
330
2
100
AcDbEntity
  8
AM_HID
  6
DASHED
100
AcDbLine
 10
1239.471786346443
 20
780.7610211002127
 30
0.0
 11
1239.494509960369
 21
781.6288009057093
 31
0.0
  0
LINE
  5
A3CC
330
2
100
AcDbEntity
  8
AM_VIS
100
AcDbLine
 10
1237.322343569541
 20
780.6945618599549
 30
0.0
 11
1237.359909041668
 21
780.7334620450945
 31
0.0
  0
LINE
  5
A3CD
330
2
100
AcDbEntity
  8
AM_VIS
100
AcDbLine
 10
1237.322343569541
 20
779.2723622302343
 30
0.0
 11
1237.359909041668
 21
779.2334620450946
 31
0.0
  0
LINE
  5
A3D4
330
2
100
AcDbEntity
  8
AM_HID
  6
DASHED
100
AcDbLine
 10
1239.767343569541
 20
778.1192822513708
 30
0.0
 11
1239.397816010486
 21
778.1128321238346
 31
0.0
  0
LINE
  5
A3D5
330
2
100
AcDbEntity
  8
AM_HID
  6
DASHED
100
AcDbLine
 10
1239.767343569541
 20
778.5276418388183
 30
0.0
 11
1239.397816010486
 21
778.5340919663544
 31
0.0
  0
LINE
  5
A3D6
330
2
100
AcDbEntity
  8
AM_HID
  6
DASHED
100
AcDbLine
 10
1239.397816010486
 20
778.0475856262317
 30
0.0
 11
1238.511989238832
 21
778.0321234624174
 31
0.0
  0
LINE
  5
A3D7
330
2
100
AcDbEntity
  8
AM_HID
  6
DASHED
100
AcDbLine
 10
1239.397816010486
 20
778.5993384639573
 30
0.0
 11
1238.511989238832
 21
778.6148006277717
 31
0.0
  0
LINE
  5
A3D8
330
2
100
AcDbEntity
  8
AM_HID
  6
DASHED
100
AcDbLine
 10
1238.511989238832
 20
777.9198544880824
 30
0.0
 11
1238.197343569541
 21
777.9143623274955
 31
0.0
  0
LINE
  5
A3D9
330
2
100
AcDbEntity
  8
AM_HID
  6
DASHED
100
AcDbLine
 10
1238.511989238832
 20
778.7270696021067
 30
0.0
 11
1238.197343569541
 21
778.7325617626936
 31
0.0
  0
LINE
  5
A3DA
330
2
100
AcDbEntity
  8
AM_HID
  6
DASHED
100
AcDbLine
 10
1239.47686325458
 20
777.8134620450945
 30
0.0
 11
1239.04286325458
 21
777.8134620450945
 31
0.0
  0
LINE
  5
A3DB
330
2
100
AcDbEntity
  8
AM_HID
  6
DASHED
100
AcDbLine
 10
1239.47686325458
 20
778.4421234624174
 30
0.0
 11
1239.04286325458
 21
778.4421234624174
 31
0.0
  0
LINE
  5
A3E4
330
2
100
AcDbEntity
  8
AM_VIS
100
AcDbLine
 10
1237.322343569541
 20
779.2723622302343
 30
0.0
 11
1237.322343569541
 21
779.9834620450946
 31
0.0
  0
LINE
  5
A3E5
330
2
100
AcDbEntity
  8
AM_VIS
100
AcDbLine
 10
1237.322343569541
 20
779.9834620450946
 30
0.0
 11
1237.322343569541
 21
780.6945618599549
 31
0.0
  0
LINE
  5
A3E7
330
2
100
AcDbEntity
  8
AM_HID
  6
DASHED
100
AcDbLine
 10
1239.494509960369
 20
781.6288009057093
 30
0.0
 11
1238.820177178713
 21
781.6288009057093
 31
0.0
  0
LINE
  5
A3E8
330
2
100
AcDbEntity
  8
AM_HID
  6
DASHED
100
AcDbLine
 10
1238.796693963241
 20
781.6429110450946
 30
0.0
 11
1239.517993175841
 21
781.6429110450946
 31
0.0
  0
LINE
  5
A3E9
330
2
100
AcDbEntity
  8
AM_HID
  6
DASHED
100
AcDbLine
 10
1238.796693963241
 20
782.1833850125614
 30
0.0
 11
1239.517993175841
 21
782.1833850125614
 31
0.0
  0
LINE
  5
A3EA
330
2
100
AcDbEntity
  8
AM_VIS
100
AcDbLine
 10
1237.359909041668
 20
780.7334620450945
 30
0.0
 11
1237.359909041668
 21
779.2334620450946
 31
0.0
  0
LINE
  5
A40F
330
2
100
AcDbEntity
  8
AM_HID
  6
DASHED
100
AcDbLine
 10
1239.397816010486
 20
778.5993384639573
 30
0.0
 11
1239.397816010486
 21
778.3234620450945
 31
0.0
  0
LINE
  5
A410
330
2
100
AcDbEntity
  8
AM_HID
  6
DASHED
100
AcDbLine
 10
1239.397816010486
 20
778.3234620450945
 30
0.0
 11
1239.397816010486
 21
778.0475856262317
 31
0.0
  0
LINE
  5
A411
330
2
100
AcDbEntity
  8
AM_HID
  6
DASHED
100
AcDbLine
 10
1238.511989238832
 20
778.7270696021067
 30
0.0
 11
1238.511989238832
 21
778.3234620450945
 31
0.0
  0
LINE
  5
A412
330
2
100
AcDbEntity
  8
AM_HID
  6
DASHED
100
AcDbLine
 10
1238.511989238832
 20
778.3234620450945
 30
0.0
 11
1238.511989238832
 21
777.9198544880824
 31
0.0
  0
LINE
  5
A424
330
2
100
AcDbEntity
  8
AM_VIS
100
AcDbLine
 10
1242.447343569541
 20
782.2229898037456
 30
0.0
 11
1242.447343569541
 21
781.8293040072636
 31
0.0
  0
LINE
  5
A425
330
2
100
AcDbEntity
  8
AM_VIS
100
AcDbLine
 10
1242.447343569541
 20
778.1076200829255
 30
0.0
 11
1242.447343569541
 21
781.8293040072636
 31
0.0
  0
LINE
  5
A426
330
2
100
AcDbEntity
  8
AM_VIS
100
AcDbLine
 10
1242.447343569541
 20
778.1076200829255
 30
0.0
 11
1242.447343569541
 21
777.7334620450944
 31
0.0
  0
LINE
  5
A427
330
2
100
AcDbEntity
  8
AM_VIS
100
AcDbLine
 10
1241.267343569541
 20
777.7334620450944
 30
0.0
 11
1242.447343569541
 21
777.7334620450944
 31
0.0
  0
LINE
  5
A42A
330
2
100
AcDbEntity
  8
AM_VIS
100
AcDbLine
 10
1242.447343569541
 20
782.2229898037456
 30
0.0
 11
1241.267343569541
 21
782.2332875077387
 31
0.0
  0
LINE
  5
A433
330
2
100
AcDbEntity
  8
AM_VIS
100
AcDbLine
 10
1241.267343569541
 20
777.7334620450944
 30
0.0
 11
1241.267343569541
 21
778.0973223789323
 31
0.0
  0
LINE
  5
A434
330
2
100
AcDbEntity
  8
AM_VIS
100
AcDbLine
 10
1241.267343569541
 20
781.8396017112568
 30
0.0
 11
1241.267343569541
 21
778.0973223789323
 31
0.0
  0
LINE
  5
A435
330
2
100
AcDbEntity
  8
AM_VIS
100
AcDbLine
 10
1241.267343569541
 20
781.8396017112568
 30
0.0
 11
1241.267343569541
 21
782.2332875077387
 31
0.0
  0
CIRCLE
  5
A43E
330
2
100
AcDbEntity
  8
AM_VIS
100
AcDbCircle
 10
1241.877343569541
 20
779.9834620450945
 30
0.0
 40
0.1968505000000001
  0
CIRCLE
  5
A43F
330
2
100
AcDbEntity
  8
AM_VIS
100
AcDbCircle
 10
1241.87768713393
 20
779.9834620450945
 30
0.0
 40
0.2362205787402686
  0
LINE
  5
A44A
330
2
100
AcDbEntity
  8
AM_HID
  6
DASHED
100
AcDbLine
 10
1242.097264829383
 20
777.8134620450945
 30
0.0
 11
1242.177264829384
 21
777.7334620450944
 31
0.0
  0
LINE
  5
A44B
330
2
100
AcDbEntity
  8
AM_HID
  6
DASHED
100
AcDbLine
 10
1241.67206797899
 20
777.8134620450945
 30
0.0
 11
1241.59206797899
 21
777.7334620450944
 31
0.0
  0
LINE
  5
A44C
330
2
100
AcDbEntity
  8
AM_HID
  6
DASHED
100
AcDbLine
 10
1241.67206797899
 20
777.8134620450945
 30
0.0
 11
1241.67206797899
 21
778.4421234624174
 31
0.0
  0
LINE
  5
A44D
330
2
100
AcDbEntity
  8
AM_HID
  6
DASHED
100
AcDbLine
 10
1242.097264829383
 20
777.8134620450945
 30
0.0
 11
1242.097264829383
 21
778.4421234624174
 31
0.0
  0
LINE
  5
A44E
330
2
100
AcDbEntity
  8
AM_HID
  6
DASHED
100
AcDbLine
 10
1241.884666404186
 20
778.5698654837854
 30
0.0
 11
1242.097264829383
 21
778.4421234624174
 31
0.0
  0
LINE
  5
A44F
330
2
100
AcDbEntity
  8
AM_HID
  6
DASHED
100
AcDbLine
 10
1241.884666404186
 20
778.5698654837854
 30
0.0
 11
1241.67206797899
 21
778.4421234624174
 31
0.0
  0
LINE
  5
A450
330
2
100
AcDbEntity
  8
AM_HID
  6
DASHED
100
AcDbLine
 10
1241.540177183531
 20
781.6288007217143
 30
0.0
 11
1241.516693963241
 21
781.6429108639945
 31
0.0
  0
LINE
  5
A451
330
2
100
AcDbEntity
  8
AM_HID
  6
DASHED
100
AcDbLine
 10
1242.214509955551
 20
781.6288007217143
 30
0.0
 11
1242.237993175841
 21
781.6429108639945
 31
0.0
  0
LINE
  5
A452
330
2
100
AcDbEntity
  8
AM_HID
  6
DASHED
100
AcDbLine
 10
1242.237993175841
 20
782.1833850125613
 30
0.0
 11
1242.237993175841
 21
781.6429108639945
 31
0.0
  0
LINE
  5
A453
330
2
100
AcDbEntity
  8
AM_HID
  6
DASHED
100
AcDbLine
 10
1241.516693963241
 20
782.1833850125613
 30
0.0
 11
1241.516693963241
 21
781.6429108639945
 31
0.0
  0
LINE
  5
A457
330
2
100
AcDbEntity
  8
AM_HID
100
AcDbLine
 10
1242.192540419935
 20
780.7610211002127
 30
0.0
 11
1242.191786346443
 21
780.7610211002127
 31
0.0
  0
LINE
  5
A45B
330
2
100
AcDbEntity
  8
AM_VIS
100
AcDbLine
 10
1242.640688311414
 20
779.2334620450945
 30
0.0
 11
1242.447343569541
 21
779.2334620450945
 31
0.0
  0
LINE
  5
A45C
330
2
100
AcDbEntity
  8
AM_VIS
100
AcDbLine
 10
1242.640688311414
 20
780.7334620450944
 30
0.0
 11
1242.447343569541
 21
780.7334620450944
 31
0.0
  0
LINE
  5
A46B
330
2
100
AcDbEntity
  8
AM_VIS
100
AcDbLine
 10
1242.650468569541
 20
779.2435897988618
 30
0.0
 11
1242.640688311414
 21
779.2334620450945
 31
0.0
  0
LINE
  5
A46C
330
2
100
AcDbEntity
  8
AM_VIS
100
AcDbLine
 10
1242.650468569541
 20
780.7233342913272
 30
0.0
 11
1242.640688311414
 21
780.7334620450945
 31
0.0
  0
LINE
  5
A46E
330
2
100
AcDbEntity
  8
AM_HID
  6
DASHED
100
AcDbLine
 10
1241.516693963241
 20
782.1833850125613
 30
0.0
 11
1241.467258533326
 21
782.2315428762804
 31
0.0
  0
LINE
  5
A46F
330
2
100
AcDbEntity
  8
AM_HID
  6
DASHED
100
AcDbLine
 10
1242.237993175841
 20
782.1833850125613
 30
0.0
 11
1242.28014644663
 21
782.2244489109322
 31
0.0
  0
LINE
  5
A470
330
2
100
AcDbEntity
  8
AM_HID
  6
DASHED
100
AcDbLine
 10
1241.562900792639
 20
780.7610211002127
 30
0.0
 11
1241.540177183531
 21
781.6288007217143
 31
0.0
  0
LINE
  5
A471
330
2
100
AcDbEntity
  8
AM_HID
  6
DASHED
100
AcDbLine
 10
1242.191786346443
 20
780.7610211002127
 30
0.0
 11
1242.214509955551
 21
781.6288007217143
 31
0.0
  0
LINE
  5
A478
330
2
100
AcDbEntity
  8
AM_HID
  6
DASHED
100
AcDbLine
 10
1241.267343569541
 20
778.5997600616689
 30
0.0
 11
1242.13269790025
 21
778.6148648776973
 31
0.0
  0
LINE
  5
A479
330
2
100
AcDbEntity
  8
AM_HID
  6
DASHED
100
AcDbLine
 10
1241.267343569541
 20
778.0471640285202
 30
0.0
 11
1242.13269790025
 21
778.0320592124917
 31
0.0
  0
LINE
  5
A47A
330
2
100
AcDbEntity
  8
AM_HID
  6
DASHED
100
AcDbLine
 10
1242.13269790025
 20
778.7270696021067
 30
0.0
 11
1242.447343569541
 21
778.7325617626936
 31
0.0
  0
LINE
  5
A47B
330
2
100
AcDbEntity
  8
AM_HID
  6
DASHED
100
AcDbLine
 10
1242.13269790025
 20
777.9198544880824
 30
0.0
 11
1242.447343569541
 21
777.9143623274955
 31
0.0
  0
LINE
  5
A47C
330
2
100
AcDbEntity
  8
AM_HID
  6
DASHED
100
AcDbLine
 10
1242.097264829383
 20
777.8134620450945
 30
0.0
 11
1241.67206797899
 21
777.8134620450945
 31
0.0
  0
LINE
  5
A47D
330
2
100
AcDbEntity
  8
AM_HID
  6
DASHED
100
AcDbLine
 10
1242.097264829383
 20
778.4421234624174
 30
0.0
 11
1241.67206797899
 21
778.4421234624174
 31
0.0
  0
LINE
  5
A47E
330
2
100
AcDbEntity
  8
AM_HID
  6
DASHED
100
AcDbLine
 10
1242.214509955551
 20
781.6288007217143
 30
0.0
 11
1241.877343569541
 21
781.6288007217143
 31
0.0
  0
LINE
  5
A47F
330
2
100
AcDbEntity
  8
AM_HID
  6
DASHED
100
AcDbLine
 10
1241.877343569541
 20
781.6288007217143
 30
0.0
 11
1241.540177183531
 21
781.6288007217143
 31
0.0
  0
LINE
  5
A480
330
2
100
AcDbEntity
  8
AM_HID
  6
DASHED
100
AcDbLine
 10
1241.516693963241
 20
781.6429108639945
 30
0.0
 11
1242.237993175841
 21
781.6429108639945
 31
0.0
  0
LINE
  5
A481
330
2
100
AcDbEntity
  8
AM_HID
  6
DASHED
100
AcDbLine
 10
1241.516693963241
 20
782.1833850125613
 30
0.0
 11
1242.237993175841
 21
782.1833850125613
 31
0.0
  0
LINE
  5
A486
330
2
100
AcDbEntity
  8
AM_VIS
100
AcDbLine
 10
1242.640688311414
 20
779.2334620450945
 30
0.0
 11
1242.640688311414
 21
780.7334620450944
 31
0.0
  0
LINE
  5
A487
330
2
100
AcDbEntity
  8
AM_VIS
100
AcDbLine
 10
1242.650468569541
 20
780.7233342913272
 30
0.0
 11
1242.650468569541
 21
779.2435897988618
 31
0.0
  0
LINE
  5
A49C
330
2
100
AcDbEntity
  8
AM_HID
  6
DASHED
100
AcDbLine
 10
1242.13269790025
 20
777.9198544880824
 30
0.0
 11
1242.13269790025
 21
778.7270696021067
 31
0.0
  0
MTEXT
  5
DC7D
330
2
100
AcDbEntity
  8
DIM
 48
0.5
100
AcDbMText
 10
1114.247859766007
 20
797.0169736494896
 30
0.0
 40
0.12
 41
0.0
 71
     1
 72
     1
  1

  7
DAYUS
 73
     1
 44
1.0
1001
ACAD
1000
MTEXTBEGIN
1070
    73
1070
     1
1070
    44
1040
1.0
1070
    74
1070
     0
1000
MTEXTEND
  0
MTEXT
  5
DC7F
330
2
100
AcDbEntity
  8
DIM
 48
0.5
100
AcDbMText
 10
1111.684079506475
 20
794.1777883968577
 30
0.0
 40
0.12
 41
0.0
 71
     9
 72
     1
  1

  7
DAYUS
 73
     1
 44
1.0
1001
ACAD
1000
MTEXTBEGIN
1070
    73
1070
     1
1070
    44
1040
1.0
1070
    74
1070
     0
1000
MTEXTEND
  0
MTEXT
  5
DC81
330
2
100
AcDbEntity
  8
DIM
 48
0.5
100
AcDbMText
 10
1115.836837484741
 20
794.6529629862998
 30
0.0
 40
0.12
 41
0.0
 71
     9
 72
     1
  1

  7
DAYUS
 73
     1
 44
1.0
1001
ACAD
1000
MTEXTBEGIN
1070
    73
1070
     1
1070
    44
1040
1.0
1070
    74
1070
     0
1000
MTEXTEND
  0
MTEXT
  5
DC93
330
2
100
AcDbEntity
  8
DIM
 48
0.5
100
AcDbMText
 10
1115.815406093485
 20
794.6915823182214
 30
0.0
 40
0.12
 41
0.0
 71
     9
 72
     1
  1

  7
DAYUS
 73
     1
 44
1.0
1001
ACAD
1000
MTEXTBEGIN
1070
    73
1070
     1
1070
    44
1040
1.0
1070
    74
1070
     0
1000
MTEXTEND
  0
MTEXT
  5
DC96
330
2
100
AcDbEntity
  8
DIM
 48
0.5
100
AcDbMText
 10
1116.982157800725
 20
796.5496661731918
 30
0.0
 40
0.12
 41
0.0
 71
     9
 72
     1
  1

  7
DAYUS
 73
     1
 44
1.0
1001
ACAD
1000
MTEXTBEGIN
1070
    73
1070
     1
1070
    44
1040
1.0
1070
    74
1070
     0
1000
MTEXTEND
  0
MTEXT
  5
DC99
330
2
100
AcDbEntity
  8
DIM
 48
0.5
100
AcDbMText
 10
1121.531868397632
 20
797.4583049052268
 30
0.0
 40
0.12
 41
0.0
 71
     1
 72
     1
  1

  7
DAYUS
 73
     1
 44
1.0
1001
ACAD
1000
MTEXTBEGIN
1070
    73
1070
     1
1070
    44
1040
1.0
1070
    74
1070
     0
1000
MTEXTEND
  0
MTEXT
  5
DC9C
330
2
100
AcDbEntity
  8
DIM
 48
0.5
100
AcDbMText
 10
1116.419315707743
 20
793.4122773324166
 30
0.0
 40
0.12
 41
0.0
 71
     9
 72
     1
  1

  7
DAYUS
 73
     1
 44
1.0
1001
ACAD
1000
MTEXTBEGIN
1070
    73
1070
     1
1070
    44
1040
1.0
1070
    74
1070
     0
1000
MTEXTEND
  0
TEXT
  5
DEB7
330
2
100
AcDbEntity
  8
DIM
 48
0.5
100
AcDbText
 10
1235.463186199118
 20
781.0440166646722
 30
0.0
 40
0.12
  1
1.12
  7
CHINESET
100
AcDbText
  0
TEXT
  5
DEB8
330
2
100
AcDbEntity
  8
DIM
 48
0.5
100
AcDbText
 10
1234.210181709232
 20
778.8434534752629
 30
0.0
 40
0.12
  1
3/4-16
  7
CHINESET
100
AcDbText
  0
TEXT
  5
DEB9
330
2
100
AcDbEntity
  8
DIM
 48
0.5
100
AcDbText
 10
1226.951101675834
 20
776.5531846075234
 30
0.0
 40
0.12
  1
5/8深
  7
CHINESET
100
AcDbText
  0
TEXT
  5
DEBA
330
2
100
AcDbEntity
  8
DIM
 48
0.5
100
AcDbText
 10
1226.952371838366
 20
776.798753470155
 30
0.0
 40
0.12
  1
4-1/2-13
  7
CHINESET
100
AcDbText
  0
TEXT
  5
DEBB
330
2
100
AcDbEntity
  8
DIM
 48
0.5
100
AcDbText
 10
1235.91139063322
 20
781.5088640874905
 30
0.0
 40
0.12
  1
兩面巾
  7
CHINESET
100
AcDbText
  0
TEXT
  5
DEBC
330
2
100
AcDbEntity
  8
DIM
 48
0.5
100
AcDbText
 10
1235.926042968207
 20
781.733923531433
 30
0.0
 40
0.12
  1
7/8
  7
CHINESET
100
AcDbText
  0
TEXT
  5
DEBD
330
2
100
AcDbEntity
  8
DIM
 48
0.5
100
AcDbText
 10
1229.284629102693
 20
782.6485054121882
 30
0.0
 40
0.12
  1
3/8-24
  7
CHINESET
100
AcDbText
  0
TEXT
  5
DEBE
330
2
100
AcDbEntity
  8
DIM
 48
0.5
100
AcDbText
 10
1239.510211630908
 20
782.9001109067712
 30
0.0
 40
0.12
  1
2-1/2(NPTF)
  7
CHINESET
100
AcDbText
  0
MTEXT
  5
DEE9
330
2
100
AcDbEntity
  8
DIM
 48
0.5
100
AcDbMText
 10
1159.684561974738
 20
800.0287868194371
 30
0.0
 40
0.12
 41
0.0
 71
     1
 72
     1
  1

  7
DAYUS
 73
     1
 44
1.0
1001
ACAD
1000
MTEXTBEGIN
1070
    73
1070
     1
1070
    44
1040
1.0
1070
    74
1070
     0
1000
MTEXTEND
  0
MTEXT
  5
DEEB
330
2
100
AcDbEntity
  8
DIM
 48
0.5
100
AcDbMText
 10
1157.037525554902
 20
796.4560410913543
 30
0.0
 40
0.12
 41
0.0
 71
     9
 72
     1
  1

  7
DAYUS
 73
     1
 44
1.0
1001
ACAD
1000
MTEXTBEGIN
1070
    73
1070
     1
1070
    44
1040
1.0
1070
    74
1070
     0
1000
MTEXTEND
  0
MTEXT
  5
DEEF
330
2
100
AcDbEntity
  8
DIM
 48
0.5
100
AcDbMText
 10
1162.155176252831
 20
796.0961496997271
 30
0.0
 40
0.12
 41
0.0
 71
     9
 72
     1
  1

  7
DAYUS
 73
     1
 44
1.0
1001
ACAD
1000
MTEXTBEGIN
1070
    73
1070
     1
1070
    44
1040
1.0
1070
    74
1070
     0
1000
MTEXTEND
  0
MTEXT
  5
DEF1
330
2
100
AcDbEntity
  8
DIM
 48
0.5
100
AcDbMText
 10
1162.886359226598
 20
799.5511907894063
 30
0.0
 40
0.12
 41
0.0
 71
     9
 72
     1
  1

  7
DAYUS
 73
     1
 44
1.0
1001
ACAD
1000
MTEXTBEGIN
1070
    73
1070
     1
1070
    44
1040
1.0
1070
    74
1070
     0
1000
MTEXTEND
  0
MTEXT
  5
DEF3
330
2
100
AcDbEntity
  8
DIM
 48
0.5
100
AcDbMText
 10
1161.131049838054
 20
797.4162802154439
 30
0.0
 40
0.12
 41
0.0
 71
     9
 72
     1
  1

  7
DAYUS
 73
     1
 44
1.0
1001
ACAD
1000
MTEXTBEGIN
1070
    73
1070
     1
1070
    44
1040
1.0
1070
    74
1070
     0
1000
MTEXTEND
  0
MTEXT
  5
DEF5
330
2
100
AcDbEntity
  8
DIM
 48
0.5
100
AcDbMText
 10
1167.110800954161
 20
799.7341262213182
 30
0.0
 40
0.12
 41
0.0
 71
     1
 72
     1
  1

  7
DAYUS
 73
     1
 44
1.0
1001
ACAD
1000
MTEXTBEGIN
1070
    73
1070
     1
1070
    44
1040
1.0
1070
    74
1070
     0
1000
MTEXTEND
  0
MTEXT
  5
E074
330
2
100
AcDbEntity
  8
DIM
 48
0.5
100
AcDbMText
 10
1180.654261382719
 20
800.5781323652881
 30
0.0
 40
0.12
 41
0.0
 71
     1
 72
     1
  1

  7
DAYUS
 73
     1
 44
1.0
1001
ACAD
1000
MTEXTBEGIN
1070
    73
1070
     1
1070
    44
1040
1.0
1070
    74
1070
     0
1000
MTEXTEND
  0
MTEXT
  5
E076
330
2
100
AcDbEntity
  8
DIM
 48
0.5
100
AcDbMText
 10
1177.460854726657
 20
796.4320334012405
 30
0.0
 40
0.12
 41
0.0
 71
     9
 72
     1
  1

  7
DAYUS
 73
     1
 44
1.0
1001
ACAD
1000
MTEXTBEGIN
1070
    73
1070
     1
1070
    44
1040
1.0
1070
    74
1070
     0
1000
MTEXTEND
  0
MTEXT
  5
E078
330
2
100
AcDbEntity
  8
DIM
 48
0.5
100
AcDbMText
 10
1183.006825001932
 20
797.8164652392165
 30
0.0
 40
0.12
 41
0.0
 71
     9
 72
     1
  1

  7
DAYUS
 73
     1
 44
1.0
1001
ACAD
1000
MTEXTBEGIN
1070
    73
1070
     1
1070
    44
1040
1.0
1070
    74
1070
     0
1000
MTEXTEND
  0
MTEXT
  5
E07A
330
2
100
AcDbEntity
  8
DIM
 48
0.5
100
AcDbMText
 10
1184.109029092271
 20
796.2246413274224
 30
0.0
 40
0.12
 41
0.0
 71
     9
 72
     1
  1

  7
DAYUS
 73
     1
 44
1.0
1001
ACAD
1000
MTEXTBEGIN
1070
    73
1070
     1
1070
    44
1040
1.0
1070
    74
1070
     0
1000
MTEXTEND
  0
MTEXT
  5
E07C
330
2
100
AcDbEntity
  8
DIM
 48
0.5
100
AcDbMText
 10
1184.555069523061
 20
799.8171695980663
 30
0.0
 40
0.12
 41
0.0
 71
     9
 72
     1
  1

  7
DAYUS
 73
     1
 44
1.0
1001
ACAD
1000
MTEXTBEGIN
1070
    73
1070
     1
1070
    44
1040
1.0
1070
    74
1070
     0
1000
MTEXTEND
  0
MTEXT
  5
E07E
330
2
100
AcDbEntity
  8
DIM
 48
0.5
100
AcDbMText
 10
1188.728135324896
 20
800.5414941980898
 30
0.0
 40
0.12
 41
0.0
 71
     1
 72
     1
  1

  7
DAYUS
 73
     1
 44
1.0
1001
ACAD
1000
MTEXTBEGIN
1070
    73
1070
     1
1070
    44
1040
1.0
1070
    74
1070
     0
1000
MTEXTEND
  0
DIMENSION
  5
E254
330
2
100
AcDbEntity
  8
DIM
 48
0.5
100
AcDbDimension
  2
*D1
 10
1229.260976131975
 20
777.1707572829653
 30
0.0
 11
1230.292226131975
 21
777.3021858543939
 31
0.0
 70
    32
 71
     5
 42
2.0625
  3
STANDARD
100
AcDbAlignedDimension
 13
1231.323476131975
 23
777.6535245842057
 33
0.0
 14
1229.260976131975
 24
777.6535245842057
 34
0.0
100
AcDbRotatedDimension
  0
DIMENSION
  5
E261
330
2
100
AcDbEntity
  8
DIM
 48
0.5
100
AcDbDimension
  2
*D2
 10
1231.952226131975
 20
776.7821247864547
 30
0.0
 11
1230.292226131975
 21
776.9135533578833
 31
0.0
 70
    32
 71
     5
 42
3.320000000000163
  3
STANDARD
100
AcDbAlignedDimension
 13
1228.632226131975
 23
777.6910836393239
 33
0.0
 14
1231.952226131975
 24
777.6910836393239
 34
0.0
100
AcDbRotatedDimension
  0
DIMENSION
  5
E26E
330
2
100
AcDbEntity
  8
DIM
 48
0.5
100
AcDbDimension
  2
*D3
 10
1232.542051594619
 20
776.4373587900011
 30
0.0
 11
1230.292226131975
 21
776.5687873614297
 31
0.0
 70
    32
 71
     5
 42
4.499650925288278
  3
STANDARD
100
AcDbAlignedDimension
 13
1228.042400669331
 23
778.0473849180435
 33
0.0
 14
1232.542051594619
 24
778.0473849180435
 34
0.0
100
AcDbRotatedDimension
  0
DIMENSION
  5
E27B
330
2
100
AcDbEntity
  8
DIM
 48
0.5
100
AcDbDimension
  2
*D4
 10
1227.534952541617
 20
779.9335245842058
 30
0.0
 11
1227.403523970189
 21
778.808524584206
 31
0.0
 70
    32
 71
     5
 42
2.25
  3
STANDARD
100
AcDbAlignedDimension
 13
1228.285769236834
 23
777.6835245842058
 33
0.0
 14
1227.978985312669
 24
779.9335245842058
 34
0.0
 50
90.0
100
AcDbRotatedDimension
  0
DIMENSION
  5
E288
330
2
100
AcDbEntity
  8
DIM
 48
0.5
100
AcDbDimension
  2
*D5
 10
1227.017133477106
 20
777.6835245842058
 30
0.0
 11
1226.885704905677
 21
779.933437315528
 31
0.0
 70
    32
 71
     5
 42
4.499825462644139
  3
STANDARD
100
AcDbAlignedDimension
 13
1228.436086465813
 23
782.18335004685
 33
0.0
 14
1228.3382685883
 24
777.6835245842058
 34
0.0
 50
90.0
100
AcDbRotatedDimension
  0
DIMENSION
  5
E295
330
2
100
AcDbEntity
  8
DIM
 48
0.5
100
AcDbDimension
  2
*D6
 10
1243.160544202507
 20
780.7233342913272
 30
0.0
 11
1243.029115631078
 21
779.9834620450946
 31
0.0
 70
    32
  1
%%c<>
 71
     5
 42
1.479744492465329
  3
STANDARD
100
AcDbAlignedDimension
 13
1242.650468569541
 23
779.2435897988618
 33
0.0
 14
1242.650468569541
 24
780.7233342913272
 34
0.0
 50
90.0
100
AcDbRotatedDimension
  0
DIMENSION
  5
E2A2
102
{ACAD_REACTORS
330
FBD7
330
FC18
102
}
330
2
100
AcDbEntity
  8
DIM
 48
0.5
100
AcDbDimension
  2
*D7
 10
1235.450873754766
 20
780.4834620450946
 30
0.0
 11
1235.319445183338
 21
779.9834620450947
 31
0.0
 70
    32
  1
%%c<>
 71
     5
  3
STANDARD
100
AcDbAlignedDimension
 13
1236.901069333386
 23
779.4834620450946
 33
0.0
 14
1236.901069333386
 24
780.4834620450946
 34
0.0
 50
90.0
100
AcDbRotatedDimension
  0
DIMENSION
  5
E2B0
102
{ACAD_REACTORS
330
FBD7
330
FC18
102
}
330
2
100
AcDbEntity
  8
DIM
 48
0.5
100
AcDbDimension
  2
*D8
 10
1235.018262353403
 20
779.2334620450946
 30
0.0
 11
1234.886833781974
 21
779.9834620450947
 31
0.0
 70
    32
  1
%%c<>
 71
     5
 42
1.5
  3
STANDARD
100
AcDbAlignedDimension
 13
1237.359909041668
 23
780.7334620450945
 33
0.0
 14
1237.359909041668
 24
779.2334620450946
 34
0.0
 50
90.0
100
AcDbRotatedDimension
  0
DIMENSION
  5
E2BD
330
2
100
AcDbEntity
  8
DIM
 48
0.5
100
AcDbDimension
  2
*D9
 10
1236.081329175876
 20
778.1783198350336
 30
0.0
 11
1234.883912593657
 21
778.1783198350336
 31
0.0
 70
   160
 71
     5
 42
0.4209999999998218
  3
STANDARD
100
AcDbAlignedDimension
 13
1236.502329175876
 23
779.4209620450946
 33
0.0
 14
1236.081329175876
 24
779.4209620450946
 34
0.0
100
AcDbRotatedDimension
  0
DIMENSION
  5
E2CB
102
{ACAD_REACTORS
330
FBD7
102
}
330
2
100
AcDbEntity
  8
DIM
 48
0.5
100
AcDbDimension
  2
*D10
 10
1237.359909041668
 20
777.2355802601453
 30
0.0
 11
1235.678653570124
 21
777.2355802601453
 31
0.0
 70
   160
 71
     5
 42
0.5375798657626092
  3
STANDARD
100
AcDbAlignedDimension
 13
1236.822329175905
 23
779.5622022025749
 33
0.0
 14
1237.359909041668
 24
779.2334620450946
 34
0.0
100
AcDbRotatedDimension
  0
DIMENSION
  5
E2D9
330
2
100
AcDbEntity
  8
DIM
 48
0.5
100
AcDbDimension
  2
*D11
 10
1235.697329175906
 20
777.7366207072867
 30
0.0
 11
1234.985900604477
 21
777.8680492787152
 31
0.0
 70
    32
 71
     5
 42
1.125
  3
STANDARD
100
AcDbAlignedDimension
 13
1236.822329175905
 23
779.5622022025749
 33
0.0
 14
1235.697329175906
 24
779.6675171632048
 34
0.0
100
AcDbRotatedDimension
  0
DIMENSION
  5
E2E8
102
{ACAD_REACTORS
330
FBD7
330
FBF2
102
}
330
2
100
AcDbEntity
  8
DIM
 48
0.5
100
AcDbDimension
  2
*D12
 10
1239.767343569541
 20
777.2355802601453
 30
0.0
 11
1238.982343569541
 21
777.367008831574
 31
0.0
 70
    32
 71
     5
 42
1.569999999999936
  3
STANDARD
100
AcDbAlignedDimension
 13
1238.197343569541
 23
777.7334620450946
 33
0.0
 14
1239.767343569541
 24
777.7334620450946
 34
0.0
100
AcDbRotatedDimension
  0
DIMENSION
  5
E2F5
102
{ACAD_REACTORS
330
FBF2
102
}
330
2
100
AcDbEntity
  8
DIM
 48
0.5
100
AcDbDimension
  2
*D13
 10
1242.447343569541
 20
777.2355802601453
 30
0.0
 11
1243.15877214097
 21
777.367008831574
 31
0.0
 70
    32
 71
     5
 42
1.180000000000063
  3
STANDARD
100
AcDbAlignedDimension
 13
1241.267343569541
 23
777.7334620450944
 33
0.0
 14
1242.447343569541
 24
777.7334620450944
 34
0.0
100
AcDbRotatedDimension
  0
DIMENSION
  5
E303
102
{ACAD_XDICTIONARY
360
FBD6
102
}
102
{ACAD_REACTORS
330
FBD7
102
}
330
2
100
AcDbEntity
  8
DIM
 48
0.5
100
AcDbDimension
  2
*D14
 10
1239.25986325458
 20
776.7935436938894
 30
0.0
 11
1238.041096215243
 21
776.924972265318
 31
0.0
 70
    32
 71
     5
 42
2.437534078674843
  3
STANDARD
100
AcDbAlignedDimension
 13
1236.822329175905
 23
779.5622022025749
 33
0.0
 14
1239.25986325458
 24
777.7034620450945
 34
0.0
100
AcDbRotatedDimension
  0
DIMENSION
  5
E310
102
{ACAD_XDICTIONARY
360
FBF1
102
}
102
{ACAD_REACTORS
330
FBD7
330
FBF2
102
}
330
2
100
AcDbEntity
  8
DIM
 48
0.5
100
AcDbDimension
  2
*D15
 10
1241.884666404186
 20
776.7935436938894
 30
0.0
 11
1240.572264829383
 21
776.924972265318
 31
0.0
 70
    32
 71
     5
 42
2.624803149606123
  3
STANDARD
100
AcDbAlignedDimension
 13
1239.25986325458
 23
777.7034620450945
 33
0.0
 14
1241.884666404186
 24
777.7034620450945
 34
0.0
100
AcDbRotatedDimension
  0
DIMENSION
  5
E31D
102
{ACAD_REACTORS
330
FC18
330
FC32
102
}
330
2
100
AcDbEntity
  8
DIM
 48
0.5
100
AcDbDimension
  2
*D16
 10
1239.157343569541
 20
783.2517300706022
 30
0.0
 11
1237.989836372723
 21
783.3831586420308
 31
0.0
 70
    32
 71
     5
 42
2.335014393635447
  3
STANDARD
100
AcDbAlignedDimension
 13
1236.822329175905
 23
780.4047218876141
 33
0.0
 14
1239.157343569541
 24
782.2933850125613
 34
0.0
100
AcDbRotatedDimension
  0
DIMENSION
  5
E32A
330
2
100
AcDbEntity
  8
DIM
 48
0.5
100
AcDbDimension
  2
*D17
 10
1241.877343569541
 20
783.2517300706022
 30
0.0
 11
1240.508911022588
 21
783.2517300706022
 31
0.0
 70
   160
 71
     5
 42
2.720000000000027
  3
STANDARD
100
AcDbAlignedDimension
 13
1239.157343569541
 23
782.2933850125613
 33
0.0
 14
1241.877343569541
 24
782.2933850125613
 34
0.0
100
AcDbRotatedDimension
  0
DIMENSION
  5
E337
102
{ACAD_XDICTIONARY
360
FC17
102
}
102
{ACAD_REACTORS
330
FC18
102
}
330
2
100
AcDbEntity
  8
DIM
 48
0.5
100
AcDbDimension
  2
*D18
 10
1238.197343569541
 20
783.61713330396
 30
0.0
 11
1237.509836372723
 21
783.7485618753886
 31
0.0
 70
    32
 71
     5
 42
1.37501439363541
  3
STANDARD
100
AcDbAlignedDimension
 13
1236.822329175905
 23
780.4047218876141
 33
0.0
 14
1238.197343569541
 24
782.2195863253072
 34
0.0
100
AcDbRotatedDimension
  0
DIMENSION
  5
E344
102
{ACAD_XDICTIONARY
360
FC31
102
}
102
{ACAD_REACTORS
330
FC18
330
FC32
102
}
330
2
100
AcDbEntity
  8
DIM
 48
0.5
100
AcDbDimension
  2
*D19
 10
1242.447343569541
 20
783.61713330396
 30
0.0
 11
1240.287868634051
 21
783.61713330396
 31
0.0
 70
   160
 71
     5
 42
4.25
  3
STANDARD
100
AcDbAlignedDimension
 13
1238.197343569541
 23
782.2195863253072
 33
0.0
 14
1242.447343569541
 24
782.2229898037456
 34
0.0
100
AcDbRotatedDimension
  0
DIMENSION
  5
E351
102
{ACAD_REACTORS
330
FC18
102
}
330
2
100
AcDbEntity
  8
DIM
 48
0.5
100
AcDbDimension
  2
*D20
 10
1242.650468569541
 20
783.9825364902469
 30
0.0
 11
1239.718259382599
 21
783.9825364902469
 31
0.0
 70
   160
 71
     5
 42
5.82813939363541
  3
STANDARD
100
AcDbAlignedDimension
 13
1236.822329175905
 23
780.4047218876141
 33
0.0
 14
1242.650468569541
 24
780.7233342913272
 34
0.0
100
AcDbRotatedDimension
  0
LEADER
  5
E38B
330
2
100
AcDbEntity
  8
DIM
 48
0.5
100
AcDbLeader
  3
STANDARD
 73
     0
 40
0.12
 76
     3
 10
1228.729789740683
 20
781.7537025594016
 30
0.0
 10
1229.225818204267
 20
782.5504992840913
 30
0.0
 10
1230.071917522234
 20
782.5504992840913
 30
0.0
340
E38C
213
56.21262768690076
223
-8.631484046474893
233
0.0
1001
ACAD
1000
DSTYLE
1002
{
1070
     5
1000

1070
    77
1070
     0
1070
   147
1040
0.04
1070
   342
1005
0
1002
}
  0
MTEXT
  5
E38C
102
{ACAD_REACTORS
330
E38B
102
}
330
2
100
AcDbEntity
  8
DIM
 48
0.5
100
AcDbMText
 10
1147.908664147741
 20
787.8931014288346
 30
0.0
 40
0.12
 41
0.0
 71
     1
 72
     1
  1

  7
DAYUS
 73
     1
 44
1.0
1001
ACAD
1000
MTEXTBEGIN
1070
    73
1070
     1
1070
    44
1040
1.0
1070
    74
1070
     0
1000
MTEXTEND
  0
LEADER
  5
E38D
330
2
100
AcDbEntity
  8
DIM
 48
0.5
100
AcDbLeader
  3
STANDARD
 73
     0
 40
0.12
 76
     3
 10
1229.260976131975
 20
777.6835245842058
 30
0.0
 10
1227.91044342488
 20
776.7366207636094
 30
0.0
 10
1226.901476257521
 20
776.7366207636094
 30
0.0
340
E38E
213
56.21262768690076
223
-8.511484046474892
233
0.0
1001
ACAD
1000
DSTYLE
1002
{
1070
     5
1000

1070
    77
1070
     0
1070
   147
1040
0.04
1070
   342
1005
0
1002
}
  0
MTEXT
  5
E38E
102
{ACAD_REACTORS
330
E38D
102
}
330
2
100
AcDbEntity
  8
DIM
 48
0.5
100
AcDbMText
 10
1144.738222883028
 20
781.9592229083528
 30
0.0
 40
0.12
 41
0.0
 71
     9
 72
     1
  1

  7
DAYUS
 73
     1
 44
1.0
1001
ACAD
1000
MTEXTBEGIN
1070
    73
1070
     1
1070
    44
1040
1.0
1070
    74
1070
     0
1000
MTEXTEND
  0
LEADER
  5
E38F
330
2
100
AcDbEntity
  8
DIM
 48
0.5
100
AcDbLeader
  3
STANDARD
 73
     0
 40
0.12
 76
     3
 10
1235.88699731202
 20
779.6084620450947
 30
0.0
 10
1234.920901890052
 20
778.7986010753213
 30
0.0
 10
1234.172403342367
 20
778.7986010753213
 30
0.0
340
E390
213
56.21262768690076
223
-8.511484046474892
233
0.0
1001
ACAD
1000
DSTYLE
1002
{
1070
     5
1000

1070
    77
1070
     0
1070
   147
1040
0.04
1070
   342
1005
0
1002
}
  0
MTEXT
  5
E390
102
{ACAD_REACTORS
330
E38F
102
}
330
2
100
AcDbEntity
  8
DIM
 48
0.5
100
AcDbMText
 10
1152.009149967874
 20
784.0212032200647
 30
0.0
 40
0.12
 41
0.0
 71
     9
 72
     1
  1

  7
DAYUS
 73
     1
 44
1.0
1001
ACAD
1000
MTEXTBEGIN
1070
    73
1070
     1
1070
    44
1040
1.0
1070
    74
1070
     0
1000
MTEXTEND
  0
LEADER
  5
E391
330
2
100
AcDbEntity
  8
DIM
 48
0.5
100
AcDbLeader
  3
STANDARD
 73
     0
 40
0.12
 76
     3
 10
1237.020709784595
 20
780.1137548324834
 30
0.0
 10
1236.345779830913
 20
781.6758297890857
 30
0.0
 10
1235.864986358329
 20
781.6758297890857
 30
0.0
340
E392
213
56.21262768690076
223
-8.511484046474892
233
0.0
1001
ACAD
1000
DSTYLE
1002
{
1070
     5
1000

1070
    77
1070
     0
1070
   147
1040
0.04
1070
   342
1005
0
1002
}
  0
MTEXT
  5
E392
102
{ACAD_REACTORS
330
E391
102
}
330
2
100
AcDbEntity
  8
DIM
 48
0.5
100
AcDbMText
 10
1153.701732983836
 20
786.8984319338292
 30
0.0
 40
0.12
 41
0.0
 71
     9
 72
     1
  1

  7
DAYUS
 73
     1
 44
1.0
1001
ACAD
1000
MTEXTBEGIN
1070
    73
1070
     1
1070
    44
1040
1.0
1070
    74
1070
     0
1000
MTEXTEND
  0
LEADER
  5
E393
330
2
100
AcDbEntity
  8
DIM
 48
0.5
100
AcDbLeader
  3
STANDARD
 73
     0
 40
0.12
 76
     3
 10
1236.306950590249
 20
780.5441820516939
 30
0.0
 10
1235.866359837391
 20
780.9741008439271
 30
0.0
 10
1235.434601852902
 20
780.9741008439271
 30
0.0
340
E394
213
56.21262768690076
223
-8.511484046474892
233
0.0
1001
ACAD
1000
DSTYLE
1002
{
1070
     5
1000

1070
    77
1070
     0
1070
   147
1040
0.04
1070
   342
1005
0
1002
}
  0
MTEXT
  5
E394
102
{ACAD_REACTORS
330
E393
102
}
330
2
100
AcDbEntity
  8
DIM
 48
0.5
100
AcDbMText
 10
1153.185136270799
 20
781.941313205451
 30
0.0
 40
0.12
 41
0.0
 71
     9
 72
     1
  1

  7
DAYUS
 73
     1
 44
1.0
1001
ACAD
1000
MTEXTBEGIN
1070
    73
1070
     1
1070
    44
1040
1.0
1070
    74
1070
     0
1000
MTEXTEND
  0
LEADER
  5
E395
330
2
100
AcDbEntity
  8
DIM
 48
0.5
100
AcDbLeader
  3
STANDARD
 73
     0
 40
0.12
 76
     3
 10
1239.157343569541
 20
782.2279641183863
 30
0.0
 10
1239.456831617854
 20
782.8483112002431
 30
0.0
 10
1240.753251280454
 20
782.8483112002431
 30
0.0
340
E396
213
56.26097851615487
223
-8.325402078161856
233
0.0
1001
ACAD
1000
DSTYLE
1002
{
1070
     5
1000

1070
    77
1070
     0
1070
   147
1040
0.04
1070
   342
1005
0
1002
}
  0
MTEXT
  5
E396
102
{ACAD_REACTORS
330
E395
102
}
330
2
100
AcDbEntity
  8
DIM
 48
0.5
100
AcDbMText
 10
1158.541647076707
 20
787.8848313766734
 30
0.0
 40
0.12
 41
0.0
 71
     1
 72
     1
  1

  7
DAYUS
 73
     1
 44
1.0
1001
ACAD
1000
MTEXTBEGIN
1070
    73
1070
     1
1070
    44
1040
1.0
1070
    74
1070
     0
1000
MTEXTEND
  0
MTEXT
  5
E5BA
330
2
100
AcDbEntity
  8
DIM
 48
0.5
100
AcDbMText
 10
1178.360257869548
 20
782.1337913880074
 30
0.0
 40
0.12
 41
0.763
 71
     1
 72
     1
  1

  7
DAYUS
 73
     1
 44
1.0
1001
ACAD
1000
MTEXTBEGIN
1070
    73
1070
     1
1070
    44
1040
1.0
1070
    74
1070
     0
1000
MTEXTEND
  0
MTEXT
  5
E5BC
330
2
100
AcDbEntity
  8
DIM
 48
0.5
100
AcDbMText
 10
1175.414665296402
 20
777.0949408552324
 30
0.0
 40
0.12
 41
0.763
 71
     9
 72
     1
  1

  7
DAYUS
 73
     1
 44
1.0
1001
ACAD
1000
MTEXTBEGIN
1070
    73
1070
     1
1070
    44
1040
1.0
1070
    74
1070
     0
1000
MTEXTEND
  0
MTEXT
  5
E5BE
330
2
100
AcDbEntity
  8
DIM
 48
0.5
100
AcDbMText
 10
1181.172940849349
 20
778.4864942311028
 30
0.0
 40
0.12
 41
0.763
 71
     9
 72
     1
  1

  7
DAYUS
 73
     1
 44
1.0
1001
ACAD
1000
MTEXTBEGIN
1070
    73
1070
     1
1070
    44
1040
1.0
1070
    74
1070
     0
1000
MTEXTEND
  0
MTEXT
  5
E5C0
330
2
100
AcDbEntity
  8
DIM
 48
0.5
100
AcDbMText
 10
1182.452086208572
 20
776.3930731071305
 30
0.0
 40
0.12
 41
0.763
 71
     9
 72
     1
  1

  7
DAYUS
 73
     1
 44
1.0
1001
ACAD
1000
MTEXTBEGIN
1070
    73
1070
     1
1070
    44
1040
1.0
1070
    74
1070
     0
1000
MTEXTEND
  0
MTEXT
  5
E5C2
330
2
100
AcDbEntity
  8
DIM
 48
0.5
100
AcDbMText
 10
1183.025241090683
 20
781.4960306642761
 30
0.0
 40
0.12
 41
0.763
 71
     9
 72
     1
  1

  7
DAYUS
 73
     1
 44
1.0
1001
ACAD
1000
MTEXTBEGIN
1070
    73
1070
     1
1070
    44
1040
1.0
1070
    74
1070
     0
1000
MTEXTEND
  0
MTEXT
  5
E5C4
330
2
100
AcDbEntity
  8
DIM
 48
0.5
100
AcDbMText
 10
1187.923225297015
 20
782.0713687944739
 30
0.0
 40
0.12
 41
0.763
 71
     1
 72
     1
  1

  7
DAYUS
 73
     1
 44
1.0
1001
ACAD
1000
MTEXTBEGIN
1070
    73
1070
     1
1070
    44
1040
1.0
1070
    74
1070
     0
1000
MTEXTEND
  0
TEXT
  5
FA7D
330
2
100
AcDbEntity
  8
LOGO
 62
     7
100
AcDbText
 10
1228.622909263336
 20
772.6512225380897
 30
0.0
 40
0.1895894401598552
  1
Order example:
 41
0.8
  7
CHINESET
100
AcDbText
  0
TEXT
  5
FA7E
330
2
100
AcDbEntity
  8
LOGO
 62
     7
100
AcDbText
 10
1228.656923176742
 20
772.9181252148403
 30
0.0
 40
0.2843841602397827
  1
訂購代號：
  7
CHINESET
100
AcDbText
  0
LINE
  5
FA7F
330
2
100
AcDbEntity
  8
LOGO
 62
     4
100
AcDbLine
 10
1228.540532008537
 20
771.8522210438459
 30
0.0
 11
1228.540532008537
 21
773.2741418450448
 31
0.0
  0
TEXT
  5
FA80
330
2
100
AcDbEntity
  8
LOGO
  6
Continuous
100
AcDbText
 10
1225.923066589347
 20
772.1315552393759
 30
0.0
 40
0.2132881201798371
  1
金器工業股份有限公司
  7
CHINESET
100
AcDbText
  0
TEXT
  5
FA81
330
2
100
AcDbEntity
  8
LOGO
  6
Continuous
100
AcDbText
 10
1225.53129850955
 20
771.918225331447
 30
0.0
 40
0.1421920801198914
  1
MINDMAN INDUSTRIAL CO., LTD.
 41
0.85
  7
CHINESET
100
AcDbText
  0
LINE
  5
FA82
330
2
100
AcDbEntity
  8
LOGO
 62
     4
100
AcDbLine
 10
1228.540532008537
 20
772.9897576848052
 30
0.0
 11
1226.455048166778
 21
772.9897576848052
 31
0.0
  0
LINE
  5
FA83
330
2
100
AcDbEntity
  8
LOGO
 62
     4
100
AcDbLine
 10
1228.540532008537
 20
772.7053735245654
 30
0.0
 11
1226.455048166778
 21
772.7053735245654
 31
0.0
  0
LINE
  5
FA84
330
2
100
AcDbEntity
  8
LOGO
 62
     4
100
AcDbLine
 10
1228.540532008537
 20
772.4209893643256
 30
0.0
 11
1225.412306245899
 21
772.4209893643256
 31
0.0
  0
LINE
  5
FA85
330
2
100
AcDbEntity
  8
LOGO
 62
     4
100
AcDbLine
 10
1226.455048166778
 20
772.4209893643256
 30
0.0
 11
1226.455048166778
 21
773.2741418450448
 31
0.0
  0
TEXT
  5
FA86
330
2
100
AcDbEntity
  8
LOGO
100
AcDbText
 10
1227.880377939282
 20
772.4920854043855
 30
0.0
 40
0.1421920801198914
  1
mm
  7
CHINESET
 72
     1
 11
1228.056425276573
 21
772.5631814444454
 31
0.0
100
AcDbText
 73
     2
  0
TEXT
  5
FA87
330
2
100
AcDbEntity
  8
LOGO
100
AcDbText
 10
1227.805896373505
 20
773.0608537248651
 30
0.0
 40
0.1421920801198914
  1
1 : 1
  7
CHINESET
 72
     1
 11
1228.056425276573
 21
773.131949764925
 31
0.0
100
AcDbText
 73
     2
  0
LINE
  5
FA88
330
2
100
AcDbEntity
  8
LOGO
 62
     4
100
AcDbLine
 10
1227.592584807738
 20
772.4209893643256
 30
0.0
 11
1227.592584807738
 21
773.2741418450448
 31
0.0
  0
TEXT
  5
FA89
330
2
100
AcDbEntity
  8
LOGO
100
AcDbText
 10
1226.57229315427
 20
773.0609237012824
 30
9.319034683289956
 40
0.1421920801198914
  1
比例 Scale:
 41
0.9
  7
CHINESET
 72
     4
 11
1227.023816487258
 21
773.131949764925
 31
9.319034683289956
100
AcDbText
  0
TEXT
  5
FA8A
330
2
100
AcDbEntity
  8
LOGO
100
AcDbText
 10
1226.564104413941
 20
772.7784697238888
 30
9.319034683289956
 40
0.1421920801198914
  1
投影  View:
 41
0.9
  7
CHINESET
 72
     4
 11
1227.023816487258
 21
772.8475656046853
 31
9.319034683289956
100
AcDbText
  0
TEXT
  5
FA8B
330
2
100
AcDbEntity
  8
LOGO
100
AcDbText
 10
1226.578006228917
 20
772.4920854043855
 30
9.319034683289956
 40
0.1421920801198914
  1
單位  Unit:
 41
0.9
  7
CHINESET
 72
     4
 11
1227.023816487258
 21
772.5631814444454
 31
9.319034683289956
100
AcDbText
  0
LWPOLYLINE
  5
FA8C
330
2
100
AcDbEntity
  8
LOGO
 62
     4
100
AcDbPolyline
 90
        4
 70
     1
 43
0.0
 10
1225.412306245899
 20
773.2741418450451
 10
1244.966548645899
 20
773.2741418450451
 10
1244.966548645899
 20
786.0734882438459
 10
1225.412306245899
 20
786.0734882438459
1001
GENIUS_GENREC_14
1002
{
1000
PYDIR
1011
1225.412306245899
1021
786.0734882438459
1031
0.0
1002
}
1002
{
1000
PXDIR
1011
1244.966548645899
1021
773.2741418450451
1031
0.0
1002
}
1002
{
1000
PORI
1011
1225.412306245899
1021
773.2741418450451
1031
0.0
1002
}
1002
{
1000
PINS
1011
1225.412306245899
1021
773.2741418450451
1031
0.0
1002
}
1002
{
1000
PINS2
1011
1244.966548645899
1021
786.0734882438459
1031
0.0
1002
}
1002
{
1000
C
1070
     1
1002
}
1001
GENIUS_GENODEF_13
1002
{
1000
HIER
1070
     0
1002
}
1002
{
1000
MANEDIT
1070
     0
1002
}
1002
{
1000
NOSEL
1070
     0
1002
}
1002
{
1000
BEHIND
1070
     0
1002
}
1002
{
1000
OTHER
1070
     0
1002
}
1002
{
1000
REACTOR
1002
}
1001
GENIUS_GENOBJ-N-REC_13
1002
{
1000
OWNER
1000
GEN
1002
}
  0
SOLID
  5
FA8D
330
2
100
AcDbEntity
  8
LOGO
 62
     5
100
AcDbTrace
 10
1225.559832811032
 20
772.6573634580761
 30
0.0
 11
1225.621312935356
 21
772.6573634580761
 31
0.0
 12
1225.877833454086
 22
773.2403646370073
 32
0.0
 13
1225.93931357841
 23
773.2403646370073
 33
0.0
  0
SOLID
  5
FA8E
330
2
100
AcDbEntity
  8
LOGO
 62
     5
100
AcDbTrace
 10
1225.646752986801
 20
772.6573634580761
 30
0.0
 11
1225.708233111125
 21
772.6573634580761
 31
0.0
 12
1225.93931357841
 22
773.1937245426927
 32
0.0
 13
1225.877833454086
 23
772.9682974201726
 33
0.0
  0
SOLID
  5
FA8F
330
2
100
AcDbEntity
  8
LOGO
 62
     2
100
AcDbTrace
 10
1225.621312935356
 20
772.6573634580761
 30
0.0
 11
1225.646752986801
 21
772.6573634580761
 31
0.0
 12
1225.93931357841
 22
773.2403646370073
 32
0.0
 13
1225.964753629854
 23
773.2403646370073
 33
0.0
  0
SOLID
  5
FA90
330
2
100
AcDbEntity
  8
LOGO
 62
     5
100
AcDbTrace
 10
1225.461265094968
 20
772.4453630293737
 30
0.0
 11
1225.482465137839
 21
772.4453630293737
 31
0.0
 12
1225.54216610864
 22
772.551363243725
 32
0.0
 13
1225.563366151511
 23
772.551363243725
 33
0.0
  0
SOLID
  5
FA91
330
2
100
AcDbEntity
  8
LOGO
 62
     5
100
AcDbTrace
 10
1225.54216610864
 20
772.551363243725
 30
0.0
 11
1225.563366151511
 21
772.551363243725
 31
0.0
 12
1225.54216610864
 22
772.4453630293737
 32
0.0
 13
1225.563366151511
 23
772.4453630293737
 33
0.0
  0
SOLID
  5
FA92
330
2
100
AcDbEntity
  8
LOGO
 62
     5
100
AcDbTrace
 10
1225.54216610864
 20
772.4453630293737
 30
0.0
 11
1225.563366151511
 21
772.4453630293737
 31
0.0
 12
1225.623067122313
 22
772.551363243725
 32
0.0
 13
1225.644267165183
 23
772.551363243725
 33
0.0
  0
SOLID
  5
FA93
330
2
100
AcDbEntity
  8
LOGO
 62
     5
100
AcDbTrace
 10
1225.623067122313
 20
772.551363243725
 30
0.0
 11
1225.644267165183
 21
772.551363243725
 31
0.0
 12
1225.623067122313
 22
772.4453630293737
 32
0.0
 13
1225.644267165183
 23
772.4453630293737
 33
0.0
  0
POLYLINE
  5
FA94
330
2
100
AcDbEntity
  8
LOGO
 62
     5
100
AcDb2dPolyline
 66
     1
 10
0.0
 20
0.0
 30
0.0
 40
0.0212340172979038
 41
0.0212340172979038
  0
VERTEX
  5
FA95
330
FA94
100
AcDbEntity
  8
LOGO
 62
     5
100
AcDbVertex
100
AcDb2dVertex
 10
1226.333685337438
 20
772.5089631579845
 30
0.0
 42
1.0
  0
VERTEX
  5
FA96
330
FA94
100
AcDbEntity
  8
LOGO
 62
     5
100
AcDbVertex
100
AcDb2dVertex
 10
1226.269983285544
 20
772.5089631579845
 30
0.0
 42
1.0
  0
SEQEND
  5
FA97
330
FA94
100
AcDbEntity
  8
LOGO
 62
     5
  0
POLYLINE
  5
FA98
330
2
100
AcDbEntity
  8
LOGO
 62
     5
100
AcDb2dPolyline
 66
     1
 10
0.0
 20
0.0
 30
0.0
 70
     1
  0
VERTEX
  5
FA99
330
FA98
100
AcDbEntity
  8
LOGO
 62
     5
100
AcDbVertex
100
AcDb2dVertex
 10
1226.149902084257
 20
772.4983631365492
 30
0.0
 42
1.000000057330635
  0
VERTEX
  5
FA9A
330
FA98
100
AcDbEntity
  8
LOGO
 62
     5
100
AcDbVertex
100
AcDb2dVertex
 10
1226.213502212868
 20
772.4983631365492
 30
0.0
 42
1.000000057330635
  0
SEQEND
  5
FA9B
330
FA98
100
AcDbEntity
  8
LOGO
 62
     5
  0
CIRCLE
  5
FA9C
330
2
100
AcDbEntity
  8
LOGO
 62
     5
100
AcDbCircle
 10
1226.181702148563
 20
772.4983631365492
 30
0.0
 40
0.0318000643053407
  0
POLYLINE
  5
FA9D
330
2
100
AcDbEntity
  8
LOGO
 62
     5
100
AcDb2dPolyline
 66
     1
 10
0.0
 20
0.0
 30
0.0
 70
     1
 40
0.0212340172979038
 41
0.0212340172979038
  0
VERTEX
  5
FA9E
330
FA9D
100
AcDbEntity
  8
LOGO
 62
     5
100
AcDbVertex
100
AcDb2dVertex
 10
1226.139234113966
 20
772.4983631365492
 30
0.0
 42
1.0
  0
VERTEX
  5
FA9F
330
FA9D
100
AcDbEntity
  8
LOGO
 62
     5
100
AcDbVertex
100
AcDb2dVertex
 10
1226.224170183158
 20
772.4983631365492
 30
0.0
 42
1.0
  0
SEQEND
  5
FAA0
330
FA9D
100
AcDbEntity
  8
LOGO
 62
     5
  0
LINE
  5
FAA1
330
2
100
AcDbEntity
  8
LOGO
100
AcDbLine
 10
1226.344234397231
 20
772.4453630293737
 30
0.0
 11
1226.344234397231
 21
772.5089631579845
 31
0.0
  0
SOLID
  5
FAA2
330
2
100
AcDbEntity
  8
LOGO
 62
     5
100
AcDbTrace
 10
1226.213500092863
 20
772.551363243725
 30
0.0
 11
1226.234700135734
 21
772.551363243725
 31
0.0
 12
1226.213500092863
 22
772.4453630293737
 32
0.0
 13
1226.234700135734
 23
772.4453630293737
 33
0.0
  0
SOLID
  5
FAA3
330
2
100
AcDbEntity
  8
LOGO
 62
     5
100
AcDbTrace
 10
1226.25943422575
 20
772.4453630293737
 30
0.0
 11
1226.28063426862
 21
772.4453630293737
 31
0.0
 12
1226.25943422575
 22
772.551363243725
 32
0.0
 13
1226.28063426862
 23
772.551363243725
 33
0.0
  0
SOLID
  5
FAA4
330
2
100
AcDbEntity
  8
LOGO
 62
     5
100
AcDbTrace
 10
1226.323034354361
 20
772.5089631579845
 30
0.0
 11
1226.344234397231
 21
772.5089631579845
 31
0.0
 12
1226.323034354361
 22
772.4453630293737
 32
0.0
 13
1226.344234397231
 23
772.4453630293737
 33
0.0
  0
SOLID
  5
FAA5
330
2
100
AcDbEntity
  8
LOGO
 62
     5
100
AcDbTrace
 10
1226.257314221463
 20
773.1937245426927
 30
0.0
 11
1226.19583409714
 21
772.9682974201726
 31
0.0
 12
1226.257314221463
 22
772.6573634580761
 32
0.0
 13
1226.19583409714
 23
772.6573634580761
 33
0.0
  0
SOLID
  5
FAA6
330
2
100
AcDbEntity
  8
LOGO
 62
     5
100
AcDbTrace
 10
1226.282754272908
 20
772.6573634580761
 30
0.0
 11
1226.344234397231
 21
772.6573634580761
 31
0.0
 12
1226.282754272908
 22
773.2403646370073
 32
0.0
 13
1226.344234397231
 23
773.2403646370073
 33
0.0
  0
SOLID
  5
FAA7
330
2
100
AcDbEntity
  8
LOGO
 62
     2
100
AcDbTrace
 10
1226.257314221463
 20
773.2403646370073
 30
0.0
 11
1226.282754272908
 21
773.2403646370073
 31
0.0
 12
1226.257314221463
 22
772.6573634580761
 32
0.0
 13
1226.282754272908
 23
772.6573634580761
 33
0.0
  0
POLYLINE
  5
FAA8
330
2
100
AcDbEntity
  8
LOGO
 62
     5
100
AcDb2dPolyline
 66
     1
 10
0.0
 20
0.0
 30
0.0
 40
0.0212340172979038
 41
0.0212340172979038
  0
VERTEX
  5
FAA9
330
FAA8
100
AcDbEntity
  8
LOGO
 62
     5
100
AcDbVertex
100
AcDb2dVertex
 10
1226.029816642961
 20
772.5089631579845
 30
0.0
 42
1.0
  0
VERTEX
  5
FAAA
330
FAA8
100
AcDbEntity
  8
LOGO
 62
     5
100
AcDbVertex
100
AcDb2dVertex
 10
1225.966114591068
 20
772.5089631579845
 30
0.0
 42
1.0
  0
SEQEND
  5
FAAB
330
FAA8
100
AcDbEntity
  8
LOGO
 62
     5
  0
POLYLINE
  5
FAAC
330
2
100
AcDbEntity
  8
LOGO
 62
     5
100
AcDb2dPolyline
 66
     1
 10
0.0
 20
0.0
 30
0.0
 40
0.0212340172979038
 41
0.0212340172979038
  0
VERTEX
  5
FAAD
330
FAAC
100
AcDbEntity
  8
LOGO
 62
     5
100
AcDbVertex
100
AcDb2dVertex
 10
1226.093416771572
 20
772.5089631579845
 30
0.0
 42
1.0
  0
VERTEX
  5
FAAE
330
FAAC
100
AcDbEntity
  8
LOGO
 62
     5
100
AcDbVertex
100
AcDb2dVertex
 10
1226.029714719678
 20
772.5089631579845
 30
0.0
 42
1.0
  0
SEQEND
  5
FAAF
330
FAAC
100
AcDbEntity
  8
LOGO
 62
     5
  0
POLYLINE
  5
FAB0
330
2
100
AcDbEntity
  8
LOGO
 62
     5
100
AcDb2dPolyline
 66
     1
 10
0.0
 20
0.0
 30
0.0
 40
0.0212340172979038
 41
0.0212340172979038
  0
VERTEX
  5
FAB1
330
FAB0
100
AcDbEntity
  8
LOGO
 62
     5
100
AcDbVertex
100
AcDb2dVertex
 10
1225.789548077096
 20
772.5089631579845
 30
0.0
 42
1.0
  0
VERTEX
  5
FAB2
330
FAB0
100
AcDbEntity
  8
LOGO
 62
     5
100
AcDbVertex
100
AcDb2dVertex
 10
1225.725846025202
 20
772.5089631579845
 30
0.0
 42
1.0
  0
SEQEND
  5
FAB3
330
FAB0
100
AcDbEntity
  8
LOGO
 62
     5
  0
SOLID
  5
FAB4
330
2
100
AcDbEntity
  8
LOGO
 62
     5
100
AcDbTrace
 10
1225.715296965409
 20
772.551363243725
 30
0.0
 11
1225.736497008279
 21
772.551363243725
 31
0.0
 12
1225.715296965409
 22
772.4453630293737
 32
0.0
 13
1225.736497008279
 23
772.4453630293737
 33
0.0
  0
SOLID
  5
FAB5
330
2
100
AcDbEntity
  8
LOGO
 62
     5
100
AcDbTrace
 10
1225.778897094019
 20
772.5089631579845
 30
0.0
 11
1225.80009713689
 21
772.5089631579845
 31
0.0
 12
1225.778897094019
 22
772.4453630293737
 32
0.0
 13
1225.80009713689
 23
772.4453630293737
 33
0.0
  0
POLYLINE
  5
FAB6
330
2
100
AcDbEntity
  8
LOGO
 62
     5
100
AcDb2dPolyline
 66
     1
 10
0.0
 20
0.0
 30
0.0
 70
     1
 40
0.0212340172979038
 41
0.0212340172979038
  0
VERTEX
  5
FAB7
330
FAB6
100
AcDbEntity
  8
LOGO
 62
     5
100
AcDbVertex
100
AcDb2dVertex
 10
1225.83536541949
 20
772.4983631365492
 30
0.0
 42
1.0
  0
VERTEX
  5
FAB8
330
FAB6
100
AcDbEntity
  8
LOGO
 62
     5
100
AcDbVertex
100
AcDb2dVertex
 10
1225.920301488682
 20
772.4983631365492
 30
0.0
 42
1.0
  0
SEQEND
  5
FAB9
330
FAB6
100
AcDbEntity
  8
LOGO
 62
     5
  0
SOLID
  5
FABA
330
2
100
AcDbEntity
  8
LOGO
 62
     5
100
AcDbTrace
 10
1225.909631398387
 20
772.5831633080303
 30
0.0
 11
1225.930831441258
 21
772.5831633080303
 31
0.0
 12
1225.909631398387
 22
772.4453630293737
 32
0.0
 13
1225.930831441258
 23
772.4453630293737
 33
0.0
  0
SOLID
  5
FABB
330
2
100
AcDbEntity
  8
LOGO
 62
     5
100
AcDbTrace
 10
1225.955565531274
 20
772.551363243725
 30
0.0
 11
1225.976765574145
 21
772.551363243725
 31
0.0
 12
1225.955565531274
 22
772.4453630293737
 32
0.0
 13
1225.976765574145
 23
772.4453630293737
 33
0.0
  0
SOLID
  5
FABC
330
2
100
AcDbEntity
  8
LOGO
 62
     5
100
AcDbTrace
 10
1226.019165659885
 20
772.5089631579845
 30
0.0
 11
1226.040365702755
 21
772.5089631579845
 31
0.0
 12
1226.019165659885
 22
772.4453630293737
 32
0.0
 13
1226.040365702755
 23
772.4453630293737
 33
0.0
  0
SOLID
  5
FABD
330
2
100
AcDbEntity
  8
LOGO
 62
     5
100
AcDbTrace
 10
1226.082765788496
 20
772.5089631579845
 30
0.0
 11
1226.103965831366
 21
772.5089631579845
 31
0.0
 12
1226.082765788496
 22
772.4453630293737
 32
0.0
 13
1226.103965831366
 23
772.4453630293737
 33
0.0
  0
SOLID
  5
FABE
330
2
100
AcDbEntity
  8
LOGO
 62
     5
100
AcDbTrace
 10
1225.669362832522
 20
772.5662032737341
 30
0.0
 11
1225.690562875392
 21
772.5662032737341
 31
0.0
 12
1225.669362832522
 22
772.5831633080303
 32
0.0
 13
1225.690562875392
 23
772.5831633080303
 33
0.0
  0
SOLID
  5
FABF
330
2
100
AcDbEntity
  8
LOGO
 62
     5
100
AcDbTrace
 10
1225.669362832522
 20
772.551363243725
 30
0.0
 11
1225.690562875392
 21
772.551363243725
 31
0.0
 12
1225.669362832522
 22
772.4453630293737
 32
0.0
 13
1225.690562875392
 23
772.4453630293737
 33
0.0
  0
SOLID
  5
FAC0
330
2
100
AcDbEntity
  8
LOGO
 62
     5
100
AcDbTrace
 10
1225.877833454086
 20
772.6573634580761
 30
0.0
 11
1225.93931357841
 21
772.6573634580761
 31
0.0
 12
1225.877833454086
 22
772.9682974201726
 32
0.0
 13
1225.93931357841
 23
773.1937245426927
 33
0.0
  0
SOLID
  5
FAC1
330
2
100
AcDbEntity
  8
LOGO
 62
     5
100
AcDbTrace
 10
1225.964753629854
 20
773.2403646370073
 30
0.0
 11
1226.026233754178
 21
773.2403646370073
 31
0.0
 12
1225.964753629854
 22
772.7040035523905
 32
0.0
 13
1226.026233754178
 23
772.9294306749107
 33
0.0
  0
SOLID
  5
FAC2
330
2
100
AcDbEntity
  8
LOGO
 62
     2
100
AcDbTrace
 10
1225.93931357841
 20
773.2403646370073
 30
0.0
 11
1225.964753629854
 21
773.2403646370073
 31
0.0
 12
1225.93931357841
 22
772.6573634580761
 32
0.0
 13
1225.964753629854
 23
772.6573634580761
 33
0.0
  0
SOLID
  5
FAC3
330
2
100
AcDbEntity
  8
LOGO
 62
     5
100
AcDbTrace
 10
1225.964753629854
 20
772.7040035523905
 30
0.0
 11
1226.026233754178
 21
772.9294306749107
 31
0.0
 12
1226.257314221463
 22
773.2403646370073
 32
0.0
 13
1226.19583409714
 23
773.2403646370073
 33
0.0
  0
SOLID
  5
FAC4
330
2
100
AcDbEntity
  8
LOGO
 62
     5
100
AcDbTrace
 10
1225.964753629854
 20
772.6573634580761
 30
0.0
 11
1226.026233754178
 21
772.6573634580761
 31
0.0
 12
1226.257314221463
 22
773.1937245426927
 32
0.0
 13
1226.19583409714
 23
772.9682974201726
 33
0.0
  0
SOLID
  5
FAC5
330
2
100
AcDbEntity
  8
LOGO
 62
     2
100
AcDbTrace
 10
1225.93931357841
 20
772.6573634580761
 30
0.0
 11
1225.964753629854
 21
772.6573634580761
 31
0.0
 12
1226.257314221463
 22
773.2403646370073
 32
0.0
 13
1226.282754272908
 23
773.2403646370073
 33
0.0
  0
LWPOLYLINE
  5
FAC6
330
2
100
AcDbEntity
  8
LOGO
 62
     4
100
AcDbPolyline
 90
        4
 70
     1
 43
0.0
 10
1225.412306245899
 20
773.2741418450451
 10
1244.966548645899
 20
773.2741418450451
 10
1244.966548645899
 20
771.8522210438461
 10
1225.412306245899
 20
771.8522210438461
1001
GENIUS_GENREC_14
1002
{
1000
PYDIR
1011
1225.412306245899
1021
771.8522210438461
1031
0.0
1002
}
1002
{
1000
PXDIR
1011
1244.966548645899
1021
773.2741418450451
1031
0.0
1002
}
1002
{
1000
PORI
1011
1225.412306245899
1021
773.2741418450451
1031
0.0
1002
}
1002
{
1000
PINS
1011
1225.412306245899
1021
773.2741418450451
1031
0.0
1002
}
1002
{
1000
PINS2
1011
1244.966548645899
1021
771.8522210438461
1031
0.0
1002
}
1002
{
1000
C
1070
     1
1002
}
1001
GENIUS_GENOBJ-N-REC_13
1002
{
1000
OWNER
1000
GEN
1002
}
1001
GENIUS_GENODEF_13
1002
{
1000
HIER
1070
     0
1002
}
1002
{
1000
MANEDIT
1070
     0
1002
}
1002
{
1000
NOSEL
1070
     0
1002
}
1002
{
1000
BEHIND
1070
     0
1002
}
1002
{
1000
OTHER
1070
     0
1002
}
1002
{
1000
REACTOR
1002
}
  0
LINE
  5
FAC7
330
2
100
AcDbEntity
  8
LOGO
 62
     4
100
AcDbLine
 10
1231.444268163336
 20
772.4920854043855
 30
0.0
 11
1231.444268163336
 21
771.9707144439459
 31
0.0
  0
LINE
  5
FAC8
330
2
100
AcDbEntity
  8
LOGO
 62
     4
100
AcDbLine
 10
1230.496320962537
 20
772.4920854043855
 30
0.0
 11
1230.496320962537
 21
771.9707144439459
 31
0.0
  0
LINE
  5
FAC9
330
2
100
AcDbEntity
  8
LOGO
 62
     4
100
AcDbLine
 10
1231.444268163336
 20
771.9707144439459
 30
0.0
 11
1230.496320962537
 21
771.9707144439459
 31
0.0
  0
LINE
  5
FACA
330
2
100
AcDbEntity
  8
LOGO
 62
     4
100
AcDbLine
 10
1231.614292568113
 20
773.131949764925
 30
0.0
 11
1230.496320962537
 21
773.131949764925
 31
0.0
  0
LINE
  5
FACB
330
2
100
AcDbEntity
  8
LOGO
 62
     4
100
AcDbLine
 10
1231.614292568113
 20
772.7053735245654
 30
0.0
 11
1230.496320962537
 21
772.7053735245654
 31
0.0
  0
LINE
  5
FACC
330
2
100
AcDbEntity
  8
LOGO
 62
     4
100
AcDbLine
 10
1230.496320962537
 20
773.131949764925
 30
0.0
 11
1230.496320962537
 21
772.7053735245654
 31
0.0
  0
LINE
  5
FACD
330
2
100
AcDbEntity
  8
LOGO
 62
     4
100
AcDbLine
 10
1231.614292568113
 20
773.131949764925
 30
0.0
 11
1231.614292568113
 21
772.7053735245654
 31
0.0
  0
LINE
  5
FACE
330
2
100
AcDbEntity
  8
LOGO
 62
     4
100
AcDbLine
 10
1231.019753597325
 20
772.7053735245654
 30
0.0
 11
1231.019753597325
 21
772.4920854043855
 31
0.0
  0
TEXT
  5
FACF
330
2
100
AcDbEntity
  8
LOGO
  6
Continuous
100
AcDbText
 10
1230.572116879666
 20
772.7944206910859
 30
0.0
 40
0.248872176
  1
MCQN
  7
CHINESET
100
AcDbText
  0
LINE
  5
FAD0
330
2
100
AcDbEntity
  8
LOGO
 62
     4
100
AcDbLine
 10
1231.444268163336
 20
772.4920854043855
 30
0.0
 11
1230.496320962537
 21
772.4920854043855
 31
0.0
  0
TEXT
  5
FAD1
330
2
100
AcDbEntity
  8
LOGO
  6
Continuous
100
AcDbText
 10
1230.800514218119
 20
772.0443048494192
 30
9.319034683289956
 40
0.106659504
  1
Model
 41
0.8
  7
CHINESET
100
AcDbText
  0
TEXT
  5
FAD2
330
2
100
AcDbEntity
  8
LOGO
100
AcDbText
 10
1230.77212492544
 20
772.2420285830715
 30
9.319034683289956
 40
0.17776584
  1
型號
  7
CHINESET
100
AcDbText
  0
LINE
  5
FAD3
330
2
100
AcDbEntity
  8
LOGO
  6
Continuous
100
AcDbLine
 10
1231.659641148067
 20
772.9171506442868
 30
0.0
 11
1231.848001650735
 21
772.9171506442868
 31
0.0
  0
LINE
  5
FAD4
330
2
100
AcDbEntity
  8
LOGO
 62
     4
100
AcDbLine
 10
1232.496782676333
 20
772.4920854043855
 30
0.0
 11
1232.496782676333
 21
771.9707144439459
 31
0.0
  0
LINE
  5
FAD5
330
2
100
AcDbEntity
  8
LOGO
 62
     4
100
AcDbLine
 10
1231.552412409425
 20
772.4920854043855
 30
0.0
 11
1231.552412409425
 21
771.9707144439459
 31
0.0
  0
LINE
  5
FAD6
330
2
100
AcDbEntity
  8
LOGO
 62
     4
100
AcDbLine
 10
1232.496782676333
 20
771.9707144439459
 30
0.0
 11
1231.552412409425
 21
771.9707144439459
 31
0.0
  0
LINE
  5
FAD7
330
2
100
AcDbEntity
  8
LOGO
 62
     4
100
AcDbLine
 10
1232.345064596594
 20
773.131949764925
 30
0.0
 11
1231.907419460252
 21
773.131949764925
 31
0.0
  0
LINE
  5
FAD8
330
2
100
AcDbEntity
  8
LOGO
 62
     4
100
AcDbLine
 10
1232.345064596594
 20
772.7053735245654
 30
0.0
 11
1231.907419460252
 21
772.7053735245654
 31
0.0
  0
LINE
  5
FAD9
330
2
100
AcDbEntity
  8
LOGO
 62
     4
100
AcDbLine
 10
1231.907419460252
 20
773.131949764925
 30
0.0
 11
1231.907419460252
 21
772.7053735245654
 31
0.0
  0
LINE
  5
FADA
330
2
100
AcDbEntity
  8
LOGO
 62
     4
100
AcDbLine
 10
1232.345064596594
 20
773.131949764925
 30
0.0
 11
1232.345064596594
 21
772.7053735245654
 31
0.0
  0
LINE
  5
FADB
330
2
100
AcDbEntity
  8
LOGO
 62
     4
100
AcDbLine
 10
1232.126242028423
 20
772.7053735245654
 30
0.0
 11
1232.126242028423
 21
772.4920854043855
 31
0.0
  0
TEXT
  5
FADC
330
2
100
AcDbEntity
  8
LOGO
  6
Continuous
100
AcDbText
 10
1231.976762337736
 20
772.7944206910859
 30
0.0
 40
0.248872176
  1
11
  7
CHINESET
100
AcDbText
  0
LINE
  5
FADD
330
2
100
AcDbEntity
  8
LOGO
 62
     4
100
AcDbLine
 10
1232.496782676333
 20
772.4920854043855
 30
0.0
 11
1231.552412409425
 21
772.4920854043855
 31
0.0
  0
LINE
  5
FADE
330
2
100
AcDbEntity
  8
LOGO
  6
Continuous
100
AcDbLine
 10
1232.428404350818
 20
772.9171506442868
 30
0.0
 11
1232.616764853485
 21
772.9171506442868
 31
0.0
  0
LINE
  5
FADF
330
2
100
AcDbEntity
  8
LOGO
 62
     4
100
AcDbLine
 10
1233.553014034672
 20
772.4920854043855
 30
0.0
 11
1233.553014034672
 21
771.9707144439459
 31
0.0
  0
LINE
  5
FAE0
330
2
100
AcDbEntity
  8
LOGO
 62
     4
100
AcDbLine
 10
1232.605066833872
 20
772.4920854043855
 30
0.0
 11
1232.605066833872
 21
771.9707144439459
 31
0.0
  0
LINE
  5
FAE1
330
2
100
AcDbEntity
  8
LOGO
 62
     4
100
AcDbLine
 10
1233.553014034672
 20
771.9707144439459
 30
0.0
 11
1232.605066833872
 21
771.9707144439459
 31
0.0
  0
LINE
  5
FAE2
330
2
100
AcDbEntity
  8
LOGO
 62
     4
100
AcDbLine
 10
1233.405093328175
 20
773.131949764925
 30
0.0
 11
1232.676182663002
 21
773.131949764925
 31
0.0
  0
LINE
  5
FAE3
330
2
100
AcDbEntity
  8
LOGO
 62
     4
100
AcDbLine
 10
1233.405093328175
 20
772.7053735245654
 30
0.0
 11
1232.676182663002
 21
772.7053735245654
 31
0.0
  0
LINE
  5
FAE4
330
2
100
AcDbEntity
  8
LOGO
 62
     4
100
AcDbLine
 10
1232.676182663002
 20
773.131949764925
 30
0.0
 11
1232.676182663002
 21
772.7053735245654
 31
0.0
  0
LINE
  5
FAE5
330
2
100
AcDbEntity
  8
LOGO
 62
     4
100
AcDbLine
 10
1233.405093328175
 20
773.131949764925
 30
0.0
 11
1233.405093328175
 21
772.7053735245654
 31
0.0
  0
LINE
  5
FAE6
330
2
100
AcDbEntity
  8
LOGO
 62
     4
100
AcDbLine
 10
1233.040637995588
 20
772.7053735245654
 30
0.0
 11
1233.040637995588
 21
772.4920854043855
 31
0.0
  0
TEXT
  5
FAE7
330
2
100
AcDbEntity
  8
LOGO
  6
Continuous
100
AcDbText
 10
1232.718468804641
 20
772.7944206910859
 30
0.0
 40
0.248872176
  1
100
  7
CHINESET
100
AcDbText
  0
LINE
  5
FAE8
330
2
100
AcDbEntity
  8
LOGO
 62
     4
100
AcDbLine
 10
1233.553014034672
 20
772.4920854043855
 30
0.0
 11
1232.605066833872
 21
772.4920854043855
 31
0.0
  0
LINE
  5
FAE9
330
2
100
AcDbEntity
  8
LOGO
  6
Continuous
100
AcDbLine
 10
1233.465771254208
 20
772.9171506442868
 30
0.0
 11
1233.654131756876
 21
772.9171506442868
 31
0.0
  0
LINE
  5
FAEA
330
2
100
AcDbEntity
  8
LOGO
 62
     4
100
AcDbLine
 10
1234.414687855116
 20
772.4920854043855
 30
0.0
 11
1234.414687855116
 21
771.9707144439459
 31
0.0
  0
LINE
  5
FAEB
330
2
100
AcDbEntity
  8
LOGO
 62
     4
100
AcDbLine
 10
1233.642433737263
 20
772.4920854043855
 30
0.0
 11
1233.642433737263
 21
771.9707144439459
 31
0.0
  0
LINE
  5
FAEC
330
2
100
AcDbEntity
  8
LOGO
 62
     4
100
AcDbLine
 10
1234.414687855116
 20
771.9707144439459
 30
0.0
 11
1233.642433737263
 21
771.9707144439459
 31
0.0
  0
LINE
  5
FAED
330
2
100
AcDbEntity
  8
LOGO
 62
     4
100
AcDbLine
 10
1234.167414840198
 20
773.131949764925
 30
0.0
 11
1233.713549566393
 21
773.131949764925
 31
0.0
  0
LINE
  5
FAEE
330
2
100
AcDbEntity
  8
LOGO
 62
     4
100
AcDbLine
 10
1234.167414840198
 20
772.7053735245654
 30
0.0
 11
1233.713549566393
 21
772.7053735245654
 31
0.0
  0
LINE
  5
FAEF
330
2
100
AcDbEntity
  8
LOGO
 62
     4
100
AcDbLine
 10
1233.713549566393
 20
773.131949764925
 30
0.0
 11
1233.713549566393
 21
772.7053735245654
 31
0.0
  0
LINE
  5
FAF0
330
2
100
AcDbEntity
  8
LOGO
 62
     4
100
AcDbLine
 10
1234.167414840198
 20
773.131949764925
 30
0.0
 11
1234.167414840198
 21
772.7053735245654
 31
0.0
  0
LINE
  5
FAF1
330
2
100
AcDbEntity
  8
LOGO
 62
     4
100
AcDbLine
 10
1233.924866538617
 20
772.7053735245654
 30
0.0
 11
1233.924866538617
 21
772.4920854043855
 31
0.0
  0
TEXT
  5
FAF2
330
2
100
AcDbEntity
  8
LOGO
  6
Continuous
100
AcDbText
 10
1233.866523825853
 20
772.7944206910859
 30
0.0
 40
0.248872176
  1
0
  7
CHINESET
100
AcDbText
  0
LINE
  5
FAF3
330
2
100
AcDbEntity
  8
LOGO
 62
     4
100
AcDbLine
 10
1234.414687855116
 20
772.4920854043855
 30
0.0
 11
1233.642433737263
 21
772.4920854043855
 31
0.0
  0
TEXT
  5
FAF4
330
2
100
AcDbEntity
  8
LOGO
  6
Continuous
100
AcDbText
 10
1231.637596061523
 20
772.0443048494192
 30
9.319034683289956
 40
0.106659504
  1
Acting type
 41
0.8
  7
CHINESET
100
AcDbText
  0
TEXT
  5
FAF5
330
2
100
AcDbEntity
  8
LOGO
100
AcDbText
 10
1231.636591292054
 20
772.2420285830715
 30
9.319034683289956
 40
0.17776584
  1
作動型式
  7
CHINESET
100
AcDbText
  0
TEXT
  5
FAF6
330
2
100
AcDbEntity
  8
LOGO
  6
Continuous
100
AcDbText
 10
1232.803623028807
 20
772.0443048494192
 30
9.319034683289956
 40
0.106659504
  1
Tube I.D.
 41
0.8
  7
CHINESET
100
AcDbText
  0
TEXT
  5
FAF7
330
2
100
AcDbEntity
  8
LOGO
100
AcDbText
 10
1232.873786860221
 20
772.2420285830715
 30
9.319034683289956
 40
0.17776584
  1
內徑
  7
CHINESET
100
AcDbText
  0
TEXT
  5
FAF8
330
2
100
AcDbEntity
  8
LOGO
  6
Continuous
100
AcDbText
 10
1233.845961914876
 20
772.0443048494192
 30
9.319034683289956
 40
0.106659504
  1
Stroke
 41
0.8
  7
CHINESET
100
AcDbText
  0
TEXT
  5
FAF9
330
2
100
AcDbEntity
  8
LOGO
100
AcDbText
 10
1233.838566495488
 20
772.2420285830715
 30
9.319034683289956
 40
0.17776584
  1
行程
  7
CHINESET
100
AcDbText
  0
LINE
  5
FAFA
330
2
100
AcDbEntity
  8
LOGO
 62
     4
100
AcDbLine
 10
1234.908367168811
 20
773.131949764925
 30
0.0
 11
1234.233972477708
 21
773.131949764925
 31
0.0
  0
LINE
  5
FAFB
330
2
100
AcDbEntity
  8
LOGO
 62
     4
100
AcDbLine
 10
1234.908367168811
 20
772.7053735245654
 30
0.0
 11
1234.233972477708
 21
772.7053735245654
 31
0.0
  0
LINE
  5
FAFC
330
2
100
AcDbEntity
  8
LOGO
 62
     4
100
AcDbLine
 10
1234.233972477708
 20
773.131949764925
 30
0.0
 11
1234.233972477708
 21
772.7053735245654
 31
0.0
  0
LINE
  5
FAFD
330
2
100
AcDbEntity
  8
LOGO
 62
     4
100
AcDbLine
 10
1234.908367168811
 20
773.131949764925
 30
0.0
 11
1234.908367168811
 21
772.7053735245654
 31
0.0
  0
TEXT
  5
FAFE
330
2
100
AcDbEntity
  8
LOGO
  6
Continuous
100
AcDbText
 10
1234.333109904478
 20
772.7944206910859
 30
0.0
 40
0.248872176
  1
(M)
  7
CHINESET
100
AcDbText
  0
LINE
  5
FAFF
330
2
100
AcDbEntity
  8
LOGO
 62
     4
100
AcDbLine
 10
1235.287721827402
 20
772.4920854043855
 30
0.0
 11
1235.287721827402
 21
771.9707144439459
 31
0.0
  0
LINE
  5
FB00
330
2
100
AcDbEntity
  8
LOGO
 62
     4
100
AcDbLine
 10
1234.515467709549
 20
772.4920854043855
 30
0.0
 11
1234.515467709549
 21
771.9707144439459
 31
0.0
  0
LINE
  5
FB01
330
2
100
AcDbEntity
  8
LOGO
 62
     4
100
AcDbLine
 10
1235.287721827402
 20
771.9707144439459
 30
0.0
 11
1234.515467709549
 21
771.9707144439459
 31
0.0
  0
LINE
  5
FB02
330
2
100
AcDbEntity
  8
LOGO
 62
     4
100
AcDbLine
 10
1235.287721827402
 20
772.4920854043855
 30
0.0
 11
1234.515467709549
 21
772.4920854043855
 31
0.0
  0
TEXT
  5
FB03
330
2
100
AcDbEntity
  8
LOGO
  6
Continuous
100
AcDbText
 10
1234.6833358802
 20
772.0443048494192
 30
9.319034683289956
 40
0.106659504
  1
Magnet
 41
0.8
  7
CHINESET
100
AcDbText
  0
TEXT
  5
FB04
330
2
100
AcDbEntity
  8
LOGO
100
AcDbText
 10
1234.626456001236
 20
772.2420285830715
 30
9.319034683289956
 40
0.17776584
  1
附磁石
  7
CHINESET
100
AcDbText
  0
LINE
  5
FB05
330
2
100
AcDbEntity
  8
LOGO
 62
     4
100
AcDbLine
 10
1234.57116982326
 20
772.7053735245654
 30
0.0
 11
1234.57116982326
 21
772.5862843419925
 31
0.0
  0
TEXT
  5
FB06
330
2
100
AcDbEntity
  8
LOGO
100
AcDbText
 10
1228.606414559603
 20
771.9278666692468
 30
0.0
 40
0.142212672
  1
11005252
 41
0.7
  7
CHINESET
 72
     1
 11
1228.952465394803
 21
771.9278666692468
 31
0.0
100
AcDbText
  0
LINE
  5
FB07
330
2
100
AcDbEntity
  8
LOGO
 62
     4
100
AcDbLine
 10
1229.393808040536
 20
772.1366052040858
 30
0.0
 11
1229.393808040536
 21
771.8522210438459
 31
0.0
  0
LINE
  5
FB08
330
2
100
AcDbEntity
  8
LOGO
 62
     4
100
AcDbLine
 10
1229.393808040536
 20
772.1366052040858
 30
0.0
 11
1228.540532008537
 21
772.1366052040858
 31
0.0
  0
CIRCLE
  5
FB09
330
2
100
AcDbEntity
  8
LOGO
  6
Continuous
100
AcDbCircle
 10
1227.855871229184
 20
772.8478697545852
 30
0.0
 40
0.0825600685418994
  0
CIRCLE
  5
FB0A
330
2
100
AcDbEntity
  8
LOGO
  6
Continuous
100
AcDbCircle
 10
1227.855871229184
 20
772.8478697545852
 30
0.0
 40
0.0483728915361974
  0
LINE
  5
FB0B
330
2
100
AcDbEntity
  8
LOGO
100
AcDbLine
 10
1228.374688279766
 20
772.7653096860433
 30
0.0
 11
1228.374688279766
 21
772.930429823127
 31
0.0
  0
LINE
  5
FB0C
330
2
100
AcDbEntity
  8
LOGO
100
AcDbLine
 10
1228.115867204061
 20
772.7994968630489
 30
0.0
 11
1228.115867204061
 21
772.8962426461213
 31
0.0
  0
LINE
  5
FB0D
330
2
100
AcDbEntity
  8
LOGO
  6
Continuous
100
AcDbLine
 10
1228.115867204061
 20
772.8962426461213
 30
0.0
 11
1228.374688279766
 21
772.930429823127
 31
0.0
  0
LINE
  5
FB0E
330
2
100
AcDbEntity
  8
LOGO
  6
Continuous
100
AcDbLine
 10
1228.115867204061
 20
772.7994968630489
 30
0.0
 11
1228.374688279766
 21
772.7653096860433
 31
0.0
  0
LINE
  5
FB0F
330
2
100
AcDbEntity
  8
LOGO
  6
AM_ISO08W050x2
 48
0.3
100
AcDbLine
 10
1227.742060938459
 20
772.8478697545852
 30
0.0
 11
1227.969681519908
 21
772.8478697545852
 31
0.0
1001
GENIUS_GENOREF_13
1005
FB16
  0
LINE
  5
FB10
330
2
100
AcDbEntity
  8
LOGO
  6
AM_ISO08W050x2
 48
0.3
100
AcDbLine
 10
1227.855871229184
 20
772.7340594638604
 30
0.0
 11
1227.855871229184
 21
772.9616800453097
 31
0.0
1001
GENIUS_GENOREF_13
1005
FB15
  0
LINE
  5
FB11
330
2
100
AcDbEntity
  8
LOGO
  6
CENTER
 48
0.5
100
AcDbLine
 10
1228.095168711903
 20
772.8478697545852
 30
0.0
 11
1228.400750724242
 21
772.8478697545852
 31
0.0
1001
GENIUS_GENOREF_13
1005
FB14
  0
LINE
  5
FB12
330
2
100
AcDbEntity
  8
LOGO
 62
     4
100
AcDbLine
 10
1234.814119729777
 20
772.5862843419925
 30
0.0
 11
1234.57116982326
 21
772.5862843419925
 31
0.0
  0
LINE
  5
FB13
330
2
100
AcDbEntity
  8
LOGO
 62
     4
100
AcDbLine
 10
1234.814119729777
 20
772.5862843419927
 30
0.0
 11
1234.814119729777
 21
772.4920854043855
 31
0.0
  0
POINT
  5
FB14
330
2
100
AcDbEntity
  8
0
 60
     1
100
AcDbPoint
 10
1947.450178004943
 20
-322.1748454293597
 30
0.0
1001
GENIUS_GENOBJ-N-CRS_13
1002
{
1000
OWNER
1000
GEN
1002
}
1001
GENIUS_GENOLIS_13
1002
{
1000
ENT
1005
0
1005
0
1005
0
1005
FB11
1002
}
1001
GENIUS_GENOENT_13
1002
{
1000
MYREF
1005
FB14
1002
}
1002
{
1000
GRP
1005
0
1002
}
1001
GENIUS_GENODEF_13
1002
{
1000
HIER
1070
    10
1002
}
1002
{
1000
MANEDIT
1070
     1
1002
}
1002
{
1000
NOSEL
1070
     0
1002
}
1002
{
1000
BEHIND
1070
     0
1002
}
1002
{
1000
OTHER
1070
     0
1002
}
1002
{
1000
REACTOR
1002
}
  0
POINT
  5
FB15
330
2
100
AcDbEntity
  8
0
 60
     1
100
AcDbPoint
 10
1936.125592782088
 20
-313.2992589507235
 30
0.0
1001
GENIUS_GENOBJ-N-CRS_13
1002
{
1000
OWNER
1000
GEN
1002
}
1001
GENIUS_GENOLIS_13
1002
{
1000
ENT
1005
0
1005
0
1005
0
1005
FB10
1002
}
1001
GENIUS_GENOENT_13
1002
{
1000
MYREF
1005
FB15
1002
}
1002
{
1000
GRP
1005
0
1002
}
1001
GENIUS_GENODEF_13
1002
{
1000
HIER
1070
    10
1002
}
1002
{
1000
MANEDIT
1070
     1
1002
}
1002
{
1000
NOSEL
1070
     0
1002
}
1002
{
1000
BEHIND
1070
     0
1002
}
1002
{
1000
OTHER
1070
     0
1002
}
1002
{
1000
REACTOR
1002
}
  0
POINT
  5
FB16
330
2
100
AcDbEntity
  8
0
 60
     1
100
AcDbPoint
 10
1942.484266479925
 20
-322.1748454293597
 30
0.0
1001
GENIUS_GENOBJ-N-CRS_13
1002
{
1000
OWNER
1000
GEN
1002
}
1001
GENIUS_GENOLIS_13
1002
{
1000
ENT
1005
0
1005
0
1005
0
1005
FB0F
1002
}
1001
GENIUS_GENOENT_13
1002
{
1000
MYREF
1005
FB16
1002
}
1002
{
1000
GRP
1005
0
1002
}
1001
GENIUS_GENODEF_13
1002
{
1000
HIER
1070
    10
1002
}
1002
{
1000
MANEDIT
1070
     1
1002
}
1002
{
1000
NOSEL
1070
     0
1002
}
1002
{
1000
BEHIND
1070
     0
1002
}
1002
{
1000
OTHER
1070
     0
1002
}
1002
{
1000
REACTOR
1002
}
  0
LINE
  5
FC8F
330
2
100
AcDbEntity
  8
SL
100
AcDbLine
 10
1240.448467200781
 20
777.7304936613884
 30
0.0
 11
1240.448467200781
 21
782.307428162382
 31
0.0
  0
INSERT
  5
FC90
330
2
100
AcDbEntity
  8
0
 48
0.5
100
AcDbBlockReference
  2
A$C0FBC3824
 10
1240.420274837817
 20
782.3822222508437
 30
0.0
 41
1.199999999999999
 42
1.199999999999999
 43
1.199999999999999
  0
INSERT
  5
FC91
330
2
100
AcDbEntity
  8
0
 48
0.5
100
AcDbBlockReference
  2
A$C7A150A0F
 10
1240.448467200781
 20
782.1777581420519
 30
0.0
 41
1.199999999999999
 42
1.199999999999999
 43
1.199999999999999
  0
TEXT
  5
FD1F
330
2
100
AcDbEntity
  8
0
100
AcDbText
 10
1225.787917365954
 20
785.3217910885531
 30
0.0
 40
0.2
  1
NOTE:The length is the same, whether it is with magnet or not.
100
AcDbText
  0
TEXT
  5
FD20
330
2
100
AcDbEntity
  8
0
100
AcDbText
 10
1243.676782685711
 20
773.5039598506617
 30
0.0
 40
0.15
  1
UNIT:inch
100
AcDbText
  0
VIEWPORT
  5
D953
102
{ACAD_XDICTIONARY
360
FD3A
102
}
330
BBB
100
AcDbEntity
 67
     1
  8
0
 62
     5
100
AcDbViewport
 10
144.7270812988281
 20
101.2295806407928
 30
0.0
 40
399.2669429819803
 41
222.1517806396485
 68
     1
 69
     1
 12
144.7270812988281
 22
101.2295806407928
 13
0.0
 23
0.0
 14
10.0
 24
10.0
 15
10.0
 25
10.0
 16
0.0
 26
0.0
 36
1.0
 17
0.0
 27
0.0
 37
0.0
 42
50.0
 43
0.0
 44
0.0
 45
222.1517806396485
 50
0.0
 51
0.0
 72
   100
 90
    32800
  1

281
     0
 71
     1
 74
     0
110
0.0
120
0.0
130
0.0
111
1.0
121
0.0
131
0.0
112
0.0
122
1.0
132
0.0
 79
     0
146
0.0
1001
GENIUS_GENOBJ-N-SDF_13
1002
{
1000
OWNER
1000
GEN
1002
}
1001
GENIUS_GENODEF_13
1002
{
1000
HIER
1070
     0
1002
}
1002
{
1000
MANEDIT
1070
     0
1002
}
1002
{
1000
NOSEL
1070
     0
1002
}
1002
{
1000
BEHIND
1070
     0
1002
}
1002
{
1000
OTHER
1070
     0
1002
}
1002
{
1000
REACTOR
1002
}
1001
GENIUS_GENSCREG_15
1000
PF
1040
1.0
1000
DF
1040
1.0
1000
MIN
1011
-54.906390192162
1021
-9.846309679031378
1031
0.0
1000
MAX
1011
344.3605527898183
1021
212.3054709606171
1031
0.0
1000
FLAGS
1070
     2
  0
VIEWPORT
  5
D955
102
{ACAD_XDICTIONARY
360
FD3C
102
}
330
BBB
100
AcDbEntity
 67
     1
  8
DIM
 62
     5
100
AcDbViewport
 10
139.2237563133239
 20
101.2295821905136
 30
0.0
 40
222.7580101013184
 41
161.9673315048218
 68
     2
 69
     2
 12
1282.775856856608
 22
808.0711763492697
 13
0.0
 23
0.0
 14
0.5
 24
0.5
 15
0.5
 25
0.5
 16
0.0
 26
0.0
 36
1.0
 17
0.0
 27
0.0
 37
0.0
 42
50.0
 43
0.0
 44
0.0
 45
1492.564878381468
 50
0.0
 51
0.0
 72
   100
 90
    33312
  1

281
     0
 71
     1
 74
     0
110
0.0
120
0.0
130
0.0
111
1.0
121
0.0
131
0.0
112
0.0
122
1.0
132
0.0
 79
     0
146
0.0
1001
GENIUS_GENOBJ-N-SDF_13
1002
{
1000
OWNER
1000
GEN
1002
}
1001
GENIUS_GENODEF_13
1002
{
1000
HIER
1070
     0
1002
}
1002
{
1000
MANEDIT
1070
     0
1002
}
1002
{
1000
NOSEL
1070
     0
1002
}
1002
{
1000
BEHIND
1070
     0
1002
}
1002
{
1000
OTHER
1070
     0
1002
}
1002
{
1000
REACTOR
1002
}
1001
GENIUS_GENSCREG_15
1000
PF
1040
0.0
1000
DF
1040
0.0
1000
MIN
1011
27.8447512626648
1021
20.24591643810271
1031
0.0
1000
MAX
1011
250.6027613639831
1021
182.2132479429245
1031
0.0
1000
FLAGS
1070
     2
  0
ENDSEC
  0
SECTION
  2
OBJECTS
  0
DICTIONARY
  5
8
330
0
100
AcDbDictionary
281
     1
  3
ACAD_COLOR
350
F8EB
  3
ACAD_GROUP
350
24
  3
ACAD_LAYOUT
350
C
  3
ACAD_MATERIAL
350
F8EA
  3
ACAD_MLINESTYLE
350
25
  3
ACAD_PLOTSETTINGS
350
26
  3
ACAD_PLOTSTYLENAME
350
7
  3
ACAD_TABLESTYLE
350
F8EC
  3
AcadDim
350
E5B8
  3
ACDBHEADERROUNDTRIPXREC
350
FD31
  3
AcDbVariableDictionary
350
1F1
  3
AcmDictionary
350
F630
  3
AMG
350
F616
  3
AMGSNAPSETTINGS
350
F666
  3
DWGPROPS
350
FD30
  3
MAPISURF_MODULE
350
F97C
  0
DICTIONARY
  5
F9DB
330
11
100
AcDbDictionary
280
     1
281
     1
  3
ACAD_LAYERSTATES
360
F9DC
  0
DICTIONARY
  5
3
330
2
100
AcDbDictionary
280
     1
281
     1
  3
ACAD_INDEX
360
FD22
  3
ACAD_LAYOUTSELFREF
360
F8C0
  0
DICTIONARY
  5
F5CE
330
BBB
100
AcDbDictionary
280
     1
281
     1
  3
ACAD_LAYOUTSELFREF
360
F8D0
  0
DICTIONARY
  5
F5D0
330
D
100
AcDbDictionary
280
     1
281
     1
  3
ACAD_LAYOUTSELFREF
360
F8C5
  0
DICTIONARY
  5
FC75
330
FC74
100
AcDbDictionary
280
     1
281
     1
  3
ACAD_SORTENTS
360
FC76
  0
DICTIONARY
  5
FC7D
330
FC7C
100
AcDbDictionary
280
     1
281
     1
  3
ACAD_SORTENTS
360
FC7E
  0
DICTIONARY
  5
FD36
330
640
100
AcDbDictionary
280
     1
281
     1
  3
ACAD_XREC_ROUNDTRIP
360
FD37
  0
DICTIONARY
  5
FBD6
330
E303
100
AcDbDictionary
280
     1
281
     1
  3
ACMDIMBREAKPERSREACTOR
360
FBD7
  0
DICTIONARY
  5
FBF1
330
E310
100
AcDbDictionary
280
     1
281
     1
  3
ACMDIMBREAKPERSREACTOR
360
FBF2
  0
DICTIONARY
  5
FC17
330
E337
100
AcDbDictionary
280
     1
281
     1
  3
ACMDIMBREAKPERSREACTOR
360
FC18
  0
DICTIONARY
  5
FC31
330
E344
100
AcDbDictionary
280
     1
281
     1
  3
ACMDIMBREAKPERSREACTOR
360
FC32
  0
DICTIONARY
  5
FD3A
330
D953
100
AcDbDictionary
280
     1
281
     1
  3
ACAD_XREC_ROUNDTRIP
360
FD3B
  0
DICTIONARY
  5
FD3C
330
D955
100
AcDbDictionary
280
     1
281
     1
  3
ACAD_XREC_ROUNDTRIP
360
FD3D
  0
DICTIONARY
  5
F8EB
102
{ACAD_REACTORS
330
8
102
}
330
8
100
AcDbDictionary
281
     1
  0
DICTIONARY
  5
24
102
{ACAD_REACTORS
330
8
102
}
330
8
100
AcDbDictionary
281
     1
  0
DICTIONARY
  5
C
102
{ACAD_REACTORS
330
8
102
}
330
8
100
AcDbDictionary
281
     1
  3
Layout1
350
BBC
  3
Layout2
350
10
  3
Model
350
B
  0
DICTIONARY
  5
F8EA
102
{ACAD_REACTORS
330
8
102
}
330
8
100
AcDbDictionary
281
     1
  0
DICTIONARY
  5
25
102
{ACAD_REACTORS
330
8
102
}
330
8
100
AcDbDictionary
281
     1
  3
STANDARD
350
28
  0
DICTIONARY
  5
26
102
{ACAD_REACTORS
330
8
102
}
330
8
100
AcDbDictionary
281
     1
  0
ACDBDICTIONARYWDFLT
  5
7
102
{ACAD_REACTORS
330
8
102
}
330
8
100
AcDbDictionary
281
     1
  3
Normal
350
6
100
AcDbDictionaryWithDefault
340
6
  0
DICTIONARY
  5
F8EC
102
{ACAD_REACTORS
330
8
102
}
330
8
100
AcDbDictionary
281
     1
  3
Standard
350
F8ED
  0
XRECORD
  5
E5B8
102
{ACAD_REACTORS
330
8
102
}
330
8
100
AcDbXrecord
280
     1
 90
   990106
  3

 60
     0
 61
     0
 62
     1
 63
     3
 64
     0
 65
     0
 66
     0
 67
     3
 68
     1
 69
     0
 70
     0
 71
     0
 72
     0
 40
0.7629527293183856
170
     0
340
E5C4
  0
DICTIONARY
  5
FD31
102
{ACAD_REACTORS
330
8
102
}
330
8
100
AcDbDictionary
281
     1
  0
DICTIONARY
  5
1F1
102
{ACAD_REACTORS
330
8
102
}
330
8
100
AcDbDictionary
281
     1
  3
CTABLESTYLE
350
FBD1
  3
DIMASSOC
350
1F3
  3
HIDETEXT
350
1F2
  3
INDEXCTL
350
F6D4
  3
PROJECTNAME
350
FD2E
  0
DICTIONARY
  5
F630
102
{ACAD_REACTORS
330
8
102
}
330
8
100
AcDbDictionary
281
     1
  3
AcmStdDictionary
350
F636
  3
AMDTSECTSYM_ARROWCOLOR
350
F9C9
  0
DICTIONARY
  5
F616
102
{ACAD_REACTORS
330
8
102
}
330
8
100
AcDbDictionary
281
     1
  3
AcMgSettings
350
F617
  0
DICTIONARY
  5
F666
102
{ACAD_REACTORS
330
8
102
}
330
8
100
AcDbDictionary
281
     1
  0
XRECORD
  5
FD30
102
{ACAD_REACTORS
330
8
102
}
330
8
100
AcDbXrecord
280
     1
  1
DWGPROPS COOKIE
  2

  3

  4

  6

  7

  8

  9

300
AmdtFileType=84
301
=
302
=
303
=
304
=
305
=
306
=
307
=
308
=
309
=
 40
0.9922367592592593
 41
2452243.440373877
 42
2455342.654199931
  1

 90
        1
  0
DICTIONARY
  5
F9DC
102
{ACAD_REACTORS
330
F9DB
102
}
330
F9DB
100
AcDbDictionary
281
     1
  0
DICTIONARY
  5
FD22
102
{ACAD_REACTORS
330
3
102
}
330
3
100
AcDbDictionary
281
     1
  3
*A1
350
FD23
  0
XRECORD
  5
F8C0
102
{ACAD_REACTORS
330
3
102
}
330
3
100
AcDbXrecord
280
     1
340
2
  0
XRECORD
  5
F8D0
102
{ACAD_REACTORS
330
F5CE
102
}
330
F5CE
100
AcDbXrecord
280
     1
340
BBB
  0
XRECORD
  5
F8C5
102
{ACAD_REACTORS
330
F5D0
102
}
330
F5D0
100
AcDbXrecord
280
     1
340
D
  0
SORTENTSTABLE
  5
FC76
102
{ACAD_REACTORS
330
FC75
102
}
330
FC75
100
AcDbSortentsTable
330
FC74
  0
SORTENTSTABLE
  5
FC7E
102
{ACAD_REACTORS
330
FC7D
102
}
330
FC7D
100
AcDbSortentsTable
330
FC7C
  0
XRECORD
  5
FD37
102
{ACAD_REACTORS
330
FD36
102
}
330
FD36
100
AcDbXrecord
280
     1
102
SHADEPLOT
 70
     0
  0
XRECORD
  5
FD3B
102
{ACAD_REACTORS
330
FD3A
102
}
330
FD3A
100
AcDbXrecord
280
     1
102
SHADEPLOT
 70
     0
  0
XRECORD
  5
FD3D
102
{ACAD_REACTORS
330
FD3C
102
}
330
FD3C
100
AcDbXrecord
280
     1
102
SHADEPLOT
 70
     0
  0
LAYOUT
  5
BBC
102
{ACAD_XDICTIONARY
360
FD38
102
}
102
{ACAD_REACTORS
330
C
102
}
330
C
100
AcDbPlotSettings
  1

  2
自動 RD 上的 Epson Stylus Photo 750 單色
  4
A4
  6

 40
3.757083177566528
 41
14.7637300491333
 42
3.757080078125
 43
3.757080078125
 44
209.9733276367187
 45
296.9683227539062
 46
0.0
 47
0.0
 48
0.0
 49
0.0
140
0.0
141
0.0
142
1.0
143
1.0
 70
   688
 72
     1
 73
     1
 74
     5
  7

 75
    16
147
1.0
148
0.0
149
0.0
100
AcDbLayout
  1
Layout1
 70
     1
 71
     2
 10
-3.757080078125
 20
-3.757083177566528
 11
293.2112426757813
 21
206.2162444591522
 12
0.0
 22
0.0
 32
0.0
 14
27.8447512626648
 24
20.24591643810271
 34
0.0
 15
250.6027613639831
 25
182.2132479429245
 35
0.0
146
0.0
 13
0.0
 23
0.0
 33
0.0
 16
1.0
 26
0.0
 36
0.0
 17
0.0
 27
1.0
 37
0.0
 76
     0
330
BBB
331
D953
  0
LAYOUT
  5
10
102
{ACAD_XDICTIONARY
360
FD34
102
}
102
{ACAD_REACTORS
330
C
102
}
330
C
100
AcDbPlotSettings
  1

  2
自動 RD 上的 Epson Stylus Photo 750 單色
  4
A4
  6

 40
3.757083177566528
 41
14.7637300491333
 42
3.757080078125
 43
3.757080078125
 44
209.9733276367187
 45
296.9683227539062
 46
0.0
 47
0.0
 48
0.0
 49
0.0
140
0.0
141
0.0
142
1.0
143
1.0
 70
   688
 72
     1
 73
     1
 74
     5
  7

 75
    16
147
1.0
148
0.0
149
0.0
100
AcDbLayout
  1
Layout2
 70
     1
 71
     1
 10
-3.757080078125
 20
-3.757083177566528
 11
293.2112426757813
 21
206.2162444591522
 12
0.0
 22
0.0
 32
0.0
 14
1.000000000000000E+20
 24
1.000000000000000E+20
 34
1.000000000000000E+20
 15
-1.000000000000000E+20
 25
-1.000000000000000E+20
 35
-1.000000000000000E+20
146
0.0
 13
0.0
 23
0.0
 33
0.0
 16
1.0
 26
0.0
 36
0.0
 17
0.0
 27
1.0
 37
0.0
 76
     0
330
D
331
640
  0
LAYOUT
  5
B
102
{ACAD_XDICTIONARY
360
FD32
102
}
102
{ACAD_REACTORS
330
C
102
}
330
C
100
AcDbPlotSettings
  1

  2
DWF eView (optimized for viewing).pc3
  4
ISO_A3_(297.00_x_420.00_MM)
  6

 40
5.793749809265136
 41
17.79375076293945
 42
5.79376220703125
 43
17.79376220703125
 44
297.0
 45
420.0
 46
4.318
 47
0.0
 48
0.0
 49
0.0
140
0.0
141
0.0
142
1.0
143
1.179160149641228
 70
 11924
 72
     0
 73
     1
 74
     1
  7

 75
     0
147
0.8480612241723571
148
-30491.84288354122
149
-19569.27881562523
100
AcDbLayout
  1
Model
 70
     1
 71
     0
 10
0.0
 20
0.0
 11
12.0
 21
9.0
 12
0.0
 22
0.0
 32
0.0
 14
0.0
 24
0.0
 34
0.0
 15
0.0
 25
0.0
 35
0.0
146
0.0
 13
0.0
 23
0.0
 33
0.0
 16
1.0
 26
0.0
 36
0.0
 17
0.0
 27
1.0
 37
0.0
 76
     0
330
2
  0
MLINESTYLE
  5
28
102
{ACAD_REACTORS
330
25
102
}
330
25
100
AcDbMlineStyle
  2
STANDARD
 70
     0
  3

 62
     0
 51
90.0
 52
90.0
 71
     2
 49
0.5
 62
   256
  6
BYLAYER
 49
-0.5
 62
   256
  6
BYLAYER
  0
ACDBPLACEHOLDER
  5
6
102
{ACAD_REACTORS
330
7
102
}
330
7
  0
TABLESTYLE
  5
F8ED
102
{ACAD_REACTORS
330
F8EC
102
}
330
F8EC
100
AcDbTableStyle
  3
Standard
 70
     0
 71
     0
 40
1.5
 41
1.5
280
     0
281
     0
  7
STANDARD
140
4.5
170
     2
 62
     0
 63
     7
283
     0
274
    -2
284
     1
 64
     0
275
    -2
285
     1
 65
     0
276
    -2
286
     1
 66
     0
277
    -2
287
     1
 67
     0
278
    -2
288
     1
 68
     0
279
    -2
289
     1
 69
     0
  7
STANDARD
140
6.0
170
     5
 62
     0
 63
     7
283
     0
274
    -2
284
     1
 64
     0
275
    -2
285
     1
 65
     0
276
    -2
286
     1
 66
     0
277
    -2
287
     1
 67
     0
278
    -2
288
     1
 68
     0
279
    -2
289
     1
 69
     0
  7
STANDARD
140
4.5
170
     5
 62
     0
 63
     7
283
     0
274
    -2
284
     1
 64
     0
275
    -2
285
     1
 65
     0
276
    -2
286
     1
 66
     0
277
    -2
287
     1
 67
     0
278
    -2
288
     1
 68
     0
279
    -2
289
     1
 69
     0
  0
DICTIONARYVAR
  5
FBD1
102
{ACAD_REACTORS
330
1F1
102
}
330
1F1
100
DictionaryVariables
280
     0
  1
STANDARD
  0
DICTIONARYVAR
  5
1F3
102
{ACAD_REACTORS
330
1F1
102
}
330
1F1
100
DictionaryVariables
280
     0
  1
1
  0
DICTIONARYVAR
  5
1F2
102
{ACAD_REACTORS
330
1F1
102
}
330
1F1
100
DictionaryVariables
280
     0
  1
1
  0
DICTIONARYVAR
  5
F6D4
102
{ACAD_REACTORS
330
1F1
102
}
330
1F1
100
DictionaryVariables
280
     0
  1
1
  0
DICTIONARYVAR
  5
FD2E
102
{ACAD_REACTORS
330
1F1
102
}
330
1F1
100
DictionaryVariables
280
     0
  1

  0
DICTIONARY
  5
F636
102
{ACAD_REACTORS
330
F630
102
}
330
F630
100
AcDbDictionary
281
     1
  0
XRECORD
  5
F9C9
102
{ACAD_REACTORS
330
F630
102
}
330
F630
100
AcDbXrecord
280
     1
 90
-1023410169
  0
DICTIONARY
  5
F617
102
{ACAD_REACTORS
330
F616
102
}
330
F616
100
AcDbDictionary
281
     1
  3
DWGSETTINGS
350
F8F7
  3
TRANSSETTINGS
350
F8FB
  0
LAYER_INDEX
  5
FD23
102
{ACAD_REACTORS
330
FD22
102
}
330
FD22
100
AcDbIndex
 40
2455342.654199931
100
AcDbLayerIndex
  8
0
360
FD24
 90
        7
  8
AM_VIS
360
FD25
 90
      430
  8
AM_7
360
FD26
 90
       94
  8
AM_4
360
FD27
 90
       39
  8
DIM
360
FD28
 90
      120
  8
Defpoints
360
FD29
 90
        0
  8
LOGO
360
FD2A
 90
      131
  8
AM_HID
360
FD2B
 90
      194
  8
SL
360
FD2C
 90
        1
  0
DICTIONARY
  5
FD38
330
BBC
100
AcDbDictionary
280
     1
281
     1
  3
ACAD_XREC_ROUNDTRIP
360
FD39
  0
DICTIONARY
  5
FD34
330
10
100
AcDbDictionary
280
     1
281
     1
  3
ACAD_XREC_ROUNDTRIP
360
FD35
  0
DICTIONARY
  5
FD32
330
B
100
AcDbDictionary
280
     1
281
     1
  3
ACAD_XREC_ROUNDTRIP
360
FD33
  0
IDBUFFER
  5
FD24
330
0
100
AcDbIdBuffer
330
FB14
330
FB15
330
FB16
330
FC90
330
FC91
330
FD1F
330
FD20
  0
IDBUFFER
  5
FD25
330
0
100
AcDbIdBuffer
330
A007
330
A008
330
A009
330
A00A
330
A00C
330
A00D
330
A00E
330
A00F
330
A010
330
A011
330
A014
330
A016
330
A018
330
A01A
330
A01C
330
A01E
330
A020
330
A022
330
A023
330
A024
330
A025
330
A026
330
A027
330
A028
330
A029
330
A02A
330
A02B
330
A02C
330
A02D
330
A02F
330
A030
330
A031
330
A032
330
A033
330
A034
330
A037
330
A039
330
A03B
330
A03D
330
A03F
330
A041
330
A043
330
A045
330
A046
330
A047
330
A048
330
A049
330
A04A
330
A04B
330
A04C
330
A04D
330
A04E
330
A04F
330
A050
330
A051
330
A054
330
A055
330
A058
330
A05A
330
A05B
330
A05E
330
A05F
330
A061
330
A064
330
A065
330
A068
330
A069
330
A06A
330
A06B
330
A06C
330
A06D
330
A06E
330
A075
330
A076
330
A077
330
A078
330
A079
330
A07A
330
A07B
330
A07C
330
A07D
330
A07E
330
A07F
330
A080
330
A081
330
A082
330
A083
330
A086
330
A087
330
A08A
330
A08C
330
A08D
330
A090
330
A091
330
A093
330
A096
330
A097
330
A09A
330
A09B
330
A09C
330
A09D
330
A09E
330
A09F
330
A0A0
330
A0A7
330
A0A8
330
A0CF
330
A0D0
330
A0D1
330
A0D2
330
A0D3
330
A0D4
330
A0D5
330
A0D6
330
A0D7
330
A0D8
330
A0DF
330
A0E0
330
A0E1
330
A0E2
330
A0E5
330
A0E6
330
A142
330
A143
330
A144
330
A145
330
A146
330
A147
330
A148
330
A149
330
A14A
330
A14C
330
A14D
330
A14F
330
A150
330
A151
330
A156
330
A159
330
A160
330
A161
330
A163
330
A166
330
A167
330
A168
330
A19C
330
A19D
330
A25E
330
A261
330
A27E
330
A281
330
A35D
330
A35E
330
A35F
330
A360
330
A361
330
A362
330
A364
330
A36C
330
A36D
330
A36E
330
A36F
330
A370
330
A372
330
A373
330
A374
330
A377
330
A390
330
A3B1
330
A3B2
330
A3CC
330
A3CD
330
A3E4
330
A3E5
330
A3EA
330
A424
330
A425
330
A426
330
A427
330
A42A
330
A433
330
A434
330
A435
330
A43E
330
A43F
330
A45B
330
A45C
330
A46B
330
A46C
330
A486
330
A487
330
9CE8
330
9CEA
330
9CEC
330
9CEE
330
9CF0
330
9CF2
330
9CF7
330
9CF8
330
9CF9
330
9CFA
330
9CFB
330
9CFC
330
9CFD
330
9CFE
330
9CFF
330
9D00
330
9D01
330
9D02
330
9D03
330
9D04
330
9D05
330
9D06
330
9D07
330
9D08
330
9D09
330
9D0A
330
9D0B
330
9D0C
330
9D0D
330
9D0E
330
9D0F
330
9D10
330
9D11
330
9D12
330
9D13
330
9D14
330
9D15
330
9D16
330
9D17
330
9D18
330
9D19
330
9D1A
330
9D1B
330
9D1C
330
9D1D
330
9D1E
330
9D1F
330
9D20
330
9D21
330
9D22
330
9D23
330
9D24
330
9D25
330
9D26
330
9D27
330
9D28
330
9D29
330
9D2A
330
9D2B
330
9D2C
330
9D2D
330
9D2E
330
9D2F
330
9D30
330
9D31
330
9D32
330
9D33
330
9D39
330
9D3A
330
9D3B
330
9D3C
330
9D3D
330
9D3E
330
9D3F
330
9D40
330
9D41
330
9D42
330
9D43
330
9D44
330
9D4F
330
9D53
330
9D57
330
9D5B
330
9E1A
330
9E1B
330
9E37
330
9E38
330
9E39
330
9E3A
330
9E3B
330
9E3C
330
9E3D
330
9E3E
330
9E3F
330
9E40
330
9E41
330
9E42
330
9E4B
330
9E4C
330
9E4D
330
9E4E
330
9E4F
330
9E50
330
9E51
330
9E52
330
9E53
330
9E54
330
9E55
330
9E56
330
9E57
330
9E58
330
9E59
330
9E5A
330
9E5B
330
9E5C
330
9E5D
330
9E5E
330
9E5F
330
9E68
330
9E69
330
9E6A
330
9E6B
330
9E6C
330
9E6D
330
9E6E
330
9E6F
330
9E70
330
9E71
330
9E72
330
9E73
330
9E74
330
9E75
330
9E76
330
9E77
330
9E78
330
9E79
330
9E7A
330
9E7B
330
9E7C
330
9E85
330
9E86
330
9E87
330
9E88
330
9E89
330
9E8A
330
9E8B
330
9E8C
330
9E8D
330
9E8E
330
9E8F
330
9E90
330
9E91
330
9E92
330
9E93
330
9E94
330
9E95
330
9E96
330
9E97
330
9E98
330
9E99
330
9EA2
330
9EA3
330
9EA4
330
9EA5
330
9EA6
330
9EA7
330
9EA8
330
9EA9
330
9EAA
330
9EAE
330
9EB2
330
9EB6
330
9EBA
330
9F59
330
9F5A
330
9F5B
330
9F5C
330
9F5D
330
9F5E
330
9F5F
330
9F60
330
9F61
330
9F62
330
9F63
330
9F64
330
9F65
330
9F67
330
9F68
330
9F69
330
9F6A
330
9F6B
330
9F6C
330
9F6D
330
9F6E
330
9F6F
330
9F70
330
9F71
330
9F72
330
9F73
330
9F74
330
9F75
330
9F76
330
9F77
330
9F78
330
9F79
330
9F7A
330
9F7B
330
9F7C
330
9F7D
330
9F7E
330
9F7F
330
9F80
330
9F81
330
9F82
330
9F83
330
9F84
330
9F85
330
9F86
330
9F87
330
9F88
330
9F89
330
9F8A
330
9F8B
330
9F8C
330
9F8F
330
9F90
330
9F91
330
9F92
330
9F93
330
9F94
330
9F96
330
9FD5
330
9FFF
330
A000
330
A001
330
A002
330
A003
330
A004
330
A005
330
A006
  0
IDBUFFER
  5
FD26
330
0
100
AcDbIdBuffer
330
9EE1
330
9EE2
330
9EE3
330
9EE4
330
9EE5
330
9EE6
330
9EE7
330
9EE8
330
9EE9
330
9EEA
330
9EEB
330
9EEC
330
9EED
330
9EEE
330
9EEF
330
9EF0
330
9EF1
330
9EF2
330
9EF3
330
9EF4
330
9EF5
330
9EF6
330
9EF7
330
9EF8
330
9EF9
330
9EFA
330
9EFB
330
9F18
330
9F19
330
9F1A
330
9F1B
330
9F1C
330
9F1D
330
9F1E
330
9F1F
330
9F20
330
9F22
330
9F23
330
9F24
330
9F25
330
9F26
330
9F27
330
9F28
330
9F29
330
9F2A
330
9F2B
330
4695
330
46DE
330
46DF
330
46E0
330
46E1
330
46E2
330
46E3
330
46E4
330
46E5
330
46E6
330
46E7
330
46E8
330
46E9
330
46EA
330
46EB
330
46EC
330
46ED
330
46EE
330
46EF
330
46F0
330
46F1
330
46F2
330
46F3
330
46F4
330
46F5
330
46F6
330
46F7
330
46F8
330
46F9
330
46FA
330
46FB
330
9EC7
330
9EC8
330
9ECA
330
9ECB
330
9ECE
330
9ECF
330
9ED0
330
9ED1
330
9ED2
330
9ED4
330
9ED5
330
9ED9
330
9EDC
330
9EDD
330
9EDE
330
9EDF
330
9EE0
  0
IDBUFFER
  5
FD27
330
0
100
AcDbIdBuffer
330
9F2D
330
9F2E
330
9F2F
330
9F30
330
9F31
330
9F32
330
9F33
330
9F34
330
9F35
330
9F36
330
9F37
330
9F38
330
9F39
330
9F3A
330
9F3F
330
9F45
330
9F46
330
9F49
330
9F4A
330
9F4F
330
9F50
330
9F51
330
9F52
330
9EFF
330
9F00
330
9F01
330
9F02
330
9F03
330
9F04
330
9F08
330
9F09
330
9F0A
330
9F0B
330
9F0C
330
9F0D
330
9F14
330
9F15
330
9F16
330
9F17
  0
IDBUFFER
  5
FD28
330
0
100
AcDbIdBuffer
330
E395
330
E396
330
E5BA
330
E5BC
330
E5BE
330
E5C0
330
E5C2
330
E5C4
330
57F
330
9C8
330
9CE
330
9D0
330
9D4
330
158C
330
158F
330
1591
330
1598
330
159A
330
159D
330
159F
330
15A2
330
1ECC
330
1ECE
330
1ED0
330
1ED2
330
1ED4
330
5255
330
55B3
330
55B5
330
55B7
330
55B9
330
55BB
330
55BE
330
5818
330
581A
330
581C
330
581E
330
5820
330
5823
330
5825
330
5BAB
330
5BAD
330
5BAF
330
5BB1
330
5BB3
330
5BB5
330
5D19
330
5D1B
330
5D1D
330
5D1F
330
5D21
330
5D24
330
5E8E
330
5E90
330
5E92
330
5E94
330
5E96
330
5E99
330
5FD8
330
5FDA
330
5FDC
330
5FDE
330
5FE0
330
DC7D
330
DC7F
330
DC81
330
DC93
330
DC96
330
DC99
330
DC9C
330
DEB7
330
DEB8
330
DEB9
330
DEBA
330
DEBB
330
DEBC
330
DEBD
330
DEBE
330
DEE9
330
DEEB
330
DEEF
330
DEF1
330
DEF3
330
DEF5
330
E074
330
E076
330
E078
330
E07A
330
E07C
330
E07E
330
E254
330
E261
330
E26E
330
E27B
330
E288
330
E295
330
E2A2
330
E2B0
330
E2BD
330
E2CB
330
E2D9
330
E2E8
330
E2F5
330
E303
330
E310
330
E31D
330
E32A
330
E337
330
E344
330
E351
330
E38B
330
E38C
330
E38D
330
E38E
330
E38F
330
E390
330
E391
330
E392
330
E393
330
E394
  0
IDBUFFER
  5
FD29
330
0
100
AcDbIdBuffer
  0
IDBUFFER
  5
FD2A
330
0
100
AcDbIdBuffer
330
FB01
330
FB02
330
FB03
330
FB04
330
FB05
330
FB06
330
FB07
330
FB08
330
FB09
330
FB0A
330
FB0B
330
FB0C
330
FB0D
330
FB0E
330
FB0F
330
FB10
330
FB11
330
FB12
330
FB13
330
2415
330
FA7D
330
FA7E
330
FA7F
330
FA80
330
FA81
330
FA82
330
FA83
330
FA84
330
FA85
330
FA86
330
FA87
330
FA88
330
FA89
330
FA8A
330
FA8B
330
FA8C
330
FA8D
330
FA8E
330
FA8F
330
FA90
330
FA91
330
FA92
330
FA93
330
FA94
330
FA98
330
FA9C
330
FA9D
330
FAA1
330
FAA2
330
FAA3
330
FAA4
330
FAA5
330
FAA6
330
FAA7
330
FAA8
330
FAAC
330
FAB0
330
FAB4
330
FAB5
330
FAB6
330
FABA
330
FABB
330
FABC
330
FABD
330
FABE
330
FABF
330
FAC0
330
FAC1
330
FAC2
330
FAC3
330
FAC4
330
FAC5
330
FAC6
330
FAC7
330
FAC8
330
FAC9
330
FACA
330
FACB
330
FACC
330
FACD
330
FACE
330
FACF
330
FAD0
330
FAD1
330
FAD2
330
FAD3
330
FAD4
330
FAD5
330
FAD6
330
FAD7
330
FAD8
330
FAD9
330
FADA
330
FADB
330
FADC
330
FADD
330
FADE
330
FADF
330
FAE0
330
FAE1
330
FAE2
330
FAE3
330
FAE4
330
FAE5
330
FAE6
330
FAE7
330
FAE8
330
FAE9
330
FAEA
330
FAEB
330
FAEC
330
FAED
330
FAEE
330
FAEF
330
FAF0
330
FAF1
330
FAF2
330
FAF3
330
FAF4
330
FAF5
330
FAF6
330
FAF7
330
FAF8
330
FAF9
330
FAFA
330
FAFB
330
FAFC
330
FAFD
330
FAFE
330
FAFF
330
FB00
  0
IDBUFFER
  5
FD2B
330
0
100
AcDbIdBuffer
330
A274
330
A275
330
A276
330
A277
330
A278
330
A279
330
A27A
330
A27B
330
A27C
330
A27D
330
A27F
330
A280
330
A282
330
A283
330
A284
330
A285
330
A286
330
A287
330
A288
330
A289
330
A28A
330
A28B
330
A28C
330
A28D
330
A28E
330
A28F
330
A290
330
A396
330
A397
330
A398
330
A399
330
A39A
330
A39B
330
A3AD
330
A3AE
330
A3AF
330
A3B0
330
A3C6
330
A3C7
330
A3C8
330
A3C9
330
A3D4
330
A3D5
330
A3D6
330
A3D7
330
A3D8
330
A3D9
330
A3DA
330
A3DB
330
A3E7
330
A3E8
330
A3E9
330
A40F
330
A410
330
A411
330
A412
330
A44A
330
A44B
330
A44C
330
A44D
330
A44E
330
A44F
330
A450
330
A451
330
A452
330
A453
330
A457
330
A46E
330
A46F
330
A470
330
A471
330
A478
330
A479
330
A47A
330
A47B
330
A47C
330
A47D
330
A47E
330
A47F
330
A480
330
A481
330
A49C
330
9D9A
330
9F9C
330
9F9D
330
9F9E
330
9F9F
330
9FA0
330
9FA1
330
9FA2
330
9FA3
330
9FA4
330
9FA5
330
9FA6
330
9FA7
330
9FC1
330
9FC2
330
9FC3
330
9FC4
330
9FC5
330
9FC6
330
9FC7
330
9FC8
330
A1CD
330
A1CE
330
A1CF
330
A1D0
330
A1D1
330
A1D2
330
A1D3
330
A1D4
330
A1D5
330
A1D6
330
A1D7
330
A1D8
330
A1D9
330
A1DA
330
A1DB
330
A1DC
330
A1DD
330
A1DE
330
A1DF
330
A1E0
330
A1E1
330
A1E2
330
A1E3
330
A1E4
330
A1E5
330
A1E6
330
A1E7
330
A1E8
330
A1E9
330
A1EA
330
A1EB
330
A1EC
330
A1ED
330
A1EE
330
A1EF
330
A1F0
330
A1F1
330
A1F2
330
A1F3
330
A1F4
330
A1F5
330
A1F6
330
A1F7
330
A1F8
330
A225
330
A226
330
A227
330
A228
330
A229
330
A22A
330
A22B
330
A22C
330
A22D
330
A22E
330
A22F
330
A230
330
A231
330
A232
330
A233
330
A234
330
A235
330
A236
330
A237
330
A238
330
A239
330
A23A
330
A23B
330
A23C
330
A23D
330
A23E
330
A23F
330
A240
330
A241
330
A242
330
A243
330
A244
330
A245
330
A246
330
A247
330
A248
330
A249
330
A24A
330
A24B
330
A24C
330
A24D
330
A24E
330
A24F
330
A250
330
A271
330
A272
330
A273
  0
IDBUFFER
  5
FD2C
330
0
100
AcDbIdBuffer
330
FC8F
  0
XRECORD
  5
FD39
102
{ACAD_REACTORS
330
FD38
102
}
330
FD38
100
AcDbXrecord
280
     1
102
SHADEPLOT
 70
     0
102
SHADEPLOTRESLEVEL
 70
     2
102
SHADEPLOTCUSTOMDPI
 70
   300
  0
XRECORD
  5
FD35
102
{ACAD_REACTORS
330
FD34
102
}
330
FD34
100
AcDbXrecord
280
     1
102
SHADEPLOT
 70
     0
102
SHADEPLOTRESLEVEL
 70
     2
102
SHADEPLOTCUSTOMDPI
 70
   300
  0
XRECORD
  5
FD33
102
{ACAD_REACTORS
330
FD32
102
}
330
FD32
100
AcDbXrecord
280
     1
102
SHADEPLOT
 70
     0
102
SHADEPLOTRESLEVEL
 70
     2
102
SHADEPLOTCUSTOMDPI
 70
   300
  0
ENDSEC
  0
EOF
