  0
SECTION
  2
HEADER
  9
$ACADVER
  1
AC1015
  9
$ACADMAINTVER
 70
    20
  9
$DWGCODEPAGE
  3
ANSI_950
  9
$INSBASE
 10
0.0
 20
0.0
 30
0.0
  9
$EXTMIN
 10
1157.603969466097
 20
805.9970017486971
 30
-0.0004660139820967
  9
$EXTMAX
 10
1170.734603547948
 20
815.5162094956367
 30
6.212713551559073
  9
$LIMMIN
 10
0.0
 20
0.0
  9
$LIMMAX
 10
297.0
 20
420.0
  9
$ORTHOMODE
 70
     0
  9
$REGENMODE
 70
     1
  9
$FILLMODE
 70
     1
  9
$QTEXTMODE
 70
     0
  9
$MIRRTEXT
 70
     1
  9
$LTSCALE
 40
0.5
  9
$ATTMODE
 70
     1
  9
$TEXTSIZE
 40
0.5
  9
$TRACEWID
 40
0.05
  9
$TEXTSTYLE
  7
CHINESET
  9
$CLAYER
  8
0
  9
$CELTYPE
  6
BYLAYER
  9
$CECOLOR
 62
   256
  9
$CELTSCALE
 40
0.5
  9
$DISPSILH
 70
     0
  9
$DIMSCALE
 40
1.0
  9
$DIMASZ
 40
0.12
  9
$DIMEXO
 40
0.06
  9
$DIMDLI
 40
0.3
  9
$DIMRND
 40
0.0
  9
$DIMDLE
 40
0.0
  9
$DIMEXE
 40
0.08
  9
$DIMTP
 40
0.01
  9
$DIMTM
 40
0.01
  9
$DIMTXT
 40
0.12
  9
$DIMCEN
 40
0.0
  9
$DIMTSZ
 40
0.0
  9
$DIMTOL
 70
     0
  9
$DIMLIM
 70
     0
  9
$DIMTIH
 70
     0
  9
$DIMTOH
 70
     0
  9
$DIMSE1
 70
     0
  9
$DIMSE2
 70
     0
  9
$DIMTAD
 70
     3
  9
$DIMZIN
 70
    10
  9
$DIMBLK
  1

  9
$DIMASO
 70
     1
  9
$DIMSHO
 70
     1
  9
$DIMPOST
  1

  9
$DIMAPOST
  1

  9
$DIMALT
 70
     1
  9
$DIMALTD
 70
     2
  9
$DIMALTF
 40
25.4
  9
$DIMLFAC
 40
1.0
  9
$DIMTOFL
 70
     1
  9
$DIMTVP
 40
0.0
  9
$DIMTIX
 70
     0
  9
$DIMSOXD
 70
     0
  9
$DIMSAH
 70
     0
  9
$DIMBLK1
  1

  9
$DIMBLK2
  1

  9
$DIMSTYLE
  2
STANDARD
  9
$DIMCLRD
 70
   256
  9
$DIMCLRE
 70
   256
  9
$DIMCLRT
 70
   256
  9
$DIMTFAC
 40
0.6
  9
$DIMGAP
 40
0.04
  9
$DIMJUST
 70
     0
  9
$DIMSD1
 70
     0
  9
$DIMSD2
 70
     0
  9
$DIMTOLJ
 70
     1
  9
$DIMTZIN
 70
     8
  9
$DIMALTZ
 70
     2
  9
$DIMALTTZ
 70
     0
  9
$DIMUPT
 70
     0
  9
$DIMDEC
 70
     2
  9
$DIMTDEC
 70
     8
  9
$DIMALTU
 70
     2
  9
$DIMALTTD
 70
     2
  9
$DIMTXSTY
  7
DAYUS
  9
$DIMAUNIT
 70
     0
  9
$DIMADEC
 70
     0
  9
$DIMALTRND
 40
0.0
  9
$DIMAZIN
 70
     2
  9
$DIMDSEP
 70
    46
  9
$DIMATFIT
 70
     3
  9
$DIMFRAC
 70
     0
  9
$DIMLDRBLK
  1

  9
$DIMLUNIT
 70
     2
  9
$DIMLWD
 70
    -1
  9
$DIMLWE
 70
    -1
  9
$DIMTMOVE
 70
     0
  9
$LUNITS
 70
     2
  9
$LUPREC
 70
     4
  9
$SKETCHINC
 40
0.1
  9
$FILLETRAD
 40
0.5
  9
$AUNITS
 70
     0
  9
$AUPREC
 70
     0
  9
$MENU
  1
.
  9
$ELEVATION
 40
0.0
  9
$PELEVATION
 40
0.0
  9
$THICKNESS
 40
0.0
  9
$LIMCHECK
 70
     0
  9
$CHAMFERA
 40
0.5
  9
$CHAMFERB
 40
0.5
  9
$CHAMFERC
 40
1.0
  9
$CHAMFERD
 40
0.0
  9
$SKPOLY
 70
     0
  9
$TDCREATE
 40
2452243.440373877
  9
$TDUCREATE
 40
2452243.107040544
  9
$TDUPDATE
 40
2455342.651954317
  9
$TDUUPDATE
 40
2455342.318620984
  9
$TDINDWG
 40
0.9871024421
  9
$TDUSRTIMER
 40
0.9870759028
  9
$USRTIMER
 70
     1
  9
$ANGBASE
 50
0.0
  9
$ANGDIR
 70
     0
  9
$PDMODE
 70
     0
  9
$PDSIZE
 40
0.0
  9
$PLINEWID
 40
0.0
  9
$SPLFRAME
 70
     0
  9
$SPLINETYPE
 70
     6
  9
$SPLINESEGS
 70
     8
  9
$HANDSEED
  5
10516
  9
$SURFTAB1
 70
     6
  9
$SURFTAB2
 70
     6
  9
$SURFTYPE
 70
     6
  9
$SURFU
 70
     6
  9
$SURFV
 70
     6
  9
$UCSBASE
  2

  9
$UCSNAME
  2

  9
$UCSORG
 10
0.0
 20
0.0
 30
0.0
  9
$UCSXDIR
 10
1.0
 20
0.0
 30
0.0
  9
$UCSYDIR
 10
0.0
 20
1.0
 30
0.0
  9
$UCSORTHOREF
  2

  9
$UCSORTHOVIEW
 70
     0
  9
$UCSORGTOP
 10
0.0
 20
0.0
 30
0.0
  9
$UCSORGBOTTOM
 10
0.0
 20
0.0
 30
0.0
  9
$UCSORGLEFT
 10
0.0
 20
0.0
 30
0.0
  9
$UCSORGRIGHT
 10
0.0
 20
0.0
 30
0.0
  9
$UCSORGFRONT
 10
0.0
 20
0.0
 30
0.0
  9
$UCSORGBACK
 10
0.0
 20
0.0
 30
0.0
  9
$PUCSBASE
  2

  9
$PUCSNAME
  2

  9
$PUCSORG
 10
0.0
 20
0.0
 30
0.0
  9
$PUCSXDIR
 10
1.0
 20
0.0
 30
0.0
  9
$PUCSYDIR
 10
0.0
 20
1.0
 30
0.0
  9
$PUCSORTHOREF
  2

  9
$PUCSORTHOVIEW
 70
     0
  9
$PUCSORGTOP
 10
0.0
 20
0.0
 30
0.0
  9
$PUCSORGBOTTOM
 10
0.0
 20
0.0
 30
0.0
  9
$PUCSORGLEFT
 10
0.0
 20
0.0
 30
0.0
  9
$PUCSORGRIGHT
 10
0.0
 20
0.0
 30
0.0
  9
$PUCSORGFRONT
 10
0.0
 20
0.0
 30
0.0
  9
$PUCSORGBACK
 10
0.0
 20
0.0
 30
0.0
  9
$USERI1
 70
     0
  9
$USERI2
 70
     0
  9
$USERI3
 70
     0
  9
$USERI4
 70
     0
  9
$USERI5
 70
     0
  9
$USERR1
 40
0.0
  9
$USERR2
 40
0.0
  9
$USERR3
 40
0.0
  9
$USERR4
 40
0.0
  9
$USERR5
 40
0.0
  9
$WORLDVIEW
 70
     1
  9
$SHADEDGE
 70
     3
  9
$SHADEDIF
 70
    70
  9
$TILEMODE
 70
     1
  9
$MAXACTVP
 70
    48
  9
$PINSBASE
 10
0.0
 20
0.0
 30
0.0
  9
$PLIMCHECK
 70
     0
  9
$PEXTMIN
 10
27.8447512626648
 20
20.24591643810271
 30
0.0
  9
$PEXTMAX
 10
250.6027613639831
 20
182.2132479429245
 30
0.0
  9
$PLIMMIN
 10
-3.757080078125
 20
-3.757083177566528
  9
$PLIMMAX
 10
293.2112426757813
 20
206.2162444591522
  9
$UNITMODE
 70
     0
  9
$VISRETAIN
 70
     1
  9
$PLINEGEN
 70
     0
  9
$PSLTSCALE
 70
     1
  9
$TREEDEPTH
 70
  3020
  9
$CMLSTYLE
  2
STANDARD
  9
$CMLJUST
 70
     0
  9
$CMLSCALE
 40
1.0
  9
$PROXYGRAPHICS
 70
     1
  9
$MEASUREMENT
 70
     1
  9
$CELWEIGHT
370
    -1
  9
$ENDCAPS
280
     0
  9
$JOINSTYLE
280
     0
  9
$LWDISPLAY
290
     0
  9
$INSUNITS
 70
     0
  9
$HYPERLINKBASE
  1

  9
$STYLESHEET
  1
單色出圖.ctb
  9
$XEDIT
290
     1
  9
$CEPSNTYPE
380
     0
  9
$PSTYLEMODE
290
     1
  9
$FINGERPRINTGUID
  2
{07D7BE12-0192-11D3-8697-0060B085A428}
  9
$VERSIONGUID
  2
{3A04CBEA-AC15-4DEF-A9E3-F667BD755B10}
  9
$EXTNAMES
290
     1
  9
$PSVPSCALE
 40
0.0
  9
$OLESTARTUP
290
     0
  0
ENDSEC
  0
SECTION
  2
CLASSES
  0
CLASS
  1
ACMESTATEMGR
  2
AcMeStateMgr
  3
AcMeServices
 90
        0
280
     0
281
     0
  0
CLASS
  1
ACMESCOPE
  2
AcMeScope
  3
AcMeServices
 90
        0
280
     0
281
     0
  0
CLASS
  1
ACMECOMMANDHISTORY
  2
AcMeCommandHistory
  3
AcMeServices
 90
        0
280
     0
281
     0
  0
CLASS
  1
ACRFINSADJUSTERMGR
  2
AcRfInsAdjusterMgr
  3
AcMeServices
 90
        0
280
     0
281
     0
  0
CLASS
  1
ACMEDRAWINGMAN
  2
AcMeDrawingMan
  3
AcMeServices
 90
        0
280
     0
281
     0
  0
CLASS
  1
AMATTR
  2
AcMeAttribute
  3
AcMeServices
 90
    32768
280
     0
281
     0
  0
CLASS
  1
ACMEBOMCOLUMN
  2
AcMeBOMColumn
  3
AcMeServices
 90
    32768
280
     0
281
     0
  0
CLASS
  1
ACMEBOMCONF
  2
AcMeBOMConf
  3
AcMeServices
 90
    32768
280
     0
281
     0
  0
CLASS
  1
ACMEBOMTABLE
  2
AcMeBOMTable
  3
AcMeServices
 90
    32768
280
     0
281
     0
  0
CLASS
  1
ACMEBOMENTRY
  2
AcMeBOMEntry
  3
AcMeServices
 90
    32768
280
     0
281
     0
  0
CLASS
  1
ACMEVIEW
  2
AcMeView
  3
AcMeServices
 90
        0
280
     0
281
     0
  0
CLASS
  1
ACGREFMASTER
  2
AcGrefMaster
  3
AcAttribServices
 90
        0
280
     0
281
     0
  0
CLASS
  1
AMIMASTER
  2
AmiMaster
  3
AmiServices
 90
        0
280
     0
281
     0
  0
CLASS
  1
ACASGREFMASTER
  2
AcAsGrefMaster
  3
AutoSurfResolverServices
 90
        0
280
     0
281
     0
  0
CLASS
  1
ADAPPL
  2
AcAdAppl
  3
DesignerServices
 90
        0
280
     0
281
     0
  0
CLASS
  1
DEPMGR
  2
AcAdDepMgr
  3
DesignerServices
 90
        0
280
     0
281
     0
  0
CLASS
  1
PARAMMGR
  2
AcAdParamMgr
  3
DesignerServices
 90
        0
280
     0
281
     0
  0
CLASS
  1
PARAMSCOPE
  2
AcAdParamScope
  3
DesignerServices
 90
        0
280
     0
281
     0
  0
CLASS
  1
ACIMSYSVARMAN
  2
AcImSysVarManager
  3
AcMeServices
 90
        0
280
     0
281
     0
  0
CLASS
  1
ACIMINTSYSVAR
  2
AcImIntSysVar
  3
AcMeServices
 90
        0
280
     0
281
     0
  0
CLASS
  1
ACIMREALSYSVAR
  2
AcImRealSysVar
  3
AcMeServices
 90
        0
280
     0
281
     0
  0
CLASS
  1
ACIMSTRSYSVAR
  2
AcImStrSysVar
  3
AcMeServices
 90
        0
280
     0
281
     0
  0
CLASS
  1
NAMEDAPPL
  2
AcAdNamedAppl
  3
DesignerServices
 90
        0
280
     0
281
     0
  0
CLASS
  1
ADHNTMPLT
  2
AdHoleNoteTemplateMgr
  3
DesignerServices
 90
    32768
280
     0
281
     0
  0
CLASS
  1
AM_HNTEMPLATE_MGR_NAME
  2
AdHoleNoteTemplateMgrName
  3
DesignerServices
 90
    32768
280
     0
281
     0
  0
CLASS
  1
ACADGREFMODULE
  2
AcAdGrefModule
  3
AdGrefServices
 90
        0
280
     0
281
     0
  0
CLASS
  1
AM_DRAWING_MGR
  2
AcDmDwgMgr
  3
AcMechDwgViewMgmt
 90
        0
280
     0
281
     0
  0
CLASS
  1
AM_DWG_DOCUMENT
  2
AcDmDwgDocument
  3
AcMechDwgViewMgmt
 90
        0
280
     0
281
     0
  0
CLASS
  1
AM_DWG_SHEET
  2
AcDmSheet
  3
AcMechDwgViewMgmt
 90
        0
280
     0
281
     0
  0
CLASS
  1
AM_VIEWDIMPARMAP
  2
AcDmViewDimParMap
  3
AcMechDwgViewMgmt
 90
        0
280
     0
281
     0
  0
CLASS
  1
AM_DWGMGR_NAME
  2
AcDmDwgMgrName
  3
AcMechDwgViewMgmt
 90
        0
280
     0
281
     0
  0
CLASS
  1
ACAMPROJECT
  2
AcAmProject
  3
DesignerAssemblies
 90
        0
280
     0
281
     0
  0
CLASS
  1
ACAMGRCOMPSET
  2
AcAmGrCompSet
  3
DesignerAssemblies
 90
    32768
280
     1
281
     0
  0
CLASS
  1
ACAMGRCOMPDEFSET
  2
AcAmGrCompDefSet
  3
DesignerAssemblies
 90
        0
280
     0
281
     0
  0
CLASS
  1
ACAMGRCOMPDEF
  2
AcAmGrCompDef
  3
DesignerAssemblies
 90
        0
280
     0
281
     0
  0
CLASS
  1
ACCMCONTEXT
  2
AcCmContext
  3
DesignerAssemblies
 90
        0
280
     0
281
     0
  0
CLASS
  1
ACAMCOMPDEF
  2
AcAmCompDef
  3
DesignerAssemblies
 90
        0
280
     0
281
     0
  0
CLASS
  1
ACAMCOMPDEFMGR
  2
AcAmCompDefMgr
  3
DesignerAssemblies
 90
        0
280
     0
281
     0
  0
CLASS
  1
AMCONTEXTMGR
  2
AcAmContextMgr
  3
DesignerAssemblies
 90
        0
280
     0
281
     0
  0
CLASS
  1
ACAMCONTEXTMODELER
  2
AcAmContextModeler
  3
DesignerAssemblies
 90
        0
280
     0
281
     0
  0
CLASS
  1
ACDMVIEWGEOM
  2
AcDmViewGeometry
  3
AcMechDwgViewMgmt
 90
    32768
280
     0
281
     1
  0
CLASS
  1
CBROWSERAPPOBJECT
  2
CBrowserAppObject
  3
McadcomServices
 90
        0
280
     0
281
     0
  0
CLASS
  1
IM_STATIC_MAN
  2
AcImStaticVarManager
  3
AcMeServices
 90
        0
280
     0
281
     0
  0
CLASS
  1
ASAPP
  2
AcAsAppObject
  3
AutoSurfServices
 90
        0
280
     0
281
     0
  0
CLASS
  1
ACIMDBLSTATICVAR
  2
AcImDblStaticVar
  3
AcMeServices
 90
        0
280
     0
281
     0
  0
CLASS
  1
ACIMSTRSTATICVAR
  2
AcImStrStaticVar
  3
AcMeServices
 90
        0
280
     0
281
     0
  0
CLASS
  1
ACIMINTSTATICVAR
  2
AcImIntStaticVar
  3
AcMeServices
 90
        0
280
     0
281
     0
  0
CLASS
  1
CATALOGSTATE
  2
AcAmCatalogState
  3
DesignerAssemblies
 90
        0
280
     0
281
     0
  0
CLASS
  1
DM_PLACEHOLDER
  2
AcDmSelsetPlaceholder
  3
AcMechDwgViewMgmt
 90
        0
280
     0
281
     0
  0
CLASS
  1
DICTIONARYVAR
  2
AcDbDictionaryVar
  3
ObjectDBX Classes
 90
        0
280
     0
281
     0
  0
CLASS
  1
ACMSTANDARDJIS
  2
AcmStandardJIS
  3
"Amdt_StdImp|Product Description: AutoCAD Mechanical 2004 DX|Company: Autodesk"
 90
    32768
280
     0
281
     0
  0
CLASS
  1
ACMSTANDARDANSI
  2
AcmStandardANSI
  3
"Amdt_StdImp|Product Description: AutoCAD Mechanical 2004 DX|Company: Autodesk"
 90
        0
280
     0
281
     0
  0
CLASS
  1
ACMSTANDARDBSI
  2
AcmStandardBSI
  3
"Amdt_StdImp|Product Description: AutoCAD Mechanical 2004 DX|Company: Autodesk"
 90
    32768
280
     0
281
     0
  0
CLASS
  1
ACMSTANDARDDIN
  2
AcmStandardDIN
  3
"Amdt_StdImp|Product Description: AutoCAD Mechanical 2004 DX|Company: Autodesk"
 90
    32768
280
     0
281
     0
  0
CLASS
  1
ACMSTANDARDISO
  2
AcmStandardISO
  3
"Amdt_StdImp|Product Description: AutoCAD Mechanical 2004 DX|Company: Autodesk"
 90
        0
280
     0
281
     0
  0
CLASS
  1
LAYER_INDEX
  2
AcDbLayerIndex
  3
ObjectDBX Classes
 90
        0
280
     0
281
     0
  0
CLASS
  1
IDBUFFER
  2
AcDbIdBuffer
  3
ObjectDBX Classes
 90
        0
280
     0
281
     0
  0
CLASS
  1
ACDBDICTIONARYWDFLT
  2
AcDbDictionaryWithDefault
  3
ObjectDBX Classes
 90
        0
280
     0
281
     0
  0
CLASS
  1
ACDBPLACEHOLDER
  2
AcDbPlaceHolder
  3
ObjectDBX Classes
 90
        0
280
     0
281
     0
  0
CLASS
  1
LAYOUT
  2
AcDbLayout
  3
ObjectDBX Classes
 90
        0
280
     0
281
     0
  0
CLASS
  1
ACME_DOCUMENT
  2
AcMeDbDoc
  3
AcMeServices
 90
        0
280
     0
281
     0
  0
CLASS
  1
AMGSETTINGSOBJ
  2
AmgSettingsObj
  3
"AcadM|Product Description: AutoCAD Mechanical 2000|Company: Autodesk"
 90
        0
280
     0
281
     0
  0
CLASS
  1
AMGOBJPROPCFG
  2
AmgObjPropCfg
  3
"AmgLay|Product Description: AutoCAD Mechanical 2000|Company: Autodesk"
 90
        1
280
     0
281
     0
  0
CLASS
  1
ACDBENTITYCACHE
  2
AcMeEntityCache
  3
AcMeServices
 90
        0
280
     0
281
     0
  0
CLASS
  1
GSMANAGER
  2
AcMeGSManager
  3
AcMeServices
 90
        0
280
     0
281
     0
  0
CLASS
  1
AMDTINTERNALREACTOR
  2
AmdtInternalReactor
  3
AcMeServices
 90
        0
280
     0
281
     0
  0
CLASS
  1
ACME_DATABASE
  2
AcMeDbDatabase
  3
AcMeServices
 90
        0
280
     0
281
     0
  0
CLASS
  1
ACGREFACADMASTER
  2
AcGrefacadMaster
  3
AcGrefServices
 90
        0
280
     0
281
     0
  0
CLASS
  1
AMDTMENUSTATEMGR
  2
AmdtMenuStateMgr
  3
McadcomServices
 90
        0
280
     0
281
     0
  0
CLASS
  1
AMDTMCOMMENUSTATE
  2
AmdtMcomMenuState
  3
McadcomServices
 90
        0
280
     0
281
     0
  0
CLASS
  1
MAPIADMODULE
  2
MApiAdModule
  3
MApiAdServices
 90
        0
280
     0
281
     0
  0
CLASS
  1
AMDTDMMENUSTATE
  2
AmdtDmMenuState
  3
AcMechDwgViewMgmt
 90
        0
280
     0
281
     0
  0
CLASS
  1
AMDTADMENUSTATE
  2
AmdtAdMenuState
  3
DesignerServices
 90
        0
280
     0
281
     0
  0
CLASS
  1
AMDTAMMENUSTATE
  2
AmdtAmMenuState
  3
DesignerAssemblies
 90
        0
280
     0
281
     0
  0
CLASS
  1
ACMDATADICTIONARY
  2
AcmDataDictionary
  3
"AcmSymBB|Product Description: AutoCAD Mechanical 2004 DX|Company: Autodesk"
 90
        0
280
     0
281
     0
  0
CLASS
  1
ACMDATAENTRYBLOCK
  2
AcmDataEntryBlock
  3
"AcmSymBB|Product Description: AutoCAD Mechanical 2004 DX|Company: Autodesk"
 90
        0
280
     0
281
     0
  0
CLASS
  1
AMDTBROWSERDBTAB
  2
AmdtBrowserDbTab
  3
McadcomServices
 90
        0
280
     0
281
     0
  0
CLASS
  1
ACAMGFILTERDAT
  2
AcAmgFilterDat
  3
"AcadM|Product Description: AutoCAD Mechanical 2000|Company: Autodesk"
 90
    32768
280
     0
281
     0
  0
CLASS
  1
MAPIAMMOUDLE
  2
MApiAmModule
  3
MApiAmServices
 90
        0
280
     0
281
     0
  0
CLASS
  1
ACAMEXTERNALCOMPDEF
  2
AcAmExternalCompDef
  3
DesignerAssemblies
 90
    32768
280
     0
281
     0
  0
CLASS
  1
ACCMBODY
  2
AcCmBody
  3
DesignerAssemblies
 90
    32768
280
     0
281
     0
  0
CLASS
  1
ACAMCOMPENT
  2
AcAmCompEnt
  3
DesignerAssemblies
 90
    32768
280
     0
281
     1
  0
CLASS
  1
ACAMCOMPFEEDBACK
  2
AcAmCompFeedback
  3
DesignerAssemblies
 90
    32768
280
     0
281
     0
  0
CLASS
  1
ACAMCOMP
  2
AcAmComp
  3
DesignerAssemblies
 90
    32768
280
     0
281
     0
  0
CLASS
  1
ACAMCOMPENTCLONE
  2
AcAmCompEntClone
  3
DesignerAssemblies
 90
    32768
280
     0
281
     1
  0
CLASS
  1
ACAMCLONEREACTOR
  2
AcAmGrCompCloneReactor
  3
DesignerAssemblies
 90
    32768
280
     0
281
     0
  0
CLASS
  1
ADPART
  2
AcAdPart
  3
DesignerServices
 90
    32768
280
     0
281
     1
  0
CLASS
  1
WORKPLANEDISPLAYMGR
  2
AcAdDisplayMgr
  3
DesignerServices
 90
    32768
280
     0
281
     0
  0
CLASS
  1
PARAM
  2
AcAdParam
  3
DesignerServices
 90
    32768
280
     0
281
     0
  0
CLASS
  1
ADDATUMAXISABS
  2
AcAdDatumAxisAbs
  3
DesignerServices
 90
    32768
280
     0
281
     0
  0
CLASS
  1
ADBASE
  2
AcAdBase
  3
DesignerServices
 90
    32768
280
     0
281
     0
  0
CLASS
  1
ADDATUMPLANEABS
  2
AcAdDatumPlaneAbs
  3
DesignerServices
 90
    32768
280
     0
281
     0
  0
CLASS
  1
BODYID
  2
AcAdBodyId
  3
DesignerServices
 90
    32768
280
     0
281
     0
  0
CLASS
  1
ADDATUMORIENTEDPLANE
  2
AcAdDatumOrientedPlane
  3
DesignerServices
 90
    32768
280
     0
281
     0
  0
CLASS
  1
ACADCONSGROUP
  2
AcAdConstraintGroup
  3
DesignerServices
 90
    32768
280
     0
281
     0
  0
CLASS
  1
ACADREFLINEACAD
  2
AcAdVirtualReferenceLine
  3
DesignerServices
 90
    32768
280
     0
281
     0
  0
CLASS
  1
ACADCONSLINE
  2
AcAdConstrainedLine
  3
DesignerServices
 90
    32768
280
     0
281
     0
  0
CLASS
  1
ACADLINEACAD
  2
AcAdVirtualBoundedLineAcad
  3
DesignerServices
 90
    32768
280
     0
281
     0
  0
CLASS
  1
ACADCONSPOINT
  2
AcAdConstrainedPoint
  3
DesignerServices
 90
    32768
280
     0
281
     0
  0
CLASS
  1
ADPCURCNS
  2
AcAdPointCurveConstr
  3
DesignerServices
 90
    32768
280
     0
281
     0
  0
CLASS
  1
ADHORCNS
  2
AcAdHorizontalConstr
  3
DesignerServices
 90
    32768
280
     0
281
     0
  0
CLASS
  1
ADVERCNS
  2
AcAdVerticalConstr
  3
DesignerServices
 90
    32768
280
     0
281
     0
  0
CLASS
  1
ACAD_FIXCONSTRAINT
  2
AcAdFixedConstraint
  3
DesignerServices
 90
    32768
280
     0
281
     0
  0
CLASS
  1
ADVDISTCNS
  2
AcAdVerticalDistanceConstr
  3
DesignerServices
 90
    32768
280
     0
281
     0
  0
CLASS
  1
ADHDISTCNS
  2
AcAdHorizontalDistanceConstr
  3
DesignerServices
 90
    32768
280
     0
281
     0
  0
CLASS
  1
ACADIMPPTACAD
  2
AcAdVirtualImplicitPoint
  3
DesignerServices
 90
    32768
280
     0
281
     0
  0
CLASS
  1
ADCLPROF2D
  2
AcAdClosedProfile2d
  3
DesignerServices
 90
    32768
280
     0
281
     0
  0
CLASS
  1
DEPEDGEFEATUREORDERING
  2
AcAdDepEdgeFeatureOrdering
  3
DesignerServices
 90
    32768
280
     0
281
     0
  0
CLASS
  1
ACADVOLFEATWITHTRIM
  2
AcAdVolFeatWithTrim
  3
DesignerServices
 90
    32768
280
     0
281
     0
  0
CLASS
  1
ADPLANEID
  2
AcAdPlaneId
  3
DesignerServices
 90
    32768
280
     0
281
     0
  0
CLASS
  1
OSTREFID
  2
AcAdOrientedStraightRefId
  3
DesignerServices
 90
    32768
280
     0
281
     0
  0
CLASS
  1
STREFID
  2
AcAdStraightRefId
  3
DesignerServices
 90
    32768
280
     0
281
     0
  0
CLASS
  1
CNRREFID
  2
AcAdCornerId
  3
DesignerServices
 90
    32768
280
     0
281
     0
  0
CLASS
  1
ADSTRAIGHTID
  2
AcAdStraightId
  3
DesignerServices
 90
    32768
280
     0
281
     0
  0
CLASS
  1
HVREFID
  2
AcAdHVRefId
  3
DesignerServices
 90
    32768
280
     0
281
     0
  0
CLASS
  1
ADDATUMPLANEFACE
  2
AcAdDatumPlaneFace
  3
DesignerServices
 90
    32768
280
     0
281
     0
  0
CLASS
  1
ADDATUMPOINT2EDGES
  2
AcAdDatumPoint2Edges
  3
DesignerServices
 90
    32768
280
     0
281
     0
  0
CLASS
  1
ADDATUMAXISEDGE
  2
AcAdDatumAxisEdge
  3
DesignerServices
 90
    32768
280
     0
281
     0
  0
CLASS
  1
ADHOLEFEAT
  2
AcAdHoleFeat
  3
DesignerServices
 90
    32768
280
     0
281
     0
  0
CLASS
  1
DATUMPLANEDISPLAY
  2
AcAdDatumPlaneDisplay
  3
DesignerServices
 90
    32768
280
     0
281
     1
  0
CLASS
  1
ADDATUMPLANEOFFSET
  2
AcAdDatumPlaneOffset
  3
DesignerServices
 90
    32768
280
     0
281
     0
  0
CLASS
  1
ADDATUMPLANEAXISPLANE
  2
AcAdDatumPlaneAxisPlane
  3
DesignerServices
 90
    32768
280
     0
281
     0
  0
CLASS
  1
ADSURFGEOMID
  2
AcAdSurfGeomId
  3
DesignerServices
 90
    32768
280
     0
281
     0
  0
CLASS
  1
EDGEID
  2
AcAdEdgeId
  3
DesignerServices
 90
    32768
280
     0
281
     0
  0
CLASS
  1
ACADLINEDEPID
  2
AcAdVirtualLineDepId
  3
DesignerServices
 90
    32768
280
     0
281
     0
  0
CLASS
  1
ADCOLNCNS
  2
AcAdColinearConstr
  3
DesignerServices
 90
    32768
280
     0
281
     0
  0
CLASS
  1
ACADBOUNDEDLINEDATUMID
  2
AcAdVirtualBoundedLineDatumId
  3
DesignerServices
 90
    32768
280
     0
281
     0
  0
CLASS
  1
DATUMAXISDISPLAY
  2
AcAdDatumAxisDisplay
  3
DesignerServices
 90
    32768
280
     0
281
     1
  0
CLASS
  1
ADDATUMAXISCENTER
  2
AcAdDatumAxisCenter
  3
DesignerServices
 90
    32768
280
     0
281
     0
  0
CLASS
  1
ACADCIRCLEACAD
  2
AcAdVirtualCircleAcad
  3
DesignerServices
 90
    32768
280
     0
281
     0
  0
CLASS
  1
ACADCONSCIRCLE
  2
AcAdConstrainedCircle
  3
DesignerServices
 90
    32768
280
     0
281
     0
  0
CLASS
  1
ADCTRPTCNS
  2
AcAdCenterPointConstr
  3
DesignerServices
 90
    32768
280
     0
281
     0
  0
CLASS
  1
ADACADDIACNS
  2
AcAdAcadDiameterConstr
  3
DesignerServices
 90
    32768
280
     0
281
     0
  0
CLASS
  1
ACADPOINTDEPID
  2
AcAdVirtualPointDepId
  3
DesignerServices
 90
    32768
280
     0
281
     0
  0
CLASS
  1
ADDATUMPOINTAXISPLANE
  2
AcAdDatumPointAxisPlane
  3
DesignerServices
 90
    32768
280
     0
281
     0
  0
CLASS
  1
ADFILLET
  2
AcAdFillet
  3
DesignerServices
 90
    32768
280
     0
281
     0
  0
CLASS
  1
ADFEATRECTARRAY
  2
AcAdRectangularFeatArray
  3
DesignerServices
 90
    32768
280
     0
281
     0
  0
CLASS
  1
DEPEDGESECONDARYDEPID
  2
AcAdDepEdgeSecondaryDepId
  3
DesignerServices
 90
    32768
280
     0
281
     0
  0
CLASS
  1
CIRREFID
  2
AcAdCircleRefId
  3
DesignerServices
 90
    32768
280
     0
281
     0
  0
CLASS
  1
ACADCIRCDEPID
  2
AcAdVirtualCircleDepId
  3
DesignerServices
 90
    32768
280
     0
281
     0
  0
CLASS
  1
ADVIRTUALPOINTWORKPOINTFREE
  2
AcAdVirtualPointWorkPointFree
  3
DesignerServices
 90
    32768
280
     0
281
     0
  0
CLASS
  1
ADWORKPOINTDISPLAY
  2
AcAdWorkPointDisplay
  3
DesignerServices
 90
    32768
280
     0
281
     1
  0
CLASS
  1
ADWORKPOINTSKETCH
  2
AcAdWorkPointSketch
  3
DesignerServices
 90
    32768
280
     0
281
     0
  0
CLASS
  1
FACEID
  2
AcAdFaceId
  3
DesignerServices
 90
    32768
280
     0
281
     0
  0
CLASS
  1
ACAMGROUNDEDBASECOMP
  2
AcAmGroundedBaseComp
  3
DesignerAssemblies
 90
    32768
280
     0
281
     0
  0
CLASS
  1
SILEDGEID
  2
AcAdSilhouetteEdgeId
  3
DesignerServices
 90
    32768
280
     0
281
     0
  0
CLASS
  1
ADCONCCNS
  2
AcAdConcentricConstr
  3
DesignerServices
 90
    32768
280
     0
281
     0
  0
CLASS
  1
ACADPARTCIRCEDGRES
  2
AcAdPartCircEdgRes
  3
AdGrefServices
 90
    32768
280
     0
281
     0
  0
CLASS
  1
ACRFINSADJ
  2
AcRfInsAdjuster
  3
AcMeServices
 90
    32768
280
     0
281
     0
  0
CLASS
  1
ACADPARTPLANARFACERES
  2
AcAdPartPlanarFaceRes
  3
AdGrefServices
 90
    32768
280
     0
281
     0
  0
CLASS
  1
ACMELINEARARROW
  2
AcImLinearArrowDisplay
  3
AcMeServices
 90
    32768
280
     0
281
     1
  0
CLASS
  1
ACAMEXPR
  2
AcAmExpr
  3
DesignerAssemblies
 90
    32768
280
     0
281
     0
  0
CLASS
  1
ACCMINSERTPLPL
  2
AcCmInsertPlPl
  3
AcCmServices
 90
    32768
280
     0
281
     0
  0
CLASS
  1
ACCMCONSTREACTOR
  2
AcCmConstraintReactor
  3
DesignerAssemblies
 90
    32768
280
     0
281
     0
  0
CLASS
  1
ACAD_CIRCLE
  2
AcAdCircle
  3
DesignerServices
 90
    32768
280
     0
281
     1
  0
CLASS
  1
ADCONSTDSP
  2
AcAdConstraintDisplayTag
  3
DesignerServices
 90
    32768
280
     0
281
     1
  0
CLASS
  1
ADCONSDISP
  2
AcAdConstraintDisplay
  3
DesignerServices
 90
    32768
280
     0
281
     1
  0
CLASS
  1
ACMEPOINT
  2
AcImPointDisplay
  3
AcMeServices
 90
    32768
280
     0
281
     1
  0
CLASS
  1
ACMEPLINE
  2
AcImPlineDisplay
  3
AcMeServices
 90
    32768
280
     0
281
     1
  0
CLASS
  1
ACMECIRCARC
  2
AcImCircArcDisplay
  3
AcMeServices
 90
    32768
280
     0
281
     1
  0
CLASS
  1
ACADPARTCYLINDERFACERES
  2
AcAdPartCylinderFaceRes
  3
AdGrefServices
 90
    32768
280
     0
281
     0
  0
CLASS
  1
ACADPARTAXISRES
  2
AcAdPartAxisRes
  3
AdGrefServices
 90
    32768
280
     0
281
     0
  0
CLASS
  1
ACADPARTDATUMPLANERES
  2
AcAdPartDatumPlaneRes
  3
AdGrefServices
 90
    32768
280
     0
281
     0
  0
CLASS
  1
ADDATUMPLANETANGENTPLANE
  2
AcAdDatumPlaneTangentPlane
  3
DesignerServices
 90
    32768
280
     0
281
     0
  0
CLASS
  1
ACADPARTDATUMPOINTRES
  2
AcAdPartDatumPointRes
  3
AdGrefServices
 90
    32768
280
     0
281
     0
  0
CLASS
  1
ADPROJCNS
  2
AcAdProjectionConstr
  3
DesignerServices
 90
    32768
280
     0
281
     0
  0
CLASS
  1
ACADSKETCHPOINTRES
  2
AcAdSketchPointRes
  3
DesignerServices
 90
    32768
280
     0
281
     0
  0
CLASS
  1
ACADSKETCHLINERES
  2
AcAdSketchLineRes
  3
DesignerServices
 90
    32768
280
     0
281
     0
  0
CLASS
  1
ACAD_LINE
  2
AcAdLine
  3
DesignerServices
 90
    32768
280
     0
281
     1
  0
CLASS
  1
ADPERPCNS
  2
AcAdPerpendicularConstr
  3
DesignerServices
 90
    32768
280
     0
281
     0
  0
CLASS
  1
ADVIRTUALPOINTWORKPOINTFIXED
  2
AcAdVirtualPointWorkPointFixed
  3
DesignerServices
 90
    32768
280
     0
281
     0
  0
CLASS
  1
NEWSTDPARTPARLIST
  2
AmgNewParListFiler
  3
"AmgParList|Product Description: AutoCAD Mechanical 2000|Company: Autodesk"
 90
    33791
280
     0
281
     0
  0
CLASS
  1
ACMSURFSTANDARDANSI
  2
AcmSurfTextStdANSI
  3
"Amdt_StdImp|Product Description: AutoCAD Mechanical 2004 DX|Company: Autodesk"
 90
        0
280
     0
281
     0
  0
CLASS
  1
ACMFCFSTANDARDANSI
  2
AcmFCFStdANSI
  3
"Amdt_StdImp|Product Description: AutoCAD Mechanical 2004 DX|Company: Autodesk"
 90
        0
280
     0
281
     0
  0
CLASS
  1
ACMWELDSTANDARDANSI
  2
AcmWeldingStdANSI
  3
"Amdt_StdImp|Product Description: AutoCAD Mechanical 2004 DX|Company: Autodesk"
 90
        0
280
     0
281
     0
  0
CLASS
  1
ACMIDSTANDARDANSI
  2
AcmIdStdANSI
  3
"Amdt_StdImp|Product Description: AutoCAD Mechanical 2004 DX|Company: Autodesk"
 90
        0
280
     0
281
     0
  0
CLASS
  1
ACMDATUMSTANDARDANSI
  2
AcmDatumStdANSI
  3
"Amdt_StdImp|Product Description: AutoCAD Mechanical 2004 DX|Company: Autodesk"
 90
        0
280
     0
281
     0
  0
CLASS
  1
ACMBOMSTANDARDANSI
  2
AcmBOMStdANSI
  3
"Amdt_StdImp|Product Description: AutoCAD Mechanical 2004 DX|Company: Autodesk"
 90
        0
280
     0
281
     0
  0
CLASS
  1
ACAMGRBLOCKRECORD
  2
AcAmGrBlockRecord
  3
DesignerAssemblies
 90
    32768
280
     0
281
     0
  0
CLASS
  1
ACAMVIEWREACTOR
  2
AcAmViewReactor
  3
DesignerAssemblies
 90
    32768
280
     0
281
     0
  0
CLASS
  1
AMVIEW
  2
AcAmView
  3
DesignerAssemblies
 90
    32768
280
     0
281
     0
  0
CLASS
  1
ACAMVIEWCONTEXT
  2
AcAmViewContext
  3
DesignerAssemblies
 90
    32768
280
     0
281
     0
  0
CLASS
  1
ACAMCOMPVIEWREACTOR
  2
AcAmGrCompViewReactor
  3
DesignerAssemblies
 90
    32768
280
     0
281
     0
  0
CLASS
  1
ACAMCOMPENTVIEW
  2
AcAmCompEntView
  3
DesignerAssemblies
 90
    32768
280
     0
281
     1
  0
CLASS
  1
ACAMVIEWENTITYFILTER
  2
AcAmViewEntityFilter
  3
DesignerAssemblies
 90
    32768
280
     0
281
     0
  0
CLASS
  1
AM_GREF_PLANE
  2
AcDmGrefPlnDef
  3
AcMechDwgViewMgmt
 90
    32768
280
     0
281
     0
  0
CLASS
  1
AM_ABS_AXIS
  2
AcDmAbsAxisDef
  3
AcMechDwgViewMgmt
 90
    32768
280
     0
281
     0
  0
CLASS
  1
AM_BASE_VIEW_ORIENT
  2
AcDmBaseViewOr
  3
AcMechDwgViewMgmt
 90
    32768
280
     0
281
     0
  0
CLASS
  1
AM_DWG_VIEWPORT
  2
AcDmViewport
  3
AcMechDwgViewMgmt
 90
    32768
280
     0
281
     0
  0
CLASS
  1
AM_VIEW_DISPLAY
  2
AcDmDwgViewDisplay
  3
AcMechDwgViewMgmt
 90
    32768
280
     0
281
     0
  0
CLASS
  1
AM_CLDFLTS
  2
AcDmClDflts
  3
AcMechDwgViewMgmt
 90
    32768
280
     0
281
     0
  0
CLASS
  1
AM_BASE_VIEW
  2
AcDmBaseView
  3
AcMechDwgViewMgmt
 90
    32768
280
     0
281
     0
  0
CLASS
  1
ACDMVWEDLINE
  2
AcDmViewEdgeLine
  3
AcMechDwgViewMgmt
 90
    32768
280
     0
281
     1
  0
CLASS
  1
ACDMVWEDCIRC
  2
AcDmViewEdgeCircle
  3
AcMechDwgViewMgmt
 90
    32768
280
     0
281
     1
  0
CLASS
  1
ACDMVWEDARC
  2
AcDmViewEdgeArc
  3
AcMechDwgViewMgmt
 90
    32768
280
     0
281
     1
  0
CLASS
  1
AM_ADCIRCTRLINE
  2
AcAdBullsEyeCl
  3
DesignerServices
 90
    32768
280
     0
281
     0
  0
CLASS
  1
AD_CIRCTAPH
  2
AcAdTapHoleCircDisp
  3
DesignerServices
 90
    32768
280
     0
281
     0
  0
CLASS
  1
AM_ORTHO_VIEW_ORIENT
  2
AcDmOrthoViewOr
  3
AcMechDwgViewMgmt
 90
    32768
280
     0
281
     0
  0
CLASS
  1
AM_ORTHO_VIEW
  2
AcDmOrthoView
  3
AcMechDwgViewMgmt
 90
    32768
280
     0
281
     0
  0
CLASS
  1
AM_GREF_POINT
  2
AcDmGrefPntDef
  3
AcMechDwgViewMgmt
 90
    32768
280
     0
281
     0
  0
CLASS
  1
AM_FULLPOINTSECTION
  2
AcDmFullPointSection
  3
AcMechDwgViewMgmt
 90
    32768
280
     0
281
     0
  0
CLASS
  1
AM_SECTIONSYMBOL
  2
AcDmSectionSymbol
  3
AcMechDwgViewMgmt
 90
    32768
280
     0
281
     0
  0
CLASS
  1
AM_VIEWLABEL
  2
AcDmViewLabel
  3
AcMechDwgViewMgmt
 90
    32768
280
     0
281
     0
  0
CLASS
  1
ACDMVWEDSPLINE
  2
AcDmViewEdgeSpline
  3
AcMechDwgViewMgmt
 90
    32768
280
     0
281
     1
  0
CLASS
  1
ACDMVWEDELLIPSE
  2
AcDmViewEdgeEllipse
  3
AcMechDwgViewMgmt
 90
    32768
280
     0
281
     1
  0
CLASS
  1
AM_ADLINCTRLINE
  2
AcAdLineCl
  3
DesignerServices
 90
    32768
280
     0
281
     0
  0
CLASS
  1
AD_LINETAPH
  2
AcAdTapHoleLineDisp
  3
DesignerServices
 90
    32768
280
     0
281
     0
  0
CLASS
  1
ACDMGREFEDIT
  2
AcDmViewEntityGeomrefEdit
  3
AcMechDwgViewMgmt
 90
    32768
280
     0
281
     0
  0
CLASS
  1
ACDMVIEWLINEDGERES
  2
AcDmViewLinEdgeRes
  3
AcMechDwgViewMgmt
 90
    32768
280
     0
281
     0
  0
CLASS
  1
AM_VIEWDIMLINEAR
  2
AcDmViewDimLinear
  3
AcMechDwgViewMgmt
 90
    32768
280
     0
281
     0
  0
CLASS
  1
ACRFATTGENMGR
  2
AcRfAttGeneralMgr
  3
AcAttribServices
 90
    32768
280
     0
281
     0
  0
CLASS
  1
AM_HALFPOINTSECTION
  2
AcDmHalfPointSection
  3
AcMechDwgViewMgmt
 90
    32768
280
     0
281
     0
  0
CLASS
  1
AMDTMAPISURFMOUDULE
  2
AmdtMApiSurfModule
  3
MApiSurfServices
 90
        0
280
     0
281
     0
  0
CLASS
  1
ACDMPARTVIEWDATA
  2
AcDmPartViewData
  3
AcMechDwgViewMgmt
 90
    32768
280
     0
281
     0
  0
CLASS
  1
ACDMDISPLAYATTRIBS
  2
AcDmDisplayAttribs
  3
AcMechDwgViewMgmt
 90
    32768
280
     0
281
     0
  0
CLASS
  1
ACDMBODYINSTANCEDATA
  2
AcDmBodyInstanceData
  3
AcMechDwgViewMgmt
 90
    32768
280
     0
281
     0
  0
CLASS
  1
AMDTFORMULAUPDATEDISPATCHER
  2
AmdtFormulaUpdateDispatcher
  3
AcMeServices
 90
    32768
280
     0
281
     0
  0
CLASS
  1
ACAMGTITLESTD
  2
AcAmgTitleStd
  3
"TITLEAPP"
 90
        0
280
     0
281
     0
  0
CLASS
  1
ACMDETAILSTANDARDANSI
  2
AmdtDetailSymStdANSI
  3
"Amdt_StdImp|Product Description: AutoCAD Mechanical 2004 DX|Company: Autodesk"
 90
        0
280
     0
281
     0
  0
CLASS
  1
ACMSECTIONSTANDARDANSI
  2
AmdtSectionSymStdANSI
  3
"Amdt_StdImp|Product Description: AutoCAD Mechanical 2004 DX|Company: Autodesk"
 90
        0
280
     0
281
     0
  0
CLASS
  1
ACMCENTERLINESTANDARDANSI
  2
AmdtCenterLineStdANSI
  3
"Amdt_StdImp|Product Description: AutoCAD Mechanical 2004 DX|Company: Autodesk"
 90
        0
280
     0
281
     0
  0
CLASS
  1
ACMTHREADLINESTANDARDANSI
  2
AmdtThreadLineStdANSI
  3
"Amdt_StdImp|Product Description: AutoCAD Mechanical 2004 DX|Company: Autodesk"
 90
        0
280
     0
281
     0
  0
CLASS
  1
ACMNOTESTANDARDANSI
  2
AmdtNoteStdANSI
  3
"Amdt_StdImp|Product Description: AutoCAD Mechanical 2004 DX|Company: Autodesk"
 90
        0
280
     0
281
     0
  0
CLASS
  1
ACAMGLAYSTD
  2
AcAmgLayStd
  3
"AcAmgLayStd|Product Description: AutoCAD Mechanical 2000|Company: Autodesk"
 90
        0
280
     0
281
     0
  0
CLASS
  1
ACAMGDIMSTD
  2
AcAmgDimStd
  3
"AcAmgDimStd|Product Description: AutoCAD Mechanical 2000|Company: Autodesk"
 90
        0
280
     0
281
     0
  0
CLASS
  1
ACAMGHOLECHARTSTDANSI
  2
AcAmgHoleChartStdANSI
  3
ACMSYMBB_MODULE_NAME
 90
        0
280
     0
281
     0
  0
CLASS
  1
AM_ABS_PLANE
  2
AcDmAbsPlnDef
  3
AcMechDwgViewMgmt
 90
    32768
280
     0
281
     0
  0
CLASS
  1
ACADPARTPOINTRES
  2
AcAdPartPointRes
  3
AdGrefServices
 90
    32768
280
     0
281
     0
  0
CLASS
  1
ACDBLINERES
  2
AcDbLineRes
  3
AcGrefServices
 90
    32768
280
     0
281
     0
  0
CLASS
  1
ACADPARTLINEDGRES
  2
AcAdPartLinEdgRes
  3
AdGrefServices
 90
    32768
280
     0
281
     0
  0
CLASS
  1
AM_GREF_AXIS
  2
AcDmGrefAxisDef
  3
AcMechDwgViewMgmt
 90
    32768
280
     0
281
     0
  0
CLASS
  1
ACADPARTSPLINEEDGERES
  2
AcAdPartSplineEdgeRes
  3
AdGrefServices
 90
    32768
280
     0
281
     0
  0
CLASS
  1
AMDTEDGESTANDARDISO
  2
AmdtEdgeStdISO
  3
"Amdt_StdImp|Product Description: AutoCAD Mechanical 2004 DX|Company: Autodesk"
 90
    32768
280
     0
281
     0
  0
CLASS
  1
ACMSURFSTANDARDISO
  2
AcmSurfTextStdISO
  3
"Amdt_StdImp|Product Description: AutoCAD Mechanical 2004 DX|Company: Autodesk"
 90
        0
280
     0
281
     0
  0
CLASS
  1
ACMFCFSTANDARDISO
  2
AcmFCFStdISO
  3
"Amdt_StdImp|Product Description: AutoCAD Mechanical 2004 DX|Company: Autodesk"
 90
        0
280
     0
281
     0
  0
CLASS
  1
ACMWELDSTANDARDISO
  2
AcmWeldingStdISO
  3
"Amdt_StdImp|Product Description: AutoCAD Mechanical 2004 DX|Company: Autodesk"
 90
        0
280
     0
281
     0
  0
CLASS
  1
ACMIDSTANDARDISO
  2
AcmIdStdISO
  3
"Amdt_StdImp|Product Description: AutoCAD Mechanical 2004 DX|Company: Autodesk"
 90
        0
280
     0
281
     0
  0
CLASS
  1
ACMDATUMSTANDARDISO
  2
AcmDatumStdISO
  3
"Amdt_StdImp|Product Description: AutoCAD Mechanical 2004 DX|Company: Autodesk"
 90
        0
280
     0
281
     0
  0
CLASS
  1
ACMBOMSTANDARDISO
  2
AcmBOMStdISO
  3
"Amdt_StdImp|Product Description: AutoCAD Mechanical 2004 DX|Company: Autodesk"
 90
        0
280
     0
281
     0
  0
CLASS
  1
ACMDETAILSTANDARDISO
  2
AmdtDetailSymStdISO
  3
"Amdt_StdImp|Product Description: AutoCAD Mechanical 2004 DX|Company: Autodesk"
 90
        0
280
     0
281
     0
  0
CLASS
  1
ACMSECTIONSTANDARDISO
  2
AmdtSectionSymStdISO
  3
"Amdt_StdImp|Product Description: AutoCAD Mechanical 2004 DX|Company: Autodesk"
 90
        0
280
     0
281
     0
  0
CLASS
  1
ACMCENTERLINESTANDARDISO
  2
AmdtCenterLineStdISO
  3
"Amdt_StdImp|Product Description: AutoCAD Mechanical 2004 DX|Company: Autodesk"
 90
        0
280
     0
281
     0
  0
CLASS
  1
ACMNOTESTANDARDISO
  2
AmdtNoteStdISO
  3
"Amdt_StdImp|Product Description: AutoCAD Mechanical 2004 DX|Company: Autodesk"
 90
        0
280
     0
281
     0
  0
CLASS
  1
ACAMGHOLECHARTSTDISO
  2
AcAmgHoleChartStdISO
  3
ACMSYMBB_MODULE_NAME
 90
        0
280
     0
281
     0
  0
CLASS
  1
TABLESTYLE
  2
AcDbTableStyle
  3
ObjectDBX Classes
 90
     2047
280
     0
281
     0
  0
CLASS
  1
AMDTEDGESTANDARDISO13715
  2
AmdtEdgeStdISO13715
  3
"Amdt_StdImp|Product Description: AutoCAD Mechanical 2004 DX|Company: Autodesk"
 90
        0
280
     0
281
     0
  0
CLASS
  1
ACMTHREADLINESTANDARDISO
  2
AmdtThreadLineStdISO
  3
"Amdt_StdImp|Product Description: AutoCAD Mechanical 2004 DX|Company: Autodesk"
 90
        0
280
     0
281
     0
  0
CLASS
  1
AMDTNOTETEMPLATEDB
  2
AmdtNoteTemplateDB
  3
AMDT_STDIMP_MODULE_NAME
 90
        0
280
     0
281
     0
  0
CLASS
  1
ACMDIMBREAKPERSREACTOR
  2
AcmDimBreakPersReactor
  3
amgDimApp().moduleName()
 90
     1023
280
     0
281
     0
  0
CLASS
  1
SORTENTSTABLE
  2
AcDbSortentsTable
  3
ObjectDBX Classes
 90
        0
280
     0
281
     0
  0
ENDSEC
  0
SECTION
  2
TABLES
  0
TABLE
  2
VPORT
  5
1A
330
0
100
AcDbSymbolTable
 70
     9
  0
VPORT
  5
10507
330
1A
100
AcDbSymbolTableRecord
100
AcDbViewportTableRecord
  2
*Active
 70
     0
 10
0.0
 20
0.0
 11
1.0
 21
1.0
 12
14.63945942480109
 22
-2.4944597430366
 13
0.0
 23
0.0
 14
0.5
 24
0.5
 15
0.5
 25
0.5
 16
0.0
 26
0.0
 36
1.0
 17
1149.529827082222
 27
813.2510653652035
 37
0.0
 40
13.49313177253996
 41
0.9815602836879433
 42
50.0
 43
0.0
 44
0.0
 50
0.0
 51
0.0
 71
     0
 72
   100
 73
     1
 74
     1
 75
     0
 76
     1
 77
     0
 78
     0
281
     0
 65
     0
110
0.0
120
0.0
130
0.0
111
1.0
121
0.0
131
0.0
112
0.0
122
1.0
132
0.0
 79
     0
146
0.0
  0
ENDTAB
  0
TABLE
  2
LTYPE
  5
15
330
0
100
AcDbSymbolTable
 70
    20
  0
LTYPE
  5
16
330
15
100
AcDbSymbolTableRecord
100
AcDbLinetypeTableRecord
  2
BYBLOCK
 70
     0
  3

 72
    65
 73
     0
 40
0.0
  0
LTYPE
  5
17
330
15
100
AcDbSymbolTableRecord
100
AcDbLinetypeTableRecord
  2
BYLAYER
 70
     0
  3

 72
    65
 73
     0
 40
0.0
  0
LTYPE
  5
9
330
15
100
AcDbSymbolTableRecord
100
AcDbLinetypeTableRecord
  2
CONTINUOUS
 70
     0
  3
Solid line
 72
    65
 73
     0
 40
0.0
  0
LTYPE
  5
2B
330
15
100
AcDbSymbolTableRecord
100
AcDbLinetypeTableRecord
  2
CENTER
 70
     0
  3
____ _ ____ _ ____ _ ____ _ ____ _ ____ _ ____ 
 72
    65
 73
     4
 40
2.0
 49
1.25
 74
     0
 49
-0.25
 74
     0
 49
0.25
 74
     0
 49
-0.25
 74
     0
  0
LTYPE
  5
39
330
15
100
AcDbSymbolTableRecord
100
AcDbLinetypeTableRecord
  2
HIDDEN2
 70
     0
  3
Hidden (.5x) _ _ _ _ _ _ _ _ _ _ _ _ _ _ _ _ _
 72
    65
 73
     2
 40
4.762499999999999
 49
3.174999999999999
 74
     0
 49
-1.587499999999999
 74
     0
  0
LTYPE
  5
2303
330
15
100
AcDbSymbolTableRecord
100
AcDbLinetypeTableRecord
  2
DASHED
 70
     0
  3
__ __ __ __ __ __ __ __ __ __ __ __ __ __ __ __
 72
    65
 73
     2
 40
0.75
 49
0.5
 74
     0
 49
-0.25
 74
     0
  0
LTYPE
  5
242F
330
15
100
AcDbSymbolTableRecord
100
AcDbLinetypeTableRecord
  2
HIDDEN
 70
     0
  3
Hidden __ __ __ __ __ __ __ __ __ __ __ __ __ _
 72
    65
 73
     2
 40
9.524999999999998
 49
6.349999999999999
 74
     0
 49
-3.174999999999999
 74
     0
  0
LTYPE
  5
F672
330
15
100
AcDbSymbolTableRecord
100
AcDbLinetypeTableRecord
  2
AM_ISO02W050
 70
     0
  3
__ __ __ __ __ __ __ __ __ __ __ __ __ __ __
 72
    65
 73
     2
 40
7.5
 49
6.0
 74
     0
 49
-1.5
 74
     0
  0
LTYPE
  5
F673
330
15
100
AcDbSymbolTableRecord
100
AcDbLinetypeTableRecord
  2
AM_ISO08W050
 70
     0
  3
____ . ____ . ____ . ____ . ____ . ____ . ____
 72
    65
 73
     4
 40
18.0
 49
12.0
 74
     0
 49
-1.5
 74
     0
 49
3.0
 74
     0
 49
-1.5
 74
     0
  0
LTYPE
  5
F674
330
15
100
AcDbSymbolTableRecord
100
AcDbLinetypeTableRecord
  2
AM_ISO09W050
 70
     0
  3
_____ . . _____ . . _____ . . ____ .. ____
 72
    65
 73
     6
 40
22.5
 49
12.0
 74
     0
 49
-1.5
 74
     0
 49
3.0
 74
     0
 49
-1.5
 74
     0
 49
3.0
 74
     0
 49
-1.5
 74
     0
  0
LTYPE
  5
F675
330
15
100
AcDbSymbolTableRecord
100
AcDbLinetypeTableRecord
  2
Amconstr
 70
     0
  3
_______________________
 72
    65
 73
     2
 40
9999.0
 49
9999.0
 74
     0
 49
0.0
 74
     0
  0
LTYPE
  5
F676
330
15
100
AcDbSymbolTableRecord
100
AcDbLinetypeTableRecord
  2
AM_ISO08W050x2
 70
     0
  3
__ . __ . __ . __ . __ . __
 72
    65
 73
     4
 40
9.0
 49
6.0
 74
     0
 49
-0.75
 74
     0
 49
1.5
 74
     0
 49
-0.75
 74
     0
  0
LTYPE
  5
F677
330
15
100
AcDbSymbolTableRecord
100
AcDbLinetypeTableRecord
  2
AM_ISO02W050x2
 70
     0
  3
 _ _ _ _ _ _ _ _ _ _ _ _
 72
    65
 73
     2
 40
3.75
 49
3.0
 74
     0
 49
-0.75
 74
     0
  0
LTYPE
  5
F67A
330
15
100
AcDbSymbolTableRecord
100
AcDbLinetypeTableRecord
  2
Amzigzag
 70
     0
  3
/\/-/\/-/\/-/\/-/\/-/\/
 72
    65
 73
     2
 40
11.0001
 49
0.0001
 74
     4
 75
   135
340
F679
 46
0.04
 50
0.0
 44
0.0
 45
0.0
 49
-11.0
 74
     0
  0
LTYPE
  5
F688
330
15
100
AcDbSymbolTableRecord
100
AcDbLinetypeTableRecord
  2
ACISOWELD
 70
     0
  3
_ _ _ _ _
 72
    65
 73
     2
 40
2.0
 49
2.0
 74
     0
 49
-1.0
 74
     0
  0
LTYPE
  5
F689
330
15
100
AcDbSymbolTableRecord
100
AcDbLinetypeTableRecord
  2
ACISOTGB
 70
     0
  3
__ . . __ . .
 72
    65
 73
     6
 40
9.0
 49
4.0
 74
     0
 49
-1.0
 74
     0
 49
1.0
 74
     0
 49
-1.0
 74
     0
 49
1.0
 74
     0
 49
-1.0
 74
     0
  0
LTYPE
  5
F68A
330
15
100
AcDbSymbolTableRecord
100
AcDbLinetypeTableRecord
  2
ACISOTGL
 70
     0
  3
_ _ _ _ _
 72
    65
 73
     2
 40
3.0
 49
2.0
 74
     0
 49
-1.0
 74
     0
  0
LTYPE
  5
FA70
330
15
100
AcDbSymbolTableRecord
100
AcDbLinetypeTableRecord
  2
PHANTOM2
 70
     0
  3
Phantom (.5x) ___ _ _ ___ _ _ ___ _ _ ___ _ _
 72
    65
 73
     6
 40
31.75
 49
15.875
 74
     0
 49
-3.174999999999999
 74
     0
 49
3.174999999999999
 74
     0
 49
-3.174999999999999
 74
     0
 49
3.174999999999999
 74
     0
 49
-3.174999999999999
 74
     0
  0
LTYPE
  5
FB27
330
15
100
AcDbSymbolTableRecord
100
AcDbLinetypeTableRecord
  2
ACANSTGB
 70
     0
  3
__ . . __ . .
 72
    65
 73
     6
 40
0.35433070866
 49
0.15748031496
 74
     0
 49
-0.03937007874
 74
     0
 49
0.03937007874
 74
     0
 49
-0.03937007874
 74
     0
 49
0.03937007874
 74
     0
 49
-0.03937007874
 74
     0
  0
LTYPE
  5
FB28
330
15
100
AcDbSymbolTableRecord
100
AcDbLinetypeTableRecord
  2
ACANSTGL
 70
     0
  3
_ _ _ _ _
 72
    65
 73
     2
 40
0.11811023622
 49
0.07874015748
 74
     0
 49
-0.03937007874
 74
     0
  0
ENDTAB
  0
TABLE
  2
LAYER
  5
11
102
{ACAD_XDICTIONARY
360
FB37
102
}
330
0
100
AcDbSymbolTable
 70
     9
  0
LAYER
  5
5
330
11
100
AcDbSymbolTableRecord
100
AcDbLayerTableRecord
  2
0
 70
     0
 62
     7
  6
CONTINUOUS
370
    -3
390
6
  0
LAYER
  5
8B
330
11
100
AcDbSymbolTableRecord
100
AcDbLayerTableRecord
  2
AM_VIS
 70
     0
 62
     7
  6
CONTINUOUS
370
    30
390
6
  0
LAYER
  5
2A
330
11
100
AcDbSymbolTableRecord
100
AcDbLayerTableRecord
  2
AM_7
 70
     0
 62
     1
  6
CENTER
370
    15
390
6
  0
LAYER
  5
38
330
11
100
AcDbSymbolTableRecord
100
AcDbLayerTableRecord
  2
AM_4
 70
     0
 62
     5
  6
CONTINUOUS
370
    30
390
6
  0
LAYER
  5
1F8
330
11
100
AcDbSymbolTableRecord
100
AcDbLayerTableRecord
  2
DIM
 70
     0
 62
     5
  6
CONTINUOUS
370
    -3
390
6
  0
LAYER
  5
1FA
330
11
100
AcDbSymbolTableRecord
100
AcDbLayerTableRecord
  2
Defpoints
 70
     0
 62
     7
  6
CONTINUOUS
290
     0
370
    -3
390
6
  0
LAYER
  5
1FDE
330
11
100
AcDbSymbolTableRecord
100
AcDbLayerTableRecord
  2
LOGO
 70
     0
 62
     7
  6
CONTINUOUS
370
    -3
390
6
  0
LAYER
  5
2431
330
11
100
AcDbSymbolTableRecord
100
AcDbLayerTableRecord
  2
AM_HID
 70
     0
 62
     5
  6
HIDDEN
370
    50
390
6
  0
LAYER
  5
FF4C
330
11
100
AcDbSymbolTableRecord
100
AcDbLayerTableRecord
  2
SL
 70
     0
 62
     2
  6
CONTINUOUS
370
    -3
390
6
1001
AcAecLayerStandard
1000

1000

  0
ENDTAB
  0
TABLE
  2
STYLE
  5
12
330
0
100
AcDbSymbolTable
 70
     8
  0
STYLE
  5
13
330
12
100
AcDbSymbolTableRecord
100
AcDbTextStyleTableRecord
  2
STANDARD
 70
     0
 40
0.0
 41
1.0
 50
0.0
 71
     0
 42
0.2
  3
txt
  4

  0
STYLE
  5
21
330
12
100
AcDbSymbolTableRecord
100
AcDbTextStyleTableRecord
  2
DAYUS
 70
     0
 40
0.0
 41
1.0
 50
0.0
 71
     0
 42
3.0
  3
simplex.shx
  4
dayus.shx
  0
STYLE
  5
208
330
12
100
AcDbSymbolTableRecord
100
AcDbTextStyleTableRecord
  2
CHINESET
 70
     0
 40
0.0
 41
1.0
 50
0.0
 71
     0
 42
0.5
  3
simplex.shx
  4
chineset.shx
  0
STYLE
  5
F679
330
12
100
AcDbSymbolTableRecord
100
AcDbTextStyleTableRecord
  2

 70
     1
 40
0.0
 41
1.0
 50
0.0
 71
     0
 42
0.5
  3
ltypeshp.shx
  4

  0
STYLE
  5
F67B
330
12
100
AcDbSymbolTableRecord
100
AcDbTextStyleTableRecord
  2
ACISOTS
 70
     0
 40
1.0
 41
1.0
 50
0.0
 71
     0
 42
0.5
  3
isocp.shx
  4
chineset.shx
  0
STYLE
  5
F687
330
12
100
AcDbSymbolTableRecord
100
AcDbTextStyleTableRecord
  2
ACISOGDT
 70
     0
 40
0.0
 41
1.0
 50
0.0
 71
     0
 42
0.5
  3
amgdt.shx
  4

  0
STYLE
  5
FB29
330
12
100
AcDbSymbolTableRecord
100
AcDbTextStyleTableRecord
  2
ACANSTS
 70
     0
 40
1.0
 41
1.0
 50
0.0
 71
     0
 42
1.0
  3
romans.shx
  4
chineset.shx
  0
STYLE
  5
FB2A
330
12
100
AcDbSymbolTableRecord
100
AcDbTextStyleTableRecord
  2
ACANSGDT
 70
     0
 40
0.0
 41
1.0
 50
0.0
 71
     0
 42
1.0
  3
amgdtans.shx
  4

  0
ENDTAB
  0
TABLE
  2
VIEW
  5
18
330
0
100
AcDbSymbolTable
 70
     0
  0
ENDTAB
  0
TABLE
  2
UCS
  5
19
330
0
100
AcDbSymbolTable
 70
     0
  0
ENDTAB
  0
TABLE
  2
APPID
  5
1C
330
0
100
AcDbSymbolTable
 70
    24
  0
APPID
  5
1D
330
1C
100
AcDbSymbolTableRecord
100
AcDbRegAppTableRecord
  2
ACAD
 70
     0
  0
APPID
  5
F654
330
1C
100
AcDbSymbolTableRecord
100
AcDbRegAppTableRecord
  2
MCAD_NO_VIS
 70
     0
  0
APPID
  5
F655
330
1C
100
AcDbSymbolTableRecord
100
AcDbRegAppTableRecord
  2
ACAD_TEMP_GRAPHIC
 70
     0
  0
APPID
  5
F666
330
1C
100
AcDbSymbolTableRecord
100
AcDbRegAppTableRecord
  2
ACATTRIBSERVICES
 70
     0
  0
APPID
  5
F69B
330
1C
100
AcDbSymbolTableRecord
100
AcDbRegAppTableRecord
  2
GENIUS_GENSCREG_15
 70
     0
  0
APPID
  5
F69C
330
1C
100
AcDbSymbolTableRecord
100
AcDbRegAppTableRecord
  2
GENIUS_GENODEF_13
 70
     0
  0
APPID
  5
F69D
330
1C
100
AcDbSymbolTableRecord
100
AcDbRegAppTableRecord
  2
GENIUS_GENOBJ-N-SDF_13
 70
     0
  0
APPID
  5
FA3D
330
1C
100
AcDbSymbolTableRecord
100
AcDbRegAppTableRecord
  2
GENIUS_GENDIM_13
 70
     0
  0
APPID
  5
FA3E
330
1C
100
AcDbSymbolTableRecord
100
AcDbRegAppTableRecord
  2
GENIUS_GENDTOL_13
 70
     0
  0
APPID
  5
FA3F
330
1C
100
AcDbSymbolTableRecord
100
AcDbRegAppTableRecord
  2
GENIUS_GE3DTOL_13
 70
     0
  0
APPID
  5
FA72
330
1C
100
AcDbSymbolTableRecord
100
AcDbRegAppTableRecord
  2
AD_DRAW
 70
     0
  0
APPID
  5
FABE
330
1C
100
AcDbSymbolTableRecord
100
AcDbRegAppTableRecord
  2
ASURF_PCURVE_APPNAME
 70
     0
  0
APPID
  5
FAC3
330
1C
100
AcDbSymbolTableRecord
100
AcDbRegAppTableRecord
  2
AMG_3D2D_5.0
 70
     0
  0
APPID
  5
FAF2
330
1C
100
AcDbSymbolTableRecord
100
AcDbRegAppTableRecord
  2
DESIGNERASSEMBLIES
 70
     0
  0
APPID
  5
FAF8
330
1C
100
AcDbSymbolTableRecord
100
AcDbRegAppTableRecord
  2
ACADM_DIM_EDIT
 70
     0
  0
APPID
  5
FAF9
330
1C
100
AcDbSymbolTableRecord
100
AcDbRegAppTableRecord
  2
AMDT_DM_ADJ
 70
     0
  0
APPID
  5
FB31
330
1C
100
AcDbSymbolTableRecord
100
AcDbRegAppTableRecord
  2
GENIUS_GENOENT_13
 70
     0
  0
APPID
  5
FB32
330
1C
100
AcDbSymbolTableRecord
100
AcDbRegAppTableRecord
  2
GENIUS_GENOBJ-N-CRS_13
 70
     0
  0
APPID
  5
FB33
330
1C
100
AcDbSymbolTableRecord
100
AcDbRegAppTableRecord
  2
GENIUS_GENOLIS_13
 70
     0
  0
APPID
  5
FB34
330
1C
100
AcDbSymbolTableRecord
100
AcDbRegAppTableRecord
  2
GENIUS_GENOREF_13
 70
     0
  0
APPID
  5
FB35
330
1C
100
AcDbSymbolTableRecord
100
AcDbRegAppTableRecord
  2
GENIUS_GENREC_14
 70
     0
  0
APPID
  5
FB36
330
1C
100
AcDbSymbolTableRecord
100
AcDbRegAppTableRecord
  2
GENIUS_GENOBJ-N-REC_13
 70
     0
  0
APPID
  5
FF4E
330
1C
100
AcDbSymbolTableRecord
100
AcDbRegAppTableRecord
  2
ACAD_PSEXT
 70
     0
  0
APPID
  5
FF4F
330
1C
100
AcDbSymbolTableRecord
100
AcDbRegAppTableRecord
  2
AcAecLayerStandard
 70
     0
  0
ENDTAB
  0
TABLE
  2
DIMSTYLE
  5
1E
330
0
100
AcDbSymbolTable
 70
    14
100
AcDbDimStyleTable
 71
     0
  0
DIMSTYLE
105
22
102
{ACAD_REACTORS
330
D95A
330
D97E
330
D98D
330
D99B
330
D9B5
330
D9C3
330
D9EC
330
D9FB
330
DA44
330
DA51
330
DA5E
330
DA6B
330
DAF4
330
DB0F
330
DB1C
330
DB29
330
DB37
330
DB45
330
DB76
330
DC6E
330
DC82
330
DC7C
330
DC7E
330
DC92
330
DC98
330
DC9B
330
D970
102
}
330
1E
100
AcDbSymbolTableRecord
100
AcDbDimStyleTableRecord
  2
STANDARD
 70
     0
 41
0.12
 42
0.06
 43
0.3
 44
0.08
 47
0.01
 48
0.01
 73
     0
 74
     0
 77
     3
 78
    10
 79
     2
140
0.12
141
0.0
146
0.6
147
0.04
170
     1
172
     1
176
   256
177
   256
178
   256
271
     2
272
     2
284
     8
285
     2
340
21
371
    -1
372
    -1
  0
DIMSTYLE
105
F68E
330
1E
100
AcDbSymbolTableRecord
100
AcDbDimStyleTableRecord
  2
AM_ISO
 70
     0
  4
"
 41
2.5
 42
1.0
 43
10.0
 44
1.0
 47
0.1
 48
0.1
 73
     0
 74
     0
 77
     1
 78
     8
 79
     2
140
3.5
141
0.0
143
0.0393701
146
0.71
147
1.5
172
     1
176
   256
177
   256
178
     2
271
     2
272
     3
274
     4
283
     0
284
     8
340
13
371
    -1
372
    -1
  0
DIMSTYLE
105
F68F
330
1E
100
AcDbSymbolTableRecord
100
AcDbDimStyleTableRecord
  2
AM_ISO$3
 70
     0
  4
"
 41
2.5
 42
1.0
 43
10.0
 44
1.0
 47
0.1
 48
0.1
 73
     0
 77
     1
 78
     8
 79
     2
140
3.5
141
0.0
143
0.0393701
146
0.71
147
1.5
176
   256
177
   256
178
     2
271
     2
272
     3
274
     4
283
     0
284
     8
288
     1
289
     0
340
13
371
    -1
372
    -1
  0
DIMSTYLE
105
F690
330
1E
100
AcDbSymbolTableRecord
100
AcDbDimStyleTableRecord
  2
AM_ISO$4
 70
     0
  4
"
 41
2.5
 42
1.0
 43
10.0
 44
1.0
 47
0.1
 48
0.1
 73
     0
 77
     1
 78
     8
 79
     2
140
3.5
141
0.0
143
0.0393701
146
0.71
147
1.5
176
   256
177
   256
178
     2
271
     2
272
     3
274
     4
283
     0
284
     8
288
     1
289
     0
340
13
371
    -1
372
    -1
  0
DIMSTYLE
105
F691
330
1E
100
AcDbSymbolTableRecord
100
AcDbDimStyleTableRecord
  2
AM_ISO$6
 70
     0
  4
"
 41
2.5
 42
1.0
 43
10.0
 44
1.0
 47
0.1
 48
0.1
 73
     0
 74
     0
 78
     8
 79
     2
140
3.5
141
0.0
143
0.0393701
146
0.71
147
1.5
172
     1
176
   256
177
   256
178
     2
271
     2
272
     3
274
     4
283
     0
284
     8
340
13
371
    -1
372
    -1
  0
DIMSTYLE
105
F692
330
1E
100
AcDbSymbolTableRecord
100
AcDbDimStyleTableRecord
  2
AM_ISO$7
 70
     0
  4
"
 41
2.5
 42
1.0
 43
10.0
 44
1.0
 47
0.1
 48
0.1
 73
     0
 74
     0
 77
     1
 78
     8
 79
     2
140
5.0
141
0.0
143
0.0393701
146
0.71
147
1.5
172
     1
176
   256
177
   256
178
     2
271
     2
272
     3
274
     4
283
     0
284
     8
340
13
371
    -1
372
    -1
  0
DIMSTYLE
105
F693
330
1E
100
AcDbSymbolTableRecord
100
AcDbDimStyleTableRecord
  2
AM_ISO$SF
 70
     0
  4
"
 41
2.5
 42
1.0
 43
10.0
 44
1.0
 47
0.1
 48
0.1
 73
     0
 74
     0
 75
     1
 76
     1
 77
     1
 78
     8
 79
     2
140
3.5
141
0.0
143
0.0393701
146
0.71
147
1.5
172
     1
176
   256
177
   256
178
     2
271
     2
272
     3
274
     4
283
     0
284
     8
340
13
371
    -1
372
    -1
  0
DIMSTYLE
105
F698
330
1E
100
AcDbSymbolTableRecord
100
AcDbDimStyleTableRecord
  2
AM_ISO$SH
 70
     0
  4
"
 41
2.5
 42
1.0
 43
10.0
 44
1.0
 47
0.1
 48
0.1
 73
     0
 74
     0
 75
     1
 76
     1
 77
     1
 78
     8
 79
     2
140
3.5
141
0.0
143
0.0393701
144
2.0
146
0.71
147
1.5
172
     1
173
     1
176
   256
177
   256
178
     2
271
     2
272
     3
274
     4
283
     0
284
     8
340
13
341
F694
343
F694
371
    -1
372
    -1
  0
DIMSTYLE
105
FB2B
330
1E
100
AcDbSymbolTableRecord
100
AcDbDimStyleTableRecord
  2
AM_ANSI
 70
     0
  4
mm
 41
0.1
 42
0.05
 43
0.5
 44
0.1
 47
0.1
 48
0.1
 78
     7
 79
     2
140
0.12
141
0.0
146
0.71
147
0.06
176
   256
177
   256
178
     2
274
     4
284
     7
340
13
371
    -1
372
    -1
  0
DIMSTYLE
105
FB2C
330
1E
100
AcDbSymbolTableRecord
100
AcDbDimStyleTableRecord
  2
AM_ANSI$3
 70
     0
  4
mm
 41
0.1
 42
0.05
 43
0.5
 44
0.1
 47
0.1
 48
0.1
 78
     7
 79
     2
140
0.12
141
0.0
146
0.71
147
0.06
176
   256
177
   256
178
     2
274
     4
284
     7
288
     1
289
     0
340
13
371
    -1
372
    -1
  0
DIMSTYLE
105
FB2D
330
1E
100
AcDbSymbolTableRecord
100
AcDbDimStyleTableRecord
  2
AM_ANSI$4
 70
     0
  4
mm
 41
0.1
 42
0.05
 43
0.5
 44
0.1
 47
0.1
 48
0.1
 78
     7
 79
     2
140
0.12
141
0.0
146
0.71
147
0.06
176
   256
177
   256
178
     2
274
     4
284
     7
288
     1
289
     0
340
13
371
    -1
372
    -1
  0
DIMSTYLE
105
FB2E
330
1E
100
AcDbSymbolTableRecord
100
AcDbDimStyleTableRecord
  2
AM_ANSI$7
 70
     0
  4
mm
 41
0.1
 42
0.05
 43
0.5
 44
0.1
 47
0.1
 48
0.1
 78
     7
 79
     2
140
0.24
141
0.0
146
0.71
147
0.06
176
   256
177
   256
178
     2
274
     4
284
     7
340
13
371
    -1
372
    -1
  0
DIMSTYLE
105
FB2F
330
1E
100
AcDbSymbolTableRecord
100
AcDbDimStyleTableRecord
  2
AM_ANSI$SF
 70
     0
  4
mm
 41
0.1
 42
0.05
 43
0.5
 44
0.1
 47
0.1
 48
0.1
 75
     1
 76
     1
 78
     7
 79
     2
140
0.12
141
0.0
146
0.71
147
0.06
176
   256
177
   256
178
     2
274
     4
284
     7
340
13
371
    -1
372
    -1
  0
DIMSTYLE
105
FB30
330
1E
100
AcDbSymbolTableRecord
100
AcDbDimStyleTableRecord
  2
AM_ANSI$SH
 70
     0
  4
mm
 41
0.1
 42
0.05
 43
0.5
 44
0.1
 47
0.1
 48
0.1
 75
     1
 76
     1
 78
     7
 79
     2
140
0.12
141
0.0
146
0.71
147
0.06
173
     1
176
   256
177
   256
178
     2
274
     4
284
     7
340
13
341
F694
343
F694
371
    -1
372
    -1
  0
ENDTAB
  0
TABLE
  2
BLOCK_RECORD
  5
1
330
0
100
AcDbSymbolTable
 70
    27
  0
BLOCK_RECORD
  5
2
102
{ACAD_XDICTIONARY
360
3
102
}
330
1
100
AcDbSymbolTableRecord
100
AcDbBlockTableRecord
  2
*MODEL_SPACE
340
B
  0
BLOCK_RECORD
  5
BBB
102
{ACAD_XDICTIONARY
360
F5FF
102
}
330
1
100
AcDbSymbolTableRecord
100
AcDbBlockTableRecord
  2
*Paper_Space
340
BBC
  0
BLOCK_RECORD
  5
D
102
{ACAD_XDICTIONARY
360
F601
102
}
330
1
100
AcDbSymbolTableRecord
100
AcDbBlockTableRecord
  2
*Paper_Space0
340
10
  0
BLOCK_RECORD
  5
D95B
330
1
100
AcDbSymbolTableRecord
100
AcDbBlockTableRecord
  2
*D1
340
0
  0
BLOCK_RECORD
  5
D971
330
1
100
AcDbSymbolTableRecord
100
AcDbBlockTableRecord
  2
*D2
340
0
  0
BLOCK_RECORD
  5
D97F
330
1
100
AcDbSymbolTableRecord
100
AcDbBlockTableRecord
  2
*D3
340
0
  0
BLOCK_RECORD
  5
D98E
330
1
100
AcDbSymbolTableRecord
100
AcDbBlockTableRecord
  2
*D4
340
0
  0
BLOCK_RECORD
  5
D99C
330
1
100
AcDbSymbolTableRecord
100
AcDbBlockTableRecord
  2
*D5
340
0
  0
BLOCK_RECORD
  5
D9B6
330
1
100
AcDbSymbolTableRecord
100
AcDbBlockTableRecord
  2
*D6
340
0
  0
BLOCK_RECORD
  5
D9C4
330
1
100
AcDbSymbolTableRecord
100
AcDbBlockTableRecord
  2
*D7
340
0
  0
BLOCK_RECORD
  5
D9ED
330
1
100
AcDbSymbolTableRecord
100
AcDbBlockTableRecord
  2
*D8
340
0
  0
BLOCK_RECORD
  5
D9FC
330
1
100
AcDbSymbolTableRecord
100
AcDbBlockTableRecord
  2
*D9
340
0
  0
BLOCK_RECORD
  5
DA45
330
1
100
AcDbSymbolTableRecord
100
AcDbBlockTableRecord
  2
*D10
340
0
  0
BLOCK_RECORD
  5
DA52
330
1
100
AcDbSymbolTableRecord
100
AcDbBlockTableRecord
  2
*D11
340
0
  0
BLOCK_RECORD
  5
DA5F
330
1
100
AcDbSymbolTableRecord
100
AcDbBlockTableRecord
  2
*D12
340
0
  0
BLOCK_RECORD
  5
DA6C
330
1
100
AcDbSymbolTableRecord
100
AcDbBlockTableRecord
  2
*D13
340
0
  0
BLOCK_RECORD
  5
DAF5
330
1
100
AcDbSymbolTableRecord
100
AcDbBlockTableRecord
  2
*D14
340
0
  0
BLOCK_RECORD
  5
DB10
330
1
100
AcDbSymbolTableRecord
100
AcDbBlockTableRecord
  2
*D15
340
0
  0
BLOCK_RECORD
  5
DB1D
330
1
100
AcDbSymbolTableRecord
100
AcDbBlockTableRecord
  2
*D16
340
0
  0
BLOCK_RECORD
  5
DB2A
330
1
100
AcDbSymbolTableRecord
100
AcDbBlockTableRecord
  2
*D17
340
0
  0
BLOCK_RECORD
  5
DB38
330
1
100
AcDbSymbolTableRecord
100
AcDbBlockTableRecord
  2
*D18
340
0
  0
BLOCK_RECORD
  5
DB46
330
1
100
AcDbSymbolTableRecord
100
AcDbBlockTableRecord
  2
*D19
340
0
  0
BLOCK_RECORD
  5
DB77
330
1
100
AcDbSymbolTableRecord
100
AcDbBlockTableRecord
  2
*D20
340
0
  0
BLOCK_RECORD
  5
DC6F
330
1
100
AcDbSymbolTableRecord
100
AcDbBlockTableRecord
  2
*D21
340
0
  0
BLOCK_RECORD
  5
DC83
330
1
100
AcDbSymbolTableRecord
100
AcDbBlockTableRecord
  2
*D22
340
0
  0
BLOCK_RECORD
  5
F694
330
1
100
AcDbSymbolTableRecord
100
AcDbBlockTableRecord
  2
GENAXEH
340
0
  0
BLOCK_RECORD
  5
101F1
102
{ACAD_XDICTIONARY
360
101F2
102
}
330
1
100
AcDbSymbolTableRecord
100
AcDbBlockTableRecord
  2
A$C0FBC3824
340
0
102
{BLKREFS
331
1020C
102
}
  0
BLOCK_RECORD
  5
101F9
102
{ACAD_XDICTIONARY
360
101FA
102
}
330
1
100
AcDbSymbolTableRecord
100
AcDbBlockTableRecord
  2
A$C7A150A0F
340
0
102
{BLKREFS
331
1020D
102
}
  0
ENDTAB
  0
ENDSEC
  0
SECTION
  2
BLOCKS
  0
BLOCK
  5
4
330
2
100
AcDbEntity
  8
0
100
AcDbBlockBegin
  2
*MODEL_SPACE
 70
     0
 10
0.0
 20
0.0
 30
0.0
  3
*MODEL_SPACE
  1

  0
ENDBLK
  5
A
330
2
100
AcDbEntity
  8
0
100
AcDbBlockEnd
  0
BLOCK
  5
BBD
330
BBB
100
AcDbEntity
 67
     1
  8
0
100
AcDbBlockBegin
  2
*Paper_Space
 70
     0
 10
0.0
 20
0.0
 30
0.0
  3
*Paper_Space
  1

  0
ENDBLK
  5
BBE
330
BBB
100
AcDbEntity
 67
     1
  8
0
100
AcDbBlockEnd
  0
BLOCK
  5
E
330
D
100
AcDbEntity
  8
0
100
AcDbBlockBegin
  2
*Paper_Space0
 70
     0
 10
0.0
 20
0.0
 30
0.0
  3
*Paper_Space0
  1

  0
VIEWPORT
  5
640
102
{ACAD_XDICTIONARY
360
1050E
102
}
330
D
100
AcDbEntity
  8
0
100
AcDbViewport
 10
184.9324014823572
 20
101.2295806407929
 30
0.0
 40
377.3789631209644
 41
209.9733276367188
 69
     0
 12
184.9324014823572
 22
101.2295806407929
 13
0.0
 23
0.0
 14
0.5
 24
0.5
 15
0.5
 25
0.5
 16
0.0
 26
0.0
 36
1.0
 17
0.0
 27
0.0
 37
0.0
 42
50.0
 43
0.0
 44
0.0
 45
209.9733276367188
 50
0.0
 51
0.0
 72
   100
 90
    32800
  1

281
     0
 71
     1
 74
     0
110
0.0
120
0.0
130
0.0
111
1.0
121
0.0
131
0.0
112
0.0
122
1.0
132
0.0
 79
     0
146
0.0
1001
GENIUS_GENOBJ-N-SDF_13
1002
{
1000
OWNER
1000
GEN
1002
}
1001
GENIUS_GENODEF_13
1002
{
1000
HIER
1070
     0
1002
}
1002
{
1000
MANEDIT
1070
     0
1002
}
1002
{
1000
NOSEL
1070
     0
1002
}
1002
{
1000
BEHIND
1070
     0
1002
}
1002
{
1000
OTHER
1070
     0
1002
}
1002
{
1000
REACTOR
1002
}
1001
GENIUS_GENSCREG_15
1000
PF
1040
1.0
1000
DF
1040
1.0
1000
MIN
1011
-3.757080078125
1021
-3.757083177566528
1031
0.0
1000
MAX
1011
373.6218830428394
1021
206.2162444591523
1031
0.0
1000
FLAGS
1070
     2
  0
ENDBLK
  5
F
330
D
100
AcDbEntity
  8
0
100
AcDbBlockEnd
  0
BLOCK
  5
D965
330
D95B
100
AcDbEntity
  8
0
 62
     5
 48
0.5
100
AcDbBlockBegin
  2
*D1
 70
     1
 10
0.0
 20
0.0
 30
0.0
  3
*D1
  1

  0
LINE
  5
1030A
330
D95B
100
AcDbEntity
  8
DIM
  6
HIDDEN2
 48
0.5
100
AcDbLine
 10
1165.474972118514
 20
809.3968455745219
 30
0.0
 11
1165.474972118514
 21
808.993470873731
 31
0.0
  0
LINE
  5
1030B
330
D95B
100
AcDbEntity
  8
DIM
  6
HIDDEN2
 48
0.5
100
AcDbLine
 10
1166.734972118513
 20
809.3968455745219
 30
0.0
 11
1166.734972118513
 21
808.993470873731
 31
0.0
  0
LINE
  5
1030C
330
D95B
100
AcDbEntity
  8
DIM
  6
HIDDEN2
 48
0.5
100
AcDbLine
 10
1165.594972118513
 20
809.073470873731
 30
0.0
 11
1166.614972118513
 21
809.073470873731
 31
0.0
  0
SOLID
  5
1030D
330
D95B
100
AcDbEntity
  8
DIM
  6
HIDDEN2
 48
0.5
100
AcDbTrace
 10
1165.594972118513
 20
809.0934708737309
 30
0.0
 11
1165.594972118513
 21
809.053470873731
 31
0.0
 12
1165.474972118514
 22
809.073470873731
 32
0.0
 13
1165.474972118514
 23
809.073470873731
 33
0.0
  0
SOLID
  5
1030E
330
D95B
100
AcDbEntity
  8
DIM
  6
HIDDEN2
 48
0.5
100
AcDbTrace
 10
1166.614972118513
 20
809.0934708737309
 30
0.0
 11
1166.614972118513
 21
809.053470873731
 31
0.0
 12
1166.734972118513
 22
809.073470873731
 32
0.0
 13
1166.734972118513
 23
809.073470873731
 33
0.0
  0
MTEXT
  5
1030F
330
D95B
100
AcDbEntity
  8
DIM
  6
HIDDEN2
 48
0.5
100
AcDbMText
 10
1166.104972118513
 20
809.2048994451596
 30
0.0
 40
0.12
 41
0.0
 71
     5
 72
     1
  1
\A1;1.26 [32.00]
  7
DAYUS
 73
     1
 44
1.0
1001
ACAD
1000
MTEXTBEGIN
1070
    73
1070
     1
1070
    44
1040
1.0
1070
    74
1070
     0
1000
MTEXTEND
  0
POINT
  5
10310
330
D95B
100
AcDbEntity
  8
Defpoints
  6
HIDDEN2
 62
     0
 48
0.5
100
AcDbPoint
 10
1165.474972118514
 20
809.4568455745218
 30
0.0
  0
POINT
  5
10311
330
D95B
100
AcDbEntity
  8
Defpoints
  6
HIDDEN2
 62
     0
 48
0.5
100
AcDbPoint
 10
1166.734972118513
 20
809.4568455745218
 30
0.0
  0
POINT
  5
10312
330
D95B
100
AcDbEntity
  8
Defpoints
  6
HIDDEN2
 62
     0
 48
0.5
100
AcDbPoint
 10
1166.734972118513
 20
809.073470873731
 30
0.0
  0
ENDBLK
  5
D966
330
D95B
100
AcDbEntity
  8
0
 62
     5
 48
0.5
100
AcDbBlockEnd
  0
BLOCK
  5
D97C
330
D971
100
AcDbEntity
  8
0
 62
     5
 48
0.5
100
AcDbBlockBegin
  2
*D2
 70
     1
 10
0.0
 20
0.0
 30
0.0
  3
*D2
  1

  0
LINE
  5
10313
330
D971
100
AcDbEntity
  8
DIM
 48
0.5
100
AcDbLine
 10
1167.999972118513
 20
809.3968455745219
 30
0.0
 11
1167.999972118513
 21
808.992600450027
 31
0.0
  0
LINE
  5
10314
330
D971
100
AcDbEntity
  8
DIM
 48
0.5
100
AcDbLine
 10
1169.099972118514
 20
809.3968455745219
 30
0.0
 11
1169.099972118514
 21
808.992600450027
 31
0.0
  0
LINE
  5
10315
330
D971
100
AcDbEntity
  8
DIM
 48
0.5
100
AcDbLine
 10
1168.119972118513
 20
809.072600450027
 30
0.0
 11
1168.979972118514
 21
809.072600450027
 31
0.0
  0
LINE
  5
10316
330
D971
100
AcDbEntity
  8
DIM
 48
0.5
100
AcDbLine
 10
1169.099972118514
 20
809.072600450027
 30
0.0
 11
1170.345686404228
 21
809.072600450027
 31
0.0
  0
SOLID
  5
10317
330
D971
100
AcDbEntity
  8
DIM
 48
0.5
100
AcDbTrace
 10
1168.119972118513
 20
809.0926004500269
 30
0.0
 11
1168.119972118513
 21
809.052600450027
 31
0.0
 12
1167.999972118513
 22
809.072600450027
 32
0.0
 13
1167.999972118513
 23
809.072600450027
 33
0.0
  0
SOLID
  5
10318
330
D971
100
AcDbEntity
  8
DIM
 48
0.5
100
AcDbTrace
 10
1168.979972118514
 20
809.0926004500269
 30
0.0
 11
1168.979972118514
 21
809.052600450027
 31
0.0
 12
1169.099972118514
 22
809.072600450027
 32
0.0
 13
1169.099972118514
 23
809.072600450027
 33
0.0
  0
MTEXT
  5
10319
330
D971
100
AcDbEntity
  8
DIM
 48
0.5
100
AcDbMText
 10
1169.811400689942
 20
809.2040290214557
 30
0.0
 40
0.12
 41
0.0
 71
     5
 72
     1
  1
\A1;1.1 [27.94]
  7
DAYUS
 73
     1
 44
1.0
1001
ACAD
1000
MTEXTBEGIN
1070
    73
1070
     1
1070
    44
1040
1.0
1070
    74
1070
     0
1000
MTEXTEND
  0
POINT
  5
1031A
330
D971
100
AcDbEntity
  8
Defpoints
 62
     0
 48
0.5
100
AcDbPoint
 10
1167.999972118513
 20
809.4568455745218
 30
0.0
  0
POINT
  5
1031B
330
D971
100
AcDbEntity
  8
Defpoints
 62
     0
 48
0.5
100
AcDbPoint
 10
1169.099972118514
 20
809.4568455745218
 30
0.0
  0
POINT
  5
1031C
330
D971
100
AcDbEntity
  8
Defpoints
 62
     0
 48
0.5
100
AcDbPoint
 10
1169.099972118514
 20
809.072600450027
 30
0.0
  0
ENDBLK
  5
D97D
330
D971
100
AcDbEntity
  8
0
 62
     5
 48
0.5
100
AcDbBlockEnd
  0
BLOCK
  5
D98A
330
D97F
100
AcDbEntity
  8
0
 62
     5
 48
0.5
100
AcDbBlockBegin
  2
*D3
 70
     1
 10
0.0
 20
0.0
 30
0.0
  3
*D3
  1

  0
LINE
  5
1031D
330
D97F
100
AcDbEntity
  8
DIM
 48
0.5
100
AcDbLine
 10
1164.474991803553
 20
810.1630857320021
 30
0.0
 11
1164.474991803553
 21
808.6318355350122
 31
0.0
  0
LINE
  5
1031E
330
D97F
100
AcDbEntity
  8
DIM
 48
0.5
100
AcDbLine
 10
1164.858583182518
 20
809.8343455745219
 30
0.0
 11
1164.858583182518
 21
808.6318355350122
 31
0.0
  0
LINE
  5
1031F
330
D97F
100
AcDbEntity
  8
DIM
 48
0.5
100
AcDbLine
 10
1164.594991803553
 20
808.7118355350122
 30
0.0
 11
1164.738583182518
 21
808.7118355350122
 31
0.0
  0
LINE
  5
10320
330
D97F
100
AcDbEntity
  8
DIM
 48
0.5
100
AcDbLine
 10
1164.858583182518
 20
808.7118355350122
 30
0.0
 11
1166.092868896803
 21
808.7118355350122
 31
0.0
  0
SOLID
  5
10321
330
D97F
100
AcDbEntity
  8
DIM
 48
0.5
100
AcDbTrace
 10
1164.594991803553
 20
808.7318355350122
 30
0.0
 11
1164.594991803553
 21
808.6918355350123
 31
0.0
 12
1164.474991803553
 22
808.7118355350122
 32
0.0
 13
1164.474991803553
 23
808.7118355350122
 33
0.0
  0
SOLID
  5
10322
330
D97F
100
AcDbEntity
  8
DIM
 48
0.5
100
AcDbTrace
 10
1164.738583182518
 20
808.7318355350122
 30
0.0
 11
1164.738583182518
 21
808.6918355350123
 31
0.0
 12
1164.858583182518
 22
808.7118355350122
 32
0.0
 13
1164.858583182518
 23
808.7118355350122
 33
0.0
  0
MTEXT
  5
10323
330
D97F
100
AcDbEntity
  8
DIM
 48
0.5
100
AcDbMText
 10
1165.53572603966
 20
808.8432641064409
 30
0.0
 40
0.12
 41
0.0
 71
     5
 72
     1
  1
\A1;0.38 [9.74]
  7
DAYUS
 73
     1
 44
1.0
1001
ACAD
1000
MTEXTBEGIN
1070
    73
1070
     1
1070
    44
1040
1.0
1070
    74
1070
     0
1000
MTEXTEND
  0
POINT
  5
10324
330
D97F
100
AcDbEntity
  8
Defpoints
 62
     0
 48
0.5
100
AcDbPoint
 10
1164.474991803553
 20
810.2230857320021
 30
0.0
  0
POINT
  5
10325
330
D97F
100
AcDbEntity
  8
Defpoints
 62
     0
 48
0.5
100
AcDbPoint
 10
1164.858583182518
 20
809.8943455745217
 30
0.0
  0
POINT
  5
10326
330
D97F
100
AcDbEntity
  8
Defpoints
 62
     0
 48
0.5
100
AcDbPoint
 10
1164.858583182518
 20
808.7118355350122
 30
0.0
  0
ENDBLK
  5
D98B
330
D97F
100
AcDbEntity
  8
0
 62
     5
 48
0.5
100
AcDbBlockEnd
  0
BLOCK
  5
D999
330
D98E
100
AcDbEntity
  8
0
 62
     5
 48
0.5
100
AcDbBlockBegin
  2
*D4
 70
     1
 10
0.0
 20
0.0
 30
0.0
  3
*D4
  1

  0
LINE
  5
10327
330
D98E
100
AcDbEntity
  8
DIM
 48
0.5
100
AcDbLine
 10
1164.474991803553
 20
810.1630857320021
 30
0.0
 11
1164.474991803553
 21
808.6318355350122
 31
0.0
  0
LINE
  5
10328
330
D98E
100
AcDbEntity
  8
DIM
 48
0.5
100
AcDbLine
 10
1163.724991803553
 20
810.2172156532622
 30
0.0
 11
1163.724991803553
 21
808.6318355350122
 31
0.0
  0
LINE
  5
10329
330
D98E
100
AcDbEntity
  8
DIM
 48
0.5
100
AcDbLine
 10
1164.354991803553
 20
808.7118355350122
 30
0.0
 11
1163.844991803553
 21
808.7118355350122
 31
0.0
  0
LINE
  5
1032A
330
D98E
100
AcDbEntity
  8
DIM
 48
0.5
100
AcDbLine
 10
1163.724991803553
 20
808.7118355350122
 30
0.0
 11
1162.399277517839
 21
808.7118355350122
 31
0.0
  0
SOLID
  5
1032B
330
D98E
100
AcDbEntity
  8
DIM
 48
0.5
100
AcDbTrace
 10
1164.354991803553
 20
808.7318355350122
 30
0.0
 11
1164.354991803553
 21
808.6918355350123
 31
0.0
 12
1164.474991803553
 22
808.7118355350122
 32
0.0
 13
1164.474991803553
 23
808.7118355350122
 33
0.0
  0
SOLID
  5
1032C
330
D98E
100
AcDbEntity
  8
DIM
 48
0.5
100
AcDbTrace
 10
1163.844991803553
 20
808.7318355350122
 30
0.0
 11
1163.844991803553
 21
808.6918355350123
 31
0.0
 12
1163.724991803553
 22
808.7118355350122
 32
0.0
 13
1163.724991803553
 23
808.7118355350122
 33
0.0
  0
MTEXT
  5
1032D
330
D98E
100
AcDbEntity
  8
DIM
 48
0.5
100
AcDbMText
 10
1163.002134660696
 20
808.8432641064409
 30
0.0
 40
0.12
 41
0.0
 71
     5
 72
     1
  1
\A1;0.75 [19.05]
  7
DAYUS
 73
     1
 44
1.0
1001
ACAD
1000
MTEXTBEGIN
1070
    73
1070
     1
1070
    44
1040
1.0
1070
    74
1070
     0
1000
MTEXTEND
  0
POINT
  5
1032E
330
D98E
100
AcDbEntity
  8
Defpoints
 62
     0
 48
0.5
100
AcDbPoint
 10
1164.474991803553
 20
810.2230857320021
 30
0.0
  0
POINT
  5
1032F
330
D98E
100
AcDbEntity
  8
Defpoints
 62
     0
 48
0.5
100
AcDbPoint
 10
1163.724991803553
 20
810.2772156532621
 30
0.0
  0
POINT
  5
10330
330
D98E
100
AcDbEntity
  8
Defpoints
 62
     0
 48
0.5
100
AcDbPoint
 10
1163.724991803553
 20
808.7118355350122
 30
0.0
  0
ENDBLK
  5
D99A
330
D98E
100
AcDbEntity
  8
0
 62
     5
 48
0.5
100
AcDbBlockEnd
  0
BLOCK
  5
D9A6
330
D99C
100
AcDbEntity
  8
0
 62
     5
 48
0.5
100
AcDbBlockBegin
  2
*D5
 70
     1
 10
0.0
 20
0.0
 30
0.0
  3
*D5
  1

  0
LINE
  5
10441
330
D99C
100
AcDbEntity
  8
DIM
 48
0.5
100
AcDbLine
 10
1164.474991803553
 20
810.7506054170414
 30
0.0
 11
1164.474991803553
 21
812.5374766241399
 31
0.0
  0
LINE
  5
10442
330
D99C
100
AcDbEntity
  8
DIM
 48
0.5
100
AcDbLine
 10
1166.184972118514
 20
811.5648348098545
 30
0.0
 11
1166.184972118514
 21
812.5374766241399
 31
0.0
  0
LINE
  5
10443
330
D99C
100
AcDbEntity
  8
DIM
 48
0.5
100
AcDbLine
 10
1164.594991803553
 20
812.4574766241398
 30
0.0
 11
1166.064972118514
 21
812.4574766241398
 31
0.0
  0
SOLID
  5
10444
330
D99C
100
AcDbEntity
  8
DIM
 48
0.5
100
AcDbTrace
 10
1164.594991803553
 20
812.4774766241397
 30
0.0
 11
1164.594991803553
 21
812.4374766241398
 31
0.0
 12
1164.474991803553
 22
812.4574766241398
 32
0.0
 13
1164.474991803553
 23
812.4574766241398
 33
0.0
  0
SOLID
  5
10445
330
D99C
100
AcDbEntity
  8
DIM
 48
0.5
100
AcDbTrace
 10
1166.064972118514
 20
812.4774766241397
 30
0.0
 11
1166.064972118514
 21
812.4374766241398
 31
0.0
 12
1166.184972118514
 22
812.4574766241398
 32
0.0
 13
1166.184972118514
 23
812.4574766241398
 33
0.0
  0
MTEXT
  5
10446
330
D99C
100
AcDbEntity
  8
DIM
 48
0.5
100
AcDbMText
 10
1165.329981961033
 20
812.5889051955685
 30
0.0
 40
0.12
 41
0.0
 71
     5
 72
     1
  1
\A1;1.71 [43.43]
  7
DAYUS
 73
     1
 44
1.0
1001
ACAD
1000
MTEXTBEGIN
1070
    73
1070
     1
1070
    44
1040
1.0
1070
    74
1070
     0
1000
MTEXTEND
  0
POINT
  5
10447
330
D99C
100
AcDbEntity
  8
Defpoints
 62
     0
 48
0.5
100
AcDbPoint
 10
1164.474991803553
 20
810.6906054170416
 30
0.0
  0
POINT
  5
10448
330
D99C
100
AcDbEntity
  8
Defpoints
 62
     0
 48
0.5
100
AcDbPoint
 10
1166.184972118514
 20
811.5048348098547
 30
0.0
  0
POINT
  5
10449
330
D99C
100
AcDbEntity
  8
Defpoints
 62
     0
 48
0.5
100
AcDbPoint
 10
1166.184972118514
 20
812.4574766241398
 30
0.0
  0
ENDBLK
  5
D9A7
330
D99C
100
AcDbEntity
  8
0
 62
     5
 48
0.5
100
AcDbBlockEnd
  0
BLOCK
  5
D9C1
330
D9B6
100
AcDbEntity
  8
0
 62
     5
 48
0.5
100
AcDbBlockBegin
  2
*D6
 70
     1
 10
0.0
 20
0.0
 30
0.0
  3
*D6
  1

  0
LINE
  5
1033A
330
D9B6
100
AcDbEntity
  8
DIM
 48
0.5
100
AcDbLine
 10
1169.284972118513
 20
809.8981850789808
 30
0.0
 11
1169.768091122568
 21
809.8981850789808
 31
0.0
  0
LINE
  5
1033B
330
D9B6
100
AcDbEntity
  8
DIM
 48
0.5
100
AcDbLine
 10
1169.284972118513
 20
811.0155060700629
 30
0.0
 11
1169.768091122568
 21
811.0155060700629
 31
0.0
  0
LINE
  5
1033C
330
D9B6
100
AcDbEntity
  8
DIM
 48
0.5
100
AcDbLine
 10
1169.688091122568
 20
810.0181850789807
 30
0.0
 11
1169.688091122568
 21
810.8955060700628
 31
0.0
  0
LINE
  5
1033D
330
D9B6
100
AcDbEntity
  8
DIM
 48
0.5
100
AcDbLine
 10
1169.688091122568
 20
811.0155060700629
 30
0.0
 11
1169.688091122568
 21
812.4269346414914
 31
0.0
  0
SOLID
  5
1033E
330
D9B6
100
AcDbEntity
  8
DIM
 48
0.5
100
AcDbTrace
 10
1169.668091122568
 20
810.0181850789807
 30
0.0
 11
1169.708091122568
 21
810.0181850789807
 31
0.0
 12
1169.688091122568
 22
809.8981850789808
 32
0.0
 13
1169.688091122568
 23
809.8981850789808
 33
0.0
  0
SOLID
  5
1033F
330
D9B6
100
AcDbEntity
  8
DIM
 48
0.5
100
AcDbTrace
 10
1169.668091122568
 20
810.8955060700628
 30
0.0
 11
1169.708091122568
 21
810.8955060700628
 31
0.0
 12
1169.688091122568
 22
811.0155060700629
 32
0.0
 13
1169.688091122568
 23
811.0155060700629
 33
0.0
  0
MTEXT
  5
10340
330
D9B6
100
AcDbEntity
  8
DIM
 48
0.5
100
AcDbMText
 10
1169.556662551139
 20
811.7812203557772
 30
0.0
 40
0.12
 41
0.0
 71
     5
 72
     1
  1
\A1;%%c1.12 [28.38]
  7
DAYUS
 11
0.0000000000000001
 21
1.0
 31
0.0
 73
     1
 44
1.0
1001
ACAD
1000
MTEXTBEGIN
1070
    73
1070
     1
1070
    44
1040
1.0
1070
    74
1070
     0
1000
MTEXTEND
  0
POINT
  5
10341
330
D9B6
100
AcDbEntity
  8
Defpoints
 62
     0
 48
0.5
100
AcDbPoint
 10
1169.224972118513
 20
809.8981850789808
 30
0.0
  0
POINT
  5
10342
330
D9B6
100
AcDbEntity
  8
Defpoints
 62
     0
 48
0.5
100
AcDbPoint
 10
1169.224972118513
 20
811.0155060700629
 30
0.0
  0
POINT
  5
10343
330
D9B6
100
AcDbEntity
  8
Defpoints
 62
     0
 48
0.5
100
AcDbPoint
 10
1169.688091122568
 20
811.0155060700629
 30
0.0
  0
ENDBLK
  5
D9C2
330
D9B6
100
AcDbEntity
  8
0
 62
     5
 48
0.5
100
AcDbBlockEnd
  0
BLOCK
  5
D9CE
330
D9C4
100
AcDbEntity
  8
0
 62
     5
 48
0.5
100
AcDbBlockBegin
  2
*D7
 70
     1
 10
0.0
 20
0.0
 30
0.0
  3
*D7
  1

  0
LINE
  5
10488
330
D9C4
100
AcDbEntity
  8
DIM
 48
0.5
100
AcDbLine
 10
1164.474991803553
 20
810.0843455745218
 30
0.0
 11
1164.474991803553
 21
809.9543455745218
 31
0.0
  0
LINE
  5
1048A
330
D9C4
100
AcDbEntity
  8
DIM
 48
0.5
100
AcDbLine
 10
1164.594991803553
 20
808.3605662358229
 30
0.0
 11
1166.292472118514
 21
808.3605662358229
 31
0.0
  0
SOLID
  5
1048B
330
D9C4
100
AcDbEntity
  8
DIM
 48
0.5
100
AcDbTrace
 10
1164.594991803553
 20
808.3805662358228
 30
0.0
 11
1164.594991803553
 21
808.3405662358229
 31
0.0
 12
1164.474991803553
 22
808.3605662358229
 32
0.0
 13
1164.474991803553
 23
808.3605662358229
 33
0.0
  0
SOLID
  5
1048C
330
D9C4
100
AcDbEntity
  8
DIM
 48
0.5
100
AcDbTrace
 10
1166.292472118514
 20
808.3805662358228
 30
0.0
 11
1166.292472118514
 21
808.3405662358229
 31
0.0
 12
1166.412472118514
 22
808.3605662358229
 32
0.0
 13
1166.412472118514
 23
808.3605662358229
 33
0.0
  0
MTEXT
  5
1048D
330
D9C4
100
AcDbEntity
  8
DIM
 48
0.5
100
AcDbMText
 10
1165.443731961033
 20
808.4919948072515
 30
0.0
 40
0.12
 41
0.0
 71
     5
 72
     1
  1
\A1;1.94 [49.21]
  7
DAYUS
 73
     1
 44
1.0
1001
ACAD
1000
MTEXTBEGIN
1070
    73
1070
     1
1070
    44
1040
1.0
1070
    74
1070
     0
1000
MTEXTEND
  0
POINT
  5
1048E
330
D9C4
100
AcDbEntity
  8
Defpoints
 62
     0
 48
0.5
100
AcDbPoint
 10
1164.474991803553
 20
810.2230857320021
 30
0.0
  0
POINT
  5
1048F
330
D9C4
100
AcDbEntity
  8
Defpoints
 62
     0
 48
0.5
100
AcDbPoint
 10
1166.412472118514
 20
809.3862156532621
 30
0.0
  0
POINT
  5
10490
330
D9C4
100
AcDbEntity
  8
Defpoints
 62
     0
 48
0.5
100
AcDbPoint
 10
1166.412472118514
 20
808.3605662358229
 30
0.0
  0
LINE
  5
10491
330
D9C4
100
AcDbEntity
  8
DIM
 48
0.5
100
AcDbLine
 10
1164.474991803553
 20
809.0458883194971
 30
0.0
 11
1164.474991803553
 21
808.2805662358229
 31
0.0
  0
LINE
  5
10492
330
D9C4
100
AcDbEntity
  8
DIM
 48
0.5
100
AcDbLine
 10
1164.474991803553
 20
809.8343455745219
 30
0.0
 11
1164.474991803553
 21
809.165888319497
 31
0.0
  0
LINE
  5
10493
330
D9C4
100
AcDbEntity
  8
DIM
 48
0.5
100
AcDbLine
 10
1166.412472118514
 20
809.0134708737311
 30
0.0
 11
1166.412472118514
 21
808.2805662358229
 31
0.0
  0
ENDBLK
  5
D9CF
330
D9C4
100
AcDbEntity
  8
0
 62
     5
 48
0.5
100
AcDbBlockEnd
  0
BLOCK
  5
D9F9
330
D9ED
100
AcDbEntity
  8
0
 62
     5
 48
0.5
100
AcDbBlockBegin
  2
*D8
 70
     1
 10
0.0
 20
0.0
 30
0.0
  3
*D8
  1

  0
LINE
  5
1034D
330
D9ED
100
AcDbEntity
  8
DIM
 48
0.5
100
AcDbLine
 10
1167.085031252372
 20
810.7324361257031
 30
0.0
 11
1167.271997851812
 21
810.7324361257031
 31
0.0
  0
LINE
  5
1034E
330
D9ED
100
AcDbEntity
  8
DIM
 48
0.5
100
AcDbLine
 10
1166.794972118513
 20
810.4568455745218
 30
0.0
 11
1167.271997851812
 21
810.4568455745218
 31
0.0
  0
LINE
  5
1034F
330
D9ED
100
AcDbEntity
  8
DIM
 48
0.5
100
AcDbLine
 10
1167.191997851812
 20
810.852436125703
 30
0.0
 11
1167.191997851812
 21
810.9724361257031
 31
0.0
  0
LINE
  5
10350
330
D9ED
100
AcDbEntity
  8
DIM
 48
0.5
100
AcDbLine
 10
1167.191997851812
 20
810.3368455745219
 30
0.0
 11
1167.191997851812
 21
808.611467286768
 31
0.0
  0
LINE
  5
10351
330
D9ED
100
AcDbEntity
  8
DIM
 48
0.5
100
AcDbLine
 10
1167.191997851812
 20
810.7324361257031
 30
0.0
 11
1167.191997851812
 21
810.4568455745218
 31
0.0
  0
SOLID
  5
10352
330
D9ED
100
AcDbEntity
  8
DIM
 48
0.5
100
AcDbTrace
 10
1167.171997851812
 20
810.852436125703
 30
0.0
 11
1167.211997851812
 21
810.852436125703
 31
0.0
 12
1167.191997851812
 22
810.7324361257031
 32
0.0
 13
1167.191997851812
 23
810.7324361257031
 33
0.0
  0
SOLID
  5
10353
330
D9ED
100
AcDbEntity
  8
DIM
 48
0.5
100
AcDbTrace
 10
1167.171997851812
 20
810.3368455745219
 30
0.0
 11
1167.211997851812
 21
810.3368455745219
 31
0.0
 12
1167.191997851812
 22
810.4568455745218
 32
0.0
 13
1167.191997851812
 23
810.4568455745218
 33
0.0
  0
MTEXT
  5
10354
330
D9ED
100
AcDbEntity
  8
DIM
 48
0.5
100
AcDbMText
 10
1167.060569280383
 20
809.168610143911
 30
0.0
 40
0.12
 41
0.0
 71
     5
 72
     1
  1
\A1;0.28 [7.00]
  7
DAYUS
 11
0.0000000000000001
 21
1.0
 31
0.0
 73
     1
 44
1.0
1001
ACAD
1000
MTEXTBEGIN
1070
    73
1070
     1
1070
    44
1040
1.0
1070
    74
1070
     0
1000
MTEXTEND
  0
POINT
  5
10355
330
D9ED
100
AcDbEntity
  8
Defpoints
 62
     0
 48
0.5
100
AcDbPoint
 10
1167.025031252372
 20
810.7324361257031
 30
0.0
  0
POINT
  5
10356
330
D9ED
100
AcDbEntity
  8
Defpoints
 62
     0
 48
0.5
100
AcDbPoint
 10
1166.734972118513
 20
810.4568455745218
 30
0.0
  0
POINT
  5
10357
330
D9ED
100
AcDbEntity
  8
Defpoints
 62
     0
 48
0.5
100
AcDbPoint
 10
1167.191997851812
 20
810.4568455745218
 30
0.0
  0
ENDBLK
  5
D9FA
330
D9ED
100
AcDbEntity
  8
0
 62
     5
 48
0.5
100
AcDbBlockEnd
  0
BLOCK
  5
DA07
330
D9FC
100
AcDbEntity
  8
0
 62
     5
 48
0.5
100
AcDbBlockBegin
  2
*D9
 70
     1
 10
0.0
 20
0.0
 30
0.0
  3
*D9
  1

  0
LINE
  5
1047D
330
D9FC
100
AcDbEntity
  8
DIM
 48
0.5
100
AcDbLine
 10
1165.474972118514
 20
811.5056751837496
 30
0.0
 11
1165.474972118514
 21
812.3974766241399
 31
0.0
  0
LINE
  5
1047E
330
D9FC
100
AcDbEntity
  8
DIM
 48
0.5
100
AcDbLine
 10
1164.474991803553
 20
810.8293455745217
 30
0.0
 11
1164.474991803553
 21
810.9593455745219
 31
0.0
  0
LINE
  5
1047F
330
D9FC
100
AcDbEntity
  8
DIM
 48
0.5
100
AcDbLine
 10
1165.354972118514
 20
812.8304880595589
 30
0.0
 11
1164.594991803553
 21
812.8304880595589
 31
0.0
  0
SOLID
  5
10480
330
D9FC
100
AcDbEntity
  8
DIM
 48
0.5
100
AcDbTrace
 10
1165.354972118514
 20
812.8504880595588
 30
0.0
 11
1165.354972118514
 21
812.8104880595589
 31
0.0
 12
1165.474972118514
 22
812.8304880595589
 32
0.0
 13
1165.474972118514
 23
812.8304880595589
 33
0.0
  0
SOLID
  5
10481
330
D9FC
100
AcDbEntity
  8
DIM
 48
0.5
100
AcDbTrace
 10
1164.594991803553
 20
812.8504880595588
 30
0.0
 11
1164.594991803553
 21
812.8104880595589
 31
0.0
 12
1164.474991803553
 22
812.8304880595589
 32
0.0
 13
1164.474991803553
 23
812.8304880595589
 33
0.0
  0
MTEXT
  5
10482
330
D9FC
100
AcDbEntity
  8
DIM
 48
0.5
100
AcDbMText
 10
1164.974981961033
 20
812.9619166309876
 30
0.0
 40
0.12
 41
0.0
 71
     5
 72
     1
  1
\A1;1 [25.40]
  7
DAYUS
 73
     1
 44
1.0
1001
ACAD
1000
MTEXTBEGIN
1070
    73
1070
     1
1070
    44
1040
1.0
1070
    74
1070
     0
1000
MTEXTEND
  0
POINT
  5
10483
330
D9FC
100
AcDbEntity
  8
Defpoints
 62
     0
 48
0.5
100
AcDbPoint
 10
1165.474972118514
 20
811.4456751837497
 30
0.0
  0
POINT
  5
10484
330
D9FC
100
AcDbEntity
  8
Defpoints
 62
     0
 48
0.5
100
AcDbPoint
 10
1164.474991803553
 20
810.6906054170416
 30
0.0
  0
POINT
  5
10485
330
D9FC
100
AcDbEntity
  8
Defpoints
 62
     0
 48
0.5
100
AcDbPoint
 10
1164.474991803553
 20
812.8304880595589
 30
0.0
  0
LINE
  5
10486
330
D9FC
100
AcDbEntity
  8
DIM
 48
0.5
100
AcDbLine
 10
1164.474991803553
 20
811.0793455745218
 30
0.0
 11
1164.474991803553
 21
812.9104880595589
 31
0.0
  0
LINE
  5
10487
330
D9FC
100
AcDbEntity
  8
DIM
 48
0.5
100
AcDbLine
 10
1165.474972118514
 20
812.7403337669971
 30
0.0
 11
1165.474972118514
 21
812.9104880595589
 31
0.0
  0
ENDBLK
  5
DA08
330
D9FC
100
AcDbEntity
  8
0
 62
     5
 48
0.5
100
AcDbBlockEnd
  0
BLOCK
  5
DA4F
330
DA45
100
AcDbEntity
  8
0
 62
     5
 48
0.5
100
AcDbBlockBegin
  2
*D10
 70
     1
 10
0.0
 20
0.0
 30
0.0
  3
*D10
  1

  0
LINE
  5
1041B
330
DA45
100
AcDbEntity
  8
DIM
 48
0.5
100
AcDbLine
 10
1166.184972118514
 20
811.5648348098545
 30
0.0
 11
1166.184972118514
 21
812.5374766241399
 31
0.0
  0
LINE
  5
1041C
330
DA45
100
AcDbEntity
  8
DIM
 48
0.5
100
AcDbLine
 10
1168.549972118513
 20
811.5651466283289
 30
0.0
 11
1168.549972118513
 21
812.5374766241399
 31
0.0
  0
LINE
  5
1041D
330
DA45
100
AcDbEntity
  8
DIM
 48
0.5
100
AcDbLine
 10
1166.304972118513
 20
812.4574766241398
 30
0.0
 11
1168.429972118514
 21
812.4574766241398
 31
0.0
  0
SOLID
  5
1041E
330
DA45
100
AcDbEntity
  8
DIM
 48
0.5
100
AcDbTrace
 10
1166.304972118513
 20
812.4774766241397
 30
0.0
 11
1166.304972118513
 21
812.4374766241398
 31
0.0
 12
1166.184972118514
 22
812.4574766241398
 32
0.0
 13
1166.184972118514
 23
812.4574766241398
 33
0.0
  0
SOLID
  5
1041F
330
DA45
100
AcDbEntity
  8
DIM
 48
0.5
100
AcDbTrace
 10
1168.429972118514
 20
812.4774766241397
 30
0.0
 11
1168.429972118514
 21
812.4374766241398
 31
0.0
 12
1168.549972118513
 22
812.4574766241398
 32
0.0
 13
1168.549972118513
 23
812.4574766241398
 33
0.0
  0
MTEXT
  5
10420
330
DA45
100
AcDbEntity
  8
DIM
 48
0.5
100
AcDbMText
 10
1167.367472118513
 20
812.5889051955685
 30
0.0
 40
0.12
 41
0.0
 71
     5
 72
     1
  1
\A1;2.36 [60.07]
  7
DAYUS
 73
     1
 44
1.0
1001
ACAD
1000
MTEXTBEGIN
1070
    73
1070
     1
1070
    44
1040
1.0
1070
    74
1070
     0
1000
MTEXTEND
  0
POINT
  5
10421
330
DA45
100
AcDbEntity
  8
Defpoints
 62
     0
 48
0.5
100
AcDbPoint
 10
1166.184972118514
 20
811.5048348098547
 30
0.0
  0
POINT
  5
10422
330
DA45
100
AcDbEntity
  8
Defpoints
 62
     0
 48
0.5
100
AcDbPoint
 10
1168.549972118513
 20
811.5051466283288
 30
0.0
  0
POINT
  5
10423
330
DA45
100
AcDbEntity
  8
Defpoints
 62
     0
 48
0.5
100
AcDbPoint
 10
1168.549972118513
 20
812.4574766241398
 30
0.0
  0
ENDBLK
  5
DA50
330
DA45
100
AcDbEntity
  8
0
 62
     5
 48
0.5
100
AcDbBlockEnd
  0
BLOCK
  5
DA5C
330
DA52
100
AcDbEntity
  8
0
 62
     5
 48
0.5
100
AcDbBlockBegin
  2
*D11
 70
     1
 10
0.0
 20
0.0
 30
0.0
  3
*D11
  1

  0
LINE
  5
10473
330
DA52
100
AcDbEntity
  8
DIM
 48
0.5
100
AcDbLine
 10
1165.474972118514
 20
811.5056751837496
 30
0.0
 11
1165.474972118514
 21
812.3974766241399
 31
0.0
  0
LINE
  5
10474
330
DA52
100
AcDbEntity
  8
DIM
 48
0.5
100
AcDbLine
 10
1169.099972118514
 20
811.5070714825963
 30
0.0
 11
1169.099972118514
 21
812.9104880595589
 31
0.0
  0
LINE
  5
10475
330
DA52
100
AcDbEntity
  8
DIM
 48
0.5
100
AcDbLine
 10
1165.594972118513
 20
812.8304880595589
 30
0.0
 11
1168.979972118514
 21
812.8304880595589
 31
0.0
  0
SOLID
  5
10476
330
DA52
100
AcDbEntity
  8
DIM
 48
0.5
100
AcDbTrace
 10
1165.594972118513
 20
812.8504880595588
 30
0.0
 11
1165.594972118513
 21
812.8104880595589
 31
0.0
 12
1165.474972118514
 22
812.8304880595589
 32
0.0
 13
1165.474972118514
 23
812.8304880595589
 33
0.0
  0
SOLID
  5
10477
330
DA52
100
AcDbEntity
  8
DIM
 48
0.5
100
AcDbTrace
 10
1168.979972118514
 20
812.8504880595588
 30
0.0
 11
1168.979972118514
 21
812.8104880595589
 31
0.0
 12
1169.099972118514
 22
812.8304880595589
 32
0.0
 13
1169.099972118514
 23
812.8304880595589
 33
0.0
  0
MTEXT
  5
10478
330
DA52
100
AcDbEntity
  8
DIM
 48
0.5
100
AcDbMText
 10
1167.287472118514
 20
812.9619166309876
 30
0.0
 40
0.12
 41
0.0
 71
     5
 72
     1
  1
\A1;3.63 [92.08]
  7
DAYUS
 73
     1
 44
1.0
1001
ACAD
1000
MTEXTBEGIN
1070
    73
1070
     1
1070
    44
1040
1.0
1070
    74
1070
     0
1000
MTEXTEND
  0
POINT
  5
10479
330
DA52
100
AcDbEntity
  8
Defpoints
 62
     0
 48
0.5
100
AcDbPoint
 10
1165.474972118514
 20
811.4456751837497
 30
0.0
  0
POINT
  5
1047A
330
DA52
100
AcDbEntity
  8
Defpoints
 62
     0
 48
0.5
100
AcDbPoint
 10
1169.099972118514
 20
811.4470714825964
 30
0.0
  0
POINT
  5
1047B
330
DA52
100
AcDbEntity
  8
Defpoints
 62
     0
 48
0.5
100
AcDbPoint
 10
1169.099972118514
 20
812.8304880595589
 30
0.0
  0
LINE
  5
1047C
330
DA52
100
AcDbEntity
  8
DIM
 48
0.5
100
AcDbLine
 10
1165.474972118514
 20
812.7403337669971
 30
0.0
 11
1165.474972118514
 21
812.9104880595589
 31
0.0
  0
ENDBLK
  5
DA5D
330
DA52
100
AcDbEntity
  8
0
 62
     5
 48
0.5
100
AcDbBlockEnd
  0
BLOCK
  5
DA69
330
DA5F
100
AcDbEntity
  8
0
 62
     5
 48
0.5
100
AcDbBlockBegin
  2
*D12
 70
     1
 10
0.0
 20
0.0
 30
0.0
  3
*D12
  1

  0
LINE
  5
10373
330
DA5F
100
AcDbEntity
  8
DIM
 48
0.5
100
AcDbLine
 10
1164.474991803553
 20
810.7506054170414
 30
0.0
 11
1164.474991803553
 21
813.3122063007746
 31
0.0
  0
LINE
  5
10374
330
DA5F
100
AcDbEntity
  8
DIM
 48
0.5
100
AcDbLine
 10
1169.224972118513
 20
811.0755060700627
 30
0.0
 11
1169.224972118513
 21
813.3122063007746
 31
0.0
  0
LINE
  5
10375
330
DA5F
100
AcDbEntity
  8
DIM
 48
0.5
100
AcDbLine
 10
1164.594991803553
 20
813.2322063007746
 30
0.0
 11
1169.104972118514
 21
813.2322063007746
 31
0.0
  0
SOLID
  5
10376
330
DA5F
100
AcDbEntity
  8
DIM
 48
0.5
100
AcDbTrace
 10
1164.594991803553
 20
813.2522063007746
 30
0.0
 11
1164.594991803553
 21
813.2122063007747
 31
0.0
 12
1164.474991803553
 22
813.2322063007746
 32
0.0
 13
1164.474991803553
 23
813.2322063007746
 33
0.0
  0
SOLID
  5
10377
330
DA5F
100
AcDbEntity
  8
DIM
 48
0.5
100
AcDbTrace
 10
1169.104972118514
 20
813.2522063007746
 30
0.0
 11
1169.104972118514
 21
813.2122063007747
 31
0.0
 12
1169.224972118513
 22
813.2322063007746
 32
0.0
 13
1169.224972118513
 23
813.2322063007746
 33
0.0
  0
MTEXT
  5
10378
330
DA5F
100
AcDbEntity
  8
DIM
 48
0.5
100
AcDbMText
 10
1166.849981961033
 20
813.3636348722033
 30
0.0
 40
0.12
 41
0.0
 71
     5
 72
     1
  1
\A1;4.75 [120.65]
  7
DAYUS
 73
     1
 44
1.0
1001
ACAD
1000
MTEXTBEGIN
1070
    73
1070
     1
1070
    44
1040
1.0
1070
    74
1070
     0
1000
MTEXTEND
  0
POINT
  5
10379
330
DA5F
100
AcDbEntity
  8
Defpoints
 62
     0
 48
0.5
100
AcDbPoint
 10
1164.474991803553
 20
810.6906054170416
 30
0.0
  0
POINT
  5
1037A
330
DA5F
100
AcDbEntity
  8
Defpoints
 62
     0
 48
0.5
100
AcDbPoint
 10
1169.224972118513
 20
811.0155060700629
 30
0.0
  0
POINT
  5
1037B
330
DA5F
100
AcDbEntity
  8
Defpoints
 62
     0
 48
0.5
100
AcDbPoint
 10
1169.224972118513
 20
813.2322063007746
 30
0.0
  0
ENDBLK
  5
DA6A
330
DA5F
100
AcDbEntity
  8
0
 62
     5
 48
0.5
100
AcDbBlockEnd
  0
BLOCK
  5
DA76
330
DA6C
100
AcDbEntity
  8
0
 62
     5
 48
0.5
100
AcDbBlockBegin
  2
*D13
 70
     1
 10
0.0
 20
0.0
 30
0.0
  3
*D13
  1

  0
LINE
  5
103DB
330
DA6C
100
AcDbEntity
  8
DIM
 48
0.5
100
AcDbLine
 10
1168.662472118514
 20
809.3065306138919
 30
0.0
 11
1168.662472118514
 21
809.132600450027
 31
0.0
  0
LINE
  5
103DC
330
DA6C
100
AcDbEntity
  8
DIM
 48
0.5
100
AcDbLine
 10
1166.532472118513
 20
808.3605662358229
 30
0.0
 11
1168.542472118514
 21
808.3605662358229
 31
0.0
  0
SOLID
  5
103DD
330
DA6C
100
AcDbEntity
  8
DIM
 48
0.5
100
AcDbTrace
 10
1166.532472118513
 20
808.3805662358228
 30
0.0
 11
1166.532472118513
 21
808.3405662358229
 31
0.0
 12
1166.412472118514
 22
808.3605662358229
 32
0.0
 13
1166.412472118514
 23
808.3605662358229
 33
0.0
  0
SOLID
  5
103DE
330
DA6C
100
AcDbEntity
  8
DIM
 48
0.5
100
AcDbTrace
 10
1168.542472118514
 20
808.3805662358228
 30
0.0
 11
1168.542472118514
 21
808.3405662358229
 31
0.0
 12
1168.662472118514
 22
808.3605662358229
 32
0.0
 13
1168.662472118514
 23
808.3605662358229
 33
0.0
  0
MTEXT
  5
103DF
330
DA6C
100
AcDbEntity
  8
DIM
 48
0.5
100
AcDbMText
 10
1167.537472118514
 20
808.4919948072515
 30
0.0
 40
0.12
 41
0.0
 71
     5
 72
     1
  1
\A1;2.25 [57.15]
  7
DAYUS
 73
     1
 44
1.0
1001
ACAD
1000
MTEXTBEGIN
1070
    73
1070
     1
1070
    44
1040
1.0
1070
    74
1070
     0
1000
MTEXTEND
  0
POINT
  5
103E0
330
DA6C
100
AcDbEntity
  8
Defpoints
 62
     0
 48
0.5
100
AcDbPoint
 10
1166.412472118514
 20
809.3862156532621
 30
0.0
  0
POINT
  5
103E1
330
DA6C
100
AcDbEntity
  8
Defpoints
 62
     0
 48
0.5
100
AcDbPoint
 10
1168.662472118514
 20
809.3665306138918
 30
0.0
  0
POINT
  5
103E2
330
DA6C
100
AcDbEntity
  8
Defpoints
 62
     0
 48
0.5
100
AcDbPoint
 10
1168.662472118514
 20
808.3605662358229
 30
0.0
  0
LINE
  5
103E3
330
DA6C
100
AcDbEntity
  8
DIM
 48
0.5
100
AcDbLine
 10
1168.662472118514
 20
809.0126004500271
 30
0.0
 11
1168.662472118514
 21
808.2805662358229
 31
0.0
  0
LINE
  5
103E4
330
DA6C
100
AcDbEntity
  8
DIM
 48
0.5
100
AcDbLine
 10
1166.412472118514
 20
809.0134708737311
 30
0.0
 11
1166.412472118514
 21
808.2805662358229
 31
0.0
  0
ENDBLK
  5
DA77
330
DA6C
100
AcDbEntity
  8
0
 62
     5
 48
0.5
100
AcDbBlockEnd
  0
BLOCK
  5
DAFF
330
DAF5
100
AcDbEntity
  8
0
 62
     5
 48
0.5
100
AcDbBlockBegin
  2
*D14
 70
     1
 10
0.0
 20
0.0
 30
0.0
  3
*D14
  1

  0
LINE
  5
10385
330
DAF5
100
AcDbEntity
  8
DIM
 48
0.5
100
AcDbLine
 10
1159.811715506171
 20
811.4566710371661
 30
0.0
 11
1158.986499827307
 21
811.4566710371661
 31
0.0
  0
LINE
  5
10386
330
DAF5
100
AcDbEntity
  8
DIM
 48
0.5
100
AcDbLine
 10
1159.693295900793
 20
809.4568455745218
 30
0.0
 11
1158.986499827307
 21
809.4568455745218
 31
0.0
  0
LINE
  5
10387
330
DAF5
100
AcDbEntity
  8
DIM
 48
0.5
100
AcDbLine
 10
1159.066499827307
 20
811.3366710371661
 30
0.0
 11
1159.066499827307
 21
809.5768455745218
 31
0.0
  0
SOLID
  5
10388
330
DAF5
100
AcDbEntity
  8
DIM
 48
0.5
100
AcDbTrace
 10
1159.046499827307
 20
811.3366710371661
 30
0.0
 11
1159.086499827307
 21
811.3366710371661
 31
0.0
 12
1159.066499827307
 22
811.4566710371661
 32
0.0
 13
1159.066499827307
 23
811.4566710371661
 33
0.0
  0
SOLID
  5
10389
330
DAF5
100
AcDbEntity
  8
DIM
 48
0.5
100
AcDbTrace
 10
1159.046499827307
 20
809.5768455745218
 30
0.0
 11
1159.086499827307
 21
809.5768455745218
 31
0.0
 12
1159.066499827307
 22
809.4568455745218
 32
0.0
 13
1159.066499827307
 23
809.4568455745218
 33
0.0
  0
MTEXT
  5
1038A
330
DAF5
100
AcDbEntity
  8
DIM
 48
0.5
100
AcDbMText
 10
1158.935071255878
 20
810.4567583058441
 30
0.0
 40
0.12
 41
0.0
 71
     5
 72
     1
  1
\A1;2 [50.80]
  7
DAYUS
 11
0.0000000000000001
 21
1.0
 31
0.0
 73
     1
 44
1.0
1001
ACAD
1000
MTEXTBEGIN
1070
    73
1070
     1
1070
    44
1040
1.0
1070
    74
1070
     0
1000
MTEXTEND
  0
POINT
  5
1038B
330
DAF5
100
AcDbEntity
  8
Defpoints
 62
     0
 48
0.5
100
AcDbPoint
 10
1159.871715506171
 20
811.4566710371661
 30
0.0
  0
POINT
  5
1038C
330
DAF5
100
AcDbEntity
  8
Defpoints
 62
     0
 48
0.5
100
AcDbPoint
 10
1159.753295900793
 20
809.4568455745218
 30
0.0
  0
POINT
  5
1038D
330
DAF5
100
AcDbEntity
  8
Defpoints
 62
     0
 48
0.5
100
AcDbPoint
 10
1159.066499827307
 20
809.4568455745218
 30
0.0
  0
ENDBLK
  5
DB00
330
DAF5
100
AcDbEntity
  8
0
 62
     5
 48
0.5
100
AcDbBlockEnd
  0
BLOCK
  5
DB1A
330
DB10
100
AcDbEntity
  8
0
 62
     5
 48
0.5
100
AcDbBlockBegin
  2
*D15
 70
     1
 10
0.0
 20
0.0
 30
0.0
  3
*D15
  1

  0
LINE
  5
103FC
330
DB10
100
AcDbEntity
  8
DIM
 48
0.5
100
AcDbLine
 10
1159.906550488049
 20
809.2905955745218
 30
0.0
 11
1159.906550488049
 21
808.6405420099826
 31
0.0
  0
LINE
  5
103FE
330
DB10
100
AcDbEntity
  8
DIM
 48
0.5
100
AcDbLine
 10
1160.026550488049
 20
808.7205420099826
 30
0.0
 11
1161.216550488049
 21
808.7205420099826
 31
0.0
  0
SOLID
  5
103FF
330
DB10
100
AcDbEntity
  8
DIM
 48
0.5
100
AcDbTrace
 10
1160.026550488049
 20
808.7405420099825
 30
0.0
 11
1160.026550488049
 21
808.7005420099826
 31
0.0
 12
1159.906550488049
 22
808.7205420099826
 32
0.0
 13
1159.906550488049
 23
808.7205420099826
 33
0.0
  0
SOLID
  5
10400
330
DB10
100
AcDbEntity
  8
DIM
 48
0.5
100
AcDbTrace
 10
1161.216550488049
 20
808.7405420099825
 30
0.0
 11
1161.216550488049
 21
808.7005420099826
 31
0.0
 12
1161.336550488049
 22
808.7205420099826
 32
0.0
 13
1161.336550488049
 23
808.7205420099826
 33
0.0
  0
MTEXT
  5
10401
330
DB10
100
AcDbEntity
  8
DIM
 48
0.5
100
AcDbMText
 10
1160.621550488049
 20
808.8519705814112
 30
0.0
 40
0.12
 41
0.0
 71
     5
 72
     1
  1
\A1;1.43 [36.32]
  7
DAYUS
 73
     1
 44
1.0
1001
ACAD
1000
MTEXTBEGIN
1070
    73
1070
     1
1070
    44
1040
1.0
1070
    74
1070
     0
1000
MTEXTEND
  0
POINT
  5
10402
330
DB10
100
AcDbEntity
  8
Defpoints
 62
     0
 48
0.5
100
AcDbPoint
 10
1159.906550488049
 20
809.3505955745218
 30
0.0
  0
POINT
  5
10403
330
DB10
100
AcDbEntity
  8
Defpoints
 62
     0
 48
0.5
100
AcDbPoint
 10
1161.336550488049
 20
809.3505955745218
 30
0.0
  0
POINT
  5
10404
330
DB10
100
AcDbEntity
  8
Defpoints
 62
     0
 48
0.5
100
AcDbPoint
 10
1161.336550488049
 20
808.7205420099826
 30
0.0
  0
LINE
  5
10405
330
DB10
100
AcDbEntity
  8
DIM
 48
0.5
100
AcDbLine
 10
1161.336550488049
 20
809.0851023171234
 30
0.0
 11
1161.336550488049
 21
808.6405420099826
 31
0.0
  0
ENDBLK
  5
DB1B
330
DB10
100
AcDbEntity
  8
0
 62
     5
 48
0.5
100
AcDbBlockEnd
  0
BLOCK
  5
DB27
330
DB1D
100
AcDbEntity
  8
0
 62
     5
 48
0.5
100
AcDbBlockBegin
  2
*D16
 70
     1
 10
0.0
 20
0.0
 30
0.0
  3
*D16
  1

  0
LINE
  5
103F1
330
DB1D
100
AcDbEntity
  8
DIM
 48
0.5
100
AcDbLine
 10
1159.621725025405
 20
809.6170105926438
 30
0.0
 11
1159.621725025405
 21
809.5168455745218
 31
0.0
  0
LINE
  5
103F2
330
DB1D
100
AcDbEntity
  8
DIM
 48
0.5
100
AcDbLine
 10
1161.621375950693
 20
809.6170105926438
 30
0.0
 11
1161.621375950693
 21
809.4279594599804
 31
0.0
  0
LINE
  5
103F3
330
DB1D
100
AcDbEntity
  8
DIM
 48
0.5
100
AcDbLine
 10
1159.741725025405
 20
808.3130593751748
 30
0.0
 11
1161.501375950694
 21
808.3130593751748
 31
0.0
  0
SOLID
  5
103F4
330
DB1D
100
AcDbEntity
  8
DIM
 48
0.5
100
AcDbTrace
 10
1159.741725025405
 20
808.3330593751748
 30
0.0
 11
1159.741725025405
 21
808.2930593751749
 31
0.0
 12
1159.621725025405
 22
808.3130593751748
 32
0.0
 13
1159.621725025405
 23
808.3130593751748
 33
0.0
  0
SOLID
  5
103F5
330
DB1D
100
AcDbEntity
  8
DIM
 48
0.5
100
AcDbTrace
 10
1161.501375950694
 20
808.3330593751748
 30
0.0
 11
1161.501375950694
 21
808.2930593751749
 31
0.0
 12
1161.621375950693
 22
808.3130593751748
 32
0.0
 13
1161.621375950693
 23
808.3130593751748
 33
0.0
  0
MTEXT
  5
103F6
330
DB1D
100
AcDbEntity
  8
DIM
 48
0.5
100
AcDbMText
 10
1160.621550488049
 20
808.4444879466033
 30
0.0
 40
0.12
 41
0.0
 71
     5
 72
     1
  1
\A1;2 [50.79]
  7
DAYUS
 73
     1
 44
1.0
1001
ACAD
1000
MTEXTBEGIN
1070
    73
1070
     1
1070
    44
1040
1.0
1070
    74
1070
     0
1000
MTEXTEND
  0
POINT
  5
103F7
330
DB1D
100
AcDbEntity
  8
Defpoints
 62
     0
 48
0.5
100
AcDbPoint
 10
1159.621725025405
 20
809.6770105926436
 30
0.0
  0
POINT
  5
103F8
330
DB1D
100
AcDbEntity
  8
Defpoints
 62
     0
 48
0.5
100
AcDbPoint
 10
1161.621375950693
 20
809.6770105926438
 30
0.0
  0
POINT
  5
103F9
330
DB1D
100
AcDbEntity
  8
Defpoints
 62
     0
 48
0.5
100
AcDbPoint
 10
1161.621375950693
 20
808.3130593751748
 30
0.0
  0
LINE
  5
103FA
330
DB1D
100
AcDbEntity
  8
DIM
 48
0.5
100
AcDbLine
 10
1161.621375950693
 20
809.0851023171234
 30
0.0
 11
1161.621375950693
 21
808.2330593751747
 31
0.0
  0
LINE
  5
103FB
330
DB1D
100
AcDbEntity
  8
DIM
 48
0.5
100
AcDbLine
 10
1159.621725025405
 20
809.3968455745219
 30
0.0
 11
1159.621725025405
 21
808.2330593751747
 31
0.0
  0
ENDBLK
  5
DB28
330
DB1D
100
AcDbEntity
  8
0
 62
     5
 48
0.5
100
AcDbBlockEnd
  0
BLOCK
  5
DB35
330
DB2A
100
AcDbEntity
  8
0
 62
     5
 48
0.5
100
AcDbBlockBegin
  2
*D17
 70
     1
 10
0.0
 20
0.0
 30
0.0
  3
*D17
  1

  0
LINE
  5
103A0
330
DB2A
100
AcDbEntity
  8
DIM
 48
0.5
100
AcDbLine
 10
1164.493731961033
 20
810.1443455745219
 30
0.0
 11
1163.365185842484
 21
810.1443455745219
 31
0.0
  0
LINE
  5
103A1
330
DB2A
100
AcDbEntity
  8
DIM
 48
0.5
100
AcDbLine
 10
1164.493731961033
 20
810.7693455745218
 30
0.0
 11
1163.365185842484
 21
810.7693455745218
 31
0.0
  0
LINE
  5
103A2
330
DB2A
100
AcDbEntity
  8
DIM
 48
0.5
100
AcDbLine
 10
1163.445185842484
 20
810.2643455745218
 30
0.0
 11
1163.445185842484
 21
810.6493455745217
 31
0.0
  0
LINE
  5
103A3
330
DB2A
100
AcDbEntity
  8
DIM
 48
0.5
100
AcDbLine
 10
1163.445185842484
 20
810.7693455745218
 30
0.0
 11
1163.445185842484
 21
812.4063029956795
 31
0.0
  0
SOLID
  5
103A4
330
DB2A
100
AcDbEntity
  8
DIM
 48
0.5
100
AcDbTrace
 10
1163.425185842484
 20
810.2643455745218
 30
0.0
 11
1163.465185842484
 21
810.2643455745218
 31
0.0
 12
1163.445185842484
 22
810.1443455745219
 32
0.0
 13
1163.445185842484
 23
810.1443455745219
 33
0.0
  0
SOLID
  5
103A5
330
DB2A
100
AcDbEntity
  8
DIM
 48
0.5
100
AcDbTrace
 10
1163.425185842484
 20
810.6493455745217
 30
0.0
 11
1163.465185842484
 21
810.6493455745217
 31
0.0
 12
1163.445185842484
 22
810.7693455745218
 32
0.0
 13
1163.445185842484
 23
810.7693455745218
 33
0.0
  0
MTEXT
  5
103A6
330
DB2A
100
AcDbEntity
  8
DIM
 48
0.5
100
AcDbMText
 10
1163.313757271055
 20
811.7491601385367
 30
0.0
 40
0.12
 41
0.0
 71
     5
 72
     1
  1
\A1;%%c0.63 [15.88]
  7
DAYUS
 11
0.0000000000000001
 21
1.0
 31
0.0
 73
     1
 44
1.0
1001
ACAD
1000
MTEXTBEGIN
1070
    73
1070
     1
1070
    44
1040
1.0
1070
    74
1070
     0
1000
MTEXTEND
  0
POINT
  5
103A7
330
DB2A
100
AcDbEntity
  8
Defpoints
 62
     0
 48
0.5
100
AcDbPoint
 10
1164.553731961033
 20
810.1443455745219
 30
0.0
  0
POINT
  5
103A8
330
DB2A
100
AcDbEntity
  8
Defpoints
 62
     0
 48
0.5
100
AcDbPoint
 10
1164.553731961033
 20
810.7693455745218
 30
0.0
  0
POINT
  5
103A9
330
DB2A
100
AcDbEntity
  8
Defpoints
 62
     0
 48
0.5
100
AcDbPoint
 10
1163.445185842484
 20
810.7693455745218
 30
0.0
  0
ENDBLK
  5
DB36
330
DB2A
100
AcDbEntity
  8
0
 62
     5
 48
0.5
100
AcDbBlockEnd
  0
BLOCK
  5
DB43
330
DB38
100
AcDbEntity
  8
0
 62
     5
 48
0.5
100
AcDbBlockBegin
  2
*D18
 70
     1
 10
0.0
 20
0.0
 30
0.0
  3
*D18
  1

  0
LINE
  5
103AA
330
DB38
100
AcDbEntity
  8
DIM
 48
0.5
100
AcDbLine
 10
1164.798583182518
 20
809.8943455745217
 30
0.0
 11
1162.975686947226
 21
809.8943455745217
 31
0.0
  0
LINE
  5
103AB
330
DB38
100
AcDbEntity
  8
DIM
 48
0.5
100
AcDbLine
 10
1164.798583182518
 20
811.0193455745218
 30
0.0
 11
1162.975686947226
 21
811.0193455745218
 31
0.0
  0
LINE
  5
103AC
330
DB38
100
AcDbEntity
  8
DIM
 48
0.5
100
AcDbLine
 10
1163.055686947226
 20
810.0143455745218
 30
0.0
 11
1163.055686947226
 21
810.8993455745217
 31
0.0
  0
LINE
  5
103AD
330
DB38
100
AcDbEntity
  8
DIM
 48
0.5
100
AcDbLine
 10
1163.055686947226
 20
811.0193455745218
 30
0.0
 11
1163.055686947226
 21
812.4307741459503
 31
0.0
  0
SOLID
  5
103AE
330
DB38
100
AcDbEntity
  8
DIM
 48
0.5
100
AcDbTrace
 10
1163.035686947226
 20
810.0143455745218
 30
0.0
 11
1163.075686947226
 21
810.0143455745218
 31
0.0
 12
1163.055686947226
 22
809.8943455745217
 32
0.0
 13
1163.055686947226
 23
809.8943455745217
 33
0.0
  0
SOLID
  5
103AF
330
DB38
100
AcDbEntity
  8
DIM
 48
0.5
100
AcDbTrace
 10
1163.035686947226
 20
810.8993455745217
 30
0.0
 11
1163.075686947226
 21
810.8993455745217
 31
0.0
 12
1163.055686947226
 22
811.0193455745218
 32
0.0
 13
1163.055686947226
 23
811.0193455745218
 33
0.0
  0
MTEXT
  5
103B0
330
DB38
100
AcDbEntity
  8
DIM
 48
0.5
100
AcDbMText
 10
1162.924258375797
 20
811.7850598602361
 30
0.0
 40
0.12
 41
0.0
 71
     5
 72
     1
  1
\A1;%%c1.13 [28.58]
  7
DAYUS
 11
0.0000000000000001
 21
1.0
 31
0.0
 73
     1
 44
1.0
1001
ACAD
1000
MTEXTBEGIN
1070
    73
1070
     1
1070
    44
1040
1.0
1070
    74
1070
     0
1000
MTEXTEND
  0
POINT
  5
103B1
330
DB38
100
AcDbEntity
  8
Defpoints
 62
     0
 48
0.5
100
AcDbPoint
 10
1164.858583182518
 20
809.8943455745217
 30
0.0
  0
POINT
  5
103B2
330
DB38
100
AcDbEntity
  8
Defpoints
 62
     0
 48
0.5
100
AcDbPoint
 10
1164.858583182518
 20
811.0193455745218
 30
0.0
  0
POINT
  5
103B3
330
DB38
100
AcDbEntity
  8
Defpoints
 62
     0
 48
0.5
100
AcDbPoint
 10
1163.055686947226
 20
811.0193455745218
 30
0.0
  0
ENDBLK
  5
DB44
330
DB38
100
AcDbEntity
  8
0
 62
     5
 48
0.5
100
AcDbBlockEnd
  0
BLOCK
  5
DB51
330
DB46
100
AcDbEntity
  8
0
 62
     5
 48
0.5
100
AcDbBlockBegin
  2
*D19
 70
     1
 10
0.0
 20
0.0
 30
0.0
  3
*D19
  1

  0
LINE
  5
103B4
330
DB46
100
AcDbEntity
  8
DIM
 48
0.5
100
AcDbLine
 10
1159.693295900793
 20
809.4568455745218
 30
0.0
 11
1159.367259188468
 21
809.4568455745218
 31
0.0
  0
LINE
  5
103B5
330
DB46
100
AcDbEntity
  8
DIM
 48
0.5
100
AcDbLine
 10
1159.585408755766
 20
810.4568455745218
 30
0.0
 11
1159.367259188468
 21
810.4568455745218
 31
0.0
  0
LINE
  5
103B6
330
DB46
100
AcDbEntity
  8
DIM
 48
0.5
100
AcDbLine
 10
1159.447259188468
 20
809.5768455745218
 30
0.0
 11
1159.447259188468
 21
810.3368455745219
 31
0.0
  0
SOLID
  5
103B7
330
DB46
100
AcDbEntity
  8
DIM
 48
0.5
100
AcDbTrace
 10
1159.427259188468
 20
809.5768455745218
 30
0.0
 11
1159.467259188468
 21
809.5768455745218
 31
0.0
 12
1159.447259188468
 22
809.4568455745218
 32
0.0
 13
1159.447259188468
 23
809.4568455745218
 33
0.0
  0
SOLID
  5
103B8
330
DB46
100
AcDbEntity
  8
DIM
 48
0.5
100
AcDbTrace
 10
1159.427259188468
 20
810.3368455745219
 30
0.0
 11
1159.467259188468
 21
810.3368455745219
 31
0.0
 12
1159.447259188468
 22
810.4568455745218
 32
0.0
 13
1159.447259188468
 23
810.4568455745218
 33
0.0
  0
MTEXT
  5
103B9
330
DB46
100
AcDbEntity
  8
DIM
 48
0.5
100
AcDbMText
 10
1159.315830617039
 20
809.9568455745218
 30
0.0
 40
0.12
 41
0.0
 71
     5
 72
     1
  1
\A1;1 [25.40]
  7
DAYUS
 11
0.0000000000000001
 21
1.0
 31
0.0
 73
     1
 44
1.0
1001
ACAD
1000
MTEXTBEGIN
1070
    73
1070
     1
1070
    44
1040
1.0
1070
    74
1070
     0
1000
MTEXTEND
  0
POINT
  5
103BA
330
DB46
100
AcDbEntity
  8
Defpoints
 62
     0
 48
0.5
100
AcDbPoint
 10
1159.753295900793
 20
809.4568455745218
 30
0.0
  0
POINT
  5
103BB
330
DB46
100
AcDbEntity
  8
Defpoints
 62
     0
 48
0.5
100
AcDbPoint
 10
1159.645408755766
 20
810.4568455745218
 30
0.0
  0
POINT
  5
103BC
330
DB46
100
AcDbEntity
  8
Defpoints
 62
     0
 48
0.5
100
AcDbPoint
 10
1159.447259188468
 20
810.4568455745218
 30
0.0
  0
ENDBLK
  5
DB52
330
DB46
100
AcDbEntity
  8
0
 62
     5
 48
0.5
100
AcDbBlockEnd
  0
BLOCK
  5
DB80
330
DB77
100
AcDbEntity
  8
0
 48
0.5
100
AcDbBlockBegin
  2
*D20
 70
     1
 10
0.0
 20
0.0
 30
0.0
  3
*D20
  1

  0
LINE
  5
103BD
330
DB77
100
AcDbEntity
  8
DIM
 48
0.5
100
AcDbLine
 10
1161.911726243801
 20
812.771569428304
 30
0.0
 11
1161.171700904652
 21
811.4438787650021
 31
0.0
  0
LINE
  5
103BE
330
DB77
100
AcDbEntity
  8
DIM
 48
0.5
100
AcDbLine
 10
1160.071400071445
 20
809.4698123840407
 30
0.0
 11
1160.012977018355
 21
809.3649947000958
 31
0.0
  0
MTEXT
  5
103BF
330
DB77
100
AcDbEntity
  8
DIM
 48
0.5
100
AcDbMText
 10
1161.456124780261
 20
812.2241200920104
 30
0.0
 40
0.12
 41
0.0
 71
     5
 72
     1
  1
\A1;\U+22052.02 [\U+220551.31]
  7
DAYUS
 11
0.4868587757553657
 21
0.8734806995406289
 31
0.0
 73
     1
 44
1.0
1001
ACAD
1000
MTEXTBEGIN
1070
    73
1070
     1
1070
    44
1040
1.0
1070
    74
1070
     0
1000
MTEXTEND
  0
LINE
  5
103C0
330
DB77
100
AcDbEntity
  8
DIM
 48
0.5
100
AcDbLine
 10
1160.129823124536
 20
809.5746300679858
 30
0.0
 11
1161.113277851561
 21
811.3390610810572
 31
0.0
  0
SOLID
  5
103C1
330
DB77
100
AcDbEntity
  8
DIM
 48
0.5
100
AcDbTrace
 10
1160.053930457455
 20
809.4795495595558
 30
0.0
 11
1160.088869685436
 21
809.4600752085256
 31
0.0
 12
1160.129823124536
 22
809.5746300679858
 32
0.0
 13
1160.129823124536
 23
809.5746300679858
 33
0.0
  0
SOLID
  5
103C2
330
DB77
100
AcDbEntity
  8
DIM
 48
0.5
100
AcDbTrace
 10
1161.154231290661
 20
811.4536159405172
 30
0.0
 11
1161.189170518643
 21
811.4341415894871
 31
0.0
 12
1161.113277851561
 22
811.3390610810572
 32
0.0
 13
1161.113277851561
 23
811.3390610810572
 33
0.0
  0
POINT
  5
103C3
330
DB77
100
AcDbEntity
  8
Defpoints
 62
     0
 48
0.5
100
AcDbPoint
 10
1161.113277851561
 20
811.3390610810572
 30
0.0
  0
POINT
  5
103C4
330
DB77
100
AcDbEntity
  8
Defpoints
 62
     0
 48
0.5
100
AcDbPoint
 10
1160.129823124536
 20
809.5746300679858
 30
0.0
  0
ENDBLK
  5
DB81
330
DB77
100
AcDbEntity
  8
0
 48
0.5
100
AcDbBlockEnd
  0
BLOCK
  5
DC7A
330
DC6F
100
AcDbEntity
  8
0
 48
0.5
100
AcDbBlockBegin
  2
*D21
 70
     1
 10
0.0
 20
0.0
 30
0.0
  3
*D21
  1

  0
LINE
  5
103C5
330
DC6F
100
AcDbEntity
  8
DIM
 48
0.5
100
AcDbLine
 10
1160.309050488049
 20
809.3065306138919
 30
0.0
 11
1160.309050488049
 21
809.0651023171233
 31
0.0
  0
LINE
  5
103C6
330
DC6F
100
AcDbEntity
  8
DIM
 48
0.5
100
AcDbLine
 10
1160.934050488049
 20
809.3065306138919
 30
0.0
 11
1160.934050488049
 21
809.0651023171233
 31
0.0
  0
LINE
  5
103C7
330
DC6F
100
AcDbEntity
  8
DIM
 48
0.5
100
AcDbLine
 10
1160.429050488049
 20
809.1451023171233
 30
0.0
 11
1160.814050488049
 21
809.1451023171233
 31
0.0
  0
LINE
  5
103C8
330
DC6F
100
AcDbEntity
  8
DIM
 48
0.5
100
AcDbLine
 10
1160.934050488049
 20
809.1451023171233
 30
0.0
 11
1162.259764773763
 21
809.1451023171233
 31
0.0
  0
SOLID
  5
103C9
330
DC6F
100
AcDbEntity
  8
DIM
 48
0.5
100
AcDbTrace
 10
1160.429050488049
 20
809.1651023171234
 30
0.0
 11
1160.429050488049
 21
809.1251023171233
 31
0.0
 12
1160.309050488049
 22
809.1451023171233
 32
0.0
 13
1160.309050488049
 23
809.1451023171233
 33
0.0
  0
SOLID
  5
103CA
330
DC6F
100
AcDbEntity
  8
DIM
 48
0.5
100
AcDbTrace
 10
1160.814050488049
 20
809.1651023171234
 30
0.0
 11
1160.814050488049
 21
809.1251023171233
 31
0.0
 12
1160.934050488049
 22
809.1451023171233
 32
0.0
 13
1160.934050488049
 23
809.1451023171233
 33
0.0
  0
MTEXT
  5
103CB
330
DC6F
100
AcDbEntity
  8
DIM
 48
0.5
100
AcDbMText
 10
1161.656907630906
 20
809.2765308885519
 30
0.0
 40
0.12
 41
0.0
 71
     5
 72
     1
  1
\A1;0.63 [15.88]
  7
DAYUS
 73
     1
 44
1.0
1001
ACAD
1000
MTEXTBEGIN
1070
    73
1070
     1
1070
    44
1040
1.0
1070
    74
1070
     0
1000
MTEXTEND
  0
POINT
  5
103CC
330
DC6F
100
AcDbEntity
  8
Defpoints
 62
     0
 48
0.5
100
AcDbPoint
 10
1160.309050488049
 20
809.3665306138918
 30
0.0
  0
POINT
  5
103CD
330
DC6F
100
AcDbEntity
  8
Defpoints
 62
     0
 48
0.5
100
AcDbPoint
 10
1160.934050488049
 20
809.3665306138918
 30
0.0
  0
POINT
  5
103CE
330
DC6F
100
AcDbEntity
  8
Defpoints
 62
     0
 48
0.5
100
AcDbPoint
 10
1160.934050488049
 20
809.1451023171233
 30
0.0
  0
ENDBLK
  5
DC7B
330
DC6F
100
AcDbEntity
  8
0
 48
0.5
100
AcDbBlockEnd
  0
BLOCK
  5
DC8F
330
DC83
100
AcDbEntity
  8
0
 48
0.5
100
AcDbBlockBegin
  2
*D22
 70
     1
 10
0.0
 20
0.0
 30
0.0
  3
*D22
  1

  0
LINE
  5
103CF
330
DC83
100
AcDbEntity
  8
DIM
 48
0.5
100
AcDbLine
 10
1164.274991803553
 20
810.0528455745218
 30
0.0
 11
1164.274991803553
 21
809.0258883194969
 31
0.0
  0
LINE
  5
103D0
330
DC83
100
AcDbEntity
  8
DIM
 48
0.5
100
AcDbLine
 10
1164.024991803553
 20
810.0528455745219
 30
0.0
 11
1164.024991803553
 21
809.0258883194969
 31
0.0
  0
LINE
  5
103D1
330
DC83
100
AcDbEntity
  8
DIM
 48
0.5
100
AcDbLine
 10
1164.394991803553
 20
809.1058883194969
 30
0.0
 11
1164.514991803553
 21
809.1058883194969
 31
0.0
  0
LINE
  5
103D2
330
DC83
100
AcDbEntity
  8
DIM
 48
0.5
100
AcDbLine
 10
1163.904991803553
 20
809.1058883194969
 30
0.0
 11
1162.564421791693
 21
809.1058883194969
 31
0.0
  0
LINE
  5
103D3
330
DC83
100
AcDbEntity
  8
DIM
 48
0.5
100
AcDbLine
 10
1164.274991803553
 20
809.1058883194969
 30
0.0
 11
1164.024991803553
 21
809.1058883194969
 31
0.0
  0
SOLID
  5
103D4
330
DC83
100
AcDbEntity
  8
DIM
 48
0.5
100
AcDbTrace
 10
1164.394991803553
 20
809.1258883194969
 30
0.0
 11
1164.394991803553
 21
809.085888319497
 31
0.0
 12
1164.274991803553
 22
809.1058883194969
 32
0.0
 13
1164.274991803553
 23
809.1058883194969
 33
0.0
  0
SOLID
  5
103D5
330
DC83
100
AcDbEntity
  8
DIM
 48
0.5
100
AcDbTrace
 10
1163.904991803553
 20
809.1258883194969
 30
0.0
 11
1163.904991803553
 21
809.085888319497
 31
0.0
 12
1164.024991803553
 22
809.1058883194969
 32
0.0
 13
1164.024991803553
 23
809.1058883194969
 33
0.0
  0
MTEXT
  5
103D6
330
DC83
100
AcDbEntity
  8
DIM
 48
0.5
100
AcDbMText
 10
1163.121564648836
 20
809.2373168909256
 30
0.0
 40
0.12
 41
0.0
 71
     5
 72
     1
  1
\A1;0.25 [6.35]
  7
DAYUS
 73
     1
 44
1.0
1001
ACAD
1000
MTEXTBEGIN
1070
    73
1070
     1
1070
    44
1040
1.0
1070
    74
1070
     0
1000
MTEXTEND
  0
POINT
  5
103D7
330
DC83
100
AcDbEntity
  8
Defpoints
 62
     0
 48
0.5
100
AcDbPoint
 10
1164.274991803553
 20
810.1128455745218
 30
0.0
  0
POINT
  5
103D8
330
DC83
100
AcDbEntity
  8
Defpoints
 62
     0
 48
0.5
100
AcDbPoint
 10
1164.024991803553
 20
810.112845574522
 30
0.0
  0
POINT
  5
103D9
330
DC83
100
AcDbEntity
  8
Defpoints
 62
     0
 48
0.5
100
AcDbPoint
 10
1164.024991803553
 20
809.1058883194969
 30
0.0
  0
ENDBLK
  5
DC90
330
DC83
100
AcDbEntity
  8
0
 48
0.5
100
AcDbBlockEnd
  0
BLOCK
  5
F696
330
F694
100
AcDbEntity
  8
0
 48
0.5
100
AcDbBlockBegin
  2
GENAXEH
 70
     0
 10
0.0
 20
0.0
 30
0.0
  3
GENAXEH
  1

  0
LINE
  5
F695
330
F694
100
AcDbEntity
  8
0
100
AcDbLine
 10
-1.0
 20
0.0
 30
0.0
 11
1.0
 21
0.0
 31
0.0
  0
ENDBLK
  5
F697
330
F694
100
AcDbEntity
  8
0
 48
0.5
100
AcDbBlockEnd
  0
BLOCK
  5
101F4
330
101F1
100
AcDbEntity
  8
0
 48
0.5
100
AcDbBlockBegin
  2
A$C0FBC3824
 70
     0
 10
0.0
 20
0.0
 30
0.0
  3
A$C0FBC3824
  1

  0
TEXT
  5
101F5
330
101F1
100
AcDbEntity
  8
0
 62
     4
100
AcDbText
 10
0.0000000077036475
 20
0.1971057862360794
 30
0.0
 40
0.09
  1
0
 41
0.75
  7
CHINESET
100
AcDbText
  0
LINE
  5
101F6
330
101F1
100
AcDbEntity
  8
0
 62
     4
100
AcDbLine
 10
0.0234936358031064
 20
0.0000000178492883
 30
0.0
 11
0.0234936358031064
 21
0.1569089626860887
 31
0.0
  0
TEXT
  5
101F7
330
101F1
100
AcDbEntity
  8
0
 62
     4
100
AcDbText
 10
0.1606473260601433
 20
0.2195738566518912
 30
0.0
 40
0.09
  1
Stroke
 41
0.75
  7
CHINESET
100
AcDbText
  0
ENDBLK
  5
101F8
330
101F1
100
AcDbEntity
  8
0
 48
0.5
100
AcDbBlockEnd
  0
BLOCK
  5
101FC
330
101F9
100
AcDbEntity
  8
0
 48
0.5
100
AcDbBlockBegin
  2
A$C7A150A0F
 70
     0
 10
0.0
 20
0.0
 30
0.0
  3
A$C7A150A0F
  1

  0
LINE
  5
101FD
330
101F9
100
AcDbEntity
  8
SL
100
AcDbLine
 10
0.3679920646077335
 20
0.0207352438358157
 30
0.0
 11
0.0
 21
0.0207352438358157
 31
0.0
  0
TRACE
  5
101FE
330
101F9
100
AcDbEntity
  8
SL
370
    35
100
AcDbTrace
 10
0.2104920646077062
 20
0.041470512113392
 30
0.0
 11
0.2104920646077062
 21
-0.0000000244416469
 31
0.0
 12
0.3679920646077335
 22
0.0207352438358157
 32
0.0
 13
0.3679920646077335
 23
0.0207352438358157
 33
0.0
  0
MTEXT
  5
101FF
330
101F9
100
AcDbEntity
  8
SL
100
AcDbMText
 10
0.0362430161771954
 20
0.0639487999877702
 30
0.0
 40
0.11025
 41
0.0
 71
     7
 72
     5
  1
SL
  7
ACISOTS
 73
     1
 44
1.0
1001
ACAD
1000
MTEXTBEGIN
1070
    73
1070
     1
1070
    44
1040
1.0
1070
    74
1070
     0
1000
MTEXTEND
  0
ENDBLK
  5
10200
330
101F9
100
AcDbEntity
  8
0
 48
0.5
100
AcDbBlockEnd
  0
ENDSEC
  0
SECTION
  2
ENTITIES
  0
MTEXT
  5
57F
330
2
100
AcDbEntity
  8
DIM
100
AcDbMText
 10
171.0016381545888
 20
211.4728669478691
 30
0.0
 40
3.0
 41
0.0
 71
     1
 72
     1
  1

  7
DAYUS
 73
     1
 44
1.0
1001
ACAD
1000
MTEXTBEGIN
1070
    73
1070
     1
1070
    44
1040
1.0
1070
    74
1070
     0
1000
MTEXTEND
  0
MTEXT
  5
9C8
330
2
100
AcDbEntity
  8
DIM
100
AcDbMText
 10
395.9238044175249
 20
214.0436425362303
 30
0.0
 40
3.0
 41
0.0
 71
     1
 72
     1
  1

  7
DAYUS
 73
     1
 44
1.0
1001
ACAD
1000
MTEXTBEGIN
1070
    73
1070
     1
1070
    44
1040
1.0
1070
    74
1070
     0
1000
MTEXTEND
  0
MTEXT
  5
9CE
330
2
100
AcDbEntity
  8
DIM
100
AcDbMText
 10
451.7751899652814
 20
173.9181305121135
 30
0.0
 40
3.0
 41
0.0
 71
     1
 72
     1
  1

  7
DAYUS
 73
     1
 44
1.0
1001
ACAD
1000
MTEXTBEGIN
1070
    73
1070
     1
1070
    44
1040
1.0
1070
    74
1070
     0
1000
MTEXTEND
  0
MTEXT
  5
9D0
330
2
100
AcDbEntity
  8
DIM
100
AcDbMText
 10
259.9703903886596
 20
176.2910840214814
 30
0.0
 40
3.0
 41
0.0
 71
     9
 72
     1
  1

  7
DAYUS
 73
     1
 44
1.0
1001
ACAD
1000
MTEXTBEGIN
1070
    73
1070
     1
1070
    44
1040
1.0
1070
    74
1070
     0
1000
MTEXTEND
  0
MTEXT
  5
9D4
330
2
100
AcDbEntity
  8
DIM
100
AcDbMText
 10
392.9133010604914
 20
171.5405871675761
 30
0.0
 40
3.0
 41
0.0
 71
     1
 72
     1
  1

  7
DAYUS
 73
     1
 44
1.0
1001
ACAD
1000
MTEXTBEGIN
1070
    73
1070
     1
1070
    44
1040
1.0
1070
    74
1070
     0
1000
MTEXTEND
  0
MTEXT
  5
158C
330
2
100
AcDbEntity
  8
DIM
100
AcDbMText
 10
110.8318657981983
 20
-15.08812259434717
 30
0.0
 40
3.0
 41
0.0
 71
     9
 72
     1
  1

  7
DAYUS
 73
     1
 44
1.0
1001
ACAD
1000
MTEXTBEGIN
1070
    73
1070
     1
1070
    44
1040
1.0
1070
    74
1070
     0
1000
MTEXTEND
  0
MTEXT
  5
158F
330
2
100
AcDbEntity
  8
DIM
100
AcDbMText
 10
119.2699599670356
 20
34.7510220230256
 30
0.0
 40
3.0
 41
0.0
 71
     9
 72
     1
  1

  7
DAYUS
 73
     1
 44
1.0
1001
ACAD
1000
MTEXTBEGIN
1070
    73
1070
     1
1070
    44
1040
1.0
1070
    74
1070
     0
1000
MTEXTEND
  0
MTEXT
  5
1591
330
2
100
AcDbEntity
  8
DIM
100
AcDbMText
 10
189.5967930303953
 20
-13.46778498091794
 30
0.0
 40
3.0
 41
0.0
 71
     1
 72
     1
  1

  7
DAYUS
 73
     1
 44
1.0
1001
ACAD
1000
MTEXTBEGIN
1070
    73
1070
     1
1070
    44
1040
1.0
1070
    74
1070
     0
1000
MTEXTEND
  0
MTEXT
  5
1598
330
2
100
AcDbEntity
  8
DIM
100
AcDbMText
 10
90.58412912106287
 20
-25.41282672788975
 30
0.0
 40
3.0
 41
0.0
 71
     9
 72
     1
  1

  7
DAYUS
 73
     1
 44
1.0
1001
ACAD
1000
MTEXTBEGIN
1070
    73
1070
     1
1070
    44
1040
1.0
1070
    74
1070
     0
1000
MTEXTEND
  0
MTEXT
  5
159A
330
2
100
AcDbEntity
  8
DIM
100
AcDbMText
 10
208.5571760105661
 20
-51.68695673963509
 30
0.0
 40
3.0
 41
0.0
 71
     1
 72
     1
  1

  7
DAYUS
 73
     1
 44
1.0
1001
ACAD
1000
MTEXTBEGIN
1070
    73
1070
     1
1070
    44
1040
1.0
1070
    74
1070
     0
1000
MTEXTEND
  0
MTEXT
  5
159D
330
2
100
AcDbEntity
  8
DIM
100
AcDbMText
 10
99.56138925954311
 20
147.6387806501056
 30
0.0
 40
3.0
 41
0.0
 71
     9
 72
     1
  1

  7
DAYUS
 73
     1
 44
1.0
1001
ACAD
1000
MTEXTBEGIN
1070
    73
1070
     1
1070
    44
1040
1.0
1070
    74
1070
     0
1000
MTEXTEND
  0
MTEXT
  5
159F
330
2
100
AcDbEntity
  8
DIM
100
AcDbMText
 10
304.2962861880261
 20
161.94800970186
 30
0.0
 40
3.0
 41
0.0
 71
     9
 72
     1
  1

  7
DAYUS
 73
     1
 44
1.0
1001
ACAD
1000
MTEXTBEGIN
1070
    73
1070
     1
1070
    44
1040
1.0
1070
    74
1070
     0
1000
MTEXTEND
  0
MTEXT
  5
15A2
330
2
100
AcDbEntity
  8
DIM
100
AcDbMText
 10
43.89870096097361
 20
-23.29567037714901
 30
0.0
 40
3.0
 41
0.0
 71
     9
 72
     1
  1

  7
DAYUS
 73
     1
 44
1.0
1001
ACAD
1000
MTEXTBEGIN
1070
    73
1070
     1
1070
    44
1040
1.0
1070
    74
1070
     0
1000
MTEXTEND
  0
MTEXT
  5
1ECC
330
2
100
AcDbEntity
  8
DIM
100
AcDbMText
 10
386.6447020568979
 20
28.34246059625048
 30
0.0
 40
3.0
 41
0.0
 71
     1
 72
     1
  1

  7
DAYUS
 73
     1
 44
1.0
1001
ACAD
1000
MTEXTBEGIN
1070
    73
1070
     1
1070
    44
1040
1.0
1070
    74
1070
     0
1000
MTEXTEND
  0
MTEXT
  5
1ECE
330
2
100
AcDbEntity
  8
DIM
100
AcDbMText
 10
319.574162593258
 20
28.70880813750205
 30
0.0
 40
3.0
 41
0.0
 71
     9
 72
     1
  1

  7
DAYUS
 73
     1
 44
1.0
1001
ACAD
1000
MTEXTBEGIN
1070
    73
1070
     1
1070
    44
1040
1.0
1070
    74
1070
     0
1000
MTEXTEND
  0
MTEXT
  5
1ED0
330
2
100
AcDbEntity
  8
DIM
100
AcDbMText
 10
378.371508435386
 20
-16.25474400202404
 30
0.0
 40
3.0
 41
0.0
 71
     1
 72
     1
  1

  7
DAYUS
 73
     1
 44
1.0
1001
ACAD
1000
MTEXTBEGIN
1070
    73
1070
     1
1070
    44
1040
1.0
1070
    74
1070
     0
1000
MTEXTEND
  0
MTEXT
  5
1ED2
330
2
100
AcDbEntity
  8
DIM
100
AcDbMText
 10
252.8508589257123
 20
-19.0290972650472
 30
0.0
 40
3.0
 41
0.0
 71
     9
 72
     1
  1

  7
DAYUS
 73
     1
 44
1.0
1001
ACAD
1000
MTEXTBEGIN
1070
    73
1070
     1
1070
    44
1040
1.0
1070
    74
1070
     0
1000
MTEXTEND
  0
MTEXT
  5
1ED4
330
2
100
AcDbEntity
  8
DIM
100
AcDbMText
 10
408.0172303915572
 20
-23.72879443427905
 30
0.0
 40
3.0
 41
0.0
 71
     1
 72
     1
  1

  7
DAYUS
 73
     1
 44
1.0
1001
ACAD
1000
MTEXTBEGIN
1070
    73
1070
     1
1070
    44
1040
1.0
1070
    74
1070
     0
1000
MTEXTEND
  0
TEXT
  5
2415
330
2
100
AcDbEntity
  8
LOGO
  6
Continuous
 62
     6
100
AcDbText
 10
725.6097667457372
 20
-105.2238066289788
 30
0.0
 40
2.164502164502164
  1

  7
CHINESET
 72
     4
 11
725.6097667457372
 21
-105.2238066289788
 31
0.0
100
AcDbText
  0
LINE
  5
4695
330
2
100
AcDbEntity
  8
AM_7
 60
     1
100
AcDbLine
 10
821.9829340872449
 20
370.6532985828056
 30
0.0
 11
785.5829340872447
 21
370.6532985828056
 31
0.0
  0
LINE
  5
46DE
330
2
100
AcDbEntity
  8
AM_7
 60
     1
100
AcDbLine
 10
717.3295627225357
 20
370.6532985828056
 30
0.0
 11
720.3295627225356
 21
370.6532985828056
 31
0.0
  0
LINE
  5
46DF
330
2
100
AcDbEntity
  8
AM_7
 60
     1
100
AcDbLine
 10
718.8295627225357
 20
369.1532985828057
 30
0.0
 11
718.8295627225357
 21
372.1532985828056
 31
0.0
  0
LINE
  5
46E0
330
2
100
AcDbEntity
  8
AM_7
 60
     1
100
AcDbLine
 10
709.8295627225357
 20
370.6532985828056
 30
0.0
 11
716.3295627225356
 21
370.6532985828056
 31
0.0
  0
LINE
  5
46E1
330
2
100
AcDbEntity
  8
AM_7
 60
     1
100
AcDbLine
 10
721.3295627225356
 20
370.6532985828056
 30
0.0
 11
727.8295627225356
 21
370.6532985828056
 31
0.0
  0
LINE
  5
46E2
330
2
100
AcDbEntity
  8
AM_7
 60
     1
100
AcDbLine
 10
718.8295627225357
 20
361.6532985828056
 30
0.0
 11
718.8295627225357
 21
368.1532985828056
 31
0.0
  0
LINE
  5
46E3
330
2
100
AcDbEntity
  8
AM_7
 60
     1
100
AcDbLine
 10
718.8295627225357
 20
373.1532985828057
 30
0.0
 11
718.8295627225357
 21
379.6532985828056
 31
0.0
  0
LINE
  5
46E4
330
2
100
AcDbEntity
  8
AM_7
 60
     1
100
AcDbLine
 10
709.0795627225356
 20
362.4032985828056
 30
0.0
 11
712.0795627225357
 21
362.4032985828056
 31
0.0
  0
LINE
  5
46E5
330
2
100
AcDbEntity
  8
AM_7
 60
     1
100
AcDbLine
 10
710.5795627225356
 20
360.9032985828056
 30
0.0
 11
710.5795627225356
 21
363.9032985828056
 31
0.0
  0
LINE
  5
46E6
330
2
100
AcDbEntity
  8
AM_7
 60
     1
100
AcDbLine
 10
706.8142627225356
 20
362.4032985828056
 30
0.0
 11
708.0795627225357
 21
362.4032985828056
 31
0.0
  0
LINE
  5
46E7
330
2
100
AcDbEntity
  8
AM_7
 60
     1
100
AcDbLine
 10
713.0795627225356
 20
362.4032985828056
 30
0.0
 11
714.3448627225356
 21
362.4032985828056
 31
0.0
  0
LINE
  5
46E8
330
2
100
AcDbEntity
  8
AM_7
 60
     1
100
AcDbLine
 10
710.5795627225356
 20
358.6379985828056
 30
0.0
 11
710.5795627225356
 21
359.9032985828056
 31
0.0
  0
LINE
  5
46E9
330
2
100
AcDbEntity
  8
AM_7
 60
     1
100
AcDbLine
 10
710.5795627225356
 20
364.9032985828057
 30
0.0
 11
710.5795627225356
 21
366.1685985828057
 31
0.0
  0
LINE
  5
46EA
330
2
100
AcDbEntity
  8
AM_7
 60
     1
100
AcDbLine
 10
725.5795627225356
 20
362.4032985828056
 30
0.0
 11
728.5795627225357
 21
362.4032985828056
 31
0.0
  0
LINE
  5
46EB
330
2
100
AcDbEntity
  8
AM_7
 60
     1
100
AcDbLine
 10
727.0795627225356
 20
360.9032985828056
 30
0.0
 11
727.0795627225356
 21
363.9032985828056
 31
0.0
  0
LINE
  5
46EC
330
2
100
AcDbEntity
  8
AM_7
 60
     1
100
AcDbLine
 10
723.3142627225356
 20
362.4032985828056
 30
0.0
 11
724.5795627225357
 21
362.4032985828056
 31
0.0
  0
LINE
  5
46ED
330
2
100
AcDbEntity
  8
AM_7
 60
     1
100
AcDbLine
 10
729.5795627225357
 20
362.4032985828056
 30
0.0
 11
730.8448627225356
 21
362.4032985828056
 31
0.0
  0
LINE
  5
46EE
330
2
100
AcDbEntity
  8
AM_7
 60
     1
100
AcDbLine
 10
727.0795627225356
 20
358.6379985828056
 30
0.0
 11
727.0795627225356
 21
359.9032985828056
 31
0.0
  0
LINE
  5
46EF
330
2
100
AcDbEntity
  8
AM_7
 60
     1
100
AcDbLine
 10
727.0795627225356
 20
364.9032985828057
 30
0.0
 11
727.0795627225356
 21
366.1685985828057
 31
0.0
  0
LINE
  5
46F0
330
2
100
AcDbEntity
  8
AM_7
 60
     1
100
AcDbLine
 10
725.5795627225356
 20
378.9032985828056
 30
0.0
 11
728.5795627225357
 21
378.9032985828056
 31
0.0
  0
LINE
  5
46F1
330
2
100
AcDbEntity
  8
AM_7
 60
     1
100
AcDbLine
 10
727.0795627225356
 20
377.4032985828057
 30
0.0
 11
727.0795627225356
 21
380.4032985828056
 31
0.0
  0
LINE
  5
46F2
330
2
100
AcDbEntity
  8
AM_7
 60
     1
100
AcDbLine
 10
723.3142627225356
 20
378.9032985828056
 30
0.0
 11
724.5795627225357
 21
378.9032985828056
 31
0.0
  0
LINE
  5
46F3
330
2
100
AcDbEntity
  8
AM_7
 60
     1
100
AcDbLine
 10
729.5795627225357
 20
378.9032985828056
 30
0.0
 11
730.8448627225356
 21
378.9032985828056
 31
0.0
  0
LINE
  5
46F4
330
2
100
AcDbEntity
  8
AM_7
 60
     1
100
AcDbLine
 10
727.0795627225356
 20
375.1379985828056
 30
0.0
 11
727.0795627225356
 21
376.4032985828056
 31
0.0
  0
LINE
  5
46F5
330
2
100
AcDbEntity
  8
AM_7
 60
     1
100
AcDbLine
 10
727.0795627225356
 20
381.4032985828056
 30
0.0
 11
727.0795627225356
 21
382.6685985828057
 31
0.0
  0
LINE
  5
46F6
330
2
100
AcDbEntity
  8
AM_7
 60
     1
100
AcDbLine
 10
709.0795627225356
 20
378.9032985828056
 30
0.0
 11
712.0795627225357
 21
378.9032985828056
 31
0.0
  0
LINE
  5
46F7
330
2
100
AcDbEntity
  8
AM_7
 60
     1
100
AcDbLine
 10
710.5795627225356
 20
377.4032985828057
 30
0.0
 11
710.5795627225356
 21
380.4032985828056
 31
0.0
  0
LINE
  5
46F8
330
2
100
AcDbEntity
  8
AM_7
 60
     1
100
AcDbLine
 10
706.8142627225356
 20
378.9032985828056
 30
0.0
 11
708.0795627225357
 21
378.9032985828056
 31
0.0
  0
LINE
  5
46F9
330
2
100
AcDbEntity
  8
AM_7
 60
     1
100
AcDbLine
 10
713.0795627225356
 20
378.9032985828056
 30
0.0
 11
714.3448627225356
 21
378.9032985828056
 31
0.0
  0
LINE
  5
46FA
330
2
100
AcDbEntity
  8
AM_7
 60
     1
100
AcDbLine
 10
710.5795627225356
 20
375.1379985828056
 30
0.0
 11
710.5795627225356
 21
376.4032985828056
 31
0.0
  0
LINE
  5
46FB
330
2
100
AcDbEntity
  8
AM_7
 60
     1
100
AcDbLine
 10
710.5795627225356
 20
381.4032985828056
 30
0.0
 11
710.5795627225356
 21
382.6685985828057
 31
0.0
  0
MTEXT
  5
5255
330
2
100
AcDbEntity
  8
DIM
100
AcDbMText
 10
425.4771973450544
 20
385.6437927217159
 30
0.0
 40
3.0
 41
0.0
 71
     9
 72
     1
  1

  7
DAYUS
 73
     1
 44
1.0
1001
ACAD
1000
MTEXTBEGIN
1070
    73
1070
     1
1070
    44
1040
1.0
1070
    74
1070
     0
1000
MTEXTEND
  0
MTEXT
  5
55B3
330
2
100
AcDbEntity
  8
DIM
100
AcDbMText
 10
337.3922889508355
 20
381.3937824807733
 30
0.0
 40
3.0
 41
0.0
 71
     9
 72
     1
  1

  7
DAYUS
 73
     1
 44
1.0
1001
ACAD
1000
MTEXTBEGIN
1070
    73
1070
     1
1070
    44
1040
1.0
1070
    74
1070
     0
1000
MTEXTEND
  0
MTEXT
  5
55B5
330
2
100
AcDbEntity
  8
DIM
100
AcDbMText
 10
464.3020910635148
 20
395.4959283372091
 30
0.0
 40
3.0
 41
0.0
 71
     1
 72
     1
  1

  7
DAYUS
 73
     1
 44
1.0
1001
ACAD
1000
MTEXTBEGIN
1070
    73
1070
     1
1070
    44
1040
1.0
1070
    74
1070
     0
1000
MTEXTEND
  0
MTEXT
  5
55B7
330
2
100
AcDbEntity
  8
DIM
100
AcDbMText
 10
497.4191386176732
 20
388.3459056991758
 30
0.0
 40
3.0
 41
0.0
 71
     9
 72
     1
  1

  7
DAYUS
 73
     1
 44
1.0
1001
ACAD
1000
MTEXTBEGIN
1070
    73
1070
     1
1070
    44
1040
1.0
1070
    74
1070
     0
1000
MTEXTEND
  0
MTEXT
  5
55B9
330
2
100
AcDbEntity
  8
DIM
100
AcDbMText
 10
551.0659257174618
 20
385.0690272050015
 30
0.0
 40
3.0
 41
0.0
 71
     1
 72
     1
  1

  7
DAYUS
 73
     1
 44
1.0
1001
ACAD
1000
MTEXTBEGIN
1070
    73
1070
     1
1070
    44
1040
1.0
1070
    74
1070
     0
1000
MTEXTEND
  0
MTEXT
  5
55BB
330
2
100
AcDbEntity
  8
DIM
100
AcDbMText
 10
536.2490338467599
 20
355.9566858156474
 30
0.0
 40
3.0
 41
0.0
 71
     1
 72
     1
  1

  7
DAYUS
 73
     1
 44
1.0
1001
ACAD
1000
MTEXTBEGIN
1070
    73
1070
     1
1070
    44
1040
1.0
1070
    74
1070
     0
1000
MTEXTEND
  0
MTEXT
  5
55BE
330
2
100
AcDbEntity
  8
DIM
100
AcDbMText
 10
630.4343546649713
 20
392.9941675949847
 30
0.0
 40
3.0
 41
0.0
 71
     1
 72
     1
  1

  7
DAYUS
 73
     1
 44
1.0
1001
ACAD
1000
MTEXTBEGIN
1070
    73
1070
     1
1070
    44
1040
1.0
1070
    74
1070
     0
1000
MTEXTEND
  0
MTEXT
  5
5818
330
2
100
AcDbEntity
  8
DIM
100
AcDbMText
 10
674.2365354058436
 20
381.9223807155993
 30
0.0
 40
3.0
 41
0.0
 71
     9
 72
     1
  1

  7
DAYUS
 73
     1
 44
1.0
1001
ACAD
1000
MTEXTBEGIN
1070
    73
1070
     1
1070
    44
1040
1.0
1070
    74
1070
     0
1000
MTEXTEND
  0
MTEXT
  5
581A
330
2
100
AcDbEntity
  8
DIM
100
AcDbMText
 10
809.5660606680956
 20
394.5445933493984
 30
0.0
 40
3.0
 41
0.0
 71
     1
 72
     1
  1

  7
DAYUS
 73
     1
 44
1.0
1001
ACAD
1000
MTEXTBEGIN
1070
    73
1070
     1
1070
    44
1040
1.0
1070
    74
1070
     0
1000
MTEXTEND
  0
MTEXT
  5
581C
330
2
100
AcDbEntity
  8
DIM
100
AcDbMText
 10
888.0882125058304
 20
352.3853584481396
 30
0.0
 40
3.0
 41
0.0
 71
     1
 72
     1
  1

  7
DAYUS
 73
     1
 44
1.0
1001
ACAD
1000
MTEXTBEGIN
1070
    73
1070
     1
1070
    44
1040
1.0
1070
    74
1070
     0
1000
MTEXTEND
  0
MTEXT
  5
581E
330
2
100
AcDbEntity
  8
DIM
100
AcDbMText
 10
841.6122928642023
 20
381.4409665153828
 30
0.0
 40
3.0
 41
0.0
 71
     9
 72
     1
  1

  7
DAYUS
 73
     1
 44
1.0
1001
ACAD
1000
MTEXTBEGIN
1070
    73
1070
     1
1070
    44
1040
1.0
1070
    74
1070
     0
1000
MTEXTEND
  0
MTEXT
  5
5820
330
2
100
AcDbEntity
  8
DIM
100
AcDbMText
 10
905.1656554192106
 20
381.7631554776815
 30
0.0
 40
3.0
 41
0.0
 71
     1
 72
     1
  1

  7
DAYUS
 73
     1
 44
1.0
1001
ACAD
1000
MTEXTBEGIN
1070
    73
1070
     1
1070
    44
1040
1.0
1070
    74
1070
     0
1000
MTEXTEND
  0
MTEXT
  5
5823
330
2
100
AcDbEntity
  8
DIM
100
AcDbMText
 10
981.8056800376997
 20
387.8743827474727
 30
0.0
 40
3.0
 41
0.0
 71
     1
 72
     1
  1

  7
DAYUS
 73
     1
 44
1.0
1001
ACAD
1000
MTEXTBEGIN
1070
    73
1070
     1
1070
    44
1040
1.0
1070
    74
1070
     0
1000
MTEXTEND
  0
MTEXT
  5
5825
330
2
100
AcDbEntity
  8
DIM
100
AcDbMText
 10
630.3069158966652
 20
392.3413846481697
 30
0.0
 40
3.0
 41
0.0
 71
     1
 72
     1
  1

  7
DAYUS
 73
     1
 44
1.0
1001
ACAD
1000
MTEXTBEGIN
1070
    73
1070
     1
1070
    44
1040
1.0
1070
    74
1070
     0
1000
MTEXTEND
  0
MTEXT
  5
5BAB
330
2
100
AcDbEntity
  8
DIM
100
AcDbMText
 10
684.8805297782558
 20
338.1595951305617
 30
0.0
 40
3.0
 41
0.0
 71
     9
 72
     1
  1

  7
DAYUS
 73
     1
 44
1.0
1001
ACAD
1000
MTEXTBEGIN
1070
    73
1070
     1
1070
    44
1040
1.0
1070
    74
1070
     0
1000
MTEXTEND
  0
MTEXT
  5
5BAD
330
2
100
AcDbEntity
  8
DIM
100
AcDbMText
 10
830.0252386234504
 20
355.9987340734346
 30
0.0
 40
3.0
 41
0.0
 71
     1
 72
     1
  1

  7
DAYUS
 73
     1
 44
1.0
1001
ACAD
1000
MTEXTBEGIN
1070
    73
1070
     1
1070
    44
1040
1.0
1070
    74
1070
     0
1000
MTEXTEND
  0
MTEXT
  5
5BAF
330
2
100
AcDbEntity
  8
DIM
100
AcDbMText
 10
866.9398601322594
 20
342.7022485991038
 30
0.0
 40
3.0
 41
0.0
 71
     9
 72
     1
  1

  7
DAYUS
 73
     1
 44
1.0
1001
ACAD
1000
MTEXTBEGIN
1070
    73
1070
     1
1070
    44
1040
1.0
1070
    74
1070
     0
1000
MTEXTEND
  0
MTEXT
  5
5BB1
330
2
100
AcDbEntity
  8
DIM
100
AcDbMText
 10
914.1167593491697
 20
312.0125777437993
 30
0.0
 40
3.0
 41
0.0
 71
     1
 72
     1
  1

  7
DAYUS
 73
     1
 44
1.0
1001
ACAD
1000
MTEXTBEGIN
1070
    73
1070
     1
1070
    44
1040
1.0
1070
    74
1070
     0
1000
MTEXTEND
  0
MTEXT
  5
5BB3
330
2
100
AcDbEntity
  8
DIM
100
AcDbMText
 10
928.3641264699406
 20
344.1897799651356
 30
0.0
 40
3.0
 41
0.0
 71
     1
 72
     1
  1

  7
DAYUS
 73
     1
 44
1.0
1001
ACAD
1000
MTEXTBEGIN
1070
    73
1070
     1
1070
    44
1040
1.0
1070
    74
1070
     0
1000
MTEXTEND
  0
MTEXT
  5
5BB5
330
2
100
AcDbEntity
  8
DIM
100
AcDbMText
 10
1013.024197505859
 20
347.9904155724335
 30
0.0
 40
3.0
 41
0.0
 71
     1
 72
     1
  1

  7
DAYUS
 73
     1
 44
1.0
1001
ACAD
1000
MTEXTBEGIN
1070
    73
1070
     1
1070
    44
1040
1.0
1070
    74
1070
     0
1000
MTEXTEND
  0
MTEXT
  5
5D19
330
2
100
AcDbEntity
  8
DIM
100
AcDbMText
 10
1132.296897199865
 20
137.4323107276391
 30
0.0
 40
3.0
 41
0.0
 71
     9
 72
     1
  1

  7
DAYUS
 73
     1
 44
1.0
1001
ACAD
1000
MTEXTBEGIN
1070
    73
1070
     1
1070
    44
1040
1.0
1070
    74
1070
     0
1000
MTEXTEND
  0
MTEXT
  5
5D1B
330
2
100
AcDbEntity
  8
DIM
100
AcDbMText
 10
1287.262763063576
 20
157.1269881484054
 30
0.0
 40
3.0
 41
0.0
 71
     1
 72
     1
  1

  7
DAYUS
 73
     1
 44
1.0
1001
ACAD
1000
MTEXTBEGIN
1070
    73
1070
     1
1070
    44
1040
1.0
1070
    74
1070
     0
1000
MTEXTEND
  0
MTEXT
  5
5D1D
330
2
100
AcDbEntity
  8
DIM
100
AcDbMText
 10
1330.112480616849
 20
142.7720950737402
 30
0.0
 40
3.0
 41
0.0
 71
     9
 72
     1
  1

  7
DAYUS
 73
     1
 44
1.0
1001
ACAD
1000
MTEXTBEGIN
1070
    73
1070
     1
1070
    44
1040
1.0
1070
    74
1070
     0
1000
MTEXTEND
  0
MTEXT
  5
5D1F
330
2
100
AcDbEntity
  8
DIM
100
AcDbMText
 10
1386.41599530958
 20
103.2245127401093
 30
0.0
 40
3.0
 41
0.0
 71
     1
 72
     1
  1

  7
DAYUS
 73
     1
 44
1.0
1001
ACAD
1000
MTEXTBEGIN
1070
    73
1070
     1
1070
    44
1040
1.0
1070
    74
1070
     0
1000
MTEXTEND
  0
MTEXT
  5
5D21
330
2
100
AcDbEntity
  8
DIM
100
AcDbMText
 10
1399.467586840553
 20
144.5024959794691
 30
0.0
 40
3.0
 41
0.0
 71
     1
 72
     1
  1

  7
DAYUS
 73
     1
 44
1.0
1001
ACAD
1000
MTEXTBEGIN
1070
    73
1070
     1
1070
    44
1040
1.0
1070
    74
1070
     0
1000
MTEXTEND
  0
MTEXT
  5
5D24
330
2
100
AcDbEntity
  8
DIM
100
AcDbMText
 10
1488.579011607569
 20
148.6537444685686
 30
0.0
 40
3.0
 41
0.0
 71
     1
 72
     1
  1

  7
DAYUS
 73
     1
 44
1.0
1001
ACAD
1000
MTEXTBEGIN
1070
    73
1070
     1
1070
    44
1040
1.0
1070
    74
1070
     0
1000
MTEXTEND
  0
MTEXT
  5
5E8E
330
2
100
AcDbEntity
  8
DIM
100
AcDbMText
 10
658.928637628099
 20
-79.58414497709418
 30
0.0
 40
3.0
 41
0.0
 71
     9
 72
     1
  1

  7
DAYUS
 73
     1
 44
1.0
1001
ACAD
1000
MTEXTBEGIN
1070
    73
1070
     1
1070
    44
1040
1.0
1070
    74
1070
     0
1000
MTEXTEND
  0
MTEXT
  5
5E90
330
2
100
AcDbEntity
  8
DIM
100
AcDbMText
 10
842.7524841695728
 20
-54.74642897263265
 30
0.0
 40
3.0
 41
0.0
 71
     1
 72
     1
  1

  7
DAYUS
 73
     1
 44
1.0
1001
ACAD
1000
MTEXTBEGIN
1070
    73
1070
     1
1070
    44
1040
1.0
1070
    74
1070
     0
1000
MTEXTEND
  0
MTEXT
  5
5E92
330
2
100
AcDbEntity
  8
DIM
100
AcDbMText
 10
894.8077202077158
 20
-74.48212912349254
 30
0.0
 40
3.0
 41
0.0
 71
     9
 72
     1
  1

  7
DAYUS
 73
     1
 44
1.0
1001
ACAD
1000
MTEXTBEGIN
1070
    73
1070
     1
1070
    44
1040
1.0
1070
    74
1070
     0
1000
MTEXTEND
  0
MTEXT
  5
5E94
330
2
100
AcDbEntity
  8
DIM
100
AcDbMText
 10
962.0232820996996
 20
-118.8582107879997
 30
0.0
 40
3.0
 41
0.0
 71
     1
 72
     1
  1

  7
DAYUS
 73
     1
 44
1.0
1001
ACAD
1000
MTEXTBEGIN
1070
    73
1070
     1
1070
    44
1040
1.0
1070
    74
1070
     0
1000
MTEXTEND
  0
MTEXT
  5
5E96
330
2
100
AcDbEntity
  8
DIM
100
AcDbMText
 10
973.0410095899967
 20
-68.50784959554267
 30
0.0
 40
3.0
 41
0.0
 71
     1
 72
     1
  1

  7
DAYUS
 73
     1
 44
1.0
1001
ACAD
1000
MTEXTBEGIN
1070
    73
1070
     1
1070
    44
1040
1.0
1070
    74
1070
     0
1000
MTEXTEND
  0
MTEXT
  5
5E99
330
2
100
AcDbEntity
  8
DIM
100
AcDbMText
 10
1085.7340529482
 20
-65.46466959922986
 30
0.0
 40
3.0
 41
0.0
 71
     1
 72
     1
  1

  7
DAYUS
 73
     1
 44
1.0
1001
ACAD
1000
MTEXTBEGIN
1070
    73
1070
     1
1070
    44
1040
1.0
1070
    74
1070
     0
1000
MTEXTEND
  0
MTEXT
  5
5FD8
330
2
100
AcDbEntity
  8
DIM
100
AcDbMText
 10
633.7072948690917
 20
-502.7427877496786
 30
0.0
 40
3.0
 41
0.0
 71
     9
 72
     1
  1

  7
DAYUS
 73
     1
 44
1.0
1001
ACAD
1000
MTEXTBEGIN
1070
    73
1070
     1
1070
    44
1040
1.0
1070
    74
1070
     0
1000
MTEXTEND
  0
MTEXT
  5
5FDA
330
2
100
AcDbEntity
  8
DIM
100
AcDbMText
 10
827.0953012499091
 20
-475.7102669926271
 30
0.0
 40
3.0
 41
0.0
 71
     1
 72
     1
  1

  7
DAYUS
 73
     1
 44
1.0
1001
ACAD
1000
MTEXTBEGIN
1070
    73
1070
     1
1070
    44
1040
1.0
1070
    74
1070
     0
1000
MTEXTEND
  0
MTEXT
  5
5FDC
330
2
100
AcDbEntity
  8
DIM
100
AcDbMText
 10
882.8280559962202
 20
-495.8443240051528
 30
0.0
 40
3.0
 41
0.0
 71
     9
 72
     1
  1

  7
DAYUS
 73
     1
 44
1.0
1001
ACAD
1000
MTEXTBEGIN
1070
    73
1070
     1
1070
    44
1040
1.0
1070
    74
1070
     0
1000
MTEXTEND
  0
MTEXT
  5
5FDE
330
2
100
AcDbEntity
  8
DIM
100
AcDbMText
 10
948.0591214104412
 20
-547.2299946926262
 30
0.0
 40
3.0
 41
0.0
 71
     1
 72
     1
  1

  7
DAYUS
 73
     1
 44
1.0
1001
ACAD
1000
MTEXTBEGIN
1070
    73
1070
     1
1070
    44
1040
1.0
1070
    74
1070
     0
1000
MTEXTEND
  0
MTEXT
  5
5FE0
330
2
100
AcDbEntity
  8
DIM
100
AcDbMText
 10
957.8725249226929
 20
-495.3335721753492
 30
0.0
 40
3.0
 41
0.0
 71
     1
 72
     1
  1

  7
DAYUS
 73
     1
 44
1.0
1001
ACAD
1000
MTEXTBEGIN
1070
    73
1070
     1
1070
    44
1040
1.0
1070
    74
1070
     0
1000
MTEXTEND
  0
ARC
  5
C2CB
330
2
100
AcDbEntity
  8
AM_VIS
100
AcDbCircle
 10
1161.246311796369
 20
810.3859703769842
 30
0.0
 40
0.0393789127593505
100
AcDbArc
 50
89.9913783447246
 51
173.5188199133372
  0
LINE
  5
C2CC
330
2
100
AcDbEntity
  8
AM_VIS
100
AcDbLine
 10
1161.45272524496
 20
810.4253495115298
 30
0.0
 11
1161.246317721994
 21
810.4253495115298
 31
0.0
  0
LINE
  5
C2CD
330
2
100
AcDbEntity
  8
AM_VIS
100
AcDbLine
 10
1161.492095323701
 20
810.056806204443
 30
0.0
 11
1161.492095323701
 21
810.3859794327895
 31
0.0
  0
LINE
  5
C2CE
330
2
100
AcDbEntity
  8
AM_VIS
100
AcDbLine
 10
1161.060959936868
 20
811.1718455745219
 30
0.0
 11
1161.060959936868
 21
811.2880203314333
 31
0.0
  0
LINE
  5
C2CF
330
2
100
AcDbEntity
  8
AM_VIS
100
AcDbLine
 10
1161.041056556113
 20
810.9208938020303
 30
0.0
 11
1161.097279191326
 21
810.9771164372439
 31
0.0
  0
ARC
  5
C2D0
330
2
100
AcDbEntity
  8
AM_VIS
100
AcDbCircle
 10
1161.013207130513
 20
810.9487345341332
 30
0.0
 40
0.039378685335786
100
AcDbArc
 50
231.4808602767558
 51
315.0089441415873
  0
ARC
  5
C2D1
330
2
100
AcDbEntity
  8
AM_VIS
100
AcDbCircle
 10
1160.692425685587
 20
811.081606882842
 30
0.0
 40
0.0393789127593507
100
AcDbArc
 50
179.9913783447181
 51
263.5188199133308
  0
LINE
  5
C2D2
330
2
100
AcDbEntity
  8
AM_VIS
100
AcDbLine
 10
1160.653046551041
 20
811.2880203314333
 30
0.0
 11
1160.653046551041
 21
811.0816128084673
 31
0.0
  0
LINE
  5
C2D3
330
2
100
AcDbEntity
  8
AM_VIS
100
AcDbLine
 10
1161.021589858128
 20
811.3273904101733
 30
0.0
 11
1160.692416629781
 21
811.3273904101733
 31
0.0
  0
LINE
  5
C2D4
330
2
100
AcDbEntity
  8
AM_VIS
100
AcDbLine
 10
1160.550684346317
 20
811.3273904101733
 30
0.0
 11
1160.22151111797
 21
811.3273904101733
 31
0.0
  0
LINE
  5
C2D5
330
2
100
AcDbEntity
  8
AM_VIS
100
AcDbLine
 10
1160.590054425057
 20
811.0816128084673
 30
0.0
 11
1160.590054425057
 21
811.2880203314333
 31
0.0
  0
ARC
  5
C2D6
330
2
100
AcDbEntity
  8
AM_VIS
100
AcDbCircle
 10
1160.5506755369
 20
811.0816066612368
 30
0.0
 40
0.0393786853357636
100
AcDbArc
 50
276.4808602767338
 51
0.0089441416001661
  0
ARC
  5
C2D7
330
2
100
AcDbEntity
  8
AM_VIS
100
AcDbCircle
 10
1160.22989386311
 20
810.9487348650548
 30
0.0
 40
0.0393789127593078
100
AcDbArc
 50
224.9913783446441
 51
308.5188199132555
  0
LINE
  5
C2D8
330
2
100
AcDbEntity
  8
AM_VIS
100
AcDbLine
 10
1160.145821784772
 20
810.9771164372439
 30
0.0
 11
1160.202044419985
 21
810.9208938020303
 31
0.0
  0
LINE
  5
C2D9
330
2
100
AcDbEntity
  8
AM_VIS
100
AcDbLine
 10
1160.18214103923
 20
811.2880203314333
 30
0.0
 11
1160.18214103923
 21
811.1718455745219
 31
0.0
  0
ELLIPSE
  5
C2DA
330
2
100
AcDbEntity
  8
AM_VIS
100
AcDbEllipse
 10
1159.624470896562
 20
810.7718062044432
 30
0.0
 11
0.0
 21
-0.1771653543307087
 31
0.0
210
0.0
220
0.0
230
1.0
 40
0.0087268677907588
 41
4.712388980384689
 42
10.99557428756427
  0
ELLIPSE
  5
C2E0
330
2
100
AcDbEntity
  8
AM_VIS
100
AcDbEllipse
 10
1161.618630079536
 20
810.7718062044432
 30
0.0
 11
0.0
 21
-0.1968503937007874
 31
0.0
210
0.0
220
0.0
230
1.0
 40
0.0087268677907588
 41
4.712388980384689
 42
10.99557428756427
  0
LINE
  5
C2EB
330
2
100
AcDbEntity
  8
AM_HID
  6
DASHED
100
AcDbLine
 10
1161.037550488049
 20
809.496215653262
 30
0.0
 11
1161.076920566789
 21
809.4568455745218
 31
0.0
  0
LINE
  5
C2EC
330
2
100
AcDbEntity
  8
AM_HID
  6
DASHED
100
AcDbLine
 10
1160.830550488049
 20
809.496215653262
 30
0.0
 11
1160.791180409309
 21
809.4568455745218
 31
0.0
  0
LINE
  5
C2ED
330
2
100
AcDbEntity
  8
AM_HID
  6
DASHED
100
AcDbLine
 10
1160.830550488049
 20
809.496215653262
 30
0.0
 11
1160.830550488049
 21
809.8318455745218
 31
0.0
  0
LINE
  5
C2EE
330
2
100
AcDbEntity
  8
AM_HID
  6
DASHED
100
AcDbLine
 10
1161.037550488049
 20
809.496215653262
 30
0.0
 11
1161.037550488049
 21
809.8318455745218
 31
0.0
  0
LINE
  5
C2EF
330
2
100
AcDbEntity
  8
AM_HID
  6
DASHED
100
AcDbLine
 10
1160.412550488049
 20
809.496215653262
 30
0.0
 11
1160.451920566789
 21
809.4568455745218
 31
0.0
  0
LINE
  5
C2F0
330
2
100
AcDbEntity
  8
AM_HID
  6
DASHED
100
AcDbLine
 10
1160.205550488049
 20
809.496215653262
 30
0.0
 11
1160.166180409309
 21
809.4568455745218
 31
0.0
  0
LINE
  5
C2F1
330
2
100
AcDbEntity
  8
AM_HID
  6
DASHED
100
AcDbLine
 10
1160.205550488049
 20
809.496215653262
 30
0.0
 11
1160.205550488049
 21
809.8318455745218
 31
0.0
  0
LINE
  5
C2F2
330
2
100
AcDbEntity
  8
AM_HID
  6
HIDDEN2
100
AcDbLine
 10
1160.412550488049
 20
809.496215653262
 30
0.0
 11
1160.412550488049
 21
809.8318455745218
 31
0.0
  0
LINE
  5
C2F3
330
2
100
AcDbEntity
  8
AM_HID
  6
HIDDEN2
100
AcDbLine
 10
1160.934050488049
 20
809.8940346485912
 30
0.0
 11
1161.037550488049
 21
809.8318455745218
 31
0.0
  0
LINE
  5
C2F4
330
2
100
AcDbEntity
  8
AM_HID
  6
DASHED
100
AcDbLine
 10
1160.934050488049
 20
809.8940346485912
 30
0.0
 11
1160.830550488049
 21
809.8318455745218
 31
0.0
  0
LINE
  5
C2F5
330
2
100
AcDbEntity
  8
AM_HID
  6
HIDDEN2
100
AcDbLine
 10
1160.309050488049
 20
809.8940346485912
 30
0.0
 11
1160.412550488049
 21
809.8318455745218
 31
0.0
  0
LINE
  5
C2F6
330
2
100
AcDbEntity
  8
AM_HID
  6
DASHED
100
AcDbLine
 10
1160.309050488049
 20
809.8940346485912
 30
0.0
 11
1160.205550488049
 21
809.8318455745218
 31
0.0
  0
LINE
  5
C307
330
2
100
AcDbEntity
  8
AM_HID
  6
DASHED
100
AcDbLine
 10
1161.037550488049
 20
809.496215653262
 30
0.0
 11
1160.934050488049
 21
809.496215653262
 31
0.0
  0
LINE
  5
C308
330
2
100
AcDbEntity
  8
AM_HID
  6
DASHED
100
AcDbLine
 10
1160.934050488049
 20
809.496215653262
 30
0.0
 11
1160.830550488049
 21
809.496215653262
 31
0.0
  0
LINE
  5
C309
330
2
100
AcDbEntity
  8
AM_HID
  6
HIDDEN2
100
AcDbLine
 10
1161.037550488049
 20
809.8318455745218
 30
0.0
 11
1160.934050488049
 21
809.8318455745218
 31
0.0
  0
LINE
  5
C30A
330
2
100
AcDbEntity
  8
AM_HID
  6
DASHED
100
AcDbLine
 10
1160.934050488049
 20
809.8318455745218
 30
0.0
 11
1160.830550488049
 21
809.8318455745218
 31
0.0
  0
LINE
  5
C30B
330
2
100
AcDbEntity
  8
AM_HID
  6
DASHED
100
AcDbLine
 10
1160.412550488049
 20
809.496215653262
 30
0.0
 11
1160.309050488049
 21
809.496215653262
 31
0.0
  0
LINE
  5
C30C
330
2
100
AcDbEntity
  8
AM_HID
  6
DASHED
100
AcDbLine
 10
1160.309050488049
 20
809.496215653262
 30
0.0
 11
1160.205550488049
 21
809.496215653262
 31
0.0
  0
LINE
  5
C30D
330
2
100
AcDbEntity
  8
AM_HID
  6
HIDDEN2
100
AcDbLine
 10
1160.412550488049
 20
809.8318455745218
 30
0.0
 11
1160.309050488049
 21
809.8318455745218
 31
0.0
  0
LINE
  5
C30E
330
2
100
AcDbEntity
  8
AM_HID
  6
DASHED
100
AcDbLine
 10
1160.309050488049
 20
809.8318455745218
 30
0.0
 11
1160.205550488049
 21
809.8318455745218
 31
0.0
  0
ARC
  5
C31A
330
2
100
AcDbEntity
  8
AM_VIS
100
AcDbCircle
 10
1160.621550488049
 20
810.4568455745218
 30
0.0
 40
0.3725000000000001
100
AcDbArc
 50
37.4775374225875
 51
82.52246257741099
  0
ARC
  5
C31C
330
2
100
AcDbEntity
  8
AM_VIS
100
AcDbCircle
 10
1160.621550488049
 20
810.4568455745218
 30
0.0
 40
0.3725000000000001
100
AcDbArc
 50
337.4775374225694
 51
22.52246257743312
  0
ARC
  5
C31E
330
2
100
AcDbEntity
  8
AM_VIS
100
AcDbCircle
 10
1160.621550488049
 20
810.4568455745218
 30
0.0
 40
0.3725000000000001
100
AcDbArc
 50
277.4775374225761
 51
322.5224625774165
  0
ARC
  5
C320
330
2
100
AcDbEntity
  8
AM_VIS
100
AcDbCircle
 10
1160.621550488049
 20
810.4568455745218
 30
0.0
 40
0.3725000000000001
100
AcDbArc
 50
217.4775374226018
 51
262.5224625773963
  0
ARC
  5
C322
330
2
100
AcDbEntity
  8
AM_VIS
100
AcDbCircle
 10
1160.621550488049
 20
810.4568455745218
 30
0.0
 40
0.3725000000000001
100
AcDbArc
 50
157.4775374226104
 51
202.5224625773895
  0
ARC
  5
C324
330
2
100
AcDbEntity
  8
AM_VIS
100
AcDbCircle
 10
1160.621550488049
 20
810.4568455745218
 30
0.0
 40
0.3725000000000001
100
AcDbArc
 50
97.47753742260361
 51
142.5224625773839
  0
CIRCLE
  5
C328
330
2
100
AcDbEntity
  8
AM_VIS
100
AcDbCircle
 10
1160.621550488049
 20
810.4568455745218
 30
0.0
 40
0.5625000000000001
  0
CIRCLE
  5
C329
330
2
100
AcDbEntity
  8
AM_VIS
100
AcDbCircle
 10
1161.336550488049
 20
811.1718455745219
 30
0.0
 40
0.2184008987014356
  0
CIRCLE
  5
C32A
330
2
100
AcDbEntity
  8
AM_VIS
100
AcDbCircle
 10
1159.906550488049
 20
811.1718455745219
 30
0.0
 40
0.2184008987014356
  0
CIRCLE
  5
C32B
330
2
100
AcDbEntity
  8
AM_VIS
100
AcDbCircle
 10
1161.336550488049
 20
809.7418455745218
 30
0.0
 40
0.2184008987014356
  0
CIRCLE
  5
C32C
330
2
100
AcDbEntity
  8
AM_VIS
100
AcDbCircle
 10
1159.906550488049
 20
809.7418455745218
 30
0.0
 40
0.2184008987014356
  0
ARC
  5
C32D
330
2
100
AcDbEntity
  8
AM_VIS
100
AcDbCircle
 10
1159.790375731138
 20
810.056806204443
 30
0.0
 40
0.0393700787401575
100
AcDbArc
 50
180.0
 51
270.0
  0
ARC
  5
C32E
330
2
100
AcDbEntity
  8
AM_VIS
100
AcDbCircle
 10
1159.790375731138
 20
810.3859794327895
 30
0.0
 40
0.0393700787401575
100
AcDbArc
 50
90.0
 51
180.0
  0
ARC
  5
C32F
330
2
100
AcDbEntity
  8
AM_VIS
100
AcDbCircle
 10
1160.621550488049
 20
810.4568455745218
 30
0.0
 40
0.5893899194121257
100
AcDbArc
 50
186.4715701810185
 51
218.5284298189913
  0
ARC
  5
C330
330
2
100
AcDbEntity
  8
AM_VIS
100
AcDbCircle
 10
1160.073440775674
 20
810.0089557208976
 30
0.0
 40
0.0393700787401575
100
AcDbArc
 50
238.0028781629199
 51
314.9999999999724
  0
ARC
  5
C331
330
2
100
AcDbEntity
  8
AM_VIS
100
AcDbCircle
 10
1159.906550488049
 20
809.7418455745218
 30
0.0
 40
0.2755905511811024
100
AcDbArc
 50
58.00287816291434
 51
90.0
  0
ARC
  5
C332
330
2
100
AcDbEntity
  8
AM_VIS
100
AcDbCircle
 10
1159.790375731138
 20
810.8568849446005
 30
0.0
 40
0.0393700787401575
100
AcDbArc
 50
90.0
 51
180.0
  0
ARC
  5
C333
330
2
100
AcDbEntity
  8
AM_VIS
100
AcDbCircle
 10
1159.906550488049
 20
811.1718455745219
 30
0.0
 40
0.2755905511811024
100
AcDbArc
 50
270.0
 51
301.9971218370856
  0
ARC
  5
C334
330
2
100
AcDbEntity
  8
AM_VIS
100
AcDbCircle
 10
1160.073440775674
 20
810.9047354281461
 30
0.0
 40
0.0393700787401575
100
AcDbArc
 50
45.00000000002763
 51
121.9971218370801
  0
ARC
  5
C335
330
2
100
AcDbEntity
  8
AM_VIS
100
AcDbCircle
 10
1160.621550488049
 20
810.4568455745218
 30
0.0
 40
0.5893899194121257
100
AcDbArc
 50
141.4715701810087
 51
173.5284298189814
  0
ARC
  5
C336
330
2
100
AcDbEntity
  8
AM_VIS
100
AcDbCircle
 10
1159.790375731138
 20
810.527711716254
 30
0.0
 40
0.0393700787401575
100
AcDbArc
 50
180.0
 51
270.0
  0
ARC
  5
C337
330
2
100
AcDbEntity
  8
AM_VIS
100
AcDbCircle
 10
1161.021589858128
 20
809.6256708176104
 30
0.0
 40
0.0393700787401575
100
AcDbArc
 50
270.0
 51
0.0
  0
ARC
  5
C338
330
2
100
AcDbEntity
  8
AM_VIS
100
AcDbCircle
 10
1160.692416629782
 20
809.6256708176104
 30
0.0
 40
0.0393700787401575
100
AcDbArc
 50
180.0
 51
270.0
  0
ARC
  5
C339
330
2
100
AcDbEntity
  8
AM_VIS
100
AcDbCircle
 10
1160.621550488049
 20
810.4568455745218
 30
0.0
 40
0.5893899194121257
100
AcDbArc
 50
276.4715701810128
 51
308.5284298189821
  0
ARC
  5
C33A
330
2
100
AcDbEntity
  8
AM_VIS
100
AcDbCircle
 10
1161.069440341673
 20
809.9087358621469
 30
0.0
 40
0.0393700787401575
100
AcDbArc
 50
328.0028781629289
 51
44.99999999997236
  0
ARC
  5
C33B
330
2
100
AcDbEntity
  8
AM_VIS
100
AcDbCircle
 10
1161.336550488049
 20
809.7418455745218
 30
0.0
 40
0.2755905511811024
100
AcDbArc
 50
148.0028781629143
 51
180.0
  0
ARC
  5
C33C
330
2
100
AcDbEntity
  8
AM_VIS
100
AcDbCircle
 10
1160.22151111797
 20
809.6256708176104
 30
0.0
 40
0.0393700787401575
100
AcDbArc
 50
180.0
 51
270.0
  0
ARC
  5
C33D
330
2
100
AcDbEntity
  8
AM_VIS
100
AcDbCircle
 10
1159.906550488049
 20
809.7418455745218
 30
0.0
 40
0.2755905511811024
100
AcDbArc
 50
0.0
 51
31.99712183708566
  0
ARC
  5
C33E
330
2
100
AcDbEntity
  8
AM_VIS
100
AcDbCircle
 10
1160.173660634425
 20
809.9087358621469
 30
0.0
 40
0.0393700787401575
100
AcDbArc
 50
135.0000000000276
 51
211.9971218370712
  0
ARC
  5
C33F
330
2
100
AcDbEntity
  8
AM_VIS
100
AcDbCircle
 10
1160.621550488049
 20
810.4568455745218
 30
0.0
 40
0.5893899194121257
100
AcDbArc
 50
231.4715701810179
 51
263.5284298189871
  0
ARC
  5
C340
330
2
100
AcDbEntity
  8
AM_VIS
100
AcDbCircle
 10
1160.550684346317
 20
809.6256708176104
 30
0.0
 40
0.0393700787401575
100
AcDbArc
 50
270.0
 51
0.0
  0
ARC
  5
C341
330
2
100
AcDbEntity
  8
AM_VIS
100
AcDbCircle
 10
1161.45272524496
 20
810.8568849446005
 30
0.0
 40
0.0393700787401575
100
AcDbArc
 50
0.0
 51
90.0
  0
ARC
  5
C342
330
2
100
AcDbEntity
  8
AM_VIS
100
AcDbCircle
 10
1161.45272524496
 20
810.5277117162543
 30
0.0
 40
0.0393700787401575
100
AcDbArc
 50
270.0
 51
0.0
  0
ARC
  5
C343
330
2
100
AcDbEntity
  8
AM_VIS
100
AcDbCircle
 10
1160.621550488049
 20
810.4568455745218
 30
0.0
 40
0.5893899194121257
100
AcDbArc
 50
6.471570181018586
 51
38.52842981899128
  0
ARC
  5
C344
330
2
100
AcDbEntity
  8
AM_VIS
100
AcDbCircle
 10
1161.169660200424
 20
810.9047354281461
 30
0.0
 40
0.0393700787401575
100
AcDbArc
 50
58.00287816291987
 51
134.9999999999724
  0
ARC
  5
C345
330
2
100
AcDbEntity
  8
AM_VIS
100
AcDbCircle
 10
1161.336550488049
 20
811.1718455745219
 30
0.0
 40
0.2755905511811024
100
AcDbArc
 50
238.0028781629143
 51
270.0
  0
ARC
  5
C346
330
2
100
AcDbEntity
  8
AM_VIS
100
AcDbCircle
 10
1161.45272524496
 20
810.056806204443
 30
0.0
 40
0.0393700787401575
100
AcDbArc
 50
270.0
 51
0.0
  0
ARC
  5
C347
330
2
100
AcDbEntity
  8
AM_VIS
100
AcDbCircle
 10
1161.336550488049
 20
809.7418455745218
 30
0.0
 40
0.2755905511811024
100
AcDbArc
 50
90.0
 51
121.9971218370856
  0
ARC
  5
C348
330
2
100
AcDbEntity
  8
AM_VIS
100
AcDbCircle
 10
1161.169660200424
 20
810.0089557208976
 30
0.0
 40
0.0393700787401575
100
AcDbArc
 50
225.0000000000276
 51
301.9971218370801
  0
ARC
  5
C349
330
2
100
AcDbEntity
  8
AM_VIS
100
AcDbCircle
 10
1160.621550488049
 20
810.4568455745218
 30
0.0
 40
0.5893899194121257
100
AcDbArc
 50
321.4715701810087
 51
353.5284298189814
  0
ARC
  5
C34A
330
2
100
AcDbEntity
  8
AM_VIS
100
AcDbCircle
 10
1161.45272524496
 20
810.3859794327895
 30
0.0
 40
0.0393700787401575
100
AcDbArc
 50
0.0
 51
90.0
  0
ARC
  5
C34B
330
2
100
AcDbEntity
  8
AM_VIS
100
AcDbCircle
 10
1161.021589858128
 20
811.2880203314333
 30
0.0
 40
0.0393700787401575
100
AcDbArc
 50
0.0
 51
90.0
  0
ARC
  5
C34C
330
2
100
AcDbEntity
  8
AM_VIS
100
AcDbCircle
 10
1161.336550488049
 20
811.1718455745219
 30
0.0
 40
0.2755905511811024
100
AcDbArc
 50
180.0
 51
211.9971218370857
  0
ARC
  5
C34D
330
2
100
AcDbEntity
  8
AM_VIS
100
AcDbCircle
 10
1161.069440341673
 20
811.004955286897
 30
0.0
 40
0.0393700787401575
100
AcDbArc
 50
315.0000000000276
 51
31.99712183707116
  0
ARC
  5
C34E
330
2
100
AcDbEntity
  8
AM_VIS
100
AcDbCircle
 10
1160.621550488049
 20
810.4568455745218
 30
0.0
 40
0.5893899194121257
100
AcDbArc
 50
51.47157018101787
 51
83.52842981898715
  0
ARC
  5
C34F
330
2
100
AcDbEntity
  8
AM_VIS
100
AcDbCircle
 10
1160.692416629782
 20
811.2880203314333
 30
0.0
 40
0.0393700787401575
100
AcDbArc
 50
90.0
 51
180.0
  0
ARC
  5
C350
330
2
100
AcDbEntity
  8
AM_VIS
100
AcDbCircle
 10
1160.22151111797
 20
811.2880203314333
 30
0.0
 40
0.0393700787401575
100
AcDbArc
 50
90.0
 51
180.0
  0
ARC
  5
C351
330
2
100
AcDbEntity
  8
AM_VIS
100
AcDbCircle
 10
1160.550684346317
 20
811.2880203314333
 30
0.0
 40
0.0393700787401575
100
AcDbArc
 50
0.0
 51
90.0
  0
ARC
  5
C352
330
2
100
AcDbEntity
  8
AM_VIS
100
AcDbCircle
 10
1160.621550488049
 20
810.4568455745218
 30
0.0
 40
0.5893899194121257
100
AcDbArc
 50
96.47157018101282
 51
128.5284298189821
  0
ARC
  5
C353
330
2
100
AcDbEntity
  8
AM_VIS
100
AcDbCircle
 10
1160.173660634425
 20
811.004955286897
 30
0.0
 40
0.0393700787401575
100
AcDbArc
 50
148.0028781629288
 51
224.9999999999724
  0
ARC
  5
C354
330
2
100
AcDbEntity
  8
AM_VIS
100
AcDbCircle
 10
1159.906550488049
 20
811.1718455745219
 30
0.0
 40
0.2755905511811024
100
AcDbArc
 50
328.0028781629144
 51
0.0
  0
CIRCLE
  5
C355
330
2
100
AcDbEntity
  8
AM_VIS
100
AcDbCircle
 10
1160.621550488049
 20
810.4568455745218
 30
0.0
 40
0.5536604955410435
  0
CIRCLE
  5
C36C
330
2
100
AcDbEntity
  8
AM_VIS
100
AcDbCircle
 10
1161.336550488049
 20
811.1718455745219
 30
0.0
 40
0.2039750434662725
  0
CIRCLE
  5
C36E
330
2
100
AcDbEntity
  8
AM_VIS
100
AcDbCircle
 10
1159.906550488049
 20
811.1718455745219
 30
0.0
 40
0.2039750434662725
  0
CIRCLE
  5
C370
330
2
100
AcDbEntity
  8
AM_VIS
100
AcDbCircle
 10
1161.336550488049
 20
809.7418455745218
 30
0.0
 40
0.2039750434662725
  0
CIRCLE
  5
C372
330
2
100
AcDbEntity
  8
AM_VIS
100
AcDbCircle
 10
1159.906550488049
 20
809.7418455745218
 30
0.0
 40
0.2039750434662725
  0
CIRCLE
  5
C440
330
2
100
AcDbEntity
  8
AM_VIS
100
AcDbCircle
 10
1160.621550488049
 20
810.4568455745218
 30
0.0
 40
0.1796299212598366
  0
LINE
  5
C44F
330
2
100
AcDbEntity
  8
AM_VIS
100
AcDbLine
 10
1159.969050488049
 20
811.0635923990487
 30
0.0
 11
1160.031550488049
 21
811.0996767908732
 31
0.0
  0
LINE
  5
C450
330
2
100
AcDbEntity
  8
AM_VIS
100
AcDbLine
 10
1159.906550488049
 20
811.0275080072245
 30
0.0
 11
1159.969050488049
 21
811.0635923990489
 31
0.0
  0
LINE
  5
C451
330
2
100
AcDbEntity
  8
AM_VIS
100
AcDbLine
 10
1159.844050488049
 20
811.0635923990487
 30
0.0
 11
1159.906550488049
 21
811.0275080072245
 31
0.0
  0
LINE
  5
C452
330
2
100
AcDbEntity
  8
AM_VIS
100
AcDbLine
 10
1159.781550488049
 20
811.0996767908732
 30
0.0
 11
1159.844050488049
 21
811.0635923990487
 31
0.0
  0
LINE
  5
C453
330
2
100
AcDbEntity
  8
AM_VIS
100
AcDbLine
 10
1159.781550488049
 20
811.1718455745219
 30
0.0
 11
1159.781550488049
 21
811.0996767908732
 31
0.0
  0
LINE
  5
C454
330
2
100
AcDbEntity
  8
AM_VIS
100
AcDbLine
 10
1159.781550488049
 20
811.2440143581704
 30
0.0
 11
1159.781550488049
 21
811.1718455745219
 31
0.0
  0
LINE
  5
C455
330
2
100
AcDbEntity
  8
AM_VIS
100
AcDbLine
 10
1159.781550488049
 20
811.2440143581704
 30
0.0
 11
1159.844050488049
 21
811.280098749995
 31
0.0
  0
LINE
  5
C456
330
2
100
AcDbEntity
  8
AM_VIS
100
AcDbLine
 10
1159.844050488049
 20
811.280098749995
 30
0.0
 11
1159.906550488049
 21
811.3161831418192
 31
0.0
  0
LINE
  5
C457
330
2
100
AcDbEntity
  8
AM_VIS
100
AcDbLine
 10
1159.906550488049
 20
811.3161831418192
 30
0.0
 11
1159.969050488049
 21
811.280098749995
 31
0.0
  0
LINE
  5
C458
330
2
100
AcDbEntity
  8
AM_VIS
100
AcDbLine
 10
1159.969050488049
 20
811.280098749995
 30
0.0
 11
1160.031550488049
 21
811.2440143581707
 31
0.0
  0
LINE
  5
C459
330
2
100
AcDbEntity
  8
AM_VIS
100
AcDbLine
 10
1160.031550488049
 20
811.2440143581704
 30
0.0
 11
1160.031550488049
 21
811.1718455745219
 31
0.0
  0
LINE
  5
C45A
330
2
100
AcDbEntity
  8
AM_VIS
100
AcDbLine
 10
1160.031550488049
 20
811.1718455745219
 30
0.0
 11
1160.031550488049
 21
811.0996767908732
 31
0.0
  0
CIRCLE
  5
C45B
330
2
100
AcDbEntity
  8
AM_VIS
100
AcDbCircle
 10
1159.906550488049
 20
811.1718455745219
 30
0.0
 40
0.1968503937007874
  0
CIRCLE
  5
C45D
330
2
100
AcDbEntity
  8
AM_VIS
100
AcDbCircle
 10
1159.906550488049
 20
811.1718455745219
 30
0.0
 40
0.1555120000000026
  0
CIRCLE
  5
C45E
330
2
100
AcDbEntity
  8
AM_VIS
100
AcDbCircle
 10
1159.906550488049
 20
811.1718455745219
 30
0.0
 40
0.1206352319649252
  0
CIRCLE
  5
C45F
330
2
100
AcDbEntity
  8
AM_VIS
100
AcDbCircle
 10
1159.906550488049
 20
811.1718455745219
 30
0.0
 40
0.11
  0
LINE
  5
C460
330
2
100
AcDbEntity
  8
AM_VIS
100
AcDbLine
 10
1161.399050488049
 20
811.0635923990487
 30
0.0
 11
1161.461550488049
 21
811.0996767908732
 31
0.0
  0
LINE
  5
C461
330
2
100
AcDbEntity
  8
AM_VIS
100
AcDbLine
 10
1161.336550488049
 20
811.0275080072245
 30
0.0
 11
1161.399050488049
 21
811.0635923990489
 31
0.0
  0
LINE
  5
C462
330
2
100
AcDbEntity
  8
AM_VIS
100
AcDbLine
 10
1161.274050488049
 20
811.0635923990487
 30
0.0
 11
1161.336550488049
 21
811.0275080072245
 31
0.0
  0
LINE
  5
C463
330
2
100
AcDbEntity
  8
AM_VIS
100
AcDbLine
 10
1161.211550488049
 20
811.0996767908732
 30
0.0
 11
1161.274050488049
 21
811.0635923990487
 31
0.0
  0
LINE
  5
C464
330
2
100
AcDbEntity
  8
AM_VIS
100
AcDbLine
 10
1161.211550488049
 20
811.1718455745219
 30
0.0
 11
1161.211550488049
 21
811.0996767908732
 31
0.0
  0
LINE
  5
C465
330
2
100
AcDbEntity
  8
AM_VIS
100
AcDbLine
 10
1161.211550488049
 20
811.2440143581704
 30
0.0
 11
1161.211550488049
 21
811.1718455745219
 31
0.0
  0
LINE
  5
C466
330
2
100
AcDbEntity
  8
AM_VIS
100
AcDbLine
 10
1161.211550488049
 20
811.2440143581704
 30
0.0
 11
1161.274050488049
 21
811.280098749995
 31
0.0
  0
LINE
  5
C467
330
2
100
AcDbEntity
  8
AM_VIS
100
AcDbLine
 10
1161.274050488049
 20
811.280098749995
 30
0.0
 11
1161.336550488049
 21
811.3161831418192
 31
0.0
  0
LINE
  5
C468
330
2
100
AcDbEntity
  8
AM_VIS
100
AcDbLine
 10
1161.336550488049
 20
811.3161831418192
 30
0.0
 11
1161.399050488049
 21
811.280098749995
 31
0.0
  0
LINE
  5
C469
330
2
100
AcDbEntity
  8
AM_VIS
100
AcDbLine
 10
1161.399050488049
 20
811.280098749995
 30
0.0
 11
1161.461550488049
 21
811.2440143581707
 31
0.0
  0
LINE
  5
C46A
330
2
100
AcDbEntity
  8
AM_VIS
100
AcDbLine
 10
1161.461550488049
 20
811.2440143581704
 30
0.0
 11
1161.461550488049
 21
811.1718455745219
 31
0.0
  0
LINE
  5
C46B
330
2
100
AcDbEntity
  8
AM_VIS
100
AcDbLine
 10
1161.461550488049
 20
811.1718455745219
 30
0.0
 11
1161.461550488049
 21
811.0996767908732
 31
0.0
  0
CIRCLE
  5
C46C
330
2
100
AcDbEntity
  8
AM_VIS
100
AcDbCircle
 10
1161.336550488049
 20
811.1718455745219
 30
0.0
 40
0.1968503937007874
  0
CIRCLE
  5
C46E
330
2
100
AcDbEntity
  8
AM_VIS
100
AcDbCircle
 10
1161.336550488049
 20
811.1718455745219
 30
0.0
 40
0.1555120000000026
  0
CIRCLE
  5
C46F
330
2
100
AcDbEntity
  8
AM_VIS
100
AcDbCircle
 10
1161.336550488049
 20
811.1718455745219
 30
0.0
 40
0.1206352319649252
  0
CIRCLE
  5
C470
330
2
100
AcDbEntity
  8
AM_VIS
100
AcDbCircle
 10
1161.336550488049
 20
811.1718455745219
 30
0.0
 40
0.11
  0
LINE
  5
C471
330
2
100
AcDbEntity
  8
AM_VIS
100
AcDbLine
 10
1159.969050488049
 20
809.6335923990489
 30
0.0
 11
1160.031550488049
 21
809.6696767908731
 31
0.0
  0
LINE
  5
C472
330
2
100
AcDbEntity
  8
AM_VIS
100
AcDbLine
 10
1159.906550488049
 20
809.5975080072244
 30
0.0
 11
1159.969050488049
 21
809.6335923990489
 31
0.0
  0
LINE
  5
C473
330
2
100
AcDbEntity
  8
AM_VIS
100
AcDbLine
 10
1159.844050488049
 20
809.6335923990489
 30
0.0
 11
1159.906550488049
 21
809.5975080072244
 31
0.0
  0
LINE
  5
C474
330
2
100
AcDbEntity
  8
AM_VIS
100
AcDbLine
 10
1159.781550488049
 20
809.6696767908731
 30
0.0
 11
1159.844050488049
 21
809.6335923990489
 31
0.0
  0
LINE
  5
C475
330
2
100
AcDbEntity
  8
AM_VIS
100
AcDbLine
 10
1159.781550488049
 20
809.7418455745218
 30
0.0
 11
1159.781550488049
 21
809.6696767908731
 31
0.0
  0
LINE
  5
C476
330
2
100
AcDbEntity
  8
AM_VIS
100
AcDbLine
 10
1159.781550488049
 20
809.8140143581707
 30
0.0
 11
1159.781550488049
 21
809.7418455745218
 31
0.0
  0
LINE
  5
C477
330
2
100
AcDbEntity
  8
AM_VIS
100
AcDbLine
 10
1159.781550488049
 20
809.8140143581707
 30
0.0
 11
1159.844050488049
 21
809.8500987499949
 31
0.0
  0
LINE
  5
C478
330
2
100
AcDbEntity
  8
AM_VIS
100
AcDbLine
 10
1159.844050488049
 20
809.8500987499949
 30
0.0
 11
1159.906550488049
 21
809.8861831418194
 31
0.0
  0
LINE
  5
C479
330
2
100
AcDbEntity
  8
AM_VIS
100
AcDbLine
 10
1159.906550488049
 20
809.8861831418194
 30
0.0
 11
1159.969050488049
 21
809.8500987499949
 31
0.0
  0
LINE
  5
C47A
330
2
100
AcDbEntity
  8
AM_VIS
100
AcDbLine
 10
1159.969050488049
 20
809.8500987499949
 30
0.0
 11
1160.031550488049
 21
809.8140143581707
 31
0.0
  0
LINE
  5
C47B
330
2
100
AcDbEntity
  8
AM_VIS
100
AcDbLine
 10
1160.031550488049
 20
809.8140143581707
 30
0.0
 11
1160.031550488049
 21
809.7418455745218
 31
0.0
  0
LINE
  5
C47C
330
2
100
AcDbEntity
  8
AM_VIS
100
AcDbLine
 10
1160.031550488049
 20
809.7418455745218
 30
0.0
 11
1160.031550488049
 21
809.6696767908731
 31
0.0
  0
CIRCLE
  5
C47D
330
2
100
AcDbEntity
  8
AM_VIS
100
AcDbCircle
 10
1159.906550488049
 20
809.7418455745218
 30
0.0
 40
0.1968503937007874
  0
CIRCLE
  5
C47F
330
2
100
AcDbEntity
  8
AM_VIS
100
AcDbCircle
 10
1159.906550488049
 20
809.7418455745218
 30
0.0
 40
0.1555120000000026
  0
CIRCLE
  5
C480
330
2
100
AcDbEntity
  8
AM_VIS
100
AcDbCircle
 10
1159.906550488049
 20
809.7418455745218
 30
0.0
 40
0.1206352319649252
  0
CIRCLE
  5
C481
330
2
100
AcDbEntity
  8
AM_VIS
100
AcDbCircle
 10
1159.906550488049
 20
809.7418455745218
 30
0.0
 40
0.11
  0
LINE
  5
C482
330
2
100
AcDbEntity
  8
AM_VIS
100
AcDbLine
 10
1161.399050488049
 20
809.6335923990489
 30
0.0
 11
1161.461550488049
 21
809.6696767908731
 31
0.0
  0
LINE
  5
C483
330
2
100
AcDbEntity
  8
AM_VIS
100
AcDbLine
 10
1161.336550488049
 20
809.5975080072244
 30
0.0
 11
1161.399050488049
 21
809.6335923990489
 31
0.0
  0
LINE
  5
C484
330
2
100
AcDbEntity
  8
AM_VIS
100
AcDbLine
 10
1161.274050488049
 20
809.6335923990489
 30
0.0
 11
1161.336550488049
 21
809.5975080072244
 31
0.0
  0
LINE
  5
C485
330
2
100
AcDbEntity
  8
AM_VIS
100
AcDbLine
 10
1161.211550488049
 20
809.6696767908731
 30
0.0
 11
1161.274050488049
 21
809.6335923990489
 31
0.0
  0
LINE
  5
C486
330
2
100
AcDbEntity
  8
AM_VIS
100
AcDbLine
 10
1161.211550488049
 20
809.7418455745218
 30
0.0
 11
1161.211550488049
 21
809.6696767908731
 31
0.0
  0
LINE
  5
C487
330
2
100
AcDbEntity
  8
AM_VIS
100
AcDbLine
 10
1161.211550488049
 20
809.8140143581707
 30
0.0
 11
1161.211550488049
 21
809.7418455745218
 31
0.0
  0
LINE
  5
C488
330
2
100
AcDbEntity
  8
AM_VIS
100
AcDbLine
 10
1161.211550488049
 20
809.8140143581707
 30
0.0
 11
1161.274050488049
 21
809.8500987499949
 31
0.0
  0
LINE
  5
C489
330
2
100
AcDbEntity
  8
AM_VIS
100
AcDbLine
 10
1161.274050488049
 20
809.8500987499949
 30
0.0
 11
1161.336550488049
 21
809.8861831418194
 31
0.0
  0
LINE
  5
C48A
330
2
100
AcDbEntity
  8
AM_VIS
100
AcDbLine
 10
1161.336550488049
 20
809.8861831418194
 30
0.0
 11
1161.399050488049
 21
809.8500987499949
 31
0.0
  0
LINE
  5
C48B
330
2
100
AcDbEntity
  8
AM_VIS
100
AcDbLine
 10
1161.399050488049
 20
809.8500987499949
 30
0.0
 11
1161.461550488049
 21
809.8140143581707
 31
0.0
  0
LINE
  5
C48C
330
2
100
AcDbEntity
  8
AM_VIS
100
AcDbLine
 10
1161.461550488049
 20
809.8140143581707
 30
0.0
 11
1161.461550488049
 21
809.7418455745218
 31
0.0
  0
LINE
  5
C48D
330
2
100
AcDbEntity
  8
AM_VIS
100
AcDbLine
 10
1161.461550488049
 20
809.7418455745218
 30
0.0
 11
1161.461550488049
 21
809.6696767908731
 31
0.0
  0
CIRCLE
  5
C48E
330
2
100
AcDbEntity
  8
AM_VIS
100
AcDbCircle
 10
1161.336550488049
 20
809.7418455745218
 30
0.0
 40
0.1968503937007874
  0
CIRCLE
  5
C490
330
2
100
AcDbEntity
  8
AM_VIS
100
AcDbCircle
 10
1161.336550488049
 20
809.7418455745218
 30
0.0
 40
0.1555120000000026
  0
CIRCLE
  5
C491
330
2
100
AcDbEntity
  8
AM_VIS
100
AcDbCircle
 10
1161.336550488049
 20
809.7418455745218
 30
0.0
 40
0.1206352319649252
  0
CIRCLE
  5
C492
330
2
100
AcDbEntity
  8
AM_VIS
100
AcDbCircle
 10
1161.336550488049
 20
809.7418455745218
 30
0.0
 40
0.11
  0
ARC
  5
C497
330
2
100
AcDbEntity
  8
AM_HID
100
AcDbCircle
 10
1159.906550488049
 20
811.1718455745219
 30
0.0
 40
0.1131889763779527
100
AcDbArc
 50
0.0
 51
180.0
  0
CIRCLE
  5
C49A
330
2
100
AcDbEntity
  8
AM_VIS
100
AcDbCircle
 10
1159.906550488049
 20
811.1718455745219
 30
0.0
 40
0.0856299212598425
  0
CIRCLE
  5
C49E
330
2
100
AcDbEntity
  8
AM_VIS
100
AcDbCircle
 10
1161.336550488049
 20
811.1718455745219
 30
0.0
 40
0.0856299212598425
  0
CIRCLE
  5
C4A2
330
2
100
AcDbEntity
  8
AM_VIS
100
AcDbCircle
 10
1159.906550488049
 20
809.7418455745218
 30
0.0
 40
0.0856299212598425
  0
CIRCLE
  5
C4A6
330
2
100
AcDbEntity
  8
AM_VIS
100
AcDbCircle
 10
1161.336550488049
 20
809.7418455745218
 30
0.0
 40
0.0856299212598425
  0
LINE
  5
C4AB
330
2
100
AcDbEntity
  8
AM_7
 48
0.3
100
AcDbLine
 10
1160.621550488049
 20
811.5051466283288
 30
0.0
 11
1160.621550488049
 21
810.658705714108
 31
0.0
  0
LINE
  5
C4B4
330
2
100
AcDbEntity
  8
AM_7
 48
0.3
100
AcDbLine
 10
1160.934050488049
 20
809.3665306138918
 30
0.0
 11
1160.934050488049
 21
810.0040346485911
 31
0.0
  0
LINE
  5
C4B5
330
2
100
AcDbEntity
  8
AM_7
 48
0.3
100
AcDbLine
 10
1160.309050488049
 20
809.3665306138918
 30
0.0
 11
1160.309050488049
 21
810.0040346485911
 31
0.0
  0
LINE
  5
C4C8
330
2
100
AcDbEntity
  8
AM_7
 48
0.3
100
AcDbLine
 10
1159.851550488049
 20
811.1718455745219
 30
0.0
 11
1159.961550488049
 21
811.1718455745219
 31
0.0
  0
LINE
  5
C4C9
330
2
100
AcDbEntity
  8
AM_7
 48
0.3
100
AcDbLine
 10
1159.906550488049
 20
811.1168455745218
 30
0.0
 11
1159.906550488049
 21
811.2268455745217
 31
0.0
  0
LINE
  5
C4CA
330
2
100
AcDbEntity
  8
AM_7
 48
0.3
100
AcDbLine
 10
1159.515300488049
 20
811.1718455745219
 30
0.0
 11
1159.695550488049
 21
811.1718455745219
 31
0.0
  0
LINE
  5
C4CB
330
2
100
AcDbEntity
  8
AM_7
 48
0.3
100
AcDbLine
 10
1160.117550488049
 20
811.1718455745219
 30
0.0
 11
1160.297800488049
 21
811.1718455745219
 31
0.0
  0
LINE
  5
C4CC
330
2
100
AcDbEntity
  8
AM_7
 48
0.3
100
AcDbLine
 10
1159.906550488049
 20
810.7805955745218
 30
0.0
 11
1159.906550488049
 21
810.9608455745219
 31
0.0
  0
LINE
  5
C4CD
330
2
100
AcDbEntity
  8
AM_7
 48
0.3
100
AcDbLine
 10
1159.906550488049
 20
811.3828455745219
 30
0.0
 11
1159.906550488049
 21
811.5630955745219
 31
0.0
  0
LINE
  5
C4CE
330
2
100
AcDbEntity
  8
AM_7
 48
0.3
100
AcDbLine
 10
1161.281550488049
 20
811.1718455745219
 30
0.0
 11
1161.391550488049
 21
811.1718455745219
 31
0.0
  0
LINE
  5
C4CF
330
2
100
AcDbEntity
  8
AM_7
 48
0.3
100
AcDbLine
 10
1161.336550488049
 20
811.1168455745218
 30
0.0
 11
1161.336550488049
 21
811.2268455745217
 31
0.0
  0
LINE
  5
C4D0
330
2
100
AcDbEntity
  8
AM_7
 48
0.3
100
AcDbLine
 10
1160.945300488049
 20
811.1718455745219
 30
0.0
 11
1161.125550488049
 21
811.1718455745219
 31
0.0
  0
LINE
  5
C4D1
330
2
100
AcDbEntity
  8
AM_7
 48
0.3
100
AcDbLine
 10
1161.547550488049
 20
811.1718455745219
 30
0.0
 11
1161.727800488049
 21
811.1718455745219
 31
0.0
  0
LINE
  5
C4D3
330
2
100
AcDbEntity
  8
AM_7
 48
0.3
100
AcDbLine
 10
1161.336550488049
 20
811.3828455745219
 30
0.0
 11
1161.336550488049
 21
811.5630955745219
 31
0.0
  0
LINE
  5
C4D4
330
2
100
AcDbEntity
  8
AM_7
 48
0.3
100
AcDbLine
 10
1161.281550488049
 20
809.7418455745218
 30
0.0
 11
1161.391550488049
 21
809.7418455745218
 31
0.0
  0
LINE
  5
C4D5
330
2
100
AcDbEntity
  8
AM_7
 48
0.3
100
AcDbLine
 10
1161.336550488049
 20
809.6868455745218
 30
0.0
 11
1161.336550488049
 21
809.7968455745219
 31
0.0
  0
LINE
  5
C4D6
330
2
100
AcDbEntity
  8
AM_7
 48
0.3
100
AcDbLine
 10
1160.945300488049
 20
809.7418455745218
 30
0.0
 11
1161.125550488049
 21
809.7418455745218
 31
0.0
  0
LINE
  5
C4D7
330
2
100
AcDbEntity
  8
AM_7
 48
0.3
100
AcDbLine
 10
1161.547550488049
 20
809.7418455745218
 30
0.0
 11
1161.727800488049
 21
809.7418455745218
 31
0.0
  0
LINE
  5
C4D8
330
2
100
AcDbEntity
  8
AM_7
 48
0.3
100
AcDbLine
 10
1161.336550488049
 20
809.3505955745218
 30
0.0
 11
1161.336550488049
 21
809.5308455745218
 31
0.0
  0
LINE
  5
C4D9
330
2
100
AcDbEntity
  8
AM_7
 48
0.3
100
AcDbLine
 10
1161.336550488049
 20
809.9528455745218
 30
0.0
 11
1161.336550488049
 21
810.1330955745218
 31
0.0
  0
LINE
  5
C4DA
330
2
100
AcDbEntity
  8
AM_7
 48
0.3
100
AcDbLine
 10
1159.851550488049
 20
809.7418455745218
 30
0.0
 11
1159.961550488049
 21
809.7418455745218
 31
0.0
  0
LINE
  5
C4DB
330
2
100
AcDbEntity
  8
AM_7
 48
0.3
100
AcDbLine
 10
1159.906550488049
 20
809.6868455745218
 30
0.0
 11
1159.906550488049
 21
809.7968455745219
 31
0.0
  0
LINE
  5
C4DC
330
2
100
AcDbEntity
  8
AM_7
 48
0.3
100
AcDbLine
 10
1159.515300488049
 20
809.7418455745218
 30
0.0
 11
1159.695550488049
 21
809.7418455745218
 31
0.0
  0
LINE
  5
C4DD
330
2
100
AcDbEntity
  8
AM_7
 48
0.3
100
AcDbLine
 10
1160.117550488049
 20
809.7418455745218
 30
0.0
 11
1160.297800488049
 21
809.7418455745218
 31
0.0
  0
LINE
  5
C4DE
330
2
100
AcDbEntity
  8
AM_7
 48
0.3
100
AcDbLine
 10
1159.906550488049
 20
809.3505955745218
 30
0.0
 11
1159.906550488049
 21
809.5308455745218
 31
0.0
  0
LINE
  5
C4DF
330
2
100
AcDbEntity
  8
AM_7
 48
0.3
100
AcDbLine
 10
1159.906550488049
 20
809.9528455745218
 30
0.0
 11
1159.906550488049
 21
810.1330955745218
 31
0.0
  0
LINE
  5
C4E0
330
2
100
AcDbEntity
  8
AM_7
 48
0.3
100
AcDbLine
 10
1160.566550488049
 20
810.4568455745218
 30
0.0
 11
1160.676550488049
 21
810.4568455745218
 31
0.0
  0
LINE
  5
C4E1
330
2
100
AcDbEntity
  8
AM_7
 48
0.3
100
AcDbLine
 10
1160.621550488049
 20
810.4018455745217
 30
0.0
 11
1160.621550488049
 21
810.5118455745218
 31
0.0
  0
LINE
  5
C4E2
330
2
100
AcDbEntity
  8
AM_7
 48
0.3
100
AcDbLine
 10
1159.645408755766
 20
810.4568455745218
 30
0.0
 11
1160.410550488049
 21
810.4568455745218
 31
0.0
  0
LINE
  5
C4E3
330
2
100
AcDbEntity
  8
AM_7
 48
0.3
100
AcDbLine
 10
1160.832550488049
 20
810.4568455745218
 30
0.0
 11
1161.597692220333
 21
810.4568455745218
 31
0.0
  0
LINE
  5
C4E4
330
2
100
AcDbEntity
  8
AM_7
 48
0.3
100
AcDbLine
 10
1160.621550488049
 20
809.4807038422384
 30
0.0
 11
1160.621550488049
 21
810.2458455745217
 31
0.0
  0
LINE
  5
C4E5
330
2
100
AcDbEntity
  8
AM_7
 48
0.3
100
AcDbLine
 10
1160.621550488049
 20
810.6678455745218
 30
0.0
 11
1160.621550488049
 21
811.4329873068053
 31
0.0
  0
LINE
  5
C4EC
330
2
100
AcDbEntity
  8
AM_4
  6
DASHED
100
AcDbLine
 10
1161.059050488049
 20
809.496215653262
 30
0.0
 11
1161.059050488049
 21
809.7380955745219
 31
0.0
  0
LINE
  5
C4ED
330
2
100
AcDbEntity
  8
AM_4
  6
DASHED
100
AcDbLine
 10
1160.809050488049
 20
809.496215653262
 30
0.0
 11
1160.809050488049
 21
809.7380955745219
 31
0.0
  0
LINE
  5
C4EE
330
2
100
AcDbEntity
  8
AM_4
  6
DASHED
100
AcDbLine
 10
1161.059050488049
 20
809.7380955745219
 30
0.0
 11
1160.809050488049
 21
809.7380955745219
 31
0.0
  0
LINE
  5
C4EF
330
2
100
AcDbEntity
  8
AM_4
  6
HIDDEN2
100
AcDbLine
 10
1160.434050488049
 20
809.496215653262
 30
0.0
 11
1160.434050488049
 21
809.7380955745219
 31
0.0
  0
LINE
  5
C4F0
330
2
100
AcDbEntity
  8
AM_4
  6
DASHED
100
AcDbLine
 10
1160.184050488049
 20
809.496215653262
 30
0.0
 11
1160.184050488049
 21
809.7380955745219
 31
0.0
  0
LINE
  5
C4F1
330
2
100
AcDbEntity
  8
AM_4
  6
HIDDEN2
100
AcDbLine
 10
1160.434050488049
 20
809.7380955745219
 30
0.0
 11
1160.184050488049
 21
809.7380955745219
 31
0.0
  0
LINE
  5
C4F5
330
2
100
AcDbEntity
  8
AM_4
  6
DASHED
100
AcDbLine
 10
1161.059050488049
 20
809.4765306138921
 30
0.0
 11
1161.059050488049
 21
809.7380955745219
 31
0.0
  0
LINE
  5
C4F6
330
2
100
AcDbEntity
  8
AM_4
  6
DASHED
100
AcDbLine
 10
1160.809050488049
 20
809.4765306138921
 30
0.0
 11
1160.809050488049
 21
809.7380955745219
 31
0.0
  0
LINE
  5
C4F7
330
2
100
AcDbEntity
  8
AM_4
  6
DASHED
100
AcDbLine
 10
1161.059050488049
 20
809.7380955745219
 30
0.0
 11
1160.809050488049
 21
809.7380955745219
 31
0.0
  0
LINE
  5
C4F8
330
2
100
AcDbEntity
  8
AM_4
  6
HIDDEN2
100
AcDbLine
 10
1160.434050488049
 20
809.4765306138921
 30
0.0
 11
1160.434050488049
 21
809.7380955745219
 31
0.0
  0
LINE
  5
C4F9
330
2
100
AcDbEntity
  8
AM_4
  6
DASHED
100
AcDbLine
 10
1160.184050488049
 20
809.4765306138921
 30
0.0
 11
1160.184050488049
 21
809.7380955745219
 31
0.0
  0
LINE
  5
C4FA
330
2
100
AcDbEntity
  8
AM_4
  6
HIDDEN2
100
AcDbLine
 10
1160.434050488049
 20
809.7380955745219
 30
0.0
 11
1160.184050488049
 21
809.7380955745219
 31
0.0
  0
CIRCLE
  5
C501
330
2
100
AcDbEntity
  8
AM_4
  6
HIDDEN2
100
AcDbCircle
 10
1159.906550488049
 20
811.1718455745219
 30
0.0
 40
0.1032
  0
CIRCLE
  5
C502
330
2
100
AcDbEntity
  8
AM_4
  6
HIDDEN2
100
AcDbCircle
 10
1161.336550488049
 20
811.1718455745219
 30
0.0
 40
0.1032
  0
CIRCLE
  5
C503
330
2
100
AcDbEntity
  8
AM_4
  6
HIDDEN2
100
AcDbCircle
 10
1159.906550488049
 20
809.7418455745218
 30
0.0
 40
0.1032
  0
CIRCLE
  5
C504
330
2
100
AcDbEntity
  8
AM_4
  6
HIDDEN2
100
AcDbCircle
 10
1161.336550488049
 20
809.7418455745218
 30
0.0
 40
0.1032
  0
LINE
  5
C505
330
2
100
AcDbEntity
  8
AM_7
 48
0.3
100
AcDbLine
 10
1166.184972118514
 20
811.5048348098547
 30
0.0
 11
1166.184972118514
 21
810.658705714108
 31
0.0
  0
LINE
  5
C506
330
2
100
AcDbEntity
  8
AM_7
 48
0.3
100
AcDbLine
 10
1163.654361882293
 20
810.4568455745218
 30
0.0
 11
1168.938864004207
 21
810.4568455745218
 31
0.0
  0
LINE
  5
C507
330
2
100
AcDbEntity
  8
AM_7
 48
0.3
100
AcDbLine
 10
1166.365326449222
 20
810.7718062044432
 30
0.0
 11
1166.475326449222
 21
810.7718062044432
 31
0.0
  0
LINE
  5
C508
330
2
100
AcDbEntity
  8
AM_7
 48
0.3
100
AcDbLine
 10
1166.420326449222
 20
810.7168062044431
 30
0.0
 11
1166.420326449222
 21
810.826806204443
 31
0.0
  0
LINE
  5
C509
330
2
100
AcDbEntity
  8
AM_7
 48
0.3
100
AcDbLine
 10
1166.113476055521
 20
810.7718062044432
 30
0.0
 11
1166.209326449222
 21
810.7718062044432
 31
0.0
  0
LINE
  5
C50A
330
2
100
AcDbEntity
  8
AM_7
 48
0.3
100
AcDbLine
 10
1166.631326449222
 20
810.7718062044432
 30
0.0
 11
1166.727176842923
 21
810.7718062044432
 31
0.0
  0
LINE
  5
C50B
330
2
100
AcDbEntity
  8
AM_7
 48
0.3
100
AcDbLine
 10
1166.420326449222
 20
810.4649558107423
 30
0.0
 11
1166.420326449222
 21
810.5608062044431
 31
0.0
  0
LINE
  5
C50C
330
2
100
AcDbEntity
  8
AM_7
 48
0.3
100
AcDbLine
 10
1166.420326449222
 20
810.9828062044432
 30
0.0
 11
1166.420326449222
 21
811.0786565981438
 31
0.0
  0
LINE
  5
C50D
330
2
100
AcDbEntity
  8
AM_7
 48
0.3
100
AcDbLine
 10
1167.025031252372
 20
810.7324361257031
 30
0.0
 11
1166.412688653922
 21
810.7324361257031
 31
0.0
  0
LINE
  5
C50E
330
2
100
AcDbEntity
  8
AM_7
 48
0.3
100
AcDbLine
 10
1166.412472118514
 20
809.3862156532621
 30
0.0
 11
1166.412472118514
 21
810.0040346485911
 31
0.0
  0
LINE
  5
C510
330
2
100
AcDbEntity
  8
AM_7
 48
0.3
100
AcDbLine
 10
1165.364972118513
 20
811.1718455745219
 30
0.0
 11
1169.209972118514
 21
811.1718455745219
 31
0.0
  0
LINE
  5
C511
330
2
100
AcDbEntity
  8
AM_7
 48
0.3
100
AcDbLine
 10
1165.364972118513
 20
809.7418455745218
 30
0.0
 11
1169.209972118514
 21
809.7418455745218
 31
0.0
  0
LINE
  5
C512
330
2
100
AcDbEntity
  8
AM_7
 48
0.3
100
AcDbLine
 10
1168.549972118513
 20
811.5051466283288
 30
0.0
 11
1168.549972118513
 21
810.7183264305081
 31
0.0
  0
LINE
  5
C513
330
2
100
AcDbEntity
  8
AM_7
 48
0.3
100
AcDbLine
 10
1168.259617787805
 20
810.7718062044432
 30
0.0
 11
1168.369617787805
 21
810.7718062044432
 31
0.0
  0
LINE
  5
C514
330
2
100
AcDbEntity
  8
AM_7
 48
0.3
100
AcDbLine
 10
1168.314617787805
 20
810.7168062044431
 30
0.0
 11
1168.314617787805
 21
810.826806204443
 31
0.0
  0
LINE
  5
C515
330
2
100
AcDbEntity
  8
AM_7
 48
0.3
100
AcDbLine
 10
1168.007767394104
 20
810.7718062044432
 30
0.0
 11
1168.103617787805
 21
810.7718062044432
 31
0.0
  0
LINE
  5
C516
330
2
100
AcDbEntity
  8
AM_7
 48
0.3
100
AcDbLine
 10
1168.525617787805
 20
810.7718062044432
 30
0.0
 11
1168.621468181505
 21
810.7718062044432
 31
0.0
  0
LINE
  5
C517
330
2
100
AcDbEntity
  8
AM_7
 48
0.3
100
AcDbLine
 10
1168.314617787805
 20
810.4649558107423
 30
0.0
 11
1168.314617787805
 21
810.5608062044431
 31
0.0
  0
LINE
  5
C518
330
2
100
AcDbEntity
  8
AM_7
 48
0.3
100
AcDbLine
 10
1168.314617787805
 20
810.9828062044432
 30
0.0
 11
1168.314617787805
 21
811.0786565981438
 31
0.0
  0
LINE
  5
C519
330
2
100
AcDbEntity
  8
AM_7
 48
0.3
100
AcDbLine
 10
1169.331231838864
 20
810.4568455745218
 30
0.0
 11
1168.848311608738
 21
810.4568455745218
 31
0.0
  0
LINE
  5
C51A
330
2
100
AcDbEntity
  8
AM_7
 48
0.3
100
AcDbLine
 10
1168.662472118514
 20
809.3665306138918
 30
0.0
 11
1168.662472118514
 21
810.0030503966227
 31
0.0
  0
LINE
  5
C51D
330
2
100
AcDbEntity
  8
AM_4
  6
DASHED
100
AcDbLine
 10
1165.849243772063
 20
811.4008167797171
 30
0.0
 11
1165.849243772063
 21
810.9616932669267
 31
0.0
  0
LINE
  5
C51E
330
2
100
AcDbEntity
  8
AM_4
  6
DASHED
100
AcDbLine
 10
1166.520700464963
 20
811.4008167797171
 30
0.0
 11
1166.520700464963
 21
810.9616932669267
 31
0.0
  0
LINE
  5
C51F
330
2
100
AcDbEntity
  8
AM_4
  6
DASHED
100
AcDbLine
 10
1165.849243772063
 20
810.9616932669267
 30
0.0
 11
1166.520700464963
 21
810.9616932669267
 31
0.0
  0
LINE
  5
C520
330
2
100
AcDbEntity
  8
AM_4
  6
DASHED
100
AcDbLine
 10
1166.537472118513
 20
809.496215653262
 30
0.0
 11
1166.537472118513
 21
809.7380955745219
 31
0.0
  0
LINE
  5
C521
330
2
100
AcDbEntity
  8
AM_4
  6
DASHED
100
AcDbLine
 10
1166.287472118513
 20
809.496215653262
 30
0.0
 11
1166.287472118513
 21
809.7380955745219
 31
0.0
  0
LINE
  5
C522
330
2
100
AcDbEntity
  8
AM_4
  6
HIDDEN2
100
AcDbLine
 10
1166.537472118513
 20
809.7380955745219
 30
0.0
 11
1166.287472118513
 21
809.7380955745219
 31
0.0
  0
LINE
  5
C524
330
2
100
AcDbEntity
  8
AM_4
  6
DASHED
100
AcDbLine
 10
1168.214243772063
 20
811.4011285900321
 30
0.0
 11
1168.214243772063
 21
810.9613814566117
 31
0.0
  0
LINE
  5
C525
330
2
100
AcDbEntity
  8
AM_4
  6
DASHED
100
AcDbLine
 10
1168.885700464963
 20
811.4011285900321
 30
0.0
 11
1168.885700464963
 21
810.9613814566117
 31
0.0
  0
LINE
  5
C526
330
2
100
AcDbEntity
  8
AM_4
  6
DASHED
100
AcDbLine
 10
1168.214243772063
 20
810.9613814566117
 30
0.0
 11
1168.885700464963
 21
810.9613814566117
 31
0.0
  0
LINE
  5
C527
330
2
100
AcDbEntity
  8
AM_4
  6
DASHED
100
AcDbLine
 10
1168.787472118514
 20
809.4765306138921
 30
0.0
 11
1168.787472118514
 21
809.7380955745219
 31
0.0
  0
LINE
  5
C528
330
2
100
AcDbEntity
  8
AM_4
  6
DASHED
100
AcDbLine
 10
1168.537472118513
 20
809.4765306138921
 30
0.0
 11
1168.537472118513
 21
809.7380955745219
 31
0.0
  0
LINE
  5
C529
330
2
100
AcDbEntity
  8
AM_4
  6
DASHED
100
AcDbLine
 10
1168.787472118514
 20
809.7380955745219
 30
0.0
 11
1168.537472118513
 21
809.7380955745219
 31
0.0
  0
LINE
  5
C532
330
2
100
AcDbEntity
  8
AM_4
  6
DASHED
100
AcDbLine
 10
1168.894776667625
 20
809.8668455745219
 30
0.0
 11
1168.3308384256
 21
809.8668455745219
 31
0.0
  0
LINE
  5
C533
330
2
100
AcDbEntity
  8
AM_4
  6
DASHED
100
AcDbLine
 10
1168.894776667625
 20
809.6168455745219
 30
0.0
 11
1168.3308384256
 21
809.6168455745219
 31
0.0
  0
LINE
  5
C536
330
2
100
AcDbEntity
  8
AM_4
  6
DASHED
100
AcDbLine
 10
1165.680167569402
 20
809.6168455745219
 30
0.0
 11
1166.244105811427
 21
809.6168455745219
 31
0.0
  0
LINE
  5
C537
330
2
100
AcDbEntity
  8
AM_4
  6
DASHED
100
AcDbLine
 10
1165.680167569402
 20
809.8668455745219
 30
0.0
 11
1166.244105811427
 21
809.8668455745219
 31
0.0
  0
LINE
  5
C53C
330
2
100
AcDbEntity
  8
AM_4
  6
DASHED
100
AcDbLine
 10
1166.00225550434
 20
809.6386455745218
 30
0.0
 11
1166.356586213002
 21
809.6386455745218
 31
0.0
  0
LINE
  5
C53D
330
2
100
AcDbEntity
  8
AM_4
  6
DASHED
100
AcDbLine
 10
1166.00225550434
 20
809.8450455745219
 30
0.0
 11
1166.356586213002
 21
809.8450455745219
 31
0.0
  0
LINE
  5
C53E
330
2
100
AcDbEntity
  8
AM_4
  6
DASHED
100
AcDbLine
 10
1168.54851534686
 20
809.8450455745219
 30
0.0
 11
1168.272924795679
 21
809.8450455745219
 31
0.0
  0
LINE
  5
C53F
330
2
100
AcDbEntity
  8
AM_4
  6
DASHED
100
AcDbLine
 10
1168.54851534686
 20
809.6386455745218
 30
0.0
 11
1168.272924795679
 21
809.6386455745218
 31
0.0
  0
LINE
  5
C542
330
2
100
AcDbEntity
  8
AM_VIS
100
AcDbLine
 10
1161.455575413238
 20
809.4568455745218
 30
0.0
 11
1161.489805075306
 21
809.4568455745218
 31
0.0
  0
LINE
  5
C543
330
2
100
AcDbEntity
  8
AM_VIS
100
AcDbLine
 10
1159.787525562861
 20
809.4568455745218
 30
0.0
 11
1161.455575413238
 21
809.4568455745218
 31
0.0
  0
LINE
  5
C544
330
2
100
AcDbEntity
  8
AM_VIS
100
AcDbLine
 10
1159.753295900793
 20
809.4568455745218
 30
0.0
 11
1159.787525562861
 21
809.4568455745218
 31
0.0
  0
ELLIPSE
  5
C545
330
2
100
AcDbEntity
  8
AM_VIS
100
AcDbEllipse
 10
1159.871734545001
 20
809.677029631474
 30
0.0
 11
-0.1767901577827225
 21
-0.1767901577827221
 31
0.0
210
0.0
220
0.0
230
1.0
 40
0.9999238504775702
 41
5.497825219993077
 42
6.575092735403121
  0
LINE
  5
C546
330
2
100
AcDbEntity
  8
AM_VIS
100
AcDbLine
 10
1159.621725025405
 20
811.2066805563999
 30
0.0
 11
1159.621725025405
 21
809.6770105926436
 31
0.0
  0
ELLIPSE
  5
C547
330
2
100
AcDbEntity
  8
AM_VIS
100
AcDbEllipse
 10
1159.871734545001
 20
811.2066615175695
 30
0.0
 11
-0.1767901577827222
 21
0.1767901577827224
 31
0.0
210
0.0
220
0.0
230
1.0
 40
0.9999238504775702
 41
5.497825219993076
 42
7.068545394366094
  0
LINE
  5
C548
330
2
100
AcDbEntity
  8
AM_VIS
100
AcDbLine
 10
1161.371385469927
 20
811.4566710371661
 30
0.0
 11
1159.871715506171
 21
811.4566710371661
 31
0.0
  0
ELLIPSE
  5
C549
330
2
100
AcDbEntity
  8
AM_VIS
100
AcDbEllipse
 10
1161.371366431097
 20
811.2066615175695
 30
0.0
 11
0.1767901577827225
 21
0.1767901577827221
 31
0.0
210
0.0
220
0.0
230
1.0
 40
0.9999238504775702
 41
5.497825219993077
 42
7.068545394366096
  0
LINE
  5
C54A
330
2
100
AcDbEntity
  8
AM_VIS
100
AcDbLine
 10
1161.621375950693
 20
809.6770105926436
 30
0.0
 11
1161.621375950693
 21
811.2066805563999
 31
0.0
  0
ELLIPSE
  5
C54B
330
2
100
AcDbEntity
  8
AM_VIS
100
AcDbEllipse
 10
1161.371366431097
 20
809.677029631474
 30
0.0
 11
0.1767901577827222
 21
-0.1767901577827224
 31
0.0
210
0.0
220
0.0
230
1.0
 40
0.9999238504775702
 41
5.991277878956054
 42
7.068545394366094
  0
ELLIPSE
  5
C54C
330
2
100
AcDbEntity
  8
AM_VIS
100
AcDbEllipse
 10
1159.882730398418
 20
809.6880254848905
 30
0.0
 11
-0.1767901577827225
 21
-0.1767901577827221
 31
0.0
210
0.0
220
0.0
230
1.0
 40
0.9999238504775702
 41
5.497825219993079
 42
6.677954982685204
  0
ELLIPSE
  5
C551
330
2
100
AcDbEntity
  8
AM_VIS
100
AcDbEllipse
 10
1161.36037057768
 20
809.6880254848905
 30
0.0
 11
0.1767901577827222
 21
-0.1767901577827224
 31
0.0
210
0.0
220
0.0
230
1.0
 40
0.9999238504775702
 41
5.888415631673971
 42
7.068545394366096
  0
LINE
  5
C552
330
2
100
AcDbEntity
  8
AM_VIS
100
AcDbLine
 10
1161.610380097277
 20
811.1956847029837
 30
0.0
 11
1161.610380097277
 21
809.6880064460602
 31
0.0
  0
ELLIPSE
  5
C553
330
2
100
AcDbEntity
  8
AM_VIS
100
AcDbEllipse
 10
1161.36037057768
 20
811.1956656641533
 30
0.0
 11
0.1767901577827225
 21
0.1767901577827221
 31
0.0
210
0.0
220
0.0
230
1.0
 40
0.9999238504775702
 41
5.497825219993079
 42
7.068545394366098
  0
LINE
  5
C554
330
2
100
AcDbEntity
  8
AM_VIS
100
AcDbLine
 10
1159.882711359587
 20
811.4456751837497
 30
0.0
 11
1161.360389616511
 21
811.4456751837497
 31
0.0
  0
ELLIPSE
  5
C555
330
2
100
AcDbEntity
  8
AM_VIS
100
AcDbEllipse
 10
1159.882730398418
 20
811.1956656641533
 30
0.0
 11
-0.1767901577827222
 21
0.1767901577827224
 31
0.0
210
0.0
220
0.0
230
1.0
 40
0.9999238504775702
 41
5.497825219993078
 42
7.068545394366096
  0
LINE
  5
C556
330
2
100
AcDbEntity
  8
AM_VIS
100
AcDbLine
 10
1159.632720878821
 20
809.6880064460602
 30
0.0
 11
1159.632720878821
 21
811.1956847029837
 31
0.0
  0
LINE
  5
C557
330
2
100
AcDbEntity
  8
AM_VIS
100
AcDbLine
 10
1159.751005652398
 20
810.3859794327895
 30
0.0
 11
1159.751005652398
 21
810.056806204443
 31
0.0
  0
LINE
  5
C558
330
2
100
AcDbEntity
  8
AM_VIS
100
AcDbLine
 10
1159.996783254104
 20
810.4253495115298
 30
0.0
 11
1159.790375731138
 21
810.4253495115298
 31
0.0
  0
ARC
  5
C559
330
2
100
AcDbEntity
  8
AM_VIS
100
AcDbCircle
 10
1159.996789401334
 20
810.385970623373
 30
0.0
 40
0.0393786853357995
100
AcDbArc
 50
6.480860276773429
 51
90.00894414153503
  0
ARC
  5
C55A
330
2
100
AcDbEntity
  8
AM_VIS
100
AcDbCircle
 10
1160.129661197516
 20
810.0651889495825
 30
0.0
 40
0.0393789127593529
100
AcDbArc
 50
314.991378344704
 51
38.51881991320354
  0
LINE
  5
C55B
330
2
100
AcDbEntity
  8
AM_VIS
100
AcDbLine
 10
1160.101279625327
 20
809.9811168712447
 30
0.0
 11
1160.157502260541
 21
810.0373395064583
 31
0.0
  0
LINE
  5
C55C
330
2
100
AcDbEntity
  8
AM_VIS
100
AcDbLine
 10
1159.790375731138
 20
810.0174361257028
 30
0.0
 11
1159.906550488049
 21
810.0174361257028
 31
0.0
  0
LINE
  5
C55D
330
2
100
AcDbEntity
  8
AM_VIS
100
AcDbLine
 10
1159.906550488049
 20
810.8962550233407
 30
0.0
 11
1159.790375731138
 21
810.8962550233407
 31
0.0
  0
LINE
  5
C55E
330
2
100
AcDbEntity
  8
AM_VIS
100
AcDbLine
 10
1160.157502260541
 20
810.8763516425854
 30
0.0
 11
1160.101279625327
 21
810.9325742777992
 31
0.0
  0
ARC
  5
C55F
330
2
100
AcDbEntity
  8
AM_VIS
100
AcDbCircle
 10
1160.129661528438
 20
810.8485022169862
 30
0.0
 40
0.0393786853357876
100
AcDbArc
 50
321.4808602767273
 51
45.00894414160109
  0
ARC
  5
C560
330
2
100
AcDbEntity
  8
AM_VIS
100
AcDbCircle
 10
1159.996789179729
 20
810.5277207720593
 30
0.0
 40
0.0393789127593369
100
AcDbArc
 50
269.9913783447051
 51
353.5188199133372
  0
LINE
  5
C561
330
2
100
AcDbEntity
  8
AM_VIS
100
AcDbLine
 10
1159.790375731138
 20
810.4883416375139
 30
0.0
 11
1159.996783254104
 21
810.4883416375139
 31
0.0
  0
LINE
  5
C562
330
2
100
AcDbEntity
  8
AM_VIS
100
AcDbLine
 10
1159.751005652398
 20
810.8568849446008
 30
0.0
 11
1159.751005652398
 21
810.5277117162543
 31
0.0
  0
LINE
  5
C563
330
2
100
AcDbEntity
  8
AM_VIS
100
AcDbLine
 10
1160.692416629781
 20
809.5863007388704
 30
0.0
 11
1161.021589858128
 21
809.5863007388704
 31
0.0
  0
LINE
  5
C564
330
2
100
AcDbEntity
  8
AM_VIS
100
AcDbLine
 10
1160.653046551041
 20
809.8320783405764
 30
0.0
 11
1160.653046551041
 21
809.6256708176104
 31
0.0
  0
ARC
  5
C565
330
2
100
AcDbEntity
  8
AM_VIS
100
AcDbCircle
 10
1160.692425439198
 20
809.8320844878067
 30
0.0
 40
0.0393786853357953
100
AcDbArc
 50
96.48086027677416
 51
180.008944141548
  0
ARC
  5
C566
330
2
100
AcDbEntity
  8
AM_VIS
100
AcDbCircle
 10
1161.013207112989
 20
809.9649562839891
 30
0.0
 40
0.0393789127593078
100
AcDbArc
 50
44.99137834464414
 51
128.5188199132554
  0
LINE
  5
C567
330
2
100
AcDbEntity
  8
AM_VIS
100
AcDbLine
 10
1161.097279191326
 20
809.9365747117996
 30
0.0
 11
1161.041056556113
 21
809.9927973470135
 31
0.0
  0
LINE
  5
C568
330
2
100
AcDbEntity
  8
AM_VIS
100
AcDbLine
 10
1161.060959936868
 20
809.6256708176104
 30
0.0
 11
1161.060959936868
 21
809.7418455745218
 31
0.0
  0
LINE
  5
C569
330
2
100
AcDbEntity
  8
AM_VIS
100
AcDbLine
 10
1160.18214103923
 20
809.7418455745218
 30
0.0
 11
1160.18214103923
 21
809.6256708176104
 31
0.0
  0
LINE
  5
C56A
330
2
100
AcDbEntity
  8
AM_VIS
100
AcDbLine
 10
1160.202044419985
 20
809.9927973470135
 30
0.0
 11
1160.145821784772
 21
809.9365747117996
 31
0.0
  0
ARC
  5
C56B
330
2
100
AcDbEntity
  8
AM_VIS
100
AcDbCircle
 10
1160.229893845585
 20
809.9649566149107
 30
0.0
 40
0.0393786853357859
100
AcDbArc
 50
51.48086027675581
 51
135.0089441415873
  0
ARC
  5
C56C
330
2
100
AcDbEntity
  8
AM_VIS
100
AcDbCircle
 10
1160.550675290511
 20
809.8320842662017
 30
0.0
 40
0.0393789127593369
100
AcDbArc
 50
359.991378344679
 51
83.51881991331778
  0
LINE
  5
C56D
330
2
100
AcDbEntity
  8
AM_VIS
100
AcDbLine
 10
1160.590054425057
 20
809.6256708176104
 30
0.0
 11
1160.590054425057
 21
809.8320783405764
 31
0.0
  0
LINE
  5
C56E
330
2
100
AcDbEntity
  8
AM_VIS
100
AcDbLine
 10
1160.22151111797
 20
809.5863007388704
 30
0.0
 11
1160.550684346317
 21
809.5863007388704
 31
0.0
  0
LINE
  5
C56F
330
2
100
AcDbEntity
  8
AM_VIS
100
AcDbLine
 10
1161.492095323701
 20
810.527711716254
 30
0.0
 11
1161.492095323701
 21
810.8568849446005
 31
0.0
  0
LINE
  5
C570
330
2
100
AcDbEntity
  8
AM_VIS
100
AcDbLine
 10
1161.246317721994
 20
810.4883416375139
 30
0.0
 11
1161.45272524496
 21
810.4883416375139
 31
0.0
  0
ARC
  5
C571
330
2
100
AcDbEntity
  8
AM_VIS
100
AcDbCircle
 10
1161.246311574764
 20
810.5277205256705
 30
0.0
 40
0.0393786853358053
100
AcDbArc
 50
186.4808602767734
 51
270.008944141522
  0
ARC
  5
C572
330
2
100
AcDbEntity
  8
AM_VIS
100
AcDbCircle
 10
1161.113439778582
 20
810.8485021994614
 30
0.0
 40
0.0393789127593462
100
AcDbArc
 50
134.9913783446718
 51
218.5188199132463
  0
LINE
  5
C573
330
2
100
AcDbEntity
  8
AM_VIS
100
AcDbLine
 10
1161.141821350771
 20
810.9325742777992
 30
0.0
 11
1161.085598715557
 21
810.8763516425854
 31
0.0
  0
LINE
  5
C574
330
2
100
AcDbEntity
  8
AM_VIS
100
AcDbLine
 10
1161.45272524496
 20
810.8962550233407
 30
0.0
 11
1161.336550488049
 21
810.8962550233407
 31
0.0
  0
LINE
  5
C575
330
2
100
AcDbEntity
  8
AM_VIS
100
AcDbLine
 10
1161.336550488049
 20
810.0174361257028
 30
0.0
 11
1161.45272524496
 21
810.0174361257028
 31
0.0
  0
LINE
  5
C576
330
2
100
AcDbEntity
  8
AM_VIS
100
AcDbLine
 10
1161.085598715557
 20
810.0373395064583
 30
0.0
 11
1161.141821350771
 21
809.9811168712447
 31
0.0
  0
ARC
  5
C577
330
2
100
AcDbEntity
  8
AM_VIS
100
AcDbCircle
 10
1161.11343944766
 20
810.0651889320577
 30
0.0
 40
0.0393786853357934
100
AcDbArc
 50
141.4808602767599
 51
225.0089441415688
  0
ARC
  5
C587
330
2
100
AcDbEntity
  8
AM_VIS
100
AcDbCircle
 10
1160.621550488049
 20
810.4568455745219
 30
0.0
 40
0.3719999999999999
100
AcDbArc
 50
97.6639830259195
 51
142.3360169740724
  0
ARC
  5
C589
330
2
100
AcDbEntity
  8
AM_VIS
100
AcDbCircle
 10
1160.621550488049
 20
810.4568455745219
 30
0.0
 40
0.3719999999999999
100
AcDbArc
 50
157.663983025968
 51
202.336016974032
  0
ARC
  5
C58B
330
2
100
AcDbEntity
  8
AM_VIS
100
AcDbCircle
 10
1160.621550488049
 20
810.4568455745219
 30
0.0
 40
0.3719999999999999
100
AcDbArc
 50
217.6639830259927
 51
262.3360169740013
  0
ARC
  5
C58D
330
2
100
AcDbEntity
  8
AM_VIS
100
AcDbCircle
 10
1160.621550488049
 20
810.4568455745219
 30
0.0
 40
0.3719999999999999
100
AcDbArc
 50
277.6639830259729
 51
322.3360169740256
  0
ARC
  5
C58F
330
2
100
AcDbEntity
  8
AM_VIS
100
AcDbCircle
 10
1160.621550488049
 20
810.4568455745219
 30
0.0
 40
0.3719999999999999
100
AcDbArc
 50
337.6639830259269
 51
22.33601697407308
  0
ARC
  5
C591
330
2
100
AcDbEntity
  8
AM_VIS
100
AcDbCircle
 10
1160.621550488049
 20
810.4568455745219
 30
0.0
 40
0.3719999999999999
100
AcDbArc
 50
37.66398302591331
 51
82.33601697409989
  0
LINE
  5
C5E6
330
2
100
AcDbEntity
  8
AM_VIS
100
AcDbLine
 10
1160.621550488049
 20
810.0595255745217
 30
0.0
 11
1160.965639701481
 21
810.2581855745221
 31
0.0
  0
LINE
  5
C5E7
330
2
100
AcDbEntity
  8
AM_VIS
100
AcDbLine
 10
1160.277461274617
 20
810.2581855745221
 30
0.0
 11
1160.621550488049
 21
810.0595255745217
 31
0.0
  0
LINE
  5
C5E8
330
2
100
AcDbEntity
  8
AM_VIS
100
AcDbLine
 10
1160.277461274617
 20
810.655505574522
 30
0.0
 11
1160.277461274617
 21
810.2581855745217
 31
0.0
  0
LINE
  5
C5E9
330
2
100
AcDbEntity
  8
AM_VIS
100
AcDbLine
 10
1160.277461274617
 20
810.6555055745218
 30
0.0
 11
1160.621550488049
 21
810.8541655745218
 31
0.0
  0
LINE
  5
C5EA
330
2
100
AcDbEntity
  8
AM_VIS
100
AcDbLine
 10
1160.621550488049
 20
810.8541655745218
 30
0.0
 11
1160.965639701481
 21
810.6555055745218
 31
0.0
  0
LINE
  5
C5EB
330
2
100
AcDbEntity
  8
AM_VIS
100
AcDbLine
 10
1160.965639701481
 20
810.655505574522
 30
0.0
 11
1160.965639701481
 21
810.2581855745217
 31
0.0
  0
CIRCLE
  5
C5EE
330
2
100
AcDbEntity
  8
AM_VIS
100
AcDbCircle
 10
1160.621550488049
 20
810.4568455745218
 30
0.0
 40
0.3439999999999941
  0
LINE
  5
C5F3
330
2
100
AcDbEntity
  8
AM_HID
  6
DASHED
100
AcDbLine
 10
1165.891935743929
 20
811.3948168687745
 30
0.0
 11
1166.47854956524
 21
811.4008166529817
 31
0.0
  0
LINE
  5
C5F4
330
2
100
AcDbEntity
  8
AM_VIS
100
AcDbLine
 10
1165.474972118514
 20
809.4568455745218
 30
0.0
 11
1166.734972118513
 21
809.4568455745218
 31
0.0
  0
LINE
  5
C5F5
330
2
100
AcDbEntity
  8
AM_VIS
100
AcDbLine
 10
1166.734972118513
 20
811.4566710371661
 30
0.0
 11
1166.734972118513
 21
811.2066805563999
 31
0.0
  0
LINE
  5
C5F6
330
2
100
AcDbEntity
  8
AM_VIS
100
AcDbLine
 10
1166.734972118513
 20
809.6770105926436
 30
0.0
 11
1166.734972118513
 21
811.2066805563999
 31
0.0
  0
LINE
  5
C5F7
330
2
100
AcDbEntity
  8
AM_VIS
100
AcDbLine
 10
1166.734972118513
 20
809.6770105926436
 30
0.0
 11
1166.734972118513
 21
809.4568455745218
 31
0.0
  0
LINE
  5
C5FF
330
2
100
AcDbEntity
  8
AM_VIS
100
AcDbLine
 10
1165.474972118514
 20
809.4568455745218
 30
0.0
 11
1165.474972118514
 21
809.6880064460602
 31
0.0
  0
LINE
  5
C600
330
2
100
AcDbEntity
  8
AM_VIS
100
AcDbLine
 10
1165.474972118514
 20
811.1956847029837
 30
0.0
 11
1165.474972118514
 21
809.6880064460602
 31
0.0
  0
LINE
  5
C601
330
2
100
AcDbEntity
  8
AM_VIS
100
AcDbLine
 10
1165.474972118514
 20
811.1956847029837
 30
0.0
 11
1165.474972118514
 21
811.4456751837497
 31
0.0
  0
LINE
  5
C605
330
2
100
AcDbEntity
  8
AM_VIS
100
AcDbLine
 10
1166.734972118513
 20
811.4566710371661
 30
0.0
 11
1165.474972118514
 21
811.4456751837497
 31
0.0
  0
CIRCLE
  5
C606
330
2
100
AcDbEntity
  8
AM_VIS
100
AcDbCircle
 10
1166.420326449222
 20
810.7718062044432
 30
0.0
 40
0.1968503937007874
  0
LINE
  5
C610
330
2
100
AcDbEntity
  8
AM_HID
  6
DASHED
100
AcDbLine
 10
1165.910296471831
 20
810.8956878539855
 30
0.0
 11
1165.893692590963
 21
810.9056644721219
 31
0.0
  0
LINE
  5
C611
330
2
100
AcDbEntity
  8
AM_HID
  6
DASHED
100
AcDbLine
 10
1166.459647765196
 20
810.8956878539855
 30
0.0
 11
1166.476251646063
 21
810.9056644721219
 31
0.0
  0
LINE
  5
C612
330
2
100
AcDbEntity
  8
AM_HID
  6
DASHED
100
AcDbLine
 10
1166.476251646063
 20
811.4007931283836
 30
0.0
 11
1166.476251646063
 21
810.9056644721219
 31
0.0
  0
LINE
  5
C613
330
2
100
AcDbEntity
  8
AM_HID
  6
HIDDEN
100
AcDbLine
 10
1165.893692590963
 20
811.3948348098547
 30
0.0
 11
1165.893692590963
 21
810.9056644721219
 31
0.0
  0
LINE
  5
C616
330
2
100
AcDbEntity
  8
AM_HID
  6
DASHED
100
AcDbLine
 10
1166.515972118514
 20
809.496215653262
 30
0.0
 11
1166.555342197254
 21
809.4568455745218
 31
0.0
  0
LINE
  5
C617
330
2
100
AcDbEntity
  8
AM_HID
  6
DASHED
100
AcDbLine
 10
1166.308972118513
 20
809.496215653262
 30
0.0
 11
1166.269602039773
 21
809.4568455745218
 31
0.0
  0
LINE
  5
C618
330
2
100
AcDbEntity
  8
AM_HID
  6
DASHED
100
AcDbLine
 10
1166.308972118513
 20
809.496215653262
 30
0.0
 11
1166.308972118513
 21
809.8318455745218
 31
0.0
  0
LINE
  5
C619
330
2
100
AcDbEntity
  8
AM_HID
  6
DASHED
100
AcDbLine
 10
1166.515972118514
 20
809.496215653262
 30
0.0
 11
1166.515972118514
 21
809.8318455745218
 31
0.0
  0
LINE
  5
C61A
330
2
100
AcDbEntity
  8
AM_HID
  6
DASHED
100
AcDbLine
 10
1166.412472118514
 20
809.8940346485912
 30
0.0
 11
1166.515972118514
 21
809.8318455745218
 31
0.0
  0
LINE
  5
C61B
330
2
100
AcDbEntity
  8
AM_HID
  6
DASHED
100
AcDbLine
 10
1166.412472118514
 20
809.8940346485912
 30
0.0
 11
1166.308972118513
 21
809.8318455745218
 31
0.0
  0
LINE
  5
C62D
330
2
100
AcDbEntity
  8
AM_VIS
100
AcDbLine
 10
1164.858583182518
 20
811.0193455745218
 30
0.0
 11
1165.474972118514
 21
811.0193455745218
 31
0.0
  0
LINE
  5
C62E
330
2
100
AcDbEntity
  8
AM_VIS
100
AcDbLine
 10
1164.858583182518
 20
809.8943455745217
 30
0.0
 11
1165.474972118514
 21
809.8943455745217
 31
0.0
  0
LINE
  5
C63F
330
2
100
AcDbEntity
  8
AM_HID
100
AcDbLine
 10
1165.837767285871
 20
811.4488412492104
 30
0.0
 11
1165.893692590963
 21
811.3948348098547
 31
0.0
  0
LINE
  5
C640
330
2
100
AcDbEntity
  8
AM_HID
  6
DASHED
100
AcDbLine
 10
1166.476251646063
 20
811.4007931283836
 30
0.0
 11
1166.531304745913
 21
811.4548936589322
 31
0.0
  0
LINE
  5
C641
330
2
100
AcDbEntity
  8
AM_HID
  6
DASHED
100
AcDbLine
 10
1165.910963072505
 20
810.8702314012935
 30
0.0
 11
1165.910296471831
 21
810.8956878539855
 31
0.0
  0
LINE
  5
C642
330
2
100
AcDbEntity
  8
AM_HID
  6
DASHED
100
AcDbLine
 10
1166.458981164522
 20
810.8702314012935
 30
0.0
 11
1166.459647765196
 21
810.8956878539855
 31
0.0
  0
LINE
  5
C647
330
2
100
AcDbEntity
  8
AM_HID
  6
DASHED
100
AcDbLine
 10
1166.734972118513
 20
809.6175233373166
 30
0.0
 11
1166.301428811427
 21
809.6099558107423
 31
0.0
  0
LINE
  5
C648
330
2
100
AcDbEntity
  8
AM_HID
  6
DASHED
100
AcDbLine
 10
1166.734972118513
 20
809.866167811727
 30
0.0
 11
1166.301428811427
 21
809.8737353383015
 31
0.0
  0
LINE
  5
C649
330
2
100
AcDbEntity
  8
AM_HID
  6
DASHED
100
AcDbLine
 10
1166.301428811427
 20
809.5378705310556
 30
0.0
 11
1165.474972118514
 21
809.5234446758205
 31
0.0
  0
LINE
  5
C64A
330
2
100
AcDbEntity
  8
AM_HID
  6
DASHED
100
AcDbLine
 10
1166.301428811427
 20
809.9458206179882
 30
0.0
 11
1165.474972118514
 21
809.9602464732233
 31
0.0
  0
LINE
  5
C64C
330
2
100
AcDbEntity
  8
AM_VIS
100
AcDbLine
 10
1164.849972118513
 20
811.0105060700629
 30
0.0
 11
1164.858583182518
 21
811.0193455745218
 31
0.0
  0
LINE
  5
C64D
330
2
100
AcDbEntity
  8
AM_VIS
100
AcDbLine
 10
1164.849972118513
 20
809.9031850789808
 30
0.0
 11
1164.858583182518
 21
809.8943455745217
 31
0.0
  0
LINE
  5
C64F
330
2
100
AcDbEntity
  8
AM_HID
  6
DASHED
100
AcDbLine
 10
1166.459647765196
 20
810.8956878539855
 30
0.0
 11
1165.910296471831
 21
810.8956878539855
 31
0.0
  0
LINE
  5
C650
330
2
100
AcDbEntity
  8
AM_HID
  6
DASHED
100
AcDbLine
 10
1165.893692590963
 20
810.9056644721219
 30
0.0
 11
1166.476251646063
 21
810.9056644721219
 31
0.0
  0
LINE
  5
C653
330
2
100
AcDbEntity
  8
AM_HID
  6
DASHED
100
AcDbLine
 10
1166.515972118514
 20
809.496215653262
 30
0.0
 11
1166.308972118513
 21
809.496215653262
 31
0.0
  0
LINE
  5
C654
330
2
100
AcDbEntity
  8
AM_HID
  6
DASHED
100
AcDbLine
 10
1166.515972118514
 20
809.8318455745218
 30
0.0
 11
1166.308972118513
 21
809.8318455745218
 31
0.0
  0
LINE
  5
C661
330
2
100
AcDbEntity
  8
AM_VIS
100
AcDbLine
 10
1164.858583182518
 20
811.0193455745218
 30
0.0
 11
1164.858583182518
 21
809.8943455745217
 31
0.0
  0
LINE
  5
C662
330
2
100
AcDbEntity
  8
AM_VIS
100
AcDbLine
 10
1164.849972118513
 20
809.9031850789808
 30
0.0
 11
1164.849972118513
 21
810.4568455745218
 31
0.0
  0
LINE
  5
C663
330
2
100
AcDbEntity
  8
AM_VIS
100
AcDbLine
 10
1164.849972118513
 20
810.4568455745218
 30
0.0
 11
1164.849972118513
 21
811.0105060700629
 31
0.0
  0
LINE
  5
C66D
330
2
100
AcDbEntity
  8
AM_HID
  6
DASHED
100
AcDbLine
 10
1166.301428811427
 20
809.9458206179882
 30
0.0
 11
1166.301428811427
 21
809.7418455745218
 31
0.0
  0
LINE
  5
C66E
330
2
100
AcDbEntity
  8
AM_HID
  6
DASHED
100
AcDbLine
 10
1166.301428811427
 20
809.7418455745218
 30
0.0
 11
1166.301428811427
 21
809.5378705310556
 31
0.0
  0
LINE
  5
C67F
330
2
100
AcDbEntity
  8
AM_HID
  6
DASHED
100
AcDbLine
 10
1168.256395462625
 20
811.4011284652999
 30
0.0
 11
1168.843010044716
 21
811.3951286737657
 31
0.0
  0
LINE
  5
C680
330
2
100
AcDbEntity
  8
AM_VIS
100
AcDbLine
 10
1167.999972118513
 20
809.4568455745218
 30
0.0
 11
1169.099972118514
 21
809.4568455745218
 31
0.0
  0
LINE
  5
C681
330
2
100
AcDbEntity
  8
AM_VIS
100
AcDbLine
 10
1167.999972118513
 20
809.4568455745218
 30
0.0
 11
1167.999972118513
 21
809.6770105926436
 31
0.0
  0
LINE
  5
C682
330
2
100
AcDbEntity
  8
AM_VIS
100
AcDbLine
 10
1167.999972118513
 20
811.2066805563999
 30
0.0
 11
1167.999972118513
 21
809.6770105926436
 31
0.0
  0
LINE
  5
C683
330
2
100
AcDbEntity
  8
AM_VIS
100
AcDbLine
 10
1167.999972118513
 20
811.2066805563999
 30
0.0
 11
1167.999972118513
 21
811.4566710371661
 31
0.0
  0
LINE
  5
C684
330
2
100
AcDbEntity
  8
AM_VIS
100
AcDbLine
 10
1169.099972118514
 20
809.6866101472135
 30
0.0
 11
1169.099972118514
 21
809.4568455745218
 31
0.0
  0
LINE
  5
C68B
330
2
100
AcDbEntity
  8
AM_VIS
100
AcDbLine
 10
1169.099972118514
 20
811.4470714825964
 30
0.0
 11
1169.099972118514
 21
811.1970810018302
 31
0.0
  0
LINE
  5
C68C
330
2
100
AcDbEntity
  8
AM_VIS
100
AcDbLine
 10
1169.099972118514
 20
809.6866101472135
 30
0.0
 11
1169.099972118514
 21
811.1970810018302
 31
0.0
  0
CIRCLE
  5
C68D
330
2
100
AcDbEntity
  8
AM_VIS
100
AcDbCircle
 10
1168.314617787805
 20
810.7718062044432
 30
0.0
 40
0.1968503937007874
  0
LINE
  5
C694
330
2
100
AcDbEntity
  8
AM_VIS
100
AcDbLine
 10
1169.099972118514
 20
811.4470714825964
 30
0.0
 11
1167.999972118513
 21
811.4566710371661
 31
0.0
  0
LINE
  5
C6A0
330
2
100
AcDbEntity
  8
AM_HID
  6
DASHED
100
AcDbLine
 10
1168.275621667225
 20
810.89549245688
 30
0.0
 11
1168.258692590963
 21
810.9056644721219
 31
0.0
  0
LINE
  5
C6A1
330
2
100
AcDbEntity
  8
AM_HID
  6
DASHED
100
AcDbLine
 10
1168.824322569802
 20
810.89549245688
 30
0.0
 11
1168.841251646064
 21
810.9056644721219
 31
0.0
  0
LINE
  5
C6A2
330
2
100
AcDbEntity
  8
AM_HID
  6
DASHED
100
AcDbLine
 10
1168.841251646064
 20
811.3951466283287
 30
0.0
 11
1168.841251646064
 21
810.9056644721219
 31
0.0
  0
LINE
  5
C6A3
330
2
100
AcDbEntity
  8
AM_HID
  6
DASHED
100
AcDbLine
 10
1168.258692590963
 20
811.4011049468576
 30
0.0
 11
1168.258692590963
 21
810.9056644721219
 31
0.0
  0
LINE
  5
C6A4
330
2
100
AcDbEntity
  8
AM_HID
  6
DASHED
100
AcDbLine
 10
1168.765972118513
 20
809.4765306138921
 30
0.0
 11
1168.785657157884
 21
809.4568455745218
 31
0.0
  0
LINE
  5
C6A5
330
2
100
AcDbEntity
  8
AM_HID
  6
DASHED
100
AcDbLine
 10
1168.558972118513
 20
809.4765306138921
 30
0.0
 11
1168.539287079143
 21
809.4568455745218
 31
0.0
  0
LINE
  5
C6A6
330
2
100
AcDbEntity
  8
AM_HID
  6
DASHED
100
AcDbLine
 10
1168.558972118513
 20
809.4765306138921
 30
0.0
 11
1168.558972118513
 21
809.8308613225533
 31
0.0
  0
LINE
  5
C6A7
330
2
100
AcDbEntity
  8
AM_HID
  6
DASHED
100
AcDbLine
 10
1168.765972118513
 20
809.4765306138921
 30
0.0
 11
1168.765972118513
 21
809.8308613225533
 31
0.0
  0
LINE
  5
C6A8
330
2
100
AcDbEntity
  8
AM_HID
  6
DASHED
100
AcDbLine
 10
1168.662472118514
 20
809.8930503966228
 30
0.0
 11
1168.765972118513
 21
809.8308613225533
 31
0.0
  0
LINE
  5
C6A9
330
2
100
AcDbEntity
  8
AM_HID
  6
DASHED
100
AcDbLine
 10
1168.662472118514
 20
809.8930503966228
 30
0.0
 11
1168.558972118513
 21
809.8308613225533
 31
0.0
  0
LINE
  5
C6AE
330
2
100
AcDbEntity
  8
AM_HID
  6
DASHED
100
AcDbLine
 10
1168.276283151245
 20
810.8702314012935
 30
0.0
 11
1168.275621667225
 21
810.89549245688
 31
0.0
  0
LINE
  5
C6AF
330
2
100
AcDbEntity
  8
AM_HID
  6
DASHED
100
AcDbLine
 10
1168.82294630723
 20
810.8429351096452
 30
0.0
 11
1168.824322569802
 21
810.89549245688
 31
0.0
  0
LINE
  5
C6B4
330
2
100
AcDbEntity
  8
AM_VIS
100
AcDbLine
 10
1169.221231838864
 20
809.8943455745217
 30
0.0
 11
1169.099972118514
 21
809.8943455745217
 31
0.0
  0
LINE
  5
C6B5
330
2
100
AcDbEntity
  8
AM_VIS
100
AcDbLine
 10
1169.221231838864
 20
811.0193455745218
 30
0.0
 11
1169.099972118514
 21
811.0193455745218
 31
0.0
  0
LINE
  5
C6C9
330
2
100
AcDbEntity
  8
AM_HID
  6
DASHED
100
AcDbLine
 10
1168.203959643015
 20
811.4548908650087
 30
0.0
 11
1168.258692590963
 21
811.4011049468576
 31
0.0
  0
LINE
  5
C6CA
330
2
100
AcDbEntity
  8
AM_HID
  6
DASHED
100
AcDbLine
 10
1168.841251646064
 20
811.3951466283287
 30
0.0
 11
1168.896856945544
 21
811.448844041857
 31
0.0
  0
LINE
  5
C6CB
330
2
100
AcDbEntity
  8
AM_VIS
100
AcDbLine
 10
1169.224972118513
 20
809.8981850789808
 30
0.0
 11
1169.221231838864
 21
809.8943455745217
 31
0.0
  0
LINE
  5
C6CC
330
2
100
AcDbEntity
  8
AM_VIS
100
AcDbLine
 10
1169.224972118513
 20
811.0155060700629
 30
0.0
 11
1169.221231838864
 21
811.0193455745218
 31
0.0
  0
LINE
  5
C6D2
330
2
100
AcDbEntity
  8
AM_HID
  6
DASHED
100
AcDbLine
 10
1167.999972118513
 20
809.8689606221155
 30
0.0
 11
1168.2735154256
 21
809.8737353383015
 31
0.0
  0
LINE
  5
C6D3
330
2
100
AcDbEntity
  8
AM_HID
  6
DASHED
100
AcDbLine
 10
1167.999972118513
 20
809.6147305269282
 30
0.0
 11
1168.2735154256
 21
809.6099558107423
 31
0.0
  0
LINE
  5
C6D4
330
2
100
AcDbEntity
  8
AM_HID
  6
DASHED
100
AcDbLine
 10
1168.2735154256
 20
809.9475430589329
 30
0.0
 11
1169.099972118514
 21
809.9619689141682
 31
0.0
  0
LINE
  5
C6D5
330
2
100
AcDbEntity
  8
AM_HID
  6
DASHED
100
AcDbLine
 10
1168.2735154256
 20
809.5361480901107
 30
0.0
 11
1169.099972118514
 21
809.5217222348756
 31
0.0
  0
LINE
  5
C6D6
330
2
100
AcDbEntity
  8
AM_HID
  6
DASHED
100
AcDbLine
 10
1168.824322569802
 20
810.89549245688
 30
0.0
 11
1168.275621667225
 21
810.89549245688
 31
0.0
  0
LINE
  5
C6D7
330
2
100
AcDbEntity
  8
AM_HID
  6
DASHED
100
AcDbLine
 10
1168.258692590963
 20
810.9056644721219
 30
0.0
 11
1168.841251646064
 21
810.9056644721219
 31
0.0
  0
LINE
  5
C6D8
330
2
100
AcDbEntity
  8
AM_HID
  6
DASHED
100
AcDbLine
 10
1168.765972118513
 20
809.4765306138921
 30
0.0
 11
1168.558972118513
 21
809.4765306138921
 31
0.0
  0
LINE
  5
C6D9
330
2
100
AcDbEntity
  8
AM_HID
  6
DASHED
100
AcDbLine
 10
1168.765972118513
 20
809.8308613225533
 30
0.0
 11
1168.558972118513
 21
809.8308613225533
 31
0.0
  0
LINE
  5
C6DE
330
2
100
AcDbEntity
  8
AM_VIS
100
AcDbLine
 10
1169.221231838864
 20
809.8943455745217
 30
0.0
 11
1169.221231838864
 21
811.0193455745218
 31
0.0
  0
LINE
  5
C6DF
330
2
100
AcDbEntity
  8
AM_VIS
100
AcDbLine
 10
1169.224972118513
 20
811.0155060700629
 30
0.0
 11
1169.224972118513
 21
809.8981850789808
 31
0.0
  0
LINE
  5
C6F4
330
2
100
AcDbEntity
  8
AM_HID
  6
DASHED
100
AcDbLine
 10
1168.2735154256
 20
809.5361480901107
 30
0.0
 11
1168.2735154256
 21
809.9475430589329
 31
0.0
  0
LINE
  5
C744
330
2
100
AcDbEntity
  8
AM_VIS
100
AcDbLine
 10
1164.553731961033
 20
810.6443455745219
 30
0.0
 11
1164.749637472844
 21
810.6443455745219
 31
0.0
  0
ARC
  5
C745
330
2
100
AcDbEntity
  8
AM_VIS
100
AcDbCircle
 10
1164.499637472844
 20
810.4568455745218
 30
0.0
 40
0.3125000000000164
100
AcDbArc
 50
7.25224686508531
 51
36.86989764585184
  0
ARC
  5
C746
330
2
100
AcDbEntity
  8
AM_VIS
100
AcDbCircle
 10
1164.499637472844
 20
810.4568455745218
 30
0.0
 40
0.3125000000000164
100
AcDbArc
 50
323.1301023541482
 51
352.7477531349147
  0
LINE
  5
C747
330
2
100
AcDbEntity
  8
AM_VIS
100
AcDbLine
 10
1164.749637472844
 20
810.2693455745217
 30
0.0
 11
1164.553731961033
 21
810.2693455745217
 31
0.0
  0
LINE
  5
C748
330
2
100
AcDbEntity
  8
AM_VIS
100
AcDbLine
 10
1164.749637472844
 20
810.6443455745219
 30
0.0
 11
1164.749637472844
 21
810.2693455745217
 31
0.0
  0
SPLINE
  5
C749
330
2
100
AcDbEntity
  8
AM_VIS
100
AcDbSpline
210
0.0
220
0.0
230
1.0
 70
     8
 71
     3
 72
    23
 73
    19
 74
     0
 42
0.0000000001
 43
0.0000000001
 40
-0.2097659233626445
 40
-0.2097659233626445
 40
-0.2097659233626445
 40
-0.2097659233626445
 40
-0.1901580264003253
 40
-0.1901580264003253
 40
-0.1662772757906106
 40
-0.1662772757906106
 40
-0.1308350781962577
 40
-0.1308350781962577
 40
0.0
 40
0.0
 40
0.0
 40
0.1308350781962577
 40
0.1308350781962577
 40
0.1662772757906105
 40
0.1662772757906105
 40
0.1901580264003252
 40
0.1901580264003252
 40
0.2097659233626445
 40
0.2097659233626445
 40
0.2097659233626445
 40
0.2097659233626445
 10
1164.553731961033
 20
810.2693455745216
 30
0.0
 10
1164.547195995379
 20
810.2693455745216
 30
0.0
 10
1164.539546244363
 20
810.2710765999761
 30
0.0
 10
1164.526317091489
 20
810.2770036387319
 30
0.0
 10
1164.518729334612
 20
810.2828064299156
 30
0.0
 10
1164.505240316421
 20
810.2972656817708
 30
0.0
 10
1164.498192932074
 20
810.3095668310302
 30
0.0
 10
1164.477298769823
 20
810.3609034524605
 30
0.0
 10
1164.476684769748
 20
810.4132338817899
 30
0.0
 10
1164.476684769748
 20
810.4568455745218
 30
0.0
 10
1164.476684769748
 20
810.5004572672539
 30
0.0
 10
1164.477298769823
 20
810.5527876965831
 30
0.0
 10
1164.498192932074
 20
810.6041243180134
 30
0.0
 10
1164.505240316421
 20
810.6164254672732
 30
0.0
 10
1164.518729334612
 20
810.6308847191282
 30
0.0
 10
1164.526317091489
 20
810.636687510312
 30
0.0
 10
1164.539546244363
 20
810.6426145490674
 30
0.0
 10
1164.547195995379
 20
810.6443455745218
 30
0.0
 10
1164.553731961033
 20
810.6443455745218
 30
0.0
  0
LINE
  5
C74D
330
2
100
AcDbEntity
  8
AM_VIS
100
AcDbLine
 10
1164.849972118513
 20
810.1443455745219
 30
0.0
 11
1164.553731961033
 21
810.1443455745219
 31
0.0
  0
LINE
  5
C74F
330
2
100
AcDbEntity
  8
AM_VIS
100
AcDbLine
 10
1164.849972118513
 20
810.7693455745218
 30
0.0
 11
1164.553731961033
 21
810.7693455745218
 31
0.0
  0
LINE
  5
C756
330
2
100
AcDbEntity
  8
AM_VIS
100
AcDbLine
 10
1163.724991803553
 20
810.6364754957818
 30
0.0
 11
1163.764361882293
 21
810.6758455745218
 31
0.0
  0
LINE
  5
C757
330
2
100
AcDbEntity
  8
AM_VIS
100
AcDbLine
 10
1163.724991803553
 20
810.2772156532621
 30
0.0
 11
1163.764361882293
 21
810.237845574522
 31
0.0
  0
LINE
  5
C758
330
2
100
AcDbEntity
  8
AM_VIS
100
AcDbLine
 10
1164.474991803553
 20
810.237845574522
 30
0.0
 11
1164.274991803553
 21
810.237845574522
 31
0.0
  0
LINE
  5
C75A
330
2
100
AcDbEntity
  8
AM_VIS
100
AcDbLine
 10
1164.024991803553
 20
810.237845574522
 30
0.0
 11
1163.764361882293
 21
810.237845574522
 31
0.0
  0
LINE
  5
C75B
330
2
100
AcDbEntity
  8
AM_VIS
100
AcDbLine
 10
1164.474991803553
 20
810.6758455745218
 30
0.0
 11
1164.274991803553
 21
810.6758455745218
 31
0.0
  0
LINE
  5
C75D
330
2
100
AcDbEntity
  8
AM_VIS
100
AcDbLine
 10
1164.024991803553
 20
810.6758455745218
 30
0.0
 11
1163.764361882293
 21
810.6758455745218
 31
0.0
  0
LINE
  5
C760
330
2
100
AcDbEntity
  8
AM_VIS
100
AcDbLine
 10
1164.809637472844
 20
810.4173962399265
 30
0.0
 11
1164.809637472844
 21
810.496294909117
 31
0.0
  0
LINE
  5
C763
330
2
100
AcDbEntity
  8
AM_VIS
100
AcDbLine
 10
1164.474991803553
 20
810.2230857320021
 30
0.0
 11
1164.474991803553
 21
810.4568455745218
 31
0.0
  0
LINE
  5
C764
330
2
100
AcDbEntity
  8
AM_VIS
100
AcDbLine
 10
1164.474991803553
 20
810.4568455745218
 30
0.0
 11
1164.474991803553
 21
810.6906054170416
 31
0.0
  0
LINE
  5
C765
330
2
100
AcDbEntity
  8
AM_VIS
100
AcDbLine
 10
1163.764361882293
 20
810.6758455745218
 30
0.0
 11
1163.764361882293
 21
810.4568455745218
 31
0.0
  0
LINE
  5
C766
330
2
100
AcDbEntity
  8
AM_VIS
100
AcDbLine
 10
1163.764361882293
 20
810.4568455745218
 30
0.0
 11
1163.764361882293
 21
810.237845574522
 31
0.0
  0
LINE
  5
C767
330
2
100
AcDbEntity
  8
AM_VIS
100
AcDbLine
 10
1163.724991803553
 20
810.2772156532621
 30
0.0
 11
1163.724991803553
 21
810.4568455745218
 31
0.0
  0
LINE
  5
C768
330
2
100
AcDbEntity
  8
AM_VIS
100
AcDbLine
 10
1163.724991803553
 20
810.4568455745218
 30
0.0
 11
1163.724991803553
 21
810.6364754957818
 31
0.0
  0
ARC
  5
C769
330
2
100
AcDbEntity
  8
AM_VIS
100
AcDbCircle
 10
1164.553731961033
 20
810.2230857320021
 30
0.0
 40
0.078740157480315
100
AcDbArc
 50
180.0
 51
270.0
  0
ARC
  5
C76A
330
2
100
AcDbEntity
  8
AM_VIS
100
AcDbCircle
 10
1164.553731961033
 20
810.6906054170416
 30
0.0
 40
0.078740157480315
100
AcDbArc
 50
90.0
 51
180.0
  0
LINE
  5
C79A
330
2
100
AcDbEntity
  8
AM_VIS
100
AcDbLine
 10
1166.734972118513
 20
811.3229873068053
 30
0.0
 11
1167.999972118513
 21
811.3229873068053
 31
0.0
  0
LINE
  5
C79B
330
2
100
AcDbEntity
  8
AM_VIS
100
AcDbLine
 10
1166.734972118513
 20
809.5907038422383
 30
0.0
 11
1167.999972118513
 21
809.5907038422383
 31
0.0
  0
SPLINE
  5
C7BE
330
2
100
AcDbEntity
  8
AM_HID
  6
DASHED
100
AcDbSpline
210
0.0
220
0.0
230
1.0
 70
    12
 71
     2
 72
     6
 73
     3
 74
     0
 42
0.0000000001
 43
0.0000000001
 40
0.0945122925377435
 40
0.0945122925377435
 40
0.0945122925377435
 40
0.1704539585061771
 40
0.1704539585061771
 40
0.1704539585061771
 10
1169.04330081025
 20
809.8500987499944
 30
0.0
 41
1.0
 10
1169.04330081025
 20
809.8333519254678
 30
0.0
 41
1.047622225586772
 10
1169.054465359935
 20
809.814014358171
 30
0.0
 41
1.018714487693084
  0
SPLINE
  5
C7BF
330
2
100
AcDbEntity
  8
AM_HID
  6
DASHED
100
AcDbSpline
210
0.0
220
0.0
230
1.0
 70
    12
 71
     2
 72
     6
 73
     3
 74
     0
 42
0.0000000001
 43
0.0000000001
 40
0.0185706265687963
 40
0.0185706265687963
 40
0.0185706265687963
 40
0.0945122925377435
 40
0.0945122925377435
 40
0.0945122925377435
 10
1169.054465359934
 20
809.8861831418188
 30
0.0
 41
1.018714487692692
 10
1169.04330081025
 20
809.8668455745222
 30
0.0
 41
1.047622225587092
 10
1169.04330081025
 20
809.8500987499944
 30
0.0
 41
1.0
  0
SPLINE
  5
C7C0
330
2
100
AcDbEntity
  8
AM_HID
  6
DASHED
100
AcDbSpline
210
0.0
220
0.0
230
1.0
 70
    12
 71
     2
 72
     6
 73
     3
 74
     0
 42
0.0000000001
 43
0.0000000001
 40
0.0945122925377338
 40
0.0945122925377338
 40
0.0945122925377338
 40
0.1704539585061522
 40
0.1704539585061522
 40
0.1704539585061522
 10
1169.04330081025
 20
809.6335923990487
 30
0.0
 41
1.0
 10
1169.04330081025
 20
809.6168455745223
 30
0.0
 41
1.047622225585531
 10
1169.054465359934
 20
809.5975080072241
 30
0.0
 41
1.018714487692603
  0
SPLINE
  5
C7C1
330
2
100
AcDbEntity
  8
AM_HID
  6
DASHED
100
AcDbSpline
210
0.0
220
0.0
230
1.0
 70
    12
 71
     2
 72
     6
 73
     3
 74
     0
 42
0.0000000001
 43
0.0000000001
 40
0.0185706265687951
 40
0.0185706265687951
 40
0.0185706265687951
 40
0.0945122925377338
 40
0.0945122925377338
 40
0.0945122925377338
 10
1169.054465359934
 20
809.6696767908731
 30
0.0
 41
1.018714487692207
 10
1169.04330081025
 20
809.6503392235756
 30
0.0
 41
1.047622225585856
 10
1169.04330081025
 20
809.6335923990487
 30
0.0
 41
1.0
  0
SPLINE
  5
C7C2
330
2
100
AcDbEntity
  8
AM_HID
  6
DASHED
100
AcDbSpline
210
0.0
220
0.0
230
1.0
 70
    12
 71
     2
 72
     6
 73
     3
 74
     0
 42
0.0000000001
 43
0.0000000001
 40
0.0945122925377372
 40
0.0945122925377372
 40
0.0945122925377372
 40
0.1704539585061651
 40
0.1704539585061651
 40
0.1704539585061651
 10
1169.04330081025
 20
809.7418455745218
 30
0.0
 41
1.0
 10
1169.04330081025
 20
809.7083519254683
 30
0.0
 41
1.047622225586123
 10
1169.054465359934
 20
809.6696767908731
 30
0.0
 41
1.018714487692829
  0
SPLINE
  5
C7C3
330
2
100
AcDbEntity
  8
AM_HID
  6
DASHED
100
AcDbSpline
210
0.0
220
0.0
230
1.0
 70
    12
 71
     2
 72
     6
 73
     3
 74
     0
 42
0.0000000001
 43
0.0000000001
 40
0.0185706265687962
 40
0.0185706265687962
 40
0.0185706265687962
 40
0.0945122925377372
 40
0.0945122925377372
 40
0.0945122925377372
 10
1169.054465359934
 20
809.8140143581707
 30
0.0
 41
1.018714487692438
 10
1169.04330081025
 20
809.7753392235759
 30
0.0
 41
1.047622225586443
 10
1169.04330081025
 20
809.7418455745218
 30
0.0
 41
1.0
  0
LINE
  5
C7C4
330
2
100
AcDbEntity
  8
AM_HID
  6
DASHED
100
AcDbLine
 10
1169.054465359934
 20
809.5975080072246
 30
0.0
 11
1168.900916921663
 21
809.5975080072246
 31
0.0
  0
LINE
  5
C7C5
330
2
100
AcDbEntity
  8
AM_HID
  6
DASHED
100
AcDbLine
 10
1169.054465359934
 20
809.8861831418194
 30
0.0
 11
1168.900916921663
 21
809.8861831418194
 31
0.0
  0
LINE
  5
C7C6
330
2
100
AcDbEntity
  8
AM_HID
  6
DASHED
100
AcDbLine
 10
1169.054465359934
 20
809.8140143581707
 30
0.0
 11
1168.900916921663
 21
809.8140143581707
 31
0.0
  0
LINE
  5
C7C7
330
2
100
AcDbEntity
  8
AM_HID
  6
DASHED
100
AcDbLine
 10
1168.900916921663
 20
809.8861831418194
 30
0.0
 11
1168.900916921663
 21
809.8140143581707
 31
0.0
  0
LINE
  5
C7C8
330
2
100
AcDbEntity
  8
AM_HID
  6
DASHED
100
AcDbLine
 10
1169.054465359934
 20
809.6696767908731
 30
0.0
 11
1168.900916921663
 21
809.6696767908731
 31
0.0
  0
LINE
  5
C7C9
330
2
100
AcDbEntity
  8
AM_HID
  6
DASHED
100
AcDbLine
 10
1168.900916921663
 20
809.8140143581707
 30
0.0
 11
1168.900916921663
 21
809.6696767908731
 31
0.0
  0
LINE
  5
C7CA
330
2
100
AcDbEntity
  8
AM_HID
  6
DASHED
100
AcDbLine
 10
1168.900916921663
 20
809.6696767908731
 30
0.0
 11
1168.900916921663
 21
809.5975080072246
 31
0.0
  0
LINE
  5
C7CB
330
2
100
AcDbEntity
  8
AM_HID
  6
DASHED
100
AcDbLine
 10
1169.041231921663
 20
809.5449951808211
 30
0.0
 11
1168.3325704256
 21
809.5449951808211
 31
0.0
  0
LINE
  5
C7CC
330
2
100
AcDbEntity
  8
AM_HID
  6
DASHED
100
AcDbLine
 10
1169.041231921663
 20
809.9386959682226
 30
0.0
 11
1168.3325704256
 21
809.9386959682226
 31
0.0
  0
LINE
  5
C7CD
330
2
100
AcDbEntity
  8
AM_HID
  6
DASHED
100
AcDbLine
 10
1168.3308384256
 20
809.6318455745219
 30
0.0
 11
1168.3128854256
 21
809.6138925745218
 31
0.0
  0
LINE
  5
C7CE
330
2
100
AcDbEntity
  8
AM_HID
  6
DASHED
100
AcDbLine
 10
1168.3308384256
 20
809.8518455745219
 30
0.0
 11
1168.3128854256
 21
809.8697985745218
 31
0.0
  0
LINE
  5
C7CF
330
2
100
AcDbEntity
  8
AM_HID
  6
DASHED
100
AcDbLine
 10
1169.054465359934
 20
809.8861831418194
 30
0.0
 11
1169.060916921663
 21
809.8973575745219
 31
0.0
  0
LINE
  5
C7D0
330
2
100
AcDbEntity
  8
AM_HID
  6
DASHED
100
AcDbLine
 10
1169.054465359934
 20
809.5975080072246
 30
0.0
 11
1169.060916921663
 21
809.5863335745217
 31
0.0
  0
LINE
  5
C7D1
330
2
100
AcDbEntity
  8
AM_HID
  6
DASHED
100
AcDbLine
 10
1168.894776667625
 20
809.8518455745219
 30
0.0
 11
1168.900916921663
 21
809.8624808064869
 31
0.0
  0
LINE
  5
C7D2
330
2
100
AcDbEntity
  8
AM_HID
  6
DASHED
100
AcDbLine
 10
1168.894776667625
 20
809.6318455745219
 30
0.0
 11
1168.900916921663
 21
809.6212103425571
 31
0.0
  0
LINE
  5
C7D3
330
2
100
AcDbEntity
  8
AM_HID
  6
DASHED
100
AcDbLine
 10
1168.894776667625
 20
809.6318455745219
 30
0.0
 11
1168.3308384256
 21
809.6318455745219
 31
0.0
  0
LINE
  5
C7D4
330
2
100
AcDbEntity
  8
AM_HID
  6
DASHED
100
AcDbLine
 10
1168.894776667625
 20
809.8518455745219
 30
0.0
 11
1168.3308384256
 21
809.8518455745219
 31
0.0
  0
LINE
  5
C7D5
330
2
100
AcDbEntity
  8
AM_HID
  6
DASHED
100
AcDbLine
 10
1169.060916921663
 20
809.9190109682226
 30
0.0
 11
1169.060916921663
 21
809.7418455745218
 31
0.0
  0
LINE
  5
C7D6
330
2
100
AcDbEntity
  8
AM_HID
  6
DASHED
100
AcDbLine
 10
1169.060916921663
 20
809.7418455745218
 30
0.0
 11
1169.060916921663
 21
809.5646801808211
 31
0.0
  0
LINE
  5
C7D7
330
2
100
AcDbEntity
  8
AM_HID
  6
DASHED
100
AcDbLine
 10
1168.3308384256
 20
809.8518455745219
 30
0.0
 11
1168.3308384256
 21
809.6318455745219
 31
0.0
  0
LINE
  5
C7D8
330
2
100
AcDbEntity
  8
AM_HID
  6
DASHED
100
AcDbLine
 10
1168.894776667625
 20
809.6318455745219
 30
0.0
 11
1168.894776667625
 21
809.8518455745219
 31
0.0
  0
ARC
  5
C7D9
330
2
100
AcDbEntity
  8
AM_HID
  6
DASHED
100
AcDbCircle
 10
1168.3325704256
 20
809.5646801808211
 30
0.0
 40
0.019685
100
AcDbArc
 50
180.0
 51
270.0
  0
ARC
  5
C7DA
330
2
100
AcDbEntity
  8
AM_HID
  6
DASHED
100
AcDbCircle
 10
1168.3325704256
 20
809.9190109682226
 30
0.0
 40
0.019685
100
AcDbArc
 50
90.0
 51
180.0
  0
ARC
  5
C7DB
330
2
100
AcDbEntity
  8
AM_HID
  6
DASHED
100
AcDbCircle
 10
1169.041231921663
 20
809.5646801808211
 30
0.0
 40
0.019685
100
AcDbArc
 50
270.0
 51
0.0
  0
ARC
  5
C7DC
330
2
100
AcDbEntity
  8
AM_HID
  6
DASHED
100
AcDbCircle
 10
1169.041231921663
 20
809.9190109682226
 30
0.0
 40
0.019685
100
AcDbArc
 50
0.0
 51
90.0
  0
SPLINE
  5
C7FC
330
2
100
AcDbEntity
  8
AM_HID
  6
DASHED
100
AcDbSpline
210
0.0
220
0.0
230
1.0
 70
    12
 71
     2
 72
     6
 73
     3
 74
     0
 42
0.0000000001
 43
0.0000000001
 40
0.0945122925377435
 40
0.0945122925377435
 40
0.0945122925377435
 40
0.1704539585061771
 40
0.1704539585061771
 40
0.1704539585061771
 10
1165.531643426777
 20
809.6335923990487
 30
0.0
 41
1.0
 10
1165.531643426777
 20
809.6503392235756
 30
0.0
 41
1.047622225586772
 10
1165.520478877093
 20
809.6696767908735
 30
0.0
 41
1.018714487693084
  0
SPLINE
  5
C7FD
330
2
100
AcDbEntity
  8
AM_HID
  6
DASHED
100
AcDbSpline
210
0.0
220
0.0
230
1.0
 70
    12
 71
     2
 72
     6
 73
     3
 74
     0
 42
0.0000000001
 43
0.0000000001
 40
0.0185706265687963
 40
0.0185706265687963
 40
0.0185706265687963
 40
0.0945122925377435
 40
0.0945122925377435
 40
0.0945122925377435
 10
1165.520478877093
 20
809.5975080072241
 30
0.0
 41
1.018714487692692
 10
1165.531643426777
 20
809.6168455745216
 30
0.0
 41
1.047622225587092
 10
1165.531643426777
 20
809.6335923990487
 30
0.0
 41
1.0
  0
SPLINE
  5
C7FE
330
2
100
AcDbEntity
  8
AM_HID
  6
DASHED
100
AcDbSpline
210
0.0
220
0.0
230
1.0
 70
    12
 71
     2
 72
     6
 73
     3
 74
     0
 42
0.0000000001
 43
0.0000000001
 40
0.0945122925377338
 40
0.0945122925377338
 40
0.0945122925377338
 40
0.1704539585061522
 40
0.1704539585061522
 40
0.1704539585061522
 10
1165.531643426777
 20
809.8500987499944
 30
0.0
 41
1.0
 10
1165.531643426778
 20
809.8668455745217
 30
0.0
 41
1.047622225585531
 10
1165.520478877093
 20
809.8861831418192
 30
0.0
 41
1.018714487692603
  0
SPLINE
  5
C7FF
330
2
100
AcDbEntity
  8
AM_HID
  6
DASHED
100
AcDbSpline
210
0.0
220
0.0
230
1.0
 70
    12
 71
     2
 72
     6
 73
     3
 74
     0
 42
0.0000000001
 43
0.0000000001
 40
0.0185706265687951
 40
0.0185706265687951
 40
0.0185706265687951
 40
0.0945122925377338
 40
0.0945122925377338
 40
0.0945122925377338
 10
1165.520478877093
 20
809.8140143581707
 30
0.0
 41
1.018714487692207
 10
1165.531643426778
 20
809.8333519254676
 30
0.0
 41
1.047622225585856
 10
1165.531643426777
 20
809.8500987499944
 30
0.0
 41
1.0
  0
SPLINE
  5
C800
330
2
100
AcDbEntity
  8
AM_HID
  6
DASHED
100
AcDbSpline
210
0.0
220
0.0
230
1.0
 70
    12
 71
     2
 72
     6
 73
     3
 74
     0
 42
0.0000000001
 43
0.0000000001
 40
0.0945122925377372
 40
0.0945122925377372
 40
0.0945122925377372
 40
0.1704539585061651
 40
0.1704539585061651
 40
0.1704539585061651
 10
1165.531643426777
 20
809.7418455745218
 30
0.0
 41
1.0
 10
1165.531643426777
 20
809.7753392235755
 30
0.0
 41
1.047622225586123
 10
1165.520478877093
 20
809.8140143581703
 30
0.0
 41
1.018714487692829
  0
SPLINE
  5
C801
330
2
100
AcDbEntity
  8
AM_HID
  6
DASHED
100
AcDbSpline
210
0.0
220
0.0
230
1.0
 70
    12
 71
     2
 72
     6
 73
     3
 74
     0
 42
0.0000000001
 43
0.0000000001
 40
0.0185706265687962
 40
0.0185706265687962
 40
0.0185706265687962
 40
0.0945122925377372
 40
0.0945122925377372
 40
0.0945122925377372
 10
1165.520478877093
 20
809.6696767908731
 30
0.0
 41
1.018714487692438
 10
1165.531643426777
 20
809.7083519254679
 30
0.0
 41
1.047622225586443
 10
1165.531643426777
 20
809.7418455745218
 30
0.0
 41
1.0
  0
LINE
  5
C802
330
2
100
AcDbEntity
  8
AM_HID
  6
DASHED
100
AcDbLine
 10
1165.520478877092
 20
809.8861831418194
 30
0.0
 11
1165.674027315364
 21
809.8861831418194
 31
0.0
  0
LINE
  5
C803
330
2
100
AcDbEntity
  8
AM_HID
  6
DASHED
100
AcDbLine
 10
1165.520478877093
 20
809.5975080072244
 30
0.0
 11
1165.674027315364
 21
809.5975080072244
 31
0.0
  0
LINE
  5
C804
330
2
100
AcDbEntity
  8
AM_HID
  6
DASHED
100
AcDbLine
 10
1165.520478877093
 20
809.6696767908731
 30
0.0
 11
1165.674027315364
 21
809.6696767908731
 31
0.0
  0
LINE
  5
C805
330
2
100
AcDbEntity
  8
AM_HID
  6
DASHED
100
AcDbLine
 10
1165.674027315364
 20
809.5975080072244
 30
0.0
 11
1165.674027315364
 21
809.6696767908731
 31
0.0
  0
LINE
  5
C806
330
2
100
AcDbEntity
  8
AM_HID
  6
DASHED
100
AcDbLine
 10
1165.520478877092
 20
809.8140143581707
 30
0.0
 11
1165.674027315364
 21
809.8140143581707
 31
0.0
  0
LINE
  5
C807
330
2
100
AcDbEntity
  8
AM_HID
  6
DASHED
100
AcDbLine
 10
1165.674027315364
 20
809.6696767908731
 30
0.0
 11
1165.674027315364
 21
809.8140143581707
 31
0.0
  0
LINE
  5
C808
330
2
100
AcDbEntity
  8
AM_HID
  6
DASHED
100
AcDbLine
 10
1165.674027315364
 20
809.8140143581707
 30
0.0
 11
1165.674027315364
 21
809.8861831418192
 31
0.0
  0
LINE
  5
C809
330
2
100
AcDbEntity
  8
AM_HID
  6
DASHED
100
AcDbLine
 10
1165.533712315364
 20
809.9386959682226
 30
0.0
 11
1166.242373811427
 21
809.9386959682226
 31
0.0
  0
LINE
  5
C80A
330
2
100
AcDbEntity
  8
AM_HID
  6
DASHED
100
AcDbLine
 10
1165.533712315364
 20
809.5449951808211
 30
0.0
 11
1166.242373811427
 21
809.5449951808211
 31
0.0
  0
LINE
  5
C80B
330
2
100
AcDbEntity
  8
AM_HID
  6
DASHED
100
AcDbLine
 10
1166.244105811427
 20
809.8518455745217
 30
0.0
 11
1166.262058811427
 21
809.8697985745218
 31
0.0
  0
LINE
  5
C80C
330
2
100
AcDbEntity
  8
AM_HID
  6
DASHED
100
AcDbLine
 10
1166.244105811427
 20
809.6318455745219
 30
0.0
 11
1166.262058811427
 21
809.6138925745218
 31
0.0
  0
LINE
  5
C80D
330
2
100
AcDbEntity
  8
AM_HID
  6
DASHED
100
AcDbLine
 10
1165.520478877092
 20
809.5975080072244
 30
0.0
 11
1165.514027315364
 21
809.5863335745217
 31
0.0
  0
LINE
  5
C80E
330
2
100
AcDbEntity
  8
AM_HID
  6
DASHED
100
AcDbLine
 10
1165.520478877092
 20
809.8861831418194
 30
0.0
 11
1165.514027315364
 21
809.8973575745219
 31
0.0
  0
LINE
  5
C80F
330
2
100
AcDbEntity
  8
AM_HID
  6
DASHED
100
AcDbLine
 10
1165.680167569402
 20
809.6318455745219
 30
0.0
 11
1165.674027315364
 21
809.6212103425571
 31
0.0
  0
LINE
  5
C810
330
2
100
AcDbEntity
  8
AM_HID
  6
DASHED
100
AcDbLine
 10
1165.680167569402
 20
809.8518455745217
 30
0.0
 11
1165.674027315364
 21
809.8624808064867
 31
0.0
  0
LINE
  5
C811
330
2
100
AcDbEntity
  8
AM_HID
  6
DASHED
100
AcDbLine
 10
1165.680167569402
 20
809.8518455745217
 30
0.0
 11
1166.244105811427
 21
809.8518455745217
 31
0.0
  0
LINE
  5
C812
330
2
100
AcDbEntity
  8
AM_HID
  6
DASHED
100
AcDbLine
 10
1165.680167569402
 20
809.6318455745219
 30
0.0
 11
1166.244105811427
 21
809.6318455745219
 31
0.0
  0
LINE
  5
C813
330
2
100
AcDbEntity
  8
AM_HID
  6
DASHED
100
AcDbLine
 10
1165.514027315364
 20
809.5646801808211
 30
0.0
 11
1165.514027315364
 21
809.7418455745218
 31
0.0
  0
LINE
  5
C814
330
2
100
AcDbEntity
  8
AM_HID
  6
DASHED
100
AcDbLine
 10
1165.514027315364
 20
809.7418455745218
 30
0.0
 11
1165.514027315364
 21
809.9190109682226
 31
0.0
  0
LINE
  5
C815
330
2
100
AcDbEntity
  8
AM_HID
  6
DASHED
100
AcDbLine
 10
1166.244105811427
 20
809.6318455745219
 30
0.0
 11
1166.244105811427
 21
809.8518455745217
 31
0.0
  0
LINE
  5
C816
330
2
100
AcDbEntity
  8
AM_HID
  6
DASHED
100
AcDbLine
 10
1165.680167569402
 20
809.8518455745217
 30
0.0
 11
1165.680167569402
 21
809.6318455745219
 31
0.0
  0
ARC
  5
C817
330
2
100
AcDbEntity
  8
AM_HID
  6
DASHED
100
AcDbCircle
 10
1166.242373811427
 20
809.9190109682226
 30
0.0
 40
0.019685
100
AcDbArc
 50
0.0
 51
90.0
  0
ARC
  5
C818
330
2
100
AcDbEntity
  8
AM_HID
  6
DASHED
100
AcDbCircle
 10
1166.242373811427
 20
809.5646801808211
 30
0.0
 40
0.019685
100
AcDbArc
 50
270.0
 51
0.0
  0
ARC
  5
C819
330
2
100
AcDbEntity
  8
AM_HID
  6
DASHED
100
AcDbCircle
 10
1165.533712315364
 20
809.9190109682226
 30
0.0
 40
0.019685
100
AcDbArc
 50
90.0
 51
180.0
  0
ARC
  5
C81A
330
2
100
AcDbEntity
  8
AM_HID
  6
DASHED
100
AcDbCircle
 10
1165.533712315364
 20
809.5646801808211
 30
0.0
 40
0.019685
100
AcDbArc
 50
180.0
 51
270.0
  0
LINE
  5
C821
330
2
100
AcDbEntity
  8
AM_HID
  6
DASHED
100
AcDbLine
 10
1168.2735154256
 20
809.8697983304274
 30
0.0
 11
1168.3128854256
 21
809.8697983304274
 31
0.0
  0
LINE
  5
C822
330
2
100
AcDbEntity
  8
AM_HID
  6
DASHED
100
AcDbLine
 10
1168.2735154256
 20
809.6138928186164
 30
0.0
 11
1168.3128854256
 21
809.6138928186164
 31
0.0
  0
LINE
  5
C823
330
2
100
AcDbEntity
  8
AM_HID
  6
DASHED
100
AcDbLine
 10
1168.2735154256
 20
809.9386955745218
 30
0.0
 11
1168.3128854256
 21
809.9386955745218
 31
0.0
  0
LINE
  5
C824
330
2
100
AcDbEntity
  8
AM_HID
  6
DASHED
100
AcDbLine
 10
1168.2735154256
 20
809.5449955745218
 30
0.0
 11
1168.3128854256
 21
809.5449955745218
 31
0.0
  0
LINE
  5
C825
330
2
100
AcDbEntity
  8
AM_HID
  6
DASHED
100
AcDbLine
 10
1168.3128854256
 20
809.9386955745218
 30
0.0
 11
1168.3128854256
 21
809.7418455745218
 31
0.0
  0
LINE
  5
C826
330
2
100
AcDbEntity
  8
AM_HID
  6
DASHED
100
AcDbLine
 10
1168.3128854256
 20
809.7418455745218
 30
0.0
 11
1168.3128854256
 21
809.5449955745218
 31
0.0
  0
LINE
  5
C82D
330
2
100
AcDbEntity
  8
AM_HID
  6
DASHED
100
AcDbLine
 10
1166.301428811427
 20
809.6138928186164
 30
0.0
 11
1166.262058811427
 21
809.6138928186164
 31
0.0
  0
LINE
  5
C82E
330
2
100
AcDbEntity
  8
AM_HID
  6
DASHED
100
AcDbLine
 10
1166.301428811427
 20
809.8697983304273
 30
0.0
 11
1166.262058811427
 21
809.8697983304273
 31
0.0
  0
LINE
  5
C82F
330
2
100
AcDbEntity
  8
AM_HID
  6
DASHED
100
AcDbLine
 10
1166.301428811427
 20
809.5449955745218
 30
0.0
 11
1166.262058811427
 21
809.5449955745218
 31
0.0
  0
LINE
  5
C830
330
2
100
AcDbEntity
  8
AM_HID
  6
DASHED
100
AcDbLine
 10
1166.301428811427
 20
809.9386955745218
 30
0.0
 11
1166.262058811427
 21
809.9386955745218
 31
0.0
  0
LINE
  5
C831
330
2
100
AcDbEntity
  8
AM_HID
  6
DASHED
100
AcDbLine
 10
1166.262058811427
 20
809.5449955745218
 30
0.0
 11
1166.262058811427
 21
809.7418455745218
 31
0.0
  0
LINE
  5
C832
330
2
100
AcDbEntity
  8
AM_HID
  6
DASHED
100
AcDbLine
 10
1166.262058811427
 20
809.7418455745218
 30
0.0
 11
1166.262058811427
 21
809.9386955745218
 31
0.0
  0
LINE
  5
C840
330
2
100
AcDbEntity
  8
AM_VIS
100
AcDbLine
 10
1166.734972118513
 20
811.2850345508999
 30
0.0
 11
1167.999972118513
 21
811.2850345508999
 31
0.0
  0
LINE
  5
C843
330
2
100
AcDbEntity
  8
AM_VIS
100
AcDbLine
 10
1166.734972118513
 20
811.0586565981439
 30
0.0
 11
1167.999972118513
 21
811.0586565981439
 31
0.0
  0
LINE
  5
C855
330
2
100
AcDbEntity
  8
AM_HID
  6
DASHED
100
AcDbLine
 10
1166.317216134261
 20
809.628656598144
 30
0.0
 11
1166.305405110639
 21
809.6168455745219
 31
0.0
  0
LINE
  5
C856
330
2
100
AcDbEntity
  8
AM_HID
  6
DASHED
100
AcDbLine
 10
1166.317216134261
 20
809.8550345509
 30
0.0
 11
1166.305405110639
 21
809.8668455745219
 31
0.0
  0
LINE
  5
C857
330
2
100
AcDbEntity
  8
AM_HID
  6
DASHED
100
AcDbLine
 10
1166.00225550434
 20
809.8668455745219
 30
0.0
 11
1166.305405110639
 21
809.8668455745219
 31
0.0
  0
LINE
  5
C858
330
2
100
AcDbEntity
  8
AM_HID
  6
DASHED
100
AcDbLine
 10
1166.00225550434
 20
809.6168455745219
 30
0.0
 11
1166.305405110639
 21
809.6168455745219
 31
0.0
  0
LINE
  5
C859
330
2
100
AcDbEntity
  8
AM_HID
  6
DASHED
100
AcDbLine
 10
1168.312294874419
 20
809.8550345509
 30
0.0
 11
1168.324105898041
 21
809.8668455745219
 31
0.0
  0
LINE
  5
C85A
330
2
100
AcDbEntity
  8
AM_HID
  6
DASHED
100
AcDbLine
 10
1168.312294874419
 20
809.628656598144
 30
0.0
 11
1168.324105898041
 21
809.6168455745219
 31
0.0
  0
LINE
  5
C85B
330
2
100
AcDbEntity
  8
AM_HID
  6
DASHED
100
AcDbLine
 10
1168.54851534686
 20
809.6168455745219
 30
0.0
 11
1168.324105898041
 21
809.6168455745219
 31
0.0
  0
LINE
  5
C85C
330
2
100
AcDbEntity
  8
AM_HID
  6
DASHED
100
AcDbLine
 10
1168.54851534686
 20
809.8668455745219
 30
0.0
 11
1168.324105898041
 21
809.8668455745219
 31
0.0
  0
LINE
  5
C85D
330
2
100
AcDbEntity
  8
AM_HID
  6
DASHED
100
AcDbLine
 10
1165.9628854256
 20
809.8274754957817
 30
0.0
 11
1166.00225550434
 21
809.8668455745219
 31
0.0
  0
LINE
  5
C85E
330
2
100
AcDbEntity
  8
AM_HID
  6
DASHED
100
AcDbLine
 10
1165.9628854256
 20
809.656215653262
 30
0.0
 11
1166.00225550434
 21
809.6168455745219
 31
0.0
  0
LINE
  5
C85F
330
2
100
AcDbEntity
  8
AM_HID
  6
DASHED
100
AcDbLine
 10
1168.5878854256
 20
809.656215653262
 30
0.0
 11
1168.54851534686
 21
809.6168455745219
 31
0.0
  0
LINE
  5
C860
330
2
100
AcDbEntity
  8
AM_HID
  6
DASHED
100
AcDbLine
 10
1168.5878854256
 20
809.8274754957817
 30
0.0
 11
1168.54851534686
 21
809.8668455745219
 31
0.0
  0
LINE
  5
C861
330
2
100
AcDbEntity
  8
AM_HID
  6
DASHED
100
AcDbLine
 10
1166.317216134261
 20
809.8550345509
 30
0.0
 11
1166.734972118513
 21
809.8550345509
 31
0.0
  0
LINE
  5
C862
330
2
100
AcDbEntity
  8
AM_VIS
100
AcDbLine
 10
1166.734972118513
 20
809.8550345509
 30
0.0
 11
1167.999972118513
 21
809.8550345509
 31
0.0
  0
LINE
  5
C863
330
2
100
AcDbEntity
  8
AM_HID
  6
DASHED
100
AcDbLine
 10
1167.999972118513
 20
809.8550345509
 30
0.0
 11
1168.312294874419
 21
809.8550345509
 31
0.0
  0
LINE
  5
C864
330
2
100
AcDbEntity
  8
AM_HID
  6
DASHED
100
AcDbLine
 10
1166.317216134261
 20
809.628656598144
 30
0.0
 11
1166.734972118513
 21
809.628656598144
 31
0.0
  0
LINE
  5
C865
330
2
100
AcDbEntity
  8
AM_VIS
100
AcDbLine
 10
1166.734972118513
 20
809.628656598144
 30
0.0
 11
1167.999972118513
 21
809.628656598144
 31
0.0
  0
LINE
  5
C866
330
2
100
AcDbEntity
  8
AM_HID
  6
DASHED
100
AcDbLine
 10
1167.999972118513
 20
809.628656598144
 30
0.0
 11
1168.312294874419
 21
809.628656598144
 31
0.0
  0
LINE
  5
C867
330
2
100
AcDbEntity
  8
AM_HID
  6
DASHED
100
AcDbLine
 10
1166.317216134261
 20
809.7418455745218
 30
0.0
 11
1166.317216134261
 21
809.8550345509
 31
0.0
  0
LINE
  5
C868
330
2
100
AcDbEntity
  8
AM_HID
  6
DASHED
100
AcDbLine
 10
1166.317216134261
 20
809.628656598144
 30
0.0
 11
1166.317216134261
 21
809.7418455745218
 31
0.0
  0
LINE
  5
C869
330
2
100
AcDbEntity
  8
AM_HID
  6
DASHED
100
AcDbLine
 10
1166.305405110639
 20
809.6168455745219
 30
0.0
 11
1166.305405110639
 21
809.7418455745218
 31
0.0
  0
LINE
  5
C86A
330
2
100
AcDbEntity
  8
AM_HID
  6
DASHED
100
AcDbLine
 10
1166.305405110639
 20
809.7418455745218
 30
0.0
 11
1166.305405110639
 21
809.8668455745219
 31
0.0
  0
LINE
  5
C86B
330
2
100
AcDbEntity
  8
AM_HID
  6
DASHED
100
AcDbLine
 10
1166.00225550434
 20
809.8668455745219
 30
0.0
 11
1166.00225550434
 21
809.7418455745218
 31
0.0
  0
LINE
  5
C86C
330
2
100
AcDbEntity
  8
AM_HID
  6
DASHED
100
AcDbLine
 10
1166.00225550434
 20
809.7418455745218
 30
0.0
 11
1166.00225550434
 21
809.6168455745219
 31
0.0
  0
LINE
  5
C86D
330
2
100
AcDbEntity
  8
AM_HID
  6
DASHED
100
AcDbLine
 10
1168.312294874419
 20
809.7418455745218
 30
0.0
 11
1168.312294874419
 21
809.628656598144
 31
0.0
  0
LINE
  5
C86E
330
2
100
AcDbEntity
  8
AM_HID
  6
DASHED
100
AcDbLine
 10
1168.312294874419
 20
809.8550345509
 30
0.0
 11
1168.312294874419
 21
809.7418455745218
 31
0.0
  0
LINE
  5
C86F
330
2
100
AcDbEntity
  8
AM_HID
  6
DASHED
100
AcDbLine
 10
1168.324105898041
 20
809.8668455745219
 30
0.0
 11
1168.324105898041
 21
809.7418455745218
 31
0.0
  0
LINE
  5
C870
330
2
100
AcDbEntity
  8
AM_HID
  6
DASHED
100
AcDbLine
 10
1168.324105898041
 20
809.7418455745218
 30
0.0
 11
1168.324105898041
 21
809.6168455745219
 31
0.0
  0
LINE
  5
C871
330
2
100
AcDbEntity
  8
AM_HID
  6
DASHED
100
AcDbLine
 10
1168.54851534686
 20
809.6168455745219
 30
0.0
 11
1168.54851534686
 21
809.7418455745218
 31
0.0
  0
LINE
  5
C872
330
2
100
AcDbEntity
  8
AM_HID
  6
DASHED
100
AcDbLine
 10
1168.54851534686
 20
809.7418455745218
 30
0.0
 11
1168.54851534686
 21
809.8668455745219
 31
0.0
  0
LINE
  5
C873
330
2
100
AcDbEntity
  8
AM_HID
  6
DASHED
100
AcDbLine
 10
1165.9628854256
 20
809.656215653262
 30
0.0
 11
1165.9628854256
 21
809.7418455745218
 31
0.0
  0
LINE
  5
C874
330
2
100
AcDbEntity
  8
AM_HID
  6
DASHED
100
AcDbLine
 10
1165.9628854256
 20
809.7418455745218
 30
0.0
 11
1165.9628854256
 21
809.8274754957817
 31
0.0
  0
LINE
  5
C875
330
2
100
AcDbEntity
  8
AM_HID
  6
DASHED
100
AcDbLine
 10
1168.5878854256
 20
809.8274754957817
 30
0.0
 11
1168.5878854256
 21
809.7418455745218
 31
0.0
  0
LINE
  5
C876
330
2
100
AcDbEntity
  8
AM_HID
  6
DASHED
100
AcDbLine
 10
1168.5878854256
 20
809.7418455745218
 30
0.0
 11
1168.5878854256
 21
809.656215653262
 31
0.0
  0
LINE
  5
C8DF
330
2
100
AcDbEntity
  8
AM_VIS
100
AcDbLine
 10
1166.361271172603
 20
810.8059017044435
 30
0.0
 11
1166.39079884549
 21
810.8229495143332
 31
0.0
  0
LINE
  5
C8E0
330
2
100
AcDbEntity
  8
AM_VIS
100
AcDbLine
 10
1166.39079884549
 20
810.8229495143332
 30
0.0
 11
1166.420326310912
 21
810.8399972044434
 31
0.0
  0
LINE
  5
C8E1
330
2
100
AcDbEntity
  8
AM_VIS
100
AcDbLine
 10
1166.420326310912
 20
810.8399972044434
 30
0.0
 11
1166.4498539838
 21
810.8229493945536
 31
0.0
  0
LINE
  5
C8E2
330
2
100
AcDbEntity
  8
AM_VIS
100
AcDbLine
 10
1166.4498539838
 20
810.8229493945536
 30
0.0
 11
1166.479381449222
 21
810.8059017044435
 31
0.0
  0
LINE
  5
C8E3
330
2
100
AcDbEntity
  8
AM_VIS
100
AcDbLine
 10
1166.479381449222
 20
810.8059017044435
 30
0.0
 11
1166.479381449222
 21
810.7718062044432
 31
0.0
  0
LINE
  5
C8E4
330
2
100
AcDbEntity
  8
AM_VIS
100
AcDbLine
 10
1166.479381449222
 20
810.7718062044432
 30
0.0
 11
1166.479381449222
 21
810.7377107044435
 31
0.0
  0
LINE
  5
C8E5
330
2
100
AcDbEntity
  8
AM_VIS
100
AcDbLine
 10
1166.449853983799
 20
810.7206630143332
 30
0.0
 11
1166.479381449222
 21
810.7377107044435
 31
0.0
  0
LINE
  5
C8E6
330
2
100
AcDbEntity
  8
AM_VIS
100
AcDbLine
 10
1166.420326310912
 20
810.7036152044436
 30
0.0
 11
1166.449853983799
 21
810.7206630143332
 31
0.0
  0
LINE
  5
C8E7
330
2
100
AcDbEntity
  8
AM_VIS
100
AcDbLine
 10
1166.39079884549
 20
810.7206628945537
 30
0.0
 11
1166.420326310912
 21
810.7036152044436
 31
0.0
  0
LINE
  5
C8E8
330
2
100
AcDbEntity
  8
AM_VIS
100
AcDbLine
 10
1166.361271172603
 20
810.7377107044435
 30
0.0
 11
1166.39079884549
 21
810.7206628945537
 31
0.0
  0
LINE
  5
C8E9
330
2
100
AcDbEntity
  8
AM_VIS
100
AcDbLine
 10
1166.361271172603
 20
810.7718062044432
 30
0.0
 11
1166.361271172603
 21
810.7377107044435
 31
0.0
  0
LINE
  5
C8EA
330
2
100
AcDbEntity
  8
AM_VIS
100
AcDbLine
 10
1166.361271172603
 20
810.8059017044435
 30
0.0
 11
1166.361271172603
 21
810.7718062044432
 31
0.0
  0
CIRCLE
  5
C8EB
330
2
100
AcDbEntity
  8
AM_VIS
100
AcDbCircle
 10
1166.420326449222
 20
810.7718062044432
 30
0.0
 40
0.0787398830000139
  0
ARC
  5
C8EE
330
2
100
AcDbEntity
  8
AM_VIS
100
AcDbCircle
 10
1166.420326449222
 20
810.7718062044432
 30
0.0
 40
0.059055
100
AcDbArc
 50
180.0
 51
239.9999999999906
  0
ARC
  5
C8EF
330
2
100
AcDbEntity
  8
AM_VIS
100
AcDbCircle
 10
1166.420326449222
 20
810.7718062044432
 30
0.0
 40
0.059055
100
AcDbArc
 50
239.9999999999906
 51
300.0000000000095
  0
ARC
  5
C8F0
330
2
100
AcDbEntity
  8
AM_VIS
100
AcDbCircle
 10
1166.420326449222
 20
810.7718062044432
 30
0.0
 40
0.059055
100
AcDbArc
 50
300.0000000000095
 51
0.0
  0
ARC
  5
C8F1
330
2
100
AcDbEntity
  8
AM_VIS
100
AcDbCircle
 10
1166.420326449222
 20
810.7718062044432
 30
0.0
 40
0.059055
100
AcDbArc
 50
0.0
 51
59.99999999999055
  0
ARC
  5
C8F2
330
2
100
AcDbEntity
  8
AM_VIS
100
AcDbCircle
 10
1166.420326449222
 20
810.7718062044432
 30
0.0
 40
0.059055
100
AcDbArc
 50
59.99999999999055
 51
120.0000000000094
  0
ARC
  5
C8F3
330
2
100
AcDbEntity
  8
AM_VIS
100
AcDbCircle
 10
1166.420326449222
 20
810.7718062044432
 30
0.0
 40
0.059055
100
AcDbArc
 50
120.0000000000094
 51
180.0
  0
LINE
  5
C8F7
330
2
100
AcDbEntity
  8
AM_VIS
100
AcDbLine
 10
1168.255562511186
 20
810.8059017044435
 30
0.0
 11
1168.285090184072
 21
810.8229495143332
 31
0.0
  0
LINE
  5
C8F8
330
2
100
AcDbEntity
  8
AM_VIS
100
AcDbLine
 10
1168.285090184072
 20
810.8229495143332
 30
0.0
 11
1168.314617649495
 21
810.8399972044438
 31
0.0
  0
LINE
  5
C8F9
330
2
100
AcDbEntity
  8
AM_VIS
100
AcDbLine
 10
1168.314617649495
 20
810.8399972044438
 30
0.0
 11
1168.344145322382
 21
810.822949394554
 31
0.0
  0
LINE
  5
C8FA
330
2
100
AcDbEntity
  8
AM_VIS
100
AcDbLine
 10
1168.344145322382
 20
810.822949394554
 30
0.0
 11
1168.373672787805
 21
810.8059017044435
 31
0.0
  0
LINE
  5
C8FB
330
2
100
AcDbEntity
  8
AM_VIS
100
AcDbLine
 10
1168.373672787805
 20
810.8059017044435
 30
0.0
 11
1168.373672787805
 21
810.7718062044432
 31
0.0
  0
LINE
  5
C8FC
330
2
100
AcDbEntity
  8
AM_VIS
100
AcDbLine
 10
1168.373672787805
 20
810.7718062044432
 30
0.0
 11
1168.373672787805
 21
810.7377107044438
 31
0.0
  0
LINE
  5
C8FD
330
2
100
AcDbEntity
  8
AM_VIS
100
AcDbLine
 10
1168.344145322382
 20
810.7206630143332
 30
0.0
 11
1168.373672787805
 21
810.7377107044438
 31
0.0
  0
LINE
  5
C8FE
330
2
100
AcDbEntity
  8
AM_VIS
100
AcDbLine
 10
1168.314617649495
 20
810.7036152044436
 30
0.0
 11
1168.344145322382
 21
810.7206630143332
 31
0.0
  0
LINE
  5
C8FF
330
2
100
AcDbEntity
  8
AM_VIS
100
AcDbLine
 10
1168.285090184073
 20
810.7206628945538
 30
0.0
 11
1168.314617649495
 21
810.7036152044436
 31
0.0
  0
LINE
  5
C900
330
2
100
AcDbEntity
  8
AM_VIS
100
AcDbLine
 10
1168.255562511186
 20
810.7377107044438
 30
0.0
 11
1168.285090184073
 21
810.7206628945537
 31
0.0
  0
LINE
  5
C901
330
2
100
AcDbEntity
  8
AM_VIS
100
AcDbLine
 10
1168.255562511186
 20
810.7718062044432
 30
0.0
 11
1168.255562511186
 21
810.7377107044438
 31
0.0
  0
LINE
  5
C902
330
2
100
AcDbEntity
  8
AM_VIS
100
AcDbLine
 10
1168.255562511186
 20
810.8059017044435
 30
0.0
 11
1168.255562511186
 21
810.7718062044432
 31
0.0
  0
CIRCLE
  5
C903
330
2
100
AcDbEntity
  8
AM_VIS
100
AcDbCircle
 10
1168.314617787805
 20
810.7718062044432
 30
0.0
 40
0.0787398830000139
  0
ARC
  5
C906
330
2
100
AcDbEntity
  8
AM_VIS
100
AcDbCircle
 10
1168.314617787805
 20
810.7718062044432
 30
0.0
 40
0.059055
100
AcDbArc
 50
180.0
 51
239.9999999999906
  0
ARC
  5
C907
330
2
100
AcDbEntity
  8
AM_VIS
100
AcDbCircle
 10
1168.314617787805
 20
810.7718062044432
 30
0.0
 40
0.059055
100
AcDbArc
 50
239.9999999999906
 51
300.0000000000095
  0
ARC
  5
C908
330
2
100
AcDbEntity
  8
AM_VIS
100
AcDbCircle
 10
1168.314617787805
 20
810.7718062044432
 30
0.0
 40
0.059055
100
AcDbArc
 50
300.0000000000095
 51
0.0
  0
ARC
  5
C909
330
2
100
AcDbEntity
  8
AM_VIS
100
AcDbCircle
 10
1168.314617787805
 20
810.7718062044432
 30
0.0
 40
0.059055
100
AcDbArc
 50
0.0
 51
59.99999999999055
  0
ARC
  5
C90A
330
2
100
AcDbEntity
  8
AM_VIS
100
AcDbCircle
 10
1168.314617787805
 20
810.7718062044432
 30
0.0
 40
0.059055
100
AcDbArc
 50
59.99999999999055
 51
120.0000000000094
  0
ARC
  5
C90B
330
2
100
AcDbEntity
  8
AM_VIS
100
AcDbCircle
 10
1168.314617787805
 20
810.7718062044432
 30
0.0
 40
0.059055
100
AcDbArc
 50
120.0000000000094
 51
180.0
  0
LINE
  5
C90F
330
2
100
AcDbEntity
  8
AM_VIS
100
AcDbLine
 10
1166.572806105655
 20
810.811176282443
 30
0.0
 11
1166.574025640367
 21
810.811176282443
 31
0.0
  0
LINE
  5
C910
330
2
100
AcDbEntity
  8
AM_VIS
100
AcDbLine
 10
1166.574025640367
 20
810.7324361264431
 30
0.0
 11
1166.572806105655
 21
810.7324361264431
 31
0.0
  0
LINE
  5
C911
330
2
100
AcDbEntity
  8
AM_VIS
100
AcDbLine
 10
1166.463080557098
 20
810.6190137613705
 30
0.0
 11
1166.462470789741
 21
810.620069909412
 31
0.0
  0
LINE
  5
C912
330
2
100
AcDbEntity
  8
AM_VIS
100
AcDbLine
 10
1166.530661765135
 20
810.659439987412
 30
0.0
 11
1166.531271532492
 21
810.6583838393703
 31
0.0
  0
LINE
  5
C913
330
2
100
AcDbEntity
  8
AM_VIS
100
AcDbLine
 10
1166.462470789741
 20
810.9235424994743
 30
0.0
 11
1166.463080557098
 21
810.9245986475158
 31
0.0
  0
LINE
  5
C914
330
2
100
AcDbEntity
  8
AM_VIS
100
AcDbLine
 10
1166.531271532492
 20
810.8852285695158
 30
0.0
 11
1166.530661765135
 21
810.8841724214745
 31
0.0
  0
LINE
  5
C915
330
2
100
AcDbEntity
  8
AM_VIS
100
AcDbLine
 10
1166.309381365953
 20
810.6583838393703
 30
0.0
 11
1166.309991133309
 21
810.6594399874119
 31
0.0
  0
LINE
  5
C916
330
2
100
AcDbEntity
  8
AM_VIS
100
AcDbLine
 10
1166.378182108703
 20
810.620069909412
 30
0.0
 11
1166.377572341346
 21
810.6190137613705
 31
0.0
  0
LINE
  5
C917
330
2
100
AcDbEntity
  8
AM_VIS
100
AcDbLine
 10
1166.309991133309
 20
810.8841724214745
 30
0.0
 11
1166.309381365953
 21
810.8852285695158
 31
0.0
  0
LINE
  5
C918
330
2
100
AcDbEntity
  8
AM_VIS
100
AcDbLine
 10
1166.377572341346
 20
810.9245986475158
 30
0.0
 11
1166.378182108703
 21
810.9235424994743
 31
0.0
  0
LINE
  5
C919
330
2
100
AcDbEntity
  8
AM_VIS
100
AcDbLine
 10
1166.266627258077
 20
810.811176282443
 30
0.0
 11
1166.267846792789
 21
810.811176282443
 31
0.0
  0
LINE
  5
C91A
330
2
100
AcDbEntity
  8
AM_VIS
100
AcDbLine
 10
1166.267846792789
 20
810.7324361264431
 30
0.0
 11
1166.266627258077
 21
810.7324361264431
 31
0.0
  0
LINE
  5
C91B
330
2
100
AcDbEntity
  8
AM_VIS
100
AcDbLine
 10
1166.574025640367
 20
810.811176282443
 30
0.0
 11
1166.613199657466
 21
810.811176282443
 31
0.0
  0
LINE
  5
C91E
330
2
100
AcDbEntity
  8
AM_VIS
100
AcDbLine
 10
1166.574025640367
 20
810.7324361264431
 30
0.0
 11
1166.613199657466
 21
810.7324361264431
 31
0.0
  0
LINE
  5
C91F
330
2
100
AcDbEntity
  8
AM_VIS
100
AcDbLine
 10
1166.463080557098
 20
810.9245986475158
 30
0.0
 11
1166.482667565647
 21
810.9585243414919
 31
0.0
  0
LINE
  5
C922
330
2
100
AcDbEntity
  8
AM_VIS
100
AcDbLine
 10
1166.531271532492
 20
810.8852285695158
 30
0.0
 11
1166.550858541041
 21
810.9191542634926
 31
0.0
  0
LINE
  5
C924
330
2
100
AcDbEntity
  8
AM_VIS
100
AcDbLine
 10
1166.463080557098
 20
810.6190137613705
 30
0.0
 11
1166.482667565647
 21
810.5850880673942
 31
0.0
  0
LINE
  5
C925
330
2
100
AcDbEntity
  8
AM_VIS
100
AcDbLine
 10
1166.531271532492
 20
810.6583838393703
 30
0.0
 11
1166.550858541041
 21
810.6244581453941
 31
0.0
  0
LINE
  5
C928
330
2
100
AcDbEntity
  8
AM_VIS
100
AcDbLine
 10
1166.289794357403
 20
810.6244581453941
 30
0.0
 11
1166.309381365953
 21
810.6583838393703
 31
0.0
  0
LINE
  5
C929
330
2
100
AcDbEntity
  8
AM_VIS
100
AcDbLine
 10
1166.357985332797
 20
810.5850880673942
 30
0.0
 11
1166.377572341346
 21
810.6190137613705
 31
0.0
  0
LINE
  5
C92B
330
2
100
AcDbEntity
  8
AM_VIS
100
AcDbLine
 10
1166.289794357403
 20
810.9191542634921
 30
0.0
 11
1166.309381365953
 21
810.8852285695158
 31
0.0
  0
LINE
  5
C92E
330
2
100
AcDbEntity
  8
AM_VIS
100
AcDbLine
 10
1166.357985332797
 20
810.9585243414919
 30
0.0
 11
1166.377572341346
 21
810.9245986475158
 31
0.0
  0
LINE
  5
C92F
330
2
100
AcDbEntity
  8
AM_VIS
100
AcDbLine
 10
1166.227453240978
 20
810.7324361264431
 30
0.0
 11
1166.266627258077
 21
810.7324361264431
 31
0.0
  0
LINE
  5
C932
330
2
100
AcDbEntity
  8
AM_VIS
100
AcDbLine
 10
1166.227453240978
 20
810.811176282443
 30
0.0
 11
1166.266627258077
 21
810.811176282443
 31
0.0
  0
ARC
  5
C933
330
2
100
AcDbEntity
  8
AM_VIS
100
AcDbCircle
 10
1166.420326449222
 20
810.7718062044432
 30
0.0
 40
0.1586614143399932
100
AcDbArc
 50
345.632587417166
 51
14.36741258283407
  0
ARC
  5
C934
330
2
100
AcDbEntity
  8
AM_VIS
100
AcDbCircle
 10
1166.420326449222
 20
810.7718062044432
 30
0.0
 40
0.1586614143399932
100
AcDbArc
 50
285.632587417164
 51
314.3674125828371
  0
ARC
  5
C935
330
2
100
AcDbEntity
  8
AM_VIS
100
AcDbCircle
 10
1166.420326449222
 20
810.7718062044432
 30
0.0
 40
0.1586614143399932
100
AcDbArc
 50
45.63258741716296
 51
74.36741258284226
  0
ARC
  5
C936
330
2
100
AcDbEntity
  8
AM_VIS
100
AcDbCircle
 10
1166.420326449222
 20
810.7718062044432
 30
0.0
 40
0.1586614143399932
100
AcDbArc
 50
225.632587417163
 51
254.3674125828423
  0
ARC
  5
C937
330
2
100
AcDbEntity
  8
AM_VIS
100
AcDbCircle
 10
1166.420326449222
 20
810.7718062044432
 30
0.0
 40
0.1586614143399932
100
AcDbArc
 50
105.632587417164
 51
134.367412582837
  0
ARC
  5
C938
330
2
100
AcDbEntity
  8
AM_VIS
100
AcDbCircle
 10
1166.420326449222
 20
810.7718062044432
 30
0.0
 40
0.1586614143399932
100
AcDbArc
 50
165.6325874171659
 51
194.367412582834
  0
CIRCLE
  5
C93F
330
2
100
AcDbEntity
  8
AM_VIS
100
AcDbCircle
 10
1166.420326449222
 20
810.7718062044432
 30
0.0
 40
0.1574803119999933
  0
CIRCLE
  5
C940
330
2
100
AcDbEntity
  8
AM_VIS
100
AcDbCircle
 10
1166.420326449222
 20
810.7718062044432
 30
0.0
 40
0.0984251949999958
  0
LINE
  5
C941
330
2
100
AcDbEntity
  8
AM_VIS
100
AcDbLine
 10
1168.467097444237
 20
810.8111762824432
 30
0.0
 11
1168.46831697895
 21
810.8111762824432
 31
0.0
  0
LINE
  5
C942
330
2
100
AcDbEntity
  8
AM_VIS
100
AcDbLine
 10
1168.46831697895
 20
810.7324361264431
 30
0.0
 11
1168.467097444237
 21
810.7324361264431
 31
0.0
  0
LINE
  5
C943
330
2
100
AcDbEntity
  8
AM_VIS
100
AcDbLine
 10
1168.35737189568
 20
810.6190137613705
 30
0.0
 11
1168.356762128324
 21
810.620069909412
 31
0.0
  0
LINE
  5
C944
330
2
100
AcDbEntity
  8
AM_VIS
100
AcDbLine
 10
1168.424953103718
 20
810.659439987412
 30
0.0
 11
1168.425562871074
 21
810.6583838393705
 31
0.0
  0
LINE
  5
C945
330
2
100
AcDbEntity
  8
AM_VIS
100
AcDbLine
 10
1168.356762128324
 20
810.9235424994745
 30
0.0
 11
1168.35737189568
 21
810.9245986475158
 31
0.0
  0
LINE
  5
C946
330
2
100
AcDbEntity
  8
AM_VIS
100
AcDbLine
 10
1168.425562871074
 20
810.8852285695158
 30
0.0
 11
1168.424953103718
 21
810.8841724214745
 31
0.0
  0
LINE
  5
C947
330
2
100
AcDbEntity
  8
AM_VIS
100
AcDbLine
 10
1168.203672704535
 20
810.6583838393705
 30
0.0
 11
1168.204282471891
 21
810.659439987412
 31
0.0
  0
LINE
  5
C948
330
2
100
AcDbEntity
  8
AM_VIS
100
AcDbLine
 10
1168.272473447285
 20
810.620069909412
 30
0.0
 11
1168.271863679929
 21
810.6190137613705
 31
0.0
  0
LINE
  5
C949
330
2
100
AcDbEntity
  8
AM_VIS
100
AcDbLine
 10
1168.204282471891
 20
810.8841724214745
 30
0.0
 11
1168.203672704535
 21
810.8852285695158
 31
0.0
  0
LINE
  5
C94A
330
2
100
AcDbEntity
  8
AM_VIS
100
AcDbLine
 10
1168.271863679929
 20
810.9245986475158
 30
0.0
 11
1168.272473447285
 21
810.9235424994745
 31
0.0
  0
LINE
  5
C94B
330
2
100
AcDbEntity
  8
AM_VIS
100
AcDbLine
 10
1168.16091859666
 20
810.8111762824432
 30
0.0
 11
1168.162138131372
 21
810.8111762824432
 31
0.0
  0
LINE
  5
C94C
330
2
100
AcDbEntity
  8
AM_VIS
100
AcDbLine
 10
1168.162138131372
 20
810.7324361264431
 30
0.0
 11
1168.16091859666
 21
810.7324361264431
 31
0.0
  0
LINE
  5
C94D
330
2
100
AcDbEntity
  8
AM_VIS
100
AcDbLine
 10
1168.46831697895
 20
810.8111762824432
 30
0.0
 11
1168.507490996049
 21
810.8111762824432
 31
0.0
  0
LINE
  5
C950
330
2
100
AcDbEntity
  8
AM_VIS
100
AcDbLine
 10
1168.46831697895
 20
810.7324361264431
 30
0.0
 11
1168.507490996049
 21
810.7324361264431
 31
0.0
  0
LINE
  5
C951
330
2
100
AcDbEntity
  8
AM_VIS
100
AcDbLine
 10
1168.35737189568
 20
810.9245986475158
 30
0.0
 11
1168.37695890423
 21
810.9585243414919
 31
0.0
  0
LINE
  5
C952
330
2
100
AcDbEntity
  8
AM_HID
100
AcDbLine
 10
1168.37695890423
 20
810.9585243414919
 30
0.0
 11
1168.379970719694
 21
810.963740958898
 31
0.0
  0
LINE
  5
C953
330
2
100
AcDbEntity
  8
AM_HID
100
AcDbLine
 10
1168.445149879624
 20
810.9191542634926
 30
0.0
 11
1168.448161695088
 21
810.9243708808984
 31
0.0
  0
LINE
  5
C954
330
2
100
AcDbEntity
  8
AM_VIS
100
AcDbLine
 10
1168.425562871074
 20
810.8852285695158
 30
0.0
 11
1168.445149879624
 21
810.9191542634926
 31
0.0
  0
LINE
  5
C956
330
2
100
AcDbEntity
  8
AM_VIS
100
AcDbLine
 10
1168.35737189568
 20
810.6190137613705
 30
0.0
 11
1168.37695890423
 21
810.5850880673942
 31
0.0
  0
LINE
  5
C957
330
2
100
AcDbEntity
  8
AM_VIS
100
AcDbLine
 10
1168.425562871074
 20
810.6583838393705
 30
0.0
 11
1168.445149879624
 21
810.6244581453941
 31
0.0
  0
LINE
  5
C95A
330
2
100
AcDbEntity
  8
AM_VIS
100
AcDbLine
 10
1168.184085695985
 20
810.6244581453941
 30
0.0
 11
1168.203672704535
 21
810.6583838393705
 31
0.0
  0
LINE
  5
C95B
330
2
100
AcDbEntity
  8
AM_VIS
100
AcDbLine
 10
1168.25227667138
 20
810.5850880673942
 30
0.0
 11
1168.271863679929
 21
810.6190137613705
 31
0.0
  0
LINE
  5
C95D
330
2
100
AcDbEntity
  8
AM_VIS
100
AcDbLine
 10
1168.184085695986
 20
810.9191542634921
 30
0.0
 11
1168.203672704535
 21
810.8852285695158
 31
0.0
  0
LINE
  5
C95F
330
2
100
AcDbEntity
  8
AM_HID
100
AcDbLine
 10
1168.249264855916
 20
810.963740958898
 30
0.0
 11
1168.25227667138
 21
810.9585243414919
 31
0.0
  0
LINE
  5
C960
330
2
100
AcDbEntity
  8
AM_VIS
100
AcDbLine
 10
1168.25227667138
 20
810.9585243414919
 30
0.0
 11
1168.271863679929
 21
810.9245986475158
 31
0.0
  0
LINE
  5
C961
330
2
100
AcDbEntity
  8
AM_VIS
100
AcDbLine
 10
1168.121744579561
 20
810.7324361264431
 30
0.0
 11
1168.16091859666
 21
810.7324361264431
 31
0.0
  0
LINE
  5
C964
330
2
100
AcDbEntity
  8
AM_VIS
100
AcDbLine
 10
1168.121744579561
 20
810.8111762824432
 30
0.0
 11
1168.16091859666
 21
810.8111762824432
 31
0.0
  0
ARC
  5
C965
330
2
100
AcDbEntity
  8
AM_VIS
100
AcDbCircle
 10
1168.314617787805
 20
810.7718062044432
 30
0.0
 40
0.1586614143399932
100
AcDbArc
 50
345.632587417166
 51
14.36741258283407
  0
ARC
  5
C966
330
2
100
AcDbEntity
  8
AM_VIS
100
AcDbCircle
 10
1168.314617787805
 20
810.7718062044432
 30
0.0
 40
0.1586614143399932
100
AcDbArc
 50
285.632587417164
 51
314.3674125828371
  0
ARC
  5
C967
330
2
100
AcDbEntity
  8
AM_VIS
100
AcDbCircle
 10
1168.314617787805
 20
810.7718062044432
 30
0.0
 40
0.1586614143399932
100
AcDbArc
 50
45.63258741716296
 51
74.36741258284226
  0
ARC
  5
C968
330
2
100
AcDbEntity
  8
AM_VIS
100
AcDbCircle
 10
1168.314617787805
 20
810.7718062044432
 30
0.0
 40
0.1586614143399932
100
AcDbArc
 50
225.632587417163
 51
254.3674125828423
  0
ARC
  5
C969
330
2
100
AcDbEntity
  8
AM_VIS
100
AcDbCircle
 10
1168.314617787805
 20
810.7718062044432
 30
0.0
 40
0.1586614143399932
100
AcDbArc
 50
105.632587417164
 51
134.367412582837
  0
ARC
  5
C96A
330
2
100
AcDbEntity
  8
AM_VIS
100
AcDbCircle
 10
1168.314617787805
 20
810.7718062044432
 30
0.0
 40
0.1586614143399932
100
AcDbArc
 50
165.6325874171659
 51
194.367412582834
  0
ARC
  5
C96C
330
2
100
AcDbEntity
  8
AM_HID
100
AcDbCircle
 10
1168.314617787805
 20
810.7718062044432
 30
0.0
 40
0.2027559016999913
100
AcDbArc
 50
48.80348075098319
 51
71.19651924901612
  0
CIRCLE
  5
C971
330
2
100
AcDbEntity
  8
AM_VIS
100
AcDbCircle
 10
1168.314617787805
 20
810.7718062044432
 30
0.0
 40
0.1574803119999933
  0
CIRCLE
  5
C972
330
2
100
AcDbEntity
  8
AM_VIS
100
AcDbCircle
 10
1168.314617787805
 20
810.7718062044432
 30
0.0
 40
0.0984251949999958
  0
SPLINE
  5
C975
330
2
100
AcDbEntity
  8
AM_VIS
100
AcDbSpline
210
0.0
220
0.0
230
1.0
 70
    12
 71
     2
 72
     6
 73
     3
 74
     0
 42
0.0000000001
 43
0.0000000001
 40
0.0
 40
0.0
 40
0.0
 40
0.4004094078944483
 40
0.4004094078944483
 40
0.4004094078944483
 10
1164.25012827922
 20
810.2581855745217
 30
0.0
 41
1.0
 10
1164.296446618904
 20
810.1588555745214
 30
0.0
 41
1.154700538378608
 10
1164.25012827922
 20
810.0595255745215
 30
0.0
 41
1.0
  0
LINE
  5
C976
330
2
100
AcDbEntity
  8
AM_VIS
100
AcDbLine
 10
1164.25012827922
 20
810.2581855745217
 30
0.0
 11
1164.049855327886
 21
810.2581855745217
 31
0.0
  0
SPLINE
  5
C977
330
2
100
AcDbEntity
  8
AM_VIS
100
AcDbSpline
210
0.0
220
0.0
230
1.0
 70
    12
 71
     2
 72
     6
 73
     3
 74
     0
 42
0.0000000001
 43
0.0000000001
 40
0.0
 40
0.0
 40
0.0
 40
0.4004094078946155
 40
0.4004094078946155
 40
0.4004094078946155
 10
1164.049855327886
 20
810.0595255745215
 30
0.0
 41
1.0
 10
1164.003536988201
 20
810.158855574522
 30
0.0
 41
1.154700538378404
 10
1164.049855327886
 20
810.2581855745217
 30
0.0
 41
1.0
  0
LINE
  5
C978
330
2
100
AcDbEntity
  8
AM_VIS
100
AcDbLine
 10
1164.25012827922
 20
810.0595255745217
 30
0.0
 11
1164.049855327886
 21
810.0595255745217
 31
0.0
  0
LINE
  5
C979
330
2
100
AcDbEntity
  8
AM_VIS
100
AcDbLine
 10
1164.25012827922
 20
810.8541655745218
 30
0.0
 11
1164.049855327886
 21
810.8541655745218
 31
0.0
  0
SPLINE
  5
C97A
330
2
100
AcDbEntity
  8
AM_VIS
100
AcDbSpline
210
0.0
220
0.0
230
1.0
 70
    12
 71
     2
 72
     6
 73
     3
 74
     0
 42
0.0000000001
 43
0.0000000001
 40
0.0
 40
0.0
 40
0.0
 40
0.4004094078944389
 40
0.4004094078944389
 40
0.4004094078944389
 10
1164.25012827922
 20
810.8541655745218
 30
0.0
 41
1.0
 10
1164.296446618904
 20
810.7548355745219
 30
0.0
 41
1.154700538378608
 10
1164.25012827922
 20
810.6555055745218
 30
0.0
 41
1.0
  0
SPLINE
  5
C97B
330
2
100
AcDbEntity
  8
AM_VIS
100
AcDbSpline
210
0.0
220
0.0
230
1.0
 70
    12
 71
     2
 72
     6
 73
     3
 74
     0
 42
0.0000000001
 43
0.0000000001
 40
0.0
 40
0.0
 40
0.0
 40
0.4004094078946175
 40
0.4004094078946175
 40
0.4004094078946175
 10
1164.049855327886
 20
810.6555055745218
 30
0.0
 41
1.0
 10
1164.003536988201
 20
810.7548355745221
 30
0.0
 41
1.154700538378404
 10
1164.049855327886
 20
810.8541655745218
 30
0.0
 41
1.0
  0
LINE
  5
C97C
330
2
100
AcDbEntity
  8
AM_VIS
100
AcDbLine
 10
1164.25012827922
 20
810.6555055745218
 30
0.0
 11
1164.049855327886
 21
810.6555055745218
 31
0.0
  0
SPLINE
  5
C97D
330
2
100
AcDbEntity
  8
AM_VIS
100
AcDbSpline
210
0.0
220
0.0
230
1.0
 70
    12
 71
     2
 72
     6
 73
     3
 74
     0
 42
0.0000000001
 43
0.0000000001
 40
0.0
 40
0.0
 40
0.0
 40
0.4004094078944577
 40
0.4004094078944577
 40
0.4004094078944577
 10
1164.25012827922
 20
810.6555055745218
 30
0.0
 41
1.0
 10
1164.296446618904
 20
810.4568455745218
 30
0.0
 41
1.154700538378608
 10
1164.25012827922
 20
810.2581855745217
 30
0.0
 41
1.0
  0
SPLINE
  5
C97E
330
2
100
AcDbEntity
  8
AM_VIS
100
AcDbSpline
210
0.0
220
0.0
230
1.0
 70
    12
 71
     2
 72
     6
 73
     3
 74
     0
 42
0.0000000001
 43
0.0000000001
 40
0.0
 40
0.0
 40
0.0
 40
0.4004094078946065
 40
0.4004094078946065
 40
0.4004094078946065
 10
1164.049855327886
 20
810.2581855745217
 30
0.0
 41
1.0
 10
1164.003536988201
 20
810.4568455745218
 30
0.0
 41
1.154700538378404
 10
1164.049855327886
 20
810.655505574522
 30
0.0
 41
1.0
  0
LINE
  5
C985
330
2
100
AcDbEntity
  8
AM_VIS
100
AcDbLine
 10
1164.024991803553
 20
810.8008455745219
 30
0.0
 11
1164.049855327886
 21
810.8541655745218
 31
0.0
  0
LINE
  5
C986
330
2
100
AcDbEntity
  8
AM_VIS
100
AcDbLine
 10
1164.024991803553
 20
810.1128455745218
 30
0.0
 11
1164.049855327886
 21
810.0595255745217
 31
0.0
  0
LINE
  5
C987
330
2
100
AcDbEntity
  8
AM_VIS
100
AcDbLine
 10
1164.274991803553
 20
810.1128455745218
 30
0.0
 11
1164.25012827922
 21
810.0595255745217
 31
0.0
  0
LINE
  5
C988
330
2
100
AcDbEntity
  8
AM_VIS
100
AcDbLine
 10
1164.274991803553
 20
810.8008455745219
 30
0.0
 11
1164.25012827922
 21
810.8541655745218
 31
0.0
  0
LINE
  5
C98B
330
2
100
AcDbEntity
  8
AM_VIS
100
AcDbLine
 10
1164.024991803553
 20
810.112845574522
 30
0.0
 11
1164.024991803553
 21
810.8008455745219
 31
0.0
  0
LINE
  5
C98C
330
2
100
AcDbEntity
  8
AM_VIS
100
AcDbLine
 10
1164.274991803553
 20
810.1128455745218
 30
0.0
 11
1164.274991803553
 21
810.8008455745219
 31
0.0
  0
DIMENSION
  5
D95A
102
{ACAD_REACTORS
330
FFCD
330
FFE7
102
}
330
2
100
AcDbEntity
  8
DIM
  6
HIDDEN2
 62
     5
 48
0.5
100
AcDbDimension
  2
*D1
 10
1166.734972118513
 20
809.073470873731
 30
0.0
 11
1166.104972118513
 21
809.2048994451596
 31
0.0
 70
    32
 71
     5
 42
1.259999999999763
  3
STANDARD
100
AcDbAlignedDimension
 13
1165.474972118514
 23
809.4568455745218
 33
0.0
 14
1166.734972118513
 24
809.4568455745218
 34
0.0
100
AcDbRotatedDimension
  0
DIMENSION
  5
D970
102
{ACAD_REACTORS
330
FFCD
102
}
330
2
100
AcDbEntity
  8
DIM
 62
     5
 48
0.5
100
AcDbDimension
  2
*D2
 10
1169.099972118514
 20
809.072600450027
 30
0.0
 11
1169.811400689942
 21
809.072600450027
 31
0.0
 70
   160
 71
     5
 42
1.100000000000136
  3
STANDARD
100
AcDbAlignedDimension
 13
1167.999972118513
 23
809.4568455745218
 33
0.0
 14
1169.099972118514
 24
809.4568455745218
 34
0.0
100
AcDbRotatedDimension
  0
DIMENSION
  5
D97E
330
2
100
AcDbEntity
  8
DIM
 62
     5
 48
0.5
100
AcDbDimension
  2
*D3
 10
1164.858583182518
 20
808.7118355350122
 30
0.0
 11
1165.53572603966
 21
808.8432641064409
 31
0.0
 70
    32
 71
     5
 42
0.3835913789648657
  3
STANDARD
100
AcDbAlignedDimension
 13
1164.474991803553
 23
810.2230857320021
 33
0.0
 14
1164.858583182518
 24
809.8943455745217
 34
0.0
100
AcDbRotatedDimension
  0
DIMENSION
  5
D98D
330
2
100
AcDbEntity
  8
DIM
 62
     5
 48
0.5
100
AcDbDimension
  2
*D4
 10
1163.724991803553
 20
808.7118355350122
 30
0.0
 11
1163.002134660696
 21
808.8432641064409
 31
0.0
 70
    32
 71
     5
 42
0.75
  3
STANDARD
100
AcDbAlignedDimension
 13
1164.474991803553
 23
810.2230857320021
 33
0.0
 14
1163.724991803553
 24
810.2772156532621
 34
0.0
100
AcDbRotatedDimension
  0
DIMENSION
  5
D99B
102
{ACAD_REACTORS
330
10450
330
10469
102
}
330
2
100
AcDbEntity
  8
DIM
 62
     5
 48
0.5
100
AcDbDimension
  2
*D5
 10
1166.184972118514
 20
812.4574766241398
 30
0.0
 11
1165.329981961033
 21
812.5889051955685
 31
0.0
 70
    32
 71
     5
 42
1.70998031496083
  3
STANDARD
100
AcDbAlignedDimension
 13
1164.474991803553
 23
810.6906054170416
 33
0.0
 14
1166.184972118514
 24
811.5048348098547
 34
0.0
100
AcDbRotatedDimension
  0
DIMENSION
  5
D9B5
330
2
100
AcDbEntity
  8
DIM
 62
     5
 48
0.5
100
AcDbDimension
  2
*D6
 10
1169.688091122568
 20
811.0155060700629
 30
0.0
 11
1169.556662551139
 21
811.7812203557772
 31
0.0
 70
    32
  1
%%c<>
 71
     5
 42
1.117320991082124
  3
STANDARD
100
AcDbAlignedDimension
 13
1169.224972118513
 23
809.8981850789808
 33
0.0
 14
1169.224972118513
 24
811.0155060700629
 34
0.0
 50
90.0
100
AcDbRotatedDimension
  0
DIMENSION
  5
D9C3
102
{ACAD_XDICTIONARY
360
FFE6
102
}
102
{ACAD_REACTORS
330
FFCD
330
FFE7
102
}
330
2
100
AcDbEntity
  8
DIM
 62
     5
 48
0.5
100
AcDbDimension
  2
*D7
 10
1166.412472118514
 20
808.3605662358229
 30
0.0
 11
1165.443731961033
 21
808.4919948072515
 31
0.0
 70
    32
 71
     5
 42
1.937480314960794
  3
STANDARD
100
AcDbAlignedDimension
 13
1164.474991803553
 23
810.2230857320021
 33
0.0
 14
1166.412472118514
 24
809.3862156532621
 34
0.0
100
AcDbRotatedDimension
  0
DIMENSION
  5
D9EC
330
2
100
AcDbEntity
  8
DIM
 62
     5
 48
0.5
100
AcDbDimension
  2
*D8
 10
1167.191997851812
 20
810.4568455745218
 30
0.0
 11
1167.191997851812
 21
809.168610143911
 31
0.0
 70
   160
 71
     5
 42
0.2755905511812671
  3
STANDARD
100
AcDbAlignedDimension
 13
1167.025031252372
 23
810.7324361257031
 33
0.0
 14
1166.734972118513
 24
810.4568455745218
 34
0.0
 50
90.0
100
AcDbRotatedDimension
  0
DIMENSION
  5
D9FB
102
{ACAD_XDICTIONARY
360
10468
102
}
102
{ACAD_REACTORS
330
10450
330
10469
102
}
330
2
100
AcDbEntity
  8
DIM
 62
     5
 48
0.5
100
AcDbDimension
  2
*D9
 10
1164.474991803553
 20
812.8304880595589
 30
0.0
 11
1164.974981961033
 21
812.9619166309876
 31
0.0
 70
    32
  1
<>
 71
     5
 42
0.9999803149607942
  3
STANDARD
100
AcDbAlignedDimension
 13
1165.474972118514
 23
811.4456751837497
 33
0.0
 14
1164.474991803553
 24
810.6906054170416
 34
0.0
100
AcDbRotatedDimension
  0
DIMENSION
  5
DA44
330
2
100
AcDbEntity
  8
DIM
 62
     5
 48
0.5
100
AcDbDimension
  2
*D10
 10
1168.549972118513
 20
812.4574766241398
 30
0.0
 11
1167.367472118513
 21
812.4574766241398
 31
0.0
 70
   160
 71
     5
 42
2.364999999999781
  3
STANDARD
100
AcDbAlignedDimension
 13
1166.184972118514
 23
811.5048348098547
 33
0.0
 14
1168.549972118513
 24
811.5051466283288
 34
0.0
100
AcDbRotatedDimension
  0
DIMENSION
  5
DA51
102
{ACAD_XDICTIONARY
360
1044F
102
}
102
{ACAD_REACTORS
330
10450
102
}
330
2
100
AcDbEntity
  8
DIM
 62
     5
 48
0.5
100
AcDbDimension
  2
*D11
 10
1169.099972118514
 20
812.8304880595589
 30
0.0
 11
1167.287472118514
 21
812.8304880595589
 31
0.0
 70
   160
 71
     5
 42
3.625
  3
STANDARD
100
AcDbAlignedDimension
 13
1165.474972118514
 23
811.4456751837497
 33
0.0
 14
1169.099972118514
 24
811.4470714825964
 34
0.0
100
AcDbRotatedDimension
  0
DIMENSION
  5
DA5E
102
{ACAD_REACTORS
330
10469
102
}
330
2
100
AcDbEntity
  8
DIM
 62
     5
 48
0.5
100
AcDbDimension
  2
*D12
 10
1169.224972118513
 20
813.2322063007746
 30
0.0
 11
1166.849981961033
 21
813.3636348722033
 31
0.0
 70
    32
 71
     5
 42
4.749980314960794
  3
STANDARD
100
AcDbAlignedDimension
 13
1164.474991803553
 23
810.6906054170416
 33
0.0
 14
1169.224972118513
 24
811.0155060700629
 34
0.0
100
AcDbRotatedDimension
  0
DIMENSION
  5
DA6B
102
{ACAD_XDICTIONARY
360
FFCC
102
}
102
{ACAD_REACTORS
330
FFCD
102
}
330
2
100
AcDbEntity
  8
DIM
 62
     5
 48
0.5
100
AcDbDimension
  2
*D13
 10
1168.662472118514
 20
808.3605662358229
 30
0.0
 11
1167.537472118514
 21
808.4919948072515
 31
0.0
 70
    32
 71
     5
 42
2.25
  3
STANDARD
100
AcDbAlignedDimension
 13
1166.412472118514
 23
809.3862156532621
 33
0.0
 14
1168.662472118514
 24
809.3665306138918
 34
0.0
100
AcDbRotatedDimension
  0
DIMENSION
  5
DAF4
102
{ACAD_REACTORS
330
FF9A
102
}
330
2
100
AcDbEntity
  8
DIM
 62
     5
 48
0.5
100
AcDbDimension
  2
*D14
 10
1159.066499827307
 20
809.4568455745218
 30
0.0
 11
1158.935071255878
 21
810.4567583058441
 31
0.0
 70
    32
 71
     5
 42
1.999825462644366
  3
STANDARD
100
AcDbAlignedDimension
 13
1159.871715506171
 23
811.4566710371661
 33
0.0
 14
1159.753295900793
 24
809.4568455745218
 34
0.0
 50
90.0
100
AcDbRotatedDimension
  0
DIMENSION
  5
DB0F
102
{ACAD_XDICTIONARY
360
FFB3
102
}
102
{ACAD_REACTORS
330
FFB4
102
}
330
2
100
AcDbEntity
  8
DIM
 62
     5
 48
0.5
100
AcDbDimension
  2
*D15
 10
1161.336550488049
 20
808.7205420099826
 30
0.0
 11
1160.621550488049
 21
808.8519705814112
 31
0.0
 70
    32
 71
     5
 42
1.430000000000063
  3
STANDARD
100
AcDbAlignedDimension
 13
1159.906550488049
 23
809.3505955745218
 33
0.0
 14
1161.336550488049
 24
809.3505955745218
 34
0.0
100
AcDbRotatedDimension
  0
DIMENSION
  5
DB1C
102
{ACAD_XDICTIONARY
360
FF99
102
}
102
{ACAD_REACTORS
330
FF9A
102
}
330
2
100
AcDbEntity
  8
DIM
 62
     5
 48
0.5
100
AcDbDimension
  2
*D16
 10
1161.621375950693
 20
808.3130593751748
 30
0.0
 11
1160.621550488049
 21
808.4444879466033
 31
0.0
 70
    32
 71
     5
 42
1.999650925288506
  3
STANDARD
100
AcDbAlignedDimension
 13
1159.621725025405
 23
809.6770105926436
 33
0.0
 14
1161.621375950693
 24
809.6770105926438
 34
0.0
100
AcDbRotatedDimension
  0
DIMENSION
  5
DB29
102
{ACAD_REACTORS
330
FFE7
330
10469
102
}
330
2
100
AcDbEntity
  8
DIM
 62
     5
 48
0.5
100
AcDbDimension
  2
*D17
 10
1163.445185842484
 20
810.7693455745218
 30
0.0
 11
1163.445185842484
 21
811.7491601385367
 31
0.0
 70
   160
  1
%%c<>
 71
     5
 42
0.625
  3
STANDARD
100
AcDbAlignedDimension
 13
1164.553731961033
 23
810.1443455745219
 33
0.0
 14
1164.553731961033
 24
810.7693455745218
 34
0.0
 50
90.0
100
AcDbRotatedDimension
  0
DIMENSION
  5
DB37
102
{ACAD_REACTORS
330
FFE7
330
10469
102
}
330
2
100
AcDbEntity
  8
DIM
 62
     5
 48
0.5
100
AcDbDimension
  2
*D18
 10
1163.055686947226
 20
811.0193455745218
 30
0.0
 11
1162.924258375797
 21
811.7850598602361
 31
0.0
 70
    32
  1
%%c<>
 71
     5
 42
1.125
  3
STANDARD
100
AcDbAlignedDimension
 13
1164.858583182518
 23
809.8943455745217
 33
0.0
 14
1164.858583182518
 24
811.0193455745218
 34
0.0
 50
90.0
100
AcDbRotatedDimension
  0
DIMENSION
  5
DB45
102
{ACAD_REACTORS
330
FF9A
102
}
330
2
100
AcDbEntity
  8
DIM
 62
     5
 48
0.5
100
AcDbDimension
  2
*D19
 10
1159.447259188468
 20
810.4568455745218
 30
0.0
 11
1159.315830617039
 21
809.9568455745218
 31
0.0
 70
    32
 71
     5
  3
STANDARD
100
AcDbAlignedDimension
 13
1159.753295900793
 23
809.4568455745218
 33
0.0
 14
1159.645408755766
 24
810.4568455745218
 34
0.0
 50
90.0
100
AcDbRotatedDimension
  0
ARC
  5
DB64
330
2
100
AcDbEntity
  8
DIM
  6
CENTER
 62
     1
 48
0.5
100
AcDbCircle
 10
1160.621550488049
 20
810.4568455745218
 30
0.0
 40
1.01
100
AcDbArc
 50
29.76734414149877
 51
60.86567372444055
  0
ARC
  5
DB65
330
2
100
AcDbEntity
  8
DIM
  6
CENTER
 62
     1
 48
0.5
100
AcDbCircle
 10
1160.621550488049
 20
810.4568455745218
 30
0.0
 40
1.01
100
AcDbArc
 50
202.3131083799555
 51
241.4967969402864
  0
DIMENSION
  5
DB76
330
2
100
AcDbEntity
  8
DIM
 48
0.5
100
AcDbDimension
  2
*D20
 10
1160.129823124536
 20
809.5746300679858
 30
0.0
 11
1161.456124780261
 21
812.2241200920104
 31
0.0
 70
    35
 71
     5
 42
2.019999999999527
  3
STANDARD
100
AcDbDiametricDimension
 15
1161.113277851561
 25
811.3390610810572
 35
0.0
 40
0.0
1001
ACAD
1000
DSTYLE
1002
{
1070
   287
1070
     4
1070
   287
1070
     4
1070
   287
1070
     4
1070
   287
1070
     4
1070
   287
1070
     4
1070
   287
1070
     4
1070
   279
1070
     1
1070
   288
1070
     1
1002
}
  0
TEXT
  5
DC49
330
2
100
AcDbEntity
  8
DIM
 48
0.5
100
AcDbText
 10
1158.344587122726
 20
809.0975031144818
 30
0.0
 40
0.12
  1
4-1/4-20
  7
CHINESET
100
AcDbText
  0
TEXT
  5
DC4A
330
2
100
AcDbEntity
  8
DIM
 48
0.5
100
AcDbText
 10
1158.343316960194
 20
808.8519342518502
 30
0.0
 40
0.12
  1
9/32深
  7
CHINESET
100
AcDbText
  0
TEXT
  5
DC4B
330
2
100
AcDbEntity
  8
DIM
 48
0.5
100
AcDbText
 10
1160.108764115612
 20
811.7990556667489
 30
0.0
 40
0.12
  1
1/4-28
  7
CHINESET
100
AcDbText
  0
TEXT
  5
DC4C
330
2
100
AcDbEntity
  8
DIM
 48
0.5
100
AcDbText
 10
1164.894355048319
 20
811.7561689797897
 30
0.0
 40
0.12
  1
9/16
  7
CHINESET
100
AcDbText
  0
TEXT
  5
DC4D
330
2
100
AcDbEntity
  8
DIM
 48
0.5
100
AcDbText
 10
1162.475190898564
 20
809.5850650881001
 30
0.0
 40
0.12
  1
7/16-20
  7
CHINESET
100
AcDbText
  0
TEXT
  5
DC4E
330
2
100
AcDbEntity
  8
DIM
 48
0.5
100
AcDbText
 10
1164.879702713332
 20
811.5311095358473
 30
0.0
 40
0.12
  1
兩面巾
  7
CHINESET
100
AcDbText
  0
TEXT
  5
DC6D
330
2
100
AcDbEntity
  8
DIM
 48
0.5
100
AcDbText
 10
1166.868913949922
 20
812.1337727865684
 30
0.0
 40
0.12
  1
2-3/8(NPTF)
  7
CHINESET
100
AcDbText
  0
DIMENSION
  5
DC6E
102
{ACAD_REACTORS
330
FF9A
330
FFB4
102
}
330
2
100
AcDbEntity
  8
DIM
 48
0.5
100
AcDbDimension
  2
*D21
 10
1160.934050488049
 20
809.1451023171233
 30
0.0
 11
1161.656907630906
 21
809.2765308885519
 31
0.0
 70
    32
 71
     5
 42
0.625
  3
STANDARD
100
AcDbAlignedDimension
 13
1160.309050488049
 23
809.3665306138918
 33
0.0
 14
1160.934050488049
 24
809.3665306138918
 34
0.0
100
AcDbRotatedDimension
  0
LEADER
  5
DC7C
330
2
100
AcDbEntity
  8
DIM
 48
0.5
100
AcDbLeader
  3
STANDARD
 73
     0
 40
0.12
 76
     3
 10
1159.992985262145
 20
811.2662800017279
 30
0.0
 10
1160.090706483519
 20
811.7444254956609
 30
0.0
 10
1160.789077112323
 20
811.7444254956609
 30
0.0
340
DC7D
213
31.70111100479039
223
12.98279242915117
233
0.0
1001
ACAD
1000
DSTYLE
1002
{
1070
     5
1000

1070
    77
1070
     0
1070
   147
1040
0.04
1070
   342
1005
0
1002
}
  0
MTEXT
  5
DC7D
102
{ACAD_REACTORS
330
DC7C
102
}
330
2
100
AcDbEntity
  8
DIM
 48
0.5
100
AcDbMText
 10
1114.247859766007
 20
797.0169736494896
 30
0.0
 40
0.12
 41
0.0
 71
     1
 72
     1
  1

  7
DAYUS
 73
     1
 44
1.0
1001
ACAD
1000
MTEXTBEGIN
1070
    73
1070
     1
1070
    44
1040
1.0
1070
    74
1070
     0
1000
MTEXTEND
  0
LEADER
  5
DC7E
330
2
100
AcDbEntity
  8
DIM
 48
0.5
100
AcDbLeader
  3
STANDARD
 73
     0
 40
0.12
 76
     3
 10
1160.309050488049
 20
809.4568455745218
 30
0.0
 10
1159.306194133312
 20
809.0252402430289
 30
0.0
 10
1158.314199484021
 20
809.0252402430289
 30
0.0
340
DC7F
213
31.79001363601879
223
13.10279242915117
233
0.0
1001
ACAD
1000
DSTYLE
1002
{
1070
     5
1000

1070
    77
1070
     0
1070
   147
1040
0.04
1070
   342
1005
0
1002
}
  0
MTEXT
  5
DC7F
102
{ACAD_REACTORS
330
DC7E
102
}
330
2
100
AcDbEntity
  8
DIM
 48
0.5
100
AcDbMText
 10
1111.684079506475
 20
794.1777883968577
 30
0.0
 40
0.12
 41
0.0
 71
     9
 72
     1
  1

  7
DAYUS
 73
     1
 44
1.0
1001
ACAD
1000
MTEXTBEGIN
1070
    73
1070
     1
1070
    44
1040
1.0
1070
    74
1070
     0
1000
MTEXTEND
  0
MTEXT
  5
DC81
330
2
100
AcDbEntity
  8
DIM
 48
0.5
100
AcDbMText
 10
1115.836837484741
 20
794.6529629862998
 30
0.0
 40
0.12
 41
0.0
 71
     9
 72
     1
  1

  7
DAYUS
 73
     1
 44
1.0
1001
ACAD
1000
MTEXTBEGIN
1070
    73
1070
     1
1070
    44
1040
1.0
1070
    74
1070
     0
1000
MTEXTEND
  0
DIMENSION
  5
DC82
102
{ACAD_REACTORS
330
FFE7
102
}
330
2
100
AcDbEntity
  8
DIM
 48
0.5
100
AcDbDimension
  2
*D22
 10
1164.024991803553
 20
809.1058883194969
 30
0.0
 11
1163.121564648836
 21
809.1058883194969
 31
0.0
 70
   160
 71
     5
 42
0.25
  3
STANDARD
100
AcDbAlignedDimension
 13
1164.274991803553
 23
810.1128455745218
 33
0.0
 14
1164.024991803553
 24
810.112845574522
 34
0.0
100
AcDbRotatedDimension
  0
LEADER
  5
DC92
330
2
100
AcDbEntity
  8
DIM
 48
0.5
100
AcDbLeader
  3
STANDARD
 73
     0
 40
0.12
 76
     3
 10
1163.894591605302
 20
810.237845574522
 30
0.0
 10
1163.292511351676
 20
809.5390341643927
 30
0.0
 10
1162.443801513147
 20
809.5390341643927
 30
0.0
340
DC93
213
31.78828907813545
223
13.10279242915117
233
0.0
1001
ACAD
1000
DSTYLE
1002
{
1070
     5
1000

1070
    77
1070
     0
1070
   147
1040
0.04
1070
   342
1005
0
1002
}
  0
MTEXT
  5
DC93
102
{ACAD_REACTORS
330
DC92
102
}
330
2
100
AcDbEntity
  8
DIM
 48
0.5
100
AcDbMText
 10
1115.815406093485
 20
794.6915823182214
 30
0.0
 40
0.12
 41
0.0
 71
     9
 72
     1
  1

  7
DAYUS
 73
     1
 44
1.0
1001
ACAD
1000
MTEXTBEGIN
1070
    73
1070
     1
1070
    44
1040
1.0
1070
    74
1070
     0
1000
MTEXTEND
  0
MTEXT
  5
DC96
330
2
100
AcDbEntity
  8
DIM
 48
0.5
100
AcDbMText
 10
1116.982157800725
 20
796.5496661731918
 30
0.0
 40
0.12
 41
0.0
 71
     9
 72
     1
  1

  7
DAYUS
 73
     1
 44
1.0
1001
ACAD
1000
MTEXTBEGIN
1070
    73
1070
     1
1070
    44
1040
1.0
1070
    74
1070
     0
1000
MTEXTEND
  0
LEADER
  5
DC98
330
2
100
AcDbEntity
  8
DIM
 48
0.5
100
AcDbLeader
  3
STANDARD
 73
     0
 40
0.12
 76
     3
 10
1166.184972118514
 20
811.4518712598812
 30
0.0
 10
1166.807501575465
 20
812.0802629543307
 30
0.0
 10
1168.109454908338
 20
812.0802629543307
 30
0.0
340
DC99
213
31.73748016917966
223
12.87729863208364
233
0.0
1001
ACAD
1000
DSTYLE
1002
{
1070
     5
1000

1070
    77
1070
     0
1070
   147
1040
0.04
1070
   342
1005
0
1002
}
  0
MTEXT
  5
DC99
102
{ACAD_REACTORS
330
DC98
102
}
330
2
100
AcDbEntity
  8
DIM
 48
0.5
100
AcDbMText
 10
1121.531868397632
 20
797.4583049052268
 30
0.0
 40
0.12
 41
0.0
 71
     1
 72
     1
  1

  7
DAYUS
 73
     1
 44
1.0
1001
ACAD
1000
MTEXTBEGIN
1070
    73
1070
     1
1070
    44
1040
1.0
1070
    74
1070
     0
1000
MTEXTEND
  0
TEXT
  5
DC9A
330
2
100
AcDbEntity
  8
DIM
 48
0.5
100
AcDbText
 10
1163.622211339611
 20
811.448465903657
 30
0.0
 40
0.12
  1
0.69
  7
CHINESET
100
AcDbText
  0
LEADER
  5
DC9B
330
2
100
AcDbEntity
  8
DIM
 48
0.5
100
AcDbLeader
  3
STANDARD
 73
     0
 40
0.12
 76
     3
 10
1164.169075464791
 20
810.7152685915576
 30
0.0
 10
1164.039432516067
 20
811.409107787573
 30
0.0
 10
1163.638720777908
 20
811.409107787573
 30
0.0
340
DC9C
213
32.37929872863788
223
16.25217103813639
233
0.0
1001
ACAD
1000
DSTYLE
1002
{
1070
     5
1000

1070
    77
1070
     0
1070
   147
1040
0.04
1070
   342
1005
0
1002
}
  0
MTEXT
  5
DC9C
102
{ACAD_REACTORS
330
DC9B
102
}
330
2
100
AcDbEntity
  8
DIM
 48
0.5
100
AcDbMText
 10
1116.419315707743
 20
793.4122773324166
 30
0.0
 40
0.12
 41
0.0
 71
     9
 72
     1
  1

  7
DAYUS
 73
     1
 44
1.0
1001
ACAD
1000
MTEXTBEGIN
1070
    73
1070
     1
1070
    44
1040
1.0
1070
    74
1070
     0
1000
MTEXTEND
  0
MTEXT
  5
DEE9
330
2
100
AcDbEntity
  8
DIM
 48
0.5
100
AcDbMText
 10
1159.684561974738
 20
800.0287868194371
 30
0.0
 40
0.12
 41
0.0
 71
     1
 72
     1
  1

  7
DAYUS
 73
     1
 44
1.0
1001
ACAD
1000
MTEXTBEGIN
1070
    73
1070
     1
1070
    44
1040
1.0
1070
    74
1070
     0
1000
MTEXTEND
  0
MTEXT
  5
DEEB
330
2
100
AcDbEntity
  8
DIM
 48
0.5
100
AcDbMText
 10
1157.037525554902
 20
796.4560410913543
 30
0.0
 40
0.12
 41
0.0
 71
     9
 72
     1
  1

  7
DAYUS
 73
     1
 44
1.0
1001
ACAD
1000
MTEXTBEGIN
1070
    73
1070
     1
1070
    44
1040
1.0
1070
    74
1070
     0
1000
MTEXTEND
  0
MTEXT
  5
DEEF
330
2
100
AcDbEntity
  8
DIM
 48
0.5
100
AcDbMText
 10
1162.155176252831
 20
796.0961496997271
 30
0.0
 40
0.12
 41
0.0
 71
     9
 72
     1
  1

  7
DAYUS
 73
     1
 44
1.0
1001
ACAD
1000
MTEXTBEGIN
1070
    73
1070
     1
1070
    44
1040
1.0
1070
    74
1070
     0
1000
MTEXTEND
  0
MTEXT
  5
DEF1
330
2
100
AcDbEntity
  8
DIM
 48
0.5
100
AcDbMText
 10
1162.886359226598
 20
799.5511907894063
 30
0.0
 40
0.12
 41
0.0
 71
     9
 72
     1
  1

  7
DAYUS
 73
     1
 44
1.0
1001
ACAD
1000
MTEXTBEGIN
1070
    73
1070
     1
1070
    44
1040
1.0
1070
    74
1070
     0
1000
MTEXTEND
  0
MTEXT
  5
DEF3
330
2
100
AcDbEntity
  8
DIM
 48
0.5
100
AcDbMText
 10
1161.131049838054
 20
797.4162802154439
 30
0.0
 40
0.12
 41
0.0
 71
     9
 72
     1
  1

  7
DAYUS
 73
     1
 44
1.0
1001
ACAD
1000
MTEXTBEGIN
1070
    73
1070
     1
1070
    44
1040
1.0
1070
    74
1070
     0
1000
MTEXTEND
  0
MTEXT
  5
DEF5
330
2
100
AcDbEntity
  8
DIM
 48
0.5
100
AcDbMText
 10
1167.110800954161
 20
799.7341262213182
 30
0.0
 40
0.12
 41
0.0
 71
     1
 72
     1
  1

  7
DAYUS
 73
     1
 44
1.0
1001
ACAD
1000
MTEXTBEGIN
1070
    73
1070
     1
1070
    44
1040
1.0
1070
    74
1070
     0
1000
MTEXTEND
  0
MTEXT
  5
E074
330
2
100
AcDbEntity
  8
DIM
 48
0.5
100
AcDbMText
 10
1180.654261382719
 20
800.5781323652881
 30
0.0
 40
0.12
 41
0.0
 71
     1
 72
     1
  1

  7
DAYUS
 73
     1
 44
1.0
1001
ACAD
1000
MTEXTBEGIN
1070
    73
1070
     1
1070
    44
1040
1.0
1070
    74
1070
     0
1000
MTEXTEND
  0
MTEXT
  5
E076
330
2
100
AcDbEntity
  8
DIM
 48
0.5
100
AcDbMText
 10
1177.460854726657
 20
796.4320334012405
 30
0.0
 40
0.12
 41
0.0
 71
     9
 72
     1
  1

  7
DAYUS
 73
     1
 44
1.0
1001
ACAD
1000
MTEXTBEGIN
1070
    73
1070
     1
1070
    44
1040
1.0
1070
    74
1070
     0
1000
MTEXTEND
  0
MTEXT
  5
E078
330
2
100
AcDbEntity
  8
DIM
 48
0.5
100
AcDbMText
 10
1183.006825001932
 20
797.8164652392165
 30
0.0
 40
0.12
 41
0.0
 71
     9
 72
     1
  1

  7
DAYUS
 73
     1
 44
1.0
1001
ACAD
1000
MTEXTBEGIN
1070
    73
1070
     1
1070
    44
1040
1.0
1070
    74
1070
     0
1000
MTEXTEND
  0
MTEXT
  5
E07A
330
2
100
AcDbEntity
  8
DIM
 48
0.5
100
AcDbMText
 10
1184.109029092271
 20
796.2246413274224
 30
0.0
 40
0.12
 41
0.0
 71
     9
 72
     1
  1

  7
DAYUS
 73
     1
 44
1.0
1001
ACAD
1000
MTEXTBEGIN
1070
    73
1070
     1
1070
    44
1040
1.0
1070
    74
1070
     0
1000
MTEXTEND
  0
MTEXT
  5
E07C
330
2
100
AcDbEntity
  8
DIM
 48
0.5
100
AcDbMText
 10
1184.555069523061
 20
799.8171695980663
 30
0.0
 40
0.12
 41
0.0
 71
     9
 72
     1
  1

  7
DAYUS
 73
     1
 44
1.0
1001
ACAD
1000
MTEXTBEGIN
1070
    73
1070
     1
1070
    44
1040
1.0
1070
    74
1070
     0
1000
MTEXTEND
  0
MTEXT
  5
E07E
330
2
100
AcDbEntity
  8
DIM
 48
0.5
100
AcDbMText
 10
1188.728135324896
 20
800.5414941980898
 30
0.0
 40
0.12
 41
0.0
 71
     1
 72
     1
  1

  7
DAYUS
 73
     1
 44
1.0
1001
ACAD
1000
MTEXTBEGIN
1070
    73
1070
     1
1070
    44
1040
1.0
1070
    74
1070
     0
1000
MTEXTEND
  0
MTEXT
  5
E38C
330
2
100
AcDbEntity
  8
DIM
 48
0.5
100
AcDbMText
 10
1147.908664147741
 20
787.8931014288346
 30
0.0
 40
0.12
 41
0.0
 71
     1
 72
     1
  1

  7
DAYUS
 73
     1
 44
1.0
1001
ACAD
1000
MTEXTBEGIN
1070
    73
1070
     1
1070
    44
1040
1.0
1070
    74
1070
     0
1000
MTEXTEND
  0
MTEXT
  5
E38E
330
2
100
AcDbEntity
  8
DIM
 48
0.5
100
AcDbMText
 10
1144.738222883028
 20
781.9592229083528
 30
0.0
 40
0.12
 41
0.0
 71
     9
 72
     1
  1

  7
DAYUS
 73
     1
 44
1.0
1001
ACAD
1000
MTEXTBEGIN
1070
    73
1070
     1
1070
    44
1040
1.0
1070
    74
1070
     0
1000
MTEXTEND
  0
MTEXT
  5
E390
330
2
100
AcDbEntity
  8
DIM
 48
0.5
100
AcDbMText
 10
1152.009149967874
 20
784.0212032200647
 30
0.0
 40
0.12
 41
0.0
 71
     9
 72
     1
  1

  7
DAYUS
 73
     1
 44
1.0
1001
ACAD
1000
MTEXTBEGIN
1070
    73
1070
     1
1070
    44
1040
1.0
1070
    74
1070
     0
1000
MTEXTEND
  0
MTEXT
  5
E392
330
2
100
AcDbEntity
  8
DIM
 48
0.5
100
AcDbMText
 10
1153.701732983836
 20
786.8984319338292
 30
0.0
 40
0.12
 41
0.0
 71
     9
 72
     1
  1

  7
DAYUS
 73
     1
 44
1.0
1001
ACAD
1000
MTEXTBEGIN
1070
    73
1070
     1
1070
    44
1040
1.0
1070
    74
1070
     0
1000
MTEXTEND
  0
MTEXT
  5
E394
330
2
100
AcDbEntity
  8
DIM
 48
0.5
100
AcDbMText
 10
1153.185136270799
 20
781.941313205451
 30
0.0
 40
0.12
 41
0.0
 71
     9
 72
     1
  1

  7
DAYUS
 73
     1
 44
1.0
1001
ACAD
1000
MTEXTBEGIN
1070
    73
1070
     1
1070
    44
1040
1.0
1070
    74
1070
     0
1000
MTEXTEND
  0
MTEXT
  5
E396
330
2
100
AcDbEntity
  8
DIM
 48
0.5
100
AcDbMText
 10
1158.541647076707
 20
787.8848313766734
 30
0.0
 40
0.12
 41
0.0
 71
     1
 72
     1
  1

  7
DAYUS
 73
     1
 44
1.0
1001
ACAD
1000
MTEXTBEGIN
1070
    73
1070
     1
1070
    44
1040
1.0
1070
    74
1070
     0
1000
MTEXTEND
  0
MTEXT
  5
E5BA
330
2
100
AcDbEntity
  8
DIM
 48
0.5
100
AcDbMText
 10
1178.360257869548
 20
782.1337913880074
 30
0.0
 40
0.12
 41
0.763
 71
     1
 72
     1
  1

  7
DAYUS
 73
     1
 44
1.0
1001
ACAD
1000
MTEXTBEGIN
1070
    73
1070
     1
1070
    44
1040
1.0
1070
    74
1070
     0
1000
MTEXTEND
  0
MTEXT
  5
E5BC
330
2
100
AcDbEntity
  8
DIM
 48
0.5
100
AcDbMText
 10
1175.414665296402
 20
777.0949408552324
 30
0.0
 40
0.12
 41
0.763
 71
     9
 72
     1
  1

  7
DAYUS
 73
     1
 44
1.0
1001
ACAD
1000
MTEXTBEGIN
1070
    73
1070
     1
1070
    44
1040
1.0
1070
    74
1070
     0
1000
MTEXTEND
  0
MTEXT
  5
E5BE
330
2
100
AcDbEntity
  8
DIM
 48
0.5
100
AcDbMText
 10
1181.172940849349
 20
778.4864942311028
 30
0.0
 40
0.12
 41
0.763
 71
     9
 72
     1
  1

  7
DAYUS
 73
     1
 44
1.0
1001
ACAD
1000
MTEXTBEGIN
1070
    73
1070
     1
1070
    44
1040
1.0
1070
    74
1070
     0
1000
MTEXTEND
  0
MTEXT
  5
E5C0
330
2
100
AcDbEntity
  8
DIM
 48
0.5
100
AcDbMText
 10
1182.452086208572
 20
776.3930731071305
 30
0.0
 40
0.12
 41
0.763
 71
     9
 72
     1
  1

  7
DAYUS
 73
     1
 44
1.0
1001
ACAD
1000
MTEXTBEGIN
1070
    73
1070
     1
1070
    44
1040
1.0
1070
    74
1070
     0
1000
MTEXTEND
  0
MTEXT
  5
E5C2
330
2
100
AcDbEntity
  8
DIM
 48
0.5
100
AcDbMText
 10
1183.025241090683
 20
781.4960306642761
 30
0.0
 40
0.12
 41
0.763
 71
     9
 72
     1
  1

  7
DAYUS
 73
     1
 44
1.0
1001
ACAD
1000
MTEXTBEGIN
1070
    73
1070
     1
1070
    44
1040
1.0
1070
    74
1070
     0
1000
MTEXTEND
  0
MTEXT
  5
E5C4
330
2
100
AcDbEntity
  8
DIM
 48
0.5
100
AcDbMText
 10
1187.923225297015
 20
782.0713687944739
 30
0.0
 40
0.12
 41
0.763
 71
     1
 72
     1
  1

  7
DAYUS
 73
     1
 44
1.0
1001
ACAD
1000
MTEXTBEGIN
1070
    73
1070
     1
1070
    44
1040
1.0
1070
    74
1070
     0
1000
MTEXTEND
  0
TEXT
  5
F4AF
330
2
100
AcDbEntity
  8
0
100
AcDbText
 10
1158.095151244797
 20
814.9381877308904
 30
0.0
 40
0.15
  1
NOTE:The length is the same, whether it is with magnet or not.
100
AcDbText
  0
TEXT
  5
F4D4
330
2
100
AcDbEntity
  8
0
100
AcDbText
 10
1169.27478153075
 20
807.1496273732845
 30
0.0
 40
0.15
  1
UNIT:inch
100
AcDbText
  0
LEADER
  5
F8AE
330
2
100
AcDbEntity
  8
DIM
 48
0.5
100
AcDbLeader
  3
STANDARD
 40
0.12
 76
     3
 10
1164.611043084408
 20
810.5396021342816
 30
0.0
 10
1164.827955644324
 20
811.6809237960888
 30
0.0
 10
1165.335329200633
 20
811.680923796089
 30
0.0
211
-1.0
221
0.0
231
0.0
210
0.0
220
0.0
230
-1.0
213
-31.79642692041853
223
13.10374441563868
233
0.0
1001
ACAD
1000
DSTYLE
1002
{
1070
     5
1000

1070
    77
1070
     0
1070
   147
1040
0.04
1070
   342
1005
0
1002
}
  0
TEXT
  5
FE1F
330
2
100
AcDbEntity
  8
LOGO
 62
     7
100
AcDbText
 10
1159.831858637626
 20
806.5427604498172
 30
0.0
 40
0.1263929601065701
  1
Order example:
 41
0.8
  7
CHINESET
100
AcDbText
  0
TEXT
  5
FE20
330
2
100
AcDbEntity
  8
LOGO
 62
     7
100
AcDbText
 10
1159.854534579896
 20
806.7206955676509
 30
0.0
 40
0.1895894401598551
  1
訂購代號：
  7
CHINESET
100
AcDbText
  0
LINE
  5
FE21
330
2
100
AcDbEntity
  8
LOGO
 62
     4
100
AcDbLine
 10
1159.77694046776
 20
806.010092786988
 30
0.0
 11
1159.77694046776
 21
806.9580399877873
 31
0.0
  0
TEXT
  5
FE22
330
2
100
AcDbEntity
  8
LOGO
  6
Continuous
100
AcDbText
 10
1158.031963521633
 20
806.196315584008
 30
0.0
 40
0.1421920801198914
  1
金器工業股份有限公司
  7
CHINESET
100
AcDbText
  0
TEXT
  5
FE23
330
2
100
AcDbEntity
  8
LOGO
  6
Continuous
100
AcDbText
 10
1157.770784801769
 20
806.0540956453888
 30
0.0
 40
0.0947947200799276
  1
MINDMAN INDUSTRIAL CO., LTD.
 41
0.85
  7
CHINESET
100
AcDbText
  0
LINE
  5
FE24
330
2
100
AcDbEntity
  8
LOGO
 62
     4
100
AcDbLine
 10
1159.77694046776
 20
806.7684505476275
 30
0.0
 11
1158.386617906587
 21
806.7684505476275
 31
0.0
  0
LINE
  5
FE25
330
2
100
AcDbEntity
  8
LOGO
 62
     4
100
AcDbLine
 10
1159.77694046776
 20
806.5788611074676
 30
0.0
 11
1158.386617906587
 21
806.5788611074676
 31
0.0
  0
LINE
  5
FE26
330
2
100
AcDbEntity
  8
LOGO
 62
     4
100
AcDbLine
 10
1159.77694046776
 20
806.3892716673077
 30
0.0
 11
1157.691456626001
 21
806.3892716673077
 31
0.0
  0
LINE
  5
FE27
330
2
100
AcDbEntity
  8
LOGO
 62
     4
100
AcDbLine
 10
1158.386617906587
 20
806.3892716673077
 30
0.0
 11
1158.386617906587
 21
806.9580399877873
 31
0.0
  0
TEXT
  5
FE28
330
2
100
AcDbEntity
  8
LOGO
100
AcDbText
 10
1159.336837754923
 20
806.4366690273477
 30
0.0
 40
0.0947947200799276
  1
mm
  7
CHINESET
 72
     1
 11
1159.45420264645
 21
806.4840663873876
 31
0.0
100
AcDbText
 73
     2
  0
TEXT
  5
FE29
330
2
100
AcDbEntity
  8
LOGO
100
AcDbText
 10
1159.287183377738
 20
806.8158479076673
 30
0.0
 40
0.0947947200799276
  1
1 : 1
  7
CHINESET
 72
     1
 11
1159.45420264645
 21
806.8632452677073
 31
0.0
100
AcDbText
 73
     2
  0
LINE
  5
FE2A
330
2
100
AcDbEntity
  8
LOGO
 62
     4
100
AcDbLine
 10
1159.144975667227
 20
806.3892716673077
 30
0.0
 11
1159.144975667227
 21
806.9580399877873
 31
0.0
  0
TEXT
  5
FE2B
330
2
100
AcDbEntity
  8
LOGO
100
AcDbText
 10
1158.464781231582
 20
806.8158945586123
 30
6.21268978885997
 40
0.0947947200799276
  1
比例 Scale:
 41
0.9
  7
CHINESET
 72
     4
 11
1158.765796786907
 21
806.8632452677073
 31
6.21268978885997
100
AcDbText
  0
TEXT
  5
FE2C
330
2
100
AcDbEntity
  8
LOGO
100
AcDbText
 10
1158.459322071363
 20
806.6275919070166
 30
6.21268978885997
 40
0.0947947200799276
  1
投影  View:
 41
0.9
  7
CHINESET
 72
     4
 11
1158.765796786907
 21
806.6736558275476
 31
6.21268978885997
100
AcDbText
  0
TEXT
  5
FE2D
330
2
100
AcDbEntity
  8
LOGO
100
AcDbText
 10
1158.468589948013
 20
806.4366690273477
 30
6.21268978885997
 40
0.0947947200799276
  1
單位  Unit:
 41
0.9
  7
CHINESET
 72
     4
 11
1158.765796786907
 21
806.4840663873876
 31
6.21268978885997
100
AcDbText
  0
LWPOLYLINE
  5
FE2E
330
2
100
AcDbEntity
  8
LOGO
 62
     4
100
AcDbPolyline
 90
        4
 70
     1
 43
0.0
 10
1157.691456626001
 20
806.9580399877875
 10
1170.727618226001
 20
806.9580399877875
 10
1170.727618226001
 20
815.490937586988
 10
1157.691456626001
 20
815.490937586988
1001
GENIUS_GENREC_14
1002
{
1000
PYDIR
1011
1157.691456626001
1021
815.490937586988
1031
0.0
1002
}
1002
{
1000
PXDIR
1011
1170.727618226001
1021
806.9580399877875
1031
0.0
1002
}
1002
{
1000
PORI
1011
1157.691456626001
1021
806.9580399877875
1031
0.0
1002
}
1002
{
1000
PINS
1011
1157.691456626001
1021
806.9580399877875
1031
0.0
1002
}
1002
{
1000
PINS2
1011
1170.727618226001
1021
815.490937586988
1031
0.0
1002
}
1002
{
1000
C
1070
     1
1002
}
1001
GENIUS_GENODEF_13
1002
{
1000
HIER
1070
     0
1002
}
1002
{
1000
MANEDIT
1070
     0
1002
}
1002
{
1000
NOSEL
1070
     0
1002
}
1002
{
1000
BEHIND
1070
     0
1002
}
1002
{
1000
OTHER
1070
     0
1002
}
1002
{
1000
REACTOR
1002
}
1001
GENIUS_GENOBJ-N-REC_13
1002
{
1000
OWNER
1000
GEN
1002
}
  0
SOLID
  5
FE2F
330
2
100
AcDbEntity
  8
LOGO
 62
     5
100
AcDbTrace
 10
1157.789807669423
 20
806.5468543964747
 30
0.0
 11
1157.830794418972
 21
806.5468543964747
 31
0.0
 12
1158.001808098126
 22
806.9355218490956
 32
0.0
 13
1158.042794847675
 23
806.9355218490956
 33
0.0
  0
SOLID
  5
FE30
330
2
100
AcDbEntity
  8
LOGO
 62
     5
100
AcDbTrace
 10
1157.847754453269
 20
806.5468543964747
 30
0.0
 11
1157.888741202818
 21
806.5468543964747
 31
0.0
 12
1158.042794847675
 22
806.9044284528859
 32
0.0
 13
1158.001808098126
 23
806.7541437045392
 33
0.0
  0
SOLID
  5
FE31
330
2
100
AcDbEntity
  8
LOGO
 62
     2
100
AcDbTrace
 10
1157.830794418972
 20
806.5468543964747
 30
0.0
 11
1157.847754453269
 21
806.5468543964747
 31
0.0
 12
1158.042794847675
 22
806.9355218490956
 32
0.0
 13
1158.059754881971
 23
806.9355218490956
 33
0.0
  0
SOLID
  5
FE32
330
2
100
AcDbEntity
  8
LOGO
 62
     5
100
AcDbTrace
 10
1157.724095858714
 20
806.40552077734
 30
0.0
 11
1157.738229220628
 21
806.40552077734
 31
0.0
 12
1157.778029867829
 22
806.4761875869074
 32
0.0
 13
1157.792163229743
 23
806.4761875869074
 33
0.0
  0
SOLID
  5
FE33
330
2
100
AcDbEntity
  8
LOGO
 62
     5
100
AcDbTrace
 10
1157.778029867829
 20
806.4761875869074
 30
0.0
 11
1157.792163229743
 21
806.4761875869074
 31
0.0
 12
1157.778029867829
 22
806.40552077734
 32
0.0
 13
1157.792163229743
 23
806.40552077734
 33
0.0
  0
SOLID
  5
FE34
330
2
100
AcDbEntity
  8
LOGO
 62
     5
100
AcDbTrace
 10
1157.778029867829
 20
806.40552077734
 30
0.0
 11
1157.792163229743
 21
806.40552077734
 31
0.0
 12
1157.831963876944
 22
806.4761875869074
 32
0.0
 13
1157.846097238857
 23
806.4761875869074
 33
0.0
  0
SOLID
  5
FE35
330
2
100
AcDbEntity
  8
LOGO
 62
     5
100
AcDbTrace
 10
1157.831963876944
 20
806.4761875869074
 30
0.0
 11
1157.846097238857
 21
806.4761875869074
 31
0.0
 12
1157.831963876944
 22
806.40552077734
 32
0.0
 13
1157.846097238857
 23
806.40552077734
 33
0.0
  0
POLYLINE
  5
FE36
330
2
100
AcDbEntity
  8
LOGO
 62
     5
100
AcDb2dPolyline
 66
     1
 10
0.0
 20
0.0
 30
0.0
 40
0.0141560115319359
 41
0.0141560115319359
  0
VERTEX
  5
FE37
330
FE36
100
AcDbEntity
  8
LOGO
 62
     5
100
AcDbVertex
100
AcDb2dVertex
 10
1158.305709353693
 20
806.4479208630803
 30
0.0
 42
1.0
  0
VERTEX
  5
FE38
330
FE36
100
AcDbEntity
  8
LOGO
 62
     5
100
AcDbVertex
100
AcDb2dVertex
 10
1158.263241319098
 20
806.4479208630803
 30
0.0
 42
1.0
  0
SEQEND
  5
FE39
330
FE36
100
AcDbEntity
  8
LOGO
 62
     5
  0
POLYLINE
  5
FE3A
330
2
100
AcDbEntity
  8
LOGO
 62
     5
100
AcDb2dPolyline
 66
     1
 10
0.0
 20
0.0
 30
0.0
 70
     1
  0
VERTEX
  5
FE3B
330
FE3A
100
AcDbEntity
  8
LOGO
 62
     5
100
AcDbVertex
100
AcDb2dVertex
 10
1158.183187184906
 20
806.4408541821235
 30
0.0
 42
1.000000057330635
  0
VERTEX
  5
FE3C
330
FE3A
100
AcDbEntity
  8
LOGO
 62
     5
100
AcDbVertex
100
AcDb2dVertex
 10
1158.225587270647
 20
806.4408541821235
 30
0.0
 42
1.000000057330635
  0
SEQEND
  5
FE3D
330
FE3A
100
AcDbEntity
  8
LOGO
 62
     5
  0
CIRCLE
  5
FE3E
330
2
100
AcDbEntity
  8
LOGO
 62
     5
100
AcDbCircle
 10
1158.204387227777
 20
806.4408541821235
 30
0.0
 40
0.0212000428702272
  0
POLYLINE
  5
FE3F
330
2
100
AcDbEntity
  8
LOGO
 62
     5
100
AcDb2dPolyline
 66
     1
 10
0.0
 20
0.0
 30
0.0
 70
     1
 40
0.0141560115319359
 41
0.0141560115319359
  0
VERTEX
  5
FE40
330
FE3F
100
AcDbEntity
  8
LOGO
 62
     5
100
AcDbVertex
100
AcDb2dVertex
 10
1158.176075204712
 20
806.4408541821235
 30
0.0
 42
1.0
  0
VERTEX
  5
FE41
330
FE3F
100
AcDbEntity
  8
LOGO
 62
     5
100
AcDbVertex
100
AcDb2dVertex
 10
1158.23269925084
 20
806.4408541821235
 30
0.0
 42
1.0
  0
SEQEND
  5
FE42
330
FE3F
100
AcDbEntity
  8
LOGO
 62
     5
  0
LINE
  5
FE43
330
2
100
AcDbEntity
  8
LOGO
100
AcDbLine
 10
1158.312742060223
 20
806.40552077734
 30
0.0
 11
1158.312742060223
 21
806.4479208630803
 31
0.0
  0
SOLID
  5
FE44
330
2
100
AcDbEntity
  8
LOGO
 62
     5
100
AcDbTrace
 10
1158.22558585731
 20
806.4761875869074
 30
0.0
 11
1158.239719219224
 21
806.4761875869074
 31
0.0
 12
1158.22558585731
 22
806.40552077734
 32
0.0
 13
1158.239719219224
 23
806.40552077734
 33
0.0
  0
SOLID
  5
FE45
330
2
100
AcDbEntity
  8
LOGO
 62
     5
100
AcDbTrace
 10
1158.256208612569
 20
806.40552077734
 30
0.0
 11
1158.270341974482
 21
806.40552077734
 31
0.0
 12
1158.256208612569
 22
806.4761875869074
 32
0.0
 13
1158.270341974482
 23
806.4761875869074
 33
0.0
  0
SOLID
  5
FE46
330
2
100
AcDbEntity
  8
LOGO
 62
     5
100
AcDbTrace
 10
1158.298608698309
 20
806.4479208630803
 30
0.0
 11
1158.312742060223
 21
806.4479208630803
 31
0.0
 12
1158.298608698309
 22
806.40552077734
 32
0.0
 13
1158.312742060223
 23
806.40552077734
 33
0.0
  0
SOLID
  5
FE47
330
2
100
AcDbEntity
  8
LOGO
 62
     5
100
AcDbTrace
 10
1158.254795276377
 20
806.9044284528859
 30
0.0
 11
1158.213808526828
 21
806.7541437045392
 31
0.0
 12
1158.254795276377
 22
806.5468543964747
 32
0.0
 13
1158.213808526828
 23
806.5468543964747
 33
0.0
  0
SOLID
  5
FE48
330
2
100
AcDbEntity
  8
LOGO
 62
     5
100
AcDbTrace
 10
1158.271755310673
 20
806.5468543964747
 30
0.0
 11
1158.312742060223
 21
806.5468543964747
 31
0.0
 12
1158.271755310673
 22
806.9355218490956
 32
0.0
 13
1158.312742060223
 23
806.9355218490956
 33
0.0
  0
SOLID
  5
FE49
330
2
100
AcDbEntity
  8
LOGO
 62
     2
100
AcDbTrace
 10
1158.254795276377
 20
806.9355218490956
 30
0.0
 11
1158.271755310673
 21
806.9355218490956
 31
0.0
 12
1158.254795276377
 22
806.5468543964747
 32
0.0
 13
1158.271755310673
 23
806.5468543964747
 33
0.0
  0
POLYLINE
  5
FE4A
330
2
100
AcDbEntity
  8
LOGO
 62
     5
100
AcDb2dPolyline
 66
     1
 10
0.0
 20
0.0
 30
0.0
 40
0.0141560115319359
 41
0.0141560115319359
  0
VERTEX
  5
FE4B
330
FE4A
100
AcDbEntity
  8
LOGO
 62
     5
100
AcDbVertex
100
AcDb2dVertex
 10
1158.103130224043
 20
806.4479208630803
 30
0.0
 42
1.0
  0
VERTEX
  5
FE4C
330
FE4A
100
AcDbEntity
  8
LOGO
 62
     5
100
AcDbVertex
100
AcDb2dVertex
 10
1158.060662189447
 20
806.4479208630803
 30
0.0
 42
1.0
  0
SEQEND
  5
FE4D
330
FE4A
100
AcDbEntity
  8
LOGO
 62
     5
  0
POLYLINE
  5
FE4E
330
2
100
AcDbEntity
  8
LOGO
 62
     5
100
AcDb2dPolyline
 66
     1
 10
0.0
 20
0.0
 30
0.0
 40
0.0141560115319359
 41
0.0141560115319359
  0
VERTEX
  5
FE4F
330
FE4E
100
AcDbEntity
  8
LOGO
 62
     5
100
AcDbVertex
100
AcDb2dVertex
 10
1158.145530309783
 20
806.4479208630803
 30
0.0
 42
1.0
  0
VERTEX
  5
FE50
330
FE4E
100
AcDbEntity
  8
LOGO
 62
     5
100
AcDbVertex
100
AcDb2dVertex
 10
1158.103062275187
 20
806.4479208630803
 30
0.0
 42
1.0
  0
SEQEND
  5
FE51
330
FE4E
100
AcDbEntity
  8
LOGO
 62
     5
  0
POLYLINE
  5
FE52
330
2
100
AcDbEntity
  8
LOGO
 62
     5
100
AcDb2dPolyline
 66
     1
 10
0.0
 20
0.0
 30
0.0
 40
0.0141560115319359
 41
0.0141560115319359
  0
VERTEX
  5
FE53
330
FE52
100
AcDbEntity
  8
LOGO
 62
     5
100
AcDbVertex
100
AcDb2dVertex
 10
1157.942951180132
 20
806.4479208630803
 30
0.0
 42
1.0
  0
VERTEX
  5
FE54
330
FE52
100
AcDbEntity
  8
LOGO
 62
     5
100
AcDbVertex
100
AcDb2dVertex
 10
1157.900483145536
 20
806.4479208630803
 30
0.0
 42
1.0
  0
SEQEND
  5
FE55
330
FE52
100
AcDbEntity
  8
LOGO
 62
     5
  0
SOLID
  5
FE56
330
2
100
AcDbEntity
  8
LOGO
 62
     5
100
AcDbTrace
 10
1157.893450439007
 20
806.4761875869074
 30
0.0
 11
1157.907583800921
 21
806.4761875869074
 31
0.0
 12
1157.893450439007
 22
806.40552077734
 32
0.0
 13
1157.907583800921
 23
806.40552077734
 33
0.0
  0
SOLID
  5
FE57
330
2
100
AcDbEntity
  8
LOGO
 62
     5
100
AcDbTrace
 10
1157.935850524748
 20
806.4479208630803
 30
0.0
 11
1157.949983886661
 21
806.4479208630803
 31
0.0
 12
1157.935850524748
 22
806.40552077734
 32
0.0
 13
1157.949983886661
 23
806.40552077734
 33
0.0
  0
POLYLINE
  5
FE58
330
2
100
AcDbEntity
  8
LOGO
 62
     5
100
AcDb2dPolyline
 66
     1
 10
0.0
 20
0.0
 30
0.0
 70
     1
 40
0.0141560115319359
 41
0.0141560115319359
  0
VERTEX
  5
FE59
330
FE58
100
AcDbEntity
  8
LOGO
 62
     5
100
AcDbVertex
100
AcDb2dVertex
 10
1157.973496075062
 20
806.4408541821235
 30
0.0
 42
1.0
  0
VERTEX
  5
FE5A
330
FE58
100
AcDbEntity
  8
LOGO
 62
     5
100
AcDbVertex
100
AcDb2dVertex
 10
1158.03012012119
 20
806.4408541821235
 30
0.0
 42
1.0
  0
SEQEND
  5
FE5B
330
FE58
100
AcDbEntity
  8
LOGO
 62
     5
  0
SOLID
  5
FE5C
330
2
100
AcDbEntity
  8
LOGO
 62
     5
100
AcDbTrace
 10
1158.02300672766
 20
806.4973876297775
 30
0.0
 11
1158.037140089573
 21
806.4973876297775
 31
0.0
 12
1158.02300672766
 22
806.40552077734
 32
0.0
 13
1158.037140089573
 23
806.40552077734
 33
0.0
  0
SOLID
  5
FE5D
330
2
100
AcDbEntity
  8
LOGO
 62
     5
100
AcDbTrace
 10
1158.053629482918
 20
806.4761875869074
 30
0.0
 11
1158.067762844831
 21
806.4761875869074
 31
0.0
 12
1158.053629482918
 22
806.40552077734
 32
0.0
 13
1158.067762844831
 23
806.40552077734
 33
0.0
  0
SOLID
  5
FE5E
330
2
100
AcDbEntity
  8
LOGO
 62
     5
100
AcDbTrace
 10
1158.096029568658
 20
806.4479208630803
 30
0.0
 11
1158.110162930572
 21
806.4479208630803
 31
0.0
 12
1158.096029568658
 22
806.40552077734
 32
0.0
 13
1158.110162930572
 23
806.40552077734
 33
0.0
  0
SOLID
  5
FE5F
330
2
100
AcDbEntity
  8
LOGO
 62
     5
100
AcDbTrace
 10
1158.138429654399
 20
806.4479208630803
 30
0.0
 11
1158.152563016312
 21
806.4479208630803
 31
0.0
 12
1158.138429654399
 22
806.40552077734
 32
0.0
 13
1158.152563016312
 23
806.40552077734
 33
0.0
  0
SOLID
  5
FE60
330
2
100
AcDbEntity
  8
LOGO
 62
     5
100
AcDbTrace
 10
1157.862827683749
 20
806.4860809402468
 30
0.0
 11
1157.876961045663
 21
806.4860809402468
 31
0.0
 12
1157.862827683749
 22
806.4973876297775
 32
0.0
 13
1157.876961045663
 23
806.4973876297775
 33
0.0
  0
SOLID
  5
FE61
330
2
100
AcDbEntity
  8
LOGO
 62
     5
100
AcDbTrace
 10
1157.862827683749
 20
806.4761875869074
 30
0.0
 11
1157.876961045663
 21
806.4761875869074
 31
0.0
 12
1157.862827683749
 22
806.40552077734
 32
0.0
 13
1157.876961045663
 23
806.40552077734
 33
0.0
  0
SOLID
  5
FE62
330
2
100
AcDbEntity
  8
LOGO
 62
     5
100
AcDbTrace
 10
1158.001808098126
 20
806.5468543964747
 30
0.0
 11
1158.042794847675
 21
806.5468543964747
 31
0.0
 12
1158.001808098126
 22
806.7541437045392
 32
0.0
 13
1158.042794847675
 23
806.9044284528859
 33
0.0
  0
SOLID
  5
FE63
330
2
100
AcDbEntity
  8
LOGO
 62
     5
100
AcDbTrace
 10
1158.059754881971
 20
806.9355218490956
 30
0.0
 11
1158.10074163152
 21
806.9355218490956
 31
0.0
 12
1158.059754881971
 22
806.5779477926843
 32
0.0
 13
1158.10074163152
 23
806.7282325410312
 33
0.0
  0
SOLID
  5
FE64
330
2
100
AcDbEntity
  8
LOGO
 62
     2
100
AcDbTrace
 10
1158.042794847675
 20
806.9355218490956
 30
0.0
 11
1158.059754881971
 21
806.9355218490956
 31
0.0
 12
1158.042794847675
 22
806.5468543964747
 32
0.0
 13
1158.059754881971
 23
806.5468543964747
 33
0.0
  0
SOLID
  5
FE65
330
2
100
AcDbEntity
  8
LOGO
 62
     5
100
AcDbTrace
 10
1158.059754881971
 20
806.5779477926843
 30
0.0
 11
1158.10074163152
 21
806.7282325410312
 31
0.0
 12
1158.254795276377
 22
806.9355218490956
 32
0.0
 13
1158.213808526828
 23
806.9355218490956
 33
0.0
  0
SOLID
  5
FE66
330
2
100
AcDbEntity
  8
LOGO
 62
     5
100
AcDbTrace
 10
1158.059754881971
 20
806.5468543964747
 30
0.0
 11
1158.10074163152
 21
806.5468543964747
 31
0.0
 12
1158.254795276377
 22
806.9044284528859
 32
0.0
 13
1158.213808526828
 23
806.7541437045392
 33
0.0
  0
SOLID
  5
FE67
330
2
100
AcDbEntity
  8
LOGO
 62
     2
100
AcDbTrace
 10
1158.042794847675
 20
806.5468543964747
 30
0.0
 11
1158.059754881971
 21
806.5468543964747
 31
0.0
 12
1158.254795276377
 22
806.9355218490956
 32
0.0
 13
1158.271755310673
 23
806.9355218490956
 33
0.0
  0
LWPOLYLINE
  5
FE68
330
2
100
AcDbEntity
  8
LOGO
 62
     4
100
AcDbPolyline
 90
        4
 70
     1
 43
0.0
 10
1157.691456626001
 20
806.9580399877875
 10
1170.727618226001
 20
806.9580399877875
 10
1170.727618226001
 20
806.010092786988
 10
1157.691456626001
 20
806.010092786988
1001
GENIUS_GENREC_14
1002
{
1000
PYDIR
1011
1157.691456626001
1021
806.010092786988
1031
0.0
1002
}
1002
{
1000
PXDIR
1011
1170.727618226001
1021
806.9580399877875
1031
0.0
1002
}
1002
{
1000
PORI
1011
1157.691456626001
1021
806.9580399877875
1031
0.0
1002
}
1002
{
1000
PINS
1011
1157.691456626001
1021
806.9580399877875
1031
0.0
1002
}
1002
{
1000
PINS2
1011
1170.727618226001
1021
806.010092786988
1031
0.0
1002
}
1002
{
1000
C
1070
     1
1002
}
1001
GENIUS_GENOBJ-N-REC_13
1002
{
1000
OWNER
1000
GEN
1002
}
1001
GENIUS_GENODEF_13
1002
{
1000
HIER
1070
     0
1002
}
1002
{
1000
MANEDIT
1070
     0
1002
}
1002
{
1000
NOSEL
1070
     0
1002
}
1002
{
1000
BEHIND
1070
     0
1002
}
1002
{
1000
OTHER
1070
     0
1002
}
1002
{
1000
REACTOR
1002
}
  0
LINE
  5
FE69
330
2
100
AcDbEntity
  8
LOGO
 62
     4
100
AcDbLine
 10
1161.712764570959
 20
806.4366690273477
 30
0.0
 11
1161.712764570959
 21
806.0890883870547
 31
0.0
  0
LINE
  5
FE6A
330
2
100
AcDbEntity
  8
LOGO
 62
     4
100
AcDbLine
 10
1161.080799770426
 20
806.4366690273477
 30
0.0
 11
1161.080799770426
 21
806.0890883870547
 31
0.0
  0
LINE
  5
FE6B
330
2
100
AcDbEntity
  8
LOGO
 62
     4
100
AcDbLine
 10
1161.712764570959
 20
806.0890883870547
 30
0.0
 11
1161.080799770426
 21
806.0890883870547
 31
0.0
  0
LINE
  5
FE6C
330
2
100
AcDbEntity
  8
LOGO
 62
     4
100
AcDbLine
 10
1161.826114174144
 20
806.8632452677073
 30
0.0
 11
1161.080799770426
 21
806.8632452677073
 31
0.0
  0
LINE
  5
FE6D
330
2
100
AcDbEntity
  8
LOGO
 62
     4
100
AcDbLine
 10
1161.826114174144
 20
806.5788611074676
 30
0.0
 11
1161.080799770426
 21
806.5788611074676
 31
0.0
  0
LINE
  5
FE6E
330
2
100
AcDbEntity
  8
LOGO
 62
     4
100
AcDbLine
 10
1161.080799770426
 20
806.8632452677073
 30
0.0
 11
1161.080799770426
 21
806.5788611074676
 31
0.0
  0
LINE
  5
FE6F
330
2
100
AcDbEntity
  8
LOGO
 62
     4
100
AcDbLine
 10
1161.826114174144
 20
806.8632452677073
 30
0.0
 11
1161.826114174144
 21
806.5788611074676
 31
0.0
  0
LINE
  5
FE70
330
2
100
AcDbEntity
  8
LOGO
 62
     4
100
AcDbLine
 10
1161.429754860285
 20
806.5788611074676
 30
0.0
 11
1161.429754860285
 21
806.4366690273477
 31
0.0
  0
TEXT
  5
FE71
330
2
100
AcDbEntity
  8
LOGO
  6
Continuous
100
AcDbText
 10
1161.131330381846
 20
806.6382258851479
 30
0.0
 40
0.165914784
  1
MCQN
  7
CHINESET
100
AcDbText
  0
LINE
  5
FE72
330
2
100
AcDbEntity
  8
LOGO
 62
     4
100
AcDbLine
 10
1161.712764570959
 20
806.4366690273477
 30
0.0
 11
1161.080799770426
 21
806.4366690273477
 31
0.0
  0
TEXT
  5
FE73
330
2
100
AcDbEntity
  8
LOGO
  6
Continuous
100
AcDbText
 10
1161.283595274147
 20
806.1381486573701
 30
6.21268978885997
 40
0.071106336
  1
Model
 41
0.8
  7
CHINESET
100
AcDbText
  0
TEXT
  5
FE74
330
2
100
AcDbEntity
  8
LOGO
100
AcDbText
 10
1161.264669079029
 20
806.2699644798049
 30
6.21268978885997
 40
0.11851056
  1
型號
  7
CHINESET
100
AcDbText
  0
LINE
  5
FE75
330
2
100
AcDbEntity
  8
LOGO
  6
Continuous
100
AcDbLine
 10
1161.85634656078
 20
806.7200458539485
 30
0.0
 11
1161.981920229225
 21
806.7200458539485
 31
0.0
  0
LINE
  5
FE76
330
2
100
AcDbEntity
  8
LOGO
 62
     4
100
AcDbLine
 10
1162.414440912957
 20
806.4366690273477
 30
0.0
 11
1162.414440912957
 21
806.0890883870547
 31
0.0
  0
LINE
  5
FE77
330
2
100
AcDbEntity
  8
LOGO
 62
     4
100
AcDbLine
 10
1161.784860735018
 20
806.4366690273477
 30
0.0
 11
1161.784860735018
 21
806.0890883870547
 31
0.0
  0
LINE
  5
FE78
330
2
100
AcDbEntity
  8
LOGO
 62
     4
100
AcDbLine
 10
1162.414440912957
 20
806.0890883870547
 30
0.0
 11
1161.784860735018
 21
806.0890883870547
 31
0.0
  0
LINE
  5
FE79
330
2
100
AcDbEntity
  8
LOGO
 62
     4
100
AcDbLine
 10
1162.313295526464
 20
806.8632452677073
 30
0.0
 11
1162.021532102236
 21
806.8632452677073
 31
0.0
  0
LINE
  5
FE7A
330
2
100
AcDbEntity
  8
LOGO
 62
     4
100
AcDbLine
 10
1162.313295526464
 20
806.5788611074676
 30
0.0
 11
1162.021532102236
 21
806.5788611074676
 31
0.0
  0
LINE
  5
FE7B
330
2
100
AcDbEntity
  8
LOGO
 62
     4
100
AcDbLine
 10
1162.021532102236
 20
806.8632452677073
 30
0.0
 11
1162.021532102236
 21
806.5788611074676
 31
0.0
  0
LINE
  5
FE7C
330
2
100
AcDbEntity
  8
LOGO
 62
     4
100
AcDbLine
 10
1162.313295526464
 20
806.8632452677073
 30
0.0
 11
1162.313295526464
 21
806.5788611074676
 31
0.0
  0
LINE
  5
FE7D
330
2
100
AcDbEntity
  8
LOGO
 62
     4
100
AcDbLine
 10
1162.16741381435
 20
806.5788611074676
 30
0.0
 11
1162.16741381435
 21
806.4366690273477
 31
0.0
  0
TEXT
  5
FE7E
330
2
100
AcDbEntity
  8
LOGO
  6
Continuous
100
AcDbText
 10
1162.067760687226
 20
806.6382258851479
 30
0.0
 40
0.165914784
  1
11
  7
CHINESET
100
AcDbText
  0
LINE
  5
FE7F
330
2
100
AcDbEntity
  8
LOGO
 62
     4
100
AcDbLine
 10
1162.414440912957
 20
806.4366690273477
 30
0.0
 11
1161.784860735018
 21
806.4366690273477
 31
0.0
  0
LINE
  5
FE80
330
2
100
AcDbEntity
  8
LOGO
  6
Continuous
100
AcDbLine
 10
1162.368855362613
 20
806.7200458539485
 30
0.0
 11
1162.494429031058
 21
806.7200458539485
 31
0.0
  0
LINE
  5
FE81
330
2
100
AcDbEntity
  8
LOGO
 62
     4
100
AcDbLine
 10
1163.118595151849
 20
806.4366690273477
 30
0.0
 11
1163.118595151849
 21
806.0890883870547
 31
0.0
  0
LINE
  5
FE82
330
2
100
AcDbEntity
  8
LOGO
 62
     4
100
AcDbLine
 10
1162.486630351316
 20
806.4366690273477
 30
0.0
 11
1162.486630351316
 21
806.0890883870547
 31
0.0
  0
LINE
  5
FE83
330
2
100
AcDbEntity
  8
LOGO
 62
     4
100
AcDbLine
 10
1163.118595151849
 20
806.0890883870547
 30
0.0
 11
1162.486630351316
 21
806.0890883870547
 31
0.0
  0
LINE
  5
FE84
330
2
100
AcDbEntity
  8
LOGO
 62
     4
100
AcDbLine
 10
1163.019981347518
 20
806.8632452677073
 30
0.0
 11
1162.53404090407
 21
806.8632452677073
 31
0.0
  0
LINE
  5
FE85
330
2
100
AcDbEntity
  8
LOGO
 62
     4
100
AcDbLine
 10
1163.019981347518
 20
806.5788611074676
 30
0.0
 11
1162.53404090407
 21
806.5788611074676
 31
0.0
  0
LINE
  5
FE86
330
2
100
AcDbEntity
  8
LOGO
 62
     4
100
AcDbLine
 10
1162.53404090407
 20
806.8632452677073
 30
0.0
 11
1162.53404090407
 21
806.5788611074676
 31
0.0
  0
LINE
  5
FE87
330
2
100
AcDbEntity
  8
LOGO
 62
     4
100
AcDbLine
 10
1163.019981347518
 20
806.8632452677073
 30
0.0
 11
1163.019981347518
 21
806.5788611074676
 31
0.0
  0
LINE
  5
FE88
330
2
100
AcDbEntity
  8
LOGO
 62
     4
100
AcDbLine
 10
1162.777011125794
 20
806.5788611074676
 30
0.0
 11
1162.777011125794
 21
806.4366690273477
 31
0.0
  0
TEXT
  5
FE89
330
2
100
AcDbEntity
  8
LOGO
  6
Continuous
100
AcDbText
 10
1162.653830737955
 20
806.6382258851479
 30
0.0
 40
0.165914784
  1
40
  7
CHINESET
100
AcDbText
  0
LINE
  5
FE8A
330
2
100
AcDbEntity
  8
LOGO
 62
     4
100
AcDbLine
 10
1163.118595151849
 20
806.4366690273477
 30
0.0
 11
1162.486630351316
 21
806.4366690273477
 31
0.0
  0
LINE
  5
FE8B
330
2
100
AcDbEntity
  8
LOGO
  6
Continuous
100
AcDbLine
 10
1163.060433298207
 20
806.7200458539485
 30
0.0
 11
1163.186006966652
 21
806.7200458539485
 31
0.0
  0
LINE
  5
FE8C
330
2
100
AcDbEntity
  8
LOGO
 62
     4
100
AcDbLine
 10
1163.693044365479
 20
806.4366690273477
 30
0.0
 11
1163.693044365479
 21
806.0890883870547
 31
0.0
  0
LINE
  5
FE8D
330
2
100
AcDbEntity
  8
LOGO
 62
     4
100
AcDbLine
 10
1163.17820828691
 20
806.4366690273477
 30
0.0
 11
1163.17820828691
 21
806.0890883870547
 31
0.0
  0
LINE
  5
FE8E
330
2
100
AcDbEntity
  8
LOGO
 62
     4
100
AcDbLine
 10
1163.693044365479
 20
806.0890883870547
 30
0.0
 11
1163.17820828691
 21
806.0890883870547
 31
0.0
  0
LINE
  5
FE8F
330
2
100
AcDbEntity
  8
LOGO
 62
     4
100
AcDbLine
 10
1163.528195688867
 20
806.8632452677073
 30
0.0
 11
1163.225618839663
 21
806.8632452677073
 31
0.0
  0
LINE
  5
FE90
330
2
100
AcDbEntity
  8
LOGO
 62
     4
100
AcDbLine
 10
1163.528195688867
 20
806.5788611074676
 30
0.0
 11
1163.225618839663
 21
806.5788611074676
 31
0.0
  0
LINE
  5
FE91
330
2
100
AcDbEntity
  8
LOGO
 62
     4
100
AcDbLine
 10
1163.225618839663
 20
806.8632452677073
 30
0.0
 11
1163.225618839663
 21
806.5788611074676
 31
0.0
  0
LINE
  5
FE92
330
2
100
AcDbEntity
  8
LOGO
 62
     4
100
AcDbLine
 10
1163.528195688867
 20
806.8632452677073
 30
0.0
 11
1163.528195688867
 21
806.5788611074676
 31
0.0
  0
LINE
  5
FE93
330
2
100
AcDbEntity
  8
LOGO
 62
     4
100
AcDbLine
 10
1163.366496821147
 20
806.5788611074676
 30
0.0
 11
1163.366496821147
 21
806.4366690273477
 31
0.0
  0
TEXT
  5
FE94
330
2
100
AcDbEntity
  8
LOGO
  6
Continuous
100
AcDbText
 10
1163.327601679304
 20
806.6382258851479
 30
0.0
 40
0.165914784
  1
0
  7
CHINESET
100
AcDbText
  0
LINE
  5
FE95
330
2
100
AcDbEntity
  8
LOGO
 62
     4
100
AcDbLine
 10
1163.693044365479
 20
806.4366690273477
 30
0.0
 11
1163.17820828691
 21
806.4366690273477
 31
0.0
  0
TEXT
  5
FE96
330
2
100
AcDbEntity
  8
LOGO
  6
Continuous
100
AcDbText
 10
1161.841649836417
 20
806.1381486573701
 30
6.21268978885997
 40
0.071106336
  1
Acting type
 41
0.8
  7
CHINESET
100
AcDbText
  0
TEXT
  5
FE97
330
2
100
AcDbEntity
  8
LOGO
100
AcDbText
 10
1161.840979990104
 20
806.2699644798049
 30
6.21268978885997
 40
0.11851056
  1
作動型式
  7
CHINESET
100
AcDbText
  0
TEXT
  5
FE98
330
2
100
AcDbEntity
  8
LOGO
  6
Continuous
100
AcDbText
 10
1162.61900114794
 20
806.1381486573701
 30
6.21268978885997
 40
0.071106336
  1
Tube I.D.
 41
0.8
  7
CHINESET
100
AcDbText
  0
TEXT
  5
FE99
330
2
100
AcDbEntity
  8
LOGO
100
AcDbText
 10
1162.665777035549
 20
806.2699644798049
 30
6.21268978885997
 40
0.11851056
  1
內徑
  7
CHINESET
100
AcDbText
  0
TEXT
  5
FE9A
330
2
100
AcDbEntity
  8
LOGO
  6
Continuous
100
AcDbText
 10
1163.313893738653
 20
806.1381486573701
 30
6.21268978885997
 40
0.071106336
  1
Stroke
 41
0.8
  7
CHINESET
100
AcDbText
  0
TEXT
  5
FE9B
330
2
100
AcDbEntity
  8
LOGO
100
AcDbText
 10
1163.30896345906
 20
806.2699644798049
 30
6.21268978885997
 40
0.11851056
  1
行程
  7
CHINESET
100
AcDbText
  0
LINE
  5
FE9C
330
2
100
AcDbEntity
  8
LOGO
 62
     4
100
AcDbLine
 10
1164.022163907943
 20
806.8632452677073
 30
0.0
 11
1163.572567447207
 21
806.8632452677073
 31
0.0
  0
LINE
  5
FE9D
330
2
100
AcDbEntity
  8
LOGO
 62
     4
100
AcDbLine
 10
1164.022163907943
 20
806.5788611074676
 30
0.0
 11
1163.572567447207
 21
806.5788611074676
 31
0.0
  0
LINE
  5
FE9E
330
2
100
AcDbEntity
  8
LOGO
 62
     4
100
AcDbLine
 10
1163.572567447207
 20
806.8632452677073
 30
0.0
 11
1163.572567447207
 21
806.5788611074676
 31
0.0
  0
LINE
  5
FE9F
330
2
100
AcDbEntity
  8
LOGO
 62
     4
100
AcDbLine
 10
1164.022163907943
 20
806.8632452677073
 30
0.0
 11
1164.022163907943
 21
806.5788611074676
 31
0.0
  0
TEXT
  5
FEA0
330
2
100
AcDbEntity
  8
LOGO
  6
Continuous
100
AcDbText
 10
1163.638659065054
 20
806.6382258851479
 30
0.0
 40
0.165914784
  1
(M)
  7
CHINESET
100
AcDbText
  0
LINE
  5
FEA1
330
2
100
AcDbEntity
  8
LOGO
 62
     4
100
AcDbLine
 10
1164.275067013669
 20
806.4366690273477
 30
0.0
 11
1164.275067013669
 21
806.0890883870547
 31
0.0
  0
LINE
  5
FEA2
330
2
100
AcDbEntity
  8
LOGO
 62
     4
100
AcDbLine
 10
1163.760230935101
 20
806.4366690273477
 30
0.0
 11
1163.760230935101
 21
806.0890883870547
 31
0.0
  0
LINE
  5
FEA3
330
2
100
AcDbEntity
  8
LOGO
 62
     4
100
AcDbLine
 10
1164.275067013669
 20
806.0890883870547
 30
0.0
 11
1163.760230935101
 21
806.0890883870547
 31
0.0
  0
LINE
  5
FEA4
330
2
100
AcDbEntity
  8
LOGO
 62
     4
100
AcDbLine
 10
1164.275067013669
 20
806.4366690273477
 30
0.0
 11
1163.760230935101
 21
806.4366690273477
 31
0.0
  0
TEXT
  5
FEA5
330
2
100
AcDbEntity
  8
LOGO
  6
Continuous
100
AcDbText
 10
1163.872143048869
 20
806.1381486573701
 30
6.21268978885997
 40
0.071106336
  1
Magnet
 41
0.8
  7
CHINESET
100
AcDbText
  0
TEXT
  5
FEA6
330
2
100
AcDbEntity
  8
LOGO
100
AcDbText
 10
1163.834223129559
 20
806.2699644798049
 30
6.21268978885997
 40
0.11851056
  1
附磁石
  7
CHINESET
100
AcDbText
  0
LINE
  5
FEA7
330
2
100
AcDbEntity
  8
LOGO
 62
     4
100
AcDbLine
 10
1163.797365677575
 20
806.5788611074676
 30
0.0
 11
1163.797365677575
 21
806.4994683190857
 31
0.0
  0
TEXT
  5
FEA8
330
2
100
AcDbEntity
  8
LOGO
100
AcDbText
 10
1159.82086216847
 20
806.0605232039218
 30
0.0
 40
0.094808448
  1
11005252
 41
0.7
  7
CHINESET
 72
     1
 11
1160.05156272527
 21
806.0605232039218
 31
0.0
100
AcDbText
  0
LINE
  5
FEA9
330
2
100
AcDbEntity
  8
LOGO
 62
     4
100
AcDbLine
 10
1160.345791155759
 20
806.1996822271479
 30
0.0
 11
1160.345791155759
 21
806.010092786988
 31
0.0
  0
LINE
  5
FEAA
330
2
100
AcDbEntity
  8
LOGO
 62
     4
100
AcDbLine
 10
1160.345791155759
 20
806.1996822271479
 30
0.0
 11
1159.77694046776
 21
806.1996822271479
 31
0.0
  0
CIRCLE
  5
FEAB
330
2
100
AcDbEntity
  8
LOGO
  6
Continuous
100
AcDbCircle
 10
1159.320499948191
 20
806.6738585941475
 30
0.0
 40
0.0550400456945996
  0
CIRCLE
  5
FEAC
330
2
100
AcDbEntity
  8
LOGO
  6
Continuous
100
AcDbCircle
 10
1159.320499948191
 20
806.6738585941475
 30
0.0
 40
0.032248594357465
  0
LINE
  5
FEAD
330
2
100
AcDbEntity
  8
LOGO
100
AcDbLine
 10
1159.666377981912
 20
806.6188185484529
 30
0.0
 11
1159.666377981912
 21
806.728898639842
 31
0.0
  0
LINE
  5
FEAE
330
2
100
AcDbEntity
  8
LOGO
100
AcDbLine
 10
1159.493830598109
 20
806.6416099997899
 30
0.0
 11
1159.493830598109
 21
806.7061071885049
 31
0.0
  0
LINE
  5
FEAF
330
2
100
AcDbEntity
  8
LOGO
  6
Continuous
100
AcDbLine
 10
1159.493830598109
 20
806.7061071885049
 30
0.0
 11
1159.666377981912
 21
806.728898639842
 31
0.0
  0
LINE
  5
FEB0
330
2
100
AcDbEntity
  8
LOGO
  6
Continuous
100
AcDbLine
 10
1159.493830598109
 20
806.6416099997899
 30
0.0
 11
1159.666377981912
 21
806.6188185484529
 31
0.0
  0
LINE
  5
FEB1
330
2
100
AcDbEntity
  8
LOGO
  6
AM_ISO08W050x2
 48
0.3
100
AcDbLine
 10
1159.244626421041
 20
806.6738585941475
 30
0.0
 11
1159.39637347534
 21
806.6738585941475
 31
0.0
1001
GENIUS_GENOREF_13
1005
FEC4
  0
LINE
  5
FEB2
330
2
100
AcDbEntity
  8
LOGO
  6
AM_ISO08W050x2
 48
0.3
100
AcDbLine
 10
1159.320499948191
 20
806.5979850669977
 30
0.0
 11
1159.320499948191
 21
806.7497321212972
 31
0.0
1001
GENIUS_GENOREF_13
1005
FEC3
  0
LINE
  5
FEB3
330
2
100
AcDbEntity
  8
LOGO
  6
CENTER
 48
0.5
100
AcDbLine
 10
1159.480031603337
 20
806.6738585941475
 30
0.0
 11
1159.683752944897
 21
806.6738585941475
 31
0.0
1001
GENIUS_GENOREF_13
1005
FEC2
  0
POINT
  5
FEC2
330
2
100
AcDbEntity
  8
0
 60
     1
100
AcDbPoint
 10
1880.141130700135
 20
-286.6638728998292
 30
0.0
1001
GENIUS_GENOBJ-N-CRS_13
1002
{
1000
OWNER
1000
GEN
1002
}
1001
GENIUS_GENOLIS_13
1002
{
1000
ENT
1005
0
1005
0
1005
0
1005
FEB3
1002
}
1001
GENIUS_GENOENT_13
1002
{
1000
MYREF
1005
FEC2
1002
}
1002
{
1000
GRP
1005
0
1002
}
1001
GENIUS_GENODEF_13
1002
{
1000
HIER
1070
    10
1002
}
1002
{
1000
MANEDIT
1070
     1
1002
}
1002
{
1000
NOSEL
1070
     0
1002
}
1002
{
1000
BEHIND
1070
     0
1002
}
1002
{
1000
OTHER
1070
     0
1002
}
1002
{
1000
REACTOR
1002
}
  0
POINT
  5
FEC3
330
2
100
AcDbEntity
  8
0
 60
     1
100
AcDbPoint
 10
1868.81654547728
 20
-277.788286421193
 30
0.0
1001
GENIUS_GENOBJ-N-CRS_13
1002
{
1000
OWNER
1000
GEN
1002
}
1001
GENIUS_GENOLIS_13
1002
{
1000
ENT
1005
0
1005
0
1005
0
1005
FEB2
1002
}
1001
GENIUS_GENOENT_13
1002
{
1000
MYREF
1005
FEC3
1002
}
1002
{
1000
GRP
1005
0
1002
}
1001
GENIUS_GENODEF_13
1002
{
1000
HIER
1070
    10
1002
}
1002
{
1000
MANEDIT
1070
     1
1002
}
1002
{
1000
NOSEL
1070
     0
1002
}
1002
{
1000
BEHIND
1070
     0
1002
}
1002
{
1000
OTHER
1070
     0
1002
}
1002
{
1000
REACTOR
1002
}
  0
POINT
  5
FEC4
330
2
100
AcDbEntity
  8
0
 60
     1
100
AcDbPoint
 10
1875.175219175117
 20
-286.6638728998292
 30
0.0
1001
GENIUS_GENOBJ-N-CRS_13
1002
{
1000
OWNER
1000
GEN
1002
}
1001
GENIUS_GENOLIS_13
1002
{
1000
ENT
1005
0
1005
0
1005
0
1005
FEB1
1002
}
1001
GENIUS_GENOENT_13
1002
{
1000
MYREF
1005
FEC4
1002
}
1002
{
1000
GRP
1005
0
1002
}
1001
GENIUS_GENODEF_13
1002
{
1000
HIER
1070
    10
1002
}
1002
{
1000
MANEDIT
1070
     1
1002
}
1002
{
1000
NOSEL
1070
     0
1002
}
1002
{
1000
BEHIND
1070
     0
1002
}
1002
{
1000
OTHER
1070
     0
1002
}
1002
{
1000
REACTOR
1002
}
  0
LINE
  5
FF37
330
2
100
AcDbEntity
  8
LOGO
 62
     4
100
AcDbLine
 10
1163.95933228192
 20
806.4994683190857
 30
0.0
 11
1163.797365677575
 21
806.4994683190857
 31
0.0
  0
LINE
  5
FF38
330
2
100
AcDbEntity
  8
LOGO
 62
     4
100
AcDbLine
 10
1163.95933228192
 20
806.4994683190858
 30
0.0
 11
1163.95933228192
 21
806.4366690273477
 31
0.0
  0
LINE
  5
1020B
330
2
100
AcDbEntity
  8
SL
  6
ACISOTGB
100
AcDbLine
 10
1167.42026921558
 20
809.348447407159
 30
0.0
 11
1167.42026921558
 21
811.5023371765667
 31
0.0
  0
INSERT
  5
1020C
330
2
100
AcDbEntity
  8
0
 48
0.5
100
AcDbBlockReference
  2
A$C0FBC3824
 10
1167.396775579777
 20
811.5646655836181
 30
0.0
  0
INSERT
  5
1020D
330
2
100
AcDbEntity
  8
0
 48
0.5
100
AcDbBlockReference
  2
A$C7A150A0F
 10
1167.42026921558
 20
811.3942788262916
 30
0.0
  0
VIEWPORT
  5
D953
102
{ACAD_XDICTIONARY
360
10512
102
}
330
BBB
100
AcDbEntity
 67
     1
  8
0
 62
     5
100
AcDbViewport
 10
144.7270812988281
 20
101.2295806407928
 30
0.0
 40
399.2669429819803
 41
222.1517806396485
 68
     1
 69
     1
 12
144.7270812988281
 22
101.2295806407928
 13
0.0
 23
0.0
 14
10.0
 24
10.0
 15
10.0
 25
10.0
 16
0.0
 26
0.0
 36
1.0
 17
0.0
 27
0.0
 37
0.0
 42
50.0
 43
0.0
 44
0.0
 45
222.1517806396485
 50
0.0
 51
0.0
 72
   100
 90
    32800
  1

281
     0
 71
     1
 74
     0
110
0.0
120
0.0
130
0.0
111
1.0
121
0.0
131
0.0
112
0.0
122
1.0
132
0.0
 79
     0
146
0.0
1001
GENIUS_GENODEF_13
1002
{
1000
HIER
1070
     0
1002
}
1002
{
1000
MANEDIT
1070
     0
1002
}
1002
{
1000
NOSEL
1070
     0
1002
}
1002
{
1000
BEHIND
1070
     0
1002
}
1002
{
1000
OTHER
1070
     0
1002
}
1002
{
1000
REACTOR
1002
}
1001
GENIUS_GENOBJ-N-SDF_13
1002
{
1000
OWNER
1000
GEN
1002
}
1001
GENIUS_GENSCREG_15
1000
PF
1040
1.0
1000
DF
1040
1.0
1000
MIN
1011
-54.906390192162
1021
-9.846309679031378
1031
0.0
1000
MAX
1011
344.3605527898183
1021
212.3054709606171
1031
0.0
1000
FLAGS
1070
     2
  0
VIEWPORT
  5
D955
102
{ACAD_XDICTIONARY
360
10514
102
}
330
BBB
100
AcDbEntity
 67
     1
  8
DIM
 62
     5
100
AcDbViewport
 10
139.2237563133239
 20
101.2295821905136
 30
0.0
 40
222.7580101013184
 41
161.9673315048218
 68
     2
 69
     2
 12
1282.775856856608
 22
808.0711763492697
 13
0.0
 23
0.0
 14
0.5
 24
0.5
 15
0.5
 25
0.5
 16
0.0
 26
0.0
 36
1.0
 17
0.0
 27
0.0
 37
0.0
 42
50.0
 43
0.0
 44
0.0
 45
1492.564878381468
 50
0.0
 51
0.0
 72
   100
 90
    33312
  1

281
     0
 71
     1
 74
     0
110
0.0
120
0.0
130
0.0
111
1.0
121
0.0
131
0.0
112
0.0
122
1.0
132
0.0
 79
     0
146
0.0
1001
GENIUS_GENOBJ-N-SDF_13
1002
{
1000
OWNER
1000
GEN
1002
}
1001
GENIUS_GENODEF_13
1002
{
1000
HIER
1070
     0
1002
}
1002
{
1000
MANEDIT
1070
     0
1002
}
1002
{
1000
NOSEL
1070
     0
1002
}
1002
{
1000
BEHIND
1070
     0
1002
}
1002
{
1000
OTHER
1070
     0
1002
}
1002
{
1000
REACTOR
1002
}
1001
GENIUS_GENSCREG_15
1000
PF
1040
0.0
1000
DF
1040
0.0
1000
MIN
1011
27.8447512626648
1021
20.24591643810271
1031
0.0
1000
MAX
1011
250.6027613639831
1021
182.2132479429245
1031
0.0
1000
FLAGS
1070
     2
  0
ENDSEC
  0
SECTION
  2
OBJECTS
  0
DICTIONARY
  5
8
330
0
100
AcDbDictionary
281
     1
  3
ACAD_COLOR
350
FA30
  3
ACAD_GROUP
350
24
  3
ACAD_LAYOUT
350
C
  3
ACAD_MATERIAL
350
FA2F
  3
ACAD_MLINESTYLE
350
25
  3
ACAD_PLOTSETTINGS
350
26
  3
ACAD_PLOTSTYLENAME
350
7
  3
ACAD_TABLESTYLE
350
FA31
  3
ACDBHEADERROUNDTRIPXREC
350
10509
  3
AcDbVariableDictionary
350
1F1
  3
AcmDictionary
350
F669
  3
AMG
350
F64F
  3
AMGSNAPSETTINGS
350
F69F
  3
DWGPROPS
350
10508
  3
MAPISURF_MODULE
350
FAC1
  0
DICTIONARY
  5
FB37
330
11
100
AcDbDictionary
280
     1
281
     1
  3
ACAD_LAYERSTATES
360
FB38
  0
DICTIONARY
  5
3
330
2
100
AcDbDictionary
280
     1
281
     1
  3
ACAD_INDEX
360
104F6
  3
ACAD_LAYOUTSELFREF
360
F9FD
  0
DICTIONARY
  5
F5FF
330
BBB
100
AcDbDictionary
280
     1
281
     1
  3
ACAD_LAYOUTSELFREF
360
FA0D
  0
DICTIONARY
  5
F601
330
D
100
AcDbDictionary
280
     1
281
     1
  3
ACAD_LAYOUTSELFREF
360
FA02
  0
DICTIONARY
  5
101F2
330
101F1
100
AcDbDictionary
280
     1
281
     1
  3
ACAD_SORTENTS
360
101F3
  0
DICTIONARY
  5
101FA
330
101F9
100
AcDbDictionary
280
     1
281
     1
  3
ACAD_SORTENTS
360
101FB
  0
DICTIONARY
  5
1050E
330
640
100
AcDbDictionary
280
     1
281
     1
  3
ACAD_XREC_ROUNDTRIP
360
1050F
  0
DICTIONARY
  5
FFE6
330
D9C3
100
AcDbDictionary
280
     1
281
     1
  3
ACMDIMBREAKPERSREACTOR
360
FFE7
  0
DICTIONARY
  5
10468
330
D9FB
100
AcDbDictionary
280
     1
281
     1
  3
ACMDIMBREAKPERSREACTOR
360
10469
  0
DICTIONARY
  5
1044F
330
DA51
100
AcDbDictionary
280
     1
281
     1
  3
ACMDIMBREAKPERSREACTOR
360
10450
  0
DICTIONARY
  5
FFCC
330
DA6B
100
AcDbDictionary
280
     1
281
     1
  3
ACMDIMBREAKPERSREACTOR
360
FFCD
  0
DICTIONARY
  5
FFB3
330
DB0F
100
AcDbDictionary
280
     1
281
     1
  3
ACMDIMBREAKPERSREACTOR
360
FFB4
  0
DICTIONARY
  5
FF99
330
DB1C
100
AcDbDictionary
280
     1
281
     1
  3
ACMDIMBREAKPERSREACTOR
360
FF9A
  0
DICTIONARY
  5
10512
330
D953
100
AcDbDictionary
280
     1
281
     1
  3
ACAD_XREC_ROUNDTRIP
360
10513
  0
DICTIONARY
  5
10514
330
D955
100
AcDbDictionary
280
     1
281
     1
  3
ACAD_XREC_ROUNDTRIP
360
10515
  0
DICTIONARY
  5
FA30
102
{ACAD_REACTORS
330
8
102
}
330
8
100
AcDbDictionary
281
     1
  0
DICTIONARY
  5
24
102
{ACAD_REACTORS
330
8
102
}
330
8
100
AcDbDictionary
281
     1
  0
DICTIONARY
  5
C
102
{ACAD_REACTORS
330
8
102
}
330
8
100
AcDbDictionary
281
     1
  3
Layout1
350
BBC
  3
Layout2
350
10
  3
Model
350
B
  0
DICTIONARY
  5
FA2F
102
{ACAD_REACTORS
330
8
102
}
330
8
100
AcDbDictionary
281
     1
  0
DICTIONARY
  5
25
102
{ACAD_REACTORS
330
8
102
}
330
8
100
AcDbDictionary
281
     1
  3
STANDARD
350
28
  0
DICTIONARY
  5
26
102
{ACAD_REACTORS
330
8
102
}
330
8
100
AcDbDictionary
281
     1
  0
ACDBDICTIONARYWDFLT
  5
7
102
{ACAD_REACTORS
330
8
102
}
330
8
100
AcDbDictionary
281
     1
  3
Normal
350
6
100
AcDbDictionaryWithDefault
340
6
  0
DICTIONARY
  5
FA31
102
{ACAD_REACTORS
330
8
102
}
330
8
100
AcDbDictionary
281
     1
  3
Standard
350
FA32
  0
DICTIONARY
  5
10509
102
{ACAD_REACTORS
330
8
102
}
330
8
100
AcDbDictionary
281
     1
  0
DICTIONARY
  5
1F1
102
{ACAD_REACTORS
330
8
102
}
330
8
100
AcDbDictionary
281
     1
  3
CTABLESTYLE
350
FF3C
  3
DIMASSOC
350
1F3
  3
HIDETEXT
350
1F2
  3
INDEXCTL
350
F715
  3
PROJECTNAME
350
10506
  0
DICTIONARY
  5
F669
102
{ACAD_REACTORS
330
8
102
}
330
8
100
AcDbDictionary
281
     1
  3
AcmStdDictionary
350
F66F
  3
AMDTSECTSYM_ARROWCOLOR
350
FB0E
  0
DICTIONARY
  5
F64F
102
{ACAD_REACTORS
330
8
102
}
330
8
100
AcDbDictionary
281
     1
  3
AcMgSettings
350
F650
  0
DICTIONARY
  5
F69F
102
{ACAD_REACTORS
330
8
102
}
330
8
100
AcDbDictionary
281
     1
  0
XRECORD
  5
10508
102
{ACAD_REACTORS
330
8
102
}
330
8
100
AcDbXrecord
280
     1
  1
DWGPROPS COOKIE
  2

  3

  4

  6

  7

  8

  9

300
AmdtFileType=84
301
=
302
=
303
=
304
=
305
=
306
=
307
=
308
=
309
=
 40
0.9871015277777777
 41
2452243.440373877
 42
2455342.651954317
  1

 90
        1
  0
DICTIONARY
  5
FB38
102
{ACAD_REACTORS
330
FB37
102
}
330
FB37
100
AcDbDictionary
281
     1
  0
DICTIONARY
  5
104F6
102
{ACAD_REACTORS
330
3
102
}
330
3
100
AcDbDictionary
281
     1
  3
*A1
350
104F7
  0
XRECORD
  5
F9FD
102
{ACAD_REACTORS
330
3
102
}
330
3
100
AcDbXrecord
280
     1
340
2
  0
XRECORD
  5
FA0D
102
{ACAD_REACTORS
330
F5FF
102
}
330
F5FF
100
AcDbXrecord
280
     1
340
BBB
  0
XRECORD
  5
FA02
102
{ACAD_REACTORS
330
F601
102
}
330
F601
100
AcDbXrecord
280
     1
340
D
  0
SORTENTSTABLE
  5
101F3
102
{ACAD_REACTORS
330
101F2
102
}
330
101F2
100
AcDbSortentsTable
330
101F1
  0
SORTENTSTABLE
  5
101FB
102
{ACAD_REACTORS
330
101FA
102
}
330
101FA
100
AcDbSortentsTable
330
101F9
  0
XRECORD
  5
1050F
102
{ACAD_REACTORS
330
1050E
102
}
330
1050E
100
AcDbXrecord
280
     1
102
SHADEPLOT
 70
     0
  0
XRECORD
  5
10513
102
{ACAD_REACTORS
330
10512
102
}
330
10512
100
AcDbXrecord
280
     1
102
SHADEPLOT
 70
     0
  0
XRECORD
  5
10515
102
{ACAD_REACTORS
330
10514
102
}
330
10514
100
AcDbXrecord
280
     1
102
SHADEPLOT
 70
     0
  0
LAYOUT
  5
BBC
102
{ACAD_XDICTIONARY
360
10510
102
}
102
{ACAD_REACTORS
330
C
102
}
330
C
100
AcDbPlotSettings
  1

  2
自動 RD 上的 Epson Stylus Photo 750 單色
  4
A4
  6

 40
3.757083177566528
 41
14.7637300491333
 42
3.757080078125
 43
3.757080078125
 44
209.9733276367187
 45
296.9683227539062
 46
0.0
 47
0.0
 48
0.0
 49
0.0
140
0.0
141
0.0
142
1.0
143
1.0
 70
   688
 72
     1
 73
     1
 74
     5
  7

 75
    16
147
1.0
148
0.0
149
0.0
100
AcDbLayout
  1
Layout1
 70
     1
 71
     2
 10
-3.757080078125
 20
-3.757083177566528
 11
293.2112426757813
 21
206.2162444591522
 12
0.0
 22
0.0
 32
0.0
 14
27.8447512626648
 24
20.24591643810271
 34
0.0
 15
250.6027613639831
 25
182.2132479429245
 35
0.0
146
0.0
 13
0.0
 23
0.0
 33
0.0
 16
1.0
 26
0.0
 36
0.0
 17
0.0
 27
1.0
 37
0.0
 76
     0
330
BBB
331
D953
  0
LAYOUT
  5
10
102
{ACAD_XDICTIONARY
360
1050C
102
}
102
{ACAD_REACTORS
330
C
102
}
330
C
100
AcDbPlotSettings
  1

  2
自動 RD 上的 Epson Stylus Photo 750 單色
  4
A4
  6

 40
3.757083177566528
 41
14.7637300491333
 42
3.757080078125
 43
3.757080078125
 44
209.9733276367187
 45
296.9683227539062
 46
0.0
 47
0.0
 48
0.0
 49
0.0
140
0.0
141
0.0
142
1.0
143
1.0
 70
   688
 72
     1
 73
     1
 74
     5
  7

 75
    16
147
1.0
148
0.0
149
0.0
100
AcDbLayout
  1
Layout2
 70
     1
 71
     1
 10
-3.757080078125
 20
-3.757083177566528
 11
293.2112426757813
 21
206.2162444591522
 12
0.0
 22
0.0
 32
0.0
 14
1.000000000000000E+20
 24
1.000000000000000E+20
 34
1.000000000000000E+20
 15
-1.000000000000000E+20
 25
-1.000000000000000E+20
 35
-1.000000000000000E+20
146
0.0
 13
0.0
 23
0.0
 33
0.0
 16
1.0
 26
0.0
 36
0.0
 17
0.0
 27
1.0
 37
0.0
 76
     0
330
D
331
640
  0
LAYOUT
  5
B
102
{ACAD_XDICTIONARY
360
1050A
102
}
102
{ACAD_REACTORS
330
C
102
}
330
C
100
AcDbPlotSettings
  1

  2
DWF eView (optimized for viewing).pc3
  4
ISO_A3_(297.00_x_420.00_MM)
  6

 40
5.793749809265136
 41
17.79375076293945
 42
5.79376220703125
 43
17.79376220703125
 44
297.0
 45
420.0
 46
0.0
 47
12.7
 48
0.0
 49
0.0
140
0.0
141
0.0
142
1.0
143
0.9235571985998824
 70
 11924
 72
     0
 73
     1
 74
     1
  7

 75
     0
147
1.082769969760406
148
-29030.92754400799
149
-20424.01825350586
100
AcDbLayout
  1
Model
 70
     1
 71
     0
 10
0.0
 20
0.0
 11
12.0
 21
9.0
 12
0.0
 22
0.0
 32
0.0
 14
0.0
 24
0.0
 34
0.0
 15
0.0
 25
0.0
 35
0.0
146
0.0
 13
0.0
 23
0.0
 33
0.0
 16
1.0
 26
0.0
 36
0.0
 17
0.0
 27
1.0
 37
0.0
 76
     0
330
2
  0
MLINESTYLE
  5
28
102
{ACAD_REACTORS
330
25
102
}
330
25
100
AcDbMlineStyle
  2
STANDARD
 70
     0
  3

 62
     0
 51
90.0
 52
90.0
 71
     2
 49
0.5
 62
   256
  6
BYLAYER
 49
-0.5
 62
   256
  6
BYLAYER
  0
ACDBPLACEHOLDER
  5
6
102
{ACAD_REACTORS
330
7
102
}
330
7
  0
TABLESTYLE
  5
FA32
102
{ACAD_REACTORS
330
FA31
102
}
330
FA31
100
AcDbTableStyle
  3
Standard
 70
     0
 71
     0
 40
1.5
 41
1.5
280
     0
281
     0
  7
STANDARD
140
4.5
170
     2
 62
     0
 63
     7
283
     0
274
    -2
284
     1
 64
     0
275
    -2
285
     1
 65
     0
276
    -2
286
     1
 66
     0
277
    -2
287
     1
 67
     0
278
    -2
288
     1
 68
     0
279
    -2
289
     1
 69
     0
  7
STANDARD
140
6.0
170
     5
 62
     0
 63
     7
283
     0
274
    -2
284
     1
 64
     0
275
    -2
285
     1
 65
     0
276
    -2
286
     1
 66
     0
277
    -2
287
     1
 67
     0
278
    -2
288
     1
 68
     0
279
    -2
289
     1
 69
     0
  7
STANDARD
140
4.5
170
     5
 62
     0
 63
     7
283
     0
274
    -2
284
     1
 64
     0
275
    -2
285
     1
 65
     0
276
    -2
286
     1
 66
     0
277
    -2
287
     1
 67
     0
278
    -2
288
     1
 68
     0
279
    -2
289
     1
 69
     0
  0
DICTIONARYVAR
  5
FF3C
102
{ACAD_REACTORS
330
1F1
102
}
330
1F1
100
DictionaryVariables
280
     0
  1
STANDARD
  0
DICTIONARYVAR
  5
1F3
102
{ACAD_REACTORS
330
1F1
102
}
330
1F1
100
DictionaryVariables
280
     0
  1
1
  0
DICTIONARYVAR
  5
1F2
102
{ACAD_REACTORS
330
1F1
102
}
330
1F1
100
DictionaryVariables
280
     0
  1
1
  0
DICTIONARYVAR
  5
F715
102
{ACAD_REACTORS
330
1F1
102
}
330
1F1
100
DictionaryVariables
280
     0
  1
1
  0
DICTIONARYVAR
  5
10506
102
{ACAD_REACTORS
330
1F1
102
}
330
1F1
100
DictionaryVariables
280
     0
  1

  0
DICTIONARY
  5
F66F
102
{ACAD_REACTORS
330
F669
102
}
330
F669
100
AcDbDictionary
281
     1
  0
XRECORD
  5
FB0E
102
{ACAD_REACTORS
330
F669
102
}
330
F669
100
AcDbXrecord
280
     1
 90
-1023410169
  0
DICTIONARY
  5
F650
102
{ACAD_REACTORS
330
F64F
102
}
330
F64F
100
AcDbDictionary
281
     1
  3
DWGSETTINGS
350
FA3C
  3
TRANSSETTINGS
350
FA40
  0
LAYER_INDEX
  5
104F7
102
{ACAD_REACTORS
330
104F6
102
}
330
104F6
100
AcDbIndex
 40
2455342.651954317
100
AcDbLayerIndex
  8
0
360
104F8
 90
        7
  8
AM_VIS
360
104F9
 90
      383
  8
AM_7
360
104FA
 90
       84
  8
AM_4
360
104FB
 90
       36
  8
DIM
360
104FC
 90
      124
  8
Defpoints
360
104FD
 90
        0
  8
LOGO
360
104FE
 90
      131
  8
AM_HID
360
104FF
 90
      180
  8
SL
360
10500
 90
        1
  0
DICTIONARY
  5
10510
330
BBC
100
AcDbDictionary
280
     1
281
     1
  3
ACAD_XREC_ROUNDTRIP
360
10511
  0
DICTIONARY
  5
1050C
330
10
100
AcDbDictionary
280
     1
281
     1
  3
ACAD_XREC_ROUNDTRIP
360
1050D
  0
DICTIONARY
  5
1050A
330
B
100
AcDbDictionary
280
     1
281
     1
  3
ACAD_XREC_ROUNDTRIP
360
1050B
  0
IDBUFFER
  5
104F8
330
0
100
AcDbIdBuffer
330
1020D
330
F4AF
330
F4D4
330
FEC2
330
FEC3
330
FEC4
330
1020C
  0
IDBUFFER
  5
104F9
330
0
100
AcDbIdBuffer
330
C748
330
C749
330
C74D
330
C74F
330
C756
330
C757
330
C758
330
C75A
330
C75B
330
C75D
330
C760
330
C763
330
C764
330
C765
330
C766
330
C767
330
C768
330
C769
330
C76A
330
C79A
330
C79B
330
C840
330
C843
330
C862
330
C865
330
C8DF
330
C8E0
330
C8E1
330
C8E2
330
C8E3
330
C8E4
330
C8E5
330
C8E6
330
C8E7
330
C8E8
330
C8E9
330
C8EA
330
C8EB
330
C8EE
330
C8EF
330
C8F0
330
C8F1
330
C8F2
330
C8F3
330
C8F7
330
C8F8
330
C8F9
330
C8FA
330
C8FB
330
C8FC
330
C8FD
330
C8FE
330
C8FF
330
C900
330
C901
330
C902
330
C903
330
C906
330
C907
330
C908
330
C909
330
C90A
330
C90B
330
C90F
330
C910
330
C911
330
C912
330
C913
330
C914
330
C915
330
C916
330
C917
330
C918
330
C919
330
C91A
330
C91B
330
C91E
330
C91F
330
C922
330
C924
330
C925
330
C928
330
C929
330
C92B
330
C92E
330
C92F
330
C932
330
C933
330
C934
330
C935
330
C936
330
C937
330
C938
330
C93F
330
C940
330
C941
330
C942
330
C943
330
C944
330
C945
330
C946
330
C947
330
C948
330
C949
330
C94A
330
C94B
330
C94C
330
C94D
330
C950
330
C951
330
C954
330
C956
330
C957
330
C95A
330
C95B
330
C95D
330
C960
330
C961
330
C964
330
C965
330
C966
330
C967
330
C968
330
C969
330
C96A
330
C971
330
C972
330
C975
330
C976
330
C977
330
C978
330
C979
330
C97A
330
C97B
330
C97C
330
C97D
330
C97E
330
C985
330
C986
330
C987
330
C988
330
C98B
330
C98C
330
C2CB
330
C2CC
330
C2CD
330
C2CE
330
C2CF
330
C2D0
330
C2D1
330
C2D2
330
C2D3
330
C2D4
330
C2D5
330
C2D6
330
C2D7
330
C2D8
330
C2D9
330
C2DA
330
C2E0
330
C31A
330
C31C
330
C31E
330
C320
330
C322
330
C324
330
C328
330
C329
330
C32A
330
C32B
330
C32C
330
C32D
330
C32E
330
C32F
330
C330
330
C331
330
C332
330
C333
330
C334
330
C335
330
C336
330
C337
330
C338
330
C339
330
C33A
330
C33B
330
C33C
330
C33D
330
C33E
330
C33F
330
C340
330
C341
330
C342
330
C343
330
C344
330
C345
330
C346
330
C347
330
C348
330
C349
330
C34A
330
C34B
330
C34C
330
C34D
330
C34E
330
C34F
330
C350
330
C351
330
C352
330
C353
330
C354
330
C355
330
C36C
330
C36E
330
C370
330
C372
330
C440
330
C44F
330
C450
330
C451
330
C452
330
C453
330
C454
330
C455
330
C456
330
C457
330
C458
330
C459
330
C45A
330
C45B
330
C45D
330
C45E
330
C45F
330
C460
330
C461
330
C462
330
C463
330
C464
330
C465
330
C466
330
C467
330
C468
330
C469
330
C46A
330
C46B
330
C46C
330
C46E
330
C46F
330
C470
330
C471
330
C472
330
C473
330
C474
330
C475
330
C476
330
C477
330
C478
330
C479
330
C47A
330
C47B
330
C47C
330
C47D
330
C47F
330
C480
330
C481
330
C482
330
C483
330
C484
330
C485
330
C486
330
C487
330
C488
330
C489
330
C48A
330
C48B
330
C48C
330
C48D
330
C48E
330
C490
330
C491
330
C492
330
C49A
330
C49E
330
C4A2
330
C4A6
330
C542
330
C543
330
C544
330
C545
330
C546
330
C547
330
C548
330
C549
330
C54A
330
C54B
330
C54C
330
C551
330
C552
330
C553
330
C554
330
C555
330
C556
330
C557
330
C558
330
C559
330
C55A
330
C55B
330
C55C
330
C55D
330
C55E
330
C55F
330
C560
330
C561
330
C562
330
C563
330
C564
330
C565
330
C566
330
C567
330
C568
330
C569
330
C56A
330
C56B
330
C56C
330
C56D
330
C56E
330
C56F
330
C570
330
C571
330
C572
330
C573
330
C574
330
C575
330
C576
330
C577
330
C587
330
C589
330
C58B
330
C58D
330
C58F
330
C591
330
C5E6
330
C5E7
330
C5E8
330
C5E9
330
C5EA
330
C5EB
330
C5EE
330
C5F4
330
C5F5
330
C5F6
330
C5F7
330
C5FF
330
C600
330
C601
330
C605
330
C606
330
C62D
330
C62E
330
C64C
330
C64D
330
C661
330
C662
330
C663
330
C680
330
C681
330
C682
330
C683
330
C684
330
C68B
330
C68C
330
C68D
330
C694
330
C6B4
330
C6B5
330
C6CB
330
C6CC
330
C6DE
330
C6DF
330
C744
330
C745
330
C746
330
C747
  0
IDBUFFER
  5
104FA
330
0
100
AcDbIdBuffer
330
C4D7
330
C4D8
330
C4D9
330
C4DA
330
C4DB
330
C4DC
330
C4DD
330
C4DE
330
C4DF
330
C4E0
330
C4E1
330
C4E2
330
C4E3
330
C4E4
330
C4E5
330
C505
330
C506
330
C507
330
C508
330
C509
330
C50A
330
C50B
330
C50C
330
C50D
330
C50E
330
C510
330
C511
330
C512
330
C513
330
C514
330
C515
330
C516
330
C517
330
C518
330
C519
330
C51A
330
4695
330
46DE
330
46DF
330
46E0
330
46E1
330
46E2
330
46E3
330
46E4
330
46E5
330
46E6
330
46E7
330
46E8
330
46E9
330
46EA
330
46EB
330
46EC
330
46ED
330
46EE
330
46EF
330
46F0
330
46F1
330
46F2
330
46F3
330
46F4
330
46F5
330
46F6
330
46F7
330
46F8
330
46F9
330
46FA
330
46FB
330
C4AB
330
C4B4
330
C4B5
330
C4C8
330
C4C9
330
C4CA
330
C4CB
330
C4CC
330
C4CD
330
C4CE
330
C4CF
330
C4D0
330
C4D1
330
C4D3
330
C4D4
330
C4D5
330
C4D6
  0
IDBUFFER
  5
104FB
330
0
100
AcDbIdBuffer
330
C51D
330
C51E
330
C51F
330
C520
330
C521
330
C522
330
C524
330
C525
330
C526
330
C527
330
C528
330
C529
330
C532
330
C533
330
C536
330
C537
330
C53C
330
C53D
330
C53E
330
C53F
330
C4EC
330
C4ED
330
C4EE
330
C4EF
330
C4F0
330
C4F1
330
C4F5
330
C4F6
330
C4F7
330
C4F8
330
C4F9
330
C4FA
330
C501
330
C502
330
C503
330
C504
  0
IDBUFFER
  5
104FC
330
0
100
AcDbIdBuffer
330
E38E
330
E390
330
E392
330
E394
330
E396
330
E5BA
330
E5BC
330
E5BE
330
E5C0
330
E5C2
330
E5C4
330
F8AE
330
57F
330
9C8
330
9CE
330
9D0
330
9D4
330
158C
330
158F
330
1591
330
1598
330
159A
330
159D
330
159F
330
15A2
330
1ECC
330
1ECE
330
1ED0
330
1ED2
330
1ED4
330
5255
330
55B3
330
55B5
330
55B7
330
55B9
330
55BB
330
55BE
330
5818
330
581A
330
581C
330
581E
330
5820
330
5823
330
5825
330
5BAB
330
5BAD
330
5BAF
330
5BB1
330
5BB3
330
5BB5
330
5D19
330
5D1B
330
5D1D
330
5D1F
330
5D21
330
5D24
330
5E8E
330
5E90
330
5E92
330
5E94
330
5E96
330
5E99
330
5FD8
330
5FDA
330
5FDC
330
5FDE
330
5FE0
330
D95A
330
D970
330
D97E
330
D98D
330
D99B
330
D9B5
330
D9C3
330
D9EC
330
D9FB
330
DA44
330
DA51
330
DA5E
330
DA6B
330
DAF4
330
DB0F
330
DB1C
330
DB29
330
DB37
330
DB45
330
DB64
330
DB65
330
DB76
330
DC49
330
DC4A
330
DC4B
330
DC4C
330
DC4D
330
DC4E
330
DC6D
330
DC6E
330
DC7C
330
DC7D
330
DC7E
330
DC7F
330
DC81
330
DC82
330
DC92
330
DC93
330
DC96
330
DC98
330
DC99
330
DC9A
330
DC9B
330
DC9C
330
DEE9
330
DEEB
330
DEEF
330
DEF1
330
DEF3
330
DEF5
330
E074
330
E076
330
E078
330
E07A
330
E07C
330
E07E
330
E38C
  0
IDBUFFER
  5
104FD
330
0
100
AcDbIdBuffer
  0
IDBUFFER
  5
104FE
330
0
100
AcDbIdBuffer
330
FEA3
330
FEA4
330
FEA5
330
FEA6
330
FEA7
330
FEA8
330
FEA9
330
FEAA
330
FEAB
330
FEAC
330
FEAD
330
FEAE
330
FEAF
330
FEB0
330
FEB1
330
FEB2
330
FEB3
330
FF37
330
FF38
330
2415
330
FE1F
330
FE20
330
FE21
330
FE22
330
FE23
330
FE24
330
FE25
330
FE26
330
FE27
330
FE28
330
FE29
330
FE2A
330
FE2B
330
FE2C
330
FE2D
330
FE2E
330
FE2F
330
FE30
330
FE31
330
FE32
330
FE33
330
FE34
330
FE35
330
FE36
330
FE3A
330
FE3E
330
FE3F
330
FE43
330
FE44
330
FE45
330
FE46
330
FE47
330
FE48
330
FE49
330
FE4A
330
FE4E
330
FE52
330
FE56
330
FE57
330
FE58
330
FE5C
330
FE5D
330
FE5E
330
FE5F
330
FE60
330
FE61
330
FE62
330
FE63
330
FE64
330
FE65
330
FE66
330
FE67
330
FE68
330
FE69
330
FE6A
330
FE6B
330
FE6C
330
FE6D
330
FE6E
330
FE6F
330
FE70
330
FE71
330
FE72
330
FE73
330
FE74
330
FE75
330
FE76
330
FE77
330
FE78
330
FE79
330
FE7A
330
FE7B
330
FE7C
330
FE7D
330
FE7E
330
FE7F
330
FE80
330
FE81
330
FE82
330
FE83
330
FE84
330
FE85
330
FE86
330
FE87
330
FE88
330
FE89
330
FE8A
330
FE8B
330
FE8C
330
FE8D
330
FE8E
330
FE8F
330
FE90
330
FE91
330
FE92
330
FE93
330
FE94
330
FE95
330
FE96
330
FE97
330
FE98
330
FE99
330
FE9A
330
FE9B
330
FE9C
330
FE9D
330
FE9E
330
FE9F
330
FEA0
330
FEA1
330
FEA2
  0
IDBUFFER
  5
104FF
330
0
100
AcDbIdBuffer
330
C807
330
C808
330
C809
330
C80A
330
C80B
330
C80C
330
C80D
330
C80E
330
C80F
330
C810
330
C811
330
C812
330
C813
330
C814
330
C815
330
C816
330
C817
330
C818
330
C819
330
C81A
330
C821
330
C822
330
C823
330
C824
330
C825
330
C826
330
C82D
330
C82E
330
C82F
330
C830
330
C831
330
C832
330
C855
330
C856
330
C857
330
C858
330
C859
330
C85A
330
C85B
330
C85C
330
C85D
330
C85E
330
C85F
330
C860
330
C861
330
C863
330
C864
330
C866
330
C867
330
C868
330
C869
330
C86A
330
C86B
330
C86C
330
C86D
330
C86E
330
C86F
330
C870
330
C871
330
C872
330
C873
330
C874
330
C875
330
C876
330
C952
330
C953
330
C95F
330
C96C
330
C2EB
330
C2EC
330
C2ED
330
C2EE
330
C2EF
330
C2F0
330
C2F1
330
C2F2
330
C2F3
330
C2F4
330
C2F5
330
C2F6
330
C307
330
C308
330
C309
330
C30A
330
C30B
330
C30C
330
C30D
330
C30E
330
C497
330
C5F3
330
C610
330
C611
330
C612
330
C613
330
C616
330
C617
330
C618
330
C619
330
C61A
330
C61B
330
C63F
330
C640
330
C641
330
C642
330
C647
330
C648
330
C649
330
C64A
330
C64F
330
C650
330
C653
330
C654
330
C66D
330
C66E
330
C67F
330
C6A0
330
C6A1
330
C6A2
330
C6A3
330
C6A4
330
C6A5
330
C6A6
330
C6A7
330
C6A8
330
C6A9
330
C6AE
330
C6AF
330
C6C9
330
C6CA
330
C6D2
330
C6D3
330
C6D4
330
C6D5
330
C6D6
330
C6D7
330
C6D8
330
C6D9
330
C6F4
330
C7BE
330
C7BF
330
C7C0
330
C7C1
330
C7C2
330
C7C3
330
C7C4
330
C7C5
330
C7C6
330
C7C7
330
C7C8
330
C7C9
330
C7CA
330
C7CB
330
C7CC
330
C7CD
330
C7CE
330
C7CF
330
C7D0
330
C7D1
330
C7D2
330
C7D3
330
C7D4
330
C7D5
330
C7D6
330
C7D7
330
C7D8
330
C7D9
330
C7DA
330
C7DB
330
C7DC
330
C7FC
330
C7FD
330
C7FE
330
C7FF
330
C800
330
C801
330
C802
330
C803
330
C804
330
C805
330
C806
  0
IDBUFFER
  5
10500
330
0
100
AcDbIdBuffer
330
1020B
  0
XRECORD
  5
10511
102
{ACAD_REACTORS
330
10510
102
}
330
10510
100
AcDbXrecord
280
     1
102
SHADEPLOT
 70
     0
102
SHADEPLOTRESLEVEL
 70
     2
102
SHADEPLOTCUSTOMDPI
 70
   300
  0
XRECORD
  5
1050D
102
{ACAD_REACTORS
330
1050C
102
}
330
1050C
100
AcDbXrecord
280
     1
102
SHADEPLOT
 70
     0
102
SHADEPLOTRESLEVEL
 70
     2
102
SHADEPLOTCUSTOMDPI
 70
   300
  0
XRECORD
  5
1050B
102
{ACAD_REACTORS
330
1050A
102
}
330
1050A
100
AcDbXrecord
280
     1
102
SHADEPLOT
 70
     0
102
SHADEPLOTRESLEVEL
 70
     2
102
SHADEPLOTCUSTOMDPI
 70
   300
  0
ENDSEC
  0
EOF
