  0
SECTION
  2
HEADER
  9
$ACADVER
  1
AC1015
  9
$ACADMAINTVER
 70
    20
  9
$DWGCODEPAGE
  3
ANSI_950
  9
$INSBASE
 10
0.0
 20
0.0
 30
0.0
  9
$EXTMIN
 10
1208.38209970036
 20
799.8407717559189
 30
-0.0004550101601986
  9
$EXTMAX
 10
1224.165612285124
 20
811.2912948875491
 30
7.455682826226501
  9
$LIMMIN
 10
0.0
 20
0.0
  9
$LIMMAX
 10
297.0
 20
420.0
  9
$ORTHOMODE
 70
     0
  9
$REGENMODE
 70
     1
  9
$FILLMODE
 70
     1
  9
$QTEXTMODE
 70
     0
  9
$MIRRTEXT
 70
     1
  9
$LTSCALE
 40
0.5
  9
$ATTMODE
 70
     1
  9
$TEXTSIZE
 40
0.5
  9
$TRACEWID
 40
0.05
  9
$TEXTSTYLE
  7
CHINESET
  9
$CLAYER
  8
0
  9
$CELTYPE
  6
BYLAYER
  9
$CECOLOR
 62
   256
  9
$CELTSCALE
 40
0.5
  9
$DISPSILH
 70
     0
  9
$DIMSCALE
 40
1.0
  9
$DIMASZ
 40
0.12
  9
$DIMEXO
 40
0.06
  9
$DIMDLI
 40
0.3
  9
$DIMRND
 40
0.0
  9
$DIMDLE
 40
0.0
  9
$DIMEXE
 40
0.08
  9
$DIMTP
 40
0.01
  9
$DIMTM
 40
0.01
  9
$DIMTXT
 40
0.12
  9
$DIMCEN
 40
0.0
  9
$DIMTSZ
 40
0.0
  9
$DIMTOL
 70
     0
  9
$DIMLIM
 70
     0
  9
$DIMTIH
 70
     0
  9
$DIMTOH
 70
     0
  9
$DIMSE1
 70
     0
  9
$DIMSE2
 70
     0
  9
$DIMTAD
 70
     3
  9
$DIMZIN
 70
    10
  9
$DIMBLK
  1

  9
$DIMASO
 70
     1
  9
$DIMSHO
 70
     1
  9
$DIMPOST
  1

  9
$DIMAPOST
  1

  9
$DIMALT
 70
     1
  9
$DIMALTD
 70
     2
  9
$DIMALTF
 40
25.4
  9
$DIMLFAC
 40
1.0
  9
$DIMTOFL
 70
     1
  9
$DIMTVP
 40
0.0
  9
$DIMTIX
 70
     0
  9
$DIMSOXD
 70
     0
  9
$DIMSAH
 70
     0
  9
$DIMBLK1
  1

  9
$DIMBLK2
  1

  9
$DIMSTYLE
  2
STANDARD
  9
$DIMCLRD
 70
   256
  9
$DIMCLRE
 70
   256
  9
$DIMCLRT
 70
   256
  9
$DIMTFAC
 40
0.6
  9
$DIMGAP
 40
0.04
  9
$DIMJUST
 70
     0
  9
$DIMSD1
 70
     0
  9
$DIMSD2
 70
     0
  9
$DIMTOLJ
 70
     1
  9
$DIMTZIN
 70
     8
  9
$DIMALTZ
 70
    10
  9
$DIMALTTZ
 70
     0
  9
$DIMUPT
 70
     0
  9
$DIMDEC
 70
     2
  9
$DIMTDEC
 70
     8
  9
$DIMALTU
 70
     2
  9
$DIMALTTD
 70
     2
  9
$DIMTXSTY
  7
DAYUS
  9
$DIMAUNIT
 70
     0
  9
$DIMADEC
 70
     0
  9
$DIMALTRND
 40
0.0
  9
$DIMAZIN
 70
     2
  9
$DIMDSEP
 70
    46
  9
$DIMATFIT
 70
     3
  9
$DIMFRAC
 70
     0
  9
$DIMLDRBLK
  1

  9
$DIMLUNIT
 70
     2
  9
$DIMLWD
 70
    -1
  9
$DIMLWE
 70
    -1
  9
$DIMTMOVE
 70
     0
  9
$LUNITS
 70
     2
  9
$LUPREC
 70
     4
  9
$SKETCHINC
 40
0.1
  9
$FILLETRAD
 40
0.5
  9
$AUNITS
 70
     0
  9
$AUPREC
 70
     0
  9
$MENU
  1
.
  9
$ELEVATION
 40
0.0
  9
$PELEVATION
 40
0.0
  9
$THICKNESS
 40
0.0
  9
$LIMCHECK
 70
     0
  9
$CHAMFERA
 40
0.5
  9
$CHAMFERB
 40
0.5
  9
$CHAMFERC
 40
1.0
  9
$CHAMFERD
 40
0.0
  9
$SKPOLY
 70
     0
  9
$TDCREATE
 40
2452243.440373877
  9
$TDUCREATE
 40
2452243.107040544
  9
$TDUPDATE
 40
2455342.653688171
  9
$TDUUPDATE
 40
2455342.320354838
  9
$TDINDWG
 40
0.9671939931
  9
$TDUSRTIMER
 40
0.9671674537
  9
$USRTIMER
 70
     1
  9
$ANGBASE
 50
0.0
  9
$ANGDIR
 70
     0
  9
$PDMODE
 70
     0
  9
$PDSIZE
 40
0.0
  9
$PLINEWID
 40
0.0
  9
$SPLFRAME
 70
     0
  9
$SPLINETYPE
 70
     6
  9
$SPLINESEGS
 70
     8
  9
$HANDSEED
  5
FDF7
  9
$SURFTAB1
 70
     6
  9
$SURFTAB2
 70
     6
  9
$SURFTYPE
 70
     6
  9
$SURFU
 70
     6
  9
$SURFV
 70
     6
  9
$UCSBASE
  2

  9
$UCSNAME
  2

  9
$UCSORG
 10
0.0
 20
0.0
 30
0.0
  9
$UCSXDIR
 10
1.0
 20
0.0
 30
0.0
  9
$UCSYDIR
 10
0.0
 20
1.0
 30
0.0
  9
$UCSORTHOREF
  2

  9
$UCSORTHOVIEW
 70
     0
  9
$UCSORGTOP
 10
0.0
 20
0.0
 30
0.0
  9
$UCSORGBOTTOM
 10
0.0
 20
0.0
 30
0.0
  9
$UCSORGLEFT
 10
0.0
 20
0.0
 30
0.0
  9
$UCSORGRIGHT
 10
0.0
 20
0.0
 30
0.0
  9
$UCSORGFRONT
 10
0.0
 20
0.0
 30
0.0
  9
$UCSORGBACK
 10
0.0
 20
0.0
 30
0.0
  9
$PUCSBASE
  2

  9
$PUCSNAME
  2

  9
$PUCSORG
 10
0.0
 20
0.0
 30
0.0
  9
$PUCSXDIR
 10
1.0
 20
0.0
 30
0.0
  9
$PUCSYDIR
 10
0.0
 20
1.0
 30
0.0
  9
$PUCSORTHOREF
  2

  9
$PUCSORTHOVIEW
 70
     0
  9
$PUCSORGTOP
 10
0.0
 20
0.0
 30
0.0
  9
$PUCSORGBOTTOM
 10
0.0
 20
0.0
 30
0.0
  9
$PUCSORGLEFT
 10
0.0
 20
0.0
 30
0.0
  9
$PUCSORGRIGHT
 10
0.0
 20
0.0
 30
0.0
  9
$PUCSORGFRONT
 10
0.0
 20
0.0
 30
0.0
  9
$PUCSORGBACK
 10
0.0
 20
0.0
 30
0.0
  9
$USERI1
 70
     0
  9
$USERI2
 70
     0
  9
$USERI3
 70
     0
  9
$USERI4
 70
     0
  9
$USERI5
 70
     0
  9
$USERR1
 40
0.0
  9
$USERR2
 40
0.0
  9
$USERR3
 40
0.0
  9
$USERR4
 40
0.0
  9
$USERR5
 40
0.0
  9
$WORLDVIEW
 70
     1
  9
$SHADEDGE
 70
     3
  9
$SHADEDIF
 70
    70
  9
$TILEMODE
 70
     1
  9
$MAXACTVP
 70
    48
  9
$PINSBASE
 10
0.0
 20
0.0
 30
0.0
  9
$PLIMCHECK
 70
     0
  9
$PEXTMIN
 10
27.8447512626648
 20
20.24591643810271
 30
0.0
  9
$PEXTMAX
 10
250.6027613639831
 20
182.2132479429245
 30
0.0
  9
$PLIMMIN
 10
-3.757080078125
 20
-3.757083177566528
  9
$PLIMMAX
 10
293.2112426757813
 20
206.2162444591522
  9
$UNITMODE
 70
     0
  9
$VISRETAIN
 70
     1
  9
$PLINEGEN
 70
     0
  9
$PSLTSCALE
 70
     1
  9
$TREEDEPTH
 70
  3020
  9
$CMLSTYLE
  2
STANDARD
  9
$CMLJUST
 70
     0
  9
$CMLSCALE
 40
1.0
  9
$PROXYGRAPHICS
 70
     1
  9
$MEASUREMENT
 70
     1
  9
$CELWEIGHT
370
    -1
  9
$ENDCAPS
280
     0
  9
$JOINSTYLE
280
     0
  9
$LWDISPLAY
290
     0
  9
$INSUNITS
 70
     0
  9
$HYPERLINKBASE
  1

  9
$STYLESHEET
  1

  9
$XEDIT
290
     1
  9
$CEPSNTYPE
380
     0
  9
$PSTYLEMODE
290
     1
  9
$FINGERPRINTGUID
  2
{07D7BE12-0192-11D3-8697-0060B085A428}
  9
$VERSIONGUID
  2
{F903C755-0489-42B0-80B8-A37BBC223D36}
  9
$EXTNAMES
290
     1
  9
$PSVPSCALE
 40
0.0
  9
$OLESTARTUP
290
     0
  0
ENDSEC
  0
SECTION
  2
CLASSES
  0
CLASS
  1
ACMESTATEMGR
  2
AcMeStateMgr
  3
AcMeServices
 90
        0
280
     0
281
     0
  0
CLASS
  1
ACMESCOPE
  2
AcMeScope
  3
AcMeServices
 90
        0
280
     0
281
     0
  0
CLASS
  1
ACMECOMMANDHISTORY
  2
AcMeCommandHistory
  3
AcMeServices
 90
        0
280
     0
281
     0
  0
CLASS
  1
ACRFINSADJUSTERMGR
  2
AcRfInsAdjusterMgr
  3
AcMeServices
 90
        0
280
     0
281
     0
  0
CLASS
  1
ACMEDRAWINGMAN
  2
AcMeDrawingMan
  3
AcMeServices
 90
        0
280
     0
281
     0
  0
CLASS
  1
AMATTR
  2
AcMeAttribute
  3
AcMeServices
 90
    32768
280
     0
281
     0
  0
CLASS
  1
ACMEBOMCOLUMN
  2
AcMeBOMColumn
  3
AcMeServices
 90
    32768
280
     0
281
     0
  0
CLASS
  1
ACMEBOMCONF
  2
AcMeBOMConf
  3
AcMeServices
 90
    32768
280
     0
281
     0
  0
CLASS
  1
ACMEBOMTABLE
  2
AcMeBOMTable
  3
AcMeServices
 90
    32768
280
     0
281
     0
  0
CLASS
  1
ACMEBOMENTRY
  2
AcMeBOMEntry
  3
AcMeServices
 90
    32768
280
     0
281
     0
  0
CLASS
  1
ACMEVIEW
  2
AcMeView
  3
AcMeServices
 90
        0
280
     0
281
     0
  0
CLASS
  1
ACGREFMASTER
  2
AcGrefMaster
  3
AcAttribServices
 90
        0
280
     0
281
     0
  0
CLASS
  1
AMIMASTER
  2
AmiMaster
  3
AmiServices
 90
        0
280
     0
281
     0
  0
CLASS
  1
ACASGREFMASTER
  2
AcAsGrefMaster
  3
AutoSurfResolverServices
 90
        0
280
     0
281
     0
  0
CLASS
  1
ADAPPL
  2
AcAdAppl
  3
DesignerServices
 90
        0
280
     0
281
     0
  0
CLASS
  1
DEPMGR
  2
AcAdDepMgr
  3
DesignerServices
 90
        0
280
     0
281
     0
  0
CLASS
  1
PARAMMGR
  2
AcAdParamMgr
  3
DesignerServices
 90
        0
280
     0
281
     0
  0
CLASS
  1
PARAMSCOPE
  2
AcAdParamScope
  3
DesignerServices
 90
        0
280
     0
281
     0
  0
CLASS
  1
ACIMSYSVARMAN
  2
AcImSysVarManager
  3
AcMeServices
 90
        0
280
     0
281
     0
  0
CLASS
  1
ACIMINTSYSVAR
  2
AcImIntSysVar
  3
AcMeServices
 90
        0
280
     0
281
     0
  0
CLASS
  1
ACIMREALSYSVAR
  2
AcImRealSysVar
  3
AcMeServices
 90
        0
280
     0
281
     0
  0
CLASS
  1
ACIMSTRSYSVAR
  2
AcImStrSysVar
  3
AcMeServices
 90
        0
280
     0
281
     0
  0
CLASS
  1
NAMEDAPPL
  2
AcAdNamedAppl
  3
DesignerServices
 90
        0
280
     0
281
     0
  0
CLASS
  1
ADHNTMPLT
  2
AdHoleNoteTemplateMgr
  3
DesignerServices
 90
    32768
280
     0
281
     0
  0
CLASS
  1
AM_HNTEMPLATE_MGR_NAME
  2
AdHoleNoteTemplateMgrName
  3
DesignerServices
 90
    32768
280
     0
281
     0
  0
CLASS
  1
ACADGREFMODULE
  2
AcAdGrefModule
  3
AdGrefServices
 90
        0
280
     0
281
     0
  0
CLASS
  1
AM_DRAWING_MGR
  2
AcDmDwgMgr
  3
AcMechDwgViewMgmt
 90
        0
280
     0
281
     0
  0
CLASS
  1
AM_DWG_DOCUMENT
  2
AcDmDwgDocument
  3
AcMechDwgViewMgmt
 90
        0
280
     0
281
     0
  0
CLASS
  1
AM_DWG_SHEET
  2
AcDmSheet
  3
AcMechDwgViewMgmt
 90
        0
280
     0
281
     0
  0
CLASS
  1
AM_VIEWDIMPARMAP
  2
AcDmViewDimParMap
  3
AcMechDwgViewMgmt
 90
        0
280
     0
281
     0
  0
CLASS
  1
AM_DWGMGR_NAME
  2
AcDmDwgMgrName
  3
AcMechDwgViewMgmt
 90
        0
280
     0
281
     0
  0
CLASS
  1
ACAMPROJECT
  2
AcAmProject
  3
DesignerAssemblies
 90
        0
280
     0
281
     0
  0
CLASS
  1
ACAMGRCOMPSET
  2
AcAmGrCompSet
  3
DesignerAssemblies
 90
    32768
280
     1
281
     0
  0
CLASS
  1
ACAMGRCOMPDEFSET
  2
AcAmGrCompDefSet
  3
DesignerAssemblies
 90
        0
280
     0
281
     0
  0
CLASS
  1
ACAMGRCOMPDEF
  2
AcAmGrCompDef
  3
DesignerAssemblies
 90
        0
280
     0
281
     0
  0
CLASS
  1
ACCMCONTEXT
  2
AcCmContext
  3
DesignerAssemblies
 90
        0
280
     0
281
     0
  0
CLASS
  1
ACAMCOMPDEF
  2
AcAmCompDef
  3
DesignerAssemblies
 90
        0
280
     0
281
     0
  0
CLASS
  1
ACAMCOMPDEFMGR
  2
AcAmCompDefMgr
  3
DesignerAssemblies
 90
        0
280
     0
281
     0
  0
CLASS
  1
AMCONTEXTMGR
  2
AcAmContextMgr
  3
DesignerAssemblies
 90
        0
280
     0
281
     0
  0
CLASS
  1
ACAMCONTEXTMODELER
  2
AcAmContextModeler
  3
DesignerAssemblies
 90
        0
280
     0
281
     0
  0
CLASS
  1
ACDMVIEWGEOM
  2
AcDmViewGeometry
  3
AcMechDwgViewMgmt
 90
    32768
280
     0
281
     1
  0
CLASS
  1
CBROWSERAPPOBJECT
  2
CBrowserAppObject
  3
McadcomServices
 90
        0
280
     0
281
     0
  0
CLASS
  1
IM_STATIC_MAN
  2
AcImStaticVarManager
  3
AcMeServices
 90
        0
280
     0
281
     0
  0
CLASS
  1
ASAPP
  2
AcAsAppObject
  3
AutoSurfServices
 90
        0
280
     0
281
     0
  0
CLASS
  1
ACIMDBLSTATICVAR
  2
AcImDblStaticVar
  3
AcMeServices
 90
        0
280
     0
281
     0
  0
CLASS
  1
ACIMSTRSTATICVAR
  2
AcImStrStaticVar
  3
AcMeServices
 90
        0
280
     0
281
     0
  0
CLASS
  1
ACIMINTSTATICVAR
  2
AcImIntStaticVar
  3
AcMeServices
 90
        0
280
     0
281
     0
  0
CLASS
  1
CATALOGSTATE
  2
AcAmCatalogState
  3
DesignerAssemblies
 90
        0
280
     0
281
     0
  0
CLASS
  1
DM_PLACEHOLDER
  2
AcDmSelsetPlaceholder
  3
AcMechDwgViewMgmt
 90
        0
280
     0
281
     0
  0
CLASS
  1
DICTIONARYVAR
  2
AcDbDictionaryVar
  3
ObjectDBX Classes
 90
        0
280
     0
281
     0
  0
CLASS
  1
ACMSTANDARDJIS
  2
AcmStandardJIS
  3
"Amdt_StdImp|Product Description: AutoCAD Mechanical 2004 DX|Company: Autodesk"
 90
    32768
280
     0
281
     0
  0
CLASS
  1
ACMSTANDARDANSI
  2
AcmStandardANSI
  3
"Amdt_StdImp|Product Description: AutoCAD Mechanical 2004 DX|Company: Autodesk"
 90
    32768
280
     0
281
     0
  0
CLASS
  1
ACMSTANDARDBSI
  2
AcmStandardBSI
  3
"Amdt_StdImp|Product Description: AutoCAD Mechanical 2004 DX|Company: Autodesk"
 90
    32768
280
     0
281
     0
  0
CLASS
  1
ACMSTANDARDDIN
  2
AcmStandardDIN
  3
"Amdt_StdImp|Product Description: AutoCAD Mechanical 2004 DX|Company: Autodesk"
 90
    32768
280
     0
281
     0
  0
CLASS
  1
ACMSTANDARDISO
  2
AcmStandardISO
  3
"Amdt_StdImp|Product Description: AutoCAD Mechanical 2004 DX|Company: Autodesk"
 90
        0
280
     0
281
     0
  0
CLASS
  1
LAYER_INDEX
  2
AcDbLayerIndex
  3
ObjectDBX Classes
 90
        0
280
     0
281
     0
  0
CLASS
  1
IDBUFFER
  2
AcDbIdBuffer
  3
ObjectDBX Classes
 90
        0
280
     0
281
     0
  0
CLASS
  1
ACDBDICTIONARYWDFLT
  2
AcDbDictionaryWithDefault
  3
ObjectDBX Classes
 90
        0
280
     0
281
     0
  0
CLASS
  1
ACDBPLACEHOLDER
  2
AcDbPlaceHolder
  3
ObjectDBX Classes
 90
        0
280
     0
281
     0
  0
CLASS
  1
LAYOUT
  2
AcDbLayout
  3
ObjectDBX Classes
 90
        0
280
     0
281
     0
  0
CLASS
  1
ACME_DOCUMENT
  2
AcMeDbDoc
  3
AcMeServices
 90
        0
280
     0
281
     0
  0
CLASS
  1
AMGSETTINGSOBJ
  2
AmgSettingsObj
  3
"AcadM|Product Description: AutoCAD Mechanical 2000|Company: Autodesk"
 90
        0
280
     0
281
     0
  0
CLASS
  1
AMGOBJPROPCFG
  2
AmgObjPropCfg
  3
"AmgLay|Product Description: AutoCAD Mechanical 2000|Company: Autodesk"
 90
        1
280
     0
281
     0
  0
CLASS
  1
ACDBENTITYCACHE
  2
AcMeEntityCache
  3
AcMeServices
 90
        0
280
     0
281
     0
  0
CLASS
  1
GSMANAGER
  2
AcMeGSManager
  3
AcMeServices
 90
        0
280
     0
281
     0
  0
CLASS
  1
AMDTINTERNALREACTOR
  2
AmdtInternalReactor
  3
AcMeServices
 90
        0
280
     0
281
     0
  0
CLASS
  1
ACME_DATABASE
  2
AcMeDbDatabase
  3
AcMeServices
 90
        0
280
     0
281
     0
  0
CLASS
  1
ACGREFACADMASTER
  2
AcGrefacadMaster
  3
AcGrefServices
 90
        0
280
     0
281
     0
  0
CLASS
  1
AMDTMENUSTATEMGR
  2
AmdtMenuStateMgr
  3
McadcomServices
 90
        0
280
     0
281
     0
  0
CLASS
  1
AMDTMCOMMENUSTATE
  2
AmdtMcomMenuState
  3
McadcomServices
 90
        0
280
     0
281
     0
  0
CLASS
  1
MAPIADMODULE
  2
MApiAdModule
  3
MApiAdServices
 90
        0
280
     0
281
     0
  0
CLASS
  1
AMDTDMMENUSTATE
  2
AmdtDmMenuState
  3
AcMechDwgViewMgmt
 90
        0
280
     0
281
     0
  0
CLASS
  1
AMDTADMENUSTATE
  2
AmdtAdMenuState
  3
DesignerServices
 90
        0
280
     0
281
     0
  0
CLASS
  1
AMDTAMMENUSTATE
  2
AmdtAmMenuState
  3
DesignerAssemblies
 90
        0
280
     0
281
     0
  0
CLASS
  1
ACMDATADICTIONARY
  2
AcmDataDictionary
  3
"AcmSymBB|Product Description: AutoCAD Mechanical 2004 DX|Company: Autodesk"
 90
        0
280
     0
281
     0
  0
CLASS
  1
ACMDATAENTRYBLOCK
  2
AcmDataEntryBlock
  3
"AcmSymBB|Product Description: AutoCAD Mechanical 2004 DX|Company: Autodesk"
 90
        0
280
     0
281
     0
  0
CLASS
  1
AMDTBROWSERDBTAB
  2
AmdtBrowserDbTab
  3
McadcomServices
 90
        0
280
     0
281
     0
  0
CLASS
  1
ACAMGFILTERDAT
  2
AcAmgFilterDat
  3
"AcadM|Product Description: AutoCAD Mechanical 2000|Company: Autodesk"
 90
    32768
280
     0
281
     0
  0
CLASS
  1
MAPIAMMOUDLE
  2
MApiAmModule
  3
MApiAmServices
 90
        0
280
     0
281
     0
  0
CLASS
  1
ACAMEXTERNALCOMPDEF
  2
AcAmExternalCompDef
  3
DesignerAssemblies
 90
    32768
280
     0
281
     0
  0
CLASS
  1
ACCMBODY
  2
AcCmBody
  3
DesignerAssemblies
 90
    32768
280
     0
281
     0
  0
CLASS
  1
ACAMCOMPENT
  2
AcAmCompEnt
  3
DesignerAssemblies
 90
    32768
280
     0
281
     1
  0
CLASS
  1
ACAMCOMPFEEDBACK
  2
AcAmCompFeedback
  3
DesignerAssemblies
 90
    32768
280
     0
281
     0
  0
CLASS
  1
ACAMCOMP
  2
AcAmComp
  3
DesignerAssemblies
 90
    32768
280
     0
281
     0
  0
CLASS
  1
ACAMCOMPENTCLONE
  2
AcAmCompEntClone
  3
DesignerAssemblies
 90
    32768
280
     0
281
     1
  0
CLASS
  1
ACAMCLONEREACTOR
  2
AcAmGrCompCloneReactor
  3
DesignerAssemblies
 90
    32768
280
     0
281
     0
  0
CLASS
  1
ADPART
  2
AcAdPart
  3
DesignerServices
 90
    32768
280
     0
281
     1
  0
CLASS
  1
WORKPLANEDISPLAYMGR
  2
AcAdDisplayMgr
  3
DesignerServices
 90
    32768
280
     0
281
     0
  0
CLASS
  1
PARAM
  2
AcAdParam
  3
DesignerServices
 90
    32768
280
     0
281
     0
  0
CLASS
  1
ADDATUMAXISABS
  2
AcAdDatumAxisAbs
  3
DesignerServices
 90
    32768
280
     0
281
     0
  0
CLASS
  1
ADBASE
  2
AcAdBase
  3
DesignerServices
 90
    32768
280
     0
281
     0
  0
CLASS
  1
ADDATUMPLANEABS
  2
AcAdDatumPlaneAbs
  3
DesignerServices
 90
    32768
280
     0
281
     0
  0
CLASS
  1
BODYID
  2
AcAdBodyId
  3
DesignerServices
 90
    32768
280
     0
281
     0
  0
CLASS
  1
ADDATUMORIENTEDPLANE
  2
AcAdDatumOrientedPlane
  3
DesignerServices
 90
    32768
280
     0
281
     0
  0
CLASS
  1
ACADCONSGROUP
  2
AcAdConstraintGroup
  3
DesignerServices
 90
    32768
280
     0
281
     0
  0
CLASS
  1
ACADREFLINEACAD
  2
AcAdVirtualReferenceLine
  3
DesignerServices
 90
    32768
280
     0
281
     0
  0
CLASS
  1
ACADCONSLINE
  2
AcAdConstrainedLine
  3
DesignerServices
 90
    32768
280
     0
281
     0
  0
CLASS
  1
ACADLINEACAD
  2
AcAdVirtualBoundedLineAcad
  3
DesignerServices
 90
    32768
280
     0
281
     0
  0
CLASS
  1
ACADCONSPOINT
  2
AcAdConstrainedPoint
  3
DesignerServices
 90
    32768
280
     0
281
     0
  0
CLASS
  1
ADPCURCNS
  2
AcAdPointCurveConstr
  3
DesignerServices
 90
    32768
280
     0
281
     0
  0
CLASS
  1
ADHORCNS
  2
AcAdHorizontalConstr
  3
DesignerServices
 90
    32768
280
     0
281
     0
  0
CLASS
  1
ADVERCNS
  2
AcAdVerticalConstr
  3
DesignerServices
 90
    32768
280
     0
281
     0
  0
CLASS
  1
ACAD_FIXCONSTRAINT
  2
AcAdFixedConstraint
  3
DesignerServices
 90
    32768
280
     0
281
     0
  0
CLASS
  1
ADVDISTCNS
  2
AcAdVerticalDistanceConstr
  3
DesignerServices
 90
    32768
280
     0
281
     0
  0
CLASS
  1
ADHDISTCNS
  2
AcAdHorizontalDistanceConstr
  3
DesignerServices
 90
    32768
280
     0
281
     0
  0
CLASS
  1
ACADIMPPTACAD
  2
AcAdVirtualImplicitPoint
  3
DesignerServices
 90
    32768
280
     0
281
     0
  0
CLASS
  1
ADCLPROF2D
  2
AcAdClosedProfile2d
  3
DesignerServices
 90
    32768
280
     0
281
     0
  0
CLASS
  1
DEPEDGEFEATUREORDERING
  2
AcAdDepEdgeFeatureOrdering
  3
DesignerServices
 90
    32768
280
     0
281
     0
  0
CLASS
  1
ACADVOLFEATWITHTRIM
  2
AcAdVolFeatWithTrim
  3
DesignerServices
 90
    32768
280
     0
281
     0
  0
CLASS
  1
ADPLANEID
  2
AcAdPlaneId
  3
DesignerServices
 90
    32768
280
     0
281
     0
  0
CLASS
  1
OSTREFID
  2
AcAdOrientedStraightRefId
  3
DesignerServices
 90
    32768
280
     0
281
     0
  0
CLASS
  1
STREFID
  2
AcAdStraightRefId
  3
DesignerServices
 90
    32768
280
     0
281
     0
  0
CLASS
  1
CNRREFID
  2
AcAdCornerId
  3
DesignerServices
 90
    32768
280
     0
281
     0
  0
CLASS
  1
ADSTRAIGHTID
  2
AcAdStraightId
  3
DesignerServices
 90
    32768
280
     0
281
     0
  0
CLASS
  1
HVREFID
  2
AcAdHVRefId
  3
DesignerServices
 90
    32768
280
     0
281
     0
  0
CLASS
  1
ADDATUMPLANEFACE
  2
AcAdDatumPlaneFace
  3
DesignerServices
 90
    32768
280
     0
281
     0
  0
CLASS
  1
ADDATUMPOINT2EDGES
  2
AcAdDatumPoint2Edges
  3
DesignerServices
 90
    32768
280
     0
281
     0
  0
CLASS
  1
ADDATUMAXISEDGE
  2
AcAdDatumAxisEdge
  3
DesignerServices
 90
    32768
280
     0
281
     0
  0
CLASS
  1
ADHOLEFEAT
  2
AcAdHoleFeat
  3
DesignerServices
 90
    32768
280
     0
281
     0
  0
CLASS
  1
DATUMPLANEDISPLAY
  2
AcAdDatumPlaneDisplay
  3
DesignerServices
 90
    32768
280
     0
281
     1
  0
CLASS
  1
ADDATUMPLANEOFFSET
  2
AcAdDatumPlaneOffset
  3
DesignerServices
 90
    32768
280
     0
281
     0
  0
CLASS
  1
ADDATUMPLANEAXISPLANE
  2
AcAdDatumPlaneAxisPlane
  3
DesignerServices
 90
    32768
280
     0
281
     0
  0
CLASS
  1
ADSURFGEOMID
  2
AcAdSurfGeomId
  3
DesignerServices
 90
    32768
280
     0
281
     0
  0
CLASS
  1
EDGEID
  2
AcAdEdgeId
  3
DesignerServices
 90
    32768
280
     0
281
     0
  0
CLASS
  1
ACADLINEDEPID
  2
AcAdVirtualLineDepId
  3
DesignerServices
 90
    32768
280
     0
281
     0
  0
CLASS
  1
ADCOLNCNS
  2
AcAdColinearConstr
  3
DesignerServices
 90
    32768
280
     0
281
     0
  0
CLASS
  1
ACADBOUNDEDLINEDATUMID
  2
AcAdVirtualBoundedLineDatumId
  3
DesignerServices
 90
    32768
280
     0
281
     0
  0
CLASS
  1
DATUMAXISDISPLAY
  2
AcAdDatumAxisDisplay
  3
DesignerServices
 90
    32768
280
     0
281
     1
  0
CLASS
  1
ADDATUMAXISCENTER
  2
AcAdDatumAxisCenter
  3
DesignerServices
 90
    32768
280
     0
281
     0
  0
CLASS
  1
ACADCIRCLEACAD
  2
AcAdVirtualCircleAcad
  3
DesignerServices
 90
    32768
280
     0
281
     0
  0
CLASS
  1
ACADCONSCIRCLE
  2
AcAdConstrainedCircle
  3
DesignerServices
 90
    32768
280
     0
281
     0
  0
CLASS
  1
ADCTRPTCNS
  2
AcAdCenterPointConstr
  3
DesignerServices
 90
    32768
280
     0
281
     0
  0
CLASS
  1
ADACADDIACNS
  2
AcAdAcadDiameterConstr
  3
DesignerServices
 90
    32768
280
     0
281
     0
  0
CLASS
  1
ACADPOINTDEPID
  2
AcAdVirtualPointDepId
  3
DesignerServices
 90
    32768
280
     0
281
     0
  0
CLASS
  1
ADDATUMPOINTAXISPLANE
  2
AcAdDatumPointAxisPlane
  3
DesignerServices
 90
    32768
280
     0
281
     0
  0
CLASS
  1
ADFILLET
  2
AcAdFillet
  3
DesignerServices
 90
    32768
280
     0
281
     0
  0
CLASS
  1
ADFEATRECTARRAY
  2
AcAdRectangularFeatArray
  3
DesignerServices
 90
    32768
280
     0
281
     0
  0
CLASS
  1
DEPEDGESECONDARYDEPID
  2
AcAdDepEdgeSecondaryDepId
  3
DesignerServices
 90
    32768
280
     0
281
     0
  0
CLASS
  1
CIRREFID
  2
AcAdCircleRefId
  3
DesignerServices
 90
    32768
280
     0
281
     0
  0
CLASS
  1
ACADCIRCDEPID
  2
AcAdVirtualCircleDepId
  3
DesignerServices
 90
    32768
280
     0
281
     0
  0
CLASS
  1
ADVIRTUALPOINTWORKPOINTFREE
  2
AcAdVirtualPointWorkPointFree
  3
DesignerServices
 90
    32768
280
     0
281
     0
  0
CLASS
  1
ADWORKPOINTDISPLAY
  2
AcAdWorkPointDisplay
  3
DesignerServices
 90
    32768
280
     0
281
     1
  0
CLASS
  1
ADWORKPOINTSKETCH
  2
AcAdWorkPointSketch
  3
DesignerServices
 90
    32768
280
     0
281
     0
  0
CLASS
  1
FACEID
  2
AcAdFaceId
  3
DesignerServices
 90
    32768
280
     0
281
     0
  0
CLASS
  1
ACAMGROUNDEDBASECOMP
  2
AcAmGroundedBaseComp
  3
DesignerAssemblies
 90
    32768
280
     0
281
     0
  0
CLASS
  1
SILEDGEID
  2
AcAdSilhouetteEdgeId
  3
DesignerServices
 90
    32768
280
     0
281
     0
  0
CLASS
  1
ADCONCCNS
  2
AcAdConcentricConstr
  3
DesignerServices
 90
    32768
280
     0
281
     0
  0
CLASS
  1
ACADPARTCIRCEDGRES
  2
AcAdPartCircEdgRes
  3
AdGrefServices
 90
    32768
280
     0
281
     0
  0
CLASS
  1
ACRFINSADJ
  2
AcRfInsAdjuster
  3
AcMeServices
 90
    32768
280
     0
281
     0
  0
CLASS
  1
ACADPARTPLANARFACERES
  2
AcAdPartPlanarFaceRes
  3
AdGrefServices
 90
    32768
280
     0
281
     0
  0
CLASS
  1
ACMELINEARARROW
  2
AcImLinearArrowDisplay
  3
AcMeServices
 90
    32768
280
     0
281
     1
  0
CLASS
  1
ACAMEXPR
  2
AcAmExpr
  3
DesignerAssemblies
 90
    32768
280
     0
281
     0
  0
CLASS
  1
ACCMINSERTPLPL
  2
AcCmInsertPlPl
  3
AcCmServices
 90
    32768
280
     0
281
     0
  0
CLASS
  1
ACCMCONSTREACTOR
  2
AcCmConstraintReactor
  3
DesignerAssemblies
 90
    32768
280
     0
281
     0
  0
CLASS
  1
ACAD_CIRCLE
  2
AcAdCircle
  3
DesignerServices
 90
    32768
280
     0
281
     1
  0
CLASS
  1
ADCONSTDSP
  2
AcAdConstraintDisplayTag
  3
DesignerServices
 90
    32768
280
     0
281
     1
  0
CLASS
  1
ADCONSDISP
  2
AcAdConstraintDisplay
  3
DesignerServices
 90
    32768
280
     0
281
     1
  0
CLASS
  1
ACMEPOINT
  2
AcImPointDisplay
  3
AcMeServices
 90
    32768
280
     0
281
     1
  0
CLASS
  1
ACMEPLINE
  2
AcImPlineDisplay
  3
AcMeServices
 90
    32768
280
     0
281
     1
  0
CLASS
  1
ACMECIRCARC
  2
AcImCircArcDisplay
  3
AcMeServices
 90
    32768
280
     0
281
     1
  0
CLASS
  1
ACADPARTCYLINDERFACERES
  2
AcAdPartCylinderFaceRes
  3
AdGrefServices
 90
    32768
280
     0
281
     0
  0
CLASS
  1
ACADPARTAXISRES
  2
AcAdPartAxisRes
  3
AdGrefServices
 90
    32768
280
     0
281
     0
  0
CLASS
  1
ACADPARTDATUMPLANERES
  2
AcAdPartDatumPlaneRes
  3
AdGrefServices
 90
    32768
280
     0
281
     0
  0
CLASS
  1
ADDATUMPLANETANGENTPLANE
  2
AcAdDatumPlaneTangentPlane
  3
DesignerServices
 90
    32768
280
     0
281
     0
  0
CLASS
  1
ACADPARTDATUMPOINTRES
  2
AcAdPartDatumPointRes
  3
AdGrefServices
 90
    32768
280
     0
281
     0
  0
CLASS
  1
ADPROJCNS
  2
AcAdProjectionConstr
  3
DesignerServices
 90
    32768
280
     0
281
     0
  0
CLASS
  1
ACADSKETCHPOINTRES
  2
AcAdSketchPointRes
  3
DesignerServices
 90
    32768
280
     0
281
     0
  0
CLASS
  1
ACADSKETCHLINERES
  2
AcAdSketchLineRes
  3
DesignerServices
 90
    32768
280
     0
281
     0
  0
CLASS
  1
ACAD_LINE
  2
AcAdLine
  3
DesignerServices
 90
    32768
280
     0
281
     1
  0
CLASS
  1
ADPERPCNS
  2
AcAdPerpendicularConstr
  3
DesignerServices
 90
    32768
280
     0
281
     0
  0
CLASS
  1
ADVIRTUALPOINTWORKPOINTFIXED
  2
AcAdVirtualPointWorkPointFixed
  3
DesignerServices
 90
    32768
280
     0
281
     0
  0
CLASS
  1
NEWSTDPARTPARLIST
  2
AmgNewParListFiler
  3
"AmgParList|Product Description: AutoCAD Mechanical 2000|Company: Autodesk"
 90
    33791
280
     0
281
     0
  0
CLASS
  1
ACMSURFSTANDARDANSI
  2
AcmSurfTextStdANSI
  3
"Amdt_StdImp|Product Description: AutoCAD Mechanical 2004 DX|Company: Autodesk"
 90
    32768
280
     0
281
     0
  0
CLASS
  1
ACMFCFSTANDARDANSI
  2
AcmFCFStdANSI
  3
"Amdt_StdImp|Product Description: AutoCAD Mechanical 2004 DX|Company: Autodesk"
 90
    32768
280
     0
281
     0
  0
CLASS
  1
ACMWELDSTANDARDANSI
  2
AcmWeldingStdANSI
  3
"Amdt_StdImp|Product Description: AutoCAD Mechanical 2004 DX|Company: Autodesk"
 90
    32768
280
     0
281
     0
  0
CLASS
  1
ACMIDSTANDARDANSI
  2
AcmIdStdANSI
  3
"Amdt_StdImp|Product Description: AutoCAD Mechanical 2004 DX|Company: Autodesk"
 90
    32768
280
     0
281
     0
  0
CLASS
  1
ACMDATUMSTANDARDANSI
  2
AcmDatumStdANSI
  3
"Amdt_StdImp|Product Description: AutoCAD Mechanical 2004 DX|Company: Autodesk"
 90
    32768
280
     0
281
     0
  0
CLASS
  1
ACMBOMSTANDARDANSI
  2
AcmBOMStdANSI
  3
"Amdt_StdImp|Product Description: AutoCAD Mechanical 2004 DX|Company: Autodesk"
 90
    32768
280
     0
281
     0
  0
CLASS
  1
ACAMGRBLOCKRECORD
  2
AcAmGrBlockRecord
  3
DesignerAssemblies
 90
    32768
280
     0
281
     0
  0
CLASS
  1
ACAMVIEWREACTOR
  2
AcAmViewReactor
  3
DesignerAssemblies
 90
    32768
280
     0
281
     0
  0
CLASS
  1
AMVIEW
  2
AcAmView
  3
DesignerAssemblies
 90
    32768
280
     0
281
     0
  0
CLASS
  1
ACAMVIEWCONTEXT
  2
AcAmViewContext
  3
DesignerAssemblies
 90
    32768
280
     0
281
     0
  0
CLASS
  1
ACAMCOMPVIEWREACTOR
  2
AcAmGrCompViewReactor
  3
DesignerAssemblies
 90
    32768
280
     0
281
     0
  0
CLASS
  1
ACAMCOMPENTVIEW
  2
AcAmCompEntView
  3
DesignerAssemblies
 90
    32768
280
     0
281
     1
  0
CLASS
  1
ACAMVIEWENTITYFILTER
  2
AcAmViewEntityFilter
  3
DesignerAssemblies
 90
    32768
280
     0
281
     0
  0
CLASS
  1
AM_GREF_PLANE
  2
AcDmGrefPlnDef
  3
AcMechDwgViewMgmt
 90
    32768
280
     0
281
     0
  0
CLASS
  1
AM_ABS_AXIS
  2
AcDmAbsAxisDef
  3
AcMechDwgViewMgmt
 90
    32768
280
     0
281
     0
  0
CLASS
  1
AM_BASE_VIEW_ORIENT
  2
AcDmBaseViewOr
  3
AcMechDwgViewMgmt
 90
    32768
280
     0
281
     0
  0
CLASS
  1
AM_DWG_VIEWPORT
  2
AcDmViewport
  3
AcMechDwgViewMgmt
 90
    32768
280
     0
281
     0
  0
CLASS
  1
AM_VIEW_DISPLAY
  2
AcDmDwgViewDisplay
  3
AcMechDwgViewMgmt
 90
    32768
280
     0
281
     0
  0
CLASS
  1
AM_CLDFLTS
  2
AcDmClDflts
  3
AcMechDwgViewMgmt
 90
    32768
280
     0
281
     0
  0
CLASS
  1
AM_BASE_VIEW
  2
AcDmBaseView
  3
AcMechDwgViewMgmt
 90
    32768
280
     0
281
     0
  0
CLASS
  1
ACDMVWEDLINE
  2
AcDmViewEdgeLine
  3
AcMechDwgViewMgmt
 90
    32768
280
     0
281
     1
  0
CLASS
  1
ACDMVWEDCIRC
  2
AcDmViewEdgeCircle
  3
AcMechDwgViewMgmt
 90
    32768
280
     0
281
     1
  0
CLASS
  1
ACDMVWEDARC
  2
AcDmViewEdgeArc
  3
AcMechDwgViewMgmt
 90
    32768
280
     0
281
     1
  0
CLASS
  1
AM_ADCIRCTRLINE
  2
AcAdBullsEyeCl
  3
DesignerServices
 90
    32768
280
     0
281
     0
  0
CLASS
  1
AD_CIRCTAPH
  2
AcAdTapHoleCircDisp
  3
DesignerServices
 90
    32768
280
     0
281
     0
  0
CLASS
  1
AM_ORTHO_VIEW_ORIENT
  2
AcDmOrthoViewOr
  3
AcMechDwgViewMgmt
 90
    32768
280
     0
281
     0
  0
CLASS
  1
AM_ORTHO_VIEW
  2
AcDmOrthoView
  3
AcMechDwgViewMgmt
 90
    32768
280
     0
281
     0
  0
CLASS
  1
AM_GREF_POINT
  2
AcDmGrefPntDef
  3
AcMechDwgViewMgmt
 90
    32768
280
     0
281
     0
  0
CLASS
  1
AM_FULLPOINTSECTION
  2
AcDmFullPointSection
  3
AcMechDwgViewMgmt
 90
    32768
280
     0
281
     0
  0
CLASS
  1
AM_SECTIONSYMBOL
  2
AcDmSectionSymbol
  3
AcMechDwgViewMgmt
 90
    32768
280
     0
281
     0
  0
CLASS
  1
AM_VIEWLABEL
  2
AcDmViewLabel
  3
AcMechDwgViewMgmt
 90
    32768
280
     0
281
     0
  0
CLASS
  1
ACDMVWEDSPLINE
  2
AcDmViewEdgeSpline
  3
AcMechDwgViewMgmt
 90
    32768
280
     0
281
     1
  0
CLASS
  1
ACDMVWEDELLIPSE
  2
AcDmViewEdgeEllipse
  3
AcMechDwgViewMgmt
 90
    32768
280
     0
281
     1
  0
CLASS
  1
AM_ADLINCTRLINE
  2
AcAdLineCl
  3
DesignerServices
 90
    32768
280
     0
281
     0
  0
CLASS
  1
AD_LINETAPH
  2
AcAdTapHoleLineDisp
  3
DesignerServices
 90
    32768
280
     0
281
     0
  0
CLASS
  1
ACDMGREFEDIT
  2
AcDmViewEntityGeomrefEdit
  3
AcMechDwgViewMgmt
 90
    32768
280
     0
281
     0
  0
CLASS
  1
ACDMVIEWLINEDGERES
  2
AcDmViewLinEdgeRes
  3
AcMechDwgViewMgmt
 90
    32768
280
     0
281
     0
  0
CLASS
  1
AM_VIEWDIMLINEAR
  2
AcDmViewDimLinear
  3
AcMechDwgViewMgmt
 90
    32768
280
     0
281
     0
  0
CLASS
  1
ACRFATTGENMGR
  2
AcRfAttGeneralMgr
  3
AcAttribServices
 90
    32768
280
     0
281
     0
  0
CLASS
  1
AM_HALFPOINTSECTION
  2
AcDmHalfPointSection
  3
AcMechDwgViewMgmt
 90
    32768
280
     0
281
     0
  0
CLASS
  1
AMDTMAPISURFMOUDULE
  2
AmdtMApiSurfModule
  3
MApiSurfServices
 90
        0
280
     0
281
     0
  0
CLASS
  1
ACDMPARTVIEWDATA
  2
AcDmPartViewData
  3
AcMechDwgViewMgmt
 90
    32768
280
     0
281
     0
  0
CLASS
  1
ACDMDISPLAYATTRIBS
  2
AcDmDisplayAttribs
  3
AcMechDwgViewMgmt
 90
    32768
280
     0
281
     0
  0
CLASS
  1
ACDMBODYINSTANCEDATA
  2
AcDmBodyInstanceData
  3
AcMechDwgViewMgmt
 90
    32768
280
     0
281
     0
  0
CLASS
  1
AMDTFORMULAUPDATEDISPATCHER
  2
AmdtFormulaUpdateDispatcher
  3
AcMeServices
 90
    32768
280
     0
281
     0
  0
CLASS
  1
ACAMGTITLESTD
  2
AcAmgTitleStd
  3
"TITLEAPP"
 90
        0
280
     0
281
     0
  0
CLASS
  1
ACMDETAILSTANDARDANSI
  2
AmdtDetailSymStdANSI
  3
"Amdt_StdImp|Product Description: AutoCAD Mechanical 2004 DX|Company: Autodesk"
 90
    32768
280
     0
281
     0
  0
CLASS
  1
ACMSECTIONSTANDARDANSI
  2
AmdtSectionSymStdANSI
  3
"Amdt_StdImp|Product Description: AutoCAD Mechanical 2004 DX|Company: Autodesk"
 90
    32768
280
     0
281
     0
  0
CLASS
  1
ACMCENTERLINESTANDARDANSI
  2
AmdtCenterLineStdANSI
  3
"Amdt_StdImp|Product Description: AutoCAD Mechanical 2004 DX|Company: Autodesk"
 90
    32768
280
     0
281
     0
  0
CLASS
  1
ACMTHREADLINESTANDARDANSI
  2
AmdtThreadLineStdANSI
  3
"Amdt_StdImp|Product Description: AutoCAD Mechanical 2004 DX|Company: Autodesk"
 90
    32768
280
     0
281
     0
  0
CLASS
  1
ACMNOTESTANDARDANSI
  2
AmdtNoteStdANSI
  3
"Amdt_StdImp|Product Description: AutoCAD Mechanical 2004 DX|Company: Autodesk"
 90
    32768
280
     0
281
     0
  0
CLASS
  1
ACAMGLAYSTD
  2
AcAmgLayStd
  3
"AcAmgLayStd|Product Description: AutoCAD Mechanical 2000|Company: Autodesk"
 90
        0
280
     0
281
     0
  0
CLASS
  1
ACAMGDIMSTD
  2
AcAmgDimStd
  3
"AcAmgDimStd|Product Description: AutoCAD Mechanical 2000|Company: Autodesk"
 90
        0
280
     0
281
     0
  0
CLASS
  1
ACAMGHOLECHARTSTDANSI
  2
AcAmgHoleChartStdANSI
  3
ACMSYMBB_MODULE_NAME
 90
    32768
280
     0
281
     0
  0
CLASS
  1
AM_ABS_PLANE
  2
AcDmAbsPlnDef
  3
AcMechDwgViewMgmt
 90
    32768
280
     0
281
     0
  0
CLASS
  1
ACADPARTPOINTRES
  2
AcAdPartPointRes
  3
AdGrefServices
 90
    32768
280
     0
281
     0
  0
CLASS
  1
ACDBLINERES
  2
AcDbLineRes
  3
AcGrefServices
 90
    32768
280
     0
281
     0
  0
CLASS
  1
ACADPARTLINEDGRES
  2
AcAdPartLinEdgRes
  3
AdGrefServices
 90
    32768
280
     0
281
     0
  0
CLASS
  1
AM_GREF_AXIS
  2
AcDmGrefAxisDef
  3
AcMechDwgViewMgmt
 90
    32768
280
     0
281
     0
  0
CLASS
  1
ACADPARTSPLINEEDGERES
  2
AcAdPartSplineEdgeRes
  3
AdGrefServices
 90
    32768
280
     0
281
     0
  0
CLASS
  1
AMDTEDGESTANDARDISO
  2
AmdtEdgeStdISO
  3
"Amdt_StdImp|Product Description: AutoCAD Mechanical 2004 DX|Company: Autodesk"
 90
    32768
280
     0
281
     0
  0
CLASS
  1
ACMSURFSTANDARDISO
  2
AcmSurfTextStdISO
  3
"Amdt_StdImp|Product Description: AutoCAD Mechanical 2004 DX|Company: Autodesk"
 90
        0
280
     0
281
     0
  0
CLASS
  1
ACMFCFSTANDARDISO
  2
AcmFCFStdISO
  3
"Amdt_StdImp|Product Description: AutoCAD Mechanical 2004 DX|Company: Autodesk"
 90
        0
280
     0
281
     0
  0
CLASS
  1
ACMWELDSTANDARDISO
  2
AcmWeldingStdISO
  3
"Amdt_StdImp|Product Description: AutoCAD Mechanical 2004 DX|Company: Autodesk"
 90
        0
280
     0
281
     0
  0
CLASS
  1
ACMIDSTANDARDISO
  2
AcmIdStdISO
  3
"Amdt_StdImp|Product Description: AutoCAD Mechanical 2004 DX|Company: Autodesk"
 90
        0
280
     0
281
     0
  0
CLASS
  1
ACMDATUMSTANDARDISO
  2
AcmDatumStdISO
  3
"Amdt_StdImp|Product Description: AutoCAD Mechanical 2004 DX|Company: Autodesk"
 90
        0
280
     0
281
     0
  0
CLASS
  1
ACMBOMSTANDARDISO
  2
AcmBOMStdISO
  3
"Amdt_StdImp|Product Description: AutoCAD Mechanical 2004 DX|Company: Autodesk"
 90
        0
280
     0
281
     0
  0
CLASS
  1
ACMDETAILSTANDARDISO
  2
AmdtDetailSymStdISO
  3
"Amdt_StdImp|Product Description: AutoCAD Mechanical 2004 DX|Company: Autodesk"
 90
        0
280
     0
281
     0
  0
CLASS
  1
ACMSECTIONSTANDARDISO
  2
AmdtSectionSymStdISO
  3
"Amdt_StdImp|Product Description: AutoCAD Mechanical 2004 DX|Company: Autodesk"
 90
        0
280
     0
281
     0
  0
CLASS
  1
ACMCENTERLINESTANDARDISO
  2
AmdtCenterLineStdISO
  3
"Amdt_StdImp|Product Description: AutoCAD Mechanical 2004 DX|Company: Autodesk"
 90
        0
280
     0
281
     0
  0
CLASS
  1
ACMNOTESTANDARDISO
  2
AmdtNoteStdISO
  3
"Amdt_StdImp|Product Description: AutoCAD Mechanical 2004 DX|Company: Autodesk"
 90
        0
280
     0
281
     0
  0
CLASS
  1
ACAMGHOLECHARTSTDISO
  2
AcAmgHoleChartStdISO
  3
ACMSYMBB_MODULE_NAME
 90
        0
280
     0
281
     0
  0
CLASS
  1
TABLESTYLE
  2
AcDbTableStyle
  3
ObjectDBX Classes
 90
     2047
280
     0
281
     0
  0
CLASS
  1
AMDTEDGESTANDARDISO13715
  2
AmdtEdgeStdISO13715
  3
"Amdt_StdImp|Product Description: AutoCAD Mechanical 2004 DX|Company: Autodesk"
 90
        0
280
     0
281
     0
  0
CLASS
  1
ACMTHREADLINESTANDARDISO
  2
AmdtThreadLineStdISO
  3
"Amdt_StdImp|Product Description: AutoCAD Mechanical 2004 DX|Company: Autodesk"
 90
        0
280
     0
281
     0
  0
CLASS
  1
AMDTNOTETEMPLATEDB
  2
AmdtNoteTemplateDB
  3
AMDT_STDIMP_MODULE_NAME
 90
        0
280
     0
281
     0
  0
CLASS
  1
ACMDIMBREAKPERSREACTOR
  2
AcmDimBreakPersReactor
  3
amgDimApp().moduleName()
 90
     1023
280
     0
281
     0
  0
CLASS
  1
SORTENTSTABLE
  2
AcDbSortentsTable
  3
ObjectDBX Classes
 90
        0
280
     0
281
     0
  0
ENDSEC
  0
SECTION
  2
TABLES
  0
TABLE
  2
VPORT
  5
1A
330
0
100
AcDbSymbolTable
 70
     7
  0
VPORT
  5
FDE8
330
1A
100
AcDbSymbolTableRecord
100
AcDbViewportTableRecord
  2
*Active
 70
     0
 10
0.0
 20
0.0
 11
1.0
 21
1.0
 12
0.101885880705141
 22
-4.838010266010769
 13
0.0
 23
0.0
 14
0.5
 24
0.5
 15
0.5
 25
0.5
 16
0.0
 26
0.0
 36
1.0
 17
1216.171970112037
 27
810.4040435877447
 37
0.0
 40
16.21924834796268
 41
0.9815602836879431
 42
50.0
 43
0.0
 44
0.0
 50
0.0
 51
0.0
 71
     0
 72
   100
 73
     1
 74
     1
 75
     0
 76
     1
 77
     0
 78
     0
281
     0
 65
     0
110
0.0
120
0.0
130
0.0
111
1.0
121
0.0
131
0.0
112
0.0
122
1.0
132
0.0
 79
     0
146
0.0
  0
ENDTAB
  0
TABLE
  2
LTYPE
  5
15
330
0
100
AcDbSymbolTable
 70
    18
  0
LTYPE
  5
16
330
15
100
AcDbSymbolTableRecord
100
AcDbLinetypeTableRecord
  2
BYBLOCK
 70
     0
  3

 72
    65
 73
     0
 40
0.0
  0
LTYPE
  5
17
330
15
100
AcDbSymbolTableRecord
100
AcDbLinetypeTableRecord
  2
BYLAYER
 70
     0
  3

 72
    65
 73
     0
 40
0.0
  0
LTYPE
  5
9
330
15
100
AcDbSymbolTableRecord
100
AcDbLinetypeTableRecord
  2
CONTINUOUS
 70
     0
  3
Solid line
 72
    65
 73
     0
 40
0.0
  0
LTYPE
  5
2B
330
15
100
AcDbSymbolTableRecord
100
AcDbLinetypeTableRecord
  2
CENTER
 70
     0
  3
____ _ ____ _ ____ _ ____ _ ____ _ ____ _ ____ 
 72
    65
 73
     4
 40
2.0
 49
1.25
 74
     0
 49
-0.25
 74
     0
 49
0.25
 74
     0
 49
-0.25
 74
     0
  0
LTYPE
  5
39
330
15
100
AcDbSymbolTableRecord
100
AcDbLinetypeTableRecord
  2
HIDDEN2
 70
     0
  3
Hidden (.5x) _ _ _ _ _ _ _ _ _ _ _ _ _ _ _ _ _
 72
    65
 73
     2
 40
4.762499999999999
 49
3.174999999999999
 74
     0
 49
-1.587499999999999
 74
     0
  0
LTYPE
  5
2303
330
15
100
AcDbSymbolTableRecord
100
AcDbLinetypeTableRecord
  2
DASHED
 70
     0
  3
__ __ __ __ __ __ __ __ __ __ __ __ __ __ __ __
 72
    65
 73
     2
 40
0.75
 49
0.5
 74
     0
 49
-0.25
 74
     0
  0
LTYPE
  5
242F
330
15
100
AcDbSymbolTableRecord
100
AcDbLinetypeTableRecord
  2
HIDDEN
 70
     0
  3
Hidden __ __ __ __ __ __ __ __ __ __ __ __ __ _
 72
    65
 73
     2
 40
9.524999999999998
 49
6.349999999999999
 74
     0
 49
-3.174999999999999
 74
     0
  0
LTYPE
  5
F70F
330
15
100
AcDbSymbolTableRecord
100
AcDbLinetypeTableRecord
  2
AM_ISO02W050
 70
     0
  3
__ __ __ __ __ __ __ __ __ __ __ __ __ __ __
 72
    65
 73
     2
 40
7.5
 49
6.0
 74
     0
 49
-1.5
 74
     0
  0
LTYPE
  5
F710
330
15
100
AcDbSymbolTableRecord
100
AcDbLinetypeTableRecord
  2
AM_ISO08W050
 70
     0
  3
____ . ____ . ____ . ____ . ____ . ____ . ____
 72
    65
 73
     4
 40
18.0
 49
12.0
 74
     0
 49
-1.5
 74
     0
 49
3.0
 74
     0
 49
-1.5
 74
     0
  0
LTYPE
  5
F711
330
15
100
AcDbSymbolTableRecord
100
AcDbLinetypeTableRecord
  2
AM_ISO09W050
 70
     0
  3
_____ . . _____ . . _____ . . ____ .. ____
 72
    65
 73
     6
 40
22.5
 49
12.0
 74
     0
 49
-1.5
 74
     0
 49
3.0
 74
     0
 49
-1.5
 74
     0
 49
3.0
 74
     0
 49
-1.5
 74
     0
  0
LTYPE
  5
F712
330
15
100
AcDbSymbolTableRecord
100
AcDbLinetypeTableRecord
  2
Amconstr
 70
     0
  3
_______________________
 72
    65
 73
     2
 40
9999.0
 49
9999.0
 74
     0
 49
0.0
 74
     0
  0
LTYPE
  5
F713
330
15
100
AcDbSymbolTableRecord
100
AcDbLinetypeTableRecord
  2
AM_ISO08W050x2
 70
     0
  3
__ . __ . __ . __ . __ . __
 72
    65
 73
     4
 40
9.0
 49
6.0
 74
     0
 49
-0.75
 74
     0
 49
1.5
 74
     0
 49
-0.75
 74
     0
  0
LTYPE
  5
F714
330
15
100
AcDbSymbolTableRecord
100
AcDbLinetypeTableRecord
  2
AM_ISO02W050x2
 70
     0
  3
 _ _ _ _ _ _ _ _ _ _ _ _
 72
    65
 73
     2
 40
3.75
 49
3.0
 74
     0
 49
-0.75
 74
     0
  0
LTYPE
  5
F717
330
15
100
AcDbSymbolTableRecord
100
AcDbLinetypeTableRecord
  2
Amzigzag
 70
     0
  3
/\/-/\/-/\/-/\/-/\/-/\/
 72
    65
 73
     2
 40
11.0001
 49
0.0001
 74
     4
 75
   135
340
F716
 46
0.04
 50
0.0
 44
0.0
 45
0.0
 49
-11.0
 74
     0
  0
LTYPE
  5
F725
330
15
100
AcDbSymbolTableRecord
100
AcDbLinetypeTableRecord
  2
ACISOWELD
 70
     0
  3
_ _ _ _ _
 72
    65
 73
     2
 40
2.0
 49
2.0
 74
     0
 49
-1.0
 74
     0
  0
LTYPE
  5
F726
330
15
100
AcDbSymbolTableRecord
100
AcDbLinetypeTableRecord
  2
ACISOTGB
 70
     0
  3
__ . . __ . .
 72
    65
 73
     6
 40
9.0
 49
4.0
 74
     0
 49
-1.0
 74
     0
 49
1.0
 74
     0
 49
-1.0
 74
     0
 49
1.0
 74
     0
 49
-1.0
 74
     0
  0
LTYPE
  5
F727
330
15
100
AcDbSymbolTableRecord
100
AcDbLinetypeTableRecord
  2
ACISOTGL
 70
     0
  3
_ _ _ _ _
 72
    65
 73
     2
 40
3.0
 49
2.0
 74
     0
 49
-1.0
 74
     0
  0
LTYPE
  5
FA17
330
15
100
AcDbSymbolTableRecord
100
AcDbLinetypeTableRecord
  2
PHANTOM2
 70
     0
  3
Phantom (.5x) ___ _ _ ___ _ _ ___ _ _ ___ _ _
 72
    65
 73
     6
 40
31.75
 49
15.875
 74
     0
 49
-3.174999999999999
 74
     0
 49
3.174999999999999
 74
     0
 49
-3.174999999999999
 74
     0
 49
3.174999999999999
 74
     0
 49
-3.174999999999999
 74
     0
  0
ENDTAB
  0
TABLE
  2
LAYER
  5
11
102
{ACAD_XDICTIONARY
360
FAC7
102
}
330
0
100
AcDbSymbolTable
 70
     9
  0
LAYER
  5
5
330
11
100
AcDbSymbolTableRecord
100
AcDbLayerTableRecord
  2
0
 70
     0
 62
     7
  6
CONTINUOUS
370
    -3
390
6
  0
LAYER
  5
8B
330
11
100
AcDbSymbolTableRecord
100
AcDbLayerTableRecord
  2
AM_VIS
 70
     0
 62
     7
  6
CONTINUOUS
370
    30
390
6
  0
LAYER
  5
2A
330
11
100
AcDbSymbolTableRecord
100
AcDbLayerTableRecord
  2
AM_7
 70
     0
 62
     1
  6
CENTER
370
    15
390
6
  0
LAYER
  5
38
330
11
100
AcDbSymbolTableRecord
100
AcDbLayerTableRecord
  2
AM_4
 70
     0
 62
     5
  6
CONTINUOUS
370
    30
390
6
  0
LAYER
  5
1F8
330
11
100
AcDbSymbolTableRecord
100
AcDbLayerTableRecord
  2
DIM
 70
     0
 62
     5
  6
CONTINUOUS
370
    -3
390
6
  0
LAYER
  5
1FA
330
11
100
AcDbSymbolTableRecord
100
AcDbLayerTableRecord
  2
Defpoints
 70
     0
 62
     7
  6
CONTINUOUS
290
     0
370
    -3
390
6
  0
LAYER
  5
1FDE
330
11
100
AcDbSymbolTableRecord
100
AcDbLayerTableRecord
  2
LOGO
 70
     0
 62
     7
  6
CONTINUOUS
370
    -3
390
6
  0
LAYER
  5
2431
330
11
100
AcDbSymbolTableRecord
100
AcDbLayerTableRecord
  2
AM_HID
 70
     0
 62
     5
  6
HIDDEN
370
    50
390
6
  0
LAYER
  5
FD4A
330
11
100
AcDbSymbolTableRecord
100
AcDbLayerTableRecord
  2
SL
 70
     0
 62
     2
  6
CONTINUOUS
370
    -3
390
6
1001
AcAecLayerStandard
1000

1000

  0
ENDTAB
  0
TABLE
  2
STYLE
  5
12
330
0
100
AcDbSymbolTable
 70
     6
  0
STYLE
  5
13
330
12
100
AcDbSymbolTableRecord
100
AcDbTextStyleTableRecord
  2
STANDARD
 70
     0
 40
0.0
 41
1.0
 50
0.0
 71
     0
 42
0.2
  3
txt
  4

  0
STYLE
  5
21
330
12
100
AcDbSymbolTableRecord
100
AcDbTextStyleTableRecord
  2
DAYUS
 70
     0
 40
0.0
 41
1.0
 50
0.0
 71
     0
 42
3.0
  3
simplex.shx
  4
dayus.shx
  0
STYLE
  5
208
330
12
100
AcDbSymbolTableRecord
100
AcDbTextStyleTableRecord
  2
CHINESET
 70
     0
 40
0.0
 41
1.0
 50
0.0
 71
     0
 42
0.5
  3
simplex.shx
  4
chineset.shx
  0
STYLE
  5
F716
330
12
100
AcDbSymbolTableRecord
100
AcDbTextStyleTableRecord
  2

 70
     1
 40
0.0
 41
1.0
 50
0.0
 71
     0
 42
0.5
  3
ltypeshp.shx
  4

  0
STYLE
  5
F718
330
12
100
AcDbSymbolTableRecord
100
AcDbTextStyleTableRecord
  2
ACISOTS
 70
     0
 40
1.0
 41
1.0
 50
0.0
 71
     0
 42
0.5
  3
isocp.shx
  4
chineset.shx
  0
STYLE
  5
F724
330
12
100
AcDbSymbolTableRecord
100
AcDbTextStyleTableRecord
  2
ACISOGDT
 70
     0
 40
0.0
 41
1.0
 50
0.0
 71
     0
 42
0.5
  3
amgdt.shx
  4

  0
ENDTAB
  0
TABLE
  2
VIEW
  5
18
330
0
100
AcDbSymbolTable
 70
     0
  0
ENDTAB
  0
TABLE
  2
UCS
  5
19
330
0
100
AcDbSymbolTable
 70
     0
  0
ENDTAB
  0
TABLE
  2
APPID
  5
1C
330
0
100
AcDbSymbolTable
 70
    23
  0
APPID
  5
1D
330
1C
100
AcDbSymbolTableRecord
100
AcDbRegAppTableRecord
  2
ACAD
 70
     0
  0
APPID
  5
F6F1
330
1C
100
AcDbSymbolTableRecord
100
AcDbRegAppTableRecord
  2
MCAD_NO_VIS
 70
     0
  0
APPID
  5
F6F2
330
1C
100
AcDbSymbolTableRecord
100
AcDbRegAppTableRecord
  2
ACAD_TEMP_GRAPHIC
 70
     0
  0
APPID
  5
F703
330
1C
100
AcDbSymbolTableRecord
100
AcDbRegAppTableRecord
  2
ACATTRIBSERVICES
 70
     0
  0
APPID
  5
F738
330
1C
100
AcDbSymbolTableRecord
100
AcDbRegAppTableRecord
  2
GENIUS_GENSCREG_15
 70
     0
  0
APPID
  5
F739
330
1C
100
AcDbSymbolTableRecord
100
AcDbRegAppTableRecord
  2
GENIUS_GENODEF_13
 70
     0
  0
APPID
  5
F73A
330
1C
100
AcDbSymbolTableRecord
100
AcDbRegAppTableRecord
  2
GENIUS_GENOBJ-N-SDF_13
 70
     0
  0
APPID
  5
F9E4
330
1C
100
AcDbSymbolTableRecord
100
AcDbRegAppTableRecord
  2
GENIUS_GENDIM_13
 70
     0
  0
APPID
  5
F9E5
330
1C
100
AcDbSymbolTableRecord
100
AcDbRegAppTableRecord
  2
GENIUS_GENDTOL_13
 70
     0
  0
APPID
  5
F9E6
330
1C
100
AcDbSymbolTableRecord
100
AcDbRegAppTableRecord
  2
GENIUS_GE3DTOL_13
 70
     0
  0
APPID
  5
FA19
330
1C
100
AcDbSymbolTableRecord
100
AcDbRegAppTableRecord
  2
AD_DRAW
 70
     0
  0
APPID
  5
FA65
330
1C
100
AcDbSymbolTableRecord
100
AcDbRegAppTableRecord
  2
ASURF_PCURVE_APPNAME
 70
     0
  0
APPID
  5
FA6A
330
1C
100
AcDbSymbolTableRecord
100
AcDbRegAppTableRecord
  2
AMG_3D2D_5.0
 70
     0
  0
APPID
  5
FA99
330
1C
100
AcDbSymbolTableRecord
100
AcDbRegAppTableRecord
  2
DESIGNERASSEMBLIES
 70
     0
  0
APPID
  5
FA9F
330
1C
100
AcDbSymbolTableRecord
100
AcDbRegAppTableRecord
  2
ACADM_DIM_EDIT
 70
     0
  0
APPID
  5
FAA0
330
1C
100
AcDbSymbolTableRecord
100
AcDbRegAppTableRecord
  2
AMDT_DM_ADJ
 70
     0
  0
APPID
  5
FAC1
330
1C
100
AcDbSymbolTableRecord
100
AcDbRegAppTableRecord
  2
GENIUS_GENOENT_13
 70
     0
  0
APPID
  5
FAC2
330
1C
100
AcDbSymbolTableRecord
100
AcDbRegAppTableRecord
  2
GENIUS_GENOBJ-N-CRS_13
 70
     0
  0
APPID
  5
FAC3
330
1C
100
AcDbSymbolTableRecord
100
AcDbRegAppTableRecord
  2
GENIUS_GENOLIS_13
 70
     0
  0
APPID
  5
FAC4
330
1C
100
AcDbSymbolTableRecord
100
AcDbRegAppTableRecord
  2
GENIUS_GENOREF_13
 70
     0
  0
APPID
  5
FAC5
330
1C
100
AcDbSymbolTableRecord
100
AcDbRegAppTableRecord
  2
GENIUS_GENREC_14
 70
     0
  0
APPID
  5
FAC6
330
1C
100
AcDbSymbolTableRecord
100
AcDbRegAppTableRecord
  2
GENIUS_GENOBJ-N-REC_13
 70
     0
  0
APPID
  5
FD4B
330
1C
100
AcDbSymbolTableRecord
100
AcDbRegAppTableRecord
  2
AcAecLayerStandard
 70
     0
  0
ENDTAB
  0
TABLE
  2
DIMSTYLE
  5
1E
330
0
100
AcDbSymbolTable
 70
     8
100
AcDbDimStyleTable
 71
     0
  0
DIMSTYLE
105
22
102
{ACAD_REACTORS
330
DF04
330
DF11
330
DF1E
330
DF2B
330
DF39
330
DF46
330
DF54
330
DF62
330
DF70
330
DF7E
330
DF8C
330
DF9A
330
DFB5
330
DFC3
330
DFEB
330
DFF9
330
E013
330
E220
330
E22D
330
E23A
330
E247
330
E073
330
E075
330
E077
330
E079
330
E07D
102
}
330
1E
100
AcDbSymbolTableRecord
100
AcDbDimStyleTableRecord
  2
STANDARD
 70
     0
 41
0.12
 42
0.06
 43
0.3
 44
0.08
 47
0.01
 48
0.01
 73
     0
 74
     0
 77
     3
 78
    10
 79
     2
140
0.12
141
0.0
146
0.6
147
0.04
170
     1
172
     1
176
   256
177
   256
178
   256
271
     2
272
     2
284
     8
285
    10
340
21
371
    -1
372
    -1
  0
DIMSTYLE
105
F72B
330
1E
100
AcDbSymbolTableRecord
100
AcDbDimStyleTableRecord
  2
AM_ISO
 70
     0
  4
"
 41
2.5
 42
1.0
 43
10.0
 44
1.0
 47
0.1
 48
0.1
 73
     0
 74
     0
 77
     1
 78
     8
 79
     2
140
3.5
141
0.0
143
0.0393701
146
0.71
147
1.5
172
     1
176
   256
177
   256
178
     2
271
     2
272
     3
274
     4
283
     0
284
     8
340
13
371
    -1
372
    -1
  0
DIMSTYLE
105
F72C
330
1E
100
AcDbSymbolTableRecord
100
AcDbDimStyleTableRecord
  2
AM_ISO$3
 70
     0
  4
"
 41
2.5
 42
1.0
 43
10.0
 44
1.0
 47
0.1
 48
0.1
 73
     0
 77
     1
 78
     8
 79
     2
140
3.5
141
0.0
143
0.0393701
146
0.71
147
1.5
176
   256
177
   256
178
     2
271
     2
272
     3
274
     4
283
     0
284
     8
288
     1
289
     0
340
13
371
    -1
372
    -1
  0
DIMSTYLE
105
F72D
330
1E
100
AcDbSymbolTableRecord
100
AcDbDimStyleTableRecord
  2
AM_ISO$4
 70
     0
  4
"
 41
2.5
 42
1.0
 43
10.0
 44
1.0
 47
0.1
 48
0.1
 73
     0
 77
     1
 78
     8
 79
     2
140
3.5
141
0.0
143
0.0393701
146
0.71
147
1.5
176
   256
177
   256
178
     2
271
     2
272
     3
274
     4
283
     0
284
     8
288
     1
289
     0
340
13
371
    -1
372
    -1
  0
DIMSTYLE
105
F72E
330
1E
100
AcDbSymbolTableRecord
100
AcDbDimStyleTableRecord
  2
AM_ISO$6
 70
     0
  4
"
 41
2.5
 42
1.0
 43
10.0
 44
1.0
 47
0.1
 48
0.1
 73
     0
 74
     0
 78
     8
 79
     2
140
3.5
141
0.0
143
0.0393701
146
0.71
147
1.5
172
     1
176
   256
177
   256
178
     2
271
     2
272
     3
274
     4
283
     0
284
     8
340
13
371
    -1
372
    -1
  0
DIMSTYLE
105
F72F
330
1E
100
AcDbSymbolTableRecord
100
AcDbDimStyleTableRecord
  2
AM_ISO$7
 70
     0
  4
"
 41
2.5
 42
1.0
 43
10.0
 44
1.0
 47
0.1
 48
0.1
 73
     0
 74
     0
 77
     1
 78
     8
 79
     2
140
5.0
141
0.0
143
0.0393701
146
0.71
147
1.5
172
     1
176
   256
177
   256
178
     2
271
     2
272
     3
274
     4
283
     0
284
     8
340
13
371
    -1
372
    -1
  0
DIMSTYLE
105
F730
330
1E
100
AcDbSymbolTableRecord
100
AcDbDimStyleTableRecord
  2
AM_ISO$SF
 70
     0
  4
"
 41
2.5
 42
1.0
 43
10.0
 44
1.0
 47
0.1
 48
0.1
 73
     0
 74
     0
 75
     1
 76
     1
 77
     1
 78
     8
 79
     2
140
3.5
141
0.0
143
0.0393701
146
0.71
147
1.5
172
     1
176
   256
177
   256
178
     2
271
     2
272
     3
274
     4
283
     0
284
     8
340
13
371
    -1
372
    -1
  0
DIMSTYLE
105
F735
330
1E
100
AcDbSymbolTableRecord
100
AcDbDimStyleTableRecord
  2
AM_ISO$SH
 70
     0
  4
"
 41
2.5
 42
1.0
 43
10.0
 44
1.0
 47
0.1
 48
0.1
 73
     0
 74
     0
 75
     1
 76
     1
 77
     1
 78
     8
 79
     2
140
3.5
141
0.0
143
0.0393701
144
2.0
146
0.71
147
1.5
172
     1
173
     1
176
   256
177
   256
178
     2
271
     2
272
     3
274
     4
283
     0
284
     8
340
13
341
F731
343
F731
371
    -1
372
    -1
  0
ENDTAB
  0
TABLE
  2
BLOCK_RECORD
  5
1
330
0
100
AcDbSymbolTable
 70
    28
  0
BLOCK_RECORD
  5
2
102
{ACAD_XDICTIONARY
360
3
102
}
330
1
100
AcDbSymbolTableRecord
100
AcDbBlockTableRecord
  2
*MODEL_SPACE
340
B
  0
BLOCK_RECORD
  5
BBB
102
{ACAD_XDICTIONARY
360
F6A4
102
}
330
1
100
AcDbSymbolTableRecord
100
AcDbBlockTableRecord
  2
*Paper_Space
340
BBC
  0
BLOCK_RECORD
  5
D
102
{ACAD_XDICTIONARY
360
F6A6
102
}
330
1
100
AcDbSymbolTableRecord
100
AcDbBlockTableRecord
  2
*Paper_Space0
340
10
  0
BLOCK_RECORD
  5
DF05
330
1
100
AcDbSymbolTableRecord
100
AcDbBlockTableRecord
  2
*D1
340
0
  0
BLOCK_RECORD
  5
DF12
330
1
100
AcDbSymbolTableRecord
100
AcDbBlockTableRecord
  2
*D2
340
0
  0
BLOCK_RECORD
  5
DF1F
330
1
100
AcDbSymbolTableRecord
100
AcDbBlockTableRecord
  2
*D3
340
0
  0
BLOCK_RECORD
  5
DF2C
330
1
100
AcDbSymbolTableRecord
100
AcDbBlockTableRecord
  2
*D4
340
0
  0
BLOCK_RECORD
  5
DF3A
330
1
100
AcDbSymbolTableRecord
100
AcDbBlockTableRecord
  2
*D5
340
0
  0
BLOCK_RECORD
  5
DF47
330
1
100
AcDbSymbolTableRecord
100
AcDbBlockTableRecord
  2
*D6
340
0
  0
BLOCK_RECORD
  5
DF55
330
1
100
AcDbSymbolTableRecord
100
AcDbBlockTableRecord
  2
*D7
340
0
  0
BLOCK_RECORD
  5
DF63
330
1
100
AcDbSymbolTableRecord
100
AcDbBlockTableRecord
  2
*D8
340
0
  0
BLOCK_RECORD
  5
DF71
330
1
100
AcDbSymbolTableRecord
100
AcDbBlockTableRecord
  2
*D9
340
0
  0
BLOCK_RECORD
  5
DF7F
330
1
100
AcDbSymbolTableRecord
100
AcDbBlockTableRecord
  2
*D10
340
0
  0
BLOCK_RECORD
  5
DF8D
330
1
100
AcDbSymbolTableRecord
100
AcDbBlockTableRecord
  2
*D11
340
0
  0
BLOCK_RECORD
  5
DF9B
330
1
100
AcDbSymbolTableRecord
100
AcDbBlockTableRecord
  2
*D12
340
0
  0
BLOCK_RECORD
  5
DFB6
330
1
100
AcDbSymbolTableRecord
100
AcDbBlockTableRecord
  2
*D13
340
0
  0
BLOCK_RECORD
  5
DFC4
330
1
100
AcDbSymbolTableRecord
100
AcDbBlockTableRecord
  2
*D14
340
0
  0
BLOCK_RECORD
  5
DFEC
330
1
100
AcDbSymbolTableRecord
100
AcDbBlockTableRecord
  2
*D15
340
0
  0
BLOCK_RECORD
  5
DFFA
330
1
100
AcDbSymbolTableRecord
100
AcDbBlockTableRecord
  2
*D16
340
0
  0
BLOCK_RECORD
  5
E014
330
1
100
AcDbSymbolTableRecord
100
AcDbBlockTableRecord
  2
*D17
340
0
  0
BLOCK_RECORD
  5
E221
330
1
100
AcDbSymbolTableRecord
100
AcDbBlockTableRecord
  2
*D18
340
0
  0
BLOCK_RECORD
  5
E22E
330
1
100
AcDbSymbolTableRecord
100
AcDbBlockTableRecord
  2
*D19
340
0
  0
BLOCK_RECORD
  5
E23B
330
1
100
AcDbSymbolTableRecord
100
AcDbBlockTableRecord
  2
*D20
340
0
  0
BLOCK_RECORD
  5
E248
330
1
100
AcDbSymbolTableRecord
100
AcDbBlockTableRecord
  2
*D21
340
0
  0
BLOCK_RECORD
  5
F731
330
1
100
AcDbSymbolTableRecord
100
AcDbBlockTableRecord
  2
GENAXEH
340
0
  0
BLOCK_RECORD
  5
FD3A
102
{ACAD_XDICTIONARY
360
FD3B
102
}
330
1
100
AcDbSymbolTableRecord
100
AcDbBlockTableRecord
  2
A$C0FBC3824
340
0
102
{BLKREFS
331
FD4E
331
FD56
102
}
  0
BLOCK_RECORD
  5
FD42
102
{ACAD_XDICTIONARY
360
FD43
102
}
330
1
100
AcDbSymbolTableRecord
100
AcDbBlockTableRecord
  2
A$C7A150A0F
340
0
102
{BLKREFS
331
FD4F
331
FD57
102
}
  0
ENDTAB
  0
ENDSEC
  0
SECTION
  2
BLOCKS
  0
BLOCK
  5
4
330
2
100
AcDbEntity
  8
0
100
AcDbBlockBegin
  2
*MODEL_SPACE
 70
     0
 10
0.0
 20
0.0
 30
0.0
  3
*MODEL_SPACE
  1

  0
ENDBLK
  5
A
330
2
100
AcDbEntity
  8
0
100
AcDbBlockEnd
  0
BLOCK
  5
BBD
330
BBB
100
AcDbEntity
 67
     1
  8
0
100
AcDbBlockBegin
  2
*Paper_Space
 70
     0
 10
0.0
 20
0.0
 30
0.0
  3
*Paper_Space
  1

  0
ENDBLK
  5
BBE
330
BBB
100
AcDbEntity
 67
     1
  8
0
100
AcDbBlockEnd
  0
BLOCK
  5
E
330
D
100
AcDbEntity
  8
0
100
AcDbBlockBegin
  2
*Paper_Space0
 70
     0
 10
0.0
 20
0.0
 30
0.0
  3
*Paper_Space0
  1

  0
VIEWPORT
  5
640
102
{ACAD_XDICTIONARY
360
FDEF
102
}
330
D
100
AcDbEntity
  8
0
100
AcDbViewport
 10
184.9324014823572
 20
101.2295806407929
 30
0.0
 40
377.3789631209644
 41
209.9733276367188
 69
     0
 12
184.9324014823572
 22
101.2295806407929
 13
0.0
 23
0.0
 14
0.5
 24
0.5
 15
0.5
 25
0.5
 16
0.0
 26
0.0
 36
1.0
 17
0.0
 27
0.0
 37
0.0
 42
50.0
 43
0.0
 44
0.0
 45
209.9733276367188
 50
0.0
 51
0.0
 72
   100
 90
    32800
  1

281
     0
 71
     1
 74
     0
110
0.0
120
0.0
130
0.0
111
1.0
121
0.0
131
0.0
112
0.0
122
1.0
132
0.0
 79
     0
146
0.0
1001
GENIUS_GENOBJ-N-SDF_13
1002
{
1000
OWNER
1000
GEN
1002
}
1001
GENIUS_GENODEF_13
1002
{
1000
HIER
1070
     0
1002
}
1002
{
1000
MANEDIT
1070
     0
1002
}
1002
{
1000
NOSEL
1070
     0
1002
}
1002
{
1000
BEHIND
1070
     0
1002
}
1002
{
1000
OTHER
1070
     0
1002
}
1002
{
1000
REACTOR
1002
}
1001
GENIUS_GENSCREG_15
1000
PF
1040
1.0
1000
DF
1040
1.0
1000
MIN
1011
-3.757080078125
1021
-3.757083177566528
1031
0.0
1000
MAX
1011
373.6218830428394
1021
206.2162444591523
1031
0.0
1000
FLAGS
1070
     2
  0
ENDBLK
  5
F
330
D
100
AcDbEntity
  8
0
100
AcDbBlockEnd
  0
BLOCK
  5
DF0F
330
DF05
100
AcDbEntity
  8
0
 48
0.5
100
AcDbBlockBegin
  2
*D1
 70
     1
 10
0.0
 20
0.0
 30
0.0
  3
*D1
  1

  0
LINE
  5
F598
330
DF05
100
AcDbEntity
  8
DIM
 48
0.5
100
AcDbLine
 10
1210.892115103662
 20
804.2648293538135
 30
0.0
 11
1210.004113357358
 21
804.2648293538135
 31
0.0
  0
LINE
  5
F599
330
DF05
100
AcDbEntity
  8
DIM
 48
0.5
100
AcDbLine
 10
1210.975103750599
 20
807.2646548164579
 30
0.0
 11
1210.004113357358
 21
807.2646548164579
 31
0.0
  0
LINE
  5
F59A
330
DF05
100
AcDbEntity
  8
DIM
 48
0.5
100
AcDbLine
 10
1210.084113357358
 20
804.3848293538134
 30
0.0
 11
1210.084113357358
 21
807.1446548164578
 31
0.0
  0
SOLID
  5
F59B
330
DF05
100
AcDbEntity
  8
DIM
 48
0.5
100
AcDbTrace
 10
1210.064113357358
 20
804.3848293538134
 30
0.0
 11
1210.104113357358
 21
804.3848293538134
 31
0.0
 12
1210.084113357358
 22
804.2648293538135
 32
0.0
 13
1210.084113357358
 23
804.2648293538135
 33
0.0
  0
SOLID
  5
F59C
330
DF05
100
AcDbEntity
  8
DIM
 48
0.5
100
AcDbTrace
 10
1210.064113357358
 20
807.1446548164578
 30
0.0
 11
1210.104113357358
 21
807.1446548164578
 31
0.0
 12
1210.084113357358
 22
807.2646548164579
 32
0.0
 13
1210.084113357358
 23
807.2646548164579
 33
0.0
  0
MTEXT
  5
F59D
330
DF05
100
AcDbEntity
  8
DIM
 48
0.5
100
AcDbMText
 10
1209.952684785929
 20
805.7647420851358
 30
0.0
 40
0.12
 41
0.0
 71
     5
 72
     1
  1
\A1;3 [76.2]
  7
DAYUS
 11
0.0000000000000001
 21
1.0
 31
0.0
 73
     1
 44
1.0
1001
ACAD
1000
MTEXTBEGIN
1070
    73
1070
     1
1070
    44
1040
1.0
1070
    74
1070
     0
1000
MTEXTEND
  0
POINT
  5
F59E
330
DF05
100
AcDbEntity
  8
Defpoints
 62
     0
 48
0.5
100
AcDbPoint
 10
1210.952115103662
 20
804.2648293538135
 30
0.0
  0
POINT
  5
F59F
330
DF05
100
AcDbEntity
  8
Defpoints
 62
     0
 48
0.5
100
AcDbPoint
 10
1211.035103750599
 20
807.2646548164579
 30
0.0
  0
POINT
  5
F5A0
330
DF05
100
AcDbEntity
  8
Defpoints
 62
     0
 48
0.5
100
AcDbPoint
 10
1210.084113357358
 20
807.2646548164579
 30
0.0
  0
ENDBLK
  5
DF10
330
DF05
100
AcDbEntity
  8
0
 48
0.5
100
AcDbBlockEnd
  0
BLOCK
  5
DF1C
330
DF12
100
AcDbEntity
  8
0
 48
0.5
100
AcDbBlockBegin
  2
*D2
 70
     1
 10
0.0
 20
0.0
 30
0.0
  3
*D2
  1

  0
LINE
  5
F5A1
330
DF12
100
AcDbEntity
  8
DIM
 48
0.5
100
AcDbLine
 10
1210.892115103662
 20
804.2648293538137
 30
0.0
 11
1210.407291825613
 21
804.2648293538137
 31
0.0
  0
LINE
  5
F5A2
330
DF12
100
AcDbEntity
  8
DIM
 48
0.5
100
AcDbLine
 10
1210.742648523268
 20
805.7648293538138
 30
0.0
 11
1210.407291825613
 21
805.7648293538138
 31
0.0
  0
LINE
  5
F5A3
330
DF12
100
AcDbEntity
  8
DIM
 48
0.5
100
AcDbLine
 10
1210.487291825613
 20
804.3848293538138
 30
0.0
 11
1210.487291825613
 21
805.6448293538137
 31
0.0
  0
SOLID
  5
F5A4
330
DF12
100
AcDbEntity
  8
DIM
 48
0.5
100
AcDbTrace
 10
1210.467291825613
 20
804.3848293538138
 30
0.0
 11
1210.507291825613
 21
804.3848293538138
 31
0.0
 12
1210.487291825613
 22
804.2648293538137
 32
0.0
 13
1210.487291825613
 23
804.2648293538137
 33
0.0
  0
SOLID
  5
F5A5
330
DF12
100
AcDbEntity
  8
DIM
 48
0.5
100
AcDbTrace
 10
1210.467291825613
 20
805.6448293538137
 30
0.0
 11
1210.507291825613
 21
805.6448293538137
 31
0.0
 12
1210.487291825613
 22
805.7648293538138
 32
0.0
 13
1210.487291825613
 23
805.7648293538138
 33
0.0
  0
MTEXT
  5
F5A6
330
DF12
100
AcDbEntity
  8
DIM
 48
0.5
100
AcDbMText
 10
1210.355863254185
 20
805.0148293538139
 30
0.0
 40
0.12
 41
0.0
 71
     5
 72
     1
  1
\A1;1.5 [38.1]
  7
DAYUS
 11
0.0000000000000001
 21
1.0
 31
0.0
 73
     1
 44
1.0
1001
ACAD
1000
MTEXTBEGIN
1070
    73
1070
     1
1070
    44
1040
1.0
1070
    74
1070
     0
1000
MTEXTEND
  0
POINT
  5
F5A7
330
DF12
100
AcDbEntity
  8
Defpoints
 62
     0
 48
0.5
100
AcDbPoint
 10
1210.952115103661
 20
804.2648293538137
 30
0.0
  0
POINT
  5
F5A8
330
DF12
100
AcDbEntity
  8
Defpoints
 62
     0
 48
0.5
100
AcDbPoint
 10
1210.802648523268
 20
805.7648293538138
 30
0.0
  0
POINT
  5
F5A9
330
DF12
100
AcDbEntity
  8
Defpoints
 62
     0
 48
0.5
100
AcDbPoint
 10
1210.487291825613
 20
805.7648293538138
 30
0.0
  0
ENDBLK
  5
DF1D
330
DF12
100
AcDbEntity
  8
0
 48
0.5
100
AcDbBlockEnd
  0
BLOCK
  5
DF29
330
DF1F
100
AcDbEntity
  8
0
 48
0.5
100
AcDbBlockBegin
  2
*D3
 70
     1
 10
0.0
 20
0.0
 30
0.0
  3
*D3
  1

  0
LINE
  5
F5AA
330
DF1F
100
AcDbEntity
  8
DIM
 48
0.5
100
AcDbLine
 10
1211.659938732477
 20
804.0948293538136
 30
0.0
 11
1211.659938732477
 21
803.6732412440642
 31
0.0
  0
LINE
  5
F5AB
330
DF1F
100
AcDbEntity
  8
DIM
 48
0.5
100
AcDbLine
 10
1212.909938732477
 20
804.0948293538136
 30
0.0
 11
1212.909938732477
 21
803.6732412440642
 31
0.0
  0
LINE
  5
F5AC
330
DF1F
100
AcDbEntity
  8
DIM
 48
0.5
100
AcDbLine
 10
1211.779938732477
 20
803.7532412440642
 30
0.0
 11
1212.789938732477
 21
803.7532412440642
 31
0.0
  0
SOLID
  5
F5AD
330
DF1F
100
AcDbEntity
  8
DIM
 48
0.5
100
AcDbTrace
 10
1211.779938732477
 20
803.7732412440643
 30
0.0
 11
1211.779938732477
 21
803.7332412440642
 31
0.0
 12
1211.659938732477
 22
803.7532412440642
 32
0.0
 13
1211.659938732477
 23
803.7532412440642
 33
0.0
  0
SOLID
  5
F5AE
330
DF1F
100
AcDbEntity
  8
DIM
 48
0.5
100
AcDbTrace
 10
1212.789938732477
 20
803.7732412440643
 30
0.0
 11
1212.789938732477
 21
803.7332412440642
 31
0.0
 12
1212.909938732477
 22
803.7532412440642
 32
0.0
 13
1212.909938732477
 23
803.7532412440642
 33
0.0
  0
MTEXT
  5
F5AF
330
DF1F
100
AcDbEntity
  8
DIM
 48
0.5
100
AcDbMText
 10
1212.284938732477
 20
803.8846698154928
 30
0.0
 40
0.12
 41
0.0
 71
     5
 72
     1
  1
\A1;1.25 [31.75]
  7
DAYUS
 73
     1
 44
1.0
1001
ACAD
1000
MTEXTBEGIN
1070
    73
1070
     1
1070
    44
1040
1.0
1070
    74
1070
     0
1000
MTEXTEND
  0
POINT
  5
F5B0
330
DF1F
100
AcDbEntity
  8
Defpoints
 62
     0
 48
0.5
100
AcDbPoint
 10
1211.659938732477
 20
804.1548293538136
 30
0.0
  0
POINT
  5
F5B1
330
DF1F
100
AcDbEntity
  8
Defpoints
 62
     0
 48
0.5
100
AcDbPoint
 10
1212.909938732477
 20
804.1548293538136
 30
0.0
  0
POINT
  5
F5B2
330
DF1F
100
AcDbEntity
  8
Defpoints
 62
     0
 48
0.5
100
AcDbPoint
 10
1212.909938732477
 20
803.7532412440642
 30
0.0
  0
ENDBLK
  5
DF2A
330
DF1F
100
AcDbEntity
  8
0
 48
0.5
100
AcDbBlockEnd
  0
BLOCK
  5
DF36
330
DF2C
100
AcDbEntity
  8
0
 48
0.5
100
AcDbBlockBegin
  2
*D4
 70
     1
 10
0.0
 20
0.0
 30
0.0
  3
*D4
  1

  0
LINE
  5
F5B3
330
DF2C
100
AcDbEntity
  8
DIM
 48
0.5
100
AcDbLine
 10
1211.189938732477
 20
804.0935793538135
 30
0.0
 11
1211.189938732477
 21
803.3250000885296
 31
0.0
  0
LINE
  5
F5B4
330
DF2C
100
AcDbEntity
  8
DIM
 48
0.5
100
AcDbLine
 10
1213.379938732477
 20
804.0935793538135
 30
0.0
 11
1213.379938732477
 21
803.3250000885296
 31
0.0
  0
LINE
  5
F5B5
330
DF2C
100
AcDbEntity
  8
DIM
 48
0.5
100
AcDbLine
 10
1211.309938732477
 20
803.4050000885295
 30
0.0
 11
1213.259938732477
 21
803.4050000885295
 31
0.0
  0
SOLID
  5
F5B6
330
DF2C
100
AcDbEntity
  8
DIM
 48
0.5
100
AcDbTrace
 10
1211.309938732477
 20
803.4250000885295
 30
0.0
 11
1211.309938732477
 21
803.3850000885296
 31
0.0
 12
1211.189938732477
 22
803.4050000885295
 32
0.0
 13
1211.189938732477
 23
803.4050000885295
 33
0.0
  0
SOLID
  5
F5B7
330
DF2C
100
AcDbEntity
  8
DIM
 48
0.5
100
AcDbTrace
 10
1213.259938732477
 20
803.4250000885295
 30
0.0
 11
1213.259938732477
 21
803.3850000885296
 31
0.0
 12
1213.379938732477
 22
803.4050000885295
 32
0.0
 13
1213.379938732477
 23
803.4050000885295
 33
0.0
  0
MTEXT
  5
F5B8
330
DF2C
100
AcDbEntity
  8
DIM
 48
0.5
100
AcDbMText
 10
1212.284938732477
 20
803.5364286599582
 30
0.0
 40
0.12
 41
0.0
 71
     5
 72
     1
  1
\A1;2.19 [55.63]
  7
DAYUS
 73
     1
 44
1.0
1001
ACAD
1000
MTEXTBEGIN
1070
    73
1070
     1
1070
    44
1040
1.0
1070
    74
1070
     0
1000
MTEXTEND
  0
POINT
  5
F5B9
330
DF2C
100
AcDbEntity
  8
Defpoints
 62
     0
 48
0.5
100
AcDbPoint
 10
1211.189938732477
 20
804.1535793538136
 30
0.0
  0
POINT
  5
F5BA
330
DF2C
100
AcDbEntity
  8
Defpoints
 62
     0
 48
0.5
100
AcDbPoint
 10
1213.379938732477
 20
804.1535793538136
 30
0.0
  0
POINT
  5
F5BB
330
DF2C
100
AcDbEntity
  8
Defpoints
 62
     0
 48
0.5
100
AcDbPoint
 10
1213.379938732477
 20
803.4050000885295
 30
0.0
  0
ENDBLK
  5
DF37
330
DF2C
100
AcDbEntity
  8
0
 48
0.5
100
AcDbBlockEnd
  0
BLOCK
  5
DF44
330
DF3A
100
AcDbEntity
  8
0
 48
0.5
100
AcDbBlockBegin
  2
*D5
 70
     1
 10
0.0
 20
0.0
 30
0.0
  3
*D5
  1

  0
LINE
  5
F5BC
330
DF3A
100
AcDbEntity
  8
DIM
 48
0.5
100
AcDbLine
 10
1210.785113269833
 20
804.4249943719355
 30
0.0
 11
1210.785113269833
 21
803.0110292009279
 31
0.0
  0
LINE
  5
F5BD
330
DF3A
100
AcDbEntity
  8
DIM
 48
0.5
100
AcDbLine
 10
1213.784764195122
 20
804.4249943719355
 30
0.0
 11
1213.784764195122
 21
803.0110292009279
 31
0.0
  0
LINE
  5
F5BE
330
DF3A
100
AcDbEntity
  8
DIM
 48
0.5
100
AcDbLine
 10
1210.905113269833
 20
803.0910292009279
 30
0.0
 11
1213.664764195122
 21
803.0910292009279
 31
0.0
  0
SOLID
  5
F5BF
330
DF3A
100
AcDbEntity
  8
DIM
 48
0.5
100
AcDbTrace
 10
1210.905113269833
 20
803.111029200928
 30
0.0
 11
1210.905113269833
 21
803.0710292009279
 31
0.0
 12
1210.785113269833
 22
803.0910292009279
 32
0.0
 13
1210.785113269833
 23
803.0910292009279
 33
0.0
  0
SOLID
  5
F5C0
330
DF3A
100
AcDbEntity
  8
DIM
 48
0.5
100
AcDbTrace
 10
1213.664764195122
 20
803.111029200928
 30
0.0
 11
1213.664764195122
 21
803.0710292009279
 31
0.0
 12
1213.784764195122
 22
803.0910292009279
 32
0.0
 13
1213.784764195122
 23
803.0910292009279
 33
0.0
  0
MTEXT
  5
F5C1
330
DF3A
100
AcDbEntity
  8
DIM
 48
0.5
100
AcDbMText
 10
1212.284938732477
 20
803.2224577723566
 30
0.0
 40
0.12
 41
0.0
 71
     5
 72
     1
  1
\A1;3 [76.19]
  7
DAYUS
 73
     1
 44
1.0
1001
ACAD
1000
MTEXTBEGIN
1070
    73
1070
     1
1070
    44
1040
1.0
1070
    74
1070
     0
1000
MTEXTEND
  0
POINT
  5
F5C2
330
DF3A
100
AcDbEntity
  8
Defpoints
 62
     0
 48
0.5
100
AcDbPoint
 10
1210.785113269833
 20
804.4849943719354
 30
0.0
  0
POINT
  5
F5C3
330
DF3A
100
AcDbEntity
  8
Defpoints
 62
     0
 48
0.5
100
AcDbPoint
 10
1213.784764195122
 20
804.4849943719354
 30
0.0
  0
POINT
  5
F5C4
330
DF3A
100
AcDbEntity
  8
Defpoints
 62
     0
 48
0.5
100
AcDbPoint
 10
1213.784764195122
 20
803.0910292009279
 30
0.0
  0
ENDBLK
  5
DF45
330
DF3A
100
AcDbEntity
  8
0
 48
0.5
100
AcDbBlockEnd
  0
BLOCK
  5
DF52
330
DF47
100
AcDbEntity
  8
0
 48
0.5
100
AcDbBlockBegin
  2
*D6
 70
     1
 10
0.0
 20
0.0
 30
0.0
  3
*D6
  1

  0
LINE
  5
FCEA
330
DF47
100
AcDbEntity
  8
DIM
 48
0.5
100
AcDbLine
 10
1217.263888081114
 20
805.4523293538135
 30
0.0
 11
1216.250918932298
 21
805.4523293538135
 31
0.0
  0
LINE
  5
FCEB
330
DF47
100
AcDbEntity
  8
DIM
 48
0.5
100
AcDbLine
 10
1217.263888081114
 20
806.0773293538137
 30
0.0
 11
1216.250918932298
 21
806.0773293538137
 31
0.0
  0
LINE
  5
FCEC
330
DF47
100
AcDbEntity
  8
DIM
 48
0.5
100
AcDbLine
 10
1216.330918932297
 20
805.5723293538134
 30
0.0
 11
1216.330918932297
 21
805.9573293538138
 31
0.0
  0
LINE
  5
FCED
330
DF47
100
AcDbEntity
  8
DIM
 48
0.5
100
AcDbLine
 10
1216.330918932297
 20
806.0773293538137
 30
0.0
 11
1216.330918932297
 21
807.7422548726186
 31
0.0
  0
SOLID
  5
FCEE
330
DF47
100
AcDbEntity
  8
DIM
 48
0.5
100
AcDbTrace
 10
1216.310918932298
 20
805.5723293538134
 30
0.0
 11
1216.350918932297
 21
805.5723293538134
 31
0.0
 12
1216.330918932297
 22
805.4523293538135
 32
0.0
 13
1216.330918932297
 23
805.4523293538135
 33
0.0
  0
SOLID
  5
FCEF
330
DF47
100
AcDbEntity
  8
DIM
 48
0.5
100
AcDbTrace
 10
1216.310918932298
 20
805.9573293538138
 30
0.0
 11
1216.350918932297
 21
805.9573293538138
 31
0.0
 12
1216.330918932297
 22
806.0773293538137
 32
0.0
 13
1216.330918932297
 23
806.0773293538137
 33
0.0
  0
MTEXT
  5
FCF0
330
DF47
100
AcDbEntity
  8
DIM
 48
0.5
100
AcDbMText
 10
1216.199490360869
 20
807.085112015476
 30
0.0
 40
0.12
 41
0.0
 71
     5
 72
     1
  1
\A1;%%c0.63 [15.88]
  7
DAYUS
 11
0.0000000000000001
 21
1.0
 31
0.0
 73
     1
 44
1.0
1001
ACAD
1000
MTEXTBEGIN
1070
    73
1070
     1
1070
    44
1040
1.0
1070
    74
1070
     0
1000
MTEXTEND
  0
POINT
  5
FCF1
330
DF47
100
AcDbEntity
  8
Defpoints
 62
     0
 48
0.5
100
AcDbPoint
 10
1217.323888081114
 20
805.4523293538135
 30
0.0
  0
POINT
  5
FCF2
330
DF47
100
AcDbEntity
  8
Defpoints
 62
     0
 48
0.5
100
AcDbPoint
 10
1217.323888081114
 20
806.0773293538137
 30
0.0
  0
POINT
  5
FCF3
330
DF47
100
AcDbEntity
  8
Defpoints
 62
     0
 48
0.5
100
AcDbPoint
 10
1216.330918932297
 20
806.0773293538137
 30
0.0
  0
ENDBLK
  5
DF53
330
DF47
100
AcDbEntity
  8
0
 48
0.5
100
AcDbBlockEnd
  0
BLOCK
  5
DF60
330
DF55
100
AcDbEntity
  8
0
 48
0.5
100
AcDbBlockBegin
  2
*D7
 70
     1
 10
0.0
 20
0.0
 30
0.0
  3
*D7
  1

  0
LINE
  5
F5CF
330
DF55
100
AcDbEntity
  8
DIM
 48
0.5
100
AcDbLine
 10
1217.570233755355
 20
805.2023293538137
 30
0.0
 11
1215.902551726709
 21
805.2023293538137
 31
0.0
  0
LINE
  5
F5D0
330
DF55
100
AcDbEntity
  8
DIM
 48
0.5
100
AcDbLine
 10
1217.570233755355
 20
806.3273293538138
 30
0.0
 11
1215.902551726709
 21
806.3273293538138
 31
0.0
  0
LINE
  5
F5D1
330
DF55
100
AcDbEntity
  8
DIM
 48
0.5
100
AcDbLine
 10
1215.982551726709
 20
805.3223293538136
 30
0.0
 11
1215.982551726709
 21
806.2073293538137
 31
0.0
  0
LINE
  5
F5D2
330
DF55
100
AcDbEntity
  8
DIM
 48
0.5
100
AcDbLine
 10
1215.982551726709
 20
806.3273293538138
 30
0.0
 11
1215.982551726709
 21
807.7387579252423
 31
0.0
  0
SOLID
  5
F5D3
330
DF55
100
AcDbEntity
  8
DIM
 48
0.5
100
AcDbTrace
 10
1215.962551726709
 20
805.3223293538136
 30
0.0
 11
1216.002551726709
 21
805.3223293538136
 31
0.0
 12
1215.982551726709
 22
805.2023293538137
 32
0.0
 13
1215.982551726709
 23
805.2023293538137
 33
0.0
  0
SOLID
  5
F5D4
330
DF55
100
AcDbEntity
  8
DIM
 48
0.5
100
AcDbTrace
 10
1215.962551726709
 20
806.2073293538137
 30
0.0
 11
1216.002551726709
 21
806.2073293538137
 31
0.0
 12
1215.982551726709
 22
806.3273293538138
 32
0.0
 13
1215.982551726709
 23
806.3273293538138
 33
0.0
  0
MTEXT
  5
F5D5
330
DF55
100
AcDbEntity
  8
DIM
 48
0.5
100
AcDbMText
 10
1215.85112315528
 20
807.0930436395281
 30
0.0
 40
0.12
 41
0.0
 71
     5
 72
     1
  1
\A1;%%c1.13 [28.58]
  7
DAYUS
 11
0.0000000000000001
 21
1.0
 31
0.0
 73
     1
 44
1.0
1001
ACAD
1000
MTEXTBEGIN
1070
    73
1070
     1
1070
    44
1040
1.0
1070
    74
1070
     0
1000
MTEXTEND
  0
POINT
  5
F5D6
330
DF55
100
AcDbEntity
  8
Defpoints
 62
     0
 48
0.5
100
AcDbPoint
 10
1217.630233755355
 20
805.2023293538137
 30
0.0
  0
POINT
  5
F5D7
330
DF55
100
AcDbEntity
  8
Defpoints
 62
     0
 48
0.5
100
AcDbPoint
 10
1217.630233755355
 20
806.3273293538138
 30
0.0
  0
POINT
  5
F5D8
330
DF55
100
AcDbEntity
  8
Defpoints
 62
     0
 48
0.5
100
AcDbPoint
 10
1215.982551726709
 20
806.3273293538138
 30
0.0
  0
ENDBLK
  5
DF61
330
DF55
100
AcDbEntity
  8
0
 48
0.5
100
AcDbBlockEnd
  0
BLOCK
  5
DF6E
330
DF63
100
AcDbEntity
  8
0
 48
0.5
100
AcDbBlockBegin
  2
*D8
 70
     1
 10
0.0
 20
0.0
 30
0.0
  3
*D8
  1

  0
LINE
  5
F92B
330
DF63
100
AcDbEntity
  8
DIM
 48
0.5
100
AcDbLine
 10
1222.161755920842
 20
805.2023293538137
 30
0.0
 11
1222.718808625154
 21
805.2023293538137
 31
0.0
  0
LINE
  5
F92C
330
DF63
100
AcDbEntity
  8
DIM
 48
0.5
100
AcDbLine
 10
1222.161755920841
 20
806.3273293538138
 30
0.0
 11
1222.718808625154
 21
806.3273293538138
 31
0.0
  0
LINE
  5
F92D
330
DF63
100
AcDbEntity
  8
DIM
 48
0.5
100
AcDbLine
 10
1222.638808625154
 20
805.3223293538136
 30
0.0
 11
1222.638808625154
 21
806.2073293538137
 31
0.0
  0
LINE
  5
F92E
330
DF63
100
AcDbEntity
  8
DIM
 48
0.5
100
AcDbLine
 10
1222.638808625154
 20
806.3273293538138
 30
0.0
 11
1222.638808625154
 21
807.7387579252423
 31
0.0
  0
SOLID
  5
F92F
330
DF63
100
AcDbEntity
  8
DIM
 48
0.5
100
AcDbTrace
 10
1222.618808625154
 20
805.3223293538136
 30
0.0
 11
1222.658808625154
 21
805.3223293538136
 31
0.0
 12
1222.638808625154
 22
805.2023293538137
 32
0.0
 13
1222.638808625154
 23
805.2023293538137
 33
0.0
  0
SOLID
  5
F930
330
DF63
100
AcDbEntity
  8
DIM
 48
0.5
100
AcDbTrace
 10
1222.618808625154
 20
806.2073293538137
 30
0.0
 11
1222.658808625154
 21
806.2073293538137
 31
0.0
 12
1222.638808625154
 22
806.3273293538138
 32
0.0
 13
1222.638808625154
 23
806.3273293538138
 33
0.0
  0
MTEXT
  5
F931
330
DF63
100
AcDbEntity
  8
DIM
 48
0.5
100
AcDbMText
 10
1222.507380053726
 20
807.0930436395281
 30
0.0
 40
0.12
 41
0.0
 71
     5
 72
     1
  1
\A1;%%c1.13 [28.58]
  7
DAYUS
 11
0.0000000000000001
 21
1.0
 31
0.0
 73
     1
 44
1.0
1001
ACAD
1000
MTEXTBEGIN
1070
    73
1070
     1
1070
    44
1040
1.0
1070
    74
1070
     0
1000
MTEXTEND
  0
POINT
  5
F932
330
DF63
100
AcDbEntity
  8
Defpoints
 62
     0
 48
0.5
100
AcDbPoint
 10
1222.101755920842
 20
805.2023293538137
 30
0.0
  0
POINT
  5
F933
330
DF63
100
AcDbEntity
  8
Defpoints
 62
     0
 48
0.5
100
AcDbPoint
 10
1222.101755920842
 20
806.3273293538138
 30
0.0
  0
POINT
  5
F934
330
DF63
100
AcDbEntity
  8
Defpoints
 62
     0
 48
0.5
100
AcDbPoint
 10
1222.638808625154
 20
806.3273293538138
 30
0.0
  0
ENDBLK
  5
DF6F
330
DF63
100
AcDbEntity
  8
0
 48
0.5
100
AcDbBlockEnd
  0
BLOCK
  5
DF7C
330
DF71
100
AcDbEntity
  8
0
 48
0.5
100
AcDbBlockBegin
  2
*D9
 70
     1
 10
0.0
 20
0.0
 30
0.0
  3
*D9
  1

  0
LINE
  5
F970
330
DF71
100
AcDbEntity
  8
DIM
 48
0.5
100
AcDbLine
 10
1217.025147923634
 20
805.3608293538138
 30
0.0
 11
1217.025147923634
 21
804.4655089080631
 31
0.0
  0
LINE
  5
F971
330
DF71
100
AcDbEntity
  8
DIM
 48
0.5
100
AcDbLine
 10
1216.770147923634
 20
805.3608293538138
 30
0.0
 11
1216.770147923634
 21
804.4655089080631
 31
0.0
  0
LINE
  5
F972
330
DF71
100
AcDbEntity
  8
DIM
 48
0.5
100
AcDbLine
 10
1217.145147923634
 20
804.5455089080631
 30
0.0
 11
1217.265147923634
 21
804.5455089080631
 31
0.0
  0
LINE
  5
F973
330
DF71
100
AcDbEntity
  8
DIM
 48
0.5
100
AcDbLine
 10
1216.650147923634
 20
804.5455089080631
 30
0.0
 11
1215.273673810969
 21
804.5455089080631
 31
0.0
  0
LINE
  5
F974
330
DF71
100
AcDbEntity
  8
DIM
 48
0.5
100
AcDbLine
 10
1217.025147923634
 20
804.5455089080631
 30
0.0
 11
1216.770147923634
 21
804.5455089080631
 31
0.0
  0
SOLID
  5
F975
330
DF71
100
AcDbEntity
  8
DIM
 48
0.5
100
AcDbTrace
 10
1217.145147923634
 20
804.565508908063
 30
0.0
 11
1217.145147923634
 21
804.5255089080631
 31
0.0
 12
1217.025147923634
 22
804.5455089080631
 32
0.0
 13
1217.025147923634
 23
804.5455089080631
 33
0.0
  0
SOLID
  5
F976
330
DF71
100
AcDbEntity
  8
DIM
 48
0.5
100
AcDbTrace
 10
1216.650147923634
 20
804.565508908063
 30
0.0
 11
1216.650147923634
 21
804.5255089080631
 31
0.0
 12
1216.770147923634
 22
804.5455089080631
 32
0.0
 13
1216.770147923634
 23
804.5455089080631
 33
0.0
  0
MTEXT
  5
F977
330
DF71
100
AcDbEntity
  8
DIM
 48
0.5
100
AcDbMText
 10
1215.830816668112
 20
804.6769374794916
 30
0.0
 40
0.12
 41
0.0
 71
     5
 72
     1
  1
\A1;0.26 [6.48]
  7
DAYUS
 73
     1
 44
1.0
1001
ACAD
1000
MTEXTBEGIN
1070
    73
1070
     1
1070
    44
1040
1.0
1070
    74
1070
     0
1000
MTEXTEND
  0
POINT
  5
F978
330
DF71
100
AcDbEntity
  8
Defpoints
 62
     0
 48
0.5
100
AcDbPoint
 10
1217.025147923634
 20
805.4208293538136
 30
0.0
  0
POINT
  5
F979
330
DF71
100
AcDbEntity
  8
Defpoints
 62
     0
 48
0.5
100
AcDbPoint
 10
1216.770147923634
 20
805.4208293538136
 30
0.0
  0
POINT
  5
F97A
330
DF71
100
AcDbEntity
  8
Defpoints
 62
     0
 48
0.5
100
AcDbPoint
 10
1216.770147923634
 20
804.5455089080631
 30
0.0
  0
ENDBLK
  5
DF7D
330
DF71
100
AcDbEntity
  8
0
 48
0.5
100
AcDbBlockEnd
  0
BLOCK
  5
DF8A
330
DF7F
100
AcDbEntity
  8
0
 48
0.5
100
AcDbBlockBegin
  2
*D10
 70
     1
 10
0.0
 20
0.0
 30
0.0
  3
*D10
  1

  0
LINE
  5
F5ED
330
DF7F
100
AcDbEntity
  8
DIM
 48
0.5
100
AcDbLine
 10
1217.245147923634
 20
805.4858293538137
 30
0.0
 11
1217.245147923634
 21
803.8157432136197
 31
0.0
  0
LINE
  5
F5EE
330
DF7F
100
AcDbEntity
  8
DIM
 48
0.5
100
AcDbLine
 10
1217.630233755355
 20
805.1423293538137
 30
0.0
 11
1217.630233755355
 21
803.8157432136197
 31
0.0
  0
LINE
  5
F5EF
330
DF7F
100
AcDbEntity
  8
DIM
 48
0.5
100
AcDbLine
 10
1217.365147923634
 20
803.8957432136196
 30
0.0
 11
1217.510233755355
 21
803.8957432136196
 31
0.0
  0
LINE
  5
F5F0
330
DF7F
100
AcDbEntity
  8
DIM
 48
0.5
100
AcDbLine
 10
1217.630233755355
 20
803.8957432136196
 30
0.0
 11
1218.86451946964
 21
803.8957432136196
 31
0.0
  0
SOLID
  5
F5F1
330
DF7F
100
AcDbEntity
  8
DIM
 48
0.5
100
AcDbTrace
 10
1217.365147923634
 20
803.9157432136196
 30
0.0
 11
1217.365147923634
 21
803.8757432136197
 31
0.0
 12
1217.245147923634
 22
803.8957432136196
 32
0.0
 13
1217.245147923634
 23
803.8957432136196
 33
0.0
  0
SOLID
  5
F5F2
330
DF7F
100
AcDbEntity
  8
DIM
 48
0.5
100
AcDbTrace
 10
1217.510233755355
 20
803.9157432136196
 30
0.0
 11
1217.510233755355
 21
803.8757432136197
 31
0.0
 12
1217.630233755355
 22
803.8957432136196
 32
0.0
 13
1217.630233755355
 23
803.8957432136196
 33
0.0
  0
MTEXT
  5
F5F3
330
DF7F
100
AcDbEntity
  8
DIM
 48
0.5
100
AcDbMText
 10
1218.307376612498
 20
804.0271717850483
 30
0.0
 40
0.12
 41
0.0
 71
     5
 72
     1
  1
\A1;0.39 [9.78]
  7
DAYUS
 73
     1
 44
1.0
1001
ACAD
1000
MTEXTBEGIN
1070
    73
1070
     1
1070
    44
1040
1.0
1070
    74
1070
     0
1000
MTEXTEND
  0
POINT
  5
F5F4
330
DF7F
100
AcDbEntity
  8
Defpoints
 62
     0
 48
0.5
100
AcDbPoint
 10
1217.245147923634
 20
805.5458293538137
 30
0.0
  0
POINT
  5
F5F5
330
DF7F
100
AcDbEntity
  8
Defpoints
 62
     0
 48
0.5
100
AcDbPoint
 10
1217.630233755355
 20
805.2023293538137
 30
0.0
  0
POINT
  5
F5F6
330
DF7F
100
AcDbEntity
  8
Defpoints
 62
     0
 48
0.5
100
AcDbPoint
 10
1217.630233755355
 20
803.8957432136196
 30
0.0
  0
ENDBLK
  5
DF8B
330
DF7F
100
AcDbEntity
  8
0
 48
0.5
100
AcDbBlockEnd
  0
BLOCK
  5
DF98
330
DF8D
100
AcDbEntity
  8
0
 48
0.5
100
AcDbBlockBegin
  2
*D11
 70
     1
 10
0.0
 20
0.0
 30
0.0
  3
*D11
  1

  0
LINE
  5
F8F8
330
DF8D
100
AcDbEntity
  8
DIM
 48
0.5
100
AcDbLine
 10
1217.245147923634
 20
805.4858293538137
 30
0.0
 11
1217.245147923634
 21
803.8157432136197
 31
0.0
  0
LINE
  5
F8F9
330
DF8D
100
AcDbEntity
  8
DIM
 48
0.5
100
AcDbLine
 10
1216.495147923634
 20
805.5251994325539
 30
0.0
 11
1216.495147923634
 21
803.8157432136197
 31
0.0
  0
LINE
  5
F8FA
330
DF8D
100
AcDbEntity
  8
DIM
 48
0.5
100
AcDbLine
 10
1217.125147923634
 20
803.8957432136196
 30
0.0
 11
1216.615147923634
 21
803.8957432136196
 31
0.0
  0
LINE
  5
F8FB
330
DF8D
100
AcDbEntity
  8
DIM
 48
0.5
100
AcDbLine
 10
1216.495147923634
 20
803.8957432136196
 30
0.0
 11
1215.169433637919
 21
803.8957432136196
 31
0.0
  0
SOLID
  5
F8FC
330
DF8D
100
AcDbEntity
  8
DIM
 48
0.5
100
AcDbTrace
 10
1217.125147923634
 20
803.9157432136196
 30
0.0
 11
1217.125147923634
 21
803.8757432136197
 31
0.0
 12
1217.245147923634
 22
803.8957432136196
 32
0.0
 13
1217.245147923634
 23
803.8957432136196
 33
0.0
  0
SOLID
  5
F8FD
330
DF8D
100
AcDbEntity
  8
DIM
 48
0.5
100
AcDbTrace
 10
1216.615147923634
 20
803.9157432136196
 30
0.0
 11
1216.615147923634
 21
803.8757432136197
 31
0.0
 12
1216.495147923634
 22
803.8957432136196
 32
0.0
 13
1216.495147923634
 23
803.8957432136196
 33
0.0
  0
MTEXT
  5
F8FE
330
DF8D
100
AcDbEntity
  8
DIM
 48
0.5
100
AcDbMText
 10
1215.772290780777
 20
804.0271717850483
 30
0.0
 40
0.12
 41
0.0
 71
     5
 72
     1
  1
\A1;0.75 [19.05]
  7
DAYUS
 73
     1
 44
1.0
1001
ACAD
1000
MTEXTBEGIN
1070
    73
1070
     1
1070
    44
1040
1.0
1070
    74
1070
     0
1000
MTEXTEND
  0
POINT
  5
F8FF
330
DF8D
100
AcDbEntity
  8
Defpoints
 62
     0
 48
0.5
100
AcDbPoint
 10
1217.245147923634
 20
805.5458293538137
 30
0.0
  0
POINT
  5
F900
330
DF8D
100
AcDbEntity
  8
Defpoints
 62
     0
 48
0.5
100
AcDbPoint
 10
1216.495147923634
 20
805.5851994325538
 30
0.0
  0
POINT
  5
F901
330
DF8D
100
AcDbEntity
  8
Defpoints
 62
     0
 48
0.5
100
AcDbPoint
 10
1216.495147923634
 20
803.8957432136196
 30
0.0
  0
ENDBLK
  5
DF99
330
DF8D
100
AcDbEntity
  8
0
 48
0.5
100
AcDbBlockEnd
  0
BLOCK
  5
DFA5
330
DF9B
100
AcDbEntity
  8
0
 48
0.5
100
AcDbBlockBegin
  2
*D12
 70
     1
 10
0.0
 20
0.0
 30
0.0
  3
*D12
  1

  0
LINE
  5
FC6B
330
DF9B
100
AcDbEntity
  8
DIM
 48
0.5
100
AcDbLine
 10
1218.245108553555
 20
804.2048293538138
 30
0.0
 11
1218.245108553555
 21
804.1786003564768
 31
0.0
  0
LINE
  5
FC6C
330
DF9B
100
AcDbEntity
  8
DIM
 48
0.5
100
AcDbLine
 10
1219.545108553555
 20
804.2048293538138
 30
0.0
 11
1219.545108553555
 21
803.3911504163821
 31
0.0
  0
LINE
  5
FC6D
330
DF9B
100
AcDbEntity
  8
DIM
 48
0.5
100
AcDbLine
 10
1218.365108553555
 20
803.4711504163821
 30
0.0
 11
1219.425108553555
 21
803.4711504163821
 31
0.0
  0
SOLID
  5
FC6E
330
DF9B
100
AcDbEntity
  8
DIM
 48
0.5
100
AcDbTrace
 10
1218.365108553555
 20
803.4911504163821
 30
0.0
 11
1218.365108553555
 21
803.4511504163821
 31
0.0
 12
1218.245108553555
 22
803.4711504163821
 32
0.0
 13
1218.245108553555
 23
803.4711504163821
 33
0.0
  0
SOLID
  5
FC6F
330
DF9B
100
AcDbEntity
  8
DIM
 48
0.5
100
AcDbTrace
 10
1219.425108553555
 20
803.4911504163821
 30
0.0
 11
1219.425108553555
 21
803.4511504163821
 31
0.0
 12
1219.545108553555
 22
803.4711504163821
 32
0.0
 13
1219.545108553555
 23
803.4711504163821
 33
0.0
  0
MTEXT
  5
FC70
330
DF9B
100
AcDbEntity
  8
DIM
 48
0.5
100
AcDbMText
 10
1218.895108553555
 20
803.6025789878106
 30
0.0
 40
0.12
 41
0.0
 71
     5
 72
     1
  1
\A1;1.3 [33.02]
  7
DAYUS
 73
     1
 44
1.0
1001
ACAD
1000
MTEXTBEGIN
1070
    73
1070
     1
1070
    44
1040
1.0
1070
    74
1070
     0
1000
MTEXTEND
  0
POINT
  5
FC71
330
DF9B
100
AcDbEntity
  8
Defpoints
 62
     0
 48
0.5
100
AcDbPoint
 10
1218.245108553555
 20
804.2648293538137
 30
0.0
  0
POINT
  5
FC72
330
DF9B
100
AcDbEntity
  8
Defpoints
 62
     0
 48
0.5
100
AcDbPoint
 10
1219.545108553555
 20
804.2648293538137
 30
0.0
  0
POINT
  5
FC73
330
DF9B
100
AcDbEntity
  8
Defpoints
 62
     0
 48
0.5
100
AcDbPoint
 10
1219.545108553555
 20
803.4711504163821
 30
0.0
  0
LINE
  5
FC74
330
DF9B
100
AcDbEntity
  8
DIM
 48
0.5
100
AcDbLine
 10
1218.245108553555
 20
803.8357432136196
 30
0.0
 11
1218.245108553555
 21
803.3911504163821
 31
0.0
  0
ENDBLK
  5
DFA6
330
DF9B
100
AcDbEntity
  8
0
 48
0.5
100
AcDbBlockEnd
  0
BLOCK
  5
DFC1
330
DFB6
100
AcDbEntity
  8
0
 48
0.5
100
AcDbBlockBegin
  2
*D13
 70
     1
 10
0.0
 20
0.0
 30
0.0
  3
*D13
  1

  0
LINE
  5
F952
330
DFB6
100
AcDbEntity
  8
DIM
 48
0.5
100
AcDbLine
 10
1220.935108553555
 20
804.2048293538138
 30
0.0
 11
1220.935108553555
 21
803.4018722286351
 31
0.0
  0
LINE
  5
F953
330
DFB6
100
AcDbEntity
  8
DIM
 48
0.5
100
AcDbLine
 10
1221.995108553555
 20
804.2048293538138
 30
0.0
 11
1221.995108553555
 21
803.4018722286351
 31
0.0
  0
LINE
  5
F954
330
DFB6
100
AcDbEntity
  8
DIM
 48
0.5
100
AcDbLine
 10
1221.055108553555
 20
803.4818722286352
 30
0.0
 11
1221.875108553555
 21
803.4818722286352
 31
0.0
  0
LINE
  5
F955
330
DFB6
100
AcDbEntity
  8
DIM
 48
0.5
100
AcDbLine
 10
1221.995108553555
 20
803.4818722286352
 30
0.0
 11
1223.320822839269
 21
803.4818722286352
 31
0.0
  0
SOLID
  5
F956
330
DFB6
100
AcDbEntity
  8
DIM
 48
0.5
100
AcDbTrace
 10
1221.055108553555
 20
803.5018722286352
 30
0.0
 11
1221.055108553555
 21
803.4618722286351
 31
0.0
 12
1220.935108553555
 22
803.4818722286352
 32
0.0
 13
1220.935108553555
 23
803.4818722286352
 33
0.0
  0
SOLID
  5
F957
330
DFB6
100
AcDbEntity
  8
DIM
 48
0.5
100
AcDbTrace
 10
1221.875108553555
 20
803.5018722286352
 30
0.0
 11
1221.875108553555
 21
803.4618722286351
 31
0.0
 12
1221.995108553555
 22
803.4818722286352
 32
0.0
 13
1221.995108553555
 23
803.4818722286352
 33
0.0
  0
MTEXT
  5
F958
330
DFB6
100
AcDbEntity
  8
DIM
 48
0.5
100
AcDbMText
 10
1222.717965696412
 20
803.6133008000637
 30
0.0
 40
0.12
 41
0.0
 71
     5
 72
     1
  1
\A1;1.06 [26.92]
  7
DAYUS
 73
     1
 44
1.0
1001
ACAD
1000
MTEXTBEGIN
1070
    73
1070
     1
1070
    44
1040
1.0
1070
    74
1070
     0
1000
MTEXTEND
  0
POINT
  5
F959
330
DFB6
100
AcDbEntity
  8
Defpoints
 62
     0
 48
0.5
100
AcDbPoint
 10
1220.935108553555
 20
804.2648293538137
 30
0.0
  0
POINT
  5
F95A
330
DFB6
100
AcDbEntity
  8
Defpoints
 62
     0
 48
0.5
100
AcDbPoint
 10
1221.995108553555
 20
804.2648293538137
 30
0.0
  0
POINT
  5
F95B
330
DFB6
100
AcDbEntity
  8
Defpoints
 62
     0
 48
0.5
100
AcDbPoint
 10
1221.995108553555
 20
803.4818722286352
 30
0.0
  0
ENDBLK
  5
DFC2
330
DFB6
100
AcDbEntity
  8
0
 48
0.5
100
AcDbBlockEnd
  0
BLOCK
  5
DFCE
330
DFC4
100
AcDbEntity
  8
0
 48
0.5
100
AcDbBlockBegin
  2
*D14
 70
     1
 10
0.0
 20
0.0
 30
0.0
  3
*D14
  1

  0
LINE
  5
FCF4
330
DFC4
100
AcDbEntity
  8
DIM
 48
0.5
100
AcDbLine
 10
1217.245147923634
 20
805.3923293538135
 30
0.0
 11
1217.245147923634
 21
805.2623293538136
 31
0.0
  0
LINE
  5
FCF5
330
DFC4
100
AcDbEntity
  8
DIM
 48
0.5
100
AcDbLine
 10
1219.182608553555
 20
804.0948293538136
 30
0.0
 11
1219.182608553555
 21
803.754007559239
 31
0.0
  0
LINE
  5
FCF6
330
DFC4
100
AcDbEntity
  8
DIM
 48
0.5
100
AcDbLine
 10
1217.365147923634
 20
803.034995009041
 30
0.0
 11
1219.062608553555
 21
803.034995009041
 31
0.0
  0
SOLID
  5
FCF7
330
DFC4
100
AcDbEntity
  8
DIM
 48
0.5
100
AcDbTrace
 10
1217.365147923634
 20
803.054995009041
 30
0.0
 11
1217.365147923634
 21
803.0149950090411
 31
0.0
 12
1217.245147923634
 22
803.034995009041
 32
0.0
 13
1217.245147923634
 23
803.034995009041
 33
0.0
  0
SOLID
  5
FCF8
330
DFC4
100
AcDbEntity
  8
DIM
 48
0.5
100
AcDbTrace
 10
1219.062608553555
 20
803.054995009041
 30
0.0
 11
1219.062608553555
 21
803.0149950090411
 31
0.0
 12
1219.182608553555
 22
803.034995009041
 32
0.0
 13
1219.182608553555
 23
803.034995009041
 33
0.0
  0
MTEXT
  5
FCF9
330
DFC4
100
AcDbEntity
  8
DIM
 48
0.5
100
AcDbMText
 10
1218.213878238594
 20
803.1664235804695
 30
0.0
 40
0.12
 41
0.0
 71
     5
 72
     1
  1
\A1;1.94 [49.21]
  7
DAYUS
 73
     1
 44
1.0
1001
ACAD
1000
MTEXTBEGIN
1070
    73
1070
     1
1070
    44
1040
1.0
1070
    74
1070
     0
1000
MTEXTEND
  0
POINT
  5
FCFA
330
DFC4
100
AcDbEntity
  8
Defpoints
 62
     0
 48
0.5
100
AcDbPoint
 10
1217.245147923634
 20
805.531069511294
 30
0.0
  0
POINT
  5
FCFB
330
DFC4
100
AcDbEntity
  8
Defpoints
 62
     0
 48
0.5
100
AcDbPoint
 10
1219.182608553555
 20
804.1548293538136
 30
0.0
  0
POINT
  5
FCFC
330
DFC4
100
AcDbEntity
  8
Defpoints
 62
     0
 48
0.5
100
AcDbPoint
 10
1219.182608553555
 20
803.034995009041
 30
0.0
  0
LINE
  5
FCFD
330
DFC4
100
AcDbEntity
  8
DIM
 48
0.5
100
AcDbLine
 10
1219.182608553555
 20
803.4111504163821
 30
0.0
 11
1219.182608553555
 21
802.9549950090409
 31
0.0
  0
LINE
  5
FCFE
330
DFC4
100
AcDbEntity
  8
DIM
 48
0.5
100
AcDbLine
 10
1217.245147923634
 20
804.485508908063
 30
0.0
 11
1217.245147923634
 21
802.9549950090409
 31
0.0
  0
LINE
  5
FCFF
330
DFC4
100
AcDbEntity
  8
DIM
 48
0.5
100
AcDbLine
 10
1217.245147923634
 20
805.1423293538137
 30
0.0
 11
1217.245147923634
 21
804.6055089080629
 31
0.0
  0
ENDBLK
  5
DFCF
330
DFC4
100
AcDbEntity
  8
0
 48
0.5
100
AcDbBlockEnd
  0
BLOCK
  5
DFF7
330
DFEC
100
AcDbEntity
  8
0
 48
0.5
100
AcDbBlockBegin
  2
*D15
 70
     1
 10
0.0
 20
0.0
 30
0.0
  3
*D15
  1

  0
LINE
  5
FD2F
330
DFEC
100
AcDbEntity
  8
DIM
 48
0.5
100
AcDbLine
 10
1219.408573119004
 20
806.2372702986955
 30
0.0
 11
1220.174072321008
 21
806.2372702986955
 31
0.0
  0
LINE
  5
FD30
330
DFEC
100
AcDbEntity
  8
DIM
 48
0.5
100
AcDbLine
 10
1219.605108553555
 20
805.7648293538138
 30
0.0
 11
1220.174072321008
 21
805.7648293538138
 31
0.0
  0
LINE
  5
FD31
330
DFEC
100
AcDbEntity
  8
DIM
 48
0.5
100
AcDbLine
 10
1220.094072321008
 20
806.1172702986954
 30
0.0
 11
1220.094072321008
 21
805.8848293538137
 31
0.0
  0
LINE
  5
FD32
330
DFEC
100
AcDbEntity
  8
DIM
 48
0.5
100
AcDbLine
 10
1220.094072321008
 20
805.7648293538138
 30
0.0
 11
1220.094072321008
 21
804.7248293538137
 31
0.0
  0
SOLID
  5
FD33
330
DFEC
100
AcDbEntity
  8
DIM
 48
0.5
100
AcDbTrace
 10
1220.074072321008
 20
806.1172702986954
 30
0.0
 11
1220.114072321008
 21
806.1172702986954
 31
0.0
 12
1220.094072321008
 22
806.2372702986955
 32
0.0
 13
1220.094072321008
 23
806.2372702986955
 33
0.0
  0
SOLID
  5
FD34
330
DFEC
100
AcDbEntity
  8
DIM
 48
0.5
100
AcDbTrace
 10
1220.074072321008
 20
805.8848293538137
 30
0.0
 11
1220.114072321008
 21
805.8848293538137
 31
0.0
 12
1220.094072321008
 22
805.7648293538138
 32
0.0
 13
1220.094072321008
 23
805.7648293538138
 33
0.0
  0
MTEXT
  5
FD35
330
DFEC
100
AcDbEntity
  8
DIM
 48
0.5
100
AcDbMText
 10
1219.962643749579
 20
805.1848293538139
 30
0.0
 40
0.12
 41
0.0
 71
     5
 72
     1
  1
\A1;0.47 [12]
  7
DAYUS
 11
0.0000000000000001
 21
1.0
 31
0.0
 73
     1
 44
1.0
1001
ACAD
1000
MTEXTBEGIN
1070
    73
1070
     1
1070
    44
1040
1.0
1070
    74
1070
     0
1000
MTEXTEND
  0
POINT
  5
FD36
330
DFEC
100
AcDbEntity
  8
Defpoints
 62
     0
 48
0.5
100
AcDbPoint
 10
1219.348573119004
 20
806.2372702986955
 30
0.0
  0
POINT
  5
FD37
330
DFEC
100
AcDbEntity
  8
Defpoints
 62
     0
 48
0.5
100
AcDbPoint
 10
1219.545108553555
 20
805.7648293538138
 30
0.0
  0
POINT
  5
FD38
330
DFEC
100
AcDbEntity
  8
Defpoints
 62
     0
 48
0.5
100
AcDbPoint
 10
1220.094072321008
 20
805.7648293538138
 30
0.0
  0
ENDBLK
  5
DFF8
330
DFEC
100
AcDbEntity
  8
0
 48
0.5
100
AcDbBlockEnd
  0
BLOCK
  5
E004
330
DFFA
100
AcDbEntity
  8
0
 48
0.5
100
AcDbBlockBegin
  2
*D16
 70
     1
 10
0.0
 20
0.0
 30
0.0
  3
*D16
  1

  0
LINE
  5
FDBB
330
DFFA
100
AcDbEntity
  8
DIM
 48
0.5
100
AcDbLine
 10
1217.245147923634
 20
806.0585891963334
 30
0.0
 11
1217.245147923634
 21
808.5422367718051
 31
0.0
  0
LINE
  5
FDBC
330
DFFA
100
AcDbEntity
  8
DIM
 48
0.5
100
AcDbLine
 10
1219.000108553555
 20
807.3777767008269
 30
0.0
 11
1219.000108553555
 21
808.5422367718051
 31
0.0
  0
LINE
  5
FDBD
330
DFFA
100
AcDbEntity
  8
DIM
 48
0.5
100
AcDbLine
 10
1217.365147923634
 20
808.4622367718051
 30
0.0
 11
1218.880108553555
 21
808.4622367718051
 31
0.0
  0
SOLID
  5
FDBE
330
DFFA
100
AcDbEntity
  8
DIM
 48
0.5
100
AcDbTrace
 10
1217.365147923634
 20
808.482236771805
 30
0.0
 11
1217.365147923634
 21
808.4422367718049
 31
0.0
 12
1217.245147923634
 22
808.4622367718051
 32
0.0
 13
1217.245147923634
 23
808.4622367718051
 33
0.0
  0
SOLID
  5
FDBF
330
DFFA
100
AcDbEntity
  8
DIM
 48
0.5
100
AcDbTrace
 10
1218.880108553555
 20
808.482236771805
 30
0.0
 11
1218.880108553555
 21
808.4422367718049
 31
0.0
 12
1219.000108553555
 22
808.4622367718051
 32
0.0
 13
1219.000108553555
 23
808.4622367718051
 33
0.0
  0
MTEXT
  5
FDC0
330
DFFA
100
AcDbEntity
  8
DIM
 48
0.5
100
AcDbMText
 10
1218.122628238594
 20
808.5936653432336
 30
0.0
 40
0.12
 41
0.0
 71
     5
 72
     1
  1
\A1;1.75 [44.58]
  7
DAYUS
 73
     1
 44
1.0
1001
ACAD
1000
MTEXTBEGIN
1070
    73
1070
     1
1070
    44
1040
1.0
1070
    74
1070
     0
1000
MTEXTEND
  0
POINT
  5
FDC1
330
DFFA
100
AcDbEntity
  8
Defpoints
 62
     0
 48
0.5
100
AcDbPoint
 10
1217.245147923634
 20
805.9985891963334
 30
0.0
  0
POINT
  5
FDC2
330
DFFA
100
AcDbEntity
  8
Defpoints
 62
     0
 48
0.5
100
AcDbPoint
 10
1219.000108553555
 20
807.3177767008271
 30
0.0
  0
POINT
  5
FDC3
330
DFFA
100
AcDbEntity
  8
Defpoints
 62
     0
 48
0.5
100
AcDbPoint
 10
1219.000108553555
 20
808.4622367718051
 30
0.0
  0
ENDBLK
  5
E005
330
DFFA
100
AcDbEntity
  8
0
 48
0.5
100
AcDbBlockEnd
  0
BLOCK
  5
E01F
330
E014
100
AcDbEntity
  8
0
 48
0.5
100
AcDbBlockBegin
  2
*D17
 70
     1
 10
0.0
 20
0.0
 30
0.0
  3
*D17
  1

  0
LINE
  5
FDC4
330
E014
100
AcDbEntity
  8
DIM
 48
0.5
100
AcDbLine
 10
1218.245108553555
 20
807.3133098883298
 30
0.0
 11
1218.245108553555
 21
808.402236771805
 31
0.0
  0
LINE
  5
FDC5
330
E014
100
AcDbEntity
  8
DIM
 48
0.5
100
AcDbLine
 10
1217.245147923634
 20
806.1373293538137
 30
0.0
 11
1217.245147923634
 21
806.2673293538137
 31
0.0
  0
LINE
  5
FDC6
330
E014
100
AcDbEntity
  8
DIM
 48
0.5
100
AcDbLine
 10
1218.125108553555
 20
808.8931783464088
 30
0.0
 11
1217.365147923634
 21
808.8931783464088
 31
0.0
  0
SOLID
  5
FDC7
330
E014
100
AcDbEntity
  8
DIM
 48
0.5
100
AcDbTrace
 10
1218.125108553555
 20
808.9131783464088
 30
0.0
 11
1218.125108553555
 21
808.8731783464089
 31
0.0
 12
1218.245108553555
 22
808.8931783464088
 32
0.0
 13
1218.245108553555
 23
808.8931783464088
 33
0.0
  0
SOLID
  5
FDC8
330
E014
100
AcDbEntity
  8
DIM
 48
0.5
100
AcDbTrace
 10
1217.365147923634
 20
808.9131783464088
 30
0.0
 11
1217.365147923634
 21
808.8731783464089
 31
0.0
 12
1217.245147923634
 22
808.8931783464088
 32
0.0
 13
1217.245147923634
 23
808.8931783464088
 33
0.0
  0
MTEXT
  5
FDC9
330
E014
100
AcDbEntity
  8
DIM
 48
0.5
100
AcDbMText
 10
1217.745128238594
 20
809.0246069178373
 30
0.0
 40
0.12
 41
0.0
 71
     5
 72
     1
  1
\A1;1 [25.4]
  7
DAYUS
 73
     1
 44
1.0
1001
ACAD
1000
MTEXTBEGIN
1070
    73
1070
     1
1070
    44
1040
1.0
1070
    74
1070
     0
1000
MTEXTEND
  0
POINT
  5
FDCA
330
E014
100
AcDbEntity
  8
Defpoints
 62
     0
 48
0.5
100
AcDbPoint
 10
1218.245108553555
 20
807.2533098883299
 30
0.0
  0
POINT
  5
FDCB
330
E014
100
AcDbEntity
  8
Defpoints
 62
     0
 48
0.5
100
AcDbPoint
 10
1217.245147923634
 20
805.9985891963334
 30
0.0
  0
POINT
  5
FDCC
330
E014
100
AcDbEntity
  8
Defpoints
 62
     0
 48
0.5
100
AcDbPoint
 10
1217.245147923634
 20
808.8931783464088
 30
0.0
  0
LINE
  5
FDCD
330
E014
100
AcDbEntity
  8
DIM
 48
0.5
100
AcDbLine
 10
1218.245108553555
 20
808.7450939146622
 30
0.0
 11
1218.245108553555
 21
808.9731783464088
 31
0.0
  0
LINE
  5
FDCE
330
E014
100
AcDbEntity
  8
DIM
 48
0.5
100
AcDbLine
 10
1217.245147923634
 20
806.3873293538136
 30
0.0
 11
1217.245147923634
 21
808.9731783464088
 31
0.0
  0
ENDBLK
  5
E020
330
E014
100
AcDbEntity
  8
0
 48
0.5
100
AcDbBlockEnd
  0
BLOCK
  5
E22B
330
E221
100
AcDbEntity
  8
0
 48
0.5
100
AcDbBlockBegin
  2
*D18
 70
     1
 10
0.0
 20
0.0
 30
0.0
  3
*D18
  1

  0
LINE
  5
FD8A
330
E221
100
AcDbEntity
  8
DIM
 48
0.5
100
AcDbLine
 10
1219.000108553555
 20
807.3777767008269
 30
0.0
 11
1219.000108553555
 21
808.5422367718051
 31
0.0
  0
LINE
  5
FD8B
330
E221
100
AcDbEntity
  8
DIM
 48
0.5
100
AcDbLine
 10
1221.482608553555
 20
807.3731516682309
 30
0.0
 11
1221.482608553555
 21
808.5422367718051
 31
0.0
  0
LINE
  5
FD8C
330
E221
100
AcDbEntity
  8
DIM
 48
0.5
100
AcDbLine
 10
1219.120108553555
 20
808.4622367718051
 30
0.0
 11
1221.362608553555
 21
808.4622367718051
 31
0.0
  0
SOLID
  5
FD8D
330
E221
100
AcDbEntity
  8
DIM
 48
0.5
100
AcDbTrace
 10
1219.120108553555
 20
808.482236771805
 30
0.0
 11
1219.120108553555
 21
808.4422367718049
 31
0.0
 12
1219.000108553555
 22
808.4622367718051
 32
0.0
 13
1219.000108553555
 23
808.4622367718051
 33
0.0
  0
SOLID
  5
FD8E
330
E221
100
AcDbEntity
  8
DIM
 48
0.5
100
AcDbTrace
 10
1221.362608553555
 20
808.482236771805
 30
0.0
 11
1221.362608553555
 21
808.4422367718049
 31
0.0
 12
1221.482608553555
 22
808.4622367718051
 32
0.0
 13
1221.482608553555
 23
808.4622367718051
 33
0.0
  0
MTEXT
  5
FD8F
330
E221
100
AcDbEntity
  8
DIM
 48
0.5
100
AcDbMText
 10
1220.25534089312
 20
808.5936653432336
 30
0.0
 40
0.12
 41
0.0
 71
     5
 72
     1
  1
\A1;2.48 [63.06]
  7
DAYUS
 73
     1
 44
1.0
1001
ACAD
1000
MTEXTBEGIN
1070
    73
1070
     1
1070
    44
1040
1.0
1070
    74
1070
     0
1000
MTEXTEND
  0
POINT
  5
FD90
330
E221
100
AcDbEntity
  8
Defpoints
 62
     0
 48
0.5
100
AcDbPoint
 10
1219.000108553555
 20
807.3177767008271
 30
0.0
  0
POINT
  5
FD91
330
E221
100
AcDbEntity
  8
Defpoints
 62
     0
 48
0.5
100
AcDbPoint
 10
1221.482608553555
 20
807.3131516682309
 30
0.0
  0
POINT
  5
FD92
330
E221
100
AcDbEntity
  8
Defpoints
 62
     0
 48
0.5
100
AcDbPoint
 10
1221.482608553555
 20
808.4622367718051
 30
0.0
  0
ENDBLK
  5
E22C
330
E221
100
AcDbEntity
  8
0
 48
0.5
100
AcDbBlockEnd
  0
BLOCK
  5
E238
330
E22E
100
AcDbEntity
  8
0
 48
0.5
100
AcDbBlockBegin
  2
*D19
 70
     1
 10
0.0
 20
0.0
 30
0.0
  3
*D19
  1

  0
LINE
  5
FDCF
330
E22E
100
AcDbEntity
  8
DIM
 48
0.5
100
AcDbLine
 10
1218.245108553555
 20
807.3133098883298
 30
0.0
 11
1218.245108553555
 21
808.402236771805
 31
0.0
  0
LINE
  5
FDD0
330
E22E
100
AcDbEntity
  8
DIM
 48
0.5
100
AcDbLine
 10
1221.995108553555
 20
807.3154043365995
 30
0.0
 11
1221.995108553555
 21
808.9731783464088
 31
0.0
  0
LINE
  5
FDD1
330
E22E
100
AcDbEntity
  8
DIM
 48
0.5
100
AcDbLine
 10
1218.365108553555
 20
808.8931783464088
 30
0.0
 11
1221.875108553555
 21
808.8931783464088
 31
0.0
  0
SOLID
  5
FDD2
330
E22E
100
AcDbEntity
  8
DIM
 48
0.5
100
AcDbTrace
 10
1218.365108553555
 20
808.9131783464088
 30
0.0
 11
1218.365108553555
 21
808.8731783464089
 31
0.0
 12
1218.245108553555
 22
808.8931783464088
 32
0.0
 13
1218.245108553555
 23
808.8931783464088
 33
0.0
  0
SOLID
  5
FDD3
330
E22E
100
AcDbEntity
  8
DIM
 48
0.5
100
AcDbTrace
 10
1221.875108553555
 20
808.9131783464088
 30
0.0
 11
1221.875108553555
 21
808.8731783464089
 31
0.0
 12
1221.995108553555
 22
808.8931783464088
 32
0.0
 13
1221.995108553555
 23
808.8931783464088
 33
0.0
  0
MTEXT
  5
FDD4
330
E22E
100
AcDbEntity
  8
DIM
 48
0.5
100
AcDbMText
 10
1220.082968863786
 20
809.0246069178373
 30
0.0
 40
0.12
 41
0.0
 71
     5
 72
     1
  1
\A1;3.75 [95.25]
  7
DAYUS
 73
     1
 44
1.0
1001
ACAD
1000
MTEXTBEGIN
1070
    73
1070
     1
1070
    44
1040
1.0
1070
    74
1070
     0
1000
MTEXTEND
  0
POINT
  5
FDD5
330
E22E
100
AcDbEntity
  8
Defpoints
 62
     0
 48
0.5
100
AcDbPoint
 10
1218.245108553555
 20
807.2533098883299
 30
0.0
  0
POINT
  5
FDD6
330
E22E
100
AcDbEntity
  8
Defpoints
 62
     0
 48
0.5
100
AcDbPoint
 10
1221.995108553555
 20
807.2554043365995
 30
0.0
  0
POINT
  5
FDD7
330
E22E
100
AcDbEntity
  8
Defpoints
 62
     0
 48
0.5
100
AcDbPoint
 10
1221.995108553555
 20
808.8931783464088
 30
0.0
  0
LINE
  5
FDD8
330
E22E
100
AcDbEntity
  8
DIM
 48
0.5
100
AcDbLine
 10
1218.245108553555
 20
808.7450939146622
 30
0.0
 11
1218.245108553555
 21
808.9731783464088
 31
0.0
  0
ENDBLK
  5
E239
330
E22E
100
AcDbEntity
  8
0
 48
0.5
100
AcDbBlockEnd
  0
BLOCK
  5
E245
330
E23B
100
AcDbEntity
  8
0
 48
0.5
100
AcDbBlockBegin
  2
*D20
 70
     1
 10
0.0
 20
0.0
 30
0.0
  3
*D20
  1

  0
LINE
  5
FD58
330
E23B
100
AcDbEntity
  8
DIM
 48
0.5
100
AcDbLine
 10
1217.245147923634
 20
806.0585891963334
 30
0.0
 11
1217.245147923634
 21
809.391807286385
 31
0.0
  0
LINE
  5
FD59
330
E23B
100
AcDbEntity
  8
DIM
 48
0.5
100
AcDbLine
 10
1222.120108553555
 20
806.3684898493546
 30
0.0
 11
1222.120108553555
 21
809.391807286385
 31
0.0
  0
LINE
  5
FD5A
330
E23B
100
AcDbEntity
  8
DIM
 48
0.5
100
AcDbLine
 10
1217.365147923634
 20
809.311807286385
 30
0.0
 11
1222.000108553555
 21
809.311807286385
 31
0.0
  0
SOLID
  5
FD5B
330
E23B
100
AcDbEntity
  8
DIM
 48
0.5
100
AcDbTrace
 10
1217.365147923634
 20
809.331807286385
 30
0.0
 11
1217.365147923634
 21
809.2918072863851
 31
0.0
 12
1217.245147923634
 22
809.311807286385
 32
0.0
 13
1217.245147923634
 23
809.311807286385
 33
0.0
  0
SOLID
  5
FD5C
330
E23B
100
AcDbEntity
  8
DIM
 48
0.5
100
AcDbTrace
 10
1222.000108553555
 20
809.331807286385
 30
0.0
 11
1222.000108553555
 21
809.2918072863851
 31
0.0
 12
1222.120108553555
 22
809.311807286385
 32
0.0
 13
1222.120108553555
 23
809.311807286385
 33
0.0
  0
MTEXT
  5
FD5D
330
E23B
100
AcDbEntity
  8
DIM
 48
0.5
100
AcDbMText
 10
1219.664351057231
 20
809.4432358578137
 30
0.0
 40
0.12
 41
0.0
 71
     5
 72
     1
  1
\A1;4.87 [123.82]
  7
DAYUS
 73
     1
 44
1.0
1001
ACAD
1000
MTEXTBEGIN
1070
    73
1070
     1
1070
    44
1040
1.0
1070
    74
1070
     0
1000
MTEXTEND
  0
POINT
  5
FD5E
330
E23B
100
AcDbEntity
  8
Defpoints
 62
     0
 48
0.5
100
AcDbPoint
 10
1217.245147923634
 20
805.9985891963334
 30
0.0
  0
POINT
  5
FD5F
330
E23B
100
AcDbEntity
  8
Defpoints
 62
     0
 48
0.5
100
AcDbPoint
 10
1222.120108553555
 20
806.3084898493547
 30
0.0
  0
POINT
  5
FD60
330
E23B
100
AcDbEntity
  8
Defpoints
 62
     0
 48
0.5
100
AcDbPoint
 10
1222.120108553555
 20
809.311807286385
 30
0.0
  0
ENDBLK
  5
E246
330
E23B
100
AcDbEntity
  8
0
 48
0.5
100
AcDbBlockEnd
  0
BLOCK
  5
E252
330
E248
100
AcDbEntity
  8
0
 48
0.5
100
AcDbBlockBegin
  2
*D21
 70
     1
 10
0.0
 20
0.0
 30
0.0
  3
*D21
  1

  0
LINE
  5
FC60
330
E248
100
AcDbEntity
  8
DIM
 48
0.5
100
AcDbLine
 10
1219.182608553555
 20
804.0948293538136
 30
0.0
 11
1219.182608553555
 21
803.754007559239
 31
0.0
  0
LINE
  5
FC61
330
E248
100
AcDbEntity
  8
DIM
 48
0.5
100
AcDbLine
 10
1221.557608553555
 20
804.0948293538136
 30
0.0
 11
1221.557608553555
 21
803.5418722286351
 31
0.0
  0
LINE
  5
FC62
330
E248
100
AcDbEntity
  8
DIM
 48
0.5
100
AcDbLine
 10
1219.302608553555
 20
803.034995009041
 30
0.0
 11
1221.437608553555
 21
803.034995009041
 31
0.0
  0
SOLID
  5
FC63
330
E248
100
AcDbEntity
  8
DIM
 48
0.5
100
AcDbTrace
 10
1219.302608553555
 20
803.054995009041
 30
0.0
 11
1219.302608553555
 21
803.0149950090411
 31
0.0
 12
1219.182608553555
 22
803.034995009041
 32
0.0
 13
1219.182608553555
 23
803.034995009041
 33
0.0
  0
SOLID
  5
FC64
330
E248
100
AcDbEntity
  8
DIM
 48
0.5
100
AcDbTrace
 10
1221.437608553555
 20
803.054995009041
 30
0.0
 11
1221.437608553555
 21
803.0149950090411
 31
0.0
 12
1221.557608553555
 22
803.034995009041
 32
0.0
 13
1221.557608553555
 23
803.034995009041
 33
0.0
  0
MTEXT
  5
FC65
330
E248
100
AcDbEntity
  8
DIM
 48
0.5
100
AcDbMText
 10
1220.370108553555
 20
803.1664235804695
 30
0.0
 40
0.12
 41
0.0
 71
     5
 72
     1
  1
\A1;2.38 [60.33]
  7
DAYUS
 73
     1
 44
1.0
1001
ACAD
1000
MTEXTBEGIN
1070
    73
1070
     1
1070
    44
1040
1.0
1070
    74
1070
     0
1000
MTEXTEND
  0
POINT
  5
FC66
330
E248
100
AcDbEntity
  8
Defpoints
 62
     0
 48
0.5
100
AcDbPoint
 10
1219.182608553555
 20
804.1548293538136
 30
0.0
  0
POINT
  5
FC67
330
E248
100
AcDbEntity
  8
Defpoints
 62
     0
 48
0.5
100
AcDbPoint
 10
1221.557608553555
 20
804.1548293538136
 30
0.0
  0
POINT
  5
FC68
330
E248
100
AcDbEntity
  8
Defpoints
 62
     0
 48
0.5
100
AcDbPoint
 10
1221.557608553555
 20
803.034995009041
 30
0.0
  0
LINE
  5
FC69
330
E248
100
AcDbEntity
  8
DIM
 48
0.5
100
AcDbLine
 10
1221.557608553555
 20
803.4218722286352
 30
0.0
 11
1221.557608553555
 21
802.9549950090409
 31
0.0
  0
LINE
  5
FC6A
330
E248
100
AcDbEntity
  8
DIM
 48
0.5
100
AcDbLine
 10
1219.182608553555
 20
803.4111504163821
 30
0.0
 11
1219.182608553555
 21
802.9549950090409
 31
0.0
  0
ENDBLK
  5
E253
330
E248
100
AcDbEntity
  8
0
 48
0.5
100
AcDbBlockEnd
  0
BLOCK
  5
F733
330
F731
100
AcDbEntity
  8
0
 48
0.5
100
AcDbBlockBegin
  2
GENAXEH
 70
     0
 10
0.0
 20
0.0
 30
0.0
  3
GENAXEH
  1

  0
LINE
  5
F732
330
F731
100
AcDbEntity
  8
0
100
AcDbLine
 10
-1.0
 20
0.0
 30
0.0
 11
1.0
 21
0.0
 31
0.0
  0
ENDBLK
  5
F734
330
F731
100
AcDbEntity
  8
0
 48
0.5
100
AcDbBlockEnd
  0
BLOCK
  5
FD3D
330
FD3A
100
AcDbEntity
  8
0
 48
0.5
100
AcDbBlockBegin
  2
A$C0FBC3824
 70
     0
 10
0.0
 20
0.0
 30
0.0
  3
A$C0FBC3824
  1

  0
TEXT
  5
FD3E
330
FD3A
100
AcDbEntity
  8
0
 62
     4
100
AcDbText
 10
0.0000000077036475
 20
0.1971057862360794
 30
0.0
 40
0.09
  1
0
 41
0.75
  7
CHINESET
100
AcDbText
  0
LINE
  5
FD3F
330
FD3A
100
AcDbEntity
  8
0
 62
     4
100
AcDbLine
 10
0.0234936358031064
 20
0.0000000178492883
 30
0.0
 11
0.0234936358031064
 21
0.1569089626860887
 31
0.0
  0
TEXT
  5
FD40
330
FD3A
100
AcDbEntity
  8
0
 62
     4
100
AcDbText
 10
0.1606473260601433
 20
0.2195738566518912
 30
0.0
 40
0.09
  1
Stroke
 41
0.75
  7
CHINESET
100
AcDbText
  0
ENDBLK
  5
FD41
330
FD3A
100
AcDbEntity
  8
0
 48
0.5
100
AcDbBlockEnd
  0
BLOCK
  5
FD45
330
FD42
100
AcDbEntity
  8
0
 48
0.5
100
AcDbBlockBegin
  2
A$C7A150A0F
 70
     0
 10
0.0
 20
0.0
 30
0.0
  3
A$C7A150A0F
  1

  0
LINE
  5
FD46
330
FD42
100
AcDbEntity
  8
SL
100
AcDbLine
 10
0.3679920646077335
 20
0.0207352438358157
 30
0.0
 11
0.0
 21
0.0207352438358157
 31
0.0
  0
TRACE
  5
FD47
330
FD42
100
AcDbEntity
  8
SL
370
    35
100
AcDbTrace
 10
0.2104920646077062
 20
0.041470512113392
 30
0.0
 11
0.2104920646077062
 21
-0.0000000244416469
 31
0.0
 12
0.3679920646077335
 22
0.0207352438358157
 32
0.0
 13
0.3679920646077335
 23
0.0207352438358157
 33
0.0
  0
MTEXT
  5
FD48
330
FD42
100
AcDbEntity
  8
SL
100
AcDbMText
 10
0.0362430161771954
 20
0.0639487999877702
 30
0.0
 40
0.11025
 41
0.0
 71
     7
 72
     5
  1
SL
  7
ACISOTS
 73
     1
 44
1.0
1001
ACAD
1000
MTEXTBEGIN
1070
    73
1070
     1
1070
    44
1040
1.0
1070
    74
1070
     0
1000
MTEXTEND
  0
ENDBLK
  5
FD49
330
FD42
100
AcDbEntity
  8
0
 48
0.5
100
AcDbBlockEnd
  0
ENDSEC
  0
SECTION
  2
ENTITIES
  0
MTEXT
  5
57F
330
2
100
AcDbEntity
  8
DIM
100
AcDbMText
 10
171.0016381545888
 20
211.4728669478691
 30
0.0
 40
3.0
 41
0.0
 71
     1
 72
     1
  1

  7
DAYUS
 73
     1
 44
1.0
1001
ACAD
1000
MTEXTBEGIN
1070
    73
1070
     1
1070
    44
1040
1.0
1070
    74
1070
     0
1000
MTEXTEND
  0
MTEXT
  5
9C8
330
2
100
AcDbEntity
  8
DIM
100
AcDbMText
 10
395.9238044175249
 20
214.0436425362303
 30
0.0
 40
3.0
 41
0.0
 71
     1
 72
     1
  1

  7
DAYUS
 73
     1
 44
1.0
1001
ACAD
1000
MTEXTBEGIN
1070
    73
1070
     1
1070
    44
1040
1.0
1070
    74
1070
     0
1000
MTEXTEND
  0
MTEXT
  5
9CE
330
2
100
AcDbEntity
  8
DIM
100
AcDbMText
 10
451.7751899652814
 20
173.9181305121135
 30
0.0
 40
3.0
 41
0.0
 71
     1
 72
     1
  1

  7
DAYUS
 73
     1
 44
1.0
1001
ACAD
1000
MTEXTBEGIN
1070
    73
1070
     1
1070
    44
1040
1.0
1070
    74
1070
     0
1000
MTEXTEND
  0
MTEXT
  5
9D0
330
2
100
AcDbEntity
  8
DIM
100
AcDbMText
 10
259.9703903886596
 20
176.2910840214814
 30
0.0
 40
3.0
 41
0.0
 71
     9
 72
     1
  1

  7
DAYUS
 73
     1
 44
1.0
1001
ACAD
1000
MTEXTBEGIN
1070
    73
1070
     1
1070
    44
1040
1.0
1070
    74
1070
     0
1000
MTEXTEND
  0
MTEXT
  5
9D4
330
2
100
AcDbEntity
  8
DIM
100
AcDbMText
 10
392.9133010604914
 20
171.5405871675761
 30
0.0
 40
3.0
 41
0.0
 71
     1
 72
     1
  1

  7
DAYUS
 73
     1
 44
1.0
1001
ACAD
1000
MTEXTBEGIN
1070
    73
1070
     1
1070
    44
1040
1.0
1070
    74
1070
     0
1000
MTEXTEND
  0
MTEXT
  5
158C
330
2
100
AcDbEntity
  8
DIM
100
AcDbMText
 10
110.8318657981983
 20
-15.08812259434717
 30
0.0
 40
3.0
 41
0.0
 71
     9
 72
     1
  1

  7
DAYUS
 73
     1
 44
1.0
1001
ACAD
1000
MTEXTBEGIN
1070
    73
1070
     1
1070
    44
1040
1.0
1070
    74
1070
     0
1000
MTEXTEND
  0
MTEXT
  5
158F
330
2
100
AcDbEntity
  8
DIM
100
AcDbMText
 10
119.2699599670356
 20
34.7510220230256
 30
0.0
 40
3.0
 41
0.0
 71
     9
 72
     1
  1

  7
DAYUS
 73
     1
 44
1.0
1001
ACAD
1000
MTEXTBEGIN
1070
    73
1070
     1
1070
    44
1040
1.0
1070
    74
1070
     0
1000
MTEXTEND
  0
MTEXT
  5
1591
330
2
100
AcDbEntity
  8
DIM
100
AcDbMText
 10
189.5967930303953
 20
-13.46778498091794
 30
0.0
 40
3.0
 41
0.0
 71
     1
 72
     1
  1

  7
DAYUS
 73
     1
 44
1.0
1001
ACAD
1000
MTEXTBEGIN
1070
    73
1070
     1
1070
    44
1040
1.0
1070
    74
1070
     0
1000
MTEXTEND
  0
MTEXT
  5
1598
330
2
100
AcDbEntity
  8
DIM
100
AcDbMText
 10
90.58412912106287
 20
-25.41282672788975
 30
0.0
 40
3.0
 41
0.0
 71
     9
 72
     1
  1

  7
DAYUS
 73
     1
 44
1.0
1001
ACAD
1000
MTEXTBEGIN
1070
    73
1070
     1
1070
    44
1040
1.0
1070
    74
1070
     0
1000
MTEXTEND
  0
MTEXT
  5
159A
330
2
100
AcDbEntity
  8
DIM
100
AcDbMText
 10
208.5571760105661
 20
-51.68695673963509
 30
0.0
 40
3.0
 41
0.0
 71
     1
 72
     1
  1

  7
DAYUS
 73
     1
 44
1.0
1001
ACAD
1000
MTEXTBEGIN
1070
    73
1070
     1
1070
    44
1040
1.0
1070
    74
1070
     0
1000
MTEXTEND
  0
MTEXT
  5
159D
330
2
100
AcDbEntity
  8
DIM
100
AcDbMText
 10
99.56138925954311
 20
147.6387806501056
 30
0.0
 40
3.0
 41
0.0
 71
     9
 72
     1
  1

  7
DAYUS
 73
     1
 44
1.0
1001
ACAD
1000
MTEXTBEGIN
1070
    73
1070
     1
1070
    44
1040
1.0
1070
    74
1070
     0
1000
MTEXTEND
  0
MTEXT
  5
159F
330
2
100
AcDbEntity
  8
DIM
100
AcDbMText
 10
304.2962861880261
 20
161.94800970186
 30
0.0
 40
3.0
 41
0.0
 71
     9
 72
     1
  1

  7
DAYUS
 73
     1
 44
1.0
1001
ACAD
1000
MTEXTBEGIN
1070
    73
1070
     1
1070
    44
1040
1.0
1070
    74
1070
     0
1000
MTEXTEND
  0
MTEXT
  5
15A2
330
2
100
AcDbEntity
  8
DIM
100
AcDbMText
 10
43.89870096097361
 20
-23.29567037714901
 30
0.0
 40
3.0
 41
0.0
 71
     9
 72
     1
  1

  7
DAYUS
 73
     1
 44
1.0
1001
ACAD
1000
MTEXTBEGIN
1070
    73
1070
     1
1070
    44
1040
1.0
1070
    74
1070
     0
1000
MTEXTEND
  0
MTEXT
  5
1ECC
330
2
100
AcDbEntity
  8
DIM
100
AcDbMText
 10
386.6447020568979
 20
28.34246059625048
 30
0.0
 40
3.0
 41
0.0
 71
     1
 72
     1
  1

  7
DAYUS
 73
     1
 44
1.0
1001
ACAD
1000
MTEXTBEGIN
1070
    73
1070
     1
1070
    44
1040
1.0
1070
    74
1070
     0
1000
MTEXTEND
  0
MTEXT
  5
1ECE
330
2
100
AcDbEntity
  8
DIM
100
AcDbMText
 10
319.574162593258
 20
28.70880813750205
 30
0.0
 40
3.0
 41
0.0
 71
     9
 72
     1
  1

  7
DAYUS
 73
     1
 44
1.0
1001
ACAD
1000
MTEXTBEGIN
1070
    73
1070
     1
1070
    44
1040
1.0
1070
    74
1070
     0
1000
MTEXTEND
  0
MTEXT
  5
1ED0
330
2
100
AcDbEntity
  8
DIM
100
AcDbMText
 10
378.371508435386
 20
-16.25474400202404
 30
0.0
 40
3.0
 41
0.0
 71
     1
 72
     1
  1

  7
DAYUS
 73
     1
 44
1.0
1001
ACAD
1000
MTEXTBEGIN
1070
    73
1070
     1
1070
    44
1040
1.0
1070
    74
1070
     0
1000
MTEXTEND
  0
MTEXT
  5
1ED2
330
2
100
AcDbEntity
  8
DIM
100
AcDbMText
 10
252.8508589257123
 20
-19.0290972650472
 30
0.0
 40
3.0
 41
0.0
 71
     9
 72
     1
  1

  7
DAYUS
 73
     1
 44
1.0
1001
ACAD
1000
MTEXTBEGIN
1070
    73
1070
     1
1070
    44
1040
1.0
1070
    74
1070
     0
1000
MTEXTEND
  0
MTEXT
  5
1ED4
330
2
100
AcDbEntity
  8
DIM
100
AcDbMText
 10
408.0172303915572
 20
-23.72879443427905
 30
0.0
 40
3.0
 41
0.0
 71
     1
 72
     1
  1

  7
DAYUS
 73
     1
 44
1.0
1001
ACAD
1000
MTEXTBEGIN
1070
    73
1070
     1
1070
    44
1040
1.0
1070
    74
1070
     0
1000
MTEXTEND
  0
TEXT
  5
2415
330
2
100
AcDbEntity
  8
LOGO
  6
Continuous
 62
     6
100
AcDbText
 10
725.6097667457372
 20
-105.2238066289788
 30
0.0
 40
2.164502164502164
  1

  7
CHINESET
 72
     4
 11
725.6097667457372
 21
-105.2238066289788
 31
0.0
100
AcDbText
  0
LINE
  5
4695
330
2
100
AcDbEntity
  8
AM_7
 60
     1
100
AcDbLine
 10
821.9829340872449
 20
370.6532985828056
 30
0.0
 11
785.5829340872447
 21
370.6532985828056
 31
0.0
  0
LINE
  5
46DE
330
2
100
AcDbEntity
  8
AM_7
 60
     1
100
AcDbLine
 10
717.3295627225357
 20
370.6532985828056
 30
0.0
 11
720.3295627225356
 21
370.6532985828056
 31
0.0
  0
LINE
  5
46DF
330
2
100
AcDbEntity
  8
AM_7
 60
     1
100
AcDbLine
 10
718.8295627225357
 20
369.1532985828057
 30
0.0
 11
718.8295627225357
 21
372.1532985828056
 31
0.0
  0
LINE
  5
46E0
330
2
100
AcDbEntity
  8
AM_7
 60
     1
100
AcDbLine
 10
709.8295627225357
 20
370.6532985828056
 30
0.0
 11
716.3295627225356
 21
370.6532985828056
 31
0.0
  0
LINE
  5
46E1
330
2
100
AcDbEntity
  8
AM_7
 60
     1
100
AcDbLine
 10
721.3295627225356
 20
370.6532985828056
 30
0.0
 11
727.8295627225356
 21
370.6532985828056
 31
0.0
  0
LINE
  5
46E2
330
2
100
AcDbEntity
  8
AM_7
 60
     1
100
AcDbLine
 10
718.8295627225357
 20
361.6532985828056
 30
0.0
 11
718.8295627225357
 21
368.1532985828056
 31
0.0
  0
LINE
  5
46E3
330
2
100
AcDbEntity
  8
AM_7
 60
     1
100
AcDbLine
 10
718.8295627225357
 20
373.1532985828057
 30
0.0
 11
718.8295627225357
 21
379.6532985828056
 31
0.0
  0
LINE
  5
46E4
330
2
100
AcDbEntity
  8
AM_7
 60
     1
100
AcDbLine
 10
709.0795627225356
 20
362.4032985828056
 30
0.0
 11
712.0795627225357
 21
362.4032985828056
 31
0.0
  0
LINE
  5
46E5
330
2
100
AcDbEntity
  8
AM_7
 60
     1
100
AcDbLine
 10
710.5795627225356
 20
360.9032985828056
 30
0.0
 11
710.5795627225356
 21
363.9032985828056
 31
0.0
  0
LINE
  5
46E6
330
2
100
AcDbEntity
  8
AM_7
 60
     1
100
AcDbLine
 10
706.8142627225356
 20
362.4032985828056
 30
0.0
 11
708.0795627225357
 21
362.4032985828056
 31
0.0
  0
LINE
  5
46E7
330
2
100
AcDbEntity
  8
AM_7
 60
     1
100
AcDbLine
 10
713.0795627225356
 20
362.4032985828056
 30
0.0
 11
714.3448627225356
 21
362.4032985828056
 31
0.0
  0
LINE
  5
46E8
330
2
100
AcDbEntity
  8
AM_7
 60
     1
100
AcDbLine
 10
710.5795627225356
 20
358.6379985828056
 30
0.0
 11
710.5795627225356
 21
359.9032985828056
 31
0.0
  0
LINE
  5
46E9
330
2
100
AcDbEntity
  8
AM_7
 60
     1
100
AcDbLine
 10
710.5795627225356
 20
364.9032985828057
 30
0.0
 11
710.5795627225356
 21
366.1685985828057
 31
0.0
  0
LINE
  5
46EA
330
2
100
AcDbEntity
  8
AM_7
 60
     1
100
AcDbLine
 10
725.5795627225356
 20
362.4032985828056
 30
0.0
 11
728.5795627225357
 21
362.4032985828056
 31
0.0
  0
LINE
  5
46EB
330
2
100
AcDbEntity
  8
AM_7
 60
     1
100
AcDbLine
 10
727.0795627225356
 20
360.9032985828056
 30
0.0
 11
727.0795627225356
 21
363.9032985828056
 31
0.0
  0
LINE
  5
46EC
330
2
100
AcDbEntity
  8
AM_7
 60
     1
100
AcDbLine
 10
723.3142627225356
 20
362.4032985828056
 30
0.0
 11
724.5795627225357
 21
362.4032985828056
 31
0.0
  0
LINE
  5
46ED
330
2
100
AcDbEntity
  8
AM_7
 60
     1
100
AcDbLine
 10
729.5795627225357
 20
362.4032985828056
 30
0.0
 11
730.8448627225356
 21
362.4032985828056
 31
0.0
  0
LINE
  5
46EE
330
2
100
AcDbEntity
  8
AM_7
 60
     1
100
AcDbLine
 10
727.0795627225356
 20
358.6379985828056
 30
0.0
 11
727.0795627225356
 21
359.9032985828056
 31
0.0
  0
LINE
  5
46EF
330
2
100
AcDbEntity
  8
AM_7
 60
     1
100
AcDbLine
 10
727.0795627225356
 20
364.9032985828057
 30
0.0
 11
727.0795627225356
 21
366.1685985828057
 31
0.0
  0
LINE
  5
46F0
330
2
100
AcDbEntity
  8
AM_7
 60
     1
100
AcDbLine
 10
725.5795627225356
 20
378.9032985828056
 30
0.0
 11
728.5795627225357
 21
378.9032985828056
 31
0.0
  0
LINE
  5
46F1
330
2
100
AcDbEntity
  8
AM_7
 60
     1
100
AcDbLine
 10
727.0795627225356
 20
377.4032985828057
 30
0.0
 11
727.0795627225356
 21
380.4032985828056
 31
0.0
  0
LINE
  5
46F2
330
2
100
AcDbEntity
  8
AM_7
 60
     1
100
AcDbLine
 10
723.3142627225356
 20
378.9032985828056
 30
0.0
 11
724.5795627225357
 21
378.9032985828056
 31
0.0
  0
LINE
  5
46F3
330
2
100
AcDbEntity
  8
AM_7
 60
     1
100
AcDbLine
 10
729.5795627225357
 20
378.9032985828056
 30
0.0
 11
730.8448627225356
 21
378.9032985828056
 31
0.0
  0
LINE
  5
46F4
330
2
100
AcDbEntity
  8
AM_7
 60
     1
100
AcDbLine
 10
727.0795627225356
 20
375.1379985828056
 30
0.0
 11
727.0795627225356
 21
376.4032985828056
 31
0.0
  0
LINE
  5
46F5
330
2
100
AcDbEntity
  8
AM_7
 60
     1
100
AcDbLine
 10
727.0795627225356
 20
381.4032985828056
 30
0.0
 11
727.0795627225356
 21
382.6685985828057
 31
0.0
  0
LINE
  5
46F6
330
2
100
AcDbEntity
  8
AM_7
 60
     1
100
AcDbLine
 10
709.0795627225356
 20
378.9032985828056
 30
0.0
 11
712.0795627225357
 21
378.9032985828056
 31
0.0
  0
LINE
  5
46F7
330
2
100
AcDbEntity
  8
AM_7
 60
     1
100
AcDbLine
 10
710.5795627225356
 20
377.4032985828057
 30
0.0
 11
710.5795627225356
 21
380.4032985828056
 31
0.0
  0
LINE
  5
46F8
330
2
100
AcDbEntity
  8
AM_7
 60
     1
100
AcDbLine
 10
706.8142627225356
 20
378.9032985828056
 30
0.0
 11
708.0795627225357
 21
378.9032985828056
 31
0.0
  0
LINE
  5
46F9
330
2
100
AcDbEntity
  8
AM_7
 60
     1
100
AcDbLine
 10
713.0795627225356
 20
378.9032985828056
 30
0.0
 11
714.3448627225356
 21
378.9032985828056
 31
0.0
  0
LINE
  5
46FA
330
2
100
AcDbEntity
  8
AM_7
 60
     1
100
AcDbLine
 10
710.5795627225356
 20
375.1379985828056
 30
0.0
 11
710.5795627225356
 21
376.4032985828056
 31
0.0
  0
LINE
  5
46FB
330
2
100
AcDbEntity
  8
AM_7
 60
     1
100
AcDbLine
 10
710.5795627225356
 20
381.4032985828056
 30
0.0
 11
710.5795627225356
 21
382.6685985828057
 31
0.0
  0
MTEXT
  5
5255
330
2
100
AcDbEntity
  8
DIM
100
AcDbMText
 10
425.4771973450544
 20
385.6437927217159
 30
0.0
 40
3.0
 41
0.0
 71
     9
 72
     1
  1

  7
DAYUS
 73
     1
 44
1.0
1001
ACAD
1000
MTEXTBEGIN
1070
    73
1070
     1
1070
    44
1040
1.0
1070
    74
1070
     0
1000
MTEXTEND
  0
MTEXT
  5
55B3
330
2
100
AcDbEntity
  8
DIM
100
AcDbMText
 10
337.3922889508355
 20
381.3937824807733
 30
0.0
 40
3.0
 41
0.0
 71
     9
 72
     1
  1

  7
DAYUS
 73
     1
 44
1.0
1001
ACAD
1000
MTEXTBEGIN
1070
    73
1070
     1
1070
    44
1040
1.0
1070
    74
1070
     0
1000
MTEXTEND
  0
MTEXT
  5
55B5
330
2
100
AcDbEntity
  8
DIM
100
AcDbMText
 10
464.3020910635148
 20
395.4959283372091
 30
0.0
 40
3.0
 41
0.0
 71
     1
 72
     1
  1

  7
DAYUS
 73
     1
 44
1.0
1001
ACAD
1000
MTEXTBEGIN
1070
    73
1070
     1
1070
    44
1040
1.0
1070
    74
1070
     0
1000
MTEXTEND
  0
MTEXT
  5
55B7
330
2
100
AcDbEntity
  8
DIM
100
AcDbMText
 10
497.4191386176732
 20
388.3459056991758
 30
0.0
 40
3.0
 41
0.0
 71
     9
 72
     1
  1

  7
DAYUS
 73
     1
 44
1.0
1001
ACAD
1000
MTEXTBEGIN
1070
    73
1070
     1
1070
    44
1040
1.0
1070
    74
1070
     0
1000
MTEXTEND
  0
MTEXT
  5
55B9
330
2
100
AcDbEntity
  8
DIM
100
AcDbMText
 10
551.0659257174618
 20
385.0690272050015
 30
0.0
 40
3.0
 41
0.0
 71
     1
 72
     1
  1

  7
DAYUS
 73
     1
 44
1.0
1001
ACAD
1000
MTEXTBEGIN
1070
    73
1070
     1
1070
    44
1040
1.0
1070
    74
1070
     0
1000
MTEXTEND
  0
MTEXT
  5
55BB
330
2
100
AcDbEntity
  8
DIM
100
AcDbMText
 10
536.2490338467599
 20
355.9566858156474
 30
0.0
 40
3.0
 41
0.0
 71
     1
 72
     1
  1

  7
DAYUS
 73
     1
 44
1.0
1001
ACAD
1000
MTEXTBEGIN
1070
    73
1070
     1
1070
    44
1040
1.0
1070
    74
1070
     0
1000
MTEXTEND
  0
MTEXT
  5
55BE
330
2
100
AcDbEntity
  8
DIM
100
AcDbMText
 10
630.4343546649713
 20
392.9941675949847
 30
0.0
 40
3.0
 41
0.0
 71
     1
 72
     1
  1

  7
DAYUS
 73
     1
 44
1.0
1001
ACAD
1000
MTEXTBEGIN
1070
    73
1070
     1
1070
    44
1040
1.0
1070
    74
1070
     0
1000
MTEXTEND
  0
MTEXT
  5
5818
330
2
100
AcDbEntity
  8
DIM
100
AcDbMText
 10
674.2365354058436
 20
381.9223807155993
 30
0.0
 40
3.0
 41
0.0
 71
     9
 72
     1
  1

  7
DAYUS
 73
     1
 44
1.0
1001
ACAD
1000
MTEXTBEGIN
1070
    73
1070
     1
1070
    44
1040
1.0
1070
    74
1070
     0
1000
MTEXTEND
  0
MTEXT
  5
581A
330
2
100
AcDbEntity
  8
DIM
100
AcDbMText
 10
809.5660606680956
 20
394.5445933493984
 30
0.0
 40
3.0
 41
0.0
 71
     1
 72
     1
  1

  7
DAYUS
 73
     1
 44
1.0
1001
ACAD
1000
MTEXTBEGIN
1070
    73
1070
     1
1070
    44
1040
1.0
1070
    74
1070
     0
1000
MTEXTEND
  0
MTEXT
  5
581C
330
2
100
AcDbEntity
  8
DIM
100
AcDbMText
 10
888.0882125058304
 20
352.3853584481396
 30
0.0
 40
3.0
 41
0.0
 71
     1
 72
     1
  1

  7
DAYUS
 73
     1
 44
1.0
1001
ACAD
1000
MTEXTBEGIN
1070
    73
1070
     1
1070
    44
1040
1.0
1070
    74
1070
     0
1000
MTEXTEND
  0
MTEXT
  5
581E
330
2
100
AcDbEntity
  8
DIM
100
AcDbMText
 10
841.6122928642023
 20
381.4409665153828
 30
0.0
 40
3.0
 41
0.0
 71
     9
 72
     1
  1

  7
DAYUS
 73
     1
 44
1.0
1001
ACAD
1000
MTEXTBEGIN
1070
    73
1070
     1
1070
    44
1040
1.0
1070
    74
1070
     0
1000
MTEXTEND
  0
MTEXT
  5
5820
330
2
100
AcDbEntity
  8
DIM
100
AcDbMText
 10
905.1656554192106
 20
381.7631554776815
 30
0.0
 40
3.0
 41
0.0
 71
     1
 72
     1
  1

  7
DAYUS
 73
     1
 44
1.0
1001
ACAD
1000
MTEXTBEGIN
1070
    73
1070
     1
1070
    44
1040
1.0
1070
    74
1070
     0
1000
MTEXTEND
  0
MTEXT
  5
5823
330
2
100
AcDbEntity
  8
DIM
100
AcDbMText
 10
981.8056800376997
 20
387.8743827474727
 30
0.0
 40
3.0
 41
0.0
 71
     1
 72
     1
  1

  7
DAYUS
 73
     1
 44
1.0
1001
ACAD
1000
MTEXTBEGIN
1070
    73
1070
     1
1070
    44
1040
1.0
1070
    74
1070
     0
1000
MTEXTEND
  0
MTEXT
  5
5825
330
2
100
AcDbEntity
  8
DIM
100
AcDbMText
 10
630.3069158966652
 20
392.3413846481697
 30
0.0
 40
3.0
 41
0.0
 71
     1
 72
     1
  1

  7
DAYUS
 73
     1
 44
1.0
1001
ACAD
1000
MTEXTBEGIN
1070
    73
1070
     1
1070
    44
1040
1.0
1070
    74
1070
     0
1000
MTEXTEND
  0
MTEXT
  5
5BAB
330
2
100
AcDbEntity
  8
DIM
100
AcDbMText
 10
684.8805297782558
 20
338.1595951305617
 30
0.0
 40
3.0
 41
0.0
 71
     9
 72
     1
  1

  7
DAYUS
 73
     1
 44
1.0
1001
ACAD
1000
MTEXTBEGIN
1070
    73
1070
     1
1070
    44
1040
1.0
1070
    74
1070
     0
1000
MTEXTEND
  0
MTEXT
  5
5BAD
330
2
100
AcDbEntity
  8
DIM
100
AcDbMText
 10
830.0252386234504
 20
355.9987340734346
 30
0.0
 40
3.0
 41
0.0
 71
     1
 72
     1
  1

  7
DAYUS
 73
     1
 44
1.0
1001
ACAD
1000
MTEXTBEGIN
1070
    73
1070
     1
1070
    44
1040
1.0
1070
    74
1070
     0
1000
MTEXTEND
  0
MTEXT
  5
5BAF
330
2
100
AcDbEntity
  8
DIM
100
AcDbMText
 10
866.9398601322594
 20
342.7022485991038
 30
0.0
 40
3.0
 41
0.0
 71
     9
 72
     1
  1

  7
DAYUS
 73
     1
 44
1.0
1001
ACAD
1000
MTEXTBEGIN
1070
    73
1070
     1
1070
    44
1040
1.0
1070
    74
1070
     0
1000
MTEXTEND
  0
MTEXT
  5
5BB1
330
2
100
AcDbEntity
  8
DIM
100
AcDbMText
 10
914.1167593491697
 20
312.0125777437993
 30
0.0
 40
3.0
 41
0.0
 71
     1
 72
     1
  1

  7
DAYUS
 73
     1
 44
1.0
1001
ACAD
1000
MTEXTBEGIN
1070
    73
1070
     1
1070
    44
1040
1.0
1070
    74
1070
     0
1000
MTEXTEND
  0
MTEXT
  5
5BB3
330
2
100
AcDbEntity
  8
DIM
100
AcDbMText
 10
928.3641264699406
 20
344.1897799651356
 30
0.0
 40
3.0
 41
0.0
 71
     1
 72
     1
  1

  7
DAYUS
 73
     1
 44
1.0
1001
ACAD
1000
MTEXTBEGIN
1070
    73
1070
     1
1070
    44
1040
1.0
1070
    74
1070
     0
1000
MTEXTEND
  0
MTEXT
  5
5BB5
330
2
100
AcDbEntity
  8
DIM
100
AcDbMText
 10
1013.024197505859
 20
347.9904155724335
 30
0.0
 40
3.0
 41
0.0
 71
     1
 72
     1
  1

  7
DAYUS
 73
     1
 44
1.0
1001
ACAD
1000
MTEXTBEGIN
1070
    73
1070
     1
1070
    44
1040
1.0
1070
    74
1070
     0
1000
MTEXTEND
  0
MTEXT
  5
5D19
330
2
100
AcDbEntity
  8
DIM
100
AcDbMText
 10
1132.296897199865
 20
137.4323107276391
 30
0.0
 40
3.0
 41
0.0
 71
     9
 72
     1
  1

  7
DAYUS
 73
     1
 44
1.0
1001
ACAD
1000
MTEXTBEGIN
1070
    73
1070
     1
1070
    44
1040
1.0
1070
    74
1070
     0
1000
MTEXTEND
  0
MTEXT
  5
5D1B
330
2
100
AcDbEntity
  8
DIM
100
AcDbMText
 10
1287.262763063576
 20
157.1269881484054
 30
0.0
 40
3.0
 41
0.0
 71
     1
 72
     1
  1

  7
DAYUS
 73
     1
 44
1.0
1001
ACAD
1000
MTEXTBEGIN
1070
    73
1070
     1
1070
    44
1040
1.0
1070
    74
1070
     0
1000
MTEXTEND
  0
MTEXT
  5
5D1D
330
2
100
AcDbEntity
  8
DIM
100
AcDbMText
 10
1330.112480616849
 20
142.7720950737402
 30
0.0
 40
3.0
 41
0.0
 71
     9
 72
     1
  1

  7
DAYUS
 73
     1
 44
1.0
1001
ACAD
1000
MTEXTBEGIN
1070
    73
1070
     1
1070
    44
1040
1.0
1070
    74
1070
     0
1000
MTEXTEND
  0
MTEXT
  5
5D1F
330
2
100
AcDbEntity
  8
DIM
100
AcDbMText
 10
1386.41599530958
 20
103.2245127401093
 30
0.0
 40
3.0
 41
0.0
 71
     1
 72
     1
  1

  7
DAYUS
 73
     1
 44
1.0
1001
ACAD
1000
MTEXTBEGIN
1070
    73
1070
     1
1070
    44
1040
1.0
1070
    74
1070
     0
1000
MTEXTEND
  0
MTEXT
  5
5D21
330
2
100
AcDbEntity
  8
DIM
100
AcDbMText
 10
1399.467586840553
 20
144.5024959794691
 30
0.0
 40
3.0
 41
0.0
 71
     1
 72
     1
  1

  7
DAYUS
 73
     1
 44
1.0
1001
ACAD
1000
MTEXTBEGIN
1070
    73
1070
     1
1070
    44
1040
1.0
1070
    74
1070
     0
1000
MTEXTEND
  0
MTEXT
  5
5D24
330
2
100
AcDbEntity
  8
DIM
100
AcDbMText
 10
1488.579011607569
 20
148.6537444685686
 30
0.0
 40
3.0
 41
0.0
 71
     1
 72
     1
  1

  7
DAYUS
 73
     1
 44
1.0
1001
ACAD
1000
MTEXTBEGIN
1070
    73
1070
     1
1070
    44
1040
1.0
1070
    74
1070
     0
1000
MTEXTEND
  0
MTEXT
  5
5E8E
330
2
100
AcDbEntity
  8
DIM
100
AcDbMText
 10
658.928637628099
 20
-79.58414497709418
 30
0.0
 40
3.0
 41
0.0
 71
     9
 72
     1
  1

  7
DAYUS
 73
     1
 44
1.0
1001
ACAD
1000
MTEXTBEGIN
1070
    73
1070
     1
1070
    44
1040
1.0
1070
    74
1070
     0
1000
MTEXTEND
  0
MTEXT
  5
5E90
330
2
100
AcDbEntity
  8
DIM
100
AcDbMText
 10
842.7524841695728
 20
-54.74642897263265
 30
0.0
 40
3.0
 41
0.0
 71
     1
 72
     1
  1

  7
DAYUS
 73
     1
 44
1.0
1001
ACAD
1000
MTEXTBEGIN
1070
    73
1070
     1
1070
    44
1040
1.0
1070
    74
1070
     0
1000
MTEXTEND
  0
MTEXT
  5
5E92
330
2
100
AcDbEntity
  8
DIM
100
AcDbMText
 10
894.8077202077158
 20
-74.48212912349254
 30
0.0
 40
3.0
 41
0.0
 71
     9
 72
     1
  1

  7
DAYUS
 73
     1
 44
1.0
1001
ACAD
1000
MTEXTBEGIN
1070
    73
1070
     1
1070
    44
1040
1.0
1070
    74
1070
     0
1000
MTEXTEND
  0
MTEXT
  5
5E94
330
2
100
AcDbEntity
  8
DIM
100
AcDbMText
 10
962.0232820996996
 20
-118.8582107879997
 30
0.0
 40
3.0
 41
0.0
 71
     1
 72
     1
  1

  7
DAYUS
 73
     1
 44
1.0
1001
ACAD
1000
MTEXTBEGIN
1070
    73
1070
     1
1070
    44
1040
1.0
1070
    74
1070
     0
1000
MTEXTEND
  0
MTEXT
  5
5E96
330
2
100
AcDbEntity
  8
DIM
100
AcDbMText
 10
973.0410095899967
 20
-68.50784959554267
 30
0.0
 40
3.0
 41
0.0
 71
     1
 72
     1
  1

  7
DAYUS
 73
     1
 44
1.0
1001
ACAD
1000
MTEXTBEGIN
1070
    73
1070
     1
1070
    44
1040
1.0
1070
    74
1070
     0
1000
MTEXTEND
  0
MTEXT
  5
5E99
330
2
100
AcDbEntity
  8
DIM
100
AcDbMText
 10
1085.7340529482
 20
-65.46466959922986
 30
0.0
 40
3.0
 41
0.0
 71
     1
 72
     1
  1

  7
DAYUS
 73
     1
 44
1.0
1001
ACAD
1000
MTEXTBEGIN
1070
    73
1070
     1
1070
    44
1040
1.0
1070
    74
1070
     0
1000
MTEXTEND
  0
MTEXT
  5
5FD8
330
2
100
AcDbEntity
  8
DIM
100
AcDbMText
 10
633.7072948690917
 20
-502.7427877496786
 30
0.0
 40
3.0
 41
0.0
 71
     9
 72
     1
  1

  7
DAYUS
 73
     1
 44
1.0
1001
ACAD
1000
MTEXTBEGIN
1070
    73
1070
     1
1070
    44
1040
1.0
1070
    74
1070
     0
1000
MTEXTEND
  0
MTEXT
  5
5FDA
330
2
100
AcDbEntity
  8
DIM
100
AcDbMText
 10
827.0953012499091
 20
-475.7102669926271
 30
0.0
 40
3.0
 41
0.0
 71
     1
 72
     1
  1

  7
DAYUS
 73
     1
 44
1.0
1001
ACAD
1000
MTEXTBEGIN
1070
    73
1070
     1
1070
    44
1040
1.0
1070
    74
1070
     0
1000
MTEXTEND
  0
MTEXT
  5
5FDC
330
2
100
AcDbEntity
  8
DIM
100
AcDbMText
 10
882.8280559962202
 20
-495.8443240051528
 30
0.0
 40
3.0
 41
0.0
 71
     9
 72
     1
  1

  7
DAYUS
 73
     1
 44
1.0
1001
ACAD
1000
MTEXTBEGIN
1070
    73
1070
     1
1070
    44
1040
1.0
1070
    74
1070
     0
1000
MTEXTEND
  0
MTEXT
  5
5FDE
330
2
100
AcDbEntity
  8
DIM
100
AcDbMText
 10
948.0591214104412
 20
-547.2299946926262
 30
0.0
 40
3.0
 41
0.0
 71
     1
 72
     1
  1

  7
DAYUS
 73
     1
 44
1.0
1001
ACAD
1000
MTEXTBEGIN
1070
    73
1070
     1
1070
    44
1040
1.0
1070
    74
1070
     0
1000
MTEXTEND
  0
MTEXT
  5
5FE0
330
2
100
AcDbEntity
  8
DIM
100
AcDbMText
 10
957.8725249226929
 20
-495.3335721753492
 30
0.0
 40
3.0
 41
0.0
 71
     1
 72
     1
  1

  7
DAYUS
 73
     1
 44
1.0
1001
ACAD
1000
MTEXTBEGIN
1070
    73
1070
     1
1070
    44
1040
1.0
1070
    74
1070
     0
1000
MTEXTEND
  0
LINE
  5
D19B
330
2
100
AcDbEntity
  8
AM_7
100
AcDbLine
 10
1212.284938732477
 20
807.3177767008271
 30
0.0
 11
1212.284938732477
 21
806.0940641534948
 31
0.0
  0
LINE
  5
D1A4
330
2
100
AcDbEntity
  8
AM_7
100
AcDbLine
 10
1211.659938732477
 20
804.1548293538136
 30
0.0
 11
1211.659938732477
 21
805.1712674831675
 31
0.0
  0
LINE
  5
D1A5
330
2
100
AcDbEntity
  8
AM_7
100
AcDbLine
 10
1212.909938732477
 20
804.1548293538136
 30
0.0
 11
1212.909938732477
 21
805.1712674831675
 31
0.0
  0
LINE
  5
D1B8
330
2
100
AcDbEntity
  8
AM_7
100
AcDbLine
 10
1213.767228941687
 20
805.7648293538138
 30
0.0
 11
1210.802648523268
 21
805.7648293538138
 31
0.0
  0
LINE
  5
D1B9
330
2
100
AcDbEntity
  8
AM_7
100
AcDbLine
 10
1213.324938732477
 20
804.6698293538137
 30
0.0
 11
1213.434938732477
 21
804.6698293538137
 31
0.0
  0
LINE
  5
D1BA
330
2
100
AcDbEntity
  8
AM_7
100
AcDbLine
 10
1213.379938732477
 20
804.6148293538136
 30
0.0
 11
1213.379938732477
 21
804.7248293538135
 31
0.0
  0
LINE
  5
D1BB
330
2
100
AcDbEntity
  8
AM_7
100
AcDbLine
 10
1212.863688732477
 20
804.6698293538137
 30
0.0
 11
1213.168938732477
 21
804.6698293538137
 31
0.0
  0
LINE
  5
D1BC
330
2
100
AcDbEntity
  8
AM_7
100
AcDbLine
 10
1213.590938732477
 20
804.6698293538137
 30
0.0
 11
1213.896188732477
 21
804.6698293538137
 31
0.0
  0
LINE
  5
D1BD
330
2
100
AcDbEntity
  8
AM_7
100
AcDbLine
 10
1213.379938732477
 20
804.1535793538136
 30
0.0
 11
1213.379938732477
 21
804.4588293538136
 31
0.0
  0
LINE
  5
D1BE
330
2
100
AcDbEntity
  8
AM_7
100
AcDbLine
 10
1213.379938732477
 20
804.8808293538137
 30
0.0
 11
1213.379938732477
 21
805.1860793538136
 31
0.0
  0
LINE
  5
D1BF
330
2
100
AcDbEntity
  8
AM_7
100
AcDbLine
 10
1211.134938732477
 20
804.6698293538137
 30
0.0
 11
1211.244938732477
 21
804.6698293538137
 31
0.0
  0
LINE
  5
D1C0
330
2
100
AcDbEntity
  8
AM_7
100
AcDbLine
 10
1211.189938732477
 20
804.6148293538136
 30
0.0
 11
1211.189938732477
 21
804.7248293538135
 31
0.0
  0
LINE
  5
D1C1
330
2
100
AcDbEntity
  8
AM_7
100
AcDbLine
 10
1210.673688732477
 20
804.6698293538137
 30
0.0
 11
1210.978938732477
 21
804.6698293538137
 31
0.0
  0
LINE
  5
D1C2
330
2
100
AcDbEntity
  8
AM_7
100
AcDbLine
 10
1211.400938732477
 20
804.6698293538137
 30
0.0
 11
1211.706188732477
 21
804.6698293538137
 31
0.0
  0
LINE
  5
D1C3
330
2
100
AcDbEntity
  8
AM_7
100
AcDbLine
 10
1211.189938732477
 20
804.1535793538136
 30
0.0
 11
1211.189938732477
 21
804.4588293538136
 31
0.0
  0
LINE
  5
D1C4
330
2
100
AcDbEntity
  8
AM_7
100
AcDbLine
 10
1211.189938732477
 20
804.8808293538137
 30
0.0
 11
1211.189938732477
 21
805.1860793538136
 31
0.0
  0
LINE
  5
D1C5
330
2
100
AcDbEntity
  8
AM_7
100
AcDbLine
 10
1211.134938732477
 20
806.8598293538135
 30
0.0
 11
1211.244938732477
 21
806.8598293538135
 31
0.0
  0
SPLINE
  5
D1CC
330
2
100
AcDbEntity
  8
AM_HID
  6
DASHED
100
AcDbSpline
210
0.0
220
0.0
230
1.0
 70
    12
 71
     2
 72
     6
 73
     3
 74
     0
 42
0.0000000001
 43
0.0000000001
 40
0.0984194701837208
 40
0.0984194701837208
 40
0.0984194701837208
 40
0.1570806274573676
 40
0.1570806274573676
 40
0.1570806274573676
 10
1221.796053435445
 20
804.7928124924965
 30
0.0
 41
1.12520894242266
 10
1221.792207027574
 20
804.8051458231549
 30
0.0
 41
1.139143813482849
 10
1221.796053435445
 20
804.8174791538132
 30
0.0
 41
1.12520894242266
  0
SPLINE
  5
D1CD
330
2
100
AcDbEntity
  8
AM_HID
100
AcDbSpline
210
0.0
220
0.0
230
1.0
 70
    12
 71
     2
 72
     6
 73
     3
 74
     0
 42
0.0000000001
 43
0.0000000001
 40
0.0984194701837469
 40
0.0984194701837469
 40
0.0984194701837469
 40
0.1570806274573283
 40
0.1570806274573283
 40
0.1570806274573283
 10
1221.796053435445
 20
804.6451626924968
 30
0.0
 41
1.125208942422689
 10
1221.792207027574
 20
804.6698293538137
 30
0.0
 41
1.13914381348285
 10
1221.796053435445
 20
804.69449601513
 30
0.0
 41
1.125208942422689
  0
SPLINE
  5
D1CE
330
2
100
AcDbEntity
  8
AM_HID
  6
DASHED
100
AcDbSpline
210
0.0
220
0.0
230
1.0
 70
    12
 71
     2
 72
     6
 73
     3
 74
     0
 42
0.0000000001
 43
0.0000000001
 40
0.0984194701837621
 40
0.0984194701837621
 40
0.0984194701837621
 40
0.1570806274573053
 40
0.1570806274573053
 40
0.1570806274573053
 10
1221.796053435445
 20
804.5221795538138
 30
0.0
 41
1.125208942422646
 10
1221.792207027574
 20
804.5345128844722
 30
0.0
 41
1.139143813482784
 10
1221.796053435445
 20
804.5468462151305
 30
0.0
 41
1.125208942422646
  0
LINE
  5
D1CF
330
2
100
AcDbEntity
  8
AM_HID
  6
DASHED
100
AcDbLine
 10
1221.796053435445
 20
804.8502513129355
 30
0.0
 11
1221.796053435445
 21
804.8174791538132
 31
0.0
  0
LINE
  5
D1D0
330
2
100
AcDbEntity
  8
AM_HID
  6
DASHED
100
AcDbLine
 10
1221.796053435445
 20
804.7928124924967
 30
0.0
 11
1221.796053435445
 21
804.7600403333746
 31
0.0
  0
LINE
  5
D1D1
330
2
100
AcDbEntity
  8
AM_HID
  6
DASHED
100
AcDbLine
 10
1221.796053435445
 20
804.7600403333746
 30
0.0
 11
1221.796053435445
 21
804.6944960151304
 31
0.0
  0
LINE
  5
D1D2
330
2
100
AcDbEntity
  8
AM_HID
  6
DASHED
100
AcDbLine
 10
1221.796053435445
 20
804.5221795538139
 30
0.0
 11
1221.796053435445
 21
804.4894073946919
 31
0.0
  0
SPLINE
  5
D1D3
330
2
100
AcDbEntity
  8
AM_HID
  6
DASHED
100
AcDbSpline
210
0.0
220
0.0
230
1.0
 70
    12
 71
     2
 72
     6
 73
     3
 74
     0
 42
0.0000000001
 43
0.0000000001
 40
0.0997923579717063
 40
0.0997923579717063
 40
0.0997923579717063
 40
0.192337110663197
 40
0.192337110663197
 40
0.192337110663197
 10
1221.939729543905
 20
804.8051458231549
 30
0.0
 41
1.0
 10
1221.939729543905
 20
804.7842122924961
 30
0.0
 41
1.041044311066922
 10
1221.953685231011
 20
804.7600403333744
 30
0.0
 41
1.00596183859481
  0
SPLINE
  5
D1D4
330
2
100
AcDbEntity
  8
AM_HID
  6
DASHED
100
AcDbSpline
210
0.0
220
0.0
230
1.0
 70
    12
 71
     2
 72
     6
 73
     3
 74
     0
 42
0.0000000001
 43
0.0000000001
 40
0.0072476052802227
 40
0.0072476052802227
 40
0.0072476052802227
 40
0.0997923579717063
 40
0.0997923579717063
 40
0.0997923579717063
 10
1221.953685231011
 20
804.8502513129353
 30
0.0
 41
1.005961838594815
 10
1221.939729543905
 20
804.8260793538137
 30
0.0
 41
1.041044311066915
 10
1221.939729543905
 20
804.8051458231549
 30
0.0
 41
1.0
  0
SPLINE
  5
D1D5
330
2
100
AcDbEntity
  8
AM_HID
  6
DASHED
100
AcDbSpline
210
0.0
220
0.0
230
1.0
 70
    12
 71
     2
 72
     6
 73
     3
 74
     0
 42
0.0000000001
 43
0.0000000001
 40
0.0997923579716951
 40
0.0997923579716951
 40
0.0997923579716951
 40
0.1923371106631775
 40
0.1923371106631775
 40
0.1923371106631775
 10
1221.939729543905
 20
804.5345128844722
 30
0.0
 41
1.0
 10
1221.939729543905
 20
804.5135793538136
 30
0.0
 41
1.041044311066046
 10
1221.953685231011
 20
804.4894073946919
 30
0.0
 41
1.005961838594681
  0
SPLINE
  5
D1D6
330
2
100
AcDbEntity
  8
AM_HID
  6
DASHED
100
AcDbSpline
210
0.0
220
0.0
230
1.0
 70
    12
 71
     2
 72
     6
 73
     3
 74
     0
 42
0.0000000001
 43
0.0000000001
 40
0.0072476052802133
 40
0.0072476052802133
 40
0.0072476052802133
 40
0.0997923579716951
 40
0.0997923579716951
 40
0.0997923579716951
 10
1221.953685231011
 20
804.5796183742526
 30
0.0
 41
1.005961838594681
 10
1221.939729543905
 20
804.555446415131
 30
0.0
 41
1.041044311066043
 10
1221.939729543905
 20
804.5345128844722
 30
0.0
 41
1.0
  0
SPLINE
  5
D1D7
330
2
100
AcDbEntity
  8
AM_HID
  6
DASHED
100
AcDbSpline
210
0.0
220
0.0
230
1.0
 70
    12
 71
     2
 72
     6
 73
     3
 74
     0
 42
0.0000000001
 43
0.0000000001
 40
0.0997923579716989
 40
0.0997923579716989
 40
0.0997923579716989
 40
0.1923371106631872
 40
0.1923371106631872
 40
0.1923371106631872
 10
1221.939729543905
 20
804.6698293538137
 30
0.0
 41
1.0
 10
1221.939729543905
 20
804.6279622924963
 30
0.0
 41
1.041044311066555
 10
1221.953685231011
 20
804.5796183742526
 30
0.0
 41
1.005961838594753
  0
SPLINE
  5
D1D8
330
2
100
AcDbEntity
  8
AM_HID
  6
DASHED
100
AcDbSpline
210
0.0
220
0.0
230
1.0
 70
    12
 71
     2
 72
     6
 73
     3
 74
     0
 42
0.0000000001
 43
0.0000000001
 40
0.0072476052802175
 40
0.0072476052802175
 40
0.0072476052802175
 40
0.0997923579716989
 40
0.0997923579716989
 40
0.0997923579716989
 10
1221.953685231011
 20
804.7600403333744
 30
0.0
 41
1.005961838594759
 10
1221.939729543905
 20
804.711696415131
 30
0.0
 41
1.041044311066553
 10
1221.939729543905
 20
804.6698293538137
 30
0.0
 41
1.0
  0
LINE
  5
D1D9
330
2
100
AcDbEntity
  8
AM_HID
  6
DASHED
100
AcDbLine
 10
1221.953685231011
 20
804.4894073946919
 30
0.0
 11
1221.796053435445
 21
804.4894073946919
 31
0.0
  0
LINE
  5
D1DA
330
2
100
AcDbEntity
  8
AM_HID
  6
DASHED
100
AcDbLine
 10
1221.953685231011
 20
804.8502513129355
 30
0.0
 11
1221.796053435445
 21
804.8502513129355
 31
0.0
  0
LINE
  5
D1DB
330
2
100
AcDbEntity
  8
AM_HID
  6
DASHED
100
AcDbLine
 10
1221.953685231011
 20
804.7600403333746
 30
0.0
 11
1221.796053435445
 21
804.7600403333746
 31
0.0
  0
LINE
  5
D1DC
330
2
100
AcDbEntity
  8
AM_HID
  6
DASHED
100
AcDbLine
 10
1221.953685231011
 20
804.5796183742528
 30
0.0
 11
1221.796053435445
 21
804.5796183742528
 31
0.0
  0
LINE
  5
D1DD
330
2
100
AcDbEntity
  8
AM_HID
  6
DASHED
100
AcDbLine
 10
1221.796053435445
 20
804.6451626924969
 30
0.0
 11
1221.796053435445
 21
804.5796183742528
 31
0.0
  0
LINE
  5
D1DE
330
2
100
AcDbEntity
  8
AM_HID
  6
DASHED
100
AcDbLine
 10
1221.796053435445
 20
804.5796183742528
 30
0.0
 11
1221.796053435445
 21
804.5468462151305
 31
0.0
  0
LINE
  5
D1DF
330
2
100
AcDbEntity
  8
AM_HID
  6
DASHED
100
AcDbLine
 10
1221.776368396074
 20
804.8083293538137
 30
0.0
 11
1221.796053435445
 21
804.8280143931837
 31
0.0
  0
LINE
  5
D1E0
330
2
100
AcDbEntity
  8
AM_HID
  6
DASHED
100
AcDbLine
 10
1221.776368396074
 20
804.5313293538137
 30
0.0
 11
1221.796053435445
 21
804.5116443144435
 31
0.0
  0
LINE
  5
D1E1
330
2
100
AcDbEntity
  8
AM_HID
  6
DASHED
100
AcDbLine
 10
1221.776368396074
 20
804.5313293538137
 30
0.0
 11
1221.227706978752
 21
804.5313293538137
 31
0.0
  0
LINE
  5
D1E2
330
2
100
AcDbEntity
  8
AM_HID
  6
DASHED
100
AcDbLine
 10
1221.776368396074
 20
804.8083293538137
 30
0.0
 11
1221.227706978752
 21
804.8083293538137
 31
0.0
  0
LINE
  5
D1E3
330
2
100
AcDbEntity
  8
AM_HID
  6
DASHED
100
AcDbLine
 10
1221.227706978752
 20
804.5313293538137
 30
0.0
 11
1221.208021939382
 21
804.5116443144435
 31
0.0
  0
LINE
  5
D1E4
330
2
100
AcDbEntity
  8
AM_HID
  6
DASHED
100
AcDbLine
 10
1221.227706978752
 20
804.8083293538137
 30
0.0
 11
1221.208021939382
 21
804.8280143931837
 31
0.0
  0
LINE
  5
D1E5
330
2
100
AcDbEntity
  8
AM_HID
  6
DASHED
100
AcDbLine
 10
1221.936368435445
 20
804.4139238420026
 30
0.0
 11
1221.227706939382
 21
804.4139238420026
 31
0.0
  0
LINE
  5
D1E6
330
2
100
AcDbEntity
  8
AM_HID
  6
DASHED
100
AcDbLine
 10
1221.936368435445
 20
804.9257348656245
 30
0.0
 11
1221.227706939382
 21
804.9257348656245
 31
0.0
  0
LINE
  5
D1E7
330
2
100
AcDbEntity
  8
AM_HID
  6
DASHED
100
AcDbLine
 10
1221.953685231011
 20
804.8502513129355
 30
0.0
 11
1221.956053435445
 21
804.8543531633374
 31
0.0
  0
LINE
  5
D1E8
330
2
100
AcDbEntity
  8
AM_HID
  6
DASHED
100
AcDbLine
 10
1221.953685231011
 20
804.4894073946919
 30
0.0
 11
1221.956053435445
 21
804.4853055442898
 31
0.0
  0
LINE
  5
D1E9
330
2
100
AcDbEntity
  8
AM_HID
  6
DASHED
100
AcDbLine
 10
1221.776368396074
 20
804.8083293538137
 30
0.0
 11
1221.776368396074
 21
804.5313293538137
 31
0.0
  0
LINE
  5
D1EA
330
2
100
AcDbEntity
  8
AM_HID
  6
DASHED
100
AcDbLine
 10
1221.227706978752
 20
804.5313293538137
 30
0.0
 11
1221.227706978752
 21
804.8083293538137
 31
0.0
  0
LINE
  5
D1EB
330
2
100
AcDbEntity
  8
AM_HID
  6
DASHED
100
AcDbLine
 10
1221.956053435445
 20
804.9060498656245
 30
0.0
 11
1221.956053435445
 21
804.6698293538137
 31
0.0
  0
LINE
  5
D1EC
330
2
100
AcDbEntity
  8
AM_HID
  6
DASHED
100
AcDbLine
 10
1221.956053435445
 20
804.6698293538137
 30
0.0
 11
1221.956053435445
 21
804.4336088420026
 31
0.0
  0
ARC
  5
D1ED
330
2
100
AcDbEntity
  8
AM_HID
  6
DASHED
100
AcDbCircle
 10
1221.227706939382
 20
804.4336088420026
 30
0.0
 40
0.019685
100
AcDbArc
 50
180.0
 51
270.0
  0
ARC
  5
D1EE
330
2
100
AcDbEntity
  8
AM_HID
  6
DASHED
100
AcDbCircle
 10
1221.227706939382
 20
804.9060498656245
 30
0.0
 40
0.019685
100
AcDbArc
 50
90.0
 51
180.0
  0
ARC
  5
D1EF
330
2
100
AcDbEntity
  8
AM_HID
  6
DASHED
100
AcDbCircle
 10
1221.936368435445
 20
804.4336088420026
 30
0.0
 40
0.019685
100
AcDbArc
 50
270.0
 51
0.0
  0
ARC
  5
D1F0
330
2
100
AcDbEntity
  8
AM_HID
  6
DASHED
100
AcDbCircle
 10
1221.936368435445
 20
804.9060498656245
 30
0.0
 40
0.019685
100
AcDbArc
 50
0.0
 51
90.0
  0
LINE
  5
D1F6
330
2
100
AcDbEntity
  8
AM_HID
  6
DASHED
100
AcDbLine
 10
1219.071565246468
 20
804.4139238420026
 30
0.0
 11
1219.032195167728
 21
804.4139238420026
 31
0.0
  0
LINE
  5
D1F7
330
2
100
AcDbEntity
  8
AM_HID
  6
DASHED
100
AcDbLine
 10
1219.071565246468
 20
804.9257348656245
 30
0.0
 11
1219.032195167728
 21
804.9257348656245
 31
0.0
  0
LINE
  5
D1F8
330
2
100
AcDbEntity
  8
AM_HID
  6
DASHED
100
AcDbLine
 10
1219.071565246468
 20
804.5123490388531
 30
0.0
 11
1219.032195167728
 21
804.5123490388531
 31
0.0
  0
LINE
  5
D1F9
330
2
100
AcDbEntity
  8
AM_HID
  6
DASHED
100
AcDbLine
 10
1219.071565246468
 20
804.8273096687744
 30
0.0
 11
1219.032195167728
 21
804.8273096687744
 31
0.0
  0
LINE
  5
D1FA
330
2
100
AcDbEntity
  8
AM_HID
  6
DASHED
100
AcDbLine
 10
1219.032195167728
 20
804.4139238420026
 30
0.0
 11
1219.032195167728
 21
804.9257348656245
 31
0.0
  0
LINE
  5
D201
330
2
100
AcDbEntity
  8
AM_HID
  6
DASHED
100
AcDbLine
 10
1221.168651860642
 20
804.9257348656245
 30
0.0
 11
1221.208021939382
 21
804.9257348656245
 31
0.0
  0
LINE
  5
D202
330
2
100
AcDbEntity
  8
AM_HID
  6
DASHED
100
AcDbLine
 10
1221.168651860642
 20
804.4139238420026
 30
0.0
 11
1221.208021939382
 21
804.4139238420026
 31
0.0
  0
LINE
  5
D203
330
2
100
AcDbEntity
  8
AM_HID
  6
DASHED
100
AcDbLine
 10
1221.168651860642
 20
804.8273096687744
 30
0.0
 11
1221.208021939382
 21
804.8273096687744
 31
0.0
  0
LINE
  5
D204
330
2
100
AcDbEntity
  8
AM_HID
  6
DASHED
100
AcDbLine
 10
1221.168651860642
 20
804.5123490388531
 30
0.0
 11
1221.208021939382
 21
804.5123490388531
 31
0.0
  0
LINE
  5
D205
330
2
100
AcDbEntity
  8
AM_HID
  6
DASHED
100
AcDbLine
 10
1221.208021939382
 20
804.9257348656245
 30
0.0
 11
1221.208021939382
 21
804.6698293538137
 31
0.0
  0
LINE
  5
D206
330
2
100
AcDbEntity
  8
AM_HID
  6
DASHED
100
AcDbLine
 10
1221.208021939382
 20
804.6698293538137
 30
0.0
 11
1221.208021939382
 21
804.4139238420026
 31
0.0
  0
LINE
  5
D217
330
2
100
AcDbEntity
  8
AM_VIS
100
AcDbLine
 10
1219.545108553555
 20
806.7171128183804
 30
0.0
 11
1220.935108553555
 21
806.7171128183804
 31
0.0
  0
LINE
  5
D227
330
2
100
AcDbEntity
  8
AM_HID
  6
DASHED
100
AcDbLine
 10
1219.127313277964
 20
804.5253903774357
 30
0.0
 11
1219.115502254342
 21
804.5135793538136
 31
0.0
  0
LINE
  5
D228
330
2
100
AcDbEntity
  8
AM_HID
  6
DASHED
100
AcDbLine
 10
1219.127313277964
 20
804.8142683301914
 30
0.0
 11
1219.115502254342
 21
804.8260793538137
 31
0.0
  0
LINE
  5
D229
330
2
100
AcDbEntity
  8
AM_HID
  6
DASHED
100
AcDbLine
 10
1218.772982569303
 20
804.8260793538137
 30
0.0
 11
1219.115502254342
 21
804.8260793538137
 31
0.0
  0
LINE
  5
D22A
330
2
100
AcDbEntity
  8
AM_HID
  6
DASHED
100
AcDbLine
 10
1218.772982569303
 20
804.5135793538136
 30
0.0
 11
1219.115502254342
 21
804.5135793538136
 31
0.0
  0
LINE
  5
D22B
330
2
100
AcDbEntity
  8
AM_HID
  6
DASHED
100
AcDbLine
 10
1221.208021939382
 20
804.8142683301914
 30
0.0
 11
1221.219832963004
 21
804.8260793538137
 31
0.0
  0
LINE
  5
D22C
330
2
100
AcDbEntity
  8
AM_HID
  6
DASHED
100
AcDbLine
 10
1221.208021939382
 20
804.5253903774357
 30
0.0
 11
1221.219832963004
 21
804.5135793538136
 31
0.0
  0
LINE
  5
D22D
330
2
100
AcDbEntity
  8
AM_HID
  6
DASHED
100
AcDbLine
 10
1221.444242411823
 20
804.5135793538136
 30
0.0
 11
1221.219832963004
 21
804.5135793538136
 31
0.0
  0
LINE
  5
D22E
330
2
100
AcDbEntity
  8
AM_HID
  6
DASHED
100
AcDbLine
 10
1221.444242411823
 20
804.8260793538137
 30
0.0
 11
1221.219832963004
 21
804.8260793538137
 31
0.0
  0
LINE
  5
D22F
330
2
100
AcDbEntity
  8
AM_HID
  6
DASHED
100
AcDbLine
 10
1218.733612490563
 20
804.7867092750735
 30
0.0
 11
1218.772982569303
 21
804.8260793538137
 31
0.0
  0
LINE
  5
D230
330
2
100
AcDbEntity
  8
AM_HID
  6
DASHED
100
AcDbLine
 10
1218.733612490563
 20
804.5529494325538
 30
0.0
 11
1218.772982569303
 21
804.5135793538136
 31
0.0
  0
LINE
  5
D231
330
2
100
AcDbEntity
  8
AM_HID
  6
DASHED
100
AcDbLine
 10
1221.483612490563
 20
804.5529494325538
 30
0.0
 11
1221.444242411823
 21
804.5135793538136
 31
0.0
  0
LINE
  5
D232
330
2
100
AcDbEntity
  8
AM_HID
  6
DASHED
100
AcDbLine
 10
1221.483612490563
 20
804.7867092750735
 30
0.0
 11
1221.444242411823
 21
804.8260793538137
 31
0.0
  0
LINE
  5
D233
330
2
100
AcDbEntity
  8
AM_HID
  6
DASHED
100
AcDbLine
 10
1219.127313277964
 20
804.8125458892467
 30
0.0
 11
1219.545108553555
 21
804.8125458892467
 31
0.0
  0
LINE
  5
D234
330
2
100
AcDbEntity
  8
AM_VIS
100
AcDbLine
 10
1219.545108553555
 20
804.8125458892467
 30
0.0
 11
1220.935108553555
 21
804.8125458892467
 31
0.0
  0
LINE
  5
D235
330
2
100
AcDbEntity
  8
AM_HID
  6
DASHED
100
AcDbLine
 10
1220.935108553555
 20
804.8125458892467
 30
0.0
 11
1221.208021939382
 21
804.8125458892467
 31
0.0
  0
LINE
  5
D236
330
2
100
AcDbEntity
  8
AM_HID
  6
DASHED
100
AcDbLine
 10
1219.127313277964
 20
804.5271128183804
 30
0.0
 11
1219.545108553555
 21
804.5271128183804
 31
0.0
  0
LINE
  5
D237
330
2
100
AcDbEntity
  8
AM_VIS
100
AcDbLine
 10
1219.545108553555
 20
804.5271128183804
 30
0.0
 11
1220.935108553555
 21
804.5271128183804
 31
0.0
  0
LINE
  5
D238
330
2
100
AcDbEntity
  8
AM_HID
  6
DASHED
100
AcDbLine
 10
1220.935108553555
 20
804.5271128183804
 30
0.0
 11
1221.208021939382
 21
804.5271128183804
 31
0.0
  0
LINE
  5
D239
330
2
100
AcDbEntity
  8
AM_HID
  6
DASHED
100
AcDbLine
 10
1219.127313277964
 20
804.8142683301914
 30
0.0
 11
1219.127313277964
 21
804.6698293538137
 31
0.0
  0
LINE
  5
D23A
330
2
100
AcDbEntity
  8
AM_HID
  6
DASHED
100
AcDbLine
 10
1219.127313277964
 20
804.6698293538137
 30
0.0
 11
1219.127313277964
 21
804.5253903774357
 31
0.0
  0
LINE
  5
D23B
330
2
100
AcDbEntity
  8
AM_HID
  6
DASHED
100
AcDbLine
 10
1219.115502254342
 20
804.5135793538136
 30
0.0
 11
1219.115502254342
 21
804.6698293538137
 31
0.0
  0
LINE
  5
D23C
330
2
100
AcDbEntity
  8
AM_HID
  6
DASHED
100
AcDbLine
 10
1219.115502254342
 20
804.6698293538137
 30
0.0
 11
1219.115502254342
 21
804.8260793538137
 31
0.0
  0
LINE
  5
D23D
330
2
100
AcDbEntity
  8
AM_HID
  6
DASHED
100
AcDbLine
 10
1218.772982569303
 20
804.8260793538137
 30
0.0
 11
1218.772982569303
 21
804.6698293538137
 31
0.0
  0
LINE
  5
D23E
330
2
100
AcDbEntity
  8
AM_HID
  6
DASHED
100
AcDbLine
 10
1218.772982569303
 20
804.6698293538137
 30
0.0
 11
1218.772982569303
 21
804.5135793538136
 31
0.0
  0
LINE
  5
D23F
330
2
100
AcDbEntity
  8
AM_HID
  6
DASHED
100
AcDbLine
 10
1221.219832963004
 20
804.8260793538137
 30
0.0
 11
1221.219832963004
 21
804.6698293538137
 31
0.0
  0
LINE
  5
D240
330
2
100
AcDbEntity
  8
AM_HID
  6
DASHED
100
AcDbLine
 10
1221.219832963004
 20
804.6698293538137
 30
0.0
 11
1221.219832963004
 21
804.5135793538136
 31
0.0
  0
LINE
  5
D241
330
2
100
AcDbEntity
  8
AM_HID
  6
DASHED
100
AcDbLine
 10
1221.444242411823
 20
804.5135793538136
 30
0.0
 11
1221.444242411823
 21
804.6698293538137
 31
0.0
  0
LINE
  5
D242
330
2
100
AcDbEntity
  8
AM_HID
  6
DASHED
100
AcDbLine
 10
1221.444242411823
 20
804.6698293538137
 30
0.0
 11
1221.444242411823
 21
804.8260793538137
 31
0.0
  0
LINE
  5
D243
330
2
100
AcDbEntity
  8
AM_HID
  6
DASHED
100
AcDbLine
 10
1218.733612490563
 20
804.5529494325538
 30
0.0
 11
1218.733612490563
 21
804.6698293538137
 31
0.0
  0
LINE
  5
D244
330
2
100
AcDbEntity
  8
AM_HID
  6
DASHED
100
AcDbLine
 10
1218.733612490563
 20
804.6698293538137
 30
0.0
 11
1218.733612490563
 21
804.7867092750735
 31
0.0
  0
LINE
  5
D245
330
2
100
AcDbEntity
  8
AM_HID
  6
DASHED
100
AcDbLine
 10
1221.483612490563
 20
804.7867092750735
 30
0.0
 11
1221.483612490563
 21
804.6698293538137
 31
0.0
  0
LINE
  5
D246
330
2
100
AcDbEntity
  8
AM_HID
  6
DASHED
100
AcDbLine
 10
1221.483612490563
 20
804.6698293538137
 30
0.0
 11
1221.483612490563
 21
804.5529494325538
 31
0.0
  0
LINE
  5
D2A5
330
2
100
AcDbEntity
  8
AM_VIS
100
AcDbLine
 10
1219.309203041004
 20
806.1690793233015
 30
0.0
 11
1219.348573119004
 21
806.191809648433
 31
0.0
  0
LINE
  5
D2A6
330
2
100
AcDbEntity
  8
AM_VIS
100
AcDbLine
 10
1219.269832963004
 20
806.1463489981703
 30
0.0
 11
1219.309203041004
 21
806.1690793233015
 31
0.0
  0
LINE
  5
D2A7
330
2
100
AcDbEntity
  8
AM_VIS
100
AcDbLine
 10
1219.230462885004
 20
806.1690793233015
 30
0.0
 11
1219.269832963004
 21
806.1463489981703
 31
0.0
  0
LINE
  5
D2A8
330
2
100
AcDbEntity
  8
AM_VIS
100
AcDbLine
 10
1219.191092807004
 20
806.191809648433
 30
0.0
 11
1219.230462885004
 21
806.1690793233015
 31
0.0
  0
LINE
  5
D2A9
330
2
100
AcDbEntity
  8
AM_VIS
100
AcDbLine
 10
1219.191092807004
 20
806.2372702986955
 30
0.0
 11
1219.191092807004
 21
806.191809648433
 31
0.0
  0
LINE
  5
D2AA
330
2
100
AcDbEntity
  8
AM_VIS
100
AcDbLine
 10
1219.191092807004
 20
806.2827309489581
 30
0.0
 11
1219.191092807004
 21
806.2372702986955
 31
0.0
  0
LINE
  5
D2AB
330
2
100
AcDbEntity
  8
AM_VIS
100
AcDbLine
 10
1219.191092807004
 20
806.2827309489581
 30
0.0
 11
1219.230462885004
 21
806.3054612740895
 31
0.0
  0
LINE
  5
D2AC
330
2
100
AcDbEntity
  8
AM_VIS
100
AcDbLine
 10
1219.230462885004
 20
806.3054612740895
 30
0.0
 11
1219.269832963004
 21
806.3281915992208
 31
0.0
  0
LINE
  5
D2AD
330
2
100
AcDbEntity
  8
AM_VIS
100
AcDbLine
 10
1219.269832963004
 20
806.3281915992208
 30
0.0
 11
1219.309203041004
 21
806.3054612740895
 31
0.0
  0
LINE
  5
D2AE
330
2
100
AcDbEntity
  8
AM_VIS
100
AcDbLine
 10
1219.309203041004
 20
806.3054612740895
 30
0.0
 11
1219.348573119004
 21
806.2827309489581
 31
0.0
  0
LINE
  5
D2AF
330
2
100
AcDbEntity
  8
AM_VIS
100
AcDbLine
 10
1219.348573119004
 20
806.2827309489581
 30
0.0
 11
1219.348573119004
 21
806.2372702986955
 31
0.0
  0
LINE
  5
D2B0
330
2
100
AcDbEntity
  8
AM_VIS
100
AcDbLine
 10
1219.348573119004
 20
806.2372702986955
 30
0.0
 11
1219.348573119004
 21
806.191809648433
 31
0.0
  0
ARC
  5
D2B2
330
2
100
AcDbEntity
  8
AM_VIS
100
AcDbCircle
 10
1219.269832963004
 20
806.2372702986955
 30
0.0
 40
0.0787401559999872
100
AcDbArc
 50
0.0
 51
60.00000000000272
  0
ARC
  5
D2B3
330
2
100
AcDbEntity
  8
AM_VIS
100
AcDbCircle
 10
1219.269832963004
 20
806.2372702986955
 30
0.0
 40
0.0787401559999872
100
AcDbArc
 50
60.00000000000272
 51
119.9999999999973
  0
ARC
  5
D2B4
330
2
100
AcDbEntity
  8
AM_VIS
100
AcDbCircle
 10
1219.269832963004
 20
806.2372702986955
 30
0.0
 40
0.0787401559999872
100
AcDbArc
 50
119.9999999999973
 51
180.0
  0
ARC
  5
D2B5
330
2
100
AcDbEntity
  8
AM_VIS
100
AcDbCircle
 10
1219.269832963004
 20
806.2372702986955
 30
0.0
 40
0.0787401559999872
100
AcDbArc
 50
180.0
 51
240.0000000000027
  0
ARC
  5
D2B6
330
2
100
AcDbEntity
  8
AM_VIS
100
AcDbCircle
 10
1219.269832963004
 20
806.2372702986955
 30
0.0
 40
0.0787401559999872
100
AcDbArc
 50
240.0000000000027
 51
299.9999999999973
  0
ARC
  5
D2B7
330
2
100
AcDbEntity
  8
AM_VIS
100
AcDbCircle
 10
1219.269832963004
 20
806.2372702986955
 30
0.0
 40
0.0787401559999872
100
AcDbArc
 50
299.9999999999973
 51
0.0
  0
ARC
  5
D2BA
330
2
100
AcDbEntity
  8
AM_VIS
100
AcDbCircle
 10
1219.269832963004
 20
806.2372702986955
 30
0.0
 40
0.1929133821999688
100
AcDbArc
 50
251.7757439858721
 51
270.0
  0
ARC
  5
D2BC
330
2
100
AcDbEntity
  8
AM_VIS
100
AcDbCircle
 10
1219.269832963004
 20
806.2372702986955
 30
0.0
 40
0.1929133821999688
100
AcDbArc
 50
191.7757439858763
 51
228.224256014139
  0
ARC
  5
D2BE
330
2
100
AcDbEntity
  8
AM_VIS
100
AcDbCircle
 10
1219.269832963004
 20
806.2372702986955
 30
0.0
 40
0.1929133821999688
100
AcDbArc
 50
131.7757439858794
 51
168.2242560141364
  0
ARC
  5
D2C0
330
2
100
AcDbEntity
  8
AM_VIS
100
AcDbCircle
 10
1219.269832963004
 20
806.2372702986955
 30
0.0
 40
0.1929133821999688
100
AcDbArc
 50
71.77574398585972
 51
108.2242560141403
  0
ARC
  5
D2C2
330
2
100
AcDbEntity
  8
AM_VIS
100
AcDbCircle
 10
1219.269832963004
 20
806.2372702986955
 30
0.0
 40
0.1929133821999688
100
AcDbArc
 50
11.77574398586358
 51
48.22425601412925
  0
ARC
  5
D2C4
330
2
100
AcDbEntity
  8
AM_VIS
100
AcDbCircle
 10
1219.269832963004
 20
806.2372702986955
 30
0.0
 40
0.1929133821999688
100
AcDbArc
 50
311.775743985861
 51
348.2242560141236
  0
ARC
  5
D2C6
330
2
100
AcDbEntity
  8
AM_VIS
100
AcDbCircle
 10
1219.269832963004
 20
806.2372702986955
 30
0.0
 40
0.1929133821999688
100
AcDbArc
 50
270.0
 51
288.2242560141279
  0
LINE
  5
D2C8
330
2
100
AcDbEntity
  8
AM_VIS
100
AcDbLine
 10
1221.249754222106
 20
806.1690793233015
 30
0.0
 11
1221.289124300106
 21
806.191809648433
 31
0.0
  0
LINE
  5
D2C9
330
2
100
AcDbEntity
  8
AM_VIS
100
AcDbLine
 10
1221.210384144106
 20
806.1463489981703
 30
0.0
 11
1221.249754222106
 21
806.1690793233015
 31
0.0
  0
LINE
  5
D2CA
330
2
100
AcDbEntity
  8
AM_VIS
100
AcDbLine
 10
1221.171014066106
 20
806.1690793233015
 30
0.0
 11
1221.210384144106
 21
806.1463489981703
 31
0.0
  0
LINE
  5
D2CB
330
2
100
AcDbEntity
  8
AM_VIS
100
AcDbLine
 10
1221.131643988106
 20
806.191809648433
 30
0.0
 11
1221.171014066106
 21
806.1690793233015
 31
0.0
  0
LINE
  5
D2CC
330
2
100
AcDbEntity
  8
AM_VIS
100
AcDbLine
 10
1221.131643988106
 20
806.2372702986955
 30
0.0
 11
1221.131643988106
 21
806.191809648433
 31
0.0
  0
LINE
  5
D2CD
330
2
100
AcDbEntity
  8
AM_VIS
100
AcDbLine
 10
1221.131643988106
 20
806.2827309489581
 30
0.0
 11
1221.131643988106
 21
806.2372702986955
 31
0.0
  0
LINE
  5
D2CE
330
2
100
AcDbEntity
  8
AM_VIS
100
AcDbLine
 10
1221.131643988106
 20
806.2827309489581
 30
0.0
 11
1221.171014066106
 21
806.3054612740895
 31
0.0
  0
LINE
  5
D2CF
330
2
100
AcDbEntity
  8
AM_VIS
100
AcDbLine
 10
1221.171014066106
 20
806.3054612740895
 30
0.0
 11
1221.210384144106
 21
806.3281915992208
 31
0.0
  0
LINE
  5
D2D0
330
2
100
AcDbEntity
  8
AM_VIS
100
AcDbLine
 10
1221.210384144106
 20
806.3281915992208
 30
0.0
 11
1221.249754222106
 21
806.3054612740895
 31
0.0
  0
LINE
  5
D2D1
330
2
100
AcDbEntity
  8
AM_VIS
100
AcDbLine
 10
1221.249754222106
 20
806.3054612740895
 30
0.0
 11
1221.289124300106
 21
806.2827309489581
 31
0.0
  0
LINE
  5
D2D2
330
2
100
AcDbEntity
  8
AM_VIS
100
AcDbLine
 10
1221.289124300106
 20
806.2827309489581
 30
0.0
 11
1221.289124300106
 21
806.2372702986955
 31
0.0
  0
LINE
  5
D2D3
330
2
100
AcDbEntity
  8
AM_VIS
100
AcDbLine
 10
1221.289124300106
 20
806.2372702986955
 30
0.0
 11
1221.289124300106
 21
806.191809648433
 31
0.0
  0
ARC
  5
D2D5
330
2
100
AcDbEntity
  8
AM_VIS
100
AcDbCircle
 10
1221.210384144106
 20
806.2372702986955
 30
0.0
 40
0.0787401559999872
100
AcDbArc
 50
0.0
 51
60.00000000000272
  0
ARC
  5
D2D6
330
2
100
AcDbEntity
  8
AM_VIS
100
AcDbCircle
 10
1221.210384144106
 20
806.2372702986955
 30
0.0
 40
0.0787401559999872
100
AcDbArc
 50
60.00000000000272
 51
119.9999999999973
  0
ARC
  5
D2D7
330
2
100
AcDbEntity
  8
AM_VIS
100
AcDbCircle
 10
1221.210384144106
 20
806.2372702986955
 30
0.0
 40
0.0787401559999872
100
AcDbArc
 50
119.9999999999973
 51
180.0
  0
ARC
  5
D2D8
330
2
100
AcDbEntity
  8
AM_VIS
100
AcDbCircle
 10
1221.210384144106
 20
806.2372702986955
 30
0.0
 40
0.0787401559999872
100
AcDbArc
 50
180.0
 51
240.0000000000027
  0
ARC
  5
D2D9
330
2
100
AcDbEntity
  8
AM_VIS
100
AcDbCircle
 10
1221.210384144106
 20
806.2372702986955
 30
0.0
 40
0.0787401559999872
100
AcDbArc
 50
240.0000000000027
 51
299.9999999999973
  0
ARC
  5
D2DA
330
2
100
AcDbEntity
  8
AM_VIS
100
AcDbCircle
 10
1221.210384144106
 20
806.2372702986955
 30
0.0
 40
0.0787401559999872
100
AcDbArc
 50
299.9999999999973
 51
0.0
  0
ARC
  5
D2DD
330
2
100
AcDbEntity
  8
AM_VIS
100
AcDbCircle
 10
1221.210384144106
 20
806.2372702986955
 30
0.0
 40
0.1929133821999688
100
AcDbArc
 50
251.7757439858721
 51
270.0
  0
ARC
  5
D2DF
330
2
100
AcDbEntity
  8
AM_VIS
100
AcDbCircle
 10
1221.210384144106
 20
806.2372702986955
 30
0.0
 40
0.1929133821999688
100
AcDbArc
 50
191.7757439858635
 51
228.224256014139
  0
ARC
  5
D2E1
330
2
100
AcDbEntity
  8
AM_VIS
100
AcDbCircle
 10
1221.210384144106
 20
806.2372702986955
 30
0.0
 40
0.1929133821999688
100
AcDbArc
 50
131.775743985861
 51
168.2242560141364
  0
ARC
  5
D2E3
330
2
100
AcDbEntity
  8
AM_VIS
100
AcDbCircle
 10
1221.210384144106
 20
806.2372702986955
 30
0.0
 40
0.1929133821999688
100
AcDbArc
 50
71.77574398585972
 51
108.2242560141279
  0
ARC
  5
D2E5
330
2
100
AcDbEntity
  8
AM_VIS
100
AcDbCircle
 10
1221.210384144106
 20
806.2372702986955
 30
0.0
 40
0.1929133821999688
100
AcDbArc
 50
11.77574398586358
 51
48.22425601412057
  0
ARC
  5
D2E7
330
2
100
AcDbEntity
  8
AM_VIS
100
AcDbCircle
 10
1221.210384144106
 20
806.2372702986955
 30
0.0
 40
0.1929133821999688
100
AcDbArc
 50
311.7757439858794
 51
348.2242560141364
  0
ARC
  5
D2E9
330
2
100
AcDbEntity
  8
AM_VIS
100
AcDbCircle
 10
1221.210384144106
 20
806.2372702986955
 30
0.0
 40
0.1929133821999688
100
AcDbArc
 50
270.0
 51
288.2242560141403
  0
LINE
  5
D2EB
330
2
100
AcDbEntity
  8
AM_VIS
100
AcDbLine
 10
1219.117353306571
 20
806.1979002206955
 30
0.0
 11
1219.116133771859
 21
806.1979002206955
 31
0.0
  0
LINE
  5
D2EC
330
2
100
AcDbEntity
  8
AM_VIS
100
AcDbLine
 10
1219.116133771859
 20
806.2766403766955
 30
0.0
 11
1219.117353306571
 21
806.2766403766955
 31
0.0
  0
LINE
  5
D2ED
330
2
100
AcDbEntity
  8
AM_VIS
100
AcDbLine
 10
1219.227078855128
 20
806.3900627417682
 30
0.0
 11
1219.227688622484
 21
806.3890065937268
 31
0.0
  0
LINE
  5
D2EE
330
2
100
AcDbEntity
  8
AM_VIS
100
AcDbLine
 10
1219.15949764709
 20
806.3496365157266
 30
0.0
 11
1219.158887879734
 21
806.3506926637682
 31
0.0
  0
LINE
  5
D2EF
330
2
100
AcDbEntity
  8
AM_VIS
100
AcDbLine
 10
1219.227688622484
 20
806.0855340036642
 30
0.0
 11
1219.227078855128
 21
806.0844778556228
 31
0.0
  0
LINE
  5
D2F0
330
2
100
AcDbEntity
  8
AM_VIS
100
AcDbLine
 10
1219.158887879734
 20
806.1238479336227
 30
0.0
 11
1219.15949764709
 21
806.1249040816644
 31
0.0
  0
LINE
  5
D2F1
330
2
100
AcDbEntity
  8
AM_VIS
100
AcDbLine
 10
1219.380778046273
 20
806.3506926637682
 30
0.0
 11
1219.380168278917
 21
806.3496365157266
 31
0.0
  0
LINE
  5
D2F2
330
2
100
AcDbEntity
  8
AM_VIS
100
AcDbLine
 10
1219.311977303523
 20
806.3890065937268
 30
0.0
 11
1219.312587070879
 21
806.3900627417682
 31
0.0
  0
LINE
  5
D2F3
330
2
100
AcDbEntity
  8
AM_VIS
100
AcDbLine
 10
1219.380168278917
 20
806.1249040816644
 30
0.0
 11
1219.380778046273
 21
806.1238479336227
 31
0.0
  0
LINE
  5
D2F4
330
2
100
AcDbEntity
  8
AM_VIS
100
AcDbLine
 10
1219.312587070879
 20
806.0844778556228
 30
0.0
 11
1219.311977303523
 21
806.0855340036642
 31
0.0
  0
LINE
  5
D2F5
330
2
100
AcDbEntity
  8
AM_VIS
100
AcDbLine
 10
1219.423532154149
 20
806.1979002206955
 30
0.0
 11
1219.422312619437
 21
806.1979002206955
 31
0.0
  0
LINE
  5
D2F6
330
2
100
AcDbEntity
  8
AM_VIS
100
AcDbLine
 10
1219.422312619437
 20
806.2766403766955
 30
0.0
 11
1219.423532154149
 21
806.2766403766955
 31
0.0
  0
LINE
  5
D2F7
330
2
100
AcDbEntity
  8
AM_VIS
100
AcDbLine
 10
1219.07695975476
 20
806.1979002206955
 30
0.0
 11
1219.116133771859
 21
806.1979002206955
 31
0.0
  0
LINE
  5
D2F8
330
2
100
AcDbEntity
  8
AM_HID
100
AcDbLine
 10
1219.070936123832
 20
806.1979002206955
 30
0.0
 11
1219.07695975476
 21
806.1979002206955
 31
0.0
  0
LINE
  5
D2FA
330
2
100
AcDbEntity
  8
AM_VIS
100
AcDbLine
 10
1219.07695975476
 20
806.2766403766955
 30
0.0
 11
1219.116133771859
 21
806.2766403766955
 31
0.0
  0
LINE
  5
D2FB
330
2
100
AcDbEntity
  8
AM_VIS
100
AcDbLine
 10
1219.207491846579
 20
806.0505521616473
 30
0.0
 11
1219.227078855128
 21
806.0844778556228
 31
0.0
  0
LINE
  5
D2FE
330
2
100
AcDbEntity
  8
AM_VIS
100
AcDbLine
 10
1219.139300871185
 20
806.0899222396473
 30
0.0
 11
1219.158887879734
 21
806.1238479336227
 31
0.0
  0
LINE
  5
D300
330
2
100
AcDbEntity
  8
AM_VIS
100
AcDbLine
 10
1219.207491846579
 20
806.4239884357437
 30
0.0
 11
1219.227078855128
 21
806.3900627417682
 31
0.0
  0
LINE
  5
D301
330
2
100
AcDbEntity
  8
AM_VIS
100
AcDbLine
 10
1219.139300871185
 20
806.3846183577437
 30
0.0
 11
1219.158887879734
 21
806.3506926637682
 31
0.0
  0
LINE
  5
D304
330
2
100
AcDbEntity
  8
AM_VIS
100
AcDbLine
 10
1219.380778046273
 20
806.3506926637682
 30
0.0
 11
1219.400365054823
 21
806.3846183577437
 31
0.0
  0
LINE
  5
D305
330
2
100
AcDbEntity
  8
AM_VIS
100
AcDbLine
 10
1219.312587070879
 20
806.3900627417682
 30
0.0
 11
1219.332174079429
 21
806.4239884357437
 31
0.0
  0
LINE
  5
D307
330
2
100
AcDbEntity
  8
AM_VIS
100
AcDbLine
 10
1219.380778046273
 20
806.1238479336228
 30
0.0
 11
1219.400365054823
 21
806.0899222396473
 31
0.0
  0
LINE
  5
D30A
330
2
100
AcDbEntity
  8
AM_VIS
100
AcDbLine
 10
1219.312587070879
 20
806.0844778556228
 30
0.0
 11
1219.332174079428
 21
806.0505521616473
 31
0.0
  0
LINE
  5
D30B
330
2
100
AcDbEntity
  8
AM_VIS
100
AcDbLine
 10
1219.423532154149
 20
806.2766403766955
 30
0.0
 11
1219.462706171247
 21
806.2766403766955
 31
0.0
  0
LINE
  5
D30E
330
2
100
AcDbEntity
  8
AM_VIS
100
AcDbLine
 10
1219.423532154149
 20
806.1979002206955
 30
0.0
 11
1219.462706171247
 21
806.1979002206955
 31
0.0
  0
ARC
  5
D30F
330
2
100
AcDbEntity
  8
AM_VIS
100
AcDbCircle
 10
1219.269832963004
 20
806.2372702986955
 30
0.0
 40
0.1586614143399932
100
AcDbArc
 50
165.6325874171659
 51
194.367412582834
  0
ARC
  5
D310
330
2
100
AcDbEntity
  8
AM_VIS
100
AcDbCircle
 10
1219.269832963004
 20
806.2372702986955
 30
0.0
 40
0.1586614143399932
100
AcDbArc
 50
105.632587417164
 51
134.367412582837
  0
ARC
  5
D311
330
2
100
AcDbEntity
  8
AM_VIS
100
AcDbCircle
 10
1219.269832963004
 20
806.2372702986955
 30
0.0
 40
0.1586614143399932
100
AcDbArc
 50
225.632587417163
 51
254.367412582836
  0
ARC
  5
D312
330
2
100
AcDbEntity
  8
AM_VIS
100
AcDbCircle
 10
1219.269832963004
 20
806.2372702986955
 30
0.0
 40
0.1586614143399932
100
AcDbArc
 50
45.63258741716296
 51
74.367412582836
  0
ARC
  5
D313
330
2
100
AcDbEntity
  8
AM_VIS
100
AcDbCircle
 10
1219.269832963004
 20
806.2372702986955
 30
0.0
 40
0.1586614143399932
100
AcDbArc
 50
285.632587417164
 51
314.3674125828371
  0
ARC
  5
D314
330
2
100
AcDbEntity
  8
AM_VIS
100
AcDbCircle
 10
1219.269832963004
 20
806.2372702986955
 30
0.0
 40
0.1586614143399932
100
AcDbArc
 50
345.632587417166
 51
14.36741258283407
  0
CIRCLE
  5
D31B
330
2
100
AcDbEntity
  8
AM_VIS
100
AcDbCircle
 10
1219.269832963004
 20
806.2372702986955
 30
0.0
 40
0.1574803119999933
  0
CIRCLE
  5
D31C
330
2
100
AcDbEntity
  8
AM_VIS
100
AcDbCircle
 10
1219.269832963004
 20
806.2372702986955
 30
0.0
 40
0.0984251949999958
  0
LINE
  5
D31D
330
2
100
AcDbEntity
  8
AM_VIS
100
AcDbLine
 10
1221.057904487673
 20
806.1979002206955
 30
0.0
 11
1221.056684952961
 21
806.1979002206955
 31
0.0
  0
LINE
  5
D31E
330
2
100
AcDbEntity
  8
AM_VIS
100
AcDbLine
 10
1221.056684952961
 20
806.2766403766955
 30
0.0
 11
1221.057904487673
 21
806.2766403766955
 31
0.0
  0
LINE
  5
D31F
330
2
100
AcDbEntity
  8
AM_VIS
100
AcDbLine
 10
1221.167630036231
 20
806.3900627417682
 30
0.0
 11
1221.168239803587
 21
806.3890065937268
 31
0.0
  0
LINE
  5
D320
330
2
100
AcDbEntity
  8
AM_VIS
100
AcDbLine
 10
1221.100048828193
 20
806.3496365157266
 30
0.0
 11
1221.099439060837
 21
806.3506926637682
 31
0.0
  0
LINE
  5
D321
330
2
100
AcDbEntity
  8
AM_VIS
100
AcDbLine
 10
1221.168239803587
 20
806.0855340036642
 30
0.0
 11
1221.167630036231
 21
806.0844778556228
 31
0.0
  0
LINE
  5
D322
330
2
100
AcDbEntity
  8
AM_VIS
100
AcDbLine
 10
1221.099439060837
 20
806.1238479336228
 30
0.0
 11
1221.100048828193
 21
806.1249040816644
 31
0.0
  0
LINE
  5
D323
330
2
100
AcDbEntity
  8
AM_VIS
100
AcDbLine
 10
1221.321329227376
 20
806.3506926637682
 30
0.0
 11
1221.32071946002
 21
806.3496365157266
 31
0.0
  0
LINE
  5
D324
330
2
100
AcDbEntity
  8
AM_VIS
100
AcDbLine
 10
1221.252528484626
 20
806.3890065937268
 30
0.0
 11
1221.253138251982
 21
806.3900627417682
 31
0.0
  0
LINE
  5
D325
330
2
100
AcDbEntity
  8
AM_VIS
100
AcDbLine
 10
1221.32071946002
 20
806.1249040816644
 30
0.0
 11
1221.321329227376
 21
806.1238479336228
 31
0.0
  0
LINE
  5
D326
330
2
100
AcDbEntity
  8
AM_VIS
100
AcDbLine
 10
1221.253138251982
 20
806.0844778556228
 30
0.0
 11
1221.252528484626
 21
806.0855340036642
 31
0.0
  0
LINE
  5
D327
330
2
100
AcDbEntity
  8
AM_VIS
100
AcDbLine
 10
1221.364083335251
 20
806.1979002206955
 30
0.0
 11
1221.362863800539
 21
806.1979002206955
 31
0.0
  0
LINE
  5
D328
330
2
100
AcDbEntity
  8
AM_VIS
100
AcDbLine
 10
1221.362863800539
 20
806.2766403766955
 30
0.0
 11
1221.364083335251
 21
806.2766403766955
 31
0.0
  0
LINE
  5
D329
330
2
100
AcDbEntity
  8
AM_VIS
100
AcDbLine
 10
1221.017510935863
 20
806.1979002206955
 30
0.0
 11
1221.056684952961
 21
806.1979002206955
 31
0.0
  0
LINE
  5
D32C
330
2
100
AcDbEntity
  8
AM_VIS
100
AcDbLine
 10
1221.017510935862
 20
806.2766403766955
 30
0.0
 11
1221.056684952961
 21
806.2766403766955
 31
0.0
  0
LINE
  5
D32D
330
2
100
AcDbEntity
  8
AM_VIS
100
AcDbLine
 10
1221.148043027681
 20
806.0505521616473
 30
0.0
 11
1221.167630036231
 21
806.0844778556228
 31
0.0
  0
LINE
  5
D330
330
2
100
AcDbEntity
  8
AM_VIS
100
AcDbLine
 10
1221.079852052288
 20
806.0899222396473
 30
0.0
 11
1221.099439060837
 21
806.1238479336228
 31
0.0
  0
LINE
  5
D332
330
2
100
AcDbEntity
  8
AM_VIS
100
AcDbLine
 10
1221.148043027681
 20
806.4239884357437
 30
0.0
 11
1221.167630036231
 21
806.3900627417682
 31
0.0
  0
LINE
  5
D333
330
2
100
AcDbEntity
  8
AM_VIS
100
AcDbLine
 10
1221.079852052288
 20
806.3846183577437
 30
0.0
 11
1221.099439060837
 21
806.3506926637682
 31
0.0
  0
LINE
  5
D336
330
2
100
AcDbEntity
  8
AM_VIS
100
AcDbLine
 10
1221.321329227376
 20
806.3506926637682
 30
0.0
 11
1221.340916235925
 21
806.3846183577437
 31
0.0
  0
LINE
  5
D337
330
2
100
AcDbEntity
  8
AM_VIS
100
AcDbLine
 10
1221.253138251982
 20
806.3900627417682
 30
0.0
 11
1221.272725260531
 21
806.4239884357437
 31
0.0
  0
LINE
  5
D339
330
2
100
AcDbEntity
  8
AM_VIS
100
AcDbLine
 10
1221.321329227376
 20
806.1238479336228
 30
0.0
 11
1221.340916235925
 21
806.0899222396473
 31
0.0
  0
LINE
  5
D33C
330
2
100
AcDbEntity
  8
AM_VIS
100
AcDbLine
 10
1221.253138251982
 20
806.0844778556228
 30
0.0
 11
1221.272725260531
 21
806.0505521616473
 31
0.0
  0
LINE
  5
D33D
330
2
100
AcDbEntity
  8
AM_VIS
100
AcDbLine
 10
1221.364083335251
 20
806.2766403766955
 30
0.0
 11
1221.40325735235
 21
806.2766403766955
 31
0.0
  0
LINE
  5
D340
330
2
100
AcDbEntity
  8
AM_VIS
100
AcDbLine
 10
1221.364083335251
 20
806.1979002206955
 30
0.0
 11
1221.40325735235
 21
806.1979002206955
 31
0.0
  0
ARC
  5
D341
330
2
100
AcDbEntity
  8
AM_VIS
100
AcDbCircle
 10
1221.210384144106
 20
806.2372702986955
 30
0.0
 40
0.1586614143399932
100
AcDbArc
 50
165.6325874171659
 51
194.367412582834
  0
ARC
  5
D342
330
2
100
AcDbEntity
  8
AM_VIS
100
AcDbCircle
 10
1221.210384144106
 20
806.2372702986955
 30
0.0
 40
0.1586614143399932
100
AcDbArc
 50
105.632587417164
 51
134.367412582837
  0
ARC
  5
D343
330
2
100
AcDbEntity
  8
AM_VIS
100
AcDbCircle
 10
1221.210384144106
 20
806.2372702986955
 30
0.0
 40
0.1586614143399932
100
AcDbArc
 50
225.632587417163
 51
254.367412582836
  0
ARC
  5
D344
330
2
100
AcDbEntity
  8
AM_VIS
100
AcDbCircle
 10
1221.210384144106
 20
806.2372702986955
 30
0.0
 40
0.1586614143399932
100
AcDbArc
 50
45.63258741716296
 51
74.367412582836
  0
ARC
  5
D345
330
2
100
AcDbEntity
  8
AM_VIS
100
AcDbCircle
 10
1221.210384144106
 20
806.2372702986955
 30
0.0
 40
0.1586614143399932
100
AcDbArc
 50
285.632587417164
 51
314.3674125828371
  0
ARC
  5
D346
330
2
100
AcDbEntity
  8
AM_VIS
100
AcDbCircle
 10
1221.210384144106
 20
806.2372702986955
 30
0.0
 40
0.1586614143399932
100
AcDbArc
 50
345.632587417166
 51
14.36741258283407
  0
CIRCLE
  5
D34D
330
2
100
AcDbEntity
  8
AM_VIS
100
AcDbCircle
 10
1221.210384144106
 20
806.2372702986955
 30
0.0
 40
0.1574803119999933
  0
CIRCLE
  5
D34E
330
2
100
AcDbEntity
  8
AM_VIS
100
AcDbCircle
 10
1221.210384144106
 20
806.2372702986955
 30
0.0
 40
0.0984251949999958
  0
SPLINE
  5
D37B
330
2
100
AcDbEntity
  8
AM_VIS
100
AcDbSpline
210
0.0
220
0.0
230
1.0
 70
    12
 71
     2
 72
     6
 73
     3
 74
     0
 42
0.0000000001
 43
0.0000000001
 40
0.0
 40
0.0
 40
0.0
 40
0.4004094078944483
 40
0.4004094078944483
 40
0.4004094078944483
 10
1217.000284399301
 20
805.9634893538135
 30
0.0
 41
1.0
 10
1217.046602738985
 20
805.7648293538134
 30
0.0
 41
1.154700538378608
 10
1217.000284399301
 20
805.5661693538132
 30
0.0
 41
1.0
  0
LINE
  5
D37C
330
2
100
AcDbEntity
  8
AM_VIS
100
AcDbLine
 10
1217.000284399301
 20
805.9634893538135
 30
0.0
 11
1216.795011447967
 21
805.9634893538135
 31
0.0
  0
SPLINE
  5
D37D
330
2
100
AcDbEntity
  8
AM_VIS
100
AcDbSpline
210
0.0
220
0.0
230
1.0
 70
    12
 71
     2
 72
     6
 73
     3
 74
     0
 42
0.0000000001
 43
0.0000000001
 40
0.0
 40
0.0
 40
0.0
 40
0.4004094078946155
 40
0.4004094078946155
 40
0.4004094078946155
 10
1216.795011447967
 20
805.5661693538132
 30
0.0
 41
1.0
 10
1216.748693108282
 20
805.7648293538134
 30
0.0
 41
1.154700538378404
 10
1216.795011447967
 20
805.9634893538136
 30
0.0
 41
1.0
  0
LINE
  5
D37E
330
2
100
AcDbEntity
  8
AM_VIS
100
AcDbLine
 10
1217.000284399301
 20
805.5661693538137
 30
0.0
 11
1216.795011447967
 21
805.5661693538137
 31
0.0
  0
SPLINE
  5
D37F
330
2
100
AcDbEntity
  8
AM_VIS
100
AcDbSpline
210
0.0
220
0.0
230
1.0
 70
    12
 71
     2
 72
     6
 73
     3
 74
     0
 42
0.0000000001
 43
0.0000000001
 40
0.0
 40
0.0
 40
0.0
 40
0.4004094078944389
 40
0.4004094078944389
 40
0.4004094078944389
 10
1217.000284399301
 20
805.5661693538135
 30
0.0
 41
1.0
 10
1217.046602738985
 20
805.4668393538133
 30
0.0
 41
1.154700538378608
 10
1217.000284399301
 20
805.3675093538133
 30
0.0
 41
1.0
  0
SPLINE
  5
D380
330
2
100
AcDbEntity
  8
AM_VIS
100
AcDbSpline
210
0.0
220
0.0
230
1.0
 70
    12
 71
     2
 72
     6
 73
     3
 74
     0
 42
0.0000000001
 43
0.0000000001
 40
0.0
 40
0.0
 40
0.0
 40
0.4004094078946175
 40
0.4004094078946175
 40
0.4004094078946175
 10
1216.795011447967
 20
805.3675093538133
 30
0.0
 41
1.0
 10
1216.748693108282
 20
805.4668393538134
 30
0.0
 41
1.154700538378404
 10
1216.795011447967
 20
805.5661693538135
 30
0.0
 41
1.0
  0
LINE
  5
D381
330
2
100
AcDbEntity
  8
AM_VIS
100
AcDbLine
 10
1216.795011447967
 20
805.3675093538137
 30
0.0
 11
1217.000284399301
 21
805.3675093538137
 31
0.0
  0
LINE
  5
D382
330
2
100
AcDbEntity
  8
AM_VIS
100
AcDbLine
 10
1217.000284399301
 20
806.1621493538135
 30
0.0
 11
1216.795011447967
 21
806.1621493538135
 31
0.0
  0
SPLINE
  5
D383
330
2
100
AcDbEntity
  8
AM_VIS
100
AcDbSpline
210
0.0
220
0.0
230
1.0
 70
    12
 71
     2
 72
     6
 73
     3
 74
     0
 42
0.0000000001
 43
0.0000000001
 40
0.0
 40
0.0
 40
0.0
 40
0.4004094078944577
 40
0.4004094078944577
 40
0.4004094078944577
 10
1217.000284399301
 20
806.1621493538135
 30
0.0
 41
1.0
 10
1217.046602738985
 20
806.0628193538132
 30
0.0
 41
1.154700538378608
 10
1217.000284399301
 20
805.9634893538135
 30
0.0
 41
1.0
  0
SPLINE
  5
D384
330
2
100
AcDbEntity
  8
AM_VIS
100
AcDbSpline
210
0.0
220
0.0
230
1.0
 70
    12
 71
     2
 72
     6
 73
     3
 74
     0
 42
0.0000000001
 43
0.0000000001
 40
0.0
 40
0.0
 40
0.0
 40
0.4004094078946065
 40
0.4004094078946065
 40
0.4004094078946065
 10
1216.795011447967
 20
805.9634893538135
 30
0.0
 41
1.0
 10
1216.748693108282
 20
806.0628193538134
 30
0.0
 41
1.154700538378404
 10
1216.795011447967
 20
806.1621493538135
 30
0.0
 41
1.0
  0
LINE
  5
D38B
330
2
100
AcDbEntity
  8
AM_VIS
100
AcDbLine
 10
1216.770147923634
 20
806.1088293538135
 30
0.0
 11
1216.795011447967
 21
806.1621493538135
 31
0.0
  0
LINE
  5
D38C
330
2
100
AcDbEntity
  8
AM_VIS
100
AcDbLine
 10
1216.770147923634
 20
805.4208293538136
 30
0.0
 11
1216.795011447967
 21
805.3675093538137
 31
0.0
  0
LINE
  5
D38D
330
2
100
AcDbEntity
  8
AM_VIS
100
AcDbLine
 10
1217.025147923634
 20
805.4208293538136
 30
0.0
 11
1217.000284399301
 21
805.3675093538137
 31
0.0
  0
LINE
  5
D38E
330
2
100
AcDbEntity
  8
AM_VIS
100
AcDbLine
 10
1217.025147923634
 20
806.1088293538135
 30
0.0
 11
1217.000284399301
 21
806.1621493538135
 31
0.0
  0
LINE
  5
D391
330
2
100
AcDbEntity
  8
AM_VIS
100
AcDbLine
 10
1216.770147923634
 20
805.4208293538136
 30
0.0
 11
1216.770147923634
 21
806.1088293538135
 31
0.0
  0
LINE
  5
D392
330
2
100
AcDbEntity
  8
AM_VIS
100
AcDbLine
 10
1217.025147923634
 20
805.4208293538136
 30
0.0
 11
1217.025147923634
 21
806.1088293538135
 31
0.0
  0
CIRCLE
  5
D40B
330
2
100
AcDbEntity
  8
AM_VIS
100
AcDbCircle
 10
1212.284938732477
 20
805.7648293538138
 30
0.0
 40
0.2189999999999941
  0
CIRCLE
  5
D40C
330
2
100
AcDbEntity
  8
AM_VIS
100
AcDbCircle
 10
1212.284938732477
 20
805.7648293538138
 30
0.0
 40
0.1796299212598366
  0
LINE
  5
D421
330
2
100
AcDbEntity
  8
AM_VIS
100
AcDbLine
 10
1211.033688732477
 20
806.9500403333744
 30
0.0
 11
1211.111813732477
 21
806.995145823155
 31
0.0
  0
LINE
  5
D422
330
2
100
AcDbEntity
  8
AM_VIS
100
AcDbLine
 10
1211.111813732477
 20
806.995145823155
 30
0.0
 11
1211.189938732477
 21
807.0402513129353
 31
0.0
  0
LINE
  5
D423
330
2
100
AcDbEntity
  8
AM_VIS
100
AcDbLine
 10
1211.189938732477
 20
807.0402513129353
 30
0.0
 11
1211.268063732477
 21
806.995145823155
 31
0.0
  0
LINE
  5
D424
330
2
100
AcDbEntity
  8
AM_VIS
100
AcDbLine
 10
1211.268063732477
 20
806.995145823155
 30
0.0
 11
1211.346188732477
 21
806.9500403333744
 31
0.0
  0
LINE
  5
D425
330
2
100
AcDbEntity
  8
AM_VIS
100
AcDbLine
 10
1211.346188732477
 20
806.9500403333744
 30
0.0
 11
1211.346188732477
 21
806.8598293538135
 31
0.0
  0
LINE
  5
D426
330
2
100
AcDbEntity
  8
AM_VIS
100
AcDbLine
 10
1211.346188732477
 20
806.8598293538135
 30
0.0
 11
1211.346188732477
 21
806.7696183742526
 31
0.0
  0
LINE
  5
D427
330
2
100
AcDbEntity
  8
AM_VIS
100
AcDbLine
 10
1211.268063732477
 20
806.7245128844723
 30
0.0
 11
1211.346188732477
 21
806.7696183742526
 31
0.0
  0
LINE
  5
D428
330
2
100
AcDbEntity
  8
AM_VIS
100
AcDbLine
 10
1211.189938732477
 20
806.6794073946917
 30
0.0
 11
1211.268063732477
 21
806.7245128844723
 31
0.0
  0
LINE
  5
D429
330
2
100
AcDbEntity
  8
AM_VIS
100
AcDbLine
 10
1211.111813732477
 20
806.7245128844723
 30
0.0
 11
1211.189938732477
 21
806.6794073946917
 31
0.0
  0
LINE
  5
D42A
330
2
100
AcDbEntity
  8
AM_VIS
100
AcDbLine
 10
1211.033688732477
 20
806.7696183742526
 30
0.0
 11
1211.111813732477
 21
806.7245128844723
 31
0.0
  0
LINE
  5
D42B
330
2
100
AcDbEntity
  8
AM_VIS
100
AcDbLine
 10
1211.033688732477
 20
806.8598293538135
 30
0.0
 11
1211.033688732477
 21
806.7696183742526
 31
0.0
  0
LINE
  5
D42C
330
2
100
AcDbEntity
  8
AM_VIS
100
AcDbLine
 10
1211.033688732477
 20
806.9500403333744
 30
0.0
 11
1211.033688732477
 21
806.8598293538135
 31
0.0
  0
ARC
  5
D42D
330
2
100
AcDbEntity
  8
AM_VIS
100
AcDbCircle
 10
1211.189938732477
 20
806.8598293538135
 30
0.0
 40
0.1581850393700788
100
AcDbArc
 50
308.971055512305
 51
351.028944487684
  0
ARC
  5
D42E
330
2
100
AcDbEntity
  8
AM_VIS
100
AcDbCircle
 10
1211.189938732477
 20
806.8598293538135
 30
0.0
 40
0.1581850393700788
100
AcDbArc
 50
8.971055512315937
 51
51.02894448767664
  0
ARC
  5
D42F
330
2
100
AcDbEntity
  8
AM_VIS
100
AcDbCircle
 10
1211.189938732477
 20
806.8598293538135
 30
0.0
 40
0.1581850393700788
100
AcDbArc
 50
68.97105551232922
 51
111.0289444876829
  0
ARC
  5
D430
330
2
100
AcDbEntity
  8
AM_VIS
100
AcDbCircle
 10
1211.189938732477
 20
806.8598293538135
 30
0.0
 40
0.1581850393700788
100
AcDbArc
 50
128.9710555123233
 51
171.0289444876969
  0
ARC
  5
D431
330
2
100
AcDbEntity
  8
AM_VIS
100
AcDbCircle
 10
1211.189938732477
 20
806.8598293538135
 30
0.0
 40
0.1581850393700788
100
AcDbArc
 50
188.971055512303
 51
231.028944487695
  0
ARC
  5
D432
330
2
100
AcDbEntity
  8
AM_VIS
100
AcDbCircle
 10
1211.189938732477
 20
806.8598293538135
 30
0.0
 40
0.1581850393700788
100
AcDbArc
 50
248.9710555123002
 51
291.0289444876998
  0
CIRCLE
  5
D433
330
2
100
AcDbEntity
  8
AM_VIS
100
AcDbCircle
 10
1211.189938732477
 20
806.8598293538135
 30
0.0
 40
0.1385
  0
CIRCLE
  5
D43B
330
2
100
AcDbEntity
  8
AM_VIS
100
AcDbCircle
 10
1211.189938732477
 20
806.8598293538135
 30
0.0
 40
0.2559055118110236
  0
CIRCLE
  5
D43C
330
2
100
AcDbEntity
  8
AM_VIS
100
AcDbCircle
 10
1211.189938732477
 20
806.8598293538135
 30
0.0
 40
0.1845238095238135
  0
LINE
  5
D43D
330
2
100
AcDbEntity
  8
AM_VIS
100
AcDbLine
 10
1213.223688732477
 20
806.9500403333744
 30
0.0
 11
1213.301813732477
 21
806.995145823155
 31
0.0
  0
LINE
  5
D43E
330
2
100
AcDbEntity
  8
AM_VIS
100
AcDbLine
 10
1213.301813732477
 20
806.995145823155
 30
0.0
 11
1213.379938732477
 21
807.0402513129353
 31
0.0
  0
LINE
  5
D43F
330
2
100
AcDbEntity
  8
AM_VIS
100
AcDbLine
 10
1213.379938732477
 20
807.0402513129353
 30
0.0
 11
1213.458063732477
 21
806.995145823155
 31
0.0
  0
LINE
  5
D440
330
2
100
AcDbEntity
  8
AM_VIS
100
AcDbLine
 10
1213.458063732477
 20
806.995145823155
 30
0.0
 11
1213.536188732477
 21
806.9500403333744
 31
0.0
  0
LINE
  5
D441
330
2
100
AcDbEntity
  8
AM_VIS
100
AcDbLine
 10
1213.536188732477
 20
806.9500403333744
 30
0.0
 11
1213.536188732477
 21
806.8598293538135
 31
0.0
  0
LINE
  5
D442
330
2
100
AcDbEntity
  8
AM_VIS
100
AcDbLine
 10
1213.536188732477
 20
806.8598293538135
 30
0.0
 11
1213.536188732477
 21
806.7696183742526
 31
0.0
  0
LINE
  5
D443
330
2
100
AcDbEntity
  8
AM_VIS
100
AcDbLine
 10
1213.458063732477
 20
806.7245128844723
 30
0.0
 11
1213.536188732477
 21
806.7696183742526
 31
0.0
  0
LINE
  5
D444
330
2
100
AcDbEntity
  8
AM_VIS
100
AcDbLine
 10
1213.379938732477
 20
806.6794073946917
 30
0.0
 11
1213.458063732477
 21
806.7245128844723
 31
0.0
  0
LINE
  5
D445
330
2
100
AcDbEntity
  8
AM_VIS
100
AcDbLine
 10
1213.301813732477
 20
806.7245128844723
 30
0.0
 11
1213.379938732477
 21
806.6794073946917
 31
0.0
  0
LINE
  5
D446
330
2
100
AcDbEntity
  8
AM_VIS
100
AcDbLine
 10
1213.223688732477
 20
806.7696183742526
 30
0.0
 11
1213.301813732477
 21
806.7245128844723
 31
0.0
  0
LINE
  5
D447
330
2
100
AcDbEntity
  8
AM_VIS
100
AcDbLine
 10
1213.223688732477
 20
806.8598293538135
 30
0.0
 11
1213.223688732477
 21
806.7696183742526
 31
0.0
  0
LINE
  5
D448
330
2
100
AcDbEntity
  8
AM_VIS
100
AcDbLine
 10
1213.223688732477
 20
806.9500403333744
 30
0.0
 11
1213.223688732477
 21
806.8598293538135
 31
0.0
  0
ARC
  5
D449
330
2
100
AcDbEntity
  8
AM_VIS
100
AcDbCircle
 10
1213.379938732477
 20
806.8598293538135
 30
0.0
 40
0.1581850393700788
100
AcDbArc
 50
308.971055512305
 51
351.028944487684
  0
ARC
  5
D44A
330
2
100
AcDbEntity
  8
AM_VIS
100
AcDbCircle
 10
1213.379938732477
 20
806.8598293538135
 30
0.0
 40
0.1581850393700788
100
AcDbArc
 50
8.971055512315937
 51
51.02894448767664
  0
ARC
  5
D44B
330
2
100
AcDbEntity
  8
AM_VIS
100
AcDbCircle
 10
1213.379938732477
 20
806.8598293538135
 30
0.0
 40
0.1581850393700788
100
AcDbArc
 50
68.97105551232922
 51
111.0289444876829
  0
ARC
  5
D44C
330
2
100
AcDbEntity
  8
AM_VIS
100
AcDbCircle
 10
1213.379938732477
 20
806.8598293538135
 30
0.0
 40
0.1581850393700788
100
AcDbArc
 50
128.9710555123233
 51
171.0289444876969
  0
ARC
  5
D44D
330
2
100
AcDbEntity
  8
AM_VIS
100
AcDbCircle
 10
1213.379938732477
 20
806.8598293538135
 30
0.0
 40
0.1581850393700788
100
AcDbArc
 50
188.971055512303
 51
231.028944487695
  0
ARC
  5
D44E
330
2
100
AcDbEntity
  8
AM_VIS
100
AcDbCircle
 10
1213.379938732477
 20
806.8598293538135
 30
0.0
 40
0.1581850393700788
100
AcDbArc
 50
248.9710555123002
 51
291.0289444876998
  0
CIRCLE
  5
D44F
330
2
100
AcDbEntity
  8
AM_VIS
100
AcDbCircle
 10
1213.379938732477
 20
806.8598293538135
 30
0.0
 40
0.1385
  0
ARC
  5
D452
330
2
100
AcDbEntity
  8
AM_HID
100
AcDbCircle
 10
1213.379938732477
 20
806.8598293538135
 30
0.0
 40
0.1581850393700788
100
AcDbArc
 50
231.028944487695
 51
248.9710555123002
  0
CIRCLE
  5
D457
330
2
100
AcDbEntity
  8
AM_VIS
100
AcDbCircle
 10
1213.379938732477
 20
806.8598293538135
 30
0.0
 40
0.2559055118110236
  0
CIRCLE
  5
D458
330
2
100
AcDbEntity
  8
AM_VIS
100
AcDbCircle
 10
1213.379938732477
 20
806.8598293538135
 30
0.0
 40
0.1845238095238135
  0
LINE
  5
D459
330
2
100
AcDbEntity
  8
AM_VIS
100
AcDbLine
 10
1213.223688732477
 20
804.7600403333746
 30
0.0
 11
1213.301813732477
 21
804.8051458231549
 31
0.0
  0
LINE
  5
D45A
330
2
100
AcDbEntity
  8
AM_VIS
100
AcDbLine
 10
1213.301813732477
 20
804.8051458231549
 30
0.0
 11
1213.379938732477
 21
804.8502513129355
 31
0.0
  0
LINE
  5
D45B
330
2
100
AcDbEntity
  8
AM_VIS
100
AcDbLine
 10
1213.379938732477
 20
804.8502513129355
 30
0.0
 11
1213.458063732477
 21
804.8051458231549
 31
0.0
  0
LINE
  5
D45C
330
2
100
AcDbEntity
  8
AM_VIS
100
AcDbLine
 10
1213.458063732477
 20
804.8051458231549
 30
0.0
 11
1213.536188732477
 21
804.7600403333746
 31
0.0
  0
LINE
  5
D45D
330
2
100
AcDbEntity
  8
AM_VIS
100
AcDbLine
 10
1213.536188732477
 20
804.7600403333746
 30
0.0
 11
1213.536188732477
 21
804.6698293538137
 31
0.0
  0
LINE
  5
D45E
330
2
100
AcDbEntity
  8
AM_VIS
100
AcDbLine
 10
1213.536188732477
 20
804.6698293538137
 30
0.0
 11
1213.536188732477
 21
804.5796183742528
 31
0.0
  0
LINE
  5
D45F
330
2
100
AcDbEntity
  8
AM_VIS
100
AcDbLine
 10
1213.458063732477
 20
804.5345128844722
 30
0.0
 11
1213.536188732477
 21
804.5796183742528
 31
0.0
  0
LINE
  5
D460
330
2
100
AcDbEntity
  8
AM_VIS
100
AcDbLine
 10
1213.379938732477
 20
804.4894073946919
 30
0.0
 11
1213.458063732477
 21
804.5345128844722
 31
0.0
  0
LINE
  5
D461
330
2
100
AcDbEntity
  8
AM_VIS
100
AcDbLine
 10
1213.301813732477
 20
804.5345128844722
 30
0.0
 11
1213.379938732477
 21
804.4894073946919
 31
0.0
  0
LINE
  5
D462
330
2
100
AcDbEntity
  8
AM_VIS
100
AcDbLine
 10
1213.223688732477
 20
804.5796183742528
 30
0.0
 11
1213.301813732477
 21
804.5345128844722
 31
0.0
  0
LINE
  5
D463
330
2
100
AcDbEntity
  8
AM_VIS
100
AcDbLine
 10
1213.223688732477
 20
804.6698293538137
 30
0.0
 11
1213.223688732477
 21
804.5796183742528
 31
0.0
  0
LINE
  5
D464
330
2
100
AcDbEntity
  8
AM_VIS
100
AcDbLine
 10
1213.223688732477
 20
804.7600403333746
 30
0.0
 11
1213.223688732477
 21
804.6698293538137
 31
0.0
  0
ARC
  5
D465
330
2
100
AcDbEntity
  8
AM_VIS
100
AcDbCircle
 10
1213.379938732477
 20
804.6698293538137
 30
0.0
 40
0.1581850393700788
100
AcDbArc
 50
308.971055512305
 51
351.028944487684
  0
ARC
  5
D466
330
2
100
AcDbEntity
  8
AM_VIS
100
AcDbCircle
 10
1213.379938732477
 20
804.6698293538137
 30
0.0
 40
0.1581850393700788
100
AcDbArc
 50
8.971055512315937
 51
51.02894448767664
  0
ARC
  5
D467
330
2
100
AcDbEntity
  8
AM_VIS
100
AcDbCircle
 10
1213.379938732477
 20
804.6698293538137
 30
0.0
 40
0.1581850393700788
100
AcDbArc
 50
68.97105551232922
 51
111.0289444876829
  0
ARC
  5
D468
330
2
100
AcDbEntity
  8
AM_VIS
100
AcDbCircle
 10
1213.379938732477
 20
804.6698293538137
 30
0.0
 40
0.1581850393700788
100
AcDbArc
 50
128.9710555123233
 51
171.0289444876969
  0
ARC
  5
D469
330
2
100
AcDbEntity
  8
AM_VIS
100
AcDbCircle
 10
1213.379938732477
 20
804.6698293538137
 30
0.0
 40
0.1581850393700788
100
AcDbArc
 50
188.971055512303
 51
231.028944487695
  0
ARC
  5
D46A
330
2
100
AcDbEntity
  8
AM_VIS
100
AcDbCircle
 10
1213.379938732477
 20
804.6698293538137
 30
0.0
 40
0.1581850393700788
100
AcDbArc
 50
248.9710555123002
 51
291.0289444876876
  0
CIRCLE
  5
D46B
330
2
100
AcDbEntity
  8
AM_VIS
100
AcDbCircle
 10
1213.379938732477
 20
804.6698293538137
 30
0.0
 40
0.1385
  0
CIRCLE
  5
D473
330
2
100
AcDbEntity
  8
AM_VIS
100
AcDbCircle
 10
1213.379938732477
 20
804.6698293538137
 30
0.0
 40
0.2559055118110236
  0
CIRCLE
  5
D474
330
2
100
AcDbEntity
  8
AM_VIS
100
AcDbCircle
 10
1213.379938732477
 20
804.6698293538137
 30
0.0
 40
0.1845238095238135
  0
LINE
  5
D475
330
2
100
AcDbEntity
  8
AM_VIS
100
AcDbLine
 10
1211.033688732477
 20
804.7600403333746
 30
0.0
 11
1211.111813732477
 21
804.8051458231549
 31
0.0
  0
LINE
  5
D476
330
2
100
AcDbEntity
  8
AM_VIS
100
AcDbLine
 10
1211.111813732477
 20
804.8051458231549
 30
0.0
 11
1211.189938732477
 21
804.8502513129355
 31
0.0
  0
LINE
  5
D477
330
2
100
AcDbEntity
  8
AM_VIS
100
AcDbLine
 10
1211.189938732477
 20
804.8502513129355
 30
0.0
 11
1211.268063732477
 21
804.8051458231549
 31
0.0
  0
LINE
  5
D478
330
2
100
AcDbEntity
  8
AM_VIS
100
AcDbLine
 10
1211.268063732477
 20
804.8051458231549
 30
0.0
 11
1211.346188732477
 21
804.7600403333746
 31
0.0
  0
LINE
  5
D479
330
2
100
AcDbEntity
  8
AM_VIS
100
AcDbLine
 10
1211.346188732477
 20
804.7600403333746
 30
0.0
 11
1211.346188732477
 21
804.6698293538137
 31
0.0
  0
LINE
  5
D47A
330
2
100
AcDbEntity
  8
AM_VIS
100
AcDbLine
 10
1211.346188732477
 20
804.6698293538137
 30
0.0
 11
1211.346188732477
 21
804.5796183742528
 31
0.0
  0
LINE
  5
D47B
330
2
100
AcDbEntity
  8
AM_VIS
100
AcDbLine
 10
1211.268063732477
 20
804.5345128844722
 30
0.0
 11
1211.346188732477
 21
804.5796183742528
 31
0.0
  0
LINE
  5
D47C
330
2
100
AcDbEntity
  8
AM_VIS
100
AcDbLine
 10
1211.189938732477
 20
804.4894073946919
 30
0.0
 11
1211.268063732477
 21
804.5345128844722
 31
0.0
  0
LINE
  5
D47D
330
2
100
AcDbEntity
  8
AM_VIS
100
AcDbLine
 10
1211.111813732477
 20
804.5345128844722
 30
0.0
 11
1211.189938732477
 21
804.4894073946919
 31
0.0
  0
LINE
  5
D47E
330
2
100
AcDbEntity
  8
AM_VIS
100
AcDbLine
 10
1211.033688732477
 20
804.5796183742528
 30
0.0
 11
1211.111813732477
 21
804.5345128844722
 31
0.0
  0
LINE
  5
D47F
330
2
100
AcDbEntity
  8
AM_VIS
100
AcDbLine
 10
1211.033688732477
 20
804.6698293538137
 30
0.0
 11
1211.033688732477
 21
804.5796183742528
 31
0.0
  0
LINE
  5
D480
330
2
100
AcDbEntity
  8
AM_VIS
100
AcDbLine
 10
1211.033688732477
 20
804.7600403333746
 30
0.0
 11
1211.033688732477
 21
804.6698293538137
 31
0.0
  0
ARC
  5
D481
330
2
100
AcDbEntity
  8
AM_VIS
100
AcDbCircle
 10
1211.189938732477
 20
804.6698293538137
 30
0.0
 40
0.1581850393700788
100
AcDbArc
 50
308.971055512305
 51
351.028944487684
  0
ARC
  5
D482
330
2
100
AcDbEntity
  8
AM_VIS
100
AcDbCircle
 10
1211.189938732477
 20
804.6698293538137
 30
0.0
 40
0.1581850393700788
100
AcDbArc
 50
8.971055512315937
 51
51.02894448767664
  0
ARC
  5
D483
330
2
100
AcDbEntity
  8
AM_VIS
100
AcDbCircle
 10
1211.189938732477
 20
804.6698293538137
 30
0.0
 40
0.1581850393700788
100
AcDbArc
 50
68.97105551232922
 51
111.0289444876829
  0
ARC
  5
D484
330
2
100
AcDbEntity
  8
AM_VIS
100
AcDbCircle
 10
1211.189938732477
 20
804.6698293538137
 30
0.0
 40
0.1581850393700788
100
AcDbArc
 50
128.9710555123233
 51
171.0289444876969
  0
ARC
  5
D485
330
2
100
AcDbEntity
  8
AM_VIS
100
AcDbCircle
 10
1211.189938732477
 20
804.6698293538137
 30
0.0
 40
0.1581850393700788
100
AcDbArc
 50
188.971055512303
 51
231.028944487695
  0
ARC
  5
D486
330
2
100
AcDbEntity
  8
AM_VIS
100
AcDbCircle
 10
1211.189938732477
 20
804.6698293538137
 30
0.0
 40
0.1581850393700788
100
AcDbArc
 50
248.9710555123002
 51
291.0289444876998
  0
CIRCLE
  5
D487
330
2
100
AcDbEntity
  8
AM_VIS
100
AcDbCircle
 10
1211.189938732477
 20
804.6698293538137
 30
0.0
 40
0.1385
  0
CIRCLE
  5
D48F
330
2
100
AcDbEntity
  8
AM_VIS
100
AcDbCircle
 10
1211.189938732477
 20
804.6698293538137
 30
0.0
 40
0.2559055118110236
  0
CIRCLE
  5
D490
330
2
100
AcDbEntity
  8
AM_VIS
100
AcDbCircle
 10
1211.189938732477
 20
804.6698293538137
 30
0.0
 40
0.1845238095238135
  0
CIRCLE
  5
D498
330
2
100
AcDbEntity
  8
AM_VIS
100
AcDbCircle
 10
1211.189938732477
 20
806.8598293538135
 30
0.0
 40
0.1168799212598425
  0
CIRCLE
  5
D49C
330
2
100
AcDbEntity
  8
AM_VIS
100
AcDbCircle
 10
1213.379938732477
 20
806.8598293538135
 30
0.0
 40
0.1168799212598425
  0
CIRCLE
  5
D4A0
330
2
100
AcDbEntity
  8
AM_VIS
100
AcDbCircle
 10
1211.189938732477
 20
804.6698293538137
 30
0.0
 40
0.1168799212598425
  0
CIRCLE
  5
D4A4
330
2
100
AcDbEntity
  8
AM_VIS
100
AcDbCircle
 10
1213.379938732477
 20
804.6698293538137
 30
0.0
 40
0.1168799212598425
  0
ARC
  5
D4B7
330
2
100
AcDbEntity
  8
AM_VIS
100
AcDbCircle
 10
1212.284938732477
 20
805.7648293538134
 30
0.0
 40
0.3719999999999999
100
AcDbArc
 50
277.6639830259453
 51
322.3360169740541
  0
ARC
  5
D4B9
330
2
100
AcDbEntity
  8
AM_VIS
100
AcDbCircle
 10
1212.284938732477
 20
805.7648293538134
 30
0.0
 40
0.3719999999999999
100
AcDbArc
 50
337.6639830259414
 51
22.33601697405856
  0
ARC
  5
D4BB
330
2
100
AcDbEntity
  8
AM_VIS
100
AcDbCircle
 10
1212.284938732477
 20
805.7648293538134
 30
0.0
 40
0.3719999999999999
100
AcDbArc
 50
37.66398302594588
 51
82.33601697405472
  0
ARC
  5
D4BD
330
2
100
AcDbEntity
  8
AM_VIS
100
AcDbCircle
 10
1212.284938732477
 20
805.7648293538134
 30
0.0
 40
0.3719999999999999
100
AcDbArc
 50
97.66398302594529
 51
142.3360169740541
  0
ARC
  5
D4BF
330
2
100
AcDbEntity
  8
AM_VIS
100
AcDbCircle
 10
1212.284938732477
 20
805.7648293538134
 30
0.0
 40
0.3719999999999999
100
AcDbArc
 50
157.6639830259535
 51
202.3360169740465
  0
ARC
  5
D4C1
330
2
100
AcDbEntity
  8
AM_VIS
100
AcDbCircle
 10
1212.284938732477
 20
805.7648293538134
 30
0.0
 40
0.3719999999999999
100
AcDbArc
 50
217.6639830259459
 51
262.3360169740547
  0
LINE
  5
D4ED
330
2
100
AcDbEntity
  8
AM_HID
100
AcDbLine
 10
1213.651542482763
 20
806.1238479336227
 30
0.0
 11
1213.651542482763
 21
806.1249040816644
 31
0.0
  0
LINE
  5
D521
330
2
100
AcDbEntity
  8
AM_VIS
100
AcDbLine
 10
1212.629027945909
 20
805.9634893538138
 30
0.0
 11
1212.629027945909
 21
805.5661693538135
 31
0.0
  0
LINE
  5
D522
330
2
100
AcDbEntity
  8
AM_VIS
100
AcDbLine
 10
1212.284938732477
 20
805.3675093538135
 30
0.0
 11
1212.629027945909
 21
805.5661693538137
 31
0.0
  0
LINE
  5
D523
330
2
100
AcDbEntity
  8
AM_VIS
100
AcDbLine
 10
1211.940849519046
 20
805.5661693538137
 30
0.0
 11
1212.284938732477
 21
805.3675093538135
 31
0.0
  0
LINE
  5
D524
330
2
100
AcDbEntity
  8
AM_VIS
100
AcDbLine
 10
1211.940849519046
 20
805.9634893538138
 30
0.0
 11
1211.940849519046
 21
805.5661693538135
 31
0.0
  0
LINE
  5
D525
330
2
100
AcDbEntity
  8
AM_VIS
100
AcDbLine
 10
1211.940849519046
 20
805.9634893538135
 30
0.0
 11
1212.284938732477
 21
806.1621493538137
 31
0.0
  0
LINE
  5
D526
330
2
100
AcDbEntity
  8
AM_VIS
100
AcDbLine
 10
1212.284938732477
 20
806.1621493538135
 30
0.0
 11
1212.629027945909
 21
805.9634893538135
 31
0.0
  0
CIRCLE
  5
D529
330
2
100
AcDbEntity
  8
AM_VIS
100
AcDbCircle
 10
1212.284938732477
 20
805.7648293538134
 30
0.0
 40
0.3439999999999942
  0
LINE
  5
D52C
330
2
100
AcDbEntity
  8
AM_HID
  6
DASHED
100
AcDbLine
 10
1218.70694180506
 20
807.2017986966146
 30
0.0
 11
1219.291447136084
 21
807.2077767174917
 31
0.0
  0
LINE
  5
D531
330
2
100
AcDbEntity
  8
AM_VIS
100
AcDbLine
 10
1218.245108553555
 20
804.2648293538137
 30
0.0
 11
1218.245108553555
 21
804.4963393000635
 31
0.0
  0
LINE
  5
D532
330
2
100
AcDbEntity
  8
AM_VIS
100
AcDbLine
 10
1218.245108553555
 20
807.0033194075637
 30
0.0
 11
1218.245108553555
 21
804.4963393000635
 31
0.0
  0
LINE
  5
D533
330
2
100
AcDbEntity
  8
AM_VIS
100
AcDbLine
 10
1218.245108553555
 20
807.0033194075637
 30
0.0
 11
1218.245108553555
 21
807.2533098883299
 31
0.0
  0
LINE
  5
D534
330
2
100
AcDbEntity
  8
AM_VIS
100
AcDbLine
 10
1219.545108553555
 20
804.4849943719356
 30
0.0
 11
1219.545108553555
 21
807.0146643356917
 31
0.0
  0
CIRCLE
  5
D535
330
2
100
AcDbEntity
  8
AM_VIS
100
AcDbCircle
 10
1219.269661180809
 20
806.2372702986955
 30
0.0
 40
0.2165354330703316
  0
LINE
  5
D536
330
2
100
AcDbEntity
  8
AM_VIS
100
AcDbLine
 10
1218.245108553555
 20
804.2648293538137
 30
0.0
 11
1219.545108553555
 21
804.2648293538137
 31
0.0
  0
LINE
  5
D537
330
2
100
AcDbEntity
  8
AM_VIS
100
AcDbLine
 10
1219.545108553555
 20
804.4849943719356
 30
0.0
 11
1219.545108553555
 21
804.2648293538137
 31
0.0
  0
LINE
  5
D539
330
2
100
AcDbEntity
  8
AM_HID
  6
DASHED
100
AcDbLine
 10
1218.245108553555
 20
804.3946335928737
 30
0.0
 11
1218.815659734657
 21
804.3946335928737
 31
0.0
  0
LINE
  5
D542
330
2
100
AcDbEntity
  8
AM_VIS
100
AcDbLine
 10
1219.545108553555
 20
807.2646548164579
 30
0.0
 11
1219.545108553555
 21
807.0146643356917
 31
0.0
  0
LINE
  5
D543
330
2
100
AcDbEntity
  8
AM_VIS
100
AcDbLine
 10
1219.545108553555
 20
807.2646548164579
 30
0.0
 11
1218.245108553555
 21
807.2533098883299
 31
0.0
  0
CIRCLE
  5
D545
330
2
100
AcDbEntity
  8
AM_VIS
100
AcDbCircle
 10
1219.269832963004
 20
806.2372702986955
 30
0.0
 40
0.1968503937000001
  0
LINE
  5
D54A
330
2
100
AcDbEntity
  8
AM_HID
  6
DASHED
100
AcDbLine
 10
1218.855029813397
 20
804.4340036716137
 30
0.0
 11
1218.855029813397
 21
804.6698293538137
 31
0.0
  0
LINE
  5
D552
330
2
100
AcDbEntity
  8
AM_HID
  6
DASHED
100
AcDbLine
 10
1219.182608553555
 20
805.0350174831674
 30
0.0
 11
1219.343108553555
 21
804.9385793538137
 31
0.0
  0
LINE
  5
D553
330
2
100
AcDbEntity
  8
AM_HID
  6
DASHED
100
AcDbLine
 10
1219.182608553555
 20
805.0350174831674
 30
0.0
 11
1219.022108553555
 21
804.9385793538137
 31
0.0
  0
LINE
  5
D554
330
2
100
AcDbEntity
  8
AM_HID
100
AcDbLine
 10
1219.343108553555
 20
804.3073929848807
 30
0.0
 11
1219.380108553555
 21
804.2648293538137
 31
0.0
  0
LINE
  5
D555
330
2
100
AcDbEntity
  8
AM_HID
  6
DASHED
100
AcDbLine
 10
1219.022108553555
 20
804.3073929848807
 30
0.0
 11
1218.985108553555
 21
804.2648293538137
 31
0.0
  0
LINE
  5
D556
330
2
100
AcDbEntity
  8
AM_HID
  6
DASHED
100
AcDbLine
 10
1219.022108553555
 20
804.3073929848807
 30
0.0
 11
1219.022108553555
 21
804.9385793538137
 31
0.0
  0
LINE
  5
D557
330
2
100
AcDbEntity
  8
AM_HID
  6
DASHED
100
AcDbLine
 10
1219.343108553555
 20
804.3073929848807
 30
0.0
 11
1219.343108553555
 21
804.9385793538137
 31
0.0
  0
LINE
  5
D558
330
2
100
AcDbEntity
  8
AM_HID
  6
DASHED
100
AcDbLine
 10
1218.725333289192
 20
806.6643259270048
 30
0.0
 11
1218.708769970855
 21
806.6742781727135
 31
0.0
  0
LINE
  5
D559
330
2
100
AcDbEntity
  8
AM_HID
  6
DASHED
100
AcDbLine
 10
1219.274883817919
 20
806.6643259270048
 30
0.0
 11
1219.291447136255
 21
806.6742781727135
 31
0.0
  0
LINE
  5
D55A
330
2
100
AcDbEntity
  8
AM_HID
  6
DASHED
100
AcDbLine
 10
1219.291447136255
 20
807.2077767008272
 30
0.0
 11
1219.291447136255
 21
806.6742781727135
 31
0.0
  0
LINE
  5
D55B
330
2
100
AcDbEntity
  8
AM_HID
  6
DASHED
100
AcDbLine
 10
1218.708769970855
 20
807.2018173778593
 30
0.0
 11
1218.708769970855
 21
806.6742781727135
 31
0.0
  0
LINE
  5
D55E
330
2
100
AcDbEntity
  8
AM_HID
100
AcDbLine
 10
1218.728297529933
 20
806.2766403774357
 30
0.0
 11
1218.735485192586
 21
806.2766403774357
 31
0.0
  0
LINE
  5
D567
330
2
100
AcDbEntity
  8
AM_VIS
100
AcDbLine
 10
1217.630233755355
 20
806.3273293538138
 30
0.0
 11
1218.245108553555
 21
806.3273293538138
 31
0.0
  0
LINE
  5
D568
330
2
100
AcDbEntity
  8
AM_VIS
100
AcDbLine
 10
1217.630233755355
 20
805.2023293538137
 30
0.0
 11
1218.245108553555
 21
805.2023293538137
 31
0.0
  0
LINE
  5
D57E
330
2
100
AcDbEntity
  8
AM_HID
  6
DASHED
100
AcDbLine
 10
1218.65177291546
 20
807.2568587944514
 30
0.0
 11
1218.70876997085
 21
807.2018173778641
 31
0.0
  0
LINE
  5
D57F
330
2
100
AcDbEntity
  8
AM_HID
  6
DASHED
100
AcDbLine
 10
1219.291447136255
 20
807.2077767008272
 30
0.0
 11
1219.347572503351
 21
807.2629309454638
 31
0.0
  0
LINE
  5
D580
330
2
100
AcDbEntity
  8
AM_HID
  6
DASHED
100
AcDbLine
 10
1218.735485192586
 20
806.2766403774357
 30
0.0
 11
1218.725333289192
 21
806.6643259270048
 31
0.0
  0
LINE
  5
D581
330
2
100
AcDbEntity
  8
AM_HID
  6
DASHED
100
AcDbLine
 10
1219.264983377642
 20
806.2862433664777
 30
0.0
 11
1219.274883817919
 21
806.6643259270048
 31
0.0
  0
LINE
  5
D58B
330
2
100
AcDbEntity
  8
AM_HID
  6
DASHED
100
AcDbLine
 10
1219.545108553555
 20
804.5068352404653
 30
0.0
 11
1219.071565246468
 21
804.498569511294
 31
0.0
  0
LINE
  5
D58C
330
2
100
AcDbEntity
  8
AM_HID
  6
DASHED
100
AcDbLine
 10
1219.545108553555
 20
804.8328234671618
 30
0.0
 11
1219.071565246468
 21
804.8410891963333
 31
0.0
  0
LINE
  5
D58D
330
2
100
AcDbEntity
  8
AM_HID
  6
DASHED
100
AcDbLine
 10
1219.071565246468
 20
804.4050767512922
 30
0.0
 11
1218.245108553555
 21
804.3906508960571
 31
0.0
  0
LINE
  5
D58E
330
2
100
AcDbEntity
  8
AM_HID
  6
DASHED
100
AcDbLine
 10
1219.071565246468
 20
804.9345819563351
 30
0.0
 11
1218.245108553555
 21
804.9490078115701
 31
0.0
  0
LINE
  5
D58F
330
2
100
AcDbEntity
  8
AM_VIS
100
AcDbLine
 10
1217.620108553555
 20
806.3168444004169
 30
0.0
 11
1217.630233755355
 21
806.3273293538138
 31
0.0
  0
LINE
  5
D590
330
2
100
AcDbEntity
  8
AM_VIS
100
AcDbLine
 10
1217.620108553555
 20
805.2128143072103
 30
0.0
 11
1217.630233755355
 21
805.2023293538137
 31
0.0
  0
LINE
  5
D594
330
2
100
AcDbEntity
  8
AM_HID
  6
DASHED
100
AcDbLine
 10
1219.343108553555
 20
804.9385793538137
 30
0.0
 11
1219.022108553555
 21
804.9385793538137
 31
0.0
  0
LINE
  5
D595
330
2
100
AcDbEntity
  8
AM_HID
  6
DASHED
100
AcDbLine
 10
1219.343108553555
 20
804.3073929848807
 30
0.0
 11
1219.022108553555
 21
804.3073929848807
 31
0.0
  0
LINE
  5
D596
330
2
100
AcDbEntity
  8
AM_HID
  6
DASHED
100
AcDbLine
 10
1219.274883817919
 20
806.6643259270048
 30
0.0
 11
1218.725333289192
 21
806.6643259270048
 31
0.0
  0
LINE
  5
D597
330
2
100
AcDbEntity
  8
AM_HID
  6
DASHED
100
AcDbLine
 10
1218.708769970855
 20
806.6742781727135
 30
0.0
 11
1219.291447136255
 21
806.6742781727135
 31
0.0
  0
LINE
  5
D59C
330
2
100
AcDbEntity
  8
AM_VIS
100
AcDbLine
 10
1217.630233755355
 20
806.3273293538138
 30
0.0
 11
1217.630233755355
 21
805.2023293538137
 31
0.0
  0
LINE
  5
D59D
330
2
100
AcDbEntity
  8
AM_VIS
100
AcDbLine
 10
1217.620108553555
 20
805.2128143072103
 30
0.0
 11
1217.620108553555
 21
805.7648293538138
 31
0.0
  0
LINE
  5
D59E
330
2
100
AcDbEntity
  8
AM_VIS
100
AcDbLine
 10
1217.620108553555
 20
805.7648293538138
 30
0.0
 11
1217.620108553555
 21
806.3168444004169
 31
0.0
  0
LINE
  5
D5B7
330
2
100
AcDbEntity
  8
AM_HID
  6
DASHED
100
AcDbLine
 10
1218.855029813397
 20
804.6698293538137
 30
0.0
 11
1218.855029813397
 21
804.9134822422203
 31
0.0
  0
ARC
  5
D5B8
330
2
100
AcDbEntity
  8
AM_HID
  6
DASHED
100
AcDbCircle
 10
1218.815659734657
 20
804.4340036716137
 30
0.0
 40
0.0393700787401575
100
AcDbArc
 50
270.0
 51
0.0
  0
LINE
  5
D5BE
330
2
100
AcDbEntity
  8
AM_HID
  6
DASHED
100
AcDbLine
 10
1219.071565246468
 20
804.9345819563351
 30
0.0
 11
1219.071565246468
 21
804.6698293538137
 31
0.0
  0
LINE
  5
D5BF
330
2
100
AcDbEntity
  8
AM_HID
  6
DASHED
100
AcDbLine
 10
1219.071565246468
 20
804.6698293538137
 30
0.0
 11
1219.071565246468
 21
804.4050767512922
 31
0.0
  0
LINE
  5
D5CA
330
2
100
AcDbEntity
  8
AM_HID
  6
DASHED
100
AcDbLine
 10
1221.189031896257
 20
807.2091335052132
 30
0.0
 11
1221.775646476997
 21
807.2031337136916
 31
0.0
  0
LINE
  5
D5CF
330
2
100
AcDbEntity
  8
AM_VIS
100
AcDbLine
 10
1221.995108553555
 20
804.4942448517938
 30
0.0
 11
1221.995108553555
 21
807.0054138558335
 31
0.0
  0
LINE
  5
D5D0
330
2
100
AcDbEntity
  8
AM_VIS
100
AcDbLine
 10
1221.995108553555
 20
804.4942448517938
 30
0.0
 11
1221.995108553555
 21
804.2648293538137
 31
0.0
  0
LINE
  5
D5D1
330
2
100
AcDbEntity
  8
AM_VIS
100
AcDbLine
 10
1221.995108553555
 20
807.2554043365995
 30
0.0
 11
1221.995108553555
 21
807.0054138558335
 31
0.0
  0
LINE
  5
D5D3
330
2
100
AcDbEntity
  8
AM_VIS
100
AcDbLine
 10
1220.935108553555
 20
804.2648293538137
 30
0.0
 11
1221.995108553555
 21
804.2648293538137
 31
0.0
  0
LINE
  5
D5D4
330
2
100
AcDbEntity
  8
AM_VIS
100
AcDbLine
 10
1220.935108553555
 20
804.2648293538137
 30
0.0
 11
1220.935108553555
 21
804.4849943719356
 31
0.0
  0
LINE
  5
D5DD
330
2
100
AcDbEntity
  8
AM_VIS
100
AcDbLine
 10
1220.935108553555
 20
807.0146643356917
 30
0.0
 11
1220.935108553555
 21
804.4849943719356
 31
0.0
  0
LINE
  5
D5DE
330
2
100
AcDbEntity
  8
AM_VIS
100
AcDbLine
 10
1220.935108553555
 20
807.0146643356917
 30
0.0
 11
1220.935108553555
 21
807.2646548164579
 31
0.0
  0
CIRCLE
  5
D5DF
330
2
100
AcDbEntity
  8
AM_VIS
100
AcDbCircle
 10
1221.210384144106
 20
806.2372702986955
 30
0.0
 40
0.1968503937000001
  0
CIRCLE
  5
D5E0
330
2
100
AcDbEntity
  8
AM_VIS
100
AcDbCircle
 10
1221.210555926301
 20
806.2372702986955
 30
0.0
 40
0.2165354330702182
  0
LINE
  5
D5E1
330
2
100
AcDbEntity
  8
AM_VIS
100
AcDbLine
 10
1221.995108553555
 20
807.2554043365995
 30
0.0
 11
1220.935108553555
 21
807.2646548164579
 31
0.0
  0
LINE
  5
D5F1
330
2
100
AcDbEntity
  8
AM_HID
  6
DASHED
100
AcDbLine
 10
1221.557608553555
 20
805.0612674831675
 30
0.0
 11
1221.718108553555
 21
804.9648293538135
 31
0.0
  0
LINE
  5
D5F2
330
2
100
AcDbEntity
  8
AM_HID
  6
DASHED
100
AcDbLine
 10
1221.557608553555
 20
805.0612674831675
 30
0.0
 11
1221.397108553555
 21
804.9648293538135
 31
0.0
  0
LINE
  5
D5F3
330
2
100
AcDbEntity
  8
AM_HID
  6
DASHED
100
AcDbLine
 10
1221.718108553555
 20
804.2958893008087
 30
0.0
 11
1221.745108553555
 21
804.2648293538137
 31
0.0
  0
LINE
  5
D5F4
330
2
100
AcDbEntity
  8
AM_HID
100
AcDbLine
 10
1221.397108553555
 20
804.2958893008087
 30
0.0
 11
1221.370108553555
 21
804.2648293538137
 31
0.0
  0
LINE
  5
D5F5
330
2
100
AcDbEntity
  8
AM_HID
  6
DASHED
100
AcDbLine
 10
1221.397108553555
 20
804.2958893008087
 30
0.0
 11
1221.397108553555
 21
804.9648293538135
 31
0.0
  0
LINE
  5
D5F6
330
2
100
AcDbEntity
  8
AM_HID
  6
DASHED
100
AcDbLine
 10
1221.718108553555
 20
804.2958893008087
 30
0.0
 11
1221.718108553555
 21
804.9648293538135
 31
0.0
  0
LINE
  5
D5F9
330
2
100
AcDbEntity
  8
AM_HID
  6
DASHED
100
AcDbLine
 10
1221.219435192586
 20
806.2766403774357
 30
0.0
 11
1221.209305524291
 21
806.6634768028258
 31
0.0
  0
LINE
  5
D5FA
330
2
100
AcDbEntity
  8
AM_HID
  6
DASHED
100
AcDbLine
 10
1221.745781914524
 20
806.2766403774357
 30
0.0
 11
1221.75591158282
 21
806.6634768028258
 31
0.0
  0
LINE
  5
D5FB
330
2
100
AcDbEntity
  8
AM_HID
  6
DASHED
100
AcDbLine
 10
1221.209305524291
 20
806.6634768028258
 30
0.0
 11
1221.191329026005
 21
806.6742781727135
 31
0.0
  0
LINE
  5
D5FC
330
2
100
AcDbEntity
  8
AM_HID
  6
DASHED
100
AcDbLine
 10
1221.75591158282
 20
806.6634768028258
 30
0.0
 11
1221.773888081105
 21
806.6742781727135
 31
0.0
  0
LINE
  5
D5FD
330
2
100
AcDbEntity
  8
AM_HID
  6
DASHED
100
AcDbLine
 10
1221.773888081105
 20
807.203151668231
 30
0.0
 11
1221.773888081105
 21
806.6742781727135
 31
0.0
  0
LINE
  5
D5FE
330
2
100
AcDbEntity
  8
AM_HID
  6
DASHED
100
AcDbLine
 10
1221.191329026005
 20
807.2091099867598
 30
0.0
 11
1221.191329026005
 21
806.6742781727135
 31
0.0
  0
LINE
  5
D600
330
2
100
AcDbEntity
  8
AM_HID
100
AcDbLine
 10
1221.751919577177
 20
806.2766403774357
 30
0.0
 11
1221.745781914524
 21
806.2766403774357
 31
0.0
  0
LINE
  5
D606
330
2
100
AcDbEntity
  8
AM_VIS
100
AcDbLine
 10
1222.101755920842
 20
805.2023293538137
 30
0.0
 11
1221.995108553555
 21
805.2023293538137
 31
0.0
  0
LINE
  5
D607
330
2
100
AcDbEntity
  8
AM_VIS
100
AcDbLine
 10
1222.101755920842
 20
806.3273293538138
 30
0.0
 11
1221.995108553555
 21
806.3273293538138
 31
0.0
  0
LINE
  5
D61B
330
2
100
AcDbEntity
  8
AM_HID
  6
DASHED
100
AcDbLine
 10
1221.136595506623
 20
807.262896466457
 30
0.0
 11
1221.191329026005
 21
807.2091099867598
 31
0.0
  0
LINE
  5
D61C
330
2
100
AcDbEntity
  8
AM_HID
  6
DASHED
100
AcDbLine
 10
1221.773888081105
 20
807.203151668231
 30
0.0
 11
1221.829493951758
 21
807.2568496333337
 31
0.0
  0
LINE
  5
D61D
330
2
100
AcDbEntity
  8
AM_VIS
100
AcDbLine
 10
1222.120108553555
 20
805.2211688582726
 30
0.0
 11
1222.101755920842
 21
805.2023293538136
 31
0.0
  0
LINE
  5
D61E
330
2
100
AcDbEntity
  8
AM_VIS
100
AcDbLine
 10
1222.120108553555
 20
806.3084898493547
 30
0.0
 11
1222.101755920842
 21
806.3273293538138
 31
0.0
  0
LINE
  5
D624
330
2
100
AcDbEntity
  8
AM_HID
  6
DASHED
100
AcDbLine
 10
1220.935108553555
 20
804.8370126827446
 30
0.0
 11
1221.168651860642
 21
804.8410891963333
 31
0.0
  0
LINE
  5
D625
330
2
100
AcDbEntity
  8
AM_HID
  6
DASHED
100
AcDbLine
 10
1220.935108553555
 20
804.5026460248827
 30
0.0
 11
1221.168651860642
 21
804.498569511294
 31
0.0
  0
LINE
  5
D626
330
2
100
AcDbEntity
  8
AM_HID
  6
DASHED
100
AcDbLine
 10
1221.168651860642
 20
804.9345819563351
 30
0.0
 11
1221.995108553555
 21
804.9490078115701
 31
0.0
  0
LINE
  5
D627
330
2
100
AcDbEntity
  8
AM_HID
  6
DASHED
100
AcDbLine
 10
1221.168651860642
 20
804.4050767512922
 30
0.0
 11
1221.995108553555
 21
804.3906508960571
 31
0.0
  0
LINE
  5
D628
330
2
100
AcDbEntity
  8
AM_HID
  6
DASHED
100
AcDbLine
 10
1221.718108553555
 20
804.9648293538135
 30
0.0
 11
1221.397108553555
 21
804.9648293538135
 31
0.0
  0
LINE
  5
D629
330
2
100
AcDbEntity
  8
AM_HID
  6
DASHED
100
AcDbLine
 10
1221.718108553555
 20
804.2958893008087
 30
0.0
 11
1221.397108553555
 21
804.2958893008087
 31
0.0
  0
LINE
  5
D62B
330
2
100
AcDbEntity
  8
AM_HID
  6
DASHED
100
AcDbLine
 10
1221.75591158282
 20
806.6634768028258
 30
0.0
 11
1221.482608553555
 21
806.6634768028258
 31
0.0
  0
LINE
  5
D62C
330
2
100
AcDbEntity
  8
AM_HID
  6
DASHED
100
AcDbLine
 10
1221.482608553555
 20
806.6634768028258
 30
0.0
 11
1221.209305524291
 21
806.6634768028258
 31
0.0
  0
LINE
  5
D62D
330
2
100
AcDbEntity
  8
AM_HID
  6
DASHED
100
AcDbLine
 10
1221.191329026005
 20
806.6742781727135
 30
0.0
 11
1221.773888081105
 21
806.6742781727135
 31
0.0
  0
LINE
  5
D631
330
2
100
AcDbEntity
  8
AM_VIS
100
AcDbLine
 10
1222.101755920842
 20
805.2023293538137
 30
0.0
 11
1222.101755920842
 21
806.3273293538138
 31
0.0
  0
LINE
  5
D632
330
2
100
AcDbEntity
  8
AM_VIS
100
AcDbLine
 10
1222.120108553555
 20
806.3084898493547
 30
0.0
 11
1222.120108553555
 21
805.2211688582726
 31
0.0
  0
LINE
  5
D645
330
2
100
AcDbEntity
  8
AM_HID
  6
DASHED
100
AcDbLine
 10
1221.168651860642
 20
804.4050767512922
 30
0.0
 11
1221.168651860642
 21
804.9345819563351
 31
0.0
  0
LINE
  5
D694
330
2
100
AcDbEntity
  8
AM_VIS
100
AcDbLine
 10
1217.323888081114
 20
805.9523293538138
 30
0.0
 11
1217.519793592925
 21
805.9523293538138
 31
0.0
  0
ARC
  5
D695
330
2
100
AcDbEntity
  8
AM_VIS
100
AcDbCircle
 10
1217.269793592925
 20
805.7648293538138
 30
0.0
 40
0.3125000000000142
100
AcDbArc
 50
7.25224686508531
 51
36.86989764585184
  0
ARC
  5
D696
330
2
100
AcDbEntity
  8
AM_VIS
100
AcDbCircle
 10
1217.269793592925
 20
805.7648293538138
 30
0.0
 40
0.3125000000000142
100
AcDbArc
 50
323.1301023541482
 51
352.7477531349147
  0
LINE
  5
D697
330
2
100
AcDbEntity
  8
AM_VIS
100
AcDbLine
 10
1217.519793592925
 20
805.5773293538134
 30
0.0
 11
1217.323888081114
 21
805.5773293538134
 31
0.0
  0
LINE
  5
D698
330
2
100
AcDbEntity
  8
AM_VIS
100
AcDbLine
 10
1217.519793592925
 20
805.9523293538138
 30
0.0
 11
1217.519793592925
 21
805.5773293538134
 31
0.0
  0
SPLINE
  5
D699
330
2
100
AcDbEntity
  8
AM_VIS
100
AcDbSpline
210
0.0
220
0.0
230
1.0
 70
     8
 71
     3
 72
    23
 73
    19
 74
     0
 42
0.0000000001
 43
0.0000000001
 40
-0.2097659233626445
 40
-0.2097659233626445
 40
-0.2097659233626445
 40
-0.2097659233626445
 40
-0.1901580264003253
 40
-0.1901580264003253
 40
-0.1662772757906106
 40
-0.1662772757906106
 40
-0.1308350781962577
 40
-0.1308350781962577
 40
0.0
 40
0.0
 40
0.0
 40
0.1308350781962577
 40
0.1308350781962577
 40
0.1662772757906105
 40
0.1662772757906105
 40
0.1901580264003252
 40
0.1901580264003252
 40
0.2097659233626445
 40
0.2097659233626445
 40
0.2097659233626445
 40
0.2097659233626445
 10
1217.323888081114
 20
805.5773293538132
 30
0.0
 10
1217.31735211546
 20
805.5773293538132
 30
0.0
 10
1217.309702364444
 20
805.5790603792678
 30
0.0
 10
1217.29647321157
 20
805.5849874180236
 30
0.0
 10
1217.288885454693
 20
805.5907902092069
 30
0.0
 10
1217.275396436502
 20
805.6052494610623
 30
0.0
 10
1217.268349052155
 20
805.6175506103221
 30
0.0
 10
1217.247454889904
 20
805.6688872317524
 30
0.0
 10
1217.246840889828
 20
805.7212176610814
 30
0.0
 10
1217.246840889828
 20
805.7648293538134
 30
0.0
 10
1217.246840889828
 20
805.8084410465454
 30
0.0
 10
1217.247454889904
 20
805.8607714758748
 30
0.0
 10
1217.268349052155
 20
805.9121080973049
 30
0.0
 10
1217.275396436502
 20
805.9244092465645
 30
0.0
 10
1217.288885454693
 20
805.9388684984202
 30
0.0
 10
1217.29647321157
 20
805.9446712896034
 30
0.0
 10
1217.309702364444
 20
805.9505983283592
 30
0.0
 10
1217.31735211546
 20
805.9523293538136
 30
0.0
 10
1217.323888081114
 20
805.9523293538136
 30
0.0
  0
LINE
  5
D69D
330
2
100
AcDbEntity
  8
AM_VIS
100
AcDbLine
 10
1217.620108553555
 20
805.4523293538135
 30
0.0
 11
1217.323888081114
 21
805.4523293538135
 31
0.0
  0
LINE
  5
D69F
330
2
100
AcDbEntity
  8
AM_VIS
100
AcDbLine
 10
1217.620108553555
 20
806.0773293538137
 30
0.0
 11
1217.323888081114
 21
806.0773293538137
 31
0.0
  0
LINE
  5
D6A6
330
2
100
AcDbEntity
  8
AM_VIS
100
AcDbLine
 10
1216.495147923634
 20
805.9444592750734
 30
0.0
 11
1216.534518002374
 21
805.9838293538135
 31
0.0
  0
LINE
  5
D6A7
330
2
100
AcDbEntity
  8
AM_VIS
100
AcDbLine
 10
1216.495147923634
 20
805.5851994325538
 30
0.0
 11
1216.534518002374
 21
805.5458293538137
 31
0.0
  0
LINE
  5
D6A8
330
2
100
AcDbEntity
  8
AM_VIS
100
AcDbLine
 10
1217.245147923634
 20
805.5458293538137
 30
0.0
 11
1217.025147923634
 21
805.5458293538137
 31
0.0
  0
LINE
  5
D6AA
330
2
100
AcDbEntity
  8
AM_VIS
100
AcDbLine
 10
1216.770147923634
 20
805.5458293538137
 30
0.0
 11
1216.534518002374
 21
805.5458293538137
 31
0.0
  0
LINE
  5
D6AB
330
2
100
AcDbEntity
  8
AM_VIS
100
AcDbLine
 10
1217.245147923634
 20
805.9838293538135
 30
0.0
 11
1217.025147923634
 21
805.9838293538135
 31
0.0
  0
LINE
  5
D6AD
330
2
100
AcDbEntity
  8
AM_VIS
100
AcDbLine
 10
1216.770147923634
 20
805.9838293538135
 30
0.0
 11
1216.534518002374
 21
805.9838293538135
 31
0.0
  0
LINE
  5
D6B0
330
2
100
AcDbEntity
  8
AM_VIS
100
AcDbLine
 10
1217.579793592925
 20
805.7253800192182
 30
0.0
 11
1217.579793592925
 21
805.804278688409
 31
0.0
  0
LINE
  5
D6B3
330
2
100
AcDbEntity
  8
AM_VIS
100
AcDbLine
 10
1217.245147923634
 20
805.531069511294
 30
0.0
 11
1217.245147923634
 21
805.7648293538138
 31
0.0
  0
LINE
  5
D6B4
330
2
100
AcDbEntity
  8
AM_VIS
100
AcDbLine
 10
1217.245147923634
 20
805.7648293538138
 30
0.0
 11
1217.245147923634
 21
805.9985891963334
 31
0.0
  0
LINE
  5
D6B5
330
2
100
AcDbEntity
  8
AM_VIS
100
AcDbLine
 10
1216.534518002374
 20
805.9838293538135
 30
0.0
 11
1216.534518002374
 21
805.7648293538138
 31
0.0
  0
LINE
  5
D6B6
330
2
100
AcDbEntity
  8
AM_VIS
100
AcDbLine
 10
1216.534518002374
 20
805.7648293538138
 30
0.0
 11
1216.534518002374
 21
805.5458293538137
 31
0.0
  0
LINE
  5
D6B7
330
2
100
AcDbEntity
  8
AM_VIS
100
AcDbLine
 10
1216.495147923634
 20
805.5851994325538
 30
0.0
 11
1216.495147923634
 21
805.7648293538138
 31
0.0
  0
LINE
  5
D6B8
330
2
100
AcDbEntity
  8
AM_VIS
100
AcDbLine
 10
1216.495147923634
 20
805.7648293538138
 30
0.0
 11
1216.495147923634
 21
805.9444592750734
 31
0.0
  0
ARC
  5
D6B9
330
2
100
AcDbEntity
  8
AM_VIS
100
AcDbCircle
 10
1217.323888081114
 20
805.531069511294
 30
0.0
 40
0.078740157480315
100
AcDbArc
 50
180.0
 51
270.0
  0
ARC
  5
D6BA
330
2
100
AcDbEntity
  8
AM_VIS
100
AcDbCircle
 10
1217.323888081114
 20
805.9985891963334
 30
0.0
 40
0.078740157480315
100
AcDbArc
 50
90.0
 51
180.0
  0
LINE
  5
D6E9
330
2
100
AcDbEntity
  8
AM_VIS
100
AcDbLine
 10
1220.935108553555
 20
804.4262466766483
 30
0.0
 11
1219.545108553555
 21
804.4262466766483
 31
0.0
  0
LINE
  5
D6EA
330
2
100
AcDbEntity
  8
AM_VIS
100
AcDbLine
 10
1220.935108553555
 20
807.1034120309789
 30
0.0
 11
1219.545108553555
 21
807.1034120309789
 31
0.0
  0
SPLINE
  5
D714
330
2
100
AcDbEntity
  8
AM_HID
  6
DASHED
100
AcDbSpline
210
0.0
220
0.0
230
1.0
 70
    12
 71
     2
 72
     6
 73
     3
 74
     0
 42
0.0000000001
 43
0.0000000001
 40
0.0984194701837498
 40
0.0984194701837498
 40
0.0984194701837498
 40
0.1570806274573237
 40
0.1570806274573237
 40
0.1570806274573237
 10
1218.444163671665
 20
804.5468462151305
 30
0.0
 41
1.125208942422632
 10
1218.448010079536
 20
804.5345128844722
 30
0.0
 41
1.139143813482783
 10
1218.444163671665
 20
804.5221795538136
 30
0.0
 41
1.125208942422632
  0
SPLINE
  5
D715
330
2
100
AcDbEntity
  8
AM_HID
100
AcDbSpline
210
0.0
220
0.0
230
1.0
 70
    12
 71
     2
 72
     6
 73
     3
 74
     0
 42
0.0000000001
 43
0.0000000001
 40
0.0984194701837214
 40
0.0984194701837214
 40
0.0984194701837214
 40
0.1570806274573662
 40
0.1570806274573662
 40
0.1570806274573662
 10
1218.444163671665
 20
804.69449601513
 30
0.0
 41
1.125208942422661
 10
1218.448010079536
 20
804.6698293538137
 30
0.0
 41
1.139143813482849
 10
1218.444163671665
 20
804.6451626924968
 30
0.0
 41
1.125208942422661
  0
SPLINE
  5
D716
330
2
100
AcDbEntity
  8
AM_HID
  6
DASHED
100
AcDbSpline
210
0.0
220
0.0
230
1.0
 70
    12
 71
     2
 72
     6
 73
     3
 74
     0
 42
0.0000000001
 43
0.0000000001
 40
0.0984194701837074
 40
0.0984194701837074
 40
0.0984194701837074
 40
0.1570806274573873
 40
0.1570806274573873
 40
0.1570806274573873
 10
1218.444163671665
 20
804.8174791538132
 30
0.0
 41
1.125208942422646
 10
1218.448010079536
 20
804.8051458231549
 30
0.0
 41
1.139143813482849
 10
1218.444163671665
 20
804.7928124924965
 30
0.0
 41
1.125208942422646
  0
LINE
  5
D717
330
2
100
AcDbEntity
  8
AM_HID
  6
DASHED
100
AcDbLine
 10
1218.444163671665
 20
804.8174791538132
 30
0.0
 11
1218.444163671665
 21
804.8502513129355
 31
0.0
  0
LINE
  5
D718
330
2
100
AcDbEntity
  8
AM_HID
  6
DASHED
100
AcDbLine
 10
1218.444163671665
 20
804.6944960151304
 30
0.0
 11
1218.444163671665
 21
804.7600403333746
 31
0.0
  0
LINE
  5
D719
330
2
100
AcDbEntity
  8
AM_HID
  6
DASHED
100
AcDbLine
 10
1218.444163671665
 20
804.7600403333746
 30
0.0
 11
1218.444163671665
 21
804.7928124924967
 31
0.0
  0
LINE
  5
D71A
330
2
100
AcDbEntity
  8
AM_HID
  6
DASHED
100
AcDbLine
 10
1218.444163671665
 20
804.5468462151305
 30
0.0
 11
1218.444163671665
 21
804.5796183742528
 31
0.0
  0
LINE
  5
D71B
330
2
100
AcDbEntity
  8
AM_HID
  6
DASHED
100
AcDbLine
 10
1218.444163671665
 20
804.5796183742528
 30
0.0
 11
1218.444163671665
 21
804.6451626924969
 31
0.0
  0
LINE
  5
D71C
330
2
100
AcDbEntity
  8
AM_HID
  6
DASHED
100
AcDbLine
 10
1218.444163671665
 20
804.4894073946919
 30
0.0
 11
1218.444163671665
 21
804.5221795538139
 31
0.0
  0
SPLINE
  5
D71D
330
2
100
AcDbEntity
  8
AM_HID
  6
DASHED
100
AcDbSpline
210
0.0
220
0.0
230
1.0
 70
    12
 71
     2
 72
     6
 73
     3
 74
     0
 42
0.0000000001
 43
0.0000000001
 40
0.0997923579717097
 40
0.0997923579717097
 40
0.0997923579717097
 40
0.1923371106631999
 40
0.1923371106631999
 40
0.1923371106631999
 10
1218.300487563205
 20
804.8051458231549
 30
0.0
 41
1.0
 10
1218.300487563205
 20
804.8260793538137
 30
0.0
 41
1.041044311067417
 10
1218.286531876099
 20
804.8502513129353
 30
0.0
 41
1.005961838594885
  0
SPLINE
  5
D71E
330
2
100
AcDbEntity
  8
AM_HID
  6
DASHED
100
AcDbSpline
210
0.0
220
0.0
230
1.0
 70
    12
 71
     2
 72
     6
 73
     3
 74
     0
 42
0.0000000001
 43
0.0000000001
 40
0.0072476052802198
 40
0.0072476052802198
 40
0.0072476052802198
 40
0.0997923579717097
 40
0.0997923579717097
 40
0.0997923579717097
 10
1218.286531876099
 20
804.7600403333744
 30
0.0
 41
1.005961838594885
 10
1218.300487563205
 20
804.7842122924963
 30
0.0
 41
1.041044311067417
 10
1218.300487563205
 20
804.8051458231549
 30
0.0
 41
1.0
  0
SPLINE
  5
D71F
330
2
100
AcDbEntity
  8
AM_HID
  6
DASHED
100
AcDbSpline
210
0.0
220
0.0
230
1.0
 70
    12
 71
     2
 72
     6
 73
     3
 74
     0
 42
0.0000000001
 43
0.0000000001
 40
0.0997923579717059
 40
0.0997923579717059
 40
0.0997923579717059
 40
0.1923371106631893
 40
0.1923371106631893
 40
0.1923371106631893
 10
1218.300487563205
 20
804.6698293538137
 30
0.0
 41
1.0
 10
1218.300487563205
 20
804.711696415131
 30
0.0
 41
1.041044311066908
 10
1218.286531876099
 20
804.7600403333744
 30
0.0
 41
1.005961838594814
  0
SPLINE
  5
D720
330
2
100
AcDbEntity
  8
AM_HID
  6
DASHED
100
AcDbSpline
210
0.0
220
0.0
230
1.0
 70
    12
 71
     2
 72
     6
 73
     3
 74
     0
 42
0.0000000001
 43
0.0000000001
 40
0.0072476052802151
 40
0.0072476052802151
 40
0.0072476052802151
 40
0.0997923579717059
 40
0.0997923579717059
 40
0.0997923579717059
 10
1218.286531876099
 20
804.5796183742526
 30
0.0
 41
1.005961838594808
 10
1218.300487563204
 20
804.6279622924961
 30
0.0
 41
1.041044311066911
 10
1218.300487563205
 20
804.6698293538137
 30
0.0
 41
1.0
  0
SPLINE
  5
D721
330
2
100
AcDbEntity
  8
AM_HID
  6
DASHED
100
AcDbSpline
210
0.0
220
0.0
230
1.0
 70
    12
 71
     2
 72
     6
 73
     3
 74
     0
 42
0.0000000001
 43
0.0000000001
 40
0.0997923579716984
 40
0.0997923579716984
 40
0.0997923579716984
 40
0.1923371106631797
 40
0.1923371106631797
 40
0.1923371106631797
 10
1218.300487563205
 20
804.5345128844722
 30
0.0
 41
1.0
 10
1218.300487563205
 20
804.555446415131
 30
0.0
 41
1.041044311066541
 10
1218.286531876099
 20
804.5796183742526
 30
0.0
 41
1.005961838594757
  0
SPLINE
  5
D722
330
2
100
AcDbEntity
  8
AM_HID
  6
DASHED
100
AcDbSpline
210
0.0
220
0.0
230
1.0
 70
    12
 71
     2
 72
     6
 73
     3
 74
     0
 42
0.0000000001
 43
0.0000000001
 40
0.00724760528021
 40
0.00724760528021
 40
0.00724760528021
 40
0.0997923579716984
 40
0.0997923579716984
 40
0.0997923579716984
 10
1218.286531876099
 20
804.4894073946919
 30
0.0
 41
1.005961838594751
 10
1218.300487563205
 20
804.5135793538136
 30
0.0
 41
1.041044311066543
 10
1218.300487563205
 20
804.5345128844722
 30
0.0
 41
1.0
  0
LINE
  5
D723
330
2
100
AcDbEntity
  8
AM_HID
  6
DASHED
100
AcDbLine
 10
1218.286531876099
 20
804.5796183742528
 30
0.0
 11
1218.444163671665
 21
804.5796183742528
 31
0.0
  0
LINE
  5
D724
330
2
100
AcDbEntity
  8
AM_HID
  6
DASHED
100
AcDbLine
 10
1218.286531876099
 20
804.4894073946919
 30
0.0
 11
1218.444163671665
 21
804.4894073946919
 31
0.0
  0
LINE
  5
D725
330
2
100
AcDbEntity
  8
AM_HID
  6
DASHED
100
AcDbLine
 10
1218.286531876099
 20
804.7600403333746
 30
0.0
 11
1218.444163671665
 21
804.7600403333746
 31
0.0
  0
LINE
  5
D726
330
2
100
AcDbEntity
  8
AM_HID
  6
DASHED
100
AcDbLine
 10
1218.286531876099
 20
804.8502513129355
 30
0.0
 11
1218.444163671665
 21
804.8502513129355
 31
0.0
  0
LINE
  5
D727
330
2
100
AcDbEntity
  8
AM_HID
  6
DASHED
100
AcDbLine
 10
1218.463848711035
 20
804.5313293538137
 30
0.0
 11
1218.444163671665
 21
804.5116443144435
 31
0.0
  0
LINE
  5
D728
330
2
100
AcDbEntity
  8
AM_HID
  6
DASHED
100
AcDbLine
 10
1218.463848711035
 20
804.8083293538137
 30
0.0
 11
1218.444163671665
 21
804.8280143931837
 31
0.0
  0
LINE
  5
D729
330
2
100
AcDbEntity
  8
AM_HID
  6
DASHED
100
AcDbLine
 10
1218.463848711035
 20
804.8083293538137
 30
0.0
 11
1219.012510128358
 21
804.8083293538137
 31
0.0
  0
LINE
  5
D72A
330
2
100
AcDbEntity
  8
AM_HID
  6
DASHED
100
AcDbLine
 10
1218.463848711035
 20
804.5313293538137
 30
0.0
 11
1219.012510128358
 21
804.5313293538137
 31
0.0
  0
LINE
  5
D72B
330
2
100
AcDbEntity
  8
AM_HID
  6
DASHED
100
AcDbLine
 10
1219.012510128358
 20
804.8083293538137
 30
0.0
 11
1219.032195167728
 21
804.8280143931837
 31
0.0
  0
LINE
  5
D72C
330
2
100
AcDbEntity
  8
AM_HID
  6
DASHED
100
AcDbLine
 10
1219.012510128358
 20
804.5313293538137
 30
0.0
 11
1219.032195167728
 21
804.5116443144435
 31
0.0
  0
LINE
  5
D72D
330
2
100
AcDbEntity
  8
AM_HID
  6
DASHED
100
AcDbLine
 10
1218.303848671665
 20
804.9257348656245
 30
0.0
 11
1219.012510167728
 21
804.9257348656245
 31
0.0
  0
LINE
  5
D72E
330
2
100
AcDbEntity
  8
AM_HID
  6
DASHED
100
AcDbLine
 10
1218.303848671665
 20
804.4139238420026
 30
0.0
 11
1219.012510167728
 21
804.4139238420026
 31
0.0
  0
LINE
  5
D72F
330
2
100
AcDbEntity
  8
AM_HID
  6
DASHED
100
AcDbLine
 10
1218.286531876099
 20
804.4894073946919
 30
0.0
 11
1218.284163671665
 21
804.4853055442898
 31
0.0
  0
LINE
  5
D730
330
2
100
AcDbEntity
  8
AM_HID
  6
DASHED
100
AcDbLine
 10
1218.286531876099
 20
804.8502513129355
 30
0.0
 11
1218.284163671665
 21
804.8543531633375
 31
0.0
  0
LINE
  5
D731
330
2
100
AcDbEntity
  8
AM_HID
  6
DASHED
100
AcDbLine
 10
1218.463848711035
 20
804.5313293538137
 30
0.0
 11
1218.463848711035
 21
804.6698293538137
 31
0.0
  0
LINE
  5
D732
330
2
100
AcDbEntity
  8
AM_HID
  6
DASHED
100
AcDbLine
 10
1218.463848711035
 20
804.6698293538137
 30
0.0
 11
1218.463848711035
 21
804.8083293538137
 31
0.0
  0
LINE
  5
D733
330
2
100
AcDbEntity
  8
AM_HID
  6
DASHED
100
AcDbLine
 10
1219.012510128358
 20
804.8083293538137
 30
0.0
 11
1219.012510128358
 21
804.6698293538137
 31
0.0
  0
LINE
  5
D734
330
2
100
AcDbEntity
  8
AM_HID
  6
DASHED
100
AcDbLine
 10
1219.012510128358
 20
804.6698293538137
 30
0.0
 11
1219.012510128358
 21
804.5313293538137
 31
0.0
  0
LINE
  5
D735
330
2
100
AcDbEntity
  8
AM_HID
  6
DASHED
100
AcDbLine
 10
1218.284163671665
 20
804.4336088420026
 30
0.0
 11
1218.284163671665
 21
804.9060498656245
 31
0.0
  0
ARC
  5
D736
330
2
100
AcDbEntity
  8
AM_HID
  6
DASHED
100
AcDbCircle
 10
1219.012510167728
 20
804.9060498656245
 30
0.0
 40
0.019685
100
AcDbArc
 50
0.0
 51
90.0
  0
ARC
  5
D737
330
2
100
AcDbEntity
  8
AM_HID
  6
DASHED
100
AcDbCircle
 10
1219.012510167728
 20
804.4336088420026
 30
0.0
 40
0.019685
100
AcDbArc
 50
270.0
 51
0.0
  0
ARC
  5
D738
330
2
100
AcDbEntity
  8
AM_HID
  6
DASHED
100
AcDbCircle
 10
1218.303848671665
 20
804.9060498656245
 30
0.0
 40
0.019685
100
AcDbArc
 50
90.0
 51
180.0
  0
ARC
  5
D739
330
2
100
AcDbEntity
  8
AM_HID
  6
DASHED
100
AcDbCircle
 10
1218.303848671665
 20
804.4336088420026
 30
0.0
 40
0.019685
100
AcDbArc
 50
180.0
 51
270.0
  0
LINE
  5
D759
330
2
100
AcDbEntity
  8
AM_7
100
AcDbLine
 10
1211.189938732477
 20
806.8048293538137
 30
0.0
 11
1211.189938732477
 21
806.9148293538136
 31
0.0
  0
LINE
  5
D75A
330
2
100
AcDbEntity
  8
AM_7
100
AcDbLine
 10
1210.673688732477
 20
806.8598293538135
 30
0.0
 11
1210.978938732477
 21
806.8598293538135
 31
0.0
  0
LINE
  5
D75B
330
2
100
AcDbEntity
  8
AM_7
100
AcDbLine
 10
1211.400938732477
 20
806.8598293538135
 30
0.0
 11
1211.706188732477
 21
806.8598293538135
 31
0.0
  0
LINE
  5
D75C
330
2
100
AcDbEntity
  8
AM_7
100
AcDbLine
 10
1211.189938732477
 20
806.3435793538136
 30
0.0
 11
1211.189938732477
 21
806.6488293538135
 31
0.0
  0
LINE
  5
D75D
330
2
100
AcDbEntity
  8
AM_7
100
AcDbLine
 10
1211.189938732477
 20
807.0708293538135
 30
0.0
 11
1211.189938732477
 21
807.3760793538136
 31
0.0
  0
LINE
  5
D75E
330
2
100
AcDbEntity
  8
AM_7
100
AcDbLine
 10
1213.324938732477
 20
806.8598293538135
 30
0.0
 11
1213.434938732477
 21
806.8598293538135
 31
0.0
  0
LINE
  5
D75F
330
2
100
AcDbEntity
  8
AM_7
100
AcDbLine
 10
1213.379938732477
 20
806.8048293538137
 30
0.0
 11
1213.379938732477
 21
806.9148293538136
 31
0.0
  0
LINE
  5
D760
330
2
100
AcDbEntity
  8
AM_7
100
AcDbLine
 10
1212.863688732477
 20
806.8598293538135
 30
0.0
 11
1213.168938732477
 21
806.8598293538135
 31
0.0
  0
LINE
  5
D761
330
2
100
AcDbEntity
  8
AM_7
100
AcDbLine
 10
1213.590938732477
 20
806.8598293538135
 30
0.0
 11
1213.896188732477
 21
806.8598293538135
 31
0.0
  0
LINE
  5
D762
330
2
100
AcDbEntity
  8
AM_7
100
AcDbLine
 10
1213.379938732477
 20
806.3435793538136
 30
0.0
 11
1213.379938732477
 21
806.6488293538135
 31
0.0
  0
LINE
  5
D763
330
2
100
AcDbEntity
  8
AM_7
100
AcDbLine
 10
1213.379938732477
 20
807.0708293538135
 30
0.0
 11
1213.379938732477
 21
807.3760793538136
 31
0.0
  0
LINE
  5
D764
330
2
100
AcDbEntity
  8
AM_7
100
AcDbLine
 10
1212.229938732477
 20
805.7648293538138
 30
0.0
 11
1212.339938732477
 21
805.7648293538138
 31
0.0
  0
LINE
  5
D765
330
2
100
AcDbEntity
  8
AM_7
100
AcDbLine
 10
1212.284938732477
 20
805.7098293538137
 30
0.0
 11
1212.284938732477
 21
805.8198293538136
 31
0.0
  0
LINE
  5
D766
330
2
100
AcDbEntity
  8
AM_7
100
AcDbLine
 10
1210.836356055312
 20
805.7648293538138
 30
0.0
 11
1212.073938732477
 21
805.7648293538138
 31
0.0
  0
LINE
  5
D767
330
2
100
AcDbEntity
  8
AM_7
100
AcDbLine
 10
1212.495938732477
 20
805.7648293538138
 30
0.0
 11
1213.733521409643
 21
805.7648293538138
 31
0.0
  0
LINE
  5
D768
330
2
100
AcDbEntity
  8
AM_7
100
AcDbLine
 10
1212.284938732477
 20
804.3162466766483
 30
0.0
 11
1212.284938732477
 21
805.5538293538138
 31
0.0
  0
LINE
  5
D769
330
2
100
AcDbEntity
  8
AM_7
100
AcDbLine
 10
1212.284938732477
 20
805.9758293538134
 30
0.0
 11
1212.284938732477
 21
807.2134120309788
 31
0.0
  0
LINE
  5
D770
330
2
100
AcDbEntity
  8
AM_4
  6
DASHED
100
AcDbLine
 10
1211.847438732477
 20
804.2763330378857
 30
0.0
 11
1211.847438732477
 21
804.8585793538137
 31
0.0
  0
LINE
  5
D771
330
2
100
AcDbEntity
  8
AM_4
  6
DASHED
100
AcDbLine
 10
1211.472438732477
 20
804.2763330378857
 30
0.0
 11
1211.472438732477
 21
804.8585793538137
 31
0.0
  0
LINE
  5
D772
330
2
100
AcDbEntity
  8
AM_4
  6
DASHED
100
AcDbLine
 10
1211.847438732477
 20
804.8585793538137
 30
0.0
 11
1211.472438732477
 21
804.8585793538137
 31
0.0
  0
LINE
  5
D773
330
2
100
AcDbEntity
  8
AM_4
  6
DASHED
100
AcDbLine
 10
1213.097438732477
 20
804.2763330378857
 30
0.0
 11
1213.097438732477
 21
804.8585793538137
 31
0.0
  0
LINE
  5
D774
330
2
100
AcDbEntity
  8
AM_4
  6
DASHED
100
AcDbLine
 10
1212.722438732477
 20
804.2763330378857
 30
0.0
 11
1212.722438732477
 21
804.8585793538137
 31
0.0
  0
LINE
  5
D775
330
2
100
AcDbEntity
  8
AM_4
  6
DASHED
100
AcDbLine
 10
1213.097438732477
 20
804.8585793538137
 30
0.0
 11
1212.722438732477
 21
804.8585793538137
 31
0.0
  0
LINE
  5
D779
330
2
100
AcDbEntity
  8
AM_4
  6
DASHED
100
AcDbLine
 10
1213.097438732477
 20
804.2763330378857
 30
0.0
 11
1213.097438732477
 21
804.8585793538137
 31
0.0
  0
LINE
  5
D77A
330
2
100
AcDbEntity
  8
AM_4
  6
DASHED
100
AcDbLine
 10
1212.722438732477
 20
804.2763330378857
 30
0.0
 11
1212.722438732477
 21
804.8585793538137
 31
0.0
  0
LINE
  5
D77B
330
2
100
AcDbEntity
  8
AM_4
  6
DASHED
100
AcDbLine
 10
1213.097438732477
 20
804.8585793538137
 30
0.0
 11
1212.722438732477
 21
804.8585793538137
 31
0.0
  0
LINE
  5
D77C
330
2
100
AcDbEntity
  8
AM_4
  6
DASHED
100
AcDbLine
 10
1211.847438732477
 20
804.2763330378859
 30
0.0
 11
1211.847438732477
 21
804.8585793538137
 31
0.0
  0
LINE
  5
D77D
330
2
100
AcDbEntity
  8
AM_4
  6
DASHED
100
AcDbLine
 10
1211.472438732477
 20
804.2763330378857
 30
0.0
 11
1211.472438732477
 21
804.8585793538137
 31
0.0
  0
LINE
  5
D77E
330
2
100
AcDbEntity
  8
AM_4
  6
DASHED
100
AcDbLine
 10
1211.847438732477
 20
804.8585793538137
 30
0.0
 11
1211.472438732477
 21
804.8585793538137
 31
0.0
  0
CIRCLE
  5
D785
330
2
100
AcDbEntity
  8
AM_4
  6
HIDDEN2
100
AcDbCircle
 10
1211.189938732477
 20
806.8598293538135
 30
0.0
 40
0.1309
  0
CIRCLE
  5
D786
330
2
100
AcDbEntity
  8
AM_4
  6
HIDDEN2
100
AcDbCircle
 10
1213.379938732477
 20
806.8598293538135
 30
0.0
 40
0.1309
  0
CIRCLE
  5
D787
330
2
100
AcDbEntity
  8
AM_4
  6
HIDDEN2
100
AcDbCircle
 10
1211.189938732477
 20
804.6698293538137
 30
0.0
 40
0.1309
  0
CIRCLE
  5
D788
330
2
100
AcDbEntity
  8
AM_4
  6
HIDDEN2
100
AcDbCircle
 10
1213.379938732477
 20
804.6698293538137
 30
0.0
 40
0.1309
  0
LINE
  5
D789
330
2
100
AcDbEntity
  8
AM_7
100
AcDbLine
 10
1219.000108553555
 20
807.3177767008271
 30
0.0
 11
1219.000108553555
 21
806.0940641534948
 31
0.0
  0
LINE
  5
D78A
330
2
100
AcDbEntity
  8
AM_7
100
AcDbLine
 10
1216.424518002374
 20
805.7648293538138
 30
0.0
 11
1221.890927411563
 21
805.7648293538138
 31
0.0
  0
LINE
  5
D78B
330
2
100
AcDbEntity
  8
AM_7
  6
DASHED
100
AcDbLine
 10
1219.182608553555
 20
804.1548293538136
 30
0.0
 11
1219.182608553555
 21
805.1450174831677
 31
0.0
  0
LINE
  5
D78E
330
2
100
AcDbEntity
  8
AM_7
100
AcDbLine
 10
1218.135108553555
 20
806.8598293538135
 30
0.0
 11
1222.105108553555
 21
806.8598293538135
 31
0.0
  0
LINE
  5
D78F
330
2
100
AcDbEntity
  8
AM_7
100
AcDbLine
 10
1218.135108553555
 20
804.6698293538137
 30
0.0
 11
1222.105108553555
 21
804.6698293538137
 31
0.0
  0
LINE
  5
D790
330
2
100
AcDbEntity
  8
AM_7
100
AcDbLine
 10
1218.945108553555
 20
805.7648293538138
 30
0.0
 11
1219.055108553555
 21
805.7648293538138
 31
0.0
  0
LINE
  5
D791
330
2
100
AcDbEntity
  8
AM_7
100
AcDbLine
 10
1219.000108553555
 20
805.7098293538137
 30
0.0
 11
1219.000108553555
 21
805.8198293538136
 31
0.0
  0
LINE
  5
D792
330
2
100
AcDbEntity
  8
AM_7
100
AcDbLine
 10
1218.390108553555
 20
805.7648293538138
 30
0.0
 11
1218.789108553555
 21
805.7648293538138
 31
0.0
  0
LINE
  5
D793
330
2
100
AcDbEntity
  8
AM_7
100
AcDbLine
 10
1219.211108553555
 20
805.7648293538138
 30
0.0
 11
1219.610108553555
 21
805.7648293538138
 31
0.0
  0
LINE
  5
D795
330
2
100
AcDbEntity
  8
AM_7
100
AcDbLine
 10
1219.000108553555
 20
805.9758293538134
 30
0.0
 11
1219.000108553555
 21
806.3748293538136
 31
0.0
  0
LINE
  5
D796
330
2
100
AcDbEntity
  8
AM_7
100
AcDbLine
 10
1221.482608553555
 20
807.3131516682309
 30
0.0
 11
1221.482608553555
 21
806.0949149823455
 31
0.0
  0
LINE
  5
D797
330
2
100
AcDbEntity
  8
AM_7
100
AcDbLine
 10
1221.425108553555
 20
805.7648293538138
 30
0.0
 11
1221.535108553555
 21
805.7648293538138
 31
0.0
  0
LINE
  5
D798
330
2
100
AcDbEntity
  8
AM_7
100
AcDbLine
 10
1221.480108553555
 20
805.7098293538137
 30
0.0
 11
1221.480108553555
 21
805.8198293538136
 31
0.0
  0
LINE
  5
D799
330
2
100
AcDbEntity
  8
AM_7
100
AcDbLine
 10
1220.870108553555
 20
805.7648293538138
 30
0.0
 11
1221.269108553555
 21
805.7648293538138
 31
0.0
  0
LINE
  5
D79A
330
2
100
AcDbEntity
  8
AM_7
100
AcDbLine
 10
1221.691108553555
 20
805.7648293538138
 30
0.0
 11
1222.090108553555
 21
805.7648293538138
 31
0.0
  0
LINE
  5
D79B
330
2
100
AcDbEntity
  8
AM_7
100
AcDbLine
 10
1221.480108553555
 20
805.1548293538136
 30
0.0
 11
1221.480108553555
 21
805.5538293538138
 31
0.0
  0
LINE
  5
D79C
330
2
100
AcDbEntity
  8
AM_7
100
AcDbLine
 10
1221.480108553555
 20
805.9758293538134
 30
0.0
 11
1221.480108553555
 21
806.3748293538136
 31
0.0
  0
LINE
  5
D79D
330
2
100
AcDbEntity
  8
AM_7
100
AcDbLine
 10
1221.480108553555
 20
807.2471195630233
 30
0.0
 11
1221.480108553555
 21
806.106563065099
 31
0.0
  0
LINE
  5
D79E
330
2
100
AcDbEntity
  8
AM_7
100
AcDbLine
 10
1222.211755920841
 20
805.7648293538138
 30
0.0
 11
1221.863561931548
 21
805.7648293538138
 31
0.0
  0
LINE
  5
D79F
330
2
100
AcDbEntity
  8
AM_7
100
AcDbLine
 10
1221.557608553555
 20
804.1548293538136
 30
0.0
 11
1221.557608553555
 21
805.1712674831675
 31
0.0
  0
LINE
  5
D7A2
330
2
100
AcDbEntity
  8
AM_7
100
AcDbLine
 10
1219.214832963004
 20
806.2372702986955
 30
0.0
 11
1219.324832963004
 21
806.2372702986955
 31
0.0
  0
LINE
  5
D7A3
330
2
100
AcDbEntity
  8
AM_7
100
AcDbLine
 10
1219.269832963004
 20
806.1822702986955
 30
0.0
 11
1219.269832963004
 21
806.2922702986956
 31
0.0
  0
LINE
  5
D7A4
330
2
100
AcDbEntity
  8
AM_7
100
AcDbLine
 10
1218.943297529933
 20
806.2372702986955
 30
0.0
 11
1219.058832963004
 21
806.2372702986955
 31
0.0
  0
LINE
  5
D7A6
330
2
100
AcDbEntity
  8
AM_7
100
AcDbLine
 10
1219.269832963004
 20
805.9107348656247
 30
0.0
 11
1219.269832963004
 21
806.0262702986955
 31
0.0
  0
LINE
  5
D7A7
330
2
100
AcDbEntity
  8
AM_7
  6
DASHED
100
AcDbLine
 10
1219.269832963004
 20
806.4482702986955
 30
0.0
 11
1219.269832963004
 21
806.5638057317663
 31
0.0
  0
LINE
  5
D7A8
330
2
100
AcDbEntity
  8
AM_7
100
AcDbLine
 10
1221.155384144106
 20
806.2372702986955
 30
0.0
 11
1221.265384144106
 21
806.2372702986955
 31
0.0
  0
LINE
  5
D7A9
330
2
100
AcDbEntity
  8
AM_7
100
AcDbLine
 10
1221.210384144106
 20
806.1822702986955
 30
0.0
 11
1221.210384144106
 21
806.2922702986956
 31
0.0
  0
LINE
  5
D7AA
330
2
100
AcDbEntity
  8
AM_7
100
AcDbLine
 10
1220.883848711035
 20
806.2372702986955
 30
0.0
 11
1220.999384144106
 21
806.2372702986955
 31
0.0
  0
LINE
  5
D7AB
330
2
100
AcDbEntity
  8
AM_7
100
AcDbLine
 10
1221.421384144106
 20
806.2372702986955
 30
0.0
 11
1221.536919577177
 21
806.2372702986955
 31
0.0
  0
LINE
  5
D7AC
330
2
100
AcDbEntity
  8
AM_7
100
AcDbLine
 10
1221.210384144106
 20
805.9107348656247
 30
0.0
 11
1221.210384144106
 21
806.0262702986955
 31
0.0
  0
LINE
  5
D7AD
330
2
100
AcDbEntity
  8
AM_7
100
AcDbLine
 10
1221.210384144106
 20
806.4482702986955
 30
0.0
 11
1221.210384144106
 21
806.5638057317663
 31
0.0
  0
LINE
  5
D7AE
330
2
100
AcDbEntity
  8
AM_4
  6
DASHED
100
AcDbLine
 10
1218.664380207105
 20
807.2077768503456
 30
0.0
 11
1218.664380207105
 21
806.7530183302135
 31
0.0
  0
LINE
  5
D7AF
330
2
100
AcDbEntity
  8
AM_4
  6
DASHED
100
AcDbLine
 10
1219.335836900005
 20
807.2077768503456
 30
0.0
 11
1219.335836900005
 21
806.7530183302135
 31
0.0
  0
LINE
  5
D7B0
330
2
100
AcDbEntity
  8
AM_4
  6
DASHED
100
AcDbLine
 10
1218.664380207105
 20
806.7530183302135
 30
0.0
 11
1219.335836900005
 21
806.7530183302135
 31
0.0
  0
LINE
  5
D7B2
330
2
100
AcDbEntity
  8
AM_4
  6
DASHED
100
AcDbLine
 10
1219.370108553555
 20
804.2763330378857
 30
0.0
 11
1219.370108553555
 21
804.8585793538137
 31
0.0
  0
LINE
  5
D7B3
330
2
100
AcDbEntity
  8
AM_4
  6
DASHED
100
AcDbLine
 10
1218.995108553555
 20
804.2763330378857
 30
0.0
 11
1218.995108553555
 21
804.8585793538137
 31
0.0
  0
LINE
  5
D7B4
330
2
100
AcDbEntity
  8
AM_4
  6
DASHED
100
AcDbLine
 10
1219.370108553555
 20
804.8585793538137
 30
0.0
 11
1218.995108553555
 21
804.8585793538137
 31
0.0
  0
LINE
  5
D7B5
330
2
100
AcDbEntity
  8
AM_4
  6
DASHED
100
AcDbLine
 10
1221.146880207105
 20
807.2091336299488
 30
0.0
 11
1221.146880207105
 21
806.7530183302135
 31
0.0
  0
LINE
  5
D7B6
330
2
100
AcDbEntity
  8
AM_4
  6
DASHED
100
AcDbLine
 10
1221.818336900005
 20
807.2091336299488
 30
0.0
 11
1221.818336900005
 21
806.7530183302135
 31
0.0
  0
LINE
  5
D7B7
330
2
100
AcDbEntity
  8
AM_4
  6
DASHED
100
AcDbLine
 10
1221.146880207105
 20
806.7530183302135
 30
0.0
 11
1221.818336900005
 21
806.7530183302135
 31
0.0
  0
LINE
  5
D7B9
330
2
100
AcDbEntity
  8
AM_4
  6
DASHED
100
AcDbLine
 10
1221.745108553555
 20
804.2648293538137
 30
0.0
 11
1221.745108553555
 21
804.8585793538137
 31
0.0
  0
LINE
  5
D7BA
330
2
100
AcDbEntity
  8
AM_4
  6
DASHED
100
AcDbLine
 10
1221.370108553555
 20
804.2648293538137
 30
0.0
 11
1221.370108553555
 21
804.8585793538137
 31
0.0
  0
LINE
  5
D7BB
330
2
100
AcDbEntity
  8
AM_4
  6
DASHED
100
AcDbLine
 10
1221.745108553555
 20
804.8585793538137
 30
0.0
 11
1221.370108553555
 21
804.8585793538137
 31
0.0
  0
LINE
  5
D7C3
330
2
100
AcDbEntity
  8
AM_4
  6
DASHED
100
AcDbLine
 10
1218.463848711035
 20
804.5135793538136
 30
0.0
 11
1219.012510128358
 21
804.5135793538136
 31
0.0
  0
LINE
  5
D7C4
330
2
100
AcDbEntity
  8
AM_4
  6
DASHED
100
AcDbLine
 10
1218.463848711035
 20
804.8260793538137
 30
0.0
 11
1219.012510128358
 21
804.8260793538137
 31
0.0
  0
LINE
  5
D7C7
330
2
100
AcDbEntity
  8
AM_4
  6
DASHED
100
AcDbLine
 10
1221.776368396074
 20
804.8260793538137
 30
0.0
 11
1221.227706978752
 21
804.8260793538137
 31
0.0
  0
LINE
  5
D7C8
330
2
100
AcDbEntity
  8
AM_4
  6
DASHED
100
AcDbLine
 10
1221.776368396074
 20
804.5135793538136
 30
0.0
 11
1221.227706978752
 21
804.5135793538136
 31
0.0
  0
LINE
  5
D7CD
330
2
100
AcDbEntity
  8
AM_4
  6
DASHED
100
AcDbLine
 10
1218.772982569303
 20
804.5389293538136
 30
0.0
 11
1219.166683356704
 21
804.5389293538136
 31
0.0
  0
LINE
  5
D7CE
330
2
100
AcDbEntity
  8
AM_4
  6
DASHED
100
AcDbLine
 10
1218.772982569303
 20
804.8007293538136
 30
0.0
 11
1219.166683356704
 21
804.8007293538136
 31
0.0
  0
LINE
  5
D7CF
330
2
100
AcDbEntity
  8
AM_4
  6
DASHED
100
AcDbLine
 10
1221.444242411823
 20
804.8007293538136
 30
0.0
 11
1221.168651860642
 21
804.8007293538136
 31
0.0
  0
LINE
  5
D7D0
330
2
100
AcDbEntity
  8
AM_4
  6
DASHED
100
AcDbLine
 10
1221.444242411823
 20
804.5389293538136
 30
0.0
 11
1221.168651860642
 21
804.5389293538136
 31
0.0
  0
LINE
  5
D7D5
330
2
100
AcDbEntity
  8
AM_VIS
100
AcDbLine
 10
1210.796458197961
 20
804.4963393000635
 30
0.0
 11
1210.796458197961
 21
807.0033194075637
 31
0.0
  0
ELLIPSE
  5
D7D6
330
2
100
AcDbEntity
  8
AM_VIS
100
AcDbEllipse
 10
1211.046467717558
 20
804.4963583388938
 30
0.0
 11
-0.1767901577827224
 21
-0.1767901577827221
 31
0.0
210
0.0
220
0.0
230
1.0
 40
0.9999238504775703
 41
5.497825219993079
 42
6.68163871252625
  0
LINE
  5
D7D7
330
2
100
AcDbEntity
  8
AM_VIS
100
AcDbLine
 10
1213.617762361293
 20
804.2648293538137
 30
0.0
 11
1210.952115103662
 21
804.2648293538137
 31
0.0
  0
ELLIPSE
  5
D7D8
330
2
100
AcDbEntity
  8
AM_VIS
100
AcDbEllipse
 10
1213.523409747397
 20
804.4963583388938
 30
0.0
 11
0.1767901577827222
 21
-0.1767901577827224
 31
0.0
210
0.0
220
0.0
230
1.0
 40
0.9999238504775702
 41
5.884731901832923
 42
7.068545394366095
  0
LINE
  5
D7D9
330
2
100
AcDbEntity
  8
AM_VIS
100
AcDbLine
 10
1213.773419266994
 20
807.0033194075637
 30
0.0
 11
1213.773419266994
 21
804.4963393000635
 31
0.0
  0
ELLIPSE
  5
D7DA
330
2
100
AcDbEntity
  8
AM_VIS
100
AcDbEllipse
 10
1213.523409747397
 20
807.0033003687333
 30
0.0
 11
0.1767901577827223
 21
0.1767901577827223
 31
0.0
210
0.0
220
0.0
230
1.0
 40
0.9999238504775703
 41
5.497825219993077
 42
7.068545394366096
  0
LINE
  5
D7DB
330
2
100
AcDbEntity
  8
AM_VIS
100
AcDbLine
 10
1211.046448678727
 20
807.2533098883299
 30
0.0
 11
1213.523428786227
 21
807.2533098883299
 31
0.0
  0
ELLIPSE
  5
D7DC
330
2
100
AcDbEntity
  8
AM_VIS
100
AcDbEllipse
 10
1211.046467717558
 20
807.0033003687333
 30
0.0
 11
-0.1767901577827223
 21
0.1767901577827223
 31
0.0
210
0.0
220
0.0
230
1.0
 40
0.9999238504775703
 41
5.497825219993077
 42
7.068545394366095
  0
LINE
  5
D7DD
330
2
100
AcDbEntity
  8
AM_VIS
100
AcDbLine
 10
1213.225876335083
 20
805.8117043538137
 30
0.0
 11
1213.615764414677
 21
805.8117043538137
 31
0.0
  0
LINE
  5
D7DE
330
2
100
AcDbEntity
  8
AM_VIS
100
AcDbLine
 10
1213.108446994418
 20
806.5220463550177
 30
0.0
 11
1212.983427722321
 21
806.3970270829212
 31
0.0
  0
LINE
  5
D7DF
330
2
100
AcDbEntity
  8
AM_VIS
100
AcDbLine
 10
1213.615764414677
 20
806.4598293538136
 30
0.0
 11
1213.379938732477
 21
806.4598293538136
 31
0.0
  0
LINE
  5
D7E0
330
2
100
AcDbEntity
  8
AM_VIS
100
AcDbLine
 10
1213.655134493417
 20
805.8510744325539
 30
0.0
 11
1213.655134493417
 21
806.4204592750735
 31
0.0
  0
LINE
  5
D7E1
330
2
100
AcDbEntity
  8
AM_VIS
100
AcDbLine
 10
1211.344001129872
 20
805.7179543538136
 30
0.0
 11
1210.954113050278
 21
805.7179543538136
 31
0.0
  0
LINE
  5
D7E2
330
2
100
AcDbEntity
  8
AM_VIS
100
AcDbLine
 10
1211.461430470537
 20
805.0076123526094
 30
0.0
 11
1211.586449742634
 21
805.132631624706
 31
0.0
  0
LINE
  5
D7E3
330
2
100
AcDbEntity
  8
AM_VIS
100
AcDbLine
 10
1210.954113050278
 20
805.0698293538136
 30
0.0
 11
1211.189938732477
 21
805.0698293538136
 31
0.0
  0
LINE
  5
D7E4
330
2
100
AcDbEntity
  8
AM_VIS
100
AcDbLine
 10
1210.914742971537
 20
805.6785842750736
 30
0.0
 11
1210.914742971537
 21
805.1091994325537
 31
0.0
  0
LINE
  5
D7E5
330
2
100
AcDbEntity
  8
AM_VIS
100
AcDbLine
 10
1210.914742971537
 20
806.4204592750735
 30
0.0
 11
1210.914742971537
 21
805.8510744325539
 31
0.0
  0
LINE
  5
D7E6
330
2
100
AcDbEntity
  8
AM_VIS
100
AcDbLine
 10
1211.189938732477
 20
806.4598293538136
 30
0.0
 11
1210.954113050278
 21
806.4598293538136
 31
0.0
  0
LINE
  5
D7E7
330
2
100
AcDbEntity
  8
AM_VIS
100
AcDbLine
 10
1211.586449742634
 20
806.3970270829212
 30
0.0
 11
1211.461430470537
 21
806.5220463550177
 31
0.0
  0
LINE
  5
D7E8
330
2
100
AcDbEntity
  8
AM_VIS
100
AcDbLine
 10
1210.954113050278
 20
805.8117043538137
 30
0.0
 11
1211.344001129872
 21
805.8117043538137
 31
0.0
  0
LINE
  5
D7E9
330
2
100
AcDbEntity
  8
AM_VIS
100
AcDbLine
 10
1213.042155733681
 20
804.9413210918734
 30
0.0
 11
1212.917136461585
 21
805.0663403639699
 31
0.0
  0
LINE
  5
D7EA
330
2
100
AcDbEntity
  8
AM_VIS
100
AcDbLine
 10
1212.979938732477
 20
804.4340036716137
 30
0.0
 11
1212.979938732477
 21
804.6698293538137
 31
0.0
  0
LINE
  5
D7EB
330
2
100
AcDbEntity
  8
AM_VIS
100
AcDbLine
 10
1212.371183811218
 20
804.3946335928737
 30
0.0
 11
1212.940568653737
 21
804.3946335928737
 31
0.0
  0
LINE
  5
D7EC
330
2
100
AcDbEntity
  8
AM_VIS
100
AcDbLine
 10
1212.331813732477
 20
804.8238917512083
 30
0.0
 11
1212.331813732477
 21
804.4340036716137
 31
0.0
  0
LINE
  5
D7ED
330
2
100
AcDbEntity
  8
AM_VIS
100
AcDbLine
 10
1211.589938732477
 20
804.6698293538137
 30
0.0
 11
1211.589938732477
 21
804.4340036716137
 31
0.0
  0
LINE
  5
D7EE
330
2
100
AcDbEntity
  8
AM_VIS
100
AcDbLine
 10
1211.65274100337
 20
805.0663403639699
 30
0.0
 11
1211.527721731273
 21
804.9413210918734
 31
0.0
  0
LINE
  5
D7EF
330
2
100
AcDbEntity
  8
AM_VIS
100
AcDbLine
 10
1212.238063732477
 20
804.4340036716137
 30
0.0
 11
1212.238063732477
 21
804.8238917512083
 31
0.0
  0
LINE
  5
D7F0
330
2
100
AcDbEntity
  8
AM_VIS
100
AcDbLine
 10
1211.629308811217
 20
804.3946335928737
 30
0.0
 11
1212.198693653737
 21
804.3946335928737
 31
0.0
  0
LINE
  5
D7F1
330
2
100
AcDbEntity
  8
AM_VIS
100
AcDbLine
 10
1213.379938732477
 20
805.0698293538136
 30
0.0
 11
1213.615764414677
 21
805.0698293538136
 31
0.0
  0
LINE
  5
D7F2
330
2
100
AcDbEntity
  8
AM_VIS
100
AcDbLine
 10
1212.983427722321
 20
805.132631624706
 30
0.0
 11
1213.108446994418
 21
805.0076123526094
 31
0.0
  0
LINE
  5
D7F3
330
2
100
AcDbEntity
  8
AM_VIS
100
AcDbLine
 10
1213.615764414677
 20
805.7179543538136
 30
0.0
 11
1213.225876335083
 21
805.7179543538136
 31
0.0
  0
LINE
  5
D7F4
330
2
100
AcDbEntity
  8
AM_VIS
100
AcDbLine
 10
1213.655134493417
 20
805.1091994325537
 30
0.0
 11
1213.655134493417
 21
805.6785842750736
 31
0.0
  0
LINE
  5
D7F5
330
2
100
AcDbEntity
  8
AM_VIS
100
AcDbLine
 10
1212.940568653737
 20
807.1350251147535
 30
0.0
 11
1212.371183811218
 21
807.1350251147535
 31
0.0
  0
LINE
  5
D7F6
330
2
100
AcDbEntity
  8
AM_VIS
100
AcDbLine
 10
1212.979938732477
 20
806.8598293538135
 30
0.0
 11
1212.979938732477
 21
807.0956550360135
 31
0.0
  0
LINE
  5
D7F7
330
2
100
AcDbEntity
  8
AM_VIS
100
AcDbLine
 10
1212.917136461585
 20
806.4633183436573
 30
0.0
 11
1213.042155733681
 21
806.5883376157538
 31
0.0
  0
LINE
  5
D7F8
330
2
100
AcDbEntity
  8
AM_VIS
100
AcDbLine
 10
1212.331813732477
 20
807.0956550360135
 30
0.0
 11
1212.331813732477
 21
806.705766956419
 31
0.0
  0
LINE
  5
D7F9
330
2
100
AcDbEntity
  8
AM_VIS
100
AcDbLine
 10
1211.527721731273
 20
806.5883376157538
 30
0.0
 11
1211.65274100337
 21
806.4633183436573
 31
0.0
  0
LINE
  5
D7FA
330
2
100
AcDbEntity
  8
AM_VIS
100
AcDbLine
 10
1211.589938732477
 20
807.0956550360135
 30
0.0
 11
1211.589938732477
 21
806.8598293538135
 31
0.0
  0
LINE
  5
D7FB
330
2
100
AcDbEntity
  8
AM_VIS
100
AcDbLine
 10
1212.198693653737
 20
807.1350251147535
 30
0.0
 11
1211.629308811217
 21
807.1350251147535
 31
0.0
  0
LINE
  5
D7FC
330
2
100
AcDbEntity
  8
AM_VIS
100
AcDbLine
 10
1212.238063732477
 20
806.705766956419
 30
0.0
 11
1212.238063732477
 21
807.0956550360135
 31
0.0
  0
LINE
  5
D7FD
330
2
100
AcDbEntity
  8
AM_VIS
100
AcDbLine
 10
1213.784764195122
 20
804.4849943719356
 30
0.0
 11
1213.784764195122
 21
807.0146643356917
 31
0.0
  0
SPLINE
  5
D7FE
330
2
100
AcDbEntity
  8
AM_VIS
100
AcDbSpline
210
0.0
220
0.0
230
1.0
 70
    11
 71
     3
 72
    38
 73
    34
 74
     0
 42
0.0000000001
 43
0.0000000001
 40
0.0
 40
0.0
 40
0.0
 40
0.0
 40
0.0840668406206251
 40
0.0840668406206251
 40
0.1681336812412501
 40
0.1681336812412501
 40
0.2522005218618752
 40
0.2522005218618752
 40
0.3362673624825001
 40
0.3362673624825001
 40
0.4203342031031252
 40
0.4203342031031252
 40
0.5044010437237504
 40
0.5044010437237504
 40
0.5884678843443754
 40
0.5884678843443754
 40
0.6725347249650005
 40
0.6725347249650005
 40
0.7566015655856255
 40
0.7566015655856255
 40
0.8406684062062506
 40
0.8406684062062506
 40
0.9247352468268756
 40
0.9247352468268756
 40
1.0088020874475
 40
1.0088020874475
 40
1.092868928068125
 40
1.092868928068125
 40
1.155919058533594
 40
1.155919058533594
 40
1.250494254231797
 40
1.250494254231797
 40
1.34506944993
 40
1.34506944993
 40
1.34506944993
 40
1.34506944993
 10
1213.784250078413
 20
806.2372702986953
 30
0.0
 10
1213.784250078413
 20
806.2185901226627
 30
0.0
 10
1213.784234966213
 20
806.1981896352605
 30
0.0
 10
1213.784087034359
 20
806.1449536602458
 30
0.0
 10
1213.7839540106
 20
806.1164842917243
 30
0.0
 10
1213.783576069027
 20
806.068360492368
 30
0.0
 10
1213.783336745086
 20
806.0494720400223
 30
0.0
 10
1213.782855170723
 20
806.0261529787482
 30
0.0
 10
1213.782607685032
 20
806.020735409019
 30
0.0
 10
1213.782113192082
 20
806.0207343223114
 30
0.0
 10
1213.781865781819
 20
806.0263706306999
 30
0.0
 10
1213.781408709478
 20
806.0480655053808
 30
0.0
 10
1213.781199205291
 20
806.0641037376187
 30
0.0
 10
1213.780849246119
 20
806.1042035158921
 30
0.0
 10
1213.780709280368
 20
806.1282083620577
 30
0.0
 10
1213.780519928606
 20
806.1805836939841
 30
0.0
 10
1213.78047072622
 20
806.2089368363849
 30
0.0
 10
1213.78047072622
 20
806.2656037610059
 30
0.0
 10
1213.780519928606
 20
806.2939569034066
 30
0.0
 10
1213.780709280368
 20
806.3463322353333
 30
0.0
 10
1213.780849246119
 20
806.3703370814986
 30
0.0
 10
1213.781199205291
 20
806.4104368597719
 30
0.0
 10
1213.781408709478
 20
806.4264750920102
 30
0.0
 10
1213.781865781819
 20
806.4481699666911
 30
0.0
 10
1213.782113192082
 20
806.4538062750797
 30
0.0
 10
1213.782607685032
 20
806.4538051883717
 30
0.0
 10
1213.782855170723
 20
806.4483876186425
 30
0.0
 10
1213.78327654829
 20
806.4279834400279
 30
0.0
 10
1213.783455709251
 20
806.4153886161777
 30
0.0
 10
1213.783852550481
 20
806.3750476806832
 30
0.0
 10
1213.784031228887
 20
806.3435234461252
 30
0.0
 10
1213.784229930314
 20
806.2825773749009
 30
0.0
 10
1213.784250078413
 20
806.258285496732
 30
0.0
 10
1213.784250078413
 20
806.2372702986953
 30
0.0
  0
LINE
  5
D7FF
330
2
100
AcDbEntity
  8
AM_VIS
100
AcDbLine
 10
1213.617762361293
 20
804.2648293538137
 30
0.0
 11
1213.653193319734
 21
804.2648293538137
 31
0.0
  0
ELLIPSE
  5
D800
330
2
100
AcDbEntity
  8
AM_VIS
100
AcDbEllipse
 10
1213.534754675525
 20
804.4850134107658
 30
0.0
 11
0.1767901577827222
 21
-0.1767901577827224
 31
0.0
210
0.0
220
0.0
230
1.0
 40
0.9999238504775702
 41
5.991277878956052
 42
7.068545394366094
  0
LINE
  5
D801
330
2
100
AcDbEntity
  8
AM_VIS
100
AcDbLine
 10
1210.916684145221
 20
804.2648293538137
 30
0.0
 11
1210.952115103662
 21
804.2648293538137
 31
0.0
  0
ELLIPSE
  5
D802
330
2
100
AcDbEntity
  8
AM_VIS
100
AcDbEllipse
 10
1211.03512278943
 20
804.4850134107658
 30
0.0
 11
-0.1767901577827224
 21
-0.1767901577827221
 31
0.0
210
0.0
220
0.0
230
1.0
 40
0.9999238504775703
 41
5.497825219993077
 42
6.57509273540312
  0
LINE
  5
D807
330
2
100
AcDbEntity
  8
AM_VIS
100
AcDbLine
 10
1213.534773714356
 20
807.2646548164579
 30
0.0
 11
1211.035103750599
 21
807.2646548164579
 31
0.0
  0
ELLIPSE
  5
D808
330
2
100
AcDbEntity
  8
AM_VIS
100
AcDbEllipse
 10
1213.534754675525
 20
807.0146452968613
 30
0.0
 11
0.1767901577827223
 21
0.1767901577827223
 31
0.0
210
0.0
220
0.0
230
1.0
 40
0.9999238504775703
 41
5.497825219993075
 42
7.068545394366094
  0
LINE
  5
D809
330
2
100
AcDbEntity
  8
AM_VIS
100
AcDbLine
 10
1210.785113269833
 20
807.0146643356917
 30
0.0
 11
1210.785113269833
 21
804.4849943719356
 31
0.0
  0
ELLIPSE
  5
D80A
330
2
100
AcDbEntity
  8
AM_VIS
100
AcDbEllipse
 10
1211.03512278943
 20
807.0146452968613
 30
0.0
 11
-0.1767901577827223
 21
0.1767901577827223
 31
0.0
210
0.0
220
0.0
230
1.0
 40
0.9999238504775703
 41
5.497825219993075
 42
7.068545394366093
  0
SPLINE
  5
D80E
330
2
100
AcDbEntity
  8
AM_VIS
100
AcDbSpline
210
0.0
220
0.0
230
1.0
 70
    11
 71
     3
 72
    38
 73
    34
 74
     0
 42
0.0000000001
 43
0.0000000001
 40
0.0
 40
0.0
 40
0.0
 40
0.0
 40
0.0840668375009913
 40
0.0840668375009913
 40
0.1681336750019825
 40
0.1681336750019825
 40
0.2522005125029738
 40
0.2522005125029738
 40
0.336267350003965
 40
0.336267350003965
 40
0.4203341875049563
 40
0.4203341875049563
 40
0.5044010250059476
 40
0.5044010250059476
 40
0.5884678625069389
 40
0.5884678625069389
 40
0.6725347000079301
 40
0.6725347000079301
 40
0.7566015375089213
 40
0.7566015375089213
 40
0.8406683750099123
 40
0.8406683750099123
 40
0.9247352125109035
 40
0.9247352125109035
 40
1.008802050011894
 40
1.008802050011894
 40
1.092868887512886
 40
1.092868887512886
 40
1.155919015638629
 40
1.155919015638629
 40
1.250494207827244
 40
1.250494207827244
 40
1.34506940001586
 40
1.34506940001586
 40
1.34506940001586
 40
1.34506940001586
 10
1210.789408237856
 20
806.2372702986953
 30
0.0
 10
1210.789408237856
 20
806.2185861570723
 30
0.0
 10
1210.789393134941
 20
806.198208186314
 30
0.0
 10
1210.789245373894
 20
806.1450032797308
 30
0.0
 10
1210.789112492757
 20
806.1165403412029
 30
0.0
 10
1210.788734686275
 20
806.0684038583431
 30
0.0
 10
1210.788495202023
 20
806.0494890706628
 30
0.0
 10
1210.788013313432
 20
806.0261495448125
 30
0.0
 10
1210.787765733406
 20
806.0207337392643
 30
0.0
 10
1210.78727123984
 20
806.0207359922884
 30
0.0
 10
1210.787023841388
 20
806.0263737471919
 30
0.0
 10
1210.786566783939
 20
806.0480711635802
 30
0.0
 10
1210.786357296686
 20
806.064109932087
 30
0.0
 10
1210.786007366776
 20
806.1042095633748
 30
0.0
 10
1210.78586741293
 20
806.1282141359351
 30
0.0
 10
1210.785678082478
 20
806.1805868962398
 30
0.0
 10
1210.785628885662
 20
806.2089383299802
 30
0.0
 10
1210.785628885662
 20
806.2656022674104
 30
0.0
 10
1210.785678082478
 20
806.2939537011509
 30
0.0
 10
1210.78586741293
 20
806.3463264614556
 30
0.0
 10
1210.786007366776
 20
806.3703310340159
 30
0.0
 10
1210.786357296686
 20
806.4104306653037
 30
0.0
 10
1210.786566783939
 20
806.4264694338104
 30
0.0
 10
1210.787023841388
 20
806.4481668501988
 30
0.0
 10
1210.78727123984
 20
806.4538046051023
 30
0.0
 10
1210.787765733406
 20
806.4538068581263
 30
0.0
 10
1210.788013313432
 20
806.4483910525785
 30
0.0
 10
1210.788434965949
 20
806.4279689674593
 30
0.0
 10
1210.788614282364
 20
806.4153561254098
 30
0.0
 10
1210.789011129856
 20
806.3749906195843
 30
0.0
 10
1210.789189617723
 20
806.3434710291884
 30
0.0
 10
1210.789388115909
 20
806.2825513872658
 30
0.0
 10
1210.789408237856
 20
806.2582899580215
 30
0.0
 10
1210.789408237856
 20
806.2372702986953
 30
0.0
  0
LINE
  5
D813
330
2
100
AcDbEntity
  8
AM_HID
  6
DASHED
100
AcDbLine
 10
1211.659938732477
 20
805.0350174831674
 30
0.0
 11
1211.820438732477
 21
804.9385793538137
 31
0.0
  0
LINE
  5
D814
330
2
100
AcDbEntity
  8
AM_HID
  6
DASHED
100
AcDbLine
 10
1211.659938732477
 20
805.0350174831674
 30
0.0
 11
1211.499438732478
 21
804.9385793538137
 31
0.0
  0
LINE
  5
D815
330
2
100
AcDbEntity
  8
AM_HID
  6
DASHED
100
AcDbLine
 10
1211.820438732477
 20
804.3073929848807
 30
0.0
 11
1211.857438732477
 21
804.2648293538137
 31
0.0
  0
LINE
  5
D816
330
2
100
AcDbEntity
  8
AM_HID
  6
DASHED
100
AcDbLine
 10
1211.499438732478
 20
804.3073929848807
 30
0.0
 11
1211.462438732477
 21
804.2648293538137
 31
0.0
  0
LINE
  5
D817
330
2
100
AcDbEntity
  8
AM_HID
  6
DASHED
100
AcDbLine
 10
1211.499438732478
 20
804.3073929848807
 30
0.0
 11
1211.499438732478
 21
804.9385793538137
 31
0.0
  0
LINE
  5
D818
330
2
100
AcDbEntity
  8
AM_HID
  6
DASHED
100
AcDbLine
 10
1211.820438732477
 20
804.3073929848807
 30
0.0
 11
1211.820438732477
 21
804.9385793538137
 31
0.0
  0
LINE
  5
D819
330
2
100
AcDbEntity
  8
AM_HID
  6
DASHED
100
AcDbLine
 10
1212.909938732477
 20
805.0350174831674
 30
0.0
 11
1213.070438732477
 21
804.9385793538137
 31
0.0
  0
LINE
  5
D81A
330
2
100
AcDbEntity
  8
AM_HID
  6
DASHED
100
AcDbLine
 10
1212.909938732477
 20
805.0350174831674
 30
0.0
 11
1212.749438732477
 21
804.9385793538137
 31
0.0
  0
LINE
  5
D81B
330
2
100
AcDbEntity
  8
AM_HID
  6
DASHED
100
AcDbLine
 10
1213.070438732477
 20
804.3073929848807
 30
0.0
 11
1213.107438732477
 21
804.2648293538137
 31
0.0
  0
LINE
  5
D81C
330
2
100
AcDbEntity
  8
AM_HID
  6
DASHED
100
AcDbLine
 10
1212.749438732477
 20
804.3073929848807
 30
0.0
 11
1212.712438732477
 21
804.2648293538137
 31
0.0
  0
LINE
  5
D81D
330
2
100
AcDbEntity
  8
AM_HID
  6
DASHED
100
AcDbLine
 10
1212.749438732477
 20
804.3073929848807
 30
0.0
 11
1212.749438732477
 21
804.9385793538137
 31
0.0
  0
LINE
  5
D81E
330
2
100
AcDbEntity
  8
AM_HID
  6
DASHED
100
AcDbLine
 10
1213.070438732477
 20
804.3073929848807
 30
0.0
 11
1213.070438732477
 21
804.9385793538137
 31
0.0
  0
LINE
  5
D839
330
2
100
AcDbEntity
  8
AM_HID
  6
DASHED
100
AcDbLine
 10
1211.820438732477
 20
804.9385793538137
 30
0.0
 11
1211.659938732477
 21
804.9385793538137
 31
0.0
  0
LINE
  5
D83A
330
2
100
AcDbEntity
  8
AM_HID
  6
DASHED
100
AcDbLine
 10
1211.659938732477
 20
804.9385793538137
 30
0.0
 11
1211.499438732478
 21
804.9385793538137
 31
0.0
  0
LINE
  5
D83B
330
2
100
AcDbEntity
  8
AM_HID
  6
DASHED
100
AcDbLine
 10
1211.820438732477
 20
804.3073929848807
 30
0.0
 11
1211.659938732477
 21
804.3073929848807
 31
0.0
  0
LINE
  5
D83C
330
2
100
AcDbEntity
  8
AM_HID
  6
DASHED
100
AcDbLine
 10
1211.659938732477
 20
804.3073929848807
 30
0.0
 11
1211.499438732478
 21
804.3073929848807
 31
0.0
  0
LINE
  5
D83D
330
2
100
AcDbEntity
  8
AM_HID
  6
DASHED
100
AcDbLine
 10
1213.070438732477
 20
804.9385793538137
 30
0.0
 11
1212.909938732477
 21
804.9385793538137
 31
0.0
  0
LINE
  5
D83E
330
2
100
AcDbEntity
  8
AM_HID
  6
DASHED
100
AcDbLine
 10
1212.909938732477
 20
804.9385793538137
 30
0.0
 11
1212.749438732477
 21
804.9385793538137
 31
0.0
  0
LINE
  5
D83F
330
2
100
AcDbEntity
  8
AM_HID
  6
DASHED
100
AcDbLine
 10
1213.070438732477
 20
804.3073929848807
 30
0.0
 11
1212.909938732477
 21
804.3073929848807
 31
0.0
  0
LINE
  5
D840
330
2
100
AcDbEntity
  8
AM_HID
  6
DASHED
100
AcDbLine
 10
1212.909938732477
 20
804.3073929848807
 30
0.0
 11
1212.749438732477
 21
804.3073929848807
 31
0.0
  0
ARC
  5
D849
330
2
100
AcDbEntity
  8
AM_VIS
100
AcDbCircle
 10
1212.284938732477
 20
805.7648293538138
 30
0.0
 40
0.3725000000000001
100
AcDbArc
 50
37.4775374225875
 51
82.52246257742392
  0
ARC
  5
D84B
330
2
100
AcDbEntity
  8
AM_VIS
100
AcDbCircle
 10
1212.284938732477
 20
805.7648293538138
 30
0.0
 40
0.3725000000000001
100
AcDbArc
 50
337.4775374225959
 51
22.52246257740407
  0
ARC
  5
D84D
330
2
100
AcDbEntity
  8
AM_VIS
100
AcDbCircle
 10
1212.284938732477
 20
805.7648293538138
 30
0.0
 40
0.3725000000000001
100
AcDbArc
 50
277.477537422589
 51
322.5224625774022
  0
ARC
  5
D84F
330
2
100
AcDbEntity
  8
AM_VIS
100
AcDbCircle
 10
1212.284938732477
 20
805.7648293538138
 30
0.0
 40
0.3725000000000001
100
AcDbArc
 50
217.4775374226058
 51
262.5224625773963
  0
ARC
  5
D851
330
2
100
AcDbEntity
  8
AM_VIS
100
AcDbCircle
 10
1212.284938732477
 20
805.7648293538138
 30
0.0
 40
0.3725000000000001
100
AcDbArc
 50
157.4775374225959
 51
202.5224625774041
  0
ARC
  5
D853
330
2
100
AcDbEntity
  8
AM_VIS
100
AcDbCircle
 10
1212.284938732477
 20
805.7648293538138
 30
0.0
 40
0.3725000000000001
100
AcDbArc
 50
97.477537422589
 51
142.5224625774125
  0
ARC
  5
D856
330
2
100
AcDbEntity
  8
AM_VIS
100
AcDbCircle
 10
1213.615764414677
 20
805.8510744325539
 30
0.0
 40
0.0393700787401575
100
AcDbArc
 50
270.0
 51
0.0
  0
ARC
  5
D857
330
2
100
AcDbEntity
  8
AM_VIS
100
AcDbCircle
 10
1213.225876335083
 20
805.8510744325539
 30
0.0
 40
0.0393700787401575
100
AcDbArc
 50
185.237021077003
 51
270.0
  0
ARC
  5
D858
330
2
100
AcDbEntity
  8
AM_VIS
100
AcDbCircle
 10
1212.284938732477
 20
805.7648293538138
 30
0.0
 40
0.905511811023622
100
AcDbArc
 50
5.237021077003016
 51
39.76297892299602
  0
ARC
  5
D859
330
2
100
AcDbEntity
  8
AM_VIS
100
AcDbCircle
 10
1213.011266571974
 20
806.3691882332681
 30
0.0
 40
0.0393700787401575
100
AcDbArc
 50
135.0
 51
219.762978922996
  0
ARC
  5
D85A
330
2
100
AcDbEntity
  8
AM_VIS
100
AcDbCircle
 10
1213.136285844071
 20
806.4942075053647
 30
0.0
 40
0.0393700787401575
100
AcDbArc
 50
56.32024140448371
 51
135.0000000000092
  0
ARC
  5
D85B
330
2
100
AcDbEntity
  8
AM_VIS
100
AcDbCircle
 10
1213.379938732477
 20
806.8598293538135
 30
0.0
 40
0.4000000000000001
100
AcDbArc
 50
236.3202414044837
 51
270.0
  0
ARC
  5
D85C
330
2
100
AcDbEntity
  8
AM_VIS
100
AcDbCircle
 10
1213.615764414677
 20
806.4204592750735
 30
0.0
 40
0.0393700787401575
100
AcDbArc
 50
0.0
 51
90.0
  0
ARC
  5
D85D
330
2
100
AcDbEntity
  8
AM_VIS
100
AcDbCircle
 10
1210.954113050278
 20
805.6785842750736
 30
0.0
 40
0.0393700787401575
100
AcDbArc
 50
90.0
 51
180.0
  0
ARC
  5
D85E
330
2
100
AcDbEntity
  8
AM_VIS
100
AcDbCircle
 10
1211.344001129872
 20
805.6785842750736
 30
0.0
 40
0.0393700787401575
100
AcDbArc
 50
5.237021077003016
 51
90.0
  0
ARC
  5
D85F
330
2
100
AcDbEntity
  8
AM_VIS
100
AcDbCircle
 10
1212.284938732477
 20
805.7648293538138
 30
0.0
 40
0.905511811023622
100
AcDbArc
 50
185.237021077003
 51
219.762978922996
  0
ARC
  5
D860
330
2
100
AcDbEntity
  8
AM_VIS
100
AcDbCircle
 10
1211.558610892981
 20
805.1604704743592
 30
0.0
 40
0.0393700787401575
100
AcDbArc
 50
315.0
 51
39.76297892299602
  0
ARC
  5
D861
330
2
100
AcDbEntity
  8
AM_VIS
100
AcDbCircle
 10
1211.433591620884
 20
805.0354512022625
 30
0.0
 40
0.0393700787401575
100
AcDbArc
 50
236.3202414044764
 51
315.0
  0
ARC
  5
D862
330
2
100
AcDbEntity
  8
AM_VIS
100
AcDbCircle
 10
1211.189938732477
 20
804.6698293538137
 30
0.0
 40
0.4000000000000001
100
AcDbArc
 50
56.32024140448371
 51
90.0
  0
ARC
  5
D863
330
2
100
AcDbEntity
  8
AM_VIS
100
AcDbCircle
 10
1210.954113050278
 20
805.1091994325537
 30
0.0
 40
0.0393700787401575
100
AcDbArc
 50
180.0
 51
270.0
  0
ARC
  5
D864
330
2
100
AcDbEntity
  8
AM_VIS
100
AcDbCircle
 10
1210.954113050278
 20
805.8510744325539
 30
0.0
 40
0.0393700787401575
100
AcDbArc
 50
180.0
 51
270.0
  0
ARC
  5
D865
330
2
100
AcDbEntity
  8
AM_VIS
100
AcDbCircle
 10
1210.954113050278
 20
806.4204592750735
 30
0.0
 40
0.0393700787401575
100
AcDbArc
 50
90.0
 51
180.0
  0
ARC
  5
D866
330
2
100
AcDbEntity
  8
AM_VIS
100
AcDbCircle
 10
1211.189938732477
 20
806.8598293538135
 30
0.0
 40
0.4000000000000001
100
AcDbArc
 50
270.0
 51
303.6797585955163
  0
ARC
  5
D867
330
2
100
AcDbEntity
  8
AM_VIS
100
AcDbCircle
 10
1211.433591620884
 20
806.4942075053647
 30
0.0
 40
0.0393700787401575
100
AcDbArc
 50
45.00000000000921
 51
123.6797585955235
  0
ARC
  5
D868
330
2
100
AcDbEntity
  8
AM_VIS
100
AcDbCircle
 10
1211.558610892981
 20
806.3691882332681
 30
0.0
 40
0.0393700787401575
100
AcDbArc
 50
320.2370210770039
 51
45.0
  0
ARC
  5
D869
330
2
100
AcDbEntity
  8
AM_VIS
100
AcDbCircle
 10
1212.284938732477
 20
805.7648293538138
 30
0.0
 40
0.905511811023622
100
AcDbArc
 50
140.237021077004
 51
174.762978922997
  0
ARC
  5
D86A
330
2
100
AcDbEntity
  8
AM_VIS
100
AcDbCircle
 10
1211.344001129872
 20
805.8510744325539
 30
0.0
 40
0.0393700787401575
100
AcDbArc
 50
270.0
 51
354.762978922997
  0
ARC
  5
D86B
330
2
100
AcDbEntity
  8
AM_VIS
100
AcDbCircle
 10
1212.889297611932
 20
805.0385015143168
 30
0.0
 40
0.0393700787401575
100
AcDbArc
 50
45.0
 51
129.762978922996
  0
ARC
  5
D86C
330
2
100
AcDbEntity
  8
AM_VIS
100
AcDbCircle
 10
1213.014316884028
 20
804.9134822422203
 30
0.0
 40
0.0393700787401575
100
AcDbArc
 50
326.3202414044837
 51
45.0
  0
ARC
  5
D86D
330
2
100
AcDbEntity
  8
AM_VIS
100
AcDbCircle
 10
1213.379938732477
 20
804.6698293538137
 30
0.0
 40
0.4000000000000001
100
AcDbArc
 50
146.3202414044837
 51
180.0
  0
ARC
  5
D86E
330
2
100
AcDbEntity
  8
AM_VIS
100
AcDbCircle
 10
1212.940568653737
 20
804.4340036716137
 30
0.0
 40
0.0393700787401575
100
AcDbArc
 50
270.0
 51
0.0
  0
ARC
  5
D86F
330
2
100
AcDbEntity
  8
AM_VIS
100
AcDbCircle
 10
1212.371183811218
 20
804.4340036716137
 30
0.0
 40
0.0393700787401575
100
AcDbArc
 50
180.0
 51
270.0
  0
ARC
  5
D870
330
2
100
AcDbEntity
  8
AM_VIS
100
AcDbCircle
 10
1212.371183811218
 20
804.8238917512083
 30
0.0
 40
0.0393700787401575
100
AcDbArc
 50
95.23702107700302
 51
180.0
  0
ARC
  5
D871
330
2
100
AcDbEntity
  8
AM_VIS
100
AcDbCircle
 10
1212.284938732477
 20
805.7648293538138
 30
0.0
 40
0.905511811023622
100
AcDbArc
 50
275.237021077003
 51
309.762978922996
  0
ARC
  5
D872
330
2
100
AcDbEntity
  8
AM_VIS
100
AcDbCircle
 10
1211.629308811217
 20
804.4340036716137
 30
0.0
 40
0.0393700787401575
100
AcDbArc
 50
180.0
 51
270.0
  0
ARC
  5
D873
330
2
100
AcDbEntity
  8
AM_VIS
100
AcDbCircle
 10
1211.189938732477
 20
804.6698293538137
 30
0.0
 40
0.4000000000000001
100
AcDbArc
 50
0.0
 51
33.67975859551629
  0
ARC
  5
D874
330
2
100
AcDbEntity
  8
AM_VIS
100
AcDbCircle
 10
1211.555560580926
 20
804.9134822422203
 30
0.0
 40
0.0393700787401575
100
AcDbArc
 50
135.0
 51
213.6797585955163
  0
ARC
  5
D875
330
2
100
AcDbEntity
  8
AM_VIS
100
AcDbCircle
 10
1211.680579853023
 20
805.0385015143168
 30
0.0
 40
0.0393700787401575
100
AcDbArc
 50
50.23702107700398
 51
135.0
  0
ARC
  5
D876
330
2
100
AcDbEntity
  8
AM_VIS
100
AcDbCircle
 10
1212.284938732477
 20
805.7648293538138
 30
0.0
 40
0.905511811023622
100
AcDbArc
 50
230.2370210770039
 51
264.762978922997
  0
ARC
  5
D877
330
2
100
AcDbEntity
  8
AM_VIS
100
AcDbCircle
 10
1212.198693653737
 20
804.8238917512083
 30
0.0
 40
0.0393700787401575
100
AcDbArc
 50
0.0
 51
84.76297892299697
  0
ARC
  5
D878
330
2
100
AcDbEntity
  8
AM_VIS
100
AcDbCircle
 10
1212.198693653737
 20
804.4340036716137
 30
0.0
 40
0.0393700787401575
100
AcDbArc
 50
270.0
 51
0.0
  0
ARC
  5
D879
330
2
100
AcDbEntity
  8
AM_VIS
100
AcDbCircle
 10
1213.615764414677
 20
805.1091994325537
 30
0.0
 40
0.0393700787401575
100
AcDbArc
 50
270.0
 51
0.0
  0
ARC
  5
D87A
330
2
100
AcDbEntity
  8
AM_VIS
100
AcDbCircle
 10
1213.379938732477
 20
804.6698293538137
 30
0.0
 40
0.4000000000000001
100
AcDbArc
 50
90.0
 51
123.6797585955163
  0
ARC
  5
D87B
330
2
100
AcDbEntity
  8
AM_VIS
100
AcDbCircle
 10
1213.136285844071
 20
805.0354512022625
 30
0.0
 40
0.0393700787401575
100
AcDbArc
 50
225.0
 51
303.6797585955235
  0
ARC
  5
D87C
330
2
100
AcDbEntity
  8
AM_VIS
100
AcDbCircle
 10
1213.011266571974
 20
805.1604704743592
 30
0.0
 40
0.0393700787401575
100
AcDbArc
 50
140.237021077004
 51
225.0
  0
ARC
  5
D87D
330
2
100
AcDbEntity
  8
AM_VIS
100
AcDbCircle
 10
1212.284938732477
 20
805.7648293538138
 30
0.0
 40
0.905511811023622
100
AcDbArc
 50
320.2370210770039
 51
354.762978922997
  0
ARC
  5
D87E
330
2
100
AcDbEntity
  8
AM_VIS
100
AcDbCircle
 10
1213.225876335083
 20
805.6785842750736
 30
0.0
 40
0.0393700787401575
100
AcDbArc
 50
90.0
 51
174.762978922997
  0
ARC
  5
D87F
330
2
100
AcDbEntity
  8
AM_VIS
100
AcDbCircle
 10
1213.615764414677
 20
805.6785842750736
 30
0.0
 40
0.0393700787401575
100
AcDbArc
 50
0.0
 51
90.0
  0
ARC
  5
D880
330
2
100
AcDbEntity
  8
AM_VIS
100
AcDbCircle
 10
1212.940568653737
 20
807.0956550360135
 30
0.0
 40
0.0393700787401575
100
AcDbArc
 50
0.0
 51
90.0
  0
ARC
  5
D881
330
2
100
AcDbEntity
  8
AM_VIS
100
AcDbCircle
 10
1213.379938732477
 20
806.8598293538135
 30
0.0
 40
0.4000000000000001
100
AcDbArc
 50
180.0
 51
213.6797585955163
  0
ARC
  5
D882
330
2
100
AcDbEntity
  8
AM_VIS
100
AcDbCircle
 10
1213.014316884028
 20
806.6161764654069
 30
0.0
 40
0.0393700787401575
100
AcDbArc
 50
315.0000000000092
 51
33.67975859551629
  0
ARC
  5
D883
330
2
100
AcDbEntity
  8
AM_VIS
100
AcDbCircle
 10
1212.889297611932
 20
806.4911571933103
 30
0.0
 40
0.0393700787401575
100
AcDbArc
 50
230.2370210770039
 51
315.0
  0
ARC
  5
D884
330
2
100
AcDbEntity
  8
AM_VIS
100
AcDbCircle
 10
1212.284938732477
 20
805.7648293538138
 30
0.0
 40
0.905511811023622
100
AcDbArc
 50
50.23702107700398
 51
84.76297892299697
  0
ARC
  5
D885
330
2
100
AcDbEntity
  8
AM_VIS
100
AcDbCircle
 10
1212.371183811218
 20
806.705766956419
 30
0.0
 40
0.0393700787401575
100
AcDbArc
 50
180.0
 51
264.762978922997
  0
ARC
  5
D886
330
2
100
AcDbEntity
  8
AM_VIS
100
AcDbCircle
 10
1212.371183811218
 20
807.0956550360135
 30
0.0
 40
0.0393700787401575
100
AcDbArc
 50
90.0
 51
180.0
  0
ARC
  5
D887
330
2
100
AcDbEntity
  8
AM_VIS
100
AcDbCircle
 10
1211.555560580926
 20
806.6161764654069
 30
0.0
 40
0.0393700787401575
100
AcDbArc
 50
146.3202414044764
 51
225.0000000000092
  0
ARC
  5
D888
330
2
100
AcDbEntity
  8
AM_VIS
100
AcDbCircle
 10
1211.189938732477
 20
806.8598293538135
 30
0.0
 40
0.4000000000000001
100
AcDbArc
 50
326.3202414044837
 51
0.0
  0
ARC
  5
D889
330
2
100
AcDbEntity
  8
AM_VIS
100
AcDbCircle
 10
1211.629308811217
 20
807.0956550360135
 30
0.0
 40
0.0393700787401575
100
AcDbArc
 50
90.0
 51
180.0
  0
ARC
  5
D88A
330
2
100
AcDbEntity
  8
AM_VIS
100
AcDbCircle
 10
1212.198693653737
 20
807.0956550360135
 30
0.0
 40
0.0393700787401575
100
AcDbArc
 50
0.0
 51
90.0
  0
ARC
  5
D88B
330
2
100
AcDbEntity
  8
AM_VIS
100
AcDbCircle
 10
1212.198693653737
 20
806.705766956419
 30
0.0
 40
0.0393700787401575
100
AcDbArc
 50
275.237021077003
 51
0.0
  0
ARC
  5
D88C
330
2
100
AcDbEntity
  8
AM_VIS
100
AcDbCircle
 10
1212.284938732477
 20
805.7648293538138
 30
0.0
 40
0.905511811023622
100
AcDbArc
 50
95.23702107700302
 51
129.762978922996
  0
ARC
  5
D88D
330
2
100
AcDbEntity
  8
AM_VIS
100
AcDbCircle
 10
1211.680579853023
 20
806.4911571933103
 30
0.0
 40
0.0393700787401575
100
AcDbArc
 50
225.0
 51
309.762978922996
  0
CIRCLE
  5
D88E
330
2
100
AcDbEntity
  8
AM_VIS
100
AcDbCircle
 10
1213.379938732477
 20
806.8598293538135
 30
0.0
 40
0.2791784577565538
  0
CIRCLE
  5
D88F
330
2
100
AcDbEntity
  8
AM_VIS
100
AcDbCircle
 10
1211.189938732477
 20
806.8598293538135
 30
0.0
 40
0.2791784577565538
  0
CIRCLE
  5
D890
330
2
100
AcDbEntity
  8
AM_VIS
100
AcDbCircle
 10
1213.379938732477
 20
804.6698293538137
 30
0.0
 40
0.2791784577565538
  0
CIRCLE
  5
D891
330
2
100
AcDbEntity
  8
AM_VIS
100
AcDbCircle
 10
1211.189938732477
 20
804.6698293538137
 30
0.0
 40
0.2791784577565538
  0
CIRCLE
  5
D892
330
2
100
AcDbEntity
  8
AM_VIS
100
AcDbCircle
 10
1212.284938732477
 20
805.7648293538138
 30
0.0
 40
0.5625000000000001
  0
CIRCLE
  5
D893
330
2
100
AcDbEntity
  8
AM_VIS
100
AcDbCircle
 10
1212.284938732477
 20
805.7648293538138
 30
0.0
 40
0.552015046603311
  0
CIRCLE
  5
D8B4
330
2
100
AcDbEntity
  8
AM_VIS
100
AcDbCircle
 10
1213.379938732477
 20
806.8598293538135
 30
0.0
 40
0.2647526025213907
  0
CIRCLE
  5
D8B6
330
2
100
AcDbEntity
  8
AM_VIS
100
AcDbCircle
 10
1211.189938732477
 20
806.8598293538135
 30
0.0
 40
0.2647526025213907
  0
CIRCLE
  5
D8B8
330
2
100
AcDbEntity
  8
AM_VIS
100
AcDbCircle
 10
1213.379938732477
 20
804.6698293538137
 30
0.0
 40
0.2647526025213907
  0
CIRCLE
  5
D8BA
330
2
100
AcDbEntity
  8
AM_VIS
100
AcDbCircle
 10
1211.189938732477
 20
804.6698293538137
 30
0.0
 40
0.2647526025213907
  0
MTEXT
  5
DC7D
330
2
100
AcDbEntity
  8
DIM
 48
0.5
100
AcDbMText
 10
1114.247859766007
 20
797.0169736494896
 30
0.0
 40
0.12
 41
0.0
 71
     1
 72
     1
  1

  7
DAYUS
 73
     1
 44
1.0
1001
ACAD
1000
MTEXTBEGIN
1070
    73
1070
     1
1070
    44
1040
1.0
1070
    74
1070
     0
1000
MTEXTEND
  0
MTEXT
  5
DC7F
330
2
100
AcDbEntity
  8
DIM
 48
0.5
100
AcDbMText
 10
1111.684079506475
 20
794.1777883968577
 30
0.0
 40
0.12
 41
0.0
 71
     9
 72
     1
  1

  7
DAYUS
 73
     1
 44
1.0
1001
ACAD
1000
MTEXTBEGIN
1070
    73
1070
     1
1070
    44
1040
1.0
1070
    74
1070
     0
1000
MTEXTEND
  0
MTEXT
  5
DC81
330
2
100
AcDbEntity
  8
DIM
 48
0.5
100
AcDbMText
 10
1115.836837484741
 20
794.6529629862998
 30
0.0
 40
0.12
 41
0.0
 71
     9
 72
     1
  1

  7
DAYUS
 73
     1
 44
1.0
1001
ACAD
1000
MTEXTBEGIN
1070
    73
1070
     1
1070
    44
1040
1.0
1070
    74
1070
     0
1000
MTEXTEND
  0
MTEXT
  5
DC93
330
2
100
AcDbEntity
  8
DIM
 48
0.5
100
AcDbMText
 10
1115.815406093485
 20
794.6915823182214
 30
0.0
 40
0.12
 41
0.0
 71
     9
 72
     1
  1

  7
DAYUS
 73
     1
 44
1.0
1001
ACAD
1000
MTEXTBEGIN
1070
    73
1070
     1
1070
    44
1040
1.0
1070
    74
1070
     0
1000
MTEXTEND
  0
MTEXT
  5
DC96
330
2
100
AcDbEntity
  8
DIM
 48
0.5
100
AcDbMText
 10
1116.982157800725
 20
796.5496661731918
 30
0.0
 40
0.12
 41
0.0
 71
     9
 72
     1
  1

  7
DAYUS
 73
     1
 44
1.0
1001
ACAD
1000
MTEXTBEGIN
1070
    73
1070
     1
1070
    44
1040
1.0
1070
    74
1070
     0
1000
MTEXTEND
  0
MTEXT
  5
DC99
330
2
100
AcDbEntity
  8
DIM
 48
0.5
100
AcDbMText
 10
1121.531868397632
 20
797.4583049052268
 30
0.0
 40
0.12
 41
0.0
 71
     1
 72
     1
  1

  7
DAYUS
 73
     1
 44
1.0
1001
ACAD
1000
MTEXTBEGIN
1070
    73
1070
     1
1070
    44
1040
1.0
1070
    74
1070
     0
1000
MTEXTEND
  0
MTEXT
  5
DC9C
330
2
100
AcDbEntity
  8
DIM
 48
0.5
100
AcDbMText
 10
1116.419315707743
 20
793.4122773324166
 30
0.0
 40
0.12
 41
0.0
 71
     9
 72
     1
  1

  7
DAYUS
 73
     1
 44
1.0
1001
ACAD
1000
MTEXTBEGIN
1070
    73
1070
     1
1070
    44
1040
1.0
1070
    74
1070
     0
1000
MTEXTEND
  0
TEXT
  5
DEC7
330
2
100
AcDbEntity
  8
DIM
 48
0.5
100
AcDbText
 10
1216.59319853931
 20
806.6804153918811
 30
0.0
 40
0.12
  1
0.69
  7
CHINESET
100
AcDbText
  0
TEXT
  5
DEC8
330
2
100
AcDbEntity
  8
DIM
 48
0.5
100
AcDbText
 10
1214.975238212802
 20
805.031575905723
 30
0.0
 40
0.12
  1
7/16-20
  7
CHINESET
100
AcDbText
  0
TEXT
  5
DEC9
330
2
100
AcDbEntity
  8
DIM
 48
0.5
100
AcDbText
 10
1209.448849813598
 20
803.4429630697518
 30
0.0
 40
0.12
  1
19/32深
  7
CHINESET
100
AcDbText
  0
TEXT
  5
DECA
330
2
100
AcDbEntity
  8
DIM
 48
0.5
100
AcDbText
 10
1209.450119976131
 20
803.6885319323834
 30
0.0
 40
0.12
  1
4-3/8-16
  7
CHINESET
100
AcDbText
  0
TEXT
  5
DECB
330
2
100
AcDbEntity
  8
DIM
 48
0.5
100
AcDbText
 10
1217.573967939926
 20
806.8456170611593
 30
0.0
 40
0.12
  1
兩面巾
  7
CHINESET
100
AcDbText
  0
TEXT
  5
DECC
330
2
100
AcDbEntity
  8
DIM
 48
0.5
100
AcDbText
 10
1217.588620274913
 20
807.0706765051017
 30
0.0
 40
0.12
  1
9/16
  7
CHINESET
100
AcDbText
  0
TEXT
  5
DECD
330
2
100
AcDbEntity
  8
DIM
 48
0.5
100
AcDbText
 10
1211.699277544316
 20
807.7267658583359
 30
0.0
 40
0.12
  1
5/16-24
  7
CHINESET
100
AcDbText
  0
TEXT
  5
DECE
330
2
100
AcDbEntity
  8
DIM
 48
0.5
100
AcDbText
 10
1219.389951673177
 20
808.0206644812646
 30
0.0
 40
0.12
  1
2-3/8(NPTF)
  7
CHINESET
100
AcDbText
  0
MTEXT
  5
DEE9
330
2
100
AcDbEntity
  8
DIM
 48
0.5
100
AcDbMText
 10
1159.684561974738
 20
800.0287868194371
 30
0.0
 40
0.12
 41
0.0
 71
     1
 72
     1
  1

  7
DAYUS
 73
     1
 44
1.0
1001
ACAD
1000
MTEXTBEGIN
1070
    73
1070
     1
1070
    44
1040
1.0
1070
    74
1070
     0
1000
MTEXTEND
  0
MTEXT
  5
DEEB
330
2
100
AcDbEntity
  8
DIM
 48
0.5
100
AcDbMText
 10
1157.037525554902
 20
796.4560410913543
 30
0.0
 40
0.12
 41
0.0
 71
     9
 72
     1
  1

  7
DAYUS
 73
     1
 44
1.0
1001
ACAD
1000
MTEXTBEGIN
1070
    73
1070
     1
1070
    44
1040
1.0
1070
    74
1070
     0
1000
MTEXTEND
  0
MTEXT
  5
DEEF
330
2
100
AcDbEntity
  8
DIM
 48
0.5
100
AcDbMText
 10
1162.155176252831
 20
796.0961496997271
 30
0.0
 40
0.12
 41
0.0
 71
     9
 72
     1
  1

  7
DAYUS
 73
     1
 44
1.0
1001
ACAD
1000
MTEXTBEGIN
1070
    73
1070
     1
1070
    44
1040
1.0
1070
    74
1070
     0
1000
MTEXTEND
  0
MTEXT
  5
DEF1
330
2
100
AcDbEntity
  8
DIM
 48
0.5
100
AcDbMText
 10
1162.886359226598
 20
799.5511907894063
 30
0.0
 40
0.12
 41
0.0
 71
     9
 72
     1
  1

  7
DAYUS
 73
     1
 44
1.0
1001
ACAD
1000
MTEXTBEGIN
1070
    73
1070
     1
1070
    44
1040
1.0
1070
    74
1070
     0
1000
MTEXTEND
  0
MTEXT
  5
DEF3
330
2
100
AcDbEntity
  8
DIM
 48
0.5
100
AcDbMText
 10
1161.131049838054
 20
797.4162802154439
 30
0.0
 40
0.12
 41
0.0
 71
     9
 72
     1
  1

  7
DAYUS
 73
     1
 44
1.0
1001
ACAD
1000
MTEXTBEGIN
1070
    73
1070
     1
1070
    44
1040
1.0
1070
    74
1070
     0
1000
MTEXTEND
  0
MTEXT
  5
DEF5
330
2
100
AcDbEntity
  8
DIM
 48
0.5
100
AcDbMText
 10
1167.110800954161
 20
799.7341262213182
 30
0.0
 40
0.12
 41
0.0
 71
     1
 72
     1
  1

  7
DAYUS
 73
     1
 44
1.0
1001
ACAD
1000
MTEXTBEGIN
1070
    73
1070
     1
1070
    44
1040
1.0
1070
    74
1070
     0
1000
MTEXTEND
  0
DIMENSION
  5
DF04
330
2
100
AcDbEntity
  8
DIM
 48
0.5
100
AcDbDimension
  2
*D1
 10
1210.084113357358
 20
807.2646548164579
 30
0.0
 11
1209.952684785929
 21
805.7647420851358
 31
0.0
 70
    32
 71
     5
 42
-1.0
  3
STANDARD
100
AcDbAlignedDimension
 13
1210.952115103662
 23
804.2648293538135
 33
0.0
 14
1211.035103750599
 24
807.2646548164579
 34
0.0
 50
90.0
100
AcDbRotatedDimension
  0
DIMENSION
  5
DF11
330
2
100
AcDbEntity
  8
DIM
 48
0.5
100
AcDbDimension
  2
*D2
 10
1210.487291825613
 20
805.7648293538138
 30
0.0
 11
1210.355863254185
 21
805.0148293538139
 31
0.0
 70
    32
 71
     5
 42
-1.0
  3
STANDARD
100
AcDbAlignedDimension
 13
1210.952115103661
 23
804.2648293538137
 33
0.0
 14
1210.802648523268
 24
805.7648293538138
 34
0.0
 50
90.0
100
AcDbRotatedDimension
  0
DIMENSION
  5
DF1E
330
2
100
AcDbEntity
  8
DIM
 48
0.5
100
AcDbDimension
  2
*D3
 10
1212.909938732477
 20
803.7532412440642
 30
0.0
 11
1212.284938732477
 21
803.8846698154928
 31
0.0
 70
    32
 71
     5
 42
-1.0
  3
STANDARD
100
AcDbAlignedDimension
 13
1211.659938732477
 23
804.1548293538136
 33
0.0
 14
1212.909938732477
 24
804.1548293538136
 34
0.0
100
AcDbRotatedDimension
  0
DIMENSION
  5
DF2B
330
2
100
AcDbEntity
  8
DIM
 48
0.5
100
AcDbDimension
  2
*D4
 10
1213.379938732477
 20
803.4050000885295
 30
0.0
 11
1212.284938732477
 21
803.5364286599582
 31
0.0
 70
    32
 71
     5
 42
-1.0
  3
STANDARD
100
AcDbAlignedDimension
 13
1211.189938732477
 23
804.1535793538136
 33
0.0
 14
1213.379938732477
 24
804.1535793538136
 34
0.0
100
AcDbRotatedDimension
  0
DIMENSION
  5
DF39
330
2
100
AcDbEntity
  8
DIM
 48
0.5
100
AcDbDimension
  2
*D5
 10
1213.784764195122
 20
803.0910292009279
 30
0.0
 11
1212.284938732477
 21
803.2224577723566
 31
0.0
 70
    32
 71
     5
 42
-1.0
  3
STANDARD
100
AcDbAlignedDimension
 13
1210.785113269833
 23
804.4849943719354
 33
0.0
 14
1213.784764195122
 24
804.4849943719354
 34
0.0
100
AcDbRotatedDimension
  0
DIMENSION
  5
DF46
102
{ACAD_REACTORS
330
FC09
330
FC7A
102
}
330
2
100
AcDbEntity
  8
DIM
 48
0.5
100
AcDbDimension
  2
*D6
 10
1216.330918932297
 20
806.0773293538137
 30
0.0
 11
1216.330918932297
 21
807.085112015476
 31
0.0
 70
   160
  1
%%c<>
 71
     5
 42
0.6250000000002274
  3
STANDARD
100
AcDbAlignedDimension
 13
1217.323888081114
 23
805.4523293538135
 33
0.0
 14
1217.323888081114
 24
806.0773293538137
 34
0.0
 50
90.0
100
AcDbRotatedDimension
  0
DIMENSION
  5
DF54
102
{ACAD_REACTORS
330
FC09
330
FC7A
102
}
330
2
100
AcDbEntity
  8
DIM
 48
0.5
100
AcDbDimension
  2
*D7
 10
1215.982551726709
 20
806.3273293538138
 30
0.0
 11
1215.85112315528
 21
807.0930436395281
 31
0.0
 70
    32
  1
%%c<>
 71
     5
 42
-1.0
  3
STANDARD
100
AcDbAlignedDimension
 13
1217.630233755355
 23
805.2023293538137
 33
0.0
 14
1217.630233755355
 24
806.3273293538138
 34
0.0
 50
90.0
100
AcDbRotatedDimension
  0
DIMENSION
  5
DF62
330
2
100
AcDbEntity
  8
DIM
 48
0.5
100
AcDbDimension
  2
*D8
 10
1222.638808625154
 20
806.3273293538138
 30
0.0
 11
1222.507380053726
 21
807.0930436395281
 31
0.0
 70
    32
  1
%%c<>
 71
     5
 42
-1.0
  3
STANDARD
100
AcDbAlignedDimension
 13
1222.101755920842
 23
805.2023293538137
 33
0.0
 14
1222.101755920842
 24
806.3273293538138
 34
0.0
 50
90.0
100
AcDbRotatedDimension
  0
DIMENSION
  5
DF70
102
{ACAD_REACTORS
330
FC09
102
}
330
2
100
AcDbEntity
  8
DIM
 48
0.5
100
AcDbDimension
  2
*D9
 10
1216.770147923634
 20
804.5455089080631
 30
0.0
 11
1215.830816668112
 21
804.5455089080631
 31
0.0
 70
   160
 71
     5
 42
-1.0
  3
STANDARD
100
AcDbAlignedDimension
 13
1217.025147923634
 23
805.4208293538136
 33
0.0
 14
1216.770147923634
 24
805.4208293538136
 34
0.0
100
AcDbRotatedDimension
  0
DIMENSION
  5
DF7E
102
{ACAD_REACTORS
330
FC4A
102
}
330
2
100
AcDbEntity
  8
DIM
 48
0.5
100
AcDbDimension
  2
*D10
 10
1217.630233755355
 20
803.8957432136196
 30
0.0
 11
1218.307376612498
 21
804.0271717850483
 31
0.0
 70
    32
 71
     5
 42
-1.0
  3
STANDARD
100
AcDbAlignedDimension
 13
1217.245147923634
 23
805.5458293538137
 33
0.0
 14
1217.630233755355
 24
805.2023293538137
 34
0.0
100
AcDbRotatedDimension
  0
DIMENSION
  5
DF8C
330
2
100
AcDbEntity
  8
DIM
 48
0.5
100
AcDbDimension
  2
*D11
 10
1216.495147923634
 20
803.8957432136196
 30
0.0
 11
1215.772290780777
 21
804.0271717850483
 31
0.0
 70
    32
 71
     5
 42
-1.0
  3
STANDARD
100
AcDbAlignedDimension
 13
1217.245147923634
 23
805.5458293538137
 33
0.0
 14
1216.495147923634
 24
805.5851994325538
 34
0.0
100
AcDbRotatedDimension
  0
DIMENSION
  5
DF9A
102
{ACAD_XDICTIONARY
360
FC49
102
}
102
{ACAD_REACTORS
330
FC09
330
FC24
330
FC4A
102
}
330
2
100
AcDbEntity
  8
DIM
 48
0.5
100
AcDbDimension
  2
*D12
 10
1219.545108553555
 20
803.4711504163821
 30
0.0
 11
1218.895108553555
 21
803.6025789878106
 31
0.0
 70
    32
 71
     5
 42
1.299999999999954
  3
STANDARD
100
AcDbAlignedDimension
 13
1218.245108553555
 23
804.2648293538137
 33
0.0
 14
1219.545108553555
 24
804.2648293538137
 34
0.0
100
AcDbRotatedDimension
  0
DIMENSION
  5
DFB5
102
{ACAD_REACTORS
330
FC24
102
}
330
2
100
AcDbEntity
  8
DIM
 48
0.5
100
AcDbDimension
  2
*D13
 10
1221.995108553555
 20
803.4818722286352
 30
0.0
 11
1222.717965696412
 21
803.6133008000637
 31
0.0
 70
    32
 71
     5
 42
-1.0
  3
STANDARD
100
AcDbAlignedDimension
 13
1220.935108553555
 23
804.2648293538137
 33
0.0
 14
1221.995108553555
 24
804.2648293538137
 34
0.0
100
AcDbRotatedDimension
  0
DIMENSION
  5
DFC3
102
{ACAD_XDICTIONARY
360
FC08
102
}
102
{ACAD_REACTORS
330
FC09
102
}
330
2
100
AcDbEntity
  8
DIM
 48
0.5
100
AcDbDimension
  2
*D14
 10
1219.182608553555
 20
803.034995009041
 30
0.0
 11
1218.213878238594
 21
803.1664235804695
 31
0.0
 70
    32
 71
     5
 42
1.937460629921133
  3
STANDARD
100
AcDbAlignedDimension
 13
1217.245147923634
 23
805.531069511294
 33
0.0
 14
1219.182608553555
 24
804.1548293538136
 34
0.0
100
AcDbRotatedDimension
  0
DIMENSION
  5
DFEB
330
2
100
AcDbEntity
  8
DIM
 48
0.5
100
AcDbDimension
  2
*D15
 10
1220.094072321008
 20
805.7648293538138
 30
0.0
 11
1220.094072321008
 21
805.1848293538139
 31
0.0
 70
   160
 71
     5
 42
0.4724409448817824
  3
STANDARD
100
AcDbAlignedDimension
 13
1219.348573119004
 23
806.2372702986955
 33
0.0
 14
1219.545108553555
 24
805.7648293538138
 34
0.0
 50
90.0
100
AcDbRotatedDimension
  0
DIMENSION
  5
DFF9
102
{ACAD_REACTORS
330
FC7A
330
FC94
102
}
330
2
100
AcDbEntity
  8
DIM
 48
0.5
100
AcDbDimension
  2
*D16
 10
1219.000108553555
 20
808.4622367718051
 30
0.0
 11
1218.122628238594
 21
808.5936653432336
 31
0.0
 70
    32
 71
     5
 42
1.754960629921015
  3
STANDARD
100
AcDbAlignedDimension
 13
1217.245147923634
 23
805.9985891963334
 33
0.0
 14
1219.000108553555
 24
807.3177767008271
 34
0.0
100
AcDbRotatedDimension
  0
DIMENSION
  5
E013
102
{ACAD_XDICTIONARY
360
FC79
102
}
102
{ACAD_REACTORS
330
FC7A
102
}
330
2
100
AcDbEntity
  8
DIM
 48
0.5
100
AcDbDimension
  2
*D17
 10
1217.245147923634
 20
808.8931783464088
 30
0.0
 11
1217.745128238594
 21
809.0246069178373
 31
0.0
 70
    32
 71
     5
 42
0.999960629921361
  3
STANDARD
100
AcDbAlignedDimension
 13
1218.245108553555
 23
807.2533098883299
 33
0.0
 14
1217.245147923634
 24
805.9985891963334
 34
0.0
100
AcDbRotatedDimension
  0
LEADER
  5
E073
330
2
100
AcDbEntity
  8
DIM
 48
0.5
100
AcDbLeader
  3
STANDARD
 73
     0
 40
0.12
 76
     3
 10
1211.265135853229
 20
806.9968362350271
 30
0.0
 10
1211.637736588852
 20
807.6304260641242
 30
0.0
 10
1212.480163147862
 20
807.6304260641242
 30
0.0
340
E074
213
31.78590176514331
223
7.05229369883597
233
0.0
1001
ACAD
1000
DSTYLE
1002
{
1070
     5
1000

1070
    77
1070
     0
1070
   147
1040
0.04
1070
   342
1005
0
1002
}
  0
MTEXT
  5
E074
102
{ACAD_REACTORS
330
E073
102
}
330
2
100
AcDbEntity
  8
DIM
 48
0.5
100
AcDbMText
 10
1180.654261382719
 20
800.5781323652881
 30
0.0
 40
0.12
 41
0.0
 71
     1
 72
     1
  1

  7
DAYUS
 73
     1
 44
1.0
1001
ACAD
1000
MTEXTBEGIN
1070
    73
1070
     1
1070
    44
1040
1.0
1070
    74
1070
     0
1000
MTEXTEND
  0
LEADER
  5
E075
330
2
100
AcDbEntity
  8
DIM
 48
0.5
100
AcDbLeader
  3
STANDARD
 73
     0
 40
0.12
 76
     3
 10
1211.659938732477
 20
804.2648293538137
 30
0.0
 10
1210.429346186083
 20
803.6043271000764
 30
0.0
 10
1209.39538071118
 20
803.6043271000764
 30
0.0
340
E076
213
31.8945259845234
223
7.172293698835969
233
0.0
1001
ACAD
1000
DSTYLE
1002
{
1070
     5
1000

1070
    77
1070
     0
1070
   147
1040
0.04
1070
   342
1005
0
1002
}
  0
MTEXT
  5
E076
102
{ACAD_REACTORS
330
E075
102
}
330
2
100
AcDbEntity
  8
DIM
 48
0.5
100
AcDbMText
 10
1177.460854726657
 20
796.4320334012405
 30
0.0
 40
0.12
 41
0.0
 71
     9
 72
     1
  1

  7
DAYUS
 73
     1
 44
1.0
1001
ACAD
1000
MTEXTBEGIN
1070
    73
1070
     1
1070
    44
1040
1.0
1070
    74
1070
     0
1000
MTEXTEND
  0
LEADER
  5
E077
330
2
100
AcDbEntity
  8
DIM
 48
0.5
100
AcDbLeader
  3
STANDARD
 73
     0
 40
0.12
 76
     3
 10
1216.656422152243
 20
805.5458293538137
 30
0.0
 10
1215.791391289005
 20
804.9887589380524
 30
0.0
 10
1214.934692439879
 20
804.9887589380524
 30
0.0
340
E078
213
31.88786743794708
223
7.172293698835969
233
0.0
1001
ACAD
1000
DSTYLE
1002
{
1070
     5
1000

1070
    77
1070
     0
1070
   147
1040
0.04
1070
   342
1005
0
1002
}
  0
MTEXT
  5
E078
102
{ACAD_REACTORS
330
E077
102
}
330
2
100
AcDbEntity
  8
DIM
 48
0.5
100
AcDbMText
 10
1183.006825001932
 20
797.8164652392165
 30
0.0
 40
0.12
 41
0.0
 71
     9
 72
     1
  1

  7
DAYUS
 73
     1
 44
1.0
1001
ACAD
1000
MTEXTBEGIN
1070
    73
1070
     1
1070
    44
1040
1.0
1070
    74
1070
     0
1000
MTEXTEND
  0
LEADER
  5
E079
330
2
100
AcDbEntity
  8
DIM
 48
0.5
100
AcDbLeader
  3
STANDARD
 73
     0
 40
0.12
 76
     3
 10
1216.887249361348
 20
806.0396596710253
 30
0.0
 10
1217.034952886098
 20
806.6298245460764
 30
0.0
 10
1216.569775763377
 20
806.6298245460764
 30
0.0
340
E07A
213
31.90623522853821
223
7.172293698835969
233
0.0
1001
ACAD
1000
DSTYLE
1002
{
1070
     5
1000

1070
    77
1070
     0
1070
   147
1040
0.04
1070
   342
1005
0
1002
}
  0
MTEXT
  5
E07A
102
{ACAD_REACTORS
330
E079
102
}
330
2
100
AcDbEntity
  8
DIM
 48
0.5
100
AcDbMText
 10
1184.109029092271
 20
796.2246413274224
 30
0.0
 40
0.12
 41
0.0
 71
     9
 72
     1
  1

  7
DAYUS
 73
     1
 44
1.0
1001
ACAD
1000
MTEXTBEGIN
1070
    73
1070
     1
1070
    44
1040
1.0
1070
    74
1070
     0
1000
MTEXTEND
  0
MTEXT
  5
E07C
330
2
100
AcDbEntity
  8
DIM
 48
0.5
100
AcDbMText
 10
1184.555069523061
 20
799.8171695980663
 30
0.0
 40
0.12
 41
0.0
 71
     9
 72
     1
  1

  7
DAYUS
 73
     1
 44
1.0
1001
ACAD
1000
MTEXTBEGIN
1070
    73
1070
     1
1070
    44
1040
1.0
1070
    74
1070
     0
1000
MTEXTEND
  0
LEADER
  5
E07D
330
2
100
AcDbEntity
  8
DIM
 48
0.5
100
AcDbLeader
  3
STANDARD
 73
     0
 40
0.12
 76
     3
 10
1219.000108553555
 20
807.2598986735119
 30
0.0
 10
1219.318584097486
 20
807.9324615141803
 30
0.0
 10
1220.56608885574
 20
807.9324615141803
 30
0.0
340
E07E
213
31.79795353084364
223
7.390967316090555
233
0.0
1001
ACAD
1000
DSTYLE
1002
{
1070
     5
1000

1070
    77
1070
     0
1070
   147
1040
0.04
1070
   342
1005
0
1002
}
  0
MTEXT
  5
E07E
102
{ACAD_REACTORS
330
E07D
102
}
330
2
100
AcDbEntity
  8
DIM
 48
0.5
100
AcDbMText
 10
1188.728135324896
 20
800.5414941980898
 30
0.0
 40
0.12
 41
0.0
 71
     1
 72
     1
  1

  7
DAYUS
 73
     1
 44
1.0
1001
ACAD
1000
MTEXTBEGIN
1070
    73
1070
     1
1070
    44
1040
1.0
1070
    74
1070
     0
1000
MTEXTEND
  0
DIMENSION
  5
E220
330
2
100
AcDbEntity
  8
DIM
 48
0.5
100
AcDbDimension
  2
*D18
 10
1221.482608553555
 20
808.4622367718051
 30
0.0
 11
1220.25534089312
 21
808.4622367718051
 31
0.0
 70
   160
 71
     5
 42
2.482500000000072
  3
STANDARD
100
AcDbAlignedDimension
 13
1219.000108553555
 23
807.3177767008271
 33
0.0
 14
1221.482608553555
 24
807.3131516682309
 34
0.0
100
AcDbRotatedDimension
  0
DIMENSION
  5
E22D
102
{ACAD_XDICTIONARY
360
FC93
102
}
102
{ACAD_REACTORS
330
FC7A
330
FC94
102
}
330
2
100
AcDbEntity
  8
DIM
 48
0.5
100
AcDbDimension
  2
*D19
 10
1221.995108553555
 20
808.8931783464088
 30
0.0
 11
1220.082968863786
 21
808.8931783464088
 31
0.0
 70
   160
 71
     5
 42
3.75
  3
STANDARD
100
AcDbAlignedDimension
 13
1218.245108553555
 23
807.2533098883299
 33
0.0
 14
1221.995108553555
 24
807.2554043365995
 34
0.0
100
AcDbRotatedDimension
  0
DIMENSION
  5
E23A
102
{ACAD_REACTORS
330
FC7A
102
}
330
2
100
AcDbEntity
  8
DIM
 48
0.5
100
AcDbDimension
  2
*D20
 10
1222.120108553555
 20
809.311807286385
 30
0.0
 11
1219.664351057231
 21
809.311807286385
 31
0.0
 70
   160
 71
     5
 42
4.874960629921133
  3
STANDARD
100
AcDbAlignedDimension
 13
1217.245147923634
 23
805.9985891963334
 33
0.0
 14
1222.120108553555
 24
806.3084898493547
 34
0.0
100
AcDbRotatedDimension
  0
DIMENSION
  5
E247
102
{ACAD_XDICTIONARY
360
FC23
102
}
102
{ACAD_REACTORS
330
FC09
330
FC24
102
}
330
2
100
AcDbEntity
  8
DIM
 48
0.5
100
AcDbDimension
  2
*D21
 10
1221.557608553555
 20
803.034995009041
 30
0.0
 11
1220.370108553555
 21
803.1664235804695
 31
0.0
 70
    32
 71
     5
 42
2.375
  3
STANDARD
100
AcDbAlignedDimension
 13
1219.182608553555
 23
804.1548293538136
 33
0.0
 14
1221.557608553555
 24
804.1548293538136
 34
0.0
100
AcDbRotatedDimension
  0
MTEXT
  5
E38C
330
2
100
AcDbEntity
  8
DIM
 48
0.5
100
AcDbMText
 10
1147.908664147741
 20
787.8931014288346
 30
0.0
 40
0.12
 41
0.0
 71
     1
 72
     1
  1

  7
DAYUS
 73
     1
 44
1.0
1001
ACAD
1000
MTEXTBEGIN
1070
    73
1070
     1
1070
    44
1040
1.0
1070
    74
1070
     0
1000
MTEXTEND
  0
MTEXT
  5
E38E
330
2
100
AcDbEntity
  8
DIM
 48
0.5
100
AcDbMText
 10
1144.738222883028
 20
781.9592229083528
 30
0.0
 40
0.12
 41
0.0
 71
     9
 72
     1
  1

  7
DAYUS
 73
     1
 44
1.0
1001
ACAD
1000
MTEXTBEGIN
1070
    73
1070
     1
1070
    44
1040
1.0
1070
    74
1070
     0
1000
MTEXTEND
  0
MTEXT
  5
E390
330
2
100
AcDbEntity
  8
DIM
 48
0.5
100
AcDbMText
 10
1152.009149967874
 20
784.0212032200647
 30
0.0
 40
0.12
 41
0.0
 71
     9
 72
     1
  1

  7
DAYUS
 73
     1
 44
1.0
1001
ACAD
1000
MTEXTBEGIN
1070
    73
1070
     1
1070
    44
1040
1.0
1070
    74
1070
     0
1000
MTEXTEND
  0
MTEXT
  5
E392
330
2
100
AcDbEntity
  8
DIM
 48
0.5
100
AcDbMText
 10
1153.701732983836
 20
786.8984319338292
 30
0.0
 40
0.12
 41
0.0
 71
     9
 72
     1
  1

  7
DAYUS
 73
     1
 44
1.0
1001
ACAD
1000
MTEXTBEGIN
1070
    73
1070
     1
1070
    44
1040
1.0
1070
    74
1070
     0
1000
MTEXTEND
  0
MTEXT
  5
E394
330
2
100
AcDbEntity
  8
DIM
 48
0.5
100
AcDbMText
 10
1153.185136270799
 20
781.941313205451
 30
0.0
 40
0.12
 41
0.0
 71
     9
 72
     1
  1

  7
DAYUS
 73
     1
 44
1.0
1001
ACAD
1000
MTEXTBEGIN
1070
    73
1070
     1
1070
    44
1040
1.0
1070
    74
1070
     0
1000
MTEXTEND
  0
MTEXT
  5
E396
330
2
100
AcDbEntity
  8
DIM
 48
0.5
100
AcDbMText
 10
1158.541647076707
 20
787.8848313766734
 30
0.0
 40
0.12
 41
0.0
 71
     1
 72
     1
  1

  7
DAYUS
 73
     1
 44
1.0
1001
ACAD
1000
MTEXTBEGIN
1070
    73
1070
     1
1070
    44
1040
1.0
1070
    74
1070
     0
1000
MTEXTEND
  0
MTEXT
  5
E5BA
330
2
100
AcDbEntity
  8
DIM
 48
0.5
100
AcDbMText
 10
1178.360257869548
 20
782.1337913880074
 30
0.0
 40
0.12
 41
0.763
 71
     1
 72
     1
  1

  7
DAYUS
 73
     1
 44
1.0
1001
ACAD
1000
MTEXTBEGIN
1070
    73
1070
     1
1070
    44
1040
1.0
1070
    74
1070
     0
1000
MTEXTEND
  0
MTEXT
  5
E5BC
330
2
100
AcDbEntity
  8
DIM
 48
0.5
100
AcDbMText
 10
1175.414665296402
 20
777.0949408552324
 30
0.0
 40
0.12
 41
0.763
 71
     9
 72
     1
  1

  7
DAYUS
 73
     1
 44
1.0
1001
ACAD
1000
MTEXTBEGIN
1070
    73
1070
     1
1070
    44
1040
1.0
1070
    74
1070
     0
1000
MTEXTEND
  0
MTEXT
  5
E5BE
330
2
100
AcDbEntity
  8
DIM
 48
0.5
100
AcDbMText
 10
1181.172940849349
 20
778.4864942311028
 30
0.0
 40
0.12
 41
0.763
 71
     9
 72
     1
  1

  7
DAYUS
 73
     1
 44
1.0
1001
ACAD
1000
MTEXTBEGIN
1070
    73
1070
     1
1070
    44
1040
1.0
1070
    74
1070
     0
1000
MTEXTEND
  0
MTEXT
  5
E5C0
330
2
100
AcDbEntity
  8
DIM
 48
0.5
100
AcDbMText
 10
1182.452086208572
 20
776.3930731071305
 30
0.0
 40
0.12
 41
0.763
 71
     9
 72
     1
  1

  7
DAYUS
 73
     1
 44
1.0
1001
ACAD
1000
MTEXTBEGIN
1070
    73
1070
     1
1070
    44
1040
1.0
1070
    74
1070
     0
1000
MTEXTEND
  0
MTEXT
  5
E5C2
330
2
100
AcDbEntity
  8
DIM
 48
0.5
100
AcDbMText
 10
1183.025241090683
 20
781.4960306642761
 30
0.0
 40
0.12
 41
0.763
 71
     9
 72
     1
  1

  7
DAYUS
 73
     1
 44
1.0
1001
ACAD
1000
MTEXTBEGIN
1070
    73
1070
     1
1070
    44
1040
1.0
1070
    74
1070
     0
1000
MTEXTEND
  0
MTEXT
  5
E5C4
330
2
100
AcDbEntity
  8
DIM
 48
0.5
100
AcDbMText
 10
1187.923225297015
 20
782.0713687944739
 30
0.0
 40
0.12
 41
0.763
 71
     1
 72
     1
  1

  7
DAYUS
 73
     1
 44
1.0
1001
ACAD
1000
MTEXTBEGIN
1070
    73
1070
     1
1070
    44
1040
1.0
1070
    74
1070
     0
1000
MTEXTEND
  0
LEADER
  5
F93F
330
2
100
AcDbEntity
  8
DIM
 48
0.5
100
AcDbLeader
  3
STANDARD
 40
0.12
 76
     3
 10
1217.378545724052
 20
805.8599903846403
 30
0.0
 10
1217.542567076198
 20
806.9894632969022
 30
0.0
 10
1218.0754055028
 20
806.9894632969022
 30
0.0
211
-1.0
221
0.0
231
0.0
210
0.0
220
0.0
230
-1.0
213
-34.40492108532249
223
7.241119303833724
233
0.0
1001
ACAD
1000
DSTYLE
1002
{
1070
     5
1000

1070
    77
1070
     0
1070
   147
1040
0.04
1070
   342
1005
0
1002
}
  0
TEXT
  5
FB69
330
2
100
AcDbEntity
  8
LOGO
 62
     7
100
AcDbText
 10
1211.037748462982
 20
800.5204268545021
 30
0.0
 40
0.1516715521278841
  1
Order example:
 41
0.8
  7
CHINESET
100
AcDbText
  0
TEXT
  5
FB6A
330
2
100
AcDbEntity
  8
LOGO
 62
     7
100
AcDbText
 10
1211.064959593707
 20
800.7339489959024
 30
0.0
 40
0.2275073281918262
  1
訂購代號：
  7
CHINESET
100
AcDbText
  0
LINE
  5
FB6B
330
2
100
AcDbEntity
  8
LOGO
 62
     4
100
AcDbLine
 10
1210.971846659142
 20
799.881225659107
 30
0.0
 11
1210.971846659142
 21
801.0187623000662
 31
0.0
  0
TEXT
  5
FB6C
330
2
100
AcDbEntity
  8
LOGO
  6
Continuous
100
AcDbText
 10
1208.877874323791
 20
800.1046930155311
 30
0.0
 40
0.1706304961438696
  1
金器工業股份有限公司
  7
CHINESET
100
AcDbText
  0
TEXT
  5
FB6D
330
2
100
AcDbEntity
  8
LOGO
  6
Continuous
100
AcDbText
 10
1208.564459859953
 20
799.9340290891879
 30
0.0
 40
0.1137536640959131
  1
MINDMAN INDUSTRIAL CO., LTD.
 41
0.85
  7
CHINESET
100
AcDbText
  0
LINE
  5
FB6E
330
2
100
AcDbEntity
  8
LOGO
 62
     4
100
AcDbLine
 10
1210.971846659142
 20
800.7912549718744
 30
0.0
 11
1209.303459585736
 21
800.7912549718744
 31
0.0
  0
LINE
  5
FB6F
330
2
100
AcDbEntity
  8
LOGO
 62
     4
100
AcDbLine
 10
1210.971846659142
 20
800.5637476436826
 30
0.0
 11
1209.303459585736
 21
800.5637476436826
 31
0.0
  0
LINE
  5
FB70
330
2
100
AcDbEntity
  8
LOGO
 62
     4
100
AcDbLine
 10
1210.971846659142
 20
800.3362403154907
 30
0.0
 11
1208.469266049032
 21
800.3362403154907
 31
0.0
  0
LINE
  5
FB71
330
2
100
AcDbEntity
  8
LOGO
 62
     4
100
AcDbLine
 10
1209.303459585736
 20
800.3362403154907
 30
0.0
 11
1209.303459585736
 21
801.0187623000662
 31
0.0
  0
TEXT
  5
FB72
330
2
100
AcDbEntity
  8
LOGO
100
AcDbText
 10
1210.443723403739
 20
800.3931171475386
 30
0.0
 40
0.1137536640959131
  1
mm
  7
CHINESET
 72
     1
 11
1210.584561273572
 21
800.4499939795865
 31
0.0
100
AcDbText
 73
     2
  0
TEXT
  5
FB73
330
2
100
AcDbEntity
  8
LOGO
100
AcDbText
 10
1210.384138151117
 20
800.8481318039223
 30
0.0
 40
0.1137536640959131
  1
1 : 1
  7
CHINESET
 72
     1
 11
1210.584561273572
 21
800.9050086359703
 31
0.0
100
AcDbText
 73
     2
  0
LINE
  5
FB74
330
2
100
AcDbEntity
  8
LOGO
 62
     4
100
AcDbLine
 10
1210.213488898503
 20
800.3362403154907
 30
0.0
 11
1210.213488898503
 21
801.0187623000662
 31
0.0
  0
TEXT
  5
FB75
330
2
100
AcDbEntity
  8
LOGO
100
AcDbText
 10
1209.397255575729
 20
800.8481877850561
 30
7.455227746631964
 40
0.1137536640959131
  1
比例 Scale:
 41
0.9
  7
CHINESET
 72
     4
 11
1209.758474242119
 21
800.9050086359703
 31
7.455227746631964
100
AcDbText
  0
TEXT
  5
FB76
330
2
100
AcDbEntity
  8
LOGO
100
AcDbText
 10
1209.390704583466
 20
800.6222246031413
 30
7.455227746631964
 40
0.1137536640959131
  1
投影  View:
 41
0.9
  7
CHINESET
 72
     4
 11
1209.758474242119
 21
800.6775013077785
 31
7.455227746631964
100
AcDbText
  0
TEXT
  5
FB77
330
2
100
AcDbEntity
  8
LOGO
100
AcDbText
 10
1209.401826035447
 20
800.3931171475386
 30
7.455227746631964
 40
0.1137536640959131
  1
單位  Unit:
 41
0.9
  7
CHINESET
 72
     4
 11
1209.758474242119
 21
800.4499939795865
 31
7.455227746631964
100
AcDbText
  0
LWPOLYLINE
  5
FB78
330
2
100
AcDbEntity
  8
LOGO
 62
     4
100
AcDbPolyline
 90
        4
 70
     1
 43
0.0
 10
1208.469266049032
 20
801.0187623000662
 10
1224.112659969032
 20
801.0187623000662
 10
1224.112659969032
 20
811.258239419107
 10
1208.469266049032
 20
811.258239419107
1001
GENIUS_GENREC_14
1002
{
1000
PYDIR
1011
1208.469266049032
1021
811.258239419107
1031
0.0
1002
}
1002
{
1000
PXDIR
1011
1224.112659969032
1021
801.0187623000662
1031
0.0
1002
}
1002
{
1000
PORI
1011
1208.469266049032
1021
801.0187623000662
1031
0.0
1002
}
1002
{
1000
PINS
1011
1208.469266049032
1021
801.0187623000662
1031
0.0
1002
}
1002
{
1000
PINS2
1011
1224.112659969032
1021
811.258239419107
1031
0.0
1002
}
1002
{
1000
C
1070
     1
1002
}
1001
GENIUS_GENODEF_13
1002
{
1000
HIER
1070
     0
1002
}
1002
{
1000
MANEDIT
1070
     0
1002
}
1002
{
1000
NOSEL
1070
     0
1002
}
1002
{
1000
BEHIND
1070
     0
1002
}
1002
{
1000
OTHER
1070
     0
1002
}
1002
{
1000
REACTOR
1002
}
1001
GENIUS_GENOBJ-N-REC_13
1002
{
1000
OWNER
1000
GEN
1002
}
  0
SOLID
  5
FB79
330
2
100
AcDbEntity
  8
LOGO
 62
     5
100
AcDbTrace
 10
1208.587287301139
 20
800.5253395904912
 30
0.0
 11
1208.636471400598
 21
800.5253395904912
 31
0.0
 12
1208.841687815582
 22
800.9917405336361
 32
0.0
 13
1208.890871915041
 23
800.9917405336361
 33
0.0
  0
SOLID
  5
FB7A
330
2
100
AcDbEntity
  8
LOGO
 62
     5
100
AcDbTrace
 10
1208.656823441754
 20
800.5253395904912
 30
0.0
 11
1208.706007541213
 21
800.5253395904912
 31
0.0
 12
1208.890871915041
 22
800.9544284581844
 32
0.0
 13
1208.841687815582
 23
800.7740867601684
 33
0.0
  0
SOLID
  5
FB7B
330
2
100
AcDbEntity
  8
LOGO
 62
     2
100
AcDbTrace
 10
1208.636471400598
 20
800.5253395904912
 30
0.0
 11
1208.656823441754
 21
800.5253395904912
 31
0.0
 12
1208.890871915041
 22
800.9917405336361
 32
0.0
 13
1208.911223956196
 23
800.9917405336361
 33
0.0
  0
SOLID
  5
FB7C
330
2
100
AcDbEntity
  8
LOGO
 62
     5
100
AcDbTrace
 10
1208.508433128288
 20
800.3557392475293
 30
0.0
 11
1208.525393162584
 21
800.3557392475293
 31
0.0
 12
1208.573153939225
 22
800.4405394190102
 32
0.0
 13
1208.590113973522
 23
800.4405394190102
 33
0.0
  0
SOLID
  5
FB7D
330
2
100
AcDbEntity
  8
LOGO
 62
     5
100
AcDbTrace
 10
1208.573153939225
 20
800.4405394190102
 30
0.0
 11
1208.590113973522
 21
800.4405394190102
 31
0.0
 12
1208.573153939225
 22
800.3557392475293
 32
0.0
 13
1208.590113973522
 23
800.3557392475293
 33
0.0
  0
SOLID
  5
FB7E
330
2
100
AcDbEntity
  8
LOGO
 62
     5
100
AcDbTrace
 10
1208.573153939225
 20
800.3557392475293
 30
0.0
 11
1208.590113973522
 21
800.3557392475293
 31
0.0
 12
1208.637874750164
 22
800.4405394190102
 32
0.0
 13
1208.65483478446
 23
800.4405394190102
 33
0.0
  0
SOLID
  5
FB7F
330
2
100
AcDbEntity
  8
LOGO
 62
     5
100
AcDbTrace
 10
1208.637874750164
 20
800.4405394190102
 30
0.0
 11
1208.65483478446
 21
800.4405394190102
 31
0.0
 12
1208.637874750164
 22
800.3557392475293
 32
0.0
 13
1208.65483478446
 23
800.3557392475293
 33
0.0
  0
POLYLINE
  5
FB80
330
2
100
AcDbEntity
  8
LOGO
 62
     5
100
AcDb2dPolyline
 66
     1
 10
0.0
 20
0.0
 30
0.0
 40
0.016987213838323
 41
0.016987213838323
  0
VERTEX
  5
FB81
330
FB80
100
AcDbEntity
  8
LOGO
 62
     5
100
AcDbVertex
100
AcDb2dVertex
 10
1209.206369322263
 20
800.4066193504179
 30
0.0
 42
1.0
  0
VERTEX
  5
FB82
330
FB80
100
AcDbEntity
  8
LOGO
 62
     5
100
AcDbVertex
100
AcDb2dVertex
 10
1209.155407680748
 20
800.4066193504179
 30
0.0
 42
1.0
  0
SEQEND
  5
FB83
330
FB80
100
AcDbEntity
  8
LOGO
 62
     5
  0
POLYLINE
  5
FB84
330
2
100
AcDbEntity
  8
LOGO
 62
     5
100
AcDb2dPolyline
 66
     1
 10
0.0
 20
0.0
 30
0.0
 70
     1
  0
VERTEX
  5
FB85
330
FB84
100
AcDbEntity
  8
LOGO
 62
     5
100
AcDbVertex
100
AcDb2dVertex
 10
1209.059342719718
 20
800.3981393332697
 30
0.0
 42
1.000000057330635
  0
VERTEX
  5
FB86
330
FB84
100
AcDbEntity
  8
LOGO
 62
     5
100
AcDbVertex
100
AcDb2dVertex
 10
1209.110222822607
 20
800.3981393332697
 30
0.0
 42
1.000000057330635
  0
SEQEND
  5
FB87
330
FB84
100
AcDbEntity
  8
LOGO
 62
     5
  0
CIRCLE
  5
FB88
330
2
100
AcDbEntity
  8
LOGO
 62
     5
100
AcDbCircle
 10
1209.084782771163
 20
800.3981393332697
 30
0.0
 40
0.0254400514442726
  0
POLYLINE
  5
FB89
330
2
100
AcDbEntity
  8
LOGO
 62
     5
100
AcDb2dPolyline
 66
     1
 10
0.0
 20
0.0
 30
0.0
 70
     1
 40
0.016987213838323
 41
0.016987213838323
  0
VERTEX
  5
FB8A
330
FB89
100
AcDbEntity
  8
LOGO
 62
     5
100
AcDbVertex
100
AcDb2dVertex
 10
1209.050808343486
 20
800.3981393332697
 30
0.0
 42
1.0
  0
VERTEX
  5
FB8B
330
FB89
100
AcDbEntity
  8
LOGO
 62
     5
100
AcDbVertex
100
AcDb2dVertex
 10
1209.118757198839
 20
800.3981393332697
 30
0.0
 42
1.0
  0
SEQEND
  5
FB8C
330
FB89
100
AcDbEntity
  8
LOGO
 62
     5
  0
LINE
  5
FB8D
330
2
100
AcDbEntity
  8
LOGO
100
AcDbLine
 10
1209.214808570098
 20
800.3557392475293
 30
0.0
 11
1209.214808570098
 21
800.4066193504179
 31
0.0
  0
SOLID
  5
FB8E
330
2
100
AcDbEntity
  8
LOGO
 62
     5
100
AcDbTrace
 10
1209.110221126604
 20
800.4405394190102
 30
0.0
 11
1209.1271811609
 21
800.4405394190102
 31
0.0
 12
1209.110221126604
 22
800.3557392475293
 32
0.0
 13
1209.1271811609
 23
800.3557392475293
 33
0.0
  0
SOLID
  5
FB8F
330
2
100
AcDbEntity
  8
LOGO
 62
     5
100
AcDbTrace
 10
1209.146968432913
 20
800.3557392475293
 30
0.0
 11
1209.163928467209
 21
800.3557392475293
 31
0.0
 12
1209.146968432913
 22
800.4405394190102
 32
0.0
 13
1209.163928467209
 23
800.4405394190102
 33
0.0
  0
SOLID
  5
FB90
330
2
100
AcDbEntity
  8
LOGO
 62
     5
100
AcDbTrace
 10
1209.197848535802
 20
800.4066193504179
 30
0.0
 11
1209.214808570098
 21
800.4066193504179
 31
0.0
 12
1209.197848535802
 22
800.3557392475293
 32
0.0
 13
1209.214808570098
 23
800.3557392475293
 33
0.0
  0
SOLID
  5
FB91
330
2
100
AcDbEntity
  8
LOGO
 62
     5
100
AcDbTrace
 10
1209.145272429483
 20
800.9544284581844
 30
0.0
 11
1209.096088330025
 21
800.7740867601684
 31
0.0
 12
1209.145272429483
 22
800.5253395904912
 32
0.0
 13
1209.096088330025
 23
800.5253395904912
 33
0.0
  0
SOLID
  5
FB92
330
2
100
AcDbEntity
  8
LOGO
 62
     5
100
AcDbTrace
 10
1209.165624470639
 20
800.5253395904912
 30
0.0
 11
1209.214808570098
 21
800.5253395904912
 31
0.0
 12
1209.165624470639
 22
800.9917405336361
 32
0.0
 13
1209.214808570098
 23
800.9917405336361
 33
0.0
  0
SOLID
  5
FB93
330
2
100
AcDbEntity
  8
LOGO
 62
     2
100
AcDbTrace
 10
1209.145272429483
 20
800.9917405336361
 30
0.0
 11
1209.165624470639
 21
800.9917405336361
 31
0.0
 12
1209.145272429483
 22
800.5253395904912
 32
0.0
 13
1209.165624470639
 23
800.5253395904912
 33
0.0
  0
POLYLINE
  5
FB94
330
2
100
AcDbEntity
  8
LOGO
 62
     5
100
AcDb2dPolyline
 66
     1
 10
0.0
 20
0.0
 30
0.0
 40
0.016987213838323
 41
0.016987213838323
  0
VERTEX
  5
FB95
330
FB94
100
AcDbEntity
  8
LOGO
 62
     5
100
AcDbVertex
100
AcDb2dVertex
 10
1208.963274366682
 20
800.4066193504179
 30
0.0
 42
1.0
  0
VERTEX
  5
FB96
330
FB94
100
AcDbEntity
  8
LOGO
 62
     5
100
AcDbVertex
100
AcDb2dVertex
 10
1208.912312725167
 20
800.4066193504179
 30
0.0
 42
1.0
  0
SEQEND
  5
FB97
330
FB94
100
AcDbEntity
  8
LOGO
 62
     5
  0
POLYLINE
  5
FB98
330
2
100
AcDbEntity
  8
LOGO
 62
     5
100
AcDb2dPolyline
 66
     1
 10
0.0
 20
0.0
 30
0.0
 40
0.016987213838323
 41
0.016987213838323
  0
VERTEX
  5
FB99
330
FB98
100
AcDbEntity
  8
LOGO
 62
     5
100
AcDbVertex
100
AcDb2dVertex
 10
1209.014154469571
 20
800.4066193504179
 30
0.0
 42
1.0
  0
VERTEX
  5
FB9A
330
FB98
100
AcDbEntity
  8
LOGO
 62
     5
100
AcDbVertex
100
AcDb2dVertex
 10
1208.963192828056
 20
800.4066193504179
 30
0.0
 42
1.0
  0
SEQEND
  5
FB9B
330
FB98
100
AcDbEntity
  8
LOGO
 62
     5
  0
POLYLINE
  5
FB9C
330
2
100
AcDbEntity
  8
LOGO
 62
     5
100
AcDb2dPolyline
 66
     1
 10
0.0
 20
0.0
 30
0.0
 40
0.016987213838323
 41
0.016987213838323
  0
VERTEX
  5
FB9D
330
FB9C
100
AcDbEntity
  8
LOGO
 62
     5
100
AcDbVertex
100
AcDb2dVertex
 10
1208.77105951399
 20
800.4066193504179
 30
0.0
 42
1.0
  0
VERTEX
  5
FB9E
330
FB9C
100
AcDbEntity
  8
LOGO
 62
     5
100
AcDbVertex
100
AcDb2dVertex
 10
1208.720097872475
 20
800.4066193504179
 30
0.0
 42
1.0
  0
SEQEND
  5
FB9F
330
FB9C
100
AcDbEntity
  8
LOGO
 62
     5
  0
SOLID
  5
FBA0
330
2
100
AcDbEntity
  8
LOGO
 62
     5
100
AcDbTrace
 10
1208.71165862464
 20
800.4405394190102
 30
0.0
 11
1208.728618658936
 21
800.4405394190102
 31
0.0
 12
1208.71165862464
 22
800.3557392475293
 32
0.0
 13
1208.728618658936
 23
800.3557392475293
 33
0.0
  0
SOLID
  5
FBA1
330
2
100
AcDbEntity
  8
LOGO
 62
     5
100
AcDbTrace
 10
1208.762538727528
 20
800.4066193504179
 30
0.0
 11
1208.779498761824
 21
800.4066193504179
 31
0.0
 12
1208.762538727528
 22
800.3557392475293
 32
0.0
 13
1208.779498761824
 23
800.3557392475293
 33
0.0
  0
POLYLINE
  5
FBA2
330
2
100
AcDbEntity
  8
LOGO
 62
     5
100
AcDb2dPolyline
 66
     1
 10
0.0
 20
0.0
 30
0.0
 70
     1
 40
0.016987213838323
 41
0.016987213838323
  0
VERTEX
  5
FBA3
330
FBA2
100
AcDbEntity
  8
LOGO
 62
     5
100
AcDbVertex
100
AcDb2dVertex
 10
1208.807713387905
 20
800.3981393332697
 30
0.0
 42
1.0
  0
VERTEX
  5
FBA4
330
FBA2
100
AcDbEntity
  8
LOGO
 62
     5
100
AcDbVertex
100
AcDb2dVertex
 10
1208.875662243258
 20
800.3981393332697
 30
0.0
 42
1.0
  0
SEQEND
  5
FBA5
330
FBA2
100
AcDbEntity
  8
LOGO
 62
     5
  0
SOLID
  5
FBA6
330
2
100
AcDbEntity
  8
LOGO
 62
     5
100
AcDbTrace
 10
1208.867126171023
 20
800.4659794704545
 30
0.0
 11
1208.884086205319
 21
800.4659794704545
 31
0.0
 12
1208.867126171023
 22
800.3557392475293
 32
0.0
 13
1208.884086205319
 23
800.3557392475293
 33
0.0
  0
SOLID
  5
FBA7
330
2
100
AcDbEntity
  8
LOGO
 62
     5
100
AcDbTrace
 10
1208.903873477332
 20
800.4405394190102
 30
0.0
 11
1208.920833511629
 21
800.4405394190102
 31
0.0
 12
1208.903873477332
 22
800.3557392475293
 32
0.0
 13
1208.920833511629
 23
800.3557392475293
 33
0.0
  0
SOLID
  5
FBA8
330
2
100
AcDbEntity
  8
LOGO
 62
     5
100
AcDbTrace
 10
1208.954753580221
 20
800.4066193504179
 30
0.0
 11
1208.971713614517
 21
800.4066193504179
 31
0.0
 12
1208.954753580221
 22
800.3557392475293
 32
0.0
 13
1208.971713614517
 23
800.3557392475293
 33
0.0
  0
SOLID
  5
FBA9
330
2
100
AcDbEntity
  8
LOGO
 62
     5
100
AcDbTrace
 10
1209.00563368311
 20
800.4066193504179
 30
0.0
 11
1209.022593717406
 21
800.4066193504179
 31
0.0
 12
1209.00563368311
 22
800.3557392475293
 32
0.0
 13
1209.022593717406
 23
800.3557392475293
 33
0.0
  0
SOLID
  5
FBAA
330
2
100
AcDbEntity
  8
LOGO
 62
     5
100
AcDbTrace
 10
1208.67491131833
 20
800.4524114430175
 30
0.0
 11
1208.691871352627
 21
800.4524114430175
 31
0.0
 12
1208.67491131833
 22
800.4659794704545
 32
0.0
 13
1208.691871352627
 23
800.4659794704545
 33
0.0
  0
SOLID
  5
FBAB
330
2
100
AcDbEntity
  8
LOGO
 62
     5
100
AcDbTrace
 10
1208.67491131833
 20
800.4405394190102
 30
0.0
 11
1208.691871352627
 21
800.4405394190102
 31
0.0
 12
1208.67491131833
 22
800.3557392475293
 32
0.0
 13
1208.691871352627
 23
800.3557392475293
 33
0.0
  0
SOLID
  5
FBAC
330
2
100
AcDbEntity
  8
LOGO
 62
     5
100
AcDbTrace
 10
1208.841687815582
 20
800.5253395904912
 30
0.0
 11
1208.890871915041
 21
800.5253395904912
 31
0.0
 12
1208.841687815582
 22
800.7740867601684
 32
0.0
 13
1208.890871915041
 23
800.9544284581844
 33
0.0
  0
SOLID
  5
FBAD
330
2
100
AcDbEntity
  8
LOGO
 62
     5
100
AcDbTrace
 10
1208.911223956196
 20
800.9917405336361
 30
0.0
 11
1208.960408055655
 21
800.9917405336361
 31
0.0
 12
1208.911223956196
 22
800.5626516659427
 32
0.0
 13
1208.960408055655
 23
800.7429933639588
 33
0.0
  0
SOLID
  5
FBAE
330
2
100
AcDbEntity
  8
LOGO
 62
     2
100
AcDbTrace
 10
1208.890871915041
 20
800.9917405336361
 30
0.0
 11
1208.911223956196
 21
800.9917405336361
 31
0.0
 12
1208.890871915041
 22
800.5253395904912
 32
0.0
 13
1208.911223956196
 23
800.5253395904912
 33
0.0
  0
SOLID
  5
FBAF
330
2
100
AcDbEntity
  8
LOGO
 62
     5
100
AcDbTrace
 10
1208.911223956196
 20
800.5626516659427
 30
0.0
 11
1208.960408055655
 21
800.7429933639588
 31
0.0
 12
1209.145272429483
 22
800.9917405336361
 32
0.0
 13
1209.096088330025
 23
800.9917405336361
 33
0.0
  0
SOLID
  5
FBB0
330
2
100
AcDbEntity
  8
LOGO
 62
     5
100
AcDbTrace
 10
1208.911223956196
 20
800.5253395904912
 30
0.0
 11
1208.960408055655
 21
800.5253395904912
 31
0.0
 12
1209.145272429483
 22
800.9544284581844
 32
0.0
 13
1209.096088330025
 23
800.7740867601684
 33
0.0
  0
SOLID
  5
FBB1
330
2
100
AcDbEntity
  8
LOGO
 62
     2
100
AcDbTrace
 10
1208.890871915041
 20
800.5253395904912
 30
0.0
 11
1208.911223956196
 21
800.5253395904912
 31
0.0
 12
1209.145272429483
 22
800.9917405336361
 32
0.0
 13
1209.165624470639
 23
800.9917405336361
 33
0.0
  0
LWPOLYLINE
  5
FBB2
330
2
100
AcDbEntity
  8
LOGO
 62
     4
100
AcDbPolyline
 90
        4
 70
     1
 43
0.0
 10
1208.469266049032
 20
801.0187623000662
 10
1224.112659969032
 20
801.0187623000662
 10
1224.112659969032
 20
799.8812256591072
 10
1208.469266049032
 20
799.8812256591072
1001
GENIUS_GENREC_14
1002
{
1000
PYDIR
1011
1208.469266049032
1021
799.8812256591072
1031
0.0
1002
}
1002
{
1000
PXDIR
1011
1224.112659969032
1021
801.0187623000662
1031
0.0
1002
}
1002
{
1000
PORI
1011
1208.469266049032
1021
801.0187623000662
1031
0.0
1002
}
1002
{
1000
PINS
1011
1208.469266049032
1021
801.0187623000662
1031
0.0
1002
}
1002
{
1000
PINS2
1011
1224.112659969032
1021
799.8812256591072
1031
0.0
1002
}
1002
{
1000
C
1070
     1
1002
}
1001
GENIUS_GENOBJ-N-REC_13
1002
{
1000
OWNER
1000
GEN
1002
}
1001
GENIUS_GENODEF_13
1002
{
1000
HIER
1070
     0
1002
}
1002
{
1000
MANEDIT
1070
     0
1002
}
1002
{
1000
NOSEL
1070
     0
1002
}
1002
{
1000
BEHIND
1070
     0
1002
}
1002
{
1000
OTHER
1070
     0
1002
}
1002
{
1000
REACTOR
1002
}
  0
LINE
  5
FBB3
330
2
100
AcDbEntity
  8
LOGO
 62
     4
100
AcDbLine
 10
1213.294835582982
 20
800.3931171475388
 30
0.0
 11
1213.294835582982
 21
799.9760203791869
 31
0.0
  0
LINE
  5
FBB4
330
2
100
AcDbEntity
  8
LOGO
 62
     4
100
AcDbLine
 10
1212.536477822343
 20
800.3931171475388
 30
0.0
 11
1212.536477822343
 21
799.9760203791869
 31
0.0
  0
LINE
  5
FBB5
330
2
100
AcDbEntity
  8
LOGO
 62
     4
100
AcDbLine
 10
1213.294835582982
 20
799.9760203791869
 30
0.0
 11
1212.536477822343
 21
799.9760203791869
 31
0.0
  0
LINE
  5
FBB6
330
2
100
AcDbEntity
  8
LOGO
 62
     4
100
AcDbLine
 10
1213.430855106804
 20
800.9050086359703
 30
0.0
 11
1212.536477822343
 21
800.9050086359703
 31
0.0
  0
LINE
  5
FBB7
330
2
100
AcDbEntity
  8
LOGO
 62
     4
100
AcDbLine
 10
1213.430855106804
 20
800.5637476436826
 30
0.0
 11
1212.536477822343
 21
800.5637476436826
 31
0.0
  0
LINE
  5
FBB8
330
2
100
AcDbEntity
  8
LOGO
 62
     4
100
AcDbLine
 10
1212.536477822343
 20
800.9050086359703
 30
0.0
 11
1212.536477822343
 21
800.5637476436826
 31
0.0
  0
LINE
  5
FBB9
330
2
100
AcDbEntity
  8
LOGO
 62
     4
100
AcDbLine
 10
1213.430855106804
 20
800.9050086359703
 30
0.0
 11
1213.430855106804
 21
800.5637476436826
 31
0.0
  0
LINE
  5
FBBA
330
2
100
AcDbEntity
  8
LOGO
 62
     4
100
AcDbLine
 10
1212.955223930173
 20
800.5637476436826
 30
0.0
 11
1212.955223930173
 21
800.3931171475388
 31
0.0
  0
TEXT
  5
FBBB
330
2
100
AcDbEntity
  8
LOGO
  6
Continuous
100
AcDbText
 10
1212.597114556046
 20
800.6349853768991
 30
0.0
 40
0.1990977408
  1
MCQN
  7
CHINESET
100
AcDbText
  0
LINE
  5
FBBC
330
2
100
AcDbEntity
  8
LOGO
 62
     4
100
AcDbLine
 10
1213.294835582982
 20
800.3931171475388
 30
0.0
 11
1212.536477822343
 21
800.3931171475388
 31
0.0
  0
TEXT
  5
FBBD
330
2
100
AcDbEntity
  8
LOGO
  6
Continuous
100
AcDbText
 10
1212.779832426808
 20
800.0348927035656
 30
7.455227746631964
 40
0.0853276032
  1
Model
 41
0.8
  7
CHINESET
100
AcDbText
  0
TEXT
  5
FBBE
330
2
100
AcDbEntity
  8
LOGO
100
AcDbText
 10
1212.757120992665
 20
800.1930716904874
 30
7.455227746631964
 40
0.142212672
  1
型號
  7
CHINESET
100
AcDbText
  0
LINE
  5
FBBF
330
2
100
AcDbEntity
  8
LOGO
  6
Continuous
100
AcDbLine
 10
1213.467133970767
 20
800.7331693394597
 30
0.0
 11
1213.617822372901
 21
800.7331693394597
 31
0.0
  0
LINE
  5
FBC0
330
2
100
AcDbEntity
  8
LOGO
 62
     4
100
AcDbLine
 10
1214.136847193379
 20
800.3931171475388
 30
0.0
 11
1214.136847193379
 21
799.9760203791869
 31
0.0
  0
LINE
  5
FBC1
330
2
100
AcDbEntity
  8
LOGO
 62
     4
100
AcDbLine
 10
1213.381350979853
 20
800.3931171475388
 30
0.0
 11
1213.381350979853
 21
799.9760203791869
 31
0.0
  0
LINE
  5
FBC2
330
2
100
AcDbEntity
  8
LOGO
 62
     4
100
AcDbLine
 10
1214.136847193379
 20
799.9760203791869
 30
0.0
 11
1213.381350979853
 21
799.9760203791869
 31
0.0
  0
LINE
  5
FBC3
330
2
100
AcDbEntity
  8
LOGO
 62
     4
100
AcDbLine
 10
1214.015472729588
 20
800.9050086359703
 30
0.0
 11
1213.665356620515
 21
800.9050086359703
 31
0.0
  0
LINE
  5
FBC4
330
2
100
AcDbEntity
  8
LOGO
 62
     4
100
AcDbLine
 10
1214.015472729588
 20
800.5637476436826
 30
0.0
 11
1213.665356620515
 21
800.5637476436826
 31
0.0
  0
LINE
  5
FBC5
330
2
100
AcDbEntity
  8
LOGO
 62
     4
100
AcDbLine
 10
1213.665356620515
 20
800.9050086359703
 30
0.0
 11
1213.665356620515
 21
800.5637476436826
 31
0.0
  0
LINE
  5
FBC6
330
2
100
AcDbEntity
  8
LOGO
 62
     4
100
AcDbLine
 10
1214.015472729588
 20
800.9050086359703
 30
0.0
 11
1214.015472729588
 21
800.5637476436826
 31
0.0
  0
LINE
  5
FBC7
330
2
100
AcDbEntity
  8
LOGO
 62
     4
100
AcDbLine
 10
1213.840414675051
 20
800.5637476436826
 30
0.0
 11
1213.840414675051
 21
800.3931171475388
 31
0.0
  0
TEXT
  5
FBC8
330
2
100
AcDbEntity
  8
LOGO
  6
Continuous
100
AcDbText
 10
1213.720830922502
 20
800.6349853768991
 30
0.0
 40
0.1990977408
  1
11
  7
CHINESET
100
AcDbText
  0
LINE
  5
FBC9
330
2
100
AcDbEntity
  8
LOGO
 62
     4
100
AcDbLine
 10
1214.136847193379
 20
800.3931171475388
 30
0.0
 11
1213.381350979853
 21
800.3931171475388
 31
0.0
  0
LINE
  5
FBCA
330
2
100
AcDbEntity
  8
LOGO
  6
Continuous
100
AcDbLine
 10
1214.082144532967
 20
800.7331693394597
 30
0.0
 11
1214.232832935101
 21
800.7331693394597
 31
0.0
  0
LINE
  5
FBCB
330
2
100
AcDbEntity
  8
LOGO
 62
     4
100
AcDbLine
 10
1214.98183228005
 20
800.3931171475388
 30
0.0
 11
1214.98183228005
 21
799.9760203791869
 31
0.0
  0
LINE
  5
FBCC
330
2
100
AcDbEntity
  8
LOGO
 62
     4
100
AcDbLine
 10
1214.223474519411
 20
800.3931171475388
 30
0.0
 11
1214.223474519411
 21
799.9760203791869
 31
0.0
  0
LINE
  5
FBCD
330
2
100
AcDbEntity
  8
LOGO
 62
     4
100
AcDbLine
 10
1214.98183228005
 20
799.9760203791869
 30
0.0
 11
1214.223474519411
 21
799.9760203791869
 31
0.0
  0
LINE
  5
FBCE
330
2
100
AcDbEntity
  8
LOGO
 62
     4
100
AcDbLine
 10
1214.863495714853
 20
800.9050086359703
 30
0.0
 11
1214.280367182714
 21
800.9050086359703
 31
0.0
  0
LINE
  5
FBCF
330
2
100
AcDbEntity
  8
LOGO
 62
     4
100
AcDbLine
 10
1214.863495714853
 20
800.5637476436826
 30
0.0
 11
1214.280367182714
 21
800.5637476436826
 31
0.0
  0
LINE
  5
FBD0
330
2
100
AcDbEntity
  8
LOGO
 62
     4
100
AcDbLine
 10
1214.280367182714
 20
800.9050086359703
 30
0.0
 11
1214.280367182714
 21
800.5637476436826
 31
0.0
  0
LINE
  5
FBD1
330
2
100
AcDbEntity
  8
LOGO
 62
     4
100
AcDbLine
 10
1214.863495714853
 20
800.9050086359703
 30
0.0
 11
1214.863495714853
 21
800.5637476436826
 31
0.0
  0
LINE
  5
FBD2
330
2
100
AcDbEntity
  8
LOGO
 62
     4
100
AcDbLine
 10
1214.571931448783
 20
800.5637476436826
 30
0.0
 11
1214.571931448783
 21
800.3931171475388
 31
0.0
  0
TEXT
  5
FBD3
330
2
100
AcDbEntity
  8
LOGO
  6
Continuous
100
AcDbText
 10
1214.424114983377
 20
800.6349853768991
 30
0.0
 40
0.1990977408
  1
63
  7
CHINESET
100
AcDbText
  0
LINE
  5
FBD4
330
2
100
AcDbEntity
  8
LOGO
 62
     4
100
AcDbLine
 10
1214.98183228005
 20
800.3931171475388
 30
0.0
 11
1214.223474519411
 21
800.3931171475388
 31
0.0
  0
LINE
  5
FBD5
330
2
100
AcDbEntity
  8
LOGO
  6
Continuous
100
AcDbLine
 10
1214.912038055679
 20
800.7331693394597
 30
0.0
 11
1215.062726457814
 21
800.7331693394597
 31
0.0
  0
LINE
  5
FBD6
330
2
100
AcDbEntity
  8
LOGO
 62
     4
100
AcDbLine
 10
1215.671171336406
 20
800.3931171475388
 30
0.0
 11
1215.671171336406
 21
799.9760203791869
 31
0.0
  0
LINE
  5
FBD7
330
2
100
AcDbEntity
  8
LOGO
 62
     4
100
AcDbLine
 10
1215.053368042123
 20
800.3931171475388
 30
0.0
 11
1215.053368042123
 21
799.9760203791869
 31
0.0
  0
LINE
  5
FBD8
330
2
100
AcDbEntity
  8
LOGO
 62
     4
100
AcDbLine
 10
1215.671171336406
 20
799.9760203791869
 30
0.0
 11
1215.053368042123
 21
799.9760203791869
 31
0.0
  0
LINE
  5
FBD9
330
2
100
AcDbEntity
  8
LOGO
 62
     4
100
AcDbLine
 10
1215.473352924471
 20
800.9050086359703
 30
0.0
 11
1215.110260705427
 21
800.9050086359703
 31
0.0
  0
LINE
  5
FBDA
330
2
100
AcDbEntity
  8
LOGO
 62
     4
100
AcDbLine
 10
1215.473352924471
 20
800.5637476436826
 30
0.0
 11
1215.110260705427
 21
800.5637476436826
 31
0.0
  0
LINE
  5
FBDB
330
2
100
AcDbEntity
  8
LOGO
 62
     4
100
AcDbLine
 10
1215.110260705427
 20
800.9050086359703
 30
0.0
 11
1215.110260705427
 21
800.5637476436826
 31
0.0
  0
LINE
  5
FBDC
330
2
100
AcDbEntity
  8
LOGO
 62
     4
100
AcDbLine
 10
1215.473352924471
 20
800.9050086359703
 30
0.0
 11
1215.473352924471
 21
800.5637476436826
 31
0.0
  0
LINE
  5
FBDD
330
2
100
AcDbEntity
  8
LOGO
 62
     4
100
AcDbLine
 10
1215.279314283207
 20
800.5637476436826
 30
0.0
 11
1215.279314283207
 21
800.3931171475388
 31
0.0
  0
TEXT
  5
FBDE
330
2
100
AcDbEntity
  8
LOGO
  6
Continuous
100
AcDbText
 10
1215.232640112996
 20
800.6349853768991
 30
0.0
 40
0.1990977408
  1
0
  7
CHINESET
100
AcDbText
  0
LINE
  5
FBDF
330
2
100
AcDbEntity
  8
LOGO
 62
     4
100
AcDbLine
 10
1215.671171336406
 20
800.3931171475388
 30
0.0
 11
1215.053368042123
 21
800.3931171475388
 31
0.0
  0
TEXT
  5
FBE0
330
2
100
AcDbEntity
  8
LOGO
  6
Continuous
100
AcDbText
 10
1213.449497901531
 20
800.0348927035656
 30
7.455227746631964
 40
0.0853276032
  1
Acting type
 41
0.8
  7
CHINESET
100
AcDbText
  0
TEXT
  5
FBE1
330
2
100
AcDbEntity
  8
LOGO
100
AcDbText
 10
1213.448694085956
 20
800.1930716904874
 30
7.455227746631964
 40
0.142212672
  1
作動型式
  7
CHINESET
100
AcDbText
  0
TEXT
  5
FBE2
330
2
100
AcDbEntity
  8
LOGO
  6
Continuous
100
AcDbText
 10
1214.382319475359
 20
800.0348927035656
 30
7.455227746631964
 40
0.0853276032
  1
Tube I.D.
 41
0.8
  7
CHINESET
100
AcDbText
  0
TEXT
  5
FBE3
330
2
100
AcDbEntity
  8
LOGO
100
AcDbText
 10
1214.43845054049
 20
800.1930716904874
 30
7.455227746631964
 40
0.142212672
  1
內徑
  7
CHINESET
100
AcDbText
  0
TEXT
  5
FBE4
330
2
100
AcDbEntity
  8
LOGO
  6
Continuous
100
AcDbText
 10
1215.216190584214
 20
800.0348927035656
 30
7.455227746631964
 40
0.0853276032
  1
Stroke
 41
0.8
  7
CHINESET
100
AcDbText
  0
TEXT
  5
FBE5
330
2
100
AcDbEntity
  8
LOGO
100
AcDbText
 10
1215.210274248703
 20
800.1930716904874
 30
7.455227746631964
 40
0.142212672
  1
行程
  7
CHINESET
100
AcDbText
  0
LINE
  5
FBE6
330
2
100
AcDbEntity
  8
LOGO
 62
     4
100
AcDbLine
 10
1216.066114787362
 20
800.9050086359703
 30
0.0
 11
1215.52659903448
 21
800.9050086359703
 31
0.0
  0
LINE
  5
FBE7
330
2
100
AcDbEntity
  8
LOGO
 62
     4
100
AcDbLine
 10
1216.066114787362
 20
800.5637476436826
 30
0.0
 11
1215.52659903448
 21
800.5637476436826
 31
0.0
  0
LINE
  5
FBE8
330
2
100
AcDbEntity
  8
LOGO
 62
     4
100
AcDbLine
 10
1215.52659903448
 20
800.9050086359703
 30
0.0
 11
1215.52659903448
 21
800.5637476436826
 31
0.0
  0
LINE
  5
FBE9
330
2
100
AcDbEntity
  8
LOGO
 62
     4
100
AcDbLine
 10
1216.066114787362
 20
800.9050086359703
 30
0.0
 11
1216.066114787362
 21
800.5637476436826
 31
0.0
  0
TEXT
  5
FBEA
330
2
100
AcDbEntity
  8
LOGO
  6
Continuous
100
AcDbText
 10
1215.605908975896
 20
800.6349853768991
 30
0.0
 40
0.1990977408
  1
(M)
  7
CHINESET
100
AcDbText
  0
LINE
  5
FBEB
330
2
100
AcDbEntity
  8
LOGO
 62
     4
100
AcDbLine
 10
1216.369598514234
 20
800.3931171475388
 30
0.0
 11
1216.369598514234
 21
799.9760203791869
 31
0.0
  0
LINE
  5
FBEC
330
2
100
AcDbEntity
  8
LOGO
 62
     4
100
AcDbLine
 10
1215.751795219952
 20
800.3931171475388
 30
0.0
 11
1215.751795219952
 21
799.9760203791869
 31
0.0
  0
LINE
  5
FBED
330
2
100
AcDbEntity
  8
LOGO
 62
     4
100
AcDbLine
 10
1216.369598514234
 20
799.9760203791869
 30
0.0
 11
1215.751795219952
 21
799.9760203791869
 31
0.0
  0
LINE
  5
FBEE
330
2
100
AcDbEntity
  8
LOGO
 62
     4
100
AcDbLine
 10
1216.369598514234
 20
800.3931171475388
 30
0.0
 11
1215.751795219952
 21
800.3931171475388
 31
0.0
  0
TEXT
  5
FBEF
330
2
100
AcDbEntity
  8
LOGO
  6
Continuous
100
AcDbText
 10
1215.886089756473
 20
800.0348927035656
 30
7.455227746631964
 40
0.0853276032
  1
Magnet
 41
0.8
  7
CHINESET
100
AcDbText
  0
TEXT
  5
FBF0
330
2
100
AcDbEntity
  8
LOGO
100
AcDbText
 10
1215.840585853302
 20
800.1930716904874
 30
7.455227746631964
 40
0.142212672
  1
附磁石
  7
CHINESET
100
AcDbText
  0
LINE
  5
FBF1
330
2
100
AcDbEntity
  8
LOGO
 62
     4
100
AcDbLine
 10
1215.796356910921
 20
800.5637476436826
 30
0.0
 11
1215.796356910921
 21
800.4684762976243
 31
0.0
  0
TEXT
  5
FBF2
330
2
100
AcDbEntity
  8
LOGO
100
AcDbText
 10
1211.024552699995
 20
799.9417421594277
 30
0.0
 40
0.1137701376
  1
11005252
 41
0.7
  7
CHINESET
 72
     1
 11
1211.301393368155
 21
799.9417421594277
 31
0.0
100
AcDbText
  0
LINE
  5
FBF3
330
2
100
AcDbEntity
  8
LOGO
 62
     4
100
AcDbLine
 10
1211.654467484742
 20
800.1087329872989
 30
0.0
 11
1211.654467484742
 21
799.881225659107
 31
0.0
  0
LINE
  5
FBF4
330
2
100
AcDbEntity
  8
LOGO
 62
     4
100
AcDbLine
 10
1211.654467484742
 20
800.1087329872989
 30
0.0
 11
1210.971846659142
 21
800.1087329872989
 31
0.0
  0
CIRCLE
  5
FBF5
330
2
100
AcDbEntity
  8
LOGO
  6
Continuous
100
AcDbCircle
 10
1210.42411803566
 20
800.6777446276984
 30
0.0
 40
0.0660480548335195
  0
CIRCLE
  5
FBF6
330
2
100
AcDbEntity
  8
LOGO
  6
Continuous
100
AcDbCircle
 10
1210.42411803566
 20
800.6777446276984
 30
0.0
 40
0.0386983132289579
  0
LINE
  5
FBF7
330
2
100
AcDbEntity
  8
LOGO
100
AcDbLine
 10
1210.839171676126
 20
800.6116965728649
 30
0.0
 11
1210.839171676126
 21
800.7437926825319
 31
0.0
  0
LINE
  5
FBF8
330
2
100
AcDbEntity
  8
LOGO
100
AcDbLine
 10
1210.632114815562
 20
800.6390463144695
 30
0.0
 11
1210.632114815562
 21
800.7164429409273
 31
0.0
  0
LINE
  5
FBF9
330
2
100
AcDbEntity
  8
LOGO
  6
Continuous
100
AcDbLine
 10
1210.632114815562
 20
800.7164429409273
 30
0.0
 11
1210.839171676126
 21
800.7437926825319
 31
0.0
  0
LINE
  5
FBFA
330
2
100
AcDbEntity
  8
LOGO
  6
Continuous
100
AcDbLine
 10
1210.632114815562
 20
800.6390463144695
 30
0.0
 11
1210.839171676126
 21
800.6116965728649
 31
0.0
  0
LINE
  5
FBFB
330
2
100
AcDbEntity
  8
LOGO
  6
AM_ISO08W050x2
 48
0.3
100
AcDbLine
 10
1210.33306980308
 20
800.6777446276984
 30
0.0
 11
1210.51516626824
 21
800.6777446276984
 31
0.0
1001
GENIUS_GENOREF_13
1005
FC02
  0
LINE
  5
FBFC
330
2
100
AcDbEntity
  8
LOGO
  6
AM_ISO08W050x2
 48
0.3
100
AcDbLine
 10
1210.42411803566
 20
800.5866963951186
 30
0.0
 11
1210.42411803566
 21
800.7687928602781
 31
0.0
1001
GENIUS_GENOREF_13
1005
FC01
  0
LINE
  5
FBFD
330
2
100
AcDbEntity
  8
LOGO
  6
CENTER
 48
0.5
100
AcDbLine
 10
1210.615556021835
 20
800.6777446276984
 30
0.0
 11
1210.860021631707
 21
800.6777446276984
 31
0.0
1001
GENIUS_GENOREF_13
1005
FC00
  0
LINE
  5
FBFE
330
2
100
AcDbEntity
  8
LOGO
 62
     4
100
AcDbLine
 10
1215.990716836135
 20
800.4684762976243
 30
0.0
 11
1215.796356910921
 21
800.4684762976243
 31
0.0
  0
LINE
  5
FBFF
330
2
100
AcDbEntity
  8
LOGO
 62
     4
100
AcDbLine
 10
1215.990716836135
 20
800.4684762976244
 30
0.0
 11
1215.990716836135
 21
800.3931171475388
 31
0.0
  0
POINT
  5
FC00
330
2
100
AcDbEntity
  8
0
 60
     1
100
AcDbPoint
 10
1951.826192678449
 20
-292.1358806780605
 30
0.0
1001
GENIUS_GENOBJ-N-CRS_13
1002
{
1000
OWNER
1000
GEN
1002
}
1001
GENIUS_GENOLIS_13
1002
{
1000
ENT
1005
0
1005
0
1005
0
1005
FBFD
1002
}
1001
GENIUS_GENOENT_13
1002
{
1000
MYREF
1005
FC00
1002
}
1002
{
1000
GRP
1005
0
1002
}
1001
GENIUS_GENODEF_13
1002
{
1000
HIER
1070
    10
1002
}
1002
{
1000
MANEDIT
1070
     1
1002
}
1002
{
1000
NOSEL
1070
     0
1002
}
1002
{
1000
BEHIND
1070
     0
1002
}
1002
{
1000
OTHER
1070
     0
1002
}
1002
{
1000
REACTOR
1002
}
  0
POINT
  5
FC01
330
2
100
AcDbEntity
  8
0
 60
     1
100
AcDbPoint
 10
1940.501607455595
 20
-283.2602941994243
 30
0.0
1001
GENIUS_GENOBJ-N-CRS_13
1002
{
1000
OWNER
1000
GEN
1002
}
1001
GENIUS_GENOLIS_13
1002
{
1000
ENT
1005
0
1005
0
1005
0
1005
FBFC
1002
}
1001
GENIUS_GENOENT_13
1002
{
1000
MYREF
1005
FC01
1002
}
1002
{
1000
GRP
1005
0
1002
}
1001
GENIUS_GENODEF_13
1002
{
1000
HIER
1070
    10
1002
}
1002
{
1000
MANEDIT
1070
     1
1002
}
1002
{
1000
NOSEL
1070
     0
1002
}
1002
{
1000
BEHIND
1070
     0
1002
}
1002
{
1000
OTHER
1070
     0
1002
}
1002
{
1000
REACTOR
1002
}
  0
POINT
  5
FC02
330
2
100
AcDbEntity
  8
0
 60
     1
100
AcDbPoint
 10
1946.860281153431
 20
-292.1358806780605
 30
0.0
1001
GENIUS_GENOBJ-N-CRS_13
1002
{
1000
OWNER
1000
GEN
1002
}
1001
GENIUS_GENOLIS_13
1002
{
1000
ENT
1005
0
1005
0
1005
0
1005
FBFB
1002
}
1001
GENIUS_GENOENT_13
1002
{
1000
MYREF
1005
FC02
1002
}
1002
{
1000
GRP
1005
0
1002
}
1001
GENIUS_GENODEF_13
1002
{
1000
HIER
1070
    10
1002
}
1002
{
1000
MANEDIT
1070
     1
1002
}
1002
{
1000
NOSEL
1070
     0
1002
}
1002
{
1000
BEHIND
1070
     0
1002
}
1002
{
1000
OTHER
1070
     0
1002
}
1002
{
1000
REACTOR
1002
}
  0
LINE
  5
FD55
330
2
100
AcDbEntity
  8
SL
  6
ACISOTGB
100
AcDbLine
 10
1220.329190332695
 20
804.2228465178016
 30
0.0
 11
1220.329190332695
 21
807.3722185077897
 31
0.0
  0
INSERT
  5
FD56
330
2
100
AcDbEntity
  8
0
 48
0.5
100
AcDbBlockReference
  2
A$C0FBC3824
 10
1220.300997969731
 20
807.4470125962514
 30
0.0
 41
1.199999999999999
 42
1.199999999999999
 43
1.199999999999999
  0
INSERT
  5
FD57
330
2
100
AcDbEntity
  8
0
 48
0.5
100
AcDbBlockReference
  2
A$C7A150A0F
 10
1220.329190332695
 20
807.2425484874596
 30
0.0
 41
1.199999999999999
 42
1.199999999999999
 43
1.199999999999999
  0
TEXT
  5
FDE4
330
2
100
AcDbEntity
  8
0
100
AcDbText
 10
1209.088591253857
 20
810.2854547326279
 30
0.0
 40
0.2
  1
NOTE:The length is the same, whether it is with magnet or not.
100
AcDbText
  0
TEXT
  5
FDE5
330
2
100
AcDbEntity
  8
0
100
AcDbText
 10
1222.557763847389
 20
801.4401544013965
 30
0.0
 40
0.15
  1
UNIT:inch
100
AcDbText
  0
VIEWPORT
  5
D953
102
{ACAD_XDICTIONARY
360
FDF3
102
}
330
BBB
100
AcDbEntity
 67
     1
  8
0
 62
     5
100
AcDbViewport
 10
144.7270812988281
 20
101.2295806407928
 30
0.0
 40
399.2669429819803
 41
222.1517806396485
 68
     1
 69
     1
 12
144.7270812988281
 22
101.2295806407928
 13
0.0
 23
0.0
 14
10.0
 24
10.0
 15
10.0
 25
10.0
 16
0.0
 26
0.0
 36
1.0
 17
0.0
 27
0.0
 37
0.0
 42
50.0
 43
0.0
 44
0.0
 45
222.1517806396485
 50
0.0
 51
0.0
 72
   100
 90
    32800
  1

281
     0
 71
     1
 74
     0
110
0.0
120
0.0
130
0.0
111
1.0
121
0.0
131
0.0
112
0.0
122
1.0
132
0.0
 79
     0
146
0.0
1001
GENIUS_GENODEF_13
1002
{
1000
HIER
1070
     0
1002
}
1002
{
1000
MANEDIT
1070
     0
1002
}
1002
{
1000
NOSEL
1070
     0
1002
}
1002
{
1000
BEHIND
1070
     0
1002
}
1002
{
1000
OTHER
1070
     0
1002
}
1002
{
1000
REACTOR
1002
}
1001
GENIUS_GENOBJ-N-SDF_13
1002
{
1000
OWNER
1000
GEN
1002
}
1001
GENIUS_GENSCREG_15
1000
PF
1040
1.0
1000
DF
1040
1.0
1000
MIN
1011
-54.906390192162
1021
-9.846309679031378
1031
0.0
1000
MAX
1011
344.3605527898183
1021
212.3054709606171
1031
0.0
1000
FLAGS
1070
     2
  0
VIEWPORT
  5
D955
102
{ACAD_XDICTIONARY
360
FDF5
102
}
330
BBB
100
AcDbEntity
 67
     1
  8
DIM
 62
     5
100
AcDbViewport
 10
139.2237563133239
 20
101.2295821905136
 30
0.0
 40
222.7580101013184
 41
161.9673315048218
 68
     2
 69
     2
 12
1282.775856856608
 22
808.0711763492697
 13
0.0
 23
0.0
 14
0.5
 24
0.5
 15
0.5
 25
0.5
 16
0.0
 26
0.0
 36
1.0
 17
0.0
 27
0.0
 37
0.0
 42
50.0
 43
0.0
 44
0.0
 45
1492.564878381468
 50
0.0
 51
0.0
 72
   100
 90
    33312
  1

281
     0
 71
     1
 74
     0
110
0.0
120
0.0
130
0.0
111
1.0
121
0.0
131
0.0
112
0.0
122
1.0
132
0.0
 79
     0
146
0.0
1001
GENIUS_GENOBJ-N-SDF_13
1002
{
1000
OWNER
1000
GEN
1002
}
1001
GENIUS_GENODEF_13
1002
{
1000
HIER
1070
     0
1002
}
1002
{
1000
MANEDIT
1070
     0
1002
}
1002
{
1000
NOSEL
1070
     0
1002
}
1002
{
1000
BEHIND
1070
     0
1002
}
1002
{
1000
OTHER
1070
     0
1002
}
1002
{
1000
REACTOR
1002
}
1001
GENIUS_GENSCREG_15
1000
PF
1040
0.0
1000
DF
1040
0.0
1000
MIN
1011
27.8447512626648
1021
20.24591643810271
1031
0.0
1000
MAX
1011
250.6027613639831
1021
182.2132479429245
1031
0.0
1000
FLAGS
1070
     2
  0
ENDSEC
  0
SECTION
  2
OBJECTS
  0
DICTIONARY
  5
8
330
0
100
AcDbDictionary
281
     1
  3
ACAD_COLOR
350
F9D7
  3
ACAD_GROUP
350
24
  3
ACAD_LAYOUT
350
C
  3
ACAD_MATERIAL
350
F9D6
  3
ACAD_MLINESTYLE
350
25
  3
ACAD_PLOTSETTINGS
350
26
  3
ACAD_PLOTSTYLENAME
350
7
  3
ACAD_TABLESTYLE
350
F9D8
  3
AcadDim
350
E5B8
  3
ACDBHEADERROUNDTRIPXREC
350
FDEA
  3
AcDbVariableDictionary
350
1F1
  3
AcmDictionary
350
F706
  3
AMG
350
F6EC
  3
AMGSNAPSETTINGS
350
F73C
  3
DWGPROPS
350
FDE9
  3
MAPISURF_MODULE
350
FA68
  0
DICTIONARY
  5
FAC7
330
11
100
AcDbDictionary
280
     1
281
     1
  3
ACAD_LAYERSTATES
360
FAC8
  0
DICTIONARY
  5
3
330
2
100
AcDbDictionary
280
     1
281
     1
  3
ACAD_INDEX
360
F743
  3
ACAD_LAYOUTSELFREF
360
F9AC
  0
DICTIONARY
  5
F6A4
330
BBB
100
AcDbDictionary
280
     1
281
     1
  3
ACAD_LAYOUTSELFREF
360
F9BC
  0
DICTIONARY
  5
F6A6
330
D
100
AcDbDictionary
280
     1
281
     1
  3
ACAD_LAYOUTSELFREF
360
F9B1
  0
DICTIONARY
  5
FD3B
330
FD3A
100
AcDbDictionary
280
     1
281
     1
  3
ACAD_SORTENTS
360
FD3C
  0
DICTIONARY
  5
FD43
330
FD42
100
AcDbDictionary
280
     1
281
     1
  3
ACAD_SORTENTS
360
FD44
  0
DICTIONARY
  5
FDEF
330
640
100
AcDbDictionary
280
     1
281
     1
  3
ACAD_XREC_ROUNDTRIP
360
FDF0
  0
DICTIONARY
  5
FC49
330
DF9A
100
AcDbDictionary
280
     1
281
     1
  3
ACMDIMBREAKPERSREACTOR
360
FC4A
  0
DICTIONARY
  5
FC08
330
DFC3
100
AcDbDictionary
280
     1
281
     1
  3
ACMDIMBREAKPERSREACTOR
360
FC09
  0
DICTIONARY
  5
FC79
330
E013
100
AcDbDictionary
280
     1
281
     1
  3
ACMDIMBREAKPERSREACTOR
360
FC7A
  0
DICTIONARY
  5
FC93
330
E22D
100
AcDbDictionary
280
     1
281
     1
  3
ACMDIMBREAKPERSREACTOR
360
FC94
  0
DICTIONARY
  5
FC23
330
E247
100
AcDbDictionary
280
     1
281
     1
  3
ACMDIMBREAKPERSREACTOR
360
FC24
  0
DICTIONARY
  5
FDF3
330
D953
100
AcDbDictionary
280
     1
281
     1
  3
ACAD_XREC_ROUNDTRIP
360
FDF4
  0
DICTIONARY
  5
FDF5
330
D955
100
AcDbDictionary
280
     1
281
     1
  3
ACAD_XREC_ROUNDTRIP
360
FDF6
  0
DICTIONARY
  5
F9D7
102
{ACAD_REACTORS
330
8
102
}
330
8
100
AcDbDictionary
281
     1
  0
DICTIONARY
  5
24
102
{ACAD_REACTORS
330
8
102
}
330
8
100
AcDbDictionary
281
     1
  0
DICTIONARY
  5
C
102
{ACAD_REACTORS
330
8
102
}
330
8
100
AcDbDictionary
281
     1
  3
Layout1
350
BBC
  3
Layout2
350
10
  3
Model
350
B
  0
DICTIONARY
  5
F9D6
102
{ACAD_REACTORS
330
8
102
}
330
8
100
AcDbDictionary
281
     1
  0
DICTIONARY
  5
25
102
{ACAD_REACTORS
330
8
102
}
330
8
100
AcDbDictionary
281
     1
  3
STANDARD
350
28
  0
DICTIONARY
  5
26
102
{ACAD_REACTORS
330
8
102
}
330
8
100
AcDbDictionary
281
     1
  0
ACDBDICTIONARYWDFLT
  5
7
102
{ACAD_REACTORS
330
8
102
}
330
8
100
AcDbDictionary
281
     1
  3
Normal
350
6
100
AcDbDictionaryWithDefault
340
6
  0
DICTIONARY
  5
F9D8
102
{ACAD_REACTORS
330
8
102
}
330
8
100
AcDbDictionary
281
     1
  3
Standard
350
F9D9
  0
XRECORD
  5
E5B8
102
{ACAD_REACTORS
330
8
102
}
330
8
100
AcDbXrecord
280
     1
 90
   990106
  3

 60
     0
 61
     0
 62
     1
 63
     3
 64
     0
 65
     0
 66
     0
 67
     3
 68
     1
 69
     0
 70
     0
 71
     0
 72
     0
 40
0.7629527293183856
170
     0
340
E5C4
  0
DICTIONARY
  5
FDEA
102
{ACAD_REACTORS
330
8
102
}
330
8
100
AcDbDictionary
281
     1
  0
DICTIONARY
  5
1F1
102
{ACAD_REACTORS
330
8
102
}
330
8
100
AcDbDictionary
281
     1
  3
CTABLESTYLE
350
FD0C
  3
DIMASSOC
350
1F3
  3
HIDETEXT
350
1F2
  3
INDEXCTL
350
F7AA
  3
PROJECTNAME
350
FDE7
  0
DICTIONARY
  5
F706
102
{ACAD_REACTORS
330
8
102
}
330
8
100
AcDbDictionary
281
     1
  3
AcmStdDictionary
350
F70C
  3
AMDTSECTSYM_ARROWCOLOR
350
FAB5
  0
DICTIONARY
  5
F6EC
102
{ACAD_REACTORS
330
8
102
}
330
8
100
AcDbDictionary
281
     1
  3
AcMgSettings
350
F6ED
  0
DICTIONARY
  5
F73C
102
{ACAD_REACTORS
330
8
102
}
330
8
100
AcDbDictionary
281
     1
  0
XRECORD
  5
FDE9
102
{ACAD_REACTORS
330
8
102
}
330
8
100
AcDbXrecord
280
     1
  1
DWGPROPS COOKIE
  2

  3

  4

  6

  7

  8

  9

300
AmdtFileType=84
301
=
302
=
303
=
304
=
305
=
306
=
307
=
308
=
309
=
 40
0.9671930902777777
 41
2452243.440373877
 42
2455342.653688171
  1

 90
        1
  0
DICTIONARY
  5
FAC8
102
{ACAD_REACTORS
330
FAC7
102
}
330
FAC7
100
AcDbDictionary
281
     1
  0
DICTIONARY
  5
F743
102
{ACAD_REACTORS
330
3
102
}
330
3
100
AcDbDictionary
281
     1
  3
*A1
350
F744
  0
XRECORD
  5
F9AC
102
{ACAD_REACTORS
330
3
102
}
330
3
100
AcDbXrecord
280
     1
340
2
  0
XRECORD
  5
F9BC
102
{ACAD_REACTORS
330
F6A4
102
}
330
F6A4
100
AcDbXrecord
280
     1
340
BBB
  0
XRECORD
  5
F9B1
102
{ACAD_REACTORS
330
F6A6
102
}
330
F6A6
100
AcDbXrecord
280
     1
340
D
  0
SORTENTSTABLE
  5
FD3C
102
{ACAD_REACTORS
330
FD3B
102
}
330
FD3B
100
AcDbSortentsTable
330
FD3A
  0
SORTENTSTABLE
  5
FD44
102
{ACAD_REACTORS
330
FD43
102
}
330
FD43
100
AcDbSortentsTable
330
FD42
  0
XRECORD
  5
FDF0
102
{ACAD_REACTORS
330
FDEF
102
}
330
FDEF
100
AcDbXrecord
280
     1
102
SHADEPLOT
 70
     0
  0
XRECORD
  5
FDF4
102
{ACAD_REACTORS
330
FDF3
102
}
330
FDF3
100
AcDbXrecord
280
     1
102
SHADEPLOT
 70
     0
  0
XRECORD
  5
FDF6
102
{ACAD_REACTORS
330
FDF5
102
}
330
FDF5
100
AcDbXrecord
280
     1
102
SHADEPLOT
 70
     0
  0
LAYOUT
  5
BBC
102
{ACAD_XDICTIONARY
360
FDF1
102
}
102
{ACAD_REACTORS
330
C
102
}
330
C
100
AcDbPlotSettings
  1

  2
自動 RD 上的 Epson Stylus Photo 750 單色
  4
A4
  6

 40
3.757083177566528
 41
14.7637300491333
 42
3.757080078125
 43
3.757080078125
 44
209.9733276367187
 45
296.9683227539062
 46
0.0
 47
0.0
 48
0.0
 49
0.0
140
0.0
141
0.0
142
1.0
143
1.0
 70
   688
 72
     1
 73
     1
 74
     5
  7

 75
    16
147
1.0
148
0.0
149
0.0
100
AcDbLayout
  1
Layout1
 70
     1
 71
     2
 10
-3.757080078125
 20
-3.757083177566528
 11
293.2112426757813
 21
206.2162444591522
 12
0.0
 22
0.0
 32
0.0
 14
27.8447512626648
 24
20.24591643810271
 34
0.0
 15
250.6027613639831
 25
182.2132479429245
 35
0.0
146
0.0
 13
0.0
 23
0.0
 33
0.0
 16
1.0
 26
0.0
 36
0.0
 17
0.0
 27
1.0
 37
0.0
 76
     0
330
BBB
331
D953
  0
LAYOUT
  5
10
102
{ACAD_XDICTIONARY
360
FDED
102
}
102
{ACAD_REACTORS
330
C
102
}
330
C
100
AcDbPlotSettings
  1

  2
自動 RD 上的 Epson Stylus Photo 750 單色
  4
A4
  6

 40
3.757083177566528
 41
14.7637300491333
 42
3.757080078125
 43
3.757080078125
 44
209.9733276367187
 45
296.9683227539062
 46
0.0
 47
0.0
 48
0.0
 49
0.0
140
0.0
141
0.0
142
1.0
143
1.0
 70
   688
 72
     1
 73
     1
 74
     5
  7

 75
    16
147
1.0
148
0.0
149
0.0
100
AcDbLayout
  1
Layout2
 70
     1
 71
     1
 10
-3.757080078125
 20
-3.757083177566528
 11
293.2112426757813
 21
206.2162444591522
 12
0.0
 22
0.0
 32
0.0
 14
1.000000000000000E+20
 24
1.000000000000000E+20
 34
1.000000000000000E+20
 15
-1.000000000000000E+20
 25
-1.000000000000000E+20
 35
-1.000000000000000E+20
146
0.0
 13
0.0
 23
0.0
 33
0.0
 16
1.0
 26
0.0
 36
0.0
 17
0.0
 27
1.0
 37
0.0
 76
     0
330
D
331
640
  0
LAYOUT
  5
B
102
{ACAD_XDICTIONARY
360
FDEB
102
}
102
{ACAD_REACTORS
330
C
102
}
330
C
100
AcDbPlotSettings
  1

  2
DWF eView (optimized for viewing).pc3
  4
ISO_A3_(297.00_x_420.00_MM)
  6

 40
5.793749809265136
 41
17.79375076293945
 42
5.79376220703125
 43
17.79376220703125
 44
297.0
 45
420.0
 46
10.16
 47
0.0
 48
0.0
 49
0.0
140
0.0
141
0.0
142
1.0
143
1.09250513036349
 70
 11924
 72
     0
 73
     1
 74
     1
  7

 75
     0
147
0.9153275094161683
148
-30680.78173371769
149
-20329.93575798659
100
AcDbLayout
  1
Model
 70
     1
 71
     0
 10
0.0
 20
0.0
 11
12.0
 21
9.0
 12
0.0
 22
0.0
 32
0.0
 14
0.0
 24
0.0
 34
0.0
 15
0.0
 25
0.0
 35
0.0
146
0.0
 13
0.0
 23
0.0
 33
0.0
 16
1.0
 26
0.0
 36
0.0
 17
0.0
 27
1.0
 37
0.0
 76
     0
330
2
  0
MLINESTYLE
  5
28
102
{ACAD_REACTORS
330
25
102
}
330
25
100
AcDbMlineStyle
  2
STANDARD
 70
     0
  3

 62
     0
 51
90.0
 52
90.0
 71
     2
 49
0.5
 62
   256
  6
BYLAYER
 49
-0.5
 62
   256
  6
BYLAYER
  0
ACDBPLACEHOLDER
  5
6
102
{ACAD_REACTORS
330
7
102
}
330
7
  0
TABLESTYLE
  5
F9D9
102
{ACAD_REACTORS
330
F9D8
102
}
330
F9D8
100
AcDbTableStyle
  3
Standard
 70
     0
 71
     0
 40
1.5
 41
1.5
280
     0
281
     0
  7
STANDARD
140
4.5
170
     2
 62
     0
 63
     7
283
     0
274
    -2
284
     1
 64
     0
275
    -2
285
     1
 65
     0
276
    -2
286
     1
 66
     0
277
    -2
287
     1
 67
     0
278
    -2
288
     1
 68
     0
279
    -2
289
     1
 69
     0
  7
STANDARD
140
6.0
170
     5
 62
     0
 63
     7
283
     0
274
    -2
284
     1
 64
     0
275
    -2
285
     1
 65
     0
276
    -2
286
     1
 66
     0
277
    -2
287
     1
 67
     0
278
    -2
288
     1
 68
     0
279
    -2
289
     1
 69
     0
  7
STANDARD
140
4.5
170
     5
 62
     0
 63
     7
283
     0
274
    -2
284
     1
 64
     0
275
    -2
285
     1
 65
     0
276
    -2
286
     1
 66
     0
277
    -2
287
     1
 67
     0
278
    -2
288
     1
 68
     0
279
    -2
289
     1
 69
     0
  0
DICTIONARYVAR
  5
FD0C
102
{ACAD_REACTORS
330
1F1
102
}
330
1F1
100
DictionaryVariables
280
     0
  1
STANDARD
  0
DICTIONARYVAR
  5
1F3
102
{ACAD_REACTORS
330
1F1
102
}
330
1F1
100
DictionaryVariables
280
     0
  1
1
  0
DICTIONARYVAR
  5
1F2
102
{ACAD_REACTORS
330
1F1
102
}
330
1F1
100
DictionaryVariables
280
     0
  1
1
  0
DICTIONARYVAR
  5
F7AA
102
{ACAD_REACTORS
330
1F1
102
}
330
1F1
100
DictionaryVariables
280
     0
  1
1
  0
DICTIONARYVAR
  5
FDE7
102
{ACAD_REACTORS
330
1F1
102
}
330
1F1
100
DictionaryVariables
280
     0
  1

  0
DICTIONARY
  5
F70C
102
{ACAD_REACTORS
330
F706
102
}
330
F706
100
AcDbDictionary
281
     1
  0
XRECORD
  5
FAB5
102
{ACAD_REACTORS
330
F706
102
}
330
F706
100
AcDbXrecord
280
     1
 90
-1023410169
  0
DICTIONARY
  5
F6ED
102
{ACAD_REACTORS
330
F6EC
102
}
330
F6EC
100
AcDbDictionary
281
     1
  3
DWGSETTINGS
350
F9E3
  3
TRANSSETTINGS
350
F9E7
  0
LAYER_INDEX
  5
F744
102
{ACAD_REACTORS
330
F743
102
}
330
F743
100
AcDbIndex
 40
2455342.653688171
100
AcDbLayerIndex
  8
0
360
F745
 90
        7
  8
AM_VIS
360
F746
 90
      417
  8
AM_7
360
F747
 90
       96
  8
AM_4
360
F748
 90
       36
  8
DIM
360
F749
 90
      121
  8
Defpoints
360
F74A
 90
        0
  8
LOGO
360
F74B
 90
      131
  8
AM_HID
360
F74C
 90
      195
  8
SL
360
FDD9
 90
        1
  0
DICTIONARY
  5
FDF1
330
BBC
100
AcDbDictionary
280
     1
281
     1
  3
ACAD_XREC_ROUNDTRIP
360
FDF2
  0
DICTIONARY
  5
FDED
330
10
100
AcDbDictionary
280
     1
281
     1
  3
ACAD_XREC_ROUNDTRIP
360
FDEE
  0
DICTIONARY
  5
FDEB
330
B
100
AcDbDictionary
280
     1
281
     1
  3
ACAD_XREC_ROUNDTRIP
360
FDEC
  0
IDBUFFER
  5
F745
330
0
100
AcDbIdBuffer
330
FD56
330
FD57
330
FDE4
330
FDE5
330
FC00
330
FC01
330
FC02
  0
IDBUFFER
  5
F746
330
0
100
AcDbIdBuffer
330
D217
330
D234
330
D237
330
D2A5
330
D2A6
330
D2A7
330
D2A8
330
D2A9
330
D2AA
330
D2AB
330
D2AC
330
D2AD
330
D2AE
330
D2AF
330
D2B0
330
D2B2
330
D2B3
330
D2B4
330
D2B5
330
D2B6
330
D2B7
330
D2BA
330
D2BC
330
D2BE
330
D2C0
330
D2C2
330
D2C4
330
D2C6
330
D2C8
330
D2C9
330
D2CA
330
D2CB
330
D2CC
330
D2CD
330
D2CE
330
D2CF
330
D2D0
330
D2D1
330
D2D2
330
D2D3
330
D2D5
330
D2D6
330
D2D7
330
D2D8
330
D2D9
330
D2DA
330
D2DD
330
D2DF
330
D2E1
330
D2E3
330
D2E5
330
D2E7
330
D2E9
330
D2EB
330
D2EC
330
D2ED
330
D2EE
330
D2EF
330
D2F0
330
D2F1
330
D2F2
330
D2F3
330
D2F4
330
D2F5
330
D2F6
330
D2F7
330
D2FA
330
D2FB
330
D2FE
330
D300
330
D301
330
D304
330
D305
330
D307
330
D30A
330
D30B
330
D30E
330
D30F
330
D310
330
D311
330
D312
330
D313
330
D314
330
D31B
330
D31C
330
D31D
330
D31E
330
D31F
330
D320
330
D321
330
D322
330
D323
330
D324
330
D325
330
D326
330
D327
330
D328
330
D329
330
D32C
330
D32D
330
D330
330
D332
330
D333
330
D336
330
D337
330
D339
330
D33C
330
D33D
330
D340
330
D341
330
D342
330
D343
330
D344
330
D345
330
D346
330
D34D
330
D34E
330
D37B
330
D37C
330
D37D
330
D37E
330
D37F
330
D380
330
D381
330
D382
330
D383
330
D384
330
D38B
330
D38C
330
D38D
330
D38E
330
D391
330
D392
330
D40B
330
D40C
330
D421
330
D422
330
D423
330
D424
330
D425
330
D426
330
D427
330
D428
330
D429
330
D42A
330
D42B
330
D42C
330
D42D
330
D42E
330
D42F
330
D430
330
D431
330
D432
330
D433
330
D43B
330
D43C
330
D43D
330
D43E
330
D43F
330
D440
330
D441
330
D442
330
D443
330
D444
330
D445
330
D446
330
D447
330
D448
330
D449
330
D44A
330
D44B
330
D44C
330
D44D
330
D44E
330
D44F
330
D457
330
D458
330
D459
330
D45A
330
D45B
330
D45C
330
D45D
330
D45E
330
D45F
330
D460
330
D461
330
D462
330
D463
330
D464
330
D465
330
D466
330
D467
330
D468
330
D469
330
D46A
330
D46B
330
D473
330
D474
330
D475
330
D476
330
D477
330
D478
330
D479
330
D47A
330
D47B
330
D47C
330
D47D
330
D47E
330
D47F
330
D480
330
D481
330
D482
330
D483
330
D484
330
D485
330
D486
330
D487
330
D48F
330
D490
330
D498
330
D49C
330
D4A0
330
D4A4
330
D4B7
330
D4B9
330
D4BB
330
D4BD
330
D4BF
330
D4C1
330
D521
330
D522
330
D523
330
D524
330
D525
330
D526
330
D529
330
D531
330
D532
330
D533
330
D534
330
D535
330
D536
330
D537
330
D542
330
D543
330
D545
330
D567
330
D568
330
D58F
330
D590
330
D59C
330
D59D
330
D59E
330
D5CF
330
D5D0
330
D5D1
330
D5D3
330
D5D4
330
D5DD
330
D5DE
330
D5DF
330
D5E0
330
D5E1
330
D606
330
D607
330
D61D
330
D61E
330
D631
330
D632
330
D694
330
D695
330
D696
330
D697
330
D698
330
D699
330
D69D
330
D69F
330
D6A6
330
D6A7
330
D6A8
330
D6AA
330
D6AB
330
D6AD
330
D6B0
330
D6B3
330
D6B4
330
D6B5
330
D6B6
330
D6B7
330
D6B8
330
D6B9
330
D6BA
330
D6E9
330
D6EA
330
D7D5
330
D7D6
330
D7D7
330
D7D8
330
D7D9
330
D7DA
330
D7DB
330
D7DC
330
D7DD
330
D7DE
330
D7DF
330
D7E0
330
D7E1
330
D7E2
330
D7E3
330
D7E4
330
D7E5
330
D7E6
330
D7E7
330
D7E8
330
D7E9
330
D7EA
330
D7EB
330
D7EC
330
D7ED
330
D7EE
330
D7EF
330
D7F0
330
D7F1
330
D7F2
330
D7F3
330
D7F4
330
D7F5
330
D7F6
330
D7F7
330
D7F8
330
D7F9
330
D7FA
330
D7FB
330
D7FC
330
D7FD
330
D7FE
330
D7FF
330
D800
330
D801
330
D802
330
D807
330
D808
330
D809
330
D80A
330
D80E
330
D849
330
D84B
330
D84D
330
D84F
330
D851
330
D853
330
D856
330
D857
330
D858
330
D859
330
D85A
330
D85B
330
D85C
330
D85D
330
D85E
330
D85F
330
D860
330
D861
330
D862
330
D863
330
D864
330
D865
330
D866
330
D867
330
D868
330
D869
330
D86A
330
D86B
330
D86C
330
D86D
330
D86E
330
D86F
330
D870
330
D871
330
D872
330
D873
330
D874
330
D875
330
D876
330
D877
330
D878
330
D879
330
D87A
330
D87B
330
D87C
330
D87D
330
D87E
330
D87F
330
D880
330
D881
330
D882
330
D883
330
D884
330
D885
330
D886
330
D887
330
D888
330
D889
330
D88A
330
D88B
330
D88C
330
D88D
330
D88E
330
D88F
330
D890
330
D891
330
D892
330
D893
330
D8B4
330
D8B6
330
D8B8
330
D8BA
  0
IDBUFFER
  5
F747
330
0
100
AcDbIdBuffer
330
4695
330
46DE
330
46DF
330
46E0
330
46E1
330
46E2
330
46E3
330
46E4
330
46E5
330
46E6
330
46E7
330
46E8
330
46E9
330
46EA
330
46EB
330
46EC
330
46ED
330
46EE
330
46EF
330
46F0
330
46F1
330
46F2
330
46F3
330
46F4
330
46F5
330
46F6
330
46F7
330
46F8
330
46F9
330
46FA
330
46FB
330
D19B
330
D1A4
330
D1A5
330
D1B8
330
D1B9
330
D1BA
330
D1BB
330
D1BC
330
D1BD
330
D1BE
330
D1BF
330
D1C0
330
D1C1
330
D1C2
330
D1C3
330
D1C4
330
D1C5
330
D759
330
D75A
330
D75B
330
D75C
330
D75D
330
D75E
330
D75F
330
D760
330
D761
330
D762
330
D763
330
D764
330
D765
330
D766
330
D767
330
D768
330
D769
330
D789
330
D78A
330
D78B
330
D78E
330
D78F
330
D790
330
D791
330
D792
330
D793
330
D795
330
D796
330
D797
330
D798
330
D799
330
D79A
330
D79B
330
D79C
330
D79D
330
D79E
330
D79F
330
D7A2
330
D7A3
330
D7A4
330
D7A6
330
D7A7
330
D7A8
330
D7A9
330
D7AA
330
D7AB
330
D7AC
330
D7AD
  0
IDBUFFER
  5
F748
330
0
100
AcDbIdBuffer
330
D770
330
D771
330
D772
330
D773
330
D774
330
D775
330
D779
330
D77A
330
D77B
330
D77C
330
D77D
330
D77E
330
D785
330
D786
330
D787
330
D788
330
D7AE
330
D7AF
330
D7B0
330
D7B2
330
D7B3
330
D7B4
330
D7B5
330
D7B6
330
D7B7
330
D7B9
330
D7BA
330
D7BB
330
D7C3
330
D7C4
330
D7C7
330
D7C8
330
D7CD
330
D7CE
330
D7CF
330
D7D0
  0
IDBUFFER
  5
F749
330
0
100
AcDbIdBuffer
330
57F
330
9C8
330
9CE
330
9D0
330
9D4
330
158C
330
158F
330
1591
330
1598
330
159A
330
159D
330
159F
330
15A2
330
1ECC
330
1ECE
330
1ED0
330
1ED2
330
1ED4
330
5255
330
55B3
330
55B5
330
55B7
330
55B9
330
55BB
330
55BE
330
5818
330
581A
330
581C
330
581E
330
5820
330
5823
330
5825
330
5BAB
330
5BAD
330
5BAF
330
5BB1
330
5BB3
330
5BB5
330
5D19
330
5D1B
330
5D1D
330
5D1F
330
5D21
330
5D24
330
5E8E
330
5E90
330
5E92
330
5E94
330
5E96
330
5E99
330
5FD8
330
5FDA
330
5FDC
330
5FDE
330
5FE0
330
DC7D
330
DC7F
330
DC81
330
DC93
330
DC96
330
DC99
330
DC9C
330
DEC7
330
DEC8
330
DEC9
330
DECA
330
DECB
330
DECC
330
DECD
330
DECE
330
DEE9
330
DEEB
330
DEEF
330
DEF1
330
DEF3
330
DEF5
330
DF04
330
DF11
330
DF1E
330
DF2B
330
DF39
330
DF46
330
DF54
330
DF62
330
DF70
330
DF7E
330
DF8C
330
DF9A
330
DFB5
330
DFC3
330
DFEB
330
DFF9
330
E013
330
E073
330
E074
330
E075
330
E076
330
E077
330
E078
330
E079
330
E07A
330
E07C
330
E07D
330
E07E
330
E220
330
E22D
330
E23A
330
E247
330
E38C
330
E38E
330
E390
330
E392
330
E394
330
E396
330
E5BA
330
E5BC
330
E5BE
330
E5C0
330
E5C2
330
E5C4
330
F93F
  0
IDBUFFER
  5
F74A
330
0
100
AcDbIdBuffer
  0
IDBUFFER
  5
F74B
330
0
100
AcDbIdBuffer
330
FBF7
330
FBF8
330
FBF9
330
FBFA
330
FBFB
330
FBFC
330
FBFD
330
FBFE
330
FBFF
330
2415
330
FB69
330
FB6A
330
FB6B
330
FB6C
330
FB6D
330
FB6E
330
FB6F
330
FB70
330
FB71
330
FB72
330
FB73
330
FB74
330
FB75
330
FB76
330
FB77
330
FB78
330
FB79
330
FB7A
330
FB7B
330
FB7C
330
FB7D
330
FB7E
330
FB7F
330
FB80
330
FB84
330
FB88
330
FB89
330
FB8D
330
FB8E
330
FB8F
330
FB90
330
FB91
330
FB92
330
FB93
330
FB94
330
FB98
330
FB9C
330
FBA0
330
FBA1
330
FBA2
330
FBA6
330
FBA7
330
FBA8
330
FBA9
330
FBAA
330
FBAB
330
FBAC
330
FBAD
330
FBAE
330
FBAF
330
FBB0
330
FBB1
330
FBB2
330
FBB3
330
FBB4
330
FBB5
330
FBB6
330
FBB7
330
FBB8
330
FBB9
330
FBBA
330
FBBB
330
FBBC
330
FBBD
330
FBBE
330
FBBF
330
FBC0
330
FBC1
330
FBC2
330
FBC3
330
FBC4
330
FBC5
330
FBC6
330
FBC7
330
FBC8
330
FBC9
330
FBCA
330
FBCB
330
FBCC
330
FBCD
330
FBCE
330
FBCF
330
FBD0
330
FBD1
330
FBD2
330
FBD3
330
FBD4
330
FBD5
330
FBD6
330
FBD7
330
FBD8
330
FBD9
330
FBDA
330
FBDB
330
FBDC
330
FBDD
330
FBDE
330
FBDF
330
FBE0
330
FBE1
330
FBE2
330
FBE3
330
FBE4
330
FBE5
330
FBE6
330
FBE7
330
FBE8
330
FBE9
330
FBEA
330
FBEB
330
FBEC
330
FBED
330
FBEE
330
FBEF
330
FBF0
330
FBF1
330
FBF2
330
FBF3
330
FBF4
330
FBF5
330
FBF6
  0
IDBUFFER
  5
F74C
330
0
100
AcDbIdBuffer
330
D1CC
330
D1CD
330
D1CE
330
D1CF
330
D1D0
330
D1D1
330
D1D2
330
D1D3
330
D1D4
330
D1D5
330
D1D6
330
D1D7
330
D1D8
330
D1D9
330
D1DA
330
D1DB
330
D1DC
330
D1DD
330
D1DE
330
D1DF
330
D1E0
330
D1E1
330
D1E2
330
D1E3
330
D1E4
330
D1E5
330
D1E6
330
D1E7
330
D1E8
330
D1E9
330
D1EA
330
D1EB
330
D1EC
330
D1ED
330
D1EE
330
D1EF
330
D1F0
330
D1F6
330
D1F7
330
D1F8
330
D1F9
330
D1FA
330
D201
330
D202
330
D203
330
D204
330
D205
330
D206
330
D227
330
D228
330
D229
330
D22A
330
D22B
330
D22C
330
D22D
330
D22E
330
D22F
330
D230
330
D231
330
D232
330
D233
330
D235
330
D236
330
D238
330
D239
330
D23A
330
D23B
330
D23C
330
D23D
330
D23E
330
D23F
330
D240
330
D241
330
D242
330
D243
330
D244
330
D245
330
D246
330
D2F8
330
D452
330
D4ED
330
D52C
330
D539
330
D54A
330
D552
330
D553
330
D554
330
D555
330
D556
330
D557
330
D558
330
D559
330
D55A
330
D55B
330
D55E
330
D57E
330
D57F
330
D580
330
D581
330
D58B
330
D58C
330
D58D
330
D58E
330
D594
330
D595
330
D596
330
D597
330
D5B7
330
D5B8
330
D5BE
330
D5BF
330
D5CA
330
D5F1
330
D5F2
330
D5F3
330
D5F4
330
D5F5
330
D5F6
330
D5F9
330
D5FA
330
D5FB
330
D5FC
330
D5FD
330
D5FE
330
D600
330
D61B
330
D61C
330
D624
330
D625
330
D626
330
D627
330
D628
330
D629
330
D62B
330
D62C
330
D62D
330
D645
330
D714
330
D715
330
D716
330
D717
330
D718
330
D719
330
D71A
330
D71B
330
D71C
330
D71D
330
D71E
330
D71F
330
D720
330
D721
330
D722
330
D723
330
D724
330
D725
330
D726
330
D727
330
D728
330
D729
330
D72A
330
D72B
330
D72C
330
D72D
330
D72E
330
D72F
330
D730
330
D731
330
D732
330
D733
330
D734
330
D735
330
D736
330
D737
330
D738
330
D739
330
D813
330
D814
330
D815
330
D816
330
D817
330
D818
330
D819
330
D81A
330
D81B
330
D81C
330
D81D
330
D81E
330
D839
330
D83A
330
D83B
330
D83C
330
D83D
330
D83E
330
D83F
330
D840
  0
IDBUFFER
  5
FDD9
330
0
100
AcDbIdBuffer
330
FD55
  0
XRECORD
  5
FDF2
102
{ACAD_REACTORS
330
FDF1
102
}
330
FDF1
100
AcDbXrecord
280
     1
102
SHADEPLOT
 70
     0
102
SHADEPLOTRESLEVEL
 70
     2
102
SHADEPLOTCUSTOMDPI
 70
   300
  0
XRECORD
  5
FDEE
102
{ACAD_REACTORS
330
FDED
102
}
330
FDED
100
AcDbXrecord
280
     1
102
SHADEPLOT
 70
     0
102
SHADEPLOTRESLEVEL
 70
     2
102
SHADEPLOTCUSTOMDPI
 70
   300
  0
XRECORD
  5
FDEC
102
{ACAD_REACTORS
330
FDEB
102
}
330
FDEB
100
AcDbXrecord
280
     1
102
SHADEPLOT
 70
     0
102
SHADEPLOTRESLEVEL
 70
     2
102
SHADEPLOTCUSTOMDPI
 70
   300
  0
ENDSEC
  0
EOF
