  0
SECTION
  2
HEADER
  9
$ACADVER
  1
AC1015
  9
$ACADMAINTVER
 70
    20
  9
$DWGCODEPAGE
  3
ANSI_950
  9
$INSBASE
 10
0.0
 20
0.0
 30
0.0
  9
$EXTMIN
 10
1162.083154362706
 20
777.9955942513516
 30
-0.0005308451868977
  9
$EXTMAX
 10
1180.455154827486
 20
791.3379044069475
 30
8.698296630597585
  9
$LIMMIN
 10
0.0
 20
0.0
  9
$LIMMAX
 10
297.0
 20
420.0
  9
$ORTHOMODE
 70
     0
  9
$REGENMODE
 70
     1
  9
$FILLMODE
 70
     1
  9
$QTEXTMODE
 70
     0
  9
$MIRRTEXT
 70
     1
  9
$LTSCALE
 40
0.5
  9
$ATTMODE
 70
     1
  9
$TEXTSIZE
 40
0.5
  9
$TRACEWID
 40
0.05
  9
$TEXTSTYLE
  7
CHINESET
  9
$CLAYER
  8
0
  9
$CELTYPE
  6
BYLAYER
  9
$CECOLOR
 62
   256
  9
$CELTSCALE
 40
0.5
  9
$DISPSILH
 70
     0
  9
$DIMSCALE
 40
1.0
  9
$DIMASZ
 40
0.12
  9
$DIMEXO
 40
0.06
  9
$DIMDLI
 40
0.3
  9
$DIMRND
 40
0.0
  9
$DIMDLE
 40
0.0
  9
$DIMEXE
 40
0.08
  9
$DIMTP
 40
0.01
  9
$DIMTM
 40
0.01
  9
$DIMTXT
 40
0.12
  9
$DIMCEN
 40
0.0
  9
$DIMTSZ
 40
0.0
  9
$DIMTOL
 70
     0
  9
$DIMLIM
 70
     0
  9
$DIMTIH
 70
     0
  9
$DIMTOH
 70
     0
  9
$DIMSE1
 70
     0
  9
$DIMSE2
 70
     0
  9
$DIMTAD
 70
     3
  9
$DIMZIN
 70
    10
  9
$DIMBLK
  1

  9
$DIMASO
 70
     1
  9
$DIMSHO
 70
     1
  9
$DIMPOST
  1

  9
$DIMAPOST
  1

  9
$DIMALT
 70
     1
  9
$DIMALTD
 70
     2
  9
$DIMALTF
 40
25.4
  9
$DIMLFAC
 40
1.0
  9
$DIMTOFL
 70
     1
  9
$DIMTVP
 40
0.0
  9
$DIMTIX
 70
     0
  9
$DIMSOXD
 70
     0
  9
$DIMSAH
 70
     0
  9
$DIMBLK1
  1

  9
$DIMBLK2
  1

  9
$DIMSTYLE
  2
STANDARD
  9
$DIMCLRD
 70
   256
  9
$DIMCLRE
 70
   256
  9
$DIMCLRT
 70
   256
  9
$DIMTFAC
 40
0.6
  9
$DIMGAP
 40
0.04
  9
$DIMJUST
 70
     0
  9
$DIMSD1
 70
     0
  9
$DIMSD2
 70
     0
  9
$DIMTOLJ
 70
     1
  9
$DIMTZIN
 70
     8
  9
$DIMALTZ
 70
    10
  9
$DIMALTTZ
 70
     0
  9
$DIMUPT
 70
     0
  9
$DIMDEC
 70
     2
  9
$DIMTDEC
 70
     8
  9
$DIMALTU
 70
     2
  9
$DIMALTTD
 70
     2
  9
$DIMTXSTY
  7
DAYUS
  9
$DIMAUNIT
 70
     0
  9
$DIMADEC
 70
     0
  9
$DIMALTRND
 40
0.0
  9
$DIMAZIN
 70
     2
  9
$DIMDSEP
 70
    46
  9
$DIMATFIT
 70
     3
  9
$DIMFRAC
 70
     0
  9
$DIMLDRBLK
  1

  9
$DIMLUNIT
 70
     2
  9
$DIMLWD
 70
    -1
  9
$DIMLWE
 70
    -1
  9
$DIMTMOVE
 70
     0
  9
$LUNITS
 70
     2
  9
$LUPREC
 70
     4
  9
$SKETCHINC
 40
0.1
  9
$FILLETRAD
 40
0.5
  9
$AUNITS
 70
     0
  9
$AUPREC
 70
     0
  9
$MENU
  1
.
  9
$ELEVATION
 40
0.0
  9
$PELEVATION
 40
0.0
  9
$THICKNESS
 40
0.0
  9
$LIMCHECK
 70
     0
  9
$CHAMFERA
 40
0.5
  9
$CHAMFERB
 40
0.5
  9
$CHAMFERC
 40
1.0
  9
$CHAMFERD
 40
0.0
  9
$SKPOLY
 70
     0
  9
$TDCREATE
 40
2452243.440373877
  9
$TDUCREATE
 40
2452243.107040544
  9
$TDUPDATE
 40
2455342.654609526
  9
$TDUUPDATE
 40
2455342.321276192
  9
$TDINDWG
 40
0.9688917245
  9
$TDUSRTIMER
 40
0.9688651852
  9
$USRTIMER
 70
     1
  9
$ANGBASE
 50
0.0
  9
$ANGDIR
 70
     0
  9
$PDMODE
 70
     0
  9
$PDSIZE
 40
0.0
  9
$PLINEWID
 40
0.0
  9
$SPLFRAME
 70
     0
  9
$SPLINETYPE
 70
     6
  9
$SPLINESEGS
 70
     8
  9
$HANDSEED
  5
FEF7
  9
$SURFTAB1
 70
     6
  9
$SURFTAB2
 70
     6
  9
$SURFTYPE
 70
     6
  9
$SURFU
 70
     6
  9
$SURFV
 70
     6
  9
$UCSBASE
  2

  9
$UCSNAME
  2

  9
$UCSORG
 10
0.0
 20
0.0
 30
0.0
  9
$UCSXDIR
 10
1.0
 20
0.0
 30
0.0
  9
$UCSYDIR
 10
0.0
 20
1.0
 30
0.0
  9
$UCSORTHOREF
  2

  9
$UCSORTHOVIEW
 70
     0
  9
$UCSORGTOP
 10
0.0
 20
0.0
 30
0.0
  9
$UCSORGBOTTOM
 10
0.0
 20
0.0
 30
0.0
  9
$UCSORGLEFT
 10
0.0
 20
0.0
 30
0.0
  9
$UCSORGRIGHT
 10
0.0
 20
0.0
 30
0.0
  9
$UCSORGFRONT
 10
0.0
 20
0.0
 30
0.0
  9
$UCSORGBACK
 10
0.0
 20
0.0
 30
0.0
  9
$PUCSBASE
  2

  9
$PUCSNAME
  2

  9
$PUCSORG
 10
0.0
 20
0.0
 30
0.0
  9
$PUCSXDIR
 10
1.0
 20
0.0
 30
0.0
  9
$PUCSYDIR
 10
0.0
 20
1.0
 30
0.0
  9
$PUCSORTHOREF
  2

  9
$PUCSORTHOVIEW
 70
     0
  9
$PUCSORGTOP
 10
0.0
 20
0.0
 30
0.0
  9
$PUCSORGBOTTOM
 10
0.0
 20
0.0
 30
0.0
  9
$PUCSORGLEFT
 10
0.0
 20
0.0
 30
0.0
  9
$PUCSORGRIGHT
 10
0.0
 20
0.0
 30
0.0
  9
$PUCSORGFRONT
 10
0.0
 20
0.0
 30
0.0
  9
$PUCSORGBACK
 10
0.0
 20
0.0
 30
0.0
  9
$USERI1
 70
     0
  9
$USERI2
 70
     0
  9
$USERI3
 70
     0
  9
$USERI4
 70
     0
  9
$USERI5
 70
     0
  9
$USERR1
 40
0.0
  9
$USERR2
 40
0.0
  9
$USERR3
 40
0.0
  9
$USERR4
 40
0.0
  9
$USERR5
 40
0.0
  9
$WORLDVIEW
 70
     1
  9
$SHADEDGE
 70
     3
  9
$SHADEDIF
 70
    70
  9
$TILEMODE
 70
     1
  9
$MAXACTVP
 70
    48
  9
$PINSBASE
 10
0.0
 20
0.0
 30
0.0
  9
$PLIMCHECK
 70
     0
  9
$PEXTMIN
 10
27.8447512626648
 20
20.24591643810271
 30
0.0
  9
$PEXTMAX
 10
250.6027613639831
 20
182.2132479429245
 30
0.0
  9
$PLIMMIN
 10
-3.757080078125
 20
-3.757083177566528
  9
$PLIMMAX
 10
293.2112426757813
 20
206.2162444591522
  9
$UNITMODE
 70
     0
  9
$VISRETAIN
 70
     1
  9
$PLINEGEN
 70
     0
  9
$PSLTSCALE
 70
     1
  9
$TREEDEPTH
 70
  3020
  9
$CMLSTYLE
  2
STANDARD
  9
$CMLJUST
 70
     0
  9
$CMLSCALE
 40
1.0
  9
$PROXYGRAPHICS
 70
     1
  9
$MEASUREMENT
 70
     1
  9
$CELWEIGHT
370
    -1
  9
$ENDCAPS
280
     0
  9
$JOINSTYLE
280
     0
  9
$LWDISPLAY
290
     0
  9
$INSUNITS
 70
     0
  9
$HYPERLINKBASE
  1

  9
$STYLESHEET
  1

  9
$XEDIT
290
     1
  9
$CEPSNTYPE
380
     0
  9
$PSTYLEMODE
290
     1
  9
$FINGERPRINTGUID
  2
{07D7BE12-0192-11D3-8697-0060B085A428}
  9
$VERSIONGUID
  2
{819D73D0-1FEA-4CB5-AE1D-7DFDCC666987}
  9
$EXTNAMES
290
     1
  9
$PSVPSCALE
 40
0.0
  9
$OLESTARTUP
290
     0
  0
ENDSEC
  0
SECTION
  2
CLASSES
  0
CLASS
  1
ACMESTATEMGR
  2
AcMeStateMgr
  3
AcMeServices
 90
        0
280
     0
281
     0
  0
CLASS
  1
ACMESCOPE
  2
AcMeScope
  3
AcMeServices
 90
        0
280
     0
281
     0
  0
CLASS
  1
ACMECOMMANDHISTORY
  2
AcMeCommandHistory
  3
AcMeServices
 90
        0
280
     0
281
     0
  0
CLASS
  1
ACRFINSADJUSTERMGR
  2
AcRfInsAdjusterMgr
  3
AcMeServices
 90
        0
280
     0
281
     0
  0
CLASS
  1
ACMEDRAWINGMAN
  2
AcMeDrawingMan
  3
AcMeServices
 90
        0
280
     0
281
     0
  0
CLASS
  1
AMATTR
  2
AcMeAttribute
  3
AcMeServices
 90
    32768
280
     0
281
     0
  0
CLASS
  1
ACMEBOMCOLUMN
  2
AcMeBOMColumn
  3
AcMeServices
 90
    32768
280
     0
281
     0
  0
CLASS
  1
ACMEBOMCONF
  2
AcMeBOMConf
  3
AcMeServices
 90
    32768
280
     0
281
     0
  0
CLASS
  1
ACMEBOMTABLE
  2
AcMeBOMTable
  3
AcMeServices
 90
    32768
280
     0
281
     0
  0
CLASS
  1
ACMEBOMENTRY
  2
AcMeBOMEntry
  3
AcMeServices
 90
    32768
280
     0
281
     0
  0
CLASS
  1
ACMEVIEW
  2
AcMeView
  3
AcMeServices
 90
        0
280
     0
281
     0
  0
CLASS
  1
ACGREFMASTER
  2
AcGrefMaster
  3
AcAttribServices
 90
        0
280
     0
281
     0
  0
CLASS
  1
AMIMASTER
  2
AmiMaster
  3
AmiServices
 90
        0
280
     0
281
     0
  0
CLASS
  1
ACASGREFMASTER
  2
AcAsGrefMaster
  3
AutoSurfResolverServices
 90
        0
280
     0
281
     0
  0
CLASS
  1
ADAPPL
  2
AcAdAppl
  3
DesignerServices
 90
        0
280
     0
281
     0
  0
CLASS
  1
DEPMGR
  2
AcAdDepMgr
  3
DesignerServices
 90
        0
280
     0
281
     0
  0
CLASS
  1
PARAMMGR
  2
AcAdParamMgr
  3
DesignerServices
 90
        0
280
     0
281
     0
  0
CLASS
  1
PARAMSCOPE
  2
AcAdParamScope
  3
DesignerServices
 90
        0
280
     0
281
     0
  0
CLASS
  1
ACIMSYSVARMAN
  2
AcImSysVarManager
  3
AcMeServices
 90
        0
280
     0
281
     0
  0
CLASS
  1
ACIMINTSYSVAR
  2
AcImIntSysVar
  3
AcMeServices
 90
        0
280
     0
281
     0
  0
CLASS
  1
ACIMREALSYSVAR
  2
AcImRealSysVar
  3
AcMeServices
 90
        0
280
     0
281
     0
  0
CLASS
  1
ACIMSTRSYSVAR
  2
AcImStrSysVar
  3
AcMeServices
 90
        0
280
     0
281
     0
  0
CLASS
  1
NAMEDAPPL
  2
AcAdNamedAppl
  3
DesignerServices
 90
        0
280
     0
281
     0
  0
CLASS
  1
ADHNTMPLT
  2
AdHoleNoteTemplateMgr
  3
DesignerServices
 90
    32768
280
     0
281
     0
  0
CLASS
  1
AM_HNTEMPLATE_MGR_NAME
  2
AdHoleNoteTemplateMgrName
  3
DesignerServices
 90
    32768
280
     0
281
     0
  0
CLASS
  1
ACADGREFMODULE
  2
AcAdGrefModule
  3
AdGrefServices
 90
        0
280
     0
281
     0
  0
CLASS
  1
AM_DRAWING_MGR
  2
AcDmDwgMgr
  3
AcMechDwgViewMgmt
 90
        0
280
     0
281
     0
  0
CLASS
  1
AM_DWG_DOCUMENT
  2
AcDmDwgDocument
  3
AcMechDwgViewMgmt
 90
        0
280
     0
281
     0
  0
CLASS
  1
AM_DWG_SHEET
  2
AcDmSheet
  3
AcMechDwgViewMgmt
 90
        0
280
     0
281
     0
  0
CLASS
  1
AM_VIEWDIMPARMAP
  2
AcDmViewDimParMap
  3
AcMechDwgViewMgmt
 90
        0
280
     0
281
     0
  0
CLASS
  1
AM_DWGMGR_NAME
  2
AcDmDwgMgrName
  3
AcMechDwgViewMgmt
 90
        0
280
     0
281
     0
  0
CLASS
  1
ACAMPROJECT
  2
AcAmProject
  3
DesignerAssemblies
 90
        0
280
     0
281
     0
  0
CLASS
  1
ACAMGRCOMPSET
  2
AcAmGrCompSet
  3
DesignerAssemblies
 90
    32768
280
     1
281
     0
  0
CLASS
  1
ACAMGRCOMPDEFSET
  2
AcAmGrCompDefSet
  3
DesignerAssemblies
 90
        0
280
     0
281
     0
  0
CLASS
  1
ACAMGRCOMPDEF
  2
AcAmGrCompDef
  3
DesignerAssemblies
 90
        0
280
     0
281
     0
  0
CLASS
  1
ACCMCONTEXT
  2
AcCmContext
  3
DesignerAssemblies
 90
        0
280
     0
281
     0
  0
CLASS
  1
ACAMCOMPDEF
  2
AcAmCompDef
  3
DesignerAssemblies
 90
        0
280
     0
281
     0
  0
CLASS
  1
ACAMCOMPDEFMGR
  2
AcAmCompDefMgr
  3
DesignerAssemblies
 90
        0
280
     0
281
     0
  0
CLASS
  1
AMCONTEXTMGR
  2
AcAmContextMgr
  3
DesignerAssemblies
 90
        0
280
     0
281
     0
  0
CLASS
  1
ACAMCONTEXTMODELER
  2
AcAmContextModeler
  3
DesignerAssemblies
 90
        0
280
     0
281
     0
  0
CLASS
  1
ACDMVIEWGEOM
  2
AcDmViewGeometry
  3
AcMechDwgViewMgmt
 90
    32768
280
     0
281
     1
  0
CLASS
  1
CBROWSERAPPOBJECT
  2
CBrowserAppObject
  3
McadcomServices
 90
        0
280
     0
281
     0
  0
CLASS
  1
IM_STATIC_MAN
  2
AcImStaticVarManager
  3
AcMeServices
 90
        0
280
     0
281
     0
  0
CLASS
  1
ASAPP
  2
AcAsAppObject
  3
AutoSurfServices
 90
        0
280
     0
281
     0
  0
CLASS
  1
ACIMDBLSTATICVAR
  2
AcImDblStaticVar
  3
AcMeServices
 90
        0
280
     0
281
     0
  0
CLASS
  1
ACIMSTRSTATICVAR
  2
AcImStrStaticVar
  3
AcMeServices
 90
        0
280
     0
281
     0
  0
CLASS
  1
ACIMINTSTATICVAR
  2
AcImIntStaticVar
  3
AcMeServices
 90
        0
280
     0
281
     0
  0
CLASS
  1
CATALOGSTATE
  2
AcAmCatalogState
  3
DesignerAssemblies
 90
        0
280
     0
281
     0
  0
CLASS
  1
DM_PLACEHOLDER
  2
AcDmSelsetPlaceholder
  3
AcMechDwgViewMgmt
 90
        0
280
     0
281
     0
  0
CLASS
  1
DICTIONARYVAR
  2
AcDbDictionaryVar
  3
ObjectDBX Classes
 90
        0
280
     0
281
     0
  0
CLASS
  1
ACMSTANDARDJIS
  2
AcmStandardJIS
  3
"Amdt_StdImp|Product Description: AutoCAD Mechanical 2004 DX|Company: Autodesk"
 90
    32768
280
     0
281
     0
  0
CLASS
  1
ACMSTANDARDANSI
  2
AcmStandardANSI
  3
"Amdt_StdImp|Product Description: AutoCAD Mechanical 2004 DX|Company: Autodesk"
 90
    32768
280
     0
281
     0
  0
CLASS
  1
ACMSTANDARDBSI
  2
AcmStandardBSI
  3
"Amdt_StdImp|Product Description: AutoCAD Mechanical 2004 DX|Company: Autodesk"
 90
    32768
280
     0
281
     0
  0
CLASS
  1
ACMSTANDARDDIN
  2
AcmStandardDIN
  3
"Amdt_StdImp|Product Description: AutoCAD Mechanical 2004 DX|Company: Autodesk"
 90
    32768
280
     0
281
     0
  0
CLASS
  1
ACMSTANDARDISO
  2
AcmStandardISO
  3
"Amdt_StdImp|Product Description: AutoCAD Mechanical 2004 DX|Company: Autodesk"
 90
        0
280
     0
281
     0
  0
CLASS
  1
LAYER_INDEX
  2
AcDbLayerIndex
  3
ObjectDBX Classes
 90
        0
280
     0
281
     0
  0
CLASS
  1
IDBUFFER
  2
AcDbIdBuffer
  3
ObjectDBX Classes
 90
        0
280
     0
281
     0
  0
CLASS
  1
ACDBDICTIONARYWDFLT
  2
AcDbDictionaryWithDefault
  3
ObjectDBX Classes
 90
        0
280
     0
281
     0
  0
CLASS
  1
ACDBPLACEHOLDER
  2
AcDbPlaceHolder
  3
ObjectDBX Classes
 90
        0
280
     0
281
     0
  0
CLASS
  1
LAYOUT
  2
AcDbLayout
  3
ObjectDBX Classes
 90
        0
280
     0
281
     0
  0
CLASS
  1
ACME_DOCUMENT
  2
AcMeDbDoc
  3
AcMeServices
 90
        0
280
     0
281
     0
  0
CLASS
  1
AMGSETTINGSOBJ
  2
AmgSettingsObj
  3
"AcadM|Product Description: AutoCAD Mechanical 2000|Company: Autodesk"
 90
        0
280
     0
281
     0
  0
CLASS
  1
AMGOBJPROPCFG
  2
AmgObjPropCfg
  3
"AmgLay|Product Description: AutoCAD Mechanical 2000|Company: Autodesk"
 90
        1
280
     0
281
     0
  0
CLASS
  1
ACDBENTITYCACHE
  2
AcMeEntityCache
  3
AcMeServices
 90
        0
280
     0
281
     0
  0
CLASS
  1
GSMANAGER
  2
AcMeGSManager
  3
AcMeServices
 90
        0
280
     0
281
     0
  0
CLASS
  1
AMDTINTERNALREACTOR
  2
AmdtInternalReactor
  3
AcMeServices
 90
        0
280
     0
281
     0
  0
CLASS
  1
ACME_DATABASE
  2
AcMeDbDatabase
  3
AcMeServices
 90
        0
280
     0
281
     0
  0
CLASS
  1
ACGREFACADMASTER
  2
AcGrefacadMaster
  3
AcGrefServices
 90
        0
280
     0
281
     0
  0
CLASS
  1
AMDTMENUSTATEMGR
  2
AmdtMenuStateMgr
  3
McadcomServices
 90
        0
280
     0
281
     0
  0
CLASS
  1
AMDTMCOMMENUSTATE
  2
AmdtMcomMenuState
  3
McadcomServices
 90
        0
280
     0
281
     0
  0
CLASS
  1
MAPIADMODULE
  2
MApiAdModule
  3
MApiAdServices
 90
        0
280
     0
281
     0
  0
CLASS
  1
AMDTDMMENUSTATE
  2
AmdtDmMenuState
  3
AcMechDwgViewMgmt
 90
        0
280
     0
281
     0
  0
CLASS
  1
AMDTADMENUSTATE
  2
AmdtAdMenuState
  3
DesignerServices
 90
        0
280
     0
281
     0
  0
CLASS
  1
AMDTAMMENUSTATE
  2
AmdtAmMenuState
  3
DesignerAssemblies
 90
        0
280
     0
281
     0
  0
CLASS
  1
ACMDATADICTIONARY
  2
AcmDataDictionary
  3
"AcmSymBB|Product Description: AutoCAD Mechanical 2004 DX|Company: Autodesk"
 90
        0
280
     0
281
     0
  0
CLASS
  1
ACMDATAENTRYBLOCK
  2
AcmDataEntryBlock
  3
"AcmSymBB|Product Description: AutoCAD Mechanical 2004 DX|Company: Autodesk"
 90
        0
280
     0
281
     0
  0
CLASS
  1
AMDTBROWSERDBTAB
  2
AmdtBrowserDbTab
  3
McadcomServices
 90
        0
280
     0
281
     0
  0
CLASS
  1
ACAMGFILTERDAT
  2
AcAmgFilterDat
  3
"AcadM|Product Description: AutoCAD Mechanical 2000|Company: Autodesk"
 90
    32768
280
     0
281
     0
  0
CLASS
  1
MAPIAMMOUDLE
  2
MApiAmModule
  3
MApiAmServices
 90
        0
280
     0
281
     0
  0
CLASS
  1
ACAMEXTERNALCOMPDEF
  2
AcAmExternalCompDef
  3
DesignerAssemblies
 90
    32768
280
     0
281
     0
  0
CLASS
  1
ACCMBODY
  2
AcCmBody
  3
DesignerAssemblies
 90
    32768
280
     0
281
     0
  0
CLASS
  1
ACAMCOMPENT
  2
AcAmCompEnt
  3
DesignerAssemblies
 90
    32768
280
     0
281
     1
  0
CLASS
  1
ACAMCOMPFEEDBACK
  2
AcAmCompFeedback
  3
DesignerAssemblies
 90
    32768
280
     0
281
     0
  0
CLASS
  1
ACAMCOMP
  2
AcAmComp
  3
DesignerAssemblies
 90
    32768
280
     0
281
     0
  0
CLASS
  1
ACAMCOMPENTCLONE
  2
AcAmCompEntClone
  3
DesignerAssemblies
 90
    32768
280
     0
281
     1
  0
CLASS
  1
ACAMCLONEREACTOR
  2
AcAmGrCompCloneReactor
  3
DesignerAssemblies
 90
    32768
280
     0
281
     0
  0
CLASS
  1
ADPART
  2
AcAdPart
  3
DesignerServices
 90
    32768
280
     0
281
     1
  0
CLASS
  1
WORKPLANEDISPLAYMGR
  2
AcAdDisplayMgr
  3
DesignerServices
 90
    32768
280
     0
281
     0
  0
CLASS
  1
PARAM
  2
AcAdParam
  3
DesignerServices
 90
    32768
280
     0
281
     0
  0
CLASS
  1
ADDATUMAXISABS
  2
AcAdDatumAxisAbs
  3
DesignerServices
 90
    32768
280
     0
281
     0
  0
CLASS
  1
ADBASE
  2
AcAdBase
  3
DesignerServices
 90
    32768
280
     0
281
     0
  0
CLASS
  1
ADDATUMPLANEABS
  2
AcAdDatumPlaneAbs
  3
DesignerServices
 90
    32768
280
     0
281
     0
  0
CLASS
  1
BODYID
  2
AcAdBodyId
  3
DesignerServices
 90
    32768
280
     0
281
     0
  0
CLASS
  1
ADDATUMORIENTEDPLANE
  2
AcAdDatumOrientedPlane
  3
DesignerServices
 90
    32768
280
     0
281
     0
  0
CLASS
  1
ACADCONSGROUP
  2
AcAdConstraintGroup
  3
DesignerServices
 90
    32768
280
     0
281
     0
  0
CLASS
  1
ACADREFLINEACAD
  2
AcAdVirtualReferenceLine
  3
DesignerServices
 90
    32768
280
     0
281
     0
  0
CLASS
  1
ACADCONSLINE
  2
AcAdConstrainedLine
  3
DesignerServices
 90
    32768
280
     0
281
     0
  0
CLASS
  1
ACADLINEACAD
  2
AcAdVirtualBoundedLineAcad
  3
DesignerServices
 90
    32768
280
     0
281
     0
  0
CLASS
  1
ACADCONSPOINT
  2
AcAdConstrainedPoint
  3
DesignerServices
 90
    32768
280
     0
281
     0
  0
CLASS
  1
ADPCURCNS
  2
AcAdPointCurveConstr
  3
DesignerServices
 90
    32768
280
     0
281
     0
  0
CLASS
  1
ADHORCNS
  2
AcAdHorizontalConstr
  3
DesignerServices
 90
    32768
280
     0
281
     0
  0
CLASS
  1
ADVERCNS
  2
AcAdVerticalConstr
  3
DesignerServices
 90
    32768
280
     0
281
     0
  0
CLASS
  1
ACAD_FIXCONSTRAINT
  2
AcAdFixedConstraint
  3
DesignerServices
 90
    32768
280
     0
281
     0
  0
CLASS
  1
ADVDISTCNS
  2
AcAdVerticalDistanceConstr
  3
DesignerServices
 90
    32768
280
     0
281
     0
  0
CLASS
  1
ADHDISTCNS
  2
AcAdHorizontalDistanceConstr
  3
DesignerServices
 90
    32768
280
     0
281
     0
  0
CLASS
  1
ACADIMPPTACAD
  2
AcAdVirtualImplicitPoint
  3
DesignerServices
 90
    32768
280
     0
281
     0
  0
CLASS
  1
ADCLPROF2D
  2
AcAdClosedProfile2d
  3
DesignerServices
 90
    32768
280
     0
281
     0
  0
CLASS
  1
DEPEDGEFEATUREORDERING
  2
AcAdDepEdgeFeatureOrdering
  3
DesignerServices
 90
    32768
280
     0
281
     0
  0
CLASS
  1
ACADVOLFEATWITHTRIM
  2
AcAdVolFeatWithTrim
  3
DesignerServices
 90
    32768
280
     0
281
     0
  0
CLASS
  1
ADPLANEID
  2
AcAdPlaneId
  3
DesignerServices
 90
    32768
280
     0
281
     0
  0
CLASS
  1
OSTREFID
  2
AcAdOrientedStraightRefId
  3
DesignerServices
 90
    32768
280
     0
281
     0
  0
CLASS
  1
STREFID
  2
AcAdStraightRefId
  3
DesignerServices
 90
    32768
280
     0
281
     0
  0
CLASS
  1
CNRREFID
  2
AcAdCornerId
  3
DesignerServices
 90
    32768
280
     0
281
     0
  0
CLASS
  1
ADSTRAIGHTID
  2
AcAdStraightId
  3
DesignerServices
 90
    32768
280
     0
281
     0
  0
CLASS
  1
HVREFID
  2
AcAdHVRefId
  3
DesignerServices
 90
    32768
280
     0
281
     0
  0
CLASS
  1
ADDATUMPLANEFACE
  2
AcAdDatumPlaneFace
  3
DesignerServices
 90
    32768
280
     0
281
     0
  0
CLASS
  1
ADDATUMPOINT2EDGES
  2
AcAdDatumPoint2Edges
  3
DesignerServices
 90
    32768
280
     0
281
     0
  0
CLASS
  1
ADDATUMAXISEDGE
  2
AcAdDatumAxisEdge
  3
DesignerServices
 90
    32768
280
     0
281
     0
  0
CLASS
  1
ADHOLEFEAT
  2
AcAdHoleFeat
  3
DesignerServices
 90
    32768
280
     0
281
     0
  0
CLASS
  1
DATUMPLANEDISPLAY
  2
AcAdDatumPlaneDisplay
  3
DesignerServices
 90
    32768
280
     0
281
     1
  0
CLASS
  1
ADDATUMPLANEOFFSET
  2
AcAdDatumPlaneOffset
  3
DesignerServices
 90
    32768
280
     0
281
     0
  0
CLASS
  1
ADDATUMPLANEAXISPLANE
  2
AcAdDatumPlaneAxisPlane
  3
DesignerServices
 90
    32768
280
     0
281
     0
  0
CLASS
  1
ADSURFGEOMID
  2
AcAdSurfGeomId
  3
DesignerServices
 90
    32768
280
     0
281
     0
  0
CLASS
  1
EDGEID
  2
AcAdEdgeId
  3
DesignerServices
 90
    32768
280
     0
281
     0
  0
CLASS
  1
ACADLINEDEPID
  2
AcAdVirtualLineDepId
  3
DesignerServices
 90
    32768
280
     0
281
     0
  0
CLASS
  1
ADCOLNCNS
  2
AcAdColinearConstr
  3
DesignerServices
 90
    32768
280
     0
281
     0
  0
CLASS
  1
ACADBOUNDEDLINEDATUMID
  2
AcAdVirtualBoundedLineDatumId
  3
DesignerServices
 90
    32768
280
     0
281
     0
  0
CLASS
  1
DATUMAXISDISPLAY
  2
AcAdDatumAxisDisplay
  3
DesignerServices
 90
    32768
280
     0
281
     1
  0
CLASS
  1
ADDATUMAXISCENTER
  2
AcAdDatumAxisCenter
  3
DesignerServices
 90
    32768
280
     0
281
     0
  0
CLASS
  1
ACADCIRCLEACAD
  2
AcAdVirtualCircleAcad
  3
DesignerServices
 90
    32768
280
     0
281
     0
  0
CLASS
  1
ACADCONSCIRCLE
  2
AcAdConstrainedCircle
  3
DesignerServices
 90
    32768
280
     0
281
     0
  0
CLASS
  1
ADCTRPTCNS
  2
AcAdCenterPointConstr
  3
DesignerServices
 90
    32768
280
     0
281
     0
  0
CLASS
  1
ADACADDIACNS
  2
AcAdAcadDiameterConstr
  3
DesignerServices
 90
    32768
280
     0
281
     0
  0
CLASS
  1
ACADPOINTDEPID
  2
AcAdVirtualPointDepId
  3
DesignerServices
 90
    32768
280
     0
281
     0
  0
CLASS
  1
ADDATUMPOINTAXISPLANE
  2
AcAdDatumPointAxisPlane
  3
DesignerServices
 90
    32768
280
     0
281
     0
  0
CLASS
  1
ADFILLET
  2
AcAdFillet
  3
DesignerServices
 90
    32768
280
     0
281
     0
  0
CLASS
  1
ADFEATRECTARRAY
  2
AcAdRectangularFeatArray
  3
DesignerServices
 90
    32768
280
     0
281
     0
  0
CLASS
  1
DEPEDGESECONDARYDEPID
  2
AcAdDepEdgeSecondaryDepId
  3
DesignerServices
 90
    32768
280
     0
281
     0
  0
CLASS
  1
CIRREFID
  2
AcAdCircleRefId
  3
DesignerServices
 90
    32768
280
     0
281
     0
  0
CLASS
  1
ACADCIRCDEPID
  2
AcAdVirtualCircleDepId
  3
DesignerServices
 90
    32768
280
     0
281
     0
  0
CLASS
  1
ADVIRTUALPOINTWORKPOINTFREE
  2
AcAdVirtualPointWorkPointFree
  3
DesignerServices
 90
    32768
280
     0
281
     0
  0
CLASS
  1
ADWORKPOINTDISPLAY
  2
AcAdWorkPointDisplay
  3
DesignerServices
 90
    32768
280
     0
281
     1
  0
CLASS
  1
ADWORKPOINTSKETCH
  2
AcAdWorkPointSketch
  3
DesignerServices
 90
    32768
280
     0
281
     0
  0
CLASS
  1
FACEID
  2
AcAdFaceId
  3
DesignerServices
 90
    32768
280
     0
281
     0
  0
CLASS
  1
ACAMGROUNDEDBASECOMP
  2
AcAmGroundedBaseComp
  3
DesignerAssemblies
 90
    32768
280
     0
281
     0
  0
CLASS
  1
SILEDGEID
  2
AcAdSilhouetteEdgeId
  3
DesignerServices
 90
    32768
280
     0
281
     0
  0
CLASS
  1
ADCONCCNS
  2
AcAdConcentricConstr
  3
DesignerServices
 90
    32768
280
     0
281
     0
  0
CLASS
  1
ACADPARTCIRCEDGRES
  2
AcAdPartCircEdgRes
  3
AdGrefServices
 90
    32768
280
     0
281
     0
  0
CLASS
  1
ACRFINSADJ
  2
AcRfInsAdjuster
  3
AcMeServices
 90
    32768
280
     0
281
     0
  0
CLASS
  1
ACADPARTPLANARFACERES
  2
AcAdPartPlanarFaceRes
  3
AdGrefServices
 90
    32768
280
     0
281
     0
  0
CLASS
  1
ACMELINEARARROW
  2
AcImLinearArrowDisplay
  3
AcMeServices
 90
    32768
280
     0
281
     1
  0
CLASS
  1
ACAMEXPR
  2
AcAmExpr
  3
DesignerAssemblies
 90
    32768
280
     0
281
     0
  0
CLASS
  1
ACCMINSERTPLPL
  2
AcCmInsertPlPl
  3
AcCmServices
 90
    32768
280
     0
281
     0
  0
CLASS
  1
ACCMCONSTREACTOR
  2
AcCmConstraintReactor
  3
DesignerAssemblies
 90
    32768
280
     0
281
     0
  0
CLASS
  1
ACAD_CIRCLE
  2
AcAdCircle
  3
DesignerServices
 90
    32768
280
     0
281
     1
  0
CLASS
  1
ADCONSTDSP
  2
AcAdConstraintDisplayTag
  3
DesignerServices
 90
    32768
280
     0
281
     1
  0
CLASS
  1
ADCONSDISP
  2
AcAdConstraintDisplay
  3
DesignerServices
 90
    32768
280
     0
281
     1
  0
CLASS
  1
ACMEPOINT
  2
AcImPointDisplay
  3
AcMeServices
 90
    32768
280
     0
281
     1
  0
CLASS
  1
ACMEPLINE
  2
AcImPlineDisplay
  3
AcMeServices
 90
    32768
280
     0
281
     1
  0
CLASS
  1
ACMECIRCARC
  2
AcImCircArcDisplay
  3
AcMeServices
 90
    32768
280
     0
281
     1
  0
CLASS
  1
ACADPARTCYLINDERFACERES
  2
AcAdPartCylinderFaceRes
  3
AdGrefServices
 90
    32768
280
     0
281
     0
  0
CLASS
  1
ACADPARTAXISRES
  2
AcAdPartAxisRes
  3
AdGrefServices
 90
    32768
280
     0
281
     0
  0
CLASS
  1
ACADPARTDATUMPLANERES
  2
AcAdPartDatumPlaneRes
  3
AdGrefServices
 90
    32768
280
     0
281
     0
  0
CLASS
  1
ADDATUMPLANETANGENTPLANE
  2
AcAdDatumPlaneTangentPlane
  3
DesignerServices
 90
    32768
280
     0
281
     0
  0
CLASS
  1
ACADPARTDATUMPOINTRES
  2
AcAdPartDatumPointRes
  3
AdGrefServices
 90
    32768
280
     0
281
     0
  0
CLASS
  1
ADPROJCNS
  2
AcAdProjectionConstr
  3
DesignerServices
 90
    32768
280
     0
281
     0
  0
CLASS
  1
ACADSKETCHPOINTRES
  2
AcAdSketchPointRes
  3
DesignerServices
 90
    32768
280
     0
281
     0
  0
CLASS
  1
ACADSKETCHLINERES
  2
AcAdSketchLineRes
  3
DesignerServices
 90
    32768
280
     0
281
     0
  0
CLASS
  1
ACAD_LINE
  2
AcAdLine
  3
DesignerServices
 90
    32768
280
     0
281
     1
  0
CLASS
  1
ADPERPCNS
  2
AcAdPerpendicularConstr
  3
DesignerServices
 90
    32768
280
     0
281
     0
  0
CLASS
  1
ADVIRTUALPOINTWORKPOINTFIXED
  2
AcAdVirtualPointWorkPointFixed
  3
DesignerServices
 90
    32768
280
     0
281
     0
  0
CLASS
  1
NEWSTDPARTPARLIST
  2
AmgNewParListFiler
  3
"AmgParList|Product Description: AutoCAD Mechanical 2000|Company: Autodesk"
 90
    33791
280
     0
281
     0
  0
CLASS
  1
ACMSURFSTANDARDANSI
  2
AcmSurfTextStdANSI
  3
"Amdt_StdImp|Product Description: AutoCAD Mechanical 2004 DX|Company: Autodesk"
 90
    32768
280
     0
281
     0
  0
CLASS
  1
ACMFCFSTANDARDANSI
  2
AcmFCFStdANSI
  3
"Amdt_StdImp|Product Description: AutoCAD Mechanical 2004 DX|Company: Autodesk"
 90
    32768
280
     0
281
     0
  0
CLASS
  1
ACMWELDSTANDARDANSI
  2
AcmWeldingStdANSI
  3
"Amdt_StdImp|Product Description: AutoCAD Mechanical 2004 DX|Company: Autodesk"
 90
    32768
280
     0
281
     0
  0
CLASS
  1
ACMIDSTANDARDANSI
  2
AcmIdStdANSI
  3
"Amdt_StdImp|Product Description: AutoCAD Mechanical 2004 DX|Company: Autodesk"
 90
    32768
280
     0
281
     0
  0
CLASS
  1
ACMDATUMSTANDARDANSI
  2
AcmDatumStdANSI
  3
"Amdt_StdImp|Product Description: AutoCAD Mechanical 2004 DX|Company: Autodesk"
 90
    32768
280
     0
281
     0
  0
CLASS
  1
ACMBOMSTANDARDANSI
  2
AcmBOMStdANSI
  3
"Amdt_StdImp|Product Description: AutoCAD Mechanical 2004 DX|Company: Autodesk"
 90
    32768
280
     0
281
     0
  0
CLASS
  1
ACAMGRBLOCKRECORD
  2
AcAmGrBlockRecord
  3
DesignerAssemblies
 90
    32768
280
     0
281
     0
  0
CLASS
  1
ACAMVIEWREACTOR
  2
AcAmViewReactor
  3
DesignerAssemblies
 90
    32768
280
     0
281
     0
  0
CLASS
  1
AMVIEW
  2
AcAmView
  3
DesignerAssemblies
 90
    32768
280
     0
281
     0
  0
CLASS
  1
ACAMVIEWCONTEXT
  2
AcAmViewContext
  3
DesignerAssemblies
 90
    32768
280
     0
281
     0
  0
CLASS
  1
ACAMCOMPVIEWREACTOR
  2
AcAmGrCompViewReactor
  3
DesignerAssemblies
 90
    32768
280
     0
281
     0
  0
CLASS
  1
ACAMCOMPENTVIEW
  2
AcAmCompEntView
  3
DesignerAssemblies
 90
    32768
280
     0
281
     1
  0
CLASS
  1
ACAMVIEWENTITYFILTER
  2
AcAmViewEntityFilter
  3
DesignerAssemblies
 90
    32768
280
     0
281
     0
  0
CLASS
  1
AM_GREF_PLANE
  2
AcDmGrefPlnDef
  3
AcMechDwgViewMgmt
 90
    32768
280
     0
281
     0
  0
CLASS
  1
AM_ABS_AXIS
  2
AcDmAbsAxisDef
  3
AcMechDwgViewMgmt
 90
    32768
280
     0
281
     0
  0
CLASS
  1
AM_BASE_VIEW_ORIENT
  2
AcDmBaseViewOr
  3
AcMechDwgViewMgmt
 90
    32768
280
     0
281
     0
  0
CLASS
  1
AM_DWG_VIEWPORT
  2
AcDmViewport
  3
AcMechDwgViewMgmt
 90
    32768
280
     0
281
     0
  0
CLASS
  1
AM_VIEW_DISPLAY
  2
AcDmDwgViewDisplay
  3
AcMechDwgViewMgmt
 90
    32768
280
     0
281
     0
  0
CLASS
  1
AM_CLDFLTS
  2
AcDmClDflts
  3
AcMechDwgViewMgmt
 90
    32768
280
     0
281
     0
  0
CLASS
  1
AM_BASE_VIEW
  2
AcDmBaseView
  3
AcMechDwgViewMgmt
 90
    32768
280
     0
281
     0
  0
CLASS
  1
ACDMVWEDLINE
  2
AcDmViewEdgeLine
  3
AcMechDwgViewMgmt
 90
    32768
280
     0
281
     1
  0
CLASS
  1
ACDMVWEDCIRC
  2
AcDmViewEdgeCircle
  3
AcMechDwgViewMgmt
 90
    32768
280
     0
281
     1
  0
CLASS
  1
ACDMVWEDARC
  2
AcDmViewEdgeArc
  3
AcMechDwgViewMgmt
 90
    32768
280
     0
281
     1
  0
CLASS
  1
AM_ADCIRCTRLINE
  2
AcAdBullsEyeCl
  3
DesignerServices
 90
    32768
280
     0
281
     0
  0
CLASS
  1
AD_CIRCTAPH
  2
AcAdTapHoleCircDisp
  3
DesignerServices
 90
    32768
280
     0
281
     0
  0
CLASS
  1
AM_ORTHO_VIEW_ORIENT
  2
AcDmOrthoViewOr
  3
AcMechDwgViewMgmt
 90
    32768
280
     0
281
     0
  0
CLASS
  1
AM_ORTHO_VIEW
  2
AcDmOrthoView
  3
AcMechDwgViewMgmt
 90
    32768
280
     0
281
     0
  0
CLASS
  1
AM_GREF_POINT
  2
AcDmGrefPntDef
  3
AcMechDwgViewMgmt
 90
    32768
280
     0
281
     0
  0
CLASS
  1
AM_FULLPOINTSECTION
  2
AcDmFullPointSection
  3
AcMechDwgViewMgmt
 90
    32768
280
     0
281
     0
  0
CLASS
  1
AM_SECTIONSYMBOL
  2
AcDmSectionSymbol
  3
AcMechDwgViewMgmt
 90
    32768
280
     0
281
     0
  0
CLASS
  1
AM_VIEWLABEL
  2
AcDmViewLabel
  3
AcMechDwgViewMgmt
 90
    32768
280
     0
281
     0
  0
CLASS
  1
ACDMVWEDSPLINE
  2
AcDmViewEdgeSpline
  3
AcMechDwgViewMgmt
 90
    32768
280
     0
281
     1
  0
CLASS
  1
ACDMVWEDELLIPSE
  2
AcDmViewEdgeEllipse
  3
AcMechDwgViewMgmt
 90
    32768
280
     0
281
     1
  0
CLASS
  1
AM_ADLINCTRLINE
  2
AcAdLineCl
  3
DesignerServices
 90
    32768
280
     0
281
     0
  0
CLASS
  1
AD_LINETAPH
  2
AcAdTapHoleLineDisp
  3
DesignerServices
 90
    32768
280
     0
281
     0
  0
CLASS
  1
ACDMGREFEDIT
  2
AcDmViewEntityGeomrefEdit
  3
AcMechDwgViewMgmt
 90
    32768
280
     0
281
     0
  0
CLASS
  1
ACDMVIEWLINEDGERES
  2
AcDmViewLinEdgeRes
  3
AcMechDwgViewMgmt
 90
    32768
280
     0
281
     0
  0
CLASS
  1
AM_VIEWDIMLINEAR
  2
AcDmViewDimLinear
  3
AcMechDwgViewMgmt
 90
    32768
280
     0
281
     0
  0
CLASS
  1
ACRFATTGENMGR
  2
AcRfAttGeneralMgr
  3
AcAttribServices
 90
    32768
280
     0
281
     0
  0
CLASS
  1
AM_HALFPOINTSECTION
  2
AcDmHalfPointSection
  3
AcMechDwgViewMgmt
 90
    32768
280
     0
281
     0
  0
CLASS
  1
AMDTMAPISURFMOUDULE
  2
AmdtMApiSurfModule
  3
MApiSurfServices
 90
        0
280
     0
281
     0
  0
CLASS
  1
ACDMPARTVIEWDATA
  2
AcDmPartViewData
  3
AcMechDwgViewMgmt
 90
    32768
280
     0
281
     0
  0
CLASS
  1
ACDMDISPLAYATTRIBS
  2
AcDmDisplayAttribs
  3
AcMechDwgViewMgmt
 90
    32768
280
     0
281
     0
  0
CLASS
  1
ACDMBODYINSTANCEDATA
  2
AcDmBodyInstanceData
  3
AcMechDwgViewMgmt
 90
    32768
280
     0
281
     0
  0
CLASS
  1
AMDTFORMULAUPDATEDISPATCHER
  2
AmdtFormulaUpdateDispatcher
  3
AcMeServices
 90
    32768
280
     0
281
     0
  0
CLASS
  1
ACAMGTITLESTD
  2
AcAmgTitleStd
  3
"TITLEAPP"
 90
        0
280
     0
281
     0
  0
CLASS
  1
ACMDETAILSTANDARDANSI
  2
AmdtDetailSymStdANSI
  3
"Amdt_StdImp|Product Description: AutoCAD Mechanical 2004 DX|Company: Autodesk"
 90
    32768
280
     0
281
     0
  0
CLASS
  1
ACMSECTIONSTANDARDANSI
  2
AmdtSectionSymStdANSI
  3
"Amdt_StdImp|Product Description: AutoCAD Mechanical 2004 DX|Company: Autodesk"
 90
    32768
280
     0
281
     0
  0
CLASS
  1
ACMCENTERLINESTANDARDANSI
  2
AmdtCenterLineStdANSI
  3
"Amdt_StdImp|Product Description: AutoCAD Mechanical 2004 DX|Company: Autodesk"
 90
    32768
280
     0
281
     0
  0
CLASS
  1
ACMTHREADLINESTANDARDANSI
  2
AmdtThreadLineStdANSI
  3
"Amdt_StdImp|Product Description: AutoCAD Mechanical 2004 DX|Company: Autodesk"
 90
    32768
280
     0
281
     0
  0
CLASS
  1
ACMNOTESTANDARDANSI
  2
AmdtNoteStdANSI
  3
"Amdt_StdImp|Product Description: AutoCAD Mechanical 2004 DX|Company: Autodesk"
 90
    32768
280
     0
281
     0
  0
CLASS
  1
ACAMGLAYSTD
  2
AcAmgLayStd
  3
"AcAmgLayStd|Product Description: AutoCAD Mechanical 2000|Company: Autodesk"
 90
        0
280
     0
281
     0
  0
CLASS
  1
ACAMGDIMSTD
  2
AcAmgDimStd
  3
"AcAmgDimStd|Product Description: AutoCAD Mechanical 2000|Company: Autodesk"
 90
        0
280
     0
281
     0
  0
CLASS
  1
ACAMGHOLECHARTSTDANSI
  2
AcAmgHoleChartStdANSI
  3
ACMSYMBB_MODULE_NAME
 90
    32768
280
     0
281
     0
  0
CLASS
  1
AM_ABS_PLANE
  2
AcDmAbsPlnDef
  3
AcMechDwgViewMgmt
 90
    32768
280
     0
281
     0
  0
CLASS
  1
ACADPARTPOINTRES
  2
AcAdPartPointRes
  3
AdGrefServices
 90
    32768
280
     0
281
     0
  0
CLASS
  1
ACDBLINERES
  2
AcDbLineRes
  3
AcGrefServices
 90
    32768
280
     0
281
     0
  0
CLASS
  1
ACADPARTLINEDGRES
  2
AcAdPartLinEdgRes
  3
AdGrefServices
 90
    32768
280
     0
281
     0
  0
CLASS
  1
AM_GREF_AXIS
  2
AcDmGrefAxisDef
  3
AcMechDwgViewMgmt
 90
    32768
280
     0
281
     0
  0
CLASS
  1
ACADPARTSPLINEEDGERES
  2
AcAdPartSplineEdgeRes
  3
AdGrefServices
 90
    32768
280
     0
281
     0
  0
CLASS
  1
AMDTEDGESTANDARDISO
  2
AmdtEdgeStdISO
  3
"Amdt_StdImp|Product Description: AutoCAD Mechanical 2004 DX|Company: Autodesk"
 90
    32768
280
     0
281
     0
  0
CLASS
  1
ACMSURFSTANDARDISO
  2
AcmSurfTextStdISO
  3
"Amdt_StdImp|Product Description: AutoCAD Mechanical 2004 DX|Company: Autodesk"
 90
        0
280
     0
281
     0
  0
CLASS
  1
ACMFCFSTANDARDISO
  2
AcmFCFStdISO
  3
"Amdt_StdImp|Product Description: AutoCAD Mechanical 2004 DX|Company: Autodesk"
 90
        0
280
     0
281
     0
  0
CLASS
  1
ACMWELDSTANDARDISO
  2
AcmWeldingStdISO
  3
"Amdt_StdImp|Product Description: AutoCAD Mechanical 2004 DX|Company: Autodesk"
 90
        0
280
     0
281
     0
  0
CLASS
  1
ACMIDSTANDARDISO
  2
AcmIdStdISO
  3
"Amdt_StdImp|Product Description: AutoCAD Mechanical 2004 DX|Company: Autodesk"
 90
        0
280
     0
281
     0
  0
CLASS
  1
ACMDATUMSTANDARDISO
  2
AcmDatumStdISO
  3
"Amdt_StdImp|Product Description: AutoCAD Mechanical 2004 DX|Company: Autodesk"
 90
        0
280
     0
281
     0
  0
CLASS
  1
ACMBOMSTANDARDISO
  2
AcmBOMStdISO
  3
"Amdt_StdImp|Product Description: AutoCAD Mechanical 2004 DX|Company: Autodesk"
 90
        0
280
     0
281
     0
  0
CLASS
  1
ACMDETAILSTANDARDISO
  2
AmdtDetailSymStdISO
  3
"Amdt_StdImp|Product Description: AutoCAD Mechanical 2004 DX|Company: Autodesk"
 90
        0
280
     0
281
     0
  0
CLASS
  1
ACMSECTIONSTANDARDISO
  2
AmdtSectionSymStdISO
  3
"Amdt_StdImp|Product Description: AutoCAD Mechanical 2004 DX|Company: Autodesk"
 90
        0
280
     0
281
     0
  0
CLASS
  1
ACMCENTERLINESTANDARDISO
  2
AmdtCenterLineStdISO
  3
"Amdt_StdImp|Product Description: AutoCAD Mechanical 2004 DX|Company: Autodesk"
 90
        0
280
     0
281
     0
  0
CLASS
  1
ACMNOTESTANDARDISO
  2
AmdtNoteStdISO
  3
"Amdt_StdImp|Product Description: AutoCAD Mechanical 2004 DX|Company: Autodesk"
 90
        0
280
     0
281
     0
  0
CLASS
  1
ACAMGHOLECHARTSTDISO
  2
AcAmgHoleChartStdISO
  3
ACMSYMBB_MODULE_NAME
 90
        0
280
     0
281
     0
  0
CLASS
  1
TABLESTYLE
  2
AcDbTableStyle
  3
ObjectDBX Classes
 90
     2047
280
     0
281
     0
  0
CLASS
  1
AMDTEDGESTANDARDISO13715
  2
AmdtEdgeStdISO13715
  3
"Amdt_StdImp|Product Description: AutoCAD Mechanical 2004 DX|Company: Autodesk"
 90
        0
280
     0
281
     0
  0
CLASS
  1
ACMTHREADLINESTANDARDISO
  2
AmdtThreadLineStdISO
  3
"Amdt_StdImp|Product Description: AutoCAD Mechanical 2004 DX|Company: Autodesk"
 90
        0
280
     0
281
     0
  0
CLASS
  1
AMDTNOTETEMPLATEDB
  2
AmdtNoteTemplateDB
  3
AMDT_STDIMP_MODULE_NAME
 90
        0
280
     0
281
     0
  0
CLASS
  1
ACMDIMBREAKPERSREACTOR
  2
AcmDimBreakPersReactor
  3
amgDimApp().moduleName()
 90
     1023
280
     0
281
     0
  0
CLASS
  1
SORTENTSTABLE
  2
AcDbSortentsTable
  3
ObjectDBX Classes
 90
        0
280
     0
281
     0
  0
ENDSEC
  0
SECTION
  2
TABLES
  0
TABLE
  2
VPORT
  5
1A
330
0
100
AcDbSymbolTable
 70
    10
  0
VPORT
  5
FEE8
330
1A
100
AcDbSymbolTableRecord
100
AcDbViewportTableRecord
  2
*Active
 70
     0
 10
0.0
 20
0.0
 11
1.0
 21
1.0
 12
21.20385104748266
 22
-4.460562219677171
 13
0.0
 23
0.0
 14
0.5
 24
0.5
 15
0.5
 25
0.5
 16
0.0
 26
0.0
 36
1.0
 17
1150.065303547613
 27
789.1273115488266
 37
0.0
 40
18.87919666721015
 41
0.9815602836879431
 42
50.0
 43
0.0
 44
0.0
 50
0.0
 51
0.0
 71
     0
 72
   100
 73
     1
 74
     1
 75
     0
 76
     1
 77
     0
 78
     0
281
     0
 65
     0
110
0.0
120
0.0
130
0.0
111
1.0
121
0.0
131
0.0
112
0.0
122
1.0
132
0.0
 79
     0
146
0.0
  0
ENDTAB
  0
TABLE
  2
LTYPE
  5
15
330
0
100
AcDbSymbolTable
 70
    18
  0
LTYPE
  5
16
330
15
100
AcDbSymbolTableRecord
100
AcDbLinetypeTableRecord
  2
BYBLOCK
 70
     0
  3

 72
    65
 73
     0
 40
0.0
  0
LTYPE
  5
17
330
15
100
AcDbSymbolTableRecord
100
AcDbLinetypeTableRecord
  2
BYLAYER
 70
     0
  3

 72
    65
 73
     0
 40
0.0
  0
LTYPE
  5
9
330
15
100
AcDbSymbolTableRecord
100
AcDbLinetypeTableRecord
  2
CONTINUOUS
 70
     0
  3
Solid line
 72
    65
 73
     0
 40
0.0
  0
LTYPE
  5
2B
330
15
100
AcDbSymbolTableRecord
100
AcDbLinetypeTableRecord
  2
CENTER
 70
     0
  3
____ _ ____ _ ____ _ ____ _ ____ _ ____ _ ____ 
 72
    65
 73
     4
 40
2.0
 49
1.25
 74
     0
 49
-0.25
 74
     0
 49
0.25
 74
     0
 49
-0.25
 74
     0
  0
LTYPE
  5
39
330
15
100
AcDbSymbolTableRecord
100
AcDbLinetypeTableRecord
  2
HIDDEN2
 70
     0
  3
Hidden (.5x) _ _ _ _ _ _ _ _ _ _ _ _ _ _ _ _ _
 72
    65
 73
     2
 40
4.762499999999999
 49
3.174999999999999
 74
     0
 49
-1.587499999999999
 74
     0
  0
LTYPE
  5
2303
330
15
100
AcDbSymbolTableRecord
100
AcDbLinetypeTableRecord
  2
DASHED
 70
     0
  3
__ __ __ __ __ __ __ __ __ __ __ __ __ __ __ __
 72
    65
 73
     2
 40
0.75
 49
0.5
 74
     0
 49
-0.25
 74
     0
  0
LTYPE
  5
242F
330
15
100
AcDbSymbolTableRecord
100
AcDbLinetypeTableRecord
  2
HIDDEN
 70
     0
  3
Hidden __ __ __ __ __ __ __ __ __ __ __ __ __ _
 72
    65
 73
     2
 40
9.524999999999998
 49
6.349999999999999
 74
     0
 49
-3.174999999999999
 74
     0
  0
LTYPE
  5
F7AF
330
15
100
AcDbSymbolTableRecord
100
AcDbLinetypeTableRecord
  2
AM_ISO02W050
 70
     0
  3
__ __ __ __ __ __ __ __ __ __ __ __ __ __ __
 72
    65
 73
     2
 40
7.5
 49
6.0
 74
     0
 49
-1.5
 74
     0
  0
LTYPE
  5
F7B0
330
15
100
AcDbSymbolTableRecord
100
AcDbLinetypeTableRecord
  2
AM_ISO08W050
 70
     0
  3
____ . ____ . ____ . ____ . ____ . ____ . ____
 72
    65
 73
     4
 40
18.0
 49
12.0
 74
     0
 49
-1.5
 74
     0
 49
3.0
 74
     0
 49
-1.5
 74
     0
  0
LTYPE
  5
F7B1
330
15
100
AcDbSymbolTableRecord
100
AcDbLinetypeTableRecord
  2
AM_ISO09W050
 70
     0
  3
_____ . . _____ . . _____ . . ____ .. ____
 72
    65
 73
     6
 40
22.5
 49
12.0
 74
     0
 49
-1.5
 74
     0
 49
3.0
 74
     0
 49
-1.5
 74
     0
 49
3.0
 74
     0
 49
-1.5
 74
     0
  0
LTYPE
  5
F7B2
330
15
100
AcDbSymbolTableRecord
100
AcDbLinetypeTableRecord
  2
Amconstr
 70
     0
  3
_______________________
 72
    65
 73
     2
 40
9999.0
 49
9999.0
 74
     0
 49
0.0
 74
     0
  0
LTYPE
  5
F7B3
330
15
100
AcDbSymbolTableRecord
100
AcDbLinetypeTableRecord
  2
AM_ISO08W050x2
 70
     0
  3
__ . __ . __ . __ . __ . __
 72
    65
 73
     4
 40
9.0
 49
6.0
 74
     0
 49
-0.75
 74
     0
 49
1.5
 74
     0
 49
-0.75
 74
     0
  0
LTYPE
  5
F7B4
330
15
100
AcDbSymbolTableRecord
100
AcDbLinetypeTableRecord
  2
AM_ISO02W050x2
 70
     0
  3
 _ _ _ _ _ _ _ _ _ _ _ _
 72
    65
 73
     2
 40
3.75
 49
3.0
 74
     0
 49
-0.75
 74
     0
  0
LTYPE
  5
F7B7
330
15
100
AcDbSymbolTableRecord
100
AcDbLinetypeTableRecord
  2
Amzigzag
 70
     0
  3
/\/-/\/-/\/-/\/-/\/-/\/
 72
    65
 73
     2
 40
11.0001
 49
0.0001
 74
     4
 75
   135
340
F7B6
 46
0.04
 50
0.0
 44
0.0
 45
0.0
 49
-11.0
 74
     0
  0
LTYPE
  5
F7C5
330
15
100
AcDbSymbolTableRecord
100
AcDbLinetypeTableRecord
  2
ACISOWELD
 70
     0
  3
_ _ _ _ _
 72
    65
 73
     2
 40
2.0
 49
2.0
 74
     0
 49
-1.0
 74
     0
  0
LTYPE
  5
F7C6
330
15
100
AcDbSymbolTableRecord
100
AcDbLinetypeTableRecord
  2
ACISOTGB
 70
     0
  3
__ . . __ . .
 72
    65
 73
     6
 40
9.0
 49
4.0
 74
     0
 49
-1.0
 74
     0
 49
1.0
 74
     0
 49
-1.0
 74
     0
 49
1.0
 74
     0
 49
-1.0
 74
     0
  0
LTYPE
  5
F7C7
330
15
100
AcDbSymbolTableRecord
100
AcDbLinetypeTableRecord
  2
ACISOTGL
 70
     0
  3
_ _ _ _ _
 72
    65
 73
     2
 40
3.0
 49
2.0
 74
     0
 49
-1.0
 74
     0
  0
LTYPE
  5
FA71
330
15
100
AcDbSymbolTableRecord
100
AcDbLinetypeTableRecord
  2
PHANTOM2
 70
     0
  3
Phantom (.5x) ___ _ _ ___ _ _ ___ _ _ ___ _ _
 72
    65
 73
     6
 40
31.75
 49
15.875
 74
     0
 49
-3.174999999999999
 74
     0
 49
3.174999999999999
 74
     0
 49
-3.174999999999999
 74
     0
 49
3.174999999999999
 74
     0
 49
-3.174999999999999
 74
     0
  0
ENDTAB
  0
TABLE
  2
LAYER
  5
11
102
{ACAD_XDICTIONARY
360
FB21
102
}
330
0
100
AcDbSymbolTable
 70
     9
  0
LAYER
  5
5
330
11
100
AcDbSymbolTableRecord
100
AcDbLayerTableRecord
  2
0
 70
     0
 62
     7
  6
CONTINUOUS
370
    -3
390
6
  0
LAYER
  5
8B
330
11
100
AcDbSymbolTableRecord
100
AcDbLayerTableRecord
  2
AM_VIS
 70
     0
 62
     7
  6
CONTINUOUS
370
    30
390
6
  0
LAYER
  5
2A
330
11
100
AcDbSymbolTableRecord
100
AcDbLayerTableRecord
  2
AM_7
 70
     0
 62
     1
  6
CENTER
370
    15
390
6
  0
LAYER
  5
38
330
11
100
AcDbSymbolTableRecord
100
AcDbLayerTableRecord
  2
AM_4
 70
     0
 62
     5
  6
CONTINUOUS
370
    30
390
6
  0
LAYER
  5
1F8
330
11
100
AcDbSymbolTableRecord
100
AcDbLayerTableRecord
  2
DIM
 70
     0
 62
     5
  6
CONTINUOUS
370
    -3
390
6
  0
LAYER
  5
1FA
330
11
100
AcDbSymbolTableRecord
100
AcDbLayerTableRecord
  2
Defpoints
 70
     0
 62
     7
  6
CONTINUOUS
290
     0
370
    -3
390
6
  0
LAYER
  5
1FDE
330
11
100
AcDbSymbolTableRecord
100
AcDbLayerTableRecord
  2
LOGO
 70
     0
 62
     7
  6
CONTINUOUS
370
    -3
390
6
  0
LAYER
  5
2431
330
11
100
AcDbSymbolTableRecord
100
AcDbLayerTableRecord
  2
AM_HID
 70
     0
 62
     5
  6
HIDDEN
370
    50
390
6
  0
LAYER
  5
FE49
330
11
100
AcDbSymbolTableRecord
100
AcDbLayerTableRecord
  2
SL
 70
     0
 62
     2
  6
CONTINUOUS
370
    -3
390
6
1001
AcAecLayerStandard
1000

1000

  0
ENDTAB
  0
TABLE
  2
STYLE
  5
12
330
0
100
AcDbSymbolTable
 70
     6
  0
STYLE
  5
13
330
12
100
AcDbSymbolTableRecord
100
AcDbTextStyleTableRecord
  2
STANDARD
 70
     0
 40
0.0
 41
1.0
 50
0.0
 71
     0
 42
0.2
  3
txt
  4

  0
STYLE
  5
21
330
12
100
AcDbSymbolTableRecord
100
AcDbTextStyleTableRecord
  2
DAYUS
 70
     0
 40
0.0
 41
1.0
 50
0.0
 71
     0
 42
3.0
  3
simplex.shx
  4
dayus.shx
  0
STYLE
  5
208
330
12
100
AcDbSymbolTableRecord
100
AcDbTextStyleTableRecord
  2
CHINESET
 70
     0
 40
0.0
 41
1.0
 50
0.0
 71
     0
 42
0.5
  3
simplex.shx
  4
chineset.shx
  0
STYLE
  5
F7B6
330
12
100
AcDbSymbolTableRecord
100
AcDbTextStyleTableRecord
  2

 70
     1
 40
0.0
 41
1.0
 50
0.0
 71
     0
 42
0.5
  3
ltypeshp.shx
  4

  0
STYLE
  5
F7B8
330
12
100
AcDbSymbolTableRecord
100
AcDbTextStyleTableRecord
  2
ACISOTS
 70
     0
 40
1.0
 41
1.0
 50
0.0
 71
     0
 42
0.5
  3
isocp.shx
  4
chineset.shx
  0
STYLE
  5
F7C4
330
12
100
AcDbSymbolTableRecord
100
AcDbTextStyleTableRecord
  2
ACISOGDT
 70
     0
 40
0.0
 41
1.0
 50
0.0
 71
     0
 42
0.5
  3
amgdt.shx
  4

  0
ENDTAB
  0
TABLE
  2
VIEW
  5
18
330
0
100
AcDbSymbolTable
 70
     0
  0
ENDTAB
  0
TABLE
  2
UCS
  5
19
330
0
100
AcDbSymbolTable
 70
     0
  0
ENDTAB
  0
TABLE
  2
APPID
  5
1C
330
0
100
AcDbSymbolTable
 70
    23
  0
APPID
  5
1D
330
1C
100
AcDbSymbolTableRecord
100
AcDbRegAppTableRecord
  2
ACAD
 70
     0
  0
APPID
  5
F791
330
1C
100
AcDbSymbolTableRecord
100
AcDbRegAppTableRecord
  2
MCAD_NO_VIS
 70
     0
  0
APPID
  5
F792
330
1C
100
AcDbSymbolTableRecord
100
AcDbRegAppTableRecord
  2
ACAD_TEMP_GRAPHIC
 70
     0
  0
APPID
  5
F7A3
330
1C
100
AcDbSymbolTableRecord
100
AcDbRegAppTableRecord
  2
ACATTRIBSERVICES
 70
     0
  0
APPID
  5
F7D8
330
1C
100
AcDbSymbolTableRecord
100
AcDbRegAppTableRecord
  2
GENIUS_GENSCREG_15
 70
     0
  0
APPID
  5
F7D9
330
1C
100
AcDbSymbolTableRecord
100
AcDbRegAppTableRecord
  2
GENIUS_GENOBJ-N-SDF_13
 70
     0
  0
APPID
  5
F7DA
330
1C
100
AcDbSymbolTableRecord
100
AcDbRegAppTableRecord
  2
GENIUS_GENODEF_13
 70
     0
  0
APPID
  5
FA3E
330
1C
100
AcDbSymbolTableRecord
100
AcDbRegAppTableRecord
  2
GENIUS_GENDIM_13
 70
     0
  0
APPID
  5
FA3F
330
1C
100
AcDbSymbolTableRecord
100
AcDbRegAppTableRecord
  2
GENIUS_GENDTOL_13
 70
     0
  0
APPID
  5
FA40
330
1C
100
AcDbSymbolTableRecord
100
AcDbRegAppTableRecord
  2
GENIUS_GE3DTOL_13
 70
     0
  0
APPID
  5
FA73
330
1C
100
AcDbSymbolTableRecord
100
AcDbRegAppTableRecord
  2
AD_DRAW
 70
     0
  0
APPID
  5
FABF
330
1C
100
AcDbSymbolTableRecord
100
AcDbRegAppTableRecord
  2
ASURF_PCURVE_APPNAME
 70
     0
  0
APPID
  5
FAC4
330
1C
100
AcDbSymbolTableRecord
100
AcDbRegAppTableRecord
  2
AMG_3D2D_5.0
 70
     0
  0
APPID
  5
FAF3
330
1C
100
AcDbSymbolTableRecord
100
AcDbRegAppTableRecord
  2
DESIGNERASSEMBLIES
 70
     0
  0
APPID
  5
FAF9
330
1C
100
AcDbSymbolTableRecord
100
AcDbRegAppTableRecord
  2
ACADM_DIM_EDIT
 70
     0
  0
APPID
  5
FAFA
330
1C
100
AcDbSymbolTableRecord
100
AcDbRegAppTableRecord
  2
AMDT_DM_ADJ
 70
     0
  0
APPID
  5
FB1B
330
1C
100
AcDbSymbolTableRecord
100
AcDbRegAppTableRecord
  2
GENIUS_GENOENT_13
 70
     0
  0
APPID
  5
FB1C
330
1C
100
AcDbSymbolTableRecord
100
AcDbRegAppTableRecord
  2
GENIUS_GENOBJ-N-CRS_13
 70
     0
  0
APPID
  5
FB1D
330
1C
100
AcDbSymbolTableRecord
100
AcDbRegAppTableRecord
  2
GENIUS_GENOLIS_13
 70
     0
  0
APPID
  5
FB1E
330
1C
100
AcDbSymbolTableRecord
100
AcDbRegAppTableRecord
  2
GENIUS_GENOREF_13
 70
     0
  0
APPID
  5
FB1F
330
1C
100
AcDbSymbolTableRecord
100
AcDbRegAppTableRecord
  2
GENIUS_GENREC_14
 70
     0
  0
APPID
  5
FB20
330
1C
100
AcDbSymbolTableRecord
100
AcDbRegAppTableRecord
  2
GENIUS_GENOBJ-N-REC_13
 70
     0
  0
APPID
  5
FE4A
330
1C
100
AcDbSymbolTableRecord
100
AcDbRegAppTableRecord
  2
AcAecLayerStandard
 70
     0
  0
ENDTAB
  0
TABLE
  2
DIMSTYLE
  5
1E
330
0
100
AcDbSymbolTable
 70
     8
100
AcDbDimStyleTable
 71
     0
  0
DIMSTYLE
105
22
102
{ACAD_REACTORS
330
E39F
330
E3AC
330
E3B9
330
E3C6
330
E3D3
330
E3E0
330
E3EE
330
E3FB
330
E408
330
E416
330
E431
330
E43E
330
E462
330
E4E1
330
E4FC
330
E516
330
E543
330
E550
330
E55D
330
E56A
330
E5B9
330
E5BB
330
E5BD
330
E5BF
330
E5C1
330
E5C3
102
}
330
1E
100
AcDbSymbolTableRecord
100
AcDbDimStyleTableRecord
  2
STANDARD
 70
     0
 41
0.12
 42
0.06
 43
0.3
 44
0.08
 47
0.01
 48
0.01
 73
     0
 74
     0
 77
     3
 78
    10
 79
     2
140
0.12
141
0.0
146
0.6
147
0.04
170
     1
172
     1
176
   256
177
   256
178
   256
271
     2
272
     2
284
     8
285
    10
340
21
371
    -1
372
    -1
  0
DIMSTYLE
105
F7CB
330
1E
100
AcDbSymbolTableRecord
100
AcDbDimStyleTableRecord
  2
AM_ISO
 70
     0
  4
"
 41
2.5
 42
1.0
 43
10.0
 44
1.0
 47
0.1
 48
0.1
 73
     0
 74
     0
 77
     1
 78
     8
 79
     2
140
3.5
141
0.0
143
0.0393701
146
0.71
147
1.5
172
     1
176
   256
177
   256
178
     2
271
     2
272
     3
274
     4
283
     0
284
     8
340
13
371
    -1
372
    -1
  0
DIMSTYLE
105
F7CC
330
1E
100
AcDbSymbolTableRecord
100
AcDbDimStyleTableRecord
  2
AM_ISO$3
 70
     0
  4
"
 41
2.5
 42
1.0
 43
10.0
 44
1.0
 47
0.1
 48
0.1
 73
     0
 77
     1
 78
     8
 79
     2
140
3.5
141
0.0
143
0.0393701
146
0.71
147
1.5
176
   256
177
   256
178
     2
271
     2
272
     3
274
     4
283
     0
284
     8
288
     1
289
     0
340
13
371
    -1
372
    -1
  0
DIMSTYLE
105
F7CD
330
1E
100
AcDbSymbolTableRecord
100
AcDbDimStyleTableRecord
  2
AM_ISO$4
 70
     0
  4
"
 41
2.5
 42
1.0
 43
10.0
 44
1.0
 47
0.1
 48
0.1
 73
     0
 77
     1
 78
     8
 79
     2
140
3.5
141
0.0
143
0.0393701
146
0.71
147
1.5
176
   256
177
   256
178
     2
271
     2
272
     3
274
     4
283
     0
284
     8
288
     1
289
     0
340
13
371
    -1
372
    -1
  0
DIMSTYLE
105
F7CE
330
1E
100
AcDbSymbolTableRecord
100
AcDbDimStyleTableRecord
  2
AM_ISO$6
 70
     0
  4
"
 41
2.5
 42
1.0
 43
10.0
 44
1.0
 47
0.1
 48
0.1
 73
     0
 74
     0
 78
     8
 79
     2
140
3.5
141
0.0
143
0.0393701
146
0.71
147
1.5
172
     1
176
   256
177
   256
178
     2
271
     2
272
     3
274
     4
283
     0
284
     8
340
13
371
    -1
372
    -1
  0
DIMSTYLE
105
F7CF
330
1E
100
AcDbSymbolTableRecord
100
AcDbDimStyleTableRecord
  2
AM_ISO$7
 70
     0
  4
"
 41
2.5
 42
1.0
 43
10.0
 44
1.0
 47
0.1
 48
0.1
 73
     0
 74
     0
 77
     1
 78
     8
 79
     2
140
5.0
141
0.0
143
0.0393701
146
0.71
147
1.5
172
     1
176
   256
177
   256
178
     2
271
     2
272
     3
274
     4
283
     0
284
     8
340
13
371
    -1
372
    -1
  0
DIMSTYLE
105
F7D0
330
1E
100
AcDbSymbolTableRecord
100
AcDbDimStyleTableRecord
  2
AM_ISO$SF
 70
     0
  4
"
 41
2.5
 42
1.0
 43
10.0
 44
1.0
 47
0.1
 48
0.1
 73
     0
 74
     0
 75
     1
 76
     1
 77
     1
 78
     8
 79
     2
140
3.5
141
0.0
143
0.0393701
146
0.71
147
1.5
172
     1
176
   256
177
   256
178
     2
271
     2
272
     3
274
     4
283
     0
284
     8
340
13
371
    -1
372
    -1
  0
DIMSTYLE
105
F7D5
330
1E
100
AcDbSymbolTableRecord
100
AcDbDimStyleTableRecord
  2
AM_ISO$SH
 70
     0
  4
"
 41
2.5
 42
1.0
 43
10.0
 44
1.0
 47
0.1
 48
0.1
 73
     0
 74
     0
 75
     1
 76
     1
 77
     1
 78
     8
 79
     2
140
3.5
141
0.0
143
0.0393701
144
2.0
146
0.71
147
1.5
172
     1
173
     1
176
   256
177
   256
178
     2
271
     2
272
     3
274
     4
283
     0
284
     8
340
13
341
F7D1
343
F7D1
371
    -1
372
    -1
  0
ENDTAB
  0
TABLE
  2
BLOCK_RECORD
  5
1
330
0
100
AcDbSymbolTable
 70
    27
  0
BLOCK_RECORD
  5
2
102
{ACAD_XDICTIONARY
360
3
102
}
330
1
100
AcDbSymbolTableRecord
100
AcDbBlockTableRecord
  2
*MODEL_SPACE
340
B
  0
BLOCK_RECORD
  5
BBB
102
{ACAD_XDICTIONARY
360
F744
102
}
330
1
100
AcDbSymbolTableRecord
100
AcDbBlockTableRecord
  2
*Paper_Space
340
BBC
  0
BLOCK_RECORD
  5
D
102
{ACAD_XDICTIONARY
360
F746
102
}
330
1
100
AcDbSymbolTableRecord
100
AcDbBlockTableRecord
  2
*Paper_Space0
340
10
  0
BLOCK_RECORD
  5
E3A0
330
1
100
AcDbSymbolTableRecord
100
AcDbBlockTableRecord
  2
*D1
340
0
  0
BLOCK_RECORD
  5
E3AD
330
1
100
AcDbSymbolTableRecord
100
AcDbBlockTableRecord
  2
*D2
340
0
  0
BLOCK_RECORD
  5
E3BA
330
1
100
AcDbSymbolTableRecord
100
AcDbBlockTableRecord
  2
*D3
340
0
  0
BLOCK_RECORD
  5
E3C7
330
1
100
AcDbSymbolTableRecord
100
AcDbBlockTableRecord
  2
*D4
340
0
  0
BLOCK_RECORD
  5
E3D4
330
1
100
AcDbSymbolTableRecord
100
AcDbBlockTableRecord
  2
*D5
340
0
  0
BLOCK_RECORD
  5
E3E1
330
1
100
AcDbSymbolTableRecord
100
AcDbBlockTableRecord
  2
*D6
340
0
  0
BLOCK_RECORD
  5
E3EF
330
1
100
AcDbSymbolTableRecord
100
AcDbBlockTableRecord
  2
*D7
340
0
  0
BLOCK_RECORD
  5
E3FC
330
1
100
AcDbSymbolTableRecord
100
AcDbBlockTableRecord
  2
*D8
340
0
  0
BLOCK_RECORD
  5
E409
330
1
100
AcDbSymbolTableRecord
100
AcDbBlockTableRecord
  2
*D9
340
0
  0
BLOCK_RECORD
  5
E417
330
1
100
AcDbSymbolTableRecord
100
AcDbBlockTableRecord
  2
*D10
340
0
  0
BLOCK_RECORD
  5
E432
330
1
100
AcDbSymbolTableRecord
100
AcDbBlockTableRecord
  2
*D11
340
0
  0
BLOCK_RECORD
  5
E43F
330
1
100
AcDbSymbolTableRecord
100
AcDbBlockTableRecord
  2
*D12
340
0
  0
BLOCK_RECORD
  5
E463
330
1
100
AcDbSymbolTableRecord
100
AcDbBlockTableRecord
  2
*D13
340
0
  0
BLOCK_RECORD
  5
E4E2
330
1
100
AcDbSymbolTableRecord
100
AcDbBlockTableRecord
  2
*D14
340
0
  0
BLOCK_RECORD
  5
E4FD
330
1
100
AcDbSymbolTableRecord
100
AcDbBlockTableRecord
  2
*D15
340
0
  0
BLOCK_RECORD
  5
E517
330
1
100
AcDbSymbolTableRecord
100
AcDbBlockTableRecord
  2
*D16
340
0
  0
BLOCK_RECORD
  5
E544
330
1
100
AcDbSymbolTableRecord
100
AcDbBlockTableRecord
  2
*D17
340
0
  0
BLOCK_RECORD
  5
E551
330
1
100
AcDbSymbolTableRecord
100
AcDbBlockTableRecord
  2
*D18
340
0
  0
BLOCK_RECORD
  5
E55E
330
1
100
AcDbSymbolTableRecord
100
AcDbBlockTableRecord
  2
*D19
340
0
  0
BLOCK_RECORD
  5
E56B
330
1
100
AcDbSymbolTableRecord
100
AcDbBlockTableRecord
  2
*D20
340
0
  0
BLOCK_RECORD
  5
F7D1
330
1
100
AcDbSymbolTableRecord
100
AcDbBlockTableRecord
  2
GENAXEH
340
0
  0
BLOCK_RECORD
  5
FE39
102
{ACAD_XDICTIONARY
360
FE3A
102
}
330
1
100
AcDbSymbolTableRecord
100
AcDbBlockTableRecord
  2
A$C0FBC3824
340
0
102
{BLKREFS
331
FE4D
331
FE55
102
}
  0
BLOCK_RECORD
  5
FE41
102
{ACAD_XDICTIONARY
360
FE42
102
}
330
1
100
AcDbSymbolTableRecord
100
AcDbBlockTableRecord
  2
A$C7A150A0F
340
0
102
{BLKREFS
331
FE4E
331
FE56
102
}
  0
ENDTAB
  0
ENDSEC
  0
SECTION
  2
BLOCKS
  0
BLOCK
  5
4
330
2
100
AcDbEntity
  8
0
100
AcDbBlockBegin
  2
*MODEL_SPACE
 70
     0
 10
0.0
 20
0.0
 30
0.0
  3
*MODEL_SPACE
  1

  0
ENDBLK
  5
A
330
2
100
AcDbEntity
  8
0
100
AcDbBlockEnd
  0
BLOCK
  5
BBD
330
BBB
100
AcDbEntity
 67
     1
  8
0
100
AcDbBlockBegin
  2
*Paper_Space
 70
     0
 10
0.0
 20
0.0
 30
0.0
  3
*Paper_Space
  1

  0
ENDBLK
  5
BBE
330
BBB
100
AcDbEntity
 67
     1
  8
0
100
AcDbBlockEnd
  0
BLOCK
  5
E
330
D
100
AcDbEntity
  8
0
100
AcDbBlockBegin
  2
*Paper_Space0
 70
     0
 10
0.0
 20
0.0
 30
0.0
  3
*Paper_Space0
  1

  0
VIEWPORT
  5
640
102
{ACAD_XDICTIONARY
360
FEEF
102
}
330
D
100
AcDbEntity
  8
0
100
AcDbViewport
 10
184.9324014823572
 20
101.2295806407929
 30
0.0
 40
377.3789631209644
 41
209.9733276367188
 69
     0
 12
184.9324014823572
 22
101.2295806407929
 13
0.0
 23
0.0
 14
0.5
 24
0.5
 15
0.5
 25
0.5
 16
0.0
 26
0.0
 36
1.0
 17
0.0
 27
0.0
 37
0.0
 42
50.0
 43
0.0
 44
0.0
 45
209.9733276367188
 50
0.0
 51
0.0
 72
   100
 90
    32800
  1

281
     0
 71
     1
 74
     0
110
0.0
120
0.0
130
0.0
111
1.0
121
0.0
131
0.0
112
0.0
122
1.0
132
0.0
 79
     0
146
0.0
1001
GENIUS_GENODEF_13
1002
{
1000
HIER
1070
     0
1002
}
1002
{
1000
MANEDIT
1070
     0
1002
}
1002
{
1000
NOSEL
1070
     0
1002
}
1002
{
1000
BEHIND
1070
     0
1002
}
1002
{
1000
OTHER
1070
     0
1002
}
1002
{
1000
REACTOR
1002
}
1001
GENIUS_GENOBJ-N-SDF_13
1002
{
1000
OWNER
1000
GEN
1002
}
1001
GENIUS_GENSCREG_15
1000
PF
1040
1.0
1000
DF
1040
1.0
1000
MIN
1011
-3.757080078125
1021
-3.757083177566528
1031
0.0
1000
MAX
1011
373.6218830428394
1021
206.2162444591523
1031
0.0
1000
FLAGS
1070
     2
  0
ENDBLK
  5
F
330
D
100
AcDbEntity
  8
0
100
AcDbBlockEnd
  0
BLOCK
  5
E3AA
330
E3A0
100
AcDbEntity
  8
0
 48
0.5
100
AcDbBlockBegin
  2
*D1
 70
     1
 10
0.0
 20
0.0
 30
0.0
  3
*D1
  1

  0
LINE
  5
FC5D
330
E3A0
100
AcDbEntity
  8
DIM
 48
0.5
100
AcDbLine
 10
1166.002199664124
 20
783.4276007712272
 30
0.0
 11
1166.002199664124
 21
783.1123707445762
 31
0.0
  0
LINE
  5
FC5E
330
E3A0
100
AcDbEntity
  8
DIM
 48
0.5
100
AcDbLine
 10
1167.502199664124
 20
783.4276007712272
 30
0.0
 11
1167.502199664124
 21
783.1123707445762
 31
0.0
  0
LINE
  5
FC5F
330
E3A0
100
AcDbEntity
  8
DIM
 48
0.5
100
AcDbLine
 10
1166.122199664124
 20
783.1923707445762
 30
0.0
 11
1167.382199664124
 21
783.1923707445762
 31
0.0
  0
SOLID
  5
FC60
330
E3A0
100
AcDbEntity
  8
DIM
 48
0.5
100
AcDbTrace
 10
1166.122199664124
 20
783.2123707445762
 30
0.0
 11
1166.122199664124
 21
783.1723707445762
 31
0.0
 12
1166.002199664124
 22
783.1923707445762
 32
0.0
 13
1166.002199664124
 23
783.1923707445762
 33
0.0
  0
SOLID
  5
FC61
330
E3A0
100
AcDbEntity
  8
DIM
 48
0.5
100
AcDbTrace
 10
1167.382199664124
 20
783.2123707445762
 30
0.0
 11
1167.382199664124
 21
783.1723707445762
 31
0.0
 12
1167.502199664124
 22
783.1923707445762
 32
0.0
 13
1167.502199664124
 23
783.1923707445762
 33
0.0
  0
MTEXT
  5
FC62
330
E3A0
100
AcDbEntity
  8
DIM
 48
0.5
100
AcDbMText
 10
1166.752199664124
 20
783.3237993160048
 30
0.0
 40
0.12
 41
0.0
 71
     5
 72
     1
  1
\A1;1.5 [38.1]
  7
DAYUS
 73
     1
 44
1.0
1001
ACAD
1000
MTEXTBEGIN
1070
    73
1070
     1
1070
    44
1040
1.0
1070
    74
1070
     0
1000
MTEXTEND
  0
POINT
  5
FC63
330
E3A0
100
AcDbEntity
  8
Defpoints
 62
     0
 48
0.5
100
AcDbPoint
 10
1166.002199664124
 20
783.4876007712272
 30
0.0
  0
POINT
  5
FC64
330
E3A0
100
AcDbEntity
  8
Defpoints
 62
     0
 48
0.5
100
AcDbPoint
 10
1167.502199664124
 20
783.4876007712272
 30
0.0
  0
POINT
  5
FC65
330
E3A0
100
AcDbEntity
  8
Defpoints
 62
     0
 48
0.5
100
AcDbPoint
 10
1167.502199664124
 20
783.1923707445762
 30
0.0
  0
ENDBLK
  5
E3AB
330
E3A0
100
AcDbEntity
  8
0
 48
0.5
100
AcDbBlockEnd
  0
BLOCK
  5
E3B7
330
E3AD
100
AcDbEntity
  8
0
 48
0.5
100
AcDbBlockBegin
  2
*D2
 70
     1
 10
0.0
 20
0.0
 30
0.0
  3
*D2
  1

  0
LINE
  5
FC66
330
E3AD
100
AcDbEntity
  8
DIM
 48
0.5
100
AcDbLine
 10
1165.372199664124
 20
783.3701598263453
 30
0.0
 11
1165.372199664124
 21
782.7863781787194
 31
0.0
  0
LINE
  5
FC67
330
E3AD
100
AcDbEntity
  8
DIM
 48
0.5
100
AcDbLine
 10
1168.132199664124
 20
783.3701598263453
 30
0.0
 11
1168.132199664124
 21
782.7863781787194
 31
0.0
  0
LINE
  5
FC68
330
E3AD
100
AcDbEntity
  8
DIM
 48
0.5
100
AcDbLine
 10
1165.492199664124
 20
782.8663781787195
 30
0.0
 11
1168.012199664124
 21
782.8663781787195
 31
0.0
  0
SOLID
  5
FC69
330
E3AD
100
AcDbEntity
  8
DIM
 48
0.5
100
AcDbTrace
 10
1165.492199664124
 20
782.8863781787195
 30
0.0
 11
1165.492199664124
 21
782.8463781787195
 31
0.0
 12
1165.372199664124
 22
782.8663781787195
 32
0.0
 13
1165.372199664124
 23
782.8663781787195
 33
0.0
  0
SOLID
  5
FC6A
330
E3AD
100
AcDbEntity
  8
DIM
 48
0.5
100
AcDbTrace
 10
1168.012199664124
 20
782.8863781787195
 30
0.0
 11
1168.012199664124
 21
782.8463781787195
 31
0.0
 12
1168.132199664124
 22
782.8663781787195
 32
0.0
 13
1168.132199664124
 23
782.8663781787195
 33
0.0
  0
MTEXT
  5
FC6B
330
E3AD
100
AcDbEntity
  8
DIM
 48
0.5
100
AcDbMText
 10
1166.752199664124
 20
782.9978067501481
 30
0.0
 40
0.12
 41
0.0
 71
     5
 72
     1
  1
\A1;2.76 [70.1]
  7
DAYUS
 73
     1
 44
1.0
1001
ACAD
1000
MTEXTBEGIN
1070
    73
1070
     1
1070
    44
1040
1.0
1070
    74
1070
     0
1000
MTEXTEND
  0
POINT
  5
FC6C
330
E3AD
100
AcDbEntity
  8
Defpoints
 62
     0
 48
0.5
100
AcDbPoint
 10
1165.372199664124
 20
783.4301598263452
 30
0.0
  0
POINT
  5
FC6D
330
E3AD
100
AcDbEntity
  8
Defpoints
 62
     0
 48
0.5
100
AcDbPoint
 10
1168.132199664124
 20
783.4301598263452
 30
0.0
  0
POINT
  5
FC6E
330
E3AD
100
AcDbEntity
  8
Defpoints
 62
     0
 48
0.5
100
AcDbPoint
 10
1168.132199664124
 20
782.8663781787195
 30
0.0
  0
ENDBLK
  5
E3B8
330
E3AD
100
AcDbEntity
  8
0
 48
0.5
100
AcDbBlockEnd
  0
BLOCK
  5
E3C4
330
E3BA
100
AcDbEntity
  8
0
 48
0.5
100
AcDbBlockBegin
  2
*D3
 70
     1
 10
0.0
 20
0.0
 30
0.0
  3
*D3
  1

  0
LINE
  5
FC6F
330
E3BA
100
AcDbEntity
  8
DIM
 48
0.5
100
AcDbLine
 10
1164.87737420148
 20
783.7427239457686
 30
0.0
 11
1164.87737420148
 21
782.3887055821459
 31
0.0
  0
LINE
  5
FC70
330
E3BA
100
AcDbEntity
  8
DIM
 48
0.5
100
AcDbLine
 10
1168.627025126768
 20
783.7427239457686
 30
0.0
 11
1168.627025126768
 21
782.3887055821459
 31
0.0
  0
LINE
  5
FC71
330
E3BA
100
AcDbEntity
  8
DIM
 48
0.5
100
AcDbLine
 10
1164.99737420148
 20
782.4687055821459
 30
0.0
 11
1168.507025126768
 21
782.4687055821459
 31
0.0
  0
SOLID
  5
FC72
330
E3BA
100
AcDbEntity
  8
DIM
 48
0.5
100
AcDbTrace
 10
1164.99737420148
 20
782.4887055821459
 30
0.0
 11
1164.99737420148
 21
782.4487055821459
 31
0.0
 12
1164.87737420148
 22
782.4687055821459
 32
0.0
 13
1164.87737420148
 23
782.4687055821459
 33
0.0
  0
SOLID
  5
FC73
330
E3BA
100
AcDbEntity
  8
DIM
 48
0.5
100
AcDbTrace
 10
1168.507025126768
 20
782.4887055821459
 30
0.0
 11
1168.507025126768
 21
782.4487055821459
 31
0.0
 12
1168.627025126768
 22
782.4687055821459
 32
0.0
 13
1168.627025126768
 23
782.4687055821459
 33
0.0
  0
MTEXT
  5
FC74
330
E3BA
100
AcDbEntity
  8
DIM
 48
0.5
100
AcDbMText
 10
1166.752199664124
 20
782.6001341535746
 30
0.0
 40
0.12
 41
0.0
 71
     5
 72
     1
  1
\A1;3.75 [95.24]
  7
DAYUS
 73
     1
 44
1.0
1001
ACAD
1000
MTEXTBEGIN
1070
    73
1070
     1
1070
    44
1040
1.0
1070
    74
1070
     0
1000
MTEXTEND
  0
POINT
  5
FC75
330
E3BA
100
AcDbEntity
  8
Defpoints
 62
     0
 48
0.5
100
AcDbPoint
 10
1164.87737420148
 20
783.8027239457685
 30
0.0
  0
POINT
  5
FC76
330
E3BA
100
AcDbEntity
  8
Defpoints
 62
     0
 48
0.5
100
AcDbPoint
 10
1168.627025126768
 20
783.8027239457685
 30
0.0
  0
POINT
  5
FC77
330
E3BA
100
AcDbEntity
  8
Defpoints
 62
     0
 48
0.5
100
AcDbPoint
 10
1168.627025126768
 20
782.4687055821459
 30
0.0
  0
ENDBLK
  5
E3C5
330
E3BA
100
AcDbEntity
  8
0
 48
0.5
100
AcDbBlockEnd
  0
BLOCK
  5
E3D1
330
E3C7
100
AcDbEntity
  8
0
 48
0.5
100
AcDbBlockBegin
  2
*D4
 70
     1
 10
0.0
 20
0.0
 30
0.0
  3
*D4
  1

  0
LINE
  5
FC78
330
E3C7
100
AcDbEntity
  8
DIM
 48
0.5
100
AcDbLine
 10
1165.046539465095
 20
783.5176007712271
 30
0.0
 11
1164.435482273882
 21
783.5176007712271
 31
0.0
  0
LINE
  5
FC79
330
E3C7
100
AcDbEntity
  8
DIM
 48
0.5
100
AcDbLine
 10
1164.753958844818
 20
785.3926007712272
 30
0.0
 11
1164.435482273882
 21
785.3926007712272
 31
0.0
  0
LINE
  5
FC7A
330
E3C7
100
AcDbEntity
  8
DIM
 48
0.5
100
AcDbLine
 10
1164.515482273881
 20
783.6376007712271
 30
0.0
 11
1164.515482273881
 21
785.2726007712272
 31
0.0
  0
SOLID
  5
FC7B
330
E3C7
100
AcDbEntity
  8
DIM
 48
0.5
100
AcDbTrace
 10
1164.495482273881
 20
783.6376007712271
 30
0.0
 11
1164.535482273882
 21
783.6376007712271
 31
0.0
 12
1164.515482273881
 22
783.5176007712271
 32
0.0
 13
1164.515482273881
 23
783.5176007712271
 33
0.0
  0
SOLID
  5
FC7C
330
E3C7
100
AcDbEntity
  8
DIM
 48
0.5
100
AcDbTrace
 10
1164.495482273881
 20
785.2726007712272
 30
0.0
 11
1164.535482273882
 21
785.2726007712272
 31
0.0
 12
1164.515482273881
 22
785.3926007712272
 32
0.0
 13
1164.515482273881
 23
785.3926007712272
 33
0.0
  0
MTEXT
  5
FC7D
330
E3C7
100
AcDbEntity
  8
DIM
 48
0.5
100
AcDbMText
 10
1164.384053702453
 20
784.4551007712271
 30
0.0
 40
0.12
 41
0.0
 71
     5
 72
     1
  1
\A1;1.88 [47.63]
  7
DAYUS
 11
0.0000000000000001
 21
1.0
 31
0.0
 73
     1
 44
1.0
1001
ACAD
1000
MTEXTBEGIN
1070
    73
1070
     1
1070
    44
1040
1.0
1070
    74
1070
     0
1000
MTEXTEND
  0
POINT
  5
FC7E
330
E3C7
100
AcDbEntity
  8
Defpoints
 62
     0
 48
0.5
100
AcDbPoint
 10
1165.106539465095
 20
783.5176007712271
 30
0.0
  0
POINT
  5
FC7F
330
E3C7
100
AcDbEntity
  8
Defpoints
 62
     0
 48
0.5
100
AcDbPoint
 10
1164.813958844818
 20
785.3926007712272
 30
0.0
  0
POINT
  5
FC80
330
E3C7
100
AcDbEntity
  8
Defpoints
 62
     0
 48
0.5
100
AcDbPoint
 10
1164.515482273881
 20
785.3926007712272
 30
0.0
  0
ENDBLK
  5
E3D2
330
E3C7
100
AcDbEntity
  8
0
 48
0.5
100
AcDbBlockEnd
  0
BLOCK
  5
E3DE
330
E3D4
100
AcDbEntity
  8
0
 48
0.5
100
AcDbBlockBegin
  2
*D5
 70
     1
 10
0.0
 20
0.0
 30
0.0
  3
*D5
  1

  0
LINE
  5
FC81
330
E3D4
100
AcDbEntity
  8
DIM
 48
0.5
100
AcDbLine
 10
1165.046539465095
 20
783.5176007712271
 30
0.0
 11
1163.942369525545
 21
783.5176007712271
 31
0.0
  0
LINE
  5
FC82
330
E3D4
100
AcDbEntity
  8
DIM
 48
0.5
100
AcDbLine
 10
1165.132322838665
 20
787.2674262338713
 30
0.0
 11
1163.942369525545
 21
787.2674262338713
 31
0.0
  0
LINE
  5
FC83
330
E3D4
100
AcDbEntity
  8
DIM
 48
0.5
100
AcDbLine
 10
1164.022369525545
 20
783.6376007712271
 30
0.0
 11
1164.022369525545
 21
787.1474262338713
 31
0.0
  0
SOLID
  5
FC84
330
E3D4
100
AcDbEntity
  8
DIM
 48
0.5
100
AcDbTrace
 10
1164.002369525545
 20
783.6376007712271
 30
0.0
 11
1164.042369525545
 21
783.6376007712271
 31
0.0
 12
1164.022369525545
 22
783.5176007712271
 32
0.0
 13
1164.022369525545
 23
783.5176007712271
 33
0.0
  0
SOLID
  5
FC85
330
E3D4
100
AcDbEntity
  8
DIM
 48
0.5
100
AcDbTrace
 10
1164.002369525545
 20
787.1474262338713
 30
0.0
 11
1164.042369525545
 21
787.1474262338713
 31
0.0
 12
1164.022369525545
 22
787.2674262338713
 32
0.0
 13
1164.022369525545
 23
787.2674262338713
 33
0.0
  0
MTEXT
  5
FC86
330
E3D4
100
AcDbEntity
  8
DIM
 48
0.5
100
AcDbMText
 10
1163.890940954117
 20
785.3925135025494
 30
0.0
 40
0.12
 41
0.0
 71
     5
 72
     1
  1
\A1;3.75 [95.25]
  7
DAYUS
 11
0.0000000000000001
 21
1.0
 31
0.0
 73
     1
 44
1.0
1001
ACAD
1000
MTEXTBEGIN
1070
    73
1070
     1
1070
    44
1040
1.0
1070
    74
1070
     0
1000
MTEXTEND
  0
POINT
  5
FC87
330
E3D4
100
AcDbEntity
  8
Defpoints
 62
     0
 48
0.5
100
AcDbPoint
 10
1165.106539465095
 20
783.5176007712271
 30
0.0
  0
POINT
  5
FC88
330
E3D4
100
AcDbEntity
  8
Defpoints
 62
     0
 48
0.5
100
AcDbPoint
 10
1165.192322838666
 20
787.2674262338713
 30
0.0
  0
POINT
  5
FC89
330
E3D4
100
AcDbEntity
  8
Defpoints
 62
     0
 48
0.5
100
AcDbPoint
 10
1164.022369525545
 20
787.2674262338713
 30
0.0
  0
ENDBLK
  5
E3DF
330
E3D4
100
AcDbEntity
  8
0
 48
0.5
100
AcDbBlockEnd
  0
BLOCK
  5
E3EC
330
E3E1
100
AcDbEntity
  8
0
 48
0.5
100
AcDbBlockBegin
  2
*D6
 70
     1
 10
0.0
 20
0.0
 30
0.0
  3
*D6
  1

  0
LINE
  5
FC8A
330
E3E1
100
AcDbEntity
  8
DIM
 48
0.5
100
AcDbLine
 10
1172.308950011902
 20
784.8926007712272
 30
0.0
 11
1170.793649542855
 21
784.8926007712272
 31
0.0
  0
LINE
  5
FC8B
330
E3E1
100
AcDbEntity
  8
DIM
 48
0.5
100
AcDbLine
 10
1172.308950011902
 20
785.8926007712272
 30
0.0
 11
1170.793649542855
 21
785.8926007712272
 31
0.0
  0
LINE
  5
FC8C
330
E3E1
100
AcDbEntity
  8
DIM
 48
0.5
100
AcDbLine
 10
1170.873649542855
 20
785.0126007712272
 30
0.0
 11
1170.873649542855
 21
785.7726007712272
 31
0.0
  0
SOLID
  5
FC8D
330
E3E1
100
AcDbEntity
  8
DIM
 48
0.5
100
AcDbTrace
 10
1170.853649542855
 20
785.0126007712272
 30
0.0
 11
1170.893649542855
 21
785.0126007712272
 31
0.0
 12
1170.873649542855
 22
784.8926007712272
 32
0.0
 13
1170.873649542855
 23
784.8926007712272
 33
0.0
  0
SOLID
  5
FC8E
330
E3E1
100
AcDbEntity
  8
DIM
 48
0.5
100
AcDbTrace
 10
1170.853649542855
 20
785.7726007712272
 30
0.0
 11
1170.893649542855
 21
785.7726007712272
 31
0.0
 12
1170.873649542855
 22
785.8926007712272
 32
0.0
 13
1170.873649542855
 23
785.8926007712272
 33
0.0
  0
MTEXT
  5
FC8F
330
E3E1
100
AcDbEntity
  8
DIM
 48
0.5
100
AcDbMText
 10
1170.742220971426
 20
785.3926007712273
 30
0.0
 40
0.12
 41
0.0
 71
     5
 72
     1
  1
\A1;%%c1 [25.4]
  7
DAYUS
 11
0.0000000000000001
 21
1.0
 31
0.0
 73
     1
 44
1.0
1001
ACAD
1000
MTEXTBEGIN
1070
    73
1070
     1
1070
    44
1040
1.0
1070
    74
1070
     0
1000
MTEXTEND
  0
POINT
  5
FC90
330
E3E1
100
AcDbEntity
  8
Defpoints
 62
     0
 48
0.5
100
AcDbPoint
 10
1172.368950011901
 20
784.8926007712272
 30
0.0
  0
POINT
  5
FC91
330
E3E1
100
AcDbEntity
  8
Defpoints
 62
     0
 48
0.5
100
AcDbPoint
 10
1172.368950011901
 20
785.8926007712272
 30
0.0
  0
POINT
  5
FC92
330
E3E1
100
AcDbEntity
  8
Defpoints
 62
     0
 48
0.5
100
AcDbPoint
 10
1170.873649542855
 20
785.8926007712272
 30
0.0
  0
ENDBLK
  5
E3ED
330
E3E1
100
AcDbEntity
  8
0
 48
0.5
100
AcDbBlockEnd
  0
BLOCK
  5
E3F9
330
E3EF
100
AcDbEntity
  8
0
 48
0.5
100
AcDbBlockBegin
  2
*D7
 70
     1
 10
0.0
 20
0.0
 30
0.0
  3
*D7
  1

  0
LINE
  5
FC93
330
E3EF
100
AcDbEntity
  8
DIM
 48
0.5
100
AcDbLine
 10
1172.767759354147
 20
784.6426007712271
 30
0.0
 11
1170.376403402595
 21
784.6426007712271
 31
0.0
  0
LINE
  5
FC94
330
E3EF
100
AcDbEntity
  8
DIM
 48
0.5
100
AcDbLine
 10
1172.767759354147
 20
786.1426007712272
 30
0.0
 11
1170.376403402595
 21
786.1426007712272
 31
0.0
  0
LINE
  5
FC95
330
E3EF
100
AcDbEntity
  8
DIM
 48
0.5
100
AcDbLine
 10
1170.456403402595
 20
784.7626007712272
 30
0.0
 11
1170.456403402595
 21
786.0226007712271
 31
0.0
  0
SOLID
  5
FC96
330
E3EF
100
AcDbEntity
  8
DIM
 48
0.5
100
AcDbTrace
 10
1170.436403402595
 20
784.7626007712272
 30
0.0
 11
1170.476403402595
 21
784.7626007712272
 31
0.0
 12
1170.456403402595
 22
784.6426007712271
 32
0.0
 13
1170.456403402595
 23
784.6426007712271
 33
0.0
  0
SOLID
  5
FC97
330
E3EF
100
AcDbEntity
  8
DIM
 48
0.5
100
AcDbTrace
 10
1170.436403402595
 20
786.0226007712271
 30
0.0
 11
1170.476403402595
 21
786.0226007712271
 31
0.0
 12
1170.456403402595
 22
786.1426007712272
 32
0.0
 13
1170.456403402595
 23
786.1426007712272
 33
0.0
  0
MTEXT
  5
FC98
330
E3EF
100
AcDbEntity
  8
DIM
 48
0.5
100
AcDbMText
 10
1170.324974831166
 20
785.3926007712273
 30
0.0
 40
0.12
 41
0.0
 71
     5
 72
     1
  1
\A1;%%c1.5 [38.1]
  7
DAYUS
 11
0.0000000000000001
 21
1.0
 31
0.0
 73
     1
 44
1.0
1001
ACAD
1000
MTEXTBEGIN
1070
    73
1070
     1
1070
    44
1040
1.0
1070
    74
1070
     0
1000
MTEXTEND
  0
POINT
  5
FC99
330
E3EF
100
AcDbEntity
  8
Defpoints
 62
     0
 48
0.5
100
AcDbPoint
 10
1172.827759354147
 20
784.6426007712271
 30
0.0
  0
POINT
  5
FC9A
330
E3EF
100
AcDbEntity
  8
Defpoints
 62
     0
 48
0.5
100
AcDbPoint
 10
1172.827759354147
 20
786.1426007712272
 30
0.0
  0
POINT
  5
FC9B
330
E3EF
100
AcDbEntity
  8
Defpoints
 62
     0
 48
0.5
100
AcDbPoint
 10
1170.456403402595
 20
786.1426007712272
 30
0.0
  0
ENDBLK
  5
E3FA
330
E3EF
100
AcDbEntity
  8
0
 48
0.5
100
AcDbBlockEnd
  0
BLOCK
  5
E406
330
E3FC
100
AcDbEntity
  8
0
 48
0.5
100
AcDbBlockBegin
  2
*D8
 70
     1
 10
0.0
 20
0.0
 30
0.0
  3
*D8
  1

  0
LINE
  5
FC9C
330
E3FC
100
AcDbEntity
  8
DIM
 48
0.5
100
AcDbLine
 10
1178.168538623892
 20
784.6426007712271
 30
0.0
 11
1178.663619046467
 21
784.6426007712271
 31
0.0
  0
LINE
  5
FC9D
330
E3FC
100
AcDbEntity
  8
DIM
 48
0.5
100
AcDbLine
 10
1178.168538623892
 20
786.1426007712272
 30
0.0
 11
1178.663619046467
 21
786.1426007712272
 31
0.0
  0
LINE
  5
FC9E
330
E3FC
100
AcDbEntity
  8
DIM
 48
0.5
100
AcDbLine
 10
1178.583619046468
 20
784.7626007712272
 30
0.0
 11
1178.583619046468
 21
786.0226007712271
 31
0.0
  0
SOLID
  5
FC9F
330
E3FC
100
AcDbEntity
  8
DIM
 48
0.5
100
AcDbTrace
 10
1178.563619046467
 20
784.7626007712272
 30
0.0
 11
1178.603619046467
 21
784.7626007712272
 31
0.0
 12
1178.583619046468
 22
784.6426007712271
 32
0.0
 13
1178.583619046468
 23
784.6426007712271
 33
0.0
  0
SOLID
  5
FCA0
330
E3FC
100
AcDbEntity
  8
DIM
 48
0.5
100
AcDbTrace
 10
1178.563619046467
 20
786.0226007712271
 30
0.0
 11
1178.603619046467
 21
786.0226007712271
 31
0.0
 12
1178.583619046468
 22
786.1426007712272
 32
0.0
 13
1178.583619046468
 23
786.1426007712272
 33
0.0
  0
MTEXT
  5
FCA1
330
E3FC
100
AcDbEntity
  8
DIM
 48
0.5
100
AcDbMText
 10
1178.452190475039
 20
785.3926007712273
 30
0.0
 40
0.12
 41
0.0
 71
     5
 72
     1
  1
\A1;%%c1.5 [38.1]
  7
DAYUS
 11
0.0000000000000001
 21
1.0
 31
0.0
 73
     1
 44
1.0
1001
ACAD
1000
MTEXTBEGIN
1070
    73
1070
     1
1070
    44
1040
1.0
1070
    74
1070
     0
1000
MTEXTEND
  0
POINT
  5
FCA2
330
E3FC
100
AcDbEntity
  8
Defpoints
 62
     0
 48
0.5
100
AcDbPoint
 10
1178.108538623892
 20
784.6426007712271
 30
0.0
  0
POINT
  5
FCA3
330
E3FC
100
AcDbEntity
  8
Defpoints
 62
     0
 48
0.5
100
AcDbPoint
 10
1178.108538623892
 20
786.1426007712272
 30
0.0
  0
POINT
  5
FCA4
330
E3FC
100
AcDbEntity
  8
Defpoints
 62
     0
 48
0.5
100
AcDbPoint
 10
1178.583619046468
 20
786.1426007712272
 30
0.0
  0
ENDBLK
  5
E407
330
E3FC
100
AcDbEntity
  8
0
 48
0.5
100
AcDbBlockEnd
  0
BLOCK
  5
E414
330
E409
100
AcDbEntity
  8
0
 48
0.5
100
AcDbBlockBegin
  2
*D9
 70
     1
 10
0.0
 20
0.0
 30
0.0
  3
*D9
  1

  0
LINE
  5
FCA5
330
E409
100
AcDbEntity
  8
DIM
 48
0.5
100
AcDbLine
 10
1171.549209854421
 20
784.7701007712272
 30
0.0
 11
1171.549209854421
 21
782.9849720825077
 31
0.0
  0
LINE
  5
FCA6
330
E409
100
AcDbEntity
  8
DIM
 48
0.5
100
AcDbLine
 10
1171.970209854421
 20
784.7701007712272
 30
0.0
 11
1171.970209854421
 21
782.9849720825077
 31
0.0
  0
LINE
  5
FCA7
330
E409
100
AcDbEntity
  8
DIM
 48
0.5
100
AcDbLine
 10
1171.850209854421
 20
783.0649720825078
 30
0.0
 11
1171.669209854421
 21
783.0649720825078
 31
0.0
  0
LINE
  5
FCA8
330
E409
100
AcDbEntity
  8
DIM
 48
0.5
100
AcDbLine
 10
1171.549209854421
 20
783.0649720825078
 30
0.0
 11
1169.713247177898
 21
783.0649720825078
 31
0.0
  0
SOLID
  5
FCA9
330
E409
100
AcDbEntity
  8
DIM
 48
0.5
100
AcDbTrace
 10
1171.850209854421
 20
783.0849720825077
 30
0.0
 11
1171.850209854421
 21
783.0449720825078
 31
0.0
 12
1171.970209854421
 22
783.0649720825078
 32
0.0
 13
1171.970209854421
 23
783.0649720825078
 33
0.0
  0
SOLID
  5
FCAA
330
E409
100
AcDbEntity
  8
DIM
 48
0.5
100
AcDbTrace
 10
1171.669209854421
 20
783.0849720825077
 30
0.0
 11
1171.669209854421
 21
783.0449720825078
 31
0.0
 12
1171.549209854421
 22
783.0649720825078
 32
0.0
 13
1171.549209854421
 23
783.0649720825078
 33
0.0
  0
MTEXT
  5
FCAB
330
E409
100
AcDbEntity
  8
DIM
 48
0.5
100
AcDbMText
 10
1170.316104320755
 20
783.1964006539363
 30
0.0
 40
0.12
 41
0.0
 71
     5
 72
     1
  1
\A1;0.42 [10.69]
  7
DAYUS
 73
     1
 44
1.0
1001
ACAD
1000
MTEXTBEGIN
1070
    73
1070
     1
1070
    44
1040
1.0
1070
    74
1070
     0
1000
MTEXTEND
  0
POINT
  5
FCAC
330
E409
100
AcDbEntity
  8
Defpoints
 62
     0
 48
0.5
100
AcDbPoint
 10
1171.549209854421
 20
784.8301007712271
 30
0.0
  0
POINT
  5
FCAD
330
E409
100
AcDbEntity
  8
Defpoints
 62
     0
 48
0.5
100
AcDbPoint
 10
1171.970209854421
 20
784.8301007712271
 30
0.0
  0
POINT
  5
FCAE
330
E409
100
AcDbEntity
  8
Defpoints
 62
     0
 48
0.5
100
AcDbPoint
 10
1171.970209854421
 20
783.0649720825078
 30
0.0
  0
ENDBLK
  5
E415
330
E409
100
AcDbEntity
  8
0
 48
0.5
100
AcDbBlockEnd
  0
BLOCK
  5
E422
330
E417
100
AcDbEntity
  8
0
 48
0.5
100
AcDbBlockBegin
  2
*D10
 70
     1
 10
0.0
 20
0.0
 30
0.0
  3
*D10
  1

  0
LINE
  5
FCAF
330
E417
100
AcDbEntity
  8
DIM
 48
0.5
100
AcDbLine
 10
1172.290209854421
 20
784.9113409287075
 30
0.0
 11
1172.290209854421
 21
782.5587381543567
 31
0.0
  0
LINE
  5
FCB0
330
E417
100
AcDbEntity
  8
DIM
 48
0.5
100
AcDbLine
 10
1171.165209854421
 20
784.9969708499673
 30
0.0
 11
1171.165209854421
 21
782.5587381543567
 31
0.0
  0
LINE
  5
FCB1
330
E417
100
AcDbEntity
  8
DIM
 48
0.5
100
AcDbLine
 10
1172.170209854421
 20
782.6387381543568
 30
0.0
 11
1171.285209854421
 21
782.6387381543568
 31
0.0
  0
LINE
  5
FCB2
330
E417
100
AcDbEntity
  8
DIM
 48
0.5
100
AcDbLine
 10
1171.165209854421
 20
782.6387381543568
 30
0.0
 11
1169.862352711564
 21
782.6387381543568
 31
0.0
  0
SOLID
  5
FCB3
330
E417
100
AcDbEntity
  8
DIM
 48
0.5
100
AcDbTrace
 10
1172.170209854421
 20
782.6587381543568
 30
0.0
 11
1172.170209854421
 21
782.6187381543568
 31
0.0
 12
1172.290209854421
 22
782.6387381543568
 32
0.0
 13
1172.290209854421
 23
782.6387381543568
 33
0.0
  0
SOLID
  5
FCB4
330
E417
100
AcDbEntity
  8
DIM
 48
0.5
100
AcDbTrace
 10
1171.285209854421
 20
782.6587381543568
 30
0.0
 11
1171.285209854421
 21
782.6187381543568
 31
0.0
 12
1171.165209854421
 22
782.6387381543568
 32
0.0
 13
1171.165209854421
 23
782.6387381543568
 33
0.0
  0
MTEXT
  5
FCB5
330
E417
100
AcDbEntity
  8
DIM
 48
0.5
100
AcDbMText
 10
1170.453781282993
 20
782.7701667257854
 30
0.0
 40
0.12
 41
0.0
 71
     5
 72
     1
  1
\A1;1.13 [28.58]
  7
DAYUS
 73
     1
 44
1.0
1001
ACAD
1000
MTEXTBEGIN
1070
    73
1070
     1
1070
    44
1040
1.0
1070
    74
1070
     0
1000
MTEXTEND
  0
POINT
  5
FCB6
330
E417
100
AcDbEntity
  8
Defpoints
 62
     0
 48
0.5
100
AcDbPoint
 10
1172.290209854421
 20
784.9713409287074
 30
0.0
  0
POINT
  5
FCB7
330
E417
100
AcDbEntity
  8
Defpoints
 62
     0
 48
0.5
100
AcDbPoint
 10
1171.165209854421
 20
785.0569708499673
 30
0.0
  0
POINT
  5
FCB8
330
E417
100
AcDbEntity
  8
Defpoints
 62
     0
 48
0.5
100
AcDbPoint
 10
1171.165209854421
 20
782.6387381543568
 30
0.0
  0
ENDBLK
  5
E423
330
E417
100
AcDbEntity
  8
0
 48
0.5
100
AcDbBlockEnd
  0
BLOCK
  5
E43C
330
E432
100
AcDbEntity
  8
0
 48
0.5
100
AcDbBlockBegin
  2
*D11
 70
     1
 10
0.0
 20
0.0
 30
0.0
  3
*D11
  1

  0
LINE
  5
FD3E
330
E432
100
AcDbEntity
  8
DIM
 48
0.5
100
AcDbLine
 10
1172.290209854421
 20
784.8326007712272
 30
0.0
 11
1172.290209854421
 21
784.7026007712271
 31
0.0
  0
LINE
  5
FD3F
330
E432
100
AcDbEntity
  8
DIM
 48
0.5
100
AcDbLine
 10
1174.727713567059
 20
783.4276007712272
 30
0.0
 11
1174.727713567059
 21
783.3628215033341
 31
0.0
  0
LINE
  5
FD40
330
E432
100
AcDbEntity
  8
DIM
 48
0.5
100
AcDbLine
 10
1172.410209854421
 20
782.1900100703806
 30
0.0
 11
1174.607713567059
 21
782.1900100703806
 31
0.0
  0
SOLID
  5
FD41
330
E432
100
AcDbEntity
  8
DIM
 48
0.5
100
AcDbTrace
 10
1172.410209854421
 20
782.2100100703806
 30
0.0
 11
1172.410209854421
 21
782.1700100703806
 31
0.0
 12
1172.290209854421
 22
782.1900100703806
 32
0.0
 13
1172.290209854421
 23
782.1900100703806
 33
0.0
  0
SOLID
  5
FD42
330
E432
100
AcDbEntity
  8
DIM
 48
0.5
100
AcDbTrace
 10
1174.607713567059
 20
782.2100100703806
 30
0.0
 11
1174.607713567059
 21
782.1700100703806
 31
0.0
 12
1174.727713567059
 22
782.1900100703806
 32
0.0
 13
1174.727713567059
 23
782.1900100703806
 33
0.0
  0
MTEXT
  5
FD43
330
E432
100
AcDbEntity
  8
DIM
 48
0.5
100
AcDbMText
 10
1173.50896171074
 20
782.3214386418092
 30
0.0
 40
0.12
 41
0.0
 71
     5
 72
     1
  1
\A1;2.44 [61.91]
  7
DAYUS
 73
     1
 44
1.0
1001
ACAD
1000
MTEXTBEGIN
1070
    73
1070
     1
1070
    44
1040
1.0
1070
    74
1070
     0
1000
MTEXTEND
  0
POINT
  5
FD44
330
E432
100
AcDbEntity
  8
Defpoints
 62
     0
 48
0.5
100
AcDbPoint
 10
1172.290209854421
 20
784.9713409287074
 30
0.0
  0
POINT
  5
FD45
330
E432
100
AcDbEntity
  8
Defpoints
 62
     0
 48
0.5
100
AcDbPoint
 10
1174.727713567059
 20
783.4876007712272
 30
0.0
  0
POINT
  5
FD46
330
E432
100
AcDbEntity
  8
Defpoints
 62
     0
 48
0.5
100
AcDbPoint
 10
1174.727713567059
 20
782.1900100703806
 30
0.0
  0
LINE
  5
FD47
330
E432
100
AcDbEntity
  8
DIM
 48
0.5
100
AcDbLine
 10
1174.727713567059
 20
783.0199643604769
 30
0.0
 11
1174.727713567059
 21
782.1100100703805
 31
0.0
  0
LINE
  5
FD48
330
E432
100
AcDbEntity
  8
DIM
 48
0.5
100
AcDbLine
 10
1172.290209854421
 20
784.5826007712272
 30
0.0
 11
1172.290209854421
 21
782.1100100703805
 31
0.0
  0
ENDBLK
  5
E43D
330
E432
100
AcDbEntity
  8
0
 48
0.5
100
AcDbBlockEnd
  0
BLOCK
  5
E44A
330
E43F
100
AcDbEntity
  8
0
 48
0.5
100
AcDbBlockBegin
  2
*D12
 70
     1
 10
0.0
 20
0.0
 30
0.0
  3
*D12
  1

  0
LINE
  5
FCC2
330
E43F
100
AcDbEntity
  8
DIM
 48
0.5
100
AcDbLine
 10
1172.290209854421
 20
784.9113409287075
 30
0.0
 11
1172.290209854421
 21
782.5587381543567
 31
0.0
  0
LINE
  5
FCC3
330
E43F
100
AcDbEntity
  8
DIM
 48
0.5
100
AcDbLine
 10
1172.827759354147
 20
784.5826007712272
 30
0.0
 11
1172.827759354147
 21
782.5587381543567
 31
0.0
  0
LINE
  5
FCC4
330
E43F
100
AcDbEntity
  8
DIM
 48
0.5
100
AcDbLine
 10
1172.410209854421
 20
782.6387381543568
 30
0.0
 11
1172.707759354147
 21
782.6387381543568
 31
0.0
  0
LINE
  5
FCC5
330
E43F
100
AcDbEntity
  8
DIM
 48
0.5
100
AcDbLine
 10
1172.827759354147
 20
782.6387381543568
 30
0.0
 11
1174.153473639861
 21
782.6387381543568
 31
0.0
  0
SOLID
  5
FCC6
330
E43F
100
AcDbEntity
  8
DIM
 48
0.5
100
AcDbTrace
 10
1172.410209854421
 20
782.6587381543568
 30
0.0
 11
1172.410209854421
 21
782.6187381543568
 31
0.0
 12
1172.290209854421
 22
782.6387381543568
 32
0.0
 13
1172.290209854421
 23
782.6387381543568
 33
0.0
  0
SOLID
  5
FCC7
330
E43F
100
AcDbEntity
  8
DIM
 48
0.5
100
AcDbTrace
 10
1172.707759354147
 20
782.6587381543568
 30
0.0
 11
1172.707759354147
 21
782.6187381543568
 31
0.0
 12
1172.827759354147
 22
782.6387381543568
 32
0.0
 13
1172.827759354147
 23
782.6387381543568
 33
0.0
  0
MTEXT
  5
FCC8
330
E43F
100
AcDbEntity
  8
DIM
 48
0.5
100
AcDbMText
 10
1173.550616497004
 20
782.7701667257854
 30
0.0
 40
0.12
 41
0.0
 71
     5
 72
     1
  1
\A1;0.54 [13.65]
  7
DAYUS
 73
     1
 44
1.0
1001
ACAD
1000
MTEXTBEGIN
1070
    73
1070
     1
1070
    44
1040
1.0
1070
    74
1070
     0
1000
MTEXTEND
  0
POINT
  5
FCC9
330
E43F
100
AcDbEntity
  8
Defpoints
 62
     0
 48
0.5
100
AcDbPoint
 10
1172.290209854421
 20
784.9713409287074
 30
0.0
  0
POINT
  5
FCCA
330
E43F
100
AcDbEntity
  8
Defpoints
 62
     0
 48
0.5
100
AcDbPoint
 10
1172.827759354147
 20
784.6426007712271
 30
0.0
  0
POINT
  5
FCCB
330
E43F
100
AcDbEntity
  8
Defpoints
 62
     0
 48
0.5
100
AcDbPoint
 10
1172.827759354147
 20
782.6387381543568
 30
0.0
  0
ENDBLK
  5
E44B
330
E43F
100
AcDbEntity
  8
0
 48
0.5
100
AcDbBlockEnd
  0
BLOCK
  5
E46D
330
E463
100
AcDbEntity
  8
0
 48
0.5
100
AcDbBlockBegin
  2
*D13
 70
     1
 10
0.0
 20
0.0
 30
0.0
  3
*D13
  1

  0
LINE
  5
FCCC
330
E463
100
AcDbEntity
  8
DIM
 48
0.5
100
AcDbLine
 10
1173.66519388202
 20
783.4576007712272
 30
0.0
 11
1173.66519388202
 21
782.9999643604768
 31
0.0
  0
LINE
  5
FCCD
330
E463
100
AcDbEntity
  8
DIM
 48
0.5
100
AcDbLine
 10
1175.23519388202
 20
783.4576007712272
 30
0.0
 11
1175.23519388202
 21
782.9999643604768
 31
0.0
  0
LINE
  5
FCCE
330
E463
100
AcDbEntity
  8
DIM
 48
0.5
100
AcDbLine
 10
1173.78519388202
 20
783.0799643604769
 30
0.0
 11
1175.11519388202
 21
783.0799643604769
 31
0.0
  0
SOLID
  5
FCCF
330
E463
100
AcDbEntity
  8
DIM
 48
0.5
100
AcDbTrace
 10
1173.78519388202
 20
783.0999643604768
 30
0.0
 11
1173.78519388202
 21
783.0599643604768
 31
0.0
 12
1173.66519388202
 22
783.0799643604769
 32
0.0
 13
1173.66519388202
 23
783.0799643604769
 33
0.0
  0
SOLID
  5
FCD0
330
E463
100
AcDbEntity
  8
DIM
 48
0.5
100
AcDbTrace
 10
1175.11519388202
 20
783.0999643604768
 30
0.0
 11
1175.11519388202
 21
783.0599643604768
 31
0.0
 12
1175.23519388202
 22
783.0799643604769
 32
0.0
 13
1175.23519388202
 23
783.0799643604769
 33
0.0
  0
MTEXT
  5
FCD1
330
E463
100
AcDbEntity
  8
DIM
 48
0.5
100
AcDbMText
 10
1174.45019388202
 20
783.2113929319055
 30
0.0
 40
0.12
 41
0.0
 71
     5
 72
     1
  1
\A1;1.57 [39.88]
  7
DAYUS
 73
     1
 44
1.0
1001
ACAD
1000
MTEXTBEGIN
1070
    73
1070
     1
1070
    44
1040
1.0
1070
    74
1070
     0
1000
MTEXTEND
  0
POINT
  5
FCD2
330
E463
100
AcDbEntity
  8
Defpoints
 62
     0
 48
0.5
100
AcDbPoint
 10
1173.66519388202
 20
783.5176007712272
 30
0.0
  0
POINT
  5
FCD3
330
E463
100
AcDbEntity
  8
Defpoints
 62
     0
 48
0.5
100
AcDbPoint
 10
1175.23519388202
 20
783.5176007712272
 30
0.0
  0
POINT
  5
FCD4
330
E463
100
AcDbEntity
  8
Defpoints
 62
     0
 48
0.5
100
AcDbPoint
 10
1175.23519388202
 20
783.0799643604769
 30
0.0
  0
ENDBLK
  5
E46E
330
E463
100
AcDbEntity
  8
0
 48
0.5
100
AcDbBlockEnd
  0
BLOCK
  5
E4ED
330
E4E2
100
AcDbEntity
  8
0
 48
0.5
100
AcDbBlockBegin
  2
*D14
 70
     1
 10
0.0
 20
0.0
 30
0.0
  3
*D14
  1

  0
LINE
  5
FCD5
330
E4E2
100
AcDbEntity
  8
DIM
 48
0.5
100
AcDbLine
 10
1176.73519388202
 20
783.4576007712272
 30
0.0
 11
1176.73519388202
 21
782.9999643604768
 31
0.0
  0
LINE
  5
FCD6
330
E4E2
100
AcDbEntity
  8
DIM
 48
0.5
100
AcDbLine
 10
1177.91519388202
 20
783.4576007712272
 30
0.0
 11
1177.91519388202
 21
782.9999643604768
 31
0.0
  0
LINE
  5
FCD7
330
E4E2
100
AcDbEntity
  8
DIM
 48
0.5
100
AcDbLine
 10
1176.85519388202
 20
783.0799643604769
 30
0.0
 11
1177.79519388202
 21
783.0799643604769
 31
0.0
  0
LINE
  5
FCD8
330
E4E2
100
AcDbEntity
  8
DIM
 48
0.5
100
AcDbLine
 10
1177.91519388202
 20
783.0799643604769
 30
0.0
 11
1179.218051024877
 21
783.0799643604769
 31
0.0
  0
SOLID
  5
FCD9
330
E4E2
100
AcDbEntity
  8
DIM
 48
0.5
100
AcDbTrace
 10
1176.85519388202
 20
783.0999643604768
 30
0.0
 11
1176.85519388202
 21
783.0599643604768
 31
0.0
 12
1176.73519388202
 22
783.0799643604769
 32
0.0
 13
1176.73519388202
 23
783.0799643604769
 33
0.0
  0
SOLID
  5
FCDA
330
E4E2
100
AcDbEntity
  8
DIM
 48
0.5
100
AcDbTrace
 10
1177.79519388202
 20
783.0999643604768
 30
0.0
 11
1177.79519388202
 21
783.0599643604768
 31
0.0
 12
1177.91519388202
 22
783.0799643604769
 32
0.0
 13
1177.91519388202
 23
783.0799643604769
 33
0.0
  0
MTEXT
  5
FCDB
330
E4E2
100
AcDbEntity
  8
DIM
 48
0.5
100
AcDbMText
 10
1178.626622453448
 20
783.2113929319055
 30
0.0
 40
0.12
 41
0.0
 71
     5
 72
     1
  1
\A1;1.18 [29.97]
  7
DAYUS
 73
     1
 44
1.0
1001
ACAD
1000
MTEXTBEGIN
1070
    73
1070
     1
1070
    44
1040
1.0
1070
    74
1070
     0
1000
MTEXTEND
  0
POINT
  5
FCDC
330
E4E2
100
AcDbEntity
  8
Defpoints
 62
     0
 48
0.5
100
AcDbPoint
 10
1176.73519388202
 20
783.5176007712272
 30
0.0
  0
POINT
  5
FCDD
330
E4E2
100
AcDbEntity
  8
Defpoints
 62
     0
 48
0.5
100
AcDbPoint
 10
1177.91519388202
 20
783.5176007712272
 30
0.0
  0
POINT
  5
FCDE
330
E4E2
100
AcDbEntity
  8
Defpoints
 62
     0
 48
0.5
100
AcDbPoint
 10
1177.91519388202
 20
783.0799643604769
 30
0.0
  0
ENDBLK
  5
E4EE
330
E4E2
100
AcDbEntity
  8
0
 48
0.5
100
AcDbBlockEnd
  0
BLOCK
  5
E507
330
E4FD
100
AcDbEntity
  8
0
 48
0.5
100
AcDbBlockBegin
  2
*D15
 70
     1
 10
0.0
 20
0.0
 30
0.0
  3
*D15
  1

  0
LINE
  5
FEBA
330
E4FD
100
AcDbEntity
  8
DIM
 48
0.5
100
AcDbLine
 10
1172.290209854421
 20
785.8738606137468
 30
0.0
 11
1172.290209854421
 21
788.4782930756651
 31
0.0
  0
LINE
  5
FEBB
330
E4FD
100
AcDbEntity
  8
DIM
 48
0.5
100
AcDbLine
 10
1174.62519388202
 20
787.3889849740003
 30
0.0
 11
1174.62519388202
 21
788.4782930756651
 31
0.0
  0
LINE
  5
FEBC
330
E4FD
100
AcDbEntity
  8
DIM
 48
0.5
100
AcDbLine
 10
1172.410209854421
 20
788.3982930756651
 30
0.0
 11
1174.50519388202
 21
788.3982930756651
 31
0.0
  0
SOLID
  5
FEBD
330
E4FD
100
AcDbEntity
  8
DIM
 48
0.5
100
AcDbTrace
 10
1172.410209854421
 20
788.4182930756651
 30
0.0
 11
1172.410209854421
 21
788.3782930756652
 31
0.0
 12
1172.290209854421
 22
788.3982930756651
 32
0.0
 13
1172.290209854421
 23
788.3982930756651
 33
0.0
  0
SOLID
  5
FEBE
330
E4FD
100
AcDbEntity
  8
DIM
 48
0.5
100
AcDbTrace
 10
1174.50519388202
 20
788.4182930756651
 30
0.0
 11
1174.50519388202
 21
788.3782930756652
 31
0.0
 12
1174.62519388202
 22
788.3982930756651
 32
0.0
 13
1174.62519388202
 23
788.3982930756651
 33
0.0
  0
MTEXT
  5
FEBF
330
E4FD
100
AcDbEntity
  8
DIM
 48
0.5
100
AcDbMText
 10
1173.457701868221
 20
788.5297216470937
 30
0.0
 40
0.12
 41
0.0
 71
     5
 72
     1
  1
\A1;2.33 [59.31]
  7
DAYUS
 73
     1
 44
1.0
1001
ACAD
1000
MTEXTBEGIN
1070
    73
1070
     1
1070
    44
1040
1.0
1070
    74
1070
     0
1000
MTEXTEND
  0
POINT
  5
FEC0
330
E4FD
100
AcDbEntity
  8
Defpoints
 62
     0
 48
0.5
100
AcDbPoint
 10
1172.290209854421
 20
785.8138606137469
 30
0.0
  0
POINT
  5
FEC1
330
E4FD
100
AcDbEntity
  8
Defpoints
 62
     0
 48
0.5
100
AcDbPoint
 10
1174.62519388202
 20
787.3289849740004
 30
0.0
  0
POINT
  5
FEC2
330
E4FD
100
AcDbEntity
  8
Defpoints
 62
     0
 48
0.5
100
AcDbPoint
 10
1174.62519388202
 20
788.3982930756651
 30
0.0
  0
ENDBLK
  5
E508
330
E4FD
100
AcDbEntity
  8
0
 48
0.5
100
AcDbBlockEnd
  0
BLOCK
  5
E521
330
E517
100
AcDbEntity
  8
0
 48
0.5
100
AcDbBlockBegin
  2
*D16
 70
     1
 10
0.0
 20
0.0
 30
0.0
  3
*D16
  1

  0
LINE
  5
FEC3
330
E517
100
AcDbEntity
  8
DIM
 48
0.5
100
AcDbLine
 10
1172.290209854421
 20
785.9526007712271
 30
0.0
 11
1172.290209854421
 21
786.0826007712272
 31
0.0
  0
LINE
  5
FEC4
330
E517
100
AcDbEntity
  8
DIM
 48
0.5
100
AcDbLine
 10
1173.66519388202
 20
787.3137250514398
 30
0.0
 11
1173.66519388202
 21
788.3382930756652
 31
0.0
  0
LINE
  5
FEC5
330
E517
100
AcDbEntity
  8
DIM
 48
0.5
100
AcDbLine
 10
1172.410209854421
 20
788.8268174644223
 30
0.0
 11
1173.54519388202
 21
788.8268174644223
 31
0.0
  0
SOLID
  5
FEC6
330
E517
100
AcDbEntity
  8
DIM
 48
0.5
100
AcDbTrace
 10
1172.410209854421
 20
788.8468174644223
 30
0.0
 11
1172.410209854421
 21
788.8068174644224
 31
0.0
 12
1172.290209854421
 22
788.8268174644223
 32
0.0
 13
1172.290209854421
 23
788.8268174644223
 33
0.0
  0
SOLID
  5
FEC7
330
E517
100
AcDbEntity
  8
DIM
 48
0.5
100
AcDbTrace
 10
1173.54519388202
 20
788.8468174644223
 30
0.0
 11
1173.54519388202
 21
788.8068174644224
 31
0.0
 12
1173.66519388202
 22
788.8268174644223
 32
0.0
 13
1173.66519388202
 23
788.8268174644223
 33
0.0
  0
MTEXT
  5
FEC8
330
E517
100
AcDbEntity
  8
DIM
 48
0.5
100
AcDbMText
 10
1172.977701868221
 20
788.9582460358509
 30
0.0
 40
0.12
 41
0.0
 71
     5
 72
     1
  1
\A1;1.37 [34.92]
  7
DAYUS
 73
     1
 44
1.0
1001
ACAD
1000
MTEXTBEGIN
1070
    73
1070
     1
1070
    44
1040
1.0
1070
    74
1070
     0
1000
MTEXTEND
  0
POINT
  5
FEC9
330
E517
100
AcDbEntity
  8
Defpoints
 62
     0
 48
0.5
100
AcDbPoint
 10
1172.290209854421
 20
785.8138606137469
 30
0.0
  0
POINT
  5
FECA
330
E517
100
AcDbEntity
  8
Defpoints
 62
     0
 48
0.5
100
AcDbPoint
 10
1173.66519388202
 20
787.2537250514398
 30
0.0
  0
POINT
  5
FECB
330
E517
100
AcDbEntity
  8
Defpoints
 62
     0
 48
0.5
100
AcDbPoint
 10
1173.66519388202
 20
788.8268174644223
 30
0.0
  0
LINE
  5
FECC
330
E517
100
AcDbEntity
  8
DIM
 48
0.5
100
AcDbLine
 10
1173.66519388202
 20
788.6811502185223
 30
0.0
 11
1173.66519388202
 21
788.9068174644223
 31
0.0
  0
LINE
  5
FECD
330
E517
100
AcDbEntity
  8
DIM
 48
0.5
100
AcDbLine
 10
1172.290209854421
 20
786.2026007712271
 30
0.0
 11
1172.290209854421
 21
788.9068174644223
 31
0.0
  0
ENDBLK
  5
E522
330
E517
100
AcDbEntity
  8
0
 48
0.5
100
AcDbBlockEnd
  0
BLOCK
  5
E54E
330
E544
100
AcDbEntity
  8
0
 48
0.5
100
AcDbBlockBegin
  2
*D17
 70
     1
 10
0.0
 20
0.0
 30
0.0
  3
*D17
  1

  0
LINE
  5
FE89
330
E544
100
AcDbEntity
  8
DIM
 48
0.5
100
AcDbLine
 10
1174.62519388202
 20
787.3889849740003
 30
0.0
 11
1174.62519388202
 21
788.4782930756651
 31
0.0
  0
LINE
  5
FE8A
330
E544
100
AcDbEntity
  8
DIM
 48
0.5
100
AcDbLine
 10
1177.34519388202
 20
787.387523738694
 30
0.0
 11
1177.34519388202
 21
788.4782930756651
 31
0.0
  0
LINE
  5
FE8B
330
E544
100
AcDbEntity
  8
DIM
 48
0.5
100
AcDbLine
 10
1174.74519388202
 20
788.3982930756651
 30
0.0
 11
1177.22519388202
 21
788.3982930756651
 31
0.0
  0
SOLID
  5
FE8C
330
E544
100
AcDbEntity
  8
DIM
 48
0.5
100
AcDbTrace
 10
1174.74519388202
 20
788.4182930756651
 30
0.0
 11
1174.74519388202
 21
788.3782930756652
 31
0.0
 12
1174.62519388202
 22
788.3982930756651
 32
0.0
 13
1174.62519388202
 23
788.3982930756651
 33
0.0
  0
SOLID
  5
FE8D
330
E544
100
AcDbEntity
  8
DIM
 48
0.5
100
AcDbTrace
 10
1177.22519388202
 20
788.4182930756651
 30
0.0
 11
1177.22519388202
 21
788.3782930756652
 31
0.0
 12
1177.34519388202
 22
788.3982930756651
 32
0.0
 13
1177.34519388202
 23
788.3982930756651
 33
0.0
  0
MTEXT
  5
FE8E
330
E544
100
AcDbEntity
  8
DIM
 48
0.5
100
AcDbMText
 10
1175.979065716373
 20
788.5297216470937
 30
0.0
 40
0.12
 41
0.0
 71
     5
 72
     1
  1
\A1;2.72 [69.09]
  7
DAYUS
 73
     1
 44
1.0
1001
ACAD
1000
MTEXTBEGIN
1070
    73
1070
     1
1070
    44
1040
1.0
1070
    74
1070
     0
1000
MTEXTEND
  0
POINT
  5
FE8F
330
E544
100
AcDbEntity
  8
Defpoints
 62
     0
 48
0.5
100
AcDbPoint
 10
1174.62519388202
 20
787.3289849740004
 30
0.0
  0
POINT
  5
FE90
330
E544
100
AcDbEntity
  8
Defpoints
 62
     0
 48
0.5
100
AcDbPoint
 10
1177.34519388202
 20
787.327523738694
 30
0.0
  0
POINT
  5
FE91
330
E544
100
AcDbEntity
  8
Defpoints
 62
     0
 48
0.5
100
AcDbPoint
 10
1177.34519388202
 20
788.3982930756651
 30
0.0
  0
ENDBLK
  5
E54F
330
E544
100
AcDbEntity
  8
0
 48
0.5
100
AcDbBlockEnd
  0
BLOCK
  5
E55B
330
E551
100
AcDbEntity
  8
0
 48
0.5
100
AcDbBlockBegin
  2
*D18
 70
     1
 10
0.0
 20
0.0
 30
0.0
  3
*D18
  1

  0
LINE
  5
FECE
330
E551
100
AcDbEntity
  8
DIM
 48
0.5
100
AcDbLine
 10
1173.66519388202
 20
787.3137250514398
 30
0.0
 11
1173.66519388202
 21
788.3382930756652
 31
0.0
  0
LINE
  5
FECF
330
E551
100
AcDbEntity
  8
DIM
 48
0.5
100
AcDbLine
 10
1177.91519388202
 20
787.3171285298782
 30
0.0
 11
1177.91519388202
 21
788.9068174644223
 31
0.0
  0
LINE
  5
FED0
330
E551
100
AcDbEntity
  8
DIM
 48
0.5
100
AcDbLine
 10
1173.78519388202
 20
788.8268174644223
 30
0.0
 11
1177.79519388202
 21
788.8268174644223
 31
0.0
  0
SOLID
  5
FED1
330
E551
100
AcDbEntity
  8
DIM
 48
0.5
100
AcDbTrace
 10
1173.78519388202
 20
788.8468174644223
 30
0.0
 11
1173.78519388202
 21
788.8068174644224
 31
0.0
 12
1173.66519388202
 22
788.8268174644223
 32
0.0
 13
1173.66519388202
 23
788.8268174644223
 33
0.0
  0
SOLID
  5
FED2
330
E551
100
AcDbEntity
  8
DIM
 48
0.5
100
AcDbTrace
 10
1177.79519388202
 20
788.8468174644223
 30
0.0
 11
1177.79519388202
 21
788.8068174644224
 31
0.0
 12
1177.91519388202
 22
788.8268174644223
 32
0.0
 13
1177.91519388202
 23
788.8268174644223
 33
0.0
  0
MTEXT
  5
FED3
330
E551
100
AcDbEntity
  8
DIM
 48
0.5
100
AcDbMText
 10
1175.674022561936
 20
788.9582460358509
 30
0.0
 40
0.12
 41
0.0
 71
     5
 72
     1
  1
\A1;4.25 [107.95]
  7
DAYUS
 73
     1
 44
1.0
1001
ACAD
1000
MTEXTBEGIN
1070
    73
1070
     1
1070
    44
1040
1.0
1070
    74
1070
     0
1000
MTEXTEND
  0
POINT
  5
FED4
330
E551
100
AcDbEntity
  8
Defpoints
 62
     0
 48
0.5
100
AcDbPoint
 10
1173.66519388202
 20
787.2537250514398
 30
0.0
  0
POINT
  5
FED5
330
E551
100
AcDbEntity
  8
Defpoints
 62
     0
 48
0.5
100
AcDbPoint
 10
1177.91519388202
 20
787.2571285298783
 30
0.0
  0
POINT
  5
FED6
330
E551
100
AcDbEntity
  8
Defpoints
 62
     0
 48
0.5
100
AcDbPoint
 10
1177.91519388202
 20
788.8268174644223
 30
0.0
  0
LINE
  5
FED7
330
E551
100
AcDbEntity
  8
DIM
 48
0.5
100
AcDbLine
 10
1173.66519388202
 20
788.6811502185223
 30
0.0
 11
1173.66519388202
 21
788.9068174644223
 31
0.0
  0
ENDBLK
  5
E55C
330
E551
100
AcDbEntity
  8
0
 48
0.5
100
AcDbBlockEnd
  0
BLOCK
  5
E568
330
E55E
100
AcDbEntity
  8
0
 48
0.5
100
AcDbBlockBegin
  2
*D19
 70
     1
 10
0.0
 20
0.0
 30
0.0
  3
*D19
  1

  0
LINE
  5
FE57
330
E55E
100
AcDbEntity
  8
DIM
 48
0.5
100
AcDbLine
 10
1172.290209854421
 20
785.8738606137468
 30
0.0
 11
1172.290209854421
 21
789.349868128231
 31
0.0
  0
LINE
  5
FE58
330
E55E
100
AcDbEntity
  8
DIM
 48
0.5
100
AcDbLine
 10
1178.11831888202
 20
786.1924730174597
 30
0.0
 11
1178.11831888202
 21
789.349868128231
 31
0.0
  0
LINE
  5
FE59
330
E55E
100
AcDbEntity
  8
DIM
 48
0.5
100
AcDbLine
 10
1172.410209854421
 20
789.2698681282309
 30
0.0
 11
1177.99831888202
 21
789.2698681282309
 31
0.0
  0
SOLID
  5
FE5A
330
E55E
100
AcDbEntity
  8
DIM
 48
0.5
100
AcDbTrace
 10
1172.410209854421
 20
789.289868128231
 30
0.0
 11
1172.410209854421
 21
789.249868128231
 31
0.0
 12
1172.290209854421
 22
789.2698681282309
 32
0.0
 13
1172.290209854421
 23
789.2698681282309
 33
0.0
  0
SOLID
  5
FE5B
330
E55E
100
AcDbEntity
  8
DIM
 48
0.5
100
AcDbTrace
 10
1177.99831888202
 20
789.289868128231
 30
0.0
 11
1177.99831888202
 21
789.249868128231
 31
0.0
 12
1178.11831888202
 22
789.2698681282309
 32
0.0
 13
1178.11831888202
 23
789.2698681282309
 33
0.0
  0
MTEXT
  5
FE5C
330
E55E
100
AcDbEntity
  8
DIM
 48
0.5
100
AcDbMText
 10
1175.194669027371
 20
789.4012966996596
 30
0.0
 40
0.12
 41
0.0
 71
     5
 72
     1
  1
\A1;5.83 [148.03]
  7
DAYUS
 73
     1
 44
1.0
1001
ACAD
1000
MTEXTBEGIN
1070
    73
1070
     1
1070
    44
1040
1.0
1070
    74
1070
     0
1000
MTEXTEND
  0
POINT
  5
FE5D
330
E55E
100
AcDbEntity
  8
Defpoints
 62
     0
 48
0.5
100
AcDbPoint
 10
1172.290209854421
 20
785.8138606137469
 30
0.0
  0
POINT
  5
FE5E
330
E55E
100
AcDbEntity
  8
Defpoints
 62
     0
 48
0.5
100
AcDbPoint
 10
1178.11831888202
 20
786.1324730174597
 30
0.0
  0
POINT
  5
FE5F
330
E55E
100
AcDbEntity
  8
Defpoints
 62
     0
 48
0.5
100
AcDbPoint
 10
1178.11831888202
 20
789.2698681282309
 30
0.0
  0
ENDBLK
  5
E569
330
E55E
100
AcDbEntity
  8
0
 48
0.5
100
AcDbBlockEnd
  0
BLOCK
  5
E575
330
E56B
100
AcDbEntity
  8
0
 48
0.5
100
AcDbBlockBegin
  2
*D20
 70
     1
 10
0.0
 20
0.0
 30
0.0
  3
*D20
  1

  0
LINE
  5
FD49
330
E56B
100
AcDbEntity
  8
DIM
 48
0.5
100
AcDbLine
 10
1174.727713567059
 20
783.4276007712272
 30
0.0
 11
1174.727713567059
 21
783.3628215033341
 31
0.0
  0
LINE
  5
FD4A
330
E56B
100
AcDbEntity
  8
DIM
 48
0.5
100
AcDbLine
 10
1177.352516716665
 20
783.4276007712272
 30
0.0
 11
1177.352516716665
 21
783.1399643604768
 31
0.0
  0
LINE
  5
FD4B
330
E56B
100
AcDbEntity
  8
DIM
 48
0.5
100
AcDbLine
 10
1174.847713567059
 20
782.1900100703806
 30
0.0
 11
1177.232516716665
 21
782.1900100703806
 31
0.0
  0
SOLID
  5
FD4C
330
E56B
100
AcDbEntity
  8
DIM
 48
0.5
100
AcDbTrace
 10
1174.847713567059
 20
782.2100100703806
 30
0.0
 11
1174.847713567059
 21
782.1700100703806
 31
0.0
 12
1174.727713567059
 22
782.1900100703806
 32
0.0
 13
1174.727713567059
 23
782.1900100703806
 33
0.0
  0
SOLID
  5
FD4D
330
E56B
100
AcDbEntity
  8
DIM
 48
0.5
100
AcDbTrace
 10
1177.232516716665
 20
782.2100100703806
 30
0.0
 11
1177.232516716665
 21
782.1700100703806
 31
0.0
 12
1177.352516716665
 22
782.1900100703806
 32
0.0
 13
1177.352516716665
 23
782.1900100703806
 33
0.0
  0
MTEXT
  5
FD4E
330
E56B
100
AcDbEntity
  8
DIM
 48
0.5
100
AcDbMText
 10
1176.040115141862
 20
782.3214386418092
 30
0.0
 40
0.12
 41
0.0
 71
     5
 72
     1
  1
\A1;2.62 [66.67]
  7
DAYUS
 73
     1
 44
1.0
1001
ACAD
1000
MTEXTBEGIN
1070
    73
1070
     1
1070
    44
1040
1.0
1070
    74
1070
     0
1000
MTEXTEND
  0
POINT
  5
FD4F
330
E56B
100
AcDbEntity
  8
Defpoints
 62
     0
 48
0.5
100
AcDbPoint
 10
1174.727713567059
 20
783.4876007712272
 30
0.0
  0
POINT
  5
FD50
330
E56B
100
AcDbEntity
  8
Defpoints
 62
     0
 48
0.5
100
AcDbPoint
 10
1177.352516716665
 20
783.4876007712272
 30
0.0
  0
POINT
  5
FD51
330
E56B
100
AcDbEntity
  8
Defpoints
 62
     0
 48
0.5
100
AcDbPoint
 10
1177.352516716665
 20
782.1900100703806
 30
0.0
  0
LINE
  5
FD52
330
E56B
100
AcDbEntity
  8
DIM
 48
0.5
100
AcDbLine
 10
1177.352516716665
 20
783.0199643604769
 30
0.0
 11
1177.352516716665
 21
782.1100100703805
 31
0.0
  0
LINE
  5
FD53
330
E56B
100
AcDbEntity
  8
DIM
 48
0.5
100
AcDbLine
 10
1174.727713567059
 20
783.0199643604769
 30
0.0
 11
1174.727713567059
 21
782.1100100703805
 31
0.0
  0
ENDBLK
  5
E576
330
E56B
100
AcDbEntity
  8
0
 48
0.5
100
AcDbBlockEnd
  0
BLOCK
  5
F7D3
330
F7D1
100
AcDbEntity
  8
0
 48
0.5
100
AcDbBlockBegin
  2
GENAXEH
 70
     0
 10
0.0
 20
0.0
 30
0.0
  3
GENAXEH
  1

  0
LINE
  5
F7D2
330
F7D1
100
AcDbEntity
  8
0
100
AcDbLine
 10
-1.0
 20
0.0
 30
0.0
 11
1.0
 21
0.0
 31
0.0
  0
ENDBLK
  5
F7D4
330
F7D1
100
AcDbEntity
  8
0
 48
0.5
100
AcDbBlockEnd
  0
BLOCK
  5
FE3C
330
FE39
100
AcDbEntity
  8
0
 48
0.5
100
AcDbBlockBegin
  2
A$C0FBC3824
 70
     0
 10
0.0
 20
0.0
 30
0.0
  3
A$C0FBC3824
  1

  0
TEXT
  5
FE3D
330
FE39
100
AcDbEntity
  8
0
 62
     4
100
AcDbText
 10
0.0000000077036475
 20
0.1971057862360794
 30
0.0
 40
0.09
  1
0
 41
0.75
  7
CHINESET
100
AcDbText
  0
LINE
  5
FE3E
330
FE39
100
AcDbEntity
  8
0
 62
     4
100
AcDbLine
 10
0.0234936358031064
 20
0.0000000178492883
 30
0.0
 11
0.0234936358031064
 21
0.1569089626860887
 31
0.0
  0
TEXT
  5
FE3F
330
FE39
100
AcDbEntity
  8
0
 62
     4
100
AcDbText
 10
0.1606473260601433
 20
0.2195738566518912
 30
0.0
 40
0.09
  1
Stroke
 41
0.75
  7
CHINESET
100
AcDbText
  0
ENDBLK
  5
FE40
330
FE39
100
AcDbEntity
  8
0
 48
0.5
100
AcDbBlockEnd
  0
BLOCK
  5
FE44
330
FE41
100
AcDbEntity
  8
0
 48
0.5
100
AcDbBlockBegin
  2
A$C7A150A0F
 70
     0
 10
0.0
 20
0.0
 30
0.0
  3
A$C7A150A0F
  1

  0
LINE
  5
FE45
330
FE41
100
AcDbEntity
  8
SL
100
AcDbLine
 10
0.3679920646077335
 20
0.0207352438358157
 30
0.0
 11
0.0
 21
0.0207352438358157
 31
0.0
  0
TRACE
  5
FE46
330
FE41
100
AcDbEntity
  8
SL
370
    35
100
AcDbTrace
 10
0.2104920646077062
 20
0.041470512113392
 30
0.0
 11
0.2104920646077062
 21
-0.0000000244416469
 31
0.0
 12
0.3679920646077335
 22
0.0207352438358157
 32
0.0
 13
0.3679920646077335
 23
0.0207352438358157
 33
0.0
  0
MTEXT
  5
FE47
330
FE41
100
AcDbEntity
  8
SL
100
AcDbMText
 10
0.0362430161771954
 20
0.0639487999877702
 30
0.0
 40
0.11025
 41
0.0
 71
     7
 72
     5
  1
SL
  7
ACISOTS
 73
     1
 44
1.0
1001
ACAD
1000
MTEXTBEGIN
1070
    73
1070
     1
1070
    44
1040
1.0
1070
    74
1070
     0
1000
MTEXTEND
  0
ENDBLK
  5
FE48
330
FE41
100
AcDbEntity
  8
0
 48
0.5
100
AcDbBlockEnd
  0
ENDSEC
  0
SECTION
  2
ENTITIES
  0
MTEXT
  5
57F
330
2
100
AcDbEntity
  8
DIM
100
AcDbMText
 10
171.0016381545888
 20
211.4728669478691
 30
0.0
 40
3.0
 41
0.0
 71
     1
 72
     1
  1

  7
DAYUS
 73
     1
 44
1.0
1001
ACAD
1000
MTEXTBEGIN
1070
    73
1070
     1
1070
    44
1040
1.0
1070
    74
1070
     0
1000
MTEXTEND
  0
MTEXT
  5
9C8
330
2
100
AcDbEntity
  8
DIM
100
AcDbMText
 10
395.9238044175249
 20
214.0436425362303
 30
0.0
 40
3.0
 41
0.0
 71
     1
 72
     1
  1

  7
DAYUS
 73
     1
 44
1.0
1001
ACAD
1000
MTEXTBEGIN
1070
    73
1070
     1
1070
    44
1040
1.0
1070
    74
1070
     0
1000
MTEXTEND
  0
MTEXT
  5
9CE
330
2
100
AcDbEntity
  8
DIM
100
AcDbMText
 10
451.7751899652814
 20
173.9181305121135
 30
0.0
 40
3.0
 41
0.0
 71
     1
 72
     1
  1

  7
DAYUS
 73
     1
 44
1.0
1001
ACAD
1000
MTEXTBEGIN
1070
    73
1070
     1
1070
    44
1040
1.0
1070
    74
1070
     0
1000
MTEXTEND
  0
MTEXT
  5
9D0
330
2
100
AcDbEntity
  8
DIM
100
AcDbMText
 10
259.9703903886596
 20
176.2910840214814
 30
0.0
 40
3.0
 41
0.0
 71
     9
 72
     1
  1

  7
DAYUS
 73
     1
 44
1.0
1001
ACAD
1000
MTEXTBEGIN
1070
    73
1070
     1
1070
    44
1040
1.0
1070
    74
1070
     0
1000
MTEXTEND
  0
MTEXT
  5
9D4
330
2
100
AcDbEntity
  8
DIM
100
AcDbMText
 10
392.9133010604914
 20
171.5405871675761
 30
0.0
 40
3.0
 41
0.0
 71
     1
 72
     1
  1

  7
DAYUS
 73
     1
 44
1.0
1001
ACAD
1000
MTEXTBEGIN
1070
    73
1070
     1
1070
    44
1040
1.0
1070
    74
1070
     0
1000
MTEXTEND
  0
MTEXT
  5
158C
330
2
100
AcDbEntity
  8
DIM
100
AcDbMText
 10
110.8318657981983
 20
-15.08812259434717
 30
0.0
 40
3.0
 41
0.0
 71
     9
 72
     1
  1

  7
DAYUS
 73
     1
 44
1.0
1001
ACAD
1000
MTEXTBEGIN
1070
    73
1070
     1
1070
    44
1040
1.0
1070
    74
1070
     0
1000
MTEXTEND
  0
MTEXT
  5
158F
330
2
100
AcDbEntity
  8
DIM
100
AcDbMText
 10
119.2699599670356
 20
34.7510220230256
 30
0.0
 40
3.0
 41
0.0
 71
     9
 72
     1
  1

  7
DAYUS
 73
     1
 44
1.0
1001
ACAD
1000
MTEXTBEGIN
1070
    73
1070
     1
1070
    44
1040
1.0
1070
    74
1070
     0
1000
MTEXTEND
  0
MTEXT
  5
1591
330
2
100
AcDbEntity
  8
DIM
100
AcDbMText
 10
189.5967930303953
 20
-13.46778498091794
 30
0.0
 40
3.0
 41
0.0
 71
     1
 72
     1
  1

  7
DAYUS
 73
     1
 44
1.0
1001
ACAD
1000
MTEXTBEGIN
1070
    73
1070
     1
1070
    44
1040
1.0
1070
    74
1070
     0
1000
MTEXTEND
  0
MTEXT
  5
1598
330
2
100
AcDbEntity
  8
DIM
100
AcDbMText
 10
90.58412912106287
 20
-25.41282672788975
 30
0.0
 40
3.0
 41
0.0
 71
     9
 72
     1
  1

  7
DAYUS
 73
     1
 44
1.0
1001
ACAD
1000
MTEXTBEGIN
1070
    73
1070
     1
1070
    44
1040
1.0
1070
    74
1070
     0
1000
MTEXTEND
  0
MTEXT
  5
159A
330
2
100
AcDbEntity
  8
DIM
100
AcDbMText
 10
208.5571760105661
 20
-51.68695673963509
 30
0.0
 40
3.0
 41
0.0
 71
     1
 72
     1
  1

  7
DAYUS
 73
     1
 44
1.0
1001
ACAD
1000
MTEXTBEGIN
1070
    73
1070
     1
1070
    44
1040
1.0
1070
    74
1070
     0
1000
MTEXTEND
  0
MTEXT
  5
159D
330
2
100
AcDbEntity
  8
DIM
100
AcDbMText
 10
99.56138925954311
 20
147.6387806501056
 30
0.0
 40
3.0
 41
0.0
 71
     9
 72
     1
  1

  7
DAYUS
 73
     1
 44
1.0
1001
ACAD
1000
MTEXTBEGIN
1070
    73
1070
     1
1070
    44
1040
1.0
1070
    74
1070
     0
1000
MTEXTEND
  0
MTEXT
  5
159F
330
2
100
AcDbEntity
  8
DIM
100
AcDbMText
 10
304.2962861880261
 20
161.94800970186
 30
0.0
 40
3.0
 41
0.0
 71
     9
 72
     1
  1

  7
DAYUS
 73
     1
 44
1.0
1001
ACAD
1000
MTEXTBEGIN
1070
    73
1070
     1
1070
    44
1040
1.0
1070
    74
1070
     0
1000
MTEXTEND
  0
MTEXT
  5
15A2
330
2
100
AcDbEntity
  8
DIM
100
AcDbMText
 10
43.89870096097361
 20
-23.29567037714901
 30
0.0
 40
3.0
 41
0.0
 71
     9
 72
     1
  1

  7
DAYUS
 73
     1
 44
1.0
1001
ACAD
1000
MTEXTBEGIN
1070
    73
1070
     1
1070
    44
1040
1.0
1070
    74
1070
     0
1000
MTEXTEND
  0
MTEXT
  5
1ECC
330
2
100
AcDbEntity
  8
DIM
100
AcDbMText
 10
386.6447020568979
 20
28.34246059625048
 30
0.0
 40
3.0
 41
0.0
 71
     1
 72
     1
  1

  7
DAYUS
 73
     1
 44
1.0
1001
ACAD
1000
MTEXTBEGIN
1070
    73
1070
     1
1070
    44
1040
1.0
1070
    74
1070
     0
1000
MTEXTEND
  0
MTEXT
  5
1ECE
330
2
100
AcDbEntity
  8
DIM
100
AcDbMText
 10
319.574162593258
 20
28.70880813750205
 30
0.0
 40
3.0
 41
0.0
 71
     9
 72
     1
  1

  7
DAYUS
 73
     1
 44
1.0
1001
ACAD
1000
MTEXTBEGIN
1070
    73
1070
     1
1070
    44
1040
1.0
1070
    74
1070
     0
1000
MTEXTEND
  0
MTEXT
  5
1ED0
330
2
100
AcDbEntity
  8
DIM
100
AcDbMText
 10
378.371508435386
 20
-16.25474400202404
 30
0.0
 40
3.0
 41
0.0
 71
     1
 72
     1
  1

  7
DAYUS
 73
     1
 44
1.0
1001
ACAD
1000
MTEXTBEGIN
1070
    73
1070
     1
1070
    44
1040
1.0
1070
    74
1070
     0
1000
MTEXTEND
  0
MTEXT
  5
1ED2
330
2
100
AcDbEntity
  8
DIM
100
AcDbMText
 10
252.8508589257123
 20
-19.0290972650472
 30
0.0
 40
3.0
 41
0.0
 71
     9
 72
     1
  1

  7
DAYUS
 73
     1
 44
1.0
1001
ACAD
1000
MTEXTBEGIN
1070
    73
1070
     1
1070
    44
1040
1.0
1070
    74
1070
     0
1000
MTEXTEND
  0
MTEXT
  5
1ED4
330
2
100
AcDbEntity
  8
DIM
100
AcDbMText
 10
408.0172303915572
 20
-23.72879443427905
 30
0.0
 40
3.0
 41
0.0
 71
     1
 72
     1
  1

  7
DAYUS
 73
     1
 44
1.0
1001
ACAD
1000
MTEXTBEGIN
1070
    73
1070
     1
1070
    44
1040
1.0
1070
    74
1070
     0
1000
MTEXTEND
  0
TEXT
  5
2415
330
2
100
AcDbEntity
  8
LOGO
  6
Continuous
 62
     6
100
AcDbText
 10
725.6097667457372
 20
-105.2238066289788
 30
0.0
 40
2.164502164502164
  1

  7
CHINESET
 72
     4
 11
725.6097667457372
 21
-105.2238066289788
 31
0.0
100
AcDbText
  0
LINE
  5
4695
330
2
100
AcDbEntity
  8
AM_7
 60
     1
100
AcDbLine
 10
821.9829340872449
 20
370.6532985828056
 30
0.0
 11
785.5829340872447
 21
370.6532985828056
 31
0.0
  0
LINE
  5
46DE
330
2
100
AcDbEntity
  8
AM_7
 60
     1
100
AcDbLine
 10
717.3295627225357
 20
370.6532985828056
 30
0.0
 11
720.3295627225356
 21
370.6532985828056
 31
0.0
  0
LINE
  5
46DF
330
2
100
AcDbEntity
  8
AM_7
 60
     1
100
AcDbLine
 10
718.8295627225357
 20
369.1532985828057
 30
0.0
 11
718.8295627225357
 21
372.1532985828056
 31
0.0
  0
LINE
  5
46E0
330
2
100
AcDbEntity
  8
AM_7
 60
     1
100
AcDbLine
 10
709.8295627225357
 20
370.6532985828056
 30
0.0
 11
716.3295627225356
 21
370.6532985828056
 31
0.0
  0
LINE
  5
46E1
330
2
100
AcDbEntity
  8
AM_7
 60
     1
100
AcDbLine
 10
721.3295627225356
 20
370.6532985828056
 30
0.0
 11
727.8295627225356
 21
370.6532985828056
 31
0.0
  0
LINE
  5
46E2
330
2
100
AcDbEntity
  8
AM_7
 60
     1
100
AcDbLine
 10
718.8295627225357
 20
361.6532985828056
 30
0.0
 11
718.8295627225357
 21
368.1532985828056
 31
0.0
  0
LINE
  5
46E3
330
2
100
AcDbEntity
  8
AM_7
 60
     1
100
AcDbLine
 10
718.8295627225357
 20
373.1532985828057
 30
0.0
 11
718.8295627225357
 21
379.6532985828056
 31
0.0
  0
LINE
  5
46E4
330
2
100
AcDbEntity
  8
AM_7
 60
     1
100
AcDbLine
 10
709.0795627225356
 20
362.4032985828056
 30
0.0
 11
712.0795627225357
 21
362.4032985828056
 31
0.0
  0
LINE
  5
46E5
330
2
100
AcDbEntity
  8
AM_7
 60
     1
100
AcDbLine
 10
710.5795627225356
 20
360.9032985828056
 30
0.0
 11
710.5795627225356
 21
363.9032985828056
 31
0.0
  0
LINE
  5
46E6
330
2
100
AcDbEntity
  8
AM_7
 60
     1
100
AcDbLine
 10
706.8142627225356
 20
362.4032985828056
 30
0.0
 11
708.0795627225357
 21
362.4032985828056
 31
0.0
  0
LINE
  5
46E7
330
2
100
AcDbEntity
  8
AM_7
 60
     1
100
AcDbLine
 10
713.0795627225356
 20
362.4032985828056
 30
0.0
 11
714.3448627225356
 21
362.4032985828056
 31
0.0
  0
LINE
  5
46E8
330
2
100
AcDbEntity
  8
AM_7
 60
     1
100
AcDbLine
 10
710.5795627225356
 20
358.6379985828056
 30
0.0
 11
710.5795627225356
 21
359.9032985828056
 31
0.0
  0
LINE
  5
46E9
330
2
100
AcDbEntity
  8
AM_7
 60
     1
100
AcDbLine
 10
710.5795627225356
 20
364.9032985828057
 30
0.0
 11
710.5795627225356
 21
366.1685985828057
 31
0.0
  0
LINE
  5
46EA
330
2
100
AcDbEntity
  8
AM_7
 60
     1
100
AcDbLine
 10
725.5795627225356
 20
362.4032985828056
 30
0.0
 11
728.5795627225357
 21
362.4032985828056
 31
0.0
  0
LINE
  5
46EB
330
2
100
AcDbEntity
  8
AM_7
 60
     1
100
AcDbLine
 10
727.0795627225356
 20
360.9032985828056
 30
0.0
 11
727.0795627225356
 21
363.9032985828056
 31
0.0
  0
LINE
  5
46EC
330
2
100
AcDbEntity
  8
AM_7
 60
     1
100
AcDbLine
 10
723.3142627225356
 20
362.4032985828056
 30
0.0
 11
724.5795627225357
 21
362.4032985828056
 31
0.0
  0
LINE
  5
46ED
330
2
100
AcDbEntity
  8
AM_7
 60
     1
100
AcDbLine
 10
729.5795627225357
 20
362.4032985828056
 30
0.0
 11
730.8448627225356
 21
362.4032985828056
 31
0.0
  0
LINE
  5
46EE
330
2
100
AcDbEntity
  8
AM_7
 60
     1
100
AcDbLine
 10
727.0795627225356
 20
358.6379985828056
 30
0.0
 11
727.0795627225356
 21
359.9032985828056
 31
0.0
  0
LINE
  5
46EF
330
2
100
AcDbEntity
  8
AM_7
 60
     1
100
AcDbLine
 10
727.0795627225356
 20
364.9032985828057
 30
0.0
 11
727.0795627225356
 21
366.1685985828057
 31
0.0
  0
LINE
  5
46F0
330
2
100
AcDbEntity
  8
AM_7
 60
     1
100
AcDbLine
 10
725.5795627225356
 20
378.9032985828056
 30
0.0
 11
728.5795627225357
 21
378.9032985828056
 31
0.0
  0
LINE
  5
46F1
330
2
100
AcDbEntity
  8
AM_7
 60
     1
100
AcDbLine
 10
727.0795627225356
 20
377.4032985828057
 30
0.0
 11
727.0795627225356
 21
380.4032985828056
 31
0.0
  0
LINE
  5
46F2
330
2
100
AcDbEntity
  8
AM_7
 60
     1
100
AcDbLine
 10
723.3142627225356
 20
378.9032985828056
 30
0.0
 11
724.5795627225357
 21
378.9032985828056
 31
0.0
  0
LINE
  5
46F3
330
2
100
AcDbEntity
  8
AM_7
 60
     1
100
AcDbLine
 10
729.5795627225357
 20
378.9032985828056
 30
0.0
 11
730.8448627225356
 21
378.9032985828056
 31
0.0
  0
LINE
  5
46F4
330
2
100
AcDbEntity
  8
AM_7
 60
     1
100
AcDbLine
 10
727.0795627225356
 20
375.1379985828056
 30
0.0
 11
727.0795627225356
 21
376.4032985828056
 31
0.0
  0
LINE
  5
46F5
330
2
100
AcDbEntity
  8
AM_7
 60
     1
100
AcDbLine
 10
727.0795627225356
 20
381.4032985828056
 30
0.0
 11
727.0795627225356
 21
382.6685985828057
 31
0.0
  0
LINE
  5
46F6
330
2
100
AcDbEntity
  8
AM_7
 60
     1
100
AcDbLine
 10
709.0795627225356
 20
378.9032985828056
 30
0.0
 11
712.0795627225357
 21
378.9032985828056
 31
0.0
  0
LINE
  5
46F7
330
2
100
AcDbEntity
  8
AM_7
 60
     1
100
AcDbLine
 10
710.5795627225356
 20
377.4032985828057
 30
0.0
 11
710.5795627225356
 21
380.4032985828056
 31
0.0
  0
LINE
  5
46F8
330
2
100
AcDbEntity
  8
AM_7
 60
     1
100
AcDbLine
 10
706.8142627225356
 20
378.9032985828056
 30
0.0
 11
708.0795627225357
 21
378.9032985828056
 31
0.0
  0
LINE
  5
46F9
330
2
100
AcDbEntity
  8
AM_7
 60
     1
100
AcDbLine
 10
713.0795627225356
 20
378.9032985828056
 30
0.0
 11
714.3448627225356
 21
378.9032985828056
 31
0.0
  0
LINE
  5
46FA
330
2
100
AcDbEntity
  8
AM_7
 60
     1
100
AcDbLine
 10
710.5795627225356
 20
375.1379985828056
 30
0.0
 11
710.5795627225356
 21
376.4032985828056
 31
0.0
  0
LINE
  5
46FB
330
2
100
AcDbEntity
  8
AM_7
 60
     1
100
AcDbLine
 10
710.5795627225356
 20
381.4032985828056
 30
0.0
 11
710.5795627225356
 21
382.6685985828057
 31
0.0
  0
MTEXT
  5
5255
330
2
100
AcDbEntity
  8
DIM
100
AcDbMText
 10
425.4771973450544
 20
385.6437927217159
 30
0.0
 40
3.0
 41
0.0
 71
     9
 72
     1
  1

  7
DAYUS
 73
     1
 44
1.0
1001
ACAD
1000
MTEXTBEGIN
1070
    73
1070
     1
1070
    44
1040
1.0
1070
    74
1070
     0
1000
MTEXTEND
  0
MTEXT
  5
55B3
330
2
100
AcDbEntity
  8
DIM
100
AcDbMText
 10
337.3922889508355
 20
381.3937824807733
 30
0.0
 40
3.0
 41
0.0
 71
     9
 72
     1
  1

  7
DAYUS
 73
     1
 44
1.0
1001
ACAD
1000
MTEXTBEGIN
1070
    73
1070
     1
1070
    44
1040
1.0
1070
    74
1070
     0
1000
MTEXTEND
  0
MTEXT
  5
55B5
330
2
100
AcDbEntity
  8
DIM
100
AcDbMText
 10
464.3020910635148
 20
395.4959283372091
 30
0.0
 40
3.0
 41
0.0
 71
     1
 72
     1
  1

  7
DAYUS
 73
     1
 44
1.0
1001
ACAD
1000
MTEXTBEGIN
1070
    73
1070
     1
1070
    44
1040
1.0
1070
    74
1070
     0
1000
MTEXTEND
  0
MTEXT
  5
55B7
330
2
100
AcDbEntity
  8
DIM
100
AcDbMText
 10
497.4191386176732
 20
388.3459056991758
 30
0.0
 40
3.0
 41
0.0
 71
     9
 72
     1
  1

  7
DAYUS
 73
     1
 44
1.0
1001
ACAD
1000
MTEXTBEGIN
1070
    73
1070
     1
1070
    44
1040
1.0
1070
    74
1070
     0
1000
MTEXTEND
  0
MTEXT
  5
55B9
330
2
100
AcDbEntity
  8
DIM
100
AcDbMText
 10
551.0659257174618
 20
385.0690272050015
 30
0.0
 40
3.0
 41
0.0
 71
     1
 72
     1
  1

  7
DAYUS
 73
     1
 44
1.0
1001
ACAD
1000
MTEXTBEGIN
1070
    73
1070
     1
1070
    44
1040
1.0
1070
    74
1070
     0
1000
MTEXTEND
  0
MTEXT
  5
55BB
330
2
100
AcDbEntity
  8
DIM
100
AcDbMText
 10
536.2490338467599
 20
355.9566858156474
 30
0.0
 40
3.0
 41
0.0
 71
     1
 72
     1
  1

  7
DAYUS
 73
     1
 44
1.0
1001
ACAD
1000
MTEXTBEGIN
1070
    73
1070
     1
1070
    44
1040
1.0
1070
    74
1070
     0
1000
MTEXTEND
  0
MTEXT
  5
55BE
330
2
100
AcDbEntity
  8
DIM
100
AcDbMText
 10
630.4343546649713
 20
392.9941675949847
 30
0.0
 40
3.0
 41
0.0
 71
     1
 72
     1
  1

  7
DAYUS
 73
     1
 44
1.0
1001
ACAD
1000
MTEXTBEGIN
1070
    73
1070
     1
1070
    44
1040
1.0
1070
    74
1070
     0
1000
MTEXTEND
  0
MTEXT
  5
5818
330
2
100
AcDbEntity
  8
DIM
100
AcDbMText
 10
674.2365354058436
 20
381.9223807155993
 30
0.0
 40
3.0
 41
0.0
 71
     9
 72
     1
  1

  7
DAYUS
 73
     1
 44
1.0
1001
ACAD
1000
MTEXTBEGIN
1070
    73
1070
     1
1070
    44
1040
1.0
1070
    74
1070
     0
1000
MTEXTEND
  0
MTEXT
  5
581A
330
2
100
AcDbEntity
  8
DIM
100
AcDbMText
 10
809.5660606680956
 20
394.5445933493984
 30
0.0
 40
3.0
 41
0.0
 71
     1
 72
     1
  1

  7
DAYUS
 73
     1
 44
1.0
1001
ACAD
1000
MTEXTBEGIN
1070
    73
1070
     1
1070
    44
1040
1.0
1070
    74
1070
     0
1000
MTEXTEND
  0
MTEXT
  5
581C
330
2
100
AcDbEntity
  8
DIM
100
AcDbMText
 10
888.0882125058304
 20
352.3853584481396
 30
0.0
 40
3.0
 41
0.0
 71
     1
 72
     1
  1

  7
DAYUS
 73
     1
 44
1.0
1001
ACAD
1000
MTEXTBEGIN
1070
    73
1070
     1
1070
    44
1040
1.0
1070
    74
1070
     0
1000
MTEXTEND
  0
MTEXT
  5
581E
330
2
100
AcDbEntity
  8
DIM
100
AcDbMText
 10
841.6122928642023
 20
381.4409665153828
 30
0.0
 40
3.0
 41
0.0
 71
     9
 72
     1
  1

  7
DAYUS
 73
     1
 44
1.0
1001
ACAD
1000
MTEXTBEGIN
1070
    73
1070
     1
1070
    44
1040
1.0
1070
    74
1070
     0
1000
MTEXTEND
  0
MTEXT
  5
5820
330
2
100
AcDbEntity
  8
DIM
100
AcDbMText
 10
905.1656554192106
 20
381.7631554776815
 30
0.0
 40
3.0
 41
0.0
 71
     1
 72
     1
  1

  7
DAYUS
 73
     1
 44
1.0
1001
ACAD
1000
MTEXTBEGIN
1070
    73
1070
     1
1070
    44
1040
1.0
1070
    74
1070
     0
1000
MTEXTEND
  0
MTEXT
  5
5823
330
2
100
AcDbEntity
  8
DIM
100
AcDbMText
 10
981.8056800376997
 20
387.8743827474727
 30
0.0
 40
3.0
 41
0.0
 71
     1
 72
     1
  1

  7
DAYUS
 73
     1
 44
1.0
1001
ACAD
1000
MTEXTBEGIN
1070
    73
1070
     1
1070
    44
1040
1.0
1070
    74
1070
     0
1000
MTEXTEND
  0
MTEXT
  5
5825
330
2
100
AcDbEntity
  8
DIM
100
AcDbMText
 10
630.3069158966652
 20
392.3413846481697
 30
0.0
 40
3.0
 41
0.0
 71
     1
 72
     1
  1

  7
DAYUS
 73
     1
 44
1.0
1001
ACAD
1000
MTEXTBEGIN
1070
    73
1070
     1
1070
    44
1040
1.0
1070
    74
1070
     0
1000
MTEXTEND
  0
MTEXT
  5
5BAB
330
2
100
AcDbEntity
  8
DIM
100
AcDbMText
 10
684.8805297782558
 20
338.1595951305617
 30
0.0
 40
3.0
 41
0.0
 71
     9
 72
     1
  1

  7
DAYUS
 73
     1
 44
1.0
1001
ACAD
1000
MTEXTBEGIN
1070
    73
1070
     1
1070
    44
1040
1.0
1070
    74
1070
     0
1000
MTEXTEND
  0
MTEXT
  5
5BAD
330
2
100
AcDbEntity
  8
DIM
100
AcDbMText
 10
830.0252386234504
 20
355.9987340734346
 30
0.0
 40
3.0
 41
0.0
 71
     1
 72
     1
  1

  7
DAYUS
 73
     1
 44
1.0
1001
ACAD
1000
MTEXTBEGIN
1070
    73
1070
     1
1070
    44
1040
1.0
1070
    74
1070
     0
1000
MTEXTEND
  0
MTEXT
  5
5BAF
330
2
100
AcDbEntity
  8
DIM
100
AcDbMText
 10
866.9398601322594
 20
342.7022485991038
 30
0.0
 40
3.0
 41
0.0
 71
     9
 72
     1
  1

  7
DAYUS
 73
     1
 44
1.0
1001
ACAD
1000
MTEXTBEGIN
1070
    73
1070
     1
1070
    44
1040
1.0
1070
    74
1070
     0
1000
MTEXTEND
  0
MTEXT
  5
5BB1
330
2
100
AcDbEntity
  8
DIM
100
AcDbMText
 10
914.1167593491697
 20
312.0125777437993
 30
0.0
 40
3.0
 41
0.0
 71
     1
 72
     1
  1

  7
DAYUS
 73
     1
 44
1.0
1001
ACAD
1000
MTEXTBEGIN
1070
    73
1070
     1
1070
    44
1040
1.0
1070
    74
1070
     0
1000
MTEXTEND
  0
MTEXT
  5
5BB3
330
2
100
AcDbEntity
  8
DIM
100
AcDbMText
 10
928.3641264699406
 20
344.1897799651356
 30
0.0
 40
3.0
 41
0.0
 71
     1
 72
     1
  1

  7
DAYUS
 73
     1
 44
1.0
1001
ACAD
1000
MTEXTBEGIN
1070
    73
1070
     1
1070
    44
1040
1.0
1070
    74
1070
     0
1000
MTEXTEND
  0
MTEXT
  5
5BB5
330
2
100
AcDbEntity
  8
DIM
100
AcDbMText
 10
1013.024197505859
 20
347.9904155724335
 30
0.0
 40
3.0
 41
0.0
 71
     1
 72
     1
  1

  7
DAYUS
 73
     1
 44
1.0
1001
ACAD
1000
MTEXTBEGIN
1070
    73
1070
     1
1070
    44
1040
1.0
1070
    74
1070
     0
1000
MTEXTEND
  0
MTEXT
  5
5D19
330
2
100
AcDbEntity
  8
DIM
100
AcDbMText
 10
1132.296897199865
 20
137.4323107276391
 30
0.0
 40
3.0
 41
0.0
 71
     9
 72
     1
  1

  7
DAYUS
 73
     1
 44
1.0
1001
ACAD
1000
MTEXTBEGIN
1070
    73
1070
     1
1070
    44
1040
1.0
1070
    74
1070
     0
1000
MTEXTEND
  0
MTEXT
  5
5D1B
330
2
100
AcDbEntity
  8
DIM
100
AcDbMText
 10
1287.262763063576
 20
157.1269881484054
 30
0.0
 40
3.0
 41
0.0
 71
     1
 72
     1
  1

  7
DAYUS
 73
     1
 44
1.0
1001
ACAD
1000
MTEXTBEGIN
1070
    73
1070
     1
1070
    44
1040
1.0
1070
    74
1070
     0
1000
MTEXTEND
  0
MTEXT
  5
5D1D
330
2
100
AcDbEntity
  8
DIM
100
AcDbMText
 10
1330.112480616849
 20
142.7720950737402
 30
0.0
 40
3.0
 41
0.0
 71
     9
 72
     1
  1

  7
DAYUS
 73
     1
 44
1.0
1001
ACAD
1000
MTEXTBEGIN
1070
    73
1070
     1
1070
    44
1040
1.0
1070
    74
1070
     0
1000
MTEXTEND
  0
MTEXT
  5
5D1F
330
2
100
AcDbEntity
  8
DIM
100
AcDbMText
 10
1386.41599530958
 20
103.2245127401093
 30
0.0
 40
3.0
 41
0.0
 71
     1
 72
     1
  1

  7
DAYUS
 73
     1
 44
1.0
1001
ACAD
1000
MTEXTBEGIN
1070
    73
1070
     1
1070
    44
1040
1.0
1070
    74
1070
     0
1000
MTEXTEND
  0
MTEXT
  5
5D21
330
2
100
AcDbEntity
  8
DIM
100
AcDbMText
 10
1399.467586840553
 20
144.5024959794691
 30
0.0
 40
3.0
 41
0.0
 71
     1
 72
     1
  1

  7
DAYUS
 73
     1
 44
1.0
1001
ACAD
1000
MTEXTBEGIN
1070
    73
1070
     1
1070
    44
1040
1.0
1070
    74
1070
     0
1000
MTEXTEND
  0
MTEXT
  5
5D24
330
2
100
AcDbEntity
  8
DIM
100
AcDbMText
 10
1488.579011607569
 20
148.6537444685686
 30
0.0
 40
3.0
 41
0.0
 71
     1
 72
     1
  1

  7
DAYUS
 73
     1
 44
1.0
1001
ACAD
1000
MTEXTBEGIN
1070
    73
1070
     1
1070
    44
1040
1.0
1070
    74
1070
     0
1000
MTEXTEND
  0
MTEXT
  5
5E8E
330
2
100
AcDbEntity
  8
DIM
100
AcDbMText
 10
658.928637628099
 20
-79.58414497709418
 30
0.0
 40
3.0
 41
0.0
 71
     9
 72
     1
  1

  7
DAYUS
 73
     1
 44
1.0
1001
ACAD
1000
MTEXTBEGIN
1070
    73
1070
     1
1070
    44
1040
1.0
1070
    74
1070
     0
1000
MTEXTEND
  0
MTEXT
  5
5E90
330
2
100
AcDbEntity
  8
DIM
100
AcDbMText
 10
842.7524841695728
 20
-54.74642897263265
 30
0.0
 40
3.0
 41
0.0
 71
     1
 72
     1
  1

  7
DAYUS
 73
     1
 44
1.0
1001
ACAD
1000
MTEXTBEGIN
1070
    73
1070
     1
1070
    44
1040
1.0
1070
    74
1070
     0
1000
MTEXTEND
  0
MTEXT
  5
5E92
330
2
100
AcDbEntity
  8
DIM
100
AcDbMText
 10
894.8077202077158
 20
-74.48212912349254
 30
0.0
 40
3.0
 41
0.0
 71
     9
 72
     1
  1

  7
DAYUS
 73
     1
 44
1.0
1001
ACAD
1000
MTEXTBEGIN
1070
    73
1070
     1
1070
    44
1040
1.0
1070
    74
1070
     0
1000
MTEXTEND
  0
MTEXT
  5
5E94
330
2
100
AcDbEntity
  8
DIM
100
AcDbMText
 10
962.0232820996996
 20
-118.8582107879997
 30
0.0
 40
3.0
 41
0.0
 71
     1
 72
     1
  1

  7
DAYUS
 73
     1
 44
1.0
1001
ACAD
1000
MTEXTBEGIN
1070
    73
1070
     1
1070
    44
1040
1.0
1070
    74
1070
     0
1000
MTEXTEND
  0
MTEXT
  5
5E96
330
2
100
AcDbEntity
  8
DIM
100
AcDbMText
 10
973.0410095899967
 20
-68.50784959554267
 30
0.0
 40
3.0
 41
0.0
 71
     1
 72
     1
  1

  7
DAYUS
 73
     1
 44
1.0
1001
ACAD
1000
MTEXTBEGIN
1070
    73
1070
     1
1070
    44
1040
1.0
1070
    74
1070
     0
1000
MTEXTEND
  0
MTEXT
  5
5E99
330
2
100
AcDbEntity
  8
DIM
100
AcDbMText
 10
1085.7340529482
 20
-65.46466959922986
 30
0.0
 40
3.0
 41
0.0
 71
     1
 72
     1
  1

  7
DAYUS
 73
     1
 44
1.0
1001
ACAD
1000
MTEXTBEGIN
1070
    73
1070
     1
1070
    44
1040
1.0
1070
    74
1070
     0
1000
MTEXTEND
  0
MTEXT
  5
5FD8
330
2
100
AcDbEntity
  8
DIM
100
AcDbMText
 10
633.7072948690917
 20
-502.7427877496786
 30
0.0
 40
3.0
 41
0.0
 71
     9
 72
     1
  1

  7
DAYUS
 73
     1
 44
1.0
1001
ACAD
1000
MTEXTBEGIN
1070
    73
1070
     1
1070
    44
1040
1.0
1070
    74
1070
     0
1000
MTEXTEND
  0
MTEXT
  5
5FDA
330
2
100
AcDbEntity
  8
DIM
100
AcDbMText
 10
827.0953012499091
 20
-475.7102669926271
 30
0.0
 40
3.0
 41
0.0
 71
     1
 72
     1
  1

  7
DAYUS
 73
     1
 44
1.0
1001
ACAD
1000
MTEXTBEGIN
1070
    73
1070
     1
1070
    44
1040
1.0
1070
    74
1070
     0
1000
MTEXTEND
  0
MTEXT
  5
5FDC
330
2
100
AcDbEntity
  8
DIM
100
AcDbMText
 10
882.8280559962202
 20
-495.8443240051528
 30
0.0
 40
3.0
 41
0.0
 71
     9
 72
     1
  1

  7
DAYUS
 73
     1
 44
1.0
1001
ACAD
1000
MTEXTBEGIN
1070
    73
1070
     1
1070
    44
1040
1.0
1070
    74
1070
     0
1000
MTEXTEND
  0
MTEXT
  5
5FDE
330
2
100
AcDbEntity
  8
DIM
100
AcDbMText
 10
948.0591214104412
 20
-547.2299946926262
 30
0.0
 40
3.0
 41
0.0
 71
     1
 72
     1
  1

  7
DAYUS
 73
     1
 44
1.0
1001
ACAD
1000
MTEXTBEGIN
1070
    73
1070
     1
1070
    44
1040
1.0
1070
    74
1070
     0
1000
MTEXTEND
  0
MTEXT
  5
5FE0
330
2
100
AcDbEntity
  8
DIM
100
AcDbMText
 10
957.8725249226929
 20
-495.3335721753492
 30
0.0
 40
3.0
 41
0.0
 71
     1
 72
     1
  1

  7
DAYUS
 73
     1
 44
1.0
1001
ACAD
1000
MTEXTBEGIN
1070
    73
1070
     1
1070
    44
1040
1.0
1070
    74
1070
     0
1000
MTEXTEND
  0
LINE
  5
BB25
330
2
100
AcDbEntity
  8
AM_HID
  6
DASHED
100
AcDbLine
 10
1176.753146637925
 20
784.1882897476051
 30
0.0
 11
1176.764957661547
 21
784.2001007712272
 31
0.0
  0
LINE
  5
BB26
330
2
100
AcDbEntity
  8
AM_HID
  6
DASHED
100
AcDbLine
 10
1176.753146637925
 20
783.8369117948492
 30
0.0
 11
1176.764957661547
 21
783.8251007712272
 31
0.0
  0
LINE
  5
BB27
330
2
100
AcDbEntity
  8
AM_HID
  6
DASHED
100
AcDbLine
 10
1177.273776559185
 20
783.8251007712272
 30
0.0
 11
1176.764957661547
 21
783.8251007712272
 31
0.0
  0
LINE
  5
BB28
330
2
100
AcDbEntity
  8
AM_HID
  6
DASHED
100
AcDbLine
 10
1177.273776559185
 20
784.2001007712272
 30
0.0
 11
1176.764957661547
 21
784.2001007712272
 31
0.0
  0
LINE
  5
BB29
330
2
100
AcDbEntity
  8
AM_HID
  6
DASHED
100
AcDbLine
 10
1174.943146637925
 20
783.8369117948492
 30
0.0
 11
1174.931335614303
 21
783.8251007712272
 31
0.0
  0
LINE
  5
BB2A
330
2
100
AcDbEntity
  8
AM_HID
  6
DASHED
100
AcDbLine
 10
1174.943146637925
 20
784.1882897476051
 30
0.0
 11
1174.931335614303
 21
784.2001007712272
 31
0.0
  0
LINE
  5
BB2B
330
2
100
AcDbEntity
  8
AM_HID
  6
DASHED
100
AcDbLine
 10
1174.352516716665
 20
784.2001007712272
 30
0.0
 11
1174.931335614303
 21
784.2001007712272
 31
0.0
  0
LINE
  5
BB2C
330
2
100
AcDbEntity
  8
AM_HID
  6
DASHED
100
AcDbLine
 10
1174.352516716665
 20
783.8251007712272
 30
0.0
 11
1174.931335614303
 21
783.8251007712272
 31
0.0
  0
LINE
  5
BB2D
330
2
100
AcDbEntity
  8
AM_HID
  6
DASHED
100
AcDbLine
 10
1177.313146637925
 20
783.8644708499673
 30
0.0
 11
1177.273776559185
 21
783.8251007712272
 31
0.0
  0
LINE
  5
BB2E
330
2
100
AcDbEntity
  8
AM_HID
  6
DASHED
100
AcDbLine
 10
1177.313146637925
 20
784.1607306924871
 30
0.0
 11
1177.273776559185
 21
784.2001007712272
 31
0.0
  0
LINE
  5
BB2F
330
2
100
AcDbEntity
  8
AM_HID
  6
DASHED
100
AcDbLine
 10
1174.313146637925
 20
784.1607306924871
 30
0.0
 11
1174.352516716665
 21
784.2001007712272
 31
0.0
  0
LINE
  5
BB30
330
2
100
AcDbEntity
  8
AM_HID
  6
DASHED
100
AcDbLine
 10
1174.313146637925
 20
783.8644708499673
 30
0.0
 11
1174.352516716665
 21
783.8251007712272
 31
0.0
  0
LINE
  5
BB31
330
2
100
AcDbEntity
  8
AM_HID
  6
DASHED
100
AcDbLine
 10
1176.753146637925
 20
783.8387818735894
 30
0.0
 11
1176.73519388202
 21
783.8387818735894
 31
0.0
  0
LINE
  5
BB32
330
2
100
AcDbEntity
  8
AM_VIS
100
AcDbLine
 10
1176.73519388202
 20
783.8387818735894
 30
0.0
 11
1175.23519388202
 21
783.8387818735894
 31
0.0
  0
LINE
  5
BB33
330
2
100
AcDbEntity
  8
AM_HID
  6
DASHED
100
AcDbLine
 10
1175.23519388202
 20
783.8387818735894
 30
0.0
 11
1174.943146637925
 21
783.8387818735894
 31
0.0
  0
LINE
  5
BB34
330
2
100
AcDbEntity
  8
AM_HID
  6
DASHED
100
AcDbLine
 10
1176.753146637925
 20
784.186419668865
 30
0.0
 11
1176.73519388202
 21
784.186419668865
 31
0.0
  0
LINE
  5
BB35
330
2
100
AcDbEntity
  8
AM_VIS
100
AcDbLine
 10
1176.73519388202
 20
784.186419668865
 30
0.0
 11
1175.23519388202
 21
784.186419668865
 31
0.0
  0
LINE
  5
BB36
330
2
100
AcDbEntity
  8
AM_HID
  6
DASHED
100
AcDbLine
 10
1175.23519388202
 20
784.186419668865
 30
0.0
 11
1174.943146637925
 21
784.186419668865
 31
0.0
  0
LINE
  5
BB37
330
2
100
AcDbEntity
  8
AM_HID
  6
DASHED
100
AcDbLine
 10
1176.753146637925
 20
783.8369117948492
 30
0.0
 11
1176.753146637925
 21
784.0126007712272
 31
0.0
  0
LINE
  5
BB38
330
2
100
AcDbEntity
  8
AM_HID
  6
DASHED
100
AcDbLine
 10
1176.753146637925
 20
784.0126007712272
 30
0.0
 11
1176.753146637925
 21
784.1882897476051
 31
0.0
  0
LINE
  5
BB39
330
2
100
AcDbEntity
  8
AM_HID
  6
DASHED
100
AcDbLine
 10
1176.764957661547
 20
784.2001007712272
 30
0.0
 11
1176.764957661547
 21
784.0126007712272
 31
0.0
  0
LINE
  5
BB3A
330
2
100
AcDbEntity
  8
AM_HID
  6
DASHED
100
AcDbLine
 10
1176.764957661547
 20
784.0126007712272
 30
0.0
 11
1176.764957661547
 21
783.8251007712272
 31
0.0
  0
LINE
  5
BB3B
330
2
100
AcDbEntity
  8
AM_HID
  6
DASHED
100
AcDbLine
 10
1177.273776559185
 20
783.8251007712272
 30
0.0
 11
1177.273776559185
 21
784.0126007712272
 31
0.0
  0
LINE
  5
BB3C
330
2
100
AcDbEntity
  8
AM_HID
  6
DASHED
100
AcDbLine
 10
1177.273776559185
 20
784.0126007712272
 30
0.0
 11
1177.273776559185
 21
784.2001007712272
 31
0.0
  0
LINE
  5
BB3D
330
2
100
AcDbEntity
  8
AM_HID
  6
DASHED
100
AcDbLine
 10
1174.943146637925
 20
784.1882897476051
 30
0.0
 11
1174.943146637925
 21
784.0126007712272
 31
0.0
  0
LINE
  5
BB3E
330
2
100
AcDbEntity
  8
AM_HID
  6
DASHED
100
AcDbLine
 10
1174.943146637925
 20
784.0126007712272
 30
0.0
 11
1174.943146637925
 21
783.8369117948492
 31
0.0
  0
LINE
  5
BB3F
330
2
100
AcDbEntity
  8
AM_HID
  6
DASHED
100
AcDbLine
 10
1174.931335614303
 20
783.8251007712272
 30
0.0
 11
1174.931335614303
 21
784.0126007712272
 31
0.0
  0
LINE
  5
BB40
330
2
100
AcDbEntity
  8
AM_HID
  6
DASHED
100
AcDbLine
 10
1174.931335614303
 20
784.0126007712272
 30
0.0
 11
1174.931335614303
 21
784.2001007712272
 31
0.0
  0
LINE
  5
BB41
330
2
100
AcDbEntity
  8
AM_HID
  6
DASHED
100
AcDbLine
 10
1174.352516716665
 20
784.2001007712272
 30
0.0
 11
1174.352516716665
 21
784.0126007712272
 31
0.0
  0
LINE
  5
BB42
330
2
100
AcDbEntity
  8
AM_HID
  6
DASHED
100
AcDbLine
 10
1174.352516716665
 20
784.0126007712272
 30
0.0
 11
1174.352516716665
 21
783.8251007712272
 31
0.0
  0
LINE
  5
BB43
330
2
100
AcDbEntity
  8
AM_HID
  6
DASHED
100
AcDbLine
 10
1177.313146637925
 20
784.1607306924871
 30
0.0
 11
1177.313146637925
 21
784.0126007712272
 31
0.0
  0
LINE
  5
BB44
330
2
100
AcDbEntity
  8
AM_HID
  6
DASHED
100
AcDbLine
 10
1177.313146637925
 20
784.0126007712272
 30
0.0
 11
1177.313146637925
 21
783.8644708499673
 31
0.0
  0
LINE
  5
BB45
330
2
100
AcDbEntity
  8
AM_HID
  6
DASHED
100
AcDbLine
 10
1174.313146637925
 20
783.8644708499673
 30
0.0
 11
1174.313146637925
 21
784.0126007712272
 31
0.0
  0
LINE
  5
BB46
330
2
100
AcDbEntity
  8
AM_HID
  6
DASHED
100
AcDbLine
 10
1174.313146637925
 20
784.0126007712272
 30
0.0
 11
1174.313146637925
 21
784.1607306924871
 31
0.0
  0
LINE
  5
BBB0
330
2
100
AcDbEntity
  8
AM_VIS
100
AcDbLine
 10
1174.54645372602
 20
785.4380614214898
 30
0.0
 11
1174.58582380402
 21
785.4607917466211
 31
0.0
  0
LINE
  5
BBB1
330
2
100
AcDbEntity
  8
AM_VIS
100
AcDbLine
 10
1174.58582380402
 20
785.4607917466211
 30
0.0
 11
1174.62519388202
 21
785.4835220717524
 31
0.0
  0
LINE
  5
BBB2
330
2
100
AcDbEntity
  8
AM_VIS
100
AcDbLine
 10
1174.62519388202
 20
785.4835220717524
 30
0.0
 11
1174.66456396002
 21
785.4607917466211
 31
0.0
  0
LINE
  5
BBB3
330
2
100
AcDbEntity
  8
AM_VIS
100
AcDbLine
 10
1174.66456396002
 20
785.4607917466211
 30
0.0
 11
1174.70393403802
 21
785.4380614214898
 31
0.0
  0
LINE
  5
BBB4
330
2
100
AcDbEntity
  8
AM_VIS
100
AcDbLine
 10
1174.70393403802
 20
785.4380614214898
 30
0.0
 11
1174.70393403802
 21
785.3926007712272
 31
0.0
  0
LINE
  5
BBB5
330
2
100
AcDbEntity
  8
AM_VIS
100
AcDbLine
 10
1174.70393403802
 20
785.3926007712272
 30
0.0
 11
1174.70393403802
 21
785.3471401209645
 31
0.0
  0
LINE
  5
BBB6
330
2
100
AcDbEntity
  8
AM_VIS
100
AcDbLine
 10
1174.66456396002
 20
785.3244097958333
 30
0.0
 11
1174.70393403802
 21
785.3471401209645
 31
0.0
  0
LINE
  5
BBB7
330
2
100
AcDbEntity
  8
AM_VIS
100
AcDbLine
 10
1174.62519388202
 20
785.3016794707019
 30
0.0
 11
1174.66456396002
 21
785.3244097958333
 31
0.0
  0
LINE
  5
BBB8
330
2
100
AcDbEntity
  8
AM_VIS
100
AcDbLine
 10
1174.58582380402
 20
785.3244097958333
 30
0.0
 11
1174.62519388202
 21
785.3016794707019
 31
0.0
  0
LINE
  5
BBB9
330
2
100
AcDbEntity
  8
AM_VIS
100
AcDbLine
 10
1174.54645372602
 20
785.3471401209645
 30
0.0
 11
1174.58582380402
 21
785.3244097958333
 31
0.0
  0
LINE
  5
BBBA
330
2
100
AcDbEntity
  8
AM_VIS
100
AcDbLine
 10
1174.54645372602
 20
785.3926007712272
 30
0.0
 11
1174.54645372602
 21
785.3471401209645
 31
0.0
  0
LINE
  5
BBBB
330
2
100
AcDbEntity
  8
AM_VIS
100
AcDbLine
 10
1174.54645372602
 20
785.4380614214898
 30
0.0
 11
1174.54645372602
 21
785.3926007712272
 31
0.0
  0
ARC
  5
BBBD
330
2
100
AcDbEntity
  8
AM_VIS
100
AcDbCircle
 10
1174.62519388202
 20
785.3926007712272
 30
0.0
 40
0.0787401559999872
100
AcDbArc
 50
180.0
 51
240.0000000000004
  0
ARC
  5
BBBE
330
2
100
AcDbEntity
  8
AM_VIS
100
AcDbCircle
 10
1174.62519388202
 20
785.3926007712272
 30
0.0
 40
0.0787401559999872
100
AcDbArc
 50
240.0000000000004
 51
299.9999999999996
  0
ARC
  5
BBBF
330
2
100
AcDbEntity
  8
AM_VIS
100
AcDbCircle
 10
1174.62519388202
 20
785.3926007712272
 30
0.0
 40
0.0787401559999872
100
AcDbArc
 50
299.9999999999996
 51
0.0
  0
ARC
  5
BBC0
330
2
100
AcDbEntity
  8
AM_VIS
100
AcDbCircle
 10
1174.62519388202
 20
785.3926007712272
 30
0.0
 40
0.0787401559999872
100
AcDbArc
 50
0.0
 51
60.00000000000042
  0
ARC
  5
BBC1
330
2
100
AcDbEntity
  8
AM_VIS
100
AcDbCircle
 10
1174.62519388202
 20
785.3926007712272
 30
0.0
 40
0.0787401559999872
100
AcDbArc
 50
60.00000000000042
 51
119.9999999999995
  0
ARC
  5
BBC2
330
2
100
AcDbEntity
  8
AM_VIS
100
AcDbCircle
 10
1174.62519388202
 20
785.3926007712272
 30
0.0
 40
0.0787401559999872
100
AcDbArc
 50
119.9999999999995
 51
180.0
  0
ARC
  5
BBC5
330
2
100
AcDbEntity
  8
AM_VIS
100
AcDbCircle
 10
1174.62519388202
 20
785.3926007712272
 30
0.0
 40
0.1929133821999688
100
AcDbArc
 50
71.77574398587839
 51
90.0
  0
ARC
  5
BBC7
330
2
100
AcDbEntity
  8
AM_VIS
100
AcDbCircle
 10
1174.62519388202
 20
785.3926007712272
 30
0.0
 40
0.1929133821999688
100
AcDbArc
 50
11.77574398587049
 51
48.22425601414275
  0
ARC
  5
BBC9
330
2
100
AcDbEntity
  8
AM_VIS
100
AcDbCircle
 10
1174.62519388202
 20
785.3926007712272
 30
0.0
 40
0.1929133821999688
100
AcDbArc
 50
311.7757439858613
 51
348.2242560141348
  0
ARC
  5
BBCB
330
2
100
AcDbEntity
  8
AM_VIS
100
AcDbCircle
 10
1174.62519388202
 20
785.3926007712272
 30
0.0
 40
0.1929133821999688
100
AcDbArc
 50
251.7757439858584
 51
288.2242560141248
  0
ARC
  5
BBCD
330
2
100
AcDbEntity
  8
AM_VIS
100
AcDbCircle
 10
1174.62519388202
 20
785.3926007712272
 30
0.0
 40
0.1929133821999688
100
AcDbArc
 50
191.7757439858658
 51
228.2242560141222
  0
ARC
  5
BBCF
330
2
100
AcDbEntity
  8
AM_VIS
100
AcDbCircle
 10
1174.62519388202
 20
785.3926007712272
 30
0.0
 40
0.1929133821999688
100
AcDbArc
 50
131.7757439858756
 51
168.2242560141295
  0
ARC
  5
BBD1
330
2
100
AcDbEntity
  8
AM_VIS
100
AcDbCircle
 10
1174.62519388202
 20
785.3926007712272
 30
0.0
 40
0.1929133821999688
100
AcDbArc
 50
90.0
 51
108.22425601414
  0
LINE
  5
BBD3
330
2
100
AcDbEntity
  8
AM_VIS
100
AcDbLine
 10
1177.26645372602
 20
785.4380614214898
 30
0.0
 11
1177.30582380402
 21
785.4607917466211
 31
0.0
  0
LINE
  5
BBD4
330
2
100
AcDbEntity
  8
AM_VIS
100
AcDbLine
 10
1177.30582380402
 20
785.4607917466211
 30
0.0
 11
1177.34519388202
 21
785.4835220717524
 31
0.0
  0
LINE
  5
BBD5
330
2
100
AcDbEntity
  8
AM_VIS
100
AcDbLine
 10
1177.34519388202
 20
785.4835220717524
 30
0.0
 11
1177.38456396002
 21
785.4607917466211
 31
0.0
  0
LINE
  5
BBD6
330
2
100
AcDbEntity
  8
AM_VIS
100
AcDbLine
 10
1177.38456396002
 20
785.4607917466211
 30
0.0
 11
1177.42393403802
 21
785.4380614214898
 31
0.0
  0
LINE
  5
BBD7
330
2
100
AcDbEntity
  8
AM_VIS
100
AcDbLine
 10
1177.42393403802
 20
785.4380614214898
 30
0.0
 11
1177.42393403802
 21
785.3926007712272
 31
0.0
  0
LINE
  5
BBD8
330
2
100
AcDbEntity
  8
AM_VIS
100
AcDbLine
 10
1177.42393403802
 20
785.3926007712272
 30
0.0
 11
1177.42393403802
 21
785.3471401209645
 31
0.0
  0
LINE
  5
BBD9
330
2
100
AcDbEntity
  8
AM_VIS
100
AcDbLine
 10
1177.38456396002
 20
785.3244097958333
 30
0.0
 11
1177.42393403802
 21
785.3471401209645
 31
0.0
  0
LINE
  5
BBDA
330
2
100
AcDbEntity
  8
AM_VIS
100
AcDbLine
 10
1177.34519388202
 20
785.3016794707019
 30
0.0
 11
1177.38456396002
 21
785.3244097958333
 31
0.0
  0
LINE
  5
BBDB
330
2
100
AcDbEntity
  8
AM_VIS
100
AcDbLine
 10
1177.30582380402
 20
785.3244097958333
 30
0.0
 11
1177.34519388202
 21
785.3016794707019
 31
0.0
  0
LINE
  5
BBDC
330
2
100
AcDbEntity
  8
AM_VIS
100
AcDbLine
 10
1177.26645372602
 20
785.3471401209645
 30
0.0
 11
1177.30582380402
 21
785.3244097958333
 31
0.0
  0
LINE
  5
BBDD
330
2
100
AcDbEntity
  8
AM_VIS
100
AcDbLine
 10
1177.26645372602
 20
785.3926007712272
 30
0.0
 11
1177.26645372602
 21
785.3471401209645
 31
0.0
  0
LINE
  5
BBDE
330
2
100
AcDbEntity
  8
AM_VIS
100
AcDbLine
 10
1177.26645372602
 20
785.4380614214898
 30
0.0
 11
1177.26645372602
 21
785.3926007712272
 31
0.0
  0
ARC
  5
BBE0
330
2
100
AcDbEntity
  8
AM_VIS
100
AcDbCircle
 10
1177.34519388202
 20
785.3926007712272
 30
0.0
 40
0.0787401559999872
100
AcDbArc
 50
180.0
 51
239.9999999999999
  0
ARC
  5
BBE1
330
2
100
AcDbEntity
  8
AM_VIS
100
AcDbCircle
 10
1177.34519388202
 20
785.3926007712272
 30
0.0
 40
0.0787401559999872
100
AcDbArc
 50
239.9999999999999
 51
299.9999999999995
  0
ARC
  5
BBE2
330
2
100
AcDbEntity
  8
AM_VIS
100
AcDbCircle
 10
1177.34519388202
 20
785.3926007712272
 30
0.0
 40
0.0787401559999872
100
AcDbArc
 50
299.9999999999995
 51
0.0
  0
ARC
  5
BBE3
330
2
100
AcDbEntity
  8
AM_VIS
100
AcDbCircle
 10
1177.34519388202
 20
785.3926007712272
 30
0.0
 40
0.0787401559999872
100
AcDbArc
 50
0.0
 51
59.99999999999999
  0
ARC
  5
BBE4
330
2
100
AcDbEntity
  8
AM_VIS
100
AcDbCircle
 10
1177.34519388202
 20
785.3926007712272
 30
0.0
 40
0.0787401559999872
100
AcDbArc
 50
59.99999999999999
 51
119.9999999999994
  0
ARC
  5
BBE5
330
2
100
AcDbEntity
  8
AM_VIS
100
AcDbCircle
 10
1177.34519388202
 20
785.3926007712272
 30
0.0
 40
0.0787401559999872
100
AcDbArc
 50
119.9999999999994
 51
180.0
  0
ARC
  5
BBE8
330
2
100
AcDbEntity
  8
AM_VIS
100
AcDbCircle
 10
1177.34519388202
 20
785.3926007712272
 30
0.0
 40
0.1929133821999688
100
AcDbArc
 50
71.77574398587515
 51
90.0
  0
ARC
  5
BBEA
330
2
100
AcDbEntity
  8
AM_VIS
100
AcDbCircle
 10
1177.34519388202
 20
785.3926007712272
 30
0.0
 40
0.1929133821999688
100
AcDbArc
 50
11.77574398587049
 51
48.22425601413875
  0
ARC
  5
BBEC
330
2
100
AcDbEntity
  8
AM_VIS
100
AcDbCircle
 10
1177.34519388202
 20
785.3926007712272
 30
0.0
 40
0.1929133821999688
100
AcDbArc
 50
311.7757439858642
 51
348.2242560141348
  0
ARC
  5
BBEE
330
2
100
AcDbEntity
  8
AM_VIS
100
AcDbCircle
 10
1177.34519388202
 20
785.3926007712272
 30
0.0
 40
0.1929133821999688
100
AcDbArc
 50
251.7757439858616
 51
288.2242560141281
  0
ARC
  5
BBF0
330
2
100
AcDbEntity
  8
AM_VIS
100
AcDbCircle
 10
1177.34519388202
 20
785.3926007712272
 30
0.0
 40
0.1929133821999688
100
AcDbArc
 50
191.7757439858655
 51
228.2242560141256
  0
ARC
  5
BBF2
330
2
100
AcDbEntity
  8
AM_VIS
100
AcDbCircle
 10
1177.34519388202
 20
785.3926007712272
 30
0.0
 40
0.1929133821999688
100
AcDbArc
 50
131.7757439858723
 51
168.2242560141295
  0
ARC
  5
BBF4
330
2
100
AcDbEntity
  8
AM_VIS
100
AcDbCircle
 10
1177.34519388202
 20
785.3926007712272
 30
0.0
 40
0.1929133821999688
100
AcDbArc
 50
90.0
 51
108.2242560141367
  0
LINE
  5
BBF6
330
2
100
AcDbEntity
  8
AM_VIS
100
AcDbLine
 10
1174.777673538453
 20
785.4319708492272
 30
0.0
 11
1174.778893073165
 21
785.4319708492272
 31
0.0
  0
LINE
  5
BBF7
330
2
100
AcDbEntity
  8
AM_VIS
100
AcDbLine
 10
1174.778893073165
 20
785.3532306932272
 30
0.0
 11
1174.777673538453
 21
785.3532306932272
 31
0.0
  0
LINE
  5
BBF8
330
2
100
AcDbEntity
  8
AM_VIS
100
AcDbLine
 10
1174.667947989895
 20
785.2398083281545
 30
0.0
 11
1174.667338222539
 21
785.2408644761959
 31
0.0
  0
LINE
  5
BBF9
330
2
100
AcDbEntity
  8
AM_VIS
100
AcDbLine
 10
1174.735529197933
 20
785.2802345541959
 30
0.0
 11
1174.736138965289
 21
785.2791784061545
 31
0.0
  0
LINE
  5
BBFA
330
2
100
AcDbEntity
  8
AM_VIS
100
AcDbLine
 10
1174.667338222539
 20
785.5443370662584
 30
0.0
 11
1174.667947989895
 21
785.5453932142999
 31
0.0
  0
LINE
  5
BBFB
330
2
100
AcDbEntity
  8
AM_VIS
100
AcDbLine
 10
1174.736138965289
 20
785.5060231362999
 30
0.0
 11
1174.735529197933
 21
785.5049669882584
 31
0.0
  0
LINE
  5
BBFC
330
2
100
AcDbEntity
  8
AM_VIS
100
AcDbLine
 10
1174.51424879875
 20
785.2791784061545
 30
0.0
 11
1174.514858566106
 21
785.2802345541959
 31
0.0
  0
LINE
  5
BBFD
330
2
100
AcDbEntity
  8
AM_VIS
100
AcDbLine
 10
1174.5830495415
 20
785.2408644761959
 30
0.0
 11
1174.582439774144
 21
785.2398083281545
 31
0.0
  0
LINE
  5
BBFE
330
2
100
AcDbEntity
  8
AM_VIS
100
AcDbLine
 10
1174.514858566106
 20
785.5049669882584
 30
0.0
 11
1174.51424879875
 21
785.5060231362999
 31
0.0
  0
LINE
  5
BBFF
330
2
100
AcDbEntity
  8
AM_VIS
100
AcDbLine
 10
1174.582439774144
 20
785.5453932142999
 30
0.0
 11
1174.5830495415
 21
785.5443370662584
 31
0.0
  0
LINE
  5
BC00
330
2
100
AcDbEntity
  8
AM_VIS
100
AcDbLine
 10
1174.471494690875
 20
785.4319708492272
 30
0.0
 11
1174.472714225587
 21
785.4319708492272
 31
0.0
  0
LINE
  5
BC01
330
2
100
AcDbEntity
  8
AM_VIS
100
AcDbLine
 10
1174.472714225587
 20
785.3532306932272
 30
0.0
 11
1174.471494690875
 21
785.3532306932272
 31
0.0
  0
LINE
  5
BC02
330
2
100
AcDbEntity
  8
AM_VIS
100
AcDbLine
 10
1174.778893073165
 20
785.4319708492272
 30
0.0
 11
1174.818067198755
 21
785.4319708492272
 31
0.0
  0
LINE
  5
BC05
330
2
100
AcDbEntity
  8
AM_VIS
100
AcDbLine
 10
1174.778893073165
 20
785.3532306932272
 30
0.0
 11
1174.818067198755
 21
785.3532306932272
 31
0.0
  0
LINE
  5
BC06
330
2
100
AcDbEntity
  8
AM_VIS
100
AcDbLine
 10
1174.667947989895
 20
785.5453932142999
 30
0.0
 11
1174.68753505269
 21
785.5793190022321
 31
0.0
  0
LINE
  5
BC09
330
2
100
AcDbEntity
  8
AM_VIS
100
AcDbLine
 10
1174.736138965289
 20
785.5060231362999
 30
0.0
 11
1174.755726028084
 21
785.5399489242322
 31
0.0
  0
LINE
  5
BC0B
330
2
100
AcDbEntity
  8
AM_VIS
100
AcDbLine
 10
1174.667947989895
 20
785.2398083281545
 30
0.0
 11
1174.68753505269
 21
785.205882540222
 31
0.0
  0
LINE
  5
BC0C
330
2
100
AcDbEntity
  8
AM_VIS
100
AcDbLine
 10
1174.736138965289
 20
785.2791784061545
 30
0.0
 11
1174.755726028084
 21
785.2452526182221
 31
0.0
  0
LINE
  5
BC0F
330
2
100
AcDbEntity
  8
AM_VIS
100
AcDbLine
 10
1174.494661735955
 20
785.2452526182221
 30
0.0
 11
1174.51424879875
 21
785.2791784061545
 31
0.0
  0
LINE
  5
BC10
330
2
100
AcDbEntity
  8
AM_VIS
100
AcDbLine
 10
1174.562852711349
 20
785.2058825402222
 30
0.0
 11
1174.582439774144
 21
785.2398083281545
 31
0.0
  0
LINE
  5
BC12
330
2
100
AcDbEntity
  8
AM_VIS
100
AcDbLine
 10
1174.494661735955
 20
785.5399489242322
 30
0.0
 11
1174.51424879875
 21
785.5060231362999
 31
0.0
  0
LINE
  5
BC15
330
2
100
AcDbEntity
  8
AM_VIS
100
AcDbLine
 10
1174.562852711349
 20
785.5793190022321
 30
0.0
 11
1174.582439774144
 21
785.5453932142999
 31
0.0
  0
LINE
  5
BC16
330
2
100
AcDbEntity
  8
AM_VIS
100
AcDbLine
 10
1174.432320565284
 20
785.3532306932272
 30
0.0
 11
1174.471494690875
 21
785.3532306932272
 31
0.0
  0
LINE
  5
BC19
330
2
100
AcDbEntity
  8
AM_VIS
100
AcDbLine
 10
1174.432320565284
 20
785.4319708492272
 30
0.0
 11
1174.471494690875
 21
785.4319708492272
 31
0.0
  0
ARC
  5
BC1A
330
2
100
AcDbEntity
  8
AM_VIS
100
AcDbCircle
 10
1174.62519388202
 20
785.3926007712272
 30
0.0
 40
0.1586614143399932
100
AcDbArc
 50
345.632587417162
 51
14.36741258283878
  0
ARC
  5
BC1B
330
2
100
AcDbEntity
  8
AM_VIS
100
AcDbCircle
 10
1174.62519388202
 20
785.3926007712272
 30
0.0
 40
0.1586614143399932
100
AcDbArc
 50
285.6325874171623
 51
314.3674125828389
  0
ARC
  5
BC1C
330
2
100
AcDbEntity
  8
AM_VIS
100
AcDbCircle
 10
1174.62519388202
 20
785.3926007712272
 30
0.0
 40
0.1586614143399932
100
AcDbArc
 50
45.63258741716153
 51
74.36741258283878
  0
ARC
  5
BC1D
330
2
100
AcDbEntity
  8
AM_VIS
100
AcDbCircle
 10
1174.62519388202
 20
785.3926007712272
 30
0.0
 40
0.1586614143399932
100
AcDbArc
 50
225.6325874171623
 51
254.3674125828393
  0
ARC
  5
BC1E
330
2
100
AcDbEntity
  8
AM_VIS
100
AcDbCircle
 10
1174.62519388202
 20
785.3926007712272
 30
0.0
 40
0.1586614143399932
100
AcDbArc
 50
105.6325874171622
 51
134.3674125828383
  0
ARC
  5
BC1F
330
2
100
AcDbEntity
  8
AM_VIS
100
AcDbCircle
 10
1174.62519388202
 20
785.3926007712272
 30
0.0
 40
0.1586614143399932
100
AcDbArc
 50
165.632587417162
 51
194.3674125828387
  0
CIRCLE
  5
BC26
330
2
100
AcDbEntity
  8
AM_VIS
100
AcDbCircle
 10
1174.62519388202
 20
785.3926007712272
 30
0.0
 40
0.1574803119999933
  0
CIRCLE
  5
BC27
330
2
100
AcDbEntity
  8
AM_VIS
100
AcDbCircle
 10
1174.62519388202
 20
785.3926007712272
 30
0.0
 40
0.0984251949999958
  0
LINE
  5
BC28
330
2
100
AcDbEntity
  8
AM_VIS
100
AcDbLine
 10
1177.497673538453
 20
785.4319708492272
 30
0.0
 11
1177.498893073165
 21
785.4319708492272
 31
0.0
  0
LINE
  5
BC29
330
2
100
AcDbEntity
  8
AM_VIS
100
AcDbLine
 10
1177.498893073165
 20
785.3532306932272
 30
0.0
 11
1177.497673538453
 21
785.3532306932272
 31
0.0
  0
LINE
  5
BC2A
330
2
100
AcDbEntity
  8
AM_VIS
100
AcDbLine
 10
1177.387947989895
 20
785.2398083281545
 30
0.0
 11
1177.387338222539
 21
785.2408644761959
 31
0.0
  0
LINE
  5
BC2B
330
2
100
AcDbEntity
  8
AM_VIS
100
AcDbLine
 10
1177.455529197933
 20
785.2802345541959
 30
0.0
 11
1177.456138965289
 21
785.2791784061545
 31
0.0
  0
LINE
  5
BC2C
330
2
100
AcDbEntity
  8
AM_VIS
100
AcDbLine
 10
1177.387338222539
 20
785.5443370662584
 30
0.0
 11
1177.387947989895
 21
785.5453932142999
 31
0.0
  0
LINE
  5
BC2D
330
2
100
AcDbEntity
  8
AM_VIS
100
AcDbLine
 10
1177.456138965289
 20
785.5060231362999
 30
0.0
 11
1177.455529197933
 21
785.5049669882584
 31
0.0
  0
LINE
  5
BC2E
330
2
100
AcDbEntity
  8
AM_VIS
100
AcDbLine
 10
1177.23424879875
 20
785.2791784061545
 30
0.0
 11
1177.234858566106
 21
785.2802345541959
 31
0.0
  0
LINE
  5
BC2F
330
2
100
AcDbEntity
  8
AM_VIS
100
AcDbLine
 10
1177.3030495415
 20
785.2408644761959
 30
0.0
 11
1177.302439774144
 21
785.2398083281545
 31
0.0
  0
LINE
  5
BC30
330
2
100
AcDbEntity
  8
AM_VIS
100
AcDbLine
 10
1177.234858566106
 20
785.5049669882584
 30
0.0
 11
1177.23424879875
 21
785.5060231362999
 31
0.0
  0
LINE
  5
BC31
330
2
100
AcDbEntity
  8
AM_VIS
100
AcDbLine
 10
1177.302439774144
 20
785.5453932142999
 30
0.0
 11
1177.3030495415
 21
785.5443370662584
 31
0.0
  0
LINE
  5
BC32
330
2
100
AcDbEntity
  8
AM_VIS
100
AcDbLine
 10
1177.191494690875
 20
785.4319708492272
 30
0.0
 11
1177.192714225587
 21
785.4319708492272
 31
0.0
  0
LINE
  5
BC33
330
2
100
AcDbEntity
  8
AM_VIS
100
AcDbLine
 10
1177.192714225587
 20
785.3532306932272
 30
0.0
 11
1177.191494690875
 21
785.3532306932272
 31
0.0
  0
LINE
  5
BC34
330
2
100
AcDbEntity
  8
AM_VIS
100
AcDbLine
 10
1177.498893073165
 20
785.4319708492272
 30
0.0
 11
1177.538067198755
 21
785.4319708492272
 31
0.0
  0
LINE
  5
BC37
330
2
100
AcDbEntity
  8
AM_VIS
100
AcDbLine
 10
1177.498893073165
 20
785.3532306932272
 30
0.0
 11
1177.538067198755
 21
785.3532306932272
 31
0.0
  0
LINE
  5
BC38
330
2
100
AcDbEntity
  8
AM_VIS
100
AcDbLine
 10
1177.387947989895
 20
785.5453932142999
 30
0.0
 11
1177.40753505269
 21
785.5793190022321
 31
0.0
  0
LINE
  5
BC3B
330
2
100
AcDbEntity
  8
AM_VIS
100
AcDbLine
 10
1177.456138965289
 20
785.5060231362999
 30
0.0
 11
1177.475726028085
 21
785.5399489242322
 31
0.0
  0
LINE
  5
BC3D
330
2
100
AcDbEntity
  8
AM_VIS
100
AcDbLine
 10
1177.387947989895
 20
785.2398083281545
 30
0.0
 11
1177.40753505269
 21
785.205882540222
 31
0.0
  0
LINE
  5
BC3E
330
2
100
AcDbEntity
  8
AM_VIS
100
AcDbLine
 10
1177.456138965289
 20
785.2791784061545
 30
0.0
 11
1177.475726028085
 21
785.2452526182221
 31
0.0
  0
LINE
  5
BC41
330
2
100
AcDbEntity
  8
AM_VIS
100
AcDbLine
 10
1177.214661735955
 20
785.2452526182221
 30
0.0
 11
1177.23424879875
 21
785.2791784061545
 31
0.0
  0
LINE
  5
BC42
330
2
100
AcDbEntity
  8
AM_VIS
100
AcDbLine
 10
1177.282852711349
 20
785.2058825402222
 30
0.0
 11
1177.302439774144
 21
785.2398083281545
 31
0.0
  0
LINE
  5
BC44
330
2
100
AcDbEntity
  8
AM_VIS
100
AcDbLine
 10
1177.214661735955
 20
785.5399489242322
 30
0.0
 11
1177.23424879875
 21
785.5060231362999
 31
0.0
  0
LINE
  5
BC47
330
2
100
AcDbEntity
  8
AM_VIS
100
AcDbLine
 10
1177.282852711349
 20
785.5793190022321
 30
0.0
 11
1177.302439774144
 21
785.5453932142999
 31
0.0
  0
LINE
  5
BC48
330
2
100
AcDbEntity
  8
AM_VIS
100
AcDbLine
 10
1177.152320565284
 20
785.3532306932272
 30
0.0
 11
1177.191494690875
 21
785.3532306932272
 31
0.0
  0
LINE
  5
BC4B
330
2
100
AcDbEntity
  8
AM_VIS
100
AcDbLine
 10
1177.152320565284
 20
785.4319708492272
 30
0.0
 11
1177.191494690875
 21
785.4319708492272
 31
0.0
  0
ARC
  5
BC4C
330
2
100
AcDbEntity
  8
AM_VIS
100
AcDbCircle
 10
1177.34519388202
 20
785.3926007712272
 30
0.0
 40
0.1586614143399932
100
AcDbArc
 50
345.6325874171617
 51
14.36741258283878
  0
ARC
  5
BC4D
330
2
100
AcDbEntity
  8
AM_VIS
100
AcDbCircle
 10
1177.34519388202
 20
785.3926007712272
 30
0.0
 40
0.1586614143399932
100
AcDbArc
 50
285.6325874171623
 51
314.367412582839
  0
ARC
  5
BC4E
330
2
100
AcDbEntity
  8
AM_VIS
100
AcDbCircle
 10
1177.34519388202
 20
785.3926007712272
 30
0.0
 40
0.1586614143399932
100
AcDbArc
 50
45.63258741716153
 51
74.36741258283878
  0
ARC
  5
BC4F
330
2
100
AcDbEntity
  8
AM_VIS
100
AcDbCircle
 10
1177.34519388202
 20
785.3926007712272
 30
0.0
 40
0.1586614143399932
100
AcDbArc
 50
225.6325874171623
 51
254.3674125828393
  0
ARC
  5
BC50
330
2
100
AcDbEntity
  8
AM_VIS
100
AcDbCircle
 10
1177.34519388202
 20
785.3926007712272
 30
0.0
 40
0.1586614143399932
100
AcDbArc
 50
105.6325874171622
 51
134.3674125828383
  0
ARC
  5
BC51
330
2
100
AcDbEntity
  8
AM_VIS
100
AcDbCircle
 10
1177.34519388202
 20
785.3926007712272
 30
0.0
 40
0.1586614143399932
100
AcDbArc
 50
165.632587417162
 51
194.3674125828387
  0
CIRCLE
  5
BC58
330
2
100
AcDbEntity
  8
AM_VIS
100
AcDbCircle
 10
1177.34519388202
 20
785.3926007712272
 30
0.0
 40
0.1574803119999933
  0
CIRCLE
  5
BC59
330
2
100
AcDbEntity
  8
AM_VIS
100
AcDbCircle
 10
1177.34519388202
 20
785.3926007712272
 30
0.0
 40
0.0984251949999958
  0
LINE
  5
BC84
330
2
100
AcDbEntity
  8
AM_VIS
100
AcDbLine
 10
1171.929553655476
 20
784.7429132712272
 30
0.0
 11
1171.589866053367
 21
784.7429132712272
 31
0.0
  0
SPLINE
  5
BC85
330
2
100
AcDbEntity
  8
AM_VIS
100
AcDbSpline
210
0.0
220
0.0
230
1.0
 70
    12
 71
     2
 72
     6
 73
     3
 74
     0
 42
0.0000000001
 43
0.0000000001
 40
0.0
 40
0.0
 40
0.0
 40
0.6547392207575929
 40
0.6547392207575929
 40
0.6547392207575929
 10
1171.589866053367
 20
784.742913271227
 30
0.0
 41
1.0
 10
1171.514127489202
 20
784.9053351462271
 30
0.0
 41
1.154700538379303
 10
1171.589866053367
 20
785.067757021227
 30
0.0
 41
1.0
  0
SPLINE
  5
BC86
330
2
100
AcDbEntity
  8
AM_VIS
100
AcDbSpline
210
0.0
220
0.0
230
1.0
 70
    12
 71
     2
 72
     6
 73
     3
 74
     0
 42
0.0000000001
 43
0.0000000001
 40
0.0
 40
0.0
 40
0.0
 40
0.654739220757458
 40
0.654739220757458
 40
0.654739220757458
 10
1171.929553655476
 20
785.067757021227
 30
0.0
 41
1.0
 10
1172.00529221964
 20
784.9053351462271
 30
0.0
 41
1.154700538379178
 10
1171.929553655476
 20
784.7429132712272
 30
0.0
 41
1.0
  0
LINE
  5
BC87
330
2
100
AcDbEntity
  8
AM_VIS
100
AcDbLine
 10
1171.589866053367
 20
785.0677570212272
 30
0.0
 11
1171.929553655476
 21
785.0677570212272
 31
0.0
  0
SPLINE
  5
BC88
330
2
100
AcDbEntity
  8
AM_VIS
100
AcDbSpline
210
0.0
220
0.0
230
1.0
 70
    12
 71
     2
 72
     6
 73
     3
 74
     0
 42
0.0000000001
 43
0.0000000001
 40
0.0
 40
0.0
 40
0.0
 40
0.6547392207575644
 40
0.6547392207575644
 40
0.6547392207575644
 10
1171.589866053367
 20
785.067757021227
 30
0.0
 41
1.0
 10
1171.514127489202
 20
785.3926007712271
 30
0.0
 41
1.154700538379303
 10
1171.589866053367
 20
785.7174445212271
 30
0.0
 41
1.0
  0
SPLINE
  5
BC89
330
2
100
AcDbEntity
  8
AM_VIS
100
AcDbSpline
210
0.0
220
0.0
230
1.0
 70
    12
 71
     2
 72
     6
 73
     3
 74
     0
 42
0.0000000001
 43
0.0000000001
 40
0.0
 40
0.0
 40
0.0
 40
0.6547392207574632
 40
0.6547392207574632
 40
0.6547392207574632
 10
1171.929553655476
 20
785.7174445212271
 30
0.0
 41
1.0
 10
1172.00529221964
 20
785.3926007712271
 30
0.0
 41
1.154700538377436
 10
1171.929553655476
 20
785.0677570212272
 30
0.0
 41
1.0
  0
LINE
  5
BC8A
330
2
100
AcDbEntity
  8
AM_VIS
100
AcDbLine
 10
1171.589866053367
 20
785.7174445212272
 30
0.0
 11
1171.929553655476
 21
785.7174445212272
 31
0.0
  0
SPLINE
  5
BC8B
330
2
100
AcDbEntity
  8
AM_VIS
100
AcDbSpline
210
0.0
220
0.0
230
1.0
 70
    12
 71
     2
 72
     6
 73
     3
 74
     0
 42
0.0000000001
 43
0.0000000001
 40
0.0
 40
0.0
 40
0.0
 40
0.6547392207576305
 40
0.6547392207576305
 40
0.6547392207576305
 10
1171.589866053367
 20
785.7174445212271
 30
0.0
 41
1.0
 10
1171.514127489202
 20
785.879866396227
 30
0.0
 41
1.154700538379303
 10
1171.589866053367
 20
786.0422882712271
 30
0.0
 41
1.0
  0
SPLINE
  5
BC8C
330
2
100
AcDbEntity
  8
AM_VIS
100
AcDbSpline
210
0.0
220
0.0
230
1.0
 70
    12
 71
     2
 72
     6
 73
     3
 74
     0
 42
0.0000000001
 43
0.0000000001
 40
0.0
 40
0.0
 40
0.0
 40
0.6547392207574415
 40
0.6547392207574415
 40
0.6547392207574415
 10
1171.929553655476
 20
786.0422882712271
 30
0.0
 41
1.0
 10
1172.00529221964
 20
785.879866396227
 30
0.0
 41
1.154700538379178
 10
1171.929553655476
 20
785.7174445212271
 30
0.0
 41
1.0
  0
LINE
  5
BC8D
330
2
100
AcDbEntity
  8
AM_VIS
100
AcDbLine
 10
1171.589866053367
 20
786.0422882712271
 30
0.0
 11
1171.929553655476
 21
786.0422882712271
 31
0.0
  0
LINE
  5
BC94
330
2
100
AcDbEntity
  8
AM_VIS
100
AcDbLine
 10
1171.970209854421
 20
784.8301007712271
 30
0.0
 11
1171.929553655476
 21
784.7429132712272
 31
0.0
  0
LINE
  5
BC95
330
2
100
AcDbEntity
  8
AM_VIS
100
AcDbLine
 10
1171.970209854421
 20
785.9551007712272
 30
0.0
 11
1171.929553655476
 21
786.0422882712271
 31
0.0
  0
LINE
  5
BC96
330
2
100
AcDbEntity
  8
AM_VIS
100
AcDbLine
 10
1171.549209854421
 20
785.9551007712272
 30
0.0
 11
1171.589866053367
 21
786.0422882712271
 31
0.0
  0
LINE
  5
BC97
330
2
100
AcDbEntity
  8
AM_VIS
100
AcDbLine
 10
1171.549209854421
 20
784.8301007712271
 30
0.0
 11
1171.589866053367
 21
784.7429132712272
 31
0.0
  0
LINE
  5
BC9C
330
2
100
AcDbEntity
  8
AM_VIS
100
AcDbLine
 10
1171.970209854421
 20
785.9551007712272
 30
0.0
 11
1171.970209854421
 21
784.9054614815984
 31
0.0
  0
LINE
  5
BC9D
330
2
100
AcDbEntity
  8
AM_VIS
100
AcDbLine
 10
1171.970209854421
 20
784.9054614815984
 30
0.0
 11
1171.970209854421
 21
784.8301007712271
 31
0.0
  0
LINE
  5
BC9E
330
2
100
AcDbEntity
  8
AM_VIS
100
AcDbLine
 10
1171.549209854421
 20
785.9551007712272
 30
0.0
 11
1171.549209854421
 21
784.9054614815984
 31
0.0
  0
LINE
  5
BC9F
330
2
100
AcDbEntity
  8
AM_VIS
100
AcDbLine
 10
1171.549209854421
 20
784.9054614815984
 30
0.0
 11
1171.549209854421
 21
784.8301007712271
 31
0.0
  0
CIRCLE
  5
BCA2
330
2
100
AcDbEntity
  8
AM_VIS
100
AcDbCircle
 10
1177.34519388202
 20
785.3926007712272
 30
0.0
 40
0.1968505000000001
  0
CIRCLE
  5
BCA3
330
2
100
AcDbEntity
  8
AM_VIS
100
AcDbCircle
 10
1177.345537446409
 20
785.3926007712272
 30
0.0
 40
0.2362205787402684
  0
LINE
  5
BCA8
330
2
100
AcDbEntity
  8
AM_HID
  6
DASHED
100
AcDbLine
 10
1177.00802749601
 20
786.6629394478469
 30
0.0
 11
1176.98454427572
 21
786.6770495901272
 31
0.0
  0
LINE
  5
BCA9
330
2
100
AcDbEntity
  8
AM_HID
  6
DASHED
100
AcDbLine
 10
1177.68236026803
 20
786.6629394478469
 30
0.0
 11
1177.70584348832
 21
786.6770495901272
 31
0.0
  0
LINE
  5
BCAA
330
2
100
AcDbEntity
  8
AM_HID
  6
DASHED
100
AcDbLine
 10
1177.70584348832
 20
787.217523738694
 30
0.0
 11
1177.70584348832
 21
786.6770495901272
 31
0.0
  0
LINE
  5
BCAB
330
2
100
AcDbEntity
  8
AM_HID
  6
DASHED
100
AcDbLine
 10
1176.98454427572
 20
787.217523738694
 30
0.0
 11
1176.98454427572
 21
786.6770495901272
 31
0.0
  0
LINE
  5
BCAC
330
2
100
AcDbEntity
  8
AM_HID
  6
DASHED
100
AcDbLine
 10
1177.569516716665
 20
783.5976007712272
 30
0.0
 11
1177.649516716665
 21
783.5176007712272
 31
0.0
  0
LINE
  5
BCAD
330
2
100
AcDbEntity
  8
AM_HID
  6
DASHED
100
AcDbLine
 10
1177.135516716665
 20
783.5976007712272
 30
0.0
 11
1177.055516716665
 21
783.5176007712272
 31
0.0
  0
LINE
  5
BCAE
330
2
100
AcDbEntity
  8
AM_HID
  6
DASHED
100
AcDbLine
 10
1177.135516716665
 20
783.5976007712272
 30
0.0
 11
1177.135516716665
 21
784.22626218855
 31
0.0
  0
LINE
  5
BCAF
330
2
100
AcDbEntity
  8
AM_HID
  6
DASHED
100
AcDbLine
 10
1177.569516716665
 20
783.5976007712272
 30
0.0
 11
1177.569516716665
 21
784.22626218855
 31
0.0
  0
LINE
  5
BCB0
330
2
100
AcDbEntity
  8
AM_HID
  6
DASHED
100
AcDbLine
 10
1177.352516716665
 20
784.3566489428789
 30
0.0
 11
1177.569516716665
 21
784.22626218855
 31
0.0
  0
LINE
  5
BCB1
330
2
100
AcDbEntity
  8
AM_HID
  6
DASHED
100
AcDbLine
 10
1177.352516716665
 20
784.3566489428789
 30
0.0
 11
1177.135516716665
 21
784.22626218855
 31
0.0
  0
LINE
  5
BCBB
330
2
100
AcDbEntity
  8
AM_VIS
100
AcDbLine
 10
1178.108538623892
 20
784.6426007712271
 30
0.0
 11
1177.91519388202
 21
784.6426007712271
 31
0.0
  0
LINE
  5
BCBC
330
2
100
AcDbEntity
  8
AM_VIS
100
AcDbLine
 10
1178.108538623892
 20
786.1426007712272
 30
0.0
 11
1177.91519388202
 21
786.1426007712272
 31
0.0
  0
LINE
  5
BCCB
330
2
100
AcDbEntity
  8
AM_VIS
100
AcDbLine
 10
1178.11831888202
 20
784.6527285249946
 30
0.0
 11
1178.108538623892
 21
784.6426007712271
 31
0.0
  0
LINE
  5
BCCC
330
2
100
AcDbEntity
  8
AM_VIS
100
AcDbLine
 10
1178.11831888202
 20
786.1324730174597
 30
0.0
 11
1178.108538623892
 21
786.1426007712272
 31
0.0
  0
LINE
  5
BCCF
330
2
100
AcDbEntity
  8
AM_HID
  6
DASHED
100
AcDbLine
 10
1176.98454427572
 20
787.217523738694
 30
0.0
 11
1176.935108845804
 21
787.265681602413
 31
0.0
  0
LINE
  5
BCD0
330
2
100
AcDbEntity
  8
AM_HID
  6
DASHED
100
AcDbLine
 10
1177.70584348832
 20
787.217523738694
 30
0.0
 11
1177.747996759109
 21
787.2585876370649
 31
0.0
  0
LINE
  5
BCD1
330
2
100
AcDbEntity
  8
AM_HID
  6
DASHED
100
AcDbLine
 10
1177.025055151705
 20
786.0126795113846
 30
0.0
 11
1177.00802749601
 21
786.6629394478469
 31
0.0
  0
LINE
  5
BCD2
330
2
100
AcDbEntity
  8
AM_HID
  6
DASHED
100
AcDbLine
 10
1177.665332612334
 20
786.0126795113846
 30
0.0
 11
1177.68236026803
 21
786.6629394478469
 31
0.0
  0
LINE
  5
BCDD
330
2
100
AcDbEntity
  8
AM_HID
  6
DASHED
100
AcDbLine
 10
1176.73519388202
 20
784.2888987878015
 30
0.0
 11
1177.600548212728
 21
784.3040036038299
 31
0.0
  0
LINE
  5
BCDE
330
2
100
AcDbEntity
  8
AM_HID
  6
DASHED
100
AcDbLine
 10
1176.73519388202
 20
783.7363027546529
 30
0.0
 11
1177.600548212728
 21
783.7211979386244
 31
0.0
  0
LINE
  5
BCDF
330
2
100
AcDbEntity
  8
AM_HID
  6
DASHED
100
AcDbLine
 10
1177.600548212728
 20
784.4162083282393
 30
0.0
 11
1177.91519388202
 21
784.4217004888262
 31
0.0
  0
LINE
  5
BCE0
330
2
100
AcDbEntity
  8
AM_HID
  6
DASHED
100
AcDbLine
 10
1177.600548212728
 20
783.6089932142149
 30
0.0
 11
1177.91519388202
 21
783.6035010536281
 31
0.0
  0
LINE
  5
BCE1
330
2
100
AcDbEntity
  8
AM_HID
  6
DASHED
100
AcDbLine
 10
1177.68236026803
 20
786.6629394478469
 30
0.0
 11
1177.34519388202
 21
786.6629394478469
 31
0.0
  0
LINE
  5
BCE2
330
2
100
AcDbEntity
  8
AM_HID
  6
DASHED
100
AcDbLine
 10
1177.34519388202
 20
786.6629394478469
 30
0.0
 11
1177.00802749601
 21
786.6629394478469
 31
0.0
  0
LINE
  5
BCE3
330
2
100
AcDbEntity
  8
AM_HID
  6
DASHED
100
AcDbLine
 10
1176.98454427572
 20
786.6770495901272
 30
0.0
 11
1177.70584348832
 21
786.6770495901272
 31
0.0
  0
LINE
  5
BCE4
330
2
100
AcDbEntity
  8
AM_HID
  6
DASHED
100
AcDbLine
 10
1176.98454427572
 20
787.217523738694
 30
0.0
 11
1177.70584348832
 21
787.217523738694
 31
0.0
  0
LINE
  5
BCEF
330
2
100
AcDbEntity
  8
AM_HID
  6
DASHED
100
AcDbLine
 10
1177.569516716665
 20
783.5976007712272
 30
0.0
 11
1177.135516716665
 21
783.5976007712272
 31
0.0
  0
LINE
  5
BCF0
330
2
100
AcDbEntity
  8
AM_HID
  6
DASHED
100
AcDbLine
 10
1177.569516716665
 20
784.22626218855
 30
0.0
 11
1177.135516716665
 21
784.22626218855
 31
0.0
  0
LINE
  5
BCF5
330
2
100
AcDbEntity
  8
AM_VIS
100
AcDbLine
 10
1178.108538623892
 20
784.6426007712271
 30
0.0
 11
1178.108538623892
 21
786.1426007712272
 31
0.0
  0
LINE
  5
BCF6
330
2
100
AcDbEntity
  8
AM_VIS
100
AcDbLine
 10
1178.11831888202
 20
786.1324730174597
 30
0.0
 11
1178.11831888202
 21
784.6527285249946
 31
0.0
  0
LINE
  5
BD05
330
2
100
AcDbEntity
  8
AM_HID
  6
DASHED
100
AcDbLine
 10
1177.600548212728
 20
783.6089932142149
 30
0.0
 11
1177.600548212728
 21
784.4162083282393
 31
0.0
  0
LINE
  5
BD5C
330
2
100
AcDbEntity
  8
AM_VIS
100
AcDbLine
 10
1172.368950011901
 20
785.6346622303651
 30
0.0
 11
1172.623910641823
 21
785.6346622303651
 31
0.0
  0
ARC
  5
BD5D
330
2
100
AcDbEntity
  8
AM_VIS
100
AcDbCircle
 10
1172.186410641823
 20
785.3926007712272
 30
0.0
 40
0.5
100
AcDbArc
 50
5.731967965197709
 51
28.95502437186005
  0
ARC
  5
BD5E
330
2
100
AcDbEntity
  8
AM_VIS
100
AcDbCircle
 10
1172.186410641823
 20
785.3926007712272
 30
0.0
 40
0.5
100
AcDbArc
 50
331.0449756281399
 51
354.2680320348023
  0
LINE
  5
BD5F
330
2
100
AcDbEntity
  8
AM_VIS
100
AcDbLine
 10
1172.623910641823
 20
785.1505393120892
 30
0.0
 11
1172.368950011901
 21
785.1505393120892
 31
0.0
  0
LINE
  5
BD60
330
2
100
AcDbEntity
  8
AM_VIS
100
AcDbLine
 10
1172.623910641823
 20
785.6346622303651
 30
0.0
 11
1172.623910641823
 21
785.1505393120892
 31
0.0
  0
SPLINE
  5
BD61
330
2
100
AcDbEntity
  8
AM_VIS
100
AcDbSpline
210
0.0
220
0.0
230
1.0
 70
     8
 71
     3
 72
    27
 73
    23
 74
     0
 42
0.0000000001
 43
0.0000000001
 40
-0.2579067718374105
 40
-0.2579067718374105
 40
-0.2579067718374105
 40
-0.2579067718374105
 40
-0.2397863104747286
 40
-0.2397863104747286
 40
-0.2153826359284858
 40
-0.2153826359284858
 40
-0.1747428493352687
 40
-0.1747428493352687
 40
-0.0873714246676344
 40
-0.0873714246676344
 40
0.0
 40
0.0
 40
0.0
 40
0.0873714246676344
 40
0.0873714246676344
 40
0.1747428493352687
 40
0.1747428493352687
 40
0.2153826359284859
 40
0.2153826359284859
 40
0.2397863104747286
 40
0.2397863104747286
 40
0.2579067718374106
 40
0.2579067718374106
 40
0.2579067718374106
 40
0.2579067718374106
 10
1172.368950011901
 20
785.150539312089
 30
0.0
 10
1172.362909858114
 20
785.150539312089
 30
0.0
 10
1172.355897803837
 20
785.1523743254432
 30
0.0
 10
1172.343245021598
 20
785.1587641267741
 30
0.0
 10
1172.335972546772
 20
785.1652754555876
 30
0.0
 10
1172.322274607502
 20
785.1820813737742
 30
0.0
 10
1172.315216887817
 20
785.1967252582843
 30
0.0
 10
1172.301068034636
 20
785.2369816032521
 30
0.0
 10
1172.296903632115
 20
785.2682324649688
 30
0.0
 10
1172.292322737728
 20
785.3314802689098
 30
0.0
 10
1172.291902820616
 20
785.3634769630046
 30
0.0
 10
1172.291902820616
 20
785.3926007712271
 30
0.0
 10
1172.291902820616
 20
785.4217245794496
 30
0.0
 10
1172.292322737728
 20
785.4537212735444
 30
0.0
 10
1172.296903632115
 20
785.5169690774853
 30
0.0
 10
1172.301068034636
 20
785.5482199392021
 30
0.0
 10
1172.315216887817
 20
785.5884762841697
 30
0.0
 10
1172.322274607502
 20
785.6031201686798
 30
0.0
 10
1172.335972546772
 20
785.6199260868667
 30
0.0
 10
1172.343245021598
 20
785.62643741568
 30
0.0
 10
1172.355897803837
 20
785.6328272170109
 30
0.0
 10
1172.362909858114
 20
785.634662230365
 30
0.0
 10
1172.368950011901
 20
785.634662230365
 30
0.0
  0
LINE
  5
BD62
330
2
100
AcDbEntity
  8
AM_VIS
100
AcDbLine
 10
1171.165209854421
 20
785.728230692487
 30
0.0
 11
1171.204579933161
 21
785.7676007712272
 31
0.0
  0
LINE
  5
BD63
330
2
100
AcDbEntity
  8
AM_VIS
100
AcDbLine
 10
1171.165209854421
 20
785.0569708499673
 30
0.0
 11
1171.204579933161
 21
785.0176007712271
 31
0.0
  0
LINE
  5
BD64
330
2
100
AcDbEntity
  8
AM_VIS
100
AcDbLine
 10
1171.990209854421
 20
785.0176007712271
 30
0.0
 11
1171.970209854421
 21
785.0176007712271
 31
0.0
  0
LINE
  5
BD66
330
2
100
AcDbEntity
  8
AM_VIS
100
AcDbLine
 10
1171.549209854421
 20
785.0176007712271
 30
0.0
 11
1171.204579933161
 21
785.0176007712271
 31
0.0
  0
LINE
  5
BD67
330
2
100
AcDbEntity
  8
AM_VIS
100
AcDbLine
 10
1171.990209854421
 20
785.7676007712272
 30
0.0
 11
1171.970209854421
 21
785.7676007712272
 31
0.0
  0
LINE
  5
BD69
330
2
100
AcDbEntity
  8
AM_VIS
100
AcDbLine
 10
1171.549209854421
 20
785.7676007712272
 30
0.0
 11
1171.204579933161
 21
785.7676007712272
 31
0.0
  0
LINE
  5
BD6E
330
2
100
AcDbEntity
  8
AM_VIS
100
AcDbLine
 10
1172.790193882019
 20
784.8926007712272
 30
0.0
 11
1172.368950011901
 21
784.8926007712272
 31
0.0
  0
LINE
  5
BD71
330
2
100
AcDbEntity
  8
AM_VIS
100
AcDbLine
 10
1172.790193882019
 20
785.8926007712272
 30
0.0
 11
1172.368950011901
 21
785.8926007712272
 31
0.0
  0
LINE
  5
BD78
330
2
100
AcDbEntity
  8
AM_VIS
100
AcDbLine
 10
1172.290209854421
 20
785.0176007712271
 30
0.0
 11
1171.990209854421
 21
785.0176007712271
 31
0.0
  0
LINE
  5
BD79
330
2
100
AcDbEntity
  8
AM_VIS
100
AcDbLine
 10
1172.290209854421
 20
785.7676007712272
 30
0.0
 11
1171.990209854421
 21
785.7676007712272
 31
0.0
  0
LINE
  5
BD7A
330
2
100
AcDbEntity
  8
AM_VIS
100
AcDbLine
 10
1171.204579933161
 20
785.7676007712272
 30
0.0
 11
1171.204579933161
 21
785.3926007712272
 31
0.0
  0
LINE
  5
BD7B
330
2
100
AcDbEntity
  8
AM_VIS
100
AcDbLine
 10
1171.204579933161
 20
785.3926007712272
 30
0.0
 11
1171.204579933161
 21
785.0176007712271
 31
0.0
  0
LINE
  5
BD7C
330
2
100
AcDbEntity
  8
AM_VIS
100
AcDbLine
 10
1171.165209854421
 20
785.0569708499673
 30
0.0
 11
1171.165209854421
 21
785.3926007712272
 31
0.0
  0
LINE
  5
BD7D
330
2
100
AcDbEntity
  8
AM_VIS
100
AcDbLine
 10
1171.165209854421
 20
785.3926007712272
 30
0.0
 11
1171.165209854421
 21
785.728230692487
 31
0.0
  0
LINE
  5
BD80
330
2
100
AcDbEntity
  8
AM_VIS
100
AcDbLine
 10
1172.683910641823
 20
785.3426633103386
 30
0.0
 11
1172.683910641823
 21
785.4425382321157
 31
0.0
  0
LINE
  5
BD83
330
2
100
AcDbEntity
  8
AM_VIS
100
AcDbLine
 10
1172.290209854421
 20
784.9713409287074
 30
0.0
 11
1172.290209854421
 21
785.3926007712272
 31
0.0
  0
LINE
  5
BD84
330
2
100
AcDbEntity
  8
AM_VIS
100
AcDbLine
 10
1172.290209854421
 20
785.3926007712272
 30
0.0
 11
1172.290209854421
 21
785.8138606137469
 31
0.0
  0
ARC
  5
BD85
330
2
100
AcDbEntity
  8
AM_VIS
100
AcDbCircle
 10
1172.368950011901
 20
784.9713409287074
 30
0.0
 40
0.078740157480315
100
AcDbArc
 50
180.0
 51
270.0
  0
ARC
  5
BD86
330
2
100
AcDbEntity
  8
AM_VIS
100
AcDbCircle
 10
1172.368950011901
 20
785.8138606137469
 30
0.0
 40
0.078740157480315
100
AcDbArc
 50
90.0
 51
180.0
  0
LINE
  5
BDB3
330
2
100
AcDbEntity
  8
AM_VIS
100
AcDbLine
 10
1175.23519388202
 20
787.0933881728019
 30
0.0
 11
1176.73519388202
 21
787.0933881728019
 31
0.0
  0
LINE
  5
BDB4
330
2
100
AcDbEntity
  8
AM_VIS
100
AcDbLine
 10
1175.23519388202
 20
783.6918133696524
 30
0.0
 11
1176.73519388202
 21
783.6918133696524
 31
0.0
  0
SPLINE
  5
BDE4
330
2
100
AcDbEntity
  8
AM_HID
  6
DASHED
100
AcDbSpline
210
0.0
220
0.0
230
1.0
 70
    12
 71
     2
 72
     6
 73
     3
 74
     0
 42
0.0000000001
 43
0.0000000001
 40
0.1047253799322007
 40
0.1047253799322007
 40
0.1047253799322007
 40
0.1712226222250946
 40
0.1712226222250946
 40
0.1712226222250946
 10
1173.876689945012
 20
783.864575137744
 30
0.0
 41
1.104378685872313
 10
1173.881034853622
 20
783.8502210080178
 30
0.0
 41
1.117248610715556
 10
1173.876689945012
 20
783.835866878291
 30
0.0
 41
1.104378685872313
  0
SPLINE
  5
BDE5
330
2
100
AcDbEntity
  8
AM_HID
  6
DASHED
100
AcDbSpline
210
0.0
220
0.0
230
1.0
 70
    12
 71
     2
 72
     6
 73
     3
 74
     0
 42
0.0000000001
 43
0.0000000001
 40
0.1047253799322266
 40
0.1047253799322266
 40
0.1047253799322266
 40
0.1712226222250543
 40
0.1712226222250543
 40
0.1712226222250543
 10
1173.876689945012
 20
784.0413090306801
 30
0.0
 41
1.104378685872335
 10
1173.881034853622
 20
784.0126007712271
 30
0.0
 41
1.117248610715556
 10
1173.876689945012
 20
783.983892511774
 30
0.0
 41
1.104378685872335
  0
SPLINE
  5
BDE6
330
2
100
AcDbEntity
  8
AM_HID
  6
DASHED
100
AcDbSpline
210
0.0
220
0.0
230
1.0
 70
    12
 71
     2
 72
     6
 73
     3
 74
     0
 42
0.0000000001
 43
0.0000000001
 40
0.10472537993224
 40
0.10472537993224
 40
0.10472537993224
 40
0.1712226222250338
 40
0.1712226222250338
 40
0.1712226222250338
 10
1173.876689945012
 20
784.1893346641632
 30
0.0
 41
1.104378685872377
 10
1173.881034853622
 20
784.1749805344367
 30
0.0
 41
1.11724861071559
 10
1173.876689945012
 20
784.1606264047102
 30
0.0
 41
1.104378685872377
  0
LINE
  5
BDE7
330
2
100
AcDbEntity
  8
AM_HID
  6
DASHED
100
AcDbLine
 10
1173.876689945012
 20
783.796094420281
 30
0.0
 11
1173.876689945012
 21
783.8358668782911
 31
0.0
  0
LINE
  5
BDE8
330
2
100
AcDbEntity
  8
AM_HID
  6
DASHED
100
AcDbLine
 10
1173.876689945012
 20
783.8645751377441
 30
0.0
 11
1173.876689945012
 21
783.9043475957542
 31
0.0
  0
LINE
  5
BDE9
330
2
100
AcDbEntity
  8
AM_HID
  6
DASHED
100
AcDbLine
 10
1173.876689945012
 20
783.9043475957542
 30
0.0
 11
1173.876689945012
 21
783.983892511774
 31
0.0
  0
LINE
  5
BDEA
330
2
100
AcDbEntity
  8
AM_HID
  6
DASHED
100
AcDbLine
 10
1173.876689945012
 20
784.1893346641633
 30
0.0
 11
1173.876689945012
 21
784.2291071221733
 31
0.0
  0
SPLINE
  5
BDEB
330
2
100
AcDbEntity
  8
AM_HID
100
AcDbSpline
210
0.0
220
0.0
230
1.0
 70
    12
 71
     2
 72
     6
 73
     3
 74
     0
 42
0.0000000001
 43
0.0000000001
 40
0.1292293968816917
 40
0.1292293968816917
 40
0.1292293968816917
 40
0.2414947778997552
 40
0.2414947778997552
 40
0.2414947778997552
 10
1173.699136141501
 20
783.8502210080175
 30
0.0
 41
1.0
 10
1173.699136141501
 20
783.875341244808
 30
0.0
 41
1.043922227234014
 10
1173.682389316974
 20
783.9043475957542
 30
0.0
 41
1.011531391115998
  0
SPLINE
  5
BDEC
330
2
100
AcDbEntity
  8
AM_HID
100
AcDbSpline
210
0.0
220
0.0
230
1.0
 70
    12
 71
     2
 72
     6
 73
     3
 74
     0
 42
0.0000000001
 43
0.0000000001
 40
0.0169640158636355
 40
0.0169640158636355
 40
0.0169640158636355
 40
0.1292293968816917
 40
0.1292293968816917
 40
0.1292293968816917
 10
1173.682389316974
 20
783.7960944202809
 30
0.0
 41
1.011531391116
 10
1173.699136141501
 20
783.8251007712269
 30
0.0
 41
1.043922227234004
 10
1173.699136141501
 20
783.8502210080175
 30
0.0
 41
1.0
  0
SPLINE
  5
BDED
330
2
100
AcDbEntity
  8
AM_HID
  6
DASHED
100
AcDbSpline
210
0.0
220
0.0
230
1.0
 70
    12
 71
     2
 72
     6
 73
     3
 74
     0
 42
0.0000000001
 43
0.0000000001
 40
0.1292293968816813
 40
0.1292293968816813
 40
0.1292293968816813
 40
0.2414947778997357
 40
0.2414947778997357
 40
0.2414947778997357
 10
1173.699136141501
 20
784.1749805344367
 30
0.0
 41
1.0
 10
1173.699136141501
 20
784.2001007712273
 30
0.0
 41
1.043922227233406
 10
1173.682389316974
 20
784.2291071221731
 30
0.0
 41
1.011531391115839
  0
SPLINE
  5
BDEE
330
2
100
AcDbEntity
  8
AM_HID
  6
DASHED
100
AcDbSpline
210
0.0
220
0.0
230
1.0
 70
    12
 71
     2
 72
     6
 73
     3
 74
     0
 42
0.0000000001
 43
0.0000000001
 40
0.0169640158636275
 40
0.0169640158636275
 40
0.0169640158636275
 40
0.1292293968816813
 40
0.1292293968816813
 40
0.1292293968816813
 10
1173.682389316974
 20
784.1208539467002
 30
0.0
 41
1.011531391115839
 10
1173.699136141501
 20
784.1498602976462
 30
0.0
 41
1.043922227233405
 10
1173.699136141501
 20
784.1749805344367
 30
0.0
 41
1.0
  0
SPLINE
  5
BDEF
330
2
100
AcDbEntity
  8
AM_HID
  6
DASHED
100
AcDbSpline
210
0.0
220
0.0
230
1.0
 70
    12
 71
     2
 72
     6
 73
     3
 74
     0
 42
0.0000000001
 43
0.0000000001
 40
0.1292293968816848
 40
0.1292293968816848
 40
0.1292293968816848
 40
0.2414947778997426
 40
0.2414947778997426
 40
0.2414947778997426
 10
1173.699136141501
 20
784.0126007712271
 30
0.0
 41
1.0
 10
1173.699136141501
 20
784.0628412448079
 30
0.0
 41
1.043922227233458
 10
1173.682389316974
 20
784.1208539467002
 30
0.0
 41
1.011531391115852
  0
SPLINE
  5
BDF0
330
2
100
AcDbEntity
  8
AM_HID
100
AcDbSpline
210
0.0
220
0.0
230
1.0
 70
    12
 71
     2
 72
     6
 73
     3
 74
     0
 42
0.0000000001
 43
0.0000000001
 40
0.0169640158636345
 40
0.0169640158636345
 40
0.0169640158636345
 40
0.1292293968816848
 40
0.1292293968816848
 40
0.1292293968816848
 10
1173.682389316974
 20
783.9043475957542
 30
0.0
 41
1.011531391115856
 10
1173.699136141501
 20
783.9623602976462
 30
0.0
 41
1.043922227233456
 10
1173.699136141501
 20
784.0126007712271
 30
0.0
 41
1.0
  0
LINE
  5
BDF1
330
2
100
AcDbEntity
  8
AM_HID
  6
DASHED
100
AcDbLine
 10
1173.682389316974
 20
784.2291071221733
 30
0.0
 11
1173.876689945012
 21
784.2291071221733
 31
0.0
  0
LINE
  5
BDF2
330
2
100
AcDbEntity
  8
AM_HID
  6
DASHED
100
AcDbLine
 10
1173.682389316974
 20
783.796094420281
 30
0.0
 11
1173.876689945012
 21
783.796094420281
 31
0.0
  0
LINE
  5
BDF3
330
2
100
AcDbEntity
  8
AM_HID
  6
DASHED
100
AcDbLine
 10
1173.682389316974
 20
783.9043475957542
 30
0.0
 11
1173.876689945012
 21
783.9043475957542
 31
0.0
  0
LINE
  5
BDF4
330
2
100
AcDbEntity
  8
AM_HID
  6
DASHED
100
AcDbLine
 10
1173.682389316974
 20
784.1208539467002
 30
0.0
 11
1173.876689945012
 21
784.1208539467002
 31
0.0
  0
LINE
  5
BDF5
330
2
100
AcDbEntity
  8
AM_HID
  6
DASHED
100
AcDbLine
 10
1173.876689945012
 20
784.0413090306802
 30
0.0
 11
1173.876689945012
 21
784.1208539467002
 31
0.0
  0
LINE
  5
BDF6
330
2
100
AcDbEntity
  8
AM_HID
  6
DASHED
100
AcDbLine
 10
1173.876689945012
 20
784.1208539467002
 30
0.0
 11
1173.876689945012
 21
784.1606264047102
 31
0.0
  0
LINE
  5
BDF7
330
2
100
AcDbEntity
  8
AM_HID
  6
DASHED
100
AcDbLine
 10
1173.999524590681
 20
784.2822858105972
 30
0.0
 11
1174.798737189106
 21
784.2822858105972
 31
0.0
  0
LINE
  5
BDF8
330
2
100
AcDbEntity
  8
AM_HID
  6
DASHED
100
AcDbLine
 10
1173.999524590681
 20
783.7429157318571
 30
0.0
 11
1174.798737189106
 21
783.7429157318571
 31
0.0
  0
LINE
  5
BDF9
330
2
100
AcDbEntity
  8
AM_HID
  6
DASHED
100
AcDbLine
 10
1173.696374984382
 20
784.4063015586288
 30
0.0
 11
1173.960154511941
 21
784.4063015586288
 31
0.0
  0
LINE
  5
BDFA
330
2
100
AcDbEntity
  8
AM_HID
  6
DASHED
100
AcDbLine
 10
1173.696374984382
 20
783.6188999838256
 30
0.0
 11
1173.960154511941
 21
783.6188999838256
 31
0.0
  0
LINE
  5
BDFB
330
2
100
AcDbEntity
  8
AM_HID
  6
DASHED
100
AcDbLine
 10
1173.896374984382
 20
783.8426007712272
 30
0.0
 11
1173.876689945012
 21
783.822915731857
 31
0.0
  0
LINE
  5
BDFC
330
2
100
AcDbEntity
  8
AM_HID
  6
DASHED
100
AcDbLine
 10
1173.896374984382
 20
784.1826007712271
 30
0.0
 11
1173.876689945012
 21
784.2022858105972
 31
0.0
  0
LINE
  5
BDFD
330
2
100
AcDbEntity
  8
AM_HID
  6
DASHED
100
AcDbLine
 10
1173.896374984382
 20
784.1826007712271
 30
0.0
 11
1174.798737189106
 21
784.1826007712271
 31
0.0
  0
LINE
  5
BDFE
330
2
100
AcDbEntity
  8
AM_HID
  6
DASHED
100
AcDbLine
 10
1173.896374984382
 20
783.8426007712272
 30
0.0
 11
1174.798737189106
 21
783.8426007712272
 31
0.0
  0
LINE
  5
BDFF
330
2
100
AcDbEntity
  8
AM_HID
  6
DASHED
100
AcDbLine
 10
1174.798737189106
 20
784.1826007712271
 30
0.0
 11
1174.818422228476
 21
784.2022858105972
 31
0.0
  0
LINE
  5
BE00
330
2
100
AcDbEntity
  8
AM_HID
  6
DASHED
100
AcDbLine
 10
1174.798737189106
 20
783.8426007712272
 30
0.0
 11
1174.818422228476
 21
783.822915731857
 31
0.0
  0
LINE
  5
BE01
330
2
100
AcDbEntity
  8
AM_HID
100
AcDbLine
 10
1173.682389316974
 20
783.796094420281
 30
0.0
 11
1173.676689945012
 21
783.7862228184713
 31
0.0
  0
LINE
  5
BE02
330
2
100
AcDbEntity
  8
AM_HID
  6
DASHED
100
AcDbLine
 10
1173.682389316974
 20
784.2291071221733
 30
0.0
 11
1173.676689945012
 21
784.2389787239831
 31
0.0
  0
LINE
  5
BE03
330
2
100
AcDbEntity
  8
AM_HID
  6
DASHED
100
AcDbLine
 10
1174.818422228476
 20
784.2626007712271
 30
0.0
 11
1174.818422228476
 21
784.0126007712272
 31
0.0
  0
LINE
  5
BE04
330
2
100
AcDbEntity
  8
AM_HID
  6
DASHED
100
AcDbLine
 10
1174.818422228476
 20
784.0126007712272
 30
0.0
 11
1174.818422228476
 21
783.7626007712271
 31
0.0
  0
LINE
  5
BE05
330
2
100
AcDbEntity
  8
AM_HID
  6
DASHED
100
AcDbLine
 10
1173.676689945012
 20
783.6385850231956
 30
0.0
 11
1173.676689945012
 21
784.3866165192587
 31
0.0
  0
LINE
  5
BE06
330
2
100
AcDbEntity
  8
AM_HID
  6
DASHED
100
AcDbLine
 10
1173.896374984382
 20
783.8426007712272
 30
0.0
 11
1173.896374984382
 21
784.1826007712271
 31
0.0
  0
LINE
  5
BE07
330
2
100
AcDbEntity
  8
AM_HID
  6
DASHED
100
AcDbLine
 10
1174.798737189106
 20
784.1826007712271
 30
0.0
 11
1174.798737189106
 21
783.8426007712272
 31
0.0
  0
ARC
  5
BE08
330
2
100
AcDbEntity
  8
AM_HID
  6
DASHED
100
AcDbCircle
 10
1174.798737189106
 20
784.2626007712271
 30
0.0
 40
0.0196850393700788
100
AcDbArc
 50
0.0
 51
90.0
  0
ARC
  5
BE09
330
2
100
AcDbEntity
  8
AM_HID
  6
DASHED
100
AcDbCircle
 10
1174.798737189106
 20
783.7626007712271
 30
0.0
 40
0.0196850393700788
100
AcDbArc
 50
270.0
 51
0.0
  0
ARC
  5
BE0A
330
2
100
AcDbEntity
  8
AM_HID
  6
DASHED
100
AcDbCircle
 10
1173.999524590681
 20
783.723230692487
 30
0.0
 40
0.0196850393700788
100
AcDbArc
 50
90.0
 51
180.0
  0
ARC
  5
BE0B
330
2
100
AcDbEntity
  8
AM_HID
  6
DASHED
100
AcDbCircle
 10
1173.999524590681
 20
784.3019708499674
 30
0.0
 40
0.0196850393700788
100
AcDbArc
 50
180.0
 51
270.0
  0
ARC
  5
BE0C
330
2
100
AcDbEntity
  8
AM_HID
  6
DASHED
100
AcDbCircle
 10
1173.960154511941
 20
783.6385850231956
 30
0.0
 40
0.0196850393700788
100
AcDbArc
 50
270.0
 51
0.0
  0
ARC
  5
BE0D
330
2
100
AcDbEntity
  8
AM_HID
  6
DASHED
100
AcDbCircle
 10
1173.960154511941
 20
784.3866165192587
 30
0.0
 40
0.0196850393700788
100
AcDbArc
 50
0.0
 51
90.0
  0
ARC
  5
BE0E
330
2
100
AcDbEntity
  8
AM_HID
100
AcDbCircle
 10
1173.696374984382
 20
783.6385850231956
 30
0.0
 40
0.0196850393700788
100
AcDbArc
 50
180.0
 51
270.0
  0
ARC
  5
BE0F
330
2
100
AcDbEntity
  8
AM_HID
  6
DASHED
100
AcDbCircle
 10
1173.696374984382
 20
784.3866165192587
 30
0.0
 40
0.0196850393700788
100
AcDbArc
 50
90.0
 51
180.0
  0
SPLINE
  5
BE3C
330
2
100
AcDbEntity
  8
AM_HID
  6
DASHED
100
AcDbSpline
210
0.0
220
0.0
230
1.0
 70
    12
 71
     2
 72
     6
 73
     3
 74
     0
 42
0.0000000001
 43
0.0000000001
 40
0.1047253799322007
 40
0.1047253799322007
 40
0.1047253799322007
 40
0.1712226222250946
 40
0.1712226222250946
 40
0.1712226222250946
 10
1177.703697819027
 20
784.1606264047101
 30
0.0
 41
1.104378685872313
 10
1177.699352910417
 20
784.1749805344368
 30
0.0
 41
1.117248610715556
 10
1177.703697819027
 20
784.1893346641632
 30
0.0
 41
1.104378685872313
  0
SPLINE
  5
BE3D
330
2
100
AcDbEntity
  8
AM_HID
100
AcDbSpline
210
0.0
220
0.0
230
1.0
 70
    12
 71
     2
 72
     6
 73
     3
 74
     0
 42
0.0000000001
 43
0.0000000001
 40
0.1047253799322266
 40
0.1047253799322266
 40
0.1047253799322266
 40
0.1712226222250543
 40
0.1712226222250543
 40
0.1712226222250543
 10
1177.703697819027
 20
783.983892511774
 30
0.0
 41
1.104378685872335
 10
1177.699352910417
 20
784.0126007712271
 30
0.0
 41
1.117248610715556
 10
1177.703697819027
 20
784.0413090306802
 30
0.0
 41
1.104378685872335
  0
SPLINE
  5
BE3E
330
2
100
AcDbEntity
  8
AM_HID
  6
DASHED
100
AcDbSpline
210
0.0
220
0.0
230
1.0
 70
    12
 71
     2
 72
     6
 73
     3
 74
     0
 42
0.0000000001
 43
0.0000000001
 40
0.10472537993224
 40
0.10472537993224
 40
0.10472537993224
 40
0.1712226222250338
 40
0.1712226222250338
 40
0.1712226222250338
 10
1177.703697819027
 20
783.835866878291
 30
0.0
 41
1.104378685872377
 10
1177.699352910417
 20
783.8502210080174
 30
0.0
 41
1.11724861071559
 10
1177.703697819028
 20
783.8645751377442
 30
0.0
 41
1.104378685872377
  0
LINE
  5
BE3F
330
2
100
AcDbEntity
  8
AM_HID
  6
DASHED
100
AcDbLine
 10
1177.703697819028
 20
784.2291071221733
 30
0.0
 11
1177.703697819028
 21
784.1893346641633
 31
0.0
  0
LINE
  5
BE40
330
2
100
AcDbEntity
  8
AM_HID
  6
DASHED
100
AcDbLine
 10
1177.703697819028
 20
784.1606264047102
 30
0.0
 11
1177.703697819028
 21
784.1208539467002
 31
0.0
  0
LINE
  5
BE41
330
2
100
AcDbEntity
  8
AM_HID
  6
DASHED
100
AcDbLine
 10
1177.703697819028
 20
784.1208539467002
 30
0.0
 11
1177.703697819028
 21
784.0413090306802
 31
0.0
  0
LINE
  5
BE42
330
2
100
AcDbEntity
  8
AM_HID
  6
DASHED
100
AcDbLine
 10
1177.703697819028
 20
783.8358668782911
 30
0.0
 11
1177.703697819028
 21
783.796094420281
 31
0.0
  0
SPLINE
  5
BE43
330
2
100
AcDbEntity
  8
AM_HID
  6
DASHED
100
AcDbSpline
210
0.0
220
0.0
230
1.0
 70
    12
 71
     2
 72
     6
 73
     3
 74
     0
 42
0.0000000001
 43
0.0000000001
 40
0.1292293968816917
 40
0.1292293968816917
 40
0.1292293968816917
 40
0.2414947778997552
 40
0.2414947778997552
 40
0.2414947778997552
 10
1177.881251622538
 20
784.1749805344367
 30
0.0
 41
1.0
 10
1177.881251622538
 20
784.1498602976463
 30
0.0
 41
1.043922227234014
 10
1177.897998447065
 20
784.1208539467002
 30
0.0
 41
1.011531391115998
  0
SPLINE
  5
BE44
330
2
100
AcDbEntity
  8
AM_HID
  6
DASHED
100
AcDbSpline
210
0.0
220
0.0
230
1.0
 70
    12
 71
     2
 72
     6
 73
     3
 74
     0
 42
0.0000000001
 43
0.0000000001
 40
0.0169640158636355
 40
0.0169640158636355
 40
0.0169640158636355
 40
0.1292293968816917
 40
0.1292293968816917
 40
0.1292293968816917
 10
1177.897998447065
 20
784.2291071221731
 30
0.0
 41
1.011531391116
 10
1177.881251622538
 20
784.2001007712269
 30
0.0
 41
1.043922227234004
 10
1177.881251622538
 20
784.1749805344367
 30
0.0
 41
1.0
  0
SPLINE
  5
BE45
330
2
100
AcDbEntity
  8
AM_HID
  6
DASHED
100
AcDbSpline
210
0.0
220
0.0
230
1.0
 70
    12
 71
     2
 72
     6
 73
     3
 74
     0
 42
0.0000000001
 43
0.0000000001
 40
0.1292293968816813
 40
0.1292293968816813
 40
0.1292293968816813
 40
0.2414947778997357
 40
0.2414947778997357
 40
0.2414947778997357
 10
1177.881251622538
 20
783.8502210080175
 30
0.0
 41
1.0
 10
1177.881251622539
 20
783.8251007712271
 30
0.0
 41
1.043922227233406
 10
1177.897998447065
 20
783.7960944202809
 30
0.0
 41
1.011531391115839
  0
SPLINE
  5
BE46
330
2
100
AcDbEntity
  8
AM_HID
  6
DASHED
100
AcDbSpline
210
0.0
220
0.0
230
1.0
 70
    12
 71
     2
 72
     6
 73
     3
 74
     0
 42
0.0000000001
 43
0.0000000001
 40
0.0169640158636275
 40
0.0169640158636275
 40
0.0169640158636275
 40
0.1292293968816813
 40
0.1292293968816813
 40
0.1292293968816813
 10
1177.897998447065
 20
783.9043475957537
 30
0.0
 41
1.011531391115839
 10
1177.881251622538
 20
783.8753412448077
 30
0.0
 41
1.043922227233405
 10
1177.881251622538
 20
783.8502210080175
 30
0.0
 41
1.0
  0
SPLINE
  5
BE47
330
2
100
AcDbEntity
  8
AM_HID
  6
DASHED
100
AcDbSpline
210
0.0
220
0.0
230
1.0
 70
    12
 71
     2
 72
     6
 73
     3
 74
     0
 42
0.0000000001
 43
0.0000000001
 40
0.1292293968816848
 40
0.1292293968816848
 40
0.1292293968816848
 40
0.2414947778997426
 40
0.2414947778997426
 40
0.2414947778997426
 10
1177.881251622538
 20
784.0126007712271
 30
0.0
 41
1.0
 10
1177.881251622538
 20
783.9623602976462
 30
0.0
 41
1.043922227233458
 10
1177.897998447065
 20
783.9043475957541
 30
0.0
 41
1.011531391115852
  0
SPLINE
  5
BE48
330
2
100
AcDbEntity
  8
AM_HID
  6
DASHED
100
AcDbSpline
210
0.0
220
0.0
230
1.0
 70
    12
 71
     2
 72
     6
 73
     3
 74
     0
 42
0.0000000001
 43
0.0000000001
 40
0.0169640158636345
 40
0.0169640158636345
 40
0.0169640158636345
 40
0.1292293968816848
 40
0.1292293968816848
 40
0.1292293968816848
 10
1177.897998447065
 20
784.1208539467002
 30
0.0
 41
1.011531391115856
 10
1177.881251622538
 20
784.0628412448079
 30
0.0
 41
1.043922227233456
 10
1177.881251622538
 20
784.0126007712271
 30
0.0
 41
1.0
  0
LINE
  5
BE49
330
2
100
AcDbEntity
  8
AM_HID
  6
DASHED
100
AcDbLine
 10
1177.897998447065
 20
783.796094420281
 30
0.0
 11
1177.703697819028
 21
783.796094420281
 31
0.0
  0
LINE
  5
BE4A
330
2
100
AcDbEntity
  8
AM_HID
  6
DASHED
100
AcDbLine
 10
1177.897998447065
 20
784.2291071221733
 30
0.0
 11
1177.703697819028
 21
784.2291071221733
 31
0.0
  0
LINE
  5
BE4B
330
2
100
AcDbEntity
  8
AM_HID
  6
DASHED
100
AcDbLine
 10
1177.897998447065
 20
784.1208539467002
 30
0.0
 11
1177.703697819028
 21
784.1208539467002
 31
0.0
  0
LINE
  5
BE4C
330
2
100
AcDbEntity
  8
AM_HID
  6
DASHED
100
AcDbLine
 10
1177.897998447065
 20
783.9043475957541
 30
0.0
 11
1177.703697819028
 21
783.9043475957541
 31
0.0
  0
LINE
  5
BE4D
330
2
100
AcDbEntity
  8
AM_HID
  6
DASHED
100
AcDbLine
 10
1177.703697819028
 20
783.983892511774
 30
0.0
 11
1177.703697819028
 21
783.9043475957541
 31
0.0
  0
LINE
  5
BE4E
330
2
100
AcDbEntity
  8
AM_HID
  6
DASHED
100
AcDbLine
 10
1177.703697819028
 20
783.9043475957541
 30
0.0
 11
1177.703697819028
 21
783.8645751377441
 31
0.0
  0
LINE
  5
BE4F
330
2
100
AcDbEntity
  8
AM_HID
  6
DASHED
100
AcDbLine
 10
1177.580863173358
 20
783.7429157318571
 30
0.0
 11
1176.781650574933
 21
783.7429157318571
 31
0.0
  0
LINE
  5
BE50
330
2
100
AcDbEntity
  8
AM_HID
  6
DASHED
100
AcDbLine
 10
1177.580863173358
 20
784.2822858105972
 30
0.0
 11
1176.781650574933
 21
784.2822858105972
 31
0.0
  0
LINE
  5
BE51
330
2
100
AcDbEntity
  8
AM_HID
  6
DASHED
100
AcDbLine
 10
1177.884012779657
 20
783.6188999838256
 30
0.0
 11
1177.620233252098
 21
783.6188999838256
 31
0.0
  0
LINE
  5
BE52
330
2
100
AcDbEntity
  8
AM_HID
  6
DASHED
100
AcDbLine
 10
1177.884012779657
 20
784.4063015586288
 30
0.0
 11
1177.620233252098
 21
784.4063015586288
 31
0.0
  0
LINE
  5
BE53
330
2
100
AcDbEntity
  8
AM_HID
  6
DASHED
100
AcDbLine
 10
1177.684012779657
 20
784.1826007712271
 30
0.0
 11
1177.703697819028
 21
784.2022858105972
 31
0.0
  0
LINE
  5
BE54
330
2
100
AcDbEntity
  8
AM_HID
  6
DASHED
100
AcDbLine
 10
1177.684012779657
 20
783.8426007712272
 30
0.0
 11
1177.703697819028
 21
783.8229157318571
 31
0.0
  0
LINE
  5
BE55
330
2
100
AcDbEntity
  8
AM_HID
  6
DASHED
100
AcDbLine
 10
1177.684012779657
 20
783.8426007712272
 30
0.0
 11
1176.781650574933
 21
783.8426007712272
 31
0.0
  0
LINE
  5
BE56
330
2
100
AcDbEntity
  8
AM_HID
  6
DASHED
100
AcDbLine
 10
1177.684012779657
 20
784.1826007712271
 30
0.0
 11
1176.781650574933
 21
784.1826007712271
 31
0.0
  0
LINE
  5
BE57
330
2
100
AcDbEntity
  8
AM_HID
  6
DASHED
100
AcDbLine
 10
1176.781650574933
 20
783.8426007712272
 30
0.0
 11
1176.761965535563
 21
783.822915731857
 31
0.0
  0
LINE
  5
BE58
330
2
100
AcDbEntity
  8
AM_HID
  6
DASHED
100
AcDbLine
 10
1176.781650574933
 20
784.1826007712271
 30
0.0
 11
1176.761965535563
 21
784.2022858105972
 31
0.0
  0
LINE
  5
BE59
330
2
100
AcDbEntity
  8
AM_HID
  6
DASHED
100
AcDbLine
 10
1177.897998447065
 20
784.2291071221733
 30
0.0
 11
1177.903697819028
 21
784.2389787239831
 31
0.0
  0
LINE
  5
BE5A
330
2
100
AcDbEntity
  8
AM_HID
100
AcDbLine
 10
1177.897998447065
 20
783.796094420281
 30
0.0
 11
1177.903697819028
 21
783.7862228184713
 31
0.0
  0
LINE
  5
BE5B
330
2
100
AcDbEntity
  8
AM_HID
  6
DASHED
100
AcDbLine
 10
1176.761965535563
 20
783.7626007712271
 30
0.0
 11
1176.761965535563
 21
784.0126007712272
 31
0.0
  0
LINE
  5
BE5C
330
2
100
AcDbEntity
  8
AM_HID
  6
DASHED
100
AcDbLine
 10
1176.761965535563
 20
784.0126007712272
 30
0.0
 11
1176.761965535563
 21
784.2626007712271
 31
0.0
  0
LINE
  5
BE5D
330
2
100
AcDbEntity
  8
AM_HID
  6
DASHED
100
AcDbLine
 10
1177.903697819028
 20
784.3866165192587
 30
0.0
 11
1177.903697819028
 21
783.6385850231956
 31
0.0
  0
LINE
  5
BE5E
330
2
100
AcDbEntity
  8
AM_HID
  6
DASHED
100
AcDbLine
 10
1177.684012779657
 20
784.1826007712271
 30
0.0
 11
1177.684012779657
 21
783.8426007712272
 31
0.0
  0
LINE
  5
BE5F
330
2
100
AcDbEntity
  8
AM_HID
  6
DASHED
100
AcDbLine
 10
1176.781650574933
 20
783.8426007712272
 30
0.0
 11
1176.781650574933
 21
784.1826007712271
 31
0.0
  0
ARC
  5
BE60
330
2
100
AcDbEntity
  8
AM_HID
  6
DASHED
100
AcDbCircle
 10
1176.781650574933
 20
783.7626007712271
 30
0.0
 40
0.0196850393700788
100
AcDbArc
 50
180.0
 51
270.0
  0
ARC
  5
BE61
330
2
100
AcDbEntity
  8
AM_HID
  6
DASHED
100
AcDbCircle
 10
1176.781650574933
 20
784.2626007712271
 30
0.0
 40
0.0196850393700788
100
AcDbArc
 50
90.0
 51
180.0
  0
ARC
  5
BE62
330
2
100
AcDbEntity
  8
AM_HID
  6
DASHED
100
AcDbCircle
 10
1177.580863173358
 20
784.3019708499674
 30
0.0
 40
0.0196850393700788
100
AcDbArc
 50
270.0
 51
0.0
  0
ARC
  5
BE63
330
2
100
AcDbEntity
  8
AM_HID
  6
DASHED
100
AcDbCircle
 10
1177.580863173358
 20
783.723230692487
 30
0.0
 40
0.0196850393700788
100
AcDbArc
 50
0.0
 51
90.0
  0
ARC
  5
BE64
330
2
100
AcDbEntity
  8
AM_HID
  6
DASHED
100
AcDbCircle
 10
1177.620233252098
 20
784.3866165192587
 30
0.0
 40
0.0196850393700788
100
AcDbArc
 50
90.0
 51
180.0
  0
ARC
  5
BE65
330
2
100
AcDbEntity
  8
AM_HID
  6
DASHED
100
AcDbCircle
 10
1177.620233252098
 20
783.6385850231956
 30
0.0
 40
0.0196850393700788
100
AcDbArc
 50
180.0
 51
270.0
  0
ARC
  5
BE66
330
2
100
AcDbEntity
  8
AM_HID
  6
DASHED
100
AcDbCircle
 10
1177.884012779657
 20
784.3866165192587
 30
0.0
 40
0.0196850393700788
100
AcDbArc
 50
0.0
 51
90.0
  0
ARC
  5
BE67
330
2
100
AcDbEntity
  8
AM_HID
  6
DASHED
100
AcDbCircle
 10
1177.884012779657
 20
783.6385850231956
 30
0.0
 40
0.0196850393700788
100
AcDbArc
 50
270.0
 51
0.0
  0
LINE
  5
BE75
330
2
100
AcDbEntity
  8
AM_VIS
100
AcDbLine
 10
1176.73519388202
 20
786.5987818735893
 30
0.0
 11
1175.23519388202
 21
786.5987818735893
 31
0.0
  0
LINE
  5
BE78
330
2
100
AcDbEntity
  8
AM_VIS
100
AcDbLine
 10
1176.73519388202
 20
786.946419668865
 30
0.0
 11
1175.23519388202
 21
786.946419668865
 31
0.0
  0
LINE
  5
BE80
330
2
100
AcDbEntity
  8
AM_7
 48
0.3
100
AcDbLine
 10
1166.752199664124
 20
787.3289849740004
 30
0.0
 11
1166.752199664124
 21
785.8150228246897
 31
0.0
  0
LINE
  5
BE81
330
2
100
AcDbEntity
  8
AM_7
 48
0.3
100
AcDbLine
 10
1168.713905625495
 20
785.3926007712272
 30
0.0
 11
1167.239864501031
 21
785.3926007712272
 31
0.0
  0
LINE
  5
BE82
330
2
100
AcDbEntity
  8
AM_7
 48
0.3
100
AcDbLine
 10
1166.752199664124
 20
783.6113409287074
 30
0.0
 11
1166.752199664124
 21
784.4054439323522
 31
0.0
  0
LINE
  5
BE83
330
2
100
AcDbEntity
  8
AM_7
 48
0.3
100
AcDbLine
 10
1164.813958844818
 20
785.3926007712272
 30
0.0
 11
1166.264534827218
 21
785.3926007712272
 31
0.0
  0
LINE
  5
BE84
330
2
100
AcDbEntity
  8
AM_7
 48
0.3
100
AcDbLine
 10
1167.996412262549
 20
785.3926007712272
 30
0.0
 11
1168.106412262549
 21
785.3926007712272
 31
0.0
  0
LINE
  5
BE85
330
2
100
AcDbEntity
  8
AM_7
 48
0.3
100
AcDbLine
 10
1168.051412262549
 20
785.3376007712272
 30
0.0
 11
1168.051412262549
 21
785.4476007712271
 31
0.0
  0
LINE
  5
BE86
330
2
100
AcDbEntity
  8
AM_7
 48
0.3
100
AcDbLine
 10
1167.862672105049
 20
785.3926007712272
 30
0.0
 11
1167.840412262549
 21
785.3926007712272
 31
0.0
  0
LINE
  5
BE87
330
2
100
AcDbEntity
  8
AM_7
 48
0.3
100
AcDbLine
 10
1168.262412262549
 20
785.3926007712272
 30
0.0
 11
1168.240152420049
 21
785.3926007712272
 31
0.0
  0
LINE
  5
BE8A
330
2
100
AcDbEntity
  8
AM_7
 48
0.3
100
AcDbLine
 10
1167.502199664124
 20
783.4876007712272
 30
0.0
 11
1167.502199664124
 21
784.466648942879
 31
0.0
  0
LINE
  5
BE8B
330
2
100
AcDbEntity
  8
AM_7
 48
0.3
100
AcDbLine
 10
1166.002199664124
 20
783.4876007712272
 30
0.0
 11
1166.002199664124
 21
784.466648942879
 31
0.0
  0
LINE
  5
BE8C
330
2
100
AcDbEntity
  8
AM_7
 48
0.3
100
AcDbLine
 10
1168.077199664124
 20
786.7726007712271
 30
0.0
 11
1168.187199664124
 21
786.7726007712271
 31
0.0
  0
LINE
  5
BE8D
330
2
100
AcDbEntity
  8
AM_7
 48
0.3
100
AcDbLine
 10
1168.132199664124
 20
786.7176007712272
 30
0.0
 11
1168.132199664124
 21
786.8276007712271
 31
0.0
  0
LINE
  5
BE8E
330
2
100
AcDbEntity
  8
AM_7
 48
0.3
100
AcDbLine
 10
1167.549758719242
 20
786.7726007712271
 30
0.0
 11
1167.921199664124
 21
786.7726007712271
 31
0.0
  0
LINE
  5
BE8F
330
2
100
AcDbEntity
  8
AM_7
 48
0.3
100
AcDbLine
 10
1168.343199664124
 20
786.7726007712271
 30
0.0
 11
1168.714640609006
 21
786.7726007712271
 31
0.0
  0
LINE
  5
BE90
330
2
100
AcDbEntity
  8
AM_7
 48
0.3
100
AcDbLine
 10
1168.132199664124
 20
786.1901598263452
 30
0.0
 11
1168.132199664124
 21
786.5616007712271
 31
0.0
  0
LINE
  5
BE91
330
2
100
AcDbEntity
  8
AM_7
 48
0.3
100
AcDbLine
 10
1168.132199664124
 20
786.9836007712271
 30
0.0
 11
1168.132199664124
 21
787.3550417161091
 31
0.0
  0
LINE
  5
BE92
330
2
100
AcDbEntity
  8
AM_7
 48
0.3
100
AcDbLine
 10
1165.317199664124
 20
786.7726007712271
 30
0.0
 11
1165.427199664124
 21
786.7726007712271
 31
0.0
  0
LINE
  5
BE93
330
2
100
AcDbEntity
  8
AM_7
 48
0.3
100
AcDbLine
 10
1165.372199664124
 20
786.7176007712272
 30
0.0
 11
1165.372199664124
 21
786.8276007712271
 31
0.0
  0
LINE
  5
BE94
330
2
100
AcDbEntity
  8
AM_7
 48
0.3
100
AcDbLine
 10
1164.789758719242
 20
786.7726007712271
 30
0.0
 11
1165.161199664124
 21
786.7726007712271
 31
0.0
  0
LINE
  5
BE95
330
2
100
AcDbEntity
  8
AM_7
 48
0.3
100
AcDbLine
 10
1165.583199664124
 20
786.7726007712271
 30
0.0
 11
1165.954640609006
 21
786.7726007712271
 31
0.0
  0
LINE
  5
BE96
330
2
100
AcDbEntity
  8
AM_7
 48
0.3
100
AcDbLine
 10
1165.372199664124
 20
786.1901598263452
 30
0.0
 11
1165.372199664124
 21
786.5616007712271
 31
0.0
  0
LINE
  5
BE97
330
2
100
AcDbEntity
  8
AM_7
 48
0.3
100
AcDbLine
 10
1165.372199664124
 20
786.9836007712271
 30
0.0
 11
1165.372199664124
 21
787.3550417161091
 31
0.0
  0
LINE
  5
BE98
330
2
100
AcDbEntity
  8
AM_7
 48
0.3
100
AcDbLine
 10
1168.077199664124
 20
784.0126007712272
 30
0.0
 11
1168.187199664124
 21
784.0126007712272
 31
0.0
  0
LINE
  5
BE99
330
2
100
AcDbEntity
  8
AM_7
 48
0.3
100
AcDbLine
 10
1168.132199664124
 20
783.9576007712271
 30
0.0
 11
1168.132199664124
 21
784.0676007712271
 31
0.0
  0
LINE
  5
BE9A
330
2
100
AcDbEntity
  8
AM_7
 48
0.3
100
AcDbLine
 10
1167.549758719242
 20
784.0126007712272
 30
0.0
 11
1167.921199664124
 21
784.0126007712272
 31
0.0
  0
LINE
  5
BE9B
330
2
100
AcDbEntity
  8
AM_7
 48
0.3
100
AcDbLine
 10
1168.343199664124
 20
784.0126007712272
 30
0.0
 11
1168.714640609006
 21
784.0126007712272
 31
0.0
  0
LINE
  5
BE9C
330
2
100
AcDbEntity
  8
AM_7
 48
0.3
100
AcDbLine
 10
1168.132199664124
 20
783.4301598263452
 30
0.0
 11
1168.132199664124
 21
783.8016007712272
 31
0.0
  0
LINE
  5
BE9D
330
2
100
AcDbEntity
  8
AM_7
 48
0.3
100
AcDbLine
 10
1168.132199664124
 20
784.2236007712272
 30
0.0
 11
1168.132199664124
 21
784.5950417161091
 31
0.0
  0
LINE
  5
BE9E
330
2
100
AcDbEntity
  8
AM_7
 48
0.3
100
AcDbLine
 10
1165.317199664124
 20
784.0126007712272
 30
0.0
 11
1165.427199664124
 21
784.0126007712272
 31
0.0
  0
LINE
  5
BE9F
330
2
100
AcDbEntity
  8
AM_7
 48
0.3
100
AcDbLine
 10
1165.372199664124
 20
783.9576007712271
 30
0.0
 11
1165.372199664124
 21
784.0676007712271
 31
0.0
  0
LINE
  5
BEA0
330
2
100
AcDbEntity
  8
AM_7
 48
0.3
100
AcDbLine
 10
1164.789758719242
 20
784.0126007712272
 30
0.0
 11
1165.161199664124
 21
784.0126007712272
 31
0.0
  0
LINE
  5
BEA1
330
2
100
AcDbEntity
  8
AM_7
 48
0.3
100
AcDbLine
 10
1165.583199664124
 20
784.0126007712272
 30
0.0
 11
1165.954640609006
 21
784.0126007712272
 31
0.0
  0
LINE
  5
BEA2
330
2
100
AcDbEntity
  8
AM_7
 48
0.3
100
AcDbLine
 10
1165.372199664124
 20
783.4301598263452
 30
0.0
 11
1165.372199664124
 21
783.8016007712272
 31
0.0
  0
LINE
  5
BEA3
330
2
100
AcDbEntity
  8
AM_7
 48
0.3
100
AcDbLine
 10
1165.372199664124
 20
784.2236007712272
 30
0.0
 11
1165.372199664124
 21
784.5950417161091
 31
0.0
  0
LINE
  5
BEA5
330
2
100
AcDbEntity
  8
AM_7
 48
0.3
100
AcDbLine
 10
1166.752199664124
 20
784.038388172802
 30
0.0
 11
1166.752199664124
 21
784.148388172802
 31
0.0
  0
LINE
  5
BEA8
330
2
100
AcDbEntity
  8
AM_7
 48
0.3
100
AcDbLine
 10
1166.752199664124
 20
783.9046480153688
 30
0.0
 11
1166.752199664124
 21
783.8823881728019
 31
0.0
  0
LINE
  5
BEA9
330
2
100
AcDbEntity
  8
AM_7
 48
0.3
100
AcDbLine
 10
1166.752199664124
 20
784.304388172802
 30
0.0
 11
1166.752199664124
 21
784.2821283302352
 31
0.0
  0
LINE
  5
BEAA
330
2
100
AcDbEntity
  8
AM_7
 48
0.3
100
AcDbLine
 10
1165.397987065699
 20
785.3926007712272
 30
0.0
 11
1165.507987065699
 21
785.3926007712272
 31
0.0
  0
LINE
  5
BEAC
330
2
100
AcDbEntity
  8
AM_7
 48
0.3
100
AcDbLine
 10
1165.264246908265
 20
785.3926007712272
 30
0.0
 11
1165.241987065699
 21
785.3926007712272
 31
0.0
  0
LINE
  5
BEAD
330
2
100
AcDbEntity
  8
AM_7
 48
0.3
100
AcDbLine
 10
1165.663987065699
 20
785.3926007712272
 30
0.0
 11
1165.641727223132
 21
785.3926007712272
 31
0.0
  0
LINE
  5
BEB0
330
2
100
AcDbEntity
  8
AM_7
 48
0.3
100
AcDbLine
 10
1166.697199664124
 20
785.3926007712272
 30
0.0
 11
1166.807199664124
 21
785.3926007712272
 31
0.0
  0
LINE
  5
BEB1
330
2
100
AcDbEntity
  8
AM_7
 48
0.3
100
AcDbLine
 10
1166.752199664124
 20
785.3376007712272
 30
0.0
 11
1166.752199664124
 21
785.4476007712271
 31
0.0
  0
LINE
  5
BEB2
330
2
100
AcDbEntity
  8
AM_7
 48
0.3
100
AcDbLine
 10
1164.941412262549
 20
785.3926007712272
 30
0.0
 11
1166.541199664124
 21
785.3926007712272
 31
0.0
  0
LINE
  5
BEB3
330
2
100
AcDbEntity
  8
AM_7
 48
0.3
100
AcDbLine
 10
1166.963199664124
 20
785.3926007712272
 30
0.0
 11
1168.562987065699
 21
785.3926007712272
 31
0.0
  0
LINE
  5
BEB4
330
2
100
AcDbEntity
  8
AM_7
 48
0.3
100
AcDbLine
 10
1166.752199664124
 20
783.5818133696524
 30
0.0
 11
1166.752199664124
 21
785.1816007712272
 31
0.0
  0
LINE
  5
BEB5
330
2
100
AcDbEntity
  8
AM_7
 48
0.3
100
AcDbLine
 10
1166.752199664124
 20
785.6036007712272
 30
0.0
 11
1166.752199664124
 21
787.2033881728019
 31
0.0
  0
LINE
  5
BEBC
330
2
100
AcDbEntity
  8
AM_4
  6
DASHED
100
AcDbLine
 10
1167.752199664124
 20
783.5976007712272
 30
0.0
 11
1167.752199664124
 21
784.1426007712271
 31
0.0
  0
LINE
  5
BEBD
330
2
100
AcDbEntity
  8
AM_4
  6
DASHED
100
AcDbLine
 10
1167.252199664124
 20
783.5976007712272
 30
0.0
 11
1167.252199664124
 21
784.1426007712271
 31
0.0
  0
LINE
  5
BEBE
330
2
100
AcDbEntity
  8
AM_4
  6
DASHED
100
AcDbLine
 10
1167.752199664124
 20
784.1426007712271
 30
0.0
 11
1167.252199664124
 21
784.1426007712271
 31
0.0
  0
LINE
  5
BEBF
330
2
100
AcDbEntity
  8
AM_4
  6
DASHED
100
AcDbLine
 10
1166.252199664124
 20
783.5976007712272
 30
0.0
 11
1166.252199664124
 21
784.1426007712271
 31
0.0
  0
LINE
  5
BEC0
330
2
100
AcDbEntity
  8
AM_4
  6
DASHED
100
AcDbLine
 10
1165.752199664124
 20
783.5976007712272
 30
0.0
 11
1165.752199664124
 21
784.1426007712271
 31
0.0
  0
LINE
  5
BEC1
330
2
100
AcDbEntity
  8
AM_4
  6
DASHED
100
AcDbLine
 10
1166.252199664124
 20
784.1426007712271
 30
0.0
 11
1165.752199664124
 21
784.1426007712271
 31
0.0
  0
CIRCLE
  5
BECB
330
2
100
AcDbEntity
  8
AM_4
  6
HIDDEN2
100
AcDbCircle
 10
1165.372199664124
 20
786.7726007712271
 30
0.0
 40
0.16215
  0
CIRCLE
  5
BECC
330
2
100
AcDbEntity
  8
AM_4
  6
HIDDEN2
100
AcDbCircle
 10
1168.132199664124
 20
786.7726007712271
 30
0.0
 40
0.16215
  0
CIRCLE
  5
BECD
330
2
100
AcDbEntity
  8
AM_4
  6
HIDDEN2
100
AcDbCircle
 10
1168.132199664124
 20
784.0126007712272
 30
0.0
 40
0.16215
  0
CIRCLE
  5
BECE
330
2
100
AcDbEntity
  8
AM_4
  6
HIDDEN2
100
AcDbCircle
 10
1165.372199664124
 20
784.0126007712272
 30
0.0
 40
0.16215
  0
LINE
  5
BED0
330
2
100
AcDbEntity
  8
AM_7
 48
0.3
100
AcDbLine
 10
1174.62519388202
 20
787.3289849740004
 30
0.0
 11
1174.62519388202
 21
785.8159017749446
 31
0.0
  0
LINE
  5
BED1
330
2
100
AcDbEntity
  8
AM_7
 48
0.3
100
AcDbLine
 10
1171.094579933162
 20
785.3926007712272
 30
0.0
 11
1178.218538623893
 21
785.3926007712272
 31
0.0
  0
LINE
  5
BED2
330
2
100
AcDbEntity
  8
AM_7
 48
0.3
100
AcDbLine
 10
1174.727713567059
 20
783.4876007712272
 30
0.0
 11
1174.727713567059
 21
784.466648942879
 31
0.0
  0
LINE
  5
BED4
330
2
100
AcDbEntity
  8
AM_7
 48
0.3
100
AcDbLine
 10
1173.55519388202
 20
786.7726007712271
 30
0.0
 11
1178.02519388202
 21
786.7726007712271
 31
0.0
  0
LINE
  5
BED5
330
2
100
AcDbEntity
  8
AM_7
 48
0.3
100
AcDbLine
 10
1173.55519388202
 20
784.0126007712272
 30
0.0
 11
1178.02519388202
 21
784.0126007712272
 31
0.0
  0
LINE
  5
BED6
330
2
100
AcDbEntity
  8
AM_7
 48
0.3
100
AcDbLine
 10
1174.57019388202
 20
785.3926007712272
 30
0.0
 11
1174.68019388202
 21
785.3926007712272
 31
0.0
  0
LINE
  5
BED7
330
2
100
AcDbEntity
  8
AM_7
 48
0.3
100
AcDbLine
 10
1174.62519388202
 20
785.3376007712272
 30
0.0
 11
1174.62519388202
 21
785.4476007712271
 31
0.0
  0
LINE
  5
BED8
330
2
100
AcDbEntity
  8
AM_7
 48
0.3
100
AcDbLine
 10
1174.01519388202
 20
785.3926007712272
 30
0.0
 11
1174.41419388202
 21
785.3926007712272
 31
0.0
  0
LINE
  5
BED9
330
2
100
AcDbEntity
  8
AM_7
 48
0.3
100
AcDbLine
 10
1174.83619388202
 20
785.3926007712272
 30
0.0
 11
1175.23519388202
 21
785.3926007712272
 31
0.0
  0
LINE
  5
BEDA
330
2
100
AcDbEntity
  8
AM_7
 48
0.3
100
AcDbLine
 10
1174.62519388202
 20
784.7826007712272
 30
0.0
 11
1174.62519388202
 21
785.1816007712272
 31
0.0
  0
LINE
  5
BEDB
330
2
100
AcDbEntity
  8
AM_7
 48
0.3
100
AcDbLine
 10
1174.62519388202
 20
785.6036007712272
 30
0.0
 11
1174.62519388202
 21
786.0026007712272
 31
0.0
  0
LINE
  5
BEDC
330
2
100
AcDbEntity
  8
AM_7
 48
0.3
100
AcDbLine
 10
1177.34519388202
 20
787.327523738694
 30
0.0
 11
1177.34519388202
 21
785.8150228246897
 31
0.0
  0
LINE
  5
BEDD
330
2
100
AcDbEntity
  8
AM_7
 48
0.3
100
AcDbLine
 10
1177.290193882019
 20
785.3926007712272
 30
0.0
 11
1177.40019388202
 21
785.3926007712272
 31
0.0
  0
LINE
  5
BEDE
330
2
100
AcDbEntity
  8
AM_7
 48
0.3
100
AcDbLine
 10
1177.34519388202
 20
785.3376007712272
 30
0.0
 11
1177.34519388202
 21
785.4476007712271
 31
0.0
  0
LINE
  5
BEDF
330
2
100
AcDbEntity
  8
AM_7
 48
0.3
100
AcDbLine
 10
1176.73519388202
 20
785.3926007712272
 30
0.0
 11
1177.13419388202
 21
785.3926007712272
 31
0.0
  0
LINE
  5
BEE0
330
2
100
AcDbEntity
  8
AM_7
 48
0.3
100
AcDbLine
 10
1177.55619388202
 20
785.3926007712272
 30
0.0
 11
1177.95519388202
 21
785.3926007712272
 31
0.0
  0
LINE
  5
BEE1
330
2
100
AcDbEntity
  8
AM_7
 48
0.3
100
AcDbLine
 10
1177.34519388202
 20
784.7826007712272
 30
0.0
 11
1177.34519388202
 21
785.1816007712272
 31
0.0
  0
LINE
  5
BEE2
330
2
100
AcDbEntity
  8
AM_7
 48
0.3
100
AcDbLine
 10
1177.34519388202
 20
785.6036007712272
 30
0.0
 11
1177.34519388202
 21
786.0026007712272
 31
0.0
  0
LINE
  5
BEE3
330
2
100
AcDbEntity
  8
AM_7
 48
0.3
100
AcDbLine
 10
1177.352516716665
 20
783.4876007712272
 30
0.0
 11
1177.352516716665
 21
784.466648942879
 31
0.0
  0
CIRCLE
  5
BEE5
330
2
100
AcDbEntity
  8
AM_4
  6
HIDDEN2
100
AcDbCircle
 10
1174.62519388202
 20
785.3926007712272
 30
0.0
 40
0.1574805
  0
LINE
  5
BEE6
330
2
100
AcDbEntity
  8
AM_4
  6
DASHED
100
AcDbLine
 10
1174.20741829147
 20
787.2189849740004
 30
0.0
 11
1174.20741829147
 21
786.7557897476272
 31
0.0
  0
LINE
  5
BEE7
330
2
100
AcDbEntity
  8
AM_4
  6
DASHED
100
AcDbLine
 10
1175.04296947257
 20
787.2189849740004
 30
0.0
 11
1175.04296947257
 21
786.7557897476272
 31
0.0
  0
LINE
  5
BEE8
330
2
100
AcDbEntity
  8
AM_4
  6
HIDDEN2
100
AcDbLine
 10
1174.20741829147
 20
786.7557897476272
 30
0.0
 11
1175.04296947257
 21
786.7557897476272
 31
0.0
  0
LINE
  5
BEE9
330
2
100
AcDbEntity
  8
AM_4
  6
DASHED
100
AcDbLine
 10
1174.977713567059
 20
783.5976007712272
 30
0.0
 11
1174.977713567059
 21
784.1426007712271
 31
0.0
  0
LINE
  5
BEEA
330
2
100
AcDbEntity
  8
AM_4
  6
DASHED
100
AcDbLine
 10
1174.477713567059
 20
783.5976007712272
 30
0.0
 11
1174.477713567059
 21
784.1426007712271
 31
0.0
  0
LINE
  5
BEEB
330
2
100
AcDbEntity
  8
AM_4
  6
DASHED
100
AcDbLine
 10
1174.977713567059
 20
784.1426007712271
 30
0.0
 11
1174.477713567059
 21
784.1426007712271
 31
0.0
  0
CIRCLE
  5
BEEC
330
2
100
AcDbEntity
  8
AM_4
  6
HIDDEN2
100
AcDbCircle
 10
1177.34519388202
 20
785.3926007712272
 30
0.0
 40
0.1574805
  0
LINE
  5
BEED
330
2
100
AcDbEntity
  8
AM_4
  6
DASHED
100
AcDbLine
 10
1176.927418291469
 20
787.217523738694
 30
0.0
 11
1176.927418291469
 21
786.7557897476272
 31
0.0
  0
LINE
  5
BEEE
330
2
100
AcDbEntity
  8
AM_4
  6
DASHED
100
AcDbLine
 10
1177.76296947257
 20
787.217523738694
 30
0.0
 11
1177.76296947257
 21
786.7557897476272
 31
0.0
  0
LINE
  5
BEEF
330
2
100
AcDbEntity
  8
AM_4
  6
HIDDEN2
100
AcDbLine
 10
1176.927418291469
 20
786.7557897476272
 30
0.0
 11
1177.76296947257
 21
786.7557897476272
 31
0.0
  0
LINE
  5
BEF1
330
2
100
AcDbEntity
  8
AM_4
  6
DASHED
100
AcDbLine
 10
1177.102516716665
 20
783.5976007712272
 30
0.0
 11
1177.102516716665
 21
784.1426007712271
 31
0.0
  0
LINE
  5
BEF2
330
2
100
AcDbEntity
  8
AM_4
  6
DASHED
100
AcDbLine
 10
1177.602516716665
 20
784.1426007712271
 30
0.0
 11
1177.102516716665
 21
784.1426007712271
 31
0.0
  0
LINE
  5
BEFD
330
2
100
AcDbEntity
  8
AM_4
  6
DASHED
100
AcDbLine
 10
1173.896374984382
 20
783.8251007712272
 30
0.0
 11
1174.798737189106
 21
783.8251007712272
 31
0.0
  0
LINE
  5
BEFE
330
2
100
AcDbEntity
  8
AM_4
  6
DASHED
100
AcDbLine
 10
1173.896374984382
 20
784.2001007712272
 30
0.0
 11
1174.798737189106
 21
784.2001007712272
 31
0.0
  0
LINE
  5
BF01
330
2
100
AcDbEntity
  8
AM_4
  6
DASHED
100
AcDbLine
 10
1177.684012779657
 20
784.2001007712272
 30
0.0
 11
1176.781650574933
 21
784.2001007712272
 31
0.0
  0
LINE
  5
BF02
330
2
100
AcDbEntity
  8
AM_4
  6
DASHED
100
AcDbLine
 10
1177.684012779657
 20
783.8251007712272
 30
0.0
 11
1176.781650574933
 21
783.8251007712272
 31
0.0
  0
LINE
  5
BF07
330
2
100
AcDbEntity
  8
AM_4
  6
DASHED
100
AcDbLine
 10
1177.273776559185
 20
784.1747507712272
 30
0.0
 11
1176.713776559185
 21
784.1747507712272
 31
0.0
  0
LINE
  5
BF08
330
2
100
AcDbEntity
  8
AM_4
  6
DASHED
100
AcDbLine
 10
1177.273776559185
 20
783.8504507712272
 30
0.0
 11
1176.713776559185
 21
783.8504507712272
 31
0.0
  0
LINE
  5
BF09
330
2
100
AcDbEntity
  8
AM_4
  6
DASHED
100
AcDbLine
 10
1174.352516716665
 20
783.8504507712272
 30
0.0
 11
1174.982516716665
 21
783.8504507712272
 31
0.0
  0
LINE
  5
BF0A
330
2
100
AcDbEntity
  8
AM_4
  6
DASHED
100
AcDbLine
 10
1174.352516716665
 20
784.1747507712272
 30
0.0
 11
1174.982516716665
 21
784.1747507712272
 31
0.0
  0
ELLIPSE
  5
BF0B
330
2
100
AcDbEntity
  8
AM_VIS
100
AcDbEllipse
 10
1166.752199664124
 20
787.2621345024615
 30
0.0
 11
-0.4049275870445226
 21
0.0000000000000017
 31
0.0
210
0.0
220
0.0
230
1.0
 40
0.00872721798864
 41
1.570796326794405
 42
7.853981633973991
  0
LINE
  5
BF0C
330
2
100
AcDbEntity
  8
AM_VIS
100
AcDbLine
 10
1165.192322838666
 20
787.2674262338713
 30
0.0
 11
1168.312076489582
 21
787.2674262338713
 31
0.0
  0
LINE
  5
BF0D
330
2
100
AcDbEntity
  8
AM_VIS
100
AcDbLine
 10
1165.206024021097
 20
787.2537250514398
 30
0.0
 11
1168.298375307151
 21
787.2537250514398
 31
0.0
  0
LINE
  5
BF0E
330
2
100
AcDbEntity
  8
AM_VIS
100
AcDbLine
 10
1167.421491002706
 20
787.0638606137469
 30
0.0
 11
1167.421491002706
 21
786.356966811693
 31
0.0
  0
LINE
  5
BF0F
330
2
100
AcDbEntity
  8
AM_VIS
100
AcDbLine
 10
1167.581018561762
 20
787.1426007712272
 30
0.0
 11
1166.880152420029
 21
787.1426007712272
 31
0.0
  0
LINE
  5
BF10
330
2
100
AcDbEntity
  8
AM_VIS
100
AcDbLine
 10
1167.659758719242
 20
786.7726007712271
 30
0.0
 11
1167.659758719242
 21
787.0638606137469
 31
0.0
  0
LINE
  5
BF11
330
2
100
AcDbEntity
  8
AM_VIS
100
AcDbLine
 10
1167.57564962998
 20
786.2856478612159
 30
0.0
 11
1167.718304346692
 21
786.4283025779278
 31
0.0
  0
LINE
  5
BF12
330
2
100
AcDbEntity
  8
AM_VIS
100
AcDbLine
 10
1166.082908325541
 20
787.0638606137469
 30
0.0
 11
1166.082908325541
 21
786.356966811693
 31
0.0
  0
LINE
  5
BF13
330
2
100
AcDbEntity
  8
AM_VIS
100
AcDbLine
 10
1165.786094981556
 20
786.4283025779278
 30
0.0
 11
1165.928749698268
 21
786.2856478612159
 31
0.0
  0
LINE
  5
BF14
330
2
100
AcDbEntity
  8
AM_VIS
100
AcDbLine
 10
1165.844640609006
 20
787.0638606137469
 30
0.0
 11
1165.844640609006
 21
786.7726007712271
 31
0.0
  0
LINE
  5
BF15
330
2
100
AcDbEntity
  8
AM_VIS
100
AcDbLine
 10
1168.423459506644
 20
785.8926007712272
 30
0.0
 11
1167.826728774584
 21
785.8926007712272
 31
0.0
  0
LINE
  5
BF16
330
2
100
AcDbEntity
  8
AM_VIS
100
AcDbLine
 10
1167.787901470825
 20
786.3587054537953
 30
0.0
 11
1167.645246754113
 21
786.2160507370833
 31
0.0
  0
LINE
  5
BF17
330
2
100
AcDbEntity
  8
AM_VIS
100
AcDbLine
 10
1168.423459506644
 20
786.3001598263452
 30
0.0
 11
1168.132199664124
 21
786.3001598263452
 31
0.0
  0
LINE
  5
BF18
330
2
100
AcDbEntity
  8
AM_VIS
100
AcDbLine
 10
1168.423459506644
 20
784.8926007712272
 30
0.0
 11
1167.826728774584
 21
784.8926007712272
 31
0.0
  0
LINE
  5
BF19
330
2
100
AcDbEntity
  8
AM_VIS
100
AcDbLine
 10
1168.132199664124
 20
784.4850417161091
 30
0.0
 11
1168.423459506644
 21
784.4850417161091
 31
0.0
  0
LINE
  5
BF1A
330
2
100
AcDbEntity
  8
AM_VIS
100
AcDbLine
 10
1167.645246754113
 20
784.569150805371
 30
0.0
 11
1167.787901470825
 21
784.426496088659
 31
0.0
  0
SPLINE
  5
BF1B
330
2
100
AcDbEntity
  8
AM_VIS
100
AcDbSpline
210
0.0
220
0.0
230
1.0
 70
     8
 71
     3
 72
    18
 73
    14
 74
     0
 42
0.0000000001
 43
0.0000000001
 40
0.0
 40
0.0
 40
0.0
 40
0.0
 40
0.0257222237937345
 40
0.0257222237937345
 40
0.0537582250674496
 40
0.0537582250674496
 40
0.0871344609483915
 40
0.0871344609483915
 40
0.1108495521981702
 40
0.1108495521981702
 40
0.1348501847430451
 40
0.1348501847430451
 40
0.1353123141095902
 40
0.1353123141095902
 40
0.1353123141095902
 40
0.1353123141095902
 10
1167.216495646437
 20
783.7213409287073
 30
0.0
 10
1167.216495646437
 20
783.7127668541095
 30
0.0
 10
1167.217445142177
 20
783.704351429954
 30
0.0
 10
1167.221185614798
 20
783.6877200455245
 30
0.0
 10
1167.224072717791
 20
783.679848178042
 30
0.0
 10
1167.231791147234
 20
783.6648452017356
 30
0.0
 10
1167.236826471173
 20
783.6582461344983
 30
0.0
 10
1167.246094408878
 20
783.6498231937301
 30
0.0
 10
1167.250136597185
 20
783.6471707278271
 30
0.0
 10
1167.258403544666
 20
783.6435677684925
 30
0.0
 10
1167.262633785808
 20
783.6426363162823
 30
0.0
 10
1167.266907403265
 20
783.6426011038918
 30
0.0
 10
1167.266988123673
 20
783.6426007712271
 30
0.0
 10
1167.267068830253
 20
783.6426007712271
 30
0.0
  0
SPLINE
  5
BF1C
330
2
100
AcDbEntity
  8
AM_VIS
100
AcDbSpline
210
0.0
220
0.0
230
1.0
 70
     8
 71
     3
 72
    14
 73
    10
 74
     0
 42
0.0000000001
 43
0.0000000001
 40
-0.1025061208611253
 40
-0.1025061208611253
 40
-0.1025061208611253
 40
-0.1025061208611253
 40
-0.0735059408262766
 40
-0.0735059408262766
 40
-0.0388379278963529
 40
-0.0388379278963529
 40
0.0
 40
0.0
 40
0.0004571663678074
 40
0.0004571663678074
 40
0.0004571663678074
 40
0.0004571663678074
 10
1167.214067144321
 20
784.2954439326153
 30
0.0
 10
1167.212579188426
 20
784.30424254786
 30
0.0
 10
1167.212285135438
 20
784.3125384181843
 30
0.0
 10
1167.213808169423
 20
784.328964299562
 30
0.0
 10
1167.216032479737
 20
784.3366368049779
 30
0.0
 10
1167.222913646143
 20
784.3496350040965
 30
0.0
 10
1167.227830921906
 20
784.3545735841258
 30
0.0
 10
1167.233714192661
 20
784.3573727132202
 30
0.0
 10
1167.233782765876
 20
784.3574049786578
 30
0.0
 10
1167.233851464696
 20
784.3574369435599
 30
0.0
  0
ARC
  5
BF1D
330
2
100
AcDbEntity
  8
AM_VIS
100
AcDbCircle
 10
1167.021986429717
 20
784.264790375978
 30
0.0
 40
0.1945112887659496
100
AcDbArc
 50
359.7355367263122
 51
9.067194683875234
  0
LINE
  5
BF1E
330
2
100
AcDbEntity
  8
AM_VIS
100
AcDbLine
 10
1167.216495646437
 20
783.7213409287074
 30
0.0
 11
1167.216495646437
 21
784.2638925627364
 31
0.0
  0
LINE
  5
BF1F
330
2
100
AcDbEntity
  8
AM_VIS
100
AcDbLine
 10
1166.880152420029
 20
783.6426007712272
 30
0.0
 11
1167.581018561762
 21
783.6426007712272
 31
0.0
  0
LINE
  5
BF20
330
2
100
AcDbEntity
  8
AM_VIS
100
AcDbLine
 10
1166.801412262549
 20
784.1788540631524
 30
0.0
 11
1166.801412262549
 21
783.7213409287074
 31
0.0
  0
SPLINE
  5
BF21
330
2
100
AcDbEntity
  8
AM_VIS
100
AcDbSpline
210
0.0
220
0.0
230
1.0
 70
     8
 71
     3
 72
    14
 73
    10
 74
     0
 42
0.0000000001
 43
0.0000000001
 40
0.0
 40
0.0
 40
0.0
 40
0.0
 40
0.0288540533859703
 40
0.0288540533859703
 40
0.0633473552859155
 40
0.0633473552859155
 40
0.1019895571386945
 40
0.1019895571386945
 40
0.1024444195952483
 40
0.1024444195952483
 40
0.1024444195952483
 40
0.1024444195952483
 10
1166.29033218498
 20
784.2954439323522
 30
0.0
 10
1166.291820140406
 20
784.3042425444997
 30
0.0
 10
1166.292114193317
 20
784.3125384130114
 30
0.0
 10
1166.290591158766
 20
784.328964299843
 30
0.0
 10
1166.288366848418
 20
784.3366368052423
 30
0.0
 10
1166.281485681992
 20
784.34963500421
 30
0.0
 10
1166.27656840628
 20
784.3545735841555
 30
0.0
 10
1166.270685135587
 20
784.3573727132203
 30
0.0
 10
1166.270616562371
 20
784.3574049786578
 30
0.0
 10
1166.270547863551
 20
784.3574369435599
 30
0.0
  0
ARC
  5
BF22
330
2
100
AcDbEntity
  8
AM_VIS
100
AcDbCircle
 10
1166.466720018063
 20
784.2659993919523
 30
0.0
 40
0.1788285469181295
100
AcDbArc
 50
170.5229605268677
 51
180.6750324917512
  0
SPLINE
  5
BF23
330
2
100
AcDbEntity
  8
AM_VIS
100
AcDbSpline
210
0.0
220
0.0
230
1.0
 70
     8
 71
     3
 72
    18
 73
    14
 74
     0
 42
0.0000000001
 43
0.0000000001
 40
-0.1355501492433071
 40
-0.1355501492433071
 40
-0.1355501492433071
 40
-0.1355501492433071
 40
-0.1096944095504593
 40
-0.1096944095504593
 40
-0.0815128822931596
 40
-0.0815128822931596
 40
-0.0479634009658528
 40
-0.0479634009658528
 40
-0.0241252122048776
 40
-0.0241252122048776
 40
0.0
 40
0.0
 40
0.0004645281341854
 40
0.0004645281341854
 40
0.0004645281341854
 40
0.0004645281341854
 10
1166.287903681811
 20
783.7213409287073
 30
0.0
 10
1166.287903681811
 20
783.7127668541095
 30
0.0
 10
1166.286954186071
 20
783.704351429954
 30
0.0
 10
1166.28321371345
 20
783.6877200455245
 30
0.0
 10
1166.280326610457
 20
783.679848178042
 30
0.0
 10
1166.272608181013
 20
783.6648452017356
 30
0.0
 10
1166.267572857075
 20
783.6582461344983
 30
0.0
 10
1166.25830491937
 20
783.6498231937301
 30
0.0
 10
1166.254262731063
 20
783.6471707278271
 30
0.0
 10
1166.245995783582
 20
783.643567768493
 30
0.0
 10
1166.241765542446
 20
783.6426363162825
 30
0.0
 10
1166.237491924983
 20
783.6426011038918
 30
0.0
 10
1166.237411204575
 20
783.6426007712271
 30
0.0
 10
1166.237330497995
 20
783.6426007712271
 30
0.0
  0
LINE
  5
BF24
330
2
100
AcDbEntity
  8
AM_VIS
100
AcDbLine
 10
1166.287903681811
 20
784.2638925627364
 30
0.0
 11
1166.287903681811
 21
783.7213409287074
 31
0.0
  0
LINE
  5
BF25
330
2
100
AcDbEntity
  8
AM_VIS
100
AcDbLine
 10
1165.923380766486
 20
783.6426007712272
 30
0.0
 11
1166.624246908218
 21
783.6426007712272
 31
0.0
  0
LINE
  5
BF26
330
2
100
AcDbEntity
  8
AM_VIS
100
AcDbLine
 10
1165.844640609006
 20
784.0126007712272
 30
0.0
 11
1165.844640609006
 21
783.7213409287074
 31
0.0
  0
LINE
  5
BF27
330
2
100
AcDbEntity
  8
AM_VIS
100
AcDbLine
 10
1165.928749698268
 20
784.4995536812384
 30
0.0
 11
1165.786094981556
 21
784.3568989645265
 31
0.0
  0
LINE
  5
BF28
330
2
100
AcDbEntity
  8
AM_VIS
100
AcDbLine
 10
1165.080939821604
 20
784.8926007712272
 30
0.0
 11
1165.677670553664
 21
784.8926007712272
 31
0.0
  0
LINE
  5
BF29
330
2
100
AcDbEntity
  8
AM_VIS
100
AcDbLine
 10
1165.080939821604
 20
784.4850417161091
 30
0.0
 11
1165.372199664124
 21
784.4850417161091
 31
0.0
  0
LINE
  5
BF2A
330
2
100
AcDbEntity
  8
AM_VIS
100
AcDbLine
 10
1165.002199664124
 20
785.2646480153216
 30
0.0
 11
1165.002199664124
 21
784.5637818735894
 31
0.0
  0
LINE
  5
BF2B
330
2
100
AcDbEntity
  8
AM_VIS
100
AcDbLine
 10
1165.538452956049
 20
785.3433881728019
 30
0.0
 11
1165.080939821604
 21
785.3433881728019
 31
0.0
  0
LINE
  5
BF2C
330
2
100
AcDbEntity
  8
AM_VIS
100
AcDbLine
 10
1165.080939821604
 20
785.8926007712272
 30
0.0
 11
1165.677670553664
 21
785.8926007712272
 31
0.0
  0
LINE
  5
BF2D
330
2
100
AcDbEntity
  8
AM_VIS
100
AcDbLine
 10
1165.859152574135
 20
786.2160507370833
 30
0.0
 11
1165.716497857423
 21
786.3587054537953
 31
0.0
  0
LINE
  5
BF2E
330
2
100
AcDbEntity
  8
AM_VIS
100
AcDbLine
 10
1165.080939821604
 20
785.4418133696524
 30
0.0
 11
1165.538452956049
 21
785.4418133696524
 31
0.0
  0
LINE
  5
BF2F
330
2
100
AcDbEntity
  8
AM_VIS
100
AcDbLine
 10
1168.397859863152
 20
783.5176007712272
 30
0.0
 11
1168.445860802395
 21
783.5176007712272
 31
0.0
  0
LINE
  5
BF30
330
2
100
AcDbEntity
  8
AM_VIS
100
AcDbLine
 10
1165.106539465095
 20
783.5176007712272
 30
0.0
 11
1168.397859863152
 21
783.5176007712272
 31
0.0
  0
LINE
  5
BF31
330
2
100
AcDbEntity
  8
AM_VIS
100
AcDbLine
 10
1165.058538525853
 20
783.5176007712272
 30
0.0
 11
1165.106539465095
 21
783.5176007712272
 31
0.0
  0
ELLIPSE
  5
BF32
330
2
100
AcDbEntity
  8
AM_VIS
100
AcDbEllipse
 10
1168.312052503654
 20
786.9524536107576
 30
0.0
 11
0.2227277578365006
 21
0.2227277578365006
 31
0.0
210
0.0
220
0.0
230
0.9999999999999998
 40
0.9999238504775703
 41
5.497825219993075
 42
7.068545394366094
  0
LINE
  5
BF33
330
2
100
AcDbEntity
  8
AM_VIS
100
AcDbLine
 10
1168.627025126768
 20
783.8027239457685
 30
0.0
 11
1168.627025126768
 21
786.9524775966858
 31
0.0
  0
ELLIPSE
  5
BF34
330
2
100
AcDbEntity
  8
AM_VIS
100
AcDbEllipse
 10
1168.312052503654
 20
783.8027479316965
 30
0.0
 11
0.2227277578365005
 21
-0.2227277578365007
 31
0.0
210
0.0
220
0.0
230
1.0
 40
0.9999238504775703
 41
5.936517822917415
 42
7.068545394366094
  0
ELLIPSE
  5
BF35
330
2
100
AcDbEntity
  8
AM_VIS
100
AcDbEllipse
 10
1165.192346824593
 20
783.8027479316965
 30
0.0
 11
-0.2227277578365006
 21
-0.2227277578365004
 31
0.0
210
0.0
220
0.0
230
1.0
 40
0.9999238504775707
 41
5.497825219993075
 42
6.62985279144175
  0
LINE
  5
BF36
330
2
100
AcDbEntity
  8
AM_VIS
100
AcDbLine
 10
1164.87737420148
 20
786.9524775966858
 30
0.0
 11
1164.87737420148
 21
783.8027239457685
 31
0.0
  0
ELLIPSE
  5
BF37
330
2
100
AcDbEntity
  8
AM_VIS
100
AcDbEllipse
 10
1165.192346824593
 20
786.9524536107576
 30
0.0
 11
-0.2227277578365001
 21
0.2227277578365009
 31
0.0
210
0.0
220
0.0
230
1.0
 40
0.9999238504775707
 41
5.497825219993079
 42
7.068545394366098
  0
ELLIPSE
  5
BF38
330
2
100
AcDbEntity
  8
AM_VIS
100
AcDbEllipse
 10
1165.206048007025
 20
783.8164491141279
 30
0.0
 11
-0.2227277578365006
 21
-0.2227277578365004
 31
0.0
210
0.0
220
0.0
230
1.0
 40
0.9999238504775707
 41
5.497825219993075
 42
6.747187388370125
  0
ELLIPSE
  5
BF39
330
2
100
AcDbEntity
  8
AM_VIS
100
AcDbEllipse
 10
1168.298351321223
 20
783.8164491141279
 30
0.0
 11
0.2227277578365005
 21
-0.2227277578365007
 31
0.0
210
0.0
220
0.0
230
1.0
 40
0.9999238504775703
 41
5.819183225989044
 42
7.068545394366096
  0
LINE
  5
BF3A
330
2
100
AcDbEntity
  8
AM_VIS
100
AcDbLine
 10
1168.613323944337
 20
786.9387764142543
 30
0.0
 11
1168.613323944337
 21
783.8164251282001
 31
0.0
  0
ELLIPSE
  5
BF3B
330
2
100
AcDbEntity
  8
AM_VIS
100
AcDbEllipse
 10
1168.298351321223
 20
786.9387524283262
 30
0.0
 11
0.2227277578365006
 21
0.2227277578365006
 31
0.0
210
0.0
220
0.0
230
0.9999999999999998
 40
0.9999238504775703
 41
5.497825219993077
 42
7.068545394366096
  0
ELLIPSE
  5
BF3C
330
2
100
AcDbEntity
  8
AM_VIS
100
AcDbEllipse
 10
1165.206048007025
 20
786.9387524283262
 30
0.0
 11
-0.2227277578365001
 21
0.2227277578365009
 31
0.0
210
0.0
220
0.0
230
1.0
 40
0.9999238504775707
 41
5.497825219993081
 42
7.0685453943661
  0
LINE
  5
BF3D
330
2
100
AcDbEntity
  8
AM_VIS
100
AcDbLine
 10
1164.891075383911
 20
783.8164251282001
 30
0.0
 11
1164.891075383911
 21
786.9387764142543
 31
0.0
  0
LINE
  5
BF3E
330
2
100
AcDbEntity
  8
AM_VIS
100
AcDbLine
 10
1167.965946372199
 20
785.4418133696524
 30
0.0
 11
1168.423459506644
 21
785.4418133696524
 31
0.0
  0
LINE
  5
BF3F
330
2
100
AcDbEntity
  8
AM_VIS
100
AcDbLine
 10
1168.502199664124
 20
785.5205535271327
 30
0.0
 11
1168.502199664124
 21
786.221419668865
 31
0.0
  0
LINE
  5
BF40
330
2
100
AcDbEntity
  8
AM_VIS
100
AcDbLine
 10
1167.718304346692
 20
784.3568989645265
 30
0.0
 11
1167.57564962998
 21
784.4995536812384
 31
0.0
  0
LINE
  5
BF41
330
2
100
AcDbEntity
  8
AM_VIS
100
AcDbLine
 10
1167.659758719242
 20
783.7213409287074
 30
0.0
 11
1167.659758719242
 21
784.0126007712272
 31
0.0
  0
LINE
  5
BF42
330
2
100
AcDbEntity
  8
AM_VIS
100
AcDbLine
 10
1165.716497857423
 20
784.426496088659
 30
0.0
 11
1165.859152574135
 21
784.569150805371
 31
0.0
  0
LINE
  5
BF43
330
2
100
AcDbEntity
  8
AM_VIS
100
AcDbLine
 10
1166.624246908218
 20
787.1426007712272
 30
0.0
 11
1165.923380766486
 21
787.1426007712272
 31
0.0
  0
LINE
  5
BF44
330
2
100
AcDbEntity
  8
AM_VIS
100
AcDbLine
 10
1166.702987065699
 20
786.6063474793019
 30
0.0
 11
1166.702987065699
 21
787.0638606137469
 31
0.0
  0
LINE
  5
BF45
330
2
100
AcDbEntity
  8
AM_VIS
100
AcDbLine
 10
1168.423459506644
 20
785.3433881728019
 30
0.0
 11
1167.965946372199
 21
785.3433881728019
 31
0.0
  0
LINE
  5
BF46
330
2
100
AcDbEntity
  8
AM_VIS
100
AcDbLine
 10
1168.502199664124
 20
784.5637818735894
 30
0.0
 11
1168.502199664124
 21
785.2646480153216
 31
0.0
  0
LINE
  5
BF47
330
2
100
AcDbEntity
  8
AM_VIS
100
AcDbLine
 10
1166.702987065699
 20
783.7213409287074
 30
0.0
 11
1166.702987065699
 21
784.1788540631524
 31
0.0
  0
LINE
  5
BF48
330
2
100
AcDbEntity
  8
AM_VIS
100
AcDbLine
 10
1165.002199664124
 20
786.221419668865
 30
0.0
 11
1165.002199664124
 21
785.5205535271327
 31
0.0
  0
LINE
  5
BF49
330
2
100
AcDbEntity
  8
AM_VIS
100
AcDbLine
 10
1165.372199664124
 20
786.3001598263452
 30
0.0
 11
1165.080939821604
 21
786.3001598263452
 31
0.0
  0
LINE
  5
BF4A
330
2
100
AcDbEntity
  8
AM_VIS
100
AcDbLine
 10
1166.801412262549
 20
787.0638606137469
 30
0.0
 11
1166.801412262549
 21
786.6063474793019
 31
0.0
  0
SPLINE
  5
BF4B
330
2
100
AcDbEntity
  8
AM_VIS
100
AcDbSpline
210
0.0
220
0.0
230
1.0
 70
    11
 71
     3
 72
    38
 73
    34
 74
     0
 42
0.0000000001
 43
0.0000000001
 40
0.0
 40
0.0
 40
0.0
 40
0.0
 40
0.084066881890108
 40
0.084066881890108
 40
0.168133763780216
 40
0.168133763780216
 40
0.252200645670324
 40
0.252200645670324
 40
0.336267527560432
 40
0.336267527560432
 40
0.42033440945054
 40
0.42033440945054
 40
0.504401291340648
 40
0.504401291340648
 40
0.5884681732307559
 40
0.5884681732307559
 40
0.6725350551208641
 40
0.6725350551208641
 40
0.756601937010972
 40
0.756601937010972
 40
0.84066881890108
 40
0.84066881890108
 40
0.924735700791188
 40
0.924735700791188
 40
1.008802582681296
 40
1.008802582681296
 40
1.092869464571403
 40
1.092869464571403
 40
1.155919625988985
 40
1.155919625988985
 40
1.250494868115356
 40
1.250494868115356
 40
1.345070110241727
 40
1.345070110241727
 40
1.345070110241727
 40
1.345070110241727
 10
1168.623589915319
 20
785.3926007712271
 30
0.0
 10
1168.623589915319
 20
785.3739205860236
 30
0.0
 10
1168.623574803112
 20
785.3535200886101
 30
0.0
 10
1168.623426871185
 20
785.3002840874659
 30
0.0
 10
1168.623293847361
 20
785.2718147049698
 30
0.0
 10
1168.622915905603
 20
785.223690881987
 30
0.0
 10
1168.622676581544
 20
785.204802420364
 30
0.0
 10
1168.622195006944
 20
785.1814833476392
 30
0.0
 10
1168.621947521132
 20
785.1760657752508
 30
0.0
 10
1168.62145302794
 20
785.1760646885428
 30
0.0
 10
1168.621205617555
 20
785.1817009996986
 30
0.0
 10
1168.620748544989
 20
785.2033958850301
 30
0.0
 10
1168.6205390407
 20
785.2194341251419
 30
0.0
 10
1168.620189081357
 20
785.2595339231007
 30
0.0
 10
1168.620049115536
 20
785.2835387810503
 30
0.0
 10
1168.619859763681
 20
785.3359141386882
 30
0.0
 10
1168.619810561271
 20
785.3642672950077
 30
0.0
 10
1168.619810561271
 20
785.4209342474464
 30
0.0
 10
1168.619859763681
 20
785.449287403766
 30
0.0
 10
1168.620049115536
 20
785.5016627614039
 30
0.0
 10
1168.620189081357
 20
785.5256676193533
 30
0.0
 10
1168.6205390407
 20
785.5657674173122
 30
0.0
 10
1168.620748544989
 20
785.5818056574239
 30
0.0
 10
1168.621205617555
 20
785.6035005427554
 30
0.0
 10
1168.62145302794
 20
785.6091368539114
 30
0.0
 10
1168.621947521132
 20
785.6091357672032
 30
0.0
 10
1168.622195006944
 20
785.6037181948149
 30
0.0
 10
1168.622616384719
 20
785.5833140061807
 30
0.0
 10
1168.622795545767
 20
785.5707191761446
 30
0.0
 10
1168.623192387192
 20
785.530378220842
 30
0.0
 10
1168.623371065686
 20
785.4988539708091
 30
0.0
 10
1168.62356976721
 20
785.4379078696703
 30
0.0
 10
1168.623589915319
 20
785.413615979581
 30
0.0
 10
1168.623589915319
 20
785.3926007712271
 30
0.0
  0
SPLINE
  5
BF55
330
2
100
AcDbEntity
  8
AM_VIS
100
AcDbSpline
210
0.0
220
0.0
230
1.0
 70
    11
 71
     3
 72
    38
 73
    34
 74
     0
 42
0.0000000001
 43
0.0000000001
 40
0.0
 40
0.0
 40
0.0
 40
0.0
 40
0.0840668375009913
 40
0.0840668375009913
 40
0.1681336750019825
 40
0.1681336750019825
 40
0.2522005125029738
 40
0.2522005125029738
 40
0.336267350003965
 40
0.336267350003965
 40
0.4203341875049563
 40
0.4203341875049563
 40
0.5044010250059476
 40
0.5044010250059476
 40
0.5884678625069389
 40
0.5884678625069389
 40
0.6725347000079301
 40
0.6725347000079301
 40
0.7566015375089213
 40
0.7566015375089213
 40
0.8406683750099123
 40
0.8406683750099123
 40
0.9247352125109035
 40
0.9247352125109035
 40
1.008802050011894
 40
1.008802050011894
 40
1.092868887512886
 40
1.092868887512886
 40
1.155919015638629
 40
1.155919015638629
 40
1.250494207827244
 40
1.250494207827244
 40
1.34506940001586
 40
1.34506940001586
 40
1.34506940001586
 40
1.34506940001586
 10
1164.88459026517
 20
785.3926007712271
 30
0.0
 10
1164.88459026517
 20
785.373916629604
 30
0.0
 10
1164.884575162256
 20
785.3535386588456
 30
0.0
 10
1164.884427401208
 20
785.3003337522625
 30
0.0
 10
1164.884294520071
 20
785.2718708137346
 30
0.0
 10
1164.88391671359
 20
785.2237343308748
 30
0.0
 10
1164.883677229337
 20
785.2048195431946
 30
0.0
 10
1164.883195340746
 20
785.1814800173441
 30
0.0
 10
1164.88294776072
 20
785.1760642117961
 30
0.0
 10
1164.882453267154
 20
785.1760664648202
 30
0.0
 10
1164.882205868702
 20
785.1817042197236
 30
0.0
 10
1164.881748811253
 20
785.2034016361119
 30
0.0
 10
1164.881539324
 20
785.2194404046185
 30
0.0
 10
1164.88118939409
 20
785.2595400359066
 30
0.0
 10
1164.881049440244
 20
785.2835446084668
 30
0.0
 10
1164.880860109792
 20
785.3359173687716
 30
0.0
 10
1164.880810912977
 20
785.3642688025119
 30
0.0
 10
1164.880810912977
 20
785.4209327399423
 30
0.0
 10
1164.880860109792
 20
785.4492841736826
 30
0.0
 10
1164.881049440244
 20
785.5016569339873
 30
0.0
 10
1164.88118939409
 20
785.5256615065476
 30
0.0
 10
1164.881539324
 20
785.5657611378355
 30
0.0
 10
1164.881748811253
 20
785.5817999063423
 30
0.0
 10
1164.882205868702
 20
785.6034973227306
 30
0.0
 10
1164.882453267154
 20
785.609135077634
 30
0.0
 10
1164.88294776072
 20
785.6091373306582
 30
0.0
 10
1164.883195340746
 20
785.6037215251101
 30
0.0
 10
1164.883616993264
 20
785.5832994399909
 30
0.0
 10
1164.883796309678
 20
785.5706865979414
 30
0.0
 10
1164.88419315717
 20
785.5303210921158
 30
0.0
 10
1164.884371645037
 20
785.4988015017199
 30
0.0
 10
1164.884570143223
 20
785.4378818597974
 30
0.0
 10
1164.88459026517
 20
785.413620430553
 30
0.0
 10
1164.88459026517
 20
785.3926007712271
 30
0.0
  0
LINE
  5
BF5C
330
2
100
AcDbEntity
  8
AM_HID
  6
DASHED
100
AcDbLine
 10
1167.719199664124
 20
783.5976007712272
 30
0.0
 11
1167.799199664124
 21
783.5176007712272
 31
0.0
  0
LINE
  5
BF5D
330
2
100
AcDbEntity
  8
AM_HID
  6
DASHED
100
AcDbLine
 10
1167.285199664124
 20
783.5976007712272
 30
0.0
 11
1167.205199664124
 21
783.5176007712272
 31
0.0
  0
LINE
  5
BF5E
330
2
100
AcDbEntity
  8
AM_HID
  6
DASHED
100
AcDbLine
 10
1167.285199664124
 20
783.5976007712272
 30
0.0
 11
1167.285199664124
 21
784.22626218855
 31
0.0
  0
LINE
  5
BF5F
330
2
100
AcDbEntity
  8
AM_HID
  6
DASHED
100
AcDbLine
 10
1167.719199664124
 20
783.5976007712272
 30
0.0
 11
1167.719199664124
 21
784.22626218855
 31
0.0
  0
LINE
  5
BF60
330
2
100
AcDbEntity
  8
AM_HID
  6
DASHED
100
AcDbLine
 10
1166.219199664124
 20
783.5976007712272
 30
0.0
 11
1166.299199664124
 21
783.5176007712272
 31
0.0
  0
LINE
  5
BF61
330
2
100
AcDbEntity
  8
AM_HID
  6
DASHED
100
AcDbLine
 10
1165.785199664124
 20
783.5976007712272
 30
0.0
 11
1165.705199664124
 21
783.5176007712272
 31
0.0
  0
LINE
  5
BF62
330
2
100
AcDbEntity
  8
AM_HID
  6
DASHED
100
AcDbLine
 10
1165.785199664124
 20
783.5976007712272
 30
0.0
 11
1165.785199664124
 21
784.22626218855
 31
0.0
  0
LINE
  5
BF63
330
2
100
AcDbEntity
  8
AM_HID
  6
DASHED
100
AcDbLine
 10
1166.219199664124
 20
783.5976007712272
 30
0.0
 11
1166.219199664124
 21
784.22626218855
 31
0.0
  0
LINE
  5
BF64
330
2
100
AcDbEntity
  8
AM_HID
  6
DASHED
100
AcDbLine
 10
1167.502199664124
 20
784.3566489428789
 30
0.0
 11
1167.719199664124
 21
784.22626218855
 31
0.0
  0
LINE
  5
BF65
330
2
100
AcDbEntity
  8
AM_HID
  6
DASHED
100
AcDbLine
 10
1167.502199664124
 20
784.3566489428789
 30
0.0
 11
1167.285199664124
 21
784.22626218855
 31
0.0
  0
LINE
  5
BF66
330
2
100
AcDbEntity
  8
AM_HID
  6
DASHED
100
AcDbLine
 10
1166.002199664124
 20
784.3566489428789
 30
0.0
 11
1166.219199664124
 21
784.22626218855
 31
0.0
  0
LINE
  5
BF67
330
2
100
AcDbEntity
  8
AM_HID
  6
DASHED
100
AcDbLine
 10
1166.002199664124
 20
784.3566489428789
 30
0.0
 11
1165.785199664124
 21
784.22626218855
 31
0.0
  0
ARC
  5
BF80
330
2
100
AcDbEntity
  8
AM_VIS
100
AcDbCircle
 10
1167.500231160187
 20
787.0638606137469
 30
0.0
 40
0.0787401574803148
100
AcDbArc
 50
90.0
 51
180.0
  0
ARC
  5
BF81
330
2
100
AcDbEntity
  8
AM_VIS
100
AcDbCircle
 10
1167.500231160187
 20
786.356966811693
 30
0.0
 40
0.0787401574803151
100
AcDbArc
 50
180.0
 51
232.2002775645728
  0
ARC
  5
BF82
330
2
100
AcDbEntity
  8
AM_VIS
100
AcDbCircle
 10
1167.581018561762
 20
787.0638606137469
 30
0.0
 40
0.078740157480315
100
AcDbArc
 50
0.0
 51
90.0
  0
ARC
  5
BF83
330
2
100
AcDbEntity
  8
AM_VIS
100
AcDbCircle
 10
1168.132199664124
 20
786.7726007712271
 30
0.0
 40
0.4724409448818899
100
AcDbArc
 50
180.0
 51
211.5767363965267
  0
ARC
  5
BF84
330
2
100
AcDbEntity
  8
AM_VIS
100
AcDbCircle
 10
1167.662626647386
 20
786.483980277234
 30
0.0
 40
0.078740157480315
100
AcDbArc
 50
314.9999999999992
 51
31.57673639652643
  0
ARC
  5
BF85
330
2
100
AcDbEntity
  8
AM_VIS
100
AcDbCircle
 10
1166.004168168061
 20
786.356966811693
 30
0.0
 40
0.078740157480315
100
AcDbArc
 50
307.7997224354271
 51
0.0
  0
ARC
  5
BF86
330
2
100
AcDbEntity
  8
AM_VIS
100
AcDbCircle
 10
1166.004168168061
 20
787.0638606137469
 30
0.0
 40
0.078740157480315
100
AcDbArc
 50
0.0
 51
90.0
  0
ARC
  5
BF87
330
2
100
AcDbEntity
  8
AM_VIS
100
AcDbCircle
 10
1166.752199664124
 20
785.3926007712272
 30
0.0
 40
1.141732283464566
100
AcDbArc
 50
96.01787401733901
 51
128.9821259826611
  0
ARC
  5
BF88
330
2
100
AcDbEntity
  8
AM_VIS
100
AcDbCircle
 10
1165.984427397574
 20
786.3413255605219
 30
0.0
 40
0.078740157480315
100
AcDbArc
 50
225.0
 51
308.9821259826613
  0
ARC
  5
BF89
330
2
100
AcDbEntity
  8
AM_VIS
100
AcDbCircle
 10
1165.841772680862
 20
786.483980277234
 30
0.0
 40
0.078740157480315
100
AcDbArc
 50
148.4232636034724
 51
225.0000000000008
  0
ARC
  5
BF8A
330
2
100
AcDbEntity
  8
AM_VIS
100
AcDbCircle
 10
1165.372199664124
 20
786.7726007712271
 30
0.0
 40
0.4724409448818899
100
AcDbArc
 50
328.4232636034734
 51
0.0
  0
ARC
  5
BF8B
330
2
100
AcDbEntity
  8
AM_VIS
100
AcDbCircle
 10
1168.423459506644
 20
785.9713409287075
 30
0.0
 40
0.0787401574803148
100
AcDbArc
 50
270.0
 51
0.0
  0
ARC
  5
BF8C
330
2
100
AcDbEntity
  8
AM_VIS
100
AcDbCircle
 10
1167.826728774584
 20
785.9713409287075
 30
0.0
 40
0.0787401574803152
100
AcDbArc
 50
208.3068550247213
 51
270.0
  0
ARC
  5
BF8D
330
2
100
AcDbEntity
  8
AM_VIS
100
AcDbCircle
 10
1166.752199664124
 20
785.3926007712272
 30
0.0
 40
1.141732283464566
100
AcDbArc
 50
6.017874017338725
 51
38.98212598266113
  0
ARC
  5
BF8E
330
2
100
AcDbEntity
  8
AM_VIS
100
AcDbCircle
 10
1167.700924453419
 20
786.1603730377773
 30
0.0
 40
0.078740157480315
100
AcDbArc
 50
135.0
 51
218.9821259826613
  0
ARC
  5
BF8F
330
2
100
AcDbEntity
  8
AM_VIS
100
AcDbCircle
 10
1167.843579170131
 20
786.3030277544893
 30
0.0
 40
0.078740157480315
100
AcDbArc
 50
58.42326360347357
 51
135.0
  0
ARC
  5
BF90
330
2
100
AcDbEntity
  8
AM_VIS
100
AcDbCircle
 10
1168.132199664124
 20
786.7726007712271
 30
0.0
 40
0.4724409448818899
100
AcDbArc
 50
238.4232636034735
 51
270.0
  0
ARC
  5
BF91
330
2
100
AcDbEntity
  8
AM_VIS
100
AcDbCircle
 10
1168.423459506644
 20
784.8138606137468
 30
0.0
 40
0.0787401574803148
100
AcDbArc
 50
0.0
 51
90.0
  0
ARC
  5
BF92
330
2
100
AcDbEntity
  8
AM_VIS
100
AcDbCircle
 10
1167.826728774584
 20
784.8138606137468
 30
0.0
 40
0.0787401574803151
100
AcDbArc
 50
90.0
 51
151.6931449752786
  0
ARC
  5
BF93
330
2
100
AcDbEntity
  8
AM_VIS
100
AcDbCircle
 10
1168.423459506644
 20
784.5637818735894
 30
0.0
 40
0.078740157480315
100
AcDbArc
 50
270.0
 51
0.0
  0
ARC
  5
BF94
330
2
100
AcDbEntity
  8
AM_VIS
100
AcDbCircle
 10
1168.132199664124
 20
784.0126007712272
 30
0.0
 40
0.4724409448818899
100
AcDbArc
 50
90.0
 51
121.5767363965264
  0
ARC
  5
BF95
330
2
100
AcDbEntity
  8
AM_VIS
100
AcDbCircle
 10
1167.843579170131
 20
784.482173787965
 30
0.0
 40
0.078740157480315
100
AcDbArc
 50
224.9999999999992
 51
301.576736396527
  0
ARC
  5
BF96
330
2
100
AcDbEntity
  8
AM_VIS
100
AcDbCircle
 10
1167.700924453419
 20
784.624828504677
 30
0.0
 40
0.078740157480315
100
AcDbArc
 50
141.0178740173386
 51
225.0
  0
ARC
  5
BF97
330
2
100
AcDbEntity
  8
AM_VIS
100
AcDbCircle
 10
1166.880152420029
 20
783.7213409287074
 30
0.0
 40
0.078740157480315
100
AcDbArc
 50
180.0
 51
270.0
  0
ARC
  5
BF98
330
2
100
AcDbEntity
  8
AM_VIS
100
AcDbCircle
 10
1166.880152420029
 20
784.1788540631524
 30
0.0
 40
0.078740157480315
100
AcDbArc
 50
96.01787401734004
 51
180.0
  0
ARC
  5
BF99
330
2
100
AcDbEntity
  8
AM_VIS
100
AcDbCircle
 10
1166.752199664124
 20
785.3926007712272
 30
0.0
 40
1.141732283464566
100
AcDbArc
 50
276.0178740173389
 51
308.9821259826611
  0
ARC
  5
BF9A
330
2
100
AcDbEntity
  8
AM_VIS
100
AcDbCircle
 10
1165.923380766486
 20
783.7213409287074
 30
0.0
 40
0.078740157480315
100
AcDbArc
 50
180.0
 51
270.0
  0
ARC
  5
BF9B
330
2
100
AcDbEntity
  8
AM_VIS
100
AcDbCircle
 10
1165.372199664124
 20
784.0126007712272
 30
0.0
 40
0.4724409448818899
100
AcDbArc
 50
0.0
 51
31.57673639652665
  0
ARC
  5
BF9C
330
2
100
AcDbEntity
  8
AM_VIS
100
AcDbCircle
 10
1165.841772680862
 20
784.3012212652204
 30
0.0
 40
0.078740157480315
100
AcDbArc
 50
135.0
 51
211.5767363965276
  0
ARC
  5
BF9D
330
2
100
AcDbEntity
  8
AM_VIS
100
AcDbCircle
 10
1165.080939821604
 20
784.8138606137468
 30
0.0
 40
0.0787401574803149
100
AcDbArc
 50
90.0
 51
180.0
  0
ARC
  5
BF9E
330
2
100
AcDbEntity
  8
AM_VIS
100
AcDbCircle
 10
1165.677670553664
 20
784.8138606137468
 30
0.0
 40
0.0787401574803153
100
AcDbArc
 50
28.30685502472136
 51
90.0
  0
ARC
  5
BF9F
330
2
100
AcDbEntity
  8
AM_VIS
100
AcDbCircle
 10
1165.372199664124
 20
784.0126007712272
 30
0.0
 40
0.4724409448818899
100
AcDbArc
 50
58.42326360347342
 51
90.0
  0
ARC
  5
BFA0
330
2
100
AcDbEntity
  8
AM_VIS
100
AcDbCircle
 10
1165.080939821604
 20
784.5637818735894
 30
0.0
 40
0.078740157480315
100
AcDbArc
 50
180.0
 51
270.0
  0
ARC
  5
BFA1
330
2
100
AcDbEntity
  8
AM_VIS
100
AcDbCircle
 10
1165.080939821604
 20
785.2646480153216
 30
0.0
 40
0.078740157480315
100
AcDbArc
 50
90.0
 51
180.0
  0
ARC
  5
BFA2
330
2
100
AcDbEntity
  8
AM_VIS
100
AcDbCircle
 10
1165.677670553664
 20
785.9713409287075
 30
0.0
 40
0.0787401574803153
100
AcDbArc
 50
270.0
 51
331.6931449752786
  0
ARC
  5
BFA3
330
2
100
AcDbEntity
  8
AM_VIS
100
AcDbCircle
 10
1165.080939821604
 20
785.9713409287075
 30
0.0
 40
0.0787401574803149
100
AcDbArc
 50
180.0
 51
270.0
  0
ARC
  5
BFA4
330
2
100
AcDbEntity
  8
AM_VIS
100
AcDbCircle
 10
1165.660820158117
 20
786.3030277544893
 30
0.0
 40
0.078740157480315
100
AcDbArc
 50
44.99999999999928
 51
121.5767363965277
  0
ARC
  5
BFA5
330
2
100
AcDbEntity
  8
AM_VIS
100
AcDbCircle
 10
1165.803474874829
 20
786.1603730377773
 30
0.0
 40
0.078740157480315
100
AcDbArc
 50
321.0178740173387
 51
45.0
  0
ARC
  5
BFA6
330
2
100
AcDbEntity
  8
AM_VIS
100
AcDbCircle
 10
1166.752199664124
 20
785.3926007712272
 30
0.0
 40
1.141732283464566
100
AcDbArc
 50
141.0178740173388
 51
173.9821259826612
  0
ARC
  5
BFA7
330
2
100
AcDbEntity
  8
AM_VIS
100
AcDbCircle
 10
1165.538452956049
 20
785.5205535271327
 30
0.0
 40
0.078740157480315
100
AcDbArc
 50
270.0
 51
353.9821259826602
  0
LINE
  5
BFA8
330
2
100
AcDbEntity
  8
AM_HID
  6
DASHED
100
AcDbLine
 10
1167.719199664124
 20
783.5976007712272
 30
0.0
 11
1167.502199664124
 21
783.5976007712272
 31
0.0
  0
LINE
  5
BFA9
330
2
100
AcDbEntity
  8
AM_HID
  6
DASHED
100
AcDbLine
 10
1167.502199664124
 20
783.5976007712272
 30
0.0
 11
1167.285199664124
 21
783.5976007712272
 31
0.0
  0
LINE
  5
BFAA
330
2
100
AcDbEntity
  8
AM_HID
  6
DASHED
100
AcDbLine
 10
1167.719199664124
 20
784.22626218855
 30
0.0
 11
1167.502199664124
 21
784.22626218855
 31
0.0
  0
LINE
  5
BFAB
330
2
100
AcDbEntity
  8
AM_HID
  6
DASHED
100
AcDbLine
 10
1167.502199664124
 20
784.22626218855
 30
0.0
 11
1167.285199664124
 21
784.22626218855
 31
0.0
  0
LINE
  5
BFAC
330
2
100
AcDbEntity
  8
AM_HID
  6
DASHED
100
AcDbLine
 10
1166.219199664124
 20
783.5976007712272
 30
0.0
 11
1166.002199664124
 21
783.5976007712272
 31
0.0
  0
LINE
  5
BFAD
330
2
100
AcDbEntity
  8
AM_HID
  6
DASHED
100
AcDbLine
 10
1166.002199664124
 20
783.5976007712272
 30
0.0
 11
1165.785199664124
 21
783.5976007712272
 31
0.0
  0
LINE
  5
BFAE
330
2
100
AcDbEntity
  8
AM_HID
  6
DASHED
100
AcDbLine
 10
1166.219199664124
 20
784.22626218855
 30
0.0
 11
1166.002199664124
 21
784.22626218855
 31
0.0
  0
LINE
  5
BFAF
330
2
100
AcDbEntity
  8
AM_HID
  6
DASHED
100
AcDbLine
 10
1166.002199664124
 20
784.22626218855
 30
0.0
 11
1165.785199664124
 21
784.22626218855
 31
0.0
  0
ARC
  5
BFB8
330
2
100
AcDbEntity
  8
AM_VIS
100
AcDbCircle
 10
1166.752199664124
 20
785.3926007712272
 30
0.0
 40
0.5675
100
AcDbArc
 50
52.50071218656527
 51
67.49928781343102
  0
ARC
  5
BFBA
330
2
100
AcDbEntity
  8
AM_VIS
100
AcDbCircle
 10
1166.752199664124
 20
785.3926007712272
 30
0.0
 40
0.5675
100
AcDbArc
 50
352.5007121866018
 51
7.499287813398434
  0
ARC
  5
BFBC
330
2
100
AcDbEntity
  8
AM_VIS
100
AcDbCircle
 10
1166.752199664124
 20
785.3926007712272
 30
0.0
 40
0.5675
100
AcDbArc
 50
292.5007121865735
 51
307.4992878134257
  0
ARC
  5
BFBE
330
2
100
AcDbEntity
  8
AM_VIS
100
AcDbCircle
 10
1166.752199664124
 20
785.3926007712272
 30
0.0
 40
0.5675
100
AcDbArc
 50
232.500712186512
 51
247.4992878134854
  0
ARC
  5
BFC0
330
2
100
AcDbEntity
  8
AM_VIS
100
AcDbCircle
 10
1166.752199664124
 20
785.3926007712272
 30
0.0
 40
0.5675
100
AcDbArc
 50
172.5007121864847
 51
187.499287813515
  0
ARC
  5
BFC2
330
2
100
AcDbEntity
  8
AM_VIS
100
AcDbCircle
 10
1166.752199664124
 20
785.3926007712272
 30
0.0
 40
0.5675
100
AcDbArc
 50
112.5007121865108
 51
127.4992878134886
  0
CIRCLE
  5
BFC6
330
2
100
AcDbEntity
  8
AM_VIS
100
AcDbCircle
 10
1166.752199664124
 20
785.3926007712272
 30
0.0
 40
0.7110998148602956
  0
CIRCLE
  5
BFC7
330
2
100
AcDbEntity
  8
AM_VIS
100
AcDbCircle
 10
1166.752199664124
 20
785.3926007712272
 30
0.0
 40
0.75
  0
ARC
  5
BFC8
330
2
100
AcDbEntity
  8
AM_VIS
100
AcDbCircle
 10
1167.965946372199
 20
785.5205535271327
 30
0.0
 40
0.078740157480315
100
AcDbArc
 50
186.0178740173398
 51
270.0
  0
ARC
  5
BFC9
330
2
100
AcDbEntity
  8
AM_VIS
100
AcDbCircle
 10
1168.423459506644
 20
786.221419668865
 30
0.0
 40
0.078740157480315
100
AcDbArc
 50
0.0
 51
90.0
  0
ARC
  5
BFCA
330
2
100
AcDbEntity
  8
AM_VIS
100
AcDbCircle
 10
1168.423459506644
 20
785.5205535271327
 30
0.0
 40
0.078740157480315
100
AcDbArc
 50
270.0
 51
0.0
  0
ARC
  5
BFCB
330
2
100
AcDbEntity
  8
AM_VIS
100
AcDbCircle
 10
1167.519971930674
 20
784.4438759819325
 30
0.0
 40
0.078740157480315
100
AcDbArc
 50
45.0
 51
128.9821259826613
  0
ARC
  5
BFCC
330
2
100
AcDbEntity
  8
AM_VIS
100
AcDbCircle
 10
1167.662626647386
 20
784.3012212652204
 30
0.0
 40
0.078740157480315
100
AcDbArc
 50
328.4232636034724
 51
45.00000000000091
  0
ARC
  5
BFCD
330
2
100
AcDbEntity
  8
AM_VIS
100
AcDbCircle
 10
1168.132199664124
 20
784.0126007712272
 30
0.0
 40
0.4724409448818899
100
AcDbArc
 50
148.4232636034733
 51
180.0
  0
ARC
  5
BFCE
330
2
100
AcDbEntity
  8
AM_VIS
100
AcDbCircle
 10
1167.581018561762
 20
783.7213409287074
 30
0.0
 40
0.078740157480315
100
AcDbArc
 50
270.0
 51
0.0
  0
ARC
  5
BFCF
330
2
100
AcDbEntity
  8
AM_VIS
100
AcDbCircle
 10
1165.538452956049
 20
785.2646480153216
 30
0.0
 40
0.078740157480315
100
AcDbArc
 50
6.017874017339799
 51
89.99999999999948
  0
ARC
  5
BFD0
330
2
100
AcDbEntity
  8
AM_VIS
100
AcDbCircle
 10
1166.752199664124
 20
785.3926007712272
 30
0.0
 40
1.141732283464566
100
AcDbArc
 50
186.0178740173387
 51
218.9821259826612
  0
ARC
  5
BFD1
330
2
100
AcDbEntity
  8
AM_VIS
100
AcDbCircle
 10
1165.803474874829
 20
784.624828504677
 30
0.0
 40
0.078740157480315
100
AcDbArc
 50
315.0
 51
38.98212598266133
  0
ARC
  5
BFD2
330
2
100
AcDbEntity
  8
AM_VIS
100
AcDbCircle
 10
1165.660820158117
 20
784.482173787965
 30
0.0
 40
0.078740157480315
100
AcDbArc
 50
238.423263603473
 51
315.0000000000008
  0
ARC
  5
BFD3
330
2
100
AcDbEntity
  8
AM_VIS
100
AcDbCircle
 10
1166.624246908218
 20
787.0638606137469
 30
0.0
 40
0.078740157480315
100
AcDbArc
 50
0.0
 51
90.0
  0
ARC
  5
BFD4
330
2
100
AcDbEntity
  8
AM_VIS
100
AcDbCircle
 10
1166.624246908218
 20
786.6063474793019
 30
0.0
 40
0.078740157480315
100
AcDbArc
 50
276.01787401734
 51
0.0
  0
ARC
  5
BFD5
330
2
100
AcDbEntity
  8
AM_VIS
100
AcDbCircle
 10
1165.923380766486
 20
787.0638606137469
 30
0.0
 40
0.078740157480315
100
AcDbArc
 50
90.0
 51
180.0
  0
ARC
  5
BFD6
330
2
100
AcDbEntity
  8
AM_VIS
100
AcDbCircle
 10
1166.752199664124
 20
785.3926007712272
 30
0.0
 40
1.141732283464566
100
AcDbArc
 50
321.0178740173389
 51
353.9821259826613
  0
ARC
  5
BFD7
330
2
100
AcDbEntity
  8
AM_VIS
100
AcDbCircle
 10
1167.965946372199
 20
785.2646480153216
 30
0.0
 40
0.078740157480315
100
AcDbArc
 50
90.0
 51
173.9821259826602
  0
ARC
  5
BFD8
330
2
100
AcDbEntity
  8
AM_VIS
100
AcDbCircle
 10
1168.423459506644
 20
785.2646480153216
 30
0.0
 40
0.078740157480315
100
AcDbArc
 50
0.0
 51
90.0
  0
ARC
  5
BFD9
330
2
100
AcDbEntity
  8
AM_VIS
100
AcDbCircle
 10
1165.984427397574
 20
784.4438759819325
 30
0.0
 40
0.078740157480315
100
AcDbArc
 50
51.01787401733871
 51
135.0
  0
ARC
  5
BFDA
330
2
100
AcDbEntity
  8
AM_VIS
100
AcDbCircle
 10
1166.752199664124
 20
785.3926007712272
 30
0.0
 40
1.141732283464566
100
AcDbArc
 50
231.0178740173389
 51
263.982125982661
  0
ARC
  5
BFDB
330
2
100
AcDbEntity
  8
AM_VIS
100
AcDbCircle
 10
1166.624246908218
 20
784.1788540631524
 30
0.0
 40
0.078740157480315
100
AcDbArc
 50
0.0
 51
83.98212598265997
  0
ARC
  5
BFDC
330
2
100
AcDbEntity
  8
AM_VIS
100
AcDbCircle
 10
1166.624246908218
 20
783.7213409287074
 30
0.0
 40
0.078740157480315
100
AcDbArc
 50
270.0
 51
0.0
  0
ARC
  5
BFDD
330
2
100
AcDbEntity
  8
AM_VIS
100
AcDbCircle
 10
1165.080939821604
 20
785.5205535271327
 30
0.0
 40
0.078740157480315
100
AcDbArc
 50
180.0
 51
270.0
  0
ARC
  5
BFDE
330
2
100
AcDbEntity
  8
AM_VIS
100
AcDbCircle
 10
1165.080939821604
 20
786.221419668865
 30
0.0
 40
0.078740157480315
100
AcDbArc
 50
90.0
 51
180.0
  0
ARC
  5
BFDF
330
2
100
AcDbEntity
  8
AM_VIS
100
AcDbCircle
 10
1165.372199664124
 20
786.7726007712271
 30
0.0
 40
0.4724409448818899
100
AcDbArc
 50
270.0
 51
301.576736396527
  0
ARC
  5
BFE0
330
2
100
AcDbEntity
  8
AM_VIS
100
AcDbCircle
 10
1167.519971930674
 20
786.3413255605219
 30
0.0
 40
0.078740157480315
100
AcDbArc
 50
231.0178740173383
 51
315.0
  0
ARC
  5
BFE1
330
2
100
AcDbEntity
  8
AM_VIS
100
AcDbCircle
 10
1166.752199664124
 20
785.3926007712272
 30
0.0
 40
1.141732283464566
100
AcDbArc
 50
51.01787401733887
 51
83.98212598266098
  0
ARC
  5
BFE2
330
2
100
AcDbEntity
  8
AM_VIS
100
AcDbCircle
 10
1166.880152420029
 20
786.6063474793019
 30
0.0
 40
0.078740157480315
100
AcDbArc
 50
180.0
 51
263.98212598266
  0
ARC
  5
BFE3
330
2
100
AcDbEntity
  8
AM_VIS
100
AcDbCircle
 10
1166.880152420029
 20
787.0638606137469
 30
0.0
 40
0.078740157480315
100
AcDbArc
 50
90.0
 51
180.0
  0
CIRCLE
  5
BFE4
330
2
100
AcDbEntity
  8
AM_VIS
100
AcDbCircle
 10
1168.132199664124
 20
786.7726007712271
 30
0.0
 40
0.4090997175990736
  0
CIRCLE
  5
BFE5
330
2
100
AcDbEntity
  8
AM_VIS
100
AcDbCircle
 10
1165.372199664124
 20
786.7726007712271
 30
0.0
 40
0.4090997175990736
  0
CIRCLE
  5
BFE6
330
2
100
AcDbEntity
  8
AM_VIS
100
AcDbCircle
 10
1168.132199664124
 20
784.0126007712272
 30
0.0
 40
0.4090997175990736
  0
CIRCLE
  5
BFE7
330
2
100
AcDbEntity
  8
AM_VIS
100
AcDbCircle
 10
1165.372199664124
 20
784.0126007712272
 30
0.0
 40
0.4090997175990736
  0
CIRCLE
  5
C000
330
2
100
AcDbEntity
  8
AM_VIS
100
AcDbCircle
 10
1168.132199664124
 20
786.7726007712271
 30
0.0
 40
0.4036075570122108
  0
CIRCLE
  5
C004
330
2
100
AcDbEntity
  8
AM_VIS
100
AcDbCircle
 10
1165.372199664124
 20
786.7726007712271
 30
0.0
 40
0.4036075570122108
  0
CIRCLE
  5
C008
330
2
100
AcDbEntity
  8
AM_VIS
100
AcDbCircle
 10
1168.132199664124
 20
784.0126007712272
 30
0.0
 40
0.4036075570122108
  0
CIRCLE
  5
C00C
330
2
100
AcDbEntity
  8
AM_VIS
100
AcDbCircle
 10
1165.372199664124
 20
784.0126007712272
 30
0.0
 40
0.4036075570122108
  0
LINE
  5
C053
330
2
100
AcDbEntity
  8
AM_HID
100
AcDbLine
 10
1166.016632867023
 20
785.2548054956367
 30
0.0
 11
1166.017691142501
 21
785.2548054956367
 31
0.0
  0
LINE
  5
C055
330
2
100
AcDbEntity
  8
AM_HID
100
AcDbLine
 10
1166.016632867022
 20
785.5303960468177
 30
0.0
 11
1166.0176911425
 21
785.5303960468177
 31
0.0
  0
LINE
  5
C05B
330
2
100
AcDbEntity
  8
AM_HID
100
AcDbLine
 10
1166.614404388533
 20
786.1281675683284
 30
0.0
 11
1166.614404388533
 21
786.1271092928497
 31
0.0
  0
LINE
  5
C05D
330
2
100
AcDbEntity
  8
AM_HID
100
AcDbLine
 10
1166.889994939714
 20
786.1281675683287
 30
0.0
 11
1166.889994939714
 21
786.1271092928513
 31
0.0
  0
LINE
  5
C077
330
2
100
AcDbEntity
  8
AM_HID
100
AcDbLine
 10
1167.486708185746
 20
785.5303960468177
 30
0.0
 11
1167.487766461225
 21
785.5303960468177
 31
0.0
  0
LINE
  5
C078
330
2
100
AcDbEntity
  8
AM_HID
100
AcDbLine
 10
1166.889994939714
 20
784.6580922496046
 30
0.0
 11
1166.889994939714
 21
784.6570339741259
 31
0.0
  0
LINE
  5
C07A
330
2
100
AcDbEntity
  8
AM_HID
100
AcDbLine
 10
1166.614404388533
 20
784.6580922496031
 30
0.0
 11
1166.614404388533
 21
784.6570339741257
 31
0.0
  0
LINE
  5
C07D
330
2
100
AcDbEntity
  8
AM_HID
100
AcDbLine
 10
1167.486708185748
 20
785.2548054956367
 30
0.0
 11
1167.487766461225
 21
785.2548054956367
 31
0.0
  0
CIRCLE
  5
C0F0
330
2
100
AcDbEntity
  8
AM_VIS
100
AcDbCircle
 10
1166.752199664124
 20
785.3926007712272
 30
0.0
 40
0.375
  0
CIRCLE
  5
C0F1
330
2
100
AcDbEntity
  8
AM_VIS
100
AcDbCircle
 10
1166.752199664124
 20
785.3926007712272
 30
0.0
 40
0.3356299212598426
  0
LINE
  5
C10B
330
2
100
AcDbEntity
  8
AM_VIS
100
AcDbLine
 10
1165.465949664124
 20
786.6102210080176
 30
0.0
 11
1165.559699664124
 21
786.6643475957541
 31
0.0
  0
LINE
  5
C10C
330
2
100
AcDbEntity
  8
AM_VIS
100
AcDbLine
 10
1165.372199664124
 20
786.556094420281
 30
0.0
 11
1165.465949664124
 21
786.6102210080176
 31
0.0
  0
LINE
  5
C10D
330
2
100
AcDbEntity
  8
AM_VIS
100
AcDbLine
 10
1165.278449664124
 20
786.6102210080176
 30
0.0
 11
1165.372199664124
 21
786.556094420281
 31
0.0
  0
LINE
  5
C10E
330
2
100
AcDbEntity
  8
AM_VIS
100
AcDbLine
 10
1165.184699664124
 20
786.6643475957541
 30
0.0
 11
1165.278449664124
 21
786.6102210080176
 31
0.0
  0
LINE
  5
C10F
330
2
100
AcDbEntity
  8
AM_VIS
100
AcDbLine
 10
1165.184699664124
 20
786.7726007712271
 30
0.0
 11
1165.184699664124
 21
786.6643475957541
 31
0.0
  0
LINE
  5
C110
330
2
100
AcDbEntity
  8
AM_VIS
100
AcDbLine
 10
1165.184699664124
 20
786.8808539467002
 30
0.0
 11
1165.184699664124
 21
786.7726007712271
 31
0.0
  0
LINE
  5
C111
330
2
100
AcDbEntity
  8
AM_VIS
100
AcDbLine
 10
1165.184699664124
 20
786.8808539467002
 30
0.0
 11
1165.278449664124
 21
786.9349805344368
 31
0.0
  0
LINE
  5
C112
330
2
100
AcDbEntity
  8
AM_VIS
100
AcDbLine
 10
1165.278449664124
 20
786.9349805344368
 30
0.0
 11
1165.372199664124
 21
786.9891071221733
 31
0.0
  0
LINE
  5
C113
330
2
100
AcDbEntity
  8
AM_VIS
100
AcDbLine
 10
1165.372199664124
 20
786.9891071221733
 30
0.0
 11
1165.465949664124
 21
786.9349805344368
 31
0.0
  0
LINE
  5
C114
330
2
100
AcDbEntity
  8
AM_VIS
100
AcDbLine
 10
1165.465949664124
 20
786.9349805344368
 30
0.0
 11
1165.559699664124
 21
786.8808539467002
 31
0.0
  0
LINE
  5
C115
330
2
100
AcDbEntity
  8
AM_VIS
100
AcDbLine
 10
1165.559699664124
 20
786.8808539467002
 30
0.0
 11
1165.559699664124
 21
786.7726007712271
 31
0.0
  0
LINE
  5
C116
330
2
100
AcDbEntity
  8
AM_VIS
100
AcDbLine
 10
1165.559699664124
 20
786.7726007712271
 30
0.0
 11
1165.559699664124
 21
786.6643475957541
 31
0.0
  0
CIRCLE
  5
C11F
330
2
100
AcDbEntity
  8
AM_VIS
100
AcDbCircle
 10
1165.372199664124
 20
786.7726007712271
 30
0.0
 40
0.3937007874015747
  0
CIRCLE
  5
C120
330
2
100
AcDbEntity
  8
AM_VIS
100
AcDbCircle
 10
1165.372199664124
 20
786.7726007712271
 30
0.0
 40
0.2263779527559082
  0
ARC
  5
C121
330
2
100
AcDbEntity
  8
AM_VIS
100
AcDbCircle
 10
1165.372199664124
 20
786.7726007712271
 30
0.0
 40
0.1896850393700787
100
AcDbArc
 50
128.7049945725097
 51
171.2950054274814
  0
ARC
  5
C122
330
2
100
AcDbEntity
  8
AM_VIS
100
AcDbCircle
 10
1165.372199664124
 20
786.7726007712271
 30
0.0
 40
0.1896850393700787
100
AcDbArc
 50
188.7049945725186
 51
231.2950054274765
  0
ARC
  5
C123
330
2
100
AcDbEntity
  8
AM_VIS
100
AcDbCircle
 10
1165.372199664124
 20
786.7726007712271
 30
0.0
 40
0.1896850393700787
100
AcDbArc
 50
248.7049945725239
 51
291.295005427481
  0
ARC
  5
C124
330
2
100
AcDbEntity
  8
AM_VIS
100
AcDbCircle
 10
1165.372199664124
 20
786.7726007712271
 30
0.0
 40
0.1896850393700787
100
AcDbArc
 50
308.704994572519
 51
351.2950054274901
  0
ARC
  5
C125
330
2
100
AcDbEntity
  8
AM_VIS
100
AcDbCircle
 10
1165.372199664124
 20
786.7726007712271
 30
0.0
 40
0.1896850393700787
100
AcDbArc
 50
8.704994572510541
 51
51.29500542749481
  0
ARC
  5
C126
330
2
100
AcDbEntity
  8
AM_VIS
100
AcDbCircle
 10
1165.372199664124
 20
786.7726007712271
 30
0.0
 40
0.1896850393700787
100
AcDbArc
 50
68.70499457250518
 51
111.2950054274904
  0
CIRCLE
  5
C127
330
2
100
AcDbEntity
  8
AM_VIS
100
AcDbCircle
 10
1165.372199664124
 20
786.7726007712271
 30
0.0
 40
0.17
  0
LINE
  5
C128
330
2
100
AcDbEntity
  8
AM_VIS
100
AcDbLine
 10
1168.225949664124
 20
786.6102210080176
 30
0.0
 11
1168.319699664124
 21
786.6643475957541
 31
0.0
  0
LINE
  5
C129
330
2
100
AcDbEntity
  8
AM_VIS
100
AcDbLine
 10
1168.132199664124
 20
786.556094420281
 30
0.0
 11
1168.225949664124
 21
786.6102210080176
 31
0.0
  0
LINE
  5
C12A
330
2
100
AcDbEntity
  8
AM_VIS
100
AcDbLine
 10
1168.038449664124
 20
786.6102210080176
 30
0.0
 11
1168.132199664124
 21
786.556094420281
 31
0.0
  0
LINE
  5
C12B
330
2
100
AcDbEntity
  8
AM_VIS
100
AcDbLine
 10
1167.944699664124
 20
786.6643475957541
 30
0.0
 11
1168.038449664124
 21
786.6102210080176
 31
0.0
  0
LINE
  5
C12C
330
2
100
AcDbEntity
  8
AM_VIS
100
AcDbLine
 10
1167.944699664124
 20
786.7726007712271
 30
0.0
 11
1167.944699664124
 21
786.6643475957541
 31
0.0
  0
LINE
  5
C12D
330
2
100
AcDbEntity
  8
AM_VIS
100
AcDbLine
 10
1167.944699664124
 20
786.8808539467002
 30
0.0
 11
1167.944699664124
 21
786.7726007712271
 31
0.0
  0
LINE
  5
C12E
330
2
100
AcDbEntity
  8
AM_VIS
100
AcDbLine
 10
1167.944699664124
 20
786.8808539467002
 30
0.0
 11
1168.038449664124
 21
786.9349805344368
 31
0.0
  0
LINE
  5
C12F
330
2
100
AcDbEntity
  8
AM_VIS
100
AcDbLine
 10
1168.038449664124
 20
786.9349805344368
 30
0.0
 11
1168.132199664124
 21
786.9891071221733
 31
0.0
  0
LINE
  5
C130
330
2
100
AcDbEntity
  8
AM_VIS
100
AcDbLine
 10
1168.132199664124
 20
786.9891071221733
 30
0.0
 11
1168.225949664124
 21
786.9349805344368
 31
0.0
  0
LINE
  5
C131
330
2
100
AcDbEntity
  8
AM_VIS
100
AcDbLine
 10
1168.225949664124
 20
786.9349805344368
 30
0.0
 11
1168.319699664124
 21
786.8808539467002
 31
0.0
  0
LINE
  5
C132
330
2
100
AcDbEntity
  8
AM_VIS
100
AcDbLine
 10
1168.319699664124
 20
786.8808539467002
 30
0.0
 11
1168.319699664124
 21
786.7726007712271
 31
0.0
  0
LINE
  5
C133
330
2
100
AcDbEntity
  8
AM_VIS
100
AcDbLine
 10
1168.319699664124
 20
786.7726007712271
 30
0.0
 11
1168.319699664124
 21
786.6643475957541
 31
0.0
  0
CIRCLE
  5
C13C
330
2
100
AcDbEntity
  8
AM_VIS
100
AcDbCircle
 10
1168.132199664124
 20
786.7726007712271
 30
0.0
 40
0.3937007874015747
  0
CIRCLE
  5
C13D
330
2
100
AcDbEntity
  8
AM_VIS
100
AcDbCircle
 10
1168.132199664124
 20
786.7726007712271
 30
0.0
 40
0.2263779527559082
  0
ARC
  5
C13E
330
2
100
AcDbEntity
  8
AM_VIS
100
AcDbCircle
 10
1168.132199664124
 20
786.7726007712271
 30
0.0
 40
0.1896850393700787
100
AcDbArc
 50
128.7049945725096
 51
171.2950054274814
  0
ARC
  5
C13F
330
2
100
AcDbEntity
  8
AM_VIS
100
AcDbCircle
 10
1168.132199664124
 20
786.7726007712271
 30
0.0
 40
0.1896850393700787
100
AcDbArc
 50
188.7049945725186
 51
231.2950054274764
  0
ARC
  5
C140
330
2
100
AcDbEntity
  8
AM_VIS
100
AcDbCircle
 10
1168.132199664124
 20
786.7726007712271
 30
0.0
 40
0.1896850393700787
100
AcDbArc
 50
248.7049945725233
 51
291.295005427481
  0
ARC
  5
C141
330
2
100
AcDbEntity
  8
AM_VIS
100
AcDbCircle
 10
1168.132199664124
 20
786.7726007712271
 30
0.0
 40
0.1896850393700787
100
AcDbArc
 50
308.704994572519
 51
351.2950054274901
  0
ARC
  5
C142
330
2
100
AcDbEntity
  8
AM_VIS
100
AcDbCircle
 10
1168.132199664124
 20
786.7726007712271
 30
0.0
 40
0.1896850393700787
100
AcDbArc
 50
8.704994572510541
 51
51.29500542749481
  0
ARC
  5
C143
330
2
100
AcDbEntity
  8
AM_VIS
100
AcDbCircle
 10
1168.132199664124
 20
786.7726007712271
 30
0.0
 40
0.1896850393700787
100
AcDbArc
 50
68.70499457250565
 51
111.2950054274904
  0
CIRCLE
  5
C144
330
2
100
AcDbEntity
  8
AM_VIS
100
AcDbCircle
 10
1168.132199664124
 20
786.7726007712271
 30
0.0
 40
0.17
  0
LINE
  5
C145
330
2
100
AcDbEntity
  8
AM_VIS
100
AcDbLine
 10
1165.465949664124
 20
783.8502210080175
 30
0.0
 11
1165.559699664124
 21
783.9043475957542
 31
0.0
  0
LINE
  5
C146
330
2
100
AcDbEntity
  8
AM_VIS
100
AcDbLine
 10
1165.372199664124
 20
783.796094420281
 30
0.0
 11
1165.465949664124
 21
783.8502210080175
 31
0.0
  0
LINE
  5
C147
330
2
100
AcDbEntity
  8
AM_VIS
100
AcDbLine
 10
1165.278449664124
 20
783.8502210080175
 30
0.0
 11
1165.372199664124
 21
783.796094420281
 31
0.0
  0
LINE
  5
C148
330
2
100
AcDbEntity
  8
AM_VIS
100
AcDbLine
 10
1165.184699664124
 20
783.9043475957542
 30
0.0
 11
1165.278449664124
 21
783.8502210080175
 31
0.0
  0
LINE
  5
C149
330
2
100
AcDbEntity
  8
AM_VIS
100
AcDbLine
 10
1165.184699664124
 20
784.0126007712272
 30
0.0
 11
1165.184699664124
 21
783.9043475957542
 31
0.0
  0
LINE
  5
C14A
330
2
100
AcDbEntity
  8
AM_VIS
100
AcDbLine
 10
1165.184699664124
 20
784.1208539467002
 30
0.0
 11
1165.184699664124
 21
784.0126007712272
 31
0.0
  0
LINE
  5
C14B
330
2
100
AcDbEntity
  8
AM_VIS
100
AcDbLine
 10
1165.184699664124
 20
784.1208539467002
 30
0.0
 11
1165.278449664124
 21
784.1749805344368
 31
0.0
  0
LINE
  5
C14C
330
2
100
AcDbEntity
  8
AM_VIS
100
AcDbLine
 10
1165.278449664124
 20
784.1749805344368
 30
0.0
 11
1165.372199664124
 21
784.2291071221733
 31
0.0
  0
LINE
  5
C14D
330
2
100
AcDbEntity
  8
AM_VIS
100
AcDbLine
 10
1165.372199664124
 20
784.2291071221733
 30
0.0
 11
1165.465949664124
 21
784.1749805344368
 31
0.0
  0
LINE
  5
C14E
330
2
100
AcDbEntity
  8
AM_VIS
100
AcDbLine
 10
1165.465949664124
 20
784.1749805344368
 30
0.0
 11
1165.559699664124
 21
784.1208539467002
 31
0.0
  0
LINE
  5
C14F
330
2
100
AcDbEntity
  8
AM_VIS
100
AcDbLine
 10
1165.559699664124
 20
784.1208539467002
 30
0.0
 11
1165.559699664124
 21
784.0126007712272
 31
0.0
  0
LINE
  5
C150
330
2
100
AcDbEntity
  8
AM_VIS
100
AcDbLine
 10
1165.559699664124
 20
784.0126007712272
 30
0.0
 11
1165.559699664124
 21
783.9043475957542
 31
0.0
  0
CIRCLE
  5
C159
330
2
100
AcDbEntity
  8
AM_VIS
100
AcDbCircle
 10
1165.372199664124
 20
784.0126007712272
 30
0.0
 40
0.3937007874015747
  0
CIRCLE
  5
C15A
330
2
100
AcDbEntity
  8
AM_VIS
100
AcDbCircle
 10
1165.372199664124
 20
784.0126007712272
 30
0.0
 40
0.2263779527559082
  0
ARC
  5
C15B
330
2
100
AcDbEntity
  8
AM_VIS
100
AcDbCircle
 10
1165.372199664124
 20
784.0126007712272
 30
0.0
 40
0.1896850393700787
100
AcDbArc
 50
128.7049945725097
 51
171.2950054274814
  0
ARC
  5
C15C
330
2
100
AcDbEntity
  8
AM_VIS
100
AcDbCircle
 10
1165.372199664124
 20
784.0126007712272
 30
0.0
 40
0.1896850393700787
100
AcDbArc
 50
188.7049945725186
 51
231.2950054274765
  0
ARC
  5
C15D
330
2
100
AcDbEntity
  8
AM_VIS
100
AcDbCircle
 10
1165.372199664124
 20
784.0126007712272
 30
0.0
 40
0.1896850393700787
100
AcDbArc
 50
248.7049945725239
 51
291.295005427481
  0
ARC
  5
C15E
330
2
100
AcDbEntity
  8
AM_VIS
100
AcDbCircle
 10
1165.372199664124
 20
784.0126007712272
 30
0.0
 40
0.1896850393700787
100
AcDbArc
 50
308.704994572519
 51
351.2950054274901
  0
ARC
  5
C15F
330
2
100
AcDbEntity
  8
AM_VIS
100
AcDbCircle
 10
1165.372199664124
 20
784.0126007712272
 30
0.0
 40
0.1896850393700787
100
AcDbArc
 50
8.704994572510541
 51
51.29500542749481
  0
ARC
  5
C160
330
2
100
AcDbEntity
  8
AM_VIS
100
AcDbCircle
 10
1165.372199664124
 20
784.0126007712272
 30
0.0
 40
0.1896850393700787
100
AcDbArc
 50
68.70499457250518
 51
111.2950054274904
  0
CIRCLE
  5
C161
330
2
100
AcDbEntity
  8
AM_VIS
100
AcDbCircle
 10
1165.372199664124
 20
784.0126007712272
 30
0.0
 40
0.17
  0
LINE
  5
C162
330
2
100
AcDbEntity
  8
AM_VIS
100
AcDbLine
 10
1168.225949664124
 20
783.8502210080175
 30
0.0
 11
1168.319699664124
 21
783.9043475957542
 31
0.0
  0
LINE
  5
C163
330
2
100
AcDbEntity
  8
AM_VIS
100
AcDbLine
 10
1168.132199664124
 20
783.796094420281
 30
0.0
 11
1168.225949664124
 21
783.8502210080175
 31
0.0
  0
LINE
  5
C164
330
2
100
AcDbEntity
  8
AM_VIS
100
AcDbLine
 10
1168.038449664124
 20
783.8502210080175
 30
0.0
 11
1168.132199664124
 21
783.796094420281
 31
0.0
  0
LINE
  5
C165
330
2
100
AcDbEntity
  8
AM_VIS
100
AcDbLine
 10
1167.944699664124
 20
783.9043475957542
 30
0.0
 11
1168.038449664124
 21
783.8502210080175
 31
0.0
  0
LINE
  5
C166
330
2
100
AcDbEntity
  8
AM_VIS
100
AcDbLine
 10
1167.944699664124
 20
784.0126007712272
 30
0.0
 11
1167.944699664124
 21
783.9043475957542
 31
0.0
  0
LINE
  5
C167
330
2
100
AcDbEntity
  8
AM_VIS
100
AcDbLine
 10
1167.944699664124
 20
784.1208539467002
 30
0.0
 11
1167.944699664124
 21
784.0126007712272
 31
0.0
  0
LINE
  5
C168
330
2
100
AcDbEntity
  8
AM_VIS
100
AcDbLine
 10
1167.944699664124
 20
784.1208539467002
 30
0.0
 11
1168.038449664124
 21
784.1749805344368
 31
0.0
  0
LINE
  5
C169
330
2
100
AcDbEntity
  8
AM_VIS
100
AcDbLine
 10
1168.038449664124
 20
784.1749805344368
 30
0.0
 11
1168.132199664124
 21
784.2291071221733
 31
0.0
  0
LINE
  5
C16A
330
2
100
AcDbEntity
  8
AM_VIS
100
AcDbLine
 10
1168.132199664124
 20
784.2291071221733
 30
0.0
 11
1168.225949664124
 21
784.1749805344368
 31
0.0
  0
LINE
  5
C16B
330
2
100
AcDbEntity
  8
AM_VIS
100
AcDbLine
 10
1168.225949664124
 20
784.1749805344368
 30
0.0
 11
1168.319699664124
 21
784.1208539467002
 31
0.0
  0
LINE
  5
C16C
330
2
100
AcDbEntity
  8
AM_VIS
100
AcDbLine
 10
1168.319699664124
 20
784.1208539467002
 30
0.0
 11
1168.319699664124
 21
784.0126007712272
 31
0.0
  0
LINE
  5
C16D
330
2
100
AcDbEntity
  8
AM_VIS
100
AcDbLine
 10
1168.319699664124
 20
784.0126007712272
 30
0.0
 11
1168.319699664124
 21
783.9043475957542
 31
0.0
  0
CIRCLE
  5
C176
330
2
100
AcDbEntity
  8
AM_VIS
100
AcDbCircle
 10
1168.132199664124
 20
784.0126007712272
 30
0.0
 40
0.3937007874015747
  0
CIRCLE
  5
C177
330
2
100
AcDbEntity
  8
AM_VIS
100
AcDbCircle
 10
1168.132199664124
 20
784.0126007712272
 30
0.0
 40
0.2263779527559082
  0
ARC
  5
C178
330
2
100
AcDbEntity
  8
AM_VIS
100
AcDbCircle
 10
1168.132199664124
 20
784.0126007712272
 30
0.0
 40
0.1896850393700787
100
AcDbArc
 50
128.7049945725096
 51
171.2950054274814
  0
ARC
  5
C179
330
2
100
AcDbEntity
  8
AM_VIS
100
AcDbCircle
 10
1168.132199664124
 20
784.0126007712272
 30
0.0
 40
0.1896850393700787
100
AcDbArc
 50
188.7049945725186
 51
231.2950054274764
  0
ARC
  5
C17A
330
2
100
AcDbEntity
  8
AM_VIS
100
AcDbCircle
 10
1168.132199664124
 20
784.0126007712272
 30
0.0
 40
0.1896850393700787
100
AcDbArc
 50
248.7049945725233
 51
291.295005427481
  0
ARC
  5
C17B
330
2
100
AcDbEntity
  8
AM_VIS
100
AcDbCircle
 10
1168.132199664124
 20
784.0126007712272
 30
0.0
 40
0.1896850393700787
100
AcDbArc
 50
308.704994572519
 51
351.2950054274901
  0
ARC
  5
C17C
330
2
100
AcDbEntity
  8
AM_VIS
100
AcDbCircle
 10
1168.132199664124
 20
784.0126007712272
 30
0.0
 40
0.1896850393700787
100
AcDbArc
 50
8.704994572510541
 51
51.29500542749481
  0
ARC
  5
C17D
330
2
100
AcDbEntity
  8
AM_VIS
100
AcDbCircle
 10
1168.132199664124
 20
784.0126007712272
 30
0.0
 40
0.1896850393700787
100
AcDbArc
 50
68.70499457250565
 51
111.2950054274904
  0
CIRCLE
  5
C17E
330
2
100
AcDbEntity
  8
AM_VIS
100
AcDbCircle
 10
1168.132199664124
 20
784.0126007712272
 30
0.0
 40
0.17
  0
CIRCLE
  5
C182
330
2
100
AcDbEntity
  8
AM_VIS
100
AcDbCircle
 10
1165.372199664124
 20
786.7726007712271
 30
0.0
 40
0.1481299212598425
  0
CIRCLE
  5
C186
330
2
100
AcDbEntity
  8
AM_VIS
100
AcDbCircle
 10
1168.132199664124
 20
786.7726007712271
 30
0.0
 40
0.1481299212598425
  0
CIRCLE
  5
C18A
330
2
100
AcDbEntity
  8
AM_VIS
100
AcDbCircle
 10
1168.132199664124
 20
784.0126007712272
 30
0.0
 40
0.1481299212598425
  0
CIRCLE
  5
C18E
330
2
100
AcDbEntity
  8
AM_VIS
100
AcDbCircle
 10
1165.372199664124
 20
784.0126007712272
 30
0.0
 40
0.1481299212598425
  0
LINE
  5
C203
330
2
100
AcDbEntity
  8
AM_VIS
100
AcDbLine
 10
1166.189553784603
 20
785.7174445212272
 30
0.0
 11
1166.189553784603
 21
785.0677570212272
 31
0.0
  0
LINE
  5
C204
330
2
100
AcDbEntity
  8
AM_VIS
100
AcDbLine
 10
1166.189553784603
 20
785.0677570212272
 30
0.0
 11
1166.752199664124
 21
784.7429132712272
 31
0.0
  0
LINE
  5
C205
330
2
100
AcDbEntity
  8
AM_VIS
100
AcDbLine
 10
1166.752199664124
 20
784.7429132712272
 30
0.0
 11
1167.314845543645
 21
785.0677570212272
 31
0.0
  0
LINE
  5
C206
330
2
100
AcDbEntity
  8
AM_VIS
100
AcDbLine
 10
1167.314845543645
 20
785.7174445212272
 30
0.0
 11
1167.314845543645
 21
785.0677570212272
 31
0.0
  0
LINE
  5
C207
330
2
100
AcDbEntity
  8
AM_VIS
100
AcDbLine
 10
1166.752199664124
 20
786.0422882712271
 30
0.0
 11
1167.314845543645
 21
785.7174445212272
 31
0.0
  0
LINE
  5
C208
330
2
100
AcDbEntity
  8
AM_VIS
100
AcDbLine
 10
1166.189553784603
 20
785.7174445212272
 30
0.0
 11
1166.752199664124
 21
786.0422882712271
 31
0.0
  0
CIRCLE
  5
C20A
330
2
100
AcDbEntity
  8
AM_VIS
100
AcDbCircle
 10
1166.752199664124
 20
785.3926007712272
 30
0.0
 40
0.5624999999999716
  0
LINE
  5
C20B
330
2
100
AcDbEntity
  8
AM_VIS
100
AcDbLine
 10
1175.23519388202
 20
787.2674262338713
 30
0.0
 11
1173.66519388202
 21
787.2537250514398
 31
0.0
  0
LINE
  5
C21A
330
2
100
AcDbEntity
  8
AM_VIS
100
AcDbLine
 10
1173.66519388202
 20
783.5176007712272
 30
0.0
 11
1175.23519388202
 21
783.5176007712272
 31
0.0
  0
LINE
  5
C21B
330
2
100
AcDbEntity
  8
AM_VIS
100
AcDbLine
 10
1175.23519388202
 20
787.2674262338713
 30
0.0
 11
1175.23519388202
 21
786.9524775966858
 31
0.0
  0
LINE
  5
C21C
330
2
100
AcDbEntity
  8
AM_VIS
100
AcDbLine
 10
1175.23519388202
 20
783.8027239457685
 30
0.0
 11
1175.23519388202
 21
786.9524775966858
 31
0.0
  0
LINE
  5
C21D
330
2
100
AcDbEntity
  8
AM_VIS
100
AcDbLine
 10
1175.23519388202
 20
783.8027239457685
 30
0.0
 11
1175.23519388202
 21
783.5176007712272
 31
0.0
  0
LINE
  5
C21F
330
2
100
AcDbEntity
  8
AM_VIS
100
AcDbLine
 10
1173.66519388202
 20
783.5176007712272
 30
0.0
 11
1173.66519388202
 21
783.8164251282001
 31
0.0
  0
LINE
  5
C220
330
2
100
AcDbEntity
  8
AM_VIS
100
AcDbLine
 10
1173.66519388202
 20
786.9387764142543
 30
0.0
 11
1173.66519388202
 21
783.8164251282001
 31
0.0
  0
LINE
  5
C221
330
2
100
AcDbEntity
  8
AM_VIS
100
AcDbLine
 10
1173.66519388202
 20
786.9387764142543
 30
0.0
 11
1173.66519388202
 21
787.2537250514398
 31
0.0
  0
CIRCLE
  5
C222
330
2
100
AcDbEntity
  8
AM_VIS
100
AcDbCircle
 10
1174.625022099824
 20
785.3926007712272
 30
0.0
 40
0.2165355393703314
  0
CIRCLE
  5
C229
330
2
100
AcDbEntity
  8
AM_VIS
100
AcDbCircle
 10
1174.62519388202
 20
785.3926007712272
 30
0.0
 40
0.1968505
  0
LINE
  5
C22F
330
2
100
AcDbEntity
  8
AM_HID
  6
DASHED
100
AcDbLine
 10
1174.289551474422
 20
786.662023749235
 30
0.0
 11
1174.26454427572
 21
786.6770495901272
 31
0.0
  0
LINE
  5
C230
330
2
100
AcDbEntity
  8
AM_HID
  6
DASHED
100
AcDbLine
 10
1174.960836289618
 20
786.662023749235
 30
0.0
 11
1174.98584348832
 21
786.6770495901272
 31
0.0
  0
LINE
  5
C231
330
2
100
AcDbEntity
  8
AM_HID
  6
DASHED
100
AcDbLine
 10
1174.98584348832
 20
787.2189849740004
 30
0.0
 11
1174.98584348832
 21
786.6770495901272
 31
0.0
  0
LINE
  5
C232
330
2
100
AcDbEntity
  8
AM_HID
  6
DASHED
100
AcDbLine
 10
1174.26454427572
 20
787.2189849740004
 30
0.0
 11
1174.26454427572
 21
786.6770495901272
 31
0.0
  0
LINE
  5
C235
330
2
100
AcDbEntity
  8
AM_HID
  6
DASHED
100
AcDbLine
 10
1174.944713567059
 20
783.5976007712272
 30
0.0
 11
1175.024713567059
 21
783.5176007712272
 31
0.0
  0
LINE
  5
C236
330
2
100
AcDbEntity
  8
AM_HID
  6
DASHED
100
AcDbLine
 10
1174.510713567059
 20
783.5976007712272
 30
0.0
 11
1174.430713567059
 21
783.5176007712272
 31
0.0
  0
LINE
  5
C237
330
2
100
AcDbEntity
  8
AM_HID
  6
DASHED
100
AcDbLine
 10
1174.510713567059
 20
783.5976007712272
 30
0.0
 11
1174.510713567059
 21
784.22626218855
 31
0.0
  0
LINE
  5
C238
330
2
100
AcDbEntity
  8
AM_HID
  6
DASHED
100
AcDbLine
 10
1174.944713567059
 20
783.5976007712272
 30
0.0
 11
1174.944713567059
 21
784.22626218855
 31
0.0
  0
LINE
  5
C239
330
2
100
AcDbEntity
  8
AM_HID
  6
DASHED
100
AcDbLine
 10
1174.727713567059
 20
784.3566489428789
 30
0.0
 11
1174.944713567059
 21
784.22626218855
 31
0.0
  0
LINE
  5
C23A
330
2
100
AcDbEntity
  8
AM_HID
  6
DASHED
100
AcDbLine
 10
1174.727713567059
 20
784.3566489428789
 30
0.0
 11
1174.510713567059
 21
784.22626218855
 31
0.0
  0
LINE
  5
C244
330
2
100
AcDbEntity
  8
AM_VIS
100
AcDbLine
 10
1172.827759354147
 20
786.1426007712272
 30
0.0
 11
1173.66519388202
 21
786.1426007712272
 31
0.0
  0
LINE
  5
C245
330
2
100
AcDbEntity
  8
AM_VIS
100
AcDbLine
 10
1172.827759354147
 20
784.6426007712271
 30
0.0
 11
1173.66519388202
 21
784.6426007712271
 31
0.0
  0
LINE
  5
C258
330
2
100
AcDbEntity
  8
AM_VIS
100
AcDbLine
 10
1172.790193882019
 20
786.1037005860874
 30
0.0
 11
1172.827759354147
 21
786.1426007712272
 31
0.0
  0
LINE
  5
C259
330
2
100
AcDbEntity
  8
AM_VIS
100
AcDbLine
 10
1172.790193882019
 20
784.6815009563669
 30
0.0
 11
1172.827759354147
 21
784.6426007712271
 31
0.0
  0
LINE
  5
C25C
330
2
100
AcDbEntity
  8
AM_HID
  6
DASHED
100
AcDbLine
 10
1174.26454427572
 20
787.2189849740004
 30
0.0
 11
1174.22387768667
 21
787.2586006111396
 31
0.0
  0
LINE
  5
C25D
330
2
100
AcDbEntity
  8
AM_HID
  6
DASHED
100
AcDbLine
 10
1174.98584348832
 20
787.2189849740004
 30
0.0
 11
1175.033765359197
 21
787.2656683937831
 31
0.0
  0
LINE
  5
C25E
330
2
100
AcDbEntity
  8
AM_HID
  6
DASHED
100
AcDbLine
 10
1174.306555151706
 20
786.0126795113846
 30
0.0
 11
1174.289551474422
 21
786.662023749235
 31
0.0
  0
LINE
  5
C25F
330
2
100
AcDbEntity
  8
AM_HID
  6
DASHED
100
AcDbLine
 10
1174.943832612334
 20
786.0126795113846
 30
0.0
 11
1174.960836289618
 21
786.662023749235
 31
0.0
  0
LINE
  5
C266
330
2
100
AcDbEntity
  8
AM_HID
  6
DASHED
100
AcDbLine
 10
1175.23519388202
 20
783.8084209775034
 30
0.0
 11
1174.865666322965
 21
783.8019708499673
 31
0.0
  0
LINE
  5
C267
330
2
100
AcDbEntity
  8
AM_HID
  6
DASHED
100
AcDbLine
 10
1175.23519388202
 20
784.2167805649509
 30
0.0
 11
1174.865666322965
 21
784.223230692487
 31
0.0
  0
LINE
  5
C268
330
2
100
AcDbEntity
  8
AM_HID
  6
DASHED
100
AcDbLine
 10
1174.865666322965
 20
783.7366601024387
 30
0.0
 11
1173.979839551311
 21
783.7211979386244
 31
0.0
  0
LINE
  5
C269
330
2
100
AcDbEntity
  8
AM_HID
  6
DASHED
100
AcDbLine
 10
1174.865666322965
 20
784.2885414400155
 30
0.0
 11
1173.979839551311
 21
784.3040036038299
 31
0.0
  0
LINE
  5
C26A
330
2
100
AcDbEntity
  8
AM_HID
  6
DASHED
100
AcDbLine
 10
1173.979839551311
 20
783.6089932142149
 30
0.0
 11
1173.66519388202
 21
783.6035010536281
 31
0.0
  0
LINE
  5
C26B
330
2
100
AcDbEntity
  8
AM_HID
  6
DASHED
100
AcDbLine
 10
1173.979839551311
 20
784.4162083282393
 30
0.0
 11
1173.66519388202
 21
784.4217004888262
 31
0.0
  0
LINE
  5
C26F
330
2
100
AcDbEntity
  8
AM_HID
  6
DASHED
100
AcDbLine
 10
1174.960836289618
 20
786.662023749235
 30
0.0
 11
1174.289551474422
 21
786.662023749235
 31
0.0
  0
LINE
  5
C270
330
2
100
AcDbEntity
  8
AM_HID
  6
DASHED
100
AcDbLine
 10
1174.26454427572
 20
786.6770495901272
 30
0.0
 11
1174.98584348832
 21
786.6770495901272
 31
0.0
  0
LINE
  5
C271
330
2
100
AcDbEntity
  8
AM_HID
  6
DASHED
100
AcDbLine
 10
1174.26454427572
 20
787.2189849740004
 30
0.0
 11
1174.98584348832
 21
787.2189849740004
 31
0.0
  0
LINE
  5
C280
330
2
100
AcDbEntity
  8
AM_HID
  6
DASHED
100
AcDbLine
 10
1174.944713567059
 20
783.5976007712272
 30
0.0
 11
1174.510713567059
 21
783.5976007712272
 31
0.0
  0
LINE
  5
C281
330
2
100
AcDbEntity
  8
AM_HID
  6
DASHED
100
AcDbLine
 10
1174.944713567059
 20
784.22626218855
 30
0.0
 11
1174.510713567059
 21
784.22626218855
 31
0.0
  0
LINE
  5
C286
330
2
100
AcDbEntity
  8
AM_VIS
100
AcDbLine
 10
1172.790193882019
 20
784.6815009563669
 30
0.0
 11
1172.790193882019
 21
785.3926007712272
 31
0.0
  0
LINE
  5
C287
330
2
100
AcDbEntity
  8
AM_VIS
100
AcDbLine
 10
1172.790193882019
 20
785.3926007712272
 30
0.0
 11
1172.790193882019
 21
786.1037005860874
 31
0.0
  0
LINE
  5
C288
330
2
100
AcDbEntity
  8
AM_VIS
100
AcDbLine
 10
1172.827759354147
 20
786.1426007712272
 30
0.0
 11
1172.827759354147
 21
784.6426007712271
 31
0.0
  0
LINE
  5
C29A
330
2
100
AcDbEntity
  8
AM_HID
  6
DASHED
100
AcDbLine
 10
1174.865666322965
 20
784.2885414400155
 30
0.0
 11
1174.865666322965
 21
784.0126007712272
 31
0.0
  0
LINE
  5
C29B
330
2
100
AcDbEntity
  8
AM_HID
  6
DASHED
100
AcDbLine
 10
1174.865666322965
 20
784.0126007712272
 30
0.0
 11
1174.865666322965
 21
783.7366601024387
 31
0.0
  0
LINE
  5
C29C
330
2
100
AcDbEntity
  8
AM_HID
  6
DASHED
100
AcDbLine
 10
1173.979839551311
 20
784.4162083282393
 30
0.0
 11
1173.979839551311
 21
784.0126007712272
 31
0.0
  0
LINE
  5
C29D
330
2
100
AcDbEntity
  8
AM_HID
  6
DASHED
100
AcDbLine
 10
1173.979839551311
 20
784.0126007712272
 30
0.0
 11
1173.979839551311
 21
783.6089932142149
 31
0.0
  0
LINE
  5
C2A2
330
2
100
AcDbEntity
  8
AM_VIS
100
AcDbLine
 10
1177.91519388202
 20
787.2571285298783
 30
0.0
 11
1177.91519388202
 21
786.9421798926927
 31
0.0
  0
LINE
  5
C2A3
330
2
100
AcDbEntity
  8
AM_VIS
100
AcDbLine
 10
1177.91519388202
 20
783.8130216497617
 30
0.0
 11
1177.91519388202
 21
786.9421798926927
 31
0.0
  0
LINE
  5
C2A4
330
2
100
AcDbEntity
  8
AM_VIS
100
AcDbLine
 10
1177.91519388202
 20
783.8130216497617
 30
0.0
 11
1177.91519388202
 21
783.5176007712272
 31
0.0
  0
LINE
  5
C2B2
330
2
100
AcDbEntity
  8
AM_VIS
100
AcDbLine
 10
1176.73519388202
 20
783.5176007712272
 30
0.0
 11
1177.91519388202
 21
783.5176007712272
 31
0.0
  0
LINE
  5
C2B9
330
2
100
AcDbEntity
  8
AM_VIS
100
AcDbLine
 10
1177.91519388202
 20
787.2571285298783
 30
0.0
 11
1176.73519388202
 21
787.2674262338713
 31
0.0
  0
LINE
  5
C2C3
330
2
100
AcDbEntity
  8
AM_VIS
100
AcDbLine
 10
1176.73519388202
 20
783.5176007712272
 30
0.0
 11
1176.73519388202
 21
783.8027239457685
 31
0.0
  0
LINE
  5
C2C4
330
2
100
AcDbEntity
  8
AM_VIS
100
AcDbLine
 10
1176.73519388202
 20
786.9524775966858
 30
0.0
 11
1176.73519388202
 21
783.8027239457685
 31
0.0
  0
LINE
  5
C2C5
330
2
100
AcDbEntity
  8
AM_VIS
100
AcDbLine
 10
1176.73519388202
 20
786.9524775966858
 30
0.0
 11
1176.73519388202
 21
787.2674262338713
 31
0.0
  0
MTEXT
  5
DC7D
330
2
100
AcDbEntity
  8
DIM
 48
0.5
100
AcDbMText
 10
1114.247859766007
 20
797.0169736494896
 30
0.0
 40
0.12
 41
0.0
 71
     1
 72
     1
  1

  7
DAYUS
 73
     1
 44
1.0
1001
ACAD
1000
MTEXTBEGIN
1070
    73
1070
     1
1070
    44
1040
1.0
1070
    74
1070
     0
1000
MTEXTEND
  0
MTEXT
  5
DC7F
330
2
100
AcDbEntity
  8
DIM
 48
0.5
100
AcDbMText
 10
1111.684079506475
 20
794.1777883968577
 30
0.0
 40
0.12
 41
0.0
 71
     9
 72
     1
  1

  7
DAYUS
 73
     1
 44
1.0
1001
ACAD
1000
MTEXTBEGIN
1070
    73
1070
     1
1070
    44
1040
1.0
1070
    74
1070
     0
1000
MTEXTEND
  0
MTEXT
  5
DC81
330
2
100
AcDbEntity
  8
DIM
 48
0.5
100
AcDbMText
 10
1115.836837484741
 20
794.6529629862998
 30
0.0
 40
0.12
 41
0.0
 71
     9
 72
     1
  1

  7
DAYUS
 73
     1
 44
1.0
1001
ACAD
1000
MTEXTBEGIN
1070
    73
1070
     1
1070
    44
1040
1.0
1070
    74
1070
     0
1000
MTEXTEND
  0
MTEXT
  5
DC93
330
2
100
AcDbEntity
  8
DIM
 48
0.5
100
AcDbMText
 10
1115.815406093485
 20
794.6915823182214
 30
0.0
 40
0.12
 41
0.0
 71
     9
 72
     1
  1

  7
DAYUS
 73
     1
 44
1.0
1001
ACAD
1000
MTEXTBEGIN
1070
    73
1070
     1
1070
    44
1040
1.0
1070
    74
1070
     0
1000
MTEXTEND
  0
MTEXT
  5
DC96
330
2
100
AcDbEntity
  8
DIM
 48
0.5
100
AcDbMText
 10
1116.982157800725
 20
796.5496661731918
 30
0.0
 40
0.12
 41
0.0
 71
     9
 72
     1
  1

  7
DAYUS
 73
     1
 44
1.0
1001
ACAD
1000
MTEXTBEGIN
1070
    73
1070
     1
1070
    44
1040
1.0
1070
    74
1070
     0
1000
MTEXTEND
  0
MTEXT
  5
DC99
330
2
100
AcDbEntity
  8
DIM
 48
0.5
100
AcDbMText
 10
1121.531868397632
 20
797.4583049052268
 30
0.0
 40
0.12
 41
0.0
 71
     1
 72
     1
  1

  7
DAYUS
 73
     1
 44
1.0
1001
ACAD
1000
MTEXTBEGIN
1070
    73
1070
     1
1070
    44
1040
1.0
1070
    74
1070
     0
1000
MTEXTEND
  0
MTEXT
  5
DC9C
330
2
100
AcDbEntity
  8
DIM
 48
0.5
100
AcDbMText
 10
1116.419315707743
 20
793.4122773324166
 30
0.0
 40
0.12
 41
0.0
 71
     9
 72
     1
  1

  7
DAYUS
 73
     1
 44
1.0
1001
ACAD
1000
MTEXTBEGIN
1070
    73
1070
     1
1070
    44
1040
1.0
1070
    74
1070
     0
1000
MTEXTEND
  0
MTEXT
  5
DEE9
330
2
100
AcDbEntity
  8
DIM
 48
0.5
100
AcDbMText
 10
1159.684561974738
 20
800.0287868194371
 30
0.0
 40
0.12
 41
0.0
 71
     1
 72
     1
  1

  7
DAYUS
 73
     1
 44
1.0
1001
ACAD
1000
MTEXTBEGIN
1070
    73
1070
     1
1070
    44
1040
1.0
1070
    74
1070
     0
1000
MTEXTEND
  0
MTEXT
  5
DEEB
330
2
100
AcDbEntity
  8
DIM
 48
0.5
100
AcDbMText
 10
1157.037525554902
 20
796.4560410913543
 30
0.0
 40
0.12
 41
0.0
 71
     9
 72
     1
  1

  7
DAYUS
 73
     1
 44
1.0
1001
ACAD
1000
MTEXTBEGIN
1070
    73
1070
     1
1070
    44
1040
1.0
1070
    74
1070
     0
1000
MTEXTEND
  0
MTEXT
  5
DEEF
330
2
100
AcDbEntity
  8
DIM
 48
0.5
100
AcDbMText
 10
1162.155176252831
 20
796.0961496997271
 30
0.0
 40
0.12
 41
0.0
 71
     9
 72
     1
  1

  7
DAYUS
 73
     1
 44
1.0
1001
ACAD
1000
MTEXTBEGIN
1070
    73
1070
     1
1070
    44
1040
1.0
1070
    74
1070
     0
1000
MTEXTEND
  0
MTEXT
  5
DEF1
330
2
100
AcDbEntity
  8
DIM
 48
0.5
100
AcDbMText
 10
1162.886359226598
 20
799.5511907894063
 30
0.0
 40
0.12
 41
0.0
 71
     9
 72
     1
  1

  7
DAYUS
 73
     1
 44
1.0
1001
ACAD
1000
MTEXTBEGIN
1070
    73
1070
     1
1070
    44
1040
1.0
1070
    74
1070
     0
1000
MTEXTEND
  0
MTEXT
  5
DEF3
330
2
100
AcDbEntity
  8
DIM
 48
0.5
100
AcDbMText
 10
1161.131049838054
 20
797.4162802154439
 30
0.0
 40
0.12
 41
0.0
 71
     9
 72
     1
  1

  7
DAYUS
 73
     1
 44
1.0
1001
ACAD
1000
MTEXTBEGIN
1070
    73
1070
     1
1070
    44
1040
1.0
1070
    74
1070
     0
1000
MTEXTEND
  0
MTEXT
  5
DEF5
330
2
100
AcDbEntity
  8
DIM
 48
0.5
100
AcDbMText
 10
1167.110800954161
 20
799.7341262213182
 30
0.0
 40
0.12
 41
0.0
 71
     1
 72
     1
  1

  7
DAYUS
 73
     1
 44
1.0
1001
ACAD
1000
MTEXTBEGIN
1070
    73
1070
     1
1070
    44
1040
1.0
1070
    74
1070
     0
1000
MTEXTEND
  0
MTEXT
  5
E074
330
2
100
AcDbEntity
  8
DIM
 48
0.5
100
AcDbMText
 10
1180.654261382719
 20
800.5781323652881
 30
0.0
 40
0.12
 41
0.0
 71
     1
 72
     1
  1

  7
DAYUS
 73
     1
 44
1.0
1001
ACAD
1000
MTEXTBEGIN
1070
    73
1070
     1
1070
    44
1040
1.0
1070
    74
1070
     0
1000
MTEXTEND
  0
MTEXT
  5
E076
330
2
100
AcDbEntity
  8
DIM
 48
0.5
100
AcDbMText
 10
1177.460854726657
 20
796.4320334012405
 30
0.0
 40
0.12
 41
0.0
 71
     9
 72
     1
  1

  7
DAYUS
 73
     1
 44
1.0
1001
ACAD
1000
MTEXTBEGIN
1070
    73
1070
     1
1070
    44
1040
1.0
1070
    74
1070
     0
1000
MTEXTEND
  0
MTEXT
  5
E078
330
2
100
AcDbEntity
  8
DIM
 48
0.5
100
AcDbMText
 10
1183.006825001932
 20
797.8164652392165
 30
0.0
 40
0.12
 41
0.0
 71
     9
 72
     1
  1

  7
DAYUS
 73
     1
 44
1.0
1001
ACAD
1000
MTEXTBEGIN
1070
    73
1070
     1
1070
    44
1040
1.0
1070
    74
1070
     0
1000
MTEXTEND
  0
MTEXT
  5
E07A
330
2
100
AcDbEntity
  8
DIM
 48
0.5
100
AcDbMText
 10
1184.109029092271
 20
796.2246413274224
 30
0.0
 40
0.12
 41
0.0
 71
     9
 72
     1
  1

  7
DAYUS
 73
     1
 44
1.0
1001
ACAD
1000
MTEXTBEGIN
1070
    73
1070
     1
1070
    44
1040
1.0
1070
    74
1070
     0
1000
MTEXTEND
  0
MTEXT
  5
E07C
330
2
100
AcDbEntity
  8
DIM
 48
0.5
100
AcDbMText
 10
1184.555069523061
 20
799.8171695980663
 30
0.0
 40
0.12
 41
0.0
 71
     9
 72
     1
  1

  7
DAYUS
 73
     1
 44
1.0
1001
ACAD
1000
MTEXTBEGIN
1070
    73
1070
     1
1070
    44
1040
1.0
1070
    74
1070
     0
1000
MTEXTEND
  0
MTEXT
  5
E07E
330
2
100
AcDbEntity
  8
DIM
 48
0.5
100
AcDbMText
 10
1188.728135324896
 20
800.5414941980898
 30
0.0
 40
0.12
 41
0.0
 71
     1
 72
     1
  1

  7
DAYUS
 73
     1
 44
1.0
1001
ACAD
1000
MTEXTBEGIN
1070
    73
1070
     1
1070
    44
1040
1.0
1070
    74
1070
     0
1000
MTEXTEND
  0
MTEXT
  5
E38C
330
2
100
AcDbEntity
  8
DIM
 48
0.5
100
AcDbMText
 10
1147.908664147741
 20
787.8931014288346
 30
0.0
 40
0.12
 41
0.0
 71
     1
 72
     1
  1

  7
DAYUS
 73
     1
 44
1.0
1001
ACAD
1000
MTEXTBEGIN
1070
    73
1070
     1
1070
    44
1040
1.0
1070
    74
1070
     0
1000
MTEXTEND
  0
MTEXT
  5
E38E
330
2
100
AcDbEntity
  8
DIM
 48
0.5
100
AcDbMText
 10
1144.738222883028
 20
781.9592229083528
 30
0.0
 40
0.12
 41
0.0
 71
     9
 72
     1
  1

  7
DAYUS
 73
     1
 44
1.0
1001
ACAD
1000
MTEXTBEGIN
1070
    73
1070
     1
1070
    44
1040
1.0
1070
    74
1070
     0
1000
MTEXTEND
  0
MTEXT
  5
E390
330
2
100
AcDbEntity
  8
DIM
 48
0.5
100
AcDbMText
 10
1152.009149967874
 20
784.0212032200647
 30
0.0
 40
0.12
 41
0.0
 71
     9
 72
     1
  1

  7
DAYUS
 73
     1
 44
1.0
1001
ACAD
1000
MTEXTBEGIN
1070
    73
1070
     1
1070
    44
1040
1.0
1070
    74
1070
     0
1000
MTEXTEND
  0
MTEXT
  5
E392
330
2
100
AcDbEntity
  8
DIM
 48
0.5
100
AcDbMText
 10
1153.701732983836
 20
786.8984319338292
 30
0.0
 40
0.12
 41
0.0
 71
     9
 72
     1
  1

  7
DAYUS
 73
     1
 44
1.0
1001
ACAD
1000
MTEXTBEGIN
1070
    73
1070
     1
1070
    44
1040
1.0
1070
    74
1070
     0
1000
MTEXTEND
  0
MTEXT
  5
E394
330
2
100
AcDbEntity
  8
DIM
 48
0.5
100
AcDbMText
 10
1153.185136270799
 20
781.941313205451
 30
0.0
 40
0.12
 41
0.0
 71
     9
 72
     1
  1

  7
DAYUS
 73
     1
 44
1.0
1001
ACAD
1000
MTEXTBEGIN
1070
    73
1070
     1
1070
    44
1040
1.0
1070
    74
1070
     0
1000
MTEXTEND
  0
MTEXT
  5
E396
330
2
100
AcDbEntity
  8
DIM
 48
0.5
100
AcDbMText
 10
1158.541647076707
 20
787.8848313766734
 30
0.0
 40
0.12
 41
0.0
 71
     1
 72
     1
  1

  7
DAYUS
 73
     1
 44
1.0
1001
ACAD
1000
MTEXTBEGIN
1070
    73
1070
     1
1070
    44
1040
1.0
1070
    74
1070
     0
1000
MTEXTEND
  0
TEXT
  5
E397
330
2
100
AcDbEntity
  8
DIM
 48
0.5
100
AcDbText
 10
1165.957678510207
 20
787.7130973460128
 30
0.0
 40
0.12
  1
3/8-24
  7
CHINESET
100
AcDbText
  0
TEXT
  5
E398
330
2
100
AcDbEntity
  8
DIM
 48
0.5
100
AcDbText
 10
1163.804918340575
 20
782.8217159207907
 30
0.0
 40
0.12
  1
4-1/2-13
  7
CHINESET
100
AcDbText
  0
TEXT
  5
E399
330
2
100
AcDbEntity
  8
DIM
 48
0.5
100
AcDbText
 10
1163.803648178043
 20
782.5571413016745
 30
0.0
 40
0.12
  1
5/8深
  7
CHINESET
100
AcDbText
  0
TEXT
  5
E39A
330
2
100
AcDbEntity
  8
DIM
 48
0.5
100
AcDbText
 10
1169.553413732741
 20
784.1738131093633
 30
0.0
 40
0.12
  1
3/4-16
  7
CHINESET
100
AcDbText
  0
TEXT
  5
E39B
330
2
100
AcDbEntity
  8
DIM
 48
0.5
100
AcDbText
 10
1170.8469500568
 20
786.5586938513843
 30
0.0
 40
0.12
  1
1.12
  7
CHINESET
100
AcDbText
  0
TEXT
  5
E39C
330
2
100
AcDbEntity
  8
DIM
 48
0.5
100
AcDbText
 10
1171.436251289948
 20
786.9757151805731
 30
0.0
 40
0.12
  1
兩面巾
  7
CHINESET
100
AcDbText
  0
TEXT
  5
E39D
330
2
100
AcDbEntity
  8
DIM
 48
0.5
100
AcDbText
 10
1171.450903624935
 20
787.2007746245156
 30
0.0
 40
0.12
  1
7/8
  7
CHINESET
100
AcDbText
  0
TEXT
  5
E39E
330
2
100
AcDbEntity
  8
DIM
 48
0.5
100
AcDbText
 10
1175.10255306282
 20
788.0949437076785
 30
0.0
 40
0.12
  1
2-1/2(NPTF)
  7
CHINESET
100
AcDbText
  0
DIMENSION
  5
E39F
330
2
100
AcDbEntity
  8
DIM
 48
0.5
100
AcDbDimension
  2
*D1
 10
1167.502199664124
 20
783.1923707445762
 30
0.0
 11
1166.752199664124
 21
783.3237993160048
 31
0.0
 70
    32
 71
     5
 42
1.5
  3
STANDARD
100
AcDbAlignedDimension
 13
1166.002199664124
 23
783.4876007712272
 33
0.0
 14
1167.502199664124
 24
783.4876007712272
 34
0.0
100
AcDbRotatedDimension
  0
DIMENSION
  5
E3AC
330
2
100
AcDbEntity
  8
DIM
 48
0.5
100
AcDbDimension
  2
*D2
 10
1168.132199664124
 20
782.8663781787195
 30
0.0
 11
1166.752199664124
 21
782.9978067501481
 31
0.0
 70
    33
 71
     5
 42
2.75999999999999
  3
STANDARD
100
AcDbAlignedDimension
 13
1165.372199664124
 23
783.4301598263452
 33
0.0
 14
1168.132199664124
 24
783.4301598263452
 34
0.0
  0
DIMENSION
  5
E3B9
330
2
100
AcDbEntity
  8
DIM
 48
0.5
100
AcDbDimension
  2
*D3
 10
1168.627025126768
 20
782.4687055821459
 30
0.0
 11
1166.752199664124
 21
782.6001341535746
 31
0.0
 70
    32
 71
     5
 42
3.749650925288278
  3
STANDARD
100
AcDbAlignedDimension
 13
1164.87737420148
 23
783.8027239457685
 33
0.0
 14
1168.627025126768
 24
783.8027239457685
 34
0.0
100
AcDbRotatedDimension
  0
DIMENSION
  5
E3C6
330
2
100
AcDbEntity
  8
DIM
 48
0.5
100
AcDbDimension
  2
*D4
 10
1164.515482273881
 20
785.3926007712272
 30
0.0
 11
1164.384053702453
 21
784.4551007712271
 31
0.0
 70
    32
 71
     5
 42
1.875000000000113
  3
STANDARD
100
AcDbAlignedDimension
 13
1165.106539465095
 23
783.5176007712271
 33
0.0
 14
1164.813958844818
 24
785.3926007712272
 34
0.0
 50
90.0
100
AcDbRotatedDimension
  0
DIMENSION
  5
E3D3
330
2
100
AcDbEntity
  8
DIM
 48
0.5
100
AcDbDimension
  2
*D5
 10
1164.022369525545
 20
787.2674262338713
 30
0.0
 11
1163.890940954117
 21
785.3925135025494
 31
0.0
 70
    32
 71
     5
 42
3.749825462644253
  3
STANDARD
100
AcDbAlignedDimension
 13
1165.106539465095
 23
783.5176007712271
 33
0.0
 14
1165.192322838666
 24
787.2674262338713
 34
0.0
 50
90.0
100
AcDbRotatedDimension
  0
DIMENSION
  5
E3E0
102
{ACAD_REACTORS
330
FD1A
330
FD59
102
}
330
2
100
AcDbEntity
  8
DIM
 48
0.5
100
AcDbDimension
  2
*D6
 10
1170.873649542855
 20
785.8926007712272
 30
0.0
 11
1170.742220971426
 21
785.3926007712273
 31
0.0
 70
    32
  1
%%c<>
 71
     5
  3
STANDARD
100
AcDbAlignedDimension
 13
1172.368950011901
 23
784.8926007712272
 33
0.0
 14
1172.368950011901
 24
785.8926007712272
 34
0.0
 50
90.0
100
AcDbRotatedDimension
  0
DIMENSION
  5
E3EE
102
{ACAD_REACTORS
330
FD1A
330
FD59
102
}
330
2
100
AcDbEntity
  8
DIM
 48
0.5
100
AcDbDimension
  2
*D7
 10
1170.456403402595
 20
786.1426007712272
 30
0.0
 11
1170.324974831166
 21
785.3926007712273
 31
0.0
 70
    32
  1
%%c<>
 71
     5
 42
1.5
  3
STANDARD
100
AcDbAlignedDimension
 13
1172.827759354147
 23
784.6426007712271
 33
0.0
 14
1172.827759354147
 24
786.1426007712272
 34
0.0
 50
90.0
100
AcDbRotatedDimension
  0
DIMENSION
  5
E3FB
330
2
100
AcDbEntity
  8
DIM
 48
0.5
100
AcDbDimension
  2
*D8
 10
1178.583619046468
 20
786.1426007712272
 30
0.0
 11
1178.452190475039
 21
785.3926007712273
 31
0.0
 70
    32
  1
%%c<>
 71
     5
 42
1.5
  3
STANDARD
100
AcDbAlignedDimension
 13
1178.108538623892
 23
784.6426007712271
 33
0.0
 14
1178.108538623892
 24
786.1426007712272
 34
0.0
 50
90.0
100
AcDbRotatedDimension
  0
DIMENSION
  5
E408
330
2
100
AcDbEntity
  8
DIM
 48
0.5
100
AcDbDimension
  2
*D9
 10
1171.970209854421
 20
783.0649720825078
 30
0.0
 11
1170.316104320755
 21
783.0649720825078
 31
0.0
 70
   160
 71
     5
 42
0.4210000000000492
  3
STANDARD
100
AcDbAlignedDimension
 13
1171.549209854421
 23
784.8301007712271
 33
0.0
 14
1171.970209854421
 24
784.8301007712271
 34
0.0
100
AcDbRotatedDimension
  0
DIMENSION
  5
E416
330
2
100
AcDbEntity
  8
DIM
 48
0.5
100
AcDbDimension
  2
*D10
 10
1171.165209854421
 20
782.6387381543568
 30
0.0
 11
1170.453781282993
 21
782.7701667257854
 31
0.0
 70
    32
 71
     5
 42
1.125
  3
STANDARD
100
AcDbAlignedDimension
 13
1172.290209854421
 23
784.9713409287074
 33
0.0
 14
1171.165209854421
 24
785.0569708499673
 34
0.0
100
AcDbRotatedDimension
  0
DIMENSION
  5
E431
102
{ACAD_XDICTIONARY
360
FD19
102
}
102
{ACAD_REACTORS
330
FD1A
102
}
330
2
100
AcDbEntity
  8
DIM
 48
0.5
100
AcDbDimension
  2
*D11
 10
1174.727713567059
 20
782.1900100703806
 30
0.0
 11
1173.50896171074
 21
782.3214386418092
 31
0.0
 70
    32
 71
     5
 42
2.437503712637862
  3
STANDARD
100
AcDbAlignedDimension
 13
1172.290209854421
 23
784.9713409287074
 33
0.0
 14
1174.727713567059
 24
783.4876007712272
 34
0.0
100
AcDbRotatedDimension
  0
DIMENSION
  5
E43E
330
2
100
AcDbEntity
  8
DIM
 48
0.5
100
AcDbDimension
  2
*D12
 10
1172.827759354147
 20
782.6387381543568
 30
0.0
 11
1173.550616497004
 21
782.7701667257854
 31
0.0
 70
    32
 71
     5
 42
0.5375494997258557
  3
STANDARD
100
AcDbAlignedDimension
 13
1172.290209854421
 23
784.9713409287074
 33
0.0
 14
1172.827759354147
 24
784.6426007712271
 34
0.0
100
AcDbRotatedDimension
  0
DIMENSION
  5
E462
102
{ACAD_REACTORS
330
FD1A
330
FD34
102
}
330
2
100
AcDbEntity
  8
DIM
 48
0.5
100
AcDbDimension
  2
*D13
 10
1175.23519388202
 20
783.0799643604769
 30
0.0
 11
1174.45019388202
 21
783.2113929319055
 31
0.0
 70
    32
 71
     5
 42
1.570000000000163
  3
STANDARD
100
AcDbAlignedDimension
 13
1173.66519388202
 23
783.5176007712272
 33
0.0
 14
1175.23519388202
 24
783.5176007712272
 34
0.0
100
AcDbRotatedDimension
  0
DIMENSION
  5
E4E1
102
{ACAD_REACTORS
330
FD34
102
}
330
2
100
AcDbEntity
  8
DIM
 48
0.5
100
AcDbDimension
  2
*D14
 10
1177.91519388202
 20
783.0799643604769
 30
0.0
 11
1178.626622453448
 21
783.2113929319055
 31
0.0
 70
    32
 71
     5
 42
1.179999999999836
  3
STANDARD
100
AcDbAlignedDimension
 13
1176.73519388202
 23
783.5176007712272
 33
0.0
 14
1177.91519388202
 24
783.5176007712272
 34
0.0
100
AcDbRotatedDimension
  0
DIMENSION
  5
E4FC
102
{ACAD_REACTORS
330
FD59
330
FD73
102
}
330
2
100
AcDbEntity
  8
DIM
 48
0.5
100
AcDbDimension
  2
*D15
 10
1174.62519388202
 20
788.3982930756651
 30
0.0
 11
1173.457701868221
 21
788.5297216470937
 31
0.0
 70
    32
 71
     5
 42
2.334984027598466
  3
STANDARD
100
AcDbAlignedDimension
 13
1172.290209854421
 23
785.8138606137469
 33
0.0
 14
1174.62519388202
 24
787.3289849740004
 34
0.0
100
AcDbRotatedDimension
  0
DIMENSION
  5
E516
102
{ACAD_XDICTIONARY
360
FD58
102
}
102
{ACAD_REACTORS
330
FD59
102
}
330
2
100
AcDbEntity
  8
DIM
 48
0.5
100
AcDbDimension
  2
*D16
 10
1173.66519388202
 20
788.8268174644223
 30
0.0
 11
1172.977701868221
 21
788.9582460358509
 31
0.0
 70
    32
 71
     5
 42
1.374984027598429
  3
STANDARD
100
AcDbAlignedDimension
 13
1172.290209854421
 23
785.8138606137469
 33
0.0
 14
1173.66519388202
 24
787.2537250514398
 34
0.0
100
AcDbRotatedDimension
  0
DIMENSION
  5
E543
330
2
100
AcDbEntity
  8
DIM
 48
0.5
100
AcDbDimension
  2
*D17
 10
1177.34519388202
 20
788.3982930756651
 30
0.0
 11
1175.979065716373
 21
788.3982930756651
 31
0.0
 70
   160
 71
     5
 42
2.720000000000027
  3
STANDARD
100
AcDbAlignedDimension
 13
1174.62519388202
 23
787.3289849740004
 33
0.0
 14
1177.34519388202
 24
787.327523738694
 34
0.0
100
AcDbRotatedDimension
  0
DIMENSION
  5
E550
102
{ACAD_XDICTIONARY
360
FD72
102
}
102
{ACAD_REACTORS
330
FD59
330
FD73
102
}
330
2
100
AcDbEntity
  8
DIM
 48
0.5
100
AcDbDimension
  2
*D18
 10
1177.91519388202
 20
788.8268174644223
 30
0.0
 11
1175.674022561936
 21
788.8268174644223
 31
0.0
 70
   160
 71
     5
 42
4.25
  3
STANDARD
100
AcDbAlignedDimension
 13
1173.66519388202
 23
787.2537250514398
 33
0.0
 14
1177.91519388202
 24
787.2571285298783
 34
0.0
100
AcDbRotatedDimension
  0
DIMENSION
  5
E55D
102
{ACAD_REACTORS
330
FD59
102
}
330
2
100
AcDbEntity
  8
DIM
 48
0.5
100
AcDbDimension
  2
*D19
 10
1178.11831888202
 20
789.2698681282309
 30
0.0
 11
1175.194669027371
 21
789.2698681282309
 31
0.0
 70
   160
 71
     5
 42
5.828109027598429
  3
STANDARD
100
AcDbAlignedDimension
 13
1172.290209854421
 23
785.8138606137469
 33
0.0
 14
1178.11831888202
 24
786.1324730174597
 34
0.0
100
AcDbRotatedDimension
  0
DIMENSION
  5
E56A
102
{ACAD_XDICTIONARY
360
FD33
102
}
102
{ACAD_REACTORS
330
FD1A
330
FD34
102
}
330
2
100
AcDbEntity
  8
DIM
 48
0.5
100
AcDbDimension
  2
*D20
 10
1177.352516716665
 20
782.1900100703806
 30
0.0
 11
1176.040115141862
 21
782.3214386418092
 31
0.0
 70
    32
 71
     5
 42
2.62480314960635
  3
STANDARD
100
AcDbAlignedDimension
 13
1174.727713567059
 23
783.4876007712272
 33
0.0
 14
1177.352516716665
 24
783.4876007712272
 34
0.0
100
AcDbRotatedDimension
  0
LEADER
  5
E5B9
330
2
100
AcDbEntity
  8
DIM
 48
0.5
100
AcDbLeader
  3
STANDARD
 73
     0
 40
0.12
 76
     3
 10
1165.465949664124
 20
786.9349805344368
 30
0.0
 10
1165.917371251878
 20
787.6484206148111
 30
0.0
 10
1166.687478056207
 20
787.6484206148111
 30
0.0
340
E5BA
213
-33.36083936874093
223
4.389521751189536
233
0.0
1001
ACAD
1000
DSTYLE
1002
{
1070
     5
1000

1070
    77
1070
     0
1070
   147
1040
0.04
1070
   342
1005
0
1002
}
  0
MTEXT
  5
E5BA
102
{ACAD_REACTORS
330
E5B9
102
}
330
2
100
AcDbEntity
  8
DIM
 48
0.5
100
AcDbMText
 10
1178.360257869548
 20
782.1337913880074
 30
0.0
 40
0.12
 41
0.763
 71
     1
 72
     1
  1

  7
DAYUS
 73
     1
 44
1.0
1001
ACAD
1000
MTEXTBEGIN
1070
    73
1070
     1
1070
    44
1040
1.0
1070
    74
1070
     0
1000
MTEXTEND
  0
LEADER
  5
E5BB
330
2
100
AcDbEntity
  8
DIM
 48
0.5
100
AcDbLeader
  3
STANDARD
 73
     0
 40
0.12
 76
     3
 10
1166.002199664124
 20
783.5176007712272
 30
0.0
 10
1164.753143768101
 20
782.7295700820359
 30
0.0
 10
1163.770575373678
 20
782.7295700820359
 30
0.0
340
E5BC
213
-33.33214947812485
223
4.509521751189535
233
0.0
1001
ACAD
1000
DSTYLE
1002
{
1070
     5
1000

1070
    77
1070
     0
1070
   147
1040
0.04
1070
   342
1005
0
1002
}
  0
MTEXT
  5
E5BC
102
{ACAD_REACTORS
330
E5BB
102
}
330
2
100
AcDbEntity
  8
DIM
 48
0.5
100
AcDbMText
 10
1175.414665296402
 20
777.0949408552324
 30
0.0
 40
0.12
 41
0.763
 71
     9
 72
     1
  1

  7
DAYUS
 73
     1
 44
1.0
1001
ACAD
1000
MTEXTBEGIN
1070
    73
1070
     1
1070
    44
1040
1.0
1070
    74
1070
     0
1000
MTEXTEND
  0
LEADER
  5
E5BD
330
2
100
AcDbEntity
  8
DIM
 48
0.5
100
AcDbLeader
  3
STANDARD
 73
     0
 40
0.12
 76
     3
 10
1171.394509332937
 20
785.0176007712271
 30
0.0
 10
1170.275987018775
 20
784.1211234579064
 30
0.0
 10
1169.506970454868
 20
784.1211234579064
 30
0.0
340
E5BE
213
-33.35402994988112
223
4.509521751189536
233
0.0
1001
ACAD
1000
DSTYLE
1002
{
1070
     5
1000

1070
    77
1070
     0
1070
   147
1040
0.04
1070
   342
1005
0
1002
}
  0
MTEXT
  5
E5BE
102
{ACAD_REACTORS
330
E5BD
102
}
330
2
100
AcDbEntity
  8
DIM
 48
0.5
100
AcDbMText
 10
1181.172940849349
 20
778.4864942311028
 30
0.0
 40
0.12
 41
0.763
 71
     9
 72
     1
  1

  7
DAYUS
 73
     1
 44
1.0
1001
ACAD
1000
MTEXTBEGIN
1070
    73
1070
     1
1070
    44
1040
1.0
1070
    74
1070
     0
1000
MTEXTEND
  0
LEADER
  5
E5BF
330
2
100
AcDbEntity
  8
DIM
 48
0.5
100
AcDbLeader
  3
STANDARD
 73
     0
 40
0.12
 76
     3
 10
1171.783281193221
 20
785.8318952525292
 30
0.0
 10
1171.21335213004
 20
786.5008739655626
 30
0.0
 10
1170.819781452401
 20
786.5008739655626
 30
0.0
340
E5C0
213
-33.32036431157189
223
4.509521751189536
233
0.0
1001
ACAD
1000
DSTYLE
1002
{
1070
     5
1000

1070
    77
1070
     0
1070
   147
1040
0.04
1070
   342
1005
0
1002
}
  0
MTEXT
  5
E5C0
102
{ACAD_REACTORS
330
E5BF
102
}
330
2
100
AcDbEntity
  8
DIM
 48
0.5
100
AcDbMText
 10
1182.452086208572
 20
776.3930731071305
 30
0.0
 40
0.12
 41
0.763
 71
     9
 72
     1
  1

  7
DAYUS
 73
     1
 44
1.0
1001
ACAD
1000
MTEXTBEGIN
1070
    73
1070
     1
1070
    44
1040
1.0
1070
    74
1070
     0
1000
MTEXTEND
  0
LEADER
  5
E5C1
330
2
100
AcDbEntity
  8
DIM
 48
0.5
100
AcDbLeader
  3
STANDARD
 73
     0
 40
0.12
 76
     3
 10
1172.485395728214
 20
785.4875406716123
 30
0.0
 10
1171.909105834469
 20
787.1306598910796
 30
0.0
 10
1171.360137404494
 20
787.1306598910796
 30
0.0
340
E5C2
213
-33.35316324158976
223
4.509521751189536
233
0.0
1001
ACAD
1000
DSTYLE
1002
{
1070
     5
1000

1070
    77
1070
     0
1070
   147
1040
0.04
1070
   342
1005
0
1002
}
  0
MTEXT
  5
E5C2
102
{ACAD_REACTORS
330
E5C1
102
}
330
2
100
AcDbEntity
  8
DIM
 48
0.5
100
AcDbMText
 10
1183.025241090683
 20
781.4960306642761
 30
0.0
 40
0.12
 41
0.763
 71
     9
 72
     1
  1

  7
DAYUS
 73
     1
 44
1.0
1001
ACAD
1000
MTEXTBEGIN
1070
    73
1070
     1
1070
    44
1040
1.0
1070
    74
1070
     0
1000
MTEXTEND
  0
LEADER
  5
E5C3
330
2
100
AcDbEntity
  8
DIM
 48
0.5
100
AcDbLeader
  3
STANDARD
 73
     0
 40
0.12
 76
     3
 10
1174.62519388202
 20
787.2621028445189
 30
0.0
 10
1175.030282163334
 20
788.0094717362106
 30
0.0
 10
1176.301458796281
 20
788.0094717362106
 30
0.0
340
E5C4
213
-33.3098260561344
223
4.81299546612246
233
0.0
1001
ACAD
1000
DSTYLE
1002
{
1070
     5
1000

1070
    77
1070
     0
1070
   147
1040
0.04
1070
   342
1005
0
1002
}
  0
MTEXT
  5
E5C4
102
{ACAD_REACTORS
330
E5C3
102
}
330
2
100
AcDbEntity
  8
DIM
 48
0.5
100
AcDbMText
 10
1187.923225297015
 20
782.0713687944739
 30
0.0
 40
0.12
 41
0.763
 71
     1
 72
     1
  1

  7
DAYUS
 73
     1
 44
1.0
1001
ACAD
1000
MTEXTBEGIN
1070
    73
1070
     1
1070
    44
1040
1.0
1070
    74
1070
     0
1000
MTEXTEND
  0
TEXT
  5
FBC3
330
2
100
AcDbEntity
  8
LOGO
 62
     7
100
AcDbText
 10
1165.129039940457
 20
778.7621555084757
 30
0.0
 40
0.1769501441491982
  1
Order example:
 41
0.8
  7
CHINESET
100
AcDbText
  0
TEXT
  5
FBC4
330
2
100
AcDbEntity
  8
LOGO
 62
     7
100
AcDbText
 10
1165.160786259636
 20
779.0112646734428
 30
0.0
 40
0.2654252162237972
  1
訂購代號：
  7
CHINESET
100
AcDbText
  0
LINE
  5
FBC5
330
2
100
AcDbEntity
  8
LOGO
 62
     4
100
AcDbLine
 10
1165.052154502644
 20
778.0164207805149
 30
0.0
 11
1165.052154502644
 21
779.3435468616338
 31
0.0
  0
TEXT
  5
FBC6
330
2
100
AcDbEntity
  8
LOGO
  6
Continuous
100
AcDbText
 10
1162.609186778067
 20
778.2771326963429
 30
0.0
 40
0.1990689121678479
  1
金器工業股份有限公司
  7
CHINESET
100
AcDbText
  0
TEXT
  5
FBC7
330
2
100
AcDbEntity
  8
LOGO
  6
Continuous
100
AcDbText
 10
1162.243536570257
 20
778.0780247822759
 30
0.0
 40
0.1327126081118986
  1
MINDMAN INDUSTRIAL CO., LTD.
 41
0.85
  7
CHINESET
100
AcDbText
  0
LINE
  5
FBC8
330
2
100
AcDbEntity
  8
LOGO
 62
     4
100
AcDbLine
 10
1165.052154502644
 20
779.07812164541
 30
0.0
 11
1163.105702917003
 21
779.07812164541
 31
0.0
  0
LINE
  5
FBC9
330
2
100
AcDbEntity
  8
LOGO
 62
     4
100
AcDbLine
 10
1165.052154502644
 20
778.8126964291864
 30
0.0
 11
1163.105702917003
 21
778.8126964291864
 31
0.0
  0
LINE
  5
FBCA
330
2
100
AcDbEntity
  8
LOGO
 62
     4
100
AcDbLine
 10
1165.052154502644
 20
778.5472712129625
 30
0.0
 11
1162.132477124182
 21
778.5472712129625
 31
0.0
  0
LINE
  5
FBCB
330
2
100
AcDbEntity
  8
LOGO
 62
     4
100
AcDbLine
 10
1163.105702917003
 20
778.5472712129625
 30
0.0
 11
1163.105702917003
 21
779.3435468616338
 31
0.0
  0
TEXT
  5
FBCC
330
2
100
AcDbEntity
  8
LOGO
100
AcDbText
 10
1164.436010704673
 20
778.6136275170185
 30
0.0
 40
0.1327126081118986
  1
mm
  7
CHINESET
 72
     1
 11
1164.600321552812
 21
778.6799838210744
 31
0.0
100
AcDbText
 73
     2
  0
TEXT
  5
FBCD
330
2
100
AcDbEntity
  8
LOGO
100
AcDbText
 10
1164.366494576614
 20
779.144477949466
 30
0.0
 40
0.1327126081118986
  1
1 : 1
  7
CHINESET
 72
     1
 11
1164.600321552812
 21
779.2108342535219
 31
0.0
100
AcDbText
 73
     2
  0
LINE
  5
FBCE
330
2
100
AcDbEntity
  8
LOGO
 62
     4
100
AcDbLine
 10
1164.167403781898
 20
778.5472712129625
 30
0.0
 11
1164.167403781898
 21
779.3435468616338
 31
0.0
  0
TEXT
  5
FBCF
330
2
100
AcDbEntity
  8
LOGO
100
AcDbText
 10
1163.215131571995
 20
779.1445432607888
 30
8.697765704403957
 40
0.1327126081118986
  1
比例 Scale:
 41
0.9
  7
CHINESET
 72
     4
 11
1163.63655334945
 21
779.2108342535219
 31
8.697765704403957
100
AcDbText
  0
TEXT
  5
FBD0
330
2
100
AcDbEntity
  8
LOGO
100
AcDbText
 10
1163.207488747688
 20
778.880919548555
 30
8.697765704403957
 40
0.1327126081118986
  1
投影  View:
 41
0.9
  7
CHINESET
 72
     4
 11
1163.63655334945
 21
778.9454090372982
 31
8.697765704403957
100
AcDbText
  0
TEXT
  5
FBD1
330
2
100
AcDbEntity
  8
LOGO
100
AcDbText
 10
1163.220463774999
 20
778.6136275170185
 30
8.697765704403957
 40
0.1327126081118986
  1
單位  Unit:
 41
0.9
  7
CHINESET
 72
     4
 11
1163.63655334945
 21
778.6799838210744
 31
8.697765704403957
100
AcDbText
  0
LWPOLYLINE
  5
FBD2
330
2
100
AcDbEntity
  8
LOGO
 62
     4
100
AcDbPolyline
 90
        4
 70
     1
 43
0.0
 10
1162.132477124182
 20
779.343546861634
 10
1180.383103364182
 20
779.343546861634
 10
1180.383103364182
 20
791.2896035005148
 10
1162.132477124182
 20
791.2896035005148
1001
GENIUS_GENREC_14
1002
{
1000
PYDIR
1011
1162.132477124182
1021
791.2896035005148
1031
0.0
1002
}
1002
{
1000
PXDIR
1011
1180.383103364182
1021
779.343546861634
1031
0.0
1002
}
1002
{
1000
PORI
1011
1162.132477124182
1021
779.343546861634
1031
0.0
1002
}
1002
{
1000
PINS
1011
1162.132477124182
1021
779.343546861634
1031
0.0
1002
}
1002
{
1000
PINS2
1011
1180.383103364182
1021
791.2896035005148
1031
0.0
1002
}
1002
{
1000
C
1070
     1
1002
}
1001
GENIUS_GENODEF_13
1002
{
1000
HIER
1070
     0
1002
}
1002
{
1000
MANEDIT
1070
     0
1002
}
1002
{
1000
NOSEL
1070
     0
1002
}
1002
{
1000
BEHIND
1070
     0
1002
}
1002
{
1000
OTHER
1070
     0
1002
}
1002
{
1000
REACTOR
1002
}
1001
GENIUS_GENOBJ-N-REC_13
1002
{
1000
OWNER
1000
GEN
1002
}
  0
SOLID
  5
FBD3
330
2
100
AcDbEntity
  8
LOGO
 62
     5
100
AcDbTrace
 10
1162.270168584973
 20
778.7678870337964
 30
0.0
 11
1162.327550034342
 21
778.7678870337964
 31
0.0
 12
1162.566969185157
 22
779.3120214674654
 32
0.0
 13
1162.624350634526
 23
779.3120214674654
 33
0.0
  0
SOLID
  5
FBD4
330
2
100
AcDbEntity
  8
LOGO
 62
     5
100
AcDbTrace
 10
1162.351294082357
 20
778.7678870337964
 30
0.0
 11
1162.408675531726
 21
778.7678870337964
 31
0.0
 12
1162.624350634526
 22
779.2684907127719
 32
0.0
 13
1162.566969185157
 23
779.0580920650865
 33
0.0
  0
SOLID
  5
FBD5
330
2
100
AcDbEntity
  8
LOGO
 62
     2
100
AcDbTrace
 10
1162.327550034342
 20
778.7678870337964
 30
0.0
 11
1162.351294082357
 21
778.7678870337964
 31
0.0
 12
1162.624350634526
 22
779.3120214674654
 32
0.0
 13
1162.64809468254
 23
779.3120214674654
 33
0.0
  0
SOLID
  5
FBD6
330
2
100
AcDbEntity
  8
LOGO
 62
     5
100
AcDbTrace
 10
1162.17817204998
 20
778.5700199670075
 30
0.0
 11
1162.197958756659
 21
778.5700199670075
 31
0.0
 12
1162.253679662741
 22
778.6689535004019
 32
0.0
 13
1162.27346636942
 23
778.6689535004019
 33
0.0
  0
SOLID
  5
FBD7
330
2
100
AcDbEntity
  8
LOGO
 62
     5
100
AcDbTrace
 10
1162.253679662741
 20
778.6689535004019
 30
0.0
 11
1162.27346636942
 21
778.6689535004019
 31
0.0
 12
1162.253679662741
 22
778.5700199670075
 32
0.0
 13
1162.27346636942
 23
778.5700199670075
 33
0.0
  0
SOLID
  5
FBD8
330
2
100
AcDbEntity
  8
LOGO
 62
     5
100
AcDbTrace
 10
1162.253679662741
 20
778.5700199670075
 30
0.0
 11
1162.27346636942
 21
778.5700199670075
 31
0.0
 12
1162.329187275502
 22
778.6689535004019
 32
0.0
 13
1162.348973982181
 23
778.6689535004019
 33
0.0
  0
SOLID
  5
FBD9
330
2
100
AcDbEntity
  8
LOGO
 62
     5
100
AcDbTrace
 10
1162.329187275502
 20
778.6689535004019
 30
0.0
 11
1162.348973982181
 21
778.6689535004019
 31
0.0
 12
1162.329187275502
 22
778.5700199670075
 32
0.0
 13
1162.348973982181
 23
778.5700199670075
 33
0.0
  0
POLYLINE
  5
FBDA
330
2
100
AcDbEntity
  8
LOGO
 62
     5
100
AcDb2dPolyline
 66
     1
 10
0.0
 20
0.0
 30
0.0
 40
0.0198184161447102
 41
0.0198184161447102
  0
VERTEX
  5
FBDB
330
FBDA
100
AcDbEntity
  8
LOGO
 62
     5
100
AcDbVertex
100
AcDb2dVertex
 10
1162.992430942951
 20
778.6293800870441
 30
0.0
 42
1.0
  0
VERTEX
  5
FBDC
330
FBDA
100
AcDbEntity
  8
LOGO
 62
     5
100
AcDbVertex
100
AcDb2dVertex
 10
1162.932975694517
 20
778.6293800870441
 30
0.0
 42
1.0
  0
SEQEND
  5
FBDD
330
FBDA
100
AcDbEntity
  8
LOGO
 62
     5
  0
POLYLINE
  5
FBDE
330
2
100
AcDbEntity
  8
LOGO
 62
     5
100
AcDb2dPolyline
 66
     1
 10
0.0
 20
0.0
 30
0.0
 70
     1
  0
VERTEX
  5
FBDF
330
FBDE
100
AcDbEntity
  8
LOGO
 62
     5
100
AcDbVertex
100
AcDb2dVertex
 10
1162.820899906649
 20
778.6194867337045
 30
0.0
 42
1.000000057330635
  0
VERTEX
  5
FBE0
330
FBDE
100
AcDbEntity
  8
LOGO
 62
     5
100
AcDbVertex
100
AcDb2dVertex
 10
1162.880260026686
 20
778.6194867337045
 30
0.0
 42
1.000000057330635
  0
SEQEND
  5
FBE1
330
FBDE
100
AcDbEntity
  8
LOGO
 62
     5
  0
CIRCLE
  5
FBE2
330
2
100
AcDbEntity
  8
LOGO
 62
     5
100
AcDbCircle
 10
1162.850579966668
 20
778.6194867337045
 30
0.0
 40
0.029680060018318
  0
POLYLINE
  5
FBE3
330
2
100
AcDbEntity
  8
LOGO
 62
     5
100
AcDb2dPolyline
 66
     1
 10
0.0
 20
0.0
 30
0.0
 70
     1
 40
0.0198184161447102
 41
0.0198184161447102
  0
VERTEX
  5
FBE4
330
FBE3
100
AcDbEntity
  8
LOGO
 62
     5
100
AcDbVertex
100
AcDb2dVertex
 10
1162.810943134378
 20
778.6194867337045
 30
0.0
 42
1.0
  0
VERTEX
  5
FBE5
330
FBE3
100
AcDbEntity
  8
LOGO
 62
     5
100
AcDbVertex
100
AcDb2dVertex
 10
1162.890216798957
 20
778.6194867337045
 30
0.0
 42
1.0
  0
SEQEND
  5
FBE6
330
FBE3
100
AcDbEntity
  8
LOGO
 62
     5
  0
LINE
  5
FBE7
330
2
100
AcDbEntity
  8
LOGO
100
AcDbLine
 10
1163.002276732092
 20
778.5700199670075
 30
0.0
 11
1163.002276732092
 21
778.6293800870441
 31
0.0
  0
SOLID
  5
FBE8
330
2
100
AcDbEntity
  8
LOGO
 62
     5
100
AcDbTrace
 10
1162.880258048015
 20
778.6689535004019
 30
0.0
 11
1162.900044754694
 21
778.6689535004019
 31
0.0
 12
1162.880258048015
 22
778.5700199670075
 32
0.0
 13
1162.900044754694
 23
778.5700199670075
 33
0.0
  0
SOLID
  5
FBE9
330
2
100
AcDbEntity
  8
LOGO
 62
     5
100
AcDbTrace
 10
1162.923129905377
 20
778.5700199670075
 30
0.0
 11
1162.942916612055
 21
778.5700199670075
 31
0.0
 12
1162.923129905377
 22
778.6689535004019
 32
0.0
 13
1162.942916612055
 23
778.6689535004019
 33
0.0
  0
SOLID
  5
FBEA
330
2
100
AcDbEntity
  8
LOGO
 62
     5
100
AcDbTrace
 10
1162.982490025413
 20
778.6293800870441
 30
0.0
 11
1163.002276732092
 21
778.6293800870441
 31
0.0
 12
1162.982490025413
 22
778.5700199670075
 32
0.0
 13
1163.002276732092
 23
778.5700199670075
 33
0.0
  0
SOLID
  5
FBEB
330
2
100
AcDbEntity
  8
LOGO
 62
     5
100
AcDbTrace
 10
1162.921151234709
 20
779.2684907127719
 30
0.0
 11
1162.86376978534
 21
779.0580920650865
 31
0.0
 12
1162.921151234709
 22
778.7678870337964
 32
0.0
 13
1162.86376978534
 23
778.7678870337964
 33
0.0
  0
SOLID
  5
FBEC
330
2
100
AcDbEntity
  8
LOGO
 62
     5
100
AcDbTrace
 10
1162.944895282723
 20
778.7678870337964
 30
0.0
 11
1163.002276732092
 21
778.7678870337964
 31
0.0
 12
1162.944895282723
 22
779.3120214674654
 32
0.0
 13
1163.002276732092
 23
779.3120214674654
 33
0.0
  0
SOLID
  5
FBED
330
2
100
AcDbEntity
  8
LOGO
 62
     2
100
AcDbTrace
 10
1162.921151234709
 20
779.3120214674654
 30
0.0
 11
1162.944895282723
 21
779.3120214674654
 31
0.0
 12
1162.921151234709
 22
778.7678870337964
 32
0.0
 13
1162.944895282723
 23
778.7678870337964
 33
0.0
  0
POLYLINE
  5
FBEE
330
2
100
AcDbEntity
  8
LOGO
 62
     5
100
AcDb2dPolyline
 66
     1
 10
0.0
 20
0.0
 30
0.0
 40
0.0198184161447102
 41
0.0198184161447102
  0
VERTEX
  5
FBEF
330
FBEE
100
AcDbEntity
  8
LOGO
 62
     5
100
AcDbVertex
100
AcDb2dVertex
 10
1162.70882016144
 20
778.6293800870441
 30
0.0
 42
1.0
  0
VERTEX
  5
FBF0
330
FBEE
100
AcDbEntity
  8
LOGO
 62
     5
100
AcDbVertex
100
AcDb2dVertex
 10
1162.649364913006
 20
778.6293800870441
 30
0.0
 42
1.0
  0
SEQEND
  5
FBF1
330
FBEE
100
AcDbEntity
  8
LOGO
 62
     5
  0
POLYLINE
  5
FBF2
330
2
100
AcDbEntity
  8
LOGO
 62
     5
100
AcDb2dPolyline
 66
     1
 10
0.0
 20
0.0
 30
0.0
 40
0.0198184161447102
 41
0.0198184161447102
  0
VERTEX
  5
FBF3
330
FBF2
100
AcDbEntity
  8
LOGO
 62
     5
100
AcDbVertex
100
AcDb2dVertex
 10
1162.768180281477
 20
778.6293800870441
 30
0.0
 42
1.0
  0
VERTEX
  5
FBF4
330
FBF2
100
AcDbEntity
  8
LOGO
 62
     5
100
AcDbVertex
100
AcDb2dVertex
 10
1162.708725033043
 20
778.6293800870441
 30
0.0
 42
1.0
  0
SEQEND
  5
FBF5
330
FBF2
100
AcDbEntity
  8
LOGO
 62
     5
  0
POLYLINE
  5
FBF6
330
2
100
AcDbEntity
  8
LOGO
 62
     5
100
AcDb2dPolyline
 66
     1
 10
0.0
 20
0.0
 30
0.0
 40
0.0198184161447102
 41
0.0198184161447102
  0
VERTEX
  5
FBF7
330
FBF6
100
AcDbEntity
  8
LOGO
 62
     5
100
AcDbVertex
100
AcDb2dVertex
 10
1162.484569499966
 20
778.6293800870441
 30
0.0
 42
1.0
  0
VERTEX
  5
FBF8
330
FBF6
100
AcDbEntity
  8
LOGO
 62
     5
100
AcDbVertex
100
AcDb2dVertex
 10
1162.425114251532
 20
778.6293800870441
 30
0.0
 42
1.0
  0
SEQEND
  5
FBF9
330
FBF6
100
AcDbEntity
  8
LOGO
 62
     5
  0
SOLID
  5
FBFA
330
2
100
AcDbEntity
  8
LOGO
 62
     5
100
AcDbTrace
 10
1162.415268462391
 20
778.6689535004019
 30
0.0
 11
1162.43505516907
 21
778.6689535004019
 31
0.0
 12
1162.415268462391
 22
778.5700199670075
 32
0.0
 13
1162.43505516907
 23
778.5700199670075
 33
0.0
  0
SOLID
  5
FBFB
330
2
100
AcDbEntity
  8
LOGO
 62
     5
100
AcDbTrace
 10
1162.474628582428
 20
778.6293800870441
 30
0.0
 11
1162.494415289107
 21
778.6293800870441
 31
0.0
 12
1162.474628582428
 22
778.5700199670075
 32
0.0
 13
1162.494415289107
 23
778.5700199670075
 33
0.0
  0
POLYLINE
  5
FBFC
330
2
100
AcDbEntity
  8
LOGO
 62
     5
100
AcDb2dPolyline
 66
     1
 10
0.0
 20
0.0
 30
0.0
 70
     1
 40
0.0198184161447102
 41
0.0198184161447102
  0
VERTEX
  5
FBFD
330
FBFC
100
AcDbEntity
  8
LOGO
 62
     5
100
AcDbVertex
100
AcDb2dVertex
 10
1162.527332352867
 20
778.6194867337045
 30
0.0
 42
1.0
  0
VERTEX
  5
FBFE
330
FBFC
100
AcDbEntity
  8
LOGO
 62
     5
100
AcDbVertex
100
AcDb2dVertex
 10
1162.606606017446
 20
778.6194867337045
 30
0.0
 42
1.0
  0
SEQEND
  5
FBFF
330
FBFC
100
AcDbEntity
  8
LOGO
 62
     5
  0
SOLID
  5
FC00
330
2
100
AcDbEntity
  8
LOGO
 62
     5
100
AcDbTrace
 10
1162.596647266504
 20
778.6986335604202
 30
0.0
 11
1162.616433973183
 21
778.6986335604202
 31
0.0
 12
1162.596647266504
 22
778.5700199670075
 32
0.0
 13
1162.616433973183
 23
778.5700199670075
 33
0.0
  0
SOLID
  5
FC01
330
2
100
AcDbEntity
  8
LOGO
 62
     5
100
AcDbTrace
 10
1162.639519123866
 20
778.6689535004019
 30
0.0
 11
1162.659305830544
 21
778.6689535004019
 31
0.0
 12
1162.639519123866
 22
778.5700199670075
 32
0.0
 13
1162.659305830544
 23
778.5700199670075
 33
0.0
  0
SOLID
  5
FC02
330
2
100
AcDbEntity
  8
LOGO
 62
     5
100
AcDbTrace
 10
1162.698879243902
 20
778.6293800870441
 30
0.0
 11
1162.718665950581
 21
778.6293800870441
 31
0.0
 12
1162.698879243902
 22
778.5700199670075
 32
0.0
 13
1162.718665950581
 23
778.5700199670075
 33
0.0
  0
SOLID
  5
FC03
330
2
100
AcDbEntity
  8
LOGO
 62
     5
100
AcDbTrace
 10
1162.758239363939
 20
778.6293800870441
 30
0.0
 11
1162.778026070618
 21
778.6293800870441
 31
0.0
 12
1162.758239363939
 22
778.5700199670075
 32
0.0
 13
1162.778026070618
 23
778.5700199670075
 33
0.0
  0
SOLID
  5
FC04
330
2
100
AcDbEntity
  8
LOGO
 62
     5
100
AcDbTrace
 10
1162.37239660503
 20
778.682804195077
 30
0.0
 11
1162.392183311709
 21
778.682804195077
 31
0.0
 12
1162.37239660503
 22
778.6986335604202
 32
0.0
 13
1162.392183311709
 23
778.6986335604202
 33
0.0
  0
SOLID
  5
FC05
330
2
100
AcDbEntity
  8
LOGO
 62
     5
100
AcDbTrace
 10
1162.37239660503
 20
778.6689535004019
 30
0.0
 11
1162.392183311709
 21
778.6689535004019
 31
0.0
 12
1162.37239660503
 22
778.5700199670075
 32
0.0
 13
1162.392183311709
 23
778.5700199670075
 33
0.0
  0
SOLID
  5
FC06
330
2
100
AcDbEntity
  8
LOGO
 62
     5
100
AcDbTrace
 10
1162.566969185157
 20
778.7678870337964
 30
0.0
 11
1162.624350634526
 21
778.7678870337964
 31
0.0
 12
1162.566969185157
 22
779.0580920650865
 32
0.0
 13
1162.624350634526
 23
779.2684907127719
 33
0.0
  0
SOLID
  5
FC07
330
2
100
AcDbEntity
  8
LOGO
 62
     5
100
AcDbTrace
 10
1162.64809468254
 20
779.3120214674654
 30
0.0
 11
1162.705476131909
 21
779.3120214674654
 31
0.0
 12
1162.64809468254
 22
778.8114177884899
 32
0.0
 13
1162.705476131909
 23
779.0218164361752
 33
0.0
  0
SOLID
  5
FC08
330
2
100
AcDbEntity
  8
LOGO
 62
     2
100
AcDbTrace
 10
1162.624350634526
 20
779.3120214674654
 30
0.0
 11
1162.64809468254
 21
779.3120214674654
 31
0.0
 12
1162.624350634526
 22
778.7678870337964
 32
0.0
 13
1162.64809468254
 23
778.7678870337964
 33
0.0
  0
SOLID
  5
FC09
330
2
100
AcDbEntity
  8
LOGO
 62
     5
100
AcDbTrace
 10
1162.64809468254
 20
778.8114177884899
 30
0.0
 11
1162.705476131909
 21
779.0218164361752
 31
0.0
 12
1162.921151234709
 22
779.3120214674654
 32
0.0
 13
1162.86376978534
 23
779.3120214674654
 33
0.0
  0
SOLID
  5
FC0A
330
2
100
AcDbEntity
  8
LOGO
 62
     5
100
AcDbTrace
 10
1162.64809468254
 20
778.7678870337964
 30
0.0
 11
1162.705476131909
 21
778.7678870337964
 31
0.0
 12
1162.921151234709
 22
779.2684907127719
 32
0.0
 13
1162.86376978534
 23
779.0580920650865
 33
0.0
  0
SOLID
  5
FC0B
330
2
100
AcDbEntity
  8
LOGO
 62
     2
100
AcDbTrace
 10
1162.624350634526
 20
778.7678870337964
 30
0.0
 11
1162.64809468254
 21
778.7678870337964
 31
0.0
 12
1162.921151234709
 22
779.3120214674654
 32
0.0
 13
1162.944895282723
 23
779.3120214674654
 33
0.0
  0
LWPOLYLINE
  5
FC0C
330
2
100
AcDbEntity
  8
LOGO
 62
     4
100
AcDbPolyline
 90
        4
 70
     1
 43
0.0
 10
1162.132477124182
 20
779.343546861634
 10
1180.383103364182
 20
779.343546861634
 10
1180.383103364182
 20
778.016420780515
 10
1162.132477124182
 20
778.016420780515
1001
GENIUS_GENREC_14
1002
{
1000
PYDIR
1011
1162.132477124182
1021
778.016420780515
1031
0.0
1002
}
1002
{
1000
PXDIR
1011
1180.383103364182
1021
779.343546861634
1031
0.0
1002
}
1002
{
1000
PORI
1011
1162.132477124182
1021
779.343546861634
1031
0.0
1002
}
1002
{
1000
PINS
1011
1162.132477124182
1021
779.343546861634
1031
0.0
1002
}
1002
{
1000
PINS2
1011
1180.383103364182
1021
778.016420780515
1031
0.0
1002
}
1002
{
1000
C
1070
     1
1002
}
1001
GENIUS_GENOBJ-N-REC_13
1002
{
1000
OWNER
1000
GEN
1002
}
1001
GENIUS_GENODEF_13
1002
{
1000
HIER
1070
     0
1002
}
1002
{
1000
MANEDIT
1070
     0
1002
}
1002
{
1000
NOSEL
1070
     0
1002
}
1002
{
1000
BEHIND
1070
     0
1002
}
1002
{
1000
OTHER
1070
     0
1002
}
1002
{
1000
REACTOR
1002
}
  0
LINE
  5
FC0D
330
2
100
AcDbEntity
  8
LOGO
 62
     4
100
AcDbLine
 10
1167.762308247124
 20
778.6136275170185
 30
0.0
 11
1167.762308247124
 21
778.1270146206082
 31
0.0
  0
LINE
  5
FC0E
330
2
100
AcDbEntity
  8
LOGO
 62
     4
100
AcDbLine
 10
1166.877557526377
 20
778.6136275170185
 30
0.0
 11
1166.877557526377
 21
778.1270146206082
 31
0.0
  0
LINE
  5
FC0F
330
2
100
AcDbEntity
  8
LOGO
 62
     4
100
AcDbLine
 10
1167.762308247124
 20
778.1270146206082
 30
0.0
 11
1166.877557526377
 21
778.1270146206082
 31
0.0
  0
LINE
  5
FC10
330
2
100
AcDbEntity
  8
LOGO
 62
     4
100
AcDbLine
 10
1167.920997691582
 20
779.2108342535219
 30
0.0
 11
1166.877557526377
 21
779.2108342535219
 31
0.0
  0
LINE
  5
FC11
330
2
100
AcDbEntity
  8
LOGO
 62
     4
100
AcDbLine
 10
1167.920997691582
 20
778.8126964291864
 30
0.0
 11
1166.877557526377
 21
778.8126964291864
 31
0.0
  0
LINE
  5
FC12
330
2
100
AcDbEntity
  8
LOGO
 62
     4
100
AcDbLine
 10
1166.877557526377
 20
779.2108342535219
 30
0.0
 11
1166.877557526377
 21
778.8126964291864
 31
0.0
  0
LINE
  5
FC13
330
2
100
AcDbEntity
  8
LOGO
 62
     4
100
AcDbLine
 10
1167.920997691582
 20
779.2108342535219
 30
0.0
 11
1167.920997691582
 21
778.8126964291864
 31
0.0
  0
LINE
  5
FC14
330
2
100
AcDbEntity
  8
LOGO
 62
     4
100
AcDbLine
 10
1167.366094652179
 20
778.8126964291864
 30
0.0
 11
1167.366094652179
 21
778.6136275170185
 31
0.0
  0
TEXT
  5
FC15
330
2
100
AcDbEntity
  8
LOGO
  6
Continuous
100
AcDbText
 10
1166.948300382365
 20
778.8958071179388
 30
0.0
 40
0.2322806975999999
  1
MCQN
  7
CHINESET
100
AcDbText
  0
LINE
  5
FC16
330
2
100
AcDbEntity
  8
LOGO
 62
     4
100
AcDbLine
 10
1167.762308247124
 20
778.6136275170185
 30
0.0
 11
1166.877557526377
 21
778.6136275170185
 31
0.0
  0
TEXT
  5
FC17
330
2
100
AcDbEntity
  8
LOGO
  6
Continuous
100
AcDbText
 10
1167.161471231587
 20
778.1956989990499
 30
8.697765704403957
 40
0.0995488704
  1
Model
 41
0.8
  7
CHINESET
100
AcDbText
  0
TEXT
  5
FC18
330
2
100
AcDbEntity
  8
LOGO
100
AcDbText
 10
1167.134974558421
 20
778.3802411504587
 30
8.697765704403957
 40
0.165914784
  1
型號
  7
CHINESET
100
AcDbText
  0
LINE
  5
FC19
330
2
100
AcDbEntity
  8
LOGO
  6
Continuous
100
AcDbLine
 10
1167.963323032872
 20
779.0103550742596
 30
0.0
 11
1168.139126168695
 21
779.0103550742596
 31
0.0
  0
LINE
  5
FC1A
330
2
100
AcDbEntity
  8
LOGO
 62
     4
100
AcDbLine
 10
1168.74465512592
 20
778.6136275170185
 30
0.0
 11
1168.74465512592
 21
778.1270146206082
 31
0.0
  0
LINE
  5
FC1B
330
2
100
AcDbEntity
  8
LOGO
 62
     4
100
AcDbLine
 10
1167.863242876806
 20
778.6136275170185
 30
0.0
 11
1167.863242876806
 21
778.1270146206082
 31
0.0
  0
LINE
  5
FC1C
330
2
100
AcDbEntity
  8
LOGO
 62
     4
100
AcDbLine
 10
1168.74465512592
 20
778.1270146206082
 30
0.0
 11
1167.863242876806
 21
778.1270146206082
 31
0.0
  0
LINE
  5
FC1D
330
2
100
AcDbEntity
  8
LOGO
 62
     4
100
AcDbLine
 10
1168.60305158483
 20
779.2108342535219
 30
0.0
 11
1168.194582790911
 21
779.2108342535219
 31
0.0
  0
LINE
  5
FC1E
330
2
100
AcDbEntity
  8
LOGO
 62
     4
100
AcDbLine
 10
1168.60305158483
 20
778.8126964291864
 30
0.0
 11
1168.194582790911
 21
778.8126964291864
 31
0.0
  0
LINE
  5
FC1F
330
2
100
AcDbEntity
  8
LOGO
 62
     4
100
AcDbLine
 10
1168.194582790911
 20
779.2108342535219
 30
0.0
 11
1168.194582790911
 21
778.8126964291864
 31
0.0
  0
LINE
  5
FC20
330
2
100
AcDbEntity
  8
LOGO
 62
     4
100
AcDbLine
 10
1168.60305158483
 20
779.2108342535219
 30
0.0
 11
1168.60305158483
 21
778.8126964291864
 31
0.0
  0
LINE
  5
FC21
330
2
100
AcDbEntity
  8
LOGO
 62
     4
100
AcDbLine
 10
1168.398817187871
 20
778.8126964291864
 30
0.0
 11
1168.398817187871
 21
778.6136275170185
 31
0.0
  0
TEXT
  5
FC22
330
2
100
AcDbEntity
  8
LOGO
  6
Continuous
100
AcDbText
 10
1168.259302809897
 20
778.8958071179388
 30
0.0
 40
0.2322806975999999
  1
11
  7
CHINESET
100
AcDbText
  0
LINE
  5
FC23
330
2
100
AcDbEntity
  8
LOGO
 62
     4
100
AcDbLine
 10
1168.74465512592
 20
778.6136275170185
 30
0.0
 11
1167.863242876806
 21
778.6136275170185
 31
0.0
  0
LINE
  5
FC24
330
2
100
AcDbEntity
  8
LOGO
  6
Continuous
100
AcDbLine
 10
1168.68083535544
 20
779.0103550742596
 30
0.0
 11
1168.856638491262
 21
779.0103550742596
 31
0.0
  0
LINE
  5
FC25
330
2
100
AcDbEntity
  8
LOGO
 62
     4
100
AcDbLine
 10
1169.73047106037
 20
778.6136275170185
 30
0.0
 11
1169.73047106037
 21
778.1270146206082
 31
0.0
  0
LINE
  5
FC26
330
2
100
AcDbEntity
  8
LOGO
 62
     4
100
AcDbLine
 10
1168.845720339624
 20
778.6136275170185
 30
0.0
 11
1168.845720339624
 21
778.1270146206082
 31
0.0
  0
LINE
  5
FC27
330
2
100
AcDbEntity
  8
LOGO
 62
     4
100
AcDbLine
 10
1169.73047106037
 20
778.1270146206082
 30
0.0
 11
1168.845720339624
 21
778.1270146206082
 31
0.0
  0
LINE
  5
FC28
330
2
100
AcDbEntity
  8
LOGO
 62
     4
100
AcDbLine
 10
1169.592411734306
 20
779.2108342535219
 30
0.0
 11
1168.912095113478
 21
779.2108342535219
 31
0.0
  0
LINE
  5
FC29
330
2
100
AcDbEntity
  8
LOGO
 62
     4
100
AcDbLine
 10
1169.592411734306
 20
778.8126964291864
 30
0.0
 11
1168.912095113478
 21
778.8126964291864
 31
0.0
  0
LINE
  5
FC2A
330
2
100
AcDbEntity
  8
LOGO
 62
     4
100
AcDbLine
 10
1168.912095113478
 20
779.2108342535219
 30
0.0
 11
1168.912095113478
 21
778.8126964291864
 31
0.0
  0
LINE
  5
FC2B
330
2
100
AcDbEntity
  8
LOGO
 62
     4
100
AcDbLine
 10
1169.592411734306
 20
779.2108342535219
 30
0.0
 11
1169.592411734306
 21
778.8126964291864
 31
0.0
  0
LINE
  5
FC2C
330
2
100
AcDbEntity
  8
LOGO
 62
     4
100
AcDbLine
 10
1169.252253423892
 20
778.8126964291864
 30
0.0
 11
1169.252253423892
 21
778.6136275170185
 31
0.0
  0
TEXT
  5
FC2D
330
2
100
AcDbEntity
  8
LOGO
  6
Continuous
100
AcDbText
 10
1169.079800880918
 20
778.8958071179388
 30
0.0
 40
0.2322806975999999
  1
80
  7
CHINESET
100
AcDbText
  0
LINE
  5
FC2E
330
2
100
AcDbEntity
  8
LOGO
 62
     4
100
AcDbLine
 10
1169.73047106037
 20
778.6136275170185
 30
0.0
 11
1168.845720339624
 21
778.6136275170185
 31
0.0
  0
LINE
  5
FC2F
330
2
100
AcDbEntity
  8
LOGO
  6
Continuous
100
AcDbLine
 10
1169.64904446527
 20
779.0103550742596
 30
0.0
 11
1169.824847601094
 21
779.0103550742596
 31
0.0
  0
LINE
  5
FC30
330
2
100
AcDbEntity
  8
LOGO
 62
     4
100
AcDbLine
 10
1170.534699959451
 20
778.6136275170185
 30
0.0
 11
1170.534699959451
 21
778.1270146206082
 31
0.0
  0
LINE
  5
FC31
330
2
100
AcDbEntity
  8
LOGO
 62
     4
100
AcDbLine
 10
1169.813929449455
 20
778.6136275170185
 30
0.0
 11
1169.813929449455
 21
778.1270146206082
 31
0.0
  0
LINE
  5
FC32
330
2
100
AcDbEntity
  8
LOGO
 62
     4
100
AcDbLine
 10
1170.534699959451
 20
778.1270146206082
 30
0.0
 11
1169.813929449455
 21
778.1270146206082
 31
0.0
  0
LINE
  5
FC33
330
2
100
AcDbEntity
  8
LOGO
 62
     4
100
AcDbLine
 10
1170.303911812194
 20
779.2108342535219
 30
0.0
 11
1169.880304223309
 21
779.2108342535219
 31
0.0
  0
LINE
  5
FC34
330
2
100
AcDbEntity
  8
LOGO
 62
     4
100
AcDbLine
 10
1170.303911812194
 20
778.8126964291864
 30
0.0
 11
1169.880304223309
 21
778.8126964291864
 31
0.0
  0
LINE
  5
FC35
330
2
100
AcDbEntity
  8
LOGO
 62
     4
100
AcDbLine
 10
1169.880304223309
 20
779.2108342535219
 30
0.0
 11
1169.880304223309
 21
778.8126964291864
 31
0.0
  0
LINE
  5
FC36
330
2
100
AcDbEntity
  8
LOGO
 62
     4
100
AcDbLine
 10
1170.303911812194
 20
779.2108342535219
 30
0.0
 11
1170.303911812194
 21
778.8126964291864
 31
0.0
  0
LINE
  5
FC37
330
2
100
AcDbEntity
  8
LOGO
 62
     4
100
AcDbLine
 10
1170.077533397386
 20
778.8126964291864
 30
0.0
 11
1170.077533397386
 21
778.6136275170185
 31
0.0
  0
TEXT
  5
FC38
330
2
100
AcDbEntity
  8
LOGO
  6
Continuous
100
AcDbText
 10
1170.023080198806
 20
778.8958071179388
 30
0.0
 40
0.2322806975999999
  1
0
  7
CHINESET
100
AcDbText
  0
LINE
  5
FC39
330
2
100
AcDbEntity
  8
LOGO
 62
     4
100
AcDbLine
 10
1170.534699959451
 20
778.6136275170185
 30
0.0
 11
1169.813929449455
 21
778.6136275170185
 31
0.0
  0
TEXT
  5
FC3A
330
2
100
AcDbEntity
  8
LOGO
  6
Continuous
100
AcDbText
 10
1167.942747618764
 20
778.1956989990499
 30
8.697765704403957
 40
0.0995488704
  1
Acting type
 41
0.8
  7
CHINESET
100
AcDbText
  0
TEXT
  5
FC3B
330
2
100
AcDbEntity
  8
LOGO
100
AcDbText
 10
1167.941809833926
 20
778.3802411504587
 30
8.697765704403957
 40
0.165914784
  1
作動型式
  7
CHINESET
100
AcDbText
  0
TEXT
  5
FC3C
330
2
100
AcDbEntity
  8
LOGO
  6
Continuous
100
AcDbText
 10
1169.031039454897
 20
778.1956989990499
 30
8.697765704403957
 40
0.0995488704
  1
Tube I.D.
 41
0.8
  7
CHINESET
100
AcDbText
  0
TEXT
  5
FC3D
330
2
100
AcDbEntity
  8
LOGO
100
AcDbText
 10
1169.09652569755
 20
778.3802411504587
 30
8.697765704403957
 40
0.165914784
  1
內徑
  7
CHINESET
100
AcDbText
  0
TEXT
  5
FC3E
330
2
100
AcDbEntity
  8
LOGO
  6
Continuous
100
AcDbText
 10
1170.003889081894
 20
778.1956989990499
 30
8.697765704403957
 40
0.0995488704
  1
Stroke
 41
0.8
  7
CHINESET
100
AcDbText
  0
TEXT
  5
FC3F
330
2
100
AcDbEntity
  8
LOGO
100
AcDbText
 10
1169.996986690465
 20
778.3802411504587
 30
8.697765704403957
 40
0.165914784
  1
行程
  7
CHINESET
100
AcDbText
  0
LINE
  5
FC40
330
2
100
AcDbEntity
  8
LOGO
 62
     4
100
AcDbLine
 10
1170.9954673189
 20
779.2108342535219
 30
0.0
 11
1170.366032273871
 21
779.2108342535219
 31
0.0
  0
LINE
  5
FC41
330
2
100
AcDbEntity
  8
LOGO
 62
     4
100
AcDbLine
 10
1170.9954673189
 20
778.8126964291864
 30
0.0
 11
1170.366032273871
 21
778.8126964291864
 31
0.0
  0
LINE
  5
FC42
330
2
100
AcDbEntity
  8
LOGO
 62
     4
100
AcDbLine
 10
1170.366032273871
 20
779.2108342535219
 30
0.0
 11
1170.366032273871
 21
778.8126964291864
 31
0.0
  0
LINE
  5
FC43
330
2
100
AcDbEntity
  8
LOGO
 62
     4
100
AcDbLine
 10
1170.9954673189
 20
779.2108342535219
 30
0.0
 11
1170.9954673189
 21
778.8126964291864
 31
0.0
  0
TEXT
  5
FC44
330
2
100
AcDbEntity
  8
LOGO
  6
Continuous
100
AcDbText
 10
1170.458560538856
 20
778.8958071179388
 30
0.0
 40
0.2322806975999999
  1
(M)
  7
CHINESET
100
AcDbText
  0
LINE
  5
FC45
330
2
100
AcDbEntity
  8
LOGO
 62
     4
100
AcDbLine
 10
1171.349531666918
 20
778.6136275170185
 30
0.0
 11
1171.349531666918
 21
778.1270146206082
 31
0.0
  0
LINE
  5
FC46
330
2
100
AcDbEntity
  8
LOGO
 62
     4
100
AcDbLine
 10
1170.628761156922
 20
778.6136275170185
 30
0.0
 11
1170.628761156922
 21
778.1270146206082
 31
0.0
  0
LINE
  5
FC47
330
2
100
AcDbEntity
  8
LOGO
 62
     4
100
AcDbLine
 10
1171.349531666918
 20
778.1270146206082
 30
0.0
 11
1170.628761156922
 21
778.1270146206082
 31
0.0
  0
LINE
  5
FC48
330
2
100
AcDbEntity
  8
LOGO
 62
     4
100
AcDbLine
 10
1171.349531666918
 20
778.6136275170185
 30
0.0
 11
1170.628761156922
 21
778.6136275170185
 31
0.0
  0
TEXT
  5
FC49
330
2
100
AcDbEntity
  8
LOGO
  6
Continuous
100
AcDbText
 10
1170.785438116197
 20
778.1956989990499
 30
8.697765704403957
 40
0.0995488704
  1
Magnet
 41
0.8
  7
CHINESET
100
AcDbText
  0
TEXT
  5
FC4A
330
2
100
AcDbEntity
  8
LOGO
100
AcDbText
 10
1170.732350229163
 20
778.3802411504587
 30
8.697765704403957
 40
0.165914784
  1
附磁石
  7
CHINESET
100
AcDbText
  0
LINE
  5
FC4B
330
2
100
AcDbEntity
  8
LOGO
 62
     4
100
AcDbLine
 10
1170.680749796386
 20
778.8126964291864
 30
0.0
 11
1170.680749796386
 21
778.7015465254516
 31
0.0
  0
TEXT
  5
FC4C
330
2
100
AcDbEntity
  8
LOGO
100
AcDbText
 10
1165.113644883639
 20
778.0870233642223
 30
0.0
 40
0.1327318272
  1
11005252
 41
0.7
  7
CHINESET
 72
     1
 11
1165.436625663159
 21
778.0870233642223
 31
0.0
100
AcDbText
  0
LINE
  5
FC4D
330
2
100
AcDbEntity
  8
LOGO
 62
     4
100
AcDbLine
 10
1165.848545465844
 20
778.2818459967387
 30
0.0
 11
1165.848545465844
 21
778.0164207805149
 31
0.0
  0
LINE
  5
FC4E
330
2
100
AcDbEntity
  8
LOGO
 62
     4
100
AcDbLine
 10
1165.848545465844
 20
778.2818459967387
 30
0.0
 11
1165.052154502644
 21
778.2818459967387
 31
0.0
  0
CIRCLE
  5
FC4F
330
2
100
AcDbEntity
  8
LOGO
  6
Continuous
100
AcDbCircle
 10
1164.413137775248
 20
778.9456929105382
 30
0.0
 40
0.0770560639724395
  0
CIRCLE
  5
FC50
330
2
100
AcDbEntity
  8
LOGO
  6
Continuous
100
AcDbCircle
 10
1164.413137775248
 20
778.9456929105382
 30
0.0
 40
0.0451480321004509
  0
LINE
  5
FC51
330
2
100
AcDbEntity
  8
LOGO
100
AcDbLine
 10
1164.897367022458
 20
778.8686368465658
 30
0.0
 11
1164.897367022458
 21
779.0227489745106
 31
0.0
  0
LINE
  5
FC52
330
2
100
AcDbEntity
  8
LOGO
100
AcDbLine
 10
1164.655800685133
 20
778.9005448784377
 30
0.0
 11
1164.655800685133
 21
778.9908409426385
 31
0.0
  0
LINE
  5
FC53
330
2
100
AcDbEntity
  8
LOGO
  6
Continuous
100
AcDbLine
 10
1164.655800685133
 20
778.9908409426385
 30
0.0
 11
1164.897367022458
 21
779.0227489745106
 31
0.0
  0
LINE
  5
FC54
330
2
100
AcDbEntity
  8
LOGO
  6
Continuous
100
AcDbLine
 10
1164.655800685133
 20
778.9005448784377
 30
0.0
 11
1164.897367022458
 21
778.8686368465658
 31
0.0
  0
LINE
  5
FC55
330
2
100
AcDbEntity
  8
LOGO
  6
AM_ISO08W050x2
 48
0.3
100
AcDbLine
 10
1164.306914837238
 20
778.9456929105382
 30
0.0
 11
1164.519360713257
 21
778.9456929105382
 31
0.0
1001
GENIUS_GENOREF_13
1005
FC5C
  0
LINE
  5
FC56
330
2
100
AcDbEntity
  8
LOGO
  6
AM_ISO08W050x2
 48
0.3
100
AcDbLine
 10
1164.413137775248
 20
778.8394699725284
 30
0.0
 11
1164.413137775248
 21
779.0519158485477
 31
0.0
1001
GENIUS_GENOREF_13
1005
FC5B
  0
LINE
  5
FC57
330
2
100
AcDbEntity
  8
LOGO
  6
CENTER
 48
0.5
100
AcDbLine
 10
1164.636482092453
 20
778.9456929105382
 30
0.0
 11
1164.921691970636
 21
778.9456929105382
 31
0.0
1001
GENIUS_GENOREF_13
1005
FC5A
  0
LINE
  5
FC58
330
2
100
AcDbEntity
  8
LOGO
 62
     4
100
AcDbLine
 10
1170.907503042468
 20
778.7015465254516
 30
0.0
 11
1170.680749796386
 21
778.7015465254516
 31
0.0
  0
LINE
  5
FC59
330
2
100
AcDbEntity
  8
LOGO
 62
     4
100
AcDbLine
 10
1170.907503042468
 20
778.7015465254518
 30
0.0
 11
1170.907503042468
 21
778.6136275170185
 31
0.0
  0
POINT
  5
FC5A
330
2
100
AcDbEntity
  8
0
 60
     1
100
AcDbPoint
 10
1884.339977808438
 20
-313.854476508871
 30
0.0
1001
GENIUS_GENOBJ-N-CRS_13
1002
{
1000
OWNER
1000
GEN
1002
}
1001
GENIUS_GENOLIS_13
1002
{
1000
ENT
1005
0
1005
0
1005
0
1005
FC57
1002
}
1001
GENIUS_GENOENT_13
1002
{
1000
MYREF
1005
FC5A
1002
}
1002
{
1000
GRP
1005
0
1002
}
1001
GENIUS_GENODEF_13
1002
{
1000
HIER
1070
    10
1002
}
1002
{
1000
MANEDIT
1070
     1
1002
}
1002
{
1000
NOSEL
1070
     0
1002
}
1002
{
1000
BEHIND
1070
     0
1002
}
1002
{
1000
OTHER
1070
     0
1002
}
1002
{
1000
REACTOR
1002
}
  0
POINT
  5
FC5B
330
2
100
AcDbEntity
  8
0
 60
     1
100
AcDbPoint
 10
1873.015392585584
 20
-304.9788900302348
 30
0.0
1001
GENIUS_GENOBJ-N-CRS_13
1002
{
1000
OWNER
1000
GEN
1002
}
1001
GENIUS_GENOLIS_13
1002
{
1000
ENT
1005
0
1005
0
1005
0
1005
FC56
1002
}
1001
GENIUS_GENOENT_13
1002
{
1000
MYREF
1005
FC5B
1002
}
1002
{
1000
GRP
1005
0
1002
}
1001
GENIUS_GENODEF_13
1002
{
1000
HIER
1070
    10
1002
}
1002
{
1000
MANEDIT
1070
     1
1002
}
1002
{
1000
NOSEL
1070
     0
1002
}
1002
{
1000
BEHIND
1070
     0
1002
}
1002
{
1000
OTHER
1070
     0
1002
}
1002
{
1000
REACTOR
1002
}
  0
POINT
  5
FC5C
330
2
100
AcDbEntity
  8
0
 60
     1
100
AcDbPoint
 10
1879.374066283421
 20
-313.854476508871
 30
0.0
1001
GENIUS_GENOBJ-N-CRS_13
1002
{
1000
OWNER
1000
GEN
1002
}
1001
GENIUS_GENOLIS_13
1002
{
1000
ENT
1005
0
1005
0
1005
0
1005
FC55
1002
}
1001
GENIUS_GENOENT_13
1002
{
1000
MYREF
1005
FC5C
1002
}
1002
{
1000
GRP
1005
0
1002
}
1001
GENIUS_GENODEF_13
1002
{
1000
HIER
1070
    10
1002
}
1002
{
1000
MANEDIT
1070
     1
1002
}
1002
{
1000
NOSEL
1070
     0
1002
}
1002
{
1000
BEHIND
1070
     0
1002
}
1002
{
1000
OTHER
1070
     0
1002
}
1002
{
1000
REACTOR
1002
}
  0
LINE
  5
FE54
330
2
100
AcDbEntity
  8
SL
  6
ACISOTGB
100
AcDbLine
 10
1176.035085287156
 20
783.5370112781507
 30
0.0
 11
1176.035085287156
 21
787.3780191792697
 31
0.0
  0
INSERT
  5
FE55
330
2
100
AcDbEntity
  8
0
 48
0.5
100
AcDbBlockReference
  2
A$C0FBC3824
 10
1176.002194197032
 20
787.4652789491416
 30
0.0
 41
1.399999999999999
 42
1.399999999999999
 43
1.399999999999999
  0
INSERT
  5
FE56
330
2
100
AcDbEntity
  8
0
 48
0.5
100
AcDbBlockReference
  2
A$C7A150A0F
 10
1176.035085287156
 20
787.2267374888845
 30
0.0
 41
1.399999999999999
 42
1.399999999999999
 43
1.399999999999999
  0
TEXT
  5
FEE3
330
2
100
AcDbEntity
  8
0
100
AcDbText
 10
1162.416035242063
 20
790.5048028059915
 30
0.0
 40
0.2
  1
NOTE:The length is the same, whether it is with magnet or not.
100
AcDbText
  0
TEXT
  5
FEE4
330
2
100
AcDbEntity
  8
0
100
AcDbText
 10
1178.851514575234
 20
779.8839095295561
 30
0.0
 40
0.15
  1
UNIT:inch
100
AcDbText
  0
VIEWPORT
  5
D953
102
{ACAD_XDICTIONARY
360
FEF3
102
}
330
BBB
100
AcDbEntity
 67
     1
  8
0
 62
     5
100
AcDbViewport
 10
144.7270812988281
 20
101.2295806407928
 30
0.0
 40
399.2669429819803
 41
222.1517806396485
 68
     1
 69
     1
 12
144.7270812988281
 22
101.2295806407928
 13
0.0
 23
0.0
 14
10.0
 24
10.0
 15
10.0
 25
10.0
 16
0.0
 26
0.0
 36
1.0
 17
0.0
 27
0.0
 37
0.0
 42
50.0
 43
0.0
 44
0.0
 45
222.1517806396485
 50
0.0
 51
0.0
 72
   100
 90
    32800
  1

281
     0
 71
     1
 74
     0
110
0.0
120
0.0
130
0.0
111
1.0
121
0.0
131
0.0
112
0.0
122
1.0
132
0.0
 79
     0
146
0.0
1001
GENIUS_GENOBJ-N-SDF_13
1002
{
1000
OWNER
1000
GEN
1002
}
1001
GENIUS_GENODEF_13
1002
{
1000
HIER
1070
     0
1002
}
1002
{
1000
MANEDIT
1070
     0
1002
}
1002
{
1000
NOSEL
1070
     0
1002
}
1002
{
1000
BEHIND
1070
     0
1002
}
1002
{
1000
OTHER
1070
     0
1002
}
1002
{
1000
REACTOR
1002
}
1001
GENIUS_GENSCREG_15
1000
PF
1040
1.0
1000
DF
1040
1.0
1000
MIN
1011
-54.906390192162
1021
-9.846309679031378
1031
0.0
1000
MAX
1011
344.3605527898183
1021
212.3054709606171
1031
0.0
1000
FLAGS
1070
     2
  0
VIEWPORT
  5
D955
102
{ACAD_XDICTIONARY
360
FEF5
102
}
330
BBB
100
AcDbEntity
 67
     1
  8
DIM
 62
     5
100
AcDbViewport
 10
139.2237563133239
 20
101.2295821905136
 30
0.0
 40
222.7580101013184
 41
161.9673315048218
 68
     2
 69
     2
 12
1282.775856856608
 22
808.0711763492697
 13
0.0
 23
0.0
 14
0.5
 24
0.5
 15
0.5
 25
0.5
 16
0.0
 26
0.0
 36
1.0
 17
0.0
 27
0.0
 37
0.0
 42
50.0
 43
0.0
 44
0.0
 45
1492.564878381468
 50
0.0
 51
0.0
 72
   100
 90
    33312
  1

281
     0
 71
     1
 74
     0
110
0.0
120
0.0
130
0.0
111
1.0
121
0.0
131
0.0
112
0.0
122
1.0
132
0.0
 79
     0
146
0.0
1001
GENIUS_GENOBJ-N-SDF_13
1002
{
1000
OWNER
1000
GEN
1002
}
1001
GENIUS_GENODEF_13
1002
{
1000
HIER
1070
     0
1002
}
1002
{
1000
MANEDIT
1070
     0
1002
}
1002
{
1000
NOSEL
1070
     0
1002
}
1002
{
1000
BEHIND
1070
     0
1002
}
1002
{
1000
OTHER
1070
     0
1002
}
1002
{
1000
REACTOR
1002
}
1001
GENIUS_GENSCREG_15
1000
PF
1040
0.0
1000
DF
1040
0.0
1000
MIN
1011
27.8447512626648
1021
20.24591643810271
1031
0.0
1000
MAX
1011
250.6027613639831
1021
182.2132479429245
1031
0.0
1000
FLAGS
1070
     2
  0
ENDSEC
  0
SECTION
  2
OBJECTS
  0
DICTIONARY
  5
8
330
0
100
AcDbDictionary
281
     1
  3
ACAD_COLOR
350
FA31
  3
ACAD_GROUP
350
24
  3
ACAD_LAYOUT
350
C
  3
ACAD_MATERIAL
350
FA30
  3
ACAD_MLINESTYLE
350
25
  3
ACAD_PLOTSETTINGS
350
26
  3
ACAD_PLOTSTYLENAME
350
7
  3
ACAD_TABLESTYLE
350
FA32
  3
AcadDim
350
E5B8
  3
ACDBHEADERROUNDTRIPXREC
350
FEEA
  3
AcDbVariableDictionary
350
1F1
  3
AcmDictionary
350
F7A6
  3
AMG
350
F78C
  3
AMGSNAPSETTINGS
350
F7DC
  3
DWGPROPS
350
FEE9
  3
MAPISURF_MODULE
350
FAC2
  0
DICTIONARY
  5
FB21
330
11
100
AcDbDictionary
280
     1
281
     1
  3
ACAD_LAYERSTATES
360
FB22
  0
DICTIONARY
  5
3
330
2
100
AcDbDictionary
280
     1
281
     1
  3
ACAD_INDEX
360
F7E3
  3
ACAD_LAYOUTSELFREF
360
FA06
  0
DICTIONARY
  5
F744
330
BBB
100
AcDbDictionary
280
     1
281
     1
  3
ACAD_LAYOUTSELFREF
360
FA16
  0
DICTIONARY
  5
F746
330
D
100
AcDbDictionary
280
     1
281
     1
  3
ACAD_LAYOUTSELFREF
360
FA0B
  0
DICTIONARY
  5
FE3A
330
FE39
100
AcDbDictionary
280
     1
281
     1
  3
ACAD_SORTENTS
360
FE3B
  0
DICTIONARY
  5
FE42
330
FE41
100
AcDbDictionary
280
     1
281
     1
  3
ACAD_SORTENTS
360
FE43
  0
DICTIONARY
  5
FEEF
330
640
100
AcDbDictionary
280
     1
281
     1
  3
ACAD_XREC_ROUNDTRIP
360
FEF0
  0
DICTIONARY
  5
FD19
330
E431
100
AcDbDictionary
280
     1
281
     1
  3
ACMDIMBREAKPERSREACTOR
360
FD1A
  0
DICTIONARY
  5
FD58
330
E516
100
AcDbDictionary
280
     1
281
     1
  3
ACMDIMBREAKPERSREACTOR
360
FD59
  0
DICTIONARY
  5
FD72
330
E550
100
AcDbDictionary
280
     1
281
     1
  3
ACMDIMBREAKPERSREACTOR
360
FD73
  0
DICTIONARY
  5
FD33
330
E56A
100
AcDbDictionary
280
     1
281
     1
  3
ACMDIMBREAKPERSREACTOR
360
FD34
  0
DICTIONARY
  5
FEF3
330
D953
100
AcDbDictionary
280
     1
281
     1
  3
ACAD_XREC_ROUNDTRIP
360
FEF4
  0
DICTIONARY
  5
FEF5
330
D955
100
AcDbDictionary
280
     1
281
     1
  3
ACAD_XREC_ROUNDTRIP
360
FEF6
  0
DICTIONARY
  5
FA31
102
{ACAD_REACTORS
330
8
102
}
330
8
100
AcDbDictionary
281
     1
  0
DICTIONARY
  5
24
102
{ACAD_REACTORS
330
8
102
}
330
8
100
AcDbDictionary
281
     1
  0
DICTIONARY
  5
C
102
{ACAD_REACTORS
330
8
102
}
330
8
100
AcDbDictionary
281
     1
  3
Layout1
350
BBC
  3
Layout2
350
10
  3
Model
350
B
  0
DICTIONARY
  5
FA30
102
{ACAD_REACTORS
330
8
102
}
330
8
100
AcDbDictionary
281
     1
  0
DICTIONARY
  5
25
102
{ACAD_REACTORS
330
8
102
}
330
8
100
AcDbDictionary
281
     1
  3
STANDARD
350
28
  0
DICTIONARY
  5
26
102
{ACAD_REACTORS
330
8
102
}
330
8
100
AcDbDictionary
281
     1
  0
ACDBDICTIONARYWDFLT
  5
7
102
{ACAD_REACTORS
330
8
102
}
330
8
100
AcDbDictionary
281
     1
  3
Normal
350
6
100
AcDbDictionaryWithDefault
340
6
  0
DICTIONARY
  5
FA32
102
{ACAD_REACTORS
330
8
102
}
330
8
100
AcDbDictionary
281
     1
  3
Standard
350
FA33
  0
XRECORD
  5
E5B8
102
{ACAD_REACTORS
330
8
102
}
330
8
100
AcDbXrecord
280
     1
 90
   990106
  3

 60
     0
 61
     0
 62
     1
 63
     3
 64
     0
 65
     0
 66
     0
 67
     3
 68
     1
 69
     0
 70
     0
 71
     0
 72
     0
 40
0.7629527293183856
170
     0
340
E5C4
  0
DICTIONARY
  5
FEEA
102
{ACAD_REACTORS
330
8
102
}
330
8
100
AcDbDictionary
281
     1
  0
DICTIONARY
  5
1F1
102
{ACAD_REACTORS
330
8
102
}
330
8
100
AcDbDictionary
281
     1
  3
CTABLESTYLE
350
FD94
  3
DIMASSOC
350
1F3
  3
HIDETEXT
350
1F2
  3
INDEXCTL
350
F84A
  3
PROJECTNAME
350
FEE7
  0
DICTIONARY
  5
F7A6
102
{ACAD_REACTORS
330
8
102
}
330
8
100
AcDbDictionary
281
     1
  3
AcmStdDictionary
350
F7AC
  3
AMDTSECTSYM_ARROWCOLOR
350
FB0F
  0
DICTIONARY
  5
F78C
102
{ACAD_REACTORS
330
8
102
}
330
8
100
AcDbDictionary
281
     1
  3
AcMgSettings
350
F78D
  0
DICTIONARY
  5
F7DC
102
{ACAD_REACTORS
330
8
102
}
330
8
100
AcDbDictionary
281
     1
  0
XRECORD
  5
FEE9
102
{ACAD_REACTORS
330
8
102
}
330
8
100
AcDbXrecord
280
     1
  1
DWGPROPS COOKIE
  2

  3

  4

  6

  7

  8

  9

300
AmdtFileType=84
301
=
302
=
303
=
304
=
305
=
306
=
307
=
308
=
309
=
 40
0.9688906481481481
 41
2452243.440373877
 42
2455342.654609526
  1

 90
        1
  0
DICTIONARY
  5
FB22
102
{ACAD_REACTORS
330
FB21
102
}
330
FB21
100
AcDbDictionary
281
     1
  0
DICTIONARY
  5
F7E3
102
{ACAD_REACTORS
330
3
102
}
330
3
100
AcDbDictionary
281
     1
  3
*A1
350
F7E4
  0
XRECORD
  5
FA06
102
{ACAD_REACTORS
330
3
102
}
330
3
100
AcDbXrecord
280
     1
340
2
  0
XRECORD
  5
FA16
102
{ACAD_REACTORS
330
F744
102
}
330
F744
100
AcDbXrecord
280
     1
340
BBB
  0
XRECORD
  5
FA0B
102
{ACAD_REACTORS
330
F746
102
}
330
F746
100
AcDbXrecord
280
     1
340
D
  0
SORTENTSTABLE
  5
FE3B
102
{ACAD_REACTORS
330
FE3A
102
}
330
FE3A
100
AcDbSortentsTable
330
FE39
  0
SORTENTSTABLE
  5
FE43
102
{ACAD_REACTORS
330
FE42
102
}
330
FE42
100
AcDbSortentsTable
330
FE41
  0
XRECORD
  5
FEF0
102
{ACAD_REACTORS
330
FEEF
102
}
330
FEEF
100
AcDbXrecord
280
     1
102
SHADEPLOT
 70
     0
  0
XRECORD
  5
FEF4
102
{ACAD_REACTORS
330
FEF3
102
}
330
FEF3
100
AcDbXrecord
280
     1
102
SHADEPLOT
 70
     0
  0
XRECORD
  5
FEF6
102
{ACAD_REACTORS
330
FEF5
102
}
330
FEF5
100
AcDbXrecord
280
     1
102
SHADEPLOT
 70
     0
  0
LAYOUT
  5
BBC
102
{ACAD_XDICTIONARY
360
FEF1
102
}
102
{ACAD_REACTORS
330
C
102
}
330
C
100
AcDbPlotSettings
  1

  2
自動 RD 上的 Epson Stylus Photo 750 單色
  4
A4
  6

 40
3.757083177566528
 41
14.7637300491333
 42
3.757080078125
 43
3.757080078125
 44
209.9733276367187
 45
296.9683227539062
 46
0.0
 47
0.0
 48
0.0
 49
0.0
140
0.0
141
0.0
142
1.0
143
1.0
 70
   688
 72
     1
 73
     1
 74
     5
  7

 75
    16
147
1.0
148
0.0
149
0.0
100
AcDbLayout
  1
Layout1
 70
     1
 71
     2
 10
-3.757080078125
 20
-3.757083177566528
 11
293.2112426757813
 21
206.2162444591522
 12
0.0
 22
0.0
 32
0.0
 14
27.8447512626648
 24
20.24591643810271
 34
0.0
 15
250.6027613639831
 25
182.2132479429245
 35
0.0
146
0.0
 13
0.0
 23
0.0
 33
0.0
 16
1.0
 26
0.0
 36
0.0
 17
0.0
 27
1.0
 37
0.0
 76
     0
330
BBB
331
D953
  0
LAYOUT
  5
10
102
{ACAD_XDICTIONARY
360
FEED
102
}
102
{ACAD_REACTORS
330
C
102
}
330
C
100
AcDbPlotSettings
  1

  2
自動 RD 上的 Epson Stylus Photo 750 單色
  4
A4
  6

 40
3.757083177566528
 41
14.7637300491333
 42
3.757080078125
 43
3.757080078125
 44
209.9733276367187
 45
296.9683227539062
 46
0.0
 47
0.0
 48
0.0
 49
0.0
140
0.0
141
0.0
142
1.0
143
1.0
 70
   688
 72
     1
 73
     1
 74
     5
  7

 75
    16
147
1.0
148
0.0
149
0.0
100
AcDbLayout
  1
Layout2
 70
     1
 71
     1
 10
-3.757080078125
 20
-3.757083177566528
 11
293.2112426757813
 21
206.2162444591522
 12
0.0
 22
0.0
 32
0.0
 14
1.000000000000000E+20
 24
1.000000000000000E+20
 34
1.000000000000000E+20
 15
-1.000000000000000E+20
 25
-1.000000000000000E+20
 35
-1.000000000000000E+20
146
0.0
 13
0.0
 23
0.0
 33
0.0
 16
1.0
 26
0.0
 36
0.0
 17
0.0
 27
1.0
 37
0.0
 76
     0
330
D
331
640
  0
LAYOUT
  5
B
102
{ACAD_XDICTIONARY
360
FEEB
102
}
102
{ACAD_REACTORS
330
C
102
}
330
C
100
AcDbPlotSettings
  1

  2
DWF eView (optimized for viewing).pc3
  4
ISO_A3_(297.00_x_420.00_MM)
  6

 40
5.793749809265136
 41
17.79375076293945
 42
5.79376220703125
 43
17.79376220703125
 44
297.0
 45
420.0
 46
4.064
 47
0.0
 48
0.0
 49
0.0
140
0.0
141
0.0
142
1.0
143
1.115436035891562
 70
 11924
 72
     0
 73
     1
 74
     1
  7

 75
     0
147
0.8965103939830175
148
-28997.26493976938
149
-19771.91199190387
100
AcDbLayout
  1
Model
 70
     1
 71
     0
 10
0.0
 20
0.0
 11
12.0
 21
9.0
 12
0.0
 22
0.0
 32
0.0
 14
0.0
 24
0.0
 34
0.0
 15
0.0
 25
0.0
 35
0.0
146
0.0
 13
0.0
 23
0.0
 33
0.0
 16
1.0
 26
0.0
 36
0.0
 17
0.0
 27
1.0
 37
0.0
 76
     0
330
2
  0
MLINESTYLE
  5
28
102
{ACAD_REACTORS
330
25
102
}
330
25
100
AcDbMlineStyle
  2
STANDARD
 70
     0
  3

 62
     0
 51
90.0
 52
90.0
 71
     2
 49
0.5
 62
   256
  6
BYLAYER
 49
-0.5
 62
   256
  6
BYLAYER
  0
ACDBPLACEHOLDER
  5
6
102
{ACAD_REACTORS
330
7
102
}
330
7
  0
TABLESTYLE
  5
FA33
102
{ACAD_REACTORS
330
FA32
102
}
330
FA32
100
AcDbTableStyle
  3
Standard
 70
     0
 71
     0
 40
1.5
 41
1.5
280
     0
281
     0
  7
STANDARD
140
4.5
170
     2
 62
     0
 63
     7
283
     0
274
    -2
284
     1
 64
     0
275
    -2
285
     1
 65
     0
276
    -2
286
     1
 66
     0
277
    -2
287
     1
 67
     0
278
    -2
288
     1
 68
     0
279
    -2
289
     1
 69
     0
  7
STANDARD
140
6.0
170
     5
 62
     0
 63
     7
283
     0
274
    -2
284
     1
 64
     0
275
    -2
285
     1
 65
     0
276
    -2
286
     1
 66
     0
277
    -2
287
     1
 67
     0
278
    -2
288
     1
 68
     0
279
    -2
289
     1
 69
     0
  7
STANDARD
140
4.5
170
     5
 62
     0
 63
     7
283
     0
274
    -2
284
     1
 64
     0
275
    -2
285
     1
 65
     0
276
    -2
286
     1
 66
     0
277
    -2
287
     1
 67
     0
278
    -2
288
     1
 68
     0
279
    -2
289
     1
 69
     0
  0
DICTIONARYVAR
  5
FD94
102
{ACAD_REACTORS
330
1F1
102
}
330
1F1
100
DictionaryVariables
280
     0
  1
STANDARD
  0
DICTIONARYVAR
  5
1F3
102
{ACAD_REACTORS
330
1F1
102
}
330
1F1
100
DictionaryVariables
280
     0
  1
1
  0
DICTIONARYVAR
  5
1F2
102
{ACAD_REACTORS
330
1F1
102
}
330
1F1
100
DictionaryVariables
280
     0
  1
1
  0
DICTIONARYVAR
  5
F84A
102
{ACAD_REACTORS
330
1F1
102
}
330
1F1
100
DictionaryVariables
280
     0
  1
1
  0
DICTIONARYVAR
  5
FEE7
102
{ACAD_REACTORS
330
1F1
102
}
330
1F1
100
DictionaryVariables
280
     0
  1

  0
DICTIONARY
  5
F7AC
102
{ACAD_REACTORS
330
F7A6
102
}
330
F7A6
100
AcDbDictionary
281
     1
  0
XRECORD
  5
FB0F
102
{ACAD_REACTORS
330
F7A6
102
}
330
F7A6
100
AcDbXrecord
280
     1
 90
-1023410169
  0
DICTIONARY
  5
F78D
102
{ACAD_REACTORS
330
F78C
102
}
330
F78C
100
AcDbDictionary
281
     1
  3
DWGSETTINGS
350
FA3D
  3
TRANSSETTINGS
350
FA41
  0
LAYER_INDEX
  5
F7E4
102
{ACAD_REACTORS
330
F7E3
102
}
330
F7E3
100
AcDbIndex
 40
2455342.654609526
100
AcDbLayerIndex
  8
0
360
F7E5
 90
        7
  8
AM_VIS
360
F7E6
 90
      443
  8
AM_7
360
F7E7
 90
       96
  8
AM_4
360
F7E8
 90
       31
  8
DIM
360
F7E9
 90
      120
  8
Defpoints
360
F7EA
 90
        0
  8
LOGO
360
F7EB
 90
      131
  8
AM_HID
360
F7EC
 90
      202
  8
SL
360
FED8
 90
        1
  0
DICTIONARY
  5
FEF1
330
BBC
100
AcDbDictionary
280
     1
281
     1
  3
ACAD_XREC_ROUNDTRIP
360
FEF2
  0
DICTIONARY
  5
FEED
330
10
100
AcDbDictionary
280
     1
281
     1
  3
ACAD_XREC_ROUNDTRIP
360
FEEE
  0
DICTIONARY
  5
FEEB
330
B
100
AcDbDictionary
280
     1
281
     1
  3
ACAD_XREC_ROUNDTRIP
360
FEEC
  0
IDBUFFER
  5
F7E5
330
0
100
AcDbIdBuffer
330
FE55
330
FE56
330
FEE3
330
FEE4
330
FC5A
330
FC5B
330
FC5C
  0
IDBUFFER
  5
F7E6
330
0
100
AcDbIdBuffer
330
BB32
330
BB35
330
BBB0
330
BBB1
330
BBB2
330
BBB3
330
BBB4
330
BBB5
330
BBB6
330
BBB7
330
BBB8
330
BBB9
330
BBBA
330
BBBB
330
BBBD
330
BBBE
330
BBBF
330
BBC0
330
BBC1
330
BBC2
330
BBC5
330
BBC7
330
BBC9
330
BBCB
330
BBCD
330
BBCF
330
BBD1
330
BBD3
330
BBD4
330
BBD5
330
BBD6
330
BBD7
330
BBD8
330
BBD9
330
BBDA
330
BBDB
330
BBDC
330
BBDD
330
BBDE
330
BBE0
330
BBE1
330
BBE2
330
BBE3
330
BBE4
330
BBE5
330
BBE8
330
BBEA
330
BBEC
330
BBEE
330
BBF0
330
BBF2
330
BBF4
330
BBF6
330
BBF7
330
BBF8
330
BBF9
330
BBFA
330
BBFB
330
BBFC
330
BBFD
330
BBFE
330
BBFF
330
BC00
330
BC01
330
BC02
330
BC05
330
BC06
330
BC09
330
BC0B
330
BC0C
330
BC0F
330
BC10
330
BC12
330
BC15
330
BC16
330
BC19
330
BC1A
330
BC1B
330
BC1C
330
BC1D
330
BC1E
330
BC1F
330
BC26
330
BC27
330
BC28
330
BC29
330
BC2A
330
BC2B
330
BC2C
330
BC2D
330
BC2E
330
BC2F
330
BC30
330
BC31
330
BC32
330
BC33
330
BC34
330
BC37
330
BC38
330
BC3B
330
BC3D
330
BC3E
330
BC41
330
BC42
330
BC44
330
BC47
330
BC48
330
BC4B
330
BC4C
330
BC4D
330
BC4E
330
BC4F
330
BC50
330
BC51
330
BC58
330
BC59
330
BC84
330
BC85
330
BC86
330
BC87
330
BC88
330
BC89
330
BC8A
330
BC8B
330
BC8C
330
BC8D
330
BC94
330
BC95
330
BC96
330
BC97
330
BC9C
330
BC9D
330
BC9E
330
BC9F
330
BCA2
330
BCA3
330
BCBB
330
BCBC
330
BCCB
330
BCCC
330
BCF5
330
BCF6
330
BD5C
330
BD5D
330
BD5E
330
BD5F
330
BD60
330
BD61
330
BD62
330
BD63
330
BD64
330
BD66
330
BD67
330
BD69
330
BD6E
330
BD71
330
BD78
330
BD79
330
BD7A
330
BD7B
330
BD7C
330
BD7D
330
BD80
330
BD83
330
BD84
330
BD85
330
BD86
330
BDB3
330
BDB4
330
BE75
330
BE78
330
BF0B
330
BF0C
330
BF0D
330
BF0E
330
BF0F
330
BF10
330
BF11
330
BF12
330
BF13
330
BF14
330
BF15
330
BF16
330
BF17
330
BF18
330
BF19
330
BF1A
330
BF1B
330
BF1C
330
BF1D
330
BF1E
330
BF1F
330
BF20
330
BF21
330
BF22
330
BF23
330
BF24
330
BF25
330
BF26
330
BF27
330
BF28
330
BF29
330
BF2A
330
BF2B
330
BF2C
330
BF2D
330
BF2E
330
BF2F
330
BF30
330
BF31
330
BF32
330
BF33
330
BF34
330
BF35
330
BF36
330
BF37
330
BF38
330
BF39
330
BF3A
330
BF3B
330
BF3C
330
BF3D
330
BF3E
330
BF3F
330
BF40
330
BF41
330
BF42
330
BF43
330
BF44
330
BF45
330
BF46
330
BF47
330
BF48
330
BF49
330
BF4A
330
BF4B
330
BF55
330
BF80
330
BF81
330
BF82
330
BF83
330
BF84
330
BF85
330
BF86
330
BF87
330
BF88
330
BF89
330
BF8A
330
BF8B
330
BF8C
330
BF8D
330
BF8E
330
BF8F
330
BF90
330
BF91
330
BF92
330
BF93
330
BF94
330
BF95
330
BF96
330
BF97
330
BF98
330
BF99
330
BF9A
330
BF9B
330
BF9C
330
BF9D
330
BF9E
330
BF9F
330
BFA0
330
BFA1
330
BFA2
330
BFA3
330
BFA4
330
BFA5
330
BFA6
330
BFA7
330
BFB8
330
BFBA
330
BFBC
330
BFBE
330
BFC0
330
BFC2
330
BFC6
330
BFC7
330
BFC8
330
BFC9
330
BFCA
330
BFCB
330
BFCC
330
BFCD
330
BFCE
330
BFCF
330
BFD0
330
BFD1
330
BFD2
330
BFD3
330
BFD4
330
BFD5
330
BFD6
330
BFD7
330
BFD8
330
BFD9
330
BFDA
330
BFDB
330
BFDC
330
BFDD
330
BFDE
330
BFDF
330
BFE0
330
BFE1
330
BFE2
330
BFE3
330
BFE4
330
BFE5
330
BFE6
330
BFE7
330
C000
330
C004
330
C008
330
C00C
330
C0F0
330
C0F1
330
C10B
330
C10C
330
C10D
330
C10E
330
C10F
330
C110
330
C111
330
C112
330
C113
330
C114
330
C115
330
C116
330
C11F
330
C120
330
C121
330
C122
330
C123
330
C124
330
C125
330
C126
330
C127
330
C128
330
C129
330
C12A
330
C12B
330
C12C
330
C12D
330
C12E
330
C12F
330
C130
330
C131
330
C132
330
C133
330
C13C
330
C13D
330
C13E
330
C13F
330
C140
330
C141
330
C142
330
C143
330
C144
330
C145
330
C146
330
C147
330
C148
330
C149
330
C14A
330
C14B
330
C14C
330
C14D
330
C14E
330
C14F
330
C150
330
C159
330
C15A
330
C15B
330
C15C
330
C15D
330
C15E
330
C15F
330
C160
330
C161
330
C162
330
C163
330
C164
330
C165
330
C166
330
C167
330
C168
330
C169
330
C16A
330
C16B
330
C16C
330
C16D
330
C176
330
C177
330
C178
330
C179
330
C17A
330
C17B
330
C17C
330
C17D
330
C17E
330
C182
330
C186
330
C18A
330
C18E
330
C203
330
C204
330
C205
330
C206
330
C207
330
C208
330
C20A
330
C20B
330
C21A
330
C21B
330
C21C
330
C21D
330
C21F
330
C220
330
C221
330
C222
330
C229
330
C244
330
C245
330
C258
330
C259
330
C286
330
C287
330
C288
330
C2A2
330
C2A3
330
C2A4
330
C2B2
330
C2B9
330
C2C3
330
C2C4
330
C2C5
  0
IDBUFFER
  5
F7E7
330
0
100
AcDbIdBuffer
330
4695
330
46DE
330
46DF
330
46E0
330
46E1
330
46E2
330
46E3
330
46E4
330
46E5
330
46E6
330
46E7
330
46E8
330
46E9
330
46EA
330
46EB
330
46EC
330
46ED
330
46EE
330
46EF
330
46F0
330
46F1
330
46F2
330
46F3
330
46F4
330
46F5
330
46F6
330
46F7
330
46F8
330
46F9
330
46FA
330
46FB
330
BE80
330
BE81
330
BE82
330
BE83
330
BE84
330
BE85
330
BE86
330
BE87
330
BE8A
330
BE8B
330
BE8C
330
BE8D
330
BE8E
330
BE8F
330
BE90
330
BE91
330
BE92
330
BE93
330
BE94
330
BE95
330
BE96
330
BE97
330
BE98
330
BE99
330
BE9A
330
BE9B
330
BE9C
330
BE9D
330
BE9E
330
BE9F
330
BEA0
330
BEA1
330
BEA2
330
BEA3
330
BEA5
330
BEA8
330
BEA9
330
BEAA
330
BEAC
330
BEAD
330
BEB0
330
BEB1
330
BEB2
330
BEB3
330
BEB4
330
BEB5
330
BED0
330
BED1
330
BED2
330
BED4
330
BED5
330
BED6
330
BED7
330
BED8
330
BED9
330
BEDA
330
BEDB
330
BEDC
330
BEDD
330
BEDE
330
BEDF
330
BEE0
330
BEE1
330
BEE2
330
BEE3
  0
IDBUFFER
  5
F7E8
330
0
100
AcDbIdBuffer
330
BEBC
330
BEBD
330
BEBE
330
BEBF
330
BEC0
330
BEC1
330
BECB
330
BECC
330
BECD
330
BECE
330
BEE5
330
BEE6
330
BEE7
330
BEE8
330
BEE9
330
BEEA
330
BEEB
330
BEEC
330
BEED
330
BEEE
330
BEEF
330
BEF1
330
BEF2
330
BEFD
330
BEFE
330
BF01
330
BF02
330
BF07
330
BF08
330
BF09
330
BF0A
  0
IDBUFFER
  5
F7E9
330
0
100
AcDbIdBuffer
330
57F
330
9C8
330
9CE
330
9D0
330
9D4
330
158C
330
158F
330
1591
330
1598
330
159A
330
159D
330
159F
330
15A2
330
1ECC
330
1ECE
330
1ED0
330
1ED2
330
1ED4
330
5255
330
55B3
330
55B5
330
55B7
330
55B9
330
55BB
330
55BE
330
5818
330
581A
330
581C
330
581E
330
5820
330
5823
330
5825
330
5BAB
330
5BAD
330
5BAF
330
5BB1
330
5BB3
330
5BB5
330
5D19
330
5D1B
330
5D1D
330
5D1F
330
5D21
330
5D24
330
5E8E
330
5E90
330
5E92
330
5E94
330
5E96
330
5E99
330
5FD8
330
5FDA
330
5FDC
330
5FDE
330
5FE0
330
DC7D
330
DC7F
330
DC81
330
DC93
330
DC96
330
DC99
330
DC9C
330
DEE9
330
DEEB
330
DEEF
330
DEF1
330
DEF3
330
DEF5
330
E074
330
E076
330
E078
330
E07A
330
E07C
330
E07E
330
E38C
330
E38E
330
E390
330
E392
330
E394
330
E396
330
E397
330
E398
330
E399
330
E39A
330
E39B
330
E39C
330
E39D
330
E39E
330
E39F
330
E3AC
330
E3B9
330
E3C6
330
E3D3
330
E3E0
330
E3EE
330
E3FB
330
E408
330
E416
330
E431
330
E43E
330
E462
330
E4E1
330
E4FC
330
E516
330
E543
330
E550
330
E55D
330
E56A
330
E5B9
330
E5BA
330
E5BB
330
E5BC
330
E5BD
330
E5BE
330
E5BF
330
E5C0
330
E5C1
330
E5C2
330
E5C3
330
E5C4
  0
IDBUFFER
  5
F7EA
330
0
100
AcDbIdBuffer
  0
IDBUFFER
  5
F7EB
330
0
100
AcDbIdBuffer
330
FC51
330
FC52
330
FC53
330
FC54
330
FC55
330
FC56
330
FC57
330
FC58
330
FC59
330
2415
330
FBC3
330
FBC4
330
FBC5
330
FBC6
330
FBC7
330
FBC8
330
FBC9
330
FBCA
330
FBCB
330
FBCC
330
FBCD
330
FBCE
330
FBCF
330
FBD0
330
FBD1
330
FBD2
330
FBD3
330
FBD4
330
FBD5
330
FBD6
330
FBD7
330
FBD8
330
FBD9
330
FBDA
330
FBDE
330
FBE2
330
FBE3
330
FBE7
330
FBE8
330
FBE9
330
FBEA
330
FBEB
330
FBEC
330
FBED
330
FBEE
330
FBF2
330
FBF6
330
FBFA
330
FBFB
330
FBFC
330
FC00
330
FC01
330
FC02
330
FC03
330
FC04
330
FC05
330
FC06
330
FC07
330
FC08
330
FC09
330
FC0A
330
FC0B
330
FC0C
330
FC0D
330
FC0E
330
FC0F
330
FC10
330
FC11
330
FC12
330
FC13
330
FC14
330
FC15
330
FC16
330
FC17
330
FC18
330
FC19
330
FC1A
330
FC1B
330
FC1C
330
FC1D
330
FC1E
330
FC1F
330
FC20
330
FC21
330
FC22
330
FC23
330
FC24
330
FC25
330
FC26
330
FC27
330
FC28
330
FC29
330
FC2A
330
FC2B
330
FC2C
330
FC2D
330
FC2E
330
FC2F
330
FC30
330
FC31
330
FC32
330
FC33
330
FC34
330
FC35
330
FC36
330
FC37
330
FC38
330
FC39
330
FC3A
330
FC3B
330
FC3C
330
FC3D
330
FC3E
330
FC3F
330
FC40
330
FC41
330
FC42
330
FC43
330
FC44
330
FC45
330
FC46
330
FC47
330
FC48
330
FC49
330
FC4A
330
FC4B
330
FC4C
330
FC4D
330
FC4E
330
FC4F
330
FC50
  0
IDBUFFER
  5
F7EC
330
0
100
AcDbIdBuffer
330
BB25
330
BB26
330
BB27
330
BB28
330
BB29
330
BB2A
330
BB2B
330
BB2C
330
BB2D
330
BB2E
330
BB2F
330
BB30
330
BB31
330
BB33
330
BB34
330
BB36
330
BB37
330
BB38
330
BB39
330
BB3A
330
BB3B
330
BB3C
330
BB3D
330
BB3E
330
BB3F
330
BB40
330
BB41
330
BB42
330
BB43
330
BB44
330
BB45
330
BB46
330
BCA8
330
BCA9
330
BCAA
330
BCAB
330
BCAC
330
BCAD
330
BCAE
330
BCAF
330
BCB0
330
BCB1
330
BCCF
330
BCD0
330
BCD1
330
BCD2
330
BCDD
330
BCDE
330
BCDF
330
BCE0
330
BCE1
330
BCE2
330
BCE3
330
BCE4
330
BCEF
330
BCF0
330
BD05
330
BDE4
330
BDE5
330
BDE6
330
BDE7
330
BDE8
330
BDE9
330
BDEA
330
BDEB
330
BDEC
330
BDED
330
BDEE
330
BDEF
330
BDF0
330
BDF1
330
BDF2
330
BDF3
330
BDF4
330
BDF5
330
BDF6
330
BDF7
330
BDF8
330
BDF9
330
BDFA
330
BDFB
330
BDFC
330
BDFD
330
BDFE
330
BDFF
330
BE00
330
BE01
330
BE02
330
BE03
330
BE04
330
BE05
330
BE06
330
BE07
330
BE08
330
BE09
330
BE0A
330
BE0B
330
BE0C
330
BE0D
330
BE0E
330
BE0F
330
BE3C
330
BE3D
330
BE3E
330
BE3F
330
BE40
330
BE41
330
BE42
330
BE43
330
BE44
330
BE45
330
BE46
330
BE47
330
BE48
330
BE49
330
BE4A
330
BE4B
330
BE4C
330
BE4D
330
BE4E
330
BE4F
330
BE50
330
BE51
330
BE52
330
BE53
330
BE54
330
BE55
330
BE56
330
BE57
330
BE58
330
BE59
330
BE5A
330
BE5B
330
BE5C
330
BE5D
330
BE5E
330
BE5F
330
BE60
330
BE61
330
BE62
330
BE63
330
BE64
330
BE65
330
BE66
330
BE67
330
BF5C
330
BF5D
330
BF5E
330
BF5F
330
BF60
330
BF61
330
BF62
330
BF63
330
BF64
330
BF65
330
BF66
330
BF67
330
BFA8
330
BFA9
330
BFAA
330
BFAB
330
BFAC
330
BFAD
330
BFAE
330
BFAF
330
C053
330
C055
330
C05B
330
C05D
330
C077
330
C078
330
C07A
330
C07D
330
C22F
330
C230
330
C231
330
C232
330
C235
330
C236
330
C237
330
C238
330
C239
330
C23A
330
C25C
330
C25D
330
C25E
330
C25F
330
C266
330
C267
330
C268
330
C269
330
C26A
330
C26B
330
C26F
330
C270
330
C271
330
C280
330
C281
330
C29A
330
C29B
330
C29C
330
C29D
  0
IDBUFFER
  5
FED8
330
0
100
AcDbIdBuffer
330
FE54
  0
XRECORD
  5
FEF2
102
{ACAD_REACTORS
330
FEF1
102
}
330
FEF1
100
AcDbXrecord
280
     1
102
SHADEPLOT
 70
     0
102
SHADEPLOTRESLEVEL
 70
     2
102
SHADEPLOTCUSTOMDPI
 70
   300
  0
XRECORD
  5
FEEE
102
{ACAD_REACTORS
330
FEED
102
}
330
FEED
100
AcDbXrecord
280
     1
102
SHADEPLOT
 70
     0
102
SHADEPLOTRESLEVEL
 70
     2
102
SHADEPLOTCUSTOMDPI
 70
   300
  0
XRECORD
  5
FEEC
102
{ACAD_REACTORS
330
FEEB
102
}
330
FEEB
100
AcDbXrecord
280
     1
102
SHADEPLOT
 70
     0
102
SHADEPLOTRESLEVEL
 70
     2
102
SHADEPLOTCUSTOMDPI
 70
   300
  0
ENDSEC
  0
EOF
