  0
SECTION
  2
HEADER
  9
$ACADVER
  1
AC1012
  9
$DWGCODEPAGE
  3
big5
  9
$INSBASE
 10
0.0
 20
0.0
 30
0.0
  9
$EXTMIN
 10
9.454342871909327
 20
-41.47920250899574
 30
0.0
  9
$EXTMAX
 10
392.3465185689726
 20
339.2808219178084
 30
0.0
  9
$LIMMIN
 10
0.0
 20
0.0
  9
$LIMMAX
 10
594.0
 20
420.0
  9
$ORTHOMODE
 70
     0
  9
$REGENMODE
 70
     1
  9
$FILLMODE
 70
     1
  9
$QTEXTMODE
 70
     0
  9
$MIRRTEXT
 70
     1
  9
$DRAGMODE
 70
     2
  9
$LTSCALE
 40
6.0
  9
$OSMODE
 70
    37
  9
$ATTMODE
 70
     1
  9
$TEXTSIZE
 40
4.0
  9
$TRACEWID
 40
0.05
  9
$TEXTSTYLE
  7
CHINESET
  9
$CLAYER
  8
0
  9
$CELTYPE
  6
BYLAYER
  9
$CECOLOR
 62
   256
  9
$CELTSCALE
 40
1.0
  9
$DELOBJ
 70
     1
  9
$DISPSILH
 70
     0
  9
$DIMSCALE
 40
1.0
  9
$DIMASZ
 40
3.0
  9
$DIMEXO
 40
2.0
  9
$DIMDLI
 40
8.0
  9
$DIMRND
 40
0.0
  9
$DIMDLE
 40
0.0
  9
$DIMEXE
 40
2.0
  9
$DIMTP
 40
0.0
  9
$DIMTM
 40
0.0
  9
$DIMTXT
 40
3.0
  9
$DIMCEN
 40
-1.0
  9
$DIMTSZ
 40
0.0
  9
$DIMTOL
 70
     0
  9
$DIMLIM
 70
     0
  9
$DIMTIH
 70
     0
  9
$DIMTOH
 70
     0
  9
$DIMSE1
 70
     0
  9
$DIMSE2
 70
     0
  9
$DIMTAD
 70
     1
  9
$DIMZIN
 70
     8
  9
$DIMBLK
  1

  9
$DIMASO
 70
     1
  9
$DIMSHO
 70
     1
  9
$DIMPOST
  1

  9
$DIMAPOST
  1

  9
$DIMALT
 70
     0
  9
$DIMALTD
 70
     2
  9
$DIMALTF
 40
25.4
  9
$DIMLFAC
 40
1.0
  9
$DIMTOFL
 70
     0
  9
$DIMTVP
 40
0.0
  9
$DIMTIX
 70
     0
  9
$DIMSOXD
 70
     0
  9
$DIMSAH
 70
     0
  9
$DIMBLK1
  1

  9
$DIMBLK2
  1

  9
$DIMSTYLE
  2
STANDARD
  9
$DIMCLRD
 70
     5
  9
$DIMCLRE
 70
     5
  9
$DIMCLRT
 70
     5
  9
$DIMTFAC
 40
1.0
  9
$DIMGAP
 40
1.5
  9
$DIMJUST
 70
     0
  9
$DIMSD1
 70
     0
  9
$DIMSD2
 70
     0
  9
$DIMTOLJ
 70
     1
  9
$DIMTZIN
 70
     8
  9
$DIMALTZ
 70
     8
  9
$DIMALTTZ
 70
     8
  9
$DIMFIT
 70
     5
  9
$DIMUPT
 70
     0
  9
$DIMUNIT
 70
     2
  9
$DIMDEC
 70
     4
  9
$DIMTDEC
 70
     4
  9
$DIMALTU
 70
     2
  9
$DIMALTTD
 70
     2
  9
$DIMTXSTY
  7
STANDARD
  9
$DIMAUNIT
 70
     0
  9
$LUNITS
 70
     2
  9
$LUPREC
 70
     4
  9
$SKETCHINC
 40
0.1
  9
$FILLETRAD
 40
3.0
  9
$AUNITS
 70
     0
  9
$AUPREC
 70
     0
  9
$MENU
  1
acad
  9
$ELEVATION
 40
0.0
  9
$PELEVATION
 40
0.0
  9
$THICKNESS
 40
0.0
  9
$LIMCHECK
 70
     0
  9
$BLIPMODE
 70
     0
  9
$CHAMFERA
 40
0.0
  9
$CHAMFERB
 40
0.0
  9
$CHAMFERC
 40
0.0
  9
$CHAMFERD
 40
0.0
  9
$SKPOLY
 70
     0
  9
$TDCREATE
 40
2451089.397938970
  9
$TDUPDATE
 40
2453057.546009838
  9
$TDINDWG
 40
0.0539715046
  9
$TDUSRTIMER
 40
0.0539715046
  9
$USRTIMER
 70
     1
  9
$ANGBASE
 50
0.0
  9
$ANGDIR
 70
     0
  9
$PDMODE
 70
     0
  9
$PDSIZE
 40
0.0
  9
$PLINEWID
 40
0.0
  9
$COORDS
 70
     1
  9
$SPLFRAME
 70
     0
  9
$SPLINETYPE
 70
     6
  9
$SPLINESEGS
 70
     8
  9
$ATTDIA
 70
     1
  9
$ATTREQ
 70
     1
  9
$HANDLING
 70
 22529
  9
$HANDSEED
  5
26DD
  9
$SURFTAB1
 70
     6
  9
$SURFTAB2
 70
     6
  9
$SURFTYPE
 70
     6
  9
$SURFU
 70
     6
  9
$SURFV
 70
     6
  9
$UCSNAME
  2

  9
$UCSORG
 10
0.0
 20
0.0
 30
0.0
  9
$UCSXDIR
 10
1.0
 20
0.0
 30
0.0
  9
$UCSYDIR
 10
0.0
 20
1.0
 30
0.0
  9
$PUCSNAME
  2

  9
$PUCSORG
 10
0.0
 20
0.0
 30
0.0
  9
$PUCSXDIR
 10
1.0
 20
0.0
 30
0.0
  9
$PUCSYDIR
 10
0.0
 20
1.0
 30
0.0
  9
$USERI1
 70
     0
  9
$USERI2
 70
     0
  9
$USERI3
 70
     0
  9
$USERI4
 70
     0
  9
$USERI5
 70
     0
  9
$USERR1
 40
0.0
  9
$USERR2
 40
0.0
  9
$USERR3
 40
0.0
  9
$USERR4
 40
0.0
  9
$USERR5
 40
0.0
  9
$WORLDVIEW
 70
     1
  9
$SHADEDGE
 70
     3
  9
$SHADEDIF
 70
    70
  9
$TILEMODE
 70
     1
  9
$MAXACTVP
 70
    16
  9
$PINSBASE
 10
0.0
 20
0.0
 30
0.0
  9
$PLIMCHECK
 70
     0
  9
$PEXTMIN
 10
1.000000000000000E+20
 20
1.000000000000000E+20
 30
1.000000000000000E+20
  9
$PEXTMAX
 10
-1.000000000000000E+20
 20
-1.000000000000000E+20
 30
-1.000000000000000E+20
  9
$PLIMMIN
 10
0.0
 20
0.0
  9
$PLIMMAX
 10
12.0
 20
9.0
  9
$UNITMODE
 70
     0
  9
$VISRETAIN
 70
     0
  9
$PLINEGEN
 70
     0
  9
$PSLTSCALE
 70
     1
  9
$TREEDEPTH
 70
  3020
  9
$PICKSTYLE
 70
     1
  9
$CMLSTYLE
  2
STANDARD
  9
$CMLJUST
 70
     0
  9
$CMLSCALE
 40
1.0
  9
$SAVEIMAGES
 70
     1
  0
ENDSEC
  0
SECTION
  2
CLASSES
  0
CLASS
  1
ACDBDICTIONARYWDFLT
  2
AcDbDictionaryWithDefault
  3
AutoCAD 2000
 90
    32768
280
     0
281
     0
  0
CLASS
  1
ACDBPLACEHOLDER
  2
AcDbPlaceHolder
  3
AutoCAD 2000
 90
    32768
280
     0
281
     0
  0
CLASS
  1
LAYOUT
  2
AcDbLayout
  3
AutoCAD 2000
 90
    32768
280
     0
281
     0
  0
CLASS
  1
LONG_TRANSACTION
  2
AcDbLongTransaction
  3
AutoCAD 2000
 90
    32768
280
     0
281
     0
  0
CLASS
  1
LWPOLYLINE
  2
AcDbPolyline
  3
AutoCAD 2000
 90
    32768
280
     0
281
     1
  0
CLASS
  1
HATCH
  2
AcDbHatch
  3
AutoCAD 2000
 90
    32768
280
     0
281
     1
  0
CLASS
  1
XRECORD
  2
AcDbXrecord
  3
AutoCAD 2000
 90
    32768
280
     0
281
     0
  0
CLASS
  1
ACME_DOCUMENT
  2
AcMeDbDoc
  3
AcMeServices
 90
    32768
280
     0
281
     0
  0
CLASS
  1
AMGSETTINGSOBJ
  2
AmgSettingsObj
  3
"AcadM|Product Description: AutoCAD Mechanical 2000|Company: Autodesk"
 90
    32768
280
     0
281
     0
  0
CLASS
  1
ACMESCOPE
  2
AcMeScope
  3
AcMeServices
 90
    32768
280
     0
281
     0
  0
CLASS
  1
ACMECOMMANDHISTORY
  2
AcMeCommandHistory
  3
AcMeServices
 90
    32768
280
     0
281
     0
  0
CLASS
  1
ACIMSYSVARMAN
  2
AcImSysVarManager
  3
AcMeServices
 90
    32768
280
     0
281
     0
  0
CLASS
  1
ACIMREALSYSVAR
  2
AcImRealSysVar
  3
AcMeServices
 90
    32768
280
     0
281
     0
  0
CLASS
  1
ACIMINTSYSVAR
  2
AcImIntSysVar
  3
AcMeServices
 90
    32768
280
     0
281
     0
  0
CLASS
  1
ACMEDRAWINGMAN
  2
AcMeDrawingMan
  3
AcMeServices
 90
    32768
280
     0
281
     0
  0
CLASS
  1
ACMEVIEW
  2
AcMeView
  3
AcMeServices
 90
    32768
280
     0
281
     0
  0
CLASS
  1
ACDBENTITYCACHE
  2
AcMeEntityCache
  3
AcMeServices
 90
    32768
280
     0
281
     0
  0
CLASS
  1
GSMANAGER
  2
AcMeGSManager
  3
AcMeServices
 90
    32768
280
     0
281
     0
  0
CLASS
  1
AMDTINTERNALREACTOR
  2
AmdtInternalReactor
  3
AcMeServices
 90
    32768
280
     0
281
     0
  0
CLASS
  1
ACMESTATEMGR
  2
AcMeStateMgr
  3
AcMeServices
 90
    32768
280
     0
281
     0
  0
CLASS
  1
ACGREFMASTER
  2
AcGrefMaster
  3
AcAttribServices
 90
    32768
280
     0
281
     0
  0
CLASS
  1
ACME_DATABASE
  2
AcMeDbDatabase
  3
AcMeServices
 90
    32768
280
     0
281
     0
  0
CLASS
  1
ACRFINSADJUSTERMGR
  2
AcRfInsAdjusterMgr
  3
AcMeServices
 90
    32768
280
     0
281
     0
  0
CLASS
  1
ACGREFACADMASTER
  2
AcGrefacadMaster
  3
AcGrefServices
 90
    32768
280
     0
281
     0
  0
CLASS
  1
AMIMASTER
  2
AmiMaster
  3
AmiServices
 90
    32768
280
     0
281
     0
  0
CLASS
  1
ACMDATADICTIONARY
  2
AcmDataDictionary
  3
"AcmSymBB|Product Description: AutoCAD Mechanical 2000|Company: Autodesk"
 90
    32768
280
     0
281
     0
  0
CLASS
  1
ACMDATAENTRYBLOCK
  2
AcmDataEntryBlock
  3
"AcmSymBB|Product Description: AutoCAD Mechanical 2000|Company: Autodesk"
 90
    32768
280
     0
281
     0
  0
CLASS
  1
ACIMSTRSYSVAR
  2
AcImStrSysVar
  3
AcMeServices
 90
    32768
280
     0
281
     0
  0
CLASS
  1
ACMSTANDARDANSI
  2
AcmStandardANSI
  3
"Amdt_StdImp|Product Description: AutoCAD Mechanical 2000|Company: Autodesk"
 90
    32768
280
     0
281
     0
  0
CLASS
  1
AMGOBJPROPCFG
  2
AmgObjPropCfg
  3
"AmgLay|Product Description: AutoCAD Mechanical 2000|Company: Autodesk"
 90
    32769
280
     0
281
     0
  0
CLASS
  1
ACMSURFSTANDARDANSI
  2
AcmSurfTextStdANSI
  3
"Amdt_StdImp|Product Description: AutoCAD Mechanical 2000|Company: Autodesk"
 90
    32768
280
     0
281
     0
  0
CLASS
  1
ACMFCFSTANDARDANSI
  2
AcmFCFStdANSI
  3
"Amdt_StdImp|Product Description: AutoCAD Mechanical 2000|Company: Autodesk"
 90
    32768
280
     0
281
     0
  0
CLASS
  1
ACMWELDSTANDARDANSI
  2
AcmWeldingStdANSI
  3
"Amdt_StdImp|Product Description: AutoCAD Mechanical 2000|Company: Autodesk"
 90
    32768
280
     0
281
     0
  0
CLASS
  1
ACMIDSTANDARDANSI
  2
AcmIdStdANSI
  3
"Amdt_StdImp|Product Description: AutoCAD Mechanical 2000|Company: Autodesk"
 90
    32768
280
     0
281
     0
  0
CLASS
  1
ACMDATUMSTANDARDANSI
  2
AcmDatumStdANSI
  3
"Amdt_StdImp|Product Description: AutoCAD Mechanical 2000|Company: Autodesk"
 90
    32768
280
     0
281
     0
  0
CLASS
  1
ACMBOMSTANDARDANSI
  2
AcmBOMStdANSI
  3
"Amdt_StdImp|Product Description: AutoCAD Mechanical 2000|Company: Autodesk"
 90
    32768
280
     0
281
     0
  0
CLASS
  1
ACMDETAILSTANDARDANSI
  2
AmdtDetailSymStdANSI
  3
"Amdt_StdImp|Product Description: AutoCAD Mechanical 2000|Company: Autodesk"
 90
    32768
280
     0
281
     0
  0
CLASS
  1
ACMSECTIONSTANDARDANSI
  2
AmdtSectionSymStdANSI
  3
"Amdt_StdImp|Product Description: AutoCAD Mechanical 2000|Company: Autodesk"
 90
    32768
280
     0
281
     0
  0
CLASS
  1
ACMCENTERLINESTANDARDANSI
  2
AmdtCenterLineStdANSI
  3
"Amdt_StdImp|Product Description: AutoCAD Mechanical 2000|Company: Autodesk"
 90
    32768
280
     0
281
     0
  0
CLASS
  1
ACMNOTESTANDARDANSI
  2
AmdtNoteStdANSI
  3
"Amdt_StdImp|Product Description: AutoCAD Mechanical 2000|Company: Autodesk"
 90
    32768
280
     0
281
     0
  0
CLASS
  1
ACAMGLAYSTD
  2
AcAmgLayStd
  3
"AcAmgLayStd|Product Description: AutoCAD Mechanical 2000|Company: Autodesk"
 90
    32768
280
     0
281
     0
  0
CLASS
  1
ACAMGDIMSTD
  2
AcAmgDimStd
  3
"AcAmgDimStd|Product Description: AutoCAD Mechanical 2000|Company: Autodesk"
 90
    32768
280
     0
281
     0
  0
CLASS
  1
ACAMGHOLECHARTSTDANSI
  2
AcAmgHoleChartStdANSI
  3
ACMSYMBB_MODULE_NAME
 90
    32768
280
     0
281
     0
  0
CLASS
  1
ACAMGTITLESTD
  2
AcAmgTitleStd
  3
"TITLEAPP"
 90
    32768
280
     0
281
     0
  0
CLASS
  1
ACAMGFILTERDAT
  2
AcAmgFilterDat
  3
"AcadM|Product Description: AutoCAD Mechanical 2000|Company: Autodesk"
 90
    32768
280
     0
281
     0
  0
CLASS
  1
LAYER_INDEX
  2
AcDbLayerIndex
  3
AutoCAD 2000
 90
    32768
280
     0
281
     0
  0
CLASS
  1
IDBUFFER
  2
AcDbIdBuffer
  3
AutoCAD 2000
 90
    32768
280
     0
281
     0
  0
CLASS
  1
DICTIONARYVAR
  2
AcDbDictionaryVar
  3
AutoCAD 2000
 90
    32768
280
     0
281
     0
  0
CLASS
  1
LONG_TRANSACTION
  2
AcDbLongTransaction
  3
AutoCAD 2000
 90
    32768
280
     0
281
     0
  0
CLASS
  1
LWPOLYLINE
  2
AcDbPolyline
  3
AutoCAD 2000
 90
    32768
280
     0
281
     1
  0
CLASS
  1
HATCH
  2
AcDbHatch
  3
AutoCAD 2000
 90
    32768
280
     0
281
     1
  0
CLASS
  1
XRECORD
  2
AcDbXrecord
  3
AutoCAD 2000
 90
    32768
280
     0
281
     0
  0
CLASS
  1
LONG_TRANSACTION
  2
AcDbLongTransaction
  3
AutoCAD 2000
 90
    32768
280
     0
281
     0
  0
CLASS
  1
LWPOLYLINE
  2
AcDbPolyline
  3
AutoCAD 2000
 90
    32768
280
     0
281
     1
  0
CLASS
  1
HATCH
  2
AcDbHatch
  3
AutoCAD 2000
 90
    32768
280
     0
281
     1
  0
CLASS
  1
XRECORD
  2
AcDbXrecord
  3
AutoCAD 2000
 90
    32768
280
     0
281
     0
  0
ENDSEC
  0
SECTION
  2
TABLES
  0
TABLE
  2
VPORT
  5
2286
330
0
100
AcDbSymbolTable
 70
     4
  0
VPORT
  5
26DA
330
2286
100
AcDbSymbolTableRecord
100
AcDbViewportTableRecord
  2
*ACTIVE
 70
     0
 10
0.0
 20
0.0
 11
1.0
 21
1.0
 12
212.1010926782477
 22
148.9119989910559
 13
0.0
 23
0.0
 14
1.0
 24
1.0
 15
15.0
 25
15.0
 16
0.0
 26
0.0
 36
1.0
 17
0.0
 27
0.0
 37
0.0
 40
384.8581886103643
 41
1.775280898876404
 42
50.0
 43
0.0
 44
0.0
 50
0.0
 51
0.0
 71
     0
 72
 20000
 73
     1
 74
     1
 75
     0
 76
     0
 77
     0
 78
     0
  0
ENDTAB
  0
TABLE
  2
LTYPE
  5
2283
330
0
100
AcDbSymbolTable
 70
    16
  0
LTYPE
  5
2291
330
2283
100
AcDbSymbolTableRecord
100
AcDbLinetypeTableRecord
  2
BYBLOCK
 70
     0
  3

 72
    65
 73
     0
 40
0.0
  0
LTYPE
  5
2292
330
2283
100
AcDbSymbolTableRecord
100
AcDbLinetypeTableRecord
  2
BYLAYER
 70
     0
  3

 72
    65
 73
     0
 40
0.0
  0
LTYPE
  5
2293
330
2283
100
AcDbSymbolTableRecord
100
AcDbLinetypeTableRecord
  2
CONTINUOUS
 70
     0
  3
Solid line
 72
    65
 73
     0
 40
0.0
  0
LTYPE
  5
22CE
330
2283
100
AcDbSymbolTableRecord
100
AcDbLinetypeTableRecord
  2
CENTER
 70
     0
  3
____ _ ____ _ ____ _ ____ _ ____ _ ____ _ ____ 
 72
    65
 73
     4
 40
2.0
 49
1.25
 74
     0
 49
-0.25
 74
     0
 49
0.25
 74
     0
 49
-0.25
 74
     0
  0
LTYPE
  5
22CF
330
2283
100
AcDbSymbolTableRecord
100
AcDbLinetypeTableRecord
  2
HIDDEN
 70
     0
  3
__ __ __ __ __ __ __ __ __ __ __ __ __ __ __ __
 72
    65
 73
     2
 40
0.375
 49
0.25
 74
     0
 49
-0.125
 74
     0
  0
LTYPE
  5
240A
330
2283
100
AcDbSymbolTableRecord
100
AcDbLinetypeTableRecord
  2
AMCONSTR
 70
     0
  3
_______________________
 72
    65
 73
     2
 40
9999.0
 49
9999.0
 74
     0
 49
0.0
 74
     0
  0
LTYPE
  5
2410
330
2283
100
AcDbSymbolTableRecord
100
AcDbLinetypeTableRecord
  2
PHANTOM2
 70
     0
  3
Phantom (.5x) ___ _ _ ___ _ _ ___ _ _ ___ _ _
 72
    65
 73
     6
 40
1.25
 49
0.625
 74
     0
 49
-0.125
 74
     0
 49
0.125
 74
     0
 49
-0.125
 74
     0
 49
0.125
 74
     0
 49
-0.125
 74
     0
  0
LTYPE
  5
2411
330
2283
100
AcDbSymbolTableRecord
100
AcDbLinetypeTableRecord
  2
CENTER2
 70
     0
  3
Center (.5x) ___ _ ___ _ ___ _ ___ _ ___ _ ___
 72
    65
 73
     4
 40
1.125
 49
0.75
 74
     0
 49
-0.125
 74
     0
 49
0.125
 74
     0
 49
-0.125
 74
     0
  0
LTYPE
  5
2412
330
2283
100
AcDbSymbolTableRecord
100
AcDbLinetypeTableRecord
  2
HIDDEN2
 70
     0
  3
Hidden (.5x) _ _ _ _ _ _ _ _ _ _ _ _ _ _ _ _ _
 72
    65
 73
     2
 40
0.1875
 49
0.125
 74
     0
 49
-0.0625
 74
     0
  0
LTYPE
  5
2413
330
2283
100
AcDbSymbolTableRecord
100
AcDbLinetypeTableRecord
  2
AMZIGZAG2
 70
     0
  3
/\/-/\/-/\/-/\/-/\/-/\/
 72
    65
 73
     2
 40
0.4401
 49
0.0001
 74
     4
 75
   135
340
240E
 46
0.0016
 50
0.0
 44
0.0
 45
0.0
 49
-0.4400000000000001
 74
     0
  0
LTYPE
  5
2420
330
2283
100
AcDbSymbolTableRecord
100
AcDbLinetypeTableRecord
  2
ACANSTGB
 70
     0
  3
__ . . __ . .
 72
    65
 73
     6
 40
0.35433070866
 49
0.15748031496
 74
     0
 49
-0.03937007874
 74
     0
 49
0.03937007874
 74
     0
 49
-0.03937007874
 74
     0
 49
0.03937007874
 74
     0
 49
-0.03937007874
 74
     0
  0
LTYPE
  5
2421
330
2283
100
AcDbSymbolTableRecord
100
AcDbLinetypeTableRecord
  2
ACANSTGL
 70
     0
  3
_ _ _ _ _
 72
    65
 73
     2
 40
0.11811023622
 49
0.07874015748
 74
     0
 49
-0.03937007874
 74
     0
  0
LTYPE
  5
2673
330
2283
100
AcDbSymbolTableRecord
100
AcDbLinetypeTableRecord
  2
AM_ISO02W050
 70
     0
  3
__ __ __ __ __ __ __ __ __ __ __ __ __ __ __
 72
    65
 73
     2
 40
7.5
 49
6.0
 74
     0
 49
-1.5
 74
     0
  0
LTYPE
  5
2674
330
2283
100
AcDbSymbolTableRecord
100
AcDbLinetypeTableRecord
  2
AM_ISO08W050
 70
     0
  3
____ . ____ . ____ . ____ . ____ . ____ . ____
 72
    65
 73
     4
 40
18.0
 49
12.0
 74
     0
 49
-1.5
 74
     0
 49
3.0
 74
     0
 49
-1.5
 74
     0
  0
LTYPE
  5
2675
330
2283
100
AcDbSymbolTableRecord
100
AcDbLinetypeTableRecord
  2
AM_ISO09W050
 70
     0
  3
_____ . . _____ . . _____ . . ____ .. ____
 72
    65
 73
     6
 40
22.5
 49
12.0
 74
     0
 49
-1.5
 74
     0
 49
3.0
 74
     0
 49
-1.5
 74
     0
 49
3.0
 74
     0
 49
-1.5
 74
     0
  0
LTYPE
  5
2676
330
2283
100
AcDbSymbolTableRecord
100
AcDbLinetypeTableRecord
  2
AM_ISO08W050X2
 70
     0
  3
__ . __ . __ . __ . __ . __
 72
    65
 73
     4
 40
9.0
 49
6.0
 74
     0
 49
-0.75
 74
     0
 49
1.5
 74
     0
 49
-0.75
 74
     0
  0
LTYPE
  5
2677
330
2283
100
AcDbSymbolTableRecord
100
AcDbLinetypeTableRecord
  2
AM_ISO02W050X2
 70
     0
  3
 _ _ _ _ _ _ _ _ _ _ _ _
 72
    65
 73
     2
 40
3.75
 49
3.0
 74
     0
 49
-0.75
 74
     0
  0
LTYPE
  5
2678
330
2283
100
AcDbSymbolTableRecord
100
AcDbLinetypeTableRecord
  2
AMZIGZAG
 70
     0
  3
/\/-/\/-/\/-/\/-/\/-/\/
 72
    65
 73
     2
 40
11.00009999999999
 49
0.0001
 74
     4
 75
   135
340
240E
 46
0.04
 50
0.0
 44
0.0
 45
0.0
 49
-11.0
 74
     0
  0
ENDTAB
  0
TABLE
  2
LAYER
  5
2280
330
0
100
AcDbSymbolTable
 70
     6
  0
LAYER
  5
228E
330
2280
100
AcDbSymbolTableRecord
100
AcDbLayerTableRecord
  2
0
 70
     0
 62
     7
  6
CONTINUOUS
  0
LAYER
  5
22D2
330
2280
100
AcDbSymbolTableRecord
100
AcDbLayerTableRecord
  2
DIM
 70
     0
 62
     7
  6
CONTINUOUS
  0
LAYER
  5
22D4
330
2280
100
AcDbSymbolTableRecord
100
AcDbLayerTableRecord
  2
DEFPOINTS
 70
     0
 62
    -7
  6
CONTINUOUS
  0
LAYER
  5
22DE
330
2280
100
AcDbSymbolTableRecord
100
AcDbLayerTableRecord
  2
CENTER
 70
     0
 62
     1
  6
CENTER
  0
LAYER
  5
22E0
330
2280
100
AcDbSymbolTableRecord
100
AcDbLayerTableRecord
  2
LOGO
 70
     0
 62
     7
  6
CONTINUOUS
  0
LAYER
  5
243A
330
2280
100
AcDbSymbolTableRecord
100
AcDbLayerTableRecord
  2
AM_5
 70
     0
 62
     3
  6
CONTINUOUS
  0
ENDTAB
  0
TABLE
  2
STYLE
  5
2281
330
0
100
AcDbSymbolTable
 70
     6
  0
STYLE
  5
228F
330
2281
100
AcDbSymbolTableRecord
100
AcDbTextStyleTableRecord
  2
STANDARD
 70
     0
 40
0.0
 41
1.0
 50
0.0
 71
     0
 42
0.2
  3
isocp.shx
  4
chineset.shx
  0
STYLE
  5
22CD
330
2281
100
AcDbSymbolTableRecord
100
AcDbTextStyleTableRecord
  2
CHINESET
 70
     0
 40
0.0
 41
1.0
 50
0.0
 71
     0
 42
4.0
  3
C:\r13\com\fonts\simplex.shx
  4
C:\r13\com\fonts\chineset.shx
  0
STYLE
  5
22E1
330
2281
100
AcDbSymbolTableRecord
100
AcDbTextStyleTableRecord
  2
LOGO
 70
     0
 40
0.0
 41
1.0
 50
0.0
 71
     0
 42
5.0
  3
LEI00DP.TTF
  4

1001
ACAD
1000
文鼎中粗隸
1071
    34865
  0
STYLE
  5
240E
330
2281
100
AcDbSymbolTableRecord
100
AcDbTextStyleTableRecord
  2

 70
     1
 40
0.0
 41
1.0
 50
0.0
 71
     0
 42
4.0
  3
ltypeshp.shx
  4

  0
STYLE
  5
2414
330
2281
100
AcDbSymbolTableRecord
100
AcDbTextStyleTableRecord
  2
ACANSTS
 70
     0
 40
1.0
 41
1.0
 50
0.0
 71
     0
 42
4.0
  3
romans.shx
  4
chineset.shx
  0
STYLE
  5
241F
330
2281
100
AcDbSymbolTableRecord
100
AcDbTextStyleTableRecord
  2
ACANSGDT
 70
     0
 40
0.0
 41
1.0
 50
0.0
 71
     0
 42
4.0
  3
amgdtans.shx
  4

  0
ENDTAB
  0
TABLE
  2
VIEW
  5
2284
330
0
100
AcDbSymbolTable
 70
     0
  0
ENDTAB
  0
TABLE
  2
UCS
  5
2285
330
0
100
AcDbSymbolTable
 70
     0
  0
ENDTAB
  0
TABLE
  2
APPID
  5
2287
330
0
100
AcDbSymbolTable
 70
     4
  0
APPID
  5
2290
330
2287
100
AcDbSymbolTableRecord
100
AcDbRegAppTableRecord
  2
ACAD
 70
     0
  0
APPID
  5
23E9
330
2287
100
AcDbSymbolTableRecord
100
AcDbRegAppTableRecord
  2
MCAD_NO_VIS
 70
     0
  0
APPID
  5
23EA
330
2287
100
AcDbSymbolTableRecord
100
AcDbRegAppTableRecord
  2
ACAD_TEMP_GRAPHIC
 70
     0
  0
APPID
  5
23FB
330
2287
100
AcDbSymbolTableRecord
100
AcDbRegAppTableRecord
  2
ACATTRIBSERVICES
 70
     0
  0
ENDTAB
  0
TABLE
  2
DIMSTYLE
  5
2288
330
0
100
AcDbSymbolTable
 70
     7
  0
DIMSTYLE
105
22D1
102
{ACAD_REACTORS
330
1F82
330
1F9A
330
1FA7
330
1FB4
330
201B
330
2028
330
2098
330
20B1
330
20DA
330
20F4
330
2101
330
213D
330
2449
102
}
330
2288
100
AcDbSymbolTableRecord
100
AcDbDimStyleTableRecord
  2
STANDARD
 70
     0
  3

  4

  5

  6

  7

 40
1.0
 41
3.0
 42
2.0
 43
8.0
 44
2.0
 45
0.0
 46
0.0
 47
0.0
 48
0.0
140
3.0
141
-1.0
142
0.0
143
25.4
144
1.0
145
0.0
146
1.0
147
1.5
 71
     0
 72
     0
 73
     0
 74
     0
 75
     0
 76
     0
 77
     1
 78
     8
170
     0
171
     2
172
     0
173
     0
174
     0
175
     0
176
     5
177
     5
178
     5
270
     2
271
     4
272
     4
273
     2
274
     2
340
228F
275
     0
280
     0
281
     0
282
     0
283
     1
284
     8
285
     8
286
     8
287
     5
288
     0
  0
DIMSTYLE
105
2425
330
2288
100
AcDbSymbolTableRecord
100
AcDbDimStyleTableRecord
  2
AM_ANSI
 70
     0
  3

  4
mm
  5

  6

  7

 40
1.0
 41
0.1
 42
0.05
 43
0.5
 44
0.1
 45
0.0
 46
0.0
 47
0.1
 48
0.1
140
0.12
141
0.0
142
0.0
143
25.4
144
1.0
145
0.0
146
0.71
147
0.06
 71
     0
 72
     0
 73
     1
 74
     1
 75
     0
 76
     0
 77
     0
 78
     7
170
     0
171
     2
172
     0
173
     0
174
     0
175
     0
176
   256
177
   256
178
     2
270
     2
271
     4
272
     4
273
     2
274
     4
340
228F
275
     0
280
     0
281
     0
282
     0
283
     1
284
     7
285
     0
286
     0
287
     3
288
     0
  0
DIMSTYLE
105
2426
330
2288
100
AcDbSymbolTableRecord
100
AcDbDimStyleTableRecord
  2
AM_ANSI$3
 70
     0
  3

  4
mm
  5

  6

  7

 40
1.0
 41
0.1
 42
0.05
 43
0.5
 44
0.1
 45
0.0
 46
0.0
 47
0.1
 48
0.1
140
0.12
141
0.0
142
0.0
143
25.4
144
1.0
145
0.0
146
0.71
147
0.06
 71
     0
 72
     0
 73
     1
 74
     1
 75
     0
 76
     0
 77
     0
 78
     7
170
     0
171
     2
172
     0
173
     0
174
     0
175
     0
176
   256
177
   256
178
     2
270
     2
271
     4
272
     4
273
     2
274
     4
340
228F
275
     0
280
     0
281
     0
282
     0
283
     1
284
     7
285
     0
286
     0
287
     0
288
     1
  0
DIMSTYLE
105
2427
330
2288
100
AcDbSymbolTableRecord
100
AcDbDimStyleTableRecord
  2
AM_ANSI$4
 70
     0
  3

  4
mm
  5

  6

  7

 40
1.0
 41
0.1
 42
0.05
 43
0.5
 44
0.1
 45
0.0
 46
0.0
 47
0.1
 48
0.1
140
0.12
141
0.0
142
0.0
143
25.4
144
1.0
145
0.0
146
0.71
147
0.06
 71
     0
 72
     0
 73
     1
 74
     1
 75
     0
 76
     0
 77
     0
 78
     7
170
     0
171
     2
172
     0
173
     0
174
     0
175
     0
176
   256
177
   256
178
     2
270
     2
271
     4
272
     4
273
     2
274
     4
340
228F
275
     0
280
     0
281
     0
282
     0
283
     1
284
     7
285
     0
286
     0
287
     0
288
     1
  0
DIMSTYLE
105
2428
330
2288
100
AcDbSymbolTableRecord
100
AcDbDimStyleTableRecord
  2
AM_ANSI$7
 70
     0
  3

  4
mm
  5

  6

  7

 40
1.0
 41
0.1
 42
0.05
 43
0.5
 44
0.1
 45
0.0
 46
0.0
 47
0.1
 48
0.1
140
0.24
141
0.0
142
0.0
143
25.4
144
1.0
145
0.0
146
0.71
147
0.06
 71
     0
 72
     0
 73
     1
 74
     1
 75
     0
 76
     0
 77
     0
 78
     7
170
     0
171
     2
172
     0
173
     0
174
     0
175
     0
176
   256
177
   256
178
     2
270
     2
271
     4
272
     4
273
     2
274
     4
340
228F
275
     0
280
     0
281
     0
282
     0
283
     1
284
     7
285
     0
286
     0
287
     3
288
     0
  0
DIMSTYLE
105
2429
330
2288
100
AcDbSymbolTableRecord
100
AcDbDimStyleTableRecord
  2
AM_ANSI$SF
 70
     0
  3

  4
mm
  5

  6

  7

 40
1.0
 41
0.1
 42
0.05
 43
0.5
 44
0.1
 45
0.0
 46
0.0
 47
0.1
 48
0.1
140
0.12
141
0.0
142
0.0
143
25.4
144
1.0
145
0.0
146
0.71
147
0.06
 71
     0
 72
     0
 73
     1
 74
     1
 75
     1
 76
     1
 77
     0
 78
     7
170
     0
171
     2
172
     0
173
     0
174
     0
175
     0
176
   256
177
   256
178
     2
270
     2
271
     4
272
     4
273
     2
274
     4
340
228F
275
     0
280
     0
281
     0
282
     0
283
     1
284
     7
285
     0
286
     0
287
     3
288
     0
  0
DIMSTYLE
105
242E
330
2288
100
AcDbSymbolTableRecord
100
AcDbDimStyleTableRecord
  2
AM_ANSI$SH
 70
     0
  3

  4
mm
  5

  6
GENAXEH
  7

 40
1.0
 41
0.1
 42
0.05
 43
0.5
 44
0.1
 45
0.0
 46
0.0
 47
0.1
 48
0.1
140
0.12
141
0.0
142
0.0
143
25.4
144
1.0
145
0.0
146
0.71
147
0.06
 71
     0
 72
     0
 73
     1
 74
     1
 75
     1
 76
     1
 77
     0
 78
     7
170
     0
171
     2
172
     0
173
     1
174
     0
175
     0
176
   256
177
   256
178
     2
270
     2
271
     4
272
     4
273
     2
274
     4
340
228F
275
     0
280
     0
281
     0
282
     0
283
     1
284
     7
285
     0
286
     0
287
     3
288
     0
  0
ENDTAB
  0
TABLE
  2
BLOCK_RECORD
  5
227F
330
0
100
AcDbSymbolTable
 70
    14
  0
BLOCK_RECORD
  5
229C
102
{ACAD_XDICTIONARY
360
238D
102
}
330
227F
100
AcDbSymbolTableRecord
100
AcDbBlockTableRecord
  2
*MODEL_SPACE
  0
BLOCK_RECORD
  5
2298
102
{ACAD_XDICTIONARY
360
238F
102
}
330
227F
100
AcDbSymbolTableRecord
100
AcDbBlockTableRecord
  2
*PAPER_SPACE
  0
BLOCK_RECORD
  5
242A
330
227F
100
AcDbSymbolTableRecord
100
AcDbBlockTableRecord
  2
GENAXEH
  0
BLOCK_RECORD
  5
244A
330
227F
100
AcDbSymbolTableRecord
100
AcDbBlockTableRecord
  2
*D1
  0
BLOCK_RECORD
  5
2522
330
227F
100
AcDbSymbolTableRecord
100
AcDbBlockTableRecord
  2
*D2
  0
BLOCK_RECORD
  5
252E
330
227F
100
AcDbSymbolTableRecord
100
AcDbBlockTableRecord
  2
*D3
  0
BLOCK_RECORD
  5
253A
330
227F
100
AcDbSymbolTableRecord
100
AcDbBlockTableRecord
  2
*D4
  0
BLOCK_RECORD
  5
2588
330
227F
100
AcDbSymbolTableRecord
100
AcDbBlockTableRecord
  2
*D5
  0
BLOCK_RECORD
  5
2594
330
227F
100
AcDbSymbolTableRecord
100
AcDbBlockTableRecord
  2
*D6
  0
BLOCK_RECORD
  5
25A0
330
227F
100
AcDbSymbolTableRecord
100
AcDbBlockTableRecord
  2
*D7
  0
BLOCK_RECORD
  5
25AD
330
227F
100
AcDbSymbolTableRecord
100
AcDbBlockTableRecord
  2
*D8
  0
BLOCK_RECORD
  5
25BA
330
227F
100
AcDbSymbolTableRecord
100
AcDbBlockTableRecord
  2
*D9
  0
BLOCK_RECORD
  5
25C6
330
227F
100
AcDbSymbolTableRecord
100
AcDbBlockTableRecord
  2
*D10
  0
BLOCK_RECORD
  5
25D2
330
227F
100
AcDbSymbolTableRecord
100
AcDbBlockTableRecord
  2
*D11
  0
BLOCK_RECORD
  5
25DE
330
227F
100
AcDbSymbolTableRecord
100
AcDbBlockTableRecord
  2
*D12
  0
BLOCK_RECORD
  5
25EA
330
227F
100
AcDbSymbolTableRecord
100
AcDbBlockTableRecord
  2
*D13
  0
ENDTAB
  0
ENDSEC
  0
SECTION
  2
BLOCKS
  0
BLOCK
  5
22D7
330
229C
100
AcDbEntity
  8
0
100
AcDbBlockBegin
  2
*MODEL_SPACE
 70
     0
 10
0.0
 20
0.0
 30
0.0
  3
*MODEL_SPACE
  1

  0
ENDBLK
  5
22D8
330
229C
100
AcDbEntity
  8
0
100
AcDbBlockEnd
  0
BLOCK
  5
22D5
330
2298
100
AcDbEntity
 67
     1
  8
0
100
AcDbBlockBegin
  2
*PAPER_SPACE
 70
     0
 10
0.0
 20
0.0
 30
0.0
  3
*PAPER_SPACE
  1

  0
ENDBLK
  5
22D6
330
2298
100
AcDbEntity
 67
     1
  8
0
100
AcDbBlockEnd
  0
BLOCK
  5
242C
330
242A
100
AcDbEntity
  8
0
100
AcDbBlockBegin
  2
GENAXEH
 70
     0
 10
0.0
 20
0.0
 30
0.0
  3
GENAXEH
  1

  0
LINE
  5
242B
330
242A
100
AcDbEntity
  8
0
100
AcDbLine
 10
-1.0
 20
0.0
 30
0.0
 11
1.0
 21
0.0
 31
0.0
  0
ENDBLK
  5
242D
330
242A
100
AcDbEntity
  8
0
100
AcDbBlockEnd
  0
BLOCK
  5
2454
330
244A
100
AcDbEntity
  8
0
100
AcDbBlockBegin
  2
*D1
 70
     1
 10
0.0
 20
0.0
 30
0.0
  3
*D1
  1

  0
LINE
  5
256D
330
244A
100
AcDbEntity
  8
AM_5
 62
     5
100
AcDbLine
 10
29.57533551689835
 20
294.9911433688478
 30
0.0
 11
29.57533551689835
 21
322.3821322510048
 31
0.0
  0
LINE
  5
256E
330
244A
100
AcDbEntity
  8
AM_5
 62
     5
100
AcDbLine
 10
327.1753355975984
 20
294.9911433688478
 30
0.0
 11
327.1753355975984
 21
322.3821322510048
 31
0.0
  0
LINE
  5
256F
330
244A
100
AcDbEntity
  8
AM_5
 62
     5
100
AcDbLine
 10
32.57533551689835
 20
320.3821322510048
 30
0.0
 11
324.1753355975983
 21
320.3821322510048
 31
0.0
  0
SOLID
  5
2570
330
244A
100
AcDbEntity
  8
AM_5
 62
     5
100
AcDbTrace
 10
32.57533551689835
 20
320.8821322510047
 30
0.0
 11
32.57533551689835
 21
319.8821322510048
 31
0.0
 12
29.57533551689835
 22
320.3821322510048
 32
0.0
 13
29.57533551689835
 23
320.3821322510048
 33
0.0
  0
SOLID
  5
2571
330
244A
100
AcDbEntity
  8
AM_5
 62
     5
100
AcDbTrace
 10
324.1753355975983
 20
320.8821322510047
 30
0.0
 11
324.1753355975983
 21
319.8821322510048
 31
0.0
 12
327.1753355975984
 22
320.3821322510048
 32
0.0
 13
327.1753355975984
 23
320.3821322510048
 33
0.0
  0
MTEXT
  5
2572
330
244A
100
AcDbEntity
  8
AM_5
 62
     5
100
AcDbMText
 10
178.3753355572483
 20
323.3824275265953
 30
0.0
 40
3.0
 41
0.0
 71
     5
 72
     1
  1
\A1;297.6
1001
ACAD
1000
MTEXTBEGIN
1070
    73
1070
     1
1070
    44
1040
1.0
1070
    74
1070
     0
1000
MTEXTEND
  0
POINT
  5
2573
330
244A
100
AcDbEntity
  8
DEFPOINTS
 62
     0
100
AcDbPoint
 10
29.57533551689835
 20
292.9911433688478
 30
0.0
  0
POINT
  5
2574
330
244A
100
AcDbEntity
  8
DEFPOINTS
 62
     0
100
AcDbPoint
 10
327.1753355975984
 20
292.9911433688478
 30
0.0
  0
POINT
  5
2575
330
244A
100
AcDbEntity
  8
DEFPOINTS
 62
     0
100
AcDbPoint
 10
327.1753355975984
 20
320.3821322510048
 30
0.0
  0
ENDBLK
  5
2455
330
244A
100
AcDbEntity
  8
0
100
AcDbBlockEnd
  0
BLOCK
  5
252C
330
2522
100
AcDbEntity
  8
0
100
AcDbBlockBegin
  2
*D2
 70
     1
 10
0.0
 20
0.0
 30
0.0
  3
*D2
  1

  0
LINE
  5
2576
330
2522
100
AcDbEntity
  8
DIM
 62
     5
100
AcDbLine
 10
327.7024355971565
 20
46.59829726707556
 30
0.0
 11
365.904285226956
 21
46.59829726707555
 31
0.0
  0
LINE
  5
2577
330
2522
100
AcDbEntity
  8
DIM
 62
     5
100
AcDbLine
 10
186.4024355590566
 20
175.5482972972855
 30
0.0
 11
365.9042852269561
 21
175.5482972972855
 31
0.0
  0
LINE
  5
2578
330
2522
100
AcDbEntity
  8
DIM
 62
     5
100
AcDbLine
 10
363.904285226956
 20
49.59829726707556
 30
0.0
 11
363.9042852269561
 21
172.5482972972855
 31
0.0
  0
SOLID
  5
2579
330
2522
100
AcDbEntity
  8
DIM
 62
     5
100
AcDbTrace
 10
363.404285226956
 20
49.59829726707556
 30
0.0
 11
364.404285226956
 21
49.59829726707556
 31
0.0
 12
363.904285226956
 22
46.59829726707555
 32
0.0
 13
363.904285226956
 23
46.59829726707555
 33
0.0
  0
SOLID
  5
257A
330
2522
100
AcDbEntity
  8
DIM
 62
     5
100
AcDbTrace
 10
363.4042852269561
 20
172.5482972972855
 30
0.0
 11
364.4042852269561
 21
172.5482972972855
 31
0.0
 12
363.9042852269561
 22
175.5482972972855
 32
0.0
 13
363.9042852269561
 23
175.5482972972855
 33
0.0
  0
MTEXT
  5
257B
330
2522
100
AcDbEntity
  8
DIM
 62
     5
100
AcDbMText
 10
360.7535601884265
 20
111.0732972821805
 30
0.0
 40
3.0
 41
0.0
 71
     5
 72
     1
  1
\A1;{(128.95)}
 11
0.0000000000000001
 21
1.0
 31
0.0
1001
ACAD
1000
MTEXTBEGIN
1070
    73
1070
     1
1070
    44
1040
1.0
1070
    74
1070
     0
1000
MTEXTEND
  0
POINT
  5
257C
330
2522
100
AcDbEntity
  8
DEFPOINTS
 62
     0
100
AcDbPoint
 10
325.7024355971565
 20
46.59829726707556
 30
0.0
  0
POINT
  5
257D
330
2522
100
AcDbEntity
  8
DEFPOINTS
 62
     0
100
AcDbPoint
 10
184.4024355590566
 20
175.5482972972855
 30
0.0
  0
POINT
  5
257E
330
2522
100
AcDbEntity
  8
DEFPOINTS
 62
     0
100
AcDbPoint
 10
363.9042852269561
 20
175.5482972972855
 30
0.0
  0
ENDBLK
  5
252D
330
2522
100
AcDbEntity
  8
0
100
AcDbBlockEnd
  0
BLOCK
  5
2538
330
252E
100
AcDbEntity
  8
0
100
AcDbBlockBegin
  2
*D3
 70
     1
 10
0.0
 20
0.0
 30
0.0
  3
*D3
  1

  0
LINE
  5
257F
330
252E
100
AcDbEntity
  8
DIM
 62
     5
100
AcDbLine
 10
327.7024355971565
 20
46.59829726707556
 30
0.0
 11
349.799734035472
 21
46.59829726707555
 31
0.0
  0
LINE
  5
2580
330
252E
100
AcDbEntity
  8
DIM
 62
     5
100
AcDbLine
 10
283.7024355824564
 20
134.7482972850455
 30
0.0
 11
349.7997340354721
 21
134.7482972850454
 31
0.0
  0
LINE
  5
2581
330
252E
100
AcDbEntity
  8
DIM
 62
     5
100
AcDbLine
 10
347.799734035472
 20
49.59829726707556
 30
0.0
 11
347.7997340354721
 21
131.7482972850454
 31
0.0
  0
SOLID
  5
2582
330
252E
100
AcDbEntity
  8
DIM
 62
     5
100
AcDbTrace
 10
347.299734035472
 20
49.59829726707556
 30
0.0
 11
348.299734035472
 21
49.59829726707556
 31
0.0
 12
347.799734035472
 22
46.59829726707555
 32
0.0
 13
347.799734035472
 23
46.59829726707555
 33
0.0
  0
SOLID
  5
2583
330
252E
100
AcDbEntity
  8
DIM
 62
     5
100
AcDbTrace
 10
347.2997340354721
 20
131.7482972850454
 30
0.0
 11
348.2997340354721
 21
131.7482972850454
 31
0.0
 12
347.7997340354721
 22
134.7482972850454
 32
0.0
 13
347.7997340354721
 23
134.7482972850454
 33
0.0
  0
MTEXT
  5
2584
330
252E
100
AcDbEntity
  8
DIM
 62
     5
100
AcDbMText
 10
344.649734035472
 20
90.67329727606058
 30
0.0
 40
3.0
 41
0.0
 71
     5
 72
     1
  1
\A1;{(88.15)}
 11
0.0000000000000001
 21
1.0
 31
0.0
1001
ACAD
1000
MTEXTBEGIN
1070
    73
1070
     1
1070
    44
1040
1.0
1070
    74
1070
     0
1000
MTEXTEND
  0
POINT
  5
2585
330
252E
100
AcDbEntity
  8
DEFPOINTS
 62
     0
100
AcDbPoint
 10
325.7024355971565
 20
46.59829726707556
 30
0.0
  0
POINT
  5
2586
330
252E
100
AcDbEntity
  8
DEFPOINTS
 62
     0
100
AcDbPoint
 10
281.7024355824564
 20
134.7482972850455
 30
0.0
  0
POINT
  5
2587
330
252E
100
AcDbEntity
  8
DEFPOINTS
 62
     0
100
AcDbPoint
 10
347.7997340354721
 20
134.7482972850454
 30
0.0
  0
ENDBLK
  5
2539
330
252E
100
AcDbEntity
  8
0
100
AcDbBlockEnd
  0
BLOCK
  5
2545
330
253A
100
AcDbEntity
  8
0
100
AcDbBlockBegin
  2
*D4
 70
     1
 10
0.0
 20
0.0
 30
0.0
  3
*D4
  1

  0
LINE
  5
25F6
330
253A
100
AcDbEntity
  8
DIM
 62
     5
100
AcDbLine
 10
327.7024355971565
 20
46.59829726707556
 30
0.0
 11
341.9775228222843
 21
46.59829726707555
 31
0.0
  0
LINE
  5
25F7
330
253A
100
AcDbEntity
  8
DIM
 62
     5
100
AcDbLine
 10
327.7024355971565
 20
51.09829726842554
 30
0.0
 11
341.9775228222843
 21
51.09829726842553
 31
0.0
  0
LINE
  5
25F8
330
253A
100
AcDbEntity
  8
DIM
 62
     5
100
AcDbLine
 10
339.9775228222843
 20
43.59829726707555
 30
0.0
 11
339.9775228222843
 21
40.59829726707556
 31
0.0
  0
LINE
  5
25F9
330
253A
100
AcDbEntity
  8
DIM
 62
     5
100
AcDbLine
 10
339.9775228222843
 20
54.09829726842553
 30
0.0
 11
339.9775228222843
 21
57.09829726842553
 31
0.0
  0
MTEXT
  5
25FA
330
253A
100
AcDbEntity
  8
DIM
 62
     5
100
AcDbMText
 10
333.9958325912221
 20
40.94101251804386
 30
0.0
 40
3.0
 41
0.0
 71
     5
 72
     1
  1
\A1;4.5
 11
0.0000000000000001
 21
1.0
 31
0.0
1001
ACAD
1000
MTEXTBEGIN
1070
    73
1070
     1
1070
    44
1040
1.0
1070
    74
1070
     0
1000
MTEXTEND
  0
LINE
  5
25FB
330
253A
100
AcDbEntity
  8
DIM
 62
     5
100
AcDbLine
 10
339.9775228222843
 20
46.59829726707555
 30
0.0
 11
339.9775228222843
 21
51.09829726842553
 31
0.0
  0
SOLID
  5
25FC
330
253A
100
AcDbEntity
  8
DIM
 62
     5
100
AcDbTrace
 10
339.4775228222843
 20
43.59829726707555
 30
0.0
 11
340.4775228222843
 21
43.59829726707555
 31
0.0
 12
339.9775228222843
 22
46.59829726707555
 32
0.0
 13
339.9775228222843
 23
46.59829726707555
 33
0.0
  0
SOLID
  5
25FD
330
253A
100
AcDbEntity
  8
DIM
 62
     5
100
AcDbTrace
 10
339.4775228222843
 20
54.09829726842553
 30
0.0
 11
340.4775228222843
 21
54.09829726842553
 31
0.0
 12
339.9775228222843
 22
51.09829726842553
 32
0.0
 13
339.9775228222843
 23
51.09829726842553
 33
0.0
  0
POINT
  5
25FE
330
253A
100
AcDbEntity
  8
DEFPOINTS
 62
     0
100
AcDbPoint
 10
325.7024355971565
 20
46.59829726707556
 30
0.0
  0
POINT
  5
25FF
330
253A
100
AcDbEntity
  8
DEFPOINTS
 62
     0
100
AcDbPoint
 10
325.7024355971565
 20
51.09829726842554
 30
0.0
  0
POINT
  5
2600
330
253A
100
AcDbEntity
  8
DEFPOINTS
 62
     0
100
AcDbPoint
 10
339.9775228222843
 20
51.09829726842553
 30
0.0
  0
ENDBLK
  5
2546
330
253A
100
AcDbEntity
  8
0
100
AcDbBlockEnd
  0
BLOCK
  5
2592
330
2588
100
AcDbEntity
  8
0
100
AcDbBlockBegin
  2
*D5
 70
     1
 10
0.0
 20
0.0
 30
0.0
  3
*D5
  1

  0
LINE
  5
2589
330
2588
100
AcDbEntity
  8
DIM
 62
     5
100
AcDbLine
 10
315.7024355926565
 20
40.95125570186332
 30
0.0
 11
315.7024355926565
 21
24.478660040524
 31
0.0
  0
LINE
  5
258A
330
2588
100
AcDbEntity
  8
DIM
 62
     5
100
AcDbLine
 10
38.10243554720648
 20
41.2012557104133
 30
0.0
 11
38.10243554720648
 21
24.478660040524
 31
0.0
  0
LINE
  5
258B
330
2588
100
AcDbEntity
  8
DIM
 62
     5
100
AcDbLine
 10
312.7024355926565
 20
26.478660040524
 30
0.0
 11
41.10243554720648
 21
26.478660040524
 31
0.0
  0
SOLID
  5
258C
330
2588
100
AcDbEntity
  8
DIM
 62
     5
100
AcDbTrace
 10
312.7024355926565
 20
26.978660040524
 30
0.0
 11
312.7024355926565
 21
25.978660040524
 31
0.0
 12
315.7024355926565
 22
26.478660040524
 32
0.0
 13
315.7024355926565
 23
26.478660040524
 33
0.0
  0
SOLID
  5
258D
330
2588
100
AcDbEntity
  8
DIM
 62
     5
100
AcDbTrace
 10
41.10243554720648
 20
26.978660040524
 30
0.0
 11
41.10243554720648
 21
25.978660040524
 31
0.0
 12
38.10243554720648
 22
26.478660040524
 32
0.0
 13
38.10243554720648
 23
26.478660040524
 33
0.0
  0
MTEXT
  5
258E
330
2588
100
AcDbEntity
  8
DIM
 62
     5
100
AcDbMText
 10
176.9024355699315
 20
29.47895531611456
 30
0.0
 40
3.0
 41
0.0
 71
     5
 72
     1
  1
\A1;277.6
1001
ACAD
1000
MTEXTBEGIN
1070
    73
1070
     1
1070
    44
1040
1.0
1070
    74
1070
     0
1000
MTEXTEND
  0
POINT
  5
258F
330
2588
100
AcDbEntity
  8
DEFPOINTS
 62
     0
100
AcDbPoint
 10
315.7024355926565
 20
42.95125570186331
 30
0.0
  0
POINT
  5
2590
330
2588
100
AcDbEntity
  8
DEFPOINTS
 62
     0
100
AcDbPoint
 10
38.10243554720648
 20
43.2012557104133
 30
0.0
  0
POINT
  5
2591
330
2588
100
AcDbEntity
  8
DEFPOINTS
 62
     0
100
AcDbPoint
 10
38.10243554720648
 20
26.478660040524
 30
0.0
  0
ENDBLK
  5
2593
330
2588
100
AcDbEntity
  8
0
100
AcDbBlockEnd
  0
BLOCK
  5
259E
330
2594
100
AcDbEntity
  8
0
100
AcDbBlockBegin
  2
*D6
 70
     1
 10
0.0
 20
0.0
 30
0.0
  3
*D6
  1

  0
LINE
  5
2595
330
2594
100
AcDbEntity
  8
DIM
 62
     5
100
AcDbLine
 10
193.7024355612462
 20
136.9482972857056
 30
0.0
 11
329.5540106342057
 21
136.9482972857056
 31
0.0
  0
LINE
  5
2596
330
2594
100
AcDbEntity
  8
DIM
 62
     5
100
AcDbLine
 10
186.4024355590566
 20
175.5482972972855
 30
0.0
 11
329.5540106342057
 21
175.5482972972855
 31
0.0
  0
LINE
  5
2597
330
2594
100
AcDbEntity
  8
DIM
 62
     5
100
AcDbLine
 10
327.5540106342057
 20
139.9482972857056
 30
0.0
 11
327.5540106342057
 21
172.5482972972855
 31
0.0
  0
SOLID
  5
2598
330
2594
100
AcDbEntity
  8
DIM
 62
     5
100
AcDbTrace
 10
327.0540106342057
 20
139.9482972857056
 30
0.0
 11
328.0540106342058
 21
139.9482972857056
 31
0.0
 12
327.5540106342057
 22
136.9482972857056
 32
0.0
 13
327.5540106342057
 23
136.9482972857056
 33
0.0
  0
SOLID
  5
2599
330
2594
100
AcDbEntity
  8
DIM
 62
     5
100
AcDbTrace
 10
327.0540106342057
 20
172.5482972972855
 30
0.0
 11
328.0540106342058
 21
172.5482972972855
 31
0.0
 12
327.5540106342057
 22
175.5482972972855
 32
0.0
 13
327.5540106342057
 23
175.5482972972855
 33
0.0
  0
MTEXT
  5
259A
330
2594
100
AcDbEntity
  8
DIM
 62
     5
100
AcDbMText
 10
324.5540106342057
 20
156.2482972914956
 30
0.0
 40
3.0
 41
0.0
 71
     5
 72
     1
  1
\A1;38.6
 11
0.0000000000000001
 21
1.0
 31
0.0
1001
ACAD
1000
MTEXTBEGIN
1070
    73
1070
     1
1070
    44
1040
1.0
1070
    74
1070
     0
1000
MTEXTEND
  0
POINT
  5
259B
330
2594
100
AcDbEntity
  8
DEFPOINTS
 62
     0
100
AcDbPoint
 10
191.7024355612462
 20
136.9482972857056
 30
0.0
  0
POINT
  5
259C
330
2594
100
AcDbEntity
  8
DEFPOINTS
 62
     0
100
AcDbPoint
 10
184.4024355590566
 20
175.5482972972855
 30
0.0
  0
POINT
  5
259D
330
2594
100
AcDbEntity
  8
DEFPOINTS
 62
     0
100
AcDbPoint
 10
327.5540106342057
 20
175.5482972972855
 30
0.0
  0
ENDBLK
  5
259F
330
2594
100
AcDbEntity
  8
0
100
AcDbBlockEnd
  0
BLOCK
  5
25AB
330
25A0
100
AcDbEntity
  8
0
100
AcDbBlockBegin
  2
*D7
 70
     1
 10
0.0
 20
0.0
 30
0.0
  3
*D7
  1

  0
LINE
  5
25A1
330
25A0
100
AcDbEntity
  8
DIM
 62
     5
100
AcDbLine
 10
283.7024355824564
 20
134.7482972850455
 30
0.0
 11
311.5989459168045
 21
134.7482972850455
 31
0.0
  0
LINE
  5
25A2
330
25A0
100
AcDbEntity
  8
DIM
 62
     5
100
AcDbLine
 10
193.7024355612462
 20
136.9482972857056
 30
0.0
 11
311.5989459168045
 21
136.9482972857056
 31
0.0
  0
LINE
  5
25A3
330
25A0
100
AcDbEntity
  8
DIM
 62
     5
100
AcDbLine
 10
309.5989459168045
 20
131.7482972850455
 30
0.0
 11
309.5989459168045
 21
128.7482972850455
 31
0.0
  0
LINE
  5
25A4
330
25A0
100
AcDbEntity
  8
DIM
 62
     5
100
AcDbLine
 10
309.5989459168045
 20
139.9482972857056
 30
0.0
 11
309.5989459168045
 21
142.9482972857056
 31
0.0
  0
MTEXT
  5
25A5
330
25A0
100
AcDbEntity
  8
DIM
 62
     5
100
AcDbMText
 10
305.7526114626221
 20
141.1851194800675
 30
0.0
 40
3.0
 41
0.0
 71
     5
 72
     1
  1
\A1;2.2
 11
0.0000000000000001
 21
1.0
 31
0.0
1001
ACAD
1000
MTEXTBEGIN
1070
    73
1070
     1
1070
    44
1040
1.0
1070
    74
1070
     0
1000
MTEXTEND
  0
SOLID
  5
25A6
330
25A0
100
AcDbEntity
  8
DIM
 62
     5
100
AcDbTrace
 10
309.0989459168045
 20
131.7482972850455
 30
0.0
 11
310.0989459168045
 21
131.7482972850455
 31
0.0
 12
309.5989459168045
 22
134.7482972850455
 32
0.0
 13
309.5989459168045
 23
134.7482972850455
 33
0.0
  0
SOLID
  5
25A7
330
25A0
100
AcDbEntity
  8
DIM
 62
     5
100
AcDbTrace
 10
309.0989459168045
 20
139.9482972857056
 30
0.0
 11
310.0989459168045
 21
139.9482972857056
 31
0.0
 12
309.5989459168045
 22
136.9482972857056
 32
0.0
 13
309.5989459168045
 23
136.9482972857056
 33
0.0
  0
POINT
  5
25A8
330
25A0
100
AcDbEntity
  8
DEFPOINTS
 62
     0
100
AcDbPoint
 10
281.7024355824564
 20
134.7482972850455
 30
0.0
  0
POINT
  5
25A9
330
25A0
100
AcDbEntity
  8
DEFPOINTS
 62
     0
100
AcDbPoint
 10
191.7024355612462
 20
136.9482972857056
 30
0.0
  0
POINT
  5
25AA
330
25A0
100
AcDbEntity
  8
DEFPOINTS
 62
     0
100
AcDbPoint
 10
309.5989459168045
 20
136.9482972857056
 30
0.0
  0
ENDBLK
  5
25AC
330
25A0
100
AcDbEntity
  8
0
100
AcDbBlockEnd
  0
BLOCK
  5
25B8
330
25AD
100
AcDbEntity
  8
0
100
AcDbBlockBegin
  2
*D8
 70
     1
 10
0.0
 20
0.0
 30
0.0
  3
*D8
  1

  0
LINE
  5
25AE
330
25AD
100
AcDbEntity
  8
DIM
 62
     5
100
AcDbLine
 10
186.4024355590566
 20
175.5482972972855
 30
0.0
 11
204.9851196417137
 21
175.5482972972855
 31
0.0
  0
LINE
  5
25AF
330
25AD
100
AcDbEntity
  8
DIM
 62
     5
100
AcDbLine
 10
178.9024355568066
 20
170.5482972957856
 30
0.0
 11
204.9851196417137
 21
170.5482972957855
 31
0.0
  0
LINE
  5
25B0
330
25AD
100
AcDbEntity
  8
DIM
 62
     5
100
AcDbLine
 10
202.9851196417137
 20
178.5482972972855
 30
0.0
 11
202.9851196417137
 21
181.5482972972855
 31
0.0
  0
LINE
  5
25B1
330
25AD
100
AcDbEntity
  8
DIM
 62
     5
100
AcDbLine
 10
202.9851196417137
 20
167.5482972957855
 30
0.0
 11
202.9851196417137
 21
164.5482972957855
 31
0.0
  0
MTEXT
  5
25B2
330
25AD
100
AcDbEntity
  8
DIM
 62
     5
100
AcDbMText
 10
200.3367614845242
 20
179.6663379797205
 30
0.0
 40
3.0
 41
0.0
 71
     5
 72
     1
  1
\A1;5
 11
0.0000000000000001
 21
1.0
 31
0.0
1001
ACAD
1000
MTEXTBEGIN
1070
    73
1070
     1
1070
    44
1040
1.0
1070
    74
1070
     0
1000
MTEXTEND
  0
SOLID
  5
25B3
330
25AD
100
AcDbEntity
  8
DIM
 62
     5
100
AcDbTrace
 10
202.4851196417137
 20
178.5482972972855
 30
0.0
 11
203.4851196417136
 21
178.5482972972855
 31
0.0
 12
202.9851196417137
 22
175.5482972972855
 32
0.0
 13
202.9851196417137
 23
175.5482972972855
 33
0.0
  0
SOLID
  5
25B4
330
25AD
100
AcDbEntity
  8
DIM
 62
     5
100
AcDbTrace
 10
202.4851196417137
 20
167.5482972957855
 30
0.0
 11
203.4851196417136
 21
167.5482972957855
 31
0.0
 12
202.9851196417137
 22
170.5482972957855
 32
0.0
 13
202.9851196417137
 23
170.5482972957855
 33
0.0
  0
POINT
  5
25B5
330
25AD
100
AcDbEntity
  8
DEFPOINTS
 62
     0
100
AcDbPoint
 10
184.4024355590566
 20
175.5482972972855
 30
0.0
  0
POINT
  5
25B6
330
25AD
100
AcDbEntity
  8
DEFPOINTS
 62
     0
100
AcDbPoint
 10
176.9024355568066
 20
170.5482972957856
 30
0.0
  0
POINT
  5
25B7
330
25AD
100
AcDbEntity
  8
DEFPOINTS
 62
     0
100
AcDbPoint
 10
202.9851196417137
 20
170.5482972957855
 30
0.0
  0
ENDBLK
  5
25B9
330
25AD
100
AcDbEntity
  8
0
100
AcDbBlockEnd
  0
BLOCK
  5
25C4
330
25BA
100
AcDbEntity
  8
0
100
AcDbBlockBegin
  2
*D9
 70
     1
 10
0.0
 20
0.0
 30
0.0
  3
*D9
  1

  0
LINE
  5
25BB
330
25BA
100
AcDbEntity
  8
DIM
 62
     5
100
AcDbLine
 10
191.9024355613066
 20
138.7482972856453
 30
0.0
 11
191.9024355613066
 21
192.3665214470251
 31
0.0
  0
LINE
  5
25BC
330
25BA
100
AcDbEntity
  8
DIM
 62
     5
100
AcDbLine
 10
161.9024355523064
 20
138.7482972856455
 30
0.0
 11
161.9024355523064
 21
192.3665214470251
 31
0.0
  0
LINE
  5
25BD
330
25BA
100
AcDbEntity
  8
DIM
 62
     5
100
AcDbLine
 10
188.9024355613066
 20
190.3665214470251
 30
0.0
 11
164.9024355523064
 21
190.3665214470251
 31
0.0
  0
SOLID
  5
25BE
330
25BA
100
AcDbEntity
  8
DIM
 62
     5
100
AcDbTrace
 10
188.9024355613066
 20
190.866521447025
 30
0.0
 11
188.9024355613066
 21
189.866521447025
 31
0.0
 12
191.9024355613066
 22
190.3665214470251
 32
0.0
 13
191.9024355613066
 23
190.3665214470251
 33
0.0
  0
SOLID
  5
25BF
330
25BA
100
AcDbEntity
  8
DIM
 62
     5
100
AcDbTrace
 10
164.9024355523064
 20
190.866521447025
 30
0.0
 11
164.9024355523064
 21
189.866521447025
 31
0.0
 12
161.9024355523064
 22
190.3665214470251
 32
0.0
 13
161.9024355523064
 23
190.3665214470251
 33
0.0
  0
MTEXT
  5
25C0
330
25BA
100
AcDbEntity
  8
DIM
 62
     5
100
AcDbMText
 10
176.9024355568065
 20
193.3665214470251
 30
0.0
 40
3.0
 41
0.0
 71
     5
 72
     1
  1
\A1;{%%c30}
1001
ACAD
1000
MTEXTBEGIN
1070
    73
1070
     1
1070
    44
1040
1.0
1070
    74
1070
     0
1000
MTEXTEND
  0
POINT
  5
25C1
330
25BA
100
AcDbEntity
  8
DEFPOINTS
 62
     0
100
AcDbPoint
 10
191.9024355613066
 20
136.7482972856453
 30
0.0
  0
POINT
  5
25C2
330
25BA
100
AcDbEntity
  8
DEFPOINTS
 62
     0
100
AcDbPoint
 10
161.9024355523064
 20
136.7482972856455
 30
0.0
  0
POINT
  5
25C3
330
25BA
100
AcDbEntity
  8
DEFPOINTS
 62
     0
100
AcDbPoint
 10
161.9024355523064
 20
190.3665214470251
 30
0.0
  0
ENDBLK
  5
25C5
330
25BA
100
AcDbEntity
  8
0
100
AcDbBlockEnd
  0
BLOCK
  5
25D0
330
25C6
100
AcDbEntity
  8
0
100
AcDbBlockBegin
  2
*D10
 70
     1
 10
0.0
 20
0.0
 30
0.0
  3
*D10
  1

  0
LINE
  5
25C7
330
25C6
100
AcDbEntity
  8
DIM
 62
     5
100
AcDbLine
 10
168.4024355542565
 20
176.5482972969856
 30
0.0
 11
168.4024355542565
 21
185.2500097810214
 31
0.0
  0
LINE
  5
25C8
330
25C6
100
AcDbEntity
  8
DIM
 62
     5
100
AcDbLine
 10
185.4024355593565
 20
176.5482972969856
 30
0.0
 11
185.4024355593565
 21
185.2500097810214
 31
0.0
  0
LINE
  5
25C9
330
25C6
100
AcDbEntity
  8
DIM
 62
     5
100
AcDbLine
 10
171.4024355542565
 20
183.2500097810213
 30
0.0
 11
182.4024355593565
 21
183.2500097810213
 31
0.0
  0
SOLID
  5
25CA
330
25C6
100
AcDbEntity
  8
DIM
 62
     5
100
AcDbTrace
 10
171.4024355542565
 20
183.7500097810213
 30
0.0
 11
171.4024355542565
 21
182.7500097810213
 31
0.0
 12
168.4024355542565
 22
183.2500097810213
 32
0.0
 13
168.4024355542565
 23
183.2500097810213
 33
0.0
  0
SOLID
  5
25CB
330
25C6
100
AcDbEntity
  8
DIM
 62
     5
100
AcDbTrace
 10
182.4024355593565
 20
183.7500097810213
 30
0.0
 11
182.4024355593565
 21
182.7500097810213
 31
0.0
 12
185.4024355593565
 22
183.2500097810213
 32
0.0
 13
185.4024355593565
 23
183.2500097810213
 33
0.0
  0
MTEXT
  5
25CC
330
25C6
100
AcDbEntity
  8
DIM
 62
     5
100
AcDbMText
 10
176.9024355568065
 20
186.2500097810213
 30
0.0
 40
3.0
 41
0.0
 71
     5
 72
     1
  1
\A1;{%%c17}
1001
ACAD
1000
MTEXTBEGIN
1070
    73
1070
     1
1070
    44
1040
1.0
1070
    74
1070
     0
1000
MTEXTEND
  0
POINT
  5
25CD
330
25C6
100
AcDbEntity
  8
DEFPOINTS
 62
     0
100
AcDbPoint
 10
168.4024355542565
 20
174.5482972969856
 30
0.0
  0
POINT
  5
25CE
330
25C6
100
AcDbEntity
  8
DEFPOINTS
 62
     0
100
AcDbPoint
 10
185.4024355593565
 20
174.5482972969856
 30
0.0
  0
POINT
  5
25CF
330
25C6
100
AcDbEntity
  8
DEFPOINTS
 62
     0
100
AcDbPoint
 10
185.4024355593565
 20
183.2500097810213
 30
0.0
  0
ENDBLK
  5
25D1
330
25C6
100
AcDbEntity
  8
0
100
AcDbBlockEnd
  0
BLOCK
  5
25DC
330
25D2
100
AcDbEntity
  8
0
100
AcDbBlockBegin
  2
*D11
 70
     1
 10
0.0
 20
0.0
 30
0.0
  3
*D11
  1

  0
LINE
  5
25D3
330
25D2
100
AcDbEntity
  8
DIM
 62
     5
100
AcDbLine
 10
283.7024355830565
 20
55.2343362395876
 30
0.0
 11
283.7024355830565
 21
34.54998053007148
 31
0.0
  0
LINE
  5
25D4
330
25D2
100
AcDbEntity
  8
DIM
 62
     5
100
AcDbLine
 10
70.10243555680642
 20
55.23433623958755
 30
0.0
 11
70.10243555680642
 21
34.54998053007148
 31
0.0
  0
LINE
  5
25D5
330
25D2
100
AcDbEntity
  8
DIM
 62
     5
100
AcDbLine
 10
280.7024355830565
 20
36.54998053007147
 30
0.0
 11
73.10243555680642
 21
36.54998053007147
 31
0.0
  0
SOLID
  5
25D6
330
25D2
100
AcDbEntity
  8
DIM
 62
     5
100
AcDbTrace
 10
280.7024355830565
 20
37.04998053007148
 30
0.0
 11
280.7024355830565
 21
36.04998053007148
 31
0.0
 12
283.7024355830565
 22
36.54998053007147
 32
0.0
 13
283.7024355830565
 23
36.54998053007147
 33
0.0
  0
SOLID
  5
25D7
330
25D2
100
AcDbEntity
  8
DIM
 62
     5
100
AcDbTrace
 10
73.10243555680642
 20
37.04998053007148
 30
0.0
 11
73.10243555680642
 21
36.04998053007148
 31
0.0
 12
70.10243555680642
 22
36.54998053007147
 32
0.0
 13
70.10243555680642
 23
36.54998053007147
 33
0.0
  0
MTEXT
  5
25D8
330
25D2
100
AcDbEntity
  8
DIM
 62
     5
100
AcDbMText
 10
176.9024355699315
 20
39.55027580566203
 30
0.0
 40
3.0
 41
0.0
 71
     5
 72
     1
  1
\A1;213.6
1001
ACAD
1000
MTEXTBEGIN
1070
    73
1070
     1
1070
    44
1040
1.0
1070
    74
1070
     0
1000
MTEXTEND
  0
POINT
  5
25D9
330
25D2
100
AcDbEntity
  8
DEFPOINTS
 62
     0
100
AcDbPoint
 10
283.7024355830565
 20
57.23433623958761
 30
0.0
  0
POINT
  5
25DA
330
25D2
100
AcDbEntity
  8
DEFPOINTS
 62
     0
100
AcDbPoint
 10
70.10243555680642
 20
57.23433623958754
 30
0.0
  0
POINT
  5
25DB
330
25D2
100
AcDbEntity
  8
DEFPOINTS
 62
     0
100
AcDbPoint
 10
70.10243555680642
 20
36.54998053007147
 30
0.0
  0
ENDBLK
  5
25DD
330
25D2
100
AcDbEntity
  8
0
100
AcDbBlockEnd
  0
BLOCK
  5
25E8
330
25DE
100
AcDbEntity
  8
0
100
AcDbBlockBegin
  2
*D12
 70
     1
 10
0.0
 20
0.0
 30
0.0
  3
*D12
  1

  0
LINE
  5
25DF
330
25DE
100
AcDbEntity
  8
DIM
 62
     5
100
AcDbLine
 10
178.9024355568066
 20
170.5482972957856
 30
0.0
 11
204.9851196417137
 21
170.5482972957855
 31
0.0
  0
LINE
  5
25E0
330
25DE
100
AcDbEntity
  8
DIM
 62
     5
100
AcDbLine
 10
178.9024355568066
 20
140.5482972867856
 30
0.0
 11
204.9851196417137
 21
140.5482972867856
 31
0.0
  0
LINE
  5
25E1
330
25DE
100
AcDbEntity
  8
DIM
 62
     5
100
AcDbLine
 10
202.9851196417137
 20
167.5482972957855
 30
0.0
 11
202.9851196417137
 21
143.5482972867856
 31
0.0
  0
SOLID
  5
25E2
330
25DE
100
AcDbEntity
  8
DIM
 62
     5
100
AcDbTrace
 10
202.4851196417137
 20
167.5482972957855
 30
0.0
 11
203.4851196417136
 21
167.5482972957855
 31
0.0
 12
202.9851196417137
 22
170.5482972957855
 32
0.0
 13
202.9851196417137
 23
170.5482972957855
 33
0.0
  0
SOLID
  5
25E3
330
25DE
100
AcDbEntity
  8
DIM
 62
     5
100
AcDbTrace
 10
202.4851196417137
 20
143.5482972867856
 30
0.0
 11
203.4851196417136
 21
143.5482972867856
 31
0.0
 12
202.9851196417137
 22
140.5482972867856
 32
0.0
 13
202.9851196417137
 23
140.5482972867856
 33
0.0
  0
MTEXT
  5
25E4
330
25DE
100
AcDbEntity
  8
DIM
 62
     5
100
AcDbMText
 10
199.9851196417136
 20
155.5482972912856
 30
0.0
 40
3.0
 41
0.0
 71
     5
 72
     1
  1
\A1;30
 11
0.0000000000000001
 21
1.0
 31
0.0
1001
ACAD
1000
MTEXTBEGIN
1070
    73
1070
     1
1070
    44
1040
1.0
1070
    74
1070
     0
1000
MTEXTEND
  0
POINT
  5
25E5
330
25DE
100
AcDbEntity
  8
DEFPOINTS
 62
     0
100
AcDbPoint
 10
176.9024355568066
 20
170.5482972957856
 30
0.0
  0
POINT
  5
25E6
330
25DE
100
AcDbEntity
  8
DEFPOINTS
 62
     0
100
AcDbPoint
 10
176.9024355568066
 20
140.5482972867856
 30
0.0
  0
POINT
  5
25E7
330
25DE
100
AcDbEntity
  8
DEFPOINTS
 62
     0
100
AcDbPoint
 10
202.9851196417137
 20
140.5482972867856
 30
0.0
  0
ENDBLK
  5
25E9
330
25DE
100
AcDbEntity
  8
0
100
AcDbBlockEnd
  0
BLOCK
  5
25F4
330
25EA
100
AcDbEntity
  8
0
100
AcDbBlockBegin
  2
*D13
 70
     1
 10
0.0
 20
0.0
 30
0.0
  3
*D13
  1

  0
LINE
  5
25EB
330
25EA
100
AcDbEntity
  8
DIM
 62
     5
100
AcDbLine
 10
206.9024355568066
 20
295.9911433583479
 30
0.0
 11
206.9024355568066
 21
310.7438786369456
 31
0.0
  0
LINE
  5
25EC
330
25EA
100
AcDbEntity
  8
DIM
 62
     5
100
AcDbLine
 10
146.9024355568066
 20
295.2411433583479
 30
0.0
 11
146.9024355568066
 21
310.7438786369456
 31
0.0
  0
LINE
  5
25ED
330
25EA
100
AcDbEntity
  8
DIM
 62
     5
100
AcDbLine
 10
203.9024355568066
 20
308.7438786369456
 30
0.0
 11
149.9024355568066
 21
308.7438786369456
 31
0.0
  0
SOLID
  5
25EE
330
25EA
100
AcDbEntity
  8
DIM
 62
     5
100
AcDbTrace
 10
203.9024355568066
 20
309.2438786369456
 30
0.0
 11
203.9024355568066
 21
308.2438786369456
 31
0.0
 12
206.9024355568066
 22
308.7438786369456
 32
0.0
 13
206.9024355568066
 23
308.7438786369456
 33
0.0
  0
SOLID
  5
25EF
330
25EA
100
AcDbEntity
  8
DIM
 62
     5
100
AcDbTrace
 10
149.9024355568066
 20
309.2438786369456
 30
0.0
 11
149.9024355568066
 21
308.2438786369456
 31
0.0
 12
146.9024355568066
 22
308.7438786369456
 32
0.0
 13
146.9024355568066
 23
308.7438786369456
 33
0.0
  0
MTEXT
  5
25F0
330
25EA
100
AcDbEntity
  8
DIM
 62
     5
100
AcDbMText
 10
176.9024355568066
 20
311.7438786369456
 30
0.0
 40
3.0
 41
0.0
 71
     5
 72
     1
  1
\A1;60
1001
ACAD
1000
MTEXTBEGIN
1070
    73
1070
     1
1070
    44
1040
1.0
1070
    74
1070
     0
1000
MTEXTEND
  0
POINT
  5
25F1
330
25EA
100
AcDbEntity
  8
DEFPOINTS
 62
     0
100
AcDbPoint
 10
206.9024355568066
 20
293.9911433583479
 30
0.0
  0
POINT
  5
25F2
330
25EA
100
AcDbEntity
  8
DEFPOINTS
 62
     0
100
AcDbPoint
 10
146.9024355568066
 20
293.2411433583479
 30
0.0
  0
POINT
  5
25F3
330
25EA
100
AcDbEntity
  8
DEFPOINTS
 62
     0
100
AcDbPoint
 10
146.9024355568066
 20
308.7438786369456
 30
0.0
  0
ENDBLK
  5
25F5
330
25EA
100
AcDbEntity
  8
0
100
AcDbBlockEnd
  0
ENDSEC
  0
SECTION
  2
ENTITIES
  0
LINE
  5
20
330
229C
100
AcDbEntity
  8
0
 62
     4
100
AcDbLine
 10
9.454342871909375
 20
339.2808219178082
 30
0.0
 11
392.3465185689725
 21
339.2808219178083
 31
0.0
  0
LINE
  5
53
330
229C
100
AcDbEntity
  8
0
 62
     4
100
AcDbLine
 10
9.454342871909375
 20
9.123287671232873
 30
0.0
 11
9.454342871909375
 21
339.2808219178082
 31
0.0
  0
LINE
  5
F1
330
229C
100
AcDbEntity
  8
0
100
AcDbLine
 10
285.1753355834984
 20
240.2911433530379
 30
0.0
 11
285.1753355834984
 21
219.991143346948
 31
0.0
  0
LINE
  5
F4
330
229C
100
AcDbEntity
  8
0
100
AcDbLine
 10
274.3753355802585
 20
238.2911433524379
 30
0.0
 11
274.3753355802585
 21
220.091143346978
 31
0.0
  0
LINE
  5
138
330
229C
100
AcDbEntity
  8
0
100
AcDbLine
 10
82.37533553423844
 20
238.2911433524379
 30
0.0
 11
82.37533553423844
 21
220.091143346978
 31
0.0
  0
LINE
  5
139
330
229C
100
AcDbEntity
  8
0
100
AcDbLine
 10
71.57533553099842
 20
240.2911433530379
 30
0.0
 11
71.57533553099842
 21
219.991143346948
 31
0.0
  0
LINE
  5
1FB
330
229C
100
AcDbEntity
  8
CENTER
  6
CENTER
100
AcDbLine
 10
64.05630710829115
 20
96.84829727367549
 30
0.0
 11
290.3803932574991
 21
96.84829727367555
 31
0.0
1001
ACAD
1000
ASC_BOUNDS
1002
{
1070
    19
1002
}
  0
LINE
  5
1FD
330
229C
100
AcDbEntity
  8
0
100
AcDbLine
 10
265.1753355774984
 20
220.0911433469779
 30
0.0
 11
91.57533553699847
 21
220.0911433469779
 31
0.0
1001
ACAD
1000
ASC_BOUNDS
1002
{
1070
    19
1005
0
1005
0
1005
0
1005
0
1005
0
1002
}
  0
LINE
  5
36E
330
229C
100
AcDbEntity
  8
0
100
AcDbLine
 10
263.7024355770564
 20
58.94829726230551
 30
0.0
 11
90.10243556280659
 21
58.94829726230543
 31
0.0
1001
ACAD
1000
ASC_BOUNDS
1002
{
1070
    19
1005
0
1005
0
1005
0
1005
0
1005
0
1002
}
  0
LINE
  5
373
330
229C
100
AcDbEntity
  8
CENTER
  6
CENTER
100
AcDbLine
 10
176.9024355568066
 20
55.42617414105237
 30
0.0
 11
176.9024355568066
 21
179.0561545396229
 31
0.0
  0
LINE
  5
376
330
229C
100
AcDbEntity
  8
0
100
AcDbLine
 10
70.10243555680659
 20
96.84829727367549
 30
0.0
 11
70.10243555680659
 21
60.94829726290555
 31
0.0
  0
LINE
  5
379
330
229C
100
AcDbEntity
  8
0
  6
CONTINUOUS
 62
     7
100
AcDbLine
 10
68.10243555620662
 20
81.34829726902541
 30
0.0
 11
68.10243555620662
 21
115.8484699306188
 31
0.0
  0
LINE
  5
37A
330
229C
100
AcDbEntity
  8
0
  6
CONTINUOUS
 62
     7
100
AcDbLine
 10
67.10243555590659
 20
81.34829726902546
 30
0.0
 11
67.10243555590659
 21
114.8484699303187
 31
0.0
  0
LINE
  5
3F0
330
229C
100
AcDbEntity
  8
0
100
AcDbLine
 10
78.90243555944659
 20
79.14829726836558
 30
0.0
 11
70.10243555680659
 21
79.14829726836558
 31
0.0
  0
LINE
  5
3F1
330
229C
100
AcDbEntity
  8
0
  6
CONTINUOUS
 62
     7
100
AcDbLine
 10
90.00243556277661
 20
79.14829726836558
 30
0.0
 11
70.10243555680659
 21
79.14829726836558
 31
0.0
  0
ARC
  5
3F2
330
229C
100
AcDbEntity
  8
0
100
AcDbCircle
 10
72.34186641065747
 20
60.94829726290555
 30
0.0
 40
2.0000000006
100
AcDbArc
 50
180.0
 51
270.0
  0
LINE
  5
3F3
330
229C
100
AcDbEntity
  8
CENTER
  6
CENTER
100
AcDbLine
 10
53.3973351588167
 20
68.59829727367548
 30
0.0
 11
92.04806192946875
 21
68.59829727367548
 31
0.0
  0
LINE
  5
3F6
330
229C
100
AcDbEntity
  8
0
100
AcDbLine
 10
80.90243556004656
 20
79.14829726836558
 30
0.0
 11
80.90243556004656
 21
58.94829726230558
 31
0.0
  0
LINE
  5
3F9
330
229C
100
AcDbEntity
  8
0
100
AcDbLine
 10
90.10243556280682
 20
134.7482972850454
 30
0.0
 11
90.10243556280682
 21
58.94829726230551
 31
0.0
1001
ACAD
1000
ASC_BOUNDS
1002
{
1070
    19
1005
0
1005
0
1005
0
1005
0
1002
}
  0
LINE
  5
3FA
330
229C
100
AcDbEntity
  8
0
100
AcDbLine
 10
90.10243556280659
 20
58.94829726230558
 30
0.0
 11
72.10243555740664
 21
58.94829726230558
 31
0.0
  0
LINE
  5
41B
330
229C
100
AcDbEntity
  8
CENTER
  6
CENTER
100
AcDbLine
 10
75.95024297179003
 20
88.34829727112557
 30
0.0
 11
87.65208780690636
 21
88.34829727112557
 31
0.0
  0
LINE
  5
41E
330
229C
100
AcDbEntity
  8
CENTER
  6
CENTER
100
AcDbLine
 10
83.10243556070663
 20
93.46635523941236
 30
0.0
 11
83.10243556070663
 21
83.92602262686455
 31
0.0
  0
LINE
  5
41F
330
229C
100
AcDbEntity
  8
0
100
AcDbLine
 10
83.10243556070663
 20
89.84829727157558
 30
0.0
 11
83.10243556070663
 21
86.84829727067564
 31
0.0
  0
LINE
  5
420
330
229C
100
AcDbEntity
  8
0
100
AcDbLine
 10
81.60243556025665
 20
88.34829727112566
 30
0.0
 11
84.6024355611566
 21
88.34829727112566
 31
0.0
  0
LINE
  5
421
330
229C
100
AcDbEntity
  8
DIM
100
AcDbLine
 10
84.29292099876386
 20
91.85118473331661
 30
0.0
 11
84.15821372866185
 21
91.64778711235729
 31
0.0
  0
CIRCLE
  5
423
330
229C
100
AcDbEntity
  8
DIM
100
AcDbCircle
 10
83.10243556070663
 20
88.34829727112557
 30
0.0
 40
3.250000000975
  0
CIRCLE
  5
424
330
229C
100
AcDbEntity
  8
DIM
100
AcDbCircle
 10
83.10243556070663
 20
88.34829727112566
 30
0.0
 40
3.550000001064999
  0
LINE
  5
425
330
229C
100
AcDbEntity
  8
CENTER
  6
CENTER
100
AcDbLine
 10
79.89112741507693
 20
87.84829727097553
 30
0.0
 11
86.31374370633631
 21
87.84829727097562
 31
0.0
  0
LINE
  5
426
330
229C
100
AcDbEntity
  8
CENTER
  6
CENTER
100
AcDbLine
 10
79.89112741507693
 20
88.84829727127552
 30
0.0
 11
86.31374370633631
 21
88.84829727127552
 31
0.0
  0
LINE
  5
4ED
330
229C
100
AcDbEntity
  8
0
100
AcDbLine
 10
263.7024355770564
 20
134.7482972850459
 30
0.0
 11
90.10243556280659
 21
134.7482972850455
 31
0.0
1001
ACAD
1000
ASC_BOUNDS
1002
{
1070
    19
1005
0
1005
0
1005
0
1005
0
1005
0
1002
}
  0
ARC
  5
4EE
330
229C
100
AcDbEntity
  8
0
100
AcDbCircle
 10
72.10243555740664
 20
132.7482972844455
 30
0.0
 40
2.0000000006
100
AcDbArc
 50
90.0
 51
180.0
  0
LINE
  5
4EF
330
229C
100
AcDbEntity
  8
CENTER
  6
CENTER
100
AcDbLine
 10
69.76425903319466
 20
125.0982972736754
 30
0.0
 11
92.04806192946875
 21
125.0982972736754
 31
0.0
1001
ACAD
1000
ASC_BOUNDS
1002
{
1070
    19
1002
}
  0
LINE
  5
4F0
330
229C
100
AcDbEntity
  8
0
100
AcDbLine
 10
78.90243555944659
 20
114.5482972789857
 30
0.0
 11
70.10243555680659
 21
114.5482972789856
 31
0.0
  0
LINE
  5
4F1
330
229C
100
AcDbEntity
  8
0
  6
CONTINUOUS
 62
     7
100
AcDbLine
 10
90.00243556277661
 20
114.5482972789855
 30
0.0
 11
70.10243555680659
 21
114.5482972789856
 31
0.0
  0
LINE
  5
4F2
330
229C
100
AcDbEntity
  8
0
100
AcDbLine
 10
70.10243555680659
 20
132.7482972844455
 30
0.0
 11
70.10243555680659
 21
96.84829727367549
 31
0.0
  0
LINE
  5
4F3
330
229C
100
AcDbEntity
  8
0
 62
     7
100
AcDbLine
 10
67.10243555590659
 20
114.8484699303188
 30
0.0
 11
68.10243555620662
 21
115.8484699306188
 31
0.0
  0
LINE
  5
4F4
330
229C
100
AcDbEntity
  8
0
 62
     7
100
AcDbLine
 10
70.10243555680659
 20
115.8484699306188
 30
0.0
 11
68.10243555620662
 21
115.8484699306188
 31
0.0
  0
LINE
  5
4F5
330
229C
100
AcDbEntity
  8
0
100
AcDbLine
 10
80.90243556004656
 20
134.7482972850455
 30
0.0
 11
80.90243556004656
 21
114.5482972789855
 31
0.0
  0
CIRCLE
  5
4FE
330
229C
100
AcDbEntity
  8
0
  6
CONTINUOUS
 62
     7
100
AcDbCircle
 10
80.15243555982157
 20
103.8482972757756
 30
0.0
 40
3.000000000899999
  0
LINE
  5
4FF
330
229C
100
AcDbEntity
  8
CENTER
  6
CENTER
100
AcDbLine
 10
80.10243555980663
 20
95.76712619647446
 30
0.0
 11
80.10243555980663
 21
111.042944515037
 31
0.0
  0
ARC
  5
500
330
229C
100
AcDbEntity
  8
0
  6
CONTINUOUS
 62
     7
100
AcDbCircle
 10
80.15243555982157
 20
103.8482972757756
 30
0.0
 40
4.0000000012
100
AcDbArc
 50
195.2837479999999
 51
103.512582
  0
CIRCLE
  5
501
330
229C
100
AcDbEntity
  8
DIM
100
AcDbCircle
 10
80.21209868753373
 20
103.8482972757756
 30
0.0
 40
5.0000000015
  0
CIRCLE
  5
503
330
229C
100
AcDbEntity
  8
0
 62
     7
100
AcDbCircle
 10
80.15243555982157
 20
103.8482972757756
 30
0.0
 40
1.500000000449999
  0
LINE
  5
504
330
229C
100
AcDbEntity
  8
CENTER
  6
CENTER
100
AcDbLine
 10
72.51636339319566
 20
103.8482972757756
 30
0.0
 11
86.68760022371726
 21
103.8482972757756
 31
0.0
  0
LINE
  5
512
330
229C
100
AcDbEntity
  8
0
100
AcDbLine
 10
90.10243556280659
 20
134.7482972850455
 30
0.0
 11
72.10243555740664
 21
134.7482972850455
 31
0.0
  0
LINE
  5
522
330
229C
100
AcDbEntity
  8
0
100
AcDbLine
 10
185.4024355593566
 20
136.9482972857055
 30
0.0
 11
185.4024355593566
 21
174.5482972969856
 31
0.0
  0
LINE
  5
523
330
229C
100
AcDbEntity
  8
0
100
AcDbLine
 10
168.4024355542566
 20
136.9482972857054
 30
0.0
 11
168.4024355542566
 21
174.5482972969856
 31
0.0
  0
ARC
  5
524
330
229C
100
AcDbEntity
  8
0
100
AcDbCircle
 10
176.9024355568066
 20
143.5482972876856
 30
0.0
 40
3.000000000899943
100
AcDbArc
 50
180.0
 51
0.0
  0
LINE
  5
5AF
330
229C
100
AcDbEntity
  8
0
100
AcDbLine
 10
191.7024355612462
 20
136.9482972857056
 30
0.0
 11
162.1024355523664
 21
136.9482972857053
 31
0.0
1001
ACAD
1000
ASC_BOUNDS
1002
{
1070
    19
1005
0
1005
0
1005
0
1005
0
1005
0
1002
}
  0
LINE
  5
5B2
330
229C
100
AcDbEntity
  8
0
100
AcDbLine
 10
161.9024355523064
 20
136.7482972856455
 30
0.0
 11
162.1024355523664
 21
136.9482972857053
 31
0.0
1001
ACAD
1000
ASC_BOUNDS
1002
{
1070
    19
1002
}
  0
LINE
  5
5B4
330
229C
100
AcDbEntity
  8
0
100
AcDbLine
 10
161.9024355523064
 20
134.7482972850456
 30
0.0
 11
161.9024355523064
 21
136.7482972856455
 31
0.0
1001
ACAD
1000
ASC_BOUNDS
1002
{
1070
    19
1002
}
  0
LINE
  5
5B9
330
229C
100
AcDbEntity
  8
0
100
AcDbLine
 10
179.9024355577066
 20
143.5482972876856
 30
0.0
 11
179.9024355577066
 21
167.5482972948856
 31
0.0
  0
LINE
  5
5BA
330
229C
100
AcDbEntity
  8
0
100
AcDbLine
 10
173.9024355559065
 20
143.5482972876856
 30
0.0
 11
173.9024355559065
 21
167.5482972948856
 31
0.0
  0
LINE
  5
5BB
330
229C
100
AcDbEntity
  8
0
100
AcDbLine
 10
184.4024355590565
 20
175.5482972972855
 30
0.0
 11
169.4024355545566
 21
175.5482972972855
 31
0.0
  0
LINE
  5
5BC
330
229C
100
AcDbEntity
  8
0
100
AcDbLine
 10
185.4024355593566
 20
174.5482972969856
 30
0.0
 11
168.4024355542566
 21
174.5482972969856
 31
0.0
  0
LINE
  5
5BD
330
229C
100
AcDbEntity
  8
0
100
AcDbLine
 10
169.4024355545566
 20
175.5482972972855
 30
0.0
 11
168.4024355542566
 21
174.5482972969856
 31
0.0
  0
ARC
  5
5BE
330
229C
100
AcDbEntity
  8
0
100
AcDbCircle
 10
176.9024355568066
 20
167.5482972948856
 30
0.0
 40
3.000000000899999
100
AcDbArc
 50
0.0
 51
180.0
  0
LINE
  5
5BF
330
229C
100
AcDbEntity
  8
0
100
AcDbLine
 10
185.4024355593566
 20
174.5482972969856
 30
0.0
 11
184.4024355590565
 21
175.5482972972855
 31
0.0
  0
LINE
  5
5CE
330
229C
100
AcDbEntity
  8
0
100
AcDbLine
 10
91.57533553699847
 20
220.091143346978
 30
0.0
 11
73.57533553159846
 21
220.091143346978
 31
0.0
  0
LINE
  5
5CF
330
229C
100
AcDbEntity
  8
CENTER
  6
CENTER
100
AcDbLine
 10
54.13362194940311
 20
229.4911433497978
 30
0.0
 11
93.52096190366063
 21
229.4911433497978
 31
0.0
  0
ARC
  5
5D2
330
229C
100
AcDbEntity
  8
0
100
AcDbCircle
 10
73.57533553159846
 20
222.091143347578
 30
0.0
 40
2.0000000006
100
AcDbArc
 50
180.0
 51
270.0
  0
LINE
  5
600
330
229C
100
AcDbEntity
  8
0
100
AcDbLine
 10
283.7024355830564
 20
96.84829727367555
 30
0.0
 11
283.7024355830564
 21
59.34829726242546
 31
0.0
  0
LINE
  5
601
330
229C
100
AcDbEntity
  8
DIM
  6
CONTINUOUS
 62
     5
100
AcDbLine
 10
309.5989459168045
 20
130.4625829980454
 30
0.0
 11
309.5989459168045
 21
63.23401154930559
 31
0.0
  0
TEXT
  5
602
330
229C
100
AcDbEntity
  8
DIM
 62
     5
100
AcDbText
 10
308.4917272795117
 20
89.38831287867769
 30
0.0
 40
3.0
  1
□ 76
 50
90.0
  7
CHINESET
100
AcDbText
  0
LINE
  5
604
330
229C
100
AcDbEntity
  8
0
  6
CONTINUOUS
 62
     7
100
AcDbLine
 10
285.7024355836564
 20
115.8484699306186
 30
0.0
 11
285.7024355836565
 21
81.59829727757545
 31
0.0
  0
LINE
  5
605
330
229C
100
AcDbEntity
  8
0
  6
CONTINUOUS
 62
     7
100
AcDbLine
 10
286.7024355839564
 20
114.8484699303186
 30
0.0
 11
286.7024355839564
 21
81.59829727757552
 31
0.0
  0
CIRCLE
  5
606
330
229C
100
AcDbEntity
  8
DIM
100
AcDbCircle
 10
273.5927724523294
 20
89.84829727157551
 30
0.0
 40
5.0000000015
  0
LINE
  5
607
330
229C
100
AcDbEntity
  8
CENTER
  6
CENTER
100
AcDbLine
 10
273.7024355800564
 20
97.92946835087661
 30
0.0
 11
273.7024355800564
 21
82.65365003231408
 31
0.0
  0
CIRCLE
  5
68D
330
229C
100
AcDbEntity
  8
0
 62
     7
100
AcDbCircle
 10
273.6524355800414
 20
89.84829727157551
 30
0.0
 40
1.500000000449999
  0
ARC
  5
68E
330
229C
100
AcDbEntity
  8
0
  6
CONTINUOUS
 62
     7
100
AcDbCircle
 10
273.6524355800414
 20
89.84829727157551
 30
0.0
 40
4.0000000012
100
AcDbArc
 50
15.28374799999998
 51
283.512582
  0
CIRCLE
  5
68F
330
229C
100
AcDbEntity
  8
0
  6
CONTINUOUS
 62
     7
100
AcDbCircle
 10
273.6524355800414
 20
89.84829727157551
 30
0.0
 40
3.000000000899999
  0
LINE
  5
690
330
229C
100
AcDbEntity
  8
0
  6
CONTINUOUS
 62
     7
100
AcDbLine
 10
263.8024355770864
 20
79.14829726836558
 30
0.0
 11
283.7024355830564
 21
79.1482972683655
 31
0.0
  0
LINE
  5
691
330
229C
100
AcDbEntity
  8
CENTER
  6
CENTER
100
AcDbLine
 10
281.2885077466674
 20
89.84829727157551
 30
0.0
 11
267.1172709161457
 21
89.84829727157551
 31
0.0
  0
LINE
  5
695
330
229C
100
AcDbEntity
  8
0
100
AcDbLine
 10
263.7024355770564
 20
58.94829726230558
 30
0.0
 11
281.7024355824564
 21
58.94829726230558
 31
0.0
  0
LINE
  5
696
330
229C
100
AcDbEntity
  8
CENTER
  6
CENTER
100
AcDbLine
 10
286.1750492604837
 20
68.59829727367554
 30
0.0
 11
261.7568092103943
 21
68.59829727367554
 31
0.0
  0
LINE
  5
6EB
330
229C
100
AcDbEntity
  8
0
100
AcDbLine
 10
263.7024355770564
 20
134.7482972850455
 30
0.0
 11
263.7024355770564
 21
58.94829726230551
 31
0.0
1001
ACAD
1000
ASC_BOUNDS
1002
{
1070
    19
1005
0
1005
0
1005
0
1005
0
1005
65E
1005
65E
1005
65E
1005
65E
1002
}
  0
LINE
  5
6EC
330
229C
100
AcDbEntity
  8
0
100
AcDbLine
 10
272.9024355798166
 20
79.14829726836558
 30
0.0
 11
272.9024355798165
 21
58.94829726230558
 31
0.0
  0
LINE
  5
71C
330
229C
100
AcDbEntity
  8
0
100
AcDbLine
 10
273.7024355800564
 20
93.84829727277551
 30
0.0
 11
273.7024355800564
 21
86.84829727067555
 31
0.0
  0
LINE
  5
724
330
229C
100
AcDbEntity
  8
DIM
  6
CONTINUOUS
 62
     5
100
AcDbLine
 10
283.1310070114565
 20
58.94829726230558
 30
0.0
 11
312.4560887748045
 21
58.94829726230558
 31
0.0
  0
ARC
  5
725
330
229C
100
AcDbEntity
  8
0
100
AcDbCircle
 10
281.7024355824564
 20
60.94829726290555
 30
0.0
 40
2.0000000006
100
AcDbArc
 50
270.0
 51
306.8698976458369
  0
SOLID
  5
726
330
229C
100
AcDbEntity
  8
DIM
  6
CONTINUOUS
 62
     5
100
AcDbTrace
 10
308.8846602023045
 20
63.48401155785563
 30
0.0
 11
310.3132316313045
 21
63.48401155785563
 31
0.0
 12
309.5989459168045
 22
59.19829727085562
 32
0.0
 13
309.5989459168045
 23
59.19829727085562
 33
0.0
  0
LINE
  5
74B
330
229C
100
AcDbEntity
  8
CENTER
  6
CENTER
100
AcDbLine
 10
277.854628168073
 20
105.3482972762255
 30
0.0
 11
266.1527833329567
 21
105.3482972762255
 31
0.0
  0
LINE
  5
74C
330
229C
100
AcDbEntity
  8
0
  6
CONTINUOUS
 62
     7
100
AcDbLine
 10
263.8024355770864
 20
114.5482972789855
 30
0.0
 11
283.7024355830564
 21
114.5482972789855
 31
0.0
  0
LINE
  5
74D
330
229C
100
AcDbEntity
  8
0
100
AcDbLine
 10
282.8649355828053
 20
131.4764222755889
 30
0.0
 11
272.9024355798165
 21
131.4764222755889
 31
0.0
  0
LINE
  5
74E
330
229C
100
AcDbEntity
  8
0
100
AcDbLine
 10
282.8649355828053
 20
118.720172271762
 30
0.0
 11
272.9024355798165
 21
118.720172271762
 31
0.0
1001
ACAD
1000
ASC_BOUNDS
1002
{
1070
    19
1002
}
  0
LINE
  5
750
330
229C
100
AcDbEntity
  8
CENTER
  6
CENTER
100
AcDbLine
 10
286.3979490356971
 20
125.0982972736755
 30
0.0
 11
261.7568092103943
 21
125.0982972736755
 31
0.0
  0
LINE
  5
751
330
229C
100
AcDbEntity
  8
0
100
AcDbLine
 10
263.7024355770564
 20
134.7482972850455
 30
0.0
 11
281.7024355824564
 21
134.7482972850455
 31
0.0
  0
LINE
  5
7BB
330
229C
100
AcDbEntity
  8
0
100
AcDbLine
 10
191.9024355613066
 20
136.7482972856453
 30
0.0
 11
191.7024355612465
 21
136.9482972857053
 31
0.0
1001
ACAD
1000
ASC_BOUNDS
1002
{
1070
    19
1002
}
  0
LINE
  5
7BD
330
229C
100
AcDbEntity
  8
0
100
AcDbLine
 10
191.9024355613066
 20
134.7482972850455
 30
0.0
 11
191.9024355613066
 21
136.7482972856453
 31
0.0
1001
ACAD
1000
ASC_BOUNDS
1002
{
1070
    19
1002
}
  0
LINE
  5
7D6
330
229C
100
AcDbEntity
  8
0
100
AcDbLine
 10
272.9024355798165
 20
134.7482972850455
 30
0.0
 11
272.9024355798166
 21
114.5482972789855
 31
0.0
  0
LINE
  5
7E4
330
229C
100
AcDbEntity
  8
CENTER
  6
CENTER
100
AcDbLine
 10
270.7024355791564
 20
100.2302393079387
 30
0.0
 11
270.7024355791564
 21
109.7705719204865
 31
0.0
  0
CIRCLE
  5
7E5
330
229C
100
AcDbEntity
  8
DIM
100
AcDbCircle
 10
270.7024355791564
 20
105.3482972762255
 30
0.0
 40
3.550000001064999
  0
CIRCLE
  5
7E6
330
229C
100
AcDbEntity
  8
DIM
100
AcDbCircle
 10
270.7024355791564
 20
105.3482972762254
 30
0.0
 40
3.250000000975
  0
LINE
  5
7F2
330
229C
100
AcDbEntity
  8
0
100
AcDbLine
 10
273.913743724786
 20
105.8482972763755
 30
0.0
 11
267.4911274335268
 21
105.8482972763755
 31
0.0
  0
LINE
  5
7F3
330
229C
100
AcDbEntity
  8
0
100
AcDbLine
 10
273.9137437247861
 20
104.8482972760755
 30
0.0
 11
267.4911274335268
 21
104.8482972760755
 31
0.0
  0
LINE
  5
81E
330
229C
100
AcDbEntity
  8
0
100
AcDbLine
 10
283.7024355830564
 20
132.7482972844455
 30
0.0
 11
283.7024355830564
 21
96.84829727367555
 31
0.0
  0
LINE
  5
81F
330
229C
100
AcDbEntity
  8
0
100
AcDbLine
 10
282.8649355828053
 20
131.4764222755889
 30
0.0
 11
282.8649355828053
 21
118.720172271762
 31
0.0
  0
LINE
  5
821
330
229C
100
AcDbEntity
  8
0
100
AcDbLine
 10
274.9024355804166
 20
114.5482972789856
 30
0.0
 11
283.7024355830564
 21
114.5482972789856
 31
0.0
  0
LINE
  5
822
330
229C
100
AcDbEntity
  8
0
 62
     7
100
AcDbLine
 10
283.7024355830564
 20
115.8484699306186
 30
0.0
 11
285.7024355836564
 21
115.8484699306186
 31
0.0
  0
LINE
  5
823
330
229C
100
AcDbEntity
  8
0
 62
     7
100
AcDbLine
 10
285.7024355836564
 20
115.8484699306186
 30
0.0
 11
286.7024355839564
 21
114.8484699303186
 31
0.0
  0
LINE
  5
824
330
229C
100
AcDbEntity
  8
DIM
  6
CONTINUOUS
 62
     5
100
AcDbLine
 10
283.1310070114565
 20
134.7482972850455
 30
0.0
 11
312.4560887748045
 21
134.7482972850455
 31
0.0
  0
ARC
  5
825
330
229C
100
AcDbEntity
  8
0
100
AcDbCircle
 10
281.7024355824564
 20
132.7482972844455
 30
0.0
 40
2.0000000006
100
AcDbArc
 50
0.0
 51
90.0
  0
SOLID
  5
826
330
229C
100
AcDbEntity
  8
DIM
  6
CONTINUOUS
 62
     5
100
AcDbTrace
 10
308.8846602023045
 20
130.4625829980454
 30
0.0
 11
310.3132316313045
 21
130.4625829980454
 31
0.0
 12
309.5989459168045
 22
134.7482972850455
 32
0.0
 13
309.5989459168045
 23
134.7482972850455
 33
0.0
  0
LINE
  5
828
330
229C
100
AcDbEntity
  8
0
100
AcDbLine
 10
265.1753355774984
 20
220.091143346978
 30
0.0
 11
283.1753355828984
 21
220.091143346978
 31
0.0
  0
LINE
  5
829
330
229C
100
AcDbEntity
  8
CENTER
  6
CENTER
100
AcDbLine
 10
301.3911123799904
 20
229.4911433497978
 30
0.0
 11
263.7239264740455
 21
229.4911433497978
 31
0.0
  0
ARC
  5
857
330
229C
100
AcDbEntity
  8
0
100
AcDbCircle
 10
283.1753355828984
 20
222.091143347578
 30
0.0
 40
2.0000000006
100
AcDbArc
 50
270.0
 51
0.0
  0
LINE
  5
A26
330
229C
100
AcDbEntity
  8
CENTER
  6
CENTER
100
AcDbLine
 10
67.61595775888356
 20
257.9911433583479
 30
0.0
 11
289.0070104480473
 21
257.9911433583479
 31
0.0
  0
LINE
  5
A29
330
229C
100
AcDbEntity
  8
0
100
AcDbLine
 10
265.1753355774983
 20
295.8911433697178
 30
0.0
 11
91.57533553699847
 21
295.8911433697178
 31
0.0
1001
ACAD
1000
ASC_BOUNDS
1002
{
1070
    19
1005
0
1005
0
1005
0
1005
0
1005
0
1002
}
  0
LINE
  5
A3A
330
229C
100
AcDbEntity
  8
0
 62
     7
100
AcDbLine
 10
68.57533553009847
 20
275.9913160149912
 30
0.0
 11
69.57533553039849
 21
276.9913160152912
 31
0.0
  0
LINE
  5
A3B
330
229C
100
AcDbEntity
  8
0
  6
CONTINUOUS
 62
     7
100
AcDbLine
 10
69.57533553039849
 20
238.9909707014048
 30
0.0
 11
69.57533553039849
 21
276.9913160152912
 31
0.0
  0
ARC
  5
A3E
330
229C
100
AcDbEntity
  8
0
100
AcDbCircle
 10
80.37533553363841
 20
277.6911433642581
 30
0.0
 40
2.0000000006
100
AcDbArc
 50
270.0000000000001
 51
0.0
  0
LINE
  5
A3F
330
229C
100
AcDbEntity
  8
0
100
AcDbLine
 10
71.57533553099842
 20
295.9911433697479
 30
0.0
 11
71.57533553099842
 21
275.6911433636579
 31
0.0
  0
LINE
  5
A40
330
229C
100
AcDbEntity
  8
0
100
AcDbLine
 10
91.57533553699847
 20
295.8911433697178
 30
0.0
 11
91.57533553699847
 21
220.0911433469779
 31
0.0
1001
ACAD
1000
ASC_BOUNDS
1002
{
1070
    19
1005
0
1005
0
1005
0
1005
0
1005
0
1002
}
  0
LINE
  5
A42
330
229C
100
AcDbEntity
  8
0
 62
     7
100
AcDbLine
 10
71.57533553099842
 20
238.9909707014048
 30
0.0
 11
69.57533553039849
 21
238.9909707014048
 31
0.0
  0
LINE
  5
A43
330
229C
100
AcDbEntity
  8
0
  6
CONTINUOUS
 62
     7
100
AcDbLine
 10
68.57533553009847
 20
239.9909707017048
 30
0.0
 11
68.57533553009847
 21
275.9913160149912
 31
0.0
  0
LINE
  5
A44
330
229C
100
AcDbEntity
  8
0
 62
     7
100
AcDbLine
 10
69.57533553039849
 20
238.9909707014048
 30
0.0
 11
68.57533553009847
 21
239.9909707017048
 31
0.0
  0
LINE
  5
A4B
330
229C
100
AcDbEntity
  8
0
100
AcDbLine
 10
71.57533553099842
 20
275.6911433636579
 30
0.0
 11
71.57533553099842
 21
240.2911433530379
 31
0.0
  0
LINE
  5
A50
330
229C
100
AcDbEntity
  8
0
100
AcDbLine
 10
80.37533553363841
 20
240.2911433530379
 30
0.0
 11
71.57533553099842
 21
240.2911433530379
 31
0.0
  0
ARC
  5
A51
330
229C
100
AcDbEntity
  8
0
100
AcDbCircle
 10
80.37533553363841
 20
238.2911433524379
 30
0.0
 40
2.0000000006
100
AcDbArc
 50
0.0
 51
90.00000000000017
  0
LINE
  5
A69
330
229C
100
AcDbEntity
  8
0
100
AcDbLine
 10
80.37533553363841
 20
275.691143363658
 30
0.0
 11
71.57533553099842
 21
275.6911433636579
 31
0.0
  0
LINE
  5
A7A
330
229C
100
AcDbEntity
  8
0
 62
     7
100
AcDbLine
 10
71.57533553099842
 20
276.9913160152912
 30
0.0
 11
69.57533553039849
 21
276.9913160152912
 31
0.0
  0
LINE
  5
A7B
330
229C
100
AcDbEntity
  8
0
100
AcDbLine
 10
91.57533553699847
 20
295.891143369718
 30
0.0
 11
73.57533553159846
 21
295.891143369718
 31
0.0
  0
LINE
  5
A7C
330
229C
100
AcDbEntity
  8
CENTER
  6
CENTER
100
AcDbLine
 10
54.67475528305652
 20
286.4911433668979
 30
0.0
 11
93.52096190366063
 21
286.4911433668979
 31
0.0
1001
ACAD
1000
ASC_BOUNDS
1002
{
1070
    19
1002
}
  0
LINE
  5
A7D
330
229C
100
AcDbEntity
  8
0
100
AcDbLine
 10
82.37533553423844
 20
295.891143369718
 30
0.0
 11
82.37533553423844
 21
277.6911433642581
 31
0.0
  0
ARC
  5
A82
330
229C
100
AcDbEntity
  8
0
100
AcDbCircle
 10
73.57533553159846
 20
293.891143369118
 30
0.0
 40
2.0000000006
100
AcDbArc
 50
90.0
 51
180.0
  0
LINE
  5
B2B
330
229C
100
AcDbEntity
  8
CENTER
  6
CENTER
100
AcDbLine
 10
176.9024355568066
 20
301.4471927480311
 30
0.0
 11
176.9024355568066
 21
214.5350939686648
 31
0.0
  0
LINE
  5
1912
330
229C
100
AcDbEntity
  8
CENTER
  6
CENTER
100
AcDbLine
 10
300.0953042286671
 20
286.4911433668979
 30
0.0
 11
263.2297092108363
 21
286.4911433668979
 31
0.0
  0
LINE
  5
1913
330
229C
100
AcDbEntity
  8
0
100
AcDbLine
 10
265.1753355774984
 20
295.891143369718
 30
0.0
 11
283.1753355828984
 21
295.891143369718
 31
0.0
  0
ARC
  5
1914
330
229C
100
AcDbEntity
  8
0
100
AcDbCircle
 10
276.3753355808586
 20
238.2911433524379
 30
0.0
 40
2.0000000006
100
AcDbArc
 50
89.99999999999984
 51
180.0
  0
ARC
  5
1916
330
229C
100
AcDbEntity
  8
0
100
AcDbCircle
 10
276.3753355808586
 20
277.6911433642579
 30
0.0
 40
2.0000000006
100
AcDbArc
 50
180.0
 51
269.9999999999998
  0
LINE
  5
191D
330
229C
100
AcDbEntity
  8
0
100
AcDbLine
 10
265.1753355774983
 20
220.0911433469779
 30
0.0
 11
265.1753355774984
 21
295.8911433697179
 31
0.0
1001
ACAD
1000
ASC_BOUNDS
1002
{
1070
    19
1005
0
1005
0
1005
0
1005
0
1005
0
1002
}
  0
LINE
  5
1A98
330
229C
100
AcDbEntity
  8
0
100
AcDbLine
 10
274.3753355802585
 20
295.891143369718
 30
0.0
 11
274.3753355802585
 21
277.6911433642579
 31
0.0
  0
LINE
  5
1AA5
330
229C
100
AcDbEntity
  8
0
 62
     7
100
AcDbLine
 10
287.1753355840984
 20
276.991316015291
 30
0.0
 11
288.1753355843984
 21
275.991316014991
 31
0.0
  0
LINE
  5
1AA6
330
229C
100
AcDbEntity
  8
0
  6
CONTINUOUS
 62
     7
100
AcDbLine
 10
287.1753355840984
 20
276.991316015291
 30
0.0
 11
287.1753355840984
 21
238.9909707014046
 31
0.0
  0
LINE
  5
1AA7
330
229C
100
AcDbEntity
  8
0
100
AcDbLine
 10
285.1753355834984
 20
295.9911433697479
 30
0.0
 11
285.1753355834984
 21
275.6911433636579
 31
0.0
  0
LINE
  5
1AA8
330
229C
100
AcDbEntity
  8
0
  6
CONTINUOUS
 62
     7
100
AcDbLine
 10
288.1753355843984
 20
275.991316014991
 30
0.0
 11
288.1753355843984
 21
239.9909707017047
 31
0.0
  0
LINE
  5
1AA9
330
229C
100
AcDbEntity
  8
0
100
AcDbLine
 10
285.1753355834984
 20
275.6911433636579
 30
0.0
 11
285.1753355834984
 21
240.2911433530379
 31
0.0
  0
LINE
  5
1AAA
330
229C
100
AcDbEntity
  8
0
100
AcDbLine
 10
276.3753355808586
 20
240.2911433530379
 30
0.0
 11
285.1753355834984
 21
240.2911433530379
 31
0.0
  0
LINE
  5
1AAB
330
229C
100
AcDbEntity
  8
0
 62
     7
100
AcDbLine
 10
288.1753355843984
 20
239.9909707017046
 30
0.0
 11
287.1753355840984
 21
238.9909707014046
 31
0.0
  0
LINE
  5
1AAC
330
229C
100
AcDbEntity
  8
0
 62
     7
100
AcDbLine
 10
285.1753355834984
 20
238.9909707014046
 30
0.0
 11
287.1753355840984
 21
238.9909707014046
 31
0.0
  0
LINE
  5
1AAD
330
229C
100
AcDbEntity
  8
0
100
AcDbLine
 10
276.3753355808586
 20
275.6911433636579
 30
0.0
 11
285.1753355834984
 21
275.6911433636579
 31
0.0
  0
LINE
  5
1AB0
330
229C
100
AcDbEntity
  8
0
 62
     7
100
AcDbLine
 10
285.1753355834984
 20
276.991316015291
 30
0.0
 11
287.1753355840984
 21
276.991316015291
 31
0.0
  0
ARC
  5
1AB1
330
229C
100
AcDbEntity
  8
0
100
AcDbCircle
 10
283.1753355828984
 20
293.891143369118
 30
0.0
 40
2.0000000006
100
AcDbArc
 50
0.0
 51
90.0
  0
LINE
  5
1AC6
330
229C
100
AcDbEntity
  8
0
 62
     4
100
AcDbLine
 10
392.3465185689725
 20
339.2808219178084
 30
0.0
 11
392.3465185689726
 21
9.123287671232873
 31
0.0
  0
LINE
  5
1B00
330
229C
100
AcDbEntity
  8
0
 62
     4
100
AcDbLine
 10
392.3465185689726
 20
9.123287671232873
 30
0.0
 11
9.454342871909375
 21
9.123287671232873
 31
0.0
  0
LINE
  5
1B08
330
229C
100
AcDbEntity
  8
0
 62
     0
100
AcDbLine
 10
281.4500787806505
 20
119.2099934675497
 30
0.0
 11
276.8224021676048
 21
123.8376700805953
 31
0.0
  0
LINE
  5
1B09
330
229C
100
AcDbEntity
  8
0
 62
     0
100
AcDbLine
 10
282.1570557797311
 20
119.9393271181852
 30
0.0
 11
277.5517358182403
 21
124.5446470796759
 31
0.0
  0
LINE
  5
1B0A
330
229C
100
AcDbEntity
  8
0
 62
     0
100
AcDbLine
 10
282.6266066547086
 20
120.9060868929236
 30
0.0
 11
278.5184955929788
 21
125.0141979546535
 31
0.0
  0
LINE
  5
1B0B
330
229C
100
AcDbEntity
  8
0
 62
     0
100
AcDbLine
 10
282.7414135589011
 20
122.2275906384471
 30
0.0
 11
279.8707069236729
 21
125.0982972736755
 31
0.0
  0
LINE
  5
1B0C
330
229C
100
AcDbEntity
  8
0
 62
     0
100
AcDbLine
 10
280.5035893267221
 20
118.720172271762
 30
0.0
 11
276.3266841142468
 21
122.8970774842372
 31
0.0
  0
LINE
  5
1B0D
330
229C
100
AcDbEntity
  8
0
 62
     0
100
AcDbLine
 10
279.067278677006
 20
118.720172271762
 30
0.0
 11
276.1628629004905
 21
121.6245880482776
 31
0.0
  0
LINE
  5
1B0E
330
229C
100
AcDbEntity
  8
0
 62
     0
100
AcDbLine
 10
277.3625209204777
 20
119.2936127539879
 30
0.0
 11
282.0127574923616
 21
123.9438493258719
 31
0.0
  0
LINE
  5
1B0F
330
229C
100
AcDbEntity
  8
0
 62
     0
100
AcDbLine
 10
278.2697724222197
 20
118.7645536060138
 30
0.0
 11
282.5418166403357
 21
123.0365978241299
 31
0.0
  0
LINE
  5
1B10
330
229C
100
AcDbEntity
  8
0
 62
     0
100
AcDbLine
 10
279.6617017376839
 20
118.720172271762
 30
0.0
 11
282.7633130605246
 21
121.8217835946026
 31
0.0
  0
LINE
  5
1B11
330
229C
100
AcDbEntity
  8
0
 62
     0
100
AcDbLine
 10
276.6851315673127
 20
120.052534050539
 30
0.0
 11
281.2538361958106
 21
124.6212386790368
 31
0.0
  0
LINE
  5
1B12
330
229C
100
AcDbEntity
  8
0
 62
     0
100
AcDbLine
 10
276.2516131253576
 20
121.0553262582999
 30
0.0
 11
280.2510439880496
 21
125.054757120992
 31
0.0
  0
LINE
  5
1B13
330
229C
100
AcDbEntity
  8
0
 62
     0
100
AcDbLine
 10
276.2110673450617
 20
122.4510911277201
 30
0.0
 11
278.8552791186294
 21
125.0953029012878
 31
0.0
  0
LINE
  5
1B14
330
229C
100
AcDbEntity
  8
0
100
AcDbLine
 10
274.9024355804165
 20
131.4764222755889
 30
0.0
 11
274.9024355804166
 21
118.720172271762
 31
0.0
  0
LINE
  5
1B15
330
229C
100
AcDbEntity
  8
DIM
100
AcDbLine
 10
274.9024355804166
 20
125.0982972736755
 30
0.0
 11
272.9024355798165
 21
126.3949264367674
 31
0.0
  0
LINE
  5
1B16
330
229C
100
AcDbEntity
  8
DIM
100
AcDbLine
 10
274.9024355804166
 20
124.2816577225986
 30
0.0
 11
272.9024355798165
 21
125.5782868856904
 31
0.0
  0
LINE
  5
1B23
330
229C
100
AcDbEntity
  8
DIM
100
AcDbLine
 10
290.2024355850065
 20
68.59829727367554
 30
0.0
 11
288.2024355844065
 21
69.89492643676737
 31
0.0
  0
LINE
  5
1B24
330
229C
100
AcDbEntity
  8
DIM
100
AcDbLine
 10
290.2024355850065
 20
67.78165772259865
 30
0.0
 11
288.2024355844065
 21
69.07828688569043
 31
0.0
  0
LINE
  5
1B25
330
229C
100
AcDbEntity
  8
0
100
AcDbLine
 10
298.1649355873953
 20
62.22017227176206
 30
0.0
 11
288.2024355844065
 21
62.22017227176206
 31
0.0
1001
ACAD
1000
ASC_BOUNDS
1002
{
1070
    19
1002
}
  0
LINE
  5
1B26
330
229C
100
AcDbEntity
  8
0
100
AcDbLine
 10
298.1649355873953
 20
74.97642227558893
 30
0.0
 11
288.2024355844064
 21
74.97642227558893
 31
0.0
  0
LINE
  5
1B27
330
229C
100
AcDbEntity
  8
0
100
AcDbLine
 10
290.2024355850064
 20
74.97642227558893
 30
0.0
 11
290.2024355850065
 21
62.22017227176206
 31
0.0
  0
LINE
  5
1B28
330
229C
100
AcDbEntity
  8
0
100
AcDbLine
 10
298.1649355873953
 20
74.97642227558893
 30
0.0
 11
298.1649355873953
 21
62.22017227176206
 31
0.0
  0
LINE
  5
1B29
330
229C
100
AcDbEntity
  8
0
 62
     0
100
AcDbLine
 10
294.9617017422739
 20
62.22017227176206
 30
0.0
 11
298.0633130651145
 21
65.32178359460266
 31
0.0
  0
LINE
  5
1B2A
330
229C
100
AcDbEntity
  8
0
 62
     0
100
AcDbLine
 10
293.5697724268096
 20
62.26455360601386
 30
0.0
 11
297.8418166449256
 21
66.5365978241299
 31
0.0
  0
LINE
  5
1B2B
330
229C
100
AcDbEntity
  8
0
 62
     0
100
AcDbLine
 10
291.9851315719026
 20
63.552534050539
 30
0.0
 11
296.5538362004005
 21
68.12123867903682
 31
0.0
  0
LINE
  5
1B2C
330
229C
100
AcDbEntity
  8
0
 62
     0
100
AcDbLine
 10
292.6625209250677
 20
62.79361275398798
 30
0.0
 11
297.3127574969515
 21
67.44384932587189
 31
0.0
  0
LINE
  5
1B2D
330
229C
100
AcDbEntity
  8
0
 62
     0
100
AcDbLine
 10
298.0414135634911
 20
65.7275906384472
 30
0.0
 11
295.1707069282629
 21
68.59829727367554
 31
0.0
  0
LINE
  5
1B2E
330
229C
100
AcDbEntity
  8
0
 62
     0
100
AcDbLine
 10
297.9266066592986
 20
64.40608689292364
 30
0.0
 11
293.8184955975687
 21
68.51419795465353
 31
0.0
  0
LINE
  5
1B2F
330
229C
100
AcDbEntity
  8
0
 62
     0
100
AcDbLine
 10
297.4570557843211
 20
63.43932711818519
 30
0.0
 11
292.8517358228302
 21
68.04464707967594
 31
0.0
  0
LINE
  5
1B30
330
229C
100
AcDbEntity
  8
0
 62
     0
100
AcDbLine
 10
296.7500787852404
 20
62.70999346754973
 30
0.0
 11
292.1224021721948
 21
67.33767008059539
 31
0.0
  0
LINE
  5
1B31
330
229C
100
AcDbEntity
  8
0
 62
     0
100
AcDbLine
 10
291.5110673496517
 20
65.95109112772016
 30
0.0
 11
294.1552791232193
 21
68.59530290128788
 31
0.0
  0
LINE
  5
1B32
330
229C
100
AcDbEntity
  8
0
 62
     0
100
AcDbLine
 10
291.5516131299474
 20
64.55532625829994
 30
0.0
 11
295.5510439926395
 21
68.55475712099206
 31
0.0
  0
LINE
  5
1B33
330
229C
100
AcDbEntity
  8
0
 62
     0
100
AcDbLine
 10
294.3672786815959
 20
62.22017227176206
 30
0.0
 11
291.4628629050804
 21
65.12458804827762
 31
0.0
  0
LINE
  5
1B34
330
229C
100
AcDbEntity
  8
0
 62
     0
100
AcDbLine
 10
295.8035893313121
 20
62.22017227176206
 30
0.0
 11
291.6266841188368
 21
66.39707748423723
 31
0.0
  0
LINE
  5
1B35
330
229C
100
AcDbEntity
  8
DIM
100
AcDbLine
 10
78.9167212737367
 20
125.0982972736754
 30
0.0
 11
80.91672127433673
 21
126.3949264367673
 31
0.0
  0
LINE
  5
1B36
330
229C
100
AcDbEntity
  8
DIM
100
AcDbLine
 10
78.9167212737367
 20
124.2816577225986
 30
0.0
 11
80.91672127433673
 21
125.5782868856904
 31
0.0
  0
LINE
  5
1B37
330
229C
100
AcDbEntity
  8
0
100
AcDbLine
 10
70.95422127134799
 20
118.720172271762
 30
0.0
 11
80.91672127433673
 21
118.720172271762
 31
0.0
1001
ACAD
1000
ASC_BOUNDS
1002
{
1070
    19
1002
}
  0
LINE
  5
1B38
330
229C
100
AcDbEntity
  8
0
100
AcDbLine
 10
70.95422127134799
 20
131.4764222755888
 30
0.0
 11
80.9167212743368
 21
131.4764222755888
 31
0.0
  0
LINE
  5
1B39
330
229C
100
AcDbEntity
  8
0
100
AcDbLine
 10
78.91672127373681
 20
131.4764222755888
 30
0.0
 11
78.9167212737367
 21
118.720172271762
 31
0.0
  0
LINE
  5
1B3A
330
229C
100
AcDbEntity
  8
0
100
AcDbLine
 10
70.95422127134799
 20
131.4764222755888
 30
0.0
 11
70.95422127134799
 21
118.720172271762
 31
0.0
  0
LINE
  5
1B3B
330
229C
100
AcDbEntity
  8
0
 62
     0
100
AcDbLine
 10
74.15745511646935
 20
118.720172271762
 30
0.0
 11
71.0558437936287
 21
121.8217835946026
 31
0.0
  0
LINE
  5
1B3C
330
229C
100
AcDbEntity
  8
0
 62
     0
100
AcDbLine
 10
75.54938443193361
 20
118.7645536060138
 30
0.0
 11
71.27734021381758
 21
123.0365978241298
 31
0.0
  0
LINE
  5
1B3D
330
229C
100
AcDbEntity
  8
0
 62
     0
100
AcDbLine
 10
77.1340252868406
 20
120.0525340505389
 30
0.0
 11
72.56532065834273
 21
124.6212386790367
 31
0.0
  0
LINE
  5
1B3E
330
229C
100
AcDbEntity
  8
0
 62
     0
100
AcDbLine
 10
76.45663593367555
 20
119.2936127539879
 30
0.0
 11
71.80639936179176
 21
123.9438493258718
 31
0.0
  0
LINE
  5
1B3F
330
229C
100
AcDbEntity
  8
0
 62
     0
100
AcDbLine
 10
71.07774329525216
 20
122.2275906384471
 30
0.0
 11
73.94844993048036
 21
125.0982972736754
 31
0.0
  0
LINE
  5
1B40
330
229C
100
AcDbEntity
  8
0
 62
     0
100
AcDbLine
 10
71.19255019944467
 20
120.9060868929235
 30
0.0
 11
75.30066126117446
 21
125.0141979546534
 31
0.0
  0
LINE
  5
1B41
330
229C
100
AcDbEntity
  8
0
 62
     0
100
AcDbLine
 10
71.66210107442219
 20
119.9393271181851
 30
0.0
 11
76.26742103591301
 21
124.5446470796759
 31
0.0
  0
LINE
  5
1B42
330
229C
100
AcDbEntity
  8
0
 62
     0
100
AcDbLine
 10
72.36907807350281
 20
119.2099934675497
 30
0.0
 11
76.99675468654845
 21
123.8376700805953
 31
0.0
  0
LINE
  5
1B43
330
229C
100
AcDbEntity
  8
0
 62
     0
100
AcDbLine
 10
77.6080895090916
 20
122.4510911277201
 30
0.0
 11
74.96387773552391
 21
125.0953029012878
 31
0.0
  0
LINE
  5
1B44
330
229C
100
AcDbEntity
  8
0
 62
     0
100
AcDbLine
 10
77.56754372879573
 20
121.0553262582999
 30
0.0
 11
73.56811286610372
 21
125.054757120992
 31
0.0
  0
LINE
  5
1B45
330
229C
100
AcDbEntity
  8
0
 62
     0
100
AcDbLine
 10
74.75187817714732
 20
118.720172271762
 30
0.0
 11
77.65629395366284
 21
121.6245880482775
 31
0.0
  0
LINE
  5
1B46
330
229C
100
AcDbEntity
  8
0
 62
     0
100
AcDbLine
 10
73.3155675274312
 20
118.720172271762
 30
0.0
 11
77.49247273990642
 21
122.8970774842371
 31
0.0
  0
LINE
  5
1B71
330
229C
100
AcDbEntity
  8
DIM
100
AcDbLine
 10
276.3753355808586
 20
229.4911433497978
 30
0.0
 11
274.3753355802585
 21
230.7877725128897
 31
0.0
  0
LINE
  5
1B72
330
229C
100
AcDbEntity
  8
DIM
100
AcDbLine
 10
276.3753355808586
 20
228.674503798721
 30
0.0
 11
274.3753355802585
 21
229.9711329618128
 31
0.0
  0
LINE
  5
1B73
330
229C
100
AcDbEntity
  8
0
100
AcDbLine
 10
284.3378355832474
 20
223.1130183478844
 30
0.0
 11
274.3753355802585
 21
223.1130183478844
 31
0.0
1001
ACAD
1000
ASC_BOUNDS
1002
{
1070
    19
1002
}
  0
LINE
  5
1B74
330
229C
100
AcDbEntity
  8
0
100
AcDbLine
 10
284.3378355832474
 20
235.8692683517113
 30
0.0
 11
274.3753355802585
 21
235.8692683517113
 31
0.0
  0
LINE
  5
1B75
330
229C
100
AcDbEntity
  8
0
100
AcDbLine
 10
276.3753355808585
 20
235.8692683517113
 30
0.0
 11
276.3753355808586
 21
223.1130183478844
 31
0.0
  0
LINE
  5
1B76
330
229C
100
AcDbEntity
  8
0
100
AcDbLine
 10
284.3378355832474
 20
235.8692683517113
 30
0.0
 11
284.3378355832474
 21
223.1130183478844
 31
0.0
  0
LINE
  5
1B77
330
229C
100
AcDbEntity
  8
0
 62
     0
100
AcDbLine
 10
281.1346017381259
 20
223.1130183478844
 30
0.0
 11
284.2362130609666
 21
226.2146296707251
 31
0.0
  0
LINE
  5
1B78
330
229C
100
AcDbEntity
  8
0
 62
     0
100
AcDbLine
 10
279.7426724226617
 20
223.1573996821362
 30
0.0
 11
284.0147166407777
 21
227.4294439002523
 31
0.0
  0
LINE
  5
1B79
330
229C
100
AcDbEntity
  8
0
 62
     0
100
AcDbLine
 10
278.1580315677547
 20
224.4453801266613
 30
0.0
 11
282.7267361962526
 21
229.0140847551592
 31
0.0
  0
LINE
  5
1B7A
330
229C
100
AcDbEntity
  8
0
 62
     0
100
AcDbLine
 10
278.8354209209197
 20
223.6864588301104
 30
0.0
 11
283.4856574928036
 21
228.3366954019942
 31
0.0
  0
LINE
  5
1B7B
330
229C
100
AcDbEntity
  8
0
 62
     0
100
AcDbLine
 10
284.2143135593431
 20
226.6204367145696
 30
0.0
 11
281.3436069241149
 21
229.4911433497978
 31
0.0
  0
LINE
  5
1B7C
330
229C
100
AcDbEntity
  8
0
 62
     0
100
AcDbLine
 10
284.0995066551506
 20
225.298932969046
 30
0.0
 11
279.9913955934208
 21
229.4070440307758
 31
0.0
  0
LINE
  5
1B7D
330
229C
100
AcDbEntity
  8
0
 62
     0
100
AcDbLine
 10
283.6299557801731
 20
224.3321731943075
 30
0.0
 11
279.0246358186823
 21
228.9374931557983
 31
0.0
  0
LINE
  5
1B7E
330
229C
100
AcDbEntity
  8
0
 62
     0
100
AcDbLine
 10
282.9229787810925
 20
223.6028395436721
 30
0.0
 11
278.2953021680468
 21
228.2305161567177
 31
0.0
  0
LINE
  5
1B7F
330
229C
100
AcDbEntity
  8
0
 62
     0
100
AcDbLine
 10
277.6839673455037
 20
226.8439372038425
 30
0.0
 11
280.3281791190714
 21
229.4881489774102
 31
0.0
  0
LINE
  5
1B80
330
229C
100
AcDbEntity
  8
0
 62
     0
100
AcDbLine
 10
277.7245131257996
 20
225.4481723344223
 30
0.0
 11
281.7239439884916
 21
229.4476031971144
 31
0.0
  0
LINE
  5
1B81
330
229C
100
AcDbEntity
  8
0
 62
     0
100
AcDbLine
 10
280.540178677448
 20
223.1130183478844
 30
0.0
 11
277.6357629009325
 21
226.0174341243999
 31
0.0
  0
LINE
  5
1B82
330
229C
100
AcDbEntity
  8
0
 62
     0
100
AcDbLine
 10
281.9764893271641
 20
223.1130183478844
 30
0.0
 11
277.7995841146889
 21
227.2899235603596
 31
0.0
  0
LINE
  5
1B83
330
229C
100
AcDbEntity
  8
DIM
100
AcDbLine
 10
276.3753355808586
 20
286.4911433668979
 30
0.0
 11
274.3753355802585
 21
287.7877725299898
 31
0.0
  0
LINE
  5
1B84
330
229C
100
AcDbEntity
  8
DIM
100
AcDbLine
 10
276.3753355808586
 20
285.674503815821
 30
0.0
 11
274.3753355802585
 21
286.9711329789129
 31
0.0
  0
LINE
  5
1B85
330
229C
100
AcDbEntity
  8
0
100
AcDbLine
 10
284.3378355832474
 20
280.1130183649845
 30
0.0
 11
274.3753355802585
 21
280.1130183649845
 31
0.0
1001
ACAD
1000
ASC_BOUNDS
1002
{
1070
    19
1002
}
  0
LINE
  5
1B86
330
229C
100
AcDbEntity
  8
0
100
AcDbLine
 10
284.3378355832474
 20
292.8692683688113
 30
0.0
 11
274.3753355802585
 21
292.8692683688113
 31
0.0
  0
LINE
  5
1B87
330
229C
100
AcDbEntity
  8
0
100
AcDbLine
 10
276.3753355808585
 20
292.8692683688113
 30
0.0
 11
276.3753355808586
 21
280.1130183649845
 31
0.0
  0
LINE
  5
1B88
330
229C
100
AcDbEntity
  8
0
100
AcDbLine
 10
284.3378355832474
 20
292.8692683688113
 30
0.0
 11
284.3378355832474
 21
280.1130183649845
 31
0.0
  0
LINE
  5
1B89
330
229C
100
AcDbEntity
  8
0
 62
     0
100
AcDbLine
 10
281.1346017381259
 20
280.1130183649845
 30
0.0
 11
284.2362130609666
 21
283.2146296878251
 31
0.0
  0
LINE
  5
1B8A
330
229C
100
AcDbEntity
  8
0
 62
     0
100
AcDbLine
 10
279.7426724226617
 20
280.1573996992363
 30
0.0
 11
284.0147166407777
 21
284.4294439173523
 31
0.0
  0
LINE
  5
1B8B
330
229C
100
AcDbEntity
  8
0
 62
     0
100
AcDbLine
 10
278.1580315677547
 20
281.4453801437614
 30
0.0
 11
282.7267361962526
 21
286.0140847722593
 31
0.0
  0
LINE
  5
1B8C
330
229C
100
AcDbEntity
  8
0
 62
     0
100
AcDbLine
 10
278.8354209209197
 20
280.6864588472104
 30
0.0
 11
283.4856574928036
 21
285.3366954190943
 31
0.0
  0
LINE
  5
1B8D
330
229C
100
AcDbEntity
  8
0
 62
     0
100
AcDbLine
 10
284.2143135593431
 20
283.6204367316696
 30
0.0
 11
281.3436069241149
 21
286.4911433668979
 31
0.0
  0
LINE
  5
1B8E
330
229C
100
AcDbEntity
  8
0
 62
     0
100
AcDbLine
 10
284.0995066551506
 20
282.298932986146
 30
0.0
 11
279.9913955934208
 21
286.4070440478759
 31
0.0
  0
LINE
  5
1B8F
330
229C
100
AcDbEntity
  8
0
 62
     0
100
AcDbLine
 10
283.6299557801731
 20
281.3321732114075
 30
0.0
 11
279.0246358186823
 21
285.9374931728983
 31
0.0
  0
LINE
  5
1B90
330
229C
100
AcDbEntity
  8
0
 62
     0
100
AcDbLine
 10
282.9229787810925
 20
280.6028395607721
 30
0.0
 11
278.2953021680468
 21
285.2305161738177
 31
0.0
  0
LINE
  5
1B91
330
229C
100
AcDbEntity
  8
0
 62
     0
100
AcDbLine
 10
277.6839673455037
 20
283.8439372209426
 30
0.0
 11
280.3281791190714
 21
286.4881489945103
 31
0.0
  0
LINE
  5
1B92
330
229C
100
AcDbEntity
  8
0
 62
     0
100
AcDbLine
 10
277.7245131257996
 20
282.4481723515223
 30
0.0
 11
281.7239439884916
 21
286.4476032142145
 31
0.0
  0
LINE
  5
1B93
330
229C
100
AcDbEntity
  8
0
 62
     0
100
AcDbLine
 10
280.540178677448
 20
280.1130183649845
 30
0.0
 11
277.6357629009325
 21
283.0174341415
 31
0.0
  0
LINE
  5
1B94
330
229C
100
AcDbEntity
  8
0
 62
     0
100
AcDbLine
 10
281.9764893271641
 20
280.1130183649845
 30
0.0
 11
277.7995841146889
 21
284.2899235774597
 31
0.0
  0
LINE
  5
1B95
330
229C
100
AcDbEntity
  8
0
100
AcDbLine
 10
72.41283553124964
 20
235.8692683517113
 30
0.0
 11
82.37533553423833
 21
235.8692683517113
 31
0.0
1001
ACAD
1000
ASC_BOUNDS
1002
{
1070
    19
1002
}
  0
LINE
  5
1B96
330
229C
100
AcDbEntity
  8
0
100
AcDbLine
 10
72.41283553124964
 20
223.1130183478844
 30
0.0
 11
82.37533553423844
 21
223.1130183478844
 31
0.0
  0
LINE
  5
1B97
330
229C
100
AcDbEntity
  8
0
 62
     0
100
AcDbLine
 10
77.00799869183533
 20
235.8248870174595
 30
0.0
 11
72.73595447371923
 21
231.5528427993434
 31
0.0
  0
LINE
  5
1B98
330
229C
100
AcDbEntity
  8
0
 62
     0
100
AcDbLine
 10
78.5926395467423
 20
234.5369065729343
 30
0.0
 11
74.02393491824438
 21
229.9682019444365
 31
0.0
  0
LINE
  5
1B99
330
229C
100
AcDbEntity
  8
0
 62
     0
100
AcDbLine
 10
77.91525019357727
 20
235.2958278694853
 30
0.0
 11
73.26501362169342
 21
230.6455912976015
 31
0.0
  0
LINE
  5
1B9A
330
229C
100
AcDbEntity
  8
0
 62
     0
100
AcDbLine
 10
73.12071533432384
 20
234.6501135052882
 30
0.0
 11
77.72603529581471
 21
230.0447935437974
 31
0.0
  0
LINE
  5
1B9B
330
229C
100
AcDbEntity
  8
0
 62
     0
100
AcDbLine
 10
73.82769233340451
 20
235.3794471559236
 30
0.0
 11
78.45536894645016
 21
230.751770542878
 31
0.0
  0
LINE
  5
1B9C
330
229C
100
AcDbEntity
  8
0
 62
     0
100
AcDbLine
 10
79.06670376899325
 20
232.1383494957532
 30
0.0
 11
76.42249199542556
 21
229.4941377221855
 31
0.0
  0
LINE
  5
1B9D
330
229C
100
AcDbEntity
  8
0
 62
     0
100
AcDbLine
 10
79.02615798869743
 20
233.5341143651734
 30
0.0
 11
75.02672712600537
 21
229.5346835024813
 31
0.0
  0
LINE
  5
1B9E
330
229C
100
AcDbEntity
  8
0
 62
     0
100
AcDbLine
 10
76.21049243704892
 20
235.8692683517113
 30
0.0
 11
79.11490821356455
 21
232.9648525751957
 31
0.0
  0
LINE
  5
1B9F
330
229C
100
AcDbEntity
  8
0
 62
     0
100
AcDbLine
 10
74.77418178733291
 20
235.8692683517113
 30
0.0
 11
78.95108699980807
 21
231.6923631392361
 31
0.0
  0
LINE
  5
1BA0
330
229C
100
AcDbEntity
  8
0
100
AcDbLine
 10
72.41283553124964
 20
223.1130183478844
 30
0.0
 11
72.41283553124964
 21
235.8692683517113
 31
0.0
  0
LINE
  5
1BA1
330
229C
100
AcDbEntity
  8
0
 62
     0
100
AcDbLine
 10
75.61606937637106
 20
235.8692683517113
 30
0.0
 11
72.5144580535304
 21
232.7676570288706
 31
0.0
  0
LINE
  5
1BA2
330
229C
100
AcDbEntity
  8
0
 62
     0
100
AcDbLine
 10
72.53635755515375
 20
232.3618499850261
 30
0.0
 11
75.40706419038207
 21
229.4911433497978
 31
0.0
  0
LINE
  5
1BA3
330
229C
100
AcDbEntity
  8
0
 62
     0
100
AcDbLine
 10
72.65116445934637
 20
233.6833537305496
 30
0.0
 11
76.75927552107618
 21
229.5752426688199
 31
0.0
  0
LINE
  5
1BA4
330
229C
100
AcDbEntity
  8
0
100
AcDbLine
 10
80.37533553363852
 20
223.1130183478844
 30
0.0
 11
80.37533553363829
 21
235.8692683517113
 31
0.0
  0
LINE
  5
1BA5
330
229C
100
AcDbEntity
  8
DIM
100
AcDbLine
 10
80.37533553363841
 20
229.4911433497978
 30
0.0
 11
82.37533553423844
 21
228.1945141867059
 31
0.0
  0
LINE
  5
1BA6
330
229C
100
AcDbEntity
  8
DIM
100
AcDbLine
 10
80.37533553363841
 20
230.3077829008747
 30
0.0
 11
82.37533553423844
 21
229.0111537377829
 31
0.0
  0
LINE
  5
1BA7
330
229C
100
AcDbEntity
  8
0
100
AcDbLine
 10
72.41283553124964
 20
292.8692683688113
 30
0.0
 11
82.37533553423833
 21
292.8692683688113
 31
0.0
1001
ACAD
1000
ASC_BOUNDS
1002
{
1070
    19
1002
}
  0
LINE
  5
1BA8
330
229C
100
AcDbEntity
  8
0
100
AcDbLine
 10
72.41283553124964
 20
280.1130183649845
 30
0.0
 11
82.37533553423844
 21
280.1130183649845
 31
0.0
  0
LINE
  5
1BA9
330
229C
100
AcDbEntity
  8
0
 62
     0
100
AcDbLine
 10
77.00799869183533
 20
292.8248870345595
 30
0.0
 11
72.73595447371923
 21
288.5528428164434
 31
0.0
  0
LINE
  5
1BAA
330
229C
100
AcDbEntity
  8
0
 62
     0
100
AcDbLine
 10
78.5926395467423
 20
291.5369065900343
 30
0.0
 11
74.02393491824438
 21
286.9682019615365
 31
0.0
  0
LINE
  5
1BAB
330
229C
100
AcDbEntity
  8
0
 62
     0
100
AcDbLine
 10
77.91525019357727
 20
292.2958278865854
 30
0.0
 11
73.26501362169342
 21
287.6455913147015
 31
0.0
  0
LINE
  5
1BAC
330
229C
100
AcDbEntity
  8
0
 62
     0
100
AcDbLine
 10
73.12071533432384
 20
291.6501135223882
 30
0.0
 11
77.72603529581471
 21
287.0447935608974
 31
0.0
  0
LINE
  5
1BAD
330
229C
100
AcDbEntity
  8
0
 62
     0
100
AcDbLine
 10
73.82769233340451
 20
292.3794471730236
 30
0.0
 11
78.45536894645016
 21
287.751770559978
 31
0.0
  0
LINE
  5
1BAE
330
229C
100
AcDbEntity
  8
0
 62
     0
100
AcDbLine
 10
79.06670376899325
 20
289.1383495128532
 30
0.0
 11
76.42249199542556
 21
286.4941377392856
 31
0.0
  0
LINE
  5
1BAF
330
229C
100
AcDbEntity
  8
0
 62
     0
100
AcDbLine
 10
79.02615798869743
 20
290.5341143822734
 30
0.0
 11
75.02672712600537
 21
286.5346835195813
 31
0.0
  0
LINE
  5
1BB0
330
229C
100
AcDbEntity
  8
0
 62
     0
100
AcDbLine
 10
76.21049243704892
 20
292.8692683688113
 30
0.0
 11
79.11490821356455
 21
289.9648525922957
 31
0.0
  0
LINE
  5
1BB1
330
229C
100
AcDbEntity
  8
0
 62
     0
100
AcDbLine
 10
74.77418178733291
 20
292.8692683688113
 30
0.0
 11
78.95108699980807
 21
288.6923631563361
 31
0.0
  0
LINE
  5
1BB2
330
229C
100
AcDbEntity
  8
0
100
AcDbLine
 10
72.41283553124964
 20
280.1130183649845
 30
0.0
 11
72.41283553124964
 21
292.8692683688113
 31
0.0
  0
LINE
  5
1BB3
330
229C
100
AcDbEntity
  8
0
 62
     0
100
AcDbLine
 10
75.61606937637106
 20
292.8692683688113
 30
0.0
 11
72.5144580535304
 21
289.7676570459707
 31
0.0
  0
LINE
  5
1BB4
330
229C
100
AcDbEntity
  8
0
 62
     0
100
AcDbLine
 10
72.53635755515375
 20
289.3618500021261
 30
0.0
 11
75.40706419038207
 21
286.4911433668979
 31
0.0
  0
LINE
  5
1BB5
330
229C
100
AcDbEntity
  8
0
 62
     0
100
AcDbLine
 10
72.65116445934637
 20
290.6833537476497
 30
0.0
 11
76.75927552107618
 21
286.5752426859199
 31
0.0
  0
LINE
  5
1BB6
330
229C
100
AcDbEntity
  8
0
100
AcDbLine
 10
80.37533553363852
 20
280.1130183649845
 30
0.0
 11
80.37533553363829
 21
292.8692683688113
 31
0.0
  0
LINE
  5
1BB7
330
229C
100
AcDbEntity
  8
DIM
100
AcDbLine
 10
80.37533553363841
 20
286.4911433668979
 30
0.0
 11
82.37533553423844
 21
285.194514203806
 31
0.0
  0
LINE
  5
1BB8
330
229C
100
AcDbEntity
  8
DIM
100
AcDbLine
 10
80.37533553363841
 20
287.3077829179748
 30
0.0
 11
82.37533553423844
 21
286.0111537548829
 31
0.0
  0
LINE
  5
1D44
330
229C
100
AcDbEntity
  8
0
100
AcDbLine
 10
283.7024355830564
 20
81.59829727757539
 30
0.0
 11
283.7024355830565
 21
55.09829903023407
 31
0.0
  0
LINE
  5
1D45
330
229C
100
AcDbEntity
  8
0
100
AcDbLine
 10
324.1753355966983
 20
295.9911433697479
 30
0.0
 11
285.1753355834984
 21
295.9911433697479
 31
0.0
  0
LINE
  5
1D46
330
229C
100
AcDbEntity
  8
0
100
AcDbLine
 10
324.1753355966983
 20
219.991143346948
 30
0.0
 11
285.1753355834984
 21
219.991143346948
 31
0.0
  0
LINE
  5
1D47
330
229C
100
AcDbEntity
  8
CENTER
  6
CENTER
100
AcDbLine
 10
315.7024355926565
 20
53.53833582628102
 30
0.0
 11
315.7024355926565
 21
42.95125570186331
 31
0.0
  0
LINE
  5
1D48
330
229C
100
AcDbEntity
  8
0
100
AcDbLine
 10
325.7024355971565
 20
51.09829726842554
 30
0.0
 11
325.7024355971565
 21
46.59829726707556
 31
0.0
  0
LINE
  5
1D49
330
229C
100
AcDbEntity
  8
0
100
AcDbLine
 10
289.6753355848484
 20
295.9911433697479
 30
0.0
 11
289.6753355848484
 21
219.991143346948
 31
0.0
  0
LINE
  5
1D4A
330
229C
100
AcDbEntity
  8
0
100
AcDbLine
 10
288.2024355844065
 20
81.59829727757539
 30
0.0
 11
288.2024355844065
 21
55.09829726962545
 31
0.0
  0
LINE
  5
1D4B
330
229C
100
AcDbEntity
  8
0
100
AcDbLine
 10
325.7024355971565
 20
46.59829726707556
 30
0.0
 11
292.2024355856066
 21
46.59829726707539
 31
0.0
  0
LINE
  5
1D4C
330
229C
100
AcDbEntity
  8
0
100
AcDbLine
 10
325.7024355971565
 20
51.09829726842554
 30
0.0
 11
292.2024355856066
 21
51.09829726842554
 31
0.0
  0
CIRCLE
  5
1D50
330
229C
100
AcDbEntity
  8
0
100
AcDbCircle
 10
317.1753355930984
 20
282.9911433658478
 30
0.0
 40
4.50000000135
  0
LINE
  5
1D51
330
229C
100
AcDbEntity
  8
0
100
AcDbLine
 10
327.1753355975983
 20
292.9911433688478
 30
0.0
 11
327.1753355975983
 21
222.9911433478479
 31
0.0
  0
ARC
  5
1D52
330
229C
100
AcDbEntity
  8
0
100
AcDbCircle
 10
324.1753355966983
 20
222.9911433478479
 30
0.0
 40
3.000000000899999
100
AcDbArc
 50
270.0
 51
0.0
  0
ARC
  5
1D53
330
229C
100
AcDbEntity
  8
0
100
AcDbCircle
 10
324.1753355966983
 20
292.9911433688478
 30
0.0
 40
3.000000000899999
100
AcDbArc
 50
0.0
 51
90.0
  0
LINE
  5
1D54
330
229C
100
AcDbEntity
  8
CENTER
  6
CENTER
100
AcDbLine
 10
317.1753355930984
 20
287.9911433673478
 30
0.0
 11
317.1753355930984
 21
277.9911433643479
 31
0.0
  0
LINE
  5
1D55
330
229C
100
AcDbEntity
  8
CENTER
  6
CENTER
100
AcDbLine
 10
312.1753355915984
 20
282.9911433658478
 30
0.0
 11
322.1753355945983
 21
282.9911433658478
 31
0.0
  0
LINE
  5
1D59
330
229C
100
AcDbEntity
  8
0
100
AcDbLine
 10
288.2024355844065
 20
81.59829727757557
 30
0.0
 11
283.7024355830564
 21
81.59829727757539
 31
0.0
  0
LINE
  5
1D5D
330
229C
100
AcDbEntity
  8
0
  6
HIDDEN
100
AcDbLine
 10
320.2024355940065
 20
51.09829726842554
 30
0.0
 11
320.2024355940065
 21
46.59829726707556
 31
0.0
  0
LINE
  5
1D5E
330
229C
100
AcDbEntity
  8
0
  6
HIDDEN
100
AcDbLine
 10
311.2024355913064
 20
51.09829726842554
 30
0.0
 11
311.2024355913064
 21
46.59829726707556
 31
0.0
  0
ARC
  5
1D65
330
229C
100
AcDbEntity
  8
0
100
AcDbCircle
 10
292.2024355856066
 20
55.09829726962545
 30
0.0
 40
4.0000000012
100
AcDbArc
 50
180.0
 51
270.0
  0
ARC
  5
1D66
330
229C
100
AcDbEntity
  8
0
100
AcDbCircle
 10
292.2024355856066
 20
55.09829726962545
 30
0.0
 40
8.500000002549999
100
AcDbArc
 50
180.0
 51
270.0
  0
LINE
  5
1D68
330
229C
100
AcDbEntity
  8
0
  6
HIDDEN
100
AcDbLine
 10
294.3384745555687
 20
46.59829726707539
 30
0.0
 11
283.7024355830565
 21
57.23433623958758
 31
0.0
  0
LINE
  5
1E90
330
229C
100
AcDbEntity
  8
0
  6
CONTINUOUS
100
AcDbLine
 10
283.7024355830564
 20
77.59829727637546
 30
0.0
 11
272.9024355798166
 21
77.59829727637543
 31
0.0
  0
LINE
  5
1E91
330
229C
100
AcDbEntity
  8
0
  6
CONTINUOUS
100
AcDbLine
 10
283.7024355830564
 20
59.59829727097551
 30
0.0
 11
272.9024355798165
 21
59.59829727097551
 31
0.0
  0
LINE
  5
1E92
330
229C
100
AcDbEntity
  8
0
  6
HIDDEN
100
AcDbLine
 10
59.46639658429427
 20
46.59829726707534
 30
0.0
 11
70.10243555680642
 21
57.23433623958752
 31
0.0
  0
ARC
  5
1E93
330
229C
100
AcDbEntity
  8
0
100
AcDbCircle
 10
61.60243555425637
 20
55.09829726962539
 30
0.0
 40
8.500000002549999
100
AcDbArc
 50
270.0
 51
0.0
  0
LINE
  5
1E94
330
229C
100
AcDbEntity
  8
0
100
AcDbLine
 10
70.10243555680659
 20
81.59829727757534
 30
0.0
 11
70.10243555680642
 21
55.09829903023401
 31
0.0
  0
LINE
  5
1E95
330
229C
100
AcDbEntity
  8
0
100
AcDbLine
 10
65.60243555545651
 20
81.59829727757534
 30
0.0
 11
65.60243555545651
 21
55.09829726962539
 31
0.0
  0
LINE
  5
1E96
330
229C
100
AcDbEntity
  8
0
100
AcDbLine
 10
63.60243555485658
 20
74.97642227558888
 30
0.0
 11
63.60243555485642
 21
62.22017227176201
 31
0.0
  0
LINE
  5
1E97
330
229C
100
AcDbEntity
  8
0
100
AcDbLine
 10
55.63993555246771
 20
74.97642227558888
 30
0.0
 11
55.63993555246771
 21
62.22017227176201
 31
0.0
  0
LINE
  5
1E98
330
229C
100
AcDbEntity
  8
0
 62
     0
100
AcDbLine
 10
61.81973956796037
 20
63.55253405053895
 30
0.0
 11
57.25103493946249
 21
68.12123867903676
 31
0.0
  0
LINE
  5
1E99
330
229C
100
AcDbEntity
  8
0
 62
     0
100
AcDbLine
 10
61.14235021479533
 20
62.79361275398793
 30
0.0
 11
56.49211364291147
 21
67.44384932587184
 31
0.0
  0
LINE
  5
1E9A
330
229C
100
AcDbEntity
  8
0
 62
     0
100
AcDbLine
 10
56.34781535554191
 20
63.43932711818514
 30
0.0
 11
60.95313531703277
 21
68.04464707967588
 31
0.0
  0
LINE
  5
1E9B
330
229C
100
AcDbEntity
  8
0
 62
     0
100
AcDbLine
 10
57.05479235462258
 20
62.70999346754968
 30
0.0
 11
61.68246896766823
 21
67.33767008059533
 31
0.0
  0
LINE
  5
1E9C
330
229C
100
AcDbEntity
  8
0
 62
     0
100
AcDbLine
 10
62.29380379021137
 20
65.95109112772011
 30
0.0
 11
59.64959201664362
 21
68.59530290128782
 31
0.0
  0
LINE
  5
1E9D
330
229C
100
AcDbEntity
  8
0
 62
     0
100
AcDbLine
 10
62.2532580099155
 20
64.55532625829988
 30
0.0
 11
58.25382714722349
 21
68.55475712099201
 31
0.0
  0
LINE
  5
1E9E
330
229C
100
AcDbEntity
  8
0
 62
     0
100
AcDbLine
 10
59.43759245826703
 20
62.22017227176201
 30
0.0
 11
62.34200823478261
 21
65.12458804827756
 31
0.0
  0
LINE
  5
1E9F
330
229C
100
AcDbEntity
  8
0
 62
     0
100
AcDbLine
 10
58.00128180855097
 20
62.22017227176201
 30
0.0
 11
62.17818702102618
 21
66.39707748423717
 31
0.0
  0
LINE
  5
1EA0
330
229C
100
AcDbEntity
  8
0
100
AcDbLine
 10
55.63993555246771
 20
62.22017227176201
 30
0.0
 11
65.60243555545651
 21
62.22017227176201
 31
0.0
1001
ACAD
1000
ASC_BOUNDS
1002
{
1070
    19
1002
}
  0
ARC
  5
1EA2
330
229C
100
AcDbEntity
  8
0
100
AcDbCircle
 10
61.60243555425637
 20
55.09829726962539
 30
0.0
 40
4.0000000012
100
AcDbArc
 50
270.0
 51
0.0
  0
LINE
  5
1EA3
330
229C
100
AcDbEntity
  8
DIM
100
AcDbLine
 10
63.60243555485647
 20
68.59829727367548
 30
0.0
 11
65.60243555545651
 21
69.89492643676732
 31
0.0
  0
LINE
  5
1EA4
330
229C
100
AcDbEntity
  8
DIM
100
AcDbLine
 10
63.60243555485647
 20
67.7816577225986
 30
0.0
 11
65.60243555545651
 21
69.07828688569037
 31
0.0
  0
LINE
  5
1EA5
330
229C
100
AcDbEntity
  8
0
 62
     0
100
AcDbLine
 10
58.84316939758912
 20
62.22017227176201
 30
0.0
 11
55.74155807474847
 21
65.3217835946026
 31
0.0
  0
LINE
  5
1EA6
330
229C
100
AcDbEntity
  8
0
 62
     0
100
AcDbLine
 10
60.23509871305339
 20
62.26455360601381
 30
0.0
 11
55.96305449493735
 21
66.53659782412984
 31
0.0
  0
LINE
  5
1EA7
330
229C
100
AcDbEntity
  8
0
 62
     0
100
AcDbLine
 10
55.76345757637188
 20
65.72759063844713
 30
0.0
 11
58.63416421160014
 21
68.59829727367548
 31
0.0
  0
LINE
  5
1EA8
330
229C
100
AcDbEntity
  8
0
 62
     0
100
AcDbLine
 10
55.87826448056444
 20
64.40608689292358
 30
0.0
 11
59.98637554229424
 21
68.51419795465346
 31
0.0
  0
LINE
  5
1EA9
330
229C
100
AcDbEntity
  8
0
100
AcDbLine
 10
55.63993555246771
 20
74.97642227558888
 30
0.0
 11
65.60243555545657
 21
74.97642227558888
 31
0.0
  0
LINE
  5
1EAA
330
229C
100
AcDbEntity
  8
0
100
AcDbLine
 10
65.60243555545651
 20
81.59829727757552
 30
0.0
 11
70.10243555680659
 21
81.59829727757534
 31
0.0
  0
LINE
  5
1EAB
330
229C
100
AcDbEntity
  8
0
100
AcDbLine
 10
28.10243554270647
 20
51.09829726842548
 30
0.0
 11
61.60243555425637
 21
51.09829726842548
 31
0.0
  0
LINE
  5
1EAC
330
229C
100
AcDbEntity
  8
0
100
AcDbLine
 10
28.10243554270647
 20
46.59829726707551
 30
0.0
 11
61.60243555425637
 21
46.59829726707534
 31
0.0
  0
LINE
  5
1EAD
330
229C
100
AcDbEntity
  8
CENTER
  6
CENTER
100
AcDbLine
 10
38.10243554720648
 20
53.788335834831
 30
0.0
 11
38.10243554720648
 21
43.2012557104133
 31
0.0
  0
LINE
  5
1EAE
330
229C
100
AcDbEntity
  8
0
  6
HIDDEN
100
AcDbLine
 10
42.60243554855662
 20
51.09829726842548
 30
0.0
 11
42.60243554855662
 21
46.59829726707551
 31
0.0
  0
LINE
  5
1EAF
330
229C
100
AcDbEntity
  8
0
  6
HIDDEN
100
AcDbLine
 10
33.6024355458565
 20
51.09829726842548
 30
0.0
 11
33.6024355458565
 21
46.59829726707551
 31
0.0
  0
LINE
  5
1EB0
330
229C
100
AcDbEntity
  8
0
100
AcDbLine
 10
28.10243554270647
 20
51.09829726842548
 30
0.0
 11
28.10243554270647
 21
46.59829726707551
 31
0.0
  0
CIRCLE
  5
1EB8
330
229C
100
AcDbEntity
  8
0
100
AcDbCircle
 10
317.1753355930984
 20
232.991143350848
 30
0.0
 40
4.50000000135
  0
LINE
  5
1EB9
330
229C
100
AcDbEntity
  8
CENTER
  6
CENTER
100
AcDbLine
 10
312.1753355915984
 20
232.991143350848
 30
0.0
 11
322.1753355945983
 21
232.991143350848
 31
0.0
  0
LINE
  5
1EBC
330
229C
100
AcDbEntity
  8
CENTER
  6
CENTER
100
AcDbLine
 10
317.1753355930984
 20
227.991143349348
 30
0.0
 11
317.1753355930984
 21
237.991143352348
 31
0.0
  0
LINE
  5
1EBE
330
229C
100
AcDbEntity
  8
DIM
100
AcDbLine
 10
291.6753355854485
 20
229.4911433497978
 30
0.0
 11
289.6753355848484
 21
230.7877725128897
 31
0.0
  0
LINE
  5
1EBF
330
229C
100
AcDbEntity
  8
0
100
AcDbLine
 10
291.6753355854483
 20
235.8692683517113
 30
0.0
 11
291.6753355854485
 21
223.1130183478844
 31
0.0
  0
LINE
  5
1EC0
330
229C
100
AcDbEntity
  8
0
100
AcDbLine
 10
299.6378355878371
 20
235.8692683517113
 30
0.0
 11
299.6378355878371
 21
223.1130183478844
 31
0.0
  0
LINE
  5
1EC1
330
229C
100
AcDbEntity
  8
0
 62
     0
100
AcDbLine
 10
293.4580315723445
 20
224.4453801266613
 30
0.0
 11
298.0267362008424
 21
229.0140847551592
 31
0.0
  0
LINE
  5
1EC2
330
229C
100
AcDbEntity
  8
0
 62
     0
100
AcDbLine
 10
298.2229787856823
 20
223.6028395436721
 30
0.0
 11
293.5953021726366
 21
228.2305161567177
 31
0.0
  0
LINE
  5
1EC3
330
229C
100
AcDbEntity
  8
0
 62
     0
100
AcDbLine
 10
292.9839673500936
 20
226.8439372038425
 30
0.0
 11
295.6281791236613
 21
229.4881489774102
 31
0.0
  0
LINE
  5
1EC4
330
229C
100
AcDbEntity
  8
0
 62
     0
100
AcDbLine
 10
293.0245131303894
 20
225.4481723344223
 30
0.0
 11
297.0239439930815
 21
229.4476031971144
 31
0.0
  0
LINE
  5
1EC5
330
229C
100
AcDbEntity
  8
0
 62
     0
100
AcDbLine
 10
295.8401786820378
 20
223.1130183478844
 30
0.0
 11
292.9357629055223
 21
226.0174341243999
 31
0.0
  0
LINE
  5
1EC6
330
229C
100
AcDbEntity
  8
0
 62
     0
100
AcDbLine
 10
297.2764893317539
 20
223.1130183478844
 30
0.0
 11
293.0995841192787
 21
227.2899235603596
 31
0.0
  0
LINE
  5
1EC7
330
229C
100
AcDbEntity
  8
0
100
AcDbLine
 10
299.6378355878371
 20
223.1130183478844
 30
0.0
 11
289.6753355848484
 21
223.1130183478844
 31
0.0
1001
ACAD
1000
ASC_BOUNDS
1002
{
1070
    19
1002
}
  0
LINE
  5
1EC8
330
229C
100
AcDbEntity
  8
DIM
100
AcDbLine
 10
291.6753355854485
 20
228.674503798721
 30
0.0
 11
289.6753355848484
 21
229.9711329618128
 31
0.0
  0
LINE
  5
1EC9
330
229C
100
AcDbEntity
  8
0
 62
     0
100
AcDbLine
 10
294.1354209255095
 20
223.6864588301104
 30
0.0
 11
298.7856574973934
 21
228.3366954019942
 31
0.0
  0
LINE
  5
1ECA
330
229C
100
AcDbEntity
  8
0
 62
     0
100
AcDbLine
 10
296.4346017427158
 20
223.1130183478844
 30
0.0
 11
299.5362130655564
 21
226.2146296707251
 31
0.0
  0
LINE
  5
1ECB
330
229C
100
AcDbEntity
  8
0
 62
     0
100
AcDbLine
 10
295.0426724272515
 20
223.1573996821362
 30
0.0
 11
299.3147166453675
 21
227.4294439002523
 31
0.0
  0
LINE
  5
1ECC
330
229C
100
AcDbEntity
  8
0
 62
     0
100
AcDbLine
 10
299.514313563933
 20
226.6204367145696
 30
0.0
 11
296.6436069287047
 21
229.4911433497978
 31
0.0
  0
LINE
  5
1ECD
330
229C
100
AcDbEntity
  8
0
 62
     0
100
AcDbLine
 10
299.3995066597404
 20
225.298932969046
 30
0.0
 11
295.2913955980107
 21
229.4070440307758
 31
0.0
  0
LINE
  5
1ECE
330
229C
100
AcDbEntity
  8
0
 62
     0
100
AcDbLine
 10
298.929955784763
 20
224.3321731943075
 30
0.0
 11
294.3246358232721
 21
228.9374931557983
 31
0.0
  0
LINE
  5
1ECF
330
229C
100
AcDbEntity
  8
0
100
AcDbLine
 10
299.6378355878371
 20
235.8692683517113
 30
0.0
 11
289.6753355848484
 21
235.8692683517113
 31
0.0
  0
LINE
  5
1ED0
330
229C
100
AcDbEntity
  8
0
100
AcDbLine
 10
299.6378355878371
 20
292.8692683688113
 30
0.0
 11
299.6378355878371
 21
280.1130183649845
 31
0.0
  0
LINE
  5
1ED1
330
229C
100
AcDbEntity
  8
0
100
AcDbLine
 10
291.6753355854483
 20
292.8692683688113
 30
0.0
 11
291.6753355854485
 21
280.1130183649845
 31
0.0
  0
LINE
  5
1ED2
330
229C
100
AcDbEntity
  8
DIM
100
AcDbLine
 10
291.6753355854485
 20
286.4911433668979
 30
0.0
 11
289.6753355848484
 21
287.7877725299898
 31
0.0
  0
LINE
  5
1ED3
330
229C
100
AcDbEntity
  8
0
 62
     0
100
AcDbLine
 10
298.929955784763
 20
281.3321732114075
 30
0.0
 11
294.3246358232721
 21
285.9374931728983
 31
0.0
  0
LINE
  5
1ED4
330
229C
100
AcDbEntity
  8
0
 62
     0
100
AcDbLine
 10
299.3995066597404
 20
282.298932986146
 30
0.0
 11
295.2913955980107
 21
286.4070440478759
 31
0.0
  0
LINE
  5
1ED5
330
229C
100
AcDbEntity
  8
0
 62
     0
100
AcDbLine
 10
299.514313563933
 20
283.6204367316696
 30
0.0
 11
296.6436069287047
 21
286.4911433668979
 31
0.0
  0
LINE
  5
1ED6
330
229C
100
AcDbEntity
  8
0
 62
     0
100
AcDbLine
 10
295.0426724272515
 20
280.1573996992363
 30
0.0
 11
299.3147166453675
 21
284.4294439173523
 31
0.0
  0
LINE
  5
1ED7
330
229C
100
AcDbEntity
  8
0
 62
     0
100
AcDbLine
 10
296.4346017427158
 20
280.1130183649845
 30
0.0
 11
299.5362130655564
 21
283.2146296878251
 31
0.0
  0
LINE
  5
1ED8
330
229C
100
AcDbEntity
  8
0
 62
     0
100
AcDbLine
 10
294.1354209255095
 20
280.6864588472104
 30
0.0
 11
298.7856574973934
 21
285.3366954190943
 31
0.0
  0
LINE
  5
1ED9
330
229C
100
AcDbEntity
  8
0
100
AcDbLine
 10
299.6378355878371
 20
280.1130183649845
 30
0.0
 11
289.6753355848484
 21
280.1130183649845
 31
0.0
1001
ACAD
1000
ASC_BOUNDS
1002
{
1070
    19
1002
}
  0
LINE
  5
1EDA
330
229C
100
AcDbEntity
  8
0
 62
     0
100
AcDbLine
 10
298.2229787856823
 20
280.6028395607721
 30
0.0
 11
293.5953021726366
 21
285.2305161738177
 31
0.0
  0
LINE
  5
1EDB
330
229C
100
AcDbEntity
  8
DIM
100
AcDbLine
 10
291.6753355854485
 20
285.674503815821
 30
0.0
 11
289.6753355848484
 21
286.9711329789129
 31
0.0
  0
LINE
  5
1EDC
330
229C
100
AcDbEntity
  8
0
 62
     0
100
AcDbLine
 10
297.2764893317539
 20
280.1130183649845
 30
0.0
 11
293.0995841192787
 21
284.2899235774597
 31
0.0
  0
LINE
  5
1EDD
330
229C
100
AcDbEntity
  8
0
 62
     0
100
AcDbLine
 10
295.8401786820378
 20
280.1130183649845
 30
0.0
 11
292.9357629055223
 21
283.0174341415
 31
0.0
  0
LINE
  5
1EDE
330
229C
100
AcDbEntity
  8
0
 62
     0
100
AcDbLine
 10
293.0245131303894
 20
282.4481723515223
 30
0.0
 11
297.0239439930815
 21
286.4476032142145
 31
0.0
  0
LINE
  5
1EDF
330
229C
100
AcDbEntity
  8
0
 62
     0
100
AcDbLine
 10
292.9839673500936
 20
283.8439372209426
 30
0.0
 11
295.6281791236613
 21
286.4881489945103
 31
0.0
  0
LINE
  5
1EE0
330
229C
100
AcDbEntity
  8
0
 62
     0
100
AcDbLine
 10
293.4580315723445
 20
281.4453801437614
 30
0.0
 11
298.0267362008424
 21
286.0140847722593
 31
0.0
  0
LINE
  5
1EE1
330
229C
100
AcDbEntity
  8
0
100
AcDbLine
 10
299.6378355878371
 20
292.8692683688113
 30
0.0
 11
289.6753355848484
 21
292.8692683688113
 31
0.0
  0
LINE
  5
1EE2
330
229C
100
AcDbEntity
  8
0
100
AcDbLine
 10
57.11283552665958
 20
292.8692683688113
 30
0.0
 11
67.07533552964838
 21
292.8692683688113
 31
0.0
  0
LINE
  5
1EE3
330
229C
100
AcDbEntity
  8
0
 62
     0
100
AcDbLine
 10
58.52769232881446
 20
280.6028395607721
 30
0.0
 11
63.1553689418601
 21
285.2305161738177
 31
0.0
  0
LINE
  5
1EE4
330
229C
100
AcDbEntity
  8
0
100
AcDbLine
 10
57.11283552665958
 20
280.1130183649845
 30
0.0
 11
67.07533552964827
 21
280.1130183649845
 31
0.0
1001
ACAD
1000
ASC_BOUNDS
1002
{
1070
    19
1002
}
  0
LINE
  5
1EE5
330
229C
100
AcDbEntity
  8
0
 62
     0
100
AcDbLine
 10
62.6152501889872
 20
280.6864588472104
 30
0.0
 11
57.96501361710335
 21
285.3366954190943
 31
0.0
  0
LINE
  5
1EE6
330
229C
100
AcDbEntity
  8
0
 62
     0
100
AcDbLine
 10
60.316069371781
 20
280.1130183649845
 30
0.0
 11
57.21445804894035
 21
283.2146296878251
 31
0.0
  0
LINE
  5
1EE7
330
229C
100
AcDbEntity
  8
0
 62
     0
100
AcDbLine
 10
61.70799868724526
 20
280.1573996992363
 30
0.0
 11
57.43595446912917
 21
284.4294439173523
 31
0.0
  0
LINE
  5
1EE8
330
229C
100
AcDbEntity
  8
0
 62
     0
100
AcDbLine
 10
57.2363575505637
 20
283.6204367316696
 30
0.0
 11
60.10706418579201
 21
286.4911433668979
 31
0.0
  0
LINE
  5
1EE9
330
229C
100
AcDbEntity
  8
0
 62
     0
100
AcDbLine
 10
57.35116445475632
 20
282.298932986146
 30
0.0
 11
61.45927551648611
 21
286.4070440478759
 31
0.0
  0
LINE
  5
1EEA
330
229C
100
AcDbEntity
  8
0
 62
     0
100
AcDbLine
 10
57.82071532973379
 20
281.3321732114075
 30
0.0
 11
62.42603529122465
 21
285.9374931728983
 31
0.0
  0
LINE
  5
1EEB
330
229C
100
AcDbEntity
  8
0
100
AcDbLine
 10
65.07533552904835
 20
292.8692683688113
 30
0.0
 11
65.07533552904823
 21
280.1130183649845
 31
0.0
  0
LINE
  5
1EEC
330
229C
100
AcDbEntity
  8
0
 62
     0
100
AcDbLine
 10
63.29263954215225
 20
281.4453801437614
 30
0.0
 11
58.72393491365432
 21
286.0140847722593
 31
0.0
  0
LINE
  5
1EED
330
229C
100
AcDbEntity
  8
0
 62
     0
100
AcDbLine
 10
63.76670376440319
 20
283.8439372209426
 30
0.0
 11
61.12249199083549
 21
286.4881489945103
 31
0.0
  0
LINE
  5
1EEE
330
229C
100
AcDbEntity
  8
0
 62
     0
100
AcDbLine
 10
63.72615798410738
 20
282.4481723515223
 30
0.0
 11
59.7267271214153
 21
286.4476032142145
 31
0.0
  0
LINE
  5
1EEF
330
229C
100
AcDbEntity
  8
0
 62
     0
100
AcDbLine
 10
60.91049243245885
 20
280.1130183649845
 30
0.0
 11
63.81490820897449
 21
283.0174341415
 31
0.0
  0
LINE
  5
1EF0
330
229C
100
AcDbEntity
  8
0
 62
     0
100
AcDbLine
 10
59.47418178274284
 20
280.1130183649845
 30
0.0
 11
63.65108699521801
 21
284.2899235774597
 31
0.0
  0
LINE
  5
1EF1
330
229C
100
AcDbEntity
  8
DIM
100
AcDbLine
 10
65.07533552904835
 20
285.674503815821
 30
0.0
 11
67.07533552964838
 21
286.9711329789129
 31
0.0
  0
LINE
  5
1EF2
330
229C
100
AcDbEntity
  8
DIM
100
AcDbLine
 10
65.07533552904835
 20
286.4911433668979
 30
0.0
 11
67.07533552964838
 21
287.7877725299898
 31
0.0
  0
LINE
  5
1EF3
330
229C
100
AcDbEntity
  8
CENTER
  6
CENTER
100
AcDbLine
 10
44.57533552289834
 20
282.9911433658478
 30
0.0
 11
34.57533551989837
 21
282.9911433658478
 31
0.0
  0
LINE
  5
1EF4
330
229C
100
AcDbEntity
  8
0
100
AcDbLine
 10
57.11283552665958
 20
292.8692683688113
 30
0.0
 11
57.11283552665958
 21
280.1130183649845
 31
0.0
  0
ARC
  5
1EF6
330
229C
100
AcDbEntity
  8
0
100
AcDbCircle
 10
32.57533551779835
 20
292.9911433688478
 30
0.0
 40
3.000000000899999
100
AcDbArc
 50
90.0
 51
180.0
  0
LINE
  5
1EF7
330
229C
100
AcDbEntity
  8
0
100
AcDbLine
 10
57.11283552665958
 20
235.8692683517113
 30
0.0
 11
57.11283552665958
 21
223.1130183478844
 31
0.0
  0
LINE
  5
1EF8
330
229C
100
AcDbEntity
  8
0
100
AcDbLine
 10
65.07533552904835
 20
235.8692683517113
 30
0.0
 11
65.07533552904823
 21
223.1130183478844
 31
0.0
  0
LINE
  5
1EF9
330
229C
100
AcDbEntity
  8
DIM
100
AcDbLine
 10
65.07533552904835
 20
229.4911433497978
 30
0.0
 11
67.07533552964838
 21
230.7877725128897
 31
0.0
  0
CIRCLE
  5
1EFA
330
229C
100
AcDbEntity
  8
0
100
AcDbCircle
 10
39.57533552139835
 20
232.991143350848
 30
0.0
 40
4.50000000135
  0
LINE
  5
1EFB
330
229C
100
AcDbEntity
  8
0
 62
     0
100
AcDbLine
 10
57.82071532973379
 20
224.3321731943075
 30
0.0
 11
62.42603529122465
 21
228.9374931557983
 31
0.0
  0
LINE
  5
1EFC
330
229C
100
AcDbEntity
  8
0
 62
     0
100
AcDbLine
 10
57.35116445475632
 20
225.298932969046
 30
0.0
 11
61.45927551648611
 21
229.4070440307758
 31
0.0
  0
LINE
  5
1EFD
330
229C
100
AcDbEntity
  8
0
 62
     0
100
AcDbLine
 10
57.2363575505637
 20
226.6204367145696
 30
0.0
 11
60.10706418579201
 21
229.4911433497978
 31
0.0
  0
LINE
  5
1EFE
330
229C
100
AcDbEntity
  8
0
 62
     0
100
AcDbLine
 10
61.70799868724526
 20
223.1573996821362
 30
0.0
 11
57.43595446912917
 21
227.4294439002523
 31
0.0
  0
LINE
  5
1EFF
330
229C
100
AcDbEntity
  8
0
 62
     0
100
AcDbLine
 10
60.316069371781
 20
223.1130183478844
 30
0.0
 11
57.21445804894035
 21
226.2146296707251
 31
0.0
  0
LINE
  5
1F00
330
229C
100
AcDbEntity
  8
0
 62
     0
100
AcDbLine
 10
62.6152501889872
 20
223.6864588301104
 30
0.0
 11
57.96501361710335
 21
228.3366954019942
 31
0.0
  0
LINE
  5
1F01
330
229C
100
AcDbEntity
  8
0
100
AcDbLine
 10
57.11283552665958
 20
223.1130183478844
 30
0.0
 11
67.07533552964827
 21
223.1130183478844
 31
0.0
1001
ACAD
1000
ASC_BOUNDS
1002
{
1070
    19
1002
}
  0
LINE
  5
1F02
330
229C
100
AcDbEntity
  8
0
 62
     0
100
AcDbLine
 10
58.52769232881446
 20
223.6028395436721
 30
0.0
 11
63.1553689418601
 21
228.2305161567177
 31
0.0
  0
LINE
  5
1F03
330
229C
100
AcDbEntity
  8
DIM
100
AcDbLine
 10
65.07533552904835
 20
228.674503798721
 30
0.0
 11
67.07533552964838
 21
229.9711329618128
 31
0.0
  0
LINE
  5
1F04
330
229C
100
AcDbEntity
  8
0
 62
     0
100
AcDbLine
 10
59.47418178274284
 20
223.1130183478844
 30
0.0
 11
63.65108699521801
 21
227.2899235603596
 31
0.0
  0
LINE
  5
1F05
330
229C
100
AcDbEntity
  8
0
 62
     0
100
AcDbLine
 10
60.91049243245885
 20
223.1130183478844
 30
0.0
 11
63.81490820897449
 21
226.0174341243999
 31
0.0
  0
LINE
  5
1F06
330
229C
100
AcDbEntity
  8
0
 62
     0
100
AcDbLine
 10
63.72615798410738
 20
225.4481723344223
 30
0.0
 11
59.7267271214153
 21
229.4476031971144
 31
0.0
  0
LINE
  5
1F07
330
229C
100
AcDbEntity
  8
0
 62
     0
100
AcDbLine
 10
63.76670376440319
 20
226.8439372038425
 30
0.0
 11
61.12249199083549
 21
229.4881489774102
 31
0.0
  0
LINE
  5
1F08
330
229C
100
AcDbEntity
  8
0
 62
     0
100
AcDbLine
 10
63.29263954215225
 20
224.4453801266613
 30
0.0
 11
58.72393491365432
 21
229.0140847551592
 31
0.0
  0
ARC
  5
1F09
330
229C
100
AcDbEntity
  8
0
100
AcDbCircle
 10
32.57533551779835
 20
222.9911433478479
 30
0.0
 40
3.000000000899999
100
AcDbArc
 50
180.0
 51
270.0
  0
LINE
  5
1F0A
330
229C
100
AcDbEntity
  8
0
100
AcDbLine
 10
57.11283552665958
 20
235.8692683517113
 30
0.0
 11
67.07533552964838
 21
235.8692683517113
 31
0.0
  0
LINE
  5
1F0B
330
229C
100
AcDbEntity
  8
CENTER
  6
CENTER
100
AcDbLine
 10
44.57533552289834
 20
232.991143350848
 30
0.0
 11
34.57533551989837
 21
232.991143350848
 31
0.0
  0
LINE
  5
1F0D
330
229C
100
AcDbEntity
  8
0
100
AcDbLine
 10
29.5753355168984
 20
292.9911433688478
 30
0.0
 11
29.5753355168984
 21
222.9911433478479
 31
0.0
  0
LINE
  5
1F0E
330
229C
100
AcDbEntity
  8
CENTER
  6
CENTER
100
AcDbLine
 10
39.57533552139835
 20
227.991143349348
 30
0.0
 11
39.57533552139835
 21
237.991143352348
 31
0.0
  0
CIRCLE
  5
1F0F
330
229C
100
AcDbEntity
  8
0
100
AcDbCircle
 10
39.57533552139835
 20
282.9911433658478
 30
0.0
 40
4.50000000135
  0
LINE
  5
1F10
330
229C
100
AcDbEntity
  8
CENTER
  6
CENTER
100
AcDbLine
 10
39.57533552139835
 20
287.9911433673478
 30
0.0
 11
39.57533552139835
 21
277.9911433643479
 31
0.0
  0
LINE
  5
1F11
330
229C
100
AcDbEntity
  8
0
100
AcDbLine
 10
32.57533551779835
 20
295.9911433697479
 30
0.0
 11
71.5753355309983
 21
295.9911433697479
 31
0.0
  0
LINE
  5
1F12
330
229C
100
AcDbEntity
  8
0
100
AcDbLine
 10
67.07533552964838
 20
295.9911433697479
 30
0.0
 11
67.07533552964838
 21
219.991143346948
 31
0.0
  0
LINE
  5
1F13
330
229C
100
AcDbEntity
  8
0
100
AcDbLine
 10
32.57533551779835
 20
219.991143346948
 30
0.0
 11
71.5753355309983
 21
219.991143346948
 31
0.0
  0
LINE
  5
1F1E
330
229C
100
AcDbEntity
  8
DIM
  6
CONTINUOUS
 62
     5
100
AcDbLine
 10
323.6039070235984
 20
282.9911433658478
 30
0.0
 11
342.7683423896303
 21
282.9911433658478
 31
0.0
  0
LINE
  5
1F1F
330
229C
100
AcDbEntity
  8
DIM
  6
CONTINUOUS
 62
     5
100
AcDbLine
 10
323.6039070235984
 20
232.991143350848
 30
0.0
 11
342.7683423896303
 21
232.991143350848
 31
0.0
  0
LINE
  5
1F20
330
229C
100
AcDbEntity
  8
DIM
  6
CONTINUOUS
 62
     5
100
AcDbLine
 10
339.9111995316304
 20
278.7054290788478
 30
0.0
 11
339.9111995316304
 21
237.276857637848
 31
0.0
  0
SOLID
  5
1F21
330
229C
100
AcDbEntity
  8
DIM
  6
CONTINUOUS
 62
     5
100
AcDbTrace
 10
339.1969138171303
 20
278.7054290788478
 30
0.0
 11
340.6254852461303
 21
278.7054290788478
 31
0.0
 12
339.9111995316304
 22
282.9911433658478
 32
0.0
 13
339.9111995316304
 23
282.9911433658478
 33
0.0
  0
SOLID
  5
1F22
330
229C
100
AcDbEntity
  8
DIM
  6
CONTINUOUS
 62
     5
100
AcDbTrace
 10
339.1969138171303
 20
237.276857637848
 30
0.0
 11
340.6254852461303
 21
237.276857637848
 31
0.0
 12
339.9111995316304
 22
232.991143350848
 32
0.0
 13
339.9111995316304
 23
232.991143350848
 33
0.0
  0
TEXT
  5
1F23
330
229C
100
AcDbEntity
  8
DIM
  6
CONTINUOUS
 62
     5
100
AcDbText
 10
337.8397709591303
 20
255.5625719297765
 30
0.0
 40
3.0
  1
50
 50
89.99999999999998
100
AcDbText
  0
SOLID
  5
1F4C
330
229C
100
AcDbEntity
  8
DIM
  6
CONTINUOUS
 62
     5
100
AcDbTrace
 10
-314.1324776425058
 20
289.8841602417643
 30
0.0
 11
-315.500866024238
 21
287.1680024339887
 31
0.0
 12
-313.3255285362939
 22
289.2935392634849
 32
0.0
 13
-313.3255285362939
 23
289.2935392634849
 33
0.0
210
0.0
220
0.0
230
-1.0
  0
POLYLINE
  5
21B0
330
229C
100
AcDbEntity
  8
DIM
  6
CONTINUOUS
 62
     5
100
AcDb3dPolyline
 66
     1
 10
0.0
 20
0.0
 30
0.0
 70
     8
1001
ACAD
1000
R13OBJECT
1002
{
1005
1F4C
1002
}
  0
VERTEX
  5
21B1
330
21B0
100
AcDbEntity
  8
DIM
  6
CONTINUOUS
 62
     5
100
AcDbVertex
100
AcDb3dPolylineVertex
 10
313.7290030893999
 20
289.5888497526246
 30
0.0
 70
    32
1001
ACAD
1000
R13OBJECT
1002
{
1005
1F4C
1002
}
  0
VERTEX
  5
21B2
330
21B0
100
AcDbEntity
  8
DIM
  6
CONTINUOUS
 62
     5
100
AcDbVertex
100
AcDb3dPolylineVertex
 10
304.7864484783019
 20
301.8068147692068
 30
0.0
 70
    32
1001
ACAD
1000
R13OBJECT
1002
{
1005
1F4C
1002
}
  0
SEQEND
  5
21B3
330
21B0
100
AcDbEntity
  8
DIM
  6
CONTINUOUS
 62
     5
  0
POLYLINE
  5
21B4
330
229C
100
AcDbEntity
  8
DIM
  6
CONTINUOUS
 62
     5
100
AcDb3dPolyline
 66
     1
 10
0.0
 20
0.0
 30
0.0
 70
     8
1001
ACAD
1000
R13OBJECT
1002
{
1005
1F4C
1002
}
  0
VERTEX
  5
21B5
330
21B4
100
AcDbEntity
  8
DIM
  6
CONTINUOUS
 62
     5
100
AcDbVertex
100
AcDb3dPolylineVertex
 10
304.7864484783019
 20
301.8068147692068
 30
0.0
 70
    32
1001
ACAD
1000
R13OBJECT
1002
{
1005
1F4C
1002
}
  0
VERTEX
  5
21B6
330
21B4
100
AcDbEntity
  8
DIM
  6
CONTINUOUS
 62
     5
100
AcDbVertex
100
AcDb3dPolylineVertex
 10
291.9793504108961
 20
301.8068147692068
 30
0.0
 70
    32
1001
ACAD
1000
R13OBJECT
1002
{
1005
1F4C
1002
}
  0
SEQEND
  5
21B7
330
21B4
100
AcDbEntity
  8
DIM
  6
CONTINUOUS
 62
     5
  0
TEXT
  5
1F4D
330
229C
100
AcDbEntity
  8
DIM
 62
     5
100
AcDbText
 10
292.0259593614717
 20
302.7911084110098
 30
0.0
 40
3.0
  1
4-%%C9
  7
CHINESET
100
AcDbText
  0
LINE
  5
1F64
330
229C
100
AcDbEntity
  8
0
  6
CONTINUOUS
100
AcDbLine
 10
80.90243556004656
 20
77.59829727637537
 30
0.0
 11
70.10243555680659
 21
77.59829727637541
 31
0.0
  0
LINE
  5
1F65
330
229C
100
AcDbEntity
  8
0
  6
CONTINUOUS
100
AcDbLine
 10
80.90243556004656
 20
59.59829727097545
 30
0.0
 11
70.10243555680649
 21
59.59829727097545
 31
0.0
  0
LINE
  5
1F6A
330
229C
100
AcDbEntity
  8
0
100
AcDbLine
 10
90.10243556280682
 20
107.5482972736754
 30
0.0
 11
263.7024355770565
 21
107.5482972736755
 31
0.0
1001
ACAD
1000
ASC_BOUNDS
1002
{
1070
    19
1002
}
  0
LINE
  5
1F6B
330
229C
100
AcDbEntity
  8
0
100
AcDbLine
 10
90.10243556280682
 20
104.1482972736754
 30
0.0
 11
263.7024355770565
 21
104.1482972736755
 31
0.0
1001
ACAD
1000
ASC_BOUNDS
1002
{
1070
    19
1002
}
  0
LINE
  5
1F6C
330
229C
100
AcDbEntity
  8
0
100
AcDbLine
 10
90.10243556280682
 20
89.54829727367547
 30
0.0
 11
263.7024355770565
 21
89.54829727367556
 31
0.0
1001
ACAD
1000
ASC_BOUNDS
1002
{
1070
    19
1002
}
  0
LINE
  5
1F6D
330
229C
100
AcDbEntity
  8
0
100
AcDbLine
 10
90.10243556280682
 20
86.14829727367549
 30
0.0
 11
263.7024355770565
 21
86.14829727367554
 31
0.0
1001
ACAD
1000
ASC_BOUNDS
1002
{
1070
    19
1002
}
  0
DIMENSION
  5
1F82
330
229C
100
AcDbEntity
  8
DIM
100
AcDbDimension
  2
*D11
 10
70.10243555680642
 20
36.54998053007147
 30
0.0
 11
176.9024355699315
 21
39.55027580566203
 31
0.0
 70
    32
  3
STANDARD
100
AcDbAlignedDimension
 13
283.7024355830565
 23
57.23433623958761
 33
0.0
 14
70.10243555680642
 24
57.23433623958754
 34
0.0
100
AcDbRotatedDimension
1001
ACAD
1000
DSTYLE
1002
{
1070
   340
1005
1F73
1002
}
  0
DIMENSION
  5
1F9A
330
229C
100
AcDbEntity
  8
DIM
100
AcDbDimension
  2
*D5
 10
38.10243554720648
 20
26.478660040524
 30
0.0
 11
176.9024355699315
 21
29.47895531611456
 31
0.0
 70
    32
  3
STANDARD
100
AcDbAlignedDimension
 13
315.7024355926565
 23
42.95125570186331
 33
0.0
 14
38.10243554720648
 24
43.2012557104133
 34
0.0
100
AcDbRotatedDimension
  0
DIMENSION
  5
1FA7
330
229C
100
AcDbEntity
  8
DIM
100
AcDbDimension
  2
*D10
 10
185.4024355593565
 20
183.2500097810213
 30
0.0
 11
176.9024355568065
 21
186.2500097810213
 31
0.0
 70
    32
  1
{%%c<>}
  3
STANDARD
100
AcDbAlignedDimension
 13
168.4024355542565
 23
174.5482972969856
 33
0.0
 14
185.4024355593565
 24
174.5482972969856
 34
0.0
100
AcDbRotatedDimension
  0
DIMENSION
  5
1FB4
330
229C
100
AcDbEntity
  8
DIM
100
AcDbDimension
  2
*D9
 10
161.9024355523064
 20
190.3665214470251
 30
0.0
 11
176.9024355568065
 21
193.3665214470251
 31
0.0
 70
    32
  1
{%%c<>}
  3
STANDARD
100
AcDbAlignedDimension
 13
191.9024355613066
 23
136.7482972856453
 33
0.0
 14
161.9024355523064
 24
136.7482972856455
 34
0.0
100
AcDbRotatedDimension
  0
DIMENSION
  5
201B
330
229C
100
AcDbEntity
  8
DIM
100
AcDbDimension
  2
*D8
 10
202.9851196417137
 20
170.5482972957855
 30
0.0
 11
200.3367614845242
 21
179.6663379797205
 31
0.0
 70
   160
  3
STANDARD
100
AcDbAlignedDimension
 13
184.4024355590566
 23
175.5482972972855
 33
0.0
 14
176.9024355568066
 24
170.5482972957856
 34
0.0
 50
90.0
100
AcDbRotatedDimension
  0
DIMENSION
  5
2028
330
229C
100
AcDbEntity
  8
DIM
100
AcDbDimension
  2
*D12
 10
202.9851196417137
 20
140.5482972867856
 30
0.0
 11
199.9851196417136
 21
155.5482972912856
 31
0.0
 70
    32
  3
STANDARD
100
AcDbAlignedDimension
 13
176.9024355568066
 23
170.5482972957856
 33
0.0
 14
176.9024355568066
 24
140.5482972867856
 34
0.0
 50
90.0
100
AcDbRotatedDimension
  0
CIRCLE
  5
2044
330
229C
100
AcDbEntity
  8
DIM
100
AcDbCircle
 10
176.9024355568066
 20
257.9911433583479
 30
0.0
 40
8.5
  0
CIRCLE
  5
2045
330
229C
100
AcDbEntity
  8
DIM
100
AcDbCircle
 10
176.9024355568066
 20
257.9911433583479
 30
0.0
 40
15.0
  0
CIRCLE
  5
2046
330
229C
100
AcDbEntity
  8
DIM
100
AcDbCircle
 10
176.9024355568066
 20
257.9911433583479
 30
0.0
 40
29.0
  0
LINE
  5
2048
330
229C
100
AcDbEntity
  8
CENTER
  6
CENTER
100
AcDbLine
 10
152.5072516058707
 20
233.595959407412
 30
0.0
 11
201.2976195077425
 21
282.3863273092838
 31
0.0
  0
LINE
  5
2049
330
229C
100
AcDbEntity
  8
CENTER
  6
CENTER
100
AcDbLine
 10
201.2976195077425
 20
233.595959407412
 30
0.0
 11
152.5072516058707
 21
282.3863273092838
 31
0.0
  0
CIRCLE
  5
204A
330
229C
100
AcDbEntity
  8
CENTER
  6
CENTER
100
AcDbCircle
 10
176.9024355568066
 20
257.9911433583479
 30
0.0
 40
25.0
  0
ARC
  5
204B
330
229C
100
AcDbEntity
  8
DIM
100
AcDbCircle
 10
194.5801050864703
 20
275.6688128880115
 30
0.0
 40
4.0
100
AcDbArc
 50
135.0
 51
315.0000000000003
  0
LINE
  5
204D
330
229C
100
AcDbEntity
  8
DIM
100
AcDbLine
 10
153.5679117776505
 20
240.3134738286842
 30
0.0
 11
153.7639124204705
 21
240.5094744715042
 31
0.0
  0
LINE
  5
204E
330
229C
100
AcDbEntity
  8
DIM
100
AcDbLine
 10
159.2247660271429
 20
234.6566195791918
 30
0.0
 11
159.4207666699628
 21
234.8526202220118
 31
0.0
  0
LINE
  5
204F
330
229C
100
AcDbEntity
  8
DIM
100
AcDbLine
 10
191.7516779617241
 20
278.4972400127577
 30
0.0
 11
194.3841044436503
 21
281.129666494684
 31
0.0
  0
LINE
  5
2050
330
229C
100
AcDbEntity
  8
DIM
100
AcDbLine
 10
197.4085322112164
 20
272.8403857632654
 30
0.0
 11
200.0409586931426
 21
275.4728122451916
 31
0.0
  0
ARC
  5
2051
330
229C
100
AcDbEntity
  8
DIM
100
AcDbCircle
 10
159.224766027143
 20
275.6688128880115
 30
0.0
 40
4.0
100
AcDbArc
 50
225.0
 51
45.00000000000031
  0
LINE
  5
2052
330
229C
100
AcDbEntity
  8
DIM
100
AcDbLine
 10
156.3963389023967
 20
272.8403857632653
 30
0.0
 11
153.7639124204705
 21
275.4728122451916
 31
0.0
  0
LINE
  5
2053
330
229C
100
AcDbEntity
  8
DIM
100
AcDbLine
 10
162.0531931518891
 20
278.4972400127577
 30
0.0
 11
159.4207666699628
 21
281.1296664946839
 31
0.0
  0
ARC
  5
2054
330
229C
100
AcDbEntity
  8
DIM
100
AcDbCircle
 10
159.224766027143
 20
240.3134738286842
 30
0.0
 40
4.0
100
AcDbArc
 50
315.0
 51
135.0000000000003
  0
LINE
  5
2055
330
229C
100
AcDbEntity
  8
DIM
100
AcDbLine
 10
162.0531931518892
 20
237.485046703938
 30
0.0
 11
159.4207666699629
 21
234.8526202220118
 31
0.0
  0
LINE
  5
2056
330
229C
100
AcDbEntity
  8
DIM
100
AcDbLine
 10
156.3963389023967
 20
243.1419009534304
 30
0.0
 11
153.7639124204706
 21
240.5094744715041
 31
0.0
  0
ARC
  5
2057
330
229C
100
AcDbEntity
  8
DIM
100
AcDbCircle
 10
194.5801050864703
 20
240.3134738286842
 30
0.0
 40
4.0
100
AcDbArc
 50
45.0
 51
225.0000000000003
  0
LINE
  5
2058
330
229C
100
AcDbEntity
  8
DIM
100
AcDbLine
 10
197.4085322112165
 20
243.1419009534304
 30
0.0
 11
200.0409586931427
 21
240.5094744715042
 31
0.0
  0
LINE
  5
2059
330
229C
100
AcDbEntity
  8
DIM
100
AcDbLine
 10
191.7516779617241
 20
237.485046703938
 30
0.0
 11
194.3841044436504
 21
234.8526202220118
 31
0.0
  0
CIRCLE
  5
205A
330
229C
100
AcDbEntity
  8
DIM
100
AcDbCircle
 10
194.5801050864703
 20
275.6688128880115
 30
0.0
 40
2.25
  0
CIRCLE
  5
205B
330
229C
100
AcDbEntity
  8
DIM
100
AcDbCircle
 10
159.2247660271429
 20
275.6688128880115
 30
0.0
 40
2.25
  0
CIRCLE
  5
205C
330
229C
100
AcDbEntity
  8
DIM
100
AcDbCircle
 10
159.2247660271429
 20
240.3134738286842
 30
0.0
 40
2.25
  0
CIRCLE
  5
205D
330
229C
100
AcDbEntity
  8
DIM
100
AcDbCircle
 10
194.5801050864703
 20
240.3134738286842
 30
0.0
 40
2.25
  0
LINE
  5
205E
330
229C
100
AcDbEntity
  8
0
100
AcDbLine
 10
173.9024355559065
 20
246.9911433583479
 30
0.0
 11
179.9024355577066
 21
246.9911433583479
 31
0.0
  0
LINE
  5
205F
330
229C
100
AcDbEntity
  8
DIM
100
AcDbLine
 10
173.9024355559065
 20
246.9911433583479
 30
0.0
 11
173.9024355559066
 21
250.0381564983939
 31
0.0
  0
LINE
  5
2062
330
229C
100
AcDbEntity
  8
DIM
100
AcDbLine
 10
179.9024355577066
 20
246.9911433583479
 30
0.0
 11
179.9024355577066
 21
250.0381564983939
 31
0.0
  0
CIRCLE
  5
2068
330
229C
100
AcDbEntity
  8
DIM
100
AcDbCircle
 10
146.9024355568066
 20
287.9911433583479
 30
0.0
 40
5.0
  0
CIRCLE
  5
2069
330
229C
100
AcDbEntity
  8
DIM
100
AcDbCircle
 10
146.9024355568066
 20
287.9911433583479
 30
0.0
 40
4.25
  0
CIRCLE
  5
206A
330
229C
100
AcDbEntity
  8
DIM
100
AcDbCircle
 10
146.9024355568066
 20
227.9911433583479
 30
0.0
 40
4.25
  0
CIRCLE
  5
206B
330
229C
100
AcDbEntity
  8
DIM
100
AcDbCircle
 10
146.9024355568066
 20
227.9911433583479
 30
0.0
 40
5.0
  0
CIRCLE
  5
206C
330
229C
100
AcDbEntity
  8
DIM
100
AcDbCircle
 10
206.9024355568066
 20
227.9911433583479
 30
0.0
 40
5.0
  0
CIRCLE
  5
206D
330
229C
100
AcDbEntity
  8
DIM
100
AcDbCircle
 10
206.9024355568066
 20
227.9911433583479
 30
0.0
 40
4.25
  0
CIRCLE
  5
206E
330
229C
100
AcDbEntity
  8
DIM
100
AcDbCircle
 10
206.9024355568066
 20
287.9911433583479
 30
0.0
 40
4.25
  0
CIRCLE
  5
206F
330
229C
100
AcDbEntity
  8
DIM
100
AcDbCircle
 10
206.9024355568066
 20
287.9911433583479
 30
0.0
 40
5.0
  0
LINE
  5
2074
330
229C
100
AcDbEntity
  8
DIM
  6
CONTINUOUS
 62
     5
100
AcDbLine
 10
205.9024355568066
 20
287.9911433583479
 30
0.0
 11
207.9024355568066
 21
287.9911433583479
 31
0.0
  0
LINE
  5
2075
330
229C
100
AcDbEntity
  8
DIM
  6
CONTINUOUS
 62
     5
100
AcDbLine
 10
206.9024355568066
 20
286.9911433583479
 30
0.0
 11
206.9024355568066
 21
288.9911433583479
 31
0.0
  0
LINE
  5
2076
330
229C
100
AcDbEntity
  8
DIM
  6
CONTINUOUS
 62
     5
100
AcDbLine
 10
204.9024355568066
 20
287.9911433583479
 30
0.0
 11
200.9024355568066
 21
287.9911433583479
 31
0.0
  0
LINE
  5
2077
330
229C
100
AcDbEntity
  8
DIM
  6
CONTINUOUS
 62
     5
100
AcDbLine
 10
208.9024355568066
 20
287.9911433583479
 30
0.0
 11
212.9024355568065
 21
287.9911433583479
 31
0.0
  0
LINE
  5
2078
330
229C
100
AcDbEntity
  8
DIM
  6
CONTINUOUS
 62
     5
100
AcDbLine
 10
206.9024355568066
 20
285.9911433583479
 30
0.0
 11
206.9024355568066
 21
281.9911433583479
 31
0.0
  0
LINE
  5
2079
330
229C
100
AcDbEntity
  8
DIM
  6
CONTINUOUS
 62
     5
100
AcDbLine
 10
206.9024355568066
 20
289.9911433583479
 30
0.0
 11
206.9024355568066
 21
293.9911433583479
 31
0.0
  0
LINE
  5
207A
330
229C
100
AcDbEntity
  8
DIM
  6
CONTINUOUS
 62
     5
100
AcDbLine
 10
145.9024355568066
 20
287.9911433583479
 30
0.0
 11
147.9024355568066
 21
287.9911433583479
 31
0.0
  0
LINE
  5
207B
330
229C
100
AcDbEntity
  8
DIM
  6
CONTINUOUS
 62
     5
100
AcDbLine
 10
146.9024355568066
 20
286.9911433583479
 30
0.0
 11
146.9024355568066
 21
288.9911433583479
 31
0.0
  0
LINE
  5
207C
330
229C
100
AcDbEntity
  8
DIM
  6
CONTINUOUS
 62
     5
100
AcDbLine
 10
144.9024355568066
 20
287.9911433583479
 30
0.0
 11
141.6524355568066
 21
287.9911433583479
 31
0.0
  0
LINE
  5
207D
330
229C
100
AcDbEntity
  8
DIM
  6
CONTINUOUS
 62
     5
100
AcDbLine
 10
148.9024355568066
 20
287.9911433583479
 30
0.0
 11
152.1524355568066
 21
287.9911433583479
 31
0.0
  0
LINE
  5
207E
330
229C
100
AcDbEntity
  8
DIM
  6
CONTINUOUS
 62
     5
100
AcDbLine
 10
146.9024355568066
 20
285.9911433583479
 30
0.0
 11
146.9024355568066
 21
282.7411433583479
 31
0.0
  0
LINE
  5
207F
330
229C
100
AcDbEntity
  8
DIM
  6
CONTINUOUS
 62
     5
100
AcDbLine
 10
146.9024355568066
 20
289.9911433583479
 30
0.0
 11
146.9024355568066
 21
293.2411433583479
 31
0.0
  0
LINE
  5
2080
330
229C
100
AcDbEntity
  8
DIM
  6
CONTINUOUS
 62
     5
100
AcDbLine
 10
145.9024355568066
 20
227.9911433583479
 30
0.0
 11
147.9024355568066
 21
227.9911433583479
 31
0.0
  0
LINE
  5
2081
330
229C
100
AcDbEntity
  8
DIM
  6
CONTINUOUS
 62
     5
100
AcDbLine
 10
146.9024355568066
 20
226.9911433583479
 30
0.0
 11
146.9024355568066
 21
228.9911433583479
 31
0.0
  0
LINE
  5
2082
330
229C
100
AcDbEntity
  8
DIM
  6
CONTINUOUS
 62
     5
100
AcDbLine
 10
144.9024355568066
 20
227.9911433583479
 30
0.0
 11
140.9024355568066
 21
227.9911433583479
 31
0.0
  0
LINE
  5
2083
330
229C
100
AcDbEntity
  8
DIM
  6
CONTINUOUS
 62
     5
100
AcDbLine
 10
148.9024355568066
 20
227.9911433583479
 30
0.0
 11
152.9024355568066
 21
227.9911433583479
 31
0.0
  0
LINE
  5
2084
330
229C
100
AcDbEntity
  8
DIM
  6
CONTINUOUS
 62
     5
100
AcDbLine
 10
146.9024355568066
 20
225.9911433583479
 30
0.0
 11
146.9024355568066
 21
221.9911433583479
 31
0.0
  0
LINE
  5
2085
330
229C
100
AcDbEntity
  8
DIM
  6
CONTINUOUS
 62
     5
100
AcDbLine
 10
146.9024355568066
 20
229.9911433583479
 30
0.0
 11
146.9024355568066
 21
233.9911433583479
 31
0.0
  0
LINE
  5
2086
330
229C
100
AcDbEntity
  8
DIM
  6
CONTINUOUS
 62
     5
100
AcDbLine
 10
205.9024355568066
 20
227.9911433583479
 30
0.0
 11
207.9024355568066
 21
227.9911433583479
 31
0.0
  0
LINE
  5
2087
330
229C
100
AcDbEntity
  8
DIM
  6
CONTINUOUS
 62
     5
100
AcDbLine
 10
206.9024355568066
 20
226.9911433583479
 30
0.0
 11
206.9024355568066
 21
228.9911433583479
 31
0.0
  0
LINE
  5
2088
330
229C
100
AcDbEntity
  8
DIM
  6
CONTINUOUS
 62
     5
100
AcDbLine
 10
204.9024355568066
 20
227.9911433583479
 30
0.0
 11
201.6524355568066
 21
227.9911433583479
 31
0.0
  0
LINE
  5
2089
330
229C
100
AcDbEntity
  8
DIM
  6
CONTINUOUS
 62
     5
100
AcDbLine
 10
208.9024355568066
 20
227.9911433583479
 30
0.0
 11
212.1524355568066
 21
227.9911433583479
 31
0.0
  0
LINE
  5
208A
330
229C
100
AcDbEntity
  8
DIM
  6
CONTINUOUS
 62
     5
100
AcDbLine
 10
206.9024355568066
 20
225.9911433583479
 30
0.0
 11
206.9024355568066
 21
222.7411433583479
 31
0.0
  0
LINE
  5
208B
330
229C
100
AcDbEntity
  8
DIM
  6
CONTINUOUS
 62
     5
100
AcDbLine
 10
206.9024355568066
 20
229.9911433583479
 30
0.0
 11
206.9024355568066
 21
233.2411433583479
 31
0.0
  0
DIMENSION
  5
2098
330
229C
100
AcDbEntity
  8
DIM
100
AcDbDimension
  2
*D13
 10
146.9024355568066
 20
308.7438786369456
 30
0.0
 11
176.9024355568066
 21
311.7438786369456
 31
0.0
 70
    32
  3
STANDARD
100
AcDbAlignedDimension
 13
206.9024355568066
 23
293.9911433583479
 33
0.0
 14
146.9024355568066
 24
293.2411433583479
 34
0.0
100
AcDbRotatedDimension
  0
SOLID
  5
2099
330
229C
100
AcDbEntity
  8
DIM
  6
CONTINUOUS
 62
     5
100
AcDbTrace
 10
-212.1921594622982
 20
294.0347792292714
 30
0.0
 11
-210.0484450909519
 21
291.8773528240183
 31
0.0
 12
-211.3765771486299
 22
294.6134203007754
 32
0.0
 13
-211.3765771486299
 23
294.6134203007754
 33
0.0
210
0.0
220
0.0
230
-1.0
  0
POLYLINE
  5
21B8
330
229C
100
AcDbEntity
  8
DIM
  6
CONTINUOUS
 62
     5
100
AcDb3dPolyline
 66
     1
 10
0.0
 20
0.0
 30
0.0
 70
     8
1001
ACAD
1000
R13OBJECT
1002
{
1005
2099
1002
}
  0
VERTEX
  5
21B9
330
21B8
100
AcDbEntity
  8
DIM
  6
CONTINUOUS
 62
     5
100
AcDbVertex
100
AcDb3dPolylineVertex
 10
211.784368305464
 20
294.3240997650234
 30
0.0
 70
    32
1001
ACAD
1000
R13OBJECT
1002
{
1005
2099
1002
}
  0
VERTEX
  5
21BA
330
21B8
100
AcDbEntity
  8
DIM
  6
CONTINUOUS
 62
     5
100
AcDbVertex
100
AcDb3dPolylineVertex
 10
221.6626296218382
 20
308.2472995103988
 30
0.0
 70
    32
1001
ACAD
1000
R13OBJECT
1002
{
1005
2099
1002
}
  0
SEQEND
  5
21BB
330
21B8
100
AcDbEntity
  8
DIM
  6
CONTINUOUS
 62
     5
  0
POLYLINE
  5
21BC
330
229C
100
AcDbEntity
  8
DIM
  6
CONTINUOUS
 62
     5
100
AcDb3dPolyline
 66
     1
 10
0.0
 20
0.0
 30
0.0
 70
     8
1001
ACAD
1000
R13OBJECT
1002
{
1005
2099
1002
}
  0
VERTEX
  5
21BD
330
21BC
100
AcDbEntity
  8
DIM
  6
CONTINUOUS
 62
     5
100
AcDbVertex
100
AcDb3dPolylineVertex
 10
221.6626296218382
 20
308.2472995103988
 30
0.0
 70
    32
1001
ACAD
1000
R13OBJECT
1002
{
1005
2099
1002
}
  0
VERTEX
  5
21BE
330
21BC
100
AcDbEntity
  8
DIM
  6
CONTINUOUS
 62
     5
100
AcDbVertex
100
AcDb3dPolylineVertex
 10
250.4483439075525
 20
308.2472995103988
 30
0.0
 70
    32
1001
ACAD
1000
R13OBJECT
1002
{
1005
2099
1002
}
  0
SEQEND
  5
21BF
330
21BC
100
AcDbEntity
  8
DIM
  6
CONTINUOUS
 62
     5
  0
TEXT
  5
209A
330
229C
100
AcDbEntity
  8
DIM
  6
CONTINUOUS
 62
     5
100
AcDbText
 10
226.1626296218382
 20
309.7472995103988
 30
0.0
 40
3.0
  1
4-M10*12L
100
AcDbText
  0
POLYLINE
  5
209B
330
229C
100
AcDbEntity
  8
DIM
 62
     5
100
AcDb2dPolyline
 66
     1
 10
0.0
 20
0.0
 30
0.0
 70
     1
  0
VERTEX
  5
23B8
330
209B
100
AcDbEntity
  8
DIM
 62
     5
100
AcDbVertex
100
AcDb2dVertex
 10
170.4593015024699
 20
310.3311818740281
 30
0.0
  0
VERTEX
  5
23B9
330
209B
100
AcDbEntity
  8
DIM
 62
     5
100
AcDbVertex
100
AcDb2dVertex
 10
173.4593015024699
 20
310.3311818740281
 30
0.0
  0
VERTEX
  5
23BA
330
209B
100
AcDbEntity
  8
DIM
 62
     5
100
AcDbVertex
100
AcDb2dVertex
 10
173.4593015024699
 20
313.3311818740281
 30
0.0
  0
VERTEX
  5
23BB
330
209B
100
AcDbEntity
  8
DIM
 62
     5
100
AcDbVertex
100
AcDb2dVertex
 10
170.4593015024699
 20
313.3311818740281
 30
0.0
  0
SEQEND
  5
23BC
330
209B
100
AcDbEntity
  8
DIM
 62
     5
  0
SOLID
  5
20A1
330
229C
100
AcDbEntity
  8
DIM
  6
CONTINUOUS
 62
     5
100
AcDbTrace
 10
-173.5866228122586
 20
159.4551860191596
 30
0.0
 11
-175.9622614545242
 21
157.5561491471177
 31
0.0
 12
-173.0991318614486
 22
158.582057979936
 32
0.0
 13
-173.0991318614486
 23
158.582057979936
 33
0.0
210
0.0
220
0.0
230
-1.0
  0
POLYLINE
  5
21C0
330
229C
100
AcDbEntity
  8
DIM
  6
CONTINUOUS
 62
     5
100
AcDb3dPolyline
 66
     1
 10
0.0
 20
0.0
 30
0.0
 70
     8
1001
ACAD
1000
R13OBJECT
1002
{
1005
20A1
1002
}
  0
VERTEX
  5
21C1
330
21C0
100
AcDbEntity
  8
DIM
  6
CONTINUOUS
 62
     5
100
AcDbVertex
100
AcDb3dPolylineVertex
 10
173.3428773368536
 20
159.0186219995478
 30
0.0
 70
    32
1001
ACAD
1000
R13OBJECT
1002
{
1005
20A1
1002
}
  0
VERTEX
  5
21C2
330
21C0
100
AcDbEntity
  8
DIM
  6
CONTINUOUS
 62
     5
100
AcDbVertex
100
AcDb3dPolylineVertex
 10
140.9203890225626
 20
177.1209723375549
 30
0.0
 70
    32
1001
ACAD
1000
R13OBJECT
1002
{
1005
20A1
1002
}
  0
SEQEND
  5
21C3
330
21C0
100
AcDbEntity
  8
DIM
  6
CONTINUOUS
 62
     5
  0
POLYLINE
  5
21C4
330
229C
100
AcDbEntity
  8
DIM
  6
CONTINUOUS
 62
     5
100
AcDb3dPolyline
 66
     1
 10
0.0
 20
0.0
 30
0.0
 70
     8
1001
ACAD
1000
R13OBJECT
1002
{
1005
20A1
1002
}
  0
VERTEX
  5
21C5
330
21C4
100
AcDbEntity
  8
DIM
  6
CONTINUOUS
 62
     5
100
AcDbVertex
100
AcDb3dPolylineVertex
 10
140.9203890225626
 20
177.1209723375549
 30
0.0
 70
    32
1001
ACAD
1000
R13OBJECT
1002
{
1005
20A1
1002
}
  0
VERTEX
  5
21C6
330
21C4
100
AcDbEntity
  8
DIM
  6
CONTINUOUS
 62
     5
100
AcDbVertex
100
AcDb3dPolylineVertex
 10
102.9918175939911
 20
177.1209723375549
 30
0.0
 70
    32
1001
ACAD
1000
R13OBJECT
1002
{
1005
20A1
1002
}
  0
SEQEND
  5
21C7
330
21C4
100
AcDbEntity
  8
DIM
  6
CONTINUOUS
 62
     5
  0
TEXT
  5
20A2
330
229C
100
AcDbEntity
  8
DIM
  6
CONTINUOUS
 62
     5
100
AcDbText
 10
102.9918175939911
 20
178.6209723375549
 30
0.0
 40
3.0
  1
KEY WAY 6*30
100
AcDbText
  0
DIMENSION
  5
20B1
330
229C
100
AcDbEntity
  8
DIM
100
AcDbDimension
  2
*D7
 10
309.5989459168045
 20
136.9482972857056
 30
0.0
 11
305.7526114626221
 21
141.1851194800675
 31
0.0
 70
   160
  3
STANDARD
100
AcDbAlignedDimension
 13
281.7024355824564
 23
134.7482972850455
 33
0.0
 14
191.7024355612462
 24
136.9482972857056
 34
0.0
 50
90.0
100
AcDbRotatedDimension
  0
DIMENSION
  5
20DA
330
229C
100
AcDbEntity
  8
DIM
100
AcDbDimension
  2
*D4
 10
339.9775228222843
 20
51.09829726842553
 30
0.0
 11
333.9958325912221
 21
40.94101251804386
 31
0.0
 70
   160
  3
STANDARD
100
AcDbAlignedDimension
 13
325.7024355971565
 23
46.59829726707556
 33
0.0
 14
325.7024355971565
 24
51.09829726842554
 34
0.0
 50
90.0
100
AcDbRotatedDimension
1001
ACAD
1000
DSTYLE
1002
{
1070
   172
1070
     1
1002
}
  0
DIMENSION
  5
20F4
330
229C
100
AcDbEntity
  8
DIM
100
AcDbDimension
  2
*D3
 10
347.7997340354721
 20
134.7482972850454
 30
0.0
 11
344.649734035472
 21
90.67329727606058
 31
0.0
 70
    32
  1
{(<>)}
  3
STANDARD
100
AcDbAlignedDimension
 13
325.7024355971565
 23
46.59829726707556
 33
0.0
 14
281.7024355824564
 24
134.7482972850455
 34
0.0
 50
90.0
100
AcDbRotatedDimension
  0
DIMENSION
  5
2101
330
229C
100
AcDbEntity
  8
DIM
100
AcDbDimension
  2
*D6
 10
327.5540106342057
 20
175.5482972972855
 30
0.0
 11
324.5540106342057
 21
156.2482972914956
 31
0.0
 70
    32
  3
STANDARD
100
AcDbAlignedDimension
 13
191.7024355612462
 23
136.9482972857056
 33
0.0
 14
184.4024355590566
 24
175.5482972972855
 34
0.0
 50
90.0
100
AcDbRotatedDimension
  0
DIMENSION
  5
213D
330
229C
100
AcDbEntity
  8
DIM
100
AcDbDimension
  2
*D2
 10
363.9042852269561
 20
175.5482972972855
 30
0.0
 11
360.7535601884265
 21
111.0732972821805
 31
0.0
 70
    32
  1
{(<>)}
  3
STANDARD
100
AcDbAlignedDimension
 13
325.7024355971565
 23
46.59829726707556
 33
0.0
 14
184.4024355590566
 24
175.5482972972855
 34
0.0
 50
90.0
100
AcDbRotatedDimension
  0
LINE
  5
22E2
330
229C
100
AcDbEntity
  8
LOGO
 62
     1
100
AcDbLine
 10
392.3465185689726
 20
-41.47920250899574
 30
0.0
 11
9.454342871909375
 21
-41.47920250899574
 31
0.0
  0
LINE
  5
22E3
330
229C
100
AcDbEntity
  8
LOGO
 62
     1
100
AcDbLine
 10
392.3465185689726
 20
9.123287671232873
 30
0.0
 11
9.454342871909375
 21
9.123287671232873
 31
0.0
  0
TEXT
  5
22E4
330
229C
100
AcDbEntity
  8
LOGO
  6
CONTINUOUS
 62
     6
100
AcDbText
 10
331.1648706703064
 20
-34.45107887285279
 30
0.0
 40
4.216874181685718
  1
Accessory
 41
0.8
  7
CHINESET
 72
     4
 11
343.6146896829023
 21
-33.04545414562422
 31
0.0
100
AcDbText
  0
LINE
  5
22E5
330
229C
100
AcDbEntity
  8
LOGO
 62
     6
100
AcDbLine
 10
337.7077783069942
 20
4.063038653210107
 30
0.0
 11
322.3480986472316
 21
4.063038653210107
 31
0.0
  0
LINE
  5
22E6
330
229C
100
AcDbEntity
  8
LOGO
 62
     6
100
AcDbLine
 10
368.2834036457638
 20
-18.70808192789277
 30
0.0
 11
318.9459757200409
 21
-18.70808192789277
 31
0.0
  0
LINE
  5
22E7
330
229C
100
AcDbEntity
  8
LOGO
 62
     6
100
AcDbLine
 10
337.7077783069942
 20
-11.11770840085857
 30
0.0
 11
322.3480986472316
 21
-11.11770840085857
 31
0.0
  0
LINE
  5
22E8
330
229C
100
AcDbEntity
  8
LOGO
 62
     6
100
AcDbLine
 10
368.2834036457638
 20
-37.26232832730989
 30
0.0
 11
318.9459757200409
 21
-37.26232832730993
 31
0.0
  0
TEXT
  5
22E9
330
229C
100
AcDbEntity
  8
LOGO
 62
     7
100
AcDbText
 10
124.9218824445444
 20
-3.546425029178745
 30
0.0
 40
10.12049803604572
  1
訂購代號:
  7
CHINESET
100
AcDbText
  0
TEXT
  5
22EA
330
229C
100
AcDbEntity
  8
LOGO
 62
     7
100
AcDbText
 10
123.7114150840243
 20
-13.04480220177597
 30
0.0
 40
6.746998690697149
  1
Order example:
 41
0.8
  7
CHINESET
100
AcDbText
  0
TEXT
  5
22EB
330
229C
100
AcDbEntity
  8
LOGO
  6
CONTINUOUS
 62
     5
100
AcDbText
 10
13.28407298375211
 20
-39.13028032404332
 30
0.0
 40
5.060249018022862
  1
MINDMAN INDUSTRIAL CO.,LTD
 41
0.85
  7
CHINESET
100
AcDbText
  0
TEXT
  5
22EC
330
229C
100
AcDbEntity
  8
LOGO
  6
CONTINUOUS
 62
     5
100
AcDbText
 10
11.11064781328998
 20
-31.53841967890599
 30
0.0
 40
7.590373527034293
  1
金器工業股份有限公司
 41
0.8
  7
LOGO
100
AcDbText
  0
SOLID
  5
22ED
330
229C
100
AcDbEntity
  8
LOGO
 62
     2
100
AcDbTrace
 10
28.20917320127808
 20
-12.82626271417091
 30
0.0
 11
29.11451895070999
 21
-12.82626271417091
 31
0.0
 12
39.52599506916841
 22
7.921244043628961
 32
0.0
 13
40.43134081860031
 23
7.921244043627522
 33
0.0
  0
SOLID
  5
22EE
330
229C
100
AcDbEntity
  8
LOGO
 62
     5
100
AcDbTrace
 10
29.11451895070999
 20
-12.82626271417091
 30
0.0
 11
31.30243784516845
 21
-12.82626271417091
 31
0.0
 12
39.52599506916841
 22
6.261443503004218
 32
0.0
 13
37.33807617470965
 23
-1.760925776678657
 33
0.0
  0
SOLID
  5
22EF
330
229C
100
AcDbEntity
  8
LOGO
 62
     5
100
AcDbTrace
 10
29.11451895070999
 20
-11.16646217354761
 30
0.0
 11
31.30243784516845
 21
-3.144092893864733
 31
0.0
 12
39.52599506916841
 22
7.921244043628961
 32
0.0
 13
37.33807617470965
 23
7.921244043628961
 33
0.0
  0
LINE
  5
22F0
330
229C
100
AcDbEntity
  8
LOGO
 62
     1
100
AcDbLine
 10
120.7798212684122
 20
-21.23820643690424
 30
0.0
 11
9.454342871909327
 21
-21.23820643690424
 31
0.0
  0
SOLID
  5
22F1
330
229C
100
AcDbEntity
  8
LOGO
 62
     2
100
AcDbTrace
 10
28.20917320127808
 20
7.921244043627522
 30
0.0
 11
29.11451895070999
 21
7.921244043627522
 31
0.0
 12
28.20917320127808
 22
-12.82626271417091
 32
0.0
 13
29.11451895070999
 23
-12.82626271417091
 33
0.0
  0
SOLID
  5
22F2
330
229C
100
AcDbEntity
  8
LOGO
 62
     2
100
AcDbTrace
 10
16.89235133338707
 20
-12.82626271417165
 30
0.0
 11
17.79769708281965
 21
-12.82626271417091
 31
0.0
 12
28.20917320127808
 22
7.921244043627522
 32
0.0
 13
29.11451895070999
 23
7.921244043627522
 33
0.0
  0
SOLID
  5
22F3
330
229C
100
AcDbEntity
  8
LOGO
 62
     5
100
AcDbTrace
 10
29.11451895070999
 20
7.921244043627522
 30
0.0
 11
31.30243784516845
 21
7.921244043628961
 31
0.0
 12
29.11451895070999
 22
-11.16646217354761
 32
0.0
 13
31.30243784516845
 23
-3.144092893864733
 33
0.0
  0
SOLID
  5
22F4
330
229C
100
AcDbEntity
  8
LOGO
 62
     5
100
AcDbTrace
 10
26.02125430681951
 20
-12.82626271417091
 30
0.0
 11
28.20917320127808
 21
-12.82626271417091
 31
0.0
 12
26.02125430681951
 22
-1.760925776678657
 32
0.0
 13
28.20917320127808
 23
6.261443503004218
 33
0.0
  0
SOLID
  5
22F5
330
229C
100
AcDbEntity
  8
LOGO
 62
     5
100
AcDbTrace
 10
17.79769708281965
 20
-12.82626271417091
 30
0.0
 11
19.98561597727821
 21
-12.82626271417091
 31
0.0
 12
28.20917320127808
 22
6.261443503004218
 32
0.0
 13
26.02125430681951
 23
-1.760925776678657
 33
0.0
  0
SOLID
  5
22F6
330
229C
100
AcDbEntity
  8
LOGO
 62
     5
100
AcDbTrace
 10
14.70443243892831
 20
-12.82626271417091
 30
0.0
 11
16.89235133338707
 21
-12.82626271417165
 31
0.0
 12
26.02125430681951
 22
7.921244043628961
 32
0.0
 13
28.20917320127808
 23
7.921244043627522
 33
0.0
  0
LINE
  5
22F7
330
229C
100
AcDbEntity
  8
LOGO
 62
     1
100
AcDbLine
 10
9.454342871909375
 20
-41.47920250899574
 30
0.0
 11
9.454342871909375
 21
9.123287671232873
 31
0.0
  0
SOLID
  5
22F8
330
229C
100
AcDbEntity
  8
LOGO
 62
     5
100
AcDbTrace
 10
18.60232311762578
 20
-16.5985366701346
 30
0.0
 11
19.35677790881995
 21
-16.5985366701346
 31
0.0
 12
18.60232311762578
 22
-20.370810626099
 32
0.0
 13
19.35677790881995
 23
-20.37081062609757
 33
0.0
  0
SOLID
  5
22F9
330
229C
100
AcDbEntity
  8
LOGO
 62
     5
100
AcDbTrace
 10
18.60232311762578
 20
-16.07041831630004
 30
0.0
 11
19.35677790881995
 21
-16.07041831630004
 31
0.0
 12
18.60232311762578
 22
-15.46685448334514
 32
0.0
 13
19.35677790881995
 23
-15.46685448334514
 33
0.0
  0
SOLID
  5
22FA
330
229C
100
AcDbEntity
  8
LOGO
 62
     5
100
AcDbTrace
 10
16.95477831819557
 20
-16.5985366701346
 30
0.0
 11
17.70923310938754
 21
-16.5985366701346
 31
0.0
 12
16.95477831819557
 22
-20.37081062609757
 32
0.0
 13
17.70923310938754
 23
-20.37081062609757
 33
0.0
  0
SOLID
  5
22FB
330
229C
100
AcDbEntity
  8
LOGO
 62
     5
100
AcDbTrace
 10
14.07572011293491
 20
-20.37081062609757
 30
0.0
 11
14.83017490412707
 21
-20.37081062609757
 31
0.0
 12
16.95477831819557
 22
-16.5985366701346
 32
0.0
 13
17.70923310938754
 23
-16.5985366701346
 33
0.0
  0
SOLID
  5
22FC
330
229C
100
AcDbEntity
  8
LOGO
 62
     5
100
AcDbTrace
 10
14.07572011293491
 20
-16.5985366701346
 30
0.0
 11
14.83017490412707
 21
-16.5985366701346
 31
0.0
 12
14.07572011293491
 22
-20.37081062609757
 32
0.0
 13
14.83017490412707
 23
-20.37081062609757
 33
0.0
  0
SOLID
  5
22FD
330
229C
100
AcDbEntity
  8
LOGO
 62
     5
100
AcDbTrace
 10
11.19666190767521
 20
-20.37081062609757
 30
0.0
 11
11.95111669886871
 21
-20.37081062609757
 31
0.0
 12
14.07572011293491
 22
-16.5985366701346
 32
0.0
 13
14.83017490412707
 23
-16.5985366701346
 33
0.0
  0
SOLID
  5
22FE
330
229C
100
AcDbEntity
  8
LOGO
 62
     5
100
AcDbTrace
 10
33.31426699136292
 20
-18.10744625252008
 30
0.0
 11
34.06872178255489
 21
-18.10744625252008
 31
0.0
 12
33.31426699136292
 22
-20.370810626099
 32
0.0
 13
34.06872178255489
 23
-20.370810626099
 33
0.0
  0
SOLID
  5
22FF
330
229C
100
AcDbEntity
  8
LOGO
 62
     5
100
AcDbTrace
 10
31.0509026177853
 20
-18.10744625252008
 30
0.0
 11
31.80535740897736
 21
-18.10744625252008
 31
0.0
 12
31.0509026177853
 22
-20.37081062609757
 32
0.0
 13
31.80535740897736
 23
-20.37081062609757
 33
0.0
  0
SOLID
  5
2300
330
229C
100
AcDbEntity
  8
LOGO
 62
     5
100
AcDbTrace
 10
28.78753824420777
 20
-16.5985366701346
 30
0.0
 11
29.54199303539983
 21
-16.5985366701346
 31
0.0
 12
28.78753824420777
 22
-20.37081062609757
 32
0.0
 13
29.54199303539983
 23
-20.37081062609757
 33
0.0
  0
SOLID
  5
2301
330
229C
100
AcDbEntity
  8
LOGO
 62
     5
100
AcDbTrace
 10
27.15286104812996
 20
-15.46685448334514
 30
0.0
 11
27.90731583932193
 21
-15.46685448334514
 31
0.0
 12
27.15286104812996
 22
-20.37081062609757
 32
0.0
 13
27.90731583932193
 23
-20.37081062609757
 33
0.0
  0
POLYLINE
  5
2302
330
229C
100
AcDbEntity
  8
LOGO
 62
     5
100
AcDb2dPolyline
 66
     1
 10
0.0
 20
0.0
 30
0.0
 70
     1
 40
0.7556638533580808
 41
0.7556638533580808
  0
VERTEX
  5
23C7
330
2302
100
AcDbEntity
  8
LOGO
 62
     5
100
AcDbVertex
100
AcDb2dVertex
 10
24.50992660010284
 20
-18.48467364811645
 30
0.0
 42
1.0
  0
VERTEX
  5
23C8
330
2302
100
AcDbEntity
  8
LOGO
 62
     5
100
AcDbVertex
100
AcDb2dVertex
 10
27.53258201353522
 20
-18.48467364811645
 30
0.0
 42
1.0
  0
SEQEND
  5
23C9
330
2302
100
AcDbEntity
  8
LOGO
 62
     5
  0
SOLID
  5
2303
330
229C
100
AcDbEntity
  8
LOGO
 62
     5
100
AcDbTrace
 10
22.50036468728112
 20
-18.10744625252008
 30
0.0
 11
23.25481947847452
 21
-18.10744625252008
 31
0.0
 12
22.50036468728112
 22
-20.37081062609757
 32
0.0
 13
23.25481947847452
 23
-20.37081062609757
 33
0.0
  0
SOLID
  5
2304
330
229C
100
AcDbEntity
  8
LOGO
 62
     5
100
AcDbTrace
 10
20.23700031370378
 20
-16.5985366701346
 30
0.0
 11
20.99145510489575
 21
-16.5985366701346
 31
0.0
 12
20.23700031370378
 22
-20.37081062609757
 32
0.0
 13
20.99145510489575
 23
-20.37081062609757
 33
0.0
  0
POLYLINE
  5
2305
330
229C
100
AcDbEntity
  8
LOGO
 62
     5
100
AcDb2dPolyline
 66
     1
 10
0.0
 20
0.0
 30
0.0
 40
0.7556638533580808
 41
0.7556638533580808
  0
VERTEX
  5
23CA
330
2305
100
AcDbEntity
  8
LOGO
 62
     5
100
AcDbVertex
100
AcDb2dVertex
 10
22.87940567612574
 20
-18.10744625252008
 30
0.0
 42
1.0
  0
VERTEX
  5
23CB
330
2305
100
AcDbEntity
  8
LOGO
 62
     5
100
AcDbVertex
100
AcDb2dVertex
 10
20.61241411605141
 20
-18.10744625252008
 30
0.0
 42
1.0
  0
SEQEND
  5
23CC
330
2305
100
AcDbEntity
  8
LOGO
 62
     5
  0
POLYLINE
  5
2306
330
229C
100
AcDbEntity
  8
LOGO
 62
     5
100
AcDb2dPolyline
 66
     1
 10
0.0
 20
0.0
 30
0.0
 40
0.7556638533580808
 41
0.7556638533580808
  0
VERTEX
  5
23CD
330
2306
100
AcDbEntity
  8
LOGO
 62
     5
100
AcDbVertex
100
AcDb2dVertex
 10
33.69330798020726
 20
-18.10744625252008
 30
0.0
 42
1.0
  0
VERTEX
  5
23CE
330
2306
100
AcDbEntity
  8
LOGO
 62
     5
100
AcDbVertex
100
AcDb2dVertex
 10
31.42631642013293
 20
-18.10744625252008
 30
0.0
 42
1.0
  0
SEQEND
  5
23CF
330
2306
100
AcDbEntity
  8
LOGO
 62
     5
  0
POLYLINE
  5
2307
330
229C
100
AcDbEntity
  8
LOGO
 62
     5
100
AcDb2dPolyline
 66
     1
 10
0.0
 20
0.0
 30
0.0
 40
0.7556638533580808
 41
0.7556638533580808
  0
VERTEX
  5
23D0
330
2307
100
AcDbEntity
  8
LOGO
 62
     5
100
AcDbVertex
100
AcDb2dVertex
 10
31.42994360662973
 20
-18.10744625252008
 30
0.0
 42
1.0
  0
VERTEX
  5
23D1
330
2307
100
AcDbEntity
  8
LOGO
 62
     5
100
AcDbVertex
100
AcDb2dVertex
 10
29.1629520465554
 20
-18.10744625252008
 30
0.0
 42
1.0
  0
SEQEND
  5
23D2
330
2307
100
AcDbEntity
  8
LOGO
 62
     5
  0
CIRCLE
  5
2308
330
229C
100
AcDbEntity
  8
LOGO
  6
CONTINUOUS
 62
     6
100
AcDbCircle
 10
96.41451179773806
 20
-6.046635473156205
 30
0.0
 40
1.721466319984773
  0
CIRCLE
  5
2309
330
229C
100
AcDbEntity
  8
LOGO
  6
CONTINUOUS
 62
     6
100
AcDbCircle
 10
96.41451179773806
 20
-6.046635473156205
 30
0.0
 40
2.938099684699695
  0
LINE
  5
230A
330
229C
100
AcDbEntity
  8
LOGO
 62
     1
100
AcDbLine
 10
120.7798212684122
 20
-11.11770840085857
 30
0.0
 11
46.5628356707437
 21
-11.11770840085857
 31
0.0
  0
LINE
  5
230B
330
229C
100
AcDbEntity
  8
LOGO
 62
     1
100
AcDbLine
 10
120.7798212684122
 20
-0.9972103648128509
 30
0.0
 11
46.5628356707437
 21
-0.9972103648128509
 31
0.0
  0
TEXT
  5
230C
330
229C
100
AcDbEntity
  8
LOGO
 62
     6
100
AcDbText
 10
94.63603570990079
 20
1.53291414419858
 30
0.0
 40
5.060249018022862
  1
1 : 1
  7
CHINESET
 72
     1
 11
103.5517125511791
 21
4.063038653210011
 31
0.0
100
AcDbText
 73
     2
  0
TEXT
  5
230D
330
229C
100
AcDbEntity
  8
LOGO
 62
     6
100
AcDbText
 10
94.63603570990079
 20
-18.70808192789287
 30
0.0
 40
5.060249018022862
  1
m/m
  7
CHINESET
 72
     1
 11
103.5517125511791
 21
-16.17795741888143
 31
0.0
100
AcDbText
 73
     2
  0
SOLID
  5
230E
330
229C
100
AcDbEntity
  8
LOGO
 62
     2
100
AcDbTrace
 10
39.52599506916841
 20
7.921244043628961
 30
0.0
 11
40.43134081860031
 21
7.921244043627522
 31
0.0
 12
39.52599506916841
 22
-12.82626271417165
 32
0.0
 13
40.43134081860031
 23
-12.82626271417165
 33
0.0
  0
SOLID
  5
230F
330
229C
100
AcDbEntity
  8
LOGO
 62
     5
100
AcDbTrace
 10
40.43134081860031
 20
-12.82626271417165
 30
0.0
 11
42.61925971305888
 21
-12.82626271417165
 31
0.0
 12
40.43134081860031
 22
7.921244043627522
 32
0.0
 13
42.61925971305888
 23
7.921244043628961
 33
0.0
  0
SOLID
  5
2310
330
229C
100
AcDbEntity
  8
LOGO
 62
     5
100
AcDbTrace
 10
39.52599506916841
 20
6.261443503004218
 30
0.0
 11
37.33807617470965
 21
-1.760925776678657
 31
0.0
 12
39.52599506916841
 22
-12.82626271417165
 32
0.0
 13
37.33807617470965
 23
-12.82626271417165
 33
0.0
  0
LINE
  5
2311
330
229C
100
AcDbEntity
  8
LOGO
 62
     1
100
AcDbLine
 10
46.5628356707437
 20
-21.2382064369043
 30
0.0
 11
46.5628356707437
 21
9.123287671232873
 31
0.0
  0
LINE
  5
2312
330
229C
100
AcDbEntity
  8
LOGO
 62
     1
100
AcDbLine
 10
87.04482781492659
 20
-21.2382064369043
 30
0.0
 11
87.04482781492659
 21
9.123287671232873
 31
0.0
  0
TEXT
  5
2313
330
229C
100
AcDbEntity
  8
LOGO
 62
     6
100
AcDbText
 10
52.99883989054151
 20
-18.70808192789287
 30
0.0
 40
5.060249018022862
  1
單位 Unit:
 41
0.9
  7
CHINESET
 72
     4
 11
66.80383174283514
 21
-16.17795741888143
 31
0.0
100
AcDbText
  0
SOLID
  5
2314
330
229C
100
AcDbEntity
  8
LOGO
 62
     5
100
AcDbTrace
 10
41.86480492186691
 20
-18.10744625252008
 30
0.0
 11
42.61925971305888
 21
-18.10744625252019
 31
0.0
 12
41.86480492186691
 22
-20.37081062609757
 32
0.0
 13
42.61925971305888
 23
-20.37081062609757
 33
0.0
  0
SOLID
  5
2315
330
229C
100
AcDbEntity
  8
LOGO
 62
     5
100
AcDbTrace
 10
39.60144054828795
 20
-20.37081062609757
 30
0.0
 11
40.35589533948136
 21
-20.37081062609757
 31
0.0
 12
39.60144054828795
 22
-16.5985366701346
 32
0.0
 13
40.35589533948136
 23
-16.5985366701346
 33
0.0
  0
SOLID
  5
2316
330
229C
100
AcDbEntity
  8
LOGO
 62
     5
100
AcDbTrace
 10
37.96676335221225
 20
-16.5985366701346
 30
0.0
 11
38.72121814340431
 21
-16.5985366701346
 31
0.0
 12
37.96676335221225
 22
-20.37081062609757
 32
0.0
 13
38.72121814340431
 23
-20.37081062609757
 33
0.0
  0
LINE
  5
2317
330
229C
100
AcDbEntity
  8
LOGO
 62
     5
100
AcDbLine
 10
42.61925971305888
 20
-20.37081062609757
 30
0.0
 11
42.61925971305888
 21
-18.10744625252008
 31
0.0
  0
POLYLINE
  5
2318
330
229C
100
AcDbEntity
  8
LOGO
 62
     5
100
AcDb2dPolyline
 66
     1
 10
0.0
 20
0.0
 30
0.0
 70
     1
 40
0.7556638533580808
 41
0.7556638533580808
  0
VERTEX
  5
23D3
330
2318
100
AcDbEntity
  8
LOGO
 62
     5
100
AcDbVertex
100
AcDb2dVertex
 10
35.32382890418446
 20
-18.48467364811645
 30
0.0
 42
1.0
  0
VERTEX
  5
23D4
330
2318
100
AcDbEntity
  8
LOGO
 62
     5
100
AcDbVertex
100
AcDb2dVertex
 10
38.34648431761673
 20
-18.48467364811645
 30
0.0
 42
1.0
  0
SEQEND
  5
23D5
330
2318
100
AcDbEntity
  8
LOGO
 62
     5
  0
CIRCLE
  5
2319
330
229C
100
AcDbEntity
  8
LOGO
 62
     5
100
AcDbCircle
 10
36.83515661090103
 20
-18.48467364811609
 30
0.0
 40
1.131682186789062
  0
POLYLINE
  5
231A
330
229C
100
AcDbEntity
  8
LOGO
 62
     5
100
AcDb2dPolyline
 66
     1
 10
0.0
 20
0.0
 30
0.0
 70
     1
  0
VERTEX
  5
23D6
330
231A
100
AcDbEntity
  8
LOGO
 62
     5
100
AcDbVertex
100
AcDb2dVertex
 10
35.70347442411183
 20
-18.48467364811609
 30
0.0
 42
1.000000057330635
  0
VERTEX
  5
23D7
330
231A
100
AcDbEntity
  8
LOGO
 62
     5
100
AcDbVertex
100
AcDb2dVertex
 10
37.96683879769032
 20
-18.48467364811609
 30
0.0
 42
1.000000057330635
  0
SEQEND
  5
23D8
330
231A
100
AcDbEntity
  8
LOGO
 62
     5
  0
POLYLINE
  5
231B
330
229C
100
AcDbEntity
  8
LOGO
 62
     5
100
AcDb2dPolyline
 66
     1
 10
0.0
 20
0.0
 30
0.0
 40
0.7556638533580808
 41
0.7556638533580808
  0
VERTEX
  5
23D9
330
231B
100
AcDbEntity
  8
LOGO
 62
     5
100
AcDbVertex
100
AcDb2dVertex
 10
42.24384591071134
 20
-18.10744625252008
 30
0.0
 42
1.0
  0
VERTEX
  5
23DA
330
231B
100
AcDbEntity
  8
LOGO
 62
     5
100
AcDbVertex
100
AcDb2dVertex
 10
39.97685435063702
 20
-18.10744625252008
 30
0.0
 42
1.0
  0
SEQEND
  5
23DB
330
231B
100
AcDbEntity
  8
LOGO
 62
     5
  0
TEXT
  5
231C
330
229C
100
AcDbEntity
  8
LOGO
 62
     6
100
AcDbText
 10
52.50411018744017
 20
-8.516403387697625
 30
0.0
 40
5.060249018022862
  1
投影 View:
 41
0.9
  7
CHINESET
 72
     4
 11
66.80383174283514
 21
-6.057459382835713
 31
0.0
100
AcDbText
  0
TEXT
  5
231D
330
229C
100
AcDbEntity
  8
LOGO
 62
     6
100
AcDbText
 10
50.73528207087237
 20
1.535404424227134
 30
0.0
 40
5.060249018022862
  1
比例 Scale:
 41
0.9
  7
CHINESET
 72
     4
 11
66.80383174283514
 21
4.063038653210011
 31
0.0
100
AcDbText
  0
LINE
  5
231E
330
229C
100
AcDbEntity
  8
LOGO
 62
     1
100
AcDbLine
 10
120.7798212684122
 20
-41.47920250899574
 30
0.0
 11
120.7798212684122
 21
9.123287671232873
 31
0.0
  0
LINE
  5
231F
330
229C
100
AcDbEntity
  8
LOGO
  6
CONTINUOUS
 62
     6
100
AcDbLine
 10
105.6670972824971
 20
-7.768101793140964
 30
0.0
 11
114.8778711390617
 21
-8.984735157855894
 31
0.0
  0
LINE
  5
2320
330
229C
100
AcDbEntity
  8
LOGO
  6
CONTINUOUS
 62
     6
100
AcDbLine
 10
105.6670972824971
 20
-4.325169153171424
 30
0.0
 11
114.8778711390617
 21
-3.108535788456507
 31
0.0
  0
LINE
  5
2321
330
229C
100
AcDbEntity
  8
LOGO
 62
     6
100
AcDbLine
 10
105.6670972824972
 20
-7.768101793140978
 30
0.0
 11
105.6670972824971
 21
-4.325169153171412
 31
0.0
  0
LINE
  5
2322
330
229C
100
AcDbEntity
  8
LOGO
 62
     6
100
AcDbLine
 10
114.8778711390617
 20
-8.984735157855894
 30
0.0
 11
114.8778711390617
 21
-3.108535788456507
 31
0.0
  0
LINE
  5
2323
330
229C
100
AcDbEntity
  8
LOGO
 62
     6
100
AcDbLine
 10
227.4897934576263
 20
-37.26232832731004
 30
0.0
 11
193.7548000041406
 21
-37.26232832731008
 31
0.0
  0
LINE
  5
2324
330
229C
100
AcDbEntity
  8
LOGO
 62
     6
100
AcDbLine
 10
227.4897934576263
 20
-18.70808192789287
 30
0.0
 11
193.7548000041406
 21
-18.70808192789287
 31
0.0
  0
LINE
  5
2325
330
229C
100
AcDbEntity
  8
LOGO
 62
     6
100
AcDbLine
 10
230.8632928029749
 20
-11.11770840085857
 30
0.0
 11
190.381300658792
 21
-11.11770840085857
 31
0.0
  0
LINE
  5
2326
330
229C
100
AcDbEntity
  8
LOGO
 62
     6
100
AcDbLine
 10
230.8632928029749
 20
4.063038653210011
 30
0.0
 11
190.381300658792
 21
4.063038653210011
 31
0.0
  0
TEXT
  5
2327
330
229C
100
AcDbEntity
  8
LOGO
  6
CONTINUOUS
 62
     7
100
AcDbText
 10
194.156407069063
 20
-7.74420905551
 30
0.0
 40
8.433748363371437
  1
MCRA
  7
CHINESET
 72
     1
 11
210.6222967308834
 21
-3.527334873824282
 31
0.0
100
AcDbText
 73
     2
  0
LINE
  5
2328
330
229C
100
AcDbEntity
  8
LOGO
 62
     6
100
AcDbLine
 10
190.381300658792
 20
4.063038653210011
 30
0.0
 11
190.381300658792
 21
-11.11770840085857
 31
0.0
  0
LINE
  5
2329
330
229C
100
AcDbEntity
  8
LOGO
 62
     6
100
AcDbLine
 10
193.7548000041406
 20
-18.70808192789287
 30
0.0
 11
193.7548000041406
 21
-37.26232832731008
 31
0.0
  0
TEXT
  5
232A
330
229C
100
AcDbEntity
  8
LOGO
  6
CONTINUOUS
 62
     6
100
AcDbText
 10
202.5901554324344
 20
-35.15389123646717
 30
0.0
 40
4.216874181685718
  1
Model
  7
CHINESET
 72
     4
 11
210.6222967308834
 21
-33.04545414562431
 31
0.0
100
AcDbText
  0
TEXT
  5
232B
330
229C
100
AcDbEntity
  8
LOGO
 62
     6
100
AcDbText
 10
203.8752980401862
 20
-27.81254571228833
 30
0.0
 40
6.746998690697149
  1
型式
  7
CHINESET
 72
     4
 11
210.6222967308834
 21
-24.61170578225287
 31
0.0
100
AcDbText
  0
LINE
  5
232C
330
229C
100
AcDbEntity
  8
LOGO
 62
     6
100
AcDbLine
 10
210.6222967308834
 20
-11.11770840085857
 30
0.0
 11
210.6222967308834
 21
-18.70808192789287
 31
0.0
  0
LINE
  5
232D
330
229C
100
AcDbEntity
  8
LOGO
 62
     6
100
AcDbLine
 10
230.8632928029749
 20
4.063038653210011
 30
0.0
 11
230.8632928029749
 21
-11.11770840085857
 31
0.0
  0
LINE
  5
2335
330
229C
100
AcDbEntity
  8
LOGO
 62
     6
100
AcDbLine
 10
227.4897934576263
 20
-18.70808192789287
 30
0.0
 11
227.4897934576263
 21
-37.26232832731003
 31
0.0
  0
TEXT
  5
233C
330
229C
100
AcDbEntity
  8
LOGO
  6
CONTINUOUS
 62
     7
100
AcDbText
 10
286.8590722910923
 20
-7.839848293384551
 30
0.0
 40
8.433748363371437
  1
180
  7
CHINESET
 72
     1
 11
296.8992489141536
 21
-3.622974111698832
 31
0.0
100
AcDbText
 73
     2
  0
TEXT
  5
233D
330
229C
100
AcDbEntity
  8
LOGO
  6
CONTINUOUS
 62
     6
100
AcDbText
 10
280.2084590787389
 20
-34.45107887285293
 30
0.0
 40
4.216874181685718
  1
Rotary angle
 41
0.8
  7
CHINESET
 72
     4
 11
296.1120988496679
 21
-33.04545414562436
 31
0.0
100
AcDbText
  0
LINE
  5
233E
330
229C
100
AcDbEntity
  8
LOGO
 62
     6
100
AcDbLine
 10
310.1613895387484
 20
4.063038653210011
 30
0.0
 11
282.0628081605875
 21
4.063038653210011
 31
0.0
  0
TEXT
  5
233F
330
229C
100
AcDbEntity
  8
LOGO
 62
     6
100
AcDbText
 10
283.967501206413
 20
-27.77463811629816
 30
0.0
 40
6.746998690697149
  1
作動角度
 41
0.9
  7
CHINESET
 72
     4
 11
296.1120988496679
 21
-24.61170578225292
 31
0.0
100
AcDbText
  0
LINE
  5
2340
330
229C
100
AcDbEntity
  8
LOGO
 62
     6
100
AcDbLine
 10
313.534888884097
 20
-37.26232832731003
 30
0.0
 11
278.6893088152389
 21
-37.26232832731008
 31
0.0
  0
LINE
  5
2341
330
229C
100
AcDbEntity
  8
LOGO
 62
     6
100
AcDbLine
 10
310.1613895387483
 20
-11.11770840085859
 30
0.0
 11
282.0628081605875
 21
-11.11770840085857
 31
0.0
  0
LINE
  5
2342
330
229C
100
AcDbEntity
  8
LOGO
 62
     6
100
AcDbLine
 10
313.534888884097
 20
-18.70808192789287
 30
0.0
 11
278.6893088152389
 21
-18.70808192789287
 31
0.0
  0
LINE
  5
2343
330
229C
100
AcDbEntity
  8
LOGO
 62
     6
100
AcDbLine
 10
270.1188538645789
 20
4.063038653210202
 30
0.0
 11
270.1188538645789
 21
-11.11770840085847
 31
0.0
  0
LINE
  5
2344
330
229C
100
AcDbEntity
  8
LOGO
 62
     6
100
AcDbLine
 10
243.0374063940312
 20
4.063038653210107
 30
0.0
 11
243.0374063940312
 21
-11.11770840085847
 31
0.0
  0
LINE
  5
2345
330
229C
100
AcDbEntity
  8
LOGO
 62
     6
100
AcDbLine
 10
282.0628081605875
 20
4.063038653210011
 30
0.0
 11
282.0628081605875
 21
-11.11770840085857
 31
0.0
  0
LINE
  5
2346
330
229C
100
AcDbEntity
  8
LOGO
 62
     6
100
AcDbLine
 10
270.1188538645789
 20
-37.26232832730993
 30
0.0
 11
243.0374063940312
 21
-37.26232832730998
 31
0.0
  0
LINE
  5
2347
330
229C
100
AcDbEntity
  8
LOGO
 62
     6
100
AcDbLine
 10
270.1188538645789
 20
-11.11770840085847
 30
0.0
 11
243.0374063940312
 21
-11.11770840085847
 31
0.0
  0
LINE
  5
2348
330
229C
100
AcDbEntity
  8
LOGO
 62
     6
100
AcDbLine
 10
270.1188538645789
 20
-18.70808192789277
 30
0.0
 11
243.0374063940312
 21
-18.70808192789277
 31
0.0
  0
LINE
  5
2349
330
229C
100
AcDbEntity
  8
LOGO
 62
     6
100
AcDbLine
 10
243.0374063940312
 20
-18.70808192789277
 30
0.0
 11
243.0374063940312
 21
-37.26232832730993
 31
0.0
  0
TEXT
  5
234A
330
229C
100
AcDbEntity
  8
LOGO
  6
CONTINUOUS
 62
     6
100
AcDbText
 10
251.3572382853133
 20
-35.15389123646712
 30
0.0
 40
4.216874181685718
  1
Bore
 41
0.8
  7
CHINESET
 72
     4
 11
256.5781301293051
 21
-33.04545414562426
 31
0.0
100
AcDbText
  0
TEXT
  5
234B
330
229C
100
AcDbEntity
  8
LOGO
 62
     6
100
AcDbText
 10
250.1263126313259
 20
-27.9852051276014
 30
0.0
 40
6.746998690697149
  1
內徑
 41
0.9
  7
CHINESET
 72
     4
 11
256.5781301293051
 21
-24.61170578225282
 31
0.0
100
AcDbText
  0
LINE
  5
234C
330
229C
100
AcDbEntity
  8
LOGO
 62
     6
100
AcDbLine
 10
256.5781297403668
 20
-11.11770840085847
 30
0.0
 11
256.5781297403668
 21
-18.70808192789277
 31
0.0
  0
LINE
  5
234D
330
229C
100
AcDbEntity
  8
LOGO
 62
     6
100
AcDbLine
 10
270.1188538645789
 20
-18.70808192789277
 30
0.0
 11
270.1188538645789
 21
-37.26232832730989
 31
0.0
  0
LINE
  5
234E
330
229C
100
AcDbEntity
  8
LOGO
 62
     6
100
AcDbLine
 10
278.6893088152389
 20
-18.70808192789287
 30
0.0
 11
278.6893088152389
 21
-37.26232832731008
 31
0.0
  0
LINE
  5
234F
330
229C
100
AcDbEntity
  8
LOGO
 62
     6
100
AcDbLine
 10
270.1188538645789
 20
4.063038653210202
 30
0.0
 11
243.0374063940312
 21
4.063038653210107
 31
0.0
  0
LINE
  5
2350
330
229C
100
AcDbEntity
  8
LOGO
  6
CONTINUOUS
 62
     7
100
AcDbLine
 10
233.7088666716673
 20
-3.581107479014823
 30
0.0
 11
240.4121306498975
 21
-3.581107479014823
 31
0.0
  0
TEXT
  5
2351
330
229C
100
AcDbEntity
  8
LOGO
  6
CONTINUOUS
 62
     7
100
AcDbText
 10
250.5379600901092
 20
-7.839848293384455
 30
0.0
 40
8.433748363371437
  1
63
  7
CHINESET
 72
     1
 11
257.3652801937908
 21
-3.622974111698736
 31
0.0
100
AcDbText
 73
     2
  0
LINE
  5
2352
330
229C
100
AcDbEntity
  8
LOGO
  6
CONTINUOUS
 62
     7
100
AcDbLine
 10
272.7342684382236
 20
-3.581107479014727
 30
0.0
 11
279.4375324164539
 21
-3.581107479014727
 31
0.0
  0
LINE
  5
2354
330
229C
100
AcDbEntity
  8
LOGO
 62
     6
100
AcDbLine
 10
322.3480986472316
 20
4.063038653210107
 30
0.0
 11
322.3480986472316
 21
-11.11770840085857
 31
0.0
  0
LINE
  5
2357
330
229C
100
AcDbEntity
  8
LOGO
 62
     6
100
AcDbLine
 10
310.1613895387484
 20
4.063038653210011
 30
0.0
 11
310.1613895387483
 21
-11.11770840085859
 31
0.0
  0
LINE
  5
235E
330
229C
100
AcDbEntity
  8
LOGO
 62
     6
100
AcDbLine
 10
313.534888884097
 20
-18.70808192789287
 30
0.0
 11
313.534888884097
 21
-37.33229013914906
 31
0.0
  0
LINE
  5
235F
330
229C
100
AcDbEntity
  8
LOGO
 62
     6
100
AcDbLine
 10
296.4693371148985
 20
-11.11770840085857
 30
0.0
 11
296.4693371148985
 21
-18.70808192789287
 31
0.0
  0
LINE
  5
2362
330
229C
100
AcDbEntity
  8
LOGO
 62
     6
100
AcDbLine
 10
318.9459757200409
 20
-18.70808192789277
 30
0.0
 11
318.9459757200409
 21
-37.26232832730993
 31
0.0
  0
LINE
  5
2363
330
229C
100
AcDbEntity
  8
LOGO
 62
     6
100
AcDbLine
 10
330.0279384771128
 20
-11.11770840085857
 30
0.0
 11
330.0279384771128
 21
-18.70808192789277
 31
0.0
  0
LINE
  5
2365
330
229C
100
AcDbEntity
  8
LOGO
  6
CONTINUOUS
 62
     7
100
AcDbLine
 10
313.1496904690598
 20
-3.581107479014823
 30
0.0
 11
319.85295444729
 21
-3.581107479014823
 31
0.0
  0
TEXT
  5
2366
330
229C
100
AcDbEntity
  8
LOGO
  6
CONTINUOUS
 62
     7
100
AcDbText
 10
324.0101337937123
 20
-7.839848293384551
 30
0.0
 40
8.433748363371437
  1
LB
  7
CHINESET
 72
     1
 11
330.2350433000103
 21
-3.622974111698832
 31
0.0
100
AcDbText
 73
     2
  0
LINE
  5
2367
330
229C
100
AcDbEntity
  8
LOGO
 62
     6
100
AcDbLine
 10
337.7077783069942
 20
4.063038653210107
 30
0.0
 11
337.7077783069942
 21
-11.11770840085857
 31
0.0
  0
LINE
  5
2368
330
229C
100
AcDbEntity
  8
LOGO
 62
     1
100
AcDbLine
 10
392.3465185689726
 20
-41.47920250899574
 30
0.0
 11
392.3465185689726
 21
9.123287671232873
 31
0.0
  0
TEXT
  5
2369
330
229C
100
AcDbEntity
  8
LOGO
 62
     6
100
AcDbText
 10
337.4791377485497
 20
-27.98520512760135
 30
0.0
 40
6.746998690697149
  1
配件
 41
0.9
  7
CHINESET
 72
     4
 11
343.6146896829023
 21
-24.61170578225277
 31
0.0
100
AcDbText
  0
LINE
  5
236A
330
229C
100
AcDbEntity
  8
LOGO
 62
     6
100
AcDbLine
 10
368.2834036457638
 20
-18.70808192789277
 30
0.0
 11
368.2834036457638
 21
-37.26232832730989
 31
0.0
  0
DIMENSION
  5
2449
330
229C
100
AcDbEntity
  8
AM_5
100
AcDbDimension
  2
*D1
 10
327.1753355975984
 20
320.3821322510048
 30
0.0
 11
178.3753355572483
 21
323.3824275265953
 31
0.0
 70
    32
  3
STANDARD
100
AcDbAlignedDimension
 13
29.57533551689835
 23
292.9911433688478
 33
0.0
 14
327.1753355975984
 24
292.9911433688478
 34
0.0
100
AcDbRotatedDimension
  0
ENDSEC
  0
SECTION
  2
OBJECTS
  0
DICTIONARY
  5
228A
330
0
100
AcDbDictionary
  3
ACAD_GROUP
350
228B
  3
ACAD_LAYOUT
350
2297
  3
ACAD_MLINESTYLE
350
2294
  3
ACAD_PLOTSETTINGS
350
2296
  3
ACMDICTIONARY
350
23FE
  3
AMG
350
23E4
  3
AMGSNAPSETTINGS
350
2432
  3
DWGPROPS
350
266E
1001
ACAD
1000
TREAT_AS_HARD
1070
     0
  0
DICTIONARY
  5
238D
330
229C
100
AcDbDictionary
  3
ACAD_INDEX
350
2462
  3
ACAD_LAYOUTSELFREF
350
26DC
1001
ACAD
1000
TREAT_AS_HARD
1070
     1
  0
DICTIONARY
  5
238F
330
2298
100
AcDbDictionary
  3
ACAD_LAYOUTSELFREF
350
26DB
1001
ACAD
1000
TREAT_AS_HARD
1070
     1
  0
DICTIONARY
  5
228B
102
{ACAD_REACTORS
330
228A
102
}
330
228A
100
AcDbDictionary
1001
ACAD
1000
TREAT_AS_HARD
1070
     0
  0
DICTIONARY
  5
2297
102
{ACAD_REACTORS
330
228A
102
}
330
228A
100
AcDbDictionary
1001
ACAD
1000
TREAT_AS_HARD
1070
     0
  0
DICTIONARY
  5
2294
102
{ACAD_REACTORS
330
228A
102
}
330
228A
100
AcDbDictionary
  3
STANDARD
350
2295
1001
ACAD
1000
TREAT_AS_HARD
1070
     0
  0
DICTIONARY
  5
2296
102
{ACAD_REACTORS
330
228A
102
}
330
228A
100
AcDbDictionary
1001
ACAD
1000
TREAT_AS_HARD
1070
     0
  0
DICTIONARY
  5
23FE
102
{ACAD_REACTORS
330
228A
102
}
330
228A
100
AcDbDictionary
  3
ACMSTDDICTIONARY
350
2404
1001
ACAD
1000
TREAT_AS_HARD
1070
     0
  0
DICTIONARY
  5
23E4
102
{ACAD_REACTORS
330
228A
102
}
330
228A
100
AcDbDictionary
  3
ACMGSETTINGS
350
23E5
1001
ACAD
1000
TREAT_AS_HARD
1070
     0
  0
DICTIONARY
  5
2432
102
{ACAD_REACTORS
330
228A
102
}
330
228A
100
AcDbDictionary
1001
ACAD
1000
TREAT_AS_HARD
1070
     0
  0
XRECORD
  5
266E
102
{ACAD_REACTORS
330
228A
102
}
330
228A
100
AcDbXrecord
  1
DWGPROPS COOKIE
  2

  3

  4

  6

  7

  8

  9

300
AmdtFileType=84
301
=
302
=
303
=
304
=
305
=
306
=
307
=
308
=
309
=
 40
0.0537515972222222
 41
2451089.39793897
 42
2452992.614802661
  1

 90
        1
  0
DICTIONARY
  5
2462
102
{ACAD_REACTORS
330
238D
102
}
330
238D
100
AcDbDictionary
  3
*A1
350
2463
1001
ACAD
1000
TREAT_AS_HARD
1070
     0
  0
XRECORD
  5
26DC
102
{ACAD_REACTORS
330
238D
102
}
330
238D
100
AcDbXrecord
340
229C
  0
XRECORD
  5
26DB
102
{ACAD_REACTORS
330
238F
102
}
330
238F
100
AcDbXrecord
340
2298
  0
MLINESTYLE
  5
2295
102
{ACAD_REACTORS
330
2294
102
}
330
2294
100
AcDbMlineStyle
  2
STANDARD
 70
     0
  3

 62
   256
 51
90.0
 52
90.0
 71
     2
 49
0.5
 62
   256
  6
BYLAYER
 49
-0.5
 62
   256
  6
BYLAYER
  0
DICTIONARY
  5
2404
102
{ACAD_REACTORS
330
23FE
102
}
330
23FE
100
AcDbDictionary
1001
ACAD
1000
TREAT_AS_HARD
1070
     0
  0
DICTIONARY
  5
23E5
102
{ACAD_REACTORS
330
23E4
102
}
330
23E4
100
AcDbDictionary
  3
DWGSETTINGS
350
265A
1001
ACAD
1000
TREAT_AS_HARD
1070
     0
  0
LAYER_INDEX
  5
2463
102
{ACAD_REACTORS
330
2462
102
}
330
2462
100
AcDbIndex
 40
2453057.546009838
100
AcDbLayerIndex
  8
0
360
2464
 90
      346
  8
DIM
360
2465
 90
      123
  8
DEFPOINTS
360
2466
 90
        0
  8
CENTER
360
2467
 90
       35
  8
LOGO
360
2468
 90
      112
  8
AM_5
360
2469
 90
        1
  0
XRECORD
  5
265A
102
{ACAD_REACTORS
330
23E5
102
}
330
23E5
100
AcDbXrecord
  1
VERSION
140
15.0
  1
PRODUCT
  2
AutoCAD Mechanical 2000
  0
IDBUFFER
  5
2464
330
0
100
AcDbIdBuffer
330
20
330
53
330
F1
330
F4
330
138
330
139
330
1FD
330
36E
330
376
330
379
330
37A
330
3F0
330
3F1
330
3F2
330
3F6
330
3F9
330
3FA
330
41F
330
420
330
4ED
330
4EE
330
4F0
330
4F1
330
4F2
330
4F3
330
4F4
330
4F5
330
4FE
330
500
330
503
330
512
330
522
330
523
330
524
330
5AF
330
5B2
330
5B4
330
5B9
330
5BA
330
5BB
330
5BC
330
5BD
330
5BE
330
5BF
330
5CE
330
5D2
330
600
330
604
330
605
330
68D
330
68E
330
68F
330
690
330
695
330
6EB
330
6EC
330
71C
330
725
330
74C
330
74D
330
74E
330
751
330
7BB
330
7BD
330
7D6
330
7F2
330
7F3
330
81E
330
81F
330
821
330
822
330
823
330
825
330
828
330
857
330
A29
330
A3A
330
A3B
330
A3E
330
A3F
330
A40
330
A42
330
A43
330
A44
330
A4B
330
A50
330
A51
330
A69
330
A7A
330
A7B
330
A7D
330
A82
330
1913
330
1914
330
1916
330
191D
330
1A98
330
1AA5
330
1AA6
330
1AA7
330
1AA8
330
1AA9
330
1AAA
330
1AAB
330
1AAC
330
1AAD
330
1AB0
330
1AB1
330
1AC6
330
1B00
330
1B08
330
1B09
330
1B0A
330
1B0B
330
1B0C
330
1B0D
330
1B0E
330
1B0F
330
1B10
330
1B11
330
1B12
330
1B13
330
1B14
330
1B25
330
1B26
330
1B27
330
1B28
330
1B29
330
1B2A
330
1B2B
330
1B2C
330
1B2D
330
1B2E
330
1B2F
330
1B30
330
1B31
330
1B32
330
1B33
330
1B34
330
1B37
330
1B38
330
1B39
330
1B3A
330
1B3B
330
1B3C
330
1B3D
330
1B3E
330
1B3F
330
1B40
330
1B41
330
1B42
330
1B43
330
1B44
330
1B45
330
1B46
330
1B73
330
1B74
330
1B75
330
1B76
330
1B77
330
1B78
330
1B79
330
1B7A
330
1B7B
330
1B7C
330
1B7D
330
1B7E
330
1B7F
330
1B80
330
1B81
330
1B82
330
1B85
330
1B86
330
1B87
330
1B88
330
1B89
330
1B8A
330
1B8B
330
1B8C
330
1B8D
330
1B8E
330
1B8F
330
1B90
330
1B91
330
1B92
330
1B93
330
1B94
330
1B95
330
1B96
330
1B97
330
1B98
330
1B99
330
1B9A
330
1B9B
330
1B9C
330
1B9D
330
1B9E
330
1B9F
330
1BA0
330
1BA1
330
1BA2
330
1BA3
330
1BA4
330
1BA7
330
1BA8
330
1BA9
330
1BAA
330
1BAB
330
1BAC
330
1BAD
330
1BAE
330
1BAF
330
1BB0
330
1BB1
330
1BB2
330
1BB3
330
1BB4
330
1BB5
330
1BB6
330
1D44
330
1D45
330
1D46
330
1D48
330
1D49
330
1D4A
330
1D4B
330
1D4C
330
1D50
330
1D51
330
1D52
330
1D53
330
1D59
330
1D5D
330
1D5E
330
1D65
330
1D66
330
1D68
330
1E90
330
1E91
330
1E92
330
1E93
330
1E94
330
1E95
330
1E96
330
1E97
330
1E98
330
1E99
330
1E9A
330
1E9B
330
1E9C
330
1E9D
330
1E9E
330
1E9F
330
1EA0
330
1EA2
330
1EA5
330
1EA6
330
1EA7
330
1EA8
330
1EA9
330
1EAA
330
1EAB
330
1EAC
330
1EAE
330
1EAF
330
1EB0
330
1EB8
330
1EBF
330
1EC0
330
1EC1
330
1EC2
330
1EC3
330
1EC4
330
1EC5
330
1EC6
330
1EC7
330
1EC9
330
1ECA
330
1ECB
330
1ECC
330
1ECD
330
1ECE
330
1ECF
330
1ED0
330
1ED1
330
1ED3
330
1ED4
330
1ED5
330
1ED6
330
1ED7
330
1ED8
330
1ED9
330
1EDA
330
1EDC
330
1EDD
330
1EDE
330
1EDF
330
1EE0
330
1EE1
330
1EE2
330
1EE3
330
1EE4
330
1EE5
330
1EE6
330
1EE7
330
1EE8
330
1EE9
330
1EEA
330
1EEB
330
1EEC
330
1EED
330
1EEE
330
1EEF
330
1EF0
330
1EF4
330
1EF6
330
1EF7
330
1EF8
330
1EFA
330
1EFB
330
1EFC
330
1EFD
330
1EFE
330
1EFF
330
1F00
330
1F01
330
1F02
330
1F04
330
1F05
330
1F06
330
1F07
330
1F08
330
1F09
330
1F0A
330
1F0D
330
1F0F
330
1F11
330
1F12
330
1F13
330
1F64
330
1F65
330
1F6A
330
1F6B
330
1F6C
330
1F6D
330
205E
  0
IDBUFFER
  5
2465
330
0
100
AcDbIdBuffer
330
421
330
423
330
424
330
501
330
601
330
602
330
606
330
724
330
726
330
7E5
330
7E6
330
824
330
826
330
1B15
330
1B16
330
1B23
330
1B24
330
1B35
330
1B36
330
1B71
330
1B72
330
1B83
330
1B84
330
1BA5
330
1BA6
330
1BB7
330
1BB8
330
1EA3
330
1EA4
330
1EBE
330
1EC8
330
1ED2
330
1EDB
330
1EF1
330
1EF2
330
1EF9
330
1F03
330
1F1E
330
1F1F
330
1F20
330
1F21
330
1F22
330
1F23
330
1F4C
330
21B0
330
21B4
330
1F4D
330
1F82
330
1F9A
330
1FA7
330
1FB4
330
201B
330
2028
330
2044
330
2045
330
2046
330
204B
330
204D
330
204E
330
204F
330
2050
330
2051
330
2052
330
2053
330
2054
330
2055
330
2056
330
2057
330
2058
330
2059
330
205A
330
205B
330
205C
330
205D
330
205F
330
2062
330
2068
330
2069
330
206A
330
206B
330
206C
330
206D
330
206E
330
206F
330
2074
330
2075
330
2076
330
2077
330
2078
330
2079
330
207A
330
207B
330
207C
330
207D
330
207E
330
207F
330
2080
330
2081
330
2082
330
2083
330
2084
330
2085
330
2086
330
2087
330
2088
330
2089
330
208A
330
208B
330
2098
330
2099
330
21B8
330
21BC
330
209A
330
209B
330
20A1
330
21C0
330
21C4
330
20A2
330
20B1
330
20DA
330
20F4
330
2101
330
213D
  0
IDBUFFER
  5
2466
330
0
100
AcDbIdBuffer
  0
IDBUFFER
  5
2467
330
0
100
AcDbIdBuffer
330
1FB
330
373
330
3F3
330
41B
330
41E
330
425
330
426
330
4EF
330
4FF
330
504
330
5CF
330
607
330
691
330
696
330
74B
330
750
330
7E4
330
829
330
A26
330
A7C
330
B2B
330
1912
330
1D47
330
1D54
330
1D55
330
1EAD
330
1EB9
330
1EBC
330
1EF3
330
1F0B
330
1F0E
330
1F10
330
2048
330
2049
330
204A
  0
IDBUFFER
  5
2468
330
0
100
AcDbIdBuffer
330
22E2
330
22E3
330
22E4
330
22E5
330
22E6
330
22E7
330
22E8
330
22E9
330
22EA
330
22EB
330
22EC
330
22ED
330
22EE
330
22EF
330
22F0
330
22F1
330
22F2
330
22F3
330
22F4
330
22F5
330
22F6
330
22F7
330
22F8
330
22F9
330
22FA
330
22FB
330
22FC
330
22FD
330
22FE
330
22FF
330
2300
330
2301
330
2302
330
2303
330
2304
330
2305
330
2306
330
2307
330
2308
330
2309
330
230A
330
230B
330
230C
330
230D
330
230E
330
230F
330
2310
330
2311
330
2312
330
2313
330
2314
330
2315
330
2316
330
2317
330
2318
330
2319
330
231A
330
231B
330
231C
330
231D
330
231E
330
231F
330
2320
330
2321
330
2322
330
2323
330
2324
330
2325
330
2326
330
2327
330
2328
330
2329
330
232A
330
232B
330
232C
330
232D
330
2335
330
233C
330
233D
330
233E
330
233F
330
2340
330
2341
330
2342
330
2343
330
2344
330
2345
330
2346
330
2347
330
2348
330
2349
330
234A
330
234B
330
234C
330
234D
330
234E
330
234F
330
2350
330
2351
330
2352
330
2354
330
2357
330
235E
330
235F
330
2362
330
2363
330
2365
330
2366
330
2367
330
2368
330
2369
330
236A
  0
IDBUFFER
  5
2469
330
0
100
AcDbIdBuffer
330
2449
  0
ENDSEC
  0
EOF
