  0
SECTION
  2
HEADER
  9
$ACADVER
  1
AC1012
  9
$DWGCODEPAGE
  3
big5
  9
$INSBASE
 10
0.0
 20
0.0
 30
0.0
  9
$EXTMIN
 10
9.454342871909325
 20
-41.47920250899574
 30
0.0
  9
$EXTMAX
 10
392.3465185689726
 20
339.2808219178084
 30
0.0
  9
$LIMMIN
 10
0.0
 20
0.0
  9
$LIMMAX
 10
594.0
 20
420.0
  9
$ORTHOMODE
 70
     0
  9
$REGENMODE
 70
     1
  9
$FILLMODE
 70
     1
  9
$QTEXTMODE
 70
     0
  9
$MIRRTEXT
 70
     1
  9
$DRAGMODE
 70
     2
  9
$LTSCALE
 40
6.0
  9
$OSMODE
 70
    37
  9
$ATTMODE
 70
     1
  9
$TEXTSIZE
 40
4.0
  9
$TRACEWID
 40
0.05
  9
$TEXTSTYLE
  7
CHINESET
  9
$CLAYER
  8
0
  9
$CELTYPE
  6
BYLAYER
  9
$CECOLOR
 62
   256
  9
$CELTSCALE
 40
1.0
  9
$DELOBJ
 70
     1
  9
$DISPSILH
 70
     0
  9
$DIMSCALE
 40
1.0
  9
$DIMASZ
 40
3.0
  9
$DIMEXO
 40
2.0
  9
$DIMDLI
 40
8.0
  9
$DIMRND
 40
0.0
  9
$DIMDLE
 40
0.0
  9
$DIMEXE
 40
2.0
  9
$DIMTP
 40
0.0
  9
$DIMTM
 40
0.0
  9
$DIMTXT
 40
3.0
  9
$DIMCEN
 40
-1.0
  9
$DIMTSZ
 40
0.0
  9
$DIMTOL
 70
     0
  9
$DIMLIM
 70
     0
  9
$DIMTIH
 70
     0
  9
$DIMTOH
 70
     0
  9
$DIMSE1
 70
     0
  9
$DIMSE2
 70
     0
  9
$DIMTAD
 70
     1
  9
$DIMZIN
 70
     8
  9
$DIMBLK
  1

  9
$DIMASO
 70
     1
  9
$DIMSHO
 70
     1
  9
$DIMPOST
  1

  9
$DIMAPOST
  1

  9
$DIMALT
 70
     0
  9
$DIMALTD
 70
     2
  9
$DIMALTF
 40
25.4
  9
$DIMLFAC
 40
1.0
  9
$DIMTOFL
 70
     0
  9
$DIMTVP
 40
0.0
  9
$DIMTIX
 70
     0
  9
$DIMSOXD
 70
     0
  9
$DIMSAH
 70
     0
  9
$DIMBLK1
  1

  9
$DIMBLK2
  1

  9
$DIMSTYLE
  2
STANDARD
  9
$DIMCLRD
 70
     5
  9
$DIMCLRE
 70
     5
  9
$DIMCLRT
 70
     5
  9
$DIMTFAC
 40
1.0
  9
$DIMGAP
 40
1.5
  9
$DIMJUST
 70
     0
  9
$DIMSD1
 70
     0
  9
$DIMSD2
 70
     0
  9
$DIMTOLJ
 70
     1
  9
$DIMTZIN
 70
     8
  9
$DIMALTZ
 70
     8
  9
$DIMALTTZ
 70
     8
  9
$DIMFIT
 70
     5
  9
$DIMUPT
 70
     0
  9
$DIMUNIT
 70
     2
  9
$DIMDEC
 70
     4
  9
$DIMTDEC
 70
     4
  9
$DIMALTU
 70
     2
  9
$DIMALTTD
 70
     2
  9
$DIMTXSTY
  7
STANDARD
  9
$DIMAUNIT
 70
     0
  9
$LUNITS
 70
     2
  9
$LUPREC
 70
     4
  9
$SKETCHINC
 40
0.1
  9
$FILLETRAD
 40
3.0
  9
$AUNITS
 70
     0
  9
$AUPREC
 70
     0
  9
$MENU
  1
acad
  9
$ELEVATION
 40
0.0
  9
$PELEVATION
 40
0.0
  9
$THICKNESS
 40
0.0
  9
$LIMCHECK
 70
     0
  9
$BLIPMODE
 70
     0
  9
$CHAMFERA
 40
0.0
  9
$CHAMFERB
 40
0.0
  9
$CHAMFERC
 40
0.0
  9
$CHAMFERD
 40
0.0
  9
$SKPOLY
 70
     0
  9
$TDCREATE
 40
2451089.398626990
  9
$TDUPDATE
 40
2453057.501094826
  9
$TDINDWG
 40
0.0052801042
  9
$TDUSRTIMER
 40
0.0052801042
  9
$USRTIMER
 70
     1
  9
$ANGBASE
 50
0.0
  9
$ANGDIR
 70
     0
  9
$PDMODE
 70
     0
  9
$PDSIZE
 40
0.0
  9
$PLINEWID
 40
0.0
  9
$COORDS
 70
     1
  9
$SPLFRAME
 70
     0
  9
$SPLINETYPE
 70
     6
  9
$SPLINESEGS
 70
     8
  9
$ATTDIA
 70
     1
  9
$ATTREQ
 70
     1
  9
$HANDLING
 70
 22529
  9
$HANDSEED
  5
25B3
  9
$SURFTAB1
 70
     6
  9
$SURFTAB2
 70
     6
  9
$SURFTYPE
 70
     6
  9
$SURFU
 70
     6
  9
$SURFV
 70
     6
  9
$UCSNAME
  2

  9
$UCSORG
 10
0.0
 20
0.0
 30
0.0
  9
$UCSXDIR
 10
1.0
 20
0.0
 30
0.0
  9
$UCSYDIR
 10
0.0
 20
1.0
 30
0.0
  9
$PUCSNAME
  2

  9
$PUCSORG
 10
0.0
 20
0.0
 30
0.0
  9
$PUCSXDIR
 10
1.0
 20
0.0
 30
0.0
  9
$PUCSYDIR
 10
0.0
 20
1.0
 30
0.0
  9
$USERI1
 70
     0
  9
$USERI2
 70
     0
  9
$USERI3
 70
     0
  9
$USERI4
 70
     0
  9
$USERI5
 70
     0
  9
$USERR1
 40
0.0
  9
$USERR2
 40
0.0
  9
$USERR3
 40
0.0
  9
$USERR4
 40
0.0
  9
$USERR5
 40
0.0
  9
$WORLDVIEW
 70
     1
  9
$SHADEDGE
 70
     3
  9
$SHADEDIF
 70
    70
  9
$TILEMODE
 70
     1
  9
$MAXACTVP
 70
    16
  9
$PINSBASE
 10
0.0
 20
0.0
 30
0.0
  9
$PLIMCHECK
 70
     0
  9
$PEXTMIN
 10
1.000000000000000E+20
 20
1.000000000000000E+20
 30
1.000000000000000E+20
  9
$PEXTMAX
 10
-1.000000000000000E+20
 20
-1.000000000000000E+20
 30
-1.000000000000000E+20
  9
$PLIMMIN
 10
0.0
 20
0.0
  9
$PLIMMAX
 10
12.0
 20
9.0
  9
$UNITMODE
 70
     0
  9
$VISRETAIN
 70
     0
  9
$PLINEGEN
 70
     0
  9
$PSLTSCALE
 70
     1
  9
$TREEDEPTH
 70
  3020
  9
$PICKSTYLE
 70
     1
  9
$CMLSTYLE
  2
STANDARD
  9
$CMLJUST
 70
     0
  9
$CMLSCALE
 40
1.0
  9
$SAVEIMAGES
 70
     1
  0
ENDSEC
  0
SECTION
  2
CLASSES
  0
CLASS
  1
ACDBDICTIONARYWDFLT
  2
AcDbDictionaryWithDefault
  3
AutoCAD 2000
 90
    32768
280
     0
281
     0
  0
CLASS
  1
ACDBPLACEHOLDER
  2
AcDbPlaceHolder
  3
AutoCAD 2000
 90
    32768
280
     0
281
     0
  0
CLASS
  1
LAYOUT
  2
AcDbLayout
  3
AutoCAD 2000
 90
    32768
280
     0
281
     0
  0
CLASS
  1
LONG_TRANSACTION
  2
AcDbLongTransaction
  3
AutoCAD 2000
 90
    32768
280
     0
281
     0
  0
CLASS
  1
LWPOLYLINE
  2
AcDbPolyline
  3
AutoCAD 2000
 90
    32768
280
     0
281
     1
  0
CLASS
  1
HATCH
  2
AcDbHatch
  3
AutoCAD 2000
 90
    32768
280
     0
281
     1
  0
CLASS
  1
XRECORD
  2
AcDbXrecord
  3
AutoCAD 2000
 90
    32768
280
     0
281
     0
  0
CLASS
  1
ACME_DOCUMENT
  2
AcMeDbDoc
  3
AcMeServices
 90
    32768
280
     0
281
     0
  0
CLASS
  1
AMGSETTINGSOBJ
  2
AmgSettingsObj
  3
"AcadM|Product Description: AutoCAD Mechanical 2000|Company: Autodesk"
 90
    32768
280
     0
281
     0
  0
CLASS
  1
ACMESCOPE
  2
AcMeScope
  3
AcMeServices
 90
    32768
280
     0
281
     0
  0
CLASS
  1
ACMECOMMANDHISTORY
  2
AcMeCommandHistory
  3
AcMeServices
 90
    32768
280
     0
281
     0
  0
CLASS
  1
ACIMSYSVARMAN
  2
AcImSysVarManager
  3
AcMeServices
 90
    32768
280
     0
281
     0
  0
CLASS
  1
ACIMREALSYSVAR
  2
AcImRealSysVar
  3
AcMeServices
 90
    32768
280
     0
281
     0
  0
CLASS
  1
ACIMINTSYSVAR
  2
AcImIntSysVar
  3
AcMeServices
 90
    32768
280
     0
281
     0
  0
CLASS
  1
ACMEDRAWINGMAN
  2
AcMeDrawingMan
  3
AcMeServices
 90
    32768
280
     0
281
     0
  0
CLASS
  1
ACMEVIEW
  2
AcMeView
  3
AcMeServices
 90
    32768
280
     0
281
     0
  0
CLASS
  1
ACDBENTITYCACHE
  2
AcMeEntityCache
  3
AcMeServices
 90
    32768
280
     0
281
     0
  0
CLASS
  1
GSMANAGER
  2
AcMeGSManager
  3
AcMeServices
 90
    32768
280
     0
281
     0
  0
CLASS
  1
AMDTINTERNALREACTOR
  2
AmdtInternalReactor
  3
AcMeServices
 90
    32768
280
     0
281
     0
  0
CLASS
  1
ACMESTATEMGR
  2
AcMeStateMgr
  3
AcMeServices
 90
    32768
280
     0
281
     0
  0
CLASS
  1
ACGREFMASTER
  2
AcGrefMaster
  3
AcAttribServices
 90
    32768
280
     0
281
     0
  0
CLASS
  1
ACME_DATABASE
  2
AcMeDbDatabase
  3
AcMeServices
 90
    32768
280
     0
281
     0
  0
CLASS
  1
ACRFINSADJUSTERMGR
  2
AcRfInsAdjusterMgr
  3
AcMeServices
 90
    32768
280
     0
281
     0
  0
CLASS
  1
ACGREFACADMASTER
  2
AcGrefacadMaster
  3
AcGrefServices
 90
    32768
280
     0
281
     0
  0
CLASS
  1
AMIMASTER
  2
AmiMaster
  3
AmiServices
 90
    32768
280
     0
281
     0
  0
CLASS
  1
ACMDATADICTIONARY
  2
AcmDataDictionary
  3
"AcmSymBB|Product Description: AutoCAD Mechanical 2000|Company: Autodesk"
 90
    32768
280
     0
281
     0
  0
CLASS
  1
ACMDATAENTRYBLOCK
  2
AcmDataEntryBlock
  3
"AcmSymBB|Product Description: AutoCAD Mechanical 2000|Company: Autodesk"
 90
    32768
280
     0
281
     0
  0
CLASS
  1
ACIMSTRSYSVAR
  2
AcImStrSysVar
  3
AcMeServices
 90
    32768
280
     0
281
     0
  0
CLASS
  1
ACMSTANDARDANSI
  2
AcmStandardANSI
  3
"Amdt_StdImp|Product Description: AutoCAD Mechanical 2000|Company: Autodesk"
 90
    32768
280
     0
281
     0
  0
CLASS
  1
AMGOBJPROPCFG
  2
AmgObjPropCfg
  3
"AmgLay|Product Description: AutoCAD Mechanical 2000|Company: Autodesk"
 90
    32769
280
     0
281
     0
  0
CLASS
  1
ACMSURFSTANDARDANSI
  2
AcmSurfTextStdANSI
  3
"Amdt_StdImp|Product Description: AutoCAD Mechanical 2000|Company: Autodesk"
 90
    32768
280
     0
281
     0
  0
CLASS
  1
ACMFCFSTANDARDANSI
  2
AcmFCFStdANSI
  3
"Amdt_StdImp|Product Description: AutoCAD Mechanical 2000|Company: Autodesk"
 90
    32768
280
     0
281
     0
  0
CLASS
  1
ACMWELDSTANDARDANSI
  2
AcmWeldingStdANSI
  3
"Amdt_StdImp|Product Description: AutoCAD Mechanical 2000|Company: Autodesk"
 90
    32768
280
     0
281
     0
  0
CLASS
  1
ACMIDSTANDARDANSI
  2
AcmIdStdANSI
  3
"Amdt_StdImp|Product Description: AutoCAD Mechanical 2000|Company: Autodesk"
 90
    32768
280
     0
281
     0
  0
CLASS
  1
ACMDATUMSTANDARDANSI
  2
AcmDatumStdANSI
  3
"Amdt_StdImp|Product Description: AutoCAD Mechanical 2000|Company: Autodesk"
 90
    32768
280
     0
281
     0
  0
CLASS
  1
ACMBOMSTANDARDANSI
  2
AcmBOMStdANSI
  3
"Amdt_StdImp|Product Description: AutoCAD Mechanical 2000|Company: Autodesk"
 90
    32768
280
     0
281
     0
  0
CLASS
  1
ACMDETAILSTANDARDANSI
  2
AmdtDetailSymStdANSI
  3
"Amdt_StdImp|Product Description: AutoCAD Mechanical 2000|Company: Autodesk"
 90
    32768
280
     0
281
     0
  0
CLASS
  1
ACMSECTIONSTANDARDANSI
  2
AmdtSectionSymStdANSI
  3
"Amdt_StdImp|Product Description: AutoCAD Mechanical 2000|Company: Autodesk"
 90
    32768
280
     0
281
     0
  0
CLASS
  1
ACMCENTERLINESTANDARDANSI
  2
AmdtCenterLineStdANSI
  3
"Amdt_StdImp|Product Description: AutoCAD Mechanical 2000|Company: Autodesk"
 90
    32768
280
     0
281
     0
  0
CLASS
  1
ACMNOTESTANDARDANSI
  2
AmdtNoteStdANSI
  3
"Amdt_StdImp|Product Description: AutoCAD Mechanical 2000|Company: Autodesk"
 90
    32768
280
     0
281
     0
  0
CLASS
  1
ACAMGLAYSTD
  2
AcAmgLayStd
  3
"AcAmgLayStd|Product Description: AutoCAD Mechanical 2000|Company: Autodesk"
 90
    32768
280
     0
281
     0
  0
CLASS
  1
ACAMGDIMSTD
  2
AcAmgDimStd
  3
"AcAmgDimStd|Product Description: AutoCAD Mechanical 2000|Company: Autodesk"
 90
    32768
280
     0
281
     0
  0
CLASS
  1
ACAMGHOLECHARTSTDANSI
  2
AcAmgHoleChartStdANSI
  3
ACMSYMBB_MODULE_NAME
 90
    32768
280
     0
281
     0
  0
CLASS
  1
ACAMGTITLESTD
  2
AcAmgTitleStd
  3
"TITLEAPP"
 90
    32768
280
     0
281
     0
  0
CLASS
  1
ACAMGFILTERDAT
  2
AcAmgFilterDat
  3
"AcadM|Product Description: AutoCAD Mechanical 2000|Company: Autodesk"
 90
    32768
280
     0
281
     0
  0
CLASS
  1
LAYER_INDEX
  2
AcDbLayerIndex
  3
AutoCAD 2000
 90
    32768
280
     0
281
     0
  0
CLASS
  1
IDBUFFER
  2
AcDbIdBuffer
  3
AutoCAD 2000
 90
    32768
280
     0
281
     0
  0
CLASS
  1
DICTIONARYVAR
  2
AcDbDictionaryVar
  3
AutoCAD 2000
 90
    32768
280
     0
281
     0
  0
CLASS
  1
LONG_TRANSACTION
  2
AcDbLongTransaction
  3
AutoCAD 2000
 90
    32768
280
     0
281
     0
  0
CLASS
  1
LWPOLYLINE
  2
AcDbPolyline
  3
AutoCAD 2000
 90
    32768
280
     0
281
     1
  0
CLASS
  1
HATCH
  2
AcDbHatch
  3
AutoCAD 2000
 90
    32768
280
     0
281
     1
  0
CLASS
  1
XRECORD
  2
AcDbXrecord
  3
AutoCAD 2000
 90
    32768
280
     0
281
     0
  0
CLASS
  1
LONG_TRANSACTION
  2
AcDbLongTransaction
  3
AutoCAD 2000
 90
    32768
280
     0
281
     0
  0
CLASS
  1
LWPOLYLINE
  2
AcDbPolyline
  3
AutoCAD 2000
 90
    32768
280
     0
281
     1
  0
CLASS
  1
HATCH
  2
AcDbHatch
  3
AutoCAD 2000
 90
    32768
280
     0
281
     1
  0
CLASS
  1
XRECORD
  2
AcDbXrecord
  3
AutoCAD 2000
 90
    32768
280
     0
281
     0
  0
ENDSEC
  0
SECTION
  2
TABLES
  0
TABLE
  2
VPORT
  5
21CD
330
0
100
AcDbSymbolTable
 70
     4
  0
VPORT
  5
25B0
330
21CD
100
AcDbSymbolTableRecord
100
AcDbViewportTableRecord
  2
*ACTIVE
 70
     0
 10
0.0
 20
0.0
 11
1.0
 21
1.0
 12
212.1010926782477
 22
148.9119989910559
 13
0.0
 23
0.0
 14
1.0
 24
1.0
 15
15.0
 25
15.0
 16
0.0
 26
0.0
 36
1.0
 17
0.0
 27
0.0
 37
0.0
 40
384.8581886103643
 41
1.775280898876404
 42
50.0
 43
0.0
 44
0.0
 50
0.0
 51
0.0
 71
     0
 72
 20000
 73
     1
 74
     1
 75
     0
 76
     0
 77
     0
 78
     0
  0
ENDTAB
  0
TABLE
  2
LTYPE
  5
21CA
330
0
100
AcDbSymbolTable
 70
    16
  0
LTYPE
  5
21D8
330
21CA
100
AcDbSymbolTableRecord
100
AcDbLinetypeTableRecord
  2
BYBLOCK
 70
     0
  3

 72
    65
 73
     0
 40
0.0
  0
LTYPE
  5
21D9
330
21CA
100
AcDbSymbolTableRecord
100
AcDbLinetypeTableRecord
  2
BYLAYER
 70
     0
  3

 72
    65
 73
     0
 40
0.0
  0
LTYPE
  5
21DA
330
21CA
100
AcDbSymbolTableRecord
100
AcDbLinetypeTableRecord
  2
CONTINUOUS
 70
     0
  3
Solid line
 72
    65
 73
     0
 40
0.0
  0
LTYPE
  5
21FE
330
21CA
100
AcDbSymbolTableRecord
100
AcDbLinetypeTableRecord
  2
CENTER
 70
     0
  3
____ _ ____ _ ____ _ ____ _ ____ _ ____ _ ____ 
 72
    65
 73
     4
 40
2.0
 49
1.25
 74
     0
 49
-0.25
 74
     0
 49
0.25
 74
     0
 49
-0.25
 74
     0
  0
LTYPE
  5
21FF
330
21CA
100
AcDbSymbolTableRecord
100
AcDbLinetypeTableRecord
  2
HIDDEN
 70
     0
  3
__ __ __ __ __ __ __ __ __ __ __ __ __ __ __ __
 72
    65
 73
     2
 40
0.375
 49
0.25
 74
     0
 49
-0.125
 74
     0
  0
LTYPE
  5
2320
330
21CA
100
AcDbSymbolTableRecord
100
AcDbLinetypeTableRecord
  2
AMCONSTR
 70
     0
  3
_______________________
 72
    65
 73
     2
 40
9999.0
 49
9999.0
 74
     0
 49
0.0
 74
     0
  0
LTYPE
  5
2326
330
21CA
100
AcDbSymbolTableRecord
100
AcDbLinetypeTableRecord
  2
PHANTOM2
 70
     0
  3
Phantom (.5x) ___ _ _ ___ _ _ ___ _ _ ___ _ _
 72
    65
 73
     6
 40
1.25
 49
0.625
 74
     0
 49
-0.125
 74
     0
 49
0.125
 74
     0
 49
-0.125
 74
     0
 49
0.125
 74
     0
 49
-0.125
 74
     0
  0
LTYPE
  5
2327
330
21CA
100
AcDbSymbolTableRecord
100
AcDbLinetypeTableRecord
  2
CENTER2
 70
     0
  3
Center (.5x) ___ _ ___ _ ___ _ ___ _ ___ _ ___
 72
    65
 73
     4
 40
1.125
 49
0.75
 74
     0
 49
-0.125
 74
     0
 49
0.125
 74
     0
 49
-0.125
 74
     0
  0
LTYPE
  5
2328
330
21CA
100
AcDbSymbolTableRecord
100
AcDbLinetypeTableRecord
  2
HIDDEN2
 70
     0
  3
Hidden (.5x) _ _ _ _ _ _ _ _ _ _ _ _ _ _ _ _ _
 72
    65
 73
     2
 40
0.1875
 49
0.125
 74
     0
 49
-0.0625
 74
     0
  0
LTYPE
  5
2329
330
21CA
100
AcDbSymbolTableRecord
100
AcDbLinetypeTableRecord
  2
AMZIGZAG2
 70
     0
  3
/\/-/\/-/\/-/\/-/\/-/\/
 72
    65
 73
     2
 40
0.4401
 49
0.0001
 74
     4
 75
   135
340
2324
 46
0.0016
 50
0.0
 44
0.0
 45
0.0
 49
-0.4400000000000001
 74
     0
  0
LTYPE
  5
2336
330
21CA
100
AcDbSymbolTableRecord
100
AcDbLinetypeTableRecord
  2
ACANSTGB
 70
     0
  3
__ . . __ . .
 72
    65
 73
     6
 40
0.35433070866
 49
0.15748031496
 74
     0
 49
-0.03937007874
 74
     0
 49
0.03937007874
 74
     0
 49
-0.03937007874
 74
     0
 49
0.03937007874
 74
     0
 49
-0.03937007874
 74
     0
  0
LTYPE
  5
2337
330
21CA
100
AcDbSymbolTableRecord
100
AcDbLinetypeTableRecord
  2
ACANSTGL
 70
     0
  3
_ _ _ _ _
 72
    65
 73
     2
 40
0.11811023622
 49
0.07874015748
 74
     0
 49
-0.03937007874
 74
     0
  0
LTYPE
  5
2549
330
21CA
100
AcDbSymbolTableRecord
100
AcDbLinetypeTableRecord
  2
AM_ISO02W050
 70
     0
  3
__ __ __ __ __ __ __ __ __ __ __ __ __ __ __
 72
    65
 73
     2
 40
7.5
 49
6.0
 74
     0
 49
-1.5
 74
     0
  0
LTYPE
  5
254A
330
21CA
100
AcDbSymbolTableRecord
100
AcDbLinetypeTableRecord
  2
AM_ISO08W050
 70
     0
  3
____ . ____ . ____ . ____ . ____ . ____ . ____
 72
    65
 73
     4
 40
18.0
 49
12.0
 74
     0
 49
-1.5
 74
     0
 49
3.0
 74
     0
 49
-1.5
 74
     0
  0
LTYPE
  5
254B
330
21CA
100
AcDbSymbolTableRecord
100
AcDbLinetypeTableRecord
  2
AM_ISO09W050
 70
     0
  3
_____ . . _____ . . _____ . . ____ .. ____
 72
    65
 73
     6
 40
22.5
 49
12.0
 74
     0
 49
-1.5
 74
     0
 49
3.0
 74
     0
 49
-1.5
 74
     0
 49
3.0
 74
     0
 49
-1.5
 74
     0
  0
LTYPE
  5
254C
330
21CA
100
AcDbSymbolTableRecord
100
AcDbLinetypeTableRecord
  2
AM_ISO08W050X2
 70
     0
  3
__ . __ . __ . __ . __ . __
 72
    65
 73
     4
 40
9.0
 49
6.0
 74
     0
 49
-0.75
 74
     0
 49
1.5
 74
     0
 49
-0.75
 74
     0
  0
LTYPE
  5
254D
330
21CA
100
AcDbSymbolTableRecord
100
AcDbLinetypeTableRecord
  2
AM_ISO02W050X2
 70
     0
  3
 _ _ _ _ _ _ _ _ _ _ _ _
 72
    65
 73
     2
 40
3.75
 49
3.0
 74
     0
 49
-0.75
 74
     0
  0
LTYPE
  5
254E
330
21CA
100
AcDbSymbolTableRecord
100
AcDbLinetypeTableRecord
  2
AMZIGZAG
 70
     0
  3
/\/-/\/-/\/-/\/-/\/-/\/
 72
    65
 73
     2
 40
11.00009999999999
 49
0.0001
 74
     4
 75
   135
340
2324
 46
0.04
 50
0.0
 44
0.0
 45
0.0
 49
-11.0
 74
     0
  0
ENDTAB
  0
TABLE
  2
LAYER
  5
21C7
330
0
100
AcDbSymbolTable
 70
     6
  0
LAYER
  5
21D5
330
21C7
100
AcDbSymbolTableRecord
100
AcDbLayerTableRecord
  2
0
 70
     0
 62
     7
  6
CONTINUOUS
  0
LAYER
  5
2202
330
21C7
100
AcDbSymbolTableRecord
100
AcDbLayerTableRecord
  2
DIM
 70
     0
 62
     7
  6
CONTINUOUS
  0
LAYER
  5
2203
330
21C7
100
AcDbSymbolTableRecord
100
AcDbLayerTableRecord
  2
DEFPOINTS
 70
     0
 62
    -7
  6
CONTINUOUS
  0
LAYER
  5
220F
330
21C7
100
AcDbSymbolTableRecord
100
AcDbLayerTableRecord
  2
LOGO
 70
     0
 62
     7
  6
CONTINUOUS
  0
LAYER
  5
2282
330
21C7
100
AcDbSymbolTableRecord
100
AcDbLayerTableRecord
  2
CENTER
 70
     0
 62
     1
  6
CENTER
  0
LAYER
  5
246E
330
21C7
100
AcDbSymbolTableRecord
100
AcDbLayerTableRecord
  2
AM_5
 70
     0
 62
     3
  6
CONTINUOUS
  0
ENDTAB
  0
TABLE
  2
STYLE
  5
21C8
330
0
100
AcDbSymbolTable
 70
     6
  0
STYLE
  5
21D6
330
21C8
100
AcDbSymbolTableRecord
100
AcDbTextStyleTableRecord
  2
STANDARD
 70
     0
 40
0.0
 41
1.0
 50
0.0
 71
     0
 42
0.2
  3
isocp.shx
  4
chineset.shx
  0
STYLE
  5
21FD
330
21C8
100
AcDbSymbolTableRecord
100
AcDbTextStyleTableRecord
  2
CHINESET
 70
     0
 40
0.0
 41
1.0
 50
0.0
 71
     0
 42
4.0
  3
C:\r13\com\fonts\simplex.shx
  4
C:\r13\com\fonts\chineset.shx
  0
STYLE
  5
2210
330
21C8
100
AcDbSymbolTableRecord
100
AcDbTextStyleTableRecord
  2
LOGO
 70
     0
 40
0.0
 41
1.0
 50
0.0
 71
     0
 42
5.0
  3
LEI00DP.TTF
  4

1001
ACAD
1000
文鼎中粗隸
1071
    34865
  0
STYLE
  5
2324
330
21C8
100
AcDbSymbolTableRecord
100
AcDbTextStyleTableRecord
  2

 70
     1
 40
0.0
 41
1.0
 50
0.0
 71
     0
 42
4.0
  3
ltypeshp.shx
  4

  0
STYLE
  5
232A
330
21C8
100
AcDbSymbolTableRecord
100
AcDbTextStyleTableRecord
  2
ACANSTS
 70
     0
 40
1.0
 41
1.0
 50
0.0
 71
     0
 42
4.0
  3
romans.shx
  4
chineset.shx
  0
STYLE
  5
2335
330
21C8
100
AcDbSymbolTableRecord
100
AcDbTextStyleTableRecord
  2
ACANSGDT
 70
     0
 40
0.0
 41
1.0
 50
0.0
 71
     0
 42
4.0
  3
amgdtans.shx
  4

  0
ENDTAB
  0
TABLE
  2
VIEW
  5
21CB
330
0
100
AcDbSymbolTable
 70
     0
  0
ENDTAB
  0
TABLE
  2
UCS
  5
21CC
330
0
100
AcDbSymbolTable
 70
     0
  0
ENDTAB
  0
TABLE
  2
APPID
  5
21CE
330
0
100
AcDbSymbolTable
 70
     4
  0
APPID
  5
21D7
330
21CE
100
AcDbSymbolTableRecord
100
AcDbRegAppTableRecord
  2
ACAD
 70
     0
  0
APPID
  5
22FF
330
21CE
100
AcDbSymbolTableRecord
100
AcDbRegAppTableRecord
  2
MCAD_NO_VIS
 70
     0
  0
APPID
  5
2300
330
21CE
100
AcDbSymbolTableRecord
100
AcDbRegAppTableRecord
  2
ACAD_TEMP_GRAPHIC
 70
     0
  0
APPID
  5
2311
330
21CE
100
AcDbSymbolTableRecord
100
AcDbRegAppTableRecord
  2
ACATTRIBSERVICES
 70
     0
  0
ENDTAB
  0
TABLE
  2
DIMSTYLE
  5
21CF
330
0
100
AcDbSymbolTable
 70
     7
  0
DIMSTYLE
105
2201
102
{ACAD_REACTORS
330
1F82
330
1F9A
330
1FA7
330
1FB4
330
201B
330
2028
330
2098
330
20B1
330
20DA
330
20F4
330
2101
330
213D
330
24A1
330
247D
102
}
330
21CF
100
AcDbSymbolTableRecord
100
AcDbDimStyleTableRecord
  2
STANDARD
 70
     0
  3

  4

  5

  6

  7

 40
1.0
 41
3.0
 42
2.0
 43
8.0
 44
2.0
 45
0.0
 46
0.0
 47
0.0
 48
0.0
140
3.0
141
-1.0
142
0.0
143
25.4
144
1.0
145
0.0
146
1.0
147
1.5
 71
     0
 72
     0
 73
     0
 74
     0
 75
     0
 76
     0
 77
     1
 78
     8
170
     0
171
     2
172
     0
173
     0
174
     0
175
     0
176
     5
177
     5
178
     5
270
     2
271
     4
272
     4
273
     2
274
     2
340
21D6
275
     0
280
     0
281
     0
282
     0
283
     1
284
     8
285
     8
286
     8
287
     5
288
     0
  0
DIMSTYLE
105
233B
330
21CF
100
AcDbSymbolTableRecord
100
AcDbDimStyleTableRecord
  2
AM_ANSI
 70
     0
  3

  4
mm
  5

  6

  7

 40
1.0
 41
0.1
 42
0.05
 43
0.5
 44
0.1
 45
0.0
 46
0.0
 47
0.1
 48
0.1
140
0.12
141
0.0
142
0.0
143
25.4
144
1.0
145
0.0
146
0.71
147
0.06
 71
     0
 72
     0
 73
     1
 74
     1
 75
     0
 76
     0
 77
     0
 78
     7
170
     0
171
     2
172
     0
173
     0
174
     0
175
     0
176
   256
177
   256
178
     2
270
     2
271
     4
272
     4
273
     2
274
     4
340
21D6
275
     0
280
     0
281
     0
282
     0
283
     1
284
     7
285
     0
286
     0
287
     3
288
     0
  0
DIMSTYLE
105
233C
330
21CF
100
AcDbSymbolTableRecord
100
AcDbDimStyleTableRecord
  2
AM_ANSI$3
 70
     0
  3

  4
mm
  5

  6

  7

 40
1.0
 41
0.1
 42
0.05
 43
0.5
 44
0.1
 45
0.0
 46
0.0
 47
0.1
 48
0.1
140
0.12
141
0.0
142
0.0
143
25.4
144
1.0
145
0.0
146
0.71
147
0.06
 71
     0
 72
     0
 73
     1
 74
     1
 75
     0
 76
     0
 77
     0
 78
     7
170
     0
171
     2
172
     0
173
     0
174
     0
175
     0
176
   256
177
   256
178
     2
270
     2
271
     4
272
     4
273
     2
274
     4
340
21D6
275
     0
280
     0
281
     0
282
     0
283
     1
284
     7
285
     0
286
     0
287
     0
288
     1
  0
DIMSTYLE
105
233D
330
21CF
100
AcDbSymbolTableRecord
100
AcDbDimStyleTableRecord
  2
AM_ANSI$4
 70
     0
  3

  4
mm
  5

  6

  7

 40
1.0
 41
0.1
 42
0.05
 43
0.5
 44
0.1
 45
0.0
 46
0.0
 47
0.1
 48
0.1
140
0.12
141
0.0
142
0.0
143
25.4
144
1.0
145
0.0
146
0.71
147
0.06
 71
     0
 72
     0
 73
     1
 74
     1
 75
     0
 76
     0
 77
     0
 78
     7
170
     0
171
     2
172
     0
173
     0
174
     0
175
     0
176
   256
177
   256
178
     2
270
     2
271
     4
272
     4
273
     2
274
     4
340
21D6
275
     0
280
     0
281
     0
282
     0
283
     1
284
     7
285
     0
286
     0
287
     0
288
     1
  0
DIMSTYLE
105
233E
330
21CF
100
AcDbSymbolTableRecord
100
AcDbDimStyleTableRecord
  2
AM_ANSI$7
 70
     0
  3

  4
mm
  5

  6

  7

 40
1.0
 41
0.1
 42
0.05
 43
0.5
 44
0.1
 45
0.0
 46
0.0
 47
0.1
 48
0.1
140
0.24
141
0.0
142
0.0
143
25.4
144
1.0
145
0.0
146
0.71
147
0.06
 71
     0
 72
     0
 73
     1
 74
     1
 75
     0
 76
     0
 77
     0
 78
     7
170
     0
171
     2
172
     0
173
     0
174
     0
175
     0
176
   256
177
   256
178
     2
270
     2
271
     4
272
     4
273
     2
274
     4
340
21D6
275
     0
280
     0
281
     0
282
     0
283
     1
284
     7
285
     0
286
     0
287
     3
288
     0
  0
DIMSTYLE
105
233F
330
21CF
100
AcDbSymbolTableRecord
100
AcDbDimStyleTableRecord
  2
AM_ANSI$SF
 70
     0
  3

  4
mm
  5

  6

  7

 40
1.0
 41
0.1
 42
0.05
 43
0.5
 44
0.1
 45
0.0
 46
0.0
 47
0.1
 48
0.1
140
0.12
141
0.0
142
0.0
143
25.4
144
1.0
145
0.0
146
0.71
147
0.06
 71
     0
 72
     0
 73
     1
 74
     1
 75
     1
 76
     1
 77
     0
 78
     7
170
     0
171
     2
172
     0
173
     0
174
     0
175
     0
176
   256
177
   256
178
     2
270
     2
271
     4
272
     4
273
     2
274
     4
340
21D6
275
     0
280
     0
281
     0
282
     0
283
     1
284
     7
285
     0
286
     0
287
     3
288
     0
  0
DIMSTYLE
105
2344
330
21CF
100
AcDbSymbolTableRecord
100
AcDbDimStyleTableRecord
  2
AM_ANSI$SH
 70
     0
  3

  4
mm
  5

  6
GENAXEH
  7

 40
1.0
 41
0.1
 42
0.05
 43
0.5
 44
0.1
 45
0.0
 46
0.0
 47
0.1
 48
0.1
140
0.12
141
0.0
142
0.0
143
25.4
144
1.0
145
0.0
146
0.71
147
0.06
 71
     0
 72
     0
 73
     1
 74
     1
 75
     1
 76
     1
 77
     0
 78
     7
170
     0
171
     2
172
     0
173
     1
174
     0
175
     0
176
   256
177
   256
178
     2
270
     2
271
     4
272
     4
273
     2
274
     4
340
21D6
275
     0
280
     0
281
     0
282
     0
283
     1
284
     7
285
     0
286
     0
287
     3
288
     0
  0
ENDTAB
  0
TABLE
  2
BLOCK_RECORD
  5
21C6
330
0
100
AcDbSymbolTable
 70
    15
  0
BLOCK_RECORD
  5
21E3
102
{ACAD_XDICTIONARY
360
22A3
102
}
330
21C6
100
AcDbSymbolTableRecord
100
AcDbBlockTableRecord
  2
*MODEL_SPACE
  0
BLOCK_RECORD
  5
21DF
102
{ACAD_XDICTIONARY
360
22A5
102
}
330
21C6
100
AcDbSymbolTableRecord
100
AcDbBlockTableRecord
  2
*PAPER_SPACE
  0
BLOCK_RECORD
  5
2340
330
21C6
100
AcDbSymbolTableRecord
100
AcDbBlockTableRecord
  2
GENAXEH
  0
BLOCK_RECORD
  5
234F
330
21C6
100
AcDbSymbolTableRecord
100
AcDbBlockTableRecord
  2
*D1
  0
BLOCK_RECORD
  5
235B
330
21C6
100
AcDbSymbolTableRecord
100
AcDbBlockTableRecord
  2
*D2
  0
BLOCK_RECORD
  5
2367
330
21C6
100
AcDbSymbolTableRecord
100
AcDbBlockTableRecord
  2
*D3
  0
BLOCK_RECORD
  5
2390
330
21C6
100
AcDbSymbolTableRecord
100
AcDbBlockTableRecord
  2
*D4
  0
BLOCK_RECORD
  5
239C
330
21C6
100
AcDbSymbolTableRecord
100
AcDbBlockTableRecord
  2
*D5
  0
BLOCK_RECORD
  5
23A9
330
21C6
100
AcDbSymbolTableRecord
100
AcDbBlockTableRecord
  2
*D6
  0
BLOCK_RECORD
  5
23B5
330
21C6
100
AcDbSymbolTableRecord
100
AcDbBlockTableRecord
  2
*D7
  0
BLOCK_RECORD
  5
23C1
330
21C6
100
AcDbSymbolTableRecord
100
AcDbBlockTableRecord
  2
*D8
  0
BLOCK_RECORD
  5
23CD
330
21C6
100
AcDbSymbolTableRecord
100
AcDbBlockTableRecord
  2
*D9
  0
BLOCK_RECORD
  5
23D9
330
21C6
100
AcDbSymbolTableRecord
100
AcDbBlockTableRecord
  2
*D10
  0
BLOCK_RECORD
  5
23E6
330
21C6
100
AcDbSymbolTableRecord
100
AcDbBlockTableRecord
  2
*D11
  0
BLOCK_RECORD
  5
23F2
330
21C6
100
AcDbSymbolTableRecord
100
AcDbBlockTableRecord
  2
*D12
  0
BLOCK_RECORD
  5
247E
330
21C6
100
AcDbSymbolTableRecord
100
AcDbBlockTableRecord
  2
*D13
  0
BLOCK_RECORD
  5
24A2
330
21C6
100
AcDbSymbolTableRecord
100
AcDbBlockTableRecord
  2
*D14
  0
ENDTAB
  0
ENDSEC
  0
SECTION
  2
BLOCKS
  0
BLOCK
  5
2206
330
21E3
100
AcDbEntity
  8
0
100
AcDbBlockBegin
  2
*MODEL_SPACE
 70
     0
 10
0.0
 20
0.0
 30
0.0
  3
*MODEL_SPACE
  1

  0
ENDBLK
  5
2207
330
21E3
100
AcDbEntity
  8
0
100
AcDbBlockEnd
  0
BLOCK
  5
2204
330
21DF
100
AcDbEntity
 67
     1
  8
0
100
AcDbBlockBegin
  2
*PAPER_SPACE
 70
     0
 10
0.0
 20
0.0
 30
0.0
  3
*PAPER_SPACE
  1

  0
ENDBLK
  5
2205
330
21DF
100
AcDbEntity
 67
     1
  8
0
100
AcDbBlockEnd
  0
BLOCK
  5
2342
330
2340
100
AcDbEntity
  8
0
100
AcDbBlockBegin
  2
GENAXEH
 70
     0
 10
0.0
 20
0.0
 30
0.0
  3
GENAXEH
  1

  0
LINE
  5
2341
330
2340
100
AcDbEntity
  8
0
100
AcDbLine
 10
-1.0
 20
0.0
 30
0.0
 11
1.0
 21
0.0
 31
0.0
  0
ENDBLK
  5
2343
330
2340
100
AcDbEntity
  8
0
100
AcDbBlockEnd
  0
BLOCK
  5
2359
330
234F
100
AcDbEntity
  8
0
100
AcDbBlockBegin
  2
*D1
 70
     1
 10
0.0
 20
0.0
 30
0.0
  3
*D1
  1

  0
LINE
  5
2410
330
234F
100
AcDbEntity
  8
DIM
 62
     5
100
AcDbLine
 10
312.2111424331575
 20
43.17426956710238
 30
0.0
 11
350.412992062957
 21
43.17426956710238
 31
0.0
  0
LINE
  5
2411
330
234F
100
AcDbEntity
  8
DIM
 62
     5
100
AcDbLine
 10
190.2111423950575
 20
172.1242695973124
 30
0.0
 11
350.412992062957
 21
172.1242695973123
 31
0.0
  0
LINE
  5
2412
330
234F
100
AcDbEntity
  8
DIM
 62
     5
100
AcDbLine
 10
348.412992062957
 20
46.17426956710238
 30
0.0
 11
348.412992062957
 21
169.1242695973123
 31
0.0
  0
SOLID
  5
2413
330
234F
100
AcDbEntity
  8
DIM
 62
     5
100
AcDbTrace
 10
347.912992062957
 20
46.17426956710238
 30
0.0
 11
348.912992062957
 21
46.17426956710238
 31
0.0
 12
348.412992062957
 22
43.17426956710238
 32
0.0
 13
348.412992062957
 23
43.17426956710238
 33
0.0
  0
SOLID
  5
2414
330
234F
100
AcDbEntity
  8
DIM
 62
     5
100
AcDbTrace
 10
347.912992062957
 20
169.1242695973123
 30
0.0
 11
348.912992062957
 21
169.1242695973123
 31
0.0
 12
348.412992062957
 22
172.1242695973123
 32
0.0
 13
348.412992062957
 23
172.1242695973123
 33
0.0
  0
MTEXT
  5
2415
330
234F
100
AcDbEntity
  8
DIM
 62
     5
100
AcDbMText
 10
345.2622670244275
 20
107.6492695822074
 30
0.0
 40
3.0
 41
0.0
 71
     5
 72
     1
  1
\A1;{(128.95)}
 11
0.0000000000000001
 21
1.0
 31
0.0
1001
ACAD
1000
MTEXTBEGIN
1070
    73
1070
     1
1070
    44
1040
1.0
1070
    74
1070
     0
1000
MTEXTEND
  0
POINT
  5
2416
330
234F
100
AcDbEntity
  8
DEFPOINTS
 62
     0
100
AcDbPoint
 10
310.2111424331575
 20
43.17426956710238
 30
0.0
  0
POINT
  5
2417
330
234F
100
AcDbEntity
  8
DEFPOINTS
 62
     0
100
AcDbPoint
 10
188.2111423950575
 20
172.1242695973124
 30
0.0
  0
POINT
  5
2418
330
234F
100
AcDbEntity
  8
DEFPOINTS
 62
     0
100
AcDbPoint
 10
348.412992062957
 20
172.1242695973123
 30
0.0
  0
ENDBLK
  5
235A
330
234F
100
AcDbEntity
  8
0
100
AcDbBlockEnd
  0
BLOCK
  5
2365
330
235B
100
AcDbEntity
  8
0
100
AcDbBlockBegin
  2
*D2
 70
     1
 10
0.0
 20
0.0
 30
0.0
  3
*D2
  1

  0
LINE
  5
2407
330
235B
100
AcDbEntity
  8
DIM
 62
     5
100
AcDbLine
 10
312.2111424331575
 20
43.17426956710238
 30
0.0
 11
334.308440871473
 21
43.17426956710238
 31
0.0
  0
LINE
  5
2408
330
235B
100
AcDbEntity
  8
DIM
 62
     5
100
AcDbLine
 10
268.2111424184574
 20
131.3242695850723
 30
0.0
 11
334.308440871473
 21
131.3242695850723
 31
0.0
  0
LINE
  5
2409
330
235B
100
AcDbEntity
  8
DIM
 62
     5
100
AcDbLine
 10
332.308440871473
 20
46.17426956710239
 30
0.0
 11
332.308440871473
 21
128.3242695850723
 31
0.0
  0
SOLID
  5
240A
330
235B
100
AcDbEntity
  8
DIM
 62
     5
100
AcDbTrace
 10
331.808440871473
 20
46.17426956710239
 30
0.0
 11
332.808440871473
 21
46.17426956710239
 31
0.0
 12
332.308440871473
 22
43.17426956710238
 32
0.0
 13
332.308440871473
 23
43.17426956710238
 33
0.0
  0
SOLID
  5
240B
330
235B
100
AcDbEntity
  8
DIM
 62
     5
100
AcDbTrace
 10
331.808440871473
 20
128.3242695850723
 30
0.0
 11
332.808440871473
 21
128.3242695850723
 31
0.0
 12
332.308440871473
 22
131.3242695850723
 32
0.0
 13
332.308440871473
 23
131.3242695850723
 33
0.0
  0
MTEXT
  5
240C
330
235B
100
AcDbEntity
  8
DIM
 62
     5
100
AcDbMText
 10
329.158440871473
 20
87.2492695760874
 30
0.0
 40
3.0
 41
0.0
 71
     5
 72
     1
  1
\A1;{(88.15)}
 11
0.0000000000000001
 21
1.0
 31
0.0
1001
ACAD
1000
MTEXTBEGIN
1070
    73
1070
     1
1070
    44
1040
1.0
1070
    74
1070
     0
1000
MTEXTEND
  0
POINT
  5
240D
330
235B
100
AcDbEntity
  8
DEFPOINTS
 62
     0
100
AcDbPoint
 10
310.2111424331575
 20
43.17426956710238
 30
0.0
  0
POINT
  5
240E
330
235B
100
AcDbEntity
  8
DEFPOINTS
 62
     0
100
AcDbPoint
 10
266.2111424184574
 20
131.3242695850723
 30
0.0
  0
POINT
  5
240F
330
235B
100
AcDbEntity
  8
DEFPOINTS
 62
     0
100
AcDbPoint
 10
332.308440871473
 20
131.3242695850723
 30
0.0
  0
ENDBLK
  5
2366
330
235B
100
AcDbEntity
  8
0
100
AcDbBlockEnd
  0
BLOCK
  5
2372
330
2367
100
AcDbEntity
  8
0
100
AcDbBlockBegin
  2
*D3
 70
     1
 10
0.0
 20
0.0
 30
0.0
  3
*D3
  1

  0
LINE
  5
2463
330
2367
100
AcDbEntity
  8
DIM
 62
     5
100
AcDbLine
 10
312.2111424331575
 20
43.17426956710238
 30
0.0
 11
326.4862296582853
 21
43.17426956710238
 31
0.0
  0
LINE
  5
2464
330
2367
100
AcDbEntity
  8
DIM
 62
     5
100
AcDbLine
 10
312.2111424331575
 20
47.67426956845236
 30
0.0
 11
326.4862296582853
 21
47.67426956845236
 31
0.0
  0
LINE
  5
2465
330
2367
100
AcDbEntity
  8
DIM
 62
     5
100
AcDbLine
 10
324.4862296582853
 20
40.17426956710238
 30
0.0
 11
324.4862296582853
 21
37.17426956710238
 31
0.0
  0
LINE
  5
2466
330
2367
100
AcDbEntity
  8
DIM
 62
     5
100
AcDbLine
 10
324.4862296582853
 20
50.67426956845236
 30
0.0
 11
324.4862296582853
 21
53.67426956845235
 31
0.0
  0
MTEXT
  5
2467
330
2367
100
AcDbEntity
  8
DIM
 62
     5
100
AcDbMText
 10
318.504539427223
 20
37.51698481807068
 30
0.0
 40
3.0
 41
0.0
 71
     5
 72
     1
  1
\A1;4.5
 11
0.0000000000000001
 21
1.0
 31
0.0
1001
ACAD
1000
MTEXTBEGIN
1070
    73
1070
     1
1070
    44
1040
1.0
1070
    74
1070
     0
1000
MTEXTEND
  0
SOLID
  5
2468
330
2367
100
AcDbEntity
  8
DIM
 62
     5
100
AcDbTrace
 10
323.9862296582852
 20
40.17426956710238
 30
0.0
 11
324.9862296582853
 21
40.17426956710238
 31
0.0
 12
324.4862296582853
 22
43.17426956710238
 32
0.0
 13
324.4862296582853
 23
43.17426956710238
 33
0.0
  0
SOLID
  5
2469
330
2367
100
AcDbEntity
  8
DIM
 62
     5
100
AcDbTrace
 10
323.9862296582852
 20
50.67426956845236
 30
0.0
 11
324.9862296582853
 21
50.67426956845236
 31
0.0
 12
324.4862296582853
 22
47.67426956845236
 32
0.0
 13
324.4862296582853
 23
47.67426956845236
 33
0.0
  0
POINT
  5
246A
330
2367
100
AcDbEntity
  8
DEFPOINTS
 62
     0
100
AcDbPoint
 10
310.2111424331575
 20
43.17426956710238
 30
0.0
  0
POINT
  5
246B
330
2367
100
AcDbEntity
  8
DEFPOINTS
 62
     0
100
AcDbPoint
 10
310.2111424331575
 20
47.67426956845236
 30
0.0
  0
POINT
  5
246C
330
2367
100
AcDbEntity
  8
DEFPOINTS
 62
     0
100
AcDbPoint
 10
324.4862296582853
 20
47.67426956845236
 30
0.0
  0
ENDBLK
  5
2373
330
2367
100
AcDbEntity
  8
0
100
AcDbBlockEnd
  0
BLOCK
  5
239A
330
2390
100
AcDbEntity
  8
0
100
AcDbBlockBegin
  2
*D4
 70
     1
 10
0.0
 20
0.0
 30
0.0
  3
*D4
  1

  0
LINE
  5
23FE
330
2390
100
AcDbEntity
  8
DIM
 62
     5
100
AcDbLine
 10
197.5111423972472
 20
133.5242695857324
 30
0.0
 11
314.0627174702067
 21
133.5242695857324
 31
0.0
  0
LINE
  5
23FF
330
2390
100
AcDbEntity
  8
DIM
 62
     5
100
AcDbLine
 10
190.2111423950575
 20
172.1242695973124
 30
0.0
 11
314.0627174702067
 21
172.1242695973123
 31
0.0
  0
LINE
  5
2400
330
2390
100
AcDbEntity
  8
DIM
 62
     5
100
AcDbLine
 10
312.0627174702067
 20
136.5242695857324
 30
0.0
 11
312.0627174702067
 21
169.1242695973123
 31
0.0
  0
SOLID
  5
2401
330
2390
100
AcDbEntity
  8
DIM
 62
     5
100
AcDbTrace
 10
311.5627174702067
 20
136.5242695857324
 30
0.0
 11
312.5627174702067
 21
136.5242695857324
 31
0.0
 12
312.0627174702067
 22
133.5242695857324
 32
0.0
 13
312.0627174702067
 23
133.5242695857324
 33
0.0
  0
SOLID
  5
2402
330
2390
100
AcDbEntity
  8
DIM
 62
     5
100
AcDbTrace
 10
311.5627174702067
 20
169.1242695973123
 30
0.0
 11
312.5627174702067
 21
169.1242695973123
 31
0.0
 12
312.0627174702067
 22
172.1242695973123
 32
0.0
 13
312.0627174702067
 23
172.1242695973123
 33
0.0
  0
MTEXT
  5
2403
330
2390
100
AcDbEntity
  8
DIM
 62
     5
100
AcDbMText
 10
309.0627174702067
 20
152.8242695915224
 30
0.0
 40
3.0
 41
0.0
 71
     5
 72
     1
  1
\A1;38.6
 11
0.0000000000000001
 21
1.0
 31
0.0
1001
ACAD
1000
MTEXTBEGIN
1070
    73
1070
     1
1070
    44
1040
1.0
1070
    74
1070
     0
1000
MTEXTEND
  0
POINT
  5
2404
330
2390
100
AcDbEntity
  8
DEFPOINTS
 62
     0
100
AcDbPoint
 10
195.5111423972472
 20
133.5242695857324
 30
0.0
  0
POINT
  5
2405
330
2390
100
AcDbEntity
  8
DEFPOINTS
 62
     0
100
AcDbPoint
 10
188.2111423950575
 20
172.1242695973124
 30
0.0
  0
POINT
  5
2406
330
2390
100
AcDbEntity
  8
DEFPOINTS
 62
     0
100
AcDbPoint
 10
312.0627174702067
 20
172.1242695973123
 30
0.0
  0
ENDBLK
  5
239B
330
2390
100
AcDbEntity
  8
0
100
AcDbBlockEnd
  0
BLOCK
  5
23A7
330
239C
100
AcDbEntity
  8
0
100
AcDbBlockBegin
  2
*D5
 70
     1
 10
0.0
 20
0.0
 30
0.0
  3
*D5
  1

  0
LINE
  5
2447
330
239C
100
AcDbEntity
  8
DIM
 62
     5
100
AcDbLine
 10
190.2111423950575
 20
172.1242695973124
 30
0.0
 11
208.7938264777146
 21
172.1242695973123
 31
0.0
  0
LINE
  5
2448
330
239C
100
AcDbEntity
  8
DIM
 62
     5
100
AcDbLine
 10
182.7111423928075
 20
167.1242695958124
 30
0.0
 11
208.7938264777146
 21
167.1242695958123
 31
0.0
  0
LINE
  5
2449
330
239C
100
AcDbEntity
  8
DIM
 62
     5
100
AcDbLine
 10
206.7938264777146
 20
175.1242695973123
 30
0.0
 11
206.7938264777146
 21
178.1242695973123
 31
0.0
  0
LINE
  5
244A
330
239C
100
AcDbEntity
  8
DIM
 62
     5
100
AcDbLine
 10
206.7938264777146
 20
164.1242695958123
 30
0.0
 11
206.7938264777146
 21
161.1242695958123
 31
0.0
  0
MTEXT
  5
244B
330
239C
100
AcDbEntity
  8
DIM
 62
     5
100
AcDbMText
 10
204.1454683205251
 20
176.2423102797473
 30
0.0
 40
3.0
 41
0.0
 71
     5
 72
     1
  1
\A1;5
 11
0.0000000000000001
 21
1.0
 31
0.0
1001
ACAD
1000
MTEXTBEGIN
1070
    73
1070
     1
1070
    44
1040
1.0
1070
    74
1070
     0
1000
MTEXTEND
  0
SOLID
  5
244C
330
239C
100
AcDbEntity
  8
DIM
 62
     5
100
AcDbTrace
 10
206.2938264777146
 20
175.1242695973123
 30
0.0
 11
207.2938264777146
 21
175.1242695973123
 31
0.0
 12
206.7938264777146
 22
172.1242695973123
 32
0.0
 13
206.7938264777146
 23
172.1242695973123
 33
0.0
  0
SOLID
  5
244D
330
239C
100
AcDbEntity
  8
DIM
 62
     5
100
AcDbTrace
 10
206.2938264777146
 20
164.1242695958123
 30
0.0
 11
207.2938264777146
 21
164.1242695958123
 31
0.0
 12
206.7938264777146
 22
167.1242695958123
 32
0.0
 13
206.7938264777146
 23
167.1242695958123
 33
0.0
  0
POINT
  5
244E
330
239C
100
AcDbEntity
  8
DEFPOINTS
 62
     0
100
AcDbPoint
 10
188.2111423950575
 20
172.1242695973124
 30
0.0
  0
POINT
  5
244F
330
239C
100
AcDbEntity
  8
DEFPOINTS
 62
     0
100
AcDbPoint
 10
180.7111423928075
 20
167.1242695958124
 30
0.0
  0
POINT
  5
2450
330
239C
100
AcDbEntity
  8
DEFPOINTS
 62
     0
100
AcDbPoint
 10
206.7938264777146
 20
167.1242695958123
 30
0.0
  0
ENDBLK
  5
23A8
330
239C
100
AcDbEntity
  8
0
100
AcDbBlockEnd
  0
BLOCK
  5
23B3
330
23A9
100
AcDbEntity
  8
0
100
AcDbBlockBegin
  2
*D6
 70
     1
 10
0.0
 20
0.0
 30
0.0
  3
*D6
  1

  0
LINE
  5
2419
330
23A9
100
AcDbEntity
  8
DIM
 62
     5
100
AcDbLine
 10
195.7111423973075
 20
135.3242695856721
 30
0.0
 11
195.7111423973075
 21
188.9424937470519
 31
0.0
  0
LINE
  5
241A
330
23A9
100
AcDbEntity
  8
DIM
 62
     5
100
AcDbLine
 10
165.7111423883074
 20
135.3242695856723
 30
0.0
 11
165.7111423883074
 21
188.9424937470519
 31
0.0
  0
LINE
  5
241B
330
23A9
100
AcDbEntity
  8
DIM
 62
     5
100
AcDbLine
 10
192.7111423973075
 20
186.9424937470519
 30
0.0
 11
168.7111423883074
 21
186.9424937470519
 31
0.0
  0
SOLID
  5
241C
330
23A9
100
AcDbEntity
  8
DIM
 62
     5
100
AcDbTrace
 10
192.7111423973075
 20
187.4424937470519
 30
0.0
 11
192.7111423973075
 21
186.4424937470518
 31
0.0
 12
195.7111423973075
 22
186.9424937470519
 32
0.0
 13
195.7111423973075
 23
186.9424937470519
 33
0.0
  0
SOLID
  5
241D
330
23A9
100
AcDbEntity
  8
DIM
 62
     5
100
AcDbTrace
 10
168.7111423883074
 20
187.4424937470519
 30
0.0
 11
168.7111423883074
 21
186.4424937470518
 31
0.0
 12
165.7111423883074
 22
186.9424937470519
 32
0.0
 13
165.7111423883074
 23
186.9424937470519
 33
0.0
  0
MTEXT
  5
241E
330
23A9
100
AcDbEntity
  8
DIM
 62
     5
100
AcDbMText
 10
180.7111423928075
 20
189.9424937470519
 30
0.0
 40
3.0
 41
0.0
 71
     5
 72
     1
  1
\A1;{%%c30}
1001
ACAD
1000
MTEXTBEGIN
1070
    73
1070
     1
1070
    44
1040
1.0
1070
    74
1070
     0
1000
MTEXTEND
  0
POINT
  5
241F
330
23A9
100
AcDbEntity
  8
DEFPOINTS
 62
     0
100
AcDbPoint
 10
195.7111423973075
 20
133.3242695856721
 30
0.0
  0
POINT
  5
2420
330
23A9
100
AcDbEntity
  8
DEFPOINTS
 62
     0
100
AcDbPoint
 10
165.7111423883074
 20
133.3242695856723
 30
0.0
  0
POINT
  5
2421
330
23A9
100
AcDbEntity
  8
DEFPOINTS
 62
     0
100
AcDbPoint
 10
165.7111423883074
 20
186.9424937470519
 30
0.0
  0
ENDBLK
  5
23B4
330
23A9
100
AcDbEntity
  8
0
100
AcDbBlockEnd
  0
BLOCK
  5
23BF
330
23B5
100
AcDbEntity
  8
0
100
AcDbBlockBegin
  2
*D7
 70
     1
 10
0.0
 20
0.0
 30
0.0
  3
*D7
  1

  0
LINE
  5
2451
330
23B5
100
AcDbEntity
  8
DIM
 62
     5
100
AcDbLine
 10
172.2111423902575
 20
173.1242695970124
 30
0.0
 11
172.2111423902575
 21
181.8259820810482
 31
0.0
  0
LINE
  5
2452
330
23B5
100
AcDbEntity
  8
DIM
 62
     5
100
AcDbLine
 10
189.2111423953575
 20
173.1242695970124
 30
0.0
 11
189.2111423953575
 21
181.8259820810482
 31
0.0
  0
LINE
  5
2453
330
23B5
100
AcDbEntity
  8
DIM
 62
     5
100
AcDbLine
 10
175.2111423902575
 20
179.8259820810482
 30
0.0
 11
186.2111423953575
 21
179.8259820810482
 31
0.0
  0
SOLID
  5
2454
330
23B5
100
AcDbEntity
  8
DIM
 62
     5
100
AcDbTrace
 10
175.2111423902575
 20
180.3259820810482
 30
0.0
 11
175.2111423902575
 21
179.3259820810482
 31
0.0
 12
172.2111423902575
 22
179.8259820810482
 32
0.0
 13
172.2111423902575
 23
179.8259820810482
 33
0.0
  0
SOLID
  5
2455
330
23B5
100
AcDbEntity
  8
DIM
 62
     5
100
AcDbTrace
 10
186.2111423953575
 20
180.3259820810482
 30
0.0
 11
186.2111423953575
 21
179.3259820810482
 31
0.0
 12
189.2111423953575
 22
179.8259820810482
 32
0.0
 13
189.2111423953575
 23
179.8259820810482
 33
0.0
  0
MTEXT
  5
2456
330
23B5
100
AcDbEntity
  8
DIM
 62
     5
100
AcDbMText
 10
180.7111423928075
 20
182.8259820810482
 30
0.0
 40
3.0
 41
0.0
 71
     5
 72
     1
  1
\A1;{%%c17}
1001
ACAD
1000
MTEXTBEGIN
1070
    73
1070
     1
1070
    44
1040
1.0
1070
    74
1070
     0
1000
MTEXTEND
  0
POINT
  5
2457
330
23B5
100
AcDbEntity
  8
DEFPOINTS
 62
     0
100
AcDbPoint
 10
172.2111423902575
 20
171.1242695970124
 30
0.0
  0
POINT
  5
2458
330
23B5
100
AcDbEntity
  8
DEFPOINTS
 62
     0
100
AcDbPoint
 10
189.2111423953575
 20
171.1242695970124
 30
0.0
  0
POINT
  5
2459
330
23B5
100
AcDbEntity
  8
DEFPOINTS
 62
     0
100
AcDbPoint
 10
189.2111423953575
 20
179.8259820810482
 30
0.0
  0
ENDBLK
  5
23C0
330
23B5
100
AcDbEntity
  8
0
100
AcDbBlockEnd
  0
BLOCK
  5
23CB
330
23C1
100
AcDbEntity
  8
0
100
AcDbBlockBegin
  2
*D8
 70
     1
 10
0.0
 20
0.0
 30
0.0
  3
*D8
  1

  0
LINE
  5
242B
330
23C1
100
AcDbEntity
  8
DIM
 62
     5
100
AcDbLine
 10
300.2111424286575
 20
37.52722800189013
 30
0.0
 11
300.2111424286575
 21
21.05463234055082
 31
0.0
  0
LINE
  5
242C
330
23C1
100
AcDbEntity
  8
DIM
 62
     5
100
AcDbLine
 10
61.21114238320745
 20
37.77722801044012
 30
0.0
 11
61.21114238320745
 21
21.05463234055082
 31
0.0
  0
LINE
  5
242D
330
23C1
100
AcDbEntity
  8
DIM
 62
     5
100
AcDbLine
 10
297.2111424286575
 20
23.05463234055082
 30
0.0
 11
64.21114238320746
 21
23.05463234055082
 31
0.0
  0
SOLID
  5
242E
330
23C1
100
AcDbEntity
  8
DIM
 62
     5
100
AcDbTrace
 10
297.2111424286575
 20
23.55463234055082
 30
0.0
 11
297.2111424286575
 21
22.55463234055082
 31
0.0
 12
300.2111424286575
 22
23.05463234055082
 32
0.0
 13
300.2111424286575
 23
23.05463234055082
 33
0.0
  0
SOLID
  5
242F
330
23C1
100
AcDbEntity
  8
DIM
 62
     5
100
AcDbTrace
 10
64.21114238320746
 20
23.55463234055082
 30
0.0
 11
64.21114238320746
 21
22.55463234055082
 31
0.0
 12
61.21114238320745
 22
23.05463234055082
 32
0.0
 13
61.21114238320745
 23
23.05463234055082
 33
0.0
  0
MTEXT
  5
2430
330
23C1
100
AcDbEntity
  8
DIM
 62
     5
100
AcDbMText
 10
180.7111424059324
 20
26.05492761614137
 30
0.0
 40
3.0
 41
0.0
 71
     5
 72
     1
  1
\A1;239
1001
ACAD
1000
MTEXTBEGIN
1070
    73
1070
     1
1070
    44
1040
1.0
1070
    74
1070
     0
1000
MTEXTEND
  0
POINT
  5
2431
330
23C1
100
AcDbEntity
  8
DEFPOINTS
 62
     0
100
AcDbPoint
 10
300.2111424286575
 20
39.52722800189013
 30
0.0
  0
POINT
  5
2432
330
23C1
100
AcDbEntity
  8
DEFPOINTS
 62
     0
100
AcDbPoint
 10
61.21114238320745
 20
39.77722801044011
 30
0.0
  0
POINT
  5
2433
330
23C1
100
AcDbEntity
  8
DEFPOINTS
 62
     0
100
AcDbPoint
 10
61.21114238320745
 20
23.05463234055082
 30
0.0
  0
ENDBLK
  5
23CC
330
23C1
100
AcDbEntity
  8
0
100
AcDbBlockEnd
  0
BLOCK
  5
23D7
330
23CD
100
AcDbEntity
  8
0
100
AcDbBlockBegin
  2
*D9
 70
     1
 10
0.0
 20
0.0
 30
0.0
  3
*D9
  1

  0
LINE
  5
2422
330
23CD
100
AcDbEntity
  8
DIM
 62
     5
100
AcDbLine
 10
268.2111424190575
 20
51.81030853961442
 30
0.0
 11
268.2111424190575
 21
31.1259528300983
 31
0.0
  0
LINE
  5
2423
330
23CD
100
AcDbEntity
  8
DIM
 62
     5
100
AcDbLine
 10
93.21114239280742
 20
51.81030853961437
 30
0.0
 11
93.21114239280742
 21
31.1259528300983
 31
0.0
  0
LINE
  5
2424
330
23CD
100
AcDbEntity
  8
DIM
 62
     5
100
AcDbLine
 10
265.2111424190575
 20
33.1259528300983
 30
0.0
 11
96.21114239280743
 21
33.1259528300983
 31
0.0
  0
SOLID
  5
2425
330
23CD
100
AcDbEntity
  8
DIM
 62
     5
100
AcDbTrace
 10
265.2111424190575
 20
33.6259528300983
 30
0.0
 11
265.2111424190575
 21
32.62595283009829
 31
0.0
 12
268.2111424190575
 22
33.1259528300983
 32
0.0
 13
268.2111424190575
 23
33.1259528300983
 33
0.0
  0
SOLID
  5
2426
330
23CD
100
AcDbEntity
  8
DIM
 62
     5
100
AcDbTrace
 10
96.21114239280743
 20
33.6259528300983
 30
0.0
 11
96.21114239280743
 21
32.62595283009829
 31
0.0
 12
93.21114239280742
 22
33.1259528300983
 32
0.0
 13
93.21114239280742
 23
33.1259528300983
 33
0.0
  0
MTEXT
  5
2427
330
23CD
100
AcDbEntity
  8
DIM
 62
     5
100
AcDbMText
 10
180.7111424059324
 20
36.1259528300983
 30
0.0
 40
3.0
 41
0.0
 71
     5
 72
     1
  1
\A1;175
1001
ACAD
1000
MTEXTBEGIN
1070
    73
1070
     1
1070
    44
1040
1.0
1070
    74
1070
     0
1000
MTEXTEND
  0
POINT
  5
2428
330
23CD
100
AcDbEntity
  8
DEFPOINTS
 62
     0
100
AcDbPoint
 10
268.2111424190575
 20
53.81030853961442
 30
0.0
  0
POINT
  5
2429
330
23CD
100
AcDbEntity
  8
DEFPOINTS
 62
     0
100
AcDbPoint
 10
93.21114239280742
 20
53.81030853961437
 30
0.0
  0
POINT
  5
242A
330
23CD
100
AcDbEntity
  8
DEFPOINTS
 62
     0
100
AcDbPoint
 10
93.21114239280742
 20
33.1259528300983
 30
0.0
  0
ENDBLK
  5
23D8
330
23CD
100
AcDbEntity
  8
0
100
AcDbBlockEnd
  0
BLOCK
  5
23E4
330
23D9
100
AcDbEntity
  8
0
100
AcDbBlockBegin
  2
*D10
 70
     1
 10
0.0
 20
0.0
 30
0.0
  3
*D10
  1

  0
LINE
  5
2434
330
23D9
100
AcDbEntity
  8
DIM
 62
     5
100
AcDbLine
 10
268.2111424184574
 20
131.3242695850723
 30
0.0
 11
296.1076527528055
 21
131.3242695850723
 31
0.0
  0
LINE
  5
2435
330
23D9
100
AcDbEntity
  8
DIM
 62
     5
100
AcDbLine
 10
197.5111423972472
 20
133.5242695857324
 30
0.0
 11
296.1076527528055
 21
133.5242695857324
 31
0.0
  0
LINE
  5
2436
330
23D9
100
AcDbEntity
  8
DIM
 62
     5
100
AcDbLine
 10
294.1076527528055
 20
128.3242695850723
 30
0.0
 11
294.1076527528054
 21
125.3242695850723
 31
0.0
  0
LINE
  5
2437
330
23D9
100
AcDbEntity
  8
DIM
 62
     5
100
AcDbLine
 10
294.1076527528055
 20
136.5242695857324
 30
0.0
 11
294.1076527528055
 21
139.5242695857324
 31
0.0
  0
MTEXT
  5
2438
330
23D9
100
AcDbEntity
  8
DIM
 62
     5
100
AcDbMText
 10
290.2613182986231
 20
137.7610917800943
 30
0.0
 40
3.0
 41
0.0
 71
     5
 72
     1
  1
\A1;2.2
 11
0.0000000000000001
 21
1.0
 31
0.0
1001
ACAD
1000
MTEXTBEGIN
1070
    73
1070
     1
1070
    44
1040
1.0
1070
    74
1070
     0
1000
MTEXTEND
  0
SOLID
  5
2439
330
23D9
100
AcDbEntity
  8
DIM
 62
     5
100
AcDbTrace
 10
293.6076527528054
 20
128.3242695850723
 30
0.0
 11
294.6076527528055
 21
128.3242695850723
 31
0.0
 12
294.1076527528055
 22
131.3242695850723
 32
0.0
 13
294.1076527528055
 23
131.3242695850723
 33
0.0
  0
SOLID
  5
243A
330
23D9
100
AcDbEntity
  8
DIM
 62
     5
100
AcDbTrace
 10
293.6076527528054
 20
136.5242695857324
 30
0.0
 11
294.6076527528055
 21
136.5242695857324
 31
0.0
 12
294.1076527528055
 22
133.5242695857324
 32
0.0
 13
294.1076527528055
 23
133.5242695857324
 33
0.0
  0
POINT
  5
243B
330
23D9
100
AcDbEntity
  8
DEFPOINTS
 62
     0
100
AcDbPoint
 10
266.2111424184574
 20
131.3242695850723
 30
0.0
  0
POINT
  5
243C
330
23D9
100
AcDbEntity
  8
DEFPOINTS
 62
     0
100
AcDbPoint
 10
195.5111423972472
 20
133.5242695857324
 30
0.0
  0
POINT
  5
243D
330
23D9
100
AcDbEntity
  8
DEFPOINTS
 62
     0
100
AcDbPoint
 10
294.1076527528055
 20
133.5242695857324
 30
0.0
  0
ENDBLK
  5
23E5
330
23D9
100
AcDbEntity
  8
0
100
AcDbBlockEnd
  0
BLOCK
  5
23F0
330
23E6
100
AcDbEntity
  8
0
100
AcDbBlockBegin
  2
*D11
 70
     1
 10
0.0
 20
0.0
 30
0.0
  3
*D11
  1

  0
LINE
  5
243E
330
23E6
100
AcDbEntity
  8
DIM
 62
     5
100
AcDbLine
 10
182.7111423928075
 20
167.1242695958124
 30
0.0
 11
208.7938264777146
 21
167.1242695958123
 31
0.0
  0
LINE
  5
243F
330
23E6
100
AcDbEntity
  8
DIM
 62
     5
100
AcDbLine
 10
182.7111423928075
 20
137.1242695868124
 30
0.0
 11
208.7938264777146
 21
137.1242695868124
 31
0.0
  0
LINE
  5
2440
330
23E6
100
AcDbEntity
  8
DIM
 62
     5
100
AcDbLine
 10
206.7938264777146
 20
164.1242695958123
 30
0.0
 11
206.7938264777146
 21
140.1242695868124
 31
0.0
  0
SOLID
  5
2441
330
23E6
100
AcDbEntity
  8
DIM
 62
     5
100
AcDbTrace
 10
206.2938264777146
 20
164.1242695958123
 30
0.0
 11
207.2938264777146
 21
164.1242695958123
 31
0.0
 12
206.7938264777146
 22
167.1242695958123
 32
0.0
 13
206.7938264777146
 23
167.1242695958123
 33
0.0
  0
SOLID
  5
2442
330
23E6
100
AcDbEntity
  8
DIM
 62
     5
100
AcDbTrace
 10
206.2938264777146
 20
140.1242695868124
 30
0.0
 11
207.2938264777146
 21
140.1242695868124
 31
0.0
 12
206.7938264777146
 22
137.1242695868124
 32
0.0
 13
206.7938264777146
 23
137.1242695868124
 33
0.0
  0
MTEXT
  5
2443
330
23E6
100
AcDbEntity
  8
DIM
 62
     5
100
AcDbMText
 10
203.7938264777146
 20
152.1242695913125
 30
0.0
 40
3.0
 41
0.0
 71
     5
 72
     1
  1
\A1;30
 11
0.0000000000000001
 21
1.0
 31
0.0
1001
ACAD
1000
MTEXTBEGIN
1070
    73
1070
     1
1070
    44
1040
1.0
1070
    74
1070
     0
1000
MTEXTEND
  0
POINT
  5
2444
330
23E6
100
AcDbEntity
  8
DEFPOINTS
 62
     0
100
AcDbPoint
 10
180.7111423928075
 20
167.1242695958124
 30
0.0
  0
POINT
  5
2445
330
23E6
100
AcDbEntity
  8
DEFPOINTS
 62
     0
100
AcDbPoint
 10
180.7111423928075
 20
137.1242695868124
 30
0.0
  0
POINT
  5
2446
330
23E6
100
AcDbEntity
  8
DEFPOINTS
 62
     0
100
AcDbPoint
 10
206.7938264777146
 20
137.1242695868124
 30
0.0
  0
ENDBLK
  5
23F1
330
23E6
100
AcDbEntity
  8
0
100
AcDbBlockEnd
  0
BLOCK
  5
23FC
330
23F2
100
AcDbEntity
  8
0
100
AcDbBlockBegin
  2
*D12
 70
     1
 10
0.0
 20
0.0
 30
0.0
  3
*D12
  1

  0
LINE
  5
245A
330
23F2
100
AcDbEntity
  8
DIM
 62
     5
100
AcDbLine
 10
210.7111423928075
 20
292.5671156583747
 30
0.0
 11
210.7111423928075
 21
307.3198509369724
 31
0.0
  0
LINE
  5
245B
330
23F2
100
AcDbEntity
  8
DIM
 62
     5
100
AcDbLine
 10
150.7111423928075
 20
291.8171156583747
 30
0.0
 11
150.7111423928075
 21
307.3198509369724
 31
0.0
  0
LINE
  5
245C
330
23F2
100
AcDbEntity
  8
DIM
 62
     5
100
AcDbLine
 10
207.7111423928075
 20
305.3198509369724
 30
0.0
 11
153.7111423928075
 21
305.3198509369724
 31
0.0
  0
SOLID
  5
245D
330
23F2
100
AcDbEntity
  8
DIM
 62
     5
100
AcDbTrace
 10
207.7111423928075
 20
305.8198509369724
 30
0.0
 11
207.7111423928075
 21
304.8198509369724
 31
0.0
 12
210.7111423928075
 22
305.3198509369724
 32
0.0
 13
210.7111423928075
 23
305.3198509369724
 33
0.0
  0
SOLID
  5
245E
330
23F2
100
AcDbEntity
  8
DIM
 62
     5
100
AcDbTrace
 10
153.7111423928075
 20
305.8198509369724
 30
0.0
 11
153.7111423928075
 21
304.8198509369724
 31
0.0
 12
150.7111423928075
 22
305.3198509369724
 32
0.0
 13
150.7111423928075
 23
305.3198509369724
 33
0.0
  0
MTEXT
  5
245F
330
23F2
100
AcDbEntity
  8
DIM
 62
     5
100
AcDbMText
 10
180.7111423928075
 20
308.3198509369724
 30
0.0
 40
3.0
 41
0.0
 71
     5
 72
     1
  1
\A1;60
1001
ACAD
1000
MTEXTBEGIN
1070
    73
1070
     1
1070
    44
1040
1.0
1070
    74
1070
     0
1000
MTEXTEND
  0
POINT
  5
2460
330
23F2
100
AcDbEntity
  8
DEFPOINTS
 62
     0
100
AcDbPoint
 10
210.7111423928075
 20
290.5671156583747
 30
0.0
  0
POINT
  5
2461
330
23F2
100
AcDbEntity
  8
DEFPOINTS
 62
     0
100
AcDbPoint
 10
150.7111423928075
 20
289.8171156583747
 30
0.0
  0
POINT
  5
2462
330
23F2
100
AcDbEntity
  8
DEFPOINTS
 62
     0
100
AcDbPoint
 10
150.7111423928075
 20
305.3198509369724
 30
0.0
  0
ENDBLK
  5
23FD
330
23F2
100
AcDbEntity
  8
0
100
AcDbBlockEnd
  0
BLOCK
  5
2488
330
247E
100
AcDbEntity
  8
0
100
AcDbBlockBegin
  2
*D13
 70
     1
 10
0.0
 20
0.0
 30
0.0
  3
*D13
  1

  0
LINE
  5
24C3
330
247E
100
AcDbEntity
  8
DIM
 62
     5
100
AcDbLine
 10
52.68404235289938
 20
291.5671156688746
 30
0.0
 11
52.68404235289938
 21
319.7189712383663
 31
0.0
  0
LINE
  5
24C4
330
247E
100
AcDbEntity
  8
DIM
 62
     5
100
AcDbLine
 10
311.6840424335993
 20
291.5671156688746
 30
0.0
 11
311.6840424335993
 21
319.7189712383663
 31
0.0
  0
LINE
  5
24C5
330
247E
100
AcDbEntity
  8
DIM
 62
     5
100
AcDbLine
 10
55.68404235289938
 20
317.7189712383662
 30
0.0
 11
308.6840424335993
 21
317.7189712383662
 31
0.0
  0
SOLID
  5
24C6
330
247E
100
AcDbEntity
  8
DIM
 62
     5
100
AcDbTrace
 10
55.68404235289938
 20
318.2189712383662
 30
0.0
 11
55.68404235289938
 21
317.2189712383663
 31
0.0
 12
52.68404235289938
 22
317.7189712383662
 32
0.0
 13
52.68404235289938
 23
317.7189712383662
 33
0.0
  0
SOLID
  5
24C7
330
247E
100
AcDbEntity
  8
DIM
 62
     5
100
AcDbTrace
 10
308.6840424335993
 20
318.2189712383662
 30
0.0
 11
308.6840424335993
 21
317.2189712383663
 31
0.0
 12
311.6840424335993
 22
317.7189712383662
 32
0.0
 13
311.6840424335993
 23
317.7189712383662
 33
0.0
  0
MTEXT
  5
24C8
330
247E
100
AcDbEntity
  8
DIM
 62
     5
100
AcDbMText
 10
182.1840423932493
 20
320.7192665139568
 30
0.0
 40
3.0
 41
0.0
 71
     5
 72
     1
  1
\A1;259
1001
ACAD
1000
MTEXTBEGIN
1070
    73
1070
     1
1070
    44
1040
1.0
1070
    74
1070
     0
1000
MTEXTEND
  0
POINT
  5
24C9
330
247E
100
AcDbEntity
  8
DEFPOINTS
 62
     0
100
AcDbPoint
 10
52.68404235289938
 20
289.5671156688747
 30
0.0
  0
POINT
  5
24CA
330
247E
100
AcDbEntity
  8
DEFPOINTS
 62
     0
100
AcDbPoint
 10
311.6840424335993
 20
289.5671156688747
 30
0.0
  0
POINT
  5
24CB
330
247E
100
AcDbEntity
  8
DEFPOINTS
 62
     0
100
AcDbPoint
 10
311.6840424335993
 20
317.7189712383662
 30
0.0
  0
ENDBLK
  5
2489
330
247E
100
AcDbEntity
  8
0
100
AcDbBlockEnd
  0
BLOCK
  5
24AC
330
24A2
100
AcDbEntity
  8
0
100
AcDbBlockBegin
  2
*D14
 70
     1
 10
0.0
 20
0.0
 30
0.0
  3
*D14
  1

  0
LINE
  5
24AE
330
24A2
100
AcDbEntity
  8
AM_5
 62
     5
100
AcDbLine
 10
310.6840424326993
 20
292.5671156697747
 30
0.0
 11
339.9633398624148
 21
292.5671156697747
 31
0.0
  0
LINE
  5
24AF
330
24A2
100
AcDbEntity
  8
AM_5
 62
     5
100
AcDbLine
 10
310.6840424326993
 20
216.5671156469747
 30
0.0
 11
339.9633398624148
 21
216.5671156469747
 31
0.0
  0
LINE
  5
24B0
330
24A2
100
AcDbEntity
  8
AM_5
 62
     5
100
AcDbLine
 10
337.9633398624148
 20
289.5671156697746
 30
0.0
 11
337.9633398624148
 21
219.5671156469747
 31
0.0
  0
SOLID
  5
24B1
330
24A2
100
AcDbEntity
  8
AM_5
 62
     5
100
AcDbTrace
 10
337.4633398624148
 20
289.5671156697746
 30
0.0
 11
338.4633398624148
 21
289.5671156697746
 31
0.0
 12
337.9633398624148
 22
292.5671156697747
 32
0.0
 13
337.9633398624148
 23
292.5671156697747
 33
0.0
  0
SOLID
  5
24B2
330
24A2
100
AcDbEntity
  8
AM_5
 62
     5
100
AcDbTrace
 10
337.4633398624148
 20
219.5671156469747
 30
0.0
 11
338.4633398624148
 21
219.5671156469747
 31
0.0
 12
337.9633398624148
 22
216.5671156469747
 32
0.0
 13
337.9633398624148
 23
216.5671156469747
 33
0.0
  0
MTEXT
  5
24B3
330
24A2
100
AcDbEntity
  8
AM_5
 62
     5
100
AcDbMText
 10
334.9633398624147
 20
254.5671156583747
 30
0.0
 40
3.0
 41
0.0
 71
     5
 72
     1
  1
\A1;76
 11
0.0000000000000001
 21
1.0
 31
0.0
1001
ACAD
1000
MTEXTBEGIN
1070
    73
1070
     1
1070
    44
1040
1.0
1070
    74
1070
     0
1000
MTEXTEND
  0
POINT
  5
24B4
330
24A2
100
AcDbEntity
  8
DEFPOINTS
 62
     0
100
AcDbPoint
 10
308.6840424326993
 20
292.5671156697747
 30
0.0
  0
POINT
  5
24B5
330
24A2
100
AcDbEntity
  8
DEFPOINTS
 62
     0
100
AcDbPoint
 10
308.6840424326993
 20
216.5671156469747
 30
0.0
  0
POINT
  5
24B6
330
24A2
100
AcDbEntity
  8
DEFPOINTS
 62
     0
100
AcDbPoint
 10
337.9633398624148
 20
216.5671156469747
 30
0.0
  0
ENDBLK
  5
24AD
330
24A2
100
AcDbEntity
  8
0
100
AcDbBlockEnd
  0
ENDSEC
  0
SECTION
  2
ENTITIES
  0
LINE
  5
20
330
21E3
100
AcDbEntity
  8
0
 62
     4
100
AcDbLine
 10
9.454342871909375
 20
339.2808219178082
 30
0.0
 11
392.3465185689725
 21
339.2808219178083
 31
0.0
  0
LINE
  5
53
330
21E3
100
AcDbEntity
  8
0
 62
     4
100
AcDbLine
 10
9.454342871909375
 20
9.123287671232873
 30
0.0
 11
9.454342871909375
 21
339.2808219178082
 31
0.0
  0
LINE
  5
F1
330
21E3
100
AcDbEntity
  8
0
100
AcDbLine
 10
269.6840424194994
 20
236.8671156530647
 30
0.0
 11
269.6840424194994
 21
216.5671156469748
 31
0.0
  0
LINE
  5
F4
330
21E3
100
AcDbEntity
  8
0
100
AcDbLine
 10
258.8840424162595
 20
234.8671156524648
 30
0.0
 11
258.8840424162595
 21
216.6671156470048
 31
0.0
  0
LINE
  5
138
330
21E3
100
AcDbEntity
  8
0
100
AcDbLine
 10
105.4840423702394
 20
234.8671156524648
 30
0.0
 11
105.4840423702394
 21
216.6671156470048
 31
0.0
  0
LINE
  5
139
330
21E3
100
AcDbEntity
  8
0
100
AcDbLine
 10
94.68404236699939
 20
236.8671156530647
 30
0.0
 11
94.68404236699939
 21
216.5671156469747
 31
0.0
  0
LINE
  5
1FB
330
21E3
100
AcDbEntity
  8
CENTER
  6
CENTER
100
AcDbLine
 10
87.16501394429213
 20
93.42426957370228
 30
0.0
 11
274.8891000935
 21
93.42426957370237
 31
0.0
1001
ACAD
1000
ASC_BOUNDS
1002
{
1070
    19
1002
}
  0
LINE
  5
1FD
330
21E3
100
AcDbEntity
  8
0
100
AcDbLine
 10
249.6840424134993
 20
216.6671156470047
 30
0.0
 11
114.6840423729994
 21
216.6671156470047
 31
0.0
1001
ACAD
1000
ASC_BOUNDS
1002
{
1070
    19
1005
0
1005
0
1005
0
1005
0
1005
0
1002
}
  0
LINE
  5
36E
330
21E3
100
AcDbEntity
  8
0
100
AcDbLine
 10
248.2111424130574
 20
55.52426956233233
 30
0.0
 11
113.2111423988075
 21
55.52426956233225
 31
0.0
1001
ACAD
1000
ASC_BOUNDS
1002
{
1070
    19
1005
0
1005
0
1005
0
1005
0
1005
0
1002
}
  0
LINE
  5
373
330
21E3
100
AcDbEntity
  8
CENTER
  6
CENTER
100
AcDbLine
 10
180.7111423928075
 20
52.00214644107919
 30
0.0
 11
180.7111423928075
 21
175.6321268396498
 31
0.0
  0
LINE
  5
376
330
21E3
100
AcDbEntity
  8
0
100
AcDbLine
 10
93.21114239280758
 20
93.42426957370228
 30
0.0
 11
93.21114239280758
 21
57.52426956293238
 31
0.0
  0
LINE
  5
379
330
21E3
100
AcDbEntity
  8
0
  6
CONTINUOUS
 62
     7
100
AcDbLine
 10
91.21114239220759
 20
77.92426956905224
 30
0.0
 11
91.21114239220753
 21
112.4244422306456
 31
0.0
  0
LINE
  5
37A
330
21E3
100
AcDbEntity
  8
0
  6
CONTINUOUS
 62
     7
100
AcDbLine
 10
90.21114239190756
 20
77.92426956905227
 30
0.0
 11
90.21114239190756
 21
111.4244422303455
 31
0.0
  0
LINE
  5
3F0
330
21E3
100
AcDbEntity
  8
0
100
AcDbLine
 10
102.0111423954475
 20
75.72426956839239
 30
0.0
 11
93.21114239280758
 21
75.72426956839239
 31
0.0
  0
LINE
  5
3F1
330
21E3
100
AcDbEntity
  8
0
  6
CONTINUOUS
 62
     7
100
AcDbLine
 10
113.1111423987775
 20
75.72426956839239
 30
0.0
 11
93.21114239280758
 21
75.72426956839239
 31
0.0
  0
ARC
  5
3F2
330
21E3
100
AcDbEntity
  8
0
100
AcDbCircle
 10
95.45057324665846
 20
57.52426956293238
 30
0.0
 40
2.0000000006
100
AcDbArc
 50
180.0
 51
270.0
  0
LINE
  5
3F3
330
21E3
100
AcDbEntity
  8
CENTER
  6
CENTER
100
AcDbLine
 10
76.50604199481768
 20
65.1742695737023
 30
0.0
 11
115.1567687654697
 21
65.1742695737023
 31
0.0
  0
LINE
  5
3F6
330
21E3
100
AcDbEntity
  8
0
100
AcDbLine
 10
104.0111423960475
 20
75.72426956839239
 30
0.0
 11
104.0111423960475
 21
55.5242695623324
 31
0.0
  0
LINE
  5
3F9
330
21E3
100
AcDbEntity
  8
0
100
AcDbLine
 10
113.2111423988078
 20
131.3242695850723
 30
0.0
 11
113.2111423988078
 21
55.52426956233233
 31
0.0
1001
ACAD
1000
ASC_BOUNDS
1002
{
1070
    19
1005
0
1005
0
1005
0
1005
0
1002
}
  0
LINE
  5
3FA
330
21E3
100
AcDbEntity
  8
0
100
AcDbLine
 10
113.2111423988075
 20
55.5242695623324
 30
0.0
 11
95.21114239340761
 21
55.5242695623324
 31
0.0
  0
LINE
  5
41B
330
21E3
100
AcDbEntity
  8
CENTER
  6
CENTER
100
AcDbLine
 10
99.05894980779102
 20
84.9242695711524
 30
0.0
 11
110.7607946429073
 21
84.9242695711524
 31
0.0
  0
LINE
  5
41E
330
21E3
100
AcDbEntity
  8
CENTER
  6
CENTER
100
AcDbLine
 10
106.2111423967075
 20
90.04232753943918
 30
0.0
 11
106.2111423967075
 21
80.50199492689136
 31
0.0
  0
LINE
  5
41F
330
21E3
100
AcDbEntity
  8
0
100
AcDbLine
 10
106.2111423967075
 20
86.42426957160239
 30
0.0
 11
106.2111423967075
 21
83.42426957070244
 31
0.0
  0
LINE
  5
420
330
21E3
100
AcDbEntity
  8
0
100
AcDbLine
 10
104.7111423962576
 20
84.92426957115247
 30
0.0
 11
107.7111423971575
 21
84.92426957115247
 31
0.0
  0
LINE
  5
421
330
21E3
100
AcDbEntity
  8
DIM
100
AcDbLine
 10
107.4016278347648
 20
88.42715703334343
 30
0.0
 11
107.2669205646627
 21
88.2237594123841
 31
0.0
  0
CIRCLE
  5
423
330
21E3
100
AcDbEntity
  8
DIM
100
AcDbCircle
 10
106.2111423967075
 20
84.9242695711524
 30
0.0
 40
3.250000000975
  0
CIRCLE
  5
424
330
21E3
100
AcDbEntity
  8
DIM
100
AcDbCircle
 10
106.2111423967075
 20
84.92426957115247
 30
0.0
 40
3.550000001064999
  0
LINE
  5
425
330
21E3
100
AcDbEntity
  8
CENTER
  6
CENTER
100
AcDbLine
 10
102.9998342510779
 20
84.42426957100236
 30
0.0
 11
109.4224505423372
 21
84.42426957100243
 31
0.0
  0
LINE
  5
426
330
21E3
100
AcDbEntity
  8
CENTER
  6
CENTER
100
AcDbLine
 10
102.9998342510779
 20
85.42426957130235
 30
0.0
 11
109.4224505423372
 21
85.42426957130235
 31
0.0
  0
LINE
  5
4ED
330
21E3
100
AcDbEntity
  8
0
100
AcDbLine
 10
248.2111424130574
 20
131.3242695850727
 30
0.0
 11
113.2111423988075
 21
131.3242695850723
 31
0.0
1001
ACAD
1000
ASC_BOUNDS
1002
{
1070
    19
1005
0
1005
0
1005
0
1005
0
1005
0
1002
}
  0
ARC
  5
4EE
330
21E3
100
AcDbEntity
  8
0
100
AcDbCircle
 10
95.21114239340761
 20
129.3242695844723
 30
0.0
 40
2.0000000006
100
AcDbArc
 50
90.0
 51
180.0
  0
LINE
  5
4EF
330
21E3
100
AcDbEntity
  8
CENTER
  6
CENTER
100
AcDbLine
 10
92.87296586919564
 20
121.6742695737023
 30
0.0
 11
115.1567687654697
 21
121.6742695737023
 31
0.0
1001
ACAD
1000
ASC_BOUNDS
1002
{
1070
    19
1002
}
  0
LINE
  5
4F0
330
21E3
100
AcDbEntity
  8
0
100
AcDbLine
 10
102.0111423954475
 20
111.1242695790125
 30
0.0
 11
93.21114239280758
 21
111.1242695790124
 31
0.0
  0
LINE
  5
4F1
330
21E3
100
AcDbEntity
  8
0
  6
CONTINUOUS
 62
     7
100
AcDbLine
 10
113.1111423987775
 20
111.1242695790123
 30
0.0
 11
93.21114239280758
 21
111.1242695790124
 31
0.0
  0
LINE
  5
4F2
330
21E3
100
AcDbEntity
  8
0
100
AcDbLine
 10
93.21114239280758
 20
129.3242695844723
 30
0.0
 11
93.21114239280758
 21
93.42426957370228
 31
0.0
  0
LINE
  5
4F3
330
21E3
100
AcDbEntity
  8
0
 62
     7
100
AcDbLine
 10
90.21114239190756
 20
111.4244422303456
 30
0.0
 11
91.21114239220753
 21
112.4244422306456
 31
0.0
  0
LINE
  5
4F4
330
21E3
100
AcDbEntity
  8
0
 62
     7
100
AcDbLine
 10
93.21114239280758
 20
112.4244422306456
 30
0.0
 11
91.21114239220753
 21
112.4244422306456
 31
0.0
  0
LINE
  5
4F5
330
21E3
100
AcDbEntity
  8
0
100
AcDbLine
 10
104.0111423960475
 20
131.3242695850723
 30
0.0
 11
104.0111423960475
 21
111.1242695790123
 31
0.0
  0
CIRCLE
  5
4FE
330
21E3
100
AcDbEntity
  8
0
  6
CONTINUOUS
 62
     7
100
AcDbCircle
 10
103.2611423958225
 20
100.4242695758024
 30
0.0
 40
3.000000000899999
  0
LINE
  5
4FF
330
21E3
100
AcDbEntity
  8
CENTER
  6
CENTER
100
AcDbLine
 10
103.2111423958075
 20
92.34309849650129
 30
0.0
 11
103.2111423958075
 21
107.6189168150638
 31
0.0
  0
ARC
  5
500
330
21E3
100
AcDbEntity
  8
0
  6
CONTINUOUS
 62
     7
100
AcDbCircle
 10
103.2611423958225
 20
100.4242695758024
 30
0.0
 40
4.0000000012
100
AcDbArc
 50
195.2837479999999
 51
103.512582
  0
CIRCLE
  5
501
330
21E3
100
AcDbEntity
  8
DIM
100
AcDbCircle
 10
103.3208055235346
 20
100.4242695758024
 30
0.0
 40
5.0000000015
  0
CIRCLE
  5
503
330
21E3
100
AcDbEntity
  8
0
 62
     7
100
AcDbCircle
 10
103.2611423958225
 20
100.4242695758024
 30
0.0
 40
1.500000000449999
  0
LINE
  5
504
330
21E3
100
AcDbEntity
  8
CENTER
  6
CENTER
100
AcDbLine
 10
95.62507022919664
 20
100.4242695758024
 30
0.0
 11
109.7963070597182
 21
100.4242695758024
 31
0.0
  0
LINE
  5
512
330
21E3
100
AcDbEntity
  8
0
100
AcDbLine
 10
113.2111423988075
 20
131.3242695850723
 30
0.0
 11
95.21114239340761
 21
131.3242695850723
 31
0.0
  0
LINE
  5
522
330
21E3
100
AcDbEntity
  8
0
100
AcDbLine
 10
189.2111423953575
 20
133.5242695857324
 30
0.0
 11
189.2111423953575
 21
171.1242695970124
 31
0.0
  0
LINE
  5
523
330
21E3
100
AcDbEntity
  8
0
100
AcDbLine
 10
172.2111423902575
 20
133.5242695857322
 30
0.0
 11
172.2111423902575
 21
171.1242695970124
 31
0.0
  0
ARC
  5
524
330
21E3
100
AcDbEntity
  8
0
100
AcDbCircle
 10
180.7111423928075
 20
140.1242695877124
 30
0.0
 40
3.000000000899943
100
AcDbArc
 50
180.0
 51
0.0
  0
LINE
  5
5AF
330
21E3
100
AcDbEntity
  8
0
100
AcDbLine
 10
195.5111423972472
 20
133.5242695857324
 30
0.0
 11
165.9111423883674
 21
133.5242695857322
 31
0.0
1001
ACAD
1000
ASC_BOUNDS
1002
{
1070
    19
1005
0
1005
0
1005
0
1005
0
1005
0
1002
}
  0
LINE
  5
5B2
330
21E3
100
AcDbEntity
  8
0
100
AcDbLine
 10
165.7111423883074
 20
133.3242695856723
 30
0.0
 11
165.9111423883674
 21
133.5242695857322
 31
0.0
1001
ACAD
1000
ASC_BOUNDS
1002
{
1070
    19
1002
}
  0
LINE
  5
5B4
330
21E3
100
AcDbEntity
  8
0
100
AcDbLine
 10
165.7111423883074
 20
131.3242695850725
 30
0.0
 11
165.7111423883074
 21
133.3242695856723
 31
0.0
1001
ACAD
1000
ASC_BOUNDS
1002
{
1070
    19
1002
}
  0
LINE
  5
5B9
330
21E3
100
AcDbEntity
  8
0
100
AcDbLine
 10
183.7111423937075
 20
140.1242695877124
 30
0.0
 11
183.7111423937075
 21
164.1242695949124
 31
0.0
  0
LINE
  5
5BA
330
21E3
100
AcDbEntity
  8
0
100
AcDbLine
 10
177.7111423919075
 20
140.1242695877124
 30
0.0
 11
177.7111423919075
 21
164.1242695949124
 31
0.0
  0
LINE
  5
5BB
330
21E3
100
AcDbEntity
  8
0
100
AcDbLine
 10
188.2111423950575
 20
172.1242695973124
 30
0.0
 11
173.2111423905575
 21
172.1242695973124
 31
0.0
  0
LINE
  5
5BC
330
21E3
100
AcDbEntity
  8
0
100
AcDbLine
 10
189.2111423953575
 20
171.1242695970124
 30
0.0
 11
172.2111423902575
 21
171.1242695970124
 31
0.0
  0
LINE
  5
5BD
330
21E3
100
AcDbEntity
  8
0
100
AcDbLine
 10
173.2111423905575
 20
172.1242695973124
 30
0.0
 11
172.2111423902575
 21
171.1242695970124
 31
0.0
  0
ARC
  5
5BE
330
21E3
100
AcDbEntity
  8
0
100
AcDbCircle
 10
180.7111423928075
 20
164.1242695949124
 30
0.0
 40
3.000000000899999
100
AcDbArc
 50
0.0
 51
180.0
  0
LINE
  5
5BF
330
21E3
100
AcDbEntity
  8
0
100
AcDbLine
 10
189.2111423953575
 20
171.1242695970124
 30
0.0
 11
188.2111423950575
 21
172.1242695973124
 31
0.0
  0
LINE
  5
5CE
330
21E3
100
AcDbEntity
  8
0
100
AcDbLine
 10
114.6840423729994
 20
216.6671156470048
 30
0.0
 11
96.68404236759943
 21
216.6671156470048
 31
0.0
  0
LINE
  5
5CF
330
21E3
100
AcDbEntity
  8
CENTER
  6
CENTER
100
AcDbLine
 10
77.24232878540409
 20
226.0671156498247
 30
0.0
 11
116.6296687396616
 21
226.0671156498247
 31
0.0
  0
ARC
  5
5D2
330
21E3
100
AcDbEntity
  8
0
100
AcDbCircle
 10
96.68404236759943
 20
218.6671156476048
 30
0.0
 40
2.0000000006
100
AcDbArc
 50
180.0
 51
270.0
  0
LINE
  5
600
330
21E3
100
AcDbEntity
  8
0
100
AcDbLine
 10
268.2111424190574
 20
93.42426957370237
 30
0.0
 11
268.2111424190574
 21
55.92426956245228
 31
0.0
  0
LINE
  5
601
330
21E3
100
AcDbEntity
  8
DIM
  6
CONTINUOUS
 62
     5
100
AcDbLine
 10
294.1076527528055
 20
127.0385552980723
 30
0.0
 11
294.1076527528055
 21
59.80998384933241
 31
0.0
  0
TEXT
  5
602
330
21E3
100
AcDbEntity
  8
DIM
 62
     5
100
AcDbText
 10
293.0004341155127
 20
85.9642851787045
 30
0.0
 40
3.0
  1
□ 76
 50
90.0
  7
CHINESET
100
AcDbText
  0
LINE
  5
604
330
21E3
100
AcDbEntity
  8
0
  6
CONTINUOUS
 62
     7
100
AcDbLine
 10
270.2111424196574
 20
112.4244422306454
 30
0.0
 11
270.2111424196574
 21
78.17426957760229
 31
0.0
  0
LINE
  5
605
330
21E3
100
AcDbEntity
  8
0
  6
CONTINUOUS
 62
     7
100
AcDbLine
 10
271.2111424199574
 20
111.4244422303455
 30
0.0
 11
271.2111424199574
 21
78.17426957760234
 31
0.0
  0
CIRCLE
  5
606
330
21E3
100
AcDbEntity
  8
DIM
100
AcDbCircle
 10
258.1014792883304
 20
86.42426957160232
 30
0.0
 40
5.0000000015
  0
LINE
  5
607
330
21E3
100
AcDbEntity
  8
CENTER
  6
CENTER
100
AcDbLine
 10
258.2111424160574
 20
94.50544065090346
 30
0.0
 11
258.2111424160574
 21
79.22962233234091
 31
0.0
  0
CIRCLE
  5
68D
330
21E3
100
AcDbEntity
  8
0
 62
     7
100
AcDbCircle
 10
258.1611424160424
 20
86.42426957160232
 30
0.0
 40
1.500000000449999
  0
ARC
  5
68E
330
21E3
100
AcDbEntity
  8
0
  6
CONTINUOUS
 62
     7
100
AcDbCircle
 10
258.1611424160424
 20
86.42426957160232
 30
0.0
 40
4.0000000012
100
AcDbArc
 50
15.28374799999998
 51
283.512582
  0
CIRCLE
  5
68F
330
21E3
100
AcDbEntity
  8
0
  6
CONTINUOUS
 62
     7
100
AcDbCircle
 10
258.1611424160424
 20
86.42426957160232
 30
0.0
 40
3.000000000899999
  0
LINE
  5
690
330
21E3
100
AcDbEntity
  8
0
  6
CONTINUOUS
 62
     7
100
AcDbLine
 10
248.3111424130874
 20
75.72426956839239
 30
0.0
 11
268.2111424190574
 21
75.72426956839231
 31
0.0
  0
LINE
  5
691
330
21E3
100
AcDbEntity
  8
CENTER
  6
CENTER
100
AcDbLine
 10
265.7972145826684
 20
86.42426957160232
 30
0.0
 11
251.6259777521467
 21
86.42426957160232
 31
0.0
  0
LINE
  5
695
330
21E3
100
AcDbEntity
  8
0
100
AcDbLine
 10
248.2111424130574
 20
55.5242695623324
 30
0.0
 11
266.2111424184574
 21
55.5242695623324
 31
0.0
  0
LINE
  5
696
330
21E3
100
AcDbEntity
  8
CENTER
  6
CENTER
100
AcDbLine
 10
270.6837560964846
 20
65.17426957370236
 30
0.0
 11
246.2655160463952
 21
65.17426957370236
 31
0.0
  0
LINE
  5
6EB
330
21E3
100
AcDbEntity
  8
0
100
AcDbLine
 10
248.2111424130574
 20
131.3242695850723
 30
0.0
 11
248.2111424130574
 21
55.52426956233233
 31
0.0
1001
ACAD
1000
ASC_BOUNDS
1002
{
1070
    19
1005
0
1005
0
1005
0
1005
0
1005
65E
1005
65E
1005
65E
1005
65E
1002
}
  0
LINE
  5
6EC
330
21E3
100
AcDbEntity
  8
0
100
AcDbLine
 10
257.4111424158175
 20
75.72426956839239
 30
0.0
 11
257.4111424158175
 21
55.5242695623324
 31
0.0
  0
LINE
  5
71C
330
21E3
100
AcDbEntity
  8
0
100
AcDbLine
 10
258.2111424160574
 20
90.42426957280232
 30
0.0
 11
258.2111424160574
 21
83.42426957070236
 31
0.0
  0
LINE
  5
724
330
21E3
100
AcDbEntity
  8
DIM
  6
CONTINUOUS
 62
     5
100
AcDbLine
 10
267.6397138474574
 20
55.5242695623324
 30
0.0
 11
296.9647956108055
 21
55.5242695623324
 31
0.0
  0
ARC
  5
725
330
21E3
100
AcDbEntity
  8
0
100
AcDbCircle
 10
266.2111424184574
 20
57.52426956293238
 30
0.0
 40
2.0000000006
100
AcDbArc
 50
270.0
 51
306.8698976458369
  0
SOLID
  5
726
330
21E3
100
AcDbEntity
  8
DIM
  6
CONTINUOUS
 62
     5
100
AcDbTrace
 10
293.3933670383055
 20
60.05998385788245
 30
0.0
 11
294.8219384673055
 21
60.05998385788245
 31
0.0
 12
294.1076527528055
 22
55.77426957088245
 32
0.0
 13
294.1076527528055
 23
55.77426957088245
 33
0.0
  0
LINE
  5
74B
330
21E3
100
AcDbEntity
  8
CENTER
  6
CENTER
100
AcDbLine
 10
262.3633350040739
 20
101.9242695762523
 30
0.0
 11
250.6614901689577
 21
101.9242695762523
 31
0.0
  0
LINE
  5
74C
330
21E3
100
AcDbEntity
  8
0
  6
CONTINUOUS
 62
     7
100
AcDbLine
 10
248.3111424130874
 20
111.1242695790123
 30
0.0
 11
268.2111424190574
 21
111.1242695790123
 31
0.0
  0
LINE
  5
74D
330
21E3
100
AcDbEntity
  8
0
100
AcDbLine
 10
267.3736424188063
 20
128.0523945756157
 30
0.0
 11
257.4111424158175
 21
128.0523945756157
 31
0.0
  0
LINE
  5
74E
330
21E3
100
AcDbEntity
  8
0
100
AcDbLine
 10
267.3736424188063
 20
115.2961445717888
 30
0.0
 11
257.4111424158175
 21
115.2961445717888
 31
0.0
1001
ACAD
1000
ASC_BOUNDS
1002
{
1070
    19
1002
}
  0
LINE
  5
750
330
21E3
100
AcDbEntity
  8
CENTER
  6
CENTER
100
AcDbLine
 10
270.906655871698
 20
121.6742695737023
 30
0.0
 11
246.2655160463952
 21
121.6742695737023
 31
0.0
  0
LINE
  5
751
330
21E3
100
AcDbEntity
  8
0
100
AcDbLine
 10
248.2111424130574
 20
131.3242695850723
 30
0.0
 11
266.2111424184574
 21
131.3242695850723
 31
0.0
  0
LINE
  5
7BB
330
21E3
100
AcDbEntity
  8
0
100
AcDbLine
 10
195.7111423973075
 20
133.3242695856721
 30
0.0
 11
195.5111423972475
 21
133.5242695857322
 31
0.0
1001
ACAD
1000
ASC_BOUNDS
1002
{
1070
    19
1002
}
  0
LINE
  5
7BD
330
21E3
100
AcDbEntity
  8
0
100
AcDbLine
 10
195.7111423973075
 20
131.3242695850723
 30
0.0
 11
195.7111423973075
 21
133.3242695856721
 31
0.0
1001
ACAD
1000
ASC_BOUNDS
1002
{
1070
    19
1002
}
  0
LINE
  5
7D6
330
21E3
100
AcDbEntity
  8
0
100
AcDbLine
 10
257.4111424158175
 20
131.3242695850723
 30
0.0
 11
257.4111424158175
 21
111.1242695790123
 31
0.0
  0
LINE
  5
7E4
330
21E3
100
AcDbEntity
  8
CENTER
  6
CENTER
100
AcDbLine
 10
255.2111424151574
 20
96.80621160796556
 30
0.0
 11
255.2111424151574
 21
106.3465442205133
 31
0.0
  0
CIRCLE
  5
7E5
330
21E3
100
AcDbEntity
  8
DIM
100
AcDbCircle
 10
255.2111424151574
 20
101.9242695762523
 30
0.0
 40
3.550000001064999
  0
CIRCLE
  5
7E6
330
21E3
100
AcDbEntity
  8
DIM
100
AcDbCircle
 10
255.2111424151574
 20
101.9242695762522
 30
0.0
 40
3.250000000975
  0
LINE
  5
7F2
330
21E3
100
AcDbEntity
  8
0
100
AcDbLine
 10
258.422450560787
 20
102.4242695764023
 30
0.0
 11
251.9998342695278
 21
102.4242695764023
 31
0.0
  0
LINE
  5
7F3
330
21E3
100
AcDbEntity
  8
0
100
AcDbLine
 10
258.422450560787
 20
101.4242695761023
 30
0.0
 11
251.9998342695277
 21
101.4242695761023
 31
0.0
  0
LINE
  5
81E
330
21E3
100
AcDbEntity
  8
0
100
AcDbLine
 10
268.2111424190574
 20
129.3242695844723
 30
0.0
 11
268.2111424190574
 21
93.42426957370237
 31
0.0
  0
LINE
  5
81F
330
21E3
100
AcDbEntity
  8
0
100
AcDbLine
 10
267.3736424188063
 20
128.0523945756157
 30
0.0
 11
267.3736424188063
 21
115.2961445717888
 31
0.0
  0
LINE
  5
821
330
21E3
100
AcDbEntity
  8
0
100
AcDbLine
 10
259.4111424164176
 20
111.1242695790124
 30
0.0
 11
268.2111424190574
 21
111.1242695790124
 31
0.0
  0
LINE
  5
822
330
21E3
100
AcDbEntity
  8
0
 62
     7
100
AcDbLine
 10
268.2111424190574
 20
112.4244422306454
 30
0.0
 11
270.2111424196574
 21
112.4244422306454
 31
0.0
  0
LINE
  5
823
330
21E3
100
AcDbEntity
  8
0
 62
     7
100
AcDbLine
 10
270.2111424196574
 20
112.4244422306454
 30
0.0
 11
271.2111424199574
 21
111.4244422303455
 31
0.0
  0
LINE
  5
824
330
21E3
100
AcDbEntity
  8
DIM
  6
CONTINUOUS
 62
     5
100
AcDbLine
 10
267.6397138474574
 20
131.3242695850723
 30
0.0
 11
296.9647956108055
 21
131.3242695850723
 31
0.0
  0
ARC
  5
825
330
21E3
100
AcDbEntity
  8
0
100
AcDbCircle
 10
266.2111424184574
 20
129.3242695844723
 30
0.0
 40
2.0000000006
100
AcDbArc
 50
0.0
 51
90.0
  0
SOLID
  5
826
330
21E3
100
AcDbEntity
  8
DIM
  6
CONTINUOUS
 62
     5
100
AcDbTrace
 10
293.3933670383055
 20
127.0385552980723
 30
0.0
 11
294.8219384673055
 21
127.0385552980723
 31
0.0
 12
294.1076527528055
 22
131.3242695850723
 32
0.0
 13
294.1076527528055
 23
131.3242695850723
 33
0.0
  0
LINE
  5
828
330
21E3
100
AcDbEntity
  8
0
100
AcDbLine
 10
249.6840424134993
 20
216.6671156470048
 30
0.0
 11
267.6840424188993
 21
216.6671156470048
 31
0.0
  0
LINE
  5
829
330
21E3
100
AcDbEntity
  8
CENTER
  6
CENTER
100
AcDbLine
 10
285.8998192159914
 20
226.0671156498247
 30
0.0
 11
248.2326333100465
 21
226.0671156498247
 31
0.0
  0
ARC
  5
857
330
21E3
100
AcDbEntity
  8
0
100
AcDbCircle
 10
267.6840424188993
 20
218.6671156476048
 30
0.0
 40
2.0000000006
100
AcDbArc
 50
270.0
 51
0.0
  0
LINE
  5
A26
330
21E3
100
AcDbEntity
  8
CENTER
  6
CENTER
100
AcDbLine
 10
90.72466459488452
 20
254.5671156583747
 30
0.0
 11
273.5157172840482
 21
254.5671156583747
 31
0.0
  0
LINE
  5
A29
330
21E3
100
AcDbEntity
  8
0
100
AcDbLine
 10
249.6840424134993
 20
292.4671156697446
 30
0.0
 11
114.6840423729994
 21
292.4671156697446
 31
0.0
1001
ACAD
1000
ASC_BOUNDS
1002
{
1070
    19
1005
0
1005
0
1005
0
1005
0
1005
0
1002
}
  0
LINE
  5
A3A
330
21E3
100
AcDbEntity
  8
0
 62
     7
100
AcDbLine
 10
91.68404236609944
 20
272.5672883150181
 30
0.0
 11
92.68404236639947
 21
273.567288315318
 31
0.0
  0
LINE
  5
A3B
330
21E3
100
AcDbEntity
  8
0
  6
CONTINUOUS
 62
     7
100
AcDbLine
 10
92.68404236639947
 20
235.5669430014316
 30
0.0
 11
92.68404236639947
 21
273.567288315318
 31
0.0
  0
ARC
  5
A3E
330
21E3
100
AcDbEntity
  8
0
100
AcDbCircle
 10
103.4840423696393
 20
274.2671156642848
 30
0.0
 40
2.0000000006
100
AcDbArc
 50
270.0000000000001
 51
0.0
  0
LINE
  5
A3F
330
21E3
100
AcDbEntity
  8
0
100
AcDbLine
 10
94.68404236699939
 20
292.5671156697747
 30
0.0
 11
94.68404236699939
 21
272.2671156636847
 31
0.0
  0
LINE
  5
A40
330
21E3
100
AcDbEntity
  8
0
100
AcDbLine
 10
114.6840423729994
 20
292.4671156697446
 30
0.0
 11
114.6840423729994
 21
216.6671156470047
 31
0.0
1001
ACAD
1000
ASC_BOUNDS
1002
{
1070
    19
1005
0
1005
0
1005
0
1005
0
1005
0
1002
}
  0
LINE
  5
A42
330
21E3
100
AcDbEntity
  8
0
 62
     7
100
AcDbLine
 10
94.68404236699939
 20
235.5669430014316
 30
0.0
 11
92.68404236639947
 21
235.5669430014316
 31
0.0
  0
LINE
  5
A43
330
21E3
100
AcDbEntity
  8
0
  6
CONTINUOUS
 62
     7
100
AcDbLine
 10
91.68404236609944
 20
236.5669430017316
 30
0.0
 11
91.68404236609944
 21
272.5672883150179
 31
0.0
  0
LINE
  5
A44
330
21E3
100
AcDbEntity
  8
0
 62
     7
100
AcDbLine
 10
92.68404236639947
 20
235.5669430014316
 30
0.0
 11
91.68404236609944
 21
236.5669430017316
 31
0.0
  0
LINE
  5
A4B
330
21E3
100
AcDbEntity
  8
0
100
AcDbLine
 10
94.68404236699939
 20
272.2671156636847
 30
0.0
 11
94.68404236699939
 21
236.8671156530647
 31
0.0
  0
LINE
  5
A50
330
21E3
100
AcDbEntity
  8
0
100
AcDbLine
 10
103.4840423696393
 20
236.8671156530647
 30
0.0
 11
94.68404236699939
 21
236.8671156530647
 31
0.0
  0
ARC
  5
A51
330
21E3
100
AcDbEntity
  8
0
100
AcDbCircle
 10
103.4840423696393
 20
234.8671156524648
 30
0.0
 40
2.0000000006
100
AcDbArc
 50
0.0
 51
90.00000000000017
  0
LINE
  5
A69
330
21E3
100
AcDbEntity
  8
0
100
AcDbLine
 10
103.4840423696393
 20
272.2671156636849
 30
0.0
 11
94.68404236699939
 21
272.2671156636847
 31
0.0
  0
LINE
  5
A7A
330
21E3
100
AcDbEntity
  8
0
 62
     7
100
AcDbLine
 10
94.68404236699939
 20
273.567288315318
 30
0.0
 11
92.68404236639947
 21
273.567288315318
 31
0.0
  0
LINE
  5
A7B
330
21E3
100
AcDbEntity
  8
0
100
AcDbLine
 10
114.6840423729994
 20
292.4671156697448
 30
0.0
 11
96.68404236759943
 21
292.4671156697448
 31
0.0
  0
LINE
  5
A7C
330
21E3
100
AcDbEntity
  8
CENTER
  6
CENTER
100
AcDbLine
 10
77.7834621190575
 20
283.0671156669247
 30
0.0
 11
116.6296687396616
 21
283.0671156669247
 31
0.0
1001
ACAD
1000
ASC_BOUNDS
1002
{
1070
    19
1002
}
  0
LINE
  5
A7D
330
21E3
100
AcDbEntity
  8
0
100
AcDbLine
 10
105.4840423702394
 20
292.4671156697448
 30
0.0
 11
105.4840423702394
 21
274.2671156642848
 31
0.0
  0
ARC
  5
A82
330
21E3
100
AcDbEntity
  8
0
100
AcDbCircle
 10
96.68404236759943
 20
290.4671156691449
 30
0.0
 40
2.0000000006
100
AcDbArc
 50
90.0
 51
180.0
  0
LINE
  5
B2B
330
21E3
100
AcDbEntity
  8
CENTER
  6
CENTER
100
AcDbLine
 10
180.7111423928075
 20
298.0231650480579
 30
0.0
 11
180.7111423928075
 21
211.1110662686916
 31
0.0
  0
LINE
  5
1912
330
21E3
100
AcDbEntity
  8
CENTER
  6
CENTER
100
AcDbLine
 10
284.604011064668
 20
283.0671156669247
 30
0.0
 11
247.7384160468372
 21
283.0671156669247
 31
0.0
  0
LINE
  5
1913
330
21E3
100
AcDbEntity
  8
0
100
AcDbLine
 10
249.6840424134993
 20
292.4671156697448
 30
0.0
 11
267.6840424188993
 21
292.4671156697448
 31
0.0
  0
ARC
  5
1914
330
21E3
100
AcDbEntity
  8
0
100
AcDbCircle
 10
260.8840424168596
 20
234.8671156524648
 30
0.0
 40
2.0000000006
100
AcDbArc
 50
89.99999999999984
 51
180.0
  0
ARC
  5
1916
330
21E3
100
AcDbEntity
  8
0
100
AcDbCircle
 10
260.8840424168596
 20
274.2671156642848
 30
0.0
 40
2.0000000006
100
AcDbArc
 50
180.0
 51
269.9999999999998
  0
LINE
  5
191D
330
21E3
100
AcDbEntity
  8
0
100
AcDbLine
 10
249.6840424134992
 20
216.6671156470047
 30
0.0
 11
249.6840424134993
 21
292.4671156697447
 31
0.0
1001
ACAD
1000
ASC_BOUNDS
1002
{
1070
    19
1005
0
1005
0
1005
0
1005
0
1005
0
1002
}
  0
LINE
  5
1A98
330
21E3
100
AcDbEntity
  8
0
100
AcDbLine
 10
258.8840424162595
 20
292.4671156697448
 30
0.0
 11
258.8840424162595
 21
274.2671156642848
 31
0.0
  0
LINE
  5
1AA5
330
21E3
100
AcDbEntity
  8
0
 62
     7
100
AcDbLine
 10
271.6840424200993
 20
273.5672883153179
 30
0.0
 11
272.6840424203994
 21
272.5672883150179
 31
0.0
  0
LINE
  5
1AA6
330
21E3
100
AcDbEntity
  8
0
  6
CONTINUOUS
 62
     7
100
AcDbLine
 10
271.6840424200993
 20
273.5672883153179
 30
0.0
 11
271.6840424200993
 21
235.5669430014314
 31
0.0
  0
LINE
  5
1AA7
330
21E3
100
AcDbEntity
  8
0
100
AcDbLine
 10
269.6840424194994
 20
292.5671156697747
 30
0.0
 11
269.6840424194994
 21
272.2671156636847
 31
0.0
  0
LINE
  5
1AA8
330
21E3
100
AcDbEntity
  8
0
  6
CONTINUOUS
 62
     7
100
AcDbLine
 10
272.6840424203994
 20
272.5672883150179
 30
0.0
 11
272.6840424203994
 21
236.5669430017315
 31
0.0
  0
LINE
  5
1AA9
330
21E3
100
AcDbEntity
  8
0
100
AcDbLine
 10
269.6840424194994
 20
272.2671156636847
 30
0.0
 11
269.6840424194994
 21
236.8671156530647
 31
0.0
  0
LINE
  5
1AAA
330
21E3
100
AcDbEntity
  8
0
100
AcDbLine
 10
260.8840424168596
 20
236.8671156530647
 30
0.0
 11
269.6840424194994
 21
236.8671156530647
 31
0.0
  0
LINE
  5
1AAB
330
21E3
100
AcDbEntity
  8
0
 62
     7
100
AcDbLine
 10
272.6840424203994
 20
236.5669430017315
 30
0.0
 11
271.6840424200993
 21
235.5669430014314
 31
0.0
  0
LINE
  5
1AAC
330
21E3
100
AcDbEntity
  8
0
 62
     7
100
AcDbLine
 10
269.6840424194994
 20
235.5669430014314
 30
0.0
 11
271.6840424200993
 21
235.5669430014314
 31
0.0
  0
LINE
  5
1AAD
330
21E3
100
AcDbEntity
  8
0
100
AcDbLine
 10
260.8840424168596
 20
272.2671156636847
 30
0.0
 11
269.6840424194994
 21
272.2671156636847
 31
0.0
  0
LINE
  5
1AB0
330
21E3
100
AcDbEntity
  8
0
 62
     7
100
AcDbLine
 10
269.6840424194994
 20
273.5672883153179
 30
0.0
 11
271.6840424200993
 21
273.5672883153179
 31
0.0
  0
ARC
  5
1AB1
330
21E3
100
AcDbEntity
  8
0
100
AcDbCircle
 10
267.6840424188993
 20
290.4671156691449
 30
0.0
 40
2.0000000006
100
AcDbArc
 50
0.0
 51
90.0
  0
LINE
  5
1AC6
330
21E3
100
AcDbEntity
  8
0
 62
     4
100
AcDbLine
 10
392.3465185689725
 20
339.2808219178084
 30
0.0
 11
392.3465185689726
 21
9.123287671232873
 31
0.0
  0
LINE
  5
1B00
330
21E3
100
AcDbEntity
  8
0
 62
     4
100
AcDbLine
 10
392.3465185689726
 20
9.123287671232873
 30
0.0
 11
9.454342871909375
 21
9.123287671232873
 31
0.0
  0
LINE
  5
1B08
330
21E3
100
AcDbEntity
  8
0
 62
     0
100
AcDbLine
 10
265.9587856166514
 20
115.7859657675765
 30
0.0
 11
261.3311090036057
 21
120.4136423806221
 31
0.0
  0
LINE
  5
1B09
330
21E3
100
AcDbEntity
  8
0
 62
     0
100
AcDbLine
 10
266.665762615732
 20
116.515299418212
 30
0.0
 11
262.0604426542412
 21
121.1206193797027
 31
0.0
  0
LINE
  5
1B0A
330
21E3
100
AcDbEntity
  8
0
 62
     0
100
AcDbLine
 10
267.1353134907095
 20
117.4820591929504
 30
0.0
 11
263.0272024289797
 21
121.5901702546803
 31
0.0
  0
LINE
  5
1B0B
330
21E3
100
AcDbEntity
  8
0
 62
     0
100
AcDbLine
 10
267.2501203949021
 20
118.803562938474
 30
0.0
 11
264.3794137596738
 21
121.6742695737023
 31
0.0
  0
LINE
  5
1B0C
330
21E3
100
AcDbEntity
  8
0
 62
     0
100
AcDbLine
 10
265.012296162723
 20
115.2961445717888
 30
0.0
 11
260.8353909502478
 21
119.473049784264
 31
0.0
  0
LINE
  5
1B0D
330
21E3
100
AcDbEntity
  8
0
 62
     0
100
AcDbLine
 10
263.575985513007
 20
115.2961445717888
 30
0.0
 11
260.6715697364914
 21
118.2005603483044
 31
0.0
  0
LINE
  5
1B0E
330
21E3
100
AcDbEntity
  8
0
 62
     0
100
AcDbLine
 10
261.8712277564787
 20
115.8695850540147
 30
0.0
 11
266.5214643283625
 21
120.5198216258987
 31
0.0
  0
LINE
  5
1B0F
330
21E3
100
AcDbEntity
  8
0
 62
     0
100
AcDbLine
 10
262.7784792582206
 20
115.3405259060406
 30
0.0
 11
267.0505234763367
 21
119.6125701241567
 31
0.0
  0
LINE
  5
1B10
330
21E3
100
AcDbEntity
  8
0
 62
     0
100
AcDbLine
 10
264.1704085736849
 20
115.2961445717888
 30
0.0
 11
267.2720198965255
 21
118.3977558946295
 31
0.0
  0
LINE
  5
1B11
330
21E3
100
AcDbEntity
  8
0
 62
     0
100
AcDbLine
 10
261.1938384033136
 20
116.6285063505658
 30
0.0
 11
265.7625430318115
 21
121.1972109790636
 31
0.0
  0
LINE
  5
1B12
330
21E3
100
AcDbEntity
  8
0
 62
     0
100
AcDbLine
 10
260.7603199613584
 20
117.6312985583267
 30
0.0
 11
264.7597508240505
 21
121.6307294210189
 31
0.0
  0
LINE
  5
1B13
330
21E3
100
AcDbEntity
  8
0
 62
     0
100
AcDbLine
 10
260.7197741810626
 20
119.0270634277469
 30
0.0
 11
263.3639859546303
 21
121.6712752013147
 31
0.0
  0
LINE
  5
1B14
330
21E3
100
AcDbEntity
  8
0
100
AcDbLine
 10
259.4111424164175
 20
128.0523945756157
 30
0.0
 11
259.4111424164176
 21
115.2961445717888
 31
0.0
  0
LINE
  5
1B15
330
21E3
100
AcDbEntity
  8
DIM
100
AcDbLine
 10
259.4111424164175
 20
121.6742695737023
 30
0.0
 11
257.4111424158175
 21
122.9708987367942
 31
0.0
  0
LINE
  5
1B16
330
21E3
100
AcDbEntity
  8
DIM
100
AcDbLine
 10
259.4111424164175
 20
120.8576300226255
 30
0.0
 11
257.4111424158175
 21
122.1542591857172
 31
0.0
  0
LINE
  5
1B23
330
21E3
100
AcDbEntity
  8
DIM
100
AcDbLine
 10
274.7111424210074
 20
65.17426957370236
 30
0.0
 11
272.7111424204074
 21
66.47089873679421
 31
0.0
  0
LINE
  5
1B24
330
21E3
100
AcDbEntity
  8
DIM
100
AcDbLine
 10
274.7111424210074
 20
64.35763002262547
 30
0.0
 11
272.7111424204074
 21
65.65425918571725
 31
0.0
  0
LINE
  5
1B25
330
21E3
100
AcDbEntity
  8
0
100
AcDbLine
 10
282.6736424233962
 20
58.79614457178888
 30
0.0
 11
272.7111424204074
 21
58.79614457178888
 31
0.0
1001
ACAD
1000
ASC_BOUNDS
1002
{
1070
    19
1002
}
  0
LINE
  5
1B26
330
21E3
100
AcDbEntity
  8
0
100
AcDbLine
 10
282.6736424233962
 20
71.55239457561575
 30
0.0
 11
272.7111424204074
 21
71.55239457561575
 31
0.0
  0
LINE
  5
1B27
330
21E3
100
AcDbEntity
  8
0
100
AcDbLine
 10
274.7111424210074
 20
71.55239457561575
 30
0.0
 11
274.7111424210075
 21
58.79614457178888
 31
0.0
  0
LINE
  5
1B28
330
21E3
100
AcDbEntity
  8
0
100
AcDbLine
 10
282.6736424233962
 20
71.55239457561575
 30
0.0
 11
282.6736424233962
 21
58.79614457178888
 31
0.0
  0
LINE
  5
1B29
330
21E3
100
AcDbEntity
  8
0
 62
     0
100
AcDbLine
 10
279.4704085782748
 20
58.79614457178888
 30
0.0
 11
282.5720199011154
 21
61.89775589462948
 31
0.0
  0
LINE
  5
1B2A
330
21E3
100
AcDbEntity
  8
0
 62
     0
100
AcDbLine
 10
278.0784792628105
 20
58.84052590604068
 30
0.0
 11
282.3505234809266
 21
63.11257012415672
 31
0.0
  0
LINE
  5
1B2B
330
21E3
100
AcDbEntity
  8
0
 62
     0
100
AcDbLine
 10
276.4938384079036
 20
60.12850635056583
 30
0.0
 11
281.0625430364014
 21
64.69721097906362
 31
0.0
  0
LINE
  5
1B2C
330
21E3
100
AcDbEntity
  8
0
 62
     0
100
AcDbLine
 10
277.1712277610686
 20
59.36958505401479
 30
0.0
 11
281.8214643329524
 21
64.01982162589873
 31
0.0
  0
LINE
  5
1B2D
330
21E3
100
AcDbEntity
  8
0
 62
     0
100
AcDbLine
 10
282.5501203994921
 20
62.30356293847401
 30
0.0
 11
279.6794137642638
 21
65.17426957370236
 31
0.0
  0
LINE
  5
1B2E
330
21E3
100
AcDbEntity
  8
0
 62
     0
100
AcDbLine
 10
282.4353134952995
 20
60.98205919295046
 30
0.0
 11
278.3272024335697
 21
65.09017025468034
 31
0.0
  0
LINE
  5
1B2F
330
21E3
100
AcDbEntity
  8
0
 62
     0
100
AcDbLine
 10
281.965762620322
 20
60.01529941821201
 30
0.0
 11
277.3604426588311
 21
64.62061937970275
 31
0.0
  0
LINE
  5
1B30
330
21E3
100
AcDbEntity
  8
0
 62
     0
100
AcDbLine
 10
281.2587856212413
 20
59.28596576757655
 30
0.0
 11
276.6311090081957
 21
63.9136423806222
 31
0.0
  0
LINE
  5
1B31
330
21E3
100
AcDbEntity
  8
0
 62
     0
100
AcDbLine
 10
276.0197741856526
 20
62.52706342774698
 30
0.0
 11
278.6639859592203
 21
65.17127520131468
 31
0.0
  0
LINE
  5
1B32
330
21E3
100
AcDbEntity
  8
0
 62
     0
100
AcDbLine
 10
276.0603199659484
 20
61.13129855832676
 30
0.0
 11
280.0597508286405
 21
65.13072942101889
 31
0.0
  0
LINE
  5
1B33
330
21E3
100
AcDbEntity
  8
0
 62
     0
100
AcDbLine
 10
278.8759855175969
 20
58.79614457178888
 30
0.0
 11
275.9715697410813
 21
61.70056034830444
 31
0.0
  0
LINE
  5
1B34
330
21E3
100
AcDbEntity
  8
0
 62
     0
100
AcDbLine
 10
280.3122961673129
 20
58.79614457178888
 30
0.0
 11
276.1353909548378
 21
62.97304978426405
 31
0.0
  0
LINE
  5
1B35
330
21E3
100
AcDbEntity
  8
DIM
100
AcDbLine
 10
102.0254281097376
 20
121.6742695737023
 30
0.0
 11
104.0254281103377
 21
122.9708987367941
 31
0.0
  0
LINE
  5
1B36
330
21E3
100
AcDbEntity
  8
DIM
100
AcDbLine
 10
102.0254281097376
 20
120.8576300226254
 30
0.0
 11
104.0254281103377
 21
122.1542591857172
 31
0.0
  0
LINE
  5
1B37
330
21E3
100
AcDbEntity
  8
0
100
AcDbLine
 10
94.06292810734896
 20
115.2961445717888
 30
0.0
 11
104.0254281103376
 21
115.2961445717888
 31
0.0
1001
ACAD
1000
ASC_BOUNDS
1002
{
1070
    19
1002
}
  0
LINE
  5
1B38
330
21E3
100
AcDbEntity
  8
0
100
AcDbLine
 10
94.06292810734896
 20
128.0523945756157
 30
0.0
 11
104.0254281103377
 21
128.0523945756157
 31
0.0
  0
LINE
  5
1B39
330
21E3
100
AcDbEntity
  8
0
100
AcDbLine
 10
102.0254281097377
 20
128.0523945756157
 30
0.0
 11
102.0254281097376
 21
115.2961445717888
 31
0.0
  0
LINE
  5
1B3A
330
21E3
100
AcDbEntity
  8
0
100
AcDbLine
 10
94.06292810734896
 20
128.0523945756157
 30
0.0
 11
94.06292810734896
 21
115.2961445717888
 31
0.0
  0
LINE
  5
1B3B
330
21E3
100
AcDbEntity
  8
0
 62
     0
100
AcDbLine
 10
97.26616195247032
 20
115.2961445717888
 30
0.0
 11
94.16455062962967
 21
118.3977558946294
 31
0.0
  0
LINE
  5
1B3C
330
21E3
100
AcDbEntity
  8
0
 62
     0
100
AcDbLine
 10
98.65809126793459
 20
115.3405259060406
 30
0.0
 11
94.38604704981855
 21
119.6125701241566
 31
0.0
  0
LINE
  5
1B3D
330
21E3
100
AcDbEntity
  8
0
 62
     0
100
AcDbLine
 10
100.2427321228415
 20
116.6285063505658
 30
0.0
 11
95.6740274943437
 21
121.1972109790635
 31
0.0
  0
LINE
  5
1B3E
330
21E3
100
AcDbEntity
  8
0
 62
     0
100
AcDbLine
 10
99.56534276967648
 20
115.8695850540147
 30
0.0
 11
94.91510619779274
 21
120.5198216258986
 31
0.0
  0
LINE
  5
1B3F
330
21E3
100
AcDbEntity
  8
0
 62
     0
100
AcDbLine
 10
94.18645013125308
 20
118.8035629384739
 30
0.0
 11
97.05715676648134
 21
121.6742695737023
 31
0.0
  0
LINE
  5
1B40
330
21E3
100
AcDbEntity
  8
0
 62
     0
100
AcDbLine
 10
94.30125703544565
 20
117.4820591929504
 30
0.0
 11
98.40936809717545
 21
121.5901702546803
 31
0.0
  0
LINE
  5
1B41
330
21E3
100
AcDbEntity
  8
0
 62
     0
100
AcDbLine
 10
94.77080791042316
 20
116.5152994182119
 30
0.0
 11
99.37612787191397
 21
121.1206193797027
 31
0.0
  0
LINE
  5
1B42
330
21E3
100
AcDbEntity
  8
0
 62
     0
100
AcDbLine
 10
95.47778490950378
 20
115.7859657675765
 30
0.0
 11
100.1054615225494
 21
120.4136423806221
 31
0.0
  0
LINE
  5
1B43
330
21E3
100
AcDbEntity
  8
0
 62
     0
100
AcDbLine
 10
100.7167963450925
 20
119.0270634277469
 30
0.0
 11
98.07258457152489
 21
121.6712752013146
 31
0.0
  0
LINE
  5
1B44
330
21E3
100
AcDbEntity
  8
0
 62
     0
100
AcDbLine
 10
100.6762505647966
 20
117.6312985583267
 30
0.0
 11
96.6768197021047
 21
121.6307294210188
 31
0.0
  0
LINE
  5
1B45
330
21E3
100
AcDbEntity
  8
0
 62
     0
100
AcDbLine
 10
97.86058501314824
 20
115.2961445717888
 30
0.0
 11
100.7650007896638
 21
118.2005603483043
 31
0.0
  0
LINE
  5
1B46
330
21E3
100
AcDbEntity
  8
0
 62
     0
100
AcDbLine
 10
96.42427436343218
 20
115.2961445717888
 30
0.0
 11
100.6011795759073
 21
119.473049784264
 31
0.0
  0
LINE
  5
1B71
330
21E3
100
AcDbEntity
  8
DIM
100
AcDbLine
 10
260.8840424168596
 20
226.0671156498247
 30
0.0
 11
258.8840424162595
 21
227.3637448129166
 31
0.0
  0
LINE
  5
1B72
330
21E3
100
AcDbEntity
  8
DIM
100
AcDbLine
 10
260.8840424168596
 20
225.2504760987477
 30
0.0
 11
258.8840424162595
 21
226.5471052618396
 31
0.0
  0
LINE
  5
1B73
330
21E3
100
AcDbEntity
  8
0
100
AcDbLine
 10
268.8465424192482
 20
219.6889906479112
 30
0.0
 11
258.8840424162595
 21
219.6889906479112
 31
0.0
1001
ACAD
1000
ASC_BOUNDS
1002
{
1070
    19
1002
}
  0
LINE
  5
1B74
330
21E3
100
AcDbEntity
  8
0
100
AcDbLine
 10
268.8465424192482
 20
232.4452406517381
 30
0.0
 11
258.8840424162595
 21
232.4452406517381
 31
0.0
  0
LINE
  5
1B75
330
21E3
100
AcDbEntity
  8
0
100
AcDbLine
 10
260.8840424168595
 20
232.4452406517381
 30
0.0
 11
260.8840424168596
 21
219.6889906479112
 31
0.0
  0
LINE
  5
1B76
330
21E3
100
AcDbEntity
  8
0
100
AcDbLine
 10
268.8465424192482
 20
232.4452406517381
 30
0.0
 11
268.8465424192482
 21
219.6889906479112
 31
0.0
  0
LINE
  5
1B77
330
21E3
100
AcDbEntity
  8
0
 62
     0
100
AcDbLine
 10
265.6433085741269
 20
219.6889906479112
 30
0.0
 11
268.7449198969675
 21
222.7906019707519
 31
0.0
  0
LINE
  5
1B78
330
21E3
100
AcDbEntity
  8
0
 62
     0
100
AcDbLine
 10
264.2513792586626
 20
219.733371982163
 30
0.0
 11
268.5234234767786
 21
224.0054162002791
 31
0.0
  0
LINE
  5
1B79
330
21E3
100
AcDbEntity
  8
0
 62
     0
100
AcDbLine
 10
262.6667384037556
 20
221.0213524266882
 30
0.0
 11
267.2354430322535
 21
225.590057055186
 31
0.0
  0
LINE
  5
1B7A
330
21E3
100
AcDbEntity
  8
0
 62
     0
100
AcDbLine
 10
263.3441277569207
 20
220.2624311301371
 30
0.0
 11
267.9943643288045
 21
224.912667702021
 31
0.0
  0
LINE
  5
1B7B
330
21E3
100
AcDbEntity
  8
0
 62
     0
100
AcDbLine
 10
268.7230203953441
 20
223.1964090145964
 30
0.0
 11
265.8523137601159
 21
226.0671156498247
 31
0.0
  0
LINE
  5
1B7C
330
21E3
100
AcDbEntity
  8
0
 62
     0
100
AcDbLine
 10
268.6082134911516
 20
221.8749052690728
 30
0.0
 11
264.5001024294218
 21
225.9830163308027
 31
0.0
  0
LINE
  5
1B7D
330
21E3
100
AcDbEntity
  8
0
 62
     0
100
AcDbLine
 10
268.138662616174
 20
220.9081454943343
 30
0.0
 11
263.5333426546832
 21
225.5134654558251
 31
0.0
  0
LINE
  5
1B7E
330
21E3
100
AcDbEntity
  8
0
 62
     0
100
AcDbLine
 10
267.4316856170934
 20
220.1788118436989
 30
0.0
 11
262.8040090040478
 21
224.8064884567445
 31
0.0
  0
LINE
  5
1B7F
330
21E3
100
AcDbEntity
  8
0
 62
     0
100
AcDbLine
 10
262.1926741815046
 20
223.4199095038693
 30
0.0
 11
264.8368859550723
 21
226.064121277437
 31
0.0
  0
LINE
  5
1B80
330
21E3
100
AcDbEntity
  8
0
 62
     0
100
AcDbLine
 10
262.2332199618004
 20
222.0241446344491
 30
0.0
 11
266.2326508244925
 21
226.0235754971412
 31
0.0
  0
LINE
  5
1B81
330
21E3
100
AcDbEntity
  8
0
 62
     0
100
AcDbLine
 10
265.048885513449
 20
219.6889906479112
 30
0.0
 11
262.1444697369334
 21
222.5934064244268
 31
0.0
  0
LINE
  5
1B82
330
21E3
100
AcDbEntity
  8
0
 62
     0
100
AcDbLine
 10
266.485196163165
 20
219.6889906479112
 30
0.0
 11
262.3082909506898
 21
223.8658958603864
 31
0.0
  0
LINE
  5
1B83
330
21E3
100
AcDbEntity
  8
DIM
100
AcDbLine
 10
260.8840424168596
 20
283.0671156669247
 30
0.0
 11
258.8840424162595
 21
284.3637448300166
 31
0.0
  0
LINE
  5
1B84
330
21E3
100
AcDbEntity
  8
DIM
100
AcDbLine
 10
260.8840424168596
 20
282.2504761158478
 30
0.0
 11
258.8840424162595
 21
283.5471052789397
 31
0.0
  0
LINE
  5
1B85
330
21E3
100
AcDbEntity
  8
0
100
AcDbLine
 10
268.8465424192482
 20
276.6889906650113
 30
0.0
 11
258.8840424162595
 21
276.6889906650113
 31
0.0
1001
ACAD
1000
ASC_BOUNDS
1002
{
1070
    19
1002
}
  0
LINE
  5
1B86
330
21E3
100
AcDbEntity
  8
0
100
AcDbLine
 10
268.8465424192482
 20
289.4452406688381
 30
0.0
 11
258.8840424162595
 21
289.4452406688381
 31
0.0
  0
LINE
  5
1B87
330
21E3
100
AcDbEntity
  8
0
100
AcDbLine
 10
260.8840424168595
 20
289.4452406688381
 30
0.0
 11
260.8840424168596
 21
276.6889906650113
 31
0.0
  0
LINE
  5
1B88
330
21E3
100
AcDbEntity
  8
0
100
AcDbLine
 10
268.8465424192482
 20
289.4452406688381
 30
0.0
 11
268.8465424192482
 21
276.6889906650113
 31
0.0
  0
LINE
  5
1B89
330
21E3
100
AcDbEntity
  8
0
 62
     0
100
AcDbLine
 10
265.6433085741269
 20
276.6889906650113
 30
0.0
 11
268.7449198969675
 21
279.7906019878519
 31
0.0
  0
LINE
  5
1B8A
330
21E3
100
AcDbEntity
  8
0
 62
     0
100
AcDbLine
 10
264.2513792586626
 20
276.7333719992631
 30
0.0
 11
268.5234234767786
 21
281.0054162173791
 31
0.0
  0
LINE
  5
1B8B
330
21E3
100
AcDbEntity
  8
0
 62
     0
100
AcDbLine
 10
262.6667384037556
 20
278.0213524437882
 30
0.0
 11
267.2354430322535
 21
282.5900570722861
 31
0.0
  0
LINE
  5
1B8C
330
21E3
100
AcDbEntity
  8
0
 62
     0
100
AcDbLine
 10
263.3441277569207
 20
277.2624311472372
 30
0.0
 11
267.9943643288045
 21
281.9126677191211
 31
0.0
  0
LINE
  5
1B8D
330
21E3
100
AcDbEntity
  8
0
 62
     0
100
AcDbLine
 10
268.7230203953441
 20
280.1964090316964
 30
0.0
 11
265.8523137601159
 21
283.0671156669247
 31
0.0
  0
LINE
  5
1B8E
330
21E3
100
AcDbEntity
  8
0
 62
     0
100
AcDbLine
 10
268.6082134911516
 20
278.8749052861729
 30
0.0
 11
264.5001024294218
 21
282.9830163479027
 31
0.0
  0
LINE
  5
1B8F
330
21E3
100
AcDbEntity
  8
0
 62
     0
100
AcDbLine
 10
268.138662616174
 20
277.9081455114343
 30
0.0
 11
263.5333426546832
 21
282.5134654729252
 31
0.0
  0
LINE
  5
1B90
330
21E3
100
AcDbEntity
  8
0
 62
     0
100
AcDbLine
 10
267.4316856170934
 20
277.178811860799
 30
0.0
 11
262.8040090040478
 21
281.8064884738445
 31
0.0
  0
LINE
  5
1B91
330
21E3
100
AcDbEntity
  8
0
 62
     0
100
AcDbLine
 10
262.1926741815046
 20
280.4199095209694
 30
0.0
 11
264.8368859550723
 21
283.0641212945371
 31
0.0
  0
LINE
  5
1B92
330
21E3
100
AcDbEntity
  8
0
 62
     0
100
AcDbLine
 10
262.2332199618004
 20
279.0241446515492
 30
0.0
 11
266.2326508244925
 21
283.0235755142413
 31
0.0
  0
LINE
  5
1B93
330
21E3
100
AcDbEntity
  8
0
 62
     0
100
AcDbLine
 10
265.048885513449
 20
276.6889906650113
 30
0.0
 11
262.1444697369334
 21
279.5934064415268
 31
0.0
  0
LINE
  5
1B94
330
21E3
100
AcDbEntity
  8
0
 62
     0
100
AcDbLine
 10
266.485196163165
 20
276.6889906650113
 30
0.0
 11
262.3082909506898
 21
280.8658958774865
 31
0.0
  0
LINE
  5
1B95
330
21E3
100
AcDbEntity
  8
0
100
AcDbLine
 10
95.52154236725062
 20
232.4452406517381
 30
0.0
 11
105.4840423702393
 21
232.4452406517381
 31
0.0
1001
ACAD
1000
ASC_BOUNDS
1002
{
1070
    19
1002
}
  0
LINE
  5
1B96
330
21E3
100
AcDbEntity
  8
0
100
AcDbLine
 10
95.52154236725062
 20
219.6889906479112
 30
0.0
 11
105.4840423702394
 21
219.6889906479112
 31
0.0
  0
LINE
  5
1B97
330
21E3
100
AcDbEntity
  8
0
 62
     0
100
AcDbLine
 10
100.1167055278363
 20
232.4008593174863
 30
0.0
 11
95.84466130972021
 21
228.1288150993702
 31
0.0
  0
LINE
  5
1B98
330
21E3
100
AcDbEntity
  8
0
 62
     0
100
AcDbLine
 10
101.7013463827432
 20
231.1128788729611
 30
0.0
 11
97.13264175424535
 21
226.5441742444632
 31
0.0
  0
LINE
  5
1B99
330
21E3
100
AcDbEntity
  8
0
 62
     0
100
AcDbLine
 10
101.0239570295782
 20
231.8718001695121
 30
0.0
 11
96.37372045769438
 21
227.2215635976283
 31
0.0
  0
LINE
  5
1B9A
330
21E3
100
AcDbEntity
  8
0
 62
     0
100
AcDbLine
 10
96.22942217032482
 20
231.226085805315
 30
0.0
 11
100.8347421318156
 21
226.6207658438242
 31
0.0
  0
LINE
  5
1B9B
330
21E3
100
AcDbEntity
  8
0
 62
     0
100
AcDbLine
 10
96.93639916940549
 20
231.9554194559504
 30
0.0
 11
101.5640757824511
 21
227.3277428429048
 31
0.0
  0
LINE
  5
1B9C
330
21E3
100
AcDbEntity
  8
0
 62
     0
100
AcDbLine
 10
102.1754106049942
 20
228.71432179578
 30
0.0
 11
99.53119883142655
 21
226.0701100222123
 31
0.0
  0
LINE
  5
1B9D
330
21E3
100
AcDbEntity
  8
0
 62
     0
100
AcDbLine
 10
102.1348648246984
 20
230.1100866652002
 30
0.0
 11
98.13543396200635
 21
226.1106558025081
 31
0.0
  0
LINE
  5
1B9E
330
21E3
100
AcDbEntity
  8
0
 62
     0
100
AcDbLine
 10
99.31919927304988
 20
232.4452406517381
 30
0.0
 11
102.2236150495655
 21
229.5408248752226
 31
0.0
  0
LINE
  5
1B9F
330
21E3
100
AcDbEntity
  8
0
 62
     0
100
AcDbLine
 10
97.88288862333388
 20
232.4452406517381
 30
0.0
 11
102.059793835809
 21
228.2683354392629
 31
0.0
  0
LINE
  5
1BA0
330
21E3
100
AcDbEntity
  8
0
100
AcDbLine
 10
95.52154236725062
 20
219.6889906479112
 30
0.0
 11
95.52154236725062
 21
232.4452406517381
 31
0.0
  0
LINE
  5
1BA1
330
21E3
100
AcDbEntity
  8
0
 62
     0
100
AcDbLine
 10
98.72477621237203
 20
232.4452406517381
 30
0.0
 11
95.62316488953138
 21
229.3436293288974
 31
0.0
  0
LINE
  5
1BA2
330
21E3
100
AcDbEntity
  8
0
 62
     0
100
AcDbLine
 10
95.64506439115474
 20
228.9378222850529
 30
0.0
 11
98.51577102638305
 21
226.0671156498247
 31
0.0
  0
LINE
  5
1BA3
330
21E3
100
AcDbEntity
  8
0
 62
     0
100
AcDbLine
 10
95.75987129534736
 20
230.2593260305765
 30
0.0
 11
99.86798235707716
 21
226.1512149688467
 31
0.0
  0
LINE
  5
1BA4
330
21E3
100
AcDbEntity
  8
0
100
AcDbLine
 10
103.4840423696395
 20
219.6889906479112
 30
0.0
 11
103.4840423696392
 21
232.4452406517381
 31
0.0
  0
LINE
  5
1BA5
330
21E3
100
AcDbEntity
  8
DIM
100
AcDbLine
 10
103.4840423696393
 20
226.0671156498247
 30
0.0
 11
105.4840423702394
 21
224.7704864867328
 31
0.0
  0
LINE
  5
1BA6
330
21E3
100
AcDbEntity
  8
DIM
100
AcDbLine
 10
103.4840423696393
 20
226.8837552009015
 30
0.0
 11
105.4840423702394
 21
225.5871260378097
 31
0.0
  0
LINE
  5
1BA7
330
21E3
100
AcDbEntity
  8
0
100
AcDbLine
 10
95.52154236725062
 20
289.4452406688381
 30
0.0
 11
105.4840423702393
 21
289.4452406688381
 31
0.0
1001
ACAD
1000
ASC_BOUNDS
1002
{
1070
    19
1002
}
  0
LINE
  5
1BA8
330
21E3
100
AcDbEntity
  8
0
100
AcDbLine
 10
95.52154236725062
 20
276.6889906650113
 30
0.0
 11
105.4840423702394
 21
276.6889906650113
 31
0.0
  0
LINE
  5
1BA9
330
21E3
100
AcDbEntity
  8
0
 62
     0
100
AcDbLine
 10
100.1167055278363
 20
289.4008593345863
 30
0.0
 11
95.84466130972021
 21
285.1288151164703
 31
0.0
  0
LINE
  5
1BAA
330
21E3
100
AcDbEntity
  8
0
 62
     0
100
AcDbLine
 10
101.7013463827432
 20
288.1128788900612
 30
0.0
 11
97.13264175424535
 21
283.5441742615634
 31
0.0
  0
LINE
  5
1BAB
330
21E3
100
AcDbEntity
  8
0
 62
     0
100
AcDbLine
 10
101.0239570295782
 20
288.8718001866123
 30
0.0
 11
96.37372045769438
 21
284.2215636147283
 31
0.0
  0
LINE
  5
1BAC
330
21E3
100
AcDbEntity
  8
0
 62
     0
100
AcDbLine
 10
96.22942217032482
 20
288.226085822415
 30
0.0
 11
100.8347421318156
 21
283.6207658609243
 31
0.0
  0
LINE
  5
1BAD
330
21E3
100
AcDbEntity
  8
0
 62
     0
100
AcDbLine
 10
96.93639916940549
 20
288.9554194730505
 30
0.0
 11
101.5640757824511
 21
284.3277428600048
 31
0.0
  0
LINE
  5
1BAE
330
21E3
100
AcDbEntity
  8
0
 62
     0
100
AcDbLine
 10
102.1754106049942
 20
285.7143218128801
 30
0.0
 11
99.53119883142655
 21
283.0701100393124
 31
0.0
  0
LINE
  5
1BAF
330
21E3
100
AcDbEntity
  8
0
 62
     0
100
AcDbLine
 10
102.1348648246984
 20
287.1100866823002
 30
0.0
 11
98.13543396200635
 21
283.1106558196081
 31
0.0
  0
LINE
  5
1BB0
330
21E3
100
AcDbEntity
  8
0
 62
     0
100
AcDbLine
 10
99.31919927304988
 20
289.4452406688381
 30
0.0
 11
102.2236150495655
 21
286.5408248923226
 31
0.0
  0
LINE
  5
1BB1
330
21E3
100
AcDbEntity
  8
0
 62
     0
100
AcDbLine
 10
97.88288862333388
 20
289.4452406688381
 30
0.0
 11
102.059793835809
 21
285.2683354563629
 31
0.0
  0
LINE
  5
1BB2
330
21E3
100
AcDbEntity
  8
0
100
AcDbLine
 10
95.52154236725062
 20
276.6889906650113
 30
0.0
 11
95.52154236725062
 21
289.4452406688381
 31
0.0
  0
LINE
  5
1BB3
330
21E3
100
AcDbEntity
  8
0
 62
     0
100
AcDbLine
 10
98.72477621237203
 20
289.4452406688381
 30
0.0
 11
95.62316488953138
 21
286.3436293459975
 31
0.0
  0
LINE
  5
1BB4
330
21E3
100
AcDbEntity
  8
0
 62
     0
100
AcDbLine
 10
95.64506439115474
 20
285.937822302153
 30
0.0
 11
98.51577102638305
 21
283.0671156669247
 31
0.0
  0
LINE
  5
1BB5
330
21E3
100
AcDbEntity
  8
0
 62
     0
100
AcDbLine
 10
95.75987129534736
 20
287.2593260476765
 30
0.0
 11
99.86798235707716
 21
283.1512149859467
 31
0.0
  0
LINE
  5
1BB6
330
21E3
100
AcDbEntity
  8
0
100
AcDbLine
 10
103.4840423696395
 20
276.6889906650113
 30
0.0
 11
103.4840423696392
 21
289.4452406688381
 31
0.0
  0
LINE
  5
1BB7
330
21E3
100
AcDbEntity
  8
DIM
100
AcDbLine
 10
103.4840423696393
 20
283.0671156669247
 30
0.0
 11
105.4840423702394
 21
281.7704865038328
 31
0.0
  0
LINE
  5
1BB8
330
21E3
100
AcDbEntity
  8
DIM
100
AcDbLine
 10
103.4840423696393
 20
283.8837552180016
 30
0.0
 11
105.4840423702394
 21
282.5871260549098
 31
0.0
  0
LINE
  5
1D44
330
21E3
100
AcDbEntity
  8
0
100
AcDbLine
 10
268.2111424190574
 20
78.17426957760222
 30
0.0
 11
268.2111424190575
 21
51.67427133026089
 31
0.0
  0
LINE
  5
1D45
330
21E3
100
AcDbEntity
  8
0
100
AcDbLine
 10
308.6840424326993
 20
292.5671156697747
 30
0.0
 11
269.6840424194994
 21
292.5671156697747
 31
0.0
  0
LINE
  5
1D46
330
21E3
100
AcDbEntity
  8
0
100
AcDbLine
 10
308.6840424326993
 20
216.5671156469747
 30
0.0
 11
269.6840424194994
 21
216.5671156469747
 31
0.0
  0
LINE
  5
1D47
330
21E3
100
AcDbEntity
  8
CENTER
  6
CENTER
100
AcDbLine
 10
300.2111424286575
 20
50.11430812630782
 30
0.0
 11
300.2111424286575
 21
39.52722800189013
 31
0.0
  0
LINE
  5
1D48
330
21E3
100
AcDbEntity
  8
0
100
AcDbLine
 10
310.2111424331575
 20
47.67426956845236
 30
0.0
 11
310.2111424331575
 21
43.17426956710238
 31
0.0
  0
LINE
  5
1D49
330
21E3
100
AcDbEntity
  8
0
100
AcDbLine
 10
274.1840424208493
 20
292.5671156697747
 30
0.0
 11
274.1840424208493
 21
216.5671156469747
 31
0.0
  0
LINE
  5
1D4A
330
21E3
100
AcDbEntity
  8
0
100
AcDbLine
 10
272.7111424204074
 20
78.17426957760222
 30
0.0
 11
272.7111424204074
 21
51.67426956965228
 31
0.0
  0
LINE
  5
1D4B
330
21E3
100
AcDbEntity
  8
0
100
AcDbLine
 10
310.2111424331575
 20
43.17426956710238
 30
0.0
 11
276.7111424216076
 21
43.17426956710222
 31
0.0
  0
LINE
  5
1D4C
330
21E3
100
AcDbEntity
  8
0
100
AcDbLine
 10
310.2111424331575
 20
47.67426956845236
 30
0.0
 11
276.7111424216076
 21
47.67426956845236
 31
0.0
  0
CIRCLE
  5
1D50
330
21E3
100
AcDbEntity
  8
0
100
AcDbCircle
 10
301.6840424290993
 20
279.5671156658747
 30
0.0
 40
4.50000000135
  0
LINE
  5
1D51
330
21E3
100
AcDbEntity
  8
0
100
AcDbLine
 10
311.6840424335993
 20
289.5671156688747
 30
0.0
 11
311.6840424335993
 21
219.5671156478747
 31
0.0
  0
ARC
  5
1D52
330
21E3
100
AcDbEntity
  8
0
100
AcDbCircle
 10
308.6840424326993
 20
219.5671156478747
 30
0.0
 40
3.000000000899999
100
AcDbArc
 50
270.0
 51
0.0
  0
ARC
  5
1D53
330
21E3
100
AcDbEntity
  8
0
100
AcDbCircle
 10
308.6840424326993
 20
289.5671156688747
 30
0.0
 40
3.000000000899999
100
AcDbArc
 50
0.0
 51
90.0
  0
LINE
  5
1D54
330
21E3
100
AcDbEntity
  8
CENTER
  6
CENTER
100
AcDbLine
 10
301.6840424290993
 20
284.5671156673747
 30
0.0
 11
301.6840424290993
 21
274.5671156643747
 31
0.0
  0
LINE
  5
1D55
330
21E3
100
AcDbEntity
  8
CENTER
  6
CENTER
100
AcDbLine
 10
296.6840424275993
 20
279.5671156658747
 30
0.0
 11
306.6840424305993
 21
279.5671156658747
 31
0.0
  0
LINE
  5
1D59
330
21E3
100
AcDbEntity
  8
0
100
AcDbLine
 10
272.7111424204074
 20
78.17426957760239
 30
0.0
 11
268.2111424190574
 21
78.17426957760222
 31
0.0
  0
LINE
  5
1D5D
330
21E3
100
AcDbEntity
  8
0
  6
HIDDEN
100
AcDbLine
 10
304.7111424300075
 20
47.67426956845236
 30
0.0
 11
304.7111424300075
 21
43.17426956710238
 31
0.0
  0
LINE
  5
1D5E
330
21E3
100
AcDbEntity
  8
0
  6
HIDDEN
100
AcDbLine
 10
295.7111424273074
 20
47.67426956845236
 30
0.0
 11
295.7111424273074
 21
43.17426956710238
 31
0.0
  0
ARC
  5
1D65
330
21E3
100
AcDbEntity
  8
0
100
AcDbCircle
 10
276.7111424216076
 20
51.67426956965228
 30
0.0
 40
4.0000000012
100
AcDbArc
 50
180.0
 51
270.0
  0
ARC
  5
1D66
330
21E3
100
AcDbEntity
  8
0
100
AcDbCircle
 10
276.7111424216076
 20
51.67426956965228
 30
0.0
 40
8.500000002549999
100
AcDbArc
 50
180.0
 51
270.0
  0
LINE
  5
1D68
330
21E3
100
AcDbEntity
  8
0
  6
HIDDEN
100
AcDbLine
 10
278.8471813915697
 20
43.17426956710222
 30
0.0
 11
268.2111424190575
 21
53.8103085396144
 31
0.0
  0
LINE
  5
1E90
330
21E3
100
AcDbEntity
  8
0
  6
CONTINUOUS
100
AcDbLine
 10
268.2111424190575
 20
74.17426957640228
 30
0.0
 11
257.4111424158175
 21
74.17426957640227
 31
0.0
  0
LINE
  5
1E91
330
21E3
100
AcDbEntity
  8
0
  6
CONTINUOUS
100
AcDbLine
 10
268.2111424190574
 20
56.17426957100232
 30
0.0
 11
257.4111424158175
 21
56.17426957100232
 31
0.0
  0
LINE
  5
1E92
330
21E3
100
AcDbEntity
  8
0
  6
HIDDEN
100
AcDbLine
 10
82.57510342029524
 20
43.17426956710217
 30
0.0
 11
93.2111423928074
 21
53.81030853961433
 31
0.0
  0
ARC
  5
1E93
330
21E3
100
AcDbEntity
  8
0
100
AcDbCircle
 10
84.71114239025736
 20
51.67426956965222
 30
0.0
 40
8.500000002549999
100
AcDbArc
 50
270.0
 51
0.0
  0
LINE
  5
1E94
330
21E3
100
AcDbEntity
  8
0
100
AcDbLine
 10
93.21114239280758
 20
78.17426957760216
 30
0.0
 11
93.2111423928074
 21
51.67427133026084
 31
0.0
  0
LINE
  5
1E95
330
21E3
100
AcDbEntity
  8
0
100
AcDbLine
 10
88.71114239145743
 20
78.17426957760216
 30
0.0
 11
88.71114239145743
 21
51.67426956965222
 31
0.0
  0
LINE
  5
1E96
330
21E3
100
AcDbEntity
  8
0
100
AcDbLine
 10
86.71114239085751
 20
71.55239457561569
 30
0.0
 11
86.71114239085738
 21
58.79614457178883
 31
0.0
  0
LINE
  5
1E97
330
21E3
100
AcDbEntity
  8
0
100
AcDbLine
 10
78.74864238846868
 20
71.55239457561569
 30
0.0
 11
78.74864238846868
 21
58.79614457178883
 31
0.0
  0
LINE
  5
1E98
330
21E3
100
AcDbEntity
  8
0
 62
     0
100
AcDbLine
 10
84.92844640396134
 20
60.12850635056577
 30
0.0
 11
80.35974177546348
 21
64.69721097906357
 31
0.0
  0
LINE
  5
1E99
330
21E3
100
AcDbEntity
  8
0
 62
     0
100
AcDbLine
 10
84.25105705079625
 20
59.36958505401474
 30
0.0
 11
79.60082047891245
 21
64.01982162589867
 31
0.0
  0
LINE
  5
1E9A
330
21E3
100
AcDbEntity
  8
0
 62
     0
100
AcDbLine
 10
79.45652219154289
 20
60.01529941821195
 30
0.0
 11
84.06184215303374
 21
64.6206193797027
 31
0.0
  0
LINE
  5
1E9B
330
21E3
100
AcDbEntity
  8
0
 62
     0
100
AcDbLine
 10
80.16349919062355
 20
59.2859657675765
 30
0.0
 11
84.79117580366921
 21
63.91364238062215
 31
0.0
  0
LINE
  5
1E9C
330
21E3
100
AcDbEntity
  8
0
 62
     0
100
AcDbLine
 10
85.40251062621235
 20
62.52706342774692
 30
0.0
 11
82.7582988526446
 21
65.17127520131463
 31
0.0
  0
LINE
  5
1E9D
330
21E3
100
AcDbEntity
  8
0
 62
     0
100
AcDbLine
 10
85.36196484591647
 20
61.13129855832671
 30
0.0
 11
81.36253398322446
 21
65.13072942101882
 31
0.0
  0
LINE
  5
1E9E
330
21E3
100
AcDbEntity
  8
0
 62
     0
100
AcDbLine
 10
82.54629929426801
 20
58.79614457178883
 30
0.0
 11
85.45071507078352
 21
61.70056034830437
 31
0.0
  0
LINE
  5
1E9F
330
21E3
100
AcDbEntity
  8
0
 62
     0
100
AcDbLine
 10
81.10998864455195
 20
58.79614457178883
 30
0.0
 11
85.28689385702717
 21
62.97304978426399
 31
0.0
  0
LINE
  5
1EA0
330
21E3
100
AcDbEntity
  8
0
100
AcDbLine
 10
78.74864238846868
 20
58.79614457178883
 30
0.0
 11
88.71114239145743
 21
58.79614457178883
 31
0.0
1001
ACAD
1000
ASC_BOUNDS
1002
{
1070
    19
1002
}
  0
ARC
  5
1EA2
330
21E3
100
AcDbEntity
  8
0
100
AcDbCircle
 10
84.71114239025736
 20
51.67426956965222
 30
0.0
 40
4.0000000012
100
AcDbArc
 50
270.0
 51
0.0
  0
LINE
  5
1EA3
330
21E3
100
AcDbEntity
  8
DIM
100
AcDbLine
 10
86.71114239085744
 20
65.1742695737023
 30
0.0
 11
88.71114239145748
 21
66.47089873679416
 31
0.0
  0
LINE
  5
1EA4
330
21E3
100
AcDbEntity
  8
DIM
100
AcDbLine
 10
86.71114239085744
 20
64.35763002262541
 30
0.0
 11
88.71114239145748
 21
65.65425918571719
 31
0.0
  0
LINE
  5
1EA5
330
21E3
100
AcDbEntity
  8
0
 62
     0
100
AcDbLine
 10
81.95187623359009
 20
58.79614457178883
 30
0.0
 11
78.85026491074945
 21
61.89775589462943
 31
0.0
  0
LINE
  5
1EA6
330
21E3
100
AcDbEntity
  8
0
 62
     0
100
AcDbLine
 10
83.34380554905436
 20
58.84052590604063
 30
0.0
 11
79.07176133093833
 21
63.11257012415666
 31
0.0
  0
LINE
  5
1EA7
330
21E3
100
AcDbEntity
  8
0
 62
     0
100
AcDbLine
 10
78.87216441237285
 20
62.30356293847396
 30
0.0
 11
81.74287104760111
 21
65.1742695737023
 31
0.0
  0
LINE
  5
1EA8
330
21E3
100
AcDbEntity
  8
0
 62
     0
100
AcDbLine
 10
78.98697131656541
 20
60.9820591929504
 30
0.0
 11
83.09508237829522
 21
65.09017025468029
 31
0.0
  0
LINE
  5
1EA9
330
21E3
100
AcDbEntity
  8
0
100
AcDbLine
 10
78.74864238846868
 20
71.55239457561569
 30
0.0
 11
88.71114239145754
 21
71.55239457561569
 31
0.0
  0
LINE
  5
1EAA
330
21E3
100
AcDbEntity
  8
0
100
AcDbLine
 10
88.71114239145743
 20
78.17426957760233
 30
0.0
 11
93.21114239280758
 21
78.17426957760216
 31
0.0
  0
LINE
  5
1EAB
330
21E3
100
AcDbEntity
  8
0
100
AcDbLine
 10
51.21114237870745
 20
47.6742695684523
 30
0.0
 11
84.71114239025736
 21
47.6742695684523
 31
0.0
  0
LINE
  5
1EAC
330
21E3
100
AcDbEntity
  8
0
100
AcDbLine
 10
51.21114237870745
 20
43.17426956710233
 30
0.0
 11
84.71114239025736
 21
43.17426956710217
 31
0.0
  0
LINE
  5
1EAD
330
21E3
100
AcDbEntity
  8
CENTER
  6
CENTER
100
AcDbLine
 10
61.21114238320746
 20
50.36430813485781
 30
0.0
 11
61.21114238320746
 21
39.77722801044011
 31
0.0
  0
LINE
  5
1EAE
330
21E3
100
AcDbEntity
  8
0
  6
HIDDEN
100
AcDbLine
 10
65.7111423845576
 20
47.6742695684523
 30
0.0
 11
65.7111423845576
 21
43.17426956710233
 31
0.0
  0
LINE
  5
1EAF
330
21E3
100
AcDbEntity
  8
0
  6
HIDDEN
100
AcDbLine
 10
56.71114238185748
 20
47.6742695684523
 30
0.0
 11
56.71114238185748
 21
43.17426956710233
 31
0.0
  0
LINE
  5
1EB0
330
21E3
100
AcDbEntity
  8
0
100
AcDbLine
 10
51.21114237870745
 20
47.6742695684523
 30
0.0
 11
51.21114237870745
 21
43.17426956710233
 31
0.0
  0
CIRCLE
  5
1EB8
330
21E3
100
AcDbEntity
  8
0
100
AcDbCircle
 10
301.6840424290993
 20
229.5671156508748
 30
0.0
 40
4.50000000135
  0
LINE
  5
1EB9
330
21E3
100
AcDbEntity
  8
CENTER
  6
CENTER
100
AcDbLine
 10
296.6840424275993
 20
229.5671156508748
 30
0.0
 11
306.6840424305993
 21
229.5671156508748
 31
0.0
  0
LINE
  5
1EBC
330
21E3
100
AcDbEntity
  8
CENTER
  6
CENTER
100
AcDbLine
 10
301.6840424290993
 20
224.5671156493748
 30
0.0
 11
301.6840424290993
 21
234.5671156523748
 31
0.0
  0
LINE
  5
1EBE
330
21E3
100
AcDbEntity
  8
DIM
100
AcDbLine
 10
276.1840424214494
 20
226.0671156498247
 30
0.0
 11
274.1840424208493
 21
227.3637448129166
 31
0.0
  0
LINE
  5
1EBF
330
21E3
100
AcDbEntity
  8
0
100
AcDbLine
 10
276.1840424214493
 20
232.4452406517381
 30
0.0
 11
276.1840424214494
 21
219.6889906479112
 31
0.0
  0
LINE
  5
1EC0
330
21E3
100
AcDbEntity
  8
0
100
AcDbLine
 10
284.1465424238381
 20
232.4452406517381
 30
0.0
 11
284.1465424238381
 21
219.6889906479112
 31
0.0
  0
LINE
  5
1EC1
330
21E3
100
AcDbEntity
  8
0
 62
     0
100
AcDbLine
 10
277.9667384083455
 20
221.0213524266882
 30
0.0
 11
282.5354430368434
 21
225.590057055186
 31
0.0
  0
LINE
  5
1EC2
330
21E3
100
AcDbEntity
  8
0
 62
     0
100
AcDbLine
 10
282.7316856216833
 20
220.1788118436989
 30
0.0
 11
278.1040090086376
 21
224.8064884567445
 31
0.0
  0
LINE
  5
1EC3
330
21E3
100
AcDbEntity
  8
0
 62
     0
100
AcDbLine
 10
277.4926741860945
 20
223.4199095038693
 30
0.0
 11
280.1368859596621
 21
226.064121277437
 31
0.0
  0
LINE
  5
1EC4
330
21E3
100
AcDbEntity
  8
0
 62
     0
100
AcDbLine
 10
277.5332199663903
 20
222.0241446344491
 30
0.0
 11
281.5326508290823
 21
226.0235754971412
 31
0.0
  0
LINE
  5
1EC5
330
21E3
100
AcDbEntity
  8
0
 62
     0
100
AcDbLine
 10
280.3488855180388
 20
219.6889906479112
 30
0.0
 11
277.4444697415233
 21
222.5934064244268
 31
0.0
  0
LINE
  5
1EC6
330
21E3
100
AcDbEntity
  8
0
 62
     0
100
AcDbLine
 10
281.7851961677549
 20
219.6889906479112
 30
0.0
 11
277.6082909552797
 21
223.8658958603864
 31
0.0
  0
LINE
  5
1EC7
330
21E3
100
AcDbEntity
  8
0
100
AcDbLine
 10
284.1465424238381
 20
219.6889906479112
 30
0.0
 11
274.1840424208494
 21
219.6889906479112
 31
0.0
1001
ACAD
1000
ASC_BOUNDS
1002
{
1070
    19
1002
}
  0
LINE
  5
1EC8
330
21E3
100
AcDbEntity
  8
DIM
100
AcDbLine
 10
276.1840424214494
 20
225.2504760987477
 30
0.0
 11
274.1840424208493
 21
226.5471052618396
 31
0.0
  0
LINE
  5
1EC9
330
21E3
100
AcDbEntity
  8
0
 62
     0
100
AcDbLine
 10
278.6441277615106
 20
220.2624311301371
 30
0.0
 11
283.2943643333944
 21
224.912667702021
 31
0.0
  0
LINE
  5
1ECA
330
21E3
100
AcDbEntity
  8
0
 62
     0
100
AcDbLine
 10
280.9433085787167
 20
219.6889906479112
 30
0.0
 11
284.0449199015574
 21
222.7906019707519
 31
0.0
  0
LINE
  5
1ECB
330
21E3
100
AcDbEntity
  8
0
 62
     0
100
AcDbLine
 10
279.5513792632525
 20
219.733371982163
 30
0.0
 11
283.8234234813685
 21
224.0054162002791
 31
0.0
  0
LINE
  5
1ECC
330
21E3
100
AcDbEntity
  8
0
 62
     0
100
AcDbLine
 10
284.023020399934
 20
223.1964090145964
 30
0.0
 11
281.1523137647057
 21
226.0671156498247
 31
0.0
  0
LINE
  5
1ECD
330
21E3
100
AcDbEntity
  8
0
 62
     0
100
AcDbLine
 10
283.9082134957414
 20
221.8749052690728
 30
0.0
 11
279.8001024340116
 21
225.9830163308027
 31
0.0
  0
LINE
  5
1ECE
330
21E3
100
AcDbEntity
  8
0
 62
     0
100
AcDbLine
 10
283.4386626207639
 20
220.9081454943343
 30
0.0
 11
278.8333426592731
 21
225.5134654558251
 31
0.0
  0
LINE
  5
1ECF
330
21E3
100
AcDbEntity
  8
0
100
AcDbLine
 10
284.1465424238381
 20
232.4452406517381
 30
0.0
 11
274.1840424208493
 21
232.4452406517381
 31
0.0
  0
LINE
  5
1ED0
330
21E3
100
AcDbEntity
  8
0
100
AcDbLine
 10
284.1465424238381
 20
289.4452406688381
 30
0.0
 11
284.1465424238381
 21
276.6889906650113
 31
0.0
  0
LINE
  5
1ED1
330
21E3
100
AcDbEntity
  8
0
100
AcDbLine
 10
276.1840424214493
 20
289.4452406688381
 30
0.0
 11
276.1840424214494
 21
276.6889906650113
 31
0.0
  0
LINE
  5
1ED2
330
21E3
100
AcDbEntity
  8
DIM
100
AcDbLine
 10
276.1840424214494
 20
283.0671156669247
 30
0.0
 11
274.1840424208493
 21
284.3637448300166
 31
0.0
  0
LINE
  5
1ED3
330
21E3
100
AcDbEntity
  8
0
 62
     0
100
AcDbLine
 10
283.4386626207639
 20
277.9081455114343
 30
0.0
 11
278.8333426592731
 21
282.5134654729252
 31
0.0
  0
LINE
  5
1ED4
330
21E3
100
AcDbEntity
  8
0
 62
     0
100
AcDbLine
 10
283.9082134957414
 20
278.8749052861729
 30
0.0
 11
279.8001024340116
 21
282.9830163479027
 31
0.0
  0
LINE
  5
1ED5
330
21E3
100
AcDbEntity
  8
0
 62
     0
100
AcDbLine
 10
284.023020399934
 20
280.1964090316964
 30
0.0
 11
281.1523137647057
 21
283.0671156669247
 31
0.0
  0
LINE
  5
1ED6
330
21E3
100
AcDbEntity
  8
0
 62
     0
100
AcDbLine
 10
279.5513792632525
 20
276.7333719992631
 30
0.0
 11
283.8234234813685
 21
281.0054162173791
 31
0.0
  0
LINE
  5
1ED7
330
21E3
100
AcDbEntity
  8
0
 62
     0
100
AcDbLine
 10
280.9433085787167
 20
276.6889906650113
 30
0.0
 11
284.0449199015574
 21
279.7906019878519
 31
0.0
  0
LINE
  5
1ED8
330
21E3
100
AcDbEntity
  8
0
 62
     0
100
AcDbLine
 10
278.6441277615106
 20
277.2624311472372
 30
0.0
 11
283.2943643333944
 21
281.9126677191211
 31
0.0
  0
LINE
  5
1ED9
330
21E3
100
AcDbEntity
  8
0
100
AcDbLine
 10
284.1465424238381
 20
276.6889906650113
 30
0.0
 11
274.1840424208494
 21
276.6889906650113
 31
0.0
1001
ACAD
1000
ASC_BOUNDS
1002
{
1070
    19
1002
}
  0
LINE
  5
1EDA
330
21E3
100
AcDbEntity
  8
0
 62
     0
100
AcDbLine
 10
282.7316856216833
 20
277.178811860799
 30
0.0
 11
278.1040090086376
 21
281.8064884738445
 31
0.0
  0
LINE
  5
1EDB
330
21E3
100
AcDbEntity
  8
DIM
100
AcDbLine
 10
276.1840424214494
 20
282.2504761158478
 30
0.0
 11
274.1840424208493
 21
283.5471052789397
 31
0.0
  0
LINE
  5
1EDC
330
21E3
100
AcDbEntity
  8
0
 62
     0
100
AcDbLine
 10
281.7851961677549
 20
276.6889906650113
 30
0.0
 11
277.6082909552797
 21
280.8658958774865
 31
0.0
  0
LINE
  5
1EDD
330
21E3
100
AcDbEntity
  8
0
 62
     0
100
AcDbLine
 10
280.3488855180388
 20
276.6889906650113
 30
0.0
 11
277.4444697415233
 21
279.5934064415268
 31
0.0
  0
LINE
  5
1EDE
330
21E3
100
AcDbEntity
  8
0
 62
     0
100
AcDbLine
 10
277.5332199663903
 20
279.0241446515492
 30
0.0
 11
281.5326508290823
 21
283.0235755142413
 31
0.0
  0
LINE
  5
1EDF
330
21E3
100
AcDbEntity
  8
0
 62
     0
100
AcDbLine
 10
277.4926741860945
 20
280.4199095209694
 30
0.0
 11
280.1368859596621
 21
283.0641212945371
 31
0.0
  0
LINE
  5
1EE0
330
21E3
100
AcDbEntity
  8
0
 62
     0
100
AcDbLine
 10
277.9667384083455
 20
278.0213524437882
 30
0.0
 11
282.5354430368434
 21
282.5900570722861
 31
0.0
  0
LINE
  5
1EE1
330
21E3
100
AcDbEntity
  8
0
100
AcDbLine
 10
284.1465424238381
 20
289.4452406688381
 30
0.0
 11
274.1840424208493
 21
289.4452406688381
 31
0.0
  0
LINE
  5
1EE2
330
21E3
100
AcDbEntity
  8
0
100
AcDbLine
 10
80.22154236266056
 20
289.4452406688381
 30
0.0
 11
90.18404236564936
 21
289.4452406688381
 31
0.0
  0
LINE
  5
1EE3
330
21E3
100
AcDbEntity
  8
0
 62
     0
100
AcDbLine
 10
81.63639916481542
 20
277.178811860799
 30
0.0
 11
86.26407577786109
 21
281.8064884738445
 31
0.0
  0
LINE
  5
1EE4
330
21E3
100
AcDbEntity
  8
0
100
AcDbLine
 10
80.22154236266056
 20
276.6889906650113
 30
0.0
 11
90.18404236564924
 21
276.6889906650113
 31
0.0
1001
ACAD
1000
ASC_BOUNDS
1002
{
1070
    19
1002
}
  0
LINE
  5
1EE5
330
21E3
100
AcDbEntity
  8
0
 62
     0
100
AcDbLine
 10
85.72395702498818
 20
277.2624311472372
 30
0.0
 11
81.07372045310432
 21
281.9126677191211
 31
0.0
  0
LINE
  5
1EE6
330
21E3
100
AcDbEntity
  8
0
 62
     0
100
AcDbLine
 10
83.42477620778197
 20
276.6889906650113
 30
0.0
 11
80.32316488494132
 21
279.7906019878519
 31
0.0
  0
LINE
  5
1EE7
330
21E3
100
AcDbEntity
  8
0
 62
     0
100
AcDbLine
 10
84.81670552324624
 20
276.7333719992631
 30
0.0
 11
80.54466130513015
 21
281.0054162173791
 31
0.0
  0
LINE
  5
1EE8
330
21E3
100
AcDbEntity
  8
0
 62
     0
100
AcDbLine
 10
80.34506438656467
 20
280.1964090316964
 30
0.0
 11
83.21577102179299
 21
283.0671156669247
 31
0.0
  0
LINE
  5
1EE9
330
21E3
100
AcDbEntity
  8
0
 62
     0
100
AcDbLine
 10
80.45987129075729
 20
278.8749052861729
 30
0.0
 11
84.5679823524871
 21
282.9830163479027
 31
0.0
  0
LINE
  5
1EEA
330
21E3
100
AcDbEntity
  8
0
 62
     0
100
AcDbLine
 10
80.92942216573476
 20
277.9081455114343
 30
0.0
 11
85.53474212722562
 21
282.5134654729252
 31
0.0
  0
LINE
  5
1EEB
330
21E3
100
AcDbEntity
  8
0
100
AcDbLine
 10
88.18404236504932
 20
289.4452406688381
 30
0.0
 11
88.18404236504921
 21
276.6889906650113
 31
0.0
  0
LINE
  5
1EEC
330
21E3
100
AcDbEntity
  8
0
 62
     0
100
AcDbLine
 10
86.40134637815322
 20
278.0213524437882
 30
0.0
 11
81.83264174965529
 21
282.5900570722861
 31
0.0
  0
LINE
  5
1EED
330
21E3
100
AcDbEntity
  8
0
 62
     0
100
AcDbLine
 10
86.87541060040416
 20
280.4199095209694
 30
0.0
 11
84.23119882683648
 21
283.0641212945371
 31
0.0
  0
LINE
  5
1EEE
330
21E3
100
AcDbEntity
  8
0
 62
     0
100
AcDbLine
 10
86.83486482010835
 20
279.0241446515492
 30
0.0
 11
82.83543395741629
 21
283.0235755142413
 31
0.0
  0
LINE
  5
1EEF
330
21E3
100
AcDbEntity
  8
0
 62
     0
100
AcDbLine
 10
84.01919926845982
 20
276.6889906650113
 30
0.0
 11
86.92361504497545
 21
279.5934064415268
 31
0.0
  0
LINE
  5
1EF0
330
21E3
100
AcDbEntity
  8
0
 62
     0
100
AcDbLine
 10
82.58288861874381
 20
276.6889906650113
 30
0.0
 11
86.75979383121898
 21
280.8658958774865
 31
0.0
  0
LINE
  5
1EF1
330
21E3
100
AcDbEntity
  8
DIM
100
AcDbLine
 10
88.18404236504932
 20
282.2504761158478
 30
0.0
 11
90.18404236564936
 21
283.5471052789397
 31
0.0
  0
LINE
  5
1EF2
330
21E3
100
AcDbEntity
  8
DIM
100
AcDbLine
 10
88.18404236504932
 20
283.0671156669247
 30
0.0
 11
90.18404236564936
 21
284.3637448300166
 31
0.0
  0
LINE
  5
1EF3
330
21E3
100
AcDbEntity
  8
CENTER
  6
CENTER
100
AcDbLine
 10
67.68404235889931
 20
279.5671156658747
 30
0.0
 11
57.68404235589935
 21
279.5671156658747
 31
0.0
  0
LINE
  5
1EF4
330
21E3
100
AcDbEntity
  8
0
100
AcDbLine
 10
80.22154236266056
 20
289.4452406688381
 30
0.0
 11
80.22154236266056
 21
276.6889906650113
 31
0.0
  0
ARC
  5
1EF6
330
21E3
100
AcDbEntity
  8
0
100
AcDbCircle
 10
55.68404235379933
 20
289.5671156688747
 30
0.0
 40
3.000000000899999
100
AcDbArc
 50
90.0
 51
180.0
  0
LINE
  5
1EF7
330
21E3
100
AcDbEntity
  8
0
100
AcDbLine
 10
80.22154236266056
 20
232.4452406517381
 30
0.0
 11
80.22154236266056
 21
219.6889906479112
 31
0.0
  0
LINE
  5
1EF8
330
21E3
100
AcDbEntity
  8
0
100
AcDbLine
 10
88.18404236504932
 20
232.4452406517381
 30
0.0
 11
88.18404236504921
 21
219.6889906479112
 31
0.0
  0
LINE
  5
1EF9
330
21E3
100
AcDbEntity
  8
DIM
100
AcDbLine
 10
88.18404236504932
 20
226.0671156498247
 30
0.0
 11
90.18404236564936
 21
227.3637448129166
 31
0.0
  0
CIRCLE
  5
1EFA
330
21E3
100
AcDbEntity
  8
0
100
AcDbCircle
 10
62.68404235739933
 20
229.5671156508748
 30
0.0
 40
4.50000000135
  0
LINE
  5
1EFB
330
21E3
100
AcDbEntity
  8
0
 62
     0
100
AcDbLine
 10
80.92942216573476
 20
220.9081454943343
 30
0.0
 11
85.53474212722562
 21
225.5134654558251
 31
0.0
  0
LINE
  5
1EFC
330
21E3
100
AcDbEntity
  8
0
 62
     0
100
AcDbLine
 10
80.45987129075729
 20
221.8749052690728
 30
0.0
 11
84.5679823524871
 21
225.9830163308027
 31
0.0
  0
LINE
  5
1EFD
330
21E3
100
AcDbEntity
  8
0
 62
     0
100
AcDbLine
 10
80.34506438656467
 20
223.1964090145964
 30
0.0
 11
83.21577102179299
 21
226.0671156498247
 31
0.0
  0
LINE
  5
1EFE
330
21E3
100
AcDbEntity
  8
0
 62
     0
100
AcDbLine
 10
84.81670552324624
 20
219.733371982163
 30
0.0
 11
80.54466130513015
 21
224.0054162002791
 31
0.0
  0
LINE
  5
1EFF
330
21E3
100
AcDbEntity
  8
0
 62
     0
100
AcDbLine
 10
83.42477620778197
 20
219.6889906479112
 30
0.0
 11
80.32316488494132
 21
222.7906019707519
 31
0.0
  0
LINE
  5
1F00
330
21E3
100
AcDbEntity
  8
0
 62
     0
100
AcDbLine
 10
85.72395702498818
 20
220.2624311301371
 30
0.0
 11
81.07372045310432
 21
224.912667702021
 31
0.0
  0
LINE
  5
1F01
330
21E3
100
AcDbEntity
  8
0
100
AcDbLine
 10
80.22154236266056
 20
219.6889906479112
 30
0.0
 11
90.18404236564924
 21
219.6889906479112
 31
0.0
1001
ACAD
1000
ASC_BOUNDS
1002
{
1070
    19
1002
}
  0
LINE
  5
1F02
330
21E3
100
AcDbEntity
  8
0
 62
     0
100
AcDbLine
 10
81.63639916481542
 20
220.1788118436989
 30
0.0
 11
86.26407577786109
 21
224.8064884567445
 31
0.0
  0
LINE
  5
1F03
330
21E3
100
AcDbEntity
  8
DIM
100
AcDbLine
 10
88.18404236504932
 20
225.2504760987477
 30
0.0
 11
90.18404236564936
 21
226.5471052618396
 31
0.0
  0
LINE
  5
1F04
330
21E3
100
AcDbEntity
  8
0
 62
     0
100
AcDbLine
 10
82.58288861874381
 20
219.6889906479112
 30
0.0
 11
86.75979383121898
 21
223.8658958603864
 31
0.0
  0
LINE
  5
1F05
330
21E3
100
AcDbEntity
  8
0
 62
     0
100
AcDbLine
 10
84.01919926845982
 20
219.6889906479112
 30
0.0
 11
86.92361504497545
 21
222.5934064244268
 31
0.0
  0
LINE
  5
1F06
330
21E3
100
AcDbEntity
  8
0
 62
     0
100
AcDbLine
 10
86.83486482010835
 20
222.0241446344491
 30
0.0
 11
82.83543395741629
 21
226.0235754971412
 31
0.0
  0
LINE
  5
1F07
330
21E3
100
AcDbEntity
  8
0
 62
     0
100
AcDbLine
 10
86.87541060040416
 20
223.4199095038693
 30
0.0
 11
84.23119882683648
 21
226.064121277437
 31
0.0
  0
LINE
  5
1F08
330
21E3
100
AcDbEntity
  8
0
 62
     0
100
AcDbLine
 10
86.40134637815322
 20
221.0213524266882
 30
0.0
 11
81.83264174965529
 21
225.590057055186
 31
0.0
  0
ARC
  5
1F09
330
21E3
100
AcDbEntity
  8
0
100
AcDbCircle
 10
55.68404235379933
 20
219.5671156478747
 30
0.0
 40
3.000000000899999
100
AcDbArc
 50
180.0
 51
270.0
  0
LINE
  5
1F0A
330
21E3
100
AcDbEntity
  8
0
100
AcDbLine
 10
80.22154236266056
 20
232.4452406517381
 30
0.0
 11
90.18404236564936
 21
232.4452406517381
 31
0.0
  0
LINE
  5
1F0B
330
21E3
100
AcDbEntity
  8
CENTER
  6
CENTER
100
AcDbLine
 10
67.68404235889931
 20
229.5671156508748
 30
0.0
 11
57.68404235589935
 21
229.5671156508748
 31
0.0
  0
LINE
  5
1F0D
330
21E3
100
AcDbEntity
  8
0
100
AcDbLine
 10
52.68404235289938
 20
289.5671156688747
 30
0.0
 11
52.68404235289938
 21
219.5671156478747
 31
0.0
  0
LINE
  5
1F0E
330
21E3
100
AcDbEntity
  8
CENTER
  6
CENTER
100
AcDbLine
 10
62.68404235739933
 20
224.5671156493748
 30
0.0
 11
62.68404235739933
 21
234.5671156523748
 31
0.0
  0
CIRCLE
  5
1F0F
330
21E3
100
AcDbEntity
  8
0
100
AcDbCircle
 10
62.68404235739933
 20
279.5671156658747
 30
0.0
 40
4.50000000135
  0
LINE
  5
1F10
330
21E3
100
AcDbEntity
  8
CENTER
  6
CENTER
100
AcDbLine
 10
62.68404235739933
 20
284.5671156673747
 30
0.0
 11
62.68404235739933
 21
274.5671156643747
 31
0.0
  0
LINE
  5
1F11
330
21E3
100
AcDbEntity
  8
0
100
AcDbLine
 10
55.68404235379933
 20
292.5671156697747
 30
0.0
 11
94.68404236699928
 21
292.5671156697747
 31
0.0
  0
LINE
  5
1F12
330
21E3
100
AcDbEntity
  8
0
100
AcDbLine
 10
90.18404236564936
 20
292.5671156697747
 30
0.0
 11
90.18404236564936
 21
216.5671156469747
 31
0.0
  0
LINE
  5
1F13
330
21E3
100
AcDbEntity
  8
0
100
AcDbLine
 10
55.68404235379933
 20
216.5671156469747
 30
0.0
 11
94.68404236699928
 21
216.5671156469747
 31
0.0
  0
LINE
  5
1F1E
330
21E3
100
AcDbEntity
  8
DIM
  6
CONTINUOUS
 62
     5
100
AcDbLine
 10
308.1126138595994
 20
279.5671156658747
 30
0.0
 11
327.2770492256313
 21
279.5671156658747
 31
0.0
  0
LINE
  5
1F1F
330
21E3
100
AcDbEntity
  8
DIM
  6
CONTINUOUS
 62
     5
100
AcDbLine
 10
308.1126138595994
 20
229.5671156508748
 30
0.0
 11
327.2770492256313
 21
229.5671156508748
 31
0.0
  0
LINE
  5
1F20
330
21E3
100
AcDbEntity
  8
DIM
  6
CONTINUOUS
 62
     5
100
AcDbLine
 10
324.4199063676313
 20
275.2814013788746
 30
0.0
 11
324.4199063676313
 21
233.8528299378748
 31
0.0
  0
SOLID
  5
1F21
330
21E3
100
AcDbEntity
  8
DIM
  6
CONTINUOUS
 62
     5
100
AcDbTrace
 10
323.7056206531312
 20
275.2814013788746
 30
0.0
 11
325.1341920821313
 21
275.2814013788746
 31
0.0
 12
324.4199063676313
 22
279.5671156658747
 32
0.0
 13
324.4199063676313
 23
279.5671156658747
 33
0.0
  0
SOLID
  5
1F22
330
21E3
100
AcDbEntity
  8
DIM
  6
CONTINUOUS
 62
     5
100
AcDbTrace
 10
323.7056206531312
 20
233.8528299378748
 30
0.0
 11
325.1341920821313
 21
233.8528299378748
 31
0.0
 12
324.4199063676313
 22
229.5671156508748
 32
0.0
 13
324.4199063676313
 23
229.5671156508748
 33
0.0
  0
TEXT
  5
1F23
330
21E3
100
AcDbEntity
  8
DIM
  6
CONTINUOUS
 62
     5
100
AcDbText
 10
322.3484777951313
 20
252.1385442298033
 30
0.0
 40
3.0
  1
50
 50
89.99999999999998
100
AcDbText
  0
SOLID
  5
1F4C
330
21E3
100
AcDbEntity
  8
DIM
  6
CONTINUOUS
 62
     5
100
AcDbTrace
 10
-298.6411844785068
 20
286.4601325417911
 30
0.0
 11
-300.009572860239
 21
283.7439747340155
 31
0.0
 12
-297.8342353722948
 22
285.8695115635118
 32
0.0
 13
-297.8342353722948
 23
285.8695115635118
 33
0.0
210
0.0
220
0.0
230
-1.0
  0
POLYLINE
  5
2169
330
21E3
100
AcDbEntity
  8
DIM
  6
CONTINUOUS
 62
     5
100
AcDb3dPolyline
 66
     1
 10
0.0
 20
0.0
 30
0.0
 70
     8
1001
ACAD
1000
R13OBJECT
1002
{
1005
1F4C
1002
}
  0
VERTEX
  5
216A
330
2169
100
AcDbEntity
  8
DIM
  6
CONTINUOUS
 62
     5
100
AcDbVertex
100
AcDb3dPolylineVertex
 10
298.2377099254008
 20
286.1648220526514
 30
0.0
 70
    32
1001
ACAD
1000
R13OBJECT
1002
{
1005
1F4C
1002
}
  0
VERTEX
  5
216B
330
2169
100
AcDbEntity
  8
DIM
  6
CONTINUOUS
 62
     5
100
AcDbVertex
100
AcDb3dPolylineVertex
 10
289.2951553143028
 20
298.3827870692336
 30
0.0
 70
    32
1001
ACAD
1000
R13OBJECT
1002
{
1005
1F4C
1002
}
  0
SEQEND
  5
216C
330
2169
100
AcDbEntity
  8
DIM
  6
CONTINUOUS
 62
     5
  0
POLYLINE
  5
216D
330
21E3
100
AcDbEntity
  8
DIM
  6
CONTINUOUS
 62
     5
100
AcDb3dPolyline
 66
     1
 10
0.0
 20
0.0
 30
0.0
 70
     8
1001
ACAD
1000
R13OBJECT
1002
{
1005
1F4C
1002
}
  0
VERTEX
  5
216E
330
216D
100
AcDbEntity
  8
DIM
  6
CONTINUOUS
 62
     5
100
AcDbVertex
100
AcDb3dPolylineVertex
 10
289.2951553143028
 20
298.3827870692336
 30
0.0
 70
    32
1001
ACAD
1000
R13OBJECT
1002
{
1005
1F4C
1002
}
  0
VERTEX
  5
216F
330
216D
100
AcDbEntity
  8
DIM
  6
CONTINUOUS
 62
     5
100
AcDbVertex
100
AcDb3dPolylineVertex
 10
276.4880572468971
 20
298.3827870692336
 30
0.0
 70
    32
1001
ACAD
1000
R13OBJECT
1002
{
1005
1F4C
1002
}
  0
SEQEND
  5
2170
330
216D
100
AcDbEntity
  8
DIM
  6
CONTINUOUS
 62
     5
  0
TEXT
  5
1F4D
330
21E3
100
AcDbEntity
  8
DIM
 62
     5
100
AcDbText
 10
276.5346661974728
 20
299.3670807110366
 30
0.0
 40
3.0
  1
4-%%C9
  7
CHINESET
100
AcDbText
  0
LINE
  5
1F64
330
21E3
100
AcDbEntity
  8
0
  6
CONTINUOUS
100
AcDbLine
 10
104.0111423960475
 20
74.17426957640221
 30
0.0
 11
93.21114239280758
 21
74.17426957640222
 31
0.0
  0
LINE
  5
1F65
330
21E3
100
AcDbEntity
  8
0
  6
CONTINUOUS
100
AcDbLine
 10
104.0111423960475
 20
56.17426957100227
 30
0.0
 11
93.21114239280746
 21
56.17426957100227
 31
0.0
  0
LINE
  5
1F6A
330
21E3
100
AcDbEntity
  8
0
100
AcDbLine
 10
113.2111423988078
 20
104.1242695737022
 30
0.0
 11
248.2111424130574
 21
104.1242695737023
 31
0.0
1001
ACAD
1000
ASC_BOUNDS
1002
{
1070
    19
1002
}
  0
LINE
  5
1F6B
330
21E3
100
AcDbEntity
  8
0
100
AcDbLine
 10
113.2111423988078
 20
100.7242695737022
 30
0.0
 11
248.2111424130574
 21
100.7242695737023
 31
0.0
1001
ACAD
1000
ASC_BOUNDS
1002
{
1070
    19
1002
}
  0
LINE
  5
1F6C
330
21E3
100
AcDbEntity
  8
0
100
AcDbLine
 10
113.2111423988078
 20
86.1242695737023
 30
0.0
 11
248.2111424130574
 21
86.12426957370237
 31
0.0
1001
ACAD
1000
ASC_BOUNDS
1002
{
1070
    19
1002
}
  0
LINE
  5
1F6D
330
21E3
100
AcDbEntity
  8
0
100
AcDbLine
 10
113.2111423988078
 20
82.7242695737023
 30
0.0
 11
248.2111424130574
 21
82.72426957370237
 31
0.0
1001
ACAD
1000
ASC_BOUNDS
1002
{
1070
    19
1002
}
  0
DIMENSION
  5
1F82
330
21E3
100
AcDbEntity
  8
DIM
100
AcDbDimension
  2
*D9
 10
93.21114239280742
 20
33.1259528300983
 30
0.0
 11
180.7111424059324
 21
36.1259528300983
 31
0.0
 70
    32
  3
STANDARD
100
AcDbAlignedDimension
 13
268.2111424190575
 23
53.81030853961442
 33
0.0
 14
93.21114239280742
 24
53.81030853961437
 34
0.0
100
AcDbRotatedDimension
1001
ACAD
1000
DSTYLE
1002
{
1070
   340
1005
1F73
1002
}
  0
DIMENSION
  5
1F9A
330
21E3
100
AcDbEntity
  8
DIM
100
AcDbDimension
  2
*D8
 10
61.21114238320745
 20
23.05463234055082
 30
0.0
 11
180.7111424059324
 21
26.05492761614137
 31
0.0
 70
    32
  3
STANDARD
100
AcDbAlignedDimension
 13
300.2111424286575
 23
39.52722800189013
 33
0.0
 14
61.21114238320745
 24
39.77722801044011
 34
0.0
100
AcDbRotatedDimension
  0
DIMENSION
  5
1FA7
330
21E3
100
AcDbEntity
  8
DIM
100
AcDbDimension
  2
*D7
 10
189.2111423953575
 20
179.8259820810482
 30
0.0
 11
180.7111423928075
 21
182.8259820810482
 31
0.0
 70
    32
  1
{%%c<>}
  3
STANDARD
100
AcDbAlignedDimension
 13
172.2111423902575
 23
171.1242695970124
 33
0.0
 14
189.2111423953575
 24
171.1242695970124
 34
0.0
100
AcDbRotatedDimension
  0
DIMENSION
  5
1FB4
330
21E3
100
AcDbEntity
  8
DIM
100
AcDbDimension
  2
*D6
 10
165.7111423883074
 20
186.9424937470519
 30
0.0
 11
180.7111423928075
 21
189.9424937470519
 31
0.0
 70
    32
  1
{%%c<>}
  3
STANDARD
100
AcDbAlignedDimension
 13
195.7111423973075
 23
133.3242695856721
 33
0.0
 14
165.7111423883074
 24
133.3242695856723
 34
0.0
100
AcDbRotatedDimension
  0
DIMENSION
  5
201B
330
21E3
100
AcDbEntity
  8
DIM
100
AcDbDimension
  2
*D5
 10
206.7938264777146
 20
167.1242695958123
 30
0.0
 11
204.1454683205251
 21
176.2423102797473
 31
0.0
 70
   160
  3
STANDARD
100
AcDbAlignedDimension
 13
188.2111423950575
 23
172.1242695973124
 33
0.0
 14
180.7111423928075
 24
167.1242695958124
 34
0.0
 50
90.0
100
AcDbRotatedDimension
  0
DIMENSION
  5
2028
330
21E3
100
AcDbEntity
  8
DIM
100
AcDbDimension
  2
*D11
 10
206.7938264777146
 20
137.1242695868124
 30
0.0
 11
203.7938264777146
 21
152.1242695913125
 31
0.0
 70
    32
  3
STANDARD
100
AcDbAlignedDimension
 13
180.7111423928075
 23
167.1242695958124
 33
0.0
 14
180.7111423928075
 24
137.1242695868124
 34
0.0
 50
90.0
100
AcDbRotatedDimension
  0
CIRCLE
  5
2044
330
21E3
100
AcDbEntity
  8
DIM
100
AcDbCircle
 10
180.7111423928075
 20
254.5671156583747
 30
0.0
 40
8.5
  0
CIRCLE
  5
2045
330
21E3
100
AcDbEntity
  8
DIM
100
AcDbCircle
 10
180.7111423928075
 20
254.5671156583747
 30
0.0
 40
15.0
  0
CIRCLE
  5
2046
330
21E3
100
AcDbEntity
  8
DIM
100
AcDbCircle
 10
180.7111423928075
 20
254.5671156583747
 30
0.0
 40
29.0
  0
LINE
  5
2048
330
21E3
100
AcDbEntity
  8
CENTER
  6
CENTER
100
AcDbLine
 10
156.3159584418717
 20
230.1719317074388
 30
0.0
 11
205.1063263437435
 21
278.9622996093106
 31
0.0
  0
LINE
  5
2049
330
21E3
100
AcDbEntity
  8
CENTER
  6
CENTER
100
AcDbLine
 10
205.1063263437435
 20
230.1719317074388
 30
0.0
 11
156.3159584418717
 21
278.9622996093106
 31
0.0
  0
CIRCLE
  5
204A
330
21E3
100
AcDbEntity
  8
CENTER
  6
CENTER
100
AcDbCircle
 10
180.7111423928075
 20
254.5671156583747
 30
0.0
 40
25.0
  0
ARC
  5
204B
330
21E3
100
AcDbEntity
  8
DIM
100
AcDbCircle
 10
198.3888119224712
 20
272.2447851880384
 30
0.0
 40
4.0
100
AcDbArc
 50
135.0
 51
315.0000000000003
  0
LINE
  5
204D
330
21E3
100
AcDbEntity
  8
DIM
100
AcDbLine
 10
157.3766186136515
 20
236.889446128711
 30
0.0
 11
157.5726192564714
 21
237.085446771531
 31
0.0
  0
LINE
  5
204E
330
21E3
100
AcDbEntity
  8
DIM
100
AcDbLine
 10
163.0334728631438
 20
231.2325918792186
 30
0.0
 11
163.2294735059638
 21
231.4285925220386
 31
0.0
  0
LINE
  5
204F
330
21E3
100
AcDbEntity
  8
DIM
100
AcDbLine
 10
195.560384797725
 20
275.0732123127846
 30
0.0
 11
198.1928112796513
 21
277.7056387947108
 31
0.0
  0
LINE
  5
2050
330
21E3
100
AcDbEntity
  8
DIM
100
AcDbLine
 10
201.2172390472174
 20
269.4163580632922
 30
0.0
 11
203.8496655291436
 21
272.0487845452185
 31
0.0
  0
ARC
  5
2051
330
21E3
100
AcDbEntity
  8
DIM
100
AcDbCircle
 10
163.0334728631439
 20
272.2447851880384
 30
0.0
 40
4.0
100
AcDbArc
 50
225.0
 51
45.00000000000031
  0
LINE
  5
2052
330
21E3
100
AcDbEntity
  8
DIM
100
AcDbLine
 10
160.2050457383977
 20
269.4163580632921
 30
0.0
 11
157.5726192564714
 21
272.0487845452184
 31
0.0
  0
LINE
  5
2053
330
21E3
100
AcDbEntity
  8
DIM
100
AcDbLine
 10
165.86189998789
 20
275.0732123127845
 30
0.0
 11
163.2294735059638
 21
277.7056387947108
 31
0.0
  0
ARC
  5
2054
330
21E3
100
AcDbEntity
  8
DIM
100
AcDbCircle
 10
163.0334728631439
 20
236.889446128711
 30
0.0
 40
4.0
100
AcDbArc
 50
315.0
 51
135.0000000000003
  0
LINE
  5
2055
330
21E3
100
AcDbEntity
  8
DIM
100
AcDbLine
 10
165.8618999878901
 20
234.0610190039648
 30
0.0
 11
163.2294735059639
 21
231.4285925220386
 31
0.0
  0
LINE
  5
2056
330
21E3
100
AcDbEntity
  8
DIM
100
AcDbLine
 10
160.2050457383977
 20
239.7178732534572
 30
0.0
 11
157.5726192564715
 21
237.085446771531
 31
0.0
  0
ARC
  5
2057
330
21E3
100
AcDbEntity
  8
DIM
100
AcDbCircle
 10
198.3888119224712
 20
236.889446128711
 30
0.0
 40
4.0
100
AcDbArc
 50
45.0
 51
225.0000000000003
  0
LINE
  5
2058
330
21E3
100
AcDbEntity
  8
DIM
100
AcDbLine
 10
201.2172390472174
 20
239.7178732534573
 30
0.0
 11
203.8496655291437
 21
237.085446771531
 31
0.0
  0
LINE
  5
2059
330
21E3
100
AcDbEntity
  8
DIM
100
AcDbLine
 10
195.5603847977251
 20
234.0610190039649
 30
0.0
 11
198.1928112796513
 21
231.4285925220387
 31
0.0
  0
CIRCLE
  5
205A
330
21E3
100
AcDbEntity
  8
DIM
100
AcDbCircle
 10
198.3888119224712
 20
272.2447851880384
 30
0.0
 40
2.25
  0
CIRCLE
  5
205B
330
21E3
100
AcDbEntity
  8
DIM
100
AcDbCircle
 10
163.0334728631438
 20
272.2447851880384
 30
0.0
 40
2.25
  0
CIRCLE
  5
205C
330
21E3
100
AcDbEntity
  8
DIM
100
AcDbCircle
 10
163.0334728631438
 20
236.889446128711
 30
0.0
 40
2.25
  0
CIRCLE
  5
205D
330
21E3
100
AcDbEntity
  8
DIM
100
AcDbCircle
 10
198.3888119224712
 20
236.889446128711
 30
0.0
 40
2.25
  0
LINE
  5
205E
330
21E3
100
AcDbEntity
  8
0
100
AcDbLine
 10
177.7111423919075
 20
243.5671156583747
 30
0.0
 11
183.7111423937075
 21
243.5671156583747
 31
0.0
  0
LINE
  5
205F
330
21E3
100
AcDbEntity
  8
DIM
100
AcDbLine
 10
177.7111423919075
 20
243.5671156583747
 30
0.0
 11
177.7111423919075
 21
246.6141287984207
 31
0.0
  0
LINE
  5
2062
330
21E3
100
AcDbEntity
  8
DIM
100
AcDbLine
 10
183.7111423937075
 20
243.5671156583747
 30
0.0
 11
183.7111423937075
 21
246.6141287984207
 31
0.0
  0
CIRCLE
  5
2068
330
21E3
100
AcDbEntity
  8
DIM
100
AcDbCircle
 10
150.7111423928075
 20
284.5671156583747
 30
0.0
 40
5.0
  0
CIRCLE
  5
2069
330
21E3
100
AcDbEntity
  8
DIM
100
AcDbCircle
 10
150.7111423928075
 20
284.5671156583747
 30
0.0
 40
4.25
  0
CIRCLE
  5
206A
330
21E3
100
AcDbEntity
  8
DIM
100
AcDbCircle
 10
150.7111423928075
 20
224.5671156583747
 30
0.0
 40
4.25
  0
CIRCLE
  5
206B
330
21E3
100
AcDbEntity
  8
DIM
100
AcDbCircle
 10
150.7111423928075
 20
224.5671156583747
 30
0.0
 40
5.0
  0
CIRCLE
  5
206C
330
21E3
100
AcDbEntity
  8
DIM
100
AcDbCircle
 10
210.7111423928075
 20
224.5671156583747
 30
0.0
 40
5.0
  0
CIRCLE
  5
206D
330
21E3
100
AcDbEntity
  8
DIM
100
AcDbCircle
 10
210.7111423928075
 20
224.5671156583747
 30
0.0
 40
4.25
  0
CIRCLE
  5
206E
330
21E3
100
AcDbEntity
  8
DIM
100
AcDbCircle
 10
210.7111423928075
 20
284.5671156583747
 30
0.0
 40
4.25
  0
CIRCLE
  5
206F
330
21E3
100
AcDbEntity
  8
DIM
100
AcDbCircle
 10
210.7111423928075
 20
284.5671156583747
 30
0.0
 40
5.0
  0
LINE
  5
2074
330
21E3
100
AcDbEntity
  8
CENTER
  6
CENTER
100
AcDbLine
 10
209.7111423928075
 20
284.5671156583747
 30
0.0
 11
211.7111423928075
 21
284.5671156583747
 31
0.0
  0
LINE
  5
2075
330
21E3
100
AcDbEntity
  8
CENTER
  6
CENTER
100
AcDbLine
 10
210.7111423928075
 20
283.5671156583747
 30
0.0
 11
210.7111423928075
 21
285.5671156583747
 31
0.0
  0
LINE
  5
2076
330
21E3
100
AcDbEntity
  8
CENTER
  6
CENTER
100
AcDbLine
 10
208.7111423928075
 20
284.5671156583747
 30
0.0
 11
204.7111423928075
 21
284.5671156583747
 31
0.0
  0
LINE
  5
2077
330
21E3
100
AcDbEntity
  8
CENTER
  6
CENTER
100
AcDbLine
 10
212.7111423928075
 20
284.5671156583747
 30
0.0
 11
216.7111423928075
 21
284.5671156583747
 31
0.0
  0
LINE
  5
2078
330
21E3
100
AcDbEntity
  8
CENTER
  6
CENTER
100
AcDbLine
 10
210.7111423928075
 20
282.5671156583747
 30
0.0
 11
210.7111423928075
 21
278.5671156583747
 31
0.0
  0
LINE
  5
2079
330
21E3
100
AcDbEntity
  8
CENTER
  6
CENTER
100
AcDbLine
 10
210.7111423928075
 20
286.5671156583747
 30
0.0
 11
210.7111423928075
 21
290.5671156583747
 31
0.0
  0
LINE
  5
207A
330
21E3
100
AcDbEntity
  8
CENTER
  6
CENTER
100
AcDbLine
 10
149.7111423928075
 20
284.5671156583747
 30
0.0
 11
151.7111423928075
 21
284.5671156583747
 31
0.0
  0
LINE
  5
207B
330
21E3
100
AcDbEntity
  8
CENTER
  6
CENTER
100
AcDbLine
 10
150.7111423928075
 20
283.5671156583747
 30
0.0
 11
150.7111423928075
 21
285.5671156583747
 31
0.0
  0
LINE
  5
207C
330
21E3
100
AcDbEntity
  8
CENTER
  6
CENTER
100
AcDbLine
 10
148.7111423928075
 20
284.5671156583747
 30
0.0
 11
145.4611423928075
 21
284.5671156583747
 31
0.0
  0
LINE
  5
207D
330
21E3
100
AcDbEntity
  8
CENTER
  6
CENTER
100
AcDbLine
 10
152.7111423928075
 20
284.5671156583747
 30
0.0
 11
155.9611423928075
 21
284.5671156583747
 31
0.0
  0
LINE
  5
207E
330
21E3
100
AcDbEntity
  8
CENTER
  6
CENTER
100
AcDbLine
 10
150.7111423928075
 20
282.5671156583747
 30
0.0
 11
150.7111423928075
 21
279.3171156583747
 31
0.0
  0
LINE
  5
207F
330
21E3
100
AcDbEntity
  8
CENTER
  6
CENTER
100
AcDbLine
 10
150.7111423928075
 20
286.5671156583747
 30
0.0
 11
150.7111423928075
 21
289.8171156583747
 31
0.0
  0
LINE
  5
2080
330
21E3
100
AcDbEntity
  8
CENTER
  6
CENTER
100
AcDbLine
 10
149.7111423928075
 20
224.5671156583747
 30
0.0
 11
151.7111423928075
 21
224.5671156583747
 31
0.0
  0
LINE
  5
2081
330
21E3
100
AcDbEntity
  8
CENTER
  6
CENTER
100
AcDbLine
 10
150.7111423928075
 20
223.5671156583747
 30
0.0
 11
150.7111423928075
 21
225.5671156583747
 31
0.0
  0
LINE
  5
2082
330
21E3
100
AcDbEntity
  8
CENTER
  6
CENTER
100
AcDbLine
 10
148.7111423928075
 20
224.5671156583747
 30
0.0
 11
144.7111423928075
 21
224.5671156583747
 31
0.0
  0
LINE
  5
2083
330
21E3
100
AcDbEntity
  8
CENTER
  6
CENTER
100
AcDbLine
 10
152.7111423928075
 20
224.5671156583747
 30
0.0
 11
156.7111423928075
 21
224.5671156583747
 31
0.0
  0
LINE
  5
2084
330
21E3
100
AcDbEntity
  8
CENTER
  6
CENTER
100
AcDbLine
 10
150.7111423928075
 20
222.5671156583747
 30
0.0
 11
150.7111423928075
 21
218.5671156583747
 31
0.0
  0
LINE
  5
2085
330
21E3
100
AcDbEntity
  8
CENTER
  6
CENTER
100
AcDbLine
 10
150.7111423928075
 20
226.5671156583747
 30
0.0
 11
150.7111423928075
 21
230.5671156583747
 31
0.0
  0
LINE
  5
2086
330
21E3
100
AcDbEntity
  8
CENTER
  6
CENTER
100
AcDbLine
 10
209.7111423928075
 20
224.5671156583747
 30
0.0
 11
211.7111423928075
 21
224.5671156583747
 31
0.0
  0
LINE
  5
2087
330
21E3
100
AcDbEntity
  8
CENTER
  6
CENTER
100
AcDbLine
 10
210.7111423928075
 20
223.5671156583747
 30
0.0
 11
210.7111423928075
 21
225.5671156583747
 31
0.0
  0
LINE
  5
2088
330
21E3
100
AcDbEntity
  8
CENTER
  6
CENTER
100
AcDbLine
 10
208.7111423928075
 20
224.5671156583747
 30
0.0
 11
205.4611423928075
 21
224.5671156583747
 31
0.0
  0
LINE
  5
2089
330
21E3
100
AcDbEntity
  8
CENTER
  6
CENTER
100
AcDbLine
 10
212.7111423928075
 20
224.5671156583747
 30
0.0
 11
215.9611423928075
 21
224.5671156583747
 31
0.0
  0
LINE
  5
208A
330
21E3
100
AcDbEntity
  8
CENTER
  6
CENTER
100
AcDbLine
 10
210.7111423928075
 20
222.5671156583747
 30
0.0
 11
210.7111423928075
 21
219.3171156583747
 31
0.0
  0
LINE
  5
208B
330
21E3
100
AcDbEntity
  8
CENTER
  6
CENTER
100
AcDbLine
 10
210.7111423928075
 20
226.5671156583747
 30
0.0
 11
210.7111423928075
 21
229.8171156583747
 31
0.0
  0
DIMENSION
  5
2098
330
21E3
100
AcDbEntity
  8
DIM
100
AcDbDimension
  2
*D12
 10
150.7111423928075
 20
305.3198509369724
 30
0.0
 11
180.7111423928075
 21
308.3198509369724
 31
0.0
 70
    32
  3
STANDARD
100
AcDbAlignedDimension
 13
210.7111423928075
 23
290.5671156583747
 33
0.0
 14
150.7111423928075
 24
289.8171156583747
 34
0.0
100
AcDbRotatedDimension
  0
SOLID
  5
2099
330
21E3
100
AcDbEntity
  8
DIM
  6
CONTINUOUS
 62
     5
100
AcDbTrace
 10
-216.0008662982992
 20
290.6107515292982
 30
0.0
 11
-213.8571519269528
 21
288.4533251240451
 31
0.0
 12
-215.1852839846309
 22
291.1893926008023
 32
0.0
 13
-215.1852839846309
 23
291.1893926008023
 33
0.0
210
0.0
220
0.0
230
-1.0
  0
POLYLINE
  5
2171
330
21E3
100
AcDbEntity
  8
DIM
  6
CONTINUOUS
 62
     5
100
AcDb3dPolyline
 66
     1
 10
0.0
 20
0.0
 30
0.0
 70
     8
1001
ACAD
1000
R13OBJECT
1002
{
1005
2099
1002
}
  0
VERTEX
  5
2172
330
2171
100
AcDbEntity
  8
DIM
  6
CONTINUOUS
 62
     5
100
AcDbVertex
100
AcDb3dPolylineVertex
 10
215.593075141465
 20
290.9000720650502
 30
0.0
 70
    32
1001
ACAD
1000
R13OBJECT
1002
{
1005
2099
1002
}
  0
VERTEX
  5
2173
330
2171
100
AcDbEntity
  8
DIM
  6
CONTINUOUS
 62
     5
100
AcDbVertex
100
AcDb3dPolylineVertex
 10
225.4713364578392
 20
304.8232718104256
 30
0.0
 70
    32
1001
ACAD
1000
R13OBJECT
1002
{
1005
2099
1002
}
  0
SEQEND
  5
2174
330
2171
100
AcDbEntity
  8
DIM
  6
CONTINUOUS
 62
     5
  0
POLYLINE
  5
2175
330
21E3
100
AcDbEntity
  8
DIM
  6
CONTINUOUS
 62
     5
100
AcDb3dPolyline
 66
     1
 10
0.0
 20
0.0
 30
0.0
 70
     8
1001
ACAD
1000
R13OBJECT
1002
{
1005
2099
1002
}
  0
VERTEX
  5
2176
330
2175
100
AcDbEntity
  8
DIM
  6
CONTINUOUS
 62
     5
100
AcDbVertex
100
AcDb3dPolylineVertex
 10
225.4713364578392
 20
304.8232718104256
 30
0.0
 70
    32
1001
ACAD
1000
R13OBJECT
1002
{
1005
2099
1002
}
  0
VERTEX
  5
2177
330
2175
100
AcDbEntity
  8
DIM
  6
CONTINUOUS
 62
     5
100
AcDbVertex
100
AcDb3dPolylineVertex
 10
254.2570507435535
 20
304.8232718104256
 30
0.0
 70
    32
1001
ACAD
1000
R13OBJECT
1002
{
1005
2099
1002
}
  0
SEQEND
  5
2178
330
2175
100
AcDbEntity
  8
DIM
  6
CONTINUOUS
 62
     5
  0
TEXT
  5
209A
330
21E3
100
AcDbEntity
  8
DIM
  6
CONTINUOUS
 62
     5
100
AcDbText
 10
229.9713364578392
 20
306.3232718104257
 30
0.0
 40
3.0
  1
4-M10*12L
100
AcDbText
  0
POLYLINE
  5
209B
330
21E3
100
AcDbEntity
  8
DIM
 62
     5
100
AcDb2dPolyline
 66
     1
 10
0.0
 20
0.0
 30
0.0
 70
     1
  0
VERTEX
  5
22CE
330
209B
100
AcDbEntity
  8
DIM
 62
     5
100
AcDbVertex
100
AcDb2dVertex
 10
174.2680083384709
 20
306.9071541740549
 30
0.0
  0
VERTEX
  5
22CF
330
209B
100
AcDbEntity
  8
DIM
 62
     5
100
AcDbVertex
100
AcDb2dVertex
 10
177.2680083384709
 20
306.9071541740549
 30
0.0
  0
VERTEX
  5
22D0
330
209B
100
AcDbEntity
  8
DIM
 62
     5
100
AcDbVertex
100
AcDb2dVertex
 10
177.2680083384709
 20
309.907154174055
 30
0.0
  0
VERTEX
  5
22D1
330
209B
100
AcDbEntity
  8
DIM
 62
     5
100
AcDbVertex
100
AcDb2dVertex
 10
174.2680083384709
 20
309.907154174055
 30
0.0
  0
SEQEND
  5
22D2
330
209B
100
AcDbEntity
  8
DIM
 62
     5
  0
SOLID
  5
20A1
330
21E3
100
AcDbEntity
  8
DIM
  6
CONTINUOUS
 62
     5
100
AcDbTrace
 10
-177.3953296482596
 20
156.0311583191864
 30
0.0
 11
-179.7709682905251
 21
154.1321214471445
 31
0.0
 12
-176.9078386974495
 22
155.1580302799629
 32
0.0
 13
-176.9078386974495
 23
155.1580302799629
 33
0.0
210
0.0
220
0.0
230
-1.0
  0
POLYLINE
  5
2179
330
21E3
100
AcDbEntity
  8
DIM
  6
CONTINUOUS
 62
     5
100
AcDb3dPolyline
 66
     1
 10
0.0
 20
0.0
 30
0.0
 70
     8
1001
ACAD
1000
R13OBJECT
1002
{
1005
20A1
1002
}
  0
VERTEX
  5
217A
330
2179
100
AcDbEntity
  8
DIM
  6
CONTINUOUS
 62
     5
100
AcDbVertex
100
AcDb3dPolylineVertex
 10
177.1515841728545
 20
155.5945942995746
 30
0.0
 70
    32
1001
ACAD
1000
R13OBJECT
1002
{
1005
20A1
1002
}
  0
VERTEX
  5
217B
330
2179
100
AcDbEntity
  8
DIM
  6
CONTINUOUS
 62
     5
100
AcDbVertex
100
AcDb3dPolylineVertex
 10
144.7290958585635
 20
173.6969446375817
 30
0.0
 70
    32
1001
ACAD
1000
R13OBJECT
1002
{
1005
20A1
1002
}
  0
SEQEND
  5
217C
330
2179
100
AcDbEntity
  8
DIM
  6
CONTINUOUS
 62
     5
  0
POLYLINE
  5
217D
330
21E3
100
AcDbEntity
  8
DIM
  6
CONTINUOUS
 62
     5
100
AcDb3dPolyline
 66
     1
 10
0.0
 20
0.0
 30
0.0
 70
     8
1001
ACAD
1000
R13OBJECT
1002
{
1005
20A1
1002
}
  0
VERTEX
  5
217E
330
217D
100
AcDbEntity
  8
DIM
  6
CONTINUOUS
 62
     5
100
AcDbVertex
100
AcDb3dPolylineVertex
 10
144.7290958585635
 20
173.6969446375817
 30
0.0
 70
    32
1001
ACAD
1000
R13OBJECT
1002
{
1005
20A1
1002
}
  0
VERTEX
  5
217F
330
217D
100
AcDbEntity
  8
DIM
  6
CONTINUOUS
 62
     5
100
AcDbVertex
100
AcDb3dPolylineVertex
 10
106.8005244299921
 20
173.6969446375817
 30
0.0
 70
    32
1001
ACAD
1000
R13OBJECT
1002
{
1005
20A1
1002
}
  0
SEQEND
  5
2180
330
217D
100
AcDbEntity
  8
DIM
  6
CONTINUOUS
 62
     5
  0
TEXT
  5
20A2
330
21E3
100
AcDbEntity
  8
DIM
  6
CONTINUOUS
 62
     5
100
AcDbText
 10
106.8005244299921
 20
175.1969446375817
 30
0.0
 40
3.0
  1
KEY WAY 6*30
100
AcDbText
  0
DIMENSION
  5
20B1
330
21E3
100
AcDbEntity
  8
DIM
100
AcDbDimension
  2
*D10
 10
294.1076527528055
 20
133.5242695857324
 30
0.0
 11
290.2613182986231
 21
137.7610917800943
 31
0.0
 70
   160
  3
STANDARD
100
AcDbAlignedDimension
 13
266.2111424184574
 23
131.3242695850723
 33
0.0
 14
195.5111423972472
 24
133.5242695857324
 34
0.0
 50
90.0
100
AcDbRotatedDimension
  0
DIMENSION
  5
20DA
330
21E3
100
AcDbEntity
  8
DIM
100
AcDbDimension
  2
*D3
 10
324.4862296582853
 20
47.67426956845236
 30
0.0
 11
318.504539427223
 21
37.51698481807068
 31
0.0
 70
   160
  3
STANDARD
100
AcDbAlignedDimension
 13
310.2111424331575
 23
43.17426956710238
 33
0.0
 14
310.2111424331575
 24
47.67426956845236
 34
0.0
 50
90.0
100
AcDbRotatedDimension
  0
DIMENSION
  5
20F4
330
21E3
100
AcDbEntity
  8
DIM
100
AcDbDimension
  2
*D2
 10
332.308440871473
 20
131.3242695850723
 30
0.0
 11
329.158440871473
 21
87.2492695760874
 31
0.0
 70
    32
  1
{(<>)}
  3
STANDARD
100
AcDbAlignedDimension
 13
310.2111424331575
 23
43.17426956710238
 33
0.0
 14
266.2111424184574
 24
131.3242695850723
 34
0.0
 50
90.0
100
AcDbRotatedDimension
  0
DIMENSION
  5
2101
330
21E3
100
AcDbEntity
  8
DIM
100
AcDbDimension
  2
*D4
 10
312.0627174702067
 20
172.1242695973123
 30
0.0
 11
309.0627174702067
 21
152.8242695915224
 31
0.0
 70
    32
  3
STANDARD
100
AcDbAlignedDimension
 13
195.5111423972472
 23
133.5242695857324
 33
0.0
 14
188.2111423950575
 24
172.1242695973124
 34
0.0
 50
90.0
100
AcDbRotatedDimension
  0
DIMENSION
  5
213D
330
21E3
100
AcDbEntity
  8
DIM
100
AcDbDimension
  2
*D1
 10
348.412992062957
 20
172.1242695973123
 30
0.0
 11
345.2622670244275
 21
107.6492695822074
 31
0.0
 70
    32
  1
{(<>)}
  3
STANDARD
100
AcDbAlignedDimension
 13
310.2111424331575
 23
43.17426956710238
 33
0.0
 14
188.2111423950575
 24
172.1242695973124
 34
0.0
 50
90.0
100
AcDbRotatedDimension
  0
TEXT
  5
2211
330
21E3
100
AcDbEntity
  8
LOGO
 62
     6
100
AcDbText
 10
283.967501206413
 20
-27.77463811629816
 30
0.0
 40
6.746998690697149
  1
作動角度
 41
0.9
  7
CHINESET
 72
     4
 11
296.1120988496679
 21
-24.61170578225292
 31
0.0
100
AcDbText
  0
LINE
  5
2212
330
21E3
100
AcDbEntity
  8
LOGO
 62
     6
100
AcDbLine
 10
313.534888884097
 20
-37.26232832731003
 30
0.0
 11
278.6893088152389
 21
-37.26232832731009
 31
0.0
  0
LINE
  5
2213
330
21E3
100
AcDbEntity
  8
LOGO
 62
     6
100
AcDbLine
 10
313.534888884097
 20
-18.70808192789286
 30
0.0
 11
278.6893088152389
 21
-18.70808192789286
 31
0.0
  0
TEXT
  5
2214
330
21E3
100
AcDbEntity
  8
LOGO
  6
CONTINUOUS
 62
     6
100
AcDbText
 10
280.2084590787389
 20
-34.45107887285293
 30
0.0
 40
4.216874181685718
  1
Rotary angle
 41
0.8
  7
CHINESET
 72
     4
 11
296.1120988496679
 21
-33.04545414562436
 31
0.0
100
AcDbText
  0
TEXT
  5
2215
330
21E3
100
AcDbEntity
  8
LOGO
  6
CONTINUOUS
 62
     7
100
AcDbText
 10
290.071928810472
 20
-7.839848293384549
 30
0.0
 40
8.433748363371437
  1
90
  7
CHINESET
 72
     1
 11
296.8992489141536
 21
-3.62297411169883
 31
0.0
100
AcDbText
 73
     2
  0
LINE
  5
2216
330
21E3
100
AcDbEntity
  8
LOGO
 62
     6
100
AcDbLine
 10
310.1613895387484
 20
4.063038653210014
 30
0.0
 11
282.0628081605875
 21
4.063038653210014
 31
0.0
  0
LINE
  5
2217
330
21E3
100
AcDbEntity
  8
LOGO
 62
     6
100
AcDbLine
 10
310.1613895387483
 20
-11.11770840085859
 30
0.0
 11
282.0628081605875
 21
-11.11770840085857
 31
0.0
  0
LINE
  5
2218
330
21E3
100
AcDbEntity
  8
LOGO
 62
     1
100
AcDbLine
 10
392.3465185689726
 20
9.123287671232873
 30
0.0
 11
9.454342871909375
 21
9.123287671232873
 31
0.0
  0
LINE
  5
2219
330
21E3
100
AcDbEntity
  8
LOGO
 62
     1
100
AcDbLine
 10
392.3465185689726
 20
-41.47920250899574
 30
0.0
 11
9.454342871909375
 21
-41.47920250899574
 31
0.0
  0
LINE
  5
221A
330
21E3
100
AcDbEntity
  8
LOGO
  6
CONTINUOUS
 62
     6
100
AcDbLine
 10
105.6670972824971
 20
-4.325169153171422
 30
0.0
 11
114.8778711390617
 21
-3.108535788456507
 31
0.0
  0
LINE
  5
221B
330
21E3
100
AcDbEntity
  8
LOGO
  6
CONTINUOUS
 62
     6
100
AcDbLine
 10
105.6670972824971
 20
-7.768101793140964
 30
0.0
 11
114.8778711390617
 21
-8.984735157855894
 31
0.0
  0
LINE
  5
221C
330
21E3
100
AcDbEntity
  8
LOGO
 62
     1
100
AcDbLine
 10
120.7798212684122
 20
-0.9972103648128509
 30
0.0
 11
46.5628356707437
 21
-0.9972103648128509
 31
0.0
  0
LINE
  5
221D
330
21E3
100
AcDbEntity
  8
LOGO
 62
     1
100
AcDbLine
 10
120.7798212684122
 20
-11.11770840085857
 30
0.0
 11
46.5628356707437
 21
-11.11770840085857
 31
0.0
  0
TEXT
  5
221E
330
21E3
100
AcDbEntity
  8
LOGO
 62
     6
100
AcDbText
 10
94.63603570990079
 20
1.532914144198583
 30
0.0
 40
5.060249018022862
  1
1 : 1
  7
CHINESET
 72
     1
 11
103.5517125511791
 21
4.063038653210014
 31
0.0
100
AcDbText
 73
     2
  0
TEXT
  5
221F
330
21E3
100
AcDbEntity
  8
LOGO
 62
     6
100
AcDbText
 10
94.63603570990079
 20
-18.70808192789286
 30
0.0
 40
5.060249018022862
  1
m/m
  7
CHINESET
 72
     1
 11
103.5517125511791
 21
-16.17795741888143
 31
0.0
100
AcDbText
 73
     2
  0
LINE
  5
2220
330
21E3
100
AcDbEntity
  8
LOGO
 62
     1
100
AcDbLine
 10
120.7798212684122
 20
-21.23820643690425
 30
0.0
 11
9.454342871909325
 21
-21.23820643690425
 31
0.0
  0
TEXT
  5
2221
330
21E3
100
AcDbEntity
  8
LOGO
  6
CONTINUOUS
 62
     5
100
AcDbText
 10
11.11064781328998
 20
-31.53841967890599
 30
0.0
 40
7.590373527034293
  1
金器工業股份有限公司
 41
0.8
  7
LOGO
100
AcDbText
  0
TEXT
  5
2222
330
21E3
100
AcDbEntity
  8
LOGO
  6
CONTINUOUS
 62
     5
100
AcDbText
 10
13.28407298375211
 20
-39.13028032404332
 30
0.0
 40
5.060249018022862
  1
MINDMAN INDUSTRIAL CO.,LTD
 41
0.85
  7
CHINESET
100
AcDbText
  0
SOLID
  5
2223
330
21E3
100
AcDbEntity
  8
LOGO
 62
     5
100
AcDbTrace
 10
14.70443243892831
 20
-12.82626271417092
 30
0.0
 11
16.89235133338707
 21
-12.82626271417164
 31
0.0
 12
26.02125430681951
 22
7.921244043628959
 32
0.0
 13
28.20917320127808
 23
7.921244043627524
 33
0.0
  0
SOLID
  5
2224
330
21E3
100
AcDbEntity
  8
LOGO
 62
     5
100
AcDbTrace
 10
17.79769708281965
 20
-12.82626271417092
 30
0.0
 11
19.98561597727821
 21
-12.82626271417092
 31
0.0
 12
28.20917320127808
 22
6.261443503004215
 32
0.0
 13
26.02125430681951
 23
-1.760925776678661
 33
0.0
  0
SOLID
  5
2225
330
21E3
100
AcDbEntity
  8
LOGO
 62
     2
100
AcDbTrace
 10
16.89235133338707
 20
-12.82626271417164
 30
0.0
 11
17.79769708281965
 21
-12.82626271417092
 31
0.0
 12
28.20917320127808
 22
7.921244043627524
 32
0.0
 13
29.11451895070999
 23
7.921244043627524
 33
0.0
  0
SOLID
  5
2226
330
21E3
100
AcDbEntity
  8
LOGO
 62
     5
100
AcDbTrace
 10
16.95477831819557
 20
-16.59853667013459
 30
0.0
 11
17.70923310938754
 21
-16.59853667013459
 31
0.0
 12
16.95477831819557
 22
-20.37081062609756
 32
0.0
 13
17.70923310938754
 23
-20.37081062609756
 33
0.0
  0
SOLID
  5
2227
330
21E3
100
AcDbEntity
  8
LOGO
 62
     5
100
AcDbTrace
 10
11.19666190767521
 20
-20.37081062609756
 30
0.0
 11
11.95111669886871
 21
-20.37081062609756
 31
0.0
 12
14.07572011293491
 22
-16.59853667013459
 32
0.0
 13
14.83017490412707
 23
-16.59853667013459
 33
0.0
  0
SOLID
  5
2228
330
21E3
100
AcDbEntity
  8
LOGO
 62
     5
100
AcDbTrace
 10
14.07572011293491
 20
-16.59853667013459
 30
0.0
 11
14.83017490412707
 21
-16.59853667013459
 31
0.0
 12
14.07572011293491
 22
-20.37081062609756
 32
0.0
 13
14.83017490412707
 23
-20.37081062609756
 33
0.0
  0
SOLID
  5
2229
330
21E3
100
AcDbEntity
  8
LOGO
 62
     5
100
AcDbTrace
 10
14.07572011293491
 20
-20.37081062609756
 30
0.0
 11
14.83017490412707
 21
-20.37081062609756
 31
0.0
 12
16.95477831819557
 22
-16.59853667013459
 32
0.0
 13
17.70923310938754
 23
-16.59853667013459
 33
0.0
  0
LINE
  5
222A
330
21E3
100
AcDbEntity
  8
LOGO
 62
     1
100
AcDbLine
 10
9.454342871909375
 20
-41.47920250899574
 30
0.0
 11
9.454342871909375
 21
9.123287671232873
 31
0.0
  0
TEXT
  5
222B
330
21E3
100
AcDbEntity
  8
LOGO
 62
     6
100
AcDbText
 10
50.73528207087237
 20
1.535404424227138
 30
0.0
 40
5.060249018022862
  1
比例 Scale:
 41
0.9
  7
CHINESET
 72
     4
 11
66.80383174283514
 21
4.063038653210014
 31
0.0
100
AcDbText
  0
TEXT
  5
222C
330
21E3
100
AcDbEntity
  8
LOGO
 62
     6
100
AcDbText
 10
52.50411018744017
 20
-8.516403387697629
 30
0.0
 40
5.060249018022862
  1
投影 View:
 41
0.9
  7
CHINESET
 72
     4
 11
66.80383174283514
 21
-6.057459382835716
 31
0.0
100
AcDbText
  0
TEXT
  5
222D
330
21E3
100
AcDbEntity
  8
LOGO
 62
     6
100
AcDbText
 10
52.99883989054151
 20
-18.70808192789286
 30
0.0
 40
5.060249018022862
  1
單位 Unit:
 41
0.9
  7
CHINESET
 72
     4
 11
66.80383174283514
 21
-16.17795741888143
 31
0.0
100
AcDbText
  0
POLYLINE
  5
222E
330
21E3
100
AcDbEntity
  8
LOGO
 62
     5
100
AcDb2dPolyline
 66
     1
 10
0.0
 20
0.0
 30
0.0
 70
     1
 40
0.7556638533580808
 41
0.7556638533580808
  0
VERTEX
  5
22DD
330
222E
100
AcDbEntity
  8
LOGO
 62
     5
100
AcDbVertex
100
AcDb2dVertex
 10
35.32382890418446
 20
-18.48467364811645
 30
0.0
 42
1.0
  0
VERTEX
  5
22DE
330
222E
100
AcDbEntity
  8
LOGO
 62
     5
100
AcDbVertex
100
AcDb2dVertex
 10
38.34648431761673
 20
-18.48467364811645
 30
0.0
 42
1.0
  0
SEQEND
  5
22DF
330
222E
100
AcDbEntity
  8
LOGO
 62
     5
  0
LINE
  5
222F
330
21E3
100
AcDbEntity
  8
LOGO
 62
     5
100
AcDbLine
 10
42.61925971305888
 20
-20.37081062609756
 30
0.0
 11
42.61925971305888
 21
-18.10744625252009
 31
0.0
  0
SOLID
  5
2230
330
21E3
100
AcDbEntity
  8
LOGO
 62
     5
100
AcDbTrace
 10
37.96676335221225
 20
-16.59853667013459
 30
0.0
 11
38.72121814340431
 21
-16.59853667013459
 31
0.0
 12
37.96676335221225
 22
-20.37081062609756
 32
0.0
 13
38.72121814340431
 23
-20.37081062609756
 33
0.0
  0
SOLID
  5
2231
330
21E3
100
AcDbEntity
  8
LOGO
 62
     5
100
AcDbTrace
 10
39.60144054828795
 20
-20.37081062609756
 30
0.0
 11
40.35589533948136
 21
-20.37081062609756
 31
0.0
 12
39.60144054828795
 22
-16.59853667013459
 32
0.0
 13
40.35589533948136
 23
-16.59853667013459
 33
0.0
  0
SOLID
  5
2232
330
21E3
100
AcDbEntity
  8
LOGO
 62
     5
100
AcDbTrace
 10
41.86480492186691
 20
-18.10744625252009
 30
0.0
 11
42.61925971305888
 21
-18.10744625252019
 31
0.0
 12
41.86480492186691
 22
-20.37081062609756
 32
0.0
 13
42.61925971305888
 23
-20.37081062609756
 33
0.0
  0
SOLID
  5
2233
330
21E3
100
AcDbEntity
  8
LOGO
 62
     5
100
AcDbTrace
 10
27.15286104812996
 20
-15.46685448334514
 30
0.0
 11
27.90731583932193
 21
-15.46685448334514
 31
0.0
 12
27.15286104812996
 22
-20.37081062609756
 32
0.0
 13
27.90731583932193
 23
-20.37081062609756
 33
0.0
  0
SOLID
  5
2234
330
21E3
100
AcDbEntity
  8
LOGO
 62
     5
100
AcDbTrace
 10
28.78753824420777
 20
-16.59853667013459
 30
0.0
 11
29.54199303539984
 21
-16.59853667013459
 31
0.0
 12
28.78753824420777
 22
-20.37081062609756
 32
0.0
 13
29.54199303539984
 23
-20.37081062609756
 33
0.0
  0
SOLID
  5
2235
330
21E3
100
AcDbEntity
  8
LOGO
 62
     5
100
AcDbTrace
 10
31.0509026177853
 20
-18.10744625252009
 30
0.0
 11
31.80535740897737
 21
-18.10744625252009
 31
0.0
 12
31.0509026177853
 22
-20.37081062609756
 32
0.0
 13
31.80535740897737
 23
-20.37081062609756
 33
0.0
  0
SOLID
  5
2236
330
21E3
100
AcDbEntity
  8
LOGO
 62
     5
100
AcDbTrace
 10
33.31426699136292
 20
-18.10744625252009
 30
0.0
 11
34.06872178255489
 21
-18.10744625252009
 31
0.0
 12
33.31426699136292
 22
-20.370810626099
 32
0.0
 13
34.06872178255489
 23
-20.370810626099
 33
0.0
  0
LINE
  5
2237
330
21E3
100
AcDbEntity
  8
LOGO
 62
     1
100
AcDbLine
 10
46.5628356707437
 20
-21.2382064369043
 30
0.0
 11
46.5628356707437
 21
9.123287671232873
 31
0.0
  0
SOLID
  5
2238
330
21E3
100
AcDbEntity
  8
LOGO
 62
     5
100
AcDbTrace
 10
20.23700031370379
 20
-16.59853667013459
 30
0.0
 11
20.99145510489575
 21
-16.59853667013459
 31
0.0
 12
20.23700031370379
 22
-20.37081062609756
 32
0.0
 13
20.99145510489575
 23
-20.37081062609756
 33
0.0
  0
SOLID
  5
2239
330
21E3
100
AcDbEntity
  8
LOGO
 62
     5
100
AcDbTrace
 10
22.50036468728112
 20
-18.10744625252009
 30
0.0
 11
23.25481947847453
 21
-18.10744625252009
 31
0.0
 12
22.50036468728112
 22
-20.37081062609756
 32
0.0
 13
23.25481947847453
 23
-20.37081062609756
 33
0.0
  0
SOLID
  5
223A
330
21E3
100
AcDbEntity
  8
LOGO
 62
     5
100
AcDbTrace
 10
18.60232311762578
 20
-16.59853667013459
 30
0.0
 11
19.35677790881995
 21
-16.59853667013459
 31
0.0
 12
18.60232311762578
 22
-20.370810626099
 32
0.0
 13
19.35677790881995
 23
-20.37081062609756
 33
0.0
  0
POLYLINE
  5
223B
330
21E3
100
AcDbEntity
  8
LOGO
 62
     5
100
AcDb2dPolyline
 66
     1
 10
0.0
 20
0.0
 30
0.0
 70
     1
 40
0.7556638533580808
 41
0.7556638533580808
  0
VERTEX
  5
22E0
330
223B
100
AcDbEntity
  8
LOGO
 62
     5
100
AcDbVertex
100
AcDb2dVertex
 10
24.50992660010284
 20
-18.48467364811645
 30
0.0
 42
1.0
  0
VERTEX
  5
22E1
330
223B
100
AcDbEntity
  8
LOGO
 62
     5
100
AcDbVertex
100
AcDb2dVertex
 10
27.53258201353522
 20
-18.48467364811645
 30
0.0
 42
1.0
  0
SEQEND
  5
22E2
330
223B
100
AcDbEntity
  8
LOGO
 62
     5
  0
POLYLINE
  5
223C
330
21E3
100
AcDbEntity
  8
LOGO
 62
     5
100
AcDb2dPolyline
 66
     1
 10
0.0
 20
0.0
 30
0.0
 40
0.7556638533580808
 41
0.7556638533580808
  0
VERTEX
  5
22E3
330
223C
100
AcDbEntity
  8
LOGO
 62
     5
100
AcDbVertex
100
AcDb2dVertex
 10
42.24384591071134
 20
-18.10744625252007
 30
0.0
 42
1.0
  0
VERTEX
  5
22E4
330
223C
100
AcDbEntity
  8
LOGO
 62
     5
100
AcDbVertex
100
AcDb2dVertex
 10
39.97685435063702
 20
-18.10744625252007
 30
0.0
 42
1.0
  0
SEQEND
  5
22E5
330
223C
100
AcDbEntity
  8
LOGO
 62
     5
  0
SOLID
  5
223D
330
21E3
100
AcDbEntity
  8
LOGO
 62
     5
100
AcDbTrace
 10
40.43134081860031
 20
-12.82626271417164
 30
0.0
 11
42.61925971305888
 21
-12.82626271417164
 31
0.0
 12
40.43134081860031
 22
7.921244043627524
 32
0.0
 13
42.61925971305888
 23
7.921244043628959
 33
0.0
  0
SOLID
  5
223E
330
21E3
100
AcDbEntity
  8
LOGO
 62
     5
100
AcDbTrace
 10
29.11451895070999
 20
7.921244043627524
 30
0.0
 11
31.30243784516845
 21
7.921244043628959
 31
0.0
 12
29.11451895070999
 22
-11.16646217354761
 32
0.0
 13
31.30243784516845
 23
-3.144092893864737
 33
0.0
  0
SOLID
  5
223F
330
21E3
100
AcDbEntity
  8
LOGO
 62
     5
100
AcDbTrace
 10
29.11451895070999
 20
-11.16646217354761
 30
0.0
 11
31.30243784516845
 21
-3.144092893864737
 31
0.0
 12
39.52599506916841
 22
7.921244043628959
 32
0.0
 13
37.33807617470965
 23
7.921244043628959
 33
0.0
  0
SOLID
  5
2240
330
21E3
100
AcDbEntity
  8
LOGO
 62
     5
100
AcDbTrace
 10
39.52599506916841
 20
6.261443503004215
 30
0.0
 11
37.33807617470965
 21
-1.760925776678661
 31
0.0
 12
39.52599506916841
 22
-12.82626271417164
 32
0.0
 13
37.33807617470965
 23
-12.82626271417164
 33
0.0
  0
SOLID
  5
2241
330
21E3
100
AcDbEntity
  8
LOGO
 62
     2
100
AcDbTrace
 10
39.52599506916841
 20
7.921244043628959
 30
0.0
 11
40.43134081860031
 21
7.921244043627524
 31
0.0
 12
39.52599506916841
 22
-12.82626271417164
 32
0.0
 13
40.43134081860031
 23
-12.82626271417164
 33
0.0
  0
SOLID
  5
2242
330
21E3
100
AcDbEntity
  8
LOGO
 62
     5
100
AcDbTrace
 10
26.02125430681951
 20
-12.82626271417092
 30
0.0
 11
28.20917320127808
 21
-12.82626271417092
 31
0.0
 12
26.02125430681951
 22
-1.760925776678661
 32
0.0
 13
28.20917320127808
 23
6.261443503004215
 33
0.0
  0
SOLID
  5
2243
330
21E3
100
AcDbEntity
  8
LOGO
 62
     2
100
AcDbTrace
 10
28.20917320127808
 20
7.921244043627524
 30
0.0
 11
29.11451895070999
 21
7.921244043627524
 31
0.0
 12
28.20917320127808
 22
-12.82626271417092
 32
0.0
 13
29.11451895070999
 23
-12.82626271417092
 33
0.0
  0
SOLID
  5
2244
330
21E3
100
AcDbEntity
  8
LOGO
 62
     5
100
AcDbTrace
 10
29.11451895070999
 20
-12.82626271417092
 30
0.0
 11
31.30243784516845
 21
-12.82626271417092
 31
0.0
 12
39.52599506916841
 22
6.261443503004215
 32
0.0
 13
37.33807617470965
 23
-1.760925776678661
 33
0.0
  0
SOLID
  5
2245
330
21E3
100
AcDbEntity
  8
LOGO
 62
     2
100
AcDbTrace
 10
28.20917320127808
 20
-12.82626271417092
 30
0.0
 11
29.11451895070999
 21
-12.82626271417092
 31
0.0
 12
39.52599506916841
 22
7.921244043628959
 32
0.0
 13
40.43134081860031
 23
7.921244043627524
 33
0.0
  0
POLYLINE
  5
2246
330
21E3
100
AcDbEntity
  8
LOGO
 62
     5
100
AcDb2dPolyline
 66
     1
 10
0.0
 20
0.0
 30
0.0
 40
0.7556638533580808
 41
0.7556638533580808
  0
VERTEX
  5
22E6
330
2246
100
AcDbEntity
  8
LOGO
 62
     5
100
AcDbVertex
100
AcDb2dVertex
 10
31.42994360662973
 20
-18.10744625252007
 30
0.0
 42
1.0
  0
VERTEX
  5
22E7
330
2246
100
AcDbEntity
  8
LOGO
 62
     5
100
AcDbVertex
100
AcDb2dVertex
 10
29.1629520465554
 20
-18.10744625252007
 30
0.0
 42
1.0
  0
SEQEND
  5
22E8
330
2246
100
AcDbEntity
  8
LOGO
 62
     5
  0
POLYLINE
  5
2247
330
21E3
100
AcDbEntity
  8
LOGO
 62
     5
100
AcDb2dPolyline
 66
     1
 10
0.0
 20
0.0
 30
0.0
 40
0.7556638533580808
 41
0.7556638533580808
  0
VERTEX
  5
22E9
330
2247
100
AcDbEntity
  8
LOGO
 62
     5
100
AcDbVertex
100
AcDb2dVertex
 10
22.87940567612574
 20
-18.10744625252007
 30
0.0
 42
1.0
  0
VERTEX
  5
22EA
330
2247
100
AcDbEntity
  8
LOGO
 62
     5
100
AcDbVertex
100
AcDb2dVertex
 10
20.61241411605141
 20
-18.10744625252007
 30
0.0
 42
1.0
  0
SEQEND
  5
22EB
330
2247
100
AcDbEntity
  8
LOGO
 62
     5
  0
SOLID
  5
2248
330
21E3
100
AcDbEntity
  8
LOGO
 62
     5
100
AcDbTrace
 10
18.60232311762578
 20
-16.07041831630005
 30
0.0
 11
19.35677790881995
 21
-16.07041831630005
 31
0.0
 12
18.60232311762578
 22
-15.46685448334514
 32
0.0
 13
19.35677790881995
 23
-15.46685448334514
 33
0.0
  0
POLYLINE
  5
2249
330
21E3
100
AcDbEntity
  8
LOGO
 62
     5
100
AcDb2dPolyline
 66
     1
 10
0.0
 20
0.0
 30
0.0
 70
     1
  0
VERTEX
  5
22EC
330
2249
100
AcDbEntity
  8
LOGO
 62
     5
100
AcDbVertex
100
AcDb2dVertex
 10
35.70347442411183
 20
-18.48467364811608
 30
0.0
 42
1.000000057330635
  0
VERTEX
  5
22ED
330
2249
100
AcDbEntity
  8
LOGO
 62
     5
100
AcDbVertex
100
AcDb2dVertex
 10
37.96683879769032
 20
-18.48467364811608
 30
0.0
 42
1.000000057330635
  0
SEQEND
  5
22EE
330
2249
100
AcDbEntity
  8
LOGO
 62
     5
  0
CIRCLE
  5
224A
330
21E3
100
AcDbEntity
  8
LOGO
 62
     5
100
AcDbCircle
 10
36.83515661090103
 20
-18.48467364811608
 30
0.0
 40
1.131682186789062
  0
POLYLINE
  5
224B
330
21E3
100
AcDbEntity
  8
LOGO
 62
     5
100
AcDb2dPolyline
 66
     1
 10
0.0
 20
0.0
 30
0.0
 40
0.7556638533580808
 41
0.7556638533580808
  0
VERTEX
  5
22EF
330
224B
100
AcDbEntity
  8
LOGO
 62
     5
100
AcDbVertex
100
AcDb2dVertex
 10
33.69330798020726
 20
-18.10744625252007
 30
0.0
 42
1.0
  0
VERTEX
  5
22F0
330
224B
100
AcDbEntity
  8
LOGO
 62
     5
100
AcDbVertex
100
AcDb2dVertex
 10
31.42631642013293
 20
-18.10744625252007
 30
0.0
 42
1.0
  0
SEQEND
  5
22F1
330
224B
100
AcDbEntity
  8
LOGO
 62
     5
  0
LINE
  5
224C
330
21E3
100
AcDbEntity
  8
LOGO
 62
     1
100
AcDbLine
 10
87.04482781492659
 20
-21.2382064369043
 30
0.0
 11
87.04482781492659
 21
9.123287671232873
 31
0.0
  0
CIRCLE
  5
224D
330
21E3
100
AcDbEntity
  8
LOGO
  6
CONTINUOUS
 62
     6
100
AcDbCircle
 10
96.41451179773806
 20
-6.046635473156207
 30
0.0
 40
2.938099684699695
  0
CIRCLE
  5
224E
330
21E3
100
AcDbEntity
  8
LOGO
  6
CONTINUOUS
 62
     6
100
AcDbCircle
 10
96.41451179773806
 20
-6.046635473156207
 30
0.0
 40
1.721466319984773
  0
LINE
  5
224F
330
21E3
100
AcDbEntity
  8
LOGO
 62
     6
100
AcDbLine
 10
105.6670972824972
 20
-7.768101793140978
 30
0.0
 11
105.6670972824971
 21
-4.325169153171415
 31
0.0
  0
TEXT
  5
2250
330
21E3
100
AcDbEntity
  8
LOGO
  6
CONTINUOUS
 62
     6
100
AcDbText
 10
202.5901554324344
 20
-35.15389123646717
 30
0.0
 40
4.216874181685718
  1
Model
  7
CHINESET
 72
     4
 11
210.6222967308834
 21
-33.04545414562432
 31
0.0
100
AcDbText
  0
TEXT
  5
2251
330
21E3
100
AcDbEntity
  8
LOGO
  6
CONTINUOUS
 62
     7
100
AcDbText
 10
194.156407069063
 20
-7.744209055509998
 30
0.0
 40
8.433748363371437
  1
MCRA
  7
CHINESET
 72
     1
 11
210.6222967308834
 21
-3.52733487382428
 31
0.0
100
AcDbText
 73
     2
  0
LINE
  5
2252
330
21E3
100
AcDbEntity
  8
LOGO
 62
     6
100
AcDbLine
 10
230.8632928029749
 20
4.063038653210014
 30
0.0
 11
190.381300658792
 21
4.063038653210014
 31
0.0
  0
LINE
  5
2253
330
21E3
100
AcDbEntity
  8
LOGO
 62
     6
100
AcDbLine
 10
230.8632928029749
 20
-11.11770840085857
 30
0.0
 11
190.381300658792
 21
-11.11770840085857
 31
0.0
  0
LINE
  5
2254
330
21E3
100
AcDbEntity
  8
LOGO
 62
     6
100
AcDbLine
 10
227.4897934576263
 20
-18.70808192789286
 30
0.0
 11
193.7548000041406
 21
-18.70808192789286
 31
0.0
  0
LINE
  5
2255
330
21E3
100
AcDbEntity
  8
LOGO
 62
     6
100
AcDbLine
 10
227.4897934576263
 20
-37.26232832731004
 30
0.0
 11
193.7548000041406
 21
-37.26232832731009
 31
0.0
  0
TEXT
  5
2256
330
21E3
100
AcDbEntity
  8
LOGO
 62
     7
100
AcDbText
 10
124.9218824445444
 20
-3.546425029178749
 30
0.0
 40
10.12049803604572
  1
訂購代號:
  7
CHINESET
100
AcDbText
  0
TEXT
  5
2257
330
21E3
100
AcDbEntity
  8
LOGO
 62
     7
100
AcDbText
 10
123.7114150840243
 20
-13.04480220177598
 30
0.0
 40
6.746998690697149
  1
Order example:
 41
0.8
  7
CHINESET
100
AcDbText
  0
LINE
  5
2258
330
21E3
100
AcDbEntity
  8
LOGO
 62
     1
100
AcDbLine
 10
120.7798212684122
 20
-41.47920250899574
 30
0.0
 11
120.7798212684122
 21
9.123287671232873
 31
0.0
  0
LINE
  5
2259
330
21E3
100
AcDbEntity
  8
LOGO
 62
     6
100
AcDbLine
 10
114.8778711390617
 20
-8.984735157855894
 30
0.0
 11
114.8778711390617
 21
-3.108535788456507
 31
0.0
  0
LINE
  5
225A
330
21E3
100
AcDbEntity
  8
LOGO
 62
     6
100
AcDbLine
 10
193.7548000041406
 20
-18.70808192789286
 30
0.0
 11
193.7548000041406
 21
-37.26232832731009
 31
0.0
  0
LINE
  5
225B
330
21E3
100
AcDbEntity
  8
LOGO
 62
     6
100
AcDbLine
 10
190.381300658792
 20
4.063038653210014
 30
0.0
 11
190.381300658792
 21
-11.11770840085857
 31
0.0
  0
TEXT
  5
225C
330
21E3
100
AcDbEntity
  8
LOGO
  6
CONTINUOUS
 62
     7
100
AcDbText
 10
250.5379600901092
 20
-7.839848293384457
 30
0.0
 40
8.433748363371437
  1
63
  7
CHINESET
 72
     1
 11
257.3652801937908
 21
-3.622974111698738
 31
0.0
100
AcDbText
 73
     2
  0
LINE
  5
225D
330
21E3
100
AcDbEntity
  8
LOGO
 62
     6
100
AcDbLine
 10
270.1188538645789
 20
-37.26232832730994
 30
0.0
 11
243.0374063940312
 21
-37.26232832730997
 31
0.0
  0
LINE
  5
225E
330
21E3
100
AcDbEntity
  8
LOGO
 62
     6
100
AcDbLine
 10
270.1188538645789
 20
-11.11770840085847
 30
0.0
 11
243.0374063940312
 21
-11.11770840085847
 31
0.0
  0
LINE
  5
225F
330
21E3
100
AcDbEntity
  8
LOGO
 62
     6
100
AcDbLine
 10
270.1188538645789
 20
-18.70808192789277
 30
0.0
 11
243.0374063940312
 21
-18.70808192789277
 31
0.0
  0
LINE
  5
2260
330
21E3
100
AcDbEntity
  8
LOGO
 62
     6
100
AcDbLine
 10
270.1188538645789
 20
4.063038653210199
 30
0.0
 11
243.0374063940312
 21
4.063038653210107
 31
0.0
  0
LINE
  5
2261
330
21E3
100
AcDbEntity
  8
LOGO
 62
     6
100
AcDbLine
 10
243.0374063940312
 20
-18.70808192789277
 30
0.0
 11
243.0374063940312
 21
-37.26232832730994
 31
0.0
  0
LINE
  5
2262
330
21E3
100
AcDbEntity
  8
LOGO
 62
     6
100
AcDbLine
 10
227.4897934576263
 20
-18.70808192789286
 30
0.0
 11
227.4897934576263
 21
-37.26232832731003
 31
0.0
  0
TEXT
  5
2263
330
21E3
100
AcDbEntity
  8
LOGO
 62
     6
100
AcDbText
 10
203.8752980401862
 20
-27.81254571228832
 30
0.0
 40
6.746998690697149
  1
型式
  7
CHINESET
 72
     4
 11
210.6222967308834
 21
-24.61170578225287
 31
0.0
100
AcDbText
  0
LINE
  5
2264
330
21E3
100
AcDbEntity
  8
LOGO
 62
     6
100
AcDbLine
 10
210.6222967308834
 20
-11.11770840085857
 30
0.0
 11
210.6222967308834
 21
-18.70808192789286
 31
0.0
  0
LINE
  5
2265
330
21E3
100
AcDbEntity
  8
LOGO
 62
     6
100
AcDbLine
 10
243.0374063940312
 20
4.063038653210107
 30
0.0
 11
243.0374063940312
 21
-11.11770840085847
 31
0.0
  0
LINE
  5
2266
330
21E3
100
AcDbEntity
  8
LOGO
 62
     6
100
AcDbLine
 10
230.8632928029749
 20
4.063038653210014
 30
0.0
 11
230.8632928029749
 21
-11.11770840085857
 31
0.0
  0
LINE
  5
2267
330
21E3
100
AcDbEntity
  8
LOGO
  6
CONTINUOUS
 62
     7
100
AcDbLine
 10
233.7088666716673
 20
-3.581107479014825
 30
0.0
 11
240.4121306498975
 21
-3.581107479014825
 31
0.0
  0
LINE
  5
2268
330
21E3
100
AcDbEntity
  8
LOGO
 62
     6
100
AcDbLine
 10
278.6893088152389
 20
-18.70808192789286
 30
0.0
 11
278.6893088152389
 21
-37.26232832731009
 31
0.0
  0
LINE
  5
2269
330
21E3
100
AcDbEntity
  8
LOGO
 62
     6
100
AcDbLine
 10
270.1188538645789
 20
-18.70808192789277
 30
0.0
 11
270.1188538645789
 21
-37.26232832730989
 31
0.0
  0
TEXT
  5
226A
330
21E3
100
AcDbEntity
  8
LOGO
  6
CONTINUOUS
 62
     6
100
AcDbText
 10
251.3572382853133
 20
-35.15389123646712
 30
0.0
 40
4.216874181685718
  1
Bore
 41
0.8
  7
CHINESET
 72
     4
 11
256.5781301293051
 21
-33.04545414562426
 31
0.0
100
AcDbText
  0
TEXT
  5
226B
330
21E3
100
AcDbEntity
  8
LOGO
 62
     6
100
AcDbText
 10
250.1263126313259
 20
-27.9852051276014
 30
0.0
 40
6.746998690697149
  1
內徑
 41
0.9
  7
CHINESET
 72
     4
 11
256.5781301293051
 21
-24.61170578225282
 31
0.0
100
AcDbText
  0
LINE
  5
226C
330
21E3
100
AcDbEntity
  8
LOGO
  6
CONTINUOUS
 62
     7
100
AcDbLine
 10
272.7342684382236
 20
-3.581107479014725
 30
0.0
 11
279.4375324164539
 21
-3.581107479014725
 31
0.0
  0
LINE
  5
226D
330
21E3
100
AcDbEntity
  8
LOGO
 62
     6
100
AcDbLine
 10
270.1188538645789
 20
4.063038653210199
 30
0.0
 11
270.1188538645789
 21
-11.11770840085847
 31
0.0
  0
LINE
  5
226E
330
21E3
100
AcDbEntity
  8
LOGO
 62
     6
100
AcDbLine
 10
256.5781297403668
 20
-11.11770840085847
 30
0.0
 11
256.5781297403668
 21
-18.70808192789277
 31
0.0
  0
LINE
  5
226F
330
21E3
100
AcDbEntity
  8
LOGO
 62
     6
100
AcDbLine
 10
282.0628081605875
 20
4.063038653210014
 30
0.0
 11
282.0628081605875
 21
-11.11770840085857
 31
0.0
  0
LINE
  5
2270
330
21E3
100
AcDbEntity
  8
LOGO
 62
     6
100
AcDbLine
 10
296.4693371148985
 20
-11.11770840085857
 30
0.0
 11
296.4693371148985
 21
-18.70808192789286
 31
0.0
  0
TEXT
  5
2271
330
21E3
100
AcDbEntity
  8
LOGO
 62
     6
100
AcDbText
 10
337.4791377485497
 20
-27.98520512760136
 30
0.0
 40
6.746998690697149
  1
配件
 41
0.9
  7
CHINESET
 72
     4
 11
343.6146896829023
 21
-24.61170578225278
 31
0.0
100
AcDbText
  0
LINE
  5
2272
330
21E3
100
AcDbEntity
  8
LOGO
 62
     6
100
AcDbLine
 10
368.2834036457638
 20
-37.26232832730989
 30
0.0
 11
318.9459757200409
 21
-37.26232832730994
 31
0.0
  0
LINE
  5
2273
330
21E3
100
AcDbEntity
  8
LOGO
 62
     6
100
AcDbLine
 10
368.2834036457638
 20
-18.70808192789277
 30
0.0
 11
318.9459757200409
 21
-18.70808192789277
 31
0.0
  0
TEXT
  5
2274
330
21E3
100
AcDbEntity
  8
LOGO
  6
CONTINUOUS
 62
     6
100
AcDbText
 10
331.1648706703064
 20
-34.45107887285279
 30
0.0
 40
4.216874181685718
  1
Accessory
 41
0.8
  7
CHINESET
 72
     4
 11
343.6146896829023
 21
-33.04545414562422
 31
0.0
100
AcDbText
  0
LINE
  5
2275
330
21E3
100
AcDbEntity
  8
LOGO
 62
     6
100
AcDbLine
 10
318.9459757200409
 20
-18.70808192789277
 30
0.0
 11
318.9459757200409
 21
-37.26232832730994
 31
0.0
  0
LINE
  5
2276
330
21E3
100
AcDbEntity
  8
LOGO
 62
     6
100
AcDbLine
 10
313.534888884097
 20
-18.70808192789286
 30
0.0
 11
313.534888884097
 21
-37.33229013914906
 31
0.0
  0
LINE
  5
2277
330
21E3
100
AcDbEntity
  8
LOGO
 62
     6
100
AcDbLine
 10
310.1613895387484
 20
4.063038653210014
 30
0.0
 11
310.1613895387483
 21
-11.11770840085859
 31
0.0
  0
LINE
  5
2278
330
21E3
100
AcDbEntity
  8
LOGO
  6
CONTINUOUS
 62
     7
100
AcDbLine
 10
313.1496904690598
 20
-3.581107479014825
 30
0.0
 11
319.85295444729
 21
-3.581107479014825
 31
0.0
  0
TEXT
  5
2279
330
21E3
100
AcDbEntity
  8
LOGO
  6
CONTINUOUS
 62
     7
100
AcDbText
 10
324.0101337937123
 20
-7.839848293384549
 30
0.0
 40
8.433748363371437
  1
LB
  7
CHINESET
 72
     1
 11
330.2350433000103
 21
-3.62297411169883
 31
0.0
100
AcDbText
 73
     2
  0
LINE
  5
227A
330
21E3
100
AcDbEntity
  8
LOGO
 62
     6
100
AcDbLine
 10
337.7077783069942
 20
4.063038653210107
 30
0.0
 11
337.7077783069942
 21
-11.11770840085857
 31
0.0
  0
LINE
  5
227B
330
21E3
100
AcDbEntity
  8
LOGO
 62
     6
100
AcDbLine
 10
322.3480986472316
 20
4.063038653210107
 30
0.0
 11
322.3480986472316
 21
-11.11770840085857
 31
0.0
  0
LINE
  5
227C
330
21E3
100
AcDbEntity
  8
LOGO
 62
     6
100
AcDbLine
 10
337.7077783069942
 20
-11.11770840085857
 30
0.0
 11
322.3480986472316
 21
-11.11770840085857
 31
0.0
  0
LINE
  5
227D
330
21E3
100
AcDbEntity
  8
LOGO
 62
     6
100
AcDbLine
 10
330.0279384771128
 20
-11.11770840085857
 30
0.0
 11
330.0279384771128
 21
-18.70808192789277
 31
0.0
  0
LINE
  5
227E
330
21E3
100
AcDbEntity
  8
LOGO
 62
     6
100
AcDbLine
 10
337.7077783069942
 20
4.063038653210107
 30
0.0
 11
322.3480986472316
 21
4.063038653210107
 31
0.0
  0
LINE
  5
227F
330
21E3
100
AcDbEntity
  8
LOGO
 62
     6
100
AcDbLine
 10
368.2834036457638
 20
-18.70808192789277
 30
0.0
 11
368.2834036457638
 21
-37.26232832730989
 31
0.0
  0
LINE
  5
2280
330
21E3
100
AcDbEntity
  8
LOGO
 62
     1
100
AcDbLine
 10
392.3465185689726
 20
-41.47920250899574
 30
0.0
 11
392.3465185689726
 21
9.123287671232873
 31
0.0
  0
DIMENSION
  5
247D
330
21E3
100
AcDbEntity
  8
DIM
100
AcDbDimension
  2
*D13
 10
311.6840424335993
 20
317.7189712383662
 30
0.0
 11
182.1840423932493
 21
320.7192665139568
 31
0.0
 70
    32
  3
STANDARD
100
AcDbAlignedDimension
 13
52.68404235289938
 23
289.5671156688747
 33
0.0
 14
311.6840424335993
 24
289.5671156688747
 34
0.0
100
AcDbRotatedDimension
  0
DIMENSION
  5
24A1
330
21E3
100
AcDbEntity
  8
AM_5
100
AcDbDimension
  2
*D14
 10
337.9633398624148
 20
216.5671156469747
 30
0.0
 11
334.9633398624147
 21
254.5671156583747
 31
0.0
 70
    32
  3
STANDARD
100
AcDbAlignedDimension
 13
308.6840424326993
 23
292.5671156697747
 33
0.0
 14
308.6840424326993
 24
216.5671156469747
 34
0.0
 50
90.00000000000003
100
AcDbRotatedDimension
  0
ENDSEC
  0
SECTION
  2
OBJECTS
  0
DICTIONARY
  5
21D1
330
0
100
AcDbDictionary
  3
ACAD_GROUP
350
21D2
  3
ACAD_LAYOUT
350
21DE
  3
ACAD_MLINESTYLE
350
21DB
  3
ACAD_PLOTSETTINGS
350
21DD
  3
ACMDICTIONARY
350
2314
  3
AMG
350
22FA
  3
AMGSNAPSETTINGS
350
2348
  3
DWGPROPS
350
2544
1001
ACAD
1000
TREAT_AS_HARD
1070
     0
  0
DICTIONARY
  5
22A3
330
21E3
100
AcDbDictionary
  3
ACAD_INDEX
350
24CC
  3
ACAD_LAYOUTSELFREF
350
25B2
1001
ACAD
1000
TREAT_AS_HARD
1070
     1
  0
DICTIONARY
  5
22A5
330
21DF
100
AcDbDictionary
  3
ACAD_LAYOUTSELFREF
350
25B1
1001
ACAD
1000
TREAT_AS_HARD
1070
     1
  0
DICTIONARY
  5
21D2
102
{ACAD_REACTORS
330
21D1
102
}
330
21D1
100
AcDbDictionary
1001
ACAD
1000
TREAT_AS_HARD
1070
     0
  0
DICTIONARY
  5
21DE
102
{ACAD_REACTORS
330
21D1
102
}
330
21D1
100
AcDbDictionary
1001
ACAD
1000
TREAT_AS_HARD
1070
     0
  0
DICTIONARY
  5
21DB
102
{ACAD_REACTORS
330
21D1
102
}
330
21D1
100
AcDbDictionary
  3
STANDARD
350
21DC
1001
ACAD
1000
TREAT_AS_HARD
1070
     0
  0
DICTIONARY
  5
21DD
102
{ACAD_REACTORS
330
21D1
102
}
330
21D1
100
AcDbDictionary
1001
ACAD
1000
TREAT_AS_HARD
1070
     0
  0
DICTIONARY
  5
2314
102
{ACAD_REACTORS
330
21D1
102
}
330
21D1
100
AcDbDictionary
  3
ACMSTDDICTIONARY
350
231A
1001
ACAD
1000
TREAT_AS_HARD
1070
     0
  0
DICTIONARY
  5
22FA
102
{ACAD_REACTORS
330
21D1
102
}
330
21D1
100
AcDbDictionary
  3
ACMGSETTINGS
350
22FB
1001
ACAD
1000
TREAT_AS_HARD
1070
     0
  0
DICTIONARY
  5
2348
102
{ACAD_REACTORS
330
21D1
102
}
330
21D1
100
AcDbDictionary
1001
ACAD
1000
TREAT_AS_HARD
1070
     0
  0
XRECORD
  5
2544
102
{ACAD_REACTORS
330
21D1
102
}
330
21D1
100
AcDbXrecord
  1
DWGPROPS COOKIE
  2

  3

  4

  6

  7

  8

  9

300
AmdtFileType=84
301
=
302
=
303
=
304
=
305
=
306
=
307
=
308
=
309
=
 40
0.0050603703703704
 41
2451089.39862699
 42
2452992.616963877
  1

 90
        1
  0
DICTIONARY
  5
24CC
102
{ACAD_REACTORS
330
22A3
102
}
330
22A3
100
AcDbDictionary
  3
*A1
350
24CD
1001
ACAD
1000
TREAT_AS_HARD
1070
     0
  0
XRECORD
  5
25B2
102
{ACAD_REACTORS
330
22A3
102
}
330
22A3
100
AcDbXrecord
340
21E3
  0
XRECORD
  5
25B1
102
{ACAD_REACTORS
330
22A5
102
}
330
22A5
100
AcDbXrecord
340
21DF
  0
MLINESTYLE
  5
21DC
102
{ACAD_REACTORS
330
21DB
102
}
330
21DB
100
AcDbMlineStyle
  2
STANDARD
 70
     0
  3

 62
   256
 51
90.0
 52
90.0
 71
     2
 49
0.5
 62
   256
  6
BYLAYER
 49
-0.5
 62
   256
  6
BYLAYER
  0
DICTIONARY
  5
231A
102
{ACAD_REACTORS
330
2314
102
}
330
2314
100
AcDbDictionary
1001
ACAD
1000
TREAT_AS_HARD
1070
     0
  0
DICTIONARY
  5
22FB
102
{ACAD_REACTORS
330
22FA
102
}
330
22FA
100
AcDbDictionary
  3
DWGSETTINGS
350
2530
1001
ACAD
1000
TREAT_AS_HARD
1070
     0
  0
LAYER_INDEX
  5
24CD
102
{ACAD_REACTORS
330
24CC
102
}
330
24CC
100
AcDbIndex
 40
2453057.501094826
100
AcDbLayerIndex
  8
0
360
24CE
 90
      346
  8
DIM
360
24CF
 90
      100
  8
DEFPOINTS
360
24D0
 90
        0
  8
LOGO
360
24D1
 90
      112
  8
CENTER
360
24D2
 90
       59
  8
AM_5
360
24D3
 90
        1
  0
XRECORD
  5
2530
102
{ACAD_REACTORS
330
22FB
102
}
330
22FB
100
AcDbXrecord
  1
VERSION
140
15.0
  1
PRODUCT
  2
AutoCAD Mechanical 2000
  0
IDBUFFER
  5
24CE
330
0
100
AcDbIdBuffer
330
1E93
330
1E94
330
1E95
330
1E96
330
1E97
330
1E98
330
1E99
330
1E9A
330
1E9B
330
1E9C
330
1E9D
330
1E9E
330
1E9F
330
1EA0
330
1EA2
330
1EA5
330
1EA6
330
1EA7
330
1EA8
330
1EA9
330
1EAA
330
1EAB
330
1EAC
330
1EAE
330
1EAF
330
1EB0
330
1EB8
330
1EBF
330
1EC0
330
1EC1
330
1EC2
330
1EC3
330
1EC4
330
1EC5
330
1EC6
330
1EC7
330
1EC9
330
1ECA
330
1ECB
330
1ECC
330
1ECD
330
1ECE
330
1ECF
330
1ED0
330
1ED1
330
1ED3
330
1ED4
330
1ED5
330
1ED6
330
1ED7
330
1ED8
330
1ED9
330
1EDA
330
1EDC
330
1EDD
330
1EDE
330
1EDF
330
1EE0
330
1EE1
330
1EE2
330
1EE3
330
1EE4
330
1EE5
330
1EE6
330
1EE7
330
1EE8
330
1EE9
330
1EEA
330
1EEB
330
1EEC
330
1EED
330
1EEE
330
1EEF
330
1EF0
330
1EF4
330
1EF6
330
1EF7
330
1EF8
330
1EFA
330
1EFB
330
1EFC
330
1EFD
330
1EFE
330
1EFF
330
1F00
330
1F01
330
1F02
330
1F04
330
1F05
330
1F06
330
1F07
330
1F08
330
1F09
330
1F0A
330
1F0D
330
1F0F
330
1F11
330
1F12
330
1F13
330
1F64
330
1F65
330
1F6A
330
1F6B
330
1F6C
330
1F6D
330
205E
330
20
330
53
330
F1
330
F4
330
138
330
139
330
1FD
330
36E
330
376
330
379
330
37A
330
3F0
330
3F1
330
3F2
330
3F6
330
3F9
330
3FA
330
41F
330
420
330
4ED
330
4EE
330
4F0
330
4F1
330
4F2
330
4F3
330
4F4
330
4F5
330
4FE
330
500
330
503
330
512
330
522
330
523
330
524
330
5AF
330
5B2
330
5B4
330
5B9
330
5BA
330
5BB
330
5BC
330
5BD
330
5BE
330
5BF
330
5CE
330
5D2
330
600
330
604
330
605
330
68D
330
68E
330
68F
330
690
330
695
330
6EB
330
6EC
330
71C
330
725
330
74C
330
74D
330
74E
330
751
330
7BB
330
7BD
330
7D6
330
7F2
330
7F3
330
81E
330
81F
330
821
330
822
330
823
330
825
330
828
330
857
330
A29
330
A3A
330
A3B
330
A3E
330
A3F
330
A40
330
A42
330
A43
330
A44
330
A4B
330
A50
330
A51
330
A69
330
A7A
330
A7B
330
A7D
330
A82
330
1913
330
1914
330
1916
330
191D
330
1A98
330
1AA5
330
1AA6
330
1AA7
330
1AA8
330
1AA9
330
1AAA
330
1AAB
330
1AAC
330
1AAD
330
1AB0
330
1AB1
330
1AC6
330
1B00
330
1B08
330
1B09
330
1B0A
330
1B0B
330
1B0C
330
1B0D
330
1B0E
330
1B0F
330
1B10
330
1B11
330
1B12
330
1B13
330
1B14
330
1B25
330
1B26
330
1B27
330
1B28
330
1B29
330
1B2A
330
1B2B
330
1B2C
330
1B2D
330
1B2E
330
1B2F
330
1B30
330
1B31
330
1B32
330
1B33
330
1B34
330
1B37
330
1B38
330
1B39
330
1B3A
330
1B3B
330
1B3C
330
1B3D
330
1B3E
330
1B3F
330
1B40
330
1B41
330
1B42
330
1B43
330
1B44
330
1B45
330
1B46
330
1B73
330
1B74
330
1B75
330
1B76
330
1B77
330
1B78
330
1B79
330
1B7A
330
1B7B
330
1B7C
330
1B7D
330
1B7E
330
1B7F
330
1B80
330
1B81
330
1B82
330
1B85
330
1B86
330
1B87
330
1B88
330
1B89
330
1B8A
330
1B8B
330
1B8C
330
1B8D
330
1B8E
330
1B8F
330
1B90
330
1B91
330
1B92
330
1B93
330
1B94
330
1B95
330
1B96
330
1B97
330
1B98
330
1B99
330
1B9A
330
1B9B
330
1B9C
330
1B9D
330
1B9E
330
1B9F
330
1BA0
330
1BA1
330
1BA2
330
1BA3
330
1BA4
330
1BA7
330
1BA8
330
1BA9
330
1BAA
330
1BAB
330
1BAC
330
1BAD
330
1BAE
330
1BAF
330
1BB0
330
1BB1
330
1BB2
330
1BB3
330
1BB4
330
1BB5
330
1BB6
330
1D44
330
1D45
330
1D46
330
1D48
330
1D49
330
1D4A
330
1D4B
330
1D4C
330
1D50
330
1D51
330
1D52
330
1D53
330
1D59
330
1D5D
330
1D5E
330
1D65
330
1D66
330
1D68
330
1E90
330
1E91
330
1E92
  0
IDBUFFER
  5
24CF
330
0
100
AcDbIdBuffer
330
1F9A
330
1FA7
330
1FB4
330
201B
330
2028
330
2044
330
2045
330
2046
330
204B
330
204D
330
204E
330
204F
330
2050
330
2051
330
2052
330
2053
330
2054
330
2055
330
2056
330
2057
330
2058
330
2059
330
205A
330
205B
330
205C
330
205D
330
205F
330
2062
330
2068
330
2069
330
206A
330
206B
330
206C
330
206D
330
206E
330
206F
330
2098
330
2099
330
2171
330
2175
330
209A
330
209B
330
20A1
330
2179
330
217D
330
20A2
330
20B1
330
20DA
330
20F4
330
2101
330
213D
330
247D
330
421
330
423
330
424
330
501
330
601
330
602
330
606
330
724
330
726
330
7E5
330
7E6
330
824
330
826
330
1B15
330
1B16
330
1B23
330
1B24
330
1B35
330
1B36
330
1B71
330
1B72
330
1B83
330
1B84
330
1BA5
330
1BA6
330
1BB7
330
1BB8
330
1EA3
330
1EA4
330
1EBE
330
1EC8
330
1ED2
330
1EDB
330
1EF1
330
1EF2
330
1EF9
330
1F03
330
1F1E
330
1F1F
330
1F20
330
1F21
330
1F22
330
1F23
330
1F4C
330
2169
330
216D
330
1F4D
330
1F82
  0
IDBUFFER
  5
24D0
330
0
100
AcDbIdBuffer
  0
IDBUFFER
  5
24D1
330
0
100
AcDbIdBuffer
330
2241
330
2242
330
2243
330
2244
330
2245
330
2246
330
2247
330
2248
330
2249
330
224A
330
224B
330
224C
330
224D
330
224E
330
224F
330
2250
330
2251
330
2252
330
2253
330
2254
330
2255
330
2256
330
2257
330
2258
330
2259
330
225A
330
225B
330
225C
330
225D
330
225E
330
225F
330
2260
330
2261
330
2262
330
2263
330
2264
330
2265
330
2266
330
2267
330
2268
330
2269
330
226A
330
226B
330
226C
330
226D
330
226E
330
226F
330
2270
330
2271
330
2272
330
2273
330
2274
330
2275
330
2276
330
2277
330
2278
330
2279
330
227A
330
227B
330
227C
330
227D
330
227E
330
227F
330
2280
330
2211
330
2212
330
2213
330
2214
330
2215
330
2216
330
2217
330
2218
330
2219
330
221A
330
221B
330
221C
330
221D
330
221E
330
221F
330
2220
330
2221
330
2222
330
2223
330
2224
330
2225
330
2226
330
2227
330
2228
330
2229
330
222A
330
222B
330
222C
330
222D
330
222E
330
222F
330
2230
330
2231
330
2232
330
2233
330
2234
330
2235
330
2236
330
2237
330
2238
330
2239
330
223A
330
223B
330
223C
330
223D
330
223E
330
223F
330
2240
  0
IDBUFFER
  5
24D2
330
0
100
AcDbIdBuffer
330
2081
330
2082
330
2083
330
2084
330
2085
330
2086
330
2087
330
2088
330
2089
330
208A
330
208B
330
1FB
330
373
330
3F3
330
41B
330
41E
330
425
330
426
330
4EF
330
4FF
330
504
330
5CF
330
607
330
691
330
696
330
74B
330
750
330
7E4
330
829
330
A26
330
A7C
330
B2B
330
1912
330
1D47
330
1D54
330
1D55
330
1EAD
330
1EB9
330
1EBC
330
1EF3
330
1F0B
330
1F0E
330
1F10
330
2048
330
2049
330
204A
330
2074
330
2075
330
2076
330
2077
330
2078
330
2079
330
207A
330
207B
330
207C
330
207D
330
207E
330
207F
330
2080
  0
IDBUFFER
  5
24D3
330
0
100
AcDbIdBuffer
330
24A1
  0
ENDSEC
  0
EOF
