  0
SECTION
  2
HEADER
  9
$ACADVER
  1
AC1015
  9
$ACADMAINTVER
 70
    20
  9
$DWGCODEPAGE
  3
ANSI_950
  9
$INSBASE
 10
0.0
 20
0.0
 30
0.0
  9
$EXTMIN
 10
293.398011124126
 20
1133.043943885197
 30
-0.0059988888702947
  9
$EXTMAX
 10
705.9519336117832
 20
1433.181515490442
 30
196.5925884443727
  9
$LIMMIN
 10
0.0
 20
0.0
  9
$LIMMAX
 10
420.0
 20
297.0
  9
$ORTHOMODE
 70
     0
  9
$REGENMODE
 70
     1
  9
$FILLMODE
 70
     1
  9
$QTEXTMODE
 70
     0
  9
$MIRRTEXT
 70
     1
  9
$LTSCALE
 40
1.0
  9
$ATTMODE
 70
     1
  9
$TEXTSIZE
 40
3.0
  9
$TRACEWID
 40
1.0
  9
$TEXTSTYLE
  7
STANDARD
  9
$CLAYER
  8
0
  9
$CELTYPE
  6
ByLayer
  9
$CECOLOR
 62
   256
  9
$CELTSCALE
 40
1.0
  9
$DISPSILH
 70
     0
  9
$DIMSCALE
 40
1.0
  9
$DIMASZ
 40
3.0
  9
$DIMEXO
 40
1.0
  9
$DIMDLI
 40
8.0
  9
$DIMRND
 40
0.0
  9
$DIMDLE
 40
0.0
  9
$DIMEXE
 40
1.5
  9
$DIMTP
 40
0.1
  9
$DIMTM
 40
0.1
  9
$DIMTXT
 40
3.5
  9
$DIMCEN
 40
0.0
  9
$DIMTSZ
 40
0.0
  9
$DIMTOL
 70
     0
  9
$DIMLIM
 70
     0
  9
$DIMTIH
 70
     0
  9
$DIMTOH
 70
     0
  9
$DIMSE1
 70
     0
  9
$DIMSE2
 70
     0
  9
$DIMTAD
 70
     1
  9
$DIMZIN
 70
     8
  9
$DIMBLK
  1

  9
$DIMASO
 70
     1
  9
$DIMSHO
 70
     1
  9
$DIMPOST
  1

  9
$DIMAPOST
  1
"
  9
$DIMALT
 70
     0
  9
$DIMALTD
 70
     2
  9
$DIMALTF
 40
0.0393701
  9
$DIMLFAC
 40
1.0
  9
$DIMTOFL
 70
     1
  9
$DIMTVP
 40
0.0
  9
$DIMTIX
 70
     0
  9
$DIMSOXD
 70
     0
  9
$DIMSAH
 70
     0
  9
$DIMBLK1
  1

  9
$DIMBLK2
  1

  9
$DIMSTYLE
  2
AM_ISO
  9
$DIMCLRD
 70
   256
  9
$DIMCLRE
 70
   256
  9
$DIMCLRT
 70
   256
  9
$DIMTFAC
 40
0.6
  9
$DIMGAP
 40
0.7
  9
$DIMJUST
 70
     0
  9
$DIMSD1
 70
     0
  9
$DIMSD2
 70
     0
  9
$DIMTOLJ
 70
     0
  9
$DIMTZIN
 70
     8
  9
$DIMALTZ
 70
     0
  9
$DIMALTTZ
 70
     0
  9
$DIMUPT
 70
     0
  9
$DIMDEC
 70
     2
  9
$DIMTDEC
 70
     8
  9
$DIMALTU
 70
     2
  9
$DIMALTTD
 70
     2
  9
$DIMTXSTY
  7
STANDARD
  9
$DIMAUNIT
 70
     0
  9
$DIMADEC
 70
     0
  9
$DIMALTRND
 40
0.0
  9
$DIMAZIN
 70
     2
  9
$DIMDSEP
 70
    46
  9
$DIMATFIT
 70
     3
  9
$DIMFRAC
 70
     0
  9
$DIMLDRBLK
  1

  9
$DIMLUNIT
 70
     2
  9
$DIMLWD
 70
    -1
  9
$DIMLWE
 70
    -1
  9
$DIMTMOVE
 70
     0
  9
$LUNITS
 70
     2
  9
$LUPREC
 70
     2
  9
$SKETCHINC
 40
1.0
  9
$FILLETRAD
 40
2.5
  9
$AUNITS
 70
     0
  9
$AUPREC
 70
     0
  9
$MENU
  1
.
  9
$ELEVATION
 40
0.0
  9
$PELEVATION
 40
0.0
  9
$THICKNESS
 40
0.0
  9
$LIMCHECK
 70
     0
  9
$CHAMFERA
 40
0.5
  9
$CHAMFERB
 40
0.5
  9
$CHAMFERC
 40
20.0
  9
$CHAMFERD
 40
0.0
  9
$SKPOLY
 70
     0
  9
$TDCREATE
 40
2453916.626557615
  9
$TDUCREATE
 40
2453916.293224283
  9
$TDUPDATE
 40
2455020.669675775
  9
$TDUUPDATE
 40
2455020.336342442
  9
$TDINDWG
 40
1.4027100926
  9
$TDUSRTIMER
 40
1.4027099074
  9
$USRTIMER
 70
     1
  9
$ANGBASE
 50
0.0
  9
$ANGDIR
 70
     0
  9
$PDMODE
 70
     0
  9
$PDSIZE
 40
0.0
  9
$PLINEWID
 40
0.0
  9
$SPLFRAME
 70
     0
  9
$SPLINETYPE
 70
     6
  9
$SPLINESEGS
 70
     8
  9
$HANDSEED
  5
7494
  9
$SURFTAB1
 70
     6
  9
$SURFTAB2
 70
     6
  9
$SURFTYPE
 70
     6
  9
$SURFU
 70
     6
  9
$SURFV
 70
     6
  9
$UCSBASE
  2

  9
$UCSNAME
  2

  9
$UCSORG
 10
0.0
 20
0.0
 30
0.0
  9
$UCSXDIR
 10
1.0
 20
0.0
 30
0.0
  9
$UCSYDIR
 10
0.0
 20
1.0
 30
0.0
  9
$UCSORTHOREF
  2

  9
$UCSORTHOVIEW
 70
     0
  9
$UCSORGTOP
 10
0.0
 20
0.0
 30
0.0
  9
$UCSORGBOTTOM
 10
0.0
 20
0.0
 30
0.0
  9
$UCSORGLEFT
 10
0.0
 20
0.0
 30
0.0
  9
$UCSORGRIGHT
 10
0.0
 20
0.0
 30
0.0
  9
$UCSORGFRONT
 10
0.0
 20
0.0
 30
0.0
  9
$UCSORGBACK
 10
0.0
 20
0.0
 30
0.0
  9
$PUCSBASE
  2

  9
$PUCSNAME
  2

  9
$PUCSORG
 10
0.0
 20
0.0
 30
0.0
  9
$PUCSXDIR
 10
1.0
 20
0.0
 30
0.0
  9
$PUCSYDIR
 10
0.0
 20
1.0
 30
0.0
  9
$PUCSORTHOREF
  2

  9
$PUCSORTHOVIEW
 70
     0
  9
$PUCSORGTOP
 10
0.0
 20
0.0
 30
0.0
  9
$PUCSORGBOTTOM
 10
0.0
 20
0.0
 30
0.0
  9
$PUCSORGLEFT
 10
0.0
 20
0.0
 30
0.0
  9
$PUCSORGRIGHT
 10
0.0
 20
0.0
 30
0.0
  9
$PUCSORGFRONT
 10
0.0
 20
0.0
 30
0.0
  9
$PUCSORGBACK
 10
0.0
 20
0.0
 30
0.0
  9
$USERI1
 70
     0
  9
$USERI2
 70
     0
  9
$USERI3
 70
     0
  9
$USERI4
 70
     0
  9
$USERI5
 70
     0
  9
$USERR1
 40
0.0
  9
$USERR2
 40
0.0
  9
$USERR3
 40
0.0
  9
$USERR4
 40
0.0
  9
$USERR5
 40
0.0
  9
$WORLDVIEW
 70
     1
  9
$SHADEDGE
 70
     3
  9
$SHADEDIF
 70
    70
  9
$TILEMODE
 70
     1
  9
$MAXACTVP
 70
    64
  9
$PINSBASE
 10
0.0
 20
0.0
 30
0.0
  9
$PLIMCHECK
 70
     0
  9
$PEXTMIN
 10
1.000000000000000E+20
 20
1.000000000000000E+20
 30
1.000000000000000E+20
  9
$PEXTMAX
 10
-1.000000000000000E+20
 20
-1.000000000000000E+20
 30
-1.000000000000000E+20
  9
$PLIMMIN
 10
0.0
 20
0.0
  9
$PLIMMAX
 10
420.0
 20
297.0
  9
$UNITMODE
 70
     0
  9
$VISRETAIN
 70
     1
  9
$PLINEGEN
 70
     0
  9
$PSLTSCALE
 70
     1
  9
$TREEDEPTH
 70
  3020
  9
$CMLSTYLE
  2
Standard
  9
$CMLJUST
 70
     0
  9
$CMLSCALE
 40
20.0
  9
$PROXYGRAPHICS
 70
     1
  9
$MEASUREMENT
 70
     1
  9
$CELWEIGHT
370
    -1
  9
$ENDCAPS
280
     0
  9
$JOINSTYLE
280
     0
  9
$LWDISPLAY
290
     0
  9
$INSUNITS
 70
     4
  9
$HYPERLINKBASE
  1

  9
$STYLESHEET
  1
彩色出圖.ctb
  9
$XEDIT
290
     1
  9
$CEPSNTYPE
380
     0
  9
$PSTYLEMODE
290
     1
  9
$FINGERPRINTGUID
  2
{13FD0162-0574-45C5-AF42-8725A3412D43}
  9
$VERSIONGUID
  2
{3814C147-4F4C-45AF-BF74-A300820C7BBE}
  9
$EXTNAMES
290
     1
  9
$PSVPSCALE
 40
0.0
  9
$OLESTARTUP
290
     0
  0
ENDSEC
  0
SECTION
  2
CLASSES
  0
CLASS
  1
ACDBDICTIONARYWDFLT
  2
AcDbDictionaryWithDefault
  3
ObjectDBX Classes
 90
        0
280
     0
281
     0
  0
CLASS
  1
ACDBPLACEHOLDER
  2
AcDbPlaceHolder
  3
ObjectDBX Classes
 90
        0
280
     0
281
     0
  0
CLASS
  1
LAYOUT
  2
AcDbLayout
  3
ObjectDBX Classes
 90
        0
280
     0
281
     0
  0
CLASS
  1
ACME_DOCUMENT
  2
AcMeDbDoc
  3
AcMeServices
 90
        0
280
     0
281
     0
  0
CLASS
  1
AMGSETTINGSOBJ
  2
AmgSettingsObj
  3
"AcadM|Product Description: AutoCAD Mechanical 2000|Company: Autodesk"
 90
        0
280
     0
281
     0
  0
CLASS
  1
ACMESCOPE
  2
AcMeScope
  3
AcMeServices
 90
        0
280
     0
281
     0
  0
CLASS
  1
ACMECOMMANDHISTORY
  2
AcMeCommandHistory
  3
AcMeServices
 90
        0
280
     0
281
     0
  0
CLASS
  1
ACIMSYSVARMAN
  2
AcImSysVarManager
  3
AcMeServices
 90
        0
280
     0
281
     0
  0
CLASS
  1
ACIMREALSYSVAR
  2
AcImRealSysVar
  3
AcMeServices
 90
        0
280
     0
281
     0
  0
CLASS
  1
ACIMINTSYSVAR
  2
AcImIntSysVar
  3
AcMeServices
 90
        0
280
     0
281
     0
  0
CLASS
  1
ACMEDRAWINGMAN
  2
AcMeDrawingMan
  3
AcMeServices
 90
        0
280
     0
281
     0
  0
CLASS
  1
ACMEVIEW
  2
AcMeView
  3
AcMeServices
 90
        0
280
     0
281
     0
  0
CLASS
  1
ACDBENTITYCACHE
  2
AcMeEntityCache
  3
AcMeServices
 90
        0
280
     0
281
     0
  0
CLASS
  1
GSMANAGER
  2
AcMeGSManager
  3
AcMeServices
 90
        0
280
     0
281
     0
  0
CLASS
  1
AMDTINTERNALREACTOR
  2
AmdtInternalReactor
  3
AcMeServices
 90
        0
280
     0
281
     0
  0
CLASS
  1
ACMESTATEMGR
  2
AcMeStateMgr
  3
AcMeServices
 90
        0
280
     0
281
     0
  0
CLASS
  1
ACGREFMASTER
  2
AcGrefMaster
  3
AcAttribServices
 90
        0
280
     0
281
     0
  0
CLASS
  1
ACME_DATABASE
  2
AcMeDbDatabase
  3
AcMeServices
 90
        0
280
     0
281
     0
  0
CLASS
  1
ACRFINSADJUSTERMGR
  2
AcRfInsAdjusterMgr
  3
AcMeServices
 90
        0
280
     0
281
     0
  0
CLASS
  1
ACGREFACADMASTER
  2
AcGrefacadMaster
  3
AcGrefServices
 90
        0
280
     0
281
     0
  0
CLASS
  1
AMIMASTER
  2
AmiMaster
  3
AmiServices
 90
        0
280
     0
281
     0
  0
CLASS
  1
ACMDATADICTIONARY
  2
AcmDataDictionary
  3
"AcmSymBB|Product Description: AutoCAD Mechanical 2004 DX|Company: Autodesk"
 90
        0
280
     0
281
     0
  0
CLASS
  1
ACMDATAENTRYBLOCK
  2
AcmDataEntryBlock
  3
"AcmSymBB|Product Description: AutoCAD Mechanical 2004 DX|Company: Autodesk"
 90
    32768
280
     0
281
     0
  0
CLASS
  1
ACIMSTRSYSVAR
  2
AcImStrSysVar
  3
AcMeServices
 90
        0
280
     0
281
     0
  0
CLASS
  1
ACMSTANDARDISO
  2
AcmStandardISO
  3
"Amdt_StdImp|Product Description: AutoCAD Mechanical 2004 DX|Company: Autodesk"
 90
        0
280
     0
281
     0
  0
CLASS
  1
AMGOBJPROPCFG
  2
AmgObjPropCfg
  3
"AmgLay|Product Description: AutoCAD Mechanical 2000|Company: Autodesk"
 90
        1
280
     0
281
     0
  0
CLASS
  1
AMDTEDGESTANDARDISO
  2
AmdtEdgeStdISO
  3
"Amdt_StdImp|Product Description: AutoCAD Mechanical 2004 DX|Company: Autodesk"
 90
    32768
280
     0
281
     0
  0
CLASS
  1
ACMSURFSTANDARDISO
  2
AcmSurfTextStdISO
  3
"Amdt_StdImp|Product Description: AutoCAD Mechanical 2004 DX|Company: Autodesk"
 90
        0
280
     0
281
     0
  0
CLASS
  1
ACMFCFSTANDARDISO
  2
AcmFCFStdISO
  3
"Amdt_StdImp|Product Description: AutoCAD Mechanical 2004 DX|Company: Autodesk"
 90
        0
280
     0
281
     0
  0
CLASS
  1
ACMWELDSTANDARDISO
  2
AcmWeldingStdISO
  3
"Amdt_StdImp|Product Description: AutoCAD Mechanical 2004 DX|Company: Autodesk"
 90
        0
280
     0
281
     0
  0
CLASS
  1
ACMIDSTANDARDISO
  2
AcmIdStdISO
  3
"Amdt_StdImp|Product Description: AutoCAD Mechanical 2004 DX|Company: Autodesk"
 90
        0
280
     0
281
     0
  0
CLASS
  1
ACMDATUMSTANDARDISO
  2
AcmDatumStdISO
  3
"Amdt_StdImp|Product Description: AutoCAD Mechanical 2004 DX|Company: Autodesk"
 90
        0
280
     0
281
     0
  0
CLASS
  1
ACMBOMSTANDARDISO
  2
AcmBOMStdISO
  3
"Amdt_StdImp|Product Description: AutoCAD Mechanical 2004 DX|Company: Autodesk"
 90
        0
280
     0
281
     0
  0
CLASS
  1
ACMDETAILSTANDARDISO
  2
AmdtDetailSymStdISO
  3
"Amdt_StdImp|Product Description: AutoCAD Mechanical 2004 DX|Company: Autodesk"
 90
        0
280
     0
281
     0
  0
CLASS
  1
ACMSECTIONSTANDARDISO
  2
AmdtSectionSymStdISO
  3
"Amdt_StdImp|Product Description: AutoCAD Mechanical 2004 DX|Company: Autodesk"
 90
        0
280
     0
281
     0
  0
CLASS
  1
ACMCENTERLINESTANDARDISO
  2
AmdtCenterLineStdISO
  3
"Amdt_StdImp|Product Description: AutoCAD Mechanical 2004 DX|Company: Autodesk"
 90
        0
280
     0
281
     0
  0
CLASS
  1
ACMNOTESTANDARDISO
  2
AmdtNoteStdISO
  3
"Amdt_StdImp|Product Description: AutoCAD Mechanical 2004 DX|Company: Autodesk"
 90
        0
280
     0
281
     0
  0
CLASS
  1
ACAMGLAYSTD
  2
AcAmgLayStd
  3
"AcAmgLayStd|Product Description: AutoCAD Mechanical 2000|Company: Autodesk"
 90
        0
280
     0
281
     0
  0
CLASS
  1
ACAMGDIMSTD
  2
AcAmgDimStd
  3
"AcAmgDimStd|Product Description: AutoCAD Mechanical 2000|Company: Autodesk"
 90
        0
280
     0
281
     0
  0
CLASS
  1
ACAMGHOLECHARTSTDISO
  2
AcAmgHoleChartStdISO
  3
ACMSYMBB_MODULE_NAME
 90
        0
280
     0
281
     0
  0
CLASS
  1
ACAMGTITLESTD
  2
AcAmgTitleStd
  3
"TITLEAPP"
 90
        0
280
     0
281
     0
  0
CLASS
  1
LAYER_INDEX
  2
AcDbLayerIndex
  3
ObjectDBX Classes
 90
    32768
280
     0
281
     0
  0
CLASS
  1
IDBUFFER
  2
AcDbIdBuffer
  3
ObjectDBX Classes
 90
    32768
280
     0
281
     0
  0
CLASS
  1
DICTIONARYVAR
  2
AcDbDictionaryVar
  3
ObjectDBX Classes
 90
        0
280
     0
281
     0
  0
CLASS
  1
AM_DRAWING_MGR
  2
AcDmDwgMgr
  3
AcMechDwgViewMgmt
 90
        0
280
     0
281
     0
  0
CLASS
  1
AM_DWG_DOCUMENT
  2
AcDmDwgDocument
  3
AcMechDwgViewMgmt
 90
        0
280
     0
281
     0
  0
CLASS
  1
AM_DWG_SHEET
  2
AcDmSheet
  3
AcMechDwgViewMgmt
 90
        0
280
     0
281
     0
  0
CLASS
  1
AM_VIEWDIMPARMAP
  2
AcDmViewDimParMap
  3
AcMechDwgViewMgmt
 90
        0
280
     0
281
     0
  0
CLASS
  1
AM_DWGMGR_NAME
  2
AcDmDwgMgrName
  3
AcMechDwgViewMgmt
 90
        0
280
     0
281
     0
  0
CLASS
  1
AMDTMENUSTATEMGR
  2
AmdtMenuStateMgr
  3
McadcomServices
 90
        0
280
     0
281
     0
  0
CLASS
  1
AMDTMCOMMENUSTATE
  2
AmdtMcomMenuState
  3
McadcomServices
 90
        0
280
     0
281
     0
  0
CLASS
  1
MAPIAMMOUDLE
  2
MApiAmModule
  3
MApiAmServices
 90
        0
280
     0
281
     0
  0
CLASS
  1
AMDTADMENUSTATE
  2
AmdtAdMenuState
  3
DesignerServices
 90
        0
280
     0
281
     0
  0
CLASS
  1
ADAPPL
  2
AcAdAppl
  3
DesignerServices
 90
        0
280
     0
281
     0
  0
CLASS
  1
DEPMGR
  2
AcAdDepMgr
  3
DesignerServices
 90
        0
280
     0
281
     0
  0
CLASS
  1
PARAMMGR
  2
AcAdParamMgr
  3
DesignerServices
 90
        0
280
     0
281
     0
  0
CLASS
  1
PARAMSCOPE
  2
AcAdParamScope
  3
DesignerServices
 90
        0
280
     0
281
     0
  0
CLASS
  1
NAMEDAPPL
  2
AcAdNamedAppl
  3
DesignerServices
 90
        0
280
     0
281
     0
  0
CLASS
  1
AMDTDMMENUSTATE
  2
AmdtDmMenuState
  3
AcMechDwgViewMgmt
 90
        0
280
     0
281
     0
  0
CLASS
  1
AMDTAMMENUSTATE
  2
AmdtAmMenuState
  3
DesignerAssemblies
 90
        0
280
     0
281
     0
  0
CLASS
  1
ACAMPROJECT
  2
AcAmProject
  3
DesignerAssemblies
 90
        0
280
     0
281
     0
  0
CLASS
  1
ACAMGRCOMPDEF
  2
AcAmGrCompDef
  3
DesignerAssemblies
 90
        0
280
     0
281
     0
  0
CLASS
  1
ACCMCONTEXT
  2
AcCmContext
  3
DesignerAssemblies
 90
        0
280
     0
281
     0
  0
CLASS
  1
ACAMCOMPDEF
  2
AcAmCompDef
  3
DesignerAssemblies
 90
        0
280
     0
281
     0
  0
CLASS
  1
ACAMCOMPDEFMGR
  2
AcAmCompDefMgr
  3
DesignerAssemblies
 90
        0
280
     0
281
     0
  0
CLASS
  1
AMCONTEXTMGR
  2
AcAmContextMgr
  3
DesignerAssemblies
 90
        0
280
     0
281
     0
  0
CLASS
  1
ACAMCONTEXTMODELER
  2
AcAmContextModeler
  3
DesignerAssemblies
 90
        0
280
     0
281
     0
  0
CLASS
  1
ACMTHREADLINESTANDARDISO
  2
AmdtThreadLineStdISO
  3
"Amdt_StdImp|Product Description: AutoCAD Mechanical 2004 DX|Company: Autodesk"
 90
        0
280
     0
281
     0
  0
CLASS
  1
CATALOGSTATE
  2
AcAmCatalogState
  3
DesignerAssemblies
 90
        0
280
     0
281
     0
  0
CLASS
  1
ACAMGRCOMPDEFSET
  2
AcAmGrCompDefSet
  3
DesignerAssemblies
 90
        0
280
     0
281
     0
  0
CLASS
  1
AMDTBROWSERDBTAB
  2
AmdtBrowserDbTab
  3
McadcomServices
 90
        0
280
     0
281
     0
  0
CLASS
  1
CBROWSERAPPOBJECT
  2
CBrowserAppObject
  3
McadcomServices
 90
        0
280
     0
281
     0
  0
CLASS
  1
DM_PLACEHOLDER
  2
AcDmSelsetPlaceholder
  3
AcMechDwgViewMgmt
 90
        0
280
     0
281
     0
  0
CLASS
  1
TABLESTYLE
  2
AcDbTableStyle
  3
ObjectDBX Classes
 90
     2047
280
     0
281
     0
  0
CLASS
  1
VAACXREFPANELOBJECT
  2
VaAcXREFPanelObject
  3
VAAC_ADDIN
 90
    32768
280
     0
281
     0
  0
CLASS
  1
VAACIMAGEINVENTORY
  2
VaAcImageInventory
  3
VAAC_ADDIN
 90
    32768
280
     0
281
     0
  0
CLASS
  1
AMDTNOTETEMPLATEDB
  2
AmdtNoteTemplateDB
  3
AMDT_STDIMP_MODULE_NAME
 90
        0
280
     0
281
     0
  0
CLASS
  1
ACMBOM
  2
AcmBom
  3
"AcmSymBB|Product Description: AutoCAD Mechanical 2004 DX|Company: Autodesk"
 90
    32768
280
     0
281
     0
  0
CLASS
  1
AMDTFORMULAUPDATEDISPATCHER
  2
AmdtFormulaUpdateDispatcher
  3
AcMeServices
 90
    32768
280
     0
281
     0
  0
CLASS
  1
ACMPARTLIST
  2
AcmPartList
  3
"AcmSymBB|Product Description: AutoCAD Mechanical 2004 DX|Company: Autodesk"
 90
    33791
280
     0
281
     1
  0
CLASS
  1
ACAMGFILTERDAT
  2
AcAmgFilterDat
  3
"AcadM|Product Description: AutoCAD Mechanical 2000|Company: Autodesk"
 90
    32768
280
     0
281
     0
  0
CLASS
  1
DIMASSOC
  2
AcDbDimAssoc
  3
"AcDbDimAssoc|Product Desc:     AcDim ARX App For Dimension|Company:          Autodesk, Inc.|WEB Address:      www.autodesk.com"
 90
        0
280
     0
281
     0
  0
CLASS
  1
STDPART2D
  2
AmgStdPart
  3
"AmgStdPart|Product Description: AutoCAD Mechanical 2000|Company: Autodesk"
 90
    33791
280
     0
281
     1
  0
CLASS
  1
ACAMSTDPCOMPDEF
  2
AcAmStdpCompDef
  3
DesignerAssemblies
 90
    32768
280
     0
281
     0
  0
CLASS
  1
ACRFATTGENMGR
  2
AcRfAttGeneralMgr
  3
AcAttribServices
 90
        0
280
     0
281
     0
  0
CLASS
  1
ACRFOBJATTMGR
  2
AcRfObjAttGroupMgr
  3
AcAttribServices
 90
    32768
280
     0
281
     0
  0
CLASS
  1
ACRFMCADAPIATTHOLDER
  2
AcRfMCADAPIAttHolder
  3
AcAttribServices
 90
    32768
280
     0
281
     0
  0
CLASS
  1
AMDTSYSATTR
  2
AmdtSystemAttribute
  3
AcAttribServices
 90
    32768
280
     0
281
     0
  0
CLASS
  1
ACAMCOMP
  2
AcAmComp
  3
DesignerAssemblies
 90
    32768
280
     0
281
     0
  0
CLASS
  1
AC_AM_STDP_VIEW_DEF
  2
AcAmStdpViewDef
  3
DesignerAssemblies
 90
    32768
280
     0
281
     0
  0
CLASS
  1
AC_AM_MVD_DEP_MGR
  2
AcAmMVDdepMgr
  3
DesignerAssemblies
 90
    32768
280
     0
281
     0
  0
CLASS
  1
AC_AM_MASTER_VIEW_DEF
  2
AcAmMasterViewDef
  3
DesignerAssemblies
 90
    32768
280
     0
281
     0
  0
CLASS
  1
AC_AM_DIRTY_NODES
  2
AcAmDirtyNodes
  3
DesignerAssemblies
 90
    32768
280
     0
281
     0
  0
CLASS
  1
AC_AM_MAPPER_CACHE
  2
AcAmMapperCache
  3
DesignerAssemblies
 90
    32768
280
     0
281
     0
  0
CLASS
  1
ACAMMVDBACKUPOBJECT
  2
AcAmMVDBackupObject
  3
DesignerAssemblies
 90
    32768
280
     0
281
     0
  0
CLASS
  1
AC_AM_COMP_VIEW_INST
  2
AcAmCompView
  3
DesignerAssemblies
 90
    32768
280
     0
281
     0
  0
CLASS
  1
AC_AM_2D_XREF_MGR
  2
AcAmXrefMgr2d
  3
DesignerAssemblies
 90
    32768
280
     0
281
     0
  0
CLASS
  1
SORTENTSTABLE
  2
AcDbSortentsTable
  3
ObjectDBX Classes
 90
        0
280
     0
281
     0
  0
CLASS
  1
ACDBCIRCARCRES
  2
AcDbCircArcRes
  3
AcGrefServices
 90
    32768
280
     0
281
     0
  0
CLASS
  1
AMDTNOTE
  2
AmdtNote
  3
"AcmSymBB|Product Description: AutoCAD Mechanical 2004 DX|Company: Autodesk"
 90
    33791
280
     0
281
     1
  0
CLASS
  1
ACDBLINERES
  2
AcDbLineRes
  3
AcGrefServices
 90
    32768
280
     0
281
     0
  0
CLASS
  1
ACMSTANDARDANSI
  2
AcmStandardANSI
  3
"Amdt_StdImp|Product Description: AutoCAD Mechanical 2004 DX|Company: Autodesk"
 90
    32768
280
     0
281
     0
  0
CLASS
  1
ACMSURFSTANDARDANSI
  2
AcmSurfTextStdANSI
  3
"Amdt_StdImp|Product Description: AutoCAD Mechanical 2004 DX|Company: Autodesk"
 90
    32768
280
     0
281
     0
  0
CLASS
  1
ACMFCFSTANDARDANSI
  2
AcmFCFStdANSI
  3
"Amdt_StdImp|Product Description: AutoCAD Mechanical 2004 DX|Company: Autodesk"
 90
    32768
280
     0
281
     0
  0
CLASS
  1
ACMWELDSTANDARDANSI
  2
AcmWeldingStdANSI
  3
"Amdt_StdImp|Product Description: AutoCAD Mechanical 2004 DX|Company: Autodesk"
 90
    32768
280
     0
281
     0
  0
CLASS
  1
ACMIDSTANDARDANSI
  2
AcmIdStdANSI
  3
"Amdt_StdImp|Product Description: AutoCAD Mechanical 2004 DX|Company: Autodesk"
 90
    32768
280
     0
281
     0
  0
CLASS
  1
ACMDATUMSTANDARDANSI
  2
AcmDatumStdANSI
  3
"Amdt_StdImp|Product Description: AutoCAD Mechanical 2004 DX|Company: Autodesk"
 90
    32768
280
     0
281
     0
  0
CLASS
  1
ACMBOMSTANDARDANSI
  2
AcmBOMStdANSI
  3
"Amdt_StdImp|Product Description: AutoCAD Mechanical 2004 DX|Company: Autodesk"
 90
    32768
280
     0
281
     0
  0
CLASS
  1
ACMDETAILSTANDARDANSI
  2
AmdtDetailSymStdANSI
  3
"Amdt_StdImp|Product Description: AutoCAD Mechanical 2004 DX|Company: Autodesk"
 90
    32768
280
     0
281
     0
  0
CLASS
  1
ACMSECTIONSTANDARDANSI
  2
AmdtSectionSymStdANSI
  3
"Amdt_StdImp|Product Description: AutoCAD Mechanical 2004 DX|Company: Autodesk"
 90
    32768
280
     0
281
     0
  0
CLASS
  1
ACMCENTERLINESTANDARDANSI
  2
AmdtCenterLineStdANSI
  3
"Amdt_StdImp|Product Description: AutoCAD Mechanical 2004 DX|Company: Autodesk"
 90
    32768
280
     0
281
     0
  0
CLASS
  1
ACMTHREADLINESTANDARDANSI
  2
AmdtThreadLineStdANSI
  3
"Amdt_StdImp|Product Description: AutoCAD Mechanical 2004 DX|Company: Autodesk"
 90
    32768
280
     0
281
     0
  0
CLASS
  1
ACMNOTESTANDARDANSI
  2
AmdtNoteStdANSI
  3
"Amdt_StdImp|Product Description: AutoCAD Mechanical 2004 DX|Company: Autodesk"
 90
    32768
280
     0
281
     0
  0
CLASS
  1
ACAMGHOLECHARTSTDANSI
  2
AcAmgHoleChartStdANSI
  3
ACMSYMBB_MODULE_NAME
 90
    32768
280
     0
281
     0
  0
CLASS
  1
AC_AM_HIDE_SITUATION
  2
AcAmHideSituation
  3
DesignerAssemblies
 90
    32768
280
     0
281
     0
  0
CLASS
  1
AMDTEDGESTANDARDISO13715
  2
AmdtEdgeStdISO13715
  3
"Amdt_StdImp|Product Description: AutoCAD Mechanical 2004 DX|Company: Autodesk"
 90
        0
280
     0
281
     0
  0
ENDSEC
  0
SECTION
  2
TABLES
  0
TABLE
  2
VPORT
  5
8
330
0
100
AcDbSymbolTable
 70
    10
  0
VPORT
  5
748B
330
8
100
AcDbSymbolTableRecord
100
AcDbViewportTableRecord
  2
*Active
 70
     0
 10
0.0
 20
0.0
 11
1.0
 21
1.0
 12
499.6749723679546
 22
1283.112729687819
 13
0.0
 23
0.0
 14
2.5
 24
2.5
 15
10.0
 25
10.0
 16
0.0
 26
0.0
 36
1.0
 17
0.0
 27
0.0
 37
0.0
 40
457.6186461376715
 41
0.9093298291721419
 42
50.0
 43
0.0
 44
0.0
 50
0.0
 51
0.0
 71
     0
 72
   100
 73
     1
 74
     3
 75
     0
 76
     0
 77
     0
 78
     0
281
     0
 65
     1
110
0.0
120
0.0
130
0.0
111
1.0
121
0.0
131
0.0
112
0.0
122
1.0
132
0.0
 79
     0
146
0.0
  0
ENDTAB
  0
TABLE
  2
LTYPE
  5
5
330
0
100
AcDbSymbolTable
 70
    16
  0
LTYPE
  5
14
330
5
100
AcDbSymbolTableRecord
100
AcDbLinetypeTableRecord
  2
ByBlock
 70
     0
  3

 72
    65
 73
     0
 40
0.0
  0
LTYPE
  5
15
330
5
100
AcDbSymbolTableRecord
100
AcDbLinetypeTableRecord
  2
ByLayer
 70
     0
  3

 72
    65
 73
     0
 40
0.0
  0
LTYPE
  5
16
330
5
100
AcDbSymbolTableRecord
100
AcDbLinetypeTableRecord
  2
Continuous
 70
     0
  3
Solid line
 72
    65
 73
     0
 40
0.0
  0
LTYPE
  5
64
330
5
100
AcDbSymbolTableRecord
100
AcDbLinetypeTableRecord
  2
AM_ISO02W050
 70
     0
  3
__ __ __ __ __ __ __ __ __ __ __ __ __ __ __
 72
    65
 73
     2
 40
7.5
 49
6.0
 74
     0
 49
-1.5
 74
     0
  0
LTYPE
  5
65
330
5
100
AcDbSymbolTableRecord
100
AcDbLinetypeTableRecord
  2
AM_ISO08W050
 70
     0
  3
____ . ____ . ____ . ____ . ____ . ____ . ____
 72
    65
 73
     4
 40
18.0
 49
12.0
 74
     0
 49
-1.5
 74
     0
 49
3.0
 74
     0
 49
-1.5
 74
     0
  0
LTYPE
  5
66
330
5
100
AcDbSymbolTableRecord
100
AcDbLinetypeTableRecord
  2
AM_ISO09W050
 70
     0
  3
_____ . . _____ . . _____ . . ____ .. ____
 72
    65
 73
     6
 40
22.5
 49
12.0
 74
     0
 49
-1.5
 74
     0
 49
3.0
 74
     0
 49
-1.5
 74
     0
 49
3.0
 74
     0
 49
-1.5
 74
     0
  0
LTYPE
  5
67
330
5
100
AcDbSymbolTableRecord
100
AcDbLinetypeTableRecord
  2
Amconstr
 70
     0
  3
_______________________
 72
    65
 73
     2
 40
9999.0
 49
9999.0
 74
     0
 49
0.0
 74
     0
  0
LTYPE
  5
68
330
5
100
AcDbSymbolTableRecord
100
AcDbLinetypeTableRecord
  2
AM_ISO08W050x2
 70
     0
  3
__ . __ . __ . __ . __ . __
 72
    65
 73
     4
 40
9.0
 49
6.0
 74
     0
 49
-0.75
 74
     0
 49
1.5
 74
     0
 49
-0.75
 74
     0
  0
LTYPE
  5
69
330
5
100
AcDbSymbolTableRecord
100
AcDbLinetypeTableRecord
  2
AM_ISO02W050x2
 70
     0
  3
 _ _ _ _ _ _ _ _ _ _ _ _
 72
    65
 73
     2
 40
3.75
 49
3.0
 74
     0
 49
-0.75
 74
     0
  0
LTYPE
  5
6C
330
5
100
AcDbSymbolTableRecord
100
AcDbLinetypeTableRecord
  2
Amzigzag
 70
     0
  3
/\/-/\/-/\/-/\/-/\/-/\/
 72
    65
 73
     2
 40
11.0001
 49
0.0001
 74
     4
 75
   135
340
6B
 46
0.04
 50
0.0
 44
0.0
 45
0.0
 49
-11.0
 74
     0
  0
LTYPE
  5
7A
330
5
100
AcDbSymbolTableRecord
100
AcDbLinetypeTableRecord
  2
ACISOWELD
 70
     0
  3
_ _ _ _ _
 72
    65
 73
     2
 40
2.0
 49
2.0
 74
     0
 49
-1.0
 74
     0
  0
LTYPE
  5
7B
330
5
100
AcDbSymbolTableRecord
100
AcDbLinetypeTableRecord
  2
ACISOTGB
 70
     0
  3
__ . . __ . .
 72
    65
 73
     6
 40
9.0
 49
4.0
 74
     0
 49
-1.0
 74
     0
 49
1.0
 74
     0
 49
-1.0
 74
     0
 49
1.0
 74
     0
 49
-1.0
 74
     0
  0
LTYPE
  5
7C
330
5
100
AcDbSymbolTableRecord
100
AcDbLinetypeTableRecord
  2
ACISOTGL
 70
     0
  3
_ _ _ _ _
 72
    65
 73
     2
 40
3.0
 49
2.0
 74
     0
 49
-1.0
 74
     0
  0
LTYPE
  5
7E
330
5
100
AcDbSymbolTableRecord
100
AcDbLinetypeTableRecord
  2
CENTER
 70
     0
  3
__ . __
 72
    65
 73
     4
 40
7.0
 49
4.0
 74
     0
 49
-1.0
 74
     0
 49
1.0
 74
     0
 49
-1.0
 74
     0
  0
LTYPE
  5
D8
330
5
100
AcDbSymbolTableRecord
100
AcDbLinetypeTableRecord
  2
HIDDEN
 70
     0
  3
Hidden __ __ __ __ __ __ __ __ __ __ __ __ __ _
 72
    65
 73
     2
 40
9.524999999999998
 49
6.349999999999999
 74
     0
 49
-3.174999999999999
 74
     0
  0
LTYPE
  5
D9
330
5
100
AcDbSymbolTableRecord
100
AcDbLinetypeTableRecord
  2
PHANTOM2
 70
     0
  3
Phantom (.5x) ___ _ _ ___ _ _ ___ _ _ ___ _ _
 72
    65
 73
     6
 40
31.75
 49
15.875
 74
     0
 49
-3.174999999999999
 74
     0
 49
3.174999999999999
 74
     0
 49
-3.174999999999999
 74
     0
 49
3.174999999999999
 74
     0
 49
-3.174999999999999
 74
     0
  0
ENDTAB
  0
TABLE
  2
LAYER
  5
2
102
{ACAD_XDICTIONARY
360
3F9
102
}
330
0
100
AcDbSymbolTable
 70
    14
  0
LAYER
  5
10
330
2
100
AcDbSymbolTableRecord
100
AcDbLayerTableRecord
  2
0
 70
     0
 62
     7
  6
Continuous
370
    -3
390
F
  0
LAYER
  5
A47
330
2
100
AcDbSymbolTableRecord
100
AcDbLayerTableRecord
  2
AM_VIS
 70
     0
 62
     7
  6
Continuous
370
    50
390
F
  0
LAYER
  5
A48
330
2
100
AcDbSymbolTableRecord
100
AcDbLayerTableRecord
  2
AM_7
 70
     0
 62
     1
  6
CENTER
370
    25
390
F
  0
LAYER
  5
A49
330
2
100
AcDbSymbolTableRecord
100
AcDbLayerTableRecord
  2
AM_4
 70
     0
 62
     3
  6
Continuous
370
    25
390
F
  0
LAYER
  5
11DD
330
2
100
AcDbSymbolTableRecord
100
AcDbLayerTableRecord
  2
AM_0
 70
     0
 62
     7
  6
Continuous
370
    50
390
F
  0
LAYER
  5
1369
330
2
100
AcDbSymbolTableRecord
100
AcDbLayerTableRecord
  2
AM_5
 70
     0
 62
     5
  6
Continuous
370
    50
390
F
  0
LAYER
  5
1379
330
2
100
AcDbSymbolTableRecord
100
AcDbLayerTableRecord
  2
Defpoints
 70
     0
 62
     7
  6
Continuous
290
     0
370
    -3
390
F
  0
LAYER
  5
1FFE
330
2
100
AcDbSymbolTableRecord
100
AcDbLayerTableRecord
  2
BORDER
 70
     0
 62
     7
  6
Continuous
370
    -3
390
F
  0
LAYER
  5
6F80
330
2
100
AcDbSymbolTableRecord
100
AcDbLayerTableRecord
  2
LOGO
 70
     0
 62
     7
  6
Continuous
370
    -3
390
F
  0
LAYER
  5
7143
330
2
100
AcDbSymbolTableRecord
100
AcDbLayerTableRecord
  2
BOR
 70
     0
 62
     7
  6
Continuous
370
    -3
390
F
  0
ENDTAB
  0
TABLE
  2
STYLE
  5
3
330
0
100
AcDbSymbolTable
 70
     7
  0
STYLE
  5
11
330
3
100
AcDbSymbolTableRecord
100
AcDbTextStyleTableRecord
  2
STANDARD
 70
     0
 40
0.0
 41
1.0
 50
0.0
 71
     0
 42
3.0
  3
ISOCP.SHX
  4
CHINESET.SHX
  0
STYLE
  5
6B
330
3
100
AcDbSymbolTableRecord
100
AcDbTextStyleTableRecord
  2

 70
     1
 40
0.0
 41
1.0
 50
0.0
 71
     0
 42
2.5
  3
ltypeshp.shx
  4

  0
STYLE
  5
6D
330
3
100
AcDbSymbolTableRecord
100
AcDbTextStyleTableRecord
  2
ACISOTS
 70
     0
 40
1.0
 41
1.0
 50
0.0
 71
     0
 42
1.0
  3
isocp.shx
  4
chineset.shx
  0
STYLE
  5
79
330
3
100
AcDbSymbolTableRecord
100
AcDbTextStyleTableRecord
  2
ACISOGDT
 70
     0
 40
0.0
 41
1.0
 50
0.0
 71
     0
 42
2.5
  3
amgdt.shx
  4
chineset.shx
  0
STYLE
  5
6F81
330
3
100
AcDbSymbolTableRecord
100
AcDbTextStyleTableRecord
  2
CHINESET
 70
     0
 40
0.0
 41
1.0
 50
0.0
 71
     0
 42
3.0
  3
simplex.shx
  4
CHINESET.SHX
  0
ENDTAB
  0
TABLE
  2
VIEW
  5
6
330
0
100
AcDbSymbolTable
 70
     0
  0
ENDTAB
  0
TABLE
  2
UCS
  5
7
330
0
100
AcDbSymbolTable
 70
     0
  0
ENDTAB
  0
TABLE
  2
APPID
  5
9
330
0
100
AcDbSymbolTable
 70
    43
  0
APPID
  5
12
330
9
100
AcDbSymbolTableRecord
100
AcDbRegAppTableRecord
  2
ACAD
 70
     0
  0
APPID
  5
46
330
9
100
AcDbSymbolTableRecord
100
AcDbRegAppTableRecord
  2
MCAD_NO_VIS
 70
     0
  0
APPID
  5
47
330
9
100
AcDbSymbolTableRecord
100
AcDbRegAppTableRecord
  2
ACAD_TEMP_GRAPHIC
 70
     0
  0
APPID
  5
58
330
9
100
AcDbSymbolTableRecord
100
AcDbRegAppTableRecord
  2
ACATTRIBSERVICES
 70
     0
  0
APPID
  5
EE
330
9
100
AcDbSymbolTableRecord
100
AcDbRegAppTableRecord
  2
AD_DRAW
 70
     0
  0
APPID
  5
10C
330
9
100
AcDbSymbolTableRecord
100
AcDbRegAppTableRecord
  2
DESIGNERASSEMBLIES
 70
     0
  0
APPID
  5
111
330
9
100
AcDbSymbolTableRecord
100
AcDbRegAppTableRecord
  2
ACADM_DIM_EDIT
 70
     0
  0
APPID
  5
112
330
9
100
AcDbSymbolTableRecord
100
AcDbRegAppTableRecord
  2
AMDT_DM_ADJ
 70
     0
  0
APPID
  5
22C
330
9
100
AcDbSymbolTableRecord
100
AcDbRegAppTableRecord
  2
ACAD_DSTYLE_DIMTEXT_FILL
 70
     0
  0
APPID
  5
452
330
9
100
AcDbSymbolTableRecord
100
AcDbRegAppTableRecord
  2
GENIUS_GENOENT_13
 70
     0
  0
APPID
  5
453
330
9
100
AcDbSymbolTableRecord
100
AcDbRegAppTableRecord
  2
GENIUS_GENOBJ-N-CRS_13
 70
     0
  0
APPID
  5
454
330
9
100
AcDbSymbolTableRecord
100
AcDbRegAppTableRecord
  2
GENIUS_GENOLIS_13
 70
     0
  0
APPID
  5
455
330
9
100
AcDbSymbolTableRecord
100
AcDbRegAppTableRecord
  2
GENIUS_GENODEF_13
 70
     0
  0
APPID
  5
456
330
9
100
AcDbSymbolTableRecord
100
AcDbRegAppTableRecord
  2
GENIUS_GENOREF_13
 70
     0
  0
APPID
  5
6F3
330
9
100
AcDbSymbolTableRecord
100
AcDbRegAppTableRecord
  2
ACAD_PSEXT
 70
     0
  0
APPID
  5
808
330
9
100
AcDbSymbolTableRecord
100
AcDbRegAppTableRecord
  2
GENIUS_GENDTOL_13
 70
     0
  0
APPID
  5
11E4
330
9
100
AcDbSymbolTableRecord
100
AcDbRegAppTableRecord
  2
GEVID1151564621
 70
     0
  0
APPID
  5
11E5
330
9
100
AcDbSymbolTableRecord
100
AcDbRegAppTableRecord
  2
GEVDC
 70
     0
  0
APPID
  5
11E6
330
9
100
AcDbSymbolTableRecord
100
AcDbRegAppTableRecord
  2
GEVRADREF
 70
     0
  0
APPID
  5
11EF
330
9
100
AcDbSymbolTableRecord
100
AcDbRegAppTableRecord
  2
AMG_2DHIDE
 70
     0
  0
APPID
  5
11F0
330
9
100
AcDbSymbolTableRecord
100
AcDbRegAppTableRecord
  2
AMG_2DSTRUCT_BTR
 70
     0
  0
APPID
  5
1201
330
9
100
AcDbSymbolTableRecord
100
AcDbRegAppTableRecord
  2
ACADM_2DVIEW_IGN_NOTIFY
 70
     0
  0
APPID
  5
1231
330
9
100
AcDbSymbolTableRecord
100
AcDbRegAppTableRecord
  2
GEVID1151564622
 70
     0
  0
APPID
  5
1262
330
9
100
AcDbSymbolTableRecord
100
AcDbRegAppTableRecord
  2
GEVID1151564623
 70
     0
  0
APPID
  5
1860
330
9
100
AcDbSymbolTableRecord
100
AcDbRegAppTableRecord
  2
ACAD_DIMASSOC_DIMLFAC
 70
     0
  0
APPID
  5
1861
330
9
100
AcDbSymbolTableRecord
100
AcDbRegAppTableRecord
  2
ACAD_DIMASSOC_CALC_DIMLFAC
 70
     0
  0
APPID
  5
1862
330
9
100
AcDbSymbolTableRecord
100
AcDbRegAppTableRecord
  2
ACAD_DIMASSOC_OVERRIDDEN_DIMLFAC
 70
     0
  0
APPID
  5
20E5
330
9
100
AcDbSymbolTableRecord
100
AcDbRegAppTableRecord
  2
GEVID1151625661
 70
     0
  0
APPID
  5
2115
330
9
100
AcDbSymbolTableRecord
100
AcDbRegAppTableRecord
  2
GEVID1151625662
 70
     0
  0
APPID
  5
2131
330
9
100
AcDbSymbolTableRecord
100
AcDbRegAppTableRecord
  2
GEVID1151625663
 70
     0
  0
APPID
  5
2132
330
9
100
AcDbSymbolTableRecord
100
AcDbRegAppTableRecord
  2
GEVMK
 70
     0
  0
APPID
  5
2C49
330
9
100
AcDbSymbolTableRecord
100
AcDbRegAppTableRecord
  2
GENIUS_GENOBJ-N-CEN_13
 70
     0
  0
APPID
  5
2C4A
330
9
100
AcDbSymbolTableRecord
100
AcDbRegAppTableRecord
  2
GENIUS_GENCEN_19
 70
     0
  0
APPID
  5
2F66
330
9
100
AcDbSymbolTableRecord
100
AcDbRegAppTableRecord
  2
GEVID1151908765
 70
     0
  0
APPID
  5
2FDB
330
9
100
AcDbSymbolTableRecord
100
AcDbRegAppTableRecord
  2
GEVID1151908766
 70
     0
  0
APPID
  5
3C74
330
9
100
AcDbSymbolTableRecord
100
AcDbRegAppTableRecord
  2
GEVID1151908767
 70
     0
  0
APPID
  5
3CA2
330
9
100
AcDbSymbolTableRecord
100
AcDbRegAppTableRecord
  2
GEVID1151908768
 70
     0
  0
APPID
  5
3CC1
330
9
100
AcDbSymbolTableRecord
100
AcDbRegAppTableRecord
  2
GEVID1151908769
 70
     0
  0
APPID
  5
3FF1
330
9
100
AcDbSymbolTableRecord
100
AcDbRegAppTableRecord
  2
GENIUS_GENREC_14
 70
     0
  0
APPID
  5
3FF2
330
9
100
AcDbSymbolTableRecord
100
AcDbRegAppTableRecord
  2
GENIUS_GENOBJ-N-REC_13
 70
     0
  0
APPID
  5
4D81
330
9
100
AcDbSymbolTableRecord
100
AcDbRegAppTableRecord
  2
GEVID1151981890
 70
     0
  0
APPID
  5
63C5
330
9
100
AcDbSymbolTableRecord
100
AcDbRegAppTableRecord
  2
GEVID1151981891
 70
     0
  0
APPID
  5
641E
330
9
100
AcDbSymbolTableRecord
100
AcDbRegAppTableRecord
  2
GEVID1151981892
 70
     0
  0
ENDTAB
  0
TABLE
  2
DIMSTYLE
  5
A
330
0
100
AcDbSymbolTable
 70
    16
100
AcDbDimStyleTable
 71
     3
340
81
340
8B
340
86
  0
DIMSTYLE
105
81
330
A
100
AcDbSymbolTableRecord
100
AcDbDimStyleTableRecord
  2
AM_ISO
 70
     0
  4
"
 41
3.0
 42
1.0
 43
8.0
 44
1.5
 47
0.1
 48
0.1
 73
     0
 74
     0
 77
     1
 78
     8
 79
     2
140
3.5
141
0.0
143
0.0393701
146
0.6
147
0.7
172
     1
176
   256
177
   256
178
   256
271
     2
272
     2
283
     0
284
     8
340
11
371
    -1
372
    -1
  0
DIMSTYLE
105
82
330
A
100
AcDbSymbolTableRecord
100
AcDbDimStyleTableRecord
  2
AM_ISO$3
 70
     0
  4
"
 41
3.0
 42
1.0
 43
8.0
 44
1.5
 47
0.1
 48
0.1
 73
     0
 77
     1
 78
     8
 79
     2
140
3.5
141
0.0
143
0.0393701
146
0.6
147
0.7
176
   256
177
   256
178
   256
271
     2
272
     2
283
     0
284
     8
288
     1
289
     0
340
11
371
    -1
372
    -1
  0
DIMSTYLE
105
83
330
A
100
AcDbSymbolTableRecord
100
AcDbDimStyleTableRecord
  2
AM_ISO$4
 70
     0
  4
"
 41
3.0
 42
1.0
 43
8.0
 44
1.5
 47
0.1
 48
0.1
 73
     0
 77
     1
 78
     8
 79
     2
140
3.5
141
0.0
143
0.0393701
146
0.6
147
0.7
176
   256
177
   256
178
   256
271
     2
272
     2
283
     0
284
     8
288
     1
289
     0
340
11
371
    -1
372
    -1
  0
DIMSTYLE
105
84
330
A
100
AcDbSymbolTableRecord
100
AcDbDimStyleTableRecord
  2
AM_ISO$6
 70
     0
  4
"
 41
3.0
 42
1.0
 43
8.0
 44
1.5
 47
0.1
 48
0.1
 73
     0
 74
     0
 78
     8
 79
     2
140
3.5
141
0.0
143
0.0393701
146
0.6
147
0.7
172
     1
176
   256
177
   256
178
   256
271
     2
272
     2
283
     0
284
     8
340
11
371
    -1
372
    -1
  0
DIMSTYLE
105
85
330
A
100
AcDbSymbolTableRecord
100
AcDbDimStyleTableRecord
  2
AM_ISO$7
 70
     0
  4
"
 41
3.0
 42
1.0
 43
8.0
 44
1.5
 47
0.1
 48
0.1
 73
     0
 74
     0
 77
     1
 78
     8
 79
     2
140
5.0
141
0.0
143
0.0393701
146
0.6
147
0.7
172
     1
176
   256
177
   256
178
   256
271
     2
272
     2
283
     0
284
     8
340
11
371
    -1
372
    -1
  0
DIMSTYLE
105
86
330
A
100
AcDbSymbolTableRecord
100
AcDbDimStyleTableRecord
  2
AM_ISO$SF
 70
     0
  4
"
 41
2.5
 42
1.0
 43
10.0
 44
1.0
 47
0.1
 48
0.1
 73
     0
 74
     0
 75
     1
 76
     1
 77
     1
 78
     8
 79
     2
140
3.5
141
0.0
143
0.0393701
146
0.71
147
1.5
172
     1
176
   256
177
   256
178
     2
271
     2
272
     3
274
     4
283
     0
284
     8
340
11
371
    -1
372
    -1
  0
DIMSTYLE
105
8B
330
A
100
AcDbSymbolTableRecord
100
AcDbDimStyleTableRecord
  2
AM_ISO$SH
 70
     0
  4
"
 41
2.5
 42
1.0
 43
10.0
 44
1.0
 47
0.1
 48
0.1
 73
     0
 74
     0
 75
     1
 76
     1
 77
     1
 78
     8
 79
     2
140
3.5
141
0.0
143
0.0393701
144
2.0
146
0.71
147
1.5
172
     1
173
     1
176
   256
177
   256
178
     2
271
     2
272
     3
274
     4
283
     0
284
     8
340
11
343
87
371
    -1
372
    -1
  0
DIMSTYLE
105
40B
102
{ACAD_REACTORS
330
66E8
330
66E9
330
6778
330
6779
330
677A
330
677B
330
677C
330
677D
330
677E
330
677F
330
6780
330
6880
330
6881
330
6882
330
6883
330
6884
330
6885
330
6886
330
6887
330
6888
330
6964
330
6966
330
6967
330
6965
330
6DA2
330
7202
330
722C
330
7271
102
}
330
A
100
AcDbSymbolTableRecord
100
AcDbDimStyleTableRecord
  2
AM_ISO$0
 70
     0
  4
"
 41
3.0
 42
1.0
 43
8.0
 44
1.5
 47
0.1
 48
0.1
 73
     0
 74
     0
 77
     1
 78
     8
 79
     2
140
3.5
141
0.0
143
0.0393701
146
0.6
147
0.7
172
     1
176
   256
177
   256
178
   256
271
     2
272
     2
283
     0
284
     8
340
11
371
    -1
372
    -1
  0
DIMSTYLE
105
182A
102
{ACAD_REACTORS
330
6786
330
6787
102
}
330
A
100
AcDbSymbolTableRecord
100
AcDbDimStyleTableRecord
  2
AM_ISO$2
 70
     0
  4
"
 41
3.0
 42
1.0
 43
8.0
 44
1.5
 47
0.1
 48
0.1
 73
     0
 74
     0
 77
     1
 78
     8
 79
     2
140
3.5
141
0.0
143
0.0393701
146
0.6
147
0.7
172
     1
176
   256
177
   256
178
   256
271
     2
272
     2
283
     0
284
     8
340
11
371
    -1
372
    -1
  0
ENDTAB
  0
TABLE
  2
BLOCK_RECORD
  5
1
330
0
100
AcDbSymbolTable
 70
    41
  0
BLOCK_RECORD
  5
1F
102
{ACAD_XDICTIONARY
360
8F
102
}
330
1
100
AcDbSymbolTableRecord
100
AcDbBlockTableRecord
  2
*Model_Space
340
22
  0
BLOCK_RECORD
  5
1B
330
1
100
AcDbSymbolTableRecord
100
AcDbBlockTableRecord
  2
*Paper_Space
340
1E
  0
BLOCK_RECORD
  5
23
330
1
100
AcDbSymbolTableRecord
100
AcDbBlockTableRecord
  2
*Paper_Space0
340
26
  0
BLOCK_RECORD
  5
87
330
1
100
AcDbSymbolTableRecord
100
AcDbBlockTableRecord
  2
GENAXEH
340
0
  0
BLOCK_RECORD
  5
66ED
330
1
100
AcDbSymbolTableRecord
100
AcDbBlockTableRecord
  2
*D3
340
0
  0
BLOCK_RECORD
  5
66F9
330
1
100
AcDbSymbolTableRecord
100
AcDbBlockTableRecord
  2
*D4
340
0
  0
BLOCK_RECORD
  5
6791
330
1
100
AcDbSymbolTableRecord
100
AcDbBlockTableRecord
  2
*D5
340
0
  0
BLOCK_RECORD
  5
679D
330
1
100
AcDbSymbolTableRecord
100
AcDbBlockTableRecord
  2
*D6
340
0
  0
BLOCK_RECORD
  5
67A9
330
1
100
AcDbSymbolTableRecord
100
AcDbBlockTableRecord
  2
*D7
340
0
  0
BLOCK_RECORD
  5
67B5
330
1
100
AcDbSymbolTableRecord
100
AcDbBlockTableRecord
  2
*D8
340
0
  0
BLOCK_RECORD
  5
67C1
330
1
100
AcDbSymbolTableRecord
100
AcDbBlockTableRecord
  2
*D9
340
0
  0
BLOCK_RECORD
  5
67CD
330
1
100
AcDbSymbolTableRecord
100
AcDbBlockTableRecord
  2
*D10
340
0
  0
BLOCK_RECORD
  5
67D9
330
1
100
AcDbSymbolTableRecord
100
AcDbBlockTableRecord
  2
*D11
340
0
  0
BLOCK_RECORD
  5
67E5
330
1
100
AcDbSymbolTableRecord
100
AcDbBlockTableRecord
  2
*D12
340
0
  0
BLOCK_RECORD
  5
67F1
330
1
100
AcDbSymbolTableRecord
100
AcDbBlockTableRecord
  2
*D13
340
0
  0
BLOCK_RECORD
  5
67FD
330
1
100
AcDbSymbolTableRecord
100
AcDbBlockTableRecord
  2
*D14
340
0
  0
BLOCK_RECORD
  5
680B
330
1
100
AcDbSymbolTableRecord
100
AcDbBlockTableRecord
  2
*D15
340
0
  0
BLOCK_RECORD
  5
688A
330
1
100
AcDbSymbolTableRecord
100
AcDbBlockTableRecord
  2
*D16
340
0
  0
BLOCK_RECORD
  5
6896
330
1
100
AcDbSymbolTableRecord
100
AcDbBlockTableRecord
  2
*D17
340
0
  0
BLOCK_RECORD
  5
68A2
330
1
100
AcDbSymbolTableRecord
100
AcDbBlockTableRecord
  2
*D18
340
0
  0
BLOCK_RECORD
  5
68AE
330
1
100
AcDbSymbolTableRecord
100
AcDbBlockTableRecord
  2
*D19
340
0
  0
BLOCK_RECORD
  5
68BA
330
1
100
AcDbSymbolTableRecord
100
AcDbBlockTableRecord
  2
*D20
340
0
  0
BLOCK_RECORD
  5
68C6
330
1
100
AcDbSymbolTableRecord
100
AcDbBlockTableRecord
  2
*D21
340
0
  0
BLOCK_RECORD
  5
68D2
330
1
100
AcDbSymbolTableRecord
100
AcDbBlockTableRecord
  2
*D22
340
0
  0
BLOCK_RECORD
  5
68DE
330
1
100
AcDbSymbolTableRecord
100
AcDbBlockTableRecord
  2
*D23
340
0
  0
BLOCK_RECORD
  5
68EA
330
1
100
AcDbSymbolTableRecord
100
AcDbBlockTableRecord
  2
*D24
340
0
  0
BLOCK_RECORD
  5
6968
330
1
100
AcDbSymbolTableRecord
100
AcDbBlockTableRecord
  2
*D25
340
0
  0
BLOCK_RECORD
  5
6974
330
1
100
AcDbSymbolTableRecord
100
AcDbBlockTableRecord
  2
*D26
340
0
  0
BLOCK_RECORD
  5
6980
330
1
100
AcDbSymbolTableRecord
100
AcDbBlockTableRecord
  2
*D27
340
0
  0
BLOCK_RECORD
  5
698C
330
1
100
AcDbSymbolTableRecord
100
AcDbBlockTableRecord
  2
*D28
340
0
  0
BLOCK_RECORD
  5
6DA5
330
1
100
AcDbSymbolTableRecord
100
AcDbBlockTableRecord
  2
*D29
340
0
  0
BLOCK_RECORD
  5
7203
330
1
100
AcDbSymbolTableRecord
100
AcDbBlockTableRecord
  2
*D30
340
0
  0
BLOCK_RECORD
  5
722D
330
1
100
AcDbSymbolTableRecord
100
AcDbBlockTableRecord
  2
*D31
340
0
  0
BLOCK_RECORD
  5
7272
330
1
100
AcDbSymbolTableRecord
100
AcDbBlockTableRecord
  2
*D32
340
0
  0
BLOCK_RECORD
  5
737E
330
1
100
AcDbSymbolTableRecord
100
AcDbBlockTableRecord
  2
*S33
340
0
102
{BLKREFS
331
66EA
102
}
  0
BLOCK_RECORD
  5
7386
330
1
100
AcDbSymbolTableRecord
100
AcDbBlockTableRecord
  2
*S34
340
0
102
{BLKREFS
331
6781
102
}
  0
BLOCK_RECORD
  5
738E
330
1
100
AcDbSymbolTableRecord
100
AcDbBlockTableRecord
  2
*S35
340
0
102
{BLKREFS
331
6782
102
}
  0
BLOCK_RECORD
  5
7396
330
1
100
AcDbSymbolTableRecord
100
AcDbBlockTableRecord
  2
*S36
340
0
102
{BLKREFS
331
6783
102
}
  0
BLOCK_RECORD
  5
739E
330
1
100
AcDbSymbolTableRecord
100
AcDbBlockTableRecord
  2
*S37
340
0
102
{BLKREFS
331
6785
102
}
  0
BLOCK_RECORD
  5
73A6
330
1
100
AcDbSymbolTableRecord
100
AcDbBlockTableRecord
  2
*S38
340
0
102
{BLKREFS
331
678B
102
}
  0
BLOCK_RECORD
  5
73AE
330
1
100
AcDbSymbolTableRecord
100
AcDbBlockTableRecord
  2
*S39
340
0
102
{BLKREFS
331
6DA4
102
}
  0
ENDTAB
  0
ENDSEC
  0
SECTION
  2
BLOCKS
  0
BLOCK
  5
20
330
1F
100
AcDbEntity
  8
0
100
AcDbBlockBegin
  2
*Model_Space
 70
     0
 10
0.0
 20
0.0
 30
0.0
  3
*Model_Space
  1

  0
ENDBLK
  5
21
330
1F
100
AcDbEntity
  8
0
100
AcDbBlockEnd
  0
BLOCK
  5
1C
330
1B
100
AcDbEntity
 67
     1
  8
0
100
AcDbBlockBegin
  2
*Paper_Space
 70
     0
 10
0.0
 20
0.0
 30
0.0
  3
*Paper_Space
  1

  0
ENDBLK
  5
1D
330
1B
100
AcDbEntity
 67
     1
  8
0
100
AcDbBlockEnd
  0
BLOCK
  5
24
330
23
100
AcDbEntity
  8
0
100
AcDbBlockBegin
  2
*Paper_Space0
 70
     0
 10
0.0
 20
0.0
 30
0.0
  3
*Paper_Space0
  1

  0
ENDBLK
  5
25
330
23
100
AcDbEntity
  8
0
100
AcDbBlockEnd
  0
BLOCK
  5
89
330
87
100
AcDbEntity
  8
0
100
AcDbBlockBegin
  2
GENAXEH
 70
     0
 10
0.0
 20
0.0
 30
0.0
  3
GENAXEH
  1

  0
LINE
  5
88
330
87
100
AcDbEntity
  8
0
100
AcDbLine
 10
-1.0
 20
0.0
 30
0.0
 11
1.0
 21
0.0
 31
0.0
  0
ENDBLK
  5
8A
330
87
100
AcDbEntity
  8
0
100
AcDbBlockEnd
  0
BLOCK
  5
66F7
330
66ED
100
AcDbEntity
  8
0
100
AcDbBlockBegin
  2
*D3
 70
     1
 10
0.0
 20
0.0
 30
0.0
  3
*D3
  1

  0
LINE
  5
6F01
330
66ED
100
AcDbEntity
  8
AM_5
100
AcDbLine
 10
343.9873698633283
 20
1335.367539158497
 30
0.0
 11
322.8373698633281
 21
1335.367539158497
 31
0.0
  0
LINE
  5
6F02
330
66ED
100
AcDbEntity
  8
AM_5
100
AcDbLine
 10
343.9873698633283
 20
1361.367539158497
 30
0.0
 11
322.8373698633281
 21
1361.367539158497
 31
0.0
  0
LINE
  5
6F03
330
66ED
100
AcDbEntity
  8
AM_5
100
AcDbLine
 10
324.3373698633281
 20
1338.367539158497
 30
0.0
 11
324.3373698633281
 21
1358.367539158497
 31
0.0
  0
SOLID
  5
6F04
330
66ED
100
AcDbEntity
  8
AM_5
100
AcDbTrace
 10
323.8373698633282
 20
1338.367539158497
 30
0.0
 11
324.8373698633281
 21
1338.367539158497
 31
0.0
 12
324.3373698633281
 22
1335.367539158497
 32
0.0
 13
324.3373698633281
 23
1335.367539158497
 33
0.0
  0
SOLID
  5
6F05
330
66ED
100
AcDbEntity
  8
AM_5
100
AcDbTrace
 10
323.8373698633282
 20
1358.367539158497
 30
0.0
 11
324.8373698633281
 21
1358.367539158497
 31
0.0
 12
324.3373698633281
 22
1361.367539158497
 32
0.0
 13
324.3373698633281
 23
1361.367539158497
 33
0.0
  0
MTEXT
  5
6F06
330
66ED
100
AcDbEntity
  8
AM_5
100
AcDbMText
 10
321.887025375139
 20
1348.367539158497
 30
0.0
 40
3.5
 41
0.0
 71
     5
 72
     1
  1
26
 11
0.0000000000000001
 21
1.0
 31
0.0
 73
     1
 44
1.0
1001
ACAD
1000
MTEXTBEGIN
1070
    73
1070
     1
1070
    44
1040
1.0
1070
    74
1070
     0
1000
MTEXTEND
  0
POINT
  5
6F07
330
66ED
100
AcDbEntity
  8
Defpoints
 62
     0
100
AcDbPoint
 10
344.9873698633283
 20
1335.367539158497
 30
0.0
  0
POINT
  5
6F08
330
66ED
100
AcDbEntity
  8
Defpoints
 62
     0
100
AcDbPoint
 10
344.9873698633283
 20
1361.367539158497
 30
0.0
  0
POINT
  5
6F09
330
66ED
100
AcDbEntity
  8
Defpoints
 62
     0
100
AcDbPoint
 10
324.3373698633281
 20
1361.367539158497
 30
0.0
  0
ENDBLK
  5
66F8
330
66ED
100
AcDbEntity
  8
0
100
AcDbBlockEnd
  0
BLOCK
  5
6703
330
66F9
100
AcDbEntity
  8
0
100
AcDbBlockBegin
  2
*D4
 70
     1
 10
0.0
 20
0.0
 30
0.0
  3
*D4
  1

  0
LINE
  5
6EF2
330
66F9
100
AcDbEntity
  8
AM_5
100
AcDbLine
 10
336.3373698633282
 20
1377.367539158497
 30
0.0
 11
336.3373698633282
 21
1390.867539158497
 31
0.0
  0
LINE
  5
6EF3
330
66F9
100
AcDbEntity
  8
AM_5
100
AcDbLine
 10
351.8373698633283
 20
1369.217539158497
 30
0.0
 11
351.8373698633283
 21
1390.867539158497
 31
0.0
  0
LINE
  5
6EF4
330
66F9
100
AcDbEntity
  8
AM_5
100
AcDbLine
 10
339.3373698633283
 20
1389.367539158497
 30
0.0
 11
348.8373698633283
 21
1389.367539158497
 31
0.0
  0
SOLID
  5
6EF5
330
66F9
100
AcDbEntity
  8
AM_5
100
AcDbTrace
 10
339.3373698633283
 20
1389.867539158497
 30
0.0
 11
339.3373698633283
 21
1388.867539158497
 31
0.0
 12
336.3373698633282
 22
1389.367539158497
 32
0.0
 13
336.3373698633282
 23
1389.367539158497
 33
0.0
  0
SOLID
  5
6EF6
330
66F9
100
AcDbEntity
  8
AM_5
100
AcDbTrace
 10
348.8373698633283
 20
1389.867539158497
 30
0.0
 11
348.8373698633283
 21
1388.867539158497
 31
0.0
 12
351.8373698633283
 22
1389.367539158497
 32
0.0
 13
351.8373698633283
 23
1389.367539158497
 33
0.0
  0
MTEXT
  5
6EF7
330
66F9
100
AcDbEntity
  8
AM_5
100
AcDbMText
 10
344.0873698633283
 20
1391.817539158497
 30
0.0
 40
3.5
 41
0.0
 71
     5
 72
     1
  1
15.5
 73
     1
 44
1.0
1001
ACAD
1000
MTEXTBEGIN
1070
    73
1070
     1
1070
    44
1040
1.0
1070
    74
1070
     0
1000
MTEXTEND
  0
POINT
  5
6EF8
330
66F9
100
AcDbEntity
  8
Defpoints
 62
     0
100
AcDbPoint
 10
336.3373698633282
 20
1376.367539158497
 30
0.0
  0
POINT
  5
6EF9
330
66F9
100
AcDbEntity
  8
Defpoints
 62
     0
100
AcDbPoint
 10
351.8373698633283
 20
1368.217539158497
 30
0.0
  0
POINT
  5
6EFA
330
66F9
100
AcDbEntity
  8
Defpoints
 62
     0
100
AcDbPoint
 10
351.8373698633283
 20
1389.367539158497
 30
0.0
  0
ENDBLK
  5
6704
330
66F9
100
AcDbEntity
  8
0
100
AcDbBlockEnd
  0
BLOCK
  5
679B
330
6791
100
AcDbEntity
  8
0
100
AcDbBlockBegin
  2
*D5
 70
     1
 10
0.0
 20
0.0
 30
0.0
  3
*D5
  1

  0
LINE
  5
6EDD
330
6791
100
AcDbEntity
  8
AM_5
100
AcDbLine
 10
446.2111302156727
 20
1323.867539158497
 30
0.0
 11
446.2111302156727
 21
1297.867539158497
 31
0.0
  0
LINE
  5
6EDE
330
6791
100
AcDbEntity
  8
AM_5
100
AcDbLine
 10
508.2111302156727
 20
1323.867539158497
 30
0.0
 11
508.2111302156727
 21
1297.867539158497
 31
0.0
  0
LINE
  5
6EDF
330
6791
100
AcDbEntity
  8
AM_5
100
AcDbLine
 10
449.2111302156727
 20
1299.367539158497
 30
0.0
 11
505.2111302156727
 21
1299.367539158497
 31
0.0
  0
SOLID
  5
6EE0
330
6791
100
AcDbEntity
  8
AM_5
100
AcDbTrace
 10
449.2111302156727
 20
1299.867539158497
 30
0.0
 11
449.2111302156727
 21
1298.867539158497
 31
0.0
 12
446.2111302156727
 22
1299.367539158497
 32
0.0
 13
446.2111302156727
 23
1299.367539158497
 33
0.0
  0
SOLID
  5
6EE1
330
6791
100
AcDbEntity
  8
AM_5
100
AcDbTrace
 10
505.2111302156727
 20
1299.867539158497
 30
0.0
 11
505.2111302156727
 21
1298.867539158497
 31
0.0
 12
508.2111302156727
 22
1299.367539158497
 32
0.0
 13
508.2111302156727
 23
1299.367539158497
 33
0.0
  0
MTEXT
  5
6EE2
330
6791
100
AcDbEntity
  8
AM_5
100
AcDbMText
 10
477.2111302156726
 20
1301.817883646686
 30
0.0
 40
3.5
 41
0.0
 71
     5
 72
     1
  1
62
 73
     1
 44
1.0
1001
ACAD
1000
MTEXTBEGIN
1070
    73
1070
     1
1070
    44
1040
1.0
1070
    74
1070
     0
1000
MTEXTEND
  0
POINT
  5
6EE3
330
6791
100
AcDbEntity
  8
Defpoints
 62
     0
100
AcDbPoint
 10
446.2111302156727
 20
1324.867539158497
 30
0.0
  0
POINT
  5
6EE4
330
6791
100
AcDbEntity
  8
Defpoints
 62
     0
100
AcDbPoint
 10
508.2111302156727
 20
1324.867539158497
 30
0.0
  0
POINT
  5
6EE5
330
6791
100
AcDbEntity
  8
Defpoints
 62
     0
100
AcDbPoint
 10
508.2111302156727
 20
1299.367539158497
 30
0.0
  0
ENDBLK
  5
679C
330
6791
100
AcDbEntity
  8
0
100
AcDbBlockEnd
  0
BLOCK
  5
67A7
330
679D
100
AcDbEntity
  8
0
100
AcDbBlockBegin
  2
*D6
 70
     1
 10
0.0
 20
0.0
 30
0.0
  3
*D6
  1

  0
LINE
  5
6DFC
330
679D
100
AcDbEntity
  8
AM_5
100
AcDbLine
 10
440.7111302156727
 20
1329.367539158497
 30
0.0
 11
409.7111302156726
 21
1329.367539158497
 31
0.0
  0
LINE
  5
6DFD
330
679D
100
AcDbEntity
  8
AM_5
100
AcDbLine
 10
440.7111302156727
 20
1367.367539158497
 30
0.0
 11
409.7111302156726
 21
1367.367539158497
 31
0.0
  0
LINE
  5
6DFE
330
679D
100
AcDbEntity
  8
AM_5
100
AcDbLine
 10
411.2111302156726
 20
1332.367539158497
 30
0.0
 11
411.2111302156726
 21
1364.367539158497
 31
0.0
  0
SOLID
  5
6DFF
330
679D
100
AcDbEntity
  8
AM_5
100
AcDbTrace
 10
410.7111302156726
 20
1332.367539158497
 30
0.0
 11
411.7111302156726
 21
1332.367539158497
 31
0.0
 12
411.2111302156726
 22
1329.367539158497
 32
0.0
 13
411.2111302156726
 23
1329.367539158497
 33
0.0
  0
SOLID
  5
6E00
330
679D
100
AcDbEntity
  8
AM_5
100
AcDbTrace
 10
410.7111302156726
 20
1364.367539158497
 30
0.0
 11
411.7111302156726
 21
1364.367539158497
 31
0.0
 12
411.2111302156726
 22
1367.367539158497
 32
0.0
 13
411.2111302156726
 23
1367.367539158497
 33
0.0
  0
MTEXT
  5
6E01
330
679D
100
AcDbEntity
  8
AM_5
100
AcDbMText
 10
408.7611302156724
 20
1348.367539158497
 30
0.0
 40
3.5
 41
0.0
 71
     5
 72
     1
  1
38
 11
0.0000000000000001
 21
1.0
 31
0.0
 73
     1
 44
1.0
1001
ACAD
1000
MTEXTBEGIN
1070
    73
1070
     1
1070
    44
1040
1.0
1070
    74
1070
     0
1000
MTEXTEND
  0
POINT
  5
6E02
330
679D
100
AcDbEntity
  8
Defpoints
 62
     0
100
AcDbPoint
 10
441.7111302156727
 20
1329.367539158497
 30
0.0
  0
POINT
  5
6E03
330
679D
100
AcDbEntity
  8
Defpoints
 62
     0
100
AcDbPoint
 10
441.7111302156727
 20
1367.367539158497
 30
0.0
  0
POINT
  5
6E04
330
679D
100
AcDbEntity
  8
Defpoints
 62
     0
100
AcDbPoint
 10
411.2111302156726
 20
1367.367539158497
 30
0.0
  0
ENDBLK
  5
67A8
330
679D
100
AcDbEntity
  8
0
100
AcDbBlockEnd
  0
BLOCK
  5
67B3
330
67A9
100
AcDbEntity
  8
0
100
AcDbBlockBegin
  2
*D7
 70
     1
 10
0.0
 20
0.0
 30
0.0
  3
*D7
  1

  0
LINE
  5
6ED4
330
67A9
100
AcDbEntity
  8
AM_5
100
AcDbLine
 10
458.2111302156727
 20
1345.158485145079
 30
0.0
 11
458.2111302156727
 21
1305.867539158497
 31
0.0
  0
LINE
  5
6ED5
330
67A9
100
AcDbEntity
  8
AM_5
100
AcDbLine
 10
496.2111302156727
 20
1345.158485145079
 30
0.0
 11
496.2111302156727
 21
1305.867539158497
 31
0.0
  0
LINE
  5
6ED6
330
67A9
100
AcDbEntity
  8
AM_5
100
AcDbLine
 10
461.2111302156726
 20
1307.367539158497
 30
0.0
 11
493.2111302156727
 21
1307.367539158497
 31
0.0
  0
SOLID
  5
6ED7
330
67A9
100
AcDbEntity
  8
AM_5
100
AcDbTrace
 10
461.2111302156726
 20
1307.867539158497
 30
0.0
 11
461.2111302156726
 21
1306.867539158497
 31
0.0
 12
458.2111302156727
 22
1307.367539158497
 32
0.0
 13
458.2111302156727
 23
1307.367539158497
 33
0.0
  0
SOLID
  5
6ED8
330
67A9
100
AcDbEntity
  8
AM_5
100
AcDbTrace
 10
493.2111302156727
 20
1307.867539158497
 30
0.0
 11
493.2111302156727
 21
1306.867539158497
 31
0.0
 12
496.2111302156727
 22
1307.367539158497
 32
0.0
 13
496.2111302156727
 23
1307.367539158497
 33
0.0
  0
MTEXT
  5
6ED9
330
67A9
100
AcDbEntity
  8
AM_5
100
AcDbMText
 10
477.2111302156726
 20
1309.817539158497
 30
0.0
 40
3.5
 41
0.0
 71
     5
 72
     1
  1
38
 73
     1
 44
1.0
1001
ACAD
1000
MTEXTBEGIN
1070
    73
1070
     1
1070
    44
1040
1.0
1070
    74
1070
     0
1000
MTEXTEND
  0
POINT
  5
6EDA
330
67A9
100
AcDbEntity
  8
Defpoints
 62
     0
100
AcDbPoint
 10
458.2111302156727
 20
1346.158485145079
 30
0.0
  0
POINT
  5
6EDB
330
67A9
100
AcDbEntity
  8
Defpoints
 62
     0
100
AcDbPoint
 10
496.2111302156727
 20
1346.158485145079
 30
0.0
  0
POINT
  5
6EDC
330
67A9
100
AcDbEntity
  8
Defpoints
 62
     0
100
AcDbPoint
 10
496.2111302156727
 20
1307.367539158497
 30
0.0
  0
ENDBLK
  5
67B4
330
67A9
100
AcDbEntity
  8
0
100
AcDbBlockEnd
  0
BLOCK
  5
67BF
330
67B5
100
AcDbEntity
  8
0
100
AcDbBlockBegin
  2
*D8
 70
     1
 10
0.0
 20
0.0
 30
0.0
  3
*D8
  1

  0
LINE
  5
6ECB
330
67B5
100
AcDbEntity
  8
AM_5
100
AcDbLine
 10
423.2111302156726
 20
1319.117539158497
 30
0.0
 11
423.2111302156726
 21
1289.867539158497
 31
0.0
  0
LINE
  5
6ECC
330
67B5
100
AcDbEntity
  8
AM_5
100
AcDbLine
 10
531.2111302156728
 20
1319.117539158497
 30
0.0
 11
531.2111302156728
 21
1289.867539158497
 31
0.0
  0
LINE
  5
6ECD
330
67B5
100
AcDbEntity
  8
AM_5
100
AcDbLine
 10
426.2111302156727
 20
1291.367539158497
 30
0.0
 11
528.2111302156728
 21
1291.367539158497
 31
0.0
  0
SOLID
  5
6ECE
330
67B5
100
AcDbEntity
  8
AM_5
100
AcDbTrace
 10
426.2111302156727
 20
1291.867539158497
 30
0.0
 11
426.2111302156727
 21
1290.867539158497
 31
0.0
 12
423.2111302156726
 22
1291.367539158497
 32
0.0
 13
423.2111302156726
 23
1291.367539158497
 33
0.0
  0
SOLID
  5
6ECF
330
67B5
100
AcDbEntity
  8
AM_5
100
AcDbTrace
 10
528.2111302156728
 20
1291.867539158497
 30
0.0
 11
528.2111302156728
 21
1290.867539158497
 31
0.0
 12
531.2111302156728
 22
1291.367539158497
 32
0.0
 13
531.2111302156728
 23
1291.367539158497
 33
0.0
  0
MTEXT
  5
6ED0
330
67B5
100
AcDbEntity
  8
AM_5
100
AcDbMText
 10
477.2111302156727
 20
1293.817539158497
 30
0.0
 40
3.5
 41
0.0
 71
     5
 72
     1
  1
108
 73
     1
 44
1.0
1001
ACAD
1000
MTEXTBEGIN
1070
    73
1070
     1
1070
    44
1040
1.0
1070
    74
1070
     0
1000
MTEXTEND
  0
POINT
  5
6ED1
330
67B5
100
AcDbEntity
  8
Defpoints
 62
     0
100
AcDbPoint
 10
423.2111302156726
 20
1320.117539158497
 30
0.0
  0
POINT
  5
6ED2
330
67B5
100
AcDbEntity
  8
Defpoints
 62
     0
100
AcDbPoint
 10
531.2111302156728
 20
1320.117539158497
 30
0.0
  0
POINT
  5
6ED3
330
67B5
100
AcDbEntity
  8
Defpoints
 62
     0
100
AcDbPoint
 10
531.2111302156728
 20
1291.367539158497
 30
0.0
  0
ENDBLK
  5
67C0
330
67B5
100
AcDbEntity
  8
0
100
AcDbBlockEnd
  0
BLOCK
  5
67CB
330
67C1
100
AcDbEntity
  8
0
100
AcDbBlockBegin
  2
*D9
 70
     1
 10
0.0
 20
0.0
 30
0.0
  3
*D9
  1

  0
LINE
  5
733E
330
67C1
100
AcDbEntity
  8
AM_5
100
AcDbLine
 10
531.2111302156728
 20
1319.117539158497
 30
0.0
 11
531.2111302156728
 21
1305.867539158497
 31
0.0
  0
LINE
  5
733F
330
67C1
100
AcDbEntity
  8
AM_5
100
AcDbLine
 10
558.2111302156728
 20
1330.767539158497
 30
0.0
 11
558.2111302156728
 21
1305.867539158497
 31
0.0
  0
LINE
  5
7340
330
67C1
100
AcDbEntity
  8
AM_5
100
AcDbLine
 10
534.2111302156728
 20
1307.367539158497
 30
0.0
 11
555.2111302156728
 21
1307.367539158497
 31
0.0
  0
SOLID
  5
7341
330
67C1
100
AcDbEntity
  8
AM_5
100
AcDbTrace
 10
534.2111302156728
 20
1307.867539158497
 30
0.0
 11
534.2111302156728
 21
1306.867539158497
 31
0.0
 12
531.2111302156728
 22
1307.367539158497
 32
0.0
 13
531.2111302156728
 23
1307.367539158497
 33
0.0
  0
SOLID
  5
7342
330
67C1
100
AcDbEntity
  8
AM_5
100
AcDbTrace
 10
555.2111302156728
 20
1307.867539158497
 30
0.0
 11
555.2111302156728
 21
1306.867539158497
 31
0.0
 12
558.2111302156728
 22
1307.367539158497
 32
0.0
 13
558.2111302156728
 23
1307.367539158497
 33
0.0
  0
MTEXT
  5
7343
330
67C1
100
AcDbEntity
  8
AM_5
100
AcDbMText
 10
544.7111302156728
 20
1309.817883646686
 30
0.0
 40
3.5
 41
0.0
 71
     5
 72
     1
  1
Max.27
 73
     1
 44
1.0
1001
ACAD
1000
MTEXTBEGIN
1070
    73
1070
     1
1070
    44
1040
1.0
1070
    74
1070
     0
1000
MTEXTEND
  0
POINT
  5
7344
330
67C1
100
AcDbEntity
  8
Defpoints
 62
     0
100
AcDbPoint
 10
531.2111302156728
 20
1320.117539158497
 30
0.0
  0
POINT
  5
7345
330
67C1
100
AcDbEntity
  8
Defpoints
 62
     0
100
AcDbPoint
 10
558.2111302156728
 20
1331.767539158497
 30
0.0
  0
POINT
  5
7346
330
67C1
100
AcDbEntity
  8
Defpoints
 62
     0
100
AcDbPoint
 10
558.2111302156728
 20
1307.367539158497
 30
0.0
  0
ENDBLK
  5
67CC
330
67C1
100
AcDbEntity
  8
0
100
AcDbBlockEnd
  0
BLOCK
  5
67D7
330
67CD
100
AcDbEntity
  8
0
100
AcDbBlockBegin
  2
*D10
 70
     1
 10
0.0
 20
0.0
 30
0.0
  3
*D10
  1

  0
LINE
  5
6EB9
330
67CD
100
AcDbEntity
  8
AM_5
100
AcDbLine
 10
423.2111302156726
 20
1319.117539158497
 30
0.0
 11
423.2111302156726
 21
1305.867539158497
 31
0.0
  0
LINE
  5
6EBA
330
67CD
100
AcDbEntity
  8
AM_5
100
AcDbLine
 10
438.2111302156727
 20
1318.367539158497
 30
0.0
 11
438.2111302156727
 21
1305.867539158497
 31
0.0
  0
LINE
  5
6EBB
330
67CD
100
AcDbEntity
  8
AM_5
100
AcDbLine
 10
426.2111302156727
 20
1307.367539158497
 30
0.0
 11
435.2111302156727
 21
1307.367539158497
 31
0.0
  0
SOLID
  5
6EBC
330
67CD
100
AcDbEntity
  8
AM_5
100
AcDbTrace
 10
426.2111302156727
 20
1307.867539158497
 30
0.0
 11
426.2111302156727
 21
1306.867539158497
 31
0.0
 12
423.2111302156726
 22
1307.367539158497
 32
0.0
 13
423.2111302156726
 23
1307.367539158497
 33
0.0
  0
SOLID
  5
6EBD
330
67CD
100
AcDbEntity
  8
AM_5
100
AcDbTrace
 10
435.2111302156727
 20
1307.867539158497
 30
0.0
 11
435.2111302156727
 21
1306.867539158497
 31
0.0
 12
438.2111302156727
 22
1307.367539158497
 32
0.0
 13
438.2111302156727
 23
1307.367539158497
 33
0.0
  0
MTEXT
  5
6EBE
330
67CD
100
AcDbEntity
  8
AM_5
100
AcDbMText
 10
430.7111302156727
 20
1309.817539158497
 30
0.0
 40
3.5
 41
0.0
 71
     5
 72
     1
  1
15
 73
     1
 44
1.0
1001
ACAD
1000
MTEXTBEGIN
1070
    73
1070
     1
1070
    44
1040
1.0
1070
    74
1070
     0
1000
MTEXTEND
  0
POINT
  5
6EBF
330
67CD
100
AcDbEntity
  8
Defpoints
 62
     0
100
AcDbPoint
 10
423.2111302156726
 20
1320.117539158497
 30
0.0
  0
POINT
  5
6EC0
330
67CD
100
AcDbEntity
  8
Defpoints
 62
     0
100
AcDbPoint
 10
438.2111302156727
 20
1319.367539158497
 30
0.0
  0
POINT
  5
6EC1
330
67CD
100
AcDbEntity
  8
Defpoints
 62
     0
100
AcDbPoint
 10
438.2111302156727
 20
1307.367539158497
 30
0.0
  0
ENDBLK
  5
67D8
330
67CD
100
AcDbEntity
  8
0
100
AcDbBlockEnd
  0
BLOCK
  5
67E3
330
67D9
100
AcDbEntity
  8
0
100
AcDbBlockBegin
  2
*D11
 70
     1
 10
0.0
 20
0.0
 30
0.0
  3
*D11
  1

  0
LINE
  5
6EB0
330
67D9
100
AcDbEntity
  8
AM_5
100
AcDbLine
 10
516.2111302156725
 20
1318.367539158497
 30
0.0
 11
516.2111302156725
 21
1305.867539158497
 31
0.0
  0
LINE
  5
6EB1
330
67D9
100
AcDbEntity
  8
AM_5
100
AcDbLine
 10
531.2111302156726
 20
1319.117539158497
 30
0.0
 11
531.2111302156726
 21
1305.867539158497
 31
0.0
  0
LINE
  5
6EB2
330
67D9
100
AcDbEntity
  8
AM_5
100
AcDbLine
 10
519.2111302156726
 20
1307.367539158497
 30
0.0
 11
528.2111302156727
 21
1307.367539158497
 31
0.0
  0
SOLID
  5
6EB3
330
67D9
100
AcDbEntity
  8
AM_5
100
AcDbTrace
 10
519.2111302156726
 20
1307.867539158497
 30
0.0
 11
519.2111302156726
 21
1306.867539158497
 31
0.0
 12
516.2111302156725
 22
1307.367539158497
 32
0.0
 13
516.2111302156725
 23
1307.367539158497
 33
0.0
  0
SOLID
  5
6EB4
330
67D9
100
AcDbEntity
  8
AM_5
100
AcDbTrace
 10
528.2111302156727
 20
1307.867539158497
 30
0.0
 11
528.2111302156727
 21
1306.867539158497
 31
0.0
 12
531.2111302156726
 22
1307.367539158497
 32
0.0
 13
531.2111302156726
 23
1307.367539158497
 33
0.0
  0
MTEXT
  5
6EB5
330
67D9
100
AcDbEntity
  8
AM_5
100
AcDbMText
 10
523.7111302156726
 20
1309.817539158497
 30
0.0
 40
3.5
 41
0.0
 71
     5
 72
     1
  1
15
 73
     1
 44
1.0
1001
ACAD
1000
MTEXTBEGIN
1070
    73
1070
     1
1070
    44
1040
1.0
1070
    74
1070
     0
1000
MTEXTEND
  0
POINT
  5
6EB6
330
67D9
100
AcDbEntity
  8
Defpoints
 62
     0
100
AcDbPoint
 10
516.2111302156725
 20
1319.367539158497
 30
0.0
  0
POINT
  5
6EB7
330
67D9
100
AcDbEntity
  8
Defpoints
 62
     0
100
AcDbPoint
 10
531.2111302156726
 20
1320.117539158497
 30
0.0
  0
POINT
  5
6EB8
330
67D9
100
AcDbEntity
  8
Defpoints
 62
     0
100
AcDbPoint
 10
531.2111302156726
 20
1307.367539158497
 30
0.0
  0
ENDBLK
  5
67E4
330
67D9
100
AcDbEntity
  8
0
100
AcDbBlockEnd
  0
BLOCK
  5
67EF
330
67E5
100
AcDbEntity
  8
0
100
AcDbBlockBegin
  2
*D12
 70
     1
 10
0.0
 20
0.0
 30
0.0
  3
*D12
  1

  0
LINE
  5
7335
330
67E5
100
AcDbEntity
  8
AM_5
100
AcDbLine
 10
561.7111302156728
 20
1361.367539158497
 30
0.0
 11
571.7111302156728
 21
1361.367539158497
 31
0.0
  0
LINE
  5
7336
330
67E5
100
AcDbEntity
  8
AM_5
100
AcDbLine
 10
561.7111302156728
 20
1335.367539158497
 30
0.0
 11
571.7111302156728
 21
1335.367539158497
 31
0.0
  0
LINE
  5
7337
330
67E5
100
AcDbEntity
  8
AM_5
100
AcDbLine
 10
570.2111302156728
 20
1358.367539158497
 30
0.0
 11
570.2111302156728
 21
1338.367539158497
 31
0.0
  0
SOLID
  5
7338
330
67E5
100
AcDbEntity
  8
AM_5
100
AcDbTrace
 10
569.7111302156728
 20
1358.367539158497
 30
0.0
 11
570.7111302156728
 21
1358.367539158497
 31
0.0
 12
570.2111302156728
 22
1361.367539158497
 32
0.0
 13
570.2111302156728
 23
1361.367539158497
 33
0.0
  0
SOLID
  5
7339
330
67E5
100
AcDbEntity
  8
AM_5
100
AcDbTrace
 10
569.7111302156728
 20
1338.367539158497
 30
0.0
 11
570.7111302156728
 21
1338.367539158497
 31
0.0
 12
570.2111302156728
 22
1335.367539158497
 32
0.0
 13
570.2111302156728
 23
1335.367539158497
 33
0.0
  0
MTEXT
  5
733A
330
67E5
100
AcDbEntity
  8
AM_5
100
AcDbMText
 10
567.7607857274836
 20
1348.367539158497
 30
0.0
 40
3.5
 41
0.0
 71
     5
 72
     1
  1
26
 11
0.0000000000000001
 21
1.0
 31
0.0
 73
     1
 44
1.0
1001
ACAD
1000
MTEXTBEGIN
1070
    73
1070
     1
1070
    44
1040
1.0
1070
    74
1070
     0
1000
MTEXTEND
  0
POINT
  5
733B
330
67E5
100
AcDbEntity
  8
Defpoints
 62
     0
100
AcDbPoint
 10
560.7111302156728
 20
1361.367539158497
 30
0.0
  0
POINT
  5
733C
330
67E5
100
AcDbEntity
  8
Defpoints
 62
     0
100
AcDbPoint
 10
560.7111302156728
 20
1335.367539158497
 30
0.0
  0
POINT
  5
733D
330
67E5
100
AcDbEntity
  8
Defpoints
 62
     0
100
AcDbPoint
 10
570.2111302156728
 20
1335.367539158497
 30
0.0
  0
ENDBLK
  5
67F0
330
67E5
100
AcDbEntity
  8
0
100
AcDbBlockEnd
  0
BLOCK
  5
67FB
330
67F1
100
AcDbEntity
  8
0
100
AcDbBlockBegin
  2
*D13
 70
     1
 10
0.0
 20
0.0
 30
0.0
  3
*D13
  1

  0
LINE
  5
6DF3
330
67F1
100
AcDbEntity
  8
AM_5
100
AcDbLine
 10
437.2111302156727
 20
1319.367539158497
 30
0.0
 11
401.7111302156726
 21
1319.367539158497
 31
0.0
  0
LINE
  5
6DF4
330
67F1
100
AcDbEntity
  8
AM_5
100
AcDbLine
 10
437.2111302156727
 20
1377.367539158497
 30
0.0
 11
401.7111302156726
 21
1377.367539158497
 31
0.0
  0
LINE
  5
6DF5
330
67F1
100
AcDbEntity
  8
AM_5
100
AcDbLine
 10
403.2111302156726
 20
1322.367539158497
 30
0.0
 11
403.2111302156726
 21
1374.367539158497
 31
0.0
  0
SOLID
  5
6DF6
330
67F1
100
AcDbEntity
  8
AM_5
100
AcDbTrace
 10
402.7111302156726
 20
1322.367539158497
 30
0.0
 11
403.7111302156726
 21
1322.367539158497
 31
0.0
 12
403.2111302156726
 22
1319.367539158497
 32
0.0
 13
403.2111302156726
 23
1319.367539158497
 33
0.0
  0
SOLID
  5
6DF7
330
67F1
100
AcDbEntity
  8
AM_5
100
AcDbTrace
 10
402.7111302156726
 20
1374.367539158497
 30
0.0
 11
403.7111302156726
 21
1374.367539158497
 31
0.0
 12
403.2111302156726
 22
1377.367539158497
 32
0.0
 13
403.2111302156726
 23
1377.367539158497
 33
0.0
  0
MTEXT
  5
6DF8
330
67F1
100
AcDbEntity
  8
AM_5
100
AcDbMText
 10
400.7611302156724
 20
1348.367539158497
 30
0.0
 40
3.5
 41
0.0
 71
     5
 72
     1
  1
58
 11
0.0000000000000001
 21
1.0
 31
0.0
 73
     1
 44
1.0
1001
ACAD
1000
MTEXTBEGIN
1070
    73
1070
     1
1070
    44
1040
1.0
1070
    74
1070
     0
1000
MTEXTEND
  0
POINT
  5
6DF9
330
67F1
100
AcDbEntity
  8
Defpoints
 62
     0
100
AcDbPoint
 10
438.2111302156727
 20
1319.367539158497
 30
0.0
  0
POINT
  5
6DFA
330
67F1
100
AcDbEntity
  8
Defpoints
 62
     0
100
AcDbPoint
 10
438.2111302156727
 20
1377.367539158497
 30
0.0
  0
POINT
  5
6DFB
330
67F1
100
AcDbEntity
  8
Defpoints
 62
     0
100
AcDbPoint
 10
403.2111302156726
 20
1377.367539158497
 30
0.0
  0
ENDBLK
  5
67FC
330
67F1
100
AcDbEntity
  8
0
100
AcDbBlockEnd
  0
BLOCK
  5
6809
330
67FD
100
AcDbEntity
  8
0
100
AcDbBlockBegin
  2
*D14
 70
     1
 10
0.0
 20
0.0
 30
0.0
  3
*D14
  1

  0
LINE
  5
6B56
330
67FD
100
AcDbEntity
  8
AM_5
100
AcDbLine
 10
494.5352463547433
 20
1365.691655297567
 30
0.0
 11
508.6773819784759
 21
1379.8337909213
 31
0.0
  0
LINE
  5
6B57
330
67FD
100
AcDbEntity
  8
AM_5
100
AcDbLine
 10
477.2111302156726
 20
1380.367539158497
 30
0.0
 11
477.2111302156725
 21
1392.867539158499
 31
0.0
  0
ARC
  5
6B58
330
67FD
100
AcDbEntity
  8
AM_5
100
AcDbCircle
 10
477.211130215673
 20
1348.367539158497
 30
0.0
 40
43.00000000000209
100
AcDbArc
 50
48.99819112824293
 51
86.00180887175751
  0
SOLID
  5
6B59
330
67FD
100
AcDbEntity
  8
AM_5
100
AcDbTrace
 10
505.7636979512681
 20
1381.184831931511
 30
0.0
 11
505.0816880465916
 21
1380.453488995589
 31
0.0
 12
507.616721806696
 22
1378.77313074952
 32
0.0
 13
507.616721806696
 23
1378.77313074952
 33
0.0
  0
SOLID
  5
6B5A
330
67FD
100
AcDbEntity
  8
AM_5
100
AcDbTrace
 10
480.191862488597
 20
1390.763192306811
 30
0.0
 11
480.2267462095272
 21
1391.762583684607
 31
0.0
 12
477.2111302156725
 22
1391.367539158499
 32
0.0
 13
477.2111302156725
 23
1391.367539158499
 33
0.0
  0
MTEXT
  5
6B5B
330
67FD
100
AcDbEntity
  8
AM_5
100
AcDbMText
 10
494.6040922166669
 20
1390.357863911137
 30
0.0
 40
3.5
 41
0.0
 71
     5
 72
     1
  1
45°
 11
0.9238795325112919
 21
-0.3826834323650772
 31
0.0
 73
     1
 44
1.0
1001
ACAD
1000
MTEXTBEGIN
1070
    73
1070
     1
1070
    44
1040
1.0
1070
    74
1070
     0
1000
MTEXTEND
  0
POINT
  5
6B5C
330
67FD
100
AcDbEntity
  8
Defpoints
 62
     0
100
AcDbPoint
 10
498.711130215674
 20
1385.60663152123
 30
0.0
  0
POINT
  5
6B5D
330
67FD
100
AcDbEntity
  8
Defpoints
 62
     0
100
AcDbPoint
 10
490.646159058217
 20
1361.802568001041
 30
0.0
  0
POINT
  5
6B5E
330
67FD
100
AcDbEntity
  8
Defpoints
 62
     0
100
AcDbPoint
 10
477.2111302156729
 20
1348.367539158497
 30
0.0
  0
POINT
  5
6B5F
330
67FD
100
AcDbEntity
  8
Defpoints
 62
     0
100
AcDbPoint
 10
477.2111302156726
 20
1379.367539158497
 30
0.0
  0
POINT
  5
6B60
330
67FD
100
AcDbEntity
  8
Defpoints
 62
     0
100
AcDbPoint
 10
493.8281395735566
 20
1364.984548516381
 30
0.0
  0
ENDBLK
  5
680A
330
67FD
100
AcDbEntity
  8
0
100
AcDbBlockEnd
  0
BLOCK
  5
6817
330
680B
100
AcDbEntity
  8
0
100
AcDbBlockBegin
  2
*D15
 70
     1
 10
0.0
 20
0.0
 30
0.0
  3
*D15
  1

  0
LINE
  5
6B4B
330
680B
100
AcDbEntity
  8
AM_5
100
AcDbLine
 10
477.2111302156726
 20
1380.367539158497
 30
0.0
 11
477.2111302156726
 21
1392.867539158497
 31
0.0
  0
LINE
  5
6B4C
330
680B
100
AcDbEntity
  8
AM_5
100
AcDbLine
 10
459.8870140766023
 20
1365.691655297568
 30
0.0
 11
445.7448784528724
 21
1379.8337909213
 31
0.0
  0
ARC
  5
6B4D
330
680B
100
AcDbEntity
  8
AM_5
100
AcDbCircle
 10
477.2111302156729
 20
1348.367539158494
 30
0.0
 40
43.00000000000258
100
AcDbArc
 50
93.99819112824355
 51
131.001808871752
  0
SOLID
  5
6B4E
330
680B
100
AcDbEntity
  8
AM_5
100
AcDbTrace
 10
474.1955142218178
 20
1391.762583684604
 30
0.0
 11
474.2303979427481
 21
1390.763192306808
 31
0.0
 12
477.2111302156726
 22
1391.367539158497
 32
0.0
 13
477.2111302156726
 23
1391.367539158497
 33
0.0
  0
SOLID
  5
6B4F
330
680B
100
AcDbEntity
  8
AM_5
100
AcDbTrace
 10
449.3405723847567
 20
1380.453488995589
 30
0.0
 11
448.6585624800803
 21
1381.184831931511
 31
0.0
 12
446.8055386246521
 22
1378.77313074952
 32
0.0
 13
446.8055386246521
 23
1378.77313074952
 33
0.0
  0
MTEXT
  5
6B50
330
680B
100
AcDbEntity
  8
AM_5
100
AcDbMText
 10
459.8181682146802
 20
1390.357863911135
 30
0.0
 40
3.5
 41
0.0
 71
     5
 72
     1
  1
45°
 11
0.9238795325113038
 21
0.3826834323650485
 31
0.0
 73
     1
 44
1.0
1001
ACAD
1000
MTEXTBEGIN
1070
    73
1070
     1
1070
    44
1040
1.0
1070
    74
1070
     0
1000
MTEXTEND
  0
POINT
  5
6B51
330
680B
100
AcDbEntity
  8
Defpoints
 62
     0
100
AcDbPoint
 10
466.0819112762649
 20
1389.902349688927
 30
0.0
  0
POINT
  5
6B52
330
680B
100
AcDbEntity
  8
Defpoints
 62
     0
100
AcDbPoint
 10
463.7761013731281
 20
1361.802568001041
 30
0.0
  0
POINT
  5
6B53
330
680B
100
AcDbEntity
  8
Defpoints
 62
     0
100
AcDbPoint
 10
477.2111302156728
 20
1348.367539158497
 30
0.0
  0
POINT
  5
6B54
330
680B
100
AcDbEntity
  8
Defpoints
 62
     0
100
AcDbPoint
 10
477.2111302156726
 20
1379.367539158497
 30
0.0
  0
POINT
  5
6B55
330
680B
100
AcDbEntity
  8
Defpoints
 62
     0
100
AcDbPoint
 10
460.5941208577889
 20
1364.984548516381
 30
0.0
  0
ENDBLK
  5
6818
330
680B
100
AcDbEntity
  8
0
100
AcDbBlockEnd
  0
BLOCK
  5
6894
330
688A
100
AcDbEntity
  8
0
100
AcDbBlockBegin
  2
*D16
 70
     1
 10
0.0
 20
0.0
 30
0.0
  3
*D16
  1

  0
LINE
  5
736B
330
688A
100
AcDbEntity
  8
AM_5
100
AcDbLine
 10
517.2111302156728
 20
1200.0512632215
 30
0.0
 11
571.7111302156727
 21
1200.0512632215
 31
0.0
  0
LINE
  5
736C
330
688A
100
AcDbEntity
  8
AM_5
100
AcDbLine
 10
561.7111302156727
 20
1215.5512632215
 30
0.0
 11
571.7111302156727
 21
1215.5512632215
 31
0.0
  0
LINE
  5
736D
330
688A
100
AcDbEntity
  8
AM_5
100
AcDbLine
 10
570.2111302156727
 20
1203.0512632215
 30
0.0
 11
570.2111302156727
 21
1212.5512632215
 31
0.0
  0
SOLID
  5
736E
330
688A
100
AcDbEntity
  8
AM_5
100
AcDbTrace
 10
569.7111302156726
 20
1203.0512632215
 30
0.0
 11
570.7111302156727
 21
1203.0512632215
 31
0.0
 12
570.2111302156727
 22
1200.0512632215
 32
0.0
 13
570.2111302156727
 23
1200.0512632215
 33
0.0
  0
SOLID
  5
736F
330
688A
100
AcDbEntity
  8
AM_5
100
AcDbTrace
 10
569.7111302156726
 20
1212.5512632215
 30
0.0
 11
570.7111302156727
 21
1212.5512632215
 31
0.0
 12
570.2111302156727
 22
1215.5512632215
 32
0.0
 13
570.2111302156727
 23
1215.5512632215
 33
0.0
  0
MTEXT
  5
7370
330
688A
100
AcDbEntity
  8
AM_5
100
AcDbMText
 10
567.7611302156726
 20
1207.8012632215
 30
0.0
 40
3.5
 41
0.0
 71
     5
 72
     1
  1
15.5
 11
0.0000000000000001
 21
1.0
 31
0.0
 73
     1
 44
1.0
1001
ACAD
1000
MTEXTBEGIN
1070
    73
1070
     1
1070
    44
1040
1.0
1070
    74
1070
     0
1000
MTEXTEND
  0
POINT
  5
7371
330
688A
100
AcDbEntity
  8
Defpoints
 62
     0
100
AcDbPoint
 10
516.2111302156728
 20
1200.0512632215
 30
0.0
  0
POINT
  5
7372
330
688A
100
AcDbEntity
  8
Defpoints
 62
     0
100
AcDbPoint
 10
560.7111302156726
 20
1215.5512632215
 30
0.0
  0
POINT
  5
7373
330
688A
100
AcDbEntity
  8
Defpoints
 62
     0
100
AcDbPoint
 10
570.2111302156727
 20
1215.5512632215
 30
0.0
  0
ENDBLK
  5
6895
330
688A
100
AcDbEntity
  8
0
100
AcDbBlockEnd
  0
BLOCK
  5
68A0
330
6896
100
AcDbEntity
  8
0
100
AcDbBlockBegin
  2
*D17
 70
     1
 10
0.0
 20
0.0
 30
0.0
  3
*D17
  1

  0
LINE
  5
7362
330
6896
100
AcDbEntity
  8
AM_5
100
AcDbLine
 10
517.2111302156728
 20
1200.0512632215
 30
0.0
 11
579.7111302156727
 21
1200.0512632215
 31
0.0
  0
LINE
  5
7363
330
6896
100
AcDbEntity
  8
AM_5
100
AcDbLine
 10
517.2111302156727
 20
1233.0512632215
 30
0.0
 11
579.7111302156727
 21
1233.0512632215
 31
0.0
  0
LINE
  5
7364
330
6896
100
AcDbEntity
  8
AM_5
100
AcDbLine
 10
578.2111302156727
 20
1203.0512632215
 30
0.0
 11
578.2111302156727
 21
1230.051263221501
 31
0.0
  0
SOLID
  5
7365
330
6896
100
AcDbEntity
  8
AM_5
100
AcDbTrace
 10
577.7111302156726
 20
1203.0512632215
 30
0.0
 11
578.7111302156727
 21
1203.0512632215
 31
0.0
 12
578.2111302156727
 22
1200.0512632215
 32
0.0
 13
578.2111302156727
 23
1200.0512632215
 33
0.0
  0
SOLID
  5
7366
330
6896
100
AcDbEntity
  8
AM_5
100
AcDbTrace
 10
577.7111302156726
 20
1230.051263221501
 30
0.0
 11
578.7111302156727
 21
1230.051263221501
 31
0.0
 12
578.2111302156727
 22
1233.0512632215
 32
0.0
 13
578.2111302156727
 23
1233.0512632215
 33
0.0
  0
MTEXT
  5
7367
330
6896
100
AcDbEntity
  8
AM_5
100
AcDbMText
 10
575.7611302156725
 20
1216.551263221501
 30
0.0
 40
3.5
 41
0.0
 71
     5
 72
     1
  1
33
 11
0.0000000000000001
 21
1.0
 31
0.0
 73
     1
 44
1.0
1001
ACAD
1000
MTEXTBEGIN
1070
    73
1070
     1
1070
    44
1040
1.0
1070
    74
1070
     0
1000
MTEXTEND
  0
POINT
  5
7368
330
6896
100
AcDbEntity
  8
Defpoints
 62
     0
100
AcDbPoint
 10
516.2111302156728
 20
1200.0512632215
 30
0.0
  0
POINT
  5
7369
330
6896
100
AcDbEntity
  8
Defpoints
 62
     0
100
AcDbPoint
 10
516.2111302156727
 20
1233.0512632215
 30
0.0
  0
POINT
  5
736A
330
6896
100
AcDbEntity
  8
Defpoints
 62
     0
100
AcDbPoint
 10
578.2111302156727
 20
1233.0512632215
 30
0.0
  0
ENDBLK
  5
68A1
330
6896
100
AcDbEntity
  8
0
100
AcDbBlockEnd
  0
BLOCK
  5
68AC
330
68A2
100
AcDbEntity
  8
0
100
AcDbBlockBegin
  2
*D18
 70
     1
 10
0.0
 20
0.0
 30
0.0
  3
*D18
  1

  0
LINE
  5
6F30
330
68A2
100
AcDbEntity
  8
AM_5
100
AcDbLine
 10
453.2111302156727
 20
1247.551263221501
 30
0.0
 11
453.2111302156727
 21
1260.552164826268
 31
0.0
  0
LINE
  5
6F31
330
68A2
100
AcDbEntity
  8
AM_5
100
AcDbLine
 10
501.2111302156727
 20
1247.551263221501
 30
0.0
 11
501.2111302156727
 21
1260.552164826268
 31
0.0
  0
LINE
  5
6F32
330
68A2
100
AcDbEntity
  8
AM_5
100
AcDbLine
 10
456.2111302156726
 20
1259.052164826268
 30
0.0
 11
498.2111302156726
 21
1259.052164826268
 31
0.0
  0
SOLID
  5
6F33
330
68A2
100
AcDbEntity
  8
AM_5
100
AcDbTrace
 10
456.2111302156726
 20
1259.552164826267
 30
0.0
 11
456.2111302156726
 21
1258.552164826268
 31
0.0
 12
453.2111302156727
 22
1259.052164826268
 32
0.0
 13
453.2111302156727
 23
1259.052164826268
 33
0.0
  0
SOLID
  5
6F34
330
68A2
100
AcDbEntity
  8
AM_5
100
AcDbTrace
 10
498.2111302156726
 20
1259.552164826267
 30
0.0
 11
498.2111302156726
 21
1258.552164826268
 31
0.0
 12
501.2111302156727
 22
1259.052164826268
 32
0.0
 13
501.2111302156727
 23
1259.052164826268
 33
0.0
  0
MTEXT
  5
6F35
330
68A2
100
AcDbEntity
  8
AM_5
100
AcDbMText
 10
477.2111302156726
 20
1262.003091278006
 30
0.0
 40
3.5
 41
0.0
 71
     5
 72
     1
  1
%%c48{}{\C5; g6}
 73
     1
 44
1.0
1001
ACAD
1000
MTEXTBEGIN
1070
    73
1070
     1
1070
    44
1040
1.0
1070
    74
1070
     0
1000
MTEXTEND
  0
POINT
  5
6F36
330
68A2
100
AcDbEntity
  8
Defpoints
 62
     0
100
AcDbPoint
 10
453.2111302156727
 20
1246.551263221501
 30
0.0
  0
POINT
  5
6F37
330
68A2
100
AcDbEntity
  8
Defpoints
 62
     0
100
AcDbPoint
 10
501.2111302156727
 20
1246.551263221501
 30
0.0
  0
POINT
  5
6F38
330
68A2
100
AcDbEntity
  8
Defpoints
 62
     0
100
AcDbPoint
 10
501.2111302156727
 20
1259.052164826268
 30
0.0
  0
ENDBLK
  5
68AD
330
68A2
100
AcDbEntity
  8
0
100
AcDbBlockEnd
  0
BLOCK
  5
68B8
330
68AE
100
AcDbEntity
  8
0
100
AcDbBlockBegin
  2
*D19
 70
     1
 10
0.0
 20
0.0
 30
0.0
  3
*D19
  1

  0
LINE
  5
6F39
330
68AE
100
AcDbEntity
  8
AM_5
100
AcDbLine
 10
452.2111302156726
 20
1239.2512632215
 30
0.0
 11
452.2111302156726
 21
1268.552164826267
 31
0.0
  0
LINE
  5
6F3A
330
68AE
100
AcDbEntity
  8
AM_5
100
AcDbLine
 10
502.2111302156726
 20
1239.2512632215
 30
0.0
 11
502.2111302156726
 21
1268.552164826267
 31
0.0
  0
LINE
  5
6F3B
330
68AE
100
AcDbEntity
  8
AM_5
100
AcDbLine
 10
455.2111302156727
 20
1267.052164826267
 30
0.0
 11
499.2111302156727
 21
1267.052164826267
 31
0.0
  0
SOLID
  5
6F3C
330
68AE
100
AcDbEntity
  8
AM_5
100
AcDbTrace
 10
455.2111302156727
 20
1267.552164826267
 30
0.0
 11
455.2111302156727
 21
1266.552164826267
 31
0.0
 12
452.2111302156726
 22
1267.052164826267
 32
0.0
 13
452.2111302156726
 23
1267.052164826267
 33
0.0
  0
SOLID
  5
6F3D
330
68AE
100
AcDbEntity
  8
AM_5
100
AcDbTrace
 10
499.2111302156727
 20
1267.552164826267
 30
0.0
 11
499.2111302156727
 21
1266.552164826267
 31
0.0
 12
502.2111302156726
 22
1267.052164826267
 32
0.0
 13
502.2111302156726
 23
1267.052164826267
 33
0.0
  0
MTEXT
  5
6F3E
330
68AE
100
AcDbEntity
  8
AM_5
100
AcDbMText
 10
477.2111302156726
 20
1270.003091278006
 30
0.0
 40
3.5
 41
0.0
 71
     5
 72
     1
  1
%%c50{}{\C5; g6}
 73
     1
 44
1.0
1001
ACAD
1000
MTEXTBEGIN
1070
    73
1070
     1
1070
    44
1040
1.0
1070
    74
1070
     0
1000
MTEXTEND
  0
POINT
  5
6F3F
330
68AE
100
AcDbEntity
  8
Defpoints
 62
     0
100
AcDbPoint
 10
452.2111302156726
 20
1238.2512632215
 30
0.0
  0
POINT
  5
6F40
330
68AE
100
AcDbEntity
  8
Defpoints
 62
     0
100
AcDbPoint
 10
502.2111302156726
 20
1238.2512632215
 30
0.0
  0
POINT
  5
6F41
330
68AE
100
AcDbEntity
  8
Defpoints
 62
     0
100
AcDbPoint
 10
502.2111302156726
 20
1267.052164826267
 30
0.0
  0
ENDBLK
  5
68B9
330
68AE
100
AcDbEntity
  8
0
100
AcDbBlockEnd
  0
BLOCK
  5
68C4
330
68BA
100
AcDbEntity
  8
0
100
AcDbBlockBegin
  2
*D20
 70
     1
 10
0.0
 20
0.0
 30
0.0
  3
*D20
  1

  0
LINE
  5
7359
330
68BA
100
AcDbEntity
  8
AM_5
100
AcDbLine
 10
517.2111302156727
 20
1233.0512632215
 30
0.0
 11
579.7111302156727
 21
1233.0512632215
 31
0.0
  0
LINE
  5
735A
330
68BA
100
AcDbEntity
  8
AM_5
100
AcDbLine
 10
501.7111302156727
 20
1247.0512632215
 30
0.0
 11
579.7111302156727
 21
1247.0512632215
 31
0.0
  0
LINE
  5
735B
330
68BA
100
AcDbEntity
  8
AM_5
100
AcDbLine
 10
578.2111302156727
 20
1236.051263221501
 30
0.0
 11
578.2111302156727
 21
1244.0512632215
 31
0.0
  0
SOLID
  5
735C
330
68BA
100
AcDbEntity
  8
AM_5
100
AcDbTrace
 10
577.7111302156726
 20
1236.051263221501
 30
0.0
 11
578.7111302156727
 21
1236.051263221501
 31
0.0
 12
578.2111302156727
 22
1233.0512632215
 32
0.0
 13
578.2111302156727
 23
1233.0512632215
 33
0.0
  0
SOLID
  5
735D
330
68BA
100
AcDbEntity
  8
AM_5
100
AcDbTrace
 10
577.7111302156726
 20
1244.0512632215
 30
0.0
 11
578.7111302156727
 21
1244.0512632215
 31
0.0
 12
578.2111302156727
 22
1247.0512632215
 32
0.0
 13
578.2111302156727
 23
1247.0512632215
 33
0.0
  0
MTEXT
  5
735E
330
68BA
100
AcDbEntity
  8
AM_5
100
AcDbMText
 10
575.7611302156725
 20
1240.051263221501
 30
0.0
 40
3.5
 41
0.0
 71
     5
 72
     1
  1
14
 11
0.0000000000000001
 21
1.0
 31
0.0
 73
     1
 44
1.0
1001
ACAD
1000
MTEXTBEGIN
1070
    73
1070
     1
1070
    44
1040
1.0
1070
    74
1070
     0
1000
MTEXTEND
  0
POINT
  5
735F
330
68BA
100
AcDbEntity
  8
Defpoints
 62
     0
100
AcDbPoint
 10
516.2111302156727
 20
1233.0512632215
 30
0.0
  0
POINT
  5
7360
330
68BA
100
AcDbEntity
  8
Defpoints
 62
     0
100
AcDbPoint
 10
500.7111302156727
 20
1247.0512632215
 30
0.0
  0
POINT
  5
7361
330
68BA
100
AcDbEntity
  8
Defpoints
 62
     0
100
AcDbPoint
 10
578.2111302156727
 20
1247.0512632215
 30
0.0
  0
ENDBLK
  5
68C5
330
68BA
100
AcDbEntity
  8
0
100
AcDbBlockEnd
  0
BLOCK
  5
68D0
330
68C6
100
AcDbEntity
  8
0
100
AcDbBlockBegin
  2
*D21
 70
     1
 10
0.0
 20
0.0
 30
0.0
  3
*D21
  1

  0
LINE
  5
7350
330
68C6
100
AcDbEntity
  8
AM_5
100
AcDbLine
 10
501.7111302156727
 20
1239.0512632215
 30
0.0
 11
571.7111302156727
 21
1239.0512632215
 31
0.0
  0
LINE
  5
7351
330
68C6
100
AcDbEntity
  8
AM_5
100
AcDbLine
 10
507.7111302156727
 20
1247.051263221501
 30
0.0
 11
571.7111302156727
 21
1247.051263221501
 31
0.0
  0
LINE
  5
7352
330
68C6
100
AcDbEntity
  8
AM_5
100
AcDbLine
 10
570.2111302156727
 20
1242.0512632215
 30
0.0
 11
570.2111302156727
 21
1244.051263221501
 31
0.0
  0
SOLID
  5
7353
330
68C6
100
AcDbEntity
  8
AM_5
100
AcDbTrace
 10
569.7111302156726
 20
1242.0512632215
 30
0.0
 11
570.7111302156727
 21
1242.0512632215
 31
0.0
 12
570.2111302156727
 22
1239.0512632215
 32
0.0
 13
570.2111302156727
 23
1239.0512632215
 33
0.0
  0
SOLID
  5
7354
330
68C6
100
AcDbEntity
  8
AM_5
100
AcDbTrace
 10
569.7111302156726
 20
1244.051263221501
 30
0.0
 11
570.7111302156727
 21
1244.051263221501
 31
0.0
 12
570.2111302156727
 22
1247.051263221501
 32
0.0
 13
570.2111302156727
 23
1247.051263221501
 33
0.0
  0
MTEXT
  5
7355
330
68C6
100
AcDbEntity
  8
AM_5
100
AcDbMText
 10
567.7611302156726
 20
1243.051263221501
 30
0.0
 40
3.5
 41
0.0
 71
     5
 72
     1
  1
8
 11
0.0000000000000001
 21
1.0
 31
0.0
 73
     1
 44
1.0
1001
ACAD
1000
MTEXTBEGIN
1070
    73
1070
     1
1070
    44
1040
1.0
1070
    74
1070
     0
1000
MTEXTEND
  0
POINT
  5
7356
330
68C6
100
AcDbEntity
  8
Defpoints
 62
     0
100
AcDbPoint
 10
500.7111302156727
 20
1239.0512632215
 30
0.0
  0
POINT
  5
7357
330
68C6
100
AcDbEntity
  8
Defpoints
 62
     0
100
AcDbPoint
 10
506.7111302156727
 20
1247.051263221501
 30
0.0
  0
POINT
  5
7358
330
68C6
100
AcDbEntity
  8
Defpoints
 62
     0
100
AcDbPoint
 10
570.2111302156727
 20
1247.051263221501
 30
0.0
  0
ENDBLK
  5
68D1
330
68C6
100
AcDbEntity
  8
0
100
AcDbBlockEnd
  0
BLOCK
  5
68DC
330
68D2
100
AcDbEntity
  8
0
100
AcDbBlockBegin
  2
*D22
 70
     1
 10
0.0
 20
0.0
 30
0.0
  3
*D22
  1

  0
LINE
  5
7347
330
68D2
100
AcDbEntity
  8
AM_5
100
AcDbLine
 10
517.2111302156728
 20
1200.0512632215
 30
0.0
 11
587.7111302156727
 21
1200.0512632215
 31
0.0
  0
LINE
  5
7348
330
68D2
100
AcDbEntity
  8
AM_5
100
AcDbLine
 10
501.7111302156727
 20
1247.0512632215
 30
0.0
 11
587.7111302156727
 21
1247.0512632215
 31
0.0
  0
LINE
  5
7349
330
68D2
100
AcDbEntity
  8
AM_5
100
AcDbLine
 10
586.2111302156726
 20
1203.0512632215
 30
0.0
 11
586.2111302156726
 21
1244.0512632215
 31
0.0
  0
SOLID
  5
734A
330
68D2
100
AcDbEntity
  8
AM_5
100
AcDbTrace
 10
585.7111302156726
 20
1203.0512632215
 30
0.0
 11
586.7111302156727
 21
1203.0512632215
 31
0.0
 12
586.2111302156726
 22
1200.0512632215
 32
0.0
 13
586.2111302156726
 23
1200.0512632215
 33
0.0
  0
SOLID
  5
734B
330
68D2
100
AcDbEntity
  8
AM_5
100
AcDbTrace
 10
585.7111302156726
 20
1244.0512632215
 30
0.0
 11
586.7111302156727
 21
1244.0512632215
 31
0.0
 12
586.2111302156726
 22
1247.0512632215
 32
0.0
 13
586.2111302156726
 23
1247.0512632215
 33
0.0
  0
MTEXT
  5
734C
330
68D2
100
AcDbEntity
  8
AM_5
100
AcDbMText
 10
583.7611302156725
 20
1223.551263221501
 30
0.0
 40
3.5
 41
0.0
 71
     5
 72
     1
  1
47
 11
0.0000000000000001
 21
1.0
 31
0.0
 73
     1
 44
1.0
1001
ACAD
1000
MTEXTBEGIN
1070
    73
1070
     1
1070
    44
1040
1.0
1070
    74
1070
     0
1000
MTEXTEND
  0
POINT
  5
734D
330
68D2
100
AcDbEntity
  8
Defpoints
 62
     0
100
AcDbPoint
 10
516.2111302156728
 20
1200.0512632215
 30
0.0
  0
POINT
  5
734E
330
68D2
100
AcDbEntity
  8
Defpoints
 62
     0
100
AcDbPoint
 10
500.7111302156727
 20
1247.0512632215
 30
0.0
  0
POINT
  5
734F
330
68D2
100
AcDbEntity
  8
Defpoints
 62
     0
100
AcDbPoint
 10
586.2111302156726
 20
1247.0512632215
 30
0.0
  0
ENDBLK
  5
68DD
330
68D2
100
AcDbEntity
  8
0
100
AcDbBlockEnd
  0
BLOCK
  5
68E8
330
68DE
100
AcDbEntity
  8
0
100
AcDbBlockBegin
  2
*D23
 70
     1
 10
0.0
 20
0.0
 30
0.0
  3
*D23
  1

  0
LINE
  5
746B
330
68DE
100
AcDbEntity
  8
AM_5
100
AcDbLine
 10
468.7111302156726
 20
1199.0512632215
 30
0.0
 11
468.7111302156726
 21
1181.96642231574
 31
0.0
  0
LINE
  5
746C
330
68DE
100
AcDbEntity
  8
AM_5
100
AcDbLine
 10
485.7111302156726
 20
1199.0512632215
 30
0.0
 11
485.7111302156726
 21
1181.96642231574
 31
0.0
  0
LINE
  5
746D
330
68DE
100
AcDbEntity
  8
AM_5
100
AcDbLine
 10
471.7111302156727
 20
1183.46642231574
 30
0.0
 11
482.7111302156727
 21
1183.46642231574
 31
0.0
  0
LINE
  5
746E
330
68DE
100
AcDbEntity
  8
AM_5
100
AcDbLine
 10
485.7111302156726
 20
1183.46642231574
 30
0.0
 11
503.0611302156727
 21
1183.46642231574
 31
0.0
  0
SOLID
  5
746F
330
68DE
100
AcDbEntity
  8
AM_5
100
AcDbTrace
 10
471.7111302156727
 20
1183.96642231574
 30
0.0
 11
471.7111302156727
 21
1182.966422315741
 31
0.0
 12
468.7111302156726
 22
1183.46642231574
 32
0.0
 13
468.7111302156726
 23
1183.46642231574
 33
0.0
  0
SOLID
  5
7470
330
68DE
100
AcDbEntity
  8
AM_5
100
AcDbTrace
 10
482.7111302156727
 20
1183.96642231574
 30
0.0
 11
482.7111302156727
 21
1182.966422315741
 31
0.0
 12
485.7111302156726
 22
1183.46642231574
 32
0.0
 13
485.7111302156726
 23
1183.46642231574
 33
0.0
  0
MTEXT
  5
7471
330
68DE
100
AcDbEntity
  8
AM_5
100
AcDbMText
 10
495.8861302156726
 20
1185.916422315741
 30
0.0
 40
3.5
 41
0.0
 71
     5
 72
     1
  1
%%c17{}{\C5; H7}
 73
     1
 44
1.0
1001
ACAD
1000
MTEXTBEGIN
1070
    73
1070
     1
1070
    44
1040
1.0
1070
    74
1070
     0
1000
MTEXTEND
  0
POINT
  5
7472
330
68DE
100
AcDbEntity
  8
Defpoints
 62
     0
100
AcDbPoint
 10
468.7111302156726
 20
1200.051263221501
 30
0.0
  0
POINT
  5
7473
330
68DE
100
AcDbEntity
  8
Defpoints
 62
     0
100
AcDbPoint
 10
485.7111302156726
 20
1200.051263221501
 30
0.0
  0
POINT
  5
7474
330
68DE
100
AcDbEntity
  8
Defpoints
 62
     0
100
AcDbPoint
 10
485.7111302156726
 20
1183.46642231574
 30
0.0
  0
ENDBLK
  5
68E9
330
68DE
100
AcDbEntity
  8
0
100
AcDbBlockEnd
  0
BLOCK
  5
68F5
330
68EA
100
AcDbEntity
  8
0
100
AcDbBlockBegin
  2
*D24
 70
     1
 10
0.0
 20
0.0
 30
0.0
  3
*D24
  1

  0
LINE
  5
7475
330
68EA
100
AcDbEntity
  8
AM_5
100
AcDbLine
 10
474.2111302156727
 20
1202.051263221501
 30
0.0
 11
474.2111302156727
 21
1189.824556223689
 31
0.0
  0
LINE
  5
7476
330
68EA
100
AcDbEntity
  8
AM_5
100
AcDbLine
 10
480.2111302156727
 20
1202.051263221501
 30
0.0
 11
480.2111302156727
 21
1189.824556223689
 31
0.0
  0
LINE
  5
7477
330
68EA
100
AcDbEntity
  8
AM_5
100
AcDbLine
 10
471.2111302156727
 20
1191.324556223689
 30
0.0
 11
468.2111302156727
 21
1191.324556223689
 31
0.0
  0
LINE
  5
7478
330
68EA
100
AcDbEntity
  8
AM_5
100
AcDbLine
 10
483.2111302156727
 20
1191.324556223689
 30
0.0
 11
502.7094223621112
 21
1191.324556223689
 31
0.0
  0
LINE
  5
7479
330
68EA
100
AcDbEntity
  8
AM_5
100
AcDbLine
 10
474.2111302156727
 20
1191.324556223689
 30
0.0
 11
480.2111302156727
 21
1191.324556223689
 31
0.0
  0
SOLID
  5
747A
330
68EA
100
AcDbEntity
  8
AM_5
100
AcDbTrace
 10
471.2111302156727
 20
1191.824556223689
 30
0.0
 11
471.2111302156727
 21
1190.824556223689
 31
0.0
 12
474.2111302156727
 22
1191.324556223689
 32
0.0
 13
474.2111302156727
 23
1191.324556223689
 33
0.0
  0
SOLID
  5
747B
330
68EA
100
AcDbEntity
  8
AM_5
100
AcDbTrace
 10
483.2111302156727
 20
1191.824556223689
 30
0.0
 11
483.2111302156727
 21
1190.824556223689
 31
0.0
 12
480.2111302156727
 22
1191.324556223689
 32
0.0
 13
480.2111302156727
 23
1191.324556223689
 33
0.0
  0
MTEXT
  5
747C
330
68EA
100
AcDbEntity
  8
AM_5
100
AcDbMText
 10
495.1844223621113
 20
1193.774556223689
 30
0.0
 40
3.5
 41
0.0
 71
     5
 72
     1
  1
%%c6thru
 73
     1
 44
1.0
1001
ACAD
1000
MTEXTBEGIN
1070
    73
1070
     1
1070
    44
1040
1.0
1070
    74
1070
     0
1000
MTEXTEND
  0
POINT
  5
747D
330
68EA
100
AcDbEntity
  8
Defpoints
 62
     0
100
AcDbPoint
 10
474.2111302156727
 20
1203.051263221501
 30
0.0
  0
POINT
  5
747E
330
68EA
100
AcDbEntity
  8
Defpoints
 62
     0
100
AcDbPoint
 10
480.2111302156727
 20
1203.051263221501
 30
0.0
  0
POINT
  5
747F
330
68EA
100
AcDbEntity
  8
Defpoints
 62
     0
100
AcDbPoint
 10
480.2111302156727
 20
1191.324556223689
 30
0.0
  0
ENDBLK
  5
68F6
330
68EA
100
AcDbEntity
  8
0
100
AcDbBlockEnd
  0
BLOCK
  5
6972
330
6968
100
AcDbEntity
  8
0
100
AcDbBlockBegin
  2
*D25
 70
     1
 10
0.0
 20
0.0
 30
0.0
  3
*D25
  1

  0
LINE
  5
7454
330
6968
100
AcDbEntity
  8
AM_5
100
AcDbLine
 10
612.3335512381938
 20
1344.367539158497
 30
0.0
 11
600.1335512381944
 21
1344.367539158497
 31
0.0
  0
LINE
  5
7455
330
6968
100
AcDbEntity
  8
AM_5
100
AcDbLine
 10
612.3335512381938
 20
1352.367539158497
 30
0.0
 11
600.1335512381944
 21
1352.367539158497
 31
0.0
  0
LINE
  5
7456
330
6968
100
AcDbEntity
  8
AM_5
100
AcDbLine
 10
601.6335512381943
 20
1347.367539158497
 30
0.0
 11
601.6335512381943
 21
1349.367539158497
 31
0.0
  0
LINE
  5
7457
330
6968
100
AcDbEntity
  8
AM_5
100
AcDbLine
 10
601.6335512381943
 20
1352.367539158497
 30
0.0
 11
601.6335512381943
 21
1404.291335927983
 31
0.0
  0
SOLID
  5
7458
330
6968
100
AcDbEntity
  8
AM_5
100
AcDbTrace
 10
601.1335512381943
 20
1347.367539158497
 30
0.0
 11
602.1335512381944
 21
1347.367539158497
 31
0.0
 12
601.6335512381943
 22
1344.367539158497
 32
0.0
 13
601.6335512381943
 23
1344.367539158497
 33
0.0
  0
SOLID
  5
7459
330
6968
100
AcDbEntity
  8
AM_5
100
AcDbTrace
 10
601.1335512381943
 20
1349.367539158497
 30
0.0
 11
602.1335512381944
 21
1349.367539158497
 31
0.0
 12
601.6335512381943
 22
1352.367539158497
 32
0.0
 13
601.6335512381943
 23
1352.367539158497
 33
0.0
  0
MTEXT
  5
745A
330
6968
100
AcDbEntity
  8
AM_5
100
AcDbMText
 10
598.1592320424915
 20
1383.587743823849
 30
0.0
 40
3.5
 41
0.0
 71
     5
 72
     1
  1
8{\H2.100000;\S+0.03^  0;}(wide)x3.3depth
 11
0.0000000000000001
 21
1.0
 31
0.0
 73
     1
 44
1.0
1001
ACAD
1000
MTEXTBEGIN
1070
    73
1070
     1
1070
    44
1040
1.0
1070
    74
1070
     0
1000
MTEXTEND
  0
POINT
  5
745B
330
6968
100
AcDbEntity
  8
Defpoints
 62
     0
100
AcDbPoint
 10
613.3335512381939
 20
1344.367539158497
 30
0.0
  0
POINT
  5
745C
330
6968
100
AcDbEntity
  8
Defpoints
 62
     0
100
AcDbPoint
 10
613.3335512381939
 20
1352.367539158497
 30
0.0
  0
POINT
  5
745D
330
6968
100
AcDbEntity
  8
Defpoints
 62
     0
100
AcDbPoint
 10
601.6335512381943
 20
1352.367539158497
 30
0.0
  0
ENDBLK
  5
6973
330
6968
100
AcDbEntity
  8
0
100
AcDbBlockEnd
  0
BLOCK
  5
697E
330
6974
100
AcDbEntity
  8
0
100
AcDbBlockBegin
  2
*D26
 70
     1
 10
0.0
 20
0.0
 30
0.0
  3
*D26
  1

  0
LINE
  5
6E4B
330
6974
100
AcDbEntity
  8
AM_5
100
AcDbLine
 10
641.3335512381937
 20
1332.232123508091
 30
0.0
 11
641.3335512381937
 21
1303.695993024951
 31
0.0
  0
LINE
  5
6E4C
330
6974
100
AcDbEntity
  8
AM_5
100
AcDbLine
 10
648.3335512381936
 20
1332.232123508091
 30
0.0
 11
648.3335512381936
 21
1303.695993024951
 31
0.0
  0
LINE
  5
6E4D
330
6974
100
AcDbEntity
  8
AM_5
100
AcDbLine
 10
638.3335512381937
 20
1305.195993024951
 30
0.0
 11
635.3335512381938
 21
1305.195993024951
 31
0.0
  0
LINE
  5
6E4E
330
6974
100
AcDbEntity
  8
AM_5
100
AcDbLine
 10
651.3335512381936
 20
1305.195993024951
 30
0.0
 11
654.3335512381936
 21
1305.195993024951
 31
0.0
  0
LINE
  5
6E4F
330
6974
100
AcDbEntity
  8
AM_5
100
AcDbLine
 10
641.3335512381937
 20
1305.195993024951
 30
0.0
 11
648.3335512381936
 21
1305.195993024951
 31
0.0
  0
SOLID
  5
6E50
330
6974
100
AcDbEntity
  8
AM_5
100
AcDbTrace
 10
638.3335512381937
 20
1305.695993024951
 30
0.0
 11
638.3335512381937
 21
1304.695993024951
 31
0.0
 12
641.3335512381937
 22
1305.195993024951
 32
0.0
 13
641.3335512381937
 23
1305.195993024951
 33
0.0
  0
SOLID
  5
6E51
330
6974
100
AcDbEntity
  8
AM_5
100
AcDbTrace
 10
651.3335512381936
 20
1305.695993024951
 30
0.0
 11
651.3335512381936
 21
1304.695993024951
 31
0.0
 12
648.3335512381936
 22
1305.195993024951
 32
0.0
 13
648.3335512381936
 23
1305.195993024951
 33
0.0
  0
MTEXT
  5
6E52
330
6974
100
AcDbEntity
  8
AM_5
100
AcDbMText
 10
644.8335512381937
 20
1307.645993024951
 30
0.0
 40
3.5
 41
0.0
 71
     5
 72
     1
  1
7
 73
     1
 44
1.0
1001
ACAD
1000
MTEXTBEGIN
1070
    73
1070
     1
1070
    44
1040
1.0
1070
    74
1070
     0
1000
MTEXTEND
  0
POINT
  5
6E53
330
6974
100
AcDbEntity
  8
Defpoints
 62
     0
100
AcDbPoint
 10
641.3335512381937
 20
1333.232123508091
 30
0.0
  0
POINT
  5
6E54
330
6974
100
AcDbEntity
  8
Defpoints
 62
     0
100
AcDbPoint
 10
648.3335512381936
 20
1333.232123508091
 30
0.0
  0
POINT
  5
6E55
330
6974
100
AcDbEntity
  8
Defpoints
 62
     0
100
AcDbPoint
 10
648.3335512381936
 20
1305.195993024951
 30
0.0
  0
ENDBLK
  5
697F
330
6974
100
AcDbEntity
  8
0
100
AcDbBlockEnd
  0
BLOCK
  5
698A
330
6980
100
AcDbEntity
  8
0
100
AcDbBlockBegin
  2
*D27
 70
     1
 10
0.0
 20
0.0
 30
0.0
  3
*D27
  1

  0
LINE
  5
6E56
330
6980
100
AcDbEntity
  8
AM_5
100
AcDbLine
 10
636.3335512381937
 20
1329.460061870385
 30
0.0
 11
636.3335512381937
 21
1295.695993024951
 31
0.0
  0
LINE
  5
6E57
330
6980
100
AcDbEntity
  8
AM_5
100
AcDbLine
 10
653.3335512381937
 20
1329.460061870385
 30
0.0
 11
653.3335512381937
 21
1295.695993024951
 31
0.0
  0
LINE
  5
6E58
330
6980
100
AcDbEntity
  8
AM_5
100
AcDbLine
 10
639.3335512381938
 20
1297.195993024951
 30
0.0
 11
650.3335512381937
 21
1297.195993024951
 31
0.0
  0
SOLID
  5
6E59
330
6980
100
AcDbEntity
  8
AM_5
100
AcDbTrace
 10
639.3335512381938
 20
1297.695993024951
 30
0.0
 11
639.3335512381938
 21
1296.695993024951
 31
0.0
 12
636.3335512381937
 22
1297.195993024951
 32
0.0
 13
636.3335512381937
 23
1297.195993024951
 33
0.0
  0
SOLID
  5
6E5A
330
6980
100
AcDbEntity
  8
AM_5
100
AcDbTrace
 10
650.3335512381937
 20
1297.695993024951
 30
0.0
 11
650.3335512381937
 21
1296.695993024951
 31
0.0
 12
653.3335512381937
 22
1297.195993024951
 32
0.0
 13
653.3335512381937
 23
1297.195993024951
 33
0.0
  0
MTEXT
  5
6E5B
330
6980
100
AcDbEntity
  8
AM_5
100
AcDbMText
 10
644.8335512381937
 20
1299.645993024951
 30
0.0
 40
3.5
 41
0.0
 71
     5
 72
     1
  1
17
 73
     1
 44
1.0
1001
ACAD
1000
MTEXTBEGIN
1070
    73
1070
     1
1070
    44
1040
1.0
1070
    74
1070
     0
1000
MTEXTEND
  0
POINT
  5
6E5C
330
6980
100
AcDbEntity
  8
Defpoints
 62
     0
100
AcDbPoint
 10
636.3335512381937
 20
1330.460061870385
 30
0.0
  0
POINT
  5
6E5D
330
6980
100
AcDbEntity
  8
Defpoints
 62
     0
100
AcDbPoint
 10
653.3335512381937
 20
1330.460061870385
 30
0.0
  0
POINT
  5
6E5E
330
6980
100
AcDbEntity
  8
Defpoints
 62
     0
100
AcDbPoint
 10
653.3335512381937
 20
1297.195993024951
 30
0.0
  0
ENDBLK
  5
698B
330
6980
100
AcDbEntity
  8
0
100
AcDbBlockEnd
  0
BLOCK
  5
6996
330
698C
100
AcDbEntity
  8
0
100
AcDbBlockBegin
  2
*D28
 70
     1
 10
0.0
 20
0.0
 30
0.0
  3
*D28
  1

  0
LINE
  5
7440
330
698C
100
AcDbEntity
  8
AM_5
100
AcDbLine
 10
612.3335512381938
 20
1336.367539158497
 30
0.0
 11
589.3508509941955
 21
1336.367539158497
 31
0.0
  0
LINE
  5
7441
330
698C
100
AcDbEntity
  8
AM_5
100
AcDbLine
 10
612.3335512381938
 20
1360.367539158497
 30
0.0
 11
589.3508509941955
 21
1360.367539158497
 31
0.0
  0
LINE
  5
7442
330
698C
100
AcDbEntity
  8
AM_5
100
AcDbLine
 10
590.8508509941955
 20
1339.367539158497
 30
0.0
 11
590.8508509941955
 21
1357.367539158497
 31
0.0
  0
LINE
  5
7443
330
698C
100
AcDbEntity
  8
AM_5
100
AcDbLine
 10
590.8508509941955
 20
1360.367539158497
 30
0.0
 11
590.8508509941955
 21
1397.094392061974
 31
0.0
  0
SOLID
  5
7444
330
698C
100
AcDbEntity
  8
AM_5
100
AcDbTrace
 10
590.3508509941955
 20
1339.367539158497
 30
0.0
 11
591.3508509941955
 21
1339.367539158497
 31
0.0
 12
590.8508509941955
 22
1336.367539158497
 32
0.0
 13
590.8508509941955
 23
1336.367539158497
 33
0.0
  0
SOLID
  5
7445
330
698C
100
AcDbEntity
  8
AM_5
100
AcDbTrace
 10
590.3508509941955
 20
1357.367539158497
 30
0.0
 11
591.3508509941955
 21
1357.367539158497
 31
0.0
 12
590.8508509941955
 22
1360.367539158497
 32
0.0
 13
590.8508509941955
 23
1360.367539158497
 33
0.0
  0
MTEXT
  5
7446
330
698C
100
AcDbEntity
  8
AM_5
100
AcDbMText
 10
587.8758509941953
 20
1380.230965610236
 30
0.0
 40
3.5
 41
0.0
 71
     5
 72
     1
  1
%%c24(H7)x3depth
 11
0.0000000000000001
 21
1.0
 31
0.0
 73
     1
 44
1.0
1001
ACAD
1000
MTEXTBEGIN
1070
    73
1070
     1
1070
    44
1040
1.0
1070
    74
1070
     0
1000
MTEXTEND
  0
POINT
  5
7447
330
698C
100
AcDbEntity
  8
Defpoints
 62
     0
100
AcDbPoint
 10
613.3335512381939
 20
1336.367539158497
 30
0.0
  0
POINT
  5
7448
330
698C
100
AcDbEntity
  8
Defpoints
 62
     0
100
AcDbPoint
 10
613.3335512381939
 20
1360.367539158497
 30
0.0
  0
POINT
  5
7449
330
698C
100
AcDbEntity
  8
Defpoints
 62
     0
100
AcDbPoint
 10
590.8508509941955
 20
1360.367539158497
 30
0.0
  0
ENDBLK
  5
6997
330
698C
100
AcDbEntity
  8
0
100
AcDbBlockEnd
  0
BLOCK
  5
6DAF
330
6DA5
100
AcDbEntity
  8
0
100
AcDbBlockBegin
  2
*D29
 70
     1
 10
0.0
 20
0.0
 30
0.0
  3
*D29
  1

  0
LINE
  5
70D9
330
6DA5
100
AcDbEntity
  8
AM_5
100
AcDbLine
 10
649.9553268744935
 20
1199.3012632215
 30
0.0
 11
649.9553268744935
 21
1190.095828002984
 31
0.0
  0
LINE
  5
70DA
330
6DA5
100
AcDbEntity
  8
AM_5
100
AcDbLine
 10
681.1305489137242
 20
1210.9512632215
 30
0.0
 11
681.1305489137242
 21
1190.095828002984
 31
0.0
  0
LINE
  5
70DB
330
6DA5
100
AcDbEntity
  8
AM_5
100
AcDbLine
 10
652.9553268744934
 20
1191.595828002984
 30
0.0
 11
678.1305489137243
 21
1191.595828002984
 31
0.0
  0
SOLID
  5
70DC
330
6DA5
100
AcDbEntity
  8
AM_5
100
AcDbTrace
 10
652.9553268744934
 20
1192.095828002984
 30
0.0
 11
652.9553268744934
 21
1191.095828002984
 31
0.0
 12
649.9553268744935
 22
1191.595828002984
 32
0.0
 13
649.9553268744935
 23
1191.595828002984
 33
0.0
  0
SOLID
  5
70DD
330
6DA5
100
AcDbEntity
  8
AM_5
100
AcDbTrace
 10
678.1305489137243
 20
1192.095828002984
 30
0.0
 11
678.1305489137243
 21
1191.095828002984
 31
0.0
 12
681.1305489137242
 22
1191.595828002984
 32
0.0
 13
681.1305489137242
 23
1191.595828002984
 33
0.0
  0
MTEXT
  5
70DE
330
6DA5
100
AcDbEntity
  8
AM_5
100
AcDbMText
 10
665.5429378941089
 20
1194.045828002984
 30
0.0
 40
3.5
 41
0.0
 71
     5
 72
     1
  1
Max.31
 73
     1
 44
1.0
1001
ACAD
1000
MTEXTBEGIN
1070
    73
1070
     1
1070
    44
1040
1.0
1070
    74
1070
     0
1000
MTEXTEND
  0
POINT
  5
70DF
330
6DA5
100
AcDbEntity
  8
Defpoints
 62
     0
100
AcDbPoint
 10
649.9553268744935
 20
1200.3012632215
 30
0.0
  0
POINT
  5
70E0
330
6DA5
100
AcDbEntity
  8
Defpoints
 62
     0
100
AcDbPoint
 10
681.1305489137242
 20
1211.9512632215
 30
0.0
  0
POINT
  5
70E1
330
6DA5
100
AcDbEntity
  8
Defpoints
 62
     0
100
AcDbPoint
 10
681.1305489137242
 20
1191.595828002984
 30
0.0
  0
ENDBLK
  5
6DB0
330
6DA5
100
AcDbEntity
  8
0
100
AcDbBlockEnd
  0
BLOCK
  5
720F
330
7203
100
AcDbEntity
  8
0
100
AcDbBlockBegin
  2
*D30
 70
     1
 10
0.0
 20
0.0
 30
0.0
  3
*D30
  1

  0
LINE
  5
72E6
330
7203
100
AcDbEntity
  8
AM_5
100
AcDbLine
 10
344.639663418413
 20
1234.665873843468
 30
0.0
 11
344.639663418413
 21
1242.806365300394
 31
0.0
  0
LINE
  5
72E7
330
7203
100
AcDbEntity
  8
AM_5
100
AcDbLine
 10
349.6396634184129
 20
1232.429805865968
 30
0.0
 11
349.6396634184129
 21
1242.806365300394
 31
0.0
  0
LINE
  5
72E8
330
7203
100
AcDbEntity
  8
AM_5
100
AcDbLine
 10
341.639663418413
 20
1241.306365300394
 30
0.0
 11
338.639663418413
 21
1241.306365300394
 31
0.0
  0
LINE
  5
72E9
330
7203
100
AcDbEntity
  8
AM_5
100
AcDbLine
 10
352.6396634184129
 20
1241.306365300394
 30
0.0
 11
355.6396634184129
 21
1241.306365300394
 31
0.0
  0
LINE
  5
72EA
330
7203
100
AcDbEntity
  8
AM_5
100
AcDbLine
 10
344.639663418413
 20
1241.306365300394
 30
0.0
 11
349.6396634184129
 21
1241.306365300394
 31
0.0
  0
SOLID
  5
72EB
330
7203
100
AcDbEntity
  8
AM_5
100
AcDbTrace
 10
341.639663418413
 20
1241.806365300394
 30
0.0
 11
341.639663418413
 21
1240.806365300394
 31
0.0
 12
344.639663418413
 22
1241.306365300394
 32
0.0
 13
344.639663418413
 23
1241.306365300394
 33
0.0
  0
SOLID
  5
72EC
330
7203
100
AcDbEntity
  8
AM_5
100
AcDbTrace
 10
352.6396634184129
 20
1241.806365300394
 30
0.0
 11
352.6396634184129
 21
1240.806365300394
 31
0.0
 12
349.6396634184129
 22
1241.306365300394
 32
0.0
 13
349.6396634184129
 23
1241.306365300394
 33
0.0
  0
MTEXT
  5
72ED
330
7203
100
AcDbEntity
  8
AM_5
100
AcDbMText
 10
347.139663418413
 20
1243.756365300394
 30
0.0
 40
3.5
 41
0.0
 71
     5
 72
     1
  1
5
 73
     1
 44
1.0
1001
ACAD
1000
MTEXTBEGIN
1070
    73
1070
     1
1070
    44
1040
1.0
1070
    74
1070
     0
1000
MTEXTEND
  0
POINT
  5
72EE
330
7203
100
AcDbEntity
  8
Defpoints
 62
     0
100
AcDbPoint
 10
344.639663418413
 20
1233.665873843468
 30
0.0
  0
POINT
  5
72EF
330
7203
100
AcDbEntity
  8
Defpoints
 62
     0
100
AcDbPoint
 10
349.6396634184129
 20
1231.429805865968
 30
0.0
  0
POINT
  5
72F0
330
7203
100
AcDbEntity
  8
Defpoints
 62
     0
100
AcDbPoint
 10
349.6396634184129
 20
1241.306365300394
 30
0.0
  0
ENDBLK
  5
7210
330
7203
100
AcDbEntity
  8
0
100
AcDbBlockEnd
  0
BLOCK
  5
7239
330
722D
100
AcDbEntity
  8
0
100
AcDbBlockBegin
  2
*D31
 70
     1
 10
0.0
 20
0.0
 30
0.0
  3
*D31
  1

  0
LINE
  5
7308
330
722D
100
AcDbEntity
  8
AM_5
100
AcDbLine
 10
345.639663418413
 20
1234.429805865968
 30
0.0
 11
335.5633224895336
 21
1234.429805865968
 31
0.0
  0
LINE
  5
7309
330
722D
100
AcDbEntity
  8
AM_5
100
AcDbLine
 10
345.639663418413
 20
1228.429805865969
 30
0.0
 11
335.5633224895336
 21
1228.429805865969
 31
0.0
  0
LINE
  5
730A
330
722D
100
AcDbEntity
  8
AM_5
100
AcDbLine
 10
337.0633224895336
 20
1237.429805865968
 30
0.0
 11
337.0633224895336
 21
1240.429805865968
 31
0.0
  0
LINE
  5
730B
330
722D
100
AcDbEntity
  8
AM_5
100
AcDbLine
 10
337.0633224895336
 20
1225.429805865968
 30
0.0
 11
337.0633224895336
 21
1222.429805865968
 31
0.0
  0
LINE
  5
730C
330
722D
100
AcDbEntity
  8
AM_5
100
AcDbLine
 10
337.0633224895336
 20
1234.429805865968
 30
0.0
 11
337.0633224895336
 21
1228.429805865969
 31
0.0
  0
SOLID
  5
730D
330
722D
100
AcDbEntity
  8
AM_5
100
AcDbTrace
 10
336.5633224895336
 20
1237.429805865968
 30
0.0
 11
337.5633224895336
 21
1237.429805865968
 31
0.0
 12
337.0633224895336
 22
1234.429805865968
 32
0.0
 13
337.0633224895336
 23
1234.429805865968
 33
0.0
  0
SOLID
  5
730E
330
722D
100
AcDbEntity
  8
AM_5
100
AcDbTrace
 10
336.5633224895336
 20
1225.429805865968
 30
0.0
 11
337.5633224895336
 21
1225.429805865968
 31
0.0
 12
337.0633224895336
 22
1228.429805865969
 32
0.0
 13
337.0633224895336
 23
1228.429805865969
 33
0.0
  0
MTEXT
  5
730F
330
722D
100
AcDbEntity
  8
AM_5
100
AcDbMText
 10
334.6133224895333
 20
1231.429805865968
 30
0.0
 40
3.5
 41
0.0
 71
     5
 72
     1
  1
%%c6{}{\C5; h7}
 11
0.0000000000000001
 21
1.0
 31
0.0
 73
     1
 44
1.0
1001
ACAD
1000
MTEXTBEGIN
1070
    73
1070
     1
1070
    44
1040
1.0
1070
    74
1070
     0
1000
MTEXTEND
  0
POINT
  5
7310
330
722D
100
AcDbEntity
  8
Defpoints
 62
     0
100
AcDbPoint
 10
346.639663418413
 20
1234.429805865968
 30
0.0
  0
POINT
  5
7311
330
722D
100
AcDbEntity
  8
Defpoints
 62
     0
100
AcDbPoint
 10
346.639663418413
 20
1228.429805865969
 30
0.0
  0
POINT
  5
7312
330
722D
100
AcDbEntity
  8
Defpoints
 62
     0
100
AcDbPoint
 10
337.0633224895336
 20
1228.429805865969
 30
0.0
  0
ENDBLK
  5
723A
330
722D
100
AcDbEntity
  8
0
100
AcDbBlockEnd
  0
BLOCK
  5
727C
330
7272
100
AcDbEntity
  8
0
100
AcDbBlockBegin
  2
*D32
 70
     1
 10
0.0
 20
0.0
 30
0.0
  3
*D32
  1

  0
LINE
  5
72FC
330
7272
100
AcDbEntity
  8
AM_5
100
AcDbLine
 10
350.1396634184128
 20
1220.917337190436
 30
0.0
 11
358.8696123764615
 21
1220.917337190436
 31
0.0
  0
LINE
  5
72FD
330
7272
100
AcDbEntity
  8
AM_5
100
AcDbLine
 10
350.6396634184128
 20
1203.417337190436
 30
0.0
 11
358.8696123764615
 21
1203.417337190436
 31
0.0
  0
LINE
  5
72FE
330
7272
100
AcDbEntity
  8
AM_5
100
AcDbLine
 10
357.3696123764615
 20
1217.917337190436
 30
0.0
 11
357.3696123764615
 21
1206.417337190436
 31
0.0
  0
SOLID
  5
72FF
330
7272
100
AcDbEntity
  8
AM_5
100
AcDbTrace
 10
356.8696123764615
 20
1217.917337190436
 30
0.0
 11
357.8696123764615
 21
1217.917337190436
 31
0.0
 12
357.3696123764615
 22
1220.917337190436
 32
0.0
 13
357.3696123764615
 23
1220.917337190436
 33
0.0
  0
SOLID
  5
7300
330
7272
100
AcDbEntity
  8
AM_5
100
AcDbTrace
 10
356.8696123764615
 20
1206.417337190436
 30
0.0
 11
357.8696123764615
 21
1206.417337190436
 31
0.0
 12
357.3696123764615
 22
1203.417337190436
 32
0.0
 13
357.3696123764615
 23
1203.417337190436
 33
0.0
  0
MTEXT
  5
7301
330
7272
100
AcDbEntity
  8
AM_5
100
AcDbMText
 10
354.9196123764613
 20
1212.167337190436
 30
0.0
 40
3.5
 41
0.0
 71
     5
 72
     1
  1
17.5
 11
0.0000000000000001
 21
1.0
 31
0.0
 73
     1
 44
1.0
1001
ACAD
1000
MTEXTBEGIN
1070
    73
1070
     1
1070
    44
1040
1.0
1070
    74
1070
     0
1000
MTEXTEND
  0
POINT
  5
7302
330
7272
100
AcDbEntity
  8
Defpoints
 62
     0
100
AcDbPoint
 10
349.1396634184129
 20
1220.917337190436
 30
0.0
  0
POINT
  5
7303
330
7272
100
AcDbEntity
  8
Defpoints
 62
     0
100
AcDbPoint
 10
349.6396634184129
 20
1203.417337190436
 30
0.0
  0
POINT
  5
7304
330
7272
100
AcDbEntity
  8
Defpoints
 62
     0
100
AcDbPoint
 10
357.3696123764615
 20
1203.417337190436
 30
0.0
  0
ENDBLK
  5
727D
330
7272
100
AcDbEntity
  8
0
100
AcDbBlockEnd
  0
BLOCK
  5
7383
330
737E
100
AcDbEntity
  8
0
100
AcDbBlockBegin
  2
*S33
 70
     1
 10
0.0
 20
0.0
 30
0.0
  3
*S33
  1

  0
LINE
  5
737F
330
737E
100
AcDbEntity
  8
AM_5
 62
     5
100
AcDbLine
 10
385.8105271405894
 20
1305.863315874072
 30
0.0
 11
367.5880566562296
 21
1305.863315874072
 31
0.0
  0
LINE
  5
7380
330
737E
100
AcDbEntity
  8
AM_5
 62
     5
100
AcDbLine
 10
367.5880566562296
 20
1305.863315874072
 30
0.0
 11
356.7208492977654
 21
1328.729235998255
 31
0.0
  0
TRACE
  5
7381
330
737E
100
AcDbEntity
  8
AM_5
 62
     5
370
    35
100
AcDbTrace
 10
357.1370232906425
 20
1328.927025942995
 30
0.0
 11
356.3046753048882
 21
1328.531446053515
 31
0.0
 12
355.2184855048464
 22
1331.890391330365
 32
0.0
 13
355.2184855048464
 23
1331.890391330365
 33
0.0
  0
MTEXT
  5
7382
330
737E
100
AcDbEntity
  8
AM_5
 62
     5
100
AcDbMText
 10
385.8105271405894
 20
1300.794560958414
 30
0.0
 40
3.5
 41
0.0
 71
     7
 72
     5
  1

  7
ACISOTS
 73
     1
 44
1.0
1001
ACAD
1000
MTEXTBEGIN
1070
    73
1070
     1
1070
    44
1040
1.0
1070
    74
1070
     0
1000
MTEXTEND
  0
ENDBLK
  5
7384
330
737E
100
AcDbEntity
  8
0
100
AcDbBlockEnd
  0
BLOCK
  5
738B
330
7386
100
AcDbEntity
  8
0
100
AcDbBlockBegin
  2
*S34
 70
     1
 10
0.0
 20
0.0
 30
0.0
  3
*S34
  1

  0
LINE
  5
7387
330
7386
100
AcDbEntity
  8
AM_5
 62
     5
100
AcDbLine
 10
563.7533587084381
 20
1376.249877778371
 30
0.0
 11
547.548141089725
 21
1376.249877778371
 31
0.0
  0
LINE
  5
7388
330
7386
100
AcDbEntity
  8
AM_5
 62
     5
100
AcDbLine
 10
547.548141089725
 20
1376.249877778371
 30
0.0
 11
541.9273419248733
 21
1369.116634797234
 31
0.0
  0
TRACE
  5
7389
330
7386
100
AcDbEntity
  8
AM_5
 62
     5
370
    35
100
AcDbTrace
 10
541.5654166195418
 20
1369.401821977781
 30
0.0
 11
542.2892672302049
 21
1368.831447616687
 31
0.0
 12
539.7611302156729
 22
1366.367539158497
 32
0.0
 13
539.7611302156729
 23
1366.367539158497
 33
0.0
  0
MTEXT
  5
738A
330
7386
100
AcDbEntity
  8
AM_5
 62
     5
100
AcDbMText
 10
563.7533587084381
 20
1381.442802560562
 30
0.0
 40
3.5
 41
0.0
 71
     7
 72
     5
  1

  7
ACISOTS
 73
     1
 44
1.0
1001
ACAD
1000
MTEXTBEGIN
1070
    73
1070
     1
1070
    44
1040
1.0
1070
    74
1070
     0
1000
MTEXTEND
  0
ENDBLK
  5
738C
330
7386
100
AcDbEntity
  8
0
100
AcDbBlockEnd
  0
BLOCK
  5
7393
330
738E
100
AcDbEntity
  8
0
100
AcDbBlockBegin
  2
*S35
 70
     1
 10
0.0
 20
0.0
 30
0.0
  3
*S35
  1

  0
LINE
  5
738F
330
738E
100
AcDbEntity
  8
AM_5
 62
     5
100
AcDbLine
 10
535.6207963410168
 20
1280.035569380371
 30
0.0
 11
513.7313571578008
 21
1280.035569380371
 31
0.0
  0
LINE
  5
7390
330
738E
100
AcDbEntity
  8
AM_5
 62
     5
100
AcDbLine
 10
513.7313571578008
 20
1280.035569380371
 30
0.0
 11
493.7172586863929
 21
1329.91646321224
 31
0.0
  0
TRACE
  5
7391
330
738E
100
AcDbEntity
  8
AM_5
 62
     5
370
    35
100
AcDbTrace
 10
494.1449028791941
 20
1330.088050213353
 30
0.0
 11
493.2896144935916
 21
1329.744876211127
 31
0.0
 12
492.413926011183
 22
1333.164743362986
 32
0.0
 13
492.413926011183
 23
1333.164743362986
 33
0.0
  0
MTEXT
  5
7392
330
738E
100
AcDbEntity
  8
AM_5
 62
     5
100
AcDbMText
 10
535.6207963410168
 20
1275.008784316518
 30
0.0
 40
3.5
 41
0.0
 71
     7
 72
     5
  1

  7
ACISOTS
 73
     1
 44
1.0
1001
ACAD
1000
MTEXTBEGIN
1070
    73
1070
     1
1070
    44
1040
1.0
1070
    74
1070
     0
1000
MTEXTEND
  0
ENDBLK
  5
7394
330
738E
100
AcDbEntity
  8
0
100
AcDbBlockEnd
  0
BLOCK
  5
739B
330
7396
100
AcDbEntity
  8
0
100
AcDbBlockBegin
  2
*S36
 70
     1
 10
0.0
 20
0.0
 30
0.0
  3
*S36
  1

  0
LINE
  5
7397
330
7396
100
AcDbEntity
  8
AM_5
 62
     5
100
AcDbLine
 10
539.024932630093
 20
1386.526867696662
 30
0.0
 11
518.5764062987607
 21
1386.526867696662
 31
0.0
  0
LINE
  5
7398
330
7396
100
AcDbEntity
  8
AM_5
 62
     5
100
AcDbLine
 10
518.5764062987607
 20
1386.526867696662
 30
0.0
 11
499.1654312342818
 21
1352.272965058175
 31
0.0
  0
TRACE
  5
7399
330
7396
100
AcDbEntity
  8
AM_5
 62
     5
370
    35
100
AcDbTrace
 10
498.7645413178398
 20
1352.500141046084
 30
0.0
 11
499.5663211507239
 21
1352.045789070265
 31
0.0
 12
497.4398582821061
 22
1349.227903813024
 32
0.0
 13
497.4398582821061
 23
1349.227903813024
 33
0.0
  0
MTEXT
  5
739A
330
7396
100
AcDbEntity
  8
AM_5
 62
     5
100
AcDbMText
 10
539.024932630093
 20
1392.721719318962
 30
0.0
 40
3.5
 41
0.0
 71
     7
 72
     5
  1

  7
ACISOTS
 73
     1
 44
1.0
1001
ACAD
1000
MTEXTBEGIN
1070
    73
1070
     1
1070
    44
1040
1.0
1070
    74
1070
     0
1000
MTEXTEND
  0
ENDBLK
  5
739C
330
7396
100
AcDbEntity
  8
0
100
AcDbBlockEnd
  0
BLOCK
  5
73A3
330
739E
100
AcDbEntity
  8
0
100
AcDbBlockBegin
  2
*S37
 70
     1
 10
0.0
 20
0.0
 30
0.0
  3
*S37
  1

  0
LINE
  5
739F
330
739E
100
AcDbEntity
  8
AM_5
 62
     5
100
AcDbLine
 10
411.8021019941878
 20
1278.860594168311
 30
0.0
 11
433.3793899904025
 21
1278.860594168311
 31
0.0
  0
LINE
  5
73A0
330
739E
100
AcDbEntity
  8
AM_5
 62
     5
100
AcDbLine
 10
433.3793899904025
 20
1278.860594168311
 30
0.0
 11
443.7710670773525
 21
1324.713507810131
 31
0.0
  0
TRACE
  5
73A1
330
739E
100
AcDbEntity
  8
AM_5
 62
     5
370
    35
100
AcDbTrace
 10
444.2204547110205
 20
1324.611662784264
 30
0.0
 11
443.3216794436845
 21
1324.815352835999
 31
0.0
 12
444.5446568548968
 22
1328.126945792002
 32
0.0
 13
444.5446568548968
 23
1328.126945792002
 33
0.0
  0
MTEXT
  5
73A2
330
739E
100
AcDbEntity
  8
AM_5
 62
     5
100
AcDbMText
 10
411.8021019941878
 20
1284.272201148314
 30
0.0
 40
3.5
 41
0.0
 71
     7
 72
     5
  1

  7
ACISOTS
210
0.0
220
0.0
230
-1.0
 11
-1.0
 21
0.0
 31
0.0
 73
     1
 44
1.0
1001
ACAD
1000
MTEXTBEGIN
1070
    73
1070
     1
1070
    44
1040
1.0
1070
    74
1070
     0
1000
MTEXTEND
  0
ENDBLK
  5
73A4
330
739E
100
AcDbEntity
  8
0
100
AcDbBlockEnd
  0
BLOCK
  5
73AB
330
73A6
100
AcDbEntity
  8
0
100
AcDbBlockBegin
  2
*S38
 70
     1
 10
0.0
 20
0.0
 30
0.0
  3
*S38
  1

  0
LINE
  5
73A7
330
73A6
100
AcDbEntity
  8
AM_5
 62
     5
100
AcDbLine
 10
395.7567088893423
 20
1391.098425148657
 30
0.0
 11
424.4449891993913
 21
1391.098425148657
 31
0.0
  0
LINE
  5
73A8
330
73A6
100
AcDbEntity
  8
AM_5
 62
     5
100
AcDbLine
 10
424.4449891993913
 20
1391.098425148657
 30
0.0
 11
440.5839244740457
 21
1355.450640318728
 31
0.0
  0
TRACE
  5
73A9
330
73A6
100
AcDbEntity
  8
AM_5
 62
     5
370
    35
100
AcDbTrace
 10
440.1641563009952
 20
1355.260597335481
 30
0.0
 11
441.0036926470963
 21
1355.640683301975
 31
0.0
 12
442.0274442520785
 22
1352.262184477662
 32
0.0
 13
442.0274442520785
 23
1352.262184477662
 33
0.0
  0
MTEXT
  5
73AA
330
73A6
100
AcDbEntity
  8
AM_5
 62
     5
100
AcDbMText
 10
395.7567088893423
 20
1388.997297526243
 30
0.0
 40
3.5
 41
0.0
 71
     9
 72
     5
  1

  7
ACISOTS
 73
     1
 44
1.0
1001
ACAD
1000
MTEXTBEGIN
1070
    73
1070
     1
1070
    44
1040
1.0
1070
    74
1070
     0
1000
MTEXTEND
  0
ENDBLK
  5
73AC
330
73A6
100
AcDbEntity
  8
0
100
AcDbBlockEnd
  0
BLOCK
  5
73B3
330
73AE
100
AcDbEntity
  8
0
100
AcDbBlockBegin
  2
*S39
 70
     1
 10
0.0
 20
0.0
 30
0.0
  3
*S39
  1

  0
LINE
  5
73AF
330
73AE
100
AcDbEntity
  8
AM_5
 62
     5
100
AcDbLine
 10
694.982191205304
 20
1228.466694207542
 30
0.0
 11
670.5812055855659
 21
1228.466694207542
 31
0.0
  0
LINE
  5
73B0
330
73AE
100
AcDbEntity
  8
AM_5
 62
     5
100
AcDbLine
 10
670.5812055855659
 20
1228.466694207542
 30
0.0
 11
666.3712808664404
 21
1223.27068958496
 31
0.0
  0
TRACE
  5
73B1
330
73AE
100
AcDbEntity
  8
AM_5
 62
     5
100
AcDbTrace
 10
666.0132615952833
 20
1223.560765189014
 30
0.0
 11
666.7293001375973
 21
1222.980613980905
 31
0.0
 12
664.1679378941088
 22
1220.5512632215
 32
0.0
 13
664.1679378941088
 23
1220.5512632215
 33
0.0
  0
MTEXT
  5
73B2
330
73AE
100
AcDbEntity
  8
AM_5
 62
     5
100
AcDbMText
 10
694.982191205304
 20
1235.210580125741
 30
0.0
 40
3.5
 41
0.0
 71
     9
 72
     5
  1

  7
ACISOTS
210
0.0
220
0.0
230
-1.0
 11
-1.0
 21
0.0
 31
0.0
 73
     1
 44
1.0
1001
ACAD
1000
MTEXTBEGIN
1070
    73
1070
     1
1070
    44
1040
1.0
1070
    74
1070
     0
1000
MTEXTEND
  0
ENDBLK
  5
73B4
330
73AE
100
AcDbEntity
  8
0
100
AcDbBlockEnd
  0
ENDSEC
  0
SECTION
  2
ENTITIES
  0
LINE
  5
5DA7
330
1F
100
AcDbEntity
  8
0
100
AcDbLine
 10
613.3335512381939
 20
1371.867539158497
 30
0.0
 11
613.3335512381939
 21
1352.367539158497
 31
0.0
  0
LINE
  5
5DA8
330
1F
100
AcDbEntity
  8
0
100
AcDbLine
 10
628.3335512381941
 20
1377.367539158497
 30
0.0
 11
639.283551238194
 21
1377.367539158497
 31
0.0
  0
LINE
  5
5DA9
330
1F
100
AcDbEntity
  8
0
100
AcDbLine
 10
622.1335512381941
 20
1372.867539158497
 30
0.0
 11
627.133551238194
 21
1372.867539158497
 31
0.0
  0
LINE
  5
5DAA
330
1F
100
AcDbEntity
  8
0
100
AcDbLine
 10
613.8335512381939
 20
1372.367539158497
 30
0.0
 11
620.8335512381938
 21
1372.367539158497
 31
0.0
  0
LINE
  5
5DAB
330
1F
100
AcDbEntity
  8
0
100
AcDbLine
 10
660.3335512381939
 20
1376.367539158497
 30
0.0
 11
660.333551238194
 21
1348.367539158497
 31
0.0
  0
LINE
  5
5DAC
330
1F
100
AcDbEntity
  8
0
100
AcDbLine
 10
613.3335512381939
 20
1371.867539158497
 30
0.0
 11
613.8335512381939
 21
1372.367539158497
 31
0.0
  0
LINE
  5
5DAD
330
1F
100
AcDbEntity
  8
0
100
AcDbLine
 10
620.8335512381938
 20
1372.367539158497
 30
0.0
 11
621.3335512381938
 21
1371.867539158497
 31
0.0
  0
LINE
  5
5DAE
330
1F
100
AcDbEntity
  8
0
  6
HIDDEN
 62
     3
 48
0.2
100
AcDbLine
 10
616.3335512381938
 20
1360.367539158497
 30
0.0
 11
616.3335512381938
 21
1352.367539158497
 31
0.0
  0
LINE
  5
5DB0
330
1F
100
AcDbEntity
  8
0
  6
HIDDEN
 62
     3
 48
0.2
100
AcDbLine
 10
616.3335512381938
 20
1359.367539158497
 30
0.0
 11
618.1335512381938
 21
1359.367539158497
 31
0.0
  0
LINE
  5
5DB1
330
1F
100
AcDbEntity
  8
0
  6
HIDDEN
 62
     3
 48
0.2
100
AcDbLine
 10
613.3335512381939
 20
1360.367539158497
 30
0.0
 11
616.333551238194
 21
1360.367539158497
 31
0.0
  0
LINE
  5
5DB8
330
1F
100
AcDbEntity
  8
0
100
AcDbLine
 10
650.383551238194
 20
1377.367539158497
 30
0.0
 11
659.3335512381939
 21
1377.367539158497
 31
0.0
  0
LINE
  5
5DBB
330
1F
100
AcDbEntity
  8
0
100
AcDbLine
 10
336.3373698633282
 20
1376.367539158497
 30
0.0
 11
336.3373698633282
 21
1348.367539158497
 31
0.0
  0
LINE
  5
5DBC
330
1F
100
AcDbEntity
  8
0
100
AcDbLine
 10
383.3373698633282
 20
1372.867539158497
 30
0.0
 11
383.3373698633281
 21
1352.367539158497
 31
0.0
  0
LINE
  5
5DBD
330
1F
100
AcDbEntity
  8
0
100
AcDbLine
 10
369.3373698633284
 20
1376.367539158497
 30
0.0
 11
369.3373698633279
 21
1348.367539158497
 31
0.0
  0
LINE
  5
5DBE
330
1F
100
AcDbEntity
  8
0
100
AcDbLine
 10
374.8373698633283
 20
1373.367539158496
 30
0.0
 11
374.8373698633283
 21
1348.367539158497
 31
0.0
  0
LINE
  5
5DBF
330
1F
100
AcDbEntity
  8
0
100
AcDbLine
 10
375.3373698633283
 20
1372.867539158497
 30
0.0
 11
375.3373698633283
 21
1348.367539158497
 31
0.0
  0
LINE
  5
5DC0
330
1F
100
AcDbEntity
  8
0
100
AcDbLine
 10
346.2873698633282
 20
1377.367539158497
 30
0.0
 11
337.3373698633283
 21
1377.367539158497
 31
0.0
  0
LINE
  5
5DC2
330
1F
100
AcDbEntity
  8
0
100
AcDbLine
 10
374.3373698633283
 20
1373.867539158496
 30
0.0
 11
369.8373698633283
 21
1373.867539158497
 31
0.0
  0
LINE
  5
5DC4
330
1F
100
AcDbEntity
  8
0
100
AcDbLine
 10
368.3373698633284
 20
1377.367539158497
 30
0.0
 11
357.3873698633282
 21
1377.367539158497
 31
0.0
  0
LINE
  5
5DC5
330
1F
100
AcDbEntity
  8
0
100
AcDbLine
 10
369.8373698633283
 20
1373.867539158497
 30
0.0
 11
369.3373698633283
 21
1373.367539158497
 31
0.0
  0
LINE
  5
5DC6
330
1F
100
AcDbEntity
  8
0
100
AcDbLine
 10
382.8373698633282
 20
1373.367539158496
 30
0.0
 11
375.8373698633282
 21
1373.367539158497
 31
0.0
  0
LINE
  5
5DC7
330
1F
100
AcDbEntity
  8
0
100
AcDbLine
 10
374.3373698633283
 20
1373.867539158496
 30
0.0
 11
374.8373698633283
 21
1373.367539158496
 31
0.0
  0
LINE
  5
5DC8
330
1F
100
AcDbEntity
  8
0
100
AcDbLine
 10
375.8373698633282
 20
1373.367539158497
 30
0.0
 11
375.3373698633283
 21
1372.867539158497
 31
0.0
  0
LINE
  5
5DC9
330
1F
100
AcDbEntity
  8
0
100
AcDbLine
 10
383.3373698633282
 20
1372.867539158497
 30
0.0
 11
382.8373698633282
 21
1373.367539158496
 31
0.0
  0
LINE
  5
5DCA
330
1F
100
AcDbEntity
  8
0
  6
HIDDEN
 62
     3
 48
0.2
100
AcDbLine
 10
616.3335512381938
 20
1359.367539158497
 30
0.0
 11
616.3335512381938
 21
1352.367539158497
 31
0.0
  0
LINE
  5
5DD1
330
1F
100
AcDbEntity
  8
0
100
AcDbLine
 10
336.3373698633282
 20
1348.367539158497
 30
0.0
 11
336.3373698633281
 21
1320.367539158497
 31
0.0
  0
LINE
  5
5DD2
330
1F
100
AcDbEntity
  8
0
100
AcDbLine
 10
374.8373698633283
 20
1348.367539158497
 30
0.0
 11
374.8373698633282
 21
1323.367539158497
 31
0.0
  0
LINE
  5
5DD3
330
1F
100
AcDbEntity
  8
0
100
AcDbLine
 10
375.3373698633283
 20
1348.367539158497
 30
0.0
 11
375.3373698633283
 21
1323.867539158497
 31
0.0
  0
LINE
  5
5DD4
330
1F
100
AcDbEntity
  8
0
100
AcDbLine
 10
369.3373698633278
 20
1348.367539158497
 30
0.0
 11
369.3373698633275
 21
1320.367539158497
 31
0.0
  0
ARC
  5
5DD6
330
1F
100
AcDbEntity
  8
0
100
AcDbCircle
 10
365.3373698633283
 20
1324.367539158497
 30
0.0
 40
4.0
100
AcDbArc
 50
90.0
 51
180.0
  0
LINE
  5
5DD8
330
1F
100
AcDbEntity
  8
0
100
AcDbLine
 10
368.3373698633274
 20
1319.367539158497
 30
0.0
 11
357.3873698633282
 21
1319.367539158497
 31
0.0
  0
LINE
  5
5DD9
330
1F
100
AcDbEntity
  8
0
100
AcDbLine
 10
346.2873698633282
 20
1319.367539158497
 30
0.0
 11
337.3373698633281
 21
1319.367539158497
 31
0.0
  0
LINE
  5
5DDC
330
1F
100
AcDbEntity
  8
0
100
AcDbLine
 10
361.3373698633283
 20
1324.367539158497
 30
0.0
 11
361.3373698633283
 21
1319.617539158497
 31
0.0
  0
LINE
  5
5DDF
330
1F
100
AcDbEntity
  8
0
100
AcDbLine
 10
374.3373698633281
 20
1322.867539158497
 30
0.0
 11
369.8373698633282
 21
1322.867539158497
 31
0.0
  0
LINE
  5
5DE0
330
1F
100
AcDbEntity
  8
0
100
AcDbLine
 10
369.8373698633283
 20
1322.867539158497
 30
0.0
 11
369.3373698633283
 21
1323.367539158497
 31
0.0
  0
LINE
  5
5DE1
330
1F
100
AcDbEntity
  8
0
100
AcDbLine
 10
369.8373698633282
 20
1322.867539158497
 30
0.0
 11
369.3373698633282
 21
1323.367539158497
 31
0.0
  0
LINE
  5
5DE2
330
1F
100
AcDbEntity
  8
0
100
AcDbLine
 10
374.8373698633282
 20
1323.367539158497
 30
0.0
 11
374.3373698633282
 21
1322.867539158497
 31
0.0
  0
LINE
  5
5DE3
330
1F
100
AcDbEntity
  8
0
100
AcDbLine
 10
375.8373698633283
 20
1323.367539158497
 30
0.0
 11
375.3373698633283
 21
1323.867539158497
 31
0.0
  0
LINE
  5
5DE4
330
1F
100
AcDbEntity
  8
0
100
AcDbLine
 10
365.3373698633283
 20
1328.367539158497
 30
0.0
 11
369.0873698633275
 21
1328.367539158497
 31
0.0
  0
LINE
  5
5DE6
330
1F
100
AcDbEntity
  8
0
100
AcDbLine
 10
382.8373698633281
 20
1323.367539158497
 30
0.0
 11
375.8373698633283
 21
1323.367539158497
 31
0.0
  0
LINE
  5
5DE7
330
1F
100
AcDbEntity
  8
0
100
AcDbLine
 10
382.8373698633281
 20
1323.367539158497
 30
0.0
 11
383.3373698633281
 21
1323.867539158497
 31
0.0
  0
LINE
  5
5DE8
330
1F
100
AcDbEntity
  8
0
100
AcDbLine
 10
340.3373698633282
 20
1344.367539158497
 30
0.0
 11
336.5873698633282
 21
1344.367539158497
 31
0.0
  0
LINE
  5
5DE9
330
1F
100
AcDbEntity
  8
0
100
AcDbLine
 10
340.3373698633282
 20
1336.367539158497
 30
0.0
 11
336.5873698633282
 21
1336.367539158497
 31
0.0
  0
ARC
  5
5DEA
330
1F
100
AcDbEntity
  8
0
100
AcDbCircle
 10
340.3373698633282
 20
1340.367539158497
 30
0.0
 40
4.0
100
AcDbArc
 50
270.0
 51
90.0
  0
POLYLINE
  5
5DEB
330
1F
100
AcDbEntity
  8
0
100
AcDb2dPolyline
 66
     1
 10
0.0
 20
0.0
 30
0.0
 70
     1
  0
VERTEX
  5
5DEC
330
5DEB
100
AcDbEntity
  8
0
100
AcDbVertex
100
AcDb2dVertex
 10
339.4713444595437
 20
1341.867539158497
 30
0.0
  0
VERTEX
  5
5DED
330
5DEB
100
AcDbEntity
  8
0
100
AcDbVertex
100
AcDb2dVertex
 10
338.6053190557593
 20
1340.367539158497
 30
0.0
  0
VERTEX
  5
5DEE
330
5DEB
100
AcDbEntity
  8
0
100
AcDbVertex
100
AcDb2dVertex
 10
339.4713444595437
 20
1338.867539158497
 30
0.0
  0
VERTEX
  5
5DEF
330
5DEB
100
AcDbEntity
  8
0
100
AcDbVertex
100
AcDb2dVertex
 10
341.2033952671126
 20
1338.867539158497
 30
0.0
  0
VERTEX
  5
5DF0
330
5DEB
100
AcDbEntity
  8
0
100
AcDbVertex
100
AcDb2dVertex
 10
342.069420670897
 20
1340.367539158497
 30
0.0
  0
VERTEX
  5
5DF1
330
5DEB
100
AcDbEntity
  8
0
100
AcDbVertex
100
AcDb2dVertex
 10
341.2033952671126
 20
1341.867539158497
 30
0.0
  0
SEQEND
  5
5DF2
330
5DEB
100
AcDbEntity
  8
0
  0
CIRCLE
  5
5DF3
330
1F
100
AcDbEntity
  8
0
100
AcDbCircle
 10
340.3373698633282
 20
1340.367539158497
 30
0.0
 40
3.6
  0
POLYLINE
  5
5DF4
330
1F
100
AcDbEntity
  8
0
100
AcDb2dPolyline
 66
     1
 10
0.0
 20
0.0
 30
0.0
 70
     1
  0
VERTEX
  5
5DF5
330
5DF4
100
AcDbEntity
  8
0
100
AcDbVertex
100
AcDb2dVertex
 10
364.4713444595439
 20
1325.867539158497
 30
0.0
  0
VERTEX
  5
5DF6
330
5DF4
100
AcDbEntity
  8
0
100
AcDbVertex
100
AcDb2dVertex
 10
363.6053190557595
 20
1324.367539158497
 30
0.0
  0
VERTEX
  5
5DF7
330
5DF4
100
AcDbEntity
  8
0
100
AcDbVertex
100
AcDb2dVertex
 10
364.4713444595439
 20
1322.867539158497
 30
0.0
  0
VERTEX
  5
5DF8
330
5DF4
100
AcDbEntity
  8
0
100
AcDbVertex
100
AcDb2dVertex
 10
366.2033952671128
 20
1322.867539158497
 30
0.0
  0
VERTEX
  5
5DF9
330
5DF4
100
AcDbEntity
  8
0
100
AcDbVertex
100
AcDb2dVertex
 10
367.0694206708972
 20
1324.367539158497
 30
0.0
  0
VERTEX
  5
5DFA
330
5DF4
100
AcDbEntity
  8
0
100
AcDbVertex
100
AcDb2dVertex
 10
366.2033952671128
 20
1325.867539158497
 30
0.0
  0
SEQEND
  5
5DFB
330
5DF4
100
AcDbEntity
  8
0
  0
CIRCLE
  5
5DFC
330
1F
100
AcDbEntity
  8
0
100
AcDbCircle
 10
365.3373698633283
 20
1324.367539158497
 30
0.0
 40
3.6
  0
LINE
  5
5E04
330
1F
100
AcDbEntity
  8
0
100
AcDbLine
 10
613.3335512381939
 20
1352.367539158497
 30
0.0
 11
616.6335512381938
 21
1352.367539158497
 31
0.0
  0
LINE
  5
5E05
330
1F
100
AcDbEntity
  8
0
100
AcDbLine
 10
380.0373698633281
 20
1352.367539158497
 30
0.0
 11
383.3373698633281
 21
1352.367539158497
 31
0.0
  0
LINE
  5
5E06
330
1F
100
AcDbEntity
  8
0
100
AcDbLine
 10
380.0373698633281
 20
1344.367539158497
 30
0.0
 11
383.3373698633282
 21
1344.367539158497
 31
0.0
  0
LINE
  5
5E07
330
1F
100
AcDbEntity
  8
0
100
AcDbLine
 10
380.0373698633281
 20
1352.367539158497
 30
0.0
 11
380.0373698633282
 21
1348.367539158497
 31
0.0
  0
LINE
  5
5E08
330
1F
100
AcDbEntity
  8
0
100
AcDbLine
 10
380.0373698633282
 20
1348.367539158497
 30
0.0
 11
380.0373698633281
 21
1344.367539158497
 31
0.0
  0
LINE
  5
5E09
330
1F
100
AcDbEntity
  8
0
100
AcDbLine
 10
383.3373698633282
 20
1344.367539158497
 30
0.0
 11
383.3373698633281
 21
1323.867539158497
 31
0.0
  0
LINE
  5
5E0B
330
1F
100
AcDbEntity
  8
0
100
AcDbLine
 10
616.6335512381938
 20
1352.367539158497
 30
0.0
 11
616.633551238194
 21
1348.367539158497
 31
0.0
  0
LINE
  5
5E0E
330
1F
100
AcDbEntity
  8
0
100
AcDbLine
 10
622.1335512381941
 20
1372.867539158497
 30
0.0
 11
621.833551238194
 21
1372.567539158497
 31
0.0
  0
LINE
  5
5E0F
330
1F
100
AcDbEntity
  8
0
100
AcDbLine
 10
627.133551238194
 20
1372.867539158497
 30
0.0
 11
627.333551238194
 21
1372.667539158497
 31
0.0
  0
LINE
  5
5E13
330
1F
100
AcDbEntity
  8
0
100
AcDbLine
 10
349.3873698633282
 20
1377.367539158497
 30
0.0
 11
354.2873698633282
 21
1377.367539158497
 31
0.0
  0
LINE
  5
5E14
330
1F
100
AcDbEntity
  8
0
100
AcDbLine
 10
346.4873698633283
 20
1377.167539158497
 30
0.0
 11
346.4873698633282
 21
1376.417539158497
 31
0.0
  0
LINE
  5
5E15
330
1F
100
AcDbEntity
  8
0
100
AcDbLine
 10
349.1873698633282
 20
1377.167539158497
 30
0.0
 11
349.1873698633282
 21
1376.417539158497
 31
0.0
  0
LINE
  5
5E16
330
1F
100
AcDbEntity
  8
0
100
AcDbLine
 10
349.9873698633281
 20
1371.917539158497
 30
0.0
 11
345.6873698633282
 21
1371.917539158497
 31
0.0
  0
LINE
  5
5E17
330
1F
100
AcDbEntity
  8
0
100
AcDbLine
 10
345.6873698633282
 20
1376.217539158497
 30
0.0
 11
345.6873698633282
 21
1371.917539158497
 31
0.0
  0
LINE
  5
5E18
330
1F
100
AcDbEntity
  8
0
100
AcDbLine
 10
346.2873698633282
 20
1376.217539158497
 30
0.0
 11
345.6873698633282
 21
1376.217539158497
 31
0.0
  0
LINE
  5
5E19
330
1F
100
AcDbEntity
  8
0
100
AcDbLine
 10
349.9873698633281
 20
1376.217539158497
 30
0.0
 11
349.9873698633281
 21
1371.917539158497
 31
0.0
  0
LINE
  5
5E1A
330
1F
100
AcDbEntity
  8
0
100
AcDbLine
 10
349.9873698633281
 20
1376.217539158497
 30
0.0
 11
349.3873698633282
 21
1376.217539158497
 31
0.0
  0
ARC
  5
5E1B
330
1F
100
AcDbEntity
  8
0
100
AcDbCircle
 10
346.2873698633282
 20
1376.417539158497
 30
0.0
 40
0.2
100
AcDbArc
 50
270.0
 51
0.0
  0
ARC
  5
5E1C
330
1F
100
AcDbEntity
  8
0
100
AcDbCircle
 10
346.2873698633282
 20
1377.167539158497
 30
0.0
 40
0.2
100
AcDbArc
 50
0.0
 51
90.0
  0
ARC
  5
5E1D
330
1F
100
AcDbEntity
  8
0
100
AcDbCircle
 10
349.3873698633282
 20
1377.167539158497
 30
0.0
 40
0.2
100
AcDbArc
 50
90.0
 51
180.0
  0
ARC
  5
5E1E
330
1F
100
AcDbEntity
  8
0
100
AcDbCircle
 10
349.3873698633282
 20
1376.417539158497
 30
0.0
 40
0.2
100
AcDbArc
 50
180.0
 51
270.0
  0
LINE
  5
5E1F
330
1F
100
AcDbEntity
  8
0
100
AcDbLine
 10
357.1873698633282
 20
1377.167539158497
 30
0.0
 11
357.1873698633282
 21
1376.417539158497
 31
0.0
  0
LINE
  5
5E20
330
1F
100
AcDbEntity
  8
0
100
AcDbLine
 10
354.4873698633282
 20
1377.167539158497
 30
0.0
 11
354.4873698633282
 21
1376.417539158497
 31
0.0
  0
LINE
  5
5E21
330
1F
100
AcDbEntity
  8
0
100
AcDbLine
 10
357.9873698633281
 20
1376.217539158497
 30
0.0
 11
357.3873698633282
 21
1376.217539158497
 31
0.0
  0
LINE
  5
5E22
330
1F
100
AcDbEntity
  8
0
100
AcDbLine
 10
357.9873698633281
 20
1371.917539158497
 30
0.0
 11
353.6873698633282
 21
1371.917539158497
 31
0.0
  0
ARC
  5
5E23
330
1F
100
AcDbEntity
  8
0
100
AcDbCircle
 10
357.3873698633282
 20
1376.417539158497
 30
0.0
 40
0.2
100
AcDbArc
 50
180.0
 51
270.0
  0
ARC
  5
5E24
330
1F
100
AcDbEntity
  8
0
100
AcDbCircle
 10
354.2873698633282
 20
1376.417539158497
 30
0.0
 40
0.2
100
AcDbArc
 50
270.0
 51
0.0
  0
LINE
  5
5E25
330
1F
100
AcDbEntity
  8
0
100
AcDbLine
 10
354.2873698633282
 20
1376.217539158497
 30
0.0
 11
353.6873698633282
 21
1376.217539158497
 31
0.0
  0
LINE
  5
5E26
330
1F
100
AcDbEntity
  8
0
100
AcDbLine
 10
353.6873698633282
 20
1376.217539158497
 30
0.0
 11
353.6873698633282
 21
1371.917539158497
 31
0.0
  0
LINE
  5
5E27
330
1F
100
AcDbEntity
  8
0
100
AcDbLine
 10
357.9873698633281
 20
1376.217539158497
 30
0.0
 11
357.9873698633281
 21
1371.917539158497
 31
0.0
  0
ARC
  5
5E28
330
1F
100
AcDbEntity
  8
0
100
AcDbCircle
 10
357.3873698633282
 20
1377.167539158497
 30
0.0
 40
0.2
100
AcDbArc
 50
90.0
 51
180.0
  0
ARC
  5
5E29
330
1F
100
AcDbEntity
  8
0
100
AcDbCircle
 10
354.2873698633282
 20
1377.167539158497
 30
0.0
 40
0.2
100
AcDbArc
 50
0.0
 51
90.0
  0
LINE
  5
5E2A
330
1F
100
AcDbEntity
  8
0
100
AcDbLine
 10
357.9873698633281
 20
1324.817539158497
 30
0.0
 11
353.6873698633282
 21
1324.817539158497
 31
0.0
  0
LINE
  5
5E2B
330
1F
100
AcDbEntity
  8
0
100
AcDbLine
 10
349.9873698633282
 20
1320.517539158497
 30
0.0
 11
349.9873698633282
 21
1324.817539158497
 31
0.0
  0
LINE
  5
5E2C
330
1F
100
AcDbEntity
  8
0
100
AcDbLine
 10
353.6873698633282
 20
1320.517539158497
 30
0.0
 11
353.6873698633282
 21
1324.817539158497
 31
0.0
  0
LINE
  5
5E2D
330
1F
100
AcDbEntity
  8
0
100
AcDbLine
 10
345.6873698633282
 20
1320.517539158497
 30
0.0
 11
345.6873698633282
 21
1324.817539158497
 31
0.0
  0
LINE
  5
5E2E
330
1F
100
AcDbEntity
  8
0
100
AcDbLine
 10
349.3873698633282
 20
1319.367539158497
 30
0.0
 11
354.2873698633282
 21
1319.367539158497
 31
0.0
  0
LINE
  5
5E2F
330
1F
100
AcDbEntity
  8
0
100
AcDbLine
 10
349.9873698633281
 20
1320.517539158497
 30
0.0
 11
349.3873698633282
 21
1320.517539158497
 31
0.0
  0
ARC
  5
5E30
330
1F
100
AcDbEntity
  8
0
100
AcDbCircle
 10
346.2873698633282
 20
1319.567539158497
 30
0.0
 40
0.2
100
AcDbArc
 50
270.0
 51
0.0
  0
ARC
  5
5E31
330
1F
100
AcDbEntity
  8
0
100
AcDbCircle
 10
349.3873698633282
 20
1319.567539158497
 30
0.0
 40
0.2
100
AcDbArc
 50
180.0
 51
270.0
  0
LINE
  5
5E32
330
1F
100
AcDbEntity
  8
0
100
AcDbLine
 10
346.2873698633282
 20
1320.517539158497
 30
0.0
 11
345.6873698633282
 21
1320.517539158497
 31
0.0
  0
ARC
  5
5E33
330
1F
100
AcDbEntity
  8
0
100
AcDbCircle
 10
346.2873698633282
 20
1320.317539158497
 30
0.0
 40
0.2
100
AcDbArc
 50
0.0
 51
89.99999999999674
  0
ARC
  5
5E34
330
1F
100
AcDbEntity
  8
0
100
AcDbCircle
 10
349.3873698633282
 20
1320.317539158497
 30
0.0
 40
0.2
100
AcDbArc
 50
90.0
 51
180.0
  0
LINE
  5
5E35
330
1F
100
AcDbEntity
  8
0
100
AcDbLine
 10
346.4873698633282
 20
1319.567539158497
 30
0.0
 11
346.4873698633282
 21
1320.317539158497
 31
0.0
  0
LINE
  5
5E36
330
1F
100
AcDbEntity
  8
0
100
AcDbLine
 10
349.1873698633282
 20
1319.567539158497
 30
0.0
 11
349.1873698633282
 21
1320.317539158497
 31
0.0
  0
ARC
  5
5E37
330
1F
100
AcDbEntity
  8
0
100
AcDbCircle
 10
354.2873698633282
 20
1319.567539158497
 30
0.0
 40
0.2
100
AcDbArc
 50
270.0
 51
0.0
  0
ARC
  5
5E38
330
1F
100
AcDbEntity
  8
0
100
AcDbCircle
 10
354.2873698633282
 20
1320.317539158497
 30
0.0
 40
0.2
100
AcDbArc
 50
0.0
 51
89.99999999999674
  0
LINE
  5
5E39
330
1F
100
AcDbEntity
  8
0
100
AcDbLine
 10
354.2873698633282
 20
1320.517539158497
 30
0.0
 11
353.6873698633282
 21
1320.517539158497
 31
0.0
  0
LINE
  5
5E3A
330
1F
100
AcDbEntity
  8
0
100
AcDbLine
 10
354.4873698633282
 20
1319.567539158497
 30
0.0
 11
354.4873698633282
 21
1320.317539158497
 31
0.0
  0
LINE
  5
5E3B
330
1F
100
AcDbEntity
  8
0
100
AcDbLine
 10
349.9873698633281
 20
1324.817539158497
 30
0.0
 11
345.6873698633282
 21
1324.817539158497
 31
0.0
  0
LINE
  5
5E3C
330
1F
100
AcDbEntity
  8
0
100
AcDbLine
 10
357.9873698633282
 20
1320.517539158497
 30
0.0
 11
357.9873698633282
 21
1324.817539158497
 31
0.0
  0
ARC
  5
5E3D
330
1F
100
AcDbEntity
  8
0
100
AcDbCircle
 10
357.3873698633282
 20
1319.567539158497
 30
0.0
 40
0.2
100
AcDbArc
 50
180.0
 51
270.0
  0
LINE
  5
5E3E
330
1F
100
AcDbEntity
  8
0
100
AcDbLine
 10
357.9873698633281
 20
1320.517539158497
 30
0.0
 11
357.3873698633282
 21
1320.517539158497
 31
0.0
  0
ARC
  5
5E3F
330
1F
100
AcDbEntity
  8
0
100
AcDbCircle
 10
357.3873698633282
 20
1320.317539158497
 30
0.0
 40
0.2
100
AcDbArc
 50
90.0
 51
180.0
  0
LINE
  5
5E40
330
1F
100
AcDbEntity
  8
0
100
AcDbLine
 10
357.1873698633282
 20
1319.567539158497
 30
0.0
 11
357.1873698633282
 21
1320.317539158497
 31
0.0
  0
LINE
  5
5E41
330
1F
100
AcDbEntity
  8
0
100
AcDbLine
 10
647.483551238194
 20
1377.167539158497
 30
0.0
 11
647.483551238194
 21
1376.417539158497
 31
0.0
  0
LINE
  5
5E42
330
1F
100
AcDbEntity
  8
0
100
AcDbLine
 10
650.183551238194
 20
1377.167539158497
 30
0.0
 11
650.183551238194
 21
1376.417539158497
 31
0.0
  0
LINE
  5
5E43
330
1F
100
AcDbEntity
  8
0
100
AcDbLine
 10
642.183551238194
 20
1377.167539158497
 30
0.0
 11
642.183551238194
 21
1376.417539158497
 31
0.0
  0
LINE
  5
5E44
330
1F
100
AcDbEntity
  8
0
100
AcDbLine
 10
639.483551238194
 20
1377.167539158497
 30
0.0
 11
639.483551238194
 21
1376.417539158497
 31
0.0
  0
LINE
  5
5E45
330
1F
100
AcDbEntity
  8
0
100
AcDbLine
 10
650.983551238194
 20
1371.917539158497
 30
0.0
 11
646.683551238194
 21
1371.917539158497
 31
0.0
  0
LINE
  5
5E46
330
1F
100
AcDbEntity
  8
0
100
AcDbLine
 10
642.983551238194
 20
1376.217539158497
 30
0.0
 11
642.383551238194
 21
1376.217539158497
 31
0.0
  0
LINE
  5
5E47
330
1F
100
AcDbEntity
  8
0
100
AcDbLine
 10
642.983551238194
 20
1371.917539158497
 30
0.0
 11
638.683551238194
 21
1371.917539158497
 31
0.0
  0
ARC
  5
5E48
330
1F
100
AcDbEntity
  8
0
100
AcDbCircle
 10
642.383551238194
 20
1376.417539158497
 30
0.0
 40
0.2
100
AcDbArc
 50
180.0
 51
270.0
  0
ARC
  5
5E49
330
1F
100
AcDbEntity
  8
0
100
AcDbCircle
 10
639.283551238194
 20
1376.417539158497
 30
0.0
 40
0.2
100
AcDbArc
 50
270.0
 51
0.0
  0
LINE
  5
5E4A
330
1F
100
AcDbEntity
  8
0
100
AcDbLine
 10
639.283551238194
 20
1376.217539158497
 30
0.0
 11
638.683551238194
 21
1376.217539158497
 31
0.0
  0
LINE
  5
5E4B
330
1F
100
AcDbEntity
  8
0
100
AcDbLine
 10
638.683551238194
 20
1376.217539158497
 30
0.0
 11
638.683551238194
 21
1371.917539158497
 31
0.0
  0
LINE
  5
5E4C
330
1F
100
AcDbEntity
  8
0
100
AcDbLine
 10
646.683551238194
 20
1376.217539158497
 30
0.0
 11
646.683551238194
 21
1371.917539158497
 31
0.0
  0
LINE
  5
5E4D
330
1F
100
AcDbEntity
  8
0
100
AcDbLine
 10
647.283551238194
 20
1376.217539158497
 30
0.0
 11
646.683551238194
 21
1376.217539158497
 31
0.0
  0
ARC
  5
5E4E
330
1F
100
AcDbEntity
  8
0
100
AcDbCircle
 10
647.283551238194
 20
1376.417539158497
 30
0.0
 40
0.2
100
AcDbArc
 50
270.0
 51
0.0
  0
LINE
  5
5E4F
330
1F
100
AcDbEntity
  8
0
100
AcDbLine
 10
642.983551238194
 20
1376.217539158497
 30
0.0
 11
642.983551238194
 21
1371.917539158497
 31
0.0
  0
LINE
  5
5E50
330
1F
100
AcDbEntity
  8
0
100
AcDbLine
 10
650.983551238194
 20
1376.217539158497
 30
0.0
 11
650.983551238194
 21
1371.917539158497
 31
0.0
  0
ARC
  5
5E51
330
1F
100
AcDbEntity
  8
0
100
AcDbCircle
 10
650.383551238194
 20
1376.417539158497
 30
0.0
 40
0.2
100
AcDbArc
 50
180.0
 51
270.0
  0
LINE
  5
5E52
330
1F
100
AcDbEntity
  8
0
100
AcDbLine
 10
650.983551238194
 20
1376.217539158497
 30
0.0
 11
650.383551238194
 21
1376.217539158497
 31
0.0
  0
LINE
  5
5E53
330
1F
100
AcDbEntity
  8
0
100
AcDbLine
 10
642.383551238194
 20
1377.367539158497
 30
0.0
 11
647.283551238194
 21
1377.367539158497
 31
0.0
  0
ARC
  5
5E54
330
1F
100
AcDbEntity
  8
0
100
AcDbCircle
 10
642.383551238194
 20
1377.167539158497
 30
0.0
 40
0.2
100
AcDbArc
 50
90.0
 51
180.0
  0
ARC
  5
5E55
330
1F
100
AcDbEntity
  8
0
100
AcDbCircle
 10
639.283551238194
 20
1377.167539158497
 30
0.0
 40
0.2
100
AcDbArc
 50
0.0
 51
90.0
  0
ARC
  5
5E56
330
1F
100
AcDbEntity
  8
0
100
AcDbCircle
 10
647.283551238194
 20
1377.167539158497
 30
0.0
 40
0.2
100
AcDbArc
 50
0.0
 51
90.0
  0
ARC
  5
5E57
330
1F
100
AcDbEntity
  8
0
100
AcDbCircle
 10
650.383551238194
 20
1377.167539158497
 30
0.0
 40
0.2
100
AcDbArc
 50
90.0
 51
180.0
  0
POLYLINE
  5
5E58
330
1F
100
AcDbEntity
  8
0
100
AcDb2dPolyline
 66
     1
 10
0.0
 20
0.0
 30
0.0
 70
     1
  0
VERTEX
  5
5E59
330
5E58
100
AcDbEntity
  8
0
100
AcDbVertex
100
AcDb2dVertex
 10
636.3335512381937
 20
1340.275016446609
 30
0.0
  0
VERTEX
  5
5E5A
330
5E58
100
AcDbEntity
  8
0
100
AcDbVertex
100
AcDb2dVertex
 10
644.8335512381937
 20
1345.182493734721
 30
0.0
  0
VERTEX
  5
5E5B
330
5E58
100
AcDbEntity
  8
0
100
AcDbVertex
100
AcDb2dVertex
 10
653.3335512381937
 20
1340.275016446609
 30
0.0
  0
VERTEX
  5
5E5C
330
5E58
100
AcDbEntity
  8
0
100
AcDbVertex
100
AcDb2dVertex
 10
653.3335512381937
 20
1330.460061870385
 30
0.0
  0
VERTEX
  5
5E5D
330
5E58
100
AcDbEntity
  8
0
100
AcDbVertex
100
AcDb2dVertex
 10
644.8335512381937
 20
1325.552584582273
 30
0.0
  0
VERTEX
  5
5E5E
330
5E58
100
AcDbEntity
  8
0
100
AcDbVertex
100
AcDb2dVertex
 10
636.3335512381937
 20
1330.460061870385
 30
0.0
  0
SEQEND
  5
5E5F
330
5E58
100
AcDbEntity
  8
0
  0
LINE
  5
5E60
330
1F
100
AcDbEntity
  8
0
100
AcDbLine
 10
660.3335512381938
 20
1320.367539158497
 30
0.0
 11
660.3335512381938
 21
1348.367539158497
 31
0.0
  0
LINE
  5
5E65
330
1F
100
AcDbEntity
  8
0
100
AcDbLine
 10
627.3335512381935
 20
1320.367539158497
 30
0.0
 11
627.3335512381946
 21
1376.367539158497
 31
0.0
  0
ARC
  5
5E66
330
1F
100
AcDbEntity
  8
0
100
AcDbCircle
 10
656.3335512381938
 20
1340.367539158497
 30
0.0
 40
4.0
100
AcDbArc
 50
90.0
 51
173.2679545371543
  0
POLYLINE
  5
5E67
330
1F
100
AcDbEntity
  8
0
100
AcDb2dPolyline
 66
     1
 10
0.0
 20
0.0
 30
0.0
 70
     1
  0
VERTEX
  5
5E68
330
5E67
100
AcDbEntity
  8
0
100
AcDbVertex
100
AcDb2dVertex
 10
655.4675258344093
 20
1338.867539158497
 30
0.0
  0
VERTEX
  5
5E69
330
5E67
100
AcDbEntity
  8
0
100
AcDbVertex
100
AcDb2dVertex
 10
654.6015004306249
 20
1340.367539158497
 30
0.0
  0
VERTEX
  5
5E6A
330
5E67
100
AcDbEntity
  8
0
100
AcDbVertex
100
AcDb2dVertex
 10
655.4675258344093
 20
1341.867539158497
 30
0.0
  0
VERTEX
  5
5E6B
330
5E67
100
AcDbEntity
  8
0
100
AcDbVertex
100
AcDb2dVertex
 10
657.1995766419783
 20
1341.867539158497
 30
0.0
  0
VERTEX
  5
5E6C
330
5E67
100
AcDbEntity
  8
0
100
AcDbVertex
100
AcDb2dVertex
 10
658.0656020457626
 20
1340.367539158497
 30
0.0
  0
VERTEX
  5
5E6D
330
5E67
100
AcDbEntity
  8
0
100
AcDbVertex
100
AcDb2dVertex
 10
657.1995766419783
 20
1338.867539158497
 30
0.0
  0
SEQEND
  5
5E6E
330
5E67
100
AcDbEntity
  8
0
  0
LINE
  5
5E6F
330
1F
100
AcDbEntity
  8
0
100
AcDbLine
 10
656.3335512381938
 20
1336.367539158497
 30
0.0
 11
660.0835512381937
 21
1336.367539158497
 31
0.0
  0
LINE
  5
5E70
330
1F
100
AcDbEntity
  8
0
100
AcDbLine
 10
656.3335512381938
 20
1344.367539158497
 30
0.0
 11
660.0835512381937
 21
1344.367539158497
 31
0.0
  0
ARC
  5
5E73
330
1F
100
AcDbEntity
  8
0
100
AcDbCircle
 10
656.3335512381938
 20
1340.367539158497
 30
0.0
 40
3.6
100
AcDbArc
 50
213.5573097619112
 51
176.0352592055773
  0
LINE
  5
5E75
330
1F
100
AcDbEntity
  8
0
100
AcDbLine
 10
650.3835512381937
 20
1319.367539158497
 30
0.0
 11
659.3335512381937
 21
1319.367539158497
 31
0.0
  0
ARC
  5
5E76
330
1F
100
AcDbEntity
  8
0
100
AcDbCircle
 10
642.3835512381937
 20
1320.317539158497
 30
0.0
 40
0.2
100
AcDbArc
 50
90.0
 51
180.0
  0
LINE
  5
5E7A
330
1F
100
AcDbEntity
  8
0
100
AcDbLine
 10
635.3335512381935
 20
1324.367539158497
 30
0.0
 11
635.3335512381935
 21
1319.617539158497
 31
0.0
  0
ARC
  5
5E7B
330
1F
100
AcDbEntity
  8
0
100
AcDbCircle
 10
639.2835512381936
 20
1320.317539158497
 30
0.0
 40
0.2
100
AcDbArc
 50
0.0
 51
89.99999999999674
  0
ARC
  5
5E7D
330
1F
100
AcDbEntity
  8
0
100
AcDbCircle
 10
647.2835512381936
 20
1320.317539158497
 30
0.0
 40
0.2
100
AcDbArc
 50
0.0
 51
89.99999999999674
  0
ARC
  5
5E7E
330
1F
100
AcDbEntity
  8
0
100
AcDbCircle
 10
650.3835512381937
 20
1320.317539158497
 30
0.0
 40
0.2
100
AcDbArc
 50
90.0
 51
180.0
  0
CIRCLE
  5
5E80
330
1F
100
AcDbEntity
  8
0
100
AcDbCircle
 10
644.8335512381937
 20
1335.367539158497
 30
0.0
 40
8.25
  0
LINE
  5
5E81
330
1F
100
AcDbEntity
  8
0
100
AcDbLine
 10
631.3335512381935
 20
1328.367539158497
 30
0.0
 11
627.5835512381936
 21
1328.367539158497
 31
0.0
  0
ARC
  5
5E83
330
1F
100
AcDbEntity
  8
0
100
AcDbCircle
 10
631.3335512381935
 20
1324.367539158497
 30
0.0
 40
4.0
100
AcDbArc
 50
0.0
 51
89.99999999999674
  0
ARC
  5
5E84
330
1F
100
AcDbEntity
  8
AM_4
100
AcDbCircle
 10
644.8335512381937
 20
1335.367539158497
 30
0.0
 40
5.0
100
AcDbArc
 50
270.0
 51
180.0
  0
ARC
  5
5E8B
330
1F
100
AcDbEntity
  8
0
100
AcDbCircle
 10
656.3335512381938
 20
1340.367539158497
 30
0.0
 40
4.0
100
AcDbArc
 50
221.4096221092676
 51
270.0
  0
LINE
  5
5E8C
330
1F
100
AcDbEntity
  8
0
100
AcDbLine
 10
650.9835512381937
 20
1324.817539158497
 30
0.0
 11
646.6835512381938
 21
1324.817539158497
 31
0.0
  0
LINE
  5
5E8D
330
1F
100
AcDbEntity
  8
0
100
AcDbLine
 10
642.9835512381937
 20
1320.517539158497
 30
0.0
 11
642.3835512381937
 21
1320.517539158497
 31
0.0
  0
LINE
  5
5E8E
330
1F
100
AcDbEntity
  8
0
100
AcDbLine
 10
642.9835512381937
 20
1324.817539158497
 30
0.0
 11
638.6835512381938
 21
1324.817539158497
 31
0.0
  0
LINE
  5
5E8F
330
1F
100
AcDbEntity
  8
0
100
AcDbLine
 10
639.2835512381936
 20
1320.517539158497
 30
0.0
 11
638.6835512381938
 21
1320.517539158497
 31
0.0
  0
LINE
  5
5E90
330
1F
100
AcDbEntity
  8
0
100
AcDbLine
 10
638.6835512381938
 20
1320.517539158497
 30
0.0
 11
638.6835512381938
 21
1324.817539158497
 31
0.0
  0
LINE
  5
5E91
330
1F
100
AcDbEntity
  8
0
100
AcDbLine
 10
646.6835512381938
 20
1320.517539158497
 30
0.0
 11
646.6835512381938
 21
1324.817539158497
 31
0.0
  0
LINE
  5
5E92
330
1F
100
AcDbEntity
  8
0
100
AcDbLine
 10
647.2835512381936
 20
1320.517539158497
 30
0.0
 11
646.6835512381938
 21
1320.517539158497
 31
0.0
  0
LINE
  5
5E93
330
1F
100
AcDbEntity
  8
0
100
AcDbLine
 10
642.9835512381937
 20
1320.517539158497
 30
0.0
 11
642.9835512381937
 21
1324.817539158497
 31
0.0
  0
LINE
  5
5E94
330
1F
100
AcDbEntity
  8
0
100
AcDbLine
 10
650.9835512381937
 20
1320.517539158497
 30
0.0
 11
650.9835512381937
 21
1324.817539158497
 31
0.0
  0
LINE
  5
5E95
330
1F
100
AcDbEntity
  8
0
100
AcDbLine
 10
650.9835512381937
 20
1320.517539158497
 30
0.0
 11
650.3835512381937
 21
1320.517539158497
 31
0.0
  0
LINE
  5
5E96
330
1F
100
AcDbEntity
  8
0
100
AcDbLine
 10
628.3335512381935
 20
1319.367539158497
 30
0.0
 11
639.2835512381938
 21
1319.367539158497
 31
0.0
  0
LINE
  5
5E97
330
1F
100
AcDbEntity
  8
0
100
AcDbLine
 10
642.3835512381937
 20
1319.367539158497
 30
0.0
 11
647.2835512381938
 21
1319.367539158497
 31
0.0
  0
LINE
  5
5E98
330
1F
100
AcDbEntity
  8
0
100
AcDbLine
 10
642.1835512381938
 20
1319.567539158497
 30
0.0
 11
642.1835512381938
 21
1320.317539158497
 31
0.0
  0
ARC
  5
5E99
330
1F
100
AcDbEntity
  8
0
100
AcDbCircle
 10
642.3835512381937
 20
1319.567539158497
 30
0.0
 40
0.2
100
AcDbArc
 50
180.0
 51
270.0
  0
ARC
  5
5E9A
330
1F
100
AcDbEntity
  8
0
100
AcDbCircle
 10
639.2835512381938
 20
1319.567539158497
 30
0.0
 40
0.2
100
AcDbArc
 50
270.0
 51
0.0
  0
LINE
  5
5E9B
330
1F
100
AcDbEntity
  8
0
100
AcDbLine
 10
639.4835512381937
 20
1319.567539158497
 30
0.0
 11
639.4835512381937
 21
1320.317539158497
 31
0.0
  0
LINE
  5
5E9C
330
1F
100
AcDbEntity
  8
0
100
AcDbLine
 10
647.4835512381937
 20
1319.567539158497
 30
0.0
 11
647.4835512381937
 21
1320.317539158497
 31
0.0
  0
ARC
  5
5E9D
330
1F
100
AcDbEntity
  8
0
100
AcDbCircle
 10
647.2835512381938
 20
1319.567539158497
 30
0.0
 40
0.2
100
AcDbArc
 50
270.0
 51
0.0
  0
LINE
  5
5E9E
330
1F
100
AcDbEntity
  8
0
100
AcDbLine
 10
650.1835512381937
 20
1319.567539158497
 30
0.0
 11
650.1835512381937
 21
1320.317539158497
 31
0.0
  0
ARC
  5
5E9F
330
1F
100
AcDbEntity
  8
0
100
AcDbCircle
 10
650.3835512381937
 20
1319.567539158497
 30
0.0
 40
0.2
100
AcDbArc
 50
180.0
 51
270.0
  0
LINE
  5
5EA6
330
1F
100
AcDbEntity
  8
0
100
AcDbLine
 10
613.3335512381939
 20
1344.367539158497
 30
0.0
 11
616.6335512381938
 21
1344.367539158497
 31
0.0
  0
LINE
  5
5EA7
330
1F
100
AcDbEntity
  8
0
100
AcDbLine
 10
616.6335512381938
 20
1344.367539158497
 30
0.0
 11
616.633551238194
 21
1348.367539158497
 31
0.0
  0
LINE
  5
5EA8
330
1F
100
AcDbEntity
  8
0
100
AcDbLine
 10
613.3335512381939
 20
1324.867539158497
 30
0.0
 11
613.3335512381939
 21
1344.367539158497
 31
0.0
  0
LINE
  5
5EA9
330
1F
100
AcDbEntity
  8
0
100
AcDbLine
 10
613.8335512381939
 20
1324.367539158497
 30
0.0
 11
620.8335512381938
 21
1324.367539158497
 31
0.0
  0
LINE
  5
5EAA
330
1F
100
AcDbEntity
  8
0
100
AcDbLine
 10
613.3335512381939
 20
1324.867539158497
 30
0.0
 11
613.8335512381939
 21
1324.367539158497
 31
0.0
  0
LINE
  5
5EAB
330
1F
100
AcDbEntity
  8
0
100
AcDbLine
 10
620.8335512381938
 20
1324.367539158497
 30
0.0
 11
621.3335512381938
 21
1324.867539158497
 31
0.0
  0
LINE
  5
5EAC
330
1F
100
AcDbEntity
  8
0
100
AcDbLine
 10
622.1335512381941
 20
1323.867539158497
 30
0.0
 11
627.133551238194
 21
1323.867539158497
 31
0.0
  0
LINE
  5
5EAD
330
1F
100
AcDbEntity
  8
0
100
AcDbLine
 10
622.1335512381941
 20
1323.867539158497
 30
0.0
 11
621.833551238194
 21
1324.167539158497
 31
0.0
  0
LINE
  5
5EAE
330
1F
100
AcDbEntity
  8
0
100
AcDbLine
 10
627.133551238194
 20
1323.867539158497
 30
0.0
 11
627.333551238194
 21
1324.067539158497
 31
0.0
  0
LINE
  5
5EAF
330
1F
100
AcDbEntity
  8
0
100
AcDbLine
 10
621.3335512381938
 20
1324.867539158497
 30
0.0
 11
621.3335512381938
 21
1371.867539158497
 31
0.0
  0
LINE
  5
5EB0
330
1F
100
AcDbEntity
  8
0
100
AcDbLine
 10
621.833551238194
 20
1324.167539158497
 30
0.0
 11
621.8335512381939
 21
1372.567539158497
 31
0.0
  0
LINE
  5
5EB1
330
1F
100
AcDbEntity
  8
0
100
AcDbLine
 10
660.3335512381939
 20
1376.367539158497
 30
0.0
 11
659.3335512381939
 21
1377.367539158497
 31
0.0
  0
LINE
  5
5EB2
330
1F
100
AcDbEntity
  8
0
100
AcDbLine
 10
660.3335512381938
 20
1320.367539158497
 30
0.0
 11
659.3335512381937
 21
1319.367539158497
 31
0.0
  0
LINE
  5
5EB3
330
1F
100
AcDbEntity
  8
0
100
AcDbLine
 10
628.3335512381935
 20
1319.367539158497
 30
0.0
 11
627.3335512381935
 21
1320.367539158497
 31
0.0
  0
LINE
  5
5EB4
330
1F
100
AcDbEntity
  8
0
100
AcDbLine
 10
627.333551238194
 20
1376.367539158497
 30
0.0
 11
628.3335512381941
 21
1377.367539158497
 31
0.0
  0
LINE
  5
5EB5
330
1F
100
AcDbEntity
  8
0
100
AcDbLine
 10
423.2111302156726
 20
1232.801263221501
 30
0.0
 11
423.2111302156728
 21
1200.3012632215
 31
0.0
  0
LINE
  5
5EB6
330
1F
100
AcDbEntity
  8
0
100
AcDbLine
 10
531.2111302156728
 20
1232.801263221501
 30
0.0
 11
531.2111302156726
 21
1200.3012632215
 31
0.0
  0
LINE
  5
5EB7
330
1F
100
AcDbEntity
  8
AM_7
100
AcDbLine
 10
555.6697592205762
 20
1215.5512632215
 30
0.0
 11
415.9383887894671
 21
1215.5512632215
 31
0.0
  0
LINE
  5
5EB8
330
1F
100
AcDbEntity
  8
0
100
AcDbLine
 10
516.2111302156728
 20
1200.0512632215
 30
0.0
 11
438.2111302156727
 21
1200.0512632215
 31
0.0
  0
LINE
  5
5EB9
330
1F
100
AcDbEntity
  8
0
100
AcDbLine
 10
516.2111302156727
 20
1233.0512632215
 30
0.0
 11
438.2111302156727
 21
1233.0512632215
 31
0.0
  0
LINE
  5
5EBA
330
1F
100
AcDbEntity
  8
AM_7
100
AcDbLine
 10
477.2111302156728
 20
1249.384943710975
 30
0.0
 11
477.2111302156726
 21
1198.698027569044
 31
0.0
  0
LINE
  5
5EBE
330
1F
100
AcDbEntity
  8
0
100
AcDbLine
 10
453.7111302156727
 20
1247.0512632215
 30
0.0
 11
477.2111302156728
 21
1247.0512632215
 31
0.0
  0
LINE
  5
5EBF
330
1F
100
AcDbEntity
  8
0
100
AcDbLine
 10
453.7111302156727
 20
1239.0512632215
 30
0.0
 11
477.2111302156726
 21
1239.0512632215
 31
0.0
  0
LINE
  5
5EC0
330
1F
100
AcDbEntity
  8
0
100
AcDbLine
 10
452.5111302156727
 20
1238.5512632215
 30
0.0
 11
477.2111302156726
 21
1238.5512632215
 31
0.0
  0
LINE
  5
5EC1
330
1F
100
AcDbEntity
  8
0
100
AcDbLine
 10
453.2111302156727
 20
1246.551263221501
 30
0.0
 11
453.2111302156727
 21
1239.551263221501
 31
0.0
  0
LINE
  5
5EC2
330
1F
100
AcDbEntity
  8
0
100
AcDbLine
 10
453.2111302156727
 20
1239.551263221501
 30
0.0
 11
453.7111302156727
 21
1239.0512632215
 31
0.0
  0
LINE
  5
5EC3
330
1F
100
AcDbEntity
  8
0
100
AcDbLine
 10
452.2111302156726
 20
1238.2512632215
 30
0.0
 11
452.5111302156727
 21
1238.5512632215
 31
0.0
  0
LINE
  5
5EC4
330
1F
100
AcDbEntity
  8
0
100
AcDbLine
 10
452.2111302156726
 20
1238.2512632215
 30
0.0
 11
452.2111302156726
 21
1233.2512632215
 31
0.0
  0
LINE
  5
5EC5
330
1F
100
AcDbEntity
  8
0
100
AcDbLine
 10
453.7111302156727
 20
1247.0512632215
 30
0.0
 11
453.2111302156727
 21
1246.551263221501
 31
0.0
  0
LINE
  5
5EC6
330
1F
100
AcDbEntity
  8
0
100
AcDbLine
 10
461.7111302156727
 20
1238.5512632215
 30
0.0
 11
461.7111302156727
 21
1239.0512632215
 31
0.0
  0
LINE
  5
5EC8
330
1F
100
AcDbEntity
  8
0
100
AcDbLine
 10
500.7111302156727
 20
1247.0512632215
 30
0.0
 11
477.2111302156726
 21
1247.0512632215
 31
0.0
  0
LINE
  5
5EC9
330
1F
100
AcDbEntity
  8
0
100
AcDbLine
 10
501.9111302156726
 20
1238.5512632215
 30
0.0
 11
477.2111302156726
 21
1238.5512632215
 31
0.0
  0
LINE
  5
5ECA
330
1F
100
AcDbEntity
  8
0
100
AcDbLine
 10
500.7111302156727
 20
1239.0512632215
 30
0.0
 11
477.2111302156726
 21
1239.0512632215
 31
0.0
  0
LINE
  5
5ECD
330
1F
100
AcDbEntity
  8
0
100
AcDbLine
 10
501.2111302156727
 20
1246.551263221501
 30
0.0
 11
501.2111302156727
 21
1239.551263221501
 31
0.0
  0
LINE
  5
5ECE
330
1F
100
AcDbEntity
  8
0
100
AcDbLine
 10
502.2111302156726
 20
1238.2512632215
 30
0.0
 11
502.2111302156728
 21
1233.2512632215
 31
0.0
  0
LINE
  5
5ECF
330
1F
100
AcDbEntity
  8
0
100
AcDbLine
 10
502.2111302156726
 20
1238.2512632215
 30
0.0
 11
501.9111302156726
 21
1238.5512632215
 31
0.0
  0
LINE
  5
5ED0
330
1F
100
AcDbEntity
  8
0
100
AcDbLine
 10
501.2111302156727
 20
1239.551263221501
 30
0.0
 11
500.7111302156727
 21
1239.0512632215
 31
0.0
  0
LINE
  5
5ED1
330
1F
100
AcDbEntity
  8
0
100
AcDbLine
 10
500.7111302156727
 20
1247.0512632215
 30
0.0
 11
501.2111302156727
 21
1246.551263221501
 31
0.0
  0
LINE
  5
5ED2
330
1F
100
AcDbEntity
  8
0
100
AcDbLine
 10
492.7111302156727
 20
1238.5512632215
 30
0.0
 11
492.7111302156727
 21
1239.0512632215
 31
0.0
  0
LINE
  5
5ED3
330
1F
100
AcDbEntity
  8
0
100
AcDbLine
 10
531.2111302156728
 20
1220.9012632215
 30
0.0
 11
423.2111302156726
 21
1220.9012632215
 31
0.0
  0
LINE
  5
5ED4
330
1F
100
AcDbEntity
  8
0
100
AcDbLine
 10
531.2111302156728
 20
1218.2012632215
 30
0.0
 11
423.2111302156726
 21
1218.2012632215
 31
0.0
  0
LINE
  5
5ED5
330
1F
100
AcDbEntity
  8
0
100
AcDbLine
 10
531.2111302156728
 20
1212.9012632215
 30
0.0
 11
423.2111302156726
 21
1212.9012632215
 31
0.0
  0
LINE
  5
5ED6
330
1F
100
AcDbEntity
  8
0
100
AcDbLine
 10
531.2111302156728
 20
1210.2012632215
 30
0.0
 11
423.2111302156726
 21
1210.2012632215
 31
0.0
  0
LINE
  5
5ED9
330
1F
100
AcDbEntity
  8
0
100
AcDbLine
 10
516.2111302156727
 20
1233.0512632215
 30
0.0
 11
516.2111302156728
 21
1200.0512632215
 31
0.0
  0
LINE
  5
5EDA
330
1F
100
AcDbEntity
  8
0
100
AcDbLine
 10
438.2111302156727
 20
1233.0512632215
 30
0.0
 11
438.2111302156727
 21
1200.0512632215
 31
0.0
  0
LINE
  5
5EDB
330
1F
100
AcDbEntity
  8
0
100
AcDbLine
 10
531.2111302156728
 20
1232.801263221501
 30
0.0
 11
516.2111302156728
 21
1232.801263221501
 31
0.0
  0
LINE
  5
5EDC
330
1F
100
AcDbEntity
  8
0
100
AcDbLine
 10
531.2111302156726
 20
1200.3012632215
 30
0.0
 11
516.2111302156729
 21
1200.3012632215
 31
0.0
  0
LINE
  5
5EDD
330
1F
100
AcDbEntity
  8
0
100
AcDbLine
 10
438.2111302156727
 20
1232.801263221501
 30
0.0
 11
423.2111302156726
 21
1232.801263221501
 31
0.0
  0
LINE
  5
5EDE
330
1F
100
AcDbEntity
  8
0
100
AcDbLine
 10
438.2111302156727
 20
1200.3012632215
 30
0.0
 11
423.2111302156728
 21
1200.3012632215
 31
0.0
  0
LINE
  5
5EDF
330
1F
100
AcDbEntity
  8
0
100
AcDbLine
 10
530.7111302156727
 20
1224.751263221501
 30
0.0
 11
530.4111302156727
 21
1224.4512632215
 31
0.0
  0
LINE
  5
5EE0
330
1F
100
AcDbEntity
  8
0
100
AcDbLine
 10
526.7111302156727
 20
1224.051263221501
 30
0.0
 11
531.2111302156726
 21
1224.051263221501
 31
0.0
  0
LINE
  5
5EE1
330
1F
100
AcDbEntity
  8
0
100
AcDbLine
 10
530.7111302156727
 20
1231.3512632215
 30
0.0
 11
530.4111302156727
 21
1231.651263221501
 31
0.0
  0
LINE
  5
5EE3
330
1F
100
AcDbEntity
  8
0
100
AcDbLine
 10
526.7111302156727
 20
1232.801263221501
 30
0.0
 11
526.7111302156727
 21
1224.051263221501
 31
0.0
  0
LINE
  5
5EE4
330
1F
100
AcDbEntity
  8
0
100
AcDbLine
 10
526.7111302156727
 20
1224.4512632215
 30
0.0
 11
530.4111302156728
 21
1224.4512632215
 31
0.0
  0
LINE
  5
5EE5
330
1F
100
AcDbEntity
  8
0
100
AcDbLine
 10
526.7111302156727
 20
1231.651263221501
 30
0.0
 11
530.4111302156727
 21
1231.651263221501
 31
0.0
  0
LINE
  5
5EE7
330
1F
100
AcDbEntity
  8
0
100
AcDbLine
 10
530.7111302156727
 20
1231.3512632215
 30
0.0
 11
530.7111302156727
 21
1224.751263221501
 31
0.0
  0
LINE
  5
5EE9
330
1F
100
AcDbEntity
  8
0
100
AcDbLine
 10
423.7111302156725
 20
1231.3512632215
 30
0.0
 11
424.0111302156726
 21
1231.651263221501
 31
0.0
  0
LINE
  5
5EEA
330
1F
100
AcDbEntity
  8
0
100
AcDbLine
 10
427.7111302156726
 20
1224.051263221501
 30
0.0
 11
423.2111302156726
 21
1224.051263221501
 31
0.0
  0
LINE
  5
5EEB
330
1F
100
AcDbEntity
  8
0
100
AcDbLine
 10
423.7111302156725
 20
1224.751263221501
 30
0.0
 11
424.0111302156726
 21
1224.4512632215
 31
0.0
  0
LINE
  5
5EED
330
1F
100
AcDbEntity
  8
0
100
AcDbLine
 10
427.7111302156726
 20
1232.801263221501
 30
0.0
 11
427.7111302156726
 21
1224.051263221501
 31
0.0
  0
LINE
  5
5EEE
330
1F
100
AcDbEntity
  8
0
100
AcDbLine
 10
427.7111302156726
 20
1224.4512632215
 30
0.0
 11
424.0111302156725
 21
1224.4512632215
 31
0.0
  0
LINE
  5
5EEF
330
1F
100
AcDbEntity
  8
0
100
AcDbLine
 10
427.7111302156726
 20
1231.651263221501
 30
0.0
 11
424.0111302156726
 21
1231.651263221501
 31
0.0
  0
LINE
  5
5EF0
330
1F
100
AcDbEntity
  8
0
100
AcDbLine
 10
423.7111302156725
 20
1231.3512632215
 30
0.0
 11
423.7111302156725
 21
1224.751263221501
 31
0.0
  0
LINE
  5
5EFF
330
1F
100
AcDbEntity
  8
0
  6
HIDDEN
 62
     3
 48
0.2
100
AcDbLine
 10
489.2111302156727
 20
1244.051263221501
 30
0.0
 11
465.2111302156726
 21
1244.051263221501
 31
0.0
  0
LINE
  5
5F00
330
1F
100
AcDbEntity
  8
0
  6
HIDDEN
 62
     3
 48
0.2
100
AcDbLine
 10
489.2111302156727
 20
1247.0512632215
 30
0.0
 11
489.2111302156727
 21
1244.0512632215
 31
0.0
  0
LINE
  5
5F01
330
1F
100
AcDbEntity
  8
0
  6
HIDDEN
 62
     3
 48
0.2
100
AcDbLine
 10
488.2111302156727
 20
1244.051263221501
 30
0.0
 11
488.2111302156727
 21
1242.251263221501
 31
0.0
  0
LINE
  5
5F02
330
1F
100
AcDbEntity
  8
0
  6
HIDDEN
 62
     3
 48
0.2
100
AcDbLine
 10
488.2111302156727
 20
1242.251263221501
 30
0.0
 11
477.2111302156726
 21
1242.251263221501
 31
0.0
  0
LINE
  5
5F03
330
1F
100
AcDbEntity
  8
0
  6
HIDDEN
 62
     3
 48
0.2
100
AcDbLine
 10
480.2111302156727
 20
1242.2512632215
 30
0.0
 11
480.2111302156727
 21
1203.051263221501
 31
0.0
  0
LINE
  5
5F04
330
1F
100
AcDbEntity
  8
0
  6
HIDDEN
 62
     3
 48
0.2
100
AcDbLine
 10
485.7111302156726
 20
1203.051263221501
 30
0.0
 11
477.2111302156726
 21
1203.051263221501
 31
0.0
  0
LINE
  5
5F05
330
1F
100
AcDbEntity
  8
0
  6
HIDDEN
 62
     3
 48
0.2
100
AcDbLine
 10
485.7111302156726
 20
1203.0512632215
 30
0.0
 11
485.7111302156726
 21
1200.051263221501
 31
0.0
  0
LINE
  5
5F06
330
1F
100
AcDbEntity
  8
0
  6
HIDDEN
 62
     3
 48
0.2
100
AcDbLine
 10
474.2111302156727
 20
1242.2512632215
 30
0.0
 11
474.2111302156727
 21
1203.051263221501
 31
0.0
  0
LINE
  5
5F07
330
1F
100
AcDbEntity
  8
0
  6
HIDDEN
 62
     3
 48
0.2
100
AcDbLine
 10
468.7111302156726
 20
1203.051263221501
 30
0.0
 11
477.2111302156726
 21
1203.051263221501
 31
0.0
  0
LINE
  5
5F08
330
1F
100
AcDbEntity
  8
0
  6
HIDDEN
 62
     3
 48
0.2
100
AcDbLine
 10
468.7111302156726
 20
1203.0512632215
 30
0.0
 11
468.7111302156726
 21
1200.051263221501
 31
0.0
  0
LINE
  5
5F09
330
1F
100
AcDbEntity
  8
0
  6
HIDDEN
 62
     3
 48
0.2
100
AcDbLine
 10
466.2111302156728
 20
1242.251263221501
 30
0.0
 11
477.2111302156726
 21
1242.251263221501
 31
0.0
  0
LINE
  5
5F0A
330
1F
100
AcDbEntity
  8
0
  6
HIDDEN
 62
     3
 48
0.2
100
AcDbLine
 10
466.2111302156728
 20
1244.051263221501
 30
0.0
 11
466.2111302156728
 21
1242.251263221501
 31
0.0
  0
LINE
  5
5F0B
330
1F
100
AcDbEntity
  8
0
  6
HIDDEN
 62
     3
 48
0.2
100
AcDbLine
 10
465.2111302156726
 20
1247.0512632215
 30
0.0
 11
465.2111302156726
 21
1244.0512632215
 31
0.0
  0
LINE
  5
5F0C
330
1F
100
AcDbEntity
  8
AM_7
100
AcDbLine
 10
508.2111302156727
 20
1235.768056858599
 30
0.0
 11
508.2111302156727
 21
1197.546925586664
 31
0.0
  0
LINE
  5
5F0D
330
1F
100
AcDbEntity
  8
AM_7
100
AcDbLine
 10
446.2111302156727
 20
1235.768056858599
 30
0.0
 11
446.2111302156727
 21
1197.546925586664
 31
0.0
  0
LINE
  5
5F0E
330
1F
100
AcDbEntity
  8
0
  6
HIDDEN
 62
     3
 48
0.2
100
AcDbLine
 10
449.6111302156727
 20
1226.5512632215
 30
0.0
 11
449.6111302156727
 21
1200.051263221501
 31
0.0
  0
LINE
  5
5F0F
330
1F
100
AcDbEntity
  8
0
  6
HIDDEN
 62
     3
 48
0.2
100
AcDbLine
 10
442.2111302156727
 20
1212.051263221501
 30
0.0
 11
450.2111302156728
 21
1212.051263221501
 31
0.0
  0
LINE
  5
5F10
330
1F
100
AcDbEntity
  8
0
  6
HIDDEN
 62
     3
 48
0.2
100
AcDbLine
 10
450.2111302156728
 20
1200.051263221501
 30
0.0
 11
450.2111302156728
 21
1212.051263221501
 31
0.0
  0
LINE
  5
5F11
330
1F
100
AcDbEntity
  8
0
  6
HIDDEN
 62
     3
 48
0.2
100
AcDbLine
 10
442.8111302156728
 20
1226.5512632215
 30
0.0
 11
442.8111302156727
 21
1200.051263221501
 31
0.0
  0
LINE
  5
5F12
330
1F
100
AcDbEntity
  8
0
  6
HIDDEN
 62
     3
 48
0.2
100
AcDbLine
 10
442.2111302156728
 20
1200.051263221501
 30
0.0
 11
442.2111302156728
 21
1212.051263221501
 31
0.0
  0
LINE
  5
5F13
330
1F
100
AcDbEntity
  8
0
  6
HIDDEN
 62
     3
 48
0.2
100
AcDbLine
 10
440.7111302156728
 20
1226.5512632215
 30
0.0
 11
451.7111302156727
 21
1226.5512632215
 31
0.0
  0
LINE
  5
5F14
330
1F
100
AcDbEntity
  8
0
  6
HIDDEN
 62
     3
 48
0.2
100
AcDbLine
 10
451.7111302156727
 20
1233.0512632215
 30
0.0
 11
451.7111302156727
 21
1226.5512632215
 31
0.0
  0
LINE
  5
5F15
330
1F
100
AcDbEntity
  8
0
  6
HIDDEN
 62
     3
 48
0.2
100
AcDbLine
 10
440.7111302156728
 20
1233.0512632215
 30
0.0
 11
440.7111302156728
 21
1226.5512632215
 31
0.0
  0
LINE
  5
5F16
330
1F
100
AcDbEntity
  8
0
  6
HIDDEN
 62
     3
 48
0.2
100
AcDbLine
 10
511.6111302156727
 20
1226.5512632215
 30
0.0
 11
511.6111302156727
 21
1200.051263221501
 31
0.0
  0
LINE
  5
5F17
330
1F
100
AcDbEntity
  8
0
  6
HIDDEN
 62
     3
 48
0.2
100
AcDbLine
 10
512.2111302156728
 20
1200.051263221501
 30
0.0
 11
512.2111302156728
 21
1212.051263221501
 31
0.0
  0
LINE
  5
5F18
330
1F
100
AcDbEntity
  8
0
  6
HIDDEN
 62
     3
 48
0.2
100
AcDbLine
 10
504.2111302156727
 20
1212.051263221501
 30
0.0
 11
512.2111302156728
 21
1212.051263221501
 31
0.0
  0
LINE
  5
5F19
330
1F
100
AcDbEntity
  8
0
  6
HIDDEN
 62
     3
 48
0.2
100
AcDbLine
 10
504.8111302156728
 20
1226.5512632215
 30
0.0
 11
504.8111302156727
 21
1200.051263221501
 31
0.0
  0
LINE
  5
5F1A
330
1F
100
AcDbEntity
  8
0
  6
HIDDEN
 62
     3
 48
0.2
100
AcDbLine
 10
504.2111302156728
 20
1200.051263221501
 30
0.0
 11
504.2111302156728
 21
1212.051263221501
 31
0.0
  0
LINE
  5
5F1B
330
1F
100
AcDbEntity
  8
0
  6
HIDDEN
 62
     3
 48
0.2
100
AcDbLine
 10
502.7111302156728
 20
1226.5512632215
 30
0.0
 11
513.7111302156727
 21
1226.5512632215
 31
0.0
  0
LINE
  5
5F1C
330
1F
100
AcDbEntity
  8
0
  6
HIDDEN
 62
     3
 48
0.2
100
AcDbLine
 10
513.7111302156727
 20
1233.0512632215
 30
0.0
 11
513.7111302156727
 21
1226.5512632215
 31
0.0
  0
LINE
  5
5F1D
330
1F
100
AcDbEntity
  8
0
  6
HIDDEN
 62
     3
 48
0.2
100
AcDbLine
 10
502.7111302156728
 20
1233.0512632215
 30
0.0
 11
502.7111302156728
 21
1226.5512632215
 31
0.0
  0
ARC
  5
5F25
330
1F
100
AcDbEntity
  8
0
100
AcDbCircle
 10
508.2111302156727
 20
1348.367539158497
 30
0.0
 40
5.5
100
AcDbArc
 50
180.0
 51
0.0
  0
CIRCLE
  5
5F28
330
1F
100
AcDbEntity
  8
0
100
AcDbCircle
 10
508.2111302156727
 20
1348.367539158497
 30
0.0
 40
3.399999999999999
  0
LINE
  5
5F55
330
1F
100
AcDbEntity
  8
0
100
AcDbLine
 10
627.5835512381935
 20
1320.47109254909
 30
0.0
 11
627.583551238194
 21
1348.367539158497
 31
0.0
  0
LINE
  5
5F56
330
1F
100
AcDbEntity
  8
0
100
AcDbLine
 10
628.4371046287867
 20
1319.617539158497
 30
0.0
 11
639.4835512381937
 21
1319.617539158497
 31
0.0
  0
LINE
  5
5F57
330
1F
100
AcDbEntity
  8
0
100
AcDbLine
 10
650.1835512381937
 20
1319.617539158497
 30
0.0
 11
659.2299978476005
 21
1319.617539158497
 31
0.0
  0
LINE
  5
5F58
330
1F
100
AcDbEntity
  8
0
100
AcDbLine
 10
642.1835512381938
 20
1319.617539158497
 30
0.0
 11
647.4835512381937
 21
1319.617539158497
 31
0.0
  0
LINE
  5
5F59
330
1F
100
AcDbEntity
  8
0
100
AcDbLine
 10
660.0835512381937
 20
1320.47109254909
 30
0.0
 11
660.0835512381937
 21
1348.367539158497
 31
0.0
  0
LINE
  5
5F5A
330
1F
100
AcDbEntity
  8
0
100
AcDbLine
 10
628.4371046287867
 20
1319.617539158497
 30
0.0
 11
627.5835512381935
 21
1320.47109254909
 31
0.0
  0
LINE
  5
5F5B
330
1F
100
AcDbEntity
  8
0
100
AcDbLine
 10
660.0835512381937
 20
1320.47109254909
 30
0.0
 11
659.2299978476005
 21
1319.617539158497
 31
0.0
  0
LINE
  5
5F5E
330
1F
100
AcDbEntity
  8
0
100
AcDbLine
 10
369.0873698633278
 20
1348.367539158497
 30
0.0
 11
369.0873698633274
 21
1320.617539158497
 31
0.0
  0
LINE
  5
5F5F
330
1F
100
AcDbEntity
  8
0
100
AcDbLine
 10
368.0873698633273
 20
1319.617539158497
 30
0.0
 11
357.1873698633282
 21
1319.617539158497
 31
0.0
  0
LINE
  5
5F60
330
1F
100
AcDbEntity
  8
0
100
AcDbLine
 10
349.1873698633282
 20
1319.617539158497
 30
0.0
 11
354.4873698633282
 21
1319.617539158497
 31
0.0
  0
LINE
  5
5F61
330
1F
100
AcDbEntity
  8
0
100
AcDbLine
 10
346.4873698633282
 20
1319.617539158497
 30
0.0
 11
337.5873698633281
 21
1319.617539158497
 31
0.0
  0
LINE
  5
5F62
330
1F
100
AcDbEntity
  8
0
100
AcDbLine
 10
336.5873698633282
 20
1348.367539158497
 30
0.0
 11
336.5873698633281
 21
1320.617539158497
 31
0.0
  0
LINE
  5
5F63
330
1F
100
AcDbEntity
  8
0
100
AcDbLine
 10
337.3373698633281
 20
1319.367539158497
 30
0.0
 11
336.3373698633281
 21
1320.367539158497
 31
0.0
  0
LINE
  5
5F64
330
1F
100
AcDbEntity
  8
0
100
AcDbLine
 10
368.3373698633274
 20
1319.367539158497
 30
0.0
 11
369.3373698633275
 21
1320.367539158497
 31
0.0
  0
LINE
  5
5F65
330
1F
100
AcDbEntity
  8
0
100
AcDbLine
 10
337.5873698633281
 20
1319.617539158497
 30
0.0
 11
336.5873698633281
 21
1320.617539158497
 31
0.0
  0
LINE
  5
5F66
330
1F
100
AcDbEntity
  8
0
100
AcDbLine
 10
369.0873698633274
 20
1320.617539158497
 30
0.0
 11
368.0873698633273
 21
1319.617539158497
 31
0.0
  0
LINE
  5
5F7F
330
1F
100
AcDbEntity
  8
0
100
AcDbLine
 10
336.3373698633282
 20
1376.367539158497
 30
0.0
 11
337.3373698633283
 21
1377.367539158497
 31
0.0
  0
LINE
  5
5F80
330
1F
100
AcDbEntity
  8
0
100
AcDbLine
 10
368.3373698633284
 20
1377.367539158497
 30
0.0
 11
369.3373698633284
 21
1376.367539158497
 31
0.0
  0
LINE
  5
5F88
330
1F
100
AcDbEntity
  8
0
100
AcDbLine
 10
423.7111302156726
 20
1377.117539158497
 30
0.0
 11
438.2111302156727
 21
1377.117539158497
 31
0.0
  0
LINE
  5
5F89
330
1F
100
AcDbEntity
  8
0
100
AcDbLine
 10
423.7111302156729
 20
1319.617539158497
 30
0.0
 11
438.2111302156727
 21
1319.617539158497
 31
0.0
  0
LINE
  5
5F93
330
1F
100
AcDbEntity
  8
0
100
AcDbLine
 10
427.7111302156726
 20
1328.367539158497
 30
0.0
 11
423.2111302156726
 21
1328.367539158497
 31
0.0
  0
LINE
  5
5F94
330
1F
100
AcDbEntity
  8
0
100
AcDbLine
 10
427.7111302156726
 20
1327.967539158497
 30
0.0
 11
424.0111302156725
 21
1327.967539158497
 31
0.0
  0
LINE
  5
5F95
330
1F
100
AcDbEntity
  8
0
100
AcDbLine
 10
427.7111302156726
 20
1320.767539158497
 30
0.0
 11
424.0111302156726
 21
1320.767539158497
 31
0.0
  0
LINE
  5
5F98
330
1F
100
AcDbEntity
  8
0
100
AcDbLine
 10
423.2111302156726
 20
1376.617539158497
 30
0.0
 11
423.2111302156726
 21
1320.117539158497
 31
0.0
  0
LINE
  5
5F9A
330
1F
100
AcDbEntity
  8
0
100
AcDbLine
 10
423.7111302156725
 20
1321.067539158497
 30
0.0
 11
423.7111302156725
 21
1327.667539158497
 31
0.0
  0
LINE
  5
5F9B
330
1F
100
AcDbEntity
  8
0
100
AcDbLine
 10
423.2111302156729
 20
1320.117539158497
 30
0.0
 11
423.7111302156729
 21
1319.617539158497
 31
0.0
  0
LINE
  5
5F9C
330
1F
100
AcDbEntity
  8
0
100
AcDbLine
 10
423.7111302156725
 20
1321.067539158497
 30
0.0
 11
424.0111302156726
 21
1320.767539158497
 31
0.0
  0
LINE
  5
5F9D
330
1F
100
AcDbEntity
  8
0
100
AcDbLine
 10
423.7111302156725
 20
1327.667539158497
 30
0.0
 11
424.0111302156726
 21
1327.967539158497
 31
0.0
  0
LINE
  5
5F9E
330
1F
100
AcDbEntity
  8
0
100
AcDbLine
 10
423.7111302156726
 20
1377.117539158497
 30
0.0
 11
423.2111302156726
 21
1376.617539158497
 31
0.0
  0
ARC
  5
5F9F
330
1F
100
AcDbEntity
  8
0
100
AcDbCircle
 10
477.2111302156726
 20
1348.367539158497
 30
0.0
 40
25.0
100
AcDbArc
 50
180.0
 51
0.0
  0
LINE
  5
5FA0
330
1F
100
AcDbEntity
  8
0
100
AcDbLine
 10
438.2111302156727
 20
1377.367539158497
 30
0.0
 11
516.2111302156727
 21
1377.367539158497
 31
0.0
  0
LINE
  5
5FA1
330
1F
100
AcDbEntity
  8
0
100
AcDbLine
 10
438.2111302156727
 20
1319.367539158497
 30
0.0
 11
516.2111302156725
 21
1319.367539158497
 31
0.0
  0
ARC
  5
5FA4
330
1F
100
AcDbEntity
  8
0
100
AcDbCircle
 10
477.2111302156726
 20
1340.867539158497
 30
0.0
 40
2.85
100
AcDbArc
 50
90.0
 51
270.0
  0
POLYLINE
  5
5FA5
330
1F
100
AcDbEntity
  8
0
100
AcDb2dPolyline
 66
     1
 10
0.0
 20
0.0
 30
0.0
  0
VERTEX
  5
5FA6
330
5FA5
100
AcDbEntity
  8
0
100
AcDbVertex
100
AcDb2dVertex
 10
477.2111302156726
 20
1341.890039158497
 30
0.0
  0
VERTEX
  5
5FA7
330
5FA5
100
AcDbEntity
  8
0
100
AcDbVertex
100
AcDb2dVertex
 10
476.6207895654263
 20
1341.890039158497
 30
0.0
  0
VERTEX
  5
5FA8
330
5FA5
100
AcDbEntity
  8
0
100
AcDbVertex
100
AcDb2dVertex
 10
476.0304489151799
 20
1340.867539158497
 30
0.0
  0
VERTEX
  5
5FA9
330
5FA5
100
AcDbEntity
  8
0
100
AcDbVertex
100
AcDb2dVertex
 10
476.6207895654263
 20
1339.845039158497
 30
0.0
  0
VERTEX
  5
5FAA
330
5FA5
100
AcDbEntity
  8
0
100
AcDbVertex
100
AcDb2dVertex
 10
477.2111302156726
 20
1339.845039158497
 30
0.0
  0
SEQEND
  5
5FAB
330
5FA5
100
AcDbEntity
  8
0
  0
ARC
  5
5FAC
330
1F
100
AcDbEntity
  8
0
100
AcDbCircle
 10
477.2111302156726
 20
1348.367539158497
 30
0.0
 40
10.99999999999988
100
AcDbArc
 50
180.0
 51
0.0
  0
ARC
  5
5FAD
330
1F
100
AcDbEntity
  8
0
100
AcDbCircle
 10
477.2111302156726
 20
1348.367539158497
 30
0.0
 40
11.99999999999994
100
AcDbArc
 50
199.4712206344868
 51
270.0
  0
ARC
  5
5FAE
330
1F
100
AcDbEntity
  8
0
100
AcDbCircle
 10
477.2111302156726
 20
1348.367539158497
 30
0.0
 40
24.0
100
AcDbArc
 50
180.0
 51
270.0
  0
LINE
  5
5FAF
330
1F
100
AcDbEntity
  8
0
100
AcDbLine
 10
438.2111302156727
 20
1377.367539158497
 30
0.0
 11
438.2111302156727
 21
1319.367539158497
 31
0.0
  0
LINE
  5
5FB4
330
1F
100
AcDbEntity
  8
0
100
AcDbLine
 10
427.7111302156726
 20
1319.617539158497
 30
0.0
 11
427.7111302156726
 21
1328.367539158497
 31
0.0
  0
LINE
  5
5FBD
330
1F
100
AcDbEntity
  8
0
100
AcDbLine
 10
453.5468110832741
 20
1344.367539158497
 30
0.0
 11
466.9641794497132
 21
1344.367539158497
 31
0.0
  0
ARC
  5
5FBF
330
1F
100
AcDbEntity
  8
0
100
AcDbCircle
 10
446.2111302156727
 20
1348.367539158497
 30
0.0
 40
5.5
100
AcDbArc
 50
180.0
 51
0.0
  0
CIRCLE
  5
5FC2
330
1F
100
AcDbEntity
  8
0
100
AcDbCircle
 10
446.2111302156727
 20
1348.367539158497
 30
0.0
 40
3.399999999999999
  0
CIRCLE
  5
5FC4
330
1F
100
AcDbEntity
  8
0
100
AcDbCircle
 10
477.2111302156726
 20
1348.367539158497
 30
0.0
 40
2.999999999999943
  0
CIRCLE
  5
5FC7
330
1F
100
AcDbEntity
  8
0
100
AcDbCircle
 10
470.7159396872894
 20
1344.617539158497
 30
0.0
 40
2.85
  0
POLYLINE
  5
5FC8
330
1F
100
AcDbEntity
  8
0
100
AcDb2dPolyline
 66
     1
 10
0.0
 20
0.0
 30
0.0
 70
     1
  0
VERTEX
  5
5FC9
330
5FC8
100
AcDbEntity
  8
0
100
AcDbVertex
100
AcDb2dVertex
 10
470.1255990370429
 20
1345.640039158497
 30
0.0
  0
VERTEX
  5
5FCA
330
5FC8
100
AcDbEntity
  8
0
100
AcDbVertex
100
AcDb2dVertex
 10
469.5352583867966
 20
1344.617539158497
 30
0.0
  0
VERTEX
  5
5FCB
330
5FC8
100
AcDbEntity
  8
0
100
AcDbVertex
100
AcDb2dVertex
 10
470.1255990370429
 20
1343.595039158497
 30
0.0
  0
VERTEX
  5
5FCC
330
5FC8
100
AcDbEntity
  8
0
100
AcDbVertex
100
AcDb2dVertex
 10
471.3062803375358
 20
1343.595039158497
 30
0.0
  0
VERTEX
  5
5FCD
330
5FC8
100
AcDbEntity
  8
0
100
AcDbVertex
100
AcDb2dVertex
 10
471.8966209877821
 20
1344.617539158497
 30
0.0
  0
VERTEX
  5
5FCE
330
5FC8
100
AcDbEntity
  8
0
100
AcDbVertex
100
AcDb2dVertex
 10
471.3062803375358
 20
1345.640039158497
 30
0.0
  0
SEQEND
  5
5FCF
330
5FC8
100
AcDbEntity
  8
0
  0
LINE
  5
5FD5
330
1F
100
AcDbEntity
  8
0
100
AcDbLine
 10
531.2111302156728
 20
1376.617539158497
 30
0.0
 11
531.2111302156728
 21
1320.117539158497
 31
0.0
  0
LINE
  5
5FD6
330
1F
100
AcDbEntity
  8
0
100
AcDbLine
 10
516.2111302156727
 20
1377.117539158497
 30
0.0
 11
516.2111302156727
 21
1319.367539158497
 31
0.0
  0
LINE
  5
5FDC
330
1F
100
AcDbEntity
  8
0
100
AcDbLine
 10
516.2111302156725
 20
1319.617539158497
 30
0.0
 11
530.7111302156725
 21
1319.617539158497
 31
0.0
  0
LINE
  5
5FDD
330
1F
100
AcDbEntity
  8
0
100
AcDbLine
 10
526.7111302156727
 20
1328.367539158497
 30
0.0
 11
531.2111302156726
 21
1328.367539158497
 31
0.0
  0
LINE
  5
5FDE
330
1F
100
AcDbEntity
  8
0
100
AcDbLine
 10
526.7111302156727
 20
1327.967539158497
 30
0.0
 11
530.4111302156728
 21
1327.967539158497
 31
0.0
  0
LINE
  5
5FE0
330
1F
100
AcDbEntity
  8
0
100
AcDbLine
 10
526.7111302156727
 20
1320.767539158497
 30
0.0
 11
530.4111302156727
 21
1320.767539158497
 31
0.0
  0
LINE
  5
5FE3
330
1F
100
AcDbEntity
  8
0
100
AcDbLine
 10
526.7111302156727
 20
1319.617539158497
 30
0.0
 11
526.7111302156727
 21
1328.367539158497
 31
0.0
  0
LINE
  5
5FF2
330
1F
100
AcDbEntity
  8
0
100
AcDbLine
 10
530.7111302156727
 20
1321.067539158497
 30
0.0
 11
530.7111302156727
 21
1327.667539158497
 31
0.0
  0
LINE
  5
5FF3
330
1F
100
AcDbEntity
  8
0
100
AcDbLine
 10
531.2111302156726
 20
1320.117539158497
 30
0.0
 11
530.7111302156727
 21
1319.617539158497
 31
0.0
  0
LINE
  5
5FF4
330
1F
100
AcDbEntity
  8
0
100
AcDbLine
 10
530.7111302156727
 20
1321.067539158497
 30
0.0
 11
530.4111302156727
 21
1320.767539158497
 31
0.0
  0
LINE
  5
5FF6
330
1F
100
AcDbEntity
  8
0
100
AcDbLine
 10
530.7111302156727
 20
1327.667539158497
 30
0.0
 11
530.4111302156727
 21
1327.967539158497
 31
0.0
  0
LINE
  5
600C
330
1F
100
AcDbEntity
  8
0
100
AcDbLine
 10
516.2111302156728
 20
1377.117539158497
 30
0.0
 11
530.7111302156725
 21
1377.117539158497
 31
0.0
  0
CIRCLE
  5
6010
330
1F
100
AcDbEntity
  8
0
100
AcDbCircle
 10
508.2111302156727
 20
1348.367539158497
 30
0.0
 40
3.399999999999999
  0
ARC
  5
6011
330
1F
100
AcDbEntity
  8
0
100
AcDbCircle
 10
508.2111302156727
 20
1348.367539158497
 30
0.0
 40
5.5
100
AcDbArc
 50
180.0
 51
0.0
  0
LINE
  5
603B
330
1F
100
AcDbEntity
  8
0
100
AcDbLine
 10
530.7111302156727
 20
1377.117539158497
 30
0.0
 11
531.2111302156726
 21
1376.617539158497
 31
0.0
  0
LINE
  5
603F
330
1F
100
AcDbEntity
  8
0
100
AcDbLine
 10
337.5873698633284
 20
1377.117539158497
 30
0.0
 11
336.5873698633283
 21
1376.117539158497
 31
0.0
  0
LINE
  5
6040
330
1F
100
AcDbEntity
  8
0
100
AcDbLine
 10
336.5873698633282
 20
1348.367539158497
 30
0.0
 11
336.5873698633283
 21
1376.117539158497
 31
0.0
  0
LINE
  5
6041
330
1F
100
AcDbEntity
  8
0
100
AcDbLine
 10
346.4873698633285
 20
1377.117539158497
 30
0.0
 11
337.5873698633284
 21
1377.117539158497
 31
0.0
  0
LINE
  5
6042
330
1F
100
AcDbEntity
  8
0
100
AcDbLine
 10
349.1873698633284
 20
1377.117539158497
 30
0.0
 11
354.4873698633285
 21
1377.117539158497
 31
0.0
  0
LINE
  5
6043
330
1F
100
AcDbEntity
  8
0
100
AcDbLine
 10
368.0873698633277
 20
1377.117539158497
 30
0.0
 11
357.1873698633284
 21
1377.117539158497
 31
0.0
  0
CIRCLE
  5
6045
330
1F
100
AcDbEntity
  8
0
100
AcDbCircle
 10
365.3373698633285
 20
1372.367539158497
 30
0.0
 40
3.6
  0
LINE
  5
6046
330
1F
100
AcDbEntity
  8
0
100
AcDbLine
 10
365.3373698633285
 20
1368.367539158497
 30
0.0
 11
369.0873698633277
 21
1368.367539158497
 31
0.0
  0
POLYLINE
  5
6049
330
1F
100
AcDbEntity
  8
0
100
AcDb2dPolyline
 66
     1
 10
0.0
 20
0.0
 30
0.0
 70
     1
  0
VERTEX
  5
604A
330
6049
100
AcDbEntity
  8
0
100
AcDbVertex
100
AcDb2dVertex
 10
364.4713444595441
 20
1370.867539158497
 30
0.0
  0
VERTEX
  5
604B
330
6049
100
AcDbEntity
  8
0
100
AcDbVertex
100
AcDb2dVertex
 10
363.6053190557597
 20
1372.367539158497
 30
0.0
  0
VERTEX
  5
604C
330
6049
100
AcDbEntity
  8
0
100
AcDbVertex
100
AcDb2dVertex
 10
364.4713444595441
 20
1373.867539158497
 30
0.0
  0
VERTEX
  5
604D
330
6049
100
AcDbEntity
  8
0
100
AcDbVertex
100
AcDb2dVertex
 10
366.203395267113
 20
1373.867539158497
 30
0.0
  0
VERTEX
  5
604E
330
6049
100
AcDbEntity
  8
0
100
AcDbVertex
100
AcDb2dVertex
 10
367.0694206708974
 20
1372.367539158497
 30
0.0
  0
VERTEX
  5
604F
330
6049
100
AcDbEntity
  8
0
100
AcDbVertex
100
AcDb2dVertex
 10
366.203395267113
 20
1370.867539158497
 30
0.0
  0
SEQEND
  5
6050
330
6049
100
AcDbEntity
  8
0
  0
ARC
  5
6053
330
1F
100
AcDbEntity
  8
0
100
AcDbCircle
 10
365.3373698633285
 20
1372.367539158497
 30
0.0
 40
4.0
100
AcDbArc
 50
180.0
 51
269.9999999999968
  0
LINE
  5
6054
330
1F
100
AcDbEntity
  8
0
100
AcDbLine
 10
361.3373698633285
 20
1372.367539158497
 30
0.0
 11
361.3373698633286
 21
1377.117539158497
 31
0.0
  0
LINE
  5
6055
330
1F
100
AcDbEntity
  8
0
100
AcDbLine
 10
369.0873698633276
 20
1376.117539158497
 30
0.0
 11
368.0873698633277
 21
1377.117539158497
 31
0.0
  0
LINE
  5
6056
330
1F
100
AcDbEntity
  8
0
100
AcDbLine
 10
369.0873698633278
 20
1348.367539158497
 30
0.0
 11
369.0873698633276
 21
1376.117539158497
 31
0.0
  0
CIRCLE
  5
6058
330
1F
100
AcDbEntity
  8
0
100
AcDbCircle
 10
340.3373698633282
 20
1356.367539158497
 30
0.0
 40
3.6
  0
ARC
  5
6059
330
1F
100
AcDbEntity
  8
0
100
AcDbCircle
 10
340.3373698633282
 20
1356.367539158497
 30
0.0
 40
4.0
100
AcDbArc
 50
270.0
 51
90.0
  0
POLYLINE
  5
605B
330
1F
100
AcDbEntity
  8
0
100
AcDb2dPolyline
 66
     1
 10
0.0
 20
0.0
 30
0.0
 70
     1
  0
VERTEX
  5
605C
330
605B
100
AcDbEntity
  8
0
100
AcDbVertex
100
AcDb2dVertex
 10
339.4713444595438
 20
1354.867539158497
 30
0.0
  0
VERTEX
  5
605D
330
605B
100
AcDbEntity
  8
0
100
AcDbVertex
100
AcDb2dVertex
 10
338.6053190557594
 20
1356.367539158497
 30
0.0
  0
VERTEX
  5
605E
330
605B
100
AcDbEntity
  8
0
100
AcDbVertex
100
AcDb2dVertex
 10
339.4713444595439
 20
1357.867539158497
 30
0.0
  0
VERTEX
  5
605F
330
605B
100
AcDbEntity
  8
0
100
AcDbVertex
100
AcDb2dVertex
 10
341.2033952671127
 20
1357.867539158497
 30
0.0
  0
VERTEX
  5
6060
330
605B
100
AcDbEntity
  8
0
100
AcDbVertex
100
AcDb2dVertex
 10
342.0694206708971
 20
1356.367539158497
 30
0.0
  0
VERTEX
  5
6061
330
605B
100
AcDbEntity
  8
0
100
AcDbVertex
100
AcDb2dVertex
 10
341.2033952671127
 20
1354.867539158497
 30
0.0
  0
SEQEND
  5
6062
330
605B
100
AcDbEntity
  8
0
  0
LINE
  5
6063
330
1F
100
AcDbEntity
  8
0
100
AcDbLine
 10
340.3373698633282
 20
1360.367539158497
 30
0.0
 11
336.5873698633283
 21
1360.367539158497
 31
0.0
  0
LINE
  5
6065
330
1F
100
AcDbEntity
  8
0
100
AcDbLine
 10
340.3373698633282
 20
1352.367539158497
 30
0.0
 11
336.5873698633282
 21
1352.367539158497
 31
0.0
  0
ARC
  5
606E
330
1F
100
AcDbEntity
  8
0
100
AcDbCircle
 10
508.2111302156727
 20
1348.367539158497
 30
0.0
 40
5.5
100
AcDbArc
 50
0.0
 51
180.0
  0
ARC
  5
606F
330
1F
100
AcDbEntity
  8
0
100
AcDbCircle
 10
446.2111302156727
 20
1348.367539158497
 30
0.0
 40
5.5
100
AcDbArc
 50
0.0
 51
180.0
  0
LINE
  5
6075
330
1F
100
AcDbEntity
  8
0
100
AcDbLine
 10
500.8754493480712
 20
1344.367539158497
 30
0.0
 11
487.4580809816321
 21
1344.367539158497
 31
0.0
  0
ARC
  5
6076
330
1F
100
AcDbEntity
  8
0
100
AcDbCircle
 10
477.2111302156726
 20
1348.367539158497
 30
0.0
 40
11.99999999999994
100
AcDbArc
 50
270.0
 51
340.5287793655132
  0
ARC
  5
6077
330
1F
100
AcDbEntity
  8
0
100
AcDbCircle
 10
477.2111302156726
 20
1348.367539158497
 30
0.0
 40
24.0
100
AcDbArc
 50
270.0
 51
0.0
  0
ARC
  5
6078
330
1F
100
AcDbEntity
  8
0
100
AcDbCircle
 10
477.2111302156726
 20
1340.867539158497
 30
0.0
 40
2.85
100
AcDbArc
 50
270.0
 51
90.0
  0
POLYLINE
  5
6079
330
1F
100
AcDbEntity
  8
0
100
AcDb2dPolyline
 66
     1
 10
0.0
 20
0.0
 30
0.0
 70
     1
  0
VERTEX
  5
607A
330
6079
100
AcDbEntity
  8
0
100
AcDbVertex
100
AcDb2dVertex
 10
484.2966613943024
 20
1345.640039158497
 30
0.0
  0
VERTEX
  5
607B
330
6079
100
AcDbEntity
  8
0
100
AcDbVertex
100
AcDb2dVertex
 10
484.8870020445487
 20
1344.617539158497
 30
0.0
  0
VERTEX
  5
607C
330
6079
100
AcDbEntity
  8
0
100
AcDbVertex
100
AcDb2dVertex
 10
484.2966613943024
 20
1343.595039158497
 30
0.0
  0
VERTEX
  5
607D
330
6079
100
AcDbEntity
  8
0
100
AcDbVertex
100
AcDb2dVertex
 10
483.1159800938096
 20
1343.595039158497
 30
0.0
  0
VERTEX
  5
607E
330
6079
100
AcDbEntity
  8
0
100
AcDbVertex
100
AcDb2dVertex
 10
482.5256394435633
 20
1344.617539158497
 30
0.0
  0
VERTEX
  5
607F
330
6079
100
AcDbEntity
  8
0
100
AcDbVertex
100
AcDb2dVertex
 10
483.1159800938096
 20
1345.640039158497
 30
0.0
  0
SEQEND
  5
6080
330
6079
100
AcDbEntity
  8
0
  0
CIRCLE
  5
6081
330
1F
100
AcDbEntity
  8
0
100
AcDbCircle
 10
483.706320744056
 20
1344.617539158497
 30
0.0
 40
2.85
  0
POLYLINE
  5
6082
330
1F
100
AcDbEntity
  8
0
100
AcDb2dPolyline
 66
     1
 10
0.0
 20
0.0
 30
0.0
  0
VERTEX
  5
6083
330
6082
100
AcDbEntity
  8
0
100
AcDbVertex
100
AcDb2dVertex
 10
477.2111302156726
 20
1341.890039158497
 30
0.0
  0
VERTEX
  5
6084
330
6082
100
AcDbEntity
  8
0
100
AcDbVertex
100
AcDb2dVertex
 10
477.8014708659191
 20
1341.890039158497
 30
0.0
  0
VERTEX
  5
6085
330
6082
100
AcDbEntity
  8
0
100
AcDbVertex
100
AcDb2dVertex
 10
478.3918115161655
 20
1340.867539158497
 30
0.0
  0
VERTEX
  5
6086
330
6082
100
AcDbEntity
  8
0
100
AcDbVertex
100
AcDb2dVertex
 10
477.8014708659191
 20
1339.845039158497
 30
0.0
  0
VERTEX
  5
6087
330
6082
100
AcDbEntity
  8
0
100
AcDbVertex
100
AcDb2dVertex
 10
477.2111302156726
 20
1339.845039158497
 30
0.0
  0
SEQEND
  5
6088
330
6082
100
AcDbEntity
  8
0
  0
CIRCLE
  5
6089
330
1F
100
AcDbEntity
  8
0
100
AcDbCircle
 10
483.706320744056
 20
1352.117539158497
 30
0.0
 40
2.85
  0
ARC
  5
608A
330
1F
100
AcDbEntity
  8
0
100
AcDbCircle
 10
477.2111302156726
 20
1355.867539158497
 30
0.0
 40
2.85
100
AcDbArc
 50
270.0
 51
90.0
  0
ARC
  5
608B
330
1F
100
AcDbEntity
  8
0
100
AcDbCircle
 10
477.2111302156726
 20
1348.367539158497
 30
0.0
 40
11.99999999999994
100
AcDbArc
 50
19.47122063448681
 51
90.0
  0
CIRCLE
  5
608C
330
1F
100
AcDbEntity
  8
0
100
AcDbCircle
 10
470.7159396872894
 20
1352.117539158497
 30
0.0
 40
2.85
  0
ARC
  5
608E
330
1F
100
AcDbEntity
  8
0
100
AcDbCircle
 10
477.2111302156726
 20
1355.867539158497
 30
0.0
 40
2.85
100
AcDbArc
 50
90.0
 51
270.0
  0
POLYLINE
  5
608F
330
1F
100
AcDbEntity
  8
0
100
AcDb2dPolyline
 66
     1
 10
0.0
 20
0.0
 30
0.0
  0
VERTEX
  5
6090
330
608F
100
AcDbEntity
  8
0
100
AcDbVertex
100
AcDb2dVertex
 10
477.2111302156726
 20
1354.845039158497
 30
0.0
  0
VERTEX
  5
6091
330
608F
100
AcDbEntity
  8
0
100
AcDbVertex
100
AcDb2dVertex
 10
477.8014708659191
 20
1354.845039158497
 30
0.0
  0
VERTEX
  5
6092
330
608F
100
AcDbEntity
  8
0
100
AcDbVertex
100
AcDb2dVertex
 10
478.3918115161655
 20
1355.867539158497
 30
0.0
  0
VERTEX
  5
6093
330
608F
100
AcDbEntity
  8
0
100
AcDbVertex
100
AcDb2dVertex
 10
477.8014708659191
 20
1356.890039158497
 30
0.0
  0
VERTEX
  5
6094
330
608F
100
AcDbEntity
  8
0
100
AcDbVertex
100
AcDb2dVertex
 10
477.2111302156726
 20
1356.890039158497
 30
0.0
  0
SEQEND
  5
6095
330
608F
100
AcDbEntity
  8
0
  0
POLYLINE
  5
6096
330
1F
100
AcDbEntity
  8
0
100
AcDb2dPolyline
 66
     1
 10
0.0
 20
0.0
 30
0.0
  0
VERTEX
  5
6097
330
6096
100
AcDbEntity
  8
0
100
AcDbVertex
100
AcDb2dVertex
 10
477.2111302156726
 20
1354.845039158497
 30
0.0
  0
VERTEX
  5
6098
330
6096
100
AcDbEntity
  8
0
100
AcDbVertex
100
AcDb2dVertex
 10
476.6207895654263
 20
1354.845039158497
 30
0.0
  0
VERTEX
  5
6099
330
6096
100
AcDbEntity
  8
0
100
AcDbVertex
100
AcDb2dVertex
 10
476.0304489151799
 20
1355.867539158497
 30
0.0
  0
VERTEX
  5
609A
330
6096
100
AcDbEntity
  8
0
100
AcDbVertex
100
AcDb2dVertex
 10
476.6207895654263
 20
1356.890039158497
 30
0.0
  0
VERTEX
  5
609B
330
6096
100
AcDbEntity
  8
0
100
AcDbVertex
100
AcDb2dVertex
 10
477.2111302156726
 20
1356.890039158497
 30
0.0
  0
SEQEND
  5
609C
330
6096
100
AcDbEntity
  8
0
  0
POLYLINE
  5
609E
330
1F
100
AcDbEntity
  8
0
100
AcDb2dPolyline
 66
     1
 10
0.0
 20
0.0
 30
0.0
 70
     1
  0
VERTEX
  5
609F
330
609E
100
AcDbEntity
  8
0
100
AcDbVertex
100
AcDb2dVertex
 10
470.1255990370429
 20
1351.095039158497
 30
0.0
  0
VERTEX
  5
60A0
330
609E
100
AcDbEntity
  8
0
100
AcDbVertex
100
AcDb2dVertex
 10
469.5352583867966
 20
1352.117539158497
 30
0.0
  0
VERTEX
  5
60A1
330
609E
100
AcDbEntity
  8
0
100
AcDbVertex
100
AcDb2dVertex
 10
470.1255990370429
 20
1353.140039158497
 30
0.0
  0
VERTEX
  5
60A2
330
609E
100
AcDbEntity
  8
0
100
AcDbVertex
100
AcDb2dVertex
 10
471.3062803375358
 20
1353.140039158497
 30
0.0
  0
VERTEX
  5
60A3
330
609E
100
AcDbEntity
  8
0
100
AcDbVertex
100
AcDb2dVertex
 10
471.8966209877821
 20
1352.117539158497
 30
0.0
  0
VERTEX
  5
60A4
330
609E
100
AcDbEntity
  8
0
100
AcDbVertex
100
AcDb2dVertex
 10
471.3062803375358
 20
1351.095039158497
 30
0.0
  0
SEQEND
  5
60A5
330
609E
100
AcDbEntity
  8
0
  0
POLYLINE
  5
60A6
330
1F
100
AcDbEntity
  8
0
100
AcDb2dPolyline
 66
     1
 10
0.0
 20
0.0
 30
0.0
 70
     1
  0
VERTEX
  5
60A7
330
60A6
100
AcDbEntity
  8
0
100
AcDbVertex
100
AcDb2dVertex
 10
484.2966613943024
 20
1351.095039158497
 30
0.0
  0
VERTEX
  5
60A8
330
60A6
100
AcDbEntity
  8
0
100
AcDbVertex
100
AcDb2dVertex
 10
484.8870020445487
 20
1352.117539158497
 30
0.0
  0
VERTEX
  5
60A9
330
60A6
100
AcDbEntity
  8
0
100
AcDbVertex
100
AcDb2dVertex
 10
484.2966613943024
 20
1353.140039158497
 30
0.0
  0
VERTEX
  5
60AA
330
60A6
100
AcDbEntity
  8
0
100
AcDbVertex
100
AcDb2dVertex
 10
483.1159800938096
 20
1353.140039158497
 30
0.0
  0
VERTEX
  5
60AB
330
60A6
100
AcDbEntity
  8
0
100
AcDbVertex
100
AcDb2dVertex
 10
482.5256394435633
 20
1352.117539158497
 30
0.0
  0
VERTEX
  5
60AC
330
60A6
100
AcDbEntity
  8
0
100
AcDbVertex
100
AcDb2dVertex
 10
483.1159800938096
 20
1351.095039158497
 30
0.0
  0
SEQEND
  5
60AD
330
60A6
100
AcDbEntity
  8
0
  0
ARC
  5
60AF
330
1F
100
AcDbEntity
  8
0
100
AcDbCircle
 10
477.2111302156726
 20
1348.367539158497
 30
0.0
 40
10.99999999999988
100
AcDbArc
 50
0.0
 51
180.0
  0
ARC
  5
60B0
330
1F
100
AcDbEntity
  8
0
100
AcDbCircle
 10
477.2111302156726
 20
1348.367539158497
 30
0.0
 40
11.99999999999994
100
AcDbArc
 50
90.0
 51
160.5287793655131
  0
LINE
  5
60B1
330
1F
100
AcDbEntity
  8
0
100
AcDbLine
 10
453.5468110832741
 20
1352.367539158497
 30
0.0
 11
466.9641794497132
 21
1352.367539158497
 31
0.0
  0
ARC
  5
60B8
330
1F
100
AcDbEntity
  8
0
100
AcDbCircle
 10
477.2111302156726
 20
1348.367539158497
 30
0.0
 40
24.0
100
AcDbArc
 50
90.0
 51
180.0
  0
ARC
  5
60B9
330
1F
100
AcDbEntity
  8
0
100
AcDbCircle
 10
477.2111302156726
 20
1348.367539158497
 30
0.0
 40
25.0
100
AcDbArc
 50
0.0
 51
180.0
  0
ARC
  5
60BA
330
1F
100
AcDbEntity
  8
0
100
AcDbCircle
 10
477.2111302156726
 20
1348.367539158497
 30
0.0
 40
24.0
100
AcDbArc
 50
0.0
 51
90.0
  0
LINE
  5
60BE
330
1F
100
AcDbEntity
  8
0
100
AcDbLine
 10
500.8754493480712
 20
1352.367539158497
 30
0.0
 11
487.4580809816321
 21
1352.367539158497
 31
0.0
  0
LINE
  5
60C3
330
1F
100
AcDbEntity
  8
0
100
AcDbLine
 10
627.5835512381936
 20
1376.263985767904
 30
0.0
 11
627.583551238194
 21
1348.367539158497
 31
0.0
  0
ARC
  5
60C4
330
1F
100
AcDbEntity
  8
0
100
AcDbCircle
 10
631.3335512381936
 20
1372.367539158497
 30
0.0
 40
4.0
100
AcDbArc
 50
270.0
 51
0.0
  0
LINE
  5
60C8
330
1F
100
AcDbEntity
  8
0
100
AcDbLine
 10
631.3335512381936
 20
1368.367539158497
 30
0.0
 11
627.5835512381937
 21
1368.367539158497
 31
0.0
  0
LINE
  5
60C9
330
1F
100
AcDbEntity
  8
0
100
AcDbLine
 10
635.3335512381936
 20
1372.367539158497
 30
0.0
 11
635.3335512381936
 21
1377.117539158497
 31
0.0
  0
LINE
  5
60CA
330
1F
100
AcDbEntity
  8
0
100
AcDbLine
 10
628.4371046287869
 20
1377.117539158497
 30
0.0
 11
627.5835512381936
 21
1376.263985767904
 31
0.0
  0
LINE
  5
60CB
330
1F
100
AcDbEntity
  8
0
100
AcDbLine
 10
628.4371046287869
 20
1377.117539158497
 30
0.0
 11
639.483551238194
 21
1377.117539158497
 31
0.0
  0
LINE
  5
60CC
330
1F
100
AcDbEntity
  8
0
100
AcDbLine
 10
642.1835512381939
 20
1377.117539158497
 30
0.0
 11
647.483551238194
 21
1377.117539158497
 31
0.0
  0
LINE
  5
60CD
330
1F
100
AcDbEntity
  8
0
100
AcDbLine
 10
650.1835512381939
 20
1377.117539158497
 30
0.0
 11
659.2299978476007
 21
1377.117539158497
 31
0.0
  0
LINE
  5
60CE
330
1F
100
AcDbEntity
  8
0
100
AcDbLine
 10
660.0835512381938
 20
1376.263985767904
 30
0.0
 11
659.2299978476007
 21
1377.117539158497
 31
0.0
  0
LINE
  5
60CF
330
1F
100
AcDbEntity
  8
0
100
AcDbLine
 10
660.0835512381938
 20
1376.263985767904
 30
0.0
 11
660.0835512381937
 21
1348.367539158497
 31
0.0
  0
LINE
  5
60D0
330
1F
100
AcDbEntity
  8
0
100
AcDbLine
 10
656.3335512381938
 20
1352.367539158497
 30
0.0
 11
660.0835512381937
 21
1352.367539158497
 31
0.0
  0
LINE
  5
60D1
330
1F
100
AcDbEntity
  8
0
100
AcDbLine
 10
656.3335512381939
 20
1360.367539158497
 30
0.0
 11
660.0835512381938
 21
1360.367539158497
 31
0.0
  0
ARC
  5
60D4
330
1F
100
AcDbEntity
  8
0
100
AcDbCircle
 10
656.3335512381939
 20
1356.367539158497
 30
0.0
 40
3.6
100
AcDbArc
 50
183.9647407944227
 51
146.4426902380888
  0
CIRCLE
  5
60D6
330
1F
100
AcDbEntity
  8
0
100
AcDbCircle
 10
644.8335512381938
 20
1361.367539158497
 30
0.0
 40
8.25
  0
ARC
  5
60D7
330
1F
100
AcDbEntity
  8
0
100
AcDbCircle
 10
656.3335512381939
 20
1356.367539158497
 30
0.0
 40
4.0
100
AcDbArc
 50
186.7320454628453
 51
270.0
  0
ARC
  5
60E2
330
1F
100
AcDbEntity
  8
0
100
AcDbCircle
 10
656.3335512381939
 20
1356.367539158497
 30
0.0
 40
4.0
100
AcDbArc
 50
90.0
 51
138.5903778907324
  0
POLYLINE
  5
60E3
330
1F
100
AcDbEntity
  8
0
100
AcDb2dPolyline
 66
     1
 10
0.0
 20
0.0
 30
0.0
 70
     1
  0
VERTEX
  5
60E4
330
60E3
100
AcDbEntity
  8
0
100
AcDbVertex
100
AcDb2dVertex
 10
655.4675258344093
 20
1357.867539158497
 30
0.0
  0
VERTEX
  5
60E5
330
60E3
100
AcDbEntity
  8
0
100
AcDbVertex
100
AcDb2dVertex
 10
654.601500430625
 20
1356.367539158497
 30
0.0
  0
VERTEX
  5
60E6
330
60E3
100
AcDbEntity
  8
0
100
AcDbVertex
100
AcDb2dVertex
 10
655.4675258344093
 20
1354.867539158497
 30
0.0
  0
VERTEX
  5
60E7
330
60E3
100
AcDbEntity
  8
0
100
AcDbVertex
100
AcDb2dVertex
 10
657.1995766419783
 20
1354.867539158497
 30
0.0
  0
VERTEX
  5
60E8
330
60E3
100
AcDbEntity
  8
0
100
AcDbVertex
100
AcDb2dVertex
 10
658.0656020457626
 20
1356.367539158497
 30
0.0
  0
VERTEX
  5
60E9
330
60E3
100
AcDbEntity
  8
0
100
AcDbVertex
100
AcDb2dVertex
 10
657.1995766419783
 20
1357.867539158497
 30
0.0
  0
SEQEND
  5
60EA
330
60E3
100
AcDbEntity
  8
0
  0
POLYLINE
  5
60EB
330
1F
100
AcDbEntity
  8
0
100
AcDb2dPolyline
 66
     1
 10
0.0
 20
0.0
 30
0.0
 70
     1
  0
VERTEX
  5
60EC
330
60EB
100
AcDbEntity
  8
0
100
AcDbVertex
100
AcDb2dVertex
 10
636.3335512381938
 20
1356.460061870385
 30
0.0
  0
VERTEX
  5
60ED
330
60EB
100
AcDbEntity
  8
0
100
AcDbVertex
100
AcDb2dVertex
 10
644.8335512381937
 20
1351.552584582274
 30
0.0
  0
VERTEX
  5
60EE
330
60EB
100
AcDbEntity
  8
0
100
AcDbVertex
100
AcDb2dVertex
 10
653.3335512381938
 20
1356.460061870385
 30
0.0
  0
VERTEX
  5
60EF
330
60EB
100
AcDbEntity
  8
0
100
AcDbVertex
100
AcDb2dVertex
 10
653.3335512381938
 20
1366.275016446609
 30
0.0
  0
VERTEX
  5
60F0
330
60EB
100
AcDbEntity
  8
0
100
AcDbVertex
100
AcDb2dVertex
 10
644.8335512381938
 20
1371.182493734721
 30
0.0
  0
VERTEX
  5
60F1
330
60EB
100
AcDbEntity
  8
0
100
AcDbVertex
100
AcDb2dVertex
 10
636.3335512381938
 20
1366.275016446609
 30
0.0
  0
SEQEND
  5
60F2
330
60EB
100
AcDbEntity
  8
0
  0
LINE
  5
60F5
330
1F
100
AcDbEntity
  8
0
  6
HIDDEN
 62
     3
 48
0.2
100
AcDbLine
 10
616.3335512381938
 20
1337.367539158497
 30
0.0
 11
616.3335512381938
 21
1344.367539158497
 31
0.0
  0
LINE
  5
60F6
330
1F
100
AcDbEntity
  8
0
  6
HIDDEN
 62
     3
 48
0.2
100
AcDbLine
 10
618.1335512381938
 20
1337.367539158497
 30
0.0
 11
618.1335512381938
 21
1359.367539158497
 31
0.0
  0
LINE
  5
60F7
330
1F
100
AcDbEntity
  8
0
  6
HIDDEN
 62
     3
 48
0.2
100
AcDbLine
 10
616.3335512381938
 20
1336.367539158497
 30
0.0
 11
616.3335512381938
 21
1344.367539158497
 31
0.0
  0
LINE
  5
60F8
330
1F
100
AcDbEntity
  8
0
  6
HIDDEN
 62
     3
 48
0.2
100
AcDbLine
 10
613.3335512381939
 20
1336.367539158497
 30
0.0
 11
616.333551238194
 21
1336.367539158497
 31
0.0
  0
LINE
  5
60F9
330
1F
100
AcDbEntity
  8
0
  6
HIDDEN
 62
     3
 48
0.2
100
AcDbLine
 10
616.3335512381938
 20
1337.367539158497
 30
0.0
 11
618.1335512381938
 21
1337.367539158497
 31
0.0
  0
LINE
  5
6279
330
1F
100
AcDbEntity
  8
0
100
AcDbLine
 10
427.7111302156726
 20
1368.367539158497
 30
0.0
 11
423.2111302156726
 21
1368.367539158497
 31
0.0
  0
LINE
  5
627A
330
1F
100
AcDbEntity
  8
0
100
AcDbLine
 10
427.7111302156726
 20
1368.767539158497
 30
0.0
 11
424.0111302156725
 21
1368.767539158497
 31
0.0
  0
LINE
  5
627B
330
1F
100
AcDbEntity
  8
0
100
AcDbLine
 10
427.7111302156726
 20
1375.967539158497
 30
0.0
 11
424.0111302156726
 21
1375.967539158497
 31
0.0
  0
LINE
  5
627C
330
1F
100
AcDbEntity
  8
0
100
AcDbLine
 10
423.7111302156725
 20
1375.667539158497
 30
0.0
 11
423.7111302156725
 21
1369.067539158497
 31
0.0
  0
LINE
  5
627D
330
1F
100
AcDbEntity
  8
0
100
AcDbLine
 10
423.7111302156725
 20
1375.667539158497
 30
0.0
 11
424.0111302156726
 21
1375.967539158497
 31
0.0
  0
LINE
  5
627E
330
1F
100
AcDbEntity
  8
0
100
AcDbLine
 10
423.7111302156725
 20
1369.067539158497
 30
0.0
 11
424.0111302156726
 21
1368.767539158497
 31
0.0
  0
LINE
  5
627F
330
1F
100
AcDbEntity
  8
0
100
AcDbLine
 10
427.7111302156726
 20
1377.117539158497
 30
0.0
 11
427.7111302156726
 21
1368.367539158497
 31
0.0
  0
LINE
  5
6280
330
1F
100
AcDbEntity
  8
0
100
AcDbLine
 10
526.7111302156727
 20
1368.367539158497
 30
0.0
 11
531.2111302156726
 21
1368.367539158497
 31
0.0
  0
LINE
  5
6281
330
1F
100
AcDbEntity
  8
0
100
AcDbLine
 10
526.7111302156727
 20
1368.767539158497
 30
0.0
 11
530.4111302156728
 21
1368.767539158497
 31
0.0
  0
LINE
  5
6282
330
1F
100
AcDbEntity
  8
0
100
AcDbLine
 10
526.7111302156727
 20
1375.967539158497
 30
0.0
 11
530.4111302156727
 21
1375.967539158497
 31
0.0
  0
LINE
  5
6283
330
1F
100
AcDbEntity
  8
0
100
AcDbLine
 10
526.7111302156727
 20
1377.117539158497
 30
0.0
 11
526.7111302156727
 21
1368.367539158497
 31
0.0
  0
LINE
  5
6284
330
1F
100
AcDbEntity
  8
0
100
AcDbLine
 10
530.7111302156727
 20
1375.667539158497
 30
0.0
 11
530.7111302156727
 21
1369.067539158497
 31
0.0
  0
LINE
  5
6285
330
1F
100
AcDbEntity
  8
0
100
AcDbLine
 10
530.7111302156727
 20
1375.667539158497
 30
0.0
 11
530.4111302156727
 21
1375.967539158497
 31
0.0
  0
LINE
  5
6286
330
1F
100
AcDbEntity
  8
0
100
AcDbLine
 10
530.7111302156727
 20
1369.067539158497
 30
0.0
 11
530.4111302156727
 21
1368.767539158497
 31
0.0
  0
LINE
  5
6287
330
1F
100
AcDbEntity
  8
0
100
AcDbLine
 10
630.4675258344091
 20
1322.867539158497
 30
0.0
 11
629.6015004306247
 21
1324.367539158497
 31
0.0
  0
LINE
  5
6288
330
1F
100
AcDbEntity
  8
0
100
AcDbLine
 10
629.6015004306247
 20
1324.367539158497
 30
0.0
 11
630.4675258344091
 21
1325.867539158497
 31
0.0
  0
LINE
  5
6289
330
1F
100
AcDbEntity
  8
0
100
AcDbLine
 10
630.4675258344091
 20
1325.867539158497
 30
0.0
 11
632.1995766419781
 21
1325.867539158497
 31
0.0
  0
LINE
  5
628A
330
1F
100
AcDbEntity
  8
0
100
AcDbLine
 10
632.1995766419781
 20
1325.867539158497
 30
0.0
 11
633.0656020457625
 21
1324.367539158497
 31
0.0
  0
LINE
  5
628B
330
1F
100
AcDbEntity
  8
0
100
AcDbLine
 10
633.0656020457625
 20
1324.367539158497
 30
0.0
 11
632.1995766419779
 21
1322.867539158497
 31
0.0
  0
LINE
  5
628C
330
1F
100
AcDbEntity
  8
0
100
AcDbLine
 10
632.1995766419779
 20
1322.867539158497
 30
0.0
 11
630.4675258344091
 21
1322.867539158497
 31
0.0
  0
CIRCLE
  5
6290
330
1F
100
AcDbEntity
  8
0
100
AcDbCircle
 10
631.3335512381935
 20
1324.367539158497
 30
0.0
 40
3.6
  0
POLYLINE
  5
6292
330
1F
100
AcDbEntity
  8
0
100
AcDb2dPolyline
 66
     1
 10
0.0
 20
0.0
 30
0.0
 70
     1
  0
VERTEX
  5
6293
330
6292
100
AcDbEntity
  8
0
100
AcDbVertex
100
AcDb2dVertex
 10
630.4675258344092
 20
1373.867539158497
 30
0.0
  0
VERTEX
  5
6294
330
6292
100
AcDbEntity
  8
0
100
AcDbVertex
100
AcDb2dVertex
 10
629.6015004306248
 20
1372.367539158497
 30
0.0
  0
VERTEX
  5
6295
330
6292
100
AcDbEntity
  8
0
100
AcDbVertex
100
AcDb2dVertex
 10
630.4675258344092
 20
1370.867539158497
 30
0.0
  0
VERTEX
  5
6296
330
6292
100
AcDbEntity
  8
0
100
AcDbVertex
100
AcDb2dVertex
 10
632.1995766419782
 20
1370.867539158497
 30
0.0
  0
VERTEX
  5
6297
330
6292
100
AcDbEntity
  8
0
100
AcDbVertex
100
AcDb2dVertex
 10
633.0656020457625
 20
1372.367539158497
 30
0.0
  0
VERTEX
  5
6298
330
6292
100
AcDbEntity
  8
0
100
AcDbVertex
100
AcDb2dVertex
 10
632.1995766419782
 20
1373.867539158497
 30
0.0
  0
SEQEND
  5
6299
330
6292
100
AcDbEntity
  8
0
  0
CIRCLE
  5
629D
330
1F
100
AcDbEntity
  8
0
100
AcDbCircle
 10
631.3335512381936
 20
1372.367539158497
 30
0.0
 40
3.6
  0
LINE
  5
62AB
330
1F
100
AcDbEntity
  8
AM_7
  6
AM_ISO08W050x2
100
AcDbLine
 10
532.7111302156728
 20
1228.051263221501
 30
0.0
 11
523.950172669417
 21
1228.051263221501
 31
0.0
1001
GENIUS_GENOBJ-N-CEN_13
1002
{
1000
OWNER
1000
GEN
1002
}
1001
GENIUS_GENODEF_13
1002
{
1000
HIER
1070
     0
1002
}
1002
{
1000
MANEDIT
1070
     0
1002
}
1002
{
1000
NOSEL
1070
     0
1002
}
1002
{
1000
BEHIND
1070
     0
1002
}
1002
{
1000
OTHER
1070
     0
1002
}
1002
{
1000
REACTOR
1002
}
1001
GENIUS_GENCEN_19
1002
{
1040
2.0
1002
}
  0
LINE
  5
62C5
330
1F
100
AcDbEntity
  8
AM_7
  6
AM_ISO08W050x2
100
AcDbLine
 10
421.7111302156726
 20
1228.051263221501
 30
0.0
 11
429.518507433213
 21
1228.051263221501
 31
0.0
1001
GENIUS_GENODEF_13
1002
{
1000
HIER
1070
     0
1002
}
1002
{
1000
MANEDIT
1070
     0
1002
}
1002
{
1000
NOSEL
1070
     0
1002
}
1002
{
1000
BEHIND
1070
     0
1002
}
1002
{
1000
OTHER
1070
     0
1002
}
1002
{
1000
REACTOR
1002
}
1001
GENIUS_GENOBJ-N-CEN_13
1002
{
1000
OWNER
1000
GEN
1002
}
1001
GENIUS_GENCEN_19
1002
{
1040
2.0
1002
}
  0
LINE
  5
62D2
330
1F
100
AcDbEntity
  8
AM_7
  6
AM_ISO08W050x2
100
AcDbLine
 10
421.7111302156726
 20
1324.367539158497
 30
0.0
 11
429.6348287625069
 21
1324.367539158497
 31
0.0
1001
GENIUS_GENODEF_13
1002
{
1000
HIER
1070
     0
1002
}
1002
{
1000
MANEDIT
1070
     0
1002
}
1002
{
1000
NOSEL
1070
     0
1002
}
1002
{
1000
BEHIND
1070
     0
1002
}
1002
{
1000
OTHER
1070
     0
1002
}
1002
{
1000
REACTOR
1002
}
1001
GENIUS_GENOBJ-N-CEN_13
1002
{
1000
OWNER
1000
GEN
1002
}
1001
GENIUS_GENCEN_19
1002
{
1040
2.0
1002
}
  0
LINE
  5
62DF
330
1F
100
AcDbEntity
  8
AM_7
  6
AM_ISO08W050x2
100
AcDbLine
 10
421.7111302156726
 20
1372.367539158497
 30
0.0
 11
429.7875606108109
 21
1372.367539158497
 31
0.0
1001
GENIUS_GENODEF_13
1002
{
1000
HIER
1070
     0
1002
}
1002
{
1000
MANEDIT
1070
     0
1002
}
1002
{
1000
NOSEL
1070
     0
1002
}
1002
{
1000
BEHIND
1070
     0
1002
}
1002
{
1000
OTHER
1070
     0
1002
}
1002
{
1000
REACTOR
1002
}
1001
GENIUS_GENOBJ-N-CEN_13
1002
{
1000
OWNER
1000
GEN
1002
}
1001
GENIUS_GENCEN_19
1002
{
1040
2.0
1002
}
  0
LINE
  5
62E0
330
1F
100
AcDbEntity
  8
AM_7
  6
AM_ISO08W050x2
100
AcDbLine
 10
532.7111302156728
 20
1324.367539158497
 30
0.0
 11
524.7874316688385
 21
1324.367539158497
 31
0.0
1001
GENIUS_GENODEF_13
1002
{
1000
HIER
1070
     0
1002
}
1002
{
1000
MANEDIT
1070
     0
1002
}
1002
{
1000
NOSEL
1070
     0
1002
}
1002
{
1000
BEHIND
1070
     0
1002
}
1002
{
1000
OTHER
1070
     0
1002
}
1002
{
1000
REACTOR
1002
}
1001
GENIUS_GENOBJ-N-CEN_13
1002
{
1000
OWNER
1000
GEN
1002
}
1001
GENIUS_GENCEN_19
1002
{
1040
2.0
1002
}
  0
LINE
  5
62E1
330
1F
100
AcDbEntity
  8
AM_7
  6
AM_ISO08W050x2
100
AcDbLine
 10
532.7111302156728
 20
1372.367539158497
 30
0.0
 11
524.6346998205345
 21
1372.367539158497
 31
0.0
1001
GENIUS_GENODEF_13
1002
{
1000
HIER
1070
     0
1002
}
1002
{
1000
MANEDIT
1070
     0
1002
}
1002
{
1000
NOSEL
1070
     0
1002
}
1002
{
1000
BEHIND
1070
     0
1002
}
1002
{
1000
OTHER
1070
     0
1002
}
1002
{
1000
REACTOR
1002
}
1001
GENIUS_GENOBJ-N-CEN_13
1002
{
1000
OWNER
1000
GEN
1002
}
1001
GENIUS_GENCEN_19
1002
{
1040
2.0
1002
}
  0
LINE
  5
62F0
330
1F
100
AcDbEntity
  8
AM_7
100
AcDbLine
 10
477.2111302156726
 20
1348.367539158497
 30
0.0
 11
534.4198795622387
 21
1348.367539158497
 31
0.0
1001
GENIUS_GENOREF_13
1005
62F4
  0
LINE
  5
62F1
330
1F
100
AcDbEntity
  8
AM_7
100
AcDbLine
 10
477.2111302156726
 20
1348.367539158497
 30
0.0
 11
477.2111302156726
 21
1379.367539158497
 31
0.0
1001
GENIUS_GENOREF_13
1005
62F4
  0
LINE
  5
62F2
330
1F
100
AcDbEntity
  8
AM_7
100
AcDbLine
 10
477.2111302156726
 20
1348.367539158497
 30
0.0
 11
420.7722530346736
 21
1348.367539158497
 31
0.0
1001
GENIUS_GENOREF_13
1005
62F4
  0
LINE
  5
62F3
330
1F
100
AcDbEntity
  8
AM_7
100
AcDbLine
 10
477.2111302156726
 20
1348.367539158497
 30
0.0
 11
477.2111302156726
 21
1317.367539158497
 31
0.0
1001
GENIUS_GENOREF_13
1005
62F4
  0
POINT
  5
62F4
330
1F
100
AcDbEntity
  8
0
 60
     1
100
AcDbPoint
 10
0.0
 20
0.0
 30
0.0
1001
GENIUS_GENODEF_13
1002
{
1000
HIER
1070
    10
1002
}
1002
{
1000
MANEDIT
1070
     0
1002
}
1002
{
1000
NOSEL
1070
     0
1002
}
1002
{
1000
BEHIND
1070
     0
1002
}
1002
{
1000
OTHER
1070
     0
1002
}
1002
{
1000
REACTOR
1002
}
1001
GENIUS_GENOLIS_13
1002
{
1000
ENT
1005
62F3
1005
62F2
1005
62F1
1005
62F0
1002
}
1001
GENIUS_GENOBJ-N-CRS_13
1002
{
1000
OWNER
1000
GEN
1002
}
1001
GENIUS_GENOENT_13
1002
{
1000
MYREF
1005
62F4
1002
}
1002
{
1000
GRP
1005
0
1002
}
  0
LINE
  5
6302
330
1F
100
AcDbEntity
  8
AM_7
  6
AM_ISO08W050x2
100
AcDbLine
 10
365.3373698633285
 20
1372.367539158497
 30
0.0
 11
370.9373698633285
 21
1372.367539158497
 31
0.0
1001
GENIUS_GENOREF_13
1005
6306
  0
LINE
  5
6303
330
1F
100
AcDbEntity
  8
AM_7
  6
AM_ISO08W050x2
100
AcDbLine
 10
365.3373698633285
 20
1372.367539158497
 30
0.0
 11
365.3373698633285
 21
1377.967539158497
 31
0.0
1001
GENIUS_GENOREF_13
1005
6306
  0
LINE
  5
6304
330
1F
100
AcDbEntity
  8
AM_7
  6
AM_ISO08W050x2
100
AcDbLine
 10
365.3373698633285
 20
1372.367539158497
 30
0.0
 11
359.7373698633285
 21
1372.367539158497
 31
0.0
1001
GENIUS_GENOREF_13
1005
6306
  0
LINE
  5
6305
330
1F
100
AcDbEntity
  8
AM_7
  6
AM_ISO08W050x2
100
AcDbLine
 10
365.3373698633285
 20
1372.367539158497
 30
0.0
 11
365.3373698633285
 21
1366.767539158497
 31
0.0
1001
GENIUS_GENOREF_13
1005
6306
  0
POINT
  5
6306
330
1F
100
AcDbEntity
  8
0
 60
     1
100
AcDbPoint
 10
0.0
 20
0.0
 30
0.0
1001
GENIUS_GENOLIS_13
1002
{
1000
ENT
1005
6305
1005
6304
1005
6303
1005
6302
1002
}
1001
GENIUS_GENOENT_13
1002
{
1000
MYREF
1005
6306
1002
}
1002
{
1000
GRP
1005
0
1002
}
1001
GENIUS_GENOBJ-N-CRS_13
1002
{
1000
OWNER
1000
GEN
1002
}
1001
GENIUS_GENODEF_13
1002
{
1000
HIER
1070
    10
1002
}
1002
{
1000
MANEDIT
1070
     0
1002
}
1002
{
1000
NOSEL
1070
     0
1002
}
1002
{
1000
BEHIND
1070
     0
1002
}
1002
{
1000
OTHER
1070
     0
1002
}
1002
{
1000
REACTOR
1002
}
  0
LINE
  5
6314
330
1F
100
AcDbEntity
  8
AM_7
  6
AM_ISO08W050x2
100
AcDbLine
 10
340.3373698633282
 20
1356.367539158497
 30
0.0
 11
345.9373698633283
 21
1356.367539158497
 31
0.0
1001
GENIUS_GENOREF_13
1005
6318
  0
LINE
  5
6315
330
1F
100
AcDbEntity
  8
AM_7
  6
AM_ISO08W050x2
100
AcDbLine
 10
340.3373698633282
 20
1356.367539158497
 30
0.0
 11
340.3373698633282
 21
1361.967539158497
 31
0.0
1001
GENIUS_GENOREF_13
1005
6318
  0
LINE
  5
6316
330
1F
100
AcDbEntity
  8
AM_7
  6
AM_ISO08W050x2
100
AcDbLine
 10
340.3373698633282
 20
1356.367539158497
 30
0.0
 11
334.7373698633282
 21
1356.367539158497
 31
0.0
1001
GENIUS_GENOREF_13
1005
6318
  0
LINE
  5
6317
330
1F
100
AcDbEntity
  8
AM_7
  6
AM_ISO08W050x2
100
AcDbLine
 10
340.3373698633282
 20
1356.367539158497
 30
0.0
 11
340.3373698633282
 21
1350.767539158497
 31
0.0
1001
GENIUS_GENOREF_13
1005
6318
  0
POINT
  5
6318
330
1F
100
AcDbEntity
  8
0
 60
     1
100
AcDbPoint
 10
0.0
 20
0.0
 30
0.0
1001
GENIUS_GENOLIS_13
1002
{
1000
ENT
1005
6317
1005
6316
1005
6315
1005
6314
1002
}
1001
GENIUS_GENOBJ-N-CRS_13
1002
{
1000
OWNER
1000
GEN
1002
}
1001
GENIUS_GENOENT_13
1002
{
1000
MYREF
1005
6318
1002
}
1002
{
1000
GRP
1005
0
1002
}
1001
GENIUS_GENODEF_13
1002
{
1000
HIER
1070
    10
1002
}
1002
{
1000
MANEDIT
1070
     0
1002
}
1002
{
1000
NOSEL
1070
     0
1002
}
1002
{
1000
BEHIND
1070
     0
1002
}
1002
{
1000
OTHER
1070
     0
1002
}
1002
{
1000
REACTOR
1002
}
  0
LINE
  5
6326
330
1F
100
AcDbEntity
  8
AM_7
  6
AM_ISO08W050x2
100
AcDbLine
 10
340.3373698633282
 20
1340.367539158497
 30
0.0
 11
345.9373698633282
 21
1340.367539158497
 31
0.0
1001
GENIUS_GENOREF_13
1005
632A
  0
LINE
  5
6327
330
1F
100
AcDbEntity
  8
AM_7
  6
AM_ISO08W050x2
100
AcDbLine
 10
340.3373698633282
 20
1340.367539158497
 30
0.0
 11
340.3373698633282
 21
1345.967539158497
 31
0.0
1001
GENIUS_GENOREF_13
1005
632A
  0
LINE
  5
6328
330
1F
100
AcDbEntity
  8
AM_7
  6
AM_ISO08W050x2
100
AcDbLine
 10
340.3373698633282
 20
1340.367539158497
 30
0.0
 11
334.7373698633282
 21
1340.367539158497
 31
0.0
1001
GENIUS_GENOREF_13
1005
632A
  0
LINE
  5
6329
330
1F
100
AcDbEntity
  8
AM_7
  6
AM_ISO08W050x2
100
AcDbLine
 10
340.3373698633282
 20
1340.367539158497
 30
0.0
 11
340.3373698633282
 21
1334.767539158497
 31
0.0
1001
GENIUS_GENOREF_13
1005
632A
  0
POINT
  5
632A
330
1F
100
AcDbEntity
  8
0
 60
     1
100
AcDbPoint
 10
0.0
 20
0.0
 30
0.0
1001
GENIUS_GENODEF_13
1002
{
1000
HIER
1070
    10
1002
}
1002
{
1000
MANEDIT
1070
     0
1002
}
1002
{
1000
NOSEL
1070
     0
1002
}
1002
{
1000
BEHIND
1070
     0
1002
}
1002
{
1000
OTHER
1070
     0
1002
}
1002
{
1000
REACTOR
1002
}
1001
GENIUS_GENOLIS_13
1002
{
1000
ENT
1005
6329
1005
6328
1005
6327
1005
6326
1002
}
1001
GENIUS_GENOENT_13
1002
{
1000
MYREF
1005
632A
1002
}
1002
{
1000
GRP
1005
0
1002
}
1001
GENIUS_GENOBJ-N-CRS_13
1002
{
1000
OWNER
1000
GEN
1002
}
  0
LINE
  5
6338
330
1F
100
AcDbEntity
  8
AM_7
  6
AM_ISO08W050x2
100
AcDbLine
 10
365.3373698633283
 20
1324.367539158497
 30
0.0
 11
370.9373698633283
 21
1324.367539158497
 31
0.0
1001
GENIUS_GENOREF_13
1005
633C
  0
LINE
  5
6339
330
1F
100
AcDbEntity
  8
AM_7
  6
AM_ISO08W050x2
100
AcDbLine
 10
365.3373698633283
 20
1324.367539158497
 30
0.0
 11
365.3373698633283
 21
1329.967539158497
 31
0.0
1001
GENIUS_GENOREF_13
1005
633C
  0
LINE
  5
633A
330
1F
100
AcDbEntity
  8
AM_7
  6
AM_ISO08W050x2
100
AcDbLine
 10
365.3373698633283
 20
1324.367539158497
 30
0.0
 11
359.7373698633283
 21
1324.367539158497
 31
0.0
1001
GENIUS_GENOREF_13
1005
633C
  0
LINE
  5
633B
330
1F
100
AcDbEntity
  8
AM_7
  6
AM_ISO08W050x2
100
AcDbLine
 10
365.3373698633283
 20
1324.367539158497
 30
0.0
 11
365.3373698633283
 21
1318.767539158497
 31
0.0
1001
GENIUS_GENOREF_13
1005
633C
  0
POINT
  5
633C
330
1F
100
AcDbEntity
  8
0
 60
     1
100
AcDbPoint
 10
0.0
 20
0.0
 30
0.0
1001
GENIUS_GENOENT_13
1002
{
1000
MYREF
1005
633C
1002
}
1002
{
1000
GRP
1005
0
1002
}
1001
GENIUS_GENOBJ-N-CRS_13
1002
{
1000
OWNER
1000
GEN
1002
}
1001
GENIUS_GENOLIS_13
1002
{
1000
ENT
1005
633B
1005
633A
1005
6339
1005
6338
1002
}
1001
GENIUS_GENODEF_13
1002
{
1000
HIER
1070
    10
1002
}
1002
{
1000
MANEDIT
1070
     0
1002
}
1002
{
1000
NOSEL
1070
     0
1002
}
1002
{
1000
BEHIND
1070
     0
1002
}
1002
{
1000
OTHER
1070
     0
1002
}
1002
{
1000
REACTOR
1002
}
  0
LINE
  5
634A
330
1F
100
AcDbEntity
  8
AM_7
  6
AM_ISO08W050x2
100
AcDbLine
 10
446.2111302156727
 20
1348.367539158497
 30
0.0
 11
453.7111302156729
 21
1348.367539158497
 31
0.0
1001
GENIUS_GENOREF_13
1005
634E
  0
LINE
  5
634B
330
1F
100
AcDbEntity
  8
AM_7
  6
AM_ISO08W050x2
100
AcDbLine
 10
446.2111302156727
 20
1348.367539158497
 30
0.0
 11
446.2111302156727
 21
1355.867539158497
 31
0.0
1001
GENIUS_GENOREF_13
1005
634E
  0
LINE
  5
634C
330
1F
100
AcDbEntity
  8
AM_7
  6
AM_ISO08W050x2
100
AcDbLine
 10
446.2111302156727
 20
1348.367539158497
 30
0.0
 11
438.7111302156724
 21
1348.367539158497
 31
0.0
1001
GENIUS_GENOREF_13
1005
634E
  0
LINE
  5
634D
330
1F
100
AcDbEntity
  8
AM_7
  6
AM_ISO08W050x2
100
AcDbLine
 10
446.2111302156727
 20
1348.367539158497
 30
0.0
 11
446.2111302156727
 21
1340.867539158496
 31
0.0
1001
GENIUS_GENOREF_13
1005
634E
  0
POINT
  5
634E
330
1F
100
AcDbEntity
  8
0
 60
     1
100
AcDbPoint
 10
0.0
 20
0.0
 30
0.0
1001
GENIUS_GENODEF_13
1002
{
1000
HIER
1070
    10
1002
}
1002
{
1000
MANEDIT
1070
     0
1002
}
1002
{
1000
NOSEL
1070
     0
1002
}
1002
{
1000
BEHIND
1070
     0
1002
}
1002
{
1000
OTHER
1070
     0
1002
}
1002
{
1000
REACTOR
1002
}
1001
GENIUS_GENOLIS_13
1002
{
1000
ENT
1005
634D
1005
634C
1005
634B
1005
634A
1002
}
1001
GENIUS_GENOENT_13
1002
{
1000
MYREF
1005
634E
1002
}
1002
{
1000
GRP
1005
0
1002
}
1001
GENIUS_GENOBJ-N-CRS_13
1002
{
1000
OWNER
1000
GEN
1002
}
  0
LINE
  5
635C
330
1F
100
AcDbEntity
  8
AM_7
  6
AM_ISO08W050x2
100
AcDbLine
 10
508.2111302156727
 20
1348.367539158497
 30
0.0
 11
515.7111302156727
 21
1348.367539158497
 31
0.0
1001
GENIUS_GENOREF_13
1005
6360
  0
LINE
  5
635D
330
1F
100
AcDbEntity
  8
AM_7
  6
AM_ISO08W050x2
100
AcDbLine
 10
508.2111302156727
 20
1348.367539158497
 30
0.0
 11
508.2111302156727
 21
1355.867539158497
 31
0.0
1001
GENIUS_GENOREF_13
1005
6360
  0
LINE
  5
635E
330
1F
100
AcDbEntity
  8
AM_7
  6
AM_ISO08W050x2
100
AcDbLine
 10
508.2111302156727
 20
1348.367539158497
 30
0.0
 11
500.7111302156727
 21
1348.367539158497
 31
0.0
1001
GENIUS_GENOREF_13
1005
6360
  0
LINE
  5
635F
330
1F
100
AcDbEntity
  8
AM_7
  6
AM_ISO08W050x2
100
AcDbLine
 10
508.2111302156727
 20
1348.367539158497
 30
0.0
 11
508.2111302156727
 21
1340.867539158497
 31
0.0
1001
GENIUS_GENOREF_13
1005
6360
  0
POINT
  5
6360
330
1F
100
AcDbEntity
  8
0
 60
     1
100
AcDbPoint
 10
0.0
 20
0.0
 30
0.0
1001
GENIUS_GENOENT_13
1002
{
1000
MYREF
1005
6360
1002
}
1002
{
1000
GRP
1005
0
1002
}
1001
GENIUS_GENODEF_13
1002
{
1000
HIER
1070
    10
1002
}
1002
{
1000
MANEDIT
1070
     0
1002
}
1002
{
1000
NOSEL
1070
     0
1002
}
1002
{
1000
BEHIND
1070
     0
1002
}
1002
{
1000
OTHER
1070
     0
1002
}
1002
{
1000
REACTOR
1002
}
1001
GENIUS_GENOBJ-N-CRS_13
1002
{
1000
OWNER
1000
GEN
1002
}
1001
GENIUS_GENOLIS_13
1002
{
1000
ENT
1005
635F
1005
635E
1005
635D
1005
635C
1002
}
  0
LINE
  5
636E
330
1F
100
AcDbEntity
  8
AM_7
  6
AM_ISO08W050x2
100
AcDbLine
 10
631.3335512381936
 20
1372.367539158497
 30
0.0
 11
636.9335512381937
 21
1372.367539158497
 31
0.0
1001
GENIUS_GENOREF_13
1005
6372
  0
LINE
  5
636F
330
1F
100
AcDbEntity
  8
AM_7
  6
AM_ISO08W050x2
100
AcDbLine
 10
631.3335512381936
 20
1372.367539158497
 30
0.0
 11
631.3335512381936
 21
1377.967539158497
 31
0.0
1001
GENIUS_GENOREF_13
1005
6372
  0
LINE
  5
6370
330
1F
100
AcDbEntity
  8
AM_7
  6
AM_ISO08W050x2
100
AcDbLine
 10
631.3335512381936
 20
1372.367539158497
 30
0.0
 11
625.7335512381936
 21
1372.367539158497
 31
0.0
1001
GENIUS_GENOREF_13
1005
6372
  0
LINE
  5
6371
330
1F
100
AcDbEntity
  8
AM_7
  6
AM_ISO08W050x2
100
AcDbLine
 10
631.3335512381936
 20
1372.367539158497
 30
0.0
 11
631.3335512381936
 21
1366.767539158497
 31
0.0
1001
GENIUS_GENOREF_13
1005
6372
  0
POINT
  5
6372
330
1F
100
AcDbEntity
  8
0
 60
     1
100
AcDbPoint
 10
0.0
 20
0.0
 30
0.0
1001
GENIUS_GENOENT_13
1002
{
1000
MYREF
1005
6372
1002
}
1002
{
1000
GRP
1005
0
1002
}
1001
GENIUS_GENOBJ-N-CRS_13
1002
{
1000
OWNER
1000
GEN
1002
}
1001
GENIUS_GENOLIS_13
1002
{
1000
ENT
1005
6371
1005
6370
1005
636F
1005
636E
1002
}
1001
GENIUS_GENODEF_13
1002
{
1000
HIER
1070
    10
1002
}
1002
{
1000
MANEDIT
1070
     0
1002
}
1002
{
1000
NOSEL
1070
     0
1002
}
1002
{
1000
BEHIND
1070
     0
1002
}
1002
{
1000
OTHER
1070
     0
1002
}
1002
{
1000
REACTOR
1002
}
  0
LINE
  5
6380
330
1F
100
AcDbEntity
  8
AM_7
  6
AM_ISO08W050x2
100
AcDbLine
 10
631.3335512381935
 20
1324.367539158497
 30
0.0
 11
636.9335512381935
 21
1324.367539158497
 31
0.0
1001
GENIUS_GENOREF_13
1005
6384
  0
LINE
  5
6381
330
1F
100
AcDbEntity
  8
AM_7
  6
AM_ISO08W050x2
100
AcDbLine
 10
631.3335512381935
 20
1324.367539158497
 30
0.0
 11
631.3335512381935
 21
1329.967539158497
 31
0.0
1001
GENIUS_GENOREF_13
1005
6384
  0
LINE
  5
6382
330
1F
100
AcDbEntity
  8
AM_7
  6
AM_ISO08W050x2
100
AcDbLine
 10
631.3335512381935
 20
1324.367539158497
 30
0.0
 11
625.7335512381935
 21
1324.367539158497
 31
0.0
1001
GENIUS_GENOREF_13
1005
6384
  0
LINE
  5
6383
330
1F
100
AcDbEntity
  8
AM_7
  6
AM_ISO08W050x2
100
AcDbLine
 10
631.3335512381935
 20
1324.367539158497
 30
0.0
 11
631.3335512381935
 21
1318.767539158497
 31
0.0
1001
GENIUS_GENOREF_13
1005
6384
  0
POINT
  5
6384
330
1F
100
AcDbEntity
  8
0
 60
     1
100
AcDbPoint
 10
0.0
 20
0.0
 30
0.0
1001
GENIUS_GENOLIS_13
1002
{
1000
ENT
1005
6383
1005
6382
1005
6381
1005
6380
1002
}
1001
GENIUS_GENOENT_13
1002
{
1000
MYREF
1005
6384
1002
}
1002
{
1000
GRP
1005
0
1002
}
1001
GENIUS_GENOBJ-N-CRS_13
1002
{
1000
OWNER
1000
GEN
1002
}
1001
GENIUS_GENODEF_13
1002
{
1000
HIER
1070
    10
1002
}
1002
{
1000
MANEDIT
1070
     0
1002
}
1002
{
1000
NOSEL
1070
     0
1002
}
1002
{
1000
BEHIND
1070
     0
1002
}
1002
{
1000
OTHER
1070
     0
1002
}
1002
{
1000
REACTOR
1002
}
  0
LINE
  5
6392
330
1F
100
AcDbEntity
  8
AM_7
  6
AM_ISO08W050x2
100
AcDbLine
 10
656.3335512381938
 20
1340.367539158497
 30
0.0
 11
661.9335512381938
 21
1340.367539158497
 31
0.0
1001
GENIUS_GENOREF_13
1005
6396
  0
LINE
  5
6393
330
1F
100
AcDbEntity
  8
AM_7
  6
AM_ISO08W050x2
100
AcDbLine
 10
656.3335512381938
 20
1340.367539158497
 30
0.0
 11
656.3335512381938
 21
1345.967539158497
 31
0.0
1001
GENIUS_GENOREF_13
1005
6396
  0
LINE
  5
6394
330
1F
100
AcDbEntity
  8
AM_7
  6
AM_ISO08W050x2
100
AcDbLine
 10
656.3335512381938
 20
1340.367539158497
 30
0.0
 11
650.7335512381937
 21
1340.367539158497
 31
0.0
1001
GENIUS_GENOREF_13
1005
6396
  0
LINE
  5
6395
330
1F
100
AcDbEntity
  8
AM_7
  6
AM_ISO08W050x2
100
AcDbLine
 10
656.3335512381938
 20
1340.367539158497
 30
0.0
 11
656.3335512381938
 21
1334.767539158497
 31
0.0
1001
GENIUS_GENOREF_13
1005
6396
  0
POINT
  5
6396
330
1F
100
AcDbEntity
  8
0
 60
     1
100
AcDbPoint
 10
0.0
 20
0.0
 30
0.0
1001
GENIUS_GENOENT_13
1002
{
1000
MYREF
1005
6396
1002
}
1002
{
1000
GRP
1005
0
1002
}
1001
GENIUS_GENOBJ-N-CRS_13
1002
{
1000
OWNER
1000
GEN
1002
}
1001
GENIUS_GENODEF_13
1002
{
1000
HIER
1070
    10
1002
}
1002
{
1000
MANEDIT
1070
     0
1002
}
1002
{
1000
NOSEL
1070
     0
1002
}
1002
{
1000
BEHIND
1070
     0
1002
}
1002
{
1000
OTHER
1070
     0
1002
}
1002
{
1000
REACTOR
1002
}
1001
GENIUS_GENOLIS_13
1002
{
1000
ENT
1005
6395
1005
6394
1005
6393
1005
6392
1002
}
  0
LINE
  5
63A4
330
1F
100
AcDbEntity
  8
AM_7
  6
AM_ISO08W050x2
100
AcDbLine
 10
656.3335512381939
 20
1356.367539158497
 30
0.0
 11
661.9335512381939
 21
1356.367539158497
 31
0.0
1001
GENIUS_GENOREF_13
1005
63A8
  0
LINE
  5
63A5
330
1F
100
AcDbEntity
  8
AM_7
  6
AM_ISO08W050x2
100
AcDbLine
 10
656.3335512381939
 20
1356.367539158497
 30
0.0
 11
656.3335512381939
 21
1361.967539158497
 31
0.0
1001
GENIUS_GENOREF_13
1005
63A8
  0
LINE
  5
63A6
330
1F
100
AcDbEntity
  8
AM_7
  6
AM_ISO08W050x2
100
AcDbLine
 10
656.3335512381939
 20
1356.367539158497
 30
0.0
 11
650.7335512381938
 21
1356.367539158497
 31
0.0
1001
GENIUS_GENOREF_13
1005
63A8
  0
LINE
  5
63A7
330
1F
100
AcDbEntity
  8
AM_7
  6
AM_ISO08W050x2
100
AcDbLine
 10
656.3335512381939
 20
1356.367539158497
 30
0.0
 11
656.3335512381939
 21
1350.767539158497
 31
0.0
1001
GENIUS_GENOREF_13
1005
63A8
  0
POINT
  5
63A8
330
1F
100
AcDbEntity
  8
0
 60
     1
100
AcDbPoint
 10
0.0
 20
0.0
 30
0.0
1001
GENIUS_GENOLIS_13
1002
{
1000
ENT
1005
63A7
1005
63A6
1005
63A5
1005
63A4
1002
}
1001
GENIUS_GENOENT_13
1002
{
1000
MYREF
1005
63A8
1002
}
1002
{
1000
GRP
1005
0
1002
}
1001
GENIUS_GENOBJ-N-CRS_13
1002
{
1000
OWNER
1000
GEN
1002
}
1001
GENIUS_GENODEF_13
1002
{
1000
HIER
1070
    10
1002
}
1002
{
1000
MANEDIT
1070
     0
1002
}
1002
{
1000
NOSEL
1070
     0
1002
}
1002
{
1000
BEHIND
1070
     0
1002
}
1002
{
1000
OTHER
1070
     0
1002
}
1002
{
1000
REACTOR
1002
}
  0
ARC
  5
63E2
330
1F
100
AcDbEntity
  8
AM_4
100
AcDbCircle
 10
446.2111302156727
 20
1367.367539158497
 30
0.0
 40
2.5
100
AcDbArc
 50
260.0
 51
170.0
  0
CIRCLE
  5
63E3
330
1F
100
AcDbEntity
  8
AM_0
100
AcDbCircle
 10
446.2111302156727
 20
1367.367539158497
 30
0.0
 40
2.066987298107819
  0
LINE
  5
63E4
330
1F
100
AcDbEntity
  8
AM_7
  6
AM_ISO08W050x2
100
AcDbLine
 10
441.7111302156727
 20
1367.367539158497
 30
0.0
 11
450.7111302156727
 21
1367.367539158497
 31
0.0
  0
LINE
  5
63E5
330
1F
100
AcDbEntity
  8
AM_7
  6
AM_ISO08W050x2
100
AcDbLine
 10
446.2111302156727
 20
1362.867539158497
 30
0.0
 11
446.2111302156727
 21
1371.867539158497
 31
0.0
  0
ARC
  5
63EA
330
1F
100
AcDbEntity
  8
AM_4
100
AcDbCircle
 10
446.2111302156727
 20
1329.367539158497
 30
0.0
 40
2.5
100
AcDbArc
 50
260.0
 51
170.0
  0
CIRCLE
  5
63EB
330
1F
100
AcDbEntity
  8
AM_0
100
AcDbCircle
 10
446.2111302156727
 20
1329.367539158497
 30
0.0
 40
2.066987298107819
  0
LINE
  5
63EC
330
1F
100
AcDbEntity
  8
AM_7
  6
AM_ISO08W050x2
100
AcDbLine
 10
441.7111302156727
 20
1329.367539158497
 30
0.0
 11
450.7111302156727
 21
1329.367539158497
 31
0.0
  0
LINE
  5
63ED
330
1F
100
AcDbEntity
  8
AM_7
  6
AM_ISO08W050x2
100
AcDbLine
 10
446.2111302156727
 20
1324.867539158497
 30
0.0
 11
446.2111302156727
 21
1333.867539158497
 31
0.0
  0
ARC
  5
63EE
330
1F
100
AcDbEntity
  8
AM_4
100
AcDbCircle
 10
508.2111302156727
 20
1367.367539158497
 30
0.0
 40
2.5
100
AcDbArc
 50
260.0
 51
170.0
  0
CIRCLE
  5
63EF
330
1F
100
AcDbEntity
  8
AM_0
100
AcDbCircle
 10
508.2111302156727
 20
1367.367539158497
 30
0.0
 40
2.066987298107819
  0
LINE
  5
63F0
330
1F
100
AcDbEntity
  8
AM_7
  6
AM_ISO08W050x2
100
AcDbLine
 10
503.7111302156727
 20
1367.367539158497
 30
0.0
 11
512.7111302156727
 21
1367.367539158497
 31
0.0
  0
LINE
  5
63F1
330
1F
100
AcDbEntity
  8
AM_7
  6
AM_ISO08W050x2
100
AcDbLine
 10
508.2111302156727
 20
1362.867539158497
 30
0.0
 11
508.2111302156727
 21
1371.867539158497
 31
0.0
  0
ARC
  5
63F2
330
1F
100
AcDbEntity
  8
AM_4
100
AcDbCircle
 10
508.2111302156727
 20
1329.367539158497
 30
0.0
 40
2.5
100
AcDbArc
 50
260.0
 51
170.0
  0
CIRCLE
  5
63F3
330
1F
100
AcDbEntity
  8
AM_0
100
AcDbCircle
 10
508.2111302156727
 20
1329.367539158497
 30
0.0
 40
2.066987298107819
  0
LINE
  5
63F4
330
1F
100
AcDbEntity
  8
AM_7
  6
AM_ISO08W050x2
100
AcDbLine
 10
503.7111302156727
 20
1329.367539158497
 30
0.0
 11
512.7111302156727
 21
1329.367539158497
 31
0.0
  0
LINE
  5
63F5
330
1F
100
AcDbEntity
  8
AM_7
  6
AM_ISO08W050x2
100
AcDbLine
 10
508.2111302156727
 20
1324.867539158497
 30
0.0
 11
508.2111302156727
 21
1333.867539158497
 31
0.0
  0
CIRCLE
  5
63F6
330
1F
100
AcDbEntity
  8
0
  6
AM_ISO08W050x2
 62
     4
 48
0.5
100
AcDbCircle
 10
477.2111302156726
 20
1348.367539158497
 30
0.0
 40
19.0
  0
ARC
  5
63F7
330
1F
100
AcDbEntity
  8
AM_4
100
AcDbCircle
 10
490.646159058217
 20
1361.802568001041
 30
0.0
 40
2.5
100
AcDbArc
 50
305.0
 51
215.0
  0
CIRCLE
  5
63F8
330
1F
100
AcDbEntity
  8
AM_0
100
AcDbCircle
 10
490.646159058217
 20
1361.802568001041
 30
0.0
 40
2.066987298107819
  0
LINE
  5
63F9
330
1F
100
AcDbEntity
  8
AM_7
  6
AM_ISO08W050x2
100
AcDbLine
 10
487.4641785428776
 20
1358.620587485702
 30
0.0
 11
493.8281395735566
 21
1364.984548516381
 31
0.0
  0
LINE
  5
63FA
330
1F
100
AcDbEntity
  8
AM_7
  6
AM_ISO08W050x2
100
AcDbLine
 10
493.8281395735566
 20
1358.620587485702
 30
0.0
 11
487.4641785428776
 21
1364.984548516381
 31
0.0
  0
ARC
  5
6407
330
1F
100
AcDbEntity
  8
AM_4
100
AcDbCircle
 10
463.7761013731284
 20
1361.802568001041
 30
0.0
 40
2.5
100
AcDbArc
 50
35.00000000000003
 51
304.9999999999999
  0
CIRCLE
  5
6408
330
1F
100
AcDbEntity
  8
AM_0
100
AcDbCircle
 10
463.7761013731284
 20
1361.802568001041
 30
0.0
 40
2.066987298107819
  0
LINE
  5
6409
330
1F
100
AcDbEntity
  8
AM_7
  6
AM_ISO08W050x2
100
AcDbLine
 10
466.9580818884679
 20
1358.620587485702
 30
0.0
 11
460.5941208577889
 21
1364.984548516381
 31
0.0
  0
LINE
  5
640A
330
1F
100
AcDbEntity
  8
AM_7
  6
AM_ISO08W050x2
100
AcDbLine
 10
466.9580818884679
 20
1364.984548516381
 30
0.0
 11
460.5941208577889
 21
1358.620587485702
 31
0.0
  0
ARC
  5
640B
330
1F
100
AcDbEntity
  8
AM_4
100
AcDbCircle
 10
463.7761013731283
 20
1334.932510315953
 30
0.0
 40
2.5
100
AcDbArc
 50
124.9999999999999
 51
34.99999999999996
  0
CIRCLE
  5
640C
330
1F
100
AcDbEntity
  8
AM_0
100
AcDbCircle
 10
463.7761013731283
 20
1334.932510315953
 30
0.0
 40
2.066987298107819
  0
LINE
  5
640D
330
1F
100
AcDbEntity
  8
AM_7
  6
AM_ISO08W050x2
100
AcDbLine
 10
466.9580818884676
 20
1338.114490831292
 30
0.0
 11
460.5941208577887
 21
1331.750529800613
 31
0.0
  0
LINE
  5
640E
330
1F
100
AcDbEntity
  8
AM_7
  6
AM_ISO08W050x2
100
AcDbLine
 10
460.5941208577887
 20
1338.114490831292
 30
0.0
 11
466.9580818884676
 21
1331.750529800613
 31
0.0
  0
ARC
  5
640F
330
1F
100
AcDbEntity
  8
AM_4
100
AcDbCircle
 10
490.6461590582168
 20
1334.932510315953
 30
0.0
 40
2.5
100
AcDbArc
 50
215.0
 51
124.9999999999999
  0
CIRCLE
  5
6410
330
1F
100
AcDbEntity
  8
AM_0
100
AcDbCircle
 10
490.6461590582168
 20
1334.932510315953
 30
0.0
 40
2.066987298107819
  0
LINE
  5
6411
330
1F
100
AcDbEntity
  8
AM_7
  6
AM_ISO08W050x2
100
AcDbLine
 10
487.4641785428775
 20
1338.114490831292
 30
0.0
 11
493.8281395735564
 21
1331.750529800613
 31
0.0
  0
LINE
  5
6412
330
1F
100
AcDbEntity
  8
AM_7
  6
AM_ISO08W050x2
100
AcDbLine
 10
487.4641785428775
 20
1331.750529800613
 30
0.0
 11
493.8281395735564
 21
1338.114490831292
 31
0.0
  0
ARC
  5
645F
330
1F
100
AcDbEntity
  8
AM_4
100
AcDbCircle
 10
458.2111302156727
 20
1348.367539158497
 30
0.0
 40
1.5
100
AcDbArc
 50
260.0
 51
170.0
  0
CIRCLE
  5
6460
330
1F
100
AcDbEntity
  8
AM_0
100
AcDbCircle
 10
458.2111302156727
 20
1348.367539158497
 30
0.0
 40
1.229367061317389
  0
LINE
  5
6461
330
1F
100
AcDbEntity
  8
AM_7
  6
AM_ISO08W050x2
100
AcDbLine
 10
458.2111302156727
 20
1348.367539158497
 30
0.0
 11
460.4201842290911
 21
1348.367539158497
 31
0.0
1001
GENIUS_GENOREF_13
1005
6465
  0
LINE
  5
6462
330
1F
100
AcDbEntity
  8
AM_7
  6
AM_ISO08W050x2
100
AcDbLine
 10
458.2111302156727
 20
1348.367539158497
 30
0.0
 11
458.2111302156727
 21
1350.576593171916
 31
0.0
1001
GENIUS_GENOREF_13
1005
6465
  0
LINE
  5
6463
330
1F
100
AcDbEntity
  8
AM_7
  6
AM_ISO08W050x2
100
AcDbLine
 10
458.2111302156727
 20
1348.367539158497
 30
0.0
 11
456.0020762022542
 21
1348.367539158497
 31
0.0
1001
GENIUS_GENOREF_13
1005
6465
  0
LINE
  5
6464
330
1F
100
AcDbEntity
  8
AM_7
  6
AM_ISO08W050x2
100
AcDbLine
 10
458.2111302156727
 20
1348.367539158497
 30
0.0
 11
458.2111302156727
 21
1346.158485145079
 31
0.0
1001
GENIUS_GENOREF_13
1005
6465
  0
POINT
  5
6465
330
1F
100
AcDbEntity
  8
0
 60
     1
100
AcDbPoint
 10
30.15210737661892
 20
43.51898007735303
 30
0.0
1001
GENIUS_GENOLIS_13
1002
{
1000
ENT
1005
6464
1005
6463
1005
6462
1005
6461
1002
}
1001
GENIUS_GENOENT_13
1002
{
1000
MYREF
1005
6465
1002
}
1002
{
1000
GRP
1005
0
1002
}
1001
GENIUS_GENODEF_13
1002
{
1000
HIER
1070
    10
1002
}
1002
{
1000
MANEDIT
1070
     0
1002
}
1002
{
1000
NOSEL
1070
     0
1002
}
1002
{
1000
BEHIND
1070
     0
1002
}
1002
{
1000
OTHER
1070
     0
1002
}
1002
{
1000
REACTOR
1002
}
1001
GENIUS_GENOBJ-N-CRS_13
1002
{
1000
OWNER
1000
GEN
1002
}
  0
ARC
  5
6466
330
1F
100
AcDbEntity
  8
AM_4
100
AcDbCircle
 10
496.2111302156727
 20
1348.367539158497
 30
0.0
 40
1.5
100
AcDbArc
 50
260.0
 51
170.0
  0
CIRCLE
  5
6467
330
1F
100
AcDbEntity
  8
AM_0
100
AcDbCircle
 10
496.2111302156727
 20
1348.367539158497
 30
0.0
 40
1.229367061317389
  0
LINE
  5
6468
330
1F
100
AcDbEntity
  8
AM_7
  6
AM_ISO08W050x2
100
AcDbLine
 10
496.2111302156727
 20
1348.367539158497
 30
0.0
 11
498.4201842290911
 21
1348.367539158497
 31
0.0
1001
GENIUS_GENOREF_13
1005
646C
  0
LINE
  5
6469
330
1F
100
AcDbEntity
  8
AM_7
  6
AM_ISO08W050x2
100
AcDbLine
 10
496.2111302156727
 20
1348.367539158497
 30
0.0
 11
496.2111302156727
 21
1350.576593171916
 31
0.0
1001
GENIUS_GENOREF_13
1005
646C
  0
LINE
  5
646A
330
1F
100
AcDbEntity
  8
AM_7
  6
AM_ISO08W050x2
100
AcDbLine
 10
496.2111302156727
 20
1348.367539158497
 30
0.0
 11
494.0020762022542
 21
1348.367539158497
 31
0.0
1001
GENIUS_GENOREF_13
1005
646C
  0
LINE
  5
646B
330
1F
100
AcDbEntity
  8
AM_7
  6
AM_ISO08W050x2
100
AcDbLine
 10
496.2111302156727
 20
1348.367539158497
 30
0.0
 11
496.2111302156727
 21
1346.158485145079
 31
0.0
1001
GENIUS_GENOREF_13
1005
646C
  0
POINT
  5
646C
330
1F
100
AcDbEntity
  8
0
 60
     1
100
AcDbPoint
 10
68.15210737661892
 20
43.51898007735303
 30
0.0
1001
GENIUS_GENOLIS_13
1002
{
1000
ENT
1005
646B
1005
646A
1005
6469
1005
6468
1002
}
1001
GENIUS_GENOENT_13
1002
{
1000
MYREF
1005
646C
1002
}
1002
{
1000
GRP
1005
0
1002
}
1001
GENIUS_GENODEF_13
1002
{
1000
HIER
1070
    10
1002
}
1002
{
1000
MANEDIT
1070
     0
1002
}
1002
{
1000
NOSEL
1070
     0
1002
}
1002
{
1000
BEHIND
1070
     0
1002
}
1002
{
1000
OTHER
1070
     0
1002
}
1002
{
1000
REACTOR
1002
}
1001
GENIUS_GENOBJ-N-CRS_13
1002
{
1000
OWNER
1000
GEN
1002
}
  0
ARC
  5
647A
330
1F
100
AcDbEntity
  8
AM_4
100
AcDbCircle
 10
351.8373698633283
 20
1361.367539158497
 30
0.0
 40
4.849999999999999
100
AcDbArc
 50
256.5446733623765
 51
192.123027893342
  0
CIRCLE
  5
647B
330
1F
100
AcDbEntity
  8
0
100
AcDbCircle
 10
351.8373698633283
 20
1361.367539158497
 30
0.0
 40
4.25
  0
LINE
  5
647C
330
1F
100
AcDbEntity
  8
AM_7
  6
AM_ISO08W050x2
100
AcDbLine
 10
351.8373698633283
 20
1361.367539158497
 30
0.0
 11
358.6873698633283
 21
1361.367539158497
 31
0.0
1001
GENIUS_GENOREF_13
1005
6480
  0
LINE
  5
647D
330
1F
100
AcDbEntity
  8
AM_7
  6
AM_ISO08W050x2
100
AcDbLine
 10
351.8373698633283
 20
1361.367539158497
 30
0.0
 11
351.8373698633283
 21
1368.217539158497
 31
0.0
1001
GENIUS_GENOREF_13
1005
6480
  0
LINE
  5
647E
330
1F
100
AcDbEntity
  8
AM_7
  6
AM_ISO08W050x2
100
AcDbLine
 10
351.8373698633283
 20
1361.367539158497
 30
0.0
 11
344.9873698633283
 21
1361.367539158497
 31
0.0
1001
GENIUS_GENOREF_13
1005
6480
  0
LINE
  5
647F
330
1F
100
AcDbEntity
  8
AM_7
  6
AM_ISO08W050x2
100
AcDbLine
 10
351.8373698633283
 20
1361.367539158497
 30
0.0
 11
351.8373698633283
 21
1354.517539158497
 31
0.0
1001
GENIUS_GENOREF_13
1005
6480
  0
POINT
  5
6480
330
1F
100
AcDbEntity
  8
0
 60
     1
100
AcDbPoint
 10
65.32565648906427
 20
320.0721965916539
 30
0.0
1001
GENIUS_GENODEF_13
1002
{
1000
HIER
1070
    10
1002
}
1002
{
1000
MANEDIT
1070
     0
1002
}
1002
{
1000
NOSEL
1070
     0
1002
}
1002
{
1000
BEHIND
1070
     0
1002
}
1002
{
1000
OTHER
1070
     0
1002
}
1002
{
1000
REACTOR
1002
}
1001
GENIUS_GENOENT_13
1002
{
1000
MYREF
1005
6480
1002
}
1002
{
1000
GRP
1005
0
1002
}
1001
GENIUS_GENOBJ-N-CRS_13
1002
{
1000
OWNER
1000
GEN
1002
}
1001
GENIUS_GENOLIS_13
1002
{
1000
ENT
1005
647F
1005
647E
1005
647D
1005
647C
1002
}
  0
ARC
  5
6481
330
1F
100
AcDbEntity
  8
AM_4
100
AcDbCircle
 10
351.8373698633283
 20
1335.367539158497
 30
0.0
 40
4.849999999999999
100
AcDbArc
 50
256.5446733623765
 51
192.123027893342
  0
CIRCLE
  5
6482
330
1F
100
AcDbEntity
  8
0
100
AcDbCircle
 10
351.8373698633283
 20
1335.367539158497
 30
0.0
 40
4.25
  0
LINE
  5
6483
330
1F
100
AcDbEntity
  8
AM_7
  6
AM_ISO08W050x2
100
AcDbLine
 10
351.8373698633283
 20
1335.367539158497
 30
0.0
 11
358.6873698633283
 21
1335.367539158497
 31
0.0
1001
GENIUS_GENOREF_13
1005
6487
  0
LINE
  5
6484
330
1F
100
AcDbEntity
  8
AM_7
  6
AM_ISO08W050x2
100
AcDbLine
 10
351.8373698633283
 20
1335.367539158497
 30
0.0
 11
351.8373698633283
 21
1342.217539158497
 31
0.0
1001
GENIUS_GENOREF_13
1005
6487
  0
LINE
  5
6485
330
1F
100
AcDbEntity
  8
AM_7
  6
AM_ISO08W050x2
100
AcDbLine
 10
351.8373698633283
 20
1335.367539158497
 30
0.0
 11
344.9873698633283
 21
1335.367539158497
 31
0.0
1001
GENIUS_GENOREF_13
1005
6487
  0
LINE
  5
6486
330
1F
100
AcDbEntity
  8
AM_7
  6
AM_ISO08W050x2
100
AcDbLine
 10
351.8373698633283
 20
1335.367539158497
 30
0.0
 11
351.8373698633283
 21
1328.517539158497
 31
0.0
1001
GENIUS_GENOREF_13
1005
6487
  0
POINT
  5
6487
330
1F
100
AcDbEntity
  8
0
 60
     1
100
AcDbPoint
 10
65.32565648906427
 20
294.0721965916537
 30
0.0
1001
GENIUS_GENODEF_13
1002
{
1000
HIER
1070
    10
1002
}
1002
{
1000
MANEDIT
1070
     0
1002
}
1002
{
1000
NOSEL
1070
     0
1002
}
1002
{
1000
BEHIND
1070
     0
1002
}
1002
{
1000
OTHER
1070
     0
1002
}
1002
{
1000
REACTOR
1002
}
1001
GENIUS_GENOENT_13
1002
{
1000
MYREF
1005
6487
1002
}
1002
{
1000
GRP
1005
0
1002
}
1001
GENIUS_GENOBJ-N-CRS_13
1002
{
1000
OWNER
1000
GEN
1002
}
1001
GENIUS_GENOLIS_13
1002
{
1000
ENT
1005
6486
1005
6485
1005
6484
1005
6483
1002
}
  0
LINE
  5
6494
330
1F
100
AcDbEntity
  8
AM_7
100
AcDbLine
 10
334.3373698633282
 20
1348.367539158497
 30
0.0
 11
385.9562075998656
 21
1348.367539158497
 31
0.0
1001
GENIUS_GENOBJ-N-CEN_13
1002
{
1000
OWNER
1000
GEN
1002
}
1001
GENIUS_GENODEF_13
1002
{
1000
HIER
1070
     0
1002
}
1002
{
1000
MANEDIT
1070
     0
1002
}
1002
{
1000
NOSEL
1070
     0
1002
}
1002
{
1000
BEHIND
1070
     0
1002
}
1002
{
1000
OTHER
1070
     0
1002
}
1002
{
1000
REACTOR
1002
}
1001
GENIUS_GENCEN_19
1002
{
1040
2.0
1002
}
  0
LINE
  5
64A1
330
1F
100
AcDbEntity
  8
AM_7
100
AcDbLine
 10
662.3335512381937
 20
1348.367539158497
 30
0.0
 11
610.8346504264873
 21
1348.367539158497
 31
0.0
1001
GENIUS_GENODEF_13
1002
{
1000
HIER
1070
     0
1002
}
1002
{
1000
MANEDIT
1070
     0
1002
}
1002
{
1000
NOSEL
1070
     0
1002
}
1002
{
1000
BEHIND
1070
     0
1002
}
1002
{
1000
OTHER
1070
     0
1002
}
1002
{
1000
REACTOR
1002
}
1001
GENIUS_GENOBJ-N-CEN_13
1002
{
1000
OWNER
1000
GEN
1002
}
1001
GENIUS_GENCEN_19
1002
{
1040
2.0
1002
}
  0
ARC
  5
64A2
330
1F
100
AcDbEntity
  8
AM_4
100
AcDbCircle
 10
644.8335512381938
 20
1361.367539158496
 30
0.0
 40
5.0
100
AcDbArc
 50
270.0
 51
180.0
  0
LINE
  5
658F
330
1F
100
AcDbEntity
  8
AM_7
100
AcDbLine
 10
537.2111302156728
 20
1335.367539158497
 30
0.0
 11
528.2111302156728
 21
1335.367539158497
 31
0.0
  0
LINE
  5
6590
330
1F
100
AcDbEntity
  8
AM_VIS
100
AcDbLine
 10
532.1146571608186
 20
1345.182493733497
 30
0.0
 11
533.307603270527
 21
1345.182493733497
 31
0.0
  0
LINE
  5
6591
330
1F
100
AcDbEntity
  8
AM_VIS
100
AcDbLine
 10
532.1146571608186
 20
1340.275016445385
 30
0.0
 11
533.307603270527
 21
1340.275016445385
 31
0.0
  0
SPLINE
  5
6592
330
1F
100
AcDbEntity
  8
AM_VIS
100
AcDbSpline
210
0.0
220
0.0
230
1.0
 70
    12
 71
     2
 72
     6
 73
     3
 74
     0
 42
0.0000000001
 43
0.0000000001
 40
0.0
 40
0.0
 40
0.0
 40
9.931707168609223
 40
9.931707168609223
 40
9.931707168609223
 10
533.307603270527
 20
1330.460061872833
 30
0.0
 41
1.0
 10
534.7242699359568
 20
1335.367539158497
 30
0.0
 41
1.154700538235291
 10
533.307603270527
 20
1340.275016444161
 30
0.0
 41
1.0
  0
SPLINE
  5
6593
330
1F
100
AcDbEntity
  8
AM_VIS
100
AcDbSpline
210
0.0
220
0.0
230
1.0
 70
    12
 71
     2
 72
     6
 73
     3
 74
     0
 42
0.0000000001
 43
0.0000000001
 40
0.0
 40
0.0
 40
0.0
 40
9.931707172424648
 40
9.931707172424648
 40
9.931707172424648
 10
533.307603270527
 20
1340.275016445997
 30
0.0
 41
1.0
 10
534.7242699370169
 20
1342.728755089747
 30
0.0
 41
1.154700538379273
 10
533.307603270527
 20
1345.182493733497
 30
0.0
 41
1.0
  0
LINE
  5
6594
330
1F
100
AcDbEntity
  8
AM_VIS
100
AcDbLine
 10
532.1146571608186
 20
1330.460061869161
 30
0.0
 11
533.307603270527
 21
1330.460061869161
 31
0.0
  0
SPLINE
  5
6595
330
1F
100
AcDbEntity
  8
AM_VIS
100
AcDbSpline
210
0.0
220
0.0
230
1.0
 70
    12
 71
     2
 72
     6
 73
     3
 74
     0
 42
0.0000000001
 43
0.0000000001
 40
0.0
 40
0.0
 40
0.0
 40
9.931707168608895
 40
9.931707168608895
 40
9.931707168608895
 10
533.307603270527
 20
1325.552584583497
 30
0.0
 41
1.0
 10
534.724269935957
 20
1328.006323225412
 30
0.0
 41
1.154700538235279
 10
533.307603270527
 20
1330.460061867326
 30
0.0
 41
1.0
  0
LINE
  5
6596
330
1F
100
AcDbEntity
  8
AM_VIS
100
AcDbLine
 10
532.1146571608186
 20
1325.552584583497
 30
0.0
 11
533.307603270527
 21
1325.552584583497
 31
0.0
  0
SPLINE
  5
6597
330
1F
100
AcDbEntity
  8
AM_VIS
100
AcDbSpline
210
0.0
220
0.0
230
1.0
 70
    12
 71
     2
 72
     6
 73
     3
 74
     0
 42
0.0000000001
 43
0.0000000001
 40
0.0
 40
0.0
 40
0.0
 40
9.931707172424648
 40
9.931707172424648
 40
9.931707172424648
 10
532.1146571608186
 20
1345.182493733497
 30
0.0
 41
1.0
 10
530.6979904943283
 20
1342.728755089746
 30
0.0
 41
1.154700538379272
 10
532.1146571608186
 20
1340.275016445997
 30
0.0
 41
1.0
  0
SPLINE
  5
6598
330
1F
100
AcDbEntity
  8
AM_VIS
100
AcDbSpline
210
0.0
220
0.0
230
1.0
 70
    12
 71
     2
 72
     6
 73
     3
 74
     0
 42
0.0000000001
 43
0.0000000001
 40
0.0
 40
0.0
 40
0.0
 40
9.931707168609223
 40
9.931707168609223
 40
9.931707168609223
 10
532.1146571608186
 20
1340.275016444161
 30
0.0
 41
1.0
 10
530.6979904953882
 20
1335.367539158497
 30
0.0
 41
1.15470053823529
 10
532.1146571608186
 20
1330.460061872833
 30
0.0
 41
1.0
  0
SPLINE
  5
6599
330
1F
100
AcDbEntity
  8
AM_VIS
100
AcDbSpline
210
0.0
220
0.0
230
1.0
 70
    12
 71
     2
 72
     6
 73
     3
 74
     0
 42
0.0000000001
 43
0.0000000001
 40
0.0
 40
0.0
 40
0.0
 40
9.931707168608898
 40
9.931707168608898
 40
9.931707168608898
 10
532.1146571608186
 20
1330.460061867326
 30
0.0
 41
1.0
 10
530.6979904953882
 20
1328.006323225412
 30
0.0
 41
1.154700538235279
 10
532.1146571608186
 20
1325.552584583497
 30
0.0
 41
1.0
  0
LINE
  5
659A
330
1F
100
AcDbEntity
  8
AM_VIS
100
AcDbLine
 10
534.2111302156728
 20
1343.617539158497
 30
0.0
 11
533.307603270527
 21
1345.182493733497
 31
0.0
  0
LINE
  5
659B
330
1F
100
AcDbEntity
  8
AM_VIS
100
AcDbLine
 10
534.2111302156728
 20
1327.117539158497
 30
0.0
 11
533.307603270527
 21
1325.552584583497
 31
0.0
  0
LINE
  5
659C
330
1F
100
AcDbEntity
  8
AM_VIS
100
AcDbLine
 10
531.2111302156728
 20
1327.117539158497
 30
0.0
 11
532.1146571608186
 21
1325.552584583497
 31
0.0
  0
LINE
  5
659D
330
1F
100
AcDbEntity
  8
AM_VIS
100
AcDbLine
 10
531.2111302156728
 20
1343.617539158497
 30
0.0
 11
532.1146571608186
 21
1345.182493733497
 31
0.0
  0
LINE
  5
659E
330
1F
100
AcDbEntity
  8
AM_VIS
100
AcDbLine
 10
534.2111302156728
 20
1327.117539158497
 30
0.0
 11
534.2111302156728
 21
1343.617539158497
 31
0.0
  0
LINE
  5
659F
330
1F
100
AcDbEntity
  8
AM_VIS
100
AcDbLine
 10
531.2111302156728
 20
1343.617539158497
 30
0.0
 11
531.2111302156728
 21
1327.117539158497
 31
0.0
  0
LINE
  5
65A0
330
1F
100
AcDbEntity
  8
AM_7
100
AcDbLine
 10
537.2111302156728
 20
1361.367539158497
 30
0.0
 11
528.2111302156728
 21
1361.367539158497
 31
0.0
  0
LINE
  5
65A1
330
1F
100
AcDbEntity
  8
AM_VIS
100
AcDbLine
 10
532.1146571608186
 20
1351.552584583497
 30
0.0
 11
533.307603270527
 21
1351.552584583497
 31
0.0
  0
LINE
  5
65A2
330
1F
100
AcDbEntity
  8
AM_VIS
100
AcDbLine
 10
532.1146571608186
 20
1356.460061871609
 30
0.0
 11
533.307603270527
 21
1356.460061871609
 31
0.0
  0
SPLINE
  5
65A3
330
1F
100
AcDbEntity
  8
AM_VIS
100
AcDbSpline
210
0.0
220
0.0
230
1.0
 70
    12
 71
     2
 72
     6
 73
     3
 74
     0
 42
0.0000000001
 43
0.0000000001
 40
0.0
 40
0.0
 40
0.0
 40
9.931707168609223
 40
9.931707168609223
 40
9.931707168609223
 10
533.307603270527
 20
1366.275016444161
 30
0.0
 41
1.0
 10
534.7242699359568
 20
1361.367539158497
 30
0.0
 41
1.154700538235291
 10
533.307603270527
 20
1356.460061872832
 30
0.0
 41
1.0
  0
SPLINE
  5
65A4
330
1F
100
AcDbEntity
  8
AM_VIS
100
AcDbSpline
210
0.0
220
0.0
230
1.0
 70
    12
 71
     2
 72
     6
 73
     3
 74
     0
 42
0.0000000001
 43
0.0000000001
 40
0.0
 40
0.0
 40
0.0
 40
9.931707172424648
 40
9.931707172424648
 40
9.931707172424648
 10
533.307603270527
 20
1356.460061870997
 30
0.0
 41
1.0
 10
534.7242699370169
 20
1354.006323227247
 30
0.0
 41
1.154700538379273
 10
533.307603270527
 20
1351.552584583497
 30
0.0
 41
1.0
  0
LINE
  5
65A5
330
1F
100
AcDbEntity
  8
AM_VIS
100
AcDbLine
 10
532.1146571608186
 20
1366.275016447832
 30
0.0
 11
533.307603270527
 21
1366.275016447832
 31
0.0
  0
SPLINE
  5
65A6
330
1F
100
AcDbEntity
  8
AM_VIS
100
AcDbSpline
210
0.0
220
0.0
230
1.0
 70
    12
 71
     2
 72
     6
 73
     3
 74
     0
 42
0.0000000001
 43
0.0000000001
 40
0.0
 40
0.0
 40
0.0
 40
9.931707168608895
 40
9.931707168608895
 40
9.931707168608895
 10
533.307603270527
 20
1371.182493733497
 30
0.0
 41
1.0
 10
534.724269935957
 20
1368.728755091582
 30
0.0
 41
1.154700538235279
 10
533.307603270527
 20
1366.275016449668
 30
0.0
 41
1.0
  0
LINE
  5
65A7
330
1F
100
AcDbEntity
  8
AM_VIS
100
AcDbLine
 10
532.1146571608186
 20
1371.182493733497
 30
0.0
 11
533.307603270527
 21
1371.182493733497
 31
0.0
  0
SPLINE
  5
65A8
330
1F
100
AcDbEntity
  8
AM_VIS
100
AcDbSpline
210
0.0
220
0.0
230
1.0
 70
    12
 71
     2
 72
     6
 73
     3
 74
     0
 42
0.0000000001
 43
0.0000000001
 40
0.0
 40
0.0
 40
0.0
 40
9.931707172424648
 40
9.931707172424648
 40
9.931707172424648
 10
532.1146571608186
 20
1351.552584583497
 30
0.0
 41
1.0
 10
530.6979904943283
 20
1354.006323227247
 30
0.0
 41
1.154700538379272
 10
532.1146571608186
 20
1356.460061870997
 30
0.0
 41
1.0
  0
SPLINE
  5
65A9
330
1F
100
AcDbEntity
  8
AM_VIS
100
AcDbSpline
210
0.0
220
0.0
230
1.0
 70
    12
 71
     2
 72
     6
 73
     3
 74
     0
 42
0.0000000001
 43
0.0000000001
 40
0.0
 40
0.0
 40
0.0
 40
9.931707168609223
 40
9.931707168609223
 40
9.931707168609223
 10
532.1146571608186
 20
1356.460061872832
 30
0.0
 41
1.0
 10
530.6979904953882
 20
1361.367539158497
 30
0.0
 41
1.15470053823529
 10
532.1146571608186
 20
1366.275016444161
 30
0.0
 41
1.0
  0
SPLINE
  5
65AA
330
1F
100
AcDbEntity
  8
AM_VIS
100
AcDbSpline
210
0.0
220
0.0
230
1.0
 70
    12
 71
     2
 72
     6
 73
     3
 74
     0
 42
0.0000000001
 43
0.0000000001
 40
0.0
 40
0.0
 40
0.0
 40
9.931707168608898
 40
9.931707168608898
 40
9.931707168608898
 10
532.1146571608186
 20
1366.275016449668
 30
0.0
 41
1.0
 10
530.6979904953882
 20
1368.728755091582
 30
0.0
 41
1.154700538235279
 10
532.1146571608186
 20
1371.182493733497
 30
0.0
 41
1.0
  0
LINE
  5
65AB
330
1F
100
AcDbEntity
  8
AM_VIS
100
AcDbLine
 10
534.2111302156728
 20
1353.117539158497
 30
0.0
 11
533.307603270527
 21
1351.552584583497
 31
0.0
  0
LINE
  5
65AC
330
1F
100
AcDbEntity
  8
AM_VIS
100
AcDbLine
 10
534.2111302156728
 20
1369.617539158497
 30
0.0
 11
533.307603270527
 21
1371.182493733497
 31
0.0
  0
LINE
  5
65AD
330
1F
100
AcDbEntity
  8
AM_VIS
100
AcDbLine
 10
531.2111302156728
 20
1369.617539158497
 30
0.0
 11
532.1146571608186
 21
1371.182493733497
 31
0.0
  0
LINE
  5
65AE
330
1F
100
AcDbEntity
  8
AM_VIS
100
AcDbLine
 10
531.2111302156728
 20
1353.117539158497
 30
0.0
 11
532.1146571608186
 21
1351.552584583497
 31
0.0
  0
LINE
  5
65AF
330
1F
100
AcDbEntity
  8
AM_VIS
100
AcDbLine
 10
534.2111302156728
 20
1369.617539158497
 30
0.0
 11
534.2111302156728
 21
1353.117539158497
 31
0.0
  0
LINE
  5
65B0
330
1F
100
AcDbEntity
  8
AM_7
100
AcDbLine
 10
537.2111302156727
 20
1215.5512632215
 30
0.0
 11
528.2111302156727
 21
1215.5512632215
 31
0.0
  0
LINE
  5
65B1
330
1F
100
AcDbEntity
  8
AM_VIS
100
AcDbLine
 10
533.3076032705268
 20
1224.0512632215
 30
0.0
 11
534.0667926483753
 21
1224.0512632215
 31
0.0
  0
LINE
  5
65B2
330
1F
100
AcDbEntity
  8
AM_VIS
100
AcDbLine
 10
533.3076032705268
 20
1207.0512632215
 30
0.0
 11
534.0667926483753
 21
1207.0512632215
 31
0.0
  0
SPLINE
  5
65B3
330
1F
100
AcDbEntity
  8
AM_VIS
100
AcDbSpline
210
0.0
220
0.0
230
1.0
 70
    12
 71
     2
 72
     6
 73
     3
 74
     0
 42
0.0000000001
 43
0.0000000001
 40
0.0
 40
0.0
 40
0.0
 40
9.931707172422644
 40
9.931707172422644
 40
9.931707172422644
 10
533.3076032705268
 20
1207.051263222561
 30
0.0
 41
1.0
 10
534.7242699370166
 20
1211.30126322203
 30
0.0
 41
1.154700538379196
 10
533.3076032705268
 20
1215.5512632215
 30
0.0
 41
1.0
  0
LINE
  5
65B4
330
1F
100
AcDbEntity
  8
AM_VIS
100
AcDbLine
 10
532.1146571608185
 20
1207.0512632215
 30
0.0
 11
533.3076032705268
 21
1207.0512632215
 31
0.0
  0
LINE
  5
65B5
330
1F
100
AcDbEntity
  8
AM_VIS
100
AcDbLine
 10
532.1146571608185
 20
1224.0512632215
 30
0.0
 11
533.3076032705268
 21
1224.0512632215
 31
0.0
  0
SPLINE
  5
65B6
330
1F
100
AcDbEntity
  8
AM_VIS
100
AcDbSpline
210
0.0
220
0.0
230
1.0
 70
    12
 71
     2
 72
     6
 73
     3
 74
     0
 42
0.0000000001
 43
0.0000000001
 40
0.0
 40
0.0
 40
0.0
 40
9.931707168608895
 40
9.931707168608895
 40
9.931707168608895
 10
533.3076032705268
 20
1215.551263221501
 30
0.0
 41
1.0
 10
534.724269935957
 20
1219.80126321991
 30
0.0
 41
1.154700538235279
 10
533.3076032705268
 20
1224.051263218321
 30
0.0
 41
1.0
  0
LINE
  5
65B7
330
1F
100
AcDbEntity
  8
AM_VIS
100
AcDbLine
 10
532.1146571608185
 20
1215.5512632215
 30
0.0
 11
533.3076032705268
 21
1215.5512632215
 31
0.0
  0
LINE
  5
65B8
330
1F
100
AcDbEntity
  8
AM_VIS
100
AcDbLine
 10
531.35546778297
 20
1224.0512632215
 30
0.0
 11
532.1146571608185
 21
1224.0512632215
 31
0.0
  0
SPLINE
  5
65B9
330
1F
100
AcDbEntity
  8
AM_VIS
100
AcDbSpline
210
0.0
220
0.0
230
1.0
 70
    12
 71
     2
 72
     6
 73
     3
 74
     0
 42
0.0000000001
 43
0.0000000001
 40
0.0
 40
0.0
 40
0.0
 40
9.931707168608898
 40
9.931707168608898
 40
9.931707168608898
 10
532.1146571608185
 20
1224.051263218321
 30
0.0
 41
1.0
 10
530.6979904953881
 20
1219.80126321991
 30
0.0
 41
1.154700538235279
 10
532.1146571608185
 20
1215.551263221501
 30
0.0
 41
1.0
  0
SPLINE
  5
65BA
330
1F
100
AcDbEntity
  8
AM_VIS
100
AcDbSpline
210
0.0
220
0.0
230
1.0
 70
    12
 71
     2
 72
     6
 73
     3
 74
     0
 42
0.0000000001
 43
0.0000000001
 40
0.0
 40
0.0
 40
0.0
 40
9.931707172422644
 40
9.931707172422644
 40
9.931707172422644
 10
532.1146571608185
 20
1215.5512632215
 30
0.0
 41
1.0
 10
530.6979904943286
 20
1211.30126322203
 30
0.0
 41
1.154700538379198
 10
532.1146571608185
 20
1207.051263222561
 30
0.0
 41
1.0
  0
LINE
  5
65BB
330
1F
100
AcDbEntity
  8
AM_VIS
100
AcDbLine
 10
531.35546778297
 20
1207.0512632215
 30
0.0
 11
532.1146571608185
 21
1207.0512632215
 31
0.0
  0
LINE
  5
65BC
330
1F
100
AcDbEntity
  8
AM_VIS
100
AcDbLine
 10
534.2111302156727
 20
1223.8012632215
 30
0.0
 11
534.0667926483753
 21
1224.0512632215
 31
0.0
  0
LINE
  5
65BD
330
1F
100
AcDbEntity
  8
AM_VIS
100
AcDbLine
 10
534.2111302156727
 20
1207.3012632215
 30
0.0
 11
534.0667926483753
 21
1207.0512632215
 31
0.0
  0
LINE
  5
65BE
330
1F
100
AcDbEntity
  8
AM_VIS
100
AcDbLine
 10
531.2111302156726
 20
1207.3012632215
 30
0.0
 11
531.35546778297
 21
1207.0512632215
 31
0.0
  0
LINE
  5
65BF
330
1F
100
AcDbEntity
  8
AM_VIS
100
AcDbLine
 10
531.2111302156726
 20
1223.8012632215
 30
0.0
 11
531.35546778297
 21
1224.0512632215
 31
0.0
  0
LINE
  5
65C0
330
1F
100
AcDbEntity
  8
AM_VIS
100
AcDbLine
 10
534.2111302156727
 20
1207.3012632215
 30
0.0
 11
534.2111302156727
 21
1223.8012632215
 31
0.0
  0
LINE
  5
65C1
330
1F
100
AcDbEntity
  8
AM_VIS
100
AcDbLine
 10
531.2111302156726
 20
1223.8012632215
 30
0.0
 11
531.2111302156726
 21
1207.3012632215
 31
0.0
  0
LINE
  5
65C2
330
1F
100
AcDbEntity
  8
AM_7
100
AcDbLine
 10
531.2111302156726
 20
1215.5512632215
 30
0.0
 11
560.7111302156726
 21
1215.5512632215
 31
0.0
  0
LINE
  5
65C3
330
1F
100
AcDbEntity
  8
AM_VIS
100
AcDbLine
 10
551.2111302156727
 20
1219.0512632215
 30
0.0
 11
557.7111302156727
 21
1219.0512632215
 31
0.0
  0
LINE
  5
65C4
330
1F
100
AcDbEntity
  8
AM_VIS
100
AcDbLine
 10
551.2111302156727
 20
1212.0512632215
 30
0.0
 11
557.7111302156727
 21
1212.0512632215
 31
0.0
  0
LINE
  5
65C5
330
1F
100
AcDbEntity
  8
AM_VIS
100
AcDbLine
 10
557.7111302156727
 20
1212.0512632215
 30
0.0
 11
558.2111302156727
 21
1212.0512632215
 31
0.0
  0
LINE
  5
65C6
330
1F
100
AcDbEntity
  8
AM_VIS
100
AcDbLine
 10
557.7111302156727
 20
1219.0512632215
 30
0.0
 11
558.2111302156727
 21
1219.0512632215
 31
0.0
  0
LINE
  5
65C7
330
1F
100
AcDbEntity
  8
AM_VIS
100
AcDbLine
 10
534.2111302156727
 20
1210.5512632215
 30
0.0
 11
550.3111302156727
 21
1210.5512632215
 31
0.0
  0
LINE
  5
65C8
330
1F
100
AcDbEntity
  8
AM_VIS
100
AcDbLine
 10
534.2111302156727
 20
1220.5512632215
 30
0.0
 11
550.3111302156727
 21
1220.5512632215
 31
0.0
  0
LINE
  5
65C9
330
1F
100
AcDbEntity
  8
AM_VIS
100
AcDbLine
 10
551.2111302156727
 20
1219.6512632215
 30
0.0
 11
550.3111302156727
 21
1220.5512632215
 31
0.0
  0
LINE
  5
65CA
330
1F
100
AcDbEntity
  8
AM_VIS
100
AcDbLine
 10
551.2111302156727
 20
1211.4512632215
 30
0.0
 11
550.3111302156727
 21
1210.5512632215
 31
0.0
  0
LINE
  5
65CB
330
1F
100
AcDbEntity
  8
AM_VIS
100
AcDbLine
 10
534.2111302156727
 20
1210.5512632215
 30
0.0
 11
534.2111302156727
 21
1220.5512632215
 31
0.0
  0
LINE
  5
65CC
330
1F
100
AcDbEntity
  8
AM_VIS
100
AcDbLine
 10
550.3111302156727
 20
1210.5512632215
 30
0.0
 11
550.3111302156727
 21
1220.5512632215
 31
0.0
  0
LINE
  5
65CD
330
1F
100
AcDbEntity
  8
AM_VIS
100
AcDbLine
 10
551.2111302156727
 20
1219.6512632215
 30
0.0
 11
551.2111302156727
 21
1219.0512632215
 31
0.0
  0
LINE
  5
65CE
330
1F
100
AcDbEntity
  8
AM_VIS
100
AcDbLine
 10
551.2111302156727
 20
1219.0512632215
 30
0.0
 11
551.2111302156727
 21
1212.0512632215
 31
0.0
  0
LINE
  5
65CF
330
1F
100
AcDbEntity
  8
AM_VIS
100
AcDbLine
 10
551.2111302156727
 20
1212.0512632215
 30
0.0
 11
551.2111302156727
 21
1211.4512632215
 31
0.0
  0
LINE
  5
65D0
330
1F
100
AcDbEntity
  8
AM_VIS
100
AcDbLine
 10
558.2111302156727
 20
1219.0512632215
 30
0.0
 11
558.2111302156727
 21
1212.0512632215
 31
0.0
  0
LINE
  5
65D1
330
1F
100
AcDbEntity
  8
AM_VIS
100
AcDbLine
 10
557.7111302156727
 20
1212.0512632215
 30
0.0
 11
557.7111302156727
 21
1219.0512632215
 31
0.0
  0
LINE
  5
65D2
330
1F
100
AcDbEntity
  8
AM_7
100
AcDbLine
 10
531.2111302156728
 20
1335.367539158497
 30
0.0
 11
560.7111302156728
 21
1335.367539158497
 31
0.0
  0
LINE
  5
65D3
330
1F
100
AcDbEntity
  8
AM_VIS
100
AcDbLine
 10
551.2111302156728
 20
1333.232123508091
 30
0.0
 11
557.7111302156728
 21
1333.232123508091
 31
0.0
  0
LINE
  5
65D4
330
1F
100
AcDbEntity
  8
AM_VIS
100
AcDbLine
 10
551.2111302156728
 20
1337.502954808903
 30
0.0
 11
557.7111302156728
 21
1337.502954808903
 31
0.0
  0
SPLINE
  5
65D5
330
1F
100
AcDbEntity
  8
AM_VIS
100
AcDbSpline
210
0.0
220
0.0
230
1.0
 70
    12
 71
     2
 72
     6
 73
     3
 74
     0
 42
0.0000000001
 43
0.0000000001
 40
9.13656744565783
 40
9.13656744565783
 40
9.13656744565783
 40
11.59143476262094
 40
11.59143476262094
 40
11.59143476262094
 10
557.7111302156728
 20
1337.502954808903
 30
0.0
 41
1.103157731506043
 10
558.0696583702401
 20
1336.814580424531
 30
0.0
 41
1.065437382371678
 10
558.2111302156728
 20
1336.210154135814
 30
0.0
 41
1.0
  0
LINE
  5
65D6
330
1F
100
AcDbEntity
  8
AM_VIS
100
AcDbLine
 10
558.2111302156728
 20
1334.524924181179
 30
0.0
 11
558.2111302156728
 21
1336.210154135814
 31
0.0
  0
SPLINE
  5
65D7
330
1F
100
AcDbEntity
  8
AM_VIS
100
AcDbSpline
210
0.0
220
0.0
230
1.0
 70
    12
 71
     2
 72
     6
 73
     3
 74
     0
 42
0.0000000001
 43
0.0000000001
 40
0.0
 40
0.0
 40
0.0
 40
2.454867316963106
 40
2.454867316963106
 40
2.454867316963106
 10
558.2111302156728
 20
1334.524924181179
 30
0.0
 41
1.0
 10
558.0696583702404
 20
1333.920497892463
 30
0.0
 41
1.06543738237168
 10
557.7111302156729
 20
1333.232123508091
 30
0.0
 41
1.103157731506047
  0
LINE
  5
65D8
330
1F
100
AcDbEntity
  8
AM_VIS
100
AcDbLine
 10
551.2111302156728
 20
1331.267539158497
 30
0.0
 11
557.7111302156728
 21
1331.267539158497
 31
0.0
  0
LINE
  5
65D9
330
1F
100
AcDbEntity
  8
AM_VIS
100
AcDbLine
 10
534.2111302156728
 20
1330.367539158497
 30
0.0
 11
550.3111302156728
 21
1330.367539158497
 31
0.0
  0
LINE
  5
65DA
330
1F
100
AcDbEntity
  8
AM_VIS
100
AcDbLine
 10
534.2111302156728
 20
1340.367539158497
 30
0.0
 11
550.3111302156728
 21
1340.367539158497
 31
0.0
  0
LINE
  5
65DB
330
1F
100
AcDbEntity
  8
AM_VIS
100
AcDbLine
 10
551.2111302156728
 20
1339.467539158497
 30
0.0
 11
550.3111302156728
 21
1340.367539158497
 31
0.0
  0
LINE
  5
65DC
330
1F
100
AcDbEntity
  8
AM_VIS
100
AcDbLine
 10
551.2111302156728
 20
1331.267539158497
 30
0.0
 11
550.3111302156728
 21
1330.367539158497
 31
0.0
  0
LINE
  5
65DD
330
1F
100
AcDbEntity
  8
AM_VIS
100
AcDbLine
 10
551.2111302156728
 20
1339.467539158497
 30
0.0
 11
557.7111302156728
 21
1339.467539158497
 31
0.0
  0
LINE
  5
65DE
330
1F
100
AcDbEntity
  8
AM_VIS
100
AcDbLine
 10
558.2111302156728
 20
1338.967539158497
 30
0.0
 11
557.7111302156728
 21
1339.467539158497
 31
0.0
  0
LINE
  5
65DF
330
1F
100
AcDbEntity
  8
AM_VIS
100
AcDbLine
 10
558.2111302156728
 20
1331.767539158497
 30
0.0
 11
557.7111302156728
 21
1331.267539158497
 31
0.0
  0
LINE
  5
65E0
330
1F
100
AcDbEntity
  8
AM_VIS
100
AcDbLine
 10
534.2111302156728
 20
1330.367539158497
 30
0.0
 11
534.2111302156728
 21
1340.367539158497
 31
0.0
  0
LINE
  5
65E1
330
1F
100
AcDbEntity
  8
AM_VIS
100
AcDbLine
 10
550.3111302156728
 20
1330.367539158497
 30
0.0
 11
550.3111302156728
 21
1340.367539158497
 31
0.0
  0
LINE
  5
65E2
330
1F
100
AcDbEntity
  8
AM_VIS
100
AcDbLine
 10
551.2111302156728
 20
1337.502954808903
 30
0.0
 11
551.2111302156728
 21
1333.232123508091
 31
0.0
  0
LINE
  5
65E3
330
1F
100
AcDbEntity
  8
AM_VIS
100
AcDbLine
 10
551.2111302156728
 20
1333.232123508091
 30
0.0
 11
551.2111302156728
 21
1331.267539158497
 31
0.0
  0
LINE
  5
65E4
330
1F
100
AcDbEntity
  8
AM_VIS
100
AcDbLine
 10
551.2111302156728
 20
1339.467539158497
 30
0.0
 11
551.2111302156728
 21
1337.502954808903
 31
0.0
  0
LINE
  5
65E5
330
1F
100
AcDbEntity
  8
AM_VIS
100
AcDbLine
 10
557.7111302156728
 20
1337.502954808903
 30
0.0
 11
557.7111302156728
 21
1339.467539158497
 31
0.0
  0
LINE
  5
65E6
330
1F
100
AcDbEntity
  8
AM_VIS
100
AcDbLine
 10
558.2111302156728
 20
1338.967539158497
 30
0.0
 11
558.2111302156728
 21
1336.210154135814
 31
0.0
  0
LINE
  5
65E7
330
1F
100
AcDbEntity
  8
AM_VIS
100
AcDbLine
 10
558.2111302156728
 20
1334.524924181179
 30
0.0
 11
558.2111302156728
 21
1331.767539158497
 31
0.0
  0
LINE
  5
65E8
330
1F
100
AcDbEntity
  8
AM_VIS
100
AcDbLine
 10
557.7111302156728
 20
1331.267539158497
 30
0.0
 11
557.7111302156728
 21
1333.232123508091
 31
0.0
  0
LINE
  5
65E9
330
1F
100
AcDbEntity
  8
AM_7
100
AcDbLine
 10
531.2111302156728
 20
1361.367539158497
 30
0.0
 11
560.7111302156728
 21
1361.367539158497
 31
0.0
  0
LINE
  5
65EA
330
1F
100
AcDbEntity
  8
AM_VIS
100
AcDbLine
 10
551.2111302156728
 20
1359.232123508091
 30
0.0
 11
557.7111302156728
 21
1359.232123508091
 31
0.0
  0
LINE
  5
65EB
330
1F
100
AcDbEntity
  8
AM_VIS
100
AcDbLine
 10
551.2111302156728
 20
1363.502954808903
 30
0.0
 11
557.7111302156728
 21
1363.502954808903
 31
0.0
  0
SPLINE
  5
65EC
330
1F
100
AcDbEntity
  8
AM_VIS
100
AcDbSpline
210
0.0
220
0.0
230
1.0
 70
    12
 71
     2
 72
     6
 73
     3
 74
     0
 42
0.0000000001
 43
0.0000000001
 40
9.13656744565783
 40
9.13656744565783
 40
9.13656744565783
 40
11.59143476262094
 40
11.59143476262094
 40
11.59143476262094
 10
557.7111302156728
 20
1363.502954808903
 30
0.0
 41
1.103157731506043
 10
558.0696583702401
 20
1362.814580424531
 30
0.0
 41
1.065437382371678
 10
558.2111302156728
 20
1362.210154135815
 30
0.0
 41
1.0
  0
LINE
  5
65ED
330
1F
100
AcDbEntity
  8
AM_VIS
100
AcDbLine
 10
558.2111302156728
 20
1360.524924181179
 30
0.0
 11
558.2111302156728
 21
1362.210154135815
 31
0.0
  0
SPLINE
  5
65EE
330
1F
100
AcDbEntity
  8
AM_VIS
100
AcDbSpline
210
0.0
220
0.0
230
1.0
 70
    12
 71
     2
 72
     6
 73
     3
 74
     0
 42
0.0000000001
 43
0.0000000001
 40
0.0
 40
0.0
 40
0.0
 40
2.454867316963106
 40
2.454867316963106
 40
2.454867316963106
 10
558.2111302156728
 20
1360.524924181179
 30
0.0
 41
1.0
 10
558.0696583702404
 20
1359.920497892463
 30
0.0
 41
1.06543738237168
 10
557.7111302156729
 20
1359.232123508091
 30
0.0
 41
1.103157731506047
  0
LINE
  5
65EF
330
1F
100
AcDbEntity
  8
AM_VIS
100
AcDbLine
 10
551.2111302156728
 20
1357.267539158497
 30
0.0
 11
557.7111302156728
 21
1357.267539158497
 31
0.0
  0
LINE
  5
65F0
330
1F
100
AcDbEntity
  8
AM_VIS
100
AcDbLine
 10
534.2111302156728
 20
1356.367539158497
 30
0.0
 11
550.3111302156728
 21
1356.367539158497
 31
0.0
  0
LINE
  5
65F1
330
1F
100
AcDbEntity
  8
AM_VIS
100
AcDbLine
 10
534.2111302156728
 20
1366.367539158497
 30
0.0
 11
550.3111302156728
 21
1366.367539158497
 31
0.0
  0
LINE
  5
65F2
330
1F
100
AcDbEntity
  8
AM_VIS
100
AcDbLine
 10
551.2111302156728
 20
1365.467539158497
 30
0.0
 11
550.3111302156728
 21
1366.367539158497
 31
0.0
  0
LINE
  5
65F3
330
1F
100
AcDbEntity
  8
AM_VIS
100
AcDbLine
 10
551.2111302156728
 20
1357.267539158497
 30
0.0
 11
550.3111302156728
 21
1356.367539158497
 31
0.0
  0
LINE
  5
65F4
330
1F
100
AcDbEntity
  8
AM_VIS
100
AcDbLine
 10
551.2111302156728
 20
1365.467539158497
 30
0.0
 11
557.7111302156728
 21
1365.467539158497
 31
0.0
  0
LINE
  5
65F5
330
1F
100
AcDbEntity
  8
AM_VIS
100
AcDbLine
 10
558.2111302156728
 20
1364.967539158497
 30
0.0
 11
557.7111302156728
 21
1365.467539158497
 31
0.0
  0
LINE
  5
65F6
330
1F
100
AcDbEntity
  8
AM_VIS
100
AcDbLine
 10
558.2111302156728
 20
1357.767539158497
 30
0.0
 11
557.7111302156728
 21
1357.267539158497
 31
0.0
  0
LINE
  5
65F7
330
1F
100
AcDbEntity
  8
AM_VIS
100
AcDbLine
 10
534.2111302156728
 20
1356.367539158497
 30
0.0
 11
534.2111302156728
 21
1366.367539158497
 31
0.0
  0
LINE
  5
65F8
330
1F
100
AcDbEntity
  8
AM_VIS
100
AcDbLine
 10
550.3111302156728
 20
1356.367539158497
 30
0.0
 11
550.3111302156728
 21
1366.367539158497
 31
0.0
  0
LINE
  5
65F9
330
1F
100
AcDbEntity
  8
AM_VIS
100
AcDbLine
 10
551.2111302156728
 20
1363.502954808903
 30
0.0
 11
551.2111302156728
 21
1359.232123508091
 31
0.0
  0
LINE
  5
65FA
330
1F
100
AcDbEntity
  8
AM_VIS
100
AcDbLine
 10
551.2111302156728
 20
1359.232123508091
 30
0.0
 11
551.2111302156728
 21
1357.267539158497
 31
0.0
  0
LINE
  5
65FB
330
1F
100
AcDbEntity
  8
AM_VIS
100
AcDbLine
 10
551.2111302156728
 20
1365.467539158497
 30
0.0
 11
551.2111302156728
 21
1363.502954808903
 31
0.0
  0
LINE
  5
65FC
330
1F
100
AcDbEntity
  8
AM_VIS
100
AcDbLine
 10
557.7111302156728
 20
1363.502954808903
 30
0.0
 11
557.7111302156728
 21
1365.467539158497
 31
0.0
  0
LINE
  5
65FD
330
1F
100
AcDbEntity
  8
AM_VIS
100
AcDbLine
 10
558.2111302156728
 20
1364.967539158497
 30
0.0
 11
558.2111302156728
 21
1362.210154135815
 31
0.0
  0
LINE
  5
65FE
330
1F
100
AcDbEntity
  8
AM_VIS
100
AcDbLine
 10
558.2111302156728
 20
1360.524924181179
 30
0.0
 11
558.2111302156728
 21
1357.767539158497
 31
0.0
  0
LINE
  5
65FF
330
1F
100
AcDbEntity
  8
AM_VIS
100
AcDbLine
 10
557.7111302156728
 20
1357.267539158497
 30
0.0
 11
557.7111302156728
 21
1359.232123508091
 31
0.0
  0
LINE
  5
66D3
330
1F
100
AcDbEntity
  8
0
  6
HIDDEN
 62
     3
 48
0.2
100
AcDbLine
 10
380.3373698633282
 20
1360.367539158497
 30
0.0
 11
380.3373698633282
 21
1352.367539158497
 31
0.0
  0
LINE
  5
66D4
330
1F
100
AcDbEntity
  8
0
  6
HIDDEN
 62
     3
 48
0.2
100
AcDbLine
 10
380.3373698633282
 20
1359.367539158497
 30
0.0
 11
378.5373698633283
 21
1359.367539158497
 31
0.0
  0
LINE
  5
66D5
330
1F
100
AcDbEntity
  8
0
  6
HIDDEN
 62
     3
 48
0.2
100
AcDbLine
 10
383.3373698633282
 20
1360.367539158497
 30
0.0
 11
380.3373698633281
 21
1360.367539158497
 31
0.0
  0
LINE
  5
66D6
330
1F
100
AcDbEntity
  8
0
  6
HIDDEN
 62
     3
 48
0.2
100
AcDbLine
 10
380.3373698633282
 20
1359.367539158497
 30
0.0
 11
380.3373698633282
 21
1352.367539158497
 31
0.0
  0
LINE
  5
66D7
330
1F
100
AcDbEntity
  8
0
  6
HIDDEN
 62
     3
 48
0.2
100
AcDbLine
 10
380.3373698633282
 20
1337.367539158498
 30
0.0
 11
380.3373698633282
 21
1344.367539158497
 31
0.0
  0
LINE
  5
66D8
330
1F
100
AcDbEntity
  8
0
  6
HIDDEN
 62
     3
 48
0.2
100
AcDbLine
 10
378.5373698633283
 20
1337.367539158498
 30
0.0
 11
378.5373698633283
 21
1359.367539158497
 31
0.0
  0
LINE
  5
66D9
330
1F
100
AcDbEntity
  8
0
  6
HIDDEN
 62
     3
 48
0.2
100
AcDbLine
 10
380.3373698633282
 20
1336.367539158497
 30
0.0
 11
380.3373698633282
 21
1344.367539158497
 31
0.0
  0
LINE
  5
66DA
330
1F
100
AcDbEntity
  8
0
  6
HIDDEN
 62
     3
 48
0.2
100
AcDbLine
 10
383.3373698633282
 20
1336.367539158497
 30
0.0
 11
380.3373698633281
 21
1336.367539158497
 31
0.0
  0
LINE
  5
66DB
330
1F
100
AcDbEntity
  8
0
  6
HIDDEN
 62
     3
 48
0.2
100
AcDbLine
 10
380.3373698633282
 20
1337.367539158498
 30
0.0
 11
378.5373698633283
 21
1337.367539158498
 31
0.0
  0
LINE
  5
66DD
330
1F
100
AcDbEntity
  8
AM_7
  6
AM_ISO08W050x2
100
AcDbLine
 10
421.0615885939075
 20
1361.367539158497
 30
0.0
 11
430.4632897273304
 21
1361.367539158497
 31
0.0
  0
LINE
  5
66DE
330
1F
100
AcDbEntity
  8
AM_7
  6
AM_ISO08W050x2
100
AcDbLine
 10
421.0615885939075
 20
1335.367539158497
 30
0.0
 11
430.7231973440293
 21
1335.367539158497
 31
0.0
  0
LINE
  5
66DF
330
1F
100
AcDbEntity
  8
0
  6
HIDDEN
 62
     3
 48
0.2
100
AcDbLine
 10
429.6816659824993
 20
1365.355469468216
 30
0.0
 11
423.2111302156726
 21
1365.617328683908
 31
0.0
  0
LINE
  5
66E0
330
1F
100
AcDbEntity
  8
0
  6
HIDDEN
 62
     3
 48
0.2
100
AcDbLine
 10
429.6816659824993
 20
1365.969679942805
 30
0.0
 11
423.2111302156726
 21
1366.231539158497
 31
0.0
  0
LINE
  5
66E1
330
1F
100
AcDbEntity
  8
0
  6
HIDDEN
 62
     3
 48
0.2
100
AcDbLine
 10
429.6816659824993
 20
1356.765398374189
 30
0.0
 11
423.2111302156726
 21
1356.503539158497
 31
0.0
  0
LINE
  5
66E2
330
1F
100
AcDbEntity
  8
0
  6
HIDDEN
 62
     3
 48
0.2
100
AcDbLine
 10
429.6816659824993
 20
1357.379608848778
 30
0.0
 11
423.2111302156726
 21
1357.117749633086
 31
0.0
  0
LINE
  5
66E3
330
1F
100
AcDbEntity
  8
0
  6
HIDDEN
 62
     3
 48
0.2
100
AcDbLine
 10
429.6816659824993
 20
1339.355469468215
 30
0.0
 11
423.2111302156726
 21
1339.617328683907
 31
0.0
  0
LINE
  5
66E4
330
1F
100
AcDbEntity
  8
0
  6
HIDDEN
 62
     3
 48
0.2
100
AcDbLine
 10
429.6816659824993
 20
1339.969679942805
 30
0.0
 11
423.2111302156726
 21
1340.231539158497
 31
0.0
  0
LINE
  5
66E5
330
1F
100
AcDbEntity
  8
0
  6
HIDDEN
 62
     3
 48
0.2
100
AcDbLine
 10
429.6816659824993
 20
1330.765398374189
 30
0.0
 11
423.2111302156726
 21
1330.503539158497
 31
0.0
  0
LINE
  5
66E6
330
1F
100
AcDbEntity
  8
0
  6
HIDDEN
 62
     3
 48
0.2
100
AcDbLine
 10
429.6816659824993
 20
1331.379608848778
 30
0.0
 11
423.2111302156726
 21
1331.117749633086
 31
0.0
  0
DIMENSION
  5
66E8
330
1F
100
AcDbEntity
  8
AM_5
100
AcDbDimension
  2
*D3
 10
324.3373698633281
 20
1361.367539158497
 30
0.0
 11
321.887025375139
 21
1348.367539158497
 31
0.0
 70
    32
 71
     5
 42
26.00000000000023
  3
AM_ISO$0
100
AcDbAlignedDimension
 13
344.9873698633283
 23
1335.367539158497
 33
0.0
 14
344.9873698633283
 24
1361.367539158497
 34
0.0
 50
90.0
100
AcDbRotatedDimension
1001
ACAD
1000
DSTYLE
1002
{
1070
    40
1040
1.0
1070
   144
1040
1.0
1070
   272
1070
     8
1002
}
  0
DIMENSION
  5
66E9
330
1F
100
AcDbEntity
  8
AM_5
100
AcDbDimension
  2
*D4
 10
351.8373698633283
 20
1389.367539158497
 30
0.0
 11
344.0873698633283
 21
1391.817539158497
 31
0.0
 70
    32
 71
     5
 42
15.50000000000006
  3
AM_ISO$0
100
AcDbAlignedDimension
 13
336.3373698633282
 23
1376.367539158497
 33
0.0
 14
351.8373698633283
 24
1368.217539158497
 34
0.0
100
AcDbRotatedDimension
1001
ACAD
1000
DSTYLE
1002
{
1070
    40
1040
1.0
1070
   144
1040
1.0
1070
   272
1070
     8
1002
}
  0
INSERT
  5
66EA
330
1F
100
AcDbEntity
  8
AM_5
100
AcDbBlockReference
  2
*S33
 10
0.0
 20
0.0
 30
0.0
  0
TEXT
  5
66EB
330
1F
100
AcDbEntity
  8
AM_5
100
AcDbText
 10
368.0417845195957
 20
1306.899177236938
 30
0.0
 40
3.5
  1
2-PT1/8
100
AcDbText
  0
TEXT
  5
66EC
330
1F
100
AcDbEntity
  8
AM_5
100
AcDbText
 10
368.0417845195957
 20
1301.222134307457
 30
0.0
 40
3.5
  1
(PORT)
100
AcDbText
  0
DIMENSION
  5
6778
330
1F
100
AcDbEntity
  8
AM_5
100
AcDbDimension
  2
*D5
 10
508.2111302156727
 20
1299.367539158497
 30
0.0
 11
477.2111302156726
 21
1301.817883646686
 31
0.0
 70
    32
 71
     5
 42
62.0
  3
AM_ISO$0
100
AcDbAlignedDimension
 13
446.2111302156727
 23
1324.867539158497
 33
0.0
 14
508.2111302156727
 24
1324.867539158497
 34
0.0
100
AcDbRotatedDimension
1001
ACAD
1000
DSTYLE
1002
{
1070
    40
1040
1.0
1070
   144
1040
1.0
1070
   272
1070
     8
1002
}
  0
DIMENSION
  5
6779
330
1F
100
AcDbEntity
  8
AM_5
100
AcDbDimension
  2
*D6
 10
411.2111302156726
 20
1367.367539158497
 30
0.0
 11
408.7611302156724
 21
1348.367539158497
 31
0.0
 70
    32
 71
     5
 42
38.0
  3
AM_ISO$0
100
AcDbAlignedDimension
 13
441.7111302156727
 23
1329.367539158497
 33
0.0
 14
441.7111302156727
 24
1367.367539158497
 34
0.0
 50
90.0
100
AcDbRotatedDimension
1001
ACAD
1000
DSTYLE
1002
{
1070
    40
1040
1.0
1070
   144
1040
1.0
1070
   272
1070
     8
1002
}
  0
DIMENSION
  5
677A
330
1F
100
AcDbEntity
  8
AM_5
100
AcDbDimension
  2
*D7
 10
496.2111302156727
 20
1307.367539158497
 30
0.0
 11
477.2111302156726
 21
1309.817539158497
 31
0.0
 70
    32
 71
     5
 42
38.0
  3
AM_ISO$0
100
AcDbAlignedDimension
 13
458.2111302156727
 23
1346.158485145079
 33
0.0
 14
496.2111302156727
 24
1346.158485145079
 34
0.0
100
AcDbRotatedDimension
1001
ACAD
1000
DSTYLE
1002
{
1070
    40
1040
1.0
1070
   144
1040
1.0
1070
   272
1070
     8
1002
}
  0
DIMENSION
  5
677B
330
1F
100
AcDbEntity
  8
AM_5
100
AcDbDimension
  2
*D8
 10
531.2111302156728
 20
1291.367539158497
 30
0.0
 11
477.2111302156727
 21
1293.817539158497
 31
0.0
 70
    32
 71
     5
 42
108.0000000000001
  3
AM_ISO$0
100
AcDbAlignedDimension
 13
423.2111302156726
 23
1320.117539158497
 33
0.0
 14
531.2111302156728
 24
1320.117539158497
 34
0.0
100
AcDbRotatedDimension
1001
ACAD
1000
DSTYLE
1002
{
1070
    40
1040
1.0
1070
   144
1040
1.0
1070
   272
1070
     8
1002
}
  0
DIMENSION
  5
677C
330
1F
100
AcDbEntity
  8
AM_5
100
AcDbDimension
  2
*D9
 10
558.2111302156728
 20
1307.367539158497
 30
0.0
 11
544.7111302156728
 21
1309.817883646686
 31
0.0
 70
    32
  1
Max.<>
 71
     5
 42
27.0
  3
AM_ISO$0
100
AcDbAlignedDimension
 13
531.2111302156728
 23
1320.117539158497
 33
0.0
 14
558.2111302156728
 24
1331.767539158497
 34
0.0
100
AcDbRotatedDimension
1001
ACAD
1000
DSTYLE
1002
{
1070
   271
1070
     0
1070
   272
1070
     8
1002
}
  0
DIMENSION
  5
677D
330
1F
100
AcDbEntity
  8
AM_5
100
AcDbDimension
  2
*D10
 10
438.2111302156727
 20
1307.367539158497
 30
0.0
 11
430.7111302156727
 21
1309.817539158497
 31
0.0
 70
    32
 71
     5
 42
15.0
  3
AM_ISO$0
100
AcDbAlignedDimension
 13
423.2111302156726
 23
1320.117539158497
 33
0.0
 14
438.2111302156727
 24
1319.367539158497
 34
0.0
100
AcDbRotatedDimension
1001
ACAD
1000
DSTYLE
1002
{
1070
    40
1040
1.0
1070
   144
1040
1.0
1070
   272
1070
     8
1002
}
  0
DIMENSION
  5
677E
330
1F
100
AcDbEntity
  8
AM_5
100
AcDbDimension
  2
*D11
 10
531.2111302156726
 20
1307.367539158497
 30
0.0
 11
523.7111302156726
 21
1309.817539158497
 31
0.0
 70
    32
 71
     5
 42
15.00000000000011
  3
AM_ISO$0
100
AcDbAlignedDimension
 13
516.2111302156725
 23
1319.367539158497
 33
0.0
 14
531.2111302156726
 24
1320.117539158497
 34
0.0
100
AcDbRotatedDimension
1001
ACAD
1000
DSTYLE
1002
{
1070
    40
1040
1.0
1070
   144
1040
1.0
1070
   272
1070
     8
1002
}
  0
DIMENSION
  5
677F
330
1F
100
AcDbEntity
  8
AM_5
100
AcDbDimension
  2
*D12
 10
570.2111302156728
 20
1335.367539158497
 30
0.0
 11
567.7607857274836
 21
1348.367539158497
 31
0.0
 70
    32
 71
     5
 42
26.0
  3
AM_ISO$0
100
AcDbAlignedDimension
 13
560.7111302156728
 23
1361.367539158497
 33
0.0
 14
560.7111302156728
 24
1335.367539158497
 34
0.0
 50
90.0
100
AcDbRotatedDimension
1001
ACAD
1000
DSTYLE
1002
{
1070
    40
1040
1.0
1070
   144
1040
1.0
1070
   272
1070
     8
1002
}
  0
DIMENSION
  5
6780
330
1F
100
AcDbEntity
  8
AM_5
100
AcDbDimension
  2
*D13
 10
403.2111302156726
 20
1377.367539158497
 30
0.0
 11
400.7611302156724
 21
1348.367539158497
 31
0.0
 70
    32
 71
     5
 42
58.00000000000022
  3
AM_ISO$0
100
AcDbAlignedDimension
 13
438.2111302156727
 23
1319.367539158497
 33
0.0
 14
438.2111302156727
 24
1377.367539158497
 34
0.0
 50
90.0
100
AcDbRotatedDimension
1001
ACAD
1000
DSTYLE
1002
{
1070
    40
1040
1.0
1070
   144
1040
1.0
1070
   272
1070
     8
1002
}
  0
INSERT
  5
6781
330
1F
100
AcDbEntity
  8
AM_5
100
AcDbBlockReference
  2
*S34
 10
0.0
 20
0.0
 30
0.0
  0
INSERT
  5
6782
330
1F
100
AcDbEntity
  8
AM_5
100
AcDbBlockReference
  2
*S35
 10
0.0
 20
0.0
 30
0.0
  0
INSERT
  5
6783
330
1F
100
AcDbEntity
  8
AM_5
100
AcDbBlockReference
  2
*S36
 10
0.0
 20
0.0
 30
0.0
  0
TEXT
  5
6784
330
1F
100
AcDbEntity
  8
AM_5
100
AcDbText
 10
404.4033649387443
 20
1279.851541114091
 30
0.0
 40
3.5
  1
4-M5x8depth
100
AcDbText
  0
INSERT
  5
6785
330
1F
100
AcDbEntity
  8
AM_5
100
AcDbBlockReference
  2
*S37
 10
0.0
 20
0.0
 30
0.0
  0
DIMENSION
  5
6786
330
1F
100
AcDbEntity
  8
AM_5
100
AcDbDimension
  2
*D14
 10
493.8281395735566
 20
1364.984548516381
 30
0.0
 11
494.604092216667
 21
1390.357863911137
 31
0.0
 70
    34
 71
     5
 42
0.7853981633974621
  3
AM_ISO$2
100
AcDb2LineAngularDimension
 13
477.2111302156729
 23
1348.367539158497
 33
0.0
 14
477.2111302156726
 24
1379.367539158497
 34
0.0
 15
490.646159058217
 25
1361.802568001041
 35
0.0
 16
498.711130215674
 26
1385.60663152123
 36
0.0
1001
ACAD_DIMASSOC_DIMLFAC
1040
1.0
1001
ACAD_DIMASSOC_CALC_DIMLFAC
1040
1.0
1001
ACAD_DIMASSOC_OVERRIDDEN_DIMLFAC
1040
1.0
1001
ACAD
1000
DSTYLE
1002
{
1070
    40
1040
1.0
1070
   144
1040
1.0
1070
   272
1070
     8
1002
}
  0
DIMENSION
  5
6787
330
1F
100
AcDbEntity
  8
AM_5
100
AcDbDimension
  2
*D15
 10
460.5941208577889
 20
1364.984548516381
 30
0.0
 11
459.8181682146801
 21
1390.357863911135
 31
0.0
 70
    34
 71
     5
 42
0.7853981633973535
  3
AM_ISO$2
100
AcDb2LineAngularDimension
 13
477.2111302156729
 23
1348.367539158497
 33
0.0
 14
477.2111302156726
 24
1379.367539158497
 34
0.0
 15
463.7761013731281
 25
1361.802568001041
 35
0.0
 16
466.0819112762649
 26
1389.902349688927
 36
0.0
1001
ACAD_DIMASSOC_DIMLFAC
1040
1.0
1001
ACAD_DIMASSOC_CALC_DIMLFAC
1040
1.0
1001
ACAD_DIMASSOC_OVERRIDDEN_DIMLFAC
1040
1.0
1001
ACAD
1000
DSTYLE
1002
{
1070
    40
1040
1.0
1070
   144
1040
1.0
1070
   272
1070
     8
1002
}
  0
TEXT
  5
6788
330
1F
100
AcDbEntity
  8
AM_5
100
AcDbText
 10
514.1850850211669
 20
1281.071430743238
 30
0.0
 40
3.5
  1
4-M5x7depth
100
AcDbText
  0
TEXT
  5
6789
330
1F
100
AcDbEntity
  8
AM_5
100
AcDbText
 10
514.1850850211669
 20
1275.394387813756
 30
0.0
 40
3.5
  1
P.C.D38
100
AcDbText
  0
TEXT
  5
678A
330
1F
100
AcDbEntity
  8
AM_5
100
AcDbText
 10
519.424629682672
 20
1387.981425586776
 30
0.0
 40
3.5
  1
2-M3x4depth
100
AcDbText
  0
INSERT
  5
678B
330
1F
100
AcDbEntity
  8
AM_5
100
AcDbBlockReference
  2
*S38
 10
0.0
 20
0.0
 30
0.0
  0
TEXT
  5
678C
330
1F
100
AcDbEntity
  8
AM_5
100
AcDbText
 10
395.8670612466838
 20
1397.468813016261
 30
0.0
 40
3.5
  1
2-%%C6.8thru
100
AcDbText
  0
TEXT
  5
678D
330
1F
100
AcDbEntity
  8
AM_5
100
AcDbText
 10
395.8670612466838
 20
1391.79177008678
 30
0.0
 40
3.5
  1
%%C11x6.5depth
100
AcDbText
  0
TEXT
  5
678E
330
1F
100
AcDbEntity
  8
AM_5
100
AcDbText
 10
388.1066468161872
 20
1386.318541578213
 30
0.0
 40
3.5
  1
M8x12depth(sink)
100
AcDbText
  0
LINE
  5
678F
330
1F
100
AcDbEntity
  8
AM_5
100
AcDbLine
 10
395.7568129390582
 20
1396.351353624676
 30
0.0
 11
417.9323617891726
 21
1396.351353624676
 31
0.0
  0
TEXT
  5
6790
330
1F
100
AcDbEntity
  8
AM_5
100
AcDbText
 10
547.7182386331869
 20
1377.045976684885
 30
0.0
 40
3.5
  1
M10x1.0
100
AcDbText
  0
DIMENSION
  5
6880
330
1F
100
AcDbEntity
  8
AM_5
100
AcDbDimension
  2
*D16
 10
570.2111302156727
 20
1215.5512632215
 30
0.0
 11
567.7611302156726
 21
1207.8012632215
 31
0.0
 70
    32
 71
     5
 42
15.5
  3
AM_ISO$0
100
AcDbAlignedDimension
 13
516.2111302156728
 23
1200.0512632215
 33
0.0
 14
560.7111302156726
 24
1215.5512632215
 34
0.0
 50
90.0
100
AcDbRotatedDimension
1001
ACAD
1000
DSTYLE
1002
{
1070
    40
1040
1.0
1070
   144
1040
1.0
1070
   272
1070
     8
1002
}
  0
DIMENSION
  5
6881
330
1F
100
AcDbEntity
  8
AM_5
100
AcDbDimension
  2
*D17
 10
578.2111302156727
 20
1233.0512632215
 30
0.0
 11
575.7611302156725
 21
1216.551263221501
 31
0.0
 70
    32
 71
     5
 42
33.00000000000023
  3
AM_ISO$0
100
AcDbAlignedDimension
 13
516.2111302156728
 23
1200.0512632215
 33
0.0
 14
516.2111302156727
 24
1233.0512632215
 34
0.0
 50
90.0
100
AcDbRotatedDimension
1001
ACAD
1000
DSTYLE
1002
{
1070
    40
1040
1.0
1070
   144
1040
1.0
1070
   272
1070
     8
1002
}
  0
DIMENSION
  5
6882
330
1F
100
AcDbEntity
  8
AM_5
100
AcDbDimension
  2
*D18
 10
501.2111302156727
 20
1259.052164826268
 30
0.0
 11
477.2111302156726
 21
1262.003091278006
 31
0.0
 70
    32
  1
%%c<>{}{\C5; g6}
 71
     5
 42
48.0
  3
AM_ISO$0
100
AcDbAlignedDimension
 13
453.2111302156727
 23
1246.551263221501
 33
0.0
 14
501.2111302156727
 24
1246.551263221501
 34
0.0
100
AcDbRotatedDimension
1001
GENIUS_GENDTOL_13
1000
FitTxt
1000
g6
1000
{$3 $T}
1040
83.0
1001
ACAD
1000
DSTYLE
1002
{
1070
   286
1070
     0
1070
   284
1070
     8
1070
    48
1040
0.1
1070
    47
1040
0.1
1070
   272
1070
     8
1070
   274
1070
     3
1002
}
  0
DIMENSION
  5
6883
330
1F
100
AcDbEntity
  8
AM_5
100
AcDbDimension
  2
*D19
 10
502.2111302156726
 20
1267.052164826267
 30
0.0
 11
477.2111302156726
 21
1270.003091278006
 31
0.0
 70
    32
  1
%%c<>{}{\C5; g6}
 71
     5
 42
50.0
  3
AM_ISO$0
100
AcDbAlignedDimension
 13
452.2111302156726
 23
1238.2512632215
 33
0.0
 14
502.2111302156726
 24
1238.2512632215
 34
0.0
100
AcDbRotatedDimension
1001
GENIUS_GENDTOL_13
1000
FitTxt
1000
g6
1000
{$3 $T}
1040
85.0
1001
ACAD
1000
DSTYLE
1002
{
1070
   286
1070
     0
1070
   284
1070
     8
1070
    48
1040
0.1
1070
    47
1040
0.1
1070
   272
1070
     8
1070
   274
1070
     3
1002
}
  0
DIMENSION
  5
6884
330
1F
100
AcDbEntity
  8
AM_5
100
AcDbDimension
  2
*D20
 10
578.2111302156727
 20
1247.0512632215
 30
0.0
 11
575.7611302156725
 21
1240.051263221501
 31
0.0
 70
    32
 71
     5
 42
13.99999999999977
  3
AM_ISO$0
100
AcDbAlignedDimension
 13
516.2111302156727
 23
1233.0512632215
 33
0.0
 14
500.7111302156727
 24
1247.0512632215
 34
0.0
 50
90.0
100
AcDbRotatedDimension
1001
ACAD
1000
DSTYLE
1002
{
1070
    40
1040
1.0
1070
   144
1040
1.0
1070
   272
1070
     8
1002
}
  0
DIMENSION
  5
6885
330
1F
100
AcDbEntity
  8
AM_5
100
AcDbDimension
  2
*D21
 10
570.2111302156727
 20
1247.051263221501
 30
0.0
 11
567.7611302156726
 21
1243.051263221501
 31
0.0
 70
    32
 71
     5
 42
8.000000000000454
  3
AM_ISO$0
100
AcDbAlignedDimension
 13
500.7111302156727
 23
1239.0512632215
 33
0.0
 14
506.7111302156727
 24
1247.051263221501
 34
0.0
 50
90.0
100
AcDbRotatedDimension
1001
ACAD
1000
DSTYLE
1002
{
1070
    40
1040
1.0
1070
   144
1040
1.0
1070
   272
1070
     8
1002
}
  0
DIMENSION
  5
6886
330
1F
100
AcDbEntity
  8
AM_5
100
AcDbDimension
  2
*D22
 10
586.2111302156726
 20
1247.0512632215
 30
0.0
 11
583.7611302156725
 21
1223.551263221501
 31
0.0
 70
    32
 71
     5
 42
47.0
  3
AM_ISO$0
100
AcDbAlignedDimension
 13
516.2111302156728
 23
1200.0512632215
 33
0.0
 14
500.7111302156727
 24
1247.0512632215
 34
0.0
 50
90.0
100
AcDbRotatedDimension
1001
ACAD
1000
DSTYLE
1002
{
1070
    40
1040
1.0
1070
   144
1040
1.0
1070
   272
1070
     8
1002
}
  0
DIMENSION
  5
6887
330
1F
100
AcDbEntity
  8
AM_5
100
AcDbDimension
  2
*D23
 10
485.7111302156726
 20
1183.46642231574
 30
0.0
 11
495.8861302156726
 21
1183.46642231574
 31
0.0
 70
   160
  1
%%c<>{}{\C5; H7}
 71
     5
 42
17.0
  3
AM_ISO$0
100
AcDbAlignedDimension
 13
468.7111302156726
 23
1200.051263221501
 33
0.0
 14
485.7111302156726
 24
1200.051263221501
 34
0.0
100
AcDbRotatedDimension
1001
GENIUS_GENDTOL_13
1000
FitTxt
1000
H7
1000
{$3 $T}
1040
26.0
1001
ACAD
1000
DSTYLE
1002
{
1070
   286
1070
     0
1070
   284
1070
     8
1070
    48
1040
0.1
1070
    47
1040
0.1
1070
   272
1070
     8
1070
   274
1070
     3
1002
}
  0
DIMENSION
  5
6888
330
1F
100
AcDbEntity
  8
AM_5
100
AcDbDimension
  2
*D24
 10
480.2111302156727
 20
1191.324556223689
 30
0.0
 11
495.1844223621113
 21
1191.324556223689
 31
0.0
 70
   160
  1
%%c<>thru
 71
     5
 42
6.0
  3
AM_ISO$0
100
AcDbAlignedDimension
 13
474.2111302156727
 23
1203.051263221501
 33
0.0
 14
480.2111302156727
 24
1203.051263221501
 34
0.0
100
AcDbRotatedDimension
1001
ACAD
1000
DSTYLE
1002
{
1070
    40
1040
1.0
1070
   144
1040
1.0
1070
   272
1070
     8
1002
}
  0
TEXT
  5
6889
330
1F
100
AcDbEntity
  8
AM_5
100
AcDbText
 10
502.9774703344484
 20
1184.182982982667
 30
0.0
 40
3.0
  1
%%ux2.5depth
100
AcDbText
  0
DIMENSION
  5
6964
330
1F
100
AcDbEntity
  8
AM_5
100
AcDbDimension
  2
*D25
 10
601.6335512381943
 20
1352.367539158497
 30
0.0
 11
601.6335512381941
 21
1383.587743823849
 31
0.0
 70
   160
  1
<>(wide)x3.3depth
 71
     5
 42
8.000000000000227
  3
AM_ISO$0
100
AcDbAlignedDimension
 13
613.3335512381939
 23
1344.367539158497
 33
0.0
 14
613.3335512381939
 24
1352.367539158497
 34
0.0
 50
90.0
100
AcDbRotatedDimension
1001
GENIUS_GENDTOL_13
1000
TolAcTol
1000

1000

1040
8.0
1001
ACAD
1000
DSTYLE
1002
{
1070
    47
1040
0.03
1070
    48
1040
0.0
1070
    71
1070
     1
1070
   272
1070
     8
1002
}
  0
DIMENSION
  5
6965
330
1F
100
AcDbEntity
  8
AM_5
100
AcDbDimension
  2
*D26
 10
648.3335512381936
 20
1305.195993024951
 30
0.0
 11
644.8335512381937
 21
1307.645993024951
 31
0.0
 70
    32
 71
     5
 42
6.999999999999886
  3
AM_ISO$0
100
AcDbAlignedDimension
 13
641.3335512381937
 23
1333.232123508091
 33
0.0
 14
648.3335512381936
 24
1333.232123508091
 34
0.0
100
AcDbRotatedDimension
1001
ACAD
1000
DSTYLE
1002
{
1070
    40
1040
1.0
1070
   144
1040
1.0
1070
   272
1070
     8
1002
}
  0
DIMENSION
  5
6966
330
1F
100
AcDbEntity
  8
AM_5
100
AcDbDimension
  2
*D27
 10
653.3335512381937
 20
1297.195993024951
 30
0.0
 11
644.8335512381937
 21
1299.645993024951
 31
0.0
 70
    32
 71
     5
 42
17.0
  3
AM_ISO$0
100
AcDbAlignedDimension
 13
636.3335512381937
 23
1330.460061870385
 33
0.0
 14
653.3335512381937
 24
1330.460061870385
 34
0.0
100
AcDbRotatedDimension
1001
ACAD
1000
DSTYLE
1002
{
1070
    40
1040
1.0
1070
   144
1040
1.0
1070
   272
1070
     8
1002
}
  0
DIMENSION
  5
6967
330
1F
100
AcDbEntity
  8
AM_5
100
AcDbDimension
  2
*D28
 10
590.8508509941955
 20
1360.367539158497
 30
0.0
 11
590.8508509941952
 21
1380.230965610236
 31
0.0
 70
   160
  1
%%c<>(H7)x3depth
 71
     5
 42
24.00000000000023
  3
AM_ISO$0
100
AcDbAlignedDimension
 13
613.3335512381939
 23
1336.367539158497
 33
0.0
 14
613.3335512381939
 24
1360.367539158497
 34
0.0
 50
90.0
100
AcDbRotatedDimension
1001
ACAD
1000
DSTYLE
1002
{
1070
    40
1040
1.0
1070
   144
1040
1.0
1070
   272
1070
     8
1002
}
  0
POINT
  5
6BCF
330
1F
100
AcDbEntity
  8
0
 60
     1
100
AcDbPoint
 10
0.0
 20
0.0
 30
0.0
  0
POINT
  5
6BD9
330
1F
100
AcDbEntity
  8
0
 60
     1
100
AcDbPoint
 10
0.0
 20
0.0
 30
0.0
  0
LINE
  5
6C03
330
1F
100
AcDbEntity
  8
AM_VIS
100
AcDbLine
 10
641.3335512381937
 20
1337.502954808903
 30
0.0
 11
641.3335512381937
 21
1336.210154135815
 31
0.0
  0
LINE
  5
6C04
330
1F
100
AcDbEntity
  8
AM_VIS
100
AcDbLine
 10
648.3335512381938
 20
1337.502954808903
 30
0.0
 11
648.3335512381938
 21
1336.210154135815
 31
0.0
  0
LINE
  5
6C05
330
1F
100
AcDbEntity
  8
AM_VIS
100
AcDbLine
 10
641.3335512381937
 20
1334.52492418118
 30
0.0
 11
641.3335512381937
 21
1336.210154135815
 31
0.0
  0
LINE
  5
6C06
330
1F
100
AcDbEntity
  8
AM_VIS
100
AcDbLine
 10
648.3335512381938
 20
1336.210154135815
 30
0.0
 11
648.3335512381938
 21
1334.52492418118
 31
0.0
  0
LINE
  5
6C07
330
1F
100
AcDbEntity
  8
AM_VIS
100
AcDbLine
 10
648.3335512381938
 20
1334.52492418118
 30
0.0
 11
648.3335512381938
 21
1333.232123508091
 31
0.0
  0
LINE
  5
6C08
330
1F
100
AcDbEntity
  8
AM_VIS
100
AcDbLine
 10
641.3335512381937
 20
1334.52492418118
 30
0.0
 11
641.3335512381937
 21
1333.232123508091
 31
0.0
  0
ARC
  5
6C0A
330
1F
100
AcDbEntity
  8
AM_VIS
100
AcDbCircle
 10
644.8335512381937
 20
1335.367539158497
 30
0.0
 40
4.099999999999999
100
AcDbArc
 50
0.0
 51
31.38814982794157
  0
ARC
  5
6C0B
330
1F
100
AcDbEntity
  8
AM_VIS
100
AcDbCircle
 10
644.8335512381937
 20
1335.367539158497
 30
0.0
 40
4.099999999999999
100
AcDbArc
 50
148.6118501720584
 51
211.3881498279416
  0
ARC
  5
6C0C
330
1F
100
AcDbEntity
  8
AM_VIS
100
AcDbCircle
 10
644.8335512381937
 20
1335.367539158497
 30
0.0
 40
4.099999999999999
100
AcDbArc
 50
328.6118501720584
 51
0.0
  0
ARC
  5
6C0D
330
1F
100
AcDbEntity
  8
AM_VIS
100
AcDbCircle
 10
644.8335512381937
 20
1335.367539158497
 30
0.0
 40
4.099999999999999
100
AcDbArc
 50
31.38814982794157
 51
148.6118501720584
  0
ARC
  5
6C0E
330
1F
100
AcDbEntity
  8
AM_VIS
100
AcDbCircle
 10
644.8335512381937
 20
1335.367539158497
 30
0.0
 40
3.599999999999999
100
AcDbArc
 50
13.53620273738393
 51
166.463797262616
  0
ARC
  5
6C0F
330
1F
100
AcDbEntity
  8
AM_VIS
100
AcDbCircle
 10
644.8335512381937
 20
1335.367539158497
 30
0.0
 40
3.599999999999999
100
AcDbArc
 50
193.5362027373839
 51
346.4637972626161
  0
ARC
  5
6C10
330
1F
100
AcDbEntity
  8
AM_VIS
100
AcDbCircle
 10
644.8335512381937
 20
1335.367539158497
 30
0.0
 40
4.099999999999999
100
AcDbArc
 50
211.3881498279416
 51
328.6118501720584
  0
LINE
  5
6C11
330
1F
100
AcDbEntity
  8
AM_VIS
100
AcDbLine
 10
641.3335512381938
 20
1363.502954808903
 30
0.0
 11
641.3335512381938
 21
1362.210154135815
 31
0.0
  0
LINE
  5
6C12
330
1F
100
AcDbEntity
  8
AM_VIS
100
AcDbLine
 10
648.3335512381938
 20
1363.502954808903
 30
0.0
 11
648.3335512381938
 21
1362.210154135815
 31
0.0
  0
LINE
  5
6C13
330
1F
100
AcDbEntity
  8
AM_VIS
100
AcDbLine
 10
641.3335512381938
 20
1360.524924181179
 30
0.0
 11
641.3335512381938
 21
1362.210154135815
 31
0.0
  0
LINE
  5
6C14
330
1F
100
AcDbEntity
  8
AM_VIS
100
AcDbLine
 10
648.3335512381938
 20
1362.210154135815
 30
0.0
 11
648.3335512381938
 21
1360.524924181179
 31
0.0
  0
LINE
  5
6C15
330
1F
100
AcDbEntity
  8
AM_VIS
100
AcDbLine
 10
648.3335512381938
 20
1360.524924181179
 30
0.0
 11
648.3335512381938
 21
1359.232123508091
 31
0.0
  0
LINE
  5
6C16
330
1F
100
AcDbEntity
  8
AM_VIS
100
AcDbLine
 10
641.3335512381938
 20
1360.524924181179
 30
0.0
 11
641.3335512381938
 21
1359.232123508091
 31
0.0
  0
ARC
  5
6C18
330
1F
100
AcDbEntity
  8
AM_VIS
100
AcDbCircle
 10
644.8335512381938
 20
1361.367539158497
 30
0.0
 40
4.099999999999999
100
AcDbArc
 50
0.0
 51
31.38814982794157
  0
ARC
  5
6C19
330
1F
100
AcDbEntity
  8
AM_VIS
100
AcDbCircle
 10
644.8335512381938
 20
1361.367539158497
 30
0.0
 40
4.099999999999999
100
AcDbArc
 50
148.6118501720584
 51
211.3881498279416
  0
ARC
  5
6C1A
330
1F
100
AcDbEntity
  8
AM_VIS
100
AcDbCircle
 10
644.8335512381938
 20
1361.367539158497
 30
0.0
 40
4.099999999999999
100
AcDbArc
 50
328.6118501720584
 51
0.0
  0
ARC
  5
6C1B
330
1F
100
AcDbEntity
  8
AM_VIS
100
AcDbCircle
 10
644.8335512381938
 20
1361.367539158497
 30
0.0
 40
4.099999999999999
100
AcDbArc
 50
31.38814982794157
 51
148.6118501720584
  0
ARC
  5
6C1C
330
1F
100
AcDbEntity
  8
AM_VIS
100
AcDbCircle
 10
644.8335512381938
 20
1361.367539158497
 30
0.0
 40
3.599999999999999
100
AcDbArc
 50
13.53620273738393
 51
166.463797262616
  0
ARC
  5
6C1D
330
1F
100
AcDbEntity
  8
AM_VIS
100
AcDbCircle
 10
644.8335512381938
 20
1361.367539158497
 30
0.0
 40
3.599999999999999
100
AcDbArc
 50
193.5362027373839
 51
346.4637972626161
  0
ARC
  5
6C1E
330
1F
100
AcDbEntity
  8
AM_VIS
100
AcDbCircle
 10
644.8335512381938
 20
1361.367539158497
 30
0.0
 40
4.099999999999999
100
AcDbArc
 50
211.3881498279416
 51
328.6118501720584
  0
LINE
  5
6C2C
330
1F
100
AcDbEntity
  8
AM_7
100
AcDbLine
 10
644.8335512381938
 20
1361.367539158497
 30
0.0
 11
655.3335512381939
 21
1361.367539158497
 31
0.0
1001
GENIUS_GENOREF_13
1005
6C30
  0
LINE
  5
6C2D
330
1F
100
AcDbEntity
  8
AM_7
100
AcDbLine
 10
644.8335512381938
 20
1361.367539158497
 30
0.0
 11
644.8335512381938
 21
1371.867539158497
 31
0.0
1001
GENIUS_GENOREF_13
1005
6C30
  0
LINE
  5
6C2E
330
1F
100
AcDbEntity
  8
AM_7
100
AcDbLine
 10
644.8335512381938
 20
1361.367539158497
 30
0.0
 11
634.3335512381939
 21
1361.367539158497
 31
0.0
1001
GENIUS_GENOREF_13
1005
6C30
  0
LINE
  5
6C2F
330
1F
100
AcDbEntity
  8
AM_7
100
AcDbLine
 10
644.8335512381938
 20
1361.367539158497
 30
0.0
 11
644.8335512381938
 21
1350.867539158497
 31
0.0
1001
GENIUS_GENOREF_13
1005
6C30
  0
POINT
  5
6C30
330
1F
100
AcDbEntity
  8
0
 60
     1
100
AcDbPoint
 10
0.0
 20
0.0
 30
0.0
1001
GENIUS_GENOENT_13
1002
{
1000
MYREF
1005
6C30
1002
}
1002
{
1000
GRP
1005
0
1002
}
1001
GENIUS_GENOBJ-N-CRS_13
1002
{
1000
OWNER
1000
GEN
1002
}
1001
GENIUS_GENOLIS_13
1002
{
1000
ENT
1005
6C2F
1005
6C2E
1005
6C2D
1005
6C2C
1002
}
1001
GENIUS_GENODEF_13
1002
{
1000
HIER
1070
    10
1002
}
1002
{
1000
MANEDIT
1070
     0
1002
}
1002
{
1000
NOSEL
1070
     0
1002
}
1002
{
1000
BEHIND
1070
     0
1002
}
1002
{
1000
OTHER
1070
     0
1002
}
1002
{
1000
REACTOR
1002
}
  0
LINE
  5
6C3E
330
1F
100
AcDbEntity
  8
AM_7
100
AcDbLine
 10
644.8335512381937
 20
1335.367539158497
 30
0.0
 11
655.0835512381937
 21
1335.367539158497
 31
0.0
1001
GENIUS_GENOREF_13
1005
6C42
  0
LINE
  5
6C3F
330
1F
100
AcDbEntity
  8
AM_7
100
AcDbLine
 10
644.8335512381937
 20
1335.367539158497
 30
0.0
 11
644.8335512381937
 21
1345.617539158497
 31
0.0
1001
GENIUS_GENOREF_13
1005
6C42
  0
LINE
  5
6C40
330
1F
100
AcDbEntity
  8
AM_7
100
AcDbLine
 10
644.8335512381937
 20
1335.367539158497
 30
0.0
 11
634.5835512381937
 21
1335.367539158497
 31
0.0
1001
GENIUS_GENOREF_13
1005
6C42
  0
LINE
  5
6C41
330
1F
100
AcDbEntity
  8
AM_7
100
AcDbLine
 10
644.8335512381937
 20
1335.367539158497
 30
0.0
 11
644.8335512381937
 21
1325.117539158497
 31
0.0
1001
GENIUS_GENOREF_13
1005
6C42
  0
POINT
  5
6C42
330
1F
100
AcDbEntity
  8
0
 60
     1
100
AcDbPoint
 10
0.0
 20
0.0
 30
0.0
1001
GENIUS_GENOBJ-N-CRS_13
1002
{
1000
OWNER
1000
GEN
1002
}
1001
GENIUS_GENOENT_13
1002
{
1000
MYREF
1005
6C42
1002
}
1002
{
1000
GRP
1005
0
1002
}
1001
GENIUS_GENODEF_13
1002
{
1000
HIER
1070
    10
1002
}
1002
{
1000
MANEDIT
1070
     0
1002
}
1002
{
1000
NOSEL
1070
     0
1002
}
1002
{
1000
BEHIND
1070
     0
1002
}
1002
{
1000
OTHER
1070
     0
1002
}
1002
{
1000
REACTOR
1002
}
1001
GENIUS_GENOLIS_13
1002
{
1000
ENT
1005
6C41
1005
6C40
1005
6C3F
1005
6C3E
1002
}
  0
LINE
  5
6D33
330
1F
100
AcDbEntity
  8
0
100
AcDbLine
 10
649.9553268744935
 20
1232.801263221501
 30
0.0
 11
649.9553268744935
 21
1200.3012632215
 31
0.0
  0
LINE
  5
6D34
330
1F
100
AcDbEntity
  8
0
100
AcDbLine
 10
634.9553268744934
 20
1200.0512632215
 30
0.0
 11
629.1732863218194
 21
1200.0512632215
 31
0.0
  0
LINE
  5
6D35
330
1F
100
AcDbEntity
  8
0
100
AcDbLine
 10
634.9553268744934
 20
1233.0512632215
 30
0.0
 11
630.4639068754528
 21
1233.0512632215
 31
0.0
  0
LINE
  5
6D36
330
1F
100
AcDbEntity
  8
0
100
AcDbLine
 10
649.9553268744935
 20
1220.9012632215
 30
0.0
 11
629.8380153305319
 21
1220.9012632215
 31
0.0
  0
LINE
  5
6D37
330
1F
100
AcDbEntity
  8
0
100
AcDbLine
 10
649.9553268744935
 20
1218.2012632215
 30
0.0
 11
630.4464305712302
 21
1218.2012632215
 31
0.0
  0
LINE
  5
6D38
330
1F
100
AcDbEntity
  8
0
100
AcDbLine
 10
649.9553268744935
 20
1212.9012632215
 30
0.0
 11
631.2424229988931
 21
1212.9012632215
 31
0.0
  0
LINE
  5
6D39
330
1F
100
AcDbEntity
  8
0
100
AcDbLine
 10
649.9553268744935
 20
1210.2012632215
 30
0.0
 11
631.0026068543585
 21
1210.2012632215
 31
0.0
  0
LINE
  5
6D3A
330
1F
100
AcDbEntity
  8
0
100
AcDbLine
 10
634.9553268744934
 20
1233.0512632215
 30
0.0
 11
634.9553268744934
 21
1200.0512632215
 31
0.0
  0
LINE
  5
6D3B
330
1F
100
AcDbEntity
  8
0
100
AcDbLine
 10
649.9553268744935
 20
1232.801263221501
 30
0.0
 11
634.9553268744934
 21
1232.801263221501
 31
0.0
  0
LINE
  5
6D3C
330
1F
100
AcDbEntity
  8
0
100
AcDbLine
 10
649.9553268744935
 20
1200.3012632215
 30
0.0
 11
634.9553268744937
 21
1200.3012632215
 31
0.0
  0
LINE
  5
6D3D
330
1F
100
AcDbEntity
  8
0
100
AcDbLine
 10
649.4553268744935
 20
1224.751263221501
 30
0.0
 11
649.1553268744935
 21
1224.4512632215
 31
0.0
  0
LINE
  5
6D3E
330
1F
100
AcDbEntity
  8
0
100
AcDbLine
 10
645.4553268744935
 20
1224.051263221501
 30
0.0
 11
649.9553268744935
 21
1224.051263221501
 31
0.0
  0
LINE
  5
6D3F
330
1F
100
AcDbEntity
  8
0
100
AcDbLine
 10
649.4553268744935
 20
1231.3512632215
 30
0.0
 11
649.1553268744935
 21
1231.651263221501
 31
0.0
  0
LINE
  5
6D40
330
1F
100
AcDbEntity
  8
0
100
AcDbLine
 10
645.4553268744935
 20
1232.801263221501
 30
0.0
 11
645.4553268744935
 21
1224.051263221501
 31
0.0
  0
LINE
  5
6D41
330
1F
100
AcDbEntity
  8
0
100
AcDbLine
 10
645.4553268744935
 20
1224.4512632215
 30
0.0
 11
649.1553268744937
 21
1224.4512632215
 31
0.0
  0
LINE
  5
6D42
330
1F
100
AcDbEntity
  8
0
100
AcDbLine
 10
645.4553268744935
 20
1231.651263221501
 30
0.0
 11
649.1553268744935
 21
1231.651263221501
 31
0.0
  0
LINE
  5
6D43
330
1F
100
AcDbEntity
  8
0
100
AcDbLine
 10
649.4553268744935
 20
1231.3512632215
 30
0.0
 11
649.4553268744935
 21
1224.751263221501
 31
0.0
  0
LINE
  5
6D44
330
1F
100
AcDbEntity
  8
AM_7
100
AcDbLine
 10
655.9553268744934
 20
1215.5512632215
 30
0.0
 11
627.7437736224055
 21
1215.5512632215
 31
0.0
  0
LINE
  5
6D45
330
1F
100
AcDbEntity
  8
AM_VIS
100
AcDbLine
 10
652.0517999293477
 20
1224.0512632215
 30
0.0
 11
652.810989307196
 21
1224.0512632215
 31
0.0
  0
LINE
  5
6D46
330
1F
100
AcDbEntity
  8
AM_VIS
100
AcDbLine
 10
652.0517999293477
 20
1207.0512632215
 30
0.0
 11
652.810989307196
 21
1207.0512632215
 31
0.0
  0
SPLINE
  5
6D47
330
1F
100
AcDbEntity
  8
AM_VIS
100
AcDbSpline
210
0.0
220
0.0
230
1.0
 70
    12
 71
     2
 72
     6
 73
     3
 74
     0
 42
0.0000000001
 43
0.0000000001
 40
0.0
 40
0.0
 40
0.0
 40
9.931707172422644
 40
9.931707172422644
 40
9.931707172422644
 10
652.0517999293477
 20
1207.051263222561
 30
0.0
 41
1.0
 10
653.4684665958375
 20
1211.30126322203
 30
0.0
 41
1.154700538379196
 10
652.0517999293477
 20
1215.5512632215
 30
0.0
 41
1.0
  0
LINE
  5
6D48
330
1F
100
AcDbEntity
  8
AM_VIS
100
AcDbLine
 10
650.8588538196392
 20
1207.0512632215
 30
0.0
 11
652.0517999293477
 21
1207.0512632215
 31
0.0
  0
LINE
  5
6D49
330
1F
100
AcDbEntity
  8
AM_VIS
100
AcDbLine
 10
650.8588538196392
 20
1224.0512632215
 30
0.0
 11
652.0517999293477
 21
1224.0512632215
 31
0.0
  0
SPLINE
  5
6D4A
330
1F
100
AcDbEntity
  8
AM_VIS
100
AcDbSpline
210
0.0
220
0.0
230
1.0
 70
    12
 71
     2
 72
     6
 73
     3
 74
     0
 42
0.0000000001
 43
0.0000000001
 40
0.0
 40
0.0
 40
0.0
 40
9.931707168608895
 40
9.931707168608895
 40
9.931707168608895
 10
652.0517999293477
 20
1215.551263221501
 30
0.0
 41
1.0
 10
653.4684665947779
 20
1219.80126321991
 30
0.0
 41
1.154700538235279
 10
652.0517999293477
 20
1224.051263218321
 30
0.0
 41
1.0
  0
LINE
  5
6D4B
330
1F
100
AcDbEntity
  8
AM_VIS
100
AcDbLine
 10
650.8588538196392
 20
1215.5512632215
 30
0.0
 11
652.0517999293477
 21
1215.5512632215
 31
0.0
  0
LINE
  5
6D4C
330
1F
100
AcDbEntity
  8
AM_VIS
100
AcDbLine
 10
650.0996644417909
 20
1224.0512632215
 30
0.0
 11
650.8588538196392
 21
1224.0512632215
 31
0.0
  0
SPLINE
  5
6D4D
330
1F
100
AcDbEntity
  8
AM_VIS
100
AcDbSpline
210
0.0
220
0.0
230
1.0
 70
    12
 71
     2
 72
     6
 73
     3
 74
     0
 42
0.0000000001
 43
0.0000000001
 40
0.0
 40
0.0
 40
0.0
 40
9.931707168608898
 40
9.931707168608898
 40
9.931707168608898
 10
650.8588538196392
 20
1224.051263218321
 30
0.0
 41
1.0
 10
649.4421871542089
 20
1219.80126321991
 30
0.0
 41
1.154700538235279
 10
650.8588538196392
 20
1215.551263221501
 30
0.0
 41
1.0
  0
SPLINE
  5
6D4E
330
1F
100
AcDbEntity
  8
AM_VIS
100
AcDbSpline
210
0.0
220
0.0
230
1.0
 70
    12
 71
     2
 72
     6
 73
     3
 74
     0
 42
0.0000000001
 43
0.0000000001
 40
0.0
 40
0.0
 40
0.0
 40
9.931707172422644
 40
9.931707172422644
 40
9.931707172422644
 10
650.8588538196392
 20
1215.5512632215
 30
0.0
 41
1.0
 10
649.4421871531492
 20
1211.30126322203
 30
0.0
 41
1.154700538379198
 10
650.8588538196392
 20
1207.051263222561
 30
0.0
 41
1.0
  0
LINE
  5
6D4F
330
1F
100
AcDbEntity
  8
AM_VIS
100
AcDbLine
 10
650.0996644417909
 20
1207.0512632215
 30
0.0
 11
650.8588538196392
 21
1207.0512632215
 31
0.0
  0
LINE
  5
6D50
330
1F
100
AcDbEntity
  8
AM_VIS
100
AcDbLine
 10
652.9553268744934
 20
1223.8012632215
 30
0.0
 11
652.810989307196
 21
1224.0512632215
 31
0.0
  0
LINE
  5
6D51
330
1F
100
AcDbEntity
  8
AM_VIS
100
AcDbLine
 10
652.9553268744934
 20
1207.3012632215
 30
0.0
 11
652.810989307196
 21
1207.0512632215
 31
0.0
  0
LINE
  5
6D52
330
1F
100
AcDbEntity
  8
AM_VIS
100
AcDbLine
 10
649.9553268744935
 20
1207.3012632215
 30
0.0
 11
650.0996644417909
 21
1207.0512632215
 31
0.0
  0
LINE
  5
6D53
330
1F
100
AcDbEntity
  8
AM_VIS
100
AcDbLine
 10
649.9553268744935
 20
1223.8012632215
 30
0.0
 11
650.0996644417909
 21
1224.0512632215
 31
0.0
  0
LINE
  5
6D54
330
1F
100
AcDbEntity
  8
AM_VIS
100
AcDbLine
 10
652.9553268744934
 20
1207.3012632215
 30
0.0
 11
652.9553268744934
 21
1223.8012632215
 31
0.0
  0
LINE
  5
6D55
330
1F
100
AcDbEntity
  8
AM_VIS
100
AcDbLine
 10
649.9553268744935
 20
1223.8012632215
 30
0.0
 11
649.9553268744935
 21
1207.3012632215
 31
0.0
  0
LINE
  5
6D56
330
1F
100
AcDbEntity
  8
AM_7
100
AcDbLine
 10
649.9553268744935
 20
1215.5512632215
 30
0.0
 11
684.4553268744935
 21
1215.5512632215
 31
0.0
  0
LINE
  5
6D5F
330
1F
100
AcDbEntity
  8
AM_VIS
100
AcDbLine
 10
652.9553268744934
 20
1210.5512632215
 30
0.0
 11
652.9553268744934
 21
1220.5512632215
 31
0.0
  0
SPLINE
  5
6D66
330
1F
100
AcDbEntity
  8
0
100
AcDbSpline
210
0.0
220
0.0
230
1.0
 70
     8
 71
     3
 72
    10
 73
     6
 74
     0
 42
0.0000000001
 43
0.0000000001
 40
10.63107257671846
 40
10.63107257671846
 40
10.63107257671846
 40
10.63107257671846
 40
15.10531722137198
 40
33.10190204555947
 40
44.75123733539051
 40
44.75123733539051
 40
44.75123733539051
 40
44.75123733539051
 10
630.4639068754559
 20
1233.0512632215
 30
0.0
 10
628.532725298415
 20
1227.943344584527
 30
0.0
 10
630.3428439813259
 20
1216.921061891695
 30
0.0
 10
632.2847355781032
 20
1214.263811744432
 30
0.0
 10
629.7982879899234
 20
1204.352126562635
 30
0.0
 10
629.1732863218194
 20
1200.051263221501
 30
0.0
  0
LINE
  5
6D67
330
1F
100
AcDbEntity
  8
AM_7
  6
AM_ISO08W050x2
100
AcDbLine
 10
651.4553268744935
 20
1228.051263221501
 30
0.0
 11
642.6943693282376
 21
1228.051263221501
 31
0.0
1001
GENIUS_GENOBJ-N-CEN_13
1002
{
1000
OWNER
1000
GEN
1002
}
1001
GENIUS_GENODEF_13
1002
{
1000
HIER
1070
     0
1002
}
1002
{
1000
MANEDIT
1070
     0
1002
}
1002
{
1000
NOSEL
1070
     0
1002
}
1002
{
1000
BEHIND
1070
     0
1002
}
1002
{
1000
OTHER
1070
     0
1002
}
1002
{
1000
REACTOR
1002
}
1001
GENIUS_GENCEN_19
1002
{
1040
2.0
1002
}
  0
LINE
  5
6D87
330
1F
100
AcDbEntity
  8
AM_VIS
100
AcDbLine
 10
676.1305489137242
 20
1219.8012632215
 30
0.0
 11
676.1305489137242
 21
1211.3012632215
 31
0.0
  0
LINE
  5
6D88
330
1F
100
AcDbEntity
  8
AM_VIS
100
AcDbLine
 10
675.3805489137242
 20
1210.5512632215
 30
0.0
 11
675.3805489137242
 21
1220.5512632215
 31
0.0
  0
LINE
  5
6D89
330
1F
100
AcDbEntity
  8
AM_VIS
100
AcDbLine
 10
680.6305489137242
 20
1211.4512632215
 30
0.0
 11
680.6305489137242
 21
1215.0512632215
 31
0.0
  0
LINE
  5
6D8A
330
1F
100
AcDbEntity
  8
AM_VIS
100
AcDbLine
 10
680.6305489137242
 20
1216.0512632215
 30
0.0
 11
680.6305489137242
 21
1219.6512632215
 31
0.0
  0
LINE
  5
6D8B
330
1F
100
AcDbEntity
  8
AM_VIS
100
AcDbLine
 10
681.1305489137242
 20
1219.1512632215
 30
0.0
 11
681.1305489137242
 21
1216.0512632215
 31
0.0
  0
LINE
  5
6D8C
330
1F
100
AcDbEntity
  8
AM_VIS
100
AcDbLine
 10
681.1305489137242
 20
1215.0512632215
 30
0.0
 11
681.1305489137242
 21
1211.9512632215
 31
0.0
  0
LINE
  5
6D8D
330
1F
100
AcDbEntity
  8
AM_VIS
100
AcDbLine
 10
680.1305489137242
 20
1216.0512632215
 30
0.0
 11
680.1305489137242
 21
1215.5512632215
 31
0.0
  0
LINE
  5
6D8E
330
1F
100
AcDbEntity
  8
AM_VIS
100
AcDbLine
 10
676.1305489137242
 20
1219.8012632215
 30
0.0
 11
675.3805489137242
 21
1220.5512632215
 31
0.0
  0
LINE
  5
6D8F
330
1F
100
AcDbEntity
  8
AM_VIS
100
AcDbLine
 10
676.1305489137242
 20
1211.3012632215
 30
0.0
 11
675.3805489137242
 21
1210.5512632215
 31
0.0
  0
LINE
  5
6D90
330
1F
100
AcDbEntity
  8
AM_VIS
100
AcDbLine
 10
675.3805489137242
 20
1220.5512632215
 30
0.0
 11
652.9553268744933
 21
1220.5512632215
 31
0.0
  0
LINE
  5
6D91
330
1F
100
AcDbEntity
  8
AM_VIS
100
AcDbLine
 10
675.3805489137242
 20
1210.5512632215
 30
0.0
 11
652.9553268744934
 21
1210.5512632215
 31
0.0
  0
LINE
  5
6D92
330
1F
100
AcDbEntity
  8
AM_VIS
100
AcDbLine
 10
680.6305489137242
 20
1219.6512632215
 30
0.0
 11
676.1305489137242
 21
1219.6512632215
 31
0.0
  0
LINE
  5
6D93
330
1F
100
AcDbEntity
  8
AM_VIS
100
AcDbLine
 10
680.6305489137242
 20
1211.4512632215
 30
0.0
 11
676.1305489137242
 21
1211.4512632215
 31
0.0
  0
LINE
  5
6D94
330
1F
100
AcDbEntity
  8
AM_VIS
100
AcDbLine
 10
681.1305489137242
 20
1219.1512632215
 30
0.0
 11
680.6305489137242
 21
1219.6512632215
 31
0.0
  0
LINE
  5
6D95
330
1F
100
AcDbEntity
  8
AM_VIS
100
AcDbLine
 10
681.1305489137242
 20
1211.9512632215
 30
0.0
 11
680.6305489137242
 21
1211.4512632215
 31
0.0
  0
LINE
  5
6D96
330
1F
100
AcDbEntity
  8
AM_4
100
AcDbLine
 10
652.9553268744933
 20
1219.8012632215
 30
0.0
 11
676.1305489137242
 21
1219.8012632215
 31
0.0
  0
LINE
  5
6D97
330
1F
100
AcDbEntity
  8
AM_4
100
AcDbLine
 10
652.9553268744934
 20
1211.3012632215
 30
0.0
 11
676.1305489137242
 21
1211.3012632215
 31
0.0
  0
LINE
  5
6D98
330
1F
100
AcDbEntity
  8
BORDER
100
AcDbLine
 10
680.1305489137242
 20
1216.0512632215
 30
0.0
 11
681.1305489137244
 21
1216.0512632215
 31
0.0
  0
LINE
  5
6D99
330
1F
100
AcDbEntity
  8
AM_VIS
100
AcDbLine
 10
680.1305489137242
 20
1215.0512632215
 30
0.0
 11
680.1305489137242
 21
1215.5512632215
 31
0.0
  0
LINE
  5
6D9A
330
1F
100
AcDbEntity
  8
BORDER
100
AcDbLine
 10
680.1305489137242
 20
1215.0512632215
 30
0.0
 11
681.1305489137244
 21
1215.0512632215
 31
0.0
  0
LINE
  5
6D9B
330
1F
100
AcDbEntity
  8
AM_4
100
AcDbLine
 10
534.2111302156727
 20
1219.8012632215
 30
0.0
 11
551.0611302156727
 21
1219.8012632215
 31
0.0
  0
LINE
  5
6D9C
330
1F
100
AcDbEntity
  8
AM_4
100
AcDbLine
 10
534.2111302156727
 20
1211.3012632215
 30
0.0
 11
551.0611302156727
 21
1211.3012632215
 31
0.0
  0
LINE
  5
6D9D
330
1F
100
AcDbEntity
  8
AM_4
100
AcDbLine
 10
534.2111302156728
 20
1365.617539158497
 30
0.0
 11
551.0611302156728
 21
1365.617539158497
 31
0.0
  0
LINE
  5
6D9E
330
1F
100
AcDbEntity
  8
AM_4
100
AcDbLine
 10
534.2111302156727
 20
1357.117539158497
 30
0.0
 11
551.0611302156728
 21
1357.117539158497
 31
0.0
  0
LINE
  5
6D9F
330
1F
100
AcDbEntity
  8
AM_4
100
AcDbLine
 10
534.2111302156728
 20
1339.617539158497
 30
0.0
 11
551.0611302156728
 21
1339.617539158497
 31
0.0
  0
LINE
  5
6DA0
330
1F
100
AcDbEntity
  8
AM_4
100
AcDbLine
 10
534.2111302156729
 20
1331.117539158497
 30
0.0
 11
551.0611302156728
 21
1331.117539158497
 31
0.0
  0
TEXT
  5
6DA1
330
1F
100
AcDbEntity
  8
0
100
AcDbText
 10
621.2555736694124
 20
1253.12412816005
 30
0.0
 40
7.680000000000001
  1
R型
100
AcDbText
  0
DIMENSION
  5
6DA2
330
1F
100
AcDbEntity
  8
AM_5
100
AcDbDimension
  2
*D29
 10
681.1305489137242
 20
1191.595828002984
 30
0.0
 11
665.5429378941089
 21
1194.045828002984
 31
0.0
 70
    32
  1
Max.<>
 71
     5
 42
31.17522203923079
  3
AM_ISO$0
100
AcDbAlignedDimension
 13
649.9553268744935
 23
1200.3012632215
 33
0.0
 14
681.1305489137242
 24
1211.9512632215
 34
0.0
100
AcDbRotatedDimension
1001
ACAD
1000
DSTYLE
1002
{
1070
   271
1070
     0
1070
   272
1070
     8
1002
}
  0
TEXT
  5
6DA3
330
1F
100
AcDbEntity
  8
AM_5
100
AcDbText
 10
671.2989596317342
 20
1229.803444303155
 30
0.0
 40
3.0
  1
MAC1007-SN
100
AcDbText
  0
INSERT
  5
6DA4
330
1F
100
AcDbEntity
  8
AM_5
100
AcDbBlockReference
  2
*S39
 10
0.0
 20
0.0
 30
0.0
  0
ARC
  5
6F7B
330
1F
100
AcDbEntity
  8
0
  6
HIDDEN
 62
     3
 48
0.2
100
AcDbCircle
 10
446.2111302156727
 20
1348.367539158497
 30
0.0
 40
4.0
100
AcDbArc
 50
280.0
 51
190.0
  0
ARC
  5
6F7C
330
1F
100
AcDbEntity
  8
0
  6
HIDDEN
 62
     3
 48
0.2
100
AcDbCircle
 10
508.2111302156727
 20
1348.367539158497
 30
0.0
 40
4.0
100
AcDbArc
 50
280.0
 51
190.0
  0
TEXT
  5
7020
330
1F
100
AcDbEntity
  8
LOGO
 62
     7
100
AcDbText
 10
361.1585940304096
 20
1149.992845846682
 30
0.0
 40
3.999420814479637
  1
Order example:
 41
0.8
  7
CHINESET
100
AcDbText
  0
TEXT
  5
7021
330
1F
100
AcDbEntity
  8
LOGO
 62
     7
100
AcDbText
 10
361.876123198392
 20
1155.623202262823
 30
0.0
 40
5.999131221719456
  1
訂購代號：
  7
CHINESET
100
AcDbText
  0
LINE
  5
7022
330
1F
100
AcDbEntity
  8
LOGO
 62
     4
100
AcDbLine
 10
705.9303886823486
 20
1163.133432368154
 30
0.0
 11
293.4303886823486
 21
1163.133432368154
 31
0.0
  0
LINE
  5
7023
330
1F
100
AcDbEntity
  8
LOGO
 62
     4
100
AcDbLine
 10
359.4208321212627
 20
1133.137776259557
 30
0.0
 11
359.4208321212627
 21
1163.133432368154
 31
0.0
  0
TEXT
  5
7024
330
1F
100
AcDbEntity
  8
LOGO
  6
Continuous
100
AcDbText
 10
304.2049631896398
 20
1139.030377634699
 30
0.0
 40
4.499348416289592
  1
金器工業股份有限公司
  7
CHINESET
100
AcDbText
  0
TEXT
  5
7025
330
1F
100
AcDbEntity
  8
LOGO
  6
Continuous
100
AcDbText
 10
295.9405503011023
 20
1134.530147698882
 30
0.0
 40
2.999565610859728
  1
MINDMAN INDUSTRIAL CO., LTD.
 41
0.85
  7
CHINESET
100
AcDbText
  0
LINE
  5
7026
330
1F
100
AcDbEntity
  8
LOGO
 62
     4
100
AcDbLine
 10
359.4208321212627
 20
1157.134301146435
 30
0.0
 11
315.4272031619864
 21
1157.134301146435
 31
0.0
  0
LINE
  5
7027
330
1F
100
AcDbEntity
  8
LOGO
 62
     4
100
AcDbLine
 10
359.4208321212627
 20
1151.135169924715
 30
0.0
 11
315.4272031619864
 21
1151.135169924715
 31
0.0
  0
LINE
  5
7028
330
1F
100
AcDbEntity
  8
LOGO
 62
     4
100
AcDbLine
 10
359.4208321212627
 20
1145.136038702996
 30
0.0
 11
293.4303886823486
 21
1145.136038702996
 31
0.0
  0
LINE
  5
7029
330
1F
100
AcDbEntity
  8
LOGO
 62
     4
100
AcDbLine
 10
315.4272031619864
 20
1145.136038702996
 30
0.0
 11
315.4272031619864
 21
1163.133432368154
 31
0.0
  0
TEXT
  5
702A
330
1F
100
AcDbEntity
  8
LOGO
100
AcDbText
 10
345.4947720879934
 20
1146.635821508425
 30
0.0
 40
2.999565610859728
  1
mm
  7
CHINESET
 72
     1
 11
349.2085199871531
 21
1148.135604313855
 31
0.0
100
AcDbText
 73
     2
  0
TEXT
  5
702B
330
1F
100
AcDbEntity
  8
LOGO
100
AcDbText
 10
343.9235710537336
 20
1158.634083951864
 30
0.0
 40
2.999565610859728
  1
1 : 1
  7
CHINESET
 72
     1
 11
349.2085199871531
 21
1160.133866757294
 31
0.0
100
AcDbText
 73
     2
  0
LINE
  5
702C
330
1F
100
AcDbEntity
  8
LOGO
 62
     4
100
AcDbLine
 10
339.4237280488644
 20
1145.136038702996
 30
0.0
 11
339.4237280488644
 21
1163.133432368154
 31
0.0
  0
TEXT
  5
702D
330
1F
100
AcDbEntity
  8
LOGO
100
AcDbText
 10
317.9005056991552
 20
1158.635560116043
 30
196.5865886400747
 40
2.999565610859728
  1
比例 Scale:
 41
0.9
  7
CHINESET
 72
     4
 11
327.4254656054254
 21
1160.133866757294
 31
196.5865886400747
100
AcDbText
  0
TEXT
  5
702E
330
1F
100
AcDbEntity
  8
LOGO
100
AcDbText
 10
317.7277628581727
 20
1152.677146422916
 30
196.5865886400747
 40
2.999565610859728
  1
投影  View:
 41
0.9
  7
CHINESET
 72
     4
 11
327.4254656054254
 21
1154.134735535575
 31
196.5865886400747
100
AcDbText
  0
TEXT
  5
702F
330
1F
100
AcDbEntity
  8
LOGO
100
AcDbText
 10
318.0210239603058
 20
1146.635821508425
 30
196.5865886400747
 40
2.999565610859728
  1
單位  Unit:
 41
0.9
  7
CHINESET
 72
     4
 11
327.4254656054254
 21
1148.135604313855
 31
196.5865886400747
100
AcDbText
  0
LWPOLYLINE
  5
7030
330
1F
100
AcDbEntity
  8
LOGO
 62
     4
100
AcDbPolyline
 90
        4
 70
     1
 43
0.0
 10
293.4303886823485
 20
1163.133432368154
 10
705.9303886823486
 20
1163.133432368154
 10
705.9303886823486
 20
1433.137776259556
 10
293.4303886823485
 20
1433.137776259556
1001
GENIUS_GENREC_14
1002
{
1000
PYDIR
1011
293.4303886823485
1021
1433.137776259556
1031
0.0
1002
}
1002
{
1000
PXDIR
1011
705.9303886823486
1021
1163.133432368154
1031
0.0
1002
}
1002
{
1000
PORI
1011
293.4303886823485
1021
1163.133432368154
1031
0.0
1002
}
1002
{
1000
PINS
1011
293.4303886823485
1021
1163.133432368154
1031
0.0
1002
}
1002
{
1000
PINS2
1011
705.9303886823486
1021
1433.137776259556
1031
0.0
1002
}
1002
{
1000
C
1070
     1
1002
}
1001
GENIUS_GENODEF_13
1002
{
1000
HIER
1070
     0
1002
}
1002
{
1000
MANEDIT
1070
     0
1002
}
1002
{
1000
NOSEL
1070
     0
1002
}
1002
{
1000
BEHIND
1070
     0
1002
}
1002
{
1000
OTHER
1070
     0
1002
}
1002
{
1000
REACTOR
1002
}
1001
GENIUS_GENOBJ-N-REC_13
1002
{
1000
OWNER
1000
GEN
1002
}
  0
SOLID
  5
7031
330
1F
100
AcDbEntity
  8
LOGO
 62
     5
100
AcDbTrace
 10
296.542486142982
 20
1150.122389576506
 30
0.0
 11
297.839419604516
 21
1150.122389576506
 31
0.0
 12
303.2507626681582
 22
1162.42089653933
 32
0.0
 13
304.5476961296929
 23
1162.420896539329
 33
0.0
  0
SOLID
  5
7032
330
1F
100
AcDbEntity
  8
LOGO
 62
     5
100
AcDbTrace
 10
298.3760817265316
 20
1150.122389576506
 30
0.0
 11
299.6730151880656
 21
1150.122389576506
 31
0.0
 12
304.5476961296929
 22
1161.437015982303
 32
0.0
 13
303.2507626681582
 23
1156.681593290012
 33
0.0
  0
SOLID
  5
7033
330
1F
100
AcDbEntity
  8
LOGO
 62
     2
100
AcDbTrace
 10
297.839419604516
 20
1150.122389576506
 30
0.0
 11
298.3760817265316
 21
1150.122389576506
 31
0.0
 12
304.5476961296929
 22
1162.420896539329
 32
0.0
 13
305.0843582517077
 23
1162.420896539329
 33
0.0
  0
SOLID
  5
7034
330
1F
100
AcDbEntity
  8
LOGO
 62
     5
100
AcDbTrace
 10
294.4631837570994
 20
1145.650205226389
 30
0.0
 11
294.9104021921116
 21
1145.650205226389
 31
0.0
 12
296.1698041138059
 22
1147.886297401447
 32
0.0
 13
296.6170225488168
 23
1147.886297401447
 33
0.0
  0
SOLID
  5
7035
330
1F
100
AcDbEntity
  8
LOGO
 62
     5
100
AcDbTrace
 10
296.1698041138059
 20
1147.886297401447
 30
0.0
 11
296.6170225488168
 21
1147.886297401447
 31
0.0
 12
296.1698041138059
 22
1145.650205226389
 32
0.0
 13
296.6170225488168
 23
1145.650205226389
 33
0.0
  0
SOLID
  5
7036
330
1F
100
AcDbEntity
  8
LOGO
 62
     5
100
AcDbTrace
 10
296.1698041138059
 20
1145.650205226389
 30
0.0
 11
296.6170225488168
 21
1145.650205226389
 31
0.0
 12
297.876424470513
 22
1147.886297401447
 32
0.0
 13
298.3236429055246
 23
1147.886297401447
 33
0.0
  0
SOLID
  5
7037
330
1F
100
AcDbEntity
  8
LOGO
 62
     5
100
AcDbTrace
 10
297.876424470513
 20
1147.886297401447
 30
0.0
 11
298.3236429055246
 21
1147.886297401447
 31
0.0
 12
297.876424470513
 22
1145.650205226389
 32
0.0
 13
298.3236429055246
 23
1145.650205226389
 33
0.0
  0
POLYLINE
  5
7038
330
1F
100
AcDbEntity
  8
LOGO
 62
     5
100
AcDb2dPolyline
 66
     1
 10
0.0
 20
0.0
 30
0.0
 40
0.4479351312217194
 41
0.4479351312217194
  0
VERTEX
  5
7039
330
7038
100
AcDbEntity
  8
LOGO
 62
     5
100
AcDbVertex
100
AcDb2dVertex
 10
312.8670340652273
 20
1146.991860531424
 30
0.0
 42
1.0
  0
VERTEX
  5
703A
330
7038
100
AcDbEntity
  8
LOGO
 62
     5
100
AcDbVertex
100
AcDb2dVertex
 10
311.5232286715618
 20
1146.991860531424
 30
0.0
 42
1.0
  0
SEQEND
  5
703B
330
7038
100
AcDbEntity
  8
LOGO
 62
     5
  0
POLYLINE
  5
703C
330
1F
100
AcDbEntity
  8
LOGO
 62
     5
100
AcDb2dPolyline
 66
     1
 10
0.0
 20
0.0
 30
0.0
 70
     1
  0
VERTEX
  5
703D
330
703C
100
AcDbEntity
  8
LOGO
 62
     5
100
AcDbVertex
100
AcDb2dVertex
 10
308.9900957320383
 20
1146.768251313918
 30
0.0
 42
1.000000057330635
  0
VERTEX
  5
703E
330
703C
100
AcDbEntity
  8
LOGO
 62
     5
100
AcDbVertex
100
AcDb2dVertex
 10
310.3317510370737
 20
1146.768251313918
 30
0.0
 42
1.000000057330635
  0
SEQEND
  5
703F
330
703C
100
AcDbEntity
  8
LOGO
 62
     5
  0
CIRCLE
  5
7040
330
1F
100
AcDbEntity
  8
LOGO
 62
     5
100
AcDbCircle
 10
309.660923384557
 20
1146.768251313918
 30
0.0
 40
0.6708276525176471
  0
POLYLINE
  5
7041
330
1F
100
AcDbEntity
  8
LOGO
 62
     5
100
AcDb2dPolyline
 66
     1
 10
0.0
 20
0.0
 30
0.0
 70
     1
 40
0.4479351312217194
 41
0.4479351312217194
  0
VERTEX
  5
7042
330
7041
100
AcDbEntity
  8
LOGO
 62
     5
100
AcDbVertex
100
AcDb2dVertex
 10
308.7650531221129
 20
1146.768251313918
 30
0.0
 42
1.0
  0
VERTEX
  5
7043
330
7041
100
AcDbEntity
  8
LOGO
 62
     5
100
AcDbVertex
100
AcDb2dVertex
 10
310.5567936469997
 20
1146.768251313918
 30
0.0
 42
1.0
  0
SEQEND
  5
7044
330
7041
100
AcDbEntity
  8
LOGO
 62
     5
  0
LINE
  5
7045
330
1F
100
AcDbEntity
  8
LOGO
100
AcDbLine
 10
313.0895682384173
 20
1145.650205226389
 30
0.0
 11
313.0895682384173
 21
1146.991860531424
 31
0.0
  0
SOLID
  5
7046
330
1F
100
AcDbEntity
  8
LOGO
 62
     5
100
AcDbTrace
 10
310.3317063152322
 20
1147.886297401447
 30
0.0
 11
310.778924750243
 21
1147.886297401447
 31
0.0
 12
310.3317063152322
 22
1145.650205226389
 32
0.0
 13
310.778924750243
 23
1145.650205226389
 33
0.0
  0
SOLID
  5
7047
330
1F
100
AcDbEntity
  8
LOGO
 62
     5
100
AcDbTrace
 10
311.3006944983704
 20
1145.650205226389
 30
0.0
 11
311.7479129333826
 21
1145.650205226389
 31
0.0
 12
311.3006944983704
 22
1147.886297401447
 32
0.0
 13
311.7479129333826
 23
1147.886297401447
 33
0.0
  0
SOLID
  5
7048
330
1F
100
AcDbEntity
  8
LOGO
 62
     5
100
AcDbTrace
 10
312.6423498034065
 20
1146.991860531424
 30
0.0
 11
313.0895682384173
 21
1146.991860531424
 31
0.0
 12
312.6423498034065
 22
1145.650205226389
 32
0.0
 13
313.0895682384173
 23
1145.650205226389
 33
0.0
  0
SOLID
  5
7049
330
1F
100
AcDbEntity
  8
LOGO
 62
     5
100
AcDbTrace
 10
311.2559726548691
 20
1161.437015982303
 30
0.0
 11
309.9590391933357
 21
1156.681593290012
 31
0.0
 12
311.2559726548691
 22
1150.122389576506
 32
0.0
 13
309.9590391933357
 23
1150.122389576506
 33
0.0
  0
SOLID
  5
704A
330
1F
100
AcDbEntity
  8
LOGO
 62
     5
100
AcDbTrace
 10
311.7926347768839
 20
1150.122389576506
 30
0.0
 11
313.0895682384173
 21
1150.122389576506
 31
0.0
 12
311.7926347768839
 22
1162.420896539329
 32
0.0
 13
313.0895682384173
 23
1162.42089653933
 33
0.0
  0
SOLID
  5
704B
330
1F
100
AcDbEntity
  8
LOGO
 62
     2
100
AcDbTrace
 10
311.2559726548691
 20
1162.42089653933
 30
0.0
 11
311.7926347768839
 21
1162.420896539329
 31
0.0
 12
311.2559726548691
 22
1150.122389576506
 32
0.0
 13
311.7926347768839
 23
1150.122389576506
 33
0.0
  0
POLYLINE
  5
704C
330
1F
100
AcDbEntity
  8
LOGO
 62
     5
100
AcDb2dPolyline
 66
     1
 10
0.0
 20
0.0
 30
0.0
 40
0.4479351312217194
 41
0.4479351312217194
  0
VERTEX
  5
704D
330
704C
100
AcDbEntity
  8
LOGO
 62
     5
100
AcDbVertex
100
AcDb2dVertex
 10
306.4568733488297
 20
1146.991860531424
 30
0.0
 42
1.0
  0
VERTEX
  5
704E
330
704C
100
AcDbEntity
  8
LOGO
 62
     5
100
AcDbVertex
100
AcDb2dVertex
 10
305.1130679551643
 20
1146.991860531424
 30
0.0
 42
1.0
  0
SEQEND
  5
704F
330
704C
100
AcDbEntity
  8
LOGO
 62
     5
  0
POLYLINE
  5
7050
330
1F
100
AcDbEntity
  8
LOGO
 62
     5
100
AcDb2dPolyline
 66
     1
 10
0.0
 20
0.0
 30
0.0
 40
0.4479351312217194
 41
0.4479351312217194
  0
VERTEX
  5
7051
330
7050
100
AcDbEntity
  8
LOGO
 62
     5
100
AcDbVertex
100
AcDb2dVertex
 10
307.7985286538638
 20
1146.991860531424
 30
0.0
 42
1.0
  0
VERTEX
  5
7052
330
7050
100
AcDbEntity
  8
LOGO
 62
     5
100
AcDbVertex
100
AcDb2dVertex
 10
306.454723260199
 20
1146.991860531424
 30
0.0
 42
1.0
  0
SEQEND
  5
7053
330
7050
100
AcDbEntity
  8
LOGO
 62
     5
  0
POLYLINE
  5
7054
330
1F
100
AcDbEntity
  8
LOGO
 62
     5
100
AcDb2dPolyline
 66
     1
 10
0.0
 20
0.0
 30
0.0
 40
0.4479351312217194
 41
0.4479351312217194
  0
VERTEX
  5
7055
330
7054
100
AcDbEntity
  8
LOGO
 62
     5
100
AcDbVertex
100
AcDb2dVertex
 10
301.3883679374662
 20
1146.991860531424
 30
0.0
 42
1.0
  0
VERTEX
  5
7056
330
7054
100
AcDbEntity
  8
LOGO
 62
     5
100
AcDbVertex
100
AcDb2dVertex
 10
300.0445625438015
 20
1146.991860531424
 30
0.0
 42
1.0
  0
SEQEND
  5
7057
330
7054
100
AcDbEntity
  8
LOGO
 62
     5
  0
SOLID
  5
7058
330
1F
100
AcDbEntity
  8
LOGO
 62
     5
100
AcDbTrace
 10
299.8220283706107
 20
1147.886297401447
 30
0.0
 11
300.2692468056216
 21
1147.886297401447
 31
0.0
 12
299.8220283706107
 22
1145.650205226389
 32
0.0
 13
300.2692468056216
 23
1145.650205226389
 33
0.0
  0
SOLID
  5
7059
330
1F
100
AcDbEntity
  8
LOGO
 62
     5
100
AcDbTrace
 10
301.1636836756461
 20
1146.991860531424
 30
0.0
 11
301.6109021106583
 21
1146.991860531424
 31
0.0
 12
301.1636836756461
 22
1145.650205226389
 32
0.0
 13
301.6109021106583
 23
1145.650205226389
 33
0.0
  0
POLYLINE
  5
705A
330
1F
100
AcDbEntity
  8
LOGO
 62
     5
100
AcDb2dPolyline
 66
     1
 10
0.0
 20
0.0
 30
0.0
 70
     1
 40
0.4479351312217194
 41
0.4479351312217194
  0
VERTEX
  5
705B
330
705A
100
AcDbEntity
  8
LOGO
 62
     5
100
AcDbVertex
100
AcDb2dVertex
 10
302.3548924057148
 20
1146.768251313918
 30
0.0
 42
1.0
  0
VERTEX
  5
705C
330
705A
100
AcDbEntity
  8
LOGO
 62
     5
100
AcDbVertex
100
AcDb2dVertex
 10
304.1466329306022
 20
1146.768251313918
 30
0.0
 42
1.0
  0
SEQEND
  5
705D
330
705A
100
AcDbEntity
  8
LOGO
 62
     5
  0
SOLID
  5
705E
330
1F
100
AcDbEntity
  8
LOGO
 62
     5
100
AcDbTrace
 10
303.9215455988333
 20
1148.557125053965
 30
0.0
 11
304.3687640338449
 21
1148.557125053965
 31
0.0
 12
303.9215455988333
 22
1145.650205226389
 32
0.0
 13
304.3687640338449
 23
1145.650205226389
 33
0.0
  0
SOLID
  5
705F
330
1F
100
AcDbEntity
  8
LOGO
 62
     5
100
AcDbTrace
 10
304.8905337819742
 20
1147.886297401447
 30
0.0
 11
305.3377522169851
 21
1147.886297401447
 31
0.0
 12
304.8905337819742
 22
1145.650205226389
 32
0.0
 13
305.3377522169851
 23
1145.650205226389
 33
0.0
  0
SOLID
  5
7060
330
1F
100
AcDbEntity
  8
LOGO
 62
     5
100
AcDbTrace
 10
306.2321890870082
 20
1146.991860531424
 30
0.0
 11
306.6794075220205
 21
1146.991860531424
 31
0.0
 12
306.2321890870082
 22
1145.650205226389
 32
0.0
 13
306.6794075220205
 23
1145.650205226389
 33
0.0
  0
SOLID
  5
7061
330
1F
100
AcDbEntity
  8
LOGO
 62
     5
100
AcDbTrace
 10
307.5738443920436
 20
1146.991860531424
 30
0.0
 11
308.0210628270552
 21
1146.991860531424
 31
0.0
 12
307.5738443920436
 22
1145.650205226388
 32
0.0
 13
308.0210628270552
 23
1145.650205226388
 33
0.0
  0
SOLID
  5
7062
330
1F
100
AcDbEntity
  8
LOGO
 62
     5
100
AcDbTrace
 10
298.8530401874705
 20
1148.199350305956
 30
0.0
 11
299.3002586224834
 21
1148.199350305956
 31
0.0
 12
298.8530401874705
 22
1148.557125053965
 32
0.0
 13
299.3002586224834
 23
1148.557125053965
 33
0.0
  0
SOLID
  5
7063
330
1F
100
AcDbEntity
  8
LOGO
 62
     5
100
AcDbTrace
 10
298.8530401874705
 20
1147.886297401447
 30
0.0
 11
299.3002586224834
 21
1147.886297401447
 31
0.0
 12
298.8530401874705
 22
1145.650205226388
 32
0.0
 13
299.3002586224834
 23
1145.650205226389
 33
0.0
  0
SOLID
  5
7064
330
1F
100
AcDbEntity
  8
LOGO
 62
     5
100
AcDbTrace
 10
303.2507626681582
 20
1150.122389576506
 30
0.0
 11
304.5476961296929
 21
1150.122389576506
 31
0.0
 12
303.2507626681582
 22
1156.681593290012
 32
0.0
 13
304.5476961296929
 23
1161.437015982303
 33
0.0
  0
SOLID
  5
7065
330
1F
100
AcDbEntity
  8
LOGO
 62
     5
100
AcDbTrace
 10
305.0843582517077
 20
1162.420896539329
 30
0.0
 11
306.3812917132411
 21
1162.42089653933
 31
0.0
 12
305.0843582517077
 22
1151.106270133532
 32
0.0
 13
306.3812917132411
 23
1155.861692825824
 33
0.0
  0
SOLID
  5
7066
330
1F
100
AcDbEntity
  8
LOGO
 62
     2
100
AcDbTrace
 10
304.5476961296929
 20
1162.420896539329
 30
0.0
 11
305.0843582517077
 21
1162.420896539329
 31
0.0
 12
304.5476961296929
 22
1150.122389576506
 32
0.0
 13
305.0843582517077
 23
1150.122389576506
 33
0.0
  0
SOLID
  5
7067
330
1F
100
AcDbEntity
  8
LOGO
 62
     5
100
AcDbTrace
 10
305.0843582517077
 20
1151.106270133532
 30
0.0
 11
306.3812917132411
 21
1155.861692825824
 31
0.0
 12
311.2559726548691
 22
1162.42089653933
 32
0.0
 13
309.9590391933357
 23
1162.42089653933
 33
0.0
  0
SOLID
  5
7068
330
1F
100
AcDbEntity
  8
LOGO
 62
     5
100
AcDbTrace
 10
305.0843582517077
 20
1150.122389576506
 30
0.0
 11
306.3812917132411
 21
1150.122389576506
 31
0.0
 12
311.2559726548691
 22
1161.437015982303
 32
0.0
 13
309.9590391933357
 23
1156.681593290012
 33
0.0
  0
SOLID
  5
7069
330
1F
100
AcDbEntity
  8
LOGO
 62
     2
100
AcDbTrace
 10
304.5476961296929
 20
1150.122389576506
 30
0.0
 11
305.0843582517077
 21
1150.122389576506
 31
0.0
 12
311.2559726548691
 22
1162.42089653933
 32
0.0
 13
311.7926347768839
 23
1162.420896539329
 33
0.0
  0
LWPOLYLINE
  5
706A
330
1F
100
AcDbEntity
  8
LOGO
 62
     4
100
AcDbPolyline
 90
        4
 70
     1
 43
0.0
 10
293.4303886823485
 20
1163.133432368154
 10
705.9303886823486
 20
1163.133432368154
 10
705.9303886823486
 20
1133.137776259556
 10
293.4303886823485
 20
1133.137776259556
1001
GENIUS_GENREC_14
1002
{
1000
PYDIR
1011
293.4303886823485
1021
1133.137776259556
1031
0.0
1002
}
1002
{
1000
PXDIR
1011
705.9303886823486
1021
1163.133432368154
1031
0.0
1002
}
1002
{
1000
PORI
1011
293.4303886823485
1021
1163.133432368154
1031
0.0
1002
}
1002
{
1000
PINS
1011
293.4303886823485
1021
1163.133432368154
1031
0.0
1002
}
1002
{
1000
PINS2
1011
705.9303886823486
1021
1133.137776259556
1031
0.0
1002
}
1002
{
1000
C
1070
     1
1002
}
1001
GENIUS_GENOBJ-N-REC_13
1002
{
1000
OWNER
1000
GEN
1002
}
1001
GENIUS_GENODEF_13
1002
{
1000
HIER
1070
     0
1002
}
1002
{
1000
MANEDIT
1070
     0
1002
}
1002
{
1000
NOSEL
1070
     0
1002
}
1002
{
1000
BEHIND
1070
     0
1002
}
1002
{
1000
OTHER
1070
     0
1002
}
1002
{
1000
REACTOR
1002
}
  0
LINE
  5
706B
330
1F
100
AcDbEntity
  8
LOGO
 62
     4
100
AcDbLine
 10
418.4873699219074
 20
1146.635821508426
 30
0.0
 11
418.4873699219074
 21
1135.637414268606
 31
0.0
  0
LINE
  5
706C
330
1F
100
AcDbEntity
  8
LOGO
 62
     4
100
AcDbLine
 10
400.6785258238378
 20
1146.635821508426
 30
0.0
 11
400.6785258238378
 21
1135.637414268606
 31
0.0
  0
LINE
  5
706D
330
1F
100
AcDbEntity
  8
LOGO
 62
     4
100
AcDbLine
 10
418.4873699219074
 20
1135.637414268606
 30
0.0
 11
400.6785258238378
 21
1135.637414268606
 31
0.0
  0
LINE
  5
706E
330
1F
100
AcDbEntity
  8
LOGO
 62
     4
100
AcDbLine
 10
424.3710133396295
 20
1160.133866757294
 30
0.0
 11
400.6785258238378
 21
1160.133866757294
 31
0.0
  0
LINE
  5
706F
330
1F
100
AcDbEntity
  8
LOGO
 62
     4
100
AcDbLine
 10
424.3710133396295
 20
1151.135169924715
 30
0.0
 11
400.6785258238378
 21
1151.135169924715
 31
0.0
  0
LINE
  5
7070
330
1F
100
AcDbEntity
  8
LOGO
 62
     4
100
AcDbLine
 10
400.6785258238378
 20
1160.133866757294
 30
0.0
 11
400.6785258238378
 21
1151.135169924715
 31
0.0
  0
LINE
  5
7071
330
1F
100
AcDbEntity
  8
LOGO
 62
     4
100
AcDbLine
 10
424.3710133396295
 20
1160.133866757294
 30
0.0
 11
424.3710133396295
 21
1151.135169924715
 31
0.0
  0
LINE
  5
7072
330
1F
100
AcDbEntity
  8
LOGO
 62
     4
100
AcDbLine
 10
411.7204244273916
 20
1151.135169924715
 30
0.0
 11
411.7204244273916
 21
1146.635821508426
 31
0.0
  0
TEXT
  5
7073
330
1F
100
AcDbEntity
  8
LOGO
  6
Continuous
 62
     7
100
AcDbText
 10
402.2774533187577
 20
1153.013634732423
 30
0.0
 40
5.25
  1
MCRB
  7
CHINESET
100
AcDbText
  0
LINE
  5
7074
330
1F
100
AcDbEntity
  8
LOGO
 62
     4
100
AcDbLine
 10
418.4873699219074
 20
1146.635821508426
 30
0.0
 11
400.6785258238378
 21
1146.635821508426
 31
0.0
  0
TEXT
  5
7075
330
1F
100
AcDbEntity
  8
LOGO
  6
Continuous
100
AcDbText
 10
404.7389452967657
 20
1137.189816127842
 30
196.5865886400747
 40
2.25
  1
Model
 41
0.8
  7
CHINESET
100
AcDbText
  0
TEXT
  5
7076
330
1F
100
AcDbEntity
  8
LOGO
100
AcDbText
 10
404.140068439767
 20
1141.360831218234
 30
196.5865886400747
 40
3.75
  1
型號
  7
CHINESET
100
AcDbText
  0
LINE
  5
7077
330
1F
100
AcDbEntity
  8
LOGO
  6
Continuous
 62
     7
100
AcDbLine
 10
426.135278361105
 20
1155.602643534694
 30
0.0
 11
430.1087745345143
 21
1155.602643534694
 31
0.0
  0
LINE
  5
707B
330
1F
100
AcDbEntity
  8
LOGO
 62
     4
100
AcDbLine
 10
442.889327513699
 20
1160.133866757294
 30
0.0
 11
432.039897897243
 21
1160.133866757294
 31
0.0
  0
LINE
  5
707C
330
1F
100
AcDbEntity
  8
LOGO
 62
     4
100
AcDbLine
 10
442.889327513699
 20
1151.135169924715
 30
0.0
 11
432.039897897243
 21
1151.135169924715
 31
0.0
  0
LINE
  5
707D
330
1F
100
AcDbEntity
  8
LOGO
 62
     4
100
AcDbLine
 10
432.039897897243
 20
1160.133866757294
 30
0.0
 11
432.039897897243
 21
1151.135169924715
 31
0.0
  0
LINE
  5
707E
330
1F
100
AcDbEntity
  8
LOGO
 62
     4
100
AcDbLine
 10
442.889327513699
 20
1160.133866757294
 30
0.0
 11
442.889327513699
 21
1151.135169924715
 31
0.0
  0
LINE
  5
707F
330
1F
100
AcDbEntity
  8
LOGO
 62
     4
100
AcDbLine
 10
437.464612705471
 20
1151.135169924715
 30
0.0
 11
437.4646127054711
 21
1146.635821508426
 31
0.0
  0
TEXT
  5
7080
330
1F
100
AcDbEntity
  8
LOGO
  6
Continuous
 62
     7
100
AcDbText
 10
433.502697446167
 20
1153.013634732423
 30
0.0
 40
5.25
  1
16
  7
CHINESET
100
AcDbText
  0
LINE
  5
7083
330
1F
100
AcDbEntity
  8
LOGO
 62
     4
100
AcDbLine
 10
445.2169235467111
 20
1146.635821508426
 30
0.0
 11
445.2169235467111
 21
1135.637414268606
 31
0.0
  0
LINE
  5
7084
330
1F
100
AcDbEntity
  8
LOGO
 62
     4
100
AcDbLine
 10
426.8310130735117
 20
1146.635821508426
 30
0.0
 11
426.8310130735117
 21
1135.637414268606
 31
0.0
  0
LINE
  5
7085
330
1F
100
AcDbEntity
  8
LOGO
 62
     4
100
AcDbLine
 10
445.2169235467111
 20
1135.637414268606
 30
0.0
 11
426.8310130735117
 21
1135.637414268606
 31
0.0
  0
LINE
  5
708C
330
1F
100
AcDbEntity
  8
LOGO
 62
     4
100
AcDbLine
 10
445.2169235467111
 20
1146.635821508426
 30
0.0
 11
426.8310130735117
 21
1146.635821508426
 31
0.0
  0
TEXT
  5
709A
330
1F
100
AcDbEntity
  8
LOGO
  6
Continuous
100
AcDbText
 10
430.8146745481872
 20
1137.189816127842
 30
196.5865886400747
 40
2.25
  1
Tube I.D.
 41
0.8
  7
CHINESET
100
AcDbText
  0
TEXT
  5
709B
330
1F
100
AcDbEntity
  8
LOGO
100
AcDbText
 10
432.3787385753369
 20
1141.360831218234
 30
196.5865886400747
 40
3.75
  1
內徑
  7
CHINESET
100
AcDbText
  0
TEXT
  5
70AA
330
1F
100
AcDbEntity
  8
LOGO
100
AcDbText
 10
360.4106355081193
 20
1134.733533325439
 30
0.0
 40
3.0
  1
20907073
 41
0.7
  7
CHINESET
 72
     1
 11
368.1106355081192
 21
1134.733533325439
 31
0.0
100
AcDbText
  0
LINE
  5
70AB
330
1F
100
AcDbEntity
  8
LOGO
 62
     4
100
AcDbLine
 10
377.4208321212614
 20
1139.136907481277
 30
0.0
 11
377.4208321212627
 21
1133.137776259557
 31
0.0
  0
LINE
  5
70AC
330
1F
100
AcDbEntity
  8
LOGO
 62
     4
100
AcDbLine
 10
377.4208321212614
 20
1139.136907481277
 30
0.0
 11
359.4208321212627
 21
1139.136907481277
 31
0.0
  0
CIRCLE
  5
70AD
330
1F
100
AcDbEntity
  8
LOGO
  6
Continuous
100
AcDbCircle
 10
344.9777989571069
 20
1154.141151628367
 30
0.0
 40
1.741618395480947
  0
CIRCLE
  5
70AE
330
1F
100
AcDbEntity
  8
LOGO
  6
Continuous
100
AcDbCircle
 10
344.9777989571069
 20
1154.141151628367
 30
0.0
 40
1.020434202998395
  0
LINE
  5
70AF
330
1F
100
AcDbEntity
  8
LOGO
100
AcDbLine
 10
355.9223310431617
 20
1152.399533232886
 30
0.0
 11
355.9223310431617
 21
1155.882770023848
 31
0.0
  0
LINE
  5
70B0
330
1F
100
AcDbEntity
  8
LOGO
100
AcDbLine
 10
350.4624573469953
 20
1153.120717425369
 30
0.0
 11
350.4624573469953
 21
1155.161585831366
 31
0.0
  0
LINE
  5
70B1
330
1F
100
AcDbEntity
  8
LOGO
  6
Continuous
100
AcDbLine
 10
350.4624573469953
 20
1155.161585831366
 30
0.0
 11
355.9223310431617
 21
1155.882770023848
 31
0.0
  0
LINE
  5
70B2
330
1F
100
AcDbEntity
  8
LOGO
  6
Continuous
100
AcDbLine
 10
350.4624573469953
 20
1153.120717425369
 30
0.0
 11
355.9223310431617
 21
1152.399533232886
 31
0.0
  0
LINE
  5
70B3
330
1F
100
AcDbEntity
  8
LOGO
  6
AM_ISO08W050x2
 48
0.3
100
AcDbLine
 10
342.5769519202545
 20
1154.141151628367
 30
0.0
 11
347.3786459939593
 21
1154.141151628367
 31
0.0
1001
GENIUS_GENOREF_13
1005
70B8
  0
LINE
  5
70B4
330
1F
100
AcDbEntity
  8
LOGO
  6
AM_ISO08W050x2
 48
0.3
100
AcDbLine
 10
344.9777989571069
 20
1151.740304591515
 30
0.0
 11
344.9777989571069
 21
1156.541998665219
 31
0.0
1001
GENIUS_GENOREF_13
1005
70B7
  0
LINE
  5
70B5
330
1F
100
AcDbEntity
  8
LOGO
  6
CENTER
 48
0.5
100
AcDbLine
 10
350.0258192077813
 20
1154.141151628367
 30
0.0
 11
356.4721226498432
 21
1154.141151628367
 31
0.0
1001
GENIUS_GENOREF_13
1005
70B6
  0
POINT
  5
70B6
330
1F
100
AcDbEntity
  8
0
 60
     1
100
AcDbPoint
 10
-1223.576401245173
 20
290.0635775878196
 30
0.0
1001
GENIUS_GENOBJ-N-CRS_13
1002
{
1000
OWNER
1000
GEN
1002
}
1001
GENIUS_GENOLIS_13
1002
{
1000
ENT
1005
0
1005
0
1005
0
1005
70B5
1002
}
1001
GENIUS_GENOENT_13
1002
{
1000
MYREF
1005
70B6
1002
}
1002
{
1000
GRP
1005
0
1002
}
1001
GENIUS_GENODEF_13
1002
{
1000
HIER
1070
    10
1002
}
1002
{
1000
MANEDIT
1070
     1
1002
}
1002
{
1000
NOSEL
1070
     0
1002
}
1002
{
1000
BEHIND
1070
     0
1002
}
1002
{
1000
OTHER
1070
     0
1002
}
1002
{
1000
REACTOR
1002
}
  0
POINT
  5
70B7
330
1F
100
AcDbEntity
  8
0
 60
     1
100
AcDbPoint
 10
-1234.900986468028
 20
298.9391640664559
 30
0.0
1001
GENIUS_GENOBJ-N-CRS_13
1002
{
1000
OWNER
1000
GEN
1002
}
1001
GENIUS_GENOLIS_13
1002
{
1000
ENT
1005
0
1005
0
1005
0
1005
70B4
1002
}
1001
GENIUS_GENOENT_13
1002
{
1000
MYREF
1005
70B7
1002
}
1002
{
1000
GRP
1005
0
1002
}
1001
GENIUS_GENODEF_13
1002
{
1000
HIER
1070
    10
1002
}
1002
{
1000
MANEDIT
1070
     1
1002
}
1002
{
1000
NOSEL
1070
     0
1002
}
1002
{
1000
BEHIND
1070
     0
1002
}
1002
{
1000
OTHER
1070
     0
1002
}
1002
{
1000
REACTOR
1002
}
  0
POINT
  5
70B8
330
1F
100
AcDbEntity
  8
0
 60
     1
100
AcDbPoint
 10
-1228.542312770191
 20
290.0635775878196
 30
0.0
1001
GENIUS_GENOBJ-N-CRS_13
1002
{
1000
OWNER
1000
GEN
1002
}
1001
GENIUS_GENOLIS_13
1002
{
1000
ENT
1005
0
1005
0
1005
0
1005
70B3
1002
}
1001
GENIUS_GENOENT_13
1002
{
1000
MYREF
1005
70B8
1002
}
1002
{
1000
GRP
1005
0
1002
}
1001
GENIUS_GENODEF_13
1002
{
1000
HIER
1070
    10
1002
}
1002
{
1000
MANEDIT
1070
     1
1002
}
1002
{
1000
NOSEL
1070
     0
1002
}
1002
{
1000
BEHIND
1070
     0
1002
}
1002
{
1000
OTHER
1070
     0
1002
}
1002
{
1000
REACTOR
1002
}
  0
LINE
  5
70CE
330
1F
100
AcDbEntity
  8
LOGO
 62
     4
100
AcDbLine
 10
614.4503055965038
 20
1269.574311466497
 30
0.0
 11
614.4503055965038
 21
1163.133432368154
 31
0.0
  0
LINE
  5
70CF
330
1F
100
AcDbEntity
  8
LOGO
 62
     4
100
AcDbLine
 10
614.4503055965038
 20
1269.574311466497
 30
0.0
 11
705.9303886823486
 21
1269.574311466497
 31
0.0
  0
CIRCLE
  5
71A3
102
{ACAD_REACTORS
330
7212
330
723C
102
}
330
1F
100
AcDbEntity
  8
BOR
100
AcDbCircle
 10
346.639663418413
 20
1231.429805865968
 30
0.0
 40
2.999999999999943
  0
LINE
  5
71A4
330
1F
100
AcDbEntity
  8
AM_7
100
AcDbLine
 10
346.6396634184129
 20
1195.117337190436
 30
0.0
 11
346.6396634184129
 21
1223.417337190436
 31
0.0
  0
LINE
  5
71A5
330
1F
100
AcDbEntity
  8
AM_VIS
100
AcDbLine
 10
344.6396634184129
 20
1220.417337190436
 30
0.0
 11
344.6396634184129
 21
1210.917337190436
 31
0.0
  0
LINE
  5
71A6
330
1F
100
AcDbEntity
  8
AM_VIS
100
AcDbLine
 10
343.6396634184128
 20
1209.917337190436
 30
0.0
 11
344.6396634184129
 21
1210.917337190436
 31
0.0
  0
LINE
  5
71A7
330
1F
100
AcDbEntity
  8
AM_VIS
100
AcDbLine
 10
344.6396634184129
 20
1220.917337190436
 30
0.0
 11
344.6396634184129
 21
1220.417337190436
 31
0.0
  0
LINE
  5
71B0
330
1F
100
AcDbEntity
  8
AM_VIS
100
AcDbLine
 10
349.6396634184129
 20
1203.417337190436
 30
0.0
 11
349.6396634184129
 21
1220.417337190436
 31
0.0
  0
LINE
  5
71B1
330
1F
100
AcDbEntity
  8
AM_VIS
100
AcDbLine
 10
343.6396634184128
 20
1203.417337190436
 30
0.0
 11
343.6396634184128
 21
1209.917337190436
 31
0.0
  0
LINE
  5
71B2
330
1F
100
AcDbEntity
  8
AM_VIS
100
AcDbLine
 10
349.1396634184129
 20
1220.917337190436
 30
0.0
 11
349.6396634184129
 21
1220.417337190436
 31
0.0
  0
LINE
  5
71B8
102
{ACAD_REACTORS
330
727F
102
}
330
1F
100
AcDbEntity
  8
AM_VIS
100
AcDbLine
 10
344.6396634184129
 20
1220.917337190436
 30
0.0
 11
349.1396634184129
 21
1220.917337190436
 31
0.0
  0
ARC
  5
71B9
330
1F
100
AcDbEntity
  8
AM_VIS
100
AcDbCircle
 10
346.639663418413
 20
1231.429805865968
 30
0.0
 40
3.0
100
AcDbArc
 50
180.0
 51
228.1896851042225
  0
LINE
  5
71BA
330
1F
100
AcDbEntity
  8
AM_VIS
100
AcDbLine
 10
344.639663418413
 20
1231.429805865968
 30
0.0
 11
344.639663418413
 21
1229.929805865968
 31
0.0
  0
LINE
  5
71BB
330
1F
100
AcDbEntity
  8
AM_VIS
100
AcDbLine
 10
344.639663418413
 20
1229.929805865968
 30
0.0
 11
344.639663418413
 21
1229.193737888469
 31
0.0
  0
ARC
  5
71BC
102
{ACAD_REACTORS
330
723C
102
}
330
1F
100
AcDbEntity
  8
AM_VIS
100
AcDbCircle
 10
346.639663418413
 20
1231.429805865968
 30
0.0
 40
3.0
100
AcDbArc
 50
228.1896851042225
 51
270.0
  0
LINE
  5
71BE
102
{ACAD_REACTORS
330
727F
102
}
330
1F
100
AcDbEntity
  8
0
100
AcDbLine
 10
343.6396634184128
 20
1203.417337190436
 30
0.0
 11
349.6396634184129
 21
1203.417337190436
 31
0.0
  0
LINE
  5
71CC
330
1F
100
AcDbEntity
  8
AM_7
  6
AM_ISO08W050x2
100
AcDbLine
 10
346.639663418413
 20
1231.429805865968
 30
0.0
 11
351.6396634184129
 21
1231.429805865968
 31
0.0
1001
GENIUS_GENOREF_13
1005
71D0
  0
LINE
  5
71CD
330
1F
100
AcDbEntity
  8
AM_7
  6
AM_ISO08W050x2
100
AcDbLine
 10
346.639663418413
 20
1231.429805865968
 30
0.0
 11
346.639663418413
 21
1236.429805865968
 31
0.0
1001
GENIUS_GENOREF_13
1005
71D0
  0
LINE
  5
71CE
330
1F
100
AcDbEntity
  8
AM_7
  6
AM_ISO08W050x2
100
AcDbLine
 10
346.639663418413
 20
1231.429805865968
 30
0.0
 11
341.639663418413
 21
1231.429805865968
 31
0.0
1001
GENIUS_GENOREF_13
1005
71D0
  0
LINE
  5
71CF
330
1F
100
AcDbEntity
  8
AM_7
  6
AM_ISO08W050x2
100
AcDbLine
 10
346.639663418413
 20
1231.429805865968
 30
0.0
 11
346.639663418413
 21
1226.429805865968
 31
0.0
1001
GENIUS_GENOREF_13
1005
71D0
  0
POINT
  5
71D0
330
1F
100
AcDbEntity
  8
0
 60
     1
100
AcDbPoint
 10
0.0
 20
0.0
 30
0.0
1001
GENIUS_GENOLIS_13
1002
{
1000
ENT
1005
71CF
1005
71CE
1005
71CD
1005
71CC
1002
}
1001
GENIUS_GENODEF_13
1002
{
1000
HIER
1070
    10
1002
}
1002
{
1000
MANEDIT
1070
     0
1002
}
1002
{
1000
NOSEL
1070
     0
1002
}
1002
{
1000
BEHIND
1070
     0
1002
}
1002
{
1000
OTHER
1070
     0
1002
}
1002
{
1000
REACTOR
1002
}
1001
GENIUS_GENOENT_13
1002
{
1000
MYREF
1005
71D0
1002
}
1002
{
1000
GRP
1005
0
1002
}
1001
GENIUS_GENOBJ-N-CRS_13
1002
{
1000
OWNER
1000
GEN
1002
}
  0
LINE
  5
71D1
330
1F
100
AcDbEntity
  8
AM_VIS
100
AcDbLine
 10
344.639663418413
 20
1231.429805865969
 30
0.0
 11
344.639663418413
 21
1232.929805865969
 31
0.0
  0
LINE
  5
71D2
102
{ACAD_REACTORS
330
7212
102
}
330
1F
100
AcDbEntity
  8
AM_VIS
100
AcDbLine
 10
344.639663418413
 20
1232.929805865969
 30
0.0
 11
344.639663418413
 21
1233.665873843468
 31
0.0
  0
LINE
  5
71D4
330
1F
100
AcDbEntity
  8
0
100
AcDbLine
 10
323.139663418413
 20
1203.417337190436
 30
0.0
 11
346.6396634184131
 21
1203.417337190436
 31
0.0
  0
LINE
  5
71D6
330
1F
100
AcDbEntity
  8
0
100
AcDbLine
 10
322.639663418413
 20
1202.917337190436
 30
0.0
 11
322.639663418413
 21
1196.601962115273
 31
0.0
  0
LINE
  5
71D8
330
1F
100
AcDbEntity
  8
0
100
AcDbLine
 10
323.139663418413
 20
1203.417337190436
 30
0.0
 11
322.639663418413
 21
1202.917337190436
 31
0.0
  0
LINE
  5
71D9
330
1F
100
AcDbEntity
  8
0
100
AcDbLine
 10
370.139663418413
 20
1203.417337190436
 30
0.0
 11
346.6396634184129
 21
1203.417337190436
 31
0.0
  0
LINE
  5
71DB
330
1F
100
AcDbEntity
  8
0
100
AcDbLine
 10
370.639663418413
 20
1202.917337190436
 30
0.0
 11
370.639663418413
 21
1197.126780139289
 31
0.0
  0
LINE
  5
71DD
330
1F
100
AcDbEntity
  8
0
100
AcDbLine
 10
370.139663418413
 20
1203.417337190436
 30
0.0
 11
370.639663418413
 21
1202.917337190436
 31
0.0
  0
LINE
  5
71F1
330
1F
100
AcDbEntity
  8
AM_7
  6
AM_ISO08W050x2
100
AcDbLine
 10
346.6396634184131
 20
1205.417337190436
 30
0.0
 11
346.6396634184131
 21
1192.256873381474
 31
0.0
1001
GENIUS_GENOBJ-N-CEN_13
1002
{
1000
OWNER
1000
GEN
1002
}
1001
GENIUS_GENODEF_13
1002
{
1000
HIER
1070
     0
1002
}
1002
{
1000
MANEDIT
1070
     0
1002
}
1002
{
1000
NOSEL
1070
     0
1002
}
1002
{
1000
BEHIND
1070
     0
1002
}
1002
{
1000
OTHER
1070
     0
1002
}
1002
{
1000
REACTOR
1002
}
1001
GENIUS_GENCEN_19
1002
{
1040
2.0
1002
}
  0
SPLINE
  5
71F2
330
1F
100
AcDbEntity
  8
0
100
AcDbSpline
210
0.0
220
0.0
230
1.0
 70
     8
 71
     3
 72
    13
 73
     9
 74
     7
 42
0.0000000001
 43
0.0000000001
 44
0.0000000001
 40
0.0
 40
0.0
 40
0.0
 40
0.0
 40
7.963446184940928
 40
16.0373028907793
 40
29.76728050341501
 40
42.9476645757976
 40
52.28744444679214
 40
55.39094106736317
 40
55.39094106736317
 40
55.39094106736317
 40
55.39094106736317
 10
318.2451411133126
 20
1197.280218135925
 30
0.0
 10
320.8818589704167
 20
1196.823983921977
 30
0.0
 10
326.1918518968296
 20
1195.905189959127
 30
0.0
 10
336.0734101120527
 20
1197.802641097459
 30
0.0
 10
347.7857232900999
 20
1195.624236452901
 30
0.0
 10
359.6082419277717
 20
1196.705904439993
 30
0.0
 10
368.6252842325893
 20
1198.475494706315
 30
0.0
 10
372.2568478570104
 20
1196.339526971129
 30
0.0
 10
373.162601694709
 20
1195.806791991538
 30
0.0
 11
318.2451411133126
 21
1197.280218135925
 31
0.0
 11
326.1586866154763
 21
1196.390121104341
 31
0.0
 11
334.2042571218334
 21
1197.06536723254
 31
0.0
 11
347.9091168108884
 21
1196.235243057013
 31
0.0
 11
361.0595653680767
 21
1197.123064570753
 31
0.0
 11
370.3988558966854
 21
1197.218670328294
 31
0.0
 11
373.162601694709
 21
1195.806791991538
 31
0.0
  0
DIMENSION
  5
7202
102
{ACAD_XDICTIONARY
360
7211
102
}
102
{ACAD_REACTORS
330
7212
102
}
330
1F
100
AcDbEntity
  8
AM_5
100
AcDbDimension
  2
*D30
 10
349.6396634184129
 20
1241.306365300394
 30
0.0
 11
347.139663418413
 21
1243.756365300394
 31
0.0
 70
    32
 71
     5
 42
4.999999999999943
  3
AM_ISO$0
100
AcDbAlignedDimension
 13
344.639663418413
 23
1233.665873843468
 33
0.0
 14
349.6396634184129
 24
1231.429805865968
 34
0.0
100
AcDbRotatedDimension
1001
ACAD
1000
DSTYLE
1002
{
1070
    40
1040
1.0
1070
   144
1040
1.0
1070
   272
1070
     8
1002
}
  0
DIMENSION
  5
722C
102
{ACAD_XDICTIONARY
360
723B
102
}
102
{ACAD_REACTORS
330
723C
102
}
330
1F
100
AcDbEntity
  8
AM_5
100
AcDbDimension
  2
*D31
 10
337.0633224895336
 20
1228.429805865969
 30
0.0
 11
337.0633224895333
 21
1231.429805865968
 31
0.0
 70
   160
  1
%%c<>{}{\C5; h7}
 71
     5
 42
6.0
  3
AM_ISO$0
100
AcDbAlignedDimension
 13
346.639663418413
 23
1234.429805865968
 33
0.0
 14
346.639663418413
 24
1228.429805865969
 34
0.0
 50
90.0
100
AcDbRotatedDimension
1001
GENIUS_GENDTOL_13
1000
FitTxt
1000
h7
1000
{$3 $T}
1040
6.0
1001
ACAD
1000
DSTYLE
1002
{
1070
   286
1070
     0
1070
   284
1070
     8
1070
    48
1040
0.1
1070
    47
1040
0.1
1070
   272
1070
     8
1070
   274
1070
     3
1002
}
  0
DIMENSION
  5
7271
102
{ACAD_XDICTIONARY
360
727E
102
}
102
{ACAD_REACTORS
330
727F
102
}
330
1F
100
AcDbEntity
  8
AM_5
100
AcDbDimension
  2
*D32
 10
357.3696123764615
 20
1203.417337190436
 30
0.0
 11
354.9196123764613
 21
1212.167337190436
 31
0.0
 70
    32
 71
     5
 42
17.5
  3
AM_ISO$0
100
AcDbAlignedDimension
 13
349.1396634184129
 23
1220.917337190436
 33
0.0
 14
349.6396634184129
 24
1203.417337190436
 34
0.0
 50
90.0
100
AcDbRotatedDimension
1001
ACAD
1000
DSTYLE
1002
{
1070
    40
1040
1.0
1070
   144
1040
1.0
1070
   272
1070
     8
1002
}
  0
LINE
  5
72C4
330
1F
100
AcDbEntity
  8
LOGO
 62
     4
100
AcDbLine
 10
293.4303886823485
 20
1269.574311466497
 30
0.0
 11
401.5723003280109
 21
1269.574311466497
 31
0.0
  0
LINE
  5
72C5
330
1F
100
AcDbEntity
  8
LOGO
 62
     4
100
AcDbLine
 10
401.5723003280109
 20
1269.574311466497
 30
0.0
 11
401.5723003280109
 21
1163.133432368154
 31
0.0
  0
TEXT
  5
7305
330
1F
100
AcDbEntity
  8
0
100
AcDbText
 10
298.3341235921461
 20
1253.12412816005
 30
0.0
 40
7.680000000000001
  1
FR型
100
AcDbText
  0
ENDSEC
  0
SECTION
  2
OBJECTS
  0
DICTIONARY
  5
C
330
0
100
AcDbDictionary
281
     1
  3
ACAD_COLOR
350
BE
  3
ACAD_GROUP
350
D
  3
ACAD_LAYOUT
350
1A
  3
ACAD_MATERIAL
350
BD
  3
ACAD_MLINESTYLE
350
17
  3
ACAD_PLOTSETTINGS
350
19
  3
ACAD_PLOTSTYLENAME
350
E
  3
ACAD_TABLESTYLE
350
11A
  3
ACDBHEADERROUNDTRIPXREC
350
748D
  3
AcDbVariableDictionary
350
94
  3
AcmDictionary
350
5B
  3
AMG
350
41
  3
AMGSNAPSETTINGS
350
1B8
  3
DWGPROPS
350
748C
  0
DICTIONARY
  5
3F9
330
2
100
AcDbDictionary
280
     1
281
     1
  3
ACAD_LAYERFILTERS
360
5B7
  3
ACAD_LAYERSTATES
360
1292
  3
ACLYDICTIONARY
360
5B6
  3
AMLAYER_GROUPCOLORS
360
11DE
  0
DICTIONARY
  5
8F
330
1F
100
AcDbDictionary
280
     1
281
     1
  3
ACAD_SORTENTS
360
1210
  0
DICTIONARY
  5
7211
330
7202
100
AcDbDictionary
280
     1
281
     1
  3
ACAD_DIMASSOC
360
7212
  0
DICTIONARY
  5
723B
330
722C
100
AcDbDictionary
280
     1
281
     1
  3
ACAD_DIMASSOC
360
723C
  0
DICTIONARY
  5
727E
330
7271
100
AcDbDictionary
280
     1
281
     1
  3
ACAD_DIMASSOC
360
727F
  0
DICTIONARY
  5
BE
102
{ACAD_REACTORS
330
C
102
}
330
C
100
AcDbDictionary
281
     1
  0
DICTIONARY
  5
D
102
{ACAD_REACTORS
330
C
102
}
330
C
100
AcDbDictionary
281
     1
  0
DICTIONARY
  5
1A
102
{ACAD_REACTORS
330
C
102
}
330
C
100
AcDbDictionary
281
     1
  3
Model
350
22
  3
配置1
350
1E
  3
配置2
350
26
  0
DICTIONARY
  5
BD
102
{ACAD_REACTORS
330
C
102
}
330
C
100
AcDbDictionary
281
     1
  0
DICTIONARY
  5
17
102
{ACAD_REACTORS
330
C
102
}
330
C
100
AcDbDictionary
281
     1
  3
Standard
350
18
  0
DICTIONARY
  5
19
102
{ACAD_REACTORS
330
C
102
}
330
C
100
AcDbDictionary
281
     1
  0
ACDBDICTIONARYWDFLT
  5
E
102
{ACAD_REACTORS
330
C
102
}
330
C
100
AcDbDictionary
281
     1
  3
Normal
350
F
100
AcDbDictionaryWithDefault
340
F
  0
DICTIONARY
  5
11A
102
{ACAD_REACTORS
330
C
102
}
330
C
100
AcDbDictionary
281
     1
  3
Standard
350
11B
  0
DICTIONARY
  5
748D
102
{ACAD_REACTORS
330
C
102
}
330
C
100
AcDbDictionary
281
     1
  0
DICTIONARY
  5
94
102
{ACAD_REACTORS
330
C
102
}
330
C
100
AcDbDictionary
281
     1
  3
CTABLESTYLE
350
138
  3
DIMASSOC
350
96
  3
INDEXCTL
350
95
  3
PROJECTNAME
350
73BF
  0
DICTIONARY
  5
5B
102
{ACAD_REACTORS
330
C
102
}
330
C
100
AcDbDictionary
281
     1
  3
AcmBOM
350
1B5
  3
AcmStdDictionary
350
61
  3
AMDTSECTSYM_ARROWCOLOR
350
123
  0
DICTIONARY
  5
41
102
{ACAD_REACTORS
330
C
102
}
330
C
100
AcDbDictionary
281
     1
  0
DICTIONARY
  5
1B8
102
{ACAD_REACTORS
330
C
102
}
330
C
100
AcDbDictionary
281
     1
  0
XRECORD
  5
748C
102
{ACAD_REACTORS
330
C
102
}
330
C
100
AcDbXrecord
280
     1
  1
DWGPROPS COOKIE
  2

  3

  4

  6

  7

  8

  9

300
AmdtFileType=84
301
=
302
=
303
=
304
=
305
=
306
=
307
=
308
=
309
=
 40
1.402709733796296
 41
2453916.626557615
 42
2455020.669675775
  1

 90
        1
  0
DICTIONARY
  5
5B7
102
{ACAD_REACTORS
330
3F9
102
}
330
3F9
100
AcDbDictionary
281
     1
  0
DICTIONARY
  5
1292
102
{ACAD_REACTORS
330
3F9
102
}
330
3F9
100
AcDbDictionary
281
     1
  0
DICTIONARY
  5
5B6
102
{ACAD_REACTORS
330
3F9
102
}
330
3F9
100
AcDbDictionary
281
     1
1001
ACAD
1000
<All
  0
DICTIONARY
  5
11DE
102
{ACAD_REACTORS
330
3F9
102
}
330
3F9
100
AcDbDictionary
280
     1
281
     1
  0
SORTENTSTABLE
  5
1210
102
{ACAD_REACTORS
330
8F
102
}
330
8F
100
AcDbSortentsTable
330
1F
331
5DE2
  5
5DE2
331
5DAB
  5
5DAB
331
5DEA
  5
5DEA
331
5E50
  5
5E50
331
5FF2
  5
6010
331
5E19
  5
5E19
331
5E58
  5
5E58
331
5E8F
  5
5E94
331
5ECE
  5
5ED3
331
5F05
  5
5F0A
331
5F64
  5
5F7F
331
5E21
  5
5E21
331
5E60
  5
5E60
331
5E97
  5
5E9C
331
5ED6
  5
5EDD
331
5F0D
  5
5F12
331
5E29
  5
5E29
331
5E9F
  5
5EAA
331
5EDE
  5
5EE3
331
5F15
  5
5F1A
331
5EA7
  5
5EAC
331
5F1D
  5
5F55
331
6292
  5
60CC
331
62F1
  5
62F1
331
6065
  5
606F
331
60E3
  5
627D
331
60EB
  5
627E
331
6370
  5
6370
331
6075
  5
6081
331
63EF
  5
63EF
331
5DBB
  5
5DBB
331
5DD3
  5
5DD3
331
5E70
  5
5E70
331
5E31
  5
5E31
331
5F94
  5
5F9C
331
6042
  5
6053
331
5EEE
  5
5EF3
331
5E39
  5
5E39
331
5EAF
  5
5EB4
331
5F25
  5
5F58
331
5F9C
  5
5FA1
331
5E80
  5
5E85
331
5E41
  5
5E41
331
5EB7
  5
5EBC
331
5FA4
  5
5FAF
331
5E49
  5
5E49
331
5EBF
  5
5EC4
331
5F55
  5
5F5A
331
5FE3
  5
600C
331
6380
  5
6380
331
62D2
  5
62D2
331
60C4
  5
60C9
331
627B
  5
6286
331
6329
  5
6329
331
63F7
  5
63F7
331
60CC
  5
60DD
331
6283
  5
628E
331
6339
  5
6339
331
6407
  5
6407
331
628B
  5
629D
331
640F
  5
640F
331
5DE3
  5
5DE3
331
5DAC
  5
5DAC
331
5DEB
  5
5DEB
331
5DF3
  5
5DF3
331
5E51
  5
5E51
331
5FAC
  5
5FBB
331
5FF3
  5
6011
331
5E1A
  5
5E1A
331
5E90
  5
5E95
331
5ECF
  5
5ED4
331
5F06
  5
5F0B
331
5F65
  5
5F80
331
5FB4
  5
5FC2
331
5E22
  5
5E22
331
5E98
  5
5E9D
331
5F0E
  5
5F13
331
5E2A
  5
5E2A
331
5EDF
  5
5EE4
331
5F16
  5
5F1B
331
603B
  5
6043
331
5EE7
  5
5EEC
331
5FC4
  5
5FDC
331
60D4
  5
60E3
331
62F2
  5
62F2
331
6302
  5
6302
331
606E
  5
6076
331
62AB
  5
62AB
331
6371
  5
6371
331
6076
  5
6082
331
5DBC
  5
5DBC
331
5DC4
  5
5DC4
331
5E0B
  5
5E0B
331
5DD4
  5
5DD4
331
5E32
  5
5E32
331
5EA8
  5
5EAD
331
5F95
  5
5F9D
331
6043
  5
6054
331
5EEF
  5
5EF4
331
5E3A
  5
5E3A
331
5EB0
  5
5EB5
331
5F9D
  5
5FA4
331
5E81
  5
5E86
331
5E42
  5
5E42
331
5EB8
  5
5EBD
331
6053
  5
6059
331
5FA5
  5
5FB4
331
5FDC
  5
5FF2
331
5EFF
  5
5F04
331
5E4A
  5
5E4A
331
5EC0
  5
5EC5
331
5F56
  5
5F5B
331
5F5E
  5
5F63
331
6381
  5
6381
331
63F0
  5
63F0
331
627C
  5
6287
331
63F8
  5
63F8
331
60CD
  5
60DE
331
608E
  5
60AF
331
6284
  5
628F
331
633A
  5
633A
331
6408
  5
6408
331
6096
  5
60B1
331
628C
  5
629E
331
634A
  5
634A
331
5DDC
  5
5DDC
331
5DE4
  5
5DE4
331
5DAD
  5
5DAD
331
5DF4
  5
5DF4
331
5E13
  5
5E13
331
5E52
  5
5E52
331
5EC8
  5
5ECD
331
5FAD
  5
5FBC
331
5FF4
  5
603B
331
5E1B
  5
5E1B
331
5E91
  5
5E96
331
5ED0
  5
5ED5
331
5F07
  5
5F0C
331
5F66
  5
5F88
331
600C
  5
6040
331
5E23
  5
5E23
331
5E99
  5
5E9E
331
5F0F
  5
5F14
331
5FBD
  5
5FC8
331
5EE0
  5
5EE5
331
5E2B
  5
5E2B
331
5F17
  5
5F1C
331
6410
  5
6410
331
609E
  5
60B5
331
62F3
  5
62F3
331
60A6
  5
60B6
331
6303
  5
6303
331
606F
  5
6077
331
6077
  5
6089
331
60F5
  5
627F
331
5DFC
  5
5DFC
331
5DBD
  5
5DBD
331
5E04
  5
5E04
331
5DC5
  5
5DC5
331
5E33
  5
5E33
331
5EA9
  5
5EAE
331
5EF0
  5
5EF5
331
5E7A
  5
5E81
331
5E3B
  5
5E3B
331
5EB1
  5
5EB6
331
5F9E
  5
5FA5
331
5FD5
  5
5FE0
331
5E43
  5
5E43
331
5EB9
  5
5EBE
331
6054
  5
605B
331
5FDD
  5
5FF3
331
5E4B
  5
5E4B
331
5EC1
  5
5EC6
331
5F57
  5
5F5E
331
5F5F
  5
5F64
331
6382
  5
6382
331
60BE
  5
60C5
331
63F1
  5
63F1
331
6392
  5
6392
331
627D
  5
6288
331
63F9
  5
63F9
331
60CE
  5
60DF
331
608F
  5
60B0
331
6285
  5
6290
331
633B
  5
633B
331
6409
  5
6409
331
634B
  5
634B
331
5DAE
  5
5DAE
331
5E14
  5
5E14
331
5E53
  5
5E53
331
5EC9
  5
5ECE
331
5F00
  5
5F05
331
5FAE
  5
5FBD
331
5E1C
  5
5E1C
331
5E92
  5
5E97
331
5ED1
  5
5ED6
331
5F08
  5
5F0D
331
5E24
  5
5E24
331
5E9A
  5
5E9F
331
5ED9
  5
5EDE
331
5F10
  5
5F15
331
5F7F
  5
5F94
331
5EE1
  5
5EE6
331
5E2C
  5
5E2C
331
5F18
  5
5F1D
331
6058
  5
6066
331
6411
  5
6411
331
60D6
  5
60EB
331
629D
  5
60D0
331
6304
  5
6304
331
63E2
  5
63E2
331
60AF
  5
60B8
331
6314
  5
6314
331
62C5
  5
62C5
331
63EA
  5
63EA
331
60F6
  5
6280
331
5DBE
  5
5DBE
331
5E05
  5
5E05
331
5DC6
  5
5DC6
331
5DD6
  5
5DD6
331
5EE9
  5
5EEE
331
5E73
  5
5E73
331
5E34
  5
5E34
331
5EAA
  5
5EAF
331
6045
  5
6055
331
5E7B
  5
5E82
331
5E3C
  5
5E3C
331
5EB2
  5
5EB7
331
5F28
  5
5F59
331
5F9F
  5
5FAC
331
5FD6
  5
5FE3
331
5E83
  5
5E88
331
5E44
  5
5E44
331
5EBA
  5
5EBF
331
6055
  5
6063
331
5FDE
  5
5FF4
331
5E4C
  5
5E4C
331
5EC2
  5
5EC7
331
5F58
  5
5F5F
331
6078
  5
608A
331
6383
  5
6383
331
63F2
  5
63F2
331
6393
  5
6393
331
627E
  5
6289
331
63FA
  5
63FA
331
60CF
  5
60E0
331
6286
  5
6291
331
640A
  5
640A
331
634C
  5
634C
331
5DA7
  5
5DA7
331
5DE6
  5
5DE6
331
5E15
  5
5E15
331
5E54
  5
5E54
331
5E8B
  5
5E90
331
5ECA
  5
5ECF
331
5F01
  5
5F06
331
5F60
  5
5F65
331
5FAF
  5
5FBF
331
5FF6
  5
603F
331
5E1D
  5
5E1D
331
5E93
  5
5E98
331
5ED2
  5
5ED9
331
5F09
  5
5F0E
331
5E25
  5
5E25
331
5E9B
  5
5EA6
331
5EDA
  5
5EDF
331
5F11
  5
5F16
331
5F80
  5
5F95
331
5F88
  5
5F98
331
5FBF
  5
5FD5
331
5E2D
  5
5E2D
331
5F19
  5
5F1E
331
5FC7
  5
5FDD
331
6059
  5
606B
331
6412
  5
6412
331
60D7
  5
60F5
331
635C
  5
635C
331
6305
  5
6305
331
63E3
  5
63E3
331
60B0
  5
60B9
331
6315
  5
6315
331
63EB
  5
63EB
331
60F7
  5
6281
331
5DBF
  5
5DBF
331
5E06
  5
5E06
331
5DC7
  5
5DC7
331
5E0E
  5
5E0E
331
5EEA
  5
5EEF
331
5E35
  5
5E35
331
5EAB
  5
5EB0
331
5F98
  5
5F9E
331
6046
  5
6056
331
5E3D
  5
5E3D
331
5EB3
  5
5EB8
331
5FA0
  5
5FAD
331
5E84
  5
5E89
331
5E45
  5
5E45
331
6056
  5
6065
331
5E4D
  5
5E4D
331
5EC3
  5
5EC8
331
5F59
  5
5F60
331
60B8
  5
60C0
331
6079
  5
608B
331
63F3
  5
63F3
331
6081
  5
608C
331
6394
  5
6394
331
60C8
  5
60D6
331
6089
  5
608F
331
627F
  5
628A
331
63A4
  5
63A4
331
6287
  5
6292
331
634D
  5
634D
331
640B
  5
640B
331
5DDF
  5
5DDF
331
5DA8
  5
5DA8
331
5DE7
  5
5DE7
331
5DB0
  5
5DB0
331
5E16
  5
5E16
331
5E55
  5
5E55
331
5E8C
  5
5E91
331
5F02
  5
5F07
331
5F61
  5
5F66
331
5E1E
  5
5E1E
331
5E94
  5
5E99
331
5ED3
  5
5EDA
331
5F0A
  5
5F0F
331
5E26
  5
5E26
331
5E65
  5
5E65
331
5E9C
  5
5EA7
331
5EDB
  5
5EE0
331
5F12
  5
5F17
331
5F89
  5
5F9A
331
5EE3
  5
5EE8
331
5E2E
  5
5E2E
331
5F1A
  5
5F1F
331
603F
  5
6045
331
60D0
  5
60E1
331
635D
  5
635D
331
63E4
  5
63E4
331
60B1
  5
60BA
331
6316
  5
6316
331
63EC
  5
63EC
331
5DB8
  5
5DB8
331
5DC0
  5
5DC0
331
5E07
  5
5E07
331
5DC8
  5
5DC8
331
5E0F
  5
5E0F
331
5EEB
  5
5EF0
331
5FC8
  5
5FDE
331
5E75
  5
5E75
331
5E36
  5
5E36
331
5EAC
  5
5EB1
331
5E7D
  5
5E83
331
5E3E
  5
5E3E
331
5EB4
  5
5EB9
331
5FA1
  5
5FAE
331
5E46
  5
5E46
331
5FE0
  5
5FF6
331
5E4E
  5
5E4E
331
5EC4
  5
5EC9
331
5F5A
  5
5F61
331
60B9
  5
60C3
331
60F8
  5
6282
331
63F4
  5
63F4
331
6082
  5
608E
331
6326
  5
6326
331
6395
  5
6395
331
62DF
  5
62DF
331
60C9
  5
60D7
331
608A
  5
6096
331
6280
  5
628B
331
63A5
  5
63A5
331
6288
  5
629A
331
640C
  5
640C
331
5DD8
  5
5DD8
331
5DE0
  5
5DE0
331
5DA9
  5
5DA9
331
5DE8
  5
5DE8
331
5DB1
  5
5DB1
331
5E17
  5
5E17
331
5E56
  5
5E56
331
5E8D
  5
5E92
331
5F03
  5
5F08
331
5F62
  5
5F76
331
5E1F
  5
5E1F
331
5E95
  5
5E9A
331
5ED4
  5
5EDB
331
5F0B
  5
5F10
331
6010
  5
6041
331
5E27
  5
5E27
331
5E66
  5
5E66
331
5E9D
  5
5EA8
331
5EDC
  5
5EE1
331
5F13
  5
5F18
331
5EE4
  5
5EE9
331
5E2F
  5
5E2F
331
5F1B
  5
5F25
331
605B
  5
606C
331
60D1
  5
60E2
331
6290
  5
5E7D
331
6063
  5
606E
331
635E
  5
635E
331
63E5
  5
63E5
331
6317
  5
6317
331
636E
  5
636E
331
63ED
  5
63ED
331
5E08
  5
5E08
331
5DC9
  5
5DC9
331
5DD1
  5
5DD1
331
6040
  5
6046
331
5E76
  5
5E76
331
5E37
  5
5E37
331
5EAD
  5
5EB2
331
5F9A
  5
5F9F
331
5E7E
  5
5E84
331
5E3F
  5
5E3F
331
5EB5
  5
5EBA
331
5E47
  5
5E47
331
5E4F
  5
5E4F
331
5EC5
  5
5ECA
331
5F5B
  5
5F62
331
60BA
  5
60C4
331
60F9
  5
6283
331
63F5
  5
63F5
331
6279
  5
6284
331
6327
  5
6327
331
62E0
  5
62E0
331
60CA
  5
60DB
331
608B
  5
609E
331
6281
  5
628C
331
63A6
  5
63A6
331
6289
  5
629B
331
640D
  5
640D
331
5DD9
  5
5DD9
331
5DE1
  5
5DE1
331
5DAA
  5
5DAA
331
5DE9
  5
5DE9
331
5E18
  5
5E18
331
5E57
  5
5E57
331
5E8E
  5
5E93
331
5ECD
  5
5ED2
331
5F04
  5
5F09
331
5F63
  5
5F77
331
5E20
  5
5E20
331
5E96
  5
5E9B
331
5ED5
  5
5EDC
331
5F0C
  5
5F11
331
6011
  5
6042
331
5E28
  5
5E28
331
5E67
  5
5E67
331
5E9E
  5
5EA9
331
5EDD
  5
5EE2
331
5F14
  5
5F19
331
5FC2
  5
5FD6
331
5EE5
  5
5EEA
331
5E6F
  5
5E6F
331
5EA6
  5
5EAB
331
5F1C
  5
5F28
331
62F0
  5
62F0
331
60E2
  5
627C
331
635F
  5
635F
331
636F
  5
636F
331
63EE
  5
63EE
331
5DC2
  5
5DC2
331
5E09
  5
5E09
331
5DCA
  5
5DCA
331
5DD2
  5
5DD2
331
5E30
  5
5E30
331
5F93
  5
5F9B
331
6041
  5
6049
331
5EED
  5
5EF2
331
5E38
  5
5E38
331
5EAE
  5
5EB3
331
5F9B
  5
5FA0
331
6049
  5
6058
331
5E40
  5
5E40
331
5EB6
  5
5EBB
331
5E48
  5
5E48
331
5EBE
  5
5EC3
331
5EC6
  5
5ECB
331
63F6
  5
63F6
331
60C3
  5
60C8
331
627A
  5
6285
331
6328
  5
6328
331
62E1
  5
62E1
331
60CB
  5
60DC
331
608C
  5
60A6
331
6282
  5
628D
331
6338
  5
6338
331
63A7
  5
63A7
331
628A
  5
629C
331
640E
  5
640E
  0
DIMASSOC
  5
7212
102
{ACAD_REACTORS
330
7211
102
}
330
7211
100
AcDbDimAssoc
330
7202
 90
        3
 70
     0
 71
     0
  1
AcDbOsnapPointRef
 72
     1
331
71D2
 73
     0
 91
        0
 40
0.0
 10
0.0
 20
0.0
 30
2.000000000000000E+50
 75
     0
  1
AcDbOsnapPointRef
 72
     5
331
71A3
 73
     0
 91
        0
 40
0.0
 10
0.0
 20
0.0
 30
0.0
 75
     0
  0
DIMASSOC
  5
723C
102
{ACAD_REACTORS
330
723B
102
}
330
723B
100
AcDbDimAssoc
330
722C
 90
        3
 70
     0
 71
     0
  1
AcDbOsnapPointRef
 72
     5
331
71A3
 73
     0
 91
        0
 40
1.570796326794896
 10
0.0
 20
0.0
 30
0.0
 75
     0
  1
AcDbOsnapPointRef
 72
     1
331
71BC
 73
     0
 91
        0
 40
0.0
 10
0.0
 20
0.0
 30
2.000000000000000E+50
 75
     0
  0
DIMASSOC
  5
727F
102
{ACAD_REACTORS
330
727E
102
}
330
727E
100
AcDbDimAssoc
330
7271
 90
        3
 70
     0
 71
     0
  1
AcDbOsnapPointRef
 72
     1
331
71B8
 73
     0
 91
        0
 40
0.0
 10
0.0
 20
0.0
 30
2.000000000000000E+50
 75
     0
  1
AcDbOsnapPointRef
 72
     1
331
71BE
 73
     0
 91
        0
 40
0.0
 10
0.0
 20
0.0
 30
2.000000000000000E+50
 75
     0
  0
LAYOUT
  5
22
102
{ACAD_XDICTIONARY
360
7490
102
}
102
{ACAD_REACTORS
330
1A
102
}
330
1A
100
AcDbPlotSettings
  1

  2
\\RD\EPSON Stylus C63 Series單色
  4
A4
  6

 40
3.757083177566528
 41
3.757076978683471
 42
3.757080078125
 43
3.757080078125
 44
209.9733276367187
 45
296.9683227539062
 46
0.0
 47
0.0
 48
0.0
 49
0.0
140
0.0
141
0.0
142
1.0
143
0.3405120737814363
 70
 11952
 72
     1
 73
     0
 74
     0
  7
彩色出圖.ctb
 75
     0
147
2.936753428137963
148
-2047.07469463503
149
-1261.649717473083
100
AcDbLayout
  1
Model
 70
     1
 71
     0
 10
0.0
 20
0.0
 11
12.0
 21
9.0
 12
0.0
 22
0.0
 32
0.0
 14
0.0
 24
0.0
 34
0.0
 15
0.0
 25
0.0
 35
0.0
146
0.0
 13
0.0
 23
0.0
 33
0.0
 16
1.0
 26
0.0
 36
0.0
 17
0.0
 27
1.0
 37
0.0
 76
     0
330
1F
1001
ACAD_PSEXT
1000
\\RD\EPSON Stylus C63 Series單色
1000
EPSON Stylus C63 Series
1000
\\RD
1000

1070
     0
  0
LAYOUT
  5
1E
102
{ACAD_XDICTIONARY
360
748E
102
}
102
{ACAD_REACTORS
330
1A
102
}
330
1A
100
AcDbPlotSettings
  1

  2

  4

  6

 40
0.0
 41
0.0
 42
0.0
 43
0.0
 44
0.0
 45
0.0
 46
0.0
 47
0.0
 48
0.0
 49
0.0
140
0.0
141
0.0
142
1.0
143
1.0
 70
   688
 72
     0
 73
     0
 74
     5
  7
彩色出圖.ctb
 75
    16
147
1.0
148
0.0
149
0.0
100
AcDbLayout
  1
配置1
 70
     1
 71
     1
 10
0.0
 20
0.0
 11
420.0
 21
297.0
 12
0.0
 22
0.0
 32
0.0
 14
1.000000000000000E+20
 24
1.000000000000000E+20
 34
1.000000000000000E+20
 15
-1.000000000000000E+20
 25
-1.000000000000000E+20
 35
-1.000000000000000E+20
146
0.0
 13
0.0
 23
0.0
 33
0.0
 16
1.0
 26
0.0
 36
0.0
 17
0.0
 27
1.0
 37
0.0
 76
     0
330
1B
  0
LAYOUT
  5
26
102
{ACAD_XDICTIONARY
360
7492
102
}
102
{ACAD_REACTORS
330
1A
102
}
330
1A
100
AcDbPlotSettings
  1

  2

  4

  6

 40
0.0
 41
0.0
 42
0.0
 43
0.0
 44
0.0
 45
0.0
 46
0.0
 47
0.0
 48
0.0
 49
0.0
140
0.0
141
0.0
142
1.0
143
1.0
 70
   688
 72
     0
 73
     0
 74
     5
  7
彩色出圖.ctb
 75
    16
147
1.0
148
0.0
149
0.0
100
AcDbLayout
  1
配置2
 70
     1
 71
     2
 10
0.0
 20
0.0
 11
12.0
 21
9.0
 12
0.0
 22
0.0
 32
0.0
 14
0.0
 24
0.0
 34
0.0
 15
0.0
 25
0.0
 35
0.0
146
0.0
 13
0.0
 23
0.0
 33
0.0
 16
1.0
 26
0.0
 36
0.0
 17
0.0
 27
1.0
 37
0.0
 76
     0
330
23
  0
MLINESTYLE
  5
18
102
{ACAD_REACTORS
330
17
102
}
330
17
100
AcDbMlineStyle
  2
STANDARD
 70
     0
  3

 62
   256
 51
90.0
 52
90.0
 71
     2
 49
0.5
 62
   256
  6
BYLAYER
 49
-0.5
 62
   256
  6
BYLAYER
  0
ACDBPLACEHOLDER
  5
F
102
{ACAD_REACTORS
330
E
102
}
330
E
  0
TABLESTYLE
  5
11B
102
{ACAD_REACTORS
330
11A
102
}
330
11A
100
AcDbTableStyle
  3
Standard
 70
     0
 71
     0
 40
1.5
 41
1.5
280
     0
281
     0
  7
STANDARD
140
4.5
170
     2
 62
     0
 63
     7
283
     0
274
    -2
284
     1
 64
     0
275
    -2
285
     1
 65
     0
276
    -2
286
     1
 66
     0
277
    -2
287
     1
 67
     0
278
    -2
288
     1
 68
     0
279
    -2
289
     1
 69
     0
  7
STANDARD
140
6.0
170
     5
 62
     0
 63
     7
283
     0
274
    -2
284
     1
 64
     0
275
    -2
285
     1
 65
     0
276
    -2
286
     1
 66
     0
277
    -2
287
     1
 67
     0
278
    -2
288
     1
 68
     0
279
    -2
289
     1
 69
     0
  7
STANDARD
140
4.5
170
     5
 62
     0
 63
     7
283
     0
274
    -2
284
     1
 64
     0
275
    -2
285
     1
 65
     0
276
    -2
286
     1
 66
     0
277
    -2
287
     1
 67
     0
278
    -2
288
     1
 68
     0
279
    -2
289
     1
 69
     0
  0
DICTIONARYVAR
  5
138
102
{ACAD_REACTORS
330
94
102
}
330
94
100
DictionaryVariables
280
     0
  1
STANDARD
  0
DICTIONARYVAR
  5
96
102
{ACAD_REACTORS
330
94
102
}
330
94
100
DictionaryVariables
280
     0
  1
2
  0
DICTIONARYVAR
  5
95
102
{ACAD_REACTORS
330
94
102
}
330
94
100
DictionaryVariables
280
     0
  1
0
  0
DICTIONARYVAR
  5
73BF
102
{ACAD_REACTORS
330
94
102
}
330
94
100
DictionaryVariables
280
     0
  1

  0
DICTIONARY
  5
1B5
102
{ACAD_REACTORS
330
5B
102
}
330
5B
100
AcDbDictionary
281
     1
  0
DICTIONARY
  5
61
102
{ACAD_REACTORS
330
5B
102
}
330
5B
100
AcDbDictionary
281
     1
  0
XRECORD
  5
123
102
{ACAD_REACTORS
330
5B
102
}
330
5B
100
AcDbXrecord
280
     1
 90
-1023410169
  0
DICTIONARY
  5
7490
330
22
100
AcDbDictionary
280
     1
281
     1
  3
ACAD_XREC_ROUNDTRIP
360
7491
  0
DICTIONARY
  5
748E
330
1E
100
AcDbDictionary
280
     1
281
     1
  3
ACAD_XREC_ROUNDTRIP
360
748F
  0
DICTIONARY
  5
7492
330
26
100
AcDbDictionary
280
     1
281
     1
  3
ACAD_XREC_ROUNDTRIP
360
7493
  0
XRECORD
  5
7491
102
{ACAD_REACTORS
330
7490
102
}
330
7490
100
AcDbXrecord
280
     1
102
SHADEPLOT
 70
     0
102
SHADEPLOTRESLEVEL
 70
     2
102
SHADEPLOTCUSTOMDPI
 70
   300
  0
XRECORD
  5
748F
102
{ACAD_REACTORS
330
748E
102
}
330
748E
100
AcDbXrecord
280
     1
102
SHADEPLOT
 70
     0
102
SHADEPLOTRESLEVEL
 70
     2
102
SHADEPLOTCUSTOMDPI
 70
   300
  0
XRECORD
  5
7493
102
{ACAD_REACTORS
330
7492
102
}
330
7492
100
AcDbXrecord
280
     1
102
SHADEPLOT
 70
     0
102
SHADEPLOTRESLEVEL
 70
     2
102
SHADEPLOTCUSTOMDPI
 70
   300
  0
ENDSEC
  0
EOF
