  0
SECTION
  2
HEADER
  9
$ACADVER
  1
AC1015
  9
$ACADMAINTVER
 70
    20
  9
$DWGCODEPAGE
  3
ANSI_950
  9
$INSBASE
 10
0.0
 20
0.0
 30
0.0
  9
$EXTMIN
 10
259.2731576552155
 20
805.8497104063267
 30
-0.0119981438837726
  9
$EXTMAX
 10
671.8160804838289
 20
1105.978225730999
 30
196.5985886148696
  9
$LIMMIN
 10
0.0
 20
0.0
  9
$LIMMAX
 10
420.0
 20
297.0
  9
$ORTHOMODE
 70
     0
  9
$REGENMODE
 70
     1
  9
$FILLMODE
 70
     1
  9
$QTEXTMODE
 70
     0
  9
$MIRRTEXT
 70
     1
  9
$LTSCALE
 40
1.5
  9
$ATTMODE
 70
     1
  9
$TEXTSIZE
 40
3.0
  9
$TRACEWID
 40
1.0
  9
$TEXTSTYLE
  7
STANDARD
  9
$CLAYER
  8
0
  9
$CELTYPE
  6
ByLayer
  9
$CECOLOR
 62
   256
  9
$CELTSCALE
 40
1.0
  9
$DISPSILH
 70
     0
  9
$DIMSCALE
 40
1.0
  9
$DIMASZ
 40
3.0
  9
$DIMEXO
 40
1.0
  9
$DIMDLI
 40
8.0
  9
$DIMRND
 40
0.0
  9
$DIMDLE
 40
0.0
  9
$DIMEXE
 40
1.5
  9
$DIMTP
 40
0.1
  9
$DIMTM
 40
0.1
  9
$DIMTXT
 40
3.5
  9
$DIMCEN
 40
0.0
  9
$DIMTSZ
 40
0.0
  9
$DIMTOL
 70
     0
  9
$DIMLIM
 70
     0
  9
$DIMTIH
 70
     0
  9
$DIMTOH
 70
     0
  9
$DIMSE1
 70
     0
  9
$DIMSE2
 70
     0
  9
$DIMTAD
 70
     1
  9
$DIMZIN
 70
     8
  9
$DIMBLK
  1

  9
$DIMASO
 70
     1
  9
$DIMSHO
 70
     1
  9
$DIMPOST
  1

  9
$DIMAPOST
  1
"
  9
$DIMALT
 70
     0
  9
$DIMALTD
 70
     2
  9
$DIMALTF
 40
0.0393701
  9
$DIMLFAC
 40
1.0
  9
$DIMTOFL
 70
     1
  9
$DIMTVP
 40
0.0
  9
$DIMTIX
 70
     0
  9
$DIMSOXD
 70
     0
  9
$DIMSAH
 70
     0
  9
$DIMBLK1
  1

  9
$DIMBLK2
  1

  9
$DIMSTYLE
  2
AM_ISO
  9
$DIMCLRD
 70
   256
  9
$DIMCLRE
 70
   256
  9
$DIMCLRT
 70
   256
  9
$DIMTFAC
 40
0.6
  9
$DIMGAP
 40
0.7
  9
$DIMJUST
 70
     0
  9
$DIMSD1
 70
     0
  9
$DIMSD2
 70
     0
  9
$DIMTOLJ
 70
     0
  9
$DIMTZIN
 70
     8
  9
$DIMALTZ
 70
     0
  9
$DIMALTTZ
 70
     0
  9
$DIMUPT
 70
     0
  9
$DIMDEC
 70
     2
  9
$DIMTDEC
 70
     8
  9
$DIMALTU
 70
     2
  9
$DIMALTTD
 70
     2
  9
$DIMTXSTY
  7
STANDARD
  9
$DIMAUNIT
 70
     0
  9
$DIMADEC
 70
     0
  9
$DIMALTRND
 40
0.0
  9
$DIMAZIN
 70
     2
  9
$DIMDSEP
 70
    46
  9
$DIMATFIT
 70
     3
  9
$DIMFRAC
 70
     0
  9
$DIMLDRBLK
  1

  9
$DIMLUNIT
 70
     2
  9
$DIMLWD
 70
    -1
  9
$DIMLWE
 70
    -1
  9
$DIMTMOVE
 70
     0
  9
$LUNITS
 70
     2
  9
$LUPREC
 70
     2
  9
$SKETCHINC
 40
1.0
  9
$FILLETRAD
 40
2.5
  9
$AUNITS
 70
     0
  9
$AUPREC
 70
     0
  9
$MENU
  1
.
  9
$ELEVATION
 40
0.0
  9
$PELEVATION
 40
0.0
  9
$THICKNESS
 40
0.0
  9
$LIMCHECK
 70
     0
  9
$CHAMFERA
 40
0.5
  9
$CHAMFERB
 40
0.5
  9
$CHAMFERC
 40
20.0
  9
$CHAMFERD
 40
0.0
  9
$SKPOLY
 70
     0
  9
$TDCREATE
 40
2453916.626557615
  9
$TDUCREATE
 40
2453916.293224283
  9
$TDUPDATE
 40
2455020.664813947
  9
$TDUUPDATE
 40
2455020.331480613
  9
$TDINDWG
 40
1.3902934838
  9
$TDUSRTIMER
 40
1.3902932986
  9
$USRTIMER
 70
     1
  9
$ANGBASE
 50
0.0
  9
$ANGDIR
 70
     0
  9
$PDMODE
 70
     0
  9
$PDSIZE
 40
0.0
  9
$PLINEWID
 40
0.0
  9
$SPLFRAME
 70
     0
  9
$SPLINETYPE
 70
     6
  9
$SPLINESEGS
 70
     8
  9
$HANDSEED
  5
7427
  9
$SURFTAB1
 70
     6
  9
$SURFTAB2
 70
     6
  9
$SURFTYPE
 70
     6
  9
$SURFU
 70
     6
  9
$SURFV
 70
     6
  9
$UCSBASE
  2

  9
$UCSNAME
  2

  9
$UCSORG
 10
0.0
 20
0.0
 30
0.0
  9
$UCSXDIR
 10
1.0
 20
0.0
 30
0.0
  9
$UCSYDIR
 10
0.0
 20
1.0
 30
0.0
  9
$UCSORTHOREF
  2

  9
$UCSORTHOVIEW
 70
     0
  9
$UCSORGTOP
 10
0.0
 20
0.0
 30
0.0
  9
$UCSORGBOTTOM
 10
0.0
 20
0.0
 30
0.0
  9
$UCSORGLEFT
 10
0.0
 20
0.0
 30
0.0
  9
$UCSORGRIGHT
 10
0.0
 20
0.0
 30
0.0
  9
$UCSORGFRONT
 10
0.0
 20
0.0
 30
0.0
  9
$UCSORGBACK
 10
0.0
 20
0.0
 30
0.0
  9
$PUCSBASE
  2

  9
$PUCSNAME
  2

  9
$PUCSORG
 10
0.0
 20
0.0
 30
0.0
  9
$PUCSXDIR
 10
1.0
 20
0.0
 30
0.0
  9
$PUCSYDIR
 10
0.0
 20
1.0
 30
0.0
  9
$PUCSORTHOREF
  2

  9
$PUCSORTHOVIEW
 70
     0
  9
$PUCSORGTOP
 10
0.0
 20
0.0
 30
0.0
  9
$PUCSORGBOTTOM
 10
0.0
 20
0.0
 30
0.0
  9
$PUCSORGLEFT
 10
0.0
 20
0.0
 30
0.0
  9
$PUCSORGRIGHT
 10
0.0
 20
0.0
 30
0.0
  9
$PUCSORGFRONT
 10
0.0
 20
0.0
 30
0.0
  9
$PUCSORGBACK
 10
0.0
 20
0.0
 30
0.0
  9
$USERI1
 70
     0
  9
$USERI2
 70
     0
  9
$USERI3
 70
     0
  9
$USERI4
 70
     0
  9
$USERI5
 70
     0
  9
$USERR1
 40
0.0
  9
$USERR2
 40
0.0
  9
$USERR3
 40
0.0
  9
$USERR4
 40
0.0
  9
$USERR5
 40
0.0
  9
$WORLDVIEW
 70
     1
  9
$SHADEDGE
 70
     3
  9
$SHADEDIF
 70
    70
  9
$TILEMODE
 70
     1
  9
$MAXACTVP
 70
    64
  9
$PINSBASE
 10
0.0
 20
0.0
 30
0.0
  9
$PLIMCHECK
 70
     0
  9
$PEXTMIN
 10
1.000000000000000E+20
 20
1.000000000000000E+20
 30
1.000000000000000E+20
  9
$PEXTMAX
 10
-1.000000000000000E+20
 20
-1.000000000000000E+20
 30
-1.000000000000000E+20
  9
$PLIMMIN
 10
0.0
 20
0.0
  9
$PLIMMAX
 10
420.0
 20
297.0
  9
$UNITMODE
 70
     0
  9
$VISRETAIN
 70
     1
  9
$PLINEGEN
 70
     0
  9
$PSLTSCALE
 70
     1
  9
$TREEDEPTH
 70
  3020
  9
$CMLSTYLE
  2
Standard
  9
$CMLJUST
 70
     0
  9
$CMLSCALE
 40
20.0
  9
$PROXYGRAPHICS
 70
     1
  9
$MEASUREMENT
 70
     1
  9
$CELWEIGHT
370
    -1
  9
$ENDCAPS
280
     0
  9
$JOINSTYLE
280
     0
  9
$LWDISPLAY
290
     0
  9
$INSUNITS
 70
     4
  9
$HYPERLINKBASE
  1

  9
$STYLESHEET
  1
彩色出圖.ctb
  9
$XEDIT
290
     1
  9
$CEPSNTYPE
380
     0
  9
$PSTYLEMODE
290
     1
  9
$FINGERPRINTGUID
  2
{13FD0162-0574-45C5-AF42-8725A3412D43}
  9
$VERSIONGUID
  2
{E08BAC37-A39B-4D6B-A8D5-52038A732446}
  9
$EXTNAMES
290
     1
  9
$PSVPSCALE
 40
0.0
  9
$OLESTARTUP
290
     0
  0
ENDSEC
  0
SECTION
  2
CLASSES
  0
CLASS
  1
ACDBDICTIONARYWDFLT
  2
AcDbDictionaryWithDefault
  3
ObjectDBX Classes
 90
        0
280
     0
281
     0
  0
CLASS
  1
ACDBPLACEHOLDER
  2
AcDbPlaceHolder
  3
ObjectDBX Classes
 90
        0
280
     0
281
     0
  0
CLASS
  1
LAYOUT
  2
AcDbLayout
  3
ObjectDBX Classes
 90
        0
280
     0
281
     0
  0
CLASS
  1
ACME_DOCUMENT
  2
AcMeDbDoc
  3
AcMeServices
 90
        0
280
     0
281
     0
  0
CLASS
  1
AMGSETTINGSOBJ
  2
AmgSettingsObj
  3
"AcadM|Product Description: AutoCAD Mechanical 2000|Company: Autodesk"
 90
        0
280
     0
281
     0
  0
CLASS
  1
ACMESCOPE
  2
AcMeScope
  3
AcMeServices
 90
        0
280
     0
281
     0
  0
CLASS
  1
ACMECOMMANDHISTORY
  2
AcMeCommandHistory
  3
AcMeServices
 90
        0
280
     0
281
     0
  0
CLASS
  1
ACIMSYSVARMAN
  2
AcImSysVarManager
  3
AcMeServices
 90
        0
280
     0
281
     0
  0
CLASS
  1
ACIMREALSYSVAR
  2
AcImRealSysVar
  3
AcMeServices
 90
        0
280
     0
281
     0
  0
CLASS
  1
ACIMINTSYSVAR
  2
AcImIntSysVar
  3
AcMeServices
 90
        0
280
     0
281
     0
  0
CLASS
  1
ACMEDRAWINGMAN
  2
AcMeDrawingMan
  3
AcMeServices
 90
        0
280
     0
281
     0
  0
CLASS
  1
ACMEVIEW
  2
AcMeView
  3
AcMeServices
 90
        0
280
     0
281
     0
  0
CLASS
  1
ACDBENTITYCACHE
  2
AcMeEntityCache
  3
AcMeServices
 90
        0
280
     0
281
     0
  0
CLASS
  1
GSMANAGER
  2
AcMeGSManager
  3
AcMeServices
 90
        0
280
     0
281
     0
  0
CLASS
  1
AMDTINTERNALREACTOR
  2
AmdtInternalReactor
  3
AcMeServices
 90
        0
280
     0
281
     0
  0
CLASS
  1
ACMESTATEMGR
  2
AcMeStateMgr
  3
AcMeServices
 90
        0
280
     0
281
     0
  0
CLASS
  1
ACGREFMASTER
  2
AcGrefMaster
  3
AcAttribServices
 90
        0
280
     0
281
     0
  0
CLASS
  1
ACME_DATABASE
  2
AcMeDbDatabase
  3
AcMeServices
 90
        0
280
     0
281
     0
  0
CLASS
  1
ACRFINSADJUSTERMGR
  2
AcRfInsAdjusterMgr
  3
AcMeServices
 90
        0
280
     0
281
     0
  0
CLASS
  1
ACGREFACADMASTER
  2
AcGrefacadMaster
  3
AcGrefServices
 90
        0
280
     0
281
     0
  0
CLASS
  1
AMIMASTER
  2
AmiMaster
  3
AmiServices
 90
        0
280
     0
281
     0
  0
CLASS
  1
ACMDATADICTIONARY
  2
AcmDataDictionary
  3
"AcmSymBB|Product Description: AutoCAD Mechanical 2004 DX|Company: Autodesk"
 90
        0
280
     0
281
     0
  0
CLASS
  1
ACMDATAENTRYBLOCK
  2
AcmDataEntryBlock
  3
"AcmSymBB|Product Description: AutoCAD Mechanical 2004 DX|Company: Autodesk"
 90
    32768
280
     0
281
     0
  0
CLASS
  1
ACIMSTRSYSVAR
  2
AcImStrSysVar
  3
AcMeServices
 90
        0
280
     0
281
     0
  0
CLASS
  1
ACMSTANDARDISO
  2
AcmStandardISO
  3
"Amdt_StdImp|Product Description: AutoCAD Mechanical 2004 DX|Company: Autodesk"
 90
        0
280
     0
281
     0
  0
CLASS
  1
AMGOBJPROPCFG
  2
AmgObjPropCfg
  3
"AmgLay|Product Description: AutoCAD Mechanical 2000|Company: Autodesk"
 90
        1
280
     0
281
     0
  0
CLASS
  1
AMDTEDGESTANDARDISO
  2
AmdtEdgeStdISO
  3
"Amdt_StdImp|Product Description: AutoCAD Mechanical 2004 DX|Company: Autodesk"
 90
    32768
280
     0
281
     0
  0
CLASS
  1
ACMSURFSTANDARDISO
  2
AcmSurfTextStdISO
  3
"Amdt_StdImp|Product Description: AutoCAD Mechanical 2004 DX|Company: Autodesk"
 90
        0
280
     0
281
     0
  0
CLASS
  1
ACMFCFSTANDARDISO
  2
AcmFCFStdISO
  3
"Amdt_StdImp|Product Description: AutoCAD Mechanical 2004 DX|Company: Autodesk"
 90
        0
280
     0
281
     0
  0
CLASS
  1
ACMWELDSTANDARDISO
  2
AcmWeldingStdISO
  3
"Amdt_StdImp|Product Description: AutoCAD Mechanical 2004 DX|Company: Autodesk"
 90
        0
280
     0
281
     0
  0
CLASS
  1
ACMIDSTANDARDISO
  2
AcmIdStdISO
  3
"Amdt_StdImp|Product Description: AutoCAD Mechanical 2004 DX|Company: Autodesk"
 90
        0
280
     0
281
     0
  0
CLASS
  1
ACMDATUMSTANDARDISO
  2
AcmDatumStdISO
  3
"Amdt_StdImp|Product Description: AutoCAD Mechanical 2004 DX|Company: Autodesk"
 90
        0
280
     0
281
     0
  0
CLASS
  1
ACMBOMSTANDARDISO
  2
AcmBOMStdISO
  3
"Amdt_StdImp|Product Description: AutoCAD Mechanical 2004 DX|Company: Autodesk"
 90
        0
280
     0
281
     0
  0
CLASS
  1
ACMDETAILSTANDARDISO
  2
AmdtDetailSymStdISO
  3
"Amdt_StdImp|Product Description: AutoCAD Mechanical 2004 DX|Company: Autodesk"
 90
        0
280
     0
281
     0
  0
CLASS
  1
ACMSECTIONSTANDARDISO
  2
AmdtSectionSymStdISO
  3
"Amdt_StdImp|Product Description: AutoCAD Mechanical 2004 DX|Company: Autodesk"
 90
        0
280
     0
281
     0
  0
CLASS
  1
ACMCENTERLINESTANDARDISO
  2
AmdtCenterLineStdISO
  3
"Amdt_StdImp|Product Description: AutoCAD Mechanical 2004 DX|Company: Autodesk"
 90
        0
280
     0
281
     0
  0
CLASS
  1
ACMNOTESTANDARDISO
  2
AmdtNoteStdISO
  3
"Amdt_StdImp|Product Description: AutoCAD Mechanical 2004 DX|Company: Autodesk"
 90
        0
280
     0
281
     0
  0
CLASS
  1
ACAMGLAYSTD
  2
AcAmgLayStd
  3
"AcAmgLayStd|Product Description: AutoCAD Mechanical 2000|Company: Autodesk"
 90
        0
280
     0
281
     0
  0
CLASS
  1
ACAMGDIMSTD
  2
AcAmgDimStd
  3
"AcAmgDimStd|Product Description: AutoCAD Mechanical 2000|Company: Autodesk"
 90
        0
280
     0
281
     0
  0
CLASS
  1
ACAMGHOLECHARTSTDISO
  2
AcAmgHoleChartStdISO
  3
ACMSYMBB_MODULE_NAME
 90
        0
280
     0
281
     0
  0
CLASS
  1
ACAMGTITLESTD
  2
AcAmgTitleStd
  3
"TITLEAPP"
 90
        0
280
     0
281
     0
  0
CLASS
  1
LAYER_INDEX
  2
AcDbLayerIndex
  3
ObjectDBX Classes
 90
    32768
280
     0
281
     0
  0
CLASS
  1
IDBUFFER
  2
AcDbIdBuffer
  3
ObjectDBX Classes
 90
    32768
280
     0
281
     0
  0
CLASS
  1
DICTIONARYVAR
  2
AcDbDictionaryVar
  3
ObjectDBX Classes
 90
        0
280
     0
281
     0
  0
CLASS
  1
AM_DRAWING_MGR
  2
AcDmDwgMgr
  3
AcMechDwgViewMgmt
 90
        0
280
     0
281
     0
  0
CLASS
  1
AM_DWG_DOCUMENT
  2
AcDmDwgDocument
  3
AcMechDwgViewMgmt
 90
        0
280
     0
281
     0
  0
CLASS
  1
AM_DWG_SHEET
  2
AcDmSheet
  3
AcMechDwgViewMgmt
 90
        0
280
     0
281
     0
  0
CLASS
  1
AM_VIEWDIMPARMAP
  2
AcDmViewDimParMap
  3
AcMechDwgViewMgmt
 90
        0
280
     0
281
     0
  0
CLASS
  1
AM_DWGMGR_NAME
  2
AcDmDwgMgrName
  3
AcMechDwgViewMgmt
 90
        0
280
     0
281
     0
  0
CLASS
  1
AMDTMENUSTATEMGR
  2
AmdtMenuStateMgr
  3
McadcomServices
 90
        0
280
     0
281
     0
  0
CLASS
  1
AMDTMCOMMENUSTATE
  2
AmdtMcomMenuState
  3
McadcomServices
 90
        0
280
     0
281
     0
  0
CLASS
  1
MAPIAMMOUDLE
  2
MApiAmModule
  3
MApiAmServices
 90
        0
280
     0
281
     0
  0
CLASS
  1
AMDTADMENUSTATE
  2
AmdtAdMenuState
  3
DesignerServices
 90
        0
280
     0
281
     0
  0
CLASS
  1
ADAPPL
  2
AcAdAppl
  3
DesignerServices
 90
        0
280
     0
281
     0
  0
CLASS
  1
DEPMGR
  2
AcAdDepMgr
  3
DesignerServices
 90
        0
280
     0
281
     0
  0
CLASS
  1
PARAMMGR
  2
AcAdParamMgr
  3
DesignerServices
 90
        0
280
     0
281
     0
  0
CLASS
  1
PARAMSCOPE
  2
AcAdParamScope
  3
DesignerServices
 90
        0
280
     0
281
     0
  0
CLASS
  1
NAMEDAPPL
  2
AcAdNamedAppl
  3
DesignerServices
 90
        0
280
     0
281
     0
  0
CLASS
  1
AMDTDMMENUSTATE
  2
AmdtDmMenuState
  3
AcMechDwgViewMgmt
 90
        0
280
     0
281
     0
  0
CLASS
  1
AMDTAMMENUSTATE
  2
AmdtAmMenuState
  3
DesignerAssemblies
 90
        0
280
     0
281
     0
  0
CLASS
  1
ACAMPROJECT
  2
AcAmProject
  3
DesignerAssemblies
 90
        0
280
     0
281
     0
  0
CLASS
  1
ACAMGRCOMPDEF
  2
AcAmGrCompDef
  3
DesignerAssemblies
 90
        0
280
     0
281
     0
  0
CLASS
  1
ACCMCONTEXT
  2
AcCmContext
  3
DesignerAssemblies
 90
        0
280
     0
281
     0
  0
CLASS
  1
ACAMCOMPDEF
  2
AcAmCompDef
  3
DesignerAssemblies
 90
        0
280
     0
281
     0
  0
CLASS
  1
ACAMCOMPDEFMGR
  2
AcAmCompDefMgr
  3
DesignerAssemblies
 90
        0
280
     0
281
     0
  0
CLASS
  1
AMCONTEXTMGR
  2
AcAmContextMgr
  3
DesignerAssemblies
 90
        0
280
     0
281
     0
  0
CLASS
  1
ACAMCONTEXTMODELER
  2
AcAmContextModeler
  3
DesignerAssemblies
 90
        0
280
     0
281
     0
  0
CLASS
  1
ACMTHREADLINESTANDARDISO
  2
AmdtThreadLineStdISO
  3
"Amdt_StdImp|Product Description: AutoCAD Mechanical 2004 DX|Company: Autodesk"
 90
        0
280
     0
281
     0
  0
CLASS
  1
CATALOGSTATE
  2
AcAmCatalogState
  3
DesignerAssemblies
 90
        0
280
     0
281
     0
  0
CLASS
  1
ACAMGRCOMPDEFSET
  2
AcAmGrCompDefSet
  3
DesignerAssemblies
 90
        0
280
     0
281
     0
  0
CLASS
  1
AMDTBROWSERDBTAB
  2
AmdtBrowserDbTab
  3
McadcomServices
 90
        0
280
     0
281
     0
  0
CLASS
  1
CBROWSERAPPOBJECT
  2
CBrowserAppObject
  3
McadcomServices
 90
        0
280
     0
281
     0
  0
CLASS
  1
DM_PLACEHOLDER
  2
AcDmSelsetPlaceholder
  3
AcMechDwgViewMgmt
 90
        0
280
     0
281
     0
  0
CLASS
  1
TABLESTYLE
  2
AcDbTableStyle
  3
ObjectDBX Classes
 90
     2047
280
     0
281
     0
  0
CLASS
  1
VAACXREFPANELOBJECT
  2
VaAcXREFPanelObject
  3
VAAC_ADDIN
 90
    32768
280
     0
281
     0
  0
CLASS
  1
VAACIMAGEINVENTORY
  2
VaAcImageInventory
  3
VAAC_ADDIN
 90
    32768
280
     0
281
     0
  0
CLASS
  1
AMDTNOTETEMPLATEDB
  2
AmdtNoteTemplateDB
  3
AMDT_STDIMP_MODULE_NAME
 90
        0
280
     0
281
     0
  0
CLASS
  1
ACMBOM
  2
AcmBom
  3
"AcmSymBB|Product Description: AutoCAD Mechanical 2004 DX|Company: Autodesk"
 90
    32768
280
     0
281
     0
  0
CLASS
  1
AMDTFORMULAUPDATEDISPATCHER
  2
AmdtFormulaUpdateDispatcher
  3
AcMeServices
 90
    32768
280
     0
281
     0
  0
CLASS
  1
ACMPARTLIST
  2
AcmPartList
  3
"AcmSymBB|Product Description: AutoCAD Mechanical 2004 DX|Company: Autodesk"
 90
    33791
280
     0
281
     1
  0
CLASS
  1
ACAMGFILTERDAT
  2
AcAmgFilterDat
  3
"AcadM|Product Description: AutoCAD Mechanical 2000|Company: Autodesk"
 90
    32768
280
     0
281
     0
  0
CLASS
  1
DIMASSOC
  2
AcDbDimAssoc
  3
"AcDbDimAssoc|Product Desc:     AcDim ARX App For Dimension|Company:          Autodesk, Inc.|WEB Address:      www.autodesk.com"
 90
        0
280
     0
281
     0
  0
CLASS
  1
STDPART2D
  2
AmgStdPart
  3
"AmgStdPart|Product Description: AutoCAD Mechanical 2000|Company: Autodesk"
 90
    33791
280
     0
281
     1
  0
CLASS
  1
ACAMSTDPCOMPDEF
  2
AcAmStdpCompDef
  3
DesignerAssemblies
 90
    32768
280
     0
281
     0
  0
CLASS
  1
ACRFATTGENMGR
  2
AcRfAttGeneralMgr
  3
AcAttribServices
 90
        0
280
     0
281
     0
  0
CLASS
  1
ACRFOBJATTMGR
  2
AcRfObjAttGroupMgr
  3
AcAttribServices
 90
    32768
280
     0
281
     0
  0
CLASS
  1
ACRFMCADAPIATTHOLDER
  2
AcRfMCADAPIAttHolder
  3
AcAttribServices
 90
    32768
280
     0
281
     0
  0
CLASS
  1
AMDTSYSATTR
  2
AmdtSystemAttribute
  3
AcAttribServices
 90
    32768
280
     0
281
     0
  0
CLASS
  1
ACAMCOMP
  2
AcAmComp
  3
DesignerAssemblies
 90
    32768
280
     0
281
     0
  0
CLASS
  1
AC_AM_STDP_VIEW_DEF
  2
AcAmStdpViewDef
  3
DesignerAssemblies
 90
    32768
280
     0
281
     0
  0
CLASS
  1
AC_AM_MVD_DEP_MGR
  2
AcAmMVDdepMgr
  3
DesignerAssemblies
 90
    32768
280
     0
281
     0
  0
CLASS
  1
AC_AM_MASTER_VIEW_DEF
  2
AcAmMasterViewDef
  3
DesignerAssemblies
 90
    32768
280
     0
281
     0
  0
CLASS
  1
AC_AM_DIRTY_NODES
  2
AcAmDirtyNodes
  3
DesignerAssemblies
 90
    32768
280
     0
281
     0
  0
CLASS
  1
AC_AM_MAPPER_CACHE
  2
AcAmMapperCache
  3
DesignerAssemblies
 90
    32768
280
     0
281
     0
  0
CLASS
  1
ACAMMVDBACKUPOBJECT
  2
AcAmMVDBackupObject
  3
DesignerAssemblies
 90
    32768
280
     0
281
     0
  0
CLASS
  1
AC_AM_COMP_VIEW_INST
  2
AcAmCompView
  3
DesignerAssemblies
 90
    32768
280
     0
281
     0
  0
CLASS
  1
AC_AM_2D_XREF_MGR
  2
AcAmXrefMgr2d
  3
DesignerAssemblies
 90
    32768
280
     0
281
     0
  0
CLASS
  1
SORTENTSTABLE
  2
AcDbSortentsTable
  3
ObjectDBX Classes
 90
        0
280
     0
281
     0
  0
CLASS
  1
ACDBCIRCARCRES
  2
AcDbCircArcRes
  3
AcGrefServices
 90
    32768
280
     0
281
     0
  0
CLASS
  1
AMDTNOTE
  2
AmdtNote
  3
"AcmSymBB|Product Description: AutoCAD Mechanical 2004 DX|Company: Autodesk"
 90
    33791
280
     0
281
     1
  0
CLASS
  1
ACDBLINERES
  2
AcDbLineRes
  3
AcGrefServices
 90
    32768
280
     0
281
     0
  0
CLASS
  1
ACMSTANDARDANSI
  2
AcmStandardANSI
  3
"Amdt_StdImp|Product Description: AutoCAD Mechanical 2004 DX|Company: Autodesk"
 90
    32768
280
     0
281
     0
  0
CLASS
  1
ACMSURFSTANDARDANSI
  2
AcmSurfTextStdANSI
  3
"Amdt_StdImp|Product Description: AutoCAD Mechanical 2004 DX|Company: Autodesk"
 90
    32768
280
     0
281
     0
  0
CLASS
  1
ACMFCFSTANDARDANSI
  2
AcmFCFStdANSI
  3
"Amdt_StdImp|Product Description: AutoCAD Mechanical 2004 DX|Company: Autodesk"
 90
    32768
280
     0
281
     0
  0
CLASS
  1
ACMWELDSTANDARDANSI
  2
AcmWeldingStdANSI
  3
"Amdt_StdImp|Product Description: AutoCAD Mechanical 2004 DX|Company: Autodesk"
 90
    32768
280
     0
281
     0
  0
CLASS
  1
ACMIDSTANDARDANSI
  2
AcmIdStdANSI
  3
"Amdt_StdImp|Product Description: AutoCAD Mechanical 2004 DX|Company: Autodesk"
 90
    32768
280
     0
281
     0
  0
CLASS
  1
ACMDATUMSTANDARDANSI
  2
AcmDatumStdANSI
  3
"Amdt_StdImp|Product Description: AutoCAD Mechanical 2004 DX|Company: Autodesk"
 90
    32768
280
     0
281
     0
  0
CLASS
  1
ACMBOMSTANDARDANSI
  2
AcmBOMStdANSI
  3
"Amdt_StdImp|Product Description: AutoCAD Mechanical 2004 DX|Company: Autodesk"
 90
    32768
280
     0
281
     0
  0
CLASS
  1
ACMDETAILSTANDARDANSI
  2
AmdtDetailSymStdANSI
  3
"Amdt_StdImp|Product Description: AutoCAD Mechanical 2004 DX|Company: Autodesk"
 90
    32768
280
     0
281
     0
  0
CLASS
  1
ACMSECTIONSTANDARDANSI
  2
AmdtSectionSymStdANSI
  3
"Amdt_StdImp|Product Description: AutoCAD Mechanical 2004 DX|Company: Autodesk"
 90
    32768
280
     0
281
     0
  0
CLASS
  1
ACMCENTERLINESTANDARDANSI
  2
AmdtCenterLineStdANSI
  3
"Amdt_StdImp|Product Description: AutoCAD Mechanical 2004 DX|Company: Autodesk"
 90
    32768
280
     0
281
     0
  0
CLASS
  1
ACMTHREADLINESTANDARDANSI
  2
AmdtThreadLineStdANSI
  3
"Amdt_StdImp|Product Description: AutoCAD Mechanical 2004 DX|Company: Autodesk"
 90
    32768
280
     0
281
     0
  0
CLASS
  1
ACMNOTESTANDARDANSI
  2
AmdtNoteStdANSI
  3
"Amdt_StdImp|Product Description: AutoCAD Mechanical 2004 DX|Company: Autodesk"
 90
    32768
280
     0
281
     0
  0
CLASS
  1
ACAMGHOLECHARTSTDANSI
  2
AcAmgHoleChartStdANSI
  3
ACMSYMBB_MODULE_NAME
 90
    32768
280
     0
281
     0
  0
CLASS
  1
AC_AM_HIDE_SITUATION
  2
AcAmHideSituation
  3
DesignerAssemblies
 90
    32768
280
     0
281
     0
  0
CLASS
  1
AMDTEDGESTANDARDISO13715
  2
AmdtEdgeStdISO13715
  3
"Amdt_StdImp|Product Description: AutoCAD Mechanical 2004 DX|Company: Autodesk"
 90
        0
280
     0
281
     0
  0
ENDSEC
  0
SECTION
  2
TABLES
  0
TABLE
  2
VPORT
  5
8
330
0
100
AcDbSymbolTable
 70
     8
  0
VPORT
  5
741E
330
8
100
AcDbSymbolTableRecord
100
AcDbViewportTableRecord
  2
*Active
 70
     0
 10
0.0
 20
0.0
 11
1.0
 21
1.0
 12
465.5446190695222
 22
955.913968068663
 13
0.0
 23
0.0
 14
2.5
 24
2.5
 15
10.0
 25
10.0
 16
0.0
 26
0.0
 36
1.0
 17
0.0
 27
0.0
 37
0.0
 40
457.6064449469781
 41
0.9093298291721419
 42
50.0
 43
0.0
 44
0.0
 50
0.0
 51
0.0
 71
     0
 72
   100
 73
     1
 74
     3
 75
     0
 76
     0
 77
     0
 78
     0
281
     0
 65
     1
110
0.0
120
0.0
130
0.0
111
1.0
121
0.0
131
0.0
112
0.0
122
1.0
132
0.0
 79
     0
146
0.0
  0
ENDTAB
  0
TABLE
  2
LTYPE
  5
5
330
0
100
AcDbSymbolTable
 70
    16
  0
LTYPE
  5
14
330
5
100
AcDbSymbolTableRecord
100
AcDbLinetypeTableRecord
  2
ByBlock
 70
     0
  3

 72
    65
 73
     0
 40
0.0
  0
LTYPE
  5
15
330
5
100
AcDbSymbolTableRecord
100
AcDbLinetypeTableRecord
  2
ByLayer
 70
     0
  3

 72
    65
 73
     0
 40
0.0
  0
LTYPE
  5
16
330
5
100
AcDbSymbolTableRecord
100
AcDbLinetypeTableRecord
  2
Continuous
 70
     0
  3
Solid line
 72
    65
 73
     0
 40
0.0
  0
LTYPE
  5
64
330
5
100
AcDbSymbolTableRecord
100
AcDbLinetypeTableRecord
  2
AM_ISO02W050
 70
     0
  3
__ __ __ __ __ __ __ __ __ __ __ __ __ __ __
 72
    65
 73
     2
 40
7.5
 49
6.0
 74
     0
 49
-1.5
 74
     0
  0
LTYPE
  5
65
330
5
100
AcDbSymbolTableRecord
100
AcDbLinetypeTableRecord
  2
AM_ISO08W050
 70
     0
  3
____ . ____ . ____ . ____ . ____ . ____ . ____
 72
    65
 73
     4
 40
18.0
 49
12.0
 74
     0
 49
-1.5
 74
     0
 49
3.0
 74
     0
 49
-1.5
 74
     0
  0
LTYPE
  5
66
330
5
100
AcDbSymbolTableRecord
100
AcDbLinetypeTableRecord
  2
AM_ISO09W050
 70
     0
  3
_____ . . _____ . . _____ . . ____ .. ____
 72
    65
 73
     6
 40
22.5
 49
12.0
 74
     0
 49
-1.5
 74
     0
 49
3.0
 74
     0
 49
-1.5
 74
     0
 49
3.0
 74
     0
 49
-1.5
 74
     0
  0
LTYPE
  5
67
330
5
100
AcDbSymbolTableRecord
100
AcDbLinetypeTableRecord
  2
Amconstr
 70
     0
  3
_______________________
 72
    65
 73
     2
 40
9999.0
 49
9999.0
 74
     0
 49
0.0
 74
     0
  0
LTYPE
  5
68
330
5
100
AcDbSymbolTableRecord
100
AcDbLinetypeTableRecord
  2
AM_ISO08W050x2
 70
     0
  3
__ . __ . __ . __ . __ . __
 72
    65
 73
     4
 40
9.0
 49
6.0
 74
     0
 49
-0.75
 74
     0
 49
1.5
 74
     0
 49
-0.75
 74
     0
  0
LTYPE
  5
69
330
5
100
AcDbSymbolTableRecord
100
AcDbLinetypeTableRecord
  2
AM_ISO02W050x2
 70
     0
  3
 _ _ _ _ _ _ _ _ _ _ _ _
 72
    65
 73
     2
 40
3.75
 49
3.0
 74
     0
 49
-0.75
 74
     0
  0
LTYPE
  5
6C
330
5
100
AcDbSymbolTableRecord
100
AcDbLinetypeTableRecord
  2
Amzigzag
 70
     0
  3
/\/-/\/-/\/-/\/-/\/-/\/
 72
    65
 73
     2
 40
11.0001
 49
0.0001
 74
     4
 75
   135
340
6B
 46
0.04
 50
0.0
 44
0.0
 45
0.0
 49
-11.0
 74
     0
  0
LTYPE
  5
7A
330
5
100
AcDbSymbolTableRecord
100
AcDbLinetypeTableRecord
  2
ACISOWELD
 70
     0
  3
_ _ _ _ _
 72
    65
 73
     2
 40
2.0
 49
2.0
 74
     0
 49
-1.0
 74
     0
  0
LTYPE
  5
7B
330
5
100
AcDbSymbolTableRecord
100
AcDbLinetypeTableRecord
  2
ACISOTGB
 70
     0
  3
__ . . __ . .
 72
    65
 73
     6
 40
9.0
 49
4.0
 74
     0
 49
-1.0
 74
     0
 49
1.0
 74
     0
 49
-1.0
 74
     0
 49
1.0
 74
     0
 49
-1.0
 74
     0
  0
LTYPE
  5
7C
330
5
100
AcDbSymbolTableRecord
100
AcDbLinetypeTableRecord
  2
ACISOTGL
 70
     0
  3
_ _ _ _ _
 72
    65
 73
     2
 40
3.0
 49
2.0
 74
     0
 49
-1.0
 74
     0
  0
LTYPE
  5
7E
330
5
100
AcDbSymbolTableRecord
100
AcDbLinetypeTableRecord
  2
CENTER
 70
     0
  3
__ . __
 72
    65
 73
     4
 40
7.0
 49
4.0
 74
     0
 49
-1.0
 74
     0
 49
1.0
 74
     0
 49
-1.0
 74
     0
  0
LTYPE
  5
D8
330
5
100
AcDbSymbolTableRecord
100
AcDbLinetypeTableRecord
  2
HIDDEN
 70
     0
  3
Hidden __ __ __ __ __ __ __ __ __ __ __ __ __ _
 72
    65
 73
     2
 40
9.524999999999998
 49
6.349999999999999
 74
     0
 49
-3.174999999999999
 74
     0
  0
LTYPE
  5
D9
330
5
100
AcDbSymbolTableRecord
100
AcDbLinetypeTableRecord
  2
PHANTOM2
 70
     0
  3
Phantom (.5x) ___ _ _ ___ _ _ ___ _ _ ___ _ _
 72
    65
 73
     6
 40
31.75
 49
15.875
 74
     0
 49
-3.174999999999999
 74
     0
 49
3.174999999999999
 74
     0
 49
-3.174999999999999
 74
     0
 49
3.174999999999999
 74
     0
 49
-3.174999999999999
 74
     0
  0
ENDTAB
  0
TABLE
  2
LAYER
  5
2
102
{ACAD_XDICTIONARY
360
3F9
102
}
330
0
100
AcDbSymbolTable
 70
     9
  0
LAYER
  5
10
330
2
100
AcDbSymbolTableRecord
100
AcDbLayerTableRecord
  2
0
 70
     0
 62
     7
  6
Continuous
370
    -3
390
F
  0
LAYER
  5
A47
330
2
100
AcDbSymbolTableRecord
100
AcDbLayerTableRecord
  2
AM_VIS
 70
     0
 62
     7
  6
Continuous
370
    50
390
F
  0
LAYER
  5
A48
330
2
100
AcDbSymbolTableRecord
100
AcDbLayerTableRecord
  2
AM_7
 70
     0
 62
     1
  6
CENTER
370
    25
390
F
  0
LAYER
  5
A49
330
2
100
AcDbSymbolTableRecord
100
AcDbLayerTableRecord
  2
AM_4
 70
     0
 62
     3
  6
Continuous
370
    25
390
F
  0
LAYER
  5
11DD
330
2
100
AcDbSymbolTableRecord
100
AcDbLayerTableRecord
  2
AM_0
 70
     0
 62
     7
  6
Continuous
370
    50
390
F
  0
LAYER
  5
1369
330
2
100
AcDbSymbolTableRecord
100
AcDbLayerTableRecord
  2
AM_5
 70
     0
 62
     5
  6
Continuous
370
    50
390
F
  0
LAYER
  5
1379
330
2
100
AcDbSymbolTableRecord
100
AcDbLayerTableRecord
  2
Defpoints
 70
     0
 62
     7
  6
Continuous
290
     0
370
    -3
390
F
  0
LAYER
  5
6F8D
330
2
100
AcDbSymbolTableRecord
100
AcDbLayerTableRecord
  2
LOGO
 70
     0
 62
     7
  6
Continuous
370
    -3
390
F
  0
ENDTAB
  0
TABLE
  2
STYLE
  5
3
330
0
100
AcDbSymbolTable
 70
     7
  0
STYLE
  5
11
330
3
100
AcDbSymbolTableRecord
100
AcDbTextStyleTableRecord
  2
STANDARD
 70
     0
 40
0.0
 41
1.0
 50
0.0
 71
     0
 42
3.0
  3
ISOCP.SHX
  4
CHINESET.SHX
  0
STYLE
  5
6B
330
3
100
AcDbSymbolTableRecord
100
AcDbTextStyleTableRecord
  2

 70
     1
 40
0.0
 41
1.0
 50
0.0
 71
     0
 42
2.5
  3
ltypeshp.shx
  4

  0
STYLE
  5
6D
330
3
100
AcDbSymbolTableRecord
100
AcDbTextStyleTableRecord
  2
ACISOTS
 70
     0
 40
1.0
 41
1.0
 50
0.0
 71
     0
 42
1.0
  3
isocp.shx
  4
chineset.shx
  0
STYLE
  5
79
330
3
100
AcDbSymbolTableRecord
100
AcDbTextStyleTableRecord
  2
ACISOGDT
 70
     0
 40
0.0
 41
1.0
 50
0.0
 71
     0
 42
2.5
  3
amgdt.shx
  4
chineset.shx
  0
STYLE
  5
6F8E
330
3
100
AcDbSymbolTableRecord
100
AcDbTextStyleTableRecord
  2
CHINESET
 70
     0
 40
0.0
 41
1.0
 50
0.0
 71
     0
 42
3.0
  3
simplex.shx
  4
CHINESET.SHX
  0
ENDTAB
  0
TABLE
  2
VIEW
  5
6
330
0
100
AcDbSymbolTable
 70
     0
  0
ENDTAB
  0
TABLE
  2
UCS
  5
7
330
0
100
AcDbSymbolTable
 70
     0
  0
ENDTAB
  0
TABLE
  2
APPID
  5
9
330
0
100
AcDbSymbolTable
 70
    43
  0
APPID
  5
12
330
9
100
AcDbSymbolTableRecord
100
AcDbRegAppTableRecord
  2
ACAD
 70
     0
  0
APPID
  5
46
330
9
100
AcDbSymbolTableRecord
100
AcDbRegAppTableRecord
  2
MCAD_NO_VIS
 70
     0
  0
APPID
  5
47
330
9
100
AcDbSymbolTableRecord
100
AcDbRegAppTableRecord
  2
ACAD_TEMP_GRAPHIC
 70
     0
  0
APPID
  5
58
330
9
100
AcDbSymbolTableRecord
100
AcDbRegAppTableRecord
  2
ACATTRIBSERVICES
 70
     0
  0
APPID
  5
EE
330
9
100
AcDbSymbolTableRecord
100
AcDbRegAppTableRecord
  2
AD_DRAW
 70
     0
  0
APPID
  5
10C
330
9
100
AcDbSymbolTableRecord
100
AcDbRegAppTableRecord
  2
DESIGNERASSEMBLIES
 70
     0
  0
APPID
  5
111
330
9
100
AcDbSymbolTableRecord
100
AcDbRegAppTableRecord
  2
ACADM_DIM_EDIT
 70
     0
  0
APPID
  5
112
330
9
100
AcDbSymbolTableRecord
100
AcDbRegAppTableRecord
  2
AMDT_DM_ADJ
 70
     0
  0
APPID
  5
22C
330
9
100
AcDbSymbolTableRecord
100
AcDbRegAppTableRecord
  2
ACAD_DSTYLE_DIMTEXT_FILL
 70
     0
  0
APPID
  5
452
330
9
100
AcDbSymbolTableRecord
100
AcDbRegAppTableRecord
  2
GENIUS_GENOENT_13
 70
     0
  0
APPID
  5
453
330
9
100
AcDbSymbolTableRecord
100
AcDbRegAppTableRecord
  2
GENIUS_GENOBJ-N-CRS_13
 70
     0
  0
APPID
  5
454
330
9
100
AcDbSymbolTableRecord
100
AcDbRegAppTableRecord
  2
GENIUS_GENOLIS_13
 70
     0
  0
APPID
  5
455
330
9
100
AcDbSymbolTableRecord
100
AcDbRegAppTableRecord
  2
GENIUS_GENODEF_13
 70
     0
  0
APPID
  5
456
330
9
100
AcDbSymbolTableRecord
100
AcDbRegAppTableRecord
  2
GENIUS_GENOREF_13
 70
     0
  0
APPID
  5
6F3
330
9
100
AcDbSymbolTableRecord
100
AcDbRegAppTableRecord
  2
ACAD_PSEXT
 70
     0
  0
APPID
  5
808
330
9
100
AcDbSymbolTableRecord
100
AcDbRegAppTableRecord
  2
GENIUS_GENDTOL_13
 70
     0
  0
APPID
  5
11E4
330
9
100
AcDbSymbolTableRecord
100
AcDbRegAppTableRecord
  2
GEVID1151564621
 70
     0
  0
APPID
  5
11E5
330
9
100
AcDbSymbolTableRecord
100
AcDbRegAppTableRecord
  2
GEVDC
 70
     0
  0
APPID
  5
11E6
330
9
100
AcDbSymbolTableRecord
100
AcDbRegAppTableRecord
  2
GEVRADREF
 70
     0
  0
APPID
  5
11EF
330
9
100
AcDbSymbolTableRecord
100
AcDbRegAppTableRecord
  2
AMG_2DHIDE
 70
     0
  0
APPID
  5
11F0
330
9
100
AcDbSymbolTableRecord
100
AcDbRegAppTableRecord
  2
AMG_2DSTRUCT_BTR
 70
     0
  0
APPID
  5
1201
330
9
100
AcDbSymbolTableRecord
100
AcDbRegAppTableRecord
  2
ACADM_2DVIEW_IGN_NOTIFY
 70
     0
  0
APPID
  5
1231
330
9
100
AcDbSymbolTableRecord
100
AcDbRegAppTableRecord
  2
GEVID1151564622
 70
     0
  0
APPID
  5
1262
330
9
100
AcDbSymbolTableRecord
100
AcDbRegAppTableRecord
  2
GEVID1151564623
 70
     0
  0
APPID
  5
1860
330
9
100
AcDbSymbolTableRecord
100
AcDbRegAppTableRecord
  2
ACAD_DIMASSOC_DIMLFAC
 70
     0
  0
APPID
  5
1861
330
9
100
AcDbSymbolTableRecord
100
AcDbRegAppTableRecord
  2
ACAD_DIMASSOC_CALC_DIMLFAC
 70
     0
  0
APPID
  5
1862
330
9
100
AcDbSymbolTableRecord
100
AcDbRegAppTableRecord
  2
ACAD_DIMASSOC_OVERRIDDEN_DIMLFAC
 70
     0
  0
APPID
  5
20E5
330
9
100
AcDbSymbolTableRecord
100
AcDbRegAppTableRecord
  2
GEVID1151625661
 70
     0
  0
APPID
  5
2115
330
9
100
AcDbSymbolTableRecord
100
AcDbRegAppTableRecord
  2
GEVID1151625662
 70
     0
  0
APPID
  5
2131
330
9
100
AcDbSymbolTableRecord
100
AcDbRegAppTableRecord
  2
GEVID1151625663
 70
     0
  0
APPID
  5
2132
330
9
100
AcDbSymbolTableRecord
100
AcDbRegAppTableRecord
  2
GEVMK
 70
     0
  0
APPID
  5
2C49
330
9
100
AcDbSymbolTableRecord
100
AcDbRegAppTableRecord
  2
GENIUS_GENOBJ-N-CEN_13
 70
     0
  0
APPID
  5
2C4A
330
9
100
AcDbSymbolTableRecord
100
AcDbRegAppTableRecord
  2
GENIUS_GENCEN_19
 70
     0
  0
APPID
  5
2F66
330
9
100
AcDbSymbolTableRecord
100
AcDbRegAppTableRecord
  2
GEVID1151908765
 70
     0
  0
APPID
  5
2FDB
330
9
100
AcDbSymbolTableRecord
100
AcDbRegAppTableRecord
  2
GEVID1151908766
 70
     0
  0
APPID
  5
3C74
330
9
100
AcDbSymbolTableRecord
100
AcDbRegAppTableRecord
  2
GEVID1151908767
 70
     0
  0
APPID
  5
3CA2
330
9
100
AcDbSymbolTableRecord
100
AcDbRegAppTableRecord
  2
GEVID1151908768
 70
     0
  0
APPID
  5
3CC1
330
9
100
AcDbSymbolTableRecord
100
AcDbRegAppTableRecord
  2
GEVID1151908769
 70
     0
  0
APPID
  5
3FF1
330
9
100
AcDbSymbolTableRecord
100
AcDbRegAppTableRecord
  2
GENIUS_GENREC_14
 70
     0
  0
APPID
  5
3FF2
330
9
100
AcDbSymbolTableRecord
100
AcDbRegAppTableRecord
  2
GENIUS_GENOBJ-N-REC_13
 70
     0
  0
APPID
  5
4D81
330
9
100
AcDbSymbolTableRecord
100
AcDbRegAppTableRecord
  2
GEVID1151981890
 70
     0
  0
APPID
  5
63C5
330
9
100
AcDbSymbolTableRecord
100
AcDbRegAppTableRecord
  2
GEVID1151981891
 70
     0
  0
APPID
  5
641E
330
9
100
AcDbSymbolTableRecord
100
AcDbRegAppTableRecord
  2
GEVID1151981892
 70
     0
  0
ENDTAB
  0
TABLE
  2
DIMSTYLE
  5
A
330
0
100
AcDbSymbolTable
 70
    15
100
AcDbDimStyleTable
 71
     3
340
81
340
8B
340
86
  0
DIMSTYLE
105
81
330
A
100
AcDbSymbolTableRecord
100
AcDbDimStyleTableRecord
  2
AM_ISO
 70
     0
  4
"
 41
3.0
 42
1.0
 43
8.0
 44
1.5
 47
0.1
 48
0.1
 73
     0
 74
     0
 77
     1
 78
     8
 79
     2
140
3.5
141
0.0
143
0.0393701
146
0.6
147
0.7
172
     1
176
   256
177
   256
178
   256
271
     2
272
     2
283
     0
284
     8
340
11
371
    -1
372
    -1
  0
DIMSTYLE
105
82
330
A
100
AcDbSymbolTableRecord
100
AcDbDimStyleTableRecord
  2
AM_ISO$3
 70
     0
  4
"
 41
3.0
 42
1.0
 43
8.0
 44
1.5
 47
0.1
 48
0.1
 73
     0
 77
     1
 78
     8
 79
     2
140
3.5
141
0.0
143
0.0393701
146
0.6
147
0.7
176
   256
177
   256
178
   256
271
     2
272
     2
283
     0
284
     8
288
     1
289
     0
340
11
371
    -1
372
    -1
  0
DIMSTYLE
105
83
330
A
100
AcDbSymbolTableRecord
100
AcDbDimStyleTableRecord
  2
AM_ISO$4
 70
     0
  4
"
 41
3.0
 42
1.0
 43
8.0
 44
1.5
 47
0.1
 48
0.1
 73
     0
 77
     1
 78
     8
 79
     2
140
3.5
141
0.0
143
0.0393701
146
0.6
147
0.7
176
   256
177
   256
178
   256
271
     2
272
     2
283
     0
284
     8
288
     1
289
     0
340
11
371
    -1
372
    -1
  0
DIMSTYLE
105
84
330
A
100
AcDbSymbolTableRecord
100
AcDbDimStyleTableRecord
  2
AM_ISO$6
 70
     0
  4
"
 41
3.0
 42
1.0
 43
8.0
 44
1.5
 47
0.1
 48
0.1
 73
     0
 74
     0
 78
     8
 79
     2
140
3.5
141
0.0
143
0.0393701
146
0.6
147
0.7
172
     1
176
   256
177
   256
178
   256
271
     2
272
     2
283
     0
284
     8
340
11
371
    -1
372
    -1
  0
DIMSTYLE
105
85
330
A
100
AcDbSymbolTableRecord
100
AcDbDimStyleTableRecord
  2
AM_ISO$7
 70
     0
  4
"
 41
3.0
 42
1.0
 43
8.0
 44
1.5
 47
0.1
 48
0.1
 73
     0
 74
     0
 77
     1
 78
     8
 79
     2
140
5.0
141
0.0
143
0.0393701
146
0.6
147
0.7
172
     1
176
   256
177
   256
178
   256
271
     2
272
     2
283
     0
284
     8
340
11
371
    -1
372
    -1
  0
DIMSTYLE
105
86
330
A
100
AcDbSymbolTableRecord
100
AcDbDimStyleTableRecord
  2
AM_ISO$SF
 70
     0
  4
"
 41
2.5
 42
1.0
 43
10.0
 44
1.0
 47
0.1
 48
0.1
 73
     0
 74
     0
 75
     1
 76
     1
 77
     1
 78
     8
 79
     2
140
3.5
141
0.0
143
0.0393701
146
0.71
147
1.5
172
     1
176
   256
177
   256
178
     2
271
     2
272
     3
274
     4
283
     0
284
     8
340
11
371
    -1
372
    -1
  0
DIMSTYLE
105
8B
330
A
100
AcDbSymbolTableRecord
100
AcDbDimStyleTableRecord
  2
AM_ISO$SH
 70
     0
  4
"
 41
2.5
 42
1.0
 43
10.0
 44
1.0
 47
0.1
 48
0.1
 73
     0
 74
     0
 75
     1
 76
     1
 77
     1
 78
     8
 79
     2
140
3.5
141
0.0
143
0.0393701
144
2.0
146
0.71
147
1.5
172
     1
173
     1
176
   256
177
   256
178
     2
271
     2
272
     3
274
     4
283
     0
284
     8
340
11
343
87
371
    -1
372
    -1
  0
DIMSTYLE
105
40B
102
{ACAD_REACTORS
330
50EF
330
50F0
330
5158
330
5159
330
515A
330
515B
330
515C
330
515D
330
515E
330
515F
330
5160
330
5264
330
5265
330
5266
330
5267
330
5268
330
5269
330
526A
330
526B
330
526C
330
5348
330
5349
330
534A
330
534B
330
5785
330
7181
330
71D0
330
7222
102
}
330
A
100
AcDbSymbolTableRecord
100
AcDbDimStyleTableRecord
  2
AM_ISO$0
 70
     0
  4
"
 41
3.0
 42
1.0
 43
8.0
 44
1.5
 47
0.1
 48
0.1
 73
     0
 74
     0
 77
     1
 78
     8
 79
     2
140
3.5
141
0.0
143
0.0393701
146
0.6
147
0.7
172
     1
176
   256
177
   256
178
   256
271
     2
272
     2
283
     0
284
     8
340
11
371
    -1
372
    -1
  0
DIMSTYLE
105
182A
102
{ACAD_REACTORS
330
5166
330
5169
102
}
330
A
100
AcDbSymbolTableRecord
100
AcDbDimStyleTableRecord
  2
AM_ISO$2
 70
     0
  4
"
 41
3.0
 42
1.0
 43
8.0
 44
1.5
 47
0.1
 48
0.1
 73
     0
 74
     0
 77
     1
 78
     8
 79
     2
140
3.5
141
0.0
143
0.0393701
146
0.6
147
0.7
172
     1
176
   256
177
   256
178
   256
271
     2
272
     2
283
     0
284
     8
340
11
371
    -1
372
    -1
  0
ENDTAB
  0
TABLE
  2
BLOCK_RECORD
  5
1
330
0
100
AcDbSymbolTable
 70
    41
  0
BLOCK_RECORD
  5
1F
102
{ACAD_XDICTIONARY
360
8F
102
}
330
1
100
AcDbSymbolTableRecord
100
AcDbBlockTableRecord
  2
*Model_Space
340
22
  0
BLOCK_RECORD
  5
1B
330
1
100
AcDbSymbolTableRecord
100
AcDbBlockTableRecord
  2
*Paper_Space
340
1E
  0
BLOCK_RECORD
  5
23
330
1
100
AcDbSymbolTableRecord
100
AcDbBlockTableRecord
  2
*Paper_Space0
340
26
  0
BLOCK_RECORD
  5
87
330
1
100
AcDbSymbolTableRecord
100
AcDbBlockTableRecord
  2
GENAXEH
340
0
  0
BLOCK_RECORD
  5
50F4
330
1
100
AcDbSymbolTableRecord
100
AcDbBlockTableRecord
  2
*D3
340
0
  0
BLOCK_RECORD
  5
5100
330
1
100
AcDbSymbolTableRecord
100
AcDbBlockTableRecord
  2
*D4
340
0
  0
BLOCK_RECORD
  5
5175
330
1
100
AcDbSymbolTableRecord
100
AcDbBlockTableRecord
  2
*D5
340
0
  0
BLOCK_RECORD
  5
5181
330
1
100
AcDbSymbolTableRecord
100
AcDbBlockTableRecord
  2
*D6
340
0
  0
BLOCK_RECORD
  5
518D
330
1
100
AcDbSymbolTableRecord
100
AcDbBlockTableRecord
  2
*D7
340
0
  0
BLOCK_RECORD
  5
5199
330
1
100
AcDbSymbolTableRecord
100
AcDbBlockTableRecord
  2
*D8
340
0
  0
BLOCK_RECORD
  5
51A5
330
1
100
AcDbSymbolTableRecord
100
AcDbBlockTableRecord
  2
*D9
340
0
  0
BLOCK_RECORD
  5
51B1
330
1
100
AcDbSymbolTableRecord
100
AcDbBlockTableRecord
  2
*D10
340
0
  0
BLOCK_RECORD
  5
51BD
330
1
100
AcDbSymbolTableRecord
100
AcDbBlockTableRecord
  2
*D11
340
0
  0
BLOCK_RECORD
  5
51C9
330
1
100
AcDbSymbolTableRecord
100
AcDbBlockTableRecord
  2
*D12
340
0
  0
BLOCK_RECORD
  5
51D5
330
1
100
AcDbSymbolTableRecord
100
AcDbBlockTableRecord
  2
*D13
340
0
  0
BLOCK_RECORD
  5
5232
330
1
100
AcDbSymbolTableRecord
100
AcDbBlockTableRecord
  2
*D14
340
0
  0
BLOCK_RECORD
  5
5240
330
1
100
AcDbSymbolTableRecord
100
AcDbBlockTableRecord
  2
*D15
340
0
  0
BLOCK_RECORD
  5
526E
330
1
100
AcDbSymbolTableRecord
100
AcDbBlockTableRecord
  2
*D16
340
0
  0
BLOCK_RECORD
  5
527A
330
1
100
AcDbSymbolTableRecord
100
AcDbBlockTableRecord
  2
*D17
340
0
  0
BLOCK_RECORD
  5
5286
330
1
100
AcDbSymbolTableRecord
100
AcDbBlockTableRecord
  2
*D18
340
0
  0
BLOCK_RECORD
  5
5292
330
1
100
AcDbSymbolTableRecord
100
AcDbBlockTableRecord
  2
*D19
340
0
  0
BLOCK_RECORD
  5
529E
330
1
100
AcDbSymbolTableRecord
100
AcDbBlockTableRecord
  2
*D20
340
0
  0
BLOCK_RECORD
  5
52AA
330
1
100
AcDbSymbolTableRecord
100
AcDbBlockTableRecord
  2
*D21
340
0
  0
BLOCK_RECORD
  5
52B6
330
1
100
AcDbSymbolTableRecord
100
AcDbBlockTableRecord
  2
*D22
340
0
  0
BLOCK_RECORD
  5
52C2
330
1
100
AcDbSymbolTableRecord
100
AcDbBlockTableRecord
  2
*D23
340
0
  0
BLOCK_RECORD
  5
52CE
330
1
100
AcDbSymbolTableRecord
100
AcDbBlockTableRecord
  2
*D24
340
0
  0
BLOCK_RECORD
  5
534C
330
1
100
AcDbSymbolTableRecord
100
AcDbBlockTableRecord
  2
*D25
340
0
  0
BLOCK_RECORD
  5
5358
330
1
100
AcDbSymbolTableRecord
100
AcDbBlockTableRecord
  2
*D26
340
0
  0
BLOCK_RECORD
  5
5364
330
1
100
AcDbSymbolTableRecord
100
AcDbBlockTableRecord
  2
*D27
340
0
  0
BLOCK_RECORD
  5
5370
330
1
100
AcDbSymbolTableRecord
100
AcDbBlockTableRecord
  2
*D28
340
0
  0
BLOCK_RECORD
  5
5789
330
1
100
AcDbSymbolTableRecord
100
AcDbBlockTableRecord
  2
*D29
340
0
  0
BLOCK_RECORD
  5
7182
330
1
100
AcDbSymbolTableRecord
100
AcDbBlockTableRecord
  2
*D30
340
0
  0
BLOCK_RECORD
  5
71D1
330
1
100
AcDbSymbolTableRecord
100
AcDbBlockTableRecord
  2
*D31
340
0
  0
BLOCK_RECORD
  5
7223
330
1
100
AcDbSymbolTableRecord
100
AcDbBlockTableRecord
  2
*D32
340
0
  0
BLOCK_RECORD
  5
72ED
330
1
100
AcDbSymbolTableRecord
100
AcDbBlockTableRecord
  2
*S33
340
0
102
{BLKREFS
331
50F1
102
}
  0
BLOCK_RECORD
  5
72F5
330
1
100
AcDbSymbolTableRecord
100
AcDbBlockTableRecord
  2
*S34
340
0
102
{BLKREFS
331
5161
102
}
  0
BLOCK_RECORD
  5
72FD
330
1
100
AcDbSymbolTableRecord
100
AcDbBlockTableRecord
  2
*S35
340
0
102
{BLKREFS
331
5162
102
}
  0
BLOCK_RECORD
  5
7305
330
1
100
AcDbSymbolTableRecord
100
AcDbBlockTableRecord
  2
*S36
340
0
102
{BLKREFS
331
5163
102
}
  0
BLOCK_RECORD
  5
730D
330
1
100
AcDbSymbolTableRecord
100
AcDbBlockTableRecord
  2
*S37
340
0
102
{BLKREFS
331
5165
102
}
  0
BLOCK_RECORD
  5
7315
330
1
100
AcDbSymbolTableRecord
100
AcDbBlockTableRecord
  2
*S38
340
0
102
{BLKREFS
331
516F
102
}
  0
BLOCK_RECORD
  5
731D
330
1
100
AcDbSymbolTableRecord
100
AcDbBlockTableRecord
  2
*S39
340
0
102
{BLKREFS
331
5787
102
}
  0
ENDTAB
  0
ENDSEC
  0
SECTION
  2
BLOCKS
  0
BLOCK
  5
20
330
1F
100
AcDbEntity
  8
0
100
AcDbBlockBegin
  2
*Model_Space
 70
     0
 10
0.0
 20
0.0
 30
0.0
  3
*Model_Space
  1

  0
ENDBLK
  5
21
330
1F
100
AcDbEntity
  8
0
100
AcDbBlockEnd
  0
BLOCK
  5
1C
330
1B
100
AcDbEntity
 67
     1
  8
0
100
AcDbBlockBegin
  2
*Paper_Space
 70
     0
 10
0.0
 20
0.0
 30
0.0
  3
*Paper_Space
  1

  0
ENDBLK
  5
1D
330
1B
100
AcDbEntity
 67
     1
  8
0
100
AcDbBlockEnd
  0
BLOCK
  5
24
330
23
100
AcDbEntity
  8
0
100
AcDbBlockBegin
  2
*Paper_Space0
 70
     0
 10
0.0
 20
0.0
 30
0.0
  3
*Paper_Space0
  1

  0
ENDBLK
  5
25
330
23
100
AcDbEntity
  8
0
100
AcDbBlockEnd
  0
BLOCK
  5
89
330
87
100
AcDbEntity
  8
0
100
AcDbBlockBegin
  2
GENAXEH
 70
     0
 10
0.0
 20
0.0
 30
0.0
  3
GENAXEH
  1

  0
LINE
  5
88
330
87
100
AcDbEntity
  8
0
100
AcDbLine
 10
-1.0
 20
0.0
 30
0.0
 11
1.0
 21
0.0
 31
0.0
  0
ENDBLK
  5
8A
330
87
100
AcDbEntity
  8
0
100
AcDbBlockEnd
  0
BLOCK
  5
50FE
330
50F4
100
AcDbEntity
  8
0
100
AcDbBlockBegin
  2
*D3
 70
     1
 10
0.0
 20
0.0
 30
0.0
  3
*D3
  1

  0
LINE
  5
6F18
330
50F4
100
AcDbEntity
  8
AM_5
100
AcDbLine
 10
302.7365174159569
 20
1014.295342566843
 30
0.0
 11
278.5865174159567
 21
1014.295342566843
 31
0.0
  0
LINE
  5
6F19
330
50F4
100
AcDbEntity
  8
AM_5
100
AcDbLine
 10
302.7365174159569
 20
1041.295342566843
 30
0.0
 11
278.5865174159567
 21
1041.295342566843
 31
0.0
  0
LINE
  5
6F1A
330
50F4
100
AcDbEntity
  8
AM_5
100
AcDbLine
 10
280.0865174159568
 20
1017.295342566843
 30
0.0
 11
280.0865174159568
 21
1038.295342566843
 31
0.0
  0
SOLID
  5
6F1B
330
50F4
100
AcDbEntity
  8
AM_5
100
AcDbTrace
 10
279.5865174159567
 20
1017.295342566843
 30
0.0
 11
280.5865174159567
 21
1017.295342566843
 31
0.0
 12
280.0865174159568
 22
1014.295342566843
 32
0.0
 13
280.0865174159568
 23
1014.295342566843
 33
0.0
  0
SOLID
  5
6F1C
330
50F4
100
AcDbEntity
  8
AM_5
100
AcDbTrace
 10
279.5865174159567
 20
1038.295342566843
 30
0.0
 11
280.5865174159567
 21
1038.295342566843
 31
0.0
 12
280.0865174159568
 22
1041.295342566843
 32
0.0
 13
280.0865174159568
 23
1041.295342566843
 33
0.0
  0
MTEXT
  5
6F1D
330
50F4
100
AcDbEntity
  8
AM_5
100
AcDbMText
 10
277.6361729277676
 20
1027.795342566843
 30
0.0
 40
3.5
 41
0.0
 71
     5
 72
     1
  1
27
 11
0.0000000000000001
 21
1.0
 31
0.0
 73
     1
 44
1.0
1001
ACAD
1000
MTEXTBEGIN
1070
    73
1070
     1
1070
    44
1040
1.0
1070
    74
1070
     0
1000
MTEXTEND
  0
POINT
  5
6F1E
330
50F4
100
AcDbEntity
  8
Defpoints
 62
     0
100
AcDbPoint
 10
303.7365174159569
 20
1014.295342566843
 30
0.0
  0
POINT
  5
6F1F
330
50F4
100
AcDbEntity
  8
Defpoints
 62
     0
100
AcDbPoint
 10
303.7365174159569
 20
1041.295342566843
 30
0.0
  0
POINT
  5
6F20
330
50F4
100
AcDbEntity
  8
Defpoints
 62
     0
100
AcDbPoint
 10
280.0865174159568
 20
1041.295342566843
 30
0.0
  0
ENDBLK
  5
50FF
330
50F4
100
AcDbEntity
  8
0
100
AcDbBlockEnd
  0
BLOCK
  5
510A
330
5100
100
AcDbEntity
  8
0
100
AcDbBlockBegin
  2
*D4
 70
     1
 10
0.0
 20
0.0
 30
0.0
  3
*D4
  1

  0
LINE
  5
6F21
330
5100
100
AcDbEntity
  8
AM_5
100
AcDbLine
 10
292.0865174159568
 20
1061.795342566843
 30
0.0
 11
292.0865174159568
 21
1075.295342566843
 31
0.0
  0
LINE
  5
6F22
330
5100
100
AcDbEntity
  8
AM_5
100
AcDbLine
 10
310.5865174159569
 20
1049.145342566843
 30
0.0
 11
310.5865174159569
 21
1075.295342566843
 31
0.0
  0
LINE
  5
6F23
330
5100
100
AcDbEntity
  8
AM_5
100
AcDbLine
 10
295.0865174159568
 20
1073.795342566843
 30
0.0
 11
307.586517415957
 21
1073.795342566843
 31
0.0
  0
SOLID
  5
6F24
330
5100
100
AcDbEntity
  8
AM_5
100
AcDbTrace
 10
295.0865174159568
 20
1074.295342566843
 30
0.0
 11
295.0865174159568
 21
1073.295342566843
 31
0.0
 12
292.0865174159568
 22
1073.795342566843
 32
0.0
 13
292.0865174159568
 23
1073.795342566843
 33
0.0
  0
SOLID
  5
6F25
330
5100
100
AcDbEntity
  8
AM_5
100
AcDbTrace
 10
307.586517415957
 20
1074.295342566843
 30
0.0
 11
307.586517415957
 21
1073.295342566843
 31
0.0
 12
310.5865174159569
 22
1073.795342566843
 32
0.0
 13
310.5865174159569
 23
1073.795342566843
 33
0.0
  0
MTEXT
  5
6F26
330
5100
100
AcDbEntity
  8
AM_5
100
AcDbMText
 10
301.3365174159569
 20
1076.245342566843
 30
0.0
 40
3.5
 41
0.0
 71
     5
 72
     1
  1
18.5
 73
     1
 44
1.0
1001
ACAD
1000
MTEXTBEGIN
1070
    73
1070
     1
1070
    44
1040
1.0
1070
    74
1070
     0
1000
MTEXTEND
  0
POINT
  5
6F27
330
5100
100
AcDbEntity
  8
Defpoints
 62
     0
100
AcDbPoint
 10
292.0865174159568
 20
1060.795342566843
 30
0.0
  0
POINT
  5
6F28
330
5100
100
AcDbEntity
  8
Defpoints
 62
     0
100
AcDbPoint
 10
310.5865174159569
 20
1048.145342566843
 30
0.0
  0
POINT
  5
6F29
330
5100
100
AcDbEntity
  8
Defpoints
 62
     0
100
AcDbPoint
 10
310.5865174159569
 20
1073.795342566843
 30
0.0
  0
ENDBLK
  5
510B
330
5100
100
AcDbEntity
  8
0
100
AcDbBlockEnd
  0
BLOCK
  5
517F
330
5175
100
AcDbEntity
  8
0
100
AcDbBlockBegin
  2
*D5
 70
     1
 10
0.0
 20
0.0
 30
0.0
  3
*D5
  1

  0
LINE
  5
676E
330
5175
100
AcDbEntity
  8
AM_5
100
AcDbLine
 10
410.6250764128143
 20
998.2953425668434
 30
0.0
 11
410.6250764128143
 21
972.2953425668434
 31
0.0
  0
LINE
  5
676F
330
5175
100
AcDbEntity
  8
AM_5
100
AcDbLine
 10
488.6250764128142
 20
998.2953425668434
 30
0.0
 11
488.6250764128142
 21
972.2953425668434
 31
0.0
  0
LINE
  5
6770
330
5175
100
AcDbEntity
  8
AM_5
100
AcDbLine
 10
413.6250764128142
 20
973.7953425668434
 30
0.0
 11
485.6250764128143
 21
973.7953425668434
 31
0.0
  0
SOLID
  5
6771
330
5175
100
AcDbEntity
  8
AM_5
100
AcDbTrace
 10
413.6250764128142
 20
974.2953425668435
 30
0.0
 11
413.6250764128142
 21
973.2953425668435
 31
0.0
 12
410.6250764128143
 22
973.7953425668434
 32
0.0
 13
410.6250764128143
 23
973.7953425668434
 33
0.0
  0
SOLID
  5
6772
330
5175
100
AcDbEntity
  8
AM_5
100
AcDbTrace
 10
485.6250764128143
 20
974.2953425668435
 30
0.0
 11
485.6250764128143
 21
973.2953425668435
 31
0.0
 12
488.6250764128142
 22
973.7953425668434
 32
0.0
 13
488.6250764128142
 23
973.7953425668434
 33
0.0
  0
MTEXT
  5
6773
330
5175
100
AcDbEntity
  8
AM_5
100
AcDbMText
 10
449.6250764128142
 20
976.2453425668436
 30
0.0
 40
3.5
 41
0.0
 71
     5
 72
     1
  1
78
 73
     1
 44
1.0
1001
ACAD
1000
MTEXTBEGIN
1070
    73
1070
     1
1070
    44
1040
1.0
1070
    74
1070
     0
1000
MTEXTEND
  0
POINT
  5
6774
330
5175
100
AcDbEntity
  8
Defpoints
 62
     0
100
AcDbPoint
 10
410.6250764128143
 20
999.2953425668433
 30
0.0
  0
POINT
  5
6775
330
5175
100
AcDbEntity
  8
Defpoints
 62
     0
100
AcDbPoint
 10
488.6250764128142
 20
999.2953425668433
 30
0.0
  0
POINT
  5
6776
330
5175
100
AcDbEntity
  8
Defpoints
 62
     0
100
AcDbPoint
 10
488.6250764128142
 20
973.7953425668434
 30
0.0
  0
ENDBLK
  5
5180
330
5175
100
AcDbEntity
  8
0
100
AcDbBlockEnd
  0
BLOCK
  5
518B
330
5181
100
AcDbEntity
  8
0
100
AcDbBlockBegin
  2
*D6
 70
     1
 10
0.0
 20
0.0
 30
0.0
  3
*D6
  1

  0
LINE
  5
6E55
330
5181
100
AcDbEntity
  8
AM_5
100
AcDbLine
 10
404.6250764128142
 20
1004.295342566843
 30
0.0
 11
372.1250764128143
 21
1004.295342566843
 31
0.0
  0
LINE
  5
6E56
330
5181
100
AcDbEntity
  8
AM_5
100
AcDbLine
 10
404.6250764128142
 20
1051.295342566843
 30
0.0
 11
372.1250764128143
 21
1051.295342566843
 31
0.0
  0
LINE
  5
6E57
330
5181
100
AcDbEntity
  8
AM_5
100
AcDbLine
 10
373.6250764128143
 20
1007.295342566843
 30
0.0
 11
373.6250764128143
 21
1048.295342566843
 31
0.0
  0
SOLID
  5
6E58
330
5181
100
AcDbEntity
  8
AM_5
100
AcDbTrace
 10
373.1250764128144
 20
1007.295342566843
 30
0.0
 11
374.1250764128143
 21
1007.295342566843
 31
0.0
 12
373.6250764128143
 22
1004.295342566843
 32
0.0
 13
373.6250764128143
 23
1004.295342566843
 33
0.0
  0
SOLID
  5
6E59
330
5181
100
AcDbEntity
  8
AM_5
100
AcDbTrace
 10
373.1250764128144
 20
1048.295342566843
 30
0.0
 11
374.1250764128143
 21
1048.295342566843
 31
0.0
 12
373.6250764128143
 22
1051.295342566843
 32
0.0
 13
373.6250764128143
 23
1051.295342566843
 33
0.0
  0
MTEXT
  5
6E5A
330
5181
100
AcDbEntity
  8
AM_5
100
AcDbMText
 10
371.1750764128142
 20
1027.795342566843
 30
0.0
 40
3.5
 41
0.0
 71
     5
 72
     1
  1
47
 11
0.0000000000000001
 21
1.0
 31
0.0
 73
     1
 44
1.0
1001
ACAD
1000
MTEXTBEGIN
1070
    73
1070
     1
1070
    44
1040
1.0
1070
    74
1070
     0
1000
MTEXTEND
  0
POINT
  5
6E5B
330
5181
100
AcDbEntity
  8
Defpoints
 62
     0
100
AcDbPoint
 10
405.6250764128142
 20
1004.295342566843
 30
0.0
  0
POINT
  5
6E5C
330
5181
100
AcDbEntity
  8
Defpoints
 62
     0
100
AcDbPoint
 10
405.6250764128142
 20
1051.295342566843
 30
0.0
  0
POINT
  5
6E5D
330
5181
100
AcDbEntity
  8
Defpoints
 62
     0
100
AcDbPoint
 10
373.6250764128143
 20
1051.295342566843
 30
0.0
  0
ENDBLK
  5
518C
330
5181
100
AcDbEntity
  8
0
100
AcDbBlockEnd
  0
BLOCK
  5
5197
330
518D
100
AcDbEntity
  8
0
100
AcDbBlockBegin
  2
*D7
 70
     1
 10
0.0
 20
0.0
 30
0.0
  3
*D7
  1

  0
LINE
  5
6765
330
518D
100
AcDbEntity
  8
AM_5
100
AcDbLine
 10
426.6250764128143
 20
1022.795342566843
 30
0.0
 11
426.6250764128143
 21
980.2953425668434
 31
0.0
  0
LINE
  5
6766
330
518D
100
AcDbEntity
  8
AM_5
100
AcDbLine
 10
472.6250764128142
 20
1022.795342566843
 30
0.0
 11
472.6250764128142
 21
980.2953425668434
 31
0.0
  0
LINE
  5
6767
330
518D
100
AcDbEntity
  8
AM_5
100
AcDbLine
 10
429.6250764128143
 20
981.7953425668434
 30
0.0
 11
469.6250764128142
 21
981.7953425668434
 31
0.0
  0
SOLID
  5
6768
330
518D
100
AcDbEntity
  8
AM_5
100
AcDbTrace
 10
429.6250764128143
 20
982.2953425668435
 30
0.0
 11
429.6250764128143
 21
981.2953425668435
 31
0.0
 12
426.6250764128143
 22
981.7953425668434
 32
0.0
 13
426.6250764128143
 23
981.7953425668434
 33
0.0
  0
SOLID
  5
6769
330
518D
100
AcDbEntity
  8
AM_5
100
AcDbTrace
 10
469.6250764128142
 20
982.2953425668435
 30
0.0
 11
469.6250764128142
 21
981.2953425668435
 31
0.0
 12
472.6250764128142
 22
981.7953425668434
 32
0.0
 13
472.6250764128142
 23
981.7953425668434
 33
0.0
  0
MTEXT
  5
676A
330
518D
100
AcDbEntity
  8
AM_5
100
AcDbMText
 10
449.6250764128142
 20
984.2453425668436
 30
0.0
 40
3.5
 41
0.0
 71
     5
 72
     1
  1
46
 73
     1
 44
1.0
1001
ACAD
1000
MTEXTBEGIN
1070
    73
1070
     1
1070
    44
1040
1.0
1070
    74
1070
     0
1000
MTEXTEND
  0
POINT
  5
676B
330
518D
100
AcDbEntity
  8
Defpoints
 62
     0
100
AcDbPoint
 10
426.6250764128143
 20
1023.795342566843
 30
0.0
  0
POINT
  5
676C
330
518D
100
AcDbEntity
  8
Defpoints
 62
     0
100
AcDbPoint
 10
472.6250764128142
 20
1023.795342566843
 30
0.0
  0
POINT
  5
676D
330
518D
100
AcDbEntity
  8
Defpoints
 62
     0
100
AcDbPoint
 10
472.6250764128142
 20
981.7953425668434
 30
0.0
  0
ENDBLK
  5
5198
330
518D
100
AcDbEntity
  8
0
100
AcDbBlockEnd
  0
BLOCK
  5
51A3
330
5199
100
AcDbEntity
  8
0
100
AcDbBlockBegin
  2
*D8
 70
     1
 10
0.0
 20
0.0
 30
0.0
  3
*D8
  1

  0
LINE
  5
675C
330
5199
100
AcDbEntity
  8
AM_5
100
AcDbLine
 10
385.6250764128144
 20
993.5453425668454
 30
0.0
 11
385.6250764128144
 21
964.2953425668435
 31
0.0
  0
LINE
  5
675D
330
5199
100
AcDbEntity
  8
AM_5
100
AcDbLine
 10
513.6250764128166
 20
993.5453425668431
 30
0.0
 11
513.6250764128166
 21
964.2953425668435
 31
0.0
  0
LINE
  5
675E
330
5199
100
AcDbEntity
  8
AM_5
100
AcDbLine
 10
388.6250764128143
 20
965.7953425668434
 30
0.0
 11
510.6250764128166
 21
965.7953425668434
 31
0.0
  0
SOLID
  5
675F
330
5199
100
AcDbEntity
  8
AM_5
100
AcDbTrace
 10
388.6250764128143
 20
966.2953425668435
 30
0.0
 11
388.6250764128143
 21
965.2953425668435
 31
0.0
 12
385.6250764128144
 22
965.7953425668434
 32
0.0
 13
385.6250764128144
 23
965.7953425668434
 33
0.0
  0
SOLID
  5
6760
330
5199
100
AcDbEntity
  8
AM_5
100
AcDbTrace
 10
510.6250764128166
 20
966.2953425668435
 30
0.0
 11
510.6250764128166
 21
965.2953425668435
 31
0.0
 12
513.6250764128166
 22
965.7953425668434
 32
0.0
 13
513.6250764128166
 23
965.7953425668434
 33
0.0
  0
MTEXT
  5
6761
330
5199
100
AcDbEntity
  8
AM_5
100
AcDbMText
 10
449.6250764128155
 20
968.2456870550325
 30
0.0
 40
3.5
 41
0.0
 71
     5
 72
     1
  1
128
 73
     1
 44
1.0
1001
ACAD
1000
MTEXTBEGIN
1070
    73
1070
     1
1070
    44
1040
1.0
1070
    74
1070
     0
1000
MTEXTEND
  0
POINT
  5
6762
330
5199
100
AcDbEntity
  8
Defpoints
 62
     0
100
AcDbPoint
 10
385.6250764128144
 20
994.5453425668453
 30
0.0
  0
POINT
  5
6763
330
5199
100
AcDbEntity
  8
Defpoints
 62
     0
100
AcDbPoint
 10
513.6250764128166
 20
994.545342566843
 30
0.0
  0
POINT
  5
6764
330
5199
100
AcDbEntity
  8
Defpoints
 62
     0
100
AcDbPoint
 10
513.6250764128166
 20
965.7953425668434
 30
0.0
  0
ENDBLK
  5
51A4
330
5199
100
AcDbEntity
  8
0
100
AcDbBlockEnd
  0
BLOCK
  5
51AF
330
51A5
100
AcDbEntity
  8
0
100
AcDbBlockBegin
  2
*D9
 70
     1
 10
0.0
 20
0.0
 30
0.0
  3
*D9
  1

  0
LINE
  5
72AD
330
51A5
100
AcDbEntity
  8
AM_5
100
AcDbLine
 10
513.6250764128166
 20
993.5453425668431
 30
0.0
 11
513.6250764128166
 21
980.2953425668434
 31
0.0
  0
LINE
  5
72AE
330
51A5
100
AcDbEntity
  8
AM_5
100
AcDbLine
 10
536.6250764128143
 20
1006.295342566843
 30
0.0
 11
536.6250764128143
 21
980.2953425668434
 31
0.0
  0
LINE
  5
72AF
330
51A5
100
AcDbEntity
  8
AM_5
100
AcDbLine
 10
516.6250764128165
 20
981.7953425668434
 30
0.0
 11
533.6250764128143
 21
981.7953425668434
 31
0.0
  0
SOLID
  5
72B0
330
51A5
100
AcDbEntity
  8
AM_5
100
AcDbTrace
 10
516.6250764128165
 20
982.2953425668435
 30
0.0
 11
516.6250764128165
 21
981.2953425668435
 31
0.0
 12
513.6250764128166
 22
981.7953425668434
 32
0.0
 13
513.6250764128166
 23
981.7953425668434
 33
0.0
  0
SOLID
  5
72B1
330
51A5
100
AcDbEntity
  8
AM_5
100
AcDbTrace
 10
533.6250764128143
 20
982.2953425668435
 30
0.0
 11
533.6250764128143
 21
981.2953425668435
 31
0.0
 12
536.6250764128143
 22
981.7953425668434
 32
0.0
 13
536.6250764128143
 23
981.7953425668434
 33
0.0
  0
MTEXT
  5
72B2
330
51A5
100
AcDbEntity
  8
AM_5
100
AcDbMText
 10
525.1250764128155
 20
984.2456870550325
 30
0.0
 40
3.5
 41
0.0
 71
     5
 72
     1
  1
Max.23
 73
     1
 44
1.0
1001
ACAD
1000
MTEXTBEGIN
1070
    73
1070
     1
1070
    44
1040
1.0
1070
    74
1070
     0
1000
MTEXTEND
  0
POINT
  5
72B3
330
51A5
100
AcDbEntity
  8
Defpoints
 62
     0
100
AcDbPoint
 10
513.6250764128166
 20
994.545342566843
 30
0.0
  0
POINT
  5
72B4
330
51A5
100
AcDbEntity
  8
Defpoints
 62
     0
100
AcDbPoint
 10
536.6250764128143
 20
1007.295342566843
 30
0.0
  0
POINT
  5
72B5
330
51A5
100
AcDbEntity
  8
Defpoints
 62
     0
100
AcDbPoint
 10
536.6250764128143
 20
981.7953425668434
 30
0.0
  0
ENDBLK
  5
51B0
330
51A5
100
AcDbEntity
  8
0
100
AcDbBlockEnd
  0
BLOCK
  5
51BB
330
51B1
100
AcDbEntity
  8
0
100
AcDbBlockBegin
  2
*D10
 70
     1
 10
0.0
 20
0.0
 30
0.0
  3
*D10
  1

  0
LINE
  5
674A
330
51B1
100
AcDbEntity
  8
AM_5
100
AcDbLine
 10
385.6250764128167
 20
993.5453425668431
 30
0.0
 11
385.6250764128167
 21
980.2953425668434
 31
0.0
  0
LINE
  5
674B
330
51B1
100
AcDbEntity
  8
AM_5
100
AcDbLine
 10
400.6250764128143
 20
992.7953425668436
 30
0.0
 11
400.6250764128143
 21
980.2953425668434
 31
0.0
  0
LINE
  5
674C
330
51B1
100
AcDbEntity
  8
AM_5
100
AcDbLine
 10
388.6250764128167
 20
981.7953425668434
 30
0.0
 11
397.6250764128143
 21
981.7953425668434
 31
0.0
  0
SOLID
  5
674D
330
51B1
100
AcDbEntity
  8
AM_5
100
AcDbTrace
 10
388.6250764128167
 20
982.2953425668435
 30
0.0
 11
388.6250764128167
 21
981.2953425668435
 31
0.0
 12
385.6250764128167
 22
981.7953425668434
 32
0.0
 13
385.6250764128167
 23
981.7953425668434
 33
0.0
  0
SOLID
  5
674E
330
51B1
100
AcDbEntity
  8
AM_5
100
AcDbTrace
 10
397.6250764128143
 20
982.2953425668435
 30
0.0
 11
397.6250764128143
 21
981.2953425668435
 31
0.0
 12
400.6250764128143
 22
981.7953425668434
 32
0.0
 13
400.6250764128143
 23
981.7953425668434
 33
0.0
  0
MTEXT
  5
674F
330
51B1
100
AcDbEntity
  8
AM_5
100
AcDbMText
 10
393.1250764128155
 20
984.2453425668436
 30
0.0
 40
3.5
 41
0.0
 71
     5
 72
     1
  1
15
 73
     1
 44
1.0
1001
ACAD
1000
MTEXTBEGIN
1070
    73
1070
     1
1070
    44
1040
1.0
1070
    74
1070
     0
1000
MTEXTEND
  0
POINT
  5
6750
330
51B1
100
AcDbEntity
  8
Defpoints
 62
     0
100
AcDbPoint
 10
385.6250764128167
 20
994.545342566843
 30
0.0
  0
POINT
  5
6751
330
51B1
100
AcDbEntity
  8
Defpoints
 62
     0
100
AcDbPoint
 10
400.6250764128143
 20
993.7953425668435
 30
0.0
  0
POINT
  5
6752
330
51B1
100
AcDbEntity
  8
Defpoints
 62
     0
100
AcDbPoint
 10
400.6250764128143
 20
981.7953425668434
 30
0.0
  0
ENDBLK
  5
51BC
330
51B1
100
AcDbEntity
  8
0
100
AcDbBlockEnd
  0
BLOCK
  5
51C7
330
51BD
100
AcDbEntity
  8
0
100
AcDbBlockBegin
  2
*D11
 70
     1
 10
0.0
 20
0.0
 30
0.0
  3
*D11
  1

  0
LINE
  5
6741
330
51BD
100
AcDbEntity
  8
AM_5
100
AcDbLine
 10
498.6250764128143
 20
992.7953425668434
 30
0.0
 11
498.6250764128143
 21
980.2953425668434
 31
0.0
  0
LINE
  5
6742
330
51BD
100
AcDbEntity
  8
AM_5
100
AcDbLine
 10
513.6250764128143
 20
993.5453425668409
 30
0.0
 11
513.6250764128143
 21
980.2953425668434
 31
0.0
  0
LINE
  5
6743
330
51BD
100
AcDbEntity
  8
AM_5
100
AcDbLine
 10
501.6250764128143
 20
981.7953425668434
 30
0.0
 11
510.6250764128143
 21
981.7953425668434
 31
0.0
  0
SOLID
  5
6744
330
51BD
100
AcDbEntity
  8
AM_5
100
AcDbTrace
 10
501.6250764128143
 20
982.2953425668435
 30
0.0
 11
501.6250764128143
 21
981.2953425668435
 31
0.0
 12
498.6250764128143
 22
981.7953425668434
 32
0.0
 13
498.6250764128143
 23
981.7953425668434
 33
0.0
  0
SOLID
  5
6745
330
51BD
100
AcDbEntity
  8
AM_5
100
AcDbTrace
 10
510.6250764128143
 20
982.2953425668435
 30
0.0
 11
510.6250764128143
 21
981.2953425668435
 31
0.0
 12
513.6250764128143
 22
981.7953425668434
 32
0.0
 13
513.6250764128143
 23
981.7953425668434
 33
0.0
  0
MTEXT
  5
6746
330
51BD
100
AcDbEntity
  8
AM_5
100
AcDbMText
 10
506.1250764128143
 20
984.2453425668436
 30
0.0
 40
3.5
 41
0.0
 71
     5
 72
     1
  1
15
 73
     1
 44
1.0
1001
ACAD
1000
MTEXTBEGIN
1070
    73
1070
     1
1070
    44
1040
1.0
1070
    74
1070
     0
1000
MTEXTEND
  0
POINT
  5
6747
330
51BD
100
AcDbEntity
  8
Defpoints
 62
     0
100
AcDbPoint
 10
498.6250764128143
 20
993.7953425668434
 30
0.0
  0
POINT
  5
6748
330
51BD
100
AcDbEntity
  8
Defpoints
 62
     0
100
AcDbPoint
 10
513.6250764128143
 20
994.5453425668409
 30
0.0
  0
POINT
  5
6749
330
51BD
100
AcDbEntity
  8
Defpoints
 62
     0
100
AcDbPoint
 10
513.6250764128143
 20
981.7953425668434
 30
0.0
  0
ENDBLK
  5
51C8
330
51BD
100
AcDbEntity
  8
0
100
AcDbBlockEnd
  0
BLOCK
  5
51D3
330
51C9
100
AcDbEntity
  8
0
100
AcDbBlockBegin
  2
*D12
 70
     1
 10
0.0
 20
0.0
 30
0.0
  3
*D12
  1

  0
LINE
  5
72A4
330
51C9
100
AcDbEntity
  8
AM_5
100
AcDbLine
 10
539.9807388456159
 20
1043.795361971243
 30
0.0
 11
549.980738845616
 21
1043.795361971243
 31
0.0
  0
LINE
  5
72A5
330
51C9
100
AcDbEntity
  8
AM_5
100
AcDbLine
 10
540.1250764128143
 20
1011.795342566843
 30
0.0
 11
549.980738845616
 21
1011.795342566843
 31
0.0
  0
LINE
  5
72A6
330
51C9
100
AcDbEntity
  8
AM_5
100
AcDbLine
 10
548.4807388456159
 20
1040.795361971243
 30
0.0
 11
548.4807388456159
 21
1014.795342566843
 31
0.0
  0
SOLID
  5
72A7
330
51C9
100
AcDbEntity
  8
AM_5
100
AcDbTrace
 10
547.9807388456159
 20
1040.795361971243
 30
0.0
 11
548.9807388456159
 21
1040.795361971243
 31
0.0
 12
548.4807388456159
 22
1043.795361971243
 32
0.0
 13
548.4807388456159
 23
1043.795361971243
 33
0.0
  0
SOLID
  5
72A8
330
51C9
100
AcDbEntity
  8
AM_5
100
AcDbTrace
 10
547.9807388456159
 20
1014.795342566843
 30
0.0
 11
548.9807388456159
 21
1014.795342566843
 31
0.0
 12
548.4807388456159
 22
1011.795342566843
 32
0.0
 13
548.4807388456159
 23
1011.795342566843
 33
0.0
  0
MTEXT
  5
72A9
330
51C9
100
AcDbEntity
  8
AM_5
100
AcDbMText
 10
546.0303943574269
 20
1027.795352269043
 30
0.0
 40
3.5
 41
0.0
 71
     5
 72
     1
  1
32
 11
0.0000000000000001
 21
1.0
 31
0.0
 73
     1
 44
1.0
1001
ACAD
1000
MTEXTBEGIN
1070
    73
1070
     1
1070
    44
1040
1.0
1070
    74
1070
     0
1000
MTEXTEND
  0
POINT
  5
72AA
330
51C9
100
AcDbEntity
  8
Defpoints
 62
     0
100
AcDbPoint
 10
538.9807388456159
 20
1043.795361971243
 30
0.0
  0
POINT
  5
72AB
330
51C9
100
AcDbEntity
  8
Defpoints
 62
     0
100
AcDbPoint
 10
539.1250764128143
 20
1011.795342566843
 30
0.0
  0
POINT
  5
72AC
330
51C9
100
AcDbEntity
  8
Defpoints
 62
     0
100
AcDbPoint
 10
548.4807388456159
 20
1011.795342566843
 30
0.0
  0
ENDBLK
  5
51D4
330
51C9
100
AcDbEntity
  8
0
100
AcDbBlockEnd
  0
BLOCK
  5
51DF
330
51D5
100
AcDbEntity
  8
0
100
AcDbBlockBegin
  2
*D13
 70
     1
 10
0.0
 20
0.0
 30
0.0
  3
*D13
  1

  0
LINE
  5
6E4C
330
51D5
100
AcDbEntity
  8
AM_5
100
AcDbLine
 10
399.6250764128143
 20
993.7953425668435
 30
0.0
 11
364.1250764128143
 21
993.7953425668435
 31
0.0
  0
LINE
  5
6E4D
330
51D5
100
AcDbEntity
  8
AM_5
100
AcDbLine
 10
399.6250764128143
 20
1061.795342566843
 30
0.0
 11
364.1250764128143
 21
1061.795342566843
 31
0.0
  0
LINE
  5
6E4E
330
51D5
100
AcDbEntity
  8
AM_5
100
AcDbLine
 10
365.6250764128143
 20
996.7953425668437
 30
0.0
 11
365.6250764128143
 21
1058.795342566843
 31
0.0
  0
SOLID
  5
6E4F
330
51D5
100
AcDbEntity
  8
AM_5
100
AcDbTrace
 10
365.1250764128143
 20
996.7953425668437
 30
0.0
 11
366.1250764128143
 21
996.7953425668437
 31
0.0
 12
365.6250764128143
 22
993.7953425668435
 32
0.0
 13
365.6250764128143
 23
993.7953425668435
 33
0.0
  0
SOLID
  5
6E50
330
51D5
100
AcDbEntity
  8
AM_5
100
AcDbTrace
 10
365.1250764128143
 20
1058.795342566843
 30
0.0
 11
366.1250764128143
 21
1058.795342566843
 31
0.0
 12
365.6250764128143
 22
1061.795342566843
 32
0.0
 13
365.6250764128143
 23
1061.795342566843
 33
0.0
  0
MTEXT
  5
6E51
330
51D5
100
AcDbEntity
  8
AM_5
100
AcDbMText
 10
363.1750764128142
 20
1027.795342566843
 30
0.0
 40
3.5
 41
0.0
 71
     5
 72
     1
  1
68
 11
0.0000000000000001
 21
1.0
 31
0.0
 73
     1
 44
1.0
1001
ACAD
1000
MTEXTBEGIN
1070
    73
1070
     1
1070
    44
1040
1.0
1070
    74
1070
     0
1000
MTEXTEND
  0
POINT
  5
6E52
330
51D5
100
AcDbEntity
  8
Defpoints
 62
     0
100
AcDbPoint
 10
400.6250764128143
 20
993.7953425668435
 30
0.0
  0
POINT
  5
6E53
330
51D5
100
AcDbEntity
  8
Defpoints
 62
     0
100
AcDbPoint
 10
400.6250764128142
 20
1061.795342566843
 30
0.0
  0
POINT
  5
6E54
330
51D5
100
AcDbEntity
  8
Defpoints
 62
     0
100
AcDbPoint
 10
365.6250764128143
 20
1061.795342566843
 30
0.0
  0
ENDBLK
  5
51E0
330
51D5
100
AcDbEntity
  8
0
100
AcDbBlockEnd
  0
BLOCK
  5
523E
330
5232
100
AcDbEntity
  8
0
100
AcDbBlockBegin
  2
*D14
 70
     1
 10
0.0
 20
0.0
 30
0.0
  3
*D14
  1

  0
LINE
  5
5446
330
5232
100
AcDbEntity
  8
AM_5
100
AcDbLine
 10
470.1311730672242
 20
1048.301439221253
 30
0.0
 11
486.7778580853591
 21
1064.948124239388
 31
0.0
  0
LINE
  5
5447
330
5232
100
AcDbEntity
  8
AM_5
100
AcDbLine
 10
449.6250764128143
 20
1066.280192951164
 30
0.0
 11
449.6250764128141
 21
1080.337310288042
 31
0.0
  0
ARC
  5
5448
330
5232
100
AcDbEntity
  8
AM_5
100
AcDbCircle
 10
449.6250764128145
 20
1027.795342566843
 30
0.0
 40
51.04196772119916
100
AcDbArc
 50
48.36805372148681
 51
86.63194627851375
  0
SOLID
  5
5449
330
5232
100
AcDbEntity
  8
AM_5
100
AcDbTrace
 10
483.8774639195225
 20
1066.309318487492
 30
0.0
 11
483.1914427019416
 21
1065.58173695321
 31
0.0
 12
485.7171979135793
 22
1063.887464067608
 32
0.0
 13
485.7171979135793
 23
1063.887464067608
 33
0.0
  0
SOLID
  5
544A
330
5232
100
AcDbEntity
  8
AM_5
100
AcDbTrace
 10
452.6090868971699
 20
1078.249363496866
 30
0.0
 11
452.6384744789377
 21
1079.248931588612
 31
0.0
 12
449.6250764128141
 22
1078.837310288043
 32
0.0
 13
449.6250764128141
 23
1078.837310288043
 33
0.0
  0
MTEXT
  5
544B
330
5232
100
AcDbEntity
  8
AM_5
100
AcDbMText
 10
470.0955662243254
 20
1077.215476698214
 30
0.0
 40
3.5
 41
0.0
 71
     5
 72
     1
  1
45°
 11
0.9238795325112885
 21
-0.3826834323650852
 31
0.0
 73
     1
 44
1.0
1001
ACAD
1000
MTEXTBEGIN
1070
    73
1070
     1
1070
    44
1040
1.0
1070
    74
1070
     0
1000
MTEXTEND
  0
POINT
  5
544C
330
5232
100
AcDbEntity
  8
Defpoints
 62
     0
100
AcDbPoint
 10
475.1460602734139
 20
1071.998983272547
 30
0.0
  0
POINT
  5
544D
330
5232
100
AcDbEntity
  8
Defpoints
 62
     0
100
AcDbPoint
 10
463.0601052553585
 20
1041.230371409387
 30
0.0
  0
POINT
  5
544E
330
5232
100
AcDbEntity
  8
Defpoints
 62
     0
100
AcDbPoint
 10
449.6250764128145
 20
1027.795342566843
 30
0.0
  0
POINT
  5
544F
330
5232
100
AcDbEntity
  8
Defpoints
 62
     0
100
AcDbPoint
 10
449.6250764128143
 20
1065.280192951164
 30
0.0
  0
POINT
  5
5450
330
5232
100
AcDbEntity
  8
Defpoints
 62
     0
100
AcDbPoint
 10
469.4240662860376
 20
1047.594332440066
 30
0.0
  0
ENDBLK
  5
523F
330
5232
100
AcDbEntity
  8
0
100
AcDbBlockEnd
  0
BLOCK
  5
524C
330
5240
100
AcDbEntity
  8
0
100
AcDbBlockBegin
  2
*D15
 70
     1
 10
0.0
 20
0.0
 30
0.0
  3
*D15
  1

  0
LINE
  5
5451
330
5240
100
AcDbEntity
  8
AM_5
100
AcDbLine
 10
449.6250764128141
 20
1066.280192951164
 30
0.0
 11
449.6250764128142
 21
1080.315221132378
 31
0.0
  0
LINE
  5
5452
330
5240
100
AcDbEntity
  8
AM_5
100
AcDbLine
 10
429.1189797584044
 20
1048.301439221253
 30
0.0
 11
412.4879141320307
 21
1064.932504847627
 31
0.0
  0
ARC
  5
5453
330
5240
100
AcDbEntity
  8
AM_5
100
AcDbCircle
 10
449.6250764128144
 20
1027.795342566842
 30
0.0
 40
51.01987856553535
100
AcDbArc
 50
93.36951234721926
 51
131.6304876527805
  0
SOLID
  5
5454
330
5240
100
AcDbEntity
  8
AM_5
100
AcDbTrace
 10
446.6116731074439
 20
1079.226804075639
 30
0.0
 11
446.6410734126224
 21
1078.227236358045
 31
0.0
 12
449.6250764128141
 22
1078.815221132378
 32
0.0
 13
449.6250764128141
 23
1078.815221132378
 33
0.0
  0
SOLID
  5
5455
330
5240
100
AcDbEntity
  8
AM_5
100
AcDbTrace
 10
416.0743510814921
 20
1065.566085411199
 30
0.0
 11
415.3883391252873
 21
1066.293675677725
 31
0.0
 12
413.5485743038105
 22
1063.871844675847
 32
0.0
 13
413.5485743038105
 23
1063.871844675847
 33
0.0
  0
MTEXT
  5
5456
330
5240
100
AcDbEntity
  8
AM_5
100
AcDbMText
 10
429.1630397552109
 20
1077.195068979404
 30
0.0
 40
3.5
 41
0.0
 71
     5
 72
     1
  1
45°
 11
0.9238795325112878
 21
0.3826834323650871
 31
0.0
 73
     1
 44
1.0
1001
ACAD
1000
MTEXTBEGIN
1070
    73
1070
     1
1070
    44
1040
1.0
1070
    74
1070
     0
1000
MTEXTEND
  0
POINT
  5
5457
330
5240
100
AcDbEntity
  8
Defpoints
 62
     0
100
AcDbPoint
 10
436.420160161236
 20
1077.076760927425
 30
0.0
  0
POINT
  5
5458
330
5240
100
AcDbEntity
  8
Defpoints
 62
     0
100
AcDbPoint
 10
436.1900475702697
 20
1041.230371409388
 30
0.0
  0
POINT
  5
5459
330
5240
100
AcDbEntity
  8
Defpoints
 62
     0
100
AcDbPoint
 10
449.6250764128144
 20
1027.795342566843
 30
0.0
  0
POINT
  5
545A
330
5240
100
AcDbEntity
  8
Defpoints
 62
     0
100
AcDbPoint
 10
449.6250764128142
 20
1065.280192951164
 30
0.0
  0
POINT
  5
545B
330
5240
100
AcDbEntity
  8
Defpoints
 62
     0
100
AcDbPoint
 10
429.826086539591
 20
1047.594332440066
 30
0.0
  0
ENDBLK
  5
524D
330
5240
100
AcDbEntity
  8
0
100
AcDbBlockEnd
  0
BLOCK
  5
5278
330
526E
100
AcDbEntity
  8
0
100
AcDbBlockBegin
  2
*D16
 70
     1
 10
0.0
 20
0.0
 30
0.0
  3
*D16
  1

  0
LINE
  5
72DA
330
526E
100
AcDbEntity
  8
AM_5
100
AcDbLine
 10
499.6250764128143
 20
864.3125456237727
 30
0.0
 11
550.1250764128143
 21
864.3125456237727
 31
0.0
  0
LINE
  5
72DB
330
526E
100
AcDbEntity
  8
AM_5
100
AcDbLine
 10
540.1250764128143
 20
882.812545623773
 30
0.0
 11
550.1250764128143
 21
882.812545623773
 31
0.0
  0
LINE
  5
72DC
330
526E
100
AcDbEntity
  8
AM_5
100
AcDbLine
 10
548.6250764128143
 20
867.3125456237729
 30
0.0
 11
548.6250764128143
 21
879.812545623773
 31
0.0
  0
SOLID
  5
72DD
330
526E
100
AcDbEntity
  8
AM_5
100
AcDbTrace
 10
548.1250764128143
 20
867.3125456237729
 30
0.0
 11
549.1250764128143
 21
867.3125456237729
 31
0.0
 12
548.6250764128143
 22
864.3125456237727
 32
0.0
 13
548.6250764128143
 23
864.3125456237727
 33
0.0
  0
SOLID
  5
72DE
330
526E
100
AcDbEntity
  8
AM_5
100
AcDbTrace
 10
548.1250764128143
 20
879.812545623773
 30
0.0
 11
549.1250764128143
 21
879.812545623773
 31
0.0
 12
548.6250764128143
 22
882.812545623773
 32
0.0
 13
548.6250764128143
 23
882.812545623773
 33
0.0
  0
MTEXT
  5
72DF
330
526E
100
AcDbEntity
  8
AM_5
100
AcDbMText
 10
546.175076412814
 20
873.562545623773
 30
0.0
 40
3.5
 41
0.0
 71
     5
 72
     1
  1
18.5
 11
0.0000000000000001
 21
1.0
 31
0.0
 73
     1
 44
1.0
1001
ACAD
1000
MTEXTBEGIN
1070
    73
1070
     1
1070
    44
1040
1.0
1070
    74
1070
     0
1000
MTEXTEND
  0
POINT
  5
72E0
330
526E
100
AcDbEntity
  8
Defpoints
 62
     0
100
AcDbPoint
 10
498.6250764128143
 20
864.3125456237727
 30
0.0
  0
POINT
  5
72E1
330
526E
100
AcDbEntity
  8
Defpoints
 62
     0
100
AcDbPoint
 10
539.1250764128143
 20
882.812545623773
 30
0.0
  0
POINT
  5
72E2
330
526E
100
AcDbEntity
  8
Defpoints
 62
     0
100
AcDbPoint
 10
548.6250764128143
 20
882.812545623773
 30
0.0
  0
ENDBLK
  5
5279
330
526E
100
AcDbEntity
  8
0
100
AcDbBlockEnd
  0
BLOCK
  5
5284
330
527A
100
AcDbEntity
  8
0
100
AcDbBlockBegin
  2
*D17
 70
     1
 10
0.0
 20
0.0
 30
0.0
  3
*D17
  1

  0
LINE
  5
72D1
330
527A
100
AcDbEntity
  8
AM_5
100
AcDbLine
 10
499.6250764128143
 20
864.3125456237727
 30
0.0
 11
558.1250764128143
 21
864.3125456237727
 31
0.0
  0
LINE
  5
72D2
330
527A
100
AcDbEntity
  8
AM_5
100
AcDbLine
 10
499.6250764128142
 20
902.3125456237746
 30
0.0
 11
558.1250764128143
 21
902.3125456237746
 31
0.0
  0
LINE
  5
72D3
330
527A
100
AcDbEntity
  8
AM_5
100
AcDbLine
 10
556.6250764128143
 20
867.3125456237729
 30
0.0
 11
556.6250764128143
 21
899.3125456237745
 31
0.0
  0
SOLID
  5
72D4
330
527A
100
AcDbEntity
  8
AM_5
100
AcDbTrace
 10
556.1250764128143
 20
867.3125456237729
 30
0.0
 11
557.1250764128143
 21
867.3125456237729
 31
0.0
 12
556.6250764128143
 22
864.3125456237727
 32
0.0
 13
556.6250764128143
 23
864.3125456237727
 33
0.0
  0
SOLID
  5
72D5
330
527A
100
AcDbEntity
  8
AM_5
100
AcDbTrace
 10
556.1250764128143
 20
899.3125456237745
 30
0.0
 11
557.1250764128143
 21
899.3125456237745
 31
0.0
 12
556.6250764128143
 22
902.3125456237746
 32
0.0
 13
556.6250764128143
 23
902.3125456237746
 33
0.0
  0
MTEXT
  5
72D6
330
527A
100
AcDbEntity
  8
AM_5
100
AcDbMText
 10
554.175076412814
 20
883.3125456237738
 30
0.0
 40
3.5
 41
0.0
 71
     5
 72
     1
  1
38
 11
0.0000000000000001
 21
1.0
 31
0.0
 73
     1
 44
1.0
1001
ACAD
1000
MTEXTBEGIN
1070
    73
1070
     1
1070
    44
1040
1.0
1070
    74
1070
     0
1000
MTEXTEND
  0
POINT
  5
72D7
330
527A
100
AcDbEntity
  8
Defpoints
 62
     0
100
AcDbPoint
 10
498.6250764128143
 20
864.3125456237727
 30
0.0
  0
POINT
  5
72D8
330
527A
100
AcDbEntity
  8
Defpoints
 62
     0
100
AcDbPoint
 10
498.6250764128143
 20
902.3125456237746
 30
0.0
  0
POINT
  5
72D9
330
527A
100
AcDbEntity
  8
Defpoints
 62
     0
100
AcDbPoint
 10
556.6250764128143
 20
902.3125456237746
 30
0.0
  0
ENDBLK
  5
5285
330
527A
100
AcDbEntity
  8
0
100
AcDbBlockEnd
  0
BLOCK
  5
5290
330
5286
100
AcDbEntity
  8
0
100
AcDbBlockBegin
  2
*D18
 70
     1
 10
0.0
 20
0.0
 30
0.0
  3
*D18
  1

  0
LINE
  5
6F3C
330
5286
100
AcDbEntity
  8
AM_5
100
AcDbLine
 10
419.6250764128142
 20
916.8125456237737
 30
0.0
 11
419.6250764128142
 21
932.812545623773
 31
0.0
  0
LINE
  5
6F3D
330
5286
100
AcDbEntity
  8
AM_5
100
AcDbLine
 10
479.6250764128142
 20
916.8125456237737
 30
0.0
 11
479.6250764128142
 21
932.812545623773
 31
0.0
  0
LINE
  5
6F3E
330
5286
100
AcDbEntity
  8
AM_5
100
AcDbLine
 10
422.6250764128142
 20
931.3125456237731
 30
0.0
 11
476.6250764128143
 21
931.3125456237731
 31
0.0
  0
SOLID
  5
6F3F
330
5286
100
AcDbEntity
  8
AM_5
100
AcDbTrace
 10
422.6250764128142
 20
931.812545623773
 30
0.0
 11
422.6250764128142
 21
930.812545623773
 31
0.0
 12
419.6250764128142
 22
931.3125456237731
 32
0.0
 13
419.6250764128142
 23
931.3125456237731
 33
0.0
  0
SOLID
  5
6F40
330
5286
100
AcDbEntity
  8
AM_5
100
AcDbTrace
 10
476.6250764128143
 20
931.812545623773
 30
0.0
 11
476.6250764128143
 21
930.812545623773
 31
0.0
 12
479.6250764128142
 22
931.3125456237731
 32
0.0
 13
479.6250764128142
 23
931.3125456237731
 33
0.0
  0
MTEXT
  5
6F41
330
5286
100
AcDbEntity
  8
AM_5
100
AcDbMText
 10
449.6250764128141
 20
934.2634720755114
 30
0.0
 40
3.5
 41
0.0
 71
     5
 72
     1
  1
%%c60{}{\C5; g6}
 73
     1
 44
1.0
1001
ACAD
1000
MTEXTBEGIN
1070
    73
1070
     1
1070
    44
1040
1.0
1070
    74
1070
     0
1000
MTEXTEND
  0
POINT
  5
6F42
330
5286
100
AcDbEntity
  8
Defpoints
 62
     0
100
AcDbPoint
 10
419.6250764128142
 20
915.8125456237737
 30
0.0
  0
POINT
  5
6F43
330
5286
100
AcDbEntity
  8
Defpoints
 62
     0
100
AcDbPoint
 10
479.6250764128142
 20
915.8125456237737
 30
0.0
  0
POINT
  5
6F44
330
5286
100
AcDbEntity
  8
Defpoints
 62
     0
100
AcDbPoint
 10
479.6250764128142
 20
931.3125456237731
 30
0.0
  0
ENDBLK
  5
5291
330
5286
100
AcDbEntity
  8
0
100
AcDbBlockEnd
  0
BLOCK
  5
529C
330
5292
100
AcDbEntity
  8
0
100
AcDbBlockBegin
  2
*D19
 70
     1
 10
0.0
 20
0.0
 30
0.0
  3
*D19
  1

  0
LINE
  5
7095
330
5292
100
AcDbEntity
  8
AM_5
100
AcDbLine
 10
418.3750764128144
 20
908.8125456237728
 30
0.0
 11
418.3750764128144
 21
940.812545623773
 31
0.0
  0
LINE
  5
7096
330
5292
100
AcDbEntity
  8
AM_5
100
AcDbLine
 10
480.8750764128142
 20
908.8125456237728
 30
0.0
 11
480.8750764128142
 21
940.812545623773
 31
0.0
  0
LINE
  5
7097
330
5292
100
AcDbEntity
  8
AM_5
100
AcDbLine
 10
421.3750764128144
 20
939.3125456237731
 30
0.0
 11
477.8750764128142
 21
939.3125456237731
 31
0.0
  0
SOLID
  5
7098
330
5292
100
AcDbEntity
  8
AM_5
100
AcDbTrace
 10
421.3750764128144
 20
939.812545623773
 30
0.0
 11
421.3750764128144
 21
938.812545623773
 31
0.0
 12
418.3750764128144
 22
939.3125456237731
 32
0.0
 13
418.3750764128144
 23
939.3125456237731
 33
0.0
  0
SOLID
  5
7099
330
5292
100
AcDbEntity
  8
AM_5
100
AcDbTrace
 10
477.8750764128142
 20
939.812545623773
 30
0.0
 11
477.8750764128142
 21
938.812545623773
 31
0.0
 12
480.8750764128142
 22
939.3125456237731
 32
0.0
 13
480.8750764128142
 23
939.3125456237731
 33
0.0
  0
MTEXT
  5
709A
330
5292
100
AcDbEntity
  8
AM_5
100
AcDbMText
 10
449.6250764128143
 20
942.2638165637003
 30
0.0
 40
3.5
 41
0.0
 71
     5
 72
     1
  1
%%c62.5{}{\C5; g6}
 73
     1
 44
1.0
1001
ACAD
1000
MTEXTBEGIN
1070
    73
1070
     1
1070
    44
1040
1.0
1070
    74
1070
     0
1000
MTEXTEND
  0
POINT
  5
709B
330
5292
100
AcDbEntity
  8
Defpoints
 62
     0
100
AcDbPoint
 10
418.3750764128144
 20
907.8125456237728
 30
0.0
  0
POINT
  5
709C
330
5292
100
AcDbEntity
  8
Defpoints
 62
     0
100
AcDbPoint
 10
480.8750764128142
 20
907.8125456237728
 30
0.0
  0
POINT
  5
709D
330
5292
100
AcDbEntity
  8
Defpoints
 62
     0
100
AcDbPoint
 10
480.8750764128142
 20
939.3125456237731
 30
0.0
  0
ENDBLK
  5
529D
330
5292
100
AcDbEntity
  8
0
100
AcDbBlockEnd
  0
BLOCK
  5
52A8
330
529E
100
AcDbEntity
  8
0
100
AcDbBlockBegin
  2
*D20
 70
     1
 10
0.0
 20
0.0
 30
0.0
  3
*D20
  1

  0
LINE
  5
72C8
330
529E
100
AcDbEntity
  8
AM_5
100
AcDbLine
 10
499.6250764128142
 20
902.3125456237746
 30
0.0
 11
558.1250764128143
 21
902.3125456237746
 31
0.0
  0
LINE
  5
72C9
330
529E
100
AcDbEntity
  8
AM_5
100
AcDbLine
 10
490.5501312030082
 20
919.312545623773
 30
0.0
 11
558.1250764128143
 21
919.312545623773
 31
0.0
  0
LINE
  5
72CA
330
529E
100
AcDbEntity
  8
AM_5
100
AcDbLine
 10
556.6250764128143
 20
905.3125456237745
 30
0.0
 11
556.6250764128143
 21
916.3125456237731
 31
0.0
  0
SOLID
  5
72CB
330
529E
100
AcDbEntity
  8
AM_5
100
AcDbTrace
 10
556.1250764128143
 20
905.3125456237745
 30
0.0
 11
557.1250764128143
 21
905.3125456237745
 31
0.0
 12
556.6250764128143
 22
902.3125456237746
 32
0.0
 13
556.6250764128143
 23
902.3125456237746
 33
0.0
  0
SOLID
  5
72CC
330
529E
100
AcDbEntity
  8
AM_5
100
AcDbTrace
 10
556.1250764128143
 20
916.3125456237731
 30
0.0
 11
557.1250764128143
 21
916.3125456237731
 31
0.0
 12
556.6250764128143
 22
919.312545623773
 32
0.0
 13
556.6250764128143
 23
919.312545623773
 33
0.0
  0
MTEXT
  5
72CD
330
529E
100
AcDbEntity
  8
AM_5
100
AcDbMText
 10
554.175076412814
 20
910.812545623774
 30
0.0
 40
3.5
 41
0.0
 71
     5
 72
     1
  1
17
 11
0.0000000000000001
 21
1.0
 31
0.0
 73
     1
 44
1.0
1001
ACAD
1000
MTEXTBEGIN
1070
    73
1070
     1
1070
    44
1040
1.0
1070
    74
1070
     0
1000
MTEXTEND
  0
POINT
  5
72CE
330
529E
100
AcDbEntity
  8
Defpoints
 62
     0
100
AcDbPoint
 10
498.6250764128143
 20
902.3125456237746
 30
0.0
  0
POINT
  5
72CF
330
529E
100
AcDbEntity
  8
Defpoints
 62
     0
100
AcDbPoint
 10
489.5501312030082
 20
919.312545623773
 30
0.0
  0
POINT
  5
72D0
330
529E
100
AcDbEntity
  8
Defpoints
 62
     0
100
AcDbPoint
 10
556.6250764128143
 20
919.312545623773
 30
0.0
  0
ENDBLK
  5
52A9
330
529E
100
AcDbEntity
  8
0
100
AcDbBlockEnd
  0
BLOCK
  5
52B4
330
52AA
100
AcDbEntity
  8
0
100
AcDbBlockBegin
  2
*D21
 70
     1
 10
0.0
 20
0.0
 30
0.0
  3
*D21
  1

  0
LINE
  5
72BF
330
52AA
100
AcDbEntity
  8
AM_5
100
AcDbLine
 10
480.1250764128142
 20
909.3125456237729
 30
0.0
 11
550.1250764128143
 21
909.3125456237729
 31
0.0
  0
LINE
  5
72C0
330
52AA
100
AcDbEntity
  8
AM_5
100
AcDbLine
 10
480.1250764128142
 20
919.3125456237737
 30
0.0
 11
550.1250764128143
 21
919.3125456237737
 31
0.0
  0
LINE
  5
72C1
330
52AA
100
AcDbEntity
  8
AM_5
100
AcDbLine
 10
548.6250764128143
 20
912.3125456237728
 30
0.0
 11
548.6250764128143
 21
916.3125456237738
 31
0.0
  0
SOLID
  5
72C2
330
52AA
100
AcDbEntity
  8
AM_5
100
AcDbTrace
 10
548.1250764128143
 20
912.3125456237728
 30
0.0
 11
549.1250764128143
 21
912.3125456237728
 31
0.0
 12
548.6250764128143
 22
909.3125456237729
 32
0.0
 13
548.6250764128143
 23
909.3125456237729
 33
0.0
  0
SOLID
  5
72C3
330
52AA
100
AcDbEntity
  8
AM_5
100
AcDbTrace
 10
548.1250764128143
 20
916.3125456237738
 30
0.0
 11
549.1250764128143
 21
916.3125456237738
 31
0.0
 12
548.6250764128143
 22
919.3125456237737
 32
0.0
 13
548.6250764128143
 23
919.3125456237737
 33
0.0
  0
MTEXT
  5
72C4
330
52AA
100
AcDbEntity
  8
AM_5
100
AcDbMText
 10
546.175076412814
 20
914.3125456237735
 30
0.0
 40
3.5
 41
0.0
 71
     5
 72
     1
  1
10
 11
0.0000000000000001
 21
1.0
 31
0.0
 73
     1
 44
1.0
1001
ACAD
1000
MTEXTBEGIN
1070
    73
1070
     1
1070
    44
1040
1.0
1070
    74
1070
     0
1000
MTEXTEND
  0
POINT
  5
72C5
330
52AA
100
AcDbEntity
  8
Defpoints
 62
     0
100
AcDbPoint
 10
479.1250764128142
 20
909.3125456237729
 30
0.0
  0
POINT
  5
72C6
330
52AA
100
AcDbEntity
  8
Defpoints
 62
     0
100
AcDbPoint
 10
479.1250764128142
 20
919.3125456237737
 30
0.0
  0
POINT
  5
72C7
330
52AA
100
AcDbEntity
  8
Defpoints
 62
     0
100
AcDbPoint
 10
548.6250764128143
 20
919.3125456237737
 30
0.0
  0
ENDBLK
  5
52B5
330
52AA
100
AcDbEntity
  8
0
100
AcDbBlockEnd
  0
BLOCK
  5
52C0
330
52B6
100
AcDbEntity
  8
0
100
AcDbBlockBegin
  2
*D22
 70
     1
 10
0.0
 20
0.0
 30
0.0
  3
*D22
  1

  0
LINE
  5
72B6
330
52B6
100
AcDbEntity
  8
AM_5
100
AcDbLine
 10
499.6250764128143
 20
864.3125456237727
 30
0.0
 11
566.1250764128143
 21
864.3125456237727
 31
0.0
  0
LINE
  5
72B7
330
52B6
100
AcDbEntity
  8
AM_5
100
AcDbLine
 10
480.1250764128142
 20
919.312545623773
 30
0.0
 11
566.1250764128143
 21
919.312545623773
 31
0.0
  0
LINE
  5
72B8
330
52B6
100
AcDbEntity
  8
AM_5
100
AcDbLine
 10
564.6250764128143
 20
867.3125456237729
 30
0.0
 11
564.6250764128143
 21
916.3125456237729
 31
0.0
  0
SOLID
  5
72B9
330
52B6
100
AcDbEntity
  8
AM_5
100
AcDbTrace
 10
564.1250764128143
 20
867.3125456237729
 30
0.0
 11
565.1250764128143
 21
867.3125456237729
 31
0.0
 12
564.6250764128143
 22
864.3125456237727
 32
0.0
 13
564.6250764128143
 23
864.3125456237727
 33
0.0
  0
SOLID
  5
72BA
330
52B6
100
AcDbEntity
  8
AM_5
100
AcDbTrace
 10
564.1250764128143
 20
916.3125456237729
 30
0.0
 11
565.1250764128143
 21
916.3125456237729
 31
0.0
 12
564.6250764128143
 22
919.312545623773
 32
0.0
 13
564.6250764128143
 23
919.312545623773
 33
0.0
  0
MTEXT
  5
72BB
330
52B6
100
AcDbEntity
  8
AM_5
100
AcDbMText
 10
562.175076412814
 20
891.812545623773
 30
0.0
 40
3.5
 41
0.0
 71
     5
 72
     1
  1
55
 11
0.0000000000000001
 21
1.0
 31
0.0
 73
     1
 44
1.0
1001
ACAD
1000
MTEXTBEGIN
1070
    73
1070
     1
1070
    44
1040
1.0
1070
    74
1070
     0
1000
MTEXTEND
  0
POINT
  5
72BC
330
52B6
100
AcDbEntity
  8
Defpoints
 62
     0
100
AcDbPoint
 10
498.6250764128143
 20
864.3125456237727
 30
0.0
  0
POINT
  5
72BD
330
52B6
100
AcDbEntity
  8
Defpoints
 62
     0
100
AcDbPoint
 10
479.1250764128142
 20
919.312545623773
 30
0.0
  0
POINT
  5
72BE
330
52B6
100
AcDbEntity
  8
Defpoints
 62
     0
100
AcDbPoint
 10
564.6250764128143
 20
919.312545623773
 30
0.0
  0
ENDBLK
  5
52C1
330
52B6
100
AcDbEntity
  8
0
100
AcDbBlockEnd
  0
BLOCK
  5
52CC
330
52C2
100
AcDbEntity
  8
0
100
AcDbBlockBegin
  2
*D23
 70
     1
 10
0.0
 20
0.0
 30
0.0
  3
*D23
  1

  0
LINE
  5
7409
330
52C2
100
AcDbEntity
  8
AM_5
100
AcDbLine
 10
438.6250764128144
 20
863.3125456237728
 30
0.0
 11
438.6250764128144
 21
850.0726351447221
 31
0.0
  0
LINE
  5
740A
330
52C2
100
AcDbEntity
  8
AM_5
100
AcDbLine
 10
460.6250764128144
 20
863.3125456237728
 30
0.0
 11
460.6250764128144
 21
850.0726351447221
 31
0.0
  0
LINE
  5
740B
330
52C2
100
AcDbEntity
  8
AM_5
100
AcDbLine
 10
441.6250764128143
 20
851.5726351447222
 30
0.0
 11
457.6250764128144
 21
851.5726351447222
 31
0.0
  0
LINE
  5
740C
330
52C2
100
AcDbEntity
  8
AM_5
100
AcDbLine
 10
460.6250764128144
 20
851.5726351447222
 30
0.0
 11
478.6750764128144
 21
851.5726351447222
 31
0.0
  0
SOLID
  5
740D
330
52C2
100
AcDbEntity
  8
AM_5
100
AcDbTrace
 10
441.6250764128143
 20
852.0726351447221
 30
0.0
 11
441.6250764128143
 21
851.0726351447221
 31
0.0
 12
438.6250764128144
 22
851.5726351447222
 32
0.0
 13
438.6250764128144
 23
851.5726351447222
 33
0.0
  0
SOLID
  5
740E
330
52C2
100
AcDbEntity
  8
AM_5
100
AcDbTrace
 10
457.6250764128144
 20
852.0726351447221
 30
0.0
 11
457.6250764128144
 21
851.0726351447221
 31
0.0
 12
460.6250764128144
 22
851.5726351447222
 32
0.0
 13
460.6250764128144
 23
851.5726351447222
 33
0.0
  0
MTEXT
  5
740F
330
52C2
100
AcDbEntity
  8
AM_5
100
AcDbMText
 10
471.1500764128144
 20
854.0229796329112
 30
0.0
 40
3.5
 41
0.0
 71
     5
 72
     1
  1
%%c22{}{\C5; H7}
 73
     1
 44
1.0
1001
ACAD
1000
MTEXTBEGIN
1070
    73
1070
     1
1070
    44
1040
1.0
1070
    74
1070
     0
1000
MTEXTEND
  0
POINT
  5
7410
330
52C2
100
AcDbEntity
  8
Defpoints
 62
     0
100
AcDbPoint
 10
438.6250764128144
 20
864.3125456237727
 30
0.0
  0
POINT
  5
7411
330
52C2
100
AcDbEntity
  8
Defpoints
 62
     0
100
AcDbPoint
 10
460.6250764128144
 20
864.3125456237727
 30
0.0
  0
POINT
  5
7412
330
52C2
100
AcDbEntity
  8
Defpoints
 62
     0
100
AcDbPoint
 10
460.6250764128144
 20
851.5726351447222
 30
0.0
  0
ENDBLK
  5
52CD
330
52C2
100
AcDbEntity
  8
0
100
AcDbBlockEnd
  0
BLOCK
  5
52D9
330
52CE
100
AcDbEntity
  8
0
100
AcDbBlockBegin
  2
*D24
 70
     1
 10
0.0
 20
0.0
 30
0.0
  3
*D24
  1

  0
LINE
  5
73FF
330
52CE
100
AcDbEntity
  8
AM_5
100
AcDbLine
 10
444.6250764128143
 20
866.8125456237728
 30
0.0
 11
444.6250764128143
 21
855.8276041250655
 31
0.0
  0
LINE
  5
7400
330
52CE
100
AcDbEntity
  8
AM_5
100
AcDbLine
 10
454.6250764128144
 20
866.8125456237728
 30
0.0
 11
454.6250764128144
 21
855.8276041250655
 31
0.0
  0
LINE
  5
7401
330
52CE
100
AcDbEntity
  8
AM_5
100
AcDbLine
 10
447.6250764128144
 20
857.3276041250656
 30
0.0
 11
451.6250764128144
 21
857.3276041250656
 31
0.0
  0
LINE
  5
7402
330
52CE
100
AcDbEntity
  8
AM_5
100
AcDbLine
 10
454.6250764128144
 20
857.3276041250656
 30
0.0
 11
478.6061899916923
 21
857.3276041250656
 31
0.0
  0
SOLID
  5
7403
330
52CE
100
AcDbEntity
  8
AM_5
100
AcDbTrace
 10
447.6250764128144
 20
857.8276041250656
 30
0.0
 11
447.6250764128144
 21
856.8276041250655
 31
0.0
 12
444.6250764128143
 22
857.3276041250656
 32
0.0
 13
444.6250764128143
 23
857.3276041250656
 33
0.0
  0
SOLID
  5
7404
330
52CE
100
AcDbEntity
  8
AM_5
100
AcDbTrace
 10
451.6250764128144
 20
857.8276041250656
 30
0.0
 11
451.6250764128144
 21
856.8276041250655
 31
0.0
 12
454.6250764128144
 22
857.3276041250656
 32
0.0
 13
454.6250764128144
 23
857.3276041250656
 33
0.0
  0
MTEXT
  5
7405
330
52CE
100
AcDbEntity
  8
AM_5
100
AcDbMText
 10
470.2061899916923
 20
859.7776041250655
 30
0.0
 40
3.5
 41
0.0
 71
     5
 72
     1
  1
%%c10thru
 73
     1
 44
1.0
1001
ACAD
1000
MTEXTBEGIN
1070
    73
1070
     1
1070
    44
1040
1.0
1070
    74
1070
     0
1000
MTEXTEND
  0
POINT
  5
7406
330
52CE
100
AcDbEntity
  8
Defpoints
 62
     0
100
AcDbPoint
 10
444.6250764128143
 20
867.8125456237728
 30
0.0
  0
POINT
  5
7407
330
52CE
100
AcDbEntity
  8
Defpoints
 62
     0
100
AcDbPoint
 10
454.6250764128144
 20
867.8125456237728
 30
0.0
  0
POINT
  5
7408
330
52CE
100
AcDbEntity
  8
Defpoints
 62
     0
100
AcDbPoint
 10
454.6250764128144
 20
857.3276041250656
 30
0.0
  0
ENDBLK
  5
52DA
330
52CE
100
AcDbEntity
  8
0
100
AcDbBlockEnd
  0
BLOCK
  5
5356
330
534C
100
AcDbEntity
  8
0
100
AcDbBlockBegin
  2
*D25
 70
     1
 10
0.0
 20
0.0
 30
0.0
  3
*D25
  1

  0
LINE
  5
73CD
330
534C
100
AcDbEntity
  8
AM_5
100
AcDbLine
 10
596.3066770926692
 20
1022.795342566843
 30
0.0
 11
583.8066770926692
 21
1022.795342566843
 31
0.0
  0
LINE
  5
73CE
330
534C
100
AcDbEntity
  8
AM_5
100
AcDbLine
 10
596.3066770926693
 20
1032.795342566843
 30
0.0
 11
583.8066770926692
 21
1032.795342566843
 31
0.0
  0
LINE
  5
73CF
330
534C
100
AcDbEntity
  8
AM_5
100
AcDbLine
 10
585.3066770926692
 20
1025.795342566843
 30
0.0
 11
585.3066770926692
 21
1029.795342566844
 31
0.0
  0
LINE
  5
73D0
330
534C
100
AcDbEntity
  8
AM_5
100
AcDbLine
 10
585.3066770926692
 20
1032.795342566843
 30
0.0
 11
585.3066770926692
 21
1088.84405126981
 31
0.0
  0
SOLID
  5
73D1
330
534C
100
AcDbEntity
  8
AM_5
100
AcDbTrace
 10
584.8066770926692
 20
1025.795342566843
 30
0.0
 11
585.8066770926692
 21
1025.795342566843
 31
0.0
 12
585.3066770926692
 22
1022.795342566843
 32
0.0
 13
585.3066770926692
 23
1022.795342566843
 33
0.0
  0
SOLID
  5
73D2
330
534C
100
AcDbEntity
  8
AM_5
100
AcDbTrace
 10
584.8066770926692
 20
1029.795342566844
 30
0.0
 11
585.8066770926692
 21
1029.795342566844
 31
0.0
 12
585.3066770926692
 22
1032.795342566843
 32
0.0
 13
585.3066770926692
 23
1032.795342566843
 33
0.0
  0
MTEXT
  5
73D3
330
534C
100
AcDbEntity
  8
AM_5
100
AcDbMText
 10
581.8323578969664
 20
1067.265459165677
 30
0.0
 40
3.5
 41
0.0
 71
     5
 72
     1
  1
10{\H2.100000;\S+0.03^  0;}(wide)x3.5depth
 11
0.0000000000000001
 21
1.0
 31
0.0
 73
     1
 44
1.0
1001
ACAD
1000
MTEXTBEGIN
1070
    73
1070
     1
1070
    44
1040
1.0
1070
    74
1070
     0
1000
MTEXTEND
  0
POINT
  5
73D4
330
534C
100
AcDbEntity
  8
Defpoints
 62
     0
100
AcDbPoint
 10
597.3066770926692
 20
1022.795342566843
 30
0.0
  0
POINT
  5
73D5
330
534C
100
AcDbEntity
  8
Defpoints
 62
     0
100
AcDbPoint
 10
597.3066770926693
 20
1032.795342566843
 30
0.0
  0
POINT
  5
73D6
330
534C
100
AcDbEntity
  8
Defpoints
 62
     0
100
AcDbPoint
 10
585.3066770926692
 20
1032.795342566843
 30
0.0
  0
ENDBLK
  5
5357
330
534C
100
AcDbEntity
  8
0
100
AcDbBlockEnd
  0
BLOCK
  5
5362
330
5358
100
AcDbEntity
  8
0
100
AcDbBlockBegin
  2
*D26
 70
     1
 10
0.0
 20
0.0
 30
0.0
  3
*D26
  1

  0
LINE
  5
6E9B
330
5358
100
AcDbEntity
  8
AM_5
100
AcDbLine
 10
629.8066770926693
 20
1007.795342566843
 30
0.0
 11
629.8066770926693
 21
980.2953425668436
 31
0.0
  0
LINE
  5
6E9C
330
5358
100
AcDbEntity
  8
AM_5
100
AcDbLine
 10
637.8066770926694
 20
1007.795342566843
 30
0.0
 11
637.8066770926694
 21
980.2953425668436
 31
0.0
  0
LINE
  5
6E9D
330
5358
100
AcDbEntity
  8
AM_5
100
AcDbLine
 10
632.8066770926693
 20
981.7953425668436
 30
0.0
 11
634.8066770926695
 21
981.7953425668436
 31
0.0
  0
SOLID
  5
6E9E
330
5358
100
AcDbEntity
  8
AM_5
100
AcDbTrace
 10
632.8066770926693
 20
982.2953425668435
 30
0.0
 11
632.8066770926693
 21
981.2953425668435
 31
0.0
 12
629.8066770926693
 22
981.7953425668436
 32
0.0
 13
629.8066770926693
 23
981.7953425668436
 33
0.0
  0
SOLID
  5
6E9F
330
5358
100
AcDbEntity
  8
AM_5
100
AcDbTrace
 10
634.8066770926695
 20
982.2953425668435
 30
0.0
 11
634.8066770926695
 21
981.2953425668435
 31
0.0
 12
637.8066770926694
 22
981.7953425668436
 32
0.0
 13
637.8066770926694
 23
981.7953425668436
 33
0.0
  0
MTEXT
  5
6EA0
330
5358
100
AcDbEntity
  8
AM_5
100
AcDbMText
 10
633.8066770926693
 20
984.2453425668436
 30
0.0
 40
3.5
 41
0.0
 71
     5
 72
     1
  1
8
 73
     1
 44
1.0
1001
ACAD
1000
MTEXTBEGIN
1070
    73
1070
     1
1070
    44
1040
1.0
1070
    74
1070
     0
1000
MTEXTEND
  0
POINT
  5
6EA1
330
5358
100
AcDbEntity
  8
Defpoints
 62
     0
100
AcDbPoint
 10
629.8066770926693
 20
1008.795342566843
 30
0.0
  0
POINT
  5
6EA2
330
5358
100
AcDbEntity
  8
Defpoints
 62
     0
100
AcDbPoint
 10
637.8066770926694
 20
1008.795342566843
 30
0.0
  0
POINT
  5
6EA3
330
5358
100
AcDbEntity
  8
Defpoints
 62
     0
100
AcDbPoint
 10
637.8066770926694
 20
981.7953425668436
 30
0.0
  0
ENDBLK
  5
5363
330
5358
100
AcDbEntity
  8
0
100
AcDbBlockEnd
  0
BLOCK
  5
536E
330
5364
100
AcDbEntity
  8
0
100
AcDbBlockBegin
  2
*D27
 70
     1
 10
0.0
 20
0.0
 30
0.0
  3
*D27
  1

  0
LINE
  5
6E92
330
5364
100
AcDbEntity
  8
AM_5
100
AcDbLine
 10
624.3066770926693
 20
1005.310515009939
 30
0.0
 11
624.3066770926693
 21
972.2953425668436
 31
0.0
  0
LINE
  5
6E93
330
5364
100
AcDbEntity
  8
AM_5
100
AcDbLine
 10
643.3066770926695
 20
1005.310515009145
 30
0.0
 11
643.3066770926695
 21
972.2953425668436
 31
0.0
  0
LINE
  5
6E94
330
5364
100
AcDbEntity
  8
AM_5
100
AcDbLine
 10
627.3066770926694
 20
973.7953425668436
 30
0.0
 11
640.3066770926695
 21
973.7953425668436
 31
0.0
  0
SOLID
  5
6E95
330
5364
100
AcDbEntity
  8
AM_5
100
AcDbTrace
 10
627.3066770926694
 20
974.2953425668435
 30
0.0
 11
627.3066770926694
 21
973.2953425668435
 31
0.0
 12
624.3066770926693
 22
973.7953425668436
 32
0.0
 13
624.3066770926693
 23
973.7953425668436
 33
0.0
  0
SOLID
  5
6E96
330
5364
100
AcDbEntity
  8
AM_5
100
AcDbTrace
 10
640.3066770926695
 20
974.2953425668435
 30
0.0
 11
640.3066770926695
 21
973.2953425668435
 31
0.0
 12
643.3066770926695
 22
973.7953425668436
 32
0.0
 13
643.3066770926695
 23
973.7953425668436
 33
0.0
  0
MTEXT
  5
6E97
330
5364
100
AcDbEntity
  8
AM_5
100
AcDbMText
 10
633.8066770926694
 20
976.2453425668436
 30
0.0
 40
3.5
 41
0.0
 71
     5
 72
     1
  1
19
 73
     1
 44
1.0
1001
ACAD
1000
MTEXTBEGIN
1070
    73
1070
     1
1070
    44
1040
1.0
1070
    74
1070
     0
1000
MTEXTEND
  0
POINT
  5
6E98
330
5364
100
AcDbEntity
  8
Defpoints
 62
     0
100
AcDbPoint
 10
624.3066770926693
 20
1006.310515009939
 30
0.0
  0
POINT
  5
6E99
330
5364
100
AcDbEntity
  8
Defpoints
 62
     0
100
AcDbPoint
 10
643.3066770926695
 20
1006.310515009145
 30
0.0
  0
POINT
  5
6E9A
330
5364
100
AcDbEntity
  8
Defpoints
 62
     0
100
AcDbPoint
 10
643.3066770926695
 20
973.7953425668436
 30
0.0
  0
ENDBLK
  5
536F
330
5364
100
AcDbEntity
  8
0
100
AcDbBlockEnd
  0
BLOCK
  5
537A
330
5370
100
AcDbEntity
  8
0
100
AcDbBlockBegin
  2
*D28
 70
     1
 10
0.0
 20
0.0
 30
0.0
  3
*D28
  1

  0
LINE
  5
73D7
330
5370
100
AcDbEntity
  8
AM_5
100
AcDbLine
 10
596.3066770926693
 20
1011.795342566843
 30
0.0
 11
572.8316770926692
 21
1011.795342566843
 31
0.0
  0
LINE
  5
73D8
330
5370
100
AcDbEntity
  8
AM_5
100
AcDbLine
 10
596.3066770926692
 20
1043.795342566843
 30
0.0
 11
572.8316770926692
 21
1043.795342566843
 31
0.0
  0
LINE
  5
73D9
330
5370
100
AcDbEntity
  8
AM_5
100
AcDbLine
 10
574.3316770926692
 20
1014.795342566843
 30
0.0
 11
574.3316770926692
 21
1040.795342566843
 31
0.0
  0
LINE
  5
73DA
330
5370
100
AcDbEntity
  8
AM_5
100
AcDbLine
 10
574.3316770926692
 20
1043.795342566843
 30
0.0
 11
574.3316770926692
 21
1082.480114922002
 31
0.0
  0
SOLID
  5
73DB
330
5370
100
AcDbEntity
  8
AM_5
100
AcDbTrace
 10
573.8316770926692
 20
1014.795342566843
 30
0.0
 11
574.8316770926692
 21
1014.795342566843
 31
0.0
 12
574.3316770926692
 22
1011.795342566843
 32
0.0
 13
574.3316770926692
 23
1011.795342566843
 33
0.0
  0
SOLID
  5
73DC
330
5370
100
AcDbEntity
  8
AM_5
100
AcDbTrace
 10
573.8316770926692
 20
1040.795342566843
 30
0.0
 11
574.8316770926692
 21
1040.795342566843
 31
0.0
 12
574.3316770926692
 22
1043.795342566843
 32
0.0
 13
574.3316770926692
 23
1043.795342566843
 33
0.0
  0
MTEXT
  5
73DD
330
5370
100
AcDbEntity
  8
AM_5
100
AcDbMText
 10
571.356677092669
 20
1065.791688470263
 30
0.0
 40
3.5
 41
0.0
 71
     5
 72
     1
  1
%%c32(H7)x3depth
 11
0.0000000000000001
 21
1.0
 31
0.0
 73
     1
 44
1.0
1001
ACAD
1000
MTEXTBEGIN
1070
    73
1070
     1
1070
    44
1040
1.0
1070
    74
1070
     0
1000
MTEXTEND
  0
POINT
  5
73DE
330
5370
100
AcDbEntity
  8
Defpoints
 62
     0
100
AcDbPoint
 10
597.3066770926693
 20
1011.795342566843
 30
0.0
  0
POINT
  5
73DF
330
5370
100
AcDbEntity
  8
Defpoints
 62
     0
100
AcDbPoint
 10
597.3066770926692
 20
1043.795342566843
 30
0.0
  0
POINT
  5
73E0
330
5370
100
AcDbEntity
  8
Defpoints
 62
     0
100
AcDbPoint
 10
574.3316770926692
 20
1043.795342566843
 30
0.0
  0
ENDBLK
  5
537B
330
5370
100
AcDbEntity
  8
0
100
AcDbBlockEnd
  0
BLOCK
  5
5793
330
5789
100
AcDbEntity
  8
0
100
AcDbBlockBegin
  2
*D29
 70
     1
 10
0.0
 20
0.0
 30
0.0
  3
*D29
  1

  0
LINE
  5
6F7C
330
5789
100
AcDbEntity
  8
AM_5
100
AcDbLine
 10
617.315579231622
 20
864.0625456237737
 30
0.0
 11
617.315579231622
 21
850.8125456237728
 31
0.0
  0
LINE
  5
6F7D
330
5789
100
AcDbEntity
  8
AM_5
100
AcDbLine
 10
653.4026089973556
 20
877.2125456237736
 30
0.0
 11
653.4026089973556
 21
850.8125456237728
 31
0.0
  0
LINE
  5
6F7E
330
5789
100
AcDbEntity
  8
AM_5
100
AcDbLine
 10
620.315579231622
 20
852.3125456237728
 30
0.0
 11
650.4026089973556
 21
852.3125456237728
 31
0.0
  0
SOLID
  5
6F7F
330
5789
100
AcDbEntity
  8
AM_5
100
AcDbTrace
 10
620.315579231622
 20
852.8125456237727
 30
0.0
 11
620.315579231622
 21
851.8125456237727
 31
0.0
 12
617.315579231622
 22
852.3125456237728
 32
0.0
 13
617.315579231622
 23
852.3125456237728
 33
0.0
  0
SOLID
  5
6F80
330
5789
100
AcDbEntity
  8
AM_5
100
AcDbTrace
 10
650.4026089973556
 20
852.8125456237727
 30
0.0
 11
650.4026089973556
 21
851.8125456237727
 31
0.0
 12
653.4026089973556
 22
852.3125456237728
 32
0.0
 13
653.4026089973556
 23
852.3125456237728
 33
0.0
  0
MTEXT
  5
6F81
330
5789
100
AcDbEntity
  8
AM_5
100
AcDbMText
 10
635.3590941144887
 20
854.7625456237728
 30
0.0
 40
3.5
 41
0.0
 71
     5
 72
     1
  1
Max.36
 73
     1
 44
1.0
1001
ACAD
1000
MTEXTBEGIN
1070
    73
1070
     1
1070
    44
1040
1.0
1070
    74
1070
     0
1000
MTEXTEND
  0
POINT
  5
6F82
330
5789
100
AcDbEntity
  8
Defpoints
 62
     0
100
AcDbPoint
 10
617.315579231622
 20
865.0625456237737
 30
0.0
  0
POINT
  5
6F83
330
5789
100
AcDbEntity
  8
Defpoints
 62
     0
100
AcDbPoint
 10
653.4026089973556
 20
878.2125456237736
 30
0.0
  0
POINT
  5
6F84
330
5789
100
AcDbEntity
  8
Defpoints
 62
     0
100
AcDbPoint
 10
653.4026089973556
 20
852.3125456237728
 30
0.0
  0
ENDBLK
  5
5794
330
5789
100
AcDbEntity
  8
0
100
AcDbBlockEnd
  0
BLOCK
  5
718E
330
7182
100
AcDbEntity
  8
0
100
AcDbBlockBegin
  2
*D30
 70
     1
 10
0.0
 20
0.0
 30
0.0
  3
*D30
  1

  0
LINE
  5
726F
330
7182
100
AcDbEntity
  8
AM_5
100
AcDbLine
 10
298.1354455724039
 20
908.7057480884533
 30
0.0
 11
289.5091288484025
 21
908.7057480884533
 31
0.0
  0
LINE
  5
7270
330
7182
100
AcDbEntity
  8
AM_5
100
AcDbLine
 10
298.1354455724039
 20
905.7057480884534
 30
0.0
 11
289.5091288484025
 21
905.7057480884534
 31
0.0
  0
LINE
  5
7271
330
7182
100
AcDbEntity
  8
AM_5
100
AcDbLine
 10
291.0091288484025
 20
902.7057480884533
 30
0.0
 11
291.0091288484025
 21
899.7057480884533
 31
0.0
  0
LINE
  5
7272
330
7182
100
AcDbEntity
  8
AM_5
100
AcDbLine
 10
291.0091288484025
 20
911.7057480884533
 30
0.0
 11
291.0091288484025
 21
924.0563252649595
 31
0.0
  0
LINE
  5
7273
330
7182
100
AcDbEntity
  8
AM_5
100
AcDbLine
 10
291.0091288484025
 20
905.7057480884534
 30
0.0
 11
291.0091288484025
 21
908.7057480884533
 31
0.0
  0
SOLID
  5
7274
330
7182
100
AcDbEntity
  8
AM_5
100
AcDbTrace
 10
290.5091288484026
 20
902.7057480884533
 30
0.0
 11
291.5091288484025
 21
902.7057480884533
 31
0.0
 12
291.0091288484025
 22
905.7057480884534
 32
0.0
 13
291.0091288484025
 23
905.7057480884534
 33
0.0
  0
SOLID
  5
7275
330
7182
100
AcDbEntity
  8
AM_5
100
AcDbTrace
 10
290.5091288484026
 20
911.7057480884533
 30
0.0
 11
291.5091288484025
 21
911.7057480884533
 31
0.0
 12
291.0091288484025
 22
908.7057480884533
 32
0.0
 13
291.0091288484025
 23
908.7057480884533
 33
0.0
  0
MTEXT
  5
7276
330
7182
100
AcDbEntity
  8
AM_5
100
AcDbMText
 10
288.5591288484024
 20
919.3810366767065
 30
0.0
 40
3.5
 41
0.0
 71
     5
 72
     1
  1
3{}{\C5; h9}
 11
0.0000000000000001
 21
1.0
 31
0.0
 73
     1
 44
1.0
1001
ACAD
1000
MTEXTBEGIN
1070
    73
1070
     1
1070
    44
1040
1.0
1070
    74
1070
     0
1000
MTEXTEND
  0
POINT
  5
7277
330
7182
100
AcDbEntity
  8
Defpoints
 62
     0
100
AcDbPoint
 10
299.1354455724039
 20
908.7057480884533
 30
0.0
  0
POINT
  5
7278
330
7182
100
AcDbEntity
  8
Defpoints
 62
     0
100
AcDbPoint
 10
299.1354455724039
 20
905.7057480884534
 30
0.0
  0
POINT
  5
7279
330
7182
100
AcDbEntity
  8
Defpoints
 62
     0
100
AcDbPoint
 10
291.0091288484025
 20
905.7057480884534
 30
0.0
  0
ENDBLK
  5
718F
330
7182
100
AcDbEntity
  8
0
100
AcDbBlockEnd
  0
BLOCK
  5
71DB
330
71D1
100
AcDbEntity
  8
0
100
AcDbBlockBegin
  2
*D31
 70
     1
 10
0.0
 20
0.0
 30
0.0
  3
*D31
  1

  0
LINE
  5
727A
330
71D1
100
AcDbEntity
  8
AM_5
100
AcDbLine
 10
305.3354455724039
 20
911.2057480884532
 30
0.0
 11
319.385446582404
 21
911.2057480884532
 31
0.0
  0
LINE
  5
727B
330
71D1
100
AcDbEntity
  8
AM_5
100
AcDbLine
 10
305.3354455724039
 20
903.2057480884532
 30
0.0
 11
319.385446582404
 21
903.2057480884532
 31
0.0
  0
LINE
  5
727C
330
71D1
100
AcDbEntity
  8
AM_5
100
AcDbLine
 10
317.885446582404
 20
906.2057480884531
 30
0.0
 11
317.885446582404
 21
908.2057480884532
 31
0.0
  0
LINE
  5
727D
330
71D1
100
AcDbEntity
  8
AM_5
100
AcDbLine
 10
317.885446582404
 20
911.2057480884532
 30
0.0
 11
317.885446582404
 21
926.4557480884532
 31
0.0
  0
SOLID
  5
727E
330
71D1
100
AcDbEntity
  8
AM_5
100
AcDbTrace
 10
317.385446582404
 20
906.2057480884531
 30
0.0
 11
318.385446582404
 21
906.2057480884531
 31
0.0
 12
317.885446582404
 22
903.2057480884532
 32
0.0
 13
317.885446582404
 23
903.2057480884532
 33
0.0
  0
SOLID
  5
727F
330
71D1
100
AcDbEntity
  8
AM_5
100
AcDbTrace
 10
317.385446582404
 20
908.2057480884532
 30
0.0
 11
318.385446582404
 21
908.2057480884532
 31
0.0
 12
317.885446582404
 22
911.2057480884532
 32
0.0
 13
317.885446582404
 23
911.2057480884532
 33
0.0
  0
MTEXT
  5
7280
330
71D1
100
AcDbEntity
  8
AM_5
100
AcDbMText
 10
315.4354465824038
 20
920.3307480884532
 30
0.0
 40
3.5
 41
0.0
 71
     5
 72
     1
  1
%%c8{}{\C5; h7}
 11
0.0000000000000001
 21
1.0
 31
0.0
 73
     1
 44
1.0
1001
ACAD
1000
MTEXTBEGIN
1070
    73
1070
     1
1070
    44
1040
1.0
1070
    74
1070
     0
1000
MTEXTEND
  0
POINT
  5
7281
330
71D1
100
AcDbEntity
  8
Defpoints
 62
     0
100
AcDbPoint
 10
304.335445572404
 20
911.2057480884532
 30
0.0
  0
POINT
  5
7282
330
71D1
100
AcDbEntity
  8
Defpoints
 62
     0
100
AcDbPoint
 10
304.335445572404
 20
903.2057480884532
 30
0.0
  0
POINT
  5
7283
330
71D1
100
AcDbEntity
  8
Defpoints
 62
     0
100
AcDbPoint
 10
317.885446582404
 20
903.2057480884532
 30
0.0
  0
ENDBLK
  5
71DC
330
71D1
100
AcDbEntity
  8
0
100
AcDbBlockEnd
  0
BLOCK
  5
722D
330
7223
100
AcDbEntity
  8
0
100
AcDbBlockBegin
  2
*D32
 70
     1
 10
0.0
 20
0.0
 30
0.0
  3
*D32
  1

  0
LINE
  5
7264
330
7223
100
AcDbEntity
  8
AM_5
100
AcDbLine
 10
308.835445572404
 20
893.0156365659613
 30
0.0
 11
321.8354455724039
 21
893.0156365659613
 31
0.0
  0
LINE
  5
7265
330
7223
100
AcDbEntity
  8
AM_5
100
AcDbLine
 10
309.3354455724039
 20
870.0156365659614
 30
0.0
 11
321.8354455724039
 21
870.0156365659614
 31
0.0
  0
LINE
  5
7266
330
7223
100
AcDbEntity
  8
AM_5
100
AcDbLine
 10
320.3354455724039
 20
890.0156365659613
 30
0.0
 11
320.3354455724039
 21
873.0156365659613
 31
0.0
  0
SOLID
  5
7267
330
7223
100
AcDbEntity
  8
AM_5
100
AcDbTrace
 10
319.8354455724039
 20
890.0156365659613
 30
0.0
 11
320.835445572404
 21
890.0156365659613
 31
0.0
 12
320.3354455724039
 22
893.0156365659613
 32
0.0
 13
320.3354455724039
 23
893.0156365659613
 33
0.0
  0
SOLID
  5
7268
330
7223
100
AcDbEntity
  8
AM_5
100
AcDbTrace
 10
319.8354455724039
 20
873.0156365659613
 30
0.0
 11
320.835445572404
 21
873.0156365659613
 31
0.0
 12
320.3354455724039
 22
870.0156365659614
 32
0.0
 13
320.3354455724039
 23
870.0156365659614
 33
0.0
  0
MTEXT
  5
7269
330
7223
100
AcDbEntity
  8
AM_5
100
AcDbMText
 10
317.8851010842148
 20
881.5156365659614
 30
0.0
 40
3.5
 41
0.0
 71
     5
 72
     1
  1
23
 11
0.0000000000000001
 21
1.0
 31
0.0
 73
     1
 44
1.0
1001
ACAD
1000
MTEXTBEGIN
1070
    73
1070
     1
1070
    44
1040
1.0
1070
    74
1070
     0
1000
MTEXTEND
  0
POINT
  5
726A
330
7223
100
AcDbEntity
  8
Defpoints
 62
     0
100
AcDbPoint
 10
307.8354455724039
 20
893.0156365659613
 30
0.0
  0
POINT
  5
726B
330
7223
100
AcDbEntity
  8
Defpoints
 62
     0
100
AcDbPoint
 10
308.335445572404
 20
870.0156365659614
 30
0.0
  0
POINT
  5
726C
330
7223
100
AcDbEntity
  8
Defpoints
 62
     0
100
AcDbPoint
 10
320.3354455724039
 20
870.0156365659614
 30
0.0
  0
ENDBLK
  5
722E
330
7223
100
AcDbEntity
  8
0
100
AcDbBlockEnd
  0
BLOCK
  5
72F2
330
72ED
100
AcDbEntity
  8
0
100
AcDbBlockBegin
  2
*S33
 70
     1
 10
0.0
 20
0.0
 30
0.0
  3
*S33
  1

  0
LINE
  5
72EE
330
72ED
100
AcDbEntity
  8
AM_5
 62
     5
100
AcDbLine
 10
346.2926389558471
 20
980.329745044419
 30
0.0
 11
328.0701684714873
 21
980.329745044419
 31
0.0
  0
LINE
  5
72EF
330
72ED
100
AcDbEntity
  8
AM_5
 62
     5
100
AcDbLine
 10
328.0701684714873
 20
980.329745044419
 30
0.0
 11
315.2047502999686
 21
1007.400142670083
 31
0.0
  0
TRACE
  5
72F0
330
72ED
100
AcDbEntity
  8
AM_5
 62
     5
370
    35
100
AcDbTrace
 10
315.6209242928457
 20
1007.597932614823
 30
0.0
 11
314.7885763070915
 21
1007.202352725343
 31
0.0
 12
313.7023865070496
 22
1010.561298002193
 32
0.0
 13
313.7023865070496
 23
1010.561298002193
 33
0.0
  0
MTEXT
  5
72F1
330
72ED
100
AcDbEntity
  8
AM_5
 62
     5
100
AcDbMText
 10
346.2926389558471
 20
975.2609901287621
 30
0.0
 40
3.5
 41
0.0
 71
     7
 72
     5
  1

  7
ACISOTS
 73
     1
 44
1.0
1001
ACAD
1000
MTEXTBEGIN
1070
    73
1070
     1
1070
    44
1040
1.0
1070
    74
1070
     0
1000
MTEXTEND
  0
ENDBLK
  5
72F3
330
72ED
100
AcDbEntity
  8
0
100
AcDbBlockEnd
  0
BLOCK
  5
72FA
330
72F5
100
AcDbEntity
  8
0
100
AcDbBlockBegin
  2
*S34
 70
     1
 10
0.0
 20
0.0
 30
0.0
  3
*S34
  1

  0
LINE
  5
72F6
330
72F5
100
AcDbEntity
  8
AM_5
 62
     5
100
AcDbLine
 10
544.4556285645854
 20
1059.939409216168
 30
0.0
 11
528.2504109458724
 21
1059.939409216168
 31
0.0
  0
LINE
  5
72F7
330
72F5
100
AcDbEntity
  8
AM_5
 62
     5
100
AcDbLine
 10
528.2504109458724
 20
1059.939409216168
 30
0.0
 11
524.594212206088
 21
1052.901276283494
 31
0.0
  0
TRACE
  5
72F8
330
72F5
100
AcDbEntity
  8
AM_5
 62
     5
370
    35
100
AcDbTrace
 10
524.1853108314121
 20
1053.113694080243
 30
0.0
 11
525.0031135807639
 21
1052.688858486745
 31
0.0
 12
522.9807388456159
 22
1049.795361971243
 32
0.0
 13
522.9807388456159
 23
1049.795361971243
 33
0.0
  0
MTEXT
  5
72F9
330
72F5
100
AcDbEntity
  8
AM_5
 62
     5
100
AcDbMText
 10
544.4556285645854
 20
1065.132333998359
 30
0.0
 40
3.5
 41
0.0
 71
     7
 72
     5
  1

  7
ACISOTS
 73
     1
 44
1.0
1001
ACAD
1000
MTEXTBEGIN
1070
    73
1070
     1
1070
    44
1040
1.0
1070
    74
1070
     0
1000
MTEXTEND
  0
ENDBLK
  5
72FB
330
72F5
100
AcDbEntity
  8
0
100
AcDbBlockEnd
  0
BLOCK
  5
7302
330
72FD
100
AcDbEntity
  8
0
100
AcDbBlockBegin
  2
*S35
 70
     1
 10
0.0
 20
0.0
 30
0.0
  3
*S35
  1

  0
LINE
  5
72FE
330
72FD
100
AcDbEntity
  8
AM_5
 62
     5
100
AcDbLine
 10
531.277449601565
 20
953.1324992383359
 30
0.0
 11
509.388010418349
 21
953.1324992383359
 31
0.0
  0
LINE
  5
72FF
330
72FD
100
AcDbEntity
  8
AM_5
 62
     5
100
AcDbLine
 10
509.388010418349
 20
953.1324992383359
 30
0.0
 11
470.0831290847658
 21
1006.590721378965
 31
0.0
  0
TRACE
  5
7300
330
72FD
100
AcDbEntity
  8
AM_5
 62
     5
370
    35
100
AcDbTrace
 10
470.4543687039792
 20
1006.863673388875
 30
0.0
 11
469.7118894655525
 21
1006.317769369055
 31
0.0
 12
468.0098527236644
 22
1009.410566255993
 32
0.0
 13
468.0098527236644
 23
1009.410566255993
 33
0.0
  0
MTEXT
  5
7301
330
72FD
100
AcDbEntity
  8
AM_5
 62
     5
100
AcDbMText
 10
531.277449601565
 20
948.1057141744829
 30
0.0
 40
3.5
 41
0.0
 71
     7
 72
     5
  1

  7
ACISOTS
 73
     1
 44
1.0
1001
ACAD
1000
MTEXTBEGIN
1070
    73
1070
     1
1070
    44
1040
1.0
1070
    74
1070
     0
1000
MTEXTEND
  0
ENDBLK
  5
7303
330
72FD
100
AcDbEntity
  8
0
100
AcDbBlockEnd
  0
BLOCK
  5
730A
330
7305
100
AcDbEntity
  8
0
100
AcDbBlockBegin
  2
*S36
 70
     1
 10
0.0
 20
0.0
 30
0.0
  3
*S36
  1

  0
LINE
  5
7306
330
7305
100
AcDbEntity
  8
AM_5
 62
     5
100
AcDbLine
 10
520.8498915943474
 20
1070.804811657015
 30
0.0
 11
500.4013652630152
 21
1070.804811657015
 31
0.0
  0
LINE
  5
7307
330
7305
100
AcDbEntity
  8
AM_5
 62
     5
100
AcDbLine
 10
500.4013652630152
 20
1070.804811657015
 30
0.0
 11
476.1170525593943
 21
1031.911316737869
 31
0.0
  0
TRACE
  5
7308
330
7305
100
AcDbEntity
  8
AM_5
 62
     5
370
    35
100
AcDbTrace
 10
475.7261998223232
 20
1032.155357292924
 30
0.0
 11
476.5079052964654
 21
1031.667276182814
 31
0.0
 12
474.2633805013921
 22
1028.942495439545
 32
0.0
 13
474.2633805013921
 23
1028.942495439545
 33
0.0
  0
MTEXT
  5
7309
330
7305
100
AcDbEntity
  8
AM_5
 62
     5
100
AcDbMText
 10
520.8498915943474
 20
1076.999663279315
 30
0.0
 40
3.5
 41
0.0
 71
     7
 72
     5
  1

  7
ACISOTS
 73
     1
 44
1.0
1001
ACAD
1000
MTEXTBEGIN
1070
    73
1070
     1
1070
    44
1040
1.0
1070
    74
1070
     0
1000
MTEXTEND
  0
ENDBLK
  5
730B
330
7305
100
AcDbEntity
  8
0
100
AcDbBlockEnd
  0
BLOCK
  5
7312
330
730D
100
AcDbEntity
  8
0
100
AcDbBlockBegin
  2
*S37
 70
     1
 10
0.0
 20
0.0
 30
0.0
  3
*S37
  1

  0
LINE
  5
730E
330
730D
100
AcDbEntity
  8
AM_5
 62
     5
100
AcDbLine
 10
376.8267784337575
 20
955.6624085300933
 30
0.0
 11
398.4040664299721
 21
955.6624085300933
 31
0.0
  0
LINE
  5
730F
330
730D
100
AcDbEntity
  8
AM_5
 62
     5
100
AcDbLine
 10
398.4040664299721
 20
955.6624085300933
 30
0.0
 11
408.3739580462466
 21
998.9154531032383
 31
0.0
  0
TRACE
  5
7310
330
730D
100
AcDbEntity
  8
AM_5
 62
     5
370
    35
100
AcDbTrace
 10
408.8229679896862
 20
998.8119556381487
 30
0.0
 11
407.9249481028069
 21
999.0189505683277
 31
0.0
 12
409.1600993458642
 22
1002.326022242991
 32
0.0
 13
409.1600993458642
 23
1002.326022242991
 33
0.0
  0
MTEXT
  5
7311
330
730D
100
AcDbEntity
  8
AM_5
 62
     5
100
AcDbMText
 10
376.8267784337575
 20
961.0740155100961
 30
0.0
 40
3.5
 41
0.0
 71
     7
 72
     5
  1

  7
ACISOTS
210
0.0
220
0.0
230
-1.0
 11
-1.0
 21
0.0
 31
0.0
 73
     1
 44
1.0
1001
ACAD
1000
MTEXTBEGIN
1070
    73
1070
     1
1070
    44
1040
1.0
1070
    74
1070
     0
1000
MTEXTEND
  0
ENDBLK
  5
7313
330
730D
100
AcDbEntity
  8
0
100
AcDbBlockEnd
  0
BLOCK
  5
731A
330
7315
100
AcDbEntity
  8
0
100
AcDbBlockBegin
  2
*S38
 70
     1
 10
0.0
 20
0.0
 30
0.0
  3
*S38
  1

  0
LINE
  5
7316
330
7315
100
AcDbEntity
  8
AM_5
 62
     5
100
AcDbLine
 10
360.7628979504408
 20
1073.891715149462
 30
0.0
 11
389.4511782604899
 21
1073.891715149462
 31
0.0
  0
LINE
  5
7317
330
7315
100
AcDbEntity
  8
AM_5
 62
     5
100
AcDbLine
 10
389.4511782604899
 20
1073.891715149462
 30
0.0
 11
404.3494221918344
 21
1035.804088157088
 31
0.0
  0
TRACE
  5
7318
330
7315
100
AcDbEntity
  8
AM_5
 62
     5
370
    35
100
AcDbTrace
 10
403.9202992157907
 20
1035.63623367839
 30
0.0
 11
404.7785451678782
 21
1035.971942635786
 31
0.0
 12
405.6244035444319
 22
1032.544575532396
 32
0.0
 13
405.6244035444319
 23
1032.544575532396
 33
0.0
  0
MTEXT
  5
7319
330
7315
100
AcDbEntity
  8
AM_5
 62
     5
100
AcDbMText
 10
360.7628979504408
 20
1071.790587527048
 30
0.0
 40
3.5
 41
0.0
 71
     9
 72
     5
  1

  7
ACISOTS
 73
     1
 44
1.0
1001
ACAD
1000
MTEXTBEGIN
1070
    73
1070
     1
1070
    44
1040
1.0
1070
    74
1070
     0
1000
MTEXTEND
  0
ENDBLK
  5
731B
330
7315
100
AcDbEntity
  8
0
100
AcDbBlockEnd
  0
BLOCK
  5
7322
330
731D
100
AcDbEntity
  8
0
100
AcDbBlockBegin
  2
*S39
 70
     1
 10
0.0
 20
0.0
 30
0.0
  3
*S39
  1

  0
LINE
  5
731E
330
731D
100
AcDbEntity
  8
AM_5
 62
     5
100
AcDbLine
 10
665.8112576076034
 20
900.7498613333817
 30
0.0
 11
641.4102719878652
 21
900.7498613333817
 31
0.0
  0
LINE
  5
731F
330
731D
100
AcDbEntity
  8
AM_5
 62
     5
100
AcDbLine
 10
641.4102719878652
 20
900.7498613333817
 30
0.0
 11
634.8882199443419
 21
891.2069902578259
 31
0.0
  0
TRACE
  5
7320
330
731D
100
AcDbEntity
  8
AM_5
 62
     5
100
AcDbTrace
 10
634.5077965637966
 20
891.4669896926756
 30
0.0
 11
635.268643324887
 21
890.9469908229763
 31
0.0
 12
632.9133281589641
 22
888.3173877875806
 32
0.0
 13
632.9133281589641
 23
888.3173877875806
 33
0.0
  0
MTEXT
  5
7321
330
731D
100
AcDbEntity
  8
AM_5
 62
     5
100
AcDbMText
 10
665.8112576076034
 20
907.4937472515811
 30
0.0
 40
3.5
 41
0.0
 71
     9
 72
     5
  1

  7
ACISOTS
210
0.0
220
0.0
230
-1.0
 11
-1.0
 21
0.0
 31
0.0
 73
     1
 44
1.0
1001
ACAD
1000
MTEXTBEGIN
1070
    73
1070
     1
1070
    44
1040
1.0
1070
    74
1070
     0
1000
MTEXTEND
  0
ENDBLK
  5
7323
330
731D
100
AcDbEntity
  8
0
100
AcDbBlockEnd
  0
ENDSEC
  0
SECTION
  2
ENTITIES
  0
LINE
  5
4619
330
1F
100
AcDbEntity
  8
0
100
AcDbLine
 10
400.6250764128142
 20
1061.795342566843
 30
0.0
 11
498.6250764128143
 21
1061.795342566843
 31
0.0
  0
LINE
  5
461A
330
1F
100
AcDbEntity
  8
0
100
AcDbLine
 10
391.1250764128167
 20
1060.795342566843
 30
0.0
 11
508.1250764128165
 21
1060.795342566844
 31
0.0
  0
LINE
  5
461B
330
1F
100
AcDbEntity
  8
0
100
AcDbLine
 10
400.6250764128143
 20
993.7953425668435
 30
0.0
 11
498.6250764128143
 21
993.7953425668434
 31
0.0
  0
LINE
  5
461C
330
1F
100
AcDbEntity
  8
0
100
AcDbLine
 10
498.6250764128143
 20
864.3125456237727
 30
0.0
 11
400.6250764128143
 21
864.3125456237727
 31
0.0
  0
LINE
  5
461D
330
1F
100
AcDbEntity
  8
0
100
AcDbLine
 10
400.6250764128142
 20
902.3125456237726
 30
0.0
 11
498.6250764128142
 21
902.3125456237746
 31
0.0
  0
LINE
  5
461E
330
1F
100
AcDbEntity
  8
0
  6
HIDDEN
 62
     3
 48
0.2
100
AcDbLine
 10
495.6250764128142
 20
893.8125456237735
 30
0.0
 11
481.6250764128141
 21
893.8125456237735
 31
0.0
  0
LINE
  5
461F
330
1F
100
AcDbEntity
  8
0
  6
HIDDEN
 62
     3
 48
0.2
100
AcDbLine
 10
493.6250764128143
 20
879.312545623773
 30
0.0
 11
483.6250764128141
 21
879.312545623773
 31
0.0
  0
LINE
  5
4620
330
1F
100
AcDbEntity
  8
0
100
AcDbLine
 10
391.1250764128167
 20
994.7953425668435
 30
0.0
 11
508.1250764128165
 21
994.7953425668432
 31
0.0
  0
LINE
  5
4623
330
1F
100
AcDbEntity
  8
0
100
AcDbLine
 10
386.1250764128144
 20
865.3125456237734
 30
0.0
 11
513.1250764128143
 21
865.312545623774
 31
0.0
  0
LINE
  5
4624
330
1F
100
AcDbEntity
  8
0
100
AcDbLine
 10
391.1250764128146
 20
901.3125456237736
 30
0.0
 11
508.1250764128143
 21
901.312545623773
 31
0.0
  0
LINE
  5
4627
330
1F
100
AcDbEntity
  8
0
100
AcDbLine
 10
385.6250764128144
 20
889.0587418094234
 30
0.0
 11
513.6250764128143
 21
889.0587418094044
 31
0.0
  0
LINE
  5
4628
330
1F
100
AcDbEntity
  8
0
100
AcDbLine
 10
385.6250764128144
 20
886.5587418094134
 30
0.0
 11
513.6250764128143
 21
886.5587418094134
 31
0.0
  0
LINE
  5
462B
330
1F
100
AcDbEntity
  8
0
100
AcDbLine
 10
385.6250764128144
 20
876.5663494381325
 30
0.0
 11
513.6250764128143
 21
876.5663494381325
 31
0.0
  0
LINE
  5
462C
330
1F
100
AcDbEntity
  8
0
100
AcDbLine
 10
385.6250764128144
 20
879.0663494381323
 30
0.0
 11
513.6250764128143
 21
879.0663494381323
 31
0.0
  0
LINE
  5
462F
330
1F
100
AcDbEntity
  8
AM_7
100
AcDbLine
 10
532.0525020273556
 20
882.812545623773
 30
0.0
 11
383.3157323195701
 21
882.812545623773
 31
0.0
  0
CIRCLE
  5
4632
330
1F
100
AcDbEntity
  8
0
100
AcDbCircle
 10
488.6250764128143
 20
1027.795342566843
 30
0.0
 40
7.0
  0
CIRCLE
  5
4638
330
1F
100
AcDbEntity
  8
0
100
AcDbCircle
 10
488.6250764128143
 20
1027.795342566843
 30
0.0
 40
4.299999999999999
  0
LINE
  5
4639
330
1F
100
AcDbEntity
  8
0
100
AcDbLine
 10
385.6250764128144
 20
901.562545623773
 30
0.0
 11
385.6250764128144
 21
865.0625456237728
 31
0.0
  0
LINE
  5
463A
330
1F
100
AcDbEntity
  8
0
  6
HIDDEN
 62
     3
 48
0.2
100
AcDbLine
 10
483.6250764128141
 20
879.312545623773
 30
0.0
 11
483.6250764128141
 21
864.3125456237727
 31
0.0
  0
LINE
  5
463B
330
1F
100
AcDbEntity
  8
0
  6
HIDDEN
 62
     3
 48
0.2
100
AcDbLine
 10
484.3250764128141
 20
893.8125456237735
 30
0.0
 11
484.3250764128141
 21
864.3125456237735
 31
0.0
  0
LINE
  5
463C
330
1F
100
AcDbEntity
  8
AM_7
100
AcDbLine
 10
488.6250764128142
 20
904.8683779625022
 30
0.0
 11
488.6250764128143
 21
862.8201700027984
 31
0.0
  0
LINE
  5
463D
330
1F
100
AcDbEntity
  8
AM_7
100
AcDbLine
 10
410.6250764128143
 20
904.7223813413456
 30
0.0
 11
410.6250764128144
 21
862.8201700027984
 31
0.0
  0
LINE
  5
463E
330
1F
100
AcDbEntity
  8
0
  6
HIDDEN
 62
     3
 48
0.2
100
AcDbLine
 10
454.6250764128144
 20
912.8125456237736
 30
0.0
 11
454.6250764128144
 21
867.8125456237728
 31
0.0
  0
LINE
  5
463F
330
1F
100
AcDbEntity
  8
0
  6
HIDDEN
 62
     3
 48
0.2
100
AcDbLine
 10
444.6250764128144
 20
912.8125456237738
 30
0.0
 11
444.6250764128143
 21
867.8125456237728
 31
0.0
  0
LINE
  5
4640
330
1F
100
AcDbEntity
  8
0
  6
HIDDEN
 62
     3
 48
0.2
100
AcDbLine
 10
405.6250764128142
 20
879.312545623773
 30
0.0
 11
405.6250764128142
 21
864.3125456237727
 31
0.0
  0
LINE
  5
4641
330
1F
100
AcDbEntity
  8
0
  6
HIDDEN
 62
     3
 48
0.2
100
AcDbLine
 10
406.3250764128141
 20
893.8125456237735
 30
0.0
 11
406.3250764128141
 21
864.3125456237735
 31
0.0
  0
LINE
  5
4642
330
1F
100
AcDbEntity
  8
0
  6
HIDDEN
 62
     3
 48
0.2
100
AcDbLine
 10
414.9250764128143
 20
893.8125456237735
 30
0.0
 11
414.9250764128144
 21
864.3125456237735
 31
0.0
  0
LINE
  5
4643
330
1F
100
AcDbEntity
  8
0
  6
HIDDEN
 62
     3
 48
0.2
100
AcDbLine
 10
415.6250764128143
 20
879.312545623773
 30
0.0
 11
415.6250764128143
 21
864.3125456237727
 31
0.0
  0
LINE
  5
4644
330
1F
100
AcDbEntity
  8
AM_7
100
AcDbLine
 10
449.6250764128142
 20
921.4811487614616
 30
0.0
 11
449.6250764128143
 21
862.4657395131839
 31
0.0
  0
LINE
  5
4645
330
1F
100
AcDbEntity
  8
0
100
AcDbLine
 10
400.6250764128142
 20
902.3125456237726
 30
0.0
 11
400.6250764128143
 21
864.3125456237727
 31
0.0
  0
LINE
  5
4648
330
1F
100
AcDbEntity
  8
0
100
AcDbLine
 10
386.1250764128142
 20
864.5625456237731
 30
0.0
 11
400.6250764128142
 21
864.5625456237729
 31
0.0
  0
LINE
  5
4649
330
1F
100
AcDbEntity
  8
0
100
AcDbLine
 10
386.1250764128144
 20
876.4625456237729
 30
0.0
 11
386.1250764128143
 21
865.3125456237731
 31
0.0
  0
LINE
  5
464A
330
1F
100
AcDbEntity
  8
0
100
AcDbLine
 10
386.1250764128143
 20
865.3125456237729
 30
0.0
 11
385.8750764128144
 21
864.8125456237728
 31
0.0
  0
LINE
  5
464B
330
1F
100
AcDbEntity
  8
0
100
AcDbLine
 10
386.1250764128143
 20
864.5625456237729
 30
0.0
 11
385.6250764128144
 21
865.0625456237728
 31
0.0
  0
LINE
  5
464C
330
1F
100
AcDbEntity
  8
0
  6
HIDDEN
 62
     3
 48
0.2
100
AcDbLine
 10
460.6250764128144
 20
867.8125456237728
 30
0.0
 11
438.6250764128144
 21
867.8125456237728
 31
0.0
  0
LINE
  5
464D
330
1F
100
AcDbEntity
  8
0
  6
HIDDEN
 62
     3
 48
0.2
100
AcDbLine
 10
438.6250764128144
 20
867.8125456237728
 30
0.0
 11
438.6250764128144
 21
864.3125456237727
 31
0.0
  0
LINE
  5
464E
330
1F
100
AcDbEntity
  8
0
  6
HIDDEN
 62
     3
 48
0.2
100
AcDbLine
 10
460.6250764128144
 20
867.8125456237726
 30
0.0
 11
460.6250764128144
 21
864.3125456237727
 31
0.0
  0
LINE
  5
4655
330
1F
100
AcDbEntity
  8
0
100
AcDbLine
 10
419.3750764128143
 20
908.8125456237728
 30
0.0
 11
479.8750764128143
 21
908.8125456237728
 31
0.0
  0
LINE
  5
4656
330
1F
100
AcDbEntity
  8
0
100
AcDbLine
 10
420.1250764128142
 20
909.3125456237729
 30
0.0
 11
479.1250764128142
 21
909.3125456237729
 31
0.0
  0
LINE
  5
4661
330
1F
100
AcDbEntity
  8
0
100
AcDbLine
 10
391.1250764128145
 20
893.0625456237725
 30
0.0
 11
386.6250764128145
 21
893.0625456237725
 31
0.0
  0
LINE
  5
4662
330
1F
100
AcDbEntity
  8
0
100
AcDbLine
 10
391.1250764128145
 20
901.5625456237726
 30
0.0
 11
386.6250764128145
 21
901.5625456237726
 31
0.0
  0
LINE
  5
4663
330
1F
100
AcDbEntity
  8
0
100
AcDbLine
 10
385.6250764128144
 20
892.562545623773
 30
0.0
 11
391.1250764128145
 21
892.562545623773
 31
0.0
  0
LINE
  5
4665
330
1F
100
AcDbEntity
  8
0
100
AcDbLine
 10
386.1250764128143
 20
902.0625456237731
 30
0.0
 11
400.6250764128144
 21
902.0625456237729
 31
0.0
  0
LINE
  5
4668
330
1F
100
AcDbEntity
  8
0
100
AcDbLine
 10
386.1250764128144
 20
901.0625456237725
 30
0.0
 11
386.6250764128145
 21
901.5625456237726
 31
0.0
  0
LINE
  5
4669
330
1F
100
AcDbEntity
  8
0
100
AcDbLine
 10
386.1250764128144
 20
886.462545623773
 30
0.0
 11
386.1250764128144
 21
879.162545623773
 31
0.0
  0
LINE
  5
466B
330
1F
100
AcDbEntity
  8
0
100
AcDbLine
 10
386.6250764128145
 20
893.0625456237725
 30
0.0
 11
386.1250764128144
 21
893.5625456237726
 31
0.0
  0
LINE
  5
466C
330
1F
100
AcDbEntity
  8
0
100
AcDbLine
 10
386.1250764128144
 20
893.5625456237726
 30
0.0
 11
386.1250764128144
 21
901.0625456237725
 31
0.0
  0
LINE
  5
466D
330
1F
100
AcDbEntity
  8
0
100
AcDbLine
 10
386.1250764128143
 20
892.562545623773
 30
0.0
 11
386.1250764128144
 21
889.1625456237729
 31
0.0
  0
LINE
  5
466E
330
1F
100
AcDbEntity
  8
0
100
AcDbLine
 10
386.1250764128143
 20
902.0625456237731
 30
0.0
 11
385.6250764128144
 21
901.562545623773
 31
0.0
  0
LINE
  5
466F
330
1F
100
AcDbEntity
  8
0
  6
HIDDEN
 62
     3
 48
0.2
100
AcDbLine
 10
403.6250764128141
 20
902.3125456237735
 30
0.0
 11
403.6250764128141
 21
893.8125456237735
 31
0.0
  0
LINE
  5
4670
330
1F
100
AcDbEntity
  8
0
  6
HIDDEN
 62
     3
 48
0.2
100
AcDbLine
 10
417.6250764128143
 20
902.3125456237735
 30
0.0
 11
417.6250764128143
 21
893.8125456237735
 31
0.0
  0
LINE
  5
4673
330
1F
100
AcDbEntity
  8
0
100
AcDbLine
 10
391.1250764128145
 20
902.0625456237731
 30
0.0
 11
391.1250764128145
 21
892.562545623773
 31
0.0
  0
LINE
  5
4674
330
1F
100
AcDbEntity
  8
0
  6
HIDDEN
 62
     3
 48
0.2
100
AcDbLine
 10
417.6250764128143
 20
893.8125456237735
 30
0.0
 11
403.6250764128141
 21
893.8125456237735
 31
0.0
  0
LINE
  5
4675
330
1F
100
AcDbEntity
  8
0
  6
HIDDEN
 62
     3
 48
0.2
100
AcDbLine
 10
415.6250764128143
 20
879.312545623773
 30
0.0
 11
405.6250764128142
 21
879.312545623773
 31
0.0
  0
LINE
  5
4679
330
1F
100
AcDbEntity
  8
0
100
AcDbLine
 10
419.6250764128143
 20
915.8125456237737
 30
0.0
 11
419.6250764128142
 21
909.8125456237728
 31
0.0
  0
LINE
  5
467A
330
1F
100
AcDbEntity
  8
0
100
AcDbLine
 10
419.6250764128142
 20
909.8125456237728
 30
0.0
 11
420.1250764128142
 21
909.3125456237729
 31
0.0
  0
LINE
  5
467B
330
1F
100
AcDbEntity
  8
0
100
AcDbLine
 10
418.3750764128144
 20
907.8125456237728
 30
0.0
 11
419.3750764128144
 21
908.8125456237728
 31
0.0
  0
LINE
  5
467C
330
1F
100
AcDbEntity
  8
0
100
AcDbLine
 10
418.3750764128144
 20
907.8125456237728
 30
0.0
 11
418.3750764128143
 21
902.3125456237728
 31
0.0
  0
LINE
  5
467D
330
1F
100
AcDbEntity
  8
0
100
AcDbLine
 10
420.1250764128143
 20
919.312545623773
 30
0.0
 11
420.0446774973161
 21
919.2321467082749
 31
0.0
  0
LINE
  5
4680
330
1F
100
AcDbEntity
  8
0
100
AcDbLine
 10
479.1250764128142
 20
919.312545623773
 30
0.0
 11
420.1250764128143
 21
919.312545623773
 31
0.0
  0
LINE
  5
4682
330
1F
100
AcDbEntity
  8
0
  6
HIDDEN
 62
     3
 48
0.2
100
AcDbLine
 10
433.6250764128144
 20
916.3125456237738
 30
0.0
 11
465.6250764128143
 21
916.3125456237734
 31
0.0
  0
LINE
  5
4683
330
1F
100
AcDbEntity
  8
0
  6
HIDDEN
 62
     3
 48
0.2
100
AcDbLine
 10
436.1250764128142
 20
912.8125456237738
 30
0.0
 11
463.1250764128143
 21
912.8125456237736
 31
0.0
  0
LINE
  5
4685
330
1F
100
AcDbEntity
  8
0
  6
HIDDEN
 62
     3
 48
0.2
100
AcDbLine
 10
436.1250764128142
 20
916.3125456237738
 30
0.0
 11
436.1250764128142
 21
912.8125456237738
 31
0.0
  0
LINE
  5
4686
330
1F
100
AcDbEntity
  8
0
100
AcDbLine
 10
431.6250764128143
 20
909.3125456237729
 30
0.0
 11
431.6250764128143
 21
908.8125456237728
 31
0.0
  0
LINE
  5
4687
330
1F
100
AcDbEntity
  8
0
  6
HIDDEN
 62
     3
 48
0.2
100
AcDbLine
 10
433.6250764128143
 20
919.3125456237737
 30
0.0
 11
433.6250764128144
 21
916.3125456237738
 31
0.0
  0
LINE
  5
468B
330
1F
100
AcDbEntity
  8
0
  6
HIDDEN
 62
     3
 48
0.2
100
AcDbLine
 10
481.6250764128141
 20
902.3125456237735
 30
0.0
 11
481.6250764128141
 21
893.8125456237735
 31
0.0
  0
LINE
  5
468C
330
1F
100
AcDbEntity
  8
0
  6
HIDDEN
 62
     3
 48
0.2
100
AcDbLine
 10
463.1250764128143
 20
916.3125456237734
 30
0.0
 11
463.1250764128143
 21
912.8125456237736
 31
0.0
  0
LINE
  5
468D
330
1F
100
AcDbEntity
  8
0
100
AcDbLine
 10
467.6250764128142
 20
909.3125456237729
 30
0.0
 11
467.6250764128142
 21
908.8125456237731
 31
0.0
  0
LINE
  5
468E
330
1F
100
AcDbEntity
  8
0
  6
HIDDEN
 62
     3
 48
0.2
100
AcDbLine
 10
465.6250764128143
 20
919.3125456237735
 30
0.0
 11
465.6250764128143
 21
916.3125456237734
 31
0.0
  0
LINE
  5
468F
330
1F
100
AcDbEntity
  8
0
100
AcDbLine
 10
479.6250764128142
 20
915.8125456237737
 30
0.0
 11
479.6250764128142
 21
909.8125456237728
 31
0.0
  0
LINE
  5
4690
330
1F
100
AcDbEntity
  8
0
100
AcDbLine
 10
479.6250764128142
 20
909.8125456237728
 30
0.0
 11
479.1250764128142
 21
909.3125456237729
 31
0.0
  0
LINE
  5
4691
330
1F
100
AcDbEntity
  8
0
100
AcDbLine
 10
480.8750764128142
 20
907.8125456237728
 30
0.0
 11
479.8750764128143
 21
908.8125456237728
 31
0.0
  0
LINE
  5
4692
330
1F
100
AcDbEntity
  8
0
100
AcDbLine
 10
480.8750764128142
 20
907.8125456237728
 30
0.0
 11
480.8750764128143
 21
902.3125456237728
 31
0.0
  0
LINE
  5
4693
330
1F
100
AcDbEntity
  8
0
100
AcDbLine
 10
479.1250764128142
 20
919.312545623773
 30
0.0
 11
479.2054753283123
 21
919.2321467082749
 31
0.0
  0
LINE
  5
4695
330
1F
100
AcDbEntity
  8
0
100
AcDbLine
 10
328.6294106347704
 20
1061.545342566843
 30
0.0
 11
316.8327136015975
 21
1061.545342566843
 31
0.0
  0
LINE
  5
4696
330
1F
100
AcDbEntity
  8
0
100
AcDbLine
 10
325.0865174159571
 20
1052.045342566844
 30
0.0
 11
329.836517415957
 21
1052.045342566844
 31
0.0
  0
POLYLINE
  5
4697
330
1F
100
AcDbEntity
  8
0
100
AcDb2dPolyline
 66
     1
 10
0.0
 20
0.0
 30
0.0
 70
     1
  0
VERTEX
  5
4698
330
4697
100
AcDbEntity
  8
0
100
AcDbVertex
100
AcDb2dVertex
 10
323.0865174159571
 20
1057.950043105223
 30
0.0
  0
VERTEX
  5
4699
330
4697
100
AcDbEntity
  8
0
100
AcDbVertex
100
AcDb2dVertex
 10
323.0865174159571
 20
1055.640642028464
 30
0.0
  0
VERTEX
  5
469A
330
4697
100
AcDbEntity
  8
0
100
AcDbVertex
100
AcDb2dVertex
 10
325.0865174159571
 20
1054.485941490085
 30
0.0
  0
VERTEX
  5
469B
330
4697
100
AcDbEntity
  8
0
100
AcDbVertex
100
AcDb2dVertex
 10
327.0865174159571
 20
1055.640642028464
 30
0.0
  0
VERTEX
  5
469C
330
4697
100
AcDbEntity
  8
0
100
AcDbVertex
100
AcDb2dVertex
 10
327.0865174159573
 20
1057.950043105223
 30
0.0
  0
VERTEX
  5
469D
330
4697
100
AcDbEntity
  8
0
100
AcDbVertex
100
AcDb2dVertex
 10
325.0865174159573
 20
1059.104743643602
 30
0.0
  0
SEQEND
  5
469E
330
4697
100
AcDbEntity
  8
0
  0
CIRCLE
  5
469F
330
1F
100
AcDbEntity
  8
0
100
AcDbCircle
 10
325.0865174159571
 20
1056.795342566844
 30
0.0
 40
4.25
  0
LINE
  5
46A1
330
1F
100
AcDbEntity
  8
0
100
AcDbLine
 10
328.6294106347704
 20
994.0453425668435
 30
0.0
 11
316.8327136015975
 21
994.0453425668435
 31
0.0
  0
LINE
  5
46A2
330
1F
100
AcDbEntity
  8
0
100
AcDbLine
 10
325.0865174159571
 20
1003.545342566843
 30
0.0
 11
329.836517415957
 21
1003.545342566843
 31
0.0
  0
POLYLINE
  5
46A3
330
1F
100
AcDbEntity
  8
0
100
AcDb2dPolyline
 66
     1
 10
0.0
 20
0.0
 30
0.0
 70
     1
  0
VERTEX
  5
46A4
330
46A3
100
AcDbEntity
  8
0
100
AcDbVertex
100
AcDb2dVertex
 10
323.0865174159571
 20
997.6406420284641
 30
0.0
  0
VERTEX
  5
46A5
330
46A3
100
AcDbEntity
  8
0
100
AcDbVertex
100
AcDb2dVertex
 10
323.0865174159571
 20
999.9500431052224
 30
0.0
  0
VERTEX
  5
46A6
330
46A3
100
AcDbEntity
  8
0
100
AcDbVertex
100
AcDb2dVertex
 10
325.0865174159571
 20
1001.104743643602
 30
0.0
  0
VERTEX
  5
46A7
330
46A3
100
AcDbEntity
  8
0
100
AcDbVertex
100
AcDb2dVertex
 10
327.0865174159571
 20
999.9500431052226
 30
0.0
  0
VERTEX
  5
46A8
330
46A3
100
AcDbEntity
  8
0
100
AcDbVertex
100
AcDb2dVertex
 10
327.0865174159573
 20
997.6406420284641
 30
0.0
  0
VERTEX
  5
46A9
330
46A3
100
AcDbEntity
  8
0
100
AcDbVertex
100
AcDb2dVertex
 10
325.0865174159573
 20
996.4859414900848
 30
0.0
  0
SEQEND
  5
46AA
330
46A3
100
AcDbEntity
  8
0
  0
CIRCLE
  5
46AC
330
1F
100
AcDbEntity
  8
0
100
AcDbCircle
 10
325.0865174159571
 20
998.7953425668434
 30
0.0
 40
4.25
  0
LINE
  5
46B7
330
1F
100
AcDbEntity
  8
0
100
AcDbLine
 10
329.0865174159568
 20
993.7953425668435
 30
0.0
 11
316.8327136015975
 21
993.7953425668435
 31
0.0
  0
LINE
  5
46B8
330
1F
100
AcDbEntity
  8
0
100
AcDbLine
 10
329.0865174159569
 20
1061.795342566843
 30
0.0
 11
316.8327136015975
 21
1061.795342566843
 31
0.0
  0
LINE
  5
46BF
330
1F
100
AcDbEntity
  8
0
100
AcDbLine
 10
292.3365174159567
 20
1060.691789176249
 30
0.0
 11
292.336517415957
 21
994.898895957437
 31
0.0
  0
LINE
  5
46C2
330
1F
100
AcDbEntity
  8
0
100
AcDbLine
 10
292.0865174159568
 20
1060.795342566843
 30
0.0
 11
292.0865174159567
 21
994.7953425668439
 31
0.0
  0
LINE
  5
46C7
330
1F
100
AcDbEntity
  8
0
100
AcDbLine
 10
314.3327136015976
 20
994.0453425668435
 30
0.0
 11
306.8403212303163
 21
994.0453425668435
 31
0.0
  0
LINE
  5
46C8
330
1F
100
AcDbEntity
  8
0
100
AcDbLine
 10
314.3327136015976
 20
993.7953425668435
 30
0.0
 11
306.8403212303162
 21
993.7953425668435
 31
0.0
  0
LINE
  5
46CA
330
1F
100
AcDbEntity
  8
0
100
AcDbLine
 10
304.3403212303162
 20
993.7953425668435
 30
0.0
 11
304.3403212303163
 21
995.2953425668434
 31
0.0
  0
LINE
  5
46CB
330
1F
100
AcDbEntity
  8
0
100
AcDbLine
 10
306.8403212303163
 20
993.7953425668435
 30
0.0
 11
306.8403212303163
 21
995.2953425668434
 31
0.0
  0
LINE
  5
46CC
330
1F
100
AcDbEntity
  8
0
100
AcDbLine
 10
304.3403212303161
 20
994.0453425668435
 30
0.0
 11
293.1900708065503
 21
994.0453425668435
 31
0.0
  0
LINE
  5
46CD
330
1F
100
AcDbEntity
  8
0
100
AcDbLine
 10
304.3403212303161
 20
993.7953425668435
 30
0.0
 11
293.0865174159571
 21
993.7953425668435
 31
0.0
  0
LINE
  5
46CE
330
1F
100
AcDbEntity
  8
0
100
AcDbLine
 10
292.336517415957
 20
994.898895957437
 30
0.0
 11
293.1900708065503
 21
994.0453425668435
 31
0.0
  0
LINE
  5
46CF
330
1F
100
AcDbEntity
  8
0
100
AcDbLine
 10
292.0865174159569
 20
994.7953425668435
 30
0.0
 11
293.086517415957
 21
993.7953425668435
 31
0.0
  0
LINE
  5
46D0
330
1F
100
AcDbEntity
  8
0
100
AcDbLine
 10
304.3403212303162
 20
995.2953425668434
 30
0.0
 11
303.4903212303162
 21
995.2953425668436
 31
0.0
  0
LINE
  5
46D1
330
1F
100
AcDbEntity
  8
0
100
AcDbLine
 10
307.6903212303162
 20
995.2953425668436
 30
0.0
 11
306.8403212303162
 21
995.2953425668434
 31
0.0
  0
LINE
  5
46D2
330
1F
100
AcDbEntity
  8
0
100
AcDbLine
 10
307.6903212303163
 20
999.4953425668436
 30
0.0
 11
303.4903212303163
 21
999.4953425668436
 31
0.0
  0
LINE
  5
46D3
330
1F
100
AcDbEntity
  8
0
100
AcDbLine
 10
307.6903212303162
 20
995.2953425668436
 30
0.0
 11
307.6903212303163
 21
999.4953425668436
 31
0.0
  0
LINE
  5
46D4
330
1F
100
AcDbEntity
  8
0
100
AcDbLine
 10
303.4903212303162
 20
995.2953425668436
 30
0.0
 11
303.4903212303163
 21
999.4953425668436
 31
0.0
  0
LINE
  5
46D5
330
1F
100
AcDbEntity
  8
0
100
AcDbLine
 10
320.3365174159571
 20
998.7953425668434
 30
0.0
 11
320.3365174159571
 21
994.0453425668435
 31
0.0
  0
LINE
  5
46D8
330
1F
100
AcDbEntity
  8
0
100
AcDbLine
 10
316.8327136015975
 20
993.7953425668435
 30
0.0
 11
316.8327136015975
 21
995.2953425668434
 31
0.0
  0
LINE
  5
46D9
330
1F
100
AcDbEntity
  8
0
100
AcDbLine
 10
314.3327136015975
 20
993.7953425668435
 30
0.0
 11
314.3327136015975
 21
995.2953425668434
 31
0.0
  0
LINE
  5
46DA
330
1F
100
AcDbEntity
  8
0
100
AcDbLine
 10
316.8327136015975
 20
995.2953425668434
 30
0.0
 11
317.6827136015975
 21
995.2953425668436
 31
0.0
  0
LINE
  5
46DB
330
1F
100
AcDbEntity
  8
0
100
AcDbLine
 10
313.4827136015975
 20
995.2953425668436
 30
0.0
 11
314.3327136015976
 21
995.2953425668434
 31
0.0
  0
LINE
  5
46DC
330
1F
100
AcDbEntity
  8
0
100
AcDbLine
 10
313.4827136015974
 20
999.4953425668436
 30
0.0
 11
317.6827136015975
 21
999.4953425668436
 31
0.0
  0
LINE
  5
46DD
330
1F
100
AcDbEntity
  8
0
100
AcDbLine
 10
313.4827136015975
 20
995.2953425668436
 30
0.0
 11
313.4827136015974
 21
999.4953425668436
 31
0.0
  0
LINE
  5
46DE
330
1F
100
AcDbEntity
  8
0
100
AcDbLine
 10
317.6827136015975
 20
995.2953425668436
 30
0.0
 11
317.6827136015975
 21
999.4953425668436
 31
0.0
  0
ARC
  5
46DF
330
1F
100
AcDbEntity
  8
0
100
AcDbCircle
 10
325.0865174159571
 20
998.7953425668434
 30
0.0
 40
4.75
100
AcDbArc
 50
90.0
 51
180.0
  0
ARC
  5
46E8
330
1F
100
AcDbEntity
  8
0
100
AcDbCircle
 10
297.0865174159568
 20
1017.795342566843
 30
0.0
 40
4.75
100
AcDbArc
 50
270.0
 51
90.0
  0
POLYLINE
  5
46E9
330
1F
100
AcDbEntity
  8
0
100
AcDb2dPolyline
 66
     1
 10
0.0
 20
0.0
 30
0.0
 70
     1
  0
VERTEX
  5
46EA
330
46E9
100
AcDbEntity
  8
0
100
AcDbVertex
100
AcDb2dVertex
 10
295.0865174159568
 20
1016.640642028464
 30
0.0
  0
VERTEX
  5
46EB
330
46E9
100
AcDbEntity
  8
0
100
AcDbVertex
100
AcDb2dVertex
 10
295.0865174159567
 20
1018.950043105222
 30
0.0
  0
VERTEX
  5
46EC
330
46E9
100
AcDbEntity
  8
0
100
AcDbVertex
100
AcDb2dVertex
 10
297.0865174159566
 20
1020.104743643601
 30
0.0
  0
VERTEX
  5
46ED
330
46E9
100
AcDbEntity
  8
0
100
AcDbVertex
100
AcDb2dVertex
 10
299.0865174159567
 20
1018.950043105222
 30
0.0
  0
VERTEX
  5
46EE
330
46E9
100
AcDbEntity
  8
0
100
AcDbVertex
100
AcDb2dVertex
 10
299.0865174159568
 20
1016.640642028464
 30
0.0
  0
VERTEX
  5
46EF
330
46E9
100
AcDbEntity
  8
0
100
AcDbVertex
100
AcDb2dVertex
 10
297.0865174159568
 20
1015.485941490085
 30
0.0
  0
SEQEND
  5
46F0
330
46E9
100
AcDbEntity
  8
0
  0
CIRCLE
  5
46F2
330
1F
100
AcDbEntity
  8
0
100
AcDbCircle
 10
297.0865174159568
 20
1017.795342566843
 30
0.0
 40
4.25
  0
LINE
  5
46F4
330
1F
100
AcDbEntity
  8
0
100
AcDbLine
 10
297.0865174159568
 20
1013.045342566843
 30
0.0
 11
292.336517415957
 21
1013.045342566843
 31
0.0
  0
LINE
  5
46F7
330
1F
100
AcDbEntity
  8
0
100
AcDbLine
 10
297.0865174159568
 20
1022.545342566843
 30
0.0
 11
292.336517415957
 21
1022.545342566843
 31
0.0
  0
ARC
  5
46FC
330
1F
100
AcDbEntity
  8
0
100
AcDbCircle
 10
325.0865174159571
 20
1056.795342566844
 30
0.0
 40
4.75
100
AcDbArc
 50
180.0
 51
270.0
  0
LINE
  5
4700
330
1F
100
AcDbEntity
  8
0
100
AcDbLine
 10
313.4827136015975
 20
1060.295342566843
 30
0.0
 11
313.4827136015974
 21
1056.095342566843
 31
0.0
  0
LINE
  5
4701
330
1F
100
AcDbEntity
  8
0
100
AcDbLine
 10
317.6827136015975
 20
1060.295342566843
 30
0.0
 11
317.6827136015975
 21
1056.095342566843
 31
0.0
  0
LINE
  5
4702
330
1F
100
AcDbEntity
  8
0
100
AcDbLine
 10
307.6903212303162
 20
1060.295342566843
 30
0.0
 11
307.6903212303163
 21
1056.095342566843
 31
0.0
  0
LINE
  5
4703
330
1F
100
AcDbEntity
  8
0
100
AcDbLine
 10
303.4903212303162
 20
1060.295342566843
 30
0.0
 11
303.4903212303163
 21
1056.095342566843
 31
0.0
  0
ARC
  5
4705
330
1F
100
AcDbEntity
  8
AM_4
100
AcDbCircle
 10
310.5865174159569
 20
1041.295342566843
 30
0.0
 40
4.849999999999999
100
AcDbArc
 50
256.5446733623765
 51
192.123027893342
  0
CIRCLE
  5
4707
330
1F
100
AcDbEntity
  8
0
100
AcDbCircle
 10
310.5865174159569
 20
1041.295342566843
 30
0.0
 40
4.25
  0
ARC
  5
4709
330
1F
100
AcDbEntity
  8
0
100
AcDbCircle
 10
297.0865174159568
 20
1037.795342566844
 30
0.0
 40
4.75
100
AcDbArc
 50
270.0
 51
90.0
  0
CIRCLE
  5
470B
330
1F
100
AcDbEntity
  8
0
100
AcDbCircle
 10
297.0865174159568
 20
1037.795342566844
 30
0.0
 40
4.25
  0
LINE
  5
470D
330
1F
100
AcDbEntity
  8
0
100
AcDbLine
 10
297.0865174159568
 20
1042.545342566844
 30
0.0
 11
292.336517415957
 21
1042.545342566844
 31
0.0
  0
LINE
  5
470E
330
1F
100
AcDbEntity
  8
0
100
AcDbLine
 10
297.0865174159568
 20
1033.045342566843
 30
0.0
 11
292.336517415957
 21
1033.045342566843
 31
0.0
  0
POLYLINE
  5
470F
330
1F
100
AcDbEntity
  8
0
100
AcDb2dPolyline
 66
     1
 10
0.0
 20
0.0
 30
0.0
 70
     1
  0
VERTEX
  5
4710
330
470F
100
AcDbEntity
  8
0
100
AcDbVertex
100
AcDb2dVertex
 10
295.0865174159568
 20
1038.950043105223
 30
0.0
  0
VERTEX
  5
4711
330
470F
100
AcDbEntity
  8
0
100
AcDbVertex
100
AcDb2dVertex
 10
295.0865174159567
 20
1036.640642028464
 30
0.0
  0
VERTEX
  5
4712
330
470F
100
AcDbEntity
  8
0
100
AcDbVertex
100
AcDb2dVertex
 10
297.0865174159566
 20
1035.485941490085
 30
0.0
  0
VERTEX
  5
4713
330
470F
100
AcDbEntity
  8
0
100
AcDbVertex
100
AcDb2dVertex
 10
299.0865174159567
 20
1036.640642028464
 30
0.0
  0
VERTEX
  5
4714
330
470F
100
AcDbEntity
  8
0
100
AcDbVertex
100
AcDb2dVertex
 10
299.0865174159568
 20
1038.950043105223
 30
0.0
  0
VERTEX
  5
4715
330
470F
100
AcDbEntity
  8
0
100
AcDbVertex
100
AcDb2dVertex
 10
297.0865174159568
 20
1040.104743643602
 30
0.0
  0
SEQEND
  5
4716
330
470F
100
AcDbEntity
  8
0
  0
LINE
  5
4718
330
1F
100
AcDbEntity
  8
0
100
AcDbLine
 10
307.6903212303163
 20
1056.095342566843
 30
0.0
 11
303.4903212303163
 21
1056.095342566843
 31
0.0
  0
LINE
  5
471A
330
1F
100
AcDbEntity
  8
0
100
AcDbLine
 10
313.4827136015974
 20
1056.095342566843
 30
0.0
 11
317.6827136015975
 21
1056.095342566843
 31
0.0
  0
LINE
  5
471F
330
1F
100
AcDbEntity
  8
0
100
AcDbLine
 10
314.3327136015976
 20
1061.545342566843
 30
0.0
 11
306.8403212303163
 21
1061.545342566843
 31
0.0
  0
LINE
  5
4720
330
1F
100
AcDbEntity
  8
0
100
AcDbLine
 10
314.3327136015975
 20
1061.795342566843
 30
0.0
 11
306.8403212303163
 21
1061.795342566843
 31
0.0
  0
LINE
  5
4721
330
1F
100
AcDbEntity
  8
0
100
AcDbLine
 10
304.3403212303161
 20
1061.545342566843
 30
0.0
 11
293.1900708065503
 21
1061.545342566843
 31
0.0
  0
LINE
  5
4722
330
1F
100
AcDbEntity
  8
0
100
AcDbLine
 10
304.3403212303162
 20
1061.795342566843
 30
0.0
 11
293.086517415957
 21
1061.795342566843
 31
0.0
  0
LINE
  5
4723
330
1F
100
AcDbEntity
  8
0
100
AcDbLine
 10
292.336517415957
 20
1060.69178917625
 30
0.0
 11
293.1900708065503
 21
1061.545342566843
 31
0.0
  0
LINE
  5
4724
330
1F
100
AcDbEntity
  8
0
100
AcDbLine
 10
292.0865174159569
 20
1060.795342566843
 30
0.0
 11
293.086517415957
 21
1061.795342566843
 31
0.0
  0
LINE
  5
4725
330
1F
100
AcDbEntity
  8
0
100
AcDbLine
 10
304.3403212303162
 20
1061.795342566843
 30
0.0
 11
304.3403212303163
 21
1060.295342566843
 31
0.0
  0
LINE
  5
4726
330
1F
100
AcDbEntity
  8
0
100
AcDbLine
 10
306.8403212303163
 20
1061.795342566843
 30
0.0
 11
306.8403212303163
 21
1060.295342566843
 31
0.0
  0
LINE
  5
4727
330
1F
100
AcDbEntity
  8
0
100
AcDbLine
 10
304.3403212303162
 20
1060.295342566843
 30
0.0
 11
303.4903212303162
 21
1060.295342566843
 31
0.0
  0
LINE
  5
4728
330
1F
100
AcDbEntity
  8
0
100
AcDbLine
 10
307.6903212303162
 20
1060.295342566843
 30
0.0
 11
306.8403212303162
 21
1060.295342566843
 31
0.0
  0
LINE
  5
4729
330
1F
100
AcDbEntity
  8
0
100
AcDbLine
 10
316.8327136015975
 20
1061.795342566843
 30
0.0
 11
316.8327136015975
 21
1060.295342566843
 31
0.0
  0
LINE
  5
472A
330
1F
100
AcDbEntity
  8
0
100
AcDbLine
 10
314.3327136015975
 20
1061.795342566843
 30
0.0
 11
314.3327136015975
 21
1060.295342566843
 31
0.0
  0
LINE
  5
472B
330
1F
100
AcDbEntity
  8
0
100
AcDbLine
 10
316.8327136015975
 20
1060.295342566843
 30
0.0
 11
317.6827136015975
 21
1060.295342566843
 31
0.0
  0
LINE
  5
472C
330
1F
100
AcDbEntity
  8
0
100
AcDbLine
 10
313.4827136015975
 20
1060.295342566843
 30
0.0
 11
314.3327136015976
 21
1060.295342566843
 31
0.0
  0
LINE
  5
472D
330
1F
100
AcDbEntity
  8
0
100
AcDbLine
 10
320.3365174159571
 20
1056.795342566844
 30
0.0
 11
320.3365174159571
 21
1061.545342566843
 31
0.0
  0
CIRCLE
  5
4736
330
1F
100
AcDbEntity
  8
0
100
AcDbCircle
 10
449.6250764128142
 20
1027.795342566843
 30
0.0
 40
30.00000000000011
  0
LINE
  5
4739
330
1F
100
AcDbEntity
  8
0
100
AcDbLine
 10
336.5865174159567
 20
997.5453425668433
 30
0.0
 11
336.5865174159567
 21
1058.045342566843
 31
0.0
  0
LINE
  5
473A
330
1F
100
AcDbEntity
  8
0
100
AcDbLine
 10
347.0865174159567
 20
1057.295342566843
 30
0.0
 11
347.0865174159568
 21
1032.795342566843
 31
0.0
  0
LINE
  5
473C
330
1F
100
AcDbEntity
  8
0
100
AcDbLine
 10
337.0865174159567
 20
998.2953425668434
 30
0.0
 11
337.0865174159567
 21
1057.295342566843
 31
0.0
  0
LINE
  5
473D
330
1F
100
AcDbEntity
  8
0
100
AcDbLine
 10
329.8365174159569
 20
995.2524493480302
 30
0.0
 11
329.836517415958
 21
1060.338235785656
 31
0.0
  0
LINE
  5
473E
330
1F
100
AcDbEntity
  8
0
100
AcDbLine
 10
385.6250764128144
 20
1061.045342566841
 30
0.0
 11
385.6250764128144
 21
994.5453425668453
 31
0.0
  0
LINE
  5
473F
330
1F
100
AcDbEntity
  8
0
100
AcDbLine
 10
386.1250764128167
 20
1052.045342566844
 30
0.0
 11
386.1250764128167
 21
1003.545342566843
 31
0.0
  0
LINE
  5
4740
330
1F
100
AcDbEntity
  8
0
100
AcDbLine
 10
330.0865174159569
 20
994.7953425668435
 30
0.0
 11
330.0865174159582
 21
1060.795342566842
 31
0.0
  0
CIRCLE
  5
4741
330
1F
100
AcDbEntity
  8
0
100
AcDbCircle
 10
410.6250764128144
 20
1027.795342566843
 30
0.0
 40
7.0
  0
LINE
  5
4742
330
1F
100
AcDbEntity
  8
0
100
AcDbLine
 10
400.6250764128142
 20
1061.795342566843
 30
0.0
 11
400.6250764128143
 21
993.7953425668435
 31
0.0
  0
CIRCLE
  5
4744
330
1F
100
AcDbEntity
  8
0
100
AcDbCircle
 10
410.6250764128144
 20
1027.795342566843
 30
0.0
 40
4.299999999999999
  0
LINE
  5
474F
330
1F
100
AcDbEntity
  8
0
100
AcDbLine
 10
400.6250764128166
 20
994.0453425668431
 30
0.0
 11
386.1250764128167
 21
994.0453425668431
 31
0.0
  0
LINE
  5
4751
330
1F
100
AcDbEntity
  8
0
100
AcDbLine
 10
391.1250764128167
 20
994.5453425668434
 30
0.0
 11
386.6250764128167
 21
994.5453425668434
 31
0.0
  0
LINE
  5
4752
330
1F
100
AcDbEntity
  8
0
100
AcDbLine
 10
391.1250764128167
 20
1003.045342566843
 30
0.0
 11
386.6250764128167
 21
1003.045342566843
 31
0.0
  0
LINE
  5
4753
330
1F
100
AcDbEntity
  8
0
100
AcDbLine
 10
385.6250764128166
 20
1003.545342566843
 30
0.0
 11
391.1250764128167
 21
1003.545342566843
 31
0.0
  0
LINE
  5
475A
330
1F
100
AcDbEntity
  8
0
100
AcDbLine
 10
329.8365174159569
 20
995.2524493480302
 30
0.0
 11
328.6294106347704
 21
994.0453425668435
 31
0.0
  0
LINE
  5
475B
330
1F
100
AcDbEntity
  8
0
100
AcDbLine
 10
330.0865174159569
 20
994.7953425668435
 30
0.0
 11
329.0865174159569
 21
993.7953425668435
 31
0.0
  0
LINE
  5
475C
330
1F
100
AcDbEntity
  8
0
100
AcDbLine
 10
335.5865174159567
 20
996.5453425668433
 30
0.0
 11
330.0865174159567
 21
996.5453425668432
 31
0.0
  0
LINE
  5
475D
330
1F
100
AcDbEntity
  8
0
100
AcDbLine
 10
346.5865174159568
 20
997.7953425668436
 30
0.0
 11
337.5865174159567
 21
997.7953425668433
 31
0.0
  0
LINE
  5
475F
330
1F
100
AcDbEntity
  8
0
100
AcDbLine
 10
336.5865174159568
 20
997.5453425668435
 30
0.0
 11
335.5865174159568
 21
996.5453425668435
 31
0.0
  0
LINE
  5
4760
330
1F
100
AcDbEntity
  8
0
100
AcDbLine
 10
337.5865174159568
 20
997.7953425668436
 30
0.0
 11
337.0865174159568
 21
998.2953425668435
 31
0.0
  0
LINE
  5
4761
330
1F
100
AcDbEntity
  8
0
100
AcDbLine
 10
335.5865174159568
 20
996.5453425668435
 30
0.0
 11
336.5865174159568
 21
997.5453425668435
 31
0.0
  0
LINE
  5
4762
330
1F
100
AcDbEntity
  8
0
100
AcDbLine
 10
337.5865174159567
 20
997.7953425668433
 30
0.0
 11
337.0865174159567
 21
998.2953425668434
 31
0.0
  0
LINE
  5
4765
330
1F
100
AcDbEntity
  8
0
100
AcDbLine
 10
386.6250764128167
 20
994.5453425668434
 30
0.0
 11
386.1250764128167
 21
995.0453425668433
 31
0.0
  0
LINE
  5
4766
330
1F
100
AcDbEntity
  8
0
100
AcDbLine
 10
385.6250764128167
 20
994.545342566843
 30
0.0
 11
386.1250764128167
 21
994.0453425668431
 31
0.0
  0
LINE
  5
4769
330
1F
100
AcDbEntity
  8
0
100
AcDbLine
 10
386.1250764128167
 20
1002.545342566843
 30
0.0
 11
386.6250764128167
 21
1003.045342566843
 31
0.0
  0
LINE
  5
476A
330
1F
100
AcDbEntity
  8
0
100
AcDbLine
 10
386.1250764128167
 20
995.0453425668433
 30
0.0
 11
386.1250764128167
 21
1002.545342566843
 31
0.0
  0
LINE
  5
476B
330
1F
100
AcDbEntity
  8
0
100
AcDbLine
 10
337.0865174159567
 20
1009.795342566843
 30
0.0
 11
336.5865174159567
 21
1009.795342566843
 31
0.0
  0
LINE
  5
4774
330
1F
100
AcDbEntity
  8
0
100
AcDbLine
 10
391.1250764128167
 20
994.045342566843
 30
0.0
 11
391.1250764128167
 21
1003.545342566843
 31
0.0
  0
LINE
  5
4789
330
1F
100
AcDbEntity
  8
0
100
AcDbLine
 10
400.6250764128166
 20
1061.545342566843
 30
0.0
 11
386.1250764128167
 21
1061.545342566843
 31
0.0
  0
LINE
  5
478B
330
1F
100
AcDbEntity
  8
0
100
AcDbLine
 10
391.1250764128167
 20
1061.045342566844
 30
0.0
 11
386.6250764128167
 21
1061.045342566844
 31
0.0
  0
LINE
  5
478C
330
1F
100
AcDbEntity
  8
0
100
AcDbLine
 10
391.1250764128167
 20
1052.545342566843
 30
0.0
 11
386.6250764128167
 21
1052.545342566843
 31
0.0
  0
LINE
  5
478D
330
1F
100
AcDbEntity
  8
0
100
AcDbLine
 10
385.6250764128166
 20
1052.045342566844
 30
0.0
 11
391.1250764128167
 21
1052.045342566844
 31
0.0
  0
LINE
  5
4794
330
1F
100
AcDbEntity
  8
0
100
AcDbLine
 10
386.1250764128167
 20
1060.545342566843
 30
0.0
 11
386.1250764128167
 21
1053.045342566844
 31
0.0
  0
LINE
  5
4795
330
1F
100
AcDbEntity
  8
0
100
AcDbLine
 10
337.0865174159567
 20
1045.795342566843
 30
0.0
 11
336.5865174159569
 21
1045.795342566843
 31
0.0
  0
LINE
  5
4799
330
1F
100
AcDbEntity
  8
0
100
AcDbLine
 10
386.1250764128167
 20
1053.045342566844
 30
0.0
 11
386.6250764128167
 21
1052.545342566843
 31
0.0
  0
LINE
  5
479C
330
1F
100
AcDbEntity
  8
0
100
AcDbLine
 10
335.5865174159567
 20
1059.045342566843
 30
0.0
 11
330.0865174159567
 21
1059.045342566843
 31
0.0
  0
LINE
  5
479D
330
1F
100
AcDbEntity
  8
0
100
AcDbLine
 10
330.0865174159569
 20
1060.795342566843
 30
0.0
 11
329.0865174159569
 21
1061.795342566843
 31
0.0
  0
LINE
  5
479E
330
1F
100
AcDbEntity
  8
0
100
AcDbLine
 10
329.8365174159569
 20
1060.338235785657
 30
0.0
 11
328.6294106347704
 21
1061.545342566843
 31
0.0
  0
LINE
  5
479F
330
1F
100
AcDbEntity
  8
0
100
AcDbLine
 10
343.5865174159569
 20
1057.795342566843
 30
0.0
 11
337.5865174159567
 21
1057.795342566843
 31
0.0
  0
LINE
  5
47A0
330
1F
100
AcDbEntity
  8
0
100
AcDbLine
 10
346.5865174159568
 20
1057.795342566843
 30
0.0
 11
337.5865174159568
 21
1057.795342566843
 31
0.0
  0
LINE
  5
47A2
330
1F
100
AcDbEntity
  8
0
100
AcDbLine
 10
337.5865174159568
 20
1057.795342566843
 30
0.0
 11
337.0865174159568
 21
1057.295342566843
 31
0.0
  0
LINE
  5
47A3
330
1F
100
AcDbEntity
  8
0
100
AcDbLine
 10
337.5865174159567
 20
1057.795342566843
 30
0.0
 11
337.0865174159567
 21
1057.295342566843
 31
0.0
  0
LINE
  5
47A4
330
1F
100
AcDbEntity
  8
0
100
AcDbLine
 10
337.5865174159567
 20
1057.795342566843
 30
0.0
 11
337.0865174159567
 21
1057.295342566843
 31
0.0
  0
LINE
  5
47A5
330
1F
100
AcDbEntity
  8
0
100
AcDbLine
 10
335.5865174159567
 20
1059.045342566843
 30
0.0
 11
336.5865174159567
 21
1058.045342566843
 31
0.0
  0
LINE
  5
47A8
330
1F
100
AcDbEntity
  8
0
100
AcDbLine
 10
385.6250764128167
 20
1061.045342566844
 30
0.0
 11
386.1250764128167
 21
1061.545342566843
 31
0.0
  0
LINE
  5
47A9
330
1F
100
AcDbEntity
  8
0
100
AcDbLine
 10
386.6250764128167
 20
1061.045342566844
 30
0.0
 11
386.1250764128167
 21
1060.545342566843
 31
0.0
  0
LINE
  5
47AA
330
1F
100
AcDbEntity
  8
0
100
AcDbLine
 10
391.1250764128167
 20
1061.545342566844
 30
0.0
 11
391.1250764128167
 21
1052.045342566844
 31
0.0
  0
CIRCLE
  5
47BC
330
1F
100
AcDbEntity
  8
0
100
AcDbCircle
 10
441.8308477787546
 20
1032.295342566843
 30
0.0
 40
1.85
  0
POLYLINE
  5
47BD
330
1F
100
AcDbEntity
  8
0
100
AcDb2dPolyline
 66
     1
 10
0.0
 20
0.0
 30
0.0
 70
     1
  0
VERTEX
  5
47BE
330
47BD
100
AcDbEntity
  8
0
100
AcDbVertex
100
AcDb2dVertex
 10
441.8308477787546
 20
1030.851966893869
 30
0.0
  0
VERTEX
  5
47BF
330
47BD
100
AcDbEntity
  8
0
100
AcDbVertex
100
AcDb2dVertex
 10
443.0808477787547
 20
1031.573654730356
 30
0.0
  0
VERTEX
  5
47C0
330
47BD
100
AcDbEntity
  8
0
100
AcDbVertex
100
AcDb2dVertex
 10
443.0808477787547
 20
1033.01703040333
 30
0.0
  0
VERTEX
  5
47C1
330
47BD
100
AcDbEntity
  8
0
100
AcDbVertex
100
AcDb2dVertex
 10
441.8308477787546
 20
1033.738718239817
 30
0.0
  0
VERTEX
  5
47C2
330
47BD
100
AcDbEntity
  8
0
100
AcDbVertex
100
AcDb2dVertex
 10
440.5808477787546
 20
1033.01703040333
 30
0.0
  0
VERTEX
  5
47C3
330
47BD
100
AcDbEntity
  8
0
100
AcDbVertex
100
AcDb2dVertex
 10
440.5808477787546
 20
1031.573654730356
 30
0.0
  0
SEQEND
  5
47C4
330
47BD
100
AcDbEntity
  8
0
  0
CIRCLE
  5
47C5
330
1F
100
AcDbEntity
  8
0
100
AcDbCircle
 10
441.8308477787546
 20
1032.295342566843
 30
0.0
 40
3.5
  0
CIRCLE
  5
47C6
330
1F
100
AcDbEntity
  8
0
100
AcDbCircle
 10
457.4193050468744
 20
1032.295342566843
 30
0.0
 40
1.85
  0
POLYLINE
  5
47C7
330
1F
100
AcDbEntity
  8
0
100
AcDb2dPolyline
 66
     1
 10
0.0
 20
0.0
 30
0.0
 70
     1
  0
VERTEX
  5
47C8
330
47C7
100
AcDbEntity
  8
0
100
AcDbVertex
100
AcDb2dVertex
 10
456.1693050468744
 20
1033.01703040333
 30
0.0
  0
VERTEX
  5
47C9
330
47C7
100
AcDbEntity
  8
0
100
AcDbVertex
100
AcDb2dVertex
 10
456.1693050468744
 20
1031.573654730356
 30
0.0
  0
VERTEX
  5
47CA
330
47C7
100
AcDbEntity
  8
0
100
AcDbVertex
100
AcDb2dVertex
 10
457.4193050468744
 20
1030.851966893869
 30
0.0
  0
VERTEX
  5
47CB
330
47C7
100
AcDbEntity
  8
0
100
AcDbVertex
100
AcDb2dVertex
 10
458.6693050468745
 20
1031.573654730356
 30
0.0
  0
VERTEX
  5
47CC
330
47C7
100
AcDbEntity
  8
0
100
AcDbVertex
100
AcDb2dVertex
 10
458.6693050468745
 20
1033.01703040333
 30
0.0
  0
VERTEX
  5
47CD
330
47C7
100
AcDbEntity
  8
0
100
AcDbVertex
100
AcDb2dVertex
 10
457.4193050468744
 20
1033.738718239817
 30
0.0
  0
SEQEND
  5
47CE
330
47C7
100
AcDbEntity
  8
0
  0
CIRCLE
  5
47CF
330
1F
100
AcDbEntity
  8
0
100
AcDbCircle
 10
457.4193050468744
 20
1032.295342566843
 30
0.0
 40
3.5
  0
CIRCLE
  5
47D0
330
1F
100
AcDbEntity
  8
0
100
AcDbCircle
 10
449.6250764128142
 20
1027.795342566843
 30
0.0
 40
4.999999999999943
  0
CIRCLE
  5
47D1
330
1F
100
AcDbEntity
  8
0
  6
AM_ISO08W050x2
 62
     4
 48
0.5
100
AcDbCircle
 10
449.6250764128142
 20
1027.795342566843
 30
0.0
 40
22.99999999999994
  0
CIRCLE
  5
47D2
330
1F
100
AcDbEntity
  8
0
100
AcDbCircle
 10
449.6250764128142
 20
1027.795342566843
 30
0.0
 40
13.49999999999994
  0
CIRCLE
  5
47D3
330
1F
100
AcDbEntity
  8
0
100
AcDbCircle
 10
449.6250764128142
 20
1027.795342566843
 30
0.0
 40
15.99999999999994
  0
CIRCLE
  5
47D8
330
1F
100
AcDbEntity
  8
0
100
AcDbCircle
 10
457.4193050468742
 20
1023.295342566843
 30
0.0
 40
1.85
  0
POLYLINE
  5
47D9
330
1F
100
AcDbEntity
  8
0
100
AcDb2dPolyline
 66
     1
 10
0.0
 20
0.0
 30
0.0
 70
     1
  0
VERTEX
  5
47DA
330
47D9
100
AcDbEntity
  8
0
100
AcDbVertex
100
AcDb2dVertex
 10
457.4193050468742
 20
1024.738718239817
 30
0.0
  0
VERTEX
  5
47DB
330
47D9
100
AcDbEntity
  8
0
100
AcDbVertex
100
AcDb2dVertex
 10
456.1693050468742
 20
1024.01703040333
 30
0.0
  0
VERTEX
  5
47DC
330
47D9
100
AcDbEntity
  8
0
100
AcDbVertex
100
AcDb2dVertex
 10
456.1693050468742
 20
1022.573654730356
 30
0.0
  0
VERTEX
  5
47DD
330
47D9
100
AcDbEntity
  8
0
100
AcDbVertex
100
AcDb2dVertex
 10
457.4193050468742
 20
1021.851966893869
 30
0.0
  0
VERTEX
  5
47DE
330
47D9
100
AcDbEntity
  8
0
100
AcDbVertex
100
AcDb2dVertex
 10
458.6693050468741
 20
1022.573654730356
 30
0.0
  0
VERTEX
  5
47DF
330
47D9
100
AcDbEntity
  8
0
100
AcDbVertex
100
AcDb2dVertex
 10
458.6693050468741
 20
1024.01703040333
 30
0.0
  0
SEQEND
  5
47E0
330
47D9
100
AcDbEntity
  8
0
  0
CIRCLE
  5
47E1
330
1F
100
AcDbEntity
  8
0
100
AcDbCircle
 10
457.4193050468742
 20
1023.295342566843
 30
0.0
 40
3.5
  0
LINE
  5
47E3
330
1F
100
AcDbEntity
  8
0
100
AcDbLine
 10
479.2054753283123
 20
1032.795342566843
 30
0.0
 11
464.8237605663847
 21
1032.795342566843
 31
0.0
  0
LINE
  5
47E4
330
1F
100
AcDbEntity
  8
0
100
AcDbLine
 10
479.2054753283123
 20
1022.795342566843
 30
0.0
 11
464.8237605663847
 21
1022.795342566843
 31
0.0
  0
CIRCLE
  5
47E8
330
1F
100
AcDbEntity
  8
0
100
AcDbCircle
 10
441.8308477787544
 20
1023.295342566843
 30
0.0
 40
1.85
  0
CIRCLE
  5
47E9
330
1F
100
AcDbEntity
  8
0
100
AcDbCircle
 10
441.8308477787544
 20
1023.295342566843
 30
0.0
 40
3.5
  0
CIRCLE
  5
47EC
330
1F
100
AcDbEntity
  8
0
100
AcDbCircle
 10
449.6250764128141
 20
1018.795342566843
 30
0.0
 40
1.85
  0
POLYLINE
  5
47ED
330
1F
100
AcDbEntity
  8
0
100
AcDb2dPolyline
 66
     1
 10
0.0
 20
0.0
 30
0.0
 70
     1
  0
VERTEX
  5
47EE
330
47ED
100
AcDbEntity
  8
0
100
AcDbVertex
100
AcDb2dVertex
 10
450.8750764128141
 20
1019.51703040333
 30
0.0
  0
VERTEX
  5
47EF
330
47ED
100
AcDbEntity
  8
0
100
AcDbVertex
100
AcDb2dVertex
 10
449.6250764128141
 20
1020.238718239817
 30
0.0
  0
VERTEX
  5
47F0
330
47ED
100
AcDbEntity
  8
0
100
AcDbVertex
100
AcDb2dVertex
 10
448.375076412814
 20
1019.51703040333
 30
0.0
  0
VERTEX
  5
47F1
330
47ED
100
AcDbEntity
  8
0
100
AcDbVertex
100
AcDb2dVertex
 10
448.375076412814
 20
1018.073654730356
 30
0.0
  0
VERTEX
  5
47F2
330
47ED
100
AcDbEntity
  8
0
100
AcDbVertex
100
AcDb2dVertex
 10
449.6250764128141
 20
1017.351966893869
 30
0.0
  0
VERTEX
  5
47F3
330
47ED
100
AcDbEntity
  8
0
100
AcDbVertex
100
AcDb2dVertex
 10
450.8750764128141
 20
1018.073654730356
 30
0.0
  0
SEQEND
  5
47F4
330
47ED
100
AcDbEntity
  8
0
  0
CIRCLE
  5
47F5
330
1F
100
AcDbEntity
  8
0
100
AcDbCircle
 10
449.6250764128141
 20
1018.795342566843
 30
0.0
 40
3.5
  0
POLYLINE
  5
47F6
330
1F
100
AcDbEntity
  8
0
100
AcDb2dPolyline
 66
     1
 10
0.0
 20
0.0
 30
0.0
 70
     1
  0
VERTEX
  5
47F7
330
47F6
100
AcDbEntity
  8
0
100
AcDbVertex
100
AcDb2dVertex
 10
443.0808477787543
 20
1022.573654730356
 30
0.0
  0
VERTEX
  5
47F8
330
47F6
100
AcDbEntity
  8
0
100
AcDbVertex
100
AcDb2dVertex
 10
443.0808477787543
 20
1024.01703040333
 30
0.0
  0
VERTEX
  5
47F9
330
47F6
100
AcDbEntity
  8
0
100
AcDbVertex
100
AcDb2dVertex
 10
441.8308477787544
 20
1024.738718239817
 30
0.0
  0
VERTEX
  5
47FA
330
47F6
100
AcDbEntity
  8
0
100
AcDbVertex
100
AcDb2dVertex
 10
440.5808477787544
 20
1024.01703040333
 30
0.0
  0
VERTEX
  5
47FB
330
47F6
100
AcDbEntity
  8
0
100
AcDbVertex
100
AcDb2dVertex
 10
440.5808477787544
 20
1022.573654730356
 30
0.0
  0
VERTEX
  5
47FC
330
47F6
100
AcDbEntity
  8
0
100
AcDbVertex
100
AcDb2dVertex
 10
441.8308477787544
 20
1021.851966893869
 30
0.0
  0
SEQEND
  5
47FD
330
47F6
100
AcDbEntity
  8
0
  0
LINE
  5
4803
330
1F
100
AcDbEntity
  8
0
100
AcDbLine
 10
434.4263922592435
 20
1032.795342566843
 30
0.0
 11
420.0446774973158
 21
1032.795342566843
 31
0.0
  0
LINE
  5
4804
330
1F
100
AcDbEntity
  8
0
100
AcDbLine
 10
434.4263922592435
 20
1022.795342566843
 30
0.0
 11
420.0446774973158
 21
1022.795342566843
 31
0.0
  0
CIRCLE
  5
4808
330
1F
100
AcDbEntity
  8
0
100
AcDbCircle
 10
449.6250764128147
 20
1036.795342566843
 30
0.0
 40
1.85
  0
POLYLINE
  5
4809
330
1F
100
AcDbEntity
  8
0
100
AcDb2dPolyline
 66
     1
 10
0.0
 20
0.0
 30
0.0
 70
     1
  0
VERTEX
  5
480A
330
4809
100
AcDbEntity
  8
0
100
AcDbVertex
100
AcDb2dVertex
 10
448.3750764128147
 20
1036.073654730356
 30
0.0
  0
VERTEX
  5
480B
330
4809
100
AcDbEntity
  8
0
100
AcDbVertex
100
AcDb2dVertex
 10
449.6250764128147
 20
1035.351966893869
 30
0.0
  0
VERTEX
  5
480C
330
4809
100
AcDbEntity
  8
0
100
AcDbVertex
100
AcDb2dVertex
 10
450.8750764128146
 20
1036.073654730356
 30
0.0
  0
VERTEX
  5
480D
330
4809
100
AcDbEntity
  8
0
100
AcDbVertex
100
AcDb2dVertex
 10
450.8750764128146
 20
1037.51703040333
 30
0.0
  0
VERTEX
  5
480E
330
4809
100
AcDbEntity
  8
0
100
AcDbVertex
100
AcDb2dVertex
 10
449.6250764128147
 20
1038.238718239817
 30
0.0
  0
VERTEX
  5
480F
330
4809
100
AcDbEntity
  8
0
100
AcDbVertex
100
AcDb2dVertex
 10
448.3750764128147
 20
1037.51703040333
 30
0.0
  0
SEQEND
  5
4810
330
4809
100
AcDbEntity
  8
0
  0
CIRCLE
  5
4811
330
1F
100
AcDbEntity
  8
0
100
AcDbCircle
 10
449.6250764128147
 20
1036.795342566843
 30
0.0
 40
3.5
  0
LINE
  5
481C
330
1F
100
AcDbEntity
  8
0
100
AcDbLine
 10
513.6250764128142
 20
901.5625456237735
 30
0.0
 11
513.6250764128144
 21
865.0625456237735
 31
0.0
  0
LINE
  5
481D
330
1F
100
AcDbEntity
  8
0
  6
HIDDEN
 62
     3
 48
0.2
100
AcDbLine
 10
492.9250764128142
 20
893.8125456237735
 30
0.0
 11
492.9250764128143
 21
864.3125456237735
 31
0.0
  0
LINE
  5
481E
330
1F
100
AcDbEntity
  8
0
  6
HIDDEN
 62
     3
 48
0.2
100
AcDbLine
 10
493.6250764128143
 20
879.312545623773
 30
0.0
 11
493.6250764128143
 21
864.3125456237727
 31
0.0
  0
LINE
  5
4823
330
1F
100
AcDbEntity
  8
0
100
AcDbLine
 10
498.6250764128143
 20
902.3125456237746
 30
0.0
 11
498.6250764128143
 21
864.3125456237727
 31
0.0
  0
LINE
  5
4824
330
1F
100
AcDbEntity
  8
0
100
AcDbLine
 10
513.1250764128144
 20
864.5625456237736
 30
0.0
 11
498.6250764128143
 21
864.5625456237736
 31
0.0
  0
LINE
  5
4826
330
1F
100
AcDbEntity
  8
0
100
AcDbLine
 10
513.1250764128143
 20
876.4625456237732
 30
0.0
 11
513.1250764128142
 21
865.312545623774
 31
0.0
  0
LINE
  5
4827
330
1F
100
AcDbEntity
  8
0
100
AcDbLine
 10
513.1250764128142
 20
865.312545623774
 30
0.0
 11
513.3750764128142
 21
864.8125456237734
 31
0.0
  0
LINE
  5
4829
330
1F
100
AcDbEntity
  8
0
100
AcDbLine
 10
513.1250764128142
 20
864.5625456237736
 30
0.0
 11
513.6250764128142
 21
865.0625456237735
 31
0.0
  0
LINE
  5
482E
330
1F
100
AcDbEntity
  8
0
  6
HIDDEN
 62
     3
 48
0.2
100
AcDbLine
 10
495.6250764128142
 20
902.3125456237735
 30
0.0
 11
495.6250764128142
 21
893.8125456237735
 31
0.0
  0
LINE
  5
4838
330
1F
100
AcDbEntity
  8
0
100
AcDbLine
 10
513.1250764128142
 20
901.0625456237731
 30
0.0
 11
512.6250764128142
 21
901.562545623773
 31
0.0
  0
LINE
  5
4839
330
1F
100
AcDbEntity
  8
0
100
AcDbLine
 10
508.1250764128141
 20
902.0625456237736
 30
0.0
 11
508.1250764128141
 21
892.5625456237735
 31
0.0
  0
LINE
  5
483F
330
1F
100
AcDbEntity
  8
0
100
AcDbLine
 10
508.1250764128141
 20
893.0625456237731
 30
0.0
 11
512.6250764128142
 21
893.0625456237731
 31
0.0
  0
LINE
  5
4840
330
1F
100
AcDbEntity
  8
0
100
AcDbLine
 10
513.6250764128143
 20
892.5625456237735
 30
0.0
 11
508.1250764128141
 21
892.5625456237735
 31
0.0
  0
LINE
  5
4846
330
1F
100
AcDbEntity
  8
0
100
AcDbLine
 10
513.1250764128143
 20
886.4625456237732
 30
0.0
 11
513.1250764128143
 21
879.162545623773
 31
0.0
  0
LINE
  5
484A
330
1F
100
AcDbEntity
  8
0
100
AcDbLine
 10
512.6250764128142
 20
893.0625456237731
 30
0.0
 11
513.1250764128142
 21
893.562545623773
 31
0.0
  0
LINE
  5
484B
330
1F
100
AcDbEntity
  8
0
100
AcDbLine
 10
513.1250764128142
 20
893.562545623773
 30
0.0
 11
513.1250764128142
 21
901.0625456237731
 31
0.0
  0
LINE
  5
484C
330
1F
100
AcDbEntity
  8
0
100
AcDbLine
 10
513.1250764128142
 20
892.5625456237735
 30
0.0
 11
513.1250764128143
 21
889.1625456237729
 31
0.0
  0
LINE
  5
484E
330
1F
100
AcDbEntity
  8
0
100
AcDbLine
 10
508.1250764128141
 20
901.562545623773
 30
0.0
 11
512.6250764128142
 21
901.562545623773
 31
0.0
  0
LINE
  5
484F
330
1F
100
AcDbEntity
  8
0
100
AcDbLine
 10
513.1250764128142
 20
902.0625456237736
 30
0.0
 11
498.6250764128143
 21
902.0625456237736
 31
0.0
  0
LINE
  5
4850
330
1F
100
AcDbEntity
  8
0
100
AcDbLine
 10
513.1250764128142
 20
902.0625456237736
 30
0.0
 11
513.6250764128142
 21
901.5625456237735
 31
0.0
  0
CIRCLE
  5
4859
330
1F
100
AcDbEntity
  8
0
100
AcDbCircle
 10
633.8066770926693
 20
1043.795342566844
 30
0.0
 40
6.0
  0
CIRCLE
  5
485A
330
1F
100
AcDbEntity
  8
0
100
AcDbCircle
 10
633.8066770926693
 20
1043.795342566844
 30
0.0
 40
5.0
  0
ARC
  5
485B
330
1F
100
AcDbEntity
  8
AM_4
100
AcDbCircle
 10
633.8066770926693
 20
1043.795342566844
 30
0.0
 40
5.25
100
AcDbArc
 50
349.7422046037345
 51
286.6936943259215
  0
CIRCLE
  5
4865
330
1F
100
AcDbEntity
  8
0
100
AcDbCircle
 10
633.8066770926693
 20
1011.795342566843
 30
0.0
 40
6.0
  0
CIRCLE
  5
4866
330
1F
100
AcDbEntity
  8
0
100
AcDbCircle
 10
633.8066770926693
 20
1011.795342566843
 30
0.0
 40
5.0
  0
ARC
  5
4867
330
1F
100
AcDbEntity
  8
AM_4
100
AcDbCircle
 10
633.8066770926693
 20
1011.795342566843
 30
0.0
 40
5.25
100
AcDbArc
 50
73.30630567407848
 51
10.25779539626542
  0
LINE
  5
4872
330
1F
100
AcDbEntity
  8
0
100
AcDbLine
 10
636.7028732783101
 20
999.4953425668436
 30
0.0
 11
640.9028732783099
 21
999.4953425668436
 31
0.0
  0
LINE
  5
4873
330
1F
100
AcDbEntity
  8
0
100
AcDbLine
 10
636.7028732783101
 20
1056.095342566843
 30
0.0
 11
640.9028732783099
 21
1056.095342566843
 31
0.0
  0
LINE
  5
487C
330
1F
100
AcDbEntity
  8
0
100
AcDbLine
 10
513.6250764128142
 20
1061.045342566846
 30
0.0
 11
513.6250764128143
 21
994.5453425668409
 31
0.0
  0
LINE
  5
487D
330
1F
100
AcDbEntity
  8
0
100
AcDbLine
 10
513.1250764128119
 20
1052.045342566844
 30
0.0
 11
513.1250764128119
 21
1003.545342566843
 31
0.0
  0
LINE
  5
487E
330
1F
100
AcDbEntity
  8
0
100
AcDbLine
 10
498.6250764128143
 20
1061.795342566843
 30
0.0
 11
498.6250764128143
 21
993.7953425668434
 31
0.0
  0
LINE
  5
4892
330
1F
100
AcDbEntity
  8
0
100
AcDbLine
 10
508.1250764128165
 20
994.5453425668434
 30
0.0
 11
512.6250764128165
 21
994.5453425668434
 31
0.0
  0
LINE
  5
4893
330
1F
100
AcDbEntity
  8
0
100
AcDbLine
 10
508.1250764128165
 20
1003.045342566843
 30
0.0
 11
512.6250764128165
 21
1003.045342566843
 31
0.0
  0
LINE
  5
4894
330
1F
100
AcDbEntity
  8
0
100
AcDbLine
 10
498.6250764128167
 20
994.0453425668431
 30
0.0
 11
513.1250764128166
 21
994.0453425668431
 31
0.0
  0
LINE
  5
4895
330
1F
100
AcDbEntity
  8
0
100
AcDbLine
 10
513.6250764128167
 20
1003.545342566843
 30
0.0
 11
508.1250764128165
 21
1003.545342566843
 31
0.0
  0
LINE
  5
4898
330
1F
100
AcDbEntity
  8
0
100
AcDbLine
 10
508.1250764128165
 20
994.045342566843
 30
0.0
 11
508.1250764128165
 21
1003.545342566843
 31
0.0
  0
LINE
  5
489D
330
1F
100
AcDbEntity
  8
0
100
AcDbLine
 10
512.6250764128165
 20
994.5453425668434
 30
0.0
 11
513.1250764128166
 21
995.0453425668433
 31
0.0
  0
LINE
  5
489E
330
1F
100
AcDbEntity
  8
0
100
AcDbLine
 10
513.6250764128166
 20
994.545342566843
 30
0.0
 11
513.1250764128166
 21
994.0453425668431
 31
0.0
  0
LINE
  5
48A6
330
1F
100
AcDbEntity
  8
0
100
AcDbLine
 10
513.1250764128166
 20
1002.545342566843
 30
0.0
 11
512.6250764128165
 21
1003.045342566843
 31
0.0
  0
LINE
  5
48A7
330
1F
100
AcDbEntity
  8
0
100
AcDbLine
 10
513.1250764128166
 20
995.0453425668433
 30
0.0
 11
513.1250764128166
 21
1002.545342566843
 31
0.0
  0
LINE
  5
48CE
330
1F
100
AcDbEntity
  8
0
100
AcDbLine
 10
513.1250764128164
 20
1060.545342566843
 30
0.0
 11
513.1250764128166
 21
1053.045342566844
 31
0.0
  0
LINE
  5
48CF
330
1F
100
AcDbEntity
  8
0
100
AcDbLine
 10
508.1250764128165
 20
1061.545342566844
 30
0.0
 11
508.1250764128165
 21
1052.045342566844
 31
0.0
  0
LINE
  5
48D1
330
1F
100
AcDbEntity
  8
0
100
AcDbLine
 10
508.1250764128165
 20
1052.545342566843
 30
0.0
 11
512.6250764128165
 21
1052.545342566843
 31
0.0
  0
LINE
  5
48D2
330
1F
100
AcDbEntity
  8
0
100
AcDbLine
 10
513.6250764128167
 20
1052.045342566844
 30
0.0
 11
508.1250764128165
 21
1052.045342566844
 31
0.0
  0
LINE
  5
48E3
330
1F
100
AcDbEntity
  8
0
100
AcDbLine
 10
513.1250764128166
 20
1053.045342566844
 30
0.0
 11
512.6250764128165
 21
1052.545342566843
 31
0.0
  0
LINE
  5
48EA
330
1F
100
AcDbEntity
  8
0
100
AcDbLine
 10
508.1250764128165
 20
1061.045342566844
 30
0.0
 11
512.6250764128164
 21
1061.045342566844
 31
0.0
  0
LINE
  5
48EB
330
1F
100
AcDbEntity
  8
0
100
AcDbLine
 10
498.6250764128167
 20
1061.545342566843
 30
0.0
 11
513.1250764128166
 21
1061.545342566843
 31
0.0
  0
LINE
  5
48F0
330
1F
100
AcDbEntity
  8
0
100
AcDbLine
 10
512.6250764128164
 20
1061.045342566844
 30
0.0
 11
513.1250764128164
 21
1060.545342566843
 31
0.0
  0
LINE
  5
48F1
330
1F
100
AcDbEntity
  8
0
100
AcDbLine
 10
513.6250764128166
 20
1061.045342566844
 30
0.0
 11
513.1250764128166
 21
1061.545342566843
 31
0.0
  0
LINE
  5
4901
330
1F
100
AcDbEntity
  8
0
100
AcDbLine
 10
614.5566770926693
 20
995.2524493480302
 30
0.0
 11
614.5566770926682
 21
1060.338235785656
 31
0.0
  0
LINE
  5
4904
330
1F
100
AcDbEntity
  8
0
100
AcDbLine
 10
607.8066770926696
 20
997.5453425668433
 30
0.0
 11
607.8066770926696
 21
1058.045342566843
 31
0.0
  0
LINE
  5
4905
330
1F
100
AcDbEntity
  8
0
100
AcDbLine
 10
597.3066770926695
 20
1057.295342566843
 30
0.0
 11
597.3066770926692
 21
1032.795342566843
 31
0.0
  0
LINE
  5
4907
330
1F
100
AcDbEntity
  8
0
100
AcDbLine
 10
607.3066770926695
 20
998.2953425668435
 30
0.0
 11
607.3066770926695
 21
1057.295342566843
 31
0.0
  0
LINE
  5
4908
330
1F
100
AcDbEntity
  8
0
100
AcDbLine
 10
614.3066770926695
 20
994.7953425668435
 30
0.0
 11
614.3066770926682
 21
1060.795342566842
 31
0.0
  0
LINE
  5
490D
330
1F
100
AcDbEntity
  8
0
100
AcDbLine
 10
597.8066770926694
 20
997.7953425668436
 30
0.0
 11
606.8066770926695
 21
997.7953425668436
 31
0.0
  0
LINE
  5
4912
330
1F
100
AcDbEntity
  8
0
100
AcDbLine
 10
615.7637838738558
 20
994.0453425668435
 30
0.0
 11
627.5604809070287
 21
994.0453425668435
 31
0.0
  0
ARC
  5
4913
330
1F
100
AcDbEntity
  8
0
100
AcDbCircle
 10
619.306677092669
 20
998.7953425668434
 30
0.0
 40
4.75
100
AcDbArc
 50
0.0
 51
90.0
  0
POLYLINE
  5
4914
330
1F
100
AcDbEntity
  8
0
100
AcDb2dPolyline
 66
     1
 10
0.0
 20
0.0
 30
0.0
 70
     1
  0
VERTEX
  5
4915
330
4914
100
AcDbEntity
  8
0
100
AcDbVertex
100
AcDb2dVertex
 10
621.306677092669
 20
997.6406420284641
 30
0.0
  0
VERTEX
  5
4916
330
4914
100
AcDbEntity
  8
0
100
AcDbVertex
100
AcDb2dVertex
 10
621.306677092669
 20
999.9500431052226
 30
0.0
  0
VERTEX
  5
4917
330
4914
100
AcDbEntity
  8
0
100
AcDbVertex
100
AcDb2dVertex
 10
619.306677092669
 20
1001.104743643602
 30
0.0
  0
VERTEX
  5
4918
330
4914
100
AcDbEntity
  8
0
100
AcDbVertex
100
AcDb2dVertex
 10
617.3066770926689
 20
999.9500431052226
 30
0.0
  0
VERTEX
  5
4919
330
4914
100
AcDbEntity
  8
0
100
AcDbVertex
100
AcDb2dVertex
 10
617.3066770926689
 20
997.6406420284641
 30
0.0
  0
VERTEX
  5
491A
330
4914
100
AcDbEntity
  8
0
100
AcDbVertex
100
AcDb2dVertex
 10
619.3066770926689
 20
996.485941490085
 30
0.0
  0
SEQEND
  5
491B
330
4914
100
AcDbEntity
  8
0
  0
CIRCLE
  5
491D
330
1F
100
AcDbEntity
  8
0
100
AcDbCircle
 10
619.306677092669
 20
998.7953425668434
 30
0.0
 40
4.25
  0
LINE
  5
4923
330
1F
100
AcDbEntity
  8
0
100
AcDbLine
 10
615.3066770926693
 20
993.7953425668435
 30
0.0
 11
627.5604809070287
 21
993.7953425668435
 31
0.0
  0
LINE
  5
4924
330
1F
100
AcDbEntity
  8
0
100
AcDbLine
 10
614.5566770926693
 20
995.2524493480302
 30
0.0
 11
615.7637838738558
 21
994.0453425668435
 31
0.0
  0
LINE
  5
4926
330
1F
100
AcDbEntity
  8
0
100
AcDbLine
 10
614.3066770926694
 20
994.7953425668435
 30
0.0
 11
615.3066770926693
 21
993.7953425668435
 31
0.0
  0
LINE
  5
4927
330
1F
100
AcDbEntity
  8
0
100
AcDbLine
 10
608.8066770926696
 20
996.5453425668433
 30
0.0
 11
614.3066770926695
 21
996.5453425668433
 31
0.0
  0
LINE
  5
4928
330
1F
100
AcDbEntity
  8
0
100
AcDbLine
 10
607.8066770926693
 20
997.5453425668435
 30
0.0
 11
608.8066770926693
 21
996.5453425668435
 31
0.0
  0
LINE
  5
4929
330
1F
100
AcDbEntity
  8
0
100
AcDbLine
 10
606.8066770926693
 20
997.7953425668436
 30
0.0
 11
607.3066770926693
 21
998.2953425668435
 31
0.0
  0
LINE
  5
492A
330
1F
100
AcDbEntity
  8
0
100
AcDbLine
 10
608.8066770926693
 20
996.5453425668435
 30
0.0
 11
607.8066770926693
 21
997.5453425668435
 31
0.0
  0
LINE
  5
492B
330
1F
100
AcDbEntity
  8
0
100
AcDbLine
 10
606.8066770926695
 20
997.7953425668436
 30
0.0
 11
607.3066770926695
 21
998.2953425668435
 31
0.0
  0
LINE
  5
492C
330
1F
100
AcDbEntity
  8
0
100
AcDbLine
 10
619.306677092669
 20
1003.545342566843
 30
0.0
 11
614.5566770926691
 21
1003.545342566843
 31
0.0
  0
LINE
  5
492D
330
1F
100
AcDbEntity
  8
0
100
AcDbLine
 10
624.056677092669
 20
998.7953425668434
 30
0.0
 11
624.056677092669
 21
994.0453425668435
 31
0.0
  0
LINE
  5
492F
330
1F
100
AcDbEntity
  8
0
100
AcDbLine
 10
627.5604809070287
 20
993.7953425668435
 30
0.0
 11
627.5604809070289
 21
995.2953425668436
 31
0.0
  0
LINE
  5
4930
330
1F
100
AcDbEntity
  8
0
100
AcDbLine
 10
630.0604809070289
 20
993.7953425668435
 30
0.0
 11
630.0604809070289
 21
995.2953425668436
 31
0.0
  0
LINE
  5
4931
330
1F
100
AcDbEntity
  8
0
100
AcDbLine
 10
637.55287327831
 20
993.7953425668435
 30
0.0
 11
637.55287327831
 21
995.2953425668436
 31
0.0
  0
LINE
  5
4932
330
1F
100
AcDbEntity
  8
0
100
AcDbLine
 10
630.0604809070287
 20
994.0453425668435
 30
0.0
 11
637.55287327831
 21
994.0453425668435
 31
0.0
  0
LINE
  5
4933
330
1F
100
AcDbEntity
  8
0
100
AcDbLine
 10
630.0604809070287
 20
993.7953425668435
 30
0.0
 11
637.55287327831
 21
993.7953425668435
 31
0.0
  0
LINE
  5
4934
330
1F
100
AcDbEntity
  8
0
100
AcDbLine
 10
630.9104809070288
 20
999.4953425668436
 30
0.0
 11
626.7104809070287
 21
999.4953425668436
 31
0.0
  0
LINE
  5
4938
330
1F
100
AcDbEntity
  8
0
100
AcDbLine
 10
627.5604809070287
 20
995.2953425668436
 30
0.0
 11
626.7104809070287
 21
995.2953425668436
 31
0.0
  0
LINE
  5
4939
330
1F
100
AcDbEntity
  8
0
100
AcDbLine
 10
626.7104809070287
 20
995.2953425668436
 30
0.0
 11
626.7104809070287
 21
999.4953425668436
 31
0.0
  0
LINE
  5
493A
330
1F
100
AcDbEntity
  8
0
100
AcDbLine
 10
630.9104809070288
 20
995.2953425668436
 30
0.0
 11
630.0604809070287
 21
995.2953425668436
 31
0.0
  0
LINE
  5
493B
330
1F
100
AcDbEntity
  8
0
100
AcDbLine
 10
630.9104809070288
 20
995.2953425668436
 30
0.0
 11
630.9104809070288
 21
999.4953425668436
 31
0.0
  0
LINE
  5
493C
330
1F
100
AcDbEntity
  8
0
100
AcDbLine
 10
636.7028732783101
 20
995.2953425668436
 30
0.0
 11
637.55287327831
 21
995.2953425668436
 31
0.0
  0
LINE
  5
493D
330
1F
100
AcDbEntity
  8
0
100
AcDbLine
 10
636.7028732783101
 20
995.2953425668436
 30
0.0
 11
636.7028732783101
 21
999.4953425668436
 31
0.0
  0
LINE
  5
4940
330
1F
100
AcDbEntity
  8
0
100
AcDbLine
 10
607.3066770926695
 20
1009.714943651345
 30
0.0
 11
607.8066770926696
 21
1009.714943651345
 31
0.0
  0
LINE
  5
4941
330
1F
100
AcDbEntity
  8
0
100
AcDbLine
 10
637.8066770926693
 20
1014.795342566843
 30
0.0
 11
637.8066770926693
 21
1008.795342566843
 31
0.0
  0
LINE
  5
4942
330
1F
100
AcDbEntity
  8
0
100
AcDbLine
 10
629.8066770926693
 20
1014.795342566843
 30
0.0
 11
629.8066770926693
 21
1008.795342566843
 31
0.0
  0
LINE
  5
4943
330
1F
100
AcDbEntity
  8
0
100
AcDbLine
 10
600.8066770926692
 20
1057.795342566843
 30
0.0
 11
606.8066770926695
 21
1057.795342566843
 31
0.0
  0
LINE
  5
4944
330
1F
100
AcDbEntity
  8
0
100
AcDbLine
 10
597.8066770926695
 20
1057.795342566843
 30
0.0
 11
606.8066770926693
 21
1057.795342566843
 31
0.0
  0
ARC
  5
4948
330
1F
100
AcDbEntity
  8
0
100
AcDbCircle
 10
619.306677092669
 20
1056.795342566844
 30
0.0
 40
4.75
100
AcDbArc
 50
270.0
 51
0.0
  0
POLYLINE
  5
4949
330
1F
100
AcDbEntity
  8
0
100
AcDb2dPolyline
 66
     1
 10
0.0
 20
0.0
 30
0.0
 70
     1
  0
VERTEX
  5
494A
330
4949
100
AcDbEntity
  8
0
100
AcDbVertex
100
AcDb2dVertex
 10
621.306677092669
 20
1057.950043105223
 30
0.0
  0
VERTEX
  5
494B
330
4949
100
AcDbEntity
  8
0
100
AcDbVertex
100
AcDb2dVertex
 10
621.306677092669
 20
1055.640642028464
 30
0.0
  0
VERTEX
  5
494C
330
4949
100
AcDbEntity
  8
0
100
AcDbVertex
100
AcDb2dVertex
 10
619.306677092669
 20
1054.485941490085
 30
0.0
  0
VERTEX
  5
494D
330
4949
100
AcDbEntity
  8
0
100
AcDbVertex
100
AcDb2dVertex
 10
617.3066770926689
 20
1055.640642028464
 30
0.0
  0
VERTEX
  5
494E
330
4949
100
AcDbEntity
  8
0
100
AcDbVertex
100
AcDb2dVertex
 10
617.3066770926689
 20
1057.950043105223
 30
0.0
  0
VERTEX
  5
494F
330
4949
100
AcDbEntity
  8
0
100
AcDbVertex
100
AcDb2dVertex
 10
619.3066770926689
 20
1059.104743643602
 30
0.0
  0
SEQEND
  5
4950
330
4949
100
AcDbEntity
  8
0
  0
CIRCLE
  5
4951
330
1F
100
AcDbEntity
  8
0
100
AcDbCircle
 10
619.306677092669
 20
1056.795342566844
 30
0.0
 40
4.25
  0
LINE
  5
4954
330
1F
100
AcDbEntity
  8
0
100
AcDbLine
 10
630.9104809070288
 20
1060.295342566843
 30
0.0
 11
630.9104809070288
 21
1056.095342566843
 31
0.0
  0
LINE
  5
4955
330
1F
100
AcDbEntity
  8
0
100
AcDbLine
 10
626.7104809070287
 20
1060.295342566843
 30
0.0
 11
626.7104809070287
 21
1056.095342566843
 31
0.0
  0
LINE
  5
4956
330
1F
100
AcDbEntity
  8
0
100
AcDbLine
 10
636.7028732783101
 20
1060.295342566843
 30
0.0
 11
636.7028732783101
 21
1056.095342566843
 31
0.0
  0
LINE
  5
495D
330
1F
100
AcDbEntity
  8
0
100
AcDbLine
 10
607.3066770926695
 20
1045.714943651345
 30
0.0
 11
607.8066770926693
 21
1045.714943651345
 31
0.0
  0
LINE
  5
495E
330
1F
100
AcDbEntity
  8
0
100
AcDbLine
 10
619.306677092669
 20
1052.045342566844
 30
0.0
 11
614.5566770926691
 21
1052.045342566844
 31
0.0
  0
LINE
  5
495F
330
1F
100
AcDbEntity
  8
0
100
AcDbLine
 10
637.8066770926693
 20
1046.795342566844
 30
0.0
 11
637.8066770926693
 21
1040.795342566843
 31
0.0
  0
LINE
  5
4960
330
1F
100
AcDbEntity
  8
0
100
AcDbLine
 10
629.8066770926693
 20
1046.795342566843
 30
0.0
 11
629.8066770926693
 21
1040.795342566844
 31
0.0
  0
LINE
  5
4961
330
1F
100
AcDbEntity
  8
0
100
AcDbLine
 10
630.9104809070288
 20
1056.095342566843
 30
0.0
 11
626.7104809070287
 21
1056.095342566843
 31
0.0
  0
LINE
  5
4966
330
1F
100
AcDbEntity
  8
0
100
AcDbLine
 10
615.7637838738558
 20
1061.545342566843
 30
0.0
 11
627.5604809070287
 21
1061.545342566843
 31
0.0
  0
LINE
  5
4968
330
1F
100
AcDbEntity
  8
0
100
AcDbLine
 10
615.3066770926693
 20
1061.795342566843
 30
0.0
 11
627.5604809070287
 21
1061.795342566843
 31
0.0
  0
LINE
  5
4969
330
1F
100
AcDbEntity
  8
0
100
AcDbLine
 10
608.8066770926696
 20
1059.045342566843
 30
0.0
 11
614.3066770926695
 21
1059.045342566844
 31
0.0
  0
LINE
  5
496A
330
1F
100
AcDbEntity
  8
0
100
AcDbLine
 10
606.8066770926693
 20
1057.795342566843
 30
0.0
 11
607.3066770926693
 21
1057.295342566843
 31
0.0
  0
LINE
  5
496B
330
1F
100
AcDbEntity
  8
0
100
AcDbLine
 10
606.8066770926695
 20
1057.795342566843
 30
0.0
 11
607.3066770926695
 21
1057.295342566843
 31
0.0
  0
LINE
  5
496C
330
1F
100
AcDbEntity
  8
0
100
AcDbLine
 10
606.8066770926695
 20
1057.795342566843
 30
0.0
 11
607.3066770926695
 21
1057.295342566843
 31
0.0
  0
LINE
  5
496D
330
1F
100
AcDbEntity
  8
0
100
AcDbLine
 10
608.8066770926696
 20
1059.045342566843
 30
0.0
 11
607.8066770926696
 21
1058.045342566843
 31
0.0
  0
LINE
  5
496E
330
1F
100
AcDbEntity
  8
0
100
AcDbLine
 10
614.5566770926693
 20
1060.338235785657
 30
0.0
 11
615.7637838738558
 21
1061.545342566843
 31
0.0
  0
LINE
  5
496F
330
1F
100
AcDbEntity
  8
0
100
AcDbLine
 10
614.3066770926694
 20
1060.795342566843
 30
0.0
 11
615.3066770926693
 21
1061.795342566843
 31
0.0
  0
LINE
  5
4970
330
1F
100
AcDbEntity
  8
0
100
AcDbLine
 10
624.056677092669
 20
1056.795342566844
 30
0.0
 11
624.056677092669
 21
1061.545342566843
 31
0.0
  0
LINE
  5
4971
330
1F
100
AcDbEntity
  8
0
100
AcDbLine
 10
627.5604809070287
 20
1061.795342566843
 30
0.0
 11
627.5604809070289
 21
1060.295342566843
 31
0.0
  0
LINE
  5
4972
330
1F
100
AcDbEntity
  8
0
100
AcDbLine
 10
627.5604809070287
 20
1060.295342566843
 30
0.0
 11
626.7104809070287
 21
1060.295342566843
 31
0.0
  0
LINE
  5
4973
330
1F
100
AcDbEntity
  8
0
100
AcDbLine
 10
630.0604809070287
 20
1061.545342566843
 30
0.0
 11
637.55287327831
 21
1061.545342566843
 31
0.0
  0
LINE
  5
4974
330
1F
100
AcDbEntity
  8
0
100
AcDbLine
 10
630.0604809070289
 20
1061.795342566843
 30
0.0
 11
637.55287327831
 21
1061.795342566843
 31
0.0
  0
LINE
  5
4975
330
1F
100
AcDbEntity
  8
0
100
AcDbLine
 10
630.0604809070289
 20
1061.795342566843
 30
0.0
 11
630.0604809070289
 21
1060.295342566843
 31
0.0
  0
LINE
  5
4976
330
1F
100
AcDbEntity
  8
0
100
AcDbLine
 10
630.9104809070288
 20
1060.295342566843
 30
0.0
 11
630.0604809070287
 21
1060.295342566843
 31
0.0
  0
LINE
  5
4977
330
1F
100
AcDbEntity
  8
0
100
AcDbLine
 10
637.55287327831
 20
1061.795342566843
 30
0.0
 11
637.55287327831
 21
1060.295342566843
 31
0.0
  0
LINE
  5
4978
330
1F
100
AcDbEntity
  8
0
100
AcDbLine
 10
636.7028732783101
 20
1060.295342566843
 30
0.0
 11
637.55287327831
 21
1060.295342566843
 31
0.0
  0
LINE
  5
497A
330
1F
100
AcDbEntity
  8
0
100
AcDbLine
 10
652.0566770926694
 20
1060.69178917625
 30
0.0
 11
652.0566770926692
 21
994.898895957437
 31
0.0
  0
LINE
  5
497B
330
1F
100
AcDbEntity
  8
0
100
AcDbLine
 10
652.3066770926695
 20
1060.795342566843
 30
0.0
 11
652.3066770926694
 21
994.795342566844
 31
0.0
  0
LINE
  5
497D
330
1F
100
AcDbEntity
  8
0
100
AcDbLine
 10
640.05287327831
 20
993.7953425668435
 30
0.0
 11
640.05287327831
 21
995.2953425668436
 31
0.0
  0
LINE
  5
497E
330
1F
100
AcDbEntity
  8
0
100
AcDbLine
 10
640.0528732783101
 20
994.0453425668435
 30
0.0
 11
651.2031237020758
 21
994.0453425668435
 31
0.0
  0
LINE
  5
497F
330
1F
100
AcDbEntity
  8
0
100
AcDbLine
 10
640.0528732783102
 20
993.7953425668435
 30
0.0
 11
651.3066770926691
 21
993.7953425668435
 31
0.0
  0
LINE
  5
4980
330
1F
100
AcDbEntity
  8
0
100
AcDbLine
 10
652.0566770926692
 20
994.898895957437
 30
0.0
 11
651.2031237020758
 21
994.0453425668435
 31
0.0
  0
LINE
  5
4981
330
1F
100
AcDbEntity
  8
0
100
AcDbLine
 10
652.3066770926692
 20
994.7953425668435
 30
0.0
 11
651.3066770926692
 21
993.7953425668435
 31
0.0
  0
LINE
  5
4982
330
1F
100
AcDbEntity
  8
0
100
AcDbLine
 10
640.05287327831
 20
995.2953425668436
 30
0.0
 11
640.9028732783101
 21
995.2953425668436
 31
0.0
  0
LINE
  5
4983
330
1F
100
AcDbEntity
  8
0
100
AcDbLine
 10
640.9028732783101
 20
995.2953425668436
 30
0.0
 11
640.9028732783099
 21
999.4953425668436
 31
0.0
  0
ARC
  5
4984
330
1F
100
AcDbEntity
  8
0
100
AcDbCircle
 10
647.3066770926693
 20
1017.795342566843
 30
0.0
 40
4.75
100
AcDbArc
 50
90.0
 51
180.9960819051832
  0
POLYLINE
  5
4985
330
1F
100
AcDbEntity
  8
0
100
AcDb2dPolyline
 66
     1
 10
0.0
 20
0.0
 30
0.0
 70
     1
  0
VERTEX
  5
4986
330
4985
100
AcDbEntity
  8
0
100
AcDbVertex
100
AcDb2dVertex
 10
649.3066770926693
 20
1016.640642028464
 30
0.0
  0
VERTEX
  5
4987
330
4985
100
AcDbEntity
  8
0
100
AcDbVertex
100
AcDb2dVertex
 10
649.3066770926694
 20
1018.950043105222
 30
0.0
  0
VERTEX
  5
4988
330
4985
100
AcDbEntity
  8
0
100
AcDbVertex
100
AcDb2dVertex
 10
647.3066770926695
 20
1020.104743643602
 30
0.0
  0
VERTEX
  5
4989
330
4985
100
AcDbEntity
  8
0
100
AcDbVertex
100
AcDb2dVertex
 10
645.3066770926694
 20
1018.950043105222
 30
0.0
  0
VERTEX
  5
498A
330
4985
100
AcDbEntity
  8
0
100
AcDbVertex
100
AcDb2dVertex
 10
645.3066770926693
 20
1016.640642028464
 30
0.0
  0
VERTEX
  5
498B
330
4985
100
AcDbEntity
  8
0
100
AcDbVertex
100
AcDb2dVertex
 10
647.3066770926693
 20
1015.485941490085
 30
0.0
  0
SEQEND
  5
498C
330
4985
100
AcDbEntity
  8
0
  0
ARC
  5
498E
330
1F
100
AcDbEntity
  8
0
100
AcDbCircle
 10
647.3066770926693
 20
1017.795342566843
 30
0.0
 40
4.25
100
AcDbArc
 50
199.7499227956516
 51
185.1392284361565
  0
LINE
  5
4991
330
1F
100
AcDbEntity
  8
0
100
AcDbLine
 10
647.3066770926693
 20
1013.045342566843
 30
0.0
 11
652.0566770926691
 21
1013.045342566843
 31
0.0
  0
LINE
  5
4992
330
1F
100
AcDbEntity
  8
0
100
AcDbLine
 10
647.3066770926693
 20
1022.545342566843
 30
0.0
 11
652.0566770926691
 21
1022.545342566843
 31
0.0
  0
LINE
  5
4994
330
1F
100
AcDbEntity
  8
0
100
AcDbLine
 10
640.9028732783101
 20
1060.295342566843
 30
0.0
 11
640.9028732783099
 21
1056.095342566843
 31
0.0
  0
ARC
  5
4995
330
1F
100
AcDbEntity
  8
0
100
AcDbCircle
 10
647.3066770926693
 20
1037.795342566844
 30
0.0
 40
4.75
100
AcDbArc
 50
90.0
 51
147.3631024964419
  0
POLYLINE
  5
4996
330
1F
100
AcDbEntity
  8
0
100
AcDb2dPolyline
 66
     1
 10
0.0
 20
0.0
 30
0.0
 70
     1
  0
VERTEX
  5
4997
330
4996
100
AcDbEntity
  8
0
100
AcDbVertex
100
AcDb2dVertex
 10
649.3066770926693
 20
1038.950043105223
 30
0.0
  0
VERTEX
  5
4998
330
4996
100
AcDbEntity
  8
0
100
AcDbVertex
100
AcDb2dVertex
 10
649.3066770926694
 20
1036.640642028465
 30
0.0
  0
VERTEX
  5
4999
330
4996
100
AcDbEntity
  8
0
100
AcDbVertex
100
AcDb2dVertex
 10
647.3066770926695
 20
1035.485941490085
 30
0.0
  0
VERTEX
  5
499A
330
4996
100
AcDbEntity
  8
0
100
AcDbVertex
100
AcDb2dVertex
 10
645.3066770926694
 20
1036.640642028464
 30
0.0
  0
VERTEX
  5
499B
330
4996
100
AcDbEntity
  8
0
100
AcDbVertex
100
AcDb2dVertex
 10
645.3066770926693
 20
1038.950043105223
 30
0.0
  0
VERTEX
  5
499C
330
4996
100
AcDbEntity
  8
0
100
AcDbVertex
100
AcDb2dVertex
 10
647.3066770926693
 20
1040.104743643602
 30
0.0
  0
SEQEND
  5
499D
330
4996
100
AcDbEntity
  8
0
  0
ARC
  5
499F
330
1F
100
AcDbEntity
  8
0
100
AcDbCircle
 10
647.3066770926693
 20
1037.795342566844
 30
0.0
 40
4.25
100
AcDbArc
 50
174.8607715748985
 51
160.2500772043484
  0
LINE
  5
49A1
330
1F
100
AcDbEntity
  8
0
100
AcDbLine
 10
647.3066770926693
 20
1042.545342566844
 30
0.0
 11
652.0566770926691
 21
1042.545342566844
 31
0.0
  0
LINE
  5
49A2
330
1F
100
AcDbEntity
  8
0
100
AcDbLine
 10
647.3066770926693
 20
1033.045342566843
 30
0.0
 11
652.0566770926691
 21
1033.045342566843
 31
0.0
  0
LINE
  5
49A3
330
1F
100
AcDbEntity
  8
0
100
AcDbLine
 10
640.0528732783101
 20
1061.545342566843
 30
0.0
 11
651.2031237020758
 21
1061.545342566843
 31
0.0
  0
LINE
  5
49A4
330
1F
100
AcDbEntity
  8
0
100
AcDbLine
 10
640.05287327831
 20
1061.795342566843
 30
0.0
 11
651.3066770926691
 21
1061.795342566843
 31
0.0
  0
LINE
  5
49A5
330
1F
100
AcDbEntity
  8
0
100
AcDbLine
 10
640.05287327831
 20
1061.795342566843
 30
0.0
 11
640.05287327831
 21
1060.295342566843
 31
0.0
  0
LINE
  5
49A6
330
1F
100
AcDbEntity
  8
0
100
AcDbLine
 10
640.05287327831
 20
1060.295342566843
 30
0.0
 11
640.9028732783101
 21
1060.295342566843
 31
0.0
  0
LINE
  5
49A7
330
1F
100
AcDbEntity
  8
0
100
AcDbLine
 10
652.0566770926692
 20
1060.69178917625
 30
0.0
 11
651.2031237020758
 21
1061.545342566843
 31
0.0
  0
LINE
  5
49A8
330
1F
100
AcDbEntity
  8
0
100
AcDbLine
 10
652.3066770926692
 20
1060.795342566843
 30
0.0
 11
651.3066770926692
 21
1061.795342566843
 31
0.0
  0
LINE
  5
4BB4
330
1F
100
AcDbEntity
  8
AM_7
100
AcDbLine
 10
595.2184728704788
 20
1027.795342566843
 30
0.0
 11
654.2338821187565
 21
1027.795342566843
 31
0.0
  0
LINE
  5
4BB5
330
1F
100
AcDbEntity
  8
0
  6
HIDDEN
 62
     3
 48
0.2
100
AcDbLine
 10
600.3066770926692
 20
1032.795342566843
 30
0.0
 11
600.3066770926694
 21
1043.795342566843
 31
0.0
  0
LINE
  5
4BB6
330
1F
100
AcDbEntity
  8
0
  6
HIDDEN
 62
     3
 48
0.2
100
AcDbLine
 10
603.8066770926692
 20
1014.295342566843
 30
0.0
 11
603.8066770926694
 21
1041.295342566843
 31
0.0
  0
LINE
  5
4BB7
330
1F
100
AcDbEntity
  8
0
  6
HIDDEN
 62
     3
 48
0.2
100
AcDbLine
 10
600.3066770926692
 20
1011.795342566844
 30
0.0
 11
600.3066770926692
 21
1022.795342566843
 31
0.0
  0
LINE
  5
4BB8
330
1F
100
AcDbEntity
  8
0
  6
HIDDEN
 62
     3
 48
0.2
100
AcDbLine
 10
600.3066770926692
 20
1014.295342566843
 30
0.0
 11
603.8066770926692
 21
1014.295342566843
 31
0.0
  0
LINE
  5
4BB9
330
1F
100
AcDbEntity
  8
0
  6
HIDDEN
 62
     3
 48
0.2
100
AcDbLine
 10
597.3066770926692
 20
1011.795342566843
 30
0.0
 11
600.3066770926692
 21
1011.795342566844
 31
0.0
  0
LINE
  5
4BBA
330
1F
100
AcDbEntity
  8
0
100
AcDbLine
 10
600.8066770926692
 20
1022.795342566843
 30
0.0
 11
600.8066770926692
 21
1032.795342566843
 31
0.0
  0
LINE
  5
4BBB
330
1F
100
AcDbEntity
  8
0
100
AcDbLine
 10
597.3066770926693
 20
1022.795342566843
 30
0.0
 11
600.8066770926692
 21
1022.795342566843
 31
0.0
  0
LINE
  5
4BBC
330
1F
100
AcDbEntity
  8
0
100
AcDbLine
 10
597.3066770926693
 20
1032.795342566843
 30
0.0
 11
600.8066770926692
 21
1032.795342566843
 31
0.0
  0
LINE
  5
4BBD
330
1F
100
AcDbEntity
  8
0
  6
HIDDEN
 62
     3
 48
0.2
100
AcDbLine
 10
600.3066770926694
 20
1041.295342566843
 30
0.0
 11
603.8066770926694
 21
1041.295342566843
 31
0.0
  0
LINE
  5
4BBE
330
1F
100
AcDbEntity
  8
0
  6
HIDDEN
 62
     3
 48
0.2
100
AcDbLine
 10
597.3066770926692
 20
1043.795342566843
 30
0.0
 11
600.3066770926694
 21
1043.795342566843
 31
0.0
  0
LINE
  5
4BCB
330
1F
100
AcDbEntity
  8
0
100
AcDbLine
 10
597.3066770926693
 20
1022.795342566843
 30
0.0
 11
597.3066770926693
 21
998.2953425668435
 31
0.0
  0
LINE
  5
4BD9
330
1F
100
AcDbEntity
  8
AM_7
100
AcDbLine
 10
290.0865174159568
 20
1027.795342566843
 30
0.0
 11
351.9450769711257
 21
1027.795342566843
 31
0.0
1001
GENIUS_GENOBJ-N-CEN_13
1002
{
1000
OWNER
1000
GEN
1002
}
1001
GENIUS_GENODEF_13
1002
{
1000
HIER
1070
     0
1002
}
1002
{
1000
MANEDIT
1070
     0
1002
}
1002
{
1000
NOSEL
1070
     0
1002
}
1002
{
1000
BEHIND
1070
     0
1002
}
1002
{
1000
OTHER
1070
     0
1002
}
1002
{
1000
REACTOR
1002
}
1001
GENIUS_GENCEN_19
1002
{
1040
2.0
1002
}
  0
LINE
  5
4BE7
330
1F
100
AcDbEntity
  8
AM_7
100
AcDbLine
 10
449.6250764128142
 20
1027.795342566843
 30
0.0
 11
516.6856454454241
 21
1027.795342566843
 31
0.0
1001
GENIUS_GENOREF_13
1005
4BEB
  0
LINE
  5
4BE8
330
1F
100
AcDbEntity
  8
AM_7
100
AcDbLine
 10
449.6250764128142
 20
1027.795342566843
 30
0.0
 11
449.6250764128142
 21
1065.280192951164
 31
0.0
1001
GENIUS_GENOREF_13
1005
4BEB
  0
LINE
  5
4BE9
330
1F
100
AcDbEntity
  8
AM_7
100
AcDbLine
 10
449.6250764128142
 20
1027.795342566843
 30
0.0
 11
384.0433652410234
 21
1027.795342566843
 31
0.0
1001
GENIUS_GENOREF_13
1005
4BEB
  0
LINE
  5
4BEA
330
1F
100
AcDbEntity
  8
AM_7
100
AcDbLine
 10
449.6250764128142
 20
1027.795342566843
 30
0.0
 11
449.6250764128142
 21
990.3104921825223
 31
0.0
1001
GENIUS_GENOREF_13
1005
4BEB
  0
POINT
  5
4BEB
330
1F
100
AcDbEntity
  8
0
 60
     1
100
AcDbPoint
 10
0.0
 20
0.0
 30
0.0
1001
GENIUS_GENOLIS_13
1002
{
1000
ENT
1005
4BEA
1005
4BE9
1005
4BE8
1005
4BE7
1002
}
1001
GENIUS_GENOENT_13
1002
{
1000
MYREF
1005
4BEB
1002
}
1002
{
1000
GRP
1005
0
1002
}
1001
GENIUS_GENOBJ-N-CRS_13
1002
{
1000
OWNER
1000
GEN
1002
}
1001
GENIUS_GENODEF_13
1002
{
1000
HIER
1070
    10
1002
}
1002
{
1000
MANEDIT
1070
     0
1002
}
1002
{
1000
NOSEL
1070
     0
1002
}
1002
{
1000
BEHIND
1070
     0
1002
}
1002
{
1000
OTHER
1070
     0
1002
}
1002
{
1000
REACTOR
1002
}
  0
LINE
  5
4D44
330
1F
100
AcDbEntity
  8
0
100
AcDbLine
 10
420.1250764128142
 20
919.3125456237737
 30
0.0
 11
420.0446774973161
 21
919.2321467082756
 31
0.0
  0
LINE
  5
4D45
330
1F
100
AcDbEntity
  8
0
100
AcDbLine
 10
420.0446774973161
 20
915.8125456237737
 30
0.0
 11
419.6250764128142
 21
915.8125456237737
 31
0.0
  0
LINE
  5
4D46
330
1F
100
AcDbEntity
  8
0
100
AcDbLine
 10
420.0446774973161
 20
919.2321467082756
 30
0.0
 11
420.0446774973161
 21
915.8125456237737
 31
0.0
  0
LINE
  5
4D47
330
1F
100
AcDbEntity
  8
0
100
AcDbLine
 10
479.1250764128142
 20
919.3125456237737
 30
0.0
 11
479.2054753283123
 21
919.2321467082756
 31
0.0
  0
LINE
  5
4D48
330
1F
100
AcDbEntity
  8
0
100
AcDbLine
 10
479.2054753283123
 20
915.8125456237737
 30
0.0
 11
479.6250764128142
 21
915.8125456237737
 31
0.0
  0
LINE
  5
4D49
330
1F
100
AcDbEntity
  8
0
100
AcDbLine
 10
479.2054753283123
 20
919.2321467082756
 30
0.0
 11
479.2054753283123
 21
915.8125456237737
 31
0.0
  0
LINE
  5
4D4A
330
1F
100
AcDbEntity
  8
0
100
AcDbLine
 10
597.3066770926693
 20
998.2953425668435
 30
0.0
 11
597.8066770926694
 21
997.7953425668436
 31
0.0
  0
LINE
  5
4D4B
330
1F
100
AcDbEntity
  8
0
100
AcDbLine
 10
597.3066770926695
 20
1057.295342566843
 30
0.0
 11
597.8066770926695
 21
1057.795342566843
 31
0.0
  0
LINE
  5
4D4C
330
1F
100
AcDbEntity
  8
0
100
AcDbLine
 10
346.5865174159568
 20
997.7953425668436
 30
0.0
 11
347.0865174159568
 21
998.2953425668435
 31
0.0
  0
LINE
  5
4D4D
330
1F
100
AcDbEntity
  8
0
100
AcDbLine
 10
346.5865174159568
 20
1057.795342566843
 30
0.0
 11
347.0865174159567
 21
1057.295342566843
 31
0.0
  0
ARC
  5
4D4F
330
1F
100
AcDbEntity
  8
AM_4
100
AcDbCircle
 10
465.8885323801047
 20
1044.058798534134
 30
0.0
 40
3.0
100
AcDbArc
 50
305.0
 51
215.0
  0
CIRCLE
  5
4D50
330
1F
100
AcDbEntity
  8
AM_0
100
AcDbCircle
 10
465.8885323801047
 20
1044.058798534134
 30
0.0
 40
2.45873412263477
  0
LINE
  5
4D51
330
1F
100
AcDbEntity
  8
AM_7
  6
AM_ISO08W050x2
100
AcDbLine
 10
462.3529984741721
 20
1040.523264628201
 30
0.0
 11
469.4240662860376
 21
1047.594332440066
 31
0.0
  0
LINE
  5
4D52
330
1F
100
AcDbEntity
  8
AM_7
  6
AM_ISO08W050x2
100
AcDbLine
 10
469.4240662860375
 20
1040.523264628201
 30
0.0
 11
462.352998474172
 21
1047.594332440066
 31
0.0
  0
ARC
  5
4D5F
330
1F
100
AcDbEntity
  8
AM_4
100
AcDbCircle
 10
433.3616204455234
 20
1044.058798534134
 30
0.0
 40
3.0
100
AcDbArc
 50
35.00000000000003
 51
304.9999999999999
  0
CIRCLE
  5
4D60
330
1F
100
AcDbEntity
  8
AM_0
100
AcDbCircle
 10
433.3616204455234
 20
1044.058798534134
 30
0.0
 40
2.45873412263477
  0
LINE
  5
4D61
330
1F
100
AcDbEntity
  8
AM_7
  6
AM_ISO08W050x2
100
AcDbLine
 10
436.8971543514565
 20
1040.523264628201
 30
0.0
 11
429.8260865395909
 21
1047.594332440066
 31
0.0
  0
LINE
  5
4D62
330
1F
100
AcDbEntity
  8
AM_7
  6
AM_ISO08W050x2
100
AcDbLine
 10
436.8971543514562
 20
1047.594332440066
 30
0.0
 11
429.8260865395909
 21
1040.523264628201
 31
0.0
  0
ARC
  5
4D63
330
1F
100
AcDbEntity
  8
AM_4
100
AcDbCircle
 10
433.3616204455238
 20
1011.531886599553
 30
0.0
 40
3.0
100
AcDbArc
 50
124.9999999999999
 51
34.99999999999996
  0
CIRCLE
  5
4D64
330
1F
100
AcDbEntity
  8
AM_0
100
AcDbCircle
 10
433.3616204455238
 20
1011.531886599553
 30
0.0
 40
2.45873412263477
  0
LINE
  5
4D65
330
1F
100
AcDbEntity
  8
AM_7
  6
AM_ISO08W050x2
100
AcDbLine
 10
436.8971543514565
 20
1015.067420505486
 30
0.0
 11
429.826086539591
 21
1007.99635269362
 31
0.0
  0
LINE
  5
4D66
330
1F
100
AcDbEntity
  8
AM_7
  6
AM_ISO08W050x2
100
AcDbLine
 10
429.8260865395912
 20
1015.067420505485
 30
0.0
 11
436.8971543514565
 21
1007.99635269362
 31
0.0
  0
ARC
  5
4D67
330
1F
100
AcDbEntity
  8
AM_4
100
AcDbCircle
 10
465.8885323801048
 20
1011.531886599553
 30
0.0
 40
3.0
100
AcDbArc
 50
215.0
 51
124.9999999999999
  0
CIRCLE
  5
4D68
330
1F
100
AcDbEntity
  8
AM_0
100
AcDbCircle
 10
465.8885323801048
 20
1011.531886599553
 30
0.0
 40
2.45873412263477
  0
LINE
  5
4D69
330
1F
100
AcDbEntity
  8
AM_7
  6
AM_ISO08W050x2
100
AcDbLine
 10
462.352998474172
 20
1015.067420505485
 30
0.0
 11
469.4240662860376
 21
1007.99635269362
 31
0.0
  0
LINE
  5
4D6A
330
1F
100
AcDbEntity
  8
AM_7
  6
AM_ISO08W050x2
100
AcDbLine
 10
462.3529984741723
 20
1007.99635269362
 30
0.0
 11
469.4240662860376
 21
1015.067420505485
 31
0.0
  0
ARC
  5
4D9A
330
1F
100
AcDbEntity
  8
AM_4
100
AcDbCircle
 10
472.6250764128142
 20
1027.795342566843
 30
0.0
 40
2.0
100
AcDbArc
 50
260.0
 51
170.0
  0
CIRCLE
  5
4D9B
330
1F
100
AcDbEntity
  8
AM_0
100
AcDbCircle
 10
472.6250764128142
 20
1027.795342566843
 30
0.0
 40
1.621113885844339
  0
LINE
  5
4D9C
330
1F
100
AcDbEntity
  8
AM_7
  6
AM_ISO08W050x2
100
AcDbLine
 10
468.6250764128142
 20
1027.795342566843
 30
0.0
 11
476.6250764128142
 21
1027.795342566843
 31
0.0
  0
LINE
  5
4D9D
330
1F
100
AcDbEntity
  8
AM_7
  6
AM_ISO08W050x2
100
AcDbLine
 10
472.6250764128142
 20
1023.795342566843
 30
0.0
 11
472.6250764128142
 21
1031.795342566843
 31
0.0
  0
ARC
  5
4D9E
330
1F
100
AcDbEntity
  8
AM_4
100
AcDbCircle
 10
426.6250764128143
 20
1027.795342566843
 30
0.0
 40
2.0
100
AcDbArc
 50
260.0
 51
170.0
  0
CIRCLE
  5
4D9F
330
1F
100
AcDbEntity
  8
AM_0
100
AcDbCircle
 10
426.6250764128143
 20
1027.795342566843
 30
0.0
 40
1.621113885844339
  0
LINE
  5
4DA0
330
1F
100
AcDbEntity
  8
AM_7
  6
AM_ISO08W050x2
100
AcDbLine
 10
422.6250764128143
 20
1027.795342566843
 30
0.0
 11
430.6250764128143
 21
1027.795342566843
 31
0.0
  0
LINE
  5
4DA1
330
1F
100
AcDbEntity
  8
AM_7
  6
AM_ISO08W050x2
100
AcDbLine
 10
426.6250764128143
 20
1023.795342566843
 30
0.0
 11
426.6250764128143
 21
1031.795342566843
 31
0.0
  0
ARC
  5
4DB3
330
1F
100
AcDbEntity
  8
AM_4
100
AcDbCircle
 10
410.6250764128143
 20
1051.295342566843
 30
0.0
 40
3.0
100
AcDbArc
 50
260.0
 51
170.0
  0
CIRCLE
  5
4DB4
330
1F
100
AcDbEntity
  8
AM_0
100
AcDbCircle
 10
410.6250764128143
 20
1051.295342566843
 30
0.0
 40
2.45873412263477
  0
LINE
  5
4DB5
330
1F
100
AcDbEntity
  8
AM_7
  6
AM_ISO08W050x2
100
AcDbLine
 10
405.6250764128142
 20
1051.295342566843
 30
0.0
 11
415.6250764128142
 21
1051.295342566843
 31
0.0
  0
LINE
  5
4DB6
330
1F
100
AcDbEntity
  8
AM_7
  6
AM_ISO08W050x2
100
AcDbLine
 10
410.6250764128143
 20
1046.295342566843
 30
0.0
 11
410.6250764128143
 21
1056.295342566843
 31
0.0
  0
ARC
  5
4DB7
330
1F
100
AcDbEntity
  8
AM_4
100
AcDbCircle
 10
410.6250764128143
 20
1004.295342566843
 30
0.0
 40
3.0
100
AcDbArc
 50
260.0
 51
170.0
  0
CIRCLE
  5
4DB8
330
1F
100
AcDbEntity
  8
AM_0
100
AcDbCircle
 10
410.6250764128143
 20
1004.295342566843
 30
0.0
 40
2.45873412263477
  0
LINE
  5
4DB9
330
1F
100
AcDbEntity
  8
AM_7
  6
AM_ISO08W050x2
100
AcDbLine
 10
405.6250764128142
 20
1004.295342566843
 30
0.0
 11
415.6250764128142
 21
1004.295342566843
 31
0.0
  0
LINE
  5
4DBA
330
1F
100
AcDbEntity
  8
AM_7
  6
AM_ISO08W050x2
100
AcDbLine
 10
410.6250764128143
 20
999.2953425668433
 30
0.0
 11
410.6250764128143
 21
1009.295342566843
 31
0.0
  0
ARC
  5
4DBB
330
1F
100
AcDbEntity
  8
AM_4
100
AcDbCircle
 10
488.6250764128142
 20
1051.295342566843
 30
0.0
 40
3.0
100
AcDbArc
 50
260.0
 51
170.0
  0
CIRCLE
  5
4DBC
330
1F
100
AcDbEntity
  8
AM_0
100
AcDbCircle
 10
488.6250764128142
 20
1051.295342566843
 30
0.0
 40
2.45873412263477
  0
LINE
  5
4DBD
330
1F
100
AcDbEntity
  8
AM_7
  6
AM_ISO08W050x2
100
AcDbLine
 10
483.6250764128142
 20
1051.295342566843
 30
0.0
 11
493.6250764128143
 21
1051.295342566843
 31
0.0
  0
LINE
  5
4DBE
330
1F
100
AcDbEntity
  8
AM_7
  6
AM_ISO08W050x2
100
AcDbLine
 10
488.6250764128142
 20
1046.295342566843
 30
0.0
 11
488.6250764128142
 21
1056.295342566843
 31
0.0
  0
ARC
  5
4DBF
330
1F
100
AcDbEntity
  8
AM_4
100
AcDbCircle
 10
488.6250764128142
 20
1004.295342566843
 30
0.0
 40
3.0
100
AcDbArc
 50
260.0
 51
170.0
  0
CIRCLE
  5
4DC0
330
1F
100
AcDbEntity
  8
AM_0
100
AcDbCircle
 10
488.6250764128142
 20
1004.295342566843
 30
0.0
 40
2.45873412263477
  0
LINE
  5
4DC1
330
1F
100
AcDbEntity
  8
AM_7
  6
AM_ISO08W050x2
100
AcDbLine
 10
483.6250764128142
 20
1004.295342566843
 30
0.0
 11
493.6250764128143
 21
1004.295342566843
 31
0.0
  0
LINE
  5
4DC2
330
1F
100
AcDbEntity
  8
AM_7
  6
AM_ISO08W050x2
100
AcDbLine
 10
488.6250764128142
 20
999.2953425668433
 30
0.0
 11
488.6250764128142
 21
1009.295342566843
 31
0.0
  0
LINE
  5
4DD4
330
1F
100
AcDbEntity
  8
AM_7
  6
AM_ISO08W050x2
100
AcDbLine
 10
310.5865174159569
 20
1041.295342566843
 30
0.0
 11
317.436517415957
 21
1041.295342566843
 31
0.0
1001
GENIUS_GENOREF_13
1005
4DD8
  0
LINE
  5
4DD5
330
1F
100
AcDbEntity
  8
AM_7
  6
AM_ISO08W050x2
100
AcDbLine
 10
310.5865174159569
 20
1041.295342566843
 30
0.0
 11
310.5865174159569
 21
1048.145342566843
 31
0.0
1001
GENIUS_GENOREF_13
1005
4DD8
  0
LINE
  5
4DD6
330
1F
100
AcDbEntity
  8
AM_7
  6
AM_ISO08W050x2
100
AcDbLine
 10
310.5865174159569
 20
1041.295342566843
 30
0.0
 11
303.7365174159569
 21
1041.295342566843
 31
0.0
1001
GENIUS_GENOREF_13
1005
4DD8
  0
LINE
  5
4DD7
330
1F
100
AcDbEntity
  8
AM_7
  6
AM_ISO08W050x2
100
AcDbLine
 10
310.5865174159569
 20
1041.295342566843
 30
0.0
 11
310.5865174159569
 21
1034.445342566843
 31
0.0
1001
GENIUS_GENOREF_13
1005
4DD8
  0
POINT
  5
4DD8
330
1F
100
AcDbEntity
  8
0
 60
     1
100
AcDbPoint
 10
0.0
 20
0.0
 30
0.0
1001
GENIUS_GENODEF_13
1002
{
1000
HIER
1070
    10
1002
}
1002
{
1000
MANEDIT
1070
     0
1002
}
1002
{
1000
NOSEL
1070
     0
1002
}
1002
{
1000
BEHIND
1070
     0
1002
}
1002
{
1000
OTHER
1070
     0
1002
}
1002
{
1000
REACTOR
1002
}
1001
GENIUS_GENOENT_13
1002
{
1000
MYREF
1005
4DD8
1002
}
1002
{
1000
GRP
1005
0
1002
}
1001
GENIUS_GENOBJ-N-CRS_13
1002
{
1000
OWNER
1000
GEN
1002
}
1001
GENIUS_GENOLIS_13
1002
{
1000
ENT
1005
4DD7
1005
4DD6
1005
4DD5
1005
4DD4
1002
}
  0
ARC
  5
4DE0
330
1F
100
AcDbEntity
  8
AM_4
100
AcDbCircle
 10
310.5865174159569
 20
1014.295342566843
 30
0.0
 40
4.849999999999999
100
AcDbArc
 50
256.5446733623765
 51
192.123027893342
  0
CIRCLE
  5
4DE1
330
1F
100
AcDbEntity
  8
0
100
AcDbCircle
 10
310.5865174159569
 20
1014.295342566843
 30
0.0
 40
4.25
  0
LINE
  5
4DE2
330
1F
100
AcDbEntity
  8
AM_7
  6
AM_ISO08W050x2
100
AcDbLine
 10
310.5865174159569
 20
1014.295342566843
 30
0.0
 11
317.436517415957
 21
1014.295342566843
 31
0.0
1001
GENIUS_GENOREF_13
1005
4DE6
  0
LINE
  5
4DE3
330
1F
100
AcDbEntity
  8
AM_7
  6
AM_ISO08W050x2
100
AcDbLine
 10
310.5865174159569
 20
1014.295342566843
 30
0.0
 11
310.5865174159569
 21
1021.145342566843
 31
0.0
1001
GENIUS_GENOREF_13
1005
4DE6
  0
LINE
  5
4DE4
330
1F
100
AcDbEntity
  8
AM_7
  6
AM_ISO08W050x2
100
AcDbLine
 10
310.5865174159569
 20
1014.295342566843
 30
0.0
 11
303.7365174159569
 21
1014.295342566843
 31
0.0
1001
GENIUS_GENOREF_13
1005
4DE6
  0
LINE
  5
4DE5
330
1F
100
AcDbEntity
  8
AM_7
  6
AM_ISO08W050x2
100
AcDbLine
 10
310.5865174159569
 20
1014.295342566843
 30
0.0
 11
310.5865174159569
 21
1007.445342566843
 31
0.0
1001
GENIUS_GENOREF_13
1005
4DE6
  0
POINT
  5
4DE6
330
1F
100
AcDbEntity
  8
0
 60
     1
100
AcDbPoint
 10
0.0
 20
-27.0
 30
0.0
1001
GENIUS_GENODEF_13
1002
{
1000
HIER
1070
    10
1002
}
1002
{
1000
MANEDIT
1070
     0
1002
}
1002
{
1000
NOSEL
1070
     0
1002
}
1002
{
1000
BEHIND
1070
     0
1002
}
1002
{
1000
OTHER
1070
     0
1002
}
1002
{
1000
REACTOR
1002
}
1001
GENIUS_GENOENT_13
1002
{
1000
MYREF
1005
4DE6
1002
}
1002
{
1000
GRP
1005
0
1002
}
1001
GENIUS_GENOBJ-N-CRS_13
1002
{
1000
OWNER
1000
GEN
1002
}
1001
GENIUS_GENOLIS_13
1002
{
1000
ENT
1005
4DE5
1005
4DE4
1005
4DE3
1005
4DE2
1002
}
  0
LINE
  5
4E8D
330
1F
100
AcDbEntity
  8
0
  6
HIDDEN
 62
     3
 48
0.2
100
AcDbLine
 10
344.0865174159569
 20
1032.795342566843
 30
0.0
 11
344.0865174159567
 21
1043.795342566843
 31
0.0
  0
LINE
  5
4E8E
330
1F
100
AcDbEntity
  8
0
  6
HIDDEN
 62
     3
 48
0.2
100
AcDbLine
 10
340.586517415957
 20
1014.295342566843
 30
0.0
 11
340.5865174159568
 21
1041.295342566843
 31
0.0
  0
LINE
  5
4E8F
330
1F
100
AcDbEntity
  8
0
  6
HIDDEN
 62
     3
 48
0.2
100
AcDbLine
 10
344.0865174159569
 20
1011.795342566844
 30
0.0
 11
344.0865174159569
 21
1022.795342566843
 31
0.0
  0
LINE
  5
4E90
330
1F
100
AcDbEntity
  8
0
  6
HIDDEN
 62
     3
 48
0.2
100
AcDbLine
 10
344.0865174159569
 20
1014.295342566843
 30
0.0
 11
340.586517415957
 21
1014.295342566843
 31
0.0
  0
LINE
  5
4E91
330
1F
100
AcDbEntity
  8
0
  6
HIDDEN
 62
     3
 48
0.2
100
AcDbLine
 10
347.086517415957
 20
1011.795342566843
 30
0.0
 11
344.0865174159569
 21
1011.795342566844
 31
0.0
  0
LINE
  5
4E92
330
1F
100
AcDbEntity
  8
0
100
AcDbLine
 10
343.586517415957
 20
1022.795342566843
 30
0.0
 11
343.586517415957
 21
1032.795342566843
 31
0.0
  0
LINE
  5
4E93
330
1F
100
AcDbEntity
  8
0
100
AcDbLine
 10
347.0865174159568
 20
1022.795342566843
 30
0.0
 11
343.586517415957
 21
1022.795342566843
 31
0.0
  0
LINE
  5
4E94
330
1F
100
AcDbEntity
  8
0
100
AcDbLine
 10
347.0865174159568
 20
1032.795342566843
 30
0.0
 11
343.586517415957
 21
1032.795342566843
 31
0.0
  0
LINE
  5
4E95
330
1F
100
AcDbEntity
  8
0
  6
HIDDEN
 62
     3
 48
0.2
100
AcDbLine
 10
344.0865174159567
 20
1041.295342566843
 30
0.0
 11
340.5865174159568
 21
1041.295342566843
 31
0.0
  0
LINE
  5
4E96
330
1F
100
AcDbEntity
  8
0
  6
HIDDEN
 62
     3
 48
0.2
100
AcDbLine
 10
347.086517415957
 20
1043.795342566843
 30
0.0
 11
344.0865174159567
 21
1043.795342566843
 31
0.0
  0
LINE
  5
4E97
330
1F
100
AcDbEntity
  8
0
100
AcDbLine
 10
347.0865174159568
 20
1022.795342566843
 30
0.0
 11
347.0865174159568
 21
998.2953425668435
 31
0.0
  0
LINE
  5
4EB0
330
1F
100
AcDbEntity
  8
AM_7
  6
AM_ISO08W050x2
100
AcDbLine
 10
297.0865174159568
 20
1037.795342566844
 30
0.0
 11
303.3365174159568
 21
1037.795342566844
 31
0.0
1001
GENIUS_GENOREF_13
1005
4EB4
  0
LINE
  5
4EB1
330
1F
100
AcDbEntity
  8
AM_7
  6
AM_ISO08W050x2
100
AcDbLine
 10
297.0865174159568
 20
1037.795342566844
 30
0.0
 11
297.0865174159568
 21
1044.045342566844
 31
0.0
1001
GENIUS_GENOREF_13
1005
4EB4
  0
LINE
  5
4EB2
330
1F
100
AcDbEntity
  8
AM_7
  6
AM_ISO08W050x2
100
AcDbLine
 10
297.0865174159568
 20
1037.795342566844
 30
0.0
 11
290.8365174159568
 21
1037.795342566844
 31
0.0
1001
GENIUS_GENOREF_13
1005
4EB4
  0
LINE
  5
4EB3
330
1F
100
AcDbEntity
  8
AM_7
  6
AM_ISO08W050x2
100
AcDbLine
 10
297.0865174159568
 20
1037.795342566844
 30
0.0
 11
297.0865174159568
 21
1031.545342566844
 31
0.0
1001
GENIUS_GENOREF_13
1005
4EB4
  0
POINT
  5
4EB4
330
1F
100
AcDbEntity
  8
0
 60
     1
100
AcDbPoint
 10
0.0
 20
0.0
 30
0.0
1001
GENIUS_GENODEF_13
1002
{
1000
HIER
1070
    10
1002
}
1002
{
1000
MANEDIT
1070
     0
1002
}
1002
{
1000
NOSEL
1070
     0
1002
}
1002
{
1000
BEHIND
1070
     0
1002
}
1002
{
1000
OTHER
1070
     0
1002
}
1002
{
1000
REACTOR
1002
}
1001
GENIUS_GENOENT_13
1002
{
1000
MYREF
1005
4EB4
1002
}
1002
{
1000
GRP
1005
0
1002
}
1001
GENIUS_GENOLIS_13
1002
{
1000
ENT
1005
4EB3
1005
4EB2
1005
4EB1
1005
4EB0
1002
}
1001
GENIUS_GENOBJ-N-CRS_13
1002
{
1000
OWNER
1000
GEN
1002
}
  0
LINE
  5
4EC2
330
1F
100
AcDbEntity
  8
AM_7
  6
AM_ISO08W050x2
100
AcDbLine
 10
297.0865174159568
 20
1017.795342566843
 30
0.0
 11
303.3365174159568
 21
1017.795342566843
 31
0.0
1001
GENIUS_GENOREF_13
1005
4EC6
  0
LINE
  5
4EC3
330
1F
100
AcDbEntity
  8
AM_7
  6
AM_ISO08W050x2
100
AcDbLine
 10
297.0865174159568
 20
1017.795342566843
 30
0.0
 11
297.0865174159568
 21
1024.045342566843
 31
0.0
1001
GENIUS_GENOREF_13
1005
4EC6
  0
LINE
  5
4EC4
330
1F
100
AcDbEntity
  8
AM_7
  6
AM_ISO08W050x2
100
AcDbLine
 10
297.0865174159568
 20
1017.795342566843
 30
0.0
 11
290.8365174159568
 21
1017.795342566843
 31
0.0
1001
GENIUS_GENOREF_13
1005
4EC6
  0
LINE
  5
4EC5
330
1F
100
AcDbEntity
  8
AM_7
  6
AM_ISO08W050x2
100
AcDbLine
 10
297.0865174159568
 20
1017.795342566843
 30
0.0
 11
297.0865174159568
 21
1011.545342566843
 31
0.0
1001
GENIUS_GENOREF_13
1005
4EC6
  0
POINT
  5
4EC6
330
1F
100
AcDbEntity
  8
0
 60
     1
100
AcDbPoint
 10
0.0
 20
0.0
 30
0.0
1001
GENIUS_GENODEF_13
1002
{
1000
HIER
1070
    10
1002
}
1002
{
1000
MANEDIT
1070
     0
1002
}
1002
{
1000
NOSEL
1070
     0
1002
}
1002
{
1000
BEHIND
1070
     0
1002
}
1002
{
1000
OTHER
1070
     0
1002
}
1002
{
1000
REACTOR
1002
}
1001
GENIUS_GENOLIS_13
1002
{
1000
ENT
1005
4EC5
1005
4EC4
1005
4EC3
1005
4EC2
1002
}
1001
GENIUS_GENOENT_13
1002
{
1000
MYREF
1005
4EC6
1002
}
1002
{
1000
GRP
1005
0
1002
}
1001
GENIUS_GENOBJ-N-CRS_13
1002
{
1000
OWNER
1000
GEN
1002
}
  0
LINE
  5
4ED4
330
1F
100
AcDbEntity
  8
AM_7
  6
AM_ISO08W050x2
100
AcDbLine
 10
325.0865174159571
 20
998.7953425668434
 30
0.0
 11
331.3365174159571
 21
998.7953425668434
 31
0.0
1001
GENIUS_GENOREF_13
1005
4ED8
  0
LINE
  5
4ED5
330
1F
100
AcDbEntity
  8
AM_7
  6
AM_ISO08W050x2
100
AcDbLine
 10
325.0865174159571
 20
998.7953425668434
 30
0.0
 11
325.0865174159571
 21
1005.045342566843
 31
0.0
1001
GENIUS_GENOREF_13
1005
4ED8
  0
LINE
  5
4ED6
330
1F
100
AcDbEntity
  8
AM_7
  6
AM_ISO08W050x2
100
AcDbLine
 10
325.0865174159571
 20
998.7953425668434
 30
0.0
 11
318.8365174159571
 21
998.7953425668434
 31
0.0
1001
GENIUS_GENOREF_13
1005
4ED8
  0
LINE
  5
4ED7
330
1F
100
AcDbEntity
  8
AM_7
  6
AM_ISO08W050x2
100
AcDbLine
 10
325.0865174159571
 20
998.7953425668434
 30
0.0
 11
325.0865174159571
 21
992.5453425668434
 31
0.0
1001
GENIUS_GENOREF_13
1005
4ED8
  0
POINT
  5
4ED8
330
1F
100
AcDbEntity
  8
0
 60
     1
100
AcDbPoint
 10
0.0
 20
0.0
 30
0.0
1001
GENIUS_GENOBJ-N-CRS_13
1002
{
1000
OWNER
1000
GEN
1002
}
1001
GENIUS_GENOLIS_13
1002
{
1000
ENT
1005
4ED7
1005
4ED6
1005
4ED5
1005
4ED4
1002
}
1001
GENIUS_GENOENT_13
1002
{
1000
MYREF
1005
4ED8
1002
}
1002
{
1000
GRP
1005
0
1002
}
1001
GENIUS_GENODEF_13
1002
{
1000
HIER
1070
    10
1002
}
1002
{
1000
MANEDIT
1070
     0
1002
}
1002
{
1000
NOSEL
1070
     0
1002
}
1002
{
1000
BEHIND
1070
     0
1002
}
1002
{
1000
OTHER
1070
     0
1002
}
1002
{
1000
REACTOR
1002
}
  0
LINE
  5
4EE6
330
1F
100
AcDbEntity
  8
AM_7
  6
AM_ISO08W050x2
100
AcDbLine
 10
325.0865174159571
 20
1056.795342566844
 30
0.0
 11
331.3365174159571
 21
1056.795342566844
 31
0.0
1001
GENIUS_GENOREF_13
1005
4EEA
  0
LINE
  5
4EE7
330
1F
100
AcDbEntity
  8
AM_7
  6
AM_ISO08W050x2
100
AcDbLine
 10
325.0865174159571
 20
1056.795342566844
 30
0.0
 11
325.0865174159571
 21
1063.045342566844
 31
0.0
1001
GENIUS_GENOREF_13
1005
4EEA
  0
LINE
  5
4EE8
330
1F
100
AcDbEntity
  8
AM_7
  6
AM_ISO08W050x2
100
AcDbLine
 10
325.0865174159571
 20
1056.795342566844
 30
0.0
 11
318.8365174159571
 21
1056.795342566844
 31
0.0
1001
GENIUS_GENOREF_13
1005
4EEA
  0
LINE
  5
4EE9
330
1F
100
AcDbEntity
  8
AM_7
  6
AM_ISO08W050x2
100
AcDbLine
 10
325.0865174159571
 20
1056.795342566844
 30
0.0
 11
325.0865174159571
 21
1050.545342566844
 31
0.0
1001
GENIUS_GENOREF_13
1005
4EEA
  0
POINT
  5
4EEA
330
1F
100
AcDbEntity
  8
0
 60
     1
100
AcDbPoint
 10
0.0
 20
0.0
 30
0.0
1001
GENIUS_GENODEF_13
1002
{
1000
HIER
1070
    10
1002
}
1002
{
1000
MANEDIT
1070
     0
1002
}
1002
{
1000
NOSEL
1070
     0
1002
}
1002
{
1000
BEHIND
1070
     0
1002
}
1002
{
1000
OTHER
1070
     0
1002
}
1002
{
1000
REACTOR
1002
}
1001
GENIUS_GENOBJ-N-CRS_13
1002
{
1000
OWNER
1000
GEN
1002
}
1001
GENIUS_GENOLIS_13
1002
{
1000
ENT
1005
4EE9
1005
4EE8
1005
4EE7
1005
4EE6
1002
}
1001
GENIUS_GENOENT_13
1002
{
1000
MYREF
1005
4EEA
1002
}
1002
{
1000
GRP
1005
0
1002
}
  0
LINE
  5
4EF8
330
1F
100
AcDbEntity
  8
AM_7
  6
AM_ISO08W050x2
100
AcDbLine
 10
619.306677092669
 20
1056.795342566844
 30
0.0
 11
625.556677092669
 21
1056.795342566844
 31
0.0
1001
GENIUS_GENOREF_13
1005
4EFC
  0
LINE
  5
4EF9
330
1F
100
AcDbEntity
  8
AM_7
  6
AM_ISO08W050x2
100
AcDbLine
 10
619.306677092669
 20
1056.795342566844
 30
0.0
 11
619.306677092669
 21
1063.045342566844
 31
0.0
1001
GENIUS_GENOREF_13
1005
4EFC
  0
LINE
  5
4EFA
330
1F
100
AcDbEntity
  8
AM_7
  6
AM_ISO08W050x2
100
AcDbLine
 10
619.306677092669
 20
1056.795342566844
 30
0.0
 11
613.056677092669
 21
1056.795342566844
 31
0.0
1001
GENIUS_GENOREF_13
1005
4EFC
  0
LINE
  5
4EFB
330
1F
100
AcDbEntity
  8
AM_7
  6
AM_ISO08W050x2
100
AcDbLine
 10
619.306677092669
 20
1056.795342566844
 30
0.0
 11
619.306677092669
 21
1050.545342566844
 31
0.0
1001
GENIUS_GENOREF_13
1005
4EFC
  0
POINT
  5
4EFC
330
1F
100
AcDbEntity
  8
0
 60
     1
100
AcDbPoint
 10
0.0
 20
0.0
 30
0.0
1001
GENIUS_GENODEF_13
1002
{
1000
HIER
1070
    10
1002
}
1002
{
1000
MANEDIT
1070
     0
1002
}
1002
{
1000
NOSEL
1070
     0
1002
}
1002
{
1000
BEHIND
1070
     0
1002
}
1002
{
1000
OTHER
1070
     0
1002
}
1002
{
1000
REACTOR
1002
}
1001
GENIUS_GENOENT_13
1002
{
1000
MYREF
1005
4EFC
1002
}
1002
{
1000
GRP
1005
0
1002
}
1001
GENIUS_GENOBJ-N-CRS_13
1002
{
1000
OWNER
1000
GEN
1002
}
1001
GENIUS_GENOLIS_13
1002
{
1000
ENT
1005
4EFB
1005
4EFA
1005
4EF9
1005
4EF8
1002
}
  0
LINE
  5
4F0A
330
1F
100
AcDbEntity
  8
AM_7
  6
AM_ISO08W050x2
100
AcDbLine
 10
619.306677092669
 20
998.7953425668434
 30
0.0
 11
625.556677092669
 21
998.7953425668434
 31
0.0
1001
GENIUS_GENOREF_13
1005
4F0E
  0
LINE
  5
4F0B
330
1F
100
AcDbEntity
  8
AM_7
  6
AM_ISO08W050x2
100
AcDbLine
 10
619.306677092669
 20
998.7953425668434
 30
0.0
 11
619.306677092669
 21
1005.045342566843
 31
0.0
1001
GENIUS_GENOREF_13
1005
4F0E
  0
LINE
  5
4F0C
330
1F
100
AcDbEntity
  8
AM_7
  6
AM_ISO08W050x2
100
AcDbLine
 10
619.306677092669
 20
998.7953425668434
 30
0.0
 11
613.056677092669
 21
998.7953425668434
 31
0.0
1001
GENIUS_GENOREF_13
1005
4F0E
  0
LINE
  5
4F0D
330
1F
100
AcDbEntity
  8
AM_7
  6
AM_ISO08W050x2
100
AcDbLine
 10
619.306677092669
 20
998.7953425668434
 30
0.0
 11
619.306677092669
 21
992.5453425668434
 31
0.0
1001
GENIUS_GENOREF_13
1005
4F0E
  0
POINT
  5
4F0E
330
1F
100
AcDbEntity
  8
0
 60
     1
100
AcDbPoint
 10
0.0
 20
0.0
 30
0.0
1001
GENIUS_GENODEF_13
1002
{
1000
HIER
1070
    10
1002
}
1002
{
1000
MANEDIT
1070
     0
1002
}
1002
{
1000
NOSEL
1070
     0
1002
}
1002
{
1000
BEHIND
1070
     0
1002
}
1002
{
1000
OTHER
1070
     0
1002
}
1002
{
1000
REACTOR
1002
}
1001
GENIUS_GENOLIS_13
1002
{
1000
ENT
1005
4F0D
1005
4F0C
1005
4F0B
1005
4F0A
1002
}
1001
GENIUS_GENOENT_13
1002
{
1000
MYREF
1005
4F0E
1002
}
1002
{
1000
GRP
1005
0
1002
}
1001
GENIUS_GENOBJ-N-CRS_13
1002
{
1000
OWNER
1000
GEN
1002
}
  0
LINE
  5
4F1C
330
1F
100
AcDbEntity
  8
AM_7
  6
AM_ISO08W050x2
100
AcDbLine
 10
647.3066770926693
 20
1017.795342566843
 30
0.0
 11
653.5566770926693
 21
1017.795342566843
 31
0.0
1001
GENIUS_GENOREF_13
1005
4F20
  0
LINE
  5
4F1D
330
1F
100
AcDbEntity
  8
AM_7
  6
AM_ISO08W050x2
100
AcDbLine
 10
647.3066770926693
 20
1017.795342566843
 30
0.0
 11
647.3066770926693
 21
1024.045342566843
 31
0.0
1001
GENIUS_GENOREF_13
1005
4F20
  0
LINE
  5
4F1E
330
1F
100
AcDbEntity
  8
AM_7
  6
AM_ISO08W050x2
100
AcDbLine
 10
647.3066770926693
 20
1017.795342566843
 30
0.0
 11
641.0566770926693
 21
1017.795342566843
 31
0.0
1001
GENIUS_GENOREF_13
1005
4F20
  0
LINE
  5
4F1F
330
1F
100
AcDbEntity
  8
AM_7
  6
AM_ISO08W050x2
100
AcDbLine
 10
647.3066770926693
 20
1017.795342566843
 30
0.0
 11
647.3066770926693
 21
1011.545342566843
 31
0.0
1001
GENIUS_GENOREF_13
1005
4F20
  0
POINT
  5
4F20
330
1F
100
AcDbEntity
  8
0
 60
     1
100
AcDbPoint
 10
0.0
 20
0.0
 30
0.0
1001
GENIUS_GENODEF_13
1002
{
1000
HIER
1070
    10
1002
}
1002
{
1000
MANEDIT
1070
     0
1002
}
1002
{
1000
NOSEL
1070
     0
1002
}
1002
{
1000
BEHIND
1070
     0
1002
}
1002
{
1000
OTHER
1070
     0
1002
}
1002
{
1000
REACTOR
1002
}
1001
GENIUS_GENOENT_13
1002
{
1000
MYREF
1005
4F20
1002
}
1002
{
1000
GRP
1005
0
1002
}
1001
GENIUS_GENOLIS_13
1002
{
1000
ENT
1005
4F1F
1005
4F1E
1005
4F1D
1005
4F1C
1002
}
1001
GENIUS_GENOBJ-N-CRS_13
1002
{
1000
OWNER
1000
GEN
1002
}
  0
LINE
  5
4F2E
330
1F
100
AcDbEntity
  8
AM_7
  6
AM_ISO08W050x2
100
AcDbLine
 10
647.3066770926693
 20
1037.795342566844
 30
0.0
 11
653.5566770926693
 21
1037.795342566844
 31
0.0
1001
GENIUS_GENOREF_13
1005
4F32
  0
LINE
  5
4F2F
330
1F
100
AcDbEntity
  8
AM_7
  6
AM_ISO08W050x2
100
AcDbLine
 10
647.3066770926693
 20
1037.795342566844
 30
0.0
 11
647.3066770926693
 21
1044.045342566844
 31
0.0
1001
GENIUS_GENOREF_13
1005
4F32
  0
LINE
  5
4F30
330
1F
100
AcDbEntity
  8
AM_7
  6
AM_ISO08W050x2
100
AcDbLine
 10
647.3066770926693
 20
1037.795342566844
 30
0.0
 11
641.0566770926693
 21
1037.795342566844
 31
0.0
1001
GENIUS_GENOREF_13
1005
4F32
  0
LINE
  5
4F31
330
1F
100
AcDbEntity
  8
AM_7
  6
AM_ISO08W050x2
100
AcDbLine
 10
647.3066770926693
 20
1037.795342566844
 30
0.0
 11
647.3066770926693
 21
1031.545342566844
 31
0.0
1001
GENIUS_GENOREF_13
1005
4F32
  0
POINT
  5
4F32
330
1F
100
AcDbEntity
  8
0
 60
     1
100
AcDbPoint
 10
0.0
 20
0.0
 30
0.0
1001
GENIUS_GENOBJ-N-CRS_13
1002
{
1000
OWNER
1000
GEN
1002
}
1001
GENIUS_GENOLIS_13
1002
{
1000
ENT
1005
4F31
1005
4F30
1005
4F2F
1005
4F2E
1002
}
1001
GENIUS_GENOENT_13
1002
{
1000
MYREF
1005
4F32
1002
}
1002
{
1000
GRP
1005
0
1002
}
1001
GENIUS_GENODEF_13
1002
{
1000
HIER
1070
    10
1002
}
1002
{
1000
MANEDIT
1070
     0
1002
}
1002
{
1000
NOSEL
1070
     0
1002
}
1002
{
1000
BEHIND
1070
     0
1002
}
1002
{
1000
OTHER
1070
     0
1002
}
1002
{
1000
REACTOR
1002
}
  0
LINE
  5
4F40
330
1F
100
AcDbEntity
  8
AM_7
100
AcDbLine
 10
488.6250764128143
 20
1027.795342566843
 30
0.0
 11
497.6250764128143
 21
1027.795342566843
 31
0.0
1001
GENIUS_GENOREF_13
1005
4F44
  0
LINE
  5
4F41
330
1F
100
AcDbEntity
  8
AM_7
100
AcDbLine
 10
488.6250764128143
 20
1027.795342566843
 30
0.0
 11
488.6250764128143
 21
1036.795342566843
 31
0.0
1001
GENIUS_GENOREF_13
1005
4F44
  0
LINE
  5
4F42
330
1F
100
AcDbEntity
  8
AM_7
100
AcDbLine
 10
488.6250764128143
 20
1027.795342566843
 30
0.0
 11
479.6250764128143
 21
1027.795342566843
 31
0.0
1001
GENIUS_GENOREF_13
1005
4F44
  0
LINE
  5
4F43
330
1F
100
AcDbEntity
  8
AM_7
100
AcDbLine
 10
488.6250764128143
 20
1027.795342566843
 30
0.0
 11
488.6250764128143
 21
1018.795342566843
 31
0.0
1001
GENIUS_GENOREF_13
1005
4F44
  0
POINT
  5
4F44
330
1F
100
AcDbEntity
  8
0
 60
     1
100
AcDbPoint
 10
0.0
 20
0.0
 30
0.0
1001
GENIUS_GENODEF_13
1002
{
1000
HIER
1070
    10
1002
}
1002
{
1000
MANEDIT
1070
     0
1002
}
1002
{
1000
NOSEL
1070
     0
1002
}
1002
{
1000
BEHIND
1070
     0
1002
}
1002
{
1000
OTHER
1070
     0
1002
}
1002
{
1000
REACTOR
1002
}
1001
GENIUS_GENOENT_13
1002
{
1000
MYREF
1005
4F44
1002
}
1002
{
1000
GRP
1005
0
1002
}
1001
GENIUS_GENOBJ-N-CRS_13
1002
{
1000
OWNER
1000
GEN
1002
}
1001
GENIUS_GENOLIS_13
1002
{
1000
ENT
1005
4F43
1005
4F42
1005
4F41
1005
4F40
1002
}
  0
LINE
  5
4F52
330
1F
100
AcDbEntity
  8
AM_7
100
AcDbLine
 10
410.6250764128144
 20
1027.795342566843
 30
0.0
 11
419.6250764128143
 21
1027.795342566843
 31
0.0
1001
GENIUS_GENOREF_13
1005
4F56
  0
LINE
  5
4F53
330
1F
100
AcDbEntity
  8
AM_7
100
AcDbLine
 10
410.6250764128144
 20
1027.795342566843
 30
0.0
 11
410.6250764128144
 21
1036.795342566843
 31
0.0
1001
GENIUS_GENOREF_13
1005
4F56
  0
LINE
  5
4F54
330
1F
100
AcDbEntity
  8
AM_7
100
AcDbLine
 10
410.6250764128144
 20
1027.795342566843
 30
0.0
 11
401.6250764128144
 21
1027.795342566843
 31
0.0
1001
GENIUS_GENOREF_13
1005
4F56
  0
LINE
  5
4F55
330
1F
100
AcDbEntity
  8
AM_7
100
AcDbLine
 10
410.6250764128144
 20
1027.795342566843
 30
0.0
 11
410.6250764128144
 21
1018.795342566843
 31
0.0
1001
GENIUS_GENOREF_13
1005
4F56
  0
POINT
  5
4F56
330
1F
100
AcDbEntity
  8
0
 60
     1
100
AcDbPoint
 10
0.0
 20
0.0
 30
0.0
1001
GENIUS_GENOLIS_13
1002
{
1000
ENT
1005
4F55
1005
4F54
1005
4F53
1005
4F52
1002
}
1001
GENIUS_GENOENT_13
1002
{
1000
MYREF
1005
4F56
1002
}
1002
{
1000
GRP
1005
0
1002
}
1001
GENIUS_GENOBJ-N-CRS_13
1002
{
1000
OWNER
1000
GEN
1002
}
1001
GENIUS_GENODEF_13
1002
{
1000
HIER
1070
    10
1002
}
1002
{
1000
MANEDIT
1070
     0
1002
}
1002
{
1000
NOSEL
1070
     0
1002
}
1002
{
1000
BEHIND
1070
     0
1002
}
1002
{
1000
OTHER
1070
     0
1002
}
1002
{
1000
REACTOR
1002
}
  0
LINE
  5
4F58
330
1F
100
AcDbEntity
  8
0
  6
HIDDEN
 62
     3
 48
0.2
100
AcDbLine
 10
392.095612179641
 20
1045.283272876562
 30
0.0
 11
385.6250764128143
 21
1045.545132092254
 31
0.0
  0
LINE
  5
4F59
330
1F
100
AcDbEntity
  8
0
  6
HIDDEN
 62
     3
 48
0.2
100
AcDbLine
 10
392.095612179641
 20
1045.897483351151
 30
0.0
 11
385.6250764128143
 21
1046.159342566843
 31
0.0
  0
LINE
  5
4F5A
330
1F
100
AcDbEntity
  8
0
  6
HIDDEN
 62
     3
 48
0.2
100
AcDbLine
 10
392.095612179641
 20
1036.693201782535
 30
0.0
 11
385.6250764128143
 21
1036.431342566843
 31
0.0
  0
LINE
  5
4F5B
330
1F
100
AcDbEntity
  8
0
  6
HIDDEN
 62
     3
 48
0.2
100
AcDbLine
 10
392.095612179641
 20
1037.307412257124
 30
0.0
 11
385.6250764128143
 21
1037.045553041433
 31
0.0
  0
LINE
  5
4F5C
330
1F
100
AcDbEntity
  8
AM_7
  6
AM_ISO08W050x2
100
AcDbLine
 10
383.065816380006
 20
1041.295342566843
 30
0.0
 11
393.0086159730458
 21
1041.295342566843
 31
0.0
  0
LINE
  5
4F5D
330
1F
100
AcDbEntity
  8
0
  6
HIDDEN
 62
     3
 48
0.2
100
AcDbLine
 10
392.095612179641
 20
1010.307412257124
 30
0.0
 11
385.6250764128143
 21
1010.045553041433
 31
0.0
  0
LINE
  5
4F5E
330
1F
100
AcDbEntity
  8
0
  6
HIDDEN
 62
     3
 48
0.2
100
AcDbLine
 10
392.095612179641
 20
1009.693201782535
 30
0.0
 11
385.6250764128143
 21
1009.431342566843
 31
0.0
  0
LINE
  5
4F5F
330
1F
100
AcDbEntity
  8
0
  6
HIDDEN
 62
     3
 48
0.2
100
AcDbLine
 10
392.095612179641
 20
1018.897483351151
 30
0.0
 11
385.6250764128143
 21
1019.159342566843
 31
0.0
  0
LINE
  5
4F60
330
1F
100
AcDbEntity
  8
0
  6
HIDDEN
 62
     3
 48
0.2
100
AcDbLine
 10
392.095612179641
 20
1018.283272876562
 30
0.0
 11
385.6250764128143
 21
1018.545132092254
 31
0.0
  0
LINE
  5
4F61
330
1F
100
AcDbEntity
  8
AM_7
  6
AM_ISO08W050x2
100
AcDbLine
 10
383.065816380006
 20
1014.295342566843
 30
0.0
 11
393.0086159730458
 21
1014.295342566843
 31
0.0
  0
LINE
  5
4FCB
330
1F
100
AcDbEntity
  8
AM_7
100
AcDbLine
 10
520.6250764128143
 20
882.812545623773
 30
0.0
 11
510.6250764128143
 21
882.812545623773
 31
0.0
  0
LINE
  5
4FCC
330
1F
100
AcDbEntity
  8
AM_VIS
100
AcDbLine
 10
516.6322330697319
 20
892.312545623773
 30
0.0
 11
517.4807388457379
 21
892.312545623773
 31
0.0
  0
LINE
  5
4FCD
330
1F
100
AcDbEntity
  8
AM_VIS
100
AcDbLine
 10
516.6322330692557
 20
873.3125456237727
 30
0.0
 11
517.4807388455168
 21
873.3125456237727
 31
0.0
  0
SPLINE
  5
4FCE
330
1F
100
AcDbEntity
  8
AM_VIS
100
AcDbSpline
210
0.0
220
0.0
230
1.0
 70
    12
 71
     2
 72
     6
 73
     3
 74
     0
 42
0.0000000001
 43
0.0000000001
 40
0.0
 40
0.0
 40
0.0
 40
11.10014331214352
 40
11.10014331214352
 40
11.10014331214352
 10
516.6322330692557
 20
873.3125456234287
 30
0.0
 41
1.0
 10
518.2155664026468
 20
878.0625456236011
 30
0.0
 41
1.154700538379298
 10
516.6322330692557
 20
882.8125456237739
 30
0.0
 41
1.0
  0
LINE
  5
4FCF
330
1F
100
AcDbEntity
  8
AM_VIS
100
AcDbLine
 10
514.6179197563728
 20
873.3125456237731
 30
0.0
 11
516.6322330692557
 21
873.3125456237731
 31
0.0
  0
LINE
  5
4FD0
330
1F
100
AcDbEntity
  8
AM_VIS
100
AcDbLine
 10
514.6179197563728
 20
892.312545623773
 30
0.0
 11
516.6322330692557
 21
892.312545623773
 31
0.0
  0
SPLINE
  5
4FD1
330
1F
100
AcDbEntity
  8
AM_VIS
100
AcDbSpline
210
0.0
220
0.0
230
1.0
 70
    12
 71
     2
 72
     6
 73
     3
 74
     0
 42
0.0000000001
 43
0.0000000001
 40
0.0
 40
0.0
 40
0.0
 40
11.10014331338013
 40
11.10014331338013
 40
11.10014331338013
 10
516.6322330692557
 20
882.812545623773
 30
0.0
 41
1.0
 10
518.2155664029902
 20
887.5625456242882
 30
0.0
 41
1.154700538421052
 10
516.6322330692557
 20
892.3125456248049
 30
0.0
 41
1.0
  0
LINE
  5
4FD2
330
1F
100
AcDbEntity
  8
AM_VIS
100
AcDbLine
 10
514.6179197563728
 20
882.812545623773
 30
0.0
 11
516.6322330692557
 21
882.812545623773
 31
0.0
  0
LINE
  5
4FD3
330
1F
100
AcDbEntity
  8
AM_VIS
100
AcDbLine
 10
513.7694139801117
 20
892.312545623773
 30
0.0
 11
514.6179197558966
 21
892.312545623773
 31
0.0
  0
SPLINE
  5
4FD4
330
1F
100
AcDbEntity
  8
AM_VIS
100
AcDbSpline
210
0.0
220
0.0
230
1.0
 70
    12
 71
     2
 72
     6
 73
     3
 74
     0
 42
0.0000000001
 43
0.0000000001
 40
0.0
 40
0.0
 40
0.0
 40
11.10014331338013
 40
11.10014331338013
 40
11.10014331338013
 10
514.6179197563728
 20
892.3125456248049
 30
0.0
 41
1.0
 10
513.0345864226383
 20
887.5625456242891
 30
0.0
 41
1.15470053842105
 10
514.6179197563728
 20
882.812545623773
 30
0.0
 41
1.0
  0
SPLINE
  5
4FD5
330
1F
100
AcDbEntity
  8
AM_VIS
100
AcDbSpline
210
0.0
220
0.0
230
1.0
 70
    12
 71
     2
 72
     6
 73
     3
 74
     0
 42
0.0000000001
 43
0.0000000001
 40
0.0
 40
0.0
 40
0.0
 40
11.10014331214351
 40
11.10014331214351
 40
11.10014331214351
 10
514.6179197563728
 20
882.8125456237737
 30
0.0
 41
1.0
 10
513.0345864229818
 20
878.0625456236013
 30
0.0
 41
1.1547005383793
 10
514.6179197563728
 20
873.3125456234287
 30
0.0
 41
1.0
  0
LINE
  5
4FD6
330
1F
100
AcDbEntity
  8
AM_VIS
100
AcDbLine
 10
513.7694139801118
 20
873.3125456237727
 30
0.0
 11
514.6179197563728
 21
873.3125456237727
 31
0.0
  0
LINE
  5
4FD7
330
1F
100
AcDbEntity
  8
AM_VIS
100
AcDbLine
 10
517.6250764128143
 20
892.0625456237731
 30
0.0
 11
517.4807388455169
 21
892.312545623773
 31
0.0
  0
LINE
  5
4FD8
330
1F
100
AcDbEntity
  8
AM_VIS
100
AcDbLine
 10
517.6250764128143
 20
873.562545623773
 30
0.0
 11
517.4807388455168
 21
873.3125456237727
 31
0.0
  0
LINE
  5
4FD9
330
1F
100
AcDbEntity
  8
AM_VIS
100
AcDbLine
 10
513.6250764128143
 20
873.562545623773
 30
0.0
 11
513.7694139801118
 21
873.3125456237727
 31
0.0
  0
LINE
  5
4FDA
330
1F
100
AcDbEntity
  8
AM_VIS
100
AcDbLine
 10
513.6250764128143
 20
892.0625456237731
 30
0.0
 11
513.7694139801117
 21
892.312545623773
 31
0.0
  0
LINE
  5
4FDB
330
1F
100
AcDbEntity
  8
AM_VIS
100
AcDbLine
 10
517.6250764128143
 20
873.562545623773
 30
0.0
 11
517.6250764128143
 21
892.0625456237731
 31
0.0
  0
LINE
  5
4FDC
330
1F
100
AcDbEntity
  8
AM_VIS
100
AcDbLine
 10
513.6250764128143
 20
892.0625456237731
 30
0.0
 11
513.6250764128143
 21
873.562545623773
 31
0.0
  0
LINE
  5
4FDE
330
1F
100
AcDbEntity
  8
AM_7
100
AcDbLine
 10
520.6250764128143
 20
1011.795342566843
 30
0.0
 11
510.6250764128143
 21
1011.795342566843
 31
0.0
  0
LINE
  5
4FDF
330
1F
100
AcDbEntity
  8
AM_VIS
100
AcDbLine
 10
514.6179197563728
 20
1022.764997681843
 30
0.0
 11
516.6322330692557
 21
1022.764997681843
 31
0.0
  0
LINE
  5
4FE0
330
1F
100
AcDbEntity
  8
AM_VIS
100
AcDbLine
 10
514.6179197563728
 20
1017.280170124542
 30
0.0
 11
516.6322330692557
 21
1017.280170124542
 31
0.0
  0
SPLINE
  5
4FE1
330
1F
100
AcDbEntity
  8
AM_VIS
100
AcDbSpline
210
0.0
220
0.0
230
1.0
 70
    12
 71
     2
 72
     6
 73
     3
 74
     0
 42
0.0000000001
 43
0.0000000001
 40
0.0
 40
0.0
 40
0.0
 40
11.10014331338011
 40
11.10014331338011
 40
11.10014331338011
 10
516.6322330697319
 20
1006.310515010397
 30
0.0
 41
1.0
 10
518.2155664029903
 20
1011.795342566843
 30
0.0
 41
1.154700538421051
 10
516.6322330692557
 20
1017.280170124939
 30
0.0
 41
1.0
  0
SPLINE
  5
4FE2
330
1F
100
AcDbEntity
  8
AM_VIS
100
AcDbSpline
210
0.0
220
0.0
230
1.0
 70
    12
 71
     2
 72
     6
 73
     3
 74
     0
 42
0.0000000001
 43
0.0000000001
 40
0.0
 40
0.0
 40
0.0
 40
11.10014331214209
 40
11.10014331214209
 40
11.10014331214209
 10
516.6322330692557
 20
1017.280170124343
 30
0.0
 41
1.0
 10
518.2155664026464
 20
1020.022583903093
 30
0.0
 41
1.154700538379251
 10
516.6322330692557
 20
1022.764997681843
 30
0.0
 41
1.0
  0
LINE
  5
4FE3
330
1F
100
AcDbEntity
  8
AM_VIS
100
AcDbLine
 10
514.6179197563728
 20
1006.310515009939
 30
0.0
 11
516.6322330692557
 21
1006.310515009939
 31
0.0
  0
SPLINE
  5
4FE4
330
1F
100
AcDbEntity
  8
AM_VIS
100
AcDbSpline
210
0.0
220
0.0
230
1.0
 70
    12
 71
     2
 72
     6
 73
     3
 74
     0
 42
0.0000000001
 43
0.0000000001
 40
0.0
 40
0.0
 40
0.0
 40
11.10014331338013
 40
11.10014331338013
 40
11.10014331338013
 10
516.6322330692557
 20
1000.825687451843
 30
0.0
 41
1.0
 10
518.2155664029902
 20
1003.568101231189
 30
0.0
 41
1.154700538421052
 10
516.6322330692557
 20
1006.310515010535
 30
0.0
 41
1.0
  0
LINE
  5
4FE5
330
1F
100
AcDbEntity
  8
AM_VIS
100
AcDbLine
 10
514.6179197563728
 20
1000.825687451843
 30
0.0
 11
516.6322330692557
 21
1000.825687451843
 31
0.0
  0
SPLINE
  5
4FE6
330
1F
100
AcDbEntity
  8
AM_VIS
100
AcDbSpline
210
0.0
220
0.0
230
1.0
 70
    12
 71
     2
 72
     6
 73
     3
 74
     0
 42
0.0000000001
 43
0.0000000001
 40
0.0
 40
0.0
 40
0.0
 40
11.1001433121421
 40
11.1001433121421
 40
11.1001433121421
 10
514.6179197563728
 20
1022.764997681843
 30
0.0
 41
1.0
 10
513.0345864229822
 20
1020.022583903093
 30
0.0
 41
1.154700538379251
 10
514.6179197563728
 20
1017.280170124343
 30
0.0
 41
1.0
  0
SPLINE
  5
4FE7
330
1F
100
AcDbEntity
  8
AM_VIS
100
AcDbSpline
210
0.0
220
0.0
230
1.0
 70
    12
 71
     2
 72
     6
 73
     3
 74
     0
 42
0.0000000001
 43
0.0000000001
 40
0.0
 40
0.0
 40
0.0
 40
11.10014331338009
 40
11.10014331338009
 40
11.10014331338009
 10
514.6179197563728
 20
1017.280170124939
 30
0.0
 41
1.0
 10
513.0345864226383
 20
1011.795342566843
 30
0.0
 41
1.154700538421053
 10
514.6179197558967
 20
1006.310515010397
 30
0.0
 41
1.0
  0
SPLINE
  5
4FE8
330
1F
100
AcDbEntity
  8
AM_VIS
100
AcDbSpline
210
0.0
220
0.0
230
1.0
 70
    12
 71
     2
 72
     6
 73
     3
 74
     0
 42
0.0000000001
 43
0.0000000001
 40
0.0
 40
0.0
 40
0.0
 40
11.10014331338013
 40
11.10014331338013
 40
11.10014331338013
 10
514.6179197563728
 20
1006.310515010535
 30
0.0
 41
1.0
 10
513.0345864226383
 20
1003.568101231189
 30
0.0
 41
1.15470053842105
 10
514.6179197563728
 20
1000.825687451843
 30
0.0
 41
1.0
  0
LINE
  5
4FE9
330
1F
100
AcDbEntity
  8
AM_VIS
100
AcDbLine
 10
517.6250764128143
 20
1021.045342566843
 30
0.0
 11
516.6322330692557
 21
1022.764997681843
 31
0.0
  0
LINE
  5
4FEA
330
1F
100
AcDbEntity
  8
AM_VIS
100
AcDbLine
 10
517.6250764128143
 20
1002.545342566843
 30
0.0
 11
516.6322330692557
 21
1000.825687451843
 31
0.0
  0
LINE
  5
4FEB
330
1F
100
AcDbEntity
  8
AM_VIS
100
AcDbLine
 10
513.6250764128143
 20
1002.545342566843
 30
0.0
 11
514.6179197563728
 21
1000.825687451843
 31
0.0
  0
LINE
  5
4FEC
330
1F
100
AcDbEntity
  8
AM_VIS
100
AcDbLine
 10
513.6250764128143
 20
1021.045342566843
 30
0.0
 11
514.6179197563728
 21
1022.764997681843
 31
0.0
  0
LINE
  5
4FED
330
1F
100
AcDbEntity
  8
AM_VIS
100
AcDbLine
 10
517.6250764128143
 20
1002.545342566843
 30
0.0
 11
517.6250764128143
 21
1021.045342566843
 31
0.0
  0
LINE
  5
4FEE
330
1F
100
AcDbEntity
  8
AM_VIS
100
AcDbLine
 10
513.6250764128143
 20
1021.045342566843
 30
0.0
 11
513.6250764128143
 21
1002.545342566843
 31
0.0
  0
LINE
  5
4FFF
330
1F
100
AcDbEntity
  8
AM_7
100
AcDbLine
 10
520.6250764128143
 20
1043.795342566843
 30
0.0
 11
510.6250764128143
 21
1043.795342566843
 31
0.0
  0
LINE
  5
5000
330
1F
100
AcDbEntity
  8
AM_VIS
100
AcDbLine
 10
514.6179197563728
 20
1054.764997681843
 30
0.0
 11
516.6322330692557
 21
1054.764997681843
 31
0.0
  0
LINE
  5
5001
330
1F
100
AcDbEntity
  8
AM_VIS
100
AcDbLine
 10
514.6179197563728
 20
1049.280170124542
 30
0.0
 11
516.6322330692557
 21
1049.280170124542
 31
0.0
  0
SPLINE
  5
5002
330
1F
100
AcDbEntity
  8
AM_VIS
100
AcDbSpline
210
0.0
220
0.0
230
1.0
 70
    12
 71
     2
 72
     6
 73
     3
 74
     0
 42
0.0000000001
 43
0.0000000001
 40
0.0
 40
0.0
 40
0.0
 40
11.10014331338011
 40
11.10014331338011
 40
11.10014331338011
 10
516.6322330697319
 20
1038.310515010397
 30
0.0
 41
1.0
 10
518.2155664029903
 20
1043.795342566843
 30
0.0
 41
1.154700538421051
 10
516.6322330692557
 20
1049.280170124939
 30
0.0
 41
1.0
  0
SPLINE
  5
5003
330
1F
100
AcDbEntity
  8
AM_VIS
100
AcDbSpline
210
0.0
220
0.0
230
1.0
 70
    12
 71
     2
 72
     6
 73
     3
 74
     0
 42
0.0000000001
 43
0.0000000001
 40
0.0
 40
0.0
 40
0.0
 40
11.10014331214209
 40
11.10014331214209
 40
11.10014331214209
 10
516.6322330692557
 20
1049.280170124343
 30
0.0
 41
1.0
 10
518.2155664026464
 20
1052.022583903093
 30
0.0
 41
1.154700538379251
 10
516.6322330692557
 20
1054.764997681843
 30
0.0
 41
1.0
  0
LINE
  5
5004
330
1F
100
AcDbEntity
  8
AM_VIS
100
AcDbLine
 10
514.6179197563728
 20
1038.310515009939
 30
0.0
 11
516.6322330692557
 21
1038.310515009939
 31
0.0
  0
SPLINE
  5
5005
330
1F
100
AcDbEntity
  8
AM_VIS
100
AcDbSpline
210
0.0
220
0.0
230
1.0
 70
    12
 71
     2
 72
     6
 73
     3
 74
     0
 42
0.0000000001
 43
0.0000000001
 40
0.0
 40
0.0
 40
0.0
 40
11.10014331338013
 40
11.10014331338013
 40
11.10014331338013
 10
516.6322330692557
 20
1032.825687451843
 30
0.0
 41
1.0
 10
518.2155664029902
 20
1035.568101231189
 30
0.0
 41
1.154700538421052
 10
516.6322330692557
 20
1038.310515010535
 30
0.0
 41
1.0
  0
LINE
  5
5006
330
1F
100
AcDbEntity
  8
AM_VIS
100
AcDbLine
 10
514.6179197563728
 20
1032.825687451843
 30
0.0
 11
516.6322330692557
 21
1032.825687451843
 31
0.0
  0
SPLINE
  5
5007
330
1F
100
AcDbEntity
  8
AM_VIS
100
AcDbSpline
210
0.0
220
0.0
230
1.0
 70
    12
 71
     2
 72
     6
 73
     3
 74
     0
 42
0.0000000001
 43
0.0000000001
 40
0.0
 40
0.0
 40
0.0
 40
11.1001433121421
 40
11.1001433121421
 40
11.1001433121421
 10
514.6179197563728
 20
1054.764997681843
 30
0.0
 41
1.0
 10
513.0345864229822
 20
1052.022583903093
 30
0.0
 41
1.154700538379251
 10
514.6179197563728
 20
1049.280170124343
 30
0.0
 41
1.0
  0
SPLINE
  5
5008
330
1F
100
AcDbEntity
  8
AM_VIS
100
AcDbSpline
210
0.0
220
0.0
230
1.0
 70
    12
 71
     2
 72
     6
 73
     3
 74
     0
 42
0.0000000001
 43
0.0000000001
 40
0.0
 40
0.0
 40
0.0
 40
11.10014331338009
 40
11.10014331338009
 40
11.10014331338009
 10
514.6179197563728
 20
1049.280170124939
 30
0.0
 41
1.0
 10
513.0345864226383
 20
1043.795342566843
 30
0.0
 41
1.154700538421053
 10
514.6179197558967
 20
1038.310515010397
 30
0.0
 41
1.0
  0
SPLINE
  5
5009
330
1F
100
AcDbEntity
  8
AM_VIS
100
AcDbSpline
210
0.0
220
0.0
230
1.0
 70
    12
 71
     2
 72
     6
 73
     3
 74
     0
 42
0.0000000001
 43
0.0000000001
 40
0.0
 40
0.0
 40
0.0
 40
11.10014331338013
 40
11.10014331338013
 40
11.10014331338013
 10
514.6179197563728
 20
1038.310515010535
 30
0.0
 41
1.0
 10
513.0345864226383
 20
1035.568101231189
 30
0.0
 41
1.15470053842105
 10
514.6179197563728
 20
1032.825687451843
 30
0.0
 41
1.0
  0
LINE
  5
500A
330
1F
100
AcDbEntity
  8
AM_VIS
100
AcDbLine
 10
517.6250764128143
 20
1053.045342566843
 30
0.0
 11
516.6322330692557
 21
1054.764997681843
 31
0.0
  0
LINE
  5
500B
330
1F
100
AcDbEntity
  8
AM_VIS
100
AcDbLine
 10
517.6250764128143
 20
1034.545342566843
 30
0.0
 11
516.6322330692557
 21
1032.825687451843
 31
0.0
  0
LINE
  5
500C
330
1F
100
AcDbEntity
  8
AM_VIS
100
AcDbLine
 10
513.6250764128143
 20
1034.545342566843
 30
0.0
 11
514.6179197563728
 21
1032.825687451843
 31
0.0
  0
LINE
  5
500D
330
1F
100
AcDbEntity
  8
AM_VIS
100
AcDbLine
 10
513.6250764128143
 20
1053.045342566843
 30
0.0
 11
514.6179197563728
 21
1054.764997681843
 31
0.0
  0
LINE
  5
500E
330
1F
100
AcDbEntity
  8
AM_VIS
100
AcDbLine
 10
517.6250764128143
 20
1034.545342566843
 30
0.0
 11
517.6250764128143
 21
1053.045342566843
 31
0.0
  0
LINE
  5
508D
330
1F
100
AcDbEntity
  8
AM_7
100
AcDbLine
 10
514.6250764128143
 20
882.812545623773
 30
0.0
 11
539.1250764128143
 21
882.812545623773
 31
0.0
  0
LINE
  5
508E
330
1F
100
AcDbEntity
  8
AM_VIS
100
AcDbLine
 10
529.6250764128143
 20
886.8125456237731
 30
0.0
 11
536.1250764128143
 21
886.8125456237731
 31
0.0
  0
LINE
  5
508F
330
1F
100
AcDbEntity
  8
AM_VIS
100
AcDbLine
 10
529.6250764128143
 20
878.8125456237731
 30
0.0
 11
536.1250764128143
 21
878.8125456237731
 31
0.0
  0
LINE
  5
5090
330
1F
100
AcDbEntity
  8
AM_VIS
100
AcDbLine
 10
536.1250764128143
 20
878.8125456237731
 30
0.0
 11
536.6250764128143
 21
878.8125456237731
 31
0.0
  0
LINE
  5
5091
330
1F
100
AcDbEntity
  8
AM_VIS
100
AcDbLine
 10
536.1250764128143
 20
886.8125456237731
 30
0.0
 11
536.6250764128143
 21
886.8125456237731
 31
0.0
  0
LINE
  5
5092
330
1F
100
AcDbEntity
  8
AM_VIS
100
AcDbLine
 10
517.6250764128143
 20
876.8125456237731
 30
0.0
 11
528.6250764128143
 21
876.8125456237731
 31
0.0
  0
LINE
  5
5093
330
1F
100
AcDbEntity
  8
AM_VIS
100
AcDbLine
 10
517.6250764128143
 20
888.812545623773
 30
0.0
 11
528.6250764128143
 21
888.812545623773
 31
0.0
  0
LINE
  5
5094
330
1F
100
AcDbEntity
  8
AM_VIS
100
AcDbLine
 10
529.6250764128143
 20
887.812545623773
 30
0.0
 11
528.6250764128143
 21
888.812545623773
 31
0.0
  0
LINE
  5
5095
330
1F
100
AcDbEntity
  8
AM_VIS
100
AcDbLine
 10
529.6250764128143
 20
877.8125456237731
 30
0.0
 11
528.6250764128143
 21
876.8125456237731
 31
0.0
  0
LINE
  5
5096
330
1F
100
AcDbEntity
  8
AM_VIS
100
AcDbLine
 10
517.6250764128143
 20
876.8125456237731
 30
0.0
 11
517.6250764128143
 21
888.812545623773
 31
0.0
  0
LINE
  5
5097
330
1F
100
AcDbEntity
  8
AM_VIS
100
AcDbLine
 10
528.6250764128143
 20
876.8125456237731
 30
0.0
 11
528.6250764128143
 21
888.812545623773
 31
0.0
  0
LINE
  5
5098
330
1F
100
AcDbEntity
  8
AM_VIS
100
AcDbLine
 10
529.6250764128143
 20
887.812545623773
 30
0.0
 11
529.6250764128143
 21
886.8125456237731
 31
0.0
  0
LINE
  5
5099
330
1F
100
AcDbEntity
  8
AM_VIS
100
AcDbLine
 10
529.6250764128143
 20
886.8125456237731
 30
0.0
 11
529.6250764128143
 21
878.8125456237731
 31
0.0
  0
LINE
  5
509A
330
1F
100
AcDbEntity
  8
AM_VIS
100
AcDbLine
 10
529.6250764128143
 20
878.8125456237731
 30
0.0
 11
529.6250764128143
 21
877.8125456237731
 31
0.0
  0
LINE
  5
509B
330
1F
100
AcDbEntity
  8
AM_VIS
100
AcDbLine
 10
536.6250764128143
 20
886.8125456237731
 30
0.0
 11
536.6250764128143
 21
878.8125456237731
 31
0.0
  0
LINE
  5
509C
330
1F
100
AcDbEntity
  8
AM_VIS
100
AcDbLine
 10
536.1250764128143
 20
878.8125456237731
 30
0.0
 11
536.1250764128143
 21
886.8125456237731
 31
0.0
  0
LINE
  5
509D
330
1F
100
AcDbEntity
  8
AM_7
100
AcDbLine
 10
514.6250764128143
 20
1011.795342566843
 30
0.0
 11
539.1250764128143
 21
1011.795342566843
 31
0.0
  0
LINE
  5
509E
330
1F
100
AcDbEntity
  8
AM_VIS
100
AcDbLine
 10
529.6250764128143
 20
1008.795342566843
 30
0.0
 11
536.1250764128143
 21
1008.795342566843
 31
0.0
  0
LINE
  5
509F
330
1F
100
AcDbEntity
  8
AM_VIS
100
AcDbLine
 10
529.6250764128143
 20
1014.795342566843
 30
0.0
 11
536.1250764128143
 21
1014.795342566843
 31
0.0
  0
SPLINE
  5
50A0
330
1F
100
AcDbEntity
  8
AM_VIS
100
AcDbSpline
210
0.0
220
0.0
230
1.0
 70
    12
 71
     2
 72
     6
 73
     3
 74
     0
 42
0.0000000001
 43
0.0000000001
 40
9.452929079407638
 40
9.452929079407638
 40
9.452929079407638
 40
11.20740140870551
 40
11.20740140870551
 40
11.20740140870551
 10
536.1250764128145
 20
1014.795342566843
 30
0.0
 41
1.050892834859337
 10
536.4214281561382
 20
1014.301422994636
 30
0.0
 41
1.030169295903111
 10
536.6250764128143
 20
1013.856895379652
 30
0.0
 41
1.0
  0
LINE
  5
50A1
330
1F
100
AcDbEntity
  8
AM_VIS
100
AcDbLine
 10
536.6250764128143
 20
1009.733789754034
 30
0.0
 11
536.6250764128143
 21
1013.856895379652
 31
0.0
  0
SPLINE
  5
50A2
330
1F
100
AcDbEntity
  8
AM_VIS
100
AcDbSpline
210
0.0
220
0.0
230
1.0
 70
    12
 71
     2
 72
     6
 73
     3
 74
     0
 42
0.0000000001
 43
0.0000000001
 40
0.0
 40
0.0
 40
0.0
 40
1.754472329297871
 40
1.754472329297871
 40
1.754472329297871
 10
536.6250764128143
 20
1009.733789754034
 30
0.0
 41
1.0
 10
536.4214281561381
 20
1009.28926213905
 30
0.0
 41
1.030169295903112
 10
536.1250764128143
 20
1008.795342566843
 30
0.0
 41
1.050892834859338
  0
LINE
  5
50A3
330
1F
100
AcDbEntity
  8
AM_VIS
100
AcDbLine
 10
529.6250764128143
 20
1006.795342566843
 30
0.0
 11
536.1250764128143
 21
1006.795342566843
 31
0.0
  0
LINE
  5
50A4
330
1F
100
AcDbEntity
  8
AM_VIS
100
AcDbLine
 10
517.6250764128143
 20
1005.795342566843
 30
0.0
 11
528.6250764128143
 21
1005.795342566843
 31
0.0
  0
LINE
  5
50A5
330
1F
100
AcDbEntity
  8
AM_VIS
100
AcDbLine
 10
517.6250764128143
 20
1017.795342566843
 30
0.0
 11
528.6250764128143
 21
1017.795342566843
 31
0.0
  0
LINE
  5
50A6
330
1F
100
AcDbEntity
  8
AM_VIS
100
AcDbLine
 10
529.6250764128143
 20
1016.795342566843
 30
0.0
 11
528.6250764128143
 21
1017.795342566843
 31
0.0
  0
LINE
  5
50A7
330
1F
100
AcDbEntity
  8
AM_VIS
100
AcDbLine
 10
529.6250764128143
 20
1006.795342566843
 30
0.0
 11
528.6250764128143
 21
1005.795342566843
 31
0.0
  0
LINE
  5
50A8
330
1F
100
AcDbEntity
  8
AM_VIS
100
AcDbLine
 10
529.6250764128143
 20
1016.795342566843
 30
0.0
 11
536.1250764128143
 21
1016.795342566843
 31
0.0
  0
LINE
  5
50A9
330
1F
100
AcDbEntity
  8
AM_VIS
100
AcDbLine
 10
536.6250764128143
 20
1016.295342566843
 30
0.0
 11
536.1250764128143
 21
1016.795342566843
 31
0.0
  0
LINE
  5
50AA
330
1F
100
AcDbEntity
  8
AM_VIS
100
AcDbLine
 10
536.6250764128143
 20
1007.295342566843
 30
0.0
 11
536.1250764128143
 21
1006.795342566843
 31
0.0
  0
LINE
  5
50AB
330
1F
100
AcDbEntity
  8
AM_VIS
100
AcDbLine
 10
517.6250764128143
 20
1005.795342566843
 30
0.0
 11
517.6250764128143
 21
1017.795342566843
 31
0.0
  0
LINE
  5
50AC
330
1F
100
AcDbEntity
  8
AM_VIS
100
AcDbLine
 10
528.6250764128143
 20
1005.795342566843
 30
0.0
 11
528.6250764128143
 21
1017.795342566843
 31
0.0
  0
LINE
  5
50AD
330
1F
100
AcDbEntity
  8
AM_VIS
100
AcDbLine
 10
529.6250764128143
 20
1014.795342566843
 30
0.0
 11
529.6250764128143
 21
1008.795342566843
 31
0.0
  0
LINE
  5
50AE
330
1F
100
AcDbEntity
  8
AM_VIS
100
AcDbLine
 10
529.6250764128143
 20
1008.795342566843
 30
0.0
 11
529.6250764128143
 21
1006.795342566843
 31
0.0
  0
LINE
  5
50AF
330
1F
100
AcDbEntity
  8
AM_VIS
100
AcDbLine
 10
529.6250764128143
 20
1016.795342566843
 30
0.0
 11
529.6250764128143
 21
1014.795342566843
 31
0.0
  0
LINE
  5
50B0
330
1F
100
AcDbEntity
  8
AM_VIS
100
AcDbLine
 10
536.1250764128143
 20
1014.795342566843
 30
0.0
 11
536.1250764128143
 21
1016.795342566843
 31
0.0
  0
LINE
  5
50B1
330
1F
100
AcDbEntity
  8
AM_VIS
100
AcDbLine
 10
536.6250764128143
 20
1016.295342566843
 30
0.0
 11
536.6250764128143
 21
1013.856895379652
 31
0.0
  0
LINE
  5
50B2
330
1F
100
AcDbEntity
  8
AM_VIS
100
AcDbLine
 10
536.6250764128143
 20
1009.733789754034
 30
0.0
 11
536.6250764128143
 21
1007.295342566843
 31
0.0
  0
LINE
  5
50B3
330
1F
100
AcDbEntity
  8
AM_VIS
100
AcDbLine
 10
536.1250764128143
 20
1006.795342566843
 30
0.0
 11
536.1250764128143
 21
1008.795342566843
 31
0.0
  0
LINE
  5
50B4
330
1F
100
AcDbEntity
  8
AM_7
100
AcDbLine
 10
514.4807388456159
 20
1043.795361971243
 30
0.0
 11
538.9807388456159
 21
1043.795361971243
 31
0.0
  0
LINE
  5
50B5
330
1F
100
AcDbEntity
  8
AM_VIS
100
AcDbLine
 10
529.480738845616
 20
1040.795361971243
 30
0.0
 11
535.9807388456159
 21
1040.795361971243
 31
0.0
  0
LINE
  5
50B6
330
1F
100
AcDbEntity
  8
AM_VIS
100
AcDbLine
 10
529.480738845616
 20
1046.795361971243
 30
0.0
 11
535.9807388456159
 21
1046.795361971243
 31
0.0
  0
SPLINE
  5
50B7
330
1F
100
AcDbEntity
  8
AM_VIS
100
AcDbSpline
210
0.0
220
0.0
230
1.0
 70
    12
 71
     2
 72
     6
 73
     3
 74
     0
 42
0.0000000001
 43
0.0000000001
 40
9.452929079407638
 40
9.452929079407638
 40
9.452929079407638
 40
11.20740140870551
 40
11.20740140870551
 40
11.20740140870551
 10
535.9807388456165
 20
1046.795361971244
 30
0.0
 41
1.050892834859337
 10
536.2770905889399
 20
1046.301442399036
 30
0.0
 41
1.030169295903111
 10
536.4807388456159
 20
1045.856914784052
 30
0.0
 41
1.0
  0
LINE
  5
50B8
330
1F
100
AcDbEntity
  8
AM_VIS
100
AcDbLine
 10
536.4807388456159
 20
1041.733809158434
 30
0.0
 11
536.4807388456159
 21
1045.856914784052
 31
0.0
  0
SPLINE
  5
50B9
330
1F
100
AcDbEntity
  8
AM_VIS
100
AcDbSpline
210
0.0
220
0.0
230
1.0
 70
    12
 71
     2
 72
     6
 73
     3
 74
     0
 42
0.0000000001
 43
0.0000000001
 40
0.0
 40
0.0
 40
0.0
 40
1.754472329297871
 40
1.754472329297871
 40
1.754472329297871
 10
536.4807388456159
 20
1041.733809158434
 30
0.0
 41
1.0
 10
536.2770905889399
 20
1041.28928154345
 30
0.0
 41
1.030169295903112
 10
535.9807388456159
 20
1040.795361971243
 30
0.0
 41
1.050892834859338
  0
LINE
  5
50BA
330
1F
100
AcDbEntity
  8
AM_VIS
100
AcDbLine
 10
529.480738845616
 20
1038.795361971243
 30
0.0
 11
535.9807388456159
 21
1038.795361971243
 31
0.0
  0
LINE
  5
50BB
330
1F
100
AcDbEntity
  8
AM_VIS
100
AcDbLine
 10
517.480738845616
 20
1037.795361971243
 30
0.0
 11
528.4807388456159
 21
1037.795361971243
 31
0.0
  0
LINE
  5
50BC
330
1F
100
AcDbEntity
  8
AM_VIS
100
AcDbLine
 10
517.480738845616
 20
1049.795361971243
 30
0.0
 11
528.4807388456159
 21
1049.795361971243
 31
0.0
  0
LINE
  5
50BD
330
1F
100
AcDbEntity
  8
AM_VIS
100
AcDbLine
 10
529.480738845616
 20
1048.795361971243
 30
0.0
 11
528.4807388456159
 21
1049.795361971243
 31
0.0
  0
LINE
  5
50BE
330
1F
100
AcDbEntity
  8
AM_VIS
100
AcDbLine
 10
529.480738845616
 20
1038.795361971243
 30
0.0
 11
528.4807388456159
 21
1037.795361971243
 31
0.0
  0
LINE
  5
50BF
330
1F
100
AcDbEntity
  8
AM_VIS
100
AcDbLine
 10
529.480738845616
 20
1048.795361971243
 30
0.0
 11
535.9807388456159
 21
1048.795361971243
 31
0.0
  0
LINE
  5
50C0
330
1F
100
AcDbEntity
  8
AM_VIS
100
AcDbLine
 10
536.4807388456159
 20
1048.295361971243
 30
0.0
 11
535.9807388456159
 21
1048.795361971243
 31
0.0
  0
LINE
  5
50C1
330
1F
100
AcDbEntity
  8
AM_VIS
100
AcDbLine
 10
536.4807388456159
 20
1039.295361971243
 30
0.0
 11
535.9807388456159
 21
1038.795361971243
 31
0.0
  0
LINE
  5
50C2
330
1F
100
AcDbEntity
  8
AM_VIS
100
AcDbLine
 10
517.480738845616
 20
1037.795361971243
 30
0.0
 11
517.480738845616
 21
1049.795361971243
 31
0.0
  0
LINE
  5
50C3
330
1F
100
AcDbEntity
  8
AM_VIS
100
AcDbLine
 10
528.4807388456159
 20
1037.795361971243
 30
0.0
 11
528.4807388456159
 21
1049.795361971243
 31
0.0
  0
LINE
  5
50C4
330
1F
100
AcDbEntity
  8
AM_VIS
100
AcDbLine
 10
529.480738845616
 20
1046.795361971243
 30
0.0
 11
529.480738845616
 21
1040.795361971243
 31
0.0
  0
LINE
  5
50C5
330
1F
100
AcDbEntity
  8
AM_VIS
100
AcDbLine
 10
529.480738845616
 20
1040.795361971243
 30
0.0
 11
529.480738845616
 21
1038.795361971243
 31
0.0
  0
LINE
  5
50C6
330
1F
100
AcDbEntity
  8
AM_VIS
100
AcDbLine
 10
529.480738845616
 20
1048.795361971243
 30
0.0
 11
529.480738845616
 21
1046.795361971243
 31
0.0
  0
LINE
  5
50C7
330
1F
100
AcDbEntity
  8
AM_VIS
100
AcDbLine
 10
535.9807388456159
 20
1046.795361971243
 30
0.0
 11
535.9807388456159
 21
1048.795361971243
 31
0.0
  0
LINE
  5
50C8
330
1F
100
AcDbEntity
  8
AM_VIS
100
AcDbLine
 10
536.4807388456159
 20
1048.295361971243
 30
0.0
 11
536.4807388456159
 21
1045.856914784052
 31
0.0
  0
LINE
  5
50C9
330
1F
100
AcDbEntity
  8
AM_VIS
100
AcDbLine
 10
536.4807388456159
 20
1041.733809158434
 30
0.0
 11
536.4807388456159
 21
1039.295361971243
 31
0.0
  0
LINE
  5
50CA
330
1F
100
AcDbEntity
  8
AM_VIS
100
AcDbLine
 10
535.9807388456159
 20
1038.795361971243
 30
0.0
 11
535.9807388456159
 21
1040.795361971243
 31
0.0
  0
DIMENSION
  5
50EF
330
1F
100
AcDbEntity
  8
AM_5
100
AcDbDimension
  2
*D3
 10
280.0865174159568
 20
1041.295342566843
 30
0.0
 11
277.6361729277676
 21
1027.795342566843
 31
0.0
 70
    32
 71
     5
 42
26.99999999999989
  3
AM_ISO$0
100
AcDbAlignedDimension
 13
303.7365174159569
 23
1014.295342566843
 33
0.0
 14
303.7365174159569
 24
1041.295342566843
 34
0.0
 50
90.0
100
AcDbRotatedDimension
1001
ACAD
1000
DSTYLE
1002
{
1070
    40
1040
1.0
1070
   144
1040
1.0
1070
   272
1070
     8
1002
}
  0
DIMENSION
  5
50F0
330
1F
100
AcDbEntity
  8
AM_5
100
AcDbDimension
  2
*D4
 10
310.5865174159569
 20
1073.795342566843
 30
0.0
 11
301.3365174159569
 21
1076.245342566843
 31
0.0
 70
    32
 71
     5
 42
18.50000000000017
  3
AM_ISO$0
100
AcDbAlignedDimension
 13
292.0865174159568
 23
1060.795342566843
 33
0.0
 14
310.5865174159569
 24
1048.145342566843
 34
0.0
100
AcDbRotatedDimension
1001
ACAD
1000
DSTYLE
1002
{
1070
    40
1040
1.0
1070
   144
1040
1.0
1070
   272
1070
     8
1002
}
  0
INSERT
  5
50F1
330
1F
100
AcDbEntity
  8
AM_5
100
AcDbBlockReference
  2
*S33
 10
0.0
 20
0.0
 30
0.0
  0
TEXT
  5
50F2
330
1F
100
AcDbEntity
  8
AM_5
100
AcDbText
 10
328.5238963348535
 20
981.3656064072857
 30
0.0
 40
3.5
  1
2-PT1/8
100
AcDbText
  0
TEXT
  5
50F3
330
1F
100
AcDbEntity
  8
AM_5
100
AcDbText
 10
328.5238963348535
 20
975.6885634778045
 30
0.0
 40
3.5
  1
(PORT)
100
AcDbText
  0
DIMENSION
  5
5158
330
1F
100
AcDbEntity
  8
AM_5
100
AcDbDimension
  2
*D5
 10
488.6250764128142
 20
973.7953425668434
 30
0.0
 11
449.6250764128142
 21
976.2453425668436
 31
0.0
 70
    32
 71
     5
 42
78.0
  3
AM_ISO$0
100
AcDbAlignedDimension
 13
410.6250764128143
 23
999.2953425668433
 33
0.0
 14
488.6250764128142
 24
999.2953425668433
 34
0.0
100
AcDbRotatedDimension
1001
ACAD
1000
DSTYLE
1002
{
1070
    40
1040
1.0
1070
   144
1040
1.0
1070
   272
1070
     8
1002
}
  0
DIMENSION
  5
5159
330
1F
100
AcDbEntity
  8
AM_5
100
AcDbDimension
  2
*D6
 10
373.6250764128143
 20
1051.295342566843
 30
0.0
 11
371.1750764128142
 21
1027.795342566843
 31
0.0
 70
    32
 71
     5
 42
46.99999999999988
  3
AM_ISO$0
100
AcDbAlignedDimension
 13
405.6250764128142
 23
1004.295342566843
 33
0.0
 14
405.6250764128142
 24
1051.295342566843
 34
0.0
 50
90.0
100
AcDbRotatedDimension
1001
ACAD
1000
DSTYLE
1002
{
1070
    40
1040
1.0
1070
   144
1040
1.0
1070
   272
1070
     8
1002
}
  0
DIMENSION
  5
515A
330
1F
100
AcDbEntity
  8
AM_5
100
AcDbDimension
  2
*D7
 10
472.6250764128142
 20
981.7953425668434
 30
0.0
 11
449.6250764128142
 21
984.2453425668436
 31
0.0
 70
    32
 71
     5
 42
45.99999999999988
  3
AM_ISO$0
100
AcDbAlignedDimension
 13
426.6250764128143
 23
1023.795342566843
 33
0.0
 14
472.6250764128142
 24
1023.795342566843
 34
0.0
100
AcDbRotatedDimension
1001
ACAD
1000
DSTYLE
1002
{
1070
    40
1040
1.0
1070
   144
1040
1.0
1070
   272
1070
     8
1002
}
  0
DIMENSION
  5
515B
330
1F
100
AcDbEntity
  8
AM_5
100
AcDbDimension
  2
*D8
 10
513.6250764128166
 20
965.7953425668434
 30
0.0
 11
449.6250764128155
 21
968.2456870550325
 31
0.0
 70
    32
 71
     5
 42
128.0000000000022
  3
AM_ISO$0
100
AcDbAlignedDimension
 13
385.6250764128144
 23
994.5453425668453
 33
0.0
 14
513.6250764128166
 24
994.545342566843
 34
0.0
100
AcDbRotatedDimension
1001
ACAD
1000
DSTYLE
1002
{
1070
    40
1040
1.0
1070
   144
1040
1.0
1070
   272
1070
     8
1002
}
  0
DIMENSION
  5
515C
330
1F
100
AcDbEntity
  8
AM_5
100
AcDbDimension
  2
*D9
 10
536.6250764128143
 20
981.7953425668434
 30
0.0
 11
525.1250764128155
 21
984.2456870550325
 31
0.0
 70
    32
  1
Max.<>
 71
     5
 42
22.99999999999773
  3
AM_ISO$0
100
AcDbAlignedDimension
 13
513.6250764128166
 23
994.545342566843
 33
0.0
 14
536.6250764128143
 24
1007.295342566843
 34
0.0
100
AcDbRotatedDimension
1001
ACAD
1000
DSTYLE
1002
{
1070
   271
1070
     0
1070
   272
1070
     8
1002
}
  0
DIMENSION
  5
515D
330
1F
100
AcDbEntity
  8
AM_5
100
AcDbDimension
  2
*D10
 10
400.6250764128143
 20
981.7953425668434
 30
0.0
 11
393.1250764128155
 21
984.2453425668436
 31
0.0
 70
    32
 71
     5
 42
14.99999999999767
  3
AM_ISO$0
100
AcDbAlignedDimension
 13
385.6250764128167
 23
994.545342566843
 33
0.0
 14
400.6250764128143
 24
993.7953425668435
 34
0.0
100
AcDbRotatedDimension
1001
ACAD
1000
DSTYLE
1002
{
1070
    40
1040
1.0
1070
   144
1040
1.0
1070
   272
1070
     8
1002
}
  0
DIMENSION
  5
515E
330
1F
100
AcDbEntity
  8
AM_5
100
AcDbDimension
  2
*D11
 10
513.6250764128143
 20
981.7953425668434
 30
0.0
 11
506.1250764128143
 21
984.2453425668436
 31
0.0
 70
    32
 71
     5
 42
15.0
  3
AM_ISO$0
100
AcDbAlignedDimension
 13
498.6250764128143
 23
993.7953425668434
 33
0.0
 14
513.6250764128143
 24
994.5453425668409
 34
0.0
100
AcDbRotatedDimension
1001
ACAD
1000
DSTYLE
1002
{
1070
    40
1040
1.0
1070
   144
1040
1.0
1070
   272
1070
     8
1002
}
  0
DIMENSION
  5
515F
330
1F
100
AcDbEntity
  8
AM_5
100
AcDbDimension
  2
*D12
 10
548.4807388456159
 20
1011.795342566843
 30
0.0
 11
546.0303943574269
 21
1027.795352269043
 31
0.0
 70
    32
 71
     5
 42
32.00001940439995
  3
AM_ISO$0
100
AcDbAlignedDimension
 13
538.9807388456159
 23
1043.795361971243
 33
0.0
 14
539.1250764128143
 24
1011.795342566843
 34
0.0
 50
90.0
100
AcDbRotatedDimension
1001
ACAD
1000
DSTYLE
1002
{
1070
    40
1040
1.0
1070
   144
1040
1.0
1070
   272
1070
     8
1002
}
  0
DIMENSION
  5
5160
330
1F
100
AcDbEntity
  8
AM_5
100
AcDbDimension
  2
*D13
 10
365.6250764128143
 20
1061.795342566843
 30
0.0
 11
363.1750764128142
 21
1027.795342566843
 31
0.0
 70
    32
 71
     5
 42
67.99999999999966
  3
AM_ISO$0
100
AcDbAlignedDimension
 13
400.6250764128143
 23
993.7953425668435
 33
0.0
 14
400.6250764128142
 24
1061.795342566843
 34
0.0
 50
90.0
100
AcDbRotatedDimension
1001
ACAD
1000
DSTYLE
1002
{
1070
    40
1040
1.0
1070
   144
1040
1.0
1070
   272
1070
     8
1002
}
  0
INSERT
  5
5161
330
1F
100
AcDbEntity
  8
AM_5
100
AcDbBlockReference
  2
*S34
 10
0.0
 20
0.0
 30
0.0
  0
INSERT
  5
5162
330
1F
100
AcDbEntity
  8
AM_5
100
AcDbBlockReference
  2
*S35
 10
0.0
 20
0.0
 30
0.0
  0
INSERT
  5
5163
330
1F
100
AcDbEntity
  8
AM_5
100
AcDbBlockReference
  2
*S36
 10
0.0
 20
0.0
 30
0.0
  0
TEXT
  5
5164
330
1F
100
AcDbEntity
  8
AM_5
100
AcDbText
 10
370.5228382010274
 20
956.6533554758736
 30
0.0
 40
3.5
  1
4-M6x8depth
100
AcDbText
  0
INSERT
  5
5165
330
1F
100
AcDbEntity
  8
AM_5
100
AcDbBlockReference
  2
*S37
 10
0.0
 20
0.0
 30
0.0
  0
DIMENSION
  5
5166
330
1F
100
AcDbEntity
  8
AM_5
100
AcDbDimension
  2
*D14
 10
469.4240662860376
 20
1047.594332440066
 30
0.0
 11
470.0955662243253
 21
1077.215476698214
 31
0.0
 70
    34
 71
     5
 42
0.7853981633974541
  3
AM_ISO$2
100
AcDb2LineAngularDimension
 13
449.6250764128145
 23
1027.795342566843
 33
0.0
 14
449.6250764128142
 24
1065.280192951164
 34
0.0
 15
463.0601052553585
 25
1041.230371409387
 35
0.0
 16
475.1460602734139
 26
1071.998983272547
 36
0.0
1001
ACAD_DIMASSOC_DIMLFAC
1040
1.0
1001
ACAD_DIMASSOC_CALC_DIMLFAC
1040
1.0
1001
ACAD_DIMASSOC_OVERRIDDEN_DIMLFAC
1040
1.0
1001
ACAD
1000
DSTYLE
1002
{
1070
    40
1040
1.0
1070
   144
1040
1.0
1070
   272
1070
     8
1002
}
  0
DIMENSION
  5
5169
330
1F
100
AcDbEntity
  8
AM_5
100
AcDbDimension
  2
*D15
 10
429.8260865395909
 20
1047.594332440066
 30
0.0
 11
429.1630397552109
 21
1077.195068979404
 31
0.0
 70
    34
 71
     5
 42
0.785398163397433
  3
AM_ISO$2
100
AcDb2LineAngularDimension
 13
449.6250764128145
 23
1027.795342566843
 33
0.0
 14
449.6250764128142
 24
1065.280192951164
 34
0.0
 15
436.1900475702697
 25
1041.230371409388
 35
0.0
 16
436.420160161236
 26
1077.076760927425
 36
0.0
1001
ACAD_DIMASSOC_DIMLFAC
1040
1.0
1001
ACAD_DIMASSOC_CALC_DIMLFAC
1040
1.0
1001
ACAD_DIMASSOC_OVERRIDDEN_DIMLFAC
1040
1.0
1001
ACAD
1000
DSTYLE
1002
{
1070
    40
1040
1.0
1070
   144
1040
1.0
1070
   272
1070
     8
1002
}
  0
TEXT
  5
516C
330
1F
100
AcDbEntity
  8
AM_5
100
AcDbText
 10
509.8417382817152
 20
954.1683606012023
 30
0.0
 40
3.5
  1
4-M6x7depth
100
AcDbText
  0
TEXT
  5
516D
330
1F
100
AcDbEntity
  8
AM_5
100
AcDbText
 10
509.8417382817152
 20
948.4913176717212
 30
0.0
 40
3.5
  1
P.C.D46
100
AcDbText
  0
TEXT
  5
516E
330
1F
100
AcDbEntity
  8
AM_5
100
AcDbText
 10
501.2495886469265
 20
1072.259369547129
 30
0.0
 40
3.5
  1
2-M4x6depth
100
AcDbText
  0
INSERT
  5
516F
330
1F
100
AcDbEntity
  8
AM_5
100
AcDbBlockReference
  2
*S38
 10
0.0
 20
0.0
 30
0.0
  0
TEXT
  5
5170
330
1F
100
AcDbEntity
  8
AM_5
100
AcDbText
 10
360.8732503077823
 20
1080.262103017066
 30
0.0
 40
3.5
  1
2-%%C8.6thru
100
AcDbText
  0
TEXT
  5
5171
330
1F
100
AcDbEntity
  8
AM_5
100
AcDbText
 10
360.8732503077823
 20
1074.585060087585
 30
0.0
 40
3.5
  1
%%C14x8.5depth
100
AcDbText
  0
TEXT
  5
5172
330
1F
100
AcDbEntity
  8
AM_5
100
AcDbText
 10
351.3054856041241
 20
1069.111831579018
 30
0.0
 40
3.5
  1
M10x15depth(sink)
100
AcDbText
  0
LINE
  5
5173
330
1F
100
AcDbEntity
  8
AM_5
100
AcDbLine
 10
360.7630020001567
 20
1079.144643625481
 30
0.0
 11
382.9385508502711
 21
1079.144643625481
 31
0.0
  0
TEXT
  5
5174
330
1F
100
AcDbEntity
  8
AM_5
100
AcDbText
 10
528.4205084893343
 20
1060.735508122682
 30
0.0
 40
3.5
  1
M12x1.0
100
AcDbText
  0
DIMENSION
  5
5264
330
1F
100
AcDbEntity
  8
AM_5
100
AcDbDimension
  2
*D16
 10
548.6250764128143
 20
882.812545623773
 30
0.0
 11
546.175076412814
 21
873.562545623773
 31
0.0
 70
    32
 71
     5
 42
18.50000000000022
  3
AM_ISO$0
100
AcDbAlignedDimension
 13
498.6250764128143
 23
864.3125456237727
 33
0.0
 14
539.1250764128143
 24
882.812545623773
 34
0.0
 50
90.0
100
AcDbRotatedDimension
1001
ACAD
1000
DSTYLE
1002
{
1070
    40
1040
1.0
1070
   144
1040
1.0
1070
   272
1070
     8
1002
}
  0
DIMENSION
  5
5265
330
1F
100
AcDbEntity
  8
AM_5
100
AcDbDimension
  2
*D17
 10
556.6250764128143
 20
902.3125456237746
 30
0.0
 11
554.175076412814
 21
883.3125456237738
 31
0.0
 70
    32
 71
     5
 42
38.00000000000171
  3
AM_ISO$0
100
AcDbAlignedDimension
 13
498.6250764128143
 23
864.3125456237727
 33
0.0
 14
498.6250764128143
 24
902.3125456237746
 34
0.0
 50
90.0
100
AcDbRotatedDimension
1001
ACAD
1000
DSTYLE
1002
{
1070
    40
1040
1.0
1070
   144
1040
1.0
1070
   272
1070
     8
1002
}
  0
DIMENSION
  5
5266
330
1F
100
AcDbEntity
  8
AM_5
100
AcDbDimension
  2
*D18
 10
479.6250764128142
 20
931.3125456237731
 30
0.0
 11
449.6250764128141
 21
934.2634720755114
 31
0.0
 70
    32
  1
%%c<>{}{\C5; g6}
 71
     5
 42
60.00000000000006
  3
AM_ISO$0
100
AcDbAlignedDimension
 13
419.6250764128142
 23
915.8125456237737
 33
0.0
 14
479.6250764128142
 24
915.8125456237737
 34
0.0
100
AcDbRotatedDimension
1001
GENIUS_GENDTOL_13
1000
FitTxt
1000
g6
1000
{$3 $T}
1040
83.0
1001
ACAD
1000
DSTYLE
1002
{
1070
   286
1070
     0
1070
   284
1070
     8
1070
    48
1040
0.1
1070
    47
1040
0.1
1070
   272
1070
     8
1070
   274
1070
     3
1002
}
  0
DIMENSION
  5
5267
330
1F
100
AcDbEntity
  8
AM_5
100
AcDbDimension
  2
*D19
 10
480.8750764128142
 20
939.3125456237731
 30
0.0
 11
449.6250764128143
 21
942.2638165637003
 31
0.0
 70
    32
  1
%%c<>{}{\C5; g6}
 71
     5
 42
62.49999999999983
  3
AM_ISO$0
100
AcDbAlignedDimension
 13
418.3750764128144
 23
907.8125456237728
 33
0.0
 14
480.8750764128142
 24
907.8125456237728
 34
0.0
100
AcDbRotatedDimension
1001
GENIUS_GENDTOL_13
1000
FitTxt
1000
g6
1000
{$3 $T}
1040
85.0
1001
ACAD
1000
DSTYLE
1002
{
1070
   286
1070
     0
1070
   284
1070
     8
1070
    48
1040
0.1
1070
    47
1040
0.1
1070
   272
1070
     8
1070
   274
1070
     3
1002
}
  0
DIMENSION
  5
5268
330
1F
100
AcDbEntity
  8
AM_5
100
AcDbDimension
  2
*D20
 10
556.6250764128143
 20
919.312545623773
 30
0.0
 11
554.175076412814
 21
910.812545623774
 31
0.0
 70
    32
 71
     5
 42
16.99999999999852
  3
AM_ISO$0
100
AcDbAlignedDimension
 13
498.6250764128143
 23
902.3125456237746
 33
0.0
 14
489.5501312030082
 24
919.312545623773
 34
0.0
 50
90.0
100
AcDbRotatedDimension
1001
ACAD
1000
DSTYLE
1002
{
1070
    40
1040
1.0
1070
   144
1040
1.0
1070
   272
1070
     8
1002
}
  0
DIMENSION
  5
5269
330
1F
100
AcDbEntity
  8
AM_5
100
AcDbDimension
  2
*D21
 10
548.6250764128143
 20
919.3125456237737
 30
0.0
 11
546.175076412814
 21
914.3125456237735
 31
0.0
 70
    32
 71
     5
 42
10.00000000000091
  3
AM_ISO$0
100
AcDbAlignedDimension
 13
479.1250764128142
 23
909.3125456237729
 33
0.0
 14
479.1250764128142
 24
919.3125456237737
 34
0.0
 50
90.0
100
AcDbRotatedDimension
1001
ACAD
1000
DSTYLE
1002
{
1070
    40
1040
1.0
1070
   144
1040
1.0
1070
   272
1070
     8
1002
}
  0
DIMENSION
  5
526A
330
1F
100
AcDbEntity
  8
AM_5
100
AcDbDimension
  2
*D22
 10
564.6250764128143
 20
919.312545623773
 30
0.0
 11
562.175076412814
 21
891.812545623773
 31
0.0
 70
    32
 71
     5
 42
55.00000000000011
  3
AM_ISO$0
100
AcDbAlignedDimension
 13
498.6250764128143
 23
864.3125456237727
 33
0.0
 14
479.1250764128142
 24
919.312545623773
 34
0.0
 50
90.0
100
AcDbRotatedDimension
1001
ACAD
1000
DSTYLE
1002
{
1070
    40
1040
1.0
1070
   144
1040
1.0
1070
   272
1070
     8
1002
}
  0
DIMENSION
  5
526B
330
1F
100
AcDbEntity
  8
AM_5
100
AcDbDimension
  2
*D23
 10
460.6250764128144
 20
851.5726351447222
 30
0.0
 11
471.1500764128144
 21
851.5726351447222
 31
0.0
 70
   160
  1
%%c<>{}{\C5; H7}
 71
     5
 42
22.00000000000006
  3
AM_ISO$0
100
AcDbAlignedDimension
 13
438.6250764128144
 23
864.3125456237727
 33
0.0
 14
460.6250764128144
 24
864.3125456237727
 34
0.0
100
AcDbRotatedDimension
1001
GENIUS_GENDTOL_13
1000
FitTxt
1000
H7
1000
{$3 $T}
1040
26.0
1001
ACAD
1000
DSTYLE
1002
{
1070
   286
1070
     0
1070
   284
1070
     8
1070
    48
1040
0.1
1070
    47
1040
0.1
1070
   272
1070
     8
1070
   274
1070
     3
1002
}
  0
DIMENSION
  5
526C
330
1F
100
AcDbEntity
  8
AM_5
100
AcDbDimension
  2
*D24
 10
454.6250764128144
 20
857.3276041250656
 30
0.0
 11
470.2061899916923
 21
857.3276041250656
 31
0.0
 70
   160
  1
%%c<>thru
 71
     5
 42
10.00000000000005
  3
AM_ISO$0
100
AcDbAlignedDimension
 13
444.6250764128143
 23
867.8125456237728
 33
0.0
 14
454.6250764128144
 24
867.8125456237728
 34
0.0
100
AcDbRotatedDimension
1001
ACAD
1000
DSTYLE
1002
{
1070
    40
1040
1.0
1070
   144
1040
1.0
1070
   272
1070
     8
1002
}
  0
TEXT
  5
526D
330
1F
100
AcDbEntity
  8
AM_5
100
AcDbText
 10
478.4309878692766
 20
852.1879709294116
 30
0.0
 40
3.0
  1
%%ux2.5depth
100
AcDbText
  0
DIMENSION
  5
5348
330
1F
100
AcDbEntity
  8
AM_5
100
AcDbDimension
  2
*D25
 10
585.3066770926692
 20
1032.795342566843
 30
0.0
 11
585.3066770926691
 21
1067.265459165677
 31
0.0
 70
   160
  1
<>(wide)x3.5depth
 71
     5
 42
10.0
  3
AM_ISO$0
100
AcDbAlignedDimension
 13
597.3066770926692
 23
1022.795342566843
 33
0.0
 14
597.3066770926693
 24
1032.795342566843
 34
0.0
 50
90.0
100
AcDbRotatedDimension
1001
GENIUS_GENDTOL_13
1000
TolAcTol
1000

1000

1040
10.0
1001
ACAD
1000
DSTYLE
1002
{
1070
    47
1040
0.03
1070
    48
1040
0.0
1070
    71
1070
     1
1070
   272
1070
     8
1002
}
  0
DIMENSION
  5
5349
330
1F
100
AcDbEntity
  8
AM_5
100
AcDbDimension
  2
*D26
 10
637.8066770926694
 20
981.7953425668436
 30
0.0
 11
633.8066770926693
 21
984.2453425668436
 31
0.0
 70
    32
 71
     5
 42
8.000000000000113
  3
AM_ISO$0
100
AcDbAlignedDimension
 13
629.8066770926693
 23
1008.795342566843
 33
0.0
 14
637.8066770926694
 24
1008.795342566843
 34
0.0
100
AcDbRotatedDimension
1001
ACAD
1000
DSTYLE
1002
{
1070
    40
1040
1.0
1070
   144
1040
1.0
1070
   272
1070
     8
1002
}
  0
DIMENSION
  5
534A
330
1F
100
AcDbEntity
  8
AM_5
100
AcDbDimension
  2
*D27
 10
643.3066770926695
 20
973.7953425668436
 30
0.0
 11
633.8066770926694
 21
976.2453425668436
 31
0.0
 70
    32
 71
     5
 42
19.00000000000023
  3
AM_ISO$0
100
AcDbAlignedDimension
 13
624.3066770926693
 23
1006.310515009939
 33
0.0
 14
643.3066770926695
 24
1006.310515009145
 34
0.0
100
AcDbRotatedDimension
1001
ACAD
1000
DSTYLE
1002
{
1070
    40
1040
1.0
1070
   144
1040
1.0
1070
   272
1070
     8
1002
}
  0
DIMENSION
  5
534B
330
1F
100
AcDbEntity
  8
AM_5
100
AcDbDimension
  2
*D28
 10
574.3316770926692
 20
1043.795342566843
 30
0.0
 11
574.3316770926691
 21
1065.791688470263
 31
0.0
 70
   160
  1
%%c<>(H7)x3depth
 71
     5
 42
32.00000000000012
  3
AM_ISO$0
100
AcDbAlignedDimension
 13
597.3066770926693
 23
1011.795342566843
 33
0.0
 14
597.3066770926692
 24
1043.795342566843
 34
0.0
 50
90.0
100
AcDbRotatedDimension
1001
ACAD
1000
DSTYLE
1002
{
1070
    40
1040
1.0
1070
   144
1040
1.0
1070
   272
1070
     8
1002
}
  0
LINE
  5
554C
330
1F
100
AcDbEntity
  8
AM_VIS
100
AcDbLine
 10
633.8066770926693
 20
1022.764997681843
 30
0.0
 11
643.306677093701
 21
1017.280170123152
 31
0.0
  0
LINE
  5
554D
330
1F
100
AcDbEntity
  8
AM_VIS
100
AcDbLine
 10
624.3066770926693
 20
1017.280170124939
 30
0.0
 11
624.3066770926693
 21
1006.310515010397
 31
0.0
  0
LINE
  5
554E
330
1F
100
AcDbEntity
  8
AM_VIS
100
AcDbLine
 10
624.3066770923254
 20
1017.280170124343
 30
0.0
 11
633.8066770926693
 21
1022.764997681843
 31
0.0
  0
LINE
  5
554F
330
1F
100
AcDbEntity
  8
AM_VIS
100
AcDbLine
 10
643.3066770926695
 20
1017.280170123289
 30
0.0
 11
643.3066770926695
 21
1006.310515008748
 31
0.0
  0
LINE
  5
5550
330
1F
100
AcDbEntity
  8
AM_VIS
100
AcDbLine
 10
633.8066770926685
 20
1000.825687451843
 30
0.0
 11
643.3066770930137
 21
1006.310515009344
 31
0.0
  0
LINE
  5
5551
330
1F
100
AcDbEntity
  8
AM_VIS
100
AcDbLine
 10
624.3066770916376
 20
1006.310515010535
 30
0.0
 11
633.8066770926693
 21
1000.825687451843
 31
0.0
  0
CIRCLE
  5
5552
330
1F
100
AcDbEntity
  8
AM_VIS
100
AcDbCircle
 10
633.8066770926693
 20
1011.795342566843
 30
0.0
 40
9.250000000000001
  0
LINE
  5
5553
330
1F
100
AcDbEntity
  8
AM_VIS
100
AcDbLine
 10
633.8066770926693
 20
1054.764997681844
 30
0.0
 11
643.306677093701
 21
1049.280170123152
 31
0.0
  0
LINE
  5
5554
330
1F
100
AcDbEntity
  8
AM_VIS
100
AcDbLine
 10
624.3066770926693
 20
1049.280170124939
 30
0.0
 11
624.3066770926693
 21
1038.310515010398
 31
0.0
  0
LINE
  5
5555
330
1F
100
AcDbEntity
  8
AM_VIS
100
AcDbLine
 10
624.3066770923254
 20
1049.280170124344
 30
0.0
 11
633.8066770926693
 21
1054.764997681844
 31
0.0
  0
LINE
  5
5556
330
1F
100
AcDbEntity
  8
AM_VIS
100
AcDbLine
 10
643.3066770926695
 20
1049.28017012329
 30
0.0
 11
643.3066770926695
 21
1038.310515008748
 31
0.0
  0
LINE
  5
5557
330
1F
100
AcDbEntity
  8
AM_VIS
100
AcDbLine
 10
633.8066770926685
 20
1032.825687451843
 30
0.0
 11
643.3066770930137
 21
1038.310515009345
 31
0.0
  0
LINE
  5
5558
330
1F
100
AcDbEntity
  8
AM_VIS
100
AcDbLine
 10
624.3066770916376
 20
1038.310515010535
 30
0.0
 11
633.8066770926693
 21
1032.825687451843
 31
0.0
  0
CIRCLE
  5
5559
330
1F
100
AcDbEntity
  8
AM_VIS
100
AcDbCircle
 10
633.8066770926693
 20
1043.795342566844
 30
0.0
 40
9.250000000000001
  0
ARC
  5
555A
330
1F
100
AcDbEntity
  8
0
100
AcDbCircle
 10
647.3066770926693
 20
1037.795342566844
 30
0.0
 40
4.75
100
AcDbArc
 50
179.0039181037261
 51
270.0
  0
ARC
  5
555B
330
1F
100
AcDbEntity
  8
0
100
AcDbCircle
 10
647.3066770926693
 20
1017.795342566843
 30
0.0
 40
4.75
100
AcDbArc
 50
212.636897503558
 51
270.0
  0
LINE
  5
5569
330
1F
100
AcDbEntity
  8
AM_7
100
AcDbLine
 10
633.8066770926693
 20
1043.795342566844
 30
0.0
 11
645.3066770926693
 21
1043.795342566844
 31
0.0
1001
GENIUS_GENOREF_13
1005
556D
  0
LINE
  5
556A
330
1F
100
AcDbEntity
  8
AM_7
100
AcDbLine
 10
633.8066770926693
 20
1043.795342566844
 30
0.0
 11
633.8066770926693
 21
1055.295342566844
 31
0.0
1001
GENIUS_GENOREF_13
1005
556D
  0
LINE
  5
556B
330
1F
100
AcDbEntity
  8
AM_7
100
AcDbLine
 10
633.8066770926693
 20
1043.795342566844
 30
0.0
 11
622.3066770926693
 21
1043.795342566844
 31
0.0
1001
GENIUS_GENOREF_13
1005
556D
  0
LINE
  5
556C
330
1F
100
AcDbEntity
  8
AM_7
100
AcDbLine
 10
633.8066770926693
 20
1043.795342566844
 30
0.0
 11
633.8066770926693
 21
1032.295342566844
 31
0.0
1001
GENIUS_GENOREF_13
1005
556D
  0
POINT
  5
556D
330
1F
100
AcDbEntity
  8
0
 60
     1
100
AcDbPoint
 10
0.0
 20
0.0
 30
0.0
1001
GENIUS_GENOLIS_13
1002
{
1000
ENT
1005
556C
1005
556B
1005
556A
1005
5569
1002
}
1001
GENIUS_GENOENT_13
1002
{
1000
MYREF
1005
556D
1002
}
1002
{
1000
GRP
1005
0
1002
}
1001
GENIUS_GENOBJ-N-CRS_13
1002
{
1000
OWNER
1000
GEN
1002
}
1001
GENIUS_GENODEF_13
1002
{
1000
HIER
1070
    10
1002
}
1002
{
1000
MANEDIT
1070
     0
1002
}
1002
{
1000
NOSEL
1070
     0
1002
}
1002
{
1000
BEHIND
1070
     0
1002
}
1002
{
1000
OTHER
1070
     0
1002
}
1002
{
1000
REACTOR
1002
}
  0
LINE
  5
557B
330
1F
100
AcDbEntity
  8
AM_7
100
AcDbLine
 10
633.8066770926693
 20
1011.795342566843
 30
0.0
 11
645.3066770926693
 21
1011.795342566843
 31
0.0
1001
GENIUS_GENOREF_13
1005
557F
  0
LINE
  5
557C
330
1F
100
AcDbEntity
  8
AM_7
100
AcDbLine
 10
633.8066770926693
 20
1011.795342566843
 30
0.0
 11
633.8066770926693
 21
1023.295342566843
 31
0.0
1001
GENIUS_GENOREF_13
1005
557F
  0
LINE
  5
557D
330
1F
100
AcDbEntity
  8
AM_7
100
AcDbLine
 10
633.8066770926693
 20
1011.795342566843
 30
0.0
 11
622.3066770926693
 21
1011.795342566843
 31
0.0
1001
GENIUS_GENOREF_13
1005
557F
  0
LINE
  5
557E
330
1F
100
AcDbEntity
  8
AM_7
100
AcDbLine
 10
633.8066770926693
 20
1011.795342566843
 30
0.0
 11
633.8066770926693
 21
1000.295342566843
 31
0.0
1001
GENIUS_GENOREF_13
1005
557F
  0
POINT
  5
557F
330
1F
100
AcDbEntity
  8
0
 60
     1
100
AcDbPoint
 10
0.0
 20
0.0
 30
0.0
1001
GENIUS_GENOENT_13
1002
{
1000
MYREF
1005
557F
1002
}
1002
{
1000
GRP
1005
0
1002
}
1001
GENIUS_GENOBJ-N-CRS_13
1002
{
1000
OWNER
1000
GEN
1002
}
1001
GENIUS_GENODEF_13
1002
{
1000
HIER
1070
    10
1002
}
1002
{
1000
MANEDIT
1070
     0
1002
}
1002
{
1000
NOSEL
1070
     0
1002
}
1002
{
1000
BEHIND
1070
     0
1002
}
1002
{
1000
OTHER
1070
     0
1002
}
1002
{
1000
REACTOR
1002
}
1001
GENIUS_GENOLIS_13
1002
{
1000
ENT
1005
557E
1005
557D
1005
557C
1005
557B
1002
}
  0
LINE
  5
55ED
330
1F
100
AcDbEntity
  8
0
100
AcDbLine
 10
602.3155792316218
 20
864.3125456237727
 30
0.0
 11
596.0498657374698
 21
864.3125456237727
 31
0.0
  0
LINE
  5
55EE
330
1F
100
AcDbEntity
  8
0
100
AcDbLine
 10
595.744041571578
 20
902.3125456237744
 30
0.0
 11
602.3155792316218
 21
902.3125456237746
 31
0.0
  0
LINE
  5
55F1
330
1F
100
AcDbEntity
  8
0
100
AcDbLine
 10
596.1616566845119
 20
865.3125456237738
 30
0.0
 11
616.8155792316219
 21
865.312545623774
 31
0.0
  0
LINE
  5
55F2
330
1F
100
AcDbEntity
  8
0
100
AcDbLine
 10
595.5000858528824
 20
901.3125456237732
 30
0.0
 11
611.8155792316218
 21
901.312545623773
 31
0.0
  0
LINE
  5
55F3
330
1F
100
AcDbEntity
  8
0
100
AcDbLine
 10
595.9923633884534
 20
889.0587418094076
 30
0.0
 11
617.3155792316219
 21
889.0587418094044
 31
0.0
  0
LINE
  5
55F4
330
1F
100
AcDbEntity
  8
0
100
AcDbLine
 10
596.6173161229362
 20
886.5587418094134
 30
0.0
 11
617.3155792316219
 21
886.5587418094134
 31
0.0
  0
LINE
  5
55F5
330
1F
100
AcDbEntity
  8
0
100
AcDbLine
 10
597.826068881033
 20
876.5663494381325
 30
0.0
 11
617.3155792316219
 21
876.5663494381325
 31
0.0
  0
LINE
  5
55F6
330
1F
100
AcDbEntity
  8
0
100
AcDbLine
 10
597.8768543793099
 20
879.0663494381323
 30
0.0
 11
617.3155792316219
 21
879.0663494381323
 31
0.0
  0
LINE
  5
55F7
330
1F
100
AcDbEntity
  8
AM_7
100
AcDbLine
 10
655.2785253875417
 20
882.812545623773
 30
0.0
 11
592.7670432536847
 21
882.812545623773
 31
0.0
  0
LINE
  5
5631
330
1F
100
AcDbEntity
  8
0
100
AcDbLine
 10
617.3155792316217
 20
901.5625456237735
 30
0.0
 11
617.315579231622
 21
865.0625456237735
 31
0.0
  0
LINE
  5
5634
330
1F
100
AcDbEntity
  8
0
100
AcDbLine
 10
602.3155792316218
 20
902.3125456237746
 30
0.0
 11
602.3155792316218
 21
864.3125456237727
 31
0.0
  0
LINE
  5
5635
330
1F
100
AcDbEntity
  8
0
100
AcDbLine
 10
616.815579231622
 20
864.5625456237736
 30
0.0
 11
602.3155792316219
 21
864.5625456237736
 31
0.0
  0
LINE
  5
5636
330
1F
100
AcDbEntity
  8
0
100
AcDbLine
 10
616.8155792316219
 20
876.4625456237732
 30
0.0
 11
616.8155792316217
 21
865.312545623774
 31
0.0
  0
LINE
  5
5637
330
1F
100
AcDbEntity
  8
0
100
AcDbLine
 10
616.8155792316217
 20
865.312545623774
 30
0.0
 11
617.0655792316217
 21
864.8125456237734
 31
0.0
  0
LINE
  5
5638
330
1F
100
AcDbEntity
  8
0
100
AcDbLine
 10
616.8155792316217
 20
864.5625456237736
 30
0.0
 11
617.3155792316217
 21
865.0625456237735
 31
0.0
  0
LINE
  5
563A
330
1F
100
AcDbEntity
  8
0
100
AcDbLine
 10
616.8155792316217
 20
901.0625456237731
 30
0.0
 11
616.3155792316217
 21
901.562545623773
 31
0.0
  0
LINE
  5
563B
330
1F
100
AcDbEntity
  8
0
100
AcDbLine
 10
611.8155792316217
 20
902.0625456237736
 30
0.0
 11
611.8155792316217
 21
892.5625456237735
 31
0.0
  0
LINE
  5
563C
330
1F
100
AcDbEntity
  8
0
100
AcDbLine
 10
611.8155792316217
 20
893.0625456237731
 30
0.0
 11
616.3155792316217
 21
893.0625456237731
 31
0.0
  0
LINE
  5
563D
330
1F
100
AcDbEntity
  8
0
100
AcDbLine
 10
617.3155792316219
 20
892.5625456237735
 30
0.0
 11
611.8155792316217
 21
892.5625456237735
 31
0.0
  0
LINE
  5
563E
330
1F
100
AcDbEntity
  8
0
100
AcDbLine
 10
616.8155792316219
 20
886.4625456237732
 30
0.0
 11
616.8155792316219
 21
879.162545623773
 31
0.0
  0
LINE
  5
563F
330
1F
100
AcDbEntity
  8
0
100
AcDbLine
 10
616.3155792316217
 20
893.0625456237731
 30
0.0
 11
616.8155792316217
 21
893.562545623773
 31
0.0
  0
LINE
  5
5640
330
1F
100
AcDbEntity
  8
0
100
AcDbLine
 10
616.8155792316217
 20
893.562545623773
 30
0.0
 11
616.8155792316217
 21
901.0625456237731
 31
0.0
  0
LINE
  5
5641
330
1F
100
AcDbEntity
  8
0
100
AcDbLine
 10
616.8155792316217
 20
892.5625456237735
 30
0.0
 11
616.8155792316219
 21
889.1625456237729
 31
0.0
  0
LINE
  5
5642
330
1F
100
AcDbEntity
  8
0
100
AcDbLine
 10
611.8155792316217
 20
901.562545623773
 30
0.0
 11
616.3155792316217
 21
901.562545623773
 31
0.0
  0
LINE
  5
5643
330
1F
100
AcDbEntity
  8
0
100
AcDbLine
 10
616.8155792316217
 20
902.0625456237736
 30
0.0
 11
602.3155792316218
 21
902.0625456237736
 31
0.0
  0
LINE
  5
5644
330
1F
100
AcDbEntity
  8
0
100
AcDbLine
 10
616.8155792316217
 20
902.0625456237736
 30
0.0
 11
617.3155792316217
 21
901.5625456237735
 31
0.0
  0
LINE
  5
564B
330
1F
100
AcDbEntity
  8
AM_7
100
AcDbLine
 10
624.3155792316218
 20
882.812545623773
 30
0.0
 11
614.3155792316218
 21
882.812545623773
 31
0.0
  0
LINE
  5
564C
330
1F
100
AcDbEntity
  8
AM_VIS
100
AcDbLine
 10
620.3227358885394
 20
892.312545623773
 30
0.0
 11
621.1712416645455
 21
892.312545623773
 31
0.0
  0
LINE
  5
564D
330
1F
100
AcDbEntity
  8
AM_VIS
100
AcDbLine
 10
620.3227358880633
 20
873.3125456237727
 30
0.0
 11
621.1712416643243
 21
873.3125456237727
 31
0.0
  0
SPLINE
  5
564E
330
1F
100
AcDbEntity
  8
AM_VIS
100
AcDbSpline
210
0.0
220
0.0
230
1.0
 70
    12
 71
     2
 72
     6
 73
     3
 74
     0
 42
0.0000000001
 43
0.0000000001
 40
0.0
 40
0.0
 40
0.0
 40
11.10014331214352
 40
11.10014331214352
 40
11.10014331214352
 10
620.3227358880633
 20
873.3125456234287
 30
0.0
 41
1.0
 10
621.9060692214543
 20
878.0625456236011
 30
0.0
 41
1.154700538379298
 10
620.3227358880633
 20
882.8125456237739
 30
0.0
 41
1.0
  0
LINE
  5
564F
330
1F
100
AcDbEntity
  8
AM_VIS
100
AcDbLine
 10
618.3084225751804
 20
873.3125456237731
 30
0.0
 11
620.3227358880633
 21
873.3125456237731
 31
0.0
  0
LINE
  5
5650
330
1F
100
AcDbEntity
  8
AM_VIS
100
AcDbLine
 10
618.3084225751804
 20
892.312545623773
 30
0.0
 11
620.3227358880633
 21
892.312545623773
 31
0.0
  0
SPLINE
  5
5651
330
1F
100
AcDbEntity
  8
AM_VIS
100
AcDbSpline
210
0.0
220
0.0
230
1.0
 70
    12
 71
     2
 72
     6
 73
     3
 74
     0
 42
0.0000000001
 43
0.0000000001
 40
0.0
 40
0.0
 40
0.0
 40
11.10014331338013
 40
11.10014331338013
 40
11.10014331338013
 10
620.3227358880633
 20
882.812545623773
 30
0.0
 41
1.0
 10
621.9060692217974
 20
887.5625456242882
 30
0.0
 41
1.154700538421052
 10
620.3227358880633
 20
892.3125456248049
 30
0.0
 41
1.0
  0
LINE
  5
5652
330
1F
100
AcDbEntity
  8
AM_VIS
100
AcDbLine
 10
618.3084225751804
 20
882.812545623773
 30
0.0
 11
620.3227358880633
 21
882.812545623773
 31
0.0
  0
LINE
  5
5653
330
1F
100
AcDbEntity
  8
AM_VIS
100
AcDbLine
 10
617.4599167989192
 20
892.312545623773
 30
0.0
 11
618.3084225747042
 21
892.312545623773
 31
0.0
  0
SPLINE
  5
5654
330
1F
100
AcDbEntity
  8
AM_VIS
100
AcDbSpline
210
0.0
220
0.0
230
1.0
 70
    12
 71
     2
 72
     6
 73
     3
 74
     0
 42
0.0000000001
 43
0.0000000001
 40
0.0
 40
0.0
 40
0.0
 40
11.10014331338013
 40
11.10014331338013
 40
11.10014331338013
 10
618.3084225751804
 20
892.3125456248049
 30
0.0
 41
1.0
 10
616.7250892414458
 20
887.5625456242891
 30
0.0
 41
1.15470053842105
 10
618.3084225751804
 20
882.812545623773
 30
0.0
 41
1.0
  0
SPLINE
  5
5655
330
1F
100
AcDbEntity
  8
AM_VIS
100
AcDbSpline
210
0.0
220
0.0
230
1.0
 70
    12
 71
     2
 72
     6
 73
     3
 74
     0
 42
0.0000000001
 43
0.0000000001
 40
0.0
 40
0.0
 40
0.0
 40
11.10014331214351
 40
11.10014331214351
 40
11.10014331214351
 10
618.3084225751804
 20
882.8125456237737
 30
0.0
 41
1.0
 10
616.7250892417894
 20
878.0625456236013
 30
0.0
 41
1.1547005383793
 10
618.3084225751804
 20
873.3125456234287
 30
0.0
 41
1.0
  0
LINE
  5
5656
330
1F
100
AcDbEntity
  8
AM_VIS
100
AcDbLine
 10
617.4599167989193
 20
873.3125456237727
 30
0.0
 11
618.3084225751804
 21
873.3125456237727
 31
0.0
  0
LINE
  5
5657
330
1F
100
AcDbEntity
  8
AM_VIS
100
AcDbLine
 10
621.3155792316219
 20
892.0625456237731
 30
0.0
 11
621.1712416643244
 21
892.312545623773
 31
0.0
  0
LINE
  5
5658
330
1F
100
AcDbEntity
  8
AM_VIS
100
AcDbLine
 10
621.3155792316219
 20
873.562545623773
 30
0.0
 11
621.1712416643243
 21
873.3125456237727
 31
0.0
  0
LINE
  5
5659
330
1F
100
AcDbEntity
  8
AM_VIS
100
AcDbLine
 10
617.3155792316219
 20
873.562545623773
 30
0.0
 11
617.4599167989193
 21
873.3125456237727
 31
0.0
  0
LINE
  5
565A
330
1F
100
AcDbEntity
  8
AM_VIS
100
AcDbLine
 10
617.3155792316219
 20
892.0625456237731
 30
0.0
 11
617.4599167989192
 21
892.312545623773
 31
0.0
  0
LINE
  5
565B
330
1F
100
AcDbEntity
  8
AM_VIS
100
AcDbLine
 10
621.3155792316219
 20
873.562545623773
 30
0.0
 11
621.3155792316219
 21
892.0625456237731
 31
0.0
  0
LINE
  5
565C
330
1F
100
AcDbEntity
  8
AM_VIS
100
AcDbLine
 10
617.3155792316219
 20
892.0625456237731
 30
0.0
 11
617.3155792316219
 21
873.562545623773
 31
0.0
  0
LINE
  5
5666
330
1F
100
AcDbEntity
  8
AM_VIS
100
AcDbLine
 10
621.3155792316219
 20
876.8125456237731
 30
0.0
 11
621.3155792316219
 21
888.812545623773
 31
0.0
  0
SPLINE
  5
5751
330
1F
100
AcDbEntity
  8
0
100
AcDbSpline
210
0.0
220
0.0
230
1.0
 70
     8
 71
     3
 72
    10
 73
     6
 74
     0
 42
0.0000000001
 43
0.0000000001
 40
8.000769504617633
 40
8.000769504617633
 40
8.000769504617633
 40
8.000769504617633
 40
15.10531722137198
 40
33.10190204555947
 40
46.8643457238703
 40
46.8643457238703
 40
46.8643457238703
 40
46.8643457238703
 10
595.744041571578
 20
902.3125456237746
 30
0.0
 10
595.0309135986619
 20
899.5581024099461
 30
0.0
 10
594.2094578120376
 20
892.0061389443976
 30
0.0
 10
599.7601894885234
 20
880.2689803748751
 30
0.0
 10
596.5833309622809
 20
869.5776299395392
 30
0.0
 10
596.0498657374703
 20
864.3125456237727
 30
0.0
  0
LINE
  5
5770
330
1F
100
AcDbEntity
  8
AM_4
100
AcDbLine
 10
648.1526089973556
 20
887.9845456237735
 30
0.0
 11
621.3155792316217
 21
887.9845456237735
 31
0.0
  0
LINE
  5
5771
330
1F
100
AcDbEntity
  8
AM_4
100
AcDbLine
 10
648.1526089973556
 20
877.6405456237736
 30
0.0
 11
621.3155792316217
 21
877.6405456237736
 31
0.0
  0
LINE
  5
5772
330
1F
100
AcDbEntity
  8
AM_VIS
100
AcDbLine
 10
648.9026089973556
 20
888.0625456237735
 30
0.0
 11
648.9026089973556
 21
877.5625456237737
 31
0.0
  0
LINE
  5
5773
330
1F
100
AcDbEntity
  8
AM_VIS
100
AcDbLine
 10
648.1526089973556
 20
876.8125456237736
 30
0.0
 11
648.1526089973556
 21
888.8125456237736
 31
0.0
  0
LINE
  5
5774
330
1F
100
AcDbEntity
  8
AM_VIS
100
AcDbLine
 10
652.9026089973556
 20
877.7125456237737
 30
0.0
 11
652.9026089973557
 21
882.3125456237729
 31
0.0
  0
LINE
  5
5775
330
1F
100
AcDbEntity
  8
AM_VIS
100
AcDbLine
 10
652.9026089973558
 20
883.3125456237732
 30
0.0
 11
652.9026089973556
 21
887.9125456237735
 31
0.0
  0
LINE
  5
5776
330
1F
100
AcDbEntity
  8
AM_VIS
100
AcDbLine
 10
653.4026089973556
 20
887.4125456237734
 30
0.0
 11
653.4026089973556
 21
883.3125456237731
 31
0.0
  0
LINE
  5
5777
330
1F
100
AcDbEntity
  8
AM_VIS
100
AcDbLine
 10
653.4026089973555
 20
882.3125456237731
 30
0.0
 11
653.4026089973556
 21
878.2125456237736
 31
0.0
  0
LINE
  5
5778
330
1F
100
AcDbEntity
  8
AM_VIS
100
AcDbLine
 10
648.9026089973556
 20
888.0625456237735
 30
0.0
 11
648.1526089973556
 21
888.8125456237736
 31
0.0
  0
LINE
  5
5779
330
1F
100
AcDbEntity
  8
AM_VIS
100
AcDbLine
 10
648.9026089973556
 20
877.5625456237737
 30
0.0
 11
648.1526089973556
 21
876.8125456237736
 31
0.0
  0
LINE
  5
577A
330
1F
100
AcDbEntity
  8
AM_VIS
100
AcDbLine
 10
648.1526089973556
 20
888.8125456237736
 30
0.0
 11
621.3155792316217
 21
888.8125456237736
 31
0.0
  0
LINE
  5
577B
330
1F
100
AcDbEntity
  8
AM_VIS
100
AcDbLine
 10
648.1526089973556
 20
876.8125456237736
 30
0.0
 11
621.3155792316217
 21
876.8125456237735
 31
0.0
  0
LINE
  5
577C
330
1F
100
AcDbEntity
  8
AM_VIS
100
AcDbLine
 10
652.9026089973556
 20
887.9125456237735
 30
0.0
 11
648.9026089973556
 21
887.9125456237735
 31
0.0
  0
LINE
  5
577D
330
1F
100
AcDbEntity
  8
AM_VIS
100
AcDbLine
 10
652.9026089973556
 20
877.7125456237737
 30
0.0
 11
648.9026089973556
 21
877.7125456237737
 31
0.0
  0
LINE
  5
577E
330
1F
100
AcDbEntity
  8
AM_VIS
100
AcDbLine
 10
653.4026089973556
 20
887.4125456237734
 30
0.0
 11
652.9026089973556
 21
887.9125456237735
 31
0.0
  0
LINE
  5
577F
330
1F
100
AcDbEntity
  8
AM_VIS
100
AcDbLine
 10
653.4026089973556
 20
878.2125456237736
 30
0.0
 11
652.9026089973556
 21
877.7125456237737
 31
0.0
  0
TEXT
  5
5784
330
1F
100
AcDbEntity
  8
0
100
AcDbText
 10
591.4031206707574
 20
927.3852137940362
 30
0.0
 40
7.680000000000001
  1
R型
100
AcDbText
  0
DIMENSION
  5
5785
330
1F
100
AcDbEntity
  8
AM_5
100
AcDbDimension
  2
*D29
 10
653.4026089973556
 20
852.3125456237728
 30
0.0
 11
635.3590941144887
 21
854.7625456237728
 31
0.0
 70
    32
  1
Max.<>
 71
     5
 42
36.08702976573364
  3
AM_ISO$0
100
AcDbAlignedDimension
 13
617.315579231622
 23
865.0625456237737
 33
0.0
 14
653.4026089973556
 24
878.2125456237736
 34
0.0
100
AcDbRotatedDimension
1001
ACAD
1000
DSTYLE
1002
{
1070
   271
1070
     0
1070
   272
1070
     8
1002
}
  0
TEXT
  5
5786
330
1F
100
AcDbEntity
  8
AM_5
100
AcDbText
 10
642.1280260340335
 20
902.5937617141325
 30
0.0
 40
3.0
  1
MAC1210-SN
100
AcDbText
  0
INSERT
  5
5787
330
1F
100
AcDbEntity
  8
AM_5
100
AcDbBlockReference
  2
*S39
 10
0.0
 20
0.0
 30
0.0
  0
LINE
  5
57BC
330
1F
100
AcDbEntity
  8
AM_VIS
100
AcDbLine
 10
652.4026089973556
 20
883.3125456237731
 30
0.0
 11
652.4026089973556
 21
882.812545623773
 31
0.0
  0
LINE
  5
57BD
330
1F
100
AcDbEntity
  8
AM_VIS
100
AcDbLine
 10
652.4026089973556
 20
883.3125456237731
 30
0.0
 11
653.4026089973556
 21
883.3125456237731
 31
0.0
  0
LINE
  5
57BE
330
1F
100
AcDbEntity
  8
AM_VIS
100
AcDbLine
 10
652.4026089973556
 20
882.3125456237731
 30
0.0
 11
652.4026089973556
 21
882.812545623773
 31
0.0
  0
LINE
  5
57BF
330
1F
100
AcDbEntity
  8
AM_VIS
100
AcDbLine
 10
652.4026089973556
 20
882.3125456237731
 30
0.0
 11
653.4026089973556
 21
882.3125456237731
 31
0.0
  0
LINE
  5
58A7
330
1F
100
AcDbEntity
  8
AM_7
  6
AM_ISO08W050x2
100
AcDbLine
 10
384.1250764128167
 20
1056.795342566843
 30
0.0
 11
393.69737171009
 21
1056.795342566843
 31
0.0
1001
GENIUS_GENODEF_13
1002
{
1000
HIER
1070
     0
1002
}
1002
{
1000
MANEDIT
1070
     0
1002
}
1002
{
1000
NOSEL
1070
     0
1002
}
1002
{
1000
BEHIND
1070
     0
1002
}
1002
{
1000
OTHER
1070
     0
1002
}
1002
{
1000
REACTOR
1002
}
1001
GENIUS_GENOBJ-N-CEN_13
1002
{
1000
OWNER
1000
GEN
1002
}
1001
GENIUS_GENCEN_19
1002
{
1040
2.0
1002
}
  0
LINE
  5
58B4
330
1F
100
AcDbEntity
  8
AM_7
  6
AM_ISO08W050x2
100
AcDbLine
 10
384.1250764128167
 20
998.7953425668436
 30
0.0
 11
393.1250764128167
 21
998.7953425668427
 31
0.0
1001
GENIUS_GENODEF_13
1002
{
1000
HIER
1070
     0
1002
}
1002
{
1000
MANEDIT
1070
     0
1002
}
1002
{
1000
NOSEL
1070
     0
1002
}
1002
{
1000
BEHIND
1070
     0
1002
}
1002
{
1000
OTHER
1070
     0
1002
}
1002
{
1000
REACTOR
1002
}
1001
GENIUS_GENOBJ-N-CEN_13
1002
{
1000
OWNER
1000
GEN
1002
}
1001
GENIUS_GENCEN_19
1002
{
1040
2.0
1002
}
  0
LINE
  5
58B5
330
1F
100
AcDbEntity
  8
AM_7
  6
AM_ISO08W050x2
100
AcDbLine
 10
515.1250764128118
 20
1056.795342566843
 30
0.0
 11
505.5527811155385
 21
1056.795342566843
 31
0.0
1001
GENIUS_GENODEF_13
1002
{
1000
HIER
1070
     0
1002
}
1002
{
1000
MANEDIT
1070
     0
1002
}
1002
{
1000
NOSEL
1070
     0
1002
}
1002
{
1000
BEHIND
1070
     0
1002
}
1002
{
1000
OTHER
1070
     0
1002
}
1002
{
1000
REACTOR
1002
}
1001
GENIUS_GENOBJ-N-CEN_13
1002
{
1000
OWNER
1000
GEN
1002
}
1001
GENIUS_GENCEN_19
1002
{
1040
2.0
1002
}
  0
LINE
  5
58B6
330
1F
100
AcDbEntity
  8
AM_7
  6
AM_ISO08W050x2
100
AcDbLine
 10
515.1250764128118
 20
998.7953425668436
 30
0.0
 11
506.1250764128119
 21
998.7953425668427
 31
0.0
1001
GENIUS_GENODEF_13
1002
{
1000
HIER
1070
     0
1002
}
1002
{
1000
MANEDIT
1070
     0
1002
}
1002
{
1000
NOSEL
1070
     0
1002
}
1002
{
1000
BEHIND
1070
     0
1002
}
1002
{
1000
OTHER
1070
     0
1002
}
1002
{
1000
REACTOR
1002
}
1001
GENIUS_GENOBJ-N-CEN_13
1002
{
1000
OWNER
1000
GEN
1002
}
1001
GENIUS_GENCEN_19
1002
{
1040
2.0
1002
}
  0
LINE
  5
58C3
330
1F
100
AcDbEntity
  8
AM_7
  6
AM_ISO08W050x2
100
AcDbLine
 10
515.1250764128142
 20
897.3125456237728
 30
0.0
 11
506.1250764128142
 21
897.3125456237736
 31
0.0
1001
GENIUS_GENOBJ-N-CEN_13
1002
{
1000
OWNER
1000
GEN
1002
}
1001
GENIUS_GENODEF_13
1002
{
1000
HIER
1070
     0
1002
}
1002
{
1000
MANEDIT
1070
     0
1002
}
1002
{
1000
NOSEL
1070
     0
1002
}
1002
{
1000
BEHIND
1070
     0
1002
}
1002
{
1000
OTHER
1070
     0
1002
}
1002
{
1000
REACTOR
1002
}
1001
GENIUS_GENCEN_19
1002
{
1040
2.0
1002
}
  0
LINE
  5
58D0
330
1F
100
AcDbEntity
  8
AM_7
  6
AM_ISO08W050x2
100
AcDbLine
 10
384.1250764128145
 20
897.3125456237724
 30
0.0
 11
393.1250764128145
 21
897.3125456237733
 31
0.0
1001
GENIUS_GENOBJ-N-CEN_13
1002
{
1000
OWNER
1000
GEN
1002
}
1001
GENIUS_GENODEF_13
1002
{
1000
HIER
1070
     0
1002
}
1002
{
1000
MANEDIT
1070
     0
1002
}
1002
{
1000
NOSEL
1070
     0
1002
}
1002
{
1000
BEHIND
1070
     0
1002
}
1002
{
1000
OTHER
1070
     0
1002
}
1002
{
1000
REACTOR
1002
}
1001
GENIUS_GENCEN_19
1002
{
1040
2.0
1002
}
  0
LINE
  5
58DD
330
1F
100
AcDbEntity
  8
AM_7
  6
AM_ISO08W050x2
100
AcDbLine
 10
618.8155792316218
 20
897.3125456237728
 30
0.0
 11
609.8155792316218
 21
897.3125456237736
 31
0.0
1001
GENIUS_GENOBJ-N-CEN_13
1002
{
1000
OWNER
1000
GEN
1002
}
1001
GENIUS_GENODEF_13
1002
{
1000
HIER
1070
     0
1002
}
1002
{
1000
MANEDIT
1070
     0
1002
}
1002
{
1000
NOSEL
1070
     0
1002
}
1002
{
1000
BEHIND
1070
     0
1002
}
1002
{
1000
OTHER
1070
     0
1002
}
1002
{
1000
REACTOR
1002
}
1001
GENIUS_GENCEN_19
1002
{
1040
2.0
1002
}
  0
LINE
  5
594D
330
1F
100
AcDbEntity
  8
0
100
AcDbLine
 10
529.6250764128143
 20
1008.795342566843
 30
0.0
 11
536.388021536222
 21
1014.332996779664
 31
0.0
  0
LINE
  5
594E
330
1F
100
AcDbEntity
  8
0
100
AcDbLine
 10
529.6250764128143
 20
1014.795342566843
 30
0.0
 11
536.3880212407959
 21
1009.257687802549
 31
0.0
  0
LINE
  5
594F
330
1F
100
AcDbEntity
  8
0
100
AcDbLine
 10
529.480738845616
 20
1046.795361971243
 30
0.0
 11
536.2436836735976
 21
1041.257707206949
 31
0.0
  0
LINE
  5
5950
330
1F
100
AcDbEntity
  8
0
100
AcDbLine
 10
536.2436839690237
 20
1046.333016184064
 30
0.0
 11
529.480738845616
 21
1040.795361971243
 31
0.0
  0
LINE
  5
5953
330
1F
100
AcDbEntity
  8
AM_4
100
AcDbLine
 10
529.4530764128139
 20
887.9845456237735
 30
0.0
 11
517.6250764128142
 21
887.9845456237735
 31
0.0
  0
LINE
  5
5954
330
1F
100
AcDbEntity
  8
AM_4
100
AcDbLine
 10
529.4530764128139
 20
877.6405456237727
 30
0.0
 11
517.6250764128142
 21
877.6405456237725
 31
0.0
  0
LINE
  5
5955
330
1F
100
AcDbEntity
  8
AM_4
100
AcDbLine
 10
529.4530764128139
 20
1016.967342566843
 30
0.0
 11
517.6250764128142
 21
1016.967342566844
 31
0.0
  0
LINE
  5
5956
330
1F
100
AcDbEntity
  8
AM_4
100
AcDbLine
 10
529.4530764128139
 20
1006.623342566843
 30
0.0
 11
517.6250764128142
 21
1006.623342566843
 31
0.0
  0
LINE
  5
5957
330
1F
100
AcDbEntity
  8
AM_4
100
AcDbLine
 10
529.3087388456156
 20
1048.967361971243
 30
0.0
 11
517.4807388456158
 21
1048.967361971244
 31
0.0
  0
LINE
  5
5958
330
1F
100
AcDbEntity
  8
AM_4
100
AcDbLine
 10
529.3087388456156
 20
1038.623361971243
 30
0.0
 11
517.4807388456158
 21
1038.623361971243
 31
0.0
  0
POINT
  5
6BCF
330
1F
100
AcDbEntity
  8
0
 60
     1
100
AcDbPoint
 10
0.0
 20
0.0
 30
0.0
  0
POINT
  5
6BD9
330
1F
100
AcDbEntity
  8
0
 60
     1
100
AcDbPoint
 10
0.0
 20
0.0
 30
0.0
  0
ARC
  5
6F87
330
1F
100
AcDbEntity
  8
0
  6
HIDDEN
 62
     3
 48
0.2
100
AcDbCircle
 10
410.6250764128143
 20
1027.795342566843
 30
0.0
 40
5.0
100
AcDbArc
 50
280.0
 51
190.0
  0
ARC
  5
6F88
330
1F
100
AcDbEntity
  8
0
  6
HIDDEN
 62
     3
 48
0.2
100
AcDbCircle
 10
488.6250764128142
 20
1027.795342566843
 30
0.0
 40
5.0
100
AcDbArc
 50
280.0
 51
190.0
  0
TEXT
  5
700A
330
1F
100
AcDbEntity
  8
LOGO
 62
     7
100
AcDbText
 10
327.0032801812535
 20
822.7657897045306
 30
0.0
 40
3.999420814479637
  1
Order example:
 41
0.8
  7
CHINESET
100
AcDbText
  0
TEXT
  5
700B
330
1F
100
AcDbEntity
  8
LOGO
 62
     7
100
AcDbText
 10
327.7208093492358
 20
828.3961461206718
 30
0.0
 40
5.999131221719456
  1
訂購代號：
  7
CHINESET
100
AcDbText
  0
LINE
  5
700C
330
1F
100
AcDbEntity
  8
LOGO
 62
     4
100
AcDbLine
 10
671.7750748331923
 20
835.906376226003
 30
0.0
 11
259.2750748331924
 21
835.906376226003
 31
0.0
  0
LINE
  5
700D
330
1F
100
AcDbEntity
  8
LOGO
 62
     4
100
AcDbLine
 10
325.2655182721065
 20
805.9107201174056
 30
0.0
 11
325.2655182721065
 21
835.906376226003
 31
0.0
  0
TEXT
  5
700E
330
1F
100
AcDbEntity
  8
LOGO
  6
Continuous
100
AcDbText
 10
270.0496493404836
 20
811.8033214925477
 30
0.0
 40
4.499348416289592
  1
金器工業股份有限公司
  7
CHINESET
100
AcDbText
  0
TEXT
  5
700F
330
1F
100
AcDbEntity
  8
LOGO
  6
Continuous
100
AcDbText
 10
261.7852364519462
 20
807.303091556731
 30
0.0
 40
2.999565610859728
  1
MINDMAN INDUSTRIAL CO., LTD.
 41
0.85
  7
CHINESET
100
AcDbText
  0
LINE
  5
7010
330
1F
100
AcDbEntity
  8
LOGO
 62
     4
100
AcDbLine
 10
325.2655182721065
 20
829.9072450042835
 30
0.0
 11
281.2718893128302
 21
829.9072450042835
 31
0.0
  0
LINE
  5
7011
330
1F
100
AcDbEntity
  8
LOGO
 62
     4
100
AcDbLine
 10
325.2655182721065
 20
823.9081137825639
 30
0.0
 11
281.2718893128302
 21
823.9081137825639
 31
0.0
  0
LINE
  5
7012
330
1F
100
AcDbEntity
  8
LOGO
 62
     4
100
AcDbLine
 10
325.2655182721065
 20
817.9089825608448
 30
0.0
 11
259.2750748331924
 21
817.9089825608448
 31
0.0
  0
LINE
  5
7013
330
1F
100
AcDbEntity
  8
LOGO
 62
     4
100
AcDbLine
 10
281.2718893128302
 20
817.9089825608448
 30
0.0
 11
281.2718893128302
 21
835.906376226003
 31
0.0
  0
TEXT
  5
7014
330
1F
100
AcDbEntity
  8
LOGO
100
AcDbText
 10
311.3394582388372
 20
819.4087653662743
 30
0.0
 40
2.999565610859728
  1
mm
  7
CHINESET
 72
     1
 11
315.0532061379969
 21
820.9085481717041
 31
0.0
100
AcDbText
 73
     2
  0
TEXT
  5
7015
330
1F
100
AcDbEntity
  8
LOGO
100
AcDbText
 10
309.7682572045774
 20
831.4070278097132
 30
0.0
 40
2.999565610859728
  1
1 : 1
  7
CHINESET
 72
     1
 11
315.0532061379969
 21
832.906810615143
 31
0.0
100
AcDbText
 73
     2
  0
LINE
  5
7016
330
1F
100
AcDbEntity
  8
LOGO
 62
     4
100
AcDbLine
 10
305.2684141997082
 20
817.9089825608448
 30
0.0
 11
305.2684141997082
 21
835.906376226003
 31
0.0
  0
TEXT
  5
7017
330
1F
100
AcDbEntity
  8
LOGO
100
AcDbText
 10
283.745191849999
 20
831.4085039738918
 30
196.5865886400747
 40
2.999565610859728
  1
比例 Scale:
 41
0.9
  7
CHINESET
 72
     4
 11
293.2701517562692
 21
832.906810615143
 31
196.5865886400747
100
AcDbText
  0
TEXT
  5
7018
330
1F
100
AcDbEntity
  8
LOGO
100
AcDbText
 10
283.5724490090165
 20
825.4500902807647
 30
196.5865886400747
 40
2.999565610859728
  1
投影  View:
 41
0.9
  7
CHINESET
 72
     4
 11
293.2701517562692
 21
826.9076793934237
 31
196.5865886400747
100
AcDbText
  0
TEXT
  5
7019
330
1F
100
AcDbEntity
  8
LOGO
100
AcDbText
 10
283.8657101111497
 20
819.4087653662743
 30
196.5865886400747
 40
2.999565610859728
  1
單位  Unit:
 41
0.9
  7
CHINESET
 72
     4
 11
293.2701517562692
 21
820.9085481717041
 31
196.5865886400747
100
AcDbText
  0
LWPOLYLINE
  5
701A
330
1F
100
AcDbEntity
  8
LOGO
 62
     4
100
AcDbPolyline
 90
        4
 70
     1
 43
0.0
 10
259.2750748331923
 20
835.906376226003
 10
671.7750748331923
 20
835.906376226003
 10
671.7750748331923
 20
1105.910720117405
 10
259.2750748331923
 20
1105.910720117405
1001
GENIUS_GENREC_14
1002
{
1000
PYDIR
1011
259.2750748331923
1021
1105.910720117405
1031
0.0
1002
}
1002
{
1000
PXDIR
1011
671.7750748331923
1021
835.906376226003
1031
0.0
1002
}
1002
{
1000
PORI
1011
259.2750748331923
1021
835.906376226003
1031
0.0
1002
}
1002
{
1000
PINS
1011
259.2750748331923
1021
835.906376226003
1031
0.0
1002
}
1002
{
1000
PINS2
1011
671.7750748331923
1021
1105.910720117405
1031
0.0
1002
}
1002
{
1000
C
1070
     1
1002
}
1001
GENIUS_GENODEF_13
1002
{
1000
HIER
1070
     0
1002
}
1002
{
1000
MANEDIT
1070
     0
1002
}
1002
{
1000
NOSEL
1070
     0
1002
}
1002
{
1000
BEHIND
1070
     0
1002
}
1002
{
1000
OTHER
1070
     0
1002
}
1002
{
1000
REACTOR
1002
}
1001
GENIUS_GENOBJ-N-REC_13
1002
{
1000
OWNER
1000
GEN
1002
}
  0
SOLID
  5
701B
330
1F
100
AcDbEntity
  8
LOGO
 62
     5
100
AcDbTrace
 10
262.3871722938257
 20
822.895333434355
 30
0.0
 11
263.6841057553598
 21
822.8953334343545
 31
0.0
 12
269.095448819002
 22
835.1938403971788
 32
0.0
 13
270.3923822805367
 23
835.193840397178
 33
0.0
  0
SOLID
  5
701C
330
1F
100
AcDbEntity
  8
LOGO
 62
     5
100
AcDbTrace
 10
264.2207678773754
 20
822.895333434355
 30
0.0
 11
265.5177013389094
 21
822.895333434355
 31
0.0
 12
270.3923822805367
 22
834.2099598401523
 32
0.0
 13
269.095448819002
 23
829.4545371478605
 33
0.0
  0
SOLID
  5
701D
330
1F
100
AcDbEntity
  8
LOGO
 62
     2
100
AcDbTrace
 10
263.6841057553598
 20
822.8953334343545
 30
0.0
 11
264.2207678773754
 21
822.895333434355
 31
0.0
 12
270.3923822805367
 22
835.193840397178
 32
0.0
 13
270.9290444025516
 23
835.193840397178
 33
0.0
  0
SOLID
  5
701E
330
1F
100
AcDbEntity
  8
LOGO
 62
     5
100
AcDbTrace
 10
260.3078699079432
 20
818.4231490842375
 30
0.0
 11
260.7550883429555
 21
818.4231490842375
 31
0.0
 12
262.0144902646497
 22
820.6592412592961
 32
0.0
 13
262.4617086996606
 23
820.6592412592961
 33
0.0
  0
SOLID
  5
701F
330
1F
100
AcDbEntity
  8
LOGO
 62
     5
100
AcDbTrace
 10
262.0144902646497
 20
820.6592412592961
 30
0.0
 11
262.4617086996606
 21
820.6592412592961
 31
0.0
 12
262.0144902646497
 22
818.4231490842375
 32
0.0
 13
262.4617086996606
 23
818.4231490842375
 33
0.0
  0
SOLID
  5
7020
330
1F
100
AcDbEntity
  8
LOGO
 62
     5
100
AcDbTrace
 10
262.0144902646497
 20
818.4231490842375
 30
0.0
 11
262.4617086996606
 21
818.4231490842375
 31
0.0
 12
263.7211106213568
 22
820.6592412592961
 32
0.0
 13
264.1683290563684
 23
820.6592412592961
 33
0.0
  0
SOLID
  5
7021
330
1F
100
AcDbEntity
  8
LOGO
 62
     5
100
AcDbTrace
 10
263.7211106213568
 20
820.6592412592961
 30
0.0
 11
264.1683290563684
 21
820.6592412592961
 31
0.0
 12
263.7211106213568
 22
818.4231490842375
 32
0.0
 13
264.1683290563684
 23
818.4231490842375
 33
0.0
  0
POLYLINE
  5
7022
330
1F
100
AcDbEntity
  8
LOGO
 62
     5
100
AcDb2dPolyline
 66
     1
 10
0.0
 20
0.0
 30
0.0
 40
0.4479351312217194
 41
0.4479351312217194
  0
VERTEX
  5
7023
330
7022
100
AcDbEntity
  8
LOGO
 62
     5
100
AcDbVertex
100
AcDb2dVertex
 10
278.7117202160711
 20
819.7648043892726
 30
0.0
 42
1.0
  0
VERTEX
  5
7024
330
7022
100
AcDbEntity
  8
LOGO
 62
     5
100
AcDbVertex
100
AcDb2dVertex
 10
277.3679148224056
 20
819.7648043892726
 30
0.0
 42
1.0
  0
SEQEND
  5
7025
330
7022
100
AcDbEntity
  8
LOGO
 62
     5
  0
POLYLINE
  5
7026
330
1F
100
AcDbEntity
  8
LOGO
 62
     5
100
AcDb2dPolyline
 66
     1
 10
0.0
 20
0.0
 30
0.0
 70
     1
  0
VERTEX
  5
7027
330
7026
100
AcDbEntity
  8
LOGO
 62
     5
100
AcDbVertex
100
AcDb2dVertex
 10
274.8347818828821
 20
819.5411951717664
 30
0.0
 42
1.000000057330635
  0
VERTEX
  5
7028
330
7026
100
AcDbEntity
  8
LOGO
 62
     5
100
AcDbVertex
100
AcDb2dVertex
 10
276.1764371879175
 20
819.5411951717664
 30
0.0
 42
1.000000057330635
  0
SEQEND
  5
7029
330
7026
100
AcDbEntity
  8
LOGO
 62
     5
  0
CIRCLE
  5
702A
330
1F
100
AcDbEntity
  8
LOGO
 62
     5
100
AcDbCircle
 10
275.5056095354008
 20
819.5411951717664
 30
0.0
 40
0.6708276525176471
  0
POLYLINE
  5
702B
330
1F
100
AcDbEntity
  8
LOGO
 62
     5
100
AcDb2dPolyline
 66
     1
 10
0.0
 20
0.0
 30
0.0
 70
     1
 40
0.4479351312217194
 41
0.4479351312217194
  0
VERTEX
  5
702C
330
702B
100
AcDbEntity
  8
LOGO
 62
     5
100
AcDbVertex
100
AcDb2dVertex
 10
274.6097392729567
 20
819.5411951717664
 30
0.0
 42
1.0
  0
VERTEX
  5
702D
330
702B
100
AcDbEntity
  8
LOGO
 62
     5
100
AcDbVertex
100
AcDb2dVertex
 10
276.4014797978435
 20
819.5411951717664
 30
0.0
 42
1.0
  0
SEQEND
  5
702E
330
702B
100
AcDbEntity
  8
LOGO
 62
     5
  0
LINE
  5
702F
330
1F
100
AcDbEntity
  8
LOGO
100
AcDbLine
 10
278.9342543892611
 20
818.4231490842375
 30
0.0
 11
278.9342543892611
 21
819.7648043892726
 31
0.0
  0
SOLID
  5
7030
330
1F
100
AcDbEntity
  8
LOGO
 62
     5
100
AcDbTrace
 10
276.176392466076
 20
820.6592412592961
 30
0.0
 11
276.6236109010868
 21
820.6592412592961
 31
0.0
 12
276.176392466076
 22
818.4231490842375
 32
0.0
 13
276.6236109010868
 23
818.4231490842375
 33
0.0
  0
SOLID
  5
7031
330
1F
100
AcDbEntity
  8
LOGO
 62
     5
100
AcDbTrace
 10
277.1453806492142
 20
818.4231490842375
 30
0.0
 11
277.5925990842264
 21
818.4231490842375
 31
0.0
 12
277.1453806492142
 22
820.6592412592961
 32
0.0
 13
277.5925990842264
 23
820.6592412592961
 33
0.0
  0
SOLID
  5
7032
330
1F
100
AcDbEntity
  8
LOGO
 62
     5
100
AcDbTrace
 10
278.4870359542503
 20
819.7648043892726
 30
0.0
 11
278.9342543892611
 21
819.7648043892726
 31
0.0
 12
278.4870359542503
 22
818.4231490842375
 32
0.0
 13
278.9342543892611
 23
818.4231490842375
 33
0.0
  0
SOLID
  5
7033
330
1F
100
AcDbEntity
  8
LOGO
 62
     5
100
AcDbTrace
 10
277.1006588057129
 20
834.2099598401523
 30
0.0
 11
275.8037253441795
 21
829.4545371478605
 31
0.0
 12
277.1006588057129
 22
822.8953334343545
 32
0.0
 13
275.8037253441795
 23
822.8953334343545
 33
0.0
  0
SOLID
  5
7034
330
1F
100
AcDbEntity
  8
LOGO
 62
     5
100
AcDbTrace
 10
277.6373209277277
 20
822.8953334343545
 30
0.0
 11
278.9342543892611
 21
822.8953334343545
 31
0.0
 12
277.6373209277277
 22
835.193840397178
 32
0.0
 13
278.9342543892611
 23
835.1938403971788
 33
0.0
  0
SOLID
  5
7035
330
1F
100
AcDbEntity
  8
LOGO
 62
     2
100
AcDbTrace
 10
277.1006588057129
 20
835.1938403971788
 30
0.0
 11
277.6373209277277
 21
835.193840397178
 31
0.0
 12
277.1006588057129
 22
822.8953334343545
 32
0.0
 13
277.6373209277277
 23
822.8953334343545
 33
0.0
  0
POLYLINE
  5
7036
330
1F
100
AcDbEntity
  8
LOGO
 62
     5
100
AcDb2dPolyline
 66
     1
 10
0.0
 20
0.0
 30
0.0
 40
0.4479351312217194
 41
0.4479351312217194
  0
VERTEX
  5
7037
330
7036
100
AcDbEntity
  8
LOGO
 62
     5
100
AcDbVertex
100
AcDb2dVertex
 10
272.3015594996736
 20
819.7648043892726
 30
0.0
 42
1.0
  0
VERTEX
  5
7038
330
7036
100
AcDbEntity
  8
LOGO
 62
     5
100
AcDbVertex
100
AcDb2dVertex
 10
270.9577541060081
 20
819.7648043892726
 30
0.0
 42
1.0
  0
SEQEND
  5
7039
330
7036
100
AcDbEntity
  8
LOGO
 62
     5
  0
POLYLINE
  5
703A
330
1F
100
AcDbEntity
  8
LOGO
 62
     5
100
AcDb2dPolyline
 66
     1
 10
0.0
 20
0.0
 30
0.0
 40
0.4479351312217194
 41
0.4479351312217194
  0
VERTEX
  5
703B
330
703A
100
AcDbEntity
  8
LOGO
 62
     5
100
AcDbVertex
100
AcDb2dVertex
 10
273.6432148047076
 20
819.7648043892726
 30
0.0
 42
1.0
  0
VERTEX
  5
703C
330
703A
100
AcDbEntity
  8
LOGO
 62
     5
100
AcDbVertex
100
AcDb2dVertex
 10
272.2994094110428
 20
819.7648043892726
 30
0.0
 42
1.0
  0
SEQEND
  5
703D
330
703A
100
AcDbEntity
  8
LOGO
 62
     5
  0
POLYLINE
  5
703E
330
1F
100
AcDbEntity
  8
LOGO
 62
     5
100
AcDb2dPolyline
 66
     1
 10
0.0
 20
0.0
 30
0.0
 40
0.4479351312217194
 41
0.4479351312217194
  0
VERTEX
  5
703F
330
703E
100
AcDbEntity
  8
LOGO
 62
     5
100
AcDbVertex
100
AcDb2dVertex
 10
267.2330540883101
 20
819.7648043892726
 30
0.0
 42
1.0
  0
VERTEX
  5
7040
330
703E
100
AcDbEntity
  8
LOGO
 62
     5
100
AcDbVertex
100
AcDb2dVertex
 10
265.8892486946453
 20
819.7648043892726
 30
0.0
 42
1.0
  0
SEQEND
  5
7041
330
703E
100
AcDbEntity
  8
LOGO
 62
     5
  0
SOLID
  5
7042
330
1F
100
AcDbEntity
  8
LOGO
 62
     5
100
AcDbTrace
 10
265.6667145214545
 20
820.6592412592961
 30
0.0
 11
266.1139329564654
 21
820.6592412592961
 31
0.0
 12
265.6667145214545
 22
818.4231490842375
 32
0.0
 13
266.1139329564654
 23
818.4231490842375
 33
0.0
  0
SOLID
  5
7043
330
1F
100
AcDbEntity
  8
LOGO
 62
     5
100
AcDbTrace
 10
267.0083698264899
 20
819.7648043892726
 30
0.0
 11
267.4555882615022
 21
819.7648043892726
 31
0.0
 12
267.0083698264899
 22
818.4231490842375
 32
0.0
 13
267.4555882615022
 23
818.4231490842375
 33
0.0
  0
POLYLINE
  5
7044
330
1F
100
AcDbEntity
  8
LOGO
 62
     5
100
AcDb2dPolyline
 66
     1
 10
0.0
 20
0.0
 30
0.0
 70
     1
 40
0.4479351312217194
 41
0.4479351312217194
  0
VERTEX
  5
7045
330
7044
100
AcDbEntity
  8
LOGO
 62
     5
100
AcDbVertex
100
AcDb2dVertex
 10
268.1995785565586
 20
819.5411951717664
 30
0.0
 42
1.0
  0
VERTEX
  5
7046
330
7044
100
AcDbEntity
  8
LOGO
 62
     5
100
AcDbVertex
100
AcDb2dVertex
 10
269.991319081446
 20
819.5411951717664
 30
0.0
 42
1.0
  0
SEQEND
  5
7047
330
7044
100
AcDbEntity
  8
LOGO
 62
     5
  0
SOLID
  5
7048
330
1F
100
AcDbEntity
  8
LOGO
 62
     5
100
AcDbTrace
 10
269.7662317496771
 20
821.330068911814
 30
0.0
 11
270.2134501846887
 21
821.330068911814
 31
0.0
 12
269.7662317496771
 22
818.4231490842375
 32
0.0
 13
270.2134501846887
 23
818.4231490842375
 33
0.0
  0
SOLID
  5
7049
330
1F
100
AcDbEntity
  8
LOGO
 62
     5
100
AcDbTrace
 10
270.735219932818
 20
820.6592412592961
 30
0.0
 11
271.1824383678289
 21
820.6592412592961
 31
0.0
 12
270.735219932818
 22
818.4231490842375
 32
0.0
 13
271.1824383678289
 23
818.4231490842375
 33
0.0
  0
SOLID
  5
704A
330
1F
100
AcDbEntity
  8
LOGO
 62
     5
100
AcDbTrace
 10
272.076875237852
 20
819.7648043892726
 30
0.0
 11
272.5240936728643
 21
819.7648043892726
 31
0.0
 12
272.076875237852
 22
818.4231490842375
 32
0.0
 13
272.5240936728643
 23
818.4231490842375
 33
0.0
  0
SOLID
  5
704B
330
1F
100
AcDbEntity
  8
LOGO
 62
     5
100
AcDbTrace
 10
273.4185305428874
 20
819.7648043892726
 30
0.0
 11
273.865748977899
 21
819.7648043892726
 31
0.0
 12
273.4185305428874
 22
818.4231490842369
 32
0.0
 13
273.865748977899
 23
818.4231490842369
 33
0.0
  0
SOLID
  5
704C
330
1F
100
AcDbEntity
  8
LOGO
 62
     5
100
AcDbTrace
 10
264.6977263383143
 20
820.9722941638045
 30
0.0
 11
265.1449447733272
 21
820.9722941638045
 31
0.0
 12
264.6977263383143
 22
821.330068911814
 32
0.0
 13
265.1449447733272
 23
821.330068911814
 33
0.0
  0
SOLID
  5
704D
330
1F
100
AcDbEntity
  8
LOGO
 62
     5
100
AcDbTrace
 10
264.6977263383143
 20
820.6592412592961
 30
0.0
 11
265.1449447733272
 21
820.6592412592961
 31
0.0
 12
264.6977263383143
 22
818.4231490842369
 32
0.0
 13
265.1449447733272
 23
818.4231490842375
 33
0.0
  0
SOLID
  5
704E
330
1F
100
AcDbEntity
  8
LOGO
 62
     5
100
AcDbTrace
 10
269.095448819002
 20
822.895333434355
 30
0.0
 11
270.3923822805367
 21
822.895333434355
 31
0.0
 12
269.095448819002
 22
829.4545371478605
 32
0.0
 13
270.3923822805367
 23
834.2099598401523
 33
0.0
  0
SOLID
  5
704F
330
1F
100
AcDbEntity
  8
LOGO
 62
     5
100
AcDbTrace
 10
270.9290444025516
 20
835.193840397178
 30
0.0
 11
272.2259778640849
 21
835.1938403971788
 31
0.0
 12
270.9290444025516
 22
823.8792139913808
 32
0.0
 13
272.2259778640849
 23
828.6346366836724
 33
0.0
  0
SOLID
  5
7050
330
1F
100
AcDbEntity
  8
LOGO
 62
     2
100
AcDbTrace
 10
270.3923822805367
 20
835.193840397178
 30
0.0
 11
270.9290444025516
 21
835.193840397178
 31
0.0
 12
270.3923822805367
 22
822.895333434355
 32
0.0
 13
270.9290444025516
 23
822.895333434355
 33
0.0
  0
SOLID
  5
7051
330
1F
100
AcDbEntity
  8
LOGO
 62
     5
100
AcDbTrace
 10
270.9290444025516
 20
823.8792139913808
 30
0.0
 11
272.2259778640849
 21
828.6346366836724
 31
0.0
 12
277.1006588057129
 22
835.1938403971788
 32
0.0
 13
275.8037253441795
 23
835.1938403971788
 33
0.0
  0
SOLID
  5
7052
330
1F
100
AcDbEntity
  8
LOGO
 62
     5
100
AcDbTrace
 10
270.9290444025516
 20
822.895333434355
 30
0.0
 11
272.2259778640849
 21
822.895333434355
 31
0.0
 12
277.1006588057129
 22
834.2099598401523
 32
0.0
 13
275.8037253441795
 23
829.4545371478605
 33
0.0
  0
SOLID
  5
7053
330
1F
100
AcDbEntity
  8
LOGO
 62
     2
100
AcDbTrace
 10
270.3923822805367
 20
822.895333434355
 30
0.0
 11
270.9290444025516
 21
822.895333434355
 31
0.0
 12
277.1006588057129
 22
835.1938403971788
 32
0.0
 13
277.6373209277277
 23
835.193840397178
 33
0.0
  0
LWPOLYLINE
  5
7054
330
1F
100
AcDbEntity
  8
LOGO
 62
     4
100
AcDbPolyline
 90
        4
 70
     1
 43
0.0
 10
259.2750748331923
 20
835.906376226003
 10
671.7750748331923
 20
835.906376226003
 10
671.7750748331923
 20
805.9107201174052
 10
259.2750748331923
 20
805.9107201174052
1001
GENIUS_GENREC_14
1002
{
1000
PYDIR
1011
259.2750748331923
1021
805.9107201174052
1031
0.0
1002
}
1002
{
1000
PXDIR
1011
671.7750748331923
1021
835.906376226003
1031
0.0
1002
}
1002
{
1000
PORI
1011
259.2750748331923
1021
835.906376226003
1031
0.0
1002
}
1002
{
1000
PINS
1011
259.2750748331923
1021
835.906376226003
1031
0.0
1002
}
1002
{
1000
PINS2
1011
671.7750748331923
1021
805.9107201174052
1031
0.0
1002
}
1002
{
1000
C
1070
     1
1002
}
1001
GENIUS_GENOBJ-N-REC_13
1002
{
1000
OWNER
1000
GEN
1002
}
1001
GENIUS_GENODEF_13
1002
{
1000
HIER
1070
     0
1002
}
1002
{
1000
MANEDIT
1070
     0
1002
}
1002
{
1000
NOSEL
1070
     0
1002
}
1002
{
1000
BEHIND
1070
     0
1002
}
1002
{
1000
OTHER
1070
     0
1002
}
1002
{
1000
REACTOR
1002
}
  0
LINE
  5
7055
330
1F
100
AcDbEntity
  8
LOGO
 62
     4
100
AcDbLine
 10
384.3320560727513
 20
819.4087653662748
 30
0.0
 11
384.3320560727513
 21
808.4103581264553
 31
0.0
  0
LINE
  5
7056
330
1F
100
AcDbEntity
  8
LOGO
 62
     4
100
AcDbLine
 10
366.5232119746816
 20
819.4087653662748
 30
0.0
 11
366.5232119746816
 21
808.4103581264553
 31
0.0
  0
LINE
  5
7057
330
1F
100
AcDbEntity
  8
LOGO
 62
     4
100
AcDbLine
 10
384.3320560727513
 20
808.4103581264553
 30
0.0
 11
366.5232119746816
 21
808.4103581264553
 31
0.0
  0
LINE
  5
7058
330
1F
100
AcDbEntity
  8
LOGO
 62
     4
100
AcDbLine
 10
390.2156994904734
 20
832.906810615143
 30
0.0
 11
366.5232119746816
 21
832.906810615143
 31
0.0
  0
LINE
  5
7059
330
1F
100
AcDbEntity
  8
LOGO
 62
     4
100
AcDbLine
 10
390.2156994904734
 20
823.9081137825639
 30
0.0
 11
366.5232119746816
 21
823.9081137825639
 31
0.0
  0
LINE
  5
705A
330
1F
100
AcDbEntity
  8
LOGO
 62
     4
100
AcDbLine
 10
366.5232119746816
 20
832.906810615143
 30
0.0
 11
366.5232119746816
 21
823.9081137825639
 31
0.0
  0
LINE
  5
705B
330
1F
100
AcDbEntity
  8
LOGO
 62
     4
100
AcDbLine
 10
390.2156994904734
 20
832.906810615143
 30
0.0
 11
390.2156994904734
 21
823.9081137825639
 31
0.0
  0
LINE
  5
705C
330
1F
100
AcDbEntity
  8
LOGO
 62
     4
100
AcDbLine
 10
377.5651105782355
 20
823.9081137825639
 30
0.0
 11
377.5651105782355
 21
819.4087653662748
 31
0.0
  0
TEXT
  5
705D
330
1F
100
AcDbEntity
  8
LOGO
  6
Continuous
 62
     7
100
AcDbText
 10
368.1221394696016
 20
825.7865785902714
 30
0.0
 40
5.25
  1
MCRB
  7
CHINESET
100
AcDbText
  0
LINE
  5
705E
330
1F
100
AcDbEntity
  8
LOGO
 62
     4
100
AcDbLine
 10
384.3320560727513
 20
819.4087653662748
 30
0.0
 11
366.5232119746816
 21
819.4087653662748
 31
0.0
  0
TEXT
  5
705F
330
1F
100
AcDbEntity
  8
LOGO
  6
Continuous
100
AcDbText
 10
370.5836314476095
 20
809.9627599856912
 30
196.5865886400747
 40
2.25
  1
Model
 41
0.8
  7
CHINESET
100
AcDbText
  0
TEXT
  5
7060
330
1F
100
AcDbEntity
  8
LOGO
100
AcDbText
 10
369.9847545906108
 20
814.1337750760824
 30
196.5865886400747
 40
3.75
  1
型號
  7
CHINESET
100
AcDbText
  0
LINE
  5
7061
330
1F
100
AcDbEntity
  8
LOGO
  6
Continuous
 62
     7
100
AcDbLine
 10
391.9799645119489
 20
828.3755873925425
 30
0.0
 11
395.9534606853582
 21
828.3755873925425
 31
0.0
  0
LINE
  5
7062
330
1F
100
AcDbEntity
  8
LOGO
 62
     4
100
AcDbLine
 10
408.7340136645428
 20
832.906810615143
 30
0.0
 11
397.8845840480868
 21
832.906810615143
 31
0.0
  0
LINE
  5
7063
330
1F
100
AcDbEntity
  8
LOGO
 62
     4
100
AcDbLine
 10
408.7340136645428
 20
823.9081137825639
 30
0.0
 11
397.8845840480868
 21
823.9081137825639
 31
0.0
  0
LINE
  5
7064
330
1F
100
AcDbEntity
  8
LOGO
 62
     4
100
AcDbLine
 10
397.8845840480868
 20
832.906810615143
 30
0.0
 11
397.8845840480868
 21
823.9081137825639
 31
0.0
  0
LINE
  5
7065
330
1F
100
AcDbEntity
  8
LOGO
 62
     4
100
AcDbLine
 10
408.7340136645428
 20
832.906810615143
 30
0.0
 11
408.7340136645428
 21
823.9081137825639
 31
0.0
  0
LINE
  5
7066
330
1F
100
AcDbEntity
  8
LOGO
 62
     4
100
AcDbLine
 10
403.3092988563148
 20
823.9081137825639
 30
0.0
 11
403.3092988563148
 21
819.4087653662748
 31
0.0
  0
TEXT
  5
7067
330
1F
100
AcDbEntity
  8
LOGO
  6
Continuous
 62
     7
100
AcDbText
 10
399.3473835970109
 20
825.7865785902714
 30
0.0
 40
5.25
  1
20
  7
CHINESET
100
AcDbText
  0
LINE
  5
7068
330
1F
100
AcDbEntity
  8
LOGO
 62
     4
100
AcDbLine
 10
411.0616096975548
 20
819.4087653662748
 30
0.0
 11
411.0616096975548
 21
808.4103581264553
 31
0.0
  0
LINE
  5
7069
330
1F
100
AcDbEntity
  8
LOGO
 62
     4
100
AcDbLine
 10
392.6756992243555
 20
819.4087653662748
 30
0.0
 11
392.6756992243555
 21
808.4103581264553
 31
0.0
  0
LINE
  5
706A
330
1F
100
AcDbEntity
  8
LOGO
 62
     4
100
AcDbLine
 10
411.0616096975548
 20
808.4103581264553
 30
0.0
 11
392.6756992243555
 21
808.4103581264553
 31
0.0
  0
LINE
  5
706B
330
1F
100
AcDbEntity
  8
LOGO
 62
     4
100
AcDbLine
 10
411.0616096975548
 20
819.4087653662748
 30
0.0
 11
392.6756992243555
 21
819.4087653662748
 31
0.0
  0
TEXT
  5
706C
330
1F
100
AcDbEntity
  8
LOGO
  6
Continuous
100
AcDbText
 10
396.659360699031
 20
809.9627599856912
 30
196.5865886400747
 40
2.25
  1
Tube I.D.
 41
0.8
  7
CHINESET
100
AcDbText
  0
TEXT
  5
706D
330
1F
100
AcDbEntity
  8
LOGO
100
AcDbText
 10
398.2234247261807
 20
814.1337750760824
 30
196.5865886400747
 40
3.75
  1
內徑
  7
CHINESET
100
AcDbText
  0
TEXT
  5
706E
330
1F
100
AcDbEntity
  8
LOGO
100
AcDbText
 10
326.2553216589631
 20
807.5064771832876
 30
0.0
 40
3.0
  1
20907073
 41
0.7
  7
CHINESET
 72
     1
 11
333.9553216589631
 21
807.5064771832876
 31
0.0
100
AcDbText
  0
LINE
  5
706F
330
1F
100
AcDbEntity
  8
LOGO
 62
     4
100
AcDbLine
 10
343.2655182721052
 20
811.9098513391257
 30
0.0
 11
343.2655182721065
 21
805.9107201174057
 31
0.0
  0
LINE
  5
7070
330
1F
100
AcDbEntity
  8
LOGO
 62
     4
100
AcDbLine
 10
343.2655182721052
 20
811.9098513391257
 30
0.0
 11
325.2655182721065
 21
811.9098513391257
 31
0.0
  0
CIRCLE
  5
7071
330
1F
100
AcDbEntity
  8
LOGO
  6
Continuous
100
AcDbCircle
 10
310.8224851079507
 20
826.9140954862157
 30
0.0
 40
1.741618395480947
  0
CIRCLE
  5
7072
330
1F
100
AcDbEntity
  8
LOGO
  6
Continuous
100
AcDbCircle
 10
310.8224851079507
 20
826.9140954862157
 30
0.0
 40
1.020434202998395
  0
LINE
  5
7073
330
1F
100
AcDbEntity
  8
LOGO
100
AcDbLine
 10
321.7670171940055
 20
825.1724770907344
 30
0.0
 11
321.7670171940055
 21
828.655713881697
 31
0.0
  0
LINE
  5
7074
330
1F
100
AcDbEntity
  8
LOGO
100
AcDbLine
 10
316.3071434978391
 20
825.8936612832176
 30
0.0
 11
316.3071434978391
 21
827.9345296892142
 31
0.0
  0
LINE
  5
7075
330
1F
100
AcDbEntity
  8
LOGO
  6
Continuous
100
AcDbLine
 10
316.3071434978391
 20
827.9345296892142
 30
0.0
 11
321.7670171940055
 21
828.655713881697
 31
0.0
  0
LINE
  5
7076
330
1F
100
AcDbEntity
  8
LOGO
  6
Continuous
100
AcDbLine
 10
316.3071434978391
 20
825.8936612832176
 30
0.0
 11
321.7670171940055
 21
825.1724770907344
 31
0.0
  0
LINE
  5
7077
330
1F
100
AcDbEntity
  8
LOGO
  6
AM_ISO08W050x2
 48
0.3
100
AcDbLine
 10
308.4216380710983
 20
826.9140954862157
 30
0.0
 11
313.2233321448031
 21
826.9140954862157
 31
0.0
1001
GENIUS_GENOREF_13
1005
707E
  0
LINE
  5
7078
330
1F
100
AcDbEntity
  8
LOGO
  6
AM_ISO08W050x2
 48
0.3
100
AcDbLine
 10
310.8224851079507
 20
824.5132484493634
 30
0.0
 11
310.8224851079507
 21
829.314942523068
 31
0.0
1001
GENIUS_GENOREF_13
1005
707D
  0
LINE
  5
7079
330
1F
100
AcDbEntity
  8
LOGO
  6
CENTER
 48
0.5
100
AcDbLine
 10
315.8705053586251
 20
826.9140954862157
 30
0.0
 11
322.316808800687
 21
826.9140954862157
 31
0.0
1001
GENIUS_GENOREF_13
1005
707C
  0
LINE
  5
707A
330
1F
100
AcDbEntity
  8
LOGO
 62
     4
100
AcDbLine
 10
584.1943333853269
 20
942.347255324346
 30
0.0
 11
584.1943333853269
 21
835.906376226003
 31
0.0
  0
LINE
  5
707B
330
1F
100
AcDbEntity
  8
LOGO
 62
     4
100
AcDbLine
 10
584.1943333853269
 20
942.347255324346
 30
0.0
 11
671.7750748331923
 21
942.347255324346
 31
0.0
  0
POINT
  5
707C
330
1F
100
AcDbEntity
  8
0
 60
     1
100
AcDbPoint
 10
-786.4226799288872
 20
3.247329682939266
 30
0.0
1001
GENIUS_GENOBJ-N-CRS_13
1002
{
1000
OWNER
1000
GEN
1002
}
1001
GENIUS_GENOLIS_13
1002
{
1000
ENT
1005
0
1005
0
1005
0
1005
7079
1002
}
1001
GENIUS_GENOENT_13
1002
{
1000
MYREF
1005
707C
1002
}
1002
{
1000
GRP
1005
0
1002
}
1001
GENIUS_GENODEF_13
1002
{
1000
HIER
1070
    10
1002
}
1002
{
1000
MANEDIT
1070
     1
1002
}
1002
{
1000
NOSEL
1070
     0
1002
}
1002
{
1000
BEHIND
1070
     0
1002
}
1002
{
1000
OTHER
1070
     0
1002
}
1002
{
1000
REACTOR
1002
}
  0
POINT
  5
707D
330
1F
100
AcDbEntity
  8
0
 60
     1
100
AcDbPoint
 10
-797.747265151742
 20
12.12291616157552
 30
0.0
1001
GENIUS_GENOBJ-N-CRS_13
1002
{
1000
OWNER
1000
GEN
1002
}
1001
GENIUS_GENOLIS_13
1002
{
1000
ENT
1005
0
1005
0
1005
0
1005
7078
1002
}
1001
GENIUS_GENOENT_13
1002
{
1000
MYREF
1005
707D
1002
}
1002
{
1000
GRP
1005
0
1002
}
1001
GENIUS_GENODEF_13
1002
{
1000
HIER
1070
    10
1002
}
1002
{
1000
MANEDIT
1070
     1
1002
}
1002
{
1000
NOSEL
1070
     0
1002
}
1002
{
1000
BEHIND
1070
     0
1002
}
1002
{
1000
OTHER
1070
     0
1002
}
1002
{
1000
REACTOR
1002
}
  0
POINT
  5
707E
330
1F
100
AcDbEntity
  8
0
 60
     1
100
AcDbPoint
 10
-791.3885914539052
 20
3.247329682939266
 30
0.0
1001
GENIUS_GENOBJ-N-CRS_13
1002
{
1000
OWNER
1000
GEN
1002
}
1001
GENIUS_GENOLIS_13
1002
{
1000
ENT
1005
0
1005
0
1005
0
1005
7077
1002
}
1001
GENIUS_GENOENT_13
1002
{
1000
MYREF
1005
707E
1002
}
1002
{
1000
GRP
1005
0
1002
}
1001
GENIUS_GENODEF_13
1002
{
1000
HIER
1070
    10
1002
}
1002
{
1000
MANEDIT
1070
     1
1002
}
1002
{
1000
NOSEL
1070
     0
1002
}
1002
{
1000
BEHIND
1070
     0
1002
}
1002
{
1000
OTHER
1070
     0
1002
}
1002
{
1000
REACTOR
1002
}
  0
CIRCLE
  5
70B9
330
1F
100
AcDbEntity
  8
0
100
AcDbCircle
 10
449.6250764128142
 20
1027.795342566843
 30
0.0
 40
31.25
  0
LINE
  5
7100
330
1F
100
AcDbEntity
  8
AM_VIS
100
AcDbLine
 10
300.6273463288561
 20
878.5156365659613
 30
0.0
 11
300.6273463288561
 21
892.5156365659614
 31
0.0
  0
ARC
  5
7101
330
1F
100
AcDbEntity
  8
AM_VIS
100
AcDbCircle
 10
296.2583992181328
 20
878.5874338597686
 30
0.0
 40
4.369537012967721
100
AcDbArc
 50
338.9171752505347
 51
359.0585119124222
  0
LINE
  5
7102
330
1F
100
AcDbEntity
  8
AM_VIS
100
AcDbLine
 10
301.1725812070161
 20
893.0162767428706
 30
0.0
 11
300.6268747140353
 21
892.5161511632552
 31
0.0
  0
LINE
  5
7103
330
1F
100
AcDbEntity
  8
AM_VIS
100
AcDbLine
 10
300.335445572404
 20
870.0156365659614
 30
0.0
 11
300.335445572404
 21
877.0156365659614
 31
0.0
  0
LINE
  5
7104
102
{ACAD_REACTORS
330
7230
102
}
330
1F
100
AcDbEntity
  8
AM_VIS
100
AcDbLine
 10
308.335445572404
 20
870.0156365659614
 30
0.0
 11
308.335445572404
 21
892.5156365659614
 31
0.0
  0
LINE
  5
7105
330
1F
100
AcDbEntity
  8
AM_VIS
100
AcDbLine
 10
307.8354455724039
 20
893.0156365659613
 30
0.0
 11
308.335445572404
 21
892.5156365659614
 31
0.0
  0
LINE
  5
7107
102
{ACAD_REACTORS
330
7230
102
}
330
1F
100
AcDbEntity
  8
AM_VIS
100
AcDbLine
 10
307.8354455724039
 20
893.0156365659613
 30
0.0
 11
301.1731679122355
 21
893.0156365659613
 31
0.0
  0
LINE
  5
7109
330
1F
100
AcDbEntity
  8
AM_VIS
100
AcDbLine
 10
300.6273463288561
 20
878.5156365659613
 30
0.0
 11
300.6273463288561
 21
892.5156365659614
 31
0.0
  0
LINE
  5
710A
330
1F
100
AcDbEntity
  8
AM_VIS
100
AcDbLine
 10
301.1725812070161
 20
893.0162767428704
 30
0.0
 11
300.6268747140353
 21
892.516151163255
 31
0.0
  0
LINE
  5
710B
330
1F
100
AcDbEntity
  8
0
  6
HIDDEN
 62
     3
 48
0.2
100
AcDbLine
 10
302.1354455724038
 20
893.0156365659613
 30
0.0
 11
302.1354455724038
 21
877.0156365659614
 31
0.0
  0
LINE
  5
710C
330
1F
100
AcDbEntity
  8
AM_VIS
100
AcDbLine
 10
299.1354455724038
 20
893.0162767428704
 30
0.0
 11
299.1354455724038
 21
877.0162767428704
 31
0.0
  0
LINE
  5
710D
330
1F
100
AcDbEntity
  8
0
  6
HIDDEN
 62
     3
 48
0.2
100
AcDbLine
 10
300.3354455724038
 20
877.0156365659614
 30
0.0
 11
302.1354455724039
 21
877.0156365659614
 31
0.0
  0
LINE
  5
710E
330
1F
100
AcDbEntity
  8
AM_VIS
100
AcDbLine
 10
300.3356923179375
 20
877.0162767428704
 30
0.0
 11
299.1354455724038
 21
877.0162767428706
 31
0.0
  0
LINE
  5
710F
330
1F
100
AcDbEntity
  8
AM_VIS
100
AcDbLine
 10
301.1725812070161
 20
893.0162767428704
 30
0.0
 11
299.1354455724038
 21
893.0162767428706
 31
0.0
  0
LINE
  5
7110
330
1F
100
AcDbEntity
  8
AM_VIS
100
AcDbLine
 10
302.1354455724039
 20
905.7057480884532
 30
0.0
 11
302.135445572404
 21
907.2057480884533
 31
0.0
  0
LINE
  5
7111
102
{ACAD_REACTORS
330
7191
102
}
330
1F
100
AcDbEntity
  8
AM_VIS
100
AcDbLine
 10
299.1354455724039
 20
905.7057480884534
 30
0.0
 11
299.135445572404
 21
907.2057480884533
 31
0.0
  0
LINE
  5
7112
330
1F
100
AcDbEntity
  8
AM_VIS
100
AcDbLine
 10
301.1731679122355
 20
905.7057480884532
 30
0.0
 11
302.1354455724039
 21
905.7057480884532
 31
0.0
  0
LINE
  5
7113
330
1F
100
AcDbEntity
  8
AM_VIS
100
AcDbLine
 10
301.1731679122355
 20
905.7057480884532
 30
0.0
 11
299.1354455724039
 21
905.705748088453
 31
0.0
  0
LINE
  5
7116
330
1F
100
AcDbEntity
  8
AM_VIS
100
AcDbLine
 10
302.1354455724039
 20
908.7057480884531
 30
0.0
 11
302.135445572404
 21
907.2057480884533
 31
0.0
  0
LINE
  5
7117
330
1F
100
AcDbEntity
  8
AM_VIS
100
AcDbLine
 10
299.1354455724039
 20
908.7057480884531
 30
0.0
 11
299.135445572404
 21
907.2057480884531
 31
0.0
  0
LINE
  5
7118
330
1F
100
AcDbEntity
  8
AM_VIS
100
AcDbLine
 10
301.1731679122355
 20
908.7057480884531
 30
0.0
 11
302.1354455724039
 21
908.7057480884531
 31
0.0
  0
LINE
  5
7119
102
{ACAD_REACTORS
330
7191
102
}
330
1F
100
AcDbEntity
  8
AM_VIS
100
AcDbLine
 10
301.1731679122355
 20
908.7057480884531
 30
0.0
 11
299.1354455724039
 21
908.7057480884533
 31
0.0
  0
ARC
  5
712C
102
{ACAD_REACTORS
330
71DE
102
}
330
1F
100
AcDbEntity
  8
0
100
AcDbCircle
 10
304.335445572404
 20
907.2057480884533
 30
0.0
 40
4.0
100
AcDbArc
 50
202.0243128370406
 51
157.9756871629576
  0
LINE
  5
712E
330
1F
100
AcDbEntity
  8
0
100
AcDbLine
 10
274.3354455724039
 20
866.5156365659619
 30
0.0
 11
274.3354455724039
 21
861.3238433568328
 31
0.0
  0
LINE
  5
7130
330
1F
100
AcDbEntity
  8
0
100
AcDbLine
 10
333.8354455724038
 20
870.0156365659612
 30
0.0
 11
274.835445572404
 21
870.0156365659614
 31
0.0
  0
LINE
  5
7131
330
1F
100
AcDbEntity
  8
0
100
AcDbLine
 10
334.3354455724039
 20
866.5156365659621
 30
0.0
 11
334.3354455724039
 21
861.8927514842836
 31
0.0
  0
LINE
  5
7133
330
1F
100
AcDbEntity
  8
0
100
AcDbLine
 10
333.8354455724038
 20
870.0156365659612
 30
0.0
 11
333.915844487902
 21
869.9352376504631
 31
0.0
  0
LINE
  5
7134
330
1F
100
AcDbEntity
  8
0
100
AcDbLine
 10
274.7550466569057
 20
866.5156365659621
 30
0.0
 11
274.3354455724039
 21
866.5156365659621
 31
0.0
  0
LINE
  5
7135
330
1F
100
AcDbEntity
  8
0
100
AcDbLine
 10
274.7550466569057
 20
869.935237650464
 30
0.0
 11
274.7550466569057
 21
866.5156365659621
 31
0.0
  0
LINE
  5
7136
330
1F
100
AcDbEntity
  8
0
100
AcDbLine
 10
333.8354455724038
 20
870.0156365659621
 30
0.0
 11
333.915844487902
 21
869.9352376504638
 31
0.0
  0
LINE
  5
7137
330
1F
100
AcDbEntity
  8
0
100
AcDbLine
 10
333.915844487902
 20
866.5156365659621
 30
0.0
 11
334.3354455724039
 21
866.5156365659621
 31
0.0
  0
LINE
  5
7138
330
1F
100
AcDbEntity
  8
0
100
AcDbLine
 10
333.915844487902
 20
869.935237650464
 30
0.0
 11
333.915844487902
 21
866.5156365659621
 31
0.0
  0
LINE
  5
714A
330
1F
100
AcDbEntity
  8
AM_7
100
AcDbLine
 10
304.335445572404
 20
868.0156365659613
 30
0.0
 11
304.335445572404
 21
896.6733268578675
 31
0.0
1001
GENIUS_GENOBJ-N-CEN_13
1002
{
1000
OWNER
1000
GEN
1002
}
1001
GENIUS_GENODEF_13
1002
{
1000
HIER
1070
     0
1002
}
1002
{
1000
MANEDIT
1070
     0
1002
}
1002
{
1000
NOSEL
1070
     0
1002
}
1002
{
1000
BEHIND
1070
     0
1002
}
1002
{
1000
OTHER
1070
     0
1002
}
1002
{
1000
REACTOR
1002
}
1001
GENIUS_GENCEN_19
1002
{
1040
2.0
1002
}
  0
LINE
  5
7157
330
1F
100
AcDbEntity
  8
AM_7
  6
AM_ISO08W050x2
100
AcDbLine
 10
304.335445572404
 20
872.0156365659613
 30
0.0
 11
304.3354455724038
 21
858.0156365659611
 31
0.0
1001
GENIUS_GENODEF_13
1002
{
1000
HIER
1070
     0
1002
}
1002
{
1000
MANEDIT
1070
     0
1002
}
1002
{
1000
NOSEL
1070
     0
1002
}
1002
{
1000
BEHIND
1070
     0
1002
}
1002
{
1000
OTHER
1070
     0
1002
}
1002
{
1000
REACTOR
1002
}
1001
GENIUS_GENOBJ-N-CEN_13
1002
{
1000
OWNER
1000
GEN
1002
}
1001
GENIUS_GENCEN_19
1002
{
1040
2.0
1002
}
  0
LINE
  5
7166
330
1F
100
AcDbEntity
  8
AM_7
  6
AM_ISO08W050x2
100
AcDbLine
 10
304.335445572404
 20
907.2057480884533
 30
0.0
 11
310.335445572404
 21
907.2057480884533
 31
0.0
1001
GENIUS_GENOREF_13
1005
716A
  0
LINE
  5
7167
330
1F
100
AcDbEntity
  8
AM_7
  6
AM_ISO08W050x2
100
AcDbLine
 10
304.335445572404
 20
907.2057480884533
 30
0.0
 11
304.335445572404
 21
913.2057480884531
 31
0.0
1001
GENIUS_GENOREF_13
1005
716A
  0
LINE
  5
7168
330
1F
100
AcDbEntity
  8
AM_7
  6
AM_ISO08W050x2
100
AcDbLine
 10
304.335445572404
 20
907.2057480884533
 30
0.0
 11
298.335445572404
 21
907.2057480884533
 31
0.0
1001
GENIUS_GENOREF_13
1005
716A
  0
LINE
  5
7169
330
1F
100
AcDbEntity
  8
AM_7
  6
AM_ISO08W050x2
100
AcDbLine
 10
304.335445572404
 20
907.2057480884533
 30
0.0
 11
304.335445572404
 21
901.2057480884532
 31
0.0
1001
GENIUS_GENOREF_13
1005
716A
  0
POINT
  5
716A
330
1F
100
AcDbEntity
  8
0
 60
     1
100
AcDbPoint
 10
0.0
 20
0.0
 30
0.0
1001
GENIUS_GENOLIS_13
1002
{
1000
ENT
1005
7169
1005
7168
1005
7167
1005
7166
1002
}
1001
GENIUS_GENOENT_13
1002
{
1000
MYREF
1005
716A
1002
}
1002
{
1000
GRP
1005
0
1002
}
1001
GENIUS_GENOBJ-N-CRS_13
1002
{
1000
OWNER
1000
GEN
1002
}
1001
GENIUS_GENODEF_13
1002
{
1000
HIER
1070
    10
1002
}
1002
{
1000
MANEDIT
1070
     0
1002
}
1002
{
1000
NOSEL
1070
     0
1002
}
1002
{
1000
BEHIND
1070
     0
1002
}
1002
{
1000
OTHER
1070
     0
1002
}
1002
{
1000
REACTOR
1002
}
  0
SPLINE
  5
716B
330
1F
100
AcDbEntity
  8
0
100
AcDbSpline
210
0.0
220
0.0
230
1.0
 70
     8
 71
     3
 72
    13
 73
     9
 74
     7
 42
0.0000000001
 43
0.0000000001
 44
0.0000000001
 40
0.0
 40
0.0
 40
0.0
 40
0.0
 40
11.01117472575013
 40
24.78086793011656
 40
39.7141447793271
 40
54.75998864466799
 40
61.07174222201381
 40
65.68952578693746
 40
65.68952578693746
 40
65.68952578693746
 40
65.68952578693746
 10
271.8209921675823
 20
860.7830910290484
 30
0.0
 10
275.4457225541379
 20
861.576186404808
 30
0.0
 10
283.6032504499996
 20
863.3610633368503
 30
0.0
 10
296.8141759883486
 20
860.070098618185
 30
0.0
 10
311.3497581799363
 20
862.9520183577334
 30
0.0
 10
323.3481651815341
 20
862.9720615892773
 30
0.0
 10
332.1882190595266
 20
860.5634225192257
 30
0.0
 10
335.4713342853697
 20
862.4108026178452
 30
0.0
 10
336.8584667260488
 20
863.1913298576108
 30
0.0
 11
271.8209921675823
 21
860.7830910290484
 31
0.0
 11
282.7121310208393
 21
862.4045296865608
 31
0.0
 11
296.4244704563612
 21
861.149062384157
 31
0.0
 11
311.3002093973908
 21
862.4586991328412
 31
0.0
 11
326.3386941525703
 21
861.9881740129493
 31
0.0
 11
332.6191545851993
 21
861.3604400125014
 31
0.0
 11
336.8584667260488
 21
863.1913298576108
 31
0.0
  0
LINE
  5
716C
330
1F
100
AcDbEntity
  8
LOGO
 62
     4
100
AcDbLine
 10
346.8558162810577
 20
942.347255324346
 30
0.0
 11
346.8558162810577
 21
835.906376226003
 31
0.0
  0
LINE
  5
716D
330
1F
100
AcDbEntity
  8
LOGO
 62
     4
100
AcDbLine
 10
346.8558162810577
 20
942.347255324346
 30
0.0
 11
259.2750748331923
 21
942.347255324346
 31
0.0
  0
DIMENSION
  5
7181
102
{ACAD_XDICTIONARY
360
7190
102
}
102
{ACAD_REACTORS
330
7191
102
}
330
1F
100
AcDbEntity
  8
AM_5
100
AcDbDimension
  2
*D30
 10
291.0091288484025
 20
905.7057480884534
 30
0.0
 11
291.0091288484024
 21
919.3810366767065
 31
0.0
 70
   160
  1
<>{}{\C5; h9}
 71
     5
 42
3.0
  3
AM_ISO$0
100
AcDbAlignedDimension
 13
299.1354455724039
 23
908.7057480884533
 33
0.0
 14
299.1354455724039
 24
905.7057480884534
 34
0.0
 50
89.99999999999678
100
AcDbRotatedDimension
1001
GENIUS_GENDTOL_13
1000
FitTxt
1000
h9
1000
{$3 $T}
1040
3.0
1001
ACAD
1000
DSTYLE
1002
{
1070
   286
1070
     0
1070
   284
1070
     8
1070
    48
1040
0.1
1070
    47
1040
0.1
1070
   272
1070
     8
1070
   274
1070
     3
1002
}
  0
DIMENSION
  5
71D0
102
{ACAD_XDICTIONARY
360
71DD
102
}
102
{ACAD_REACTORS
330
71DE
102
}
330
1F
100
AcDbEntity
  8
AM_5
100
AcDbDimension
  2
*D31
 10
317.885446582404
 20
903.2057480884532
 30
0.0
 11
317.8854465824038
 21
920.3307480884532
 31
0.0
 70
   160
  1
%%c<>{}{\C5; h7}
 71
     5
 42
8.0
  3
AM_ISO$0
100
AcDbAlignedDimension
 13
304.335445572404
 23
911.2057480884532
 33
0.0
 14
304.335445572404
 24
903.2057480884532
 34
0.0
 50
90.0
100
AcDbRotatedDimension
1001
GENIUS_GENDTOL_13
1000
FitTxt
1000
h7
1000
{$3 $T}
1040
8.0
1001
ACAD
1000
DSTYLE
1002
{
1070
   286
1070
     0
1070
   284
1070
     8
1070
    48
1040
0.1
1070
    47
1040
0.1
1070
   272
1070
     8
1070
   274
1070
     3
1002
}
  0
DIMENSION
  5
7222
102
{ACAD_XDICTIONARY
360
722F
102
}
102
{ACAD_REACTORS
330
7230
102
}
330
1F
100
AcDbEntity
  8
AM_5
100
AcDbDimension
  2
*D32
 10
320.3354455724039
 20
870.0156365659614
 30
0.0
 11
317.8851010842148
 21
881.5156365659614
 31
0.0
 70
    32
  1
<>
 71
     5
 42
23.0
  3
AM_ISO$0
100
AcDbAlignedDimension
 13
307.8354455724039
 23
893.0156365659613
 33
0.0
 14
308.335445572404
 24
870.0156365659614
 34
0.0
 50
90.00000000000003
100
AcDbRotatedDimension
1001
ACAD
1000
DSTYLE
1002
{
1070
   286
1070
     0
1070
   284
1070
     8
1070
    48
1040
0.1
1070
    47
1040
0.1
1070
   272
1070
     8
1070
   274
1070
     3
1002
}
  0
TEXT
  5
726D
330
1F
100
AcDbEntity
  8
0
100
AcDbText
 10
262.295882383257
 20
927.3852137940362
 30
0.0
 40
7.680000000000001
  1
FR型
100
AcDbText
  0
ENDSEC
  0
SECTION
  2
OBJECTS
  0
DICTIONARY
  5
C
330
0
100
AcDbDictionary
281
     1
  3
ACAD_COLOR
350
BE
  3
ACAD_GROUP
350
D
  3
ACAD_LAYOUT
350
1A
  3
ACAD_MATERIAL
350
BD
  3
ACAD_MLINESTYLE
350
17
  3
ACAD_PLOTSETTINGS
350
19
  3
ACAD_PLOTSTYLENAME
350
E
  3
ACAD_TABLESTYLE
350
11A
  3
ACDBHEADERROUNDTRIPXREC
350
7420
  3
AcDbVariableDictionary
350
94
  3
AcmDictionary
350
5B
  3
AMG
350
41
  3
AMGSNAPSETTINGS
350
1B8
  3
DWGPROPS
350
741F
  0
DICTIONARY
  5
3F9
330
2
100
AcDbDictionary
280
     1
281
     1
  3
ACAD_LAYERFILTERS
360
5B7
  3
ACAD_LAYERSTATES
360
1292
  3
ACLYDICTIONARY
360
5B6
  3
AMLAYER_GROUPCOLORS
360
11DE
  0
DICTIONARY
  5
8F
330
1F
100
AcDbDictionary
280
     1
281
     1
  3
ACAD_SORTENTS
360
1210
  0
DICTIONARY
  5
7190
330
7181
100
AcDbDictionary
280
     1
281
     1
  3
ACAD_DIMASSOC
360
7191
  0
DICTIONARY
  5
71DD
330
71D0
100
AcDbDictionary
280
     1
281
     1
  3
ACAD_DIMASSOC
360
71DE
  0
DICTIONARY
  5
722F
330
7222
100
AcDbDictionary
280
     1
281
     1
  3
ACAD_DIMASSOC
360
7230
  0
DICTIONARY
  5
BE
102
{ACAD_REACTORS
330
C
102
}
330
C
100
AcDbDictionary
281
     1
  0
DICTIONARY
  5
D
102
{ACAD_REACTORS
330
C
102
}
330
C
100
AcDbDictionary
281
     1
  0
DICTIONARY
  5
1A
102
{ACAD_REACTORS
330
C
102
}
330
C
100
AcDbDictionary
281
     1
  3
Model
350
22
  3
配置1
350
1E
  3
配置2
350
26
  0
DICTIONARY
  5
BD
102
{ACAD_REACTORS
330
C
102
}
330
C
100
AcDbDictionary
281
     1
  0
DICTIONARY
  5
17
102
{ACAD_REACTORS
330
C
102
}
330
C
100
AcDbDictionary
281
     1
  3
Standard
350
18
  0
DICTIONARY
  5
19
102
{ACAD_REACTORS
330
C
102
}
330
C
100
AcDbDictionary
281
     1
  0
ACDBDICTIONARYWDFLT
  5
E
102
{ACAD_REACTORS
330
C
102
}
330
C
100
AcDbDictionary
281
     1
  3
Normal
350
F
100
AcDbDictionaryWithDefault
340
F
  0
DICTIONARY
  5
11A
102
{ACAD_REACTORS
330
C
102
}
330
C
100
AcDbDictionary
281
     1
  3
Standard
350
11B
  0
DICTIONARY
  5
7420
102
{ACAD_REACTORS
330
C
102
}
330
C
100
AcDbDictionary
281
     1
  0
DICTIONARY
  5
94
102
{ACAD_REACTORS
330
C
102
}
330
C
100
AcDbDictionary
281
     1
  3
CTABLESTYLE
350
138
  3
DIMASSOC
350
96
  3
INDEXCTL
350
95
  3
PROJECTNAME
350
732E
  0
DICTIONARY
  5
5B
102
{ACAD_REACTORS
330
C
102
}
330
C
100
AcDbDictionary
281
     1
  3
AcmBOM
350
1B5
  3
AcmStdDictionary
350
61
  3
AMDTSECTSYM_ARROWCOLOR
350
123
  0
DICTIONARY
  5
41
102
{ACAD_REACTORS
330
C
102
}
330
C
100
AcDbDictionary
281
     1
  0
DICTIONARY
  5
1B8
102
{ACAD_REACTORS
330
C
102
}
330
C
100
AcDbDictionary
281
     1
  0
XRECORD
  5
741F
102
{ACAD_REACTORS
330
C
102
}
330
C
100
AcDbXrecord
280
     1
  1
DWGPROPS COOKIE
  2

  3

  4

  6

  7

  8

  9

300
AmdtFileType=84
301
=
302
=
303
=
304
=
305
=
306
=
307
=
308
=
309
=
 40
1.390293124999999
 41
2453916.626557615
 42
2455020.664813947
  1

 90
        1
  0
DICTIONARY
  5
5B7
102
{ACAD_REACTORS
330
3F9
102
}
330
3F9
100
AcDbDictionary
281
     1
  0
DICTIONARY
  5
1292
102
{ACAD_REACTORS
330
3F9
102
}
330
3F9
100
AcDbDictionary
281
     1
  0
DICTIONARY
  5
5B6
102
{ACAD_REACTORS
330
3F9
102
}
330
3F9
100
AcDbDictionary
281
     1
1001
ACAD
1000
<All
  0
DICTIONARY
  5
11DE
102
{ACAD_REACTORS
330
3F9
102
}
330
3F9
100
AcDbDictionary
280
     1
281
     1
  0
SORTENTSTABLE
  5
1210
102
{ACAD_REACTORS
330
8F
102
}
330
8F
100
AcDbSortentsTable
330
1F
331
48EB
  5
4901
331
4932
  5
493A
331
4969
  5
496F
331
49A8
  5
4B4D
331
55F3
  5
55F3
331
493A
  5
4941
331
4971
  5
4977
331
4D47
  5
4D4F
331
554C
  5
554E
331
5772
  5
5772
331
4E8D
  5
4E90
331
4942
  5
4951
331
4BB8
  5
4BD9
331
4D4F
  5
4D52
331
4DB6
  5
4DB9
331
5554
  5
5556
331
563B
  5
563B
331
577A
  5
577A
331
4E95
  5
4EB0
331
4F0C
  5
4F1C
331
466C
  5
466C
331
4981
  5
498E
331
4DBE
  5
4DC1
331
5643
  5
5643
331
4F1C
  5
4F1E
331
4674
  5
4674
331
4D5F
  5
4D62
331
4EC5
  5
4ED5
331
4F53
  5
4F55
331
50A9
  5
50AB
331
467C
  5
467C
331
4F5B
  5
4F5D
331
5002
  5
5004
331
50B1
  5
50B3
331
463D
  5
463D
331
500A
  5
500C
331
50B9
  5
50BB
331
5158
  5
515A
331
5160
  5
5162
331
4FCB
  5
4FCD
331
50C1
  5
50C3
331
5265
  5
5267
331
526D
  5
5349
331
4725
  5
4725
331
4829
  5
4839
331
472D
  5
472D
331
4839
  5
4846
331
46B7
  5
46B7
331
4774
  5
478C
331
4898
  5
48A6
331
478C
  5
478F
331
46BF
  5
46BF
331
473D
  5
4740
331
4913
  5
4924
331
556C
  5
556C
331
564B
  5
564B
331
4991
  5
49A1
331
4D67
  5
4D6A
331
557C
  5
557C
331
5653
  5
5653
331
4DD6
  5
4DE1
331
4ED5
  5
4ED7
331
4BE8
  5
4CA6
331
4923
  5
4929
331
565B
  5
565B
331
468C
  5
468C
331
492B
  5
4931
331
49A1
  5
4B44
331
4645
  5
4645
331
5092
  5
5094
331
4D9F
  5
4DB3
331
464D
  5
464D
331
4FD3
  5
4FD5
331
50C9
  5
50D8
331
509A
  5
509C
331
5170
  5
5172
331
461E
  5
461E
331
4655
  5
4655
331
4FDB
  5
4FDE
331
50A2
  5
50A4
331
4665
  5
4665
331
4FE3
  5
4FE5
331
50F1
  5
50F3
331
4FEB
  5
4FED
331
470E
  5
470E
331
4794
  5
4797
331
46C7
  5
46C7
331
47D3
  5
47E1
331
479C
  5
479F
331
46CF
  5
46CF
331
4859
  5
485C
331
47A4
  5
47A9
331
47E3
  5
47E6
331
46DF
  5
46DF
331
475D
  5
4761
331
4933
  5
493B
331
496A
  5
4970
331
55F4
  5
55F4
331
493B
  5
4942
331
4972
  5
4978
331
4D48
  5
4D50
331
554D
  5
554F
331
5634
  5
5634
331
5773
  5
5773
331
4E8E
  5
4E91
331
4943
  5
4954
331
497A
  5
4981
331
4BB9
  5
4BE7
331
4D50
  5
4D5F
331
4DB7
  5
4DBA
331
4904
  5
4908
331
5555
  5
5557
331
563C
  5
563C
331
577B
  5
577B
331
4E96
  5
4EB1
331
4F0D
  5
4F1D
331
466D
  5
466D
331
4982
  5
4991
331
4DBF
  5
4DC2
331
5644
  5
5644
331
4F1D
  5
4F1F
331
4675
  5
4675
331
4F54
  5
4F58
331
50AA
  5
50AC
331
467D
  5
467D
331
4F5C
  5
4F5E
331
5003
  5
5005
331
50B2
  5
50B4
331
4685
  5
4685
331
463E
  5
463E
331
500B
  5
500D
331
50BA
  5
50BC
331
5159
  5
515B
331
5161
  5
5163
331
4FCC
  5
4FCE
331
50C2
  5
50C4
331
5266
  5
5268
331
4726
  5
4726
331
4765
  5
476A
331
46F7
  5
46F7
331
47BC
  5
47C6
331
46B8
  5
46B8
331
4736
  5
4736
331
4803
  5
4807
331
478D
  5
4790
331
4707
  5
4707
331
473E
  5
4741
331
484A
  5
484E
331
4BD9
  5
4C9D
331
4914
  5
4926
331
4D60
  5
4D63
331
564C
  5
564C
331
4992
  5
49A2
331
4D68
  5
4D9A
331
557D
  5
557D
331
5654
  5
5654
331
4DD7
  5
4DE2
331
4ED6
  5
4EE6
331
4BE9
  5
4D49
331
4924
  5
492A
331
55ED
  5
55ED
331
565C
  5
565C
331
468D
  5
468D
331
492C
  5
4932
331
49A2
  5
4B45
331
4EE6
  5
4EE8
331
5169
  5
516D
331
5093
  5
5095
331
4695
  5
4695
331
464E
  5
464E
331
4FD4
  5
4FD6
331
50CA
  5
50D9
331
509B
  5
509D
331
5171
  5
5173
331
461F
  5
461F
331
4656
  5
4656
331
4FDC
  5
4FDF
331
50A3
  5
50A5
331
4FE4
  5
4FE6
331
50F2
  5
511F
331
4FEC
  5
4FEE
331
470F
  5
470F
331
4795
  5
4799
331
46C8
  5
46C8
331
48D1
  5
48EA
331
479D
  5
47A0
331
46D0
  5
46D0
331
485A
  5
4864
331
471F
  5
471F
331
47A5
  5
47AA
331
46D8
  5
46D8
331
47E4
  5
47EA
331
4823
  5
4827
331
47EC
  5
47F6
331
4872
  5
487D
331
4934
  5
493C
331
496B
  5
4971
331
4DA0
  5
4DB4
331
55F5
  5
55F5
331
493C
  5
4943
331
4973
  5
497A
331
4D49
  5
4D51
331
554E
  5
5550
331
5635
  5
5635
331
5774
  5
5774
331
4E8F
  5
4E92
331
497B
  5
4982
331
4BBA
  5
4BE8
331
4D51
  5
4D60
331
4DB8
  5
4DBB
331
4944
  5
4955
331
4905
  5
490D
331
5556
  5
5558
331
563D
  5
563D
331
577C
  5
577C
331
58C3
  5
58C3
331
4E97
  5
473C
331
4627
  5
4627
331
466E
  5
466E
331
4983
  5
4992
331
490D
  5
491C
331
5784
  5
5784
331
4DC0
  5
4DD4
331
4F1E
  5
4F2E
331
462F
  5
462F
331
4F55
  5
4F59
331
50AB
  5
50AD
331
4F5D
  5
4F5F
331
5004
  5
5006
331
50B3
  5
50B5
331
4686
  5
4686
331
463F
  5
463F
331
500C
  5
500E
331
50BB
  5
50BD
331
515A
  5
515C
331
5162
  5
5164
331
4FCD
  5
4FCF
331
50C3
  5
50C5
331
5267
  5
5269
331
46A1
  5
46A1
331
46E8
  5
46E8
331
4727
  5
4727
331
4766
  5
476B
331
47BD
  5
47C7
331
4892
  5
4895
331
4700
  5
4700
331
47C5
  5
47CF
331
4804
  5
4811
331
473F
  5
4742
331
484B
  5
484F
331
4954
  5
4960
331
4D61
  5
4D64
331
564D
  5
564D
331
4F2E
  5
4F30
331
491D
  5
4928
331
4D69
  5
4D9B
331
557E
  5
557E
331
5655
  5
5655
331
4ED7
  5
4EE7
331
4BEA
  5
4D4A
331
55EE
  5
55EE
331
57BC
  5
57BC
331
5953
  5
5953
331
4DE0
  5
4DE3
331
468E
  5
468E
331
492D
  5
4933
331
49A3
  5
4B48
331
4EE7
  5
4EE9
331
5094
  5
5096
331
4696
  5
4696
331
4FD5
  5
4FD7
331
509C
  5
509E
331
5172
  5
5174
331
50A4
  5
50A6
331
4FE5
  5
4FE7
331
50F3
  5
5120
331
4FED
  5
4FFF
331
48D2
  5
48EB
331
479E
  5
47A2
331
4718
  5
4718
331
46D1
  5
46D1
331
474F
  5
4753
331
481C
  5
4823
331
485B
  5
4865
331
46D9
  5
46D9
331
4824
  5
4829
331
475F
  5
4762
331
47ED
  5
47FF
331
4873
  5
487E
331
496C
  5
4972
331
4DA1
  5
4DB5
331
55F6
  5
55F6
331
4974
  5
497B
331
4D4A
  5
491D
331
493D
  5
4944
331
554F
  5
5551
331
5636
  5
5636
331
5775
  5
5775
331
58B4
  5
58B4
331
4E90
  5
4E93
331
4620
  5
4620
331
4BBB
  5
4BE9
331
4D52
  5
4D61
331
4DB9
  5
4DBC
331
5557
  5
5559
331
563E
  5
563E
331
577D
  5
577D
331
4EB0
  5
4EB2
331
4628
  5
4628
331
466F
  5
466F
331
4DC1
  5
4DD5
331
4F1F
  5
4F2F
331
4BCB
  5
490E
331
5785
  5
5785
331
4984
  5
4994
331
50AC
  5
50AE
331
4F5E
  5
4F60
331
5005
  5
5007
331
50B4
  5
50B6
331
4638
  5
4638
331
500D
  5
5052
331
50BC
  5
50BE
331
515B
  5
515D
331
4687
  5
4687
331
5163
  5
5165
331
508D
  5
508F
331
4FCE
  5
4FD0
331
50C4
  5
50C6
331
5268
  5
526A
331
46A2
  5
46A2
331
46E9
  5
46E9
331
4720
  5
4720
331
4728
  5
4728
331
47F5
  5
4800
331
4893
  5
4898
331
4701
  5
4701
331
47C6
  5
47D0
331
484C
  5
4850
331
564E
  5
564E
331
4955
  5
4961
331
4D62
  5
4D65
331
4F2F
  5
4F31
331
5656
  5
5656
331
495D
  5
4968
331
4994
  5
49A3
331
4D6A
  5
4D9C
331
57BD
  5
57BD
331
5954
  5
5954
331
4DE1
  5
4DE4
331
4926
  5
492B
331
4640
  5
4640
331
468F
  5
468F
331
4EE8
  5
4EF8
331
5666
  5
5666
331
49A4
  5
4B49
331
4D9A
  5
4D9D
331
4648
  5
4648
331
5095
  5
5097
331
4FD6
  5
4FD8
331
4619
  5
4619
331
4697
  5
4697
331
509D
  5
509F
331
5173
  5
5264
331
4FDE
  5
4FE0
331
469F
  5
469F
331
50A5
  5
50A7
331
4FE6
  5
4FE8
331
4FEE
  5
5000
331
4709
  5
4709
331
46C2
  5
46C2
331
4740
  5
4744
331
46CA
  5
46CA
331
479F
  5
47A3
331
46D2
  5
46D2
331
481D
  5
4824
331
46DA
  5
46DA
331
48E3
  5
48F0
331
4EF8
  5
4EFA
331
55F7
  5
55F7
331
496D
  5
4973
331
4E91
  5
4E94
331
5550
  5
5552
331
5637
  5
5637
331
5776
  5
5776
331
58B5
  5
58B5
331
4975
  5
497D
331
4BB4
  5
4BBC
331
4D4B
  5
4956
331
4EB1
  5
4EB3
331
577E
  5
577E
331
5558
  5
555A
331
563F
  5
563F
331
4907
  5
4913
331
497D
  5
4983
331
4BBC
  5
4BEA
331
4DBA
  5
4DBD
331
4668
  5
4668
331
4DC2
  5
4DD6
331
5786
  5
5786
331
4985
  5
499E
331
4670
  5
4670
331
50AD
  5
50AF
331
4F5F
  5
4F61
331
5006
  5
5008
331
50B5
  5
50B7
331
4680
  5
4680
331
4639
  5
4639
331
500E
  5
5053
331
50BD
  5
50BF
331
515C
  5
515E
331
5164
  5
5166
331
508E
  5
5090
331
4FCF
  5
4FD1
331
50C5
  5
50C7
331
5269
  5
526B
331
46A3
  5
46A3
331
4721
  5
4721
331
4760
  5
4764
331
46F2
  5
46F2
331
4729
  5
4729
331
47F6
  5
4806
331
487C
  5
4892
331
4894
  5
489D
331
4702
  5
4702
331
4739
  5
4739
331
47C7
  5
47D1
331
47CF
  5
47D2
331
58DD
  5
58DD
331
564F
  5
564F
331
4956
  5
4966
331
4D63
  5
4D66
331
4F30
  5
4F40
331
594D
  5
594D
331
5657
  5
5657
331
495E
  5
4969
331
4995
  5
49A4
331
5955
  5
5955
331
4DE2
  5
4DE5
331
4F40
  5
4F42
331
57BE
  5
57BE
331
4966
  5
496D
331
4927
  5
492C
331
4641
  5
4641
331
4690
  5
4690
331
4EE9
  5
4EF9
331
492F
  5
4934
331
49A5
  5
4B4A
331
4D9B
  5
4D9E
331
4649
  5
4649
331
5096
  5
5098
331
516C
  5
516E
331
4FD7
  5
4FD9
331
461A
  5
461A
331
509E
  5
50A0
331
5174
  5
5265
331
4FDF
  5
4FE1
331
5348
  5
534A
331
4661
  5
4661
331
50A6
  5
50A8
331
4FE7
  5
4FE9
331
4741
  5
474F
331
46CB
  5
46CB
331
47A0
  5
47A4
331
471A
  5
471A
331
46D3
  5
46D3
331
4751
  5
475A
331
481E
  5
4826
331
46DB
  5
46DB
331
4826
  5
482E
331
4865
  5
4868
331
4EF9
  5
4EFB
331
48F0
  5
4904
331
496E
  5
4974
331
4D44
  5
4D4B
331
4E92
  5
4E95
331
4976
  5
497E
331
4BB5
  5
4BBD
331
4D4C
  5
473E
331
4DB3
  5
4DB6
331
5551
  5
5553
331
5638
  5
5638
331
5777
  5
5777
331
58B6
  5
58B6
331
4EB2
  5
4EC2
331
497E
  5
4984
331
4BBD
  5
4C9B
331
4DBB
  5
4DBE
331
4669
  5
4669
331
4908
  5
4914
331
5559
  5
555B
331
5640
  5
5640
331
577F
  5
577F
331
4EC2
  5
4EC4
331
5787
  5
5787
331
4F58
  5
4F5A
331
4FFF
  5
5001
331
50AE
  5
50B0
331
4632
  5
4632
331
4679
  5
4679
331
4F60
  5
4F9A
331
5007
  5
5009
331
50B6
  5
50B8
331
463A
  5
463A
331
50BE
  5
50C0
331
515D
  5
515F
331
5165
  5
5169
331
508F
  5
5091
331
50C6
  5
50C8
331
526A
  5
526C
331
4722
  5
4722
331
4761
  5
4765
331
47A8
  5
47B0
331
46AC
  5
46AC
331
472A
  5
472A
331
4769
  5
476F
331
482E
  5
483F
331
487D
  5
4893
331
4895
  5
489E
331
4789
  5
478D
331
4703
  5
4703
331
473A
  5
473A
331
4846
  5
484C
331
489D
  5
48A7
331
484E
  5
4859
331
5569
  5
5569
331
498E
  5
499F
331
4D64
  5
4D67
331
5650
  5
5650
331
4F31
  5
4F41
331
4996
  5
49A7
331
495F
  5
496A
331
5658
  5
5658
331
594E
  5
594E
331
4DE3
  5
4DE7
331
4F41
  5
4F43
331
4642
  5
4642
331
4928
  5
492D
331
57BF
  5
57BF
331
5956
  5
5956
331
4FD0
  5
4FD2
331
4691
  5
4691
331
49A6
  5
4B4B
331
4D9C
  5
4D9F
331
464A
  5
464A
331
5097
  5
5099
331
516D
  5
516F
331
4FD8
  5
4FDA
331
461B
  5
461B
331
509F
  5
50A1
331
4FE0
  5
4FE2
331
5349
  5
534B
331
4662
  5
4662
331
50A7
  5
50A9
331
4FE8
  5
4FEA
331
470B
  5
470B
331
4742
  5
4751
331
47D0
  5
47D3
331
4799
  5
479D
331
46CC
  5
46CC
331
47D8
  5
47E3
331
46D4
  5
46D4
331
4752
  5
475B
331
46DC
  5
46DC
331
475A
  5
475D
331
47E8
  5
47EC
331
4827
  5
4838
331
4866
  5
4870
331
4930
  5
4938
331
55F1
  5
55F1
331
4EFA
  5
4F0A
331
496F
  5
4975
331
4D45
  5
4D4C
331
4938
  5
493D
331
48F1
  5
4905
331
5631
  5
5631
331
5770
  5
5770
331
58A7
  5
58A7
331
4E93
  5
4E96
331
4F0A
  5
4F0C
331
4940
  5
4945
331
4977
  5
497F
331
4BB6
  5
4BBE
331
4D4D
  5
473D
331
4DB4
  5
4DB7
331
4901
  5
4907
331
5552
  5
5554
331
5778
  5
5778
331
4EB3
  5
4EC3
331
4948
  5
495D
331
497F
  5
4985
331
4BBE
  5
4C9C
331
4DBC
  5
4DBF
331
4623
  5
4623
331
555A
  5
49A6
331
5641
  5
5641
331
4EC3
  5
4EC5
331
462B
  5
462B
331
4F59
  5
4F5B
331
5000
  5
5002
331
50AF
  5
50B1
331
467A
  5
467A
331
4F61
  5
4F9B
331
5008
  5
500A
331
50B7
  5
50B9
331
4682
  5
4682
331
463B
  5
463B
331
50BF
  5
50C1
331
515E
  5
5160
331
5166
  5
516C
331
50C7
  5
50C9
331
526B
  5
526D
331
4723
  5
4723
331
4762
  5
4766
331
47A9
  5
47B3
331
46F4
  5
46F4
331
472B
  5
472B
331
476A
  5
4774
331
487E
  5
4894
331
46FC
  5
46FC
331
483F
  5
484A
331
4808
  5
4812
331
489E
  5
48CE
331
48A6
  5
48CF
331
484F
  5
485A
331
556A
  5
556A
331
4DD4
  5
4DD7
331
4D65
  5
4D68
331
5651
  5
5651
331
4960
  5
496B
331
5659
  5
5659
331
594F
  5
594F
331
4DE4
  5
4E8E
331
4F42
  5
4F52
331
499F
  5
49A8
331
4643
  5
4643
331
4929
  5
492F
331
5957
  5
5957
331
5090
  5
5092
331
4FD1
  5
4FD3
331
4692
  5
4692
331
49A7
  5
4B4C
331
4D9D
  5
4DA0
331
464B
  5
464B
331
5098
  5
509A
331
516E
  5
5170
331
4FD9
  5
4FDB
331
461C
  5
461C
331
50A0
  5
50A2
331
4FE1
  5
4FE3
331
50EF
  5
50F1
331
534A
  5
554C
331
4663
  5
4663
331
4FE9
  5
4FEB
331
47D1
  5
47D8
331
46CD
  5
46CD
331
47D9
  5
47E4
331
48CE
  5
48D2
331
47A2
  5
47A5
331
46D5
  5
46D5
331
4753
  5
475C
331
47E1
  5
47E5
331
46DD
  5
46DD
331
475B
  5
475F
331
47E9
  5
47F5
331
4867
  5
4872
331
4931
  5
4939
331
4968
  5
496E
331
48EA
  5
48F1
331
55F2
  5
55F2
331
5751
  5
5751
331
4939
  5
4940
331
4970
  5
4976
331
4D46
  5
4D4D
331
5771
  5
5771
331
4EFB
  5
4F0B
331
4941
  5
4949
331
4978
  5
4980
331
4BB7
  5
4BCB
331
4DB5
  5
4DB8
331
5553
  5
5555
331
563A
  5
563A
331
5779
  5
5779
331
4E94
  5
4E97
331
4F0B
  5
4F0D
331
4980
  5
498D
331
4DBD
  5
4DC0
331
4624
  5
4624
331
466B
  5
466B
331
4949
  5
495E
331
555B
  5
4995
331
5642
  5
5642
331
58D0
  5
58D0
331
462C
  5
462C
331
4673
  5
4673
331
4EC4
  5
4ED4
331
4F52
  5
4F54
331
50A8
  5
50AA
331
467B
  5
467B
331
4F5A
  5
4F5C
331
5001
  5
5003
331
50B0
  5
50B2
331
4683
  5
4683
331
463C
  5
463C
331
5009
  5
500B
331
50B8
  5
50BA
331
50C0
  5
50C2
331
515F
  5
5161
331
5264
  5
5266
331
526C
  5
5348
331
4724
  5
4724
331
47AA
  5
47B4
331
472C
  5
472C
331
476B
  5
4789
331
4838
  5
4840
331
4840
  5
484B
331
478B
  5
478E
331
4809
  5
4813
331
4705
  5
4705
331
473C
  5
473F
331
48A7
  5
48D1
331
4951
  5
495F
331
4912
  5
4923
331
556B
  5
556B
331
4D66
  5
4D69
331
557B
  5
557B
331
5652
  5
5652
331
4DD5
  5
4DE0
331
4ED4
  5
4ED6
331
4BE7
  5
4C9E
331
4961
  5
496C
331
565A
  5
565A
331
5950
  5
5950
331
468B
  5
468B
331
4644
  5
4644
331
492A
  5
4930
331
5958
  5
5958
331
4DE5
  5
4E8F
331
4F43
  5
4F53
331
5091
  5
5093
331
4693
  5
4693
331
4D9E
  5
4DA1
331
464C
  5
464C
331
4FD2
  5
4FD4
331
50C8
  5
50CA
331
5099
  5
509B
331
516F
  5
5171
331
461D
  5
461D
331
4FDA
  5
4FDC
331
50A1
  5
50A3
331
4FE2
  5
4FE4
331
50F0
  5
50F2
331
534B
  5
554D
331
4FEA
  5
4FEC
331
470D
  5
470D
331
4744
  5
4752
331
47D2
  5
47D9
331
4811
  5
481E
331
4850
  5
485B
331
46CE
  5
46CE
331
48CF
  5
48E3
331
47A3
  5
47A8
331
46DE
  5
46DE
331
475C
  5
4760
  0
DIMASSOC
  5
7191
102
{ACAD_REACTORS
330
7190
102
}
330
7190
100
AcDbDimAssoc
330
7181
 90
        3
 70
     0
 71
     0
  1
AcDbOsnapPointRef
 72
     1
331
7119
 73
     0
 91
        0
 40
0.0
 10
0.0
 20
0.0
 30
2.000000000000000E+50
 75
     0
  1
AcDbOsnapPointRef
 72
    13
331
7111
 73
     0
 91
        0
 40
0.0
 10
0.0
 20
0.0
 30
2.000000000000000E+50
 75
     0
  0
DIMASSOC
  5
71DE
102
{ACAD_REACTORS
330
71DD
102
}
330
71DD
100
AcDbDimAssoc
330
71D0
 90
        3
 70
     0
 71
     0
  1
AcDbOsnapPointRef
 72
     5
331
712C
 73
     0
 91
        0
 40
7.853981633974482
 10
0.0
 20
0.0
 30
0.0
 75
     0
  1
AcDbOsnapPointRef
 72
     5
331
712C
 73
     0
 91
        0
 40
4.712388980384689
 10
0.0
 20
0.0
 30
0.0
 75
     0
  0
DIMASSOC
  5
7230
102
{ACAD_REACTORS
330
722F
102
}
330
722F
100
AcDbDimAssoc
330
7222
 90
        3
 70
     0
 71
     0
  1
AcDbOsnapPointRef
 72
    13
331
7107
 73
     0
 91
        0
 40
0.0
 10
0.0
 20
0.0
 30
2.000000000000000E+50
 75
     0
  1
AcDbOsnapPointRef
 72
    13
331
7104
 73
     0
 91
        0
 40
0.0
 10
0.0
 20
0.0
 30
2.000000000000000E+50
 75
     0
  0
LAYOUT
  5
22
102
{ACAD_XDICTIONARY
360
7423
102
}
102
{ACAD_REACTORS
330
1A
102
}
330
1A
100
AcDbPlotSettings
  1

  2
\\RD\EPSON Stylus C63 Series單色
  4
A4
  6

 40
3.757083177566528
 41
3.757076978683471
 42
3.757080078125
 43
3.757080078125
 44
209.9733276367187
 45
296.9683227539062
 46
0.0
 47
0.0
 48
0.0
 49
0.0
140
0.0
141
0.0
142
1.0
143
0.3405120737814363
 70
 11952
 72
     1
 73
     0
 74
     0
  7
單色出圖.ctb
 75
     0
147
2.936753428137963
148
-2047.07469463503
149
-1261.649717473083
100
AcDbLayout
  1
Model
 70
     1
 71
     0
 10
0.0
 20
0.0
 11
12.0
 21
9.0
 12
0.0
 22
0.0
 32
0.0
 14
0.0
 24
0.0
 34
0.0
 15
0.0
 25
0.0
 35
0.0
146
0.0
 13
0.0
 23
0.0
 33
0.0
 16
1.0
 26
0.0
 36
0.0
 17
0.0
 27
1.0
 37
0.0
 76
     0
330
1F
1001
ACAD_PSEXT
1000
\\RD\EPSON Stylus C63 Series單色
1000
EPSON Stylus C63 Series
1000
\\RD
1000

1070
     0
  0
LAYOUT
  5
1E
102
{ACAD_XDICTIONARY
360
7421
102
}
102
{ACAD_REACTORS
330
1A
102
}
330
1A
100
AcDbPlotSettings
  1

  2

  4

  6

 40
0.0
 41
0.0
 42
0.0
 43
0.0
 44
0.0
 45
0.0
 46
0.0
 47
0.0
 48
0.0
 49
0.0
140
0.0
141
0.0
142
1.0
143
1.0
 70
   688
 72
     0
 73
     0
 74
     5
  7
單色出圖.ctb
 75
    16
147
1.0
148
0.0
149
0.0
100
AcDbLayout
  1
配置1
 70
     1
 71
     1
 10
0.0
 20
0.0
 11
420.0
 21
297.0
 12
0.0
 22
0.0
 32
0.0
 14
1.000000000000000E+20
 24
1.000000000000000E+20
 34
1.000000000000000E+20
 15
-1.000000000000000E+20
 25
-1.000000000000000E+20
 35
-1.000000000000000E+20
146
0.0
 13
0.0
 23
0.0
 33
0.0
 16
1.0
 26
0.0
 36
0.0
 17
0.0
 27
1.0
 37
0.0
 76
     0
330
1B
  0
LAYOUT
  5
26
102
{ACAD_XDICTIONARY
360
7425
102
}
102
{ACAD_REACTORS
330
1A
102
}
330
1A
100
AcDbPlotSettings
  1

  2

  4

  6

 40
0.0
 41
0.0
 42
0.0
 43
0.0
 44
0.0
 45
0.0
 46
0.0
 47
0.0
 48
0.0
 49
0.0
140
0.0
141
0.0
142
1.0
143
1.0
 70
   688
 72
     0
 73
     0
 74
     5
  7
單色出圖.ctb
 75
    16
147
1.0
148
0.0
149
0.0
100
AcDbLayout
  1
配置2
 70
     1
 71
     2
 10
0.0
 20
0.0
 11
12.0
 21
9.0
 12
0.0
 22
0.0
 32
0.0
 14
0.0
 24
0.0
 34
0.0
 15
0.0
 25
0.0
 35
0.0
146
0.0
 13
0.0
 23
0.0
 33
0.0
 16
1.0
 26
0.0
 36
0.0
 17
0.0
 27
1.0
 37
0.0
 76
     0
330
23
  0
MLINESTYLE
  5
18
102
{ACAD_REACTORS
330
17
102
}
330
17
100
AcDbMlineStyle
  2
STANDARD
 70
     0
  3

 62
   256
 51
90.0
 52
90.0
 71
     2
 49
0.5
 62
   256
  6
BYLAYER
 49
-0.5
 62
   256
  6
BYLAYER
  0
ACDBPLACEHOLDER
  5
F
102
{ACAD_REACTORS
330
E
102
}
330
E
  0
TABLESTYLE
  5
11B
102
{ACAD_REACTORS
330
11A
102
}
330
11A
100
AcDbTableStyle
  3
Standard
 70
     0
 71
     0
 40
1.5
 41
1.5
280
     0
281
     0
  7
STANDARD
140
4.5
170
     2
 62
     0
 63
     7
283
     0
274
    -2
284
     1
 64
     0
275
    -2
285
     1
 65
     0
276
    -2
286
     1
 66
     0
277
    -2
287
     1
 67
     0
278
    -2
288
     1
 68
     0
279
    -2
289
     1
 69
     0
  7
STANDARD
140
6.0
170
     5
 62
     0
 63
     7
283
     0
274
    -2
284
     1
 64
     0
275
    -2
285
     1
 65
     0
276
    -2
286
     1
 66
     0
277
    -2
287
     1
 67
     0
278
    -2
288
     1
 68
     0
279
    -2
289
     1
 69
     0
  7
STANDARD
140
4.5
170
     5
 62
     0
 63
     7
283
     0
274
    -2
284
     1
 64
     0
275
    -2
285
     1
 65
     0
276
    -2
286
     1
 66
     0
277
    -2
287
     1
 67
     0
278
    -2
288
     1
 68
     0
279
    -2
289
     1
 69
     0
  0
DICTIONARYVAR
  5
138
102
{ACAD_REACTORS
330
94
102
}
330
94
100
DictionaryVariables
280
     0
  1
STANDARD
  0
DICTIONARYVAR
  5
96
102
{ACAD_REACTORS
330
94
102
}
330
94
100
DictionaryVariables
280
     0
  1
2
  0
DICTIONARYVAR
  5
95
102
{ACAD_REACTORS
330
94
102
}
330
94
100
DictionaryVariables
280
     0
  1
0
  0
DICTIONARYVAR
  5
732E
102
{ACAD_REACTORS
330
94
102
}
330
94
100
DictionaryVariables
280
     0
  1

  0
DICTIONARY
  5
1B5
102
{ACAD_REACTORS
330
5B
102
}
330
5B
100
AcDbDictionary
281
     1
  0
DICTIONARY
  5
61
102
{ACAD_REACTORS
330
5B
102
}
330
5B
100
AcDbDictionary
281
     1
  0
XRECORD
  5
123
102
{ACAD_REACTORS
330
5B
102
}
330
5B
100
AcDbXrecord
280
     1
 90
-1023410169
  0
DICTIONARY
  5
7423
330
22
100
AcDbDictionary
280
     1
281
     1
  3
ACAD_XREC_ROUNDTRIP
360
7424
  0
DICTIONARY
  5
7421
330
1E
100
AcDbDictionary
280
     1
281
     1
  3
ACAD_XREC_ROUNDTRIP
360
7422
  0
DICTIONARY
  5
7425
330
26
100
AcDbDictionary
280
     1
281
     1
  3
ACAD_XREC_ROUNDTRIP
360
7426
  0
XRECORD
  5
7424
102
{ACAD_REACTORS
330
7423
102
}
330
7423
100
AcDbXrecord
280
     1
102
SHADEPLOT
 70
     0
102
SHADEPLOTRESLEVEL
 70
     2
102
SHADEPLOTCUSTOMDPI
 70
   300
  0
XRECORD
  5
7422
102
{ACAD_REACTORS
330
7421
102
}
330
7421
100
AcDbXrecord
280
     1
102
SHADEPLOT
 70
     0
102
SHADEPLOTRESLEVEL
 70
     2
102
SHADEPLOTCUSTOMDPI
 70
   300
  0
XRECORD
  5
7426
102
{ACAD_REACTORS
330
7425
102
}
330
7425
100
AcDbXrecord
280
     1
102
SHADEPLOT
 70
     0
102
SHADEPLOTRESLEVEL
 70
     2
102
SHADEPLOTCUSTOMDPI
 70
   300
  0
ENDSEC
  0
EOF
