  0
SECTION
  2
HEADER
  9
$ACADVER
  1
AC1015
  9
$ACADMAINTVER
 70
    20
  9
$DWGCODEPAGE
  3
ANSI_950
  9
$INSBASE
 10
0.0
 20
0.0
 30
0.0
  9
$EXTMIN
 10
293.4303886823485
 20
1133.137776259556
 30
-0.000000000000016
  9
$EXTMAX
 10
690.4043230654764
 20
1393.485065550521
 30
196.5865886400747
  9
$LIMMIN
 10
0.0
 20
0.0
  9
$LIMMAX
 10
420.0
 20
297.0
  9
$ORTHOMODE
 70
     0
  9
$REGENMODE
 70
     1
  9
$FILLMODE
 70
     1
  9
$QTEXTMODE
 70
     0
  9
$MIRRTEXT
 70
     1
  9
$LTSCALE
 40
1.0
  9
$ATTMODE
 70
     1
  9
$TEXTSIZE
 40
3.0
  9
$TRACEWID
 40
1.0
  9
$TEXTSTYLE
  7
STANDARD
  9
$CLAYER
  8
0
  9
$CELTYPE
  6
ByLayer
  9
$CECOLOR
 62
   256
  9
$CELTSCALE
 40
1.0
  9
$DISPSILH
 70
     0
  9
$DIMSCALE
 40
1.0
  9
$DIMASZ
 40
3.0
  9
$DIMEXO
 40
1.0
  9
$DIMDLI
 40
8.0
  9
$DIMRND
 40
0.0
  9
$DIMDLE
 40
0.0
  9
$DIMEXE
 40
1.5
  9
$DIMTP
 40
0.1
  9
$DIMTM
 40
0.1
  9
$DIMTXT
 40
3.5
  9
$DIMCEN
 40
0.0
  9
$DIMTSZ
 40
0.0
  9
$DIMTOL
 70
     0
  9
$DIMLIM
 70
     0
  9
$DIMTIH
 70
     0
  9
$DIMTOH
 70
     0
  9
$DIMSE1
 70
     0
  9
$DIMSE2
 70
     0
  9
$DIMTAD
 70
     1
  9
$DIMZIN
 70
     8
  9
$DIMBLK
  1

  9
$DIMASO
 70
     1
  9
$DIMSHO
 70
     1
  9
$DIMPOST
  1

  9
$DIMAPOST
  1
"
  9
$DIMALT
 70
     0
  9
$DIMALTD
 70
     2
  9
$DIMALTF
 40
0.0393701
  9
$DIMLFAC
 40
1.0
  9
$DIMTOFL
 70
     1
  9
$DIMTVP
 40
0.0
  9
$DIMTIX
 70
     0
  9
$DIMSOXD
 70
     0
  9
$DIMSAH
 70
     0
  9
$DIMBLK1
  1

  9
$DIMBLK2
  1

  9
$DIMSTYLE
  2
AM_ISO
  9
$DIMCLRD
 70
   256
  9
$DIMCLRE
 70
   256
  9
$DIMCLRT
 70
   256
  9
$DIMTFAC
 40
0.6
  9
$DIMGAP
 40
0.7
  9
$DIMJUST
 70
     0
  9
$DIMSD1
 70
     0
  9
$DIMSD2
 70
     0
  9
$DIMTOLJ
 70
     0
  9
$DIMTZIN
 70
     8
  9
$DIMALTZ
 70
     0
  9
$DIMALTTZ
 70
     0
  9
$DIMUPT
 70
     0
  9
$DIMDEC
 70
     1
  9
$DIMTDEC
 70
     8
  9
$DIMALTU
 70
     2
  9
$DIMALTTD
 70
     2
  9
$DIMTXSTY
  7
STANDARD
  9
$DIMAUNIT
 70
     0
  9
$DIMADEC
 70
     0
  9
$DIMALTRND
 40
0.0
  9
$DIMAZIN
 70
     2
  9
$DIMDSEP
 70
    46
  9
$DIMATFIT
 70
     3
  9
$DIMFRAC
 70
     0
  9
$DIMLDRBLK
  1

  9
$DIMLUNIT
 70
     2
  9
$DIMLWD
 70
    -1
  9
$DIMLWE
 70
    -1
  9
$DIMTMOVE
 70
     0
  9
$LUNITS
 70
     2
  9
$LUPREC
 70
     2
  9
$SKETCHINC
 40
1.0
  9
$FILLETRAD
 40
2.5
  9
$AUNITS
 70
     0
  9
$AUPREC
 70
     0
  9
$MENU
  1
.
  9
$ELEVATION
 40
0.0
  9
$PELEVATION
 40
0.0
  9
$THICKNESS
 40
0.0
  9
$LIMCHECK
 70
     0
  9
$CHAMFERA
 40
0.5
  9
$CHAMFERB
 40
0.5
  9
$CHAMFERC
 40
20.0
  9
$CHAMFERD
 40
0.0
  9
$SKPOLY
 70
     0
  9
$TDCREATE
 40
2453916.626557615
  9
$TDUCREATE
 40
2453916.293224283
  9
$TDUPDATE
 40
2456496.646764861
  9
$TDUUPDATE
 40
2456496.313431528
  9
$TDINDWG
 40
1.5649265394
  9
$TDUSRTIMER
 40
1.5649263542
  9
$USRTIMER
 70
     1
  9
$ANGBASE
 50
0.0
  9
$ANGDIR
 70
     0
  9
$PDMODE
 70
     0
  9
$PDSIZE
 40
0.0
  9
$PLINEWID
 40
0.0
  9
$SPLFRAME
 70
     0
  9
$SPLINETYPE
 70
     6
  9
$SPLINESEGS
 70
     8
  9
$HANDSEED
  5
B008
  9
$SURFTAB1
 70
     6
  9
$SURFTAB2
 70
     6
  9
$SURFTYPE
 70
     6
  9
$SURFU
 70
     6
  9
$SURFV
 70
     6
  9
$UCSBASE
  2

  9
$UCSNAME
  2

  9
$UCSORG
 10
0.0
 20
0.0
 30
0.0
  9
$UCSXDIR
 10
1.0
 20
0.0
 30
0.0
  9
$UCSYDIR
 10
0.0
 20
1.0
 30
0.0
  9
$UCSORTHOREF
  2

  9
$UCSORTHOVIEW
 70
     0
  9
$UCSORGTOP
 10
0.0
 20
0.0
 30
0.0
  9
$UCSORGBOTTOM
 10
0.0
 20
0.0
 30
0.0
  9
$UCSORGLEFT
 10
0.0
 20
0.0
 30
0.0
  9
$UCSORGRIGHT
 10
0.0
 20
0.0
 30
0.0
  9
$UCSORGFRONT
 10
0.0
 20
0.0
 30
0.0
  9
$UCSORGBACK
 10
0.0
 20
0.0
 30
0.0
  9
$PUCSBASE
  2

  9
$PUCSNAME
  2

  9
$PUCSORG
 10
0.0
 20
0.0
 30
0.0
  9
$PUCSXDIR
 10
1.0
 20
0.0
 30
0.0
  9
$PUCSYDIR
 10
0.0
 20
1.0
 30
0.0
  9
$PUCSORTHOREF
  2

  9
$PUCSORTHOVIEW
 70
     0
  9
$PUCSORGTOP
 10
0.0
 20
0.0
 30
0.0
  9
$PUCSORGBOTTOM
 10
0.0
 20
0.0
 30
0.0
  9
$PUCSORGLEFT
 10
0.0
 20
0.0
 30
0.0
  9
$PUCSORGRIGHT
 10
0.0
 20
0.0
 30
0.0
  9
$PUCSORGFRONT
 10
0.0
 20
0.0
 30
0.0
  9
$PUCSORGBACK
 10
0.0
 20
0.0
 30
0.0
  9
$USERI1
 70
     0
  9
$USERI2
 70
     0
  9
$USERI3
 70
     0
  9
$USERI4
 70
     0
  9
$USERI5
 70
     0
  9
$USERR1
 40
0.0
  9
$USERR2
 40
0.0
  9
$USERR3
 40
0.0
  9
$USERR4
 40
0.0
  9
$USERR5
 40
0.0
  9
$WORLDVIEW
 70
     1
  9
$SHADEDGE
 70
     3
  9
$SHADEDIF
 70
    70
  9
$TILEMODE
 70
     1
  9
$MAXACTVP
 70
    64
  9
$PINSBASE
 10
0.0
 20
0.0
 30
0.0
  9
$PLIMCHECK
 70
     0
  9
$PEXTMIN
 10
1.000000000000000E+20
 20
1.000000000000000E+20
 30
1.000000000000000E+20
  9
$PEXTMAX
 10
-1.000000000000000E+20
 20
-1.000000000000000E+20
 30
-1.000000000000000E+20
  9
$PLIMMIN
 10
0.0
 20
0.0
  9
$PLIMMAX
 10
420.0
 20
297.0
  9
$UNITMODE
 70
     0
  9
$VISRETAIN
 70
     1
  9
$PLINEGEN
 70
     0
  9
$PSLTSCALE
 70
     1
  9
$TREEDEPTH
 70
  3020
  9
$CMLSTYLE
  2
Standard
  9
$CMLJUST
 70
     0
  9
$CMLSCALE
 40
20.0
  9
$PROXYGRAPHICS
 70
     1
  9
$MEASUREMENT
 70
     1
  9
$CELWEIGHT
370
    -1
  9
$ENDCAPS
280
     0
  9
$JOINSTYLE
280
     0
  9
$LWDISPLAY
290
     0
  9
$INSUNITS
 70
     4
  9
$HYPERLINKBASE
  1

  9
$STYLESHEET
  1
彩色出圖.ctb
  9
$XEDIT
290
     1
  9
$CEPSNTYPE
380
     0
  9
$PSTYLEMODE
290
     1
  9
$FINGERPRINTGUID
  2
{13FD0162-0574-45C5-AF42-8725A3412D43}
  9
$VERSIONGUID
  2
{6C4A6986-F770-42E4-83CF-E96040F1D50F}
  9
$EXTNAMES
290
     1
  9
$PSVPSCALE
 40
0.0
  9
$OLESTARTUP
290
     0
  0
ENDSEC
  0
SECTION
  2
CLASSES
  0
CLASS
  1
ACDBDICTIONARYWDFLT
  2
AcDbDictionaryWithDefault
  3
ObjectDBX Classes
 90
        0
280
     0
281
     0
  0
CLASS
  1
ACDBPLACEHOLDER
  2
AcDbPlaceHolder
  3
ObjectDBX Classes
 90
        0
280
     0
281
     0
  0
CLASS
  1
LAYOUT
  2
AcDbLayout
  3
ObjectDBX Classes
 90
        0
280
     0
281
     0
  0
CLASS
  1
ACME_DOCUMENT
  2
AcMeDbDoc
  3
AcMeServices
 90
        0
280
     0
281
     0
  0
CLASS
  1
AMGSETTINGSOBJ
  2
AmgSettingsObj
  3
"AcadM|Product Description: AutoCAD Mechanical 2000|Company: Autodesk"
 90
        0
280
     0
281
     0
  0
CLASS
  1
ACMESCOPE
  2
AcMeScope
  3
AcMeServices
 90
        0
280
     0
281
     0
  0
CLASS
  1
ACMECOMMANDHISTORY
  2
AcMeCommandHistory
  3
AcMeServices
 90
        0
280
     0
281
     0
  0
CLASS
  1
ACIMSYSVARMAN
  2
AcImSysVarManager
  3
AcMeServices
 90
        0
280
     0
281
     0
  0
CLASS
  1
ACIMREALSYSVAR
  2
AcImRealSysVar
  3
AcMeServices
 90
        0
280
     0
281
     0
  0
CLASS
  1
ACIMINTSYSVAR
  2
AcImIntSysVar
  3
AcMeServices
 90
        0
280
     0
281
     0
  0
CLASS
  1
ACMEDRAWINGMAN
  2
AcMeDrawingMan
  3
AcMeServices
 90
        0
280
     0
281
     0
  0
CLASS
  1
ACMEVIEW
  2
AcMeView
  3
AcMeServices
 90
        0
280
     0
281
     0
  0
CLASS
  1
ACDBENTITYCACHE
  2
AcMeEntityCache
  3
AcMeServices
 90
        0
280
     0
281
     0
  0
CLASS
  1
GSMANAGER
  2
AcMeGSManager
  3
AcMeServices
 90
        0
280
     0
281
     0
  0
CLASS
  1
AMDTINTERNALREACTOR
  2
AmdtInternalReactor
  3
AcMeServices
 90
        0
280
     0
281
     0
  0
CLASS
  1
ACMESTATEMGR
  2
AcMeStateMgr
  3
AcMeServices
 90
        0
280
     0
281
     0
  0
CLASS
  1
ACGREFMASTER
  2
AcGrefMaster
  3
AcAttribServices
 90
        0
280
     0
281
     0
  0
CLASS
  1
ACME_DATABASE
  2
AcMeDbDatabase
  3
AcMeServices
 90
        0
280
     0
281
     0
  0
CLASS
  1
ACRFINSADJUSTERMGR
  2
AcRfInsAdjusterMgr
  3
AcMeServices
 90
        0
280
     0
281
     0
  0
CLASS
  1
ACGREFACADMASTER
  2
AcGrefacadMaster
  3
AcGrefServices
 90
        0
280
     0
281
     0
  0
CLASS
  1
AMIMASTER
  2
AmiMaster
  3
AmiServices
 90
        0
280
     0
281
     0
  0
CLASS
  1
ACMDATADICTIONARY
  2
AcmDataDictionary
  3
"AcmSymBB|Product Description: AutoCAD Mechanical 2004 DX|Company: Autodesk"
 90
        0
280
     0
281
     0
  0
CLASS
  1
ACMDATAENTRYBLOCK
  2
AcmDataEntryBlock
  3
"AcmSymBB|Product Description: AutoCAD Mechanical 2004 DX|Company: Autodesk"
 90
        0
280
     0
281
     0
  0
CLASS
  1
ACIMSTRSYSVAR
  2
AcImStrSysVar
  3
AcMeServices
 90
        0
280
     0
281
     0
  0
CLASS
  1
ACMSTANDARDISO
  2
AcmStandardISO
  3
"Amdt_StdImp|Product Description: AutoCAD Mechanical 2004 DX|Company: Autodesk"
 90
        0
280
     0
281
     0
  0
CLASS
  1
AMGOBJPROPCFG
  2
AmgObjPropCfg
  3
"AmgLay|Product Description: AutoCAD Mechanical 2000|Company: Autodesk"
 90
        1
280
     0
281
     0
  0
CLASS
  1
AMDTEDGESTANDARDISO
  2
AmdtEdgeStdISO
  3
"Amdt_StdImp|Product Description: AutoCAD Mechanical 2004 DX|Company: Autodesk"
 90
    32768
280
     0
281
     0
  0
CLASS
  1
ACMSURFSTANDARDISO
  2
AcmSurfTextStdISO
  3
"Amdt_StdImp|Product Description: AutoCAD Mechanical 2004 DX|Company: Autodesk"
 90
        0
280
     0
281
     0
  0
CLASS
  1
ACMFCFSTANDARDISO
  2
AcmFCFStdISO
  3
"Amdt_StdImp|Product Description: AutoCAD Mechanical 2004 DX|Company: Autodesk"
 90
        0
280
     0
281
     0
  0
CLASS
  1
ACMWELDSTANDARDISO
  2
AcmWeldingStdISO
  3
"Amdt_StdImp|Product Description: AutoCAD Mechanical 2004 DX|Company: Autodesk"
 90
        0
280
     0
281
     0
  0
CLASS
  1
ACMIDSTANDARDISO
  2
AcmIdStdISO
  3
"Amdt_StdImp|Product Description: AutoCAD Mechanical 2004 DX|Company: Autodesk"
 90
        0
280
     0
281
     0
  0
CLASS
  1
ACMDATUMSTANDARDISO
  2
AcmDatumStdISO
  3
"Amdt_StdImp|Product Description: AutoCAD Mechanical 2004 DX|Company: Autodesk"
 90
        0
280
     0
281
     0
  0
CLASS
  1
ACMBOMSTANDARDISO
  2
AcmBOMStdISO
  3
"Amdt_StdImp|Product Description: AutoCAD Mechanical 2004 DX|Company: Autodesk"
 90
        0
280
     0
281
     0
  0
CLASS
  1
ACMDETAILSTANDARDISO
  2
AmdtDetailSymStdISO
  3
"Amdt_StdImp|Product Description: AutoCAD Mechanical 2004 DX|Company: Autodesk"
 90
        0
280
     0
281
     0
  0
CLASS
  1
ACMSECTIONSTANDARDISO
  2
AmdtSectionSymStdISO
  3
"Amdt_StdImp|Product Description: AutoCAD Mechanical 2004 DX|Company: Autodesk"
 90
        0
280
     0
281
     0
  0
CLASS
  1
ACMCENTERLINESTANDARDISO
  2
AmdtCenterLineStdISO
  3
"Amdt_StdImp|Product Description: AutoCAD Mechanical 2004 DX|Company: Autodesk"
 90
        0
280
     0
281
     0
  0
CLASS
  1
ACMNOTESTANDARDISO
  2
AmdtNoteStdISO
  3
"Amdt_StdImp|Product Description: AutoCAD Mechanical 2004 DX|Company: Autodesk"
 90
        0
280
     0
281
     0
  0
CLASS
  1
ACAMGLAYSTD
  2
AcAmgLayStd
  3
"AcAmgLayStd|Product Description: AutoCAD Mechanical 2000|Company: Autodesk"
 90
        0
280
     0
281
     0
  0
CLASS
  1
ACAMGDIMSTD
  2
AcAmgDimStd
  3
"AcAmgDimStd|Product Description: AutoCAD Mechanical 2000|Company: Autodesk"
 90
        0
280
     0
281
     0
  0
CLASS
  1
ACAMGHOLECHARTSTDISO
  2
AcAmgHoleChartStdISO
  3
ACMSYMBB_MODULE_NAME
 90
        0
280
     0
281
     0
  0
CLASS
  1
ACAMGTITLESTD
  2
AcAmgTitleStd
  3
"TITLEAPP"
 90
        0
280
     0
281
     0
  0
CLASS
  1
LAYER_INDEX
  2
AcDbLayerIndex
  3
ObjectDBX Classes
 90
        0
280
     0
281
     0
  0
CLASS
  1
IDBUFFER
  2
AcDbIdBuffer
  3
ObjectDBX Classes
 90
        0
280
     0
281
     0
  0
CLASS
  1
DICTIONARYVAR
  2
AcDbDictionaryVar
  3
ObjectDBX Classes
 90
        0
280
     0
281
     0
  0
CLASS
  1
AM_DRAWING_MGR
  2
AcDmDwgMgr
  3
AcMechDwgViewMgmt
 90
        0
280
     0
281
     0
  0
CLASS
  1
AM_DWG_DOCUMENT
  2
AcDmDwgDocument
  3
AcMechDwgViewMgmt
 90
        0
280
     0
281
     0
  0
CLASS
  1
AM_DWG_SHEET
  2
AcDmSheet
  3
AcMechDwgViewMgmt
 90
        0
280
     0
281
     0
  0
CLASS
  1
AM_VIEWDIMPARMAP
  2
AcDmViewDimParMap
  3
AcMechDwgViewMgmt
 90
        0
280
     0
281
     0
  0
CLASS
  1
AM_DWGMGR_NAME
  2
AcDmDwgMgrName
  3
AcMechDwgViewMgmt
 90
        0
280
     0
281
     0
  0
CLASS
  1
AMDTMENUSTATEMGR
  2
AmdtMenuStateMgr
  3
McadcomServices
 90
        0
280
     0
281
     0
  0
CLASS
  1
AMDTMCOMMENUSTATE
  2
AmdtMcomMenuState
  3
McadcomServices
 90
        0
280
     0
281
     0
  0
CLASS
  1
MAPIAMMOUDLE
  2
MApiAmModule
  3
MApiAmServices
 90
        0
280
     0
281
     0
  0
CLASS
  1
AMDTADMENUSTATE
  2
AmdtAdMenuState
  3
DesignerServices
 90
        0
280
     0
281
     0
  0
CLASS
  1
ADAPPL
  2
AcAdAppl
  3
DesignerServices
 90
        0
280
     0
281
     0
  0
CLASS
  1
DEPMGR
  2
AcAdDepMgr
  3
DesignerServices
 90
        0
280
     0
281
     0
  0
CLASS
  1
PARAMMGR
  2
AcAdParamMgr
  3
DesignerServices
 90
        0
280
     0
281
     0
  0
CLASS
  1
PARAMSCOPE
  2
AcAdParamScope
  3
DesignerServices
 90
        0
280
     0
281
     0
  0
CLASS
  1
NAMEDAPPL
  2
AcAdNamedAppl
  3
DesignerServices
 90
        0
280
     0
281
     0
  0
CLASS
  1
AMDTDMMENUSTATE
  2
AmdtDmMenuState
  3
AcMechDwgViewMgmt
 90
        0
280
     0
281
     0
  0
CLASS
  1
AMDTAMMENUSTATE
  2
AmdtAmMenuState
  3
DesignerAssemblies
 90
        0
280
     0
281
     0
  0
CLASS
  1
ACAMPROJECT
  2
AcAmProject
  3
DesignerAssemblies
 90
        0
280
     0
281
     0
  0
CLASS
  1
ACAMGRCOMPDEF
  2
AcAmGrCompDef
  3
DesignerAssemblies
 90
        0
280
     0
281
     0
  0
CLASS
  1
ACCMCONTEXT
  2
AcCmContext
  3
DesignerAssemblies
 90
        0
280
     0
281
     0
  0
CLASS
  1
ACAMCOMPDEF
  2
AcAmCompDef
  3
DesignerAssemblies
 90
        0
280
     0
281
     0
  0
CLASS
  1
ACAMCOMPDEFMGR
  2
AcAmCompDefMgr
  3
DesignerAssemblies
 90
        0
280
     0
281
     0
  0
CLASS
  1
AMCONTEXTMGR
  2
AcAmContextMgr
  3
DesignerAssemblies
 90
        0
280
     0
281
     0
  0
CLASS
  1
ACAMCONTEXTMODELER
  2
AcAmContextModeler
  3
DesignerAssemblies
 90
        0
280
     0
281
     0
  0
CLASS
  1
ACMTHREADLINESTANDARDISO
  2
AmdtThreadLineStdISO
  3
"Amdt_StdImp|Product Description: AutoCAD Mechanical 2004 DX|Company: Autodesk"
 90
        0
280
     0
281
     0
  0
CLASS
  1
CATALOGSTATE
  2
AcAmCatalogState
  3
DesignerAssemblies
 90
        0
280
     0
281
     0
  0
CLASS
  1
ACAMGRCOMPDEFSET
  2
AcAmGrCompDefSet
  3
DesignerAssemblies
 90
        0
280
     0
281
     0
  0
CLASS
  1
AMDTBROWSERDBTAB
  2
AmdtBrowserDbTab
  3
McadcomServices
 90
        0
280
     0
281
     0
  0
CLASS
  1
CBROWSERAPPOBJECT
  2
CBrowserAppObject
  3
McadcomServices
 90
        0
280
     0
281
     0
  0
CLASS
  1
DM_PLACEHOLDER
  2
AcDmSelsetPlaceholder
  3
AcMechDwgViewMgmt
 90
        0
280
     0
281
     0
  0
CLASS
  1
TABLESTYLE
  2
AcDbTableStyle
  3
ObjectDBX Classes
 90
     2047
280
     0
281
     0
  0
CLASS
  1
VAACXREFPANELOBJECT
  2
VaAcXREFPanelObject
  3
VAAC_ADDIN
 90
    32768
280
     0
281
     0
  0
CLASS
  1
VAACIMAGEINVENTORY
  2
VaAcImageInventory
  3
VAAC_ADDIN
 90
    32768
280
     0
281
     0
  0
CLASS
  1
AMDTNOTETEMPLATEDB
  2
AmdtNoteTemplateDB
  3
AMDT_STDIMP_MODULE_NAME
 90
        0
280
     0
281
     0
  0
CLASS
  1
ACMBOM
  2
AcmBom
  3
"AcmSymBB|Product Description: AutoCAD Mechanical 2004 DX|Company: Autodesk"
 90
    32768
280
     0
281
     0
  0
CLASS
  1
AMDTFORMULAUPDATEDISPATCHER
  2
AmdtFormulaUpdateDispatcher
  3
AcMeServices
 90
    32768
280
     0
281
     0
  0
CLASS
  1
ACMPARTLIST
  2
AcmPartList
  3
"AcmSymBB|Product Description: AutoCAD Mechanical 2004 DX|Company: Autodesk"
 90
    33791
280
     0
281
     1
  0
CLASS
  1
ACAMGFILTERDAT
  2
AcAmgFilterDat
  3
"AcadM|Product Description: AutoCAD Mechanical 2000|Company: Autodesk"
 90
    32768
280
     0
281
     0
  0
CLASS
  1
DIMASSOC
  2
AcDbDimAssoc
  3
"AcDbDimAssoc|Product Desc:     AcDim ARX App For Dimension|Company:          Autodesk, Inc.|WEB Address:      www.autodesk.com"
 90
        0
280
     0
281
     0
  0
CLASS
  1
STDPART2D
  2
AmgStdPart
  3
"AmgStdPart|Product Description: AutoCAD Mechanical 2000|Company: Autodesk"
 90
    33791
280
     0
281
     1
  0
CLASS
  1
ACAMSTDPCOMPDEF
  2
AcAmStdpCompDef
  3
DesignerAssemblies
 90
    32768
280
     0
281
     0
  0
CLASS
  1
ACRFATTGENMGR
  2
AcRfAttGeneralMgr
  3
AcAttribServices
 90
    32768
280
     0
281
     0
  0
CLASS
  1
ACRFOBJATTMGR
  2
AcRfObjAttGroupMgr
  3
AcAttribServices
 90
    32768
280
     0
281
     0
  0
CLASS
  1
ACRFMCADAPIATTHOLDER
  2
AcRfMCADAPIAttHolder
  3
AcAttribServices
 90
    32768
280
     0
281
     0
  0
CLASS
  1
AMDTSYSATTR
  2
AmdtSystemAttribute
  3
AcAttribServices
 90
    32768
280
     0
281
     0
  0
CLASS
  1
ACAMCOMP
  2
AcAmComp
  3
DesignerAssemblies
 90
    32768
280
     0
281
     0
  0
CLASS
  1
AC_AM_STDP_VIEW_DEF
  2
AcAmStdpViewDef
  3
DesignerAssemblies
 90
    32768
280
     0
281
     0
  0
CLASS
  1
AC_AM_MVD_DEP_MGR
  2
AcAmMVDdepMgr
  3
DesignerAssemblies
 90
    32768
280
     0
281
     0
  0
CLASS
  1
AC_AM_MASTER_VIEW_DEF
  2
AcAmMasterViewDef
  3
DesignerAssemblies
 90
    32768
280
     0
281
     0
  0
CLASS
  1
AC_AM_DIRTY_NODES
  2
AcAmDirtyNodes
  3
DesignerAssemblies
 90
    32768
280
     0
281
     0
  0
CLASS
  1
AC_AM_MAPPER_CACHE
  2
AcAmMapperCache
  3
DesignerAssemblies
 90
    32768
280
     0
281
     0
  0
CLASS
  1
ACAMMVDBACKUPOBJECT
  2
AcAmMVDBackupObject
  3
DesignerAssemblies
 90
    32768
280
     0
281
     0
  0
CLASS
  1
AC_AM_COMP_VIEW_INST
  2
AcAmCompView
  3
DesignerAssemblies
 90
    32768
280
     0
281
     0
  0
CLASS
  1
AC_AM_2D_XREF_MGR
  2
AcAmXrefMgr2d
  3
DesignerAssemblies
 90
    32768
280
     0
281
     0
  0
CLASS
  1
SORTENTSTABLE
  2
AcDbSortentsTable
  3
ObjectDBX Classes
 90
        0
280
     0
281
     0
  0
CLASS
  1
ACDBCIRCARCRES
  2
AcDbCircArcRes
  3
AcGrefServices
 90
    32768
280
     0
281
     0
  0
CLASS
  1
AMDTNOTE
  2
AmdtNote
  3
"AcmSymBB|Product Description: AutoCAD Mechanical 2004 DX|Company: Autodesk"
 90
    33791
280
     0
281
     1
  0
CLASS
  1
ACDBLINERES
  2
AcDbLineRes
  3
AcGrefServices
 90
    32768
280
     0
281
     0
  0
CLASS
  1
ACMSTANDARDANSI
  2
AcmStandardANSI
  3
"Amdt_StdImp|Product Description: AutoCAD Mechanical 2004 DX|Company: Autodesk"
 90
    32768
280
     0
281
     0
  0
CLASS
  1
ACMSURFSTANDARDANSI
  2
AcmSurfTextStdANSI
  3
"Amdt_StdImp|Product Description: AutoCAD Mechanical 2004 DX|Company: Autodesk"
 90
    32768
280
     0
281
     0
  0
CLASS
  1
ACMFCFSTANDARDANSI
  2
AcmFCFStdANSI
  3
"Amdt_StdImp|Product Description: AutoCAD Mechanical 2004 DX|Company: Autodesk"
 90
    32768
280
     0
281
     0
  0
CLASS
  1
ACMWELDSTANDARDANSI
  2
AcmWeldingStdANSI
  3
"Amdt_StdImp|Product Description: AutoCAD Mechanical 2004 DX|Company: Autodesk"
 90
    32768
280
     0
281
     0
  0
CLASS
  1
ACMIDSTANDARDANSI
  2
AcmIdStdANSI
  3
"Amdt_StdImp|Product Description: AutoCAD Mechanical 2004 DX|Company: Autodesk"
 90
    32768
280
     0
281
     0
  0
CLASS
  1
ACMDATUMSTANDARDANSI
  2
AcmDatumStdANSI
  3
"Amdt_StdImp|Product Description: AutoCAD Mechanical 2004 DX|Company: Autodesk"
 90
    32768
280
     0
281
     0
  0
CLASS
  1
ACMBOMSTANDARDANSI
  2
AcmBOMStdANSI
  3
"Amdt_StdImp|Product Description: AutoCAD Mechanical 2004 DX|Company: Autodesk"
 90
    32768
280
     0
281
     0
  0
CLASS
  1
ACMDETAILSTANDARDANSI
  2
AmdtDetailSymStdANSI
  3
"Amdt_StdImp|Product Description: AutoCAD Mechanical 2004 DX|Company: Autodesk"
 90
    32768
280
     0
281
     0
  0
CLASS
  1
ACMSECTIONSTANDARDANSI
  2
AmdtSectionSymStdANSI
  3
"Amdt_StdImp|Product Description: AutoCAD Mechanical 2004 DX|Company: Autodesk"
 90
    32768
280
     0
281
     0
  0
CLASS
  1
ACMCENTERLINESTANDARDANSI
  2
AmdtCenterLineStdANSI
  3
"Amdt_StdImp|Product Description: AutoCAD Mechanical 2004 DX|Company: Autodesk"
 90
    32768
280
     0
281
     0
  0
CLASS
  1
ACMTHREADLINESTANDARDANSI
  2
AmdtThreadLineStdANSI
  3
"Amdt_StdImp|Product Description: AutoCAD Mechanical 2004 DX|Company: Autodesk"
 90
    32768
280
     0
281
     0
  0
CLASS
  1
ACMNOTESTANDARDANSI
  2
AmdtNoteStdANSI
  3
"Amdt_StdImp|Product Description: AutoCAD Mechanical 2004 DX|Company: Autodesk"
 90
    32768
280
     0
281
     0
  0
CLASS
  1
ACAMGHOLECHARTSTDANSI
  2
AcAmgHoleChartStdANSI
  3
ACMSYMBB_MODULE_NAME
 90
    32768
280
     0
281
     0
  0
CLASS
  1
AC_AM_HIDE_SITUATION
  2
AcAmHideSituation
  3
DesignerAssemblies
 90
    32768
280
     0
281
     0
  0
CLASS
  1
AMDTEDGESTANDARDISO13715
  2
AmdtEdgeStdISO13715
  3
"Amdt_StdImp|Product Description: AutoCAD Mechanical 2004 DX|Company: Autodesk"
 90
        0
280
     0
281
     0
  0
CLASS
  1
ASAPP
  2
AcAsAppObject
  3
AutoSurfServices
 90
        0
280
     0
281
     0
  0
CLASS
  1
IM_STATIC_MAN
  2
AcImStaticVarManager
  3
AcMeServices
 90
        0
280
     0
281
     0
  0
CLASS
  1
ACIMDBLSTATICVAR
  2
AcImDblStaticVar
  3
AcMeServices
 90
        0
280
     0
281
     0
  0
CLASS
  1
ACIMSTRSTATICVAR
  2
AcImStrStaticVar
  3
AcMeServices
 90
        0
280
     0
281
     0
  0
CLASS
  1
ACIMINTSTATICVAR
  2
AcImIntStaticVar
  3
AcMeServices
 90
        0
280
     0
281
     0
  0
CLASS
  1
ACASGREFMASTER
  2
AcAsGrefMaster
  3
AutoSurfResolverServices
 90
        0
280
     0
281
     0
  0
CLASS
  1
ACADGREFMODULE
  2
AcAdGrefModule
  3
AdGrefServices
 90
        0
280
     0
281
     0
  0
CLASS
  1
AMDTMAPISURFMOUDULE
  2
AmdtMApiSurfModule
  3
MApiSurfServices
 90
        0
280
     0
281
     0
  0
CLASS
  1
MAPIADMODULE
  2
MApiAdModule
  3
MApiAdServices
 90
        0
280
     0
281
     0
  0
ENDSEC
  0
SECTION
  2
TABLES
  0
TABLE
  2
VPORT
  5
8
330
0
100
AcDbSymbolTable
 70
    31
  0
VPORT
  5
AFFF
330
8
100
AcDbSymbolTableRecord
100
AcDbViewportTableRecord
  2
*Active
 70
     0
 10
0.0
 20
0.0
 11
1.0
 21
1.0
 12
-215.421237512039
 22
-61.70186433967683
 13
0.0
 23
0.0
 14
2.5
 24
2.5
 15
10.0
 25
10.0
 16
0.0
 26
0.0
 36
1.0
 17
658.0750513642964
 27
1283.112729687819
 37
0.0
 40
417.9323993178829
 41
1.263157894736842
 42
50.0
 43
0.0
 44
0.0
 50
0.0
 51
0.0
 71
     0
 72
  2000
 73
     1
 74
     3
 75
     0
 76
     0
 77
     0
 78
     0
281
     0
 65
     0
110
0.0
120
0.0
130
0.0
111
1.0
121
0.0
131
0.0
112
0.0
122
1.0
132
0.0
 79
     0
146
0.0
  0
ENDTAB
  0
TABLE
  2
LTYPE
  5
5
330
0
100
AcDbSymbolTable
 70
    16
  0
LTYPE
  5
14
330
5
100
AcDbSymbolTableRecord
100
AcDbLinetypeTableRecord
  2
ByBlock
 70
     0
  3

 72
    65
 73
     0
 40
0.0
  0
LTYPE
  5
15
330
5
100
AcDbSymbolTableRecord
100
AcDbLinetypeTableRecord
  2
ByLayer
 70
     0
  3

 72
    65
 73
     0
 40
0.0
  0
LTYPE
  5
16
330
5
100
AcDbSymbolTableRecord
100
AcDbLinetypeTableRecord
  2
Continuous
 70
     0
  3
Solid line
 72
    65
 73
     0
 40
0.0
  0
LTYPE
  5
64
330
5
100
AcDbSymbolTableRecord
100
AcDbLinetypeTableRecord
  2
AM_ISO02W050
 70
     0
  3
__ __ __ __ __ __ __ __ __ __ __ __ __ __ __
 72
    65
 73
     2
 40
7.5
 49
6.0
 74
     0
 49
-1.5
 74
     0
  0
LTYPE
  5
65
330
5
100
AcDbSymbolTableRecord
100
AcDbLinetypeTableRecord
  2
AM_ISO08W050
 70
     0
  3
____ . ____ . ____ . ____ . ____ . ____ . ____
 72
    65
 73
     4
 40
18.0
 49
12.0
 74
     0
 49
-1.5
 74
     0
 49
3.0
 74
     0
 49
-1.5
 74
     0
  0
LTYPE
  5
66
330
5
100
AcDbSymbolTableRecord
100
AcDbLinetypeTableRecord
  2
AM_ISO09W050
 70
     0
  3
_____ . . _____ . . _____ . . ____ .. ____
 72
    65
 73
     6
 40
22.5
 49
12.0
 74
     0
 49
-1.5
 74
     0
 49
3.0
 74
     0
 49
-1.5
 74
     0
 49
3.0
 74
     0
 49
-1.5
 74
     0
  0
LTYPE
  5
67
330
5
100
AcDbSymbolTableRecord
100
AcDbLinetypeTableRecord
  2
Amconstr
 70
     0
  3
_______________________
 72
    65
 73
     2
 40
9999.0
 49
9999.0
 74
     0
 49
0.0
 74
     0
  0
LTYPE
  5
68
330
5
100
AcDbSymbolTableRecord
100
AcDbLinetypeTableRecord
  2
AM_ISO08W050x2
 70
     0
  3
__ . __ . __ . __ . __ . __
 72
    65
 73
     4
 40
9.0
 49
6.0
 74
     0
 49
-0.75
 74
     0
 49
1.5
 74
     0
 49
-0.75
 74
     0
  0
LTYPE
  5
69
330
5
100
AcDbSymbolTableRecord
100
AcDbLinetypeTableRecord
  2
AM_ISO02W050x2
 70
     0
  3
 _ _ _ _ _ _ _ _ _ _ _ _
 72
    65
 73
     2
 40
3.75
 49
3.0
 74
     0
 49
-0.75
 74
     0
  0
LTYPE
  5
6C
330
5
100
AcDbSymbolTableRecord
100
AcDbLinetypeTableRecord
  2
Amzigzag
 70
     0
  3
/\/-/\/-/\/-/\/-/\/-/\/
 72
    65
 73
     2
 40
11.0001
 49
0.0001
 74
     4
 75
   135
340
6B
 46
0.04
 50
0.0
 44
0.0
 45
0.0
 49
-11.0
 74
     0
  0
LTYPE
  5
7A
330
5
100
AcDbSymbolTableRecord
100
AcDbLinetypeTableRecord
  2
ACISOWELD
 70
     0
  3
_ _ _ _ _
 72
    65
 73
     2
 40
2.0
 49
2.0
 74
     0
 49
-1.0
 74
     0
  0
LTYPE
  5
7B
330
5
100
AcDbSymbolTableRecord
100
AcDbLinetypeTableRecord
  2
ACISOTGB
 70
     0
  3
__ . . __ . .
 72
    65
 73
     6
 40
9.0
 49
4.0
 74
     0
 49
-1.0
 74
     0
 49
1.0
 74
     0
 49
-1.0
 74
     0
 49
1.0
 74
     0
 49
-1.0
 74
     0
  0
LTYPE
  5
7C
330
5
100
AcDbSymbolTableRecord
100
AcDbLinetypeTableRecord
  2
ACISOTGL
 70
     0
  3
_ _ _ _ _
 72
    65
 73
     2
 40
3.0
 49
2.0
 74
     0
 49
-1.0
 74
     0
  0
LTYPE
  5
7E
330
5
100
AcDbSymbolTableRecord
100
AcDbLinetypeTableRecord
  2
CENTER
 70
     0
  3
__ . __
 72
    65
 73
     4
 40
7.0
 49
4.0
 74
     0
 49
-1.0
 74
     0
 49
1.0
 74
     0
 49
-1.0
 74
     0
  0
LTYPE
  5
D8
330
5
100
AcDbSymbolTableRecord
100
AcDbLinetypeTableRecord
  2
HIDDEN
 70
     0
  3
Hidden __ __ __ __ __ __ __ __ __ __ __ __ __ _
 72
    65
 73
     2
 40
9.524999999999998
 49
6.349999999999999
 74
     0
 49
-3.174999999999999
 74
     0
  0
LTYPE
  5
D9
330
5
100
AcDbSymbolTableRecord
100
AcDbLinetypeTableRecord
  2
PHANTOM2
 70
     0
  3
Phantom (.5x) ___ _ _ ___ _ _ ___ _ _ ___ _ _
 72
    65
 73
     6
 40
31.75
 49
15.875
 74
     0
 49
-3.174999999999999
 74
     0
 49
3.174999999999999
 74
     0
 49
-3.174999999999999
 74
     0
 49
3.174999999999999
 74
     0
 49
-3.174999999999999
 74
     0
  0
LTYPE
  5
88B1
330
5
100
AcDbSymbolTableRecord
100
AcDbLinetypeTableRecord
  2
ASULTYPE
 70
     0
  3
實線
 72
    65
 73
     2
 40
3.0
 49
2.5
 74
     0
 49
0.5
 74
     0
  0
LTYPE
  5
88B2
330
5
100
AcDbSymbolTableRecord
100
AcDbLinetypeTableRecord
  2
ASVLTYPE
 70
     0
  3
__ __ __ __ __ __ __ __ __ __ __ __ __ __ __ __ __ __ __ __ __
 72
    65
 73
     2
 40
0.75
 49
0.5
 74
     0
 49
-0.25
 74
     0
  0
ENDTAB
  0
TABLE
  2
LAYER
  5
2
102
{ACAD_XDICTIONARY
360
3F9
102
}
330
0
100
AcDbSymbolTable
 70
    10
  0
LAYER
  5
10
330
2
100
AcDbSymbolTableRecord
100
AcDbLayerTableRecord
  2
0
 70
     0
 62
     7
  6
Continuous
370
    -3
390
F
  0
LAYER
  5
A47
330
2
100
AcDbSymbolTableRecord
100
AcDbLayerTableRecord
  2
AM_VIS
 70
     0
 62
     7
  6
Continuous
370
    50
390
F
  0
LAYER
  5
A48
330
2
100
AcDbSymbolTableRecord
100
AcDbLayerTableRecord
  2
AM_7
 70
     0
 62
     1
  6
AM_ISO08W050
370
    25
390
F
  0
LAYER
  5
A49
330
2
100
AcDbSymbolTableRecord
100
AcDbLayerTableRecord
  2
AM_4
 70
     0
 62
     3
  6
Continuous
370
    25
390
F
  0
LAYER
  5
11DD
330
2
100
AcDbSymbolTableRecord
100
AcDbLayerTableRecord
  2
AM_0
 70
     0
 62
     7
  6
Continuous
370
    50
390
F
  0
LAYER
  5
1369
330
2
100
AcDbSymbolTableRecord
100
AcDbLayerTableRecord
  2
AM_5
 70
     0
 62
     5
  6
Continuous
370
    25
390
F
  0
LAYER
  5
1379
330
2
100
AcDbSymbolTableRecord
100
AcDbLayerTableRecord
  2
Defpoints
 70
     0
 62
     7
  6
Continuous
290
     0
370
    -3
390
F
  0
LAYER
  5
1FFE
330
2
100
AcDbSymbolTableRecord
100
AcDbLayerTableRecord
  2
BORDER
 70
     0
 62
     7
  6
Continuous
370
    -3
390
F
  0
LAYER
  5
6F80
330
2
100
AcDbSymbolTableRecord
100
AcDbLayerTableRecord
  2
LOGO
 70
     0
 62
     7
  6
Continuous
370
    -3
390
F
  0
LAYER
  5
7143
330
2
100
AcDbSymbolTableRecord
100
AcDbLayerTableRecord
  2
BOR
 70
     0
 62
     7
  6
Continuous
370
    -3
390
F
  0
ENDTAB
  0
TABLE
  2
STYLE
  5
3
330
0
100
AcDbSymbolTable
 70
     5
  0
STYLE
  5
11
330
3
100
AcDbSymbolTableRecord
100
AcDbTextStyleTableRecord
  2
STANDARD
 70
     0
 40
0.0
 41
1.0
 50
0.0
 71
     0
 42
3.0
  3
ISOCP.SHX
  4
CHINESET.SHX
  0
STYLE
  5
6B
330
3
100
AcDbSymbolTableRecord
100
AcDbTextStyleTableRecord
  2

 70
     1
 40
0.0
 41
1.0
 50
0.0
 71
     0
 42
2.5
  3
ltypeshp.shx
  4

  0
STYLE
  5
6D
330
3
100
AcDbSymbolTableRecord
100
AcDbTextStyleTableRecord
  2
ACISOTS
 70
     0
 40
1.0
 41
1.0
 50
0.0
 71
     0
 42
1.0
  3
isocp.shx
  4
chineset.shx
  0
STYLE
  5
79
330
3
100
AcDbSymbolTableRecord
100
AcDbTextStyleTableRecord
  2
ACISOGDT
 70
     0
 40
0.0
 41
1.0
 50
0.0
 71
     0
 42
2.5
  3
amgdt.shx
  4
chineset.shx
  0
STYLE
  5
6F81
330
3
100
AcDbSymbolTableRecord
100
AcDbTextStyleTableRecord
  2
CHINESET
 70
     0
 40
0.0
 41
1.0
 50
0.0
 71
     0
 42
3.0
  3
simplex.shx
  4
CHINESET.SHX
  0
ENDTAB
  0
TABLE
  2
VIEW
  5
6
330
0
100
AcDbSymbolTable
 70
     0
  0
ENDTAB
  0
TABLE
  2
UCS
  5
7
330
0
100
AcDbSymbolTable
 70
     0
  0
ENDTAB
  0
TABLE
  2
APPID
  5
9
330
0
100
AcDbSymbolTable
 70
    48
  0
APPID
  5
12
330
9
100
AcDbSymbolTableRecord
100
AcDbRegAppTableRecord
  2
ACAD
 70
     0
  0
APPID
  5
46
330
9
100
AcDbSymbolTableRecord
100
AcDbRegAppTableRecord
  2
MCAD_NO_VIS
 70
     0
  0
APPID
  5
47
330
9
100
AcDbSymbolTableRecord
100
AcDbRegAppTableRecord
  2
ACAD_TEMP_GRAPHIC
 70
     0
  0
APPID
  5
58
330
9
100
AcDbSymbolTableRecord
100
AcDbRegAppTableRecord
  2
ACATTRIBSERVICES
 70
     0
  0
APPID
  5
EE
330
9
100
AcDbSymbolTableRecord
100
AcDbRegAppTableRecord
  2
AD_DRAW
 70
     0
  0
APPID
  5
10C
330
9
100
AcDbSymbolTableRecord
100
AcDbRegAppTableRecord
  2
DESIGNERASSEMBLIES
 70
     0
  0
APPID
  5
111
330
9
100
AcDbSymbolTableRecord
100
AcDbRegAppTableRecord
  2
ACADM_DIM_EDIT
 70
     0
  0
APPID
  5
112
330
9
100
AcDbSymbolTableRecord
100
AcDbRegAppTableRecord
  2
AMDT_DM_ADJ
 70
     0
  0
APPID
  5
22C
330
9
100
AcDbSymbolTableRecord
100
AcDbRegAppTableRecord
  2
ACAD_DSTYLE_DIMTEXT_FILL
 70
     0
  0
APPID
  5
452
330
9
100
AcDbSymbolTableRecord
100
AcDbRegAppTableRecord
  2
GENIUS_GENOENT_13
 70
     0
  0
APPID
  5
453
330
9
100
AcDbSymbolTableRecord
100
AcDbRegAppTableRecord
  2
GENIUS_GENOBJ-N-CRS_13
 70
     0
  0
APPID
  5
454
330
9
100
AcDbSymbolTableRecord
100
AcDbRegAppTableRecord
  2
GENIUS_GENOLIS_13
 70
     0
  0
APPID
  5
455
330
9
100
AcDbSymbolTableRecord
100
AcDbRegAppTableRecord
  2
GENIUS_GENODEF_13
 70
     0
  0
APPID
  5
456
330
9
100
AcDbSymbolTableRecord
100
AcDbRegAppTableRecord
  2
GENIUS_GENOREF_13
 70
     0
  0
APPID
  5
6F3
330
9
100
AcDbSymbolTableRecord
100
AcDbRegAppTableRecord
  2
ACAD_PSEXT
 70
     0
  0
APPID
  5
808
330
9
100
AcDbSymbolTableRecord
100
AcDbRegAppTableRecord
  2
GENIUS_GENDTOL_13
 70
     0
  0
APPID
  5
11E4
330
9
100
AcDbSymbolTableRecord
100
AcDbRegAppTableRecord
  2
GEVID1151564621
 70
     0
  0
APPID
  5
11E5
330
9
100
AcDbSymbolTableRecord
100
AcDbRegAppTableRecord
  2
GEVDC
 70
     0
  0
APPID
  5
11E6
330
9
100
AcDbSymbolTableRecord
100
AcDbRegAppTableRecord
  2
GEVRADREF
 70
     0
  0
APPID
  5
11EF
330
9
100
AcDbSymbolTableRecord
100
AcDbRegAppTableRecord
  2
AMG_2DHIDE
 70
     0
  0
APPID
  5
11F0
330
9
100
AcDbSymbolTableRecord
100
AcDbRegAppTableRecord
  2
AMG_2DSTRUCT_BTR
 70
     0
  0
APPID
  5
1201
330
9
100
AcDbSymbolTableRecord
100
AcDbRegAppTableRecord
  2
ACADM_2DVIEW_IGN_NOTIFY
 70
     0
  0
APPID
  5
1231
330
9
100
AcDbSymbolTableRecord
100
AcDbRegAppTableRecord
  2
GEVID1151564622
 70
     0
  0
APPID
  5
1262
330
9
100
AcDbSymbolTableRecord
100
AcDbRegAppTableRecord
  2
GEVID1151564623
 70
     0
  0
APPID
  5
1860
330
9
100
AcDbSymbolTableRecord
100
AcDbRegAppTableRecord
  2
ACAD_DIMASSOC_DIMLFAC
 70
     0
  0
APPID
  5
1861
330
9
100
AcDbSymbolTableRecord
100
AcDbRegAppTableRecord
  2
ACAD_DIMASSOC_CALC_DIMLFAC
 70
     0
  0
APPID
  5
1862
330
9
100
AcDbSymbolTableRecord
100
AcDbRegAppTableRecord
  2
ACAD_DIMASSOC_OVERRIDDEN_DIMLFAC
 70
     0
  0
APPID
  5
20E5
330
9
100
AcDbSymbolTableRecord
100
AcDbRegAppTableRecord
  2
GEVID1151625661
 70
     0
  0
APPID
  5
2115
330
9
100
AcDbSymbolTableRecord
100
AcDbRegAppTableRecord
  2
GEVID1151625662
 70
     0
  0
APPID
  5
2131
330
9
100
AcDbSymbolTableRecord
100
AcDbRegAppTableRecord
  2
GEVID1151625663
 70
     0
  0
APPID
  5
2132
330
9
100
AcDbSymbolTableRecord
100
AcDbRegAppTableRecord
  2
GEVMK
 70
     0
  0
APPID
  5
2C49
330
9
100
AcDbSymbolTableRecord
100
AcDbRegAppTableRecord
  2
GENIUS_GENOBJ-N-CEN_13
 70
     0
  0
APPID
  5
2C4A
330
9
100
AcDbSymbolTableRecord
100
AcDbRegAppTableRecord
  2
GENIUS_GENCEN_19
 70
     0
  0
APPID
  5
2F66
330
9
100
AcDbSymbolTableRecord
100
AcDbRegAppTableRecord
  2
GEVID1151908765
 70
     0
  0
APPID
  5
2FDB
330
9
100
AcDbSymbolTableRecord
100
AcDbRegAppTableRecord
  2
GEVID1151908766
 70
     0
  0
APPID
  5
3C74
330
9
100
AcDbSymbolTableRecord
100
AcDbRegAppTableRecord
  2
GEVID1151908767
 70
     0
  0
APPID
  5
3CA2
330
9
100
AcDbSymbolTableRecord
100
AcDbRegAppTableRecord
  2
GEVID1151908768
 70
     0
  0
APPID
  5
3CC1
330
9
100
AcDbSymbolTableRecord
100
AcDbRegAppTableRecord
  2
GEVID1151908769
 70
     0
  0
APPID
  5
3FF1
330
9
100
AcDbSymbolTableRecord
100
AcDbRegAppTableRecord
  2
GENIUS_GENREC_14
 70
     0
  0
APPID
  5
3FF2
330
9
100
AcDbSymbolTableRecord
100
AcDbRegAppTableRecord
  2
GENIUS_GENOBJ-N-REC_13
 70
     0
  0
APPID
  5
4D81
330
9
100
AcDbSymbolTableRecord
100
AcDbRegAppTableRecord
  2
GEVID1151981890
 70
     0
  0
APPID
  5
63C5
330
9
100
AcDbSymbolTableRecord
100
AcDbRegAppTableRecord
  2
GEVID1151981891
 70
     0
  0
APPID
  5
641E
330
9
100
AcDbSymbolTableRecord
100
AcDbRegAppTableRecord
  2
GEVID1151981892
 70
     0
  0
APPID
  5
7494
330
9
100
AcDbSymbolTableRecord
100
AcDbRegAppTableRecord
  2
GENIUS_GENDIM_13
 70
     0
  0
APPID
  5
7495
330
9
100
AcDbSymbolTableRecord
100
AcDbRegAppTableRecord
  2
GENIUS_GE3DTOL_13
 70
     0
  0
APPID
  5
7515
330
9
100
AcDbSymbolTableRecord
100
AcDbRegAppTableRecord
  2
ASURF_PCURVE_APPNAME
 70
     0
  0
APPID
  5
751A
330
9
100
AcDbSymbolTableRecord
100
AcDbRegAppTableRecord
  2
AMG_3D2D_5.0
 70
     0
  0
APPID
  5
83A7
330
9
100
AcDbSymbolTableRecord
100
AcDbRegAppTableRecord
  2
GENIUS_GENDIMSH_14
 70
     0
  0
ENDTAB
  0
TABLE
  2
DIMSTYLE
  5
A
330
0
100
AcDbSymbolTable
 70
    11
100
AcDbDimStyleTable
 71
     3
340
81
340
8B
340
86
  0
DIMSTYLE
105
81
330
A
100
AcDbSymbolTableRecord
100
AcDbDimStyleTableRecord
  2
AM_ISO
 70
     0
  4
"
 41
3.0
 42
1.0
 43
8.0
 44
1.5
 47
0.1
 48
0.1
 73
     0
 74
     0
 77
     1
 78
     8
 79
     2
140
3.5
141
0.0
143
0.0393701
146
0.6
147
0.7
172
     1
176
   256
177
   256
178
   256
271
     2
272
     2
283
     0
284
     8
340
11
371
    -1
372
    -1
  0
DIMSTYLE
105
82
330
A
100
AcDbSymbolTableRecord
100
AcDbDimStyleTableRecord
  2
AM_ISO$3
 70
     0
  4
"
 41
3.0
 42
1.0
 43
8.0
 44
1.5
 47
0.1
 48
0.1
 73
     0
 77
     1
 78
     8
 79
     2
140
3.5
141
0.0
143
0.0393701
146
0.6
147
0.7
176
   256
177
   256
178
   256
271
     2
272
     2
283
     0
284
     8
288
     1
289
     0
340
11
371
    -1
372
    -1
  0
DIMSTYLE
105
83
330
A
100
AcDbSymbolTableRecord
100
AcDbDimStyleTableRecord
  2
AM_ISO$4
 70
     0
  4
"
 41
3.0
 42
1.0
 43
8.0
 44
1.5
 47
0.1
 48
0.1
 73
     0
 77
     1
 78
     8
 79
     2
140
3.5
141
0.0
143
0.0393701
146
0.6
147
0.7
176
   256
177
   256
178
   256
271
     2
272
     2
283
     0
284
     8
288
     1
289
     0
340
11
371
    -1
372
    -1
  0
DIMSTYLE
105
84
330
A
100
AcDbSymbolTableRecord
100
AcDbDimStyleTableRecord
  2
AM_ISO$6
 70
     0
  4
"
 41
3.0
 42
1.0
 43
8.0
 44
1.5
 47
0.1
 48
0.1
 73
     0
 74
     0
 78
     8
 79
     2
140
3.5
141
0.0
143
0.0393701
146
0.6
147
0.7
172
     1
176
   256
177
   256
178
   256
271
     2
272
     2
283
     0
284
     8
340
11
371
    -1
372
    -1
  0
DIMSTYLE
105
85
330
A
100
AcDbSymbolTableRecord
100
AcDbDimStyleTableRecord
  2
AM_ISO$7
 70
     0
  4
"
 41
3.0
 42
1.0
 43
8.0
 44
1.5
 47
0.1
 48
0.1
 73
     0
 74
     0
 77
     1
 78
     8
 79
     2
140
5.0
141
0.0
143
0.0393701
146
0.6
147
0.7
172
     1
176
   256
177
   256
178
   256
271
     2
272
     2
283
     0
284
     8
340
11
371
    -1
372
    -1
  0
DIMSTYLE
105
86
330
A
100
AcDbSymbolTableRecord
100
AcDbDimStyleTableRecord
  2
AM_ISO$SF
 70
     0
  4
"
 41
2.5
 42
1.0
 43
10.0
 44
1.0
 47
0.1
 48
0.1
 73
     0
 74
     0
 75
     1
 76
     1
 77
     1
 78
     8
 79
     2
140
3.5
141
0.0
143
0.0393701
146
0.71
147
1.5
172
     1
176
   256
177
   256
178
     2
271
     2
272
     3
274
     4
283
     0
284
     8
340
11
371
    -1
372
    -1
  0
DIMSTYLE
105
8B
330
A
100
AcDbSymbolTableRecord
100
AcDbDimStyleTableRecord
  2
AM_ISO$SH
 70
     0
  4
"
 41
2.5
 42
1.0
 43
10.0
 44
1.0
 47
0.1
 48
0.1
 73
     0
 74
     0
 75
     1
 76
     1
 77
     1
 78
     8
 79
     2
140
3.5
141
0.0
143
0.0393701
144
2.0
146
0.71
147
1.5
172
     1
173
     1
176
   256
177
   256
178
     2
271
     2
272
     3
274
     4
283
     0
284
     8
340
11
343
87
371
    -1
372
    -1
  0
DIMSTYLE
105
40B
102
{ACAD_REACTORS
330
7DEA
330
7E10
330
7E36
330
7E5C
330
7F3D
330
7F9D
330
7FCC
330
8059
330
802A
330
7FFB
330
8171
330
819B
330
823F
330
8265
330
828B
330
82B5
330
82DF
330
8323
330
8373
330
838B
330
83DA
330
842B
330
8455
330
847F
330
81D0
330
AE62
102
}
330
A
100
AcDbSymbolTableRecord
100
AcDbDimStyleTableRecord
  2
AM_ISO$0
 70
     0
  4
"
 41
3.0
 42
1.0
 43
8.0
 44
1.5
 47
0.1
 48
0.1
 73
     0
 74
     0
 77
     1
 78
     8
 79
     2
140
3.5
141
0.0
143
0.0393701
146
0.6
147
0.7
172
     1
176
   256
177
   256
178
   256
271
     2
272
     2
283
     0
284
     8
340
11
371
    -1
372
    -1
  0
DIMSTYLE
105
182A
330
A
100
AcDbSymbolTableRecord
100
AcDbDimStyleTableRecord
  2
AM_ISO$2
 70
     0
  4
"
 41
3.0
 42
1.0
 43
8.0
 44
1.5
 47
0.1
 48
0.1
 73
     0
 74
     0
 77
     1
 78
     8
 79
     2
140
3.5
141
0.0
143
0.0393701
146
0.6
147
0.7
172
     1
176
   256
177
   256
178
   256
271
     2
272
     2
283
     0
284
     8
340
11
371
    -1
372
    -1
  0
DIMSTYLE
105
7DA7
330
A
100
AcDbSymbolTableRecord
100
AcDbDimStyleTableRecord
  2
ISO-25
 70
     0
 41
2.5
 42
0.625
 43
3.75
 44
1.25
 73
     0
 74
     0
 77
     1
 78
     8
140
2.5
141
2.5
143
0.03937007874016
147
0.625
171
     3
172
     1
271
     2
272
     2
274
     3
278
    44
283
     0
284
     8
340
11
  0
DIMSTYLE
105
7DA8
330
A
100
AcDbSymbolTableRecord
100
AcDbDimStyleTableRecord
  2
ISO-25$0
 70
     0
 41
2.5
 42
0.625
 43
3.75
 44
1.25
 73
     0
 74
     0
 77
     1
 78
     8
140
2.5
141
2.5
143
0.03937007874016
147
0.625
171
     3
172
     1
271
     2
272
     2
274
     3
278
    44
283
     0
284
     8
340
11
  0
ENDTAB
  0
TABLE
  2
BLOCK_RECORD
  5
1
330
0
100
AcDbSymbolTable
 70
    52
  0
BLOCK_RECORD
  5
1F
102
{ACAD_XDICTIONARY
360
8F
102
}
330
1
100
AcDbSymbolTableRecord
100
AcDbBlockTableRecord
  2
*Model_Space
340
22
  0
BLOCK_RECORD
  5
1B
330
1
100
AcDbSymbolTableRecord
100
AcDbBlockTableRecord
  2
*Paper_Space
340
1E
  0
BLOCK_RECORD
  5
23
330
1
100
AcDbSymbolTableRecord
100
AcDbBlockTableRecord
  2
*Paper_Space0
340
26
  0
BLOCK_RECORD
  5
87
330
1
100
AcDbSymbolTableRecord
100
AcDbBlockTableRecord
  2
GENAXEH
340
0
  0
BLOCK_RECORD
  5
7DEB
330
1
100
AcDbSymbolTableRecord
100
AcDbBlockTableRecord
  2
*D3
340
0
  0
BLOCK_RECORD
  5
7E11
330
1
100
AcDbSymbolTableRecord
100
AcDbBlockTableRecord
  2
*D4
340
0
  0
BLOCK_RECORD
  5
7E37
330
1
100
AcDbSymbolTableRecord
100
AcDbBlockTableRecord
  2
*D5
340
0
  0
BLOCK_RECORD
  5
7E5D
330
1
100
AcDbSymbolTableRecord
100
AcDbBlockTableRecord
  2
*D6
340
0
  0
BLOCK_RECORD
  5
7F3E
330
1
100
AcDbSymbolTableRecord
100
AcDbBlockTableRecord
  2
*D7
340
0
  0
BLOCK_RECORD
  5
7F9E
330
1
100
AcDbSymbolTableRecord
100
AcDbBlockTableRecord
  2
*D8
340
0
  0
BLOCK_RECORD
  5
7FCD
330
1
100
AcDbSymbolTableRecord
100
AcDbBlockTableRecord
  2
*D9
340
0
  0
BLOCK_RECORD
  5
7FFC
330
1
100
AcDbSymbolTableRecord
100
AcDbBlockTableRecord
  2
*D10
340
0
  0
BLOCK_RECORD
  5
802B
330
1
100
AcDbSymbolTableRecord
100
AcDbBlockTableRecord
  2
*D11
340
0
  0
BLOCK_RECORD
  5
805A
330
1
100
AcDbSymbolTableRecord
100
AcDbBlockTableRecord
  2
*D12
340
0
  0
BLOCK_RECORD
  5
8172
330
1
100
AcDbSymbolTableRecord
100
AcDbBlockTableRecord
  2
*D13
340
0
  0
BLOCK_RECORD
  5
819C
330
1
100
AcDbSymbolTableRecord
100
AcDbBlockTableRecord
  2
*D14
340
0
  0
BLOCK_RECORD
  5
81D1
330
1
100
AcDbSymbolTableRecord
100
AcDbBlockTableRecord
  2
*D15
340
0
  0
BLOCK_RECORD
  5
8240
330
1
100
AcDbSymbolTableRecord
100
AcDbBlockTableRecord
  2
*D16
340
0
  0
BLOCK_RECORD
  5
8266
330
1
100
AcDbSymbolTableRecord
100
AcDbBlockTableRecord
  2
*D17
340
0
  0
BLOCK_RECORD
  5
828C
330
1
100
AcDbSymbolTableRecord
100
AcDbBlockTableRecord
  2
*D18
340
0
  0
BLOCK_RECORD
  5
82B6
330
1
100
AcDbSymbolTableRecord
100
AcDbBlockTableRecord
  2
*D19
340
0
  0
BLOCK_RECORD
  5
82E0
330
1
100
AcDbSymbolTableRecord
100
AcDbBlockTableRecord
  2
*D20
340
0
  0
BLOCK_RECORD
  5
8324
330
1
100
AcDbSymbolTableRecord
100
AcDbBlockTableRecord
  2
*D21
340
0
  0
BLOCK_RECORD
  5
8374
330
1
100
AcDbSymbolTableRecord
100
AcDbBlockTableRecord
  2
*D22
340
0
  0
BLOCK_RECORD
  5
838C
330
1
100
AcDbSymbolTableRecord
100
AcDbBlockTableRecord
  2
*D23
340
0
  0
BLOCK_RECORD
  5
83A8
330
1
100
AcDbSymbolTableRecord
100
AcDbBlockTableRecord
  2
GENDOT
340
0
102
{BLKREFS
331
AFEB
102
}
  0
BLOCK_RECORD
  5
83DB
330
1
100
AcDbSymbolTableRecord
100
AcDbBlockTableRecord
  2
*D25
340
0
  0
BLOCK_RECORD
  5
842C
330
1
100
AcDbSymbolTableRecord
100
AcDbBlockTableRecord
  2
*D26
340
0
  0
BLOCK_RECORD
  5
8456
330
1
100
AcDbSymbolTableRecord
100
AcDbBlockTableRecord
  2
*D27
340
0
  0
BLOCK_RECORD
  5
8480
330
1
100
AcDbSymbolTableRecord
100
AcDbBlockTableRecord
  2
*D28
340
0
  0
BLOCK_RECORD
  5
88C1
330
1
100
AcDbSymbolTableRecord
100
AcDbBlockTableRecord
  2
SW_CENTERMARKSYMBOL_9
340
0
  0
BLOCK_RECORD
  5
949F
330
1
100
AcDbSymbolTableRecord
100
AcDbBlockTableRecord
  2
SW_CENTERMARKSYMBOL_0
340
0
  0
BLOCK_RECORD
  5
94AA
330
1
100
AcDbSymbolTableRecord
100
AcDbBlockTableRecord
  2
SW_CENTERMARKSYMBOL_1
340
0
  0
BLOCK_RECORD
  5
94B5
330
1
100
AcDbSymbolTableRecord
100
AcDbBlockTableRecord
  2
SW_CENTERMARKSYMBOL_2
340
0
  0
BLOCK_RECORD
  5
94C0
330
1
100
AcDbSymbolTableRecord
100
AcDbBlockTableRecord
  2
SW_CENTERMARKSYMBOL_3
340
0
  0
BLOCK_RECORD
  5
94CB
330
1
100
AcDbSymbolTableRecord
100
AcDbBlockTableRecord
  2
SW_CENTERMARKSYMBOL_4
340
0
  0
BLOCK_RECORD
  5
94D6
330
1
100
AcDbSymbolTableRecord
100
AcDbBlockTableRecord
  2
SW_CENTERMARKSYMBOL_5
340
0
  0
BLOCK_RECORD
  5
94E1
330
1
100
AcDbSymbolTableRecord
100
AcDbBlockTableRecord
  2
SW_CENTERMARKSYMBOL_6
340
0
  0
BLOCK_RECORD
  5
94EC
330
1
100
AcDbSymbolTableRecord
100
AcDbBlockTableRecord
  2
SW_CENTERMARKSYMBOL_7
340
0
  0
BLOCK_RECORD
  5
94F7
330
1
100
AcDbSymbolTableRecord
100
AcDbBlockTableRecord
  2
SW_CENTERMARKSYMBOL_8
340
0
  0
BLOCK_RECORD
  5
9502
330
1
100
AcDbSymbolTableRecord
100
AcDbBlockTableRecord
  2
SW_CENTERMARKSYMBOL_10
340
0
  0
BLOCK_RECORD
  5
950D
330
1
100
AcDbSymbolTableRecord
100
AcDbBlockTableRecord
  2
SW_CENTERMARKSYMBOL_11
340
0
  0
BLOCK_RECORD
  5
9518
330
1
100
AcDbSymbolTableRecord
100
AcDbBlockTableRecord
  2
SW_CENTERMARKSYMBOL_12
340
0
  0
BLOCK_RECORD
  5
9523
330
1
100
AcDbSymbolTableRecord
100
AcDbBlockTableRecord
  2
SW_CENTERMARKSYMBOL_13
340
0
  0
BLOCK_RECORD
  5
952E
330
1
100
AcDbSymbolTableRecord
100
AcDbBlockTableRecord
  2
SW_CENTERMARKSYMBOL_14
340
0
  0
BLOCK_RECORD
  5
9539
330
1
100
AcDbSymbolTableRecord
100
AcDbBlockTableRecord
  2
SW_CENTERMARKSYMBOL_15
340
0
  0
BLOCK_RECORD
  5
9544
330
1
100
AcDbSymbolTableRecord
100
AcDbBlockTableRecord
  2
SW_CENTERMARKSYMBOL_16
340
0
  0
BLOCK_RECORD
  5
954F
330
1
100
AcDbSymbolTableRecord
100
AcDbBlockTableRecord
  2
SW_CENTERMARKSYMBOL_17
340
0
  0
BLOCK_RECORD
  5
955A
330
1
100
AcDbSymbolTableRecord
100
AcDbBlockTableRecord
  2
SW_CENTERMARKSYMBOL_18
340
0
  0
BLOCK_RECORD
  5
9565
330
1
100
AcDbSymbolTableRecord
100
AcDbBlockTableRecord
  2
SW_CENTERMARKSYMBOL_19
340
0
  0
BLOCK_RECORD
  5
AE17
330
1
100
AcDbSymbolTableRecord
100
AcDbBlockTableRecord
  2
*D49
340
0
  0
BLOCK_RECORD
  5
AE65
330
1
100
AcDbSymbolTableRecord
100
AcDbBlockTableRecord
  2
*D51
340
0
  0
ENDTAB
  0
ENDSEC
  0
SECTION
  2
BLOCKS
  0
BLOCK
  5
20
330
1F
100
AcDbEntity
  8
0
100
AcDbBlockBegin
  2
*Model_Space
 70
     0
 10
0.0
 20
0.0
 30
0.0
  3
*Model_Space
  1

  0
ENDBLK
  5
21
330
1F
100
AcDbEntity
  8
0
100
AcDbBlockEnd
  0
BLOCK
  5
1C
330
1B
100
AcDbEntity
 67
     1
  8
0
100
AcDbBlockBegin
  2
*Paper_Space
 70
     0
 10
0.0
 20
0.0
 30
0.0
  3
*Paper_Space
  1

  0
ENDBLK
  5
1D
330
1B
100
AcDbEntity
 67
     1
  8
0
100
AcDbBlockEnd
  0
BLOCK
  5
24
330
23
100
AcDbEntity
  8
0
100
AcDbBlockBegin
  2
*Paper_Space0
 70
     0
 10
0.0
 20
0.0
 30
0.0
  3
*Paper_Space0
  1

  0
ENDBLK
  5
25
330
23
100
AcDbEntity
  8
0
100
AcDbBlockEnd
  0
BLOCK
  5
89
330
87
100
AcDbEntity
  8
0
100
AcDbBlockBegin
  2
GENAXEH
 70
     0
 10
0.0
 20
0.0
 30
0.0
  3
GENAXEH
  1

  0
LINE
  5
88
330
87
100
AcDbEntity
  8
0
100
AcDbLine
 10
-1.0
 20
0.0
 30
0.0
 11
1.0
 21
0.0
 31
0.0
  0
ENDBLK
  5
8A
330
87
100
AcDbEntity
  8
0
100
AcDbBlockEnd
  0
BLOCK
  5
7DF5
330
7DEB
100
AcDbEntity
  8
0
100
AcDbBlockBegin
  2
*D3
 70
     1
 10
0.0
 20
0.0
 30
0.0
  3
*D3
  1

  0
LINE
  5
AE88
330
7DEB
100
AcDbEntity
  8
AM_5
100
AcDbLine
 10
416.5249826354008
 20
1356.572088149675
 30
0.0
 11
416.5249826354008
 21
1368.402263973028
 31
0.0
  0
LINE
  5
AE89
330
7DEB
100
AcDbEntity
  8
AM_5
100
AcDbLine
 10
436.5249826354008
 20
1356.572088149675
 30
0.0
 11
436.5249826354008
 21
1368.402263973028
 31
0.0
  0
LINE
  5
AE8A
330
7DEB
100
AcDbEntity
  8
AM_5
100
AcDbLine
 10
419.5249826354008
 20
1366.902263973028
 30
0.0
 11
433.5249826354008
 21
1366.902263973028
 31
0.0
  0
SOLID
  5
AE8B
330
7DEB
100
AcDbEntity
  8
AM_5
100
AcDbTrace
 10
419.5249826354008
 20
1367.402263973028
 30
0.0
 11
419.5249826354008
 21
1366.402263973028
 31
0.0
 12
416.5249826354008
 22
1366.902263973028
 32
0.0
 13
416.5249826354008
 23
1366.902263973028
 33
0.0
  0
SOLID
  5
AE8C
330
7DEB
100
AcDbEntity
  8
AM_5
100
AcDbTrace
 10
433.5249826354008
 20
1367.402263973028
 30
0.0
 11
433.5249826354008
 21
1366.402263973028
 31
0.0
 12
436.5249826354008
 22
1366.902263973028
 32
0.0
 13
436.5249826354008
 23
1366.902263973028
 33
0.0
  0
MTEXT
  5
AE8D
330
7DEB
100
AcDbEntity
  8
AM_5
100
AcDbMText
 10
426.5249826354009
 20
1369.352608461217
 30
0.0
 40
3.5
 41
0.0
 71
     5
 72
     1
  1
20
 73
     1
 44
1.0
1001
ACAD
1000
MTEXTBEGIN
1070
    73
1070
     1
1070
    44
1040
1.0
1070
    74
1070
     0
1000
MTEXTEND
  0
POINT
  5
AE8E
330
7DEB
100
AcDbEntity
  8
Defpoints
 62
     0
100
AcDbPoint
 10
416.5249826354008
 20
1355.572088149675
 30
0.0
  0
POINT
  5
AE8F
330
7DEB
100
AcDbEntity
  8
Defpoints
 62
     0
100
AcDbPoint
 10
436.5249826354008
 20
1355.572088149675
 30
0.0
  0
POINT
  5
AE90
330
7DEB
100
AcDbEntity
  8
Defpoints
 62
     0
100
AcDbPoint
 10
436.5249826354008
 20
1366.902263973028
 30
0.0
  0
ENDBLK
  5
7DF6
330
7DEB
100
AcDbEntity
  8
0
100
AcDbBlockEnd
  0
BLOCK
  5
7E1B
330
7E11
100
AcDbEntity
  8
0
100
AcDbBlockBegin
  2
*D4
 70
     1
 10
0.0
 20
0.0
 30
0.0
  3
*D4
  1

  0
LINE
  5
AE91
330
7E11
100
AcDbEntity
  8
AM_5
100
AcDbLine
 10
439.7426645209118
 20
1353.354406264164
 30
0.0
 11
461.0195118807296
 21
1353.354406264164
 31
0.0
  0
LINE
  5
AE92
330
7E11
100
AcDbEntity
  8
AM_5
100
AcDbLine
 10
454.5249856752376
 20
1360.354406114562
 30
0.0
 11
461.0195118807296
 21
1360.354406114562
 31
0.0
  0
LINE
  5
AE93
330
7E11
100
AcDbEntity
  8
AM_5
100
AcDbLine
 10
459.5195118807295
 20
1350.354406264164
 30
0.0
 11
459.5195118807295
 21
1347.354406264164
 31
0.0
  0
LINE
  5
AE94
330
7E11
100
AcDbEntity
  8
AM_5
100
AcDbLine
 10
459.5195118807295
 20
1363.354406114562
 30
0.0
 11
459.5195118807295
 21
1366.354406114562
 31
0.0
  0
LINE
  5
AE95
330
7E11
100
AcDbEntity
  8
AM_5
100
AcDbLine
 10
459.5195118807295
 20
1353.354406264164
 30
0.0
 11
459.5195118807295
 21
1360.354406114562
 31
0.0
  0
SOLID
  5
AE96
330
7E11
100
AcDbEntity
  8
AM_5
100
AcDbTrace
 10
459.0195118807296
 20
1350.354406264164
 30
0.0
 11
460.0195118807296
 21
1350.354406264164
 31
0.0
 12
459.5195118807295
 22
1353.354406264164
 32
0.0
 13
459.5195118807295
 23
1353.354406264164
 33
0.0
  0
SOLID
  5
AE97
330
7E11
100
AcDbEntity
  8
AM_5
100
AcDbTrace
 10
459.0195118807296
 20
1363.354406114562
 30
0.0
 11
460.0195118807296
 21
1363.354406114562
 31
0.0
 12
459.5195118807295
 22
1360.354406114562
 32
0.0
 13
459.5195118807295
 23
1360.354406114562
 33
0.0
  0
MTEXT
  5
AE98
330
7E11
100
AcDbEntity
  8
AM_5
100
AcDbMText
 10
457.0695118807294
 20
1356.854406189363
 30
0.0
 40
3.5
 41
0.0
 71
     5
 72
     1
  1
7
 11
0.0000000000000001
 21
1.0
 31
0.0
 73
     1
 44
1.0
1001
ACAD
1000
MTEXTBEGIN
1070
    73
1070
     1
1070
    44
1040
1.0
1070
    74
1070
     0
1000
MTEXTEND
  0
POINT
  5
AE99
330
7E11
100
AcDbEntity
  8
Defpoints
 62
     0
100
AcDbPoint
 10
438.7426645209118
 20
1353.354406264164
 30
0.0
  0
POINT
  5
AE9A
330
7E11
100
AcDbEntity
  8
Defpoints
 62
     0
100
AcDbPoint
 10
453.5249856752376
 20
1360.354406114562
 30
0.0
  0
POINT
  5
AE9B
330
7E11
100
AcDbEntity
  8
Defpoints
 62
     0
100
AcDbPoint
 10
459.5195118807295
 20
1360.354406114562
 30
0.0
  0
ENDBLK
  5
7E1C
330
7E11
100
AcDbEntity
  8
0
100
AcDbBlockEnd
  0
BLOCK
  5
7E41
330
7E37
100
AcDbEntity
  8
0
100
AcDbBlockBegin
  2
*D5
 70
     1
 10
0.0
 20
0.0
 30
0.0
  3
*D5
  1

  0
LINE
  5
ACF5
330
7E37
100
AcDbEntity
  8
AM_5
100
AcDbLine
 10
399.5249821883658
 20
1300.429599839707
 30
0.0
 11
399.5249821883658
 21
1318.268161581439
 31
0.0
  0
LINE
  5
ACF6
330
7E37
100
AcDbEntity
  8
AM_5
100
AcDbLine
 10
453.5249854517201
 20
1300.429599839707
 30
0.0
 11
453.5249854517201
 21
1318.268161581439
 31
0.0
  0
LINE
  5
ACF7
330
7E37
100
AcDbEntity
  8
AM_5
100
AcDbLine
 10
402.5249821883658
 20
1316.768161581439
 30
0.0
 11
450.5249854517201
 21
1316.768161581439
 31
0.0
  0
SOLID
  5
ACF8
330
7E37
100
AcDbEntity
  8
AM_5
100
AcDbTrace
 10
402.5249821883658
 20
1317.268161581439
 30
0.0
 11
402.5249821883658
 21
1316.268161581439
 31
0.0
 12
399.5249821883658
 22
1316.768161581439
 32
0.0
 13
399.5249821883658
 23
1316.768161581439
 33
0.0
  0
SOLID
  5
ACF9
330
7E37
100
AcDbEntity
  8
AM_5
100
AcDbTrace
 10
450.5249854517201
 20
1317.268161581439
 30
0.0
 11
450.5249854517201
 21
1316.268161581439
 31
0.0
 12
453.5249854517201
 22
1316.768161581439
 32
0.0
 13
453.5249854517201
 23
1316.768161581439
 33
0.0
  0
MTEXT
  5
ACFA
330
7E37
100
AcDbEntity
  8
AM_5
100
AcDbMText
 10
426.5249838200429
 20
1319.218161581439
 30
0.0
 40
3.5
 41
0.0
 71
     5
 72
     1
  1
54
 73
     1
 44
1.0
1001
ACAD
1000
MTEXTBEGIN
1070
    73
1070
     1
1070
    44
1040
1.0
1070
    74
1070
     0
1000
MTEXTEND
  0
POINT
  5
ACFB
330
7E37
100
AcDbEntity
  8
Defpoints
 62
     0
100
AcDbPoint
 10
399.5249821883658
 20
1299.429599839706
 30
0.0
  0
POINT
  5
ACFC
330
7E37
100
AcDbEntity
  8
Defpoints
 62
     0
100
AcDbPoint
 10
453.5249854517201
 20
1299.429599839706
 30
0.0
  0
POINT
  5
ACFD
330
7E37
100
AcDbEntity
  8
Defpoints
 62
     0
100
AcDbPoint
 10
453.5249854517201
 20
1316.768161581439
 30
0.0
  0
ENDBLK
  5
7E42
330
7E37
100
AcDbEntity
  8
0
100
AcDbBlockEnd
  0
BLOCK
  5
7E67
330
7E5D
100
AcDbEntity
  8
0
100
AcDbBlockBegin
  2
*D6
 70
     1
 10
0.0
 20
0.0
 30
0.0
  3
*D6
  1

  0
LINE
  5
ACFE
330
7E5D
100
AcDbEntity
  8
AM_5
100
AcDbLine
 10
411.5249824118834
 20
1302.311888328884
 30
0.0
 11
411.5249824118834
 21
1311.113924502558
 31
0.0
  0
LINE
  5
ACFF
330
7E5D
100
AcDbEntity
  8
AM_5
100
AcDbLine
 10
441.5249824118834
 20
1302.311888328884
 30
0.0
 11
441.5249824118834
 21
1311.113924502558
 31
0.0
  0
LINE
  5
AD00
330
7E5D
100
AcDbEntity
  8
AM_5
100
AcDbLine
 10
414.5249824118834
 20
1309.613924502558
 30
0.0
 11
438.5249824118834
 21
1309.613924502558
 31
0.0
  0
SOLID
  5
AD01
330
7E5D
100
AcDbEntity
  8
AM_5
100
AcDbTrace
 10
414.5249824118834
 20
1310.113924502558
 30
0.0
 11
414.5249824118834
 21
1309.113924502558
 31
0.0
 12
411.5249824118834
 22
1309.613924502558
 32
0.0
 13
411.5249824118834
 23
1309.613924502558
 33
0.0
  0
SOLID
  5
AD02
330
7E5D
100
AcDbEntity
  8
AM_5
100
AcDbTrace
 10
438.5249824118834
 20
1310.113924502558
 30
0.0
 11
438.5249824118834
 21
1309.113924502558
 31
0.0
 12
441.5249824118834
 22
1309.613924502558
 32
0.0
 13
441.5249824118834
 23
1309.613924502558
 33
0.0
  0
MTEXT
  5
AD03
330
7E5D
100
AcDbEntity
  8
AM_5
100
AcDbMText
 10
426.5249824118834
 20
1312.063924502558
 30
0.0
 40
3.5
 41
0.0
 71
     5
 72
     1
  1
30
 73
     1
 44
1.0
1001
ACAD
1000
MTEXTBEGIN
1070
    73
1070
     1
1070
    44
1040
1.0
1070
    74
1070
     0
1000
MTEXTEND
  0
POINT
  5
AD04
330
7E5D
100
AcDbEntity
  8
Defpoints
 62
     0
100
AcDbPoint
 10
411.5249824118834
 20
1301.311888328885
 30
0.0
  0
POINT
  5
AD05
330
7E5D
100
AcDbEntity
  8
Defpoints
 62
     0
100
AcDbPoint
 10
441.5249824118834
 20
1301.311888328885
 30
0.0
  0
POINT
  5
AD06
330
7E5D
100
AcDbEntity
  8
Defpoints
 62
     0
100
AcDbPoint
 10
441.5249824118834
 20
1309.613924502558
 30
0.0
  0
ENDBLK
  5
7E68
330
7E5D
100
AcDbEntity
  8
0
100
AcDbBlockEnd
  0
BLOCK
  5
7F48
330
7F3E
100
AcDbEntity
  8
0
100
AcDbBlockBegin
  2
*D7
 70
     1
 10
0.0
 20
0.0
 30
0.0
  3
*D7
  1

  0
LINE
  5
AD07
330
7F3E
100
AcDbEntity
  8
AM_5
100
AcDbLine
 10
441.5249824118834
 20
1302.311888328884
 30
0.0
 11
441.5249824118834
 21
1311.113924502558
 31
0.0
  0
LINE
  5
AD08
330
7F3E
100
AcDbEntity
  8
AM_5
100
AcDbLine
 10
453.5249854517201
 20
1300.429599839707
 30
0.0
 11
453.5249854517201
 21
1311.113924502558
 31
0.0
  0
LINE
  5
AD09
330
7F3E
100
AcDbEntity
  8
AM_5
100
AcDbLine
 10
444.5249824118834
 20
1309.613924502558
 30
0.0
 11
450.5249854517201
 21
1309.613924502558
 31
0.0
  0
SOLID
  5
AD0A
330
7F3E
100
AcDbEntity
  8
AM_5
100
AcDbTrace
 10
444.5249824118834
 20
1310.113924502558
 30
0.0
 11
444.5249824118834
 21
1309.113924502558
 31
0.0
 12
441.5249824118834
 22
1309.613924502558
 32
0.0
 13
441.5249824118834
 23
1309.613924502558
 33
0.0
  0
SOLID
  5
AD0B
330
7F3E
100
AcDbEntity
  8
AM_5
100
AcDbTrace
 10
450.5249854517201
 20
1310.113924502558
 30
0.0
 11
450.5249854517201
 21
1309.113924502558
 31
0.0
 12
453.5249854517201
 22
1309.613924502558
 32
0.0
 13
453.5249854517201
 23
1309.613924502558
 33
0.0
  0
MTEXT
  5
AD0C
330
7F3E
100
AcDbEntity
  8
AM_5
100
AcDbMText
 10
447.5249839318016
 20
1312.064268990747
 30
0.0
 40
3.5
 41
0.0
 71
     5
 72
     1
  1
12
 73
     1
 44
1.0
1001
ACAD
1000
MTEXTBEGIN
1070
    73
1070
     1
1070
    44
1040
1.0
1070
    74
1070
     0
1000
MTEXTEND
  0
POINT
  5
AD0D
330
7F3E
100
AcDbEntity
  8
Defpoints
 62
     0
100
AcDbPoint
 10
441.5249824118834
 20
1301.311888328885
 30
0.0
  0
POINT
  5
AD0E
330
7F3E
100
AcDbEntity
  8
Defpoints
 62
     0
100
AcDbPoint
 10
453.5249854517201
 20
1299.429599839706
 30
0.0
  0
POINT
  5
AD0F
330
7F3E
100
AcDbEntity
  8
Defpoints
 62
     0
100
AcDbPoint
 10
453.5249854517201
 20
1309.613924502558
 30
0.0
  0
ENDBLK
  5
7F49
330
7F3E
100
AcDbEntity
  8
0
100
AcDbBlockEnd
  0
BLOCK
  5
7FA8
330
7F9E
100
AcDbEntity
  8
0
100
AcDbBlockBegin
  2
*D8
 70
     1
 10
0.0
 20
0.0
 30
0.0
  3
*D8
  1

  0
LINE
  5
AD10
330
7F9E
100
AcDbEntity
  8
AM_5
100
AcDbLine
 10
454.5249854517201
 20
1299.429599839706
 30
0.0
 11
466.1092905758562
 21
1299.429599839706
 31
0.0
  0
LINE
  5
AD11
330
7F9E
100
AcDbEntity
  8
AM_5
100
AcDbLine
 10
439.4943583215146
 20
1282.329599885152
 30
0.0
 11
466.1092905758562
 21
1282.329599885152
 31
0.0
  0
LINE
  5
AD12
330
7F9E
100
AcDbEntity
  8
AM_5
100
AcDbLine
 10
464.6092905758562
 20
1296.429599839706
 30
0.0
 11
464.6092905758562
 21
1285.329599885152
 31
0.0
  0
SOLID
  5
AD13
330
7F9E
100
AcDbEntity
  8
AM_5
100
AcDbTrace
 10
464.1092905758561
 20
1296.429599839706
 30
0.0
 11
465.1092905758562
 21
1296.429599839706
 31
0.0
 12
464.6092905758562
 22
1299.429599839706
 32
0.0
 13
464.6092905758562
 23
1299.429599839706
 33
0.0
  0
SOLID
  5
AD14
330
7F9E
100
AcDbEntity
  8
AM_5
100
AcDbTrace
 10
464.1092905758561
 20
1285.329599885152
 30
0.0
 11
465.1092905758562
 21
1285.329599885152
 31
0.0
 12
464.6092905758562
 22
1282.329599885152
 32
0.0
 13
464.6092905758562
 23
1282.329599885152
 33
0.0
  0
MTEXT
  5
AD15
330
7F9E
100
AcDbEntity
  8
AM_5
100
AcDbMText
 10
462.159290575856
 20
1291.879599957424
 30
0.0
 40
3.5
 41
0.0
 71
     5
 72
     1
  1
17.1
 11
0.0000000000000001
 21
1.0
 31
0.0
 73
     1
 44
1.0
1001
ACAD
1000
MTEXTBEGIN
1070
    73
1070
     1
1070
    44
1040
1.0
1070
    74
1070
     0
1000
MTEXTEND
  0
POINT
  5
AD16
330
7F9E
100
AcDbEntity
  8
Defpoints
 62
     0
100
AcDbPoint
 10
453.5249854517201
 20
1299.429599839706
 30
0.0
  0
POINT
  5
AD17
330
7F9E
100
AcDbEntity
  8
Defpoints
 62
     0
100
AcDbPoint
 10
438.4943583215147
 20
1282.329599885152
 30
0.0
  0
POINT
  5
AD18
330
7F9E
100
AcDbEntity
  8
Defpoints
 62
     0
100
AcDbPoint
 10
464.6092905758562
 20
1282.329599885152
 30
0.0
  0
ENDBLK
  5
7FA9
330
7F9E
100
AcDbEntity
  8
0
100
AcDbBlockEnd
  0
BLOCK
  5
7FD7
330
7FCD
100
AcDbEntity
  8
0
100
AcDbBlockBegin
  2
*D9
 70
     1
 10
0.0
 20
0.0
 30
0.0
  3
*D9
  1

  0
LINE
  5
AD19
330
7FCD
100
AcDbEntity
  8
AM_5
100
AcDbLine
 10
454.5249854517201
 20
1279.929599903036
 30
0.0
 11
474.0227208917888
 21
1279.929599903036
 31
0.0
  0
LINE
  5
AD1A
330
7FCD
100
AcDbEntity
  8
AM_5
100
AcDbLine
 10
454.5249854517201
 20
1299.429599839706
 30
0.0
 11
474.0227208917888
 21
1299.429599839706
 31
0.0
  0
LINE
  5
AD1B
330
7FCD
100
AcDbEntity
  8
AM_5
100
AcDbLine
 10
472.5227208917888
 20
1282.929599903036
 30
0.0
 11
472.5227208917888
 21
1296.429599839707
 31
0.0
  0
SOLID
  5
AD1C
330
7FCD
100
AcDbEntity
  8
AM_5
100
AcDbTrace
 10
472.0227208917888
 20
1282.929599903036
 30
0.0
 11
473.0227208917888
 21
1282.929599903036
 31
0.0
 12
472.5227208917888
 22
1279.929599903036
 32
0.0
 13
472.5227208917888
 23
1279.929599903036
 33
0.0
  0
SOLID
  5
AD1D
330
7FCD
100
AcDbEntity
  8
AM_5
100
AcDbTrace
 10
472.0227208917888
 20
1296.429599839707
 30
0.0
 11
473.0227208917888
 21
1296.429599839707
 31
0.0
 12
472.5227208917888
 22
1299.429599839706
 32
0.0
 13
472.5227208917888
 23
1299.429599839706
 33
0.0
  0
MTEXT
  5
AD1E
330
7FCD
100
AcDbEntity
  8
AM_5
100
AcDbMText
 10
470.0727208917886
 20
1289.679599966366
 30
0.0
 40
3.5
 41
0.0
 71
     5
 72
     1
  1
19.5
 11
0.0000000000000001
 21
1.0
 31
0.0
 73
     1
 44
1.0
1001
ACAD
1000
MTEXTBEGIN
1070
    73
1070
     1
1070
    44
1040
1.0
1070
    74
1070
     0
1000
MTEXTEND
  0
POINT
  5
AD1F
330
7FCD
100
AcDbEntity
  8
Defpoints
 62
     0
100
AcDbPoint
 10
453.5249854517201
 20
1279.929599903036
 30
0.0
  0
POINT
  5
AD20
330
7FCD
100
AcDbEntity
  8
Defpoints
 62
     0
100
AcDbPoint
 10
453.5249854517201
 20
1299.429599839706
 30
0.0
  0
POINT
  5
AD21
330
7FCD
100
AcDbEntity
  8
Defpoints
 62
     0
100
AcDbPoint
 10
472.5227208917888
 20
1299.429599839706
 30
0.0
  0
ENDBLK
  5
7FD8
330
7FCD
100
AcDbEntity
  8
0
100
AcDbBlockEnd
  0
BLOCK
  5
8006
330
7FFC
100
AcDbEntity
  8
0
100
AcDbBlockBegin
  2
*D10
 70
     1
 10
0.0
 20
0.0
 30
0.0
  3
*D10
  1

  0
LINE
  5
AD22
330
7FFC
100
AcDbEntity
  8
AM_5
100
AcDbLine
 10
418.5249824118834
 20
1277.36022397552
 30
0.0
 11
418.5249824118834
 21
1269.456733646632
 31
0.0
  0
LINE
  5
AD23
330
7FFC
100
AcDbEntity
  8
AM_5
100
AcDbLine
 10
434.5249824118829
 20
1277.360223975521
 30
0.0
 11
434.5249824118829
 21
1269.456733646632
 31
0.0
  0
LINE
  5
AD24
330
7FFC
100
AcDbEntity
  8
AM_5
100
AcDbLine
 10
421.5249824118834
 20
1270.956733646632
 30
0.0
 11
431.5249824118829
 21
1270.956733646632
 31
0.0
  0
SOLID
  5
AD25
330
7FFC
100
AcDbEntity
  8
AM_5
100
AcDbTrace
 10
421.5249824118834
 20
1271.456733646632
 30
0.0
 11
421.5249824118834
 21
1270.456733646632
 31
0.0
 12
418.5249824118834
 22
1270.956733646632
 32
0.0
 13
418.5249824118834
 23
1270.956733646632
 33
0.0
  0
SOLID
  5
AD26
330
7FFC
100
AcDbEntity
  8
AM_5
100
AcDbTrace
 10
431.5249824118829
 20
1271.456733646632
 30
0.0
 11
431.5249824118829
 21
1270.456733646632
 31
0.0
 12
434.5249824118829
 22
1270.956733646632
 32
0.0
 13
434.5249824118829
 23
1270.956733646632
 33
0.0
  0
MTEXT
  5
AD27
330
7FFC
100
AcDbEntity
  8
AM_5
100
AcDbMText
 10
426.5249824118832
 20
1273.406733646632
 30
0.0
 40
3.5
 41
0.0
 71
     5
 72
     1
  1
16
 73
     1
 44
1.0
1001
ACAD
1000
MTEXTBEGIN
1070
    73
1070
     1
1070
    44
1040
1.0
1070
    74
1070
     0
1000
MTEXTEND
  0
POINT
  5
AD28
330
7FFC
100
AcDbEntity
  8
Defpoints
 62
     0
100
AcDbPoint
 10
418.5249824118834
 20
1278.36022397552
 30
0.0
  0
POINT
  5
AD29
330
7FFC
100
AcDbEntity
  8
Defpoints
 62
     0
100
AcDbPoint
 10
434.5249824118829
 20
1278.360223975521
 30
0.0
  0
POINT
  5
AD2A
330
7FFC
100
AcDbEntity
  8
Defpoints
 62
     0
100
AcDbPoint
 10
434.5249824118829
 20
1270.956733646632
 30
0.0
  0
ENDBLK
  5
8007
330
7FFC
100
AcDbEntity
  8
0
100
AcDbBlockEnd
  0
BLOCK
  5
8035
330
802B
100
AcDbEntity
  8
0
100
AcDbBlockBegin
  2
*D11
 70
     1
 10
0.0
 20
0.0
 30
0.0
  3
*D11
  1

  0
LINE
  5
AD2B
330
802B
100
AcDbEntity
  8
AM_5
100
AcDbLine
 10
414.0249832761508
 20
1270.540990008105
 30
0.0
 11
414.0249832761508
 21
1262.56417057305
 31
0.0
  0
LINE
  5
AD2C
330
802B
100
AcDbEntity
  8
AM_5
100
AcDbLine
 10
439.0249817860347
 20
1270.540990008105
 30
0.0
 11
439.0249817860347
 21
1262.56417057305
 31
0.0
  0
LINE
  5
AD2D
330
802B
100
AcDbEntity
  8
AM_5
100
AcDbLine
 10
417.0249832761507
 20
1264.06417057305
 30
0.0
 11
436.0249817860347
 21
1264.06417057305
 31
0.0
  0
SOLID
  5
AD2E
330
802B
100
AcDbEntity
  8
AM_5
100
AcDbTrace
 10
417.0249832761507
 20
1264.56417057305
 30
0.0
 11
417.0249832761507
 21
1263.56417057305
 31
0.0
 12
414.0249832761508
 22
1264.06417057305
 32
0.0
 13
414.0249832761508
 23
1264.06417057305
 33
0.0
  0
SOLID
  5
AD2F
330
802B
100
AcDbEntity
  8
AM_5
100
AcDbTrace
 10
436.0249817860347
 20
1264.56417057305
 30
0.0
 11
436.0249817860347
 21
1263.56417057305
 31
0.0
 12
439.0249817860347
 22
1264.06417057305
 32
0.0
 13
439.0249817860347
 23
1264.06417057305
 33
0.0
  0
MTEXT
  5
AD30
330
802B
100
AcDbEntity
  8
AM_5
100
AcDbMText
 10
426.5249825310927
 20
1266.514515061239
 30
0.0
 40
3.5
 41
0.0
 71
     5
 72
     1
  1
25
 73
     1
 44
1.0
1001
ACAD
1000
MTEXTBEGIN
1070
    73
1070
     1
1070
    44
1040
1.0
1070
    74
1070
     0
1000
MTEXTEND
  0
POINT
  5
AD31
330
802B
100
AcDbEntity
  8
Defpoints
 62
     0
100
AcDbPoint
 10
414.0249832761508
 20
1271.540990008104
 30
0.0
  0
POINT
  5
AD32
330
802B
100
AcDbEntity
  8
Defpoints
 62
     0
100
AcDbPoint
 10
439.0249817860347
 20
1271.540990008104
 30
0.0
  0
POINT
  5
AD33
330
802B
100
AcDbEntity
  8
Defpoints
 62
     0
100
AcDbPoint
 10
439.0249817860347
 20
1264.06417057305
 30
0.0
  0
ENDBLK
  5
8036
330
802B
100
AcDbEntity
  8
0
100
AcDbBlockEnd
  0
BLOCK
  5
8064
330
805A
100
AcDbEntity
  8
0
100
AcDbBlockBegin
  2
*D12
 70
     1
 10
0.0
 20
0.0
 30
0.0
  3
*D12
  1

  0
LINE
  5
AD34
330
805A
100
AcDbEntity
  8
AM_5
100
AcDbLine
 10
410.5249821287611
 20
1279.429599984993
 30
0.0
 11
410.5249821287611
 21
1254.564170573049
 31
0.0
  0
LINE
  5
AD35
330
805A
100
AcDbEntity
  8
AM_5
100
AcDbLine
 10
442.5249817860344
 20
1279.429599984993
 30
0.0
 11
442.5249817860344
 21
1254.564170573049
 31
0.0
  0
LINE
  5
AD36
330
805A
100
AcDbEntity
  8
AM_5
100
AcDbLine
 10
413.5249821287612
 20
1256.064170573049
 30
0.0
 11
439.5249817860344
 21
1256.064170573049
 31
0.0
  0
SOLID
  5
AD37
330
805A
100
AcDbEntity
  8
AM_5
100
AcDbTrace
 10
413.5249821287612
 20
1256.564170573049
 30
0.0
 11
413.5249821287612
 21
1255.564170573049
 31
0.0
 12
410.5249821287611
 22
1256.064170573049
 32
0.0
 13
410.5249821287611
 23
1256.064170573049
 33
0.0
  0
SOLID
  5
AD38
330
805A
100
AcDbEntity
  8
AM_5
100
AcDbTrace
 10
439.5249817860344
 20
1256.564170573049
 30
0.0
 11
439.5249817860344
 21
1255.564170573049
 31
0.0
 12
442.5249817860344
 22
1256.064170573049
 32
0.0
 13
442.5249817860344
 23
1256.064170573049
 33
0.0
  0
MTEXT
  5
AD39
330
805A
100
AcDbEntity
  8
AM_5
100
AcDbMText
 10
426.5249819573978
 20
1258.514515061238
 30
0.0
 40
3.5
 41
0.0
 71
     5
 72
     1
  1
32
 73
     1
 44
1.0
1001
ACAD
1000
MTEXTBEGIN
1070
    73
1070
     1
1070
    44
1040
1.0
1070
    74
1070
     0
1000
MTEXTEND
  0
POINT
  5
AD3A
330
805A
100
AcDbEntity
  8
Defpoints
 62
     0
100
AcDbPoint
 10
410.5249821287611
 20
1280.429599984993
 30
0.0
  0
POINT
  5
AD3B
330
805A
100
AcDbEntity
  8
Defpoints
 62
     0
100
AcDbPoint
 10
442.5249817860344
 20
1280.429599984993
 30
0.0
  0
POINT
  5
AD3C
330
805A
100
AcDbEntity
  8
Defpoints
 62
     0
100
AcDbPoint
 10
442.5249817860344
 20
1256.064170573049
 30
0.0
  0
ENDBLK
  5
8065
330
805A
100
AcDbEntity
  8
0
100
AcDbBlockEnd
  0
BLOCK
  5
817E
330
8172
100
AcDbEntity
  8
0
100
AcDbBlockBegin
  2
*D13
 70
     1
 10
0.0
 20
0.0
 30
0.0
  3
*D13
  1

  0
LINE
  5
AD3D
330
8172
100
AcDbEntity
  8
AM_5
100
AcDbLine
 10
405.1426939681509
 20
1295.929599885152
 30
0.0
 11
394.8498044911481
 21
1295.929599885152
 31
0.0
  0
LINE
  5
AD3E
330
8172
100
AcDbEntity
  8
AM_5
100
AcDbLine
 10
398.5249821883658
 20
1299.429599839706
 30
0.0
 11
394.8498044911481
 21
1299.429599839706
 31
0.0
  0
LINE
  5
AD3F
330
8172
100
AcDbEntity
  8
AM_5
100
AcDbLine
 10
396.3498044911481
 20
1292.929599885152
 30
0.0
 11
396.3498044911481
 21
1289.929599885152
 31
0.0
  0
LINE
  5
AD40
330
8172
100
AcDbEntity
  8
AM_5
100
AcDbLine
 10
396.3498044911481
 20
1302.429599839707
 30
0.0
 11
396.3498044911481
 21
1311.874574586538
 31
0.0
  0
LINE
  5
AD41
330
8172
100
AcDbEntity
  8
AM_5
100
AcDbLine
 10
396.3498044911481
 20
1295.929599885152
 30
0.0
 11
396.3498044911481
 21
1299.429599839706
 31
0.0
  0
SOLID
  5
AD42
330
8172
100
AcDbEntity
  8
AM_5
100
AcDbTrace
 10
395.8498044911481
 20
1292.929599885152
 30
0.0
 11
396.8498044911481
 21
1292.929599885152
 31
0.0
 12
396.3498044911481
 22
1295.929599885152
 32
0.0
 13
396.3498044911481
 23
1295.929599885152
 33
0.0
  0
SOLID
  5
AD43
330
8172
100
AcDbEntity
  8
AM_5
100
AcDbTrace
 10
395.8498044911481
 20
1302.429599839707
 30
0.0
 11
396.8498044911481
 21
1302.429599839707
 31
0.0
 12
396.3498044911481
 22
1299.429599839706
 32
0.0
 13
396.3498044911481
 23
1299.429599839706
 33
0.0
  0
MTEXT
  5
AD44
330
8172
100
AcDbEntity
  8
AM_5
100
AcDbMText
 10
393.8998044911479
 20
1308.652087213122
 30
0.0
 40
3.5
 41
0.0
 71
     5
 72
     1
  1
3.5
 11
0.0000000000000001
 21
1.0
 31
0.0
 73
     1
 44
1.0
1001
ACAD
1000
MTEXTBEGIN
1070
    73
1070
     1
1070
    44
1040
1.0
1070
    74
1070
     0
1000
MTEXTEND
  0
POINT
  5
AD45
330
8172
100
AcDbEntity
  8
Defpoints
 62
     0
100
AcDbPoint
 10
406.1426939681509
 20
1295.929599885152
 30
0.0
  0
POINT
  5
AD46
330
8172
100
AcDbEntity
  8
Defpoints
 62
     0
100
AcDbPoint
 10
399.5249821883658
 20
1299.429599839706
 30
0.0
  0
POINT
  5
AD47
330
8172
100
AcDbEntity
  8
Defpoints
 62
     0
100
AcDbPoint
 10
396.3498044911481
 20
1299.429599839706
 30
0.0
  0
ENDBLK
  5
817F
330
8172
100
AcDbEntity
  8
0
100
AcDbBlockEnd
  0
BLOCK
  5
81A6
330
819C
100
AcDbEntity
  8
0
100
AcDbBlockBegin
  2
*D14
 70
     1
 10
0.0
 20
0.0
 30
0.0
  3
*D14
  1

  0
LINE
  5
AD48
330
819C
100
AcDbEntity
  8
AM_5
100
AcDbLine
 10
402.642693968151
 20
1293.929599885152
 30
0.0
 11
387.9168256049834
 21
1293.929599885152
 31
0.0
  0
LINE
  5
AD49
330
819C
100
AcDbEntity
  8
AM_5
100
AcDbLine
 10
398.5249821883658
 20
1299.429599839706
 30
0.0
 11
387.9168256049834
 21
1299.429599839706
 31
0.0
  0
LINE
  5
AD4A
330
819C
100
AcDbEntity
  8
AM_5
100
AcDbLine
 10
389.4168256049834
 20
1290.929599885152
 30
0.0
 11
389.4168256049834
 21
1287.929599885152
 31
0.0
  0
LINE
  5
AD4B
330
819C
100
AcDbEntity
  8
AM_5
100
AcDbLine
 10
389.4168256049834
 20
1302.429599839707
 30
0.0
 11
389.4168256049834
 21
1305.429599839707
 31
0.0
  0
LINE
  5
AD4C
330
819C
100
AcDbEntity
  8
AM_5
100
AcDbLine
 10
389.4168256049834
 20
1293.929599885152
 30
0.0
 11
389.4168256049834
 21
1299.429599839706
 31
0.0
  0
SOLID
  5
AD4D
330
819C
100
AcDbEntity
  8
AM_5
100
AcDbTrace
 10
388.9168256049834
 20
1290.929599885152
 30
0.0
 11
389.9168256049834
 21
1290.929599885152
 31
0.0
 12
389.4168256049834
 22
1293.929599885152
 32
0.0
 13
389.4168256049834
 23
1293.929599885152
 33
0.0
  0
SOLID
  5
AD4E
330
819C
100
AcDbEntity
  8
AM_5
100
AcDbTrace
 10
388.9168256049834
 20
1302.429599839707
 30
0.0
 11
389.9168256049834
 21
1302.429599839707
 31
0.0
 12
389.4168256049834
 22
1299.429599839706
 32
0.0
 13
389.4168256049834
 23
1299.429599839706
 33
0.0
  0
MTEXT
  5
AD4F
330
819C
100
AcDbEntity
  8
AM_5
100
AcDbMText
 10
386.9668256049832
 20
1296.679599862429
 30
0.0
 40
3.5
 41
0.0
 71
     5
 72
     1
  1
5.5
 11
0.0000000000000001
 21
1.0
 31
0.0
 73
     1
 44
1.0
1001
ACAD
1000
MTEXTBEGIN
1070
    73
1070
     1
1070
    44
1040
1.0
1070
    74
1070
     0
1000
MTEXTEND
  0
POINT
  5
AD50
330
819C
100
AcDbEntity
  8
Defpoints
 62
     0
100
AcDbPoint
 10
403.642693968151
 20
1293.929599885152
 30
0.0
  0
POINT
  5
AD51
330
819C
100
AcDbEntity
  8
Defpoints
 62
     0
100
AcDbPoint
 10
399.5249821883658
 20
1299.429599839706
 30
0.0
  0
POINT
  5
AD52
330
819C
100
AcDbEntity
  8
Defpoints
 62
     0
100
AcDbPoint
 10
389.4168256049834
 20
1299.429599839706
 30
0.0
  0
ENDBLK
  5
81A7
330
819C
100
AcDbEntity
  8
0
100
AcDbBlockEnd
  0
BLOCK
  5
81DD
330
81D1
100
AcDbEntity
  8
0
100
AcDbBlockBegin
  2
*D15
 70
     1
 10
0.0
 20
0.0
 30
0.0
  3
*D15
  1

  0
LINE
  5
AD53
330
81D1
100
AcDbEntity
  8
AM_5
100
AcDbLine
 10
411.6249823165158
 20
1274.629600524415
 30
0.0
 11
394.8498044911481
 21
1274.629600524415
 31
0.0
  0
LINE
  5
AD54
330
81D1
100
AcDbEntity
  8
AM_5
100
AcDbLine
 10
398.5249821883658
 20
1280.229600324739
 30
0.0
 11
394.8498044911481
 21
1280.229600324739
 31
0.0
  0
LINE
  5
AD55
330
81D1
100
AcDbEntity
  8
AM_5
100
AcDbLine
 10
396.3498044911481
 20
1271.629600524414
 30
0.0
 11
396.3498044911481
 21
1268.629600524415
 31
0.0
  0
LINE
  5
AD56
330
81D1
100
AcDbEntity
  8
AM_5
100
AcDbLine
 10
396.3498044911481
 20
1283.229600324739
 30
0.0
 11
396.3498044911481
 21
1286.229600324739
 31
0.0
  0
LINE
  5
AD57
330
81D1
100
AcDbEntity
  8
AM_5
100
AcDbLine
 10
396.3498044911481
 20
1274.629600524415
 30
0.0
 11
396.3498044911481
 21
1280.229600324739
 31
0.0
  0
SOLID
  5
AD58
330
81D1
100
AcDbEntity
  8
AM_5
100
AcDbTrace
 10
395.8498044911481
 20
1271.629600524414
 30
0.0
 11
396.8498044911481
 21
1271.629600524414
 31
0.0
 12
396.3498044911481
 22
1274.629600524415
 32
0.0
 13
396.3498044911481
 23
1274.629600524415
 33
0.0
  0
SOLID
  5
AD59
330
81D1
100
AcDbEntity
  8
AM_5
100
AcDbTrace
 10
395.8498044911481
 20
1283.229600324739
 30
0.0
 11
396.8498044911481
 21
1283.229600324739
 31
0.0
 12
396.3498044911481
 22
1280.229600324739
 32
0.0
 13
396.3498044911481
 23
1280.229600324739
 33
0.0
  0
MTEXT
  5
AD5A
330
81D1
100
AcDbEntity
  8
AM_5
100
AcDbMText
 10
393.8998044911479
 20
1277.429600424577
 30
0.0
 40
3.5
 41
0.0
 71
     5
 72
     1
  1
5.6
 11
0.0000000000000001
 21
1.0
 31
0.0
 73
     1
 44
1.0
1001
ACAD
1000
MTEXTBEGIN
1070
    73
1070
     1
1070
    44
1040
1.0
1070
    74
1070
     0
1000
MTEXTEND
  0
POINT
  5
AD5B
330
81D1
100
AcDbEntity
  8
Defpoints
 62
     0
100
AcDbPoint
 10
412.6249823165157
 20
1274.629600524415
 30
0.0
  0
POINT
  5
AD5C
330
81D1
100
AcDbEntity
  8
Defpoints
 62
     0
100
AcDbPoint
 10
399.5249821883658
 20
1280.229600324739
 30
0.0
  0
POINT
  5
AD5D
330
81D1
100
AcDbEntity
  8
Defpoints
 62
     0
100
AcDbPoint
 10
396.3498044911481
 20
1280.229600324739
 30
0.0
  0
ENDBLK
  5
81DE
330
81D1
100
AcDbEntity
  8
0
100
AcDbBlockEnd
  0
BLOCK
  5
824A
330
8240
100
AcDbEntity
  8
0
100
AcDbBlockBegin
  2
*D16
 70
     1
 10
0.0
 20
0.0
 30
0.0
  3
*D16
  1

  0
LINE
  5
AF7C
330
8240
100
AcDbEntity
  8
AM_5
100
AcDbLine
 10
450.7935447907081
 20
1208.157715796482
 30
0.0
 11
461.5561498816913
 21
1208.157715796482
 31
0.0
  0
LINE
  5
AF7D
330
8240
100
AcDbEntity
  8
AM_5
100
AcDbLine
 10
454.5249854517201
 20
1198.657715946083
 30
0.0
 11
461.5561498816913
 21
1198.657715946083
 31
0.0
  0
LINE
  5
AF7E
330
8240
100
AcDbEntity
  8
AM_5
100
AcDbLine
 10
460.0561498816913
 20
1205.157715796482
 30
0.0
 11
460.0561498816913
 21
1201.657715946083
 31
0.0
  0
SOLID
  5
AF7F
330
8240
100
AcDbEntity
  8
AM_5
100
AcDbTrace
 10
459.5561498816913
 20
1205.157715796482
 30
0.0
 11
460.5561498816913
 21
1205.157715796482
 31
0.0
 12
460.0561498816913
 22
1208.157715796482
 32
0.0
 13
460.0561498816913
 23
1208.157715796482
 33
0.0
  0
SOLID
  5
AF80
330
8240
100
AcDbEntity
  8
AM_5
100
AcDbTrace
 10
459.5561498816913
 20
1201.657715946083
 30
0.0
 11
460.5561498816913
 21
1201.657715946083
 31
0.0
 12
460.0561498816913
 22
1198.657715946083
 32
0.0
 13
460.0561498816913
 23
1198.657715946083
 33
0.0
  0
MTEXT
  5
AF81
330
8240
100
AcDbEntity
  8
AM_5
100
AcDbMText
 10
457.6061498816911
 20
1203.407715871283
 30
0.0
 40
3.5
 41
0.0
 71
     5
 72
     1
  1
9.5
 11
0.0000000000000001
 21
1.0
 31
0.0
 73
     1
 44
1.0
1001
ACAD
1000
MTEXTBEGIN
1070
    73
1070
     1
1070
    44
1040
1.0
1070
    74
1070
     0
1000
MTEXTEND
  0
POINT
  5
AF82
330
8240
100
AcDbEntity
  8
Defpoints
 62
     0
100
AcDbPoint
 10
449.7935447907081
 20
1208.157715796482
 30
0.0
  0
POINT
  5
AF83
330
8240
100
AcDbEntity
  8
Defpoints
 62
     0
100
AcDbPoint
 10
453.5249854517201
 20
1198.657715946083
 30
0.0
  0
POINT
  5
AF84
330
8240
100
AcDbEntity
  8
Defpoints
 62
     0
100
AcDbPoint
 10
460.0561498816913
 20
1198.657715946083
 30
0.0
  0
ENDBLK
  5
824B
330
8240
100
AcDbEntity
  8
0
100
AcDbBlockEnd
  0
BLOCK
  5
8270
330
8266
100
AcDbEntity
  8
0
100
AcDbBlockBegin
  2
*D17
 70
     1
 10
0.0
 20
0.0
 30
0.0
  3
*D17
  1

  0
LINE
  5
AF85
330
8266
100
AcDbEntity
  8
AM_5
100
AcDbLine
 10
448.2249824118833
 20
1205.589153417657
 30
0.0
 11
448.2249824118833
 21
1185.157346010197
 31
0.0
  0
LINE
  5
AF86
330
8266
100
AcDbEntity
  8
AM_5
100
AcDbLine
 10
404.8249824118832
 20
1205.589153417657
 30
0.0
 11
404.8249824118832
 21
1185.157346010197
 31
0.0
  0
LINE
  5
AF87
330
8266
100
AcDbEntity
  8
AM_5
100
AcDbLine
 10
445.2249824118833
 20
1186.657346010197
 30
0.0
 11
407.8249824118833
 21
1186.657346010197
 31
0.0
  0
SOLID
  5
AF88
330
8266
100
AcDbEntity
  8
AM_5
100
AcDbTrace
 10
445.2249824118833
 20
1187.157346010198
 30
0.0
 11
445.2249824118833
 21
1186.157346010197
 31
0.0
 12
448.2249824118833
 22
1186.657346010197
 32
0.0
 13
448.2249824118833
 23
1186.657346010197
 33
0.0
  0
SOLID
  5
AF89
330
8266
100
AcDbEntity
  8
AM_5
100
AcDbTrace
 10
407.8249824118833
 20
1187.157346010198
 30
0.0
 11
407.8249824118833
 21
1186.157346010197
 31
0.0
 12
404.8249824118832
 22
1186.657346010197
 32
0.0
 13
404.8249824118832
 23
1186.657346010197
 33
0.0
  0
MTEXT
  5
AF8A
330
8266
100
AcDbEntity
  8
AM_5
100
AcDbMText
 10
426.5249824118833
 20
1189.107346010197
 30
0.0
 40
3.5
 41
0.0
 71
     5
 72
     1
  1
43.4
 73
     1
 44
1.0
1001
ACAD
1000
MTEXTBEGIN
1070
    73
1070
     1
1070
    44
1040
1.0
1070
    74
1070
     0
1000
MTEXTEND
  0
POINT
  5
AF8B
330
8266
100
AcDbEntity
  8
Defpoints
 62
     0
100
AcDbPoint
 10
448.2249824118833
 20
1206.589153417657
 30
0.0
  0
POINT
  5
AF8C
330
8266
100
AcDbEntity
  8
Defpoints
 62
     0
100
AcDbPoint
 10
404.8249824118832
 20
1206.589153417657
 30
0.0
  0
POINT
  5
AF8D
330
8266
100
AcDbEntity
  8
Defpoints
 62
     0
100
AcDbPoint
 10
404.8249824118832
 20
1186.657346010197
 30
0.0
  0
ENDBLK
  5
8271
330
8266
100
AcDbEntity
  8
0
100
AcDbBlockEnd
  0
BLOCK
  5
8298
330
828C
100
AcDbEntity
  8
0
100
AcDbBlockBegin
  2
*D18
 70
     1
 10
0.0
 20
0.0
 30
0.0
  3
*D18
  1

  0
LINE
  5
AF8E
330
828C
100
AcDbEntity
  8
AM_5
100
AcDbLine
 10
410.3490136144731
 20
1215.257715796482
 30
0.0
 11
395.9157786995707
 21
1215.257715796482
 31
0.0
  0
LINE
  5
AF8F
330
828C
100
AcDbEntity
  8
AM_5
100
AcDbLine
 10
398.5249821883658
 20
1212.1577158306
 30
0.0
 11
395.9157786995707
 21
1212.1577158306
 31
0.0
  0
LINE
  5
AF90
330
828C
100
AcDbEntity
  8
AM_5
100
AcDbLine
 10
397.4157786995706
 20
1209.157715830599
 30
0.0
 11
397.4157786995706
 21
1206.1577158306
 31
0.0
  0
LINE
  5
AF91
330
828C
100
AcDbEntity
  8
AM_5
100
AcDbLine
 10
397.4157786995706
 20
1218.257715796482
 30
0.0
 11
397.4157786995706
 21
1226.857715796482
 31
0.0
  0
LINE
  5
AF92
330
828C
100
AcDbEntity
  8
AM_5
100
AcDbLine
 10
397.4157786995706
 20
1212.1577158306
 30
0.0
 11
397.4157786995706
 21
1215.257715796482
 31
0.0
  0
SOLID
  5
AF93
330
828C
100
AcDbEntity
  8
AM_5
100
AcDbTrace
 10
396.9157786995706
 20
1209.157715830599
 30
0.0
 11
397.9157786995707
 21
1209.157715830599
 31
0.0
 12
397.4157786995706
 22
1212.1577158306
 32
0.0
 13
397.4157786995706
 23
1212.1577158306
 33
0.0
  0
SOLID
  5
AF94
330
828C
100
AcDbEntity
  8
AM_5
100
AcDbTrace
 10
396.9157786995706
 20
1218.257715796482
 30
0.0
 11
397.9157786995707
 21
1218.257715796482
 31
0.0
 12
397.4157786995706
 22
1215.257715796482
 32
0.0
 13
397.4157786995706
 23
1215.257715796482
 33
0.0
  0
MTEXT
  5
AF95
330
828C
100
AcDbEntity
  8
AM_5
100
AcDbMText
 10
394.9657786995704
 20
1224.057715796482
 30
0.0
 40
3.5
 41
0.0
 71
     5
 72
     1
  1
3.1
 11
0.0000000000000001
 21
1.0
 31
0.0
 73
     1
 44
1.0
1001
ACAD
1000
MTEXTBEGIN
1070
    73
1070
     1
1070
    44
1040
1.0
1070
    74
1070
     0
1000
MTEXTEND
  0
POINT
  5
AF96
330
828C
100
AcDbEntity
  8
Defpoints
 62
     0
100
AcDbPoint
 10
411.3490136144731
 20
1215.257715796482
 30
0.0
  0
POINT
  5
AF97
330
828C
100
AcDbEntity
  8
Defpoints
 62
     0
100
AcDbPoint
 10
399.5249821883658
 20
1212.1577158306
 30
0.0
  0
POINT
  5
AF98
330
828C
100
AcDbEntity
  8
Defpoints
 62
     0
100
AcDbPoint
 10
397.4157786995706
 20
1212.1577158306
 30
0.0
  0
ENDBLK
  5
8299
330
828C
100
AcDbEntity
  8
0
100
AcDbBlockEnd
  0
BLOCK
  5
82C2
330
82B6
100
AcDbEntity
  8
0
100
AcDbBlockBegin
  2
*D19
 70
     1
 10
0.0
 20
0.0
 30
0.0
  3
*D19
  1

  0
LINE
  5
AF99
330
82B6
100
AcDbEntity
  8
AM_5
100
AcDbLine
 10
409.6249819588879
 20
1218.757716260498
 30
0.0
 11
390.2056497508529
 21
1218.757716260498
 31
0.0
  0
LINE
  5
AF9A
330
82B6
100
AcDbEntity
  8
AM_5
100
AcDbLine
 10
398.5249821883658
 20
1212.1577158306
 30
0.0
 11
390.2056497508529
 21
1212.1577158306
 31
0.0
  0
LINE
  5
AF9B
330
82B6
100
AcDbEntity
  8
AM_5
100
AcDbLine
 10
391.7056497508529
 20
1221.757716260498
 30
0.0
 11
391.7056497508529
 21
1224.757716260498
 31
0.0
  0
LINE
  5
AF9C
330
82B6
100
AcDbEntity
  8
AM_5
100
AcDbLine
 10
391.7056497508529
 20
1209.157715830599
 30
0.0
 11
391.7056497508529
 21
1206.1577158306
 31
0.0
  0
LINE
  5
AF9D
330
82B6
100
AcDbEntity
  8
AM_5
100
AcDbLine
 10
391.7056497508529
 20
1218.757716260498
 30
0.0
 11
391.7056497508529
 21
1212.1577158306
 31
0.0
  0
SOLID
  5
AF9E
330
82B6
100
AcDbEntity
  8
AM_5
100
AcDbTrace
 10
391.2056497508529
 20
1221.757716260498
 30
0.0
 11
392.2056497508529
 21
1221.757716260498
 31
0.0
 12
391.7056497508529
 22
1218.757716260498
 32
0.0
 13
391.7056497508529
 23
1218.757716260498
 33
0.0
  0
SOLID
  5
AF9F
330
82B6
100
AcDbEntity
  8
AM_5
100
AcDbTrace
 10
391.2056497508529
 20
1209.157715830599
 30
0.0
 11
392.2056497508529
 21
1209.157715830599
 31
0.0
 12
391.7056497508529
 22
1212.1577158306
 32
0.0
 13
391.7056497508529
 23
1212.1577158306
 33
0.0
  0
MTEXT
  5
AFA0
330
82B6
100
AcDbEntity
  8
AM_5
100
AcDbMText
 10
389.2556497508527
 20
1215.457716045549
 30
0.0
 40
3.5
 41
0.0
 71
     5
 72
     1
  1
6.6
 11
0.0000000000000001
 21
1.0
 31
0.0
 73
     1
 44
1.0
1001
ACAD
1000
MTEXTBEGIN
1070
    73
1070
     1
1070
    44
1040
1.0
1070
    74
1070
     0
1000
MTEXTEND
  0
POINT
  5
AFA1
330
82B6
100
AcDbEntity
  8
Defpoints
 62
     0
100
AcDbPoint
 10
410.6249819588879
 20
1218.757716260498
 30
0.0
  0
POINT
  5
AFA2
330
82B6
100
AcDbEntity
  8
Defpoints
 62
     0
100
AcDbPoint
 10
399.5249821883658
 20
1212.1577158306
 30
0.0
  0
POINT
  5
AFA3
330
82B6
100
AcDbEntity
  8
Defpoints
 62
     0
100
AcDbPoint
 10
391.7056497508529
 20
1212.1577158306
 30
0.0
  0
ENDBLK
  5
82C3
330
82B6
100
AcDbEntity
  8
0
100
AcDbBlockEnd
  0
BLOCK
  5
82EC
330
82E0
100
AcDbEntity
  8
0
100
AcDbBlockBegin
  2
*D20
 70
     1
 10
0.0
 20
0.0
 30
0.0
  3
*D20
  1

  0
LINE
  5
AFAF
330
82E0
100
AcDbEntity
  8
AM_5
100
AcDbLine
 10
424.2749809366684
 20
1227.457715287452
 30
0.0
 11
424.2749809366684
 21
1234.356175409134
 31
0.0
  0
LINE
  5
AFB0
330
82E0
100
AcDbEntity
  8
AM_5
100
AcDbLine
 10
428.7749809366685
 20
1227.657714947706
 30
0.0
 11
428.7749809366685
 21
1234.356175409134
 31
0.0
  0
LINE
  5
AFB1
330
82E0
100
AcDbEntity
  8
AM_5
100
AcDbLine
 10
431.7749809366684
 20
1232.856175409134
 30
0.0
 11
434.7749809366685
 21
1232.856175409134
 31
0.0
  0
LINE
  5
AFB2
330
82E0
100
AcDbEntity
  8
AM_5
100
AcDbLine
 10
421.2749809366685
 20
1232.856175409134
 30
0.0
 11
411.3656778070223
 21
1232.856175409134
 31
0.0
  0
LINE
  5
AFB3
330
82E0
100
AcDbEntity
  8
AM_5
100
AcDbLine
 10
428.7749809366685
 20
1232.856175409134
 30
0.0
 11
424.2749809366684
 21
1232.856175409134
 31
0.0
  0
SOLID
  5
AFB4
330
82E0
100
AcDbEntity
  8
AM_5
100
AcDbTrace
 10
431.7749809366684
 20
1233.356175409134
 30
0.0
 11
431.7749809366684
 21
1232.356175409134
 31
0.0
 12
428.7749809366685
 22
1232.856175409134
 32
0.0
 13
428.7749809366685
 23
1232.856175409134
 33
0.0
  0
SOLID
  5
AFB5
330
82E0
100
AcDbEntity
  8
AM_5
100
AcDbTrace
 10
421.2749809366685
 20
1233.356175409134
 30
0.0
 11
421.2749809366685
 21
1232.356175409134
 31
0.0
 12
424.2749809366684
 22
1232.856175409134
 32
0.0
 13
424.2749809366684
 23
1232.856175409134
 33
0.0
  0
MTEXT
  5
AFB6
330
82E0
100
AcDbEntity
  8
AM_5
100
AcDbMText
 10
414.7631651804375
 20
1235.306175409134
 30
0.0
 40
3.5
 41
0.0
 71
     5
 72
     1
  1
4.5
 73
     1
 44
1.0
1001
ACAD
1000
MTEXTBEGIN
1070
    73
1070
     1
1070
    44
1040
1.0
1070
    74
1070
     0
1000
MTEXTEND
  0
POINT
  5
AFB7
330
82E0
100
AcDbEntity
  8
Defpoints
 62
     0
100
AcDbPoint
 10
424.2749809366684
 20
1226.457715287452
 30
0.0
  0
POINT
  5
AFB8
330
82E0
100
AcDbEntity
  8
Defpoints
 62
     0
100
AcDbPoint
 10
428.7749809366685
 20
1226.657714947706
 30
0.0
  0
POINT
  5
AFB9
330
82E0
100
AcDbEntity
  8
Defpoints
 62
     0
100
AcDbPoint
 10
428.7749809366685
 20
1232.856175409134
 30
0.0
  0
ENDBLK
  5
82ED
330
82E0
100
AcDbEntity
  8
0
100
AcDbBlockEnd
  0
BLOCK
  5
832E
330
8324
100
AcDbEntity
  8
0
100
AcDbBlockBegin
  2
*D21
 70
     1
 10
0.0
 20
0.0
 30
0.0
  3
*D21
  1

  0
LINE
  5
AD91
330
8324
100
AcDbEntity
  8
AM_5
100
AcDbLine
 10
347.7867248435193
 20
1300.129599883665
 30
0.0
 11
347.7867248435193
 21
1307.097098101365
 31
0.0
  0
LINE
  5
AD92
330
8324
100
AcDbEntity
  8
AM_5
100
AcDbLine
 10
361.2867247280353
 20
1300.129599883665
 30
0.0
 11
361.2867247280353
 21
1307.097098101365
 31
0.0
  0
LINE
  5
AD93
330
8324
100
AcDbEntity
  8
AM_5
100
AcDbLine
 10
350.7867248435193
 20
1305.597098101365
 30
0.0
 11
358.2867247280353
 21
1305.597098101365
 31
0.0
  0
SOLID
  5
AD94
330
8324
100
AcDbEntity
  8
AM_5
100
AcDbTrace
 10
350.7867248435193
 20
1306.097098101365
 30
0.0
 11
350.7867248435193
 21
1305.097098101365
 31
0.0
 12
347.7867248435193
 22
1305.597098101365
 32
0.0
 13
347.7867248435193
 23
1305.597098101365
 33
0.0
  0
SOLID
  5
AD95
330
8324
100
AcDbEntity
  8
AM_5
100
AcDbTrace
 10
358.2867247280353
 20
1306.097098101365
 30
0.0
 11
358.2867247280353
 21
1305.097098101365
 31
0.0
 12
361.2867247280353
 22
1305.597098101365
 32
0.0
 13
361.2867247280353
 23
1305.597098101365
 33
0.0
  0
MTEXT
  5
AD96
330
8324
100
AcDbEntity
  8
AM_5
100
AcDbMText
 10
354.5367247857773
 20
1308.047098101365
 30
0.0
 40
3.5
 41
0.0
 71
     5
 72
     1
  1
13.5
 73
     1
 44
1.0
1001
ACAD
1000
MTEXTBEGIN
1070
    73
1070
     1
1070
    44
1040
1.0
1070
    74
1070
     0
1000
MTEXTEND
  0
POINT
  5
AD97
330
8324
100
AcDbEntity
  8
Defpoints
 62
     0
100
AcDbPoint
 10
347.7867248435193
 20
1299.129599883665
 30
0.0
  0
POINT
  5
AD98
330
8324
100
AcDbEntity
  8
Defpoints
 62
     0
100
AcDbPoint
 10
361.2867247280353
 20
1299.129599883665
 30
0.0
  0
POINT
  5
AD99
330
8324
100
AcDbEntity
  8
Defpoints
 62
     0
100
AcDbPoint
 10
361.2867247280353
 20
1305.597098101365
 30
0.0
  0
ENDBLK
  5
832F
330
8324
100
AcDbEntity
  8
0
100
AcDbBlockEnd
  0
BLOCK
  5
837E
330
8374
100
AcDbEntity
  8
0
100
AcDbBlockBegin
  2
*D22
 70
     1
 10
0.0
 20
0.0
 30
0.0
  3
*D22
  1

  0
LINE
  5
AFE5
330
8374
100
AcDbEntity
  8
AM_5
100
AcDbLine
 10
333.2867249292012
 20
1297.229599763505
 30
0.0
 11
333.2867249292012
 21
1307.097098101365
 31
0.0
  0
LINE
  5
AFE6
330
8374
100
AcDbEntity
  8
AM_5
100
AcDbLine
 10
339.786724929201
 20
1306.929599835981
 30
0.0
 11
339.786724929201
 21
1304.097098101365
 31
0.0
  0
LINE
  5
AFE7
330
8374
100
AcDbEntity
  8
AM_5
100
AcDbLine
 10
330.2867249292012
 20
1305.597098101365
 30
0.0
 11
327.2867249292013
 21
1305.597098101365
 31
0.0
  0
LINE
  5
AFE8
330
8374
100
AcDbEntity
  8
AM_5
100
AcDbLine
 10
342.786724929201
 20
1305.597098101365
 30
0.0
 11
345.786724929201
 21
1305.597098101365
 31
0.0
  0
LINE
  5
AFE9
330
8374
100
AcDbEntity
  8
AM_5
100
AcDbLine
 10
333.2867249292012
 20
1305.597098101365
 30
0.0
 11
339.786724929201
 21
1305.597098101365
 31
0.0
  0
SOLID
  5
AFEA
330
8374
100
AcDbEntity
  8
AM_5
100
AcDbTrace
 10
330.2867249292012
 20
1306.097098101365
 30
0.0
 11
330.2867249292012
 21
1305.097098101365
 31
0.0
 12
333.2867249292012
 22
1305.597098101365
 32
0.0
 13
333.2867249292012
 23
1305.597098101365
 33
0.0
  0
INSERT
  5
AFEB
330
8374
100
AcDbEntity
  8
AM_5
100
AcDbBlockReference
  2
GENDOT
 10
339.786724929201
 20
1305.597098101365
 30
0.0
 41
3.0
 42
3.0
 43
3.0
 50
180.0
  0
MTEXT
  5
AFEC
330
8374
100
AcDbEntity
  8
AM_5
100
AcDbMText
 10
336.5367249292011
 20
1308.047098101365
 30
0.0
 40
3.5
 41
0.0
 71
     5
 72
     1
  1
6.5
 73
     1
 44
1.0
1001
ACAD
1000
MTEXTBEGIN
1070
    73
1070
     1
1070
    44
1040
1.0
1070
    74
1070
     0
1000
MTEXTEND
  0
POINT
  5
AFED
330
8374
100
AcDbEntity
  8
Defpoints
 62
     0
100
AcDbPoint
 10
333.2867249292012
 20
1296.229599763505
 30
0.0
  0
POINT
  5
AFEE
330
8374
100
AcDbEntity
  8
Defpoints
 62
     0
100
AcDbPoint
 10
339.786724929201
 20
1307.929599835981
 30
0.0
  0
POINT
  5
AFEF
330
8374
100
AcDbEntity
  8
Defpoints
 62
     0
100
AcDbPoint
 10
339.786724929201
 20
1305.597098101365
 30
0.0
  0
ENDBLK
  5
837F
330
8374
100
AcDbEntity
  8
0
100
AcDbBlockEnd
  0
BLOCK
  5
8398
330
838C
100
AcDbEntity
  8
0
100
AcDbBlockBegin
  2
*D23
 70
     1
 10
0.0
 20
0.0
 30
0.0
  3
*D23
  1

  0
LINE
  5
ADA5
330
838C
100
AcDbEntity
  8
AM_5
100
AcDbLine
 10
345.7867249813553
 20
1302.729600123574
 30
0.0
 11
345.7867249813553
 21
1307.097098101365
 31
0.0
  0
LINE
  5
ADA6
330
838C
100
AcDbEntity
  8
AM_5
100
AcDbLine
 10
339.786724929201
 20
1302.729600123573
 30
0.0
 11
339.786724929201
 21
1307.097098101365
 31
0.0
  0
LINE
  5
ADA7
330
838C
100
AcDbEntity
  8
AM_5
100
AcDbLine
 10
348.7867249813553
 20
1305.597098101365
 30
0.0
 11
351.7867249813553
 21
1305.597098101365
 31
0.0
  0
LINE
  5
ADA8
330
838C
100
AcDbEntity
  8
AM_5
100
AcDbLine
 10
336.786724929201
 20
1305.597098101365
 30
0.0
 11
333.786724929201
 21
1305.597098101365
 31
0.0
  0
LINE
  5
ADA9
330
838C
100
AcDbEntity
  8
AM_5
100
AcDbLine
 10
345.7867249813553
 20
1305.597098101365
 30
0.0
 11
339.786724929201
 21
1305.597098101365
 31
0.0
  0
SOLID
  5
ADAA
330
838C
100
AcDbEntity
  8
AM_5
100
AcDbTrace
 10
348.7867249813553
 20
1306.097098101365
 30
0.0
 11
348.7867249813553
 21
1305.097098101365
 31
0.0
 12
345.7867249813553
 22
1305.597098101365
 32
0.0
 13
345.7867249813553
 23
1305.597098101365
 33
0.0
  0
SOLID
  5
ADAB
330
838C
100
AcDbEntity
  8
AM_5
100
AcDbTrace
 10
336.786724929201
 20
1306.097098101365
 30
0.0
 11
336.786724929201
 21
1305.097098101365
 31
0.0
 12
339.786724929201
 22
1305.597098101365
 32
0.0
 13
339.786724929201
 23
1305.597098101365
 33
0.0
  0
MTEXT
  5
ADAC
330
838C
100
AcDbEntity
  8
AM_5
100
AcDbMText
 10
342.7867249552781
 20
1308.047098101365
 30
0.0
 40
3.5
 41
0.0
 71
     5
 72
     1
  1
6
 73
     1
 44
1.0
1001
ACAD
1000
MTEXTBEGIN
1070
    73
1070
     1
1070
    44
1040
1.0
1070
    74
1070
     0
1000
MTEXTEND
  0
POINT
  5
ADAD
330
838C
100
AcDbEntity
  8
Defpoints
 62
     0
100
AcDbPoint
 10
345.7867249813553
 20
1301.729600123574
 30
0.0
  0
POINT
  5
ADAE
330
838C
100
AcDbEntity
  8
Defpoints
 62
     0
100
AcDbPoint
 10
339.786724929201
 20
1301.729600123574
 30
0.0
  0
POINT
  5
ADAF
330
838C
100
AcDbEntity
  8
Defpoints
 62
     0
100
AcDbPoint
 10
339.786724929201
 20
1305.597098101365
 30
0.0
  0
ENDBLK
  5
8399
330
838C
100
AcDbEntity
  8
0
100
AcDbBlockEnd
  0
BLOCK
  5
83AB
330
83A8
100
AcDbEntity
  8
0
100
AcDbBlockBegin
  2
GENDOT
 70
     0
 10
0.0
 20
0.0
 30
0.0
  3
GENDOT
  1

  0
LINE
  5
83A9
330
83A8
100
AcDbEntity
  8
0
100
AcDbLine
 10
0.0
 20
0.0
 30
0.0
 11
-1.0
 21
0.0
 31
0.0
  0
LWPOLYLINE
  5
83AA
330
83A8
100
AcDbEntity
  8
0
100
AcDbPolyline
 90
        2
 70
     1
 43
0.25
 10
-0.125
 20
0.0
 42
1.0
 10
0.125
 20
0.0
 42
1.0
  0
ENDBLK
  5
83AC
330
83A8
100
AcDbEntity
  8
0
100
AcDbBlockEnd
  0
BLOCK
  5
83E5
330
83DB
100
AcDbEntity
  8
0
100
AcDbBlockBegin
  2
*D25
 70
     1
 10
0.0
 20
0.0
 30
0.0
  3
*D25
  1

  0
LINE
  5
AFDC
330
83DB
100
AcDbEntity
  8
AM_5
100
AcDbLine
 10
333.2867249292012
 20
1297.229599763505
 30
0.0
 11
333.2867249292012
 21
1314.876606811137
 31
0.0
  0
LINE
  5
AFDD
330
83DB
100
AcDbEntity
  8
AM_5
100
AcDbLine
 10
361.2867247280353
 20
1300.129599883665
 30
0.0
 11
361.2867247280353
 21
1314.876606811137
 31
0.0
  0
LINE
  5
AFDE
330
83DB
100
AcDbEntity
  8
AM_5
100
AcDbLine
 10
336.2867249292012
 20
1313.376606811137
 30
0.0
 11
358.2867247280353
 21
1313.376606811137
 31
0.0
  0
SOLID
  5
AFDF
330
83DB
100
AcDbEntity
  8
AM_5
100
AcDbTrace
 10
336.2867249292012
 20
1313.876606811137
 30
0.0
 11
336.2867249292012
 21
1312.876606811137
 31
0.0
 12
333.2867249292012
 22
1313.376606811137
 32
0.0
 13
333.2867249292012
 23
1313.376606811137
 33
0.0
  0
SOLID
  5
AFE0
330
83DB
100
AcDbEntity
  8
AM_5
100
AcDbTrace
 10
358.2867247280353
 20
1313.876606811137
 30
0.0
 11
358.2867247280353
 21
1312.876606811137
 31
0.0
 12
361.2867247280353
 22
1313.376606811137
 32
0.0
 13
361.2867247280353
 23
1313.376606811137
 33
0.0
  0
MTEXT
  5
AFE1
330
83DB
100
AcDbEntity
  8
AM_5
100
AcDbMText
 10
347.2867252272242
 20
1315.826951299326
 30
0.0
 40
3.5
 41
0.0
 71
     5
 72
     1
  1
28
 73
     1
 44
1.0
1001
ACAD
1000
MTEXTBEGIN
1070
    73
1070
     1
1070
    44
1040
1.0
1070
    74
1070
     0
1000
MTEXTEND
  0
POINT
  5
AFE2
330
83DB
100
AcDbEntity
  8
Defpoints
 62
     0
100
AcDbPoint
 10
333.2867249292012
 20
1296.229599763505
 30
0.0
  0
POINT
  5
AFE3
330
83DB
100
AcDbEntity
  8
Defpoints
 62
     0
100
AcDbPoint
 10
361.2867247280353
 20
1299.129599883665
 30
0.0
  0
POINT
  5
AFE4
330
83DB
100
AcDbEntity
  8
Defpoints
 62
     0
100
AcDbPoint
 10
361.2867247280353
 20
1313.376606811137
 30
0.0
  0
ENDBLK
  5
83E6
330
83DB
100
AcDbEntity
  8
0
100
AcDbBlockEnd
  0
BLOCK
  5
8438
330
842C
100
AcDbEntity
  8
0
100
AcDbBlockBegin
  2
*D26
 70
     1
 10
0.0
 20
0.0
 30
0.0
  3
*D26
  1

  0
LINE
  5
ADB9
330
842C
100
AcDbEntity
  8
AM_5
100
AcDbLine
 10
358.8867248776367
 20
1282.129599885152
 30
0.0
 11
371.2616974639057
 21
1282.129599885152
 31
0.0
  0
LINE
  5
ADBA
330
842C
100
AcDbEntity
  8
AM_5
100
AcDbLine
 10
361.986725237655
 20
1279.929599903036
 30
0.0
 11
371.2616974639057
 21
1279.929599903036
 31
0.0
  0
LINE
  5
ADBB
330
842C
100
AcDbEntity
  8
AM_5
100
AcDbLine
 10
369.7616974639057
 20
1276.929599903036
 30
0.0
 11
369.7616974639057
 21
1273.929599903036
 31
0.0
  0
LINE
  5
ADBC
330
842C
100
AcDbEntity
  8
AM_5
100
AcDbLine
 10
369.7616974639057
 20
1285.129599885152
 30
0.0
 11
369.7616974639057
 21
1294.728684530822
 31
0.0
  0
LINE
  5
ADBD
330
842C
100
AcDbEntity
  8
AM_5
100
AcDbLine
 10
369.7616974639057
 20
1279.929599903036
 30
0.0
 11
369.7616974639057
 21
1282.129599885152
 31
0.0
  0
SOLID
  5
ADBE
330
842C
100
AcDbEntity
  8
AM_5
100
AcDbTrace
 10
369.2616974639057
 20
1276.929599903036
 30
0.0
 11
370.2616974639056
 21
1276.929599903036
 31
0.0
 12
369.7616974639057
 22
1279.929599903036
 32
0.0
 13
369.7616974639057
 23
1279.929599903036
 33
0.0
  0
SOLID
  5
ADBF
330
842C
100
AcDbEntity
  8
AM_5
100
AcDbTrace
 10
369.2616974639057
 20
1285.129599885152
 30
0.0
 11
370.2616974639056
 21
1285.129599885152
 31
0.0
 12
369.7616974639057
 22
1282.129599885152
 32
0.0
 13
369.7616974639057
 23
1282.129599885152
 33
0.0
  0
MTEXT
  5
ADC0
330
842C
100
AcDbEntity
  8
AM_5
100
AcDbMText
 10
367.3113529757164
 20
1291.429142207987
 30
0.0
 40
3.5
 41
0.0
 71
     5
 72
     1
  1
2.2
 11
0.0000000000000001
 21
1.0
 31
0.0
 73
     1
 44
1.0
1001
ACAD
1000
MTEXTBEGIN
1070
    73
1070
     1
1070
    44
1040
1.0
1070
    74
1070
     0
1000
MTEXTEND
  0
POINT
  5
ADC1
330
842C
100
AcDbEntity
  8
Defpoints
 62
     0
100
AcDbPoint
 10
357.8867248776368
 20
1282.129599885152
 30
0.0
  0
POINT
  5
ADC2
330
842C
100
AcDbEntity
  8
Defpoints
 62
     0
100
AcDbPoint
 10
360.986725237655
 20
1279.929599903036
 30
0.0
  0
POINT
  5
ADC3
330
842C
100
AcDbEntity
  8
Defpoints
 62
     0
100
AcDbPoint
 10
369.7616974639057
 20
1279.929599903036
 30
0.0
  0
ENDBLK
  5
8439
330
842C
100
AcDbEntity
  8
0
100
AcDbBlockEnd
  0
BLOCK
  5
8462
330
8456
100
AcDbEntity
  8
0
100
AcDbBlockBegin
  2
*D27
 70
     1
 10
0.0
 20
0.0
 30
0.0
  3
*D27
  1

  0
LINE
  5
ADC4
330
8456
100
AcDbEntity
  8
AM_5
100
AcDbLine
 10
357.8867248776368
 20
1281.129599885152
 30
0.0
 11
357.8867248776368
 21
1267.744716427408
 31
0.0
  0
LINE
  5
ADC5
330
8456
100
AcDbEntity
  8
AM_5
100
AcDbLine
 10
361.2867247280353
 20
1279.229600324739
 30
0.0
 11
361.2867247280353
 21
1267.744716427408
 31
0.0
  0
LINE
  5
ADC6
330
8456
100
AcDbEntity
  8
AM_5
100
AcDbLine
 10
354.8867248776368
 20
1269.244716427408
 30
0.0
 11
351.8867248776368
 21
1269.244716427408
 31
0.0
  0
LINE
  5
ADC7
330
8456
100
AcDbEntity
  8
AM_5
100
AcDbLine
 10
364.2867247280353
 20
1269.244716427408
 30
0.0
 11
373.9367247280354
 21
1269.244716427408
 31
0.0
  0
LINE
  5
ADC8
330
8456
100
AcDbEntity
  8
AM_5
100
AcDbLine
 10
357.8867248776368
 20
1269.244716427408
 30
0.0
 11
361.2867247280353
 21
1269.244716427408
 31
0.0
  0
SOLID
  5
ADC9
330
8456
100
AcDbEntity
  8
AM_5
100
AcDbTrace
 10
354.8867248776368
 20
1269.744716427408
 30
0.0
 11
354.8867248776368
 21
1268.744716427408
 31
0.0
 12
357.8867248776368
 22
1269.244716427408
 32
0.0
 13
357.8867248776368
 23
1269.244716427408
 33
0.0
  0
SOLID
  5
ADCA
330
8456
100
AcDbEntity
  8
AM_5
100
AcDbTrace
 10
364.2867247280353
 20
1269.744716427408
 30
0.0
 11
364.2867247280353
 21
1268.744716427408
 31
0.0
 12
361.2867247280353
 22
1269.244716427408
 32
0.0
 13
361.2867247280353
 23
1269.244716427408
 33
0.0
  0
MTEXT
  5
ADCB
330
8456
100
AcDbEntity
  8
AM_5
100
AcDbMText
 10
370.6117247280354
 20
1271.694716427408
 30
0.0
 40
3.5
 41
0.0
 71
     5
 72
     1
  1
3.4
 73
     1
 44
1.0
1001
ACAD
1000
MTEXTBEGIN
1070
    73
1070
     1
1070
    44
1040
1.0
1070
    74
1070
     0
1000
MTEXTEND
  0
POINT
  5
ADCC
330
8456
100
AcDbEntity
  8
Defpoints
 62
     0
100
AcDbPoint
 10
357.8867248776368
 20
1282.129599885152
 30
0.0
  0
POINT
  5
ADCD
330
8456
100
AcDbEntity
  8
Defpoints
 62
     0
100
AcDbPoint
 10
361.2867247280353
 20
1280.229600324739
 30
0.0
  0
POINT
  5
ADCE
330
8456
100
AcDbEntity
  8
Defpoints
 62
     0
100
AcDbPoint
 10
361.2867247280353
 20
1269.244716427408
 30
0.0
  0
ENDBLK
  5
8463
330
8456
100
AcDbEntity
  8
0
100
AcDbBlockEnd
  0
BLOCK
  5
848C
330
8480
100
AcDbEntity
  8
0
100
AcDbBlockBegin
  2
*D28
 70
     1
 10
0.0
 20
0.0
 30
0.0
  3
*D28
  1

  0
LINE
  5
ADCF
330
8480
100
AcDbEntity
  8
AM_5
100
AcDbLine
 10
339.786724929201
 20
1285.029600018148
 30
0.0
 11
339.786724929201
 21
1267.744716427408
 31
0.0
  0
LINE
  5
ADD0
330
8480
100
AcDbEntity
  8
AM_5
100
AcDbLine
 10
341.1867244136208
 20
1279.429599984993
 30
0.0
 11
341.1867244136208
 21
1267.744716427408
 31
0.0
  0
LINE
  5
ADD1
330
8480
100
AcDbEntity
  8
AM_5
100
AcDbLine
 10
344.1867244136208
 20
1269.244716427408
 30
0.0
 11
347.1867244136208
 21
1269.244716427408
 31
0.0
  0
LINE
  5
ADD2
330
8480
100
AcDbEntity
  8
AM_5
100
AcDbLine
 10
336.786724929201
 20
1269.244716427408
 30
0.0
 11
327.836724929201
 21
1269.244716427408
 31
0.0
  0
LINE
  5
ADD3
330
8480
100
AcDbEntity
  8
AM_5
100
AcDbLine
 10
341.1867244136208
 20
1269.244716427408
 30
0.0
 11
339.786724929201
 21
1269.244716427408
 31
0.0
  0
SOLID
  5
ADD4
330
8480
100
AcDbEntity
  8
AM_5
100
AcDbTrace
 10
344.1867244136208
 20
1269.744716427408
 30
0.0
 11
344.1867244136208
 21
1268.744716427408
 31
0.0
 12
341.1867244136208
 22
1269.244716427408
 32
0.0
 13
341.1867244136208
 23
1269.244716427408
 33
0.0
  0
SOLID
  5
ADD5
330
8480
100
AcDbEntity
  8
AM_5
100
AcDbTrace
 10
336.786724929201
 20
1269.744716427408
 30
0.0
 11
336.786724929201
 21
1268.744716427408
 31
0.0
 12
339.786724929201
 22
1269.244716427408
 32
0.0
 13
339.786724929201
 23
1269.244716427408
 33
0.0
  0
MTEXT
  5
ADD6
330
8480
100
AcDbEntity
  8
AM_5
100
AcDbMText
 10
330.811724929201
 20
1271.694716427408
 30
0.0
 40
3.5
 41
0.0
 71
     5
 72
     1
  1
1.4
 73
     1
 44
1.0
1001
ACAD
1000
MTEXTBEGIN
1070
    73
1070
     1
1070
    44
1040
1.0
1070
    74
1070
     0
1000
MTEXTEND
  0
POINT
  5
ADD7
330
8480
100
AcDbEntity
  8
Defpoints
 62
     0
100
AcDbPoint
 10
339.786724929201
 20
1286.029600018148
 30
0.0
  0
POINT
  5
ADD8
330
8480
100
AcDbEntity
  8
Defpoints
 62
     0
100
AcDbPoint
 10
341.1867244136208
 20
1280.429599984993
 30
0.0
  0
POINT
  5
ADD9
330
8480
100
AcDbEntity
  8
Defpoints
 62
     0
100
AcDbPoint
 10
341.1867244136208
 20
1269.244716427408
 30
0.0
  0
ENDBLK
  5
848D
330
8480
100
AcDbEntity
  8
0
100
AcDbBlockEnd
  0
BLOCK
  5
88C2
330
88C1
100
AcDbEntity
  8
0
100
AcDbBlockBegin
  2
SW_CENTERMARKSYMBOL_9
 70
     0
 10
0.0
 20
0.0
 30
0.0
  3
SW_CENTERMARKSYMBOL_9
  1

  0
LINE
  5
88C3
330
88C1
100
AcDbEntity
  8
0
  6
Continuous
 62
     0
370
     0
100
AcDbLine
 10
0.0
 20
0.0
 30
0.0
 11
0.0
 21
2.500000000000002
 31
0.0
  0
LINE
  5
88C4
330
88C1
100
AcDbEntity
  8
0
  6
Continuous
 62
     0
370
     0
100
AcDbLine
 10
0.0
 20
0.0
 30
0.0
 11
-2.500000000000002
 21
0.0
 31
0.0
  0
LINE
  5
88C5
330
88C1
100
AcDbEntity
  8
0
  6
Continuous
 62
     0
370
     0
100
AcDbLine
 10
0.0
 20
0.0
 30
0.0
 11
0.0
 21
-2.500000000000002
 31
0.0
  0
LINE
  5
88C6
330
88C1
100
AcDbEntity
  8
0
  6
Continuous
 62
     0
370
     0
100
AcDbLine
 10
0.0
 20
0.0
 30
0.0
 11
2.499999999999946
 21
0.0
 31
0.0
  0
LINE
  5
88C7
330
88C1
100
AcDbEntity
  8
0
  6
Continuous
 62
     0
370
     0
100
AcDbLine
 10
0.0
 20
2.500000000000002
 30
0.0
 11
0.0
 21
3.750000000000003
 31
0.0
  0
LINE
  5
88C8
330
88C1
100
AcDbEntity
  8
0
  6
Continuous
 62
     0
370
     0
100
AcDbLine
 10
-2.500000000000002
 20
0.0
 30
0.0
 11
-3.750000000000031
 21
0.0
 31
0.0
  0
LINE
  5
88C9
330
88C1
100
AcDbEntity
  8
0
  6
Continuous
 62
     0
370
     0
100
AcDbLine
 10
0.0
 20
-2.500000000000002
 30
0.0
 11
0.0
 21
-3.750000000000003
 31
0.0
  0
LINE
  5
88CA
330
88C1
100
AcDbEntity
  8
0
  6
Continuous
 62
     0
370
     0
100
AcDbLine
 10
2.499999999999946
 20
0.0
 30
0.0
 11
3.749999999999975
 21
0.0
 31
0.0
  0
ENDBLK
  5
88CB
330
88C1
100
AcDbEntity
  8
0
100
AcDbBlockEnd
  0
BLOCK
  5
94A0
330
949F
100
AcDbEntity
  8
0
100
AcDbBlockBegin
  2
SW_CENTERMARKSYMBOL_0
 70
     0
 10
0.0
 20
0.0
 30
0.0
  3
SW_CENTERMARKSYMBOL_0
  1

  0
LINE
  5
94A1
330
949F
100
AcDbEntity
  8
0
  6
Continuous
 62
     0
370
     0
100
AcDbLine
 10
0.0
 20
0.0
 30
0.0
 11
0.0
 21
2.500000000000002
 31
0.0
  0
LINE
  5
94A2
330
949F
100
AcDbEntity
  8
0
  6
Continuous
 62
     0
370
     0
100
AcDbLine
 10
0.0
 20
0.0
 30
0.0
 11
-2.500000000000002
 21
0.0
 31
0.0
  0
LINE
  5
94A3
330
949F
100
AcDbEntity
  8
0
  6
Continuous
 62
     0
370
     0
100
AcDbLine
 10
0.0
 20
0.0
 30
0.0
 11
0.0
 21
-2.500000000000002
 31
0.0
  0
LINE
  5
94A4
330
949F
100
AcDbEntity
  8
0
  6
Continuous
 62
     0
370
     0
100
AcDbLine
 10
0.0
 20
0.0
 30
0.0
 11
2.500000000000002
 21
0.0
 31
0.0
  0
LINE
  5
94A5
330
949F
100
AcDbEntity
  8
0
  6
Continuous
 62
     0
370
     0
100
AcDbLine
 10
0.0
 20
5.000000000000004
 30
0.0
 11
0.0
 21
7.500000000000007
 31
0.0
  0
LINE
  5
94A6
330
949F
100
AcDbEntity
  8
0
  6
Continuous
 62
     0
370
     0
100
AcDbLine
 10
-5.000000000000004
 20
0.0
 30
0.0
 11
-7.500000000000007
 21
0.0
 31
0.0
  0
LINE
  5
94A7
330
949F
100
AcDbEntity
  8
0
  6
Continuous
 62
     0
370
     0
100
AcDbLine
 10
0.0
 20
-5.000000000000004
 30
0.0
 11
0.0
 21
-7.500000000000007
 31
0.0
  0
LINE
  5
94A8
330
949F
100
AcDbEntity
  8
0
  6
Continuous
 62
     0
370
     0
100
AcDbLine
 10
5.000000000000004
 20
0.0
 30
0.0
 11
7.500000000000007
 21
0.0
 31
0.0
  0
ENDBLK
  5
94A9
330
949F
100
AcDbEntity
  8
0
100
AcDbBlockEnd
  0
BLOCK
  5
94AB
330
94AA
100
AcDbEntity
  8
0
100
AcDbBlockBegin
  2
SW_CENTERMARKSYMBOL_1
 70
     0
 10
0.0
 20
0.0
 30
0.0
  3
SW_CENTERMARKSYMBOL_1
  1

  0
LINE
  5
94AC
330
94AA
100
AcDbEntity
  8
0
  6
Continuous
 62
     0
370
     0
100
AcDbLine
 10
0.0
 20
0.0
 30
0.0
 11
0.0
 21
2.499999999999988
 31
0.0
  0
LINE
  5
94AD
330
94AA
100
AcDbEntity
  8
0
  6
Continuous
 62
     0
370
     0
100
AcDbLine
 10
0.0
 20
0.0
 30
0.0
 11
-2.500000000000002
 21
0.0
 31
0.0
  0
LINE
  5
94AE
330
94AA
100
AcDbEntity
  8
0
  6
Continuous
 62
     0
370
     0
100
AcDbLine
 10
0.0
 20
0.0
 30
0.0
 11
0.0
 21
-2.500000000000002
 31
0.0
  0
LINE
  5
94AF
330
94AA
100
AcDbEntity
  8
0
  6
Continuous
 62
     0
370
     0
100
AcDbLine
 10
0.0
 20
0.0
 30
0.0
 11
2.500000000000002
 21
0.0
 31
0.0
  0
LINE
  5
94B0
330
94AA
100
AcDbEntity
  8
0
  6
Continuous
 62
     0
370
     0
100
AcDbLine
 10
0.0
 20
4.99999999999999
 30
0.0
 11
0.0
 21
5.400000000000002
 31
0.0
  0
LINE
  5
94B1
330
94AA
100
AcDbEntity
  8
0
  6
Continuous
 62
     0
370
     0
100
AcDbLine
 10
-5.000000000000004
 20
0.0
 30
0.0
 11
-5.400000000000016
 21
0.0
 31
0.0
  0
LINE
  5
94B2
330
94AA
100
AcDbEntity
  8
0
  6
Continuous
 62
     0
370
     0
100
AcDbLine
 10
0.0
 20
-5.000000000000004
 30
0.0
 11
0.0
 21
-5.400000000000002
 31
0.0
  0
LINE
  5
94B3
330
94AA
100
AcDbEntity
  8
0
  6
Continuous
 62
     0
370
     0
100
AcDbLine
 10
5.000000000000004
 20
0.0
 30
0.0
 11
5.399999999999987
 21
0.0
 31
0.0
  0
ENDBLK
  5
94B4
330
94AA
100
AcDbEntity
  8
0
100
AcDbBlockEnd
  0
BLOCK
  5
94B6
330
94B5
100
AcDbEntity
  8
0
100
AcDbBlockBegin
  2
SW_CENTERMARKSYMBOL_2
 70
     0
 10
0.0
 20
0.0
 30
0.0
  3
SW_CENTERMARKSYMBOL_2
  1

  0
LINE
  5
94B7
330
94B5
100
AcDbEntity
  8
0
  6
Continuous
 62
     0
370
     0
100
AcDbLine
 10
0.0
 20
0.0
 30
0.0
 11
0.0
 21
2.500000000000002
 31
0.0
  0
LINE
  5
94B8
330
94B5
100
AcDbEntity
  8
0
  6
Continuous
 62
     0
370
     0
100
AcDbLine
 10
0.0
 20
0.0
 30
0.0
 11
-2.500000000000002
 21
0.0
 31
0.0
  0
LINE
  5
94B9
330
94B5
100
AcDbEntity
  8
0
  6
Continuous
 62
     0
370
     0
100
AcDbLine
 10
0.0
 20
0.0
 30
0.0
 11
0.0
 21
-2.500000000000002
 31
0.0
  0
LINE
  5
94BA
330
94B5
100
AcDbEntity
  8
0
  6
Continuous
 62
     0
370
     0
100
AcDbLine
 10
0.0
 20
0.0
 30
0.0
 11
2.500000000000002
 21
0.0
 31
0.0
  0
LINE
  5
94BB
330
94B5
100
AcDbEntity
  8
0
  6
Continuous
 62
     0
370
     0
100
AcDbLine
 10
0.0
 20
5.000000000000004
 30
0.0
 11
0.0
 21
5.400000000000002
 31
0.0
  0
LINE
  5
94BC
330
94B5
100
AcDbEntity
  8
0
  6
Continuous
 62
     0
370
     0
100
AcDbLine
 10
-5.000000000000004
 20
0.0
 30
0.0
 11
-5.400000000000016
 21
0.0
 31
0.0
  0
LINE
  5
94BD
330
94B5
100
AcDbEntity
  8
0
  6
Continuous
 62
     0
370
     0
100
AcDbLine
 10
0.0
 20
-5.000000000000004
 30
0.0
 11
0.0
 21
-5.400000000000002
 31
0.0
  0
LINE
  5
94BE
330
94B5
100
AcDbEntity
  8
0
  6
Continuous
 62
     0
370
     0
100
AcDbLine
 10
5.000000000000004
 20
0.0
 30
0.0
 11
5.399999999999987
 21
0.0
 31
0.0
  0
ENDBLK
  5
94BF
330
94B5
100
AcDbEntity
  8
0
100
AcDbBlockEnd
  0
BLOCK
  5
94C1
330
94C0
100
AcDbEntity
  8
0
100
AcDbBlockBegin
  2
SW_CENTERMARKSYMBOL_3
 70
     0
 10
0.0
 20
0.0
 30
0.0
  3
SW_CENTERMARKSYMBOL_3
  1

  0
LINE
  5
94C2
330
94C0
100
AcDbEntity
  8
0
  6
Continuous
 62
     0
370
     0
100
AcDbLine
 10
0.0
 20
0.0
 30
0.0
 11
0.0
 21
2.500000000000002
 31
0.0
  0
LINE
  5
94C3
330
94C0
100
AcDbEntity
  8
0
  6
Continuous
 62
     0
370
     0
100
AcDbLine
 10
0.0
 20
0.0
 30
0.0
 11
-2.500000000000002
 21
0.0
 31
0.0
  0
LINE
  5
94C4
330
94C0
100
AcDbEntity
  8
0
  6
Continuous
 62
     0
370
     0
100
AcDbLine
 10
0.0
 20
0.0
 30
0.0
 11
0.0
 21
-2.500000000000002
 31
0.0
  0
LINE
  5
94C5
330
94C0
100
AcDbEntity
  8
0
  6
Continuous
 62
     0
370
     0
100
AcDbLine
 10
0.0
 20
0.0
 30
0.0
 11
2.500000000000002
 21
0.0
 31
0.0
  0
LINE
  5
94C6
330
94C0
100
AcDbEntity
  8
0
  6
Continuous
 62
     0
370
     0
100
AcDbLine
 10
0.0
 20
5.000000000000004
 30
0.0
 11
0.0
 21
5.250000000000004
 31
0.0
  0
LINE
  5
94C7
330
94C0
100
AcDbEntity
  8
0
  6
Continuous
 62
     0
370
     0
100
AcDbLine
 10
-5.000000000000004
 20
0.0
 30
0.0
 11
-5.250000000000004
 21
0.0
 31
0.0
  0
LINE
  5
94C8
330
94C0
100
AcDbEntity
  8
0
  6
Continuous
 62
     0
370
     0
100
AcDbLine
 10
0.0
 20
-5.000000000000004
 30
0.0
 11
0.0
 21
-5.250000000000004
 31
0.0
  0
LINE
  5
94C9
330
94C0
100
AcDbEntity
  8
0
  6
Continuous
 62
     0
370
     0
100
AcDbLine
 10
5.000000000000004
 20
0.0
 30
0.0
 11
5.250000000000004
 21
0.0
 31
0.0
  0
ENDBLK
  5
94CA
330
94C0
100
AcDbEntity
  8
0
100
AcDbBlockEnd
  0
BLOCK
  5
94CC
330
94CB
100
AcDbEntity
  8
0
100
AcDbBlockBegin
  2
SW_CENTERMARKSYMBOL_4
 70
     0
 10
0.0
 20
0.0
 30
0.0
  3
SW_CENTERMARKSYMBOL_4
  1

  0
LINE
  5
94CD
330
94CB
100
AcDbEntity
  8
0
  6
Continuous
 62
     0
370
     0
100
AcDbLine
 10
0.0
 20
0.0
 30
0.0
 11
0.0
 21
2.499999999999988
 31
0.0
  0
LINE
  5
94CE
330
94CB
100
AcDbEntity
  8
0
  6
Continuous
 62
     0
370
     0
100
AcDbLine
 10
0.0
 20
0.0
 30
0.0
 11
-2.500000000000002
 21
0.0
 31
0.0
  0
LINE
  5
94CF
330
94CB
100
AcDbEntity
  8
0
  6
Continuous
 62
     0
370
     0
100
AcDbLine
 10
0.0
 20
0.0
 30
0.0
 11
0.0
 21
-2.500000000000002
 31
0.0
  0
LINE
  5
94D0
330
94CB
100
AcDbEntity
  8
0
  6
Continuous
 62
     0
370
     0
100
AcDbLine
 10
0.0
 20
0.0
 30
0.0
 11
2.500000000000002
 21
0.0
 31
0.0
  0
LINE
  5
94D1
330
94CB
100
AcDbEntity
  8
0
  6
Continuous
 62
     0
370
     0
100
AcDbLine
 10
0.0
 20
4.99999999999999
 30
0.0
 11
0.0
 21
5.249999999999991
 31
0.0
  0
LINE
  5
94D2
330
94CB
100
AcDbEntity
  8
0
  6
Continuous
 62
     0
370
     0
100
AcDbLine
 10
-5.000000000000004
 20
0.0
 30
0.0
 11
-5.250000000000004
 21
0.0
 31
0.0
  0
LINE
  5
94D3
330
94CB
100
AcDbEntity
  8
0
  6
Continuous
 62
     0
370
     0
100
AcDbLine
 10
0.0
 20
-5.000000000000004
 30
0.0
 11
0.0
 21
-5.250000000000004
 31
0.0
  0
LINE
  5
94D4
330
94CB
100
AcDbEntity
  8
0
  6
Continuous
 62
     0
370
     0
100
AcDbLine
 10
5.000000000000004
 20
0.0
 30
0.0
 11
5.250000000000004
 21
0.0
 31
0.0
  0
ENDBLK
  5
94D5
330
94CB
100
AcDbEntity
  8
0
100
AcDbBlockEnd
  0
BLOCK
  5
94D7
330
94D6
100
AcDbEntity
  8
0
100
AcDbBlockBegin
  2
SW_CENTERMARKSYMBOL_5
 70
     0
 10
0.0
 20
0.0
 30
0.0
  3
SW_CENTERMARKSYMBOL_5
  1

  0
LINE
  5
94D8
330
94D6
100
AcDbEntity
  8
0
  6
Continuous
 62
     0
370
     0
100
AcDbLine
 10
0.0
 20
0.0
 30
0.0
 11
0.0
 21
2.500000000000002
 31
0.0
  0
LINE
  5
94D9
330
94D6
100
AcDbEntity
  8
0
  6
Continuous
 62
     0
370
     0
100
AcDbLine
 10
0.0
 20
0.0
 30
0.0
 11
-2.500000000000002
 21
0.0
 31
0.0
  0
LINE
  5
94DA
330
94D6
100
AcDbEntity
  8
0
  6
Continuous
 62
     0
370
     0
100
AcDbLine
 10
0.0
 20
0.0
 30
0.0
 11
0.0
 21
-2.500000000000002
 31
0.0
  0
LINE
  5
94DB
330
94D6
100
AcDbEntity
  8
0
  6
Continuous
 62
     0
370
     0
100
AcDbLine
 10
0.0
 20
0.0
 30
0.0
 11
2.500000000000002
 21
0.0
 31
0.0
  0
LINE
  5
94DC
330
94D6
100
AcDbEntity
  8
0
  6
Continuous
 62
     0
370
     0
100
AcDbLine
 10
0.0
 20
2.500000000000002
 30
0.0
 11
0.0
 21
4.000000000000003
 31
0.0
  0
LINE
  5
94DD
330
94D6
100
AcDbEntity
  8
0
  6
Continuous
 62
     0
370
     0
100
AcDbLine
 10
-2.500000000000002
 20
0.0
 30
0.0
 11
-4.000000000000003
 21
0.0
 31
0.0
  0
LINE
  5
94DE
330
94D6
100
AcDbEntity
  8
0
  6
Continuous
 62
     0
370
     0
100
AcDbLine
 10
0.0
 20
-2.500000000000002
 30
0.0
 11
0.0
 21
-4.000000000000003
 31
0.0
  0
LINE
  5
94DF
330
94D6
100
AcDbEntity
  8
0
  6
Continuous
 62
     0
370
     0
100
AcDbLine
 10
2.500000000000002
 20
0.0
 30
0.0
 11
4.000000000000003
 21
0.0
 31
0.0
  0
ENDBLK
  5
94E0
330
94D6
100
AcDbEntity
  8
0
100
AcDbBlockEnd
  0
BLOCK
  5
94E2
330
94E1
100
AcDbEntity
  8
0
100
AcDbBlockBegin
  2
SW_CENTERMARKSYMBOL_6
 70
     0
 10
0.0
 20
0.0
 30
0.0
  3
SW_CENTERMARKSYMBOL_6
  1

  0
LINE
  5
94E3
330
94E1
100
AcDbEntity
  8
0
  6
Continuous
 62
     0
370
     0
100
AcDbLine
 10
0.0
 20
0.0
 30
0.0
 11
0.0
 21
2.500000000000002
 31
0.0
  0
LINE
  5
94E4
330
94E1
100
AcDbEntity
  8
0
  6
Continuous
 62
     0
370
     0
100
AcDbLine
 10
0.0
 20
0.0
 30
0.0
 11
-2.500000000000002
 21
0.0
 31
0.0
  0
LINE
  5
94E5
330
94E1
100
AcDbEntity
  8
0
  6
Continuous
 62
     0
370
     0
100
AcDbLine
 10
0.0
 20
0.0
 30
0.0
 11
0.0
 21
-2.500000000000002
 31
0.0
  0
LINE
  5
94E6
330
94E1
100
AcDbEntity
  8
0
  6
Continuous
 62
     0
370
     0
100
AcDbLine
 10
0.0
 20
0.0
 30
0.0
 11
2.500000000000002
 21
0.0
 31
0.0
  0
LINE
  5
94E7
330
94E1
100
AcDbEntity
  8
0
  6
Continuous
 62
     0
370
     0
100
AcDbLine
 10
0.0
 20
2.500000000000002
 30
0.0
 11
0.0
 21
4.000000000000003
 31
0.0
  0
LINE
  5
94E8
330
94E1
100
AcDbEntity
  8
0
  6
Continuous
 62
     0
370
     0
100
AcDbLine
 10
-2.500000000000002
 20
0.0
 30
0.0
 11
-4.000000000000003
 21
0.0
 31
0.0
  0
LINE
  5
94E9
330
94E1
100
AcDbEntity
  8
0
  6
Continuous
 62
     0
370
     0
100
AcDbLine
 10
0.0
 20
-2.500000000000002
 30
0.0
 11
0.0
 21
-4.000000000000003
 31
0.0
  0
LINE
  5
94EA
330
94E1
100
AcDbEntity
  8
0
  6
Continuous
 62
     0
370
     0
100
AcDbLine
 10
2.500000000000002
 20
0.0
 30
0.0
 11
4.000000000000003
 21
0.0
 31
0.0
  0
ENDBLK
  5
94EB
330
94E1
100
AcDbEntity
  8
0
100
AcDbBlockEnd
  0
BLOCK
  5
94ED
330
94EC
100
AcDbEntity
  8
0
100
AcDbBlockBegin
  2
SW_CENTERMARKSYMBOL_7
 70
     0
 10
0.0
 20
0.0
 30
0.0
  3
SW_CENTERMARKSYMBOL_7
  1

  0
LINE
  5
94EE
330
94EC
100
AcDbEntity
  8
0
  6
Continuous
 62
     0
370
     0
100
AcDbLine
 10
0.0
 20
0.0
 30
0.0
 11
0.0
 21
2.500000000000002
 31
0.0
  0
LINE
  5
94EF
330
94EC
100
AcDbEntity
  8
0
  6
Continuous
 62
     0
370
     0
100
AcDbLine
 10
0.0
 20
0.0
 30
0.0
 11
-2.500000000000002
 21
0.0
 31
0.0
  0
LINE
  5
94F0
330
94EC
100
AcDbEntity
  8
0
  6
Continuous
 62
     0
370
     0
100
AcDbLine
 10
0.0
 20
0.0
 30
0.0
 11
0.0
 21
-2.500000000000002
 31
0.0
  0
LINE
  5
94F1
330
94EC
100
AcDbEntity
  8
0
  6
Continuous
 62
     0
370
     0
100
AcDbLine
 10
0.0
 20
0.0
 30
0.0
 11
2.500000000000002
 21
0.0
 31
0.0
  0
LINE
  5
94F2
330
94EC
100
AcDbEntity
  8
0
  6
Continuous
 62
     0
370
     0
100
AcDbLine
 10
0.0
 20
2.500000000000002
 30
0.0
 11
0.0
 21
4.150000000000001
 31
0.0
  0
LINE
  5
94F3
330
94EC
100
AcDbEntity
  8
0
  6
Continuous
 62
     0
370
     0
100
AcDbLine
 10
-2.500000000000002
 20
0.0
 30
0.0
 11
-4.149999999999987
 21
0.0
 31
0.0
  0
LINE
  5
94F4
330
94EC
100
AcDbEntity
  8
0
  6
Continuous
 62
     0
370
     0
100
AcDbLine
 10
0.0
 20
-2.500000000000002
 30
0.0
 11
0.0
 21
-4.150000000000001
 31
0.0
  0
LINE
  5
94F5
330
94EC
100
AcDbEntity
  8
0
  6
Continuous
 62
     0
370
     0
100
AcDbLine
 10
2.500000000000002
 20
0.0
 30
0.0
 11
4.149999999999987
 21
0.0
 31
0.0
  0
ENDBLK
  5
94F6
330
94EC
100
AcDbEntity
  8
0
100
AcDbBlockEnd
  0
BLOCK
  5
94F8
330
94F7
100
AcDbEntity
  8
0
100
AcDbBlockBegin
  2
SW_CENTERMARKSYMBOL_8
 70
     0
 10
0.0
 20
0.0
 30
0.0
  3
SW_CENTERMARKSYMBOL_8
  1

  0
LINE
  5
94F9
330
94F7
100
AcDbEntity
  8
0
  6
Continuous
 62
     0
370
     0
100
AcDbLine
 10
0.0
 20
0.0
 30
0.0
 11
0.0
 21
2.499999999999988
 31
0.0
  0
LINE
  5
94FA
330
94F7
100
AcDbEntity
  8
0
  6
Continuous
 62
     0
370
     0
100
AcDbLine
 10
0.0
 20
0.0
 30
0.0
 11
-2.500000000000002
 21
0.0
 31
0.0
  0
LINE
  5
94FB
330
94F7
100
AcDbEntity
  8
0
  6
Continuous
 62
     0
370
     0
100
AcDbLine
 10
0.0
 20
0.0
 30
0.0
 11
0.0
 21
-2.500000000000002
 31
0.0
  0
LINE
  5
94FC
330
94F7
100
AcDbEntity
  8
0
  6
Continuous
 62
     0
370
     0
100
AcDbLine
 10
0.0
 20
0.0
 30
0.0
 11
2.500000000000002
 21
0.0
 31
0.0
  0
LINE
  5
94FD
330
94F7
100
AcDbEntity
  8
0
  6
Continuous
 62
     0
370
     0
100
AcDbLine
 10
0.0
 20
2.499999999999988
 30
0.0
 11
0.0
 21
4.149999999999987
 31
0.0
  0
LINE
  5
94FE
330
94F7
100
AcDbEntity
  8
0
  6
Continuous
 62
     0
370
     0
100
AcDbLine
 10
-2.500000000000002
 20
0.0
 30
0.0
 11
-4.149999999999987
 21
0.0
 31
0.0
  0
LINE
  5
94FF
330
94F7
100
AcDbEntity
  8
0
  6
Continuous
 62
     0
370
     0
100
AcDbLine
 10
0.0
 20
-2.500000000000002
 30
0.0
 11
0.0
 21
-4.150000000000001
 31
0.0
  0
LINE
  5
9500
330
94F7
100
AcDbEntity
  8
0
  6
Continuous
 62
     0
370
     0
100
AcDbLine
 10
2.500000000000002
 20
0.0
 30
0.0
 11
4.149999999999987
 21
0.0
 31
0.0
  0
ENDBLK
  5
9501
330
94F7
100
AcDbEntity
  8
0
100
AcDbBlockEnd
  0
BLOCK
  5
9503
330
9502
100
AcDbEntity
  8
0
100
AcDbBlockBegin
  2
SW_CENTERMARKSYMBOL_10
 70
     0
 10
0.0
 20
0.0
 30
0.0
  3
SW_CENTERMARKSYMBOL_10
  1

  0
LINE
  5
9504
330
9502
100
AcDbEntity
  8
0
  6
Continuous
 62
     0
370
     0
100
AcDbLine
 10
0.0
 20
0.0
 30
0.0
 11
0.0
 21
2.500000000000002
 31
0.0
  0
LINE
  5
9505
330
9502
100
AcDbEntity
  8
0
  6
Continuous
 62
     0
370
     0
100
AcDbLine
 10
0.0
 20
0.0
 30
0.0
 11
-2.500000000000002
 21
0.0
 31
0.0
  0
LINE
  5
9506
330
9502
100
AcDbEntity
  8
0
  6
Continuous
 62
     0
370
     0
100
AcDbLine
 10
0.0
 20
0.0
 30
0.0
 11
0.0
 21
-2.500000000000002
 31
0.0
  0
LINE
  5
9507
330
9502
100
AcDbEntity
  8
0
  6
Continuous
 62
     0
370
     0
100
AcDbLine
 10
0.0
 20
0.0
 30
0.0
 11
2.499999999999946
 21
0.0
 31
0.0
  0
LINE
  5
9508
330
9502
100
AcDbEntity
  8
0
  6
Continuous
 62
     0
370
     0
100
AcDbLine
 10
0.0
 20
2.500000000000002
 30
0.0
 11
0.0
 21
3.749999999999989
 31
0.0
  0
LINE
  5
9509
330
9502
100
AcDbEntity
  8
0
  6
Continuous
 62
     0
370
     0
100
AcDbLine
 10
-2.500000000000002
 20
0.0
 30
0.0
 11
-3.750000000000031
 21
0.0
 31
0.0
  0
LINE
  5
950A
330
9502
100
AcDbEntity
  8
0
  6
Continuous
 62
     0
370
     0
100
AcDbLine
 10
0.0
 20
-2.500000000000002
 30
0.0
 11
0.0
 21
-3.749999999999989
 31
0.0
  0
LINE
  5
950B
330
9502
100
AcDbEntity
  8
0
  6
Continuous
 62
     0
370
     0
100
AcDbLine
 10
2.499999999999946
 20
0.0
 30
0.0
 11
3.749999999999975
 21
0.0
 31
0.0
  0
ENDBLK
  5
950C
330
9502
100
AcDbEntity
  8
0
100
AcDbBlockEnd
  0
BLOCK
  5
950E
330
950D
100
AcDbEntity
  8
0
100
AcDbBlockBegin
  2
SW_CENTERMARKSYMBOL_11
 70
     0
 10
0.0
 20
0.0
 30
0.0
  3
SW_CENTERMARKSYMBOL_11
  1

  0
LINE
  5
950F
330
950D
100
AcDbEntity
  8
0
  6
Continuous
 62
     0
370
     0
100
AcDbLine
 10
0.0
 20
0.0
 30
0.0
 11
0.0
 21
2.500000000000002
 31
0.0
  0
LINE
  5
9510
330
950D
100
AcDbEntity
  8
0
  6
Continuous
 62
     0
370
     0
100
AcDbLine
 10
0.0
 20
0.0
 30
0.0
 11
-2.500000000000002
 21
0.0
 31
0.0
  0
LINE
  5
9511
330
950D
100
AcDbEntity
  8
0
  6
Continuous
 62
     0
370
     0
100
AcDbLine
 10
0.0
 20
0.0
 30
0.0
 11
0.0
 21
-2.500000000000002
 31
0.0
  0
LINE
  5
9512
330
950D
100
AcDbEntity
  8
0
  6
Continuous
 62
     0
370
     0
100
AcDbLine
 10
0.0
 20
0.0
 30
0.0
 11
2.500000000000002
 21
0.0
 31
0.0
  0
LINE
  5
9513
330
950D
100
AcDbEntity
  8
0
  6
Continuous
 62
     0
370
     0
100
AcDbLine
 10
0.0
 20
2.500000000000002
 30
0.0
 11
0.0
 21
4.000000000000003
 31
0.0
  0
LINE
  5
9514
330
950D
100
AcDbEntity
  8
0
  6
Continuous
 62
     0
370
     0
100
AcDbLine
 10
-2.500000000000002
 20
0.0
 30
0.0
 11
-4.000000000000003
 21
0.0
 31
0.0
  0
LINE
  5
9515
330
950D
100
AcDbEntity
  8
0
  6
Continuous
 62
     0
370
     0
100
AcDbLine
 10
0.0
 20
-2.500000000000002
 30
0.0
 11
0.0
 21
-4.000000000000003
 31
0.0
  0
LINE
  5
9516
330
950D
100
AcDbEntity
  8
0
  6
Continuous
 62
     0
370
     0
100
AcDbLine
 10
2.500000000000002
 20
0.0
 30
0.0
 11
4.000000000000003
 21
0.0
 31
0.0
  0
ENDBLK
  5
9517
330
950D
100
AcDbEntity
  8
0
100
AcDbBlockEnd
  0
BLOCK
  5
9519
330
9518
100
AcDbEntity
  8
0
100
AcDbBlockBegin
  2
SW_CENTERMARKSYMBOL_12
 70
     0
 10
0.0
 20
0.0
 30
0.0
  3
SW_CENTERMARKSYMBOL_12
  1

  0
LINE
  5
951A
330
9518
100
AcDbEntity
  8
0
  6
Continuous
 62
     0
370
     0
100
AcDbLine
 10
0.0
 20
0.0
 30
0.0
 11
0.0
 21
2.500000000000002
 31
0.0
  0
LINE
  5
951B
330
9518
100
AcDbEntity
  8
0
  6
Continuous
 62
     0
370
     0
100
AcDbLine
 10
0.0
 20
0.0
 30
0.0
 11
-2.500000000000002
 21
0.0
 31
0.0
  0
LINE
  5
951C
330
9518
100
AcDbEntity
  8
0
  6
Continuous
 62
     0
370
     0
100
AcDbLine
 10
0.0
 20
0.0
 30
0.0
 11
0.0
 21
-2.500000000000002
 31
0.0
  0
LINE
  5
951D
330
9518
100
AcDbEntity
  8
0
  6
Continuous
 62
     0
370
     0
100
AcDbLine
 10
0.0
 20
0.0
 30
0.0
 11
2.500000000000002
 21
0.0
 31
0.0
  0
LINE
  5
951E
330
9518
100
AcDbEntity
  8
0
  6
Continuous
 62
     0
370
     0
100
AcDbLine
 10
0.0
 20
2.500000000000002
 30
0.0
 11
0.0
 21
4.000000000000003
 31
0.0
  0
LINE
  5
951F
330
9518
100
AcDbEntity
  8
0
  6
Continuous
 62
     0
370
     0
100
AcDbLine
 10
-2.500000000000002
 20
0.0
 30
0.0
 11
-4.000000000000003
 21
0.0
 31
0.0
  0
LINE
  5
9520
330
9518
100
AcDbEntity
  8
0
  6
Continuous
 62
     0
370
     0
100
AcDbLine
 10
0.0
 20
-2.500000000000002
 30
0.0
 11
0.0
 21
-4.000000000000003
 31
0.0
  0
LINE
  5
9521
330
9518
100
AcDbEntity
  8
0
  6
Continuous
 62
     0
370
     0
100
AcDbLine
 10
2.500000000000002
 20
0.0
 30
0.0
 11
4.000000000000003
 21
0.0
 31
0.0
  0
ENDBLK
  5
9522
330
9518
100
AcDbEntity
  8
0
100
AcDbBlockEnd
  0
BLOCK
  5
9524
330
9523
100
AcDbEntity
  8
0
100
AcDbBlockBegin
  2
SW_CENTERMARKSYMBOL_13
 70
     0
 10
0.0
 20
0.0
 30
0.0
  3
SW_CENTERMARKSYMBOL_13
  1

  0
LINE
  5
9525
330
9523
100
AcDbEntity
  8
0
  6
Continuous
 62
     0
370
     0
100
AcDbLine
 10
0.0
 20
0.0
 30
0.0
 11
0.0
 21
2.500000000000002
 31
0.0
  0
LINE
  5
9526
330
9523
100
AcDbEntity
  8
0
  6
Continuous
 62
     0
370
     0
100
AcDbLine
 10
0.0
 20
0.0
 30
0.0
 11
-2.500000000000002
 21
0.0
 31
0.0
  0
LINE
  5
9527
330
9523
100
AcDbEntity
  8
0
  6
Continuous
 62
     0
370
     0
100
AcDbLine
 10
0.0
 20
0.0
 30
0.0
 11
0.0
 21
-2.500000000000002
 31
0.0
  0
LINE
  5
9528
330
9523
100
AcDbEntity
  8
0
  6
Continuous
 62
     0
370
     0
100
AcDbLine
 10
0.0
 20
0.0
 30
0.0
 11
2.500000000000002
 21
0.0
 31
0.0
  0
LINE
  5
9529
330
9523
100
AcDbEntity
  8
0
  6
Continuous
 62
     0
370
     0
100
AcDbLine
 10
0.0
 20
2.500000000000002
 30
0.0
 11
0.0
 21
4.150000000000001
 31
0.0
  0
LINE
  5
952A
330
9523
100
AcDbEntity
  8
0
  6
Continuous
 62
     0
370
     0
100
AcDbLine
 10
-2.500000000000002
 20
0.0
 30
0.0
 11
-4.150000000000001
 21
0.0
 31
0.0
  0
LINE
  5
952B
330
9523
100
AcDbEntity
  8
0
  6
Continuous
 62
     0
370
     0
100
AcDbLine
 10
0.0
 20
-2.500000000000002
 30
0.0
 11
0.0
 21
-4.150000000000001
 31
0.0
  0
LINE
  5
952C
330
9523
100
AcDbEntity
  8
0
  6
Continuous
 62
     0
370
     0
100
AcDbLine
 10
2.500000000000002
 20
0.0
 30
0.0
 11
4.150000000000001
 21
0.0
 31
0.0
  0
ENDBLK
  5
952D
330
9523
100
AcDbEntity
  8
0
100
AcDbBlockEnd
  0
BLOCK
  5
952F
330
952E
100
AcDbEntity
  8
0
100
AcDbBlockBegin
  2
SW_CENTERMARKSYMBOL_14
 70
     0
 10
0.0
 20
0.0
 30
0.0
  3
SW_CENTERMARKSYMBOL_14
  1

  0
LINE
  5
9530
330
952E
100
AcDbEntity
  8
0
  6
Continuous
 62
     0
370
     0
100
AcDbLine
 10
0.0
 20
0.0
 30
0.0
 11
0.0
 21
2.499999999999988
 31
0.0
  0
LINE
  5
9531
330
952E
100
AcDbEntity
  8
0
  6
Continuous
 62
     0
370
     0
100
AcDbLine
 10
0.0
 20
0.0
 30
0.0
 11
-2.500000000000002
 21
0.0
 31
0.0
  0
LINE
  5
9532
330
952E
100
AcDbEntity
  8
0
  6
Continuous
 62
     0
370
     0
100
AcDbLine
 10
0.0
 20
0.0
 30
0.0
 11
0.0
 21
-2.500000000000002
 31
0.0
  0
LINE
  5
9533
330
952E
100
AcDbEntity
  8
0
  6
Continuous
 62
     0
370
     0
100
AcDbLine
 10
0.0
 20
0.0
 30
0.0
 11
2.500000000000002
 21
0.0
 31
0.0
  0
LINE
  5
9534
330
952E
100
AcDbEntity
  8
0
  6
Continuous
 62
     0
370
     0
100
AcDbLine
 10
0.0
 20
2.499999999999988
 30
0.0
 11
0.0
 21
4.149999999999987
 31
0.0
  0
LINE
  5
9535
330
952E
100
AcDbEntity
  8
0
  6
Continuous
 62
     0
370
     0
100
AcDbLine
 10
-2.500000000000002
 20
0.0
 30
0.0
 11
-4.150000000000001
 21
0.0
 31
0.0
  0
LINE
  5
9536
330
952E
100
AcDbEntity
  8
0
  6
Continuous
 62
     0
370
     0
100
AcDbLine
 10
0.0
 20
-2.500000000000002
 30
0.0
 11
0.0
 21
-4.150000000000001
 31
0.0
  0
LINE
  5
9537
330
952E
100
AcDbEntity
  8
0
  6
Continuous
 62
     0
370
     0
100
AcDbLine
 10
2.500000000000002
 20
0.0
 30
0.0
 11
4.150000000000001
 21
0.0
 31
0.0
  0
ENDBLK
  5
9538
330
952E
100
AcDbEntity
  8
0
100
AcDbBlockEnd
  0
BLOCK
  5
953A
330
9539
100
AcDbEntity
  8
0
100
AcDbBlockBegin
  2
SW_CENTERMARKSYMBOL_15
 70
     0
 10
0.0
 20
0.0
 30
0.0
  3
SW_CENTERMARKSYMBOL_15
  1

  0
LINE
  5
953B
330
9539
100
AcDbEntity
  8
0
  6
Continuous
 62
     0
370
     0
100
AcDbLine
 10
0.0
 20
0.0
 30
0.0
 11
0.0
 21
2.500000000000002
 31
0.0
  0
LINE
  5
953C
330
9539
100
AcDbEntity
  8
0
  6
Continuous
 62
     0
370
     0
100
AcDbLine
 10
0.0
 20
0.0
 30
0.0
 11
-2.500000000000002
 21
0.0
 31
0.0
  0
LINE
  5
953D
330
9539
100
AcDbEntity
  8
0
  6
Continuous
 62
     0
370
     0
100
AcDbLine
 10
0.0
 20
0.0
 30
0.0
 11
0.0
 21
-2.500000000000002
 31
0.0
  0
LINE
  5
953E
330
9539
100
AcDbEntity
  8
0
  6
Continuous
 62
     0
370
     0
100
AcDbLine
 10
0.0
 20
0.0
 30
0.0
 11
2.499999999999988
 21
0.0
 31
0.0
  0
LINE
  5
953F
330
9539
100
AcDbEntity
  8
0
  6
Continuous
 62
     0
370
     0
100
AcDbLine
 10
0.0
 20
2.500000000000002
 30
0.0
 11
0.0
 21
3.750000000000003
 31
0.0
  0
LINE
  5
9540
330
9539
100
AcDbEntity
  8
0
  6
Continuous
 62
     0
370
     0
100
AcDbLine
 10
-2.500000000000002
 20
0.0
 30
0.0
 11
-3.750000000000003
 21
0.0
 31
0.0
  0
LINE
  5
9541
330
9539
100
AcDbEntity
  8
0
  6
Continuous
 62
     0
370
     0
100
AcDbLine
 10
0.0
 20
-2.500000000000002
 30
0.0
 11
0.0
 21
-3.750000000000003
 31
0.0
  0
LINE
  5
9542
330
9539
100
AcDbEntity
  8
0
  6
Continuous
 62
     0
370
     0
100
AcDbLine
 10
2.499999999999988
 20
0.0
 30
0.0
 11
3.749999999999989
 21
0.0
 31
0.0
  0
ENDBLK
  5
9543
330
9539
100
AcDbEntity
  8
0
100
AcDbBlockEnd
  0
BLOCK
  5
9545
330
9544
100
AcDbEntity
  8
0
100
AcDbBlockBegin
  2
SW_CENTERMARKSYMBOL_16
 70
     0
 10
0.0
 20
0.0
 30
0.0
  3
SW_CENTERMARKSYMBOL_16
  1

  0
LINE
  5
9546
330
9544
100
AcDbEntity
  8
0
  6
Continuous
 62
     0
370
     0
100
AcDbLine
 10
0.0
 20
0.0
 30
0.0
 11
0.0
 21
2.500000000000002
 31
0.0
  0
LINE
  5
9547
330
9544
100
AcDbEntity
  8
0
  6
Continuous
 62
     0
370
     0
100
AcDbLine
 10
0.0
 20
0.0
 30
0.0
 11
-2.500000000000002
 21
0.0
 31
0.0
  0
LINE
  5
9548
330
9544
100
AcDbEntity
  8
0
  6
Continuous
 62
     0
370
     0
100
AcDbLine
 10
0.0
 20
0.0
 30
0.0
 11
0.0
 21
-2.500000000000002
 31
0.0
  0
LINE
  5
9549
330
9544
100
AcDbEntity
  8
0
  6
Continuous
 62
     0
370
     0
100
AcDbLine
 10
0.0
 20
0.0
 30
0.0
 11
2.500000000000002
 21
0.0
 31
0.0
  0
LINE
  5
954A
330
9544
100
AcDbEntity
  8
0
  6
Continuous
 62
     0
370
     0
100
AcDbLine
 10
0.0
 20
2.500000000000002
 30
0.0
 11
0.0
 21
3.750000000000003
 31
0.0
  0
LINE
  5
954B
330
9544
100
AcDbEntity
  8
0
  6
Continuous
 62
     0
370
     0
100
AcDbLine
 10
-2.500000000000002
 20
0.0
 30
0.0
 11
-3.749999999999989
 21
0.0
 31
0.0
  0
LINE
  5
954C
330
9544
100
AcDbEntity
  8
0
  6
Continuous
 62
     0
370
     0
100
AcDbLine
 10
0.0
 20
-2.500000000000002
 30
0.0
 11
0.0
 21
-3.749999999999989
 31
0.0
  0
LINE
  5
954D
330
9544
100
AcDbEntity
  8
0
  6
Continuous
 62
     0
370
     0
100
AcDbLine
 10
2.500000000000002
 20
0.0
 30
0.0
 11
3.750000000000003
 21
0.0
 31
0.0
  0
ENDBLK
  5
954E
330
9544
100
AcDbEntity
  8
0
100
AcDbBlockEnd
  0
BLOCK
  5
9550
330
954F
100
AcDbEntity
  8
0
100
AcDbBlockBegin
  2
SW_CENTERMARKSYMBOL_17
 70
     0
 10
0.0
 20
0.0
 30
0.0
  3
SW_CENTERMARKSYMBOL_17
  1

  0
LINE
  5
9551
330
954F
100
AcDbEntity
  8
0
  6
Continuous
 62
     0
370
     0
100
AcDbLine
 10
0.0
 20
0.0
 30
0.0
 11
0.0
 21
2.500000000000002
 31
0.0
  0
LINE
  5
9552
330
954F
100
AcDbEntity
  8
0
  6
Continuous
 62
     0
370
     0
100
AcDbLine
 10
0.0
 20
0.0
 30
0.0
 11
-2.500000000000002
 21
0.0
 31
0.0
  0
LINE
  5
9553
330
954F
100
AcDbEntity
  8
0
  6
Continuous
 62
     0
370
     0
100
AcDbLine
 10
0.0
 20
0.0
 30
0.0
 11
0.0
 21
-2.500000000000002
 31
0.0
  0
LINE
  5
9554
330
954F
100
AcDbEntity
  8
0
  6
Continuous
 62
     0
370
     0
100
AcDbLine
 10
0.0
 20
0.0
 30
0.0
 11
2.500000000000002
 21
0.0
 31
0.0
  0
LINE
  5
9555
330
954F
100
AcDbEntity
  8
0
  6
Continuous
 62
     0
370
     0
100
AcDbLine
 10
0.0
 20
5.000000000000004
 30
0.0
 11
0.0
 21
6.500000000000005
 31
0.0
  0
LINE
  5
9556
330
954F
100
AcDbEntity
  8
0
  6
Continuous
 62
     0
370
     0
100
AcDbLine
 10
-5.000000000000004
 20
0.0
 30
0.0
 11
-6.500000000000005
 21
0.0
 31
0.0
  0
LINE
  5
9557
330
954F
100
AcDbEntity
  8
0
  6
Continuous
 62
     0
370
     0
100
AcDbLine
 10
0.0
 20
-5.000000000000004
 30
0.0
 11
0.0
 21
-6.500000000000005
 31
0.0
  0
LINE
  5
9558
330
954F
100
AcDbEntity
  8
0
  6
Continuous
 62
     0
370
     0
100
AcDbLine
 10
5.000000000000004
 20
0.0
 30
0.0
 11
6.500000000000005
 21
0.0
 31
0.0
  0
ENDBLK
  5
9559
330
954F
100
AcDbEntity
  8
0
100
AcDbBlockEnd
  0
BLOCK
  5
955B
330
955A
100
AcDbEntity
  8
0
100
AcDbBlockBegin
  2
SW_CENTERMARKSYMBOL_18
 70
     0
 10
0.0
 20
0.0
 30
0.0
  3
SW_CENTERMARKSYMBOL_18
  1

  0
LINE
  5
955C
330
955A
100
AcDbEntity
  8
0
  6
Continuous
 62
     0
370
     0
100
AcDbLine
 10
0.0
 20
0.0
 30
0.0
 11
0.0
 21
2.500000000000002
 31
0.0
  0
LINE
  5
955D
330
955A
100
AcDbEntity
  8
0
  6
Continuous
 62
     0
370
     0
100
AcDbLine
 10
0.0
 20
0.0
 30
0.0
 11
-2.500000000000002
 21
0.0
 31
0.0
  0
LINE
  5
955E
330
955A
100
AcDbEntity
  8
0
  6
Continuous
 62
     0
370
     0
100
AcDbLine
 10
0.0
 20
0.0
 30
0.0
 11
0.0
 21
-2.500000000000002
 31
0.0
  0
LINE
  5
955F
330
955A
100
AcDbEntity
  8
0
  6
Continuous
 62
     0
370
     0
100
AcDbLine
 10
0.0
 20
0.0
 30
0.0
 11
2.500000000000002
 21
0.0
 31
0.0
  0
LINE
  5
9560
330
955A
100
AcDbEntity
  8
0
  6
Continuous
 62
     0
370
     0
100
AcDbLine
 10
0.0
 20
5.000000000000004
 30
0.0
 11
0.0
 21
5.250000000000004
 31
0.0
  0
LINE
  5
9561
330
955A
100
AcDbEntity
  8
0
  6
Continuous
 62
     0
370
     0
100
AcDbLine
 10
-5.000000000000004
 20
0.0
 30
0.0
 11
-5.250000000000004
 21
0.0
 31
0.0
  0
LINE
  5
9562
330
955A
100
AcDbEntity
  8
0
  6
Continuous
 62
     0
370
     0
100
AcDbLine
 10
0.0
 20
-5.000000000000004
 30
0.0
 11
0.0
 21
-5.250000000000004
 31
0.0
  0
LINE
  5
9563
330
955A
100
AcDbEntity
  8
0
  6
Continuous
 62
     0
370
     0
100
AcDbLine
 10
5.000000000000004
 20
0.0
 30
0.0
 11
5.250000000000004
 21
0.0
 31
0.0
  0
ENDBLK
  5
9564
330
955A
100
AcDbEntity
  8
0
100
AcDbBlockEnd
  0
BLOCK
  5
9566
330
9565
100
AcDbEntity
  8
0
100
AcDbBlockBegin
  2
SW_CENTERMARKSYMBOL_19
 70
     0
 10
0.0
 20
0.0
 30
0.0
  3
SW_CENTERMARKSYMBOL_19
  1

  0
LINE
  5
9567
330
9565
100
AcDbEntity
  8
0
  6
Continuous
 62
     0
370
     0
100
AcDbLine
 10
0.0
 20
0.0
 30
0.0
 11
0.0
 21
2.500000000000002
 31
0.0
  0
LINE
  5
9568
330
9565
100
AcDbEntity
  8
0
  6
Continuous
 62
     0
370
     0
100
AcDbLine
 10
0.0
 20
0.0
 30
0.0
 11
-2.500000000000002
 21
0.0
 31
0.0
  0
LINE
  5
9569
330
9565
100
AcDbEntity
  8
0
  6
Continuous
 62
     0
370
     0
100
AcDbLine
 10
0.0
 20
0.0
 30
0.0
 11
0.0
 21
-2.500000000000002
 31
0.0
  0
LINE
  5
956A
330
9565
100
AcDbEntity
  8
0
  6
Continuous
 62
     0
370
     0
100
AcDbLine
 10
0.0
 20
0.0
 30
0.0
 11
2.500000000000002
 21
0.0
 31
0.0
  0
LINE
  5
956B
330
9565
100
AcDbEntity
  8
0
  6
Continuous
 62
     0
370
     0
100
AcDbLine
 10
0.0
 20
5.000000000000004
 30
0.0
 11
0.0
 21
5.250000000000004
 31
0.0
  0
LINE
  5
956C
330
9565
100
AcDbEntity
  8
0
  6
Continuous
 62
     0
370
     0
100
AcDbLine
 10
-4.999999999999976
 20
0.0
 30
0.0
 11
-5.249999999999976
 21
0.0
 31
0.0
  0
LINE
  5
956D
330
9565
100
AcDbEntity
  8
0
  6
Continuous
 62
     0
370
     0
100
AcDbLine
 10
0.0
 20
-5.000000000000004
 30
0.0
 11
0.0
 21
-5.250000000000004
 31
0.0
  0
LINE
  5
956E
330
9565
100
AcDbEntity
  8
0
  6
Continuous
 62
     0
370
     0
100
AcDbLine
 10
5.000000000000004
 20
0.0
 30
0.0
 11
5.250000000000004
 21
0.0
 31
0.0
  0
ENDBLK
  5
956F
330
9565
100
AcDbEntity
  8
0
100
AcDbBlockEnd
  0
BLOCK
  5
AE18
330
AE17
100
AcDbEntity
  8
0
100
AcDbBlockBegin
  2
*D49
 70
     1
 10
0.0
 20
0.0
 30
0.0
  3
*D49
  1

  0
LINE
  5
AE19
330
AE17
100
AcDbEntity
  8
AM_5
100
AcDbLine
 10
331.2164530117081
 20
1287.517537688937
 30
0.0
 11
326.7797750589244
 21
1287.517537688937
 31
0.0
  0
LINE
  5
AE1A
330
AE17
100
AcDbEntity
  8
AM_5
100
AcDbLine
 10
331.2164530117081
 20
1282.517537680401
 30
0.0
 11
326.7797750589244
 21
1282.517537680401
 31
0.0
  0
LINE
  5
AE1B
330
AE17
100
AcDbEntity
  8
AM_5
100
AcDbLine
 10
328.2797750589244
 20
1279.517537680401
 30
0.0
 11
328.2797750589244
 21
1276.517537680401
 31
0.0
  0
LINE
  5
AE1C
330
AE17
100
AcDbEntity
  8
AM_5
100
AcDbLine
 10
328.2797750589244
 20
1290.517537688937
 30
0.0
 11
328.2797750589244
 21
1299.612512435767
 31
0.0
  0
LINE
  5
AE1D
330
AE17
100
AcDbEntity
  8
AM_5
100
AcDbLine
 10
328.2797750589244
 20
1282.517537680401
 30
0.0
 11
328.2797750589244
 21
1287.517537688937
 31
0.0
  0
SOLID
  5
AE1E
330
AE17
100
AcDbEntity
  8
AM_5
100
AcDbTrace
 10
327.7797750589244
 20
1279.517537680401
 30
0.0
 11
328.7797750589244
 21
1279.517537680401
 31
0.0
 12
328.2797750589244
 22
1282.517537680401
 32
0.0
 13
328.2797750589244
 23
1282.517537680401
 33
0.0
  0
SOLID
  5
AE1F
330
AE17
100
AcDbEntity
  8
AM_5
100
AcDbTrace
 10
327.7797750589244
 20
1290.517537688937
 30
0.0
 11
328.7797750589244
 21
1290.517537688937
 31
0.0
 12
328.2797750589244
 22
1287.517537688937
 32
0.0
 13
328.2797750589244
 23
1287.517537688937
 33
0.0
  0
MTEXT
  5
AE20
330
AE17
100
AcDbEntity
  8
AM_5
100
AcDbMText
 10
325.8297750589242
 20
1296.565025062352
 30
0.0
 40
3.5
 41
0.0
 71
     5
 72
     1
  1
%%C5
 11
0.0000000000000001
 21
1.0
 31
0.0
 73
     1
 44
1.0
1001
ACAD
1000
MTEXTBEGIN
1070
    73
1070
     1
1070
    44
1040
1.0
1070
    74
1070
     0
1000
MTEXTEND
  0
POINT
  5
AE21
330
AE17
100
AcDbEntity
  8
Defpoints
 62
     0
100
AcDbPoint
 10
332.216453011708
 20
1287.517537688937
 30
0.0
  0
POINT
  5
AE22
330
AE17
100
AcDbEntity
  8
Defpoints
 62
     0
100
AcDbPoint
 10
332.216453011708
 20
1282.517537680401
 30
0.0
  0
POINT
  5
AE23
330
AE17
100
AcDbEntity
  8
Defpoints
 62
     0
100
AcDbPoint
 10
328.2797750589244
 20
1282.517537680401
 30
0.0
  0
ENDBLK
  5
AE24
330
AE17
100
AcDbEntity
  8
0
100
AcDbBlockEnd
  0
BLOCK
  5
AE71
330
AE65
100
AcDbEntity
  8
0
100
AcDbBlockBegin
  2
*D51
 70
     1
 10
0.0
 20
0.0
 30
0.0
  3
*D51
  1

  0
LINE
  5
AFF0
330
AE65
100
AcDbEntity
  8
AM_5
100
AcDbLine
 10
332.4867245894548
 20
1296.42959988942
 30
0.0
 11
328.0500466366711
 21
1296.42959988942
 31
0.0
  0
LINE
  5
AFF1
330
AE65
100
AcDbEntity
  8
AM_5
100
AcDbLine
 10
332.4867245894548
 20
1291.429599880884
 30
0.0
 11
328.0500466366711
 21
1291.429599880884
 31
0.0
  0
LINE
  5
AFF2
330
AE65
100
AcDbEntity
  8
AM_5
100
AcDbLine
 10
329.5500466366712
 20
1299.42959988942
 30
0.0
 11
329.5500466366712
 21
1302.42959988942
 31
0.0
  0
LINE
  5
AFF3
330
AE65
100
AcDbEntity
  8
AM_5
100
AcDbLine
 10
329.5500466366712
 20
1288.429599880884
 30
0.0
 11
329.5500466366712
 21
1285.429599880884
 31
0.0
  0
LINE
  5
AFF4
330
AE65
100
AcDbEntity
  8
AM_5
100
AcDbLine
 10
329.5500466366712
 20
1296.42959988942
 30
0.0
 11
329.5500466366712
 21
1291.429599880884
 31
0.0
  0
SOLID
  5
AFF5
330
AE65
100
AcDbEntity
  8
AM_5
100
AcDbTrace
 10
329.0500466366712
 20
1299.42959988942
 30
0.0
 11
330.0500466366711
 21
1299.42959988942
 31
0.0
 12
329.5500466366712
 22
1296.42959988942
 32
0.0
 13
329.5500466366712
 23
1296.42959988942
 33
0.0
  0
SOLID
  5
AFF6
330
AE65
100
AcDbEntity
  8
AM_5
100
AcDbTrace
 10
329.0500466366712
 20
1288.429599880884
 30
0.0
 11
330.0500466366711
 21
1288.429599880884
 31
0.0
 12
329.5500466366712
 22
1291.429599880884
 32
0.0
 13
329.5500466366712
 23
1291.429599880884
 33
0.0
  0
MTEXT
  5
AFF7
330
AE65
100
AcDbEntity
  8
AM_5
100
AcDbMText
 10
327.1000466366709
 20
1293.929599885152
 30
0.0
 40
3.5
 41
0.0
 71
     5
 72
     1
  1
%%C5
 11
0.0000000000000001
 21
1.0
 31
0.0
 73
     1
 44
1.0
1001
ACAD
1000
MTEXTBEGIN
1070
    73
1070
     1
1070
    44
1040
1.0
1070
    74
1070
     0
1000
MTEXTEND
  0
POINT
  5
AFF8
330
AE65
100
AcDbEntity
  8
Defpoints
 62
     0
100
AcDbPoint
 10
333.4867245894547
 20
1296.42959988942
 30
0.0
  0
POINT
  5
AFF9
330
AE65
100
AcDbEntity
  8
Defpoints
 62
     0
100
AcDbPoint
 10
333.4867245894547
 20
1291.429599880884
 30
0.0
  0
POINT
  5
AFFA
330
AE65
100
AcDbEntity
  8
Defpoints
 62
     0
100
AcDbPoint
 10
329.5500466366712
 20
1291.429599880884
 30
0.0
  0
ENDBLK
  5
AE72
330
AE65
100
AcDbEntity
  8
0
100
AcDbBlockEnd
  0
ENDSEC
  0
SECTION
  2
ENTITIES
  0
TEXT
  5
6788
330
1F
100
AcDbEntity
  8
AM_5
100
AcDbText
 10
461.9420896938219
 20
1270.400674492204
 30
0.0
 40
3.5
  1
2-M4x0.7
100
AcDbText
  0
TEXT
  5
6789
330
1F
100
AcDbEntity
  8
AM_5
100
AcDbText
 10
461.9420896938219
 20
1264.723631562723
 30
0.0
 40
3.5
  1
%%C5.8x3.5 depth
100
AcDbText
  0
POINT
  5
6BCF
330
1F
100
AcDbEntity
  8
0
 60
     1
100
AcDbPoint
 10
0.0
 20
0.0
 30
0.0
  0
POINT
  5
6BD9
330
1F
100
AcDbEntity
  8
0
 60
     1
100
AcDbPoint
 10
0.0
 20
0.0
 30
0.0
  0
TEXT
  5
7020
330
1F
100
AcDbEntity
  8
LOGO
 62
     7
100
AcDbText
 10
361.1585940304096
 20
1149.992845846682
 30
0.0
 40
3.999420814479637
  1
Order example:
 41
0.8
  7
CHINESET
100
AcDbText
  0
TEXT
  5
7021
330
1F
100
AcDbEntity
  8
LOGO
 62
     7
100
AcDbText
 10
361.876123198392
 20
1155.623202262823
 30
0.0
 40
5.999131221719456
  1
訂購代號：
  7
CHINESET
100
AcDbText
  0
LINE
  5
7023
330
1F
100
AcDbEntity
  8
LOGO
 62
     4
100
AcDbLine
 10
359.4208321212627
 20
1133.137776259557
 30
0.0
 11
359.4208321212627
 21
1163.133432368154
 31
0.0
  0
TEXT
  5
7024
330
1F
100
AcDbEntity
  8
LOGO
  6
Continuous
100
AcDbText
 10
304.2049631896398
 20
1139.030377634699
 30
0.0
 40
4.499348416289592
  1
金器工業股份有限公司
  7
CHINESET
100
AcDbText
  0
TEXT
  5
7025
330
1F
100
AcDbEntity
  8
LOGO
  6
Continuous
100
AcDbText
 10
295.9405503011023
 20
1134.530147698882
 30
0.0
 40
2.999565610859728
  1
MINDMAN INDUSTRIAL CO., LTD.
 41
0.85
  7
CHINESET
100
AcDbText
  0
LINE
  5
7026
330
1F
100
AcDbEntity
  8
LOGO
 62
     4
100
AcDbLine
 10
359.4208321212627
 20
1157.134301146435
 30
0.0
 11
315.4272031619864
 21
1157.134301146435
 31
0.0
  0
LINE
  5
7027
330
1F
100
AcDbEntity
  8
LOGO
 62
     4
100
AcDbLine
 10
359.4208321212627
 20
1151.135169924715
 30
0.0
 11
315.4272031619864
 21
1151.135169924715
 31
0.0
  0
LINE
  5
7028
330
1F
100
AcDbEntity
  8
LOGO
 62
     4
100
AcDbLine
 10
359.4208321212627
 20
1145.136038702996
 30
0.0
 11
293.4303886823486
 21
1145.136038702996
 31
0.0
  0
LINE
  5
7029
330
1F
100
AcDbEntity
  8
LOGO
 62
     4
100
AcDbLine
 10
315.4272031619864
 20
1145.136038702996
 30
0.0
 11
315.4272031619864
 21
1163.133432368154
 31
0.0
  0
TEXT
  5
702A
330
1F
100
AcDbEntity
  8
LOGO
100
AcDbText
 10
345.4947720879934
 20
1146.635821508425
 30
0.0
 40
2.999565610859728
  1
mm
  7
CHINESET
 72
     1
 11
349.2085199871531
 21
1148.135604313855
 31
0.0
100
AcDbText
 73
     2
  0
TEXT
  5
702B
330
1F
100
AcDbEntity
  8
LOGO
100
AcDbText
 10
343.9235710537336
 20
1158.634083951864
 30
0.0
 40
2.999565610859728
  1
1 : 1
  7
CHINESET
 72
     1
 11
349.2085199871531
 21
1160.133866757294
 31
0.0
100
AcDbText
 73
     2
  0
LINE
  5
702C
330
1F
100
AcDbEntity
  8
LOGO
 62
     4
100
AcDbLine
 10
339.4237280488644
 20
1145.136038702996
 30
0.0
 11
339.4237280488644
 21
1163.133432368154
 31
0.0
  0
TEXT
  5
702D
330
1F
100
AcDbEntity
  8
LOGO
100
AcDbText
 10
317.9005056991552
 20
1158.635560116043
 30
196.5865886400747
 40
2.999565610859728
  1
比例 Scale:
 41
0.9
  7
CHINESET
 72
     4
 11
327.4254656054254
 21
1160.133866757294
 31
196.5865886400747
100
AcDbText
  0
TEXT
  5
702E
330
1F
100
AcDbEntity
  8
LOGO
100
AcDbText
 10
317.7277628581727
 20
1152.677146422916
 30
196.5865886400747
 40
2.999565610859728
  1
投影  View:
 41
0.9
  7
CHINESET
 72
     4
 11
327.4254656054254
 21
1154.134735535575
 31
196.5865886400747
100
AcDbText
  0
TEXT
  5
702F
330
1F
100
AcDbEntity
  8
LOGO
100
AcDbText
 10
318.0210239603058
 20
1146.635821508425
 30
196.5865886400747
 40
2.999565610859728
  1
單位  Unit:
 41
0.9
  7
CHINESET
 72
     4
 11
327.4254656054254
 21
1148.135604313855
 31
196.5865886400747
100
AcDbText
  0
LWPOLYLINE
  5
7030
330
1F
100
AcDbEntity
  8
LOGO
 62
     4
100
AcDbPolyline
 90
        4
 70
     1
 43
0.0
 10
293.4303886823485
 20
1163.133432368154
 10
540.9303886823486
 20
1163.133432368154
 10
540.9303886823485
 20
1393.485065550521
 10
293.4303886823485
 20
1393.485065550521
1001
GENIUS_GENREC_14
1002
{
1000
PYDIR
1011
293.4303886823485
1021
1393.485065550521
1031
0.0
1002
}
1002
{
1000
PXDIR
1011
540.9303886823486
1021
1163.133432368154
1031
0.0
1002
}
1002
{
1000
PORI
1011
293.4303886823485
1021
1163.133432368154
1031
0.0
1002
}
1002
{
1000
PINS
1011
293.4303886823485
1021
1163.133432368154
1031
0.0
1002
}
1002
{
1000
PINS2
1011
540.9303886823485
1021
1393.485065550521
1031
0.0
1002
}
1002
{
1000
C
1070
     1
1002
}
1001
GENIUS_GENODEF_13
1002
{
1000
HIER
1070
     0
1002
}
1002
{
1000
MANEDIT
1070
     0
1002
}
1002
{
1000
NOSEL
1070
     0
1002
}
1002
{
1000
BEHIND
1070
     0
1002
}
1002
{
1000
OTHER
1070
     0
1002
}
1002
{
1000
REACTOR
1002
}
1001
GENIUS_GENOBJ-N-REC_13
1002
{
1000
OWNER
1000
GEN
1002
}
  0
SOLID
  5
7031
330
1F
100
AcDbEntity
  8
LOGO
 62
     5
100
AcDbTrace
 10
296.542486142982
 20
1150.122389576506
 30
0.0
 11
297.839419604516
 21
1150.122389576506
 31
0.0
 12
303.2507626681582
 22
1162.42089653933
 32
0.0
 13
304.5476961296929
 23
1162.420896539329
 33
0.0
  0
SOLID
  5
7032
330
1F
100
AcDbEntity
  8
LOGO
 62
     5
100
AcDbTrace
 10
298.3760817265316
 20
1150.122389576506
 30
0.0
 11
299.6730151880656
 21
1150.122389576506
 31
0.0
 12
304.5476961296929
 22
1161.437015982303
 32
0.0
 13
303.2507626681582
 23
1156.681593290012
 33
0.0
  0
SOLID
  5
7033
330
1F
100
AcDbEntity
  8
LOGO
 62
     2
100
AcDbTrace
 10
297.839419604516
 20
1150.122389576506
 30
0.0
 11
298.3760817265316
 21
1150.122389576506
 31
0.0
 12
304.5476961296929
 22
1162.420896539329
 32
0.0
 13
305.0843582517077
 23
1162.420896539329
 33
0.0
  0
SOLID
  5
7034
330
1F
100
AcDbEntity
  8
LOGO
 62
     5
100
AcDbTrace
 10
294.4631837570994
 20
1145.650205226389
 30
0.0
 11
294.9104021921116
 21
1145.650205226389
 31
0.0
 12
296.1698041138059
 22
1147.886297401447
 32
0.0
 13
296.6170225488168
 23
1147.886297401447
 33
0.0
  0
SOLID
  5
7035
330
1F
100
AcDbEntity
  8
LOGO
 62
     5
100
AcDbTrace
 10
296.1698041138059
 20
1147.886297401447
 30
0.0
 11
296.6170225488168
 21
1147.886297401447
 31
0.0
 12
296.1698041138059
 22
1145.650205226389
 32
0.0
 13
296.6170225488168
 23
1145.650205226389
 33
0.0
  0
SOLID
  5
7036
330
1F
100
AcDbEntity
  8
LOGO
 62
     5
100
AcDbTrace
 10
296.1698041138059
 20
1145.650205226389
 30
0.0
 11
296.6170225488168
 21
1145.650205226389
 31
0.0
 12
297.876424470513
 22
1147.886297401447
 32
0.0
 13
298.3236429055246
 23
1147.886297401447
 33
0.0
  0
SOLID
  5
7037
330
1F
100
AcDbEntity
  8
LOGO
 62
     5
100
AcDbTrace
 10
297.876424470513
 20
1147.886297401447
 30
0.0
 11
298.3236429055246
 21
1147.886297401447
 31
0.0
 12
297.876424470513
 22
1145.650205226389
 32
0.0
 13
298.3236429055246
 23
1145.650205226389
 33
0.0
  0
POLYLINE
  5
7038
330
1F
100
AcDbEntity
  8
LOGO
 62
     5
100
AcDb2dPolyline
 66
     1
 10
0.0
 20
0.0
 30
0.0
 40
0.4479351312217194
 41
0.4479351312217194
  0
VERTEX
  5
7039
330
7038
100
AcDbEntity
  8
LOGO
 62
     5
100
AcDbVertex
100
AcDb2dVertex
 10
312.8670340652273
 20
1146.991860531424
 30
0.0
 42
1.0
  0
VERTEX
  5
703A
330
7038
100
AcDbEntity
  8
LOGO
 62
     5
100
AcDbVertex
100
AcDb2dVertex
 10
311.5232286715618
 20
1146.991860531424
 30
0.0
 42
1.0
  0
SEQEND
  5
703B
330
7038
100
AcDbEntity
  8
LOGO
 62
     5
  0
POLYLINE
  5
703C
330
1F
100
AcDbEntity
  8
LOGO
 62
     5
100
AcDb2dPolyline
 66
     1
 10
0.0
 20
0.0
 30
0.0
 70
     1
  0
VERTEX
  5
703D
330
703C
100
AcDbEntity
  8
LOGO
 62
     5
100
AcDbVertex
100
AcDb2dVertex
 10
308.9900957320383
 20
1146.768251313918
 30
0.0
 42
1.000000057330635
  0
VERTEX
  5
703E
330
703C
100
AcDbEntity
  8
LOGO
 62
     5
100
AcDbVertex
100
AcDb2dVertex
 10
310.3317510370737
 20
1146.768251313918
 30
0.0
 42
1.000000057330635
  0
SEQEND
  5
703F
330
703C
100
AcDbEntity
  8
LOGO
 62
     5
  0
CIRCLE
  5
7040
330
1F
100
AcDbEntity
  8
LOGO
 62
     5
100
AcDbCircle
 10
309.660923384557
 20
1146.768251313918
 30
0.0
 40
0.6708276525176471
  0
POLYLINE
  5
7041
330
1F
100
AcDbEntity
  8
LOGO
 62
     5
100
AcDb2dPolyline
 66
     1
 10
0.0
 20
0.0
 30
0.0
 70
     1
 40
0.4479351312217194
 41
0.4479351312217194
  0
VERTEX
  5
7042
330
7041
100
AcDbEntity
  8
LOGO
 62
     5
100
AcDbVertex
100
AcDb2dVertex
 10
308.7650531221129
 20
1146.768251313918
 30
0.0
 42
1.0
  0
VERTEX
  5
7043
330
7041
100
AcDbEntity
  8
LOGO
 62
     5
100
AcDbVertex
100
AcDb2dVertex
 10
310.5567936469997
 20
1146.768251313918
 30
0.0
 42
1.0
  0
SEQEND
  5
7044
330
7041
100
AcDbEntity
  8
LOGO
 62
     5
  0
LINE
  5
7045
330
1F
100
AcDbEntity
  8
LOGO
100
AcDbLine
 10
313.0895682384173
 20
1145.650205226389
 30
0.0
 11
313.0895682384173
 21
1146.991860531424
 31
0.0
  0
SOLID
  5
7046
330
1F
100
AcDbEntity
  8
LOGO
 62
     5
100
AcDbTrace
 10
310.3317063152322
 20
1147.886297401447
 30
0.0
 11
310.778924750243
 21
1147.886297401447
 31
0.0
 12
310.3317063152322
 22
1145.650205226389
 32
0.0
 13
310.778924750243
 23
1145.650205226389
 33
0.0
  0
SOLID
  5
7047
330
1F
100
AcDbEntity
  8
LOGO
 62
     5
100
AcDbTrace
 10
311.3006944983704
 20
1145.650205226389
 30
0.0
 11
311.7479129333826
 21
1145.650205226389
 31
0.0
 12
311.3006944983704
 22
1147.886297401447
 32
0.0
 13
311.7479129333826
 23
1147.886297401447
 33
0.0
  0
SOLID
  5
7048
330
1F
100
AcDbEntity
  8
LOGO
 62
     5
100
AcDbTrace
 10
312.6423498034065
 20
1146.991860531424
 30
0.0
 11
313.0895682384173
 21
1146.991860531424
 31
0.0
 12
312.6423498034065
 22
1145.650205226389
 32
0.0
 13
313.0895682384173
 23
1145.650205226389
 33
0.0
  0
SOLID
  5
7049
330
1F
100
AcDbEntity
  8
LOGO
 62
     5
100
AcDbTrace
 10
311.2559726548691
 20
1161.437015982303
 30
0.0
 11
309.9590391933357
 21
1156.681593290012
 31
0.0
 12
311.2559726548691
 22
1150.122389576506
 32
0.0
 13
309.9590391933357
 23
1150.122389576506
 33
0.0
  0
SOLID
  5
704A
330
1F
100
AcDbEntity
  8
LOGO
 62
     5
100
AcDbTrace
 10
311.7926347768839
 20
1150.122389576506
 30
0.0
 11
313.0895682384173
 21
1150.122389576506
 31
0.0
 12
311.7926347768839
 22
1162.420896539329
 32
0.0
 13
313.0895682384173
 23
1162.42089653933
 33
0.0
  0
SOLID
  5
704B
330
1F
100
AcDbEntity
  8
LOGO
 62
     2
100
AcDbTrace
 10
311.2559726548691
 20
1162.42089653933
 30
0.0
 11
311.7926347768839
 21
1162.420896539329
 31
0.0
 12
311.2559726548691
 22
1150.122389576506
 32
0.0
 13
311.7926347768839
 23
1150.122389576506
 33
0.0
  0
POLYLINE
  5
704C
330
1F
100
AcDbEntity
  8
LOGO
 62
     5
100
AcDb2dPolyline
 66
     1
 10
0.0
 20
0.0
 30
0.0
 40
0.4479351312217194
 41
0.4479351312217194
  0
VERTEX
  5
704D
330
704C
100
AcDbEntity
  8
LOGO
 62
     5
100
AcDbVertex
100
AcDb2dVertex
 10
306.4568733488297
 20
1146.991860531424
 30
0.0
 42
1.0
  0
VERTEX
  5
704E
330
704C
100
AcDbEntity
  8
LOGO
 62
     5
100
AcDbVertex
100
AcDb2dVertex
 10
305.1130679551643
 20
1146.991860531424
 30
0.0
 42
1.0
  0
SEQEND
  5
704F
330
704C
100
AcDbEntity
  8
LOGO
 62
     5
  0
POLYLINE
  5
7050
330
1F
100
AcDbEntity
  8
LOGO
 62
     5
100
AcDb2dPolyline
 66
     1
 10
0.0
 20
0.0
 30
0.0
 40
0.4479351312217194
 41
0.4479351312217194
  0
VERTEX
  5
7051
330
7050
100
AcDbEntity
  8
LOGO
 62
     5
100
AcDbVertex
100
AcDb2dVertex
 10
307.7985286538638
 20
1146.991860531424
 30
0.0
 42
1.0
  0
VERTEX
  5
7052
330
7050
100
AcDbEntity
  8
LOGO
 62
     5
100
AcDbVertex
100
AcDb2dVertex
 10
306.454723260199
 20
1146.991860531424
 30
0.0
 42
1.0
  0
SEQEND
  5
7053
330
7050
100
AcDbEntity
  8
LOGO
 62
     5
  0
POLYLINE
  5
7054
330
1F
100
AcDbEntity
  8
LOGO
 62
     5
100
AcDb2dPolyline
 66
     1
 10
0.0
 20
0.0
 30
0.0
 40
0.4479351312217194
 41
0.4479351312217194
  0
VERTEX
  5
7055
330
7054
100
AcDbEntity
  8
LOGO
 62
     5
100
AcDbVertex
100
AcDb2dVertex
 10
301.3883679374662
 20
1146.991860531424
 30
0.0
 42
1.0
  0
VERTEX
  5
7056
330
7054
100
AcDbEntity
  8
LOGO
 62
     5
100
AcDbVertex
100
AcDb2dVertex
 10
300.0445625438015
 20
1146.991860531424
 30
0.0
 42
1.0
  0
SEQEND
  5
7057
330
7054
100
AcDbEntity
  8
LOGO
 62
     5
  0
SOLID
  5
7058
330
1F
100
AcDbEntity
  8
LOGO
 62
     5
100
AcDbTrace
 10
299.8220283706107
 20
1147.886297401447
 30
0.0
 11
300.2692468056216
 21
1147.886297401447
 31
0.0
 12
299.8220283706107
 22
1145.650205226389
 32
0.0
 13
300.2692468056216
 23
1145.650205226389
 33
0.0
  0
SOLID
  5
7059
330
1F
100
AcDbEntity
  8
LOGO
 62
     5
100
AcDbTrace
 10
301.1636836756461
 20
1146.991860531424
 30
0.0
 11
301.6109021106583
 21
1146.991860531424
 31
0.0
 12
301.1636836756461
 22
1145.650205226389
 32
0.0
 13
301.6109021106583
 23
1145.650205226389
 33
0.0
  0
POLYLINE
  5
705A
330
1F
100
AcDbEntity
  8
LOGO
 62
     5
100
AcDb2dPolyline
 66
     1
 10
0.0
 20
0.0
 30
0.0
 70
     1
 40
0.4479351312217194
 41
0.4479351312217194
  0
VERTEX
  5
705B
330
705A
100
AcDbEntity
  8
LOGO
 62
     5
100
AcDbVertex
100
AcDb2dVertex
 10
302.3548924057148
 20
1146.768251313918
 30
0.0
 42
1.0
  0
VERTEX
  5
705C
330
705A
100
AcDbEntity
  8
LOGO
 62
     5
100
AcDbVertex
100
AcDb2dVertex
 10
304.1466329306022
 20
1146.768251313918
 30
0.0
 42
1.0
  0
SEQEND
  5
705D
330
705A
100
AcDbEntity
  8
LOGO
 62
     5
  0
SOLID
  5
705E
330
1F
100
AcDbEntity
  8
LOGO
 62
     5
100
AcDbTrace
 10
303.9215455988333
 20
1148.557125053965
 30
0.0
 11
304.3687640338449
 21
1148.557125053965
 31
0.0
 12
303.9215455988333
 22
1145.650205226389
 32
0.0
 13
304.3687640338449
 23
1145.650205226389
 33
0.0
  0
SOLID
  5
705F
330
1F
100
AcDbEntity
  8
LOGO
 62
     5
100
AcDbTrace
 10
304.8905337819742
 20
1147.886297401447
 30
0.0
 11
305.3377522169851
 21
1147.886297401447
 31
0.0
 12
304.8905337819742
 22
1145.650205226389
 32
0.0
 13
305.3377522169851
 23
1145.650205226389
 33
0.0
  0
SOLID
  5
7060
330
1F
100
AcDbEntity
  8
LOGO
 62
     5
100
AcDbTrace
 10
306.2321890870082
 20
1146.991860531424
 30
0.0
 11
306.6794075220205
 21
1146.991860531424
 31
0.0
 12
306.2321890870082
 22
1145.650205226389
 32
0.0
 13
306.6794075220205
 23
1145.650205226389
 33
0.0
  0
SOLID
  5
7061
330
1F
100
AcDbEntity
  8
LOGO
 62
     5
100
AcDbTrace
 10
307.5738443920436
 20
1146.991860531424
 30
0.0
 11
308.0210628270552
 21
1146.991860531424
 31
0.0
 12
307.5738443920436
 22
1145.650205226388
 32
0.0
 13
308.0210628270552
 23
1145.650205226388
 33
0.0
  0
SOLID
  5
7062
330
1F
100
AcDbEntity
  8
LOGO
 62
     5
100
AcDbTrace
 10
298.8530401874705
 20
1148.199350305956
 30
0.0
 11
299.3002586224834
 21
1148.199350305956
 31
0.0
 12
298.8530401874705
 22
1148.557125053965
 32
0.0
 13
299.3002586224834
 23
1148.557125053965
 33
0.0
  0
SOLID
  5
7063
330
1F
100
AcDbEntity
  8
LOGO
 62
     5
100
AcDbTrace
 10
298.8530401874705
 20
1147.886297401447
 30
0.0
 11
299.3002586224834
 21
1147.886297401447
 31
0.0
 12
298.8530401874705
 22
1145.650205226388
 32
0.0
 13
299.3002586224834
 23
1145.650205226389
 33
0.0
  0
SOLID
  5
7064
330
1F
100
AcDbEntity
  8
LOGO
 62
     5
100
AcDbTrace
 10
303.2507626681582
 20
1150.122389576506
 30
0.0
 11
304.5476961296929
 21
1150.122389576506
 31
0.0
 12
303.2507626681582
 22
1156.681593290012
 32
0.0
 13
304.5476961296929
 23
1161.437015982303
 33
0.0
  0
SOLID
  5
7065
330
1F
100
AcDbEntity
  8
LOGO
 62
     5
100
AcDbTrace
 10
305.0843582517077
 20
1162.420896539329
 30
0.0
 11
306.3812917132411
 21
1162.42089653933
 31
0.0
 12
305.0843582517077
 22
1151.106270133532
 32
0.0
 13
306.3812917132411
 23
1155.861692825824
 33
0.0
  0
SOLID
  5
7066
330
1F
100
AcDbEntity
  8
LOGO
 62
     2
100
AcDbTrace
 10
304.5476961296929
 20
1162.420896539329
 30
0.0
 11
305.0843582517077
 21
1162.420896539329
 31
0.0
 12
304.5476961296929
 22
1150.122389576506
 32
0.0
 13
305.0843582517077
 23
1150.122389576506
 33
0.0
  0
SOLID
  5
7067
330
1F
100
AcDbEntity
  8
LOGO
 62
     5
100
AcDbTrace
 10
305.0843582517077
 20
1151.106270133532
 30
0.0
 11
306.3812917132411
 21
1155.861692825824
 31
0.0
 12
311.2559726548691
 22
1162.42089653933
 32
0.0
 13
309.9590391933357
 23
1162.42089653933
 33
0.0
  0
SOLID
  5
7068
330
1F
100
AcDbEntity
  8
LOGO
 62
     5
100
AcDbTrace
 10
305.0843582517077
 20
1150.122389576506
 30
0.0
 11
306.3812917132411
 21
1150.122389576506
 31
0.0
 12
311.2559726548691
 22
1161.437015982303
 32
0.0
 13
309.9590391933357
 23
1156.681593290012
 33
0.0
  0
SOLID
  5
7069
330
1F
100
AcDbEntity
  8
LOGO
 62
     2
100
AcDbTrace
 10
304.5476961296929
 20
1150.122389576506
 30
0.0
 11
305.0843582517077
 21
1150.122389576506
 31
0.0
 12
311.2559726548691
 22
1162.42089653933
 32
0.0
 13
311.7926347768839
 23
1162.420896539329
 33
0.0
  0
LWPOLYLINE
  5
706A
330
1F
100
AcDbEntity
  8
LOGO
 62
     4
100
AcDbPolyline
 90
        4
 70
     1
 43
0.0
 10
293.4303886823485
 20
1163.133432368154
 10
540.9303886823486
 20
1163.133432368154
 10
540.9303886823486
 20
1133.137776259556
 10
293.4303886823485
 20
1133.137776259556
1001
GENIUS_GENREC_14
1002
{
1000
PYDIR
1011
293.4303886823485
1021
1133.137776259556
1031
0.0
1002
}
1002
{
1000
PXDIR
1011
540.9303886823486
1021
1163.133432368154
1031
0.0
1002
}
1002
{
1000
PORI
1011
293.4303886823485
1021
1163.133432368154
1031
0.0
1002
}
1002
{
1000
PINS
1011
293.4303886823485
1021
1163.133432368154
1031
0.0
1002
}
1002
{
1000
PINS2
1011
540.9303886823486
1021
1133.137776259556
1031
0.0
1002
}
1002
{
1000
C
1070
     1
1002
}
1001
GENIUS_GENOBJ-N-REC_13
1002
{
1000
OWNER
1000
GEN
1002
}
1001
GENIUS_GENODEF_13
1002
{
1000
HIER
1070
     0
1002
}
1002
{
1000
MANEDIT
1070
     0
1002
}
1002
{
1000
NOSEL
1070
     0
1002
}
1002
{
1000
BEHIND
1070
     0
1002
}
1002
{
1000
OTHER
1070
     0
1002
}
1002
{
1000
REACTOR
1002
}
  0
LINE
  5
706B
330
1F
100
AcDbEntity
  8
LOGO
 62
     4
100
AcDbLine
 10
420.6248464764264
 20
1146.635821508426
 30
0.0
 11
420.6248464764264
 21
1135.637414268606
 31
0.0
  0
LINE
  5
706C
330
1F
100
AcDbEntity
  8
LOGO
 62
     4
100
AcDbLine
 10
402.8160023783568
 20
1146.635821508426
 30
0.0
 11
402.8160023783568
 21
1135.637414268606
 31
0.0
  0
LINE
  5
706D
330
1F
100
AcDbEntity
  8
LOGO
 62
     4
100
AcDbLine
 10
420.6248464764264
 20
1135.637414268606
 30
0.0
 11
402.8160023783568
 21
1135.637414268606
 31
0.0
  0
LINE
  5
706E
330
1F
100
AcDbEntity
  8
LOGO
 62
     4
100
AcDbLine
 10
424.3710133396295
 20
1160.133866757294
 30
0.0
 11
400.6785258238378
 21
1160.133866757294
 31
0.0
  0
LINE
  5
706F
330
1F
100
AcDbEntity
  8
LOGO
 62
     4
100
AcDbLine
 10
424.3710133396295
 20
1151.135169924715
 30
0.0
 11
400.6785258238378
 21
1151.135169924715
 31
0.0
  0
LINE
  5
7070
330
1F
100
AcDbEntity
  8
LOGO
 62
     4
100
AcDbLine
 10
400.6785258238378
 20
1160.133866757294
 30
0.0
 11
400.6785258238378
 21
1151.135169924715
 31
0.0
  0
LINE
  5
7071
330
1F
100
AcDbEntity
  8
LOGO
 62
     4
100
AcDbLine
 10
424.3710133396295
 20
1160.133866757294
 30
0.0
 11
424.3710133396295
 21
1151.135169924715
 31
0.0
  0
LINE
  5
7072
330
1F
100
AcDbEntity
  8
LOGO
 62
     4
100
AcDbLine
 10
411.7204244273916
 20
1151.135169924715
 30
0.0
 11
411.7204244273916
 21
1146.635821508426
 31
0.0
  0
TEXT
  5
7073
330
1F
100
AcDbEntity
  8
LOGO
  6
Continuous
 62
     7
100
AcDbText
 10
402.2774533187577
 20
1153.013634732423
 30
0.0
 40
5.25
  1
MCRJ
  7
CHINESET
100
AcDbText
  0
LINE
  5
7074
330
1F
100
AcDbEntity
  8
LOGO
 62
     4
100
AcDbLine
 10
420.6248464764264
 20
1146.635821508426
 30
0.0
 11
402.8160023783568
 21
1146.635821508426
 31
0.0
  0
TEXT
  5
7075
330
1F
100
AcDbEntity
  8
LOGO
  6
Continuous
100
AcDbText
 10
408.6274977028542
 20
1137.189816127842
 30
196.5865886400747
 40
2.25
  1
Model
 41
0.8
  7
CHINESET
100
AcDbText
  0
TEXT
  5
7076
330
1F
100
AcDbEntity
  8
LOGO
100
AcDbText
 10
408.0286208458554
 20
1141.360831218234
 30
196.5865886400747
 40
3.75
  1
型號
  7
CHINESET
100
AcDbText
  0
LINE
  5
7077
330
1F
100
AcDbEntity
  8
LOGO
  6
Continuous
 62
     7
100
AcDbLine
 10
426.135278361105
 20
1155.602643534694
 30
0.0
 11
430.1087745345143
 21
1155.602643534694
 31
0.0
  0
LINE
  5
707B
330
1F
100
AcDbEntity
  8
LOGO
 62
     4
100
AcDbLine
 10
442.889327513699
 20
1160.133866757294
 30
0.0
 11
432.039897897243
 21
1160.133866757294
 31
0.0
  0
LINE
  5
707C
330
1F
100
AcDbEntity
  8
LOGO
 62
     4
100
AcDbLine
 10
442.889327513699
 20
1151.135169924715
 30
0.0
 11
432.039897897243
 21
1151.135169924715
 31
0.0
  0
LINE
  5
707D
330
1F
100
AcDbEntity
  8
LOGO
 62
     4
100
AcDbLine
 10
432.039897897243
 20
1160.133866757294
 30
0.0
 11
432.039897897243
 21
1151.135169924715
 31
0.0
  0
LINE
  5
707E
330
1F
100
AcDbEntity
  8
LOGO
 62
     4
100
AcDbLine
 10
442.889327513699
 20
1160.133866757294
 30
0.0
 11
442.889327513699
 21
1151.135169924715
 31
0.0
  0
LINE
  5
707F
330
1F
100
AcDbEntity
  8
LOGO
 62
     4
100
AcDbLine
 10
437.464612705471
 20
1151.135169924715
 30
0.0
 11
437.4646127054711
 21
1146.635821508426
 31
0.0
  0
TEXT
  5
7080
330
1F
100
AcDbEntity
  8
LOGO
  6
Continuous
 62
     7
100
AcDbText
 10
435.4500408042444
 20
1153.013634732423
 30
0.0
 40
5.25
  1
6
  7
CHINESET
100
AcDbText
  0
LINE
  5
7083
330
1F
100
AcDbEntity
  8
LOGO
 62
     4
100
AcDbLine
 10
445.2169235467111
 20
1146.635821508426
 30
0.0
 11
445.2169235467111
 21
1135.637414268606
 31
0.0
  0
LINE
  5
7084
330
1F
100
AcDbEntity
  8
LOGO
 62
     4
100
AcDbLine
 10
426.8310130735117
 20
1146.635821508426
 30
0.0
 11
426.8310130735117
 21
1135.637414268606
 31
0.0
  0
LINE
  5
7085
330
1F
100
AcDbEntity
  8
LOGO
 62
     4
100
AcDbLine
 10
445.2169235467111
 20
1135.637414268606
 30
0.0
 11
426.8310130735117
 21
1135.637414268606
 31
0.0
  0
LINE
  5
708C
330
1F
100
AcDbEntity
  8
LOGO
 62
     4
100
AcDbLine
 10
445.2169235467111
 20
1146.635821508426
 30
0.0
 11
426.8310130735117
 21
1146.635821508426
 31
0.0
  0
TEXT
  5
709A
330
1F
100
AcDbEntity
  8
LOGO
  6
Continuous
100
AcDbText
 10
430.8146745481872
 20
1137.189816127842
 30
196.5865886400747
 40
2.25
  1
Tube I.D.
 41
0.8
  7
CHINESET
100
AcDbText
  0
TEXT
  5
709B
330
1F
100
AcDbEntity
  8
LOGO
100
AcDbText
 10
432.3787385753369
 20
1141.360831218234
 30
196.5865886400747
 40
3.75
  1
內徑
  7
CHINESET
100
AcDbText
  0
TEXT
  5
70AA
330
1F
100
AcDbEntity
  8
LOGO
100
AcDbText
 10
360.6106355081192
 20
1134.733533325439
 30
0.0
 40
3.0
  1
2120820B
 41
0.7
  7
CHINESET
 72
     1
 11
368.1106355081192
 21
1134.733533325439
 31
0.0
100
AcDbText
  0
LINE
  5
70AB
330
1F
100
AcDbEntity
  8
LOGO
 62
     4
100
AcDbLine
 10
377.4208321212614
 20
1139.136907481277
 30
0.0
 11
377.4208321212627
 21
1133.137776259557
 31
0.0
  0
LINE
  5
70AC
330
1F
100
AcDbEntity
  8
LOGO
 62
     4
100
AcDbLine
 10
377.4208321212614
 20
1139.136907481277
 30
0.0
 11
359.4208321212627
 21
1139.136907481277
 31
0.0
  0
CIRCLE
  5
70AD
330
1F
100
AcDbEntity
  8
LOGO
  6
Continuous
100
AcDbCircle
 10
344.9777989571069
 20
1154.141151628367
 30
0.0
 40
1.741618395480947
  0
CIRCLE
  5
70AE
330
1F
100
AcDbEntity
  8
LOGO
  6
Continuous
100
AcDbCircle
 10
344.9777989571069
 20
1154.141151628367
 30
0.0
 40
1.020434202998395
  0
LINE
  5
70AF
330
1F
100
AcDbEntity
  8
LOGO
100
AcDbLine
 10
355.9223310431617
 20
1152.399533232886
 30
0.0
 11
355.9223310431617
 21
1155.882770023848
 31
0.0
  0
LINE
  5
70B0
330
1F
100
AcDbEntity
  8
LOGO
100
AcDbLine
 10
350.4624573469953
 20
1153.120717425369
 30
0.0
 11
350.4624573469953
 21
1155.161585831366
 31
0.0
  0
LINE
  5
70B1
330
1F
100
AcDbEntity
  8
LOGO
  6
Continuous
100
AcDbLine
 10
350.4624573469953
 20
1155.161585831366
 30
0.0
 11
355.9223310431617
 21
1155.882770023848
 31
0.0
  0
LINE
  5
70B2
330
1F
100
AcDbEntity
  8
LOGO
  6
Continuous
100
AcDbLine
 10
350.4624573469953
 20
1153.120717425369
 30
0.0
 11
355.9223310431617
 21
1152.399533232886
 31
0.0
  0
LINE
  5
70B3
330
1F
100
AcDbEntity
  8
LOGO
  6
AM_ISO08W050x2
 48
0.3
100
AcDbLine
 10
342.5769519202545
 20
1154.141151628367
 30
0.0
 11
347.3786459939593
 21
1154.141151628367
 31
0.0
1001
GENIUS_GENOREF_13
1005
70B8
  0
LINE
  5
70B4
330
1F
100
AcDbEntity
  8
LOGO
  6
AM_ISO08W050x2
 48
0.3
100
AcDbLine
 10
344.9777989571069
 20
1151.740304591515
 30
0.0
 11
344.9777989571069
 21
1156.541998665219
 31
0.0
1001
GENIUS_GENOREF_13
1005
70B7
  0
LINE
  5
70B5
330
1F
100
AcDbEntity
  8
LOGO
  6
CENTER
 48
0.5
100
AcDbLine
 10
350.0258192077813
 20
1154.141151628367
 30
0.0
 11
356.4721226498432
 21
1154.141151628367
 31
0.0
1001
GENIUS_GENOREF_13
1005
70B6
  0
POINT
  5
70B6
330
1F
100
AcDbEntity
  8
0
 60
     1
100
AcDbPoint
 10
-1223.576401245173
 20
290.0635775878196
 30
0.0
1001
GENIUS_GENOBJ-N-CRS_13
1002
{
1000
OWNER
1000
GEN
1002
}
1001
GENIUS_GENOLIS_13
1002
{
1000
ENT
1005
0
1005
0
1005
0
1005
70B5
1002
}
1001
GENIUS_GENOENT_13
1002
{
1000
MYREF
1005
70B6
1002
}
1002
{
1000
GRP
1005
0
1002
}
1001
GENIUS_GENODEF_13
1002
{
1000
HIER
1070
    10
1002
}
1002
{
1000
MANEDIT
1070
     1
1002
}
1002
{
1000
NOSEL
1070
     0
1002
}
1002
{
1000
BEHIND
1070
     0
1002
}
1002
{
1000
OTHER
1070
     0
1002
}
1002
{
1000
REACTOR
1002
}
  0
POINT
  5
70B7
330
1F
100
AcDbEntity
  8
0
 60
     1
100
AcDbPoint
 10
-1234.900986468028
 20
298.9391640664559
 30
0.0
1001
GENIUS_GENOBJ-N-CRS_13
1002
{
1000
OWNER
1000
GEN
1002
}
1001
GENIUS_GENOLIS_13
1002
{
1000
ENT
1005
0
1005
0
1005
0
1005
70B4
1002
}
1001
GENIUS_GENOENT_13
1002
{
1000
MYREF
1005
70B7
1002
}
1002
{
1000
GRP
1005
0
1002
}
1001
GENIUS_GENODEF_13
1002
{
1000
HIER
1070
    10
1002
}
1002
{
1000
MANEDIT
1070
     1
1002
}
1002
{
1000
NOSEL
1070
     0
1002
}
1002
{
1000
BEHIND
1070
     0
1002
}
1002
{
1000
OTHER
1070
     0
1002
}
1002
{
1000
REACTOR
1002
}
  0
POINT
  5
70B8
330
1F
100
AcDbEntity
  8
0
 60
     1
100
AcDbPoint
 10
-1228.542312770191
 20
290.0635775878196
 30
0.0
1001
GENIUS_GENOBJ-N-CRS_13
1002
{
1000
OWNER
1000
GEN
1002
}
1001
GENIUS_GENOLIS_13
1002
{
1000
ENT
1005
0
1005
0
1005
0
1005
70B3
1002
}
1001
GENIUS_GENOENT_13
1002
{
1000
MYREF
1005
70B8
1002
}
1002
{
1000
GRP
1005
0
1002
}
1001
GENIUS_GENODEF_13
1002
{
1000
HIER
1070
    10
1002
}
1002
{
1000
MANEDIT
1070
     1
1002
}
1002
{
1000
NOSEL
1070
     0
1002
}
1002
{
1000
BEHIND
1070
     0
1002
}
1002
{
1000
OTHER
1070
     0
1002
}
1002
{
1000
REACTOR
1002
}
  0
LINE
  5
7B44
330
1F
100
AcDbEntity
  8
AM_7
  6
AM_ISO08W050x2
100
AcDbLine
 10
426.5249824118833
 20
1281.840989368842
 30
0.0
 11
426.5249824118833
 21
1306.018210401462
 31
0.0
  0
LINE
  5
7B45
102
{ACAD_REACTORS
330
81A9
102
}
330
1F
100
AcDbEntity
  8
AM_7
  6
AM_ISO08W050x2
100
AcDbLine
 10
403.642693968151
 20
1293.929599885152
 30
0.0
 11
449.4072708556159
 21
1293.929599885152
 31
0.0
  0
LINE
  5
7B4D
102
{ACAD_REACTORS
330
7E6A
330
7F4B
102
}
330
1F
100
AcDbEntity
  8
AM_7
  6
AM_ISO08W050x2
100
AcDbLine
 10
441.5249824118834
 20
1290.547311441419
 30
0.0
 11
441.5249824118834
 21
1301.311888328885
 31
0.0
  0
LINE
  5
7B4E
330
1F
100
AcDbEntity
  8
AM_7
  6
AM_ISO08W050x2
100
AcDbLine
 10
436.142693968151
 20
1295.929599885152
 30
0.0
 11
446.9072708556159
 21
1295.929599885152
 31
0.0
  0
LINE
  5
7B53
102
{ACAD_REACTORS
330
7DF8
102
}
330
1F
100
AcDbEntity
  8
AM_7
  6
AM_ISO08W050x2
100
AcDbLine
 10
436.5249826354008
 20
1351.136724378653
 30
0.0
 11
436.5249826354008
 21
1355.572088149675
 31
0.0
  0
LINE
  5
7B54
102
{ACAD_REACTORS
330
7E1E
102
}
330
1F
100
AcDbEntity
  8
AM_7
  6
AM_ISO08W050x2
100
AcDbLine
 10
434.3073007498899
 20
1353.354406264164
 30
0.0
 11
438.7426645209118
 21
1353.354406264164
 31
0.0
  0
LINE
  5
7B55
102
{ACAD_REACTORS
330
8273
102
}
330
1F
100
AcDbEntity
  8
AM_7
  6
AM_ISO08W050x2
100
AcDbLine
 10
404.8249824118832
 20
1206.589153417657
 30
0.0
 11
404.8249824118832
 21
1209.726278175307
 31
0.0
  0
LINE
  5
7B56
330
1F
100
AcDbEntity
  8
AM_7
  6
AM_ISO08W050x2
100
AcDbLine
 10
403.2564200330585
 20
1208.157715796482
 30
0.0
 11
406.393544790708
 21
1208.157715796482
 31
0.0
  0
LINE
  5
7B5D
330
1F
100
AcDbEntity
  8
AM_7
  6
AM_ISO08W050x2
100
AcDbLine
 10
354.7867248776366
 20
1281.977153639066
 30
0.0
 11
354.7867248776366
 21
1294.882046131238
 31
0.0
  0
LINE
  5
7B5E
330
1F
100
AcDbEntity
  8
AM_7
  6
AM_ISO08W050x2
100
AcDbLine
 10
348.3342786315503
 20
1288.429599885152
 30
0.0
 11
361.239171123723
 21
1288.429599885152
 31
0.0
  0
LINE
  5
7B63
102
{ACAD_REACTORS
330
8273
102
}
330
1F
100
AcDbEntity
  8
AM_7
  6
AM_ISO08W050x2
100
AcDbLine
 10
448.2249824118833
 20
1206.589153417657
 30
0.0
 11
448.2249824118833
 21
1209.726278175307
 31
0.0
  0
LINE
  5
7B64
330
1F
100
AcDbEntity
  8
AM_7
  6
AM_ISO08W050x2
100
AcDbLine
 10
446.6564200330586
 20
1208.157715796482
 30
0.0
 11
449.7935447907081
 21
1208.157715796482
 31
0.0
  0
LINE
  5
7DC8
330
1F
100
AcDbEntity
  8
LOGO
  6
Continuous
 62
     7
100
AcDbLine
 10
445.002255836864
 20
1155.602643534694
 30
0.0
 11
448.9757520102734
 21
1155.602643534694
 31
0.0
  0
LINE
  5
7DC9
330
1F
100
AcDbEntity
  8
LOGO
 62
     4
100
AcDbLine
 10
466.4867916350416
 20
1160.133866757294
 30
0.0
 11
450.9068753730019
 21
1160.133866757294
 31
0.0
  0
LINE
  5
7DCA
330
1F
100
AcDbEntity
  8
LOGO
 62
     4
100
AcDbLine
 10
466.4867916350416
 20
1151.135169924715
 30
0.0
 11
450.9068753730019
 21
1151.135169924715
 31
0.0
  0
LINE
  5
7DCB
330
1F
100
AcDbEntity
  8
LOGO
 62
     4
100
AcDbLine
 10
450.9068753730019
 20
1160.133866757294
 30
0.0
 11
450.9068753730019
 21
1151.135169924715
 31
0.0
  0
LINE
  5
7DCC
330
1F
100
AcDbEntity
  8
LOGO
 62
     4
100
AcDbLine
 10
466.4867916350416
 20
1160.133866757294
 30
0.0
 11
466.4867916350416
 21
1151.135169924715
 31
0.0
  0
LINE
  5
7DCD
330
1F
100
AcDbEntity
  8
LOGO
 62
     4
100
AcDbLine
 10
459.9339130936676
 20
1151.135169924715
 30
0.0
 11
459.9339130936676
 21
1146.635821508426
 31
0.0
  0
TEXT
  5
7DCE
330
1F
100
AcDbEntity
  8
LOGO
  6
Continuous
 62
     7
100
AcDbText
 10
452.6972786572629
 20
1153.013634732423
 30
0.0
 40
5.25
  1
180
  7
CHINESET
100
AcDbText
  0
LINE
  5
7DCF
330
1F
100
AcDbEntity
  8
LOGO
 62
     4
100
AcDbLine
 10
469.7165167224383
 20
1146.635821508426
 30
0.0
 11
469.7165167224383
 21
1135.637414268606
 31
0.0
  0
LINE
  5
7DD0
330
1F
100
AcDbEntity
  8
LOGO
 62
     4
100
AcDbLine
 10
450.1513094648968
 20
1146.635821508426
 30
0.0
 11
450.1513094648968
 21
1135.637414268606
 31
0.0
  0
LINE
  5
7DD1
330
1F
100
AcDbEntity
  8
LOGO
 62
     4
100
AcDbLine
 10
469.7165167224382
 20
1135.637414268606
 30
0.0
 11
450.1513094648968
 21
1135.637414268606
 31
0.0
  0
LINE
  5
7DD2
330
1F
100
AcDbEntity
  8
LOGO
 62
     4
100
AcDbLine
 10
469.7165167224382
 20
1146.635821508426
 30
0.0
 11
450.1513094648968
 21
1146.635821508426
 31
0.0
  0
TEXT
  5
7DD3
330
1F
100
AcDbEntity
  8
LOGO
  6
Continuous
100
AcDbText
 10
451.7018462748653
 20
1137.189816127842
 30
196.5865886400747
 40
2.25
  1
Rotary angle
 41
0.8
  7
CHINESET
100
AcDbText
  0
TEXT
  5
7DD4
330
1F
100
AcDbEntity
  8
LOGO
100
AcDbText
 10
453.265910302015
 20
1141.360831218234
 30
196.5865886400747
 40
3.75
  1
作動角度
  7
CHINESET
100
AcDbText
  0
DIMENSION
  5
7DEA
102
{ACAD_XDICTIONARY
360
7DF7
102
}
102
{ACAD_REACTORS
330
7DF8
102
}
330
1F
100
AcDbEntity
  8
AM_5
100
AcDbDimension
  2
*D3
 10
436.5249826354008
 20
1366.902263973028
 30
0.0
 11
426.5249826354009
 21
1369.352608461217
 31
0.0
 70
    32
 71
     5
 42
20.0
  3
AM_ISO$0
100
AcDbAlignedDimension
 13
416.5249826354008
 23
1355.572088149675
 33
0.0
 14
436.5249826354008
 24
1355.572088149675
 34
0.0
100
AcDbRotatedDimension
1001
ACAD
1000
DSTYLE
1002
{
1070
    40
1040
1.0
1070
   144
1040
1.0
1070
   272
1070
     8
1002
}
  0
DIMENSION
  5
7E10
102
{ACAD_XDICTIONARY
360
7E1D
102
}
102
{ACAD_REACTORS
330
7E1E
102
}
330
1F
100
AcDbEntity
  8
AM_5
100
AcDbDimension
  2
*D4
 10
459.5195118807295
 20
1360.354406114562
 30
0.0
 11
459.5195118807294
 21
1356.854406189363
 31
0.0
 70
   160
 71
     5
 42
6.999999850398808
  3
AM_ISO$0
100
AcDbAlignedDimension
 13
438.7426645209118
 23
1353.354406264164
 33
0.0
 14
453.5249856752376
 24
1360.354406114562
 34
0.0
 50
90.0
100
AcDbRotatedDimension
1001
ACAD
1000
DSTYLE
1002
{
1070
    40
1040
1.0
1070
   144
1040
1.0
1070
   272
1070
     8
1002
}
  0
DIMENSION
  5
7E36
330
1F
100
AcDbEntity
  8
AM_5
100
AcDbDimension
  2
*D5
 10
453.5249854517201
 20
1316.768161581439
 30
0.0
 11
426.5249838200429
 21
1316.768161581439
 31
0.0
 70
   160
 71
     5
 42
54.0000032633543
  3
AM_ISO$0
100
AcDbAlignedDimension
 13
399.5249821883658
 23
1299.429599839706
 33
0.0
 14
453.5249854517201
 24
1299.429599839706
 34
0.0
100
AcDbRotatedDimension
1001
ACAD
1000
DSTYLE
1002
{
1070
    40
1040
1.0
1070
   144
1040
1.0
1070
   272
1070
     8
1002
}
  0
DIMENSION
  5
7E5C
102
{ACAD_XDICTIONARY
360
7E69
102
}
102
{ACAD_REACTORS
330
7E6A
102
}
330
1F
100
AcDbEntity
  8
AM_5
100
AcDbDimension
  2
*D6
 10
441.5249824118834
 20
1309.613924502558
 30
0.0
 11
426.5249824118834
 21
1309.613924502558
 31
0.0
 70
   160
 71
     5
 42
30.0
  3
AM_ISO$0
100
AcDbAlignedDimension
 13
411.5249824118834
 23
1301.311888328885
 33
0.0
 14
441.5249824118834
 24
1301.311888328885
 34
0.0
100
AcDbRotatedDimension
1001
ACAD
1000
DSTYLE
1002
{
1070
    40
1040
1.0
1070
   144
1040
1.0
1070
   272
1070
     8
1002
}
  0
DIMENSION
  5
7F3D
102
{ACAD_XDICTIONARY
360
7F4A
102
}
102
{ACAD_REACTORS
330
7F4B
102
}
330
1F
100
AcDbEntity
  8
AM_5
100
AcDbDimension
  2
*D7
 10
453.5249854517201
 20
1309.613924502558
 30
0.0
 11
447.5249839318016
 21
1309.613924502558
 31
0.0
 70
   160
 71
     5
 42
12.00000303983665
  3
AM_ISO$0
100
AcDbAlignedDimension
 13
441.5249824118834
 23
1301.311888328885
 33
0.0
 14
453.5249854517201
 24
1299.429599839706
 34
0.0
100
AcDbRotatedDimension
1001
ACAD
1000
DSTYLE
1002
{
1070
    40
1040
1.0
1070
   144
1040
1.0
1070
   272
1070
     8
1002
}
  0
LINE
  5
7F6F
330
1F
100
AcDbEntity
  8
AM_7
  6
AM_ISO08W050x2
100
AcDbLine
 10
411.5249824118834
 20
1290.547311441419
 30
0.0
 11
411.5249824118834
 21
1301.311888328885
 31
0.0
  0
LINE
  5
7F70
102
{ACAD_REACTORS
330
8181
102
}
330
1F
100
AcDbEntity
  8
AM_7
  6
AM_ISO08W050x2
100
AcDbLine
 10
406.1426939681509
 20
1295.929599885152
 30
0.0
 11
416.9072708556159
 21
1295.929599885152
 31
0.0
  0
LINE
  5
7F85
102
{ACAD_REACTORS
330
8009
102
}
330
1F
100
AcDbEntity
  8
AM_7
  6
AM_ISO08W050x2
100
AcDbLine
 10
418.5249824118834
 20
1278.36022397552
 30
0.0
 11
418.5249824118834
 21
1286.298975794784
 31
0.0
  0
LINE
  5
7F86
330
1F
100
AcDbEntity
  8
AM_7
  6
AM_ISO08W050x2
100
AcDbLine
 10
414.5556065022517
 20
1282.329599885152
 30
0.0
 11
422.4943583215151
 21
1282.329599885152
 31
0.0
  0
LINE
  5
7F88
102
{ACAD_REACTORS
330
8009
102
}
330
1F
100
AcDbEntity
  8
AM_7
  6
AM_ISO08W050x2
100
AcDbLine
 10
434.5249824118829
 20
1278.360223975521
 30
0.0
 11
434.5249824118829
 21
1286.298975794784
 31
0.0
  0
LINE
  5
7F89
102
{ACAD_REACTORS
330
7FAB
102
}
330
1F
100
AcDbEntity
  8
AM_7
  6
AM_ISO08W050x2
100
AcDbLine
 10
430.5556065022512
 20
1282.329599885152
 30
0.0
 11
438.4943583215147
 21
1282.329599885152
 31
0.0
  0
DIMENSION
  5
7F9D
102
{ACAD_XDICTIONARY
360
7FAA
102
}
102
{ACAD_REACTORS
330
7FAB
102
}
330
1F
100
AcDbEntity
  8
AM_5
100
AcDbDimension
  2
*D8
 10
464.6092905758562
 20
1282.329599885152
 30
0.0
 11
464.609290575856
 21
1291.879599957424
 31
0.0
 70
   160
 71
     5
 42
17.09999995455382
  3
AM_ISO$0
100
AcDbAlignedDimension
 13
453.5249854517201
 23
1299.429599839706
 33
0.0
 14
438.4943583215147
 24
1282.329599885152
 34
0.0
 50
90.0
100
AcDbRotatedDimension
1001
ACAD
1000
DSTYLE
1002
{
1070
   271
1070
     1
1070
   272
1070
     8
1002
}
  0
DIMENSION
  5
7FCC
330
1F
100
AcDbEntity
  8
AM_5
100
AcDbDimension
  2
*D9
 10
472.5227208917888
 20
1299.429599839706
 30
0.0
 11
472.5227208917885
 21
1289.679599966366
 31
0.0
 70
   160
 71
     5
 42
19.49999993667052
  3
AM_ISO$0
100
AcDbAlignedDimension
 13
453.5249854517201
 23
1279.929599903036
 33
0.0
 14
453.5249854517201
 24
1299.429599839706
 34
0.0
 50
90.0
100
AcDbRotatedDimension
1001
ACAD
1000
DSTYLE
1002
{
1070
   271
1070
     1
1070
   272
1070
     8
1002
}
  0
DIMENSION
  5
7FFB
102
{ACAD_XDICTIONARY
360
8008
102
}
102
{ACAD_REACTORS
330
8009
102
}
330
1F
100
AcDbEntity
  8
AM_5
100
AcDbDimension
  2
*D10
 10
434.5249824118829
 20
1270.956733646632
 30
0.0
 11
426.5249824118832
 21
1270.956733646632
 31
0.0
 70
   160
 71
     5
 42
15.99999999999954
  3
AM_ISO$0
100
AcDbAlignedDimension
 13
418.5249824118834
 23
1278.36022397552
 33
0.0
 14
434.5249824118829
 24
1278.360223975521
 34
0.0
100
AcDbRotatedDimension
1001
ACAD
1000
DSTYLE
1002
{
1070
   272
1070
     8
1002
}
  0
DIMENSION
  5
802A
330
1F
100
AcDbEntity
  8
AM_5
100
AcDbDimension
  2
*D11
 10
439.0249817860347
 20
1264.06417057305
 30
0.0
 11
426.5249825310927
 21
1266.514515061239
 31
0.0
 70
    32
 71
     5
 42
24.99999850988388
  3
AM_ISO$0
100
AcDbAlignedDimension
 13
414.0249832761508
 23
1271.540990008104
 33
0.0
 14
439.0249817860347
 24
1271.540990008104
 34
0.0
100
AcDbRotatedDimension
1001
ACAD
1000
DSTYLE
1002
{
1070
   272
1070
     8
1002
}
  0
DIMENSION
  5
8059
330
1F
100
AcDbEntity
  8
AM_5
100
AcDbDimension
  2
*D12
 10
442.5249817860344
 20
1256.064170573049
 30
0.0
 11
426.5249819573978
 21
1258.514515061238
 31
0.0
 70
    32
 71
     5
 42
31.99999965727329
  3
AM_ISO$0
100
AcDbAlignedDimension
 13
410.5249821287611
 23
1280.429599984993
 33
0.0
 14
442.5249817860344
 24
1280.429599984993
 34
0.0
100
AcDbRotatedDimension
1001
ACAD
1000
DSTYLE
1002
{
1070
   272
1070
     8
1002
}
  0
LINE
  5
807D
330
1F
100
AcDbEntity
  8
AM_7
  6
AM_ISO08W050x2
100
AcDbLine
 10
414.0249832761508
 20
1271.540990008104
 30
0.0
 11
414.0249832761508
 21
1292.67375692398
 31
0.0
  0
LINE
  5
807E
330
1F
100
AcDbEntity
  8
AM_7
  6
AM_ISO08W050x2
100
AcDbLine
 10
439.0249817860347
 20
1271.540990008104
 30
0.0
 11
439.0249817860347
 21
1292.67375692398
 31
0.0
  0
DIMENSION
  5
8171
102
{ACAD_XDICTIONARY
360
8180
102
}
102
{ACAD_REACTORS
330
8181
102
}
330
1F
100
AcDbEntity
  8
AM_5
100
AcDbDimension
  2
*D13
 10
396.3498044911481
 20
1299.429599839706
 30
0.0
 11
396.3498044911479
 21
1308.652087213122
 31
0.0
 70
   160
 71
     5
 42
3.499999954554368
  3
AM_ISO$0
100
AcDbAlignedDimension
 13
406.1426939681509
 23
1295.929599885152
 33
0.0
 14
399.5249821883658
 24
1299.429599839706
 34
0.0
 50
90.0
100
AcDbRotatedDimension
1001
ACAD
1000
DSTYLE
1002
{
1070
    40
1040
1.0
1070
   144
1040
1.0
1070
   271
1070
     1
1070
   272
1070
     8
1002
}
  0
DIMENSION
  5
819B
102
{ACAD_XDICTIONARY
360
81A8
102
}
102
{ACAD_REACTORS
330
81A9
102
}
330
1F
100
AcDbEntity
  8
AM_5
100
AcDbDimension
  2
*D14
 10
389.4168256049834
 20
1299.429599839706
 30
0.0
 11
389.4168256049832
 21
1296.679599862429
 31
0.0
 70
   160
 71
     5
 42
5.499999954554368
  3
AM_ISO$0
100
AcDbAlignedDimension
 13
403.642693968151
 23
1293.929599885152
 33
0.0
 14
399.5249821883658
 24
1299.429599839706
 34
0.0
 50
90.0
100
AcDbRotatedDimension
1001
ACAD
1000
DSTYLE
1002
{
1070
    40
1040
1.0
1070
   144
1040
1.0
1070
   271
1070
     1
1070
   272
1070
     8
1002
}
  0
DIMENSION
  5
81D0
330
1F
100
AcDbEntity
  8
AM_5
100
AcDbDimension
  2
*D15
 10
396.3498044911481
 20
1280.229600324739
 30
0.0
 11
396.3498044911479
 21
1277.429600424577
 31
0.0
 70
   160
 71
     5
 42
5.599999800324894
  3
AM_ISO$0
100
AcDbAlignedDimension
 13
412.6249823165157
 23
1274.629600524415
 33
0.0
 14
399.5249821883658
 24
1280.229600324739
 34
0.0
 50
90.0
100
AcDbRotatedDimension
1001
ACAD
1000
DSTYLE
1002
{
1070
    40
1040
1.0
1070
   144
1040
1.0
1070
   271
1070
     1
1070
   272
1070
     8
1002
}
  0
LINE
  5
822A
102
{ACAD_REACTORS
330
8009
102
}
330
1F
100
AcDbEntity
  8
AM_7
  6
AM_ISO08W050x2
100
AcDbLine
 10
438.9249810767393
 20
1212.681748334216
 30
0.0
 11
438.9249810767393
 21
1217.833683258749
 31
0.0
  0
LINE
  5
822B
330
1F
100
AcDbEntity
  8
AM_7
  6
AM_ISO08W050x2
100
AcDbLine
 10
436.3490136144731
 20
1215.257715796482
 30
0.0
 11
441.5009485390054
 21
1215.257715796482
 31
0.0
  0
LINE
  5
822D
102
{ACAD_REACTORS
330
8009
102
}
330
1F
100
AcDbEntity
  8
AM_7
  6
AM_ISO08W050x2
100
AcDbLine
 10
413.9249810767393
 20
1212.681748334216
 30
0.0
 11
413.9249810767393
 21
1217.833683258749
 31
0.0
  0
LINE
  5
822E
102
{ACAD_REACTORS
330
829B
102
}
330
1F
100
AcDbEntity
  8
AM_7
  6
AM_ISO08W050x2
100
AcDbLine
 10
411.3490136144731
 20
1215.257715796482
 30
0.0
 11
416.5009485390054
 21
1215.257715796482
 31
0.0
  0
DIMENSION
  5
823F
330
1F
100
AcDbEntity
  8
AM_5
100
AcDbDimension
  2
*D16
 10
460.0561498816913
 20
1198.657715946083
 30
0.0
 11
460.0561498816911
 21
1203.407715871283
 31
0.0
 70
   160
 71
     5
 42
9.499999850399035
  3
AM_ISO$0
100
AcDbAlignedDimension
 13
449.7935447907081
 23
1208.157715796482
 33
0.0
 14
453.5249854517201
 24
1198.657715946083
 34
0.0
 50
90.00000000000323
100
AcDbRotatedDimension
1001
ACAD
1000
DSTYLE
1002
{
1070
    40
1040
1.0
1070
   144
1040
1.0
1070
   271
1070
     1
1070
   272
1070
     8
1002
}
  0
DIMENSION
  5
8265
102
{ACAD_XDICTIONARY
360
8272
102
}
102
{ACAD_REACTORS
330
8273
102
}
330
1F
100
AcDbEntity
  8
AM_5
100
AcDbDimension
  2
*D17
 10
404.8249824118832
 20
1186.657346010197
 30
0.0
 11
426.5249824118833
 21
1186.657346010197
 31
0.0
 70
   160
 71
     5
 42
43.40000000000009
  3
AM_ISO$0
100
AcDbAlignedDimension
 13
448.2249824118833
 23
1206.589153417657
 33
0.0
 14
404.8249824118832
 24
1206.589153417657
 34
0.0
100
AcDbRotatedDimension
1001
ACAD
1000
DSTYLE
1002
{
1070
    40
1040
1.0
1070
   144
1040
1.0
1070
   271
1070
     1
1070
   272
1070
     8
1002
}
  0
DIMENSION
  5
828B
102
{ACAD_XDICTIONARY
360
829A
102
}
102
{ACAD_REACTORS
330
829B
102
}
330
1F
100
AcDbEntity
  8
AM_5
100
AcDbDimension
  2
*D18
 10
397.4157786995706
 20
1212.1577158306
 30
0.0
 11
397.4157786995704
 21
1224.057715796482
 31
0.0
 70
   160
 71
     5
 42
3.099999965882716
  3
AM_ISO$0
100
AcDbAlignedDimension
 13
411.3490136144731
 23
1215.257715796482
 33
0.0
 14
399.5249821883658
 24
1212.1577158306
 34
0.0
 50
90.0
100
AcDbRotatedDimension
1001
ACAD
1000
DSTYLE
1002
{
1070
    40
1040
1.0
1070
   144
1040
1.0
1070
   271
1070
     1
1070
   272
1070
     8
1002
}
  0
DIMENSION
  5
82B5
330
1F
100
AcDbEntity
  8
AM_5
100
AcDbDimension
  2
*D19
 10
391.7056497508529
 20
1212.1577158306
 30
0.0
 11
391.7056497508527
 21
1215.457716045549
 31
0.0
 70
   160
 71
     5
 42
6.6000004298985
  3
AM_ISO$0
100
AcDbAlignedDimension
 13
410.6249819588879
 23
1218.757716260498
 33
0.0
 14
399.5249821883658
 24
1212.1577158306
 34
0.0
 50
90.0
100
AcDbRotatedDimension
1001
ACAD
1000
DSTYLE
1002
{
1070
    40
1040
1.0
1070
   144
1040
1.0
1070
   271
1070
     1
1070
   272
1070
     8
1002
}
  0
DIMENSION
  5
82DF
330
1F
100
AcDbEntity
  8
AM_5
100
AcDbDimension
  2
*D20
 10
428.7749809366685
 20
1232.856175409134
 30
0.0
 11
414.7631651804375
 21
1232.856175409134
 31
0.0
 70
   160
 71
     5
 42
4.5
  3
AM_ISO$0
100
AcDbAlignedDimension
 13
424.2749809366684
 23
1226.457715287452
 33
0.0
 14
428.7749809366685
 24
1226.657714947706
 34
0.0
100
AcDbRotatedDimension
1001
ACAD
1000
DSTYLE
1002
{
1070
    40
1040
1.0
1070
   144
1040
1.0
1070
   271
1070
     1
1070
   272
1070
     8
1002
}
  0
DIMENSION
  5
8323
330
1F
100
AcDbEntity
  8
AM_5
100
AcDbDimension
  2
*D21
 10
361.2867247280353
 20
1305.597098101365
 30
0.0
 11
354.5367247857773
 21
1305.597098101365
 31
0.0
 70
   160
 71
     5
 42
13.499999884516
  3
AM_ISO$0
100
AcDbAlignedDimension
 13
347.7867248435193
 23
1299.129599883665
 33
0.0
 14
361.2867247280353
 24
1299.129599883665
 34
0.0
100
AcDbRotatedDimension
1001
ACAD
1000
DSTYLE
1002
{
1070
    40
1040
1.0
1070
   144
1040
1.0
1070
   271
1070
     1
1070
   272
1070
     8
1002
}
  0
DIMENSION
  5
8373
330
1F
100
AcDbEntity
  8
AM_5
100
AcDbDimension
  2
*D22
 10
339.786724929201
 20
1305.597098101365
 30
0.0
 11
336.5367249292011
 21
1305.597098101365
 31
0.0
 70
   160
 71
     5
 42
6.499999999999772
  3
AM_ISO$0
100
AcDbAlignedDimension
 13
333.2867249292012
 23
1296.229599763505
 33
0.0
 14
339.786724929201
 24
1307.929599835981
 34
0.0
100
AcDbRotatedDimension
1001
ACAD
1000
DSTYLE
1002
{
1070
   173
1070
     1
1070
   271
1070
     1
1070
   272
1070
     8
1070
   344
1005
83A8
1002
}
  0
DIMENSION
  5
838B
330
1F
100
AcDbEntity
  8
AM_5
100
AcDbDimension
  2
*D23
 10
339.786724929201
 20
1305.597098101365
 30
0.0
 11
342.7867249552781
 21
1305.597098101365
 31
0.0
 70
   160
 71
     5
 42
6.000000052154291
  3
AM_ISO$0
100
AcDbAlignedDimension
 13
345.7867249813553
 23
1301.729600123574
 33
0.0
 14
339.786724929201
 24
1301.729600123574
 34
0.0
100
AcDbRotatedDimension
1001
ACAD
1000
DSTYLE
1002
{
1070
   271
1070
     1
1070
   272
1070
     8
1002
}
  0
DIMENSION
  5
83DA
330
1F
100
AcDbEntity
  8
AM_5
100
AcDbDimension
  2
*D25
 10
361.2867247280353
 20
1313.376606811137
 30
0.0
 11
347.2867252272242
 21
1313.376606811137
 31
0.0
 70
   160
 71
     5
 42
27.9999997988341
  3
AM_ISO$0
100
AcDbAlignedDimension
 13
333.2867249292012
 23
1296.229599763505
 33
0.0
 14
361.2867247280353
 24
1299.129599883665
 34
0.0
100
AcDbRotatedDimension
1001
ACAD
1000
DSTYLE
1002
{
1070
    40
1040
1.0
1070
   144
1040
1.0
1070
   271
1070
     1
1070
   272
1070
     8
1002
}
  0
DIMENSION
  5
842B
330
1F
100
AcDbEntity
  8
AM_5
100
AcDbDimension
  2
*D26
 10
369.7616974639057
 20
1279.929599903036
 30
0.0
 11
369.7616974639054
 21
1291.429142207987
 31
0.0
 70
   160
 71
     5
 42
2.199999982115969
  3
AM_ISO$0
100
AcDbAlignedDimension
 13
357.8867248776368
 23
1282.129599885152
 33
0.0
 14
360.986725237655
 24
1279.929599903036
 34
0.0
 50
90.0
100
AcDbRotatedDimension
1001
ACAD
1000
DSTYLE
1002
{
1070
    40
1040
1.0
1070
   144
1040
1.0
1070
   271
1070
     1
1070
   272
1070
     8
1002
}
  0
DIMENSION
  5
8455
330
1F
100
AcDbEntity
  8
AM_5
100
AcDbDimension
  2
*D27
 10
361.2867247280353
 20
1269.244716427408
 30
0.0
 11
370.6117247280354
 21
1269.244716427408
 31
0.0
 70
   160
 71
     5
 42
3.399999850398558
  3
AM_ISO$0
100
AcDbAlignedDimension
 13
357.8867248776368
 23
1282.129599885152
 33
0.0
 14
361.2867247280353
 24
1280.229600324739
 34
0.0
100
AcDbRotatedDimension
1001
ACAD
1000
DSTYLE
1002
{
1070
    40
1040
1.0
1070
   144
1040
1.0
1070
   271
1070
     1
1070
   272
1070
     8
1002
}
  0
DIMENSION
  5
847F
330
1F
100
AcDbEntity
  8
AM_5
100
AcDbDimension
  2
*D28
 10
341.1867244136208
 20
1269.244716427408
 30
0.0
 11
330.811724929201
 21
1269.244716427408
 31
0.0
 70
   160
 71
     5
 42
1.399999484419822
  3
AM_ISO$0
100
AcDbAlignedDimension
 13
339.786724929201
 23
1286.029600018148
 33
0.0
 14
341.1867244136208
 24
1280.429599984993
 34
0.0
100
AcDbRotatedDimension
1001
ACAD
1000
DSTYLE
1002
{
1070
    40
1040
1.0
1070
   144
1040
1.0
1070
   271
1070
     1
1070
   272
1070
     8
1002
}
  0
LINE
  5
8501
330
1F
100
AcDbEntity
  8
AM_5
 62
     5
100
AcDbLine
 10
491.221602970358
 20
1269.364813129337
 30
0.0
 11
461.4883618304558
 21
1269.364813129337
 31
0.0
  0
LINE
  5
8502
330
1F
100
AcDbEntity
  8
AM_5
 62
     5
100
AcDbLine
 10
461.4883618304558
 20
1269.364813129337
 30
0.0
 11
445.6834386399115
 21
1291.098918349321
 31
0.0
  0
TRACE
  5
8503
330
1F
100
AcDbEntity
  8
AM_5
 62
     5
370
    35
100
AcDbTrace
 10
446.0561049323153
 20
1291.369919251707
 30
0.0
 11
445.3107723475076
 21
1290.827917446936
 31
0.0
 12
443.6249824118834
 22
1293.929599885152
 32
0.0
 13
443.6249824118834
 23
1293.929599885152
 33
0.0
  0
MTEXT
  5
8504
330
1F
100
AcDbEntity
  8
AM_5
 62
     5
100
AcDbMText
 10
487.8696871817576
 20
1221.045263635073
 30
0.0
 40
3.5
 41
0.0
 71
     7
 72
     5
  1

  7
ACISOTS
 73
     1
 44
1.0
1001
ACAD
1000
MTEXTBEGIN
1070
    73
1070
     1
1070
    44
1040
1.0
1070
    74
1070
     0
1000
MTEXTEND
  0
TEXT
  5
8509
330
1F
100
AcDbEntity
  8
AM_5
100
AcDbText
 10
455.360105849316
 20
1253.176734181338
 30
0.0
 40
3.5
  1
2-M3x0.5x4 depth
100
AcDbText
  0
LINE
  5
850B
330
1F
100
AcDbEntity
  8
AM_5
 62
     5
100
AcDbLine
 10
492.8607433504648
 20
1252.140872818471
 30
0.0
 11
454.9063779859499
 21
1252.140872818471
 31
0.0
  0
LINE
  5
850C
330
1F
100
AcDbEntity
  8
AM_5
 62
     5
100
AcDbLine
 10
454.9063779859499
 20
1252.140872818471
 30
0.0
 11
436.5970763188929
 21
1279.508885996694
 31
0.0
  0
TRACE
  5
850D
330
1F
100
AcDbEntity
  8
AM_5
 62
     5
370
    35
100
AcDbTrace
 10
436.9684303456308
 20
1279.781682333571
 30
0.0
 11
436.2257222921551
 21
1279.236089659818
 31
0.0
 12
434.5249824118834
 22
1282.329599885152
 32
0.0
 13
434.5249824118834
 23
1282.329599885152
 33
0.0
  0
LINE
  5
9C9B
102
{ACAD_REACTORS
330
7DF8
102
}
330
1F
100
AcDbEntity
  8
AM_7
  6
AM_ISO08W050x2
100
AcDbLine
 10
416.5249826354008
 20
1351.136724378653
 30
0.0
 11
416.5249826354008
 21
1355.572088149675
 31
0.0
  0
LINE
  5
9C9C
330
1F
100
AcDbEntity
  8
AM_7
  6
AM_ISO08W050x2
100
AcDbLine
 10
414.3073007498899
 20
1353.354406264164
 30
0.0
 11
418.7426645209118
 21
1353.354406264164
 31
0.0
  0
ARC
  5
A223
330
1F
100
AcDbEntity
  8
0
  6
Continuous
 62
     7
370
    15
100
AcDbCircle
 10
431.4749824118833
 20
1290.479599885152
 30
0.0
 40
1.199999999999988
100
AcDbArc
 50
0.0
 51
90.0
  0
ARC
  5
A224
330
1F
100
AcDbEntity
  8
0
  6
Continuous
 62
     7
370
    15
100
AcDbCircle
 10
431.4749824118833
 20
1287.379599885152
 30
0.0
 40
1.199999999999988
100
AcDbArc
 50
270.0
 51
0.0
  0
SPLINE
  5
A225
330
1F
100
AcDbEntity
  8
0
  6
Continuous
 62
     7
370
    15
100
AcDbSpline
210
0.0
220
0.0
230
1.0
 70
    24
 71
     1
 72
     4
 73
     2
 74
     0
 42
0.0000000001
 43
0.0000000001
 40
0.0
 40
0.0
 40
1.0
 40
1.0
 10
431.0249808323601
 20
1286.179599996169
 30
0.0
 10
431.4749809992531
 20
1286.179599996169
 30
0.0
  0
SPLINE
  5
A226
330
1F
100
AcDbEntity
  8
0
  6
Continuous
 62
     7
370
    15
100
AcDbSpline
210
0.0
220
0.0
230
1.0
 70
    24
 71
     1
 72
     4
 73
     2
 74
     0
 42
0.0000000001
 43
0.0000000001
 40
0.0
 40
0.0
 40
1.0
 40
1.0
 10
431.4749809992531
 20
1291.679599849951
 30
0.0
 10
431.0249808323601
 20
1291.679599849951
 30
0.0
  0
ARC
  5
A227
330
1F
100
AcDbEntity
  8
0
  6
Continuous
 62
     7
370
    15
100
AcDbCircle
 10
431.4749824118833
 20
1300.479599885152
 30
0.0
 40
1.199999999999988
100
AcDbArc
 50
0.0
 51
90.0
  0
ARC
  5
A228
330
1F
100
AcDbEntity
  8
0
  6
Continuous
 62
     7
370
    15
100
AcDbCircle
 10
431.4749824118833
 20
1297.379599885152
 30
0.0
 40
1.200000000000017
100
AcDbArc
 50
270.0
 51
0.0
  0
SPLINE
  5
A229
330
1F
100
AcDbEntity
  8
0
  6
Continuous
 62
     7
370
    15
100
AcDbSpline
210
0.0
220
0.0
230
1.0
 70
    24
 71
     1
 72
     4
 73
     2
 74
     0
 42
0.0000000001
 43
0.0000000001
 40
0.0
 40
0.0
 40
1.0
 40
1.0
 10
431.0249808323601
 20
1296.179599772651
 30
0.0
 10
431.4749809992531
 20
1296.179599772651
 30
0.0
  0
SPLINE
  5
A22A
330
1F
100
AcDbEntity
  8
0
  6
Continuous
 62
     7
370
    15
100
AcDbSpline
210
0.0
220
0.0
230
1.0
 70
    24
 71
     1
 72
     4
 73
     2
 74
     0
 42
0.0000000001
 43
0.0000000001
 40
0.0
 40
0.0
 40
1.0
 40
1.0
 10
431.4749809992531
 20
1301.67960020851
 30
0.0
 10
431.0249808323601
 20
1301.67960020851
 30
0.0
  0
SPLINE
  5
A22B
330
1F
100
AcDbEntity
  8
0
  6
Continuous
 62
     7
370
    15
100
AcDbSpline
210
0.0
220
0.0
230
1.0
 70
    24
 71
     1
 72
     4
 73
     2
 74
     0
 42
0.0000000001
 43
0.0000000001
 40
0.0
 40
0.0
 40
1.0
 40
1.0
 10
415.524982948325
 20
1274.829600184668
 30
0.0
 10
415.524982948325
 20
1277.839599355568
 30
0.0
  0
SPLINE
  5
A22C
330
1F
100
AcDbEntity
  8
0
  6
Continuous
 62
     7
370
    15
100
AcDbSpline
210
0.0
220
0.0
230
1.0
 70
    24
 71
     1
 72
     4
 73
     2
 74
     0
 42
0.0000000001
 43
0.0000000001
 40
0.0
 40
0.0
 40
1.0
 40
1.0
 10
412.5249824565867
 20
1277.839599355568
 30
0.0
 10
412.5249824565867
 20
1274.829600184668
 30
0.0
  0
SPLINE
  5
A22D
330
1F
100
AcDbEntity
  8
0
  6
Continuous
 62
     7
370
    15
100
AcDbSpline
210
0.0
220
0.0
230
1.0
 70
    24
 71
     1
 72
     4
 73
     2
 74
     0
 42
0.0000000001
 43
0.0000000001
 40
0.0
 40
0.0
 40
1.0
 40
1.0
 10
412.5249824565867
 20
1274.829600184668
 30
0.0
 10
412.7249821168402
 20
1274.629600524415
 30
0.0
  0
SPLINE
  5
A22E
330
1F
100
AcDbEntity
  8
0
  6
Continuous
 62
     7
370
    15
100
AcDbSpline
210
0.0
220
0.0
230
1.0
 70
    24
 71
     1
 72
     4
 73
     2
 74
     0
 42
0.0000000001
 43
0.0000000001
 40
0.0
 40
0.0
 40
1.0
 40
1.0
 10
415.3249832880715
 20
1274.629600524415
 30
0.0
 10
415.524982948325
 20
1274.829600184668
 30
0.0
  0
SPLINE
  5
A22F
330
1F
100
AcDbEntity
  8
0
  6
Continuous
 62
     7
370
    15
100
AcDbSpline
210
0.0
220
0.0
230
1.0
 70
    24
 71
     1
 72
     4
 73
     2
 74
     0
 42
0.0000000001
 43
0.0000000001
 40
0.0
 40
0.0
 40
1.0
 40
1.0
 10
440.5249814582089
 20
1274.829600184668
 30
0.0
 10
440.5249814582089
 20
1277.839599355568
 30
0.0
  0
SPLINE
  5
A230
330
1F
100
AcDbEntity
  8
0
  6
Continuous
 62
     7
370
    15
100
AcDbSpline
210
0.0
220
0.0
230
1.0
 70
    24
 71
     1
 72
     4
 73
     2
 74
     0
 42
0.0000000001
 43
0.0000000001
 40
0.0
 40
0.0
 40
1.0
 40
1.0
 10
437.5249828291157
 20
1277.839599355568
 30
0.0
 10
437.5249828291157
 20
1274.829600184668
 30
0.0
  0
SPLINE
  5
A231
330
1F
100
AcDbEntity
  8
0
  6
Continuous
 62
     7
370
    15
100
AcDbSpline
210
0.0
220
0.0
230
1.0
 70
    24
 71
     1
 72
     4
 73
     2
 74
     0
 42
0.0000000001
 43
0.0000000001
 40
0.0
 40
0.0
 40
1.0
 40
1.0
 10
437.5249828291157
 20
1274.829600184668
 30
0.0
 10
437.7249824893692
 20
1274.629600524415
 30
0.0
  0
SPLINE
  5
A232
330
1F
100
AcDbEntity
  8
0
  6
Continuous
 62
     7
370
    15
100
AcDbSpline
210
0.0
220
0.0
230
1.0
 70
    24
 71
     1
 72
     4
 73
     2
 74
     0
 42
0.0000000001
 43
0.0000000001
 40
0.0
 40
0.0
 40
1.0
 40
1.0
 10
440.3249817979554
 20
1274.629600524415
 30
0.0
 10
440.5249814582089
 20
1274.829600184668
 30
0.0
  0
SPLINE
  5
A233
330
1F
100
AcDbEntity
  8
0
  6
Continuous
 62
     7
370
    15
100
AcDbSpline
210
0.0
220
0.0
230
1.0
 70
    24
 71
     1
 72
     4
 73
     2
 74
     0
 42
0.0000000001
 43
0.0000000001
 40
0.0
 40
0.0
 40
1.0
 40
1.0
 10
415.524982948325
 20
1288.929599981267
 30
0.0
 10
415.524982948325
 20
1291.429599925388
 30
0.0
  0
SPLINE
  5
A234
330
1F
100
AcDbEntity
  8
0
  6
Continuous
 62
     7
370
    15
100
AcDbSpline
210
0.0
220
0.0
230
1.0
 70
    24
 71
     1
 72
     4
 73
     2
 74
     0
 42
0.0000000001
 43
0.0000000001
 40
0.0
 40
0.0
 40
1.0
 40
1.0
 10
412.5249824565867
 20
1291.429599925388
 30
0.0
 10
412.5249824565867
 20
1288.929599981267
 30
0.0
  0
SPLINE
  5
A235
330
1F
100
AcDbEntity
  8
0
  6
Continuous
 62
     7
370
    15
100
AcDbSpline
210
0.0
220
0.0
230
1.0
 70
    24
 71
     1
 72
     4
 73
     2
 74
     0
 42
0.0000000001
 43
0.0000000001
 40
0.0
 40
0.0
 40
1.0
 40
1.0
 10
440.5249814582089
 20
1291.229599799473
 30
0.0
 10
440.3249817979554
 20
1291.429599925388
 30
0.0
  0
SPLINE
  5
A236
330
1F
100
AcDbEntity
  8
0
  6
Continuous
 62
     7
370
    15
100
AcDbSpline
210
0.0
220
0.0
230
1.0
 70
    24
 71
     1
 72
     4
 73
     2
 74
     0
 42
0.0000000001
 43
0.0000000001
 40
0.0
 40
0.0
 40
1.0
 40
1.0
 10
437.7249824893692
 20
1291.429599925388
 30
0.0
 10
437.5249828291157
 20
1291.229599799473
 30
0.0
  0
SPLINE
  5
A237
330
1F
100
AcDbEntity
  8
0
  6
Continuous
 62
     7
370
    15
100
AcDbSpline
210
0.0
220
0.0
230
1.0
 70
    24
 71
     1
 72
     4
 73
     2
 74
     0
 42
0.0000000001
 43
0.0000000001
 40
0.0
 40
0.0
 40
1.0
 40
1.0
 10
440.5249814582089
 20
1288.929599981267
 30
0.0
 10
440.5249814582089
 20
1291.229599799473
 30
0.0
  0
SPLINE
  5
A238
330
1F
100
AcDbEntity
  8
0
  6
Continuous
 62
     7
370
    15
100
AcDbSpline
210
0.0
220
0.0
230
1.0
 70
    24
 71
     1
 72
     4
 73
     2
 74
     0
 42
0.0000000001
 43
0.0000000001
 40
0.0
 40
0.0
 40
1.0
 40
1.0
 10
437.5249828291157
 20
1291.229599799473
 30
0.0
 10
437.5249828291157
 20
1288.929599981267
 30
0.0
  0
LINE
  5
A23B
330
1F
100
AcDbEntity
  8
0
  6
Continuous
 62
     7
370
    15
100
AcDbLine
 10
418.6078245830754
 20
1291.629599934888
 30
0.0
 11
424.107824553273
 21
1286.129600081105
 31
0.0
  0
LINE
  5
A23C
330
1F
100
AcDbEntity
  8
0
  6
Continuous
 62
     7
370
    15
100
AcDbLine
 10
424.107824553273
 20
1286.129600081105
 30
0.0
 11
424.0249815476158
 21
1285.92959995519
 31
0.0
  0
LINE
  5
A23D
330
1F
100
AcDbEntity
  8
0
  6
Continuous
 62
     7
370
    15
100
AcDbLine
 10
424.0249815476158
 20
1285.92959995519
 30
0.0
 11
418.5249815774182
 21
1291.429599925388
 31
0.0
  0
LINE
  5
A23E
330
1F
100
AcDbEntity
  8
0
  6
Continuous
 62
     7
370
    15
100
AcDbLine
 10
418.5249815774182
 20
1291.429599925388
 30
0.0
 11
418.6078245830754
 21
1291.629599934888
 31
0.0
  0
LINE
  5
A23F
330
1F
100
AcDbEntity
  8
0
  6
Continuous
 62
     7
370
    15
100
AcDbLine
 10
424.107824553273
 20
1286.129600081105
 30
0.0
 11
430.8249811721066
 21
1286.129600081105
 31
0.0
  0
LINE
  5
A240
330
1F
100
AcDbEntity
  8
0
  6
Continuous
 62
     7
370
    15
100
AcDbLine
 10
430.8249811721066
 20
1286.129600081105
 30
0.0
 11
431.0249808323601
 21
1285.92959995519
 31
0.0
  0
LINE
  5
A241
330
1F
100
AcDbEntity
  8
0
  6
Continuous
 62
     7
370
    15
100
AcDbLine
 10
431.0249808323601
 20
1285.92959995519
 30
0.0
 11
424.0249815476158
 21
1285.92959995519
 31
0.0
  0
LINE
  5
A242
330
1F
100
AcDbEntity
  8
0
  6
Continuous
 62
     7
370
    15
100
AcDbLine
 10
418.5249815774182
 20
1291.429599925388
 30
0.0
 11
412.3249827963332
 21
1291.429599925388
 31
0.0
  0
LINE
  5
A243
330
1F
100
AcDbEntity
  8
0
  6
Continuous
 62
     7
370
    15
100
AcDbLine
 10
412.3249827963332
 20
1291.429599925388
 30
0.0
 11
412.5249824565867
 21
1291.629599934888
 31
0.0
  0
LINE
  5
A244
330
1F
100
AcDbEntity
  8
0
  6
Continuous
 62
     7
370
    15
100
AcDbLine
 10
412.5249824565867
 20
1291.629599934888
 30
0.0
 11
418.6078245830754
 21
1291.629599934888
 31
0.0
  0
LINE
  5
A245
330
1F
100
AcDbEntity
  8
0
  6
Continuous
 62
     7
370
    15
100
AcDbLine
 10
430.8249811721066
 20
1286.129600081105
 30
0.0
 11
430.8249811721066
 21
1301.729600123574
 31
0.0
  0
LINE
  5
A246
330
1F
100
AcDbEntity
  8
0
  6
Continuous
 62
     7
370
    15
100
AcDbLine
 10
430.8249811721066
 20
1301.729600123574
 30
0.0
 11
431.0249808323601
 21
1301.929599783827
 31
0.0
  0
LINE
  5
A247
330
1F
100
AcDbEntity
  8
0
  6
Continuous
 62
     7
370
    15
100
AcDbLine
 10
431.0249808323601
 20
1301.929599783827
 30
0.0
 11
431.0249808323601
 21
1285.92959995519
 31
0.0
  0
LINE
  5
A248
330
1F
100
AcDbEntity
  8
0
  6
Continuous
 62
     7
370
    15
100
AcDbLine
 10
412.3249827963332
 20
1291.429599925388
 30
0.0
 11
412.3249827963332
 21
1296.429599813629
 31
0.0
  0
LINE
  5
A249
330
1F
100
AcDbEntity
  8
0
  6
Continuous
 62
     7
370
    15
100
AcDbLine
 10
412.3249827963332
 20
1296.429599813629
 30
0.0
 11
412.5249824565867
 21
1296.229599920545
 31
0.0
  0
LINE
  5
A24A
330
1F
100
AcDbEntity
  8
0
  6
Continuous
 62
     7
370
    15
100
AcDbLine
 10
412.5249824565867
 20
1296.229599920545
 30
0.0
 11
412.5249824565867
 21
1291.629599934888
 31
0.0
  0
LINE
  5
A24B
330
1F
100
AcDbEntity
  8
0
  6
Continuous
 62
     7
370
    15
100
AcDbLine
 10
418.6078245830754
 20
1296.229599920545
 30
0.0
 11
412.5249824565867
 21
1296.229599920545
 31
0.0
  0
LINE
  5
A24C
330
1F
100
AcDbEntity
  8
0
  6
Continuous
 62
     7
370
    15
100
AcDbLine
 10
424.107824553273
 20
1301.729600123574
 30
0.0
 11
418.6078245830754
 21
1296.229599920545
 31
0.0
  0
LINE
  5
A24D
330
1F
100
AcDbEntity
  8
0
  6
Continuous
 62
     7
370
    15
100
AcDbLine
 10
430.8249811721066
 20
1301.729600123574
 30
0.0
 11
424.107824553273
 21
1301.729600123574
 31
0.0
  0
LINE
  5
A24E
330
1F
100
AcDbEntity
  8
0
  6
Continuous
 62
     7
370
    15
100
AcDbLine
 10
418.5249815774182
 20
1296.429599813629
 30
0.0
 11
418.6078245830754
 21
1296.229599920545
 31
0.0
  0
LINE
  5
A24F
330
1F
100
AcDbEntity
  8
0
  6
Continuous
 62
     7
370
    15
100
AcDbLine
 10
418.5249815774182
 20
1296.429599813629
 30
0.0
 11
424.0249815476158
 21
1301.929599783827
 31
0.0
  0
LINE
  5
A250
330
1F
100
AcDbEntity
  8
0
  6
Continuous
 62
     7
370
    15
100
AcDbLine
 10
424.107824553273
 20
1301.729600123574
 30
0.0
 11
424.0249815476158
 21
1301.929599783827
 31
0.0
  0
LINE
  5
A251
330
1F
100
AcDbEntity
  8
0
  6
Continuous
 62
     7
370
    15
100
AcDbLine
 10
412.3249827963332
 20
1296.429599813629
 30
0.0
 11
418.5249815774182
 21
1296.429599813629
 31
0.0
  0
LINE
  5
A252
330
1F
100
AcDbEntity
  8
0
  6
Continuous
 62
     7
370
    15
100
AcDbLine
 10
424.0249815476158
 20
1301.929599783827
 30
0.0
 11
431.0249808323601
 21
1301.929599783827
 31
0.0
  0
LINE
  5
A253
330
1F
100
AcDbEntity
  8
0
  6
Continuous
 62
     7
370
    15
100
AcDbLine
 10
432.6749826860646
 20
1290.479599909369
 30
0.0
 11
432.6749826860646
 21
1287.379599820335
 31
0.0
  0
LINE
  5
A254
330
1F
100
AcDbEntity
  8
0
  6
Continuous
 62
     7
370
    15
100
AcDbLine
 10
432.6749826860646
 20
1300.479599918683
 30
0.0
 11
432.6749826860646
 21
1297.379600062479
 31
0.0
  0
LINE
  5
A255
330
1F
100
AcDbEntity
  8
0
  6
Continuous
 62
     7
370
    15
100
AcDbLine
 10
441.7249831450203
 20
1288.729599855353
 30
0.0
 11
436.7249841881016
 21
1288.729599855353
 31
0.0
  0
LINE
  5
A256
330
1F
100
AcDbEntity
  8
0
  6
Continuous
 62
     7
370
    15
100
AcDbLine
 10
436.7249841881016
 20
1288.729599855353
 30
0.0
 11
436.7249841881016
 21
1288.929599981267
 31
0.0
  0
LINE
  5
A257
330
1F
100
AcDbEntity
  8
0
  6
Continuous
 62
     7
370
    15
100
AcDbLine
 10
436.7249841881016
 20
1288.929599981267
 30
0.0
 11
441.7249831450203
 21
1288.929599981267
 31
0.0
  0
LINE
  5
A258
330
1F
100
AcDbEntity
  8
0
  6
Continuous
 62
     7
370
    15
100
AcDbLine
 10
441.7249831450203
 20
1288.729599855353
 30
0.0
 11
441.7249831450203
 21
1288.929599981267
 31
0.0
  0
LINE
  5
A259
330
1F
100
AcDbEntity
  8
0
  6
Continuous
 62
     7
370
    15
100
AcDbLine
 10
441.9249828052739
 20
1288.729599855353
 30
0.0
 11
441.7249831450203
 21
1288.929599981267
 31
0.0
  0
LINE
  5
A25A
330
1F
100
AcDbEntity
  8
0
  6
Continuous
 62
     7
370
    15
100
AcDbLine
 10
441.7249831450203
 20
1288.729599855353
 30
0.0
 11
441.9249828052739
 21
1288.729599855353
 31
0.0
  0
LINE
  5
A25B
330
1F
100
AcDbEntity
  8
0
  6
Continuous
 62
     7
370
    15
100
AcDbLine
 10
416.3249815893391
 20
1288.929599981267
 30
0.0
 11
416.5249831122378
 21
1288.729599855353
 31
0.0
  0
LINE
  5
A25C
330
1F
100
AcDbEntity
  8
0
  6
Continuous
 62
     7
370
    15
100
AcDbLine
 10
416.3249815893391
 20
1288.729599855353
 30
0.0
 11
416.5249831122378
 21
1288.729599855353
 31
0.0
  0
LINE
  5
A25D
330
1F
100
AcDbEntity
  8
0
  6
Continuous
 62
     7
370
    15
100
AcDbLine
 10
416.3249815893391
 20
1288.929599981267
 30
0.0
 11
416.3249815893391
 21
1288.729599855353
 31
0.0
  0
LINE
  5
A25E
330
1F
100
AcDbEntity
  8
0
  6
Continuous
 62
     7
370
    15
100
AcDbLine
 10
421.5749810528973
 20
1282.329599551369
 30
0.0
 11
421.5749810528973
 21
1280.429599984993
 31
0.0
  0
LINE
  5
A25F
330
1F
100
AcDbEntity
  8
0
  6
Continuous
 62
     7
370
    15
100
AcDbLine
 10
421.5749810528973
 20
1280.429599984993
 30
0.0
 11
421.3749813926438
 21
1280.229600324739
 31
0.0
  0
LINE
  5
A260
330
1F
100
AcDbEntity
  8
0
  6
Continuous
 62
     7
370
    15
100
AcDbLine
 10
421.3749813926438
 20
1280.229600324739
 30
0.0
 11
421.3749813926438
 21
1282.329599551369
 31
0.0
  0
LINE
  5
A261
330
1F
100
AcDbEntity
  8
0
  6
Continuous
 62
     7
370
    15
100
AcDbLine
 10
421.5749810528973
 20
1282.329599551369
 30
0.0
 11
421.3749813926438
 21
1282.329599551369
 31
0.0
  0
LINE
  5
A262
330
1F
100
AcDbEntity
  8
0
  6
Continuous
 62
     7
370
    15
100
AcDbLine
 10
421.5749810528973
 20
1280.429599984993
 30
0.0
 11
431.4749809992531
 21
1280.429599984993
 31
0.0
  0
LINE
  5
A263
330
1F
100
AcDbEntity
  8
0
  6
Continuous
 62
     7
370
    15
100
AcDbLine
 10
431.4749809992531
 20
1280.429599984993
 30
0.0
 11
431.6749806595066
 21
1280.229600324739
 31
0.0
  0
LINE
  5
A264
330
1F
100
AcDbEntity
  8
0
  6
Continuous
 62
     7
370
    15
100
AcDbLine
 10
431.6749806595066
 20
1280.229600324739
 30
0.0
 11
421.3749813926438
 21
1280.229600324739
 31
0.0
  0
LINE
  5
A265
330
1F
100
AcDbEntity
  8
0
  6
Continuous
 62
     7
370
    15
100
AcDbLine
 10
431.4749809992531
 20
1280.429599984993
 30
0.0
 11
431.4749809992531
 21
1282.329599551369
 31
0.0
  0
LINE
  5
A266
330
1F
100
AcDbEntity
  8
0
  6
Continuous
 62
     7
370
    15
100
AcDbLine
 10
431.4749809992531
 20
1282.329599551369
 30
0.0
 11
431.6749806595066
 21
1282.329599551369
 31
0.0
  0
LINE
  5
A267
330
1F
100
AcDbEntity
  8
0
  6
Continuous
 62
     7
370
    15
100
AcDbLine
 10
431.6749806595066
 20
1282.329599551369
 30
0.0
 11
431.6749806595066
 21
1280.229600324739
 31
0.0
  0
ARC
  5
A268
330
1F
100
AcDbEntity
  8
0
  6
Continuous
 62
     7
370
    15
100
AcDbCircle
 10
434.5249824118833
 20
1282.329599885152
 30
0.0
 40
3.049999999999982
100
AcDbArc
 50
0.0
 51
180.0
  0
LINE
  5
A269
330
1F
100
AcDbEntity
  8
0
  6
Continuous
 62
     7
370
    15
100
AcDbLine
 10
437.5749836755017
 20
1282.329599551369
 30
0.0
 11
437.3749840152481
 21
1282.329599551369
 31
0.0
  0
ARC
  5
A26A
330
1F
100
AcDbEntity
  8
0
  6
Continuous
 62
     7
370
    15
100
AcDbCircle
 10
434.5249824118833
 20
1282.329599885152
 30
0.0
 40
2.849999999999994
100
AcDbArc
 50
0.0
 51
180.0
  0
LINE
  5
A26B
330
1F
100
AcDbEntity
  8
0
  6
Continuous
 62
     7
370
    15
100
AcDbLine
 10
411.3249826324204
 20
1288.929599981267
 30
0.0
 11
411.3249826324204
 21
1288.729599855353
 31
0.0
  0
LINE
  5
A26C
330
1F
100
AcDbEntity
  8
0
  6
Continuous
 62
     7
370
    15
100
AcDbLine
 10
411.1249829721669
 20
1288.729599855353
 30
0.0
 11
411.3249826324204
 21
1288.729599855353
 31
0.0
  0
LINE
  5
A26D
330
1F
100
AcDbEntity
  8
0
  6
Continuous
 62
     7
370
    15
100
AcDbLine
 10
411.3249826324204
 20
1288.929599981267
 30
0.0
 11
411.1249829721669
 21
1288.729599855353
 31
0.0
  0
LINE
  5
A26E
330
1F
100
AcDbEntity
  8
0
  6
Continuous
 62
     7
370
    15
100
AcDbLine
 10
416.3249815893391
 20
1285.92959995519
 30
0.0
 11
416.3249815893391
 21
1288.729599855353
 31
0.0
  0
LINE
  5
A26F
330
1F
100
AcDbEntity
  8
0
  6
Continuous
 62
     7
370
    15
100
AcDbLine
 10
416.5249831122378
 20
1288.729599855353
 30
0.0
 11
416.5249831122378
 21
1285.92959995519
 31
0.0
  0
LINE
  5
A270
330
1F
100
AcDbEntity
  8
0
  6
Continuous
 62
     7
370
    15
100
AcDbLine
 10
437.5749836755017
 20
1280.429599984993
 30
0.0
 11
442.3249821257809
 21
1280.429599984993
 31
0.0
  0
LINE
  5
A271
330
1F
100
AcDbEntity
  8
0
  6
Continuous
 62
     7
370
    15
100
AcDbLine
 10
442.3249821257809
 20
1280.429599984993
 30
0.0
 11
442.3249821257809
 21
1280.229600324739
 31
0.0
  0
LINE
  5
A272
330
1F
100
AcDbEntity
  8
0
  6
Continuous
 62
     7
370
    15
100
AcDbLine
 10
442.3249821257809
 20
1280.229600324739
 30
0.0
 11
437.3749840152481
 21
1280.229600324739
 31
0.0
  0
LINE
  5
A273
330
1F
100
AcDbEntity
  8
0
  6
Continuous
 62
     7
370
    15
100
AcDbLine
 10
437.5749836755017
 20
1280.429599984993
 30
0.0
 11
437.3749840152481
 21
1280.229600324739
 31
0.0
  0
LINE
  5
A274
330
1F
100
AcDbEntity
  8
0
  6
Continuous
 62
     7
370
    15
100
AcDbLine
 10
442.3249821257809
 20
1280.429599984993
 30
0.0
 11
442.5249817860344
 21
1280.429599984993
 31
0.0
  0
LINE
  5
A275
330
1F
100
AcDbEntity
  8
0
  6
Continuous
 62
     7
370
    15
100
AcDbLine
 10
442.3249821257809
 20
1280.229600324739
 30
0.0
 11
442.5249817860344
 21
1280.429599984993
 31
0.0
  0
LINE
  5
A276
330
1F
100
AcDbEntity
  8
0
  6
Continuous
 62
     7
370
    15
100
AcDbLine
 10
442.3249821257809
 20
1280.429599984993
 30
0.0
 11
442.3249821257809
 21
1285.92959995519
 31
0.0
  0
LINE
  5
A277
330
1F
100
AcDbEntity
  8
0
  6
Continuous
 62
     7
370
    15
100
AcDbLine
 10
442.3249821257809
 20
1285.92959995519
 30
0.0
 11
442.5249817860344
 21
1285.729599829276
 31
0.0
  0
LINE
  5
A278
330
1F
100
AcDbEntity
  8
0
  6
Continuous
 62
     7
370
    15
100
AcDbLine
 10
442.5249817860344
 20
1285.729599829276
 30
0.0
 11
442.5249817860344
 21
1280.429599984993
 31
0.0
  0
LINE
  5
A279
330
1F
100
AcDbEntity
  8
0
  6
Continuous
 62
     7
370
    15
100
AcDbLine
 10
436.7249841881016
 20
1288.729599855353
 30
0.0
 11
436.5249808025578
 21
1288.729599855353
 31
0.0
  0
LINE
  5
A27A
330
1F
100
AcDbEntity
  8
0
  6
Continuous
 62
     7
370
    15
100
AcDbLine
 10
436.7249841881016
 20
1288.929599981267
 30
0.0
 11
436.5249808025578
 21
1288.729599855353
 31
0.0
  0
LINE
  5
A27B
330
1F
100
AcDbEntity
  8
0
  6
Continuous
 62
     7
370
    15
100
AcDbLine
 10
410.7249817890147
 20
1280.429599984993
 30
0.0
 11
415.474982101939
 21
1280.429599984993
 31
0.0
  0
LINE
  5
A27C
330
1F
100
AcDbEntity
  8
0
  6
Continuous
 62
     7
370
    15
100
AcDbLine
 10
415.474982101939
 20
1280.429599984993
 30
0.0
 11
415.6749817621926
 21
1280.229600324739
 31
0.0
  0
LINE
  5
A27D
330
1F
100
AcDbEntity
  8
0
  6
Continuous
 62
     7
370
    15
100
AcDbLine
 10
415.6749817621926
 20
1280.229600324739
 30
0.0
 11
410.7249817890147
 21
1280.229600324739
 31
0.0
  0
LINE
  5
A27E
330
1F
100
AcDbEntity
  8
0
  6
Continuous
 62
     7
370
    15
100
AcDbLine
 10
410.7249817890147
 20
1280.429599984993
 30
0.0
 11
410.7249817890147
 21
1280.229600324739
 31
0.0
  0
LINE
  5
A27F
330
1F
100
AcDbEntity
  8
0
  6
Continuous
 62
     7
370
    15
100
AcDbLine
 10
415.474982101939
 20
1280.429599984993
 30
0.0
 11
415.474982101939
 21
1282.329599551369
 31
0.0
  0
LINE
  5
A280
330
1F
100
AcDbEntity
  8
0
  6
Continuous
 62
     7
370
    15
100
AcDbLine
 10
415.474982101939
 20
1282.329599551369
 30
0.0
 11
415.6749817621926
 21
1282.329599551369
 31
0.0
  0
LINE
  5
A281
330
1F
100
AcDbEntity
  8
0
  6
Continuous
 62
     7
370
    15
100
AcDbLine
 10
415.6749817621926
 20
1282.329599551369
 30
0.0
 11
415.6749817621926
 21
1280.229600324739
 31
0.0
  0
ARC
  5
A282
330
1F
100
AcDbEntity
  8
0
  6
Continuous
 62
     7
370
    15
100
AcDbCircle
 10
418.5249824118833
 20
1282.329599885152
 30
0.0
 40
3.050000000000011
100
AcDbArc
 50
0.0
 51
180.0
  0
ARC
  5
A283
330
1F
100
AcDbEntity
  8
0
  6
Continuous
 62
     7
370
    15
100
AcDbCircle
 10
418.5249824118833
 20
1282.329599885152
 30
0.0
 40
2.849999999999994
100
AcDbArc
 50
0.0
 51
180.0
  0
LINE
  5
A284
330
1F
100
AcDbEntity
  8
0
  6
Continuous
 62
     7
370
    15
100
AcDbLine
 10
411.3249826324204
 20
1288.929599981267
 30
0.0
 11
416.3249815893391
 21
1288.929599981267
 31
0.0
  0
LINE
  5
A285
330
1F
100
AcDbEntity
  8
0
  6
Continuous
 62
     7
370
    15
100
AcDbLine
 10
416.3249815893391
 20
1288.729599855353
 30
0.0
 11
411.3249826324204
 21
1288.729599855353
 31
0.0
  0
LINE
  5
A286
330
1F
100
AcDbEntity
  8
0
  6
Continuous
 62
     7
370
    15
100
AcDbLine
 10
441.7249831450203
 20
1285.92959995519
 30
0.0
 11
441.7249831450203
 21
1288.729599855353
 31
0.0
  0
LINE
  5
A287
330
1F
100
AcDbEntity
  8
0
  6
Continuous
 62
     7
370
    15
100
AcDbLine
 10
437.5749836755017
 20
1282.329599551369
 30
0.0
 11
437.5749836755017
 21
1280.429599984993
 31
0.0
  0
LINE
  5
A288
330
1F
100
AcDbEntity
  8
0
  6
Continuous
 62
     7
370
    15
100
AcDbLine
 10
410.7249817890147
 20
1285.92959995519
 30
0.0
 11
410.7249817890147
 21
1280.429599984993
 31
0.0
  0
LINE
  5
A289
330
1F
100
AcDbEntity
  8
0
  6
Continuous
 62
     7
370
    15
100
AcDbLine
 10
410.7249817890147
 20
1285.92959995519
 30
0.0
 11
411.3249826324204
 21
1285.92959995519
 31
0.0
  0
LINE
  5
A28A
330
1F
100
AcDbEntity
  8
0
  6
Continuous
 62
     7
370
    15
100
AcDbLine
 10
411.3249826324204
 20
1288.729599855353
 30
0.0
 11
411.3249826324204
 21
1285.92959995519
 31
0.0
  0
LINE
  5
A28B
330
1F
100
AcDbEntity
  8
0
  6
Continuous
 62
     7
370
    15
100
AcDbLine
 10
416.3249815893391
 20
1285.92959995519
 30
0.0
 11
420.5249819052437
 21
1285.92959995519
 31
0.0
  0
LINE
  5
A28C
330
1F
100
AcDbEntity
  8
0
  6
Continuous
 62
     7
370
    15
100
AcDbLine
 10
432.524983872197
 20
1285.92959995519
 30
0.0
 11
436.7249841881016
 21
1285.92959995519
 31
0.0
  0
LINE
  5
A28D
330
1F
100
AcDbEntity
  8
0
  6
Continuous
 62
     7
370
    15
100
AcDbLine
 10
436.7249841881016
 20
1288.729599855353
 30
0.0
 11
436.7249841881016
 21
1285.92959995519
 31
0.0
  0
ARC
  5
A28E
330
1F
100
AcDbEntity
  8
0
  6
Continuous
 62
     7
370
    15
100
AcDbCircle
 10
426.5249824118833
 20
1293.929599885152
 30
0.0
 40
9.999999999999994
100
AcDbArc
 50
233.1301023541586
 51
306.8698976458414
  0
LINE
  5
A28F
330
1F
100
AcDbEntity
  8
0
  6
Continuous
 62
     7
370
    15
100
AcDbLine
 10
441.7249831450203
 20
1285.92959995519
 30
0.0
 11
442.3249821257809
 21
1285.92959995519
 31
0.0
  0
LINE
  5
A290
330
1F
100
AcDbEntity
  8
0
  6
Continuous
 62
     7
370
    15
100
AcDbLine
 10
411.1249829721669
 20
1285.92959995519
 30
0.0
 11
411.1249829721669
 21
1288.729599855353
 31
0.0
  0
LINE
  5
A291
330
1F
100
AcDbEntity
  8
0
  6
Continuous
 62
     7
370
    15
100
AcDbLine
 10
436.5249808025578
 20
1285.92959995519
 30
0.0
 11
436.5249808025578
 21
1288.729599855353
 31
0.0
  0
LINE
  5
A292
330
1F
100
AcDbEntity
  8
0
  6
Continuous
 62
     7
370
    15
100
AcDbLine
 10
437.3749840152481
 20
1280.229600324739
 30
0.0
 11
437.3749840152481
 21
1282.329599551369
 31
0.0
  0
LINE
  5
A293
330
1F
100
AcDbEntity
  8
0
  6
Continuous
 62
     7
370
    15
100
AcDbLine
 10
410.7249817890147
 20
1280.429599984993
 30
0.0
 11
410.5249821287611
 21
1280.429599984993
 31
0.0
  0
LINE
  5
A294
330
1F
100
AcDbEntity
  8
0
  6
Continuous
 62
     7
370
    15
100
AcDbLine
 10
410.5249821287611
 20
1280.429599984993
 30
0.0
 11
410.5249821287611
 21
1285.729599829276
 31
0.0
  0
LINE
  5
A295
330
1F
100
AcDbEntity
  8
0
  6
Continuous
 62
     7
370
    15
100
AcDbLine
 10
410.7249817890147
 20
1285.92959995519
 30
0.0
 11
410.5249821287611
 21
1285.729599829276
 31
0.0
  0
LINE
  5
A296
330
1F
100
AcDbEntity
  8
0
  6
Continuous
 62
     7
370
    15
100
AcDbLine
 10
441.9249828052739
 20
1288.729599855353
 30
0.0
 11
441.9249828052739
 21
1285.92959995519
 31
0.0
  0
LINE
  5
A297
330
1F
100
AcDbEntity
  8
0
  6
Continuous
 62
     7
370
    15
100
AcDbLine
 10
410.5249821287611
 20
1280.429599984993
 30
0.0
 11
410.7249817890147
 21
1280.229600324739
 31
0.0
  0
ELLIPSE
  5
A298
330
1F
100
AcDbEntity
  8
0
  6
Continuous
 62
     7
370
    15
100
AcDbEllipse
 10
436.2749824118832
 20
1282.299397859796
 30
0.0
 11
-1.591876474125569
 21
3.843129773456553
 31
0.0
210
0.0
220
0.0
230
1.0
 40
0.5993709352028306
 41
2.536878052145689
 42
2.898245176052394
  0
LINE
  5
A299
330
1F
100
AcDbEntity
  8
0
  6
Continuous
 62
     7
370
    15
100
AcDbLine
 10
436.2749840212086
 20
1278.595346204449
 30
0.0
 11
436.2749840212086
 21
1280.229600324739
 31
0.0
  0
LINE
  5
A29A
330
1F
100
AcDbEntity
  8
0
  6
Continuous
 62
     7
370
    15
100
AcDbLine
 10
437.3749840152481
 20
1280.229600324739
 30
0.0
 11
436.2749840212086
 21
1280.229600324739
 31
0.0
  0
LINE
  5
A29B
330
1F
100
AcDbEntity
  8
0
  6
Continuous
 62
     7
370
    15
100
AcDbLine
 10
439.0249821436623
 20
1278.595346204449
 30
0.0
 11
439.0249821436623
 21
1280.229600324739
 31
0.0
  0
ELLIPSE
  5
A29C
330
1F
100
AcDbEntity
  8
0
  6
Continuous
 62
     7
370
    15
100
AcDbEllipse
 10
439.0249824118832
 20
1282.299397859796
 30
0.0
 11
1.591876474125569
 21
3.843129773456553
 31
0.0
210
0.0
220
0.0
230
1.0
 40
0.5993709352028269
 41
3.384940131127216
 42
3.746307255033917
  0
LINE
  5
A29D
330
1F
100
AcDbEntity
  8
0
  6
Continuous
 62
     7
370
    15
100
AcDbLine
 10
437.264931489251
 20
1278.339599437524
 30
0.0
 11
438.0350346756199
 21
1278.339599437524
 31
0.0
  0
ELLIPSE
  5
A29E
330
1F
100
AcDbEntity
  8
0
  6
Continuous
 62
     7
370
    15
100
AcDbEllipse
 10
439.0249824118832
 20
1282.299397859796
 30
0.0
 11
-1.591876474125513
 21
3.843129773456553
 31
0.0
210
0.0
220
0.0
230
1.0
 40
0.5993709352028246
 41
2.536878052145701
 42
2.898245176052411
  0
LINE
  5
A29F
330
1F
100
AcDbEntity
  8
0
  6
Continuous
 62
     7
370
    15
100
AcDbLine
 10
440.014933336995
 20
1278.339599437524
 30
0.0
 11
440.014933336995
 21
1277.839599355568
 31
0.0
  0
LINE
  5
A2A0
330
1F
100
AcDbEntity
  8
0
  6
Continuous
 62
     7
370
    15
100
AcDbLine
 10
440.014933336995
 20
1277.839599355568
 30
0.0
 11
438.0350346756199
 21
1277.839599355568
 31
0.0
  0
LINE
  5
A2A1
330
1F
100
AcDbEntity
  8
0
  6
Continuous
 62
     7
370
    15
100
AcDbLine
 10
438.0350346756199
 20
1277.839599355568
 30
0.0
 11
438.0350346756199
 21
1278.339599437524
 31
0.0
  0
LINE
  5
A2A2
330
1F
100
AcDbEntity
  8
0
  6
Continuous
 62
     7
370
    15
100
AcDbLine
 10
441.7749839914063
 20
1278.595346204449
 30
0.0
 11
441.7749839914063
 21
1280.229600324739
 31
0.0
  0
ELLIPSE
  5
A2A3
330
1F
100
AcDbEntity
  8
0
  6
Continuous
 62
     7
370
    15
100
AcDbEllipse
 10
441.7749824118832
 20
1282.299397859796
 30
0.0
 11
1.591876474125542
 21
3.843129773456525
 31
0.0
210
0.0
220
0.0
230
1.0
 40
0.5993709352028361
 41
3.384940131127196
 42
3.746307255033905
  0
LINE
  5
A2A4
330
1F
100
AcDbEntity
  8
0
  6
Continuous
 62
     7
370
    15
100
AcDbLine
 10
440.014933336995
 20
1278.339599437524
 30
0.0
 11
440.7850327980736
 21
1278.339599437524
 31
0.0
  0
LINE
  5
A2A5
330
1F
100
AcDbEntity
  8
0
  6
Continuous
 62
     7
370
    15
100
AcDbLine
 10
416.7749817562321
 20
1280.229600324739
 30
0.0
 11
415.6749817621926
 21
1280.229600324739
 31
0.0
  0
LINE
  5
A2A6
330
1F
100
AcDbEntity
  8
0
  6
Continuous
 62
     7
370
    15
100
AcDbLine
 10
416.7749817562321
 20
1278.595346204449
 30
0.0
 11
416.7749817562321
 21
1280.229600324739
 31
0.0
  0
ELLIPSE
  5
A2A7
330
1F
100
AcDbEntity
  8
0
  6
Continuous
 62
     7
370
    15
100
AcDbEllipse
 10
416.7749824118832
 20
1282.299397859796
 30
0.0
 11
1.591876474125569
 21
3.843129773456553
 31
0.0
210
0.0
220
0.0
230
1.0
 40
0.5993709352028331
 41
3.384940131127205
 42
3.746307255033903
  0
LINE
  5
A2A8
330
1F
100
AcDbEntity
  8
0
  6
Continuous
 62
     7
370
    15
100
AcDbLine
 10
415.0149311018208
 20
1278.339599437524
 30
0.0
 11
415.7850324255446
 21
1278.339599437524
 31
0.0
  0
ELLIPSE
  5
A2A9
330
1F
100
AcDbEntity
  8
0
  6
Continuous
 62
     7
370
    15
100
AcDbEllipse
 10
414.0249824118832
 20
1282.299397859796
 30
0.0
 11
-1.591876474125512
 21
3.843129773456581
 31
0.0
210
0.0
220
0.0
230
1.0
 40
0.5993709352028273
 41
2.536878052145707
 42
2.898245176052414
  0
LINE
  5
A2AA
330
1F
100
AcDbEntity
  8
0
  6
Continuous
 62
     7
370
    15
100
AcDbLine
 10
414.0249817711333
 20
1278.595346204449
 30
0.0
 11
414.0249817711333
 21
1280.229600324739
 31
0.0
  0
ELLIPSE
  5
A2AB
330
1F
100
AcDbEntity
  8
0
  6
Continuous
 62
     7
370
    15
100
AcDbEllipse
 10
411.2749824118832
 20
1282.299397859796
 30
0.0
 11
-1.591876474125541
 21
3.843129773456583
 31
0.0
210
0.0
220
0.0
230
1.0
 40
0.5993709352028258
 41
2.536878052145697
 42
2.898245176052403
  0
LINE
  5
A2AC
330
1F
100
AcDbEntity
  8
0
  6
Continuous
 62
     7
370
    15
100
AcDbLine
 10
411.2749817860344
 20
1278.595346204449
 30
0.0
 11
411.2749817860344
 21
1280.229600324739
 31
0.0
  0
ELLIPSE
  5
A2AD
330
1F
100
AcDbEntity
  8
0
  6
Continuous
 62
     7
370
    15
100
AcDbEllipse
 10
414.0249824118832
 20
1282.299397859796
 30
0.0
 11
1.59187647412557
 21
3.843129773456584
 31
0.0
210
0.0
220
0.0
230
1.0
 40
0.5993709352028295
 41
3.384940131127213
 42
3.746307255033912
  0
LINE
  5
A2AE
330
1F
100
AcDbEntity
  8
0
  6
Continuous
 62
     7
370
    15
100
AcDbLine
 10
412.2649311167219
 20
1278.339599437524
 30
0.0
 11
413.0350324404457
 21
1278.339599437524
 31
0.0
  0
LINE
  5
A2AF
330
1F
100
AcDbEntity
  8
0
  6
Continuous
 62
     7
370
    15
100
AcDbLine
 10
415.0149311018208
 20
1278.339599437524
 30
0.0
 11
415.0149311018208
 21
1277.839599355568
 31
0.0
  0
LINE
  5
A2B0
330
1F
100
AcDbEntity
  8
0
  6
Continuous
 62
     7
370
    15
100
AcDbLine
 10
415.0149311018208
 20
1277.839599355568
 30
0.0
 11
413.0350324404457
 21
1277.839599355568
 31
0.0
  0
LINE
  5
A2B1
330
1F
100
AcDbEntity
  8
0
  6
Continuous
 62
     7
370
    15
100
AcDbLine
 10
413.0350324404457
 20
1277.839599355568
 30
0.0
 11
413.0350324404457
 21
1278.339599437524
 31
0.0
  0
LINE
  5
A2B2
330
1F
100
AcDbEntity
  8
0
  6
Continuous
 62
     7
370
    15
100
AcDbLine
 10
440.2850317847947
 20
1277.839599355568
 30
0.0
 11
440.7850327980736
 21
1278.339599437524
 31
0.0
  0
LINE
  5
A2B3
330
1F
100
AcDbEntity
  8
0
  6
Continuous
 62
     7
370
    15
100
AcDbLine
 10
440.2850317847947
 20
1277.839599355568
 30
0.0
 11
440.014933336995
 21
1277.839599355568
 31
0.0
  0
LINE
  5
A2B4
330
1F
100
AcDbEntity
  8
0
  6
Continuous
 62
     7
370
    15
100
AcDbLine
 10
437.264931489251
 20
1278.339599437524
 30
0.0
 11
437.7649325025299
 21
1277.839599355568
 31
0.0
  0
LINE
  5
A2B5
330
1F
100
AcDbEntity
  8
0
  6
Continuous
 62
     7
370
    15
100
AcDbLine
 10
438.0350346756199
 20
1277.839599355568
 30
0.0
 11
437.7649325025299
 21
1277.839599355568
 31
0.0
  0
LINE
  5
A2B6
330
1F
100
AcDbEntity
  8
0
  6
Continuous
 62
     7
370
    15
100
AcDbLine
 10
415.2850332749108
 20
1277.839599355568
 30
0.0
 11
415.7850324255446
 21
1278.339599437524
 31
0.0
  0
LINE
  5
A2B7
330
1F
100
AcDbEntity
  8
0
  6
Continuous
 62
     7
370
    15
100
AcDbLine
 10
415.2850332749108
 20
1277.839599355568
 30
0.0
 11
415.0149311018208
 21
1277.839599355568
 31
0.0
  0
LINE
  5
A2B8
330
1F
100
AcDbEntity
  8
0
  6
Continuous
 62
     7
370
    15
100
AcDbLine
 10
412.2649311167219
 20
1278.339599437524
 30
0.0
 11
412.7649321300009
 21
1277.839599355568
 31
0.0
  0
LINE
  5
A2B9
330
1F
100
AcDbEntity
  8
0
  6
Continuous
 62
     7
370
    15
100
AcDbLine
 10
413.0350324404457
 20
1277.839599355568
 30
0.0
 11
412.7649321300009
 21
1277.839599355568
 31
0.0
  0
LINE
  5
A2BA
330
1F
100
AcDbEntity
  8
0
  6
Continuous
 62
     7
370
    15
100
AcDbLine
 10
441.7749839914063
 20
1278.595346204449
 30
0.0
 11
441.7749839914063
 21
1278.339599437524
 31
0.0
  0
LINE
  5
A2BB
330
1F
100
AcDbEntity
  8
0
  6
Continuous
 62
     7
370
    15
100
AcDbLine
 10
441.7749839914063
 20
1278.339599437524
 30
0.0
 11
441.2749829781273
 21
1277.839599355568
 31
0.0
  0
LINE
  5
A2BC
330
1F
100
AcDbEntity
  8
0
  6
Continuous
 62
     7
370
    15
100
AcDbLine
 10
441.2749829781273
 20
1277.839599355568
 30
0.0
 11
440.2850317847947
 21
1277.839599355568
 31
0.0
  0
LINE
  5
A2BD
330
1F
100
AcDbEntity
  8
0
  6
Continuous
 62
     7
370
    15
100
AcDbLine
 10
411.7749827993134
 20
1277.839599355568
 30
0.0
 11
411.2749817860344
 21
1278.339599437524
 31
0.0
  0
LINE
  5
A2BE
330
1F
100
AcDbEntity
  8
0
  6
Continuous
 62
     7
370
    15
100
AcDbLine
 10
411.2749817860344
 20
1278.339599437524
 30
0.0
 11
411.2749817860344
 21
1278.595346204449
 31
0.0
  0
LINE
  5
A2BF
330
1F
100
AcDbEntity
  8
0
  6
Continuous
 62
     7
370
    15
100
AcDbLine
 10
412.7649321300009
 20
1277.839599355568
 30
0.0
 11
411.7749827993134
 21
1277.839599355568
 31
0.0
  0
LINE
  5
A2C0
330
1F
100
AcDbEntity
  8
0
  6
Continuous
 62
     7
370
    15
100
AcDbLine
 10
436.7749813091973
 20
1277.839599355568
 30
0.0
 11
436.2749840212086
 21
1278.339599437524
 31
0.0
  0
LINE
  5
A2C1
330
1F
100
AcDbEntity
  8
0
  6
Continuous
 62
     7
370
    15
100
AcDbLine
 10
436.2749840212086
 20
1278.339599437524
 30
0.0
 11
436.2749840212086
 21
1278.595346204449
 31
0.0
  0
LINE
  5
A2C2
330
1F
100
AcDbEntity
  8
0
  6
Continuous
 62
     7
370
    15
100
AcDbLine
 10
437.7649325025299
 20
1277.839599355568
 30
0.0
 11
436.7749813091973
 21
1277.839599355568
 31
0.0
  0
LINE
  5
A2C3
330
1F
100
AcDbEntity
  8
0
  6
Continuous
 62
     7
370
    15
100
AcDbLine
 10
416.7749817562321
 20
1278.595346204449
 30
0.0
 11
416.7749817562321
 21
1278.339599437524
 31
0.0
  0
LINE
  5
A2C4
330
1F
100
AcDbEntity
  8
0
  6
Continuous
 62
     7
370
    15
100
AcDbLine
 10
416.7749817562321
 20
1278.339599437524
 30
0.0
 11
416.2749826055983
 21
1277.839599355568
 31
0.0
  0
LINE
  5
A2C5
330
1F
100
AcDbEntity
  8
0
  6
Continuous
 62
     7
370
    15
100
AcDbLine
 10
416.2749826055983
 20
1277.839599355568
 30
0.0
 11
415.2850332749108
 21
1277.839599355568
 31
0.0
  0
LINE
  5
A2C6
330
1F
100
AcDbEntity
  8
0
  6
Continuous
 62
     7
370
    15
100
AcDbLine
 10
412.5249824565867
 20
1274.829600184668
 30
0.0
 11
415.524982948325
 21
1274.829600184668
 31
0.0
  0
LINE
  5
A2C7
330
1F
100
AcDbEntity
  8
0
  6
Continuous
 62
     7
370
    15
100
AcDbLine
 10
414.0249817711333
 20
1274.629600524415
 30
0.0
 11
412.7249821168402
 21
1274.629600524415
 31
0.0
  0
LINE
  5
A2C8
330
1F
100
AcDbEntity
  8
0
  6
Continuous
 62
     7
370
    15
100
AcDbLine
 10
415.3249832880715
 20
1274.629600524415
 30
0.0
 11
414.0249817711333
 21
1274.629600524415
 31
0.0
  0
LINE
  5
A2C9
330
1F
100
AcDbEntity
  8
0
  6
Continuous
 62
     7
370
    15
100
AcDbLine
 10
437.5249828291157
 20
1274.829600184668
 30
0.0
 11
440.5249814582089
 21
1274.829600184668
 31
0.0
  0
LINE
  5
A2CA
330
1F
100
AcDbEntity
  8
0
  6
Continuous
 62
     7
370
    15
100
AcDbLine
 10
440.3249817979554
 20
1274.629600524415
 30
0.0
 11
437.7249824893692
 21
1274.629600524415
 31
0.0
  0
LINE
  5
A2CB
330
1F
100
AcDbEntity
  8
0
  6
Continuous
 62
     7
370
    15
100
AcDbLine
 10
440.5249814582089
 20
1291.229599799473
 30
0.0
 11
437.5249828291157
 21
1291.229599799473
 31
0.0
  0
LINE
  5
A2CC
330
1F
100
AcDbEntity
  8
0
  6
Continuous
 62
     7
370
    15
100
AcDbLine
 10
439.0249821436623
 20
1291.429599925388
 30
0.0
 11
440.3249817979554
 21
1291.429599925388
 31
0.0
  0
LINE
  5
A2CD
330
1F
100
AcDbEntity
  8
0
  6
Continuous
 62
     7
370
    15
100
AcDbLine
 10
437.7249824893692
 20
1291.429599925388
 30
0.0
 11
439.0249821436623
 21
1291.429599925388
 31
0.0
  0
LINE
  5
A2CE
330
1F
100
AcDbEntity
  8
0
  6
Continuous
 62
     7
370
    15
100
AcDbLine
 10
420.3005108130196
 20
1280.229600324739
 30
0.0
 11
421.3749813926438
 21
1280.229600324739
 31
0.0
  0
LINE
  5
A2CF
330
1F
100
AcDbEntity
  8
0
  6
Continuous
 62
     7
370
    15
100
AcDbLine
 10
431.6749806595066
 20
1280.229600324739
 30
0.0
 11
432.7494549644211
 21
1280.229600324739
 31
0.0
  0
ARC
  5
A2D0
330
1F
100
AcDbEntity
  8
0
  6
Continuous
 62
     7
370
    15
100
AcDbCircle
 10
426.5249824118833
 20
1293.929599885152
 30
0.0
 40
4.800000000000036
100
AcDbArc
 50
339.6358651936836
 51
20.3641348063165
  0
ARC
  5
A2D1
330
1F
100
AcDbEntity
  8
0
  6
Continuous
 62
     7
370
    15
100
AcDbCircle
 10
426.5249824118833
 20
1293.929599885152
 30
0.0
 40
5.000000000000026
100
AcDbArc
 50
334.158067236834
 51
25.84193276316605
  0
LINE
  5
A2D2
330
1F
100
AcDbEntity
  8
0
  6
Continuous
 62
     7
370
    15
100
AcDbLine
 10
453.5249854517201
 20
1280.229600324739
 30
0.0
 11
442.3249821257809
 21
1280.229600324739
 31
0.0
  0
LINE
  5
A2D3
330
1F
100
AcDbEntity
  8
0
  6
Continuous
 62
     7
370
    15
100
AcDbLine
 10
453.5249854517201
 20
1280.229600324739
 30
0.0
 11
453.5249854517201
 21
1279.929599903036
 31
0.0
  0
LINE
  5
A2D4
330
1F
100
AcDbEntity
  8
0
  6
Continuous
 62
     7
370
    15
100
AcDbLine
 10
453.5249854517201
 20
1279.929599903036
 30
0.0
 11
441.7749839914063
 21
1279.929599903036
 31
0.0
  0
LINE
  5
A2D5
330
1F
100
AcDbEntity
  8
0
  6
Continuous
 62
     7
370
    15
100
AcDbLine
 10
436.2749840212086
 20
1279.929599903036
 30
0.0
 11
435.8675527465561
 21
1279.929599903036
 31
0.0
  0
LINE
  5
A2D6
330
1F
100
AcDbEntity
  8
0
  6
Continuous
 62
     7
370
    15
100
AcDbLine
 10
433.1824119281987
 20
1279.929599903036
 30
0.0
 11
419.8675538492421
 21
1279.929599903036
 31
0.0
  0
LINE
  5
A2D7
330
1F
100
AcDbEntity
  8
0
  6
Continuous
 62
     7
370
    15
100
AcDbLine
 10
417.1824111682394
 20
1279.929599903036
 30
0.0
 11
416.7749817562321
 21
1279.929599903036
 31
0.0
  0
LINE
  5
A2D8
330
1F
100
AcDbEntity
  8
0
  6
Continuous
 62
     7
370
    15
100
AcDbLine
 10
411.2749817860344
 20
1279.929599903036
 30
0.0
 11
399.5249821883658
 21
1279.929599903036
 31
0.0
  0
LINE
  5
A2D9
330
1F
100
AcDbEntity
  8
0
  6
Continuous
 62
     7
370
    15
100
AcDbLine
 10
399.5249821883658
 20
1280.229600324739
 30
0.0
 11
399.5249821883658
 21
1279.929599903036
 31
0.0
  0
LINE
  5
A2DA
330
1F
100
AcDbEntity
  8
0
  6
Continuous
 62
     7
370
    15
100
AcDbLine
 10
410.7249817890147
 20
1280.229600324739
 30
0.0
 11
399.5249821883658
 21
1280.229600324739
 31
0.0
  0
ARC
  5
A2DB
330
1F
100
AcDbEntity
  8
0
  6
Continuous
 62
     7
370
    15
100
AcDbCircle
 10
411.5249824118833
 20
1295.929599885152
 30
0.0
 40
2.900000000000006
100
AcDbArc
 50
9.928191842288347
 51
270.0
  0
ARC
  5
A2DC
330
1F
100
AcDbEntity
  8
0
  6
Continuous
 62
     7
370
    15
100
AcDbCircle
 10
411.5249824118833
 20
1295.929599885152
 30
0.0
 40
2.899999999999988
100
AcDbArc
 50
270.0
 51
286.0133944239515
  0
CIRCLE
  5
A2DD
330
1F
100
AcDbEntity
  8
0
  6
Continuous
 62
     7
370
    15
100
AcDbCircle
 10
441.5249824118833
 20
1295.929599885152
 30
0.0
 40
2.899999999999977
  0
LINE
  5
A2DE
330
1F
100
AcDbEntity
  8
0
  6
Continuous
 62
     7
370
    15
100
AcDbLine
 10
399.5249821883658
 20
1299.129599883665
 30
0.0
 11
399.5249821883658
 21
1280.229600324739
 31
0.0
  0
LINE
  5
A2DF
330
1F
100
AcDbEntity
  8
0
  6
Continuous
 62
     7
370
    15
100
AcDbLine
 10
453.5249854517201
 20
1299.129599883665
 30
0.0
 11
432.6749826860646
 21
1299.129599883665
 31
0.0
  0
LINE
  5
A2E0
330
1F
100
AcDbEntity
  8
0
  6
Continuous
 62
     7
370
    15
100
AcDbLine
 10
421.2249825787762
 20
1299.129599883665
 30
0.0
 11
399.5249821883658
 21
1299.129599883665
 31
0.0
  0
LINE
  5
A2E1
330
1F
100
AcDbEntity
  8
0
  6
Continuous
 62
     7
370
    15
100
AcDbLine
 10
453.5249854517201
 20
1299.129599883665
 30
0.0
 11
453.5249854517201
 21
1280.229600324739
 31
0.0
  0
LINE
  5
A2E2
330
1F
100
AcDbEntity
  8
0
  6
Continuous
 62
     7
370
    15
100
AcDbLine
 10
453.5249854517201
 20
1299.429599839706
 30
0.0
 11
432.6749826860646
 21
1299.429599839706
 31
0.0
  0
LINE
  5
A2E3
330
1F
100
AcDbEntity
  8
0
  6
Continuous
 62
     7
370
    15
100
AcDbLine
 10
421.5249839318016
 20
1299.429599839706
 30
0.0
 11
399.5249821883658
 21
1299.429599839706
 31
0.0
  0
LINE
  5
A2E4
330
1F
100
AcDbEntity
  8
0
  6
Continuous
 62
     7
370
    15
100
AcDbLine
 10
399.5249821883658
 20
1299.429599839706
 30
0.0
 11
399.5249821883658
 21
1299.129599883665
 31
0.0
  0
LINE
  5
A2E5
330
1F
100
AcDbEntity
  8
0
  6
Continuous
 62
     7
370
    15
100
AcDbLine
 10
453.5249854517201
 20
1299.429599839706
 30
0.0
 11
453.5249854517201
 21
1299.129599883665
 31
0.0
  0
CIRCLE
  5
A2E6
330
1F
100
AcDbEntity
  8
0
  6
Continuous
 62
     7
370
    15
100
AcDbCircle
 10
441.5249824118833
 20
1295.929599885152
 30
0.0
 40
1.649999999999977
  0
ARC
  5
A2E7
330
1F
100
AcDbEntity
  8
0
  6
Continuous
 62
     7
370
    15
100
AcDbCircle
 10
411.5249824118833
 20
1295.929599885152
 30
0.0
 40
1.649999999999983
100
AcDbArc
 50
270.0
 51
299.002546026673
  0
ARC
  5
A2E8
330
1F
100
AcDbEntity
  8
0
  6
Continuous
 62
     7
370
    15
100
AcDbCircle
 10
411.5249824118833
 20
1295.929599885152
 30
0.0
 40
1.64999999999999
100
AcDbArc
 50
17.63970139423522
 51
270.0
  0
LINE
  5
A2E9
330
1F
100
AcDbEntity
  8
0
  6
Continuous
 62
     7
370
    15
100
AcDbLine
 10
399.5249821883658
 20
1284.229600049068
 30
0.0
 11
399.5249821883658
 21
1280.659905813147
 31
0.0
  0
LINE
  5
A2EA
330
1F
100
AcDbEntity
  8
0
  6
Continuous
 62
     7
370
    15
100
AcDbLine
 10
453.5249854517201
 20
1284.229600049068
 30
0.0
 11
453.5249854517201
 21
1280.659905813147
 31
0.0
  0
LINE
  5
A2EB
330
1F
100
AcDbEntity
  8
0
  6
Continuous
 62
     7
370
    15
100
AcDbLine
 10
399.5249821883658
 20
1280.659905813147
 30
0.0
 11
399.5249821883658
 21
1279.929599903036
 31
0.0
  0
LINE
  5
A2EC
330
1F
100
AcDbEntity
  8
0
  6
Continuous
 62
     7
370
    15
100
AcDbLine
 10
453.5249854517201
 20
1280.659905813147
 30
0.0
 11
453.5249854517201
 21
1279.929599903036
 31
0.0
  0
CIRCLE
  5
A2ED
330
1F
100
AcDbEntity
  8
0
  6
Continuous
 62
     7
370
    15
100
AcDbCircle
 10
418.5249824118833
 20
1282.329599885152
 30
0.0
 40
1.550000000000011
  0
ARC
  5
A2EE
330
1F
100
AcDbEntity
  8
0
  6
Continuous
 62
     7
370
    15
100
AcDbCircle
 10
418.5249824118833
 20
1282.329599885152
 30
0.0
 40
2.75
100
AcDbArc
 50
230.478803641355
 51
270.0
  0
ARC
  5
A2EF
330
1F
100
AcDbEntity
  8
0
  6
Continuous
 62
     7
370
    15
100
AcDbCircle
 10
418.5249824118833
 20
1282.329599885152
 30
0.0
 40
2.75
100
AcDbArc
 50
270.0
 51
229.7858289826273
  0
LINE
  5
A2F0
330
1F
100
AcDbEntity
  8
0
  6
Continuous
 62
     7
370
    15
100
AcDbLine
 10
419.6796837342003
 20
1282.329599551369
 30
0.0
 11
419.1023326558092
 21
1283.329599715282
 31
0.0
  0
LINE
  5
A2F1
330
1F
100
AcDbEntity
  8
0
  6
Continuous
 62
     7
370
    15
100
AcDbLine
 10
419.1023326558092
 20
1283.329599715282
 30
0.0
 11
417.9476323616722
 21
1283.329599715282
 31
0.0
  0
LINE
  5
A2F2
330
1F
100
AcDbEntity
  8
0
  6
Continuous
 62
     7
370
    15
100
AcDbLine
 10
419.1023326558092
 20
1281.329600318779
 30
0.0
 11
419.6796837342003
 21
1282.329599551369
 31
0.0
  0
LINE
  5
A2F3
330
1F
100
AcDbEntity
  8
0
  6
Continuous
 62
     7
370
    15
100
AcDbLine
 10
417.9476323616722
 20
1283.329599715282
 30
0.0
 11
417.3702812832812
 21
1282.329599551369
 31
0.0
  0
LINE
  5
A2F4
330
1F
100
AcDbEntity
  8
0
  6
Continuous
 62
     7
370
    15
100
AcDbLine
 10
417.9476323616722
 20
1281.329600318779
 30
0.0
 11
419.1023326558092
 21
1281.329600318779
 31
0.0
  0
LINE
  5
A2F5
330
1F
100
AcDbEntity
  8
0
  6
Continuous
 62
     7
370
    15
100
AcDbLine
 10
417.3702812832812
 20
1282.329599551369
 30
0.0
 11
417.9476323616722
 21
1281.329600318779
 31
0.0
  0
LINE
  5
A2F6
330
1F
100
AcDbEntity
  8
0
  6
Continuous
 62
     7
370
    15
100
AcDbLine
 10
433.9476312589863
 20
1283.329599715282
 30
0.0
 11
433.3702820432404
 21
1282.329599551369
 31
0.0
  0
LINE
  5
A2F7
330
1F
100
AcDbEntity
  8
0
  6
Continuous
 62
     7
370
    15
100
AcDbLine
 10
433.3702820432404
 20
1282.329599551369
 30
0.0
 11
433.9476312589863
 21
1281.329600318779
 31
0.0
  0
LINE
  5
A2F8
330
1F
100
AcDbEntity
  8
0
  6
Continuous
 62
     7
370
    15
100
AcDbLine
 10
433.9476312589863
 20
1281.329600318779
 30
0.0
 11
435.1023334157685
 21
1281.329600318779
 31
0.0
  0
CIRCLE
  5
A2F9
330
1F
100
AcDbEntity
  8
0
  6
Continuous
 62
     7
370
    15
100
AcDbCircle
 10
434.5249824118833
 20
1282.329599885152
 30
0.0
 40
1.550000000000011
  0
LINE
  5
A2FA
330
1F
100
AcDbEntity
  8
0
  6
Continuous
 62
     7
370
    15
100
AcDbLine
 10
435.1023334157685
 20
1281.329600318779
 30
0.0
 11
435.6796826315144
 21
1282.329599551369
 31
0.0
  0
LINE
  5
A2FB
330
1F
100
AcDbEntity
  8
0
  6
Continuous
 62
     7
370
    15
100
AcDbLine
 10
435.1023334157685
 20
1283.329599715282
 30
0.0
 11
433.9476312589863
 21
1283.329599715282
 31
0.0
  0
LINE
  5
A2FC
330
1F
100
AcDbEntity
  8
0
  6
Continuous
 62
     7
370
    15
100
AcDbLine
 10
435.6796826315144
 20
1282.329599551369
 30
0.0
 11
435.1023334157685
 21
1283.329599715282
 31
0.0
  0
ARC
  5
A2FD
330
1F
100
AcDbEntity
  8
0
  6
Continuous
 62
     7
370
    15
100
AcDbCircle
 10
434.5249824118833
 20
1282.329599885152
 30
0.0
 40
2.75
100
AcDbArc
 50
310.2141710173727
 51
90.0
  0
ARC
  5
A2FE
330
1F
100
AcDbEntity
  8
0
  6
Continuous
 62
     7
370
    15
100
AcDbCircle
 10
434.5249824118833
 20
1282.329599885152
 30
0.0
 40
2.75
100
AcDbArc
 50
90.0
 51
309.5211963586491
  0
LINE
  5
A2FF
330
1F
100
AcDbEntity
  8
0
  6
Continuous
 62
     7
370
    15
100
AcDbLine
 10
431.4749809992531
 20
1286.179599996169
 30
0.0
 11
431.4749809992531
 21
1291.679599849951
 31
0.0
  0
LINE
  5
A300
330
1F
100
AcDbEntity
  8
0
  6
Continuous
 62
     7
370
    15
100
AcDbLine
 10
431.4749809992531
 20
1296.179599772651
 30
0.0
 11
431.4749809992531
 21
1301.67960020851
 31
0.0
  0
SPLINE
  5
A306
330
1F
100
AcDbEntity
  8
0
  6
Continuous
 62
     7
370
    15
100
AcDbSpline
210
0.0
220
0.0
230
1.0
 70
    24
 71
     1
 72
     4
 73
     2
 74
     0
 42
0.0000000001
 43
0.0000000001
 40
0.0
 40
0.0
 40
1.0
 40
1.0
 10
431.4749809992531
 20
1219.907716169601
 30
0.0
 10
431.0249808323601
 20
1219.907716169601
 30
0.0
  0
ARC
  5
A307
330
1F
100
AcDbEntity
  8
0
  6
Continuous
 62
     7
370
    15
100
AcDbCircle
 10
431.4749824118833
 20
1218.707715796482
 30
0.0
 40
1.199999999999995
100
AcDbArc
 50
2.388015463266324
 51
90.0
  0
SPLINE
  5
A309
330
1F
100
AcDbEntity
  8
0
  6
Continuous
 62
     7
370
    15
100
AcDbSpline
210
0.0
220
0.0
230
1.0
 70
    24
 71
     1
 72
     4
 73
     2
 74
     0
 42
0.0000000001
 43
0.0000000001
 40
0.0
 40
0.0
 40
1.0
 40
1.0
 10
421.2749834251622
 20
1215.157715856677
 30
0.0
 10
421.2749834251622
 20
1215.60771602357
 30
0.0
  0
LINE
  5
A30A
330
1F
100
AcDbEntity
  8
0
  6
Continuous
 62
     7
370
    15
100
AcDbLine
 10
416.9749832791308
 20
1216.807715847736
 30
0.0
 11
416.7749817562321
 21
1216.790931552296
 31
0.0
  0
ARC
  5
A30B
330
1F
100
AcDbEntity
  8
0
  6
Continuous
 62
     7
370
    15
100
AcDbCircle
 10
420.0749824118832
 20
1215.607715796482
 30
0.0
 40
1.200000000000045
100
AcDbArc
 50
0.0
 51
90.0
  0
SPLINE
  5
A30C
330
1F
100
AcDbEntity
  8
0
  6
Continuous
 62
     7
370
    15
100
AcDbSpline
210
0.0
220
0.0
230
1.0
 70
    24
 71
     1
 72
     4
 73
     2
 74
     0
 42
0.0000000001
 43
0.0000000001
 40
0.0
 40
0.0
 40
1.0
 40
1.0
 10
431.7749823522786
 20
1215.60771602357
 30
0.0
 10
431.7749823522786
 20
1215.157715856677
 30
0.0
  0
LINE
  5
A30D
330
1F
100
AcDbEntity
  8
0
  6
Continuous
 62
     7
370
    15
100
AcDbLine
 10
436.2749840212086
 20
1216.790931552296
 30
0.0
 11
436.0749806356648
 21
1216.807715847736
 31
0.0
  0
ARC
  5
A30E
330
1F
100
AcDbEntity
  8
0
  6
Continuous
 62
     7
370
    15
100
AcDbCircle
 10
432.9749824118834
 20
1215.607715796482
 30
0.0
 40
1.200000000000045
100
AcDbArc
 50
90.0
 51
180.0
  0
CIRCLE
  5
A30F
330
1F
100
AcDbEntity
  8
0
  6
Continuous
 62
     7
370
    15
100
AcDbCircle
 10
414.0249824118833
 20
1215.257715796482
 30
0.0
 40
1.300000000000011
  0
CIRCLE
  5
A310
330
1F
100
AcDbEntity
  8
0
  6
Continuous
 62
     7
370
    15
100
AcDbCircle
 10
414.0249824118833
 20
1215.257715796482
 30
0.0
 40
1.5
  0
CIRCLE
  5
A311
330
1F
100
AcDbEntity
  8
0
  6
Continuous
 62
     7
370
    15
100
AcDbCircle
 10
439.0249824118833
 20
1215.257715796482
 30
0.0
 40
1.300000000000011
  0
CIRCLE
  5
A312
330
1F
100
AcDbEntity
  8
0
  6
Continuous
 62
     7
370
    15
100
AcDbCircle
 10
439.0249824118833
 20
1215.257715796482
 30
0.0
 40
1.5
  0
LWPOLYLINE
  5
A314
330
1F
100
AcDbEntity
  8
0
  6
Continuous
 62
     7
370
    15
100
AcDbPolyline
 90
        4
 70
   128
 43
0.0
 10
440.014933336995
 20
1212.653836954033
 10
439.6930272770146
 20
1212.467985946333
 10
439.3614429128388
 20
1212.27654514054
 10
439.0249821436623
 20
1212.082289412265
  0
LWPOLYLINE
  5
A315
330
1F
100
AcDbEntity
  8
0
  6
Continuous
 62
     7
370
    15
100
AcDbPolyline
 90
        4
 70
   128
 43
0.0
 10
439.0249821436623
 20
1212.082289412265
 10
438.6885213744858
 20
1212.27654514054
 10
438.35693701031
 20
1212.467985946333
 10
438.0350346756199
 20
1212.653836954033
  0
ELLIPSE
  5
A317
330
1F
100
AcDbEntity
  8
0
  6
Continuous
 62
     7
370
    15
100
AcDbEllipse
 10
439.0249824118832
 20
1217.232020438324
 30
0.0
 11
-0.0000000000000287
 21
-4.277070648625425
 31
0.000000000000016
210
0.0
220
0.0000000000000037
230
1.0
 40
0.654653670707977
 41
5.921818183272907
 42
6.644552431086323
  0
LWPOLYLINE
  5
A319
330
1F
100
AcDbEntity
  8
0
  6
Continuous
 62
     7
370
    15
100
AcDbPolyline
 90
        4
 70
   128
 43
0.0
 10
415.0149311018208
 20
1212.653836954033
 10
414.6930287671307
 20
1212.467985946333
 10
414.3614425403097
 20
1212.27654514054
 10
414.0249817711333
 20
1212.082289412265
  0
LWPOLYLINE
  5
A31A
330
1F
100
AcDbEntity
  8
0
  6
Continuous
 62
     7
370
    15
100
AcDbPolyline
 90
        4
 70
   128
 43
0.0
 10
414.0249817711333
 20
1212.082289412265
 10
413.6885210019568
 20
1212.27654514054
 10
413.356936637781
 20
1212.467985946333
 10
413.0350324404457
 20
1212.653836954033
  0
ELLIPSE
  5
A31C
330
1F
100
AcDbEntity
  8
0
  6
Continuous
 62
     7
370
    15
100
AcDbEllipse
 10
414.0249824118832
 20
1217.232020438324
 30
0.0
 11
-0.0000000000000287
 21
-4.277070648625425
 31
0.000000000000016
210
0.0
220
0.0000000000000037
230
1.0
 40
0.6546536707079837
 41
5.9218181832729
 42
6.644552431086319
  0
LINE
  5
A31E
330
1F
100
AcDbEntity
  8
0
  6
Continuous
 62
     7
370
    15
100
AcDbLine
 10
437.7649325025299
 20
1213.387130081301
 30
0.0
 11
438.0350346756199
 21
1213.231187101101
 31
0.0
  0
LINE
  5
A31F
330
1F
100
AcDbEntity
  8
0
  6
Continuous
 62
     7
370
    15
100
AcDbLine
 10
438.0350346756199
 20
1212.653836954033
 30
0.0
 11
437.264931489251
 21
1213.098455007767
 31
0.0
  0
LINE
  5
A320
330
1F
100
AcDbEntity
  8
0
  6
Continuous
 62
     7
370
    15
100
AcDbLine
 10
440.014933336995
 20
1213.231187101101
 30
0.0
 11
440.2850317847947
 21
1213.387130081301
 31
0.0
  0
LINE
  5
A322
330
1F
100
AcDbEntity
  8
0
  6
Continuous
 62
     7
370
    15
100
AcDbLine
 10
440.7850327980736
 20
1213.098455007767
 30
0.0
 11
440.014933336995
 21
1212.653836954033
 31
0.0
  0
ELLIPSE
  5
A323
330
1F
100
AcDbEntity
  8
0
  6
Continuous
 62
     7
370
    15
100
AcDbEllipse
 10
437.3151844372385
 20
1214.270563475561
 30
0.0
 11
3.704051835490445
 21
2.138535324312669
 31
-0.0000000000000071
210
-0.0000000000000001
220
0.0000000000000036
230
1.0
 40
0.6546536707079711
 41
5.921818183272911
 42
6.644552431086329
  0
LINE
  5
A324
330
1F
100
AcDbEntity
  8
0
  6
Continuous
 62
     7
370
    15
100
AcDbLine
 10
441.2749829781273
 20
1215.101772706603
 30
0.0
 11
441.2749829781273
 21
1215.413658667003
 31
0.0
  0
ELLIPSE
  5
A325
330
1F
100
AcDbEntity
  8
0
  6
Continuous
 62
     7
370
    15
100
AcDbEllipse
 10
437.3151844372385
 20
1216.244868117403
 30
0.0
 11
3.704051835490445
 21
-2.13853532431267
 31
0.0000000000000071
210
0.0000000000000001
220
0.0000000000000036
230
1.0
 40
0.6546536707079792
 41
5.921818183272893
 42
6.644552431086296
  0
ELLIPSE
  5
A326
330
1F
100
AcDbEntity
  8
0
  6
Continuous
 62
     7
370
    15
100
AcDbEllipse
 10
440.7347803865277
 20
1216.244868117403
 30
0.0
 11
3.704051835490403
 21
2.138535324312783
 31
-0.0000000000000071
210
-0.0000000000000001
220
0.0000000000000036
230
1.0
 40
0.6546536707079795
 41
2.780225529683061
 42
3.502959777496478
  0
LINE
  5
A327
330
1F
100
AcDbEntity
  8
0
  6
Continuous
 62
     7
370
    15
100
AcDbLine
 10
436.7749813091973
 20
1215.413658667003
 30
0.0
 11
436.7749813091973
 21
1215.101772706603
 31
0.0
  0
ELLIPSE
  5
A328
330
1F
100
AcDbEntity
  8
0
  6
Continuous
 62
     7
370
    15
100
AcDbEllipse
 10
440.7347803865277
 20
1214.270563475561
 30
0.0
 11
3.704051835490403
 21
-2.138535324312755
 31
0.0000000000000071
210
0.0000000000000001
220
0.0000000000000036
230
1.0
 40
0.6546536707079672
 41
2.780225529683098
 42
3.502959777496543
  0
LINE
  5
A329
330
1F
100
AcDbEntity
  8
0
  6
Continuous
 62
     7
370
    15
100
AcDbLine
 10
438.0350346756199
 20
1217.284244738167
 30
0.0
 11
437.7649325025299
 21
1217.128301292305
 31
0.0
  0
ELLIPSE
  5
A32A
330
1F
100
AcDbEntity
  8
0
  6
Continuous
 62
     7
370
    15
100
AcDbEllipse
 10
439.0249824118832
 20
1213.28341115464
 30
0.0
 11
-0.0000000000000287
 21
-4.277070648625425
 31
0.000000000000016
210
0.0
220
0.0000000000000037
230
1.0
 40
0.654653670707977
 41
2.780225529683097
 42
3.502959777496527
  0
LINE
  5
A32B
330
1F
100
AcDbEntity
  8
0
  6
Continuous
 62
     7
370
    15
100
AcDbLine
 10
440.2850317847947
 20
1217.128301292305
 30
0.0
 11
440.014933336995
 21
1217.284244738167
 31
0.0
  0
LINE
  5
A32C
330
1F
100
AcDbEntity
  8
0
  6
Continuous
 62
     7
370
    15
100
AcDbLine
 10
411.2749817860344
 20
1213.670002549534
 30
0.0
 11
411.2749817860344
 21
1214.813097633069
 31
0.0
  0
ELLIPSE
  5
A32E
330
1F
100
AcDbEntity
  8
0
  6
Continuous
 62
     7
370
    15
100
AcDbEllipse
 10
415.7347803865277
 20
1216.244868117403
 30
0.0
 11
3.704051835490389
 21
2.138535324312783
 31
-0.0000000000000071
210
-0.0000000000000001
220
0.0000000000000036
230
1.0
 40
0.6546536707079814
 41
2.780225529683062
 42
3.502959777496489
  0
LWPOLYLINE
  5
A330
330
1F
100
AcDbEntity
  8
0
  6
Continuous
 62
     7
370
    15
100
AcDbPolyline
 90
        4
 70
   128
 43
0.0
 10
412.2649311167219
 20
1213.098455007767
 10
411.9430287820319
 20
1213.284306015467
 10
411.6114425552109
 20
1213.47574682126
 10
411.2749817860344
 20
1213.670002549534
  0
LINE
  5
A331
330
1F
100
AcDbEntity
  8
0
  6
Continuous
 62
     7
370
    15
100
AcDbLine
 10
436.2749840212086
 20
1213.670002549534
 30
0.0
 11
436.2749840212086
 21
1214.813097633069
 31
0.0
  0
LWPOLYLINE
  5
A333
330
1F
100
AcDbEntity
  8
0
  6
Continuous
 62
     7
370
    15
100
AcDbPolyline
 90
        4
 70
   128
 43
0.0
 10
437.264931489251
 20
1213.098455007767
 10
436.9430291545609
 20
1213.284306015467
 10
436.6114447903851
 20
1213.47574682126
 10
436.2749840212086
 20
1213.670002549534
  0
LINE
  5
A335
330
1F
100
AcDbEntity
  8
0
  6
Continuous
 62
     7
370
    15
100
AcDbLine
 10
441.7749839914063
 20
1214.813097633069
 30
0.0
 11
441.7749839914063
 21
1213.670002549534
 31
0.0
  0
LWPOLYLINE
  5
A336
330
1F
100
AcDbEntity
  8
0
  6
Continuous
 62
     7
370
    15
100
AcDbPolyline
 90
        4
 70
   128
 43
0.0
 10
441.7749839914063
 20
1213.670002549534
 10
441.4385232222298
 20
1213.47574682126
 10
441.1069351327637
 20
1213.284306015467
 10
440.7850327980736
 20
1213.098455007767
  0
LINE
  5
A337
330
1F
100
AcDbEntity
  8
0
  6
Continuous
 62
     7
370
    15
100
AcDbLine
 10
412.7649321300009
 20
1213.387130081301
 30
0.0
 11
413.0350324404457
 21
1213.231187101101
 31
0.0
  0
LINE
  5
A338
330
1F
100
AcDbEntity
  8
0
  6
Continuous
 62
     7
370
    15
100
AcDbLine
 10
413.0350324404457
 20
1212.653836954033
 30
0.0
 11
412.2649311167219
 21
1213.098455007767
 31
0.0
  0
LINE
  5
A339
330
1F
100
AcDbEntity
  8
0
  6
Continuous
 62
     7
370
    15
100
AcDbLine
 10
415.0149311018208
 20
1213.231187101101
 30
0.0
 11
415.2850332749108
 21
1213.387130081301
 31
0.0
  0
LINE
  5
A33B
330
1F
100
AcDbEntity
  8
0
  6
Continuous
 62
     7
370
    15
100
AcDbLine
 10
415.7850324255446
 20
1213.098455007767
 30
0.0
 11
415.0149311018208
 21
1212.653836954033
 31
0.0
  0
LINE
  5
A33D
330
1F
100
AcDbEntity
  8
0
  6
Continuous
 62
     7
370
    15
100
AcDbLine
 10
416.7749817562321
 20
1214.813097633069
 30
0.0
 11
416.7749817562321
 21
1213.670002549534
 31
0.0
  0
LWPOLYLINE
  5
A33E
330
1F
100
AcDbEntity
  8
0
  6
Continuous
 62
     7
370
    15
100
AcDbPolyline
 90
        4
 70
   128
 43
0.0
 10
416.7749817562321
 20
1213.670002549534
 10
416.4385209870556
 20
1213.47574682126
 10
416.1069366228798
 20
1213.284306015467
 10
415.7850324255446
 20
1213.098455007767
  0
ELLIPSE
  5
A33F
330
1F
100
AcDbEntity
  8
0
  6
Continuous
 62
     7
370
    15
100
AcDbEllipse
 10
412.3151844372385
 20
1216.244868117403
 30
0.0
 11
3.704051835490445
 21
-2.13853532431267
 31
0.0000000000000071
210
0.0000000000000001
220
0.0000000000000036
230
1.0
 40
0.654653670707976
 41
5.921818183272891
 42
6.644552431086298
  0
ELLIPSE
  5
A340
330
1F
100
AcDbEntity
  8
0
  6
Continuous
 62
     7
370
    15
100
AcDbEllipse
 10
412.3151844372385
 20
1214.270563475561
 30
0.0
 11
3.704051835490445
 21
2.138535324312669
 31
-0.0000000000000071
210
-0.0000000000000001
220
0.0000000000000036
230
1.0
 40
0.6546536707079678
 41
5.921818183272891
 42
6.644552431086331
  0
LINE
  5
A341
330
1F
100
AcDbEntity
  8
0
  6
Continuous
 62
     7
370
    15
100
AcDbLine
 10
416.2749826055983
 20
1215.101772706603
 30
0.0
 11
416.2749826055983
 21
1215.413658667003
 31
0.0
  0
LINE
  5
A342
330
1F
100
AcDbEntity
  8
0
  6
Continuous
 62
     7
370
    15
100
AcDbLine
 10
411.7749827993134
 20
1215.413658667003
 30
0.0
 11
411.7749827993134
 21
1215.101772706603
 31
0.0
  0
ELLIPSE
  5
A343
330
1F
100
AcDbEntity
  8
0
  6
Continuous
 62
     7
370
    15
100
AcDbEllipse
 10
415.7347803865277
 20
1214.270563475561
 30
0.0
 11
3.704051835490389
 21
-2.138535324312755
 31
0.0000000000000071
210
0.0000000000000001
220
0.0000000000000036
230
1.0
 40
0.6546536707079688
 41
2.780225529683095
 42
3.502959777496539
  0
LINE
  5
A344
330
1F
100
AcDbEntity
  8
0
  6
Continuous
 62
     7
370
    15
100
AcDbLine
 10
413.0350324404457
 20
1217.284244738167
 30
0.0
 11
412.7649321300009
 21
1217.128301292305
 31
0.0
  0
ELLIPSE
  5
A345
330
1F
100
AcDbEntity
  8
0
  6
Continuous
 62
     7
370
    15
100
AcDbEllipse
 10
414.0249824118832
 20
1213.28341115464
 30
0.0
 11
-0.0000000000000287
 21
-4.277070648625425
 31
0.000000000000016
210
0.0
220
0.0000000000000037
230
1.0
 40
0.6546536707079837
 41
2.780225529683101
 42
3.502959777496538
  0
LINE
  5
A346
330
1F
100
AcDbEntity
  8
0
  6
Continuous
 62
     7
370
    15
100
AcDbLine
 10
415.2850332749108
 20
1217.128301292305
 30
0.0
 11
415.0149311018208
 21
1217.284244738167
 31
0.0
  0
LINE
  5
A348
330
1F
100
AcDbEntity
  8
0
  6
Continuous
 62
     7
370
    15
100
AcDbLine
 10
436.2749840212086
 20
1214.813097633069
 30
0.0
 11
436.2749840212086
 21
1215.702333740538
 31
0.0
  0
LINE
  5
A34A
330
1F
100
AcDbEntity
  8
0
  6
Continuous
 62
     7
370
    15
100
AcDbLine
 10
441.7749839914063
 20
1215.702333740538
 30
0.0
 11
441.7749839914063
 21
1214.813097633069
 31
0.0
  0
LINE
  5
A34C
330
1F
100
AcDbEntity
  8
0
  6
Continuous
 62
     7
370
    15
100
AcDbLine
 10
411.2749817860344
 20
1214.813097633069
 30
0.0
 11
411.2749817860344
 21
1215.702333740538
 31
0.0
  0
LINE
  5
A34E
330
1F
100
AcDbEntity
  8
0
  6
Continuous
 62
     7
370
    15
100
AcDbLine
 10
416.7749817562321
 20
1215.702333740538
 30
0.0
 11
416.7749817562321
 21
1214.813097633069
 31
0.0
  0
LWPOLYLINE
  5
A34F
330
1F
100
AcDbEntity
  8
0
  6
Continuous
 62
     7
370
    15
100
AcDbPolyline
 90
        4
 70
   128
 43
0.0
 10
436.2749840212086
 20
1216.845428824072
 10
436.6114447903851
 20
1217.039685018008
 10
436.9430291545609
 20
1217.231125823801
 10
437.264931489251
 20
1217.416976831501
  0
LINE
  5
A351
330
1F
100
AcDbEntity
  8
0
  6
Continuous
 62
     7
370
    15
100
AcDbLine
 10
436.2749840212086
 20
1215.702333740538
 30
0.0
 11
436.2749840212086
 21
1216.845428824072
 31
0.0
  0
LWPOLYLINE
  5
A353
330
1F
100
AcDbEntity
  8
0
  6
Continuous
 62
     7
370
    15
100
AcDbPolyline
 90
        4
 70
   128
 43
0.0
 10
440.7850327980736
 20
1217.416976831501
 10
441.1069351327637
 20
1217.231125823801
 10
441.4385232222298
 20
1217.039685018008
 10
441.7749839914063
 20
1216.845428824072
  0
LINE
  5
A354
330
1F
100
AcDbEntity
  8
0
  6
Continuous
 62
     7
370
    15
100
AcDbLine
 10
441.7749839914063
 20
1216.845428824072
 30
0.0
 11
441.7749839914063
 21
1215.702333740538
 31
0.0
  0
LWPOLYLINE
  5
A355
330
1F
100
AcDbEntity
  8
0
  6
Continuous
 62
     7
370
    15
100
AcDbPolyline
 90
        4
 70
   128
 43
0.0
 10
411.2749817860344
 20
1216.845428824072
 10
411.6114425552109
 20
1217.039685018008
 10
411.9430287820319
 20
1217.231125823801
 10
412.2649311167219
 20
1217.416976831501
  0
LINE
  5
A357
330
1F
100
AcDbEntity
  8
0
  6
Continuous
 62
     7
370
    15
100
AcDbLine
 10
411.2749817860344
 20
1215.702333740538
 30
0.0
 11
411.2749817860344
 21
1216.845428824072
 31
0.0
  0
LWPOLYLINE
  5
A359
330
1F
100
AcDbEntity
  8
0
  6
Continuous
 62
     7
370
    15
100
AcDbPolyline
 90
        4
 70
   128
 43
0.0
 10
415.7850324255446
 20
1217.416976831501
 10
416.1069366228798
 20
1217.231125823801
 10
416.4385209870556
 20
1217.039685018008
 10
416.7749817562321
 20
1216.845428824072
  0
LINE
  5
A35A
330
1F
100
AcDbEntity
  8
0
  6
Continuous
 62
     7
370
    15
100
AcDbLine
 10
416.7749817562321
 20
1216.845428824072
 30
0.0
 11
416.7749817562321
 21
1215.702333740538
 31
0.0
  0
LINE
  5
A35C
330
1F
100
AcDbEntity
  8
0
  6
Continuous
 62
     7
370
    15
100
AcDbLine
 10
440.014933336995
 20
1217.861594885235
 30
0.0
 11
440.7850327980736
 21
1217.416976831501
 31
0.0
  0
LWPOLYLINE
  5
A35D
330
1F
100
AcDbEntity
  8
0
  6
Continuous
 62
     7
370
    15
100
AcDbPolyline
 90
        4
 70
   128
 43
0.0
 10
414.0249817711333
 20
1218.433141961341
 10
414.3614425403097
 20
1218.238886698728
 10
414.6930287671307
 20
1218.047445892935
 10
415.0149311018208
 20
1217.861594885235
  0
LWPOLYLINE
  5
A360
330
1F
100
AcDbEntity
  8
0
  6
Continuous
 62
     7
370
    15
100
AcDbPolyline
 90
        4
 70
   128
 43
0.0
 10
413.0350324404457
 20
1217.861594885235
 10
413.356936637781
 20
1218.047445892935
 10
413.6885210019568
 20
1218.238886698728
 10
414.0249817711333
 20
1218.433141961341
  0
LWPOLYLINE
  5
A361
330
1F
100
AcDbEntity
  8
0
  6
Continuous
 62
     7
370
    15
100
AcDbPolyline
 90
        4
 70
   128
 43
0.0
 10
439.0249821436623
 20
1218.433141961341
 10
439.3614429128388
 20
1218.238886698728
 10
439.6930272770146
 20
1218.047445892935
 10
440.014933336995
 20
1217.861594885235
  0
LWPOLYLINE
  5
A363
330
1F
100
AcDbEntity
  8
0
  6
Continuous
 62
     7
370
    15
100
AcDbPolyline
 90
        4
 70
   128
 43
0.0
 10
438.0350346756199
 20
1217.861594885235
 10
438.35693701031
 20
1218.047445892935
 10
438.6885213744858
 20
1218.238886698728
 10
439.0249821436623
 20
1218.433141961341
  0
LINE
  5
A364
330
1F
100
AcDbEntity
  8
0
  6
Continuous
 62
     7
370
    15
100
AcDbLine
 10
415.0149311018208
 20
1217.861594885235
 30
0.0
 11
415.7850324255446
 21
1217.416976831501
 31
0.0
  0
LINE
  5
A365
330
1F
100
AcDbEntity
  8
0
  6
Continuous
 62
     7
370
    15
100
AcDbLine
 10
412.2649311167219
 20
1217.416976831501
 30
0.0
 11
413.0350324404457
 21
1217.861594885235
 31
0.0
  0
LINE
  5
A366
330
1F
100
AcDbEntity
  8
0
  6
Continuous
 62
     7
370
    15
100
AcDbLine
 10
437.264931489251
 20
1217.416976831501
 30
0.0
 11
438.0350346756199
 21
1217.861594885235
 31
0.0
  0
LINE
  5
A367
330
1F
100
AcDbEntity
  8
0
  6
Continuous
 62
     7
370
    15
100
AcDbLine
 10
453.5249854517201
 20
1198.957715436464
 30
0.0
 11
399.5249821883658
 21
1198.957715436464
 31
0.0
  0
LINE
  5
A368
330
1F
100
AcDbEntity
  8
0
  6
Continuous
 62
     7
370
    15
100
AcDbLine
 10
453.5249854517201
 20
1198.657715946084
 30
0.0
 11
399.5249821883658
 21
1198.657715946084
 31
0.0
  0
LINE
  5
A369
330
1F
100
AcDbEntity
  8
0
  6
Continuous
 62
     7
370
    15
100
AcDbLine
 10
399.5249821883658
 20
1198.957715436464
 30
0.0
 11
399.5249821883658
 21
1198.657715946084
 31
0.0
  0
LINE
  5
A36A
330
1F
100
AcDbEntity
  8
0
  6
Continuous
 62
     7
370
    15
100
AcDbLine
 10
453.5249854517201
 20
1198.957715436464
 30
0.0
 11
453.5249854517201
 21
1198.657715946084
 31
0.0
  0
LINE
  5
A36B
330
1F
100
AcDbEntity
  8
0
  6
Continuous
 62
     7
370
    15
100
AcDbLine
 10
453.5249854517201
 20
1200.557715978121
 30
0.0
 11
399.5249821883658
 21
1200.557715978121
 31
0.0
  0
LINE
  5
A36C
330
1F
100
AcDbEntity
  8
0
  6
Continuous
 62
     7
370
    15
100
AcDbLine
 10
399.5249821883658
 20
1200.557715978121
 30
0.0
 11
399.5249821883658
 21
1198.957715436464
 31
0.0
  0
LINE
  5
A36D
330
1F
100
AcDbEntity
  8
0
  6
Continuous
 62
     7
370
    15
100
AcDbLine
 10
453.5249854517201
 20
1200.557715978121
 30
0.0
 11
453.5249854517201
 21
1198.957715436464
 31
0.0
  0
LINE
  5
A36E
330
1F
100
AcDbEntity
  8
0
  6
Continuous
 62
     7
370
    15
100
AcDbLine
 10
453.5249854517201
 20
1211.857715874558
 30
0.0
 11
399.5249821883658
 21
1211.857715874558
 31
0.0
  0
CIRCLE
  5
A36F
330
1F
100
AcDbEntity
  8
0
  6
Continuous
 62
     7
370
    15
100
AcDbCircle
 10
404.8249824118832
 20
1208.157715796482
 30
0.0
 40
1.25
  0
CIRCLE
  5
A370
330
1F
100
AcDbEntity
  8
0
  6
Continuous
 62
     7
370
    15
100
AcDbCircle
 10
448.2249824118833
 20
1208.157715796482
 30
0.0
 40
1.25
  0
LINE
  5
A371
330
1F
100
AcDbEntity
  8
0
  6
Continuous
 62
     7
370
    15
100
AcDbLine
 10
453.5249854517201
 20
1203.557716004198
 30
0.0
 11
399.5249821883658
 21
1203.557716004198
 31
0.0
  0
LINE
  5
A372
330
1F
100
AcDbEntity
  8
0
  6
Continuous
 62
     7
370
    15
100
AcDbLine
 10
399.5249821883658
 20
1211.857715874558
 30
0.0
 11
399.5249821883658
 21
1203.557716004198
 31
0.0
  0
LINE
  5
A373
330
1F
100
AcDbEntity
  8
0
  6
Continuous
 62
     7
370
    15
100
AcDbLine
 10
453.5249854517201
 20
1211.857715874558
 30
0.0
 11
453.5249854517201
 21
1203.557716004198
 31
0.0
  0
LINE
  5
A374
330
1F
100
AcDbEntity
  8
0
  6
Continuous
 62
     7
370
    15
100
AcDbLine
 10
442.3249821257809
 20
1212.1577158306
 30
0.0
 11
439.1556243491391
 21
1212.1577158306
 31
0.0
  0
LINE
  5
A375
330
1F
100
AcDbEntity
  8
0
  6
Continuous
 62
     7
370
    15
100
AcDbLine
 10
453.5249854517201
 20
1212.1577158306
 30
0.0
 11
442.3249821257809
 21
1212.1577158306
 31
0.0
  0
LINE
  5
A376
330
1F
100
AcDbEntity
  8
0
  6
Continuous
 62
     7
370
    15
100
AcDbLine
 10
410.7249817890147
 20
1212.1577158306
 30
0.0
 11
399.5249821883658
 21
1212.1577158306
 31
0.0
  0
LINE
  5
A377
330
1F
100
AcDbEntity
  8
0
  6
Continuous
 62
     7
370
    15
100
AcDbLine
 10
413.8943395656565
 20
1212.1577158306
 30
0.0
 11
410.7249817890147
 21
1212.1577158306
 31
0.0
  0
LINE
  5
A378
330
1F
100
AcDbEntity
  8
0
  6
Continuous
 62
     7
370
    15
100
AcDbLine
 10
438.8943399381855
 20
1212.1577158306
 30
0.0
 11
414.1556258392552
 21
1212.1577158306
 31
0.0
  0
LINE
  5
A379
330
1F
100
AcDbEntity
  8
0
  6
Continuous
 62
     7
370
    15
100
AcDbLine
 10
399.5249821883658
 20
1212.1577158306
 30
0.0
 11
399.5249821883658
 21
1211.857715874558
 31
0.0
  0
LINE
  5
A37A
330
1F
100
AcDbEntity
  8
0
  6
Continuous
 62
     7
370
    15
100
AcDbLine
 10
453.5249854517201
 20
1212.1577158306
 30
0.0
 11
453.5249854517201
 21
1211.857715874558
 31
0.0
  0
LINE
  5
A37B
330
1F
100
AcDbEntity
  8
0
  6
Continuous
 62
     7
370
    15
100
AcDbLine
 10
415.6749817621926
 20
1218.557715668922
 30
0.0
 11
415.6749817621926
 21
1217.480514451509
 31
0.0
  0
LINE
  5
A37C
330
1F
100
AcDbEntity
  8
0
  6
Continuous
 62
     7
370
    15
100
AcDbLine
 10
410.7249817890147
 20
1218.557715668922
 30
0.0
 11
410.7249817890147
 21
1212.1577158306
 31
0.0
  0
LINE
  5
A37D
330
1F
100
AcDbEntity
  8
0
  6
Continuous
 62
     7
370
    15
100
AcDbLine
 10
415.6749817621926
 20
1218.557715668922
 30
0.0
 11
410.7249817890147
 21
1218.557715668922
 31
0.0
  0
LINE
  5
A37E
330
1F
100
AcDbEntity
  8
0
  6
Continuous
 62
     7
370
    15
100
AcDbLine
 10
442.3249821257809
 20
1212.1577158306
 30
0.0
 11
442.3249821257809
 21
1218.557715668922
 31
0.0
  0
LINE
  5
A37F
330
1F
100
AcDbEntity
  8
0
  6
Continuous
 62
     7
370
    15
100
AcDbLine
 10
442.3249821257809
 20
1218.557715668922
 30
0.0
 11
442.5249817860344
 21
1218.557715668922
 31
0.0
  0
LINE
  5
A380
330
1F
100
AcDbEntity
  8
0
  6
Continuous
 62
     7
370
    15
100
AcDbLine
 10
442.5249817860344
 20
1218.557715668922
 30
0.0
 11
442.5249817860344
 21
1212.1577158306
 31
0.0
  0
LINE
  5
A381
330
1F
100
AcDbEntity
  8
0
  6
Continuous
 62
     7
370
    15
100
AcDbLine
 10
431.6749806595066
 20
1215.157715856677
 30
0.0
 11
432.7494549644211
 21
1215.157715856677
 31
0.0
  0
LINE
  5
A382
330
1F
100
AcDbEntity
  8
0
  6
Continuous
 62
     7
370
    15
100
AcDbLine
 10
420.3005108130196
 20
1215.157715856677
 30
0.0
 11
421.3749813926438
 21
1215.157715856677
 31
0.0
  0
LINE
  5
A383
330
1F
100
AcDbEntity
  8
0
  6
Continuous
 62
     7
370
    15
100
AcDbLine
 10
421.3749813926438
 20
1218.557715668922
 30
0.0
 11
421.3749813926438
 21
1215.157715856677
 31
0.0
  0
LINE
  5
A384
330
1F
100
AcDbEntity
  8
0
  6
Continuous
 62
     7
370
    15
100
AcDbLine
 10
431.6749806595066
 20
1218.557715668922
 30
0.0
 11
421.3749813926438
 21
1218.557715668922
 31
0.0
  0
LINE
  5
A385
330
1F
100
AcDbEntity
  8
0
  6
Continuous
 62
     7
370
    15
100
AcDbLine
 10
431.6749806595066
 20
1218.557715668922
 30
0.0
 11
431.6749806595066
 21
1215.157715856677
 31
0.0
  0
LINE
  5
A386
330
1F
100
AcDbEntity
  8
0
  6
Continuous
 62
     7
370
    15
100
AcDbLine
 10
437.3749840152481
 20
1218.557715668922
 30
0.0
 11
437.3749840152481
 21
1217.480514451509
 31
0.0
  0
LINE
  5
A387
330
1F
100
AcDbEntity
  8
0
  6
Continuous
 62
     7
370
    15
100
AcDbLine
 10
442.3249821257809
 20
1218.557715668922
 30
0.0
 11
437.3749840152481
 21
1218.557715668922
 31
0.0
  0
LINE
  5
A388
330
1F
100
AcDbEntity
  8
0
  6
Continuous
 62
     7
370
    15
100
AcDbLine
 10
410.5249821287611
 20
1212.1577158306
 30
0.0
 11
410.5249821287611
 21
1218.557715668922
 31
0.0
  0
LINE
  5
A389
330
1F
100
AcDbEntity
  8
0
  6
Continuous
 62
     7
370
    15
100
AcDbLine
 10
410.5249821287611
 20
1218.557715668922
 30
0.0
 11
410.7249817890147
 21
1218.557715668922
 31
0.0
  0
LINE
  5
A38A
330
1F
100
AcDbEntity
  8
0
  6
Continuous
 62
     7
370
    15
100
AcDbLine
 10
421.5749810528973
 20
1218.757716260498
 30
0.0
 11
431.4749809992531
 21
1218.757716260498
 31
0.0
  0
LINE
  5
A38B
330
1F
100
AcDbEntity
  8
0
  6
Continuous
 62
     7
370
    15
100
AcDbLine
 10
431.4749809992531
 20
1218.757716260498
 30
0.0
 11
431.6749806595066
 21
1218.557715668922
 31
0.0
  0
LINE
  5
A38C
330
1F
100
AcDbEntity
  8
0
  6
Continuous
 62
     7
370
    15
100
AcDbLine
 10
421.5749810528973
 20
1218.757716260498
 30
0.0
 11
421.3749813926438
 21
1218.557715668922
 31
0.0
  0
LINE
  5
A38D
330
1F
100
AcDbEntity
  8
0
  6
Continuous
 62
     7
370
    15
100
AcDbLine
 10
410.7249817890147
 20
1218.757716260498
 30
0.0
 11
415.474982101939
 21
1218.757716260498
 31
0.0
  0
LINE
  5
A38E
330
1F
100
AcDbEntity
  8
0
  6
Continuous
 62
     7
370
    15
100
AcDbLine
 10
410.7249817890147
 20
1218.757716260498
 30
0.0
 11
410.7249817890147
 21
1218.557715668922
 31
0.0
  0
LINE
  5
A38F
330
1F
100
AcDbEntity
  8
0
  6
Continuous
 62
     7
370
    15
100
AcDbLine
 10
415.474982101939
 20
1218.757716260498
 30
0.0
 11
415.6749817621926
 21
1218.557715668922
 31
0.0
  0
LINE
  5
A390
330
1F
100
AcDbEntity
  8
0
  6
Continuous
 62
     7
370
    15
100
AcDbLine
 10
442.3249821257809
 20
1218.757716260498
 30
0.0
 11
442.5249817860344
 21
1218.557715668922
 31
0.0
  0
LINE
  5
A391
330
1F
100
AcDbEntity
  8
0
  6
Continuous
 62
     7
370
    15
100
AcDbLine
 10
442.3249821257809
 20
1218.757716260498
 30
0.0
 11
442.3249821257809
 21
1218.557715668922
 31
0.0
  0
LINE
  5
A392
330
1F
100
AcDbEntity
  8
0
  6
Continuous
 62
     7
370
    15
100
AcDbLine
 10
437.5749836755017
 20
1218.757716260498
 30
0.0
 11
442.3249821257809
 21
1218.757716260498
 31
0.0
  0
LINE
  5
A393
330
1F
100
AcDbEntity
  8
0
  6
Continuous
 62
     7
370
    15
100
AcDbLine
 10
437.5749836755017
 20
1218.757716260498
 30
0.0
 11
437.3749840152481
 21
1218.557715668922
 31
0.0
  0
LINE
  5
A394
330
1F
100
AcDbEntity
  8
0
  6
Continuous
 62
     7
370
    15
100
AcDbLine
 10
410.7249817890147
 20
1218.757716260498
 30
0.0
 11
410.5249821287611
 21
1218.557715668922
 31
0.0
  0
LINE
  5
A395
330
1F
100
AcDbEntity
  8
0
  6
Continuous
 62
     7
370
    15
100
AcDbLine
 10
399.5249821883658
 20
1204.157715683451
 30
0.0
 11
399.5249821883658
 21
1199.957715600377
 31
0.0
  0
LINE
  5
A396
330
1F
100
AcDbEntity
  8
0
  6
Continuous
 62
     7
370
    15
100
AcDbLine
 10
453.5249854517201
 20
1204.157715683451
 30
0.0
 11
453.5249854517201
 21
1199.957715600377
 31
0.0
  0
LINE
  5
A397
330
1F
100
AcDbEntity
  8
0
  6
Continuous
 62
     7
370
    15
100
AcDbLine
 10
437.3749840152481
 20
1218.557715668922
 30
0.0
 11
431.6749806595066
 21
1218.557715668922
 31
0.0
  0
LINE
  5
A398
330
1F
100
AcDbEntity
  8
0
  6
Continuous
 62
     7
370
    15
100
AcDbLine
 10
421.3749813926438
 20
1218.557715668922
 30
0.0
 11
415.6749817621926
 21
1218.557715668922
 31
0.0
  0
LINE
  5
A399
330
1F
100
AcDbEntity
  8
0
  6
Continuous
 62
     7
370
    15
100
AcDbLine
 10
431.4749809992531
 20
1218.757716260498
 30
0.0
 11
437.5749836755017
 21
1218.757716260498
 31
0.0
  0
LINE
  5
A39A
330
1F
100
AcDbEntity
  8
0
  6
Continuous
 62
     7
370
    15
100
AcDbLine
 10
415.474982101939
 20
1218.757716260498
 30
0.0
 11
421.5749810528973
 21
1218.757716260498
 31
0.0
  0
LINE
  5
A39B
330
1F
100
AcDbEntity
  8
0
  6
Continuous
 62
     7
370
    15
100
AcDbLine
 10
424.0249815476158
 20
1219.957716084664
 30
0.0
 11
424.0249815476158
 21
1218.757716260498
 31
0.0
  0
LINE
  5
A39C
330
1F
100
AcDbEntity
  8
0
  6
Continuous
 62
     7
370
    15
100
AcDbLine
 10
431.0249808323601
 20
1219.957716084664
 30
0.0
 11
424.0249815476158
 21
1219.957716084664
 31
0.0
  0
LINE
  5
A39D
330
1F
100
AcDbEntity
  8
0
  6
Continuous
 62
     7
370
    15
100
AcDbLine
 10
431.0249808323601
 20
1219.957716084664
 30
0.0
 11
431.0249808323601
 21
1218.757716260498
 31
0.0
  0
LINE
  5
A39E
330
1F
100
AcDbEntity
  8
0
  6
Continuous
 62
     7
370
    15
100
AcDbLine
 10
418.5249815774182
 20
1219.957716084664
 30
0.0
 11
418.5249815774182
 21
1218.757716260498
 31
0.0
  0
LINE
  5
A39F
330
1F
100
AcDbEntity
  8
0
  6
Continuous
 62
     7
370
    15
100
AcDbLine
 10
424.0249815476158
 20
1219.957716084664
 30
0.0
 11
418.5249815774182
 21
1219.957716084664
 31
0.0
  0
LINE
  5
A3A0
330
1F
100
AcDbEntity
  8
0
  6
Continuous
 62
     7
370
    15
100
AcDbLine
 10
424.107824553273
 20
1220.157715744918
 30
0.0
 11
430.8249811721066
 21
1220.157715744918
 31
0.0
  0
LINE
  5
A3A1
330
1F
100
AcDbEntity
  8
0
  6
Continuous
 62
     7
370
    15
100
AcDbLine
 10
430.8249811721066
 20
1220.157715744918
 30
0.0
 11
431.0249808323601
 21
1219.957716084664
 31
0.0
  0
LINE
  5
A3A2
330
1F
100
AcDbEntity
  8
0
  6
Continuous
 62
     7
370
    15
100
AcDbLine
 10
424.107824553273
 20
1220.157715744918
 30
0.0
 11
424.0249815476158
 21
1219.957716084664
 31
0.0
  0
LINE
  5
A3A3
330
1F
100
AcDbEntity
  8
0
  6
Continuous
 62
     7
370
    15
100
AcDbLine
 10
418.6078245830754
 20
1220.157715744918
 30
0.0
 11
424.107824553273
 21
1220.157715744918
 31
0.0
  0
LINE
  5
A3A4
330
1F
100
AcDbEntity
  8
0
  6
Continuous
 62
     7
370
    15
100
AcDbLine
 10
418.5249815774182
 20
1219.957716084664
 30
0.0
 11
418.6078245830754
 21
1220.157715744918
 31
0.0
  0
LINE
  5
A3A7
330
1F
100
AcDbEntity
  8
0
  6
Continuous
 62
     7
370
    15
100
AcDbLine
 10
412.3249827963332
 20
1219.957716084664
 30
0.0
 11
412.3249827963332
 21
1218.757716260498
 31
0.0
  0
LINE
  5
A3A8
330
1F
100
AcDbEntity
  8
0
  6
Continuous
 62
     7
370
    15
100
AcDbLine
 10
418.5249815774182
 20
1219.957716084664
 30
0.0
 11
412.3249827963332
 21
1219.957716084664
 31
0.0
  0
LINE
  5
A3A9
330
1F
100
AcDbEntity
  8
0
  6
Continuous
 62
     7
370
    15
100
AcDbLine
 10
412.3249827963332
 20
1219.957716084664
 30
0.0
 11
412.5249824565867
 21
1220.157715744918
 31
0.0
  0
LINE
  5
A3AA
330
1F
100
AcDbEntity
  8
0
  6
Continuous
 62
     7
370
    15
100
AcDbLine
 10
412.5249824565867
 20
1220.157715744918
 30
0.0
 11
418.6078245830754
 21
1220.157715744918
 31
0.0
  0
LINE
  5
A3AB
330
1F
100
AcDbEntity
  8
0
  6
Continuous
 62
     7
370
    15
100
AcDbLine
 10
418.5249815774182
 20
1215.157715856677
 30
0.0
 11
420.3005108130196
 21
1215.157715856677
 31
0.0
  0
LINE
  5
A3AC
330
1F
100
AcDbEntity
  8
0
  6
Continuous
 62
     7
370
    15
100
AcDbLine
 10
416.7749817562321
 20
1215.157715856677
 30
0.0
 11
418.5249815774182
 21
1215.157715856677
 31
0.0
  0
LINE
  5
A3AD
330
1F
100
AcDbEntity
  8
0
  6
Continuous
 62
     7
370
    15
100
AcDbLine
 10
418.5249815774182
 20
1216.807715847736
 30
0.0
 11
420.0749817383507
 21
1216.807715847736
 31
0.0
  0
LINE
  5
A3AE
330
1F
100
AcDbEntity
  8
0
  6
Continuous
 62
     7
370
    15
100
AcDbLine
 10
416.9749832791308
 20
1216.807715847736
 30
0.0
 11
418.5249815774182
 21
1216.807715847736
 31
0.0
  0
LINE
  5
A3AF
330
1F
100
AcDbEntity
  8
0
  6
Continuous
 62
     7
370
    15
100
AcDbLine
 10
432.7494549644211
 20
1215.157715856677
 30
0.0
 11
436.2749840212086
 21
1215.157715856677
 31
0.0
  0
LINE
  5
A3B0
330
1F
100
AcDbEntity
  8
0
  6
Continuous
 62
     7
370
    15
100
AcDbLine
 10
432.97498403909
 20
1216.807715847736
 30
0.0
 11
436.0749806356648
 21
1216.807715847736
 31
0.0
  0
LINE
  5
A3B1
330
1F
100
AcDbEntity
  8
0
  6
Continuous
 62
     7
370
    15
100
AcDbLine
 10
431.4749809992531
 20
1218.757716260498
 30
0.0
 11
431.4749809992531
 21
1219.907716169601
 31
0.0
  0
LINE
  5
A3B2
330
1F
100
AcDbEntity
  8
0
  6
Continuous
 62
     7
370
    15
100
AcDbLine
 10
418.5249815774182
 20
1215.60771602357
 30
0.0
 11
416.7749817562321
 21
1215.60771602357
 31
0.0
  0
LINE
  5
A3B3
330
1F
100
AcDbEntity
  8
0
  6
Continuous
 62
     7
370
    15
100
AcDbLine
 10
421.2749834251622
 20
1215.60771602357
 30
0.0
 11
418.5249815774182
 21
1215.60771602357
 31
0.0
  0
LINE
  5
A3B4
330
1F
100
AcDbEntity
  8
0
  6
Continuous
 62
     7
370
    15
100
AcDbLine
 10
436.2749840212086
 20
1215.60771602357
 30
0.0
 11
431.7749823522786
 21
1215.60771602357
 31
0.0
  0
SPLINE
  5
A3BB
330
1F
100
AcDbEntity
  8
0
  6
Continuous
 62
     7
370
    15
100
AcDbSpline
210
0.0
220
0.0
230
1.0
 70
    24
 71
     1
 72
     4
 73
     2
 74
     0
 42
0.0000000001
 43
0.0000000001
 40
0.0
 40
0.0
 40
1.0
 40
1.0
 10
431.0249810558777
 20
1339.104405891045
 30
0.0
 10
431.4749812227707
 20
1339.104405891045
 30
0.0
  0
SPLINE
  5
A3BC
330
1F
100
AcDbEntity
  8
0
  6
Continuous
 62
     7
370
    15
100
AcDbSpline
210
0.0
220
0.0
230
1.0
 70
    24
 71
     1
 72
     4
 73
     2
 74
     0
 42
0.0000000001
 43
0.0000000001
 40
0.0
 40
0.0
 40
1.0
 40
1.0
 10
431.4749812227707
 20
1344.604406326904
 30
0.0
 10
431.0249810558777
 20
1344.604406326904
 30
0.0
  0
ARC
  5
A3BD
330
1F
100
AcDbEntity
  8
0
  6
Continuous
 62
     7
370
    15
100
AcDbCircle
 10
431.4749826354009
 20
1343.404406264164
 30
0.0
 40
1.200000000000002
100
AcDbArc
 50
0.0
 51
90.0
  0
ARC
  5
A3BE
330
1F
100
AcDbEntity
  8
0
  6
Continuous
 62
     7
370
    15
100
AcDbCircle
 10
431.4749826354009
 20
1340.304406264164
 30
0.0
 40
1.200000000000002
100
AcDbArc
 50
270.0
 51
0.0
  0
SPLINE
  5
A3BF
330
1F
100
AcDbEntity
  8
0
  6
Continuous
 62
     7
370
    15
100
AcDbSpline
210
0.0
220
0.0
230
1.0
 70
    24
 71
     1
 72
     4
 73
     2
 74
     0
 42
0.0000000001
 43
0.0000000001
 40
0.0
 40
0.0
 40
1.0
 40
1.0
 10
421.5249841553192
 20
1346.854406230046
 30
0.0
 10
421.5249841553192
 20
1345.254406154051
 30
0.0
  0
SPLINE
  5
A3C0
330
1F
100
AcDbEntity
  8
0
  6
Continuous
 62
     7
370
    15
100
AcDbSpline
210
0.0
220
0.0
230
1.0
 70
    24
 71
     1
 72
     4
 73
     2
 74
     0
 42
0.0000000001
 43
0.0000000001
 40
0.0
 40
0.0
 40
1.0
 40
1.0
 10
431.5249820691566
 20
1345.254406154051
 30
0.0
 10
431.5249820691566
 20
1346.854406230046
 30
0.0
  0
SPLINE
  5
A3C1
330
1F
100
AcDbEntity
  8
0
  6
Continuous
 62
     7
370
    15
100
AcDbSpline
210
0.0
220
0.0
230
1.0
 70
    24
 71
     1
 72
     4
 73
     2
 74
     0
 42
0.0000000001
 43
0.0000000001
 40
0.0
 40
0.0
 40
1.0
 40
1.0
 10
421.5249841553192
 20
1345.254406154051
 30
0.0
 10
421.7249838155727
 20
1345.054406493797
 30
0.0
  0
SPLINE
  5
A3C2
330
1F
100
AcDbEntity
  8
0
  6
Continuous
 62
     7
370
    15
100
AcDbSpline
210
0.0
220
0.0
230
1.0
 70
    24
 71
     1
 72
     4
 73
     2
 74
     0
 42
0.0000000001
 43
0.0000000001
 40
0.0
 40
0.0
 40
1.0
 40
1.0
 10
431.3249824089031
 20
1345.054406493797
 30
0.0
 10
431.5249820691566
 20
1345.254406154051
 30
0.0
  0
SPLINE
  5
A3C3
330
1F
100
AcDbEntity
  8
0
  6
Continuous
 62
     7
370
    15
100
AcDbSpline
210
0.0
220
0.0
230
1.0
 70
    24
 71
     1
 72
     4
 73
     2
 74
     0
 42
0.0000000001
 43
0.0000000001
 40
0.0
 40
0.0
 40
1.0
 40
1.0
 10
423.8249821108799
 20
1345.054406493797
 30
0.0
 10
423.8249821108799
 20
1344.854406367882
 30
0.0
  0
LINE
  5
A3C5
330
1F
100
AcDbEntity
  8
0
  6
Continuous
 62
     7
370
    15
100
AcDbLine
 10
424.0249817711334
 20
1344.654406241967
 30
0.0
 11
418.5249818009357
 21
1344.654406241967
 31
0.0
  0
LINE
  5
A3C6
330
1F
100
AcDbEntity
  8
0
  6
Continuous
 62
     7
370
    15
100
AcDbLine
 10
424.0249817711334
 20
1339.054405975982
 30
0.0
 11
424.0249817711334
 21
1344.654406241967
 31
0.0
  0
LINE
  5
A3C7
330
1F
100
AcDbEntity
  8
0
  6
Continuous
 62
     7
370
    15
100
AcDbLine
 10
418.5249818009357
 20
1339.054405975982
 30
0.0
 11
424.0249817711334
 21
1339.054405975982
 31
0.0
  0
LINE
  5
A3C8
330
1F
100
AcDbEntity
  8
0
  6
Continuous
 62
     7
370
    15
100
AcDbLine
 10
418.5249818009357
 20
1339.054405975982
 30
0.0
 11
418.5249818009357
 21
1344.654406241967
 31
0.0
  0
LINE
  5
A3C9
330
1F
100
AcDbEntity
  8
0
  6
Continuous
 62
     7
370
    15
100
AcDbLine
 10
431.0249810558777
 20
1344.654406241967
 30
0.0
 11
424.0249817711334
 21
1344.654406241967
 31
0.0
  0
LINE
  5
A3CA
330
1F
100
AcDbEntity
  8
0
  6
Continuous
 62
     7
370
    15
100
AcDbLine
 10
424.0249817711334
 20
1339.054405975982
 30
0.0
 11
431.0249810558777
 21
1339.054405975982
 31
0.0
  0
LINE
  5
A3CB
330
1F
100
AcDbEntity
  8
0
  6
Continuous
 62
     7
370
    15
100
AcDbLine
 10
431.0249810558777
 20
1339.054405975982
 30
0.0
 11
431.0249810558777
 21
1344.654406241967
 31
0.0
  0
LINE
  5
A3CC
330
1F
100
AcDbEntity
  8
0
  6
Continuous
 62
     7
370
    15
100
AcDbLine
 10
424.0249817711334
 20
1344.654406241967
 30
0.0
 11
424.1078247767906
 21
1344.854406367882
 31
0.0
  0
LINE
  5
A3CD
330
1F
100
AcDbEntity
  8
0
  6
Continuous
 62
     7
370
    15
100
AcDbLine
 10
424.1078247767906
 20
1344.854406367882
 30
0.0
 11
430.8249813956241
 21
1344.854406367882
 31
0.0
  0
LINE
  5
A3CE
330
1F
100
AcDbEntity
  8
0
  6
Continuous
 62
     7
370
    15
100
AcDbLine
 10
431.0249810558777
 20
1344.654406241967
 30
0.0
 11
430.8249813956241
 21
1344.854406367882
 31
0.0
  0
LINE
  5
A3CF
330
1F
100
AcDbEntity
  8
0
  6
Continuous
 62
     7
370
    15
100
AcDbLine
 10
418.5249818009357
 20
1344.654406241967
 30
0.0
 11
418.6078248065929
 21
1344.854406367882
 31
0.0
  0
LINE
  5
A3D0
330
1F
100
AcDbEntity
  8
0
  6
Continuous
 62
     7
370
    15
100
AcDbLine
 10
418.6078248065929
 20
1344.854406367882
 30
0.0
 11
424.1078247767906
 21
1344.854406367882
 31
0.0
  0
LINE
  5
A3D1
330
1F
100
AcDbEntity
  8
0
  6
Continuous
 62
     7
370
    15
100
AcDbLine
 10
430.8249813956241
 20
1338.854406315728
 30
0.0
 11
424.1078247767906
 21
1338.854406315728
 31
0.0
  0
LINE
  5
A3D2
330
1F
100
AcDbEntity
  8
0
  6
Continuous
 62
     7
370
    15
100
AcDbLine
 10
424.1078247767906
 20
1338.854406315728
 30
0.0
 11
424.0249817711334
 21
1339.054405975982
 31
0.0
  0
LINE
  5
A3D3
330
1F
100
AcDbEntity
  8
0
  6
Continuous
 62
     7
370
    15
100
AcDbLine
 10
430.8249813956241
 20
1338.854406315728
 30
0.0
 11
431.0249810558777
 21
1339.054405975982
 31
0.0
  0
LINE
  5
A3D4
330
1F
100
AcDbEntity
  8
0
  6
Continuous
 62
     7
370
    15
100
AcDbLine
 10
424.1078247767906
 20
1338.854406315728
 30
0.0
 11
418.6078248065929
 21
1338.854406315728
 31
0.0
  0
LINE
  5
A3D5
330
1F
100
AcDbEntity
  8
0
  6
Continuous
 62
     7
370
    15
100
AcDbLine
 10
418.5249818009357
 20
1339.054405975982
 30
0.0
 11
418.6078248065929
 21
1338.854406315728
 31
0.0
  0
LINE
  5
A3D6
330
1F
100
AcDbEntity
  8
0
  6
Continuous
 62
     7
370
    15
100
AcDbLine
 10
432.6749829095821
 20
1341.854405876144
 30
0.0
 11
432.6749829095821
 21
1340.304406646534
 31
0.0
  0
LINE
  5
A3D7
330
1F
100
AcDbEntity
  8
0
  6
Continuous
 62
     7
370
    15
100
AcDbLine
 10
432.6749829095821
 20
1343.404406037076
 30
0.0
 11
432.6749829095821
 21
1341.854405876144
 31
0.0
  0
LINE
  5
A3D8
330
1F
100
AcDbEntity
  8
0
  6
Continuous
 62
     7
370
    15
100
AcDbLine
 10
453.5249856752376
 20
1360.354406114562
 30
0.0
 11
399.5249824118833
 21
1360.354406114562
 31
0.0
  0
LINE
  5
A3D9
330
1F
100
AcDbEntity
  8
0
  6
Continuous
 62
     7
370
    15
100
AcDbLine
 10
453.5249856752376
 20
1360.054406624182
 30
0.0
 11
399.5249824118833
 21
1360.054406624182
 31
0.0
  0
LINE
  5
A3DA
330
1F
100
AcDbEntity
  8
0
  6
Continuous
 62
     7
370
    15
100
AcDbLine
 10
453.5249856752376
 20
1360.354406114562
 30
0.0
 11
453.5249856752376
 21
1360.054406624182
 31
0.0
  0
LINE
  5
A3DB
330
1F
100
AcDbEntity
  8
0
  6
Continuous
 62
     7
370
    15
100
AcDbLine
 10
399.5249824118833
 20
1360.354406114562
 30
0.0
 11
399.5249824118833
 21
1360.054406624182
 31
0.0
  0
LINE
  5
A3DC
330
1F
100
AcDbEntity
  8
0
  6
Continuous
 62
     7
370
    15
100
AcDbLine
 10
453.5249856752376
 20
1347.154406186088
 30
0.0
 11
399.5249824118833
 21
1347.154406186088
 31
0.0
  0
CIRCLE
  5
A3DD
330
1F
100
AcDbEntity
  8
0
  6
Continuous
 62
     7
370
    15
100
AcDbCircle
 10
436.5249826354008
 20
1353.354406264164
 30
0.0
 40
1.649999999999991
  0
CIRCLE
  5
A3DE
330
1F
100
AcDbEntity
  8
0
  6
Continuous
 62
     7
370
    15
100
AcDbCircle
 10
416.5249826354008
 20
1353.354406264164
 30
0.0
 40
1.650000000000005
  0
LINE
  5
A3DF
330
1F
100
AcDbEntity
  8
0
  6
Continuous
 62
     7
370
    15
100
AcDbLine
 10
453.5249856752376
 20
1360.054406624182
 30
0.0
 11
453.5249856752376
 21
1347.154406186088
 31
0.0
  0
LINE
  5
A3E0
330
1F
100
AcDbEntity
  8
0
  6
Continuous
 62
     7
370
    15
100
AcDbLine
 10
399.5249824118833
 20
1360.054406624182
 30
0.0
 11
399.5249824118833
 21
1347.154406186088
 31
0.0
  0
LINE
  5
A3E1
330
1F
100
AcDbEntity
  8
0
  6
Continuous
 62
     7
370
    15
100
AcDbLine
 10
453.5249856752376
 20
1346.854406230046
 30
0.0
 11
399.5249824118833
 21
1346.854406230046
 31
0.0
  0
LINE
  5
A3E2
330
1F
100
AcDbEntity
  8
0
  6
Continuous
 62
     7
370
    15
100
AcDbLine
 10
453.5249856752376
 20
1347.154406186088
 30
0.0
 11
453.5249856752376
 21
1346.854406230046
 31
0.0
  0
LINE
  5
A3E3
330
1F
100
AcDbEntity
  8
0
  6
Continuous
 62
     7
370
    15
100
AcDbLine
 10
399.5249824118833
 20
1347.154406186088
 30
0.0
 11
399.5249824118833
 21
1346.854406230046
 31
0.0
  0
LINE
  5
A3E4
330
1F
100
AcDbEntity
  8
0
  6
Continuous
 62
     7
370
    15
100
AcDbLine
 10
421.5249841553192
 20
1345.254406154051
 30
0.0
 11
431.5249820691566
 21
1345.254406154051
 31
0.0
  0
LINE
  5
A3E5
330
1F
100
AcDbEntity
  8
0
  6
Continuous
 62
     7
370
    15
100
AcDbLine
 10
431.3249824089031
 20
1345.054406493797
 30
0.0
 11
421.7249838155727
 21
1345.054406493797
 31
0.0
  0
LINE
  5
A3E6
330
1F
100
AcDbEntity
  8
0
  6
Continuous
 62
     7
370
    15
100
AcDbLine
 10
428.5249834400635
 20
1344.854406367882
 30
0.0
 11
428.5249834400635
 21
1345.054406493797
 31
0.0
  0
LINE
  5
A3E9
330
1F
100
AcDbEntity
  8
0
  6
Continuous
 62
     7
370
    15
100
AcDbLine
 10
418.5249818009357
 20
1344.654406241967
 30
0.0
 11
412.3249830198507
 21
1344.654406241967
 31
0.0
  0
LINE
  5
A3EA
330
1F
100
AcDbEntity
  8
0
  6
Continuous
 62
     7
370
    15
100
AcDbLine
 10
412.3249830198507
 20
1344.654406241967
 30
0.0
 11
412.5249826801042
 21
1344.854406367882
 31
0.0
  0
LINE
  5
A3EB
330
1F
100
AcDbEntity
  8
0
  6
Continuous
 62
     7
370
    15
100
AcDbLine
 10
412.5249826801042
 20
1344.854406367882
 30
0.0
 11
418.6078248065929
 21
1344.854406367882
 31
0.0
  0
LINE
  5
A3EC
330
1F
100
AcDbEntity
  8
0
  6
Continuous
 62
     7
370
    15
100
AcDbLine
 10
412.3249830198507
 20
1339.054405975982
 30
0.0
 11
418.5249818009357
 21
1339.054405975982
 31
0.0
  0
LINE
  5
A3ED
330
1F
100
AcDbEntity
  8
0
  6
Continuous
 62
     7
370
    15
100
AcDbLine
 10
412.3249830198507
 20
1339.054405975982
 30
0.0
 11
412.3249830198507
 21
1344.654406241967
 31
0.0
  0
LINE
  5
A3EE
330
1F
100
AcDbEntity
  8
0
  6
Continuous
 62
     7
370
    15
100
AcDbLine
 10
412.3249830198507
 20
1339.054405975982
 30
0.0
 11
412.5249826801042
 21
1338.854406315728
 31
0.0
  0
LINE
  5
A3EF
330
1F
100
AcDbEntity
  8
0
  6
Continuous
 62
     7
370
    15
100
AcDbLine
 10
418.6078248065929
 20
1338.854406315728
 30
0.0
 11
412.5249826801042
 21
1338.854406315728
 31
0.0
  0
ARC
  5
A3F0
330
1F
100
AcDbEntity
  8
0
  6
Continuous
 62
     7
370
    15
100
AcDbCircle
 10
414.0249826354009
 20
1343.754406264164
 30
0.0
 40
1.50000000000002
100
AcDbArc
 50
47.16657193393393
 51
132.833428066066
  0
CIRCLE
  5
A3F1
330
1F
100
AcDbEntity
  8
0
  6
Continuous
 62
     7
370
    15
100
AcDbCircle
 10
439.0249826354009
 20
1343.754406264164
 30
0.0
 40
1.5
  0
CIRCLE
  5
A3F2
330
1F
100
AcDbEntity
  8
0
  6
Continuous
 62
     7
370
    15
100
AcDbCircle
 10
439.0249826354009
 20
1343.754406264164
 30
0.0
 40
1.300000000000011
  0
LINE
  5
A3F3
330
1F
100
AcDbEntity
  8
0
  6
Continuous
 62
     7
370
    15
100
AcDbLine
 10
441.9249830287914
 20
1346.854406230046
 30
0.0
 11
441.9249830287914
 21
1340.454406391724
 31
0.0
  0
LINE
  5
A3F4
330
1F
100
AcDbEntity
  8
0
  6
Continuous
 62
     7
370
    15
100
AcDbLine
 10
441.9249830287914
 20
1340.454406391724
 30
0.0
 11
441.7249833685379
 21
1340.454406391724
 31
0.0
  0
LINE
  5
A3F5
330
1F
100
AcDbEntity
  8
0
  6
Continuous
 62
     7
370
    15
100
AcDbLine
 10
441.7249833685379
 20
1340.454406391724
 30
0.0
 11
441.7249833685379
 21
1346.854406230046
 31
0.0
  0
LINE
  5
A3F6
330
1F
100
AcDbEntity
  8
0
  6
Continuous
 62
     7
370
    15
100
AcDbLine
 10
436.7249844116192
 20
1340.454406391724
 30
0.0
 11
441.7249833685379
 21
1340.454406391724
 31
0.0
  0
LINE
  5
A3F7
330
1F
100
AcDbEntity
  8
0
  6
Continuous
 62
     7
370
    15
100
AcDbLine
 10
436.7249844116192
 20
1346.854406230046
 30
0.0
 11
436.7249844116192
 21
1340.454406391724
 31
0.0
  0
LINE
  5
A3F8
330
1F
100
AcDbEntity
  8
0
  6
Continuous
 62
     7
370
    15
100
AcDbLine
 10
436.7249844116192
 20
1340.454406391724
 30
0.0
 11
436.5249810260753
 21
1340.454406391724
 31
0.0
  0
LINE
  5
A3F9
330
1F
100
AcDbEntity
  8
0
  6
Continuous
 62
     7
370
    15
100
AcDbLine
 10
436.5249810260753
 20
1340.454406391724
 30
0.0
 11
436.5249810260753
 21
1346.854406230046
 31
0.0
  0
LINE
  5
A3FA
330
1F
100
AcDbEntity
  8
0
  6
Continuous
 62
     7
370
    15
100
AcDbLine
 10
411.3249828559379
 20
1346.854406230046
 30
0.0
 11
411.3249828559379
 21
1340.454406391724
 31
0.0
  0
LINE
  5
A3FB
330
1F
100
AcDbEntity
  8
0
  6
Continuous
 62
     7
370
    15
100
AcDbLine
 10
416.3249818128567
 20
1344.854406367882
 30
0.0
 11
416.3249818128567
 21
1346.854406230046
 31
0.0
  0
LINE
  5
A3FC
330
1F
100
AcDbEntity
  8
0
  6
Continuous
 62
     7
370
    15
100
AcDbLine
 10
411.3249828559379
 20
1340.454406391724
 30
0.0
 11
412.3249830198507
 21
1340.454406391724
 31
0.0
  0
LINE
  5
A3FD
330
1F
100
AcDbEntity
  8
0
  6
Continuous
 62
     7
370
    15
100
AcDbLine
 10
416.5249833357553
 20
1346.854406230046
 30
0.0
 11
416.5249833357553
 21
1344.854406367882
 31
0.0
  0
LINE
  5
A3FE
330
1F
100
AcDbEntity
  8
0
  6
Continuous
 62
     7
370
    15
100
AcDbLine
 10
411.3249828559379
 20
1340.454406391724
 30
0.0
 11
411.1249831956844
 21
1340.454406391724
 31
0.0
  0
LINE
  5
A3FF
330
1F
100
AcDbEntity
  8
0
  6
Continuous
 62
     7
370
    15
100
AcDbLine
 10
411.1249831956844
 20
1340.454406391724
 30
0.0
 11
411.1249831956844
 21
1346.854406230046
 31
0.0
  0
LINE
  5
A400
330
1F
100
AcDbEntity
  8
0
  6
Continuous
 62
     7
370
    15
100
AcDbLine
 10
441.7249833685379
 20
1340.254405800148
 30
0.0
 11
441.7249833685379
 21
1340.454406391724
 31
0.0
  0
LINE
  5
A401
330
1F
100
AcDbEntity
  8
0
  6
Continuous
 62
     7
370
    15
100
AcDbLine
 10
441.7249833685379
 20
1340.254405800148
 30
0.0
 11
441.9249830287914
 21
1340.454406391724
 31
0.0
  0
LINE
  5
A402
330
1F
100
AcDbEntity
  8
0
  6
Continuous
 62
     7
370
    15
100
AcDbLine
 10
441.7249833685379
 20
1340.254405800148
 30
0.0
 11
436.7249844116192
 21
1340.254405800148
 31
0.0
  0
LINE
  5
A403
330
1F
100
AcDbEntity
  8
0
  6
Continuous
 62
     7
370
    15
100
AcDbLine
 10
436.7249844116192
 20
1340.254405800148
 30
0.0
 11
436.7249844116192
 21
1340.454406391724
 31
0.0
  0
LINE
  5
A404
330
1F
100
AcDbEntity
  8
0
  6
Continuous
 62
     7
370
    15
100
AcDbLine
 10
436.7249844116192
 20
1340.254405800148
 30
0.0
 11
436.5249810260753
 21
1340.454406391724
 31
0.0
  0
LINE
  5
A405
330
1F
100
AcDbEntity
  8
0
  6
Continuous
 62
     7
370
    15
100
AcDbLine
 10
412.3249830198507
 20
1340.254405800148
 30
0.0
 11
411.3249828559379
 21
1340.254405800148
 31
0.0
  0
LINE
  5
A406
330
1F
100
AcDbEntity
  8
0
  6
Continuous
 62
     7
370
    15
100
AcDbLine
 10
411.3249828559379
 20
1340.454406391724
 30
0.0
 11
411.3249828559379
 21
1340.254405800148
 31
0.0
  0
LINE
  5
A407
330
1F
100
AcDbEntity
  8
0
  6
Continuous
 62
     7
370
    15
100
AcDbLine
 10
411.1249831956844
 20
1340.454406391724
 30
0.0
 11
411.3249828559379
 21
1340.254405800148
 31
0.0
  0
LINE
  5
A408
330
1F
100
AcDbEntity
  8
0
  6
Continuous
 62
     7
370
    15
100
AcDbLine
 10
410.7249820125322
 20
1346.854406230046
 30
0.0
 11
410.7249820125322
 21
1340.254405800148
 31
0.0
  0
LINE
  5
A409
330
1F
100
AcDbEntity
  8
0
  6
Continuous
 62
     7
370
    15
100
AcDbLine
 10
410.7249820125322
 20
1340.254405800148
 30
0.0
 11
411.3249828559379
 21
1340.254405800148
 31
0.0
  0
LINE
  5
A40A
330
1F
100
AcDbEntity
  8
0
  6
Continuous
 62
     7
370
    15
100
AcDbLine
 10
442.524982009552
 20
1346.854406230046
 30
0.0
 11
442.524982009552
 21
1340.454406391724
 31
0.0
  0
LINE
  5
A40B
330
1F
100
AcDbEntity
  8
0
  6
Continuous
 62
     7
370
    15
100
AcDbLine
 10
442.3249823492985
 20
1340.254405800148
 30
0.0
 11
442.524982009552
 21
1340.454406391724
 31
0.0
  0
LINE
  5
A40C
330
1F
100
AcDbEntity
  8
0
  6
Continuous
 62
     7
370
    15
100
AcDbLine
 10
442.3249823492985
 20
1340.254405800148
 30
0.0
 11
442.3249823492985
 21
1346.854406230046
 31
0.0
  0
LINE
  5
A40D
330
1F
100
AcDbEntity
  8
0
  6
Continuous
 62
     7
370
    15
100
AcDbLine
 10
441.7249833685379
 20
1340.254405800148
 30
0.0
 11
442.3249823492985
 21
1340.254405800148
 31
0.0
  0
LINE
  5
A40E
330
1F
100
AcDbEntity
  8
0
  6
Continuous
 62
     7
370
    15
100
AcDbLine
 10
410.7249820125322
 20
1340.254405800148
 30
0.0
 11
410.5249823522787
 21
1340.454406391724
 31
0.0
  0
LINE
  5
A40F
330
1F
100
AcDbEntity
  8
0
  6
Continuous
 62
     7
370
    15
100
AcDbLine
 10
410.5249823522787
 20
1340.454406391724
 30
0.0
 11
410.5249823522787
 21
1346.854406230046
 31
0.0
  0
LINE
  5
A410
330
1F
100
AcDbEntity
  8
0
  6
Continuous
 62
     7
370
    15
100
AcDbLine
 10
420.5249821287613
 20
1344.854406367882
 30
0.0
 11
420.5249821287613
 21
1346.854406230046
 31
0.0
  0
LINE
  5
A411
330
1F
100
AcDbEntity
  8
0
  6
Continuous
 62
     7
370
    15
100
AcDbLine
 10
432.5249840957146
 20
1346.854406230046
 30
0.0
 11
432.5249840957146
 21
1343.985353883251
 31
0.0
  0
LINE
  5
A412
330
1F
100
AcDbEntity
  8
0
  6
Continuous
 62
     7
370
    15
100
AcDbLine
 10
432.6739398282986
 20
1340.254405800148
 30
0.0
 11
436.7249844116192
 21
1340.254405800148
 31
0.0
  0
LINE
  5
A413
330
1F
100
AcDbEntity
  8
0
  6
Continuous
 62
     7
370
    15
100
AcDbLine
 10
453.5249856752376
 20
1359.054406460269
 30
0.0
 11
453.5249856752376
 21
1358.454406082525
 31
0.0
  0
LINE
  5
A414
330
1F
100
AcDbEntity
  8
0
  6
Continuous
 62
     7
370
    15
100
AcDbLine
 10
399.5249824118833
 20
1359.054406460269
 30
0.0
 11
399.5249824118833
 21
1358.454406082525
 31
0.0
  0
LINE
  5
A415
330
1F
100
AcDbEntity
  8
0
  6
Continuous
 62
     7
370
    15
100
AcDbLine
 10
431.4749812227707
 20
1341.854405876144
 30
0.0
 11
431.4749812227707
 21
1344.604406326904
 31
0.0
  0
LINE
  5
A416
330
1F
100
AcDbEntity
  8
0
  6
Continuous
 62
     7
370
    15
100
AcDbLine
 10
431.4749812227707
 20
1339.104405891045
 30
0.0
 11
431.4749812227707
 21
1341.854405876144
 31
0.0
  0
SPLINE
  5
A41D
330
1F
100
AcDbEntity
  8
0
  6
Continuous
 62
     7
370
    15
100
AcDbSpline
210
0.0
220
0.0
230
1.0
 70
    24
 71
     1
 72
     4
 73
     2
 74
     0
 42
0.0000000001
 43
0.0000000001
 40
0.0
 40
0.0
 40
1.0
 40
1.0
 10
343.1867247414466
 20
1274.829600184668
 30
0.0
 10
343.3867253330227
 20
1274.629600524415
 30
0.0
  0
SPLINE
  5
A41E
330
1F
100
AcDbEntity
  8
0
  6
Continuous
 62
     7
370
    15
100
AcDbSpline
210
0.0
220
0.0
230
1.0
 70
    24
 71
     1
 72
     4
 73
     2
 74
     0
 42
0.0000000001
 43
0.0000000001
 40
0.0
 40
0.0
 40
1.0
 40
1.0
 10
345.9867251072701
 20
1274.629600524415
 30
0.0
 10
346.1867247675237
 20
1274.829600184668
 30
0.0
  0
SPLINE
  5
A41F
330
1F
100
AcDbEntity
  8
0
  6
Continuous
 62
     7
370
    15
100
AcDbSpline
210
0.0
220
0.0
230
1.0
 70
    24
 71
     1
 72
     4
 73
     2
 74
     0
 42
0.0000000001
 43
0.0000000001
 40
0.0
 40
0.0
 40
1.0
 40
1.0
 10
346.1867247675237
 20
1291.229599799473
 30
0.0
 10
345.9867251072701
 20
1291.429599925388
 30
0.0
  0
SPLINE
  5
A420
330
1F
100
AcDbEntity
  8
0
  6
Continuous
 62
     7
370
    15
100
AcDbSpline
210
0.0
220
0.0
230
1.0
 70
    24
 71
     1
 72
     4
 73
     2
 74
     0
 42
0.0000000001
 43
0.0000000001
 40
0.0
 40
0.0
 40
1.0
 40
1.0
 10
343.3867253330227
 20
1291.429599925388
 30
0.0
 10
343.1867247414466
 20
1291.229599799473
 30
0.0
  0
SPLINE
  5
A421
330
1F
100
AcDbEntity
  8
0
  6
Continuous
 62
     7
370
    15
100
AcDbSpline
210
0.0
220
0.0
230
1.0
 70
    24
 71
     1
 72
     4
 73
     2
 74
     0
 42
0.0000000001
 43
0.0000000001
 40
0.0
 40
0.0
 40
1.0
 40
1.0
 10
346.1867247675237
 20
1274.829600184668
 30
0.0
 10
346.1867247675237
 20
1277.839599355568
 30
0.0
  0
SPLINE
  5
A422
330
1F
100
AcDbEntity
  8
0
  6
Continuous
 62
     7
370
    15
100
AcDbSpline
210
0.0
220
0.0
230
1.0
 70
    24
 71
     1
 72
     4
 73
     2
 74
     0
 42
0.0000000001
 43
0.0000000001
 40
0.0
 40
0.0
 40
1.0
 40
1.0
 10
343.1867247414466
 20
1277.839599355568
 30
0.0
 10
343.1867247414466
 20
1274.829600184668
 30
0.0
  0
SPLINE
  5
A423
330
1F
100
AcDbEntity
  8
0
  6
Continuous
 62
     7
370
    15
100
AcDbSpline
210
0.0
220
0.0
230
1.0
 70
    24
 71
     1
 72
     4
 73
     2
 74
     0
 42
0.0000000001
 43
0.0000000001
 40
0.0
 40
0.0
 40
1.0
 40
1.0
 10
346.1867247675237
 20
1288.929599981267
 30
0.0
 10
346.1867247675237
 20
1291.229599799473
 30
0.0
  0
SPLINE
  5
A424
330
1F
100
AcDbEntity
  8
0
  6
Continuous
 62
     7
370
    15
100
AcDbSpline
210
0.0
220
0.0
230
1.0
 70
    24
 71
     1
 72
     4
 73
     2
 74
     0
 42
0.0000000001
 43
0.0000000001
 40
0.0
 40
0.0
 40
1.0
 40
1.0
 10
343.1867247414466
 20
1291.229599799473
 30
0.0
 10
343.1867247414466
 20
1288.929599981267
 30
0.0
  0
SPLINE
  5
A425
330
1F
100
AcDbEntity
  8
0
  6
Continuous
 62
     7
370
    15
100
AcDbSpline
210
0.0
220
0.0
230
1.0
 70
    24
 71
     1
 72
     4
 73
     2
 74
     0
 42
0.0000000001
 43
0.0000000001
 40
0.0
 40
0.0
 40
1.0
 40
1.0
 10
341.5112987127777
 20
1278.595346204449
 30
0.0
 10
342.3839591410633
 20
1277.839599355568
 30
0.0
  0
SPLINE
  5
A426
330
1F
100
AcDbEntity
  8
0
  6
Continuous
 62
     7
370
    15
100
AcDbSpline
210
0.0
220
0.0
230
1.0
 70
    24
 71
     1
 72
     4
 73
     2
 74
     0
 42
0.0000000001
 43
0.0000000001
 40
0.0
 40
0.0
 40
1.0
 40
1.0
 10
346.9894908335682
 20
1277.839599355568
 30
0.0
 10
347.8621512618538
 20
1278.595346204449
 30
0.0
  0
SPLINE
  5
A427
330
1F
100
AcDbEntity
  8
0
  6
Continuous
 62
     7
370
    15
100
AcDbSpline
210
0.0
220
0.0
230
1.0
 70
    24
 71
     1
 72
     4
 73
     2
 74
     0
 42
0.0000000001
 43
0.0000000001
 40
0.0
 40
0.0
 40
1.0
 40
1.0
 10
346.1867247675237
 20
1298.92959975775
 30
0.0
 10
345.9867251072701
 20
1298.729600097497
 30
0.0
  0
SPLINE
  5
A428
330
1F
100
AcDbEntity
  8
0
  6
Continuous
 62
     7
370
    15
100
AcDbSpline
210
0.0
220
0.0
230
1.0
 70
    24
 71
     1
 72
     4
 73
     2
 74
     0
 42
0.0000000001
 43
0.0000000001
 40
0.0
 40
0.0
 40
1.0
 40
1.0
 10
347.7867248435196
 20
1298.92959975775
 30
0.0
 10
346.1867247675237
 20
1298.92959975775
 30
0.0
  0
SPLINE
  5
A42B
330
1F
100
AcDbEntity
  8
0
  6
Continuous
 62
     7
370
    15
100
AcDbSpline
210
0.0
220
0.0
230
1.0
 70
    24
 71
     1
 72
     4
 73
     2
 74
     0
 42
0.0000000001
 43
0.0000000001
 40
0.0
 40
0.0
 40
1.0
 40
1.0
 10
345.9867251072701
 20
1296.629599939544
 30
0.0
 10
345.7867249813553
 20
1296.629599939544
 30
0.0
  0
LINE
  5
A42C
330
1F
100
AcDbEntity
  8
0
  6
Continuous
 62
     7
370
    15
100
AcDbLine
 10
359.3867246959981
 20
1279.929599903036
 30
0.0
 11
360.9867252376553
 21
1279.929599903036
 31
0.0
  0
LINE
  5
A42D
330
1F
100
AcDbEntity
  8
0
  6
Continuous
 62
     7
370
    15
100
AcDbLine
 10
348.0867247995611
 20
1279.929599903036
 30
0.0
 11
356.386724669921
 21
1279.929599903036
 31
0.0
  0
LINE
  5
A42E
330
1F
100
AcDbEntity
  8
0
  6
Continuous
 62
     7
370
    15
100
AcDbLine
 10
360.9867252376553
 20
1299.429599839706
 30
0.0
 11
348.0867247995611
 21
1299.429599839706
 31
0.0
  0
LINE
  5
A42F
330
1F
100
AcDbEntity
  8
0
  6
Continuous
 62
     7
370
    15
100
AcDbLine
 10
361.2867247280356
 20
1299.129599883665
 30
0.0
 11
360.9867252376553
 21
1299.429599839706
 31
0.0
  0
LINE
  5
A430
330
1F
100
AcDbEntity
  8
0
  6
Continuous
 62
     7
370
    15
100
AcDbLine
 10
361.2867247280356
 20
1280.229600324739
 30
0.0
 11
361.2867247280356
 21
1299.129599883665
 31
0.0
  0
LINE
  5
A431
330
1F
100
AcDbEntity
  8
0
  6
Continuous
 62
     7
370
    15
100
AcDbLine
 10
360.9867252376553
 20
1279.929599903036
 30
0.0
 11
361.2867247280356
 21
1280.229600324739
 31
0.0
  0
CIRCLE
  5
A432
330
1F
100
AcDbEntity
  8
0
  6
Continuous
 62
     7
370
    15
100
AcDbCircle
 10
354.7867248776366
 20
1288.429599885152
 30
0.0
 40
3.999999999999971
  0
LINE
  5
A433
330
1F
100
AcDbEntity
  8
0
  6
Continuous
 62
     7
370
    15
100
AcDbLine
 10
347.7867248435196
 20
1299.129599883665
 30
0.0
 11
347.7867248435196
 21
1280.229600324739
 31
0.0
  0
LINE
  5
A434
330
1F
100
AcDbEntity
  8
0
  6
Continuous
 62
     7
370
    15
100
AcDbLine
 10
359.3867246959981
 20
1280.659905813147
 30
0.0
 11
359.3867246959981
 21
1279.929599903036
 31
0.0
  0
ARC
  5
A435
330
1F
100
AcDbEntity
  8
0
  6
Continuous
 62
     7
370
    15
100
AcDbCircle
 10
357.8867248776368
 20
1282.129599885152
 30
0.0
 40
2.100000000000011
100
AcDbArc
 50
315.5846914028112
 51
224.4153085971888
  0
LINE
  5
A436
330
1F
100
AcDbEntity
  8
0
  6
Continuous
 62
     7
370
    15
100
AcDbLine
 10
356.386724669921
 20
1279.929599903036
 30
0.0
 11
356.386724669921
 21
1280.659905813147
 31
0.0
  0
LINE
  5
A437
330
1F
100
AcDbEntity
  8
0
  6
Continuous
 62
     7
370
    15
100
AcDbLine
 10
347.7867248435196
 20
1280.229600324739
 30
0.0
 11
348.0867247995611
 21
1279.929599903036
 31
0.0
  0
LINE
  5
A438
330
1F
100
AcDbEntity
  8
0
  6
Continuous
 62
     7
370
    15
100
AcDbLine
 10
348.0867247995611
 20
1299.429599839706
 30
0.0
 11
347.7867248435196
 21
1299.129599883665
 31
0.0
  0
CIRCLE
  5
A439
330
1F
100
AcDbEntity
  8
0
  6
Continuous
 62
     7
370
    15
100
AcDbCircle
 10
354.7867248776366
 20
1288.429599885152
 30
0.0
 40
3.799999999999954
  0
LINE
  5
A43A
330
1F
100
AcDbEntity
  8
0
  6
Continuous
 62
     7
370
    15
100
AcDbLine
 10
341.1867244136211
 20
1280.429599984993
 30
0.0
 11
341.1867244136211
 21
1285.92959995519
 31
0.0
  0
LINE
  5
A43B
330
1F
100
AcDbEntity
  8
0
  6
Continuous
 62
     7
370
    15
100
AcDbLine
 10
341.1867244136211
 20
1285.92959995519
 30
0.0
 11
341.3867250051972
 21
1285.729599829276
 31
0.0
  0
LINE
  5
A43C
330
1F
100
AcDbEntity
  8
0
  6
Continuous
 62
     7
370
    15
100
AcDbLine
 10
341.3867250051972
 20
1285.729599829276
 30
0.0
 11
341.3867250051972
 21
1280.429599984993
 31
0.0
  0
LINE
  5
A43D
330
1F
100
AcDbEntity
  8
0
  6
Continuous
 62
     7
370
    15
100
AcDbLine
 10
341.1867244136211
 20
1280.429599984993
 30
0.0
 11
341.3867250051972
 21
1280.429599984993
 31
0.0
  0
LINE
  5
A43E
330
1F
100
AcDbEntity
  8
0
  6
Continuous
 62
     7
370
    15
100
AcDbLine
 10
347.7867248435196
 20
1285.729599829276
 30
0.0
 11
341.3867250051972
 21
1285.729599829276
 31
0.0
  0
LINE
  5
A43F
330
1F
100
AcDbEntity
  8
0
  6
Continuous
 62
     7
370
    15
100
AcDbLine
 10
341.1867244136211
 20
1285.92959995519
 30
0.0
 11
347.7867248435196
 21
1285.92959995519
 31
0.0
  0
LINE
  5
A440
330
1F
100
AcDbEntity
  8
0
  6
Continuous
 62
     7
370
    15
100
AcDbLine
 10
341.3867250051972
 20
1280.429599984993
 30
0.0
 11
347.7867248435196
 21
1280.429599984993
 31
0.0
  0
LINE
  5
A441
330
1F
100
AcDbEntity
  8
0
  6
Continuous
 62
     7
370
    15
100
AcDbLine
 10
347.7867248435196
 20
1280.229600324739
 30
0.0
 11
341.3867250051972
 21
1280.229600324739
 31
0.0
  0
LINE
  5
A442
330
1F
100
AcDbEntity
  8
0
  6
Continuous
 62
     7
370
    15
100
AcDbLine
 10
341.3867250051972
 20
1280.229600324739
 30
0.0
 11
341.3867250051972
 21
1280.429599984993
 31
0.0
  0
LINE
  5
A443
330
1F
100
AcDbEntity
  8
0
  6
Continuous
 62
     7
370
    15
100
AcDbLine
 10
341.1867244136211
 20
1280.429599984993
 30
0.0
 11
341.3867250051972
 21
1280.229600324739
 31
0.0
  0
LINE
  5
A444
330
1F
100
AcDbEntity
  8
0
  6
Continuous
 62
     7
370
    15
100
AcDbLine
 10
341.3867250051972
 20
1288.729599855353
 30
0.0
 11
341.3867250051972
 21
1285.92959995519
 31
0.0
  0
LINE
  5
A445
330
1F
100
AcDbEntity
  8
0
  6
Continuous
 62
     7
370
    15
100
AcDbLine
 10
347.7867248435196
 20
1288.729599855353
 30
0.0
 11
341.3867250051972
 21
1288.729599855353
 31
0.0
  0
LINE
  5
A446
330
1F
100
AcDbEntity
  8
0
  6
Continuous
 62
     7
370
    15
100
AcDbLine
 10
341.1867244136211
 20
1288.729599855353
 30
0.0
 11
341.3867250051972
 21
1288.929599981267
 31
0.0
  0
LINE
  5
A447
330
1F
100
AcDbEntity
  8
0
  6
Continuous
 62
     7
370
    15
100
AcDbLine
 10
341.3867250051972
 20
1288.729599855353
 30
0.0
 11
341.3867250051972
 21
1288.929599981267
 31
0.0
  0
LINE
  5
A448
330
1F
100
AcDbEntity
  8
0
  6
Continuous
 62
     7
370
    15
100
AcDbLine
 10
341.1867244136211
 20
1288.729599855353
 30
0.0
 11
341.3867250051972
 21
1288.729599855353
 31
0.0
  0
LINE
  5
A449
330
1F
100
AcDbEntity
  8
0
  6
Continuous
 62
     7
370
    15
100
AcDbLine
 10
341.3867250051972
 20
1288.929599981267
 30
0.0
 11
347.7867248435196
 21
1288.929599981267
 31
0.0
  0
LINE
  5
A44A
330
1F
100
AcDbEntity
  8
0
  6
Continuous
 62
     7
370
    15
100
AcDbLine
 10
341.1867244136211
 20
1285.92959995519
 30
0.0
 11
341.1867244136211
 21
1288.729599855353
 31
0.0
  0
LINE
  5
A44B
330
1F
100
AcDbEntity
  8
0
  6
Continuous
 62
     7
370
    15
100
AcDbLine
 10
342.8161393818137
 20
1277.839599355568
 30
0.0
 11
342.5274638426181
 21
1278.339599437524
 31
0.0
  0
ELLIPSE
  5
A44C
330
1F
100
AcDbEntity
  8
0
  6
Continuous
 62
     7
370
    15
100
AcDbEllipse
 10
343.099011637365
 20
1282.299397859796
 30
0.0
 11
0.6651224737236138
 21
3.952025917745232
 31
0.0
210
0.0
220
0.0
230
1.0
 40
0.3728246932726967
 41
3.204256569173855
 42
3.565623693080556
  0
ELLIPSE
  5
A44D
330
1F
100
AcDbEntity
  8
0
  6
Continuous
 62
     7
370
    15
100
AcDbEllipse
 10
343.099011637365
 20
1282.299397859796
 30
0.0
 11
-2.138535324312755
 21
3.704051835490418
 31
0.0
210
0.0
220
0.0
230
0.9999999999999998
 40
0.6546536707079796
 41
2.418858405776371
 42
2.780225529683064
  0
LINE
  5
A44E
330
1F
100
AcDbEntity
  8
0
  6
Continuous
 62
     7
370
    15
100
AcDbLine
 10
344.2421069335815
 20
1278.339599437524
 30
0.0
 11
344.5307820071157
 21
1277.839599355568
 31
0.0
  0
LINE
  5
A44F
330
1F
100
AcDbEntity
  8
0
  6
Continuous
 62
     7
370
    15
100
AcDbLine
 10
344.5307820071157
 20
1277.839599355568
 30
0.0
 11
342.8161393818137
 21
1277.839599355568
 31
0.0
  0
LINE
  5
A450
330
1F
100
AcDbEntity
  8
0
  6
Continuous
 62
     7
370
    15
100
AcDbLine
 10
347.8621512618538
 20
1278.595346204449
 30
0.0
 11
347.8621512618538
 21
1280.154173440744
 31
0.0
  0
ELLIPSE
  5
A451
330
1F
100
AcDbEntity
  8
0
  6
Continuous
 62
     7
370
    15
100
AcDbEllipse
 10
347.8621513581795
 20
1282.299397859796
 30
0.0
 11
0.6651224737236419
 21
3.95202591774526
 31
0.0
210
0.0
220
0.0
230
1.0
 40
0.3728246932726949
 41
3.204256569173852
 42
3.565623693080553
  0
LINE
  5
A452
330
1F
100
AcDbEntity
  8
0
  6
Continuous
 62
     7
370
    15
100
AcDbLine
 10
346.8459856663522
 20
1278.339599437524
 30
0.0
 11
347.2906037200865
 21
1278.339599437524
 31
0.0
  0
ELLIPSE
  5
A453
330
1F
100
AcDbEntity
  8
0
  6
Continuous
 62
     7
370
    15
100
AcDbEllipse
 10
346.2744381179082
 20
1282.299397859796
 30
0.0
 11
-0.6651224737236415
 21
3.95202591774526
 31
0.0
210
0.0
220
0.0
230
0.9999999999999998
 40
0.3728246932726926
 41
2.717561614099044
 42
3.078928738005751
  0
LINE
  5
A454
330
1F
100
AcDbEntity
  8
0
  6
Continuous
 62
     7
370
    15
100
AcDbLine
 10
346.2744381245848
 20
1278.595346204449
 30
0.0
 11
346.2744381245848
 21
1280.229600324739
 31
0.0
  0
LINE
  5
A455
330
1F
100
AcDbEntity
  8
0
  6
Continuous
 62
     7
370
    15
100
AcDbLine
 10
344.8426679675158
 20
1277.839599355568
 30
0.0
 11
345.1313430410501
 21
1278.339599437524
 31
0.0
  0
LINE
  5
A456
330
1F
100
AcDbEntity
  8
0
  6
Continuous
 62
     7
370
    15
100
AcDbLine
 10
344.8426679675158
 20
1277.839599355568
 30
0.0
 11
344.5307820071157
 21
1277.839599355568
 31
0.0
  0
LINE
  5
A457
330
1F
100
AcDbEntity
  8
0
  6
Continuous
 62
     7
370
    15
100
AcDbLine
 10
344.2421069335815
 20
1278.339599437524
 30
0.0
 11
345.1313430410501
 21
1278.339599437524
 31
0.0
  0
LINE
  5
A458
330
1F
100
AcDbEntity
  8
0
  6
Continuous
 62
     7
370
    15
100
AcDbLine
 10
343.0990118500468
 20
1278.595346204449
 30
0.0
 11
343.0990118500468
 21
1280.229600324739
 31
0.0
  0
LINE
  5
A459
330
1F
100
AcDbEntity
  8
0
  6
Continuous
 62
     7
370
    15
100
AcDbLine
 10
342.0828457888838
 20
1278.339599437524
 30
0.0
 11
342.5274638426181
 21
1278.339599437524
 31
0.0
  0
ELLIPSE
  5
A45A
330
1F
100
AcDbEntity
  8
0
  6
Continuous
 62
     7
370
    15
100
AcDbEllipse
 10
341.5112983970937
 20
1282.299397859796
 30
0.0
 11
-0.6651224737235849
 21
3.952025917745231
 31
0.0
210
0.0
220
0.0
230
1.0
 40
0.3728246932726903
 41
2.717561614099071
 42
3.078928738005785
  0
LINE
  5
A45B
330
1F
100
AcDbEntity
  8
0
  6
Continuous
 62
     7
370
    15
100
AcDbLine
 10
341.5112987127777
 20
1278.595346204449
 30
0.0
 11
341.5112987127777
 21
1280.229600324739
 31
0.0
  0
ELLIPSE
  5
A45C
330
1F
100
AcDbEntity
  8
0
  6
Continuous
 62
     7
370
    15
100
AcDbEllipse
 10
346.2744381179082
 20
1282.299397859796
 30
0.0
 11
2.13853532431267
 21
3.704051835490419
 31
0.0
210
0.0
220
0.0
230
1.0
 40
0.6546536707079862
 41
3.502959777496503
 42
3.864326901403206
  0
LINE
  5
A45D
330
1F
100
AcDbEntity
  8
0
  6
Continuous
 62
     7
370
    15
100
AcDbLine
 10
346.8459856663522
 20
1278.339599437524
 30
0.0
 11
346.5573105928179
 21
1277.839599355568
 31
0.0
  0
LINE
  5
A45E
330
1F
100
AcDbEntity
  8
0
  6
Continuous
 62
     7
370
    15
100
AcDbLine
 10
346.5573105928179
 20
1277.839599355568
 30
0.0
 11
344.8426679675158
 21
1277.839599355568
 31
0.0
  0
LINE
  5
A45F
330
1F
100
AcDbEntity
  8
0
  6
Continuous
 62
     7
370
    15
100
AcDbLine
 10
346.713253573018
 20
1277.839599355568
 30
0.0
 11
347.2906037200865
 21
1278.339599437524
 31
0.0
  0
LINE
  5
A460
330
1F
100
AcDbEntity
  8
0
  6
Continuous
 62
     7
370
    15
100
AcDbLine
 10
346.713253573018
 20
1277.839599355568
 30
0.0
 11
346.5573105928179
 21
1277.839599355568
 31
0.0
  0
LINE
  5
A461
330
1F
100
AcDbEntity
  8
0
  6
Continuous
 62
     7
370
    15
100
AcDbLine
 10
342.0828457888838
 20
1278.339599437524
 30
0.0
 11
342.6601959359523
 21
1277.839599355568
 31
0.0
  0
LINE
  5
A462
330
1F
100
AcDbEntity
  8
0
  6
Continuous
 62
     7
370
    15
100
AcDbLine
 10
342.8161393818137
 20
1277.839599355568
 30
0.0
 11
342.6601959359523
 21
1277.839599355568
 31
0.0
  0
LINE
  5
A463
330
1F
100
AcDbEntity
  8
0
  6
Continuous
 62
     7
370
    15
100
AcDbLine
 10
345.9867251072701
 20
1274.629600524415
 30
0.0
 11
343.3867253330227
 21
1274.629600524415
 31
0.0
  0
LINE
  5
A464
330
1F
100
AcDbEntity
  8
0
  6
Continuous
 62
     7
370
    15
100
AcDbLine
 10
344.6867249873158
 20
1274.829600184668
 30
0.0
 11
346.1867247675237
 21
1274.829600184668
 31
0.0
  0
LINE
  5
A465
330
1F
100
AcDbEntity
  8
0
  6
Continuous
 62
     7
370
    15
100
AcDbLine
 10
343.1867247414466
 20
1274.829600184668
 30
0.0
 11
344.6867249873158
 21
1274.829600184668
 31
0.0
  0
LINE
  5
A466
330
1F
100
AcDbEntity
  8
0
  6
Continuous
 62
     7
370
    15
100
AcDbLine
 10
346.1867247675237
 20
1291.229599799473
 30
0.0
 11
343.1867247414466
 21
1291.229599799473
 31
0.0
  0
LINE
  5
A467
330
1F
100
AcDbEntity
  8
0
  6
Continuous
 62
     7
370
    15
100
AcDbLine
 10
343.3867253330227
 20
1291.429599925388
 30
0.0
 11
345.9867251072701
 21
1291.429599925388
 31
0.0
  0
LINE
  5
A468
330
1F
100
AcDbEntity
  8
0
  6
Continuous
 62
     7
370
    15
100
AcDbLine
 10
342.6601959359523
 20
1277.839599355568
 30
0.0
 11
342.3839591410633
 21
1277.839599355568
 31
0.0
  0
LINE
  5
A469
330
1F
100
AcDbEntity
  8
0
  6
Continuous
 62
     7
370
    15
100
AcDbLine
 10
346.9894908335682
 20
1277.839599355568
 30
0.0
 11
346.713253573018
 21
1277.839599355568
 31
0.0
  0
LINE
  5
A46A
330
1F
100
AcDbEntity
  8
0
  6
Continuous
 62
     7
370
    15
100
AcDbLine
 10
341.1867244136211
 20
1282.329599551369
 30
0.0
 11
341.1867244136211
 21
1285.379599958171
 31
0.0
  0
LINE
  5
A46B
330
1F
100
AcDbEntity
  8
0
  6
Continuous
 62
     7
370
    15
100
AcDbLine
 10
341.7867252570268
 20
1289.506950128336
 30
0.0
 11
341.7867252570268
 21
1288.929599981267
 31
0.0
  0
LINE
  5
A46C
330
1F
100
AcDbEntity
  8
0
  6
Continuous
 62
     7
370
    15
100
AcDbLine
 10
343.1867247414466
 20
1289.853360216577
 30
0.0
 11
342.786724489617
 21
1290.084300508235
 31
0.0
  0
LINE
  5
A46D
330
1F
100
AcDbEntity
  8
0
  6
Continuous
 62
     7
370
    15
100
AcDbLine
 10
342.786724489617
 20
1290.084300508235
 30
0.0
 11
341.7867252570268
 21
1289.506950128336
 31
0.0
  0
LINE
  5
A46E
330
1F
100
AcDbEntity
  8
0
  6
Continuous
 62
     7
370
    15
100
AcDbLine
 10
341.7867252570268
 20
1298.352249610682
 30
0.0
 11
342.786724489617
 21
1297.774899463613
 31
0.0
  0
LINE
  5
A46F
330
1F
100
AcDbEntity
  8
0
  6
Continuous
 62
     7
370
    15
100
AcDbLine
 10
343.7867246535298
 20
1299.50695037048
 30
0.0
 11
342.786724489617
 21
1300.084300517548
 31
0.0
  0
LINE
  5
A470
330
1F
100
AcDbEntity
  8
0
  6
Continuous
 62
     7
370
    15
100
AcDbLine
 10
342.786724489617
 20
1300.084300517548
 30
0.0
 11
341.7867252570268
 21
1299.50695037048
 31
0.0
  0
CIRCLE
  5
A471
330
1F
100
AcDbEntity
  8
0
  6
Continuous
 62
     7
370
    15
100
AcDbCircle
 10
342.7867248776366
 20
1298.929599885152
 30
0.0
 40
1.550000000000011
  0
LINE
  5
A472
330
1F
100
AcDbEntity
  8
0
  6
Continuous
 62
     7
370
    15
100
AcDbLine
 10
341.7867252570268
 20
1299.50695037048
 30
0.0
 11
341.7867252570268
 21
1298.352249610682
 31
0.0
  0
LINE
  5
A473
330
1F
100
AcDbEntity
  8
0
  6
Continuous
 62
     7
370
    15
100
AcDbLine
 10
342.786724489617
 20
1297.774899463613
 30
0.0
 11
343.7867246535298
 21
1298.352249610682
 31
0.0
  0
LINE
  5
A474
330
1F
100
AcDbEntity
  8
0
  6
Continuous
 62
     7
370
    15
100
AcDbLine
 10
343.7867246535298
 20
1298.352249610682
 30
0.0
 11
343.7867246535298
 21
1299.50695037048
 31
0.0
  0
CIRCLE
  5
A475
330
1F
100
AcDbEntity
  8
0
  6
Continuous
 62
     7
370
    15
100
AcDbCircle
 10
342.7867248776366
 20
1298.929599885152
 30
0.0
 40
2.75
  0
ARC
  5
A476
330
1F
100
AcDbEntity
  8
0
  6
Continuous
 62
     7
370
    15
100
AcDbCircle
 10
342.7867248776366
 20
1288.929599885152
 30
0.0
 40
2.749999999999985
100
AcDbArc
 50
65.38002267133731
 51
90.0
  0
ARC
  5
A477
330
1F
100
AcDbEntity
  8
0
  6
Continuous
 62
     7
370
    15
100
AcDbCircle
 10
342.7867248776366
 20
1288.929599885152
 30
0.0
 40
2.749999999999993
100
AcDbArc
 50
90.0
 51
234.4214742675454
  0
LINE
  5
A478
330
1F
100
AcDbEntity
  8
0
  6
Continuous
 62
     7
370
    15
100
AcDbLine
 10
341.1867244136211
 20
1280.429599984993
 30
0.0
 11
341.1867244136211
 21
1282.329599551369
 31
0.0
  0
LINE
  5
A479
330
1F
100
AcDbEntity
  8
0
  6
Continuous
 62
     7
370
    15
100
AcDbLine
 10
345.9867251072701
 20
1291.429599925388
 30
0.0
 11
345.9867251072701
 21
1298.729600097497
 31
0.0
  0
LINE
  5
A47A
330
1F
100
AcDbEntity
  8
0
  6
Continuous
 62
     7
370
    15
100
AcDbLine
 10
346.1867247675237
 20
1298.92959975775
 30
0.0
 11
346.1867247675237
 21
1291.229599799473
 31
0.0
  0
LINE
  5
A47B
330
1F
100
AcDbEntity
  8
0
  6
Continuous
 62
     7
370
    15
100
AcDbLine
 10
345.5867248554405
 20
1291.429599925388
 30
0.0
 11
345.5867248554405
 21
1301.929599783827
 31
0.0
  0
LINE
  5
A47C
330
1F
100
AcDbEntity
  8
0
  6
Continuous
 62
     7
370
    15
100
AcDbLine
 10
339.9867245894548
 20
1285.92959995519
 30
0.0
 11
341.1867244136211
 21
1285.92959995519
 31
0.0
  0
LINE
  5
A47D
330
1F
100
AcDbEntity
  8
0
  6
Continuous
 62
     7
370
    15
100
AcDbLine
 10
339.9867245894548
 20
1301.929599783827
 30
0.0
 11
339.9867245894548
 21
1285.92959995519
 31
0.0
  0
LINE
  5
A47E
330
1F
100
AcDbEntity
  8
0
  6
Continuous
 62
     7
370
    15
100
AcDbLine
 10
339.9867245894548
 20
1301.929599783827
 30
0.0
 11
345.5867248554405
 21
1301.929599783827
 31
0.0
  0
LINE
  5
A47F
330
1F
100
AcDbEntity
  8
0
  6
Continuous
 62
     7
370
    15
100
AcDbLine
 10
345.7867249813553
 20
1301.729600123574
 30
0.0
 11
345.7867249813553
 21
1291.429599925388
 31
0.0
  0
LINE
  5
A480
330
1F
100
AcDbEntity
  8
0
  6
Continuous
 62
     7
370
    15
100
AcDbLine
 10
345.5867248554405
 20
1301.929599783827
 30
0.0
 11
345.7867249813553
 21
1301.729600123574
 31
0.0
  0
LINE
  5
A481
330
1F
100
AcDbEntity
  8
0
  6
Continuous
 62
     7
370
    15
100
AcDbLine
 10
339.7867249292013
 20
1286.129600081105
 30
0.0
 11
339.7867249292013
 21
1301.729600123574
 31
0.0
  0
LINE
  5
A482
330
1F
100
AcDbEntity
  8
0
  6
Continuous
 62
     7
370
    15
100
AcDbLine
 10
339.7867249292013
 20
1301.729600123574
 30
0.0
 11
339.9867245894548
 21
1301.929599783827
 31
0.0
  0
LINE
  5
A483
330
1F
100
AcDbEntity
  8
0
  6
Continuous
 62
     7
370
    15
100
AcDbLine
 10
339.7867249292013
 20
1286.129600081105
 30
0.0
 11
339.9867245894548
 21
1285.92959995519
 31
0.0
  0
LINE
  5
A488
330
1F
100
AcDbEntity
  8
0
  6
Continuous
 62
     7
370
    15
100
AcDbLine
 10
345.7867249813553
 20
1292.11576417226
 30
0.0
 11
345.9867251072701
 21
1292.11576417226
 31
0.0
  0
LINE
  5
A489
330
1F
100
AcDbEntity
  8
0
  6
Continuous
 62
     7
370
    15
100
AcDbLine
 10
345.7867249813553
 20
1295.743435566757
 30
0.0
 11
345.9867251072701
 21
1295.743435566757
 31
0.0
  0
LINE
  5
A48B
330
1F
100
AcDbEntity
  8
0
  6
Continuous
 62
     7
370
    15
100
AcDbLine
 10
341.1867244136211
 20
1280.429599984993
 30
0.0
 11
341.1867244136211
 21
1282.329599551369
 31
0.0
  0
ARC
  5
A48C
330
1F
100
AcDbEntity
  8
0
  6
Continuous
 62
     7
370
    15
100
AcDbCircle
 10
342.7867248776366
 20
1288.929599885152
 30
0.0
 40
1.549999999999982
100
AcDbArc
 50
90.0
 51
185.3067557818011
  0
LWPOLYLINE
  5
A48D
330
1F
100
AcDbEntity
  8
0
  6
Continuous
 62
     7
370
    15
100
AcDbPolyline
 90
        3
 70
   128
 43
0.0
 10
343.1867247414466
 20
1290.427097763379
 10
343.0558795076486
 20
1290.456051883732
 10
342.786724489617
 20
1290.479599909369
  0
SPLINE
  5
AE48
330
1F
100
AcDbEntity
  8
0
  6
Continuous
 62
     7
370
    15
100
AcDbSpline
210
0.0
220
0.0
230
1.0
 70
    24
 71
     1
 72
     4
 73
     2
 74
     0
 42
0.0000000001
 43
0.0000000001
 40
0.0
 40
0.0
 40
1.0
 40
1.0
 10
424.2749809366684
 20
1226.457715287452
 30
0.0
 10
424.2749809366684
 20
1220.157715744918
 30
0.0
  0
SPLINE
  5
AE49
330
1F
100
AcDbEntity
  8
0
  6
Continuous
 62
     7
370
    15
100
AcDbSpline
210
0.0
220
0.0
230
1.0
 70
    24
 71
     1
 72
     4
 73
     2
 74
     0
 42
0.0000000001
 43
0.0000000001
 40
0.0
 40
0.0
 40
1.0
 40
1.0
 10
424.4749805969219
 20
1226.657714947706
 30
0.0
 10
424.2749809366684
 20
1226.457715287452
 30
0.0
  0
LINE
  5
AE4A
330
1F
100
AcDbEntity
  8
0
  6
Continuous
 62
     7
370
    15
100
AcDbLine
 10
428.7749809366685
 20
1226.457715287452
 30
0.0
 11
424.2749809366684
 21
1226.457715287452
 31
0.0
  0
LINE
  5
AE4B
330
1F
100
AcDbEntity
  8
0
  6
Continuous
 62
     7
370
    15
100
AcDbLine
 10
428.7749809366685
 20
1226.457715287452
 30
0.0
 11
428.7749809366685
 21
1220.157715744918
 31
0.0
  0
LINE
  5
AE4C
330
1F
100
AcDbEntity
  8
0
  6
Continuous
 62
     7
370
    15
100
AcDbLine
 10
424.4749805969219
 20
1226.657714947706
 30
0.0
 11
428.7749809366685
 21
1226.657714947706
 31
0.0
  0
SPLINE
  5
AE4D
330
1F
100
AcDbEntity
  8
0
  6
Continuous
 62
     7
370
    15
100
AcDbSpline
210
0.0
220
0.0
230
1.0
 70
    24
 71
     3
 72
     8
 73
     4
 74
     0
 42
0.0000000001
 43
0.0000000001
 40
0.0
 40
0.0
 40
0.0
 40
0.0
 40
1.0
 40
1.0
 40
1.0
 40
1.0
 10
428.7749801022035
 20
1226.657715796482
 30
0.0
 10
428.7749801022035
 20
1226.593870035917
 30
0.0
 10
428.7749801022035
 20
1226.526910737621
 30
0.0
 10
428.7749801022035
 20
1226.457715796482
 30
0.0
  0
SPLINE
  5
AE4E
330
1F
100
AcDbEntity
  8
0
  6
Continuous
 62
     7
370
    15
100
AcDbSpline
210
0.0
220
0.0
230
1.0
 70
    24
 71
     1
 72
     4
 73
     2
 74
     0
 42
0.0000000001
 43
0.0000000001
 40
0.0
 40
0.0
 40
1.0
 40
1.0
 10
333.4867245894547
 20
1296.42959988942
 30
0.0
 10
333.2867249292012
 20
1296.229599763505
 30
0.0
  0
SPLINE
  5
AE4F
330
1F
100
AcDbEntity
  8
0
  6
Continuous
 62
     7
370
    15
100
AcDbSpline
210
0.0
220
0.0
230
1.0
 70
    24
 71
     1
 72
     4
 73
     2
 74
     0
 42
0.0000000001
 43
0.0000000001
 40
0.0
 40
0.0
 40
1.0
 40
1.0
 10
333.2867249292012
 20
1291.629600006799
 30
0.0
 10
333.4867245894547
 20
1291.429599880884
 30
0.0
  0
SPLINE
  5
AE50
330
1F
100
AcDbEntity
  8
0
  6
Continuous
 62
     7
370
    15
100
AcDbSpline
210
0.0
220
0.0
230
1.0
 70
     8
 71
     3
 72
     8
 73
     4
 74
     0
 42
0.0000000001
 43
0.0000000001
 40
0.0
 40
0.0
 40
0.0
 40
0.0
 40
1.0
 40
1.0
 40
1.0
 40
1.0
 10
333.4867240804247
 20
1295.429599922537
 30
0.0
 10
333.4175291392865
 20
1295.326599226522
 30
0.0
 10
333.3505698409902
 20
1295.222173808758
 30
0.0
 10
333.2867240804244
 20
1295.115764207815
 30
0.0
  0
SPLINE
  5
AE51
330
1F
100
AcDbEntity
  8
0
  6
Continuous
 62
     7
370
    15
100
AcDbSpline
210
0.0
220
0.0
230
1.0
 70
     8
 71
     3
 72
     8
 73
     4
 74
     0
 42
0.0000000001
 43
0.0000000001
 40
0.0
 40
0.0
 40
0.0
 40
0.0
 40
1.0
 40
1.0
 40
1.0
 40
1.0
 10
333.2867240804246
 20
1292.743435602312
 30
0.0
 10
333.3505698409904
 20
1292.637026001369
 30
0.0
 10
333.4175291392865
 20
1292.532600583605
 30
0.0
 10
333.4867240804245
 20
1292.42959988759
 30
0.0
  0
LINE
  5
AE52
330
1F
100
AcDbEntity
  8
0
  6
Continuous
 62
     7
370
    15
100
AcDbLine
 10
333.4867245894547
 20
1292.42959988942
 30
0.0
 11
333.4867245894547
 21
1291.429599880884
 31
0.0
  0
LINE
  5
AE53
330
1F
100
AcDbEntity
  8
0
  6
Continuous
 62
     7
370
    15
100
AcDbLine
 10
333.4867245894547
 20
1296.42959988942
 30
0.0
 11
333.4867245894547
 21
1295.42959988942
 31
0.0
  0
LINE
  5
AE54
330
1F
100
AcDbEntity
  8
0
  6
Continuous
 62
     7
370
    15
100
AcDbLine
 10
333.2867249292012
 20
1291.629600006799
 30
0.0
 11
333.2867249292012
 21
1296.229599763505
 31
0.0
  0
ARC
  5
AE55
330
1F
100
AcDbEntity
  8
0
100
AcDbCircle
 10
426.5249824118833
 20
1293.929599885152
 30
0.0
 40
2.5
100
AcDbArc
 50
36.86989764583751
 51
323.1301023541625
  0
LINE
  5
AE56
330
1F
100
AcDbEntity
  8
0
100
AcDbLine
 10
428.5249824118833
 20
1295.429599885152
 30
0.0
 11
428.5249824118833
 21
1292.429599885152
 31
0.0
  0
ARC
  5
AE57
330
1F
100
AcDbEntity
  8
0
100
AcDbCircle
 10
426.5249824118832
 20
1293.929599885152
 30
0.0
 40
2.399999999999999
100
AcDbArc
 50
33.55730976191301
 51
326.442690238087
  0
SPLINE
  5
AE58
330
1F
100
AcDbEntity
  8
0
  6
Continuous
 62
     7
370
    15
100
AcDbSpline
210
0.0
220
0.0
230
1.0
 70
    24
 71
     1
 72
     4
 73
     2
 74
     0
 42
0.0000000001
 43
0.0000000001
 40
0.0
 40
0.0
 40
1.0
 40
1.0
 10
424.3749831882336
 20
1332.554406773194
 30
0.0
 10
424.3749831882336
 20
1338.854406315728
 30
0.0
  0
SPLINE
  5
AE59
330
1F
100
AcDbEntity
  8
0
  6
Continuous
 62
     7
370
    15
100
AcDbSpline
210
0.0
220
0.0
230
1.0
 70
    24
 71
     1
 72
     4
 73
     2
 74
     0
 42
0.0000000001
 43
0.0000000001
 40
0.0
 40
0.0
 40
1.0
 40
1.0
 10
424.5749828484871
 20
1332.35440711294
 30
0.0
 10
424.3749831882336
 20
1332.554406773194
 30
0.0
  0
LINE
  5
AE5A
330
1F
100
AcDbEntity
  8
0
  6
Continuous
 62
     7
370
    15
100
AcDbLine
 10
428.8749831882336
 20
1332.554406773194
 30
0.0
 11
424.3749831882336
 21
1332.554406773194
 31
0.0
  0
LINE
  5
AE5B
330
1F
100
AcDbEntity
  8
0
  6
Continuous
 62
     7
370
    15
100
AcDbLine
 10
428.8749831882336
 20
1332.554406773194
 30
0.0
 11
428.8749831882336
 21
1338.854406315728
 31
0.0
  0
LINE
  5
AE5C
330
1F
100
AcDbEntity
  8
0
  6
Continuous
 62
     7
370
    15
100
AcDbLine
 10
424.5749828484871
 20
1332.35440711294
 30
0.0
 11
428.8749831882336
 21
1332.35440711294
 31
0.0
  0
SPLINE
  5
AE5D
330
1F
100
AcDbEntity
  8
0
  6
Continuous
 62
     7
370
    15
100
AcDbSpline
210
0.0
220
0.0
230
1.0
 70
    24
 71
     3
 72
     8
 73
     4
 74
     0
 42
0.0000000001
 43
0.0000000001
 40
0.0
 40
0.0
 40
0.0
 40
0.0
 40
1.0
 40
1.0
 40
1.0
 40
1.0
 10
428.8749823537686
 20
1332.354406264164
 30
0.0
 10
428.8749823537686
 20
1332.418252024729
 30
0.0
 10
428.8749823537686
 20
1332.485211323026
 30
0.0
 10
428.8749823537686
 20
1332.554406264164
 30
0.0
  0
LINE
  5
AE5E
102
{ACAD_REACTORS
330
AE64
102
}
330
1F
100
AcDbEntity
  8
0
100
AcDbLine
 10
333.4867245894547
 20
1296.42959988942
 30
0.0
 11
339.7867249292013
 21
1296.42959988942
 31
0.0
  0
LINE
  5
AE5F
102
{ACAD_REACTORS
330
AE64
102
}
330
1F
100
AcDbEntity
  8
0
100
AcDbLine
 10
333.4867245894547
 20
1291.429599880884
 30
0.0
 11
339.7867249292013
 21
1291.429599866015
 31
0.0
  0
LINE
  5
AE60
330
1F
100
AcDbEntity
  8
0
100
AcDbLine
 10
333.4867245894547
 20
1295.42959988942
 30
0.0
 11
339.7867249292013
 21
1295.42959988942
 31
0.0
  0
LINE
  5
AE61
330
1F
100
AcDbEntity
  8
0
100
AcDbLine
 10
333.4867245894547
 20
1292.42959988942
 30
0.0
 11
339.7867249292013
 21
1292.42959988942
 31
0.0
  0
DIMENSION
  5
AE62
102
{ACAD_XDICTIONARY
360
AE63
102
}
102
{ACAD_REACTORS
330
AE64
102
}
330
1F
100
AcDbEntity
  8
AM_5
100
AcDbDimension
  2
*D51
 10
329.5500466366712
 20
1291.429599880884
 30
0.0
 11
329.5500466366709
 21
1293.929599885152
 31
0.0
 70
   160
  1
%%C<>
 71
     5
 42
5.000000008535607
  3
AM_ISO$0
100
AcDbAlignedDimension
 13
333.4867245894547
 23
1296.42959988942
 33
0.0
 14
333.4867245894547
 24
1291.429599880884
 34
0.0
 50
90.0
100
AcDbRotatedDimension
1001
ACAD
1000
DSTYLE
1002
{
1070
    40
1040
1.0
1070
   144
1040
1.0
1070
   271
1070
     1
1070
   272
1070
     8
1002
}
  0
LINE
  5
AE9C
330
1F
100
AcDbEntity
  8
AM_7
  6
AM_ISO08W050x2
100
AcDbLine
 10
426.5249863830426
 20
1216.153197325073
 30
0.0
 11
426.5249863830426
 21
1227.824803377317
 31
0.0
  0
ENDSEC
  0
SECTION
  2
OBJECTS
  0
DICTIONARY
  5
C
330
0
100
AcDbDictionary
281
     1
  3
ACAD_COLOR
350
BE
  3
ACAD_GROUP
350
D
  3
ACAD_LAYOUT
350
1A
  3
ACAD_MATERIAL
350
BD
  3
ACAD_MLINESTYLE
350
17
  3
ACAD_PLOTSETTINGS
350
19
  3
ACAD_PLOTSTYLENAME
350
E
  3
ACAD_TABLESTYLE
350
11A
  3
ACDBHEADERROUNDTRIPXREC
350
B001
  3
AcDbVariableDictionary
350
94
  3
AcmDictionary
350
5B
  3
AMG
350
41
  3
AMGSNAPSETTINGS
350
1B8
  3
DWGPROPS
350
B000
  3
MAPISURF_MODULE
350
7518
  0
DICTIONARY
  5
3F9
330
2
100
AcDbDictionary
280
     1
281
     1
  3
ACAD_LAYERFILTERS
360
7B3F
  3
ACAD_LAYERSTATES
360
1292
  3
ACLYDICTIONARY
360
7B3E
  3
AMLAYER_GROUPCOLORS
360
11DE
  0
DICTIONARY
  5
8F
330
1F
100
AcDbDictionary
280
     1
281
     1
  3
ACAD_INDEX
360
756C
  3
ACAD_SORTENTS
360
1210
  0
DICTIONARY
  5
7DF7
330
7DEA
100
AcDbDictionary
280
     1
281
     1
  3
ACAD_DIMASSOC
360
7DF8
  0
DICTIONARY
  5
7E1D
330
7E10
100
AcDbDictionary
280
     1
281
     1
  3
ACAD_DIMASSOC
360
7E1E
  0
DICTIONARY
  5
7E69
330
7E5C
100
AcDbDictionary
280
     1
281
     1
  3
ACAD_DIMASSOC
360
7E6A
  0
DICTIONARY
  5
7F4A
330
7F3D
100
AcDbDictionary
280
     1
281
     1
  3
ACAD_DIMASSOC
360
7F4B
  0
DICTIONARY
  5
7FAA
330
7F9D
100
AcDbDictionary
280
     1
281
     1
  3
ACAD_DIMASSOC
360
7FAB
  0
DICTIONARY
  5
8008
330
7FFB
100
AcDbDictionary
280
     1
281
     1
  3
ACAD_DIMASSOC
360
8009
  0
DICTIONARY
  5
8180
330
8171
100
AcDbDictionary
280
     1
281
     1
  3
ACAD_DIMASSOC
360
8181
  0
DICTIONARY
  5
81A8
330
819B
100
AcDbDictionary
280
     1
281
     1
  3
ACAD_DIMASSOC
360
81A9
  0
DICTIONARY
  5
8272
330
8265
100
AcDbDictionary
280
     1
281
     1
  3
ACAD_DIMASSOC
360
8273
  0
DICTIONARY
  5
829A
330
828B
100
AcDbDictionary
280
     1
281
     1
  3
ACAD_DIMASSOC
360
829B
  0
DICTIONARY
  5
AE63
330
AE62
100
AcDbDictionary
280
     1
281
     1
  3
ACAD_DIMASSOC
360
AE64
  0
DICTIONARY
  5
BE
102
{ACAD_REACTORS
330
C
102
}
330
C
100
AcDbDictionary
281
     1
  0
DICTIONARY
  5
D
102
{ACAD_REACTORS
330
C
102
}
330
C
100
AcDbDictionary
281
     1
  0
DICTIONARY
  5
1A
102
{ACAD_REACTORS
330
C
102
}
330
C
100
AcDbDictionary
281
     1
  3
Model
350
22
  3
配置1
350
1E
  3
配置2
350
26
  0
DICTIONARY
  5
BD
102
{ACAD_REACTORS
330
C
102
}
330
C
100
AcDbDictionary
281
     1
  0
DICTIONARY
  5
17
102
{ACAD_REACTORS
330
C
102
}
330
C
100
AcDbDictionary
281
     1
  3
Standard
350
18
  0
DICTIONARY
  5
19
102
{ACAD_REACTORS
330
C
102
}
330
C
100
AcDbDictionary
281
     1
  0
ACDBDICTIONARYWDFLT
  5
E
102
{ACAD_REACTORS
330
C
102
}
330
C
100
AcDbDictionary
281
     1
  3
Normal
350
F
100
AcDbDictionaryWithDefault
340
F
  0
DICTIONARY
  5
11A
102
{ACAD_REACTORS
330
C
102
}
330
C
100
AcDbDictionary
281
     1
  3
Standard
350
11B
  0
DICTIONARY
  5
B001
102
{ACAD_REACTORS
330
C
102
}
330
C
100
AcDbDictionary
281
     1
  0
DICTIONARY
  5
94
102
{ACAD_REACTORS
330
C
102
}
330
C
100
AcDbDictionary
281
     1
  3
CTABLESTYLE
350
138
  3
DIMASSOC
350
96
  3
INDEXCTL
350
95
  3
PROJECTNAME
350
73BF
  0
DICTIONARY
  5
5B
102
{ACAD_REACTORS
330
C
102
}
330
C
100
AcDbDictionary
281
     1
  3
AcmBOM
350
1B5
  3
AcmStdDictionary
350
61
  3
AMDTSECTSYM_ARROWCOLOR
350
123
  0
DICTIONARY
  5
41
102
{ACAD_REACTORS
330
C
102
}
330
C
100
AcDbDictionary
281
     1
  3
AcMgSettings
350
7492
  0
DICTIONARY
  5
1B8
102
{ACAD_REACTORS
330
C
102
}
330
C
100
AcDbDictionary
281
     1
  0
XRECORD
  5
B000
102
{ACAD_REACTORS
330
C
102
}
330
C
100
AcDbXrecord
280
     1
  1
DWGPROPS COOKIE
  2

  3

  4

  6

  7

  8

  9

300
AmdtFileType=84
301
=
302
=
303
=
304
=
305
=
306
=
307
=
308
=
309
=
 40
1.564926354166666
 41
2453916.626557615
 42
2456496.646764861
  1

 90
        1
  0
DICTIONARY
  5
7B3F
102
{ACAD_REACTORS
330
3F9
102
}
330
3F9
100
AcDbDictionary
281
     1
  0
DICTIONARY
  5
1292
102
{ACAD_REACTORS
330
3F9
102
}
330
3F9
100
AcDbDictionary
281
     1
  0
DICTIONARY
  5
7B3E
102
{ACAD_REACTORS
330
3F9
102
}
330
3F9
100
AcDbDictionary
281
     1
1001
ACAD
1000
<All
  0
DICTIONARY
  5
11DE
102
{ACAD_REACTORS
330
3F9
102
}
330
3F9
100
AcDbDictionary
280
     1
281
     1
  0
DICTIONARY
  5
756C
102
{ACAD_REACTORS
330
8F
102
}
330
8F
100
AcDbDictionary
281
     1
  3
*A1
350
756D
  0
SORTENTSTABLE
  5
1210
102
{ACAD_REACTORS
330
8F
102
}
330
8F
100
AcDbSortentsTable
330
1F
331
7FCC
  5
7FCC
331
7075
  5
7075
331
7036
  5
7036
331
707D
  5
707D
331
7046
  5
7046
331
6BCF
  5
6BCF
331
7085
  5
7085
331
7E36
  5
7E36
331
7DCF
  5
7DCF
331
822A
  5
822A
331
7F85
  5
7F85
331
705E
  5
705E
331
7F9D
  5
7F9D
331
7027
  5
7027
331
7066
  5
7066
331
819B
  5
819B
331
70AD
  5
70AD
331
702F
  5
702F
331
706E
  5
706E
331
70B5
  5
70B5
331
7076
  5
7076
331
6788
  5
6788
331
7037
  5
7037
331
707E
  5
707E
331
847F
  5
847F
331
7047
  5
7047
331
7DC8
  5
7DC8
331
822B
  5
822B
331
7F86
  5
7F86
331
7DD0
  5
7DD0
331
7020
  5
7020
331
705F
  5
705F
331
7028
  5
7028
331
7067
  5
7067
331
70AE
  5
70AE
331
706F
  5
706F
331
7030
  5
7030
331
7077
  5
7077
331
7038
  5
7038
331
6789
  5
6789
331
7E10
  5
7E10
331
7040
  5
7040
331
707F
  5
707F
331
828B
  5
828B
331
807D
  5
807D
331
7048
  5
7048
331
7DC9
  5
7DC9
331
7F6F
  5
7F6F
331
6BD9
  5
6BD9
331
7050
  5
7050
331
7058
  5
7058
331
7DD1
  5
7DD1
331
7021
  5
7021
331
7060
  5
7060
331
7029
  5
7029
331
7068
  5
7068
331
70AF
  5
70AF
331
7031
  5
7031
331
7070
  5
7070
331
7041
  5
7041
331
7080
  5
7080
331
8323
  5
8323
331
807E
  5
807E
331
83DA
  5
83DA
331
7049
  5
7049
331
7DCA
  5
7DCA
331
7F70
  5
7F70
331
8373
  5
8373
331
822D
  5
822D
331
7F88
  5
7F88
331
8501
  5
8501
331
7059
  5
7059
331
7DD2
  5
7DD2
331
7061
  5
7061
331
838B
  5
838B
331
7B53
  5
7B53
331
7DEA
  5
7DEA
331
702A
  5
702A
331
7069
  5
7069
331
70B0
  5
70B0
331
7B63
  5
7B63
331
7032
  5
7032
331
7071
  5
7071
331
8265
  5
8265
331
704A
  5
704A
331
7DCB
  5
7DCB
331
7B44
  5
7B44
331
822E
  5
822E
331
7F89
  5
7F89
331
8502
  5
8502
331
705A
  5
705A
331
82B5
  5
82B5
331
842B
  5
842B
331
7DD3
  5
7DD3
331
7023
  5
7023
331
7062
  5
7062
331
7B54
  5
7B54
331
702B
  5
702B
331
706A
  5
706A
331
70B1
  5
70B1
331
7B64
  5
7B64
331
7033
  5
7033
331
7072
  5
7072
331
704B
  5
704B
331
7DCC
  5
7DCC
331
7B45
  5
7B45
331
8503
  5
8503
331
823F
  5
823F
331
709A
  5
709A
331
7B4D
  5
7B4D
331
7DD4
  5
7DD4
331
7B55
  5
7B55
331
7024
  5
7024
331
7063
  5
7063
331
70AA
  5
70AA
331
7B5D
  5
7B5D
331
702C
  5
702C
331
706B
  5
706B
331
70B2
  5
70B2
331
8059
  5
8059
331
7073
  5
7073
331
7034
  5
7034
331
703C
  5
703C
331
707B
  5
707B
331
81D0
  5
81D0
331
7083
  5
7083
331
704C
  5
704C
331
7DCD
  5
7DCD
331
8171
  5
8171
331
7054
  5
7054
331
8504
  5
8504
331
802A
  5
802A
331
709B
  5
709B
331
7B4E
  5
7B4E
331
7E5C
  5
7E5C
331
7B56
  5
7B56
331
7025
  5
7025
331
7064
  5
7064
331
70AB
  5
70AB
331
7B5E
  5
7B5E
331
702D
  5
702D
331
706C
  5
706C
331
82DF
  5
82DF
331
8455
  5
8455
331
70B3
  5
70B3
331
7074
  5
7074
331
7035
  5
7035
331
707C
  5
707C
331
7045
  5
7045
331
7084
  5
7084
331
7FFB
  5
7FFB
331
7DCE
  5
7DCE
331
708C
  5
708C
331
7026
  5
7026
331
7065
  5
7065
331
70AC
  5
70AC
331
702E
  5
702E
331
706D
  5
706D
331
70B4
  5
70B4
331
7F3D
  5
7F3D
  0
DIMASSOC
  5
7DF8
102
{ACAD_REACTORS
330
7DF7
102
}
330
7DF7
100
AcDbDimAssoc
330
7DEA
 90
        2
 70
     0
 71
     0
  1
AcDbOsnapPointRef
 72
     1
331
7B53
 73
     0
 91
        0
 40
0.0
 10
0.0
 20
0.0
 30
2.000000000000000E+50
 75
     0
  0
DIMASSOC
  5
7E1E
102
{ACAD_REACTORS
330
7E1D
102
}
330
7E1D
100
AcDbDimAssoc
330
7E10
 90
        1
 70
     0
 71
     0
  1
AcDbOsnapPointRef
 72
     1
331
7B54
 73
     0
 91
        0
 40
0.0
 10
0.0
 20
0.0
 30
2.000000000000000E+50
 75
     0
  0
DIMASSOC
  5
7E6A
102
{ACAD_REACTORS
330
7E69
102
}
330
7E69
100
AcDbDimAssoc
330
7E5C
 90
        2
 70
     0
 71
     0
  1
AcDbOsnapPointRef
 72
     1
331
7B4D
 73
     0
 91
        0
 40
0.0
 10
0.0
 20
0.0
 30
2.000000000000000E+50
 75
     0
  0
DIMASSOC
  5
7F4B
102
{ACAD_REACTORS
330
7F4A
102
}
330
7F4A
100
AcDbDimAssoc
330
7F3D
 90
        1
 70
     0
 71
     0
  1
AcDbOsnapPointRef
 72
     1
331
7B4D
 73
     0
 91
        0
 40
0.0
 10
0.0
 20
0.0
 30
2.000000000000000E+50
 75
     0
  0
DIMASSOC
  5
7FAB
102
{ACAD_REACTORS
330
7FAA
102
}
330
7FAA
100
AcDbDimAssoc
330
7F9D
 90
        2
 70
     0
 71
     0
  1
AcDbOsnapPointRef
 72
     1
331
7F89
 73
     0
 91
        0
 40
0.0
 10
0.0
 20
0.0
 30
2.000000000000000E+50
 75
     0
  0
DIMASSOC
  5
8009
102
{ACAD_REACTORS
330
8008
102
}
330
8008
100
AcDbDimAssoc
330
7FFB
 90
        3
 70
     0
 71
     0
  1
AcDbOsnapPointRef
 72
    13
331
7F85
 73
     0
 91
        0
 40
0.0
 10
0.0
 20
0.0
 30
2.000000000000000E+50
 75
     0
  1
AcDbOsnapPointRef
 72
    13
331
7F88
 73
     0
 91
        0
 40
0.0
 10
0.0
 20
0.0
 30
2.000000000000000E+50
 75
     0
  0
DIMASSOC
  5
8181
102
{ACAD_REACTORS
330
8180
102
}
330
8180
100
AcDbDimAssoc
330
8171
 90
        1
 70
     0
 71
     0
  1
AcDbOsnapPointRef
 72
    13
331
7F70
 73
     0
 91
        0
 40
0.0
 10
0.0
 20
0.0
 30
2.000000000000000E+50
 75
     0
  0
DIMASSOC
  5
81A9
102
{ACAD_REACTORS
330
81A8
102
}
330
81A8
100
AcDbDimAssoc
330
819B
 90
        1
 70
     0
 71
     0
  1
AcDbOsnapPointRef
 72
    13
331
7B45
 73
     0
 91
        0
 40
0.0
 10
0.0
 20
0.0
 30
2.000000000000000E+50
 75
     0
  0
DIMASSOC
  5
8273
102
{ACAD_REACTORS
330
8272
102
}
330
8272
100
AcDbDimAssoc
330
8265
 90
        3
 70
     0
 71
     0
  1
AcDbOsnapPointRef
 72
    13
331
7B63
 73
     0
 91
        0
 40
0.0
 10
0.0
 20
0.0
 30
2.000000000000000E+50
 75
     0
  1
AcDbOsnapPointRef
 72
    13
331
7B55
 73
     0
 91
        0
 40
0.0
 10
0.0
 20
0.0
 30
2.000000000000000E+50
 75
     0
  0
DIMASSOC
  5
829B
102
{ACAD_REACTORS
330
829A
102
}
330
829A
100
AcDbDimAssoc
330
828B
 90
        1
 70
     0
 71
     0
  1
AcDbOsnapPointRef
 72
    13
331
822E
 73
     0
 91
        0
 40
0.0
 10
0.0
 20
0.0
 30
2.000000000000000E+50
 75
     0
  0
DIMASSOC
  5
AE64
102
{ACAD_REACTORS
330
AE63
102
}
330
AE63
100
AcDbDimAssoc
330
AE62
 90
        3
 70
     0
 71
     0
  1
AcDbOsnapPointRef
 72
    13
331
AE5E
 73
     0
 91
        0
 40
0.0
 10
0.0
 20
0.0
 30
2.000000000000000E+50
 75
     0
  1
AcDbOsnapPointRef
 72
    13
331
AE5F
 73
     0
 91
        0
 40
0.0
 10
0.0
 20
0.0
 30
2.000000000000000E+50
 75
     0
  0
LAYOUT
  5
22
102
{ACAD_XDICTIONARY
360
B004
102
}
102
{ACAD_REACTORS
330
1A
102
}
330
1A
100
AcDbPlotSettings
  1

  2
\\RD\EPSON Stylus C63 Series單色
  4
A4
  6

 40
3.757083177566528
 41
3.757076978683471
 42
3.757080078125
 43
3.757080078125
 44
209.9733276367187
 45
296.9683227539062
 46
0.0
 47
0.0
 48
0.0
 49
0.0
140
0.0
141
0.0
142
1.0
143
0.3405120737814363
 70
 11952
 72
     1
 73
     0
 74
     0
  7
彩色出圖.ctb
 75
     0
147
2.936753428137963
148
-2047.07469463503
149
-1261.649717473083
100
AcDbLayout
  1
Model
 70
     1
 71
     0
 10
0.0
 20
0.0
 11
12.0
 21
9.0
 12
0.0
 22
0.0
 32
0.0
 14
0.0
 24
0.0
 34
0.0
 15
0.0
 25
0.0
 35
0.0
146
0.0
 13
0.0
 23
0.0
 33
0.0
 16
1.0
 26
0.0
 36
0.0
 17
0.0
 27
1.0
 37
0.0
 76
     0
330
1F
1001
ACAD_PSEXT
1000
\\RD\EPSON Stylus C63 Series單色
1000
EPSON Stylus C63 Series
1000
\\RD
1000

1070
     0
  0
LAYOUT
  5
1E
102
{ACAD_XDICTIONARY
360
B002
102
}
102
{ACAD_REACTORS
330
1A
102
}
330
1A
100
AcDbPlotSettings
  1

  2

  4

  6

 40
0.0
 41
0.0
 42
0.0
 43
0.0
 44
0.0
 45
0.0
 46
0.0
 47
0.0
 48
0.0
 49
0.0
140
0.0
141
0.0
142
1.0
143
1.0
 70
   688
 72
     0
 73
     0
 74
     5
  7
彩色出圖.ctb
 75
    16
147
1.0
148
0.0
149
0.0
100
AcDbLayout
  1
配置1
 70
     1
 71
     1
 10
0.0
 20
0.0
 11
420.0
 21
297.0
 12
0.0
 22
0.0
 32
0.0
 14
1.000000000000000E+20
 24
1.000000000000000E+20
 34
1.000000000000000E+20
 15
-1.000000000000000E+20
 25
-1.000000000000000E+20
 35
-1.000000000000000E+20
146
0.0
 13
0.0
 23
0.0
 33
0.0
 16
1.0
 26
0.0
 36
0.0
 17
0.0
 27
1.0
 37
0.0
 76
     0
330
1B
  0
LAYOUT
  5
26
102
{ACAD_XDICTIONARY
360
B006
102
}
102
{ACAD_REACTORS
330
1A
102
}
330
1A
100
AcDbPlotSettings
  1

  2

  4

  6

 40
0.0
 41
0.0
 42
0.0
 43
0.0
 44
0.0
 45
0.0
 46
0.0
 47
0.0
 48
0.0
 49
0.0
140
0.0
141
0.0
142
1.0
143
1.0
 70
   688
 72
     0
 73
     0
 74
     5
  7
彩色出圖.ctb
 75
    16
147
1.0
148
0.0
149
0.0
100
AcDbLayout
  1
配置2
 70
     1
 71
     2
 10
0.0
 20
0.0
 11
12.0
 21
9.0
 12
0.0
 22
0.0
 32
0.0
 14
0.0
 24
0.0
 34
0.0
 15
0.0
 25
0.0
 35
0.0
146
0.0
 13
0.0
 23
0.0
 33
0.0
 16
1.0
 26
0.0
 36
0.0
 17
0.0
 27
1.0
 37
0.0
 76
     0
330
23
  0
MLINESTYLE
  5
18
102
{ACAD_REACTORS
330
17
102
}
330
17
100
AcDbMlineStyle
  2
STANDARD
 70
     0
  3

 62
   256
 51
90.0
 52
90.0
 71
     2
 49
0.5
 62
   256
  6
BYLAYER
 49
-0.5
 62
   256
  6
BYLAYER
  0
ACDBPLACEHOLDER
  5
F
102
{ACAD_REACTORS
330
E
102
}
330
E
  0
TABLESTYLE
  5
11B
102
{ACAD_REACTORS
330
11A
102
}
330
11A
100
AcDbTableStyle
  3
Standard
 70
     0
 71
     0
 40
1.5
 41
1.5
280
     0
281
     0
  7
STANDARD
140
4.5
170
     2
 62
     0
 63
     7
283
     0
274
    -2
284
     1
 64
     0
275
    -2
285
     1
 65
     0
276
    -2
286
     1
 66
     0
277
    -2
287
     1
 67
     0
278
    -2
288
     1
 68
     0
279
    -2
289
     1
 69
     0
  7
STANDARD
140
6.0
170
     5
 62
     0
 63
     7
283
     0
274
    -2
284
     1
 64
     0
275
    -2
285
     1
 65
     0
276
    -2
286
     1
 66
     0
277
    -2
287
     1
 67
     0
278
    -2
288
     1
 68
     0
279
    -2
289
     1
 69
     0
  7
STANDARD
140
4.5
170
     5
 62
     0
 63
     7
283
     0
274
    -2
284
     1
 64
     0
275
    -2
285
     1
 65
     0
276
    -2
286
     1
 66
     0
277
    -2
287
     1
 67
     0
278
    -2
288
     1
 68
     0
279
    -2
289
     1
 69
     0
  0
DICTIONARYVAR
  5
138
102
{ACAD_REACTORS
330
94
102
}
330
94
100
DictionaryVariables
280
     0
  1
STANDARD
  0
DICTIONARYVAR
  5
96
102
{ACAD_REACTORS
330
94
102
}
330
94
100
DictionaryVariables
280
     0
  1
2
  0
DICTIONARYVAR
  5
95
102
{ACAD_REACTORS
330
94
102
}
330
94
100
DictionaryVariables
280
     0
  1
1
  0
DICTIONARYVAR
  5
73BF
102
{ACAD_REACTORS
330
94
102
}
330
94
100
DictionaryVariables
280
     0
  1

  0
DICTIONARY
  5
1B5
102
{ACAD_REACTORS
330
5B
102
}
330
5B
100
AcDbDictionary
281
     1
  0
DICTIONARY
  5
61
102
{ACAD_REACTORS
330
5B
102
}
330
5B
100
AcDbDictionary
281
     1
  0
XRECORD
  5
123
102
{ACAD_REACTORS
330
5B
102
}
330
5B
100
AcDbXrecord
280
     1
 90
-1023410169
  0
DICTIONARY
  5
7492
102
{ACAD_REACTORS
330
41
102
}
330
41
100
AcDbDictionary
281
     1
  3
DWGSETTINGS
350
7493
  3
Shaft
350
7B3B
  3
TRANSSETTINGS
350
7496
  0
LAYER_INDEX
  5
756D
102
{ACAD_REACTORS
330
756C
102
}
330
756C
100
AcDbIndex
 40
2456496.646764861
100
AcDbLayerIndex
  8
0
360
756E
 90
      594
  8
AM_VIS
360
756F
 90
        0
  8
AM_7
360
7570
 90
       27
  8
AM_4
360
7571
 90
        0
  8
AM_0
360
7572
 90
        0
  8
AM_5
360
7573
 90
       36
  8
Defpoints
360
7574
 90
        0
  8
BORDER
360
7575
 90
        0
  8
LOGO
360
7576
 90
      103
  8
BOR
360
7577
 90
        0
  0
DICTIONARY
  5
B004
330
22
100
AcDbDictionary
280
     1
281
     1
  3
ACAD_XREC_ROUNDTRIP
360
B005
  0
DICTIONARY
  5
B002
330
1E
100
AcDbDictionary
280
     1
281
     1
  3
ACAD_XREC_ROUNDTRIP
360
B003
  0
DICTIONARY
  5
B006
330
26
100
AcDbDictionary
280
     1
281
     1
  3
ACAD_XREC_ROUNDTRIP
360
B007
  0
IDBUFFER
  5
756E
330
0
100
AcDbIdBuffer
330
AE57
330
AE58
330
AE59
330
AE5A
330
AE5B
330
AE5C
330
AE5D
330
AE5E
330
AE5F
330
AE60
330
AE61
330
6BCF
330
6BD9
330
70B6
330
70B7
330
70B8
330
A223
330
A224
330
A225
330
A226
330
A227
330
A228
330
A229
330
A22A
330
A22B
330
A22C
330
A22D
330
A22E
330
A22F
330
A230
330
A231
330
A232
330
A233
330
A234
330
A235
330
A236
330
A237
330
A238
330
A23B
330
A23C
330
A23D
330
A23E
330
A23F
330
A240
330
A241
330
A242
330
A243
330
A244
330
A245
330
A246
330
A247
330
A248
330
A249
330
A24A
330
A24B
330
A24C
330
A24D
330
A24E
330
A24F
330
A250
330
A251
330
A252
330
A253
330
A254
330
A255
330
A256
330
A257
330
A258
330
A259
330
A25A
330
A25B
330
A25C
330
A25D
330
A25E
330
A25F
330
A260
330
A261
330
A262
330
A263
330
A264
330
A265
330
A266
330
A267
330
A268
330
A269
330
A26A
330
A26B
330
A26C
330
A26D
330
A26E
330
A26F
330
A270
330
A271
330
A272
330
A273
330
A274
330
A275
330
A276
330
A277
330
A278
330
A279
330
A27A
330
A27B
330
A27C
330
A27D
330
A27E
330
A27F
330
A280
330
A281
330
A282
330
A283
330
A284
330
A285
330
A286
330
A287
330
A288
330
A289
330
A28A
330
A28B
330
A28C
330
A28D
330
A28E
330
A28F
330
A290
330
A291
330
A292
330
A293
330
A294
330
A295
330
A296
330
A297
330
A298
330
A299
330
A29A
330
A29B
330
A29C
330
A29D
330
A29E
330
A29F
330
A2A0
330
A2A1
330
A2A2
330
A2A3
330
A2A4
330
A2A5
330
A2A6
330
A2A7
330
A2A8
330
A2A9
330
A2AA
330
A2AB
330
A2AC
330
A2AD
330
A2AE
330
A2AF
330
A2B0
330
A2B1
330
A2B2
330
A2B3
330
A2B4
330
A2B5
330
A2B6
330
A2B7
330
A2B8
330
A2B9
330
A2BA
330
A2BB
330
A2BC
330
A2BD
330
A2BE
330
A2BF
330
A2C0
330
A2C1
330
A2C2
330
A2C3
330
A2C4
330
A2C5
330
A2C6
330
A2C7
330
A2C8
330
A2C9
330
A2CA
330
A2CB
330
A2CC
330
A2CD
330
A2CE
330
A2CF
330
A2D0
330
A2D1
330
A2D2
330
A2D3
330
A2D4
330
A2D5
330
A2D6
330
A2D7
330
A2D8
330
A2D9
330
A2DA
330
A2DB
330
A2DC
330
A2DD
330
A2DE
330
A2DF
330
A2E0
330
A2E1
330
A2E2
330
A2E3
330
A2E4
330
A2E5
330
A2E6
330
A2E7
330
A2E8
330
A2E9
330
A2EA
330
A2EB
330
A2EC
330
A2ED
330
A2EE
330
A2EF
330
A2F0
330
A2F1
330
A2F2
330
A2F3
330
A2F4
330
A2F5
330
A2F6
330
A2F7
330
A2F8
330
A2F9
330
A2FA
330
A2FB
330
A2FC
330
A2FD
330
A2FE
330
A2FF
330
A300
330
A306
330
A307
330
A309
330
A30A
330
A30B
330
A30C
330
A30D
330
A30E
330
A30F
330
A310
330
A311
330
A312
330
A314
330
A315
330
A317
330
A319
330
A31A
330
A31C
330
A31E
330
A31F
330
A320
330
A322
330
A323
330
A324
330
A325
330
A326
330
A327
330
A328
330
A329
330
A32A
330
A32B
330
A32C
330
A32E
330
A330
330
A331
330
A333
330
A335
330
A336
330
A337
330
A338
330
A339
330
A33B
330
A33D
330
A33E
330
A33F
330
A340
330
A341
330
A342
330
A343
330
A344
330
A345
330
A346
330
A348
330
A34A
330
A34C
330
A34E
330
A34F
330
A351
330
A353
330
A354
330
A355
330
A357
330
A359
330
A35A
330
A35C
330
A35D
330
A360
330
A361
330
A363
330
A364
330
A365
330
A366
330
A367
330
A368
330
A369
330
A36A
330
A36B
330
A36C
330
A36D
330
A36E
330
A36F
330
A370
330
A371
330
A372
330
A373
330
A374
330
A375
330
A376
330
A377
330
A378
330
A379
330
A37A
330
A37B
330
A37C
330
A37D
330
A37E
330
A37F
330
A380
330
A381
330
A382
330
A383
330
A384
330
A385
330
A386
330
A387
330
A388
330
A389
330
A38A
330
A38B
330
A38C
330
A38D
330
A38E
330
A38F
330
A390
330
A391
330
A392
330
A393
330
A394
330
A395
330
A396
330
A397
330
A398
330
A399
330
A39A
330
A39B
330
A39C
330
A39D
330
A39E
330
A39F
330
A3A0
330
A3A1
330
A3A2
330
A3A3
330
A3A4
330
A3A7
330
A3A8
330
A3A9
330
A3AA
330
A3AB
330
A3AC
330
A3AD
330
A3AE
330
A3AF
330
A3B0
330
A3B1
330
A3B2
330
A3B3
330
A3B4
330
A3BB
330
A3BC
330
A3BD
330
A3BE
330
A3BF
330
A3C0
330
A3C1
330
A3C2
330
A3C3
330
A3C5
330
A3C6
330
A3C7
330
A3C8
330
A3C9
330
A3CA
330
A3CB
330
A3CC
330
A3CD
330
A3CE
330
A3CF
330
A3D0
330
A3D1
330
A3D2
330
A3D3
330
A3D4
330
A3D5
330
A3D6
330
A3D7
330
A3D8
330
A3D9
330
A3DA
330
A3DB
330
A3DC
330
A3DD
330
A3DE
330
A3DF
330
A3E0
330
A3E1
330
A3E2
330
A3E3
330
A3E4
330
A3E5
330
A3E6
330
A3E9
330
A3EA
330
A3EB
330
A3EC
330
A3ED
330
A3EE
330
A3EF
330
A3F0
330
A3F1
330
A3F2
330
A3F3
330
A3F4
330
A3F5
330
A3F6
330
A3F7
330
A3F8
330
A3F9
330
A3FA
330
A3FB
330
A3FC
330
A3FD
330
A3FE
330
A3FF
330
A400
330
A401
330
A402
330
A403
330
A404
330
A405
330
A406
330
A407
330
A408
330
A409
330
A40A
330
A40B
330
A40C
330
A40D
330
A40E
330
A40F
330
A410
330
A411
330
A412
330
A413
330
A414
330
A415
330
A416
330
A41D
330
A41E
330
A41F
330
A420
330
A421
330
A422
330
A423
330
A424
330
A425
330
A426
330
A427
330
A428
330
A42B
330
A42C
330
A42D
330
A42E
330
A42F
330
A430
330
A431
330
A432
330
A433
330
A434
330
A435
330
A436
330
A437
330
A438
330
A439
330
A43A
330
A43B
330
A43C
330
A43D
330
A43E
330
A43F
330
A440
330
A441
330
A442
330
A443
330
A444
330
A445
330
A446
330
A447
330
A448
330
A449
330
A44A
330
A44B
330
A44C
330
A44D
330
A44E
330
A44F
330
A450
330
A451
330
A452
330
A453
330
A454
330
A455
330
A456
330
A457
330
A458
330
A459
330
A45A
330
A45B
330
A45C
330
A45D
330
A45E
330
A45F
330
A460
330
A461
330
A462
330
A463
330
A464
330
A465
330
A466
330
A467
330
A468
330
A469
330
A46A
330
A46B
330
A46C
330
A46D
330
A46E
330
A46F
330
A470
330
A471
330
A472
330
A473
330
A474
330
A475
330
A476
330
A477
330
A478
330
A479
330
A47A
330
A47B
330
A47C
330
A47D
330
A47E
330
A47F
330
A480
330
A481
330
A482
330
A483
330
A488
330
A489
330
A48B
330
A48C
330
A48D
330
AE48
330
AE49
330
AE4A
330
AE4B
330
AE4C
330
AE4D
330
AE4E
330
AE4F
330
AE50
330
AE51
330
AE52
330
AE53
330
AE54
330
AE55
330
AE56
  0
IDBUFFER
  5
756F
330
0
100
AcDbIdBuffer
  0
IDBUFFER
  5
7570
330
0
100
AcDbIdBuffer
330
7B44
330
7B45
330
7B4D
330
7B4E
330
7B53
330
7B54
330
7B55
330
7B56
330
7B5D
330
7B5E
330
7B63
330
7B64
330
7F6F
330
7F70
330
7F85
330
7F86
330
7F88
330
7F89
330
807D
330
807E
330
822A
330
822B
330
822D
330
822E
330
9C9B
330
9C9C
330
AE9C
  0
IDBUFFER
  5
7571
330
0
100
AcDbIdBuffer
  0
IDBUFFER
  5
7572
330
0
100
AcDbIdBuffer
  0
IDBUFFER
  5
7573
330
0
100
AcDbIdBuffer
330
AE62
330
6788
330
6789
330
7DEA
330
7E10
330
7E36
330
7E5C
330
7F3D
330
7F9D
330
7FCC
330
7FFB
330
802A
330
8059
330
8171
330
819B
330
81D0
330
823F
330
8265
330
828B
330
82B5
330
82DF
330
8323
330
8373
330
838B
330
83DA
330
842B
330
8455
330
847F
330
8501
330
8502
330
8503
330
8504
330
8509
330
850B
330
850C
330
850D
  0
IDBUFFER
  5
7574
330
0
100
AcDbIdBuffer
  0
IDBUFFER
  5
7575
330
0
100
AcDbIdBuffer
  0
IDBUFFER
  5
7576
330
0
100
AcDbIdBuffer
330
7020
330
7021
330
7023
330
7024
330
7025
330
7026
330
7027
330
7028
330
7029
330
702A
330
702B
330
702C
330
702D
330
702E
330
702F
330
7030
330
7031
330
7032
330
7033
330
7034
330
7035
330
7036
330
7037
330
7038
330
703C
330
7040
330
7041
330
7045
330
7046
330
7047
330
7048
330
7049
330
704A
330
704B
330
704C
330
7050
330
7054
330
7058
330
7059
330
705A
330
705E
330
705F
330
7060
330
7061
330
7062
330
7063
330
7064
330
7065
330
7066
330
7067
330
7068
330
7069
330
706A
330
706B
330
706C
330
706D
330
706E
330
706F
330
7070
330
7071
330
7072
330
7073
330
7074
330
7075
330
7076
330
7077
330
707B
330
707C
330
707D
330
707E
330
707F
330
7080
330
7083
330
7084
330
7085
330
708C
330
709A
330
709B
330
70AA
330
70AB
330
70AC
330
70AD
330
70AE
330
70AF
330
70B0
330
70B1
330
70B2
330
70B3
330
70B4
330
70B5
330
7DC8
330
7DC9
330
7DCA
330
7DCB
330
7DCC
330
7DCD
330
7DCE
330
7DCF
330
7DD0
330
7DD1
330
7DD2
330
7DD3
330
7DD4
  0
IDBUFFER
  5
7577
330
0
100
AcDbIdBuffer
  0
XRECORD
  5
B005
102
{ACAD_REACTORS
330
B004
102
}
330
B004
100
AcDbXrecord
280
     1
102
SHADEPLOT
 70
     0
102
SHADEPLOTRESLEVEL
 70
     2
102
SHADEPLOTCUSTOMDPI
 70
   300
  0
XRECORD
  5
B003
102
{ACAD_REACTORS
330
B002
102
}
330
B002
100
AcDbXrecord
280
     1
102
SHADEPLOT
 70
     0
102
SHADEPLOTRESLEVEL
 70
     2
102
SHADEPLOTCUSTOMDPI
 70
   300
  0
XRECORD
  5
B007
102
{ACAD_REACTORS
330
B006
102
}
330
B006
100
AcDbXrecord
280
     1
102
SHADEPLOT
 70
     0
102
SHADEPLOTRESLEVEL
 70
     2
102
SHADEPLOTCUSTOMDPI
 70
   300
  0
ENDSEC
  0
EOF
