  0
SECTION
  2
HEADER
  9
$ACADVER
  1
AC1015
  9
$ACADMAINTVER
 70
    20
  9
$DWGCODEPAGE
  3
ANSI_950
  9
$INSBASE
 10
0.0
 20
0.0
 30
0.0
  9
$EXTMIN
 10
293.3425795026469
 20
1133.027196813836
 30
-0.0059988888703515
  9
$EXTMAX
 10
540.9888178143456
 20
1393.525106831656
 30
196.5925884443726
  9
$LIMMIN
 10
0.0
 20
0.0
  9
$LIMMAX
 10
420.0
 20
297.0
  9
$ORTHOMODE
 70
     0
  9
$REGENMODE
 70
     1
  9
$FILLMODE
 70
     1
  9
$QTEXTMODE
 70
     0
  9
$MIRRTEXT
 70
     1
  9
$LTSCALE
 40
1.0
  9
$ATTMODE
 70
     1
  9
$TEXTSIZE
 40
3.0
  9
$TRACEWID
 40
1.0
  9
$TEXTSTYLE
  7
STANDARD
  9
$CLAYER
  8
0
  9
$CELTYPE
  6
ByLayer
  9
$CECOLOR
 62
   256
  9
$CELTSCALE
 40
1.0
  9
$DISPSILH
 70
     0
  9
$DIMSCALE
 40
1.0
  9
$DIMASZ
 40
3.0
  9
$DIMEXO
 40
1.0
  9
$DIMDLI
 40
8.0
  9
$DIMRND
 40
0.0
  9
$DIMDLE
 40
0.0
  9
$DIMEXE
 40
1.5
  9
$DIMTP
 40
0.1
  9
$DIMTM
 40
0.1
  9
$DIMTXT
 40
3.5
  9
$DIMCEN
 40
0.0
  9
$DIMTSZ
 40
0.0
  9
$DIMTOL
 70
     0
  9
$DIMLIM
 70
     0
  9
$DIMTIH
 70
     0
  9
$DIMTOH
 70
     0
  9
$DIMSE1
 70
     0
  9
$DIMSE2
 70
     0
  9
$DIMTAD
 70
     1
  9
$DIMZIN
 70
     8
  9
$DIMBLK
  1

  9
$DIMASO
 70
     1
  9
$DIMSHO
 70
     1
  9
$DIMPOST
  1

  9
$DIMAPOST
  1
"
  9
$DIMALT
 70
     0
  9
$DIMALTD
 70
     2
  9
$DIMALTF
 40
0.0393701
  9
$DIMLFAC
 40
1.0
  9
$DIMTOFL
 70
     1
  9
$DIMTVP
 40
0.0
  9
$DIMTIX
 70
     0
  9
$DIMSOXD
 70
     0
  9
$DIMSAH
 70
     0
  9
$DIMBLK1
  1

  9
$DIMBLK2
  1

  9
$DIMSTYLE
  2
AM_ISO
  9
$DIMCLRD
 70
   256
  9
$DIMCLRE
 70
   256
  9
$DIMCLRT
 70
   256
  9
$DIMTFAC
 40
0.6
  9
$DIMGAP
 40
0.7
  9
$DIMJUST
 70
     0
  9
$DIMSD1
 70
     0
  9
$DIMSD2
 70
     0
  9
$DIMTOLJ
 70
     0
  9
$DIMTZIN
 70
     8
  9
$DIMALTZ
 70
     0
  9
$DIMALTTZ
 70
     0
  9
$DIMUPT
 70
     0
  9
$DIMDEC
 70
     1
  9
$DIMTDEC
 70
     8
  9
$DIMALTU
 70
     2
  9
$DIMALTTD
 70
     2
  9
$DIMTXSTY
  7
STANDARD
  9
$DIMAUNIT
 70
     0
  9
$DIMADEC
 70
     0
  9
$DIMALTRND
 40
0.0
  9
$DIMAZIN
 70
     2
  9
$DIMDSEP
 70
    46
  9
$DIMATFIT
 70
     3
  9
$DIMFRAC
 70
     0
  9
$DIMLDRBLK
  1

  9
$DIMLUNIT
 70
     2
  9
$DIMLWD
 70
    -1
  9
$DIMLWE
 70
    -1
  9
$DIMTMOVE
 70
     0
  9
$LUNITS
 70
     2
  9
$LUPREC
 70
     2
  9
$SKETCHINC
 40
1.0
  9
$FILLETRAD
 40
2.5
  9
$AUNITS
 70
     0
  9
$AUPREC
 70
     0
  9
$MENU
  1
.
  9
$ELEVATION
 40
0.0
  9
$PELEVATION
 40
0.0
  9
$THICKNESS
 40
0.0
  9
$LIMCHECK
 70
     0
  9
$CHAMFERA
 40
0.5
  9
$CHAMFERB
 40
0.5
  9
$CHAMFERC
 40
20.0
  9
$CHAMFERD
 40
0.0
  9
$SKPOLY
 70
     0
  9
$TDCREATE
 40
2453916.626557615
  9
$TDUCREATE
 40
2453916.293224283
  9
$TDUPDATE
 40
2456496.672907072
  9
$TDUUPDATE
 40
2456496.339573739
  9
$TDINDWG
 40
1.4735107060
  9
$TDUSRTIMER
 40
1.4735105208
  9
$USRTIMER
 70
     1
  9
$ANGBASE
 50
0.0
  9
$ANGDIR
 70
     0
  9
$PDMODE
 70
     0
  9
$PDSIZE
 40
0.0
  9
$PLINEWID
 40
0.0
  9
$SPLFRAME
 70
     0
  9
$SPLINETYPE
 70
     6
  9
$SPLINESEGS
 70
     8
  9
$HANDSEED
  5
8C65
  9
$SURFTAB1
 70
     6
  9
$SURFTAB2
 70
     6
  9
$SURFTYPE
 70
     6
  9
$SURFU
 70
     6
  9
$SURFV
 70
     6
  9
$UCSBASE
  2

  9
$UCSNAME
  2

  9
$UCSORG
 10
0.0
 20
0.0
 30
0.0
  9
$UCSXDIR
 10
1.0
 20
0.0
 30
0.0
  9
$UCSYDIR
 10
0.0
 20
1.0
 30
0.0
  9
$UCSORTHOREF
  2

  9
$UCSORTHOVIEW
 70
     0
  9
$UCSORGTOP
 10
0.0
 20
0.0
 30
0.0
  9
$UCSORGBOTTOM
 10
0.0
 20
0.0
 30
0.0
  9
$UCSORGLEFT
 10
0.0
 20
0.0
 30
0.0
  9
$UCSORGRIGHT
 10
0.0
 20
0.0
 30
0.0
  9
$UCSORGFRONT
 10
0.0
 20
0.0
 30
0.0
  9
$UCSORGBACK
 10
0.0
 20
0.0
 30
0.0
  9
$PUCSBASE
  2

  9
$PUCSNAME
  2

  9
$PUCSORG
 10
0.0
 20
0.0
 30
0.0
  9
$PUCSXDIR
 10
1.0
 20
0.0
 30
0.0
  9
$PUCSYDIR
 10
0.0
 20
1.0
 30
0.0
  9
$PUCSORTHOREF
  2

  9
$PUCSORTHOVIEW
 70
     0
  9
$PUCSORGTOP
 10
0.0
 20
0.0
 30
0.0
  9
$PUCSORGBOTTOM
 10
0.0
 20
0.0
 30
0.0
  9
$PUCSORGLEFT
 10
0.0
 20
0.0
 30
0.0
  9
$PUCSORGRIGHT
 10
0.0
 20
0.0
 30
0.0
  9
$PUCSORGFRONT
 10
0.0
 20
0.0
 30
0.0
  9
$PUCSORGBACK
 10
0.0
 20
0.0
 30
0.0
  9
$USERI1
 70
     0
  9
$USERI2
 70
     0
  9
$USERI3
 70
     0
  9
$USERI4
 70
     0
  9
$USERI5
 70
     0
  9
$USERR1
 40
0.0
  9
$USERR2
 40
0.0
  9
$USERR3
 40
0.0
  9
$USERR4
 40
0.0
  9
$USERR5
 40
0.0
  9
$WORLDVIEW
 70
     1
  9
$SHADEDGE
 70
     3
  9
$SHADEDIF
 70
    70
  9
$TILEMODE
 70
     1
  9
$MAXACTVP
 70
    64
  9
$PINSBASE
 10
0.0
 20
0.0
 30
0.0
  9
$PLIMCHECK
 70
     0
  9
$PEXTMIN
 10
1.000000000000000E+20
 20
1.000000000000000E+20
 30
1.000000000000000E+20
  9
$PEXTMAX
 10
-1.000000000000000E+20
 20
-1.000000000000000E+20
 30
-1.000000000000000E+20
  9
$PLIMMIN
 10
0.0
 20
0.0
  9
$PLIMMAX
 10
420.0
 20
297.0
  9
$UNITMODE
 70
     0
  9
$VISRETAIN
 70
     1
  9
$PLINEGEN
 70
     0
  9
$PSLTSCALE
 70
     1
  9
$TREEDEPTH
 70
  3020
  9
$CMLSTYLE
  2
Standard
  9
$CMLJUST
 70
     0
  9
$CMLSCALE
 40
20.0
  9
$PROXYGRAPHICS
 70
     1
  9
$MEASUREMENT
 70
     1
  9
$CELWEIGHT
370
    -1
  9
$ENDCAPS
280
     0
  9
$JOINSTYLE
280
     0
  9
$LWDISPLAY
290
     0
  9
$INSUNITS
 70
     4
  9
$HYPERLINKBASE
  1

  9
$STYLESHEET
  1
彩色出圖.ctb
  9
$XEDIT
290
     1
  9
$CEPSNTYPE
380
     0
  9
$PSTYLEMODE
290
     1
  9
$FINGERPRINTGUID
  2
{13FD0162-0574-45C5-AF42-8725A3412D43}
  9
$VERSIONGUID
  2
{DA7BD711-19E5-420B-B1F0-8EA0B9807EB3}
  9
$EXTNAMES
290
     1
  9
$PSVPSCALE
 40
0.0
  9
$OLESTARTUP
290
     0
  0
ENDSEC
  0
SECTION
  2
CLASSES
  0
CLASS
  1
ACDBDICTIONARYWDFLT
  2
AcDbDictionaryWithDefault
  3
ObjectDBX Classes
 90
        0
280
     0
281
     0
  0
CLASS
  1
ACDBPLACEHOLDER
  2
AcDbPlaceHolder
  3
ObjectDBX Classes
 90
        0
280
     0
281
     0
  0
CLASS
  1
LAYOUT
  2
AcDbLayout
  3
ObjectDBX Classes
 90
        0
280
     0
281
     0
  0
CLASS
  1
ACME_DOCUMENT
  2
AcMeDbDoc
  3
AcMeServices
 90
        0
280
     0
281
     0
  0
CLASS
  1
AMGSETTINGSOBJ
  2
AmgSettingsObj
  3
"AcadM|Product Description: AutoCAD Mechanical 2000|Company: Autodesk"
 90
        0
280
     0
281
     0
  0
CLASS
  1
ACMESCOPE
  2
AcMeScope
  3
AcMeServices
 90
        0
280
     0
281
     0
  0
CLASS
  1
ACMECOMMANDHISTORY
  2
AcMeCommandHistory
  3
AcMeServices
 90
        0
280
     0
281
     0
  0
CLASS
  1
ACIMSYSVARMAN
  2
AcImSysVarManager
  3
AcMeServices
 90
        0
280
     0
281
     0
  0
CLASS
  1
ACIMREALSYSVAR
  2
AcImRealSysVar
  3
AcMeServices
 90
        0
280
     0
281
     0
  0
CLASS
  1
ACIMINTSYSVAR
  2
AcImIntSysVar
  3
AcMeServices
 90
        0
280
     0
281
     0
  0
CLASS
  1
ACMEDRAWINGMAN
  2
AcMeDrawingMan
  3
AcMeServices
 90
        0
280
     0
281
     0
  0
CLASS
  1
ACMEVIEW
  2
AcMeView
  3
AcMeServices
 90
        0
280
     0
281
     0
  0
CLASS
  1
ACDBENTITYCACHE
  2
AcMeEntityCache
  3
AcMeServices
 90
        0
280
     0
281
     0
  0
CLASS
  1
GSMANAGER
  2
AcMeGSManager
  3
AcMeServices
 90
        0
280
     0
281
     0
  0
CLASS
  1
AMDTINTERNALREACTOR
  2
AmdtInternalReactor
  3
AcMeServices
 90
        0
280
     0
281
     0
  0
CLASS
  1
ACMESTATEMGR
  2
AcMeStateMgr
  3
AcMeServices
 90
        0
280
     0
281
     0
  0
CLASS
  1
ACGREFMASTER
  2
AcGrefMaster
  3
AcAttribServices
 90
        0
280
     0
281
     0
  0
CLASS
  1
ACME_DATABASE
  2
AcMeDbDatabase
  3
AcMeServices
 90
        0
280
     0
281
     0
  0
CLASS
  1
ACRFINSADJUSTERMGR
  2
AcRfInsAdjusterMgr
  3
AcMeServices
 90
        0
280
     0
281
     0
  0
CLASS
  1
ACGREFACADMASTER
  2
AcGrefacadMaster
  3
AcGrefServices
 90
        0
280
     0
281
     0
  0
CLASS
  1
AMIMASTER
  2
AmiMaster
  3
AmiServices
 90
        0
280
     0
281
     0
  0
CLASS
  1
ACMDATADICTIONARY
  2
AcmDataDictionary
  3
"AcmSymBB|Product Description: AutoCAD Mechanical 2004 DX|Company: Autodesk"
 90
        0
280
     0
281
     0
  0
CLASS
  1
ACMDATAENTRYBLOCK
  2
AcmDataEntryBlock
  3
"AcmSymBB|Product Description: AutoCAD Mechanical 2004 DX|Company: Autodesk"
 90
        0
280
     0
281
     0
  0
CLASS
  1
ACIMSTRSYSVAR
  2
AcImStrSysVar
  3
AcMeServices
 90
        0
280
     0
281
     0
  0
CLASS
  1
ACMSTANDARDISO
  2
AcmStandardISO
  3
"Amdt_StdImp|Product Description: AutoCAD Mechanical 2004 DX|Company: Autodesk"
 90
        0
280
     0
281
     0
  0
CLASS
  1
AMGOBJPROPCFG
  2
AmgObjPropCfg
  3
"AmgLay|Product Description: AutoCAD Mechanical 2000|Company: Autodesk"
 90
        1
280
     0
281
     0
  0
CLASS
  1
AMDTEDGESTANDARDISO
  2
AmdtEdgeStdISO
  3
"Amdt_StdImp|Product Description: AutoCAD Mechanical 2004 DX|Company: Autodesk"
 90
    32768
280
     0
281
     0
  0
CLASS
  1
ACMSURFSTANDARDISO
  2
AcmSurfTextStdISO
  3
"Amdt_StdImp|Product Description: AutoCAD Mechanical 2004 DX|Company: Autodesk"
 90
        0
280
     0
281
     0
  0
CLASS
  1
ACMFCFSTANDARDISO
  2
AcmFCFStdISO
  3
"Amdt_StdImp|Product Description: AutoCAD Mechanical 2004 DX|Company: Autodesk"
 90
        0
280
     0
281
     0
  0
CLASS
  1
ACMWELDSTANDARDISO
  2
AcmWeldingStdISO
  3
"Amdt_StdImp|Product Description: AutoCAD Mechanical 2004 DX|Company: Autodesk"
 90
        0
280
     0
281
     0
  0
CLASS
  1
ACMIDSTANDARDISO
  2
AcmIdStdISO
  3
"Amdt_StdImp|Product Description: AutoCAD Mechanical 2004 DX|Company: Autodesk"
 90
        0
280
     0
281
     0
  0
CLASS
  1
ACMDATUMSTANDARDISO
  2
AcmDatumStdISO
  3
"Amdt_StdImp|Product Description: AutoCAD Mechanical 2004 DX|Company: Autodesk"
 90
        0
280
     0
281
     0
  0
CLASS
  1
ACMBOMSTANDARDISO
  2
AcmBOMStdISO
  3
"Amdt_StdImp|Product Description: AutoCAD Mechanical 2004 DX|Company: Autodesk"
 90
        0
280
     0
281
     0
  0
CLASS
  1
ACMDETAILSTANDARDISO
  2
AmdtDetailSymStdISO
  3
"Amdt_StdImp|Product Description: AutoCAD Mechanical 2004 DX|Company: Autodesk"
 90
        0
280
     0
281
     0
  0
CLASS
  1
ACMSECTIONSTANDARDISO
  2
AmdtSectionSymStdISO
  3
"Amdt_StdImp|Product Description: AutoCAD Mechanical 2004 DX|Company: Autodesk"
 90
        0
280
     0
281
     0
  0
CLASS
  1
ACMCENTERLINESTANDARDISO
  2
AmdtCenterLineStdISO
  3
"Amdt_StdImp|Product Description: AutoCAD Mechanical 2004 DX|Company: Autodesk"
 90
        0
280
     0
281
     0
  0
CLASS
  1
ACMNOTESTANDARDISO
  2
AmdtNoteStdISO
  3
"Amdt_StdImp|Product Description: AutoCAD Mechanical 2004 DX|Company: Autodesk"
 90
        0
280
     0
281
     0
  0
CLASS
  1
ACAMGLAYSTD
  2
AcAmgLayStd
  3
"AcAmgLayStd|Product Description: AutoCAD Mechanical 2000|Company: Autodesk"
 90
        0
280
     0
281
     0
  0
CLASS
  1
ACAMGDIMSTD
  2
AcAmgDimStd
  3
"AcAmgDimStd|Product Description: AutoCAD Mechanical 2000|Company: Autodesk"
 90
        0
280
     0
281
     0
  0
CLASS
  1
ACAMGHOLECHARTSTDISO
  2
AcAmgHoleChartStdISO
  3
ACMSYMBB_MODULE_NAME
 90
        0
280
     0
281
     0
  0
CLASS
  1
ACAMGTITLESTD
  2
AcAmgTitleStd
  3
"TITLEAPP"
 90
        0
280
     0
281
     0
  0
CLASS
  1
LAYER_INDEX
  2
AcDbLayerIndex
  3
ObjectDBX Classes
 90
        0
280
     0
281
     0
  0
CLASS
  1
IDBUFFER
  2
AcDbIdBuffer
  3
ObjectDBX Classes
 90
        0
280
     0
281
     0
  0
CLASS
  1
DICTIONARYVAR
  2
AcDbDictionaryVar
  3
ObjectDBX Classes
 90
        0
280
     0
281
     0
  0
CLASS
  1
AM_DRAWING_MGR
  2
AcDmDwgMgr
  3
AcMechDwgViewMgmt
 90
        0
280
     0
281
     0
  0
CLASS
  1
AM_DWG_DOCUMENT
  2
AcDmDwgDocument
  3
AcMechDwgViewMgmt
 90
        0
280
     0
281
     0
  0
CLASS
  1
AM_DWG_SHEET
  2
AcDmSheet
  3
AcMechDwgViewMgmt
 90
        0
280
     0
281
     0
  0
CLASS
  1
AM_VIEWDIMPARMAP
  2
AcDmViewDimParMap
  3
AcMechDwgViewMgmt
 90
        0
280
     0
281
     0
  0
CLASS
  1
AM_DWGMGR_NAME
  2
AcDmDwgMgrName
  3
AcMechDwgViewMgmt
 90
        0
280
     0
281
     0
  0
CLASS
  1
AMDTMENUSTATEMGR
  2
AmdtMenuStateMgr
  3
McadcomServices
 90
        0
280
     0
281
     0
  0
CLASS
  1
AMDTMCOMMENUSTATE
  2
AmdtMcomMenuState
  3
McadcomServices
 90
        0
280
     0
281
     0
  0
CLASS
  1
MAPIAMMOUDLE
  2
MApiAmModule
  3
MApiAmServices
 90
        0
280
     0
281
     0
  0
CLASS
  1
AMDTADMENUSTATE
  2
AmdtAdMenuState
  3
DesignerServices
 90
        0
280
     0
281
     0
  0
CLASS
  1
ADAPPL
  2
AcAdAppl
  3
DesignerServices
 90
        0
280
     0
281
     0
  0
CLASS
  1
DEPMGR
  2
AcAdDepMgr
  3
DesignerServices
 90
        0
280
     0
281
     0
  0
CLASS
  1
PARAMMGR
  2
AcAdParamMgr
  3
DesignerServices
 90
        0
280
     0
281
     0
  0
CLASS
  1
PARAMSCOPE
  2
AcAdParamScope
  3
DesignerServices
 90
        0
280
     0
281
     0
  0
CLASS
  1
NAMEDAPPL
  2
AcAdNamedAppl
  3
DesignerServices
 90
        0
280
     0
281
     0
  0
CLASS
  1
AMDTDMMENUSTATE
  2
AmdtDmMenuState
  3
AcMechDwgViewMgmt
 90
        0
280
     0
281
     0
  0
CLASS
  1
AMDTAMMENUSTATE
  2
AmdtAmMenuState
  3
DesignerAssemblies
 90
        0
280
     0
281
     0
  0
CLASS
  1
ACAMPROJECT
  2
AcAmProject
  3
DesignerAssemblies
 90
        0
280
     0
281
     0
  0
CLASS
  1
ACAMGRCOMPDEF
  2
AcAmGrCompDef
  3
DesignerAssemblies
 90
        0
280
     0
281
     0
  0
CLASS
  1
ACCMCONTEXT
  2
AcCmContext
  3
DesignerAssemblies
 90
        0
280
     0
281
     0
  0
CLASS
  1
ACAMCOMPDEF
  2
AcAmCompDef
  3
DesignerAssemblies
 90
        0
280
     0
281
     0
  0
CLASS
  1
ACAMCOMPDEFMGR
  2
AcAmCompDefMgr
  3
DesignerAssemblies
 90
        0
280
     0
281
     0
  0
CLASS
  1
AMCONTEXTMGR
  2
AcAmContextMgr
  3
DesignerAssemblies
 90
        0
280
     0
281
     0
  0
CLASS
  1
ACAMCONTEXTMODELER
  2
AcAmContextModeler
  3
DesignerAssemblies
 90
        0
280
     0
281
     0
  0
CLASS
  1
ACMTHREADLINESTANDARDISO
  2
AmdtThreadLineStdISO
  3
"Amdt_StdImp|Product Description: AutoCAD Mechanical 2004 DX|Company: Autodesk"
 90
        0
280
     0
281
     0
  0
CLASS
  1
CATALOGSTATE
  2
AcAmCatalogState
  3
DesignerAssemblies
 90
        0
280
     0
281
     0
  0
CLASS
  1
ACAMGRCOMPDEFSET
  2
AcAmGrCompDefSet
  3
DesignerAssemblies
 90
        0
280
     0
281
     0
  0
CLASS
  1
AMDTBROWSERDBTAB
  2
AmdtBrowserDbTab
  3
McadcomServices
 90
        0
280
     0
281
     0
  0
CLASS
  1
CBROWSERAPPOBJECT
  2
CBrowserAppObject
  3
McadcomServices
 90
        0
280
     0
281
     0
  0
CLASS
  1
DM_PLACEHOLDER
  2
AcDmSelsetPlaceholder
  3
AcMechDwgViewMgmt
 90
        0
280
     0
281
     0
  0
CLASS
  1
TABLESTYLE
  2
AcDbTableStyle
  3
ObjectDBX Classes
 90
     2047
280
     0
281
     0
  0
CLASS
  1
VAACXREFPANELOBJECT
  2
VaAcXREFPanelObject
  3
VAAC_ADDIN
 90
    32768
280
     0
281
     0
  0
CLASS
  1
VAACIMAGEINVENTORY
  2
VaAcImageInventory
  3
VAAC_ADDIN
 90
    32768
280
     0
281
     0
  0
CLASS
  1
AMDTNOTETEMPLATEDB
  2
AmdtNoteTemplateDB
  3
AMDT_STDIMP_MODULE_NAME
 90
        0
280
     0
281
     0
  0
CLASS
  1
ACMBOM
  2
AcmBom
  3
"AcmSymBB|Product Description: AutoCAD Mechanical 2004 DX|Company: Autodesk"
 90
    32768
280
     0
281
     0
  0
CLASS
  1
AMDTFORMULAUPDATEDISPATCHER
  2
AmdtFormulaUpdateDispatcher
  3
AcMeServices
 90
    32768
280
     0
281
     0
  0
CLASS
  1
ACMPARTLIST
  2
AcmPartList
  3
"AcmSymBB|Product Description: AutoCAD Mechanical 2004 DX|Company: Autodesk"
 90
    33791
280
     0
281
     1
  0
CLASS
  1
ACAMGFILTERDAT
  2
AcAmgFilterDat
  3
"AcadM|Product Description: AutoCAD Mechanical 2000|Company: Autodesk"
 90
    32768
280
     0
281
     0
  0
CLASS
  1
DIMASSOC
  2
AcDbDimAssoc
  3
"AcDbDimAssoc|Product Desc:     AcDim ARX App For Dimension|Company:          Autodesk, Inc.|WEB Address:      www.autodesk.com"
 90
        0
280
     0
281
     0
  0
CLASS
  1
STDPART2D
  2
AmgStdPart
  3
"AmgStdPart|Product Description: AutoCAD Mechanical 2000|Company: Autodesk"
 90
    33791
280
     0
281
     1
  0
CLASS
  1
ACAMSTDPCOMPDEF
  2
AcAmStdpCompDef
  3
DesignerAssemblies
 90
    32768
280
     0
281
     0
  0
CLASS
  1
ACRFATTGENMGR
  2
AcRfAttGeneralMgr
  3
AcAttribServices
 90
    32768
280
     0
281
     0
  0
CLASS
  1
ACRFOBJATTMGR
  2
AcRfObjAttGroupMgr
  3
AcAttribServices
 90
    32768
280
     0
281
     0
  0
CLASS
  1
ACRFMCADAPIATTHOLDER
  2
AcRfMCADAPIAttHolder
  3
AcAttribServices
 90
    32768
280
     0
281
     0
  0
CLASS
  1
AMDTSYSATTR
  2
AmdtSystemAttribute
  3
AcAttribServices
 90
    32768
280
     0
281
     0
  0
CLASS
  1
ACAMCOMP
  2
AcAmComp
  3
DesignerAssemblies
 90
    32768
280
     0
281
     0
  0
CLASS
  1
AC_AM_STDP_VIEW_DEF
  2
AcAmStdpViewDef
  3
DesignerAssemblies
 90
    32768
280
     0
281
     0
  0
CLASS
  1
AC_AM_MVD_DEP_MGR
  2
AcAmMVDdepMgr
  3
DesignerAssemblies
 90
    32768
280
     0
281
     0
  0
CLASS
  1
AC_AM_MASTER_VIEW_DEF
  2
AcAmMasterViewDef
  3
DesignerAssemblies
 90
    32768
280
     0
281
     0
  0
CLASS
  1
AC_AM_DIRTY_NODES
  2
AcAmDirtyNodes
  3
DesignerAssemblies
 90
    32768
280
     0
281
     0
  0
CLASS
  1
AC_AM_MAPPER_CACHE
  2
AcAmMapperCache
  3
DesignerAssemblies
 90
    32768
280
     0
281
     0
  0
CLASS
  1
ACAMMVDBACKUPOBJECT
  2
AcAmMVDBackupObject
  3
DesignerAssemblies
 90
    32768
280
     0
281
     0
  0
CLASS
  1
AC_AM_COMP_VIEW_INST
  2
AcAmCompView
  3
DesignerAssemblies
 90
    32768
280
     0
281
     0
  0
CLASS
  1
AC_AM_2D_XREF_MGR
  2
AcAmXrefMgr2d
  3
DesignerAssemblies
 90
    32768
280
     0
281
     0
  0
CLASS
  1
SORTENTSTABLE
  2
AcDbSortentsTable
  3
ObjectDBX Classes
 90
        0
280
     0
281
     0
  0
CLASS
  1
ACDBCIRCARCRES
  2
AcDbCircArcRes
  3
AcGrefServices
 90
    32768
280
     0
281
     0
  0
CLASS
  1
AMDTNOTE
  2
AmdtNote
  3
"AcmSymBB|Product Description: AutoCAD Mechanical 2004 DX|Company: Autodesk"
 90
    33791
280
     0
281
     1
  0
CLASS
  1
ACDBLINERES
  2
AcDbLineRes
  3
AcGrefServices
 90
    32768
280
     0
281
     0
  0
CLASS
  1
ACMSTANDARDANSI
  2
AcmStandardANSI
  3
"Amdt_StdImp|Product Description: AutoCAD Mechanical 2004 DX|Company: Autodesk"
 90
    32768
280
     0
281
     0
  0
CLASS
  1
ACMSURFSTANDARDANSI
  2
AcmSurfTextStdANSI
  3
"Amdt_StdImp|Product Description: AutoCAD Mechanical 2004 DX|Company: Autodesk"
 90
    32768
280
     0
281
     0
  0
CLASS
  1
ACMFCFSTANDARDANSI
  2
AcmFCFStdANSI
  3
"Amdt_StdImp|Product Description: AutoCAD Mechanical 2004 DX|Company: Autodesk"
 90
    32768
280
     0
281
     0
  0
CLASS
  1
ACMWELDSTANDARDANSI
  2
AcmWeldingStdANSI
  3
"Amdt_StdImp|Product Description: AutoCAD Mechanical 2004 DX|Company: Autodesk"
 90
    32768
280
     0
281
     0
  0
CLASS
  1
ACMIDSTANDARDANSI
  2
AcmIdStdANSI
  3
"Amdt_StdImp|Product Description: AutoCAD Mechanical 2004 DX|Company: Autodesk"
 90
    32768
280
     0
281
     0
  0
CLASS
  1
ACMDATUMSTANDARDANSI
  2
AcmDatumStdANSI
  3
"Amdt_StdImp|Product Description: AutoCAD Mechanical 2004 DX|Company: Autodesk"
 90
    32768
280
     0
281
     0
  0
CLASS
  1
ACMBOMSTANDARDANSI
  2
AcmBOMStdANSI
  3
"Amdt_StdImp|Product Description: AutoCAD Mechanical 2004 DX|Company: Autodesk"
 90
    32768
280
     0
281
     0
  0
CLASS
  1
ACMDETAILSTANDARDANSI
  2
AmdtDetailSymStdANSI
  3
"Amdt_StdImp|Product Description: AutoCAD Mechanical 2004 DX|Company: Autodesk"
 90
    32768
280
     0
281
     0
  0
CLASS
  1
ACMSECTIONSTANDARDANSI
  2
AmdtSectionSymStdANSI
  3
"Amdt_StdImp|Product Description: AutoCAD Mechanical 2004 DX|Company: Autodesk"
 90
    32768
280
     0
281
     0
  0
CLASS
  1
ACMCENTERLINESTANDARDANSI
  2
AmdtCenterLineStdANSI
  3
"Amdt_StdImp|Product Description: AutoCAD Mechanical 2004 DX|Company: Autodesk"
 90
    32768
280
     0
281
     0
  0
CLASS
  1
ACMTHREADLINESTANDARDANSI
  2
AmdtThreadLineStdANSI
  3
"Amdt_StdImp|Product Description: AutoCAD Mechanical 2004 DX|Company: Autodesk"
 90
    32768
280
     0
281
     0
  0
CLASS
  1
ACMNOTESTANDARDANSI
  2
AmdtNoteStdANSI
  3
"Amdt_StdImp|Product Description: AutoCAD Mechanical 2004 DX|Company: Autodesk"
 90
    32768
280
     0
281
     0
  0
CLASS
  1
ACAMGHOLECHARTSTDANSI
  2
AcAmgHoleChartStdANSI
  3
ACMSYMBB_MODULE_NAME
 90
    32768
280
     0
281
     0
  0
CLASS
  1
AC_AM_HIDE_SITUATION
  2
AcAmHideSituation
  3
DesignerAssemblies
 90
    32768
280
     0
281
     0
  0
CLASS
  1
AMDTEDGESTANDARDISO13715
  2
AmdtEdgeStdISO13715
  3
"Amdt_StdImp|Product Description: AutoCAD Mechanical 2004 DX|Company: Autodesk"
 90
        0
280
     0
281
     0
  0
CLASS
  1
ASAPP
  2
AcAsAppObject
  3
AutoSurfServices
 90
        0
280
     0
281
     0
  0
CLASS
  1
IM_STATIC_MAN
  2
AcImStaticVarManager
  3
AcMeServices
 90
        0
280
     0
281
     0
  0
CLASS
  1
ACIMDBLSTATICVAR
  2
AcImDblStaticVar
  3
AcMeServices
 90
        0
280
     0
281
     0
  0
CLASS
  1
ACIMSTRSTATICVAR
  2
AcImStrStaticVar
  3
AcMeServices
 90
        0
280
     0
281
     0
  0
CLASS
  1
ACIMINTSTATICVAR
  2
AcImIntStaticVar
  3
AcMeServices
 90
        0
280
     0
281
     0
  0
CLASS
  1
ACASGREFMASTER
  2
AcAsGrefMaster
  3
AutoSurfResolverServices
 90
        0
280
     0
281
     0
  0
CLASS
  1
ACADGREFMODULE
  2
AcAdGrefModule
  3
AdGrefServices
 90
        0
280
     0
281
     0
  0
CLASS
  1
AMDTMAPISURFMOUDULE
  2
AmdtMApiSurfModule
  3
MApiSurfServices
 90
        0
280
     0
281
     0
  0
CLASS
  1
MAPIADMODULE
  2
MApiAdModule
  3
MApiAdServices
 90
        0
280
     0
281
     0
  0
ENDSEC
  0
SECTION
  2
TABLES
  0
TABLE
  2
VPORT
  5
8
330
0
100
AcDbSymbolTable
 70
    30
  0
VPORT
  5
8C5C
330
8
100
AcDbSymbolTableRecord
100
AcDbViewportTableRecord
  2
*Active
 70
     0
 10
0.0
 20
0.0
 11
1.0
 21
1.0
 12
-248.4655744670591
 22
-50.94147683487529
 13
0.0
 23
0.0
 14
2.5
 24
2.5
 15
10.0
 25
10.0
 16
0.0
 26
0.0
 36
1.0
 17
658.0750513642964
 27
1283.112729687819
 37
0.0
 40
351.1510025016726
 41
1.263157894736842
 42
50.0
 43
0.0
 44
0.0
 50
0.0
 51
0.0
 71
     0
 72
  2000
 73
     1
 74
     3
 75
     0
 76
     0
 77
     0
 78
     0
281
     0
 65
     0
110
0.0
120
0.0
130
0.0
111
1.0
121
0.0
131
0.0
112
0.0
122
1.0
132
0.0
 79
     0
146
0.0
  0
ENDTAB
  0
TABLE
  2
LTYPE
  5
5
330
0
100
AcDbSymbolTable
 70
    16
  0
LTYPE
  5
14
330
5
100
AcDbSymbolTableRecord
100
AcDbLinetypeTableRecord
  2
ByBlock
 70
     0
  3

 72
    65
 73
     0
 40
0.0
  0
LTYPE
  5
15
330
5
100
AcDbSymbolTableRecord
100
AcDbLinetypeTableRecord
  2
ByLayer
 70
     0
  3

 72
    65
 73
     0
 40
0.0
  0
LTYPE
  5
16
330
5
100
AcDbSymbolTableRecord
100
AcDbLinetypeTableRecord
  2
Continuous
 70
     0
  3
Solid line
 72
    65
 73
     0
 40
0.0
  0
LTYPE
  5
64
330
5
100
AcDbSymbolTableRecord
100
AcDbLinetypeTableRecord
  2
AM_ISO02W050
 70
     0
  3
__ __ __ __ __ __ __ __ __ __ __ __ __ __ __
 72
    65
 73
     2
 40
7.5
 49
6.0
 74
     0
 49
-1.5
 74
     0
  0
LTYPE
  5
65
330
5
100
AcDbSymbolTableRecord
100
AcDbLinetypeTableRecord
  2
AM_ISO08W050
 70
     0
  3
____ . ____ . ____ . ____ . ____ . ____ . ____
 72
    65
 73
     4
 40
18.0
 49
12.0
 74
     0
 49
-1.5
 74
     0
 49
3.0
 74
     0
 49
-1.5
 74
     0
  0
LTYPE
  5
66
330
5
100
AcDbSymbolTableRecord
100
AcDbLinetypeTableRecord
  2
AM_ISO09W050
 70
     0
  3
_____ . . _____ . . _____ . . ____ .. ____
 72
    65
 73
     6
 40
22.5
 49
12.0
 74
     0
 49
-1.5
 74
     0
 49
3.0
 74
     0
 49
-1.5
 74
     0
 49
3.0
 74
     0
 49
-1.5
 74
     0
  0
LTYPE
  5
67
330
5
100
AcDbSymbolTableRecord
100
AcDbLinetypeTableRecord
  2
Amconstr
 70
     0
  3
_______________________
 72
    65
 73
     2
 40
9999.0
 49
9999.0
 74
     0
 49
0.0
 74
     0
  0
LTYPE
  5
68
330
5
100
AcDbSymbolTableRecord
100
AcDbLinetypeTableRecord
  2
AM_ISO08W050x2
 70
     0
  3
__ . __ . __ . __ . __ . __
 72
    65
 73
     4
 40
9.0
 49
6.0
 74
     0
 49
-0.75
 74
     0
 49
1.5
 74
     0
 49
-0.75
 74
     0
  0
LTYPE
  5
69
330
5
100
AcDbSymbolTableRecord
100
AcDbLinetypeTableRecord
  2
AM_ISO02W050x2
 70
     0
  3
 _ _ _ _ _ _ _ _ _ _ _ _
 72
    65
 73
     2
 40
3.75
 49
3.0
 74
     0
 49
-0.75
 74
     0
  0
LTYPE
  5
6C
330
5
100
AcDbSymbolTableRecord
100
AcDbLinetypeTableRecord
  2
Amzigzag
 70
     0
  3
/\/-/\/-/\/-/\/-/\/-/\/
 72
    65
 73
     2
 40
11.0001
 49
0.0001
 74
     4
 75
   135
340
6B
 46
0.04
 50
0.0
 44
0.0
 45
0.0
 49
-11.0
 74
     0
  0
LTYPE
  5
7A
330
5
100
AcDbSymbolTableRecord
100
AcDbLinetypeTableRecord
  2
ACISOWELD
 70
     0
  3
_ _ _ _ _
 72
    65
 73
     2
 40
2.0
 49
2.0
 74
     0
 49
-1.0
 74
     0
  0
LTYPE
  5
7B
330
5
100
AcDbSymbolTableRecord
100
AcDbLinetypeTableRecord
  2
ACISOTGB
 70
     0
  3
__ . . __ . .
 72
    65
 73
     6
 40
9.0
 49
4.0
 74
     0
 49
-1.0
 74
     0
 49
1.0
 74
     0
 49
-1.0
 74
     0
 49
1.0
 74
     0
 49
-1.0
 74
     0
  0
LTYPE
  5
7C
330
5
100
AcDbSymbolTableRecord
100
AcDbLinetypeTableRecord
  2
ACISOTGL
 70
     0
  3
_ _ _ _ _
 72
    65
 73
     2
 40
3.0
 49
2.0
 74
     0
 49
-1.0
 74
     0
  0
LTYPE
  5
7E
330
5
100
AcDbSymbolTableRecord
100
AcDbLinetypeTableRecord
  2
CENTER
 70
     0
  3
__ . __
 72
    65
 73
     4
 40
7.0
 49
4.0
 74
     0
 49
-1.0
 74
     0
 49
1.0
 74
     0
 49
-1.0
 74
     0
  0
LTYPE
  5
D8
330
5
100
AcDbSymbolTableRecord
100
AcDbLinetypeTableRecord
  2
HIDDEN
 70
     0
  3
Hidden __ __ __ __ __ __ __ __ __ __ __ __ __ _
 72
    65
 73
     2
 40
9.524999999999998
 49
6.349999999999999
 74
     0
 49
-3.174999999999999
 74
     0
  0
LTYPE
  5
D9
330
5
100
AcDbSymbolTableRecord
100
AcDbLinetypeTableRecord
  2
PHANTOM2
 70
     0
  3
Phantom (.5x) ___ _ _ ___ _ _ ___ _ _ ___ _ _
 72
    65
 73
     6
 40
31.75
 49
15.875
 74
     0
 49
-3.174999999999999
 74
     0
 49
3.174999999999999
 74
     0
 49
-3.174999999999999
 74
     0
 49
3.174999999999999
 74
     0
 49
-3.174999999999999
 74
     0
  0
LTYPE
  5
88B1
330
5
100
AcDbSymbolTableRecord
100
AcDbLinetypeTableRecord
  2
ASULTYPE
 70
     0
  3
實線
 72
    65
 73
     2
 40
3.0
 49
2.5
 74
     0
 49
0.5
 74
     0
  0
LTYPE
  5
88B2
330
5
100
AcDbSymbolTableRecord
100
AcDbLinetypeTableRecord
  2
ASVLTYPE
 70
     0
  3
__ __ __ __ __ __ __ __ __ __ __ __ __ __ __ __ __ __ __ __ __
 72
    65
 73
     2
 40
0.75
 49
0.5
 74
     0
 49
-0.25
 74
     0
  0
ENDTAB
  0
TABLE
  2
LAYER
  5
2
102
{ACAD_XDICTIONARY
360
3F9
102
}
330
0
100
AcDbSymbolTable
 70
    10
  0
LAYER
  5
10
330
2
100
AcDbSymbolTableRecord
100
AcDbLayerTableRecord
  2
0
 70
     0
 62
     7
  6
Continuous
370
    -3
390
F
  0
LAYER
  5
A47
330
2
100
AcDbSymbolTableRecord
100
AcDbLayerTableRecord
  2
AM_VIS
 70
     0
 62
     7
  6
Continuous
370
    50
390
F
  0
LAYER
  5
A48
330
2
100
AcDbSymbolTableRecord
100
AcDbLayerTableRecord
  2
AM_7
 70
     0
 62
     1
  6
AM_ISO08W050
370
    25
390
F
  0
LAYER
  5
A49
330
2
100
AcDbSymbolTableRecord
100
AcDbLayerTableRecord
  2
AM_4
 70
     0
 62
     3
  6
Continuous
370
    25
390
F
  0
LAYER
  5
11DD
330
2
100
AcDbSymbolTableRecord
100
AcDbLayerTableRecord
  2
AM_0
 70
     0
 62
     7
  6
Continuous
370
    50
390
F
  0
LAYER
  5
1369
330
2
100
AcDbSymbolTableRecord
100
AcDbLayerTableRecord
  2
AM_5
 70
     0
 62
     5
  6
Continuous
370
    25
390
F
  0
LAYER
  5
1379
330
2
100
AcDbSymbolTableRecord
100
AcDbLayerTableRecord
  2
Defpoints
 70
     0
 62
     7
  6
Continuous
290
     0
370
    -3
390
F
  0
LAYER
  5
1FFE
330
2
100
AcDbSymbolTableRecord
100
AcDbLayerTableRecord
  2
BORDER
 70
     0
 62
     7
  6
Continuous
370
    -3
390
F
  0
LAYER
  5
6F80
330
2
100
AcDbSymbolTableRecord
100
AcDbLayerTableRecord
  2
LOGO
 70
     0
 62
     7
  6
Continuous
370
    -3
390
F
  0
LAYER
  5
7143
330
2
100
AcDbSymbolTableRecord
100
AcDbLayerTableRecord
  2
BOR
 70
     0
 62
     7
  6
Continuous
370
    -3
390
F
  0
ENDTAB
  0
TABLE
  2
STYLE
  5
3
330
0
100
AcDbSymbolTable
 70
     6
  0
STYLE
  5
11
330
3
100
AcDbSymbolTableRecord
100
AcDbTextStyleTableRecord
  2
STANDARD
 70
     0
 40
0.0
 41
1.0
 50
0.0
 71
     0
 42
3.0
  3
ISOCP.SHX
  4
CHINESET.SHX
  0
STYLE
  5
6B
330
3
100
AcDbSymbolTableRecord
100
AcDbTextStyleTableRecord
  2

 70
     1
 40
0.0
 41
1.0
 50
0.0
 71
     0
 42
2.5
  3
ltypeshp.shx
  4

  0
STYLE
  5
6D
330
3
100
AcDbSymbolTableRecord
100
AcDbTextStyleTableRecord
  2
ACISOTS
 70
     0
 40
1.0
 41
1.0
 50
0.0
 71
     0
 42
1.0
  3
isocp.shx
  4
chineset.shx
  0
STYLE
  5
79
330
3
100
AcDbSymbolTableRecord
100
AcDbTextStyleTableRecord
  2
ACISOGDT
 70
     0
 40
0.0
 41
1.0
 50
0.0
 71
     0
 42
2.5
  3
amgdt.shx
  4
chineset.shx
  0
STYLE
  5
6F81
330
3
100
AcDbSymbolTableRecord
100
AcDbTextStyleTableRecord
  2
CHINESET
 70
     0
 40
0.0
 41
1.0
 50
0.0
 71
     0
 42
3.0
  3
simplex.shx
  4
CHINESET.SHX
  0
ENDTAB
  0
TABLE
  2
VIEW
  5
6
330
0
100
AcDbSymbolTable
 70
     0
  0
ENDTAB
  0
TABLE
  2
UCS
  5
7
330
0
100
AcDbSymbolTable
 70
     0
  0
ENDTAB
  0
TABLE
  2
APPID
  5
9
330
0
100
AcDbSymbolTable
 70
    48
  0
APPID
  5
12
330
9
100
AcDbSymbolTableRecord
100
AcDbRegAppTableRecord
  2
ACAD
 70
     0
  0
APPID
  5
46
330
9
100
AcDbSymbolTableRecord
100
AcDbRegAppTableRecord
  2
MCAD_NO_VIS
 70
     0
  0
APPID
  5
47
330
9
100
AcDbSymbolTableRecord
100
AcDbRegAppTableRecord
  2
ACAD_TEMP_GRAPHIC
 70
     0
  0
APPID
  5
58
330
9
100
AcDbSymbolTableRecord
100
AcDbRegAppTableRecord
  2
ACATTRIBSERVICES
 70
     0
  0
APPID
  5
EE
330
9
100
AcDbSymbolTableRecord
100
AcDbRegAppTableRecord
  2
AD_DRAW
 70
     0
  0
APPID
  5
10C
330
9
100
AcDbSymbolTableRecord
100
AcDbRegAppTableRecord
  2
DESIGNERASSEMBLIES
 70
     0
  0
APPID
  5
111
330
9
100
AcDbSymbolTableRecord
100
AcDbRegAppTableRecord
  2
ACADM_DIM_EDIT
 70
     0
  0
APPID
  5
112
330
9
100
AcDbSymbolTableRecord
100
AcDbRegAppTableRecord
  2
AMDT_DM_ADJ
 70
     0
  0
APPID
  5
22C
330
9
100
AcDbSymbolTableRecord
100
AcDbRegAppTableRecord
  2
ACAD_DSTYLE_DIMTEXT_FILL
 70
     0
  0
APPID
  5
452
330
9
100
AcDbSymbolTableRecord
100
AcDbRegAppTableRecord
  2
GENIUS_GENOENT_13
 70
     0
  0
APPID
  5
453
330
9
100
AcDbSymbolTableRecord
100
AcDbRegAppTableRecord
  2
GENIUS_GENOBJ-N-CRS_13
 70
     0
  0
APPID
  5
454
330
9
100
AcDbSymbolTableRecord
100
AcDbRegAppTableRecord
  2
GENIUS_GENOLIS_13
 70
     0
  0
APPID
  5
455
330
9
100
AcDbSymbolTableRecord
100
AcDbRegAppTableRecord
  2
GENIUS_GENODEF_13
 70
     0
  0
APPID
  5
456
330
9
100
AcDbSymbolTableRecord
100
AcDbRegAppTableRecord
  2
GENIUS_GENOREF_13
 70
     0
  0
APPID
  5
6F3
330
9
100
AcDbSymbolTableRecord
100
AcDbRegAppTableRecord
  2
ACAD_PSEXT
 70
     0
  0
APPID
  5
808
330
9
100
AcDbSymbolTableRecord
100
AcDbRegAppTableRecord
  2
GENIUS_GENDTOL_13
 70
     0
  0
APPID
  5
11E4
330
9
100
AcDbSymbolTableRecord
100
AcDbRegAppTableRecord
  2
GEVID1151564621
 70
     0
  0
APPID
  5
11E5
330
9
100
AcDbSymbolTableRecord
100
AcDbRegAppTableRecord
  2
GEVDC
 70
     0
  0
APPID
  5
11E6
330
9
100
AcDbSymbolTableRecord
100
AcDbRegAppTableRecord
  2
GEVRADREF
 70
     0
  0
APPID
  5
11EF
330
9
100
AcDbSymbolTableRecord
100
AcDbRegAppTableRecord
  2
AMG_2DHIDE
 70
     0
  0
APPID
  5
11F0
330
9
100
AcDbSymbolTableRecord
100
AcDbRegAppTableRecord
  2
AMG_2DSTRUCT_BTR
 70
     0
  0
APPID
  5
1201
330
9
100
AcDbSymbolTableRecord
100
AcDbRegAppTableRecord
  2
ACADM_2DVIEW_IGN_NOTIFY
 70
     0
  0
APPID
  5
1231
330
9
100
AcDbSymbolTableRecord
100
AcDbRegAppTableRecord
  2
GEVID1151564622
 70
     0
  0
APPID
  5
1262
330
9
100
AcDbSymbolTableRecord
100
AcDbRegAppTableRecord
  2
GEVID1151564623
 70
     0
  0
APPID
  5
1860
330
9
100
AcDbSymbolTableRecord
100
AcDbRegAppTableRecord
  2
ACAD_DIMASSOC_DIMLFAC
 70
     0
  0
APPID
  5
1861
330
9
100
AcDbSymbolTableRecord
100
AcDbRegAppTableRecord
  2
ACAD_DIMASSOC_CALC_DIMLFAC
 70
     0
  0
APPID
  5
1862
330
9
100
AcDbSymbolTableRecord
100
AcDbRegAppTableRecord
  2
ACAD_DIMASSOC_OVERRIDDEN_DIMLFAC
 70
     0
  0
APPID
  5
20E5
330
9
100
AcDbSymbolTableRecord
100
AcDbRegAppTableRecord
  2
GEVID1151625661
 70
     0
  0
APPID
  5
2115
330
9
100
AcDbSymbolTableRecord
100
AcDbRegAppTableRecord
  2
GEVID1151625662
 70
     0
  0
APPID
  5
2131
330
9
100
AcDbSymbolTableRecord
100
AcDbRegAppTableRecord
  2
GEVID1151625663
 70
     0
  0
APPID
  5
2132
330
9
100
AcDbSymbolTableRecord
100
AcDbRegAppTableRecord
  2
GEVMK
 70
     0
  0
APPID
  5
2C49
330
9
100
AcDbSymbolTableRecord
100
AcDbRegAppTableRecord
  2
GENIUS_GENOBJ-N-CEN_13
 70
     0
  0
APPID
  5
2C4A
330
9
100
AcDbSymbolTableRecord
100
AcDbRegAppTableRecord
  2
GENIUS_GENCEN_19
 70
     0
  0
APPID
  5
2F66
330
9
100
AcDbSymbolTableRecord
100
AcDbRegAppTableRecord
  2
GEVID1151908765
 70
     0
  0
APPID
  5
2FDB
330
9
100
AcDbSymbolTableRecord
100
AcDbRegAppTableRecord
  2
GEVID1151908766
 70
     0
  0
APPID
  5
3C74
330
9
100
AcDbSymbolTableRecord
100
AcDbRegAppTableRecord
  2
GEVID1151908767
 70
     0
  0
APPID
  5
3CA2
330
9
100
AcDbSymbolTableRecord
100
AcDbRegAppTableRecord
  2
GEVID1151908768
 70
     0
  0
APPID
  5
3CC1
330
9
100
AcDbSymbolTableRecord
100
AcDbRegAppTableRecord
  2
GEVID1151908769
 70
     0
  0
APPID
  5
3FF1
330
9
100
AcDbSymbolTableRecord
100
AcDbRegAppTableRecord
  2
GENIUS_GENREC_14
 70
     0
  0
APPID
  5
3FF2
330
9
100
AcDbSymbolTableRecord
100
AcDbRegAppTableRecord
  2
GENIUS_GENOBJ-N-REC_13
 70
     0
  0
APPID
  5
4D81
330
9
100
AcDbSymbolTableRecord
100
AcDbRegAppTableRecord
  2
GEVID1151981890
 70
     0
  0
APPID
  5
63C5
330
9
100
AcDbSymbolTableRecord
100
AcDbRegAppTableRecord
  2
GEVID1151981891
 70
     0
  0
APPID
  5
641E
330
9
100
AcDbSymbolTableRecord
100
AcDbRegAppTableRecord
  2
GEVID1151981892
 70
     0
  0
APPID
  5
7494
330
9
100
AcDbSymbolTableRecord
100
AcDbRegAppTableRecord
  2
GENIUS_GENDIM_13
 70
     0
  0
APPID
  5
7495
330
9
100
AcDbSymbolTableRecord
100
AcDbRegAppTableRecord
  2
GENIUS_GE3DTOL_13
 70
     0
  0
APPID
  5
7515
330
9
100
AcDbSymbolTableRecord
100
AcDbRegAppTableRecord
  2
ASURF_PCURVE_APPNAME
 70
     0
  0
APPID
  5
751A
330
9
100
AcDbSymbolTableRecord
100
AcDbRegAppTableRecord
  2
AMG_3D2D_5.0
 70
     0
  0
APPID
  5
83A7
330
9
100
AcDbSymbolTableRecord
100
AcDbRegAppTableRecord
  2
GENIUS_GENDIMSH_14
 70
     0
  0
ENDTAB
  0
TABLE
  2
DIMSTYLE
  5
A
330
0
100
AcDbSymbolTable
 70
    12
100
AcDbDimStyleTable
 71
     3
340
81
340
8B
340
86
  0
DIMSTYLE
105
81
330
A
100
AcDbSymbolTableRecord
100
AcDbDimStyleTableRecord
  2
AM_ISO
 70
     0
  4
"
 41
3.0
 42
1.0
 43
8.0
 44
1.5
 47
0.1
 48
0.1
 73
     0
 74
     0
 77
     1
 78
     8
 79
     2
140
3.5
141
0.0
143
0.0393701
146
0.6
147
0.7
172
     1
176
   256
177
   256
178
   256
271
     2
272
     2
283
     0
284
     8
340
11
371
    -1
372
    -1
  0
DIMSTYLE
105
82
330
A
100
AcDbSymbolTableRecord
100
AcDbDimStyleTableRecord
  2
AM_ISO$3
 70
     0
  4
"
 41
3.0
 42
1.0
 43
8.0
 44
1.5
 47
0.1
 48
0.1
 73
     0
 77
     1
 78
     8
 79
     2
140
3.5
141
0.0
143
0.0393701
146
0.6
147
0.7
176
   256
177
   256
178
   256
271
     2
272
     2
283
     0
284
     8
288
     1
289
     0
340
11
371
    -1
372
    -1
  0
DIMSTYLE
105
83
330
A
100
AcDbSymbolTableRecord
100
AcDbDimStyleTableRecord
  2
AM_ISO$4
 70
     0
  4
"
 41
3.0
 42
1.0
 43
8.0
 44
1.5
 47
0.1
 48
0.1
 73
     0
 77
     1
 78
     8
 79
     2
140
3.5
141
0.0
143
0.0393701
146
0.6
147
0.7
176
   256
177
   256
178
   256
271
     2
272
     2
283
     0
284
     8
288
     1
289
     0
340
11
371
    -1
372
    -1
  0
DIMSTYLE
105
84
330
A
100
AcDbSymbolTableRecord
100
AcDbDimStyleTableRecord
  2
AM_ISO$6
 70
     0
  4
"
 41
3.0
 42
1.0
 43
8.0
 44
1.5
 47
0.1
 48
0.1
 73
     0
 74
     0
 78
     8
 79
     2
140
3.5
141
0.0
143
0.0393701
146
0.6
147
0.7
172
     1
176
   256
177
   256
178
   256
271
     2
272
     2
283
     0
284
     8
340
11
371
    -1
372
    -1
  0
DIMSTYLE
105
85
330
A
100
AcDbSymbolTableRecord
100
AcDbDimStyleTableRecord
  2
AM_ISO$7
 70
     0
  4
"
 41
3.0
 42
1.0
 43
8.0
 44
1.5
 47
0.1
 48
0.1
 73
     0
 74
     0
 77
     1
 78
     8
 79
     2
140
5.0
141
0.0
143
0.0393701
146
0.6
147
0.7
172
     1
176
   256
177
   256
178
   256
271
     2
272
     2
283
     0
284
     8
340
11
371
    -1
372
    -1
  0
DIMSTYLE
105
86
330
A
100
AcDbSymbolTableRecord
100
AcDbDimStyleTableRecord
  2
AM_ISO$SF
 70
     0
  4
"
 41
2.5
 42
1.0
 43
10.0
 44
1.0
 47
0.1
 48
0.1
 73
     0
 74
     0
 75
     1
 76
     1
 77
     1
 78
     8
 79
     2
140
3.5
141
0.0
143
0.0393701
146
0.71
147
1.5
172
     1
176
   256
177
   256
178
     2
271
     2
272
     3
274
     4
283
     0
284
     8
340
11
371
    -1
372
    -1
  0
DIMSTYLE
105
8B
330
A
100
AcDbSymbolTableRecord
100
AcDbDimStyleTableRecord
  2
AM_ISO$SH
 70
     0
  4
"
 41
2.5
 42
1.0
 43
10.0
 44
1.0
 47
0.1
 48
0.1
 73
     0
 74
     0
 75
     1
 76
     1
 77
     1
 78
     8
 79
     2
140
3.5
141
0.0
143
0.0393701
144
2.0
146
0.71
147
1.5
172
     1
173
     1
176
   256
177
   256
178
     2
271
     2
272
     3
274
     4
283
     0
284
     8
340
11
343
87
371
    -1
372
    -1
  0
DIMSTYLE
105
40B
102
{ACAD_REACTORS
330
7DEA
330
7E10
330
7E36
330
7E5C
330
7F3D
330
7F9D
330
7FCC
330
8059
330
802A
330
7FFB
330
8171
330
819B
330
81D0
330
823F
330
8265
330
828B
330
82B5
330
82DF
330
8323
330
8373
330
838B
330
83DA
330
842B
330
8455
330
847F
330
890A
102
}
330
A
100
AcDbSymbolTableRecord
100
AcDbDimStyleTableRecord
  2
AM_ISO$0
 70
     0
  4
"
 41
3.0
 42
1.0
 43
8.0
 44
1.5
 47
0.1
 48
0.1
 73
     0
 74
     0
 77
     1
 78
     8
 79
     2
140
3.5
141
0.0
143
0.0393701
146
0.6
147
0.7
172
     1
176
   256
177
   256
178
   256
271
     2
272
     2
283
     0
284
     8
340
11
371
    -1
372
    -1
  0
DIMSTYLE
105
182A
330
A
100
AcDbSymbolTableRecord
100
AcDbDimStyleTableRecord
  2
AM_ISO$2
 70
     0
  4
"
 41
3.0
 42
1.0
 43
8.0
 44
1.5
 47
0.1
 48
0.1
 73
     0
 74
     0
 77
     1
 78
     8
 79
     2
140
3.5
141
0.0
143
0.0393701
146
0.6
147
0.7
172
     1
176
   256
177
   256
178
   256
271
     2
272
     2
283
     0
284
     8
340
11
371
    -1
372
    -1
  0
DIMSTYLE
105
7DA7
330
A
100
AcDbSymbolTableRecord
100
AcDbDimStyleTableRecord
  2
ISO-25
 70
     0
 41
2.5
 42
0.625
 43
3.75
 44
1.25
 73
     0
 74
     0
 77
     1
 78
     8
140
2.5
141
2.5
143
0.03937007874016
147
0.625
171
     3
172
     1
271
     2
272
     2
274
     3
278
    44
283
     0
284
     8
340
11
  0
DIMSTYLE
105
7DA8
330
A
100
AcDbSymbolTableRecord
100
AcDbDimStyleTableRecord
  2
ISO-25$0
 70
     0
 41
2.5
 42
0.625
 43
3.75
 44
1.25
 73
     0
 74
     0
 77
     1
 78
     8
140
2.5
141
2.5
143
0.03937007874016
147
0.625
171
     3
172
     1
271
     2
272
     2
274
     3
278
    44
283
     0
284
     8
340
11
  0
ENDTAB
  0
TABLE
  2
BLOCK_RECORD
  5
1
330
0
100
AcDbSymbolTable
 70
    75
  0
BLOCK_RECORD
  5
1F
102
{ACAD_XDICTIONARY
360
8F
102
}
330
1
100
AcDbSymbolTableRecord
100
AcDbBlockTableRecord
  2
*Model_Space
340
22
  0
BLOCK_RECORD
  5
1B
330
1
100
AcDbSymbolTableRecord
100
AcDbBlockTableRecord
  2
*Paper_Space
340
1E
  0
BLOCK_RECORD
  5
23
330
1
100
AcDbSymbolTableRecord
100
AcDbBlockTableRecord
  2
*Paper_Space0
340
26
  0
BLOCK_RECORD
  5
87
330
1
100
AcDbSymbolTableRecord
100
AcDbBlockTableRecord
  2
GENAXEH
340
0
  0
BLOCK_RECORD
  5
7DEB
330
1
100
AcDbSymbolTableRecord
100
AcDbBlockTableRecord
  2
*D40
340
0
  0
BLOCK_RECORD
  5
7E11
330
1
100
AcDbSymbolTableRecord
100
AcDbBlockTableRecord
  2
*D41
340
0
  0
BLOCK_RECORD
  5
7E37
330
1
100
AcDbSymbolTableRecord
100
AcDbBlockTableRecord
  2
*D42
340
0
  0
BLOCK_RECORD
  5
7E5D
330
1
100
AcDbSymbolTableRecord
100
AcDbBlockTableRecord
  2
*D43
340
0
  0
BLOCK_RECORD
  5
7F3E
330
1
100
AcDbSymbolTableRecord
100
AcDbBlockTableRecord
  2
*D47
340
0
  0
BLOCK_RECORD
  5
7F9E
330
1
100
AcDbSymbolTableRecord
100
AcDbBlockTableRecord
  2
*D48
340
0
  0
BLOCK_RECORD
  5
7FCD
330
1
100
AcDbSymbolTableRecord
100
AcDbBlockTableRecord
  2
*D49
340
0
  0
BLOCK_RECORD
  5
7FFC
330
1
100
AcDbSymbolTableRecord
100
AcDbBlockTableRecord
  2
*D50
340
0
  0
BLOCK_RECORD
  5
802B
330
1
100
AcDbSymbolTableRecord
100
AcDbBlockTableRecord
  2
*D51
340
0
  0
BLOCK_RECORD
  5
805A
330
1
100
AcDbSymbolTableRecord
100
AcDbBlockTableRecord
  2
*D52
340
0
  0
BLOCK_RECORD
  5
8172
330
1
100
AcDbSymbolTableRecord
100
AcDbBlockTableRecord
  2
*D53
340
0
  0
BLOCK_RECORD
  5
819C
330
1
100
AcDbSymbolTableRecord
100
AcDbBlockTableRecord
  2
*D54
340
0
  0
BLOCK_RECORD
  5
81D1
330
1
100
AcDbSymbolTableRecord
100
AcDbBlockTableRecord
  2
*D55
340
0
  0
BLOCK_RECORD
  5
8240
330
1
100
AcDbSymbolTableRecord
100
AcDbBlockTableRecord
  2
*D56
340
0
  0
BLOCK_RECORD
  5
8266
330
1
100
AcDbSymbolTableRecord
100
AcDbBlockTableRecord
  2
*D57
340
0
  0
BLOCK_RECORD
  5
828C
330
1
100
AcDbSymbolTableRecord
100
AcDbBlockTableRecord
  2
*D58
340
0
  0
BLOCK_RECORD
  5
82B6
330
1
100
AcDbSymbolTableRecord
100
AcDbBlockTableRecord
  2
*D59
340
0
  0
BLOCK_RECORD
  5
82E0
330
1
100
AcDbSymbolTableRecord
100
AcDbBlockTableRecord
  2
*D60
340
0
  0
BLOCK_RECORD
  5
8324
330
1
100
AcDbSymbolTableRecord
100
AcDbBlockTableRecord
  2
*D61
340
0
  0
BLOCK_RECORD
  5
8374
330
1
100
AcDbSymbolTableRecord
100
AcDbBlockTableRecord
  2
*D63
340
0
  0
BLOCK_RECORD
  5
838C
330
1
100
AcDbSymbolTableRecord
100
AcDbBlockTableRecord
  2
*D64
340
0
  0
BLOCK_RECORD
  5
83A8
330
1
100
AcDbSymbolTableRecord
100
AcDbBlockTableRecord
  2
GENDOT
340
0
102
{BLKREFS
331
8B8B
102
}
  0
BLOCK_RECORD
  5
83DB
330
1
100
AcDbSymbolTableRecord
100
AcDbBlockTableRecord
  2
*D66
340
0
  0
BLOCK_RECORD
  5
842C
330
1
100
AcDbSymbolTableRecord
100
AcDbBlockTableRecord
  2
*D68
340
0
  0
BLOCK_RECORD
  5
8456
330
1
100
AcDbSymbolTableRecord
100
AcDbBlockTableRecord
  2
*D69
340
0
  0
BLOCK_RECORD
  5
8480
330
1
100
AcDbSymbolTableRecord
100
AcDbBlockTableRecord
  2
*D70
340
0
  0
BLOCK_RECORD
  5
88BF
330
1
100
AcDbSymbolTableRecord
100
AcDbBlockTableRecord
  2
*D71
340
0
  0
BLOCK_RECORD
  5
890D
330
1
100
AcDbSymbolTableRecord
100
AcDbBlockTableRecord
  2
*D73
340
0
  0
ENDTAB
  0
ENDSEC
  0
SECTION
  2
BLOCKS
  0
BLOCK
  5
20
330
1F
100
AcDbEntity
  8
0
100
AcDbBlockBegin
  2
*Model_Space
 70
     0
 10
0.0
 20
0.0
 30
0.0
  3
*Model_Space
  1

  0
ENDBLK
  5
21
330
1F
100
AcDbEntity
  8
0
100
AcDbBlockEnd
  0
BLOCK
  5
1C
330
1B
100
AcDbEntity
 67
     1
  8
0
100
AcDbBlockBegin
  2
*Paper_Space
 70
     0
 10
0.0
 20
0.0
 30
0.0
  3
*Paper_Space
  1

  0
ENDBLK
  5
1D
330
1B
100
AcDbEntity
 67
     1
  8
0
100
AcDbBlockEnd
  0
BLOCK
  5
24
330
23
100
AcDbEntity
  8
0
100
AcDbBlockBegin
  2
*Paper_Space0
 70
     0
 10
0.0
 20
0.0
 30
0.0
  3
*Paper_Space0
  1

  0
ENDBLK
  5
25
330
23
100
AcDbEntity
  8
0
100
AcDbBlockEnd
  0
BLOCK
  5
89
330
87
100
AcDbEntity
  8
0
100
AcDbBlockBegin
  2
GENAXEH
 70
     0
 10
0.0
 20
0.0
 30
0.0
  3
GENAXEH
  1

  0
LINE
  5
88
330
87
100
AcDbEntity
  8
0
100
AcDbLine
 10
-1.0
 20
0.0
 30
0.0
 11
1.0
 21
0.0
 31
0.0
  0
ENDBLK
  5
8A
330
87
100
AcDbEntity
  8
0
100
AcDbBlockEnd
  0
BLOCK
  5
7DF5
330
7DEB
100
AcDbEntity
  8
0
100
AcDbBlockBegin
  2
*D40
 70
     1
 10
0.0
 20
0.0
 30
0.0
  3
*D40
  1

  0
LINE
  5
8C0E
330
7DEB
100
AcDbEntity
  8
AM_5
100
AcDbLine
 10
414.3553826740038
 20
1331.676008765242
 30
0.0
 11
414.3553826740038
 21
1341.721796855221
 31
0.0
  0
LINE
  5
8C0F
330
7DEB
100
AcDbEntity
  8
AM_5
100
AcDbLine
 10
436.3553826740038
 20
1331.676008765242
 30
0.0
 11
436.3553826740038
 21
1341.721796855221
 31
0.0
  0
LINE
  5
8C10
330
7DEB
100
AcDbEntity
  8
AM_5
100
AcDbLine
 10
417.3553826740038
 20
1340.221796855221
 30
0.0
 11
433.3553826740038
 21
1340.221796855221
 31
0.0
  0
SOLID
  5
8C11
330
7DEB
100
AcDbEntity
  8
AM_5
100
AcDbTrace
 10
417.3553826740038
 20
1340.721796855221
 30
0.0
 11
417.3553826740038
 21
1339.721796855221
 31
0.0
 12
414.3553826740038
 22
1340.221796855221
 32
0.0
 13
414.3553826740038
 23
1340.221796855221
 33
0.0
  0
SOLID
  5
8C12
330
7DEB
100
AcDbEntity
  8
AM_5
100
AcDbTrace
 10
433.3553826740038
 20
1340.721796855221
 30
0.0
 11
433.3553826740038
 21
1339.721796855221
 31
0.0
 12
436.3553826740038
 22
1340.221796855221
 32
0.0
 13
436.3553826740038
 23
1340.221796855221
 33
0.0
  0
MTEXT
  5
8C13
330
7DEB
100
AcDbEntity
  8
AM_5
100
AcDbMText
 10
425.3553826740038
 20
1342.67214134341
 30
0.0
 40
3.5
 41
0.0
 71
     5
 72
     1
  1
22
 73
     1
 44
1.0
1001
ACAD
1000
MTEXTBEGIN
1070
    73
1070
     1
1070
    44
1040
1.0
1070
    74
1070
     0
1000
MTEXTEND
  0
POINT
  5
8C14
330
7DEB
100
AcDbEntity
  8
Defpoints
 62
     0
100
AcDbPoint
 10
414.3553826740038
 20
1330.676008765242
 30
0.0
  0
POINT
  5
8C15
330
7DEB
100
AcDbEntity
  8
Defpoints
 62
     0
100
AcDbPoint
 10
436.3553826740038
 20
1330.676008765242
 30
0.0
  0
POINT
  5
8C16
330
7DEB
100
AcDbEntity
  8
Defpoints
 62
     0
100
AcDbPoint
 10
436.3553826740038
 20
1340.221796855221
 30
0.0
  0
ENDBLK
  5
7DF6
330
7DEB
100
AcDbEntity
  8
0
100
AcDbBlockEnd
  0
BLOCK
  5
7E1B
330
7E11
100
AcDbEntity
  8
0
100
AcDbBlockBegin
  2
*D41
 70
     1
 10
0.0
 20
0.0
 30
0.0
  3
*D41
  1

  0
LINE
  5
8C17
330
7E11
100
AcDbEntity
  8
AM_5
100
AcDbLine
 10
441.3574522928891
 20
1326.673939146358
 30
0.0
 11
463.625481150875
 21
1326.673939146358
 31
0.0
  0
LINE
  5
8C18
330
7E11
100
AcDbEntity
  8
AM_5
100
AcDbLine
 10
456.855384998585
 20
1335.173939488494
 30
0.0
 11
463.625481150875
 21
1335.173939488494
 31
0.0
  0
LINE
  5
8C19
330
7E11
100
AcDbEntity
  8
AM_5
100
AcDbLine
 10
462.1254811508749
 20
1329.673939146357
 30
0.0
 11
462.1254811508749
 21
1332.173939488495
 31
0.0
  0
SOLID
  5
8C1A
330
7E11
100
AcDbEntity
  8
AM_5
100
AcDbTrace
 10
461.6254811508749
 20
1329.673939146357
 30
0.0
 11
462.625481150875
 21
1329.673939146357
 31
0.0
 12
462.1254811508749
 22
1326.673939146358
 32
0.0
 13
462.1254811508749
 23
1326.673939146358
 33
0.0
  0
SOLID
  5
8C1B
330
7E11
100
AcDbEntity
  8
AM_5
100
AcDbTrace
 10
461.6254811508749
 20
1332.173939488495
 30
0.0
 11
462.625481150875
 21
1332.173939488495
 31
0.0
 12
462.1254811508749
 22
1335.173939488494
 32
0.0
 13
462.1254811508749
 23
1335.173939488494
 33
0.0
  0
MTEXT
  5
8C1C
330
7E11
100
AcDbEntity
  8
AM_5
100
AcDbMText
 10
459.6754811508747
 20
1330.923939317426
 30
0.0
 40
3.5
 41
0.0
 71
     5
 72
     1
  1
8.5
 11
0.0000000000000001
 21
1.0
 31
0.0
 73
     1
 44
1.0
1001
ACAD
1000
MTEXTBEGIN
1070
    73
1070
     1
1070
    44
1040
1.0
1070
    74
1070
     0
1000
MTEXTEND
  0
POINT
  5
8C1D
330
7E11
100
AcDbEntity
  8
Defpoints
 62
     0
100
AcDbPoint
 10
440.3574522928892
 20
1326.673939146358
 30
0.0
  0
POINT
  5
8C1E
330
7E11
100
AcDbEntity
  8
Defpoints
 62
     0
100
AcDbPoint
 10
455.855384998585
 20
1335.173939488494
 30
0.0
  0
POINT
  5
8C1F
330
7E11
100
AcDbEntity
  8
Defpoints
 62
     0
100
AcDbPoint
 10
462.1254811508749
 20
1335.173939488494
 30
0.0
  0
ENDBLK
  5
7E1C
330
7E11
100
AcDbEntity
  8
0
100
AcDbBlockEnd
  0
BLOCK
  5
7E41
330
7E37
100
AcDbEntity
  8
0
100
AcDbBlockBegin
  2
*D42
 70
     1
 10
0.0
 20
0.0
 30
0.0
  3
*D42
  1

  0
LINE
  5
8AE4
330
7E37
100
AcDbEntity
  8
AM_5
100
AcDbLine
 10
394.8553824504864
 20
1273.35631947448
 30
0.0
 11
394.8553824504864
 21
1294.839360939011
 31
0.0
  0
LINE
  5
8AE5
330
7E37
100
AcDbEntity
  8
AM_5
100
AcDbLine
 10
455.855384998585
 20
1273.35631947448
 30
0.0
 11
455.855384998585
 21
1294.839360939011
 31
0.0
  0
LINE
  5
8AE6
330
7E37
100
AcDbEntity
  8
AM_5
100
AcDbLine
 10
397.8553824504865
 20
1293.339360939011
 30
0.0
 11
452.855384998585
 21
1293.339360939011
 31
0.0
  0
SOLID
  5
8AE7
330
7E37
100
AcDbEntity
  8
AM_5
100
AcDbTrace
 10
397.8553824504865
 20
1293.839360939011
 30
0.0
 11
397.8553824504865
 21
1292.839360939012
 31
0.0
 12
394.8553824504864
 22
1293.339360939011
 32
0.0
 13
394.8553824504864
 23
1293.339360939011
 33
0.0
  0
SOLID
  5
8AE8
330
7E37
100
AcDbEntity
  8
AM_5
100
AcDbTrace
 10
452.855384998585
 20
1293.839360939011
 30
0.0
 11
452.855384998585
 21
1292.839360939012
 31
0.0
 12
455.855384998585
 22
1293.339360939011
 32
0.0
 13
455.855384998585
 23
1293.339360939011
 33
0.0
  0
MTEXT
  5
8AE9
330
7E37
100
AcDbEntity
  8
AM_5
100
AcDbMText
 10
425.3553837245357
 20
1295.789360939012
 30
0.0
 40
3.5
 41
0.0
 71
     5
 72
     1
  1
61
 73
     1
 44
1.0
1001
ACAD
1000
MTEXTBEGIN
1070
    73
1070
     1
1070
    44
1040
1.0
1070
    74
1070
     0
1000
MTEXTEND
  0
POINT
  5
8AEA
330
7E37
100
AcDbEntity
  8
Defpoints
 62
     0
100
AcDbPoint
 10
394.8553824504864
 20
1272.35631947448
 30
0.0
  0
POINT
  5
8AEB
330
7E37
100
AcDbEntity
  8
Defpoints
 62
     0
100
AcDbPoint
 10
455.855384998585
 20
1272.35631947448
 30
0.0
  0
POINT
  5
8AEC
330
7E37
100
AcDbEntity
  8
Defpoints
 62
     0
100
AcDbPoint
 10
455.855384998585
 20
1293.339360939011
 30
0.0
  0
ENDBLK
  5
7E42
330
7E37
100
AcDbEntity
  8
0
100
AcDbBlockEnd
  0
BLOCK
  5
7E67
330
7E5D
100
AcDbEntity
  8
0
100
AcDbBlockBegin
  2
*D43
 70
     1
 10
0.0
 20
0.0
 30
0.0
  3
*D43
  1

  0
LINE
  5
8AED
330
7E5D
100
AcDbEntity
  8
AM_5
100
AcDbLine
 10
407.8553826740038
 20
1273.858388948821
 30
0.0
 11
407.8553826740038
 21
1287.068959203599
 31
0.0
  0
LINE
  5
8AEE
330
7E5D
100
AcDbEntity
  8
AM_5
100
AcDbLine
 10
442.8553826740039
 20
1274.238607773668
 30
0.0
 11
442.8553826740039
 21
1287.068959203599
 31
0.0
  0
LINE
  5
8AEF
330
7E5D
100
AcDbEntity
  8
AM_5
100
AcDbLine
 10
410.8553826740038
 20
1285.568959203599
 30
0.0
 11
439.8553826740038
 21
1285.568959203599
 31
0.0
  0
SOLID
  5
8AF0
330
7E5D
100
AcDbEntity
  8
AM_5
100
AcDbTrace
 10
410.8553826740038
 20
1286.068959203598
 30
0.0
 11
410.8553826740038
 21
1285.068959203599
 31
0.0
 12
407.8553826740038
 22
1285.568959203599
 32
0.0
 13
407.8553826740038
 23
1285.568959203599
 33
0.0
  0
SOLID
  5
8AF1
330
7E5D
100
AcDbEntity
  8
AM_5
100
AcDbTrace
 10
439.8553826740038
 20
1286.068959203598
 30
0.0
 11
439.8553826740038
 21
1285.068959203599
 31
0.0
 12
442.8553826740039
 22
1285.568959203599
 32
0.0
 13
442.8553826740039
 23
1285.568959203599
 33
0.0
  0
MTEXT
  5
8AF2
330
7E5D
100
AcDbEntity
  8
AM_5
100
AcDbMText
 10
425.3553826740037
 20
1288.018959203599
 30
0.0
 40
3.5
 41
0.0
 71
     5
 72
     1
  1
35
 73
     1
 44
1.0
1001
ACAD
1000
MTEXTBEGIN
1070
    73
1070
     1
1070
    44
1040
1.0
1070
    74
1070
     0
1000
MTEXTEND
  0
POINT
  5
8AF3
330
7E5D
100
AcDbEntity
  8
Defpoints
 62
     0
100
AcDbPoint
 10
407.8553826740038
 20
1272.858388948821
 30
0.0
  0
POINT
  5
8AF4
330
7E5D
100
AcDbEntity
  8
Defpoints
 62
     0
100
AcDbPoint
 10
442.8553826740039
 20
1273.238607773668
 30
0.0
  0
POINT
  5
8AF5
330
7E5D
100
AcDbEntity
  8
Defpoints
 62
     0
100
AcDbPoint
 10
442.8553826740039
 20
1285.568959203599
 30
0.0
  0
ENDBLK
  5
7E68
330
7E5D
100
AcDbEntity
  8
0
100
AcDbBlockEnd
  0
BLOCK
  5
7F48
330
7F3E
100
AcDbEntity
  8
0
100
AcDbBlockBegin
  2
*D47
 70
     1
 10
0.0
 20
0.0
 30
0.0
  3
*D47
  1

  0
LINE
  5
8AF6
330
7F3E
100
AcDbEntity
  8
AM_5
100
AcDbLine
 10
442.8553826740039
 20
1274.238607773668
 30
0.0
 11
442.8553826740039
 21
1287.068959203598
 31
0.0
  0
LINE
  5
8AF7
330
7F3E
100
AcDbEntity
  8
AM_5
100
AcDbLine
 10
455.855384998585
 20
1273.35631947448
 30
0.0
 11
455.855384998585
 21
1287.068959203598
 31
0.0
  0
LINE
  5
8AF8
330
7F3E
100
AcDbEntity
  8
AM_5
100
AcDbLine
 10
445.8553826740038
 20
1285.568959203599
 30
0.0
 11
452.855384998585
 21
1285.568959203599
 31
0.0
  0
SOLID
  5
8AF9
330
7F3E
100
AcDbEntity
  8
AM_5
100
AcDbTrace
 10
445.8553826740038
 20
1286.068959203598
 30
0.0
 11
445.8553826740038
 21
1285.068959203598
 31
0.0
 12
442.8553826740039
 22
1285.568959203599
 32
0.0
 13
442.8553826740039
 23
1285.568959203599
 33
0.0
  0
SOLID
  5
8AFA
330
7F3E
100
AcDbEntity
  8
AM_5
100
AcDbTrace
 10
452.855384998585
 20
1286.068959203598
 30
0.0
 11
452.855384998585
 21
1285.068959203598
 31
0.0
 12
455.855384998585
 22
1285.568959203599
 32
0.0
 13
455.855384998585
 23
1285.568959203599
 33
0.0
  0
MTEXT
  5
8AFB
330
7F3E
100
AcDbEntity
  8
AM_5
100
AcDbMText
 10
449.3553838362944
 20
1288.018959203598
 30
0.0
 40
3.5
 41
0.0
 71
     5
 72
     1
  1
13
 73
     1
 44
1.0
1001
ACAD
1000
MTEXTBEGIN
1070
    73
1070
     1
1070
    44
1040
1.0
1070
    74
1070
     0
1000
MTEXTEND
  0
POINT
  5
8AFC
330
7F3E
100
AcDbEntity
  8
Defpoints
 62
     0
100
AcDbPoint
 10
442.8553826740039
 20
1273.238607773668
 30
0.0
  0
POINT
  5
8AFD
330
7F3E
100
AcDbEntity
  8
Defpoints
 62
     0
100
AcDbPoint
 10
455.855384998585
 20
1272.35631947448
 30
0.0
  0
POINT
  5
8AFE
330
7F3E
100
AcDbEntity
  8
Defpoints
 62
     0
100
AcDbPoint
 10
455.855384998585
 20
1285.568959203599
 30
0.0
  0
ENDBLK
  5
7F49
330
7F3E
100
AcDbEntity
  8
0
100
AcDbBlockEnd
  0
BLOCK
  5
7FA8
330
7F9E
100
AcDbEntity
  8
0
100
AcDbBlockBegin
  2
*D48
 70
     1
 10
0.0
 20
0.0
 30
0.0
  3
*D48
  1

  0
LINE
  5
8AFF
330
7F9E
100
AcDbEntity
  8
AM_5
100
AcDbLine
 10
456.855384998585
 20
1272.35631947448
 30
0.0
 11
464.9396908379767
 21
1272.35631947448
 31
0.0
  0
LINE
  5
8B00
330
7F9E
100
AcDbEntity
  8
AM_5
100
AcDbLine
 10
438.3247585836357
 20
1251.256319329936
 30
0.0
 11
464.9396908379767
 21
1251.256319329936
 31
0.0
  0
LINE
  5
8B01
330
7F9E
100
AcDbEntity
  8
AM_5
100
AcDbLine
 10
463.4396908379767
 20
1269.35631947448
 30
0.0
 11
463.4396908379767
 21
1254.256319329936
 31
0.0
  0
SOLID
  5
8B02
330
7F9E
100
AcDbEntity
  8
AM_5
100
AcDbTrace
 10
462.9396908379767
 20
1269.35631947448
 30
0.0
 11
463.9396908379767
 21
1269.35631947448
 31
0.0
 12
463.4396908379767
 22
1272.35631947448
 32
0.0
 13
463.4396908379767
 23
1272.35631947448
 33
0.0
  0
SOLID
  5
8B03
330
7F9E
100
AcDbEntity
  8
AM_5
100
AcDbTrace
 10
462.9396908379767
 20
1254.256319329936
 30
0.0
 11
463.9396908379767
 21
1254.256319329936
 31
0.0
 12
463.4396908379767
 22
1251.256319329936
 32
0.0
 13
463.4396908379767
 23
1251.256319329936
 33
0.0
  0
MTEXT
  5
8B04
330
7F9E
100
AcDbEntity
  8
AM_5
100
AcDbMText
 10
460.9893463497875
 20
1261.806319402208
 30
0.0
 40
3.5
 41
0.0
 71
     5
 72
     1
  1
21.1
 11
0.0000000000000001
 21
1.0
 31
0.0
 73
     1
 44
1.0
1001
ACAD
1000
MTEXTBEGIN
1070
    73
1070
     1
1070
    44
1040
1.0
1070
    74
1070
     0
1000
MTEXTEND
  0
POINT
  5
8B05
330
7F9E
100
AcDbEntity
  8
Defpoints
 62
     0
100
AcDbPoint
 10
455.855384998585
 20
1272.35631947448
 30
0.0
  0
POINT
  5
8B06
330
7F9E
100
AcDbEntity
  8
Defpoints
 62
     0
100
AcDbPoint
 10
437.3247585836357
 20
1251.256319329936
 30
0.0
  0
POINT
  5
8B07
330
7F9E
100
AcDbEntity
  8
Defpoints
 62
     0
100
AcDbPoint
 10
463.4396908379767
 20
1251.256319329936
 30
0.0
  0
ENDBLK
  5
7FA9
330
7F9E
100
AcDbEntity
  8
0
100
AcDbBlockEnd
  0
BLOCK
  5
7FD7
330
7FCD
100
AcDbEntity
  8
0
100
AcDbBlockBegin
  2
*D49
 70
     1
 10
0.0
 20
0.0
 30
0.0
  3
*D49
  1

  0
LINE
  5
8B08
330
7FCD
100
AcDbEntity
  8
AM_5
100
AcDbLine
 10
456.855384998585
 20
1248.85631934782
 30
0.0
 11
472.8531211539093
 21
1248.85631934782
 31
0.0
  0
LINE
  5
8B09
330
7FCD
100
AcDbEntity
  8
AM_5
100
AcDbLine
 10
456.855384998585
 20
1272.35631947448
 30
0.0
 11
472.8531211539093
 21
1272.35631947448
 31
0.0
  0
LINE
  5
8B0A
330
7FCD
100
AcDbEntity
  8
AM_5
100
AcDbLine
 10
471.3531211539093
 20
1251.85631934782
 30
0.0
 11
471.3531211539093
 21
1269.35631947448
 31
0.0
  0
SOLID
  5
8B0B
330
7FCD
100
AcDbEntity
  8
AM_5
100
AcDbTrace
 10
470.8531211539093
 20
1251.85631934782
 30
0.0
 11
471.8531211539093
 21
1251.85631934782
 31
0.0
 12
471.3531211539093
 22
1248.85631934782
 32
0.0
 13
471.3531211539093
 23
1248.85631934782
 33
0.0
  0
SOLID
  5
8B0C
330
7FCD
100
AcDbEntity
  8
AM_5
100
AcDbTrace
 10
470.8531211539093
 20
1269.35631947448
 30
0.0
 11
471.8531211539093
 21
1269.35631947448
 31
0.0
 12
471.3531211539093
 22
1272.35631947448
 32
0.0
 13
471.3531211539093
 23
1272.35631947448
 33
0.0
  0
MTEXT
  5
8B0D
330
7FCD
100
AcDbEntity
  8
AM_5
100
AcDbMText
 10
468.9027766657201
 20
1260.60631941115
 30
0.0
 40
3.5
 41
0.0
 71
     5
 72
     1
  1
23.5
 11
0.0000000000000001
 21
1.0
 31
0.0
 73
     1
 44
1.0
1001
ACAD
1000
MTEXTBEGIN
1070
    73
1070
     1
1070
    44
1040
1.0
1070
    74
1070
     0
1000
MTEXTEND
  0
POINT
  5
8B0E
330
7FCD
100
AcDbEntity
  8
Defpoints
 62
     0
100
AcDbPoint
 10
455.855384998585
 20
1248.85631934782
 30
0.0
  0
POINT
  5
8B0F
330
7FCD
100
AcDbEntity
  8
Defpoints
 62
     0
100
AcDbPoint
 10
455.855384998585
 20
1272.35631947448
 30
0.0
  0
POINT
  5
8B10
330
7FCD
100
AcDbEntity
  8
Defpoints
 62
     0
100
AcDbPoint
 10
471.3531211539093
 20
1272.35631947448
 30
0.0
  0
ENDBLK
  5
7FD8
330
7FCD
100
AcDbEntity
  8
0
100
AcDbBlockEnd
  0
BLOCK
  5
8006
330
7FFC
100
AcDbEntity
  8
0
100
AcDbBlockBegin
  2
*D50
 70
     1
 10
0.0
 20
0.0
 30
0.0
  3
*D50
  1

  0
LINE
  5
8B11
330
7FFC
100
AcDbEntity
  8
AM_5
100
AcDbLine
 10
417.355382674004
 20
1246.286943420304
 30
0.0
 11
417.355382674004
 21
1239.937312692652
 31
0.0
  0
LINE
  5
8B12
330
7FFC
100
AcDbEntity
  8
AM_5
100
AcDbLine
 10
433.355382674004
 20
1246.286943420304
 30
0.0
 11
433.355382674004
 21
1239.937312692652
 31
0.0
  0
LINE
  5
8B13
330
7FFC
100
AcDbEntity
  8
AM_5
100
AcDbLine
 10
420.3553826740039
 20
1241.437312692652
 30
0.0
 11
430.3553826740039
 21
1241.437312692652
 31
0.0
  0
SOLID
  5
8B14
330
7FFC
100
AcDbEntity
  8
AM_5
100
AcDbTrace
 10
420.3553826740039
 20
1241.937312692652
 30
0.0
 11
420.3553826740039
 21
1240.937312692652
 31
0.0
 12
417.355382674004
 22
1241.437312692652
 32
0.0
 13
417.355382674004
 23
1241.437312692652
 33
0.0
  0
SOLID
  5
8B15
330
7FFC
100
AcDbEntity
  8
AM_5
100
AcDbTrace
 10
430.3553826740039
 20
1241.937312692652
 30
0.0
 11
430.3553826740039
 21
1240.937312692652
 31
0.0
 12
433.355382674004
 22
1241.437312692652
 32
0.0
 13
433.355382674004
 23
1241.437312692652
 33
0.0
  0
MTEXT
  5
8B16
330
7FFC
100
AcDbEntity
  8
AM_5
100
AcDbMText
 10
425.355382674004
 20
1243.887312692652
 30
0.0
 40
3.5
 41
0.0
 71
     5
 72
     1
  1
16
 73
     1
 44
1.0
1001
ACAD
1000
MTEXTBEGIN
1070
    73
1070
     1
1070
    44
1040
1.0
1070
    74
1070
     0
1000
MTEXTEND
  0
POINT
  5
8B17
330
7FFC
100
AcDbEntity
  8
Defpoints
 62
     0
100
AcDbPoint
 10
417.355382674004
 20
1247.286943420304
 30
0.0
  0
POINT
  5
8B18
330
7FFC
100
AcDbEntity
  8
Defpoints
 62
     0
100
AcDbPoint
 10
433.355382674004
 20
1247.286943420304
 30
0.0
  0
POINT
  5
8B19
330
7FFC
100
AcDbEntity
  8
Defpoints
 62
     0
100
AcDbPoint
 10
433.355382674004
 20
1241.437312692652
 30
0.0
  0
ENDBLK
  5
8007
330
7FFC
100
AcDbEntity
  8
0
100
AcDbBlockEnd
  0
BLOCK
  5
8035
330
802B
100
AcDbEntity
  8
0
100
AcDbBlockBegin
  2
*D51
 70
     1
 10
0.0
 20
0.0
 30
0.0
  3
*D51
  1

  0
LINE
  5
8B1A
330
802B
100
AcDbEntity
  8
AM_5
100
AcDbLine
 10
412.8553835382712
 20
1241.467709452888
 30
0.0
 11
412.8553835382712
 21
1233.490890017833
 31
0.0
  0
LINE
  5
8B1B
330
802B
100
AcDbEntity
  8
AM_5
100
AcDbLine
 10
437.8553820481551
 20
1241.467709452888
 30
0.0
 11
437.8553820481551
 21
1233.490890017833
 31
0.0
  0
LINE
  5
8B1C
330
802B
100
AcDbEntity
  8
AM_5
100
AcDbLine
 10
415.8553835382712
 20
1234.990890017833
 30
0.0
 11
434.8553820481551
 21
1234.990890017833
 31
0.0
  0
SOLID
  5
8B1D
330
802B
100
AcDbEntity
  8
AM_5
100
AcDbTrace
 10
415.8553835382712
 20
1235.490890017833
 30
0.0
 11
415.8553835382712
 21
1234.490890017833
 31
0.0
 12
412.8553835382712
 22
1234.990890017833
 32
0.0
 13
412.8553835382712
 23
1234.990890017833
 33
0.0
  0
SOLID
  5
8B1E
330
802B
100
AcDbEntity
  8
AM_5
100
AcDbTrace
 10
434.8553820481551
 20
1235.490890017833
 30
0.0
 11
434.8553820481551
 21
1234.490890017833
 31
0.0
 12
437.8553820481551
 22
1234.990890017833
 32
0.0
 13
437.8553820481551
 23
1234.990890017833
 33
0.0
  0
MTEXT
  5
8B1F
330
802B
100
AcDbEntity
  8
AM_5
100
AcDbMText
 10
425.3553827932131
 20
1237.441234506022
 30
0.0
 40
3.5
 41
0.0
 71
     5
 72
     1
  1
25
 73
     1
 44
1.0
1001
ACAD
1000
MTEXTBEGIN
1070
    73
1070
     1
1070
    44
1040
1.0
1070
    74
1070
     0
1000
MTEXTEND
  0
POINT
  5
8B20
330
802B
100
AcDbEntity
  8
Defpoints
 62
     0
100
AcDbPoint
 10
412.8553835382712
 20
1242.467709452889
 30
0.0
  0
POINT
  5
8B21
330
802B
100
AcDbEntity
  8
Defpoints
 62
     0
100
AcDbPoint
 10
437.8553820481551
 20
1242.467709452889
 30
0.0
  0
POINT
  5
8B22
330
802B
100
AcDbEntity
  8
Defpoints
 62
     0
100
AcDbPoint
 10
437.8553820481551
 20
1234.990890017833
 30
0.0
  0
ENDBLK
  5
8036
330
802B
100
AcDbEntity
  8
0
100
AcDbBlockEnd
  0
BLOCK
  5
8064
330
805A
100
AcDbEntity
  8
0
100
AcDbBlockBegin
  2
*D52
 70
     1
 10
0.0
 20
0.0
 30
0.0
  3
*D52
  1

  0
LINE
  5
8B23
330
805A
100
AcDbEntity
  8
AM_5
100
AcDbLine
 10
409.3553820332539
 20
1248.356319429776
 30
0.0
 11
409.3553820332539
 21
1225.490890017833
 31
0.0
  0
LINE
  5
8B24
330
805A
100
AcDbEntity
  8
AM_5
100
AcDbLine
 10
441.3553816905272
 20
1248.356319429776
 30
0.0
 11
441.3553816905272
 21
1225.490890017833
 31
0.0
  0
LINE
  5
8B25
330
805A
100
AcDbEntity
  8
AM_5
100
AcDbLine
 10
412.3553820332539
 20
1226.990890017833
 30
0.0
 11
438.3553816905272
 21
1226.990890017833
 31
0.0
  0
SOLID
  5
8B26
330
805A
100
AcDbEntity
  8
AM_5
100
AcDbTrace
 10
412.3553820332539
 20
1227.490890017833
 30
0.0
 11
412.3553820332539
 21
1226.490890017833
 31
0.0
 12
409.3553820332539
 22
1226.990890017833
 32
0.0
 13
409.3553820332539
 23
1226.990890017833
 33
0.0
  0
SOLID
  5
8B27
330
805A
100
AcDbEntity
  8
AM_5
100
AcDbTrace
 10
438.3553816905272
 20
1227.490890017833
 30
0.0
 11
438.3553816905272
 21
1226.490890017833
 31
0.0
 12
441.3553816905272
 22
1226.990890017833
 32
0.0
 13
441.3553816905272
 23
1226.990890017833
 33
0.0
  0
MTEXT
  5
8B28
330
805A
100
AcDbEntity
  8
AM_5
100
AcDbMText
 10
425.3553818618906
 20
1229.441234506022
 30
0.0
 40
3.5
 41
0.0
 71
     5
 72
     1
  1
32
 73
     1
 44
1.0
1001
ACAD
1000
MTEXTBEGIN
1070
    73
1070
     1
1070
    44
1040
1.0
1070
    74
1070
     0
1000
MTEXTEND
  0
POINT
  5
8B29
330
805A
100
AcDbEntity
  8
Defpoints
 62
     0
100
AcDbPoint
 10
409.3553820332539
 20
1249.356319429776
 30
0.0
  0
POINT
  5
8B2A
330
805A
100
AcDbEntity
  8
Defpoints
 62
     0
100
AcDbPoint
 10
441.3553816905272
 20
1249.356319429776
 30
0.0
  0
POINT
  5
8B2B
330
805A
100
AcDbEntity
  8
Defpoints
 62
     0
100
AcDbPoint
 10
441.3553816905272
 20
1226.990890017833
 30
0.0
  0
ENDBLK
  5
8065
330
805A
100
AcDbEntity
  8
0
100
AcDbBlockEnd
  0
BLOCK
  5
817E
330
8172
100
AcDbEntity
  8
0
100
AcDbBlockBegin
  2
*D53
 70
     1
 10
0.0
 20
0.0
 30
0.0
  3
*D53
  1

  0
LINE
  5
8B2C
330
8172
100
AcDbEntity
  8
AM_5
100
AcDbLine
 10
401.4730942302715
 20
1267.856319329936
 30
0.0
 11
388.0939284057481
 21
1267.856319329936
 31
0.0
  0
LINE
  5
8B2D
330
8172
100
AcDbEntity
  8
AM_5
100
AcDbLine
 10
393.8553824504865
 20
1272.35631947448
 30
0.0
 11
388.0939284057481
 21
1272.35631947448
 31
0.0
  0
LINE
  5
8B2E
330
8172
100
AcDbEntity
  8
AM_5
100
AcDbLine
 10
389.5939284057481
 20
1264.856319329936
 30
0.0
 11
389.5939284057481
 21
1261.856319329936
 31
0.0
  0
LINE
  5
8B2F
330
8172
100
AcDbEntity
  8
AM_5
100
AcDbLine
 10
389.5939284057481
 20
1275.35631947448
 30
0.0
 11
389.5939284057481
 21
1285.15129422131
 31
0.0
  0
LINE
  5
8B30
330
8172
100
AcDbEntity
  8
AM_5
100
AcDbLine
 10
389.5939284057481
 20
1267.856319329936
 30
0.0
 11
389.5939284057481
 21
1272.35631947448
 31
0.0
  0
SOLID
  5
8B31
330
8172
100
AcDbEntity
  8
AM_5
100
AcDbTrace
 10
389.0939284057481
 20
1264.856319329936
 30
0.0
 11
390.0939284057481
 21
1264.856319329936
 31
0.0
 12
389.5939284057481
 22
1267.856319329936
 32
0.0
 13
389.5939284057481
 23
1267.856319329936
 33
0.0
  0
SOLID
  5
8B32
330
8172
100
AcDbEntity
  8
AM_5
100
AcDbTrace
 10
389.0939284057481
 20
1275.35631947448
 30
0.0
 11
390.0939284057481
 21
1275.35631947448
 31
0.0
 12
389.5939284057481
 22
1272.35631947448
 32
0.0
 13
389.5939284057481
 23
1272.35631947448
 33
0.0
  0
MTEXT
  5
8B33
330
8172
100
AcDbEntity
  8
AM_5
100
AcDbMText
 10
387.1439284057479
 20
1281.753806847895
 30
0.0
 40
3.5
 41
0.0
 71
     5
 72
     1
  1
4.5
 11
0.0000000000000001
 21
1.0
 31
0.0
 73
     1
 44
1.0
1001
ACAD
1000
MTEXTBEGIN
1070
    73
1070
     1
1070
    44
1040
1.0
1070
    74
1070
     0
1000
MTEXTEND
  0
POINT
  5
8B34
330
8172
100
AcDbEntity
  8
Defpoints
 62
     0
100
AcDbPoint
 10
402.4730942302714
 20
1267.856319329936
 30
0.0
  0
POINT
  5
8B35
330
8172
100
AcDbEntity
  8
Defpoints
 62
     0
100
AcDbPoint
 10
394.8553824504864
 20
1272.35631947448
 30
0.0
  0
POINT
  5
8B36
330
8172
100
AcDbEntity
  8
Defpoints
 62
     0
100
AcDbPoint
 10
389.5939284057481
 20
1272.35631947448
 30
0.0
  0
ENDBLK
  5
817F
330
8172
100
AcDbEntity
  8
0
100
AcDbBlockEnd
  0
BLOCK
  5
81A6
330
819C
100
AcDbEntity
  8
0
100
AcDbBlockBegin
  2
*D54
 70
     1
 10
0.0
 20
0.0
 30
0.0
  3
*D54
  1

  0
LINE
  5
8B37
330
819C
100
AcDbEntity
  8
AM_5
100
AcDbLine
 10
401.4730942302715
 20
1264.856319329936
 30
0.0
 11
380.0939284057474
 21
1264.856319329936
 31
0.0
  0
LINE
  5
8B38
330
819C
100
AcDbEntity
  8
AM_5
100
AcDbLine
 10
393.8553824504865
 20
1272.35631947448
 30
0.0
 11
380.0939284057474
 21
1272.35631947448
 31
0.0
  0
LINE
  5
8B39
330
819C
100
AcDbEntity
  8
AM_5
100
AcDbLine
 10
381.5939284057474
 20
1267.856319329936
 30
0.0
 11
381.5939284057474
 21
1269.35631947448
 31
0.0
  0
SOLID
  5
8B3A
330
819C
100
AcDbEntity
  8
AM_5
100
AcDbTrace
 10
381.0939284057474
 20
1267.856319329936
 30
0.0
 11
382.0939284057474
 21
1267.856319329936
 31
0.0
 12
381.5939284057474
 22
1264.856319329936
 32
0.0
 13
381.5939284057474
 23
1264.856319329936
 33
0.0
  0
SOLID
  5
8B3B
330
819C
100
AcDbEntity
  8
AM_5
100
AcDbTrace
 10
381.0939284057474
 20
1269.35631947448
 30
0.0
 11
382.0939284057474
 21
1269.35631947448
 31
0.0
 12
381.5939284057474
 22
1272.35631947448
 32
0.0
 13
381.5939284057474
 23
1272.35631947448
 33
0.0
  0
MTEXT
  5
8B3C
330
819C
100
AcDbEntity
  8
AM_5
100
AcDbMText
 10
379.1439284057472
 20
1268.606319402208
 30
0.0
 40
3.5
 41
0.0
 71
     5
 72
     1
  1
7.5
 11
0.0000000000000001
 21
1.0
 31
0.0
 73
     1
 44
1.0
1001
ACAD
1000
MTEXTBEGIN
1070
    73
1070
     1
1070
    44
1040
1.0
1070
    74
1070
     0
1000
MTEXTEND
  0
POINT
  5
8B3D
330
819C
100
AcDbEntity
  8
Defpoints
 62
     0
100
AcDbPoint
 10
402.4730942302715
 20
1264.856319329936
 30
0.0
  0
POINT
  5
8B3E
330
819C
100
AcDbEntity
  8
Defpoints
 62
     0
100
AcDbPoint
 10
394.8553824504864
 20
1272.35631947448
 30
0.0
  0
POINT
  5
8B3F
330
819C
100
AcDbEntity
  8
Defpoints
 62
     0
100
AcDbPoint
 10
381.5939284057474
 20
1272.35631947448
 30
0.0
  0
ENDBLK
  5
81A7
330
819C
100
AcDbEntity
  8
0
100
AcDbBlockEnd
  0
BLOCK
  5
81DD
330
81D1
100
AcDbEntity
  8
0
100
AcDbBlockBegin
  2
*D55
 70
     1
 10
0.0
 20
0.0
 30
0.0
  3
*D55
  1

  0
LINE
  5
8B40
330
81D1
100
AcDbEntity
  8
AM_5
100
AcDbLine
 10
410.5553820213329
 20
1243.556319969198
 30
0.0
 11
388.0939284057479
 21
1243.556319969198
 31
0.0
  0
LINE
  5
8B41
330
81D1
100
AcDbEntity
  8
AM_5
100
AcDbLine
 10
393.8553824504865
 20
1249.156319769523
 30
0.0
 11
388.0939284057479
 21
1249.156319769523
 31
0.0
  0
LINE
  5
8B42
330
81D1
100
AcDbEntity
  8
AM_5
100
AcDbLine
 10
389.5939284057479
 20
1240.556319969198
 30
0.0
 11
389.5939284057479
 21
1237.556319969198
 31
0.0
  0
LINE
  5
8B43
330
81D1
100
AcDbEntity
  8
AM_5
100
AcDbLine
 10
389.5939284057479
 20
1252.156319769523
 30
0.0
 11
389.5939284057479
 21
1255.156319769523
 31
0.0
  0
LINE
  5
8B44
330
81D1
100
AcDbEntity
  8
AM_5
100
AcDbLine
 10
389.5939284057479
 20
1243.556319969198
 30
0.0
 11
389.5939284057479
 21
1249.156319769523
 31
0.0
  0
SOLID
  5
8B45
330
81D1
100
AcDbEntity
  8
AM_5
100
AcDbTrace
 10
389.0939284057479
 20
1240.556319969198
 30
0.0
 11
390.0939284057479
 21
1240.556319969198
 31
0.0
 12
389.5939284057479
 22
1243.556319969198
 32
0.0
 13
389.5939284057479
 23
1243.556319969198
 33
0.0
  0
SOLID
  5
8B46
330
81D1
100
AcDbEntity
  8
AM_5
100
AcDbTrace
 10
389.0939284057479
 20
1252.156319769523
 30
0.0
 11
390.0939284057479
 21
1252.156319769523
 31
0.0
 12
389.5939284057479
 22
1249.156319769523
 32
0.0
 13
389.5939284057479
 23
1249.156319769523
 33
0.0
  0
MTEXT
  5
8B47
330
81D1
100
AcDbEntity
  8
AM_5
100
AcDbMText
 10
387.1439284057477
 20
1246.356319869361
 30
0.0
 40
3.5
 41
0.0
 71
     5
 72
     1
  1
5.6
 11
0.0000000000000001
 21
1.0
 31
0.0
 73
     1
 44
1.0
1001
ACAD
1000
MTEXTBEGIN
1070
    73
1070
     1
1070
    44
1040
1.0
1070
    74
1070
     0
1000
MTEXTEND
  0
POINT
  5
8B48
330
81D1
100
AcDbEntity
  8
Defpoints
 62
     0
100
AcDbPoint
 10
411.555382021333
 20
1243.556319969198
 30
0.0
  0
POINT
  5
8B49
330
81D1
100
AcDbEntity
  8
Defpoints
 62
     0
100
AcDbPoint
 10
394.8553824504864
 20
1249.156319769523
 30
0.0
  0
POINT
  5
8B4A
330
81D1
100
AcDbEntity
  8
Defpoints
 62
     0
100
AcDbPoint
 10
389.5939284057479
 20
1249.156319769523
 30
0.0
  0
ENDBLK
  5
81DE
330
81D1
100
AcDbEntity
  8
0
100
AcDbBlockEnd
  0
BLOCK
  5
824A
330
8240
100
AcDbEntity
  8
0
100
AcDbBlockBegin
  2
*D56
 70
     1
 10
0.0
 20
0.0
 30
0.0
  3
*D56
  1

  0
LINE
  5
8C20
330
8240
100
AcDbEntity
  8
AM_5
100
AcDbLine
 10
453.1239450528286
 20
1188.76888307163
 30
0.0
 11
464.853121153823
 21
1188.76888307163
 31
0.0
  0
LINE
  5
8C21
330
8240
100
AcDbEntity
  8
AM_5
100
AcDbLine
 10
456.855384998585
 20
1176.268882729492
 30
0.0
 11
464.853121153823
 21
1176.268882729492
 31
0.0
  0
LINE
  5
8C22
330
8240
100
AcDbEntity
  8
AM_5
100
AcDbLine
 10
463.353121153823
 20
1185.768883071629
 30
0.0
 11
463.353121153823
 21
1179.268882729492
 31
0.0
  0
SOLID
  5
8C23
330
8240
100
AcDbEntity
  8
AM_5
100
AcDbTrace
 10
462.853121153823
 20
1185.768883071629
 30
0.0
 11
463.853121153823
 21
1185.768883071629
 31
0.0
 12
463.353121153823
 22
1188.76888307163
 32
0.0
 13
463.353121153823
 23
1188.76888307163
 33
0.0
  0
SOLID
  5
8C24
330
8240
100
AcDbEntity
  8
AM_5
100
AcDbTrace
 10
462.853121153823
 20
1179.268882729492
 30
0.0
 11
463.853121153823
 21
1179.268882729492
 31
0.0
 12
463.353121153823
 22
1176.268882729492
 32
0.0
 13
463.353121153823
 23
1176.268882729492
 33
0.0
  0
MTEXT
  5
8C25
330
8240
100
AcDbEntity
  8
AM_5
100
AcDbMText
 10
460.9027766656338
 20
1182.518882900561
 30
0.0
 40
3.5
 41
0.0
 71
     5
 72
     1
  1
12.5
 11
0.0000000000000001
 21
1.0
 31
0.0
 73
     1
 44
1.0
1001
ACAD
1000
MTEXTBEGIN
1070
    73
1070
     1
1070
    44
1040
1.0
1070
    74
1070
     0
1000
MTEXTEND
  0
POINT
  5
8C26
330
8240
100
AcDbEntity
  8
Defpoints
 62
     0
100
AcDbPoint
 10
452.1239450528286
 20
1188.76888307163
 30
0.0
  0
POINT
  5
8C27
330
8240
100
AcDbEntity
  8
Defpoints
 62
     0
100
AcDbPoint
 10
455.855384998585
 20
1176.268882729492
 30
0.0
  0
POINT
  5
8C28
330
8240
100
AcDbEntity
  8
Defpoints
 62
     0
100
AcDbPoint
 10
463.353121153823
 20
1176.268882729492
 30
0.0
  0
ENDBLK
  5
824B
330
8240
100
AcDbEntity
  8
0
100
AcDbBlockEnd
  0
BLOCK
  5
8270
330
8266
100
AcDbEntity
  8
0
100
AcDbBlockBegin
  2
*D57
 70
     1
 10
0.0
 20
0.0
 30
0.0
  3
*D57
  1

  0
LINE
  5
8C29
330
8266
100
AcDbEntity
  8
AM_5
100
AcDbLine
 10
450.5553826740039
 20
1186.200320692805
 30
0.0
 11
450.5553826740039
 21
1166.958026349061
 31
0.0
  0
LINE
  5
8C2A
330
8266
100
AcDbEntity
  8
AM_5
100
AcDbLine
 10
400.1553826740038
 20
1186.200320692805
 30
0.0
 11
400.1553826740038
 21
1166.958026349061
 31
0.0
  0
LINE
  5
8C2B
330
8266
100
AcDbEntity
  8
AM_5
100
AcDbLine
 10
447.5553826740038
 20
1168.458026349061
 30
0.0
 11
403.1553826740037
 21
1168.458026349061
 31
0.0
  0
SOLID
  5
8C2C
330
8266
100
AcDbEntity
  8
AM_5
100
AcDbTrace
 10
447.5553826740038
 20
1168.958026349061
 30
0.0
 11
447.5553826740038
 21
1167.958026349061
 31
0.0
 12
450.5553826740039
 22
1168.458026349061
 32
0.0
 13
450.5553826740039
 23
1168.458026349061
 33
0.0
  0
SOLID
  5
8C2D
330
8266
100
AcDbEntity
  8
AM_5
100
AcDbTrace
 10
403.1553826740037
 20
1168.958026349061
 30
0.0
 11
403.1553826740037
 21
1167.958026349061
 31
0.0
 12
400.1553826740038
 22
1168.458026349061
 32
0.0
 13
400.1553826740038
 23
1168.458026349061
 33
0.0
  0
MTEXT
  5
8C2E
330
8266
100
AcDbEntity
  8
AM_5
100
AcDbMText
 10
425.3553826740038
 20
1170.908026349061
 30
0.0
 40
3.5
 41
0.0
 71
     5
 72
     1
  1
50.4
 73
     1
 44
1.0
1001
ACAD
1000
MTEXTBEGIN
1070
    73
1070
     1
1070
    44
1040
1.0
1070
    74
1070
     0
1000
MTEXTEND
  0
POINT
  5
8C2F
330
8266
100
AcDbEntity
  8
Defpoints
 62
     0
100
AcDbPoint
 10
450.5553826740039
 20
1187.200320692805
 30
0.0
  0
POINT
  5
8C30
330
8266
100
AcDbEntity
  8
Defpoints
 62
     0
100
AcDbPoint
 10
400.1553826740038
 20
1187.200320692805
 30
0.0
  0
POINT
  5
8C31
330
8266
100
AcDbEntity
  8
Defpoints
 62
     0
100
AcDbPoint
 10
400.1553826740038
 20
1168.458026349061
 30
0.0
  0
ENDBLK
  5
8271
330
8266
100
AcDbEntity
  8
0
100
AcDbBlockEnd
  0
BLOCK
  5
8298
330
828C
100
AcDbEntity
  8
0
100
AcDbBlockBegin
  2
*D58
 70
     1
 10
0.0
 20
0.0
 30
0.0
  3
*D58
  1

  0
LINE
  5
8C32
330
828C
100
AcDbEntity
  8
AM_5
100
AcDbLine
 10
409.2794152117378
 20
1195.868883071629
 30
0.0
 11
390.9929035751245
 21
1195.868883071629
 31
0.0
  0
LINE
  5
8C33
330
828C
100
AcDbEntity
  8
AM_5
100
AcDbLine
 10
393.8553824504865
 20
1192.768883105746
 30
0.0
 11
390.9929035751245
 21
1192.768883105746
 31
0.0
  0
LINE
  5
8C34
330
828C
100
AcDbEntity
  8
AM_5
100
AcDbLine
 10
392.4929035751245
 20
1198.868883071629
 30
0.0
 11
392.4929035751245
 21
1201.868883071629
 31
0.0
  0
LINE
  5
8C35
330
828C
100
AcDbEntity
  8
AM_5
100
AcDbLine
 10
392.4929035751245
 20
1189.768883105746
 30
0.0
 11
392.4929035751245
 21
1181.168883105747
 31
0.0
  0
LINE
  5
8C36
330
828C
100
AcDbEntity
  8
AM_5
100
AcDbLine
 10
392.4929035751245
 20
1195.868883071629
 30
0.0
 11
392.4929035751245
 21
1192.768883105746
 31
0.0
  0
SOLID
  5
8C37
330
828C
100
AcDbEntity
  8
AM_5
100
AcDbTrace
 10
391.9929035751245
 20
1198.868883071629
 30
0.0
 11
392.9929035751245
 21
1198.868883071629
 31
0.0
 12
392.4929035751245
 22
1195.868883071629
 32
0.0
 13
392.4929035751245
 23
1195.868883071629
 33
0.0
  0
SOLID
  5
8C38
330
828C
100
AcDbEntity
  8
AM_5
100
AcDbTrace
 10
391.9929035751245
 20
1189.768883105746
 30
0.0
 11
392.9929035751245
 21
1189.768883105746
 31
0.0
 12
392.4929035751245
 22
1192.768883105746
 32
0.0
 13
392.4929035751245
 23
1192.768883105746
 33
0.0
  0
MTEXT
  5
8C39
330
828C
100
AcDbEntity
  8
AM_5
100
AcDbMText
 10
390.0429035751243
 20
1183.968883105746
 30
0.0
 40
3.5
 41
0.0
 71
     5
 72
     1
  1
3.1
 11
0.0000000000000001
 21
1.0
 31
0.0
 73
     1
 44
1.0
1001
ACAD
1000
MTEXTBEGIN
1070
    73
1070
     1
1070
    44
1040
1.0
1070
    74
1070
     0
1000
MTEXTEND
  0
POINT
  5
8C3A
330
828C
100
AcDbEntity
  8
Defpoints
 62
     0
100
AcDbPoint
 10
410.2794152117378
 20
1195.868883071629
 30
0.0
  0
POINT
  5
8C3B
330
828C
100
AcDbEntity
  8
Defpoints
 62
     0
100
AcDbPoint
 10
394.8553824504864
 20
1192.768883105746
 30
0.0
  0
POINT
  5
8C3C
330
828C
100
AcDbEntity
  8
Defpoints
 62
     0
100
AcDbPoint
 10
392.4929035751245
 20
1192.768883105746
 30
0.0
  0
ENDBLK
  5
8299
330
828C
100
AcDbEntity
  8
0
100
AcDbBlockEnd
  0
BLOCK
  5
82C2
330
82B6
100
AcDbEntity
  8
0
100
AcDbBlockBegin
  2
*D59
 70
     1
 10
0.0
 20
0.0
 30
0.0
  3
*D59
  1

  0
LINE
  5
8C3D
330
82B6
100
AcDbEntity
  8
AM_5
100
AcDbLine
 10
408.5553835561525
 20
1199.368883535645
 30
0.0
 11
382.992903575125
 21
1199.368883535645
 31
0.0
  0
LINE
  5
8C3E
330
82B6
100
AcDbEntity
  8
AM_5
100
AcDbLine
 10
393.8553824504865
 20
1192.768883105746
 30
0.0
 11
382.992903575125
 21
1192.768883105746
 31
0.0
  0
LINE
  5
8C3F
330
82B6
100
AcDbEntity
  8
AM_5
100
AcDbLine
 10
384.492903575125
 20
1202.368883535645
 30
0.0
 11
384.492903575125
 21
1205.368883535645
 31
0.0
  0
LINE
  5
8C40
330
82B6
100
AcDbEntity
  8
AM_5
100
AcDbLine
 10
384.492903575125
 20
1189.768883105746
 30
0.0
 11
384.492903575125
 21
1180.085812239605
 31
0.0
  0
LINE
  5
8C41
330
82B6
100
AcDbEntity
  8
AM_5
100
AcDbLine
 10
384.492903575125
 20
1199.368883535645
 30
0.0
 11
384.492903575125
 21
1192.768883105746
 31
0.0
  0
SOLID
  5
8C42
330
82B6
100
AcDbEntity
  8
AM_5
100
AcDbTrace
 10
383.992903575125
 20
1202.368883535645
 30
0.0
 11
384.992903575125
 21
1202.368883535645
 31
0.0
 12
384.492903575125
 22
1199.368883535645
 32
0.0
 13
384.492903575125
 23
1199.368883535645
 33
0.0
  0
SOLID
  5
8C43
330
82B6
100
AcDbEntity
  8
AM_5
100
AcDbTrace
 10
383.992903575125
 20
1189.768883105746
 30
0.0
 11
384.992903575125
 21
1189.768883105746
 31
0.0
 12
384.492903575125
 22
1192.768883105746
 32
0.0
 13
384.492903575125
 23
1192.768883105746
 33
0.0
  0
MTEXT
  5
8C44
330
82B6
100
AcDbEntity
  8
AM_5
100
AcDbMText
 10
382.0429035751248
 20
1183.427347672675
 30
0.0
 40
3.5
 41
0.0
 71
     5
 72
     1
  1
6.6
 11
0.0000000000000001
 21
1.0
 31
0.0
 73
     1
 44
1.0
1001
ACAD
1000
MTEXTBEGIN
1070
    73
1070
     1
1070
    44
1040
1.0
1070
    74
1070
     0
1000
MTEXTEND
  0
POINT
  5
8C45
330
82B6
100
AcDbEntity
  8
Defpoints
 62
     0
100
AcDbPoint
 10
409.5553835561526
 20
1199.368883535645
 30
0.0
  0
POINT
  5
8C46
330
82B6
100
AcDbEntity
  8
Defpoints
 62
     0
100
AcDbPoint
 10
394.8553824504864
 20
1192.768883105746
 30
0.0
  0
POINT
  5
8C47
330
82B6
100
AcDbEntity
  8
Defpoints
 62
     0
100
AcDbPoint
 10
384.492903575125
 20
1192.768883105746
 30
0.0
  0
ENDBLK
  5
82C3
330
82B6
100
AcDbEntity
  8
0
100
AcDbBlockEnd
  0
BLOCK
  5
82EC
330
82E0
100
AcDbEntity
  8
0
100
AcDbBlockBegin
  2
*D60
 70
     1
 10
0.0
 20
0.0
 30
0.0
  3
*D60
  1

  0
LINE
  5
8C48
330
82E0
100
AcDbEntity
  8
AM_5
100
AcDbLine
 10
422.1053841492187
 20
1209.068882726512
 30
0.0
 11
422.1053841492187
 21
1214.33487321763
 31
0.0
  0
LINE
  5
8C49
330
82E0
100
AcDbEntity
  8
AM_5
100
AcDbLine
 10
427.6053841492187
 20
1209.268883071629
 30
0.0
 11
427.6053841492187
 21
1214.33487321763
 31
0.0
  0
LINE
  5
8C4A
330
82E0
100
AcDbEntity
  8
AM_5
100
AcDbLine
 10
419.1053841492187
 20
1212.834873217631
 30
0.0
 11
416.1053841492186
 21
1212.834873217631
 31
0.0
  0
LINE
  5
8C4B
330
82E0
100
AcDbEntity
  8
AM_5
100
AcDbLine
 10
430.6053841492187
 20
1212.834873217631
 30
0.0
 11
440.0503588960493
 21
1212.834873217631
 31
0.0
  0
LINE
  5
8C4C
330
82E0
100
AcDbEntity
  8
AM_5
100
AcDbLine
 10
422.1053841492187
 20
1212.834873217631
 30
0.0
 11
427.6053841492187
 21
1212.834873217631
 31
0.0
  0
SOLID
  5
8C4D
330
82E0
100
AcDbEntity
  8
AM_5
100
AcDbTrace
 10
419.1053841492187
 20
1213.334873217631
 30
0.0
 11
419.1053841492187
 21
1212.334873217631
 31
0.0
 12
422.1053841492187
 22
1212.834873217631
 32
0.0
 13
422.1053841492187
 23
1212.834873217631
 33
0.0
  0
SOLID
  5
8C4E
330
82E0
100
AcDbEntity
  8
AM_5
100
AcDbTrace
 10
430.6053841492187
 20
1213.334873217631
 30
0.0
 11
430.6053841492187
 21
1212.334873217631
 31
0.0
 12
427.6053841492187
 22
1212.834873217631
 32
0.0
 13
427.6053841492187
 23
1212.834873217631
 33
0.0
  0
MTEXT
  5
8C4F
330
82E0
100
AcDbEntity
  8
AM_5
100
AcDbMText
 10
436.8278715226339
 20
1215.284873217631
 30
0.0
 40
3.5
 41
0.0
 71
     5
 72
     1
  1
5.5
 73
     1
 44
1.0
1001
ACAD
1000
MTEXTBEGIN
1070
    73
1070
     1
1070
    44
1040
1.0
1070
    74
1070
     0
1000
MTEXTEND
  0
POINT
  5
8C50
330
82E0
100
AcDbEntity
  8
Defpoints
 62
     0
100
AcDbPoint
 10
422.1053841492187
 20
1208.068882726512
 30
0.0
  0
POINT
  5
8C51
330
82E0
100
AcDbEntity
  8
Defpoints
 62
     0
100
AcDbPoint
 10
427.6053841492187
 20
1208.268883071629
 30
0.0
  0
POINT
  5
8C52
330
82E0
100
AcDbEntity
  8
Defpoints
 62
     0
100
AcDbPoint
 10
427.6053841492187
 20
1212.834873217631
 30
0.0
  0
ENDBLK
  5
82ED
330
82E0
100
AcDbEntity
  8
0
100
AcDbBlockEnd
  0
BLOCK
  5
832E
330
8324
100
AcDbEntity
  8
0
100
AcDbBlockBegin
  2
*D61
 70
     1
 10
0.0
 20
0.0
 30
0.0
  3
*D61
  1

  0
LINE
  5
8B7E
330
8324
100
AcDbEntity
  8
AM_5
100
AcDbLine
 10
337.3006883237051
 20
1273.056319052777
 30
0.0
 11
337.3006883237051
 21
1286.839360939011
 31
0.0
  0
LINE
  5
8B7F
330
8324
100
AcDbEntity
  8
AM_5
100
AcDbLine
 10
353.8006886999594
 20
1273.056319052777
 30
0.0
 11
353.8006886999594
 21
1286.839360939011
 31
0.0
  0
LINE
  5
8B80
330
8324
100
AcDbEntity
  8
AM_5
100
AcDbLine
 10
340.3006883237051
 20
1285.339360939011
 30
0.0
 11
350.8006886999595
 21
1285.339360939011
 31
0.0
  0
SOLID
  5
8B81
330
8324
100
AcDbEntity
  8
AM_5
100
AcDbTrace
 10
340.3006883237051
 20
1285.839360939011
 30
0.0
 11
340.3006883237051
 21
1284.839360939011
 31
0.0
 12
337.3006883237051
 22
1285.339360939011
 32
0.0
 13
337.3006883237051
 23
1285.339360939011
 33
0.0
  0
SOLID
  5
8B82
330
8324
100
AcDbEntity
  8
AM_5
100
AcDbTrace
 10
350.8006886999595
 20
1285.839360939011
 30
0.0
 11
350.8006886999595
 21
1284.839360939011
 31
0.0
 12
353.8006886999594
 22
1285.339360939011
 32
0.0
 13
353.8006886999594
 23
1285.339360939011
 33
0.0
  0
MTEXT
  5
8B83
330
8324
100
AcDbEntity
  8
AM_5
100
AcDbMText
 10
345.5506885118323
 20
1287.789360939011
 30
0.0
 40
3.5
 41
0.0
 71
     5
 72
     1
  1
16.5
 73
     1
 44
1.0
1001
ACAD
1000
MTEXTBEGIN
1070
    73
1070
     1
1070
    44
1040
1.0
1070
    74
1070
     0
1000
MTEXTEND
  0
POINT
  5
8B84
330
8324
100
AcDbEntity
  8
Defpoints
 62
     0
100
AcDbPoint
 10
337.3006883237051
 20
1272.056319052777
 30
0.0
  0
POINT
  5
8B85
330
8324
100
AcDbEntity
  8
Defpoints
 62
     0
100
AcDbPoint
 10
353.8006886999594
 20
1272.056319052777
 30
0.0
  0
POINT
  5
8B86
330
8324
100
AcDbEntity
  8
Defpoints
 62
     0
100
AcDbPoint
 10
353.8006886999594
 20
1285.339360939011
 30
0.0
  0
ENDBLK
  5
832F
330
8324
100
AcDbEntity
  8
0
100
AcDbBlockEnd
  0
BLOCK
  5
837E
330
8374
100
AcDbEntity
  8
0
100
AcDbBlockBegin
  2
*D63
 70
     1
 10
0.0
 20
0.0
 30
0.0
  3
*D63
  1

  0
LINE
  5
8B87
330
8374
100
AcDbEntity
  8
AM_5
100
AcDbLine
 10
321.8006890426861
 20
1268.856319202534
 30
0.0
 11
321.8006890426861
 21
1286.839360939011
 31
0.0
  0
LINE
  5
8B88
330
8374
100
AcDbEntity
  8
AM_5
100
AcDbLine
 10
329.3006884093868
 20
1273.65631896486
 30
0.0
 11
329.3006884093868
 21
1286.839360939011
 31
0.0
  0
LINE
  5
8B89
330
8374
100
AcDbEntity
  8
AM_5
100
AcDbLine
 10
324.8006890426861
 20
1285.339360939011
 30
0.0
 11
326.3006884093868
 21
1285.339360939011
 31
0.0
  0
SOLID
  5
8B8A
330
8374
100
AcDbEntity
  8
AM_5
100
AcDbTrace
 10
324.8006890426861
 20
1285.839360939011
 30
0.0
 11
324.8006890426861
 21
1284.839360939011
 31
0.0
 12
321.8006890426861
 22
1285.339360939011
 32
0.0
 13
321.8006890426861
 23
1285.339360939011
 33
0.0
  0
INSERT
  5
8B8B
330
8374
100
AcDbEntity
  8
AM_5
100
AcDbBlockReference
  2
GENDOT
 10
329.3006884093868
 20
1285.339360939011
 30
0.0
 41
3.0
 42
3.0
 43
3.0
  0
MTEXT
  5
8B8C
330
8374
100
AcDbEntity
  8
AM_5
100
AcDbMText
 10
325.5506887260365
 20
1287.789360939011
 30
0.0
 40
3.5
 41
0.0
 71
     5
 72
     1
  1
7.5
 73
     1
 44
1.0
1001
ACAD
1000
MTEXTBEGIN
1070
    73
1070
     1
1070
    44
1040
1.0
1070
    74
1070
     0
1000
MTEXTEND
  0
POINT
  5
8B8D
330
8374
100
AcDbEntity
  8
Defpoints
 62
     0
100
AcDbPoint
 10
321.8006890426861
 20
1267.856319202534
 30
0.0
  0
POINT
  5
8B8E
330
8374
100
AcDbEntity
  8
Defpoints
 62
     0
100
AcDbPoint
 10
329.3006884093868
 20
1272.65631896486
 30
0.0
  0
POINT
  5
8B8F
330
8374
100
AcDbEntity
  8
Defpoints
 62
     0
100
AcDbPoint
 10
329.3006884093868
 20
1285.339360939011
 30
0.0
  0
ENDBLK
  5
837F
330
8374
100
AcDbEntity
  8
0
100
AcDbBlockEnd
  0
BLOCK
  5
8398
330
838C
100
AcDbEntity
  8
0
100
AcDbBlockBegin
  2
*D64
 70
     1
 10
0.0
 20
0.0
 30
0.0
  3
*D64
  1

  0
LINE
  5
8B90
330
838C
100
AcDbEntity
  8
AM_5
100
AcDbLine
 10
335.3006884615409
 20
1273.856319556436
 30
0.0
 11
335.3006884615409
 21
1286.839360939011
 31
0.0
  0
LINE
  5
8B91
330
838C
100
AcDbEntity
  8
AM_5
100
AcDbLine
 10
329.3006884093868
 20
1273.65631896486
 30
0.0
 11
329.3006884093868
 21
1286.839360939011
 31
0.0
  0
LINE
  5
8B92
330
838C
100
AcDbEntity
  8
AM_5
100
AcDbLine
 10
338.3006884615408
 20
1285.339360939011
 30
0.0
 11
341.3006884615409
 21
1285.339360939011
 31
0.0
  0
LINE
  5
8B93
330
838C
100
AcDbEntity
  8
AM_5
100
AcDbLine
 10
326.3006884093868
 20
1285.339360939011
 30
0.0
 11
323.3006884093868
 21
1285.339360939011
 31
0.0
  0
LINE
  5
8B94
330
838C
100
AcDbEntity
  8
AM_5
100
AcDbLine
 10
335.3006884615409
 20
1285.339360939011
 30
0.0
 11
329.3006884093868
 21
1285.339360939011
 31
0.0
  0
SOLID
  5
8B95
330
838C
100
AcDbEntity
  8
AM_5
100
AcDbTrace
 10
338.3006884615408
 20
1285.839360939011
 30
0.0
 11
338.3006884615408
 21
1284.839360939011
 31
0.0
 12
335.3006884615409
 22
1285.339360939011
 32
0.0
 13
335.3006884615409
 23
1285.339360939011
 33
0.0
  0
SOLID
  5
8B96
330
838C
100
AcDbEntity
  8
AM_5
100
AcDbTrace
 10
326.3006884093868
 20
1285.839360939011
 30
0.0
 11
326.3006884093868
 21
1284.839360939011
 31
0.0
 12
329.3006884093868
 22
1285.339360939011
 32
0.0
 13
329.3006884093868
 23
1285.339360939011
 33
0.0
  0
MTEXT
  5
8B97
330
838C
100
AcDbEntity
  8
AM_5
100
AcDbMText
 10
332.3006884354638
 20
1287.789360939011
 30
0.0
 40
3.5
 41
0.0
 71
     5
 72
     1
  1
6
 73
     1
 44
1.0
1001
ACAD
1000
MTEXTBEGIN
1070
    73
1070
     1
1070
    44
1040
1.0
1070
    74
1070
     0
1000
MTEXTEND
  0
POINT
  5
8B98
330
838C
100
AcDbEntity
  8
Defpoints
 62
     0
100
AcDbPoint
 10
335.3006884615409
 20
1272.856319556436
 30
0.0
  0
POINT
  5
8B99
330
838C
100
AcDbEntity
  8
Defpoints
 62
     0
100
AcDbPoint
 10
329.3006884093868
 20
1272.65631896486
 30
0.0
  0
POINT
  5
8B9A
330
838C
100
AcDbEntity
  8
Defpoints
 62
     0
100
AcDbPoint
 10
329.3006884093868
 20
1285.339360939011
 30
0.0
  0
ENDBLK
  5
8399
330
838C
100
AcDbEntity
  8
0
100
AcDbBlockEnd
  0
BLOCK
  5
83AB
330
83A8
100
AcDbEntity
  8
0
100
AcDbBlockBegin
  2
GENDOT
 70
     0
 10
0.0
 20
0.0
 30
0.0
  3
GENDOT
  1

  0
LINE
  5
83A9
330
83A8
100
AcDbEntity
  8
0
100
AcDbLine
 10
0.0
 20
0.0
 30
0.0
 11
-1.0
 21
0.0
 31
0.0
  0
LWPOLYLINE
  5
83AA
330
83A8
100
AcDbEntity
  8
0
100
AcDbPolyline
 90
        2
 70
     1
 43
0.25
 10
-0.125
 20
0.0
 42
1.0
 10
0.125
 20
0.0
 42
1.0
  0
ENDBLK
  5
83AC
330
83A8
100
AcDbEntity
  8
0
100
AcDbBlockEnd
  0
BLOCK
  5
83E5
330
83DB
100
AcDbEntity
  8
0
100
AcDbBlockBegin
  2
*D66
 70
     1
 10
0.0
 20
0.0
 30
0.0
  3
*D66
  1

  0
LINE
  5
8B9B
330
83DB
100
AcDbEntity
  8
AM_5
100
AcDbLine
 10
321.8006890426861
 20
1268.65631905006
 30
0.0
 11
321.8006890426861
 21
1294.839360939011
 31
0.0
  0
LINE
  5
8B9C
330
83DB
100
AcDbEntity
  8
AM_5
100
AcDbLine
 10
353.8006886999594
 20
1273.056319052777
 30
0.0
 11
353.8006886999594
 21
1294.839360939011
 31
0.0
  0
LINE
  5
8B9D
330
83DB
100
AcDbEntity
  8
AM_5
100
AcDbLine
 10
324.8006890426861
 20
1293.339360939011
 30
0.0
 11
350.8006886999595
 21
1293.339360939011
 31
0.0
  0
SOLID
  5
8B9E
330
83DB
100
AcDbEntity
  8
AM_5
100
AcDbTrace
 10
324.8006890426861
 20
1293.839360939011
 30
0.0
 11
324.8006890426861
 21
1292.839360939011
 31
0.0
 12
321.8006890426861
 22
1293.339360939011
 32
0.0
 13
321.8006890426861
 23
1293.339360939011
 33
0.0
  0
SOLID
  5
8B9F
330
83DB
100
AcDbEntity
  8
AM_5
100
AcDbTrace
 10
350.8006886999595
 20
1293.839360939011
 30
0.0
 11
350.8006886999595
 21
1292.839360939011
 31
0.0
 12
353.8006886999594
 22
1293.339360939011
 32
0.0
 13
353.8006886999594
 23
1293.339360939011
 33
0.0
  0
MTEXT
  5
8BA0
330
83DB
100
AcDbEntity
  8
AM_5
100
AcDbMText
 10
337.8006888713228
 20
1295.7897054272
 30
0.0
 40
3.5
 41
0.0
 71
     5
 72
     1
  1
32
 73
     1
 44
1.0
1001
ACAD
1000
MTEXTBEGIN
1070
    73
1070
     1
1070
    44
1040
1.0
1070
    74
1070
     0
1000
MTEXTEND
  0
POINT
  5
8BA1
330
83DB
100
AcDbEntity
  8
Defpoints
 62
     0
100
AcDbPoint
 10
321.8006890426861
 20
1267.65631905006
 30
0.0
  0
POINT
  5
8BA2
330
83DB
100
AcDbEntity
  8
Defpoints
 62
     0
100
AcDbPoint
 10
353.8006886999594
 20
1272.056319052777
 30
0.0
  0
POINT
  5
8BA3
330
83DB
100
AcDbEntity
  8
Defpoints
 62
     0
100
AcDbPoint
 10
353.8006886999594
 20
1293.339360939011
 30
0.0
  0
ENDBLK
  5
83E6
330
83DB
100
AcDbEntity
  8
0
100
AcDbBlockEnd
  0
BLOCK
  5
8438
330
842C
100
AcDbEntity
  8
0
100
AcDbBlockBegin
  2
*D68
 70
     1
 10
0.0
 20
0.0
 30
0.0
  3
*D68
  1

  0
LINE
  5
8BA4
330
842C
100
AcDbEntity
  8
AM_5
100
AcDbLine
 10
348.9006883578223
 20
1251.056319329936
 30
0.0
 11
362.7756609440913
 21
1251.056319329936
 31
0.0
  0
LINE
  5
8BA5
330
842C
100
AcDbEntity
  8
AM_5
100
AcDbLine
 10
354.5006882782566
 20
1248.85631934782
 30
0.0
 11
362.7756609440913
 21
1248.85631934782
 31
0.0
  0
LINE
  5
8BA6
330
842C
100
AcDbEntity
  8
AM_5
100
AcDbLine
 10
361.2756609440913
 20
1245.85631934782
 30
0.0
 11
361.2756609440913
 21
1242.85631934782
 31
0.0
  0
LINE
  5
8BA7
330
842C
100
AcDbEntity
  8
AM_5
100
AcDbLine
 10
361.2756609440913
 20
1254.056319329936
 30
0.0
 11
361.2756609440913
 21
1263.655403975605
 31
0.0
  0
LINE
  5
8BA8
330
842C
100
AcDbEntity
  8
AM_5
100
AcDbLine
 10
361.2756609440913
 20
1248.85631934782
 30
0.0
 11
361.2756609440913
 21
1251.056319329936
 31
0.0
  0
SOLID
  5
8BA9
330
842C
100
AcDbEntity
  8
AM_5
100
AcDbTrace
 10
360.7756609440913
 20
1245.85631934782
 30
0.0
 11
361.7756609440913
 21
1245.85631934782
 31
0.0
 12
361.2756609440913
 22
1248.85631934782
 32
0.0
 13
361.2756609440913
 23
1248.85631934782
 33
0.0
  0
SOLID
  5
8BAA
330
842C
100
AcDbEntity
  8
AM_5
100
AcDbTrace
 10
360.7756609440913
 20
1254.056319329936
 30
0.0
 11
361.7756609440913
 21
1254.056319329936
 31
0.0
 12
361.2756609440913
 22
1251.056319329936
 32
0.0
 13
361.2756609440913
 23
1251.056319329936
 33
0.0
  0
MTEXT
  5
8BAB
330
842C
100
AcDbEntity
  8
AM_5
100
AcDbMText
 10
358.8253164559021
 20
1260.35586165277
 30
0.0
 40
3.5
 41
0.0
 71
     5
 72
     1
  1
2.2
 11
0.0000000000000001
 21
1.0
 31
0.0
 73
     1
 44
1.0
1001
ACAD
1000
MTEXTBEGIN
1070
    73
1070
     1
1070
    44
1040
1.0
1070
    74
1070
     0
1000
MTEXTEND
  0
POINT
  5
8BAC
330
842C
100
AcDbEntity
  8
Defpoints
 62
     0
100
AcDbPoint
 10
347.9006883578223
 20
1251.056319329936
 30
0.0
  0
POINT
  5
8BAD
330
842C
100
AcDbEntity
  8
Defpoints
 62
     0
100
AcDbPoint
 10
353.5006882782566
 20
1248.85631934782
 30
0.0
  0
POINT
  5
8BAE
330
842C
100
AcDbEntity
  8
Defpoints
 62
     0
100
AcDbPoint
 10
361.2756609440913
 20
1248.85631934782
 30
0.0
  0
ENDBLK
  5
8439
330
842C
100
AcDbEntity
  8
0
100
AcDbBlockEnd
  0
BLOCK
  5
8462
330
8456
100
AcDbEntity
  8
0
100
AcDbBlockBegin
  2
*D69
 70
     1
 10
0.0
 20
0.0
 30
0.0
  3
*D69
  1

  0
LINE
  5
8BAF
330
8456
100
AcDbEntity
  8
AM_5
100
AcDbLine
 10
347.9006883578223
 20
1250.056319329936
 30
0.0
 11
347.9006883578223
 21
1235.35631834782
 31
0.0
  0
LINE
  5
8BB0
330
8456
100
AcDbEntity
  8
AM_5
100
AcDbLine
 10
353.8006886999594
 20
1248.156319769523
 30
0.0
 11
353.8006886999594
 21
1235.35631834782
 31
0.0
  0
LINE
  5
8BB1
330
8456
100
AcDbEntity
  8
AM_5
100
AcDbLine
 10
344.9006883578223
 20
1236.85631834782
 30
0.0
 11
341.9006883578223
 21
1236.85631834782
 31
0.0
  0
LINE
  5
8BB2
330
8456
100
AcDbEntity
  8
AM_5
100
AcDbLine
 10
356.8006886999594
 20
1236.85631834782
 30
0.0
 11
359.8006886999594
 21
1236.85631834782
 31
0.0
  0
LINE
  5
8BB3
330
8456
100
AcDbEntity
  8
AM_5
100
AcDbLine
 10
347.9006883578223
 20
1236.85631834782
 30
0.0
 11
353.8006886999594
 21
1236.85631834782
 31
0.0
  0
SOLID
  5
8BB4
330
8456
100
AcDbEntity
  8
AM_5
100
AcDbTrace
 10
344.9006883578223
 20
1237.35631834782
 30
0.0
 11
344.9006883578223
 21
1236.35631834782
 31
0.0
 12
347.9006883578223
 22
1236.85631834782
 32
0.0
 13
347.9006883578223
 23
1236.85631834782
 33
0.0
  0
SOLID
  5
8BB5
330
8456
100
AcDbEntity
  8
AM_5
100
AcDbTrace
 10
356.8006886999594
 20
1237.35631834782
 30
0.0
 11
356.8006886999594
 21
1236.35631834782
 31
0.0
 12
353.8006886999594
 22
1236.85631834782
 32
0.0
 13
353.8006886999594
 23
1236.85631834782
 33
0.0
  0
MTEXT
  5
8BB6
330
8456
100
AcDbEntity
  8
AM_5
100
AcDbMText
 10
350.8506885288909
 20
1239.30631834782
 30
0.0
 40
3.5
 41
0.0
 71
     5
 72
     1
  1
5.9
 73
     1
 44
1.0
1001
ACAD
1000
MTEXTBEGIN
1070
    73
1070
     1
1070
    44
1040
1.0
1070
    74
1070
     0
1000
MTEXTEND
  0
POINT
  5
8BB7
330
8456
100
AcDbEntity
  8
Defpoints
 62
     0
100
AcDbPoint
 10
347.9006883578223
 20
1251.056319329936
 30
0.0
  0
POINT
  5
8BB8
330
8456
100
AcDbEntity
  8
Defpoints
 62
     0
100
AcDbPoint
 10
353.8006886999594
 20
1249.156319769523
 30
0.0
  0
POINT
  5
8BB9
330
8456
100
AcDbEntity
  8
Defpoints
 62
     0
100
AcDbPoint
 10
353.8006886999594
 20
1236.85631834782
 30
0.0
  0
ENDBLK
  5
8463
330
8456
100
AcDbEntity
  8
0
100
AcDbBlockEnd
  0
BLOCK
  5
848C
330
8480
100
AcDbEntity
  8
0
100
AcDbBlockBegin
  2
*D70
 70
     1
 10
0.0
 20
0.0
 30
0.0
  3
*D70
  1

  0
LINE
  5
8BBA
330
8480
100
AcDbEntity
  8
AM_5
100
AcDbLine
 10
329.3006884093868
 20
1256.056319388053
 30
0.0
 11
329.3006884093868
 21
1235.356318347819
 31
0.0
  0
LINE
  5
8BBB
330
8480
100
AcDbEntity
  8
AM_5
100
AcDbLine
 10
330.7006878938066
 20
1248.356319429776
 30
0.0
 11
330.7006878938066
 21
1235.356318347819
 31
0.0
  0
LINE
  5
8BBC
330
8480
100
AcDbEntity
  8
AM_5
100
AcDbLine
 10
333.7006878938066
 20
1236.856318347819
 30
0.0
 11
336.7006878938066
 21
1236.856318347819
 31
0.0
  0
LINE
  5
8BBD
330
8480
100
AcDbEntity
  8
AM_5
100
AcDbLine
 10
326.3006884093868
 20
1236.856318347819
 30
0.0
 11
317.3506884093868
 21
1236.856318347819
 31
0.0
  0
LINE
  5
8BBE
330
8480
100
AcDbEntity
  8
AM_5
100
AcDbLine
 10
330.7006878938066
 20
1236.856318347819
 30
0.0
 11
329.3006884093868
 21
1236.856318347819
 31
0.0
  0
SOLID
  5
8BBF
330
8480
100
AcDbEntity
  8
AM_5
100
AcDbTrace
 10
333.7006878938066
 20
1237.356318347819
 30
0.0
 11
333.7006878938066
 21
1236.356318347819
 31
0.0
 12
330.7006878938066
 22
1236.856318347819
 32
0.0
 13
330.7006878938066
 23
1236.856318347819
 33
0.0
  0
SOLID
  5
8BC0
330
8480
100
AcDbEntity
  8
AM_5
100
AcDbTrace
 10
326.3006884093868
 20
1237.356318347819
 30
0.0
 11
326.3006884093868
 21
1236.356318347819
 31
0.0
 12
329.3006884093868
 22
1236.856318347819
 32
0.0
 13
329.3006884093868
 23
1236.856318347819
 33
0.0
  0
MTEXT
  5
8BC1
330
8480
100
AcDbEntity
  8
AM_5
100
AcDbMText
 10
320.3256884093868
 20
1239.306318347819
 30
0.0
 40
3.5
 41
0.0
 71
     5
 72
     1
  1
1.4
 73
     1
 44
1.0
1001
ACAD
1000
MTEXTBEGIN
1070
    73
1070
     1
1070
    44
1040
1.0
1070
    74
1070
     0
1000
MTEXTEND
  0
POINT
  5
8BC2
330
8480
100
AcDbEntity
  8
Defpoints
 62
     0
100
AcDbPoint
 10
329.3006884093868
 20
1257.056319388053
 30
0.0
  0
POINT
  5
8BC3
330
8480
100
AcDbEntity
  8
Defpoints
 62
     0
100
AcDbPoint
 10
330.7006878938066
 20
1249.356319429776
 30
0.0
  0
POINT
  5
8BC4
330
8480
100
AcDbEntity
  8
Defpoints
 62
     0
100
AcDbPoint
 10
330.7006878938066
 20
1236.856318347819
 30
0.0
  0
ENDBLK
  5
848D
330
8480
100
AcDbEntity
  8
0
100
AcDbBlockEnd
  0
BLOCK
  5
88C0
330
88BF
100
AcDbEntity
  8
0
100
AcDbBlockBegin
  2
*D71
 70
     1
 10
0.0
 20
0.0
 30
0.0
  3
*D71
  1

  0
LINE
  5
88C1
330
88BF
100
AcDbEntity
  8
AM_5
100
AcDbLine
 10
328.3626063767779
 20
1265.828860393842
 30
0.0
 11
323.9396373433036
 21
1265.828860393842
 31
0.0
  0
LINE
  5
88C2
330
88BF
100
AcDbEntity
  8
AM_5
100
AcDbLine
 10
328.3626063767779
 20
1259.828860511222
 30
0.0
 11
323.9396373433036
 21
1259.828860511222
 31
0.0
  0
LINE
  5
88C3
330
88BF
100
AcDbEntity
  8
AM_5
100
AcDbLine
 10
325.4396373433036
 20
1268.828860393842
 30
0.0
 11
325.4396373433036
 21
1271.828860393842
 31
0.0
  0
LINE
  5
88C4
330
88BF
100
AcDbEntity
  8
AM_5
100
AcDbLine
 10
325.4396373433036
 20
1256.828860511222
 30
0.0
 11
325.4396373433036
 21
1247.705238463978
 31
0.0
  0
LINE
  5
88C5
330
88BF
100
AcDbEntity
  8
AM_5
100
AcDbLine
 10
325.4396373433036
 20
1265.828860393842
 30
0.0
 11
325.4396373433036
 21
1259.828860511222
 31
0.0
  0
SOLID
  5
88C6
330
88BF
100
AcDbEntity
  8
AM_5
100
AcDbTrace
 10
324.9396373433036
 20
1268.828860393842
 30
0.0
 11
325.9396373433036
 21
1268.828860393842
 31
0.0
 12
325.4396373433036
 22
1265.828860393842
 32
0.0
 13
325.4396373433036
 23
1265.828860393842
 33
0.0
  0
SOLID
  5
88C7
330
88BF
100
AcDbEntity
  8
AM_5
100
AcDbTrace
 10
324.9396373433036
 20
1256.828860511222
 30
0.0
 11
325.9396373433036
 21
1256.828860511222
 31
0.0
 12
325.4396373433036
 22
1259.828860511222
 32
0.0
 13
325.4396373433036
 23
1259.828860511222
 33
0.0
  0
MTEXT
  5
88C8
330
88BF
100
AcDbEntity
  8
AM_5
100
AcDbMText
 10
322.9896373433034
 20
1250.767049487599
 30
0.0
 40
3.5
 41
0.0
 71
     5
 72
     1
  1
%%C6
 11
0.0000000000000001
 21
1.0
 31
0.0
 73
     1
 44
1.0
1001
ACAD
1000
MTEXTBEGIN
1070
    73
1070
     1
1070
    44
1040
1.0
1070
    74
1070
     0
1000
MTEXTEND
  0
POINT
  5
88C9
330
88BF
100
AcDbEntity
  8
Defpoints
 62
     0
100
AcDbPoint
 10
329.3626063767779
 20
1265.828860393842
 30
0.0
  0
POINT
  5
88CA
330
88BF
100
AcDbEntity
  8
Defpoints
 62
     0
100
AcDbPoint
 10
329.3626063767779
 20
1259.828860511222
 30
0.0
  0
POINT
  5
88CB
330
88BF
100
AcDbEntity
  8
Defpoints
 62
     0
100
AcDbPoint
 10
325.4396373433036
 20
1259.828860511222
 30
0.0
  0
ENDBLK
  5
88CC
330
88BF
100
AcDbEntity
  8
0
100
AcDbBlockEnd
  0
BLOCK
  5
8919
330
890D
100
AcDbEntity
  8
0
100
AcDbBlockBegin
  2
*D73
 70
     1
 10
0.0
 20
0.0
 30
0.0
  3
*D73
  1

  0
LINE
  5
8BC5
330
890D
100
AcDbEntity
  8
AM_5
100
AcDbLine
 10
321.000688692917
 20
1267.856319165952
 30
0.0
 11
316.5777196594427
 21
1267.856319165952
 31
0.0
  0
LINE
  5
8BC6
330
890D
100
AcDbEntity
  8
AM_5
100
AcDbLine
 10
321.000688692917
 20
1261.856319283332
 30
0.0
 11
316.5777196594427
 21
1261.856319283332
 31
0.0
  0
LINE
  5
8BC7
330
890D
100
AcDbEntity
  8
AM_5
100
AcDbLine
 10
318.0777196594427
 20
1270.856319165952
 30
0.0
 11
318.0777196594427
 21
1273.856319165952
 31
0.0
  0
LINE
  5
8BC8
330
890D
100
AcDbEntity
  8
AM_5
100
AcDbLine
 10
318.0777196594427
 20
1258.856319283332
 30
0.0
 11
318.0777196594427
 21
1249.732697236088
 31
0.0
  0
LINE
  5
8BC9
330
890D
100
AcDbEntity
  8
AM_5
100
AcDbLine
 10
318.0777196594427
 20
1267.856319165952
 30
0.0
 11
318.0777196594427
 21
1261.856319283332
 31
0.0
  0
SOLID
  5
8BCA
330
890D
100
AcDbEntity
  8
AM_5
100
AcDbTrace
 10
317.5777196594427
 20
1270.856319165952
 30
0.0
 11
318.5777196594427
 21
1270.856319165952
 31
0.0
 12
318.0777196594427
 22
1267.856319165952
 32
0.0
 13
318.0777196594427
 23
1267.856319165952
 33
0.0
  0
SOLID
  5
8BCB
330
890D
100
AcDbEntity
  8
AM_5
100
AcDbTrace
 10
317.5777196594427
 20
1258.856319283332
 30
0.0
 11
318.5777196594427
 21
1258.856319283332
 31
0.0
 12
318.0777196594427
 22
1261.856319283332
 32
0.0
 13
318.0777196594427
 23
1261.856319283332
 33
0.0
  0
MTEXT
  5
8BCC
330
890D
100
AcDbEntity
  8
AM_5
100
AcDbMText
 10
315.6277196594425
 20
1252.794508259709
 30
0.0
 40
3.5
 41
0.0
 71
     5
 72
     1
  1
%%C6
 11
0.0000000000000001
 21
1.0
 31
0.0
 73
     1
 44
1.0
1001
ACAD
1000
MTEXTBEGIN
1070
    73
1070
     1
1070
    44
1040
1.0
1070
    74
1070
     0
1000
MTEXTEND
  0
POINT
  5
8BCD
330
890D
100
AcDbEntity
  8
Defpoints
 62
     0
100
AcDbPoint
 10
322.000688692917
 20
1267.856319165952
 30
0.0
  0
POINT
  5
8BCE
330
890D
100
AcDbEntity
  8
Defpoints
 62
     0
100
AcDbPoint
 10
322.000688692917
 20
1261.856319283332
 30
0.0
  0
POINT
  5
8BCF
330
890D
100
AcDbEntity
  8
Defpoints
 62
     0
100
AcDbPoint
 10
318.0777196594427
 20
1261.856319283332
 30
0.0
  0
ENDBLK
  5
891A
330
890D
100
AcDbEntity
  8
0
100
AcDbBlockEnd
  0
ENDSEC
  0
SECTION
  2
ENTITIES
  0
TEXT
  5
6788
330
1F
100
AcDbEntity
  8
AM_5
100
AcDbText
 10
463.2724899559423
 20
1241.220546660406
 30
0.0
 40
3.5
  1
2-M5x0.8
100
AcDbText
  0
TEXT
  5
6789
330
1F
100
AcDbEntity
  8
AM_5
100
AcDbText
 10
463.2724899559423
 20
1235.543503730925
 30
0.0
 40
3.5
  1
%%C7.5x4.5 depth
100
AcDbText
  0
POINT
  5
6BCF
330
1F
100
AcDbEntity
  8
0
 60
     1
100
AcDbPoint
 10
0.0
 20
0.0
 30
0.0
  0
POINT
  5
6BD9
330
1F
100
AcDbEntity
  8
0
 60
     1
100
AcDbPoint
 10
0.0
 20
0.0
 30
0.0
  0
TEXT
  5
7020
330
1F
100
AcDbEntity
  8
LOGO
 62
     7
100
AcDbText
 10
347.6129529607974
 20
1146.621831929257
 30
0.0
 40
3.19953665158371
  1
Order example:
 41
0.8
  7
CHINESET
100
AcDbText
  0
TEXT
  5
7021
330
1F
100
AcDbEntity
  8
LOGO
 62
     7
100
AcDbText
 10
348.1869762951833
 20
1151.12611706217
 30
0.0
 40
4.799304977375565
  1
訂購代號：
  7
CHINESET
100
AcDbText
  0
LINE
  5
7023
330
1F
100
AcDbEntity
  8
LOGO
 62
     4
100
AcDbLine
 10
346.2227434334799
 20
1133.137776259557
 30
0.0
 11
346.2227434334799
 21
1157.134301146435
 31
0.0
  0
TEXT
  5
7024
330
1F
100
AcDbEntity
  8
LOGO
  6
Continuous
100
AcDbText
 10
302.0500482881815
 20
1137.85185735967
 30
0.0
 40
3.599478733031673
  1
金器工業股份有限公司
  7
CHINESET
100
AcDbText
  0
TEXT
  5
7025
330
1F
100
AcDbEntity
  8
LOGO
  6
Continuous
100
AcDbText
 10
295.4385179773516
 20
1134.251673411017
 30
0.0
 40
2.399652488687782
  1
MINDMAN INDUSTRIAL CO., LTD.
 41
0.85
  7
CHINESET
100
AcDbText
  0
LINE
  5
7026
330
1F
100
AcDbEntity
  8
LOGO
 62
     4
100
AcDbLine
 10
346.2227434334799
 20
1152.334996169059
 30
0.0
 11
311.0278402660588
 21
1152.334996169059
 31
0.0
  0
LINE
  5
7027
330
1F
100
AcDbEntity
  8
LOGO
 62
     4
100
AcDbLine
 10
346.2227434334799
 20
1147.535691191684
 30
0.0
 11
311.0278402660588
 21
1147.535691191684
 31
0.0
  0
LINE
  5
7028
330
1F
100
AcDbEntity
  8
LOGO
 62
     4
100
AcDbLine
 10
346.2227434334799
 20
1142.736386214308
 30
0.0
 11
293.4303886823486
 21
1142.736386214308
 31
0.0
  0
LINE
  5
7029
330
1F
100
AcDbEntity
  8
LOGO
 62
     4
100
AcDbLine
 10
311.0278402660588
 20
1142.736386214308
 30
0.0
 11
311.0278402660588
 21
1157.134301146435
 31
0.0
  0
TEXT
  5
702A
330
1F
100
AcDbEntity
  8
LOGO
100
AcDbText
 10
335.0818954068644
 20
1143.936212458652
 30
0.0
 40
2.399652488687782
  1
mm
  7
CHINESET
 72
     1
 11
338.0528937261922
 21
1145.136038702996
 31
0.0
100
AcDbText
 73
     2
  0
TEXT
  5
702B
330
1F
100
AcDbEntity
  8
LOGO
100
AcDbText
 10
333.8249345794566
 20
1153.534822413403
 30
0.0
 40
2.399652488687782
  1
1 : 1
  7
CHINESET
 72
     1
 11
338.0528937261922
 21
1154.734648657747
 31
0.0
100
AcDbText
 73
     2
  0
LINE
  5
702C
330
1F
100
AcDbEntity
  8
LOGO
 62
     4
100
AcDbLine
 10
330.2250601755612
 20
1142.736386214308
 30
0.0
 11
330.2250601755612
 21
1157.134301146435
 31
0.0
  0
TEXT
  5
702D
330
1F
100
AcDbEntity
  8
LOGO
100
AcDbText
 10
313.0064822957939
 20
1153.536003344746
 30
157.2692709120597
 40
2.399652488687782
  1
比例 Scale:
 41
0.9
  7
CHINESET
 72
     4
 11
320.62645022081
 21
1154.734648657747
 31
157.2692709120597
100
AcDbText
  0
TEXT
  5
702E
330
1F
100
AcDbEntity
  8
LOGO
100
AcDbText
 10
312.8682880230079
 20
1148.769272390244
 30
157.2692709120597
 40
2.399652488687782
  1
投影  View:
 41
0.9
  7
CHINESET
 72
     4
 11
320.62645022081
 21
1149.935343680371
 31
157.2692709120597
100
AcDbText
  0
TEXT
  5
702F
330
1F
100
AcDbEntity
  8
LOGO
100
AcDbText
 10
313.1028969047144
 20
1143.936212458652
 30
157.2692709120597
 40
2.399652488687782
  1
單位  Unit:
 41
0.9
  7
CHINESET
 72
     4
 11
320.62645022081
 21
1145.136038702996
 31
157.2692709120597
100
AcDbText
  0
LWPOLYLINE
  5
7030
330
1F
100
AcDbEntity
  8
LOGO
 62
     4
100
AcDbPolyline
 90
        4
 70
     1
 43
0.0
 10
293.4303886823485
 20
1157.134301146435
 10
509.7799642775697
 20
1157.134301146435
 10
509.7799642775697
 20
1352.473617822257
 10
293.4303886823485
 20
1352.473617822257
1001
GENIUS_GENREC_14
1002
{
1000
PYDIR
1011
293.4303886823485
1021
1352.473617822257
1031
0.0
1002
}
1002
{
1000
PXDIR
1011
509.7799642775697
1021
1157.134301146435
1031
0.0
1002
}
1002
{
1000
PORI
1011
293.4303886823485
1021
1157.134301146435
1031
0.0
1002
}
1002
{
1000
PINS
1011
293.4303886823485
1021
1157.134301146435
1031
0.0
1002
}
1002
{
1000
PINS2
1011
509.7799642775697
1021
1352.473617822257
1031
0.0
1002
}
1002
{
1000
C
1070
     1
1002
}
1001
GENIUS_GENODEF_13
1002
{
1000
HIER
1070
     0
1002
}
1002
{
1000
MANEDIT
1070
     0
1002
}
1002
{
1000
NOSEL
1070
     0
1002
}
1002
{
1000
BEHIND
1070
     0
1002
}
1002
{
1000
OTHER
1070
     0
1002
}
1002
{
1000
REACTOR
1002
}
1001
GENIUS_GENOBJ-N-REC_13
1002
{
1000
OWNER
1000
GEN
1002
}
  0
SOLID
  5
7031
330
1F
100
AcDbEntity
  8
LOGO
 62
     5
100
AcDbTrace
 10
295.9200666508552
 20
1146.725466913117
 30
0.0
 11
296.9576134200825
 21
1146.725466913116
 31
0.0
 12
301.2866878709962
 22
1156.564272483375
 32
0.0
 13
302.324234640224
 23
1156.564272483375
 33
0.0
  0
SOLID
  5
7032
330
1F
100
AcDbEntity
  8
LOGO
 62
     5
100
AcDbTrace
 10
297.386943117695
 20
1146.725466913117
 30
0.0
 11
298.4244898869222
 21
1146.725466913117
 31
0.0
 12
302.324234640224
 22
1155.777168037754
 32
0.0
 13
301.2866878709962
 23
1151.972829883921
 33
0.0
  0
SOLID
  5
7033
330
1F
100
AcDbEntity
  8
LOGO
 62
     2
100
AcDbTrace
 10
296.9576134200825
 20
1146.725466913116
 30
0.0
 11
297.386943117695
 21
1146.725466913117
 31
0.0
 12
302.324234640224
 22
1156.564272483375
 32
0.0
 13
302.7535643378359
 23
1156.564272483375
 33
0.0
  0
SOLID
  5
7034
330
1F
100
AcDbEntity
  8
LOGO
 62
     5
100
AcDbTrace
 10
294.2566247421492
 20
1143.147719433022
 30
0.0
 11
294.614399490159
 21
1143.147719433022
 31
0.0
 12
295.6219210275144
 22
1144.936593173069
 32
0.0
 13
295.9796957755231
 23
1144.936593173069
 33
0.0
  0
SOLID
  5
7035
330
1F
100
AcDbEntity
  8
LOGO
 62
     5
100
AcDbTrace
 10
295.6219210275144
 20
1144.936593173069
 30
0.0
 11
295.9796957755231
 21
1144.936593173069
 31
0.0
 12
295.6219210275144
 22
1143.147719433022
 32
0.0
 13
295.9796957755231
 23
1143.147719433022
 33
0.0
  0
SOLID
  5
7036
330
1F
100
AcDbEntity
  8
LOGO
 62
     5
100
AcDbTrace
 10
295.6219210275144
 20
1143.147719433022
 30
0.0
 11
295.9796957755231
 21
1143.147719433022
 31
0.0
 12
296.9872173128802
 22
1144.936593173069
 32
0.0
 13
297.3449920608894
 23
1144.936593173069
 33
0.0
  0
SOLID
  5
7037
330
1F
100
AcDbEntity
  8
LOGO
 62
     5
100
AcDbTrace
 10
296.9872173128802
 20
1144.936593173069
 30
0.0
 11
297.3449920608894
 21
1144.936593173069
 31
0.0
 12
296.9872173128802
 22
1143.147719433022
 32
0.0
 13
297.3449920608894
 23
1143.147719433022
 33
0.0
  0
POLYLINE
  5
7038
330
1F
100
AcDbEntity
  8
LOGO
 62
     5
100
AcDb2dPolyline
 66
     1
 10
0.0
 20
0.0
 30
0.0
 40
0.3583481049773755
 41
0.3583481049773755
  0
VERTEX
  5
7039
330
7038
100
AcDbEntity
  8
LOGO
 62
     5
100
AcDbVertex
100
AcDb2dVertex
 10
308.9797049886515
 20
1144.221043677051
 30
0.0
 42
1.0
  0
VERTEX
  5
703A
330
7038
100
AcDbEntity
  8
LOGO
 62
     5
100
AcDbVertex
100
AcDb2dVertex
 10
307.9046606737191
 20
1144.221043677051
 30
0.0
 42
1.0
  0
SEQEND
  5
703B
330
7038
100
AcDbEntity
  8
LOGO
 62
     5
  0
POLYLINE
  5
703C
330
1F
100
AcDbEntity
  8
LOGO
 62
     5
100
AcDb2dPolyline
 66
     1
 10
0.0
 20
0.0
 30
0.0
 70
     1
  0
VERTEX
  5
703D
330
703C
100
AcDbEntity
  8
LOGO
 62
     5
100
AcDbVertex
100
AcDb2dVertex
 10
305.8781543221003
 20
1144.042156303045
 30
0.0
 42
1.000000057330635
  0
VERTEX
  5
703E
330
703C
100
AcDbEntity
  8
LOGO
 62
     5
100
AcDbVertex
100
AcDb2dVertex
 10
306.9514785661286
 20
1144.042156303045
 30
0.0
 42
1.000000057330635
  0
SEQEND
  5
703F
330
703C
100
AcDbEntity
  8
LOGO
 62
     5
  0
CIRCLE
  5
7040
330
1F
100
AcDbEntity
  8
LOGO
 62
     5
100
AcDbCircle
 10
306.4148164441153
 20
1144.042156303045
 30
0.0
 40
0.5366621220141177
  0
POLYLINE
  5
7041
330
1F
100
AcDbEntity
  8
LOGO
 62
     5
100
AcDb2dPolyline
 66
     1
 10
0.0
 20
0.0
 30
0.0
 70
     1
 40
0.3583481049773755
 41
0.3583481049773755
  0
VERTEX
  5
7042
330
7041
100
AcDbEntity
  8
LOGO
 62
     5
100
AcDbVertex
100
AcDb2dVertex
 10
305.6981202341601
 20
1144.042156303045
 30
0.0
 42
1.0
  0
VERTEX
  5
7043
330
7041
100
AcDbEntity
  8
LOGO
 62
     5
100
AcDbVertex
100
AcDb2dVertex
 10
307.1315126540695
 20
1144.042156303045
 30
0.0
 42
1.0
  0
SEQEND
  5
7044
330
7041
100
AcDbEntity
  8
LOGO
 62
     5
  0
LINE
  5
7045
330
1F
100
AcDbEntity
  8
LOGO
100
AcDbLine
 10
309.1577323272036
 20
1143.147719433022
 30
0.0
 11
309.1577323272036
 21
1144.221043677051
 31
0.0
  0
SOLID
  5
7046
330
1F
100
AcDbEntity
  8
LOGO
 62
     5
100
AcDbTrace
 10
306.9514427886554
 20
1144.936593173069
 30
0.0
 11
307.3092175366642
 21
1144.936593173069
 31
0.0
 12
306.9514427886554
 22
1143.147719433022
 32
0.0
 13
307.3092175366642
 23
1143.147719433022
 33
0.0
  0
SOLID
  5
7047
330
1F
100
AcDbEntity
  8
LOGO
 62
     5
100
AcDbTrace
 10
307.726633335166
 20
1143.147719433022
 30
0.0
 11
308.0844080831758
 21
1143.147719433022
 31
0.0
 12
307.726633335166
 22
1144.936593173069
 32
0.0
 13
308.0844080831758
 23
1144.936593173069
 33
0.0
  0
SOLID
  5
7048
330
1F
100
AcDbEntity
  8
LOGO
 62
     5
100
AcDbTrace
 10
308.7999575791948
 20
1144.221043677051
 30
0.0
 11
309.1577323272036
 21
1144.221043677051
 31
0.0
 12
308.7999575791948
 22
1143.147719433022
 32
0.0
 13
309.1577323272036
 23
1143.147719433022
 33
0.0
  0
SOLID
  5
7049
330
1F
100
AcDbEntity
  8
LOGO
 62
     5
100
AcDbTrace
 10
307.690855860365
 20
1155.777168037754
 30
0.0
 11
306.6533090911382
 21
1151.972829883921
 31
0.0
 12
307.690855860365
 22
1146.725466913116
 32
0.0
 13
306.6533090911382
 23
1146.725466913116
 33
0.0
  0
SOLID
  5
704A
330
1F
100
AcDbEntity
  8
LOGO
 62
     5
100
AcDbTrace
 10
308.1201855579768
 20
1146.725466913116
 30
0.0
 11
309.1577323272036
 21
1146.725466913116
 31
0.0
 12
308.1201855579768
 22
1156.564272483375
 32
0.0
 13
309.1577323272036
 23
1156.564272483375
 33
0.0
  0
SOLID
  5
704B
330
1F
100
AcDbEntity
  8
LOGO
 62
     2
100
AcDbTrace
 10
307.690855860365
 20
1156.564272483375
 30
0.0
 11
308.1201855579768
 21
1156.564272483375
 31
0.0
 12
307.690855860365
 22
1146.725466913116
 32
0.0
 13
308.1201855579768
 23
1146.725466913116
 33
0.0
  0
POLYLINE
  5
704C
330
1F
100
AcDbEntity
  8
LOGO
 62
     5
100
AcDb2dPolyline
 66
     1
 10
0.0
 20
0.0
 30
0.0
 40
0.3583481049773755
 41
0.3583481049773755
  0
VERTEX
  5
704D
330
704C
100
AcDbEntity
  8
LOGO
 62
     5
100
AcDbVertex
100
AcDb2dVertex
 10
303.8515764155335
 20
1144.221043677051
 30
0.0
 42
1.0
  0
VERTEX
  5
704E
330
704C
100
AcDbEntity
  8
LOGO
 62
     5
100
AcDbVertex
100
AcDb2dVertex
 10
302.7765321006011
 20
1144.221043677051
 30
0.0
 42
1.0
  0
SEQEND
  5
704F
330
704C
100
AcDbEntity
  8
LOGO
 62
     5
  0
POLYLINE
  5
7050
330
1F
100
AcDbEntity
  8
LOGO
 62
     5
100
AcDb2dPolyline
 66
     1
 10
0.0
 20
0.0
 30
0.0
 40
0.3583481049773755
 41
0.3583481049773755
  0
VERTEX
  5
7051
330
7050
100
AcDbEntity
  8
LOGO
 62
     5
100
AcDbVertex
100
AcDb2dVertex
 10
304.9249006595607
 20
1144.221043677051
 30
0.0
 42
1.0
  0
VERTEX
  5
7052
330
7050
100
AcDbEntity
  8
LOGO
 62
     5
100
AcDbVertex
100
AcDb2dVertex
 10
303.8498563446289
 20
1144.221043677051
 30
0.0
 42
1.0
  0
SEQEND
  5
7053
330
7050
100
AcDbEntity
  8
LOGO
 62
     5
  0
POLYLINE
  5
7054
330
1F
100
AcDbEntity
  8
LOGO
 62
     5
100
AcDb2dPolyline
 66
     1
 10
0.0
 20
0.0
 30
0.0
 40
0.3583481049773755
 41
0.3583481049773755
  0
VERTEX
  5
7055
330
7054
100
AcDbEntity
  8
LOGO
 62
     5
100
AcDbVertex
100
AcDb2dVertex
 10
299.7967720864427
 20
1144.221043677051
 30
0.0
 42
1.0
  0
VERTEX
  5
7056
330
7054
100
AcDbEntity
  8
LOGO
 62
     5
100
AcDbVertex
100
AcDb2dVertex
 10
298.7217277715109
 20
1144.221043677051
 30
0.0
 42
1.0
  0
SEQEND
  5
7057
330
7054
100
AcDbEntity
  8
LOGO
 62
     5
  0
SOLID
  5
7058
330
1F
100
AcDbEntity
  8
LOGO
 62
     5
100
AcDbTrace
 10
298.5437004329583
 20
1144.936593173069
 30
0.0
 11
298.901475180967
 21
1144.936593173069
 31
0.0
 12
298.5437004329583
 22
1143.147719433022
 32
0.0
 13
298.901475180967
 23
1143.147719433022
 33
0.0
  0
SOLID
  5
7059
330
1F
100
AcDbEntity
  8
LOGO
 62
     5
100
AcDbTrace
 10
299.6170246769866
 20
1144.221043677051
 30
0.0
 11
299.9747994249964
 21
1144.221043677051
 31
0.0
 12
299.6170246769866
 22
1143.147719433022
 32
0.0
 13
299.9747994249964
 23
1143.147719433022
 33
0.0
  0
POLYLINE
  5
705A
330
1F
100
AcDbEntity
  8
LOGO
 62
     5
100
AcDb2dPolyline
 66
     1
 10
0.0
 20
0.0
 30
0.0
 70
     1
 40
0.3583481049773755
 41
0.3583481049773755
  0
VERTEX
  5
705B
330
705A
100
AcDbEntity
  8
LOGO
 62
     5
100
AcDbVertex
100
AcDb2dVertex
 10
300.5699916610415
 20
1144.042156303045
 30
0.0
 42
1.0
  0
VERTEX
  5
705C
330
705A
100
AcDbEntity
  8
LOGO
 62
     5
100
AcDbVertex
100
AcDb2dVertex
 10
302.0033840809515
 20
1144.042156303045
 30
0.0
 42
1.0
  0
SEQEND
  5
705D
330
705A
100
AcDbEntity
  8
LOGO
 62
     5
  0
SOLID
  5
705E
330
1F
100
AcDbEntity
  8
LOGO
 62
     5
100
AcDbTrace
 10
301.8233142155363
 20
1145.473255295084
 30
0.0
 11
302.1810889635456
 21
1145.473255295084
 31
0.0
 12
301.8233142155363
 22
1143.147719433022
 32
0.0
 13
302.1810889635456
 23
1143.147719433022
 33
0.0
  0
SOLID
  5
705F
330
1F
100
AcDbEntity
  8
LOGO
 62
     5
100
AcDbTrace
 10
302.5985047620491
 20
1144.936593173069
 30
0.0
 11
302.9562795100578
 21
1144.936593173069
 31
0.0
 12
302.5985047620491
 22
1143.147719433022
 32
0.0
 13
302.9562795100578
 23
1143.147719433022
 33
0.0
  0
SOLID
  5
7060
330
1F
100
AcDbEntity
  8
LOGO
 62
     5
100
AcDbTrace
 10
303.6718290060763
 20
1144.221043677051
 30
0.0
 11
304.0296037540861
 21
1144.221043677051
 31
0.0
 12
303.6718290060763
 22
1143.147719433022
 32
0.0
 13
304.0296037540861
 23
1143.147719433022
 33
0.0
  0
SOLID
  5
7061
330
1F
100
AcDbEntity
  8
LOGO
 62
     5
100
AcDbTrace
 10
304.7451532501046
 20
1144.221043677051
 30
0.0
 11
305.1029279981138
 21
1144.221043677051
 31
0.0
 12
304.7451532501046
 22
1143.147719433022
 32
0.0
 13
305.1029279981138
 23
1143.147719433022
 33
0.0
  0
SOLID
  5
7062
330
1F
100
AcDbEntity
  8
LOGO
 62
     5
100
AcDbTrace
 10
297.7685098864461
 20
1145.187035496676
 30
0.0
 11
298.1262846344564
 21
1145.187035496676
 31
0.0
 12
297.7685098864461
 22
1145.473255295084
 32
0.0
 13
298.1262846344564
 23
1145.473255295084
 33
0.0
  0
SOLID
  5
7063
330
1F
100
AcDbEntity
  8
LOGO
 62
     5
100
AcDbTrace
 10
297.7685098864461
 20
1144.936593173069
 30
0.0
 11
298.1262846344564
 21
1144.936593173069
 31
0.0
 12
297.7685098864461
 22
1143.147719433022
 32
0.0
 13
298.1262846344564
 23
1143.147719433022
 33
0.0
  0
SOLID
  5
7064
330
1F
100
AcDbEntity
  8
LOGO
 62
     5
100
AcDbTrace
 10
301.2866878709962
 20
1146.725466913117
 30
0.0
 11
302.324234640224
 21
1146.725466913117
 31
0.0
 12
301.2866878709962
 22
1151.972829883921
 32
0.0
 13
302.324234640224
 23
1155.777168037754
 33
0.0
  0
SOLID
  5
7065
330
1F
100
AcDbEntity
  8
LOGO
 62
     5
100
AcDbTrace
 10
302.7535643378359
 20
1156.564272483375
 30
0.0
 11
303.7911111070626
 21
1156.564272483375
 31
0.0
 12
302.7535643378359
 22
1147.512571358737
 32
0.0
 13
303.7911111070626
 23
1151.31690951257
 33
0.0
  0
SOLID
  5
7066
330
1F
100
AcDbEntity
  8
LOGO
 62
     2
100
AcDbTrace
 10
302.324234640224
 20
1156.564272483375
 30
0.0
 11
302.7535643378359
 21
1156.564272483375
 31
0.0
 12
302.324234640224
 22
1146.725466913117
 32
0.0
 13
302.7535643378359
 23
1146.725466913117
 33
0.0
  0
SOLID
  5
7067
330
1F
100
AcDbEntity
  8
LOGO
 62
     5
100
AcDbTrace
 10
302.7535643378359
 20
1147.512571358737
 30
0.0
 11
303.7911111070626
 21
1151.31690951257
 31
0.0
 12
307.690855860365
 22
1156.564272483375
 32
0.0
 13
306.6533090911382
 23
1156.564272483375
 33
0.0
  0
SOLID
  5
7068
330
1F
100
AcDbEntity
  8
LOGO
 62
     5
100
AcDbTrace
 10
302.7535643378359
 20
1146.725466913117
 30
0.0
 11
303.7911111070626
 21
1146.725466913117
 31
0.0
 12
307.690855860365
 22
1155.777168037754
 32
0.0
 13
306.6533090911382
 23
1151.972829883921
 33
0.0
  0
SOLID
  5
7069
330
1F
100
AcDbEntity
  8
LOGO
 62
     2
100
AcDbTrace
 10
302.324234640224
 20
1146.725466913117
 30
0.0
 11
302.7535643378359
 21
1146.725466913117
 31
0.0
 12
307.690855860365
 22
1156.564272483375
 32
0.0
 13
308.1201855579768
 23
1156.564272483375
 33
0.0
  0
LWPOLYLINE
  5
706A
330
1F
100
AcDbEntity
  8
LOGO
 62
     4
100
AcDbPolyline
 90
        4
 70
     1
 43
0.0
 10
293.4303886823485
 20
1157.134301146435
 10
509.7799642775697
 20
1157.134301146435
 10
509.7799642775697
 20
1133.137776259556
 10
293.4303886823485
 20
1133.137776259556
1001
GENIUS_GENREC_14
1002
{
1000
PYDIR
1011
293.4303886823485
1021
1133.137776259556
1031
0.0
1002
}
1002
{
1000
PXDIR
1011
509.7799642775697
1021
1157.134301146435
1031
0.0
1002
}
1002
{
1000
PORI
1011
293.4303886823485
1021
1157.134301146435
1031
0.0
1002
}
1002
{
1000
PINS
1011
293.4303886823485
1021
1157.134301146435
1031
0.0
1002
}
1002
{
1000
PINS2
1011
509.7799642775697
1021
1133.137776259556
1031
0.0
1002
}
1002
{
1000
C
1070
     1
1002
}
1001
GENIUS_GENOBJ-N-REC_13
1002
{
1000
OWNER
1000
GEN
1002
}
1001
GENIUS_GENODEF_13
1002
{
1000
HIER
1070
     0
1002
}
1002
{
1000
MANEDIT
1070
     0
1002
}
1002
{
1000
NOSEL
1070
     0
1002
}
1002
{
1000
BEHIND
1070
     0
1002
}
1002
{
1000
OTHER
1070
     0
1002
}
1002
{
1000
REACTOR
1002
}
  0
LINE
  5
706B
330
1F
100
AcDbEntity
  8
LOGO
 62
     4
100
AcDbLine
 10
395.1859549176108
 20
1143.936212458652
 30
0.0
 11
395.1859549176108
 21
1135.137486666796
 31
0.0
  0
LINE
  5
706C
330
1F
100
AcDbEntity
  8
LOGO
 62
     4
100
AcDbLine
 10
380.9388796391552
 20
1143.936212458652
 30
0.0
 11
380.9388796391552
 21
1135.137486666796
 31
0.0
  0
LINE
  5
706D
330
1F
100
AcDbEntity
  8
LOGO
 62
     4
100
AcDbLine
 10
395.1859549176108
 20
1135.137486666796
 30
0.0
 11
380.9388796391552
 21
1135.137486666796
 31
0.0
  0
LINE
  5
706E
330
1F
100
AcDbEntity
  8
LOGO
 62
     4
100
AcDbLine
 10
398.1828884081734
 20
1154.734648657747
 30
0.0
 11
379.22889839554
 21
1154.734648657747
 31
0.0
  0
LINE
  5
706F
330
1F
100
AcDbEntity
  8
LOGO
 62
     4
100
AcDbLine
 10
398.1828884081734
 20
1147.535691191684
 30
0.0
 11
379.22889839554
 21
1147.535691191684
 31
0.0
  0
LINE
  5
7070
330
1F
100
AcDbEntity
  8
LOGO
 62
     4
100
AcDbLine
 10
379.22889839554
 20
1154.734648657747
 30
0.0
 11
379.22889839554
 21
1147.535691191684
 31
0.0
  0
LINE
  5
7071
330
1F
100
AcDbEntity
  8
LOGO
 62
     4
100
AcDbLine
 10
398.1828884081734
 20
1154.734648657747
 30
0.0
 11
398.1828884081734
 21
1147.535691191684
 31
0.0
  0
LINE
  5
7072
330
1F
100
AcDbEntity
  8
LOGO
 62
     4
100
AcDbLine
 10
388.062417278383
 20
1147.535691191684
 30
0.0
 11
388.062417278383
 21
1143.936212458652
 31
0.0
  0
TEXT
  5
7073
330
1F
100
AcDbEntity
  8
LOGO
  6
Continuous
 62
     7
100
AcDbText
 10
380.508040391476
 20
1149.038463037849
 30
0.0
 40
4.2
  1
MCRJ
  7
CHINESET
100
AcDbText
  0
LINE
  5
7074
330
1F
100
AcDbEntity
  8
LOGO
 62
     4
100
AcDbLine
 10
395.1859549176108
 20
1143.936212458652
 30
0.0
 11
380.9388796391552
 21
1143.936212458652
 31
0.0
  0
TEXT
  5
7075
330
1F
100
AcDbEntity
  8
LOGO
  6
Continuous
100
AcDbText
 10
385.588075898753
 20
1136.379408154185
 30
157.2692709120597
 40
1.8
  1
Model
 41
0.8
  7
CHINESET
100
AcDbText
  0
TEXT
  5
7076
330
1F
100
AcDbEntity
  8
LOGO
100
AcDbText
 10
385.1089744131541
 20
1139.716220226498
 30
157.2692709120597
 40
3.0
  1
型號
  7
CHINESET
100
AcDbText
  0
LINE
  5
7077
330
1F
100
AcDbEntity
  8
LOGO
  6
Continuous
 62
     7
100
AcDbLine
 10
399.5943004253538
 20
1151.109670079666
 30
0.0
 11
402.7730973640812
 21
1151.109670079666
 31
0.0
  0
LINE
  5
707B
330
1F
100
AcDbEntity
  8
LOGO
 62
     4
100
AcDbLine
 10
412.9975397474289
 20
1154.734648657747
 30
0.0
 11
404.3179960542641
 21
1154.734648657747
 31
0.0
  0
LINE
  5
707C
330
1F
100
AcDbEntity
  8
LOGO
 62
     4
100
AcDbLine
 10
412.9975397474289
 20
1147.535691191684
 30
0.0
 11
404.3179960542641
 21
1147.535691191684
 31
0.0
  0
LINE
  5
707D
330
1F
100
AcDbEntity
  8
LOGO
 62
     4
100
AcDbLine
 10
404.3179960542641
 20
1154.734648657747
 30
0.0
 11
404.3179960542641
 21
1147.535691191684
 31
0.0
  0
LINE
  5
707E
330
1F
100
AcDbEntity
  8
LOGO
 62
     4
100
AcDbLine
 10
412.9975397474289
 20
1154.734648657747
 30
0.0
 11
412.9975397474289
 21
1147.535691191684
 31
0.0
  0
LINE
  5
707F
330
1F
100
AcDbEntity
  8
LOGO
 62
     4
100
AcDbLine
 10
408.6577679008465
 20
1147.535691191684
 30
0.0
 11
408.6577679008465
 21
1143.936212458652
 31
0.0
  0
TEXT
  5
7080
330
1F
100
AcDbEntity
  8
LOGO
  6
Continuous
 62
     7
100
AcDbText
 10
407.0461103798652
 20
1149.038463037849
 30
0.0
 40
4.2
  1
8
  7
CHINESET
100
AcDbText
  0
LINE
  5
7083
330
1F
100
AcDbEntity
  8
LOGO
 62
     4
100
AcDbLine
 10
414.8596165738386
 20
1143.936212458652
 30
0.0
 11
414.8596165738386
 21
1135.137486666796
 31
0.0
  0
LINE
  5
7084
330
1F
100
AcDbEntity
  8
LOGO
 62
     4
100
AcDbLine
 10
400.1508881952791
 20
1143.936212458652
 30
0.0
 11
400.1508881952791
 21
1135.137486666796
 31
0.0
  0
LINE
  5
7085
330
1F
100
AcDbEntity
  8
LOGO
 62
     4
100
AcDbLine
 10
414.8596165738386
 20
1135.137486666796
 30
0.0
 11
400.1508881952791
 21
1135.137486666796
 31
0.0
  0
LINE
  5
708C
330
1F
100
AcDbEntity
  8
LOGO
 62
     4
100
AcDbLine
 10
414.8596165738386
 20
1143.936212458652
 30
0.0
 11
400.1508881952791
 21
1143.936212458652
 31
0.0
  0
TEXT
  5
709A
330
1F
100
AcDbEntity
  8
LOGO
  6
Continuous
100
AcDbText
 10
403.3378173750194
 20
1136.379408154185
 30
157.2692709120597
 40
1.8
  1
Tube I.D.
 41
0.8
  7
CHINESET
100
AcDbText
  0
TEXT
  5
709B
330
1F
100
AcDbEntity
  8
LOGO
100
AcDbText
 10
404.5890685967392
 20
1139.716220226498
 30
157.2692709120597
 40
3.0
  1
內徑
  7
CHINESET
100
AcDbText
  0
TEXT
  5
70AA
330
1F
100
AcDbEntity
  8
LOGO
100
AcDbText
 10
347.1745861429651
 20
1134.414381912262
 30
0.0
 40
2.4
  1
2120820B
 41
0.7
  7
CHINESET
 72
     1
 11
353.1745861429651
 21
1134.414381912262
 31
0.0
100
AcDbText
  0
LINE
  5
70AB
330
1F
100
AcDbEntity
  8
LOGO
 62
     4
100
AcDbLine
 10
360.6227434334788
 20
1137.937081236933
 30
0.0
 11
360.6227434334798
 21
1133.137776259557
 31
0.0
  0
LINE
  5
70AC
330
1F
100
AcDbEntity
  8
LOGO
 62
     4
100
AcDbLine
 10
360.6227434334788
 20
1137.937081236933
 30
0.0
 11
346.2227434334799
 21
1137.937081236933
 31
0.0
  0
CIRCLE
  5
70AD
330
1F
100
AcDbEntity
  8
LOGO
  6
Continuous
100
AcDbCircle
 10
334.6683169021552
 20
1149.940476554605
 30
0.0
 40
1.393294716384757
  0
CIRCLE
  5
70AE
330
1F
100
AcDbEntity
  8
LOGO
  6
Continuous
100
AcDbCircle
 10
334.6683169021552
 20
1149.940476554605
 30
0.0
 40
0.8163473623987165
  0
LINE
  5
70AF
330
1F
100
AcDbEntity
  8
LOGO
100
AcDbLine
 10
343.423942570999
 20
1148.54718183822
 30
0.0
 11
343.423942570999
 21
1151.33377127099
 31
0.0
  0
LINE
  5
70B0
330
1F
100
AcDbEntity
  8
LOGO
100
AcDbLine
 10
339.0560436140659
 20
1149.124129192206
 30
0.0
 11
339.0560436140659
 21
1150.756823917004
 31
0.0
  0
LINE
  5
70B1
330
1F
100
AcDbEntity
  8
LOGO
  6
Continuous
100
AcDbLine
 10
339.0560436140659
 20
1150.756823917004
 30
0.0
 11
343.423942570999
 21
1151.33377127099
 31
0.0
  0
LINE
  5
70B2
330
1F
100
AcDbEntity
  8
LOGO
  6
Continuous
100
AcDbLine
 10
339.0560436140659
 20
1149.124129192206
 30
0.0
 11
343.423942570999
 21
1148.54718183822
 31
0.0
  0
LINE
  5
70B3
330
1F
100
AcDbEntity
  8
LOGO
  6
AM_ISO08W050x2
 48
0.3
100
AcDbLine
 10
332.7476392726733
 20
1149.940476554605
 30
0.0
 11
336.5889945316371
 21
1149.940476554605
 31
0.0
1001
GENIUS_GENOREF_13
1005
70B8
  0
LINE
  5
70B4
330
1F
100
AcDbEntity
  8
LOGO
  6
AM_ISO08W050x2
 48
0.3
100
AcDbLine
 10
334.6683169021552
 20
1148.019798925123
 30
0.0
 11
334.6683169021552
 21
1151.861154184087
 31
0.0
1001
GENIUS_GENOREF_13
1005
70B7
  0
LINE
  5
70B5
330
1F
100
AcDbEntity
  8
LOGO
  6
CENTER
 48
0.5
100
AcDbLine
 10
338.7067331026947
 20
1149.940476554605
 30
0.0
 11
343.8637758563443
 21
1149.940476554605
 31
0.0
1001
GENIUS_GENOREF_13
1005
70B6
  0
POINT
  5
70B6
330
1F
100
AcDbEntity
  8
0
 60
     1
100
AcDbPoint
 10
-1223.576401245173
 20
290.0635775878196
 30
0.0
1001
GENIUS_GENOBJ-N-CRS_13
1002
{
1000
OWNER
1000
GEN
1002
}
1001
GENIUS_GENOLIS_13
1002
{
1000
ENT
1005
0
1005
0
1005
0
1005
70B5
1002
}
1001
GENIUS_GENOENT_13
1002
{
1000
MYREF
1005
70B6
1002
}
1002
{
1000
GRP
1005
0
1002
}
1001
GENIUS_GENODEF_13
1002
{
1000
HIER
1070
    10
1002
}
1002
{
1000
MANEDIT
1070
     1
1002
}
1002
{
1000
NOSEL
1070
     0
1002
}
1002
{
1000
BEHIND
1070
     0
1002
}
1002
{
1000
OTHER
1070
     0
1002
}
1002
{
1000
REACTOR
1002
}
  0
POINT
  5
70B7
330
1F
100
AcDbEntity
  8
0
 60
     1
100
AcDbPoint
 10
-1234.900986468028
 20
298.9391640664559
 30
0.0
1001
GENIUS_GENOBJ-N-CRS_13
1002
{
1000
OWNER
1000
GEN
1002
}
1001
GENIUS_GENOLIS_13
1002
{
1000
ENT
1005
0
1005
0
1005
0
1005
70B4
1002
}
1001
GENIUS_GENOENT_13
1002
{
1000
MYREF
1005
70B7
1002
}
1002
{
1000
GRP
1005
0
1002
}
1001
GENIUS_GENODEF_13
1002
{
1000
HIER
1070
    10
1002
}
1002
{
1000
MANEDIT
1070
     1
1002
}
1002
{
1000
NOSEL
1070
     0
1002
}
1002
{
1000
BEHIND
1070
     0
1002
}
1002
{
1000
OTHER
1070
     0
1002
}
1002
{
1000
REACTOR
1002
}
  0
POINT
  5
70B8
330
1F
100
AcDbEntity
  8
0
 60
     1
100
AcDbPoint
 10
-1228.542312770191
 20
290.0635775878196
 30
0.0
1001
GENIUS_GENOBJ-N-CRS_13
1002
{
1000
OWNER
1000
GEN
1002
}
1001
GENIUS_GENOLIS_13
1002
{
1000
ENT
1005
0
1005
0
1005
0
1005
70B3
1002
}
1001
GENIUS_GENOENT_13
1002
{
1000
MYREF
1005
70B8
1002
}
1002
{
1000
GRP
1005
0
1002
}
1001
GENIUS_GENODEF_13
1002
{
1000
HIER
1070
    10
1002
}
1002
{
1000
MANEDIT
1070
     1
1002
}
1002
{
1000
NOSEL
1070
     0
1002
}
1002
{
1000
BEHIND
1070
     0
1002
}
1002
{
1000
OTHER
1070
     0
1002
}
1002
{
1000
REACTOR
1002
}
  0
SPLINE
  5
78CB
330
1F
100
AcDbEntity
  8
0
  6
Continuous
 62
     7
370
    15
100
AcDbSpline
210
0.0
220
0.0
230
1.0
 70
    24
 71
     1
 72
     4
 73
     2
 74
     0
 42
0.0000000001
 43
0.0000000001
 40
0.0
 40
0.0
 40
1.0
 40
1.0
 10
430.3553817501319
 20
1267.10631954526
 30
0.0
 10
430.8053819170249
 20
1267.10631954526
 30
0.0
  0
SPLINE
  5
78CC
330
1F
100
AcDbEntity
  8
0
  6
Continuous
 62
     7
370
    15
100
AcDbSpline
210
0.0
220
0.0
230
1.0
 70
    24
 71
     1
 72
     4
 73
     2
 74
     0
 42
0.0000000001
 43
0.0000000001
 40
0.0
 40
0.0
 40
1.0
 40
1.0
 10
430.8053819170249
 20
1272.606319049797
 30
0.0
 10
430.3553817501319
 20
1272.606319049797
 30
0.0
  0
ARC
  5
78CD
330
1F
100
AcDbEntity
  8
0
  6
Continuous
 62
     7
370
    15
100
AcDbCircle
 10
430.805382674004
 20
1261.406319329936
 30
0.0
 40
1.200000000000017
100
AcDbArc
 50
0.0
 51
90.0
  0
ARC
  5
78CE
330
1F
100
AcDbEntity
  8
0
  6
Continuous
 62
     7
370
    15
100
AcDbCircle
 10
430.805382674004
 20
1258.306319329936
 30
0.0
 40
1.200000000000017
100
AcDbArc
 50
270.0
 51
0.0
  0
ARC
  5
78CF
330
1F
100
AcDbEntity
  8
0
  6
Continuous
 62
     7
370
    15
100
AcDbCircle
 10
430.805382674004
 20
1271.406319329936
 30
0.0
 40
1.200000000000017
100
AcDbArc
 50
0.0
 51
90.0
  0
ARC
  5
78D0
330
1F
100
AcDbEntity
  8
0
  6
Continuous
 62
     7
370
    15
100
AcDbCircle
 10
430.805382674004
 20
1268.306319329936
 30
0.0
 40
1.200000000000017
100
AcDbArc
 50
270.0
 51
0.0
  0
SPLINE
  5
78D1
330
1F
100
AcDbEntity
  8
0
  6
Continuous
 62
     7
370
    15
100
AcDbSpline
210
0.0
220
0.0
230
1.0
 70
    24
 71
     1
 72
     4
 73
     2
 74
     0
 42
0.0000000001
 43
0.0000000001
 40
0.0
 40
0.0
 40
1.0
 40
1.0
 10
430.3553817501319
 20
1257.106319303116
 30
0.0
 10
430.8053819170249
 20
1257.106319303116
 30
0.0
  0
SPLINE
  5
78D2
330
1F
100
AcDbEntity
  8
0
  6
Continuous
 62
     7
370
    15
100
AcDbSpline
210
0.0
220
0.0
230
1.0
 70
    24
 71
     1
 72
     4
 73
     2
 74
     0
 42
0.0000000001
 43
0.0000000001
 40
0.0
 40
0.0
 40
1.0
 40
1.0
 10
430.8053819170249
 20
1262.606319331522
 30
0.0
 10
430.3553817501319
 20
1262.606319331522
 30
0.0
  0
SPLINE
  5
78D3
330
1F
100
AcDbEntity
  8
0
  6
Continuous
 62
     7
370
    15
100
AcDbSpline
210
0.0
220
0.0
230
1.0
 70
    24
 71
     1
 72
     4
 73
     2
 74
     0
 42
0.0000000001
 43
0.0000000001
 40
0.0
 40
0.0
 40
1.0
 40
1.0
 10
439.3553813627017
 20
1243.756319629452
 30
0.0
 10
439.3553813627017
 20
1246.766318800351
 30
0.0
  0
SPLINE
  5
78D4
330
1F
100
AcDbEntity
  8
0
  6
Continuous
 62
     7
370
    15
100
AcDbSpline
210
0.0
220
0.0
230
1.0
 70
    24
 71
     1
 72
     4
 73
     2
 74
     0
 42
0.0000000001
 43
0.0000000001
 40
0.0
 40
0.0
 40
1.0
 40
1.0
 10
436.3553827336085
 20
1246.766318800351
 30
0.0
 10
436.3553827336085
 20
1243.756319629452
 30
0.0
  0
SPLINE
  5
78D5
330
1F
100
AcDbEntity
  8
0
  6
Continuous
 62
     7
370
    15
100
AcDbSpline
210
0.0
220
0.0
230
1.0
 70
    24
 71
     1
 72
     4
 73
     2
 74
     0
 42
0.0000000001
 43
0.0000000001
 40
0.0
 40
0.0
 40
1.0
 40
1.0
 10
436.3553827336085
 20
1243.756319629452
 30
0.0
 10
436.555382393862
 20
1243.556319969198
 30
0.0
  0
SPLINE
  5
78D6
330
1F
100
AcDbEntity
  8
0
  6
Continuous
 62
     7
370
    15
100
AcDbSpline
210
0.0
220
0.0
230
1.0
 70
    24
 71
     1
 72
     4
 73
     2
 74
     0
 42
0.0000000001
 43
0.0000000001
 40
0.0
 40
0.0
 40
1.0
 40
1.0
 10
439.1553817024481
 20
1243.556319969198
 30
0.0
 10
439.3553813627017
 20
1243.756319629452
 30
0.0
  0
SPLINE
  5
78D7
330
1F
100
AcDbEntity
  8
0
  6
Continuous
 62
     7
370
    15
100
AcDbSpline
210
0.0
220
0.0
230
1.0
 70
    24
 71
     1
 72
     4
 73
     2
 74
     0
 42
0.0000000001
 43
0.0000000001
 40
0.0
 40
0.0
 40
1.0
 40
1.0
 10
414.3553828528178
 20
1243.756319629452
 30
0.0
 10
414.3553828528178
 20
1246.766318800351
 30
0.0
  0
SPLINE
  5
78D8
330
1F
100
AcDbEntity
  8
0
  6
Continuous
 62
     7
370
    15
100
AcDbSpline
210
0.0
220
0.0
230
1.0
 70
    24
 71
     1
 72
     4
 73
     2
 74
     0
 42
0.0000000001
 43
0.0000000001
 40
0.0
 40
0.0
 40
1.0
 40
1.0
 10
411.3553823610795
 20
1246.766318800351
 30
0.0
 10
411.3553823610795
 20
1243.756319629452
 30
0.0
  0
SPLINE
  5
78D9
330
1F
100
AcDbEntity
  8
0
  6
Continuous
 62
     7
370
    15
100
AcDbSpline
210
0.0
220
0.0
230
1.0
 70
    24
 71
     1
 72
     4
 73
     2
 74
     0
 42
0.0000000001
 43
0.0000000001
 40
0.0
 40
0.0
 40
1.0
 40
1.0
 10
439.3553813627017
 20
1257.856319426051
 30
0.0
 10
439.3553813627017
 20
1262.1563193247
 30
0.0
  0
SPLINE
  5
78DA
330
1F
100
AcDbEntity
  8
0
  6
Continuous
 62
     7
370
    15
100
AcDbSpline
210
0.0
220
0.0
230
1.0
 70
    24
 71
     1
 72
     4
 73
     2
 74
     0
 42
0.0000000001
 43
0.0000000001
 40
0.0
 40
0.0
 40
1.0
 40
1.0
 10
436.3553827336085
 20
1262.1563193247
 30
0.0
 10
436.3553827336085
 20
1257.856319426051
 30
0.0
  0
SPLINE
  5
78DB
330
1F
100
AcDbEntity
  8
0
  6
Continuous
 62
     7
370
    15
100
AcDbSpline
210
0.0
220
0.0
230
1.0
 70
    24
 71
     1
 72
     4
 73
     2
 74
     0
 42
0.0000000001
 43
0.0000000001
 40
0.0
 40
0.0
 40
1.0
 40
1.0
 10
411.3553823610795
 20
1243.756319629452
 30
0.0
 10
411.555382021333
 20
1243.556319969198
 30
0.0
  0
SPLINE
  5
78DC
330
1F
100
AcDbEntity
  8
0
  6
Continuous
 62
     7
370
    15
100
AcDbSpline
210
0.0
220
0.0
230
1.0
 70
    24
 71
     1
 72
     4
 73
     2
 74
     0
 42
0.0000000001
 43
0.0000000001
 40
0.0
 40
0.0
 40
1.0
 40
1.0
 10
414.1553831925643
 20
1243.556319969198
 30
0.0
 10
414.3553828528178
 20
1243.756319629452
 30
0.0
  0
SPLINE
  5
78DD
330
1F
100
AcDbEntity
  8
0
  6
Continuous
 62
     7
370
    15
100
AcDbSpline
210
0.0
220
0.0
230
1.0
 70
    24
 71
     1
 72
     4
 73
     2
 74
     0
 42
0.0000000001
 43
0.0000000001
 40
0.0
 40
0.0
 40
1.0
 40
1.0
 10
439.3553813627017
 20
1262.1563193247
 30
0.0
 10
439.1553817024481
 20
1262.356319330561
 30
0.0
  0
SPLINE
  5
78DE
330
1F
100
AcDbEntity
  8
0
  6
Continuous
 62
     7
370
    15
100
AcDbSpline
210
0.0
220
0.0
230
1.0
 70
    24
 71
     1
 72
     4
 73
     2
 74
     0
 42
0.0000000001
 43
0.0000000001
 40
0.0
 40
0.0
 40
1.0
 40
1.0
 10
436.555382393862
 20
1262.356319330561
 30
0.0
 10
436.3553827336085
 20
1262.1563193247
 30
0.0
  0
SPLINE
  5
78DF
330
1F
100
AcDbEntity
  8
0
  6
Continuous
 62
     7
370
    15
100
AcDbSpline
210
0.0
220
0.0
230
1.0
 70
    24
 71
     1
 72
     4
 73
     2
 74
     0
 42
0.0000000001
 43
0.0000000001
 40
0.0
 40
0.0
 40
1.0
 40
1.0
 10
414.3553828528178
 20
1257.856319426051
 30
0.0
 10
414.3553828528178
 20
1262.356319330561
 30
0.0
  0
SPLINE
  5
78E0
330
1F
100
AcDbEntity
  8
0
  6
Continuous
 62
     7
370
    15
100
AcDbSpline
210
0.0
220
0.0
230
1.0
 70
    24
 71
     1
 72
     4
 73
     2
 74
     0
 42
0.0000000001
 43
0.0000000001
 40
0.0
 40
0.0
 40
1.0
 40
1.0
 10
411.3553823610795
 20
1262.356319330561
 30
0.0
 10
411.3553823610795
 20
1257.856319426051
 30
0.0
  0
SPLINE
  5
78E1
330
1F
100
AcDbEntity
  8
0
  6
Continuous
 62
     7
370
    15
100
AcDbSpline
210
0.0
220
0.0
230
1.0
 70
    24
 71
     1
 72
     4
 73
     2
 74
     0
 42
0.0000000001
 43
0.0000000001
 40
0.0
 40
0.0
 40
1.0
 40
1.0
 10
440.1581478944075
 20
1246.766318800351
 30
0.0
 10
441.0308083226931
 20
1247.522065649232
 30
0.0
  0
SPLINE
  5
78E2
330
1F
100
AcDbEntity
  8
0
  6
Continuous
 62
     7
370
    15
100
AcDbSpline
210
0.0
220
0.0
230
1.0
 70
    24
 71
     1
 72
     4
 73
     2
 74
     0
 42
0.0000000001
 43
0.0000000001
 40
0.0
 40
0.0
 40
1.0
 40
1.0
 10
409.679955401088
 20
1247.522065649232
 30
0.0
 10
410.5526158293736
 20
1246.766318800351
 30
0.0
  0
SPLINE
  5
78E3
330
1F
100
AcDbEntity
  8
0
  6
Continuous
 62
     7
370
    15
100
AcDbSpline
210
0.0
220
0.0
230
1.0
 70
    24
 71
     1
 72
     4
 73
     2
 74
     0
 42
0.0000000001
 43
0.0000000001
 40
0.0
 40
0.0
 40
1.0
 40
1.0
 10
415.1581493845236
 20
1246.766318800351
 30
0.0
 10
416.0308098128092
 20
1247.522065649232
 30
0.0
  0
SPLINE
  5
78E4
330
1F
100
AcDbEntity
  8
0
  6
Continuous
 62
     7
370
    15
100
AcDbSpline
210
0.0
220
0.0
230
1.0
 70
    24
 71
     1
 72
     4
 73
     2
 74
     0
 42
0.0000000001
 43
0.0000000001
 40
0.0
 40
0.0
 40
1.0
 40
1.0
 10
434.679955773617
 20
1247.522065649232
 30
0.0
 10
435.5526162019026
 20
1246.766318800351
 30
0.0
  0
LINE
  5
78E5
330
1F
100
AcDbEntity
  8
0
  6
Continuous
 62
     7
370
    15
100
AcDbLine
 10
434.5100825360072
 20
1251.256318996152
 30
0.0
 11
433.9327333202612
 21
1252.256319160065
 31
0.0
  0
LINE
  5
78E6
330
1F
100
AcDbEntity
  8
0
  6
Continuous
 62
     7
370
    15
100
AcDbLine
 10
432.7780311634791
 20
1252.256319160065
 30
0.0
 11
432.2006819477332
 21
1251.256318996152
 31
0.0
  0
LINE
  5
78E7
330
1F
100
AcDbEntity
  8
0
  6
Continuous
 62
     7
370
    15
100
AcDbLine
 10
432.2006819477332
 20
1251.256318996152
 30
0.0
 11
432.7780311634791
 21
1250.256319763562
 31
0.0
  0
LINE
  5
78E8
330
1F
100
AcDbEntity
  8
0
  6
Continuous
 62
     7
370
    15
100
AcDbLine
 10
432.7780311634791
 20
1250.256319763562
 30
0.0
 11
433.9327333202612
 21
1250.256319763562
 31
0.0
  0
CIRCLE
  5
78E9
330
1F
100
AcDbEntity
  8
0
  6
Continuous
 62
     7
370
    15
100
AcDbCircle
 10
433.355382674004
 20
1251.256319329936
 30
0.0
 40
1.550000000000011
  0
LINE
  5
78EA
330
1F
100
AcDbEntity
  8
0
  6
Continuous
 62
     7
370
    15
100
AcDbLine
 10
433.9327333202612
 20
1252.256319160065
 30
0.0
 11
432.7780311634791
 21
1252.256319160065
 31
0.0
  0
LINE
  5
78EB
330
1F
100
AcDbEntity
  8
0
  6
Continuous
 62
     7
370
    15
100
AcDbLine
 10
433.9327333202612
 20
1250.256319763562
 30
0.0
 11
434.5100825360072
 21
1251.256318996152
 31
0.0
  0
ARC
  5
78EC
330
1F
100
AcDbEntity
  8
0
  6
Continuous
 62
     7
370
    15
100
AcDbCircle
 10
433.355382674004
 20
1251.256319329936
 30
0.0
 40
2.750000000000028
100
AcDbArc
 50
310.2141710173727
 51
90.0
  0
ARC
  5
78ED
330
1F
100
AcDbEntity
  8
0
  6
Continuous
 62
     7
370
    15
100
AcDbCircle
 10
433.355382674004
 20
1251.256319329936
 30
0.0
 40
2.750000000000028
100
AcDbArc
 50
90.0
 51
303.7206365629917
  0
CIRCLE
  5
78EE
330
1F
100
AcDbEntity
  8
0
  6
Continuous
 62
     7
370
    15
100
AcDbCircle
 10
417.355382674004
 20
1251.256319329936
 30
0.0
 40
1.550000000000011
  0
ARC
  5
78EF
330
1F
100
AcDbEntity
  8
0
  6
Continuous
 62
     7
370
    15
100
AcDbCircle
 10
417.355382674004
 20
1251.256319329936
 30
0.0
 40
2.749999999999992
100
AcDbArc
 50
236.2793634370083
 51
270.0
  0
ARC
  5
78F0
330
1F
100
AcDbEntity
  8
0
  6
Continuous
 62
     7
370
    15
100
AcDbCircle
 10
417.355382674004
 20
1251.256319329936
 30
0.0
 40
2.749999999999999
100
AcDbArc
 50
270.0
 51
229.7858289826273
  0
LINE
  5
78F1
330
1F
100
AcDbEntity
  8
0
  6
Continuous
 62
     7
370
    15
100
AcDbLine
 10
416.778032266165
 20
1252.256319160065
 30
0.0
 11
416.2006830504191
 21
1251.256318996152
 31
0.0
  0
LINE
  5
78F2
330
1F
100
AcDbEntity
  8
0
  6
Continuous
 62
     7
370
    15
100
AcDbLine
 10
416.778032266165
 20
1250.256319763562
 30
0.0
 11
417.9327344229472
 21
1250.256319763562
 31
0.0
  0
LINE
  5
78F3
330
1F
100
AcDbEntity
  8
0
  6
Continuous
 62
     7
370
    15
100
AcDbLine
 10
417.9327344229472
 20
1252.256319160065
 30
0.0
 11
416.778032266165
 21
1252.256319160065
 31
0.0
  0
LINE
  5
78F4
330
1F
100
AcDbEntity
  8
0
  6
Continuous
 62
     7
370
    15
100
AcDbLine
 10
418.5100836386931
 20
1251.256318996152
 30
0.0
 11
417.9327344229472
 21
1252.256319160065
 31
0.0
  0
LINE
  5
78F5
330
1F
100
AcDbEntity
  8
0
  6
Continuous
 62
     7
370
    15
100
AcDbLine
 10
417.9327344229472
 20
1250.256319763562
 30
0.0
 11
418.5100836386931
 21
1251.256318996152
 31
0.0
  0
LINE
  5
78F6
330
1F
100
AcDbEntity
  8
0
  6
Continuous
 62
     7
370
    15
100
AcDbLine
 10
416.2006830504191
 20
1251.256318996152
 30
0.0
 11
416.778032266165
 21
1250.256319763562
 31
0.0
  0
LINE
  5
78FC
330
1F
100
AcDbEntity
  8
0
  6
Continuous
 62
     7
370
    15
100
AcDbLine
 10
422.9382244577658
 20
1272.65631896486
 30
0.0
 11
417.4382244875681
 21
1267.156319460324
 31
0.0
  0
LINE
  5
78FD
330
1F
100
AcDbEntity
  8
0
  6
Continuous
 62
     7
370
    15
100
AcDbLine
 10
430.1553820898783
 20
1272.65631896486
 30
0.0
 11
422.9382244577658
 21
1272.65631896486
 31
0.0
  0
LINE
  5
78FE
330
1F
100
AcDbEntity
  8
0
  6
Continuous
 62
     7
370
    15
100
AcDbLine
 10
430.1553820898783
 20
1257.056319388053
 30
0.0
 11
430.1553820898783
 21
1272.65631896486
 31
0.0
  0
LINE
  5
78FF
330
1F
100
AcDbEntity
  8
0
  6
Continuous
 62
     7
370
    15
100
AcDbLine
 10
422.9382244577658
 20
1257.056319388053
 30
0.0
 11
430.1553820898783
 21
1257.056319388053
 31
0.0
  0
LINE
  5
7900
330
1F
100
AcDbEntity
  8
0
  6
Continuous
 62
     7
370
    15
100
AcDbLine
 10
417.4382244875681
 20
1262.556319329147
 30
0.0
 11
422.9382244577658
 21
1257.056319388053
 31
0.0
  0
LINE
  5
7901
330
1F
100
AcDbEntity
  8
0
  6
Continuous
 62
     7
370
    15
100
AcDbLine
 10
411.3553823610795
 20
1262.556319329147
 30
0.0
 11
417.4382244875681
 21
1262.556319329147
 31
0.0
  0
LINE
  5
7902
330
1F
100
AcDbEntity
  8
0
  6
Continuous
 62
     7
370
    15
100
AcDbLine
 10
411.3553823610795
 20
1267.156319460324
 30
0.0
 11
411.3553823610795
 21
1262.556319329147
 31
0.0
  0
LINE
  5
7903
330
1F
100
AcDbEntity
  8
0
  6
Continuous
 62
     7
370
    15
100
AcDbLine
 10
417.4382244875681
 20
1267.156319460324
 30
0.0
 11
411.3553823610795
 21
1267.156319460324
 31
0.0
  0
LINE
  5
7904
330
1F
100
AcDbEntity
  8
0
  6
Continuous
 62
     7
370
    15
100
AcDbLine
 10
422.8553814521086
 20
1256.856319262138
 30
0.0
 11
417.355381481911
 21
1262.356319330561
 31
0.0
  0
LINE
  5
7905
330
1F
100
AcDbEntity
  8
0
  6
Continuous
 62
     7
370
    15
100
AcDbLine
 10
417.355381481911
 20
1262.356319330561
 30
0.0
 11
417.4382244875681
 21
1262.556319329147
 31
0.0
  0
LINE
  5
7906
330
1F
100
AcDbEntity
  8
0
  6
Continuous
 62
     7
370
    15
100
AcDbLine
 10
422.8553814521086
 20
1256.856319262138
 30
0.0
 11
422.9382244577658
 21
1257.056319388053
 31
0.0
  0
LINE
  5
7907
330
1F
100
AcDbEntity
  8
0
  6
Continuous
 62
     7
370
    15
100
AcDbLine
 10
430.3553817501319
 20
1256.856319262138
 30
0.0
 11
422.8553814521086
 21
1256.856319262138
 31
0.0
  0
LINE
  5
7908
330
1F
100
AcDbEntity
  8
0
  6
Continuous
 62
     7
370
    15
100
AcDbLine
 10
430.3553817501319
 20
1256.856319262138
 30
0.0
 11
430.1553820898783
 21
1257.056319388053
 31
0.0
  0
LINE
  5
7909
330
1F
100
AcDbEntity
  8
0
  6
Continuous
 62
     7
370
    15
100
AcDbLine
 10
430.1553820898783
 20
1272.65631896486
 30
0.0
 11
430.3553817501319
 21
1272.856319556436
 31
0.0
  0
LINE
  5
790A
330
1F
100
AcDbEntity
  8
0
  6
Continuous
 62
     7
370
    15
100
AcDbLine
 10
430.3553817501319
 20
1272.856319556436
 30
0.0
 11
430.3553817501319
 21
1256.856319262138
 31
0.0
  0
LINE
  5
790B
330
1F
100
AcDbEntity
  8
0
  6
Continuous
 62
     7
370
    15
100
AcDbLine
 10
411.1553827008259
 20
1262.556319329147
 30
0.0
 11
411.3553823610795
 21
1262.556319329147
 31
0.0
  0
LINE
  5
790C
330
1F
100
AcDbEntity
  8
0
  6
Continuous
 62
     7
370
    15
100
AcDbLine
 10
411.1553827008259
 20
1262.556319329147
 30
0.0
 11
411.1553827008259
 21
1267.156319460324
 31
0.0
  0
LINE
  5
790D
330
1F
100
AcDbEntity
  8
0
  6
Continuous
 62
     7
370
    15
100
AcDbLine
 10
411.3553823610795
 20
1267.156319460324
 30
0.0
 11
411.1553827008259
 21
1267.156319460324
 31
0.0
  0
LINE
  5
790E
330
1F
100
AcDbEntity
  8
0
  6
Continuous
 62
     7
370
    15
100
AcDbLine
 10
417.355381481911
 20
1262.356319330561
 30
0.0
 11
411.3553823610795
 21
1262.356319330561
 31
0.0
  0
LINE
  5
790F
330
1F
100
AcDbEntity
  8
0
  6
Continuous
 62
     7
370
    15
100
AcDbLine
 10
411.3553823610795
 20
1262.356319330561
 30
0.0
 11
411.3553823610795
 21
1262.556319329147
 31
0.0
  0
LINE
  5
7910
330
1F
100
AcDbEntity
  8
0
  6
Continuous
 62
     7
370
    15
100
AcDbLine
 10
411.1553827008259
 20
1262.556319329147
 30
0.0
 11
411.3553823610795
 21
1262.356319330561
 31
0.0
  0
LINE
  5
7911
330
1F
100
AcDbEntity
  8
0
  6
Continuous
 62
     7
370
    15
100
AcDbLine
 10
411.3553823610795
 20
1267.156319460324
 30
0.0
 11
411.3553823610795
 21
1267.356319120577
 31
0.0
  0
LINE
  5
7912
330
1F
100
AcDbEntity
  8
0
  6
Continuous
 62
     7
370
    15
100
AcDbLine
 10
411.3553823610795
 20
1267.356319120577
 30
0.0
 11
417.355381481911
 21
1267.356319120577
 31
0.0
  0
LINE
  5
7913
330
1F
100
AcDbEntity
  8
0
  6
Continuous
 62
     7
370
    15
100
AcDbLine
 10
417.4382244875681
 20
1267.156319460324
 30
0.0
 11
417.355381481911
 21
1267.356319120577
 31
0.0
  0
LINE
  5
7914
330
1F
100
AcDbEntity
  8
0
  6
Continuous
 62
     7
370
    15
100
AcDbLine
 10
411.3553823610795
 20
1267.356319120577
 30
0.0
 11
411.1553827008259
 21
1267.156319460324
 31
0.0
  0
LINE
  5
7915
330
1F
100
AcDbEntity
  8
0
  6
Continuous
 62
     7
370
    15
100
AcDbLine
 10
417.355381481911
 20
1267.356319120577
 30
0.0
 11
422.8553814521086
 21
1272.856319556436
 31
0.0
  0
LINE
  5
7916
330
1F
100
AcDbEntity
  8
0
  6
Continuous
 62
     7
370
    15
100
AcDbLine
 10
422.9382244577658
 20
1272.65631896486
 30
0.0
 11
422.8553814521086
 21
1272.856319556436
 31
0.0
  0
LINE
  5
7917
330
1F
100
AcDbEntity
  8
0
  6
Continuous
 62
     7
370
    15
100
AcDbLine
 10
422.8553814521086
 20
1272.856319556436
 30
0.0
 11
430.3553817501319
 21
1272.856319556436
 31
0.0
  0
LINE
  5
7918
330
1F
100
AcDbEntity
  8
0
  6
Continuous
 62
     7
370
    15
100
AcDbLine
 10
432.0053836038363
 20
1261.406319332732
 30
0.0
 11
432.0053836038363
 21
1258.306319127283
 31
0.0
  0
LINE
  5
7919
330
1F
100
AcDbEntity
  8
0
  6
Continuous
 62
     7
370
    15
100
AcDbLine
 10
432.0053836038363
 20
1271.40631922563
 30
0.0
 11
432.0053836038363
 21
1268.306319369427
 31
0.0
  0
LINE
  5
791A
330
1F
100
AcDbEntity
  8
0
  6
Continuous
 62
     7
370
    15
100
AcDbLine
 10
409.5553835561526
 20
1254.856319399974
 30
0.0
 11
409.5553835561526
 21
1249.356319429776
 31
0.0
  0
LINE
  5
791B
330
1F
100
AcDbEntity
  8
0
  6
Continuous
 62
     7
370
    15
100
AcDbLine
 10
409.5553835561526
 20
1249.356319429776
 30
0.0
 11
409.3553820332539
 21
1249.356319429776
 31
0.0
  0
LINE
  5
791C
330
1F
100
AcDbEntity
  8
0
  6
Continuous
 62
     7
370
    15
100
AcDbLine
 10
409.3553820332539
 20
1249.356319429776
 30
0.0
 11
409.3553820332539
 21
1254.656319274059
 31
0.0
  0
LINE
  5
791D
330
1F
100
AcDbEntity
  8
0
  6
Continuous
 62
     7
370
    15
100
AcDbLine
 10
409.5553835561526
 20
1254.856319399974
 30
0.0
 11
409.3553820332539
 21
1254.656319274059
 31
0.0
  0
LINE
  5
791E
330
1F
100
AcDbEntity
  8
0
  6
Continuous
 62
     7
370
    15
100
AcDbLine
 10
441.3553816905272
 20
1254.656319274059
 30
0.0
 11
441.3553816905272
 21
1249.356319429776
 31
0.0
  0
LINE
  5
791F
330
1F
100
AcDbEntity
  8
0
  6
Continuous
 62
     7
370
    15
100
AcDbLine
 10
441.3553816905272
 20
1249.356319429776
 30
0.0
 11
441.1553820302737
 21
1249.356319429776
 31
0.0
  0
LINE
  5
7920
330
1F
100
AcDbEntity
  8
0
  6
Continuous
 62
     7
370
    15
100
AcDbLine
 10
441.1553820302737
 20
1249.356319429776
 30
0.0
 11
441.1553820302737
 21
1254.856319399974
 31
0.0
  0
LINE
  5
7921
330
1F
100
AcDbEntity
  8
0
  6
Continuous
 62
     7
370
    15
100
AcDbLine
 10
441.3553816905272
 20
1254.656319274059
 30
0.0
 11
441.1553820302737
 21
1254.856319399974
 31
0.0
  0
LINE
  5
7922
330
1F
100
AcDbEntity
  8
0
  6
Continuous
 62
     7
370
    15
100
AcDbLine
 10
414.3053820064318
 20
1249.356319429776
 30
0.0
 11
414.3053820064318
 21
1251.256318996152
 31
0.0
  0
LINE
  5
7923
330
1F
100
AcDbEntity
  8
0
  6
Continuous
 62
     7
370
    15
100
AcDbLine
 10
414.3053820064318
 20
1251.256318996152
 30
0.0
 11
414.5053835293305
 21
1251.256318996152
 31
0.0
  0
LINE
  5
7924
330
1F
100
AcDbEntity
  8
0
  6
Continuous
 62
     7
370
    15
100
AcDbLine
 10
414.5053835293305
 20
1251.256318996152
 30
0.0
 11
414.5053835293305
 21
1249.156319769523
 31
0.0
  0
LINE
  5
7925
330
1F
100
AcDbEntity
  8
0
  6
Continuous
 62
     7
370
    15
100
AcDbLine
 10
414.3053820064318
 20
1249.356319429776
 30
0.0
 11
414.5053835293305
 21
1249.156319769523
 31
0.0
  0
LINE
  5
7926
330
1F
100
AcDbEntity
  8
0
  6
Continuous
 62
     7
370
    15
100
AcDbLine
 10
441.1553820302737
 20
1249.156319769523
 30
0.0
 11
436.2053839197409
 21
1249.156319769523
 31
0.0
  0
LINE
  5
7927
330
1F
100
AcDbEntity
  8
0
  6
Continuous
 62
     7
370
    15
100
AcDbLine
 10
436.2053839197409
 20
1249.156319769523
 30
0.0
 11
436.4053835799944
 21
1249.356319429776
 31
0.0
  0
LINE
  5
7928
330
1F
100
AcDbEntity
  8
0
  6
Continuous
 62
     7
370
    15
100
AcDbLine
 10
436.4053835799944
 20
1249.356319429776
 30
0.0
 11
441.1553820302737
 21
1249.356319429776
 31
0.0
  0
LINE
  5
7929
330
1F
100
AcDbEntity
  8
0
  6
Continuous
 62
     7
370
    15
100
AcDbLine
 10
441.1553820302737
 20
1249.156319769523
 30
0.0
 11
441.1553820302737
 21
1249.356319429776
 31
0.0
  0
LINE
  5
792A
330
1F
100
AcDbEntity
  8
0
  6
Continuous
 62
     7
370
    15
100
AcDbLine
 10
430.5053842892897
 20
1251.256318996152
 30
0.0
 11
430.5053842892897
 21
1249.156319769523
 31
0.0
  0
LINE
  5
792B
330
1F
100
AcDbEntity
  8
0
  6
Continuous
 62
     7
370
    15
100
AcDbLine
 10
430.5053842892897
 20
1249.156319769523
 30
0.0
 11
430.3053809037459
 21
1249.356319429776
 31
0.0
  0
LINE
  5
792C
330
1F
100
AcDbEntity
  8
0
  6
Continuous
 62
     7
370
    15
100
AcDbLine
 10
430.3053809037459
 20
1249.356319429776
 30
0.0
 11
430.3053809037459
 21
1251.256318996152
 31
0.0
  0
LINE
  5
792D
330
1F
100
AcDbEntity
  8
0
  6
Continuous
 62
     7
370
    15
100
AcDbLine
 10
430.5053842892897
 20
1251.256318996152
 30
0.0
 11
430.3053809037459
 21
1251.256318996152
 31
0.0
  0
LINE
  5
792E
330
1F
100
AcDbEntity
  8
0
  6
Continuous
 62
     7
370
    15
100
AcDbLine
 10
420.4053809573901
 20
1251.256318996152
 30
0.0
 11
420.4053809573901
 21
1249.356319429776
 31
0.0
  0
LINE
  5
792F
330
1F
100
AcDbEntity
  8
0
  6
Continuous
 62
     7
370
    15
100
AcDbLine
 10
420.4053809573901
 20
1249.356319429776
 30
0.0
 11
420.2053812971366
 21
1249.156319769523
 31
0.0
  0
LINE
  5
7930
330
1F
100
AcDbEntity
  8
0
  6
Continuous
 62
     7
370
    15
100
AcDbLine
 10
420.2053812971366
 20
1249.156319769523
 30
0.0
 11
420.2053812971366
 21
1251.256318996152
 31
0.0
  0
LINE
  5
7931
330
1F
100
AcDbEntity
  8
0
  6
Continuous
 62
     7
370
    15
100
AcDbLine
 10
420.4053809573901
 20
1251.256318996152
 30
0.0
 11
420.2053812971366
 21
1251.256318996152
 31
0.0
  0
LINE
  5
7932
330
1F
100
AcDbEntity
  8
0
  6
Continuous
 62
     7
370
    15
100
AcDbLine
 10
436.2053839197409
 20
1249.156319769523
 30
0.0
 11
436.2053839197409
 21
1251.256318996152
 31
0.0
  0
LINE
  5
7933
330
1F
100
AcDbEntity
  8
0
  6
Continuous
 62
     7
370
    15
100
AcDbLine
 10
436.2053839197409
 20
1251.256318996152
 30
0.0
 11
436.4053835799944
 21
1251.256318996152
 31
0.0
  0
LINE
  5
7934
330
1F
100
AcDbEntity
  8
0
  6
Continuous
 62
     7
370
    15
100
AcDbLine
 10
436.4053835799944
 20
1251.256318996152
 30
0.0
 11
436.4053835799944
 21
1249.356319429776
 31
0.0
  0
ARC
  5
7935
330
1F
100
AcDbEntity
  8
0
  6
Continuous
 62
     7
370
    15
100
AcDbCircle
 10
417.355382674004
 20
1251.256319329936
 30
0.0
 40
3.050000000000011
100
AcDbArc
 50
0.0
 51
180.0
  0
ARC
  5
7936
330
1F
100
AcDbEntity
  8
0
  6
Continuous
 62
     7
370
    15
100
AcDbCircle
 10
417.355382674004
 20
1251.256319329936
 30
0.0
 40
2.849999999999994
100
AcDbArc
 50
0.0
 51
180.0
  0
LINE
  5
7937
102
{ACAD_REACTORS
330
8067
102
}
330
1F
100
AcDbEntity
  8
0
  6
Continuous
 62
     7
370
    15
100
AcDbLine
 10
441.1553820302737
 20
1249.156319769523
 30
0.0
 11
441.3553816905272
 21
1249.356319429776
 31
0.0
  0
LINE
  5
7938
330
1F
100
AcDbEntity
  8
0
  6
Continuous
 62
     7
370
    15
100
AcDbLine
 10
409.5553835561526
 20
1249.356319429776
 30
0.0
 11
409.5553835561526
 21
1249.156319769523
 31
0.0
  0
LINE
  5
7939
102
{ACAD_REACTORS
330
8067
102
}
330
1F
100
AcDbEntity
  8
0
  6
Continuous
 62
     7
370
    15
100
AcDbLine
 10
409.3553820332539
 20
1249.356319429776
 30
0.0
 11
409.5553835561526
 21
1249.156319769523
 31
0.0
  0
ARC
  5
793A
330
1F
100
AcDbEntity
  8
0
  6
Continuous
 62
     7
370
    15
100
AcDbCircle
 10
433.355382674004
 20
1251.256319329936
 30
0.0
 40
2.849999999999994
100
AcDbArc
 50
0.0
 51
180.0
  0
ARC
  5
793B
330
1F
100
AcDbEntity
  8
0
  6
Continuous
 62
     7
370
    15
100
AcDbCircle
 10
433.355382674004
 20
1251.256319329936
 30
0.0
 40
3.050000000000011
100
AcDbArc
 50
0.0
 51
180.0
  0
LINE
  5
793C
330
1F
100
AcDbEntity
  8
0
  6
Continuous
 62
     7
370
    15
100
AcDbLine
 10
430.5053842892897
 20
1249.156319769523
 30
0.0
 11
420.2053812971366
 21
1249.156319769523
 31
0.0
  0
LINE
  5
793D
330
1F
100
AcDbEntity
  8
0
  6
Continuous
 62
     7
370
    15
100
AcDbLine
 10
420.4053809573901
 20
1249.356319429776
 30
0.0
 11
430.3053809037459
 21
1249.356319429776
 31
0.0
  0
LINE
  5
793E
330
1F
100
AcDbEntity
  8
0
  6
Continuous
 62
     7
370
    15
100
AcDbLine
 10
409.5553835561526
 20
1249.356319429776
 30
0.0
 11
414.3053820064318
 21
1249.356319429776
 31
0.0
  0
LINE
  5
793F
330
1F
100
AcDbEntity
  8
0
  6
Continuous
 62
     7
370
    15
100
AcDbLine
 10
414.5053835293305
 20
1249.156319769523
 30
0.0
 11
409.5553835561526
 21
1249.156319769523
 31
0.0
  0
LINE
  5
7940
330
1F
100
AcDbEntity
  8
0
  6
Continuous
 62
     7
370
    15
100
AcDbLine
 10
415.3553830167306
 20
1254.856319399974
 30
0.0
 11
418.7221346130622
 21
1254.856319399974
 31
0.0
  0
ARC
  5
7941
330
1F
100
AcDbEntity
  8
0
  6
Continuous
 62
     7
370
    15
100
AcDbCircle
 10
425.355382674004
 20
1264.856319329936
 30
0.0
 40
11.99999999999998
100
AcDbArc
 50
236.4426902380761
 51
303.5573097619239
  0
LINE
  5
7942
330
1F
100
AcDbEntity
  8
0
  6
Continuous
 62
     7
370
    15
100
AcDbLine
 10
431.9886309733641
 20
1254.856319399974
 30
0.0
 11
435.3553844323409
 21
1254.856319399974
 31
0.0
  0
LINE
  5
7943
330
1F
100
AcDbEntity
  8
0
  6
Continuous
 62
     7
370
    15
100
AcDbLine
 10
435.3553844323409
 20
1254.856319399974
 30
0.0
 11
435.3553844323409
 21
1257.656319300136
 31
0.0
  0
LINE
  5
7944
330
1F
100
AcDbEntity
  8
0
  6
Continuous
 62
     7
370
    15
100
AcDbLine
 10
440.7553827097666
 20
1257.656319300136
 30
0.0
 11
435.3553844323409
 21
1257.656319300136
 31
0.0
  0
LINE
  5
7945
330
1F
100
AcDbEntity
  8
0
  6
Continuous
 62
     7
370
    15
100
AcDbLine
 10
440.7553827097666
 20
1257.656319300136
 30
0.0
 11
440.7553827097666
 21
1254.856319399974
 31
0.0
  0
LINE
  5
7946
330
1F
100
AcDbEntity
  8
0
  6
Continuous
 62
     7
370
    15
100
AcDbLine
 10
440.7553827097666
 20
1254.856319399974
 30
0.0
 11
441.1553820302737
 21
1254.856319399974
 31
0.0
  0
LINE
  5
7947
330
1F
100
AcDbEntity
  8
0
  6
Continuous
 62
     7
370
    15
100
AcDbLine
 10
409.5553835561526
 20
1254.856319399974
 30
0.0
 11
409.9553828766596
 21
1254.856319399974
 31
0.0
  0
LINE
  5
7948
330
1F
100
AcDbEntity
  8
0
  6
Continuous
 62
     7
370
    15
100
AcDbLine
 10
409.9553828766596
 20
1254.856319399974
 30
0.0
 11
409.9553828766596
 21
1257.656319300136
 31
0.0
  0
LINE
  5
7949
330
1F
100
AcDbEntity
  8
0
  6
Continuous
 62
     7
370
    15
100
AcDbLine
 10
415.3553830167306
 20
1257.656319300136
 30
0.0
 11
409.9553828766596
 21
1257.656319300136
 31
0.0
  0
LINE
  5
794A
330
1F
100
AcDbEntity
  8
0
  6
Continuous
 62
     7
370
    15
100
AcDbLine
 10
415.3553830167306
 20
1257.656319300136
 30
0.0
 11
415.3553830167306
 21
1254.856319399974
 31
0.0
  0
LINE
  5
794B
330
1F
100
AcDbEntity
  8
0
  6
Continuous
 62
     7
370
    15
100
AcDbLine
 10
409.9553828766596
 20
1257.656319300136
 30
0.0
 11
410.1553825369132
 21
1257.856319426051
 31
0.0
  0
LINE
  5
794C
330
1F
100
AcDbEntity
  8
0
  6
Continuous
 62
     7
370
    15
100
AcDbLine
 10
410.1553825369132
 20
1257.856319426051
 30
0.0
 11
415.155383356477
 21
1257.856319426051
 31
0.0
  0
LINE
  5
794D
330
1F
100
AcDbEntity
  8
0
  6
Continuous
 62
     7
370
    15
100
AcDbLine
 10
415.3553830167306
 20
1257.656319300136
 30
0.0
 11
415.155383356477
 21
1257.856319426051
 31
0.0
  0
LINE
  5
794E
330
1F
100
AcDbEntity
  8
0
  6
Continuous
 62
     7
370
    15
100
AcDbLine
 10
435.5553840925944
 20
1257.856319426051
 30
0.0
 11
440.5553830495131
 21
1257.856319426051
 31
0.0
  0
LINE
  5
794F
330
1F
100
AcDbEntity
  8
0
  6
Continuous
 62
     7
370
    15
100
AcDbLine
 10
440.7553827097666
 20
1257.656319300136
 30
0.0
 11
440.5553830495131
 21
1257.856319426051
 31
0.0
  0
LINE
  5
7950
330
1F
100
AcDbEntity
  8
0
  6
Continuous
 62
     7
370
    15
100
AcDbLine
 10
435.3553844323409
 20
1257.656319300136
 30
0.0
 11
435.5553840925944
 21
1257.856319426051
 31
0.0
  0
LINE
  5
7951
330
1F
100
AcDbEntity
  8
0
  6
Continuous
 62
     7
370
    15
100
AcDbLine
 10
411.267668538357
 20
1247.522065649232
 30
0.0
 11
411.267668538357
 21
1249.156319769523
 31
0.0
  0
ELLIPSE
  5
7952
330
1F
100
AcDbEntity
  8
0
  6
Continuous
 62
     7
370
    15
100
AcDbEllipse
 10
411.2676694337324
 20
1251.22611730458
 30
0.0
 11
0.6651224737236138
 21
3.952025917745232
 31
0.0
210
0.0
220
0.0
230
1.0
 40
0.3728246932726979
 41
3.204256569173853
 42
3.565623693080554
  0
LINE
  5
7953
330
1F
100
AcDbEntity
  8
0
  6
Continuous
 62
     7
370
    15
100
AcDbLine
 10
410.2515043398392
 20
1247.266318882308
 30
0.0
 11
410.696121462251
 21
1247.266318882308
 31
0.0
  0
ELLIPSE
  5
7954
330
1F
100
AcDbEntity
  8
0
  6
Continuous
 62
     7
370
    15
100
AcDbEllipse
 10
409.6799561934609
 20
1251.22611730458
 30
0.0
 11
-0.6651224737236134
 21
3.952025917745232
 31
0.0
210
0.0
220
0.0
230
1.0
 40
0.3728246932726956
 41
2.717561614099061
 42
3.078928738005769
  0
LINE
  5
7955
330
1F
100
AcDbEntity
  8
0
  6
Continuous
 62
     7
370
    15
100
AcDbLine
 10
409.679955401088
 20
1247.522065649232
 30
0.0
 11
409.679955401088
 21
1249.156319769523
 31
0.0
  0
LINE
  5
7956
330
1F
100
AcDbEntity
  8
0
  6
Continuous
 62
     7
370
    15
100
AcDbLine
 10
414.4430966755402
 20
1247.522065649232
 30
0.0
 11
414.4430966755402
 21
1249.156319769523
 31
0.0
  0
ELLIPSE
  5
7957
330
1F
100
AcDbEntity
  8
0
  6
Continuous
 62
     7
370
    15
100
AcDbEllipse
 10
414.4430959142751
 20
1251.22611730458
 30
0.0
 11
2.138535324312726
 21
3.704051835490418
 31
-0.0000000000000027
210
0.0000000000000011
220
0.0000000000000001
230
1.0
 40
0.6546536707079796
 41
3.502959777496521
 42
3.864326901403224
  0
LINE
  5
7958
330
1F
100
AcDbEntity
  8
0
  6
Continuous
 62
     7
370
    15
100
AcDbLine
 10
412.4107645532143
 20
1247.266318882308
 30
0.0
 11
413.3000006606829
 21
1247.266318882308
 31
0.0
  0
ELLIPSE
  5
7959
330
1F
100
AcDbEntity
  8
0
  6
Continuous
 62
     7
370
    15
100
AcDbEllipse
 10
411.2676694337324
 20
1251.22611730458
 30
0.0
 11
-2.138535324312726
 21
3.704051835490418
 31
0.0000000000000018
210
0.000000000000001
220
0.0000000000000001
230
1.0
 40
0.6546536707079819
 41
2.418858405776379
 42
2.780225529683086
  0
LINE
  5
795A
330
1F
100
AcDbEntity
  8
0
  6
Continuous
 62
     7
370
    15
100
AcDbLine
 10
410.9847960701239
 20
1246.766318800351
 30
0.0
 11
410.696121462251
 21
1247.266318882308
 31
0.0
  0
LINE
  5
795B
330
1F
100
AcDbEntity
  8
0
  6
Continuous
 62
     7
370
    15
100
AcDbLine
 10
412.4107645532143
 20
1247.266318882308
 30
0.0
 11
412.6994391610873
 21
1246.766318800351
 31
0.0
  0
LINE
  5
795C
330
1F
100
AcDbEntity
  8
0
  6
Continuous
 62
     7
370
    15
100
AcDbLine
 10
412.6994391610873
 20
1246.766318800351
 30
0.0
 11
410.9847960701239
 21
1246.766318800351
 31
0.0
  0
LINE
  5
795D
330
1F
100
AcDbEntity
  8
0
  6
Continuous
 62
     7
370
    15
100
AcDbLine
 10
413.01132605281
 20
1246.766318800351
 30
0.0
 11
413.3000006606829
 21
1247.266318882308
 31
0.0
  0
ELLIPSE
  5
795E
330
1F
100
AcDbEntity
  8
0
  6
Continuous
 62
     7
370
    15
100
AcDbEllipse
 10
414.4430959142751
 20
1251.22611730458
 30
0.0
 11
-0.6651224737236133
 21
3.952025917745203
 31
0.0
210
0.0
220
0.0
230
1.0
 40
0.3728246932726924
 41
2.717561614099055
 42
3.078928738005763
  0
LINE
  5
795F
330
1F
100
AcDbEntity
  8
0
  6
Continuous
 62
     7
370
    15
100
AcDbLine
 10
415.0146437516463
 20
1247.266318882308
 30
0.0
 11
414.7259691437733
 21
1246.766318800351
 31
0.0
  0
LINE
  5
7960
330
1F
100
AcDbEntity
  8
0
  6
Continuous
 62
     7
370
    15
100
AcDbLine
 10
414.7259691437733
 20
1246.766318800351
 30
0.0
 11
413.01132605281
 21
1246.766318800351
 31
0.0
  0
LINE
  5
7961
330
1F
100
AcDbEntity
  8
0
  6
Continuous
 62
     7
370
    15
100
AcDbLine
 10
413.01132605281
 20
1246.766318800351
 30
0.0
 11
412.6994391610873
 21
1246.766318800351
 31
0.0
  0
LINE
  5
7962
330
1F
100
AcDbEntity
  8
0
  6
Continuous
 62
     7
370
    15
100
AcDbLine
 10
415.6462331941378
 20
1249.156319769523
 30
0.0
 11
414.5053835293305
 21
1249.156319769523
 31
0.0
  0
LINE
  5
7963
330
1F
100
AcDbEntity
  8
0
  6
Continuous
 62
     7
370
    15
100
AcDbLine
 10
416.0308098128092
 20
1247.522065649232
 30
0.0
 11
416.0308098128092
 21
1248.84633929511
 31
0.0
  0
ELLIPSE
  5
7964
330
1F
100
AcDbEntity
  8
0
  6
Continuous
 62
     7
370
    15
100
AcDbEllipse
 10
416.0308091545467
 20
1251.22611730458
 30
0.0
 11
0.6651224737236137
 21
3.952025917745203
 31
0.0
210
0.0
220
0.0
230
1.0
 40
0.3728246932726994
 41
3.204256569173859
 42
3.565623693080556
  0
LINE
  5
7965
330
1F
100
AcDbEntity
  8
0
  6
Continuous
 62
     7
370
    15
100
AcDbLine
 10
415.0146437516463
 20
1247.266318882308
 30
0.0
 11
415.459260874058
 21
1247.266318882308
 31
0.0
  0
ELLIPSE
  5
7966
330
1F
100
AcDbEntity
  8
0
  6
Continuous
 62
     7
370
    15
100
AcDbEllipse
 10
434.6799561934609
 20
1251.22611730458
 30
0.0
 11
-0.6651224737236133
 21
3.952025917745203
 31
0.0
210
0.0
220
0.0
230
1.0
 40
0.3728246932726924
 41
2.717561614099055
 42
3.078928738005767
  0
LINE
  5
7967
330
1F
100
AcDbEntity
  8
0
  6
Continuous
 62
     7
370
    15
100
AcDbLine
 10
434.679955773617
 20
1247.522065649232
 30
0.0
 11
434.679955773617
 21
1248.84633929511
 31
0.0
  0
LINE
  5
7968
330
1F
100
AcDbEntity
  8
0
  6
Continuous
 62
     7
370
    15
100
AcDbLine
 10
436.2053839197409
 20
1249.156319769523
 30
0.0
 11
435.0645323922885
 21
1249.156319769523
 31
0.0
  0
LINE
  5
7969
330
1F
100
AcDbEntity
  8
0
  6
Continuous
 62
     7
370
    15
100
AcDbLine
 10
436.2676707735312
 20
1247.522065649232
 30
0.0
 11
436.2676707735312
 21
1249.156319769523
 31
0.0
  0
ELLIPSE
  5
796A
330
1F
100
AcDbEntity
  8
0
  6
Continuous
 62
     7
370
    15
100
AcDbEllipse
 10
436.2676694337323
 20
1251.22611730458
 30
0.0
 11
0.6651224737236421
 21
3.952025917745203
 31
0.0
210
0.0
220
0.0
230
1.0
 40
0.3728246932726919
 41
3.204256569173875
 42
3.565623693080579
  0
LINE
  5
796B
330
1F
100
AcDbEntity
  8
0
  6
Continuous
 62
     7
370
    15
100
AcDbLine
 10
435.2515047123683
 20
1247.266318882308
 30
0.0
 11
435.69612183478
 21
1247.266318882308
 31
0.0
  0
LINE
  5
796C
330
1F
100
AcDbEntity
  8
0
  6
Continuous
 62
     7
370
    15
100
AcDbLine
 10
439.4430970480692
 20
1247.522065649232
 30
0.0
 11
439.4430970480692
 21
1249.156319769523
 31
0.0
  0
ELLIPSE
  5
796D
330
1F
100
AcDbEntity
  8
0
  6
Continuous
 62
     7
370
    15
100
AcDbEllipse
 10
439.4430959142751
 20
1251.22611730458
 30
0.0
 11
2.138535324312755
 21
3.704051835490389
 31
-0.0000000000000027
210
0.0000000000000011
220
0.0000000000000001
230
1.0
 40
0.6546536707079812
 41
3.502959777496542
 42
3.864326901403242
  0
LINE
  5
796E
330
1F
100
AcDbEntity
  8
0
  6
Continuous
 62
     7
370
    15
100
AcDbLine
 10
437.4107649257434
 20
1247.266318882308
 30
0.0
 11
438.2999991705668
 21
1247.266318882308
 31
0.0
  0
ELLIPSE
  5
796F
330
1F
100
AcDbEntity
  8
0
  6
Continuous
 62
     7
370
    15
100
AcDbEllipse
 10
436.2676694337323
 20
1251.22611730458
 30
0.0
 11
2.138535324312726
 21
-3.704051835490361
 31
-0.0000000000000018
210
0.000000000000001
220
0.0000000000000001
230
1.0
 40
0.6546536707079871
 41
5.560451059366184
 42
5.921818183272891
  0
LINE
  5
7970
330
1F
100
AcDbEntity
  8
0
  6
Continuous
 62
     7
370
    15
100
AcDbLine
 10
437.4107649257434
 20
1247.266318882308
 30
0.0
 11
437.6994413962615
 21
1246.766318800351
 31
0.0
  0
LINE
  5
7971
330
1F
100
AcDbEntity
  8
0
  6
Continuous
 62
     7
370
    15
100
AcDbLine
 10
437.6994413962615
 20
1246.766318800351
 30
0.0
 11
435.9847983052981
 21
1246.766318800351
 31
0.0
  0
LINE
  5
7972
330
1F
100
AcDbEntity
  8
0
  6
Continuous
 62
     7
370
    15
100
AcDbLine
 10
435.9847983052981
 20
1246.766318800351
 30
0.0
 11
435.69612183478
 21
1247.266318882308
 31
0.0
  0
LINE
  5
7973
330
1F
100
AcDbEntity
  8
0
  6
Continuous
 62
     7
370
    15
100
AcDbLine
 10
438.011326425339
 20
1246.766318800351
 30
0.0
 11
438.2999991705668
 21
1247.266318882308
 31
0.0
  0
ELLIPSE
  5
7974
330
1F
100
AcDbEntity
  8
0
  6
Continuous
 62
     7
370
    15
100
AcDbEllipse
 10
439.4430959142754
 20
1251.22611730458
 30
0.0
 11
-0.6651224737236417
 21
3.952025917745203
 31
0.0
210
0.0
220
0.0
230
1.0
 40
0.372824693272699
 41
2.717561614099046
 42
3.078928738005749
  0
LINE
  5
7976
330
1F
100
AcDbEntity
  8
0
  6
Continuous
 62
     7
370
    15
100
AcDbLine
 10
439.7259695163024
 20
1246.766318800351
 30
0.0
 11
438.011326425339
 21
1246.766318800351
 31
0.0
  0
LINE
  5
7977
330
1F
100
AcDbEntity
  8
0
  6
Continuous
 62
     7
370
    15
100
AcDbLine
 10
438.011326425339
 20
1246.766318800351
 30
0.0
 11
437.6994413962615
 21
1246.766318800351
 31
0.0
  0
LINE
  5
7978
330
1F
100
AcDbEntity
  8
0
  6
Continuous
 62
     7
370
    15
100
AcDbLine
 10
441.0308083226931
 20
1247.522065649232
 30
0.0
 11
441.0308083226931
 21
1249.156319769523
 31
0.0
  0
ELLIPSE
  5
7979
330
1F
100
AcDbEntity
  8
0
  6
Continuous
 62
     7
370
    15
100
AcDbEllipse
 10
441.0308091545467
 20
1251.22611730458
 30
0.0
 11
0.6651224737236137
 21
3.952025917745203
 31
0.0
210
0.0
220
0.0
230
1.0
 40
0.3728246932726936
 41
3.204256569173856
 42
3.565623693080562
  0
LINE
  5
797A
330
1F
100
AcDbEntity
  8
0
  6
Continuous
 62
     7
370
    15
100
AcDbLine
 10
440.0146422615302
 20
1247.266318882308
 30
0.0
 11
440.4592631092322
 21
1247.266318882308
 31
0.0
  0
LINE
  5
797C
330
1F
100
AcDbEntity
  8
0
  6
Continuous
 62
     7
370
    15
100
AcDbLine
 10
410.9847960701239
 20
1246.766318800351
 30
0.0
 11
410.8288535555852
 21
1246.766318800351
 31
0.0
  0
LINE
  5
797E
330
1F
100
AcDbEntity
  8
0
  6
Continuous
 62
     7
370
    15
100
AcDbLine
 10
414.8819116583121
 20
1246.766318800351
 30
0.0
 11
414.7259691437733
 21
1246.766318800351
 31
0.0
  0
LINE
  5
7980
330
1F
100
AcDbEntity
  8
0
  6
Continuous
 62
     7
370
    15
100
AcDbLine
 10
435.9847983052981
 20
1246.766318800351
 30
0.0
 11
435.8288539281142
 21
1246.766318800351
 31
0.0
  0
LINE
  5
7981
330
1F
100
AcDbEntity
  8
0
  6
Continuous
 62
     7
370
    15
100
AcDbLine
 10
439.881910168196
 20
1246.766318800351
 30
0.0
 11
440.4592631092322
 21
1247.266318882308
 31
0.0
  0
LINE
  5
7982
330
1F
100
AcDbEntity
  8
0
  6
Continuous
 62
     7
370
    15
100
AcDbLine
 10
439.881910168196
 20
1246.766318800351
 30
0.0
 11
439.7259695163024
 21
1246.766318800351
 31
0.0
  0
LINE
  5
7983
330
1F
100
AcDbEntity
  8
0
  6
Continuous
 62
     7
370
    15
100
AcDbLine
 10
436.3553827336085
 20
1243.756319629452
 30
0.0
 11
439.3553813627017
 21
1243.756319629452
 31
0.0
  0
LINE
  5
7984
330
1F
100
AcDbEntity
  8
0
  6
Continuous
 62
     7
370
    15
100
AcDbLine
 10
439.1553817024481
 20
1243.556319969198
 30
0.0
 11
436.555382393862
 21
1243.556319969198
 31
0.0
  0
LINE
  5
7985
330
1F
100
AcDbEntity
  8
0
  6
Continuous
 62
     7
370
    15
100
AcDbLine
 10
411.3553823610795
 20
1243.756319629452
 30
0.0
 11
414.3553828528178
 21
1243.756319629452
 31
0.0
  0
LINE
  5
7986
330
1F
100
AcDbEntity
  8
0
  6
Continuous
 62
     7
370
    15
100
AcDbLine
 10
439.3553813627017
 20
1262.1563193247
 30
0.0
 11
436.3553827336085
 21
1262.1563193247
 31
0.0
  0
LINE
  5
7987
102
{ACAD_REACTORS
330
81E0
102
}
330
1F
100
AcDbEntity
  8
0
  6
Continuous
 62
     7
370
    15
100
AcDbLine
 10
412.8553835382712
 20
1243.556319969198
 30
0.0
 11
411.555382021333
 21
1243.556319969198
 31
0.0
  0
LINE
  5
7988
330
1F
100
AcDbEntity
  8
0
  6
Continuous
 62
     7
370
    15
100
AcDbLine
 10
414.1553831925643
 20
1243.556319969198
 30
0.0
 11
412.8553835382712
 21
1243.556319969198
 31
0.0
  0
LINE
  5
7989
330
1F
100
AcDbEntity
  8
0
  6
Continuous
 62
     7
370
    15
100
AcDbLine
 10
437.8553820481551
 20
1262.356319330561
 30
0.0
 11
439.1553817024481
 21
1262.356319330561
 31
0.0
  0
LINE
  5
798A
330
1F
100
AcDbEntity
  8
0
  6
Continuous
 62
     7
370
    15
100
AcDbLine
 10
436.555382393862
 20
1262.356319330561
 30
0.0
 11
437.8553820481551
 21
1262.356319330561
 31
0.0
  0
LINE
  5
798B
330
1F
100
AcDbEntity
  8
0
  6
Continuous
 62
     7
370
    15
100
AcDbLine
 10
440.1581478944075
 20
1246.766318800351
 30
0.0
 11
439.881910168196
 21
1246.766318800351
 31
0.0
  0
LINE
  5
798C
330
1F
100
AcDbEntity
  8
0
  6
Continuous
 62
     7
370
    15
100
AcDbLine
 10
410.8288535555852
 20
1246.766318800351
 30
0.0
 11
410.5526158293736
 21
1246.766318800351
 31
0.0
  0
LINE
  5
798D
330
1F
100
AcDbEntity
  8
0
  6
Continuous
 62
     7
370
    15
100
AcDbLine
 10
415.1581493845236
 20
1246.766318800351
 30
0.0
 11
414.8819116583121
 21
1246.766318800351
 31
0.0
  0
LINE
  5
798E
330
1F
100
AcDbEntity
  8
0
  6
Continuous
 62
     7
370
    15
100
AcDbLine
 10
435.8288539281142
 20
1246.766318800351
 30
0.0
 11
435.5526162019026
 21
1246.766318800351
 31
0.0
  0
LINE
  5
798F
330
1F
100
AcDbEntity
  8
0
  6
Continuous
 62
     7
370
    15
100
AcDbLine
 10
419.1309107175124
 20
1249.156319769523
 30
0.0
 11
420.2053812971366
 21
1249.156319769523
 31
0.0
  0
LINE
  5
7990
330
1F
100
AcDbEntity
  8
0
  6
Continuous
 62
     7
370
    15
100
AcDbLine
 10
430.5053842892897
 20
1249.156319769523
 30
0.0
 11
431.5798548689139
 21
1249.156319769523
 31
0.0
  0
ARC
  5
7991
330
1F
100
AcDbEntity
  8
0
  6
Continuous
 62
     7
370
    15
100
AcDbCircle
 10
425.355382674004
 20
1264.856319329936
 30
0.0
 40
6.80000000000001
100
AcDbArc
 50
337.6082270186256
 51
22.39177298138043
  0
ARC
  5
7992
330
1F
100
AcDbEntity
  8
0
  6
Continuous
 62
     7
370
    15
100
AcDbCircle
 10
425.355382674004
 20
1264.856319329936
 30
0.0
 40
7.000000000000005
100
AcDbArc
 50
336.7696589975608
 51
0.0
  0
ARC
  5
7993
330
1F
100
AcDbEntity
  8
0
  6
Continuous
 62
     7
370
    15
100
AcDbCircle
 10
425.355382674004
 20
1264.856319329936
 30
0.0
 40
7.0
100
AcDbArc
 50
0.0
 51
23.23034100243916
  0
ARC
  5
7994
330
1F
100
AcDbEntity
  8
0
  6
Continuous
 62
     7
370
    15
100
AcDbCircle
 10
407.8553826740039
 20
1267.856319329936
 30
0.0
 40
3.750000000000007
100
AcDbArc
 50
352.3377443392348
 51
270.0
  0
ARC
  5
7995
330
1F
100
AcDbEntity
  8
0
  6
Continuous
 62
     7
370
    15
100
AcDbCircle
 10
407.8553826740039
 20
1267.856319329936
 30
0.0
 40
3.749999999999996
100
AcDbArc
 50
270.0
 51
331.6423634236761
  0
CIRCLE
  5
7996
330
1F
100
AcDbEntity
  8
0
  6
Continuous
 62
     7
370
    15
100
AcDbCircle
 10
442.8553826740039
 20
1267.856319329936
 30
0.0
 40
3.749999999999971
  0
LINE
  5
7997
330
1F
100
AcDbEntity
  8
0
  6
Continuous
 62
     7
370
    15
100
AcDbLine
 10
409.5553835561526
 20
1249.156319769523
 30
0.0
 11
394.8553824504864
 21
1249.156319769523
 31
0.0
  0
LINE
  5
7998
330
1F
100
AcDbEntity
  8
0
  6
Continuous
 62
     7
370
    15
100
AcDbLine
 10
394.8553824504864
 20
1272.056319052777
 30
0.0
 11
394.8553824504864
 21
1249.156319769523
 31
0.0
  0
LINE
  5
7999
330
1F
100
AcDbEntity
  8
0
  6
Continuous
 62
     7
370
    15
100
AcDbLine
 10
455.855384998585
 20
1272.056319052777
 30
0.0
 11
431.8140936723006
 21
1272.056319052777
 31
0.0
  0
LINE
  5
799A
330
1F
100
AcDbEntity
  8
0
  6
Continuous
 62
     7
370
    15
100
AcDbLine
 10
422.0553828110945
 20
1272.056319052777
 30
0.0
 11
394.8553824504864
 21
1272.056319052777
 31
0.0
  0
LINE
  5
799B
330
1F
100
AcDbEntity
  8
0
  6
Continuous
 62
     7
370
    15
100
AcDbLine
 10
455.855384998585
 20
1272.056319052777
 30
0.0
 11
455.855384998585
 21
1249.156319769523
 31
0.0
  0
LINE
  5
799C
330
1F
100
AcDbEntity
  8
0
  6
Continuous
 62
     7
370
    15
100
AcDbLine
 10
455.855384998585
 20
1249.156319769523
 30
0.0
 11
441.1553820302737
 21
1249.156319769523
 31
0.0
  0
LINE
  5
799D
330
1F
100
AcDbEntity
  8
0
  6
Continuous
 62
     7
370
    15
100
AcDbLine
 10
455.855384998585
 20
1272.35631947448
 30
0.0
 11
431.5385264983428
 21
1272.35631947448
 31
0.0
  0
LINE
  5
799E
330
1F
100
AcDbEntity
  8
0
  6
Continuous
 62
     7
370
    15
100
AcDbLine
 10
422.35538416412
 20
1272.35631947448
 30
0.0
 11
394.8553824504864
 21
1272.35631947448
 31
0.0
  0
LINE
  5
799F
102
{ACAD_REACTORS
330
7E44
330
7F4B
330
7FAB
330
7FDA
102
}
330
1F
100
AcDbEntity
  8
0
  6
Continuous
 62
     7
370
    15
100
AcDbLine
 10
455.855384998585
 20
1272.35631947448
 30
0.0
 11
455.855384998585
 21
1272.056319052777
 31
0.0
  0
LINE
  5
79A0
102
{ACAD_REACTORS
330
7E44
330
8181
330
81A9
102
}
330
1F
100
AcDbEntity
  8
0
  6
Continuous
 62
     7
370
    15
100
AcDbLine
 10
394.8553824504864
 20
1272.35631947448
 30
0.0
 11
394.8553824504864
 21
1272.056319052777
 31
0.0
  0
LINE
  5
79A1
330
1F
100
AcDbEntity
  8
0
  6
Continuous
 62
     7
370
    15
100
AcDbLine
 10
455.855384998585
 20
1248.85631934782
 30
0.0
 11
441.0308083226931
 21
1248.85631934782
 31
0.0
  0
LINE
  5
79A2
330
1F
100
AcDbEntity
  8
0
  6
Continuous
 62
     7
370
    15
100
AcDbLine
 10
432.0128118326914
 20
1248.85631934782
 30
0.0
 11
418.6979537537348
 21
1248.85631934782
 31
0.0
  0
LINE
  5
79A3
330
1F
100
AcDbEntity
  8
0
  6
Continuous
 62
     7
370
    15
100
AcDbLine
 10
409.679955401088
 20
1248.85631934782
 30
0.0
 11
394.8553824504864
 21
1248.85631934782
 31
0.0
  0
LINE
  5
79A4
330
1F
100
AcDbEntity
  8
0
  6
Continuous
 62
     7
370
    15
100
AcDbLine
 10
455.855384998585
 20
1249.156319769523
 30
0.0
 11
455.855384998585
 21
1248.85631934782
 31
0.0
  0
LINE
  5
79A5
330
1F
100
AcDbEntity
  8
0
  6
Continuous
 62
     7
370
    15
100
AcDbLine
 10
394.8553824504864
 20
1249.156319769523
 30
0.0
 11
394.8553824504864
 21
1248.85631934782
 31
0.0
  0
CIRCLE
  5
79A6
330
1F
100
AcDbEntity
  8
0
  6
Continuous
 62
     7
370
    15
100
AcDbCircle
 10
407.8553826740039
 20
1267.856319329936
 30
0.0
 40
2.099999999999994
  0
CIRCLE
  5
79A7
330
1F
100
AcDbEntity
  8
0
  6
Continuous
 62
     7
370
    15
100
AcDbCircle
 10
442.8553826740039
 20
1267.856319329936
 30
0.0
 40
2.099999999999994
  0
LINE
  5
79A8
330
1F
100
AcDbEntity
  8
0
  6
Continuous
 62
     7
370
    15
100
AcDbLine
 10
455.855384998585
 20
1253.156319493851
 30
0.0
 11
455.855384998585
 21
1249.58662525793
 31
0.0
  0
LINE
  5
79A9
330
1F
100
AcDbEntity
  8
0
  6
Continuous
 62
     7
370
    15
100
AcDbLine
 10
394.8553824504864
 20
1253.156319493851
 30
0.0
 11
394.8553824504864
 21
1249.58662525793
 31
0.0
  0
LINE
  5
79AA
102
{ACAD_REACTORS
330
7FDA
102
}
330
1F
100
AcDbEntity
  8
0
  6
Continuous
 62
     7
370
    15
100
AcDbLine
 10
455.855384998585
 20
1249.58662525793
 30
0.0
 11
455.855384998585
 21
1248.85631934782
 31
0.0
  0
LINE
  5
79AB
330
1F
100
AcDbEntity
  8
0
  6
Continuous
 62
     7
370
    15
100
AcDbLine
 10
394.8553824504864
 20
1249.58662525793
 30
0.0
 11
394.8553824504864
 21
1248.85631934782
 31
0.0
  0
LINE
  5
79AC
330
1F
100
AcDbEntity
  8
0
  6
Continuous
 62
     7
370
    15
100
AcDbLine
 10
430.8053819170249
 20
1267.10631954526
 30
0.0
 11
430.8053819170249
 21
1272.606319049797
 31
0.0
  0
LINE
  5
79AD
330
1F
100
AcDbEntity
  8
0
  6
Continuous
 62
     7
370
    15
100
AcDbLine
 10
430.8053819170249
 20
1257.106319303116
 30
0.0
 11
430.8053819170249
 21
1262.606319331522
 31
0.0
  0
ARC
  5
79B3
330
1F
100
AcDbEntity
  8
0
  6
Continuous
 62
     7
370
    15
100
AcDbCircle
 10
434.9053826740039
 20
1196.218883071629
 30
0.0
 40
1.200000000000045
100
AcDbArc
 50
60.96572115129967
 51
90.0
  0
ARC
  5
79B4
330
1F
100
AcDbEntity
  8
0
  6
Continuous
 62
     7
370
    15
100
AcDbCircle
 10
431.8053826740039
 20
1196.218883071629
 30
0.0
 40
1.200000000000045
100
AcDbArc
 50
90.0
 51
180.0
  0
SPLINE
  5
79B5
330
1F
100
AcDbEntity
  8
0
  6
Continuous
 62
     7
370
    15
100
AcDbSpline
210
0.0
220
0.0
230
1.0
 70
    24
 71
     1
 72
     4
 73
     2
 74
     0
 42
0.0000000001
 43
0.0000000001
 40
0.0
 40
0.0
 40
1.0
 40
1.0
 10
430.6053822567713
 20
1196.218883298716
 30
0.0
 10
430.6053822567713
 20
1195.768883131823
 30
0.0
  0
SPLINE
  5
79B6
330
1F
100
AcDbEntity
  8
0
  6
Continuous
 62
     7
370
    15
100
AcDbSpline
210
0.0
220
0.0
230
1.0
 70
    24
 71
     1
 72
     4
 73
     2
 74
     0
 42
0.0000000001
 43
0.0000000001
 40
0.0
 40
0.0
 40
1.0
 40
1.0
 10
420.1053833296549
 20
1195.768883131823
 30
0.0
 10
420.1053833296549
 20
1196.218883298716
 30
0.0
  0
ARC
  5
79B7
330
1F
100
AcDbEntity
  8
0
  6
Continuous
 62
     7
370
    15
100
AcDbCircle
 10
415.805382674004
 20
1196.218883071629
 30
0.0
 40
1.200000000000045
100
AcDbArc
 50
90.0
 51
119.0342788487003
  0
ARC
  5
79B8
330
1F
100
AcDbEntity
  8
0
  6
Continuous
 62
     7
370
    15
100
AcDbCircle
 10
418.9053826740039
 20
1196.218883071629
 30
0.0
 40
1.200000000000045
100
AcDbArc
 50
0.0
 51
90.0
  0
ARC
  5
79B9
330
1F
100
AcDbEntity
  8
0
  6
Continuous
 62
     7
370
    15
100
AcDbCircle
 10
430.805382674004
 20
1199.318883071629
 30
0.0
 40
1.200000000000023
100
AcDbArc
 50
2.388015463266324
 51
90.0
  0
SPLINE
  5
79BA
330
1F
100
AcDbEntity
  8
0
  6
Continuous
 62
     7
370
    15
100
AcDbSpline
210
0.0
220
0.0
230
1.0
 70
    24
 71
     1
 72
     4
 73
     2
 74
     0
 42
0.0000000001
 43
0.0000000001
 40
0.0
 40
0.0
 40
1.0
 40
1.0
 10
430.8053819170249
 20
1200.518883444748
 30
0.0
 10
430.3553817501319
 20
1200.518883444748
 30
0.0
  0
LINE
  5
79BD
330
1F
100
AcDbEntity
  8
0
  6
Continuous
 62
     7
370
    15
100
AcDbLine
 10
431.8053839435828
 20
1197.418883122883
 30
0.0
 11
434.9053842654479
 21
1197.418883122883
 31
0.0
  0
LINE
  5
79BE
330
1F
100
AcDbEntity
  8
0
  6
Continuous
 62
     7
370
    15
100
AcDbLine
 10
431.5798548689139
 20
1195.768883131823
 30
0.0
 11
434.7376903226626
 21
1195.768883131823
 31
0.0
  0
LINE
  5
79BF
330
1F
100
AcDbEntity
  8
0
  6
Continuous
 62
     7
370
    15
100
AcDbLine
 10
417.355381481911
 20
1195.768883131823
 30
0.0
 11
419.1309107175124
 21
1195.768883131823
 31
0.0
  0
LINE
  5
79C0
330
1F
100
AcDbEntity
  8
0
  6
Continuous
 62
     7
370
    15
100
AcDbLine
 10
415.9730734011185
 20
1195.768883131823
 30
0.0
 11
417.355381481911
 21
1195.768883131823
 31
0.0
  0
LINE
  5
79C1
330
1F
100
AcDbEntity
  8
0
  6
Continuous
 62
     7
370
    15
100
AcDbLine
 10
417.355381481911
 20
1197.418883122883
 30
0.0
 11
418.9053816428435
 21
1197.418883122883
 31
0.0
  0
LINE
  5
79C2
330
1F
100
AcDbEntity
  8
0
  6
Continuous
 62
     7
370
    15
100
AcDbLine
 10
415.8053831836236
 20
1197.418883122883
 30
0.0
 11
417.355381481911
 21
1197.418883122883
 31
0.0
  0
CIRCLE
  5
79C3
330
1F
100
AcDbEntity
  8
0
  6
Continuous
 62
     7
370
    15
100
AcDbCircle
 10
412.855382674004
 20
1195.868883071629
 30
0.0
 40
1.300000000000068
  0
CIRCLE
  5
79C4
330
1F
100
AcDbEntity
  8
0
  6
Continuous
 62
     7
370
    15
100
AcDbCircle
 10
412.855382674004
 20
1195.868883071629
 30
0.0
 40
1.5
  0
CIRCLE
  5
79C5
330
1F
100
AcDbEntity
  8
0
  6
Continuous
 62
     7
370
    15
100
AcDbCircle
 10
437.855382674004
 20
1195.868883071629
 30
0.0
 40
1.299999999999954
  0
CIRCLE
  5
79C6
330
1F
100
AcDbEntity
  8
0
  6
Continuous
 62
     7
370
    15
100
AcDbCircle
 10
437.855382674004
 20
1195.868883071629
 30
0.0
 40
1.5
  0
LINE
  5
79C8
330
1F
100
AcDbEntity
  8
0
  6
Continuous
 62
     7
370
    15
100
AcDbLine
 10
437.6994413962615
 20
1193.618883058808
 30
0.0
 11
438.011326425339
 21
1193.618883058808
 31
0.0
  0
LINE
  5
79CA
330
1F
100
AcDbEntity
  8
0
  6
Continuous
 62
     7
370
    15
100
AcDbLine
 10
438.2999991705668
 20
1193.118882976851
 30
0.0
 11
437.4107649257434
 21
1193.118882976851
 31
0.0
  0
ELLIPSE
  5
79CB
330
1F
100
AcDbEntity
  8
0
  6
Continuous
 62
     7
370
    15
100
AcDbEllipse
 10
436.8682303530828
 20
1194.159085096984
 30
0.0
 11
2.138535324312755
 21
3.704051835490418
 31
-0.0000000000000124
210
-0.0000000000000007
220
0.0000000000000038
230
1.0
 40
0.6546536707079773
 41
5.9218181832729
 42
6.64455243108631
  0
LINE
  5
79CC
330
1F
100
AcDbEntity
  8
0
  6
Continuous
 62
     7
370
    15
100
AcDbLine
 10
439.881910168196
 20
1196.858832292638
 30
0.0
 11
439.7259695163024
 21
1197.128933534405
 31
0.0
  0
ELLIPSE
  5
79CD
330
1F
100
AcDbEntity
  8
0
  6
Continuous
 62
     7
370
    15
100
AcDbEllipse
 10
435.8810780321618
 20
1195.868883071629
 30
0.0
 11
4.277070648625509
 21
-0.0000000000000003
 31
0.0000000000000018
210
-0.0000000000000004
220
0.0000000000000038
230
1.0
 40
0.6546536707079839
 41
5.921818183272917
 42
6.644552431086313
  0
LINE
  5
79CE
330
1F
100
AcDbEntity
  8
0
  6
Continuous
 62
     7
370
    15
100
AcDbLine
 10
439.7259695163024
 20
1194.608832389495
 30
0.0
 11
439.881910168196
 21
1194.878933631263
 31
0.0
  0
ELLIPSE
  5
79CF
330
1F
100
AcDbEntity
  8
0
  6
Continuous
 62
     7
370
    15
100
AcDbEllipse
 10
436.8682303530828
 20
1197.578681046274
 30
0.0
 11
2.138535324312754
 21
-3.704051835490474
 31
0.000000000000016
210
-0.0000000000000008
220
0.0000000000000039
230
0.9999999999999998
 40
0.6546536707079756
 41
5.921818183272911
 42
6.644552431086308
  0
ELLIPSE
  5
79D0
330
1F
100
AcDbEntity
  8
0
  6
Continuous
 62
     7
370
    15
100
AcDbEllipse
 10
438.8425349949248
 20
1197.578681046274
 30
0.0
 11
2.138535324312726
 21
3.704051835490418
 31
-0.0000000000000124
210
-0.0000000000000007
220
0.0000000000000038
230
1.0
 40
0.6546536707079796
 41
2.780225529683101
 42
3.502959777496517
  0
LINE
  5
79D1
330
1F
100
AcDbEntity
  8
0
  6
Continuous
 62
     7
370
    15
100
AcDbLine
 10
435.8288539281142
 20
1194.878933631263
 30
0.0
 11
435.9847983052981
 21
1194.608832389495
 31
0.0
  0
ELLIPSE
  5
79D2
330
1F
100
AcDbEntity
  8
0
  6
Continuous
 62
     7
370
    15
100
AcDbEllipse
 10
439.8296873158456
 20
1195.868883071629
 30
0.0
 11
4.277070648625509
 21
-0.0000000000000571
 31
0.0000000000000018
210
-0.0000000000000004
220
0.0000000000000038
230
1.0
 40
0.6546536707079707
 41
2.780225529683096
 42
3.502959777496528
  0
LINE
  5
79D3
330
1F
100
AcDbEntity
  8
0
  6
Continuous
 62
     7
370
    15
100
AcDbLine
 10
435.9847983052981
 20
1197.128933534405
 30
0.0
 11
435.8288539281142
 21
1196.858832292638
 31
0.0
  0
ELLIPSE
  5
79D4
330
1F
100
AcDbEntity
  8
0
  6
Continuous
 62
     7
370
    15
100
AcDbEllipse
 10
438.8425349949248
 20
1194.159085096984
 30
0.0
 11
2.138535324312726
 21
-3.704051835490418
 31
0.0000000000000142
210
-0.0000000000000006
220
0.0000000000000035
230
1.0
 40
0.6546536707079796
 41
2.780225529683097
 42
3.502959777496525
  0
LINE
  5
79D5
330
1F
100
AcDbEntity
  8
0
  6
Continuous
 62
     7
370
    15
100
AcDbLine
 10
438.011326425339
 20
1198.118882865093
 30
0.0
 11
437.6994413962615
 21
1198.118882865093
 31
0.0
  0
LWPOLYLINE
  5
79D6
330
1F
100
AcDbEntity
  8
0
  6
Continuous
 62
     7
370
    15
100
AcDbPolyline
 90
        4
 70
   128
 43
0.0
 10
436.2676707735312
 20
1193.118882976851
 10
436.0734117856276
 20
1193.455344211689
 10
435.88197284248
 20
1193.786929041526
 10
435.69612183478
 20
1194.1088327732
  0
LINE
  5
79D8
330
1F
100
AcDbEntity
  8
0
  6
Continuous
 62
     7
370
    15
100
AcDbLine
 10
437.4107649257434
 20
1193.118882976851
 30
0.0
 11
436.2676707735312
 21
1193.118882976851
 31
0.0
  0
ELLIPSE
  5
79D9
330
1F
100
AcDbEntity
  8
0
  6
Continuous
 62
     7
370
    15
100
AcDbEllipse
 10
413.8425349949248
 20
1194.159085096984
 30
0.0
 11
-2.138535324312754
 21
3.704051835490474
 31
-0.000000000000016
210
-0.0000000000000002
220
0.0000000000000042
230
0.9999999999999998
 40
0.6546536707079631
 41
5.921818183272894
 42
6.644552431086321
  0
LINE
  5
79DA
330
1F
100
AcDbEntity
  8
0
  6
Continuous
 62
     7
370
    15
100
AcDbLine
 10
413.01132605281
 20
1198.118882865093
 30
0.0
 11
412.6994391610873
 21
1198.118882865093
 31
0.0
  0
ELLIPSE
  5
79DB
330
1F
100
AcDbEntity
  8
0
  6
Continuous
 62
     7
370
    15
100
AcDbEllipse
 10
411.8682303530828
 20
1194.159085096984
 30
0.0
 11
2.138535324312698
 21
3.704051835490474
 31
-0.000000000000016
210
0.0000000000000002
220
0.0000000000000042
230
1.0
 40
0.6546536707079799
 41
5.92181818327289
 42
6.644552431086292
  0
LINE
  5
79DC
330
1F
100
AcDbEntity
  8
0
  6
Continuous
 62
     7
370
    15
100
AcDbLine
 10
414.8819116583121
 20
1196.858832292638
 30
0.0
 11
414.7259691437733
 21
1197.128933534405
 31
0.0
  0
ELLIPSE
  5
79DD
330
1F
100
AcDbEntity
  8
0
  6
Continuous
 62
     7
370
    15
100
AcDbEllipse
 10
410.8810780321618
 20
1195.868883071629
 30
0.0
 11
4.277070648625482
 21
-0.0000000000000003
 31
0.0
210
0.0
220
0.0000000000000044
230
1.0
 40
0.6546536707079883
 41
5.921818183272918
 42
6.644552431086312
  0
LINE
  5
79DE
330
1F
100
AcDbEntity
  8
0
  6
Continuous
 62
     7
370
    15
100
AcDbLine
 10
414.7259691437733
 20
1194.608832389495
 30
0.0
 11
414.8819116583121
 21
1194.878933631263
 31
0.0
  0
ELLIPSE
  5
79DF
330
1F
100
AcDbEntity
  8
0
  6
Continuous
 62
     7
370
    15
100
AcDbEllipse
 10
411.8682303530828
 20
1197.578681046274
 30
0.0
 11
-2.138535324312755
 21
3.704051835490418
 31
-0.000000000000016
210
-0.0000000000000002
220
0.0000000000000042
230
1.0
 40
0.6546536707079764
 41
2.780225529683069
 42
3.502959777496491
  0
LINE
  5
79E0
330
1F
100
AcDbEntity
  8
0
  6
Continuous
 62
     7
370
    15
100
AcDbLine
 10
412.6994391610873
 20
1193.618883058808
 30
0.0
 11
413.01132605281
 21
1193.618883058808
 31
0.0
  0
ELLIPSE
  5
79E1
330
1F
100
AcDbEntity
  8
0
  6
Continuous
 62
     7
370
    15
100
AcDbEllipse
 10
413.8425349949248
 20
1197.578681046274
 30
0.0
 11
2.138535324312726
 21
3.704051835490418
 31
-0.000000000000016
210
0.0000000000000002
220
0.0000000000000042
230
1.0
 40
0.6546536707079796
 41
2.780225529683087
 42
3.502959777496517
  0
LINE
  5
79E2
330
1F
100
AcDbEntity
  8
0
  6
Continuous
 62
     7
370
    15
100
AcDbLine
 10
410.8288535555852
 20
1194.878933631263
 30
0.0
 11
410.9847960701239
 21
1194.608832389495
 31
0.0
  0
ELLIPSE
  5
79E3
330
1F
100
AcDbEntity
  8
0
  6
Continuous
 62
     7
370
    15
100
AcDbEllipse
 10
414.8296873158456
 20
1195.868883071629
 30
0.0
 11
4.277070648625453
 21
-0.0000000000000571
 31
0.0
210
0.0
220
0.0000000000000044
230
1.0
 40
0.6546536707079794
 41
2.780225529683103
 42
3.502959777496521
  0
LINE
  5
79E4
330
1F
100
AcDbEntity
  8
0
  6
Continuous
 62
     7
370
    15
100
AcDbLine
 10
410.9847960701239
 20
1197.128933534405
 30
0.0
 11
410.8288535555852
 21
1196.858832292638
 31
0.0
  0
LWPOLYLINE
  5
79E6
330
1F
100
AcDbEntity
  8
0
  6
Continuous
 62
     7
370
    15
100
AcDbPolyline
 90
        4
 70
   128
 43
0.0
 10
440.0146422615302
 20
1194.1088327732
 10
439.8287912538302
 20
1193.786929041526
 10
439.6373523106825
 20
1193.455344211689
 10
439.4430970480692
 20
1193.118882976851
  0
LINE
  5
79E7
330
1F
100
AcDbEntity
  8
0
  6
Continuous
 62
     7
370
    15
100
AcDbLine
 10
439.4430970480692
 20
1193.118882976851
 30
0.0
 11
438.2999991705668
 21
1193.118882976851
 31
0.0
  0
LINE
  5
79EA
330
1F
100
AcDbEntity
  8
0
  6
Continuous
 62
     7
370
    15
100
AcDbLine
 10
413.3000006606829
 20
1193.118882976851
 30
0.0
 11
412.4107645532143
 21
1193.118882976851
 31
0.0
  0
LWPOLYLINE
  5
79EB
330
1F
100
AcDbEntity
  8
0
  6
Continuous
 62
     7
370
    15
100
AcDbPolyline
 90
        4
 70
   128
 43
0.0
 10
434.679955773617
 20
1195.86888296195
 10
434.8742110362303
 20
1196.205344196788
 10
435.0656537046683
 20
1196.536929026625
 10
435.2515047123683
 20
1196.858832292638
  0
LWPOLYLINE
  5
79EE
330
1F
100
AcDbEntity
  8
0
  6
Continuous
 62
     7
370
    15
100
AcDbPolyline
 90
        4
 70
   128
 43
0.0
 10
435.2515047123683
 20
1194.878933631263
 10
435.0656537046683
 20
1195.200837362937
 10
434.8742110362303
 20
1195.532422192774
 10
434.679955773617
 20
1195.86888296195
  0
LINE
  5
79F0
330
1F
100
AcDbEntity
  8
0
  6
Continuous
 62
     7
370
    15
100
AcDbLine
 10
440.4592631092322
 20
1194.878933631263
 30
0.0
 11
440.0146422615302
 21
1194.1088327732
 31
0.0
  0
LINE
  5
79F1
330
1F
100
AcDbEntity
  8
0
  6
Continuous
 62
     7
370
    15
100
AcDbLine
 10
414.4430966755402
 20
1193.118882976851
 30
0.0
 11
413.3000006606829
 21
1193.118882976851
 31
0.0
  0
LWPOLYLINE
  5
79F3
330
1F
100
AcDbEntity
  8
0
  6
Continuous
 62
     7
370
    15
100
AcDbPolyline
 90
        4
 70
   128
 43
0.0
 10
415.0146437516463
 20
1194.1088327732
 10
414.8287927439463
 20
1193.786929041526
 10
414.6373519381535
 20
1193.455344211689
 10
414.4430966755402
 20
1193.118882976851
  0
LINE
  5
79F4
330
1F
100
AcDbEntity
  8
0
  6
Continuous
 62
     7
370
    15
100
AcDbLine
 10
435.69612183478
 20
1194.1088327732
 30
0.0
 11
435.2515047123683
 21
1194.878933631263
 31
0.0
  0
LWPOLYLINE
  5
79F5
330
1F
100
AcDbEntity
  8
0
  6
Continuous
 62
     7
370
    15
100
AcDbPolyline
 90
        4
 70
   128
 43
0.0
 10
411.267668538357
 20
1193.118882976851
 10
411.0734132757437
 20
1193.455344211689
 10
410.8819724699509
 20
1193.786929041526
 10
410.696121462251
 20
1194.1088327732
  0
LINE
  5
79F7
330
1F
100
AcDbEntity
  8
0
  6
Continuous
 62
     7
370
    15
100
AcDbLine
 10
412.4107645532143
 20
1193.118882976851
 30
0.0
 11
411.267668538357
 21
1193.118882976851
 31
0.0
  0
LWPOLYLINE
  5
79F9
330
1F
100
AcDbEntity
  8
0
  6
Continuous
 62
     7
370
    15
100
AcDbPolyline
 90
        4
 70
   128
 43
0.0
 10
440.4592631092322
 20
1196.858832292638
 10
440.6451141169322
 20
1196.536929026625
 10
440.8365530600798
 20
1196.205344196788
 10
441.0308083226931
 20
1195.86888296195
  0
LWPOLYLINE
  5
79FA
330
1F
100
AcDbEntity
  8
0
  6
Continuous
 62
     7
370
    15
100
AcDbPolyline
 90
        4
 70
   128
 43
0.0
 10
441.0308083226931
 20
1195.86888296195
 10
440.8365530600798
 20
1195.532422192774
 10
440.6451141169322
 20
1195.200837362937
 10
440.4592631092322
 20
1194.878933631263
  0
LWPOLYLINE
  5
79FB
330
1F
100
AcDbEntity
  8
0
  6
Continuous
 62
     7
370
    15
100
AcDbPolyline
 90
        4
 70
   128
 43
0.0
 10
409.679955401088
 20
1195.86888296195
 10
409.8742125263465
 20
1196.205344196788
 10
410.0656533321393
 20
1196.536929026625
 10
410.2515043398392
 20
1196.858832292638
  0
LWPOLYLINE
  5
79FE
330
1F
100
AcDbEntity
  8
0
  6
Continuous
 62
     7
370
    15
100
AcDbPolyline
 90
        4
 70
   128
 43
0.0
 10
410.2515043398392
 20
1194.878933631263
 10
410.0656533321393
 20
1195.200837362937
 10
409.8742125263465
 20
1195.532422192774
 10
409.679955401088
 20
1195.86888296195
  0
LINE
  5
79FF
330
1F
100
AcDbEntity
  8
0
  6
Continuous
 62
     7
370
    15
100
AcDbLine
 10
410.696121462251
 20
1194.1088327732
 30
0.0
 11
410.2515043398392
 21
1194.878933631263
 31
0.0
  0
LINE
  5
7A01
330
1F
100
AcDbEntity
  8
0
  6
Continuous
 62
     7
370
    15
100
AcDbLine
 10
415.459260874058
 20
1194.878933631263
 30
0.0
 11
415.0146437516463
 21
1194.1088327732
 31
0.0
  0
LWPOLYLINE
  5
7A03
330
1F
100
AcDbEntity
  8
0
  6
Continuous
 62
     7
370
    15
100
AcDbPolyline
 90
        4
 70
   128
 43
0.0
 10
415.459260874058
 20
1196.858832292638
 10
415.645111881758
 20
1196.536929026625
 10
415.8365526875508
 20
1196.205344196788
 10
416.0308098128092
 20
1195.86888296195
  0
LWPOLYLINE
  5
7A04
330
1F
100
AcDbEntity
  8
0
  6
Continuous
 62
     7
370
    15
100
AcDbPolyline
 90
        4
 70
   128
 43
0.0
 10
416.0308098128092
 20
1195.86888296195
 10
415.8365526875508
 20
1195.532422192774
 10
415.645111881758
 20
1195.200837362937
 10
415.459260874058
 20
1194.878933631263
  0
LINE
  5
7A05
330
1F
100
AcDbEntity
  8
0
  6
Continuous
 62
     7
370
    15
100
AcDbLine
 10
435.2515047123683
 20
1196.858832292638
 30
0.0
 11
435.69612183478
 21
1197.628933616361
 31
0.0
  0
LINE
  5
7A08
330
1F
100
AcDbEntity
  8
0
  6
Continuous
 62
     7
370
    15
100
AcDbLine
 10
440.0146422615302
 20
1197.628933616361
 30
0.0
 11
440.4592631092322
 21
1196.858832292638
 31
0.0
  0
LINE
  5
7A0A
330
1F
100
AcDbEntity
  8
0
  6
Continuous
 62
     7
370
    15
100
AcDbLine
 10
410.2515043398392
 20
1196.858832292638
 30
0.0
 11
410.696121462251
 21
1197.628933616361
 31
0.0
  0
LINE
  5
7A0C
330
1F
100
AcDbEntity
  8
0
  6
Continuous
 62
     7
370
    15
100
AcDbLine
 10
438.2999991705668
 20
1198.618882947049
 30
0.0
 11
439.4430970480692
 21
1198.618882947049
 31
0.0
  0
LWPOLYLINE
  5
7A0D
330
1F
100
AcDbEntity
  8
0
  6
Continuous
 62
     7
370
    15
100
AcDbPolyline
 90
        4
 70
   128
 43
0.0
 10
439.4430970480692
 20
1198.618882947049
 10
439.6373523106825
 20
1198.282422177872
 10
439.8287912538302
 20
1197.950836882374
 10
440.0146422615302
 20
1197.628933616361
  0
LINE
  5
7A0E
330
1F
100
AcDbEntity
  8
0
  6
Continuous
 62
     7
370
    15
100
AcDbLine
 10
436.2676707735312
 20
1198.618882947049
 30
0.0
 11
437.4107649257434
 21
1198.618882947049
 31
0.0
  0
LWPOLYLINE
  5
7A10
330
1F
100
AcDbEntity
  8
0
  6
Continuous
 62
     7
370
    15
100
AcDbPolyline
 90
        4
 70
   128
 43
0.0
 10
435.69612183478
 20
1197.628933616361
 10
435.88197284248
 20
1197.950836882374
 10
436.0734117856276
 20
1198.282422177872
 10
436.2676707735312
 20
1198.618882947049
  0
LINE
  5
7A12
330
1F
100
AcDbEntity
  8
0
  6
Continuous
 62
     7
370
    15
100
AcDbLine
 10
415.0146437516463
 20
1197.628933616361
 30
0.0
 11
415.459260874058
 21
1196.858832292638
 31
0.0
  0
LWPOLYLINE
  5
7A13
330
1F
100
AcDbEntity
  8
0
  6
Continuous
 62
     7
370
    15
100
AcDbPolyline
 90
        4
 70
   128
 43
0.0
 10
410.696121462251
 20
1197.628933616361
 10
410.8819724699509
 20
1197.950836882374
 10
411.0734132757437
 20
1198.282422177872
 10
411.267668538357
 20
1198.618882947049
  0
LINE
  5
7A14
330
1F
100
AcDbEntity
  8
0
  6
Continuous
 62
     7
370
    15
100
AcDbLine
 10
411.267668538357
 20
1198.618882947049
 30
0.0
 11
412.4107645532143
 21
1198.618882947049
 31
0.0
  0
LINE
  5
7A17
330
1F
100
AcDbEntity
  8
0
  6
Continuous
 62
     7
370
    15
100
AcDbLine
 10
413.3000006606829
 20
1198.618882947049
 30
0.0
 11
414.4430966755402
 21
1198.618882947049
 31
0.0
  0
LWPOLYLINE
  5
7A18
330
1F
100
AcDbEntity
  8
0
  6
Continuous
 62
     7
370
    15
100
AcDbPolyline
 90
        4
 70
   128
 43
0.0
 10
414.4430966755402
 20
1198.618882947049
 10
414.6373519381535
 20
1198.282422177872
 10
414.8287927439463
 20
1197.950836882374
 10
415.0146437516463
 20
1197.628933616361
  0
LINE
  5
7A19
330
1F
100
AcDbEntity
  8
0
  6
Continuous
 62
     7
370
    15
100
AcDbLine
 10
437.4107649257434
 20
1198.618882947049
 30
0.0
 11
438.2999991705668
 21
1198.618882947049
 31
0.0
  0
LINE
  5
7A1A
330
1F
100
AcDbEntity
  8
0
  6
Continuous
 62
     7
370
    15
100
AcDbLine
 10
412.4107645532143
 20
1198.618882947049
 30
0.0
 11
413.3000006606829
 21
1198.618882947049
 31
0.0
  0
LINE
  5
7A1B
330
1F
100
AcDbEntity
  8
0
  6
Continuous
 62
     7
370
    15
100
AcDbLine
 10
455.855384998585
 20
1176.568883151195
 30
0.0
 11
394.8553824504864
 21
1176.568883151195
 31
0.0
  0
LINE
  5
7A1C
330
1F
100
AcDbEntity
  8
0
  6
Continuous
 62
     7
370
    15
100
AcDbLine
 10
455.855384998585
 20
1176.268882729492
 30
0.0
 11
394.8553824504864
 21
1176.268882729492
 31
0.0
  0
LINE
  5
7A1D
102
{ACAD_REACTORS
330
824D
102
}
330
1F
100
AcDbEntity
  8
0
  6
Continuous
 62
     7
370
    15
100
AcDbLine
 10
455.855384998585
 20
1176.568883151195
 30
0.0
 11
455.855384998585
 21
1176.268882729492
 31
0.0
  0
LINE
  5
7A1E
330
1F
100
AcDbEntity
  8
0
  6
Continuous
 62
     7
370
    15
100
AcDbLine
 10
394.8553824504864
 20
1176.568883151195
 30
0.0
 11
394.8553824504864
 21
1176.268882729492
 31
0.0
  0
LINE
  5
7A1F
330
1F
100
AcDbEntity
  8
0
  6
Continuous
 62
     7
370
    15
100
AcDbLine
 10
455.855384998585
 20
1180.66888270565
 30
0.0
 11
394.8553824504864
 21
1180.66888270565
 31
0.0
  0
LINE
  5
7A20
330
1F
100
AcDbEntity
  8
0
  6
Continuous
 62
     7
370
    15
100
AcDbLine
 10
455.855384998585
 20
1180.66888270565
 30
0.0
 11
455.855384998585
 21
1176.568883151195
 31
0.0
  0
LINE
  5
7A21
330
1F
100
AcDbEntity
  8
0
  6
Continuous
 62
     7
370
    15
100
AcDbLine
 10
394.8553824504864
 20
1180.66888270565
 30
0.0
 11
394.8553824504864
 21
1176.568883151195
 31
0.0
  0
LINE
  5
7A22
330
1F
100
AcDbEntity
  8
0
  6
Continuous
 62
     7
370
    15
100
AcDbLine
 10
455.855384998585
 20
1192.468883149705
 30
0.0
 11
394.8553824504864
 21
1192.468883149705
 31
0.0
  0
LINE
  5
7A23
330
1F
100
AcDbEntity
  8
0
  6
Continuous
 62
     7
370
    15
100
AcDbLine
 10
455.855384998585
 20
1183.668883197388
 30
0.0
 11
394.8553824504864
 21
1183.668883197388
 31
0.0
  0
CIRCLE
  5
7A24
330
1F
100
AcDbEntity
  8
0
  6
Continuous
 62
     7
370
    15
100
AcDbCircle
 10
400.1553826740039
 20
1188.768883071629
 30
0.0
 40
1.250000000000056
  0
CIRCLE
  5
7A25
330
1F
100
AcDbEntity
  8
0
  6
Continuous
 62
     7
370
    15
100
AcDbCircle
 10
450.5553826740039
 20
1188.768883071629
 30
0.0
 40
1.249999999999943
  0
LINE
  5
7A26
330
1F
100
AcDbEntity
  8
0
  6
Continuous
 62
     7
370
    15
100
AcDbLine
 10
455.855384998585
 20
1192.468883149705
 30
0.0
 11
455.855384998585
 21
1183.668883197388
 31
0.0
  0
LINE
  5
7A27
330
1F
100
AcDbEntity
  8
0
  6
Continuous
 62
     7
370
    15
100
AcDbLine
 10
394.8553824504864
 20
1192.468883149705
 30
0.0
 11
394.8553824504864
 21
1183.668883197388
 31
0.0
  0
LINE
  5
7A28
330
1F
100
AcDbEntity
  8
0
  6
Continuous
 62
     7
370
    15
100
AcDbLine
 10
409.5553835561526
 20
1192.768883105746
 30
0.0
 11
394.8553824504864
 21
1192.768883105746
 31
0.0
  0
LINE
  5
7A29
330
1F
100
AcDbEntity
  8
0
  6
Continuous
 62
     7
370
    15
100
AcDbLine
 10
441.1553820302737
 20
1192.768883105746
 30
0.0
 11
409.5553835561526
 21
1192.768883105746
 31
0.0
  0
LINE
  5
7A2A
330
1F
100
AcDbEntity
  8
0
  6
Continuous
 62
     7
370
    15
100
AcDbLine
 10
455.855384998585
 20
1192.768883105746
 30
0.0
 11
441.1553820302737
 21
1192.768883105746
 31
0.0
  0
LINE
  5
7A2B
330
1F
100
AcDbEntity
  8
0
  6
Continuous
 62
     7
370
    15
100
AcDbLine
 10
455.855384998585
 20
1192.768883105746
 30
0.0
 11
455.855384998585
 21
1192.468883149705
 31
0.0
  0
LINE
  5
7A2C
102
{ACAD_REACTORS
330
829B
330
82C5
102
}
330
1F
100
AcDbEntity
  8
0
  6
Continuous
 62
     7
370
    15
100
AcDbLine
 10
394.8553824504864
 20
1192.768883105746
 30
0.0
 11
394.8553824504864
 21
1192.468883149705
 31
0.0
  0
LINE
  5
7A2D
330
1F
100
AcDbEntity
  8
0
  6
Continuous
 62
     7
370
    15
100
AcDbLine
 10
430.5053842892897
 20
1195.768883131823
 30
0.0
 11
431.5798548689139
 21
1195.768883131823
 31
0.0
  0
LINE
  5
7A2E
330
1F
100
AcDbEntity
  8
0
  6
Continuous
 62
     7
370
    15
100
AcDbLine
 10
436.2053839197409
 20
1199.168882944069
 30
0.0
 11
436.2053839197409
 21
1198.510999471328
 31
0.0
  0
LINE
  5
7A2F
330
1F
100
AcDbEntity
  8
0
  6
Continuous
 62
     7
370
    15
100
AcDbLine
 10
441.1553820302737
 20
1199.168882944069
 30
0.0
 11
436.2053839197409
 21
1199.168882944069
 31
0.0
  0
LINE
  5
7A30
330
1F
100
AcDbEntity
  8
0
  6
Continuous
 62
     7
370
    15
100
AcDbLine
 10
441.1553820302737
 20
1192.768883105746
 30
0.0
 11
441.1553820302737
 21
1199.168882944069
 31
0.0
  0
LINE
  5
7A31
330
1F
100
AcDbEntity
  8
0
  6
Continuous
 62
     7
370
    15
100
AcDbLine
 10
409.5553835561526
 20
1199.168882944069
 30
0.0
 11
409.5553835561526
 21
1192.768883105746
 31
0.0
  0
LINE
  5
7A32
330
1F
100
AcDbEntity
  8
0
  6
Continuous
 62
     7
370
    15
100
AcDbLine
 10
414.5053835293305
 20
1199.168882944069
 30
0.0
 11
409.5553835561526
 21
1199.168882944069
 31
0.0
  0
LINE
  5
7A33
330
1F
100
AcDbEntity
  8
0
  6
Continuous
 62
     7
370
    15
100
AcDbLine
 10
414.5053835293305
 20
1199.168882944069
 30
0.0
 11
414.5053835293305
 21
1198.510999471328
 31
0.0
  0
LINE
  5
7A34
330
1F
100
AcDbEntity
  8
0
  6
Continuous
 62
     7
370
    15
100
AcDbLine
 10
419.1309107175124
 20
1195.768883131823
 30
0.0
 11
420.2053812971366
 21
1195.768883131823
 31
0.0
  0
LINE
  5
7A35
330
1F
100
AcDbEntity
  8
0
  6
Continuous
 62
     7
370
    15
100
AcDbLine
 10
420.2053812971366
 20
1199.168882944069
 30
0.0
 11
420.2053812971366
 21
1195.768883131823
 31
0.0
  0
LINE
  5
7A36
330
1F
100
AcDbEntity
  8
0
  6
Continuous
 62
     7
370
    15
100
AcDbLine
 10
430.5053842892897
 20
1199.168882944069
 30
0.0
 11
420.2053812971366
 21
1199.168882944069
 31
0.0
  0
LINE
  5
7A37
330
1F
100
AcDbEntity
  8
0
  6
Continuous
 62
     7
370
    15
100
AcDbLine
 10
430.5053842892897
 20
1199.168882944069
 30
0.0
 11
430.5053842892897
 21
1195.768883131823
 31
0.0
  0
LINE
  5
7A38
330
1F
100
AcDbEntity
  8
0
  6
Continuous
 62
     7
370
    15
100
AcDbLine
 10
441.1553820302737
 20
1199.168882944069
 30
0.0
 11
441.3553816905272
 21
1199.168882944069
 31
0.0
  0
LINE
  5
7A39
330
1F
100
AcDbEntity
  8
0
  6
Continuous
 62
     7
370
    15
100
AcDbLine
 10
441.3553816905272
 20
1199.168882944069
 30
0.0
 11
441.3553816905272
 21
1192.768883105746
 31
0.0
  0
LINE
  5
7A3A
330
1F
100
AcDbEntity
  8
0
  6
Continuous
 62
     7
370
    15
100
AcDbLine
 10
409.3553820332539
 20
1192.768883105746
 30
0.0
 11
409.3553820332539
 21
1199.168882944069
 31
0.0
  0
LINE
  5
7A3B
330
1F
100
AcDbEntity
  8
0
  6
Continuous
 62
     7
370
    15
100
AcDbLine
 10
409.3553820332539
 20
1199.168882944069
 30
0.0
 11
409.5553835561526
 21
1199.168882944069
 31
0.0
  0
LINE
  5
7A3C
330
1F
100
AcDbEntity
  8
0
  6
Continuous
 62
     7
370
    15
100
AcDbLine
 10
441.1553820302737
 20
1199.168882944069
 30
0.0
 11
441.1553820302737
 21
1199.368883535645
 31
0.0
  0
LINE
  5
7A3D
330
1F
100
AcDbEntity
  8
0
  6
Continuous
 62
     7
370
    15
100
AcDbLine
 10
441.3553816905272
 20
1199.168882944069
 30
0.0
 11
441.1553820302737
 21
1199.368883535645
 31
0.0
  0
LINE
  5
7A3E
330
1F
100
AcDbEntity
  8
0
  6
Continuous
 62
     7
370
    15
100
AcDbLine
 10
409.5553835561526
 20
1199.368883535645
 30
0.0
 11
414.3053820064318
 21
1199.368883535645
 31
0.0
  0
LINE
  5
7A3F
330
1F
100
AcDbEntity
  8
0
  6
Continuous
 62
     7
370
    15
100
AcDbLine
 10
414.3053820064318
 20
1199.368883535645
 30
0.0
 11
414.5053835293305
 21
1199.168882944069
 31
0.0
  0
LINE
  5
7A40
330
1F
100
AcDbEntity
  8
0
  6
Continuous
 62
     7
370
    15
100
AcDbLine
 10
409.5553835561526
 20
1199.368883535645
 30
0.0
 11
409.5553835561526
 21
1199.168882944069
 31
0.0
  0
LINE
  5
7A41
102
{ACAD_REACTORS
330
82C5
102
}
330
1F
100
AcDbEntity
  8
0
  6
Continuous
 62
     7
370
    15
100
AcDbLine
 10
409.5553835561526
 20
1199.368883535645
 30
0.0
 11
409.3553820332539
 21
1199.168882944069
 31
0.0
  0
LINE
  5
7A42
330
1F
100
AcDbEntity
  8
0
  6
Continuous
 62
     7
370
    15
100
AcDbLine
 10
436.2053839197409
 20
1199.168882944069
 30
0.0
 11
436.4053835799944
 21
1199.368883535645
 31
0.0
  0
LINE
  5
7A43
330
1F
100
AcDbEntity
  8
0
  6
Continuous
 62
     7
370
    15
100
AcDbLine
 10
436.4053835799944
 20
1199.368883535645
 30
0.0
 11
441.1553820302737
 21
1199.368883535645
 31
0.0
  0
LINE
  5
7A44
330
1F
100
AcDbEntity
  8
0
  6
Continuous
 62
     7
370
    15
100
AcDbLine
 10
420.4053809573901
 20
1199.368883535645
 30
0.0
 11
430.3053809037459
 21
1199.368883535645
 31
0.0
  0
LINE
  5
7A45
330
1F
100
AcDbEntity
  8
0
  6
Continuous
 62
     7
370
    15
100
AcDbLine
 10
430.5053842892897
 20
1199.168882944069
 30
0.0
 11
430.3053809037459
 21
1199.368883535645
 31
0.0
  0
LINE
  5
7A46
330
1F
100
AcDbEntity
  8
0
  6
Continuous
 62
     7
370
    15
100
AcDbLine
 10
420.4053809573901
 20
1199.368883535645
 30
0.0
 11
420.2053812971366
 21
1199.168882944069
 31
0.0
  0
LINE
  5
7A47
330
1F
100
AcDbEntity
  8
0
  6
Continuous
 62
     7
370
    15
100
AcDbLine
 10
455.855384998585
 20
1184.268883109472
 30
0.0
 11
455.855384998585
 21
1180.068882793567
 31
0.0
  0
LINE
  5
7A48
330
1F
100
AcDbEntity
  8
0
  6
Continuous
 62
     7
370
    15
100
AcDbLine
 10
394.8553824504864
 20
1184.268883109472
 30
0.0
 11
394.8553824504864
 21
1180.068882793567
 31
0.0
  0
LINE
  5
7A49
330
1F
100
AcDbEntity
  8
0
  6
Continuous
 62
     7
370
    15
100
AcDbLine
 10
436.2053839197409
 20
1199.168882944069
 30
0.0
 11
430.5053842892897
 21
1199.168882944069
 31
0.0
  0
LINE
  5
7A4A
330
1F
100
AcDbEntity
  8
0
  6
Continuous
 62
     7
370
    15
100
AcDbLine
 10
420.2053812971366
 20
1199.168882944069
 30
0.0
 11
414.5053835293305
 21
1199.168882944069
 31
0.0
  0
LINE
  5
7A4B
330
1F
100
AcDbEntity
  8
0
  6
Continuous
 62
     7
370
    15
100
AcDbLine
 10
414.3053820064318
 20
1199.368883535645
 30
0.0
 11
420.4053809573901
 21
1199.368883535645
 31
0.0
  0
LINE
  5
7A4C
330
1F
100
AcDbEntity
  8
0
  6
Continuous
 62
     7
370
    15
100
AcDbLine
 10
430.3053809037459
 20
1199.368883535645
 30
0.0
 11
436.4053835799944
 21
1199.368883535645
 31
0.0
  0
LINE
  5
7A4D
330
1F
100
AcDbEntity
  8
0
  6
Continuous
 62
     7
370
    15
100
AcDbLine
 10
422.8553814521086
 20
1200.568883359811
 30
0.0
 11
422.8553814521086
 21
1199.368883535645
 31
0.0
  0
LINE
  5
7A4E
330
1F
100
AcDbEntity
  8
0
  6
Continuous
 62
     7
370
    15
100
AcDbLine
 10
430.3553817501319
 20
1200.568883359811
 30
0.0
 11
422.8553814521086
 21
1200.568883359811
 31
0.0
  0
LINE
  5
7A4F
330
1F
100
AcDbEntity
  8
0
  6
Continuous
 62
     7
370
    15
100
AcDbLine
 10
430.3553817501319
 20
1200.568883359811
 30
0.0
 11
430.3553817501319
 21
1199.368883535645
 31
0.0
  0
LINE
  5
7A50
330
1F
100
AcDbEntity
  8
0
  6
Continuous
 62
     7
370
    15
100
AcDbLine
 10
417.355381481911
 20
1200.568883359811
 30
0.0
 11
417.355381481911
 21
1199.368883535645
 31
0.0
  0
LINE
  5
7A51
330
1F
100
AcDbEntity
  8
0
  6
Continuous
 62
     7
370
    15
100
AcDbLine
 10
422.8553814521086
 20
1200.568883359811
 30
0.0
 11
417.355381481911
 21
1200.568883359811
 31
0.0
  0
LINE
  5
7A52
330
1F
100
AcDbEntity
  8
0
  6
Continuous
 62
     7
370
    15
100
AcDbLine
 10
422.8553814521086
 20
1200.568883359811
 30
0.0
 11
422.9382244577658
 21
1200.768883020065
 31
0.0
  0
LINE
  5
7A53
330
1F
100
AcDbEntity
  8
0
  6
Continuous
 62
     7
370
    15
100
AcDbLine
 10
422.9382244577658
 20
1200.768883020065
 30
0.0
 11
430.1553820898783
 21
1200.768883020065
 31
0.0
  0
LINE
  5
7A54
330
1F
100
AcDbEntity
  8
0
  6
Continuous
 62
     7
370
    15
100
AcDbLine
 10
430.3553817501319
 20
1200.568883359811
 30
0.0
 11
430.1553820898783
 21
1200.768883020065
 31
0.0
  0
LINE
  5
7A55
330
1F
100
AcDbEntity
  8
0
  6
Continuous
 62
     7
370
    15
100
AcDbLine
 10
417.355381481911
 20
1200.568883359811
 30
0.0
 11
417.4382244875681
 21
1200.768883020065
 31
0.0
  0
LINE
  5
7A56
330
1F
100
AcDbEntity
  8
0
  6
Continuous
 62
     7
370
    15
100
AcDbLine
 10
417.4382244875681
 20
1200.768883020065
 30
0.0
 11
422.9382244577658
 21
1200.768883020065
 31
0.0
  0
LINE
  5
7A5B
330
1F
100
AcDbEntity
  8
0
  6
Continuous
 62
     7
370
    15
100
AcDbLine
 10
411.1553827008259
 20
1199.368883535645
 30
0.0
 11
411.1553827008259
 21
1200.568883359811
 31
0.0
  0
LINE
  5
7A5C
330
1F
100
AcDbEntity
  8
0
  6
Continuous
 62
     7
370
    15
100
AcDbLine
 10
411.1553827008259
 20
1200.568883359811
 30
0.0
 11
411.3553823610795
 21
1200.568883359811
 31
0.0
  0
LINE
  5
7A5D
330
1F
100
AcDbEntity
  8
0
  6
Continuous
 62
     7
370
    15
100
AcDbLine
 10
411.3553823610795
 20
1200.568883359811
 30
0.0
 11
411.3553823610795
 21
1199.368883535645
 31
0.0
  0
LINE
  5
7A5E
330
1F
100
AcDbEntity
  8
0
  6
Continuous
 62
     7
370
    15
100
AcDbLine
 10
417.355381481911
 20
1200.568883359811
 30
0.0
 11
411.3553823610795
 21
1200.568883359811
 31
0.0
  0
LINE
  5
7A5F
330
1F
100
AcDbEntity
  8
0
  6
Continuous
 62
     7
370
    15
100
AcDbLine
 10
411.1553827008259
 20
1200.568883359811
 30
0.0
 11
411.3553823610795
 21
1200.768883020065
 31
0.0
  0
LINE
  5
7A60
330
1F
100
AcDbEntity
  8
0
  6
Continuous
 62
     7
370
    15
100
AcDbLine
 10
411.3553823610795
 20
1200.568883359811
 30
0.0
 11
411.3553823610795
 21
1200.768883020065
 31
0.0
  0
LINE
  5
7A61
330
1F
100
AcDbEntity
  8
0
  6
Continuous
 62
     7
370
    15
100
AcDbLine
 10
411.3553823610795
 20
1200.768883020065
 30
0.0
 11
417.4382244875681
 21
1200.768883020065
 31
0.0
  0
LINE
  5
7A62
330
1F
100
AcDbEntity
  8
0
  6
Continuous
 62
     7
370
    15
100
AcDbLine
 10
434.8820304205668
 20
1196.218883298716
 30
0.0
 11
430.6053822567713
 21
1196.218883298716
 31
0.0
  0
LINE
  5
7A63
330
1F
100
AcDbEntity
  8
0
  6
Continuous
 62
     7
370
    15
100
AcDbLine
 10
417.355381481911
 20
1196.218883298716
 30
0.0
 11
415.8287370285046
 21
1196.218883298716
 31
0.0
  0
LINE
  5
7A64
330
1F
100
AcDbEntity
  8
0
  6
Continuous
 62
     7
370
    15
100
AcDbLine
 10
420.1053833296549
 20
1196.218883298716
 30
0.0
 11
417.355381481911
 21
1196.218883298716
 31
0.0
  0
LINE
  5
7A65
330
1F
100
AcDbEntity
  8
0
  6
Continuous
 62
     7
370
    15
100
AcDbLine
 10
430.8053819170249
 20
1199.368883535645
 30
0.0
 11
430.8053819170249
 21
1200.518883444748
 31
0.0
  0
SPLINE
  5
7A6C
330
1F
100
AcDbEntity
  8
0
  6
Continuous
 62
     7
370
    15
100
AcDbSpline
210
0.0
220
0.0
230
1.0
 70
    24
 71
     1
 72
     4
 73
     2
 74
     0
 42
0.0000000001
 43
0.0000000001
 40
0.0
 40
0.0
 40
1.0
 40
1.0
 10
430.3553817501319
 20
1310.923938773239
 30
0.0
 10
430.8053819170249
 20
1310.923938773239
 30
0.0
  0
SPLINE
  5
7A6D
330
1F
100
AcDbEntity
  8
0
  6
Continuous
 62
     7
370
    15
100
AcDbSpline
210
0.0
220
0.0
230
1.0
 70
    24
 71
     1
 72
     4
 73
     2
 74
     0
 42
0.0000000001
 43
0.0000000001
 40
0.0
 40
0.0
 40
1.0
 40
1.0
 10
430.8053819170249
 20
1316.423939209098
 30
0.0
 10
430.3553817501319
 20
1316.423939209098
 30
0.0
  0
ARC
  5
7A6E
330
1F
100
AcDbEntity
  8
0
  6
Continuous
 62
     7
370
    15
100
AcDbCircle
 10
430.805382674004
 20
1315.223939146357
 30
0.0
 40
1.199999999999988
100
AcDbArc
 50
0.0
 51
90.0
  0
ARC
  5
7A6F
330
1F
100
AcDbEntity
  8
0
  6
Continuous
 62
     7
370
    15
100
AcDbCircle
 10
430.805382674004
 20
1312.123939146357
 30
0.0
 40
1.200000000000002
100
AcDbArc
 50
270.0
 51
0.0
  0
SPLINE
  5
7A70
330
1F
100
AcDbEntity
  8
0
  6
Continuous
 62
     7
370
    15
100
AcDbSpline
210
0.0
220
0.0
230
1.0
 70
    24
 71
     1
 72
     4
 73
     2
 74
     0
 42
0.0000000001
 43
0.0000000001
 40
0.0
 40
0.0
 40
1.0
 40
1.0
 10
418.3553835084689
 20
1318.67393911224
 30
0.0
 10
418.3553835084689
 20
1317.073939036244
 30
0.0
  0
SPLINE
  5
7A71
330
1F
100
AcDbEntity
  8
0
  6
Continuous
 62
     7
370
    15
100
AcDbSpline
210
0.0
220
0.0
230
1.0
 70
    24
 71
     1
 72
     4
 73
     2
 74
     0
 42
0.0000000001
 43
0.0000000001
 40
0.0
 40
0.0
 40
1.0
 40
1.0
 10
432.3553820779574
 20
1317.073939036244
 30
0.0
 10
432.3553820779574
 20
1318.67393911224
 30
0.0
  0
SPLINE
  5
7A72
330
1F
100
AcDbEntity
  8
0
  6
Continuous
 62
     7
370
    15
100
AcDbSpline
210
0.0
220
0.0
230
1.0
 70
    24
 71
     1
 72
     4
 73
     2
 74
     0
 42
0.0000000001
 43
0.0000000001
 40
0.0
 40
0.0
 40
1.0
 40
1.0
 10
418.3553835084689
 20
1317.073939036244
 30
0.0
 10
418.5553831687224
 20
1316.873939375991
 30
0.0
  0
SPLINE
  5
7A73
330
1F
100
AcDbEntity
  8
0
  6
Continuous
 62
     7
370
    15
100
AcDbSpline
210
0.0
220
0.0
230
1.0
 70
    24
 71
     1
 72
     4
 73
     2
 74
     0
 42
0.0000000001
 43
0.0000000001
 40
0.0
 40
0.0
 40
1.0
 40
1.0
 10
432.1553824177039
 20
1316.873939375991
 30
0.0
 10
432.3553820779574
 20
1317.073939036244
 30
0.0
  0
SPLINE
  5
7A74
330
1F
100
AcDbEntity
  8
0
  6
Continuous
 62
     7
370
    15
100
AcDbSpline
210
0.0
220
0.0
230
1.0
 70
    24
 71
     1
 72
     4
 73
     2
 74
     0
 42
0.0000000001
 43
0.0000000001
 40
0.0
 40
0.0
 40
1.0
 40
1.0
 10
422.1553845038664
 20
1316.873939375991
 30
0.0
 10
422.1553845038664
 20
1316.673939250076
 30
0.0
  0
LINE
  5
7A77
330
1F
100
AcDbEntity
  8
0
  6
Continuous
 62
     7
370
    15
100
AcDbLine
 10
422.8553814521086
 20
1316.673939250076
 30
0.0
 11
417.355381481911
 21
1316.673939250076
 31
0.0
  0
LINE
  5
7A78
330
1F
100
AcDbEntity
  8
0
  6
Continuous
 62
     7
370
    15
100
AcDbLine
 10
422.8553814521086
 20
1310.873938858175
 30
0.0
 11
422.8553814521086
 21
1316.673939250076
 31
0.0
  0
LINE
  5
7A79
330
1F
100
AcDbEntity
  8
0
  6
Continuous
 62
     7
370
    15
100
AcDbLine
 10
417.355381481911
 20
1310.873938858175
 30
0.0
 11
422.8553814521086
 21
1310.873938858175
 31
0.0
  0
LINE
  5
7A7A
330
1F
100
AcDbEntity
  8
0
  6
Continuous
 62
     7
370
    15
100
AcDbLine
 10
417.355381481911
 20
1310.873938858175
 30
0.0
 11
417.355381481911
 21
1316.673939250076
 31
0.0
  0
LINE
  5
7A7B
330
1F
100
AcDbEntity
  8
0
  6
Continuous
 62
     7
370
    15
100
AcDbLine
 10
430.3553817501319
 20
1316.673939250076
 30
0.0
 11
422.8553814521086
 21
1316.673939250076
 31
0.0
  0
LINE
  5
7A7C
330
1F
100
AcDbEntity
  8
0
  6
Continuous
 62
     7
370
    15
100
AcDbLine
 10
422.8553814521086
 20
1310.873938858175
 30
0.0
 11
430.3553817501319
 21
1310.873938858175
 31
0.0
  0
LINE
  5
7A7D
330
1F
100
AcDbEntity
  8
0
  6
Continuous
 62
     7
370
    15
100
AcDbLine
 10
430.3553817501319
 20
1310.873938858175
 30
0.0
 11
430.3553817501319
 21
1316.673939250076
 31
0.0
  0
LINE
  5
7A7E
330
1F
100
AcDbEntity
  8
0
  6
Continuous
 62
     7
370
    15
100
AcDbLine
 10
430.1553820898783
 20
1310.673939197922
 30
0.0
 11
422.9382244577658
 21
1310.673939197922
 31
0.0
  0
LINE
  5
7A7F
330
1F
100
AcDbEntity
  8
0
  6
Continuous
 62
     7
370
    15
100
AcDbLine
 10
422.9382244577658
 20
1310.673939197922
 30
0.0
 11
422.8553814521086
 21
1310.873938858175
 31
0.0
  0
LINE
  5
7A80
330
1F
100
AcDbEntity
  8
0
  6
Continuous
 62
     7
370
    15
100
AcDbLine
 10
430.1553820898783
 20
1310.673939197922
 30
0.0
 11
430.3553817501319
 21
1310.873938858175
 31
0.0
  0
LINE
  5
7A81
330
1F
100
AcDbEntity
  8
0
  6
Continuous
 62
     7
370
    15
100
AcDbLine
 10
422.9382244577658
 20
1310.673939197922
 30
0.0
 11
417.4382244875681
 21
1310.673939197922
 31
0.0
  0
LINE
  5
7A82
330
1F
100
AcDbEntity
  8
0
  6
Continuous
 62
     7
370
    15
100
AcDbLine
 10
417.4382244875681
 20
1310.673939197922
 30
0.0
 11
417.355381481911
 21
1310.873938858175
 31
0.0
  0
LINE
  5
7A83
330
1F
100
AcDbEntity
  8
0
  6
Continuous
 62
     7
370
    15
100
AcDbLine
 10
432.0053836038363
 20
1313.673938758338
 30
0.0
 11
432.0053836038363
 21
1312.123939528728
 31
0.0
  0
LINE
  5
7A84
330
1F
100
AcDbEntity
  8
0
  6
Continuous
 62
     7
370
    15
100
AcDbLine
 10
432.0053836038363
 20
1315.22393891927
 30
0.0
 11
432.0053836038363
 21
1313.673938758338
 31
0.0
  0
LINE
  5
7A85
330
1F
100
AcDbEntity
  8
0
  6
Continuous
 62
     7
370
    15
100
AcDbLine
 10
455.855384998585
 20
1335.173939488494
 30
0.0
 11
394.8553824504864
 21
1335.173939488494
 31
0.0
  0
LINE
  5
7A86
102
{ACAD_REACTORS
330
7E1E
102
}
330
1F
100
AcDbEntity
  8
0
  6
Continuous
 62
     7
370
    15
100
AcDbLine
 10
455.855384998585
 20
1335.173939488494
 30
0.0
 11
455.855384998585
 21
1334.873939066792
 31
0.0
  0
LINE
  5
7A87
330
1F
100
AcDbEntity
  8
0
  6
Continuous
 62
     7
370
    15
100
AcDbLine
 10
455.855384998585
 20
1334.873939066792
 30
0.0
 11
394.8553824504864
 21
1334.873939066792
 31
0.0
  0
LINE
  5
7A88
330
1F
100
AcDbEntity
  8
0
  6
Continuous
 62
     7
370
    15
100
AcDbLine
 10
394.8553824504864
 20
1335.173939488494
 30
0.0
 11
394.8553824504864
 21
1334.873939066792
 31
0.0
  0
LINE
  5
7A89
330
1F
100
AcDbEntity
  8
0
  6
Continuous
 62
     7
370
    15
100
AcDbLine
 10
455.855384998585
 20
1318.973939068282
 30
0.0
 11
394.8553824504864
 21
1318.973939068282
 31
0.0
  0
CIRCLE
  5
7A8A
330
1F
100
AcDbEntity
  8
0
  6
Continuous
 62
     7
370
    15
100
AcDbCircle
 10
436.3553826740039
 20
1326.673939146357
 30
0.0
 40
2.100000000000022
  0
CIRCLE
  5
7A8B
330
1F
100
AcDbEntity
  8
0
  6
Continuous
 62
     7
370
    15
100
AcDbCircle
 10
414.3553826740039
 20
1326.673939146357
 30
0.0
 40
2.099999999999994
  0
LINE
  5
7A8C
330
1F
100
AcDbEntity
  8
0
  6
Continuous
 62
     7
370
    15
100
AcDbLine
 10
455.855384998585
 20
1334.873939066792
 30
0.0
 11
455.855384998585
 21
1318.973939068282
 31
0.0
  0
LINE
  5
7A8D
330
1F
100
AcDbEntity
  8
0
  6
Continuous
 62
     7
370
    15
100
AcDbLine
 10
394.8553824504864
 20
1334.873939066792
 30
0.0
 11
394.8553824504864
 21
1318.973939068282
 31
0.0
  0
LINE
  5
7A8E
330
1F
100
AcDbEntity
  8
0
  6
Continuous
 62
     7
370
    15
100
AcDbLine
 10
455.855384998585
 20
1318.67393911224
 30
0.0
 11
394.8553824504864
 21
1318.67393911224
 31
0.0
  0
LINE
  5
7A8F
330
1F
100
AcDbEntity
  8
0
  6
Continuous
 62
     7
370
    15
100
AcDbLine
 10
455.855384998585
 20
1318.973939068282
 30
0.0
 11
455.855384998585
 21
1318.67393911224
 31
0.0
  0
LINE
  5
7A90
330
1F
100
AcDbEntity
  8
0
  6
Continuous
 62
     7
370
    15
100
AcDbLine
 10
394.8553824504864
 20
1318.973939068282
 30
0.0
 11
394.8553824504864
 21
1318.67393911224
 31
0.0
  0
LINE
  5
7A91
330
1F
100
AcDbEntity
  8
0
  6
Continuous
 62
     7
370
    15
100
AcDbLine
 10
418.3553835084689
 20
1317.073939036244
 30
0.0
 11
432.3553820779574
 21
1317.073939036244
 31
0.0
  0
LINE
  5
7A92
330
1F
100
AcDbEntity
  8
0
  6
Continuous
 62
     7
370
    15
100
AcDbLine
 10
432.1553824177039
 20
1316.873939375991
 30
0.0
 11
418.5553831687224
 21
1316.873939375991
 31
0.0
  0
LINE
  5
7A93
330
1F
100
AcDbEntity
  8
0
  6
Continuous
 62
     7
370
    15
100
AcDbLine
 10
427.8553841343176
 20
1316.673939250076
 30
0.0
 11
427.8553841343176
 21
1316.873939375991
 31
0.0
  0
LINE
  5
7A98
330
1F
100
AcDbEntity
  8
0
  6
Continuous
 62
     7
370
    15
100
AcDbLine
 10
411.3553823610795
 20
1310.873938858175
 30
0.0
 11
417.355381481911
 21
1310.873938858175
 31
0.0
  0
LINE
  5
7A99
330
1F
100
AcDbEntity
  8
0
  6
Continuous
 62
     7
370
    15
100
AcDbLine
 10
411.3553823610795
 20
1316.673939250076
 30
0.0
 11
411.3553823610795
 21
1310.873938858175
 31
0.0
  0
LINE
  5
7A9A
330
1F
100
AcDbEntity
  8
0
  6
Continuous
 62
     7
370
    15
100
AcDbLine
 10
417.355381481911
 20
1316.673939250076
 30
0.0
 11
411.3553823610795
 21
1316.673939250076
 31
0.0
  0
LINE
  5
7A9B
330
1F
100
AcDbEntity
  8
0
  6
Continuous
 62
     7
370
    15
100
AcDbLine
 10
411.3553823610795
 20
1310.873938858175
 30
0.0
 11
411.1553827008259
 21
1310.873938858175
 31
0.0
  0
LINE
  5
7A9C
330
1F
100
AcDbEntity
  8
0
  6
Continuous
 62
     7
370
    15
100
AcDbLine
 10
411.1553827008259
 20
1310.873938858175
 30
0.0
 11
411.1553827008259
 21
1316.473939124161
 31
0.0
  0
LINE
  5
7A9D
330
1F
100
AcDbEntity
  8
0
  6
Continuous
 62
     7
370
    15
100
AcDbLine
 10
411.3553823610795
 20
1316.673939250076
 30
0.0
 11
411.1553827008259
 21
1316.473939124161
 31
0.0
  0
LINE
  5
7A9E
330
1F
100
AcDbEntity
  8
0
  6
Continuous
 62
     7
370
    15
100
AcDbLine
 10
411.3553823610795
 20
1310.673939197922
 30
0.0
 11
411.1553827008259
 21
1310.873938858175
 31
0.0
  0
LINE
  5
7A9F
330
1F
100
AcDbEntity
  8
0
  6
Continuous
 62
     7
370
    15
100
AcDbLine
 10
411.3553823610795
 20
1310.673939197922
 30
0.0
 11
411.3553823610795
 21
1310.873938858175
 31
0.0
  0
LINE
  5
7AA0
330
1F
100
AcDbEntity
  8
0
  6
Continuous
 62
     7
370
    15
100
AcDbLine
 10
417.4382244875681
 20
1310.673939197922
 30
0.0
 11
411.3553823610795
 21
1310.673939197922
 31
0.0
  0
CIRCLE
  5
7AA1
330
1F
100
AcDbEntity
  8
0
  6
Continuous
 62
     7
370
    15
100
AcDbCircle
 10
437.855382674004
 20
1315.573939146357
 30
0.0
 40
1.5
  0
CIRCLE
  5
7AA2
330
1F
100
AcDbEntity
  8
0
  6
Continuous
 62
     7
370
    15
100
AcDbCircle
 10
437.855382674004
 20
1315.573939146357
 30
0.0
 40
1.300000000000011
  0
ARC
  5
7AA3
330
1F
100
AcDbEntity
  8
0
  6
Continuous
 62
     7
370
    15
100
AcDbCircle
 10
412.855382674004
 20
1315.573939146357
 30
0.0
 40
1.5
100
AcDbArc
 50
47.16657193393393
 51
132.833428066066
  0
LINE
  5
7AA4
330
1F
100
AcDbEntity
  8
0
  6
Continuous
 62
     7
370
    15
100
AcDbLine
 10
440.5553830495131
 20
1312.273939273918
 30
0.0
 11
440.5553830495131
 21
1318.67393911224
 31
0.0
  0
LINE
  5
7AA5
330
1F
100
AcDbEntity
  8
0
  6
Continuous
 62
     7
370
    15
100
AcDbLine
 10
435.5553840925944
 20
1312.273939273918
 30
0.0
 11
440.5553830495131
 21
1312.273939273918
 31
0.0
  0
LINE
  5
7AA6
330
1F
100
AcDbEntity
  8
0
  6
Continuous
 62
     7
370
    15
100
AcDbLine
 10
435.5553840925944
 20
1318.67393911224
 30
0.0
 11
435.5553840925944
 21
1312.273939273918
 31
0.0
  0
LINE
  5
7AA7
330
1F
100
AcDbEntity
  8
0
  6
Continuous
 62
     7
370
    15
100
AcDbLine
 10
440.7553827097666
 20
1318.67393911224
 30
0.0
 11
440.7553827097666
 21
1312.073938682342
 31
0.0
  0
LINE
  5
7AA8
330
1F
100
AcDbEntity
  8
0
  6
Continuous
 62
     7
370
    15
100
AcDbLine
 10
440.7553827097666
 20
1312.073938682342
 30
0.0
 11
440.5553830495131
 21
1312.273939273918
 31
0.0
  0
LINE
  5
7AA9
330
1F
100
AcDbEntity
  8
0
  6
Continuous
 62
     7
370
    15
100
AcDbLine
 10
435.3553844323409
 20
1312.073938682342
 30
0.0
 11
435.5553840925944
 21
1312.273939273918
 31
0.0
  0
LINE
  5
7AAA
330
1F
100
AcDbEntity
  8
0
  6
Continuous
 62
     7
370
    15
100
AcDbLine
 10
435.3553844323409
 20
1312.073938682342
 30
0.0
 11
435.3553844323409
 21
1318.67393911224
 31
0.0
  0
LINE
  5
7AAB
330
1F
100
AcDbEntity
  8
0
  6
Continuous
 62
     7
370
    15
100
AcDbLine
 10
415.155383356477
 20
1316.673939250076
 30
0.0
 11
415.155383356477
 21
1318.67393911224
 31
0.0
  0
LINE
  5
7AAC
330
1F
100
AcDbEntity
  8
0
  6
Continuous
 62
     7
370
    15
100
AcDbLine
 10
410.1553825369132
 20
1312.273939273918
 30
0.0
 11
411.1553827008259
 21
1312.273939273918
 31
0.0
  0
LINE
  5
7AAD
330
1F
100
AcDbEntity
  8
0
  6
Continuous
 62
     7
370
    15
100
AcDbLine
 10
410.1553825369132
 20
1318.67393911224
 30
0.0
 11
410.1553825369132
 21
1312.273939273918
 31
0.0
  0
LINE
  5
7AAE
330
1F
100
AcDbEntity
  8
0
  6
Continuous
 62
     7
370
    15
100
AcDbLine
 10
415.3553830167306
 20
1318.67393911224
 30
0.0
 11
415.3553830167306
 21
1316.673939250076
 31
0.0
  0
LINE
  5
7AAF
330
1F
100
AcDbEntity
  8
0
  6
Continuous
 62
     7
370
    15
100
AcDbLine
 10
409.9553828766596
 20
1312.073938682342
 30
0.0
 11
410.1553825369132
 21
1312.273939273918
 31
0.0
  0
LINE
  5
7AB0
330
1F
100
AcDbEntity
  8
0
  6
Continuous
 62
     7
370
    15
100
AcDbLine
 10
409.9553828766596
 20
1312.073938682342
 30
0.0
 11
409.9553828766596
 21
1318.67393911224
 31
0.0
  0
LINE
  5
7AB1
330
1F
100
AcDbEntity
  8
0
  6
Continuous
 62
     7
370
    15
100
AcDbLine
 10
440.7553827097666
 20
1312.073938682342
 30
0.0
 11
435.3553844323409
 21
1312.073938682342
 31
0.0
  0
LINE
  5
7AB2
330
1F
100
AcDbEntity
  8
0
  6
Continuous
 62
     7
370
    15
100
AcDbLine
 10
411.1553827008259
 20
1312.073938682342
 30
0.0
 11
409.9553828766596
 21
1312.073938682342
 31
0.0
  0
LINE
  5
7AB3
330
1F
100
AcDbEntity
  8
0
  6
Continuous
 62
     7
370
    15
100
AcDbLine
 10
409.5553835561526
 20
1318.67393911224
 30
0.0
 11
409.5553835561526
 21
1312.073938682342
 31
0.0
  0
LINE
  5
7AB4
330
1F
100
AcDbEntity
  8
0
  6
Continuous
 62
     7
370
    15
100
AcDbLine
 10
409.5553835561526
 20
1312.073938682342
 30
0.0
 11
409.9553828766596
 21
1312.073938682342
 31
0.0
  0
LINE
  5
7AB5
330
1F
100
AcDbEntity
  8
0
  6
Continuous
 62
     7
370
    15
100
AcDbLine
 10
441.1553820302737
 20
1312.073938682342
 30
0.0
 11
441.1553820302737
 21
1318.67393911224
 31
0.0
  0
LINE
  5
7AB6
330
1F
100
AcDbEntity
  8
0
  6
Continuous
 62
     7
370
    15
100
AcDbLine
 10
440.7553827097666
 20
1312.073938682342
 30
0.0
 11
441.1553820302737
 21
1312.073938682342
 31
0.0
  0
LINE
  5
7AB7
330
1F
100
AcDbEntity
  8
0
  6
Continuous
 62
     7
370
    15
100
AcDbLine
 10
409.5553835561526
 20
1312.073938682342
 30
0.0
 11
409.3553820332539
 21
1312.273939273918
 31
0.0
  0
LINE
  5
7AB8
330
1F
100
AcDbEntity
  8
0
  6
Continuous
 62
     7
370
    15
100
AcDbLine
 10
409.3553820332539
 20
1312.273939273918
 30
0.0
 11
409.3553820332539
 21
1318.67393911224
 31
0.0
  0
LINE
  5
7AB9
330
1F
100
AcDbEntity
  8
0
  6
Continuous
 62
     7
370
    15
100
AcDbLine
 10
441.3553816905272
 20
1318.67393911224
 30
0.0
 11
441.3553816905272
 21
1312.273939273918
 31
0.0
  0
LINE
  5
7ABA
330
1F
100
AcDbEntity
  8
0
  6
Continuous
 62
     7
370
    15
100
AcDbLine
 10
441.3553816905272
 20
1312.273939273918
 30
0.0
 11
441.1553820302737
 21
1312.073938682342
 31
0.0
  0
LINE
  5
7ABB
330
1F
100
AcDbEntity
  8
0
  6
Continuous
 62
     7
370
    15
100
AcDbLine
 10
431.9886309733641
 20
1316.873939375991
 30
0.0
 11
431.9886309733641
 21
1315.423740207815
 31
0.0
  0
LINE
  5
7ABC
330
1F
100
AcDbEntity
  8
0
  6
Continuous
 62
     7
370
    15
100
AcDbLine
 10
432.0043405225527
 20
1312.073938682342
 30
0.0
 11
435.3553844323409
 21
1312.073938682342
 31
0.0
  0
LINE
  5
7ABD
330
1F
100
AcDbEntity
  8
0
  6
Continuous
 62
     7
370
    15
100
AcDbLine
 10
418.7221346130622
 20
1316.673939250076
 30
0.0
 11
418.7221346130622
 21
1316.873939375991
 31
0.0
  0
LINE
  5
7ABE
330
1F
100
AcDbEntity
  8
0
  6
Continuous
 62
     7
370
    15
100
AcDbLine
 10
430.8053819170249
 20
1313.673938758338
 30
0.0
 11
430.8053819170249
 21
1316.423939209098
 31
0.0
  0
LINE
  5
7ABF
330
1F
100
AcDbEntity
  8
0
  6
Continuous
 62
     7
370
    15
100
AcDbLine
 10
430.8053819170249
 20
1310.923938773239
 30
0.0
 11
430.8053819170249
 21
1313.673938758338
 31
0.0
  0
SPLINE
  5
7AC6
330
1F
100
AcDbEntity
  8
0
  6
Continuous
 62
     7
370
    15
100
AcDbSpline
210
0.0
220
0.0
230
1.0
 70
    24
 71
     1
 72
     4
 73
     2
 74
     0
 42
0.0000000001
 43
0.0000000001
 40
0.0
 40
0.0
 40
1.0
 40
1.0
 10
332.7006882216322
 20
1243.756319629452
 30
0.0
 10
332.9006888132083
 20
1243.556319969198
 30
0.0
  0
SPLINE
  5
7AC7
330
1F
100
AcDbEntity
  8
0
  6
Continuous
 62
     7
370
    15
100
AcDbSpline
210
0.0
220
0.0
230
1.0
 70
    24
 71
     1
 72
     4
 73
     2
 74
     0
 42
0.0000000001
 43
0.0000000001
 40
0.0
 40
0.0
 40
1.0
 40
1.0
 10
335.5006885874557
 20
1243.556319969198
 30
0.0
 10
335.7006882477092
 20
1243.756319629452
 30
0.0
  0
SPLINE
  5
7AC8
330
1F
100
AcDbEntity
  8
0
  6
Continuous
 62
     7
370
    15
100
AcDbSpline
210
0.0
220
0.0
230
1.0
 70
    24
 71
     1
 72
     4
 73
     2
 74
     0
 42
0.0000000001
 43
0.0000000001
 40
0.0
 40
0.0
 40
1.0
 40
1.0
 10
335.7006882477092
 20
1243.756319629452
 30
0.0
 10
335.7006882477092
 20
1246.766318800351
 30
0.0
  0
SPLINE
  5
7AC9
330
1F
100
AcDbEntity
  8
0
  6
Continuous
 62
     7
370
    15
100
AcDbSpline
210
0.0
220
0.0
230
1.0
 70
    24
 71
     1
 72
     4
 73
     2
 74
     0
 42
0.0000000001
 43
0.0000000001
 40
0.0
 40
0.0
 40
1.0
 40
1.0
 10
332.7006882216322
 20
1246.766318800351
 30
0.0
 10
332.7006882216322
 20
1243.756319629452
 30
0.0
  0
SPLINE
  5
7ACA
330
1F
100
AcDbEntity
  8
0
  6
Continuous
 62
     7
370
    15
100
AcDbSpline
210
0.0
220
0.0
230
1.0
 70
    24
 71
     1
 72
     4
 73
     2
 74
     0
 42
0.0000000001
 43
0.0000000001
 40
0.0
 40
0.0
 40
1.0
 40
1.0
 10
335.7006882477092
 20
1262.1563193247
 30
0.0
 10
335.5006885874557
 20
1262.356319330561
 30
0.0
  0
SPLINE
  5
7ACB
330
1F
100
AcDbEntity
  8
0
  6
Continuous
 62
     7
370
    15
100
AcDbSpline
210
0.0
220
0.0
230
1.0
 70
    24
 71
     1
 72
     4
 73
     2
 74
     0
 42
0.0000000001
 43
0.0000000001
 40
0.0
 40
0.0
 40
1.0
 40
1.0
 10
332.9006888132083
 20
1262.356319330561
 30
0.0
 10
332.7006882216322
 20
1262.1563193247
 30
0.0
  0
SPLINE
  5
7ACC
330
1F
100
AcDbEntity
  8
0
  6
Continuous
 62
     7
370
    15
100
AcDbSpline
210
0.0
220
0.0
230
1.0
 70
    24
 71
     1
 72
     4
 73
     2
 74
     0
 42
0.0000000001
 43
0.0000000001
 40
0.0
 40
0.0
 40
1.0
 40
1.0
 10
335.7006882477092
 20
1257.856319426051
 30
0.0
 10
335.7006882477092
 20
1262.1563193247
 30
0.0
  0
SPLINE
  5
7ACD
330
1F
100
AcDbEntity
  8
0
  6
Continuous
 62
     7
370
    15
100
AcDbSpline
210
0.0
220
0.0
230
1.0
 70
    24
 71
     1
 72
     4
 73
     2
 74
     0
 42
0.0000000001
 43
0.0000000001
 40
0.0
 40
0.0
 40
1.0
 40
1.0
 10
332.7006882216322
 20
1262.1563193247
 30
0.0
 10
332.7006882216322
 20
1257.856319426051
 30
0.0
  0
SPLINE
  5
7ACE
330
1F
100
AcDbEntity
  8
0
  6
Continuous
 62
     7
370
    15
100
AcDbSpline
210
0.0
220
0.0
230
1.0
 70
    24
 71
     1
 72
     4
 73
     2
 74
     0
 42
0.0000000001
 43
0.0000000001
 40
0.0
 40
0.0
 40
1.0
 40
1.0
 10
337.3006883237051
 20
1271.856319392523
 30
0.0
 10
335.7006882477092
 20
1271.856319392523
 30
0.0
  0
SPLINE
  5
7ACF
330
1F
100
AcDbEntity
  8
0
  6
Continuous
 62
     7
370
    15
100
AcDbSpline
210
0.0
220
0.0
230
1.0
 70
    24
 71
     1
 72
     4
 73
     2
 74
     0
 42
0.0000000001
 43
0.0000000001
 40
0.0
 40
0.0
 40
1.0
 40
1.0
 10
335.7006882477092
 20
1271.856319392523
 30
0.0
 10
335.5006885874557
 20
1271.65631973227
 30
0.0
  0
SPLINE
  5
7AD2
330
1F
100
AcDbEntity
  8
0
  6
Continuous
 62
     7
370
    15
100
AcDbSpline
210
0.0
220
0.0
230
1.0
 70
    24
 71
     1
 72
     4
 73
     2
 74
     0
 42
0.0000000001
 43
0.0000000001
 40
0.0
 40
0.0
 40
1.0
 40
1.0
 10
335.5006885874557
 20
1268.056319328448
 30
0.0
 10
335.3006884615409
 20
1268.056319328448
 30
0.0
  0
LINE
  5
7AD5
330
1F
100
AcDbEntity
  8
0
  6
Continuous
 62
     7
370
    15
100
AcDbLine
 10
337.3006883237051
 20
1272.056319052777
 30
0.0
 11
337.3006883237051
 21
1249.156319769523
 31
0.0
  0
LINE
  5
7AD6
330
1F
100
AcDbEntity
  8
0
  6
Continuous
 62
     7
370
    15
100
AcDbLine
 10
349.4006887238013
 20
1249.58662525793
 30
0.0
 11
349.4006887238013
 21
1248.85631934782
 31
0.0
  0
ARC
  5
7AD7
102
{ACAD_REACTORS
330
843B
330
8465
102
}
330
1F
100
AcDbEntity
  8
0
  6
Continuous
 62
     7
370
    15
100
AcDbCircle
 10
347.9006883578223
 20
1251.056319329936
 30
0.0
 40
2.100000000000011
100
AcDbArc
 50
315.5846914028112
 51
224.4153085971888
  0
LINE
  5
7AD8
330
1F
100
AcDbEntity
  8
0
  6
Continuous
 62
     7
370
    15
100
AcDbLine
 10
346.400688232063
 20
1248.85631934782
 30
0.0
 11
346.400688232063
 21
1249.58662525793
 31
0.0
  0
LINE
  5
7AD9
330
1F
100
AcDbEntity
  8
0
  6
Continuous
 62
     7
370
    15
100
AcDbLine
 10
337.6006882797467
 20
1248.85631934782
 30
0.0
 11
346.400688232063
 21
1248.85631934782
 31
0.0
  0
LINE
  5
7ADA
330
1F
100
AcDbEntity
  8
0
  6
Continuous
 62
     7
370
    15
100
AcDbLine
 10
353.8006886999594
 20
1249.156319769523
 30
0.0
 11
353.8006886999594
 21
1272.056319052777
 31
0.0
  0
LINE
  5
7ADB
102
{ACAD_REACTORS
330
8331
102
}
330
1F
100
AcDbEntity
  8
0
  6
Continuous
 62
     7
370
    15
100
AcDbLine
 10
337.6006882797467
 20
1272.35631947448
 30
0.0
 11
337.3006883237051
 21
1272.056319052777
 31
0.0
  0
LINE
  5
7ADC
330
1F
100
AcDbEntity
  8
0
  6
Continuous
 62
     7
370
    15
100
AcDbLine
 10
353.5006882782566
 20
1272.35631947448
 30
0.0
 11
337.6006882797467
 21
1272.35631947448
 31
0.0
  0
LINE
  5
7ADD
102
{ACAD_REACTORS
330
8331
330
83E8
102
}
330
1F
100
AcDbEntity
  8
0
  6
Continuous
 62
     7
370
    15
100
AcDbLine
 10
353.8006886999594
 20
1272.056319052777
 30
0.0
 11
353.5006882782566
 21
1272.35631947448
 31
0.0
  0
LINE
  5
7ADE
102
{ACAD_REACTORS
330
8465
102
}
330
1F
100
AcDbEntity
  8
0
  6
Continuous
 62
     7
370
    15
100
AcDbLine
 10
353.5006882782566
 20
1248.85631934782
 30
0.0
 11
353.8006886999594
 21
1249.156319769523
 31
0.0
  0
LINE
  5
7ADF
102
{ACAD_REACTORS
330
843B
102
}
330
1F
100
AcDbEntity
  8
0
  6
Continuous
 62
     7
370
    15
100
AcDbLine
 10
349.4006887238013
 20
1248.85631934782
 30
0.0
 11
353.5006882782566
 21
1248.85631934782
 31
0.0
  0
LINE
  5
7AE0
330
1F
100
AcDbEntity
  8
0
  6
Continuous
 62
     7
370
    15
100
AcDbLine
 10
337.3006883237051
 20
1249.156319769523
 30
0.0
 11
337.6006882797467
 21
1248.85631934782
 31
0.0
  0
CIRCLE
  5
7AE1
330
1F
100
AcDbEntity
  8
0
  6
Continuous
 62
     7
370
    15
100
AcDbCircle
 10
346.3006883578224
 20
1258.356319329936
 30
0.0
 40
5.0
  0
CIRCLE
  5
7AE2
330
1F
100
AcDbEntity
  8
0
  6
Continuous
 62
     7
370
    15
100
AcDbCircle
 10
346.3006883578224
 20
1258.356319329936
 30
0.0
 40
4.799999999999982
  0
LINE
  5
7AE3
330
1F
100
AcDbEntity
  8
0
  6
Continuous
 62
     7
370
    15
100
AcDbLine
 10
330.9006884853827
 20
1254.656319274059
 30
0.0
 11
330.9006884853827
 21
1249.356319429776
 31
0.0
  0
LINE
  5
7AE4
330
1F
100
AcDbEntity
  8
0
  6
Continuous
 62
     7
370
    15
100
AcDbLine
 10
330.9006884853827
 20
1249.356319429776
 30
0.0
 11
330.7006878938066
 21
1249.356319429776
 31
0.0
  0
LINE
  5
7AE5
330
1F
100
AcDbEntity
  8
0
  6
Continuous
 62
     7
370
    15
100
AcDbLine
 10
330.7006878938066
 20
1249.356319429776
 30
0.0
 11
330.7006878938066
 21
1254.856319399974
 31
0.0
  0
LINE
  5
7AE6
330
1F
100
AcDbEntity
  8
0
  6
Continuous
 62
     7
370
    15
100
AcDbLine
 10
330.9006884853827
 20
1254.656319274059
 30
0.0
 11
330.7006878938066
 21
1254.856319399974
 31
0.0
  0
LINE
  5
7AE7
330
1F
100
AcDbEntity
  8
0
  6
Continuous
 62
     7
370
    15
100
AcDbLine
 10
337.3006883237051
 20
1254.656319274059
 30
0.0
 11
330.9006884853827
 21
1254.656319274059
 31
0.0
  0
LINE
  5
7AE8
330
1F
100
AcDbEntity
  8
0
  6
Continuous
 62
     7
370
    15
100
AcDbLine
 10
330.9006884853827
 20
1249.356319429776
 30
0.0
 11
337.3006883237051
 21
1249.356319429776
 31
0.0
  0
LINE
  5
7AE9
330
1F
100
AcDbEntity
  8
0
  6
Continuous
 62
     7
370
    15
100
AcDbLine
 10
330.9006884853827
 20
1249.156319769523
 30
0.0
 11
330.7006878938066
 21
1249.356319429776
 31
0.0
  0
LINE
  5
7AEA
330
1F
100
AcDbEntity
  8
0
  6
Continuous
 62
     7
370
    15
100
AcDbLine
 10
330.9006884853827
 20
1249.156319769523
 30
0.0
 11
330.9006884853827
 21
1249.356319429776
 31
0.0
  0
LINE
  5
7AEB
330
1F
100
AcDbEntity
  8
0
  6
Continuous
 62
     7
370
    15
100
AcDbLine
 10
330.7006878938066
 20
1254.856319399974
 30
0.0
 11
337.3006883237051
 21
1254.856319399974
 31
0.0
  0
LINE
  5
7AEC
330
1F
100
AcDbEntity
  8
0
  6
Continuous
 62
     7
370
    15
100
AcDbLine
 10
337.3006883237051
 20
1249.156319769523
 30
0.0
 11
330.9006884853827
 21
1249.156319769523
 31
0.0
  0
LINE
  5
7AED
330
1F
100
AcDbEntity
  8
0
  6
Continuous
 62
     7
370
    15
100
AcDbLine
 10
333.2107391368138
 20
1246.766318800351
 30
0.0
 11
333.2107391368138
 21
1247.266318882308
 31
0.0
  0
ELLIPSE
  5
7AEE
330
1F
100
AcDbEntity
  8
0
  6
Continuous
 62
     7
370
    15
100
AcDbEllipse
 10
334.2006883578222
 20
1251.22611730458
 30
0.0
 11
1.591876474125542
 21
3.843129773456525
 31
0.0
210
0.0
220
0.0
230
1.0
 40
0.5993709352028387
 41
3.384940131127192
 42
3.746307255033893
  0
ELLIPSE
  5
7AEF
330
1F
100
AcDbEntity
  8
0
  6
Continuous
 62
     7
370
    15
100
AcDbEllipse
 10
334.2006883578222
 20
1251.22611730458
 30
0.0
 11
-1.591876474125541
 21
3.843129773456525
 31
0.0
210
0.0
220
0.0
230
1.0
 40
0.5993709352028361
 41
2.536878052145688
 42
2.898245176052394
  0
LINE
  5
7AF0
330
1F
100
AcDbEntity
  8
0
  6
Continuous
 62
     7
370
    15
100
AcDbLine
 10
335.1906377981888
 20
1247.266318882308
 30
0.0
 11
335.1906377981888
 21
1246.766318800351
 31
0.0
  0
LINE
  5
7AF1
330
1F
100
AcDbEntity
  8
0
  6
Continuous
 62
     7
370
    15
100
AcDbLine
 10
335.1906377981888
 20
1246.766318800351
 30
0.0
 11
333.2107391368138
 21
1246.766318800351
 31
0.0
  0
LINE
  5
7AF2
330
1F
100
AcDbEntity
  8
0
  6
Continuous
 62
     7
370
    15
100
AcDbLine
 10
336.9506884526002
 20
1247.522065649232
 30
0.0
 11
336.9506884526002
 21
1249.156319769523
 31
0.0
  0
ELLIPSE
  5
7AF3
330
1F
100
AcDbEntity
  8
0
  6
Continuous
 62
     7
370
    15
100
AcDbEllipse
 10
336.9506883578222
 20
1251.22611730458
 30
0.0
 11
1.591876474125542
 21
3.843129773456525
 31
0.0
210
0.0
220
0.0
230
1.0
 40
0.5993709352028387
 41
3.384940131127192
 42
3.746307255033893
  0
LINE
  5
7AF4
330
1F
100
AcDbEntity
  8
0
  6
Continuous
 62
     7
370
    15
100
AcDbLine
 10
335.1906377981888
 20
1247.266318882308
 30
0.0
 11
335.9607386562514
 21
1247.266318882308
 31
0.0
  0
LINE
  5
7AF5
330
1F
100
AcDbEntity
  8
0
  6
Continuous
 62
     7
370
    15
100
AcDbLine
 10
334.2006884675013
 20
1247.522065649232
 30
0.0
 11
334.2006884675013
 21
1249.156319769523
 31
0.0
  0
LINE
  5
7AF6
330
1F
100
AcDbEntity
  8
0
  6
Continuous
 62
     7
370
    15
100
AcDbLine
 10
332.44063781309
 20
1247.266318882308
 30
0.0
 11
333.2107391368138
 21
1247.266318882308
 31
0.0
  0
ELLIPSE
  5
7AF7
330
1F
100
AcDbEntity
  8
0
  6
Continuous
 62
     7
370
    15
100
AcDbEllipse
 10
331.4506883578222
 20
1251.22611730458
 30
0.0
 11
-1.591876474125569
 21
3.843129773456524
 31
0.0
210
0.0
220
0.0
230
1.0
 40
0.5993709352028281
 41
2.536878052145684
 42
2.898245176052391
  0
LINE
  5
7AF8
330
1F
100
AcDbEntity
  8
0
  6
Continuous
 62
     7
370
    15
100
AcDbLine
 10
331.4506884824025
 20
1247.522065649232
 30
0.0
 11
331.4506884824025
 21
1249.156319769523
 31
0.0
  0
LINE
  5
7AF9
330
1F
100
AcDbEntity
  8
0
  6
Continuous
 62
     7
370
    15
100
AcDbLine
 10
337.3006883237051
 20
1257.656319300136
 30
0.0
 11
330.7006878938066
 21
1257.656319300136
 31
0.0
  0
LINE
  5
7AFA
330
1F
100
AcDbEntity
  8
0
  6
Continuous
 62
     7
370
    15
100
AcDbLine
 10
330.7006878938066
 20
1257.656319300136
 30
0.0
 11
330.7006878938066
 21
1254.856319399974
 31
0.0
  0
LINE
  5
7AFB
330
1F
100
AcDbEntity
  8
0
  6
Continuous
 62
     7
370
    15
100
AcDbLine
 10
330.9006884853827
 20
1257.856319426051
 30
0.0
 11
337.3006883237051
 21
1257.856319426051
 31
0.0
  0
LINE
  5
7AFC
330
1F
100
AcDbEntity
  8
0
  6
Continuous
 62
     7
370
    15
100
AcDbLine
 10
330.7006878938066
 20
1257.656319300136
 30
0.0
 11
330.9006884853827
 21
1257.856319426051
 31
0.0
  0
LINE
  5
7AFD
330
1F
100
AcDbEntity
  8
0
  6
Continuous
 62
     7
370
    15
100
AcDbLine
 10
335.4607390399563
 20
1246.766318800351
 30
0.0
 11
335.9607386562514
 21
1247.266318882308
 31
0.0
  0
LINE
  5
7AFE
330
1F
100
AcDbEntity
  8
0
  6
Continuous
 62
     7
370
    15
100
AcDbLine
 10
335.4607390399563
 20
1246.766318800351
 30
0.0
 11
335.1906377981888
 21
1246.766318800351
 31
0.0
  0
LINE
  5
7AFF
330
1F
100
AcDbEntity
  8
0
  6
Continuous
 62
     7
370
    15
100
AcDbLine
 10
333.2107391368138
 20
1246.766318800351
 30
0.0
 11
332.9406378950464
 21
1246.766318800351
 31
0.0
  0
LINE
  5
7B00
330
1F
100
AcDbEntity
  8
0
  6
Continuous
 62
     7
370
    15
100
AcDbLine
 10
332.44063781309
 20
1247.266318882308
 30
0.0
 11
332.9406378950464
 21
1246.766318800351
 31
0.0
  0
LINE
  5
7B01
330
1F
100
AcDbEntity
  8
0
  6
Continuous
 62
     7
370
    15
100
AcDbLine
 10
331.9506885643589
 20
1246.766318800351
 30
0.0
 11
331.4506884824025
 21
1247.266318882308
 31
0.0
  0
LINE
  5
7B02
330
1F
100
AcDbEntity
  8
0
  6
Continuous
 62
     7
370
    15
100
AcDbLine
 10
331.4506884824025
 20
1247.266318882308
 30
0.0
 11
331.4506884824025
 21
1247.522065649232
 31
0.0
  0
LINE
  5
7B03
330
1F
100
AcDbEntity
  8
0
  6
Continuous
 62
     7
370
    15
100
AcDbLine
 10
332.9406378950464
 20
1246.766318800351
 30
0.0
 11
331.9506885643589
 21
1246.766318800351
 31
0.0
  0
LINE
  5
7B04
330
1F
100
AcDbEntity
  8
0
  6
Continuous
 62
     7
370
    15
100
AcDbLine
 10
336.9506884526002
 20
1247.522065649232
 30
0.0
 11
336.9506884526002
 21
1247.266318882308
 31
0.0
  0
LINE
  5
7B05
330
1F
100
AcDbEntity
  8
0
  6
Continuous
 62
     7
370
    15
100
AcDbLine
 10
336.9506884526002
 20
1247.266318882308
 30
0.0
 11
336.4506883706438
 21
1246.766318800351
 31
0.0
  0
LINE
  5
7B06
330
1F
100
AcDbEntity
  8
0
  6
Continuous
 62
     7
370
    15
100
AcDbLine
 10
336.4506883706438
 20
1246.766318800351
 30
0.0
 11
335.4607390399563
 21
1246.766318800351
 31
0.0
  0
LINE
  5
7B07
330
1F
100
AcDbEntity
  8
0
  6
Continuous
 62
     7
370
    15
100
AcDbLine
 10
335.5006885874557
 20
1243.556319969198
 30
0.0
 11
332.9006888132083
 21
1243.556319969198
 31
0.0
  0
LINE
  5
7B08
330
1F
100
AcDbEntity
  8
0
  6
Continuous
 62
     7
370
    15
100
AcDbLine
 10
334.2006884675013
 20
1243.756319629452
 30
0.0
 11
335.7006882477092
 21
1243.756319629452
 31
0.0
  0
LINE
  5
7B09
330
1F
100
AcDbEntity
  8
0
  6
Continuous
 62
     7
370
    15
100
AcDbLine
 10
332.7006882216322
 20
1243.756319629452
 30
0.0
 11
334.2006884675013
 21
1243.756319629452
 31
0.0
  0
LINE
  5
7B0A
330
1F
100
AcDbEntity
  8
0
  6
Continuous
 62
     7
370
    15
100
AcDbLine
 10
335.7006882477092
 20
1262.1563193247
 30
0.0
 11
332.7006882216322
 21
1262.1563193247
 31
0.0
  0
LINE
  5
7B0B
330
1F
100
AcDbEntity
  8
0
  6
Continuous
 62
     7
370
    15
100
AcDbLine
 10
332.9006888132083
 20
1262.356319330561
 30
0.0
 11
335.5006885874557
 21
1262.356319330561
 31
0.0
  0
LINE
  5
7B0C
330
1F
100
AcDbEntity
  8
0
  6
Continuous
 62
     7
370
    15
100
AcDbLine
 10
330.7006878938066
 20
1251.256318996152
 30
0.0
 11
330.7006878938066
 21
1254.306319402954
 31
0.0
  0
LINE
  5
7B0D
330
1F
100
AcDbEntity
  8
0
  6
Continuous
 62
     7
370
    15
100
AcDbLine
 10
335.7006882477092
 20
1264.856319409287
 30
0.0
 11
335.7006882477092
 21
1262.1563193247
 31
0.0
  0
LINE
  5
7B0E
330
1F
100
AcDbEntity
  8
0
  6
Continuous
 62
     7
370
    15
100
AcDbLine
 10
335.7006882477092
 20
1271.856319392523
 30
0.0
 11
335.7006882477092
 21
1264.856319409287
 31
0.0
  0
LINE
  5
7B0F
330
1F
100
AcDbEntity
  8
0
  6
Continuous
 62
     7
370
    15
100
AcDbLine
 10
335.5006885874557
 20
1262.356319330561
 30
0.0
 11
335.5006885874557
 21
1271.65631973227
 31
0.0
  0
ARC
  5
7B10
330
1F
100
AcDbEntity
  8
0
  6
Continuous
 62
     7
370
    15
100
AcDbCircle
 10
332.3006883578224
 20
1259.856319329936
 30
0.0
 40
2.749999999999987
100
AcDbArc
 50
65.38002267134922
 51
90.0
  0
ARC
  5
7B11
330
1F
100
AcDbEntity
  8
0
  6
Continuous
 62
     7
370
    15
100
AcDbCircle
 10
332.3006883578224
 20
1259.856319329936
 30
0.0
 40
2.750000000000003
100
AcDbArc
 50
90.0
 51
234.4214742675454
  0
LINE
  5
7B12
330
1F
100
AcDbEntity
  8
0
  6
Continuous
 62
     7
370
    15
100
AcDbLine
 10
332.3006879698025
 20
1268.701618770561
 30
0.0
 11
333.3006881337153
 21
1269.278968917629
 31
0.0
  0
CIRCLE
  5
7B13
330
1F
100
AcDbEntity
  8
0
  6
Continuous
 62
     7
370
    15
100
AcDbCircle
 10
332.3006883578224
 20
1269.856319329936
 30
0.0
 40
1.550000000000011
  0
LINE
  5
7B14
330
1F
100
AcDbEntity
  8
0
  6
Continuous
 62
     7
370
    15
100
AcDbLine
 10
332.3006879698025
 20
1271.011020290157
 30
0.0
 11
331.3006887372123
 21
1270.433669211766
 31
0.0
  0
LINE
  5
7B15
330
1F
100
AcDbEntity
  8
0
  6
Continuous
 62
     7
370
    15
100
AcDbLine
 10
331.3006887372123
 20
1269.278968917629
 30
0.0
 11
332.3006879698025
 21
1268.701618770561
 31
0.0
  0
LINE
  5
7B16
330
1F
100
AcDbEntity
  8
0
  6
Continuous
 62
     7
370
    15
100
AcDbLine
 10
333.3006881337153
 20
1269.278968917629
 30
0.0
 11
333.3006881337153
 21
1270.433669211766
 31
0.0
  0
LINE
  5
7B17
330
1F
100
AcDbEntity
  8
0
  6
Continuous
 62
     7
370
    15
100
AcDbLine
 10
333.3006881337153
 20
1270.433669211766
 30
0.0
 11
332.3006879698025
 21
1271.011020290157
 31
0.0
  0
LINE
  5
7B18
330
1F
100
AcDbEntity
  8
0
  6
Continuous
 62
     7
370
    15
100
AcDbLine
 10
331.3006887372123
 20
1270.433669211766
 30
0.0
 11
331.3006887372123
 21
1269.278968917629
 31
0.0
  0
LINE
  5
7B19
330
1F
100
AcDbEntity
  8
0
  6
Continuous
 62
     7
370
    15
100
AcDbLine
 10
332.7006882216322
 20
1260.780079756355
 30
0.0
 11
332.3006879698025
 21
1261.011019815183
 31
0.0
  0
LINE
  5
7B1A
330
1F
100
AcDbEntity
  8
0
  6
Continuous
 62
     7
370
    15
100
AcDbLine
 10
332.3006879698025
 20
1258.701618761248
 30
0.0
 11
332.7006882216322
 21
1258.932558820075
 31
0.0
  0
LINE
  5
7B1B
330
1F
100
AcDbEntity
  8
0
  6
Continuous
 62
     7
370
    15
100
AcDbLine
 10
332.3006879698025
 20
1261.011019815183
 30
0.0
 11
331.3006887372123
 21
1260.433669668114
 31
0.0
  0
LINE
  5
7B1C
330
1F
100
AcDbEntity
  8
0
  6
Continuous
 62
     7
370
    15
100
AcDbLine
 10
331.3006887372123
 20
1260.433669668114
 30
0.0
 11
331.3006887372123
 21
1259.278969141147
 31
0.0
  0
LINE
  5
7B1D
330
1F
100
AcDbEntity
  8
0
  6
Continuous
 62
     7
370
    15
100
AcDbLine
 10
331.3006887372123
 20
1259.278969141147
 30
0.0
 11
332.3006879698025
 21
1258.701618761248
 31
0.0
  0
CIRCLE
  5
7B1E
330
1F
100
AcDbEntity
  8
0
  6
Continuous
 62
     7
370
    15
100
AcDbCircle
 10
332.3006883578224
 20
1269.856319329936
 30
0.0
 40
2.75
  0
LINE
  5
7B1F
330
1F
100
AcDbEntity
  8
0
  6
Continuous
 62
     7
370
    15
100
AcDbLine
 10
330.9006884853827
 20
1249.156319769523
 30
0.0
 11
331.4506884824025
 21
1249.156319769523
 31
0.0
  0
LINE
  5
7B20
330
1F
100
AcDbEntity
  8
0
  6
Continuous
 62
     7
370
    15
100
AcDbLine
 10
330.7006878938066
 20
1249.356319429776
 30
0.0
 11
330.7006878938066
 21
1251.256318996152
 31
0.0
  0
LINE
  5
7B21
330
1F
100
AcDbEntity
  8
0
  6
Continuous
 62
     7
370
    15
100
AcDbLine
 10
335.3006884615409
 20
1262.356319330561
 30
0.0
 11
335.3006884615409
 21
1272.856319556436
 31
0.0
  0
LINE
  5
7B22
330
1F
100
AcDbEntity
  8
0
  6
Continuous
 62
     7
370
    15
100
AcDbLine
 10
329.5006880696403
 20
1256.856319262138
 30
0.0
 11
330.7006878938066
 21
1256.856319262138
 31
0.0
  0
LINE
  5
7B23
330
1F
100
AcDbEntity
  8
0
  6
Continuous
 62
     7
370
    15
100
AcDbLine
 10
329.5006880696403
 20
1272.856319556436
 30
0.0
 11
329.5006880696403
 21
1256.856319262138
 31
0.0
  0
LINE
  5
7B24
102
{ACAD_REACTORS
330
839B
102
}
330
1F
100
AcDbEntity
  8
0
  6
Continuous
 62
     7
370
    15
100
AcDbLine
 10
329.5006880696403
 20
1272.856319556436
 30
0.0
 11
335.3006884615409
 21
1272.856319556436
 31
0.0
  0
LINE
  5
7B25
330
1F
100
AcDbEntity
  8
0
  6
Continuous
 62
     7
370
    15
100
AcDbLine
 10
329.3006884093868
 20
1257.056319388053
 30
0.0
 11
329.3006884093868
 21
1272.65631896486
 31
0.0
  0
LINE
  5
7B26
102
{ACAD_REACTORS
330
848F
102
}
330
1F
100
AcDbEntity
  8
0
  6
Continuous
 62
     7
370
    15
100
AcDbLine
 10
329.5006880696403
 20
1256.856319262138
 30
0.0
 11
329.3006884093868
 21
1257.056319388053
 31
0.0
  0
LINE
  5
7B27
102
{ACAD_REACTORS
330
8381
330
839B
102
}
330
1F
100
AcDbEntity
  8
0
  6
Continuous
 62
     7
370
    15
100
AcDbLine
 10
329.3006884093868
 20
1272.65631896486
 30
0.0
 11
329.5006880696403
 21
1272.856319556436
 31
0.0
  0
LINE
  5
7B28
330
1F
100
AcDbEntity
  8
0
  6
Continuous
 62
     7
370
    15
100
AcDbLine
 10
335.3006884615409
 20
1262.858820904935
 30
0.0
 11
335.5006885874557
 21
1262.858820904935
 31
0.0
  0
LINE
  5
7B29
330
1F
100
AcDbEntity
  8
0
  6
Continuous
 62
     7
370
    15
100
AcDbLine
 10
335.3006884615409
 20
1266.853817971847
 30
0.0
 11
335.5006885874557
 21
1266.853817971847
 31
0.0
  0
LINE
  5
7B33
330
1F
100
AcDbEntity
  8
0
  6
Continuous
 62
     7
370
    15
100
AcDbLine
 10
330.7006878938066
 20
1256.856319262138
 30
0.0
 11
330.7006878938066
 21
1254.856319399974
 31
0.0
  0
LINE
  5
7B34
102
{ACAD_REACTORS
330
848F
102
}
330
1F
100
AcDbEntity
  8
0
  6
Continuous
 62
     7
370
    15
100
AcDbLine
 10
330.7006878938066
 20
1249.356319429776
 30
0.0
 11
330.7006878938066
 21
1251.256318996152
 31
0.0
  0
LINE
  5
7B35
330
1F
100
AcDbEntity
  8
0
  6
Continuous
 62
     7
370
    15
100
AcDbLine
 10
330.9006884853827
 20
1249.156319769523
 30
0.0
 11
331.4506884824025
 21
1249.156319769523
 31
0.0
  0
ARC
  5
7B36
330
1F
100
AcDbEntity
  8
0
  6
Continuous
 62
     7
370
    15
100
AcDbCircle
 10
332.3006883578224
 20
1259.856319329936
 30
0.0
 40
1.549999999999996
100
AcDbArc
 50
90.0
 51
284.9552483166436
  0
LWPOLYLINE
  5
7B37
330
1F
100
AcDbEntity
  8
0
  6
Continuous
 62
     7
370
    15
100
AcDbPolyline
 90
        3
 70
   128
 43
0.0
 10
332.7006882216322
 20
1261.353817186742
 10
332.5855003829586
 20
1261.379927630028
 10
332.3006879698025
 20
1261.406319332732
  0
LINE
  5
7B44
330
1F
100
AcDbEntity
  8
AM_7
  6
AM_ISO08W050x2
100
AcDbLine
 10
425.3553826740038
 20
1252.767708813626
 30
0.0
 11
425.3553826740038
 21
1276.944929846246
 31
0.0
  0
LINE
  5
7B45
102
{ACAD_REACTORS
330
81A9
102
}
330
1F
100
AcDbEntity
  8
AM_7
  6
AM_ISO08W050x2
100
AcDbLine
 10
402.4730942302715
 20
1264.856319329936
 30
0.0
 11
448.2376711177364
 21
1264.856319329936
 31
0.0
  0
LINE
  5
7B4D
102
{ACAD_REACTORS
330
7E6A
330
7F4B
102
}
330
1F
100
AcDbEntity
  8
AM_7
  6
AM_ISO08W050x2
100
AcDbLine
 10
442.8553826740039
 20
1262.474030886203
 30
0.0
 11
442.8553826740039
 21
1273.238607773668
 31
0.0
  0
LINE
  5
7B4E
330
1F
100
AcDbEntity
  8
AM_7
  6
AM_ISO08W050x2
100
AcDbLine
 10
437.4730942302713
 20
1267.856319329936
 30
0.0
 11
448.2376711177363
 21
1267.856319329936
 31
0.0
  0
LINE
  5
7B51
102
{ACAD_REACTORS
330
7DF8
102
}
330
1F
100
AcDbEntity
  8
AM_7
  6
AM_ISO08W050x2
100
AcDbLine
 10
414.3553826740038
 20
1322.671869527472
 30
0.0
 11
414.3553826740038
 21
1330.676008765242
 31
0.0
  0
LINE
  5
7B52
330
1F
100
AcDbEntity
  8
AM_7
  6
AM_ISO08W050x2
100
AcDbLine
 10
410.3533130551185
 20
1326.673939146357
 30
0.0
 11
418.3574522928892
 21
1326.673939146358
 31
0.0
  0
LINE
  5
7B53
102
{ACAD_REACTORS
330
7DF8
102
}
330
1F
100
AcDbEntity
  8
AM_7
  6
AM_ISO08W050x2
100
AcDbLine
 10
436.3553826740038
 20
1322.671869527472
 30
0.0
 11
436.3553826740038
 21
1330.676008765242
 31
0.0
  0
LINE
  5
7B54
102
{ACAD_REACTORS
330
7E1E
102
}
330
1F
100
AcDbEntity
  8
AM_7
  6
AM_ISO08W050x2
100
AcDbLine
 10
432.3533130551185
 20
1326.673939146357
 30
0.0
 11
440.3574522928892
 21
1326.673939146358
 31
0.0
  0
LINE
  5
7B55
102
{ACAD_REACTORS
330
8273
102
}
330
1F
100
AcDbEntity
  8
AM_7
  6
AM_ISO08W050x2
100
AcDbLine
 10
400.1553826740038
 20
1187.200320692805
 30
0.0
 11
400.1553826740038
 21
1190.337445450454
 31
0.0
  0
LINE
  5
7B56
330
1F
100
AcDbEntity
  8
AM_7
  6
AM_ISO08W050x2
100
AcDbLine
 10
398.5868202951791
 20
1188.768883071629
 30
0.0
 11
401.7239450528284
 21
1188.76888307163
 31
0.0
  0
LINE
  5
7B5D
330
1F
100
AcDbEntity
  8
AM_7
  6
AM_ISO08W050x2
100
AcDbLine
 10
346.3006883578223
 20
1251.903873083849
 30
0.0
 11
346.3006883578223
 21
1264.808765576022
 31
0.0
  0
LINE
  5
7B5E
330
1F
100
AcDbEntity
  8
AM_7
  6
AM_ISO08W050x2
100
AcDbLine
 10
339.848242111736
 20
1258.356319329935
 30
0.0
 11
352.7531346039086
 21
1258.356319329935
 31
0.0
  0
LINE
  5
7B63
102
{ACAD_REACTORS
330
8273
102
}
330
1F
100
AcDbEntity
  8
AM_7
  6
AM_ISO08W050x2
100
AcDbLine
 10
450.5553826740039
 20
1187.200320692805
 30
0.0
 11
450.5553826740039
 21
1190.337445450454
 31
0.0
  0
LINE
  5
7B64
102
{ACAD_REACTORS
330
824D
102
}
330
1F
100
AcDbEntity
  8
AM_7
  6
AM_ISO08W050x2
100
AcDbLine
 10
448.9868202951791
 20
1188.768883071629
 30
0.0
 11
452.1239450528286
 21
1188.76888307163
 31
0.0
  0
LINE
  5
7DC8
330
1F
100
AcDbEntity
  8
LOGO
  6
Continuous
 62
     7
100
AcDbLine
 10
414.6878824059609
 20
1151.109670079666
 30
0.0
 11
417.8666793446883
 21
1151.109670079666
 31
0.0
  0
LINE
  5
7DC9
330
1F
100
AcDbEntity
  8
LOGO
 62
     4
100
AcDbLine
 10
431.8755110445031
 20
1154.734648657747
 30
0.0
 11
419.4115780348712
 21
1154.734648657747
 31
0.0
  0
LINE
  5
7DCA
330
1F
100
AcDbEntity
  8
LOGO
 62
     4
100
AcDbLine
 10
431.8755110445031
 20
1147.535691191684
 30
0.0
 11
419.4115780348712
 21
1147.535691191684
 31
0.0
  0
LINE
  5
7DCB
330
1F
100
AcDbEntity
  8
LOGO
 62
     4
100
AcDbLine
 10
419.4115780348712
 20
1154.734648657747
 30
0.0
 11
419.4115780348712
 21
1147.535691191684
 31
0.0
  0
LINE
  5
7DCC
330
1F
100
AcDbEntity
  8
LOGO
 62
     4
100
AcDbLine
 10
431.875511044503
 20
1154.734648657747
 30
0.0
 11
431.875511044503
 21
1147.535691191684
 31
0.0
  0
LINE
  5
7DCD
330
1F
100
AcDbEntity
  8
LOGO
 62
     4
100
AcDbLine
 10
426.6332082114037
 20
1147.535691191684
 30
0.0
 11
426.6332082114038
 21
1143.936212458652
 31
0.0
  0
TEXT
  5
7DCE
330
1F
100
AcDbEntity
  8
LOGO
  6
Continuous
 62
     7
100
AcDbText
 10
420.7414877387256
 20
1149.038463037849
 30
0.0
 40
4.2
  1
180
  7
CHINESET
100
AcDbText
  0
LINE
  5
7DCF
330
1F
100
AcDbEntity
  8
LOGO
 62
     4
100
AcDbLine
 10
434.4592911144204
 20
1143.936212458652
 30
0.0
 11
434.4592911144204
 21
1135.137486666796
 31
0.0
  0
LINE
  5
7DD0
330
1F
100
AcDbEntity
  8
LOGO
 62
     4
100
AcDbLine
 10
418.8071253083871
 20
1143.936212458652
 30
0.0
 11
418.8071253083871
 21
1135.137486666796
 31
0.0
  0
LINE
  5
7DD1
330
1F
100
AcDbEntity
  8
LOGO
 62
     4
100
AcDbLine
 10
434.4592911144203
 20
1135.137486666796
 30
0.0
 11
418.8071253083871
 21
1135.137486666796
 31
0.0
  0
LINE
  5
7DD2
330
1F
100
AcDbEntity
  8
LOGO
 62
     4
100
AcDbLine
 10
434.4592911144203
 20
1143.936212458652
 30
0.0
 11
418.8071253083871
 21
1143.936212458652
 31
0.0
  0
TEXT
  5
7DD3
330
1F
100
AcDbEntity
  8
LOGO
  6
Continuous
100
AcDbText
 10
420.047554756362
 20
1136.379408154185
 30
157.2692709120597
 40
1.8
  1
Rotary angle
 41
0.8
  7
CHINESET
100
AcDbText
  0
TEXT
  5
7DD4
330
1F
100
AcDbEntity
  8
LOGO
100
AcDbText
 10
421.2988059780817
 20
1139.716220226498
 30
157.2692709120597
 40
3.0
  1
作動角度
  7
CHINESET
100
AcDbText
  0
DIMENSION
  5
7DEA
102
{ACAD_XDICTIONARY
360
7DF7
102
}
102
{ACAD_REACTORS
330
7DF8
102
}
330
1F
100
AcDbEntity
  8
AM_5
100
AcDbDimension
  2
*D40
 10
436.3553826740038
 20
1340.221796855221
 30
0.0
 11
425.3553826740038
 21
1342.67214134341
 31
0.0
 70
    32
 71
     5
 42
22.0
  3
AM_ISO$0
100
AcDbAlignedDimension
 13
414.3553826740038
 23
1330.676008765242
 33
0.0
 14
436.3553826740038
 24
1330.676008765242
 34
0.0
100
AcDbRotatedDimension
1001
ACAD
1000
DSTYLE
1002
{
1070
    40
1040
1.0
1070
   144
1040
1.0
1070
   272
1070
     8
1002
}
  0
DIMENSION
  5
7E10
102
{ACAD_XDICTIONARY
360
7E1D
102
}
102
{ACAD_REACTORS
330
7E1E
102
}
330
1F
100
AcDbEntity
  8
AM_5
100
AcDbDimension
  2
*D41
 10
462.1254811508749
 20
1335.173939488494
 30
0.0
 11
459.6754811508747
 21
1330.923939317426
 31
0.0
 70
    32
 71
     5
 42
8.5000003421369
  3
AM_ISO$0
100
AcDbAlignedDimension
 13
440.3574522928892
 23
1326.673939146358
 33
0.0
 14
455.855384998585
 24
1335.173939488494
 34
0.0
 50
90.00000000000147
100
AcDbRotatedDimension
1001
ACAD
1000
DSTYLE
1002
{
1070
    40
1040
1.0
1070
   144
1040
1.0
1070
   272
1070
     8
1002
}
  0
DIMENSION
  5
7E36
102
{ACAD_XDICTIONARY
360
7E43
102
}
102
{ACAD_REACTORS
330
7E44
102
}
330
1F
100
AcDbEntity
  8
AM_5
100
AcDbDimension
  2
*D42
 10
455.855384998585
 20
1293.339360939011
 30
0.0
 11
425.3553837245357
 21
1293.339360939011
 31
0.0
 70
   160
 71
     5
 42
61.00000254809856
  3
AM_ISO$0
100
AcDbAlignedDimension
 13
394.8553824504864
 23
1272.35631947448
 33
0.0
 14
455.855384998585
 24
1272.35631947448
 34
0.0
100
AcDbRotatedDimension
1001
ACAD
1000
DSTYLE
1002
{
1070
    40
1040
1.0
1070
   144
1040
1.0
1070
   272
1070
     8
1002
}
  0
DIMENSION
  5
7E5C
102
{ACAD_XDICTIONARY
360
7E69
102
}
102
{ACAD_REACTORS
330
7E6A
102
}
330
1F
100
AcDbEntity
  8
AM_5
100
AcDbDimension
  2
*D43
 10
442.8553826740039
 20
1285.568959203599
 30
0.0
 11
425.3553826740037
 21
1285.568959203599
 31
0.0
 70
   160
 71
     5
 42
35.0
  3
AM_ISO$0
100
AcDbAlignedDimension
 13
407.8553826740038
 23
1272.858388948821
 33
0.0
 14
442.8553826740039
 24
1273.238607773668
 34
0.0
100
AcDbRotatedDimension
1001
ACAD
1000
DSTYLE
1002
{
1070
    40
1040
1.0
1070
   144
1040
1.0
1070
   272
1070
     8
1002
}
  0
DIMENSION
  5
7F3D
102
{ACAD_XDICTIONARY
360
7F4A
102
}
102
{ACAD_REACTORS
330
7F4B
102
}
330
1F
100
AcDbEntity
  8
AM_5
100
AcDbDimension
  2
*D47
 10
455.855384998585
 20
1285.568959203599
 30
0.0
 11
449.3553838362944
 21
1288.018959203598
 31
0.0
 70
    32
 71
     5
 42
13.00000232458115
  3
AM_ISO$0
100
AcDbAlignedDimension
 13
442.8553826740039
 23
1273.238607773668
 33
0.0
 14
455.855384998585
 24
1272.35631947448
 34
0.0
100
AcDbRotatedDimension
1001
ACAD
1000
DSTYLE
1002
{
1070
    40
1040
1.0
1070
   144
1040
1.0
1070
   272
1070
     8
1002
}
  0
LINE
  5
7F6F
330
1F
100
AcDbEntity
  8
AM_7
  6
AM_ISO08W050x2
100
AcDbLine
 10
407.8553826740039
 20
1262.474030886203
 30
0.0
 11
407.8553826740039
 21
1273.238607773668
 31
0.0
  0
LINE
  5
7F70
102
{ACAD_REACTORS
330
8181
102
}
330
1F
100
AcDbEntity
  8
AM_7
  6
AM_ISO08W050x2
100
AcDbLine
 10
402.4730942302714
 20
1267.856319329936
 30
0.0
 11
413.2376711177364
 21
1267.856319329936
 31
0.0
  0
LINE
  5
7F85
102
{ACAD_REACTORS
330
8009
102
}
330
1F
100
AcDbEntity
  8
AM_7
  6
AM_ISO08W050x2
100
AcDbLine
 10
417.355382674004
 20
1247.286943420304
 30
0.0
 11
417.355382674004
 21
1255.225695239567
 31
0.0
  0
LINE
  5
7F86
330
1F
100
AcDbEntity
  8
AM_7
  6
AM_ISO08W050x2
100
AcDbLine
 10
413.3860067643722
 20
1251.256319329936
 30
0.0
 11
421.3247585836357
 21
1251.256319329936
 31
0.0
  0
LINE
  5
7F88
102
{ACAD_REACTORS
330
8009
102
}
330
1F
100
AcDbEntity
  8
AM_7
  6
AM_ISO08W050x2
100
AcDbLine
 10
433.355382674004
 20
1247.286943420304
 30
0.0
 11
433.355382674004
 21
1255.225695239567
 31
0.0
  0
LINE
  5
7F89
102
{ACAD_REACTORS
330
7FAB
102
}
330
1F
100
AcDbEntity
  8
AM_7
  6
AM_ISO08W050x2
100
AcDbLine
 10
429.3860067643723
 20
1251.256319329936
 30
0.0
 11
437.3247585836357
 21
1251.256319329936
 31
0.0
  0
DIMENSION
  5
7F9D
102
{ACAD_XDICTIONARY
360
7FAA
102
}
102
{ACAD_REACTORS
330
7FAB
102
}
330
1F
100
AcDbEntity
  8
AM_5
100
AcDbDimension
  2
*D48
 10
463.4396908379767
 20
1251.256319329936
 30
0.0
 11
463.4396908379764
 21
1261.806319402208
 31
0.0
 70
   160
 71
     5
 42
21.10000014454408
  3
AM_ISO$0
100
AcDbAlignedDimension
 13
455.855384998585
 23
1272.35631947448
 33
0.0
 14
437.3247585836357
 24
1251.256319329936
 34
0.0
 50
90.0
100
AcDbRotatedDimension
1001
ACAD
1000
DSTYLE
1002
{
1070
   271
1070
     1
1070
   272
1070
     8
1002
}
  0
DIMENSION
  5
7FCC
102
{ACAD_XDICTIONARY
360
7FD9
102
}
102
{ACAD_REACTORS
330
7FDA
102
}
330
1F
100
AcDbEntity
  8
AM_5
100
AcDbDimension
  2
*D49
 10
471.3531211539093
 20
1272.35631947448
 30
0.0
 11
471.353121153909
 21
1260.60631941115
 31
0.0
 70
   160
 71
     5
 42
23.50000012665987
  3
AM_ISO$0
100
AcDbAlignedDimension
 13
455.855384998585
 23
1248.85631934782
 33
0.0
 14
455.855384998585
 24
1272.35631947448
 34
0.0
 50
90.0
100
AcDbRotatedDimension
1001
ACAD
1000
DSTYLE
1002
{
1070
   271
1070
     1
1070
   272
1070
     8
1002
}
  0
DIMENSION
  5
7FFB
102
{ACAD_XDICTIONARY
360
8008
102
}
102
{ACAD_REACTORS
330
8009
102
}
330
1F
100
AcDbEntity
  8
AM_5
100
AcDbDimension
  2
*D50
 10
433.355382674004
 20
1241.437312692652
 30
0.0
 11
425.355382674004
 21
1241.437312692652
 31
0.0
 70
   160
 71
     5
 42
16.0
  3
AM_ISO$0
100
AcDbAlignedDimension
 13
417.355382674004
 23
1247.286943420304
 33
0.0
 14
433.355382674004
 24
1247.286943420304
 34
0.0
100
AcDbRotatedDimension
1001
ACAD
1000
DSTYLE
1002
{
1070
   272
1070
     8
1002
}
  0
DIMENSION
  5
802A
330
1F
100
AcDbEntity
  8
AM_5
100
AcDbDimension
  2
*D51
 10
437.8553820481551
 20
1234.990890017833
 30
0.0
 11
425.3553827932131
 21
1237.441234506022
 31
0.0
 70
    32
 71
     5
 42
24.99999850988388
  3
AM_ISO$0
100
AcDbAlignedDimension
 13
412.8553835382712
 23
1242.467709452889
 33
0.0
 14
437.8553820481551
 24
1242.467709452889
 34
0.0
100
AcDbRotatedDimension
1001
ACAD
1000
DSTYLE
1002
{
1070
   272
1070
     8
1002
}
  0
DIMENSION
  5
8059
102
{ACAD_XDICTIONARY
360
8066
102
}
102
{ACAD_REACTORS
330
8067
102
}
330
1F
100
AcDbEntity
  8
AM_5
100
AcDbDimension
  2
*D52
 10
441.3553816905272
 20
1226.990890017833
 30
0.0
 11
425.3553818618906
 21
1229.441234506022
 31
0.0
 70
    32
 71
     5
 42
31.99999965727329
  3
AM_ISO$0
100
AcDbAlignedDimension
 13
409.3553820332539
 23
1249.356319429776
 33
0.0
 14
441.3553816905272
 24
1249.356319429776
 34
0.0
100
AcDbRotatedDimension
1001
ACAD
1000
DSTYLE
1002
{
1070
   272
1070
     8
1002
}
  0
LINE
  5
807D
330
1F
100
AcDbEntity
  8
AM_7
  6
AM_ISO08W050x2
100
AcDbLine
 10
412.8553835382712
 20
1242.467709452889
 30
0.0
 11
412.8553835382712
 21
1263.600476368763
 31
0.0
  0
LINE
  5
807E
330
1F
100
AcDbEntity
  8
AM_7
  6
AM_ISO08W050x2
100
AcDbLine
 10
437.8553820481551
 20
1242.467709452889
 30
0.0
 11
437.8553820481551
 21
1263.600476368763
 31
0.0
  0
DIMENSION
  5
8171
102
{ACAD_XDICTIONARY
360
8180
102
}
102
{ACAD_REACTORS
330
8181
102
}
330
1F
100
AcDbEntity
  8
AM_5
100
AcDbDimension
  2
*D53
 10
389.5939284057481
 20
1272.35631947448
 30
0.0
 11
389.5939284057479
 21
1281.753806847895
 31
0.0
 70
   160
 71
     5
 42
4.500000144544173
  3
AM_ISO$0
100
AcDbAlignedDimension
 13
402.4730942302714
 23
1267.856319329936
 33
0.0
 14
394.8553824504864
 24
1272.35631947448
 34
0.0
 50
90.0
100
AcDbRotatedDimension
1001
ACAD
1000
DSTYLE
1002
{
1070
    40
1040
1.0
1070
   144
1040
1.0
1070
   271
1070
     1
1070
   272
1070
     8
1002
}
  0
DIMENSION
  5
819B
102
{ACAD_XDICTIONARY
360
81A8
102
}
102
{ACAD_REACTORS
330
81A9
102
}
330
1F
100
AcDbEntity
  8
AM_5
100
AcDbDimension
  2
*D54
 10
381.5939284057474
 20
1272.35631947448
 30
0.0
 11
379.1439284057472
 21
1268.606319402208
 31
0.0
 70
    32
 71
     5
 42
7.500000144543946
  3
AM_ISO$0
100
AcDbAlignedDimension
 13
402.4730942302715
 23
1264.856319329936
 33
0.0
 14
394.8553824504864
 24
1272.35631947448
 34
0.0
 50
90.0
100
AcDbRotatedDimension
1001
ACAD
1000
DSTYLE
1002
{
1070
    40
1040
1.0
1070
   144
1040
1.0
1070
   271
1070
     1
1070
   272
1070
     8
1002
}
  0
DIMENSION
  5
81D0
102
{ACAD_XDICTIONARY
360
81DF
102
}
102
{ACAD_REACTORS
330
81E0
102
}
330
1F
100
AcDbEntity
  8
AM_5
100
AcDbDimension
  2
*D55
 10
389.5939284057479
 20
1249.156319769523
 30
0.0
 11
389.5939284057476
 21
1246.356319869361
 31
0.0
 70
   160
 71
     5
 42
5.59999980032444
  3
AM_ISO$0
100
AcDbAlignedDimension
 13
411.555382021333
 23
1243.556319969198
 33
0.0
 14
394.8553824504864
 24
1249.156319769523
 34
0.0
 50
90.0
100
AcDbRotatedDimension
1001
ACAD
1000
DSTYLE
1002
{
1070
    40
1040
1.0
1070
   144
1040
1.0
1070
   271
1070
     1
1070
   272
1070
     8
1002
}
  0
LINE
  5
822A
102
{ACAD_REACTORS
330
8009
102
}
330
1F
100
AcDbEntity
  8
AM_7
  6
AM_ISO08W050x2
100
AcDbLine
 10
437.855382674004
 20
1193.292915609363
 30
0.0
 11
437.855382674004
 21
1198.444850533895
 31
0.0
  0
LINE
  5
822B
330
1F
100
AcDbEntity
  8
AM_7
  6
AM_ISO08W050x2
100
AcDbLine
 10
435.2794152117378
 20
1195.868883071629
 30
0.0
 11
440.43135013627
 21
1195.868883071629
 31
0.0
  0
LINE
  5
822D
102
{ACAD_REACTORS
330
8009
102
}
330
1F
100
AcDbEntity
  8
AM_7
  6
AM_ISO08W050x2
100
AcDbLine
 10
412.855382674004
 20
1193.292915609363
 30
0.0
 11
412.855382674004
 21
1198.444850533895
 31
0.0
  0
LINE
  5
822E
102
{ACAD_REACTORS
330
829B
102
}
330
1F
100
AcDbEntity
  8
AM_7
  6
AM_ISO08W050x2
100
AcDbLine
 10
410.2794152117378
 20
1195.868883071629
 30
0.0
 11
415.43135013627
 21
1195.868883071629
 31
0.0
  0
LINE
  5
822F
330
1F
100
AcDbEntity
  8
AM_7
  6
AM_ISO08W050x2
100
AcDbLine
 10
425.1053841492188
 20
1173.395999808635
 30
0.0
 11
425.1053841492188
 21
1210.307114072175
 31
0.0
  0
DIMENSION
  5
823F
102
{ACAD_XDICTIONARY
360
824C
102
}
102
{ACAD_REACTORS
330
824D
102
}
330
1F
100
AcDbEntity
  8
AM_5
100
AcDbDimension
  2
*D56
 10
463.353121153823
 20
1176.268882729492
 30
0.0
 11
460.9027766656338
 21
1182.518882900561
 31
0.0
 70
    32
 71
     5
 42
12.50000034213735
  3
AM_ISO$0
100
AcDbAlignedDimension
 13
452.1239450528286
 23
1188.76888307163
 33
0.0
 14
455.855384998585
 24
1176.268882729492
 34
0.0
 50
90.00000000000417
100
AcDbRotatedDimension
1001
ACAD
1000
DSTYLE
1002
{
1070
    40
1040
1.0
1070
   144
1040
1.0
1070
   271
1070
     1
1070
   272
1070
     8
1002
}
  0
DIMENSION
  5
8265
102
{ACAD_XDICTIONARY
360
8272
102
}
102
{ACAD_REACTORS
330
8273
102
}
330
1F
100
AcDbEntity
  8
AM_5
100
AcDbDimension
  2
*D57
 10
400.1553826740038
 20
1168.458026349061
 30
0.0
 11
425.3553826740038
 21
1170.908026349061
 31
0.0
 70
    32
 71
     5
 42
50.40000000000009
  3
AM_ISO$0
100
AcDbAlignedDimension
 13
450.5553826740039
 23
1187.200320692805
 33
0.0
 14
400.1553826740038
 24
1187.200320692805
 34
0.0
100
AcDbRotatedDimension
1001
ACAD
1000
DSTYLE
1002
{
1070
    40
1040
1.0
1070
   144
1040
1.0
1070
   271
1070
     1
1070
   272
1070
     8
1002
}
  0
DIMENSION
  5
828B
102
{ACAD_XDICTIONARY
360
829A
102
}
102
{ACAD_REACTORS
330
829B
102
}
330
1F
100
AcDbEntity
  8
AM_5
100
AcDbDimension
  2
*D58
 10
392.4929035751245
 20
1192.768883105746
 30
0.0
 11
390.0429035751243
 21
1183.968883105746
 31
0.0
 70
    32
 71
     5
 42
3.099999965882716
  3
AM_ISO$0
100
AcDbAlignedDimension
 13
410.2794152117378
 23
1195.868883071629
 33
0.0
 14
394.8553824504864
 24
1192.768883105746
 34
0.0
 50
90.0
100
AcDbRotatedDimension
1001
ACAD
1000
DSTYLE
1002
{
1070
    40
1040
1.0
1070
   144
1040
1.0
1070
   271
1070
     1
1070
   272
1070
     8
1002
}
  0
DIMENSION
  5
82B5
102
{ACAD_XDICTIONARY
360
82C4
102
}
102
{ACAD_REACTORS
330
82C5
102
}
330
1F
100
AcDbEntity
  8
AM_5
100
AcDbDimension
  2
*D59
 10
384.492903575125
 20
1192.768883105746
 30
0.0
 11
382.0429035751248
 21
1183.427347672675
 31
0.0
 70
    32
 71
     5
 42
6.6000004298985
  3
AM_ISO$0
100
AcDbAlignedDimension
 13
409.5553835561526
 23
1199.368883535645
 33
0.0
 14
394.8553824504864
 24
1192.768883105746
 34
0.0
 50
90.0
100
AcDbRotatedDimension
1001
ACAD
1000
DSTYLE
1002
{
1070
    40
1040
1.0
1070
   144
1040
1.0
1070
   271
1070
     1
1070
   272
1070
     8
1002
}
  0
DIMENSION
  5
82DF
330
1F
100
AcDbEntity
  8
AM_5
100
AcDbDimension
  2
*D60
 10
427.6053841492187
 20
1212.834873217631
 30
0.0
 11
436.8278715226339
 21
1215.284873217631
 31
0.0
 70
    32
 71
     5
 42
5.5
  3
AM_ISO$0
100
AcDbAlignedDimension
 13
422.1053841492187
 23
1208.068882726512
 33
0.0
 14
427.6053841492187
 24
1208.268883071629
 34
0.0
100
AcDbRotatedDimension
1001
ACAD
1000
DSTYLE
1002
{
1070
    40
1040
1.0
1070
   144
1040
1.0
1070
   271
1070
     1
1070
   272
1070
     8
1002
}
  0
DIMENSION
  5
8323
102
{ACAD_XDICTIONARY
360
8330
102
}
102
{ACAD_REACTORS
330
8331
102
}
330
1F
100
AcDbEntity
  8
AM_5
100
AcDbDimension
  2
*D61
 10
353.8006886999594
 20
1285.339360939011
 30
0.0
 11
345.5506885118323
 21
1287.789360939011
 31
0.0
 70
    32
 71
     5
 42
16.50000037625432
  3
AM_ISO$0
100
AcDbAlignedDimension
 13
337.3006883237051
 23
1272.056319052777
 33
0.0
 14
353.8006886999594
 24
1272.056319052777
 34
0.0
100
AcDbRotatedDimension
1001
ACAD
1000
DSTYLE
1002
{
1070
    40
1040
1.0
1070
   144
1040
1.0
1070
   271
1070
     1
1070
   272
1070
     8
1002
}
  0
DIMENSION
  5
8373
102
{ACAD_XDICTIONARY
360
8380
102
}
102
{ACAD_REACTORS
330
8381
102
}
330
1F
100
AcDbEntity
  8
AM_5
100
AcDbDimension
  2
*D63
 10
329.3006884093868
 20
1285.339360939011
 30
0.0
 11
325.5506887260365
 21
1287.789360939011
 31
0.0
 70
    32
 71
     5
 42
7.499999366700649
  3
AM_ISO$0
100
AcDbAlignedDimension
 13
321.8006890426861
 23
1267.856319202534
 33
0.0
 14
329.3006884093868
 24
1272.65631896486
 34
0.0
100
AcDbRotatedDimension
1001
ACAD
1000
DSTYLE
1002
{
1070
   173
1070
     1
1070
   271
1070
     1
1070
   272
1070
     8
1070
   344
1005
83A8
1002
}
  0
DIMENSION
  5
838B
102
{ACAD_XDICTIONARY
360
839A
102
}
102
{ACAD_REACTORS
330
839B
102
}
330
1F
100
AcDbEntity
  8
AM_5
100
AcDbDimension
  2
*D64
 10
329.3006884093868
 20
1285.339360939011
 30
0.0
 11
332.3006884354638
 21
1287.789360939011
 31
0.0
 70
    32
 71
     5
 42
6.000000052154064
  3
AM_ISO$0
100
AcDbAlignedDimension
 13
335.3006884615409
 23
1272.856319556436
 33
0.0
 14
329.3006884093868
 24
1272.65631896486
 34
0.0
100
AcDbRotatedDimension
1001
ACAD
1000
DSTYLE
1002
{
1070
   271
1070
     1
1070
   272
1070
     8
1002
}
  0
DIMENSION
  5
83DA
102
{ACAD_XDICTIONARY
360
83E7
102
}
102
{ACAD_REACTORS
330
83E8
102
}
330
1F
100
AcDbEntity
  8
AM_5
100
AcDbDimension
  2
*D66
 10
353.8006886999594
 20
1293.339360939011
 30
0.0
 11
337.8006888713228
 21
1295.7897054272
 31
0.0
 70
    32
 71
     5
 42
31.99999965727335
  3
AM_ISO$0
100
AcDbAlignedDimension
 13
321.8006890426861
 23
1267.65631905006
 33
0.0
 14
353.8006886999594
 24
1272.056319052777
 34
0.0
100
AcDbRotatedDimension
1001
ACAD
1000
DSTYLE
1002
{
1070
    40
1040
1.0
1070
   144
1040
1.0
1070
   271
1070
     1
1070
   272
1070
     8
1002
}
  0
DIMENSION
  5
842B
102
{ACAD_XDICTIONARY
360
843A
102
}
102
{ACAD_REACTORS
330
843B
330
8465
102
}
330
1F
100
AcDbEntity
  8
AM_5
100
AcDbDimension
  2
*D68
 10
361.2756609440913
 20
1248.85631934782
 30
0.0
 11
361.2756609440911
 21
1260.35586165277
 31
0.0
 70
   160
 71
     5
 42
2.199999982115741
  3
AM_ISO$0
100
AcDbAlignedDimension
 13
347.9006883578223
 23
1251.056319329936
 33
0.0
 14
353.5006882782566
 24
1248.85631934782
 34
0.0
 50
90.0
100
AcDbRotatedDimension
1001
ACAD
1000
DSTYLE
1002
{
1070
    40
1040
1.0
1070
   144
1040
1.0
1070
   271
1070
     1
1070
   272
1070
     8
1002
}
  0
DIMENSION
  5
8455
102
{ACAD_XDICTIONARY
360
8464
102
}
102
{ACAD_REACTORS
330
8465
102
}
330
1F
100
AcDbEntity
  8
AM_5
100
AcDbDimension
  2
*D69
 10
353.8006886999594
 20
1236.85631834782
 30
0.0
 11
350.8506885288909
 21
1236.85631834782
 31
0.0
 70
   160
 71
     5
 42
5.900000342137104
  3
AM_ISO$0
100
AcDbAlignedDimension
 13
347.9006883578223
 23
1251.056319329936
 33
0.0
 14
353.8006886999594
 24
1249.156319769523
 34
0.0
100
AcDbRotatedDimension
1001
ACAD
1000
DSTYLE
1002
{
1070
    40
1040
1.0
1070
   144
1040
1.0
1070
   271
1070
     1
1070
   272
1070
     8
1002
}
  0
DIMENSION
  5
847F
102
{ACAD_XDICTIONARY
360
848E
102
}
102
{ACAD_REACTORS
330
848F
102
}
330
1F
100
AcDbEntity
  8
AM_5
100
AcDbDimension
  2
*D70
 10
330.7006878938066
 20
1236.856318347819
 30
0.0
 11
320.3256884093868
 21
1236.856318347819
 31
0.0
 70
   160
 71
     5
 42
1.399999484419822
  3
AM_ISO$0
100
AcDbAlignedDimension
 13
329.3006884093868
 23
1257.056319388053
 33
0.0
 14
330.7006878938066
 24
1249.356319429776
 34
0.0
100
AcDbRotatedDimension
1001
ACAD
1000
DSTYLE
1002
{
1070
    40
1040
1.0
1070
   144
1040
1.0
1070
   271
1070
     1
1070
   272
1070
     8
1002
}
  0
LINE
  5
8501
330
1F
100
AcDbEntity
  8
AM_5
 62
     5
100
AcDbLine
 10
492.5520032324784
 20
1240.184685297539
 30
0.0
 11
462.8187620925762
 21
1240.184685297539
 31
0.0
  0
LINE
  5
8502
330
1F
100
AcDbEntity
  8
AM_5
 62
     5
100
AcDbLine
 10
462.8187620925762
 20
1240.184685297539
 30
0.0
 11
447.0138389020319
 21
1261.918790517523
 31
0.0
  0
TRACE
  5
8503
330
1F
100
AcDbEntity
  8
AM_5
 62
     5
370
    35
100
AcDbTrace
 10
447.3865051944358
 20
1262.189791419908
 30
0.0
 11
446.641172609628
 21
1261.647789615138
 31
0.0
 12
444.9553826740038
 22
1264.749472053354
 32
0.0
 13
444.9553826740038
 23
1264.749472053354
 33
0.0
  0
MTEXT
  5
8504
330
1F
100
AcDbEntity
  8
AM_5
 62
     5
100
AcDbMText
 10
487.8696871817576
 20
1221.045263635073
 30
0.0
 40
3.5
 41
0.0
 71
     7
 72
     5
  1

  7
ACISOTS
 73
     1
 44
1.0
1001
ACAD
1000
MTEXTBEGIN
1070
    73
1070
     1
1070
    44
1040
1.0
1070
    74
1070
     0
1000
MTEXTEND
  0
TEXT
  5
8509
330
1F
100
AcDbEntity
  8
AM_5
100
AcDbText
 10
454.1905061114365
 20
1224.103453626121
 30
0.0
 40
3.5
  1
2-M3x0.5x4 depth
100
AcDbText
  0
LINE
  5
850B
330
1F
100
AcDbEntity
  8
AM_5
 62
     5
100
AcDbLine
 10
491.6911436125854
 20
1223.067592263255
 30
0.0
 11
453.7367782480704
 21
1223.067592263255
 31
0.0
  0
LINE
  5
850C
330
1F
100
AcDbEntity
  8
AM_5
 62
     5
100
AcDbLine
 10
453.7367782480704
 20
1223.067592263255
 30
0.0
 11
435.4274765810138
 21
1248.435605441478
 31
0.0
  0
TRACE
  5
850D
330
1F
100
AcDbEntity
  8
AM_5
 62
     5
370
    35
100
AcDbTrace
 10
435.7988306077517
 20
1248.708401778354
 30
0.0
 11
435.056122554276
 21
1248.162809104602
 31
0.0
 12
433.3553826740044
 22
1251.256319329935
 32
0.0
 13
433.3553826740044
 23
1251.256319329935
 33
0.0
  0
SPLINE
  5
88F0
330
1F
100
AcDbEntity
  8
0
  6
Continuous
 62
     7
370
    15
100
AcDbSpline
210
0.0
220
0.0
230
1.0
 70
    24
 71
     1
 72
     4
 73
     2
 74
     0
 42
0.0000000001
 43
0.0000000001
 40
0.0
 40
0.0
 40
1.0
 40
1.0
 10
422.1053841492187
 20
1208.068882726512
 30
0.0
 10
422.1053841492187
 20
1200.768883020065
 30
0.0
  0
SPLINE
  5
88F1
330
1F
100
AcDbEntity
  8
0
  6
Continuous
 62
     7
370
    15
100
AcDbSpline
210
0.0
220
0.0
230
1.0
 70
    24
 71
     1
 72
     4
 73
     2
 74
     0
 42
0.0000000001
 43
0.0000000001
 40
0.0
 40
0.0
 40
1.0
 40
1.0
 10
422.3053838094722
 20
1208.268882386765
 30
0.0
 10
422.1053841492187
 20
1208.068882726512
 30
0.0
  0
LINE
  5
88F2
330
1F
100
AcDbEntity
  8
0
  6
Continuous
 62
     7
370
    15
100
AcDbLine
 10
427.6053836127768
 20
1208.068882726512
 30
0.0
 11
422.1053841492187
 21
1208.068882726512
 31
0.0
  0
LINE
  5
88F3
330
1F
100
AcDbEntity
  8
0
  6
Continuous
 62
     7
370
    15
100
AcDbLine
 10
427.6053841492187
 20
1208.068882726512
 30
0.0
 11
427.6053841492187
 21
1200.768883020065
 31
0.0
  0
LINE
  5
88F4
330
1F
100
AcDbEntity
  8
0
  6
Continuous
 62
     7
370
    15
100
AcDbLine
 10
422.3053838094722
 20
1208.268882386765
 30
0.0
 11
427.6053836127768
 21
1208.268882386765
 31
0.0
  0
SPLINE
  5
88F5
330
1F
100
AcDbEntity
  8
0
  6
Continuous
 62
     7
370
    15
100
AcDbSpline
210
0.0
220
0.0
230
1.0
 70
    24
 71
     3
 72
     8
 73
     4
 74
     0
 42
0.0000000001
 43
0.0000000001
 40
0.0
 40
0.0
 40
0.0
 40
0.0
 40
1.0
 40
1.0
 40
1.0
 40
1.0
 10
427.6053841492187
 20
1208.268883071629
 30
0.0
 10
427.6053841492187
 20
1208.205360807049
 30
0.0
 10
427.6053841492187
 20
1208.1384068373
 30
0.0
 10
427.6053841492187
 20
1208.068883071629
 30
0.0
  0
SPLINE
  5
88F6
330
1F
100
AcDbEntity
  8
0
  6
Continuous
 62
     7
370
    15
100
AcDbSpline
210
0.0
220
0.0
230
1.0
 70
    24
 71
     1
 72
     4
 73
     2
 74
     0
 42
0.0000000001
 43
0.0000000001
 40
0.0
 40
0.0
 40
1.0
 40
1.0
 10
422.1553825071107
 20
1310.673939197922
 30
0.0
 10
422.1553825071107
 20
1303.373939491475
 30
0.0
  0
SPLINE
  5
88F7
330
1F
100
AcDbEntity
  8
0
  6
Continuous
 62
     7
370
    15
100
AcDbSpline
210
0.0
220
0.0
230
1.0
 70
    24
 71
     1
 72
     4
 73
     2
 74
     0
 42
0.0000000001
 43
0.0000000001
 40
0.0
 40
0.0
 40
1.0
 40
1.0
 10
422.1553825071107
 20
1303.373939491475
 30
0.0
 10
422.3553821673642
 20
1303.173939831221
 30
0.0
  0
LINE
  5
88F8
330
1F
100
AcDbEntity
  8
0
  6
Continuous
 62
     7
370
    15
100
AcDbLine
 10
427.8553821375619
 20
1303.373939491475
 30
0.0
 11
427.8553821375619
 21
1310.673939197922
 31
0.0
  0
LINE
  5
88F9
330
1F
100
AcDbEntity
  8
0
  6
Continuous
 62
     7
370
    15
100
AcDbLine
 10
422.1553825071107
 20
1303.373939491475
 30
0.0
 11
427.8553821375619
 21
1303.373939491475
 31
0.0
  0
LINE
  5
88FA
330
1F
100
AcDbEntity
  8
0
  6
Continuous
 62
     7
370
    15
100
AcDbLine
 10
427.8553821375619
 20
1303.173939831221
 30
0.0
 11
422.3553821673642
 21
1303.173939831221
 31
0.0
  0
SPLINE
  5
88FB
330
1F
100
AcDbEntity
  8
0
  6
Continuous
 62
     7
370
    15
100
AcDbSpline
210
0.0
220
0.0
230
1.0
 70
    24
 71
     3
 72
     8
 73
     4
 74
     0
 42
0.0000000001
 43
0.0000000001
 40
0.0
 40
0.0
 40
0.0
 40
0.0
 40
1.0
 40
1.0
 40
1.0
 40
1.0
 10
427.8553826740037
 20
1303.373939146357
 30
0.0
 10
427.8553826740037
 20
1303.304415380687
 30
0.0
 10
427.8553826740037
 20
1303.237461410937
 30
0.0
 10
427.8553826740037
 20
1303.173939146357
 30
0.0
  0
SPLINE
  5
88FC
330
1F
100
AcDbEntity
  8
0
  6
Continuous
 62
     7
370
    15
100
AcDbSpline
210
0.0
220
0.0
230
1.0
 70
    24
 71
     1
 72
     4
 73
     2
 74
     0
 42
0.0000000001
 43
0.0000000001
 40
0.0
 40
0.0
 40
1.0
 40
1.0
 10
322.0006887029396
 20
1267.856319175975
 30
0.0
 10
321.8006890426861
 20
1267.65631905006
 30
0.0
  0
SPLINE
  5
88FD
330
1F
100
AcDbEntity
  8
0
  6
Continuous
 62
     7
370
    15
100
AcDbSpline
210
0.0
220
0.0
230
1.0
 70
    24
 71
     1
 72
     4
 73
     2
 74
     0
 42
0.0000000001
 43
0.0000000001
 40
0.0
 40
0.0
 40
1.0
 40
1.0
 10
321.8006890426861
 20
1262.056319302854
 30
0.0
 10
322.0006887029396
 20
1261.856319293354
 30
0.0
  0
LINE
  5
88FE
330
1F
100
AcDbEntity
  8
0
  6
Continuous
 62
     7
370
    15
100
AcDbLine
 10
322.0006887029396
 20
1262.872008194966
 30
0.0
 11
322.0006887029396
 21
1261.856319293354
 31
0.0
  0
LINE
  5
88FF
330
1F
100
AcDbEntity
  8
0
  6
Continuous
 62
     7
370
    15
100
AcDbLine
 10
322.000688692917
 20
1267.856319165952
 30
0.0
 11
322.0006887030715
 21
1266.840631370033
 31
0.0
  0
SPLINE
  5
8900
330
1F
100
AcDbEntity
  8
0
  6
Continuous
 62
     7
370
    15
100
AcDbSpline
210
0.0
220
0.0
230
1.0
 70
     8
 71
     3
 72
     8
 73
     4
 74
     0
 42
0.0000000001
 43
0.0000000001
 40
0.0
 40
0.0
 40
0.0
 40
0.0
 40
1.0
 40
1.0
 40
1.0
 40
1.0
 10
321.8006887029398
 20
1263.211194235333
 30
0.0
 10
321.8642109675195
 20
1263.096278134909
 30
0.0
 10
321.9311649372698
 20
1262.983385528828
 30
0.0
 10
322.0006887029396
 20
1262.872008194967
 30
0.0
  0
SPLINE
  5
8901
330
1F
100
AcDbEntity
  8
0
  6
Continuous
 62
     7
370
    15
100
AcDbSpline
210
0.0
220
0.0
230
1.0
 70
     8
 71
     3
 72
     8
 73
     4
 74
     0
 42
0.0000000001
 43
0.0000000001
 40
0.0
 40
0.0
 40
0.0
 40
0.0
 40
1.0
 40
1.0
 40
1.0
 40
1.0
 10
322.000688012705
 20
1266.840631370033
 30
0.0
 10
321.9311642470349
 20
1266.729254036171
 30
0.0
 10
321.8642102772844
 20
1266.616361430091
 30
0.0
 10
321.8006880127047
 20
1266.501445329667
 30
0.0
  0
LINE
  5
8902
330
1F
100
AcDbEntity
  8
0
  6
Continuous
 62
     7
370
    15
100
AcDbLine
 10
321.8006890426861
 20
1262.056319302854
 30
0.0
 11
321.8006890426861
 21
1267.65631905006
 31
0.0
  0
ARC
  5
8903
330
1F
100
AcDbEntity
  8
0
100
AcDbCircle
 10
425.3553826740038
 20
1264.856319329936
 30
0.0
 40
3.0
100
AcDbArc
 50
41.40957951337523
 51
318.5904204866248
  0
LINE
  5
8904
330
1F
100
AcDbEntity
  8
0
  6
Continuous
 62
     7
370
    15
100
AcDbLine
 10
427.6053841492186
 20
1266.840631140497
 30
0.0
 11
427.6053841492187
 21
1262.872007519375
 31
0.0
  0
ARC
  5
8905
330
1F
100
AcDbEntity
  8
0
100
AcDbCircle
 10
425.355382674004
 20
1264.856319329936
 30
0.0
 40
2.9
100
AcDbArc
 50
39.11669758214958
 51
320.8833024178504
  0
LINE
  5
8906
102
{ACAD_REACTORS
330
890C
102
}
330
1F
100
AcDbEntity
  8
0
100
AcDbLine
 10
329.3006884093867
 20
1267.856319293354
 30
0.0
 11
322.000688692917
 21
1267.856319165952
 31
0.0
  0
LINE
  5
8907
102
{ACAD_REACTORS
330
890C
102
}
330
1F
100
AcDbEntity
  8
0
100
AcDbLine
 10
329.3006884093867
 20
1261.856319293354
 30
0.0
 11
322.0006887029396
 21
1261.856319293354
 31
0.0
  0
LINE
  5
8908
330
1F
100
AcDbEntity
  8
0
100
AcDbLine
 10
322.0006880127048
 20
1266.840631370033
 30
0.0
 11
329.3006884093867
 21
1266.840631370033
 31
0.0
  0
LINE
  5
8909
330
1F
100
AcDbEntity
  8
0
100
AcDbLine
 10
322.0006887029396
 20
1262.872008194966
 30
0.0
 11
329.3006884093867
 21
1262.872008194967
 31
0.0
  0
DIMENSION
  5
890A
102
{ACAD_XDICTIONARY
360
890B
102
}
102
{ACAD_REACTORS
330
890C
102
}
330
1F
100
AcDbEntity
  8
AM_5
100
AcDbDimension
  2
*D73
 10
318.0777196594427
 20
1261.856319283332
 30
0.0
 11
315.6277196594425
 21
1252.794508259709
 31
0.0
 70
    32
  1
%%C<>
 71
     5
 42
5.999999882620386
  3
AM_ISO$0
100
AcDbAlignedDimension
 13
322.000688692917
 23
1267.856319165952
 33
0.0
 14
322.000688692917
 24
1261.856319283332
 34
0.0
 50
90.00000099994926
100
AcDbRotatedDimension
1001
ACAD
1000
DSTYLE
1002
{
1070
    40
1040
1.0
1070
   144
1040
1.0
1070
   271
1070
     1
1070
   272
1070
     8
1002
}
  0
ENDSEC
  0
SECTION
  2
OBJECTS
  0
DICTIONARY
  5
C
330
0
100
AcDbDictionary
281
     1
  3
ACAD_COLOR
350
BE
  3
ACAD_GROUP
350
D
  3
ACAD_LAYOUT
350
1A
  3
ACAD_MATERIAL
350
BD
  3
ACAD_MLINESTYLE
350
17
  3
ACAD_PLOTSETTINGS
350
19
  3
ACAD_PLOTSTYLENAME
350
E
  3
ACAD_TABLESTYLE
350
11A
  3
ACDBHEADERROUNDTRIPXREC
350
8C5E
  3
AcDbVariableDictionary
350
94
  3
AcmDictionary
350
5B
  3
AMG
350
41
  3
AMGSNAPSETTINGS
350
1B8
  3
DWGPROPS
350
8C5D
  3
MAPISURF_MODULE
350
7518
  0
DICTIONARY
  5
3F9
330
2
100
AcDbDictionary
280
     1
281
     1
  3
ACAD_LAYERFILTERS
360
7B3F
  3
ACAD_LAYERSTATES
360
1292
  3
ACLYDICTIONARY
360
7B3E
  3
AMLAYER_GROUPCOLORS
360
11DE
  0
DICTIONARY
  5
8F
330
1F
100
AcDbDictionary
280
     1
281
     1
  3
ACAD_INDEX
360
756C
  3
ACAD_SORTENTS
360
1210
  0
DICTIONARY
  5
7DF7
330
7DEA
100
AcDbDictionary
280
     1
281
     1
  3
ACAD_DIMASSOC
360
7DF8
  0
DICTIONARY
  5
7E1D
330
7E10
100
AcDbDictionary
280
     1
281
     1
  3
ACAD_DIMASSOC
360
7E1E
  0
DICTIONARY
  5
7E43
330
7E36
100
AcDbDictionary
280
     1
281
     1
  3
ACAD_DIMASSOC
360
7E44
  0
DICTIONARY
  5
7E69
330
7E5C
100
AcDbDictionary
280
     1
281
     1
  3
ACAD_DIMASSOC
360
7E6A
  0
DICTIONARY
  5
7F4A
330
7F3D
100
AcDbDictionary
280
     1
281
     1
  3
ACAD_DIMASSOC
360
7F4B
  0
DICTIONARY
  5
7FAA
330
7F9D
100
AcDbDictionary
280
     1
281
     1
  3
ACAD_DIMASSOC
360
7FAB
  0
DICTIONARY
  5
7FD9
330
7FCC
100
AcDbDictionary
280
     1
281
     1
  3
ACAD_DIMASSOC
360
7FDA
  0
DICTIONARY
  5
8008
330
7FFB
100
AcDbDictionary
280
     1
281
     1
  3
ACAD_DIMASSOC
360
8009
  0
DICTIONARY
  5
8066
330
8059
100
AcDbDictionary
280
     1
281
     1
  3
ACAD_DIMASSOC
360
8067
  0
DICTIONARY
  5
8180
330
8171
100
AcDbDictionary
280
     1
281
     1
  3
ACAD_DIMASSOC
360
8181
  0
DICTIONARY
  5
81A8
330
819B
100
AcDbDictionary
280
     1
281
     1
  3
ACAD_DIMASSOC
360
81A9
  0
DICTIONARY
  5
81DF
330
81D0
100
AcDbDictionary
280
     1
281
     1
  3
ACAD_DIMASSOC
360
81E0
  0
DICTIONARY
  5
824C
330
823F
100
AcDbDictionary
280
     1
281
     1
  3
ACAD_DIMASSOC
360
824D
  0
DICTIONARY
  5
8272
330
8265
100
AcDbDictionary
280
     1
281
     1
  3
ACAD_DIMASSOC
360
8273
  0
DICTIONARY
  5
829A
330
828B
100
AcDbDictionary
280
     1
281
     1
  3
ACAD_DIMASSOC
360
829B
  0
DICTIONARY
  5
82C4
330
82B5
100
AcDbDictionary
280
     1
281
     1
  3
ACAD_DIMASSOC
360
82C5
  0
DICTIONARY
  5
8330
330
8323
100
AcDbDictionary
280
     1
281
     1
  3
ACAD_DIMASSOC
360
8331
  0
DICTIONARY
  5
8380
330
8373
100
AcDbDictionary
280
     1
281
     1
  3
ACAD_DIMASSOC
360
8381
  0
DICTIONARY
  5
839A
330
838B
100
AcDbDictionary
280
     1
281
     1
  3
ACAD_DIMASSOC
360
839B
  0
DICTIONARY
  5
83E7
330
83DA
100
AcDbDictionary
280
     1
281
     1
  3
ACAD_DIMASSOC
360
83E8
  0
DICTIONARY
  5
843A
330
842B
100
AcDbDictionary
280
     1
281
     1
  3
ACAD_DIMASSOC
360
843B
  0
DICTIONARY
  5
8464
330
8455
100
AcDbDictionary
280
     1
281
     1
  3
ACAD_DIMASSOC
360
8465
  0
DICTIONARY
  5
848E
330
847F
100
AcDbDictionary
280
     1
281
     1
  3
ACAD_DIMASSOC
360
848F
  0
DICTIONARY
  5
890B
330
890A
100
AcDbDictionary
280
     1
281
     1
  3
ACAD_DIMASSOC
360
890C
  0
DICTIONARY
  5
BE
102
{ACAD_REACTORS
330
C
102
}
330
C
100
AcDbDictionary
281
     1
  0
DICTIONARY
  5
D
102
{ACAD_REACTORS
330
C
102
}
330
C
100
AcDbDictionary
281
     1
  0
DICTIONARY
  5
1A
102
{ACAD_REACTORS
330
C
102
}
330
C
100
AcDbDictionary
281
     1
  3
Model
350
22
  3
配置1
350
1E
  3
配置2
350
26
  0
DICTIONARY
  5
BD
102
{ACAD_REACTORS
330
C
102
}
330
C
100
AcDbDictionary
281
     1
  0
DICTIONARY
  5
17
102
{ACAD_REACTORS
330
C
102
}
330
C
100
AcDbDictionary
281
     1
  3
Standard
350
18
  0
DICTIONARY
  5
19
102
{ACAD_REACTORS
330
C
102
}
330
C
100
AcDbDictionary
281
     1
  0
ACDBDICTIONARYWDFLT
  5
E
102
{ACAD_REACTORS
330
C
102
}
330
C
100
AcDbDictionary
281
     1
  3
Normal
350
F
100
AcDbDictionaryWithDefault
340
F
  0
DICTIONARY
  5
11A
102
{ACAD_REACTORS
330
C
102
}
330
C
100
AcDbDictionary
281
     1
  3
Standard
350
11B
  0
DICTIONARY
  5
8C5E
102
{ACAD_REACTORS
330
C
102
}
330
C
100
AcDbDictionary
281
     1
  0
DICTIONARY
  5
94
102
{ACAD_REACTORS
330
C
102
}
330
C
100
AcDbDictionary
281
     1
  3
CTABLESTYLE
350
138
  3
DIMASSOC
350
96
  3
INDEXCTL
350
95
  3
PROJECTNAME
350
73BF
  0
DICTIONARY
  5
5B
102
{ACAD_REACTORS
330
C
102
}
330
C
100
AcDbDictionary
281
     1
  3
AcmBOM
350
1B5
  3
AcmStdDictionary
350
61
  3
AMDTSECTSYM_ARROWCOLOR
350
123
  0
DICTIONARY
  5
41
102
{ACAD_REACTORS
330
C
102
}
330
C
100
AcDbDictionary
281
     1
  3
AcMgSettings
350
7492
  0
DICTIONARY
  5
1B8
102
{ACAD_REACTORS
330
C
102
}
330
C
100
AcDbDictionary
281
     1
  0
XRECORD
  5
8C5D
102
{ACAD_REACTORS
330
C
102
}
330
C
100
AcDbXrecord
280
     1
  1
DWGPROPS COOKIE
  2

  3

  4

  6

  7

  8

  9

300
AmdtFileType=84
301
=
302
=
303
=
304
=
305
=
306
=
307
=
308
=
309
=
 40
1.473510532407407
 41
2453916.626557615
 42
2456496.672907072
  1

 90
        1
  0
DICTIONARY
  5
7B3F
102
{ACAD_REACTORS
330
3F9
102
}
330
3F9
100
AcDbDictionary
281
     1
  0
DICTIONARY
  5
1292
102
{ACAD_REACTORS
330
3F9
102
}
330
3F9
100
AcDbDictionary
281
     1
  0
DICTIONARY
  5
7B3E
102
{ACAD_REACTORS
330
3F9
102
}
330
3F9
100
AcDbDictionary
281
     1
1001
ACAD
1000
<All
  0
DICTIONARY
  5
11DE
102
{ACAD_REACTORS
330
3F9
102
}
330
3F9
100
AcDbDictionary
280
     1
281
     1
  0
DICTIONARY
  5
756C
102
{ACAD_REACTORS
330
8F
102
}
330
8F
100
AcDbDictionary
281
     1
  3
*A1
350
756D
  0
SORTENTSTABLE
  5
1210
102
{ACAD_REACTORS
330
8F
102
}
330
8F
100
AcDbSortentsTable
330
1F
331
7A38
  5
7A38
331
7AAC
  5
7AAC
331
7ACB
  5
7ACB
331
7AEA
  5
7AEA
331
7B09
  5
7B09
331
7B20
  5
7B20
331
7B5E
  5
7B5E
331
79C4
  5
79C4
331
79E3
  5
79E3
331
7A21
  5
7A21
331
6BCF
  5
6BCF
331
7035
  5
7035
331
704C
  5
704C
331
706B
  5
706B
331
7902
  5
7902
331
7921
  5
7921
331
7938
  5
7938
331
78E3
  5
78E3
331
7FFB
  5
7FFB
331
7A77
  5
7A77
331
7AAD
  5
7AAD
331
7ACC
  5
7ACC
331
7AEB
  5
7AEB
331
7B0A
  5
7B0A
331
7B21
  5
7B21
331
79C5
  5
79C5
331
79E4
  5
79E4
331
7A03
  5
7A03
331
7A22
  5
7A22
331
7A39
  5
7A39
331
7036
  5
7036
331
706C
  5
706C
331
78E4
  5
78E4
331
7903
  5
7903
331
7922
  5
7922
331
7939
  5
7939
331
7958
  5
7958
331
7AAE
  5
7AAE
331
7ACD
  5
7ACD
331
7AEC
  5
7AEC
331
7B0B
  5
7B0B
331
7B22
  5
7B22
331
79C6
  5
79C6
331
7A04
  5
7A04
331
7A23
  5
7A23
331
7A3A
  5
7A3A
331
7A78
  5
7A78
331
708C
  5
708C
331
7037
  5
7037
331
706D
  5
706D
331
6BD9
  5
6BD9
331
78E5
  5
78E5
331
7904
  5
7904
331
7923
  5
7923
331
793A
  5
793A
331
7959
  5
7959
331
7978
  5
7978
331
7AAF
  5
7AAF
331
7ACE
  5
7ACE
331
7AED
  5
7AED
331
7B0C
  5
7B0C
331
7B23
  5
7B23
331
79E6
  5
79E6
331
7A05
  5
7A05
331
7A24
  5
7A24
331
7A3B
  5
7A3B
331
7A79
  5
7A79
331
7A98
  5
7A98
331
706E
  5
706E
331
78E6
  5
78E6
331
7905
  5
7905
331
7924
  5
7924
331
793B
  5
793B
331
795A
  5
795A
331
7979
  5
7979
331
7998
  5
7998
331
7AEE
  5
7AEE
331
7B0D
  5
7B0D
331
7B24
  5
7B24
331
79C8
  5
79C8
331
79E7
  5
79E7
331
7A25
  5
7A25
331
7A3C
  5
7A3C
331
7A5B
  5
7A5B
331
7A7A
  5
7A7A
331
7A99
  5
7A99
331
7AB0
  5
7AB0
331
7ACF
  5
7ACF
331
7050
  5
7050
331
706F
  5
706F
331
819B
  5
819B
331
7925
  5
7925
331
793C
  5
793C
331
795B
  5
795B
331
797A
  5
797A
331
7999
  5
7999
331
78E7
  5
78E7
331
7906
  5
7906
331
7B25
  5
7B25
331
7B44
  5
7B44
331
7B63
  5
7B63
331
7A26
  5
7A26
331
7A3D
  5
7A3D
331
7A5C
  5
7A5C
331
7A7B
  5
7A7B
331
7A9A
  5
7A9A
331
7AB1
  5
7AB1
331
7AEF
  5
7AEF
331
7B0E
  5
7B0E
331
7070
  5
7070
331
795C
  5
795C
331
799A
  5
799A
331
78E8
  5
78E8
331
7907
  5
7907
331
7926
  5
7926
331
793D
  5
793D
331
7B64
  5
7B64
331
79CA
  5
79CA
331
7A08
  5
7A08
331
7A27
  5
7A27
331
7A3E
  5
7A3E
331
7A5D
  5
7A5D
331
7A7C
  5
7A7C
331
7A9B
  5
7A9B
331
7AB2
  5
7AB2
331
7AF0
  5
7AF0
331
7B0F
  5
7B0F
331
7B26
  5
7B26
331
7B45
  5
7B45
331
7071
  5
7071
331
799B
  5
799B
331
78E9
  5
78E9
331
7908
  5
7908
331
7927
  5
7927
331
793E
  5
793E
331
795D
  5
795D
331
797C
  5
797C
331
7A3F
  5
7A3F
331
7A5E
  5
7A5E
331
7A7D
  5
7A7D
331
7A9C
  5
7A9C
331
7AB3
  5
7AB3
331
7AD2
  5
7AD2
331
7AF1
  5
7AF1
331
7B10
  5
7B10
331
7B27
  5
7B27
331
79CB
  5
79CB
331
79EA
  5
79EA
331
7072
  5
7072
331
7928
  5
7928
331
793F
  5
793F
331
795E
  5
795E
331
799C
  5
799C
331
78CB
  5
78CB
331
78EA
  5
78EA
331
7909
  5
7909
331
8059
  5
8059
331
7A40
  5
7A40
331
7A5F
  5
7A5F
331
7A7E
  5
7A7E
331
7A9D
  5
7A9D
331
7AB4
  5
7AB4
331
7AF2
  5
7AF2
331
7B11
  5
7B11
331
7B28
  5
7B28
331
79CC
  5
79CC
331
79EB
  5
79EB
331
7A0A
  5
7A0A
331
709A
  5
709A
331
7054
  5
7054
331
7073
  5
7073
331
78EB
  5
78EB
331
790A
  5
790A
331
7929
  5
7929
331
7940
  5
7940
331
795F
  5
795F
331
797E
  5
797E
331
799D
  5
799D
331
78CC
  5
78CC
331
7FCC
  5
7FCC
331
7A60
  5
7A60
331
7A7F
  5
7A7F
331
7A9E
  5
7A9E
331
7AB5
  5
7AB5
331
7AF3
  5
7AF3
331
7B12
  5
7B12
331
7B29
  5
7B29
331
79CD
  5
79CD
331
7A41
  5
7A41
331
709B
  5
709B
331
7074
  5
7074
331
8323
  5
8323
331
8171
  5
8171
331
78CD
  5
78CD
331
78EC
  5
78EC
331
790B
  5
790B
331
792A
  5
792A
331
7941
  5
7941
331
7960
  5
7960
331
799E
  5
799E
331
7A9F
  5
7A9F
331
7AB6
  5
7AB6
331
7AD5
  5
7AD5
331
7AF4
  5
7AF4
331
7B13
  5
7B13
331
79CE
  5
79CE
331
7A0C
  5
7A0C
331
7A42
  5
7A42
331
7A61
  5
7A61
331
7A80
  5
7A80
331
7075
  5
7075
331
78CE
  5
78CE
331
78ED
  5
78ED
331
790C
  5
790C
331
792B
  5
792B
331
7942
  5
7942
331
7961
  5
7961
331
7980
  5
7980
331
799F
  5
799F
331
7AD6
  5
7AD6
331
7AF5
  5
7AF5
331
7B14
  5
7B14
331
79CF
  5
79CF
331
79EE
  5
79EE
331
7A0D
  5
7A0D
331
7A43
  5
7A43
331
7A62
  5
7A62
331
7A81
  5
7A81
331
7AB7
  5
7AB7
331
7076
  5
7076
331
8373
  5
8373
331
78EE
  5
78EE
331
790D
  5
790D
331
792C
  5
792C
331
7943
  5
7943
331
7962
  5
7962
331
7981
  5
7981
331
79A0
  5
79A0
331
78CF
  5
78CF
331
7B15
  5
7B15
331
7A0E
  5
7A0E
331
7A44
  5
7A44
331
7A63
  5
7A63
331
7A82
  5
7A82
331
7AB8
  5
7AB8
331
7AD7
  5
7AD7
331
7AF6
  5
7AF6
331
7077
  5
7077
331
792D
  5
792D
331
7944
  5
7944
331
7963
  5
7963
331
7982
  5
7982
331
79A1
  5
79A1
331
78D0
  5
78D0
331
78EF
  5
78EF
331
790E
  5
790E
331
7A45
  5
7A45
331
7A64
  5
7A64
331
7A83
  5
7A83
331
7AB9
  5
7AB9
331
7AD8
  5
7AD8
331
7AF7
  5
7AF7
331
7B16
  5
7B16
331
7964
  5
7964
331
7983
  5
7983
331
79A2
  5
79A2
331
78D1
  5
78D1
331
78F0
  5
78F0
331
790F
  5
790F
331
792E
  5
792E
331
7945
  5
7945
331
7A46
  5
7A46
331
7A65
  5
7A65
331
7A84
  5
7A84
331
7ABA
  5
7ABA
331
7AD9
  5
7AD9
331
7AF8
  5
7AF8
331
7B17
  5
7B17
331
7B4D
  5
7B4D
331
79A3
  5
79A3
331
78D2
  5
78D2
331
78F1
  5
78F1
331
7910
  5
7910
331
792F
  5
792F
331
7946
  5
7946
331
7965
  5
7965
331
7984
  5
7984
331
7A47
  5
7A47
331
7A85
  5
7A85
331
7ABB
  5
7ABB
331
7ADA
  5
7ADA
331
7AF9
  5
7AF9
331
7B4E
  5
7B4E
331
828B
  5
828B
331
78D3
  5
78D3
331
78F2
  5
78F2
331
7911
  5
7911
331
7930
  5
7930
331
7947
  5
7947
331
7966
  5
7966
331
7985
  5
7985
331
79A4
  5
79A4
331
7A86
  5
7A86
331
7ABC
  5
7ABC
331
7ADB
  5
7ADB
331
7AFA
  5
7AFA
331
78D4
  5
78D4
331
78F3
  5
78F3
331
7912
  5
7912
331
7931
  5
7931
331
7948
  5
7948
331
7967
  5
7967
331
7986
  5
7986
331
79A5
  5
79A5
331
7A87
  5
7A87
331
7ABD
  5
7ABD
331
7ADC
  5
7ADC
331
7AFB
  5
7AFB
331
78D5
  5
78D5
331
78F4
  5
78F4
331
7913
  5
7913
331
7932
  5
7932
331
7949
  5
7949
331
7968
  5
7968
331
7987
  5
7987
331
79A6
  5
79A6
331
7ABE
  5
7ABE
331
7ADD
  5
7ADD
331
7AFC
  5
7AFC
331
7B51
  5
7B51
331
78D6
  5
78D6
331
78F5
  5
78F5
331
7914
  5
7914
331
7933
  5
7933
331
794A
  5
794A
331
7969
  5
7969
331
7988
  5
7988
331
79A7
  5
79A7
331
7ADE
  5
7ADE
331
7AFD
  5
7AFD
331
7B33
  5
7B33
331
7B52
  5
7B52
331
7ABF
  5
7ABF
331
7915
  5
7915
331
7934
  5
7934
331
794B
  5
794B
331
796A
  5
796A
331
7989
  5
7989
331
79A8
  5
79A8
331
78D7
  5
78D7
331
78F6
  5
78F6
331
7B34
  5
7B34
331
7B53
  5
7B53
331
7ADF
  5
7ADF
331
7AFE
  5
7AFE
331
82DF
  5
82DF
331
822A
  5
822A
331
794C
  5
794C
331
796B
  5
796B
331
798A
  5
798A
331
79A9
  5
79A9
331
78D8
  5
78D8
331
7916
  5
7916
331
7935
  5
7935
331
7B54
  5
7B54
331
7AFF
  5
7AFF
331
7B35
  5
7B35
331
822B
  5
822B
331
798B
  5
798B
331
79AA
  5
79AA
331
78D9
  5
78D9
331
7917
  5
7917
331
7936
  5
7936
331
794D
  5
794D
331
796C
  5
796C
331
7B36
  5
7B36
331
7B55
  5
7B55
331
842B
  5
842B
331
78DA
  5
78DA
331
7918
  5
7918
331
7937
  5
7937
331
794E
  5
794E
331
796D
  5
796D
331
798C
  5
798C
331
79AB
  5
79AB
331
7B37
  5
7B37
331
7B56
  5
7B56
331
822D
  5
822D
331
7919
  5
7919
331
794F
  5
794F
331
796E
  5
796E
331
798D
  5
798D
331
79AC
  5
79AC
331
78DB
  5
78DB
331
802A
  5
802A
331
6788
  5
6788
331
8265
  5
8265
331
822E
  5
822E
331
78DC
  5
78DC
331
791A
  5
791A
331
7950
  5
7950
331
796F
  5
796F
331
798E
  5
798E
331
79AD
  5
79AD
331
6789
  5
6789
331
822F
  5
822F
331
798F
  5
798F
331
78DD
  5
78DD
331
78FC
  5
78FC
331
791B
  5
791B
331
7951
  5
7951
331
7970
  5
7970
331
81D0
  5
81D0
331
78DE
  5
78DE
331
78FD
  5
78FD
331
791C
  5
791C
331
7952
  5
7952
331
7971
  5
7971
331
7990
  5
7990
331
7953
  5
7953
331
7972
  5
7972
331
7991
  5
7991
331
791D
  5
791D
331
807D
  5
807D
331
78DF
  5
78DF
331
78FE
  5
78FE
331
7954
  5
7954
331
7973
  5
7973
331
7992
  5
7992
331
807E
  5
807E
331
78FF
  5
78FF
331
791E
  5
791E
331
7993
  5
7993
331
791F
  5
791F
331
7955
  5
7955
331
7974
  5
7974
331
7DD0
  5
7DD0
331
7956
  5
7956
331
7994
  5
7994
331
7E10
  5
7E10
331
7DD1
  5
7DD1
331
7957
  5
7957
331
7976
  5
7976
331
7995
  5
7995
331
7DD2
  5
7DD2
331
7977
  5
7977
331
7996
  5
7996
331
7DD3
  5
7DD3
331
8455
  5
8455
331
823F
  5
823F
331
82B5
  5
82B5
331
7997
  5
7997
331
7DD4
  5
7DD4
331
838B
  5
838B
331
83DA
  5
83DA
331
7E5C
  5
7E5C
331
8501
  5
8501
331
8502
  5
8502
331
7F3D
  5
7F3D
331
7DEA
  5
7DEA
331
8503
  5
8503
331
7F85
  5
7F85
331
8504
  5
8504
331
7F86
  5
7F86
331
7020
  5
7020
331
7F88
  5
7F88
331
7021
  5
7021
331
7038
  5
7038
331
7F89
  5
7F89
331
79D0
  5
79D0
331
7058
  5
7058
331
79D1
  5
79D1
331
79F0
  5
79F0
331
7059
  5
7059
331
7023
  5
7023
331
79D2
  5
79D2
331
79F1
  5
79F1
331
7A10
  5
7A10
331
79B3
  5
79B3
331
7024
  5
7024
331
705A
  5
705A
331
7A28
  5
7A28
331
79B4
  5
79B4
331
79D3
  5
79D3
331
7025
  5
7025
331
703C
  5
703C
331
7A48
  5
7A48
331
79B5
  5
79B5
331
79D4
  5
79D4
331
79F3
  5
79F3
331
7A12
  5
7A12
331
7A29
  5
7A29
331
70AA
  5
70AA
331
7026
  5
7026
331
707B
  5
707B
331
79B6
  5
79B6
331
79D5
  5
79D5
331
79F4
  5
79F4
331
7A13
  5
7A13
331
7A2A
  5
7A2A
331
7A49
  5
7A49
331
70AB
  5
70AB
331
7027
  5
7027
331
707C
  5
707C
331
79B7
  5
79B7
331
79D6
  5
79D6
331
79F5
  5
79F5
331
7A14
  5
7A14
331
7A2B
  5
7A2B
331
7A4A
  5
7A4A
331
7A88
  5
7A88
331
70AC
  5
70AC
331
7028
  5
7028
331
705E
  5
705E
331
707D
  5
707D
331
847F
  5
847F
331
79B8
  5
79B8
331
7A2C
  5
7A2C
331
7A4B
  5
7A4B
331
7A89
  5
7A89
331
7AA0
  5
7AA0
331
7029
  5
7029
331
7040
  5
7040
331
705F
  5
705F
331
707E
  5
707E
331
70AD
  5
70AD
331
7E36
  5
7E36
331
7DC8
  5
7DC8
331
79B9
  5
79B9
331
79D8
  5
79D8
331
79F7
  5
79F7
331
7A2D
  5
7A2D
331
7A4C
  5
7A4C
331
7A8A
  5
7A8A
331
7AA1
  5
7AA1
331
702A
  5
702A
331
7041
  5
7041
331
7060
  5
7060
331
707F
  5
707F
331
70AE
  5
70AE
331
7DC9
  5
7DC9
331
79BA
  5
79BA
331
79D9
  5
79D9
331
7A17
  5
7A17
331
7A2E
  5
7A2E
331
7A4D
  5
7A4D
331
7A6C
  5
7A6C
331
7A8B
  5
7A8B
331
7AA2
  5
7AA2
331
7AE0
  5
7AE0
331
7061
  5
7061
331
7080
  5
7080
331
70AF
  5
70AF
331
702B
  5
702B
331
7DCA
  5
7DCA
331
79DA
  5
79DA
331
79F9
  5
79F9
331
7A18
  5
7A18
331
7A2F
  5
7A2F
331
7A4E
  5
7A4E
331
7A6D
  5
7A6D
331
7A8C
  5
7A8C
331
7AA3
  5
7AA3
331
7AE1
  5
7AE1
331
7B00
  5
7B00
331
70B0
  5
70B0
331
702C
  5
702C
331
7062
  5
7062
331
7DCB
  5
7DCB
331
7A19
  5
7A19
331
7A30
  5
7A30
331
7A4F
  5
7A4F
331
7A6E
  5
7A6E
331
7A8D
  5
7A8D
331
7AA4
  5
7AA4
331
7AE2
  5
7AE2
331
7B01
  5
7B01
331
7B18
  5
7B18
331
79DB
  5
79DB
331
79FA
  5
79FA
331
70B1
  5
70B1
331
702D
  5
702D
331
7063
  5
7063
331
7DCC
  5
7DCC
331
7F9D
  5
7F9D
331
7A50
  5
7A50
331
7A6F
  5
7A6F
331
7A8E
  5
7A8E
331
7AA5
  5
7AA5
331
7AE3
  5
7AE3
331
7B02
  5
7B02
331
7B19
  5
7B19
331
79BD
  5
79BD
331
79DC
  5
79DC
331
79FB
  5
79FB
331
7A1A
  5
7A1A
331
7A31
  5
7A31
331
7083
  5
7083
331
70B2
  5
70B2
331
702E
  5
702E
331
7045
  5
7045
331
7064
  5
7064
331
7DCD
  5
7DCD
331
7F6F
  5
7F6F
331
7A70
  5
7A70
331
7A8F
  5
7A8F
331
7AA6
  5
7AA6
331
7AE4
  5
7AE4
331
7B03
  5
7B03
331
7B1A
  5
7B1A
331
79BE
  5
79BE
331
79DD
  5
79DD
331
7A1B
  5
7A1B
331
7A32
  5
7A32
331
7A51
  5
7A51
331
7084
  5
7084
331
70B3
  5
70B3
331
702F
  5
702F
331
7046
  5
7046
331
7065
  5
7065
331
7F70
  5
7F70
331
7DCE
  5
7DCE
331
7AA7
  5
7AA7
331
7AC6
  5
7AC6
331
7AE5
  5
7AE5
331
7B04
  5
7B04
331
7B1B
  5
7B1B
331
79BF
  5
79BF
331
79DE
  5
79DE
331
7A1C
  5
7A1C
331
7A33
  5
7A33
331
7A52
  5
7A52
331
7A71
  5
7A71
331
7A90
  5
7A90
331
70B4
  5
70B4
331
7030
  5
7030
331
7047
  5
7047
331
7066
  5
7066
331
7085
  5
7085
331
7DCF
  5
7DCF
331
7AE6
  5
7AE6
331
7B05
  5
7B05
331
7B1C
  5
7B1C
331
79C0
  5
79C0
331
79DF
  5
79DF
331
79FE
  5
79FE
331
7A1D
  5
7A1D
331
7A34
  5
7A34
331
7A53
  5
7A53
331
7A72
  5
7A72
331
7A91
  5
7A91
331
7AA8
  5
7AA8
331
7AC7
  5
7AC7
331
7031
  5
7031
331
7048
  5
7048
331
7067
  5
7067
331
70B5
  5
70B5
331
7B1D
  5
7B1D
331
79C1
  5
79C1
331
79E0
  5
79E0
331
79FF
  5
79FF
331
7A1E
  5
7A1E
331
7A35
  5
7A35
331
7A54
  5
7A54
331
7A73
  5
7A73
331
7A92
  5
7A92
331
7AA9
  5
7AA9
331
7AC8
  5
7AC8
331
7AE7
  5
7AE7
331
7B06
  5
7B06
331
7032
  5
7032
331
7049
  5
7049
331
7068
  5
7068
331
78E0
  5
78E0
331
79C2
  5
79C2
331
79E1
  5
79E1
331
7A1F
  5
7A1F
331
7A36
  5
7A36
331
7A55
  5
7A55
331
7A74
  5
7A74
331
7A93
  5
7A93
331
7AAA
  5
7AAA
331
7AC9
  5
7AC9
331
7AE8
  5
7AE8
331
7B07
  5
7B07
331
7B1E
  5
7B1E
331
7069
  5
7069
331
7033
  5
7033
331
704A
  5
704A
331
78E1
  5
78E1
331
7900
  5
7900
331
7A01
  5
7A01
331
7A20
  5
7A20
331
7A37
  5
7A37
331
7A56
  5
7A56
331
7AAB
  5
7AAB
331
7ACA
  5
7ACA
331
7AE9
  5
7AE9
331
7B08
  5
7B08
331
7B1F
  5
7B1F
331
7B5D
  5
7B5D
331
79C3
  5
79C3
331
79E2
  5
79E2
331
7034
  5
7034
331
704B
  5
704B
331
706A
  5
706A
331
78E2
  5
78E2
331
7901
  5
7901
331
7920
  5
7920
  0
DIMASSOC
  5
7DF8
102
{ACAD_REACTORS
330
7DF7
102
}
330
7DF7
100
AcDbDimAssoc
330
7DEA
 90
        3
 70
     0
 71
     0
  1
AcDbOsnapPointRef
 72
     1
331
7B51
 73
     0
 91
        0
 40
0.0
 10
0.0
 20
0.0
 30
2.000000000000000E+50
 75
     0
  1
AcDbOsnapPointRef
 72
     1
331
7B53
 73
     0
 91
        0
 40
0.0
 10
0.0
 20
0.0
 30
2.000000000000000E+50
 75
     0
  0
DIMASSOC
  5
7E1E
102
{ACAD_REACTORS
330
7E1D
102
}
330
7E1D
100
AcDbDimAssoc
330
7E10
 90
        3
 70
     0
 71
     0
  1
AcDbOsnapPointRef
 72
     1
331
7B54
 73
     0
 91
        0
 40
0.0
 10
0.0
 20
0.0
 30
2.000000000000000E+50
 75
     0
  1
AcDbOsnapPointRef
 72
    13
331
7A86
 73
     0
 91
        0
 40
0.0
 10
0.0
 20
0.0
 30
2.000000000000000E+50
 75
     0
  0
DIMASSOC
  5
7E44
102
{ACAD_REACTORS
330
7E43
102
}
330
7E43
100
AcDbDimAssoc
330
7E36
 90
        3
 70
     0
 71
     0
  1
AcDbOsnapPointRef
 72
    13
331
79A0
 73
     0
 91
        0
 40
0.0
 10
0.0
 20
0.0
 30
2.000000000000000E+50
 75
     0
  1
AcDbOsnapPointRef
 72
    13
331
799F
 73
     0
 91
        0
 40
0.0
 10
0.0
 20
0.0
 30
2.000000000000000E+50
 75
     0
  0
DIMASSOC
  5
7E6A
102
{ACAD_REACTORS
330
7E69
102
}
330
7E69
100
AcDbDimAssoc
330
7E5C
 90
        2
 70
     0
 71
     0
  1
AcDbOsnapPointRef
 72
     1
331
7B4D
 73
     0
 91
        0
 40
0.0
 10
0.0
 20
0.0
 30
2.000000000000000E+50
 75
     0
  0
DIMASSOC
  5
7F4B
102
{ACAD_REACTORS
330
7F4A
102
}
330
7F4A
100
AcDbDimAssoc
330
7F3D
 90
        3
 70
     0
 71
     0
  1
AcDbOsnapPointRef
 72
     1
331
7B4D
 73
     0
 91
        0
 40
0.0
 10
0.0
 20
0.0
 30
2.000000000000000E+50
 75
     0
  1
AcDbOsnapPointRef
 72
    13
331
799F
 73
     0
 91
        0
 40
0.0
 10
0.0
 20
0.0
 30
2.000000000000000E+50
 75
     0
  0
DIMASSOC
  5
7FAB
102
{ACAD_REACTORS
330
7FAA
102
}
330
7FAA
100
AcDbDimAssoc
330
7F9D
 90
        3
 70
     0
 71
     0
  1
AcDbOsnapPointRef
 72
    13
331
799F
 73
     0
 91
        0
 40
0.0
 10
0.0
 20
0.0
 30
2.000000000000000E+50
 75
     0
  1
AcDbOsnapPointRef
 72
     1
331
7F89
 73
     0
 91
        0
 40
0.0
 10
0.0
 20
0.0
 30
2.000000000000000E+50
 75
     0
  0
DIMASSOC
  5
7FDA
102
{ACAD_REACTORS
330
7FD9
102
}
330
7FD9
100
AcDbDimAssoc
330
7FCC
 90
        3
 70
     0
 71
     0
  1
AcDbOsnapPointRef
 72
     1
331
79AA
 73
     0
 91
        0
 40
0.0
 10
0.0
 20
0.0
 30
2.000000000000000E+50
 75
     0
  1
AcDbOsnapPointRef
 72
    13
331
799F
 73
     0
 91
        0
 40
0.0
 10
0.0
 20
0.0
 30
2.000000000000000E+50
 75
     0
  0
DIMASSOC
  5
8009
102
{ACAD_REACTORS
330
8008
102
}
330
8008
100
AcDbDimAssoc
330
7FFB
 90
        3
 70
     0
 71
     0
  1
AcDbOsnapPointRef
 72
    13
331
7F85
 73
     0
 91
        0
 40
0.0
 10
0.0
 20
0.0
 30
2.000000000000000E+50
 75
     0
  1
AcDbOsnapPointRef
 72
    13
331
7F88
 73
     0
 91
        0
 40
0.0
 10
0.0
 20
0.0
 30
2.000000000000000E+50
 75
     0
  0
DIMASSOC
  5
8067
102
{ACAD_REACTORS
330
8066
102
}
330
8066
100
AcDbDimAssoc
330
8059
 90
        3
 70
     0
 71
     0
  1
AcDbOsnapPointRef
 72
    13
331
7939
 73
     0
 91
        0
 40
0.0
 10
0.0
 20
0.0
 30
2.000000000000000E+50
 75
     0
  1
AcDbOsnapPointRef
 72
     1
331
7937
 73
     0
 91
        0
 40
0.0
 10
0.0
 20
0.0
 30
2.000000000000000E+50
 75
     0
  0
DIMASSOC
  5
8181
102
{ACAD_REACTORS
330
8180
102
}
330
8180
100
AcDbDimAssoc
330
8171
 90
        3
 70
     0
 71
     0
  1
AcDbOsnapPointRef
 72
    13
331
7F70
 73
     0
 91
        0
 40
0.0
 10
0.0
 20
0.0
 30
2.000000000000000E+50
 75
     0
  1
AcDbOsnapPointRef
 72
    13
331
79A0
 73
     0
 91
        0
 40
0.0
 10
0.0
 20
0.0
 30
2.000000000000000E+50
 75
     0
  0
DIMASSOC
  5
81A9
102
{ACAD_REACTORS
330
81A8
102
}
330
81A8
100
AcDbDimAssoc
330
819B
 90
        3
 70
     0
 71
     0
  1
AcDbOsnapPointRef
 72
    13
331
7B45
 73
     0
 91
        0
 40
0.0
 10
0.0
 20
0.0
 30
2.000000000000000E+50
 75
     0
  1
AcDbOsnapPointRef
 72
    13
331
79A0
 73
     0
 91
        0
 40
0.0
 10
0.0
 20
0.0
 30
2.000000000000000E+50
 75
     0
  0
DIMASSOC
  5
81E0
102
{ACAD_REACTORS
330
81DF
102
}
330
81DF
100
AcDbDimAssoc
330
81D0
 90
        1
 70
     0
 71
     0
  1
AcDbOsnapPointRef
 72
     1
331
7987
 73
     0
 91
        0
 40
0.0
 10
0.0
 20
0.0
 30
2.000000000000000E+50
 75
     0
  0
DIMASSOC
  5
824D
102
{ACAD_REACTORS
330
824C
102
}
330
824C
100
AcDbDimAssoc
330
823F
 90
        3
 70
     0
 71
     0
  1
AcDbOsnapPointRef
 72
     1
331
7B64
 73
     0
 91
        0
 40
0.0
 10
0.0
 20
0.0
 30
2.000000000000000E+50
 75
     0
  1
AcDbOsnapPointRef
 72
     1
331
7A1D
 73
     0
 91
        0
 40
0.0
 10
0.0
 20
0.0
 30
2.000000000000000E+50
 75
     0
  0
DIMASSOC
  5
8273
102
{ACAD_REACTORS
330
8272
102
}
330
8272
100
AcDbDimAssoc
330
8265
 90
        3
 70
     0
 71
     0
  1
AcDbOsnapPointRef
 72
    13
331
7B63
 73
     0
 91
        0
 40
0.0
 10
0.0
 20
0.0
 30
2.000000000000000E+50
 75
     0
  1
AcDbOsnapPointRef
 72
    13
331
7B55
 73
     0
 91
        0
 40
0.0
 10
0.0
 20
0.0
 30
2.000000000000000E+50
 75
     0
  0
DIMASSOC
  5
829B
102
{ACAD_REACTORS
330
829A
102
}
330
829A
100
AcDbDimAssoc
330
828B
 90
        3
 70
     0
 71
     0
  1
AcDbOsnapPointRef
 72
    13
331
822E
 73
     0
 91
        0
 40
0.0
 10
0.0
 20
0.0
 30
2.000000000000000E+50
 75
     0
  1
AcDbOsnapPointRef
 72
    13
331
7A2C
 73
     0
 91
        0
 40
0.0
 10
0.0
 20
0.0
 30
2.000000000000000E+50
 75
     0
  0
DIMASSOC
  5
82C5
102
{ACAD_REACTORS
330
82C4
102
}
330
82C4
100
AcDbDimAssoc
330
82B5
 90
        3
 70
     0
 71
     0
  1
AcDbOsnapPointRef
 72
    13
331
7A41
 73
     0
 91
        0
 40
0.0
 10
0.0
 20
0.0
 30
2.000000000000000E+50
 75
     0
  1
AcDbOsnapPointRef
 72
    13
331
7A2C
 73
     0
 91
        0
 40
0.0
 10
0.0
 20
0.0
 30
2.000000000000000E+50
 75
     0
  0
DIMASSOC
  5
8331
102
{ACAD_REACTORS
330
8330
102
}
330
8330
100
AcDbDimAssoc
330
8323
 90
        3
 70
     0
 71
     0
  1
AcDbOsnapPointRef
 72
     1
331
7ADB
 73
     0
 91
        0
 40
0.0
 10
0.0
 20
0.0
 30
2.000000000000000E+50
 75
     0
  1
AcDbOsnapPointRef
 72
    13
331
7ADD
 73
     0
 91
        0
 40
0.0
 10
0.0
 20
0.0
 30
2.000000000000000E+50
 75
     0
  0
DIMASSOC
  5
8381
102
{ACAD_REACTORS
330
8380
102
}
330
8380
100
AcDbDimAssoc
330
8373
 90
        2
 70
     0
 71
     0
  1
AcDbOsnapPointRef
 72
    13
331
7B27
 73
     0
 91
        0
 40
0.0
 10
0.0
 20
0.0
 30
2.000000000000000E+50
 75
     0
  0
DIMASSOC
  5
839B
102
{ACAD_REACTORS
330
839A
102
}
330
839A
100
AcDbDimAssoc
330
838B
 90
        3
 70
     0
 71
     0
  1
AcDbOsnapPointRef
 72
     1
331
7B24
 73
     0
 91
        0
 40
0.0
 10
0.0
 20
0.0
 30
2.000000000000000E+50
 75
     0
  1
AcDbOsnapPointRef
 72
    13
331
7B27
 73
     0
 91
        0
 40
0.0
 10
0.0
 20
0.0
 30
2.000000000000000E+50
 75
     0
  0
DIMASSOC
  5
83E8
102
{ACAD_REACTORS
330
83E7
102
}
330
83E7
100
AcDbDimAssoc
330
83DA
 90
        2
 70
     0
 71
     0
  1
AcDbOsnapPointRef
 72
    13
331
7ADD
 73
     0
 91
        0
 40
0.0
 10
0.0
 20
0.0
 30
2.000000000000000E+50
 75
     0
  0
DIMASSOC
  5
843B
102
{ACAD_REACTORS
330
843A
102
}
330
843A
100
AcDbDimAssoc
330
842B
 90
        3
 70
     0
 71
     0
  1
AcDbOsnapPointRef
 72
     3
331
7AD7
 73
     0
 91
        0
 40
5.507991933869297
 10
0.0
 20
0.0
 30
0.0
 75
     0
  1
AcDbOsnapPointRef
 72
     1
331
7ADF
 73
     0
 91
        0
 40
0.0
 10
0.0
 20
0.0
 30
2.000000000000000E+50
 75
     0
  0
DIMASSOC
  5
8465
102
{ACAD_REACTORS
330
8464
102
}
330
8464
100
AcDbDimAssoc
330
8455
 90
        3
 70
     0
 71
     0
  1
AcDbOsnapPointRef
 72
     3
331
842B
331
7AD7
 73
     0
 91
        0
 40
5.507991933869297
 10
0.0
 20
0.0
 30
0.0
 75
     0
  1
AcDbOsnapPointRef
 72
     1
331
7ADE
 73
     0
 91
        0
 40
0.0
 10
0.0
 20
0.0
 30
2.000000000000000E+50
 75
     0
  0
DIMASSOC
  5
848F
102
{ACAD_REACTORS
330
848E
102
}
330
848E
100
AcDbDimAssoc
330
847F
 90
        3
 70
     0
 71
     0
  1
AcDbOsnapPointRef
 72
     1
331
7B26
 73
     0
 91
        0
 40
0.0
 10
0.0
 20
0.0
 30
2.000000000000000E+50
 75
     0
  1
AcDbOsnapPointRef
 72
    13
331
7B34
 73
     0
 91
        0
 40
0.0
 10
0.0
 20
0.0
 30
2.000000000000000E+50
 75
     0
  0
DIMASSOC
  5
890C
102
{ACAD_REACTORS
330
890B
102
}
330
890B
100
AcDbDimAssoc
330
890A
 90
        3
 70
     0
 71
     0
  1
AcDbOsnapPointRef
 72
     1
331
8906
 73
     0
 91
        0
 40
0.0
 10
0.0
 20
0.0
 30
2.000000000000000E+50
 75
     0
  1
AcDbOsnapPointRef
 72
     1
331
8907
 73
     0
 91
        0
 40
0.0
 10
0.0
 20
0.0
 30
2.000000000000000E+50
 75
     0
  0
LAYOUT
  5
22
102
{ACAD_XDICTIONARY
360
8C61
102
}
102
{ACAD_REACTORS
330
1A
102
}
330
1A
100
AcDbPlotSettings
  1

  2
\\RD\EPSON Stylus C63 Series單色
  4
A4
  6

 40
3.757083177566528
 41
3.757076978683471
 42
3.757080078125
 43
3.757080078125
 44
209.9733276367187
 45
296.9683227539062
 46
0.0
 47
0.0
 48
0.0
 49
0.0
140
0.0
141
0.0
142
1.0
143
0.3405120737814363
 70
 11952
 72
     1
 73
     0
 74
     0
  7
彩色出圖.ctb
 75
     0
147
2.936753428137963
148
-2047.07469463503
149
-1261.649717473083
100
AcDbLayout
  1
Model
 70
     1
 71
     0
 10
0.0
 20
0.0
 11
12.0
 21
9.0
 12
0.0
 22
0.0
 32
0.0
 14
0.0
 24
0.0
 34
0.0
 15
0.0
 25
0.0
 35
0.0
146
0.0
 13
0.0
 23
0.0
 33
0.0
 16
1.0
 26
0.0
 36
0.0
 17
0.0
 27
1.0
 37
0.0
 76
     0
330
1F
1001
ACAD_PSEXT
1000
\\RD\EPSON Stylus C63 Series單色
1000
EPSON Stylus C63 Series
1000
\\RD
1000

1070
     0
  0
LAYOUT
  5
1E
102
{ACAD_XDICTIONARY
360
8C5F
102
}
102
{ACAD_REACTORS
330
1A
102
}
330
1A
100
AcDbPlotSettings
  1

  2

  4

  6

 40
0.0
 41
0.0
 42
0.0
 43
0.0
 44
0.0
 45
0.0
 46
0.0
 47
0.0
 48
0.0
 49
0.0
140
0.0
141
0.0
142
1.0
143
1.0
 70
   688
 72
     0
 73
     0
 74
     5
  7
彩色出圖.ctb
 75
    16
147
1.0
148
0.0
149
0.0
100
AcDbLayout
  1
配置1
 70
     1
 71
     1
 10
0.0
 20
0.0
 11
420.0
 21
297.0
 12
0.0
 22
0.0
 32
0.0
 14
1.000000000000000E+20
 24
1.000000000000000E+20
 34
1.000000000000000E+20
 15
-1.000000000000000E+20
 25
-1.000000000000000E+20
 35
-1.000000000000000E+20
146
0.0
 13
0.0
 23
0.0
 33
0.0
 16
1.0
 26
0.0
 36
0.0
 17
0.0
 27
1.0
 37
0.0
 76
     0
330
1B
  0
LAYOUT
  5
26
102
{ACAD_XDICTIONARY
360
8C63
102
}
102
{ACAD_REACTORS
330
1A
102
}
330
1A
100
AcDbPlotSettings
  1

  2

  4

  6

 40
0.0
 41
0.0
 42
0.0
 43
0.0
 44
0.0
 45
0.0
 46
0.0
 47
0.0
 48
0.0
 49
0.0
140
0.0
141
0.0
142
1.0
143
1.0
 70
   688
 72
     0
 73
     0
 74
     5
  7
彩色出圖.ctb
 75
    16
147
1.0
148
0.0
149
0.0
100
AcDbLayout
  1
配置2
 70
     1
 71
     2
 10
0.0
 20
0.0
 11
12.0
 21
9.0
 12
0.0
 22
0.0
 32
0.0
 14
0.0
 24
0.0
 34
0.0
 15
0.0
 25
0.0
 35
0.0
146
0.0
 13
0.0
 23
0.0
 33
0.0
 16
1.0
 26
0.0
 36
0.0
 17
0.0
 27
1.0
 37
0.0
 76
     0
330
23
  0
MLINESTYLE
  5
18
102
{ACAD_REACTORS
330
17
102
}
330
17
100
AcDbMlineStyle
  2
STANDARD
 70
     0
  3

 62
   256
 51
90.0
 52
90.0
 71
     2
 49
0.5
 62
   256
  6
BYLAYER
 49
-0.5
 62
   256
  6
BYLAYER
  0
ACDBPLACEHOLDER
  5
F
102
{ACAD_REACTORS
330
E
102
}
330
E
  0
TABLESTYLE
  5
11B
102
{ACAD_REACTORS
330
11A
102
}
330
11A
100
AcDbTableStyle
  3
Standard
 70
     0
 71
     0
 40
1.5
 41
1.5
280
     0
281
     0
  7
STANDARD
140
4.5
170
     2
 62
     0
 63
     7
283
     0
274
    -2
284
     1
 64
     0
275
    -2
285
     1
 65
     0
276
    -2
286
     1
 66
     0
277
    -2
287
     1
 67
     0
278
    -2
288
     1
 68
     0
279
    -2
289
     1
 69
     0
  7
STANDARD
140
6.0
170
     5
 62
     0
 63
     7
283
     0
274
    -2
284
     1
 64
     0
275
    -2
285
     1
 65
     0
276
    -2
286
     1
 66
     0
277
    -2
287
     1
 67
     0
278
    -2
288
     1
 68
     0
279
    -2
289
     1
 69
     0
  7
STANDARD
140
4.5
170
     5
 62
     0
 63
     7
283
     0
274
    -2
284
     1
 64
     0
275
    -2
285
     1
 65
     0
276
    -2
286
     1
 66
     0
277
    -2
287
     1
 67
     0
278
    -2
288
     1
 68
     0
279
    -2
289
     1
 69
     0
  0
DICTIONARYVAR
  5
138
102
{ACAD_REACTORS
330
94
102
}
330
94
100
DictionaryVariables
280
     0
  1
STANDARD
  0
DICTIONARYVAR
  5
96
102
{ACAD_REACTORS
330
94
102
}
330
94
100
DictionaryVariables
280
     0
  1
2
  0
DICTIONARYVAR
  5
95
102
{ACAD_REACTORS
330
94
102
}
330
94
100
DictionaryVariables
280
     0
  1
1
  0
DICTIONARYVAR
  5
73BF
102
{ACAD_REACTORS
330
94
102
}
330
94
100
DictionaryVariables
280
     0
  1

  0
DICTIONARY
  5
1B5
102
{ACAD_REACTORS
330
5B
102
}
330
5B
100
AcDbDictionary
281
     1
  0
DICTIONARY
  5
61
102
{ACAD_REACTORS
330
5B
102
}
330
5B
100
AcDbDictionary
281
     1
  0
XRECORD
  5
123
102
{ACAD_REACTORS
330
5B
102
}
330
5B
100
AcDbXrecord
280
     1
 90
-1023410169
  0
DICTIONARY
  5
7492
102
{ACAD_REACTORS
330
41
102
}
330
41
100
AcDbDictionary
281
     1
  3
DWGSETTINGS
350
7493
  3
Shaft
350
7B3B
  3
TRANSSETTINGS
350
7496
  0
LAYER_INDEX
  5
756D
102
{ACAD_REACTORS
330
756C
102
}
330
756C
100
AcDbIndex
 40
2456496.672907072
100
AcDbLayerIndex
  8
0
360
756E
 90
      577
  8
AM_VIS
360
756F
 90
        0
  8
AM_7
360
7570
 90
       27
  8
AM_4
360
7571
 90
        0
  8
AM_0
360
7572
 90
        0
  8
AM_5
360
7573
 90
       36
  8
Defpoints
360
7574
 90
        0
  8
BORDER
360
7575
 90
        0
  8
LOGO
360
7576
 90
      103
  8
BOR
360
7577
 90
        0
  0
DICTIONARY
  5
8C61
330
22
100
AcDbDictionary
280
     1
281
     1
  3
ACAD_XREC_ROUNDTRIP
360
8C62
  0
DICTIONARY
  5
8C5F
330
1E
100
AcDbDictionary
280
     1
281
     1
  3
ACAD_XREC_ROUNDTRIP
360
8C60
  0
DICTIONARY
  5
8C63
330
26
100
AcDbDictionary
280
     1
281
     1
  3
ACAD_XREC_ROUNDTRIP
360
8C64
  0
IDBUFFER
  5
756E
330
0
100
AcDbIdBuffer
330
6BCF
330
6BD9
330
70B6
330
70B7
330
70B8
330
78CB
330
78CC
330
78CD
330
78CE
330
78CF
330
78D0
330
78D1
330
78D2
330
78D3
330
78D4
330
78D5
330
78D6
330
78D7
330
78D8
330
78D9
330
78DA
330
78DB
330
78DC
330
78DD
330
78DE
330
78DF
330
78E0
330
78E1
330
78E2
330
78E3
330
78E4
330
78E5
330
78E6
330
78E7
330
78E8
330
78E9
330
78EA
330
78EB
330
78EC
330
78ED
330
78EE
330
78EF
330
78F0
330
78F1
330
78F2
330
78F3
330
78F4
330
78F5
330
78F6
330
78FC
330
78FD
330
78FE
330
78FF
330
7900
330
7901
330
7902
330
7903
330
7904
330
7905
330
7906
330
7907
330
7908
330
7909
330
790A
330
790B
330
790C
330
790D
330
790E
330
790F
330
7910
330
7911
330
7912
330
7913
330
7914
330
7915
330
7916
330
7917
330
7918
330
7919
330
791A
330
791B
330
791C
330
791D
330
791E
330
791F
330
7920
330
7921
330
7922
330
7923
330
7924
330
7925
330
7926
330
7927
330
7928
330
7929
330
792A
330
792B
330
792C
330
792D
330
792E
330
792F
330
7930
330
7931
330
7932
330
7933
330
7934
330
7935
330
7936
330
7937
330
7938
330
7939
330
793A
330
793B
330
793C
330
793D
330
793E
330
793F
330
7940
330
7941
330
7942
330
7943
330
7944
330
7945
330
7946
330
7947
330
7948
330
7949
330
794A
330
794B
330
794C
330
794D
330
794E
330
794F
330
7950
330
7951
330
7952
330
7953
330
7954
330
7955
330
7956
330
7957
330
7958
330
7959
330
795A
330
795B
330
795C
330
795D
330
795E
330
795F
330
7960
330
7961
330
7962
330
7963
330
7964
330
7965
330
7966
330
7967
330
7968
330
7969
330
796A
330
796B
330
796C
330
796D
330
796E
330
796F
330
7970
330
7971
330
7972
330
7973
330
7974
330
7976
330
7977
330
7978
330
7979
330
797A
330
797C
330
797E
330
7980
330
7981
330
7982
330
7983
330
7984
330
7985
330
7986
330
7987
330
7988
330
7989
330
798A
330
798B
330
798C
330
798D
330
798E
330
798F
330
7990
330
7991
330
7992
330
7993
330
7994
330
7995
330
7996
330
7997
330
7998
330
7999
330
799A
330
799B
330
799C
330
799D
330
799E
330
799F
330
79A0
330
79A1
330
79A2
330
79A3
330
79A4
330
79A5
330
79A6
330
79A7
330
79A8
330
79A9
330
79AA
330
79AB
330
79AC
330
79AD
330
79B3
330
79B4
330
79B5
330
79B6
330
79B7
330
79B8
330
79B9
330
79BA
330
79BD
330
79BE
330
79BF
330
79C0
330
79C1
330
79C2
330
79C3
330
79C4
330
79C5
330
79C6
330
79C8
330
79CA
330
79CB
330
79CC
330
79CD
330
79CE
330
79CF
330
79D0
330
79D1
330
79D2
330
79D3
330
79D4
330
79D5
330
79D6
330
79D8
330
79D9
330
79DA
330
79DB
330
79DC
330
79DD
330
79DE
330
79DF
330
79E0
330
79E1
330
79E2
330
79E3
330
79E4
330
79E6
330
79E7
330
79EA
330
79EB
330
79EE
330
79F0
330
79F1
330
79F3
330
79F4
330
79F5
330
79F7
330
79F9
330
79FA
330
79FB
330
79FE
330
79FF
330
7A01
330
7A03
330
7A04
330
7A05
330
7A08
330
7A0A
330
7A0C
330
7A0D
330
7A0E
330
7A10
330
7A12
330
7A13
330
7A14
330
7A17
330
7A18
330
7A19
330
7A1A
330
7A1B
330
7A1C
330
7A1D
330
7A1E
330
7A1F
330
7A20
330
7A21
330
7A22
330
7A23
330
7A24
330
7A25
330
7A26
330
7A27
330
7A28
330
7A29
330
7A2A
330
7A2B
330
7A2C
330
7A2D
330
7A2E
330
7A2F
330
7A30
330
7A31
330
7A32
330
7A33
330
7A34
330
7A35
330
7A36
330
7A37
330
7A38
330
7A39
330
7A3A
330
7A3B
330
7A3C
330
7A3D
330
7A3E
330
7A3F
330
7A40
330
7A41
330
7A42
330
7A43
330
7A44
330
7A45
330
7A46
330
7A47
330
7A48
330
7A49
330
7A4A
330
7A4B
330
7A4C
330
7A4D
330
7A4E
330
7A4F
330
7A50
330
7A51
330
7A52
330
7A53
330
7A54
330
7A55
330
7A56
330
7A5B
330
7A5C
330
7A5D
330
7A5E
330
7A5F
330
7A60
330
7A61
330
7A62
330
7A63
330
7A64
330
7A65
330
7A6C
330
7A6D
330
7A6E
330
7A6F
330
7A70
330
7A71
330
7A72
330
7A73
330
7A74
330
7A77
330
7A78
330
7A79
330
7A7A
330
7A7B
330
7A7C
330
7A7D
330
7A7E
330
7A7F
330
7A80
330
7A81
330
7A82
330
7A83
330
7A84
330
7A85
330
7A86
330
7A87
330
7A88
330
7A89
330
7A8A
330
7A8B
330
7A8C
330
7A8D
330
7A8E
330
7A8F
330
7A90
330
7A91
330
7A92
330
7A93
330
7A98
330
7A99
330
7A9A
330
7A9B
330
7A9C
330
7A9D
330
7A9E
330
7A9F
330
7AA0
330
7AA1
330
7AA2
330
7AA3
330
7AA4
330
7AA5
330
7AA6
330
7AA7
330
7AA8
330
7AA9
330
7AAA
330
7AAB
330
7AAC
330
7AAD
330
7AAE
330
7AAF
330
7AB0
330
7AB1
330
7AB2
330
7AB3
330
7AB4
330
7AB5
330
7AB6
330
7AB7
330
7AB8
330
7AB9
330
7ABA
330
7ABB
330
7ABC
330
7ABD
330
7ABE
330
7ABF
330
7AC6
330
7AC7
330
7AC8
330
7AC9
330
7ACA
330
7ACB
330
7ACC
330
7ACD
330
7ACE
330
7ACF
330
7AD2
330
7AD5
330
7AD6
330
7AD7
330
7AD8
330
7AD9
330
7ADA
330
7ADB
330
7ADC
330
7ADD
330
7ADE
330
7ADF
330
7AE0
330
7AE1
330
7AE2
330
7AE3
330
7AE4
330
7AE5
330
7AE6
330
7AE7
330
7AE8
330
7AE9
330
7AEA
330
7AEB
330
7AEC
330
7AED
330
7AEE
330
7AEF
330
7AF0
330
7AF1
330
7AF2
330
7AF3
330
7AF4
330
7AF5
330
7AF6
330
7AF7
330
7AF8
330
7AF9
330
7AFA
330
7AFB
330
7AFC
330
7AFD
330
7AFE
330
7AFF
330
7B00
330
7B01
330
7B02
330
7B03
330
7B04
330
7B05
330
7B06
330
7B07
330
7B08
330
7B09
330
7B0A
330
7B0B
330
7B0C
330
7B0D
330
7B0E
330
7B0F
330
7B10
330
7B11
330
7B12
330
7B13
330
7B14
330
7B15
330
7B16
330
7B17
330
7B18
330
7B19
330
7B1A
330
7B1B
330
7B1C
330
7B1D
330
7B1E
330
7B1F
330
7B20
330
7B21
330
7B22
330
7B23
330
7B24
330
7B25
330
7B26
330
7B27
330
7B28
330
7B29
330
7B33
330
7B34
330
7B35
330
7B36
330
7B37
330
88F0
330
88F1
330
88F2
330
88F3
330
88F4
330
88F5
330
88F6
330
88F7
330
88F8
330
88F9
330
88FA
330
88FB
330
88FC
330
88FD
330
88FE
330
88FF
330
8900
330
8901
330
8902
330
8903
330
8904
330
8905
330
8906
330
8907
330
8908
330
8909
  0
IDBUFFER
  5
756F
330
0
100
AcDbIdBuffer
  0
IDBUFFER
  5
7570
330
0
100
AcDbIdBuffer
330
7B44
330
7B45
330
7B4D
330
7B4E
330
7B51
330
7B52
330
7B53
330
7B54
330
7B55
330
7B56
330
7B5D
330
7B5E
330
7B63
330
7B64
330
7F6F
330
7F70
330
7F85
330
7F86
330
7F88
330
7F89
330
807D
330
807E
330
822A
330
822B
330
822D
330
822E
330
822F
  0
IDBUFFER
  5
7571
330
0
100
AcDbIdBuffer
  0
IDBUFFER
  5
7572
330
0
100
AcDbIdBuffer
  0
IDBUFFER
  5
7573
330
0
100
AcDbIdBuffer
330
6788
330
6789
330
7DEA
330
7E10
330
7E36
330
7E5C
330
7F3D
330
7F9D
330
7FCC
330
7FFB
330
802A
330
8059
330
8171
330
819B
330
81D0
330
823F
330
8265
330
828B
330
82B5
330
82DF
330
8323
330
8373
330
838B
330
83DA
330
842B
330
8455
330
847F
330
8501
330
8502
330
8503
330
8504
330
8509
330
850B
330
850C
330
850D
330
890A
  0
IDBUFFER
  5
7574
330
0
100
AcDbIdBuffer
  0
IDBUFFER
  5
7575
330
0
100
AcDbIdBuffer
  0
IDBUFFER
  5
7576
330
0
100
AcDbIdBuffer
330
7020
330
7021
330
7023
330
7024
330
7025
330
7026
330
7027
330
7028
330
7029
330
702A
330
702B
330
702C
330
702D
330
702E
330
702F
330
7030
330
7031
330
7032
330
7033
330
7034
330
7035
330
7036
330
7037
330
7038
330
703C
330
7040
330
7041
330
7045
330
7046
330
7047
330
7048
330
7049
330
704A
330
704B
330
704C
330
7050
330
7054
330
7058
330
7059
330
705A
330
705E
330
705F
330
7060
330
7061
330
7062
330
7063
330
7064
330
7065
330
7066
330
7067
330
7068
330
7069
330
706A
330
706B
330
706C
330
706D
330
706E
330
706F
330
7070
330
7071
330
7072
330
7073
330
7074
330
7075
330
7076
330
7077
330
707B
330
707C
330
707D
330
707E
330
707F
330
7080
330
7083
330
7084
330
7085
330
708C
330
709A
330
709B
330
70AA
330
70AB
330
70AC
330
70AD
330
70AE
330
70AF
330
70B0
330
70B1
330
70B2
330
70B3
330
70B4
330
70B5
330
7DC8
330
7DC9
330
7DCA
330
7DCB
330
7DCC
330
7DCD
330
7DCE
330
7DCF
330
7DD0
330
7DD1
330
7DD2
330
7DD3
330
7DD4
  0
IDBUFFER
  5
7577
330
0
100
AcDbIdBuffer
  0
XRECORD
  5
8C62
102
{ACAD_REACTORS
330
8C61
102
}
330
8C61
100
AcDbXrecord
280
     1
102
SHADEPLOT
 70
     0
102
SHADEPLOTRESLEVEL
 70
     2
102
SHADEPLOTCUSTOMDPI
 70
   300
  0
XRECORD
  5
8C60
102
{ACAD_REACTORS
330
8C5F
102
}
330
8C5F
100
AcDbXrecord
280
     1
102
SHADEPLOT
 70
     0
102
SHADEPLOTRESLEVEL
 70
     2
102
SHADEPLOTCUSTOMDPI
 70
   300
  0
XRECORD
  5
8C64
102
{ACAD_REACTORS
330
8C63
102
}
330
8C63
100
AcDbXrecord
280
     1
102
SHADEPLOT
 70
     0
102
SHADEPLOTRESLEVEL
 70
     2
102
SHADEPLOTCUSTOMDPI
 70
   300
  0
ENDSEC
  0
EOF
