  0
SECTION
  2
HEADER
  9
$ACADVER
  1
AC1015
  9
$ACADMAINTVER
 70
    20
  9
$DWGCODEPAGE
  3
ANSI_950
  9
$INSBASE
 10
0.0
 20
0.0
 30
0.0
  9
$EXTMIN
 10
293.4303886823485
 20
1133.137776259556
 30
-0.0000000000000135
  9
$EXTMAX
 10
540.9303886823486
 20
1393.485065550521
 30
196.5865886400747
  9
$LIMMIN
 10
0.0
 20
0.0
  9
$LIMMAX
 10
420.0
 20
297.0
  9
$ORTHOMODE
 70
     0
  9
$REGENMODE
 70
     1
  9
$FILLMODE
 70
     1
  9
$QTEXTMODE
 70
     0
  9
$MIRRTEXT
 70
     1
  9
$LTSCALE
 40
1.0
  9
$ATTMODE
 70
     1
  9
$TEXTSIZE
 40
3.0
  9
$TRACEWID
 40
1.0
  9
$TEXTSTYLE
  7
STANDARD
  9
$CLAYER
  8
0
  9
$CELTYPE
  6
ByLayer
  9
$CECOLOR
 62
   256
  9
$CELTSCALE
 40
1.0
  9
$DISPSILH
 70
     0
  9
$DIMSCALE
 40
1.0
  9
$DIMASZ
 40
3.0
  9
$DIMEXO
 40
1.0
  9
$DIMDLI
 40
8.0
  9
$DIMRND
 40
0.0
  9
$DIMDLE
 40
0.0
  9
$DIMEXE
 40
1.5
  9
$DIMTP
 40
0.1
  9
$DIMTM
 40
0.1
  9
$DIMTXT
 40
3.5
  9
$DIMCEN
 40
0.0
  9
$DIMTSZ
 40
0.0
  9
$DIMTOL
 70
     0
  9
$DIMLIM
 70
     0
  9
$DIMTIH
 70
     0
  9
$DIMTOH
 70
     0
  9
$DIMSE1
 70
     0
  9
$DIMSE2
 70
     0
  9
$DIMTAD
 70
     1
  9
$DIMZIN
 70
     8
  9
$DIMBLK
  1

  9
$DIMASO
 70
     1
  9
$DIMSHO
 70
     1
  9
$DIMPOST
  1

  9
$DIMAPOST
  1
"
  9
$DIMALT
 70
     0
  9
$DIMALTD
 70
     2
  9
$DIMALTF
 40
0.0393701
  9
$DIMLFAC
 40
1.0
  9
$DIMTOFL
 70
     1
  9
$DIMTVP
 40
0.0
  9
$DIMTIX
 70
     0
  9
$DIMSOXD
 70
     0
  9
$DIMSAH
 70
     0
  9
$DIMBLK1
  1

  9
$DIMBLK2
  1

  9
$DIMSTYLE
  2
AM_ISO
  9
$DIMCLRD
 70
   256
  9
$DIMCLRE
 70
   256
  9
$DIMCLRT
 70
   256
  9
$DIMTFAC
 40
0.6
  9
$DIMGAP
 40
0.7
  9
$DIMJUST
 70
     0
  9
$DIMSD1
 70
     0
  9
$DIMSD2
 70
     0
  9
$DIMTOLJ
 70
     0
  9
$DIMTZIN
 70
     8
  9
$DIMALTZ
 70
     0
  9
$DIMALTTZ
 70
     0
  9
$DIMUPT
 70
     0
  9
$DIMDEC
 70
     1
  9
$DIMTDEC
 70
     8
  9
$DIMALTU
 70
     2
  9
$DIMALTTD
 70
     2
  9
$DIMTXSTY
  7
STANDARD
  9
$DIMAUNIT
 70
     0
  9
$DIMADEC
 70
     0
  9
$DIMALTRND
 40
0.0
  9
$DIMAZIN
 70
     2
  9
$DIMDSEP
 70
    46
  9
$DIMATFIT
 70
     3
  9
$DIMFRAC
 70
     0
  9
$DIMLDRBLK
  1

  9
$DIMLUNIT
 70
     2
  9
$DIMLWD
 70
    -1
  9
$DIMLWE
 70
    -1
  9
$DIMTMOVE
 70
     0
  9
$LUNITS
 70
     2
  9
$LUPREC
 70
     2
  9
$SKETCHINC
 40
1.0
  9
$FILLETRAD
 40
2.5
  9
$AUNITS
 70
     0
  9
$AUPREC
 70
     0
  9
$MENU
  1
.
  9
$ELEVATION
 40
0.0
  9
$PELEVATION
 40
0.0
  9
$THICKNESS
 40
0.0
  9
$LIMCHECK
 70
     0
  9
$CHAMFERA
 40
0.5
  9
$CHAMFERB
 40
0.5
  9
$CHAMFERC
 40
20.0
  9
$CHAMFERD
 40
0.0
  9
$SKPOLY
 70
     0
  9
$TDCREATE
 40
2453916.626557615
  9
$TDUCREATE
 40
2453916.293224283
  9
$TDUPDATE
 40
2456496.666764861
  9
$TDUUPDATE
 40
2456496.333431528
  9
$TDINDWG
 40
1.5008833912
  9
$TDUSRTIMER
 40
1.5008832060
  9
$USRTIMER
 70
     1
  9
$ANGBASE
 50
0.0
  9
$ANGDIR
 70
     0
  9
$PDMODE
 70
     0
  9
$PDSIZE
 40
0.0
  9
$PLINEWID
 40
0.0
  9
$SPLFRAME
 70
     0
  9
$SPLINETYPE
 70
     6
  9
$SPLINESEGS
 70
     8
  9
$HANDSEED
  5
9549
  9
$SURFTAB1
 70
     6
  9
$SURFTAB2
 70
     6
  9
$SURFTYPE
 70
     6
  9
$SURFU
 70
     6
  9
$SURFV
 70
     6
  9
$UCSBASE
  2

  9
$UCSNAME
  2

  9
$UCSORG
 10
0.0
 20
0.0
 30
0.0
  9
$UCSXDIR
 10
1.0
 20
0.0
 30
0.0
  9
$UCSYDIR
 10
0.0
 20
1.0
 30
0.0
  9
$UCSORTHOREF
  2

  9
$UCSORTHOVIEW
 70
     0
  9
$UCSORGTOP
 10
0.0
 20
0.0
 30
0.0
  9
$UCSORGBOTTOM
 10
0.0
 20
0.0
 30
0.0
  9
$UCSORGLEFT
 10
0.0
 20
0.0
 30
0.0
  9
$UCSORGRIGHT
 10
0.0
 20
0.0
 30
0.0
  9
$UCSORGFRONT
 10
0.0
 20
0.0
 30
0.0
  9
$UCSORGBACK
 10
0.0
 20
0.0
 30
0.0
  9
$PUCSBASE
  2

  9
$PUCSNAME
  2

  9
$PUCSORG
 10
0.0
 20
0.0
 30
0.0
  9
$PUCSXDIR
 10
1.0
 20
0.0
 30
0.0
  9
$PUCSYDIR
 10
0.0
 20
1.0
 30
0.0
  9
$PUCSORTHOREF
  2

  9
$PUCSORTHOVIEW
 70
     0
  9
$PUCSORGTOP
 10
0.0
 20
0.0
 30
0.0
  9
$PUCSORGBOTTOM
 10
0.0
 20
0.0
 30
0.0
  9
$PUCSORGLEFT
 10
0.0
 20
0.0
 30
0.0
  9
$PUCSORGRIGHT
 10
0.0
 20
0.0
 30
0.0
  9
$PUCSORGFRONT
 10
0.0
 20
0.0
 30
0.0
  9
$PUCSORGBACK
 10
0.0
 20
0.0
 30
0.0
  9
$USERI1
 70
     0
  9
$USERI2
 70
     0
  9
$USERI3
 70
     0
  9
$USERI4
 70
     0
  9
$USERI5
 70
     0
  9
$USERR1
 40
0.0
  9
$USERR2
 40
0.0
  9
$USERR3
 40
0.0
  9
$USERR4
 40
0.0
  9
$USERR5
 40
0.0
  9
$WORLDVIEW
 70
     1
  9
$SHADEDGE
 70
     3
  9
$SHADEDIF
 70
    70
  9
$TILEMODE
 70
     1
  9
$MAXACTVP
 70
    64
  9
$PINSBASE
 10
0.0
 20
0.0
 30
0.0
  9
$PLIMCHECK
 70
     0
  9
$PEXTMIN
 10
1.000000000000000E+20
 20
1.000000000000000E+20
 30
1.000000000000000E+20
  9
$PEXTMAX
 10
-1.000000000000000E+20
 20
-1.000000000000000E+20
 30
-1.000000000000000E+20
  9
$PLIMMIN
 10
0.0
 20
0.0
  9
$PLIMMAX
 10
420.0
 20
297.0
  9
$UNITMODE
 70
     0
  9
$VISRETAIN
 70
     1
  9
$PLINEGEN
 70
     0
  9
$PSLTSCALE
 70
     1
  9
$TREEDEPTH
 70
  3020
  9
$CMLSTYLE
  2
Standard
  9
$CMLJUST
 70
     0
  9
$CMLSCALE
 40
20.0
  9
$PROXYGRAPHICS
 70
     1
  9
$MEASUREMENT
 70
     1
  9
$CELWEIGHT
370
    -1
  9
$ENDCAPS
280
     0
  9
$JOINSTYLE
280
     0
  9
$LWDISPLAY
290
     0
  9
$INSUNITS
 70
     4
  9
$HYPERLINKBASE
  1

  9
$STYLESHEET
  1
彩色出圖.ctb
  9
$XEDIT
290
     1
  9
$CEPSNTYPE
380
     0
  9
$PSTYLEMODE
290
     1
  9
$FINGERPRINTGUID
  2
{13FD0162-0574-45C5-AF42-8725A3412D43}
  9
$VERSIONGUID
  2
{73A5063D-9A38-4ADB-8EDA-93AB2259269A}
  9
$EXTNAMES
290
     1
  9
$PSVPSCALE
 40
0.0
  9
$OLESTARTUP
290
     0
  0
ENDSEC
  0
SECTION
  2
CLASSES
  0
CLASS
  1
ACDBDICTIONARYWDFLT
  2
AcDbDictionaryWithDefault
  3
ObjectDBX Classes
 90
        0
280
     0
281
     0
  0
CLASS
  1
ACDBPLACEHOLDER
  2
AcDbPlaceHolder
  3
ObjectDBX Classes
 90
        0
280
     0
281
     0
  0
CLASS
  1
LAYOUT
  2
AcDbLayout
  3
ObjectDBX Classes
 90
        0
280
     0
281
     0
  0
CLASS
  1
ACME_DOCUMENT
  2
AcMeDbDoc
  3
AcMeServices
 90
        0
280
     0
281
     0
  0
CLASS
  1
AMGSETTINGSOBJ
  2
AmgSettingsObj
  3
"AcadM|Product Description: AutoCAD Mechanical 2000|Company: Autodesk"
 90
        0
280
     0
281
     0
  0
CLASS
  1
ACMESCOPE
  2
AcMeScope
  3
AcMeServices
 90
        0
280
     0
281
     0
  0
CLASS
  1
ACMECOMMANDHISTORY
  2
AcMeCommandHistory
  3
AcMeServices
 90
        0
280
     0
281
     0
  0
CLASS
  1
ACIMSYSVARMAN
  2
AcImSysVarManager
  3
AcMeServices
 90
        0
280
     0
281
     0
  0
CLASS
  1
ACIMREALSYSVAR
  2
AcImRealSysVar
  3
AcMeServices
 90
        0
280
     0
281
     0
  0
CLASS
  1
ACIMINTSYSVAR
  2
AcImIntSysVar
  3
AcMeServices
 90
        0
280
     0
281
     0
  0
CLASS
  1
ACMEDRAWINGMAN
  2
AcMeDrawingMan
  3
AcMeServices
 90
        0
280
     0
281
     0
  0
CLASS
  1
ACMEVIEW
  2
AcMeView
  3
AcMeServices
 90
        0
280
     0
281
     0
  0
CLASS
  1
ACDBENTITYCACHE
  2
AcMeEntityCache
  3
AcMeServices
 90
        0
280
     0
281
     0
  0
CLASS
  1
GSMANAGER
  2
AcMeGSManager
  3
AcMeServices
 90
        0
280
     0
281
     0
  0
CLASS
  1
AMDTINTERNALREACTOR
  2
AmdtInternalReactor
  3
AcMeServices
 90
        0
280
     0
281
     0
  0
CLASS
  1
ACMESTATEMGR
  2
AcMeStateMgr
  3
AcMeServices
 90
        0
280
     0
281
     0
  0
CLASS
  1
ACGREFMASTER
  2
AcGrefMaster
  3
AcAttribServices
 90
        0
280
     0
281
     0
  0
CLASS
  1
ACME_DATABASE
  2
AcMeDbDatabase
  3
AcMeServices
 90
        0
280
     0
281
     0
  0
CLASS
  1
ACRFINSADJUSTERMGR
  2
AcRfInsAdjusterMgr
  3
AcMeServices
 90
        0
280
     0
281
     0
  0
CLASS
  1
ACGREFACADMASTER
  2
AcGrefacadMaster
  3
AcGrefServices
 90
        0
280
     0
281
     0
  0
CLASS
  1
AMIMASTER
  2
AmiMaster
  3
AmiServices
 90
        0
280
     0
281
     0
  0
CLASS
  1
ACMDATADICTIONARY
  2
AcmDataDictionary
  3
"AcmSymBB|Product Description: AutoCAD Mechanical 2004 DX|Company: Autodesk"
 90
        0
280
     0
281
     0
  0
CLASS
  1
ACMDATAENTRYBLOCK
  2
AcmDataEntryBlock
  3
"AcmSymBB|Product Description: AutoCAD Mechanical 2004 DX|Company: Autodesk"
 90
        0
280
     0
281
     0
  0
CLASS
  1
ACIMSTRSYSVAR
  2
AcImStrSysVar
  3
AcMeServices
 90
        0
280
     0
281
     0
  0
CLASS
  1
ACMSTANDARDISO
  2
AcmStandardISO
  3
"Amdt_StdImp|Product Description: AutoCAD Mechanical 2004 DX|Company: Autodesk"
 90
        0
280
     0
281
     0
  0
CLASS
  1
AMGOBJPROPCFG
  2
AmgObjPropCfg
  3
"AmgLay|Product Description: AutoCAD Mechanical 2000|Company: Autodesk"
 90
        1
280
     0
281
     0
  0
CLASS
  1
AMDTEDGESTANDARDISO
  2
AmdtEdgeStdISO
  3
"Amdt_StdImp|Product Description: AutoCAD Mechanical 2004 DX|Company: Autodesk"
 90
    32768
280
     0
281
     0
  0
CLASS
  1
ACMSURFSTANDARDISO
  2
AcmSurfTextStdISO
  3
"Amdt_StdImp|Product Description: AutoCAD Mechanical 2004 DX|Company: Autodesk"
 90
        0
280
     0
281
     0
  0
CLASS
  1
ACMFCFSTANDARDISO
  2
AcmFCFStdISO
  3
"Amdt_StdImp|Product Description: AutoCAD Mechanical 2004 DX|Company: Autodesk"
 90
        0
280
     0
281
     0
  0
CLASS
  1
ACMWELDSTANDARDISO
  2
AcmWeldingStdISO
  3
"Amdt_StdImp|Product Description: AutoCAD Mechanical 2004 DX|Company: Autodesk"
 90
        0
280
     0
281
     0
  0
CLASS
  1
ACMIDSTANDARDISO
  2
AcmIdStdISO
  3
"Amdt_StdImp|Product Description: AutoCAD Mechanical 2004 DX|Company: Autodesk"
 90
        0
280
     0
281
     0
  0
CLASS
  1
ACMDATUMSTANDARDISO
  2
AcmDatumStdISO
  3
"Amdt_StdImp|Product Description: AutoCAD Mechanical 2004 DX|Company: Autodesk"
 90
        0
280
     0
281
     0
  0
CLASS
  1
ACMBOMSTANDARDISO
  2
AcmBOMStdISO
  3
"Amdt_StdImp|Product Description: AutoCAD Mechanical 2004 DX|Company: Autodesk"
 90
        0
280
     0
281
     0
  0
CLASS
  1
ACMDETAILSTANDARDISO
  2
AmdtDetailSymStdISO
  3
"Amdt_StdImp|Product Description: AutoCAD Mechanical 2004 DX|Company: Autodesk"
 90
        0
280
     0
281
     0
  0
CLASS
  1
ACMSECTIONSTANDARDISO
  2
AmdtSectionSymStdISO
  3
"Amdt_StdImp|Product Description: AutoCAD Mechanical 2004 DX|Company: Autodesk"
 90
        0
280
     0
281
     0
  0
CLASS
  1
ACMCENTERLINESTANDARDISO
  2
AmdtCenterLineStdISO
  3
"Amdt_StdImp|Product Description: AutoCAD Mechanical 2004 DX|Company: Autodesk"
 90
        0
280
     0
281
     0
  0
CLASS
  1
ACMNOTESTANDARDISO
  2
AmdtNoteStdISO
  3
"Amdt_StdImp|Product Description: AutoCAD Mechanical 2004 DX|Company: Autodesk"
 90
        0
280
     0
281
     0
  0
CLASS
  1
ACAMGLAYSTD
  2
AcAmgLayStd
  3
"AcAmgLayStd|Product Description: AutoCAD Mechanical 2000|Company: Autodesk"
 90
        0
280
     0
281
     0
  0
CLASS
  1
ACAMGDIMSTD
  2
AcAmgDimStd
  3
"AcAmgDimStd|Product Description: AutoCAD Mechanical 2000|Company: Autodesk"
 90
        0
280
     0
281
     0
  0
CLASS
  1
ACAMGHOLECHARTSTDISO
  2
AcAmgHoleChartStdISO
  3
ACMSYMBB_MODULE_NAME
 90
        0
280
     0
281
     0
  0
CLASS
  1
ACAMGTITLESTD
  2
AcAmgTitleStd
  3
"TITLEAPP"
 90
        0
280
     0
281
     0
  0
CLASS
  1
LAYER_INDEX
  2
AcDbLayerIndex
  3
ObjectDBX Classes
 90
        0
280
     0
281
     0
  0
CLASS
  1
IDBUFFER
  2
AcDbIdBuffer
  3
ObjectDBX Classes
 90
        0
280
     0
281
     0
  0
CLASS
  1
DICTIONARYVAR
  2
AcDbDictionaryVar
  3
ObjectDBX Classes
 90
        0
280
     0
281
     0
  0
CLASS
  1
AM_DRAWING_MGR
  2
AcDmDwgMgr
  3
AcMechDwgViewMgmt
 90
        0
280
     0
281
     0
  0
CLASS
  1
AM_DWG_DOCUMENT
  2
AcDmDwgDocument
  3
AcMechDwgViewMgmt
 90
        0
280
     0
281
     0
  0
CLASS
  1
AM_DWG_SHEET
  2
AcDmSheet
  3
AcMechDwgViewMgmt
 90
        0
280
     0
281
     0
  0
CLASS
  1
AM_VIEWDIMPARMAP
  2
AcDmViewDimParMap
  3
AcMechDwgViewMgmt
 90
        0
280
     0
281
     0
  0
CLASS
  1
AM_DWGMGR_NAME
  2
AcDmDwgMgrName
  3
AcMechDwgViewMgmt
 90
        0
280
     0
281
     0
  0
CLASS
  1
AMDTMENUSTATEMGR
  2
AmdtMenuStateMgr
  3
McadcomServices
 90
        0
280
     0
281
     0
  0
CLASS
  1
AMDTMCOMMENUSTATE
  2
AmdtMcomMenuState
  3
McadcomServices
 90
        0
280
     0
281
     0
  0
CLASS
  1
MAPIAMMOUDLE
  2
MApiAmModule
  3
MApiAmServices
 90
        0
280
     0
281
     0
  0
CLASS
  1
AMDTADMENUSTATE
  2
AmdtAdMenuState
  3
DesignerServices
 90
        0
280
     0
281
     0
  0
CLASS
  1
ADAPPL
  2
AcAdAppl
  3
DesignerServices
 90
        0
280
     0
281
     0
  0
CLASS
  1
DEPMGR
  2
AcAdDepMgr
  3
DesignerServices
 90
        0
280
     0
281
     0
  0
CLASS
  1
PARAMMGR
  2
AcAdParamMgr
  3
DesignerServices
 90
        0
280
     0
281
     0
  0
CLASS
  1
PARAMSCOPE
  2
AcAdParamScope
  3
DesignerServices
 90
        0
280
     0
281
     0
  0
CLASS
  1
NAMEDAPPL
  2
AcAdNamedAppl
  3
DesignerServices
 90
        0
280
     0
281
     0
  0
CLASS
  1
AMDTDMMENUSTATE
  2
AmdtDmMenuState
  3
AcMechDwgViewMgmt
 90
        0
280
     0
281
     0
  0
CLASS
  1
AMDTAMMENUSTATE
  2
AmdtAmMenuState
  3
DesignerAssemblies
 90
        0
280
     0
281
     0
  0
CLASS
  1
ACAMPROJECT
  2
AcAmProject
  3
DesignerAssemblies
 90
        0
280
     0
281
     0
  0
CLASS
  1
ACAMGRCOMPDEF
  2
AcAmGrCompDef
  3
DesignerAssemblies
 90
        0
280
     0
281
     0
  0
CLASS
  1
ACCMCONTEXT
  2
AcCmContext
  3
DesignerAssemblies
 90
        0
280
     0
281
     0
  0
CLASS
  1
ACAMCOMPDEF
  2
AcAmCompDef
  3
DesignerAssemblies
 90
        0
280
     0
281
     0
  0
CLASS
  1
ACAMCOMPDEFMGR
  2
AcAmCompDefMgr
  3
DesignerAssemblies
 90
        0
280
     0
281
     0
  0
CLASS
  1
AMCONTEXTMGR
  2
AcAmContextMgr
  3
DesignerAssemblies
 90
        0
280
     0
281
     0
  0
CLASS
  1
ACAMCONTEXTMODELER
  2
AcAmContextModeler
  3
DesignerAssemblies
 90
        0
280
     0
281
     0
  0
CLASS
  1
ACMTHREADLINESTANDARDISO
  2
AmdtThreadLineStdISO
  3
"Amdt_StdImp|Product Description: AutoCAD Mechanical 2004 DX|Company: Autodesk"
 90
        0
280
     0
281
     0
  0
CLASS
  1
CATALOGSTATE
  2
AcAmCatalogState
  3
DesignerAssemblies
 90
        0
280
     0
281
     0
  0
CLASS
  1
ACAMGRCOMPDEFSET
  2
AcAmGrCompDefSet
  3
DesignerAssemblies
 90
        0
280
     0
281
     0
  0
CLASS
  1
AMDTBROWSERDBTAB
  2
AmdtBrowserDbTab
  3
McadcomServices
 90
        0
280
     0
281
     0
  0
CLASS
  1
CBROWSERAPPOBJECT
  2
CBrowserAppObject
  3
McadcomServices
 90
        0
280
     0
281
     0
  0
CLASS
  1
DM_PLACEHOLDER
  2
AcDmSelsetPlaceholder
  3
AcMechDwgViewMgmt
 90
        0
280
     0
281
     0
  0
CLASS
  1
TABLESTYLE
  2
AcDbTableStyle
  3
ObjectDBX Classes
 90
     2047
280
     0
281
     0
  0
CLASS
  1
VAACXREFPANELOBJECT
  2
VaAcXREFPanelObject
  3
VAAC_ADDIN
 90
    32768
280
     0
281
     0
  0
CLASS
  1
VAACIMAGEINVENTORY
  2
VaAcImageInventory
  3
VAAC_ADDIN
 90
    32768
280
     0
281
     0
  0
CLASS
  1
AMDTNOTETEMPLATEDB
  2
AmdtNoteTemplateDB
  3
AMDT_STDIMP_MODULE_NAME
 90
        0
280
     0
281
     0
  0
CLASS
  1
ACMBOM
  2
AcmBom
  3
"AcmSymBB|Product Description: AutoCAD Mechanical 2004 DX|Company: Autodesk"
 90
    32768
280
     0
281
     0
  0
CLASS
  1
AMDTFORMULAUPDATEDISPATCHER
  2
AmdtFormulaUpdateDispatcher
  3
AcMeServices
 90
    32768
280
     0
281
     0
  0
CLASS
  1
ACMPARTLIST
  2
AcmPartList
  3
"AcmSymBB|Product Description: AutoCAD Mechanical 2004 DX|Company: Autodesk"
 90
    33791
280
     0
281
     1
  0
CLASS
  1
ACAMGFILTERDAT
  2
AcAmgFilterDat
  3
"AcadM|Product Description: AutoCAD Mechanical 2000|Company: Autodesk"
 90
    32768
280
     0
281
     0
  0
CLASS
  1
DIMASSOC
  2
AcDbDimAssoc
  3
"AcDbDimAssoc|Product Desc:     AcDim ARX App For Dimension|Company:          Autodesk, Inc.|WEB Address:      www.autodesk.com"
 90
        0
280
     0
281
     0
  0
CLASS
  1
STDPART2D
  2
AmgStdPart
  3
"AmgStdPart|Product Description: AutoCAD Mechanical 2000|Company: Autodesk"
 90
    33791
280
     0
281
     1
  0
CLASS
  1
ACAMSTDPCOMPDEF
  2
AcAmStdpCompDef
  3
DesignerAssemblies
 90
    32768
280
     0
281
     0
  0
CLASS
  1
ACRFATTGENMGR
  2
AcRfAttGeneralMgr
  3
AcAttribServices
 90
    32768
280
     0
281
     0
  0
CLASS
  1
ACRFOBJATTMGR
  2
AcRfObjAttGroupMgr
  3
AcAttribServices
 90
    32768
280
     0
281
     0
  0
CLASS
  1
ACRFMCADAPIATTHOLDER
  2
AcRfMCADAPIAttHolder
  3
AcAttribServices
 90
    32768
280
     0
281
     0
  0
CLASS
  1
AMDTSYSATTR
  2
AmdtSystemAttribute
  3
AcAttribServices
 90
    32768
280
     0
281
     0
  0
CLASS
  1
ACAMCOMP
  2
AcAmComp
  3
DesignerAssemblies
 90
    32768
280
     0
281
     0
  0
CLASS
  1
AC_AM_STDP_VIEW_DEF
  2
AcAmStdpViewDef
  3
DesignerAssemblies
 90
    32768
280
     0
281
     0
  0
CLASS
  1
AC_AM_MVD_DEP_MGR
  2
AcAmMVDdepMgr
  3
DesignerAssemblies
 90
    32768
280
     0
281
     0
  0
CLASS
  1
AC_AM_MASTER_VIEW_DEF
  2
AcAmMasterViewDef
  3
DesignerAssemblies
 90
    32768
280
     0
281
     0
  0
CLASS
  1
AC_AM_DIRTY_NODES
  2
AcAmDirtyNodes
  3
DesignerAssemblies
 90
    32768
280
     0
281
     0
  0
CLASS
  1
AC_AM_MAPPER_CACHE
  2
AcAmMapperCache
  3
DesignerAssemblies
 90
    32768
280
     0
281
     0
  0
CLASS
  1
ACAMMVDBACKUPOBJECT
  2
AcAmMVDBackupObject
  3
DesignerAssemblies
 90
    32768
280
     0
281
     0
  0
CLASS
  1
AC_AM_COMP_VIEW_INST
  2
AcAmCompView
  3
DesignerAssemblies
 90
    32768
280
     0
281
     0
  0
CLASS
  1
AC_AM_2D_XREF_MGR
  2
AcAmXrefMgr2d
  3
DesignerAssemblies
 90
    32768
280
     0
281
     0
  0
CLASS
  1
SORTENTSTABLE
  2
AcDbSortentsTable
  3
ObjectDBX Classes
 90
        0
280
     0
281
     0
  0
CLASS
  1
ACDBCIRCARCRES
  2
AcDbCircArcRes
  3
AcGrefServices
 90
    32768
280
     0
281
     0
  0
CLASS
  1
AMDTNOTE
  2
AmdtNote
  3
"AcmSymBB|Product Description: AutoCAD Mechanical 2004 DX|Company: Autodesk"
 90
    33791
280
     0
281
     1
  0
CLASS
  1
ACDBLINERES
  2
AcDbLineRes
  3
AcGrefServices
 90
    32768
280
     0
281
     0
  0
CLASS
  1
ACMSTANDARDANSI
  2
AcmStandardANSI
  3
"Amdt_StdImp|Product Description: AutoCAD Mechanical 2004 DX|Company: Autodesk"
 90
    32768
280
     0
281
     0
  0
CLASS
  1
ACMSURFSTANDARDANSI
  2
AcmSurfTextStdANSI
  3
"Amdt_StdImp|Product Description: AutoCAD Mechanical 2004 DX|Company: Autodesk"
 90
    32768
280
     0
281
     0
  0
CLASS
  1
ACMFCFSTANDARDANSI
  2
AcmFCFStdANSI
  3
"Amdt_StdImp|Product Description: AutoCAD Mechanical 2004 DX|Company: Autodesk"
 90
    32768
280
     0
281
     0
  0
CLASS
  1
ACMWELDSTANDARDANSI
  2
AcmWeldingStdANSI
  3
"Amdt_StdImp|Product Description: AutoCAD Mechanical 2004 DX|Company: Autodesk"
 90
    32768
280
     0
281
     0
  0
CLASS
  1
ACMIDSTANDARDANSI
  2
AcmIdStdANSI
  3
"Amdt_StdImp|Product Description: AutoCAD Mechanical 2004 DX|Company: Autodesk"
 90
    32768
280
     0
281
     0
  0
CLASS
  1
ACMDATUMSTANDARDANSI
  2
AcmDatumStdANSI
  3
"Amdt_StdImp|Product Description: AutoCAD Mechanical 2004 DX|Company: Autodesk"
 90
    32768
280
     0
281
     0
  0
CLASS
  1
ACMBOMSTANDARDANSI
  2
AcmBOMStdANSI
  3
"Amdt_StdImp|Product Description: AutoCAD Mechanical 2004 DX|Company: Autodesk"
 90
    32768
280
     0
281
     0
  0
CLASS
  1
ACMDETAILSTANDARDANSI
  2
AmdtDetailSymStdANSI
  3
"Amdt_StdImp|Product Description: AutoCAD Mechanical 2004 DX|Company: Autodesk"
 90
    32768
280
     0
281
     0
  0
CLASS
  1
ACMSECTIONSTANDARDANSI
  2
AmdtSectionSymStdANSI
  3
"Amdt_StdImp|Product Description: AutoCAD Mechanical 2004 DX|Company: Autodesk"
 90
    32768
280
     0
281
     0
  0
CLASS
  1
ACMCENTERLINESTANDARDANSI
  2
AmdtCenterLineStdANSI
  3
"Amdt_StdImp|Product Description: AutoCAD Mechanical 2004 DX|Company: Autodesk"
 90
    32768
280
     0
281
     0
  0
CLASS
  1
ACMTHREADLINESTANDARDANSI
  2
AmdtThreadLineStdANSI
  3
"Amdt_StdImp|Product Description: AutoCAD Mechanical 2004 DX|Company: Autodesk"
 90
    32768
280
     0
281
     0
  0
CLASS
  1
ACMNOTESTANDARDANSI
  2
AmdtNoteStdANSI
  3
"Amdt_StdImp|Product Description: AutoCAD Mechanical 2004 DX|Company: Autodesk"
 90
    32768
280
     0
281
     0
  0
CLASS
  1
ACAMGHOLECHARTSTDANSI
  2
AcAmgHoleChartStdANSI
  3
ACMSYMBB_MODULE_NAME
 90
    32768
280
     0
281
     0
  0
CLASS
  1
AC_AM_HIDE_SITUATION
  2
AcAmHideSituation
  3
DesignerAssemblies
 90
    32768
280
     0
281
     0
  0
CLASS
  1
AMDTEDGESTANDARDISO13715
  2
AmdtEdgeStdISO13715
  3
"Amdt_StdImp|Product Description: AutoCAD Mechanical 2004 DX|Company: Autodesk"
 90
        0
280
     0
281
     0
  0
CLASS
  1
ASAPP
  2
AcAsAppObject
  3
AutoSurfServices
 90
        0
280
     0
281
     0
  0
CLASS
  1
IM_STATIC_MAN
  2
AcImStaticVarManager
  3
AcMeServices
 90
        0
280
     0
281
     0
  0
CLASS
  1
ACIMDBLSTATICVAR
  2
AcImDblStaticVar
  3
AcMeServices
 90
        0
280
     0
281
     0
  0
CLASS
  1
ACIMSTRSTATICVAR
  2
AcImStrStaticVar
  3
AcMeServices
 90
        0
280
     0
281
     0
  0
CLASS
  1
ACIMINTSTATICVAR
  2
AcImIntStaticVar
  3
AcMeServices
 90
        0
280
     0
281
     0
  0
CLASS
  1
ACASGREFMASTER
  2
AcAsGrefMaster
  3
AutoSurfResolverServices
 90
        0
280
     0
281
     0
  0
CLASS
  1
ACADGREFMODULE
  2
AcAdGrefModule
  3
AdGrefServices
 90
        0
280
     0
281
     0
  0
CLASS
  1
AMDTMAPISURFMOUDULE
  2
AmdtMApiSurfModule
  3
MApiSurfServices
 90
        0
280
     0
281
     0
  0
CLASS
  1
MAPIADMODULE
  2
MApiAdModule
  3
MApiAdServices
 90
        0
280
     0
281
     0
  0
ENDSEC
  0
SECTION
  2
TABLES
  0
TABLE
  2
VPORT
  5
8
330
0
100
AcDbSymbolTable
 70
    36
  0
VPORT
  5
9540
330
8
100
AcDbSymbolTableRecord
100
AcDbViewportTableRecord
  2
*Active
 70
     0
 10
0.0
 20
0.0
 11
1.0
 21
1.0
 12
-237.4438357667891
 22
-17.59016596731735
 13
0.0
 23
0.0
 14
2.5
 24
2.5
 15
10.0
 25
10.0
 16
0.0
 26
0.0
 36
1.0
 17
658.0750513642964
 27
1283.112729687819
 37
0.0
 40
304.2162904201839
 41
1.263157894736842
 42
50.0
 43
0.0
 44
0.0
 50
0.0
 51
0.0
 71
     0
 72
  2000
 73
     1
 74
     3
 75
     0
 76
     0
 77
     0
 78
     0
281
     0
 65
     0
110
0.0
120
0.0
130
0.0
111
1.0
121
0.0
131
0.0
112
0.0
122
1.0
132
0.0
 79
     0
146
0.0
  0
ENDTAB
  0
TABLE
  2
LTYPE
  5
5
330
0
100
AcDbSymbolTable
 70
    16
  0
LTYPE
  5
14
330
5
100
AcDbSymbolTableRecord
100
AcDbLinetypeTableRecord
  2
ByBlock
 70
     0
  3

 72
    65
 73
     0
 40
0.0
  0
LTYPE
  5
15
330
5
100
AcDbSymbolTableRecord
100
AcDbLinetypeTableRecord
  2
ByLayer
 70
     0
  3

 72
    65
 73
     0
 40
0.0
  0
LTYPE
  5
16
330
5
100
AcDbSymbolTableRecord
100
AcDbLinetypeTableRecord
  2
Continuous
 70
     0
  3
Solid line
 72
    65
 73
     0
 40
0.0
  0
LTYPE
  5
64
330
5
100
AcDbSymbolTableRecord
100
AcDbLinetypeTableRecord
  2
AM_ISO02W050
 70
     0
  3
__ __ __ __ __ __ __ __ __ __ __ __ __ __ __
 72
    65
 73
     2
 40
7.5
 49
6.0
 74
     0
 49
-1.5
 74
     0
  0
LTYPE
  5
65
330
5
100
AcDbSymbolTableRecord
100
AcDbLinetypeTableRecord
  2
AM_ISO08W050
 70
     0
  3
____ . ____ . ____ . ____ . ____ . ____ . ____
 72
    65
 73
     4
 40
18.0
 49
12.0
 74
     0
 49
-1.5
 74
     0
 49
3.0
 74
     0
 49
-1.5
 74
     0
  0
LTYPE
  5
66
330
5
100
AcDbSymbolTableRecord
100
AcDbLinetypeTableRecord
  2
AM_ISO09W050
 70
     0
  3
_____ . . _____ . . _____ . . ____ .. ____
 72
    65
 73
     6
 40
22.5
 49
12.0
 74
     0
 49
-1.5
 74
     0
 49
3.0
 74
     0
 49
-1.5
 74
     0
 49
3.0
 74
     0
 49
-1.5
 74
     0
  0
LTYPE
  5
67
330
5
100
AcDbSymbolTableRecord
100
AcDbLinetypeTableRecord
  2
Amconstr
 70
     0
  3
_______________________
 72
    65
 73
     2
 40
9999.0
 49
9999.0
 74
     0
 49
0.0
 74
     0
  0
LTYPE
  5
68
330
5
100
AcDbSymbolTableRecord
100
AcDbLinetypeTableRecord
  2
AM_ISO08W050x2
 70
     0
  3
__ . __ . __ . __ . __ . __
 72
    65
 73
     4
 40
9.0
 49
6.0
 74
     0
 49
-0.75
 74
     0
 49
1.5
 74
     0
 49
-0.75
 74
     0
  0
LTYPE
  5
69
330
5
100
AcDbSymbolTableRecord
100
AcDbLinetypeTableRecord
  2
AM_ISO02W050x2
 70
     0
  3
 _ _ _ _ _ _ _ _ _ _ _ _
 72
    65
 73
     2
 40
3.75
 49
3.0
 74
     0
 49
-0.75
 74
     0
  0
LTYPE
  5
6C
330
5
100
AcDbSymbolTableRecord
100
AcDbLinetypeTableRecord
  2
Amzigzag
 70
     0
  3
/\/-/\/-/\/-/\/-/\/-/\/
 72
    65
 73
     2
 40
11.0001
 49
0.0001
 74
     4
 75
   135
340
6B
 46
0.04
 50
0.0
 44
0.0
 45
0.0
 49
-11.0
 74
     0
  0
LTYPE
  5
7A
330
5
100
AcDbSymbolTableRecord
100
AcDbLinetypeTableRecord
  2
ACISOWELD
 70
     0
  3
_ _ _ _ _
 72
    65
 73
     2
 40
2.0
 49
2.0
 74
     0
 49
-1.0
 74
     0
  0
LTYPE
  5
7B
330
5
100
AcDbSymbolTableRecord
100
AcDbLinetypeTableRecord
  2
ACISOTGB
 70
     0
  3
__ . . __ . .
 72
    65
 73
     6
 40
9.0
 49
4.0
 74
     0
 49
-1.0
 74
     0
 49
1.0
 74
     0
 49
-1.0
 74
     0
 49
1.0
 74
     0
 49
-1.0
 74
     0
  0
LTYPE
  5
7C
330
5
100
AcDbSymbolTableRecord
100
AcDbLinetypeTableRecord
  2
ACISOTGL
 70
     0
  3
_ _ _ _ _
 72
    65
 73
     2
 40
3.0
 49
2.0
 74
     0
 49
-1.0
 74
     0
  0
LTYPE
  5
7E
330
5
100
AcDbSymbolTableRecord
100
AcDbLinetypeTableRecord
  2
CENTER
 70
     0
  3
__ . __
 72
    65
 73
     4
 40
7.0
 49
4.0
 74
     0
 49
-1.0
 74
     0
 49
1.0
 74
     0
 49
-1.0
 74
     0
  0
LTYPE
  5
D8
330
5
100
AcDbSymbolTableRecord
100
AcDbLinetypeTableRecord
  2
HIDDEN
 70
     0
  3
Hidden __ __ __ __ __ __ __ __ __ __ __ __ __ _
 72
    65
 73
     2
 40
9.524999999999998
 49
6.349999999999999
 74
     0
 49
-3.174999999999999
 74
     0
  0
LTYPE
  5
D9
330
5
100
AcDbSymbolTableRecord
100
AcDbLinetypeTableRecord
  2
PHANTOM2
 70
     0
  3
Phantom (.5x) ___ _ _ ___ _ _ ___ _ _ ___ _ _
 72
    65
 73
     6
 40
31.75
 49
15.875
 74
     0
 49
-3.174999999999999
 74
     0
 49
3.174999999999999
 74
     0
 49
-3.174999999999999
 74
     0
 49
3.174999999999999
 74
     0
 49
-3.174999999999999
 74
     0
  0
LTYPE
  5
88B1
330
5
100
AcDbSymbolTableRecord
100
AcDbLinetypeTableRecord
  2
ASULTYPE
 70
     0
  3
實線
 72
    65
 73
     2
 40
3.0
 49
2.5
 74
     0
 49
0.5
 74
     0
  0
LTYPE
  5
88B2
330
5
100
AcDbSymbolTableRecord
100
AcDbLinetypeTableRecord
  2
ASVLTYPE
 70
     0
  3
__ __ __ __ __ __ __ __ __ __ __ __ __ __ __ __ __ __ __ __ __
 72
    65
 73
     2
 40
0.75
 49
0.5
 74
     0
 49
-0.25
 74
     0
  0
ENDTAB
  0
TABLE
  2
LAYER
  5
2
102
{ACAD_XDICTIONARY
360
3F9
102
}
330
0
100
AcDbSymbolTable
 70
    10
  0
LAYER
  5
10
330
2
100
AcDbSymbolTableRecord
100
AcDbLayerTableRecord
  2
0
 70
     0
 62
     7
  6
Continuous
370
    -3
390
F
  0
LAYER
  5
A47
330
2
100
AcDbSymbolTableRecord
100
AcDbLayerTableRecord
  2
AM_VIS
 70
     0
 62
     7
  6
Continuous
370
    50
390
F
  0
LAYER
  5
A48
330
2
100
AcDbSymbolTableRecord
100
AcDbLayerTableRecord
  2
AM_7
 70
     0
 62
     1
  6
AM_ISO08W050
370
    25
390
F
  0
LAYER
  5
A49
330
2
100
AcDbSymbolTableRecord
100
AcDbLayerTableRecord
  2
AM_4
 70
     0
 62
     3
  6
Continuous
370
    25
390
F
  0
LAYER
  5
11DD
330
2
100
AcDbSymbolTableRecord
100
AcDbLayerTableRecord
  2
AM_0
 70
     0
 62
     7
  6
Continuous
370
    50
390
F
  0
LAYER
  5
1369
330
2
100
AcDbSymbolTableRecord
100
AcDbLayerTableRecord
  2
AM_5
 70
     0
 62
     5
  6
Continuous
370
    25
390
F
  0
LAYER
  5
1379
330
2
100
AcDbSymbolTableRecord
100
AcDbLayerTableRecord
  2
Defpoints
 70
     0
 62
     7
  6
Continuous
290
     0
370
    -3
390
F
  0
LAYER
  5
1FFE
330
2
100
AcDbSymbolTableRecord
100
AcDbLayerTableRecord
  2
BORDER
 70
     0
 62
     7
  6
Continuous
370
    -3
390
F
  0
LAYER
  5
6F80
330
2
100
AcDbSymbolTableRecord
100
AcDbLayerTableRecord
  2
LOGO
 70
     0
 62
     7
  6
Continuous
370
    -3
390
F
  0
LAYER
  5
7143
330
2
100
AcDbSymbolTableRecord
100
AcDbLayerTableRecord
  2
BOR
 70
     0
 62
     7
  6
Continuous
370
    -3
390
F
  0
ENDTAB
  0
TABLE
  2
STYLE
  5
3
330
0
100
AcDbSymbolTable
 70
     5
  0
STYLE
  5
11
330
3
100
AcDbSymbolTableRecord
100
AcDbTextStyleTableRecord
  2
STANDARD
 70
     0
 40
0.0
 41
1.0
 50
0.0
 71
     0
 42
3.0
  3
ISOCP.SHX
  4
CHINESET.SHX
  0
STYLE
  5
6B
330
3
100
AcDbSymbolTableRecord
100
AcDbTextStyleTableRecord
  2

 70
     1
 40
0.0
 41
1.0
 50
0.0
 71
     0
 42
2.5
  3
ltypeshp.shx
  4

  0
STYLE
  5
6D
330
3
100
AcDbSymbolTableRecord
100
AcDbTextStyleTableRecord
  2
ACISOTS
 70
     0
 40
1.0
 41
1.0
 50
0.0
 71
     0
 42
1.0
  3
isocp.shx
  4
chineset.shx
  0
STYLE
  5
79
330
3
100
AcDbSymbolTableRecord
100
AcDbTextStyleTableRecord
  2
ACISOGDT
 70
     0
 40
0.0
 41
1.0
 50
0.0
 71
     0
 42
2.5
  3
amgdt.shx
  4
chineset.shx
  0
STYLE
  5
6F81
330
3
100
AcDbSymbolTableRecord
100
AcDbTextStyleTableRecord
  2
CHINESET
 70
     0
 40
0.0
 41
1.0
 50
0.0
 71
     0
 42
3.0
  3
simplex.shx
  4
CHINESET.SHX
  0
ENDTAB
  0
TABLE
  2
VIEW
  5
6
330
0
100
AcDbSymbolTable
 70
     0
  0
ENDTAB
  0
TABLE
  2
UCS
  5
7
330
0
100
AcDbSymbolTable
 70
     0
  0
ENDTAB
  0
TABLE
  2
APPID
  5
9
330
0
100
AcDbSymbolTable
 70
    48
  0
APPID
  5
12
330
9
100
AcDbSymbolTableRecord
100
AcDbRegAppTableRecord
  2
ACAD
 70
     0
  0
APPID
  5
46
330
9
100
AcDbSymbolTableRecord
100
AcDbRegAppTableRecord
  2
MCAD_NO_VIS
 70
     0
  0
APPID
  5
47
330
9
100
AcDbSymbolTableRecord
100
AcDbRegAppTableRecord
  2
ACAD_TEMP_GRAPHIC
 70
     0
  0
APPID
  5
58
330
9
100
AcDbSymbolTableRecord
100
AcDbRegAppTableRecord
  2
ACATTRIBSERVICES
 70
     0
  0
APPID
  5
EE
330
9
100
AcDbSymbolTableRecord
100
AcDbRegAppTableRecord
  2
AD_DRAW
 70
     0
  0
APPID
  5
10C
330
9
100
AcDbSymbolTableRecord
100
AcDbRegAppTableRecord
  2
DESIGNERASSEMBLIES
 70
     0
  0
APPID
  5
111
330
9
100
AcDbSymbolTableRecord
100
AcDbRegAppTableRecord
  2
ACADM_DIM_EDIT
 70
     0
  0
APPID
  5
112
330
9
100
AcDbSymbolTableRecord
100
AcDbRegAppTableRecord
  2
AMDT_DM_ADJ
 70
     0
  0
APPID
  5
22C
330
9
100
AcDbSymbolTableRecord
100
AcDbRegAppTableRecord
  2
ACAD_DSTYLE_DIMTEXT_FILL
 70
     0
  0
APPID
  5
452
330
9
100
AcDbSymbolTableRecord
100
AcDbRegAppTableRecord
  2
GENIUS_GENOENT_13
 70
     0
  0
APPID
  5
453
330
9
100
AcDbSymbolTableRecord
100
AcDbRegAppTableRecord
  2
GENIUS_GENOBJ-N-CRS_13
 70
     0
  0
APPID
  5
454
330
9
100
AcDbSymbolTableRecord
100
AcDbRegAppTableRecord
  2
GENIUS_GENOLIS_13
 70
     0
  0
APPID
  5
455
330
9
100
AcDbSymbolTableRecord
100
AcDbRegAppTableRecord
  2
GENIUS_GENODEF_13
 70
     0
  0
APPID
  5
456
330
9
100
AcDbSymbolTableRecord
100
AcDbRegAppTableRecord
  2
GENIUS_GENOREF_13
 70
     0
  0
APPID
  5
6F3
330
9
100
AcDbSymbolTableRecord
100
AcDbRegAppTableRecord
  2
ACAD_PSEXT
 70
     0
  0
APPID
  5
808
330
9
100
AcDbSymbolTableRecord
100
AcDbRegAppTableRecord
  2
GENIUS_GENDTOL_13
 70
     0
  0
APPID
  5
11E4
330
9
100
AcDbSymbolTableRecord
100
AcDbRegAppTableRecord
  2
GEVID1151564621
 70
     0
  0
APPID
  5
11E5
330
9
100
AcDbSymbolTableRecord
100
AcDbRegAppTableRecord
  2
GEVDC
 70
     0
  0
APPID
  5
11E6
330
9
100
AcDbSymbolTableRecord
100
AcDbRegAppTableRecord
  2
GEVRADREF
 70
     0
  0
APPID
  5
11EF
330
9
100
AcDbSymbolTableRecord
100
AcDbRegAppTableRecord
  2
AMG_2DHIDE
 70
     0
  0
APPID
  5
11F0
330
9
100
AcDbSymbolTableRecord
100
AcDbRegAppTableRecord
  2
AMG_2DSTRUCT_BTR
 70
     0
  0
APPID
  5
1201
330
9
100
AcDbSymbolTableRecord
100
AcDbRegAppTableRecord
  2
ACADM_2DVIEW_IGN_NOTIFY
 70
     0
  0
APPID
  5
1231
330
9
100
AcDbSymbolTableRecord
100
AcDbRegAppTableRecord
  2
GEVID1151564622
 70
     0
  0
APPID
  5
1262
330
9
100
AcDbSymbolTableRecord
100
AcDbRegAppTableRecord
  2
GEVID1151564623
 70
     0
  0
APPID
  5
1860
330
9
100
AcDbSymbolTableRecord
100
AcDbRegAppTableRecord
  2
ACAD_DIMASSOC_DIMLFAC
 70
     0
  0
APPID
  5
1861
330
9
100
AcDbSymbolTableRecord
100
AcDbRegAppTableRecord
  2
ACAD_DIMASSOC_CALC_DIMLFAC
 70
     0
  0
APPID
  5
1862
330
9
100
AcDbSymbolTableRecord
100
AcDbRegAppTableRecord
  2
ACAD_DIMASSOC_OVERRIDDEN_DIMLFAC
 70
     0
  0
APPID
  5
20E5
330
9
100
AcDbSymbolTableRecord
100
AcDbRegAppTableRecord
  2
GEVID1151625661
 70
     0
  0
APPID
  5
2115
330
9
100
AcDbSymbolTableRecord
100
AcDbRegAppTableRecord
  2
GEVID1151625662
 70
     0
  0
APPID
  5
2131
330
9
100
AcDbSymbolTableRecord
100
AcDbRegAppTableRecord
  2
GEVID1151625663
 70
     0
  0
APPID
  5
2132
330
9
100
AcDbSymbolTableRecord
100
AcDbRegAppTableRecord
  2
GEVMK
 70
     0
  0
APPID
  5
2C49
330
9
100
AcDbSymbolTableRecord
100
AcDbRegAppTableRecord
  2
GENIUS_GENOBJ-N-CEN_13
 70
     0
  0
APPID
  5
2C4A
330
9
100
AcDbSymbolTableRecord
100
AcDbRegAppTableRecord
  2
GENIUS_GENCEN_19
 70
     0
  0
APPID
  5
2F66
330
9
100
AcDbSymbolTableRecord
100
AcDbRegAppTableRecord
  2
GEVID1151908765
 70
     0
  0
APPID
  5
2FDB
330
9
100
AcDbSymbolTableRecord
100
AcDbRegAppTableRecord
  2
GEVID1151908766
 70
     0
  0
APPID
  5
3C74
330
9
100
AcDbSymbolTableRecord
100
AcDbRegAppTableRecord
  2
GEVID1151908767
 70
     0
  0
APPID
  5
3CA2
330
9
100
AcDbSymbolTableRecord
100
AcDbRegAppTableRecord
  2
GEVID1151908768
 70
     0
  0
APPID
  5
3CC1
330
9
100
AcDbSymbolTableRecord
100
AcDbRegAppTableRecord
  2
GEVID1151908769
 70
     0
  0
APPID
  5
3FF1
330
9
100
AcDbSymbolTableRecord
100
AcDbRegAppTableRecord
  2
GENIUS_GENREC_14
 70
     0
  0
APPID
  5
3FF2
330
9
100
AcDbSymbolTableRecord
100
AcDbRegAppTableRecord
  2
GENIUS_GENOBJ-N-REC_13
 70
     0
  0
APPID
  5
4D81
330
9
100
AcDbSymbolTableRecord
100
AcDbRegAppTableRecord
  2
GEVID1151981890
 70
     0
  0
APPID
  5
63C5
330
9
100
AcDbSymbolTableRecord
100
AcDbRegAppTableRecord
  2
GEVID1151981891
 70
     0
  0
APPID
  5
641E
330
9
100
AcDbSymbolTableRecord
100
AcDbRegAppTableRecord
  2
GEVID1151981892
 70
     0
  0
APPID
  5
7494
330
9
100
AcDbSymbolTableRecord
100
AcDbRegAppTableRecord
  2
GENIUS_GENDIM_13
 70
     0
  0
APPID
  5
7495
330
9
100
AcDbSymbolTableRecord
100
AcDbRegAppTableRecord
  2
GENIUS_GE3DTOL_13
 70
     0
  0
APPID
  5
7515
330
9
100
AcDbSymbolTableRecord
100
AcDbRegAppTableRecord
  2
ASURF_PCURVE_APPNAME
 70
     0
  0
APPID
  5
751A
330
9
100
AcDbSymbolTableRecord
100
AcDbRegAppTableRecord
  2
AMG_3D2D_5.0
 70
     0
  0
APPID
  5
83A7
330
9
100
AcDbSymbolTableRecord
100
AcDbRegAppTableRecord
  2
GENIUS_GENDIMSH_14
 70
     0
  0
ENDTAB
  0
TABLE
  2
DIMSTYLE
  5
A
330
0
100
AcDbSymbolTable
 70
    11
100
AcDbDimStyleTable
 71
     3
340
81
340
8B
340
86
  0
DIMSTYLE
105
81
330
A
100
AcDbSymbolTableRecord
100
AcDbDimStyleTableRecord
  2
AM_ISO
 70
     0
  4
"
 41
3.0
 42
1.0
 43
8.0
 44
1.5
 47
0.1
 48
0.1
 73
     0
 74
     0
 77
     1
 78
     8
 79
     2
140
3.5
141
0.0
143
0.0393701
146
0.6
147
0.7
172
     1
176
   256
177
   256
178
   256
271
     2
272
     2
283
     0
284
     8
340
11
371
    -1
372
    -1
  0
DIMSTYLE
105
82
330
A
100
AcDbSymbolTableRecord
100
AcDbDimStyleTableRecord
  2
AM_ISO$3
 70
     0
  4
"
 41
3.0
 42
1.0
 43
8.0
 44
1.5
 47
0.1
 48
0.1
 73
     0
 77
     1
 78
     8
 79
     2
140
3.5
141
0.0
143
0.0393701
146
0.6
147
0.7
176
   256
177
   256
178
   256
271
     2
272
     2
283
     0
284
     8
288
     1
289
     0
340
11
371
    -1
372
    -1
  0
DIMSTYLE
105
83
330
A
100
AcDbSymbolTableRecord
100
AcDbDimStyleTableRecord
  2
AM_ISO$4
 70
     0
  4
"
 41
3.0
 42
1.0
 43
8.0
 44
1.5
 47
0.1
 48
0.1
 73
     0
 77
     1
 78
     8
 79
     2
140
3.5
141
0.0
143
0.0393701
146
0.6
147
0.7
176
   256
177
   256
178
   256
271
     2
272
     2
283
     0
284
     8
288
     1
289
     0
340
11
371
    -1
372
    -1
  0
DIMSTYLE
105
84
330
A
100
AcDbSymbolTableRecord
100
AcDbDimStyleTableRecord
  2
AM_ISO$6
 70
     0
  4
"
 41
3.0
 42
1.0
 43
8.0
 44
1.5
 47
0.1
 48
0.1
 73
     0
 74
     0
 78
     8
 79
     2
140
3.5
141
0.0
143
0.0393701
146
0.6
147
0.7
172
     1
176
   256
177
   256
178
   256
271
     2
272
     2
283
     0
284
     8
340
11
371
    -1
372
    -1
  0
DIMSTYLE
105
85
330
A
100
AcDbSymbolTableRecord
100
AcDbDimStyleTableRecord
  2
AM_ISO$7
 70
     0
  4
"
 41
3.0
 42
1.0
 43
8.0
 44
1.5
 47
0.1
 48
0.1
 73
     0
 74
     0
 77
     1
 78
     8
 79
     2
140
5.0
141
0.0
143
0.0393701
146
0.6
147
0.7
172
     1
176
   256
177
   256
178
   256
271
     2
272
     2
283
     0
284
     8
340
11
371
    -1
372
    -1
  0
DIMSTYLE
105
86
330
A
100
AcDbSymbolTableRecord
100
AcDbDimStyleTableRecord
  2
AM_ISO$SF
 70
     0
  4
"
 41
2.5
 42
1.0
 43
10.0
 44
1.0
 47
0.1
 48
0.1
 73
     0
 74
     0
 75
     1
 76
     1
 77
     1
 78
     8
 79
     2
140
3.5
141
0.0
143
0.0393701
146
0.71
147
1.5
172
     1
176
   256
177
   256
178
     2
271
     2
272
     3
274
     4
283
     0
284
     8
340
11
371
    -1
372
    -1
  0
DIMSTYLE
105
8B
330
A
100
AcDbSymbolTableRecord
100
AcDbDimStyleTableRecord
  2
AM_ISO$SH
 70
     0
  4
"
 41
2.5
 42
1.0
 43
10.0
 44
1.0
 47
0.1
 48
0.1
 73
     0
 74
     0
 75
     1
 76
     1
 77
     1
 78
     8
 79
     2
140
3.5
141
0.0
143
0.0393701
144
2.0
146
0.71
147
1.5
172
     1
173
     1
176
   256
177
   256
178
     2
271
     2
272
     3
274
     4
283
     0
284
     8
340
11
343
87
371
    -1
372
    -1
  0
DIMSTYLE
105
40B
102
{ACAD_REACTORS
330
7DEA
330
7E10
330
7E36
330
7E5C
330
7F3D
330
7F9D
330
7FCC
330
8059
330
802A
330
7FFB
330
8171
330
819B
330
823F
330
8265
330
828B
330
82B5
330
82DF
330
8323
330
8373
330
838B
330
83DA
330
842B
330
8455
330
847F
330
81D0
330
9501
102
}
330
A
100
AcDbSymbolTableRecord
100
AcDbDimStyleTableRecord
  2
AM_ISO$0
 70
     0
  4
"
 41
3.0
 42
1.0
 43
8.0
 44
1.5
 47
0.1
 48
0.1
 73
     0
 74
     0
 77
     1
 78
     8
 79
     2
140
3.5
141
0.0
143
0.0393701
146
0.6
147
0.7
172
     1
176
   256
177
   256
178
   256
271
     2
272
     2
283
     0
284
     8
340
11
371
    -1
372
    -1
  0
DIMSTYLE
105
182A
330
A
100
AcDbSymbolTableRecord
100
AcDbDimStyleTableRecord
  2
AM_ISO$2
 70
     0
  4
"
 41
3.0
 42
1.0
 43
8.0
 44
1.5
 47
0.1
 48
0.1
 73
     0
 74
     0
 77
     1
 78
     8
 79
     2
140
3.5
141
0.0
143
0.0393701
146
0.6
147
0.7
172
     1
176
   256
177
   256
178
   256
271
     2
272
     2
283
     0
284
     8
340
11
371
    -1
372
    -1
  0
DIMSTYLE
105
7DA7
330
A
100
AcDbSymbolTableRecord
100
AcDbDimStyleTableRecord
  2
ISO-25
 70
     0
 41
2.5
 42
0.625
 43
3.75
 44
1.25
 73
     0
 74
     0
 77
     1
 78
     8
140
2.5
141
2.5
143
0.03937007874016
147
0.625
171
     3
172
     1
271
     2
272
     2
274
     3
278
    44
283
     0
284
     8
340
11
  0
DIMSTYLE
105
7DA8
330
A
100
AcDbSymbolTableRecord
100
AcDbDimStyleTableRecord
  2
ISO-25$0
 70
     0
 41
2.5
 42
0.625
 43
3.75
 44
1.25
 73
     0
 74
     0
 77
     1
 78
     8
140
2.5
141
2.5
143
0.03937007874016
147
0.625
171
     3
172
     1
271
     2
272
     2
274
     3
278
    44
283
     0
284
     8
340
11
  0
ENDTAB
  0
TABLE
  2
BLOCK_RECORD
  5
1
330
0
100
AcDbSymbolTable
 70
    31
  0
BLOCK_RECORD
  5
1F
102
{ACAD_XDICTIONARY
360
8F
102
}
330
1
100
AcDbSymbolTableRecord
100
AcDbBlockTableRecord
  2
*Model_Space
340
22
  0
BLOCK_RECORD
  5
1B
330
1
100
AcDbSymbolTableRecord
100
AcDbBlockTableRecord
  2
*Paper_Space
340
1E
  0
BLOCK_RECORD
  5
23
330
1
100
AcDbSymbolTableRecord
100
AcDbBlockTableRecord
  2
*Paper_Space0
340
26
  0
BLOCK_RECORD
  5
87
330
1
100
AcDbSymbolTableRecord
100
AcDbBlockTableRecord
  2
GENAXEH
340
0
  0
BLOCK_RECORD
  5
7DEB
330
1
100
AcDbSymbolTableRecord
100
AcDbBlockTableRecord
  2
*D3
340
0
  0
BLOCK_RECORD
  5
7E11
330
1
100
AcDbSymbolTableRecord
100
AcDbBlockTableRecord
  2
*D4
340
0
  0
BLOCK_RECORD
  5
7E37
330
1
100
AcDbSymbolTableRecord
100
AcDbBlockTableRecord
  2
*D5
340
0
  0
BLOCK_RECORD
  5
7E5D
330
1
100
AcDbSymbolTableRecord
100
AcDbBlockTableRecord
  2
*D6
340
0
  0
BLOCK_RECORD
  5
7F3E
330
1
100
AcDbSymbolTableRecord
100
AcDbBlockTableRecord
  2
*D7
340
0
  0
BLOCK_RECORD
  5
7F9E
330
1
100
AcDbSymbolTableRecord
100
AcDbBlockTableRecord
  2
*D8
340
0
  0
BLOCK_RECORD
  5
7FCD
330
1
100
AcDbSymbolTableRecord
100
AcDbBlockTableRecord
  2
*D9
340
0
  0
BLOCK_RECORD
  5
7FFC
330
1
100
AcDbSymbolTableRecord
100
AcDbBlockTableRecord
  2
*D10
340
0
  0
BLOCK_RECORD
  5
802B
330
1
100
AcDbSymbolTableRecord
100
AcDbBlockTableRecord
  2
*D11
340
0
  0
BLOCK_RECORD
  5
805A
330
1
100
AcDbSymbolTableRecord
100
AcDbBlockTableRecord
  2
*D12
340
0
  0
BLOCK_RECORD
  5
8172
330
1
100
AcDbSymbolTableRecord
100
AcDbBlockTableRecord
  2
*D13
340
0
  0
BLOCK_RECORD
  5
819C
330
1
100
AcDbSymbolTableRecord
100
AcDbBlockTableRecord
  2
*D14
340
0
  0
BLOCK_RECORD
  5
81D1
330
1
100
AcDbSymbolTableRecord
100
AcDbBlockTableRecord
  2
*D15
340
0
  0
BLOCK_RECORD
  5
8240
330
1
100
AcDbSymbolTableRecord
100
AcDbBlockTableRecord
  2
*D16
340
0
  0
BLOCK_RECORD
  5
8266
330
1
100
AcDbSymbolTableRecord
100
AcDbBlockTableRecord
  2
*D17
340
0
  0
BLOCK_RECORD
  5
828C
330
1
100
AcDbSymbolTableRecord
100
AcDbBlockTableRecord
  2
*D18
340
0
  0
BLOCK_RECORD
  5
82B6
330
1
100
AcDbSymbolTableRecord
100
AcDbBlockTableRecord
  2
*D19
340
0
  0
BLOCK_RECORD
  5
82E0
330
1
100
AcDbSymbolTableRecord
100
AcDbBlockTableRecord
  2
*D20
340
0
  0
BLOCK_RECORD
  5
8324
330
1
100
AcDbSymbolTableRecord
100
AcDbBlockTableRecord
  2
*D21
340
0
  0
BLOCK_RECORD
  5
8374
330
1
100
AcDbSymbolTableRecord
100
AcDbBlockTableRecord
  2
*D22
340
0
  0
BLOCK_RECORD
  5
838C
330
1
100
AcDbSymbolTableRecord
100
AcDbBlockTableRecord
  2
*D23
340
0
  0
BLOCK_RECORD
  5
83A8
330
1
100
AcDbSymbolTableRecord
100
AcDbBlockTableRecord
  2
GENDOT
340
0
102
{BLKREFS
331
9446
102
}
  0
BLOCK_RECORD
  5
83DB
330
1
100
AcDbSymbolTableRecord
100
AcDbBlockTableRecord
  2
*D25
340
0
  0
BLOCK_RECORD
  5
842C
330
1
100
AcDbSymbolTableRecord
100
AcDbBlockTableRecord
  2
*D26
340
0
  0
BLOCK_RECORD
  5
8456
330
1
100
AcDbSymbolTableRecord
100
AcDbBlockTableRecord
  2
*D27
340
0
  0
BLOCK_RECORD
  5
8480
330
1
100
AcDbSymbolTableRecord
100
AcDbBlockTableRecord
  2
*D28
340
0
  0
BLOCK_RECORD
  5
88C1
330
1
100
AcDbSymbolTableRecord
100
AcDbBlockTableRecord
  2
SW_CENTERMARKSYMBOL_9
340
0
  0
BLOCK_RECORD
  5
9502
330
1
100
AcDbSymbolTableRecord
100
AcDbBlockTableRecord
  2
*D30
340
0
  0
ENDTAB
  0
ENDSEC
  0
SECTION
  2
BLOCKS
  0
BLOCK
  5
20
330
1F
100
AcDbEntity
  8
0
100
AcDbBlockBegin
  2
*Model_Space
 70
     0
 10
0.0
 20
0.0
 30
0.0
  3
*Model_Space
  1

  0
ENDBLK
  5
21
330
1F
100
AcDbEntity
  8
0
100
AcDbBlockEnd
  0
BLOCK
  5
1C
330
1B
100
AcDbEntity
 67
     1
  8
0
100
AcDbBlockBegin
  2
*Paper_Space
 70
     0
 10
0.0
 20
0.0
 30
0.0
  3
*Paper_Space
  1

  0
ENDBLK
  5
1D
330
1B
100
AcDbEntity
 67
     1
  8
0
100
AcDbBlockEnd
  0
BLOCK
  5
24
330
23
100
AcDbEntity
  8
0
100
AcDbBlockBegin
  2
*Paper_Space0
 70
     0
 10
0.0
 20
0.0
 30
0.0
  3
*Paper_Space0
  1

  0
ENDBLK
  5
25
330
23
100
AcDbEntity
  8
0
100
AcDbBlockEnd
  0
BLOCK
  5
89
330
87
100
AcDbEntity
  8
0
100
AcDbBlockBegin
  2
GENAXEH
 70
     0
 10
0.0
 20
0.0
 30
0.0
  3
GENAXEH
  1

  0
LINE
  5
88
330
87
100
AcDbEntity
  8
0
100
AcDbLine
 10
-1.0
 20
0.0
 30
0.0
 11
1.0
 21
0.0
 31
0.0
  0
ENDBLK
  5
8A
330
87
100
AcDbEntity
  8
0
100
AcDbBlockEnd
  0
BLOCK
  5
7DF5
330
7DEB
100
AcDbEntity
  8
0
100
AcDbBlockBegin
  2
*D3
 70
     1
 10
0.0
 20
0.0
 30
0.0
  3
*D3
  1

  0
LINE
  5
938B
330
7DEB
100
AcDbEntity
  8
AM_5
100
AcDbLine
 10
425.810153493886
 20
1354.009363884181
 30
0.0
 11
425.810153493886
 21
1364.05515197416
 31
0.0
  0
LINE
  5
938C
330
7DEB
100
AcDbEntity
  8
AM_5
100
AcDbLine
 10
447.8101534938859
 20
1354.009363884181
 30
0.0
 11
447.8101534938859
 21
1364.05515197416
 31
0.0
  0
LINE
  5
938D
330
7DEB
100
AcDbEntity
  8
AM_5
100
AcDbLine
 10
428.8101534938859
 20
1362.55515197416
 30
0.0
 11
444.8101534938859
 21
1362.55515197416
 31
0.0
  0
SOLID
  5
938E
330
7DEB
100
AcDbEntity
  8
AM_5
100
AcDbTrace
 10
428.8101534938859
 20
1363.05515197416
 30
0.0
 11
428.8101534938859
 21
1362.05515197416
 31
0.0
 12
425.810153493886
 22
1362.55515197416
 32
0.0
 13
425.810153493886
 23
1362.55515197416
 33
0.0
  0
SOLID
  5
938F
330
7DEB
100
AcDbEntity
  8
AM_5
100
AcDbTrace
 10
444.8101534938859
 20
1363.05515197416
 30
0.0
 11
444.8101534938859
 21
1362.05515197416
 31
0.0
 12
447.8101534938859
 22
1362.55515197416
 32
0.0
 13
447.8101534938859
 23
1362.55515197416
 33
0.0
  0
MTEXT
  5
9390
330
7DEB
100
AcDbEntity
  8
AM_5
100
AcDbMText
 10
436.8101534938859
 20
1365.005496462349
 30
0.0
 40
3.5
 41
0.0
 71
     5
 72
     1
  1
22
 73
     1
 44
1.0
1001
ACAD
1000
MTEXTBEGIN
1070
    73
1070
     1
1070
    44
1040
1.0
1070
    74
1070
     0
1000
MTEXTEND
  0
POINT
  5
9391
330
7DEB
100
AcDbEntity
  8
Defpoints
 62
     0
100
AcDbPoint
 10
425.810153493886
 20
1353.009363884181
 30
0.0
  0
POINT
  5
9392
330
7DEB
100
AcDbEntity
  8
Defpoints
 62
     0
100
AcDbPoint
 10
447.8101534938859
 20
1353.009363884181
 30
0.0
  0
POINT
  5
9393
330
7DEB
100
AcDbEntity
  8
Defpoints
 62
     0
100
AcDbPoint
 10
447.8101534938859
 20
1362.55515197416
 30
0.0
  0
ENDBLK
  5
7DF6
330
7DEB
100
AcDbEntity
  8
0
100
AcDbBlockEnd
  0
BLOCK
  5
7E1B
330
7E11
100
AcDbEntity
  8
0
100
AcDbBlockBegin
  2
*D4
 70
     1
 10
0.0
 20
0.0
 30
0.0
  3
*D4
  1

  0
LINE
  5
9394
330
7E11
100
AcDbEntity
  8
AM_5
100
AcDbLine
 10
452.8122231127713
 20
1349.007294265296
 30
0.0
 11
468.1149674410322
 21
1349.007294265296
 31
0.0
  0
LINE
  5
9395
330
7E11
100
AcDbEntity
  8
AM_5
100
AcDbLine
 10
461.8101518249558
 20
1357.507294607433
 30
0.0
 11
468.1149674410322
 21
1357.507294607433
 31
0.0
  0
LINE
  5
9396
330
7E11
100
AcDbEntity
  8
AM_5
100
AcDbLine
 10
466.6149674410323
 20
1352.007294265296
 30
0.0
 11
466.6149674410323
 21
1354.507294607433
 31
0.0
  0
SOLID
  5
9397
330
7E11
100
AcDbEntity
  8
AM_5
100
AcDbTrace
 10
466.1149674410323
 20
1352.007294265296
 30
0.0
 11
467.1149674410322
 21
1352.007294265296
 31
0.0
 12
466.6149674410323
 22
1349.007294265296
 32
0.0
 13
466.6149674410323
 23
1349.007294265296
 33
0.0
  0
SOLID
  5
9398
330
7E11
100
AcDbEntity
  8
AM_5
100
AcDbTrace
 10
466.1149674410323
 20
1354.507294607433
 30
0.0
 11
467.1149674410322
 21
1354.507294607433
 31
0.0
 12
466.6149674410323
 22
1357.507294607433
 32
0.0
 13
466.6149674410323
 23
1357.507294607433
 33
0.0
  0
MTEXT
  5
9399
330
7E11
100
AcDbEntity
  8
AM_5
100
AcDbMText
 10
464.164967441032
 20
1353.257294436365
 30
0.0
 40
3.5
 41
0.0
 71
     5
 72
     1
  1
8.5
 11
0.0000000000000001
 21
1.0
 31
0.0
 73
     1
 44
1.0
1001
ACAD
1000
MTEXTBEGIN
1070
    73
1070
     1
1070
    44
1040
1.0
1070
    74
1070
     0
1000
MTEXTEND
  0
POINT
  5
939A
330
7E11
100
AcDbEntity
  8
Defpoints
 62
     0
100
AcDbPoint
 10
451.8122231127713
 20
1349.007294265296
 30
0.0
  0
POINT
  5
939B
330
7E11
100
AcDbEntity
  8
Defpoints
 62
     0
100
AcDbPoint
 10
460.8101518249558
 20
1357.507294607433
 30
0.0
  0
POINT
  5
939C
330
7E11
100
AcDbEntity
  8
Defpoints
 62
     0
100
AcDbPoint
 10
466.6149674410323
 20
1357.507294607433
 30
0.0
  0
ENDBLK
  5
7E1C
330
7E11
100
AcDbEntity
  8
0
100
AcDbBlockEnd
  0
BLOCK
  5
7E41
330
7E37
100
AcDbEntity
  8
0
100
AcDbBlockBegin
  2
*D5
 70
     1
 10
0.0
 20
0.0
 30
0.0
  3
*D5
  1

  0
LINE
  5
939D
330
7E37
100
AcDbEntity
  8
AM_5
100
AcDbLine
 10
412.8101532703684
 20
1294.236796500219
 30
0.0
 11
412.8101532703684
 21
1315.719837964751
 31
0.0
  0
LINE
  5
939E
330
7E37
100
AcDbEntity
  8
AM_5
100
AcDbLine
 10
460.8101518249558
 20
1294.236796500219
 30
0.0
 11
460.8101518249558
 21
1315.719837964751
 31
0.0
  0
LINE
  5
939F
330
7E37
100
AcDbEntity
  8
AM_5
100
AcDbLine
 10
415.8101532703684
 20
1314.219837964751
 30
0.0
 11
457.8101518249558
 21
1314.219837964751
 31
0.0
  0
SOLID
  5
93A0
330
7E37
100
AcDbEntity
  8
AM_5
100
AcDbTrace
 10
415.8101532703684
 20
1314.719837964751
 30
0.0
 11
415.8101532703684
 21
1313.719837964751
 31
0.0
 12
412.8101532703684
 22
1314.219837964751
 32
0.0
 13
412.8101532703684
 23
1314.219837964751
 33
0.0
  0
SOLID
  5
93A1
330
7E37
100
AcDbEntity
  8
AM_5
100
AcDbTrace
 10
457.8101518249558
 20
1314.719837964751
 30
0.0
 11
457.8101518249558
 21
1313.719837964751
 31
0.0
 12
460.8101518249558
 22
1314.219837964751
 32
0.0
 13
460.8101518249558
 23
1314.219837964751
 33
0.0
  0
MTEXT
  5
93A2
330
7E37
100
AcDbEntity
  8
AM_5
100
AcDbMText
 10
436.8101545444178
 20
1316.669837964751
 30
0.0
 40
3.5
 41
0.0
 71
     5
 72
     1
  1
48
 73
     1
 44
1.0
1001
ACAD
1000
MTEXTBEGIN
1070
    73
1070
     1
1070
    44
1040
1.0
1070
    74
1070
     0
1000
MTEXTEND
  0
POINT
  5
93A3
330
7E37
100
AcDbEntity
  8
Defpoints
 62
     0
100
AcDbPoint
 10
412.8101532703684
 20
1293.236796500219
 30
0.0
  0
POINT
  5
93A4
330
7E37
100
AcDbEntity
  8
Defpoints
 62
     0
100
AcDbPoint
 10
460.8101518249558
 20
1293.236796500219
 30
0.0
  0
POINT
  5
93A5
330
7E37
100
AcDbEntity
  8
Defpoints
 62
     0
100
AcDbPoint
 10
460.8101518249558
 20
1314.219837964751
 30
0.0
  0
ENDBLK
  5
7E42
330
7E37
100
AcDbEntity
  8
0
100
AcDbBlockEnd
  0
BLOCK
  5
7E67
330
7E5D
100
AcDbEntity
  8
0
100
AcDbBlockBegin
  2
*D6
 70
     1
 10
0.0
 20
0.0
 30
0.0
  3
*D6
  1

  0
LINE
  5
93A6
330
7E5D
100
AcDbEntity
  8
AM_5
100
AcDbLine
 10
419.3101534938859
 20
1294.73886597456
 30
0.0
 11
419.3101534938859
 21
1307.949436229338
 31
0.0
  0
LINE
  5
93A7
330
7E5D
100
AcDbEntity
  8
AM_5
100
AcDbLine
 10
454.310153493886
 20
1295.119084799408
 30
0.0
 11
454.310153493886
 21
1307.949436229338
 31
0.0
  0
LINE
  5
93A8
330
7E5D
100
AcDbEntity
  8
AM_5
100
AcDbLine
 10
422.310153493886
 20
1306.449436229338
 30
0.0
 11
451.310153493886
 21
1306.449436229338
 31
0.0
  0
SOLID
  5
93A9
330
7E5D
100
AcDbEntity
  8
AM_5
100
AcDbTrace
 10
422.310153493886
 20
1306.949436229338
 30
0.0
 11
422.310153493886
 21
1305.949436229338
 31
0.0
 12
419.3101534938859
 22
1306.449436229338
 32
0.0
 13
419.3101534938859
 23
1306.449436229338
 33
0.0
  0
SOLID
  5
93AA
330
7E5D
100
AcDbEntity
  8
AM_5
100
AcDbTrace
 10
451.310153493886
 20
1306.949436229338
 30
0.0
 11
451.310153493886
 21
1305.949436229338
 31
0.0
 12
454.310153493886
 22
1306.449436229338
 32
0.0
 13
454.310153493886
 23
1306.449436229338
 33
0.0
  0
MTEXT
  5
93AB
330
7E5D
100
AcDbEntity
  8
AM_5
100
AcDbMText
 10
436.8101534938858
 20
1308.899436229338
 30
0.0
 40
3.5
 41
0.0
 71
     5
 72
     1
  1
35
 73
     1
 44
1.0
1001
ACAD
1000
MTEXTBEGIN
1070
    73
1070
     1
1070
    44
1040
1.0
1070
    74
1070
     0
1000
MTEXTEND
  0
POINT
  5
93AC
330
7E5D
100
AcDbEntity
  8
Defpoints
 62
     0
100
AcDbPoint
 10
419.3101534938859
 20
1293.73886597456
 30
0.0
  0
POINT
  5
93AD
330
7E5D
100
AcDbEntity
  8
Defpoints
 62
     0
100
AcDbPoint
 10
454.310153493886
 20
1294.119084799408
 30
0.0
  0
POINT
  5
93AE
330
7E5D
100
AcDbEntity
  8
Defpoints
 62
     0
100
AcDbPoint
 10
454.310153493886
 20
1306.449436229338
 30
0.0
  0
ENDBLK
  5
7E68
330
7E5D
100
AcDbEntity
  8
0
100
AcDbBlockEnd
  0
BLOCK
  5
7F48
330
7F3E
100
AcDbEntity
  8
0
100
AcDbBlockBegin
  2
*D7
 70
     1
 10
0.0
 20
0.0
 30
0.0
  3
*D7
  1

  0
LINE
  5
93AF
330
7F3E
100
AcDbEntity
  8
AM_5
100
AcDbLine
 10
454.310153493886
 20
1295.119084799408
 30
0.0
 11
454.310153493886
 21
1307.949436229338
 31
0.0
  0
LINE
  5
93B0
330
7F3E
100
AcDbEntity
  8
AM_5
100
AcDbLine
 10
460.8101518249558
 20
1294.236796500219
 30
0.0
 11
460.8101518249558
 21
1307.949436229338
 31
0.0
  0
LINE
  5
93B1
330
7F3E
100
AcDbEntity
  8
AM_5
100
AcDbLine
 10
451.310153493886
 20
1306.449436229338
 30
0.0
 11
448.3101534938859
 21
1306.449436229338
 31
0.0
  0
LINE
  5
93B2
330
7F3E
100
AcDbEntity
  8
AM_5
100
AcDbLine
 10
463.8101518249558
 20
1306.449436229338
 30
0.0
 11
466.8101518249557
 21
1306.449436229338
 31
0.0
  0
LINE
  5
93B3
330
7F3E
100
AcDbEntity
  8
AM_5
100
AcDbLine
 10
454.310153493886
 20
1306.449436229338
 30
0.0
 11
460.8101518249558
 21
1306.449436229338
 31
0.0
  0
SOLID
  5
93B4
330
7F3E
100
AcDbEntity
  8
AM_5
100
AcDbTrace
 10
451.310153493886
 20
1306.949436229338
 30
0.0
 11
451.310153493886
 21
1305.949436229338
 31
0.0
 12
454.310153493886
 22
1306.449436229338
 32
0.0
 13
454.310153493886
 23
1306.449436229338
 33
0.0
  0
SOLID
  5
93B5
330
7F3E
100
AcDbEntity
  8
AM_5
100
AcDbTrace
 10
463.8101518249558
 20
1306.949436229338
 30
0.0
 11
463.8101518249558
 21
1305.949436229338
 31
0.0
 12
460.8101518249558
 22
1306.449436229338
 32
0.0
 13
460.8101518249558
 23
1306.449436229338
 33
0.0
  0
MTEXT
  5
93B6
330
7F3E
100
AcDbEntity
  8
AM_5
100
AcDbMText
 10
457.5601526594208
 20
1308.899436229338
 30
0.0
 40
3.5
 41
0.0
 71
     5
 72
     1
  1
6.5
 73
     1
 44
1.0
1001
ACAD
1000
MTEXTBEGIN
1070
    73
1070
     1
1070
    44
1040
1.0
1070
    74
1070
     0
1000
MTEXTEND
  0
POINT
  5
93B7
330
7F3E
100
AcDbEntity
  8
Defpoints
 62
     0
100
AcDbPoint
 10
454.310153493886
 20
1294.119084799408
 30
0.0
  0
POINT
  5
93B8
330
7F3E
100
AcDbEntity
  8
Defpoints
 62
     0
100
AcDbPoint
 10
460.8101518249558
 20
1293.236796500219
 30
0.0
  0
POINT
  5
93B9
330
7F3E
100
AcDbEntity
  8
Defpoints
 62
     0
100
AcDbPoint
 10
460.8101518249558
 20
1306.449436229338
 30
0.0
  0
ENDBLK
  5
7F49
330
7F3E
100
AcDbEntity
  8
0
100
AcDbBlockEnd
  0
BLOCK
  5
7FA8
330
7F9E
100
AcDbEntity
  8
0
100
AcDbBlockBegin
  2
*D8
 70
     1
 10
0.0
 20
0.0
 30
0.0
  3
*D8
  1

  0
LINE
  5
93BA
330
7F9E
100
AcDbEntity
  8
AM_5
100
AcDbLine
 10
468.3101558184671
 20
1293.236796500219
 30
0.0
 11
476.3944616578588
 21
1293.236796500219
 31
0.0
  0
LINE
  5
93BB
330
7F9E
100
AcDbEntity
  8
AM_5
100
AcDbLine
 10
449.7795294035178
 20
1272.136796355675
 30
0.0
 11
476.3944616578588
 21
1272.136796355675
 31
0.0
  0
LINE
  5
93BC
330
7F9E
100
AcDbEntity
  8
AM_5
100
AcDbLine
 10
474.8944616578588
 20
1290.236796500219
 30
0.0
 11
474.8944616578588
 21
1275.136796355675
 31
0.0
  0
SOLID
  5
93BD
330
7F9E
100
AcDbEntity
  8
AM_5
100
AcDbTrace
 10
474.3944616578589
 20
1290.236796500219
 30
0.0
 11
475.3944616578588
 21
1290.236796500219
 31
0.0
 12
474.8944616578588
 22
1293.236796500219
 32
0.0
 13
474.8944616578588
 23
1293.236796500219
 33
0.0
  0
SOLID
  5
93BE
330
7F9E
100
AcDbEntity
  8
AM_5
100
AcDbTrace
 10
474.3944616578589
 20
1275.136796355675
 30
0.0
 11
475.3944616578588
 21
1275.136796355675
 31
0.0
 12
474.8944616578588
 22
1272.136796355675
 32
0.0
 13
474.8944616578588
 23
1272.136796355675
 33
0.0
  0
MTEXT
  5
93BF
330
7F9E
100
AcDbEntity
  8
AM_5
100
AcDbMText
 10
472.4441171696696
 20
1282.686796427947
 30
0.0
 40
3.5
 41
0.0
 71
     5
 72
     1
  1
21.1
 11
0.0000000000000001
 21
1.0
 31
0.0
 73
     1
 44
1.0
1001
ACAD
1000
MTEXTBEGIN
1070
    73
1070
     1
1070
    44
1040
1.0
1070
    74
1070
     0
1000
MTEXTEND
  0
POINT
  5
93C0
330
7F9E
100
AcDbEntity
  8
Defpoints
 62
     0
100
AcDbPoint
 10
467.3101558184671
 20
1293.236796500219
 30
0.0
  0
POINT
  5
93C1
330
7F9E
100
AcDbEntity
  8
Defpoints
 62
     0
100
AcDbPoint
 10
448.7795294035178
 20
1272.136796355675
 30
0.0
  0
POINT
  5
93C2
330
7F9E
100
AcDbEntity
  8
Defpoints
 62
     0
100
AcDbPoint
 10
474.8944616578588
 20
1272.136796355675
 30
0.0
  0
ENDBLK
  5
7FA9
330
7F9E
100
AcDbEntity
  8
0
100
AcDbBlockEnd
  0
BLOCK
  5
7FD7
330
7FCD
100
AcDbEntity
  8
0
100
AcDbBlockBegin
  2
*D9
 70
     1
 10
0.0
 20
0.0
 30
0.0
  3
*D9
  1

  0
LINE
  5
93C3
330
7FCD
100
AcDbEntity
  8
AM_5
100
AcDbLine
 10
461.8101518249558
 20
1269.736796373559
 30
0.0
 11
484.3078919737914
 21
1269.736796373559
 31
0.0
  0
LINE
  5
93C4
330
7FCD
100
AcDbEntity
  8
AM_5
100
AcDbLine
 10
461.8101518249558
 20
1293.236796500219
 30
0.0
 11
484.3078919737914
 21
1293.236796500219
 31
0.0
  0
LINE
  5
93C5
330
7FCD
100
AcDbEntity
  8
AM_5
100
AcDbLine
 10
482.8078919737914
 20
1272.736796373559
 30
0.0
 11
482.8078919737914
 21
1290.236796500219
 31
0.0
  0
SOLID
  5
93C6
330
7FCD
100
AcDbEntity
  8
AM_5
100
AcDbTrace
 10
482.3078919737914
 20
1272.736796373559
 30
0.0
 11
483.3078919737914
 21
1272.736796373559
 31
0.0
 12
482.8078919737914
 22
1269.736796373559
 32
0.0
 13
482.8078919737914
 23
1269.736796373559
 33
0.0
  0
SOLID
  5
93C7
330
7FCD
100
AcDbEntity
  8
AM_5
100
AcDbTrace
 10
482.3078919737914
 20
1290.236796500219
 30
0.0
 11
483.3078919737914
 21
1290.236796500219
 31
0.0
 12
482.8078919737914
 22
1293.236796500219
 32
0.0
 13
482.8078919737914
 23
1293.236796500219
 33
0.0
  0
MTEXT
  5
93C8
330
7FCD
100
AcDbEntity
  8
AM_5
100
AcDbMText
 10
480.3575474856022
 20
1281.486796436889
 30
0.0
 40
3.5
 41
0.0
 71
     5
 72
     1
  1
23.5
 11
0.0000000000000001
 21
1.0
 31
0.0
 73
     1
 44
1.0
1001
ACAD
1000
MTEXTBEGIN
1070
    73
1070
     1
1070
    44
1040
1.0
1070
    74
1070
     0
1000
MTEXTEND
  0
POINT
  5
93C9
330
7FCD
100
AcDbEntity
  8
Defpoints
 62
     0
100
AcDbPoint
 10
460.8101518249558
 20
1269.736796373559
 30
0.0
  0
POINT
  5
93CA
330
7FCD
100
AcDbEntity
  8
Defpoints
 62
     0
100
AcDbPoint
 10
460.8101518249558
 20
1293.236796500219
 30
0.0
  0
POINT
  5
93CB
330
7FCD
100
AcDbEntity
  8
Defpoints
 62
     0
100
AcDbPoint
 10
482.8078919737914
 20
1293.236796500219
 30
0.0
  0
ENDBLK
  5
7FD8
330
7FCD
100
AcDbEntity
  8
0
100
AcDbBlockEnd
  0
BLOCK
  5
8006
330
7FFC
100
AcDbEntity
  8
0
100
AcDbBlockBegin
  2
*D10
 70
     1
 10
0.0
 20
0.0
 30
0.0
  3
*D10
  1

  0
LINE
  5
93CC
330
7FFC
100
AcDbEntity
  8
AM_5
100
AcDbLine
 10
428.8101534938861
 20
1267.167420446043
 30
0.0
 11
428.8101534938861
 21
1260.817789718391
 31
0.0
  0
LINE
  5
93CD
330
7FFC
100
AcDbEntity
  8
AM_5
100
AcDbLine
 10
444.8101534938861
 20
1267.167420446043
 30
0.0
 11
444.8101534938861
 21
1260.817789718391
 31
0.0
  0
LINE
  5
93CE
330
7FFC
100
AcDbEntity
  8
AM_5
100
AcDbLine
 10
431.810153493886
 20
1262.317789718391
 30
0.0
 11
441.8101534938861
 21
1262.317789718391
 31
0.0
  0
SOLID
  5
93CF
330
7FFC
100
AcDbEntity
  8
AM_5
100
AcDbTrace
 10
431.810153493886
 20
1262.817789718391
 30
0.0
 11
431.810153493886
 21
1261.817789718391
 31
0.0
 12
428.8101534938861
 22
1262.317789718391
 32
0.0
 13
428.8101534938861
 23
1262.317789718391
 33
0.0
  0
SOLID
  5
93D0
330
7FFC
100
AcDbEntity
  8
AM_5
100
AcDbTrace
 10
441.8101534938861
 20
1262.817789718391
 30
0.0
 11
441.8101534938861
 21
1261.817789718391
 31
0.0
 12
444.8101534938861
 22
1262.317789718391
 32
0.0
 13
444.8101534938861
 23
1262.317789718391
 33
0.0
  0
MTEXT
  5
93D1
330
7FFC
100
AcDbEntity
  8
AM_5
100
AcDbMText
 10
436.8101534938861
 20
1264.767789718391
 30
0.0
 40
3.5
 41
0.0
 71
     5
 72
     1
  1
16
 73
     1
 44
1.0
1001
ACAD
1000
MTEXTBEGIN
1070
    73
1070
     1
1070
    44
1040
1.0
1070
    74
1070
     0
1000
MTEXTEND
  0
POINT
  5
93D2
330
7FFC
100
AcDbEntity
  8
Defpoints
 62
     0
100
AcDbPoint
 10
428.8101534938861
 20
1268.167420446043
 30
0.0
  0
POINT
  5
93D3
330
7FFC
100
AcDbEntity
  8
Defpoints
 62
     0
100
AcDbPoint
 10
444.8101534938861
 20
1268.167420446043
 30
0.0
  0
POINT
  5
93D4
330
7FFC
100
AcDbEntity
  8
Defpoints
 62
     0
100
AcDbPoint
 10
444.8101534938861
 20
1262.317789718391
 30
0.0
  0
ENDBLK
  5
8007
330
7FFC
100
AcDbEntity
  8
0
100
AcDbBlockEnd
  0
BLOCK
  5
8035
330
802B
100
AcDbEntity
  8
0
100
AcDbBlockBegin
  2
*D11
 70
     1
 10
0.0
 20
0.0
 30
0.0
  3
*D11
  1

  0
LINE
  5
93D5
330
802B
100
AcDbEntity
  8
AM_5
100
AcDbLine
 10
424.3101543581534
 20
1262.348186478628
 30
0.0
 11
424.3101543581534
 21
1254.371367043572
 31
0.0
  0
LINE
  5
93D6
330
802B
100
AcDbEntity
  8
AM_5
100
AcDbLine
 10
449.3101528680373
 20
1262.348186478628
 30
0.0
 11
449.3101528680373
 21
1254.371367043572
 31
0.0
  0
LINE
  5
93D7
330
802B
100
AcDbEntity
  8
AM_5
100
AcDbLine
 10
427.3101543581534
 20
1255.871367043573
 30
0.0
 11
446.3101528680373
 21
1255.871367043573
 31
0.0
  0
SOLID
  5
93D8
330
802B
100
AcDbEntity
  8
AM_5
100
AcDbTrace
 10
427.3101543581534
 20
1256.371367043573
 30
0.0
 11
427.3101543581534
 21
1255.371367043572
 31
0.0
 12
424.3101543581534
 22
1255.871367043573
 32
0.0
 13
424.3101543581534
 23
1255.871367043573
 33
0.0
  0
SOLID
  5
93D9
330
802B
100
AcDbEntity
  8
AM_5
100
AcDbTrace
 10
446.3101528680373
 20
1256.371367043573
 30
0.0
 11
446.3101528680373
 21
1255.371367043572
 31
0.0
 12
449.3101528680373
 22
1255.871367043573
 32
0.0
 13
449.3101528680373
 23
1255.871367043573
 33
0.0
  0
MTEXT
  5
93DA
330
802B
100
AcDbEntity
  8
AM_5
100
AcDbMText
 10
436.8101536130954
 20
1258.321711531761
 30
0.0
 40
3.5
 41
0.0
 71
     5
 72
     1
  1
25
 73
     1
 44
1.0
1001
ACAD
1000
MTEXTBEGIN
1070
    73
1070
     1
1070
    44
1040
1.0
1070
    74
1070
     0
1000
MTEXTEND
  0
POINT
  5
93DB
330
802B
100
AcDbEntity
  8
Defpoints
 62
     0
100
AcDbPoint
 10
424.3101543581534
 20
1263.348186478628
 30
0.0
  0
POINT
  5
93DC
330
802B
100
AcDbEntity
  8
Defpoints
 62
     0
100
AcDbPoint
 10
449.3101528680373
 20
1263.348186478628
 30
0.0
  0
POINT
  5
93DD
330
802B
100
AcDbEntity
  8
Defpoints
 62
     0
100
AcDbPoint
 10
449.3101528680373
 20
1255.871367043573
 30
0.0
  0
ENDBLK
  5
8036
330
802B
100
AcDbEntity
  8
0
100
AcDbBlockEnd
  0
BLOCK
  5
8064
330
805A
100
AcDbEntity
  8
0
100
AcDbBlockBegin
  2
*D12
 70
     1
 10
0.0
 20
0.0
 30
0.0
  3
*D12
  1

  0
LINE
  5
93DE
330
805A
100
AcDbEntity
  8
AM_5
100
AcDbLine
 10
420.810152853136
 20
1269.236796455516
 30
0.0
 11
420.810152853136
 21
1246.371367043572
 31
0.0
  0
LINE
  5
93DF
330
805A
100
AcDbEntity
  8
AM_5
100
AcDbLine
 10
452.8101525104093
 20
1269.236796455516
 30
0.0
 11
452.8101525104093
 21
1246.371367043572
 31
0.0
  0
LINE
  5
93E0
330
805A
100
AcDbEntity
  8
AM_5
100
AcDbLine
 10
423.810152853136
 20
1247.871367043572
 30
0.0
 11
449.8101525104093
 21
1247.871367043572
 31
0.0
  0
SOLID
  5
93E1
330
805A
100
AcDbEntity
  8
AM_5
100
AcDbTrace
 10
423.810152853136
 20
1248.371367043572
 30
0.0
 11
423.810152853136
 21
1247.371367043572
 31
0.0
 12
420.810152853136
 22
1247.871367043572
 32
0.0
 13
420.810152853136
 23
1247.871367043572
 33
0.0
  0
SOLID
  5
93E2
330
805A
100
AcDbEntity
  8
AM_5
100
AcDbTrace
 10
449.8101525104093
 20
1248.371367043572
 30
0.0
 11
449.8101525104093
 21
1247.371367043572
 31
0.0
 12
452.8101525104093
 22
1247.871367043572
 32
0.0
 13
452.8101525104093
 23
1247.871367043572
 33
0.0
  0
MTEXT
  5
93E3
330
805A
100
AcDbEntity
  8
AM_5
100
AcDbMText
 10
436.8101526817727
 20
1250.321711531761
 30
0.0
 40
3.5
 41
0.0
 71
     5
 72
     1
  1
32
 73
     1
 44
1.0
1001
ACAD
1000
MTEXTBEGIN
1070
    73
1070
     1
1070
    44
1040
1.0
1070
    74
1070
     0
1000
MTEXTEND
  0
POINT
  5
93E4
330
805A
100
AcDbEntity
  8
Defpoints
 62
     0
100
AcDbPoint
 10
420.810152853136
 20
1270.236796455516
 30
0.0
  0
POINT
  5
93E5
330
805A
100
AcDbEntity
  8
Defpoints
 62
     0
100
AcDbPoint
 10
452.8101525104093
 20
1270.236796455516
 30
0.0
  0
POINT
  5
93E6
330
805A
100
AcDbEntity
  8
Defpoints
 62
     0
100
AcDbPoint
 10
452.8101525104093
 20
1247.871367043572
 30
0.0
  0
ENDBLK
  5
8065
330
805A
100
AcDbEntity
  8
0
100
AcDbBlockEnd
  0
BLOCK
  5
817E
330
8172
100
AcDbEntity
  8
0
100
AcDbBlockBegin
  2
*D13
 70
     1
 10
0.0
 20
0.0
 30
0.0
  3
*D13
  1

  0
LINE
  5
93E7
330
8172
100
AcDbEntity
  8
AM_5
100
AcDbLine
 10
412.9278650501536
 20
1288.736796355675
 30
0.0
 11
407.6349755731506
 21
1288.736796355675
 31
0.0
  0
LINE
  5
93E8
330
8172
100
AcDbEntity
  8
AM_5
100
AcDbLine
 10
407.3101532703685
 20
1293.236796500219
 30
0.0
 11
410.6349755731506
 21
1293.236796500219
 31
0.0
  0
LINE
  5
93E9
330
8172
100
AcDbEntity
  8
AM_5
100
AcDbLine
 10
409.1349755731506
 20
1285.736796355675
 30
0.0
 11
409.1349755731506
 21
1282.736796355675
 31
0.0
  0
LINE
  5
93EA
330
8172
100
AcDbEntity
  8
AM_5
100
AcDbLine
 10
409.1349755731506
 20
1296.236796500219
 30
0.0
 11
409.1349755731506
 21
1306.03177124705
 31
0.0
  0
LINE
  5
93EB
330
8172
100
AcDbEntity
  8
AM_5
100
AcDbLine
 10
409.1349755731506
 20
1288.736796355675
 30
0.0
 11
409.1349755731506
 21
1293.236796500219
 31
0.0
  0
SOLID
  5
93EC
330
8172
100
AcDbEntity
  8
AM_5
100
AcDbTrace
 10
408.6349755731506
 20
1285.736796355675
 30
0.0
 11
409.6349755731506
 21
1285.736796355675
 31
0.0
 12
409.1349755731506
 22
1288.736796355675
 32
0.0
 13
409.1349755731506
 23
1288.736796355675
 33
0.0
  0
SOLID
  5
93ED
330
8172
100
AcDbEntity
  8
AM_5
100
AcDbTrace
 10
408.6349755731506
 20
1296.236796500219
 30
0.0
 11
409.6349755731506
 21
1296.236796500219
 31
0.0
 12
409.1349755731506
 22
1293.236796500219
 32
0.0
 13
409.1349755731506
 23
1293.236796500219
 33
0.0
  0
MTEXT
  5
93EE
330
8172
100
AcDbEntity
  8
AM_5
100
AcDbMText
 10
406.6849755731504
 20
1302.634283873635
 30
0.0
 40
3.5
 41
0.0
 71
     5
 72
     1
  1
4.5
 11
0.0000000000000001
 21
1.0
 31
0.0
 73
     1
 44
1.0
1001
ACAD
1000
MTEXTBEGIN
1070
    73
1070
     1
1070
    44
1040
1.0
1070
    74
1070
     0
1000
MTEXTEND
  0
POINT
  5
93EF
330
8172
100
AcDbEntity
  8
Defpoints
 62
     0
100
AcDbPoint
 10
413.9278650501536
 20
1288.736796355675
 30
0.0
  0
POINT
  5
93F0
330
8172
100
AcDbEntity
  8
Defpoints
 62
     0
100
AcDbPoint
 10
406.3101532703686
 20
1293.236796500219
 30
0.0
  0
POINT
  5
93F1
330
8172
100
AcDbEntity
  8
Defpoints
 62
     0
100
AcDbPoint
 10
409.1349755731506
 20
1293.236796500219
 30
0.0
  0
ENDBLK
  5
817F
330
8172
100
AcDbEntity
  8
0
100
AcDbBlockEnd
  0
BLOCK
  5
81A6
330
819C
100
AcDbEntity
  8
0
100
AcDbBlockBegin
  2
*D14
 70
     1
 10
0.0
 20
0.0
 30
0.0
  3
*D14
  1

  0
LINE
  5
93F2
330
819C
100
AcDbEntity
  8
AM_5
100
AcDbLine
 10
412.9278650501536
 20
1285.736796355675
 30
0.0
 11
402.4019966869858
 21
1285.736796355675
 31
0.0
  0
LINE
  5
93F3
330
819C
100
AcDbEntity
  8
AM_5
100
AcDbLine
 10
411.8101532703684
 20
1293.236796500219
 30
0.0
 11
402.4019966869858
 21
1293.236796500219
 31
0.0
  0
LINE
  5
93F4
330
819C
100
AcDbEntity
  8
AM_5
100
AcDbLine
 10
403.9019966869858
 20
1288.736796355675
 30
0.0
 11
403.9019966869858
 21
1290.236796500219
 31
0.0
  0
SOLID
  5
93F5
330
819C
100
AcDbEntity
  8
AM_5
100
AcDbTrace
 10
403.4019966869858
 20
1288.736796355675
 30
0.0
 11
404.4019966869858
 21
1288.736796355675
 31
0.0
 12
403.9019966869858
 22
1285.736796355675
 32
0.0
 13
403.9019966869858
 23
1285.736796355675
 33
0.0
  0
SOLID
  5
93F6
330
819C
100
AcDbEntity
  8
AM_5
100
AcDbTrace
 10
403.4019966869858
 20
1290.236796500219
 30
0.0
 11
404.4019966869858
 21
1290.236796500219
 31
0.0
 12
403.9019966869858
 22
1293.236796500219
 32
0.0
 13
403.9019966869858
 23
1293.236796500219
 33
0.0
  0
MTEXT
  5
93F7
330
819C
100
AcDbEntity
  8
AM_5
100
AcDbMText
 10
401.4519966869856
 20
1289.486796427947
 30
0.0
 40
3.5
 41
0.0
 71
     5
 72
     1
  1
7.5
 11
0.0000000000000001
 21
1.0
 31
0.0
 73
     1
 44
1.0
1001
ACAD
1000
MTEXTBEGIN
1070
    73
1070
     1
1070
    44
1040
1.0
1070
    74
1070
     0
1000
MTEXTEND
  0
POINT
  5
93F8
330
819C
100
AcDbEntity
  8
Defpoints
 62
     0
100
AcDbPoint
 10
413.9278650501536
 20
1285.736796355675
 30
0.0
  0
POINT
  5
93F9
330
819C
100
AcDbEntity
  8
Defpoints
 62
     0
100
AcDbPoint
 10
412.8101532703684
 20
1293.236796500219
 30
0.0
  0
POINT
  5
93FA
330
819C
100
AcDbEntity
  8
Defpoints
 62
     0
100
AcDbPoint
 10
403.9019966869858
 20
1293.236796500219
 30
0.0
  0
ENDBLK
  5
81A7
330
819C
100
AcDbEntity
  8
0
100
AcDbBlockEnd
  0
BLOCK
  5
81DD
330
81D1
100
AcDbEntity
  8
0
100
AcDbBlockBegin
  2
*D15
 70
     1
 10
0.0
 20
0.0
 30
0.0
  3
*D15
  1

  0
LINE
  5
93FB
330
81D1
100
AcDbEntity
  8
AM_5
100
AcDbLine
 10
422.0101528412151
 20
1264.436796994938
 30
0.0
 11
402.401996686986
 21
1264.436796994938
 31
0.0
  0
LINE
  5
93FC
330
81D1
100
AcDbEntity
  8
AM_5
100
AcDbLine
 10
411.8101532703684
 20
1270.036796795262
 30
0.0
 11
402.401996686986
 21
1270.036796795262
 31
0.0
  0
LINE
  5
93FD
330
81D1
100
AcDbEntity
  8
AM_5
100
AcDbLine
 10
403.901996686986
 20
1261.436796994938
 30
0.0
 11
403.901996686986
 21
1258.436796994938
 31
0.0
  0
LINE
  5
93FE
330
81D1
100
AcDbEntity
  8
AM_5
100
AcDbLine
 10
403.901996686986
 20
1273.036796795262
 30
0.0
 11
403.901996686986
 21
1276.036796795262
 31
0.0
  0
LINE
  5
93FF
330
81D1
100
AcDbEntity
  8
AM_5
100
AcDbLine
 10
403.901996686986
 20
1264.436796994938
 30
0.0
 11
403.901996686986
 21
1270.036796795262
 31
0.0
  0
SOLID
  5
9400
330
81D1
100
AcDbEntity
  8
AM_5
100
AcDbTrace
 10
403.401996686986
 20
1261.436796994938
 30
0.0
 11
404.401996686986
 21
1261.436796994938
 31
0.0
 12
403.901996686986
 22
1264.436796994938
 32
0.0
 13
403.901996686986
 23
1264.436796994938
 33
0.0
  0
SOLID
  5
9401
330
81D1
100
AcDbEntity
  8
AM_5
100
AcDbTrace
 10
403.401996686986
 20
1273.036796795262
 30
0.0
 11
404.401996686986
 21
1273.036796795262
 31
0.0
 12
403.901996686986
 22
1270.036796795262
 32
0.0
 13
403.901996686986
 23
1270.036796795262
 33
0.0
  0
MTEXT
  5
9402
330
81D1
100
AcDbEntity
  8
AM_5
100
AcDbMText
 10
401.4519966869857
 20
1267.2367968951
 30
0.0
 40
3.5
 41
0.0
 71
     5
 72
     1
  1
5.6
 11
0.0000000000000001
 21
1.0
 31
0.0
 73
     1
 44
1.0
1001
ACAD
1000
MTEXTBEGIN
1070
    73
1070
     1
1070
    44
1040
1.0
1070
    74
1070
     0
1000
MTEXTEND
  0
POINT
  5
9403
330
81D1
100
AcDbEntity
  8
Defpoints
 62
     0
100
AcDbPoint
 10
423.0101528412151
 20
1264.436796994938
 30
0.0
  0
POINT
  5
9404
330
81D1
100
AcDbEntity
  8
Defpoints
 62
     0
100
AcDbPoint
 10
412.8101532703684
 20
1270.036796795262
 30
0.0
  0
POINT
  5
9405
330
81D1
100
AcDbEntity
  8
Defpoints
 62
     0
100
AcDbPoint
 10
403.901996686986
 20
1270.036796795262
 30
0.0
  0
ENDBLK
  5
81DE
330
81D1
100
AcDbEntity
  8
0
100
AcDbBlockEnd
  0
BLOCK
  5
824A
330
8240
100
AcDbEntity
  8
0
100
AcDbBlockBegin
  2
*D16
 70
     1
 10
0.0
 20
0.0
 30
0.0
  3
*D16
  1

  0
LINE
  5
9406
330
8240
100
AcDbEntity
  8
AM_5
100
AcDbLine
 10
458.0787158727107
 20
1207.222963249069
 30
0.0
 11
467.958229266708
 21
1207.222963249069
 31
0.0
  0
LINE
  5
9407
330
8240
100
AcDbEntity
  8
AM_5
100
AcDbLine
 10
461.8101518249558
 20
1194.722962906932
 30
0.0
 11
467.958229266708
 21
1194.722962906932
 31
0.0
  0
LINE
  5
9408
330
8240
100
AcDbEntity
  8
AM_5
100
AcDbLine
 10
466.4582292667081
 20
1204.222963249069
 30
0.0
 11
466.4582292667081
 21
1197.722962906932
 31
0.0
  0
SOLID
  5
9409
330
8240
100
AcDbEntity
  8
AM_5
100
AcDbTrace
 10
465.9582292667081
 20
1204.222963249069
 30
0.0
 11
466.958229266708
 21
1204.222963249069
 31
0.0
 12
466.4582292667081
 22
1207.222963249069
 32
0.0
 13
466.4582292667081
 23
1207.222963249069
 33
0.0
  0
SOLID
  5
940A
330
8240
100
AcDbEntity
  8
AM_5
100
AcDbTrace
 10
465.9582292667081
 20
1197.722962906932
 30
0.0
 11
466.958229266708
 21
1197.722962906932
 31
0.0
 12
466.4582292667081
 22
1194.722962906932
 32
0.0
 13
466.4582292667081
 23
1194.722962906932
 33
0.0
  0
MTEXT
  5
940B
330
8240
100
AcDbEntity
  8
AM_5
100
AcDbMText
 10
464.0078847785188
 20
1200.972963078
 30
0.0
 40
3.5
 41
0.0
 71
     5
 72
     1
  1
12.5
 11
0.0000000000000001
 21
1.0
 31
0.0
 73
     1
 44
1.0
1001
ACAD
1000
MTEXTBEGIN
1070
    73
1070
     1
1070
    44
1040
1.0
1070
    74
1070
     0
1000
MTEXTEND
  0
POINT
  5
940C
330
8240
100
AcDbEntity
  8
Defpoints
 62
     0
100
AcDbPoint
 10
457.0787158727107
 20
1207.222963249069
 30
0.0
  0
POINT
  5
940D
330
8240
100
AcDbEntity
  8
Defpoints
 62
     0
100
AcDbPoint
 10
460.8101518249558
 20
1194.722962906932
 30
0.0
  0
POINT
  5
940E
330
8240
100
AcDbEntity
  8
Defpoints
 62
     0
100
AcDbPoint
 10
466.4582292667081
 20
1194.722962906932
 30
0.0
  0
ENDBLK
  5
824B
330
8240
100
AcDbEntity
  8
0
100
AcDbBlockEnd
  0
BLOCK
  5
8270
330
8266
100
AcDbEntity
  8
0
100
AcDbBlockBegin
  2
*D17
 70
     1
 10
0.0
 20
0.0
 30
0.0
  3
*D17
  1

  0
LINE
  5
940F
330
8266
100
AcDbEntity
  8
AM_5
100
AcDbLine
 10
455.510153493886
 20
1204.654400870244
 30
0.0
 11
455.510153493886
 21
1185.4121065265
 31
0.0
  0
LINE
  5
9410
330
8266
100
AcDbEntity
  8
AM_5
100
AcDbLine
 10
418.1101534938859
 20
1204.654400870244
 30
0.0
 11
418.1101534938859
 21
1185.4121065265
 31
0.0
  0
LINE
  5
9411
330
8266
100
AcDbEntity
  8
AM_5
100
AcDbLine
 10
452.510153493886
 20
1186.9121065265
 30
0.0
 11
421.1101534938859
 21
1186.9121065265
 31
0.0
  0
SOLID
  5
9412
330
8266
100
AcDbEntity
  8
AM_5
100
AcDbTrace
 10
452.510153493886
 20
1187.4121065265
 30
0.0
 11
452.510153493886
 21
1186.4121065265
 31
0.0
 12
455.510153493886
 22
1186.9121065265
 32
0.0
 13
455.510153493886
 23
1186.9121065265
 33
0.0
  0
SOLID
  5
9413
330
8266
100
AcDbEntity
  8
AM_5
100
AcDbTrace
 10
421.1101534938859
 20
1187.4121065265
 30
0.0
 11
421.1101534938859
 21
1186.4121065265
 31
0.0
 12
418.1101534938859
 22
1186.9121065265
 32
0.0
 13
418.1101534938859
 23
1186.9121065265
 33
0.0
  0
MTEXT
  5
9414
330
8266
100
AcDbEntity
  8
AM_5
100
AcDbMText
 10
436.8101534938859
 20
1189.3621065265
 30
0.0
 40
3.5
 41
0.0
 71
     5
 72
     1
  1
37.4
 73
     1
 44
1.0
1001
ACAD
1000
MTEXTBEGIN
1070
    73
1070
     1
1070
    44
1040
1.0
1070
    74
1070
     0
1000
MTEXTEND
  0
POINT
  5
9415
330
8266
100
AcDbEntity
  8
Defpoints
 62
     0
100
AcDbPoint
 10
455.510153493886
 20
1205.654400870244
 30
0.0
  0
POINT
  5
9416
330
8266
100
AcDbEntity
  8
Defpoints
 62
     0
100
AcDbPoint
 10
418.1101534938859
 20
1205.654400870244
 30
0.0
  0
POINT
  5
9417
330
8266
100
AcDbEntity
  8
Defpoints
 62
     0
100
AcDbPoint
 10
418.1101534938859
 20
1186.9121065265
 30
0.0
  0
ENDBLK
  5
8271
330
8266
100
AcDbEntity
  8
0
100
AcDbBlockEnd
  0
BLOCK
  5
8298
330
828C
100
AcDbEntity
  8
0
100
AcDbBlockBegin
  2
*D18
 70
     1
 10
0.0
 20
0.0
 30
0.0
  3
*D18
  1

  0
LINE
  5
9418
330
828C
100
AcDbEntity
  8
AM_5
100
AcDbLine
 10
420.7341860316198
 20
1214.322963249069
 30
0.0
 11
407.3485651867091
 21
1214.322963249069
 31
0.0
  0
LINE
  5
9419
330
828C
100
AcDbEntity
  8
AM_5
100
AcDbLine
 10
411.8101532703684
 20
1211.222963283186
 30
0.0
 11
407.3485651867091
 21
1211.222963283186
 31
0.0
  0
LINE
  5
941A
330
828C
100
AcDbEntity
  8
AM_5
100
AcDbLine
 10
408.8485651867091
 20
1208.222963283186
 30
0.0
 11
408.8485651867091
 21
1205.222963283186
 31
0.0
  0
LINE
  5
941B
330
828C
100
AcDbEntity
  8
AM_5
100
AcDbLine
 10
408.8485651867091
 20
1217.322963249069
 30
0.0
 11
408.8485651867091
 21
1225.922963249068
 31
0.0
  0
LINE
  5
941C
330
828C
100
AcDbEntity
  8
AM_5
100
AcDbLine
 10
408.8485651867091
 20
1211.222963283186
 30
0.0
 11
408.8485651867091
 21
1214.322963249069
 31
0.0
  0
SOLID
  5
941D
330
828C
100
AcDbEntity
  8
AM_5
100
AcDbTrace
 10
408.3485651867091
 20
1208.222963283186
 30
0.0
 11
409.3485651867091
 21
1208.222963283186
 31
0.0
 12
408.8485651867091
 22
1211.222963283186
 32
0.0
 13
408.8485651867091
 23
1211.222963283186
 33
0.0
  0
SOLID
  5
941E
330
828C
100
AcDbEntity
  8
AM_5
100
AcDbTrace
 10
408.3485651867091
 20
1217.322963249069
 30
0.0
 11
409.3485651867091
 21
1217.322963249069
 31
0.0
 12
408.8485651867091
 22
1214.322963249069
 32
0.0
 13
408.8485651867091
 23
1214.322963249069
 33
0.0
  0
MTEXT
  5
941F
330
828C
100
AcDbEntity
  8
AM_5
100
AcDbMText
 10
406.3985651867089
 20
1223.122963249069
 30
0.0
 40
3.5
 41
0.0
 71
     5
 72
     1
  1
3.1
 11
0.0000000000000001
 21
1.0
 31
0.0
 73
     1
 44
1.0
1001
ACAD
1000
MTEXTBEGIN
1070
    73
1070
     1
1070
    44
1040
1.0
1070
    74
1070
     0
1000
MTEXTEND
  0
POINT
  5
9420
330
828C
100
AcDbEntity
  8
Defpoints
 62
     0
100
AcDbPoint
 10
421.7341860316198
 20
1214.322963249069
 30
0.0
  0
POINT
  5
9421
330
828C
100
AcDbEntity
  8
Defpoints
 62
     0
100
AcDbPoint
 10
412.8101532703684
 20
1211.222963283186
 30
0.0
  0
POINT
  5
9422
330
828C
100
AcDbEntity
  8
Defpoints
 62
     0
100
AcDbPoint
 10
408.8485651867091
 20
1211.222963283186
 30
0.0
  0
ENDBLK
  5
8299
330
828C
100
AcDbEntity
  8
0
100
AcDbBlockEnd
  0
BLOCK
  5
82C2
330
82B6
100
AcDbEntity
  8
0
100
AcDbBlockBegin
  2
*D19
 70
     1
 10
0.0
 20
0.0
 30
0.0
  3
*D19
  1

  0
LINE
  5
9423
330
82B6
100
AcDbEntity
  8
AM_5
100
AcDbLine
 10
420.0101543760346
 20
1217.822963713084
 30
0.0
 11
401.2908221679996
 21
1217.822963713084
 31
0.0
  0
LINE
  5
9424
330
82B6
100
AcDbEntity
  8
AM_5
100
AcDbLine
 10
411.8101532703684
 20
1211.222963283186
 30
0.0
 11
401.2908221679996
 21
1211.222963283186
 31
0.0
  0
LINE
  5
9425
330
82B6
100
AcDbEntity
  8
AM_5
100
AcDbLine
 10
402.7908221679996
 20
1220.822963713084
 30
0.0
 11
402.7908221679996
 21
1223.822963713084
 31
0.0
  0
LINE
  5
9426
330
82B6
100
AcDbEntity
  8
AM_5
100
AcDbLine
 10
402.7908221679996
 20
1208.222963283186
 30
0.0
 11
402.7908221679996
 21
1205.222963283186
 31
0.0
  0
LINE
  5
9427
330
82B6
100
AcDbEntity
  8
AM_5
100
AcDbLine
 10
402.7908221679996
 20
1217.822963713084
 30
0.0
 11
402.7908221679996
 21
1211.222963283186
 31
0.0
  0
SOLID
  5
9428
330
82B6
100
AcDbEntity
  8
AM_5
100
AcDbTrace
 10
402.2908221679996
 20
1220.822963713084
 30
0.0
 11
403.2908221679996
 21
1220.822963713084
 31
0.0
 12
402.7908221679996
 22
1217.822963713084
 32
0.0
 13
402.7908221679996
 23
1217.822963713084
 33
0.0
  0
SOLID
  5
9429
330
82B6
100
AcDbEntity
  8
AM_5
100
AcDbTrace
 10
402.2908221679996
 20
1208.222963283186
 30
0.0
 11
403.2908221679996
 21
1208.222963283186
 31
0.0
 12
402.7908221679996
 22
1211.222963283186
 32
0.0
 13
402.7908221679996
 23
1211.222963283186
 33
0.0
  0
MTEXT
  5
942A
330
82B6
100
AcDbEntity
  8
AM_5
100
AcDbMText
 10
400.3408221679994
 20
1214.522963498135
 30
0.0
 40
3.5
 41
0.0
 71
     5
 72
     1
  1
6.6
 11
0.0000000000000001
 21
1.0
 31
0.0
 73
     1
 44
1.0
1001
ACAD
1000
MTEXTBEGIN
1070
    73
1070
     1
1070
    44
1040
1.0
1070
    74
1070
     0
1000
MTEXTEND
  0
POINT
  5
942B
330
82B6
100
AcDbEntity
  8
Defpoints
 62
     0
100
AcDbPoint
 10
421.0101543760345
 20
1217.822963713084
 30
0.0
  0
POINT
  5
942C
330
82B6
100
AcDbEntity
  8
Defpoints
 62
     0
100
AcDbPoint
 10
412.8101532703684
 20
1211.222963283186
 30
0.0
  0
POINT
  5
942D
330
82B6
100
AcDbEntity
  8
Defpoints
 62
     0
100
AcDbPoint
 10
402.7908221679996
 20
1211.222963283186
 30
0.0
  0
ENDBLK
  5
82C3
330
82B6
100
AcDbEntity
  8
0
100
AcDbBlockEnd
  0
BLOCK
  5
82EC
330
82E0
100
AcDbEntity
  8
0
100
AcDbBlockBegin
  2
*D20
 70
     1
 10
0.0
 20
0.0
 30
0.0
  3
*D20
  1

  0
LINE
  5
94A8
330
82E0
100
AcDbEntity
  8
AM_5
100
AcDbLine
 10
433.5601549691008
 20
1227.522962903951
 30
0.0
 11
433.5601549691008
 21
1233.17142286172
 31
0.0
  0
LINE
  5
94A9
330
82E0
100
AcDbEntity
  8
AM_5
100
AcDbLine
 10
439.0601549691008
 20
1227.722963249069
 30
0.0
 11
439.0601549691008
 21
1233.17142286172
 31
0.0
  0
LINE
  5
94AA
330
82E0
100
AcDbEntity
  8
AM_5
100
AcDbLine
 10
430.5601549691008
 20
1231.67142286172
 30
0.0
 11
427.5601549691008
 21
1231.67142286172
 31
0.0
  0
LINE
  5
94AB
330
82E0
100
AcDbEntity
  8
AM_5
100
AcDbLine
 10
442.0601549691008
 20
1231.67142286172
 30
0.0
 11
445.0601549691008
 21
1231.67142286172
 31
0.0
  0
LINE
  5
94AC
330
82E0
100
AcDbEntity
  8
AM_5
100
AcDbLine
 10
433.5601549691008
 20
1231.67142286172
 30
0.0
 11
439.0601549691008
 21
1231.67142286172
 31
0.0
  0
SOLID
  5
94AD
330
82E0
100
AcDbEntity
  8
AM_5
100
AcDbTrace
 10
430.5601549691008
 20
1232.17142286172
 30
0.0
 11
430.5601549691008
 21
1231.17142286172
 31
0.0
 12
433.5601549691008
 22
1231.67142286172
 32
0.0
 13
433.5601549691008
 23
1231.67142286172
 33
0.0
  0
SOLID
  5
94AE
330
82E0
100
AcDbEntity
  8
AM_5
100
AcDbTrace
 10
442.0601549691008
 20
1232.17142286172
 30
0.0
 11
442.0601549691008
 21
1231.17142286172
 31
0.0
 12
439.0601549691008
 22
1231.67142286172
 32
0.0
 13
439.0601549691008
 23
1231.67142286172
 33
0.0
  0
MTEXT
  5
94AF
330
82E0
100
AcDbEntity
  8
AM_5
100
AcDbMText
 10
436.3101549691008
 20
1234.12142286172
 30
0.0
 40
3.5
 41
0.0
 71
     5
 72
     1
  1
5.5
 73
     1
 44
1.0
1001
ACAD
1000
MTEXTBEGIN
1070
    73
1070
     1
1070
    44
1040
1.0
1070
    74
1070
     0
1000
MTEXTEND
  0
POINT
  5
94B0
330
82E0
100
AcDbEntity
  8
Defpoints
 62
     0
100
AcDbPoint
 10
433.5601549691008
 20
1226.522962903951
 30
0.0
  0
POINT
  5
94B1
330
82E0
100
AcDbEntity
  8
Defpoints
 62
     0
100
AcDbPoint
 10
439.0601549691008
 20
1226.722963249069
 30
0.0
  0
POINT
  5
94B2
330
82E0
100
AcDbEntity
  8
Defpoints
 62
     0
100
AcDbPoint
 10
439.0601549691008
 20
1231.67142286172
 30
0.0
  0
ENDBLK
  5
82ED
330
82E0
100
AcDbEntity
  8
0
100
AcDbBlockEnd
  0
BLOCK
  5
832E
330
8324
100
AcDbEntity
  8
0
100
AcDbBlockBegin
  2
*D21
 70
     1
 10
0.0
 20
0.0
 30
0.0
  3
*D21
  1

  0
LINE
  5
9439
330
8324
100
AcDbEntity
  8
AM_5
100
AcDbLine
 10
357.0626242510877
 20
1293.936796078517
 30
0.0
 11
357.0626242510877
 21
1307.719837964751
 31
0.0
  0
LINE
  5
943A
330
8324
100
AcDbEntity
  8
AM_5
100
AcDbLine
 10
373.562624627342
 20
1293.936796078517
 30
0.0
 11
373.562624627342
 21
1307.719837964751
 31
0.0
  0
LINE
  5
943B
330
8324
100
AcDbEntity
  8
AM_5
100
AcDbLine
 10
360.0626242510876
 20
1306.219837964751
 30
0.0
 11
370.5626246273419
 21
1306.219837964751
 31
0.0
  0
SOLID
  5
943C
330
8324
100
AcDbEntity
  8
AM_5
100
AcDbTrace
 10
360.0626242510876
 20
1306.719837964751
 30
0.0
 11
360.0626242510876
 21
1305.719837964751
 31
0.0
 12
357.0626242510877
 22
1306.219837964751
 32
0.0
 13
357.0626242510877
 23
1306.219837964751
 33
0.0
  0
SOLID
  5
943D
330
8324
100
AcDbEntity
  8
AM_5
100
AcDbTrace
 10
370.5626246273419
 20
1306.719837964751
 30
0.0
 11
370.5626246273419
 21
1305.719837964751
 31
0.0
 12
373.562624627342
 22
1306.219837964751
 32
0.0
 13
373.562624627342
 23
1306.219837964751
 33
0.0
  0
MTEXT
  5
943E
330
8324
100
AcDbEntity
  8
AM_5
100
AcDbMText
 10
365.3126244392148
 20
1308.669837964751
 30
0.0
 40
3.5
 41
0.0
 71
     5
 72
     1
  1
16.5
 73
     1
 44
1.0
1001
ACAD
1000
MTEXTBEGIN
1070
    73
1070
     1
1070
    44
1040
1.0
1070
    74
1070
     0
1000
MTEXTEND
  0
POINT
  5
943F
330
8324
100
AcDbEntity
  8
Defpoints
 62
     0
100
AcDbPoint
 10
357.0626242510877
 20
1292.936796078517
 30
0.0
  0
POINT
  5
9440
330
8324
100
AcDbEntity
  8
Defpoints
 62
     0
100
AcDbPoint
 10
373.562624627342
 20
1292.936796078517
 30
0.0
  0
POINT
  5
9441
330
8324
100
AcDbEntity
  8
Defpoints
 62
     0
100
AcDbPoint
 10
373.562624627342
 20
1306.219837964751
 30
0.0
  0
ENDBLK
  5
832F
330
8324
100
AcDbEntity
  8
0
100
AcDbBlockEnd
  0
BLOCK
  5
837E
330
8374
100
AcDbEntity
  8
0
100
AcDbBlockBegin
  2
*D22
 70
     1
 10
0.0
 20
0.0
 30
0.0
  3
*D22
  1

  0
LINE
  5
9442
330
8374
100
AcDbEntity
  8
AM_5
100
AcDbLine
 10
341.5626249700687
 20
1289.736796228273
 30
0.0
 11
341.5626249700687
 21
1307.71983796475
 31
0.0
  0
LINE
  5
9443
330
8374
100
AcDbEntity
  8
AM_5
100
AcDbLine
 10
349.0626243367693
 20
1294.5367959906
 30
0.0
 11
349.0626243367693
 21
1307.71983796475
 31
0.0
  0
LINE
  5
9444
330
8374
100
AcDbEntity
  8
AM_5
100
AcDbLine
 10
344.5626249700687
 20
1306.21983796475
 30
0.0
 11
346.0626243367693
 21
1306.21983796475
 31
0.0
  0
SOLID
  5
9445
330
8374
100
AcDbEntity
  8
AM_5
100
AcDbTrace
 10
344.5626249700687
 20
1306.719837964751
 30
0.0
 11
344.5626249700687
 21
1305.71983796475
 31
0.0
 12
341.5626249700687
 22
1306.21983796475
 32
0.0
 13
341.5626249700687
 23
1306.21983796475
 33
0.0
  0
INSERT
  5
9446
330
8374
100
AcDbEntity
  8
AM_5
100
AcDbBlockReference
  2
GENDOT
 10
349.0626243367693
 20
1306.21983796475
 30
0.0
 41
3.0
 42
3.0
 43
3.0
  0
MTEXT
  5
9447
330
8374
100
AcDbEntity
  8
AM_5
100
AcDbMText
 10
345.312624653419
 20
1308.669837964751
 30
0.0
 40
3.5
 41
0.0
 71
     5
 72
     1
  1
7.5
 73
     1
 44
1.0
1001
ACAD
1000
MTEXTBEGIN
1070
    73
1070
     1
1070
    44
1040
1.0
1070
    74
1070
     0
1000
MTEXTEND
  0
POINT
  5
9448
330
8374
100
AcDbEntity
  8
Defpoints
 62
     0
100
AcDbPoint
 10
341.5626249700687
 20
1288.736796228273
 30
0.0
  0
POINT
  5
9449
330
8374
100
AcDbEntity
  8
Defpoints
 62
     0
100
AcDbPoint
 10
349.0626243367693
 20
1293.5367959906
 30
0.0
  0
POINT
  5
944A
330
8374
100
AcDbEntity
  8
Defpoints
 62
     0
100
AcDbPoint
 10
349.0626243367693
 20
1306.21983796475
 30
0.0
  0
ENDBLK
  5
837F
330
8374
100
AcDbEntity
  8
0
100
AcDbBlockEnd
  0
BLOCK
  5
8398
330
838C
100
AcDbEntity
  8
0
100
AcDbBlockBegin
  2
*D23
 70
     1
 10
0.0
 20
0.0
 30
0.0
  3
*D23
  1

  0
LINE
  5
944B
330
838C
100
AcDbEntity
  8
AM_5
100
AcDbLine
 10
355.0626243889234
 20
1294.736796582176
 30
0.0
 11
355.0626243889234
 21
1307.71983796475
 31
0.0
  0
LINE
  5
944C
330
838C
100
AcDbEntity
  8
AM_5
100
AcDbLine
 10
349.0626243367693
 20
1294.5367959906
 30
0.0
 11
349.0626243367693
 21
1307.71983796475
 31
0.0
  0
LINE
  5
944D
330
838C
100
AcDbEntity
  8
AM_5
100
AcDbLine
 10
358.0626243889234
 20
1306.21983796475
 30
0.0
 11
361.0626243889234
 21
1306.21983796475
 31
0.0
  0
LINE
  5
944E
330
838C
100
AcDbEntity
  8
AM_5
100
AcDbLine
 10
346.0626243367693
 20
1306.21983796475
 30
0.0
 11
343.0626243367693
 21
1306.21983796475
 31
0.0
  0
LINE
  5
944F
330
838C
100
AcDbEntity
  8
AM_5
100
AcDbLine
 10
355.0626243889234
 20
1306.21983796475
 30
0.0
 11
349.0626243367693
 21
1306.21983796475
 31
0.0
  0
SOLID
  5
9450
330
838C
100
AcDbEntity
  8
AM_5
100
AcDbTrace
 10
358.0626243889234
 20
1306.719837964751
 30
0.0
 11
358.0626243889234
 21
1305.71983796475
 31
0.0
 12
355.0626243889234
 22
1306.21983796475
 32
0.0
 13
355.0626243889234
 23
1306.21983796475
 33
0.0
  0
SOLID
  5
9451
330
838C
100
AcDbEntity
  8
AM_5
100
AcDbTrace
 10
346.0626243367693
 20
1306.719837964751
 30
0.0
 11
346.0626243367693
 21
1305.71983796475
 31
0.0
 12
349.0626243367693
 22
1306.21983796475
 32
0.0
 13
349.0626243367693
 23
1306.21983796475
 33
0.0
  0
MTEXT
  5
9452
330
838C
100
AcDbEntity
  8
AM_5
100
AcDbMText
 10
352.0626243628464
 20
1308.669837964751
 30
0.0
 40
3.5
 41
0.0
 71
     5
 72
     1
  1
6
 73
     1
 44
1.0
1001
ACAD
1000
MTEXTBEGIN
1070
    73
1070
     1
1070
    44
1040
1.0
1070
    74
1070
     0
1000
MTEXTEND
  0
POINT
  5
9453
330
838C
100
AcDbEntity
  8
Defpoints
 62
     0
100
AcDbPoint
 10
355.0626243889234
 20
1293.736796582176
 30
0.0
  0
POINT
  5
9454
330
838C
100
AcDbEntity
  8
Defpoints
 62
     0
100
AcDbPoint
 10
349.0626243367693
 20
1293.5367959906
 30
0.0
  0
POINT
  5
9455
330
838C
100
AcDbEntity
  8
Defpoints
 62
     0
100
AcDbPoint
 10
349.0626243367693
 20
1306.21983796475
 30
0.0
  0
ENDBLK
  5
8399
330
838C
100
AcDbEntity
  8
0
100
AcDbBlockEnd
  0
BLOCK
  5
83AB
330
83A8
100
AcDbEntity
  8
0
100
AcDbBlockBegin
  2
GENDOT
 70
     0
 10
0.0
 20
0.0
 30
0.0
  3
GENDOT
  1

  0
LINE
  5
83A9
330
83A8
100
AcDbEntity
  8
0
100
AcDbLine
 10
0.0
 20
0.0
 30
0.0
 11
-1.0
 21
0.0
 31
0.0
  0
LWPOLYLINE
  5
83AA
330
83A8
100
AcDbEntity
  8
0
100
AcDbPolyline
 90
        2
 70
     1
 43
0.25
 10
-0.125
 20
0.0
 42
1.0
 10
0.125
 20
0.0
 42
1.0
  0
ENDBLK
  5
83AC
330
83A8
100
AcDbEntity
  8
0
100
AcDbBlockEnd
  0
BLOCK
  5
83E5
330
83DB
100
AcDbEntity
  8
0
100
AcDbBlockBegin
  2
*D25
 70
     1
 10
0.0
 20
0.0
 30
0.0
  3
*D25
  1

  0
LINE
  5
9536
330
83DB
100
AcDbEntity
  8
AM_5
100
AcDbLine
 10
341.5626249700685
 20
1289.536796112381
 30
0.0
 11
341.5626249700685
 21
1315.719837964751
 31
0.0
  0
LINE
  5
9537
330
83DB
100
AcDbEntity
  8
AM_5
100
AcDbLine
 10
373.562624627342
 20
1293.936796078517
 30
0.0
 11
373.562624627342
 21
1315.719837964751
 31
0.0
  0
LINE
  5
9538
330
83DB
100
AcDbEntity
  8
AM_5
100
AcDbLine
 10
344.5626249700686
 20
1314.219837964751
 30
0.0
 11
370.5626246273419
 21
1314.219837964751
 31
0.0
  0
SOLID
  5
9539
330
83DB
100
AcDbEntity
  8
AM_5
100
AcDbTrace
 10
344.5626249700686
 20
1314.719837964751
 30
0.0
 11
344.5626249700686
 21
1313.719837964751
 31
0.0
 12
341.5626249700685
 22
1314.219837964751
 32
0.0
 13
341.5626249700685
 23
1314.219837964751
 33
0.0
  0
SOLID
  5
953A
330
83DB
100
AcDbEntity
  8
AM_5
100
AcDbTrace
 10
370.5626246273419
 20
1314.719837964751
 30
0.0
 11
370.5626246273419
 21
1313.719837964751
 31
0.0
 12
373.562624627342
 22
1314.219837964751
 32
0.0
 13
373.562624627342
 23
1314.219837964751
 33
0.0
  0
MTEXT
  5
953B
330
83DB
100
AcDbEntity
  8
AM_5
100
AcDbMText
 10
357.5626247987053
 20
1316.67018245294
 30
0.0
 40
3.5
 41
0.0
 71
     5
 72
     1
  1
32
 73
     1
 44
1.0
1001
ACAD
1000
MTEXTBEGIN
1070
    73
1070
     1
1070
    44
1040
1.0
1070
    74
1070
     0
1000
MTEXTEND
  0
POINT
  5
953C
330
83DB
100
AcDbEntity
  8
Defpoints
 62
     0
100
AcDbPoint
 10
341.5626249700685
 20
1288.536796112381
 30
0.0
  0
POINT
  5
953D
330
83DB
100
AcDbEntity
  8
Defpoints
 62
     0
100
AcDbPoint
 10
373.562624627342
 20
1292.936796078517
 30
0.0
  0
POINT
  5
953E
330
83DB
100
AcDbEntity
  8
Defpoints
 62
     0
100
AcDbPoint
 10
373.562624627342
 20
1314.219837964751
 30
0.0
  0
ENDBLK
  5
83E6
330
83DB
100
AcDbEntity
  8
0
100
AcDbBlockEnd
  0
BLOCK
  5
8438
330
842C
100
AcDbEntity
  8
0
100
AcDbBlockBegin
  2
*D26
 70
     1
 10
0.0
 20
0.0
 30
0.0
  3
*D26
  1

  0
LINE
  5
945F
330
842C
100
AcDbEntity
  8
AM_5
100
AcDbLine
 10
368.6626242852049
 20
1271.936796355676
 30
0.0
 11
382.5375968714738
 21
1271.936796355676
 31
0.0
  0
LINE
  5
9460
330
842C
100
AcDbEntity
  8
AM_5
100
AcDbLine
 10
374.2626242056391
 20
1269.73679637356
 30
0.0
 11
382.5375968714738
 21
1269.73679637356
 31
0.0
  0
LINE
  5
9461
330
842C
100
AcDbEntity
  8
AM_5
100
AcDbLine
 10
381.0375968714739
 20
1266.73679637356
 30
0.0
 11
381.0375968714739
 21
1263.73679637356
 31
0.0
  0
LINE
  5
9462
330
842C
100
AcDbEntity
  8
AM_5
100
AcDbLine
 10
381.0375968714739
 20
1274.936796355675
 30
0.0
 11
381.0375968714739
 21
1284.535881001345
 31
0.0
  0
LINE
  5
9463
330
842C
100
AcDbEntity
  8
AM_5
100
AcDbLine
 10
381.0375968714739
 20
1269.73679637356
 30
0.0
 11
381.0375968714739
 21
1271.936796355676
 31
0.0
  0
SOLID
  5
9464
330
842C
100
AcDbEntity
  8
AM_5
100
AcDbTrace
 10
380.5375968714738
 20
1266.73679637356
 30
0.0
 11
381.5375968714739
 21
1266.73679637356
 31
0.0
 12
381.0375968714739
 22
1269.73679637356
 32
0.0
 13
381.0375968714739
 23
1269.73679637356
 33
0.0
  0
SOLID
  5
9465
330
842C
100
AcDbEntity
  8
AM_5
100
AcDbTrace
 10
380.5375968714738
 20
1274.936796355675
 30
0.0
 11
381.5375968714739
 21
1274.936796355675
 31
0.0
 12
381.0375968714739
 22
1271.936796355676
 32
0.0
 13
381.0375968714739
 23
1271.936796355676
 33
0.0
  0
MTEXT
  5
9466
330
842C
100
AcDbEntity
  8
AM_5
100
AcDbMText
 10
378.5872523832846
 20
1281.23633867851
 30
0.0
 40
3.5
 41
0.0
 71
     5
 72
     1
  1
2.2
 11
0.0000000000000001
 21
1.0
 31
0.0
 73
     1
 44
1.0
1001
ACAD
1000
MTEXTBEGIN
1070
    73
1070
     1
1070
    44
1040
1.0
1070
    74
1070
     0
1000
MTEXTEND
  0
POINT
  5
9467
330
842C
100
AcDbEntity
  8
Defpoints
 62
     0
100
AcDbPoint
 10
367.6626242852048
 20
1271.936796355676
 30
0.0
  0
POINT
  5
9468
330
842C
100
AcDbEntity
  8
Defpoints
 62
     0
100
AcDbPoint
 10
373.2626242056391
 20
1269.73679637356
 30
0.0
  0
POINT
  5
9469
330
842C
100
AcDbEntity
  8
Defpoints
 62
     0
100
AcDbPoint
 10
381.0375968714739
 20
1269.73679637356
 30
0.0
  0
ENDBLK
  5
8439
330
842C
100
AcDbEntity
  8
0
100
AcDbBlockEnd
  0
BLOCK
  5
8462
330
8456
100
AcDbEntity
  8
0
100
AcDbBlockBegin
  2
*D27
 70
     1
 10
0.0
 20
0.0
 30
0.0
  3
*D27
  1

  0
LINE
  5
946A
330
8456
100
AcDbEntity
  8
AM_5
100
AcDbLine
 10
367.6626242852048
 20
1270.936796355675
 30
0.0
 11
367.6626242852048
 21
1256.23679537356
 31
0.0
  0
LINE
  5
946B
330
8456
100
AcDbEntity
  8
AM_5
100
AcDbLine
 10
373.562624627342
 20
1269.036796795262
 30
0.0
 11
373.562624627342
 21
1256.23679537356
 31
0.0
  0
LINE
  5
946C
330
8456
100
AcDbEntity
  8
AM_5
100
AcDbLine
 10
364.6626242852049
 20
1257.73679537356
 30
0.0
 11
361.6626242852049
 21
1257.73679537356
 31
0.0
  0
LINE
  5
946D
330
8456
100
AcDbEntity
  8
AM_5
100
AcDbLine
 10
376.562624627342
 20
1257.73679537356
 30
0.0
 11
379.562624627342
 21
1257.73679537356
 31
0.0
  0
LINE
  5
946E
330
8456
100
AcDbEntity
  8
AM_5
100
AcDbLine
 10
367.6626242852048
 20
1257.73679537356
 30
0.0
 11
373.562624627342
 21
1257.73679537356
 31
0.0
  0
SOLID
  5
946F
330
8456
100
AcDbEntity
  8
AM_5
100
AcDbTrace
 10
364.6626242852049
 20
1258.23679537356
 30
0.0
 11
364.6626242852049
 21
1257.236795373559
 31
0.0
 12
367.6626242852048
 22
1257.73679537356
 32
0.0
 13
367.6626242852048
 23
1257.73679537356
 33
0.0
  0
SOLID
  5
9470
330
8456
100
AcDbEntity
  8
AM_5
100
AcDbTrace
 10
376.562624627342
 20
1258.23679537356
 30
0.0
 11
376.562624627342
 21
1257.236795373559
 31
0.0
 12
373.562624627342
 22
1257.73679537356
 32
0.0
 13
373.562624627342
 23
1257.73679537356
 33
0.0
  0
MTEXT
  5
9471
330
8456
100
AcDbEntity
  8
AM_5
100
AcDbMText
 10
370.6126244562734
 20
1260.18679537356
 30
0.0
 40
3.5
 41
0.0
 71
     5
 72
     1
  1
5.9
 73
     1
 44
1.0
1001
ACAD
1000
MTEXTBEGIN
1070
    73
1070
     1
1070
    44
1040
1.0
1070
    74
1070
     0
1000
MTEXTEND
  0
POINT
  5
9472
330
8456
100
AcDbEntity
  8
Defpoints
 62
     0
100
AcDbPoint
 10
367.6626242852048
 20
1271.936796355676
 30
0.0
  0
POINT
  5
9473
330
8456
100
AcDbEntity
  8
Defpoints
 62
     0
100
AcDbPoint
 10
373.562624627342
 20
1270.036796795263
 30
0.0
  0
POINT
  5
9474
330
8456
100
AcDbEntity
  8
Defpoints
 62
     0
100
AcDbPoint
 10
373.562624627342
 20
1257.73679537356
 30
0.0
  0
ENDBLK
  5
8463
330
8456
100
AcDbEntity
  8
0
100
AcDbBlockEnd
  0
BLOCK
  5
848C
330
8480
100
AcDbEntity
  8
0
100
AcDbBlockBegin
  2
*D28
 70
     1
 10
0.0
 20
0.0
 30
0.0
  3
*D28
  1

  0
LINE
  5
9475
330
8480
100
AcDbEntity
  8
AM_5
100
AcDbLine
 10
349.0626243367693
 20
1276.936796413793
 30
0.0
 11
349.0626243367693
 21
1256.236795373559
 31
0.0
  0
LINE
  5
9476
330
8480
100
AcDbEntity
  8
AM_5
100
AcDbLine
 10
350.4626238211892
 20
1269.236796455516
 30
0.0
 11
350.4626238211892
 21
1256.236795373559
 31
0.0
  0
LINE
  5
9477
330
8480
100
AcDbEntity
  8
AM_5
100
AcDbLine
 10
353.4626238211891
 20
1257.736795373559
 30
0.0
 11
356.4626238211892
 21
1257.736795373559
 31
0.0
  0
LINE
  5
9478
330
8480
100
AcDbEntity
  8
AM_5
100
AcDbLine
 10
346.0626243367693
 20
1257.736795373559
 30
0.0
 11
337.1126243367693
 21
1257.736795373559
 31
0.0
  0
LINE
  5
9479
330
8480
100
AcDbEntity
  8
AM_5
100
AcDbLine
 10
350.4626238211892
 20
1257.736795373559
 30
0.0
 11
349.0626243367693
 21
1257.736795373559
 31
0.0
  0
SOLID
  5
947A
330
8480
100
AcDbEntity
  8
AM_5
100
AcDbTrace
 10
353.4626238211891
 20
1258.236795373559
 30
0.0
 11
353.4626238211891
 21
1257.236795373559
 31
0.0
 12
350.4626238211892
 22
1257.736795373559
 32
0.0
 13
350.4626238211892
 23
1257.736795373559
 33
0.0
  0
SOLID
  5
947B
330
8480
100
AcDbEntity
  8
AM_5
100
AcDbTrace
 10
346.0626243367693
 20
1258.236795373559
 30
0.0
 11
346.0626243367693
 21
1257.236795373559
 31
0.0
 12
349.0626243367693
 22
1257.736795373559
 32
0.0
 13
349.0626243367693
 23
1257.736795373559
 33
0.0
  0
MTEXT
  5
947C
330
8480
100
AcDbEntity
  8
AM_5
100
AcDbMText
 10
340.0876243367693
 20
1260.186795373559
 30
0.0
 40
3.5
 41
0.0
 71
     5
 72
     1
  1
1.4
 73
     1
 44
1.0
1001
ACAD
1000
MTEXTBEGIN
1070
    73
1070
     1
1070
    44
1040
1.0
1070
    74
1070
     0
1000
MTEXTEND
  0
POINT
  5
947D
330
8480
100
AcDbEntity
  8
Defpoints
 62
     0
100
AcDbPoint
 10
349.0626243367693
 20
1277.936796413793
 30
0.0
  0
POINT
  5
947E
330
8480
100
AcDbEntity
  8
Defpoints
 62
     0
100
AcDbPoint
 10
350.4626238211892
 20
1270.236796455516
 30
0.0
  0
POINT
  5
947F
330
8480
100
AcDbEntity
  8
Defpoints
 62
     0
100
AcDbPoint
 10
350.4626238211892
 20
1257.736795373559
 30
0.0
  0
ENDBLK
  5
848D
330
8480
100
AcDbEntity
  8
0
100
AcDbBlockEnd
  0
BLOCK
  5
88C2
330
88C1
100
AcDbEntity
  8
0
100
AcDbBlockBegin
  2
SW_CENTERMARKSYMBOL_9
 70
     0
 10
0.0
 20
0.0
 30
0.0
  3
SW_CENTERMARKSYMBOL_9
  1

  0
LINE
  5
88C3
330
88C1
100
AcDbEntity
  8
0
  6
Continuous
 62
     0
370
     0
100
AcDbLine
 10
0.0
 20
0.0
 30
0.0
 11
0.0
 21
2.500000000000002
 31
0.0
  0
LINE
  5
88C4
330
88C1
100
AcDbEntity
  8
0
  6
Continuous
 62
     0
370
     0
100
AcDbLine
 10
0.0
 20
0.0
 30
0.0
 11
-2.500000000000002
 21
0.0
 31
0.0
  0
LINE
  5
88C5
330
88C1
100
AcDbEntity
  8
0
  6
Continuous
 62
     0
370
     0
100
AcDbLine
 10
0.0
 20
0.0
 30
0.0
 11
0.0
 21
-2.500000000000002
 31
0.0
  0
LINE
  5
88C6
330
88C1
100
AcDbEntity
  8
0
  6
Continuous
 62
     0
370
     0
100
AcDbLine
 10
0.0
 20
0.0
 30
0.0
 11
2.499999999999946
 21
0.0
 31
0.0
  0
LINE
  5
88C7
330
88C1
100
AcDbEntity
  8
0
  6
Continuous
 62
     0
370
     0
100
AcDbLine
 10
0.0
 20
2.500000000000002
 30
0.0
 11
0.0
 21
3.750000000000003
 31
0.0
  0
LINE
  5
88C8
330
88C1
100
AcDbEntity
  8
0
  6
Continuous
 62
     0
370
     0
100
AcDbLine
 10
-2.500000000000002
 20
0.0
 30
0.0
 11
-3.750000000000031
 21
0.0
 31
0.0
  0
LINE
  5
88C9
330
88C1
100
AcDbEntity
  8
0
  6
Continuous
 62
     0
370
     0
100
AcDbLine
 10
0.0
 20
-2.500000000000002
 30
0.0
 11
0.0
 21
-3.750000000000003
 31
0.0
  0
LINE
  5
88CA
330
88C1
100
AcDbEntity
  8
0
  6
Continuous
 62
     0
370
     0
100
AcDbLine
 10
2.499999999999946
 20
0.0
 30
0.0
 11
3.749999999999975
 21
0.0
 31
0.0
  0
ENDBLK
  5
88CB
330
88C1
100
AcDbEntity
  8
0
100
AcDbBlockEnd
  0
BLOCK
  5
950E
330
9502
100
AcDbEntity
  8
0
100
AcDbBlockBegin
  2
*D30
 70
     1
 10
0.0
 20
0.0
 30
0.0
  3
*D30
  1

  0
LINE
  5
9528
330
9502
100
AcDbEntity
  8
AM_5
100
AcDbLine
 10
340.7626246303221
 20
1288.736796238296
 30
0.0
 11
336.3396555968478
 21
1288.736796238296
 31
0.0
  0
LINE
  5
9529
330
9502
100
AcDbEntity
  8
AM_5
100
AcDbLine
 10
340.7626246303221
 20
1282.736796355675
 30
0.0
 11
336.3396555968478
 21
1282.736796355675
 31
0.0
  0
LINE
  5
952A
330
9502
100
AcDbEntity
  8
AM_5
100
AcDbLine
 10
337.8396555968478
 20
1291.736796238296
 30
0.0
 11
337.8396555968478
 21
1294.736796238296
 31
0.0
  0
LINE
  5
952B
330
9502
100
AcDbEntity
  8
AM_5
100
AcDbLine
 10
337.8396555968478
 20
1279.736796355675
 30
0.0
 11
337.8396555968478
 21
1270.613174308431
 31
0.0
  0
LINE
  5
952C
330
9502
100
AcDbEntity
  8
AM_5
100
AcDbLine
 10
337.8396555968478
 20
1288.736796238296
 30
0.0
 11
337.8396555968478
 21
1282.736796355675
 31
0.0
  0
SOLID
  5
952D
330
9502
100
AcDbEntity
  8
AM_5
100
AcDbTrace
 10
337.3396555968478
 20
1291.736796238296
 30
0.0
 11
338.3396555968478
 21
1291.736796238296
 31
0.0
 12
337.8396555968478
 22
1288.736796238296
 32
0.0
 13
337.8396555968478
 23
1288.736796238296
 33
0.0
  0
SOLID
  5
952E
330
9502
100
AcDbEntity
  8
AM_5
100
AcDbTrace
 10
337.3396555968478
 20
1279.736796355675
 30
0.0
 11
338.3396555968478
 21
1279.736796355675
 31
0.0
 12
337.8396555968478
 22
1282.736796355675
 32
0.0
 13
337.8396555968478
 23
1282.736796355675
 33
0.0
  0
MTEXT
  5
952F
330
9502
100
AcDbEntity
  8
AM_5
100
AcDbMText
 10
335.3896555968476
 20
1273.674985332053
 30
0.0
 40
3.5
 41
0.0
 71
     5
 72
     1
  1
%%C6
 11
0.0000000000000001
 21
1.0
 31
0.0
 73
     1
 44
1.0
1001
ACAD
1000
MTEXTBEGIN
1070
    73
1070
     1
1070
    44
1040
1.0
1070
    74
1070
     0
1000
MTEXTEND
  0
POINT
  5
9530
330
9502
100
AcDbEntity
  8
Defpoints
 62
     0
100
AcDbPoint
 10
341.7626246303221
 20
1288.736796238296
 30
0.0
  0
POINT
  5
9531
330
9502
100
AcDbEntity
  8
Defpoints
 62
     0
100
AcDbPoint
 10
341.7626246303221
 20
1282.736796355675
 30
0.0
  0
POINT
  5
9532
330
9502
100
AcDbEntity
  8
Defpoints
 62
     0
100
AcDbPoint
 10
337.8396555968478
 20
1282.736796355675
 30
0.0
  0
ENDBLK
  5
950F
330
9502
100
AcDbEntity
  8
0
100
AcDbBlockEnd
  0
ENDSEC
  0
SECTION
  2
ENTITIES
  0
TEXT
  5
6788
330
1F
100
AcDbEntity
  8
AM_5
100
AcDbText
 10
474.7272607758244
 20
1262.101023686145
 30
0.0
 40
3.5
  1
2-M5x0.8
100
AcDbText
  0
TEXT
  5
6789
330
1F
100
AcDbEntity
  8
AM_5
100
AcDbText
 10
474.7272607758244
 20
1256.423980756664
 30
0.0
 40
3.5
  1
%%C7.5x4.5 depth
100
AcDbText
  0
POINT
  5
6BCF
330
1F
100
AcDbEntity
  8
0
 60
     1
100
AcDbPoint
 10
0.0
 20
0.0
 30
0.0
  0
POINT
  5
6BD9
330
1F
100
AcDbEntity
  8
0
 60
     1
100
AcDbPoint
 10
0.0
 20
0.0
 30
0.0
  0
TEXT
  5
7020
330
1F
100
AcDbEntity
  8
LOGO
 62
     7
100
AcDbText
 10
361.1585940304096
 20
1149.992845846682
 30
0.0
 40
3.999420814479637
  1
Order example:
 41
0.8
  7
CHINESET
100
AcDbText
  0
TEXT
  5
7021
330
1F
100
AcDbEntity
  8
LOGO
 62
     7
100
AcDbText
 10
361.876123198392
 20
1155.623202262823
 30
0.0
 40
5.999131221719456
  1
訂購代號：
  7
CHINESET
100
AcDbText
  0
LINE
  5
7023
330
1F
100
AcDbEntity
  8
LOGO
 62
     4
100
AcDbLine
 10
359.4208321212627
 20
1133.137776259557
 30
0.0
 11
359.4208321212627
 21
1163.133432368154
 31
0.0
  0
TEXT
  5
7024
330
1F
100
AcDbEntity
  8
LOGO
  6
Continuous
100
AcDbText
 10
304.2049631896398
 20
1139.030377634699
 30
0.0
 40
4.499348416289592
  1
金器工業股份有限公司
  7
CHINESET
100
AcDbText
  0
TEXT
  5
7025
330
1F
100
AcDbEntity
  8
LOGO
  6
Continuous
100
AcDbText
 10
295.9405503011023
 20
1134.530147698882
 30
0.0
 40
2.999565610859728
  1
MINDMAN INDUSTRIAL CO., LTD.
 41
0.85
  7
CHINESET
100
AcDbText
  0
LINE
  5
7026
330
1F
100
AcDbEntity
  8
LOGO
 62
     4
100
AcDbLine
 10
359.4208321212627
 20
1157.134301146435
 30
0.0
 11
315.4272031619864
 21
1157.134301146435
 31
0.0
  0
LINE
  5
7027
330
1F
100
AcDbEntity
  8
LOGO
 62
     4
100
AcDbLine
 10
359.4208321212627
 20
1151.135169924715
 30
0.0
 11
315.4272031619864
 21
1151.135169924715
 31
0.0
  0
LINE
  5
7028
330
1F
100
AcDbEntity
  8
LOGO
 62
     4
100
AcDbLine
 10
359.4208321212627
 20
1145.136038702996
 30
0.0
 11
293.4303886823486
 21
1145.136038702996
 31
0.0
  0
LINE
  5
7029
330
1F
100
AcDbEntity
  8
LOGO
 62
     4
100
AcDbLine
 10
315.4272031619864
 20
1145.136038702996
 30
0.0
 11
315.4272031619864
 21
1163.133432368154
 31
0.0
  0
TEXT
  5
702A
330
1F
100
AcDbEntity
  8
LOGO
100
AcDbText
 10
345.4947720879934
 20
1146.635821508425
 30
0.0
 40
2.999565610859728
  1
mm
  7
CHINESET
 72
     1
 11
349.2085199871531
 21
1148.135604313855
 31
0.0
100
AcDbText
 73
     2
  0
TEXT
  5
702B
330
1F
100
AcDbEntity
  8
LOGO
100
AcDbText
 10
343.9235710537336
 20
1158.634083951864
 30
0.0
 40
2.999565610859728
  1
1 : 1
  7
CHINESET
 72
     1
 11
349.2085199871531
 21
1160.133866757294
 31
0.0
100
AcDbText
 73
     2
  0
LINE
  5
702C
330
1F
100
AcDbEntity
  8
LOGO
 62
     4
100
AcDbLine
 10
339.4237280488644
 20
1145.136038702996
 30
0.0
 11
339.4237280488644
 21
1163.133432368154
 31
0.0
  0
TEXT
  5
702D
330
1F
100
AcDbEntity
  8
LOGO
100
AcDbText
 10
317.9005056991552
 20
1158.635560116043
 30
196.5865886400747
 40
2.999565610859728
  1
比例 Scale:
 41
0.9
  7
CHINESET
 72
     4
 11
327.4254656054254
 21
1160.133866757294
 31
196.5865886400747
100
AcDbText
  0
TEXT
  5
702E
330
1F
100
AcDbEntity
  8
LOGO
100
AcDbText
 10
317.7277628581727
 20
1152.677146422916
 30
196.5865886400747
 40
2.999565610859728
  1
投影  View:
 41
0.9
  7
CHINESET
 72
     4
 11
327.4254656054254
 21
1154.134735535575
 31
196.5865886400747
100
AcDbText
  0
TEXT
  5
702F
330
1F
100
AcDbEntity
  8
LOGO
100
AcDbText
 10
318.0210239603058
 20
1146.635821508425
 30
196.5865886400747
 40
2.999565610859728
  1
單位  Unit:
 41
0.9
  7
CHINESET
 72
     4
 11
327.4254656054254
 21
1148.135604313855
 31
196.5865886400747
100
AcDbText
  0
LWPOLYLINE
  5
7030
330
1F
100
AcDbEntity
  8
LOGO
 62
     4
100
AcDbPolyline
 90
        4
 70
     1
 43
0.0
 10
293.4303886823485
 20
1163.133432368154
 10
540.9303886823486
 20
1163.133432368154
 10
540.9303886823485
 20
1393.485065550521
 10
293.4303886823485
 20
1393.485065550521
1001
GENIUS_GENREC_14
1002
{
1000
PYDIR
1011
293.4303886823485
1021
1393.485065550521
1031
0.0
1002
}
1002
{
1000
PXDIR
1011
540.9303886823486
1021
1163.133432368154
1031
0.0
1002
}
1002
{
1000
PORI
1011
293.4303886823485
1021
1163.133432368154
1031
0.0
1002
}
1002
{
1000
PINS
1011
293.4303886823485
1021
1163.133432368154
1031
0.0
1002
}
1002
{
1000
PINS2
1011
540.9303886823485
1021
1393.485065550521
1031
0.0
1002
}
1002
{
1000
C
1070
     1
1002
}
1001
GENIUS_GENODEF_13
1002
{
1000
HIER
1070
     0
1002
}
1002
{
1000
MANEDIT
1070
     0
1002
}
1002
{
1000
NOSEL
1070
     0
1002
}
1002
{
1000
BEHIND
1070
     0
1002
}
1002
{
1000
OTHER
1070
     0
1002
}
1002
{
1000
REACTOR
1002
}
1001
GENIUS_GENOBJ-N-REC_13
1002
{
1000
OWNER
1000
GEN
1002
}
  0
SOLID
  5
7031
330
1F
100
AcDbEntity
  8
LOGO
 62
     5
100
AcDbTrace
 10
296.542486142982
 20
1150.122389576506
 30
0.0
 11
297.839419604516
 21
1150.122389576506
 31
0.0
 12
303.2507626681582
 22
1162.42089653933
 32
0.0
 13
304.5476961296929
 23
1162.420896539329
 33
0.0
  0
SOLID
  5
7032
330
1F
100
AcDbEntity
  8
LOGO
 62
     5
100
AcDbTrace
 10
298.3760817265316
 20
1150.122389576506
 30
0.0
 11
299.6730151880656
 21
1150.122389576506
 31
0.0
 12
304.5476961296929
 22
1161.437015982303
 32
0.0
 13
303.2507626681582
 23
1156.681593290012
 33
0.0
  0
SOLID
  5
7033
330
1F
100
AcDbEntity
  8
LOGO
 62
     2
100
AcDbTrace
 10
297.839419604516
 20
1150.122389576506
 30
0.0
 11
298.3760817265316
 21
1150.122389576506
 31
0.0
 12
304.5476961296929
 22
1162.420896539329
 32
0.0
 13
305.0843582517077
 23
1162.420896539329
 33
0.0
  0
SOLID
  5
7034
330
1F
100
AcDbEntity
  8
LOGO
 62
     5
100
AcDbTrace
 10
294.4631837570994
 20
1145.650205226389
 30
0.0
 11
294.9104021921116
 21
1145.650205226389
 31
0.0
 12
296.1698041138059
 22
1147.886297401447
 32
0.0
 13
296.6170225488168
 23
1147.886297401447
 33
0.0
  0
SOLID
  5
7035
330
1F
100
AcDbEntity
  8
LOGO
 62
     5
100
AcDbTrace
 10
296.1698041138059
 20
1147.886297401447
 30
0.0
 11
296.6170225488168
 21
1147.886297401447
 31
0.0
 12
296.1698041138059
 22
1145.650205226389
 32
0.0
 13
296.6170225488168
 23
1145.650205226389
 33
0.0
  0
SOLID
  5
7036
330
1F
100
AcDbEntity
  8
LOGO
 62
     5
100
AcDbTrace
 10
296.1698041138059
 20
1145.650205226389
 30
0.0
 11
296.6170225488168
 21
1145.650205226389
 31
0.0
 12
297.876424470513
 22
1147.886297401447
 32
0.0
 13
298.3236429055246
 23
1147.886297401447
 33
0.0
  0
SOLID
  5
7037
330
1F
100
AcDbEntity
  8
LOGO
 62
     5
100
AcDbTrace
 10
297.876424470513
 20
1147.886297401447
 30
0.0
 11
298.3236429055246
 21
1147.886297401447
 31
0.0
 12
297.876424470513
 22
1145.650205226389
 32
0.0
 13
298.3236429055246
 23
1145.650205226389
 33
0.0
  0
POLYLINE
  5
7038
330
1F
100
AcDbEntity
  8
LOGO
 62
     5
100
AcDb2dPolyline
 66
     1
 10
0.0
 20
0.0
 30
0.0
 40
0.4479351312217194
 41
0.4479351312217194
  0
VERTEX
  5
7039
330
7038
100
AcDbEntity
  8
LOGO
 62
     5
100
AcDbVertex
100
AcDb2dVertex
 10
312.8670340652273
 20
1146.991860531424
 30
0.0
 42
1.0
  0
VERTEX
  5
703A
330
7038
100
AcDbEntity
  8
LOGO
 62
     5
100
AcDbVertex
100
AcDb2dVertex
 10
311.5232286715618
 20
1146.991860531424
 30
0.0
 42
1.0
  0
SEQEND
  5
703B
330
7038
100
AcDbEntity
  8
LOGO
 62
     5
  0
POLYLINE
  5
703C
330
1F
100
AcDbEntity
  8
LOGO
 62
     5
100
AcDb2dPolyline
 66
     1
 10
0.0
 20
0.0
 30
0.0
 70
     1
  0
VERTEX
  5
703D
330
703C
100
AcDbEntity
  8
LOGO
 62
     5
100
AcDbVertex
100
AcDb2dVertex
 10
308.9900957320383
 20
1146.768251313918
 30
0.0
 42
1.000000057330635
  0
VERTEX
  5
703E
330
703C
100
AcDbEntity
  8
LOGO
 62
     5
100
AcDbVertex
100
AcDb2dVertex
 10
310.3317510370737
 20
1146.768251313918
 30
0.0
 42
1.000000057330635
  0
SEQEND
  5
703F
330
703C
100
AcDbEntity
  8
LOGO
 62
     5
  0
CIRCLE
  5
7040
330
1F
100
AcDbEntity
  8
LOGO
 62
     5
100
AcDbCircle
 10
309.660923384557
 20
1146.768251313918
 30
0.0
 40
0.6708276525176471
  0
POLYLINE
  5
7041
330
1F
100
AcDbEntity
  8
LOGO
 62
     5
100
AcDb2dPolyline
 66
     1
 10
0.0
 20
0.0
 30
0.0
 70
     1
 40
0.4479351312217194
 41
0.4479351312217194
  0
VERTEX
  5
7042
330
7041
100
AcDbEntity
  8
LOGO
 62
     5
100
AcDbVertex
100
AcDb2dVertex
 10
308.7650531221129
 20
1146.768251313918
 30
0.0
 42
1.0
  0
VERTEX
  5
7043
330
7041
100
AcDbEntity
  8
LOGO
 62
     5
100
AcDbVertex
100
AcDb2dVertex
 10
310.5567936469997
 20
1146.768251313918
 30
0.0
 42
1.0
  0
SEQEND
  5
7044
330
7041
100
AcDbEntity
  8
LOGO
 62
     5
  0
LINE
  5
7045
330
1F
100
AcDbEntity
  8
LOGO
100
AcDbLine
 10
313.0895682384173
 20
1145.650205226389
 30
0.0
 11
313.0895682384173
 21
1146.991860531424
 31
0.0
  0
SOLID
  5
7046
330
1F
100
AcDbEntity
  8
LOGO
 62
     5
100
AcDbTrace
 10
310.3317063152322
 20
1147.886297401447
 30
0.0
 11
310.778924750243
 21
1147.886297401447
 31
0.0
 12
310.3317063152322
 22
1145.650205226389
 32
0.0
 13
310.778924750243
 23
1145.650205226389
 33
0.0
  0
SOLID
  5
7047
330
1F
100
AcDbEntity
  8
LOGO
 62
     5
100
AcDbTrace
 10
311.3006944983704
 20
1145.650205226389
 30
0.0
 11
311.7479129333826
 21
1145.650205226389
 31
0.0
 12
311.3006944983704
 22
1147.886297401447
 32
0.0
 13
311.7479129333826
 23
1147.886297401447
 33
0.0
  0
SOLID
  5
7048
330
1F
100
AcDbEntity
  8
LOGO
 62
     5
100
AcDbTrace
 10
312.6423498034065
 20
1146.991860531424
 30
0.0
 11
313.0895682384173
 21
1146.991860531424
 31
0.0
 12
312.6423498034065
 22
1145.650205226389
 32
0.0
 13
313.0895682384173
 23
1145.650205226389
 33
0.0
  0
SOLID
  5
7049
330
1F
100
AcDbEntity
  8
LOGO
 62
     5
100
AcDbTrace
 10
311.2559726548691
 20
1161.437015982303
 30
0.0
 11
309.9590391933357
 21
1156.681593290012
 31
0.0
 12
311.2559726548691
 22
1150.122389576506
 32
0.0
 13
309.9590391933357
 23
1150.122389576506
 33
0.0
  0
SOLID
  5
704A
330
1F
100
AcDbEntity
  8
LOGO
 62
     5
100
AcDbTrace
 10
311.7926347768839
 20
1150.122389576506
 30
0.0
 11
313.0895682384173
 21
1150.122389576506
 31
0.0
 12
311.7926347768839
 22
1162.420896539329
 32
0.0
 13
313.0895682384173
 23
1162.42089653933
 33
0.0
  0
SOLID
  5
704B
330
1F
100
AcDbEntity
  8
LOGO
 62
     2
100
AcDbTrace
 10
311.2559726548691
 20
1162.42089653933
 30
0.0
 11
311.7926347768839
 21
1162.420896539329
 31
0.0
 12
311.2559726548691
 22
1150.122389576506
 32
0.0
 13
311.7926347768839
 23
1150.122389576506
 33
0.0
  0
POLYLINE
  5
704C
330
1F
100
AcDbEntity
  8
LOGO
 62
     5
100
AcDb2dPolyline
 66
     1
 10
0.0
 20
0.0
 30
0.0
 40
0.4479351312217194
 41
0.4479351312217194
  0
VERTEX
  5
704D
330
704C
100
AcDbEntity
  8
LOGO
 62
     5
100
AcDbVertex
100
AcDb2dVertex
 10
306.4568733488297
 20
1146.991860531424
 30
0.0
 42
1.0
  0
VERTEX
  5
704E
330
704C
100
AcDbEntity
  8
LOGO
 62
     5
100
AcDbVertex
100
AcDb2dVertex
 10
305.1130679551643
 20
1146.991860531424
 30
0.0
 42
1.0
  0
SEQEND
  5
704F
330
704C
100
AcDbEntity
  8
LOGO
 62
     5
  0
POLYLINE
  5
7050
330
1F
100
AcDbEntity
  8
LOGO
 62
     5
100
AcDb2dPolyline
 66
     1
 10
0.0
 20
0.0
 30
0.0
 40
0.4479351312217194
 41
0.4479351312217194
  0
VERTEX
  5
7051
330
7050
100
AcDbEntity
  8
LOGO
 62
     5
100
AcDbVertex
100
AcDb2dVertex
 10
307.7985286538638
 20
1146.991860531424
 30
0.0
 42
1.0
  0
VERTEX
  5
7052
330
7050
100
AcDbEntity
  8
LOGO
 62
     5
100
AcDbVertex
100
AcDb2dVertex
 10
306.454723260199
 20
1146.991860531424
 30
0.0
 42
1.0
  0
SEQEND
  5
7053
330
7050
100
AcDbEntity
  8
LOGO
 62
     5
  0
POLYLINE
  5
7054
330
1F
100
AcDbEntity
  8
LOGO
 62
     5
100
AcDb2dPolyline
 66
     1
 10
0.0
 20
0.0
 30
0.0
 40
0.4479351312217194
 41
0.4479351312217194
  0
VERTEX
  5
7055
330
7054
100
AcDbEntity
  8
LOGO
 62
     5
100
AcDbVertex
100
AcDb2dVertex
 10
301.3883679374662
 20
1146.991860531424
 30
0.0
 42
1.0
  0
VERTEX
  5
7056
330
7054
100
AcDbEntity
  8
LOGO
 62
     5
100
AcDbVertex
100
AcDb2dVertex
 10
300.0445625438015
 20
1146.991860531424
 30
0.0
 42
1.0
  0
SEQEND
  5
7057
330
7054
100
AcDbEntity
  8
LOGO
 62
     5
  0
SOLID
  5
7058
330
1F
100
AcDbEntity
  8
LOGO
 62
     5
100
AcDbTrace
 10
299.8220283706107
 20
1147.886297401447
 30
0.0
 11
300.2692468056216
 21
1147.886297401447
 31
0.0
 12
299.8220283706107
 22
1145.650205226389
 32
0.0
 13
300.2692468056216
 23
1145.650205226389
 33
0.0
  0
SOLID
  5
7059
330
1F
100
AcDbEntity
  8
LOGO
 62
     5
100
AcDbTrace
 10
301.1636836756461
 20
1146.991860531424
 30
0.0
 11
301.6109021106583
 21
1146.991860531424
 31
0.0
 12
301.1636836756461
 22
1145.650205226389
 32
0.0
 13
301.6109021106583
 23
1145.650205226389
 33
0.0
  0
POLYLINE
  5
705A
330
1F
100
AcDbEntity
  8
LOGO
 62
     5
100
AcDb2dPolyline
 66
     1
 10
0.0
 20
0.0
 30
0.0
 70
     1
 40
0.4479351312217194
 41
0.4479351312217194
  0
VERTEX
  5
705B
330
705A
100
AcDbEntity
  8
LOGO
 62
     5
100
AcDbVertex
100
AcDb2dVertex
 10
302.3548924057148
 20
1146.768251313918
 30
0.0
 42
1.0
  0
VERTEX
  5
705C
330
705A
100
AcDbEntity
  8
LOGO
 62
     5
100
AcDbVertex
100
AcDb2dVertex
 10
304.1466329306022
 20
1146.768251313918
 30
0.0
 42
1.0
  0
SEQEND
  5
705D
330
705A
100
AcDbEntity
  8
LOGO
 62
     5
  0
SOLID
  5
705E
330
1F
100
AcDbEntity
  8
LOGO
 62
     5
100
AcDbTrace
 10
303.9215455988333
 20
1148.557125053965
 30
0.0
 11
304.3687640338449
 21
1148.557125053965
 31
0.0
 12
303.9215455988333
 22
1145.650205226389
 32
0.0
 13
304.3687640338449
 23
1145.650205226389
 33
0.0
  0
SOLID
  5
705F
330
1F
100
AcDbEntity
  8
LOGO
 62
     5
100
AcDbTrace
 10
304.8905337819742
 20
1147.886297401447
 30
0.0
 11
305.3377522169851
 21
1147.886297401447
 31
0.0
 12
304.8905337819742
 22
1145.650205226389
 32
0.0
 13
305.3377522169851
 23
1145.650205226389
 33
0.0
  0
SOLID
  5
7060
330
1F
100
AcDbEntity
  8
LOGO
 62
     5
100
AcDbTrace
 10
306.2321890870082
 20
1146.991860531424
 30
0.0
 11
306.6794075220205
 21
1146.991860531424
 31
0.0
 12
306.2321890870082
 22
1145.650205226389
 32
0.0
 13
306.6794075220205
 23
1145.650205226389
 33
0.0
  0
SOLID
  5
7061
330
1F
100
AcDbEntity
  8
LOGO
 62
     5
100
AcDbTrace
 10
307.5738443920436
 20
1146.991860531424
 30
0.0
 11
308.0210628270552
 21
1146.991860531424
 31
0.0
 12
307.5738443920436
 22
1145.650205226388
 32
0.0
 13
308.0210628270552
 23
1145.650205226388
 33
0.0
  0
SOLID
  5
7062
330
1F
100
AcDbEntity
  8
LOGO
 62
     5
100
AcDbTrace
 10
298.8530401874705
 20
1148.199350305956
 30
0.0
 11
299.3002586224834
 21
1148.199350305956
 31
0.0
 12
298.8530401874705
 22
1148.557125053965
 32
0.0
 13
299.3002586224834
 23
1148.557125053965
 33
0.0
  0
SOLID
  5
7063
330
1F
100
AcDbEntity
  8
LOGO
 62
     5
100
AcDbTrace
 10
298.8530401874705
 20
1147.886297401447
 30
0.0
 11
299.3002586224834
 21
1147.886297401447
 31
0.0
 12
298.8530401874705
 22
1145.650205226388
 32
0.0
 13
299.3002586224834
 23
1145.650205226389
 33
0.0
  0
SOLID
  5
7064
330
1F
100
AcDbEntity
  8
LOGO
 62
     5
100
AcDbTrace
 10
303.2507626681582
 20
1150.122389576506
 30
0.0
 11
304.5476961296929
 21
1150.122389576506
 31
0.0
 12
303.2507626681582
 22
1156.681593290012
 32
0.0
 13
304.5476961296929
 23
1161.437015982303
 33
0.0
  0
SOLID
  5
7065
330
1F
100
AcDbEntity
  8
LOGO
 62
     5
100
AcDbTrace
 10
305.0843582517077
 20
1162.420896539329
 30
0.0
 11
306.3812917132411
 21
1162.42089653933
 31
0.0
 12
305.0843582517077
 22
1151.106270133532
 32
0.0
 13
306.3812917132411
 23
1155.861692825824
 33
0.0
  0
SOLID
  5
7066
330
1F
100
AcDbEntity
  8
LOGO
 62
     2
100
AcDbTrace
 10
304.5476961296929
 20
1162.420896539329
 30
0.0
 11
305.0843582517077
 21
1162.420896539329
 31
0.0
 12
304.5476961296929
 22
1150.122389576506
 32
0.0
 13
305.0843582517077
 23
1150.122389576506
 33
0.0
  0
SOLID
  5
7067
330
1F
100
AcDbEntity
  8
LOGO
 62
     5
100
AcDbTrace
 10
305.0843582517077
 20
1151.106270133532
 30
0.0
 11
306.3812917132411
 21
1155.861692825824
 31
0.0
 12
311.2559726548691
 22
1162.42089653933
 32
0.0
 13
309.9590391933357
 23
1162.42089653933
 33
0.0
  0
SOLID
  5
7068
330
1F
100
AcDbEntity
  8
LOGO
 62
     5
100
AcDbTrace
 10
305.0843582517077
 20
1150.122389576506
 30
0.0
 11
306.3812917132411
 21
1150.122389576506
 31
0.0
 12
311.2559726548691
 22
1161.437015982303
 32
0.0
 13
309.9590391933357
 23
1156.681593290012
 33
0.0
  0
SOLID
  5
7069
330
1F
100
AcDbEntity
  8
LOGO
 62
     2
100
AcDbTrace
 10
304.5476961296929
 20
1150.122389576506
 30
0.0
 11
305.0843582517077
 21
1150.122389576506
 31
0.0
 12
311.2559726548691
 22
1162.42089653933
 32
0.0
 13
311.7926347768839
 23
1162.420896539329
 33
0.0
  0
LWPOLYLINE
  5
706A
330
1F
100
AcDbEntity
  8
LOGO
 62
     4
100
AcDbPolyline
 90
        4
 70
     1
 43
0.0
 10
293.4303886823485
 20
1163.133432368154
 10
540.9303886823486
 20
1163.133432368154
 10
540.9303886823486
 20
1133.137776259556
 10
293.4303886823485
 20
1133.137776259556
1001
GENIUS_GENREC_14
1002
{
1000
PYDIR
1011
293.4303886823485
1021
1133.137776259556
1031
0.0
1002
}
1002
{
1000
PXDIR
1011
540.9303886823486
1021
1163.133432368154
1031
0.0
1002
}
1002
{
1000
PORI
1011
293.4303886823485
1021
1163.133432368154
1031
0.0
1002
}
1002
{
1000
PINS
1011
293.4303886823485
1021
1163.133432368154
1031
0.0
1002
}
1002
{
1000
PINS2
1011
540.9303886823486
1021
1133.137776259556
1031
0.0
1002
}
1002
{
1000
C
1070
     1
1002
}
1001
GENIUS_GENOBJ-N-REC_13
1002
{
1000
OWNER
1000
GEN
1002
}
1001
GENIUS_GENODEF_13
1002
{
1000
HIER
1070
     0
1002
}
1002
{
1000
MANEDIT
1070
     0
1002
}
1002
{
1000
NOSEL
1070
     0
1002
}
1002
{
1000
BEHIND
1070
     0
1002
}
1002
{
1000
OTHER
1070
     0
1002
}
1002
{
1000
REACTOR
1002
}
  0
LINE
  5
706B
330
1F
100
AcDbEntity
  8
LOGO
 62
     4
100
AcDbLine
 10
420.6248464764264
 20
1146.635821508426
 30
0.0
 11
420.6248464764264
 21
1135.637414268606
 31
0.0
  0
LINE
  5
706C
330
1F
100
AcDbEntity
  8
LOGO
 62
     4
100
AcDbLine
 10
402.8160023783568
 20
1146.635821508426
 30
0.0
 11
402.8160023783568
 21
1135.637414268606
 31
0.0
  0
LINE
  5
706D
330
1F
100
AcDbEntity
  8
LOGO
 62
     4
100
AcDbLine
 10
420.6248464764264
 20
1135.637414268606
 30
0.0
 11
402.8160023783568
 21
1135.637414268606
 31
0.0
  0
LINE
  5
706E
330
1F
100
AcDbEntity
  8
LOGO
 62
     4
100
AcDbLine
 10
424.3710133396295
 20
1160.133866757294
 30
0.0
 11
400.6785258238378
 21
1160.133866757294
 31
0.0
  0
LINE
  5
706F
330
1F
100
AcDbEntity
  8
LOGO
 62
     4
100
AcDbLine
 10
424.3710133396295
 20
1151.135169924715
 30
0.0
 11
400.6785258238378
 21
1151.135169924715
 31
0.0
  0
LINE
  5
7070
330
1F
100
AcDbEntity
  8
LOGO
 62
     4
100
AcDbLine
 10
400.6785258238378
 20
1160.133866757294
 30
0.0
 11
400.6785258238378
 21
1151.135169924715
 31
0.0
  0
LINE
  5
7071
330
1F
100
AcDbEntity
  8
LOGO
 62
     4
100
AcDbLine
 10
424.3710133396295
 20
1160.133866757294
 30
0.0
 11
424.3710133396295
 21
1151.135169924715
 31
0.0
  0
LINE
  5
7072
330
1F
100
AcDbEntity
  8
LOGO
 62
     4
100
AcDbLine
 10
411.7204244273916
 20
1151.135169924715
 30
0.0
 11
411.7204244273916
 21
1146.635821508426
 31
0.0
  0
TEXT
  5
7073
330
1F
100
AcDbEntity
  8
LOGO
  6
Continuous
 62
     7
100
AcDbText
 10
402.2774533187577
 20
1153.013634732423
 30
0.0
 40
5.25
  1
MCRJ
  7
CHINESET
100
AcDbText
  0
LINE
  5
7074
330
1F
100
AcDbEntity
  8
LOGO
 62
     4
100
AcDbLine
 10
420.6248464764264
 20
1146.635821508426
 30
0.0
 11
402.8160023783568
 21
1146.635821508426
 31
0.0
  0
TEXT
  5
7075
330
1F
100
AcDbEntity
  8
LOGO
  6
Continuous
100
AcDbText
 10
408.6274977028542
 20
1137.189816127842
 30
196.5865886400747
 40
2.25
  1
Model
 41
0.8
  7
CHINESET
100
AcDbText
  0
TEXT
  5
7076
330
1F
100
AcDbEntity
  8
LOGO
100
AcDbText
 10
408.0286208458554
 20
1141.360831218234
 30
196.5865886400747
 40
3.75
  1
型號
  7
CHINESET
100
AcDbText
  0
LINE
  5
7077
330
1F
100
AcDbEntity
  8
LOGO
  6
Continuous
 62
     7
100
AcDbLine
 10
426.135278361105
 20
1155.602643534694
 30
0.0
 11
430.1087745345143
 21
1155.602643534694
 31
0.0
  0
LINE
  5
707B
330
1F
100
AcDbEntity
  8
LOGO
 62
     4
100
AcDbLine
 10
442.889327513699
 20
1160.133866757294
 30
0.0
 11
432.039897897243
 21
1160.133866757294
 31
0.0
  0
LINE
  5
707C
330
1F
100
AcDbEntity
  8
LOGO
 62
     4
100
AcDbLine
 10
442.889327513699
 20
1151.135169924715
 30
0.0
 11
432.039897897243
 21
1151.135169924715
 31
0.0
  0
LINE
  5
707D
330
1F
100
AcDbEntity
  8
LOGO
 62
     4
100
AcDbLine
 10
432.039897897243
 20
1160.133866757294
 30
0.0
 11
432.039897897243
 21
1151.135169924715
 31
0.0
  0
LINE
  5
707E
330
1F
100
AcDbEntity
  8
LOGO
 62
     4
100
AcDbLine
 10
442.889327513699
 20
1160.133866757294
 30
0.0
 11
442.889327513699
 21
1151.135169924715
 31
0.0
  0
LINE
  5
707F
330
1F
100
AcDbEntity
  8
LOGO
 62
     4
100
AcDbLine
 10
437.464612705471
 20
1151.135169924715
 30
0.0
 11
437.4646127054711
 21
1146.635821508426
 31
0.0
  0
TEXT
  5
7080
330
1F
100
AcDbEntity
  8
LOGO
  6
Continuous
 62
     7
100
AcDbText
 10
435.4500408042444
 20
1153.013634732423
 30
0.0
 40
5.25
  1
8
  7
CHINESET
100
AcDbText
  0
LINE
  5
7083
330
1F
100
AcDbEntity
  8
LOGO
 62
     4
100
AcDbLine
 10
445.2169235467111
 20
1146.635821508426
 30
0.0
 11
445.2169235467111
 21
1135.637414268606
 31
0.0
  0
LINE
  5
7084
330
1F
100
AcDbEntity
  8
LOGO
 62
     4
100
AcDbLine
 10
426.8310130735117
 20
1146.635821508426
 30
0.0
 11
426.8310130735117
 21
1135.637414268606
 31
0.0
  0
LINE
  5
7085
330
1F
100
AcDbEntity
  8
LOGO
 62
     4
100
AcDbLine
 10
445.2169235467111
 20
1135.637414268606
 30
0.0
 11
426.8310130735117
 21
1135.637414268606
 31
0.0
  0
LINE
  5
708C
330
1F
100
AcDbEntity
  8
LOGO
 62
     4
100
AcDbLine
 10
445.2169235467111
 20
1146.635821508426
 30
0.0
 11
426.8310130735117
 21
1146.635821508426
 31
0.0
  0
TEXT
  5
709A
330
1F
100
AcDbEntity
  8
LOGO
  6
Continuous
100
AcDbText
 10
430.8146745481872
 20
1137.189816127842
 30
196.5865886400747
 40
2.25
  1
Tube I.D.
 41
0.8
  7
CHINESET
100
AcDbText
  0
TEXT
  5
709B
330
1F
100
AcDbEntity
  8
LOGO
100
AcDbText
 10
432.3787385753369
 20
1141.360831218234
 30
196.5865886400747
 40
3.75
  1
內徑
  7
CHINESET
100
AcDbText
  0
TEXT
  5
70AA
330
1F
100
AcDbEntity
  8
LOGO
100
AcDbText
 10
360.6106355081192
 20
1134.733533325439
 30
0.0
 40
3.0
  1
2120820B
 41
0.7
  7
CHINESET
 72
     1
 11
368.1106355081192
 21
1134.733533325439
 31
0.0
100
AcDbText
  0
LINE
  5
70AB
330
1F
100
AcDbEntity
  8
LOGO
 62
     4
100
AcDbLine
 10
377.4208321212614
 20
1139.136907481277
 30
0.0
 11
377.4208321212627
 21
1133.137776259557
 31
0.0
  0
LINE
  5
70AC
330
1F
100
AcDbEntity
  8
LOGO
 62
     4
100
AcDbLine
 10
377.4208321212614
 20
1139.136907481277
 30
0.0
 11
359.4208321212627
 21
1139.136907481277
 31
0.0
  0
CIRCLE
  5
70AD
330
1F
100
AcDbEntity
  8
LOGO
  6
Continuous
100
AcDbCircle
 10
344.9777989571069
 20
1154.141151628367
 30
0.0
 40
1.741618395480947
  0
CIRCLE
  5
70AE
330
1F
100
AcDbEntity
  8
LOGO
  6
Continuous
100
AcDbCircle
 10
344.9777989571069
 20
1154.141151628367
 30
0.0
 40
1.020434202998395
  0
LINE
  5
70AF
330
1F
100
AcDbEntity
  8
LOGO
100
AcDbLine
 10
355.9223310431617
 20
1152.399533232886
 30
0.0
 11
355.9223310431617
 21
1155.882770023848
 31
0.0
  0
LINE
  5
70B0
330
1F
100
AcDbEntity
  8
LOGO
100
AcDbLine
 10
350.4624573469953
 20
1153.120717425369
 30
0.0
 11
350.4624573469953
 21
1155.161585831366
 31
0.0
  0
LINE
  5
70B1
330
1F
100
AcDbEntity
  8
LOGO
  6
Continuous
100
AcDbLine
 10
350.4624573469953
 20
1155.161585831366
 30
0.0
 11
355.9223310431617
 21
1155.882770023848
 31
0.0
  0
LINE
  5
70B2
330
1F
100
AcDbEntity
  8
LOGO
  6
Continuous
100
AcDbLine
 10
350.4624573469953
 20
1153.120717425369
 30
0.0
 11
355.9223310431617
 21
1152.399533232886
 31
0.0
  0
LINE
  5
70B3
330
1F
100
AcDbEntity
  8
LOGO
  6
AM_ISO08W050x2
 48
0.3
100
AcDbLine
 10
342.5769519202545
 20
1154.141151628367
 30
0.0
 11
347.3786459939593
 21
1154.141151628367
 31
0.0
1001
GENIUS_GENOREF_13
1005
70B8
  0
LINE
  5
70B4
330
1F
100
AcDbEntity
  8
LOGO
  6
AM_ISO08W050x2
 48
0.3
100
AcDbLine
 10
344.9777989571069
 20
1151.740304591515
 30
0.0
 11
344.9777989571069
 21
1156.541998665219
 31
0.0
1001
GENIUS_GENOREF_13
1005
70B7
  0
LINE
  5
70B5
330
1F
100
AcDbEntity
  8
LOGO
  6
CENTER
 48
0.5
100
AcDbLine
 10
350.0258192077813
 20
1154.141151628367
 30
0.0
 11
356.4721226498432
 21
1154.141151628367
 31
0.0
1001
GENIUS_GENOREF_13
1005
70B6
  0
POINT
  5
70B6
330
1F
100
AcDbEntity
  8
0
 60
     1
100
AcDbPoint
 10
-1223.576401245173
 20
290.0635775878196
 30
0.0
1001
GENIUS_GENOBJ-N-CRS_13
1002
{
1000
OWNER
1000
GEN
1002
}
1001
GENIUS_GENOLIS_13
1002
{
1000
ENT
1005
0
1005
0
1005
0
1005
70B5
1002
}
1001
GENIUS_GENOENT_13
1002
{
1000
MYREF
1005
70B6
1002
}
1002
{
1000
GRP
1005
0
1002
}
1001
GENIUS_GENODEF_13
1002
{
1000
HIER
1070
    10
1002
}
1002
{
1000
MANEDIT
1070
     1
1002
}
1002
{
1000
NOSEL
1070
     0
1002
}
1002
{
1000
BEHIND
1070
     0
1002
}
1002
{
1000
OTHER
1070
     0
1002
}
1002
{
1000
REACTOR
1002
}
  0
POINT
  5
70B7
330
1F
100
AcDbEntity
  8
0
 60
     1
100
AcDbPoint
 10
-1234.900986468028
 20
298.9391640664559
 30
0.0
1001
GENIUS_GENOBJ-N-CRS_13
1002
{
1000
OWNER
1000
GEN
1002
}
1001
GENIUS_GENOLIS_13
1002
{
1000
ENT
1005
0
1005
0
1005
0
1005
70B4
1002
}
1001
GENIUS_GENOENT_13
1002
{
1000
MYREF
1005
70B7
1002
}
1002
{
1000
GRP
1005
0
1002
}
1001
GENIUS_GENODEF_13
1002
{
1000
HIER
1070
    10
1002
}
1002
{
1000
MANEDIT
1070
     1
1002
}
1002
{
1000
NOSEL
1070
     0
1002
}
1002
{
1000
BEHIND
1070
     0
1002
}
1002
{
1000
OTHER
1070
     0
1002
}
1002
{
1000
REACTOR
1002
}
  0
POINT
  5
70B8
330
1F
100
AcDbEntity
  8
0
 60
     1
100
AcDbPoint
 10
-1228.542312770191
 20
290.0635775878196
 30
0.0
1001
GENIUS_GENOBJ-N-CRS_13
1002
{
1000
OWNER
1000
GEN
1002
}
1001
GENIUS_GENOLIS_13
1002
{
1000
ENT
1005
0
1005
0
1005
0
1005
70B3
1002
}
1001
GENIUS_GENOENT_13
1002
{
1000
MYREF
1005
70B8
1002
}
1002
{
1000
GRP
1005
0
1002
}
1001
GENIUS_GENODEF_13
1002
{
1000
HIER
1070
    10
1002
}
1002
{
1000
MANEDIT
1070
     1
1002
}
1002
{
1000
NOSEL
1070
     0
1002
}
1002
{
1000
BEHIND
1070
     0
1002
}
1002
{
1000
OTHER
1070
     0
1002
}
1002
{
1000
REACTOR
1002
}
  0
LINE
  5
7B44
330
1F
100
AcDbEntity
  8
AM_7
  6
AM_ISO08W050x2
100
AcDbLine
 10
436.8101534938859
 20
1273.648185839365
 30
0.0
 11
436.8101534938859
 21
1297.825406871985
 31
0.0
  0
LINE
  5
7B45
102
{ACAD_REACTORS
330
81A9
102
}
330
1F
100
AcDbEntity
  8
AM_7
  6
AM_ISO08W050x2
100
AcDbLine
 10
413.9278650501536
 20
1285.736796355675
 30
0.0
 11
459.6924419376185
 21
1285.736796355675
 31
0.0
  0
LINE
  5
7B4D
102
{ACAD_REACTORS
330
7E6A
330
7F4B
102
}
330
1F
100
AcDbEntity
  8
AM_7
  6
AM_ISO08W050x2
100
AcDbLine
 10
454.310153493886
 20
1283.354507911943
 30
0.0
 11
454.310153493886
 21
1294.119084799408
 31
0.0
  0
LINE
  5
7B4E
330
1F
100
AcDbEntity
  8
AM_7
  6
AM_ISO08W050x2
100
AcDbLine
 10
448.9278650501534
 20
1288.736796355675
 30
0.0
 11
459.6924419376184
 21
1288.736796355675
 31
0.0
  0
LINE
  5
7B51
102
{ACAD_REACTORS
330
7DF8
102
}
330
1F
100
AcDbEntity
  8
AM_7
  6
AM_ISO08W050x2
100
AcDbLine
 10
425.810153493886
 20
1345.005224646411
 30
0.0
 11
425.810153493886
 21
1353.009363884181
 31
0.0
  0
LINE
  5
7B52
330
1F
100
AcDbEntity
  8
AM_7
  6
AM_ISO08W050x2
100
AcDbLine
 10
421.8080838750006
 20
1349.007294265296
 30
0.0
 11
429.8122231127713
 21
1349.007294265296
 31
0.0
  0
LINE
  5
7B53
102
{ACAD_REACTORS
330
7DF8
102
}
330
1F
100
AcDbEntity
  8
AM_7
  6
AM_ISO08W050x2
100
AcDbLine
 10
447.8101534938859
 20
1345.005224646411
 30
0.0
 11
447.8101534938859
 21
1353.009363884181
 31
0.0
  0
LINE
  5
7B54
102
{ACAD_REACTORS
330
7E1E
102
}
330
1F
100
AcDbEntity
  8
AM_7
  6
AM_ISO08W050x2
100
AcDbLine
 10
443.8080838750006
 20
1349.007294265296
 30
0.0
 11
451.8122231127713
 21
1349.007294265296
 31
0.0
  0
LINE
  5
7B55
102
{ACAD_REACTORS
330
8273
102
}
330
1F
100
AcDbEntity
  8
AM_7
  6
AM_ISO08W050x2
100
AcDbLine
 10
418.1101534938859
 20
1205.654400870244
 30
0.0
 11
418.1101534938859
 21
1208.791525627893
 31
0.0
  0
LINE
  5
7B56
330
1F
100
AcDbEntity
  8
AM_7
  6
AM_ISO08W050x2
100
AcDbLine
 10
416.5415911150612
 20
1207.222963249068
 30
0.0
 11
419.6787158727106
 21
1207.222963249069
 31
0.0
  0
LINE
  5
7B5D
330
1F
100
AcDbEntity
  8
AM_7
  6
AM_ISO08W050x2
100
AcDbLine
 10
366.0626242852048
 20
1272.784350109589
 30
0.0
 11
366.0626242852048
 21
1285.689242601761
 31
0.0
  0
LINE
  5
7B5E
330
1F
100
AcDbEntity
  8
AM_7
  6
AM_ISO08W050x2
100
AcDbLine
 10
359.6101780391185
 20
1279.236796355675
 30
0.0
 11
372.5150705312911
 21
1279.236796355675
 31
0.0
  0
LINE
  5
7B63
102
{ACAD_REACTORS
330
8273
102
}
330
1F
100
AcDbEntity
  8
AM_7
  6
AM_ISO08W050x2
100
AcDbLine
 10
455.510153493886
 20
1205.654400870244
 30
0.0
 11
455.510153493886
 21
1208.791525627893
 31
0.0
  0
LINE
  5
7B64
102
{ACAD_REACTORS
330
824D
102
}
330
1F
100
AcDbEntity
  8
AM_7
  6
AM_ISO08W050x2
100
AcDbLine
 10
453.9415911150613
 20
1207.222963249068
 30
0.0
 11
457.0787158727107
 21
1207.222963249069
 31
0.0
  0
LINE
  5
7DC8
330
1F
100
AcDbEntity
  8
LOGO
  6
Continuous
 62
     7
100
AcDbLine
 10
445.002255836864
 20
1155.602643534694
 30
0.0
 11
448.9757520102734
 21
1155.602643534694
 31
0.0
  0
LINE
  5
7DC9
330
1F
100
AcDbEntity
  8
LOGO
 62
     4
100
AcDbLine
 10
466.4867916350416
 20
1160.133866757294
 30
0.0
 11
450.9068753730019
 21
1160.133866757294
 31
0.0
  0
LINE
  5
7DCA
330
1F
100
AcDbEntity
  8
LOGO
 62
     4
100
AcDbLine
 10
466.4867916350416
 20
1151.135169924715
 30
0.0
 11
450.9068753730019
 21
1151.135169924715
 31
0.0
  0
LINE
  5
7DCB
330
1F
100
AcDbEntity
  8
LOGO
 62
     4
100
AcDbLine
 10
450.9068753730019
 20
1160.133866757294
 30
0.0
 11
450.9068753730019
 21
1151.135169924715
 31
0.0
  0
LINE
  5
7DCC
330
1F
100
AcDbEntity
  8
LOGO
 62
     4
100
AcDbLine
 10
466.4867916350416
 20
1160.133866757294
 30
0.0
 11
466.4867916350416
 21
1151.135169924715
 31
0.0
  0
LINE
  5
7DCD
330
1F
100
AcDbEntity
  8
LOGO
 62
     4
100
AcDbLine
 10
459.9339130936676
 20
1151.135169924715
 30
0.0
 11
459.9339130936676
 21
1146.635821508426
 31
0.0
  0
TEXT
  5
7DCE
330
1F
100
AcDbEntity
  8
LOGO
  6
Continuous
 62
     7
100
AcDbText
 10
455.2277534499906
 20
1153.013634732423
 30
0.0
 40
5.25
  1
90
  7
CHINESET
100
AcDbText
  0
LINE
  5
7DCF
330
1F
100
AcDbEntity
  8
LOGO
 62
     4
100
AcDbLine
 10
469.7165167224383
 20
1146.635821508426
 30
0.0
 11
469.7165167224383
 21
1135.637414268606
 31
0.0
  0
LINE
  5
7DD0
330
1F
100
AcDbEntity
  8
LOGO
 62
     4
100
AcDbLine
 10
450.1513094648968
 20
1146.635821508426
 30
0.0
 11
450.1513094648968
 21
1135.637414268606
 31
0.0
  0
LINE
  5
7DD1
330
1F
100
AcDbEntity
  8
LOGO
 62
     4
100
AcDbLine
 10
469.7165167224382
 20
1135.637414268606
 30
0.0
 11
450.1513094648968
 21
1135.637414268606
 31
0.0
  0
LINE
  5
7DD2
330
1F
100
AcDbEntity
  8
LOGO
 62
     4
100
AcDbLine
 10
469.7165167224382
 20
1146.635821508426
 30
0.0
 11
450.1513094648968
 21
1146.635821508426
 31
0.0
  0
TEXT
  5
7DD3
330
1F
100
AcDbEntity
  8
LOGO
  6
Continuous
100
AcDbText
 10
451.7018462748653
 20
1137.189816127842
 30
196.5865886400747
 40
2.25
  1
Rotary angle
 41
0.8
  7
CHINESET
100
AcDbText
  0
TEXT
  5
7DD4
330
1F
100
AcDbEntity
  8
LOGO
100
AcDbText
 10
453.265910302015
 20
1141.360831218234
 30
196.5865886400747
 40
3.75
  1
作動角度
  7
CHINESET
100
AcDbText
  0
DIMENSION
  5
7DEA
102
{ACAD_XDICTIONARY
360
7DF7
102
}
102
{ACAD_REACTORS
330
7DF8
102
}
330
1F
100
AcDbEntity
  8
AM_5
100
AcDbDimension
  2
*D3
 10
447.8101534938859
 20
1362.55515197416
 30
0.0
 11
436.8101534938859
 21
1365.005496462349
 31
0.0
 70
    32
 71
     5
 42
22.0
  3
AM_ISO$0
100
AcDbAlignedDimension
 13
425.810153493886
 23
1353.009363884181
 33
0.0
 14
447.8101534938859
 24
1353.009363884181
 34
0.0
100
AcDbRotatedDimension
1001
ACAD
1000
DSTYLE
1002
{
1070
    40
1040
1.0
1070
   144
1040
1.0
1070
   272
1070
     8
1002
}
  0
DIMENSION
  5
7E10
102
{ACAD_XDICTIONARY
360
7E1D
102
}
102
{ACAD_REACTORS
330
7E1E
102
}
330
1F
100
AcDbEntity
  8
AM_5
100
AcDbDimension
  2
*D4
 10
466.6149674410323
 20
1357.507294607433
 30
0.0
 11
466.614967441032
 21
1353.257294436365
 31
0.0
 70
   160
 71
     5
 42
8.500000342137127
  3
AM_ISO$0
100
AcDbAlignedDimension
 13
451.8122231127713
 23
1349.007294265296
 33
0.0
 14
460.8101518249558
 24
1357.507294607433
 34
0.0
 50
90.0
100
AcDbRotatedDimension
1001
ACAD
1000
DSTYLE
1002
{
1070
    40
1040
1.0
1070
   144
1040
1.0
1070
   272
1070
     8
1002
}
  0
DIMENSION
  5
7E36
330
1F
100
AcDbEntity
  8
AM_5
100
AcDbDimension
  2
*D5
 10
460.8101518249558
 20
1314.219837964751
 30
0.0
 11
436.8101545444178
 21
1314.219837964751
 31
0.0
 70
   160
 71
     5
 42
47.99999855458736
  3
AM_ISO$0
100
AcDbAlignedDimension
 13
412.8101532703684
 23
1293.236796500219
 33
0.0
 14
460.8101518249558
 24
1293.236796500219
 34
0.0
100
AcDbRotatedDimension
1001
ACAD
1000
DSTYLE
1002
{
1070
    40
1040
1.0
1070
   144
1040
1.0
1070
   272
1070
     8
1002
}
  0
DIMENSION
  5
7E5C
102
{ACAD_XDICTIONARY
360
7E69
102
}
102
{ACAD_REACTORS
330
7E6A
102
}
330
1F
100
AcDbEntity
  8
AM_5
100
AcDbDimension
  2
*D6
 10
454.310153493886
 20
1306.449436229338
 30
0.0
 11
436.8101534938858
 21
1306.449436229338
 31
0.0
 70
   160
 71
     5
 42
35.0
  3
AM_ISO$0
100
AcDbAlignedDimension
 13
419.3101534938859
 23
1293.73886597456
 33
0.0
 14
454.310153493886
 24
1294.119084799408
 34
0.0
100
AcDbRotatedDimension
1001
ACAD
1000
DSTYLE
1002
{
1070
    40
1040
1.0
1070
   144
1040
1.0
1070
   272
1070
     8
1002
}
  0
DIMENSION
  5
7F3D
102
{ACAD_XDICTIONARY
360
7F4A
102
}
102
{ACAD_REACTORS
330
7F4B
102
}
330
1F
100
AcDbEntity
  8
AM_5
100
AcDbDimension
  2
*D7
 10
460.8101518249558
 20
1306.449436229338
 30
0.0
 11
457.5601526594208
 21
1306.449436229338
 31
0.0
 70
   160
 71
     5
 42
6.499998331069832
  3
AM_ISO$0
100
AcDbAlignedDimension
 13
454.310153493886
 23
1294.119084799408
 33
0.0
 14
460.8101518249558
 24
1293.236796500219
 34
0.0
100
AcDbRotatedDimension
1001
ACAD
1000
DSTYLE
1002
{
1070
    40
1040
1.0
1070
   144
1040
1.0
1070
   272
1070
     8
1002
}
  0
LINE
  5
7F6F
330
1F
100
AcDbEntity
  8
AM_7
  6
AM_ISO08W050x2
100
AcDbLine
 10
419.310153493886
 20
1283.354507911943
 30
0.0
 11
419.310153493886
 21
1294.119084799407
 31
0.0
  0
LINE
  5
7F70
102
{ACAD_REACTORS
330
8181
102
}
330
1F
100
AcDbEntity
  8
AM_7
  6
AM_ISO08W050x2
100
AcDbLine
 10
413.9278650501536
 20
1288.736796355675
 30
0.0
 11
424.6924419376186
 21
1288.736796355675
 31
0.0
  0
LINE
  5
7F85
102
{ACAD_REACTORS
330
8009
102
}
330
1F
100
AcDbEntity
  8
AM_7
  6
AM_ISO08W050x2
100
AcDbLine
 10
428.8101534938861
 20
1268.167420446043
 30
0.0
 11
428.8101534938861
 21
1276.106172265307
 31
0.0
  0
LINE
  5
7F86
330
1F
100
AcDbEntity
  8
AM_7
  6
AM_ISO08W050x2
100
AcDbLine
 10
424.8407775842544
 20
1272.136796355675
 30
0.0
 11
432.7795294035178
 21
1272.136796355675
 31
0.0
  0
LINE
  5
7F88
102
{ACAD_REACTORS
330
8009
102
}
330
1F
100
AcDbEntity
  8
AM_7
  6
AM_ISO08W050x2
100
AcDbLine
 10
444.8101534938861
 20
1268.167420446043
 30
0.0
 11
444.8101534938861
 21
1276.106172265307
 31
0.0
  0
LINE
  5
7F89
102
{ACAD_REACTORS
330
7FAB
102
}
330
1F
100
AcDbEntity
  8
AM_7
  6
AM_ISO08W050x2
100
AcDbLine
 10
440.8407775842544
 20
1272.136796355675
 30
0.0
 11
448.7795294035178
 21
1272.136796355675
 31
0.0
  0
DIMENSION
  5
7F9D
102
{ACAD_XDICTIONARY
360
7FAA
102
}
102
{ACAD_REACTORS
330
7FAB
102
}
330
1F
100
AcDbEntity
  8
AM_5
100
AcDbDimension
  2
*D8
 10
474.8944616578588
 20
1272.136796355675
 30
0.0
 11
474.8944616578586
 21
1282.686796427947
 31
0.0
 70
   160
 71
     5
 42
21.10000014454408
  3
AM_ISO$0
100
AcDbAlignedDimension
 13
467.3101558184671
 23
1293.236796500219
 33
0.0
 14
448.7795294035178
 24
1272.136796355675
 34
0.0
 50
90.0
100
AcDbRotatedDimension
1001
ACAD
1000
DSTYLE
1002
{
1070
   271
1070
     1
1070
   272
1070
     8
1002
}
  0
DIMENSION
  5
7FCC
330
1F
100
AcDbEntity
  8
AM_5
100
AcDbDimension
  2
*D9
 10
482.8078919737914
 20
1293.236796500219
 30
0.0
 11
482.8078919737912
 21
1281.486796436889
 31
0.0
 70
   160
 71
     5
 42
23.50000012665987
  3
AM_ISO$0
100
AcDbAlignedDimension
 13
460.8101518249558
 23
1269.736796373559
 33
0.0
 14
460.8101518249558
 24
1293.236796500219
 34
0.0
 50
90.0
100
AcDbRotatedDimension
1001
ACAD
1000
DSTYLE
1002
{
1070
   271
1070
     1
1070
   272
1070
     8
1002
}
  0
DIMENSION
  5
7FFB
102
{ACAD_XDICTIONARY
360
8008
102
}
102
{ACAD_REACTORS
330
8009
102
}
330
1F
100
AcDbEntity
  8
AM_5
100
AcDbDimension
  2
*D10
 10
444.8101534938861
 20
1262.317789718391
 30
0.0
 11
436.8101534938861
 21
1262.317789718391
 31
0.0
 70
   160
 71
     5
 42
16.0
  3
AM_ISO$0
100
AcDbAlignedDimension
 13
428.8101534938861
 23
1268.167420446043
 33
0.0
 14
444.8101534938861
 24
1268.167420446043
 34
0.0
 50
0.0000000000001018
100
AcDbRotatedDimension
1001
ACAD
1000
DSTYLE
1002
{
1070
   272
1070
     8
1002
}
  0
DIMENSION
  5
802A
330
1F
100
AcDbEntity
  8
AM_5
100
AcDbDimension
  2
*D11
 10
449.3101528680373
 20
1255.871367043573
 30
0.0
 11
436.8101536130954
 21
1258.321711531761
 31
0.0
 70
    32
 71
     5
 42
24.99999850988388
  3
AM_ISO$0
100
AcDbAlignedDimension
 13
424.3101543581534
 23
1263.348186478628
 33
0.0
 14
449.3101528680373
 24
1263.348186478628
 34
0.0
 50
0.0000000000001018
100
AcDbRotatedDimension
1001
ACAD
1000
DSTYLE
1002
{
1070
   272
1070
     8
1002
}
  0
DIMENSION
  5
8059
330
1F
100
AcDbEntity
  8
AM_5
100
AcDbDimension
  2
*D12
 10
452.8101525104093
 20
1247.871367043572
 30
0.0
 11
436.8101526817727
 21
1250.321711531761
 31
0.0
 70
    32
 71
     5
 42
31.99999965727329
  3
AM_ISO$0
100
AcDbAlignedDimension
 13
420.810152853136
 23
1270.236796455516
 33
0.0
 14
452.8101525104093
 24
1270.236796455516
 34
0.0
 50
0.0000000000001018
100
AcDbRotatedDimension
1001
ACAD
1000
DSTYLE
1002
{
1070
   272
1070
     8
1002
}
  0
LINE
  5
807D
330
1F
100
AcDbEntity
  8
AM_7
  6
AM_ISO08W050x2
100
AcDbLine
 10
424.3101543581534
 20
1263.348186478628
 30
0.0
 11
424.3101543581534
 21
1284.480953394503
 31
0.0
  0
LINE
  5
807E
330
1F
100
AcDbEntity
  8
AM_7
  6
AM_ISO08W050x2
100
AcDbLine
 10
449.3101528680373
 20
1263.348186478628
 30
0.0
 11
449.3101528680373
 21
1284.480953394503
 31
0.0
  0
DIMENSION
  5
8171
102
{ACAD_XDICTIONARY
360
8180
102
}
102
{ACAD_REACTORS
330
8181
102
}
330
1F
100
AcDbEntity
  8
AM_5
100
AcDbDimension
  2
*D13
 10
409.1349755731506
 20
1293.236796500219
 30
0.0
 11
409.1349755731504
 21
1302.634283873635
 31
0.0
 70
   160
 71
     5
 42
4.500000144544173
  3
AM_ISO$0
100
AcDbAlignedDimension
 13
413.9278650501536
 23
1288.736796355675
 33
0.0
 14
406.3101532703686
 24
1293.236796500219
 34
0.0
 50
90.0
100
AcDbRotatedDimension
1001
ACAD
1000
DSTYLE
1002
{
1070
    40
1040
1.0
1070
   144
1040
1.0
1070
   271
1070
     1
1070
   272
1070
     8
1002
}
  0
DIMENSION
  5
819B
102
{ACAD_XDICTIONARY
360
81A8
102
}
102
{ACAD_REACTORS
330
81A9
102
}
330
1F
100
AcDbEntity
  8
AM_5
100
AcDbDimension
  2
*D14
 10
403.9019966869858
 20
1293.236796500219
 30
0.0
 11
401.4519966869856
 21
1289.486796427947
 31
0.0
 70
    32
 71
     5
 42
7.500000144543946
  3
AM_ISO$0
100
AcDbAlignedDimension
 13
413.9278650501536
 23
1285.736796355675
 33
0.0
 14
412.8101532703684
 24
1293.236796500219
 34
0.0
 50
90.0
100
AcDbRotatedDimension
1001
ACAD
1000
DSTYLE
1002
{
1070
    40
1040
1.0
1070
   144
1040
1.0
1070
   271
1070
     1
1070
   272
1070
     8
1002
}
  0
DIMENSION
  5
81D0
330
1F
100
AcDbEntity
  8
AM_5
100
AcDbDimension
  2
*D15
 10
403.901996686986
 20
1270.036796795262
 30
0.0
 11
403.9019966869857
 21
1267.2367968951
 31
0.0
 70
   160
 71
     5
 42
5.59999980032444
  3
AM_ISO$0
100
AcDbAlignedDimension
 13
423.0101528412151
 23
1264.436796994938
 33
0.0
 14
412.8101532703684
 24
1270.036796795262
 34
0.0
 50
90.0
100
AcDbRotatedDimension
1001
ACAD
1000
DSTYLE
1002
{
1070
    40
1040
1.0
1070
   144
1040
1.0
1070
   271
1070
     1
1070
   272
1070
     8
1002
}
  0
LINE
  5
822A
102
{ACAD_REACTORS
330
8009
102
}
330
1F
100
AcDbEntity
  8
AM_7
  6
AM_ISO08W050x2
100
AcDbLine
 10
449.3101534938859
 20
1211.746995786803
 30
0.0
 11
449.3101534938859
 21
1216.898930711335
 31
0.0
  0
LINE
  5
822B
330
1F
100
AcDbEntity
  8
AM_7
  6
AM_ISO08W050x2
100
AcDbLine
 10
446.7341860316198
 20
1214.322963249069
 30
0.0
 11
451.8861209561521
 21
1214.322963249069
 31
0.0
  0
LINE
  5
822D
102
{ACAD_REACTORS
330
8009
102
}
330
1F
100
AcDbEntity
  8
AM_7
  6
AM_ISO08W050x2
100
AcDbLine
 10
424.3101534938859
 20
1211.746995786803
 30
0.0
 11
424.3101534938859
 21
1216.898930711335
 31
0.0
  0
LINE
  5
822E
102
{ACAD_REACTORS
330
829B
102
}
330
1F
100
AcDbEntity
  8
AM_7
  6
AM_ISO08W050x2
100
AcDbLine
 10
421.7341860316198
 20
1214.322963249069
 30
0.0
 11
426.8861209561521
 21
1214.322963249069
 31
0.0
  0
LINE
  5
822F
330
1F
100
AcDbEntity
  8
AM_7
  6
AM_ISO08W050x2
100
AcDbLine
 10
436.5601549691008
 20
1191.850079986074
 30
0.0
 11
436.5601549691008
 21
1228.761194249615
 31
0.0
  0
DIMENSION
  5
823F
102
{ACAD_XDICTIONARY
360
824C
102
}
102
{ACAD_REACTORS
330
824D
102
}
330
1F
100
AcDbEntity
  8
AM_5
100
AcDbDimension
  2
*D16
 10
466.4582292667081
 20
1194.722962906932
 30
0.0
 11
466.4582292667078
 21
1200.972963078
 31
0.0
 70
   160
 71
     5
 42
12.50000034213712
  3
AM_ISO$0
100
AcDbAlignedDimension
 13
457.0787158727107
 23
1207.222963249069
 33
0.0
 14
460.8101518249558
 24
1194.722962906932
 34
0.0
 50
90.00000000000317
100
AcDbRotatedDimension
1001
ACAD
1000
DSTYLE
1002
{
1070
    40
1040
1.0
1070
   144
1040
1.0
1070
   271
1070
     1
1070
   272
1070
     8
1002
}
  0
DIMENSION
  5
8265
102
{ACAD_XDICTIONARY
360
8272
102
}
102
{ACAD_REACTORS
330
8273
102
}
330
1F
100
AcDbEntity
  8
AM_5
100
AcDbDimension
  2
*D17
 10
418.1101534938859
 20
1186.9121065265
 30
0.0
 11
436.8101534938859
 21
1189.3621065265
 31
0.0
 70
    32
 71
     5
 42
37.40000000000009
  3
AM_ISO$0
100
AcDbAlignedDimension
 13
455.510153493886
 23
1205.654400870244
 33
0.0
 14
418.1101534938859
 24
1205.654400870244
 34
0.0
 50
0.0000000000001018
100
AcDbRotatedDimension
1001
ACAD
1000
DSTYLE
1002
{
1070
    40
1040
1.0
1070
   144
1040
1.0
1070
   271
1070
     1
1070
   272
1070
     8
1002
}
  0
DIMENSION
  5
828B
102
{ACAD_XDICTIONARY
360
829A
102
}
102
{ACAD_REACTORS
330
829B
102
}
330
1F
100
AcDbEntity
  8
AM_5
100
AcDbDimension
  2
*D18
 10
408.8485651867091
 20
1211.222963283186
 30
0.0
 11
408.8485651867089
 21
1223.122963249069
 31
0.0
 70
   160
 71
     5
 42
3.099999965882716
  3
AM_ISO$0
100
AcDbAlignedDimension
 13
421.7341860316198
 23
1214.322963249069
 33
0.0
 14
412.8101532703684
 24
1211.222963283186
 34
0.0
 50
90.0
100
AcDbRotatedDimension
1001
ACAD
1000
DSTYLE
1002
{
1070
    40
1040
1.0
1070
   144
1040
1.0
1070
   271
1070
     1
1070
   272
1070
     8
1002
}
  0
DIMENSION
  5
82B5
330
1F
100
AcDbEntity
  8
AM_5
100
AcDbDimension
  2
*D19
 10
402.7908221679996
 20
1211.222963283186
 30
0.0
 11
402.7908221679994
 21
1214.522963498135
 31
0.0
 70
   160
 71
     5
 42
6.6000004298985
  3
AM_ISO$0
100
AcDbAlignedDimension
 13
421.0101543760345
 23
1217.822963713084
 33
0.0
 14
412.8101532703684
 24
1211.222963283186
 34
0.0
 50
90.0
100
AcDbRotatedDimension
1001
ACAD
1000
DSTYLE
1002
{
1070
    40
1040
1.0
1070
   144
1040
1.0
1070
   271
1070
     1
1070
   272
1070
     8
1002
}
  0
DIMENSION
  5
82DF
330
1F
100
AcDbEntity
  8
AM_5
100
AcDbDimension
  2
*D20
 10
439.0601549691008
 20
1231.67142286172
 30
0.0
 11
436.3101549691008
 21
1231.67142286172
 31
0.0
 70
   160
 71
     5
 42
5.5
  3
AM_ISO$0
100
AcDbAlignedDimension
 13
433.5601549691008
 23
1226.522962903951
 33
0.0
 14
439.0601549691008
 24
1226.722963249069
 34
0.0
100
AcDbRotatedDimension
1001
ACAD
1000
DSTYLE
1002
{
1070
    40
1040
1.0
1070
   144
1040
1.0
1070
   271
1070
     1
1070
   272
1070
     8
1002
}
  0
DIMENSION
  5
8323
330
1F
100
AcDbEntity
  8
AM_5
100
AcDbDimension
  2
*D21
 10
373.562624627342
 20
1306.219837964751
 30
0.0
 11
365.3126244392148
 21
1308.669837964751
 31
0.0
 70
    32
 71
     5
 42
16.50000037625432
  3
AM_ISO$0
100
AcDbAlignedDimension
 13
357.0626242510877
 23
1292.936796078517
 33
0.0
 14
373.562624627342
 24
1292.936796078517
 34
0.0
100
AcDbRotatedDimension
1001
ACAD
1000
DSTYLE
1002
{
1070
    40
1040
1.0
1070
   144
1040
1.0
1070
   271
1070
     1
1070
   272
1070
     8
1002
}
  0
DIMENSION
  5
8373
330
1F
100
AcDbEntity
  8
AM_5
100
AcDbDimension
  2
*D22
 10
349.0626243367693
 20
1306.21983796475
 30
0.0
 11
345.312624653419
 21
1308.669837964751
 31
0.0
 70
    32
 71
     5
 42
7.499999366700649
  3
AM_ISO$0
100
AcDbAlignedDimension
 13
341.5626249700687
 23
1288.736796228273
 33
0.0
 14
349.0626243367693
 24
1293.5367959906
 34
0.0
100
AcDbRotatedDimension
1001
ACAD
1000
DSTYLE
1002
{
1070
   173
1070
     1
1070
   271
1070
     1
1070
   272
1070
     8
1070
   344
1005
83A8
1002
}
  0
DIMENSION
  5
838B
330
1F
100
AcDbEntity
  8
AM_5
100
AcDbDimension
  2
*D23
 10
349.0626243367693
 20
1306.21983796475
 30
0.0
 11
352.0626243628464
 21
1308.669837964751
 31
0.0
 70
    32
 71
     5
 42
6.000000052154064
  3
AM_ISO$0
100
AcDbAlignedDimension
 13
355.0626243889234
 23
1293.736796582176
 33
0.0
 14
349.0626243367693
 24
1293.5367959906
 34
0.0
100
AcDbRotatedDimension
1001
ACAD
1000
DSTYLE
1002
{
1070
   271
1070
     1
1070
   272
1070
     8
1002
}
  0
DIMENSION
  5
83DA
330
1F
100
AcDbEntity
  8
AM_5
100
AcDbDimension
  2
*D25
 10
373.562624627342
 20
1314.219837964751
 30
0.0
 11
357.5626247987053
 21
1316.67018245294
 31
0.0
 70
    32
 71
     5
 42
31.99999965727341
  3
AM_ISO$0
100
AcDbAlignedDimension
 13
341.5626249700685
 23
1288.536796112381
 33
0.0
 14
373.562624627342
 24
1292.936796078517
 34
0.0
100
AcDbRotatedDimension
1001
ACAD
1000
DSTYLE
1002
{
1070
    40
1040
1.0
1070
   144
1040
1.0
1070
   271
1070
     1
1070
   272
1070
     8
1002
}
  0
DIMENSION
  5
842B
330
1F
100
AcDbEntity
  8
AM_5
100
AcDbDimension
  2
*D26
 10
381.0375968714739
 20
1269.73679637356
 30
0.0
 11
381.0375968714737
 21
1281.23633867851
 31
0.0
 70
   160
 71
     5
 42
2.199999982115741
  3
AM_ISO$0
100
AcDbAlignedDimension
 13
367.6626242852048
 23
1271.936796355676
 33
0.0
 14
373.2626242056391
 24
1269.73679637356
 34
0.0
 50
90.0
100
AcDbRotatedDimension
1001
ACAD
1000
DSTYLE
1002
{
1070
    40
1040
1.0
1070
   144
1040
1.0
1070
   271
1070
     1
1070
   272
1070
     8
1002
}
  0
DIMENSION
  5
8455
330
1F
100
AcDbEntity
  8
AM_5
100
AcDbDimension
  2
*D27
 10
373.562624627342
 20
1257.73679537356
 30
0.0
 11
370.6126244562734
 21
1257.73679537356
 31
0.0
 70
   160
 71
     5
 42
5.900000342137104
  3
AM_ISO$0
100
AcDbAlignedDimension
 13
367.6626242852048
 23
1271.936796355676
 33
0.0
 14
373.562624627342
 24
1270.036796795263
 34
0.0
 50
0.0000000000001018
100
AcDbRotatedDimension
1001
ACAD
1000
DSTYLE
1002
{
1070
    40
1040
1.0
1070
   144
1040
1.0
1070
   271
1070
     1
1070
   272
1070
     8
1002
}
  0
DIMENSION
  5
847F
330
1F
100
AcDbEntity
  8
AM_5
100
AcDbDimension
  2
*D28
 10
350.4626238211892
 20
1257.736795373559
 30
0.0
 11
340.0876243367693
 21
1257.736795373559
 31
0.0
 70
   160
 71
     5
 42
1.399999484419822
  3
AM_ISO$0
100
AcDbAlignedDimension
 13
349.0626243367693
 23
1277.936796413793
 33
0.0
 14
350.4626238211892
 24
1270.236796455516
 34
0.0
 50
0.0000000000001018
100
AcDbRotatedDimension
1001
ACAD
1000
DSTYLE
1002
{
1070
    40
1040
1.0
1070
   144
1040
1.0
1070
   271
1070
     1
1070
   272
1070
     8
1002
}
  0
LINE
  5
8501
330
1F
100
AcDbEntity
  8
AM_5
 62
     5
100
AcDbLine
 10
504.0067740523605
 20
1261.065162323278
 30
0.0
 11
474.2735329124583
 21
1261.065162323278
 31
0.0
  0
LINE
  5
8502
330
1F
100
AcDbEntity
  8
AM_5
 62
     5
100
AcDbLine
 10
474.2735329124583
 20
1261.065162323278
 30
0.0
 11
458.468609721914
 21
1282.799267543263
 31
0.0
  0
TRACE
  5
8503
330
1F
100
AcDbEntity
  8
AM_5
 62
     5
370
    35
100
AcDbTrace
 10
458.8412760143179
 20
1283.070268445648
 30
0.0
 11
458.0959434295102
 21
1282.528266640878
 31
0.0
 12
456.410153493886
 22
1285.629949079093
 32
0.0
 13
456.410153493886
 23
1285.629949079093
 33
0.0
  0
MTEXT
  5
8504
330
1F
100
AcDbEntity
  8
AM_5
 62
     5
100
AcDbMText
 10
487.8696871817576
 20
1221.045263635073
 30
0.0
 40
3.5
 41
0.0
 71
     7
 72
     5
  1

  7
ACISOTS
 73
     1
 44
1.0
1001
ACAD
1000
MTEXTBEGIN
1070
    73
1070
     1
1070
    44
1040
1.0
1070
    74
1070
     0
1000
MTEXTEND
  0
TEXT
  5
8509
330
1F
100
AcDbEntity
  8
AM_5
100
AcDbText
 10
465.6452769313187
 20
1244.983930651861
 30
0.0
 40
3.5
  1
2-M3x0.5x4 depth
100
AcDbText
  0
LINE
  5
850B
330
1F
100
AcDbEntity
  8
AM_5
 62
     5
100
AcDbLine
 10
503.1459144324675
 20
1243.948069288994
 30
0.0
 11
465.1915490679526
 21
1243.948069288994
 31
0.0
  0
LINE
  5
850C
330
1F
100
AcDbEntity
  8
AM_5
 62
     5
100
AcDbLine
 10
465.1915490679526
 20
1243.948069288994
 30
0.0
 11
446.8822474008958
 21
1269.316082467218
 31
0.0
  0
TRACE
  5
850D
330
1F
100
AcDbEntity
  8
AM_5
 62
     5
370
    35
100
AcDbTrace
 10
447.2536014276339
 20
1269.588878804094
 30
0.0
 11
446.5108933741581
 21
1269.043286130341
 31
0.0
 12
444.8101534938865
 22
1272.136796355675
 32
0.0
 13
444.8101534938865
 23
1272.136796355675
 33
0.0
  0
ARC
  5
8B3A
330
1F
100
AcDbEntity
  8
0
  6
Continuous
 62
     7
370
    15
100
AcDbCircle
 10
442.260153493886
 20
1282.286796355675
 30
0.0
 40
1.200000000000017
100
AcDbArc
 50
0.0
 51
90.0
  0
ARC
  5
8B3B
330
1F
100
AcDbEntity
  8
0
  6
Continuous
 62
     7
370
    15
100
AcDbCircle
 10
442.260153493886
 20
1279.186796355675
 30
0.0
 40
1.200000000000017
100
AcDbArc
 50
270.0
 51
0.0
  0
SPLINE
  5
8B3C
330
1F
100
AcDbEntity
  8
0
  6
Continuous
 62
     7
370
    15
100
AcDbSpline
210
0.0
220
0.0
230
1.0
 70
    24
 71
     1
 72
     4
 73
     2
 74
     0
 42
0.0000000001
 43
0.0000000001
 40
0.0
 40
0.0
 40
1.0
 40
1.0
 10
441.8101542985485
 20
1287.986796571
 30
0.0
 10
442.2601544654416
 20
1287.986796571
 30
0.0
  0
SPLINE
  5
8B3D
330
1F
100
AcDbEntity
  8
0
  6
Continuous
 62
     7
370
    15
100
AcDbSpline
210
0.0
220
0.0
230
1.0
 70
    24
 71
     1
 72
     4
 73
     2
 74
     0
 42
0.0000000001
 43
0.0000000001
 40
0.0
 40
0.0
 40
1.0
 40
1.0
 10
442.2601544654416
 20
1293.486796075536
 30
0.0
 10
441.8101542985485
 20
1293.486796075536
 30
0.0
  0
SPLINE
  5
8B3E
330
1F
100
AcDbEntity
  8
0
  6
Continuous
 62
     7
370
    15
100
AcDbSpline
210
0.0
220
0.0
230
1.0
 70
    24
 71
     1
 72
     4
 73
     2
 74
     0
 42
0.0000000001
 43
0.0000000001
 40
0.0
 40
0.0
 40
1.0
 40
1.0
 10
441.8101542985485
 20
1277.986796328856
 30
0.0
 10
442.2601544654416
 20
1277.986796328856
 30
0.0
  0
SPLINE
  5
8B3F
330
1F
100
AcDbEntity
  8
0
  6
Continuous
 62
     7
370
    15
100
AcDbSpline
210
0.0
220
0.0
230
1.0
 70
    24
 71
     1
 72
     4
 73
     2
 74
     0
 42
0.0000000001
 43
0.0000000001
 40
0.0
 40
0.0
 40
1.0
 40
1.0
 10
442.2601544654416
 20
1283.486796357261
 30
0.0
 10
441.8101542985485
 20
1283.486796357261
 30
0.0
  0
ARC
  5
8B40
330
1F
100
AcDbEntity
  8
0
  6
Continuous
 62
     7
370
    15
100
AcDbCircle
 10
442.260153493886
 20
1292.286796355675
 30
0.0
 40
1.200000000000017
100
AcDbArc
 50
0.0
 51
90.0
  0
ARC
  5
8B41
330
1F
100
AcDbEntity
  8
0
  6
Continuous
 62
     7
370
    15
100
AcDbCircle
 10
442.260153493886
 20
1289.186796355675
 30
0.0
 40
1.200000000000017
100
AcDbArc
 50
270.0
 51
0.0
  0
SPLINE
  5
8B42
330
1F
100
AcDbEntity
  8
0
  6
Continuous
 62
     7
370
    15
100
AcDbSpline
210
0.0
220
0.0
230
1.0
 70
    24
 71
     1
 72
     4
 73
     2
 74
     0
 42
0.0000000001
 43
0.0000000001
 40
0.0
 40
0.0
 40
1.0
 40
1.0
 10
450.8101539111184
 20
1264.636796655191
 30
0.0
 10
450.8101539111184
 20
1267.646795826091
 30
0.0
  0
SPLINE
  5
8B43
330
1F
100
AcDbEntity
  8
0
  6
Continuous
 62
     7
370
    15
100
AcDbSpline
210
0.0
220
0.0
230
1.0
 70
    24
 71
     1
 72
     4
 73
     2
 74
     0
 42
0.0000000001
 43
0.0000000001
 40
0.0
 40
0.0
 40
1.0
 40
1.0
 10
447.8101552820252
 20
1267.646795826091
 30
0.0
 10
447.8101552820252
 20
1264.636796655191
 30
0.0
  0
SPLINE
  5
8B44
330
1F
100
AcDbEntity
  8
0
  6
Continuous
 62
     7
370
    15
100
AcDbSpline
210
0.0
220
0.0
230
1.0
 70
    24
 71
     1
 72
     4
 73
     2
 74
     0
 42
0.0000000001
 43
0.0000000001
 40
0.0
 40
0.0
 40
1.0
 40
1.0
 10
447.8101552820252
 20
1264.636796655191
 30
0.0
 10
448.0101549422787
 20
1264.436796994938
 30
0.0
  0
SPLINE
  5
8B45
330
1F
100
AcDbEntity
  8
0
  6
Continuous
 62
     7
370
    15
100
AcDbSpline
210
0.0
220
0.0
230
1.0
 70
    24
 71
     1
 72
     4
 73
     2
 74
     0
 42
0.0000000001
 43
0.0000000001
 40
0.0
 40
0.0
 40
1.0
 40
1.0
 10
450.6101542508648
 20
1264.436796994938
 30
0.0
 10
450.8101539111184
 20
1264.636796655191
 30
0.0
  0
SPLINE
  5
8B46
330
1F
100
AcDbEntity
  8
0
  6
Continuous
 62
     7
370
    15
100
AcDbSpline
210
0.0
220
0.0
230
1.0
 70
    24
 71
     1
 72
     4
 73
     2
 74
     0
 42
0.0000000001
 43
0.0000000001
 40
0.0
 40
0.0
 40
1.0
 40
1.0
 10
425.8101535385893
 20
1264.636796655191
 30
0.0
 10
425.8101535385893
 20
1267.646795826091
 30
0.0
  0
SPLINE
  5
8B47
330
1F
100
AcDbEntity
  8
0
  6
Continuous
 62
     7
370
    15
100
AcDbSpline
210
0.0
220
0.0
230
1.0
 70
    24
 71
     1
 72
     4
 73
     2
 74
     0
 42
0.0000000001
 43
0.0000000001
 40
0.0
 40
0.0
 40
1.0
 40
1.0
 10
422.810153046851
 20
1267.646795826091
 30
0.0
 10
422.810153046851
 20
1264.636796655191
 30
0.0
  0
SPLINE
  5
8B48
330
1F
100
AcDbEntity
  8
0
  6
Continuous
 62
     7
370
    15
100
AcDbSpline
210
0.0
220
0.0
230
1.0
 70
    24
 71
     1
 72
     4
 73
     2
 74
     0
 42
0.0000000001
 43
0.0000000001
 40
0.0
 40
0.0
 40
1.0
 40
1.0
 10
450.8101539111184
 20
1283.036796350439
 30
0.0
 10
450.6101542508648
 20
1283.236796356301
 30
0.0
  0
SPLINE
  5
8B49
330
1F
100
AcDbEntity
  8
0
  6
Continuous
 62
     7
370
    15
100
AcDbSpline
210
0.0
220
0.0
230
1.0
 70
    24
 71
     1
 72
     4
 73
     2
 74
     0
 42
0.0000000001
 43
0.0000000001
 40
0.0
 40
0.0
 40
1.0
 40
1.0
 10
448.0101549422787
 20
1283.236796356301
 30
0.0
 10
447.8101552820252
 20
1283.036796350439
 30
0.0
  0
SPLINE
  5
8B4A
330
1F
100
AcDbEntity
  8
0
  6
Continuous
 62
     7
370
    15
100
AcDbSpline
210
0.0
220
0.0
230
1.0
 70
    24
 71
     1
 72
     4
 73
     2
 74
     0
 42
0.0000000001
 43
0.0000000001
 40
0.0
 40
0.0
 40
1.0
 40
1.0
 10
450.8101539111184
 20
1278.73679645179
 30
0.0
 10
450.8101539111184
 20
1283.036796350439
 30
0.0
  0
SPLINE
  5
8B4B
330
1F
100
AcDbEntity
  8
0
  6
Continuous
 62
     7
370
    15
100
AcDbSpline
210
0.0
220
0.0
230
1.0
 70
    24
 71
     1
 72
     4
 73
     2
 74
     0
 42
0.0000000001
 43
0.0000000001
 40
0.0
 40
0.0
 40
1.0
 40
1.0
 10
447.8101552820252
 20
1283.036796350439
 30
0.0
 10
447.8101552820252
 20
1278.73679645179
 30
0.0
  0
SPLINE
  5
8B4C
330
1F
100
AcDbEntity
  8
0
  6
Continuous
 62
     7
370
    15
100
AcDbSpline
210
0.0
220
0.0
230
1.0
 70
    24
 71
     1
 72
     4
 73
     2
 74
     0
 42
0.0000000001
 43
0.0000000001
 40
0.0
 40
0.0
 40
1.0
 40
1.0
 10
422.810153046851
 20
1264.636796655191
 30
0.0
 10
423.0101527071045
 20
1264.436796994938
 30
0.0
  0
SPLINE
  5
8B4D
330
1F
100
AcDbEntity
  8
0
  6
Continuous
 62
     7
370
    15
100
AcDbSpline
210
0.0
220
0.0
230
1.0
 70
    24
 71
     1
 72
     4
 73
     2
 74
     0
 42
0.0000000001
 43
0.0000000001
 40
0.0
 40
0.0
 40
1.0
 40
1.0
 10
425.6101538783358
 20
1264.436796994938
 30
0.0
 10
425.8101535385893
 20
1264.636796655191
 30
0.0
  0
SPLINE
  5
8B4E
330
1F
100
AcDbEntity
  8
0
  6
Continuous
 62
     7
370
    15
100
AcDbSpline
210
0.0
220
0.0
230
1.0
 70
    24
 71
     1
 72
     4
 73
     2
 74
     0
 42
0.0000000001
 43
0.0000000001
 40
0.0
 40
0.0
 40
1.0
 40
1.0
 10
425.8101535385893
 20
1278.73679645179
 30
0.0
 10
425.8101535385893
 20
1283.236796356301
 30
0.0
  0
SPLINE
  5
8B4F
330
1F
100
AcDbEntity
  8
0
  6
Continuous
 62
     7
370
    15
100
AcDbSpline
210
0.0
220
0.0
230
1.0
 70
    24
 71
     1
 72
     4
 73
     2
 74
     0
 42
0.0000000001
 43
0.0000000001
 40
0.0
 40
0.0
 40
1.0
 40
1.0
 10
422.810153046851
 20
1283.236796356301
 30
0.0
 10
422.810153046851
 20
1278.73679645179
 30
0.0
  0
SPLINE
  5
8B50
330
1F
100
AcDbEntity
  8
0
  6
Continuous
 62
     7
370
    15
100
AcDbSpline
210
0.0
220
0.0
230
1.0
 70
    24
 71
     1
 72
     4
 73
     2
 74
     0
 42
0.0000000001
 43
0.0000000001
 40
0.0
 40
0.0
 40
1.0
 40
1.0
 10
451.6129204428242
 20
1267.646795826091
 30
0.0
 10
452.4855808711098
 20
1268.402542674972
 30
0.0
  0
SPLINE
  5
8B51
330
1F
100
AcDbEntity
  8
0
  6
Continuous
 62
     7
370
    15
100
AcDbSpline
210
0.0
220
0.0
230
1.0
 70
    24
 71
     1
 72
     4
 73
     2
 74
     0
 42
0.0000000001
 43
0.0000000001
 40
0.0
 40
0.0
 40
1.0
 40
1.0
 10
426.6129200702952
 20
1267.646795826091
 30
0.0
 10
427.4855804985808
 20
1268.402542674972
 30
0.0
  0
SPLINE
  5
8B52
330
1F
100
AcDbEntity
  8
0
  6
Continuous
 62
     7
370
    15
100
AcDbSpline
210
0.0
220
0.0
230
1.0
 70
    24
 71
     1
 72
     4
 73
     2
 74
     0
 42
0.0000000001
 43
0.0000000001
 40
0.0
 40
0.0
 40
1.0
 40
1.0
 10
421.1347260868596
 20
1268.402542674972
 30
0.0
 10
422.0073883777903
 20
1267.646795826091
 30
0.0
  0
SPLINE
  5
8B53
330
1F
100
AcDbEntity
  8
0
  6
Continuous
 62
     7
370
    15
100
AcDbSpline
210
0.0
220
0.0
230
1.0
 70
    24
 71
     1
 72
     4
 73
     2
 74
     0
 42
0.0000000001
 43
0.0000000001
 40
0.0
 40
0.0
 40
1.0
 40
1.0
 10
446.1347283220337
 20
1268.402542674972
 30
0.0
 10
447.0073887503193
 20
1267.646795826091
 30
0.0
  0
LINE
  5
8B54
330
1F
100
AcDbEntity
  8
0
  6
Continuous
 62
     7
370
    15
100
AcDbLine
 10
444.2328037118958
 20
1271.136796789302
 30
0.0
 11
445.3875021433876
 21
1271.136796789302
 31
0.0
  0
LINE
  5
8B55
330
1F
100
AcDbEntity
  8
0
  6
Continuous
 62
     7
370
    15
100
AcDbLine
 10
445.3875021433876
 20
1271.136796789302
 30
0.0
 11
445.9648550844239
 21
1272.136796021892
 31
0.0
  0
CIRCLE
  5
8B56
330
1F
100
AcDbEntity
  8
0
  6
Continuous
 62
     7
370
    15
100
AcDbCircle
 10
444.8101534938859
 20
1272.136796355675
 30
0.0
 40
1.550000000000011
  0
LINE
  5
8B57
330
1F
100
AcDbEntity
  8
0
  6
Continuous
 62
     7
370
    15
100
AcDbLine
 10
443.6554544961499
 20
1272.136796021892
 30
0.0
 11
444.2328037118958
 21
1271.136796789302
 31
0.0
  0
LINE
  5
8B58
330
1F
100
AcDbEntity
  8
0
  6
Continuous
 62
     7
370
    15
100
AcDbLine
 10
445.9648550844239
 20
1272.136796021892
 30
0.0
 11
445.3875021433876
 21
1273.136796185805
 31
0.0
  0
LINE
  5
8B59
330
1F
100
AcDbEntity
  8
0
  6
Continuous
 62
     7
370
    15
100
AcDbLine
 10
444.2328037118958
 20
1273.136796185805
 30
0.0
 11
443.6554544961499
 21
1272.136796021892
 31
0.0
  0
LINE
  5
8B5A
330
1F
100
AcDbEntity
  8
0
  6
Continuous
 62
     7
370
    15
100
AcDbLine
 10
445.3875021433876
 20
1273.136796185805
 30
0.0
 11
444.2328037118958
 21
1273.136796185805
 31
0.0
  0
ARC
  5
8B5B
330
1F
100
AcDbEntity
  8
0
  6
Continuous
 62
     7
370
    15
100
AcDbCircle
 10
444.8101534938859
 20
1272.136796355675
 30
0.0
 40
2.750000000000017
100
AcDbArc
 50
310.2141710173727
 51
90.0
  0
ARC
  5
8B5C
330
1F
100
AcDbEntity
  8
0
  6
Continuous
 62
     7
370
    15
100
AcDbCircle
 10
444.8101534938859
 20
1272.136796355675
 30
0.0
 40
2.750000000000008
100
AcDbArc
 50
90.0
 51
303.7206365629917
  0
CIRCLE
  5
8B5D
330
1F
100
AcDbEntity
  8
0
  6
Continuous
 62
     7
370
    15
100
AcDbCircle
 10
428.8101534938859
 20
1272.136796355675
 30
0.0
 40
1.549999999999982
  0
ARC
  5
8B5E
330
1F
100
AcDbEntity
  8
0
  6
Continuous
 62
     7
370
    15
100
AcDbCircle
 10
428.8101534938859
 20
1272.136796355675
 30
0.0
 40
2.75
100
AcDbArc
 50
236.2793634370083
 51
270.0
  0
ARC
  5
8B5F
330
1F
100
AcDbEntity
  8
0
  6
Continuous
 62
     7
370
    15
100
AcDbCircle
 10
428.8101534938859
 20
1272.136796355675
 30
0.0
 40
2.75
100
AcDbArc
 50
270.0
 51
229.7858289826273
  0
LINE
  5
8B60
330
1F
100
AcDbEntity
  8
0
  6
Continuous
 62
     7
370
    15
100
AcDbLine
 10
429.3875032460736
 20
1273.136796185805
 30
0.0
 11
428.2328029519366
 21
1273.136796185805
 31
0.0
  0
LINE
  5
8B61
330
1F
100
AcDbEntity
  8
0
  6
Continuous
 62
     7
370
    15
100
AcDbLine
 10
429.3875032460736
 20
1271.136796789302
 30
0.0
 11
429.9648543244646
 21
1272.136796021892
 31
0.0
  0
LINE
  5
8B62
330
1F
100
AcDbEntity
  8
0
  6
Continuous
 62
     7
370
    15
100
AcDbLine
 10
428.2328029519366
 20
1271.136796789302
 30
0.0
 11
429.3875032460736
 21
1271.136796789302
 31
0.0
  0
LINE
  5
8B63
330
1F
100
AcDbEntity
  8
0
  6
Continuous
 62
     7
370
    15
100
AcDbLine
 10
428.2328029519366
 20
1273.136796185805
 30
0.0
 11
427.6554537361906
 21
1272.136796021892
 31
0.0
  0
LINE
  5
8B64
330
1F
100
AcDbEntity
  8
0
  6
Continuous
 62
     7
370
    15
100
AcDbLine
 10
427.6554537361906
 20
1272.136796021892
 30
0.0
 11
428.2328029519366
 21
1271.136796789302
 31
0.0
  0
LINE
  5
8B65
330
1F
100
AcDbEntity
  8
0
  6
Continuous
 62
     7
370
    15
100
AcDbLine
 10
429.9648543244646
 20
1272.136796021892
 30
0.0
 11
429.3875032460736
 21
1273.136796185805
 31
0.0
  0
LINE
  5
8B6B
330
1F
100
AcDbEntity
  8
0
  6
Continuous
 62
     7
370
    15
100
AcDbLine
 10
434.3101540005253
 20
1277.736796287878
 30
0.0
 11
428.8101540303276
 21
1283.236796356301
 31
0.0
  0
LINE
  5
8B6C
330
1F
100
AcDbEntity
  8
0
  6
Continuous
 62
     7
370
    15
100
AcDbLine
 10
428.8101540303276
 20
1283.236796356301
 30
0.0
 11
428.8929970359848
 21
1283.436796354886
 31
0.0
  0
LINE
  5
8B6D
330
1F
100
AcDbEntity
  8
0
  6
Continuous
 62
     7
370
    15
100
AcDbLine
 10
428.8929970359848
 20
1283.436796354886
 30
0.0
 11
434.3929970061825
 21
1277.936796413792
 31
0.0
  0
LINE
  5
8B6E
330
1F
100
AcDbEntity
  8
0
  6
Continuous
 62
     7
370
    15
100
AcDbLine
 10
434.3101540005253
 20
1277.736796287878
 30
0.0
 11
434.3929970061825
 21
1277.936796413792
 31
0.0
  0
LINE
  5
8B6F
330
1F
100
AcDbEntity
  8
0
  6
Continuous
 62
     7
370
    15
100
AcDbLine
 10
441.8101542985485
 20
1293.736796582176
 30
0.0
 11
441.8101542985485
 21
1277.736796287878
 31
0.0
  0
LINE
  5
8B70
330
1F
100
AcDbEntity
  8
0
  6
Continuous
 62
     7
370
    15
100
AcDbLine
 10
441.8101542985485
 20
1277.736796287878
 30
0.0
 11
441.610154638295
 21
1277.936796413792
 31
0.0
  0
LINE
  5
8B71
330
1F
100
AcDbEntity
  8
0
  6
Continuous
 62
     7
370
    15
100
AcDbLine
 10
441.610154638295
 20
1277.936796413792
 30
0.0
 11
441.610154638295
 21
1293.536795990599
 31
0.0
  0
LINE
  5
8B72
330
1F
100
AcDbEntity
  8
0
  6
Continuous
 62
     7
370
    15
100
AcDbLine
 10
441.8101542985485
 20
1293.736796582176
 30
0.0
 11
441.610154638295
 21
1293.536795990599
 31
0.0
  0
LINE
  5
8B73
330
1F
100
AcDbEntity
  8
0
  6
Continuous
 62
     7
370
    15
100
AcDbLine
 10
441.8101542985485
 20
1277.736796287878
 30
0.0
 11
434.3101540005253
 21
1277.736796287878
 31
0.0
  0
LINE
  5
8B74
330
1F
100
AcDbEntity
  8
0
  6
Continuous
 62
     7
370
    15
100
AcDbLine
 10
434.3929970061825
 20
1277.936796413792
 30
0.0
 11
441.610154638295
 21
1277.936796413792
 31
0.0
  0
LINE
  5
8B75
330
1F
100
AcDbEntity
  8
0
  6
Continuous
 62
     7
370
    15
100
AcDbLine
 10
434.5101536607788
 20
1293.653953576518
 30
0.0
 11
428.8929970359848
 21
1288.036796486063
 31
0.0
  0
LINE
  5
8B76
330
1F
100
AcDbEntity
  8
0
  6
Continuous
 62
     7
370
    15
100
AcDbLine
 10
434.5101536607788
 20
1299.73679663433
 30
0.0
 11
434.5101536607788
 21
1293.653953576518
 31
0.0
  0
LINE
  5
8B77
330
1F
100
AcDbEntity
  8
0
  6
Continuous
 62
     7
370
    15
100
AcDbLine
 10
439.1101532971905
 20
1299.73679663433
 30
0.0
 11
434.5101536607788
 21
1299.73679663433
 31
0.0
  0
LINE
  5
8B78
330
1F
100
AcDbEntity
  8
0
  6
Continuous
 62
     7
370
    15
100
AcDbLine
 10
439.1101532971905
 20
1293.536795990599
 30
0.0
 11
439.1101532971905
 21
1299.73679663433
 31
0.0
  0
LINE
  5
8B79
330
1F
100
AcDbEntity
  8
0
  6
Continuous
 62
     7
370
    15
100
AcDbLine
 10
441.610154638295
 20
1293.536795990599
 30
0.0
 11
439.1101532971905
 21
1293.536795990599
 31
0.0
  0
LINE
  5
8B7A
330
1F
100
AcDbEntity
  8
0
  6
Continuous
 62
     7
370
    15
100
AcDbLine
 10
422.810153046851
 20
1283.436796354886
 30
0.0
 11
428.8929970359848
 21
1283.436796354886
 31
0.0
  0
LINE
  5
8B7B
330
1F
100
AcDbEntity
  8
0
  6
Continuous
 62
     7
370
    15
100
AcDbLine
 10
422.810153046851
 20
1288.036796486063
 30
0.0
 11
422.810153046851
 21
1283.436796354886
 31
0.0
  0
LINE
  5
8B7C
330
1F
100
AcDbEntity
  8
0
  6
Continuous
 62
     7
370
    15
100
AcDbLine
 10
428.8929970359848
 20
1288.036796486063
 30
0.0
 11
422.810153046851
 21
1288.036796486063
 31
0.0
  0
LINE
  5
8B7D
330
1F
100
AcDbEntity
  8
0
  6
Continuous
 62
     7
370
    15
100
AcDbLine
 10
422.6101533865975
 20
1283.436796354886
 30
0.0
 11
422.810153046851
 21
1283.436796354886
 31
0.0
  0
LINE
  5
8B7E
330
1F
100
AcDbEntity
  8
0
  6
Continuous
 62
     7
370
    15
100
AcDbLine
 10
422.810153046851
 20
1283.236796356301
 30
0.0
 11
422.810153046851
 21
1283.436796354886
 31
0.0
  0
LINE
  5
8B7F
330
1F
100
AcDbEntity
  8
0
  6
Continuous
 62
     7
370
    15
100
AcDbLine
 10
422.6101533865975
 20
1283.436796354886
 30
0.0
 11
422.810153046851
 21
1283.236796356301
 31
0.0
  0
LINE
  5
8B80
330
1F
100
AcDbEntity
  8
0
  6
Continuous
 62
     7
370
    15
100
AcDbLine
 10
428.8101540303276
 20
1283.236796356301
 30
0.0
 11
422.810153046851
 21
1283.236796356301
 31
0.0
  0
LINE
  5
8B81
330
1F
100
AcDbEntity
  8
0
  6
Continuous
 62
     7
370
    15
100
AcDbLine
 10
428.8929970359848
 20
1288.036796486063
 30
0.0
 11
428.8101540303276
 21
1288.236796146317
 31
0.0
  0
LINE
  5
8B82
330
1F
100
AcDbEntity
  8
0
  6
Continuous
 62
     7
370
    15
100
AcDbLine
 10
428.8101540303276
 20
1288.236796146317
 30
0.0
 11
434.3101540005253
 21
1293.736796582176
 31
0.0
  0
LINE
  5
8B83
330
1F
100
AcDbEntity
  8
0
  6
Continuous
 62
     7
370
    15
100
AcDbLine
 10
434.5101536607788
 20
1293.653953576518
 30
0.0
 11
434.3101540005253
 21
1293.736796582176
 31
0.0
  0
LINE
  5
8B84
330
1F
100
AcDbEntity
  8
0
  6
Continuous
 62
     7
370
    15
100
AcDbLine
 10
422.810153046851
 20
1288.036796486063
 30
0.0
 11
422.810153046851
 21
1288.236796146317
 31
0.0
  0
LINE
  5
8B85
330
1F
100
AcDbEntity
  8
0
  6
Continuous
 62
     7
370
    15
100
AcDbLine
 10
422.810153046851
 20
1288.236796146317
 30
0.0
 11
428.8101540303276
 21
1288.236796146317
 31
0.0
  0
LINE
  5
8B86
330
1F
100
AcDbEntity
  8
0
  6
Continuous
 62
     7
370
    15
100
AcDbLine
 10
422.6101533865975
 20
1283.436796354886
 30
0.0
 11
422.6101533865975
 21
1288.036796486063
 31
0.0
  0
LINE
  5
8B87
330
1F
100
AcDbEntity
  8
0
  6
Continuous
 62
     7
370
    15
100
AcDbLine
 10
422.810153046851
 20
1288.036796486063
 30
0.0
 11
422.6101533865975
 21
1288.036796486063
 31
0.0
  0
LINE
  5
8B88
330
1F
100
AcDbEntity
  8
0
  6
Continuous
 62
     7
370
    15
100
AcDbLine
 10
422.810153046851
 20
1288.236796146317
 30
0.0
 11
422.6101533865975
 21
1288.036796486063
 31
0.0
  0
LINE
  5
8B89
330
1F
100
AcDbEntity
  8
0
  6
Continuous
 62
     7
370
    15
100
AcDbLine
 10
439.310152957444
 20
1293.736796582176
 30
0.0
 11
441.8101542985485
 21
1293.736796582176
 31
0.0
  0
LINE
  5
8B8A
330
1F
100
AcDbEntity
  8
0
  6
Continuous
 62
     7
370
    15
100
AcDbLine
 10
439.310152957444
 20
1293.736796582176
 30
0.0
 11
439.1101532971905
 21
1293.536795990599
 31
0.0
  0
LINE
  5
8B8B
330
1F
100
AcDbEntity
  8
0
  6
Continuous
 62
     7
370
    15
100
AcDbLine
 10
439.310152957444
 20
1299.73679663433
 30
0.0
 11
439.310152957444
 21
1293.736796582176
 31
0.0
  0
LINE
  5
8B8C
330
1F
100
AcDbEntity
  8
0
  6
Continuous
 62
     7
370
    15
100
AcDbLine
 10
439.310152957444
 20
1299.73679663433
 30
0.0
 11
439.1101532971905
 21
1299.73679663433
 31
0.0
  0
LINE
  5
8B8D
330
1F
100
AcDbEntity
  8
0
  6
Continuous
 62
     7
370
    15
100
AcDbLine
 10
434.3101540005253
 20
1293.736796582176
 30
0.0
 11
434.3101540005253
 21
1299.73679663433
 31
0.0
  0
LINE
  5
8B8E
330
1F
100
AcDbEntity
  8
0
  6
Continuous
 62
     7
370
    15
100
AcDbLine
 10
434.5101536607788
 20
1299.73679663433
 30
0.0
 11
434.3101540005253
 21
1299.73679663433
 31
0.0
  0
LINE
  5
8B8F
330
1F
100
AcDbEntity
  8
0
  6
Continuous
 62
     7
370
    15
100
AcDbLine
 10
434.5101536607788
 20
1299.936796294583
 30
0.0
 11
434.3101540005253
 21
1299.73679663433
 31
0.0
  0
LINE
  5
8B90
330
1F
100
AcDbEntity
  8
0
  6
Continuous
 62
     7
370
    15
100
AcDbLine
 10
434.5101536607788
 20
1299.73679663433
 30
0.0
 11
434.5101536607788
 21
1299.936796294583
 31
0.0
  0
LINE
  5
8B91
330
1F
100
AcDbEntity
  8
0
  6
Continuous
 62
     7
370
    15
100
AcDbLine
 10
439.310152957444
 20
1299.73679663433
 30
0.0
 11
439.1101532971905
 21
1299.936796294583
 31
0.0
  0
LINE
  5
8B92
330
1F
100
AcDbEntity
  8
0
  6
Continuous
 62
     7
370
    15
100
AcDbLine
 10
439.1101532971905
 20
1299.73679663433
 30
0.0
 11
439.1101532971905
 21
1299.936796294583
 31
0.0
  0
LINE
  5
8B93
330
1F
100
AcDbEntity
  8
0
  6
Continuous
 62
     7
370
    15
100
AcDbLine
 10
434.5101536607788
 20
1299.936796294583
 30
0.0
 11
439.1101532971905
 21
1299.936796294583
 31
0.0
  0
LINE
  5
8B94
330
1F
100
AcDbEntity
  8
0
  6
Continuous
 62
     7
370
    15
100
AcDbLine
 10
443.4601524269627
 20
1282.286796358472
 30
0.0
 11
443.4601524269627
 21
1279.186796153022
 31
0.0
  0
LINE
  5
8B95
330
1F
100
AcDbEntity
  8
0
  6
Continuous
 62
     7
370
    15
100
AcDbLine
 10
443.4601524269627
 20
1292.28679625137
 30
0.0
 11
443.4601524269627
 21
1289.186796395166
 31
0.0
  0
LINE
  5
8B96
330
1F
100
AcDbEntity
  8
0
  6
Continuous
 62
     7
370
    15
100
AcDbLine
 10
441.9601531124161
 20
1272.136796021892
 30
0.0
 11
441.9601531124161
 21
1270.036796795262
 31
0.0
  0
LINE
  5
8B97
330
1F
100
AcDbEntity
  8
0
  6
Continuous
 62
     7
370
    15
100
AcDbLine
 10
441.9601531124161
 20
1270.036796795262
 30
0.0
 11
441.7601534521626
 21
1270.236796455516
 31
0.0
  0
LINE
  5
8B98
330
1F
100
AcDbEntity
  8
0
  6
Continuous
 62
     7
370
    15
100
AcDbLine
 10
441.7601534521626
 20
1270.236796455516
 30
0.0
 11
441.7601534521626
 21
1272.136796021892
 31
0.0
  0
LINE
  5
8B99
330
1F
100
AcDbEntity
  8
0
  6
Continuous
 62
     7
370
    15
100
AcDbLine
 10
441.9601531124161
 20
1272.136796021892
 30
0.0
 11
441.7601534521626
 21
1272.136796021892
 31
0.0
  0
LINE
  5
8B9A
330
1F
100
AcDbEntity
  8
0
  6
Continuous
 62
     7
370
    15
100
AcDbLine
 10
452.8101542389439
 20
1275.536796299798
 30
0.0
 11
452.8101542389439
 21
1270.236796455516
 31
0.0
  0
LINE
  5
8B9B
330
1F
100
AcDbEntity
  8
0
  6
Continuous
 62
     7
370
    15
100
AcDbLine
 10
452.8101542389439
 20
1270.236796455516
 30
0.0
 11
452.6101545786904
 21
1270.236796455516
 31
0.0
  0
LINE
  5
8B9C
330
1F
100
AcDbEntity
  8
0
  6
Continuous
 62
     7
370
    15
100
AcDbLine
 10
452.6101545786904
 20
1270.236796455516
 30
0.0
 11
452.6101545786904
 21
1275.736796425713
 31
0.0
  0
LINE
  5
8B9D
330
1F
100
AcDbEntity
  8
0
  6
Continuous
 62
     7
370
    15
100
AcDbLine
 10
452.8101542389439
 20
1275.536796299798
 30
0.0
 11
452.6101545786904
 21
1275.736796425713
 31
0.0
  0
LINE
  5
8B9E
330
1F
100
AcDbEntity
  8
0
  6
Continuous
 62
     7
370
    15
100
AcDbLine
 10
421.0101542419241
 20
1270.236796455516
 30
0.0
 11
421.0101542419241
 21
1270.036796795262
 31
0.0
  0
LINE
  5
8B9F
330
1F
100
AcDbEntity
  8
0
  6
Continuous
 62
     7
370
    15
100
AcDbLine
 10
420.8101527190255
 20
1270.236796455516
 30
0.0
 11
421.0101542419241
 21
1270.036796795262
 31
0.0
  0
LINE
  5
8BA0
330
1F
100
AcDbEntity
  8
0
  6
Continuous
 62
     7
370
    15
100
AcDbLine
 10
421.0101542419241
 20
1270.236796455516
 30
0.0
 11
420.8101527190255
 21
1270.236796455516
 31
0.0
  0
LINE
  5
8BA1
330
1F
100
AcDbEntity
  8
0
  6
Continuous
 62
     7
370
    15
100
AcDbLine
 10
426.8101537025021
 20
1275.736796425713
 30
0.0
 11
430.1769034361885
 21
1275.736796425713
 31
0.0
  0
ARC
  5
8BA2
330
1F
100
AcDbEntity
  8
0
  6
Continuous
 62
     7
370
    15
100
AcDbCircle
 10
436.8101534938859
 20
1285.736796355675
 30
0.0
 40
12.00000000000003
100
AcDbArc
 50
236.4426902380761
 51
303.5573097619239
  0
LINE
  5
8BA3
330
1F
100
AcDbEntity
  8
0
  6
Continuous
 62
     7
370
    15
100
AcDbLine
 10
443.4434035217808
 20
1275.736796425713
 30
0.0
 11
446.8101532554673
 21
1275.736796425713
 31
0.0
  0
LINE
  5
8BA4
330
1F
100
AcDbEntity
  8
0
  6
Continuous
 62
     7
370
    15
100
AcDbLine
 10
446.8101532554673
 20
1275.736796425713
 30
0.0
 11
446.8101532554673
 21
1278.536796325876
 31
0.0
  0
LINE
  5
8BA5
330
1F
100
AcDbEntity
  8
0
  6
Continuous
 62
     7
370
    15
100
AcDbLine
 10
452.2101552581833
 20
1278.536796325876
 30
0.0
 11
446.8101532554673
 21
1278.536796325876
 31
0.0
  0
LINE
  5
8BA6
330
1F
100
AcDbEntity
  8
0
  6
Continuous
 62
     7
370
    15
100
AcDbLine
 10
452.2101552581833
 20
1278.536796325876
 30
0.0
 11
452.2101552581833
 21
1275.736796425713
 31
0.0
  0
LINE
  5
8BA7
330
1F
100
AcDbEntity
  8
0
  6
Continuous
 62
     7
370
    15
100
AcDbLine
 10
452.2101552581833
 20
1275.736796425713
 30
0.0
 11
452.6101545786904
 21
1275.736796425713
 31
0.0
  0
LINE
  5
8BA8
330
1F
100
AcDbEntity
  8
0
  6
Continuous
 62
     7
370
    15
100
AcDbLine
 10
447.8601524031208
 20
1270.236796455516
 30
0.0
 11
452.6101545786904
 21
1270.236796455516
 31
0.0
  0
LINE
  5
8BA9
330
1F
100
AcDbEntity
  8
0
  6
Continuous
 62
     7
370
    15
100
AcDbLine
 10
447.8601524031208
 20
1272.136796021892
 30
0.0
 11
447.8601524031208
 21
1270.236796455516
 31
0.0
  0
ARC
  5
8BAA
330
1F
100
AcDbEntity
  8
0
  6
Continuous
 62
     7
370
    15
100
AcDbCircle
 10
444.8101534938859
 20
1272.136796355675
 30
0.0
 40
3.050000000000011
100
AcDbArc
 50
0.0
 51
180.0
  0
LINE
  5
8BAB
330
1F
100
AcDbEntity
  8
0
  6
Continuous
 62
     7
370
    15
100
AcDbLine
 10
431.8601535058068
 20
1270.236796455516
 30
0.0
 11
441.7601534521626
 21
1270.236796455516
 31
0.0
  0
LINE
  5
8BAC
330
1F
100
AcDbEntity
  8
0
  6
Continuous
 62
     7
370
    15
100
AcDbLine
 10
431.8601535058068
 20
1272.136796021892
 30
0.0
 11
431.8601535058068
 21
1270.236796455516
 31
0.0
  0
ARC
  5
8BAD
330
1F
100
AcDbEntity
  8
0
  6
Continuous
 62
     7
370
    15
100
AcDbCircle
 10
428.8101534938859
 20
1272.136796355675
 30
0.0
 40
3.050000000000011
100
AcDbArc
 50
0.0
 51
180.0
  0
LINE
  5
8BAE
330
1F
100
AcDbEntity
  8
0
  6
Continuous
 62
     7
370
    15
100
AcDbLine
 10
425.7601526922034
 20
1270.236796455516
 30
0.0
 11
425.7601526922034
 21
1272.136796021892
 31
0.0
  0
LINE
  5
8BAF
330
1F
100
AcDbEntity
  8
0
  6
Continuous
 62
     7
370
    15
100
AcDbLine
 10
421.0101542419241
 20
1270.236796455516
 30
0.0
 11
425.7601526922034
 21
1270.236796455516
 31
0.0
  0
LINE
  5
8BB0
330
1F
100
AcDbEntity
  8
0
  6
Continuous
 62
     7
370
    15
100
AcDbLine
 10
421.0101542419241
 20
1275.736796425713
 30
0.0
 11
421.0101542419241
 21
1270.236796455516
 31
0.0
  0
LINE
  5
8BB1
330
1F
100
AcDbEntity
  8
0
  6
Continuous
 62
     7
370
    15
100
AcDbLine
 10
421.0101542419241
 20
1275.736796425713
 30
0.0
 11
421.4101535624312
 21
1275.736796425713
 31
0.0
  0
LINE
  5
8BB2
330
1F
100
AcDbEntity
  8
0
  6
Continuous
 62
     7
370
    15
100
AcDbLine
 10
421.4101535624312
 20
1275.736796425713
 30
0.0
 11
421.4101535624312
 21
1278.536796325876
 31
0.0
  0
LINE
  5
8BB3
330
1F
100
AcDbEntity
  8
0
  6
Continuous
 62
     7
370
    15
100
AcDbLine
 10
426.8101537025021
 20
1278.536796325876
 30
0.0
 11
421.4101535624312
 21
1278.536796325876
 31
0.0
  0
LINE
  5
8BB4
330
1F
100
AcDbEntity
  8
0
  6
Continuous
 62
     7
370
    15
100
AcDbLine
 10
426.8101537025021
 20
1278.536796325876
 30
0.0
 11
426.8101537025021
 21
1275.736796425713
 31
0.0
  0
LINE
  5
8BB5
330
1F
100
AcDbEntity
  8
0
  6
Continuous
 62
     7
370
    15
100
AcDbLine
 10
441.9601531124161
 20
1270.036796795262
 30
0.0
 11
431.6601538455532
 21
1270.036796795262
 31
0.0
  0
LINE
  5
8BB6
330
1F
100
AcDbEntity
  8
0
  6
Continuous
 62
     7
370
    15
100
AcDbLine
 10
431.8601535058068
 20
1270.236796455516
 30
0.0
 11
431.6601538455532
 21
1270.036796795262
 31
0.0
  0
LINE
  5
8BB7
330
1F
100
AcDbEntity
  8
0
  6
Continuous
 62
     7
370
    15
100
AcDbLine
 10
425.7601526922034
 20
1272.136796021892
 30
0.0
 11
425.960154215102
 21
1272.136796021892
 31
0.0
  0
LINE
  5
8BB8
330
1F
100
AcDbEntity
  8
0
  6
Continuous
 62
     7
370
    15
100
AcDbLine
 10
425.960154215102
 20
1272.136796021892
 30
0.0
 11
425.960154215102
 21
1270.036796795262
 31
0.0
  0
LINE
  5
8BB9
330
1F
100
AcDbEntity
  8
0
  6
Continuous
 62
     7
370
    15
100
AcDbLine
 10
425.7601526922034
 20
1270.236796455516
 30
0.0
 11
425.960154215102
 21
1270.036796795262
 31
0.0
  0
LINE
  5
8BBA
330
1F
100
AcDbEntity
  8
0
  6
Continuous
 62
     7
370
    15
100
AcDbLine
 10
452.6101545786904
 20
1270.036796795262
 30
0.0
 11
447.6601527428673
 21
1270.036796795262
 31
0.0
  0
LINE
  5
8BBB
330
1F
100
AcDbEntity
  8
0
  6
Continuous
 62
     7
370
    15
100
AcDbLine
 10
447.6601527428673
 20
1270.036796795262
 30
0.0
 11
447.8601524031208
 21
1270.236796455516
 31
0.0
  0
LINE
  5
8BBC
330
1F
100
AcDbEntity
  8
0
  6
Continuous
 62
     7
370
    15
100
AcDbLine
 10
452.6101545786904
 20
1270.036796795262
 30
0.0
 11
452.6101545786904
 21
1270.236796455516
 31
0.0
  0
LINE
  5
8BBD
330
1F
100
AcDbEntity
  8
0
  6
Continuous
 62
     7
370
    15
100
AcDbLine
 10
425.960154215102
 20
1270.036796795262
 30
0.0
 11
421.0101542419241
 21
1270.036796795262
 31
0.0
  0
LINE
  5
8BBE
330
1F
100
AcDbEntity
  8
0
  6
Continuous
 62
     7
370
    15
100
AcDbLine
 10
420.8101527190255
 20
1270.236796455516
 30
0.0
 11
420.8101527190255
 21
1275.536796299798
 31
0.0
  0
LINE
  5
8BBF
330
1F
100
AcDbEntity
  8
0
  6
Continuous
 62
     7
370
    15
100
AcDbLine
 10
421.0101542419241
 20
1275.736796425713
 30
0.0
 11
420.8101527190255
 21
1275.536796299798
 31
0.0
  0
LINE
  5
8BC0
330
1F
100
AcDbEntity
  8
0
  6
Continuous
 62
     7
370
    15
100
AcDbLine
 10
447.6601527428673
 20
1270.036796795262
 30
0.0
 11
447.6601527428673
 21
1272.136796021892
 31
0.0
  0
LINE
  5
8BC1
330
1F
100
AcDbEntity
  8
0
  6
Continuous
 62
     7
370
    15
100
AcDbLine
 10
447.6601527428673
 20
1272.136796021892
 30
0.0
 11
447.8601524031208
 21
1272.136796021892
 31
0.0
  0
LINE
  5
8BC2
330
1F
100
AcDbEntity
  8
0
  6
Continuous
 62
     7
370
    15
100
AcDbLine
 10
431.6601538455532
 20
1270.036796795262
 30
0.0
 11
431.6601538455532
 21
1272.136796021892
 31
0.0
  0
LINE
  5
8BC3
330
1F
100
AcDbEntity
  8
0
  6
Continuous
 62
     7
370
    15
100
AcDbLine
 10
431.8601535058068
 20
1272.136796021892
 30
0.0
 11
431.6601538455532
 21
1272.136796021892
 31
0.0
  0
LINE
  5
8BC4
330
1F
100
AcDbEntity
  8
0
  6
Continuous
 62
     7
370
    15
100
AcDbLine
 10
452.6101545786904
 20
1270.036796795262
 30
0.0
 11
452.8101542389439
 21
1270.236796455516
 31
0.0
  0
ARC
  5
8BC5
330
1F
100
AcDbEntity
  8
0
  6
Continuous
 62
     7
370
    15
100
AcDbCircle
 10
428.8101534938859
 20
1272.136796355675
 30
0.0
 40
2.849999999999994
100
AcDbArc
 50
0.0
 51
180.0
  0
ARC
  5
8BC6
330
1F
100
AcDbEntity
  8
0
  6
Continuous
 62
     7
370
    15
100
AcDbCircle
 10
444.8101534938859
 20
1272.136796355675
 30
0.0
 40
2.849999999999994
100
AcDbArc
 50
0.0
 51
180.0
  0
LINE
  5
8BC7
330
1F
100
AcDbEntity
  8
0
  6
Continuous
 62
     7
370
    15
100
AcDbLine
 10
447.0101529157208
 20
1278.73679645179
 30
0.0
 11
452.0101518726395
 21
1278.73679645179
 31
0.0
  0
LINE
  5
8BC8
330
1F
100
AcDbEntity
  8
0
  6
Continuous
 62
     7
370
    15
100
AcDbLine
 10
452.2101552581833
 20
1278.536796325876
 30
0.0
 11
452.0101518726395
 21
1278.73679645179
 31
0.0
  0
LINE
  5
8BC9
330
1F
100
AcDbEntity
  8
0
  6
Continuous
 62
     7
370
    15
100
AcDbLine
 10
446.8101532554673
 20
1278.536796325876
 30
0.0
 11
447.0101529157208
 21
1278.73679645179
 31
0.0
  0
LINE
  5
8BCA
330
1F
100
AcDbEntity
  8
0
  6
Continuous
 62
     7
370
    15
100
AcDbLine
 10
421.6101532226847
 20
1278.73679645179
 30
0.0
 11
426.6101540422486
 21
1278.73679645179
 31
0.0
  0
LINE
  5
8BCB
330
1F
100
AcDbEntity
  8
0
  6
Continuous
 62
     7
370
    15
100
AcDbLine
 10
421.4101535624312
 20
1278.536796325876
 30
0.0
 11
421.6101532226847
 21
1278.73679645179
 31
0.0
  0
LINE
  5
8BCC
330
1F
100
AcDbEntity
  8
0
  6
Continuous
 62
     7
370
    15
100
AcDbLine
 10
426.8101537025021
 20
1278.536796325876
 30
0.0
 11
426.6101540422486
 21
1278.73679645179
 31
0.0
  0
ELLIPSE
  5
8BCD
330
1F
100
AcDbEntity
  8
0
  6
Continuous
 62
     7
370
    15
100
AcDbEllipse
 10
450.8978667341574
 20
1272.10659433032
 30
0.0
 11
-0.6651224737236133
 21
3.952025917745203
 31
0.0
210
0.0
220
0.0
230
1.0
 40
0.3728246932726994
 41
2.717561614099063
 42
3.078928738005768
  0
LINE
  5
8BCE
330
1F
100
AcDbEntity
  8
0
  6
Continuous
 62
     7
370
    15
100
AcDbLine
 10
451.4694148099469
 20
1268.146795908047
 30
0.0
 11
451.1807383394287
 21
1267.646795826091
 31
0.0
  0
LINE
  5
8BCF
330
1F
100
AcDbEntity
  8
0
  6
Continuous
 62
     7
370
    15
100
AcDbLine
 10
451.1807383394287
 20
1267.646795826091
 30
0.0
 11
449.4660952484654
 21
1267.646795826091
 31
0.0
  0
LINE
  5
8BD0
330
1F
100
AcDbEntity
  8
0
  6
Continuous
 62
     7
370
    15
100
AcDbLine
 10
449.4660952484654
 20
1267.646795826091
 30
0.0
 11
449.7547717189835
 21
1268.146795908047
 31
0.0
  0
ELLIPSE
  5
8BD1
330
1F
100
AcDbEntity
  8
0
  6
Continuous
 62
     7
370
    15
100
AcDbEllipse
 10
450.8978667341574
 20
1272.10659433032
 30
0.0
 11
-2.138535324312755
 21
-3.704051835490418
 31
-0.0000000000000053
210
-0.0000000000000028
220
0.0000000000000002
230
0.9999999999999998
 40
0.6546536707079742
 41
0.3613671239067125
 42
0.7227342478134262
  0
ELLIPSE
  5
8BD2
330
1F
100
AcDbEntity
  8
0
  6
Continuous
 62
     7
370
    15
100
AcDbEllipse
 10
447.7224402536143
 20
1272.10659433032
 30
0.0
 11
2.138535324312726
 21
-3.704051835490444
 31
0.0000000000000071
210
-0.0000000000000028
220
0.0000000000000003
230
1.0
 40
0.654653670707975
 41
5.560451059366187
 42
5.921818183272907
  0
LINE
  5
8BD3
330
1F
100
AcDbEntity
  8
0
  6
Continuous
 62
     7
370
    15
100
AcDbLine
 10
447.7224395966576
 20
1268.402542674972
 30
0.0
 11
447.7224395966576
 21
1270.036796795262
 31
0.0
  0
LINE
  5
8BD4
330
1F
100
AcDbEntity
  8
0
  6
Continuous
 62
     7
370
    15
100
AcDbLine
 10
450.8978658711956
 20
1268.402542674972
 30
0.0
 11
450.8978658711956
 21
1270.036796795262
 31
0.0
  0
LINE
  5
8BD5
330
1F
100
AcDbEntity
  8
0
  6
Continuous
 62
     7
370
    15
100
AcDbLine
 10
448.8655337488697
 20
1268.146795908047
 30
0.0
 11
449.7547717189835
 21
1268.146795908047
 31
0.0
  0
LINE
  5
8BD6
330
1F
100
AcDbEntity
  8
0
  6
Continuous
 62
     7
370
    15
100
AcDbLine
 10
452.4855808711098
 20
1268.402542674972
 30
0.0
 11
452.4855808711098
 21
1270.036796795262
 31
0.0
  0
ELLIPSE
  5
8BD7
330
1F
100
AcDbEntity
  8
0
  6
Continuous
 62
     7
370
    15
100
AcDbEllipse
 10
452.4855799744288
 20
1272.10659433032
 30
0.0
 11
0.6651224737236421
 21
3.952025917745203
 31
0.0
210
0.0
220
0.0
230
1.0
 40
0.3728246932726989
 41
3.204256569173874
 42
3.56562369308059
  0
LINE
  5
8BD8
330
1F
100
AcDbEntity
  8
0
  6
Continuous
 62
     7
370
    15
100
AcDbLine
 10
451.4694148099469
 20
1268.146795908047
 30
0.0
 11
451.9140319323586
 21
1268.146795908047
 31
0.0
  0
ELLIPSE
  5
8BD9
330
1F
100
AcDbEntity
  8
0
  6
Continuous
 62
     7
370
    15
100
AcDbEllipse
 10
422.7224402536142
 20
1272.10659433032
 30
0.0
 11
2.138535324312726
 21
-3.704051835490444
 31
0.0000000000000009
210
-0.0000000000000001
220
0.0000000000000002
230
1.0
 40
0.6546536707079691
 41
5.560451059366181
 42
5.921818183272904
  0
LINE
  5
8BDA
330
1F
100
AcDbEntity
  8
0
  6
Continuous
 62
     7
370
    15
100
AcDbLine
 10
423.8655352389859
 20
1268.146795908047
 30
0.0
 11
424.1542098468588
 21
1267.646795826091
 31
0.0
  0
LINE
  5
8BDB
330
1F
100
AcDbEntity
  8
0
  6
Continuous
 62
     7
370
    15
100
AcDbLine
 10
424.1542098468588
 20
1267.646795826091
 30
0.0
 11
422.4395686185406
 21
1267.646795826091
 31
0.0
  0
LINE
  5
8BDC
330
1F
100
AcDbEntity
  8
0
  6
Continuous
 62
     7
370
    15
100
AcDbLine
 10
422.4395686185406
 20
1267.646795826091
 30
0.0
 11
422.1508921480225
 21
1268.146795908047
 31
0.0
  0
ELLIPSE
  5
8BDD
330
1F
100
AcDbEntity
  8
0
  6
Continuous
 62
     7
370
    15
100
AcDbEllipse
 10
422.7224402536142
 20
1272.10659433032
 30
0.0
 11
0.6651224737236137
 21
3.952025917745203
 31
0.0
210
0.0
220
0.0
230
1.0
 40
0.3728246932726982
 41
3.204256569173859
 42
3.565623693080557
  0
LINE
  5
8BDE
330
1F
100
AcDbEntity
  8
0
  6
Continuous
 62
     7
370
    15
100
AcDbLine
 10
448.8655337488697
 20
1268.146795908047
 30
0.0
 11
449.1542102193879
 21
1267.646795826091
 31
0.0
  0
LINE
  5
8BDF
330
1F
100
AcDbEntity
  8
0
  6
Continuous
 62
     7
370
    15
100
AcDbLine
 10
449.4660952484654
 20
1267.646795826091
 30
0.0
 11
449.1542102193879
 21
1267.646795826091
 31
0.0
  0
LINE
  5
8BE0
330
1F
100
AcDbEntity
  8
0
  6
Continuous
 62
     7
370
    15
100
AcDbLine
 10
422.7224410867737
 20
1268.402542674972
 30
0.0
 11
422.7224410867737
 21
1270.036796795262
 31
0.0
  0
LINE
  5
8BE1
330
1F
100
AcDbEntity
  8
0
  6
Continuous
 62
     7
370
    15
100
AcDbLine
 10
425.8978673613118
 20
1268.402542674972
 30
0.0
 11
425.8978673613118
 21
1270.036796795262
 31
0.0
  0
ELLIPSE
  5
8BE2
330
1F
100
AcDbEntity
  8
0
  6
Continuous
 62
     7
370
    15
100
AcDbEllipse
 10
425.8978667341574
 20
1272.10659433032
 30
0.0
 11
-2.138535324312727
 21
-3.704051835490444
 31
0.0000000000000009
210
0.0000000000000001
220
0.0000000000000002
230
0.9999999999999998
 40
0.6546536707079726
 41
0.3613671239067098
 42
0.7227342478134169
  0
LINE
  5
8BE3
330
1F
100
AcDbEntity
  8
0
  6
Continuous
 62
     7
370
    15
100
AcDbLine
 10
423.8655352389859
 20
1268.146795908047
 30
0.0
 11
424.7547713464545
 21
1268.146795908047
 31
0.0
  0
LINE
  5
8BE4
330
1F
100
AcDbEntity
  8
0
  6
Continuous
 62
     7
370
    15
100
AcDbLine
 10
424.4660967385815
 20
1267.646795826091
 30
0.0
 11
424.7547713464545
 21
1268.146795908047
 31
0.0
  0
LINE
  5
8BE5
330
1F
100
AcDbEntity
  8
0
  6
Continuous
 62
     7
370
    15
100
AcDbLine
 10
424.4660967385815
 20
1267.646795826091
 30
0.0
 11
424.1542098468588
 21
1267.646795826091
 31
0.0
  0
ELLIPSE
  5
8BE6
330
1F
100
AcDbEntity
  8
0
  6
Continuous
 62
     7
370
    15
100
AcDbEllipse
 10
425.8978667341574
 20
1272.10659433032
 30
0.0
 11
-0.6651224737236417
 21
3.952025917745203
 31
0.0
210
0.0
220
0.0
230
1.0
 40
0.3728246932727001
 41
2.717561614099047
 42
3.078928738005747
  0
LINE
  5
8BE7
330
1F
100
AcDbEntity
  8
0
  6
Continuous
 62
     7
370
    15
100
AcDbLine
 10
426.4694144374178
 20
1268.146795908047
 30
0.0
 11
426.1807398295449
 21
1267.646795826091
 31
0.0
  0
LINE
  5
8BE8
330
1F
100
AcDbEntity
  8
0
  6
Continuous
 62
     7
370
    15
100
AcDbLine
 10
426.1807398295449
 20
1267.646795826091
 30
0.0
 11
424.4660967385815
 21
1267.646795826091
 31
0.0
  0
LINE
  5
8BE9
330
1F
100
AcDbEntity
  8
0
  6
Continuous
 62
     7
370
    15
100
AcDbLine
 10
427.1010038799094
 20
1270.036796795262
 30
0.0
 11
425.960154215102
 21
1270.036796795262
 31
0.0
  0
LINE
  5
8BEA
330
1F
100
AcDbEntity
  8
0
  6
Continuous
 62
     7
370
    15
100
AcDbLine
 10
427.4855804985808
 20
1268.402542674972
 30
0.0
 11
427.4855804985808
 21
1269.72681632085
 31
0.0
  0
ELLIPSE
  5
8BEB
330
1F
100
AcDbEntity
  8
0
  6
Continuous
 62
     7
370
    15
100
AcDbEllipse
 10
427.4855799744288
 20
1272.10659433032
 30
0.0
 11
0.6651224737236421
 21
3.952025917745203
 31
0.0
210
0.0
220
0.0
230
1.0
 40
0.3728246932726908
 41
3.204256569173878
 42
3.56562369308058
  0
LINE
  5
8BEC
330
1F
100
AcDbEntity
  8
0
  6
Continuous
 62
     7
370
    15
100
AcDbLine
 10
426.4694144374178
 20
1268.146795908047
 30
0.0
 11
426.9140315598296
 21
1268.146795908047
 31
0.0
  0
LINE
  5
8BED
330
1F
100
AcDbEntity
  8
0
  6
Continuous
 62
     7
370
    15
100
AcDbLine
 10
421.7062750256108
 20
1268.146795908047
 30
0.0
 11
422.1508921480225
 21
1268.146795908047
 31
0.0
  0
ELLIPSE
  5
8BEE
330
1F
100
AcDbEntity
  8
0
  6
Continuous
 62
     7
370
    15
100
AcDbEllipse
 10
421.1347270133429
 20
1272.10659433032
 30
0.0
 11
-0.6651224737236417
 21
3.952025917745203
 31
0.0
210
0.0
220
0.0
230
1.0
 40
0.3728246932727001
 41
2.717561614099047
 42
3.078928738005747
  0
LINE
  5
8BEF
330
1F
100
AcDbEntity
  8
0
  6
Continuous
 62
     7
370
    15
100
AcDbLine
 10
421.1347260868596
 20
1268.402542674972
 30
0.0
 11
421.1347260868596
 21
1270.036796795262
 31
0.0
  0
LINE
  5
8BF0
330
1F
100
AcDbEntity
  8
0
  6
Continuous
 62
     7
370
    15
100
AcDbLine
 10
449.1542102193879
 20
1267.646795826091
 30
0.0
 11
447.4395671284245
 21
1267.646795826091
 31
0.0
  0
LINE
  5
8BF1
330
1F
100
AcDbEntity
  8
0
  6
Continuous
 62
     7
370
    15
100
AcDbLine
 10
447.4395671284245
 20
1267.646795826091
 30
0.0
 11
447.1508943831967
 21
1268.146795908047
 31
0.0
  0
ELLIPSE
  5
8BF2
330
1F
100
AcDbEntity
  8
0
  6
Continuous
 62
     7
370
    15
100
AcDbEllipse
 10
447.7224402536143
 20
1272.10659433032
 30
0.0
 11
0.6651224737236137
 21
3.952025917745203
 31
0.0
210
0.0
220
0.0
230
1.0
 40
0.3728246932726924
 41
3.20425656917386
 42
3.565623693080562
  0
LINE
  5
8BF3
330
1F
100
AcDbEntity
  8
0
  6
Continuous
 62
     7
370
    15
100
AcDbLine
 10
447.6601527428673
 20
1270.036796795262
 30
0.0
 11
446.5193012154148
 21
1270.036796795262
 31
0.0
  0
LINE
  5
8BF4
330
1F
100
AcDbEntity
  8
0
  6
Continuous
 62
     7
370
    15
100
AcDbLine
 10
446.7062735354947
 20
1268.146795908047
 30
0.0
 11
447.1508943831967
 21
1268.146795908047
 31
0.0
  0
ELLIPSE
  5
8BF5
330
1F
100
AcDbEntity
  8
0
  6
Continuous
 62
     7
370
    15
100
AcDbEllipse
 10
446.1347270133429
 20
1272.10659433032
 30
0.0
 11
-0.6651224737235846
 21
3.952025917745203
 31
0.0
210
0.0
220
0.0
230
0.9999999999999998
 40
0.3728246932726859
 41
2.717561614099064
 42
3.078928738005781
  0
LINE
  5
8BF6
330
1F
100
AcDbEntity
  8
0
  6
Continuous
 62
     7
370
    15
100
AcDbLine
 10
446.1347283220337
 20
1268.402542674972
 30
0.0
 11
446.1347283220337
 21
1269.72681632085
 31
0.0
  0
LINE
  5
8BF7
330
1F
100
AcDbEntity
  8
0
  6
Continuous
 62
     7
370
    15
100
AcDbLine
 10
451.3366827166127
 20
1267.646795826091
 30
0.0
 11
451.9140319323586
 21
1268.146795908047
 31
0.0
  0
LINE
  5
8BF8
330
1F
100
AcDbEntity
  8
0
  6
Continuous
 62
     7
370
    15
100
AcDbLine
 10
451.3366827166127
 20
1267.646795826091
 30
0.0
 11
451.1807383394287
 21
1267.646795826091
 31
0.0
  0
LINE
  5
8BF9
330
1F
100
AcDbEntity
  8
0
  6
Continuous
 62
     7
370
    15
100
AcDbLine
 10
426.3366823440836
 20
1267.646795826091
 30
0.0
 11
426.9140315598296
 21
1268.146795908047
 31
0.0
  0
LINE
  5
8BFA
330
1F
100
AcDbEntity
  8
0
  6
Continuous
 62
     7
370
    15
100
AcDbLine
 10
426.3366823440836
 20
1267.646795826091
 30
0.0
 11
426.1807398295449
 21
1267.646795826091
 31
0.0
  0
LINE
  5
8BFB
330
1F
100
AcDbEntity
  8
0
  6
Continuous
 62
     7
370
    15
100
AcDbLine
 10
421.7062750256108
 20
1268.146795908047
 30
0.0
 11
422.2836242413567
 21
1267.646795826091
 31
0.0
  0
LINE
  5
8BFC
330
1F
100
AcDbEntity
  8
0
  6
Continuous
 62
     7
370
    15
100
AcDbLine
 10
422.4395686185406
 20
1267.646795826091
 30
0.0
 11
422.2836242413567
 21
1267.646795826091
 31
0.0
  0
LINE
  5
8BFD
330
1F
100
AcDbEntity
  8
0
  6
Continuous
 62
     7
370
    15
100
AcDbLine
 10
446.7062735354947
 20
1268.146795908047
 30
0.0
 11
447.2836264765309
 21
1267.646795826091
 31
0.0
  0
LINE
  5
8BFE
330
1F
100
AcDbEntity
  8
0
  6
Continuous
 62
     7
370
    15
100
AcDbLine
 10
447.4395671284245
 20
1267.646795826091
 30
0.0
 11
447.2836264765309
 21
1267.646795826091
 31
0.0
  0
LINE
  5
8BFF
330
1F
100
AcDbEntity
  8
0
  6
Continuous
 62
     7
370
    15
100
AcDbLine
 10
447.8101552820252
 20
1264.636796655191
 30
0.0
 11
450.8101539111184
 21
1264.636796655191
 31
0.0
  0
LINE
  5
8C00
330
1F
100
AcDbEntity
  8
0
  6
Continuous
 62
     7
370
    15
100
AcDbLine
 10
450.6101542508648
 20
1264.436796994938
 30
0.0
 11
448.0101549422787
 21
1264.436796994938
 31
0.0
  0
LINE
  5
8C01
330
1F
100
AcDbEntity
  8
0
  6
Continuous
 62
     7
370
    15
100
AcDbLine
 10
422.810153046851
 20
1264.636796655191
 30
0.0
 11
425.8101535385893
 21
1264.636796655191
 31
0.0
  0
LINE
  5
8C02
330
1F
100
AcDbEntity
  8
0
  6
Continuous
 62
     7
370
    15
100
AcDbLine
 10
450.8101539111184
 20
1283.036796350439
 30
0.0
 11
447.8101552820252
 21
1283.036796350439
 31
0.0
  0
LINE
  5
8C03
330
1F
100
AcDbEntity
  8
0
  6
Continuous
 62
     7
370
    15
100
AcDbLine
 10
449.3101545965718
 20
1283.236796356301
 30
0.0
 11
450.6101542508648
 21
1283.236796356301
 31
0.0
  0
LINE
  5
8C04
330
1F
100
AcDbEntity
  8
0
  6
Continuous
 62
     7
370
    15
100
AcDbLine
 10
448.0101549422787
 20
1283.236796356301
 30
0.0
 11
449.3101545965718
 21
1283.236796356301
 31
0.0
  0
LINE
  5
8C05
330
1F
100
AcDbEntity
  8
0
  6
Continuous
 62
     7
370
    15
100
AcDbLine
 10
424.3101542240427
 20
1264.436796994938
 30
0.0
 11
423.0101527071045
 21
1264.436796994938
 31
0.0
  0
LINE
  5
8C06
330
1F
100
AcDbEntity
  8
0
  6
Continuous
 62
     7
370
    15
100
AcDbLine
 10
425.6101538783358
 20
1264.436796994938
 30
0.0
 11
424.3101542240427
 21
1264.436796994938
 31
0.0
  0
LINE
  5
8C07
330
1F
100
AcDbEntity
  8
0
  6
Continuous
 62
     7
370
    15
100
AcDbLine
 10
451.6129204428242
 20
1267.646795826091
 30
0.0
 11
451.3366827166127
 21
1267.646795826091
 31
0.0
  0
LINE
  5
8C08
330
1F
100
AcDbEntity
  8
0
  6
Continuous
 62
     7
370
    15
100
AcDbLine
 10
426.6129200702952
 20
1267.646795826091
 30
0.0
 11
426.3366823440836
 21
1267.646795826091
 31
0.0
  0
LINE
  5
8C09
330
1F
100
AcDbEntity
  8
0
  6
Continuous
 62
     7
370
    15
100
AcDbLine
 10
422.2836242413567
 20
1267.646795826091
 30
0.0
 11
422.0073883777903
 21
1267.646795826091
 31
0.0
  0
LINE
  5
8C0A
330
1F
100
AcDbEntity
  8
0
  6
Continuous
 62
     7
370
    15
100
AcDbLine
 10
447.2836264765309
 20
1267.646795826091
 30
0.0
 11
447.0073887503193
 21
1267.646795826091
 31
0.0
  0
LINE
  5
8C0B
330
1F
100
AcDbEntity
  8
0
  6
Continuous
 62
     7
370
    15
100
AcDbLine
 10
441.9601531124161
 20
1270.036796795262
 30
0.0
 11
443.0346236920403
 21
1270.036796795262
 31
0.0
  0
LINE
  5
8C0C
330
1F
100
AcDbEntity
  8
0
  6
Continuous
 62
     7
370
    15
100
AcDbLine
 10
430.5856814032839
 20
1270.036796795262
 30
0.0
 11
431.6601538455532
 21
1270.036796795262
 31
0.0
  0
ARC
  5
8C0D
330
1F
100
AcDbEntity
  8
0
  6
Continuous
 62
     7
370
    15
100
AcDbCircle
 10
436.8101534938859
 20
1285.736796355675
 30
0.0
 40
6.799999999999996
100
AcDbArc
 50
337.6082270186195
 51
22.39177298138043
  0
ARC
  5
8C0E
330
1F
100
AcDbEntity
  8
0
  6
Continuous
 62
     7
370
    15
100
AcDbCircle
 10
436.8101534938859
 20
1285.736796355675
 30
0.0
 40
7.000000000000028
100
AcDbArc
 50
336.7696589975608
 51
0.0
  0
ARC
  5
8C0F
330
1F
100
AcDbEntity
  8
0
  6
Continuous
 62
     7
370
    15
100
AcDbCircle
 10
436.8101534938859
 20
1285.736796355675
 30
0.0
 40
7.000000000000028
100
AcDbArc
 50
0.0
 51
23.23034100243916
  0
ARC
  5
8C10
330
1F
100
AcDbEntity
  8
0
  6
Continuous
 62
     7
370
    15
100
AcDbCircle
 10
419.3101534938859
 20
1288.736796355675
 30
0.0
 40
3.75
100
AcDbArc
 50
352.3377443392348
 51
270.0
  0
ARC
  5
8C11
330
1F
100
AcDbEntity
  8
0
  6
Continuous
 62
     7
370
    15
100
AcDbCircle
 10
419.3101534938859
 20
1288.736796355675
 30
0.0
 40
3.75
100
AcDbArc
 50
270.0
 51
331.6423634236761
  0
CIRCLE
  5
8C12
330
1F
100
AcDbEntity
  8
0
  6
Continuous
 62
     7
370
    15
100
AcDbCircle
 10
454.310153493886
 20
1288.736796355675
 30
0.0
 40
3.75
  0
LINE
  5
8C13
330
1F
100
AcDbEntity
  8
0
  6
Continuous
 62
     7
370
    15
100
AcDbLine
 10
421.0101542419241
 20
1270.036796795262
 30
0.0
 11
412.8101532703684
 21
1270.036796795262
 31
0.0
  0
LINE
  5
8C14
330
1F
100
AcDbEntity
  8
0
  6
Continuous
 62
     7
370
    15
100
AcDbLine
 10
412.8101532703684
 20
1292.936796078516
 30
0.0
 11
412.8101532703684
 21
1270.036796795262
 31
0.0
  0
LINE
  5
8C15
330
1F
100
AcDbEntity
  8
0
  6
Continuous
 62
     7
370
    15
100
AcDbLine
 10
460.8101518249558
 20
1292.936796078516
 30
0.0
 11
443.2688662207173
 21
1292.936796078516
 31
0.0
  0
LINE
  5
8C16
330
1F
100
AcDbEntity
  8
0
  6
Continuous
 62
     7
370
    15
100
AcDbLine
 10
433.5101534968661
 20
1292.936796078516
 30
0.0
 11
412.8101532703684
 21
1292.936796078516
 31
0.0
  0
LINE
  5
8C17
330
1F
100
AcDbEntity
  8
0
  6
Continuous
 62
     7
370
    15
100
AcDbLine
 10
460.8101518249558
 20
1292.936796078516
 30
0.0
 11
460.8101518249558
 21
1270.036796795262
 31
0.0
  0
LINE
  5
8C18
330
1F
100
AcDbEntity
  8
0
  6
Continuous
 62
     7
370
    15
100
AcDbLine
 10
460.8101518249558
 20
1270.036796795262
 30
0.0
 11
452.6101545786904
 21
1270.036796795262
 31
0.0
  0
LINE
  5
8C19
330
1F
100
AcDbEntity
  8
0
  6
Continuous
 62
     7
370
    15
100
AcDbLine
 10
460.8101518249558
 20
1293.236796500219
 30
0.0
 11
442.9932990467595
 21
1293.236796500219
 31
0.0
  0
LINE
  5
8C1A
330
1F
100
AcDbEntity
  8
0
  6
Continuous
 62
     7
370
    15
100
AcDbLine
 10
433.8101529872464
 20
1293.236796500219
 30
0.0
 11
412.8101532703684
 21
1293.236796500219
 31
0.0
  0
LINE
  5
8C1B
330
1F
100
AcDbEntity
  8
0
  6
Continuous
 62
     7
370
    15
100
AcDbLine
 10
460.8101518249558
 20
1293.236796500219
 30
0.0
 11
460.8101518249558
 21
1292.936796078516
 31
0.0
  0
LINE
  5
8C1C
330
1F
100
AcDbEntity
  8
0
  6
Continuous
 62
     7
370
    15
100
AcDbLine
 10
412.8101532703684
 20
1293.236796500219
 30
0.0
 11
412.8101532703684
 21
1292.936796078516
 31
0.0
  0
LINE
  5
8C1D
330
1F
100
AcDbEntity
  8
0
  6
Continuous
 62
     7
370
    15
100
AcDbLine
 10
460.8101518249558
 20
1269.736796373559
 30
0.0
 11
452.4855808711098
 21
1269.736796373559
 31
0.0
  0
LINE
  5
8C1E
330
1F
100
AcDbEntity
  8
0
  6
Continuous
 62
     7
370
    15
100
AcDbLine
 10
443.4675806558178
 20
1269.736796373559
 30
0.0
 11
430.1527263021515
 21
1269.736796373559
 31
0.0
  0
LINE
  5
8C1F
330
1F
100
AcDbEntity
  8
0
  6
Continuous
 62
     7
370
    15
100
AcDbLine
 10
421.1347260868596
 20
1269.736796373559
 30
0.0
 11
412.8101532703684
 21
1269.736796373559
 31
0.0
  0
LINE
  5
8C20
330
1F
100
AcDbEntity
  8
0
  6
Continuous
 62
     7
370
    15
100
AcDbLine
 10
460.8101518249558
 20
1270.036796795262
 30
0.0
 11
460.8101518249558
 21
1269.736796373559
 31
0.0
  0
LINE
  5
8C21
330
1F
100
AcDbEntity
  8
0
  6
Continuous
 62
     7
370
    15
100
AcDbLine
 10
412.8101532703684
 20
1270.036796795262
 30
0.0
 11
412.8101532703684
 21
1269.736796373559
 31
0.0
  0
CIRCLE
  5
8C22
330
1F
100
AcDbEntity
  8
0
  6
Continuous
 62
     7
370
    15
100
AcDbCircle
 10
454.310153493886
 20
1288.736796355675
 30
0.0
 40
2.099999999999994
  0
CIRCLE
  5
8C23
330
1F
100
AcDbEntity
  8
0
  6
Continuous
 62
     7
370
    15
100
AcDbCircle
 10
419.3101534938859
 20
1288.736796355675
 30
0.0
 40
2.099999999999994
  0
LINE
  5
8C24
330
1F
100
AcDbEntity
  8
0
  6
Continuous
 62
     7
370
    15
100
AcDbLine
 10
460.8101518249558
 20
1274.036796519591
 30
0.0
 11
460.8101518249558
 21
1270.46710228367
 31
0.0
  0
LINE
  5
8C25
330
1F
100
AcDbEntity
  8
0
  6
Continuous
 62
     7
370
    15
100
AcDbLine
 10
412.8101532703684
 20
1274.036796519591
 30
0.0
 11
412.8101532703684
 21
1270.46710228367
 31
0.0
  0
LINE
  5
8C26
330
1F
100
AcDbEntity
  8
0
  6
Continuous
 62
     7
370
    15
100
AcDbLine
 10
460.8101518249558
 20
1270.46710228367
 30
0.0
 11
460.8101518249558
 21
1269.736796373559
 31
0.0
  0
LINE
  5
8C27
330
1F
100
AcDbEntity
  8
0
  6
Continuous
 62
     7
370
    15
100
AcDbLine
 10
412.8101532703684
 20
1270.46710228367
 30
0.0
 11
412.8101532703684
 21
1269.736796373559
 31
0.0
  0
LINE
  5
8C28
330
1F
100
AcDbEntity
  8
0
  6
Continuous
 62
     7
370
    15
100
AcDbLine
 10
442.2601544654416
 20
1277.986796328856
 30
0.0
 11
442.2601544654416
 21
1283.486796357261
 31
0.0
  0
LINE
  5
8C29
330
1F
100
AcDbEntity
  8
0
  6
Continuous
 62
     7
370
    15
100
AcDbLine
 10
442.2601544654416
 20
1287.986796571
 30
0.0
 11
442.2601544654416
 21
1293.486796075536
 31
0.0
  0
SPLINE
  5
8C2A
330
1F
100
AcDbEntity
  8
0
  6
Continuous
 62
     7
370
    15
100
AcDbSpline
210
0.0
220
0.0
230
1.0
 70
    24
 71
     1
 72
     4
 73
     2
 74
     0
 42
0.0000000001
 43
0.0000000001
 40
0.0
 40
0.0
 40
1.0
 40
1.0
 10
442.060154805188
 20
1214.672963476156
 30
0.0
 10
442.060154805188
 20
1214.222963309263
 30
0.0
  0
ARC
  5
8C2B
330
1F
100
AcDbEntity
  8
0
  6
Continuous
 62
     7
370
    15
100
AcDbCircle
 10
446.3601534938859
 20
1214.672963249069
 30
0.0
 40
1.199999999999995
100
AcDbArc
 50
60.96572115129967
 51
90.0
  0
ARC
  5
8C2C
330
1F
100
AcDbEntity
  8
0
  6
Continuous
 62
     7
370
    15
100
AcDbCircle
 10
443.260153493886
 20
1214.672963249069
 30
0.0
 40
1.199999999999988
100
AcDbArc
 50
90.0
 51
180.0
  0
SPLINE
  5
8C2D
330
1F
100
AcDbEntity
  8
0
  6
Continuous
 62
     7
370
    15
100
AcDbSpline
210
0.0
220
0.0
230
1.0
 70
    24
 71
     1
 72
     4
 73
     2
 74
     0
 42
0.0000000001
 43
0.0000000001
 40
0.0
 40
0.0
 40
1.0
 40
1.0
 10
431.5601540154265
 20
1214.222963309263
 30
0.0
 10
431.5601540154265
 20
1214.672963476156
 30
0.0
  0
ARC
  5
8C2E
330
1F
100
AcDbEntity
  8
0
  6
Continuous
 62
     7
370
    15
100
AcDbCircle
 10
427.260153493886
 20
1214.672963249069
 30
0.0
 40
1.199999999999988
100
AcDbArc
 50
90.0
 51
119.0342788487003
  0
ARC
  5
8C2F
330
1F
100
AcDbEntity
  8
0
  6
Continuous
 62
     7
370
    15
100
AcDbCircle
 10
430.3601534938859
 20
1214.672963249069
 30
0.0
 40
1.199999999999988
100
AcDbArc
 50
0.0
 51
90.0
  0
SPLINE
  5
8C30
330
1F
100
AcDbEntity
  8
0
  6
Continuous
 62
     7
370
    15
100
AcDbSpline
210
0.0
220
0.0
230
1.0
 70
    24
 71
     1
 72
     4
 73
     2
 74
     0
 42
0.0000000001
 43
0.0000000001
 40
0.0
 40
0.0
 40
1.0
 40
1.0
 10
442.2601544654416
 20
1218.972963622187
 30
0.0
 10
441.8101542985485
 20
1218.972963622187
 30
0.0
  0
ARC
  5
8C31
330
1F
100
AcDbEntity
  8
0
  6
Continuous
 62
     7
370
    15
100
AcDbCircle
 10
442.260153493886
 20
1217.772963249069
 30
0.0
 40
1.199999999999995
100
AcDbArc
 50
2.388015463266324
 51
90.0
  0
SPLINE
  5
8C32
330
1F
100
AcDbEntity
  8
0
  6
Continuous
 62
     7
370
    15
100
AcDbSpline
210
0.0
220
0.0
230
1.0
 70
    24
 71
     1
 72
     4
 73
     2
 74
     0
 42
0.0000000001
 43
0.0000000001
 40
0.0
 40
0.0
 40
1.0
 40
1.0
 10
433.5601549691008
 20
1226.522962903951
 30
0.0
 10
433.5601549691008
 20
1219.222963197504
 30
0.0
  0
SPLINE
  5
8C33
330
1F
100
AcDbEntity
  8
0
  6
Continuous
 62
     7
370
    15
100
AcDbSpline
210
0.0
220
0.0
230
1.0
 70
    24
 71
     1
 72
     4
 73
     2
 74
     0
 42
0.0000000001
 43
0.0000000001
 40
0.0
 40
0.0
 40
1.0
 40
1.0
 10
433.7601546293543
 20
1226.722962564205
 30
0.0
 10
433.5601549691008
 20
1226.522962903951
 30
0.0
  0
LINE
  5
8C34
330
1F
100
AcDbEntity
  8
0
  6
Continuous
 62
     7
370
    15
100
AcDbLine
 10
443.0346236920403
 20
1214.222963309263
 30
0.0
 11
446.1924628710793
 21
1214.222963309263
 31
0.0
  0
LINE
  5
8C35
330
1F
100
AcDbEntity
  8
0
  6
Continuous
 62
     7
370
    15
100
AcDbLine
 10
443.2601527667092
 20
1215.872963300322
 30
0.0
 11
446.3601530885743
 21
1215.872963300322
 31
0.0
  0
LINE
  5
8C36
330
1F
100
AcDbEntity
  8
0
  6
Continuous
 62
     7
370
    15
100
AcDbLine
 10
428.8101540303276
 20
1214.222963309263
 30
0.0
 11
430.5856814032839
 21
1214.222963309263
 31
0.0
  0
LINE
  5
8C37
330
1F
100
AcDbEntity
  8
0
  6
Continuous
 62
     7
370
    15
100
AcDbLine
 10
427.4278440868901
 20
1214.222963309263
 30
0.0
 11
428.8101540303276
 21
1214.222963309263
 31
0.0
  0
LINE
  5
8C38
330
1F
100
AcDbEntity
  8
0
  6
Continuous
 62
     7
370
    15
100
AcDbLine
 10
428.8101540303276
 20
1215.872963300322
 30
0.0
 11
430.3601541912602
 21
1215.872963300322
 31
0.0
  0
LINE
  5
8C39
330
1F
100
AcDbEntity
  8
0
  6
Continuous
 62
     7
370
    15
100
AcDbLine
 10
427.2601538693951
 20
1215.872963300322
 30
0.0
 11
428.8101540303276
 21
1215.872963300322
 31
0.0
  0
CIRCLE
  5
8C3A
330
1F
100
AcDbEntity
  8
0
  6
Continuous
 62
     7
370
    15
100
AcDbCircle
 10
424.3101534938859
 20
1214.322963249069
 30
0.0
 40
1.300000000000011
  0
CIRCLE
  5
8C3B
330
1F
100
AcDbEntity
  8
0
  6
Continuous
 62
     7
370
    15
100
AcDbCircle
 10
424.3101534938859
 20
1214.322963249069
 30
0.0
 40
1.500000000000028
  0
CIRCLE
  5
8C3C
330
1F
100
AcDbEntity
  8
0
  6
Continuous
 62
     7
370
    15
100
AcDbCircle
 10
449.3101534938859
 20
1214.322963249069
 30
0.0
 40
1.300000000000068
  0
CIRCLE
  5
8C3D
330
1F
100
AcDbEntity
  8
0
  6
Continuous
 62
     7
370
    15
100
AcDbCircle
 10
449.3101534938859
 20
1214.322963249069
 30
0.0
 40
1.5
  0
ELLIPSE
  5
8C3E
330
1F
100
AcDbEntity
  8
0
  6
Continuous
 62
     7
370
    15
100
AcDbEllipse
 10
447.3358488520438
 20
1214.322963249069
 30
0.0
 11
4.277070648625482
 21
-0.0000000000000003
 31
0.0
210
0.0
220
0.0000000000000038
230
1.0
 40
0.6546536707079617
 41
5.921818183272886
 42
6.644552431086307
  0
LINE
  5
8C3F
330
1F
100
AcDbEntity
  8
0
  6
Continuous
 62
     7
370
    15
100
AcDbLine
 10
451.1807383394287
 20
1213.062912566935
 30
0.0
 11
451.3366827166127
 21
1213.333013808702
 31
0.0
  0
ELLIPSE
  5
8C40
330
1F
100
AcDbEntity
  8
0
  6
Continuous
 62
     7
370
    15
100
AcDbEllipse
 10
448.3230011729648
 20
1216.032761223713
 30
0.0
 11
2.138535324312753
 21
-3.70405183549036
 31
0.0000000000000124
210
0.0000000000000002
220
0.0000000000000035
230
1.0
 40
0.654653670707985
 41
5.921818183272891
 42
6.644552431086305
  0
LINE
  5
8C41
330
1F
100
AcDbEntity
  8
0
  6
Continuous
 62
     7
370
    15
100
AcDbLine
 10
449.1542102193879
 20
1212.072963236247
 30
0.0
 11
449.4660952484654
 21
1212.072963236247
 31
0.0
  0
ELLIPSE
  5
8C42
330
1F
100
AcDbEntity
  8
0
  6
Continuous
 62
     7
370
    15
100
AcDbEllipse
 10
450.2973058148069
 20
1216.032761223713
 30
0.0
 11
-2.138535324312698
 21
-3.704051835490361
 31
0.0000000000000124
210
-0.0000000000000002
220
0.0000000000000035
230
1.0
 40
0.6546536707079883
 41
5.921818183272899
 42
6.64455243108631
  0
LINE
  5
8C43
330
1F
100
AcDbEntity
  8
0
  6
Continuous
 62
     7
370
    15
100
AcDbLine
 10
447.2836264765309
 20
1213.333013808702
 30
0.0
 11
447.4395671284245
 21
1213.062912566935
 31
0.0
  0
ELLIPSE
  5
8C44
330
1F
100
AcDbEntity
  8
0
  6
Continuous
 62
     7
370
    15
100
AcDbEllipse
 10
451.2844581357277
 20
1214.322963249069
 30
0.0
 11
4.277070648625453
 21
-0.0000000000000003
 31
0.0
210
0.0
220
0.0000000000000038
230
1.0
 40
0.6546536707079794
 41
2.780225529683098
 42
3.502959777496528
  0
LINE
  5
8C45
330
1F
100
AcDbEntity
  8
0
  6
Continuous
 62
     7
370
    15
100
AcDbLine
 10
447.4395671284245
 20
1215.583013711845
 30
0.0
 11
447.2836264765309
 21
1215.312912470077
 31
0.0
  0
ELLIPSE
  5
8C46
330
1F
100
AcDbEntity
  8
0
  6
Continuous
 62
     7
370
    15
100
AcDbEllipse
 10
450.2973058148069
 20
1212.613165274424
 30
0.0
 11
2.138535324312755
 21
-3.704051835490418
 31
0.0000000000000124
210
0.0000000000000002
220
0.0000000000000035
230
1.0
 40
0.654653670707983
 41
2.780225529683082
 42
3.502959777496501
  0
LINE
  5
8C47
330
1F
100
AcDbEntity
  8
0
  6
Continuous
 62
     7
370
    15
100
AcDbLine
 10
449.4660952484654
 20
1216.572963042532
 30
0.0
 11
449.1542102193879
 21
1216.572963042532
 31
0.0
  0
ELLIPSE
  5
8C48
330
1F
100
AcDbEntity
  8
0
  6
Continuous
 62
     7
370
    15
100
AcDbEllipse
 10
448.3230011729648
 20
1212.613165274424
 30
0.0
 11
-2.138535324312726
 21
-3.704051835490418
 31
0.0000000000000124
210
-0.0000000000000002
220
0.0000000000000035
230
1.0
 40
0.6546536707079729
 41
2.780225529683097
 42
3.50295977749652
  0
LINE
  5
8C49
330
1F
100
AcDbEntity
  8
0
  6
Continuous
 62
     7
370
    15
100
AcDbLine
 10
451.3366827166127
 20
1215.312912470077
 30
0.0
 11
451.1807383394287
 21
1215.583013711845
 31
0.0
  0
ELLIPSE
  5
8C4A
330
1F
100
AcDbEntity
  8
0
  6
Continuous
 62
     7
370
    15
100
AcDbEllipse
 10
422.335848852044
 20
1214.322963249069
 30
0.0
 11
4.277070648625425
 21
-0.0000000000000003
 31
0.0
210
0.0
220
0.0000000000000038
230
1.0
 40
0.6546536707079703
 41
5.921818183272885
 42
6.644552431086307
  0
LINE
  5
8C4B
330
1F
100
AcDbEntity
  8
0
  6
Continuous
 62
     7
370
    15
100
AcDbLine
 10
426.1807398295449
 20
1213.062912566935
 30
0.0
 11
426.3366823440836
 21
1213.333013808702
 31
0.0
  0
ELLIPSE
  5
8C4C
330
1F
100
AcDbEntity
  8
0
  6
Continuous
 62
     7
370
    15
100
AcDbEllipse
 10
423.3230011729648
 20
1216.032761223713
 30
0.0
 11
2.138535324312726
 21
-3.704051835490418
 31
0.0000000000000124
210
0.0000000000000002
220
0.0000000000000035
230
1.0
 40
0.6546536707079796
 41
5.921818183272892
 42
6.644552431086325
  0
LINE
  5
8C4D
330
1F
100
AcDbEntity
  8
0
  6
Continuous
 62
     7
370
    15
100
AcDbLine
 10
424.1542098468588
 20
1212.072963236247
 30
0.0
 11
424.4660967385815
 21
1212.072963236247
 31
0.0
  0
ELLIPSE
  5
8C4E
330
1F
100
AcDbEntity
  8
0
  6
Continuous
 62
     7
370
    15
100
AcDbEllipse
 10
425.2973058148069
 20
1216.032761223713
 30
0.0
 11
-2.138535324312726
 21
-3.704051835490418
 31
0.0000000000000124
210
-0.0000000000000002
220
0.0000000000000035
230
1.0
 40
0.6546536707079853
 41
5.921818183272889
 42
6.644552431086315
  0
LINE
  5
8C4F
330
1F
100
AcDbEntity
  8
0
  6
Continuous
 62
     7
370
    15
100
AcDbLine
 10
422.2836242413567
 20
1213.333013808702
 30
0.0
 11
422.4395686185406
 21
1213.062912566935
 31
0.0
  0
ELLIPSE
  5
8C50
330
1F
100
AcDbEntity
  8
0
  6
Continuous
 62
     7
370
    15
100
AcDbEllipse
 10
426.2844581357277
 20
1214.322963249069
 30
0.0
 11
4.277070648625453
 21
-0.0000000000000003
 31
0.0
210
0.0
220
0.0000000000000038
230
1.0
 40
0.6546536707079794
 41
2.780225529683098
 42
3.502959777496525
  0
LINE
  5
8C51
330
1F
100
AcDbEntity
  8
0
  6
Continuous
 62
     7
370
    15
100
AcDbLine
 10
422.4395686185406
 20
1215.583013711845
 30
0.0
 11
422.2836242413567
 21
1215.312912470077
 31
0.0
  0
ELLIPSE
  5
8C52
330
1F
100
AcDbEntity
  8
0
  6
Continuous
 62
     7
370
    15
100
AcDbEllipse
 10
425.2973058148069
 20
1212.613165274424
 30
0.0
 11
2.138535324312726
 21
-3.704051835490418
 31
0.0000000000000124
210
0.0000000000000002
220
0.0000000000000035
230
1.0
 40
0.6546536707079853
 41
2.780225529683082
 42
3.502959777496494
  0
LINE
  5
8C53
330
1F
100
AcDbEntity
  8
0
  6
Continuous
 62
     7
370
    15
100
AcDbLine
 10
424.4660967385815
 20
1216.572963042532
 30
0.0
 11
424.1542098468588
 21
1216.572963042532
 31
0.0
  0
ELLIPSE
  5
8C54
330
1F
100
AcDbEntity
  8
0
  6
Continuous
 62
     7
370
    15
100
AcDbEllipse
 10
423.3230011729648
 20
1212.613165274424
 30
0.0
 11
-2.138535324312726
 21
-3.704051835490418
 31
0.0000000000000124
210
-0.0000000000000002
220
0.0000000000000035
230
1.0
 40
0.6546536707079729
 41
2.780225529683097
 42
3.502959777496529
  0
LINE
  5
8C55
330
1F
100
AcDbEntity
  8
0
  6
Continuous
 62
     7
370
    15
100
AcDbLine
 10
426.3366823440836
 20
1215.312912470077
 30
0.0
 11
426.1807398295449
 21
1215.583013711845
 31
0.0
  0
LINE
  5
8C56
330
1F
100
AcDbEntity
  8
0
  6
Continuous
 62
     7
370
    15
100
AcDbLine
 10
423.8655352389859
 20
1211.572963154291
 30
0.0
 11
422.7224410867737
 21
1211.572963154291
 31
0.0
  0
LWPOLYLINE
  5
8C57
330
1F
100
AcDbEntity
  8
0
  6
Continuous
 62
     7
370
    15
100
AcDbPolyline
 90
        4
 70
   128
 43
0.0
 10
422.7224410867737
 20
1211.572963154291
 10
422.5281839615153
 20
1211.909424389129
 10
422.3367431557225
 20
1212.241009218966
 10
422.1508921480225
 20
1212.56291295064
  0
LWPOLYLINE
  5
8C58
330
1F
100
AcDbEntity
  8
0
  6
Continuous
 62
     7
370
    15
100
AcDbPolyline
 90
        4
 70
   128
 43
0.0
 10
426.4694144374178
 20
1212.56291295064
 10
426.2835634297179
 20
1212.241009218966
 10
426.0921226239251
 20
1211.909424389129
 10
425.8978673613118
 20
1211.572963154291
  0
LINE
  5
8C59
330
1F
100
AcDbEntity
  8
0
  6
Continuous
 62
     7
370
    15
100
AcDbLine
 10
425.8978673613118
 20
1211.572963154291
 30
0.0
 11
424.7547713464545
 21
1211.572963154291
 31
0.0
  0
LINE
  5
8C5A
330
1F
100
AcDbEntity
  8
0
  6
Continuous
 62
     7
370
    15
100
AcDbLine
 10
424.7547713464545
 20
1211.572963154291
 30
0.0
 11
423.8655352389859
 21
1211.572963154291
 31
0.0
  0
LINE
  5
8C5B
330
1F
100
AcDbEntity
  8
0
  6
Continuous
 62
     7
370
    15
100
AcDbLine
 10
448.8655337488697
 20
1211.572963154291
 30
0.0
 11
447.7224395966576
 21
1211.572963154291
 31
0.0
  0
LWPOLYLINE
  5
8C5C
330
1F
100
AcDbEntity
  8
0
  6
Continuous
 62
     7
370
    15
100
AcDbPolyline
 90
        4
 70
   128
 43
0.0
 10
447.7224395966576
 20
1211.572963154291
 10
447.5281843340443
 20
1211.909424389129
 10
447.3367453908966
 20
1212.241009218966
 10
447.1508943831967
 20
1212.56291295064
  0
LINE
  5
8C5D
330
1F
100
AcDbEntity
  8
0
  6
Continuous
 62
     7
370
    15
100
AcDbLine
 10
449.7547717189835
 20
1211.572963154291
 30
0.0
 11
448.8655337488697
 21
1211.572963154291
 31
0.0
  0
LWPOLYLINE
  5
8C5E
330
1F
100
AcDbEntity
  8
0
  6
Continuous
 62
     7
370
    15
100
AcDbPolyline
 90
        4
 70
   128
 43
0.0
 10
451.4694148099469
 20
1212.56291295064
 10
451.2835638022469
 20
1212.241009218966
 10
451.0921211338089
 20
1211.909424389129
 10
450.8978658711956
 20
1211.572963154291
  0
LINE
  5
8C5F
330
1F
100
AcDbEntity
  8
0
  6
Continuous
 62
     7
370
    15
100
AcDbLine
 10
450.8978658711956
 20
1211.572963154291
 30
0.0
 11
449.7547717189835
 21
1211.572963154291
 31
0.0
  0
LWPOLYLINE
  5
8C60
330
1F
100
AcDbEntity
  8
0
  6
Continuous
 62
     7
370
    15
100
AcDbPolyline
 90
        4
 70
   128
 43
0.0
 10
446.1347283220337
 20
1214.32296313939
 10
446.328983584647
 20
1214.659424374227
 10
446.5204225277947
 20
1214.991009204064
 10
446.7062735354947
 20
1215.312912470077
  0
LWPOLYLINE
  5
8C61
330
1F
100
AcDbEntity
  8
0
  6
Continuous
 62
     7
370
    15
100
AcDbPolyline
 90
        4
 70
   128
 43
0.0
 10
446.7062735354947
 20
1213.333013808702
 10
446.5204225277947
 20
1213.654917540376
 10
446.328983584647
 20
1213.986502370213
 10
446.1347283220337
 20
1214.32296313939
  0
LINE
  5
8C62
330
1F
100
AcDbEntity
  8
0
  6
Continuous
 62
     7
370
    15
100
AcDbLine
 10
426.9140315598296
 20
1213.333013808702
 30
0.0
 11
426.4694144374178
 21
1212.56291295064
 31
0.0
  0
LINE
  5
8C63
330
1F
100
AcDbEntity
  8
0
  6
Continuous
 62
     7
370
    15
100
AcDbLine
 10
422.1508921480225
 20
1212.56291295064
 30
0.0
 11
421.7062750256108
 21
1213.333013808702
 31
0.0
  0
LINE
  5
8C64
330
1F
100
AcDbEntity
  8
0
  6
Continuous
 62
     7
370
    15
100
AcDbLine
 10
451.9140319323586
 20
1213.333013808702
 30
0.0
 11
451.4694148099469
 21
1212.56291295064
 31
0.0
  0
LWPOLYLINE
  5
8C65
330
1F
100
AcDbEntity
  8
0
  6
Continuous
 62
     7
370
    15
100
AcDbPolyline
 90
        4
 70
   128
 43
0.0
 10
426.9140315598296
 20
1215.312912470077
 10
427.0998825675295
 20
1214.991009204064
 10
427.2913233733223
 20
1214.659424374227
 10
427.4855804985808
 20
1214.32296313939
  0
LWPOLYLINE
  5
8C66
330
1F
100
AcDbEntity
  8
0
  6
Continuous
 62
     7
370
    15
100
AcDbPolyline
 90
        4
 70
   128
 43
0.0
 10
427.4855804985808
 20
1214.32296313939
 10
427.2913233733223
 20
1213.986502370213
 10
427.0998825675295
 20
1213.654917540376
 10
426.9140315598296
 20
1213.333013808702
  0
LINE
  5
8C67
330
1F
100
AcDbEntity
  8
0
  6
Continuous
 62
     7
370
    15
100
AcDbLine
 10
447.1508943831967
 20
1212.56291295064
 30
0.0
 11
446.7062735354947
 21
1213.333013808702
 31
0.0
  0
LWPOLYLINE
  5
8C68
330
1F
100
AcDbEntity
  8
0
  6
Continuous
 62
     7
370
    15
100
AcDbPolyline
 90
        4
 70
   128
 43
0.0
 10
421.1347260868596
 20
1214.32296313939
 10
421.328983212118
 20
1214.659424374227
 10
421.5204240179108
 20
1214.991009204064
 10
421.7062750256108
 20
1215.312912470077
  0
LWPOLYLINE
  5
8C69
330
1F
100
AcDbEntity
  8
0
  6
Continuous
 62
     7
370
    15
100
AcDbPolyline
 90
        4
 70
   128
 43
0.0
 10
421.7062750256108
 20
1213.333013808702
 10
421.5204240179108
 20
1213.654917540376
 10
421.328983212118
 20
1213.986502370213
 10
421.1347260868596
 20
1214.32296313939
  0
LWPOLYLINE
  5
8C6A
330
1F
100
AcDbEntity
  8
0
  6
Continuous
 62
     7
370
    15
100
AcDbPolyline
 90
        4
 70
   128
 43
0.0
 10
451.9140319323586
 20
1215.312912470077
 10
452.0998829400586
 20
1214.991009204064
 10
452.2913256084965
 20
1214.659424374227
 10
452.4855808711098
 20
1214.32296313939
  0
LWPOLYLINE
  5
8C6B
330
1F
100
AcDbEntity
  8
0
  6
Continuous
 62
     7
370
    15
100
AcDbPolyline
 90
        4
 70
   128
 43
0.0
 10
452.4855808711098
 20
1214.32296313939
 10
452.2913256084965
 20
1213.986502370213
 10
452.0998829400586
 20
1213.654917540376
 10
451.9140319323586
 20
1213.333013808702
  0
LINE
  5
8C6C
330
1F
100
AcDbEntity
  8
0
  6
Continuous
 62
     7
370
    15
100
AcDbLine
 10
446.7062735354947
 20
1215.312912470077
 30
0.0
 11
447.1508943831967
 21
1216.083013793801
 31
0.0
  0
LINE
  5
8C6D
330
1F
100
AcDbEntity
  8
0
  6
Continuous
 62
     7
370
    15
100
AcDbLine
 10
421.7062750256108
 20
1215.312912470077
 30
0.0
 11
422.1508921480225
 21
1216.083013793801
 31
0.0
  0
LINE
  5
8C6E
330
1F
100
AcDbEntity
  8
0
  6
Continuous
 62
     7
370
    15
100
AcDbLine
 10
451.4694148099469
 20
1216.083013793801
 30
0.0
 11
451.9140319323586
 21
1215.312912470077
 31
0.0
  0
LINE
  5
8C6F
330
1F
100
AcDbEntity
  8
0
  6
Continuous
 62
     7
370
    15
100
AcDbLine
 10
426.4694144374178
 20
1216.083013793801
 30
0.0
 11
426.9140315598296
 21
1215.312912470077
 31
0.0
  0
LWPOLYLINE
  5
8C70
330
1F
100
AcDbEntity
  8
0
  6
Continuous
 62
     7
370
    15
100
AcDbPolyline
 90
        4
 70
   128
 43
0.0
 10
425.8978673613118
 20
1217.072963124488
 10
426.0921226239251
 20
1216.736502355312
 10
426.2835634297179
 20
1216.404917059814
 10
426.4694144374178
 20
1216.083013793801
  0
LINE
  5
8C71
330
1F
100
AcDbEntity
  8
0
  6
Continuous
 62
     7
370
    15
100
AcDbLine
 10
424.7547713464545
 20
1217.072963124488
 30
0.0
 11
425.8978673613118
 21
1217.072963124488
 31
0.0
  0
LWPOLYLINE
  5
8C72
330
1F
100
AcDbEntity
  8
0
  6
Continuous
 62
     7
370
    15
100
AcDbPolyline
 90
        4
 70
   128
 43
0.0
 10
450.8978658711956
 20
1217.072963124488
 10
451.0921211338089
 20
1216.736502355312
 10
451.2835638022469
 20
1216.404917059814
 10
451.4694148099469
 20
1216.083013793801
  0
LINE
  5
8C73
330
1F
100
AcDbEntity
  8
0
  6
Continuous
 62
     7
370
    15
100
AcDbLine
 10
449.7547717189835
 20
1217.072963124488
 30
0.0
 11
450.8978658711956
 21
1217.072963124488
 31
0.0
  0
LINE
  5
8C74
330
1F
100
AcDbEntity
  8
0
  6
Continuous
 62
     7
370
    15
100
AcDbLine
 10
422.7224410867737
 20
1217.072963124488
 30
0.0
 11
423.8655352389859
 21
1217.072963124488
 31
0.0
  0
LWPOLYLINE
  5
8C75
330
1F
100
AcDbEntity
  8
0
  6
Continuous
 62
     7
370
    15
100
AcDbPolyline
 90
        4
 70
   128
 43
0.0
 10
422.1508921480225
 20
1216.083013793801
 10
422.3367431557225
 20
1216.404917059814
 10
422.5281839615153
 20
1216.736502355312
 10
422.7224410867737
 20
1217.072963124488
  0
LINE
  5
8C76
330
1F
100
AcDbEntity
  8
0
  6
Continuous
 62
     7
370
    15
100
AcDbLine
 10
447.7224395966576
 20
1217.072963124488
 30
0.0
 11
448.8655337488697
 21
1217.072963124488
 31
0.0
  0
LWPOLYLINE
  5
8C77
330
1F
100
AcDbEntity
  8
0
  6
Continuous
 62
     7
370
    15
100
AcDbPolyline
 90
        4
 70
   128
 43
0.0
 10
447.1508943831967
 20
1216.083013793801
 10
447.3367453908966
 20
1216.404917059814
 10
447.5281843340443
 20
1216.736502355312
 10
447.7224395966576
 20
1217.072963124488
  0
LINE
  5
8C78
330
1F
100
AcDbEntity
  8
0
  6
Continuous
 62
     7
370
    15
100
AcDbLine
 10
423.8655352389859
 20
1217.072963124488
 30
0.0
 11
424.7547713464545
 21
1217.072963124488
 31
0.0
  0
LINE
  5
8C79
330
1F
100
AcDbEntity
  8
0
  6
Continuous
 62
     7
370
    15
100
AcDbLine
 10
448.8655337488697
 20
1217.072963124488
 30
0.0
 11
449.7547717189835
 21
1217.072963124488
 31
0.0
  0
LINE
  5
8C7A
330
1F
100
AcDbEntity
  8
0
  6
Continuous
 62
     7
370
    15
100
AcDbLine
 10
460.8101518249558
 20
1195.022963328634
 30
0.0
 11
412.8101532703684
 21
1195.022963328634
 31
0.0
  0
LINE
  5
8C7B
330
1F
100
AcDbEntity
  8
0
  6
Continuous
 62
     7
370
    15
100
AcDbLine
 10
460.8101518249558
 20
1194.722962906932
 30
0.0
 11
412.8101532703684
 21
1194.722962906932
 31
0.0
  0
LINE
  5
8C7C
330
1F
100
AcDbEntity
  8
0
  6
Continuous
 62
     7
370
    15
100
AcDbLine
 10
460.8101518249558
 20
1195.022963328634
 30
0.0
 11
460.8101518249558
 21
1194.722962906932
 31
0.0
  0
LINE
  5
8C7D
330
1F
100
AcDbEntity
  8
0
  6
Continuous
 62
     7
370
    15
100
AcDbLine
 10
412.8101532703684
 20
1195.022963328634
 30
0.0
 11
412.8101532703684
 21
1194.722962906932
 31
0.0
  0
LINE
  5
8C7E
330
1F
100
AcDbEntity
  8
0
  6
Continuous
 62
     7
370
    15
100
AcDbLine
 10
460.8101518249558
 20
1199.12296288309
 30
0.0
 11
412.8101532703684
 21
1199.12296288309
 31
0.0
  0
LINE
  5
8C7F
330
1F
100
AcDbEntity
  8
0
  6
Continuous
 62
     7
370
    15
100
AcDbLine
 10
460.8101518249558
 20
1199.12296288309
 30
0.0
 11
460.8101518249558
 21
1195.022963328634
 31
0.0
  0
LINE
  5
8C80
330
1F
100
AcDbEntity
  8
0
  6
Continuous
 62
     7
370
    15
100
AcDbLine
 10
412.8101532703684
 20
1199.12296288309
 30
0.0
 11
412.8101532703684
 21
1195.022963328634
 31
0.0
  0
LINE
  5
8C81
330
1F
100
AcDbEntity
  8
0
  6
Continuous
 62
     7
370
    15
100
AcDbLine
 10
460.8101518249558
 20
1210.922963327144
 30
0.0
 11
412.8101532703684
 21
1210.922963327144
 31
0.0
  0
CIRCLE
  5
8C82
330
1F
100
AcDbEntity
  8
0
  6
Continuous
 62
     7
370
    15
100
AcDbCircle
 10
418.1101534938859
 20
1207.222963249068
 30
0.0
 40
1.25
  0
CIRCLE
  5
8C83
330
1F
100
AcDbEntity
  8
0
  6
Continuous
 62
     7
370
    15
100
AcDbCircle
 10
455.510153493886
 20
1207.222963249068
 30
0.0
 40
1.25
  0
LINE
  5
8C84
330
1F
100
AcDbEntity
  8
0
  6
Continuous
 62
     7
370
    15
100
AcDbLine
 10
460.8101518249558
 20
1202.122963374828
 30
0.0
 11
412.8101532703684
 21
1202.122963374828
 31
0.0
  0
LINE
  5
8C85
330
1F
100
AcDbEntity
  8
0
  6
Continuous
 62
     7
370
    15
100
AcDbLine
 10
460.8101518249558
 20
1210.922963327144
 30
0.0
 11
460.8101518249558
 21
1202.122963374828
 31
0.0
  0
LINE
  5
8C86
330
1F
100
AcDbEntity
  8
0
  6
Continuous
 62
     7
370
    15
100
AcDbLine
 10
412.8101532703684
 20
1210.922963327144
 30
0.0
 11
412.8101532703684
 21
1202.122963374828
 31
0.0
  0
LINE
  5
8C87
330
1F
100
AcDbEntity
  8
0
  6
Continuous
 62
     7
370
    15
100
AcDbLine
 10
421.0101542419241
 20
1211.222963283186
 30
0.0
 11
412.8101532703684
 21
1211.222963283186
 31
0.0
  0
LINE
  5
8C88
330
1F
100
AcDbEntity
  8
0
  6
Continuous
 62
     7
370
    15
100
AcDbLine
 10
452.6101545786904
 20
1211.222963283186
 30
0.0
 11
421.0101542419241
 21
1211.222963283186
 31
0.0
  0
LINE
  5
8C89
330
1F
100
AcDbEntity
  8
0
  6
Continuous
 62
     7
370
    15
100
AcDbLine
 10
460.8101518249558
 20
1211.222963283186
 30
0.0
 11
452.6101545786904
 21
1211.222963283186
 31
0.0
  0
LINE
  5
8C8A
330
1F
100
AcDbEntity
  8
0
  6
Continuous
 62
     7
370
    15
100
AcDbLine
 10
460.8101518249558
 20
1211.222963283186
 30
0.0
 11
460.8101518249558
 21
1210.922963327144
 31
0.0
  0
LINE
  5
8C8B
330
1F
100
AcDbEntity
  8
0
  6
Continuous
 62
     7
370
    15
100
AcDbLine
 10
412.8101532703684
 20
1211.222963283186
 30
0.0
 11
412.8101532703684
 21
1210.922963327144
 31
0.0
  0
LINE
  5
8C8C
330
1F
100
AcDbEntity
  8
0
  6
Continuous
 62
     7
370
    15
100
AcDbLine
 10
441.9601531124161
 20
1214.222963309263
 30
0.0
 11
443.0346236920403
 21
1214.222963309263
 31
0.0
  0
LINE
  5
8C8D
330
1F
100
AcDbEntity
  8
0
  6
Continuous
 62
     7
370
    15
100
AcDbLine
 10
447.6601527428673
 20
1217.622963121508
 30
0.0
 11
447.6601527428673
 21
1216.965079648768
 31
0.0
  0
LINE
  5
8C8E
330
1F
100
AcDbEntity
  8
0
  6
Continuous
 62
     7
370
    15
100
AcDbLine
 10
452.6101545786904
 20
1217.622963121508
 30
0.0
 11
447.6601527428673
 21
1217.622963121508
 31
0.0
  0
LINE
  5
8C8F
330
1F
100
AcDbEntity
  8
0
  6
Continuous
 62
     7
370
    15
100
AcDbLine
 10
452.6101545786904
 20
1211.222963283186
 30
0.0
 11
452.6101545786904
 21
1217.622963121508
 31
0.0
  0
LINE
  5
8C90
330
1F
100
AcDbEntity
  8
0
  6
Continuous
 62
     7
370
    15
100
AcDbLine
 10
421.0101542419241
 20
1217.622963121508
 30
0.0
 11
421.0101542419241
 21
1211.222963283186
 31
0.0
  0
LINE
  5
8C91
330
1F
100
AcDbEntity
  8
0
  6
Continuous
 62
     7
370
    15
100
AcDbLine
 10
425.960154215102
 20
1217.622963121508
 30
0.0
 11
421.0101542419241
 21
1217.622963121508
 31
0.0
  0
LINE
  5
8C92
330
1F
100
AcDbEntity
  8
0
  6
Continuous
 62
     7
370
    15
100
AcDbLine
 10
425.960154215102
 20
1217.622963121508
 30
0.0
 11
425.960154215102
 21
1216.965079648768
 31
0.0
  0
LINE
  5
8C93
330
1F
100
AcDbEntity
  8
0
  6
Continuous
 62
     7
370
    15
100
AcDbLine
 10
430.5856814032839
 20
1214.222963309263
 30
0.0
 11
431.6601538455532
 21
1214.222963309263
 31
0.0
  0
LINE
  5
8C94
330
1F
100
AcDbEntity
  8
0
  6
Continuous
 62
     7
370
    15
100
AcDbLine
 10
431.6601538455532
 20
1217.622963121508
 30
0.0
 11
431.6601538455532
 21
1214.222963309263
 31
0.0
  0
LINE
  5
8C95
330
1F
100
AcDbEntity
  8
0
  6
Continuous
 62
     7
370
    15
100
AcDbLine
 10
441.9601531124161
 20
1217.622963121508
 30
0.0
 11
431.6601538455532
 21
1217.622963121508
 31
0.0
  0
LINE
  5
8C96
330
1F
100
AcDbEntity
  8
0
  6
Continuous
 62
     7
370
    15
100
AcDbLine
 10
441.9601531124161
 20
1217.622963121508
 30
0.0
 11
441.9601531124161
 21
1214.222963309263
 31
0.0
  0
LINE
  5
8C97
330
1F
100
AcDbEntity
  8
0
  6
Continuous
 62
     7
370
    15
100
AcDbLine
 10
452.6101545786904
 20
1217.622963121508
 30
0.0
 11
452.8101542389439
 21
1217.622963121508
 31
0.0
  0
LINE
  5
8C98
330
1F
100
AcDbEntity
  8
0
  6
Continuous
 62
     7
370
    15
100
AcDbLine
 10
452.8101542389439
 20
1217.622963121508
 30
0.0
 11
452.8101542389439
 21
1211.222963283186
 31
0.0
  0
LINE
  5
8C99
330
1F
100
AcDbEntity
  8
0
  6
Continuous
 62
     7
370
    15
100
AcDbLine
 10
420.8101527190255
 20
1211.222963283186
 30
0.0
 11
420.8101527190255
 21
1217.622963121508
 31
0.0
  0
LINE
  5
8C9A
330
1F
100
AcDbEntity
  8
0
  6
Continuous
 62
     7
370
    15
100
AcDbLine
 10
420.8101527190255
 20
1217.622963121508
 30
0.0
 11
421.0101542419241
 21
1217.622963121508
 31
0.0
  0
LINE
  5
8C9B
330
1F
100
AcDbEntity
  8
0
  6
Continuous
 62
     7
370
    15
100
AcDbLine
 10
421.0101542419241
 20
1217.822963713084
 30
0.0
 11
421.0101542419241
 21
1217.622963121508
 31
0.0
  0
LINE
  5
8C9C
330
1F
100
AcDbEntity
  8
0
  6
Continuous
 62
     7
370
    15
100
AcDbLine
 10
421.0101542419241
 20
1217.822963713084
 30
0.0
 11
420.8101527190255
 21
1217.622963121508
 31
0.0
  0
LINE
  5
8C9D
330
1F
100
AcDbEntity
  8
0
  6
Continuous
 62
     7
370
    15
100
AcDbLine
 10
431.8601535058068
 20
1217.822963713084
 30
0.0
 11
441.7601534521626
 21
1217.822963713084
 31
0.0
  0
LINE
  5
8C9E
330
1F
100
AcDbEntity
  8
0
  6
Continuous
 62
     7
370
    15
100
AcDbLine
 10
431.8601535058068
 20
1217.822963713084
 30
0.0
 11
431.6601538455532
 21
1217.622963121508
 31
0.0
  0
LINE
  5
8C9F
330
1F
100
AcDbEntity
  8
0
  6
Continuous
 62
     7
370
    15
100
AcDbLine
 10
441.9601531124161
 20
1217.622963121508
 30
0.0
 11
441.7601534521626
 21
1217.822963713084
 31
0.0
  0
LINE
  5
8CA0
330
1F
100
AcDbEntity
  8
0
  6
Continuous
 62
     7
370
    15
100
AcDbLine
 10
421.0101542419241
 20
1217.822963713084
 30
0.0
 11
425.7601526922034
 21
1217.822963713084
 31
0.0
  0
LINE
  5
8CA1
330
1F
100
AcDbEntity
  8
0
  6
Continuous
 62
     7
370
    15
100
AcDbLine
 10
425.7601526922034
 20
1217.822963713084
 30
0.0
 11
425.960154215102
 21
1217.622963121508
 31
0.0
  0
LINE
  5
8CA2
330
1F
100
AcDbEntity
  8
0
  6
Continuous
 62
     7
370
    15
100
AcDbLine
 10
452.6101545786904
 20
1217.622963121508
 30
0.0
 11
452.6101545786904
 21
1217.822963713084
 31
0.0
  0
LINE
  5
8CA3
330
1F
100
AcDbEntity
  8
0
  6
Continuous
 62
     7
370
    15
100
AcDbLine
 10
452.8101542389439
 20
1217.622963121508
 30
0.0
 11
452.6101545786904
 21
1217.822963713084
 31
0.0
  0
LINE
  5
8CA4
330
1F
100
AcDbEntity
  8
0
  6
Continuous
 62
     7
370
    15
100
AcDbLine
 10
447.8601524031208
 20
1217.822963713084
 30
0.0
 11
452.6101545786904
 21
1217.822963713084
 31
0.0
  0
LINE
  5
8CA5
330
1F
100
AcDbEntity
  8
0
  6
Continuous
 62
     7
370
    15
100
AcDbLine
 10
447.6601527428673
 20
1217.622963121508
 30
0.0
 11
447.8601524031208
 21
1217.822963713084
 31
0.0
  0
LINE
  5
8CA6
330
1F
100
AcDbEntity
  8
0
  6
Continuous
 62
     7
370
    15
100
AcDbLine
 10
460.8101518249558
 20
1202.722963286911
 30
0.0
 11
460.8101518249558
 21
1198.522962971007
 31
0.0
  0
LINE
  5
8CA7
330
1F
100
AcDbEntity
  8
0
  6
Continuous
 62
     7
370
    15
100
AcDbLine
 10
412.8101532703684
 20
1202.722963286911
 30
0.0
 11
412.8101532703684
 21
1198.522962971007
 31
0.0
  0
LINE
  5
8CA8
330
1F
100
AcDbEntity
  8
0
  6
Continuous
 62
     7
370
    15
100
AcDbLine
 10
431.6601538455532
 20
1217.622963121508
 30
0.0
 11
425.960154215102
 21
1217.622963121508
 31
0.0
  0
LINE
  5
8CA9
330
1F
100
AcDbEntity
  8
0
  6
Continuous
 62
     7
370
    15
100
AcDbLine
 10
447.6601527428673
 20
1217.622963121508
 30
0.0
 11
441.9601531124161
 21
1217.622963121508
 31
0.0
  0
LINE
  5
8CAA
330
1F
100
AcDbEntity
  8
0
  6
Continuous
 62
     7
370
    15
100
AcDbLine
 10
425.7601526922034
 20
1217.822963713084
 30
0.0
 11
431.8601535058068
 21
1217.822963713084
 31
0.0
  0
LINE
  5
8CAB
330
1F
100
AcDbEntity
  8
0
  6
Continuous
 62
     7
370
    15
100
AcDbLine
 10
441.7601534521626
 20
1217.822963713084
 30
0.0
 11
447.8601524031208
 21
1217.822963713084
 31
0.0
  0
LINE
  5
8CAC
330
1F
100
AcDbEntity
  8
0
  6
Continuous
 62
     7
370
    15
100
AcDbLine
 10
434.3101540005253
 20
1219.022963537251
 30
0.0
 11
434.3101540005253
 21
1217.822963713084
 31
0.0
  0
LINE
  5
8CAD
330
1F
100
AcDbEntity
  8
0
  6
Continuous
 62
     7
370
    15
100
AcDbLine
 10
441.8101542985485
 20
1219.022963537251
 30
0.0
 11
434.3101540005253
 21
1219.022963537251
 31
0.0
  0
LINE
  5
8CAE
330
1F
100
AcDbEntity
  8
0
  6
Continuous
 62
     7
370
    15
100
AcDbLine
 10
441.8101542985485
 20
1219.022963537251
 30
0.0
 11
441.8101542985485
 21
1217.822963713084
 31
0.0
  0
LINE
  5
8CAF
330
1F
100
AcDbEntity
  8
0
  6
Continuous
 62
     7
370
    15
100
AcDbLine
 10
428.8101540303276
 20
1219.022963537251
 30
0.0
 11
428.8101540303276
 21
1217.822963713084
 31
0.0
  0
LINE
  5
8CB0
330
1F
100
AcDbEntity
  8
0
  6
Continuous
 62
     7
370
    15
100
AcDbLine
 10
434.3101540005253
 20
1219.022963537251
 30
0.0
 11
428.8101540303276
 21
1219.022963537251
 31
0.0
  0
LINE
  5
8CB1
330
1F
100
AcDbEntity
  8
0
  6
Continuous
 62
     7
370
    15
100
AcDbLine
 10
434.3101540005253
 20
1219.022963537251
 30
0.0
 11
434.3929970061825
 21
1219.222963197504
 31
0.0
  0
LINE
  5
8CB2
330
1F
100
AcDbEntity
  8
0
  6
Continuous
 62
     7
370
    15
100
AcDbLine
 10
434.3929970061825
 20
1219.222963197504
 30
0.0
 11
441.610154638295
 21
1219.222963197504
 31
0.0
  0
LINE
  5
8CB3
330
1F
100
AcDbEntity
  8
0
  6
Continuous
 62
     7
370
    15
100
AcDbLine
 10
441.8101542985485
 20
1219.022963537251
 30
0.0
 11
441.610154638295
 21
1219.222963197504
 31
0.0
  0
LINE
  5
8CB4
330
1F
100
AcDbEntity
  8
0
  6
Continuous
 62
     7
370
    15
100
AcDbLine
 10
428.8101540303276
 20
1219.022963537251
 30
0.0
 11
428.8929970359848
 21
1219.222963197504
 31
0.0
  0
LINE
  5
8CB5
330
1F
100
AcDbEntity
  8
0
  6
Continuous
 62
     7
370
    15
100
AcDbLine
 10
428.8929970359848
 20
1219.222963197504
 30
0.0
 11
434.3929970061825
 21
1219.222963197504
 31
0.0
  0
LINE
  5
8CB6
330
1F
100
AcDbEntity
  8
0
  6
Continuous
 62
     7
370
    15
100
AcDbLine
 10
439.060154432659
 20
1226.522962903951
 30
0.0
 11
433.5601549691008
 21
1226.522962903951
 31
0.0
  0
LINE
  5
8CB7
330
1F
100
AcDbEntity
  8
0
  6
Continuous
 62
     7
370
    15
100
AcDbLine
 10
439.0601549691008
 20
1226.522962903951
 30
0.0
 11
439.0601549691008
 21
1219.222963197504
 31
0.0
  0
LINE
  5
8CB8
330
1F
100
AcDbEntity
  8
0
  6
Continuous
 62
     7
370
    15
100
AcDbLine
 10
433.7601546293543
 20
1226.722962564205
 30
0.0
 11
439.060154432659
 21
1226.722962564205
 31
0.0
  0
SPLINE
  5
8CB9
330
1F
100
AcDbEntity
  8
0
  6
Continuous
 62
     7
370
    15
100
AcDbSpline
210
0.0
220
0.0
230
1.0
 70
    24
 71
     3
 72
     8
 73
     4
 74
     0
 42
0.0000000001
 43
0.0000000001
 40
0.0
 40
0.0
 40
0.0
 40
0.0
 40
1.0
 40
1.0
 40
1.0
 40
1.0
 10
439.0601549691008
 20
1226.722963249069
 30
0.0
 10
439.0601549691008
 20
1226.659440984489
 30
0.0
 10
439.0601549691008
 20
1226.592487014739
 30
0.0
 10
439.0601549691008
 20
1226.522963249069
 30
0.0
  0
LINE
  5
8CBA
330
1F
100
AcDbEntity
  8
0
  6
Continuous
 62
     7
370
    15
100
AcDbLine
 10
422.6101533865975
 20
1217.822963713084
 30
0.0
 11
422.6101533865975
 21
1219.022963537251
 31
0.0
  0
LINE
  5
8CBB
330
1F
100
AcDbEntity
  8
0
  6
Continuous
 62
     7
370
    15
100
AcDbLine
 10
422.6101533865975
 20
1219.022963537251
 30
0.0
 11
422.810153046851
 21
1219.022963537251
 31
0.0
  0
LINE
  5
8CBC
330
1F
100
AcDbEntity
  8
0
  6
Continuous
 62
     7
370
    15
100
AcDbLine
 10
422.810153046851
 20
1219.022963537251
 30
0.0
 11
422.810153046851
 21
1217.822963713084
 31
0.0
  0
LINE
  5
8CBD
330
1F
100
AcDbEntity
  8
0
  6
Continuous
 62
     7
370
    15
100
AcDbLine
 10
428.8101540303276
 20
1219.022963537251
 30
0.0
 11
422.810153046851
 21
1219.022963537251
 31
0.0
  0
LINE
  5
8CBE
330
1F
100
AcDbEntity
  8
0
  6
Continuous
 62
     7
370
    15
100
AcDbLine
 10
422.810153046851
 20
1219.022963537251
 30
0.0
 11
422.810153046851
 21
1219.222963197504
 31
0.0
  0
LINE
  5
8CBF
330
1F
100
AcDbEntity
  8
0
  6
Continuous
 62
     7
370
    15
100
AcDbLine
 10
422.810153046851
 20
1219.222963197504
 30
0.0
 11
428.8929970359848
 21
1219.222963197504
 31
0.0
  0
LINE
  5
8CC0
330
1F
100
AcDbEntity
  8
0
  6
Continuous
 62
     7
370
    15
100
AcDbLine
 10
422.6101533865975
 20
1219.022963537251
 30
0.0
 11
422.810153046851
 21
1219.222963197504
 31
0.0
  0
LINE
  5
8CC1
330
1F
100
AcDbEntity
  8
0
  6
Continuous
 62
     7
370
    15
100
AcDbLine
 10
446.3367992436932
 20
1214.672963476156
 30
0.0
 11
442.060154805188
 21
1214.672963476156
 31
0.0
  0
LINE
  5
8CC2
330
1F
100
AcDbEntity
  8
0
  6
Continuous
 62
     7
370
    15
100
AcDbLine
 10
428.8101540303276
 20
1214.672963476156
 30
0.0
 11
427.2835077142762
 21
1214.672963476156
 31
0.0
  0
LINE
  5
8CC3
330
1F
100
AcDbEntity
  8
0
  6
Continuous
 62
     7
370
    15
100
AcDbLine
 10
431.5601540154265
 20
1214.672963476156
 30
0.0
 11
428.8101540303276
 21
1214.672963476156
 31
0.0
  0
LINE
  5
8CC4
330
1F
100
AcDbEntity
  8
0
  6
Continuous
 62
     7
370
    15
100
AcDbLine
 10
442.2601544654416
 20
1217.822963713084
 30
0.0
 11
442.2601544654416
 21
1218.972963622187
 31
0.0
  0
ARC
  5
8CC6
330
1F
100
AcDbEntity
  8
0
  6
Continuous
 62
     7
370
    15
100
AcDbCircle
 10
442.260153493886
 20
1337.557294265296
 30
0.0
 40
1.200000000000017
100
AcDbArc
 50
0.0
 51
90.0
  0
ARC
  5
8CC7
330
1F
100
AcDbEntity
  8
0
  6
Continuous
 62
     7
370
    15
100
AcDbCircle
 10
442.260153493886
 20
1334.457294265296
 30
0.0
 40
1.200000000000017
100
AcDbArc
 50
270.0
 51
0.0
  0
SPLINE
  5
8CC8
330
1F
100
AcDbEntity
  8
0
  6
Continuous
 62
     7
370
    15
100
AcDbSpline
210
0.0
220
0.0
230
1.0
 70
    24
 71
     1
 72
     4
 73
     2
 74
     0
 42
0.0000000001
 43
0.0000000001
 40
0.0
 40
0.0
 40
1.0
 40
1.0
 10
441.8101542985485
 20
1333.257293892178
 30
0.0
 10
442.2601544654416
 20
1333.257293892178
 30
0.0
  0
SPLINE
  5
8CC9
330
1F
100
AcDbEntity
  8
0
  6
Continuous
 62
     7
370
    15
100
AcDbSpline
210
0.0
220
0.0
230
1.0
 70
    24
 71
     1
 72
     4
 73
     2
 74
     0
 42
0.0000000001
 43
0.0000000001
 40
0.0
 40
0.0
 40
1.0
 40
1.0
 10
442.2601544654416
 20
1338.757294328037
 30
0.0
 10
441.8101542985485
 20
1338.757294328037
 30
0.0
  0
SPLINE
  5
8CCA
330
1F
100
AcDbEntity
  8
0
  6
Continuous
 62
     7
370
    15
100
AcDbSpline
210
0.0
220
0.0
230
1.0
 70
    24
 71
     1
 72
     4
 73
     2
 74
     0
 42
0.0000000001
 43
0.0000000001
 40
0.0
 40
0.0
 40
1.0
 40
1.0
 10
429.8101541942404
 20
1341.007294231179
 30
0.0
 10
429.8101541942404
 20
1339.407294155183
 30
0.0
  0
SPLINE
  5
8CCB
330
1F
100
AcDbEntity
  8
0
  6
Continuous
 62
     7
370
    15
100
AcDbSpline
210
0.0
220
0.0
230
1.0
 70
    24
 71
     1
 72
     4
 73
     2
 74
     0
 42
0.0000000001
 43
0.0000000001
 40
0.0
 40
0.0
 40
1.0
 40
1.0
 10
443.8101546263741
 20
1339.407294155183
 30
0.0
 10
443.8101546263741
 20
1341.007294231179
 30
0.0
  0
SPLINE
  5
8CCC
330
1F
100
AcDbEntity
  8
0
  6
Continuous
 62
     7
370
    15
100
AcDbSpline
210
0.0
220
0.0
230
1.0
 70
    24
 71
     1
 72
     4
 73
     2
 74
     0
 42
0.0000000001
 43
0.0000000001
 40
0.0
 40
0.0
 40
1.0
 40
1.0
 10
429.8101541942404
 20
1339.407294155183
 30
0.0
 10
430.0101538544939
 20
1339.20729449493
 30
0.0
  0
SPLINE
  5
8CCD
330
1F
100
AcDbEntity
  8
0
  6
Continuous
 62
     7
370
    15
100
AcDbSpline
210
0.0
220
0.0
230
1.0
 70
    24
 71
     1
 72
     4
 73
     2
 74
     0
 42
0.0000000001
 43
0.0000000001
 40
0.0
 40
0.0
 40
1.0
 40
1.0
 10
443.6101549661206
 20
1339.20729449493
 30
0.0
 10
443.8101546263741
 20
1339.407294155183
 30
0.0
  0
SPLINE
  5
8CCE
330
1F
100
AcDbEntity
  8
0
  6
Continuous
 62
     7
370
    15
100
AcDbSpline
210
0.0
220
0.0
230
1.0
 70
    24
 71
     1
 72
     4
 73
     2
 74
     0
 42
0.0000000001
 43
0.0000000001
 40
0.0
 40
0.0
 40
1.0
 40
1.0
 10
433.6101533269928
 20
1339.20729449493
 30
0.0
 10
433.6101533269928
 20
1339.007294369015
 30
0.0
  0
SPLINE
  5
8CCF
330
1F
100
AcDbEntity
  8
0
  6
Continuous
 62
     7
370
    15
100
AcDbSpline
210
0.0
220
0.0
230
1.0
 70
    24
 71
     1
 72
     4
 73
     2
 74
     0
 42
0.0000000001
 43
0.0000000001
 40
0.0
 40
0.0
 40
1.0
 40
1.0
 10
433.6101533269928
 20
1333.007294316861
 30
0.0
 10
433.6101533269928
 20
1325.707294610414
 30
0.0
  0
SPLINE
  5
8CD0
330
1F
100
AcDbEntity
  8
0
  6
Continuous
 62
     7
370
    15
100
AcDbSpline
210
0.0
220
0.0
230
1.0
 70
    24
 71
     1
 72
     4
 73
     2
 74
     0
 42
0.0000000001
 43
0.0000000001
 40
0.0
 40
0.0
 40
1.0
 40
1.0
 10
433.6101533269928
 20
1325.707294610414
 30
0.0
 10
433.8101529872464
 20
1325.50729495016
 30
0.0
  0
LINE
  5
8CD1
330
1F
100
AcDbEntity
  8
0
  6
Continuous
 62
     7
370
    15
100
AcDbLine
 10
434.5101536607788
 20
1338.8072942431
 30
0.0
 11
434.5101536607788
 21
1333.207293977114
 31
0.0
  0
LINE
  5
8CD2
330
1F
100
AcDbEntity
  8
0
  6
Continuous
 62
     7
370
    15
100
AcDbLine
 10
434.5101536607788
 20
1333.207293977114
 30
0.0
 11
434.3101540005253
 21
1333.207293977114
 31
0.0
  0
LINE
  5
8CD3
330
1F
100
AcDbEntity
  8
0
  6
Continuous
 62
     7
370
    15
100
AcDbLine
 10
434.3101540005253
 20
1333.207293977114
 30
0.0
 11
434.3101540005253
 21
1339.007294369015
 31
0.0
  0
LINE
  5
8CD4
330
1F
100
AcDbEntity
  8
0
  6
Continuous
 62
     7
370
    15
100
AcDbLine
 10
434.5101536607788
 20
1338.8072942431
 30
0.0
 11
434.3101540005253
 21
1339.007294369015
 31
0.0
  0
LINE
  5
8CD5
330
1F
100
AcDbEntity
  8
0
  6
Continuous
 62
     7
370
    15
100
AcDbLine
 10
439.1101532971905
 20
1338.8072942431
 30
0.0
 11
434.5101536607788
 21
1338.8072942431
 31
0.0
  0
LINE
  5
8CD6
330
1F
100
AcDbEntity
  8
0
  6
Continuous
 62
     7
370
    15
100
AcDbLine
 10
439.1101532971905
 20
1333.207293977114
 30
0.0
 11
439.1101532971905
 21
1338.8072942431
 31
0.0
  0
LINE
  5
8CD7
330
1F
100
AcDbEntity
  8
0
  6
Continuous
 62
     7
370
    15
100
AcDbLine
 10
434.5101536607788
 20
1333.207293977114
 30
0.0
 11
439.1101532971905
 21
1333.207293977114
 31
0.0
  0
LINE
  5
8CD8
330
1F
100
AcDbEntity
  8
0
  6
Continuous
 62
     7
370
    15
100
AcDbLine
 10
439.1101532971905
 20
1338.8072942431
 30
0.0
 11
439.310152957444
 21
1339.007294369015
 31
0.0
  0
LINE
  5
8CD9
330
1F
100
AcDbEntity
  8
0
  6
Continuous
 62
     7
370
    15
100
AcDbLine
 10
439.310152957444
 20
1339.007294369015
 30
0.0
 11
439.310152957444
 21
1333.207293977114
 31
0.0
  0
LINE
  5
8CDA
330
1F
100
AcDbEntity
  8
0
  6
Continuous
 62
     7
370
    15
100
AcDbLine
 10
439.310152957444
 20
1333.207293977114
 30
0.0
 11
439.1101532971905
 21
1333.207293977114
 31
0.0
  0
LINE
  5
8CDB
330
1F
100
AcDbEntity
  8
0
  6
Continuous
 62
     7
370
    15
100
AcDbLine
 10
434.3101540005253
 20
1339.007294369015
 30
0.0
 11
439.310152957444
 21
1339.007294369015
 31
0.0
  0
LINE
  5
8CDC
330
1F
100
AcDbEntity
  8
0
  6
Continuous
 62
     7
370
    15
100
AcDbLine
 10
439.310152957444
 20
1333.207293977114
 30
0.0
 11
439.1101532971905
 21
1333.007294316861
 31
0.0
  0
LINE
  5
8CDD
330
1F
100
AcDbEntity
  8
0
  6
Continuous
 62
     7
370
    15
100
AcDbLine
 10
439.1101532971905
 20
1333.007294316861
 30
0.0
 11
439.1101532971905
 21
1333.207293977114
 31
0.0
  0
LINE
  5
8CDE
330
1F
100
AcDbEntity
  8
0
  6
Continuous
 62
     7
370
    15
100
AcDbLine
 10
434.5101536607788
 20
1333.007294316861
 30
0.0
 11
434.3101540005253
 21
1333.207293977114
 31
0.0
  0
LINE
  5
8CDF
330
1F
100
AcDbEntity
  8
0
  6
Continuous
 62
     7
370
    15
100
AcDbLine
 10
434.5101536607788
 20
1333.007294316861
 30
0.0
 11
434.5101536607788
 21
1333.207293977114
 31
0.0
  0
LINE
  5
8CE0
330
1F
100
AcDbEntity
  8
0
  6
Continuous
 62
     7
370
    15
100
AcDbLine
 10
439.1101532971905
 20
1333.007294316861
 30
0.0
 11
434.5101536607788
 21
1333.007294316861
 31
0.0
  0
LINE
  5
8CE1
330
1F
100
AcDbEntity
  8
0
  6
Continuous
 62
     7
370
    15
100
AcDbLine
 10
441.8101542985485
 20
1333.207293977114
 30
0.0
 11
441.8101542985485
 21
1339.007294369015
 31
0.0
  0
LINE
  5
8CE2
330
1F
100
AcDbEntity
  8
0
  6
Continuous
 62
     7
370
    15
100
AcDbLine
 10
439.310152957444
 20
1333.207293977114
 30
0.0
 11
441.8101542985485
 21
1333.207293977114
 31
0.0
  0
LINE
  5
8CE3
330
1F
100
AcDbEntity
  8
0
  6
Continuous
 62
     7
370
    15
100
AcDbLine
 10
441.8101542985485
 20
1339.007294369015
 30
0.0
 11
439.310152957444
 21
1339.007294369015
 31
0.0
  0
LINE
  5
8CE4
330
1F
100
AcDbEntity
  8
0
  6
Continuous
 62
     7
370
    15
100
AcDbLine
 10
428.8101540303276
 20
1333.207293977114
 30
0.0
 11
434.3101540005253
 21
1333.207293977114
 31
0.0
  0
LINE
  5
8CE5
330
1F
100
AcDbEntity
  8
0
  6
Continuous
 62
     7
370
    15
100
AcDbLine
 10
428.8101540303276
 20
1333.207293977114
 30
0.0
 11
428.8101540303276
 21
1339.007294369015
 31
0.0
  0
LINE
  5
8CE6
330
1F
100
AcDbEntity
  8
0
  6
Continuous
 62
     7
370
    15
100
AcDbLine
 10
434.3101540005253
 20
1339.007294369015
 30
0.0
 11
428.8101540303276
 21
1339.007294369015
 31
0.0
  0
LINE
  5
8CE7
330
1F
100
AcDbEntity
  8
0
  6
Continuous
 62
     7
370
    15
100
AcDbLine
 10
441.8101542985485
 20
1333.207293977114
 30
0.0
 11
441.610154638295
 21
1333.007294316861
 31
0.0
  0
LINE
  5
8CE8
330
1F
100
AcDbEntity
  8
0
  6
Continuous
 62
     7
370
    15
100
AcDbLine
 10
441.610154638295
 20
1333.007294316861
 30
0.0
 11
439.1101532971905
 21
1333.007294316861
 31
0.0
  0
LINE
  5
8CE9
330
1F
100
AcDbEntity
  8
0
  6
Continuous
 62
     7
370
    15
100
AcDbLine
 10
428.8929970359848
 20
1333.007294316861
 30
0.0
 11
428.8101540303276
 21
1333.207293977114
 31
0.0
  0
LINE
  5
8CEA
330
1F
100
AcDbEntity
  8
0
  6
Continuous
 62
     7
370
    15
100
AcDbLine
 10
434.5101536607788
 20
1333.007294316861
 30
0.0
 11
428.8929970359848
 21
1333.007294316861
 31
0.0
  0
LINE
  5
8CEB
330
1F
100
AcDbEntity
  8
0
  6
Continuous
 62
     7
370
    15
100
AcDbLine
 10
443.4601524269627
 20
1336.007293877276
 30
0.0
 11
443.4601524269627
 21
1334.457294647666
 31
0.0
  0
LINE
  5
8CEC
330
1F
100
AcDbEntity
  8
0
  6
Continuous
 62
     7
370
    15
100
AcDbLine
 10
443.4601524269627
 20
1337.557294038209
 30
0.0
 11
443.4601524269627
 21
1336.007293877276
 31
0.0
  0
LINE
  5
8CED
330
1F
100
AcDbEntity
  8
0
  6
Continuous
 62
     7
370
    15
100
AcDbLine
 10
460.8101518249558
 20
1357.507294607433
 30
0.0
 11
412.8101532703684
 21
1357.507294607433
 31
0.0
  0
LINE
  5
8CEE
330
1F
100
AcDbEntity
  8
0
  6
Continuous
 62
     7
370
    15
100
AcDbLine
 10
460.8101518249558
 20
1357.507294607433
 30
0.0
 11
460.8101518249558
 21
1357.20729418573
 31
0.0
  0
LINE
  5
8CEF
330
1F
100
AcDbEntity
  8
0
  6
Continuous
 62
     7
370
    15
100
AcDbLine
 10
460.8101518249558
 20
1357.20729418573
 30
0.0
 11
412.8101532703684
 21
1357.20729418573
 31
0.0
  0
LINE
  5
8CF0
330
1F
100
AcDbEntity
  8
0
  6
Continuous
 62
     7
370
    15
100
AcDbLine
 10
412.8101532703684
 20
1357.507294607433
 30
0.0
 11
412.8101532703684
 21
1357.20729418573
 31
0.0
  0
LINE
  5
8CF1
330
1F
100
AcDbEntity
  8
0
  6
Continuous
 62
     7
370
    15
100
AcDbLine
 10
460.8101518249558
 20
1341.307294187221
 30
0.0
 11
412.8101532703684
 21
1341.307294187221
 31
0.0
  0
CIRCLE
  5
8CF2
330
1F
100
AcDbEntity
  8
0
  6
Continuous
 62
     7
370
    15
100
AcDbCircle
 10
447.8101534938859
 20
1349.007294265296
 30
0.0
 40
2.099999999999994
  0
CIRCLE
  5
8CF3
330
1F
100
AcDbEntity
  8
0
  6
Continuous
 62
     7
370
    15
100
AcDbCircle
 10
425.810153493886
 20
1349.007294265296
 30
0.0
 40
2.100000000000008
  0
LINE
  5
8CF4
330
1F
100
AcDbEntity
  8
0
  6
Continuous
 62
     7
370
    15
100
AcDbLine
 10
460.8101518249558
 20
1357.20729418573
 30
0.0
 11
460.8101518249558
 21
1341.307294187221
 31
0.0
  0
LINE
  5
8CF5
330
1F
100
AcDbEntity
  8
0
  6
Continuous
 62
     7
370
    15
100
AcDbLine
 10
412.8101532703684
 20
1357.20729418573
 30
0.0
 11
412.8101532703684
 21
1341.307294187221
 31
0.0
  0
LINE
  5
8CF6
330
1F
100
AcDbEntity
  8
0
  6
Continuous
 62
     7
370
    15
100
AcDbLine
 10
460.8101518249558
 20
1341.007294231179
 30
0.0
 11
412.8101532703684
 21
1341.007294231179
 31
0.0
  0
LINE
  5
8CF7
330
1F
100
AcDbEntity
  8
0
  6
Continuous
 62
     7
370
    15
100
AcDbLine
 10
460.8101518249558
 20
1341.307294187221
 30
0.0
 11
460.8101518249558
 21
1341.007294231179
 31
0.0
  0
LINE
  5
8CF8
330
1F
100
AcDbEntity
  8
0
  6
Continuous
 62
     7
370
    15
100
AcDbLine
 10
412.8101532703684
 20
1341.307294187221
 30
0.0
 11
412.8101532703684
 21
1341.007294231179
 31
0.0
  0
LINE
  5
8CF9
330
1F
100
AcDbEntity
  8
0
  6
Continuous
 62
     7
370
    15
100
AcDbLine
 10
429.8101541942404
 20
1339.407294155183
 30
0.0
 11
443.8101546263741
 21
1339.407294155183
 31
0.0
  0
LINE
  5
8CFA
330
1F
100
AcDbEntity
  8
0
  6
Continuous
 62
     7
370
    15
100
AcDbLine
 10
443.6101549661206
 20
1339.20729449493
 30
0.0
 11
430.0101538544939
 21
1339.20729449493
 31
0.0
  0
LINE
  5
8CFB
330
1F
100
AcDbEntity
  8
0
  6
Continuous
 62
     7
370
    15
100
AcDbLine
 10
439.310152957444
 20
1339.007294369015
 30
0.0
 11
439.310152957444
 21
1339.20729449493
 31
0.0
  0
LINE
  5
8CFC
330
1F
100
AcDbEntity
  8
0
  6
Continuous
 62
     7
370
    15
100
AcDbLine
 10
439.310152957444
 20
1325.707294610414
 30
0.0
 11
439.310152957444
 21
1333.007294316861
 31
0.0
  0
LINE
  5
8CFD
330
1F
100
AcDbEntity
  8
0
  6
Continuous
 62
     7
370
    15
100
AcDbLine
 10
433.6101533269928
 20
1325.707294610414
 30
0.0
 11
439.310152957444
 21
1325.707294610414
 31
0.0
  0
LINE
  5
8CFE
330
1F
100
AcDbEntity
  8
0
  6
Continuous
 62
     7
370
    15
100
AcDbLine
 10
439.310152957444
 20
1325.50729495016
 30
0.0
 11
433.8101529872464
 21
1325.50729495016
 31
0.0
  0
SPLINE
  5
8CFF
330
1F
100
AcDbEntity
  8
0
  6
Continuous
 62
     7
370
    15
100
AcDbSpline
210
0.0
220
0.0
230
1.0
 70
    24
 71
     3
 72
     8
 73
     4
 74
     0
 42
0.0000000001
 43
0.0000000001
 40
0.0
 40
0.0
 40
0.0
 40
0.0
 40
1.0
 40
1.0
 40
1.0
 40
1.0
 10
439.3101534938859
 20
1325.707294265296
 30
0.0
 10
439.3101534938859
 20
1325.637770499626
 30
0.0
 10
439.3101534938859
 20
1325.570816529876
 30
0.0
 10
439.3101534938859
 20
1325.507294265296
 30
0.0
  0
LINE
  5
8D00
330
1F
100
AcDbEntity
  8
0
  6
Continuous
 62
     7
370
    15
100
AcDbLine
 10
422.810153046851
 20
1333.207293977114
 30
0.0
 11
428.8101540303276
 21
1333.207293977114
 31
0.0
  0
LINE
  5
8D01
330
1F
100
AcDbEntity
  8
0
  6
Continuous
 62
     7
370
    15
100
AcDbLine
 10
422.810153046851
 20
1339.007294369015
 30
0.0
 11
422.810153046851
 21
1333.207293977114
 31
0.0
  0
LINE
  5
8D02
330
1F
100
AcDbEntity
  8
0
  6
Continuous
 62
     7
370
    15
100
AcDbLine
 10
428.8101540303276
 20
1339.007294369015
 30
0.0
 11
422.810153046851
 21
1339.007294369015
 31
0.0
  0
LINE
  5
8D03
330
1F
100
AcDbEntity
  8
0
  6
Continuous
 62
     7
370
    15
100
AcDbLine
 10
422.810153046851
 20
1333.207293977114
 30
0.0
 11
422.6101533865975
 21
1333.207293977114
 31
0.0
  0
LINE
  5
8D04
330
1F
100
AcDbEntity
  8
0
  6
Continuous
 62
     7
370
    15
100
AcDbLine
 10
422.6101533865975
 20
1333.207293977114
 30
0.0
 11
422.6101533865975
 21
1338.8072942431
 31
0.0
  0
LINE
  5
8D05
330
1F
100
AcDbEntity
  8
0
  6
Continuous
 62
     7
370
    15
100
AcDbLine
 10
422.810153046851
 20
1339.007294369015
 30
0.0
 11
422.6101533865975
 21
1338.8072942431
 31
0.0
  0
LINE
  5
8D06
330
1F
100
AcDbEntity
  8
0
  6
Continuous
 62
     7
370
    15
100
AcDbLine
 10
422.810153046851
 20
1333.007294316861
 30
0.0
 11
422.810153046851
 21
1333.207293977114
 31
0.0
  0
LINE
  5
8D07
330
1F
100
AcDbEntity
  8
0
  6
Continuous
 62
     7
370
    15
100
AcDbLine
 10
428.8929970359848
 20
1333.007294316861
 30
0.0
 11
422.810153046851
 21
1333.007294316861
 31
0.0
  0
LINE
  5
8D08
330
1F
100
AcDbEntity
  8
0
  6
Continuous
 62
     7
370
    15
100
AcDbLine
 10
422.810153046851
 20
1333.007294316861
 30
0.0
 11
422.6101533865975
 21
1333.207293977114
 31
0.0
  0
CIRCLE
  5
8D09
330
1F
100
AcDbEntity
  8
0
  6
Continuous
 62
     7
370
    15
100
AcDbCircle
 10
449.3101534938859
 20
1337.907294265296
 30
0.0
 40
1.5
  0
CIRCLE
  5
8D0A
330
1F
100
AcDbEntity
  8
0
  6
Continuous
 62
     7
370
    15
100
AcDbCircle
 10
449.3101534938859
 20
1337.907294265296
 30
0.0
 40
1.299999999999997
  0
ARC
  5
8D0B
330
1F
100
AcDbEntity
  8
0
  6
Continuous
 62
     7
370
    15
100
AcDbCircle
 10
424.3101534938859
 20
1337.907294265296
 30
0.0
 40
1.50000000000002
100
AcDbArc
 50
47.16657193393393
 51
132.833428066066
  0
LINE
  5
8D0C
330
1F
100
AcDbEntity
  8
0
  6
Continuous
 62
     7
370
    15
100
AcDbLine
 10
452.0101518726395
 20
1334.607294392857
 30
0.0
 11
452.0101518726395
 21
1341.007294231179
 31
0.0
  0
LINE
  5
8D0D
330
1F
100
AcDbEntity
  8
0
  6
Continuous
 62
     7
370
    15
100
AcDbLine
 10
447.0101529157208
 20
1334.607294392857
 30
0.0
 11
452.0101518726395
 21
1334.607294392857
 31
0.0
  0
LINE
  5
8D0E
330
1F
100
AcDbEntity
  8
0
  6
Continuous
 62
     7
370
    15
100
AcDbLine
 10
447.0101529157208
 20
1341.007294231179
 30
0.0
 11
447.0101529157208
 21
1334.607294392857
 31
0.0
  0
LINE
  5
8D0F
330
1F
100
AcDbEntity
  8
0
  6
Continuous
 62
     7
370
    15
100
AcDbLine
 10
446.8101532554673
 20
1334.40729380128
 30
0.0
 11
447.0101529157208
 21
1334.607294392857
 31
0.0
  0
LINE
  5
8D10
330
1F
100
AcDbEntity
  8
0
  6
Continuous
 62
     7
370
    15
100
AcDbLine
 10
446.8101532554673
 20
1334.40729380128
 30
0.0
 11
446.8101532554673
 21
1341.007294231179
 31
0.0
  0
LINE
  5
8D11
330
1F
100
AcDbEntity
  8
0
  6
Continuous
 62
     7
370
    15
100
AcDbLine
 10
452.2101552581833
 20
1341.007294231179
 30
0.0
 11
452.2101552581833
 21
1334.40729380128
 31
0.0
  0
LINE
  5
8D12
330
1F
100
AcDbEntity
  8
0
  6
Continuous
 62
     7
370
    15
100
AcDbLine
 10
452.2101552581833
 20
1334.40729380128
 30
0.0
 11
452.0101518726395
 21
1334.607294392857
 31
0.0
  0
LINE
  5
8D13
330
1F
100
AcDbEntity
  8
0
  6
Continuous
 62
     7
370
    15
100
AcDbLine
 10
426.6101540422486
 20
1339.007294369015
 30
0.0
 11
426.6101540422486
 21
1341.007294231179
 31
0.0
  0
LINE
  5
8D14
330
1F
100
AcDbEntity
  8
0
  6
Continuous
 62
     7
370
    15
100
AcDbLine
 10
421.6101532226847
 20
1334.607294392857
 30
0.0
 11
422.6101533865975
 21
1334.607294392857
 31
0.0
  0
LINE
  5
8D15
330
1F
100
AcDbEntity
  8
0
  6
Continuous
 62
     7
370
    15
100
AcDbLine
 10
421.6101532226847
 20
1341.007294231179
 30
0.0
 11
421.6101532226847
 21
1334.607294392857
 31
0.0
  0
LINE
  5
8D16
330
1F
100
AcDbEntity
  8
0
  6
Continuous
 62
     7
370
    15
100
AcDbLine
 10
426.8101537025021
 20
1341.007294231179
 30
0.0
 11
426.8101537025021
 21
1339.007294369015
 31
0.0
  0
LINE
  5
8D17
330
1F
100
AcDbEntity
  8
0
  6
Continuous
 62
     7
370
    15
100
AcDbLine
 10
421.4101535624312
 20
1334.40729380128
 30
0.0
 11
421.6101532226847
 21
1334.607294392857
 31
0.0
  0
LINE
  5
8D18
330
1F
100
AcDbEntity
  8
0
  6
Continuous
 62
     7
370
    15
100
AcDbLine
 10
421.4101535624312
 20
1334.40729380128
 30
0.0
 11
421.4101535624312
 21
1341.007294231179
 31
0.0
  0
LINE
  5
8D19
330
1F
100
AcDbEntity
  8
0
  6
Continuous
 62
     7
370
    15
100
AcDbLine
 10
452.2101552581833
 20
1334.40729380128
 30
0.0
 11
446.8101532554673
 21
1334.40729380128
 31
0.0
  0
LINE
  5
8D1A
330
1F
100
AcDbEntity
  8
0
  6
Continuous
 62
     7
370
    15
100
AcDbLine
 10
422.6101533865975
 20
1334.40729380128
 30
0.0
 11
421.4101535624312
 21
1334.40729380128
 31
0.0
  0
LINE
  5
8D1B
330
1F
100
AcDbEntity
  8
0
  6
Continuous
 62
     7
370
    15
100
AcDbLine
 10
421.0101542419241
 20
1341.007294231179
 30
0.0
 11
421.0101542419241
 21
1334.40729380128
 31
0.0
  0
LINE
  5
8D1C
330
1F
100
AcDbEntity
  8
0
  6
Continuous
 62
     7
370
    15
100
AcDbLine
 10
421.0101542419241
 20
1334.40729380128
 30
0.0
 11
421.4101535624312
 21
1334.40729380128
 31
0.0
  0
LINE
  5
8D1D
330
1F
100
AcDbEntity
  8
0
  6
Continuous
 62
     7
370
    15
100
AcDbLine
 10
452.6101545786904
 20
1334.40729380128
 30
0.0
 11
452.6101545786904
 21
1341.007294231179
 31
0.0
  0
LINE
  5
8D1E
330
1F
100
AcDbEntity
  8
0
  6
Continuous
 62
     7
370
    15
100
AcDbLine
 10
452.2101552581833
 20
1334.40729380128
 30
0.0
 11
452.6101545786904
 21
1334.40729380128
 31
0.0
  0
LINE
  5
8D1F
330
1F
100
AcDbEntity
  8
0
  6
Continuous
 62
     7
370
    15
100
AcDbLine
 10
452.8101542389439
 20
1341.007294231179
 30
0.0
 11
452.8101542389439
 21
1334.607294392857
 31
0.0
  0
LINE
  5
8D20
330
1F
100
AcDbEntity
  8
0
  6
Continuous
 62
     7
370
    15
100
AcDbLine
 10
452.8101542389439
 20
1334.607294392857
 30
0.0
 11
452.6101545786904
 21
1334.40729380128
 31
0.0
  0
LINE
  5
8D21
330
1F
100
AcDbEntity
  8
0
  6
Continuous
 62
     7
370
    15
100
AcDbLine
 10
421.0101542419241
 20
1334.40729380128
 30
0.0
 11
420.8101527190255
 21
1334.607294392857
 31
0.0
  0
LINE
  5
8D22
330
1F
100
AcDbEntity
  8
0
  6
Continuous
 62
     7
370
    15
100
AcDbLine
 10
420.8101527190255
 20
1334.607294392857
 30
0.0
 11
420.8101527190255
 21
1341.007294231179
 31
0.0
  0
LINE
  5
8D23
330
1F
100
AcDbEntity
  8
0
  6
Continuous
 62
     7
370
    15
100
AcDbLine
 10
430.1769034361885
 20
1339.007294369015
 30
0.0
 11
430.1769034361885
 21
1339.20729449493
 31
0.0
  0
LINE
  5
8D24
330
1F
100
AcDbEntity
  8
0
  6
Continuous
 62
     7
370
    15
100
AcDbLine
 10
443.4434035217808
 20
1339.20729449493
 30
0.0
 11
443.4434035217808
 21
1337.757095326754
 31
0.0
  0
LINE
  5
8D25
330
1F
100
AcDbEntity
  8
0
  6
Continuous
 62
     7
370
    15
100
AcDbLine
 10
443.4591130709694
 20
1334.40729380128
 30
0.0
 11
446.8101532554673
 21
1334.40729380128
 31
0.0
  0
LINE
  5
8D26
330
1F
100
AcDbEntity
  8
0
  6
Continuous
 62
     7
370
    15
100
AcDbLine
 10
442.2601544654416
 20
1336.007293877276
 30
0.0
 11
442.2601544654416
 21
1338.757294328037
 31
0.0
  0
LINE
  5
8D27
330
1F
100
AcDbEntity
  8
0
  6
Continuous
 62
     7
370
    15
100
AcDbLine
 10
442.2601544654416
 20
1333.257293892178
 30
0.0
 11
442.2601544654416
 21
1336.007293877276
 31
0.0
  0
SPLINE
  5
8D28
330
1F
100
AcDbEntity
  8
0
  6
Continuous
 62
     7
370
    15
100
AcDbSpline
210
0.0
220
0.0
230
1.0
 70
    24
 71
     1
 72
     4
 73
     2
 74
     0
 42
0.0000000001
 43
0.0000000001
 40
0.0
 40
0.0
 40
1.0
 40
1.0
 10
355.4626241750916
 20
1283.036796350439
 30
0.0
 10
355.2626245148381
 20
1283.236796356301
 30
0.0
  0
SPLINE
  5
8D29
330
1F
100
AcDbEntity
  8
0
  6
Continuous
 62
     7
370
    15
100
AcDbSpline
210
0.0
220
0.0
230
1.0
 70
    24
 71
     1
 72
     4
 73
     2
 74
     0
 42
0.0000000001
 43
0.0000000001
 40
0.0
 40
0.0
 40
1.0
 40
1.0
 10
352.6626247405907
 20
1283.236796356301
 30
0.0
 10
352.4626241490146
 20
1283.036796350439
 30
0.0
  0
SPLINE
  5
8D2A
330
1F
100
AcDbEntity
  8
0
  6
Continuous
 62
     7
370
    15
100
AcDbSpline
210
0.0
220
0.0
230
1.0
 70
    24
 71
     1
 72
     4
 73
     2
 74
     0
 42
0.0000000001
 43
0.0000000001
 40
0.0
 40
0.0
 40
1.0
 40
1.0
 10
352.4626241490146
 20
1264.636796655191
 30
0.0
 10
352.6626247405907
 20
1264.436796994938
 30
0.0
  0
SPLINE
  5
8D2B
330
1F
100
AcDbEntity
  8
0
  6
Continuous
 62
     7
370
    15
100
AcDbSpline
210
0.0
220
0.0
230
1.0
 70
    24
 71
     1
 72
     4
 73
     2
 74
     0
 42
0.0000000001
 43
0.0000000001
 40
0.0
 40
0.0
 40
1.0
 40
1.0
 10
355.2626245148381
 20
1264.436796994938
 30
0.0
 10
355.4626241750916
 20
1264.636796655191
 30
0.0
  0
SPLINE
  5
8D2C
330
1F
100
AcDbEntity
  8
0
  6
Continuous
 62
     7
370
    15
100
AcDbSpline
210
0.0
220
0.0
230
1.0
 70
    24
 71
     1
 72
     4
 73
     2
 74
     0
 42
0.0000000001
 43
0.0000000001
 40
0.0
 40
0.0
 40
1.0
 40
1.0
 10
355.4626241750916
 20
1264.636796655191
 30
0.0
 10
355.4626241750916
 20
1267.646795826091
 30
0.0
  0
SPLINE
  5
8D2D
330
1F
100
AcDbEntity
  8
0
  6
Continuous
 62
     7
370
    15
100
AcDbSpline
210
0.0
220
0.0
230
1.0
 70
    24
 71
     1
 72
     4
 73
     2
 74
     0
 42
0.0000000001
 43
0.0000000001
 40
0.0
 40
0.0
 40
1.0
 40
1.0
 10
352.4626241490146
 20
1267.646795826091
 30
0.0
 10
352.4626241490146
 20
1264.636796655191
 30
0.0
  0
SPLINE
  5
8D2E
330
1F
100
AcDbEntity
  8
0
  6
Continuous
 62
     7
370
    15
100
AcDbSpline
210
0.0
220
0.0
230
1.0
 70
    24
 71
     1
 72
     4
 73
     2
 74
     0
 42
0.0000000001
 43
0.0000000001
 40
0.0
 40
0.0
 40
1.0
 40
1.0
 10
355.4626241750916
 20
1278.73679645179
 30
0.0
 10
355.4626241750916
 20
1283.036796350439
 30
0.0
  0
SPLINE
  5
8D2F
330
1F
100
AcDbEntity
  8
0
  6
Continuous
 62
     7
370
    15
100
AcDbSpline
210
0.0
220
0.0
230
1.0
 70
    24
 71
     1
 72
     4
 73
     2
 74
     0
 42
0.0000000001
 43
0.0000000001
 40
0.0
 40
0.0
 40
1.0
 40
1.0
 10
352.4626241490146
 20
1283.036796350439
 30
0.0
 10
352.4626241490146
 20
1278.73679645179
 30
0.0
  0
SPLINE
  5
8D30
330
1F
100
AcDbEntity
  8
0
  6
Continuous
 62
     7
370
    15
100
AcDbSpline
210
0.0
220
0.0
230
1.0
 70
    24
 71
     1
 72
     4
 73
     2
 74
     0
 42
0.0000000001
 43
0.0000000001
 40
0.0
 40
0.0
 40
1.0
 40
1.0
 10
355.4626241750916
 20
1292.736796418263
 30
0.0
 10
355.2626245148381
 20
1292.536796758009
 30
0.0
  0
SPLINE
  5
8D31
330
1F
100
AcDbEntity
  8
0
  6
Continuous
 62
     7
370
    15
100
AcDbSpline
210
0.0
220
0.0
230
1.0
 70
    24
 71
     1
 72
     4
 73
     2
 74
     0
 42
0.0000000001
 43
0.0000000001
 40
0.0
 40
0.0
 40
1.0
 40
1.0
 10
357.0626242510875
 20
1292.736796418263
 30
0.0
 10
355.4626241750916
 20
1292.736796418263
 30
0.0
  0
SPLINE
  5
8D34
330
1F
100
AcDbEntity
  8
0
  6
Continuous
 62
     7
370
    15
100
AcDbSpline
210
0.0
220
0.0
230
1.0
 70
    24
 71
     1
 72
     4
 73
     2
 74
     0
 42
0.0000000001
 43
0.0000000001
 40
0.0
 40
0.0
 40
1.0
 40
1.0
 10
341.7626246303221
 20
1288.736796238296
 30
0.0
 10
341.5626249700685
 20
1288.536796112381
 30
0.0
  0
SPLINE
  5
8D35
330
1F
100
AcDbEntity
  8
0
  6
Continuous
 62
     7
370
    15
100
AcDbSpline
210
0.0
220
0.0
230
1.0
 70
    24
 71
     1
 72
     4
 73
     2
 74
     0
 42
0.0000000001
 43
0.0000000001
 40
0.0
 40
0.0
 40
1.0
 40
1.0
 10
341.5626249700685
 20
1282.936796365175
 30
0.0
 10
341.7626246303221
 20
1282.736796355675
 30
0.0
  0
SPLINE
  5
8D36
330
1F
100
AcDbEntity
  8
0
  6
Continuous
 62
     7
370
    15
100
AcDbSpline
210
0.0
220
0.0
230
1.0
 70
    24
 71
     1
 72
     4
 73
     2
 74
     0
 42
0.0000000001
 43
0.0000000001
 40
0.0
 40
0.0
 40
1.0
 40
1.0
 10
355.2626245148381
 20
1288.936796354188
 30
0.0
 10
355.0626243889233
 20
1288.936796354188
 30
0.0
  0
LINE
  5
8D37
330
1F
100
AcDbEntity
  8
0
  6
Continuous
 62
     7
370
    15
100
AcDbLine
 10
357.0626242510875
 20
1292.936796078516
 30
0.0
 11
357.0626242510875
 21
1270.036796795262
 31
0.0
  0
LINE
  5
8D38
330
1F
100
AcDbEntity
  8
0
  6
Continuous
 62
     7
370
    15
100
AcDbLine
 10
373.5626246273418
 20
1270.036796795262
 30
0.0
 11
373.5626246273418
 21
1292.936796078516
 31
0.0
  0
LINE
  5
8D39
330
1F
100
AcDbEntity
  8
0
  6
Continuous
 62
     7
370
    15
100
AcDbLine
 10
369.1626246511837
 20
1270.46710228367
 30
0.0
 11
369.1626246511837
 21
1269.736796373559
 31
0.0
  0
ARC
  5
8D3A
330
1F
100
AcDbEntity
  8
0
  6
Continuous
 62
     7
370
    15
100
AcDbCircle
 10
367.662624285205
 20
1271.936796355675
 30
0.0
 40
2.099999999999991
100
AcDbArc
 50
315.5846914028112
 51
224.4153085971888
  0
LINE
  5
8D3B
330
1F
100
AcDbEntity
  8
0
  6
Continuous
 62
     7
370
    15
100
AcDbLine
 10
366.1626241594454
 20
1269.736796373559
 30
0.0
 11
366.1626241594454
 21
1270.46710228367
 31
0.0
  0
LINE
  5
8D3C
330
1F
100
AcDbEntity
  8
0
  6
Continuous
 62
     7
370
    15
100
AcDbLine
 10
357.3626242071291
 20
1269.736796373559
 30
0.0
 11
366.1626241594454
 21
1269.736796373559
 31
0.0
  0
CIRCLE
  5
8D3D
330
1F
100
AcDbEntity
  8
0
  6
Continuous
 62
     7
370
    15
100
AcDbCircle
 10
366.0626242852048
 20
1279.236796355675
 30
0.0
 40
5.000000000000028
  0
LINE
  5
8D3E
330
1F
100
AcDbEntity
  8
0
  6
Continuous
 62
     7
370
    15
100
AcDbLine
 10
357.3626242071291
 20
1293.236796500219
 30
0.0
 11
357.0626242510875
 21
1292.936796078516
 31
0.0
  0
LINE
  5
8D3F
330
1F
100
AcDbEntity
  8
0
  6
Continuous
 62
     7
370
    15
100
AcDbLine
 10
373.262624205639
 20
1293.236796500219
 30
0.0
 11
357.3626242071291
 21
1293.236796500219
 31
0.0
  0
LINE
  5
8D40
330
1F
100
AcDbEntity
  8
0
  6
Continuous
 62
     7
370
    15
100
AcDbLine
 10
373.5626246273418
 20
1292.936796078516
 30
0.0
 11
373.262624205639
 21
1293.236796500219
 31
0.0
  0
LINE
  5
8D41
330
1F
100
AcDbEntity
  8
0
  6
Continuous
 62
     7
370
    15
100
AcDbLine
 10
373.262624205639
 20
1269.736796373559
 30
0.0
 11
373.5626246273418
 21
1270.036796795262
 31
0.0
  0
LINE
  5
8D42
330
1F
100
AcDbEntity
  8
0
  6
Continuous
 62
     7
370
    15
100
AcDbLine
 10
369.1626246511837
 20
1269.736796373559
 30
0.0
 11
373.262624205639
 21
1269.736796373559
 31
0.0
  0
LINE
  5
8D43
330
1F
100
AcDbEntity
  8
0
  6
Continuous
 62
     7
370
    15
100
AcDbLine
 10
357.0626242510875
 20
1270.036796795262
 30
0.0
 11
357.3626242071291
 21
1269.736796373559
 31
0.0
  0
CIRCLE
  5
8D44
330
1F
100
AcDbEntity
  8
0
  6
Continuous
 62
     7
370
    15
100
AcDbCircle
 10
366.0626242852048
 20
1279.236796355675
 30
0.0
 40
4.800000000000039
  0
LINE
  5
8D45
330
1F
100
AcDbEntity
  8
0
  6
Continuous
 62
     7
370
    15
100
AcDbLine
 10
357.0626242510875
 20
1270.036796795262
 30
0.0
 11
350.6626244127651
 21
1270.036796795262
 31
0.0
  0
LINE
  5
8D46
330
1F
100
AcDbEntity
  8
0
  6
Continuous
 62
     7
370
    15
100
AcDbLine
 10
350.6626244127651
 20
1270.036796795262
 30
0.0
 11
350.6626244127651
 21
1270.236796455516
 31
0.0
  0
LINE
  5
8D47
330
1F
100
AcDbEntity
  8
0
  6
Continuous
 62
     7
370
    15
100
AcDbLine
 10
350.6626244127651
 20
1270.236796455516
 30
0.0
 11
357.0626242510875
 21
1270.236796455516
 31
0.0
  0
LINE
  5
8D48
330
1F
100
AcDbEntity
  8
0
  6
Continuous
 62
     7
370
    15
100
AcDbLine
 10
357.0626242510875
 20
1275.536796299798
 30
0.0
 11
350.6626244127651
 21
1275.536796299798
 31
0.0
  0
LINE
  5
8D49
330
1F
100
AcDbEntity
  8
0
  6
Continuous
 62
     7
370
    15
100
AcDbLine
 10
350.6626244127651
 20
1275.536796299798
 30
0.0
 11
350.462623821189
 21
1275.736796425713
 31
0.0
  0
LINE
  5
8D4A
330
1F
100
AcDbEntity
  8
0
  6
Continuous
 62
     7
370
    15
100
AcDbLine
 10
350.462623821189
 20
1275.736796425713
 30
0.0
 11
357.0626242510875
 21
1275.736796425713
 31
0.0
  0
LINE
  5
8D4B
330
1F
100
AcDbEntity
  8
0
  6
Continuous
 62
     7
370
    15
100
AcDbLine
 10
350.6626244127651
 20
1275.536796299798
 30
0.0
 11
350.6626244127651
 21
1270.236796455516
 31
0.0
  0
LINE
  5
8D4C
330
1F
100
AcDbEntity
  8
0
  6
Continuous
 62
     7
370
    15
100
AcDbLine
 10
350.6626244127651
 20
1270.236796455516
 30
0.0
 11
350.462623821189
 21
1270.236796455516
 31
0.0
  0
LINE
  5
8D4D
330
1F
100
AcDbEntity
  8
0
  6
Continuous
 62
     7
370
    15
100
AcDbLine
 10
350.462623821189
 20
1270.236796455516
 30
0.0
 11
350.462623821189
 21
1275.736796425713
 31
0.0
  0
LINE
  5
8D4E
330
1F
100
AcDbEntity
  8
0
  6
Continuous
 62
     7
370
    15
100
AcDbLine
 10
350.6626244127651
 20
1270.036796795262
 30
0.0
 11
350.462623821189
 21
1270.236796455516
 31
0.0
  0
LINE
  5
8D4F
330
1F
100
AcDbEntity
  8
0
  6
Continuous
 62
     7
370
    15
100
AcDbLine
 10
353.9626243948837
 20
1268.402542674972
 30
0.0
 11
353.9626243948837
 21
1270.036796795262
 31
0.0
  0
ELLIPSE
  5
8D50
330
1F
100
AcDbEntity
  8
0
  6
Continuous
 62
     7
370
    15
100
AcDbEllipse
 10
353.9626242852048
 20
1272.10659433032
 30
0.0
 11
1.591876474125485
 21
3.843129773456553
 31
0.0
210
0.0
220
0.0
230
1.0
 40
0.5993709352028354
 41
3.384940131127179
 42
3.746307255033886
  0
LINE
  5
8D51
330
1F
100
AcDbEntity
  8
0
  6
Continuous
 62
     7
370
    15
100
AcDbLine
 10
352.2025737404724
 20
1268.146795908047
 30
0.0
 11
352.9726750641962
 21
1268.146795908047
 31
0.0
  0
ELLIPSE
  5
8D52
330
1F
100
AcDbEntity
  8
0
  6
Continuous
 62
     7
370
    15
100
AcDbEllipse
 10
351.2126242852048
 20
1272.10659433032
 30
0.0
 11
-1.591876474125484
 21
3.843129773456553
 31
0.0
210
0.0
220
0.0
230
1.0
 40
0.5993709352028264
 41
2.536878052145711
 42
2.898245176052414
  0
LINE
  5
8D53
330
1F
100
AcDbEntity
  8
0
  6
Continuous
 62
     7
370
    15
100
AcDbLine
 10
351.2126244097849
 20
1268.402542674972
 30
0.0
 11
351.2126244097849
 21
1270.036796795262
 31
0.0
  0
LINE
  5
8D54
330
1F
100
AcDbEntity
  8
0
  6
Continuous
 62
     7
370
    15
100
AcDbLine
 10
356.7126243799826
 20
1268.402542674972
 30
0.0
 11
356.7126243799826
 21
1270.036796795262
 31
0.0
  0
ELLIPSE
  5
8D55
330
1F
100
AcDbEntity
  8
0
  6
Continuous
 62
     7
370
    15
100
AcDbEllipse
 10
356.7126242852048
 20
1272.10659433032
 30
0.0
 11
1.591876474125513
 21
3.843129773456553
 31
0.0
210
0.0
220
0.0
230
1.0
 40
0.5993709352028337
 41
3.384940131127193
 42
3.746307255033896
  0
LINE
  5
8D56
330
1F
100
AcDbEntity
  8
0
  6
Continuous
 62
     7
370
    15
100
AcDbLine
 10
354.9525737255712
 20
1268.146795908047
 30
0.0
 11
355.7226745836338
 21
1268.146795908047
 31
0.0
  0
ELLIPSE
  5
8D57
330
1F
100
AcDbEntity
  8
0
  6
Continuous
 62
     7
370
    15
100
AcDbEllipse
 10
353.9626242852048
 20
1272.10659433032
 30
0.0
 11
-1.591876474125598
 21
3.843129773456524
 31
0.0
210
0.0
220
0.0
230
1.0
 40
0.5993709352028354
 41
2.536878052145681
 42
2.898245176052392
  0
LINE
  5
8D58
330
1F
100
AcDbEntity
  8
0
  6
Continuous
 62
     7
370
    15
100
AcDbLine
 10
352.9726750641962
 20
1267.646795826091
 30
0.0
 11
352.9726750641962
 21
1268.146795908047
 31
0.0
  0
LINE
  5
8D59
330
1F
100
AcDbEntity
  8
0
  6
Continuous
 62
     7
370
    15
100
AcDbLine
 10
354.9525737255712
 20
1268.146795908047
 30
0.0
 11
354.9525737255712
 21
1267.646795826091
 31
0.0
  0
LINE
  5
8D5A
330
1F
100
AcDbEntity
  8
0
  6
Continuous
 62
     7
370
    15
100
AcDbLine
 10
354.9525737255712
 20
1267.646795826091
 30
0.0
 11
352.9726750641962
 21
1267.646795826091
 31
0.0
  0
LINE
  5
8D5B
330
1F
100
AcDbEntity
  8
0
  6
Continuous
 62
     7
370
    15
100
AcDbLine
 10
357.0626242510875
 20
1278.536796325876
 30
0.0
 11
350.462623821189
 21
1278.536796325876
 31
0.0
  0
LINE
  5
8D5C
330
1F
100
AcDbEntity
  8
0
  6
Continuous
 62
     7
370
    15
100
AcDbLine
 10
350.462623821189
 20
1278.536796325876
 30
0.0
 11
350.6626244127651
 21
1278.73679645179
 31
0.0
  0
LINE
  5
8D5D
330
1F
100
AcDbEntity
  8
0
  6
Continuous
 62
     7
370
    15
100
AcDbLine
 10
350.6626244127651
 20
1278.73679645179
 30
0.0
 11
357.0626242510875
 21
1278.73679645179
 31
0.0
  0
LINE
  5
8D5E
330
1F
100
AcDbEntity
  8
0
  6
Continuous
 62
     7
370
    15
100
AcDbLine
 10
350.462623821189
 20
1278.536796325876
 30
0.0
 11
350.462623821189
 21
1275.736796425713
 31
0.0
  0
LINE
  5
8D5F
330
1F
100
AcDbEntity
  8
0
  6
Continuous
 62
     7
370
    15
100
AcDbLine
 10
355.2226749673387
 20
1267.646795826091
 30
0.0
 11
355.7226745836338
 21
1268.146795908047
 31
0.0
  0
LINE
  5
8D60
330
1F
100
AcDbEntity
  8
0
  6
Continuous
 62
     7
370
    15
100
AcDbLine
 10
355.2226749673387
 20
1267.646795826091
 30
0.0
 11
354.9525737255712
 21
1267.646795826091
 31
0.0
  0
LINE
  5
8D61
330
1F
100
AcDbEntity
  8
0
  6
Continuous
 62
     7
370
    15
100
AcDbLine
 10
352.9726750641962
 20
1267.646795826091
 30
0.0
 11
352.7025738224288
 21
1267.646795826091
 31
0.0
  0
LINE
  5
8D62
330
1F
100
AcDbEntity
  8
0
  6
Continuous
 62
     7
370
    15
100
AcDbLine
 10
352.2025737404724
 20
1268.146795908047
 30
0.0
 11
352.7025738224288
 21
1267.646795826091
 31
0.0
  0
LINE
  5
8D63
330
1F
100
AcDbEntity
  8
0
  6
Continuous
 62
     7
370
    15
100
AcDbLine
 10
356.7126243799826
 20
1268.402542674972
 30
0.0
 11
356.7126243799826
 21
1268.146795908047
 31
0.0
  0
LINE
  5
8D64
330
1F
100
AcDbEntity
  8
0
  6
Continuous
 62
     7
370
    15
100
AcDbLine
 10
356.7126243799826
 20
1268.146795908047
 30
0.0
 11
356.2126242980262
 21
1267.646795826091
 31
0.0
  0
LINE
  5
8D65
330
1F
100
AcDbEntity
  8
0
  6
Continuous
 62
     7
370
    15
100
AcDbLine
 10
356.2126242980262
 20
1267.646795826091
 30
0.0
 11
355.2226749673387
 21
1267.646795826091
 31
0.0
  0
LINE
  5
8D66
330
1F
100
AcDbEntity
  8
0
  6
Continuous
 62
     7
370
    15
100
AcDbLine
 10
351.7126244917413
 20
1267.646795826091
 30
0.0
 11
351.2126244097849
 21
1268.146795908047
 31
0.0
  0
LINE
  5
8D67
330
1F
100
AcDbEntity
  8
0
  6
Continuous
 62
     7
370
    15
100
AcDbLine
 10
351.2126244097849
 20
1268.146795908047
 30
0.0
 11
351.2126244097849
 21
1268.402542674972
 31
0.0
  0
LINE
  5
8D68
330
1F
100
AcDbEntity
  8
0
  6
Continuous
 62
     7
370
    15
100
AcDbLine
 10
352.7025738224288
 20
1267.646795826091
 30
0.0
 11
351.7126244917413
 21
1267.646795826091
 31
0.0
  0
LINE
  5
8D69
330
1F
100
AcDbEntity
  8
0
  6
Continuous
 62
     7
370
    15
100
AcDbLine
 10
355.4626241750916
 20
1283.036796350439
 30
0.0
 11
352.4626241490146
 21
1283.036796350439
 31
0.0
  0
LINE
  5
8D6A
330
1F
100
AcDbEntity
  8
0
  6
Continuous
 62
     7
370
    15
100
AcDbLine
 10
352.6626247405907
 20
1283.236796356301
 30
0.0
 11
355.2626245148381
 21
1283.236796356301
 31
0.0
  0
LINE
  5
8D6B
330
1F
100
AcDbEntity
  8
0
  6
Continuous
 62
     7
370
    15
100
AcDbLine
 10
355.2626245148381
 20
1264.436796994938
 30
0.0
 11
352.6626247405907
 21
1264.436796994938
 31
0.0
  0
LINE
  5
8D6C
330
1F
100
AcDbEntity
  8
0
  6
Continuous
 62
     7
370
    15
100
AcDbLine
 10
353.9626243948837
 20
1264.636796655191
 30
0.0
 11
355.4626241750916
 21
1264.636796655191
 31
0.0
  0
LINE
  5
8D6D
330
1F
100
AcDbEntity
  8
0
  6
Continuous
 62
     7
370
    15
100
AcDbLine
 10
352.4626241490146
 20
1264.636796655191
 30
0.0
 11
353.9626243948837
 21
1264.636796655191
 31
0.0
  0
LINE
  5
8D6E
330
1F
100
AcDbEntity
  8
0
  6
Continuous
 62
     7
370
    15
100
AcDbLine
 10
350.462623821189
 20
1272.136796021892
 30
0.0
 11
350.462623821189
 21
1275.186796428694
 31
0.0
  0
LINE
  5
8D6F
330
1F
100
AcDbEntity
  8
0
  6
Continuous
 62
     7
370
    15
100
AcDbLine
 10
355.2626245148381
 20
1283.236796356301
 30
0.0
 11
355.2626245148381
 21
1292.536796758009
 31
0.0
  0
LINE
  5
8D70
330
1F
100
AcDbEntity
  8
0
  6
Continuous
 62
     7
370
    15
100
AcDbLine
 10
355.4626241750916
 20
1285.736796435027
 30
0.0
 11
355.4626241750916
 21
1283.036796350439
 31
0.0
  0
LINE
  5
8D71
330
1F
100
AcDbEntity
  8
0
  6
Continuous
 62
     7
370
    15
100
AcDbLine
 10
355.4626241750916
 20
1292.736796418263
 30
0.0
 11
355.4626241750916
 21
1285.736796435027
 31
0.0
  0
ARC
  5
8D72
330
1F
100
AcDbEntity
  8
0
  6
Continuous
 62
     7
370
    15
100
AcDbCircle
 10
352.0626242852048
 20
1280.736796355675
 30
0.0
 40
2.750000000000037
100
AcDbArc
 50
65.38002267133731
 51
90.0
  0
ARC
  5
8D73
330
1F
100
AcDbEntity
  8
0
  6
Continuous
 62
     7
370
    15
100
AcDbCircle
 10
352.0626242852048
 20
1280.736796355675
 30
0.0
 40
2.750000000000028
100
AcDbArc
 50
90.0
 51
234.4214742675454
  0
LINE
  5
8D74
330
1F
100
AcDbEntity
  8
0
  6
Continuous
 62
     7
370
    15
100
AcDbLine
 10
351.0626246645947
 20
1281.314146693854
 30
0.0
 11
351.0626246645947
 21
1280.159446166886
 31
0.0
  0
LINE
  5
8D75
330
1F
100
AcDbEntity
  8
0
  6
Continuous
 62
     7
370
    15
100
AcDbLine
 10
351.0626246645947
 20
1280.159446166886
 30
0.0
 11
352.0626238971849
 21
1279.582095786987
 31
0.0
  0
LINE
  5
8D76
330
1F
100
AcDbEntity
  8
0
  6
Continuous
 62
     7
370
    15
100
AcDbLine
 10
352.0626238971849
 20
1279.582095786987
 30
0.0
 11
352.4626241490146
 21
1279.813035845814
 31
0.0
  0
LINE
  5
8D77
330
1F
100
AcDbEntity
  8
0
  6
Continuous
 62
     7
370
    15
100
AcDbLine
 10
352.4626241490146
 20
1281.660556782095
 30
0.0
 11
352.0626238971849
 21
1281.891496840922
 31
0.0
  0
LINE
  5
8D78
330
1F
100
AcDbEntity
  8
0
  6
Continuous
 62
     7
370
    15
100
AcDbLine
 10
352.0626238971849
 20
1281.891496840922
 30
0.0
 11
351.0626246645947
 21
1281.314146693854
 31
0.0
  0
CIRCLE
  5
8D79
330
1F
100
AcDbEntity
  8
0
  6
Continuous
 62
     7
370
    15
100
AcDbCircle
 10
352.0626242852048
 20
1290.736796355675
 30
0.0
 40
1.549999999999982
  0
CIRCLE
  5
8D7A
330
1F
100
AcDbEntity
  8
0
  6
Continuous
 62
     7
370
    15
100
AcDbCircle
 10
352.0626242852048
 20
1290.736796355675
 30
0.0
 40
2.75
  0
LINE
  5
8D7B
330
1F
100
AcDbEntity
  8
0
  6
Continuous
 62
     7
370
    15
100
AcDbLine
 10
353.0626240610977
 20
1291.314146237506
 30
0.0
 11
352.0626238971849
 21
1291.891497315897
 31
0.0
  0
LINE
  5
8D7C
330
1F
100
AcDbEntity
  8
0
  6
Continuous
 62
     7
370
    15
100
AcDbLine
 10
353.0626240610977
 20
1290.159445943369
 30
0.0
 11
353.0626240610977
 21
1291.314146237506
 31
0.0
  0
LINE
  5
8D7D
330
1F
100
AcDbEntity
  8
0
  6
Continuous
 62
     7
370
    15
100
AcDbLine
 10
352.0626238971849
 20
1289.5820957963
 30
0.0
 11
353.0626240610977
 21
1290.159445943369
 31
0.0
  0
LINE
  5
8D7E
330
1F
100
AcDbEntity
  8
0
  6
Continuous
 62
     7
370
    15
100
AcDbLine
 10
352.0626238971849
 20
1291.891497315897
 30
0.0
 11
351.0626246645947
 21
1291.314146237506
 31
0.0
  0
LINE
  5
8D7F
330
1F
100
AcDbEntity
  8
0
  6
Continuous
 62
     7
370
    15
100
AcDbLine
 10
351.0626246645947
 20
1291.314146237506
 30
0.0
 11
351.0626246645947
 21
1290.159445943369
 31
0.0
  0
LINE
  5
8D80
330
1F
100
AcDbEntity
  8
0
  6
Continuous
 62
     7
370
    15
100
AcDbLine
 10
351.0626246645947
 20
1290.159445943369
 30
0.0
 11
352.0626238971849
 21
1289.5820957963
 31
0.0
  0
LINE
  5
8D81
330
1F
100
AcDbEntity
  8
0
  6
Continuous
 62
     7
370
    15
100
AcDbLine
 10
350.6626244127651
 20
1270.036796795262
 30
0.0
 11
351.2126244097849
 21
1270.036796795262
 31
0.0
  0
LINE
  5
8D82
330
1F
100
AcDbEntity
  8
0
  6
Continuous
 62
     7
370
    15
100
AcDbLine
 10
350.462623821189
 20
1270.236796455516
 30
0.0
 11
350.462623821189
 21
1272.136796021892
 31
0.0
  0
LINE
  5
8D83
330
1F
100
AcDbEntity
  8
0
  6
Continuous
 62
     7
370
    15
100
AcDbLine
 10
349.2626239970227
 20
1293.736796582176
 30
0.0
 11
349.2626239970227
 21
1277.736796287878
 31
0.0
  0
LINE
  5
8D84
330
1F
100
AcDbEntity
  8
0
  6
Continuous
 62
     7
370
    15
100
AcDbLine
 10
349.0626243367692
 20
1277.936796413792
 30
0.0
 11
349.0626243367692
 21
1293.536795990599
 31
0.0
  0
LINE
  5
8D85
330
1F
100
AcDbEntity
  8
0
  6
Continuous
 62
     7
370
    15
100
AcDbLine
 10
349.2626239970227
 20
1293.736796582176
 30
0.0
 11
349.0626243367692
 21
1293.536795990599
 31
0.0
  0
LINE
  5
8D86
330
1F
100
AcDbEntity
  8
0
  6
Continuous
 62
     7
370
    15
100
AcDbLine
 10
349.2626239970227
 20
1277.736796287878
 30
0.0
 11
349.0626243367692
 21
1277.936796413792
 31
0.0
  0
LINE
  5
8D87
330
1F
100
AcDbEntity
  8
0
  6
Continuous
 62
     7
370
    15
100
AcDbLine
 10
349.2626239970227
 20
1277.736796287878
 30
0.0
 11
350.462623821189
 21
1277.736796287878
 31
0.0
  0
LINE
  5
8D88
330
1F
100
AcDbEntity
  8
0
  6
Continuous
 62
     7
370
    15
100
AcDbLine
 10
355.0626243889233
 20
1283.236796356301
 30
0.0
 11
355.0626243889233
 21
1293.736796582176
 31
0.0
  0
LINE
  5
8D89
330
1F
100
AcDbEntity
  8
0
  6
Continuous
 62
     7
370
    15
100
AcDbLine
 10
349.2626239970227
 20
1293.736796582176
 30
0.0
 11
355.0626243889233
 21
1293.736796582176
 31
0.0
  0
LINE
  5
8D8B
330
1F
100
AcDbEntity
  8
0
  6
Continuous
 62
     7
370
    15
100
AcDbLine
 10
341.7626246303221
 20
1283.752485257287
 30
0.0
 11
341.7626246303221
 21
1282.736796355675
 31
0.0
  0
LINE
  5
8D8C
330
1F
100
AcDbEntity
  8
0
  6
Continuous
 62
     7
370
    15
100
AcDbLine
 10
341.7626246202995
 20
1288.736796228273
 30
0.0
 11
341.762624630454
 21
1287.721108432354
 31
0.0
  0
LINE
  5
8D8E
330
1F
100
AcDbEntity
  8
0
  6
Continuous
 62
     7
370
    15
100
AcDbLine
 10
349.2626239970227
 20
1299.73679663433
 30
0.0
 11
349.2626239970227
 21
1293.736796582176
 31
0.0
  0
LINE
  5
8D8F
330
1F
100
AcDbEntity
  8
0
  6
Continuous
 62
     7
370
    15
100
AcDbLine
 10
349.2626239970227
 20
1299.73679663433
 30
0.0
 11
349.0626243367692
 21
1299.73679663433
 31
0.0
  0
LINE
  5
8D90
330
1F
100
AcDbEntity
  8
0
  6
Continuous
 62
     7
370
    15
100
AcDbLine
 10
349.0626243367692
 20
1293.536795990599
 30
0.0
 11
349.0626243367692
 21
1299.73679663433
 31
0.0
  0
SPLINE
  5
8D91
330
1F
100
AcDbEntity
  8
0
  6
Continuous
 62
     7
370
    15
100
AcDbSpline
210
0.0
220
0.0
230
1.0
 70
     8
 71
     3
 72
     8
 73
     4
 74
     0
 42
0.0000000001
 43
0.0000000001
 40
0.0
 40
0.0
 40
0.0
 40
0.0
 40
1.0
 40
1.0
 40
1.0
 40
1.0
 10
341.5626246303223
 20
1284.091671297654
 30
0.0
 10
341.6261468949019
 20
1283.97675519723
 30
0.0
 10
341.6931008646522
 20
1283.863862591149
 30
0.0
 10
341.7626246303221
 20
1283.752485257288
 30
0.0
  0
SPLINE
  5
8D92
330
1F
100
AcDbEntity
  8
0
  6
Continuous
 62
     7
370
    15
100
AcDbSpline
210
0.0
220
0.0
230
1.0
 70
     8
 71
     3
 72
     8
 73
     4
 74
     0
 42
0.0000000001
 43
0.0000000001
 40
0.0
 40
0.0
 40
0.0
 40
0.0
 40
1.0
 40
1.0
 40
1.0
 40
1.0
 10
341.7626239400874
 20
1287.721108432354
 30
0.0
 10
341.6931001744174
 20
1287.609731098492
 30
0.0
 10
341.6261462046668
 20
1287.496838492412
 30
0.0
 10
341.5626239400872
 20
1287.381922391988
 30
0.0
  0
LINE
  5
8D93
330
1F
100
AcDbEntity
  8
0
  6
Continuous
 62
     7
370
    15
100
AcDbLine
 10
341.5626249700685
 20
1282.936796365175
 30
0.0
 11
341.5626249700685
 21
1288.536796112381
 31
0.0
  0
LINE
  5
8D95
330
1F
100
AcDbEntity
  8
0
  6
Continuous
 62
     7
370
    15
100
AcDbLine
 10
355.0626243889233
 20
1287.734294997586
 30
0.0
 11
355.2626245148381
 21
1287.734294997586
 31
0.0
  0
LINE
  5
8D96
330
1F
100
AcDbEntity
  8
0
  6
Continuous
 62
     7
370
    15
100
AcDbLine
 10
355.0626243889233
 20
1283.739297930675
 30
0.0
 11
355.2626245148381
 21
1283.739297930675
 31
0.0
  0
LINE
  5
8D97
330
1F
100
AcDbEntity
  8
0
  6
Continuous
 62
     7
370
    15
100
AcDbLine
 10
355.0626243889233
 20
1299.73679663433
 30
0.0
 11
349.2626239970227
 21
1299.73679663433
 31
0.0
  0
LINE
  5
8D98
330
1F
100
AcDbEntity
  8
0
  6
Continuous
 62
     7
370
    15
100
AcDbLine
 10
355.0626243889233
 20
1293.736796582176
 30
0.0
 11
355.0626243889233
 21
1299.73679663433
 31
0.0
  0
LINE
  5
8D99
330
1F
100
AcDbEntity
  8
0
  6
Continuous
 62
     7
370
    15
100
AcDbLine
 10
349.2626239970227
 20
1299.73679663433
 30
0.0
 11
349.2626239970227
 21
1299.936796294583
 31
0.0
  0
LINE
  5
8D9A
330
1F
100
AcDbEntity
  8
0
  6
Continuous
 62
     7
370
    15
100
AcDbLine
 10
349.0626243367692
 20
1299.73679663433
 30
0.0
 11
349.2626239970227
 21
1299.936796294583
 31
0.0
  0
LINE
  5
8D9C
330
1F
100
AcDbEntity
  8
0
  6
Continuous
 62
     7
370
    15
100
AcDbLine
 10
349.2626239970227
 20
1299.936796294583
 30
0.0
 11
354.8626242630084
 21
1299.936796294583
 31
0.0
  0
LINE
  5
8D9D
330
1F
100
AcDbEntity
  8
0
  6
Continuous
 62
     7
370
    15
100
AcDbLine
 10
354.8626242630084
 20
1299.936796294583
 30
0.0
 11
355.0626243889233
 21
1299.73679663433
 31
0.0
  0
LINE
  5
8D9E
330
1F
100
AcDbEntity
  8
0
  6
Continuous
 62
     7
370
    15
100
AcDbLine
 10
350.462623821189
 20
1277.736796287878
 30
0.0
 11
350.462623821189
 21
1275.736796425713
 31
0.0
  0
LINE
  5
8D9F
330
1F
100
AcDbEntity
  8
0
  6
Continuous
 62
     7
370
    15
100
AcDbLine
 10
350.462623821189
 20
1270.236796455516
 30
0.0
 11
350.462623821189
 21
1272.136796021892
 31
0.0
  0
LINE
  5
8DA0
330
1F
100
AcDbEntity
  8
0
  6
Continuous
 62
     7
370
    15
100
AcDbLine
 10
350.6626244127651
 20
1270.036796795262
 30
0.0
 11
351.2126244097849
 21
1270.036796795262
 31
0.0
  0
ARC
  5
8DA1
330
1F
100
AcDbEntity
  8
0
  6
Continuous
 62
     7
370
    15
100
AcDbCircle
 10
352.0626242852048
 20
1280.736796355675
 30
0.0
 40
1.550000000000039
100
AcDbArc
 50
90.0
 51
284.9552483166436
  0
LWPOLYLINE
  5
8DA2
330
1F
100
AcDbEntity
  8
0
  6
Continuous
 62
     7
370
    15
100
AcDbPolyline
 90
        3
 70
   128
 43
0.0
 10
352.4626241490146
 20
1282.234294212481
 10
352.3317789152165
 20
1282.263248332834
 10
352.0626238971849
 20
1282.286796358472
  0
ARC
  5
94B3
330
1F
100
AcDbEntity
  8
0
100
AcDbCircle
 10
436.8101534938859
 20
1285.736796355675
 30
0.0
 40
3.0
100
AcDbArc
 50
41.40957951337308
 51
318.5904204866269
  0
LINE
  5
94B5
330
1F
100
AcDbEntity
  8
0
  6
Continuous
 62
     7
370
    15
100
AcDbLine
 10
439.0601549691007
 20
1287.721108166236
 30
0.0
 11
439.0601549691008
 21
1283.752484545114
 31
0.0
  0
ARC
  5
94E2
330
1F
100
AcDbEntity
  8
0
100
AcDbCircle
 10
436.8101534938861
 20
1285.736796355675
 30
0.0
 40
2.9
100
AcDbArc
 50
39.11669758215238
 51
320.8833024178519
  0
LINE
  5
94E3
102
{ACAD_REACTORS
330
9511
102
}
330
1F
100
AcDbEntity
  8
0
100
AcDbLine
 10
349.0626243367692
 20
1288.736796355675
 30
0.0
 11
341.7626246202995
 21
1288.736796228273
 31
0.0
  0
LINE
  5
94E4
102
{ACAD_REACTORS
330
9511
102
}
330
1F
100
AcDbEntity
  8
0
100
AcDbLine
 10
349.0626243367692
 20
1282.736796355675
 30
0.0
 11
341.7626246303221
 21
1282.736796355675
 31
0.0
  0
LINE
  5
94EF
330
1F
100
AcDbEntity
  8
0
100
AcDbLine
 10
341.7626239400872
 20
1287.721108432354
 30
0.0
 11
349.0626243367692
 21
1287.721108432354
 31
0.0
  0
LINE
  5
94F0
102
{ACAD_REACTORS
330
81A9
102
}
330
1F
100
AcDbEntity
  8
AM_7
  6
AM_ISO08W050x2
100
AcDbLine
 10
323.0183088758439
 20
1285.689242601761
 30
0.0
 11
368.7828857633089
 21
1285.689242601761
 31
0.0
  0
LINE
  5
94F1
330
1F
100
AcDbEntity
  8
0
100
AcDbLine
 10
341.7626246303221
 20
1283.752485257287
 30
0.0
 11
349.0626243367693
 21
1283.752485257288
 31
0.0
  0
DIMENSION
  5
9501
102
{ACAD_XDICTIONARY
360
9510
102
}
102
{ACAD_REACTORS
330
9511
102
}
330
1F
100
AcDbEntity
  8
AM_5
100
AcDbDimension
  2
*D30
 10
337.8396555968478
 20
1282.736796355675
 30
0.0
 11
335.3896555968476
 21
1273.674985332053
 31
0.0
 70
    32
  1
%%C<>
 71
     5
 42
5.999999882620386
  3
AM_ISO$0
100
AcDbAlignedDimension
 13
341.7626246303221
 23
1288.736796238296
 33
0.0
 14
341.7626246303221
 24
1282.736796355675
 34
0.0
 50
90.00000099994677
100
AcDbRotatedDimension
1001
ACAD
1000
DSTYLE
1002
{
1070
    40
1040
1.0
1070
   144
1040
1.0
1070
   271
1070
     1
1070
   272
1070
     8
1002
}
  0
ENDSEC
  0
SECTION
  2
OBJECTS
  0
DICTIONARY
  5
C
330
0
100
AcDbDictionary
281
     1
  3
ACAD_COLOR
350
BE
  3
ACAD_GROUP
350
D
  3
ACAD_LAYOUT
350
1A
  3
ACAD_MATERIAL
350
BD
  3
ACAD_MLINESTYLE
350
17
  3
ACAD_PLOTSETTINGS
350
19
  3
ACAD_PLOTSTYLENAME
350
E
  3
ACAD_TABLESTYLE
350
11A
  3
ACDBHEADERROUNDTRIPXREC
350
9542
  3
AcDbVariableDictionary
350
94
  3
AcmDictionary
350
5B
  3
AMG
350
41
  3
AMGSNAPSETTINGS
350
1B8
  3
DWGPROPS
350
9541
  3
MAPISURF_MODULE
350
7518
  0
DICTIONARY
  5
3F9
330
2
100
AcDbDictionary
280
     1
281
     1
  3
ACAD_LAYERFILTERS
360
7B3F
  3
ACAD_LAYERSTATES
360
1292
  3
ACLYDICTIONARY
360
7B3E
  3
AMLAYER_GROUPCOLORS
360
11DE
  0
DICTIONARY
  5
8F
330
1F
100
AcDbDictionary
280
     1
281
     1
  3
ACAD_INDEX
360
756C
  3
ACAD_SORTENTS
360
1210
  0
DICTIONARY
  5
7DF7
330
7DEA
100
AcDbDictionary
280
     1
281
     1
  3
ACAD_DIMASSOC
360
7DF8
  0
DICTIONARY
  5
7E1D
330
7E10
100
AcDbDictionary
280
     1
281
     1
  3
ACAD_DIMASSOC
360
7E1E
  0
DICTIONARY
  5
7E69
330
7E5C
100
AcDbDictionary
280
     1
281
     1
  3
ACAD_DIMASSOC
360
7E6A
  0
DICTIONARY
  5
7F4A
330
7F3D
100
AcDbDictionary
280
     1
281
     1
  3
ACAD_DIMASSOC
360
7F4B
  0
DICTIONARY
  5
7FAA
330
7F9D
100
AcDbDictionary
280
     1
281
     1
  3
ACAD_DIMASSOC
360
7FAB
  0
DICTIONARY
  5
8008
330
7FFB
100
AcDbDictionary
280
     1
281
     1
  3
ACAD_DIMASSOC
360
8009
  0
DICTIONARY
  5
8180
330
8171
100
AcDbDictionary
280
     1
281
     1
  3
ACAD_DIMASSOC
360
8181
  0
DICTIONARY
  5
81A8
330
819B
100
AcDbDictionary
280
     1
281
     1
  3
ACAD_DIMASSOC
360
81A9
  0
DICTIONARY
  5
824C
330
823F
100
AcDbDictionary
280
     1
281
     1
  3
ACAD_DIMASSOC
360
824D
  0
DICTIONARY
  5
8272
330
8265
100
AcDbDictionary
280
     1
281
     1
  3
ACAD_DIMASSOC
360
8273
  0
DICTIONARY
  5
829A
330
828B
100
AcDbDictionary
280
     1
281
     1
  3
ACAD_DIMASSOC
360
829B
  0
DICTIONARY
  5
9510
330
9501
100
AcDbDictionary
280
     1
281
     1
  3
ACAD_DIMASSOC
360
9511
  0
DICTIONARY
  5
BE
102
{ACAD_REACTORS
330
C
102
}
330
C
100
AcDbDictionary
281
     1
  0
DICTIONARY
  5
D
102
{ACAD_REACTORS
330
C
102
}
330
C
100
AcDbDictionary
281
     1
  0
DICTIONARY
  5
1A
102
{ACAD_REACTORS
330
C
102
}
330
C
100
AcDbDictionary
281
     1
  3
Model
350
22
  3
配置1
350
1E
  3
配置2
350
26
  0
DICTIONARY
  5
BD
102
{ACAD_REACTORS
330
C
102
}
330
C
100
AcDbDictionary
281
     1
  0
DICTIONARY
  5
17
102
{ACAD_REACTORS
330
C
102
}
330
C
100
AcDbDictionary
281
     1
  3
Standard
350
18
  0
DICTIONARY
  5
19
102
{ACAD_REACTORS
330
C
102
}
330
C
100
AcDbDictionary
281
     1
  0
ACDBDICTIONARYWDFLT
  5
E
102
{ACAD_REACTORS
330
C
102
}
330
C
100
AcDbDictionary
281
     1
  3
Normal
350
F
100
AcDbDictionaryWithDefault
340
F
  0
DICTIONARY
  5
11A
102
{ACAD_REACTORS
330
C
102
}
330
C
100
AcDbDictionary
281
     1
  3
Standard
350
11B
  0
DICTIONARY
  5
9542
102
{ACAD_REACTORS
330
C
102
}
330
C
100
AcDbDictionary
281
     1
  0
DICTIONARY
  5
94
102
{ACAD_REACTORS
330
C
102
}
330
C
100
AcDbDictionary
281
     1
  3
CTABLESTYLE
350
138
  3
DIMASSOC
350
96
  3
INDEXCTL
350
95
  3
PROJECTNAME
350
73BF
  0
DICTIONARY
  5
5B
102
{ACAD_REACTORS
330
C
102
}
330
C
100
AcDbDictionary
281
     1
  3
AcmBOM
350
1B5
  3
AcmStdDictionary
350
61
  3
AMDTSECTSYM_ARROWCOLOR
350
123
  0
DICTIONARY
  5
41
102
{ACAD_REACTORS
330
C
102
}
330
C
100
AcDbDictionary
281
     1
  3
AcMgSettings
350
7492
  0
DICTIONARY
  5
1B8
102
{ACAD_REACTORS
330
C
102
}
330
C
100
AcDbDictionary
281
     1
  0
XRECORD
  5
9541
102
{ACAD_REACTORS
330
C
102
}
330
C
100
AcDbXrecord
280
     1
  1
DWGPROPS COOKIE
  2

  3

  4

  6

  7

  8

  9

300
AmdtFileType=84
301
=
302
=
303
=
304
=
305
=
306
=
307
=
308
=
309
=
 40
1.500883206018518
 41
2453916.626557615
 42
2456496.666764861
  1

 90
        1
  0
DICTIONARY
  5
7B3F
102
{ACAD_REACTORS
330
3F9
102
}
330
3F9
100
AcDbDictionary
281
     1
  0
DICTIONARY
  5
1292
102
{ACAD_REACTORS
330
3F9
102
}
330
3F9
100
AcDbDictionary
281
     1
  0
DICTIONARY
  5
7B3E
102
{ACAD_REACTORS
330
3F9
102
}
330
3F9
100
AcDbDictionary
281
     1
1001
ACAD
1000
<All
  0
DICTIONARY
  5
11DE
102
{ACAD_REACTORS
330
3F9
102
}
330
3F9
100
AcDbDictionary
280
     1
281
     1
  0
DICTIONARY
  5
756C
102
{ACAD_REACTORS
330
8F
102
}
330
8F
100
AcDbDictionary
281
     1
  3
*A1
350
756D
  0
SORTENTSTABLE
  5
1210
102
{ACAD_REACTORS
330
8F
102
}
330
8F
100
AcDbSortentsTable
330
1F
331
7036
  5
7036
331
7075
  5
7075
331
707D
  5
707D
331
7085
  5
7085
331
6BCF
  5
6BCF
331
7046
  5
7046
331
7FCC
  5
7FCC
331
7DCF
  5
7DCF
331
7E36
  5
7E36
331
705E
  5
705E
331
7066
  5
7066
331
7027
  5
7027
331
706E
  5
706E
331
702F
  5
702F
331
7F85
  5
7F85
331
822A
  5
822A
331
7F9D
  5
7F9D
331
70AD
  5
70AD
331
819B
  5
819B
331
70B5
  5
70B5
331
7037
  5
7037
331
6788
  5
6788
331
7076
  5
7076
331
707E
  5
707E
331
7047
  5
7047
331
847F
  5
847F
331
7DC8
  5
7DC8
331
705F
  5
705F
331
7020
  5
7020
331
7067
  5
7067
331
7028
  5
7028
331
706F
  5
706F
331
7F86
  5
7F86
331
822B
  5
822B
331
7DD0
  5
7DD0
331
7B51
  5
7B51
331
70AE
  5
70AE
331
7030
  5
7030
331
6789
  5
6789
331
7038
  5
7038
331
7077
  5
7077
331
707F
  5
707F
331
7040
  5
7040
331
7048
  5
7048
331
7E10
  5
7E10
331
807D
  5
807D
331
828B
  5
828B
331
7F6F
  5
7F6F
331
7DC9
  5
7DC9
331
7050
  5
7050
331
6BD9
  5
6BD9
331
7058
  5
7058
331
7060
  5
7060
331
7021
  5
7021
331
7068
  5
7068
331
7029
  5
7029
331
7DD1
  5
7DD1
331
7B52
  5
7B52
331
70AF
  5
70AF
331
7070
  5
7070
331
7031
  5
7031
331
7080
  5
7080
331
7041
  5
7041
331
7049
  5
7049
331
83DA
  5
83DA
331
807E
  5
807E
331
8323
  5
8323
331
7F70
  5
7F70
331
7DCA
  5
7DCA
331
7059
  5
7059
331
7061
  5
7061
331
7069
  5
7069
331
702A
  5
702A
331
8501
  5
8501
331
7F88
  5
7F88
331
822D
  5
822D
331
8373
  5
8373
331
7DD2
  5
7DD2
331
7DEA
  5
7DEA
331
838B
  5
838B
331
7B53
  5
7B53
331
70B0
  5
70B0
331
7B63
  5
7B63
331
7071
  5
7071
331
7032
  5
7032
331
704A
  5
704A
331
8265
  5
8265
331
7DCB
  5
7DCB
331
7B44
  5
7B44
331
705A
  5
705A
331
7062
  5
7062
331
7023
  5
7023
331
706A
  5
706A
331
702B
  5
702B
331
8502
  5
8502
331
7F89
  5
7F89
331
822E
  5
822E
331
7DD3
  5
7DD3
331
82B5
  5
82B5
331
842B
  5
842B
331
7B54
  5
7B54
331
70B1
  5
70B1
331
7B64
  5
7B64
331
7072
  5
7072
331
7033
  5
7033
331
704B
  5
704B
331
7DCC
  5
7DCC
331
7B45
  5
7B45
331
7063
  5
7063
331
7024
  5
7024
331
706B
  5
706B
331
702C
  5
702C
331
8503
  5
8503
331
822F
  5
822F
331
7DD4
  5
7DD4
331
7B4D
  5
7B4D
331
823F
  5
823F
331
709A
  5
709A
331
70AA
  5
70AA
331
7B55
  5
7B55
331
70B2
  5
70B2
331
7B5D
  5
7B5D
331
7034
  5
7034
331
7073
  5
7073
331
707B
  5
707B
331
703C
  5
703C
331
7083
  5
7083
331
704C
  5
704C
331
8059
  5
8059
331
81D0
  5
81D0
331
7DCD
  5
7DCD
331
7054
  5
7054
331
7064
  5
7064
331
7025
  5
7025
331
706C
  5
706C
331
702D
  5
702D
331
8171
  5
8171
331
8504
  5
8504
331
7E5C
  5
7E5C
331
7B4E
  5
7B4E
331
802A
  5
802A
331
709B
  5
709B
331
70AB
  5
70AB
331
7B56
  5
7B56
331
70B3
  5
70B3
331
8455
  5
8455
331
82DF
  5
82DF
331
7B5E
  5
7B5E
331
7035
  5
7035
331
7074
  5
7074
331
707C
  5
707C
331
7084
  5
7084
331
7045
  5
7045
331
7FFB
  5
7FFB
331
7DCE
  5
7DCE
331
7065
  5
7065
331
7026
  5
7026
331
706D
  5
706D
331
702E
  5
702E
331
708C
  5
708C
331
70AC
  5
70AC
331
70B4
  5
70B4
331
7F3D
  5
7F3D
  0
DIMASSOC
  5
7DF8
102
{ACAD_REACTORS
330
7DF7
102
}
330
7DF7
100
AcDbDimAssoc
330
7DEA
 90
        3
 70
     0
 71
     0
  1
AcDbOsnapPointRef
 72
     1
331
7B51
 73
     0
 91
        0
 40
0.0
 10
0.0
 20
0.0
 30
2.000000000000000E+50
 75
     0
  1
AcDbOsnapPointRef
 72
     1
331
7B53
 73
     0
 91
        0
 40
0.0
 10
0.0
 20
0.0
 30
2.000000000000000E+50
 75
     0
  0
DIMASSOC
  5
7E1E
102
{ACAD_REACTORS
330
7E1D
102
}
330
7E1D
100
AcDbDimAssoc
330
7E10
 90
        1
 70
     0
 71
     0
  1
AcDbOsnapPointRef
 72
     1
331
7B54
 73
     0
 91
        0
 40
0.0
 10
0.0
 20
0.0
 30
2.000000000000000E+50
 75
     0
  0
DIMASSOC
  5
7E6A
102
{ACAD_REACTORS
330
7E69
102
}
330
7E69
100
AcDbDimAssoc
330
7E5C
 90
        2
 70
     0
 71
     0
  1
AcDbOsnapPointRef
 72
     1
331
7B4D
 73
     0
 91
        0
 40
0.0
 10
0.0
 20
0.0
 30
2.000000000000000E+50
 75
     0
  0
DIMASSOC
  5
7F4B
102
{ACAD_REACTORS
330
7F4A
102
}
330
7F4A
100
AcDbDimAssoc
330
7F3D
 90
        1
 70
     0
 71
     0
  1
AcDbOsnapPointRef
 72
     1
331
7B4D
 73
     0
 91
        0
 40
0.0
 10
0.0
 20
0.0
 30
2.000000000000000E+50
 75
     0
  0
DIMASSOC
  5
7FAB
102
{ACAD_REACTORS
330
7FAA
102
}
330
7FAA
100
AcDbDimAssoc
330
7F9D
 90
        2
 70
     0
 71
     0
  1
AcDbOsnapPointRef
 72
     1
331
7F89
 73
     0
 91
        0
 40
0.0
 10
0.0
 20
0.0
 30
2.000000000000000E+50
 75
     0
  0
DIMASSOC
  5
8009
102
{ACAD_REACTORS
330
8008
102
}
330
8008
100
AcDbDimAssoc
330
7FFB
 90
        3
 70
     0
 71
     0
  1
AcDbOsnapPointRef
 72
    13
331
7F85
 73
     0
 91
        0
 40
0.0
 10
0.0
 20
0.0
 30
2.000000000000000E+50
 75
     0
  1
AcDbOsnapPointRef
 72
    13
331
7F88
 73
     0
 91
        0
 40
0.0
 10
0.0
 20
0.0
 30
2.000000000000000E+50
 75
     0
  0
DIMASSOC
  5
8181
102
{ACAD_REACTORS
330
8180
102
}
330
8180
100
AcDbDimAssoc
330
8171
 90
        1
 70
     0
 71
     0
  1
AcDbOsnapPointRef
 72
    13
331
7F70
 73
     0
 91
        0
 40
0.0
 10
0.0
 20
0.0
 30
2.000000000000000E+50
 75
     0
  0
DIMASSOC
  5
81A9
102
{ACAD_REACTORS
330
81A8
102
}
330
81A8
100
AcDbDimAssoc
330
819B
 90
        1
 70
     0
 71
     0
  1
AcDbOsnapPointRef
 72
    13
331
7B45
 73
     0
 91
        0
 40
0.0
 10
0.0
 20
0.0
 30
2.000000000000000E+50
 75
     0
  0
DIMASSOC
  5
824D
102
{ACAD_REACTORS
330
824C
102
}
330
824C
100
AcDbDimAssoc
330
823F
 90
        1
 70
     0
 71
     0
  1
AcDbOsnapPointRef
 72
     1
331
7B64
 73
     0
 91
        0
 40
0.0
 10
0.0
 20
0.0
 30
2.000000000000000E+50
 75
     0
  0
DIMASSOC
  5
8273
102
{ACAD_REACTORS
330
8272
102
}
330
8272
100
AcDbDimAssoc
330
8265
 90
        3
 70
     0
 71
     0
  1
AcDbOsnapPointRef
 72
    13
331
7B63
 73
     0
 91
        0
 40
0.0
 10
0.0
 20
0.0
 30
2.000000000000000E+50
 75
     0
  1
AcDbOsnapPointRef
 72
    13
331
7B55
 73
     0
 91
        0
 40
0.0
 10
0.0
 20
0.0
 30
2.000000000000000E+50
 75
     0
  0
DIMASSOC
  5
829B
102
{ACAD_REACTORS
330
829A
102
}
330
829A
100
AcDbDimAssoc
330
828B
 90
        1
 70
     0
 71
     0
  1
AcDbOsnapPointRef
 72
    13
331
822E
 73
     0
 91
        0
 40
0.0
 10
0.0
 20
0.0
 30
2.000000000000000E+50
 75
     0
  0
DIMASSOC
  5
9511
102
{ACAD_REACTORS
330
9510
102
}
330
9510
100
AcDbDimAssoc
330
9501
 90
        3
 70
     0
 71
     0
  1
AcDbOsnapPointRef
 72
     1
331
94E3
 73
     0
 91
        0
 40
0.0
 10
0.0
 20
0.0
 30
2.000000000000000E+50
 75
     0
  1
AcDbOsnapPointRef
 72
     1
331
94E4
 73
     0
 91
        0
 40
0.0
 10
0.0
 20
0.0
 30
2.000000000000000E+50
 75
     0
  0
LAYOUT
  5
22
102
{ACAD_XDICTIONARY
360
9545
102
}
102
{ACAD_REACTORS
330
1A
102
}
330
1A
100
AcDbPlotSettings
  1

  2
\\RD\EPSON Stylus C63 Series單色
  4
A4
  6

 40
3.757083177566528
 41
3.757076978683471
 42
3.757080078125
 43
3.757080078125
 44
209.9733276367187
 45
296.9683227539062
 46
0.0
 47
0.0
 48
0.0
 49
0.0
140
0.0
141
0.0
142
1.0
143
0.3405120737814363
 70
 11952
 72
     1
 73
     0
 74
     0
  7
彩色出圖.ctb
 75
     0
147
2.936753428137963
148
-2047.07469463503
149
-1261.649717473083
100
AcDbLayout
  1
Model
 70
     1
 71
     0
 10
0.0
 20
0.0
 11
12.0
 21
9.0
 12
0.0
 22
0.0
 32
0.0
 14
0.0
 24
0.0
 34
0.0
 15
0.0
 25
0.0
 35
0.0
146
0.0
 13
0.0
 23
0.0
 33
0.0
 16
1.0
 26
0.0
 36
0.0
 17
0.0
 27
1.0
 37
0.0
 76
     0
330
1F
1001
ACAD_PSEXT
1000
\\RD\EPSON Stylus C63 Series單色
1000
EPSON Stylus C63 Series
1000
\\RD
1000

1070
     0
  0
LAYOUT
  5
1E
102
{ACAD_XDICTIONARY
360
9543
102
}
102
{ACAD_REACTORS
330
1A
102
}
330
1A
100
AcDbPlotSettings
  1

  2

  4

  6

 40
0.0
 41
0.0
 42
0.0
 43
0.0
 44
0.0
 45
0.0
 46
0.0
 47
0.0
 48
0.0
 49
0.0
140
0.0
141
0.0
142
1.0
143
1.0
 70
   688
 72
     0
 73
     0
 74
     5
  7
彩色出圖.ctb
 75
    16
147
1.0
148
0.0
149
0.0
100
AcDbLayout
  1
配置1
 70
     1
 71
     1
 10
0.0
 20
0.0
 11
420.0
 21
297.0
 12
0.0
 22
0.0
 32
0.0
 14
1.000000000000000E+20
 24
1.000000000000000E+20
 34
1.000000000000000E+20
 15
-1.000000000000000E+20
 25
-1.000000000000000E+20
 35
-1.000000000000000E+20
146
0.0
 13
0.0
 23
0.0
 33
0.0
 16
1.0
 26
0.0
 36
0.0
 17
0.0
 27
1.0
 37
0.0
 76
     0
330
1B
  0
LAYOUT
  5
26
102
{ACAD_XDICTIONARY
360
9547
102
}
102
{ACAD_REACTORS
330
1A
102
}
330
1A
100
AcDbPlotSettings
  1

  2

  4

  6

 40
0.0
 41
0.0
 42
0.0
 43
0.0
 44
0.0
 45
0.0
 46
0.0
 47
0.0
 48
0.0
 49
0.0
140
0.0
141
0.0
142
1.0
143
1.0
 70
   688
 72
     0
 73
     0
 74
     5
  7
彩色出圖.ctb
 75
    16
147
1.0
148
0.0
149
0.0
100
AcDbLayout
  1
配置2
 70
     1
 71
     2
 10
0.0
 20
0.0
 11
12.0
 21
9.0
 12
0.0
 22
0.0
 32
0.0
 14
0.0
 24
0.0
 34
0.0
 15
0.0
 25
0.0
 35
0.0
146
0.0
 13
0.0
 23
0.0
 33
0.0
 16
1.0
 26
0.0
 36
0.0
 17
0.0
 27
1.0
 37
0.0
 76
     0
330
23
  0
MLINESTYLE
  5
18
102
{ACAD_REACTORS
330
17
102
}
330
17
100
AcDbMlineStyle
  2
STANDARD
 70
     0
  3

 62
   256
 51
90.0
 52
90.0
 71
     2
 49
0.5
 62
   256
  6
BYLAYER
 49
-0.5
 62
   256
  6
BYLAYER
  0
ACDBPLACEHOLDER
  5
F
102
{ACAD_REACTORS
330
E
102
}
330
E
  0
TABLESTYLE
  5
11B
102
{ACAD_REACTORS
330
11A
102
}
330
11A
100
AcDbTableStyle
  3
Standard
 70
     0
 71
     0
 40
1.5
 41
1.5
280
     0
281
     0
  7
STANDARD
140
4.5
170
     2
 62
     0
 63
     7
283
     0
274
    -2
284
     1
 64
     0
275
    -2
285
     1
 65
     0
276
    -2
286
     1
 66
     0
277
    -2
287
     1
 67
     0
278
    -2
288
     1
 68
     0
279
    -2
289
     1
 69
     0
  7
STANDARD
140
6.0
170
     5
 62
     0
 63
     7
283
     0
274
    -2
284
     1
 64
     0
275
    -2
285
     1
 65
     0
276
    -2
286
     1
 66
     0
277
    -2
287
     1
 67
     0
278
    -2
288
     1
 68
     0
279
    -2
289
     1
 69
     0
  7
STANDARD
140
4.5
170
     5
 62
     0
 63
     7
283
     0
274
    -2
284
     1
 64
     0
275
    -2
285
     1
 65
     0
276
    -2
286
     1
 66
     0
277
    -2
287
     1
 67
     0
278
    -2
288
     1
 68
     0
279
    -2
289
     1
 69
     0
  0
DICTIONARYVAR
  5
138
102
{ACAD_REACTORS
330
94
102
}
330
94
100
DictionaryVariables
280
     0
  1
STANDARD
  0
DICTIONARYVAR
  5
96
102
{ACAD_REACTORS
330
94
102
}
330
94
100
DictionaryVariables
280
     0
  1
2
  0
DICTIONARYVAR
  5
95
102
{ACAD_REACTORS
330
94
102
}
330
94
100
DictionaryVariables
280
     0
  1
1
  0
DICTIONARYVAR
  5
73BF
102
{ACAD_REACTORS
330
94
102
}
330
94
100
DictionaryVariables
280
     0
  1

  0
DICTIONARY
  5
1B5
102
{ACAD_REACTORS
330
5B
102
}
330
5B
100
AcDbDictionary
281
     1
  0
DICTIONARY
  5
61
102
{ACAD_REACTORS
330
5B
102
}
330
5B
100
AcDbDictionary
281
     1
  0
XRECORD
  5
123
102
{ACAD_REACTORS
330
5B
102
}
330
5B
100
AcDbXrecord
280
     1
 90
-1023410169
  0
DICTIONARY
  5
7492
102
{ACAD_REACTORS
330
41
102
}
330
41
100
AcDbDictionary
281
     1
  3
DWGSETTINGS
350
7493
  3
Shaft
350
7B3B
  3
TRANSSETTINGS
350
7496
  0
LAYER_INDEX
  5
756D
102
{ACAD_REACTORS
330
756C
102
}
330
756C
100
AcDbIndex
 40
2456496.666764861
100
AcDbLayerIndex
  8
0
360
756E
 90
      617
  8
AM_VIS
360
756F
 90
        0
  8
AM_7
360
7570
 90
       28
  8
AM_4
360
7571
 90
        0
  8
AM_0
360
7572
 90
        0
  8
AM_5
360
7573
 90
       36
  8
Defpoints
360
7574
 90
        0
  8
BORDER
360
7575
 90
        0
  8
LOGO
360
7576
 90
      103
  8
BOR
360
7577
 90
        0
  0
DICTIONARY
  5
9545
330
22
100
AcDbDictionary
280
     1
281
     1
  3
ACAD_XREC_ROUNDTRIP
360
9546
  0
DICTIONARY
  5
9543
330
1E
100
AcDbDictionary
280
     1
281
     1
  3
ACAD_XREC_ROUNDTRIP
360
9544
  0
DICTIONARY
  5
9547
330
26
100
AcDbDictionary
280
     1
281
     1
  3
ACAD_XREC_ROUNDTRIP
360
9548
  0
IDBUFFER
  5
756E
330
0
100
AcDbIdBuffer
330
94B3
330
94B5
330
94EF
330
94F1
330
94E2
330
94E3
330
94E4
330
6BCF
330
6BD9
330
70B6
330
70B7
330
70B8
330
8B3A
330
8B3B
330
8B3C
330
8B3D
330
8B3E
330
8B3F
330
8B40
330
8B41
330
8B42
330
8B43
330
8B44
330
8B45
330
8B46
330
8B47
330
8B48
330
8B49
330
8B4A
330
8B4B
330
8B4C
330
8B4D
330
8B4E
330
8B4F
330
8B50
330
8B51
330
8B52
330
8B53
330
8B54
330
8B55
330
8B56
330
8B57
330
8B58
330
8B59
330
8B5A
330
8B5B
330
8B5C
330
8B5D
330
8B5E
330
8B5F
330
8B60
330
8B61
330
8B62
330
8B63
330
8B64
330
8B65
330
8DA2
330
8DA1
330
8DA0
330
8D9F
330
8D9E
330
8B6B
330
8B6C
330
8B6D
330
8B6E
330
8B6F
330
8B70
330
8B71
330
8B72
330
8B73
330
8B74
330
8B75
330
8B76
330
8B77
330
8B78
330
8B79
330
8B7A
330
8B7B
330
8B7C
330
8B7D
330
8B7E
330
8B7F
330
8B80
330
8B81
330
8B82
330
8B83
330
8B84
330
8B85
330
8B86
330
8B87
330
8B88
330
8B89
330
8B8A
330
8B8B
330
8B8C
330
8B8D
330
8B8E
330
8B8F
330
8B90
330
8B91
330
8B92
330
8B93
330
8B94
330
8B95
330
8B96
330
8B97
330
8B98
330
8B99
330
8B9A
330
8B9B
330
8B9C
330
8B9D
330
8B9E
330
8B9F
330
8BA0
330
8BA1
330
8BA2
330
8BA3
330
8BA4
330
8BA5
330
8BA6
330
8BA7
330
8BA8
330
8BA9
330
8BAA
330
8BAB
330
8BAC
330
8BAD
330
8BAE
330
8BAF
330
8BB0
330
8BB1
330
8BB2
330
8BB3
330
8BB4
330
8BB5
330
8BB6
330
8BB7
330
8BB8
330
8BB9
330
8BBA
330
8BBB
330
8BBC
330
8BBD
330
8BBE
330
8BBF
330
8BC0
330
8BC1
330
8BC2
330
8BC3
330
8BC4
330
8BC5
330
8BC6
330
8BC7
330
8BC8
330
8BC9
330
8BCA
330
8BCB
330
8BCC
330
8BCD
330
8BCE
330
8BCF
330
8BD0
330
8BD1
330
8BD2
330
8BD3
330
8BD4
330
8BD5
330
8BD6
330
8BD7
330
8BD8
330
8BD9
330
8BDA
330
8BDB
330
8BDC
330
8BDD
330
8BDE
330
8BDF
330
8BE0
330
8BE1
330
8BE2
330
8BE3
330
8BE4
330
8BE5
330
8BE6
330
8BE7
330
8BE8
330
8BE9
330
8BEA
330
8BEB
330
8BEC
330
8BED
330
8BEE
330
8BEF
330
8BF0
330
8BF1
330
8BF2
330
8BF3
330
8BF4
330
8BF5
330
8BF6
330
8BF7
330
8BF8
330
8BF9
330
8BFA
330
8BFB
330
8BFC
330
8BFD
330
8BFE
330
8BFF
330
8C00
330
8C01
330
8C02
330
8C03
330
8C04
330
8C05
330
8C06
330
8C07
330
8C08
330
8C09
330
8C0A
330
8C0B
330
8C0C
330
8C0D
330
8C0E
330
8C0F
330
8C10
330
8C11
330
8C12
330
8C13
330
8C14
330
8C15
330
8C16
330
8C17
330
8C18
330
8C19
330
8C1A
330
8C1B
330
8C1C
330
8C1D
330
8C1E
330
8C1F
330
8C20
330
8C21
330
8C22
330
8C23
330
8C24
330
8C25
330
8C26
330
8C27
330
8C28
330
8C29
330
8C2A
330
8C2B
330
8C2C
330
8C2D
330
8C2E
330
8C2F
330
8C30
330
8C31
330
8C32
330
8C33
330
8C34
330
8C35
330
8C36
330
8C37
330
8C38
330
8C39
330
8C3A
330
8C3B
330
8C3C
330
8C3D
330
8C3E
330
8C3F
330
8C40
330
8C41
330
8C42
330
8C43
330
8C44
330
8C45
330
8C46
330
8C47
330
8C48
330
8C49
330
8C4A
330
8C4B
330
8C4C
330
8C4D
330
8C4E
330
8C4F
330
8C50
330
8C51
330
8C52
330
8C53
330
8C54
330
8C55
330
8C56
330
8C57
330
8C58
330
8C59
330
8C5A
330
8C5B
330
8C5C
330
8C5D
330
8C5E
330
8C5F
330
8C60
330
8C61
330
8C62
330
8C63
330
8C64
330
8C65
330
8C66
330
8C67
330
8C68
330
8C69
330
8C6A
330
8C6B
330
8C6C
330
8C6D
330
8C6E
330
8C6F
330
8C70
330
8C71
330
8C72
330
8C73
330
8C74
330
8C75
330
8C76
330
8C77
330
8C78
330
8C79
330
8C7A
330
8C7B
330
8C7C
330
8C7D
330
8C7E
330
8C7F
330
8C80
330
8C81
330
8C82
330
8C83
330
8C84
330
8C85
330
8C86
330
8C87
330
8C88
330
8C89
330
8C8A
330
8C8B
330
8C8C
330
8C8D
330
8C8E
330
8C8F
330
8C90
330
8C91
330
8C92
330
8C93
330
8C94
330
8C95
330
8C96
330
8C97
330
8C98
330
8C99
330
8C9A
330
8C9B
330
8C9C
330
8C9D
330
8C9E
330
8C9F
330
8CA0
330
8CA1
330
8CA2
330
8CA3
330
8CA4
330
8CA5
330
8CA6
330
8CA7
330
8CA8
330
8CA9
330
8CAA
330
8CAB
330
8CAC
330
8CAD
330
8CAE
330
8CAF
330
8CB0
330
8CB1
330
8CB2
330
8CB3
330
8CB4
330
8CB5
330
8CB6
330
8CB7
330
8CB8
330
8CB9
330
8CBA
330
8CBB
330
8CBC
330
8CBD
330
8CBE
330
8CBF
330
8CC0
330
8CC1
330
8CC2
330
8CC3
330
8CC4
330
8CC6
330
8CC7
330
8CC8
330
8CC9
330
8CCA
330
8CCB
330
8CCC
330
8CCD
330
8CCE
330
8CCF
330
8CD0
330
8CD1
330
8CD2
330
8CD3
330
8CD4
330
8CD5
330
8CD6
330
8CD7
330
8CD8
330
8CD9
330
8CDA
330
8CDB
330
8CDC
330
8CDD
330
8CDE
330
8CDF
330
8CE0
330
8CE1
330
8CE2
330
8CE3
330
8CE4
330
8CE5
330
8CE6
330
8CE7
330
8CE8
330
8CE9
330
8CEA
330
8CEB
330
8CEC
330
8CED
330
8CEE
330
8CEF
330
8CF0
330
8CF1
330
8CF2
330
8CF3
330
8CF4
330
8CF5
330
8CF6
330
8CF7
330
8CF8
330
8CF9
330
8CFA
330
8CFB
330
8CFC
330
8CFD
330
8CFE
330
8CFF
330
8D00
330
8D01
330
8D02
330
8D03
330
8D04
330
8D05
330
8D06
330
8D07
330
8D08
330
8D09
330
8D0A
330
8D0B
330
8D0C
330
8D0D
330
8D0E
330
8D0F
330
8D10
330
8D11
330
8D12
330
8D13
330
8D14
330
8D15
330
8D16
330
8D17
330
8D18
330
8D19
330
8D1A
330
8D1B
330
8D1C
330
8D1D
330
8D1E
330
8D1F
330
8D20
330
8D21
330
8D22
330
8D23
330
8D24
330
8D25
330
8D26
330
8D27
330
8D28
330
8D29
330
8D2A
330
8D2B
330
8D2C
330
8D2D
330
8D2E
330
8D2F
330
8D30
330
8D31
330
8D9D
330
8D9C
330
8D34
330
8D35
330
8D36
330
8D37
330
8D38
330
8D39
330
8D3A
330
8D3B
330
8D3C
330
8D3D
330
8D3E
330
8D3F
330
8D40
330
8D41
330
8D42
330
8D43
330
8D44
330
8D45
330
8D46
330
8D47
330
8D48
330
8D49
330
8D4A
330
8D4B
330
8D4C
330
8D4D
330
8D4E
330
8D4F
330
8D50
330
8D51
330
8D52
330
8D53
330
8D54
330
8D55
330
8D56
330
8D57
330
8D58
330
8D59
330
8D5A
330
8D5B
330
8D5C
330
8D5D
330
8D5E
330
8D5F
330
8D60
330
8D61
330
8D62
330
8D63
330
8D64
330
8D65
330
8D66
330
8D67
330
8D68
330
8D69
330
8D6A
330
8D6B
330
8D6C
330
8D6D
330
8D6E
330
8D6F
330
8D70
330
8D71
330
8D72
330
8D73
330
8D74
330
8D75
330
8D76
330
8D77
330
8D78
330
8D79
330
8D7A
330
8D7B
330
8D7C
330
8D7D
330
8D7E
330
8D7F
330
8D80
330
8D81
330
8D82
330
8D83
330
8D84
330
8D85
330
8D86
330
8D87
330
8D88
330
8D89
330
8D9A
330
8D8B
330
8D8C
330
8D99
330
8D8E
330
8D8F
330
8D90
330
8D91
330
8D92
330
8D93
330
8D98
330
8D95
330
8D96
330
8D97
  0
IDBUFFER
  5
756F
330
0
100
AcDbIdBuffer
  0
IDBUFFER
  5
7570
330
0
100
AcDbIdBuffer
330
94F0
330
7B44
330
7B45
330
7B4D
330
7B4E
330
7B51
330
7B52
330
7B53
330
7B54
330
7B55
330
7B56
330
7B5D
330
7B5E
330
7B63
330
7B64
330
7F6F
330
7F70
330
7F85
330
7F86
330
7F88
330
7F89
330
807D
330
807E
330
822A
330
822B
330
822D
330
822E
330
822F
  0
IDBUFFER
  5
7571
330
0
100
AcDbIdBuffer
  0
IDBUFFER
  5
7572
330
0
100
AcDbIdBuffer
  0
IDBUFFER
  5
7573
330
0
100
AcDbIdBuffer
330
9501
330
6788
330
6789
330
7DEA
330
7E10
330
7E36
330
7E5C
330
7F3D
330
7F9D
330
7FCC
330
7FFB
330
802A
330
8059
330
8171
330
819B
330
81D0
330
823F
330
8265
330
828B
330
82B5
330
82DF
330
8323
330
8373
330
838B
330
83DA
330
842B
330
8455
330
847F
330
8501
330
8502
330
8503
330
8504
330
8509
330
850B
330
850C
330
850D
  0
IDBUFFER
  5
7574
330
0
100
AcDbIdBuffer
  0
IDBUFFER
  5
7575
330
0
100
AcDbIdBuffer
  0
IDBUFFER
  5
7576
330
0
100
AcDbIdBuffer
330
7020
330
7021
330
7023
330
7024
330
7025
330
7026
330
7027
330
7028
330
7029
330
702A
330
702B
330
702C
330
702D
330
702E
330
702F
330
7030
330
7031
330
7032
330
7033
330
7034
330
7035
330
7036
330
7037
330
7038
330
703C
330
7040
330
7041
330
7045
330
7046
330
7047
330
7048
330
7049
330
704A
330
704B
330
704C
330
7050
330
7054
330
7058
330
7059
330
705A
330
705E
330
705F
330
7060
330
7061
330
7062
330
7063
330
7064
330
7065
330
7066
330
7067
330
7068
330
7069
330
706A
330
706B
330
706C
330
706D
330
706E
330
706F
330
7070
330
7071
330
7072
330
7073
330
7074
330
7075
330
7076
330
7077
330
707B
330
707C
330
707D
330
707E
330
707F
330
7080
330
7083
330
7084
330
7085
330
708C
330
709A
330
709B
330
70AA
330
70AB
330
70AC
330
70AD
330
70AE
330
70AF
330
70B0
330
70B1
330
70B2
330
70B3
330
70B4
330
70B5
330
7DC8
330
7DC9
330
7DCA
330
7DCB
330
7DCC
330
7DCD
330
7DCE
330
7DCF
330
7DD0
330
7DD1
330
7DD2
330
7DD3
330
7DD4
  0
IDBUFFER
  5
7577
330
0
100
AcDbIdBuffer
  0
XRECORD
  5
9546
102
{ACAD_REACTORS
330
9545
102
}
330
9545
100
AcDbXrecord
280
     1
102
SHADEPLOT
 70
     0
102
SHADEPLOTRESLEVEL
 70
     2
102
SHADEPLOTCUSTOMDPI
 70
   300
  0
XRECORD
  5
9544
102
{ACAD_REACTORS
330
9543
102
}
330
9543
100
AcDbXrecord
280
     1
102
SHADEPLOT
 70
     0
102
SHADEPLOTRESLEVEL
 70
     2
102
SHADEPLOTCUSTOMDPI
 70
   300
  0
XRECORD
  5
9548
102
{ACAD_REACTORS
330
9547
102
}
330
9547
100
AcDbXrecord
280
     1
102
SHADEPLOT
 70
     0
102
SHADEPLOTRESLEVEL
 70
     2
102
SHADEPLOTCUSTOMDPI
 70
   300
  0
ENDSEC
  0
EOF
