  0
SECTION
  2
HEADER
  9
$ACADVER
  1
AC1015
  9
$ACADMAINTVER
 70
    20
  9
$DWGCODEPAGE
  3
ANSI_950
  9
$INSBASE
 10
0.0
 20
0.0
 30
0.0
  9
$EXTMIN
 10
201.688335384897
 20
69.7202470446216
 30
-0.0059988888702947
  9
$EXTMAX
 10
592.6669080127867
 20
325.4969017283624
 30
196.5925884443727
  9
$LIMMIN
 10
0.0
 20
0.0
  9
$LIMMAX
 10
420.0
 20
297.0
  9
$ORTHOMODE
 70
     1
  9
$REGENMODE
 70
     1
  9
$FILLMODE
 70
     1
  9
$QTEXTMODE
 70
     0
  9
$MIRRTEXT
 70
     1
  9
$LTSCALE
 40
1.0
  9
$ATTMODE
 70
     1
  9
$TEXTSIZE
 40
3.0
  9
$TRACEWID
 40
1.0
  9
$TEXTSTYLE
  7
STANDARD
  9
$CLAYER
  8
0
  9
$CELTYPE
  6
ByLayer
  9
$CECOLOR
 62
   256
  9
$CELTSCALE
 40
1.0
  9
$DISPSILH
 70
     0
  9
$DIMSCALE
 40
1.0
  9
$DIMASZ
 40
3.0
  9
$DIMEXO
 40
1.5
  9
$DIMDLI
 40
8.0
  9
$DIMRND
 40
0.0
  9
$DIMDLE
 40
0.0
  9
$DIMEXE
 40
1.5
  9
$DIMTP
 40
0.1
  9
$DIMTM
 40
0.1
  9
$DIMTXT
 40
3.5
  9
$DIMCEN
 40
0.0
  9
$DIMTSZ
 40
0.0
  9
$DIMTOL
 70
     0
  9
$DIMLIM
 70
     0
  9
$DIMTIH
 70
     0
  9
$DIMTOH
 70
     0
  9
$DIMSE1
 70
     0
  9
$DIMSE2
 70
     0
  9
$DIMTAD
 70
     1
  9
$DIMZIN
 70
     8
  9
$DIMBLK
  1

  9
$DIMASO
 70
     1
  9
$DIMSHO
 70
     1
  9
$DIMPOST
  1

  9
$DIMAPOST
  1
"
  9
$DIMALT
 70
     0
  9
$DIMALTD
 70
     2
  9
$DIMALTF
 40
0.0393701
  9
$DIMLFAC
 40
1.0
  9
$DIMTOFL
 70
     1
  9
$DIMTVP
 40
0.0
  9
$DIMTIX
 70
     0
  9
$DIMSOXD
 70
     0
  9
$DIMSAH
 70
     0
  9
$DIMBLK1
  1

  9
$DIMBLK2
  1

  9
$DIMSTYLE
  2
AM_ISO
  9
$DIMCLRD
 70
   256
  9
$DIMCLRE
 70
   256
  9
$DIMCLRT
 70
   256
  9
$DIMTFAC
 40
0.6
  9
$DIMGAP
 40
1.0
  9
$DIMJUST
 70
     0
  9
$DIMSD1
 70
     0
  9
$DIMSD2
 70
     0
  9
$DIMTOLJ
 70
     0
  9
$DIMTZIN
 70
     8
  9
$DIMALTZ
 70
     0
  9
$DIMALTTZ
 70
     0
  9
$DIMUPT
 70
     0
  9
$DIMDEC
 70
     2
  9
$DIMTDEC
 70
     8
  9
$DIMALTU
 70
     2
  9
$DIMALTTD
 70
     2
  9
$DIMTXSTY
  7
STANDARD
  9
$DIMAUNIT
 70
     0
  9
$DIMADEC
 70
     0
  9
$DIMALTRND
 40
0.0
  9
$DIMAZIN
 70
     2
  9
$DIMDSEP
 70
    46
  9
$DIMATFIT
 70
     3
  9
$DIMFRAC
 70
     0
  9
$DIMLDRBLK
  1

  9
$DIMLUNIT
 70
     2
  9
$DIMLWD
 70
    -1
  9
$DIMLWE
 70
    -1
  9
$DIMTMOVE
 70
     0
  9
$LUNITS
 70
     2
  9
$LUPREC
 70
     2
  9
$SKETCHINC
 40
1.0
  9
$FILLETRAD
 40
2.5
  9
$AUNITS
 70
     0
  9
$AUPREC
 70
     0
  9
$MENU
  1
.
  9
$ELEVATION
 40
0.0
  9
$PELEVATION
 40
0.0
  9
$THICKNESS
 40
0.0
  9
$LIMCHECK
 70
     0
  9
$CHAMFERA
 40
2.5
  9
$CHAMFERB
 40
2.5
  9
$CHAMFERC
 40
20.0
  9
$CHAMFERD
 40
0.0
  9
$SKPOLY
 70
     0
  9
$TDCREATE
 40
2454422.344345151
  9
$TDUCREATE
 40
2454422.011011817
  9
$TDUPDATE
 40
2454798.592508021
  9
$TDUUPDATE
 40
2454798.259174687
  9
$TDINDWG
 40
0.2080759144
  9
$TDUSRTIMER
 40
0.2080759144
  9
$USRTIMER
 70
     1
  9
$ANGBASE
 50
0.0
  9
$ANGDIR
 70
     0
  9
$PDMODE
 70
     0
  9
$PDSIZE
 40
0.0
  9
$PLINEWID
 40
0.0
  9
$SPLFRAME
 70
     0
  9
$SPLINETYPE
 70
     6
  9
$SPLINESEGS
 70
     8
  9
$HANDSEED
  5
2F52
  9
$SURFTAB1
 70
     6
  9
$SURFTAB2
 70
     6
  9
$SURFTYPE
 70
     6
  9
$SURFU
 70
     6
  9
$SURFV
 70
     6
  9
$UCSBASE
  2

  9
$UCSNAME
  2

  9
$UCSORG
 10
0.0
 20
0.0
 30
0.0
  9
$UCSXDIR
 10
1.0
 20
0.0
 30
0.0
  9
$UCSYDIR
 10
0.0
 20
1.0
 30
0.0
  9
$UCSORTHOREF
  2

  9
$UCSORTHOVIEW
 70
     0
  9
$UCSORGTOP
 10
0.0
 20
0.0
 30
0.0
  9
$UCSORGBOTTOM
 10
0.0
 20
0.0
 30
0.0
  9
$UCSORGLEFT
 10
0.0
 20
0.0
 30
0.0
  9
$UCSORGRIGHT
 10
0.0
 20
0.0
 30
0.0
  9
$UCSORGFRONT
 10
0.0
 20
0.0
 30
0.0
  9
$UCSORGBACK
 10
0.0
 20
0.0
 30
0.0
  9
$PUCSBASE
  2

  9
$PUCSNAME
  2

  9
$PUCSORG
 10
0.0
 20
0.0
 30
0.0
  9
$PUCSXDIR
 10
1.0
 20
0.0
 30
0.0
  9
$PUCSYDIR
 10
0.0
 20
1.0
 30
0.0
  9
$PUCSORTHOREF
  2

  9
$PUCSORTHOVIEW
 70
     0
  9
$PUCSORGTOP
 10
0.0
 20
0.0
 30
0.0
  9
$PUCSORGBOTTOM
 10
0.0
 20
0.0
 30
0.0
  9
$PUCSORGLEFT
 10
0.0
 20
0.0
 30
0.0
  9
$PUCSORGRIGHT
 10
0.0
 20
0.0
 30
0.0
  9
$PUCSORGFRONT
 10
0.0
 20
0.0
 30
0.0
  9
$PUCSORGBACK
 10
0.0
 20
0.0
 30
0.0
  9
$USERI1
 70
     0
  9
$USERI2
 70
     0
  9
$USERI3
 70
     0
  9
$USERI4
 70
     0
  9
$USERI5
 70
     0
  9
$USERR1
 40
0.0
  9
$USERR2
 40
0.0
  9
$USERR3
 40
0.0
  9
$USERR4
 40
0.0
  9
$USERR5
 40
0.0
  9
$WORLDVIEW
 70
     1
  9
$SHADEDGE
 70
     3
  9
$SHADEDIF
 70
    70
  9
$TILEMODE
 70
     1
  9
$MAXACTVP
 70
    64
  9
$PINSBASE
 10
0.0
 20
0.0
 30
0.0
  9
$PLIMCHECK
 70
     0
  9
$PEXTMIN
 10
1.000000000000000E+20
 20
1.000000000000000E+20
 30
1.000000000000000E+20
  9
$PEXTMAX
 10
-1.000000000000000E+20
 20
-1.000000000000000E+20
 30
-1.000000000000000E+20
  9
$PLIMMIN
 10
0.0
 20
0.0
  9
$PLIMMAX
 10
420.0
 20
297.0
  9
$UNITMODE
 70
     0
  9
$VISRETAIN
 70
     1
  9
$PLINEGEN
 70
     0
  9
$PSLTSCALE
 70
     1
  9
$TREEDEPTH
 70
  3020
  9
$CMLSTYLE
  2
Standard
  9
$CMLJUST
 70
     0
  9
$CMLSCALE
 40
20.0
  9
$PROXYGRAPHICS
 70
     1
  9
$MEASUREMENT
 70
     1
  9
$CELWEIGHT
370
    -1
  9
$ENDCAPS
280
     0
  9
$JOINSTYLE
280
     0
  9
$LWDISPLAY
290
     0
  9
$INSUNITS
 70
     4
  9
$HYPERLINKBASE
  1

  9
$STYLESHEET
  1
acad.ctb
  9
$XEDIT
290
     1
  9
$CEPSNTYPE
380
     0
  9
$PSTYLEMODE
290
     1
  9
$FINGERPRINTGUID
  2
{B705A112-77C7-4534-AADA-B7988B84DA3D}
  9
$VERSIONGUID
  2
{70F629A7-2226-41BB-B0A0-679A623D4F06}
  9
$EXTNAMES
290
     1
  9
$PSVPSCALE
 40
0.0
  9
$OLESTARTUP
290
     0
  0
ENDSEC
  0
SECTION
  2
CLASSES
  0
CLASS
  1
ACDBDICTIONARYWDFLT
  2
AcDbDictionaryWithDefault
  3
ObjectDBX Classes
 90
        0
280
     0
281
     0
  0
CLASS
  1
ACDBPLACEHOLDER
  2
AcDbPlaceHolder
  3
ObjectDBX Classes
 90
        0
280
     0
281
     0
  0
CLASS
  1
LAYOUT
  2
AcDbLayout
  3
ObjectDBX Classes
 90
        0
280
     0
281
     0
  0
CLASS
  1
ACME_DOCUMENT
  2
AcMeDbDoc
  3
AcMeServices
 90
        0
280
     0
281
     0
  0
CLASS
  1
AMGSETTINGSOBJ
  2
AmgSettingsObj
  3
"AcadM|Product Description: AutoCAD Mechanical 2000|Company: Autodesk"
 90
        0
280
     0
281
     0
  0
CLASS
  1
ACMESCOPE
  2
AcMeScope
  3
AcMeServices
 90
        0
280
     0
281
     0
  0
CLASS
  1
ACMECOMMANDHISTORY
  2
AcMeCommandHistory
  3
AcMeServices
 90
        0
280
     0
281
     0
  0
CLASS
  1
ACIMSYSVARMAN
  2
AcImSysVarManager
  3
AcMeServices
 90
        0
280
     0
281
     0
  0
CLASS
  1
ACIMREALSYSVAR
  2
AcImRealSysVar
  3
AcMeServices
 90
        0
280
     0
281
     0
  0
CLASS
  1
ACIMINTSYSVAR
  2
AcImIntSysVar
  3
AcMeServices
 90
        0
280
     0
281
     0
  0
CLASS
  1
ACMEDRAWINGMAN
  2
AcMeDrawingMan
  3
AcMeServices
 90
        0
280
     0
281
     0
  0
CLASS
  1
ACMEVIEW
  2
AcMeView
  3
AcMeServices
 90
        0
280
     0
281
     0
  0
CLASS
  1
ACDBENTITYCACHE
  2
AcMeEntityCache
  3
AcMeServices
 90
        0
280
     0
281
     0
  0
CLASS
  1
GSMANAGER
  2
AcMeGSManager
  3
AcMeServices
 90
        0
280
     0
281
     0
  0
CLASS
  1
AMDTINTERNALREACTOR
  2
AmdtInternalReactor
  3
AcMeServices
 90
        0
280
     0
281
     0
  0
CLASS
  1
ACMESTATEMGR
  2
AcMeStateMgr
  3
AcMeServices
 90
        0
280
     0
281
     0
  0
CLASS
  1
ACGREFMASTER
  2
AcGrefMaster
  3
AcAttribServices
 90
        0
280
     0
281
     0
  0
CLASS
  1
ACME_DATABASE
  2
AcMeDbDatabase
  3
AcMeServices
 90
        0
280
     0
281
     0
  0
CLASS
  1
ACRFINSADJUSTERMGR
  2
AcRfInsAdjusterMgr
  3
AcMeServices
 90
        0
280
     0
281
     0
  0
CLASS
  1
ACGREFACADMASTER
  2
AcGrefacadMaster
  3
AcGrefServices
 90
        0
280
     0
281
     0
  0
CLASS
  1
AMIMASTER
  2
AmiMaster
  3
AmiServices
 90
        0
280
     0
281
     0
  0
CLASS
  1
ACMDATADICTIONARY
  2
AcmDataDictionary
  3
"AcmSymBB|Product Description: AutoCAD Mechanical 2004 DX|Company: Autodesk"
 90
        0
280
     0
281
     0
  0
CLASS
  1
ACMDATAENTRYBLOCK
  2
AcmDataEntryBlock
  3
"AcmSymBB|Product Description: AutoCAD Mechanical 2004 DX|Company: Autodesk"
 90
    32768
280
     0
281
     0
  0
CLASS
  1
ACIMSTRSYSVAR
  2
AcImStrSysVar
  3
AcMeServices
 90
        0
280
     0
281
     0
  0
CLASS
  1
ACMSTANDARDISO
  2
AcmStandardISO
  3
"Amdt_StdImp|Product Description: AutoCAD Mechanical 2004 DX|Company: Autodesk"
 90
        0
280
     0
281
     0
  0
CLASS
  1
AMGOBJPROPCFG
  2
AmgObjPropCfg
  3
"AmgLay|Product Description: AutoCAD Mechanical 2000|Company: Autodesk"
 90
        1
280
     0
281
     0
  0
CLASS
  1
AMDTEDGESTANDARDISO
  2
AmdtEdgeStdISO
  3
"Amdt_StdImp|Product Description: AutoCAD Mechanical 2004 DX|Company: Autodesk"
 90
    32768
280
     0
281
     0
  0
CLASS
  1
ACMSURFSTANDARDISO
  2
AcmSurfTextStdISO
  3
"Amdt_StdImp|Product Description: AutoCAD Mechanical 2004 DX|Company: Autodesk"
 90
        0
280
     0
281
     0
  0
CLASS
  1
ACMFCFSTANDARDISO
  2
AcmFCFStdISO
  3
"Amdt_StdImp|Product Description: AutoCAD Mechanical 2004 DX|Company: Autodesk"
 90
        0
280
     0
281
     0
  0
CLASS
  1
ACMWELDSTANDARDISO
  2
AcmWeldingStdISO
  3
"Amdt_StdImp|Product Description: AutoCAD Mechanical 2004 DX|Company: Autodesk"
 90
        0
280
     0
281
     0
  0
CLASS
  1
ACMIDSTANDARDISO
  2
AcmIdStdISO
  3
"Amdt_StdImp|Product Description: AutoCAD Mechanical 2004 DX|Company: Autodesk"
 90
        0
280
     0
281
     0
  0
CLASS
  1
ACMDATUMSTANDARDISO
  2
AcmDatumStdISO
  3
"Amdt_StdImp|Product Description: AutoCAD Mechanical 2004 DX|Company: Autodesk"
 90
        0
280
     0
281
     0
  0
CLASS
  1
ACMBOMSTANDARDISO
  2
AcmBOMStdISO
  3
"Amdt_StdImp|Product Description: AutoCAD Mechanical 2004 DX|Company: Autodesk"
 90
        0
280
     0
281
     0
  0
CLASS
  1
ACMDETAILSTANDARDISO
  2
AmdtDetailSymStdISO
  3
"Amdt_StdImp|Product Description: AutoCAD Mechanical 2004 DX|Company: Autodesk"
 90
        0
280
     0
281
     0
  0
CLASS
  1
ACMSECTIONSTANDARDISO
  2
AmdtSectionSymStdISO
  3
"Amdt_StdImp|Product Description: AutoCAD Mechanical 2004 DX|Company: Autodesk"
 90
        0
280
     0
281
     0
  0
CLASS
  1
ACMCENTERLINESTANDARDISO
  2
AmdtCenterLineStdISO
  3
"Amdt_StdImp|Product Description: AutoCAD Mechanical 2004 DX|Company: Autodesk"
 90
        0
280
     0
281
     0
  0
CLASS
  1
ACMNOTESTANDARDISO
  2
AmdtNoteStdISO
  3
"Amdt_StdImp|Product Description: AutoCAD Mechanical 2004 DX|Company: Autodesk"
 90
        0
280
     0
281
     0
  0
CLASS
  1
ACAMGLAYSTD
  2
AcAmgLayStd
  3
"AcAmgLayStd|Product Description: AutoCAD Mechanical 2000|Company: Autodesk"
 90
        0
280
     0
281
     0
  0
CLASS
  1
ACAMGDIMSTD
  2
AcAmgDimStd
  3
"AcAmgDimStd|Product Description: AutoCAD Mechanical 2000|Company: Autodesk"
 90
        0
280
     0
281
     0
  0
CLASS
  1
ACAMGHOLECHARTSTDISO
  2
AcAmgHoleChartStdISO
  3
ACMSYMBB_MODULE_NAME
 90
        0
280
     0
281
     0
  0
CLASS
  1
ACAMGTITLESTD
  2
AcAmgTitleStd
  3
"TITLEAPP"
 90
        0
280
     0
281
     0
  0
CLASS
  1
LAYER_INDEX
  2
AcDbLayerIndex
  3
ObjectDBX Classes
 90
    32768
280
     0
281
     0
  0
CLASS
  1
IDBUFFER
  2
AcDbIdBuffer
  3
ObjectDBX Classes
 90
    32768
280
     0
281
     0
  0
CLASS
  1
DICTIONARYVAR
  2
AcDbDictionaryVar
  3
ObjectDBX Classes
 90
        0
280
     0
281
     0
  0
CLASS
  1
AM_DRAWING_MGR
  2
AcDmDwgMgr
  3
AcMechDwgViewMgmt
 90
        0
280
     0
281
     0
  0
CLASS
  1
AM_DWG_DOCUMENT
  2
AcDmDwgDocument
  3
AcMechDwgViewMgmt
 90
        0
280
     0
281
     0
  0
CLASS
  1
AM_DWG_SHEET
  2
AcDmSheet
  3
AcMechDwgViewMgmt
 90
        0
280
     0
281
     0
  0
CLASS
  1
AM_VIEWDIMPARMAP
  2
AcDmViewDimParMap
  3
AcMechDwgViewMgmt
 90
        0
280
     0
281
     0
  0
CLASS
  1
AM_DWGMGR_NAME
  2
AcDmDwgMgrName
  3
AcMechDwgViewMgmt
 90
        0
280
     0
281
     0
  0
CLASS
  1
AMDTMENUSTATEMGR
  2
AmdtMenuStateMgr
  3
McadcomServices
 90
        0
280
     0
281
     0
  0
CLASS
  1
AMDTMCOMMENUSTATE
  2
AmdtMcomMenuState
  3
McadcomServices
 90
        0
280
     0
281
     0
  0
CLASS
  1
MAPIAMMOUDLE
  2
MApiAmModule
  3
MApiAmServices
 90
        0
280
     0
281
     0
  0
CLASS
  1
AMDTADMENUSTATE
  2
AmdtAdMenuState
  3
DesignerServices
 90
        0
280
     0
281
     0
  0
CLASS
  1
ADAPPL
  2
AcAdAppl
  3
DesignerServices
 90
        0
280
     0
281
     0
  0
CLASS
  1
DEPMGR
  2
AcAdDepMgr
  3
DesignerServices
 90
        0
280
     0
281
     0
  0
CLASS
  1
PARAMMGR
  2
AcAdParamMgr
  3
DesignerServices
 90
        0
280
     0
281
     0
  0
CLASS
  1
PARAMSCOPE
  2
AcAdParamScope
  3
DesignerServices
 90
        0
280
     0
281
     0
  0
CLASS
  1
NAMEDAPPL
  2
AcAdNamedAppl
  3
DesignerServices
 90
        0
280
     0
281
     0
  0
CLASS
  1
AMDTDMMENUSTATE
  2
AmdtDmMenuState
  3
AcMechDwgViewMgmt
 90
        0
280
     0
281
     0
  0
CLASS
  1
AMDTAMMENUSTATE
  2
AmdtAmMenuState
  3
DesignerAssemblies
 90
        0
280
     0
281
     0
  0
CLASS
  1
ACAMPROJECT
  2
AcAmProject
  3
DesignerAssemblies
 90
        0
280
     0
281
     0
  0
CLASS
  1
ACAMGRCOMPDEF
  2
AcAmGrCompDef
  3
DesignerAssemblies
 90
        0
280
     0
281
     0
  0
CLASS
  1
ACCMCONTEXT
  2
AcCmContext
  3
DesignerAssemblies
 90
        0
280
     0
281
     0
  0
CLASS
  1
ACAMCOMPDEF
  2
AcAmCompDef
  3
DesignerAssemblies
 90
        0
280
     0
281
     0
  0
CLASS
  1
ACAMCOMPDEFMGR
  2
AcAmCompDefMgr
  3
DesignerAssemblies
 90
        0
280
     0
281
     0
  0
CLASS
  1
AMCONTEXTMGR
  2
AcAmContextMgr
  3
DesignerAssemblies
 90
        0
280
     0
281
     0
  0
CLASS
  1
ACAMCONTEXTMODELER
  2
AcAmContextModeler
  3
DesignerAssemblies
 90
        0
280
     0
281
     0
  0
CLASS
  1
ACMTHREADLINESTANDARDISO
  2
AmdtThreadLineStdISO
  3
"Amdt_StdImp|Product Description: AutoCAD Mechanical 2004 DX|Company: Autodesk"
 90
        0
280
     0
281
     0
  0
CLASS
  1
CATALOGSTATE
  2
AcAmCatalogState
  3
DesignerAssemblies
 90
        0
280
     0
281
     0
  0
CLASS
  1
ACAMGRCOMPDEFSET
  2
AcAmGrCompDefSet
  3
DesignerAssemblies
 90
        0
280
     0
281
     0
  0
CLASS
  1
AMDTBROWSERDBTAB
  2
AmdtBrowserDbTab
  3
McadcomServices
 90
        0
280
     0
281
     0
  0
CLASS
  1
CBROWSERAPPOBJECT
  2
CBrowserAppObject
  3
McadcomServices
 90
        0
280
     0
281
     0
  0
CLASS
  1
DM_PLACEHOLDER
  2
AcDmSelsetPlaceholder
  3
AcMechDwgViewMgmt
 90
        0
280
     0
281
     0
  0
CLASS
  1
TABLESTYLE
  2
AcDbTableStyle
  3
ObjectDBX Classes
 90
     2047
280
     0
281
     0
  0
CLASS
  1
VAACXREFPANELOBJECT
  2
VaAcXREFPanelObject
  3
VAAC_ADDIN
 90
    32768
280
     0
281
     0
  0
CLASS
  1
VAACIMAGEINVENTORY
  2
VaAcImageInventory
  3
VAAC_ADDIN
 90
    32768
280
     0
281
     0
  0
CLASS
  1
AMDTNOTETEMPLATEDB
  2
AmdtNoteTemplateDB
  3
AMDT_STDIMP_MODULE_NAME
 90
        0
280
     0
281
     0
  0
CLASS
  1
ACMBOM
  2
AcmBom
  3
"AcmSymBB|Product Description: AutoCAD Mechanical 2004 DX|Company: Autodesk"
 90
    32768
280
     0
281
     0
  0
CLASS
  1
AMDTFORMULAUPDATEDISPATCHER
  2
AmdtFormulaUpdateDispatcher
  3
AcMeServices
 90
    32768
280
     0
281
     0
  0
CLASS
  1
ACMPARTLIST
  2
AcmPartList
  3
"AcmSymBB|Product Description: AutoCAD Mechanical 2004 DX|Company: Autodesk"
 90
    33791
280
     0
281
     1
  0
CLASS
  1
ACAMGFILTERDAT
  2
AcAmgFilterDat
  3
"AcadM|Product Description: AutoCAD Mechanical 2000|Company: Autodesk"
 90
    32768
280
     0
281
     0
  0
CLASS
  1
DIMASSOC
  2
AcDbDimAssoc
  3
"AcDbDimAssoc|Product Desc:     AcDim ARX App For Dimension|Company:          Autodesk, Inc.|WEB Address:      www.autodesk.com"
 90
        0
280
     0
281
     0
  0
CLASS
  1
SORTENTSTABLE
  2
AcDbSortentsTable
  3
ObjectDBX Classes
 90
        0
280
     0
281
     0
  0
CLASS
  1
STDPART2D
  2
AmgStdPart
  3
"AmgStdPart|Product Description: AutoCAD Mechanical 2000|Company: Autodesk"
 90
    33791
280
     0
281
     1
  0
CLASS
  1
ACAMSTDPCOMPDEF
  2
AcAmStdpCompDef
  3
DesignerAssemblies
 90
    32768
280
     0
281
     0
  0
CLASS
  1
ACRFATTGENMGR
  2
AcRfAttGeneralMgr
  3
AcAttribServices
 90
    32768
280
     0
281
     0
  0
CLASS
  1
ACRFOBJATTMGR
  2
AcRfObjAttGroupMgr
  3
AcAttribServices
 90
    32768
280
     0
281
     0
  0
CLASS
  1
ACRFMCADAPIATTHOLDER
  2
AcRfMCADAPIAttHolder
  3
AcAttribServices
 90
    32768
280
     0
281
     0
  0
CLASS
  1
AMDTSYSATTR
  2
AmdtSystemAttribute
  3
AcAttribServices
 90
    32768
280
     0
281
     0
  0
CLASS
  1
ACAMCOMP
  2
AcAmComp
  3
DesignerAssemblies
 90
    32768
280
     0
281
     0
  0
CLASS
  1
AC_AM_STDP_VIEW_DEF
  2
AcAmStdpViewDef
  3
DesignerAssemblies
 90
    32768
280
     0
281
     0
  0
CLASS
  1
AC_AM_MVD_DEP_MGR
  2
AcAmMVDdepMgr
  3
DesignerAssemblies
 90
    32768
280
     0
281
     0
  0
CLASS
  1
AC_AM_MASTER_VIEW_DEF
  2
AcAmMasterViewDef
  3
DesignerAssemblies
 90
    32768
280
     0
281
     0
  0
CLASS
  1
AC_AM_DIRTY_NODES
  2
AcAmDirtyNodes
  3
DesignerAssemblies
 90
    32768
280
     0
281
     0
  0
CLASS
  1
AC_AM_MAPPER_CACHE
  2
AcAmMapperCache
  3
DesignerAssemblies
 90
    32768
280
     0
281
     0
  0
CLASS
  1
ACAMMVDBACKUPOBJECT
  2
AcAmMVDBackupObject
  3
DesignerAssemblies
 90
    32768
280
     0
281
     0
  0
CLASS
  1
AC_AM_COMP_VIEW_INST
  2
AcAmCompView
  3
DesignerAssemblies
 90
    32768
280
     0
281
     0
  0
CLASS
  1
AC_AM_2D_XREF_MGR
  2
AcAmXrefMgr2d
  3
DesignerAssemblies
 90
    32768
280
     0
281
     0
  0
CLASS
  1
AMDTNOTE
  2
AmdtNote
  3
"AcmSymBB|Product Description: AutoCAD Mechanical 2004 DX|Company: Autodesk"
 90
    33791
280
     0
281
     1
  0
CLASS
  1
AMDTEDGESTANDARDISO13715
  2
AmdtEdgeStdISO13715
  3
"Amdt_StdImp|Product Description: AutoCAD Mechanical 2004 DX|Company: Autodesk"
 90
        0
280
     0
281
     0
  0
ENDSEC
  0
SECTION
  2
TABLES
  0
TABLE
  2
VPORT
  5
8
330
0
100
AcDbSymbolTable
 70
     4
  0
VPORT
  5
2F49
330
8
100
AcDbSymbolTableRecord
100
AcDbViewportTableRecord
  2
*Active
 70
     0
 10
0.0
 20
0.0
 11
1.0
 21
1.0
 12
397.1776216988419
 22
197.608574386492
 13
0.0
 23
0.0
 14
2.5
 24
2.5
 15
10.0
 25
10.0
 16
0.0
 26
0.0
 36
1.0
 17
0.0
 27
0.0
 37
0.0
 40
399.8824634615514
 41
0.9855453350854139
 42
50.0
 43
0.0
 44
0.0
 50
0.0
 51
0.0
 71
     0
 72
   100
 73
     1
 74
     3
 75
     0
 76
     0
 77
     0
 78
     0
281
     0
 65
     1
110
0.0
120
0.0
130
0.0
111
1.0
121
0.0
131
0.0
112
0.0
122
1.0
132
0.0
 79
     0
146
0.0
  0
ENDTAB
  0
TABLE
  2
LTYPE
  5
5
330
0
100
AcDbSymbolTable
 70
    15
  0
LTYPE
  5
14
330
5
100
AcDbSymbolTableRecord
100
AcDbLinetypeTableRecord
  2
ByBlock
 70
     0
  3

 72
    65
 73
     0
 40
0.0
  0
LTYPE
  5
15
330
5
100
AcDbSymbolTableRecord
100
AcDbLinetypeTableRecord
  2
ByLayer
 70
     0
  3

 72
    65
 73
     0
 40
0.0
  0
LTYPE
  5
16
330
5
100
AcDbSymbolTableRecord
100
AcDbLinetypeTableRecord
  2
Continuous
 70
     0
  3
Solid line
 72
    65
 73
     0
 40
0.0
  0
LTYPE
  5
64
330
5
100
AcDbSymbolTableRecord
100
AcDbLinetypeTableRecord
  2
AM_ISO02W050
 70
     0
  3
__ __ __ __ __ __ __ __ __ __ __ __ __ __ __
 72
    65
 73
     2
 40
7.5
 49
6.0
 74
     0
 49
-1.5
 74
     0
  0
LTYPE
  5
65
330
5
100
AcDbSymbolTableRecord
100
AcDbLinetypeTableRecord
  2
AM_ISO08W050
 70
     0
  3
____ . ____ . ____ . ____ . ____ . ____ . ____
 72
    65
 73
     4
 40
18.0
 49
12.0
 74
     0
 49
-1.5
 74
     0
 49
3.0
 74
     0
 49
-1.5
 74
     0
  0
LTYPE
  5
66
330
5
100
AcDbSymbolTableRecord
100
AcDbLinetypeTableRecord
  2
AM_ISO09W050
 70
     0
  3
_____ . . _____ . . _____ . . ____ .. ____
 72
    65
 73
     6
 40
22.5
 49
12.0
 74
     0
 49
-1.5
 74
     0
 49
3.0
 74
     0
 49
-1.5
 74
     0
 49
3.0
 74
     0
 49
-1.5
 74
     0
  0
LTYPE
  5
67
330
5
100
AcDbSymbolTableRecord
100
AcDbLinetypeTableRecord
  2
Amconstr
 70
     0
  3
_______________________
 72
    65
 73
     2
 40
9999.0
 49
9999.0
 74
     0
 49
0.0
 74
     0
  0
LTYPE
  5
68
330
5
100
AcDbSymbolTableRecord
100
AcDbLinetypeTableRecord
  2
AM_ISO08W050x2
 70
     0
  3
__ . __ . __ . __ . __ . __
 72
    65
 73
     4
 40
9.0
 49
6.0
 74
     0
 49
-0.75
 74
     0
 49
1.5
 74
     0
 49
-0.75
 74
     0
  0
LTYPE
  5
69
330
5
100
AcDbSymbolTableRecord
100
AcDbLinetypeTableRecord
  2
AM_ISO02W050x2
 70
     0
  3
 _ _ _ _ _ _ _ _ _ _ _ _
 72
    65
 73
     2
 40
3.75
 49
3.0
 74
     0
 49
-0.75
 74
     0
  0
LTYPE
  5
6C
330
5
100
AcDbSymbolTableRecord
100
AcDbLinetypeTableRecord
  2
Amzigzag
 70
     0
  3
/\/-/\/-/\/-/\/-/\/-/\/
 72
    65
 73
     2
 40
11.0001
 49
0.0001
 74
     4
 75
   135
340
6B
 46
0.04
 50
0.0
 44
0.0
 45
0.0
 49
-11.0
 74
     0
  0
LTYPE
  5
7A
330
5
100
AcDbSymbolTableRecord
100
AcDbLinetypeTableRecord
  2
ACISOWELD
 70
     0
  3
_ _ _ _ _
 72
    65
 73
     2
 40
2.0
 49
2.0
 74
     0
 49
-1.0
 74
     0
  0
LTYPE
  5
7B
330
5
100
AcDbSymbolTableRecord
100
AcDbLinetypeTableRecord
  2
ACISOTGB
 70
     0
  3
__ . . __ . .
 72
    65
 73
     6
 40
9.0
 49
4.0
 74
     0
 49
-1.0
 74
     0
 49
1.0
 74
     0
 49
-1.0
 74
     0
 49
1.0
 74
     0
 49
-1.0
 74
     0
  0
LTYPE
  5
7C
330
5
100
AcDbSymbolTableRecord
100
AcDbLinetypeTableRecord
  2
ACISOTGL
 70
     0
  3
_ _ _ _ _
 72
    65
 73
     2
 40
3.0
 49
2.0
 74
     0
 49
-1.0
 74
     0
  0
LTYPE
  5
7E
330
5
100
AcDbSymbolTableRecord
100
AcDbLinetypeTableRecord
  2
CENTER
 70
     0
  3
__ . __
 72
    65
 73
     4
 40
7.0
 49
4.0
 74
     0
 49
-1.0
 74
     0
 49
1.0
 74
     0
 49
-1.0
 74
     0
  0
LTYPE
  5
D8
330
5
100
AcDbSymbolTableRecord
100
AcDbLinetypeTableRecord
  2
HIDDEN
 70
     0
  3
Hidden __ __ __ __ __ __ __ __ __ __ __ __ __ _
 72
    65
 73
     2
 40
9.524999999999998
 49
6.349999999999999
 74
     0
 49
-3.174999999999999
 74
     0
  0
LTYPE
  5
D9
330
5
100
AcDbSymbolTableRecord
100
AcDbLinetypeTableRecord
  2
PHANTOM2
 70
     0
  3
Phantom (.5x) ___ _ _ ___ _ _ ___ _ _ ___ _ _
 72
    65
 73
     6
 40
31.75
 49
15.875
 74
     0
 49
-3.174999999999999
 74
     0
 49
3.174999999999999
 74
     0
 49
-3.174999999999999
 74
     0
 49
3.174999999999999
 74
     0
 49
-3.174999999999999
 74
     0
  0
LTYPE
  5
1C45
330
5
100
AcDbSymbolTableRecord
100
AcDbLinetypeTableRecord
  2
MITTE
 70
     0
  3
____ _ ____ _ ____ _ ____ _ ____ _ ____ _ ____ 
 72
    65
 73
     4
 40
2.0
 49
1.25
 74
     0
 49
-0.25
 74
     0
 49
0.25
 74
     0
 49
-0.25
 74
     0
  0
ENDTAB
  0
TABLE
  2
LAYER
  5
2
102
{ACAD_XDICTIONARY
360
3F9
102
}
330
0
100
AcDbSymbolTable
 70
     8
  0
LAYER
  5
10
330
2
100
AcDbSymbolTableRecord
100
AcDbLayerTableRecord
  2
0
 70
     0
 62
     7
  6
Continuous
370
    -3
390
F
  0
LAYER
  5
C92
330
2
100
AcDbSymbolTableRecord
100
AcDbLayerTableRecord
  2
Defpoints
 70
     0
 62
     7
  6
Continuous
290
     0
370
    -3
390
F
  0
LAYER
  5
C93
330
2
100
AcDbSymbolTableRecord
100
AcDbLayerTableRecord
  2
AM_5
 70
     0
 62
     5
  6
Continuous
370
    -3
390
F
  0
LAYER
  5
C94
330
2
100
AcDbSymbolTableRecord
100
AcDbLayerTableRecord
  2
AM_4
 70
     0
 62
     3
  6
Continuous
370
    -3
390
F
  0
LAYER
  5
C95
330
2
100
AcDbSymbolTableRecord
100
AcDbLayerTableRecord
  2
AM_VIS
 70
     0
 62
     7
  6
Continuous
370
    -3
390
F
  0
LAYER
  5
C96
330
2
100
AcDbSymbolTableRecord
100
AcDbLayerTableRecord
  2
AM_HID
 70
     0
 62
     3
  6
AM_ISO02W050
370
    -3
390
F
  0
LAYER
  5
C97
330
2
100
AcDbSymbolTableRecord
100
AcDbLayerTableRecord
  2
AM_7
 70
     0
 62
     1
  6
CENTER
370
    -3
390
F
  0
LAYER
  5
C99
330
2
100
AcDbSymbolTableRecord
100
AcDbLayerTableRecord
  2
LOGO
 70
     0
 62
     7
  6
Continuous
370
    -3
390
F
  0
ENDTAB
  0
TABLE
  2
STYLE
  5
3
330
0
100
AcDbSymbolTable
 70
     6
  0
STYLE
  5
11
330
3
100
AcDbSymbolTableRecord
100
AcDbTextStyleTableRecord
  2
STANDARD
 70
     0
 40
0.0
 41
1.0
 50
0.0
 71
     0
 42
3.0
  3
ISOCP.SHX
  4
CHINESET.SHX
  0
STYLE
  5
6B
330
3
100
AcDbSymbolTableRecord
100
AcDbTextStyleTableRecord
  2

 70
     1
 40
0.0
 41
1.0
 50
0.0
 71
     0
 42
2.5
  3
ltypeshp.shx
  4

  0
STYLE
  5
6D
330
3
100
AcDbSymbolTableRecord
100
AcDbTextStyleTableRecord
  2
ACISOTS
 70
     0
 40
1.0
 41
1.0
 50
0.0
 71
     0
 42
1.0
  3
isocp.shx
  4
chineset.shx
  0
STYLE
  5
79
330
3
100
AcDbSymbolTableRecord
100
AcDbTextStyleTableRecord
  2
ACISOGDT
 70
     0
 40
0.0
 41
1.0
 50
0.0
 71
     0
 42
2.5
  3
amgdt.shx
  4
chineset.shx
  0
STYLE
  5
C9B
330
3
100
AcDbSymbolTableRecord
100
AcDbTextStyleTableRecord
  2
CHINESET
 70
     0
 40
0.0
 41
1.0
 50
0.0
 71
     0
 42
2.5
  3
simplex.shx
  4
CHINESET.shx
  0
STYLE
  5
2A29
330
3
100
AcDbSymbolTableRecord
100
AcDbTextStyleTableRecord
  2
DAYUS
 70
     0
 40
0.0
 41
1.0
 50
0.0
 71
     0
 42
1.5
  3
simplex.shx
  4
dayus.shx
  0
ENDTAB
  0
TABLE
  2
VIEW
  5
6
330
0
100
AcDbSymbolTable
 70
     0
  0
ENDTAB
  0
TABLE
  2
UCS
  5
7
330
0
100
AcDbSymbolTable
 70
     0
  0
ENDTAB
  0
TABLE
  2
APPID
  5
9
330
0
100
AcDbSymbolTable
 70
    28
  0
APPID
  5
12
330
9
100
AcDbSymbolTableRecord
100
AcDbRegAppTableRecord
  2
ACAD
 70
     0
  0
APPID
  5
46
330
9
100
AcDbSymbolTableRecord
100
AcDbRegAppTableRecord
  2
MCAD_NO_VIS
 70
     0
  0
APPID
  5
47
330
9
100
AcDbSymbolTableRecord
100
AcDbRegAppTableRecord
  2
ACAD_TEMP_GRAPHIC
 70
     0
  0
APPID
  5
58
330
9
100
AcDbSymbolTableRecord
100
AcDbRegAppTableRecord
  2
ACATTRIBSERVICES
 70
     0
  0
APPID
  5
EE
330
9
100
AcDbSymbolTableRecord
100
AcDbRegAppTableRecord
  2
AD_DRAW
 70
     0
  0
APPID
  5
10C
330
9
100
AcDbSymbolTableRecord
100
AcDbRegAppTableRecord
  2
DESIGNERASSEMBLIES
 70
     0
  0
APPID
  5
111
330
9
100
AcDbSymbolTableRecord
100
AcDbRegAppTableRecord
  2
ACADM_DIM_EDIT
 70
     0
  0
APPID
  5
112
330
9
100
AcDbSymbolTableRecord
100
AcDbRegAppTableRecord
  2
AMDT_DM_ADJ
 70
     0
  0
APPID
  5
22C
330
9
100
AcDbSymbolTableRecord
100
AcDbRegAppTableRecord
  2
ACAD_DSTYLE_DIMTEXT_FILL
 70
     0
  0
APPID
  5
452
330
9
100
AcDbSymbolTableRecord
100
AcDbRegAppTableRecord
  2
GENIUS_GENOENT_13
 70
     0
  0
APPID
  5
453
330
9
100
AcDbSymbolTableRecord
100
AcDbRegAppTableRecord
  2
GENIUS_GENOBJ-N-CRS_13
 70
     0
  0
APPID
  5
454
330
9
100
AcDbSymbolTableRecord
100
AcDbRegAppTableRecord
  2
GENIUS_GENOLIS_13
 70
     0
  0
APPID
  5
455
330
9
100
AcDbSymbolTableRecord
100
AcDbRegAppTableRecord
  2
GENIUS_GENODEF_13
 70
     0
  0
APPID
  5
456
330
9
100
AcDbSymbolTableRecord
100
AcDbRegAppTableRecord
  2
GENIUS_GENOREF_13
 70
     0
  0
APPID
  5
6F3
330
9
100
AcDbSymbolTableRecord
100
AcDbRegAppTableRecord
  2
ACAD_PSEXT
 70
     0
  0
APPID
  5
808
330
9
100
AcDbSymbolTableRecord
100
AcDbRegAppTableRecord
  2
GENIUS_GENDTOL_13
 70
     0
  0
APPID
  5
C9C
330
9
100
AcDbSymbolTableRecord
100
AcDbRegAppTableRecord
  2
GENIUS_GENOBJ-N-CEN_13
 70
     0
  0
APPID
  5
C9D
330
9
100
AcDbSymbolTableRecord
100
AcDbRegAppTableRecord
  2
GENIUS_GENCEN_19
 70
     0
  0
APPID
  5
C9E
330
9
100
AcDbSymbolTableRecord
100
AcDbRegAppTableRecord
  2
GENIUS_GENREC_14
 70
     0
  0
APPID
  5
C9F
330
9
100
AcDbSymbolTableRecord
100
AcDbRegAppTableRecord
  2
GENIUS_GENOBJ-N-REC_13
 70
     0
  0
APPID
  5
18AD
330
9
100
AcDbSymbolTableRecord
100
AcDbRegAppTableRecord
  2
GEVID1195260822
 70
     0
  0
APPID
  5
18AE
330
9
100
AcDbSymbolTableRecord
100
AcDbRegAppTableRecord
  2
GEVDC
 70
     0
  0
APPID
  5
18AF
330
9
100
AcDbSymbolTableRecord
100
AcDbRegAppTableRecord
  2
GEVRADREF
 70
     0
  0
APPID
  5
18B8
330
9
100
AcDbSymbolTableRecord
100
AcDbRegAppTableRecord
  2
AMG_2DHIDE
 70
     0
  0
APPID
  5
18B9
330
9
100
AcDbSymbolTableRecord
100
AcDbRegAppTableRecord
  2
AMG_2DSTRUCT_BTR
 70
     0
  0
APPID
  5
18CA
330
9
100
AcDbSymbolTableRecord
100
AcDbRegAppTableRecord
  2
ACADM_2DVIEW_IGN_NOTIFY
 70
     0
  0
APPID
  5
1C46
330
9
100
AcDbSymbolTableRecord
100
AcDbRegAppTableRecord
  2
GENIUS_GENBH_13
 70
     0
  0
APPID
  5
1C47
330
9
100
AcDbSymbolTableRecord
100
AcDbRegAppTableRecord
  2
GENIUS_GENOBJ-NBEHI-BHB_13
 70
     0
  0
ENDTAB
  0
TABLE
  2
DIMSTYLE
  5
A
330
0
100
AcDbSymbolTable
 70
     9
100
AcDbDimStyleTable
 71
     3
340
81
340
8B
340
86
  0
DIMSTYLE
105
81
102
{ACAD_REACTORS
330
2053
330
2056
330
2059
330
205C
330
205F
330
2062
330
2065
330
2068
330
206B
330
206E
330
2071
330
2074
330
2077
330
207A
330
207D
330
2080
330
2083
330
2086
330
2089
330
208C
330
208F
330
2092
102
}
330
A
100
AcDbSymbolTableRecord
100
AcDbDimStyleTableRecord
  2
AM_ISO
 70
     0
  4
"
 41
3.0
 42
1.5
 43
8.0
 44
1.5
 47
0.1
 48
0.1
 73
     0
 74
     0
 77
     1
 78
     8
 79
     2
140
3.5
141
0.0
143
0.0393701
146
0.6
147
1.0
172
     1
176
   256
177
   256
178
   256
271
     2
272
     2
283
     0
284
     8
340
11
371
    -1
372
    -1
  0
DIMSTYLE
105
82
102
{ACAD_REACTORS
330
292A
102
}
330
A
100
AcDbSymbolTableRecord
100
AcDbDimStyleTableRecord
  2
AM_ISO$3
 70
     0
  4
"
 41
3.0
 42
1.5
 43
8.0
 44
1.5
 47
0.1
 48
0.1
 73
     0
 77
     1
 78
     8
 79
     2
140
3.5
141
0.0
143
0.0393701
146
0.6
147
1.0
176
   256
177
   256
178
   256
271
     2
272
     2
283
     0
284
     8
288
     1
289
     0
340
11
371
    -1
372
    -1
  0
DIMSTYLE
105
83
102
{ACAD_REACTORS
330
292D
102
}
330
A
100
AcDbSymbolTableRecord
100
AcDbDimStyleTableRecord
  2
AM_ISO$4
 70
     0
  4
"
 41
3.0
 42
1.5
 43
8.0
 44
1.5
 47
0.1
 48
0.1
 73
     0
 77
     1
 78
     8
 79
     2
140
3.5
141
0.0
143
0.0393701
146
0.6
147
1.0
176
   256
177
   256
178
   256
271
     2
272
     2
283
     0
284
     8
288
     1
289
     0
340
11
371
    -1
372
    -1
  0
DIMSTYLE
105
84
330
A
100
AcDbSymbolTableRecord
100
AcDbDimStyleTableRecord
  2
AM_ISO$6
 70
     0
  4
"
 41
3.0
 42
1.5
 43
8.0
 44
1.5
 47
0.1
 48
0.1
 73
     0
 74
     0
 78
     8
 79
     2
140
3.5
141
0.0
143
0.0393701
146
0.6
147
1.0
172
     1
176
   256
177
   256
178
   256
271
     2
272
     2
283
     0
284
     8
340
11
371
    -1
372
    -1
  0
DIMSTYLE
105
85
330
A
100
AcDbSymbolTableRecord
100
AcDbDimStyleTableRecord
  2
AM_ISO$7
 70
     0
  4
"
 41
3.0
 42
1.5
 43
8.0
 44
1.5
 47
0.1
 48
0.1
 73
     0
 74
     0
 77
     1
 78
     8
 79
     2
140
5.0
141
0.0
143
0.0393701
146
0.6
147
1.0
172
     1
176
   256
177
   256
178
   256
271
     2
272
     2
283
     0
284
     8
340
11
371
    -1
372
    -1
  0
DIMSTYLE
105
86
330
A
100
AcDbSymbolTableRecord
100
AcDbDimStyleTableRecord
  2
AM_ISO$SF
 70
     0
  4
"
 41
2.5
 42
1.0
 43
10.0
 44
1.0
 47
0.1
 48
0.1
 73
     0
 74
     0
 75
     1
 76
     1
 77
     1
 78
     8
 79
     2
140
3.5
141
0.0
143
0.0393701
146
0.71
147
1.5
172
     1
176
   256
177
   256
178
     2
271
     2
272
     3
274
     4
283
     0
284
     8
340
11
371
    -1
372
    -1
  0
DIMSTYLE
105
8B
330
A
100
AcDbSymbolTableRecord
100
AcDbDimStyleTableRecord
  2
AM_ISO$SH
 70
     0
  4
"
 41
2.5
 42
1.0
 43
10.0
 44
1.0
 47
0.1
 48
0.1
 73
     0
 74
     0
 75
     1
 76
     1
 77
     1
 78
     8
 79
     2
140
3.5
141
0.0
143
0.0393701
144
2.0
146
0.71
147
1.5
172
     1
173
     1
176
   256
177
   256
178
     2
271
     2
272
     3
274
     4
283
     0
284
     8
340
11
343
87
371
    -1
372
    -1
  0
DIMSTYLE
105
40B
102
{ACAD_REACTORS
330
2915
330
2918
330
291B
330
291E
330
2921
330
2924
330
2927
330
292E
330
2931
330
2A73
330
2A74
330
2A75
330
2A78
330
2A79
330
2A71
330
2A72
102
}
330
A
100
AcDbSymbolTableRecord
100
AcDbDimStyleTableRecord
  2
AM_ISO$0
 70
     0
  4
"
 41
3.0
 42
1.5
 43
8.0
 44
1.5
 47
0.1
 48
0.1
 73
     0
 74
     0
 77
     1
 78
     8
 79
     2
140
3.5
141
0.0
143
0.0393701
146
0.6
147
1.0
172
     1
176
   256
177
   256
178
   256
271
     2
272
     2
283
     0
284
     8
340
11
371
    -1
372
    -1
  0
DIMSTYLE
105
2A2A
102
{ACAD_REACTORS
330
2A7A
102
}
330
A
100
AcDbSymbolTableRecord
100
AcDbDimStyleTableRecord
  2
DAYUS$3
 70
     0
  4
"
 40
0.5
 41
3.5
 42
2.5
 43
10.0
 44
1.0
 47
0.1
 48
0.1
 73
     0
 74
     0
 77
     1
 78
     8
 79
     2
140
4.5
141
0.0
143
0.0393701
146
0.71
147
1.5
172
     1
176
   256
177
   256
178
     3
271
     2
272
     2
283
     0
284
     8
340
2A29
371
    -1
372
    -1
  0
ENDTAB
  0
TABLE
  2
BLOCK_RECORD
  5
1
330
0
100
AcDbSymbolTable
 70
    48
  0
BLOCK_RECORD
  5
1F
102
{ACAD_XDICTIONARY
360
8F
102
}
330
1
100
AcDbSymbolTableRecord
100
AcDbBlockTableRecord
  2
*Model_Space
340
22
  0
BLOCK_RECORD
  5
1B
330
1
100
AcDbSymbolTableRecord
100
AcDbBlockTableRecord
  2
*Paper_Space
340
1E
  0
BLOCK_RECORD
  5
23
330
1
100
AcDbSymbolTableRecord
100
AcDbBlockTableRecord
  2
*Paper_Space0
340
26
  0
BLOCK_RECORD
  5
87
330
1
100
AcDbSymbolTableRecord
100
AcDbBlockTableRecord
  2
GENAXEH
340
0
  0
BLOCK_RECORD
  5
1C29
330
1
100
AcDbSymbolTableRecord
100
AcDbBlockTableRecord
  2
*S2
340
0
102
{BLKREFS
331
2095
102
}
  0
BLOCK_RECORD
  5
20B3
330
1
100
AcDbSymbolTableRecord
100
AcDbBlockTableRecord
  2
*D3
340
0
  0
BLOCK_RECORD
  5
20BF
330
1
100
AcDbSymbolTableRecord
100
AcDbBlockTableRecord
  2
*D4
340
0
  0
BLOCK_RECORD
  5
20CB
330
1
100
AcDbSymbolTableRecord
100
AcDbBlockTableRecord
  2
*D5
340
0
  0
BLOCK_RECORD
  5
20D7
330
1
100
AcDbSymbolTableRecord
100
AcDbBlockTableRecord
  2
*D6
340
0
  0
BLOCK_RECORD
  5
20E3
330
1
100
AcDbSymbolTableRecord
100
AcDbBlockTableRecord
  2
*D7
340
0
  0
BLOCK_RECORD
  5
20EF
330
1
100
AcDbSymbolTableRecord
100
AcDbBlockTableRecord
  2
*D8
340
0
  0
BLOCK_RECORD
  5
20FD
330
1
100
AcDbSymbolTableRecord
100
AcDbBlockTableRecord
  2
*D9
340
0
  0
BLOCK_RECORD
  5
2109
330
1
100
AcDbSymbolTableRecord
100
AcDbBlockTableRecord
  2
*D10
340
0
  0
BLOCK_RECORD
  5
2115
330
1
100
AcDbSymbolTableRecord
100
AcDbBlockTableRecord
  2
*D11
340
0
  0
BLOCK_RECORD
  5
2121
330
1
100
AcDbSymbolTableRecord
100
AcDbBlockTableRecord
  2
*D12
340
0
  0
BLOCK_RECORD
  5
212D
330
1
100
AcDbSymbolTableRecord
100
AcDbBlockTableRecord
  2
*D13
340
0
  0
BLOCK_RECORD
  5
213B
330
1
100
AcDbSymbolTableRecord
100
AcDbBlockTableRecord
  2
*D14
340
0
  0
BLOCK_RECORD
  5
2147
330
1
100
AcDbSymbolTableRecord
100
AcDbBlockTableRecord
  2
*D15
340
0
  0
BLOCK_RECORD
  5
2153
330
1
100
AcDbSymbolTableRecord
100
AcDbBlockTableRecord
  2
*D16
340
0
  0
BLOCK_RECORD
  5
215F
330
1
100
AcDbSymbolTableRecord
100
AcDbBlockTableRecord
  2
*D17
340
0
  0
BLOCK_RECORD
  5
216B
330
1
100
AcDbSymbolTableRecord
100
AcDbBlockTableRecord
  2
*D18
340
0
  0
BLOCK_RECORD
  5
2177
330
1
100
AcDbSymbolTableRecord
100
AcDbBlockTableRecord
  2
*D19
340
0
  0
BLOCK_RECORD
  5
2183
330
1
100
AcDbSymbolTableRecord
100
AcDbBlockTableRecord
  2
*D20
340
0
  0
BLOCK_RECORD
  5
218F
330
1
100
AcDbSymbolTableRecord
100
AcDbBlockTableRecord
  2
*D21
340
0
  0
BLOCK_RECORD
  5
219D
330
1
100
AcDbSymbolTableRecord
100
AcDbBlockTableRecord
  2
*D22
340
0
  0
BLOCK_RECORD
  5
21AB
330
1
100
AcDbSymbolTableRecord
100
AcDbBlockTableRecord
  2
*D23
340
0
  0
BLOCK_RECORD
  5
21B7
330
1
100
AcDbSymbolTableRecord
100
AcDbBlockTableRecord
  2
*D24
340
0
  0
BLOCK_RECORD
  5
2712
330
1
100
AcDbSymbolTableRecord
100
AcDbBlockTableRecord
  2
*S25
340
0
102
{BLKREFS
331
26B9
102
}
  0
BLOCK_RECORD
  5
271A
330
1
100
AcDbSymbolTableRecord
100
AcDbBlockTableRecord
  2
*S26
340
0
102
{BLKREFS
331
26E3
102
}
  0
BLOCK_RECORD
  5
2722
330
1
100
AcDbSymbolTableRecord
100
AcDbBlockTableRecord
  2
*S27
340
0
102
{BLKREFS
331
26E6
102
}
  0
BLOCK_RECORD
  5
2938
330
1
100
AcDbSymbolTableRecord
100
AcDbBlockTableRecord
  2
*D28
340
0
  0
BLOCK_RECORD
  5
2940
330
1
100
AcDbSymbolTableRecord
100
AcDbBlockTableRecord
  2
*D29
340
0
  0
BLOCK_RECORD
  5
294C
330
1
100
AcDbSymbolTableRecord
100
AcDbBlockTableRecord
  2
*D30
340
0
  0
BLOCK_RECORD
  5
2958
330
1
100
AcDbSymbolTableRecord
100
AcDbBlockTableRecord
  2
*D31
340
0
  0
BLOCK_RECORD
  5
2964
330
1
100
AcDbSymbolTableRecord
100
AcDbBlockTableRecord
  2
*D32
340
0
  0
BLOCK_RECORD
  5
2970
330
1
100
AcDbSymbolTableRecord
100
AcDbBlockTableRecord
  2
*D33
340
0
  0
BLOCK_RECORD
  5
297E
330
1
100
AcDbSymbolTableRecord
100
AcDbBlockTableRecord
  2
*D34
340
0
  0
BLOCK_RECORD
  5
298A
330
1
100
AcDbSymbolTableRecord
100
AcDbBlockTableRecord
  2
*D35
340
0
  0
BLOCK_RECORD
  5
2996
330
1
100
AcDbSymbolTableRecord
100
AcDbBlockTableRecord
  2
*D36
340
0
  0
BLOCK_RECORD
  5
29A4
330
1
100
AcDbSymbolTableRecord
100
AcDbBlockTableRecord
  2
*D37
340
0
  0
BLOCK_RECORD
  5
29B0
330
1
100
AcDbSymbolTableRecord
100
AcDbBlockTableRecord
  2
*D38
340
0
  0
BLOCK_RECORD
  5
2A98
330
1
100
AcDbSymbolTableRecord
100
AcDbBlockTableRecord
  2
*D39
340
0
  0
BLOCK_RECORD
  5
2AA4
330
1
100
AcDbSymbolTableRecord
100
AcDbBlockTableRecord
  2
*D40
340
0
  0
BLOCK_RECORD
  5
2AB0
330
1
100
AcDbSymbolTableRecord
100
AcDbBlockTableRecord
  2
*D41
340
0
  0
BLOCK_RECORD
  5
2ABC
330
1
100
AcDbSymbolTableRecord
100
AcDbBlockTableRecord
  2
*D42
340
0
  0
BLOCK_RECORD
  5
2AC8
330
1
100
AcDbSymbolTableRecord
100
AcDbBlockTableRecord
  2
*D43
340
0
  0
BLOCK_RECORD
  5
2AD4
330
1
100
AcDbSymbolTableRecord
100
AcDbBlockTableRecord
  2
*D44
340
0
  0
BLOCK_RECORD
  5
2AE2
330
1
100
AcDbSymbolTableRecord
100
AcDbBlockTableRecord
  2
*D45
340
0
  0
BLOCK_RECORD
  5
2AF0
330
1
100
AcDbSymbolTableRecord
100
AcDbBlockTableRecord
  2
*D46
340
0
  0
ENDTAB
  0
ENDSEC
  0
SECTION
  2
BLOCKS
  0
BLOCK
  5
20
330
1F
100
AcDbEntity
  8
0
100
AcDbBlockBegin
  2
*Model_Space
 70
     0
 10
0.0
 20
0.0
 30
0.0
  3
*Model_Space
  1

  0
ENDBLK
  5
21
330
1F
100
AcDbEntity
  8
0
100
AcDbBlockEnd
  0
BLOCK
  5
1C
330
1B
100
AcDbEntity
 67
     1
  8
0
100
AcDbBlockBegin
  2
*Paper_Space
 70
     0
 10
0.0
 20
0.0
 30
0.0
  3
*Paper_Space
  1

  0
ENDBLK
  5
1D
330
1B
100
AcDbEntity
 67
     1
  8
0
100
AcDbBlockEnd
  0
BLOCK
  5
24
330
23
100
AcDbEntity
  8
0
100
AcDbBlockBegin
  2
*Paper_Space0
 70
     0
 10
0.0
 20
0.0
 30
0.0
  3
*Paper_Space0
  1

  0
ENDBLK
  5
25
330
23
100
AcDbEntity
  8
0
100
AcDbBlockEnd
  0
BLOCK
  5
89
330
87
100
AcDbEntity
  8
0
100
AcDbBlockBegin
  2
GENAXEH
 70
     0
 10
0.0
 20
0.0
 30
0.0
  3
GENAXEH
  1

  0
LINE
  5
88
330
87
100
AcDbEntity
  8
0
100
AcDbLine
 10
-1.0
 20
0.0
 30
0.0
 11
1.0
 21
0.0
 31
0.0
  0
ENDBLK
  5
8A
330
87
100
AcDbEntity
  8
0
100
AcDbBlockEnd
  0
BLOCK
  5
1C2A
330
1C29
100
AcDbEntity
  8
0
100
AcDbBlockBegin
  2
*S2
 70
     1
 10
0.0
 20
0.0
 30
0.0
  3
*S2
  1

  0
LINE
  5
1C2B
330
1C29
100
AcDbEntity
  8
AM_5
100
AcDbLine
 10
209.7667653214025
 20
281.5085616385425
 30
0.0
 11
228.150224800416
 21
281.5085616385425
 31
0.0
  0
LINE
  5
1C2C
330
1C29
100
AcDbEntity
  8
AM_5
100
AcDbLine
 10
228.150224800416
 20
281.5085616385425
 30
0.0
 11
235.9093962072832
 21
291.2865835513235
 31
0.0
  0
TRACE
  5
1C2D
330
1C29
100
AcDbEntity
  8
AM_5
100
AcDbTrace
 10
236.2703439089866
 20
291.0001600690064
 30
0.0
 11
235.5484485055797
 21
291.5730070336406
 31
0.0
 12
238.084998560781
 22
294.0282535532483
 32
0.0
 13
238.084998560781
 23
294.0282535532483
 33
0.0
  0
MTEXT
  5
1C2E
330
1C29
100
AcDbEntity
  8
AM_5
 62
     2
100
AcDbMText
 10
209.7667653214025
 20
278.1147447729846
 30
0.0
 40
3.5
 41
0.0
 71
     9
 72
     5
  1

  7
ACISOTS
 73
     1
 44
1.0
1001
ACAD
1000
MTEXTBEGIN
1070
    73
1070
     1
1070
    44
1040
1.0
1070
    74
1070
     0
1000
MTEXTEND
  0
ENDBLK
  5
1C2F
330
1C29
100
AcDbEntity
  8
0
100
AcDbBlockEnd
  0
BLOCK
  5
20BD
330
20B3
100
AcDbEntity
  8
0
100
AcDbBlockBegin
  2
*D3
 70
     1
 10
0.0
 20
0.0
 30
0.0
  3
*D3
  1

  0
LINE
  5
2CE2
330
20B3
100
AcDbEntity
  8
AM_5
100
AcDbLine
 10
280.5648621994194
 20
282.4210132231659
 30
0.0
 11
280.5648621994194
 21
292.23689089355
 31
0.0
  0
LINE
  5
2CE3
330
20B3
100
AcDbEntity
  8
AM_5
100
AcDbLine
 10
316.5648621994194
 20
282.4210132231659
 30
0.0
 11
316.5648621994194
 21
292.23689089355
 31
0.0
  0
LINE
  5
2CE4
330
20B3
100
AcDbEntity
  8
AM_5
100
AcDbLine
 10
283.5648621994194
 20
290.73689089355
 30
0.0
 11
313.5648621994194
 21
290.73689089355
 31
0.0
  0
SOLID
  5
2CE5
330
20B3
100
AcDbEntity
  8
AM_5
100
AcDbTrace
 10
283.5648621994194
 20
291.23689089355
 30
0.0
 11
283.5648621994194
 21
290.23689089355
 31
0.0
 12
280.5648621994194
 22
290.73689089355
 32
0.0
 13
280.5648621994194
 23
290.73689089355
 33
0.0
  0
SOLID
  5
2CE6
330
20B3
100
AcDbEntity
  8
AM_5
100
AcDbTrace
 10
313.5648621994194
 20
291.23689089355
 30
0.0
 11
313.5648621994194
 21
290.23689089355
 31
0.0
 12
316.5648621994194
 22
290.73689089355
 32
0.0
 13
316.5648621994194
 23
290.73689089355
 33
0.0
  0
MTEXT
  5
2CE7
330
20B3
100
AcDbEntity
  8
AM_5
100
AcDbMText
 10
298.5648621994194
 20
293.48689089355
 30
0.0
 40
3.5
 41
0.0
 71
     5
 72
     1
  1
36
 73
     1
 44
1.0
1001
ACAD
1000
MTEXTBEGIN
1070
    73
1070
     1
1070
    44
1040
1.0
1070
    74
1070
     0
1000
MTEXTEND
  0
POINT
  5
2CE8
330
20B3
100
AcDbEntity
  8
Defpoints
 62
     0
100
AcDbPoint
 10
280.5648621994194
 20
280.9210132231659
 30
0.0
  0
POINT
  5
2CE9
330
20B3
100
AcDbEntity
  8
Defpoints
 62
     0
100
AcDbPoint
 10
316.5648621994194
 20
280.9210132231659
 30
0.0
  0
POINT
  5
2CEA
330
20B3
100
AcDbEntity
  8
Defpoints
 62
     0
100
AcDbPoint
 10
316.5648621994194
 20
290.73689089355
 30
0.0
  0
ENDBLK
  5
20BE
330
20B3
100
AcDbEntity
  8
0
100
AcDbBlockEnd
  0
BLOCK
  5
20C9
330
20BF
100
AcDbEntity
  8
0
100
AcDbBlockBegin
  2
*D4
 70
     1
 10
0.0
 20
0.0
 30
0.0
  3
*D4
  1

  0
LINE
  5
2CEB
330
20BF
100
AcDbEntity
  8
AM_5
100
AcDbLine
 10
268.5648621994195
 20
284.1674525646254
 30
0.0
 11
268.5648621994195
 21
299.23689089355
 31
0.0
  0
LINE
  5
2CEC
330
20BF
100
AcDbEntity
  8
AM_5
100
AcDbLine
 10
328.5648621994194
 20
284.1674525646254
 30
0.0
 11
328.5648621994194
 21
299.23689089355
 31
0.0
  0
LINE
  5
2CED
330
20BF
100
AcDbEntity
  8
AM_5
100
AcDbLine
 10
271.5648621994195
 20
297.73689089355
 30
0.0
 11
325.5648621994194
 21
297.73689089355
 31
0.0
  0
SOLID
  5
2CEE
330
20BF
100
AcDbEntity
  8
AM_5
100
AcDbTrace
 10
271.5648621994195
 20
298.23689089355
 30
0.0
 11
271.5648621994195
 21
297.23689089355
 31
0.0
 12
268.5648621994195
 22
297.73689089355
 32
0.0
 13
268.5648621994195
 23
297.73689089355
 33
0.0
  0
SOLID
  5
2CEF
330
20BF
100
AcDbEntity
  8
AM_5
100
AcDbTrace
 10
325.5648621994194
 20
298.23689089355
 30
0.0
 11
325.5648621994194
 21
297.23689089355
 31
0.0
 12
328.5648621994194
 22
297.73689089355
 32
0.0
 13
328.5648621994194
 23
297.73689089355
 33
0.0
  0
MTEXT
  5
2CF0
330
20BF
100
AcDbEntity
  8
AM_5
100
AcDbMText
 10
298.5648621994195
 20
300.6618908935501
 30
0.0
 40
3.5
 41
0.0
 71
     5
 72
     1
  1
(60)
 73
     1
 44
1.0
1001
ACAD
1000
MTEXTBEGIN
1070
    73
1070
     1
1070
    44
1040
1.0
1070
    74
1070
     0
1000
MTEXTEND
  0
POINT
  5
2CF1
330
20BF
100
AcDbEntity
  8
Defpoints
 62
     0
100
AcDbPoint
 10
268.5648621994195
 20
282.6674525646254
 30
0.0
  0
POINT
  5
2CF2
330
20BF
100
AcDbEntity
  8
Defpoints
 62
     0
100
AcDbPoint
 10
328.5648621994194
 20
282.6674525646254
 30
0.0
  0
POINT
  5
2CF3
330
20BF
100
AcDbEntity
  8
Defpoints
 62
     0
100
AcDbPoint
 10
328.5648621994194
 20
297.73689089355
 30
0.0
  0
ENDBLK
  5
20CA
330
20BF
100
AcDbEntity
  8
0
100
AcDbBlockEnd
  0
BLOCK
  5
20D5
330
20CB
100
AcDbEntity
  8
0
100
AcDbBlockBegin
  2
*D5
 70
     1
 10
0.0
 20
0.0
 30
0.0
  3
*D5
  1

  0
LINE
  5
2CF4
330
20CB
100
AcDbEntity
  8
AM_5
100
AcDbLine
 10
264.0648621994195
 20
281.9210132231649
 30
0.0
 11
264.0648621994195
 21
306.23689089355
 31
0.0
  0
LINE
  5
2CF5
330
20CB
100
AcDbEntity
  8
AM_5
100
AcDbLine
 10
333.0648621994194
 20
281.9210132231649
 30
0.0
 11
333.0648621994194
 21
306.23689089355
 31
0.0
  0
LINE
  5
2CF6
330
20CB
100
AcDbEntity
  8
AM_5
100
AcDbLine
 10
267.0648621994195
 20
304.73689089355
 30
0.0
 11
330.0648621994194
 21
304.73689089355
 31
0.0
  0
SOLID
  5
2CF7
330
20CB
100
AcDbEntity
  8
AM_5
100
AcDbTrace
 10
267.0648621994195
 20
305.23689089355
 30
0.0
 11
267.0648621994195
 21
304.23689089355
 31
0.0
 12
264.0648621994195
 22
304.73689089355
 32
0.0
 13
264.0648621994195
 23
304.73689089355
 33
0.0
  0
SOLID
  5
2CF8
330
20CB
100
AcDbEntity
  8
AM_5
100
AcDbTrace
 10
330.0648621994194
 20
305.23689089355
 30
0.0
 11
330.0648621994194
 21
304.23689089355
 31
0.0
 12
333.0648621994194
 22
304.73689089355
 32
0.0
 13
333.0648621994194
 23
304.73689089355
 33
0.0
  0
MTEXT
  5
2CF9
330
20CB
100
AcDbEntity
  8
AM_5
100
AcDbMText
 10
298.5648621994195
 20
307.48689089355
 30
0.0
 40
3.5
 41
0.0
 71
     5
 72
     1
  1
69
 73
     1
 44
1.0
1001
ACAD
1000
MTEXTBEGIN
1070
    73
1070
     1
1070
    44
1040
1.0
1070
    74
1070
     0
1000
MTEXTEND
  0
POINT
  5
2CFA
330
20CB
100
AcDbEntity
  8
Defpoints
 62
     0
100
AcDbPoint
 10
264.0648621994195
 20
280.4210132231649
 30
0.0
  0
POINT
  5
2CFB
330
20CB
100
AcDbEntity
  8
Defpoints
 62
     0
100
AcDbPoint
 10
333.0648621994194
 20
280.4210132231649
 30
0.0
  0
POINT
  5
2CFC
330
20CB
100
AcDbEntity
  8
Defpoints
 62
     0
100
AcDbPoint
 10
333.0648621994194
 20
304.73689089355
 30
0.0
  0
ENDBLK
  5
20D6
330
20CB
100
AcDbEntity
  8
0
100
AcDbBlockEnd
  0
BLOCK
  5
20E1
330
20D7
100
AcDbEntity
  8
0
100
AcDbBlockBegin
  2
*D6
 70
     1
 10
0.0
 20
0.0
 30
0.0
  3
*D6
  1

  0
LINE
  5
2CFD
330
20D7
100
AcDbEntity
  8
AM_5
100
AcDbLine
 10
333.0648621994194
 20
281.9210132231649
 30
0.0
 11
333.0648621994194
 21
306.23689089355
 31
0.0
  0
LINE
  5
2CFE
330
20D7
100
AcDbEntity
  8
AM_5
100
AcDbLine
 10
348.5648621994194
 20
284.171013223165
 30
0.0
 11
348.5648621994194
 21
306.23689089355
 31
0.0
  0
LINE
  5
2CFF
330
20D7
100
AcDbEntity
  8
AM_5
100
AcDbLine
 10
336.0648621994194
 20
304.73689089355
 30
0.0
 11
345.5648621994194
 21
304.73689089355
 31
0.0
  0
SOLID
  5
2D00
330
20D7
100
AcDbEntity
  8
AM_5
100
AcDbTrace
 10
336.0648621994194
 20
305.23689089355
 30
0.0
 11
336.0648621994194
 21
304.23689089355
 31
0.0
 12
333.0648621994194
 22
304.73689089355
 32
0.0
 13
333.0648621994194
 23
304.73689089355
 33
0.0
  0
SOLID
  5
2D01
330
20D7
100
AcDbEntity
  8
AM_5
100
AcDbTrace
 10
345.5648621994194
 20
305.23689089355
 30
0.0
 11
345.5648621994194
 21
304.23689089355
 31
0.0
 12
348.5648621994194
 22
304.73689089355
 32
0.0
 13
348.5648621994194
 23
304.73689089355
 33
0.0
  0
MTEXT
  5
2D02
330
20D7
100
AcDbEntity
  8
AM_5
100
AcDbMText
 10
340.8148621994194
 20
307.48689089355
 30
0.0
 40
3.5
 41
0.0
 71
     5
 72
     1
  1
15.5
 73
     1
 44
1.0
1001
ACAD
1000
MTEXTBEGIN
1070
    73
1070
     1
1070
    44
1040
1.0
1070
    74
1070
     0
1000
MTEXTEND
  0
POINT
  5
2D03
330
20D7
100
AcDbEntity
  8
Defpoints
 62
     0
100
AcDbPoint
 10
333.0648621994194
 20
280.4210132231649
 30
0.0
  0
POINT
  5
2D04
330
20D7
100
AcDbEntity
  8
Defpoints
 62
     0
100
AcDbPoint
 10
348.5648621994194
 20
282.671013223165
 30
0.0
  0
POINT
  5
2D05
330
20D7
100
AcDbEntity
  8
Defpoints
 62
     0
100
AcDbPoint
 10
348.5648621994194
 20
304.73689089355
 30
0.0
  0
ENDBLK
  5
20E2
330
20D7
100
AcDbEntity
  8
0
100
AcDbBlockEnd
  0
BLOCK
  5
20ED
330
20E3
100
AcDbEntity
  8
0
100
AcDbBlockBegin
  2
*D7
 70
     1
 10
0.0
 20
0.0
 30
0.0
  3
*D7
  1

  0
LINE
  5
2DB0
330
20E3
100
AcDbEntity
  8
AM_5
100
AcDbLine
 10
276.0648621994184
 20
261.4210132231647
 30
0.0
 11
274.9887487085313
 21
261.4210132231647
 31
0.0
  0
LINE
  5
2DB1
330
20E3
100
AcDbEntity
  8
AM_5
100
AcDbLine
 10
276.0648621994184
 20
277.9210132231649
 30
0.0
 11
274.9887487085313
 21
277.9210132231649
 31
0.0
  0
LINE
  5
2DB2
330
20E3
100
AcDbEntity
  8
AM_5
100
AcDbLine
 10
276.4887487085313
 20
264.4210132231647
 30
0.0
 11
276.4887487085313
 21
274.9210132231649
 31
0.0
  0
SOLID
  5
2DB3
330
20E3
100
AcDbEntity
  8
AM_5
100
AcDbTrace
 10
275.9887487085313
 20
264.4210132231647
 30
0.0
 11
276.9887487085313
 21
264.4210132231647
 31
0.0
 12
276.4887487085313
 22
261.4210132231647
 32
0.0
 13
276.4887487085313
 23
261.4210132231647
 33
0.0
  0
SOLID
  5
2DB4
330
20E3
100
AcDbEntity
  8
AM_5
100
AcDbTrace
 10
275.9887487085313
 20
274.9210132231649
 30
0.0
 11
276.9887487085313
 21
274.9210132231649
 31
0.0
 12
276.4887487085313
 22
277.9210132231649
 32
0.0
 13
276.4887487085313
 23
277.9210132231649
 33
0.0
  0
MTEXT
  5
2DB5
330
20E3
100
AcDbEntity
  8
AM_5
100
AcDbMText
 10
273.7387487085312
 20
269.5115678350628
 30
0.0
 40
3.5
 41
0.0
 71
     5
 72
     1
  1
16.5
 11
0.0000000000000001
 21
1.0
 31
0.0
 73
     1
 44
1.0
1001
ACAD
1000
MTEXTBEGIN
1070
    73
1070
     1
1070
    44
1040
1.0
1070
    74
1070
     0
1000
MTEXTEND
  0
POINT
  5
2DB6
330
20E3
100
AcDbEntity
  8
Defpoints
 62
     0
100
AcDbPoint
 10
277.5648621994184
 20
261.4210132231647
 30
0.0
  0
POINT
  5
2DB7
330
20E3
100
AcDbEntity
  8
Defpoints
 62
     0
100
AcDbPoint
 10
277.5648621994184
 20
277.9210132231649
 30
0.0
  0
POINT
  5
2DB8
330
20E3
100
AcDbEntity
  8
Defpoints
 62
     0
100
AcDbPoint
 10
276.4887487085313
 20
277.9210132231649
 30
0.0
  0
ENDBLK
  5
20EE
330
20E3
100
AcDbEntity
  8
0
100
AcDbBlockEnd
  0
BLOCK
  5
20FB
330
20EF
100
AcDbEntity
  8
0
100
AcDbBlockBegin
  2
*D8
 70
     1
 10
0.0
 20
0.0
 30
0.0
  3
*D8
  1

  0
LINE
  5
2D0F
330
20EF
100
AcDbEntity
  8
AM_5
100
AcDbLine
 10
363.5648621994194
 20
203.2954268390648
 30
0.0
 11
363.5648621994194
 21
215.7954268390648
 31
0.0
  0
LINE
  5
2D10
330
20EF
100
AcDbEntity
  8
AM_5
100
AcDbLine
 10
358.0648621994195
 20
195.0479693280991
 30
0.0
 11
358.0648621994195
 21
215.7954268390648
 31
0.0
  0
LINE
  5
2D11
330
20EF
100
AcDbEntity
  8
AM_5
100
AcDbLine
 10
366.5648621994194
 20
214.2954268390648
 30
0.0
 11
369.5648621994194
 21
214.2954268390648
 31
0.0
  0
LINE
  5
2D12
330
20EF
100
AcDbEntity
  8
AM_5
100
AcDbLine
 10
355.0648621994195
 20
214.2954268390648
 30
0.0
 11
352.0648621994195
 21
214.2954268390648
 31
0.0
  0
LINE
  5
2D13
330
20EF
100
AcDbEntity
  8
AM_5
100
AcDbLine
 10
363.5648621994194
 20
214.2954268390648
 30
0.0
 11
358.0648621994195
 21
214.2954268390648
 31
0.0
  0
SOLID
  5
2D14
330
20EF
100
AcDbEntity
  8
AM_5
100
AcDbTrace
 10
366.5648621994194
 20
214.7954268390648
 30
0.0
 11
366.5648621994194
 21
213.7954268390648
 31
0.0
 12
363.5648621994194
 22
214.2954268390648
 32
0.0
 13
363.5648621994194
 23
214.2954268390648
 33
0.0
  0
SOLID
  5
2D15
330
20EF
100
AcDbEntity
  8
AM_5
100
AcDbTrace
 10
355.0648621994195
 20
214.7954268390648
 30
0.0
 11
355.0648621994195
 21
213.7954268390648
 31
0.0
 12
358.0648621994195
 22
214.2954268390648
 32
0.0
 13
358.0648621994195
 23
214.2954268390648
 33
0.0
  0
MTEXT
  5
2D16
330
20EF
100
AcDbEntity
  8
AM_5
100
AcDbMText
 10
360.8148621994195
 20
217.0454268390648
 30
0.0
 40
3.5
 41
0.0
 71
     5
 72
     1
  1
5.5
 73
     1
 44
1.0
1001
ACAD
1000
MTEXTBEGIN
1070
    73
1070
     1
1070
    44
1040
1.0
1070
    74
1070
     0
1000
MTEXTEND
  0
POINT
  5
2D17
330
20EF
100
AcDbEntity
  8
Defpoints
 62
     0
100
AcDbPoint
 10
363.5648621994194
 20
201.7954268390648
 30
0.0
  0
POINT
  5
2D18
330
20EF
100
AcDbEntity
  8
Defpoints
 62
     0
100
AcDbPoint
 10
358.0648621994195
 20
193.5479693280991
 30
0.0
  0
POINT
  5
2D19
330
20EF
100
AcDbEntity
  8
Defpoints
 62
     0
100
AcDbPoint
 10
358.0648621994195
 20
214.2954268390648
 30
0.0
  0
ENDBLK
  5
20FC
330
20EF
100
AcDbEntity
  8
0
100
AcDbBlockEnd
  0
BLOCK
  5
2107
330
20FD
100
AcDbEntity
  8
0
100
AcDbBlockBegin
  2
*D9
 70
     1
 10
0.0
 20
0.0
 30
0.0
  3
*D9
  1

  0
LINE
  5
2D1A
330
20FD
100
AcDbEntity
  8
AM_5
100
AcDbLine
 10
363.5648621994194
 20
203.2954268390648
 30
0.0
 11
363.5648621994194
 21
222.7954268390648
 31
0.0
  0
LINE
  5
2D1B
330
20FD
100
AcDbEntity
  8
AM_5
100
AcDbLine
 10
351.5648621994194
 20
196.6376569930918
 30
0.0
 11
351.5648621994194
 21
222.7954268390648
 31
0.0
  0
LINE
  5
2D1C
330
20FD
100
AcDbEntity
  8
AM_5
100
AcDbLine
 10
360.5648621994194
 20
221.2954268390648
 30
0.0
 11
354.5648621994194
 21
221.2954268390648
 31
0.0
  0
SOLID
  5
2D1D
330
20FD
100
AcDbEntity
  8
AM_5
100
AcDbTrace
 10
360.5648621994194
 20
221.7954268390648
 30
0.0
 11
360.5648621994194
 21
220.7954268390648
 31
0.0
 12
363.5648621994194
 22
221.2954268390648
 32
0.0
 13
363.5648621994194
 23
221.2954268390648
 33
0.0
  0
SOLID
  5
2D1E
330
20FD
100
AcDbEntity
  8
AM_5
100
AcDbTrace
 10
354.5648621994194
 20
221.7954268390648
 30
0.0
 11
354.5648621994194
 21
220.7954268390648
 31
0.0
 12
351.5648621994194
 22
221.2954268390648
 32
0.0
 13
351.5648621994194
 23
221.2954268390648
 33
0.0
  0
MTEXT
  5
2D1F
330
20FD
100
AcDbEntity
  8
AM_5
100
AcDbMText
 10
357.5648621994194
 20
224.0457713272538
 30
0.0
 40
3.5
 41
0.0
 71
     5
 72
     1
  1
12
 73
     1
 44
1.0
1001
ACAD
1000
MTEXTBEGIN
1070
    73
1070
     1
1070
    44
1040
1.0
1070
    74
1070
     0
1000
MTEXTEND
  0
POINT
  5
2D20
330
20FD
100
AcDbEntity
  8
Defpoints
 62
     0
100
AcDbPoint
 10
363.5648621994194
 20
201.7954268390648
 30
0.0
  0
POINT
  5
2D21
330
20FD
100
AcDbEntity
  8
Defpoints
 62
     0
100
AcDbPoint
 10
351.5648621994194
 20
195.1376569930918
 30
0.0
  0
POINT
  5
2D22
330
20FD
100
AcDbEntity
  8
Defpoints
 62
     0
100
AcDbPoint
 10
351.5648621994194
 20
221.2954268390648
 30
0.0
  0
ENDBLK
  5
2108
330
20FD
100
AcDbEntity
  8
0
100
AcDbBlockEnd
  0
BLOCK
  5
2113
330
2109
100
AcDbEntity
  8
0
100
AcDbBlockBegin
  2
*D10
 70
     1
 10
0.0
 20
0.0
 30
0.0
  3
*D10
  1

  0
LINE
  5
2D23
330
2109
100
AcDbEntity
  8
AM_5
100
AcDbLine
 10
363.5648621994194
 20
203.2954268390648
 30
0.0
 11
363.5648621994194
 21
229.7954268390648
 31
0.0
  0
LINE
  5
2D24
330
2109
100
AcDbEntity
  8
AM_5
100
AcDbLine
 10
298.5648621994194
 20
214.8258415118213
 30
0.0
 11
298.5648621994194
 21
229.7954268390648
 31
0.0
  0
LINE
  5
2D25
330
2109
100
AcDbEntity
  8
AM_5
100
AcDbLine
 10
360.5648621994194
 20
228.2954268390648
 30
0.0
 11
301.5648621994194
 21
228.2954268390648
 31
0.0
  0
SOLID
  5
2D26
330
2109
100
AcDbEntity
  8
AM_5
100
AcDbTrace
 10
360.5648621994194
 20
228.7954268390648
 30
0.0
 11
360.5648621994194
 21
227.7954268390648
 31
0.0
 12
363.5648621994194
 22
228.2954268390648
 32
0.0
 13
363.5648621994194
 23
228.2954268390648
 33
0.0
  0
SOLID
  5
2D27
330
2109
100
AcDbEntity
  8
AM_5
100
AcDbTrace
 10
301.5648621994194
 20
228.7954268390648
 30
0.0
 11
301.5648621994194
 21
227.7954268390648
 31
0.0
 12
298.5648621994194
 22
228.2954268390648
 32
0.0
 13
298.5648621994194
 23
228.2954268390648
 33
0.0
  0
MTEXT
  5
2D28
330
2109
100
AcDbEntity
  8
AM_5
100
AcDbMText
 10
331.0648621994194
 20
231.0454268390648
 30
0.0
 40
3.5
 41
0.0
 71
     5
 72
     1
  1
65
 73
     1
 44
1.0
1001
ACAD
1000
MTEXTBEGIN
1070
    73
1070
     1
1070
    44
1040
1.0
1070
    74
1070
     0
1000
MTEXTEND
  0
POINT
  5
2D29
330
2109
100
AcDbEntity
  8
Defpoints
 62
     0
100
AcDbPoint
 10
363.5648621994194
 20
201.7954268390648
 30
0.0
  0
POINT
  5
2D2A
330
2109
100
AcDbEntity
  8
Defpoints
 62
     0
100
AcDbPoint
 10
298.5648621994194
 20
213.3258415118213
 30
0.0
  0
POINT
  5
2D2B
330
2109
100
AcDbEntity
  8
Defpoints
 62
     0
100
AcDbPoint
 10
298.5648621994194
 20
228.2954268390648
 30
0.0
  0
ENDBLK
  5
2114
330
2109
100
AcDbEntity
  8
0
100
AcDbBlockEnd
  0
BLOCK
  5
211F
330
2115
100
AcDbEntity
  8
0
100
AcDbBlockBegin
  2
*D11
 70
     1
 10
0.0
 20
0.0
 30
0.0
  3
*D11
  1

  0
LINE
  5
2D2C
330
2115
100
AcDbEntity
  8
AM_5
100
AcDbLine
 10
233.5648621994196
 20
203.2954268390648
 30
0.0
 11
233.5648621994196
 21
215.7954268390648
 31
0.0
  0
LINE
  5
2D2D
330
2115
100
AcDbEntity
  8
AM_5
100
AcDbLine
 10
248.5648621994196
 20
203.2954268390648
 30
0.0
 11
248.5648621994196
 21
215.7954268390648
 31
0.0
  0
LINE
  5
2D2E
330
2115
100
AcDbEntity
  8
AM_5
100
AcDbLine
 10
236.5648621994196
 20
214.2954268390648
 30
0.0
 11
245.5648621994196
 21
214.2954268390648
 31
0.0
  0
SOLID
  5
2D2F
330
2115
100
AcDbEntity
  8
AM_5
100
AcDbTrace
 10
236.5648621994196
 20
214.7954268390648
 30
0.0
 11
236.5648621994196
 21
213.7954268390648
 31
0.0
 12
233.5648621994196
 22
214.2954268390648
 32
0.0
 13
233.5648621994196
 23
214.2954268390648
 33
0.0
  0
SOLID
  5
2D30
330
2115
100
AcDbEntity
  8
AM_5
100
AcDbTrace
 10
245.5648621994196
 20
214.7954268390648
 30
0.0
 11
245.5648621994196
 21
213.7954268390648
 31
0.0
 12
248.5648621994196
 22
214.2954268390648
 32
0.0
 13
248.5648621994196
 23
214.2954268390648
 33
0.0
  0
MTEXT
  5
2D31
330
2115
100
AcDbEntity
  8
AM_5
100
AcDbMText
 10
241.0648621994196
 20
217.0454268390648
 30
0.0
 40
3.5
 41
0.0
 71
     5
 72
     1
  1
15
 73
     1
 44
1.0
1001
ACAD
1000
MTEXTBEGIN
1070
    73
1070
     1
1070
    44
1040
1.0
1070
    74
1070
     0
1000
MTEXTEND
  0
POINT
  5
2D32
330
2115
100
AcDbEntity
  8
Defpoints
 62
     0
100
AcDbPoint
 10
233.5648621994196
 20
201.7954268390648
 30
0.0
  0
POINT
  5
2D33
330
2115
100
AcDbEntity
  8
Defpoints
 62
     0
100
AcDbPoint
 10
248.5648621994196
 20
201.7954268390648
 30
0.0
  0
POINT
  5
2D34
330
2115
100
AcDbEntity
  8
Defpoints
 62
     0
100
AcDbPoint
 10
248.5648621994196
 20
214.2954268390648
 30
0.0
  0
ENDBLK
  5
2120
330
2115
100
AcDbEntity
  8
0
100
AcDbBlockEnd
  0
BLOCK
  5
212B
330
2121
100
AcDbEntity
  8
0
100
AcDbBlockBegin
  2
*D12
 70
     1
 10
0.0
 20
0.0
 30
0.0
  3
*D12
  1

  0
LINE
  5
2D35
330
2121
100
AcDbEntity
  8
AM_5
100
AcDbLine
 10
233.5648621994196
 20
203.2954268390648
 30
0.0
 11
233.5648621994196
 21
236.7954268390648
 31
0.0
  0
LINE
  5
2D36
330
2121
100
AcDbEntity
  8
AM_5
100
AcDbLine
 10
363.5648621994194
 20
203.2954268390648
 30
0.0
 11
363.5648621994194
 21
236.7954268390648
 31
0.0
  0
LINE
  5
2D37
330
2121
100
AcDbEntity
  8
AM_5
100
AcDbLine
 10
236.5648621994196
 20
235.2954268390648
 30
0.0
 11
360.5648621994194
 21
235.2954268390648
 31
0.0
  0
SOLID
  5
2D38
330
2121
100
AcDbEntity
  8
AM_5
100
AcDbTrace
 10
236.5648621994196
 20
235.7954268390648
 30
0.0
 11
236.5648621994196
 21
234.7954268390648
 31
0.0
 12
233.5648621994196
 22
235.2954268390648
 32
0.0
 13
233.5648621994196
 23
235.2954268390648
 33
0.0
  0
SOLID
  5
2D39
330
2121
100
AcDbEntity
  8
AM_5
100
AcDbTrace
 10
360.5648621994194
 20
235.7954268390648
 30
0.0
 11
360.5648621994194
 21
234.7954268390648
 31
0.0
 12
363.5648621994194
 22
235.2954268390648
 32
0.0
 13
363.5648621994194
 23
235.2954268390648
 33
0.0
  0
MTEXT
  5
2D3A
330
2121
100
AcDbEntity
  8
AM_5
100
AcDbMText
 10
298.5648621994195
 20
238.0454268390648
 30
0.0
 40
3.5
 41
0.0
 71
     5
 72
     1
  1
130+stroke
 73
     1
 44
1.0
1001
ACAD
1000
MTEXTBEGIN
1070
    73
1070
     1
1070
    44
1040
1.0
1070
    74
1070
     0
1000
MTEXTEND
  0
POINT
  5
2D3B
330
2121
100
AcDbEntity
  8
Defpoints
 62
     0
100
AcDbPoint
 10
233.5648621994196
 20
201.7954268390648
 30
0.0
  0
POINT
  5
2D3C
330
2121
100
AcDbEntity
  8
Defpoints
 62
     0
100
AcDbPoint
 10
363.5648621994194
 20
201.7954268390648
 30
0.0
  0
POINT
  5
2D3D
330
2121
100
AcDbEntity
  8
Defpoints
 62
     0
100
AcDbPoint
 10
363.5648621994194
 20
235.2954268390648
 30
0.0
  0
ENDBLK
  5
212C
330
2121
100
AcDbEntity
  8
0
100
AcDbBlockEnd
  0
BLOCK
  5
2139
330
212D
100
AcDbEntity
  8
0
100
AcDbBlockBegin
  2
*D13
 70
     1
 10
0.0
 20
0.0
 30
0.0
  3
*D13
  1

  0
LINE
  5
2D3E
330
212D
100
AcDbEntity
  8
AM_5
100
AcDbLine
 10
249.5648621994196
 20
175.2954268390648
 30
0.0
 11
257.6845139536554
 21
175.2954268390648
 31
0.0
  0
LINE
  5
2D3F
330
212D
100
AcDbEntity
  8
AM_5
100
AcDbLine
 10
250.0648621994196
 20
176.7954268390635
 30
0.0
 11
257.6845139536554
 21
176.7954268390635
 31
0.0
  0
LINE
  5
2D40
330
212D
100
AcDbEntity
  8
AM_5
100
AcDbLine
 10
256.1845139536554
 20
179.7954268390635
 30
0.0
 11
256.1845139536554
 21
182.7954268390636
 31
0.0
  0
LINE
  5
2D41
330
212D
100
AcDbEntity
  8
AM_5
100
AcDbLine
 10
256.1845139536554
 20
172.2954268390648
 30
0.0
 11
256.1845139536554
 21
161.5662145942151
 31
0.0
  0
LINE
  5
2D42
330
212D
100
AcDbEntity
  8
AM_5
100
AcDbLine
 10
256.1845139536554
 20
176.7954268390635
 30
0.0
 11
256.1845139536554
 21
175.2954268390648
 31
0.0
  0
SOLID
  5
2D43
330
212D
100
AcDbEntity
  8
AM_5
100
AcDbTrace
 10
255.6845139536554
 20
179.7954268390635
 30
0.0
 11
256.6845139536554
 21
179.7954268390635
 31
0.0
 12
256.1845139536554
 22
176.7954268390635
 32
0.0
 13
256.1845139536554
 23
176.7954268390635
 33
0.0
  0
SOLID
  5
2D44
330
212D
100
AcDbEntity
  8
AM_5
100
AcDbTrace
 10
255.6845139536554
 20
172.2954268390648
 30
0.0
 11
256.6845139536554
 21
172.2954268390648
 31
0.0
 12
256.1845139536554
 22
175.2954268390648
 32
0.0
 13
256.1845139536554
 23
175.2954268390648
 33
0.0
  0
MTEXT
  5
2D45
330
212D
100
AcDbEntity
  8
AM_5
100
AcDbMText
 10
253.4345139536554
 20
164.7387019676304
 30
0.0
 40
3.5
 41
0.0
 71
     5
 72
     1
  1
1.5
 11
0.0000000000000001
 21
1.0
 31
0.0
 73
     1
 44
1.0
1001
ACAD
1000
MTEXTBEGIN
1070
    73
1070
     1
1070
    44
1040
1.0
1070
    74
1070
     0
1000
MTEXTEND
  0
POINT
  5
2D46
330
212D
100
AcDbEntity
  8
Defpoints
 62
     0
100
AcDbPoint
 10
248.0648621994196
 20
175.2954268390648
 30
0.0
  0
POINT
  5
2D47
330
212D
100
AcDbEntity
  8
Defpoints
 62
     0
100
AcDbPoint
 10
248.5648621994196
 20
176.7954268390635
 30
0.0
  0
POINT
  5
2D48
330
212D
100
AcDbEntity
  8
Defpoints
 62
     0
100
AcDbPoint
 10
256.1845139536554
 20
176.7954268390635
 30
0.0
  0
ENDBLK
  5
213A
330
212D
100
AcDbEntity
  8
0
100
AcDbBlockEnd
  0
BLOCK
  5
2145
330
213B
100
AcDbEntity
  8
0
100
AcDbBlockBegin
  2
*D14
 70
     1
 10
0.0
 20
0.0
 30
0.0
  3
*D14
  1

  0
LINE
  5
2D49
330
213B
100
AcDbEntity
  8
AM_5
100
AcDbLine
 10
419.4421137081061
 20
174.1293882385433
 30
0.0
 11
419.4421137081061
 21
165.2014852704027
 31
0.0
  0
LINE
  5
2D4A
330
213B
100
AcDbEntity
  8
AM_5
100
AcDbLine
 10
437.4421137081061
 20
174.1293882385433
 30
0.0
 11
437.4421137081061
 21
165.2014852704027
 31
0.0
  0
LINE
  5
2D4B
330
213B
100
AcDbEntity
  8
AM_5
100
AcDbLine
 10
422.4421137081061
 20
166.7014852704027
 30
0.0
 11
434.4421137081061
 21
166.7014852704027
 31
0.0
  0
SOLID
  5
2D4C
330
213B
100
AcDbEntity
  8
AM_5
100
AcDbTrace
 10
422.4421137081061
 20
167.2014852704027
 30
0.0
 11
422.4421137081061
 21
166.2014852704027
 31
0.0
 12
419.4421137081061
 22
166.7014852704027
 32
0.0
 13
419.4421137081061
 23
166.7014852704027
 33
0.0
  0
SOLID
  5
2D4D
330
213B
100
AcDbEntity
  8
AM_5
100
AcDbTrace
 10
434.4421137081061
 20
167.2014852704027
 30
0.0
 11
434.4421137081061
 21
166.2014852704027
 31
0.0
 12
437.4421137081061
 22
166.7014852704027
 32
0.0
 13
437.4421137081061
 23
166.7014852704027
 33
0.0
  0
MTEXT
  5
2D4E
330
213B
100
AcDbEntity
  8
AM_5
100
AcDbMText
 10
428.4421137081061
 20
169.4514852704027
 30
0.0
 40
3.5
 41
0.0
 71
     5
 72
     1
  1
18
 73
     1
 44
1.0
1001
ACAD
1000
MTEXTBEGIN
1070
    73
1070
     1
1070
    44
1040
1.0
1070
    74
1070
     0
1000
MTEXTEND
  0
POINT
  5
2D4F
330
213B
100
AcDbEntity
  8
Defpoints
 62
     0
100
AcDbPoint
 10
419.4421137081061
 20
175.6293882385433
 30
0.0
  0
POINT
  5
2D50
330
213B
100
AcDbEntity
  8
Defpoints
 62
     0
100
AcDbPoint
 10
437.4421137081061
 20
175.6293882385433
 30
0.0
  0
POINT
  5
2D51
330
213B
100
AcDbEntity
  8
Defpoints
 62
     0
100
AcDbPoint
 10
437.4421137081061
 20
166.7014852704027
 30
0.0
  0
ENDBLK
  5
2146
330
213B
100
AcDbEntity
  8
0
100
AcDbBlockEnd
  0
BLOCK
  5
2151
330
2147
100
AcDbEntity
  8
0
100
AcDbBlockBegin
  2
*D15
 70
     1
 10
0.0
 20
0.0
 30
0.0
  3
*D15
  1

  0
LINE
  5
2D52
330
2147
100
AcDbEntity
  8
AM_5
100
AcDbLine
 10
414.9421137081061
 20
176.1954268390647
 30
0.0
 11
414.9421137081061
 21
158.2014852704027
 31
0.0
  0
LINE
  5
2D53
330
2147
100
AcDbEntity
  8
AM_5
100
AcDbLine
 10
441.9421137081061
 20
176.1954268390647
 30
0.0
 11
441.9421137081061
 21
158.2014852704027
 31
0.0
  0
LINE
  5
2D54
330
2147
100
AcDbEntity
  8
AM_5
100
AcDbLine
 10
417.9421137081061
 20
159.7014852704027
 30
0.0
 11
438.9421137081061
 21
159.7014852704027
 31
0.0
  0
SOLID
  5
2D55
330
2147
100
AcDbEntity
  8
AM_5
100
AcDbTrace
 10
417.9421137081061
 20
160.2014852704027
 30
0.0
 11
417.9421137081061
 21
159.2014852704027
 31
0.0
 12
414.9421137081061
 22
159.7014852704027
 32
0.0
 13
414.9421137081061
 23
159.7014852704027
 33
0.0
  0
SOLID
  5
2D56
330
2147
100
AcDbEntity
  8
AM_5
100
AcDbTrace
 10
438.9421137081061
 20
160.2014852704027
 30
0.0
 11
438.9421137081061
 21
159.2014852704027
 31
0.0
 12
441.9421137081061
 22
159.7014852704027
 32
0.0
 13
441.9421137081061
 23
159.7014852704027
 33
0.0
  0
MTEXT
  5
2D57
330
2147
100
AcDbEntity
  8
AM_5
100
AcDbMText
 10
428.4421137081061
 20
162.4518297585917
 30
0.0
 40
3.5
 41
0.0
 71
     5
 72
     1
  1
27
 73
     1
 44
1.0
1001
ACAD
1000
MTEXTBEGIN
1070
    73
1070
     1
1070
    44
1040
1.0
1070
    74
1070
     0
1000
MTEXTEND
  0
POINT
  5
2D58
330
2147
100
AcDbEntity
  8
Defpoints
 62
     0
100
AcDbPoint
 10
414.9421137081061
 20
177.6954268390646
 30
0.0
  0
POINT
  5
2D59
330
2147
100
AcDbEntity
  8
Defpoints
 62
     0
100
AcDbPoint
 10
441.9421137081061
 20
177.6954268390646
 30
0.0
  0
POINT
  5
2D5A
330
2147
100
AcDbEntity
  8
Defpoints
 62
     0
100
AcDbPoint
 10
441.9421137081061
 20
159.7014852704027
 30
0.0
  0
ENDBLK
  5
2152
330
2147
100
AcDbEntity
  8
0
100
AcDbBlockEnd
  0
BLOCK
  5
215D
330
2153
100
AcDbEntity
  8
0
100
AcDbBlockBegin
  2
*D16
 70
     1
 10
0.0
 20
0.0
 30
0.0
  3
*D16
  1

  0
LINE
  5
2D5B
330
2153
100
AcDbEntity
  8
AM_5
100
AcDbLine
 10
413.8713650900848
 20
179.7954268390646
 30
0.0
 11
406.0942975267279
 21
179.7954268390646
 31
0.0
  0
LINE
  5
2D5C
330
2153
100
AcDbEntity
  8
AM_5
100
AcDbLine
 10
413.8713650900848
 20
197.7954268390646
 30
0.0
 11
406.0942975267279
 21
197.7954268390646
 31
0.0
  0
LINE
  5
2D5D
330
2153
100
AcDbEntity
  8
AM_5
100
AcDbLine
 10
407.5942975267279
 20
182.7954268390646
 30
0.0
 11
407.5942975267279
 21
194.7954268390646
 31
0.0
  0
SOLID
  5
2D5E
330
2153
100
AcDbEntity
  8
AM_5
100
AcDbTrace
 10
407.0942975267278
 20
182.7954268390646
 30
0.0
 11
408.0942975267279
 21
182.7954268390646
 31
0.0
 12
407.5942975267279
 22
179.7954268390646
 32
0.0
 13
407.5942975267279
 23
179.7954268390646
 33
0.0
  0
SOLID
  5
2D5F
330
2153
100
AcDbEntity
  8
AM_5
100
AcDbTrace
 10
407.0942975267278
 20
194.7954268390646
 30
0.0
 11
408.0942975267279
 21
194.7954268390646
 31
0.0
 12
407.5942975267279
 22
197.7954268390646
 32
0.0
 13
407.5942975267279
 23
197.7954268390646
 33
0.0
  0
MTEXT
  5
2D60
330
2153
100
AcDbEntity
  8
AM_5
100
AcDbMText
 10
404.8442975267279
 20
188.7954268390646
 30
0.0
 40
3.5
 41
0.0
 71
     5
 72
     1
  1
18
 11
0.0000000000000001
 21
1.0
 31
0.0
 73
     1
 44
1.0
1001
ACAD
1000
MTEXTBEGIN
1070
    73
1070
     1
1070
    44
1040
1.0
1070
    74
1070
     0
1000
MTEXTEND
  0
POINT
  5
2D61
330
2153
100
AcDbEntity
  8
Defpoints
 62
     0
100
AcDbPoint
 10
415.3713650900848
 20
179.7954268390646
 30
0.0
  0
POINT
  5
2D62
330
2153
100
AcDbEntity
  8
Defpoints
 62
     0
100
AcDbPoint
 10
415.3713650900848
 20
197.7954268390646
 30
0.0
  0
POINT
  5
2D63
330
2153
100
AcDbEntity
  8
Defpoints
 62
     0
100
AcDbPoint
 10
407.5942975267279
 20
197.7954268390646
 30
0.0
  0
ENDBLK
  5
215E
330
2153
100
AcDbEntity
  8
0
100
AcDbBlockEnd
  0
BLOCK
  5
2169
330
215F
100
AcDbEntity
  8
0
100
AcDbBlockBegin
  2
*D17
 70
     1
 10
0.0
 20
0.0
 30
0.0
  3
*D17
  1

  0
LINE
  5
2D64
330
215F
100
AcDbEntity
  8
AM_5
100
AcDbLine
 10
414.4688552639301
 20
175.2954268390646
 30
0.0
 11
399.0942975267279
 21
175.2954268390646
 31
0.0
  0
LINE
  5
2D65
330
215F
100
AcDbEntity
  8
AM_5
100
AcDbLine
 10
415.8421137081061
 20
202.2954268390646
 30
0.0
 11
399.0942975267279
 21
202.2954268390646
 31
0.0
  0
LINE
  5
2D66
330
215F
100
AcDbEntity
  8
AM_5
100
AcDbLine
 10
400.5942975267279
 20
178.2954268390646
 30
0.0
 11
400.5942975267279
 21
199.2954268390646
 31
0.0
  0
SOLID
  5
2D67
330
215F
100
AcDbEntity
  8
AM_5
100
AcDbTrace
 10
400.0942975267279
 20
178.2954268390646
 30
0.0
 11
401.0942975267279
 21
178.2954268390646
 31
0.0
 12
400.5942975267279
 22
175.2954268390646
 32
0.0
 13
400.5942975267279
 23
175.2954268390646
 33
0.0
  0
SOLID
  5
2D68
330
215F
100
AcDbEntity
  8
AM_5
100
AcDbTrace
 10
400.0942975267279
 20
199.2954268390646
 30
0.0
 11
401.0942975267279
 21
199.2954268390646
 31
0.0
 12
400.5942975267279
 22
202.2954268390646
 32
0.0
 13
400.5942975267279
 23
202.2954268390646
 33
0.0
  0
MTEXT
  5
2D69
330
215F
100
AcDbEntity
  8
AM_5
100
AcDbMText
 10
397.8439530385389
 20
188.7954268390646
 30
0.0
 40
3.5
 41
0.0
 71
     5
 72
     1
  1
27
 11
0.0000000000000001
 21
1.0
 31
0.0
 73
     1
 44
1.0
1001
ACAD
1000
MTEXTBEGIN
1070
    73
1070
     1
1070
    44
1040
1.0
1070
    74
1070
     0
1000
MTEXTEND
  0
POINT
  5
2D6A
330
215F
100
AcDbEntity
  8
Defpoints
 62
     0
100
AcDbPoint
 10
415.9688552639302
 20
175.2954268390646
 30
0.0
  0
POINT
  5
2D6B
330
215F
100
AcDbEntity
  8
Defpoints
 62
     0
100
AcDbPoint
 10
417.3421137081061
 20
202.2954268390646
 30
0.0
  0
POINT
  5
2D6C
330
215F
100
AcDbEntity
  8
Defpoints
 62
     0
100
AcDbPoint
 10
400.5942975267279
 20
202.2954268390646
 30
0.0
  0
ENDBLK
  5
216A
330
215F
100
AcDbEntity
  8
0
100
AcDbBlockEnd
  0
BLOCK
  5
2175
330
216B
100
AcDbEntity
  8
0
100
AcDbBlockBegin
  2
*D18
 70
     1
 10
0.0
 20
0.0
 30
0.0
  3
*D18
  1

  0
LINE
  5
2D6D
330
216B
100
AcDbEntity
  8
AM_5
100
AcDbLine
 10
414.4688552639301
 20
175.2954268390646
 30
0.0
 11
392.094297526728
 21
175.2954268390646
 31
0.0
  0
LINE
  5
2D6E
330
216B
100
AcDbEntity
  8
AM_5
100
AcDbLine
 10
416.3421137081069
 20
211.7954268390647
 30
0.0
 11
392.094297526728
 21
211.7954268390647
 31
0.0
  0
LINE
  5
2D6F
330
216B
100
AcDbEntity
  8
AM_5
100
AcDbLine
 10
393.5942975267279
 20
178.2954268390646
 30
0.0
 11
393.5942975267279
 21
208.7954268390647
 31
0.0
  0
SOLID
  5
2D70
330
216B
100
AcDbEntity
  8
AM_5
100
AcDbTrace
 10
393.0942975267279
 20
178.2954268390646
 30
0.0
 11
394.0942975267279
 21
178.2954268390646
 31
0.0
 12
393.5942975267279
 22
175.2954268390646
 32
0.0
 13
393.5942975267279
 23
175.2954268390646
 33
0.0
  0
SOLID
  5
2D71
330
216B
100
AcDbEntity
  8
AM_5
100
AcDbTrace
 10
393.0942975267279
 20
208.7954268390647
 30
0.0
 11
394.0942975267279
 21
208.7954268390647
 31
0.0
 12
393.5942975267279
 22
211.7954268390647
 32
0.0
 13
393.5942975267279
 23
211.7954268390647
 33
0.0
  0
MTEXT
  5
2D72
330
216B
100
AcDbEntity
  8
AM_5
100
AcDbMText
 10
390.8442975267279
 20
193.5454268390647
 30
0.0
 40
3.5
 41
0.0
 71
     5
 72
     1
  1
36.5
 11
0.0000000000000001
 21
1.0
 31
0.0
 73
     1
 44
1.0
1001
ACAD
1000
MTEXTBEGIN
1070
    73
1070
     1
1070
    44
1040
1.0
1070
    74
1070
     0
1000
MTEXTEND
  0
POINT
  5
2D73
330
216B
100
AcDbEntity
  8
Defpoints
 62
     0
100
AcDbPoint
 10
415.9688552639302
 20
175.2954268390646
 30
0.0
  0
POINT
  5
2D74
330
216B
100
AcDbEntity
  8
Defpoints
 62
     0
100
AcDbPoint
 10
417.8421137081069
 20
211.7954268390647
 30
0.0
  0
POINT
  5
2D75
330
216B
100
AcDbEntity
  8
Defpoints
 62
     0
100
AcDbPoint
 10
393.5942975267279
 20
211.7954268390647
 30
0.0
  0
ENDBLK
  5
2176
330
216B
100
AcDbEntity
  8
0
100
AcDbBlockEnd
  0
BLOCK
  5
2181
330
2177
100
AcDbEntity
  8
0
100
AcDbBlockBegin
  2
*D19
 70
     1
 10
0.0
 20
0.0
 30
0.0
  3
*D19
  1

  0
LINE
  5
2D76
330
2177
100
AcDbEntity
  8
AM_5
100
AcDbLine
 10
417.4421137081066
 20
212.8954268390646
 30
0.0
 11
417.4421137081066
 21
222.7954268390648
 31
0.0
  0
LINE
  5
2D77
330
2177
100
AcDbEntity
  8
AM_5
100
AcDbLine
 10
439.4421137081068
 20
212.8954268390646
 30
0.0
 11
439.4421137081068
 21
222.7954268390648
 31
0.0
  0
LINE
  5
2D78
330
2177
100
AcDbEntity
  8
AM_5
100
AcDbLine
 10
420.4421137081066
 20
221.2954268390648
 30
0.0
 11
436.4421137081068
 21
221.2954268390648
 31
0.0
  0
SOLID
  5
2D79
330
2177
100
AcDbEntity
  8
AM_5
100
AcDbTrace
 10
420.4421137081066
 20
221.7954268390648
 30
0.0
 11
420.4421137081066
 21
220.7954268390648
 31
0.0
 12
417.4421137081066
 22
221.2954268390648
 32
0.0
 13
417.4421137081066
 23
221.2954268390648
 33
0.0
  0
SOLID
  5
2D7A
330
2177
100
AcDbEntity
  8
AM_5
100
AcDbTrace
 10
436.4421137081068
 20
221.7954268390648
 30
0.0
 11
436.4421137081068
 21
220.7954268390648
 31
0.0
 12
439.4421137081068
 22
221.2954268390648
 32
0.0
 13
439.4421137081068
 23
221.2954268390648
 33
0.0
  0
MTEXT
  5
2D7B
330
2177
100
AcDbEntity
  8
AM_5
100
AcDbMText
 10
428.4421137081067
 20
224.0457713272538
 30
0.0
 40
3.5
 41
0.0
 71
     5
 72
     1
  1
22
 73
     1
 44
1.0
1001
ACAD
1000
MTEXTBEGIN
1070
    73
1070
     1
1070
    44
1040
1.0
1070
    74
1070
     0
1000
MTEXTEND
  0
POINT
  5
2D7C
330
2177
100
AcDbEntity
  8
Defpoints
 62
     0
100
AcDbPoint
 10
417.4421137081066
 20
211.3954268390646
 30
0.0
  0
POINT
  5
2D7D
330
2177
100
AcDbEntity
  8
Defpoints
 62
     0
100
AcDbPoint
 10
439.4421137081068
 20
211.3954268390646
 30
0.0
  0
POINT
  5
2D7E
330
2177
100
AcDbEntity
  8
Defpoints
 62
     0
100
AcDbPoint
 10
439.4421137081068
 20
221.2954268390648
 30
0.0
  0
ENDBLK
  5
2182
330
2177
100
AcDbEntity
  8
0
100
AcDbBlockEnd
  0
BLOCK
  5
218D
330
2183
100
AcDbEntity
  8
0
100
AcDbBlockBegin
  2
*D20
 70
     1
 10
0.0
 20
0.0
 30
0.0
  3
*D20
  1

  0
LINE
  5
2D7F
330
2183
100
AcDbEntity
  8
AM_5
100
AcDbLine
 10
442.4153721522818
 20
175.2954268390646
 30
0.0
 11
455.4421147081061
 21
175.2954268390645
 31
0.0
  0
LINE
  5
2D80
330
2183
100
AcDbEntity
  8
AM_5
100
AcDbLine
 10
444.4421137081061
 20
188.7954268390645
 30
0.0
 11
455.4421147081061
 21
188.7954268390644
 31
0.0
  0
LINE
  5
2D81
330
2183
100
AcDbEntity
  8
AM_5
100
AcDbLine
 10
453.9421147081061
 20
178.2954268390645
 30
0.0
 11
453.9421147081061
 21
185.7954268390644
 31
0.0
  0
SOLID
  5
2D82
330
2183
100
AcDbEntity
  8
AM_5
100
AcDbTrace
 10
453.4421147081061
 20
178.2954268390645
 30
0.0
 11
454.4421147081061
 21
178.2954268390645
 31
0.0
 12
453.9421147081061
 22
175.2954268390645
 32
0.0
 13
453.9421147081061
 23
175.2954268390645
 33
0.0
  0
SOLID
  5
2D83
330
2183
100
AcDbEntity
  8
AM_5
100
AcDbTrace
 10
453.4421147081061
 20
185.7954268390644
 30
0.0
 11
454.4421147081061
 21
185.7954268390644
 31
0.0
 12
453.9421147081061
 22
188.7954268390644
 32
0.0
 13
453.9421147081061
 23
188.7954268390644
 33
0.0
  0
MTEXT
  5
2D84
330
2183
100
AcDbEntity
  8
AM_5
100
AcDbMText
 10
451.1921147081061
 20
182.0454268390646
 30
0.0
 40
3.5
 41
0.0
 71
     5
 72
     1
  1
13.5
 11
0.0000000000000001
 21
1.0
 31
0.0
 73
     1
 44
1.0
1001
ACAD
1000
MTEXTBEGIN
1070
    73
1070
     1
1070
    44
1040
1.0
1070
    74
1070
     0
1000
MTEXTEND
  0
POINT
  5
2D85
330
2183
100
AcDbEntity
  8
Defpoints
 62
     0
100
AcDbPoint
 10
440.9153721522819
 20
175.2954268390646
 30
0.0
  0
POINT
  5
2D86
330
2183
100
AcDbEntity
  8
Defpoints
 62
     0
100
AcDbPoint
 10
442.9421137081061
 20
188.7954268390645
 30
0.0
  0
POINT
  5
2D87
330
2183
100
AcDbEntity
  8
Defpoints
 62
     0
100
AcDbPoint
 10
453.9421147081061
 20
188.7954268390644
 30
0.0
  0
ENDBLK
  5
218E
330
2183
100
AcDbEntity
  8
0
100
AcDbBlockEnd
  0
BLOCK
  5
219B
330
218F
100
AcDbEntity
  8
0
100
AcDbBlockBegin
  2
*D21
 70
     1
 10
0.0
 20
0.0
 30
0.0
  3
*D21
  1

  0
LINE
  5
2D88
330
218F
100
AcDbEntity
  8
AM_5
100
AcDbLine
 10
357.1648621994194
 20
132.9210076993051
 30
0.0
 11
357.1648621994194
 21
113.4083186307146
 31
0.0
  0
LINE
  5
2D89
330
218F
100
AcDbEntity
  8
AM_5
100
AcDbLine
 10
363.5648621994194
 20
124.4083186307143
 30
0.0
 11
363.5648621994194
 21
113.4083186307146
 31
0.0
  0
LINE
  5
2D8A
330
218F
100
AcDbEntity
  8
AM_5
100
AcDbLine
 10
354.1648621994194
 20
114.9083186307146
 30
0.0
 11
351.1648621994194
 21
114.9083186307146
 31
0.0
  0
LINE
  5
2D8B
330
218F
100
AcDbEntity
  8
AM_5
100
AcDbLine
 10
366.5648621994194
 20
114.9083186307146
 30
0.0
 11
377.024311018317
 21
114.9083186307146
 31
0.0
  0
LINE
  5
2D8C
330
218F
100
AcDbEntity
  8
AM_5
100
AcDbLine
 10
357.1648621994194
 20
114.9083186307146
 30
0.0
 11
363.5648621994194
 21
114.9083186307146
 31
0.0
  0
SOLID
  5
2D8D
330
218F
100
AcDbEntity
  8
AM_5
100
AcDbTrace
 10
354.1648621994194
 20
115.4083186307145
 30
0.0
 11
354.1648621994194
 21
114.4083186307145
 31
0.0
 12
357.1648621994194
 22
114.9083186307146
 32
0.0
 13
357.1648621994194
 23
114.9083186307146
 33
0.0
  0
SOLID
  5
2D8E
330
218F
100
AcDbEntity
  8
AM_5
100
AcDbTrace
 10
366.5648621994194
 20
115.4083186307145
 30
0.0
 11
366.5648621994194
 21
114.4083186307145
 31
0.0
 12
363.5648621994194
 22
114.9083186307146
 32
0.0
 13
363.5648621994194
 23
114.9083186307146
 33
0.0
  0
MTEXT
  5
2D8F
330
218F
100
AcDbEntity
  8
AM_5
100
AcDbMText
 10
373.2945866088682
 20
117.6583186307146
 30
0.0
 40
3.5
 41
0.0
 71
     5
 72
     1
  1
6.4
 73
     1
 44
1.0
1001
ACAD
1000
MTEXTBEGIN
1070
    73
1070
     1
1070
    44
1040
1.0
1070
    74
1070
     0
1000
MTEXTEND
  0
POINT
  5
2D90
330
218F
100
AcDbEntity
  8
Defpoints
 62
     0
100
AcDbPoint
 10
357.1648621994194
 20
134.4210076993051
 30
0.0
  0
POINT
  5
2D91
330
218F
100
AcDbEntity
  8
Defpoints
 62
     0
100
AcDbPoint
 10
363.5648621994194
 20
125.9083186307143
 30
0.0
  0
POINT
  5
2D92
330
218F
100
AcDbEntity
  8
Defpoints
 62
     0
100
AcDbPoint
 10
363.5648621994194
 20
114.9083186307146
 30
0.0
  0
ENDBLK
  5
219C
330
218F
100
AcDbEntity
  8
0
100
AcDbBlockEnd
  0
BLOCK
  5
21A9
330
219D
100
AcDbEntity
  8
0
100
AcDbBlockBegin
  2
*D22
 70
     1
 10
0.0
 20
0.0
 30
0.0
  3
*D22
  1

  0
LINE
  5
2D93
330
219D
100
AcDbEntity
  8
AM_5
100
AcDbLine
 10
233.5648621994196
 20
124.4083186307143
 30
0.0
 11
233.5648621994196
 21
113.4083186307143
 31
0.0
  0
LINE
  5
2D94
330
219D
100
AcDbEntity
  8
AM_5
100
AcDbLine
 10
239.9648621994197
 20
132.9210076993051
 30
0.0
 11
239.9648621994197
 21
113.4083186307143
 31
0.0
  0
LINE
  5
2D95
330
219D
100
AcDbEntity
  8
AM_5
100
AcDbLine
 10
230.5648621994196
 20
114.9083186307143
 30
0.0
 11
227.5648621994196
 21
114.9083186307143
 31
0.0
  0
LINE
  5
2D96
330
219D
100
AcDbEntity
  8
AM_5
100
AcDbLine
 10
242.9648621994197
 20
114.9083186307143
 30
0.0
 11
253.4243110183174
 21
114.9083186307143
 31
0.0
  0
LINE
  5
2D97
330
219D
100
AcDbEntity
  8
AM_5
100
AcDbLine
 10
233.5648621994196
 20
114.9083186307143
 30
0.0
 11
239.9648621994197
 21
114.9083186307143
 31
0.0
  0
SOLID
  5
2D98
330
219D
100
AcDbEntity
  8
AM_5
100
AcDbTrace
 10
230.5648621994196
 20
115.4083186307143
 30
0.0
 11
230.5648621994196
 21
114.4083186307143
 31
0.0
 12
233.5648621994196
 22
114.9083186307143
 32
0.0
 13
233.5648621994196
 23
114.9083186307143
 33
0.0
  0
SOLID
  5
2D99
330
219D
100
AcDbEntity
  8
AM_5
100
AcDbTrace
 10
242.9648621994197
 20
115.4083186307143
 30
0.0
 11
242.9648621994197
 21
114.4083186307143
 31
0.0
 12
239.9648621994197
 22
114.9083186307143
 32
0.0
 13
239.9648621994197
 23
114.9083186307143
 33
0.0
  0
MTEXT
  5
2D9A
330
219D
100
AcDbEntity
  8
AM_5
100
AcDbMText
 10
249.6945866088685
 20
117.6583186307143
 30
0.0
 40
3.5
 41
0.0
 71
     5
 72
     1
  1
6.4
 73
     1
 44
1.0
1001
ACAD
1000
MTEXTBEGIN
1070
    73
1070
     1
1070
    44
1040
1.0
1070
    74
1070
     0
1000
MTEXTEND
  0
POINT
  5
2D9B
330
219D
100
AcDbEntity
  8
Defpoints
 62
     0
100
AcDbPoint
 10
233.5648621994196
 20
125.9083186307143
 30
0.0
  0
POINT
  5
2D9C
330
219D
100
AcDbEntity
  8
Defpoints
 62
     0
100
AcDbPoint
 10
239.9648621994197
 20
134.4210076993051
 30
0.0
  0
POINT
  5
2D9D
330
219D
100
AcDbEntity
  8
Defpoints
 62
     0
100
AcDbPoint
 10
239.9648621994197
 20
114.9083186307143
 30
0.0
  0
ENDBLK
  5
21AA
330
219D
100
AcDbEntity
  8
0
100
AcDbBlockEnd
  0
BLOCK
  5
21B5
330
21AB
100
AcDbEntity
  8
0
100
AcDbBlockBegin
  2
*D23
 70
     1
 10
0.0
 20
0.0
 30
0.0
  3
*D23
  1

  0
LINE
  5
2D9E
330
21AB
100
AcDbEntity
  8
AM_5
100
AcDbLine
 10
250.0648621994196
 20
200.7954268390655
 30
0.0
 11
257.6845139536554
 21
200.7954268390655
 31
0.0
  0
LINE
  5
2D9F
330
21AB
100
AcDbEntity
  8
AM_5
100
AcDbLine
 10
250.0648621994196
 20
176.7954268390635
 30
0.0
 11
257.6845139536554
 21
176.7954268390635
 31
0.0
  0
LINE
  5
2DA0
330
21AB
100
AcDbEntity
  8
AM_5
100
AcDbLine
 10
256.1845139536554
 20
197.7954268390655
 30
0.0
 11
256.1845139536554
 21
179.7954268390635
 31
0.0
  0
SOLID
  5
2DA1
330
21AB
100
AcDbEntity
  8
AM_5
100
AcDbTrace
 10
255.6845139536554
 20
197.7954268390655
 30
0.0
 11
256.6845139536554
 21
197.7954268390655
 31
0.0
 12
256.1845139536554
 22
200.7954268390655
 32
0.0
 13
256.1845139536554
 23
200.7954268390655
 33
0.0
  0
SOLID
  5
2DA2
330
21AB
100
AcDbEntity
  8
AM_5
100
AcDbTrace
 10
255.6845139536553
 20
179.7954268390635
 30
0.0
 11
256.6845139536554
 21
179.7954268390635
 31
0.0
 12
256.1845139536554
 22
176.7954268390635
 32
0.0
 13
256.1845139536554
 23
176.7954268390635
 33
0.0
  0
MTEXT
  5
2DA3
330
21AB
100
AcDbEntity
  8
AM_5
100
AcDbMText
 10
253.4341694654663
 20
188.7954268390645
 30
0.0
 40
3.5
 41
0.0
 71
     5
 72
     1
  1
24
 11
0.0000000000000001
 21
1.0
 31
0.0
 73
     1
 44
1.0
1001
ACAD
1000
MTEXTBEGIN
1070
    73
1070
     1
1070
    44
1040
1.0
1070
    74
1070
     0
1000
MTEXTEND
  0
POINT
  5
2DA4
330
21AB
100
AcDbEntity
  8
Defpoints
 62
     0
100
AcDbPoint
 10
248.5648621994196
 20
200.7954268390655
 30
0.0
  0
POINT
  5
2DA5
330
21AB
100
AcDbEntity
  8
Defpoints
 62
     0
100
AcDbPoint
 10
248.5648621994196
 20
176.7954268390635
 30
0.0
  0
POINT
  5
2DA6
330
21AB
100
AcDbEntity
  8
Defpoints
 62
     0
100
AcDbPoint
 10
256.1845139536554
 20
176.7954268390635
 30
0.0
  0
ENDBLK
  5
21B6
330
21AB
100
AcDbEntity
  8
0
100
AcDbBlockEnd
  0
BLOCK
  5
21C1
330
21B7
100
AcDbEntity
  8
0
100
AcDbBlockBegin
  2
*D24
 70
     1
 10
0.0
 20
0.0
 30
0.0
  3
*D24
  1

  0
LINE
  5
2DA7
330
21B7
100
AcDbEntity
  8
AM_5
100
AcDbLine
 10
250.0648621994196
 20
150.9083186307146
 30
0.0
 11
262.0648621994198
 21
150.9083186307146
 31
0.0
  0
LINE
  5
2DA8
330
21B7
100
AcDbEntity
  8
AM_5
100
AcDbLine
 10
250.0648621994196
 20
126.9083186307145
 30
0.0
 11
262.0648621994198
 21
126.9083186307145
 31
0.0
  0
LINE
  5
2DA9
330
21B7
100
AcDbEntity
  8
AM_5
100
AcDbLine
 10
260.5648621994198
 20
147.9083186307146
 30
0.0
 11
260.5648621994198
 21
129.9083186307145
 31
0.0
  0
SOLID
  5
2DAA
330
21B7
100
AcDbEntity
  8
AM_5
100
AcDbTrace
 10
260.0648621994198
 20
147.9083186307146
 30
0.0
 11
261.0648621994198
 21
147.9083186307146
 31
0.0
 12
260.5648621994198
 22
150.9083186307146
 32
0.0
 13
260.5648621994198
 23
150.9083186307146
 33
0.0
  0
SOLID
  5
2DAB
330
21B7
100
AcDbEntity
  8
AM_5
100
AcDbTrace
 10
260.0648621994198
 20
129.9083186307145
 30
0.0
 11
261.0648621994198
 21
129.9083186307145
 31
0.0
 12
260.5648621994197
 22
126.9083186307145
 32
0.0
 13
260.5648621994197
 23
126.9083186307145
 33
0.0
  0
MTEXT
  5
2DAC
330
21B7
100
AcDbEntity
  8
AM_5
100
AcDbMText
 10
257.8145177112308
 20
138.9083186307146
 30
0.0
 40
3.5
 41
0.0
 71
     5
 72
     1
  1
24
 11
0.0000000000000001
 21
1.0
 31
0.0
 73
     1
 44
1.0
1001
ACAD
1000
MTEXTBEGIN
1070
    73
1070
     1
1070
    44
1040
1.0
1070
    74
1070
     0
1000
MTEXTEND
  0
POINT
  5
2DAD
330
21B7
100
AcDbEntity
  8
Defpoints
 62
     0
100
AcDbPoint
 10
248.5648621994196
 20
150.9083186307146
 30
0.0
  0
POINT
  5
2DAE
330
21B7
100
AcDbEntity
  8
Defpoints
 62
     0
100
AcDbPoint
 10
248.5648621994196
 20
126.9083186307145
 30
0.0
  0
POINT
  5
2DAF
330
21B7
100
AcDbEntity
  8
Defpoints
 62
     0
100
AcDbPoint
 10
260.5648621994197
 20
126.9083186307145
 30
0.0
  0
ENDBLK
  5
21C2
330
21B7
100
AcDbEntity
  8
0
100
AcDbBlockEnd
  0
BLOCK
  5
2717
330
2712
100
AcDbEntity
  8
0
100
AcDbBlockBegin
  2
*S25
 70
     1
 10
0.0
 20
0.0
 30
0.0
  3
*S25
  1

  0
LINE
  5
2713
330
2712
100
AcDbEntity
  8
AM_5
 62
     5
100
AcDbLine
 10
446.9877334678275
 20
219.4504572822272
 30
0.0
 11
435.1625768217807
 21
219.4504572822272
 31
0.0
  0
LINE
  5
2714
330
2712
100
AcDbEntity
  8
AM_5
 62
     5
100
AcDbLine
 10
435.1625768217807
 20
219.4504572822272
 30
0.0
 11
422.1152231846101
 21
215.1509018682471
 31
0.0
  0
TRACE
  5
2715
330
2712
100
AcDbEntity
  8
AM_5
 62
     5
370
    35
100
AcDbTrace
 10
421.9710076061931
 20
215.5885358723299
 30
0.0
 11
422.2594387630271
 21
214.7132678641644
 31
0.0
 12
418.7910628833991
 22
214.0554757904798
 32
0.0
 13
418.7910628833991
 23
214.0554757904798
 33
0.0
  0
MTEXT
  5
2716
330
2712
100
AcDbEntity
  8
AM_5
 62
     5
100
AcDbMText
 10
446.9877334678275
 20
218.3391258369362
 30
0.0
 40
3.5
 41
0.0
 71
     7
 72
     5
  1

  7
ACISOTS
 73
     1
 44
1.0
1001
ACAD
1000
MTEXTBEGIN
1070
    73
1070
     1
1070
    44
1040
1.0
1070
    74
1070
     0
1000
MTEXTEND
  0
ENDBLK
  5
2718
330
2712
100
AcDbEntity
  8
0
100
AcDbBlockEnd
  0
BLOCK
  5
271F
330
271A
100
AcDbEntity
  8
0
100
AcDbBlockBegin
  2
*S26
 70
     1
 10
0.0
 20
0.0
 30
0.0
  3
*S26
  1

  0
LINE
  5
271B
330
271A
100
AcDbEntity
  8
AM_5
 62
     5
100
AcDbLine
 10
374.8060752081648
 20
193.775448027307
 30
0.0
 11
358.1281328851595
 21
193.775448027307
 31
0.0
  0
LINE
  5
271C
330
271A
100
AcDbEntity
  8
AM_5
 62
     5
100
AcDbLine
 10
358.1281328851595
 20
193.775448027307
 30
0.0
 11
350.1910462934832
 21
207.9482688872213
 31
0.0
  0
TRACE
  5
271D
330
271A
100
AcDbEntity
  8
AM_5
 62
     5
370
    35
100
AcDbTrace
 10
350.5930791667633
 20
208.1734160022145
 30
0.0
 11
349.7890134202031
 21
207.7231217722282
 31
0.0
 12
348.4808841611754
 22
211.0020117515144
 32
0.0
 13
348.4808841611754
 23
211.0020117515144
 33
0.0
  0
MTEXT
  5
271E
330
271A
100
AcDbEntity
  8
AM_5
 62
     5
100
AcDbMText
 10
374.8060752081648
 20
191.9953660224587
 30
0.0
 40
3.5
 41
0.0
 71
     7
 72
     5
  1

  7
ACISOTS
 73
     1
 44
1.0
1001
ACAD
1000
MTEXTBEGIN
1070
    73
1070
     1
1070
    44
1040
1.0
1070
    74
1070
     0
1000
MTEXTEND
  0
ENDBLK
  5
2720
330
271A
100
AcDbEntity
  8
0
100
AcDbBlockEnd
  0
BLOCK
  5
2727
330
2722
100
AcDbEntity
  8
0
100
AcDbBlockBegin
  2
*S27
 70
     1
 10
0.0
 20
0.0
 30
0.0
  3
*S27
  1

  0
LINE
  5
2723
330
2722
100
AcDbEntity
  8
AM_5
 62
     5
100
AcDbLine
 10
372.4886867908948
 20
168.1248360084802
 30
0.0
 11
355.8107444678896
 21
168.1248360084802
 31
0.0
  0
LINE
  5
2724
330
2722
100
AcDbEntity
  8
AM_5
 62
     5
100
AcDbLine
 10
355.8107444678896
 20
168.1248360084802
 30
0.0
 11
350.6720084744419
 21
165.5823770848447
 31
0.0
  0
TRACE
  5
2725
330
2722
100
AcDbEntity
  8
AM_5
 62
     5
370
    35
100
AcDbTrace
 10
350.4676716777832
 20
165.9953760292972
 30
0.0
 11
350.8763452711005
 21
165.1693781403922
 31
0.0
 12
347.5349700295689
 22
164.030285014319
 32
0.0
 13
347.5349700295689
 23
164.030285014319
 33
0.0
  0
MTEXT
  5
2726
330
2722
100
AcDbEntity
  8
AM_5
 62
     5
100
AcDbMText
 10
372.4886867908948
 20
166.3447540036319
 30
0.0
 40
3.5
 41
0.0
 71
     7
 72
     5
  1

  7
ACISOTS
 73
     1
 44
1.0
1001
ACAD
1000
MTEXTBEGIN
1070
    73
1070
     1
1070
    44
1040
1.0
1070
    74
1070
     0
1000
MTEXTEND
  0
ENDBLK
  5
2728
330
2722
100
AcDbEntity
  8
0
100
AcDbBlockEnd
  0
BLOCK
  5
293E
330
2938
100
AcDbEntity
  8
0
100
AcDbBlockBegin
  2
*D28
 70
     1
 10
0.0
 20
0.0
 30
0.0
  3
*D28
  1

  0
LINE
  5
2CC3
330
2938
100
AcDbEntity
  8
AM_5
100
AcDbLine
 10
537.5242365636619
 20
261.875290406833
 30
0.0
 11
534.0103095430497
 21
258.3182808631557
 31
0.0
  0
SOLID
  5
2CC4
330
2938
100
AcDbEntity
  8
AM_5
100
AcDbTrace
 10
533.6546085886819
 20
258.6696735652168
 30
0.0
 11
534.3660104974174
 21
257.9668881610944
 31
0.0
 12
531.9019533306824
 22
256.1840751369492
 32
0.0
 13
531.9019533306824
 23
256.1840751369492
 33
0.0
  0
MTEXT
  5
2CC5
330
2938
100
AcDbEntity
  8
AM_5
100
AcDbMText
 10
533.1733863202797
 20
261.3840975537382
 30
0.0
 40
3.5
 41
0.0
 71
     5
 72
     1
  1
R8
 11
0.7027854041224363
 21
0.7114019087354658
 31
0.0
 73
     1
 44
1.0
1001
ACAD
1000
MTEXTBEGIN
1070
    73
1070
     1
1070
    44
1040
1.0
1070
    74
1070
     0
1000
MTEXTEND
  0
POINT
  5
2CC6
330
2938
100
AcDbEntity
  8
Defpoints
 62
     0
100
AcDbPoint
 10
531.9019533306824
 20
256.1840751369492
 30
0.0
  0
POINT
  5
2CC7
330
2938
100
AcDbEntity
  8
Defpoints
 62
     0
100
AcDbPoint
 10
537.5242365636619
 20
261.875290406833
 30
0.0
  0
ENDBLK
  5
293F
330
2938
100
AcDbEntity
  8
0
100
AcDbBlockEnd
  0
BLOCK
  5
294A
330
2940
100
AcDbEntity
  8
0
100
AcDbBlockBegin
  2
*D29
 70
     1
 10
0.0
 20
0.0
 30
0.0
  3
*D29
  1

  0
LINE
  5
2C7C
330
2940
100
AcDbEntity
  8
AM_5
100
AcDbLine
 10
498.217318221372
 20
249.3752904068331
 30
0.0
 11
498.217318221372
 21
234.0852024508938
 31
0.0
  0
LINE
  5
2C7D
330
2940
100
AcDbEntity
  8
AM_5
100
AcDbLine
 10
512.217318221372
 20
246.3752904068331
 30
0.0
 11
512.217318221372
 21
234.0852024508938
 31
0.0
  0
LINE
  5
2C7E
330
2940
100
AcDbEntity
  8
AM_5
100
AcDbLine
 10
501.217318221372
 20
235.5852024508938
 30
0.0
 11
509.217318221372
 21
235.5852024508938
 31
0.0
  0
SOLID
  5
2C7F
330
2940
100
AcDbEntity
  8
AM_5
100
AcDbTrace
 10
501.217318221372
 20
236.0852024508938
 30
0.0
 11
501.217318221372
 21
235.0852024508938
 31
0.0
 12
498.217318221372
 22
235.5852024508938
 32
0.0
 13
498.217318221372
 23
235.5852024508938
 33
0.0
  0
SOLID
  5
2C80
330
2940
100
AcDbEntity
  8
AM_5
100
AcDbTrace
 10
509.217318221372
 20
236.0852024508938
 30
0.0
 11
509.217318221372
 21
235.0852024508938
 31
0.0
 12
512.217318221372
 22
235.5852024508938
 32
0.0
 13
512.217318221372
 23
235.5852024508938
 33
0.0
  0
MTEXT
  5
2C81
330
2940
100
AcDbEntity
  8
AM_5
100
AcDbMText
 10
505.217318221372
 20
238.3352024508938
 30
0.0
 40
3.5
 41
0.0
 71
     5
 72
     1
  1
14
 73
     1
 44
1.0
1001
ACAD
1000
MTEXTBEGIN
1070
    73
1070
     1
1070
    44
1040
1.0
1070
    74
1070
     0
1000
MTEXTEND
  0
POINT
  5
2C82
330
2940
100
AcDbEntity
  8
Defpoints
 62
     0
100
AcDbPoint
 10
498.217318221372
 20
250.8752904068331
 30
0.0
  0
POINT
  5
2C83
330
2940
100
AcDbEntity
  8
Defpoints
 62
     0
100
AcDbPoint
 10
512.217318221372
 20
247.8752904068331
 30
0.0
  0
POINT
  5
2C84
330
2940
100
AcDbEntity
  8
Defpoints
 62
     0
100
AcDbPoint
 10
512.217318221372
 20
235.5852024508938
 30
0.0
  0
ENDBLK
  5
294B
330
2940
100
AcDbEntity
  8
0
100
AcDbBlockEnd
  0
BLOCK
  5
2956
330
294C
100
AcDbEntity
  8
0
100
AcDbBlockBegin
  2
*D30
 70
     1
 10
0.0
 20
0.0
 30
0.0
  3
*D30
  1

  0
LINE
  5
2C85
330
294C
100
AcDbEntity
  8
AM_5
100
AcDbLine
 10
550.5242365636616
 20
246.3752904068331
 30
0.0
 11
550.5242365636616
 21
233.130938726327
 31
0.0
  0
LINE
  5
2C86
330
294C
100
AcDbEntity
  8
AM_5
100
AcDbLine
 10
524.5242365636617
 20
246.3752904068331
 30
0.0
 11
524.5242365636617
 21
233.130938726327
 31
0.0
  0
LINE
  5
2C87
330
294C
100
AcDbEntity
  8
AM_5
100
AcDbLine
 10
547.5242365636616
 20
234.630938726327
 30
0.0
 11
527.5242365636617
 21
234.630938726327
 31
0.0
  0
SOLID
  5
2C88
330
294C
100
AcDbEntity
  8
AM_5
100
AcDbTrace
 10
547.5242365636616
 20
235.130938726327
 30
0.0
 11
547.5242365636616
 21
234.130938726327
 31
0.0
 12
550.5242365636616
 22
234.630938726327
 32
0.0
 13
550.5242365636616
 23
234.630938726327
 33
0.0
  0
SOLID
  5
2C89
330
294C
100
AcDbEntity
  8
AM_5
100
AcDbTrace
 10
527.5242365636617
 20
235.130938726327
 30
0.0
 11
527.5242365636617
 21
234.130938726327
 31
0.0
 12
524.5242365636617
 22
234.630938726327
 32
0.0
 13
524.5242365636617
 23
234.630938726327
 33
0.0
  0
MTEXT
  5
2C8A
330
294C
100
AcDbEntity
  8
AM_5
100
AcDbMText
 10
537.5242365636617
 20
237.3812832145159
 30
0.0
 40
3.5
 41
0.0
 71
     5
 72
     1
  1
26
 73
     1
 44
1.0
1001
ACAD
1000
MTEXTBEGIN
1070
    73
1070
     1
1070
    44
1040
1.0
1070
    74
1070
     0
1000
MTEXTEND
  0
POINT
  5
2C8B
330
294C
100
AcDbEntity
  8
Defpoints
 62
     0
100
AcDbPoint
 10
550.5242365636616
 20
247.8752904068331
 30
0.0
  0
POINT
  5
2C8C
330
294C
100
AcDbEntity
  8
Defpoints
 62
     0
100
AcDbPoint
 10
524.5242365636617
 20
247.8752904068331
 30
0.0
  0
POINT
  5
2C8D
330
294C
100
AcDbEntity
  8
Defpoints
 62
     0
100
AcDbPoint
 10
524.5242365636617
 20
234.630938726327
 30
0.0
  0
ENDBLK
  5
2957
330
294C
100
AcDbEntity
  8
0
100
AcDbBlockEnd
  0
BLOCK
  5
2962
330
2958
100
AcDbEntity
  8
0
100
AcDbBlockBegin
  2
*D31
 70
     1
 10
0.0
 20
0.0
 30
0.0
  3
*D31
  1

  0
LINE
  5
2C8E
330
2958
100
AcDbEntity
  8
AM_5
100
AcDbLine
 10
528.5242365636617
 20
245.6741886305074
 30
0.0
 11
528.5242365636617
 21
239.130938726327
 31
0.0
  0
LINE
  5
2C8F
330
2958
100
AcDbEntity
  8
AM_5
100
AcDbLine
 10
546.5242365636616
 20
245.6741886305074
 30
0.0
 11
546.5242365636616
 21
239.130938726327
 31
0.0
  0
LINE
  5
2C90
330
2958
100
AcDbEntity
  8
AM_5
100
AcDbLine
 10
531.5242365636617
 20
240.630938726327
 30
0.0
 11
543.5242365636617
 21
240.630938726327
 31
0.0
  0
SOLID
  5
2C91
330
2958
100
AcDbEntity
  8
AM_5
100
AcDbTrace
 10
531.5242365636617
 20
241.130938726327
 30
0.0
 11
531.5242365636617
 21
240.130938726327
 31
0.0
 12
528.5242365636617
 22
240.630938726327
 32
0.0
 13
528.5242365636617
 23
240.630938726327
 33
0.0
  0
SOLID
  5
2C92
330
2958
100
AcDbEntity
  8
AM_5
100
AcDbTrace
 10
543.5242365636617
 20
241.130938726327
 30
0.0
 11
543.5242365636617
 21
240.130938726327
 31
0.0
 12
546.5242365636616
 22
240.630938726327
 32
0.0
 13
546.5242365636616
 23
240.630938726327
 33
0.0
  0
MTEXT
  5
2C93
330
2958
100
AcDbEntity
  8
AM_5
100
AcDbMText
 10
537.5242365636617
 20
243.380938726327
 30
0.0
 40
3.5
 41
0.0
 71
     5
 72
     1
  1
18
 73
     1
 44
1.0
1001
ACAD
1000
MTEXTBEGIN
1070
    73
1070
     1
1070
    44
1040
1.0
1070
    74
1070
     0
1000
MTEXTEND
  0
POINT
  5
2C94
330
2958
100
AcDbEntity
  8
Defpoints
 62
     0
100
AcDbPoint
 10
528.5242365636617
 20
247.1741886305074
 30
0.0
  0
POINT
  5
2C95
330
2958
100
AcDbEntity
  8
Defpoints
 62
     0
100
AcDbPoint
 10
546.5242365636616
 20
247.1741886305074
 30
0.0
  0
POINT
  5
2C96
330
2958
100
AcDbEntity
  8
Defpoints
 62
     0
100
AcDbPoint
 10
546.5242365636616
 20
240.630938726327
 30
0.0
  0
ENDBLK
  5
2963
330
2958
100
AcDbEntity
  8
0
100
AcDbBlockEnd
  0
BLOCK
  5
296E
330
2964
100
AcDbEntity
  8
0
100
AcDbBlockBegin
  2
*D32
 70
     1
 10
0.0
 20
0.0
 30
0.0
  3
*D32
  1

  0
LINE
  5
2C97
330
2964
100
AcDbEntity
  8
AM_5
100
AcDbLine
 10
552.0242365636617
 20
247.8752904068331
 30
0.0
 11
566.0242365636616
 21
247.8752904068331
 31
0.0
  0
LINE
  5
2C98
330
2964
100
AcDbEntity
  8
AM_5
100
AcDbLine
 10
551.0242365636616
 20
260.3752904068331
 30
0.0
 11
566.0242365636617
 21
260.3752904068331
 31
0.0
  0
LINE
  5
2C99
330
2964
100
AcDbEntity
  8
AM_5
100
AcDbLine
 10
564.5242365636615
 20
250.8752904068331
 30
0.0
 11
564.5242365636617
 21
257.3752904068331
 31
0.0
  0
SOLID
  5
2C9A
330
2964
100
AcDbEntity
  8
AM_5
100
AcDbTrace
 10
564.0242365636615
 20
250.8752904068331
 30
0.0
 11
565.0242365636615
 21
250.8752904068331
 31
0.0
 12
564.5242365636615
 22
247.8752904068331
 32
0.0
 13
564.5242365636615
 23
247.8752904068331
 33
0.0
  0
SOLID
  5
2C9B
330
2964
100
AcDbEntity
  8
AM_5
100
AcDbTrace
 10
564.0242365636616
 20
257.3752904068331
 30
0.0
 11
565.0242365636617
 21
257.3752904068331
 31
0.0
 12
564.5242365636617
 22
260.3752904068331
 32
0.0
 13
564.5242365636617
 23
260.3752904068331
 33
0.0
  0
MTEXT
  5
2C9C
330
2964
100
AcDbEntity
  8
AM_5
100
AcDbMText
 10
561.7738920754726
 20
254.1252904068332
 30
0.0
 40
3.5
 41
0.0
 71
     5
 72
     1
  1
12.5
 11
0.0000000000000001
 21
1.0
 31
0.0
 73
     1
 44
1.0
1001
ACAD
1000
MTEXTBEGIN
1070
    73
1070
     1
1070
    44
1040
1.0
1070
    74
1070
     0
1000
MTEXTEND
  0
POINT
  5
2C9D
330
2964
100
AcDbEntity
  8
Defpoints
 62
     0
100
AcDbPoint
 10
550.5242365636616
 20
247.8752904068331
 30
0.0
  0
POINT
  5
2C9E
330
2964
100
AcDbEntity
  8
Defpoints
 62
     0
100
AcDbPoint
 10
549.5242365636617
 20
260.3752904068331
 30
0.0
  0
POINT
  5
2C9F
330
2964
100
AcDbEntity
  8
Defpoints
 62
     0
100
AcDbPoint
 10
564.5242365636617
 20
260.3752904068331
 30
0.0
  0
ENDBLK
  5
296F
330
2964
100
AcDbEntity
  8
0
100
AcDbBlockEnd
  0
BLOCK
  5
297C
330
2970
100
AcDbEntity
  8
0
100
AcDbBlockBegin
  2
*D33
 70
     1
 10
0.0
 20
0.0
 30
0.0
  3
*D33
  1

  0
LINE
  5
2CA0
330
2970
100
AcDbEntity
  8
AM_5
100
AcDbLine
 10
552.0242365636617
 20
247.8752904068331
 30
0.0
 11
560.0242365636616
 21
247.8752904068331
 31
0.0
  0
LINE
  5
2CA1
330
2970
100
AcDbEntity
  8
AM_5
100
AcDbLine
 10
550.8242365636618
 20
253.8752904068331
 30
0.0
 11
560.0242365636616
 21
253.8752904068331
 31
0.0
  0
LINE
  5
2CA2
330
2970
100
AcDbEntity
  8
AM_5
100
AcDbLine
 10
558.5242365636617
 20
244.8752904068331
 30
0.0
 11
558.5242365636617
 21
241.8752904068331
 31
0.0
  0
LINE
  5
2CA3
330
2970
100
AcDbEntity
  8
AM_5
100
AcDbLine
 10
558.5242365636617
 20
256.8752904068331
 30
0.0
 11
558.5242365636617
 21
259.8752904068331
 31
0.0
  0
LINE
  5
2CA4
330
2970
100
AcDbEntity
  8
AM_5
100
AcDbLine
 10
558.5242365636617
 20
247.8752904068331
 30
0.0
 11
558.5242365636617
 21
253.8752904068331
 31
0.0
  0
SOLID
  5
2CA5
330
2970
100
AcDbEntity
  8
AM_5
100
AcDbTrace
 10
558.0242365636617
 20
244.8752904068331
 30
0.0
 11
559.0242365636616
 21
244.8752904068331
 31
0.0
 12
558.5242365636617
 22
247.8752904068331
 32
0.0
 13
558.5242365636617
 23
247.8752904068331
 33
0.0
  0
SOLID
  5
2CA6
330
2970
100
AcDbEntity
  8
AM_5
100
AcDbTrace
 10
558.0242365636618
 20
256.8752904068331
 30
0.0
 11
559.0242365636618
 21
256.8752904068331
 31
0.0
 12
558.5242365636617
 22
253.8752904068331
 32
0.0
 13
558.5242365636617
 23
253.8752904068331
 33
0.0
  0
MTEXT
  5
2CA7
330
2970
100
AcDbEntity
  8
AM_5
100
AcDbMText
 10
555.7742365636617
 20
250.8752904068332
 30
0.0
 40
3.5
 41
0.0
 71
     5
 72
     1
  1
6
 11
0.0000000000000001
 21
1.0
 31
0.0
 73
     1
 44
1.0
1001
ACAD
1000
MTEXTBEGIN
1070
    73
1070
     1
1070
    44
1040
1.0
1070
    74
1070
     0
1000
MTEXTEND
  0
POINT
  5
2CA8
330
2970
100
AcDbEntity
  8
Defpoints
 62
     0
100
AcDbPoint
 10
550.5242365636616
 20
247.8752904068331
 30
0.0
  0
POINT
  5
2CA9
330
2970
100
AcDbEntity
  8
Defpoints
 62
     0
100
AcDbPoint
 10
549.3242365636619
 20
253.8752904068331
 30
0.0
  0
POINT
  5
2CAA
330
2970
100
AcDbEntity
  8
Defpoints
 62
     0
100
AcDbPoint
 10
558.5242365636617
 20
253.8752904068331
 30
0.0
  0
ENDBLK
  5
297D
330
2970
100
AcDbEntity
  8
0
100
AcDbBlockEnd
  0
BLOCK
  5
2988
330
297E
100
AcDbEntity
  8
0
100
AcDbBlockBegin
  2
*D34
 70
     1
 10
0.0
 20
0.0
 30
0.0
  3
*D34
  1

  0
LINE
  5
2CAB
330
297E
100
AcDbEntity
  8
AM_5
100
AcDbLine
 10
550.5242365636616
 20
260.8752904068331
 30
0.0
 11
550.5242365636616
 21
269.0825236904411
 31
0.0
  0
LINE
  5
2CAC
330
297E
100
AcDbEntity
  8
AM_5
100
AcDbLine
 10
537.5242365636617
 20
263.3752904068331
 30
0.0
 11
537.5242365636617
 21
269.0825236904411
 31
0.0
  0
LINE
  5
2CAD
330
297E
100
AcDbEntity
  8
AM_5
100
AcDbLine
 10
547.5242365636616
 20
267.5825236904411
 30
0.0
 11
540.5242365636617
 21
267.5825236904411
 31
0.0
  0
SOLID
  5
2CAE
330
297E
100
AcDbEntity
  8
AM_5
100
AcDbTrace
 10
547.5242365636616
 20
268.0825236904411
 30
0.0
 11
547.5242365636616
 21
267.0825236904411
 31
0.0
 12
550.5242365636616
 22
267.5825236904411
 32
0.0
 13
550.5242365636616
 23
267.5825236904411
 33
0.0
  0
SOLID
  5
2CAF
330
297E
100
AcDbEntity
  8
AM_5
100
AcDbTrace
 10
540.5242365636617
 20
268.0825236904411
 30
0.0
 11
540.5242365636617
 21
267.0825236904411
 31
0.0
 12
537.5242365636617
 22
267.5825236904411
 32
0.0
 13
537.5242365636617
 23
267.5825236904411
 33
0.0
  0
MTEXT
  5
2CB0
330
297E
100
AcDbEntity
  8
AM_5
100
AcDbMText
 10
544.0242365636617
 20
270.3325236904411
 30
0.0
 40
3.5
 41
0.0
 71
     5
 72
     1
  1
13
 73
     1
 44
1.0
1001
ACAD
1000
MTEXTBEGIN
1070
    73
1070
     1
1070
    44
1040
1.0
1070
    74
1070
     0
1000
MTEXTEND
  0
POINT
  5
2CB1
330
297E
100
AcDbEntity
  8
Defpoints
 62
     0
100
AcDbPoint
 10
550.5242365636616
 20
259.3752904068331
 30
0.0
  0
POINT
  5
2CB2
330
297E
100
AcDbEntity
  8
Defpoints
 62
     0
100
AcDbPoint
 10
537.5242365636617
 20
261.8752904068331
 30
0.0
  0
POINT
  5
2CB3
330
297E
100
AcDbEntity
  8
Defpoints
 62
     0
100
AcDbPoint
 10
537.5242365636617
 20
267.5825236904411
 30
0.0
  0
ENDBLK
  5
2989
330
297E
100
AcDbEntity
  8
0
100
AcDbBlockEnd
  0
BLOCK
  5
2994
330
298A
100
AcDbEntity
  8
0
100
AcDbBlockBegin
  2
*D35
 70
     1
 10
0.0
 20
0.0
 30
0.0
  3
*D35
  1

  0
LINE
  5
2CB4
330
298A
100
AcDbEntity
  8
AM_5
100
AcDbLine
 10
552.0242365636617
 20
247.8752904068331
 30
0.0
 11
572.0242365636618
 21
247.8752904068331
 31
0.0
  0
LINE
  5
2CB5
330
298A
100
AcDbEntity
  8
AM_5
100
AcDbLine
 10
539.0242365636616
 20
261.8752904068331
 30
0.0
 11
572.0242365636619
 21
261.8752904068331
 31
0.0
  0
LINE
  5
2CB6
330
298A
100
AcDbEntity
  8
AM_5
100
AcDbLine
 10
570.5242365636618
 20
250.8752904068331
 30
0.0
 11
570.5242365636619
 21
258.8752904068331
 31
0.0
  0
SOLID
  5
2CB7
330
298A
100
AcDbEntity
  8
AM_5
100
AcDbTrace
 10
570.0242365636618
 20
250.8752904068331
 30
0.0
 11
571.0242365636617
 21
250.8752904068331
 31
0.0
 12
570.5242365636618
 22
247.8752904068331
 32
0.0
 13
570.5242365636618
 23
247.8752904068331
 33
0.0
  0
SOLID
  5
2CB8
330
298A
100
AcDbEntity
  8
AM_5
100
AcDbTrace
 10
570.0242365636619
 20
258.8752904068331
 30
0.0
 11
571.0242365636619
 21
258.8752904068331
 31
0.0
 12
570.5242365636619
 22
261.8752904068331
 32
0.0
 13
570.5242365636619
 23
261.8752904068331
 33
0.0
  0
MTEXT
  5
2CB9
330
298A
100
AcDbEntity
  8
AM_5
100
AcDbMText
 10
567.7742365636618
 20
254.8752904068332
 30
0.0
 40
3.5
 41
0.0
 71
     5
 72
     1
  1
14
 11
0.0000000000000001
 21
1.0
 31
0.0
 73
     1
 44
1.0
1001
ACAD
1000
MTEXTBEGIN
1070
    73
1070
     1
1070
    44
1040
1.0
1070
    74
1070
     0
1000
MTEXTEND
  0
POINT
  5
2CBA
330
298A
100
AcDbEntity
  8
Defpoints
 62
     0
100
AcDbPoint
 10
550.5242365636616
 20
247.8752904068331
 30
0.0
  0
POINT
  5
2CBB
330
298A
100
AcDbEntity
  8
Defpoints
 62
     0
100
AcDbPoint
 10
537.5242365636617
 20
261.8752904068331
 30
0.0
  0
POINT
  5
2CBC
330
298A
100
AcDbEntity
  8
Defpoints
 62
     0
100
AcDbPoint
 10
570.5242365636619
 20
261.8752904068331
 30
0.0
  0
ENDBLK
  5
2995
330
298A
100
AcDbEntity
  8
0
100
AcDbBlockEnd
  0
BLOCK
  5
299D
330
2996
100
AcDbEntity
  8
0
100
AcDbBlockBegin
  2
*D36
 70
     1
 10
0.0
 20
0.0
 30
0.0
  3
*D36
  1

  0
LINE
  5
2CDC
330
2996
100
AcDbEntity
  8
AM_5
100
AcDbLine
 10
510.9655477980417
 20
279.3241161372011
 30
0.0
 11
513.6613474610401
 21
283.1844204170696
 31
0.0
  0
LINE
  5
2CDD
330
2996
100
AcDbEntity
  8
AM_5
100
AcDbLine
 10
513.6613474610401
 20
283.1844204170696
 30
0.0
 11
538.4613474610402
 21
283.1844204170698
 31
0.0
  0
SOLID
  5
2CDE
330
2996
100
AcDbEntity
  8
AM_5
100
AcDbTrace
 10
510.5556121372024
 20
279.6103900514375
 30
0.0
 11
511.375483458881
 21
279.0378422229647
 31
0.0
 12
509.2479043126231
 22
276.8645021721653
 32
0.0
 13
509.2479043126231
 23
276.8645021721653
 33
0.0
  0
MTEXT
  5
2CDF
330
2996
100
AcDbEntity
  8
AM_5
100
AcDbMText
 10
526.5613474610399
 20
285.9344204170699
 30
0.0
 40
3.5
 41
0.0
 71
     5
 72
     1
  1
4-\U+22053.6 thru
 73
     1
 44
1.0
1001
ACAD
1000
MTEXTBEGIN
1070
    73
1070
     1
1070
    44
1040
1.0
1070
    74
1070
     0
1000
MTEXTEND
  0
POINT
  5
2CE0
330
2996
100
AcDbEntity
  8
Defpoints
 62
     0
100
AcDbPoint
 10
509.2479043126231
 20
276.8645021721653
 30
0.0
  0
POINT
  5
2CE1
330
2996
100
AcDbEntity
  8
Defpoints
 62
     0
100
AcDbPoint
 10
507.1867321301211
 20
273.9129654141228
 30
0.0
  0
ENDBLK
  5
299E
330
2996
100
AcDbEntity
  8
0
100
AcDbBlockEnd
  0
BLOCK
  5
29AE
330
29A4
100
AcDbEntity
  8
0
100
AcDbBlockBegin
  2
*D37
 70
     1
 10
0.0
 20
0.0
 30
0.0
  3
*D37
  1

  0
LINE
  5
2CC8
330
29A4
100
AcDbEntity
  8
AM_5
100
AcDbLine
 10
498.217318221372
 20
249.3752904068331
 30
0.0
 11
498.217318221372
 21
240.0852024508938
 31
0.0
  0
LINE
  5
2CC9
330
29A4
100
AcDbEntity
  8
AM_5
100
AcDbLine
 10
508.217318221372
 20
245.301030530532
 30
0.0
 11
508.217318221372
 21
240.0852024508938
 31
0.0
  0
LINE
  5
2CCA
330
29A4
100
AcDbEntity
  8
AM_5
100
AcDbLine
 10
501.217318221372
 20
241.5852024508938
 30
0.0
 11
505.217318221372
 21
241.5852024508938
 31
0.0
  0
SOLID
  5
2CCB
330
29A4
100
AcDbEntity
  8
AM_5
100
AcDbTrace
 10
501.217318221372
 20
242.0852024508938
 30
0.0
 11
501.217318221372
 21
241.0852024508938
 31
0.0
 12
498.217318221372
 22
241.5852024508938
 32
0.0
 13
498.217318221372
 23
241.5852024508938
 33
0.0
  0
SOLID
  5
2CCC
330
29A4
100
AcDbEntity
  8
AM_5
100
AcDbTrace
 10
505.217318221372
 20
242.0852024508938
 30
0.0
 11
505.217318221372
 21
241.0852024508938
 31
0.0
 12
508.217318221372
 22
241.5852024508938
 32
0.0
 13
508.217318221372
 23
241.5852024508938
 33
0.0
  0
MTEXT
  5
2CCD
330
29A4
100
AcDbEntity
  8
AM_5
100
AcDbMText
 10
503.2173182213719
 20
244.3352024508938
 30
0.0
 40
3.5
 41
0.0
 71
     5
 72
     1
  1
10
 73
     1
 44
1.0
1001
ACAD
1000
MTEXTBEGIN
1070
    73
1070
     1
1070
    44
1040
1.0
1070
    74
1070
     0
1000
MTEXTEND
  0
POINT
  5
2CCE
330
29A4
100
AcDbEntity
  8
Defpoints
 62
     0
100
AcDbPoint
 10
498.217318221372
 20
250.8752904068331
 30
0.0
  0
POINT
  5
2CCF
330
29A4
100
AcDbEntity
  8
Defpoints
 62
     0
100
AcDbPoint
 10
508.217318221372
 20
246.801030530532
 30
0.0
  0
POINT
  5
2CD0
330
29A4
100
AcDbEntity
  8
Defpoints
 62
     0
100
AcDbPoint
 10
508.217318221372
 20
241.5852024508938
 30
0.0
  0
ENDBLK
  5
29AF
330
29A4
100
AcDbEntity
  8
0
100
AcDbBlockEnd
  0
BLOCK
  5
29BC
330
29B0
100
AcDbEntity
  8
0
100
AcDbBlockBegin
  2
*D38
 70
     1
 10
0.0
 20
0.0
 30
0.0
  3
*D38
  1

  0
LINE
  5
2CD1
330
29B0
100
AcDbEntity
  8
AM_5
100
AcDbLine
 10
498.217318221372
 20
261.8752904068331
 30
0.0
 11
498.217318221372
 21
263.6034462838499
 31
0.0
  0
LINE
  5
2CD2
330
29B0
100
AcDbEntity
  8
AM_5
100
AcDbLine
 10
499.8173182213721
 20
261.8752904068331
 30
0.0
 11
499.8173182213721
 21
263.6034462838499
 31
0.0
  0
LINE
  5
2CD3
330
29B0
100
AcDbEntity
  8
AM_5
100
AcDbLine
 10
495.2173182213719
 20
262.10344628385
 30
0.0
 11
492.217318221372
 21
262.10344628385
 31
0.0
  0
LINE
  5
2CD4
330
29B0
100
AcDbEntity
  8
AM_5
100
AcDbLine
 10
502.8173182213721
 20
262.10344628385
 30
0.0
 11
512.1909402686163
 21
262.10344628385
 31
0.0
  0
LINE
  5
2CD5
330
29B0
100
AcDbEntity
  8
AM_5
100
AcDbLine
 10
498.217318221372
 20
262.10344628385
 30
0.0
 11
499.8173182213721
 21
262.10344628385
 31
0.0
  0
SOLID
  5
2CD6
330
29B0
100
AcDbEntity
  8
AM_5
100
AcDbTrace
 10
495.2173182213719
 20
262.60344628385
 30
0.0
 11
495.2173182213719
 21
261.6034462838499
 31
0.0
 12
498.217318221372
 22
262.10344628385
 32
0.0
 13
498.217318221372
 23
262.10344628385
 33
0.0
  0
SOLID
  5
2CD7
330
29B0
100
AcDbEntity
  8
AM_5
100
AcDbTrace
 10
502.8173182213721
 20
262.60344628385
 30
0.0
 11
502.8173182213721
 21
261.6034462838499
 31
0.0
 12
499.8173182213721
 22
262.10344628385
 32
0.0
 13
499.8173182213721
 23
262.10344628385
 33
0.0
  0
MTEXT
  5
2CD8
330
29B0
100
AcDbEntity
  8
AM_5
100
AcDbMText
 10
509.0041292449941
 20
264.85344628385
 30
0.0
 40
3.5
 41
0.0
 71
     5
 72
     1
  1
1.6
 73
     1
 44
1.0
1001
ACAD
1000
MTEXTBEGIN
1070
    73
1070
     1
1070
    44
1040
1.0
1070
    74
1070
     0
1000
MTEXTEND
  0
POINT
  5
2CD9
330
29B0
100
AcDbEntity
  8
Defpoints
 62
     0
100
AcDbPoint
 10
498.217318221372
 20
260.3752904068331
 30
0.0
  0
POINT
  5
2CDA
330
29B0
100
AcDbEntity
  8
Defpoints
 62
     0
100
AcDbPoint
 10
499.8173182213721
 20
260.3752904068331
 30
0.0
  0
POINT
  5
2CDB
330
29B0
100
AcDbEntity
  8
Defpoints
 62
     0
100
AcDbPoint
 10
499.8173182213721
 20
262.10344628385
 30
0.0
  0
ENDBLK
  5
29BD
330
29B0
100
AcDbEntity
  8
0
100
AcDbBlockEnd
  0
BLOCK
  5
2AA2
330
2A98
100
AcDbEntity
  8
0
100
AcDbBlockBegin
  2
*D39
 70
     1
 10
0.0
 20
0.0
 30
0.0
  3
*D39
  1

  0
LINE
  5
2F29
330
2A98
100
AcDbEntity
  8
AM_5
100
AcDbLine
 10
495.4320518874387
 20
164.2341566895507
 30
0.0
 11
489.1820518774387
 21
164.2341566895507
 31
0.0
  0
LINE
  5
2F2A
330
2A98
100
AcDbEntity
  8
AM_5
100
AcDbLine
 10
495.1820518874387
 20
174.2341566895507
 30
0.0
 11
489.1820518774387
 21
174.2341566895507
 31
0.0
  0
LINE
  5
2F2B
330
2A98
100
AcDbEntity
  8
AM_5
100
AcDbLine
 10
490.6820518774387
 20
167.2341566895507
 30
0.0
 11
490.6820518774387
 21
171.2341566895507
 31
0.0
  0
SOLID
  5
2F2C
330
2A98
100
AcDbEntity
  8
AM_5
100
AcDbTrace
 10
490.1820518774387
 20
167.2341566895507
 30
0.0
 11
491.1820518774387
 21
167.2341566895507
 31
0.0
 12
490.6820518774387
 22
164.2341566895507
 32
0.0
 13
490.6820518774387
 23
164.2341566895507
 33
0.0
  0
SOLID
  5
2F2D
330
2A98
100
AcDbEntity
  8
AM_5
100
AcDbTrace
 10
490.1820518774387
 20
171.2341566895507
 30
0.0
 11
491.1820518774387
 21
171.2341566895507
 31
0.0
 12
490.6820518774387
 22
174.2341566895507
 32
0.0
 13
490.6820518774387
 23
174.2341566895507
 33
0.0
  0
MTEXT
  5
2F2E
330
2A98
100
AcDbEntity
  8
AM_5
100
AcDbMText
 10
487.9320518774386
 20
169.2341566895508
 30
0.0
 40
3.5
 41
0.0
 71
     5
 72
     1
  1
10
 11
0.0000000000000001
 21
1.0
 31
0.0
 73
     1
 44
1.0
1001
ACAD
1000
MTEXTBEGIN
1070
    73
1070
     1
1070
    44
1040
1.0
1070
    74
1070
     0
1000
MTEXTEND
  0
POINT
  5
2F2F
330
2A98
100
AcDbEntity
  8
Defpoints
 62
     0
100
AcDbPoint
 10
496.9320518874387
 20
164.2341566895507
 30
0.0
  0
POINT
  5
2F30
330
2A98
100
AcDbEntity
  8
Defpoints
 62
     0
100
AcDbPoint
 10
496.6820518874388
 20
174.2341566895507
 30
0.0
  0
POINT
  5
2F31
330
2A98
100
AcDbEntity
  8
Defpoints
 62
     0
100
AcDbPoint
 10
490.6820518774387
 20
174.2341566895507
 30
0.0
  0
ENDBLK
  5
2AA3
330
2A98
100
AcDbEntity
  8
0
100
AcDbBlockEnd
  0
BLOCK
  5
2AAE
330
2AA4
100
AcDbEntity
  8
0
100
AcDbBlockBegin
  2
*D40
 70
     1
 10
0.0
 20
0.0
 30
0.0
  3
*D40
  1

  0
LINE
  5
2F20
330
2AA4
100
AcDbEntity
  8
AM_5
100
AcDbLine
 10
495.1820518874387
 20
154.2341566895507
 30
0.0
 11
480.1217367166509
 21
154.2341566895507
 31
0.0
  0
LINE
  5
2F21
330
2AA4
100
AcDbEntity
  8
AM_5
100
AcDbLine
 10
495.1820518874387
 20
174.2341566895507
 30
0.0
 11
480.1217367166509
 21
174.2341566895507
 31
0.0
  0
LINE
  5
2F22
330
2AA4
100
AcDbEntity
  8
AM_5
100
AcDbLine
 10
481.6217367166508
 20
157.2341566895507
 30
0.0
 11
481.6217367166508
 21
171.2341566895507
 31
0.0
  0
SOLID
  5
2F23
330
2AA4
100
AcDbEntity
  8
AM_5
100
AcDbTrace
 10
481.1217367166508
 20
157.2341566895507
 30
0.0
 11
482.1217367166509
 21
157.2341566895507
 31
0.0
 12
481.6217367166508
 22
154.2341566895507
 32
0.0
 13
481.6217367166508
 23
154.2341566895507
 33
0.0
  0
SOLID
  5
2F24
330
2AA4
100
AcDbEntity
  8
AM_5
100
AcDbTrace
 10
481.1217367166508
 20
171.2341566895507
 30
0.0
 11
482.1217367166509
 21
171.2341566895507
 31
0.0
 12
481.6217367166508
 22
174.2341566895507
 32
0.0
 13
481.6217367166508
 23
174.2341566895507
 33
0.0
  0
MTEXT
  5
2F25
330
2AA4
100
AcDbEntity
  8
AM_5
100
AcDbMText
 10
478.8713922284618
 20
165.1619743757476
 30
0.0
 40
3.5
 41
0.0
 71
     5
 72
     1
  1
20
 11
0.0000000000000001
 21
1.0
 31
0.0
 73
     1
 44
1.0
1001
ACAD
1000
MTEXTBEGIN
1070
    73
1070
     1
1070
    44
1040
1.0
1070
    74
1070
     0
1000
MTEXTEND
  0
POINT
  5
2F26
330
2AA4
100
AcDbEntity
  8
Defpoints
 62
     0
100
AcDbPoint
 10
496.6820518874388
 20
154.2341566895507
 30
0.0
  0
POINT
  5
2F27
330
2AA4
100
AcDbEntity
  8
Defpoints
 62
     0
100
AcDbPoint
 10
496.6820518874388
 20
174.2341566895507
 30
0.0
  0
POINT
  5
2F28
330
2AA4
100
AcDbEntity
  8
Defpoints
 62
     0
100
AcDbPoint
 10
481.6217367166508
 20
174.2341566895507
 30
0.0
  0
ENDBLK
  5
2AAF
330
2AA4
100
AcDbEntity
  8
0
100
AcDbBlockEnd
  0
BLOCK
  5
2ABA
330
2AB0
100
AcDbEntity
  8
0
100
AcDbBlockBegin
  2
*D41
 70
     1
 10
0.0
 20
0.0
 30
0.0
  3
*D41
  1

  0
LINE
  5
2B0E
330
2AB0
100
AcDbEntity
  8
AM_5
100
AcDbLine
 10
508.932051887439
 20
175.7341566895507
 30
0.0
 11
508.932051887439
 21
181.238090965912
 31
0.0
  0
LINE
  5
2B0F
330
2AB0
100
AcDbEntity
  8
AM_5
100
AcDbLine
 10
534.4320518874387
 20
175.7341566895507
 30
0.0
 11
534.4320518874387
 21
181.238090965912
 31
0.0
  0
LINE
  5
2B10
330
2AB0
100
AcDbEntity
  8
AM_5
100
AcDbLine
 10
511.9320518874389
 20
179.7380909659121
 30
0.0
 11
531.4320518874388
 21
179.7380909659121
 31
0.0
  0
SOLID
  5
2B11
330
2AB0
100
AcDbEntity
  8
AM_5
100
AcDbTrace
 10
511.9320518874389
 20
180.238090965912
 30
0.0
 11
511.9320518874389
 21
179.2380909659121
 31
0.0
 12
508.932051887439
 22
179.7380909659121
 32
0.0
 13
508.932051887439
 23
179.7380909659121
 33
0.0
  0
SOLID
  5
2B12
330
2AB0
100
AcDbEntity
  8
AM_5
100
AcDbTrace
 10
531.4320518874388
 20
180.238090965912
 30
0.0
 11
531.4320518874388
 21
179.2380909659121
 31
0.0
 12
534.4320518874387
 22
179.7380909659121
 32
0.0
 13
534.4320518874387
 23
179.7380909659121
 33
0.0
  0
MTEXT
  5
2B13
330
2AB0
100
AcDbEntity
  8
AM_5
100
AcDbMText
 10
521.6820518874389
 20
182.488435454101
 30
0.0
 40
3.5
 41
0.0
 71
     5
 72
     1
  1
25.5
 73
     1
 44
1.0
1001
ACAD
1000
MTEXTBEGIN
1070
    73
1070
     1
1070
    44
1040
1.0
1070
    74
1070
     0
1000
MTEXTEND
  0
POINT
  5
2B14
330
2AB0
100
AcDbEntity
  8
Defpoints
 62
     0
100
AcDbPoint
 10
508.932051887439
 20
174.2341566895507
 30
0.0
  0
POINT
  5
2B15
330
2AB0
100
AcDbEntity
  8
Defpoints
 62
     0
100
AcDbPoint
 10
534.4320518874387
 20
174.2341566895507
 30
0.0
  0
POINT
  5
2B16
330
2AB0
100
AcDbEntity
  8
Defpoints
 62
     0
100
AcDbPoint
 10
534.4320518874387
 20
179.7380909659121
 30
0.0
  0
ENDBLK
  5
2ABB
330
2AB0
100
AcDbEntity
  8
0
100
AcDbBlockEnd
  0
BLOCK
  5
2AC6
330
2ABC
100
AcDbEntity
  8
0
100
AcDbBlockBegin
  2
*D42
 70
     1
 10
0.0
 20
0.0
 30
0.0
  3
*D42
  1

  0
LINE
  5
2F17
330
2ABC
100
AcDbEntity
  8
AM_5
100
AcDbLine
 10
502.6820518874387
 20
171.4841566895507
 30
0.0
 11
502.6820518874387
 21
186.9228607026796
 31
0.0
  0
LINE
  5
2F18
330
2ABC
100
AcDbEntity
  8
AM_5
100
AcDbLine
 10
540.6820518874387
 20
171.4841566895507
 30
0.0
 11
540.6820518874387
 21
186.9228607026796
 31
0.0
  0
LINE
  5
2F19
330
2ABC
100
AcDbEntity
  8
AM_5
100
AcDbLine
 10
505.6820518874387
 20
185.4228607026796
 30
0.0
 11
537.6820518874388
 21
185.4228607026796
 31
0.0
  0
SOLID
  5
2F1A
330
2ABC
100
AcDbEntity
  8
AM_5
100
AcDbTrace
 10
505.6820518874387
 20
185.9228607026796
 30
0.0
 11
505.6820518874387
 21
184.9228607026796
 31
0.0
 12
502.6820518874387
 22
185.4228607026796
 32
0.0
 13
502.6820518874387
 23
185.4228607026796
 33
0.0
  0
SOLID
  5
2F1B
330
2ABC
100
AcDbEntity
  8
AM_5
100
AcDbTrace
 10
537.6820518874388
 20
185.9228607026796
 30
0.0
 11
537.6820518874388
 21
184.9228607026796
 31
0.0
 12
540.6820518874387
 22
185.4228607026796
 32
0.0
 13
540.6820518874387
 23
185.4228607026796
 33
0.0
  0
MTEXT
  5
2F1C
330
2ABC
100
AcDbEntity
  8
AM_5
100
AcDbMText
 10
521.6820518874388
 20
188.1728607026796
 30
0.0
 40
3.5
 41
0.0
 71
     5
 72
     1
  1
38
 73
     1
 44
1.0
1001
ACAD
1000
MTEXTBEGIN
1070
    73
1070
     1
1070
    44
1040
1.0
1070
    74
1070
     0
1000
MTEXTEND
  0
POINT
  5
2F1D
330
2ABC
100
AcDbEntity
  8
Defpoints
 62
     0
100
AcDbPoint
 10
502.6820518874387
 20
169.9841566895507
 30
0.0
  0
POINT
  5
2F1E
330
2ABC
100
AcDbEntity
  8
Defpoints
 62
     0
100
AcDbPoint
 10
540.6820518874387
 20
169.9841566895507
 30
0.0
  0
POINT
  5
2F1F
330
2ABC
100
AcDbEntity
  8
Defpoints
 62
     0
100
AcDbPoint
 10
540.6820518874387
 20
185.4228607026796
 30
0.0
  0
ENDBLK
  5
2AC7
330
2ABC
100
AcDbEntity
  8
0
100
AcDbBlockEnd
  0
BLOCK
  5
2AD2
330
2AC8
100
AcDbEntity
  8
0
100
AcDbBlockBegin
  2
*D43
 70
     1
 10
0.0
 20
0.0
 30
0.0
  3
*D43
  1

  0
LINE
  5
2F0E
330
2AC8
100
AcDbEntity
  8
AM_5
100
AcDbLine
 10
496.6820518874388
 20
175.7341566895507
 30
0.0
 11
496.6820518874388
 21
192.8003324350034
 31
0.0
  0
LINE
  5
2F0F
330
2AC8
100
AcDbEntity
  8
AM_5
100
AcDbLine
 10
546.6820518874388
 20
175.7341566895507
 30
0.0
 11
546.6820518874388
 21
192.8003324350034
 31
0.0
  0
LINE
  5
2F10
330
2AC8
100
AcDbEntity
  8
AM_5
100
AcDbLine
 10
499.6820518874387
 20
191.3003324350034
 30
0.0
 11
543.6820518874387
 21
191.3003324350034
 31
0.0
  0
SOLID
  5
2F11
330
2AC8
100
AcDbEntity
  8
AM_5
100
AcDbTrace
 10
499.6820518874387
 20
191.8003324350033
 30
0.0
 11
499.6820518874387
 21
190.8003324350034
 31
0.0
 12
496.6820518874388
 22
191.3003324350034
 32
0.0
 13
496.6820518874388
 23
191.3003324350034
 33
0.0
  0
SOLID
  5
2F12
330
2AC8
100
AcDbEntity
  8
AM_5
100
AcDbTrace
 10
543.6820518874387
 20
191.8003324350033
 30
0.0
 11
543.6820518874387
 21
190.8003324350034
 31
0.0
 12
546.6820518874388
 22
191.3003324350034
 32
0.0
 13
546.6820518874388
 23
191.3003324350034
 33
0.0
  0
MTEXT
  5
2F13
330
2AC8
100
AcDbEntity
  8
AM_5
100
AcDbMText
 10
521.6820518874388
 20
194.0503324350034
 30
0.0
 40
3.5
 41
0.0
 71
     5
 72
     1
  1
50
 73
     1
 44
1.0
1001
ACAD
1000
MTEXTBEGIN
1070
    73
1070
     1
1070
    44
1040
1.0
1070
    74
1070
     0
1000
MTEXTEND
  0
POINT
  5
2F14
330
2AC8
100
AcDbEntity
  8
Defpoints
 62
     0
100
AcDbPoint
 10
496.6820518874388
 20
174.2341566895507
 30
0.0
  0
POINT
  5
2F15
330
2AC8
100
AcDbEntity
  8
Defpoints
 62
     0
100
AcDbPoint
 10
546.6820518874388
 20
174.2341566895507
 30
0.0
  0
POINT
  5
2F16
330
2AC8
100
AcDbEntity
  8
Defpoints
 62
     0
100
AcDbPoint
 10
546.6820518874388
 20
191.3003324350034
 30
0.0
  0
ENDBLK
  5
2AD3
330
2AC8
100
AcDbEntity
  8
0
100
AcDbBlockEnd
  0
BLOCK
  5
2AE0
330
2AD4
100
AcDbEntity
  8
0
100
AcDbBlockBegin
  2
*D44
 70
     1
 10
0.0
 20
0.0
 30
0.0
  3
*D44
  1

  0
LINE
  5
2F3D
330
2AD4
100
AcDbEntity
  8
AM_5
100
AcDbLine
 10
507.4320518874388
 20
133.6312553408681
 30
0.0
 11
490.4320518874386
 21
133.6312553408681
 31
0.0
  0
LINE
  5
2F3E
330
2AD4
100
AcDbEntity
  8
AM_5
100
AcDbLine
 10
495.1820518874387
 20
130.6312553408681
 30
0.0
 11
490.4320518874386
 21
130.6312553408681
 31
0.0
  0
LINE
  5
2F3F
330
2AD4
100
AcDbEntity
  8
AM_5
100
AcDbLine
 10
491.9320518874386
 20
136.6312553408681
 30
0.0
 11
491.9320518874386
 21
139.6312553408681
 31
0.0
  0
LINE
  5
2F40
330
2AD4
100
AcDbEntity
  8
AM_5
100
AcDbLine
 10
491.9320518874386
 20
127.6312553408681
 30
0.0
 11
491.9320518874386
 21
121.0862805940376
 31
0.0
  0
LINE
  5
2F41
330
2AD4
100
AcDbEntity
  8
AM_5
100
AcDbLine
 10
491.9320518874386
 20
133.6312553408681
 30
0.0
 11
491.9320518874386
 21
130.6312553408681
 31
0.0
  0
SOLID
  5
2F42
330
2AD4
100
AcDbEntity
  8
AM_5
100
AcDbTrace
 10
491.4320518874387
 20
136.6312553408681
 30
0.0
 11
492.4320518874386
 21
136.6312553408681
 31
0.0
 12
491.9320518874386
 22
133.6312553408681
 32
0.0
 13
491.9320518874386
 23
133.6312553408681
 33
0.0
  0
SOLID
  5
2F43
330
2AD4
100
AcDbEntity
  8
AM_5
100
AcDbTrace
 10
491.4320518874386
 20
127.6312553408681
 30
0.0
 11
492.4320518874385
 21
127.6312553408681
 31
0.0
 12
491.9320518874386
 22
130.6312553408681
 32
0.0
 13
491.9320518874386
 23
130.6312553408681
 33
0.0
  0
MTEXT
  5
2F44
330
2AD4
100
AcDbEntity
  8
AM_5
100
AcDbMText
 10
489.1820518874386
 20
122.8587679674529
 30
0.0
 40
3.5
 41
0.0
 71
     5
 72
     1
  1
3
 11
0.0000000000000001
 21
1.0
 31
0.0
 73
     1
 44
1.0
1001
ACAD
1000
MTEXTBEGIN
1070
    73
1070
     1
1070
    44
1040
1.0
1070
    74
1070
     0
1000
MTEXTEND
  0
POINT
  5
2F45
330
2AD4
100
AcDbEntity
  8
Defpoints
 62
     0
100
AcDbPoint
 10
508.9320518874387
 20
133.6312553408681
 30
0.0
  0
POINT
  5
2F46
330
2AD4
100
AcDbEntity
  8
Defpoints
 62
     0
100
AcDbPoint
 10
496.6820518874388
 20
130.6312553408681
 30
0.0
  0
POINT
  5
2F47
330
2AD4
100
AcDbEntity
  8
Defpoints
 62
     0
100
AcDbPoint
 10
491.9320518874386
 20
130.6312553408681
 30
0.0
  0
ENDBLK
  5
2AE1
330
2AD4
100
AcDbEntity
  8
0
100
AcDbBlockEnd
  0
BLOCK
  5
2AEE
330
2AE2
100
AcDbEntity
  8
0
100
AcDbBlockBegin
  2
*D45
 70
     1
 10
0.0
 20
0.0
 30
0.0
  3
*D45
  1

  0
LINE
  5
2F32
330
2AE2
100
AcDbEntity
  8
AM_5
100
AcDbLine
 10
495.1820518874387
 20
135.6312553408681
 30
0.0
 11
482.6820518874387
 21
135.6312553408681
 31
0.0
  0
LINE
  5
2F33
330
2AE2
100
AcDbEntity
  8
AM_5
100
AcDbLine
 10
495.1820518874387
 20
130.6312553408681
 30
0.0
 11
482.6820518874387
 21
130.6312553408681
 31
0.0
  0
LINE
  5
2F34
330
2AE2
100
AcDbEntity
  8
AM_5
100
AcDbLine
 10
484.1820518874388
 20
138.6312553408681
 30
0.0
 11
484.1820518874388
 21
141.6312553408682
 31
0.0
  0
LINE
  5
2F35
330
2AE2
100
AcDbEntity
  8
AM_5
100
AcDbLine
 10
484.1820518874387
 20
127.6312553408681
 30
0.0
 11
484.1820518874387
 21
124.6312553408681
 31
0.0
  0
LINE
  5
2F36
330
2AE2
100
AcDbEntity
  8
AM_5
100
AcDbLine
 10
484.1820518874388
 20
135.6312553408681
 30
0.0
 11
484.1820518874388
 21
130.6312553408681
 31
0.0
  0
SOLID
  5
2F37
330
2AE2
100
AcDbEntity
  8
AM_5
100
AcDbTrace
 10
483.6820518874388
 20
138.6312553408681
 30
0.0
 11
484.6820518874388
 21
138.6312553408681
 31
0.0
 12
484.1820518874388
 22
135.6312553408681
 32
0.0
 13
484.1820518874388
 23
135.6312553408681
 33
0.0
  0
SOLID
  5
2F38
330
2AE2
100
AcDbEntity
  8
AM_5
100
AcDbTrace
 10
483.6820518874387
 20
127.6312553408681
 30
0.0
 11
484.6820518874387
 21
127.6312553408681
 31
0.0
 12
484.1820518874388
 22
130.6312553408681
 32
0.0
 13
484.1820518874388
 23
130.6312553408681
 33
0.0
  0
MTEXT
  5
2F39
330
2AE2
100
AcDbEntity
  8
AM_5
100
AcDbMText
 10
481.4320518874387
 20
133.1312553408682
 30
0.0
 40
3.5
 41
0.0
 71
     5
 72
     1
  1
5
 11
0.0000000000000001
 21
1.0
 31
0.0
 73
     1
 44
1.0
1001
ACAD
1000
MTEXTBEGIN
1070
    73
1070
     1
1070
    44
1040
1.0
1070
    74
1070
     0
1000
MTEXTEND
  0
POINT
  5
2F3A
330
2AE2
100
AcDbEntity
  8
Defpoints
 62
     0
100
AcDbPoint
 10
496.6820518874388
 20
135.6312553408681
 30
0.0
  0
POINT
  5
2F3B
330
2AE2
100
AcDbEntity
  8
Defpoints
 62
     0
100
AcDbPoint
 10
496.6820518874388
 20
130.6312553408681
 30
0.0
  0
POINT
  5
2F3C
330
2AE2
100
AcDbEntity
  8
Defpoints
 62
     0
100
AcDbPoint
 10
484.1820518874388
 20
130.6312553408681
 30
0.0
  0
ENDBLK
  5
2AEF
330
2AE2
100
AcDbEntity
  8
0
100
AcDbBlockEnd
  0
BLOCK
  5
2AFA
330
2AF0
100
AcDbEntity
  8
0
100
AcDbBlockBegin
  2
*D46
 70
     1
 10
0.0
 20
0.0
 30
0.0
  3
*D46
  1

  0
LINE
  5
2F05
330
2AF0
100
AcDbEntity
  8
AM_5
100
AcDbLine
 10
485.0539769608562
 20
148.0061127863169
 30
0.0
 11
497.4825483894282
 21
148.0061127863169
 31
0.0
  0
LINE
  5
2F06
330
2AF0
100
AcDbEntity
  8
AM_5
100
AcDbLine
 10
497.4825483894282
 20
148.0061127863169
 30
0.0
 11
501.3089971111202
 21
159.9487488231712
 31
0.0
  0
LINE
  5
2F07
330
2AF0
100
AcDbEntity
  8
AM_5
100
AcDbLine
 10
504.0551066637572
 20
168.5195645559304
 30
0.0
 11
504.5890724101033
 21
170.1861120595225
 31
0.0
  0
MTEXT
  5
2F08
330
2AF0
100
AcDbEntity
  8
AM_5
100
AcDbMText
 10
490.8932626751419
 20
149.8811127863169
 30
0.0
 40
2.25
 41
0.0
 71
     5
 72
     1
  1
2-\U+22055.5
  7
DAYUS
 73
     1
 44
1.0
1001
ACAD
1000
MTEXTBEGIN
1070
    73
1070
     1
1070
    44
1040
1.0
1070
    74
1070
     0
1000
MTEXTEND
  0
LINE
  5
2F09
330
2AF0
100
AcDbEntity
  8
AM_5
100
AcDbLine
 10
503.521140917411
 20
166.8530170523383
 30
0.0
 11
501.8429628574662
 21
161.6152963267632
 31
0.0
  0
SOLID
  5
2F0A
330
2AF0
100
AcDbEntity
  8
AM_5
100
AcDbTrace
 10
503.7773487464918
 20
168.6085588469881
 30
0.0
 11
504.3328645810226
 21
168.4305702648727
 31
0.0
 12
503.521140917411
 22
166.8530170523383
 32
0.0
 13
503.521140917411
 23
166.8530170523383
 33
0.0
  0
SOLID
  5
2F0B
330
2AF0
100
AcDbEntity
  8
AM_5
100
AcDbTrace
 10
501.0312391938548
 20
160.0377431142288
 30
0.0
 11
501.5867550283855
 21
159.8597545321135
 31
0.0
 12
501.8429628574662
 22
161.6152963267632
 32
0.0
 13
501.8429628574662
 23
161.6152963267632
 33
0.0
  0
POINT
  5
2F0C
330
2AF0
100
AcDbEntity
  8
Defpoints
 62
     0
100
AcDbPoint
 10
501.8429628574662
 20
161.6152963267632
 30
0.0
  0
POINT
  5
2F0D
330
2AF0
100
AcDbEntity
  8
Defpoints
 62
     0
100
AcDbPoint
 10
503.521140917411
 20
166.8530170523383
 30
0.0
  0
ENDBLK
  5
2AFB
330
2AF0
100
AcDbEntity
  8
0
100
AcDbBlockEnd
  0
ENDSEC
  0
SECTION
  2
ENTITIES
  0
TEXT
  5
1599
330
1F
100
AcDbEntity
  8
LOGO
 62
     7
100
AcDbText
 10
269.4412329069496
 20
86.57990953266006
 30
0.0
 40
3.999420814479637
  1
Order example:
 41
0.8
  7
CHINESET
100
AcDbText
  0
TEXT
  5
159A
330
1F
100
AcDbEntity
  8
LOGO
 62
     7
100
AcDbText
 10
270.1587620749319
 20
92.21026594880141
 30
0.0
 40
5.999131221719456
  1
訂購代號：
  7
CHINESET
100
AcDbText
  0
LINE
  5
159B
330
1F
100
AcDbEntity
  8
LOGO
 62
     4
100
AcDbLine
 10
267.7034709978027
 20
69.72483994553511
 30
0.0
 11
267.7034709978027
 21
99.72049605413259
 31
0.0
  0
TEXT
  5
159C
330
1F
100
AcDbEntity
  8
LOGO
  6
Continuous
100
AcDbText
 10
212.4876020661798
 20
75.61744132067713
 30
0.0
 40
4.499348416289592
  1
金器工業股份有限公司
  7
CHINESET
100
AcDbText
  0
TEXT
  5
159D
330
1F
100
AcDbEntity
  8
LOGO
  6
Continuous
100
AcDbText
 10
204.2231891776423
 20
71.11721138486053
 30
0.0
 40
2.999565610859728
  1
MINDMAN INDUSTRIAL CO., LTD.
 41
0.85
  7
CHINESET
100
AcDbText
  0
LINE
  5
159E
330
1F
100
AcDbEntity
  8
LOGO
 62
     4
100
AcDbLine
 10
267.7034709978027
 20
93.72136483241309
 30
0.0
 11
223.7098420385264
 21
93.72136483241309
 31
0.0
  0
LINE
  5
159F
330
1F
100
AcDbEntity
  8
LOGO
 62
     4
100
AcDbLine
 10
267.7034709978027
 20
87.72223361069359
 30
0.0
 11
223.7098420385264
 21
87.72223361069359
 31
0.0
  0
LINE
  5
15A0
330
1F
100
AcDbEntity
  8
LOGO
 62
     4
100
AcDbLine
 10
267.7034709978027
 20
81.72310238897443
 30
0.0
 11
201.7130275588886
 21
81.72310238897443
 31
0.0
  0
LINE
  5
15A1
330
1F
100
AcDbEntity
  8
LOGO
 62
     4
100
AcDbLine
 10
223.7098420385264
 20
81.72310238897443
 30
0.0
 11
223.7098420385264
 21
99.72049605413259
 31
0.0
  0
TEXT
  5
15A2
330
1F
100
AcDbEntity
  8
LOGO
100
AcDbText
 10
253.7774109645334
 20
83.22288519440382
 30
0.0
 40
2.999565610859728
  1
mm
  7
CHINESET
 72
     1
 11
257.491158863693
 21
84.72266799983367
 31
0.0
100
AcDbText
 73
     2
  0
TEXT
  5
15A3
330
1F
100
AcDbEntity
  8
LOGO
100
AcDbText
 10
252.2062099302735
 20
95.2211476378428
 30
0.0
 40
2.999565610859728
  1
1 : 1
  7
CHINESET
 72
     1
 11
257.491158863693
 21
96.72093044327267
 31
0.0
100
AcDbText
 73
     2
  0
LINE
  5
15A4
330
1F
100
AcDbEntity
  8
LOGO
 62
     4
100
AcDbLine
 10
247.7063669254044
 20
81.72310238897443
 30
0.0
 11
247.7063669254044
 21
99.72049605413259
 31
0.0
  0
TEXT
  5
15A5
330
1F
100
AcDbEntity
  8
LOGO
100
AcDbText
 10
226.1831445756952
 20
95.22262380202137
 30
196.5865886400747
 40
2.999565610859728
  1
比例 Scale:
 41
0.9
  7
CHINESET
 72
     4
 11
235.7081044819654
 21
96.72093044327267
 31
196.5865886400747
100
AcDbText
  0
TEXT
  5
15A6
330
1F
100
AcDbEntity
  8
LOGO
100
AcDbText
 10
226.0104017347126
 20
89.26421010889418
 30
196.5865886400747
 40
2.999565610859728
  1
投影  View:
 41
0.9
  7
CHINESET
 72
     4
 11
235.7081044819654
 21
90.72179922155317
 31
196.5865886400747
100
AcDbText
  0
TEXT
  5
15A7
330
1F
100
AcDbEntity
  8
LOGO
100
AcDbText
 10
226.3036628368458
 20
83.22288519440382
 30
196.5865886400747
 40
2.999565610859728
  1
單位  Unit:
 41
0.9
  7
CHINESET
 72
     4
 11
235.7081044819654
 21
84.72266799983367
 31
196.5865886400747
100
AcDbText
  0
LWPOLYLINE
  5
15A8
330
1F
100
AcDbEntity
  8
LOGO
 62
     4
100
AcDbPolyline
 90
        4
 70
     1
 43
0.0
 10
201.7130275588886
 20
99.72049605413259
 10
592.6488204262195
 20
99.72049605413259
 10
592.6488204262195
 20
325.4869678965459
 10
201.7130275588886
 20
325.4869678965459
1001
GENIUS_GENREC_14
1002
{
1000
PYDIR
1011
201.7130275588886
1021
325.4869678965459
1031
0.0
1002
}
1002
{
1000
PXDIR
1011
592.6488204262195
1021
99.72049605413259
1031
0.0
1002
}
1002
{
1000
PORI
1011
201.7130275588886
1021
99.72049605413259
1031
0.0
1002
}
1002
{
1000
PINS
1011
201.7130275588886
1021
99.72049605413259
1031
0.0
1002
}
1002
{
1000
PINS2
1011
592.6488204262195
1021
325.4869678965459
1031
0.0
1002
}
1002
{
1000
C
1070
     1
1002
}
1001
GENIUS_GENODEF_13
1002
{
1000
HIER
1070
     0
1002
}
1002
{
1000
MANEDIT
1070
     0
1002
}
1002
{
1000
NOSEL
1070
     0
1002
}
1002
{
1000
BEHIND
1070
     0
1002
}
1002
{
1000
OTHER
1070
     0
1002
}
1002
{
1000
REACTOR
1002
}
1001
GENIUS_GENOBJ-N-REC_13
1002
{
1000
OWNER
1000
GEN
1002
}
  0
SOLID
  5
15A9
330
1F
100
AcDbEntity
  8
LOGO
 62
     5
100
AcDbTrace
 10
204.8251250195219
 20
86.70945326248455
 30
0.0
 11
206.122058481056
 21
86.70945326248419
 31
0.0
 12
211.5334015446981
 22
99.00796022530835
 32
0.0
 13
212.8303350062329
 23
99.00796022530768
 33
0.0
  0
SOLID
  5
15AA
330
1F
100
AcDbEntity
  8
LOGO
 62
     5
100
AcDbTrace
 10
206.6587206030715
 20
86.70945326248455
 30
0.0
 11
207.9556540646056
 21
86.70945326248455
 31
0.0
 12
212.8303350062329
 22
98.02407966828196
 32
0.0
 13
211.5334015446981
 23
93.26865697599009
 33
0.0
  0
SOLID
  5
15AB
330
1F
100
AcDbEntity
  8
LOGO
 62
     2
100
AcDbTrace
 10
206.122058481056
 20
86.70945326248419
 30
0.0
 11
206.6587206030715
 21
86.70945326248455
 31
0.0
 12
212.8303350062329
 22
99.00796022530768
 32
0.0
 13
213.3669971282477
 23
99.00796022530768
 33
0.0
  0
SOLID
  5
15AC
330
1F
100
AcDbEntity
  8
LOGO
 62
     5
100
AcDbTrace
 10
202.7458226336394
 20
82.2372689123672
 30
0.0
 11
203.1930410686516
 21
82.2372689123672
 31
0.0
 12
204.4524429903459
 22
84.4733610874257
 32
0.0
 13
204.8996614253567
 23
84.4733610874257
 33
0.0
  0
SOLID
  5
15AD
330
1F
100
AcDbEntity
  8
LOGO
 62
     5
100
AcDbTrace
 10
204.4524429903459
 20
84.4733610874257
 30
0.0
 11
204.8996614253567
 21
84.4733610874257
 31
0.0
 12
204.4524429903459
 22
82.2372689123672
 32
0.0
 13
204.8996614253567
 23
82.2372689123672
 33
0.0
  0
SOLID
  5
15AE
330
1F
100
AcDbEntity
  8
LOGO
 62
     5
100
AcDbTrace
 10
204.4524429903459
 20
82.2372689123672
 30
0.0
 11
204.8996614253567
 21
82.2372689123672
 31
0.0
 12
206.159063347053
 22
84.4733610874257
 32
0.0
 13
206.6062817820646
 23
84.4733610874257
 33
0.0
  0
SOLID
  5
15AF
330
1F
100
AcDbEntity
  8
LOGO
 62
     5
100
AcDbTrace
 10
206.159063347053
 20
84.4733610874257
 30
0.0
 11
206.6062817820646
 21
84.4733610874257
 31
0.0
 12
206.159063347053
 22
82.2372689123672
 32
0.0
 13
206.6062817820646
 23
82.2372689123672
 33
0.0
  0
POLYLINE
  5
15B0
330
1F
100
AcDbEntity
  8
LOGO
 62
     5
100
AcDb2dPolyline
 66
     1
 10
0.0
 20
0.0
 30
0.0
 40
0.4479351312217194
 41
0.4479351312217194
  0
VERTEX
  5
15B1
330
15B0
100
AcDbEntity
  8
LOGO
 62
     5
100
AcDbVertex
100
AcDb2dVertex
 10
221.1496729417672
 20
83.57892421740222
 30
0.0
 42
1.0
  0
VERTEX
  5
15B2
330
15B0
100
AcDbEntity
  8
LOGO
 62
     5
100
AcDbVertex
100
AcDb2dVertex
 10
219.8058675481018
 20
83.57892421740222
 30
0.0
 42
1.0
  0
SEQEND
  5
15B3
330
15B0
100
AcDbEntity
  8
LOGO
 62
     5
  0
POLYLINE
  5
15B4
330
1F
100
AcDbEntity
  8
LOGO
 62
     5
100
AcDb2dPolyline
 66
     1
 10
0.0
 20
0.0
 30
0.0
 70
     1
  0
VERTEX
  5
15B5
330
15B4
100
AcDbEntity
  8
LOGO
 62
     5
100
AcDbVertex
100
AcDb2dVertex
 10
217.2727346085783
 20
83.35531499989611
 30
0.0
 42
1.000000057330635
  0
VERTEX
  5
15B6
330
15B4
100
AcDbEntity
  8
LOGO
 62
     5
100
AcDbVertex
100
AcDb2dVertex
 10
218.6143899136137
 20
83.35531499989611
 30
0.0
 42
1.000000057330635
  0
SEQEND
  5
15B7
330
15B4
100
AcDbEntity
  8
LOGO
 62
     5
  0
CIRCLE
  5
15B8
330
1F
100
AcDbEntity
  8
LOGO
 62
     5
100
AcDbCircle
 10
217.943562261097
 20
83.35531499989611
 30
0.0
 40
0.6708276525176471
  0
POLYLINE
  5
15B9
330
1F
100
AcDbEntity
  8
LOGO
 62
     5
100
AcDb2dPolyline
 66
     1
 10
0.0
 20
0.0
 30
0.0
 70
     1
 40
0.4479351312217194
 41
0.4479351312217194
  0
VERTEX
  5
15BA
330
15B9
100
AcDbEntity
  8
LOGO
 62
     5
100
AcDbVertex
100
AcDb2dVertex
 10
217.0476919986529
 20
83.35531499989611
 30
0.0
 42
1.0
  0
VERTEX
  5
15BB
330
15B9
100
AcDbEntity
  8
LOGO
 62
     5
100
AcDbVertex
100
AcDb2dVertex
 10
218.8394325235397
 20
83.35531499989611
 30
0.0
 42
1.0
  0
SEQEND
  5
15BC
330
15B9
100
AcDbEntity
  8
LOGO
 62
     5
  0
LINE
  5
15BD
330
1F
100
AcDbEntity
  8
LOGO
100
AcDbLine
 10
221.3722071149573
 20
82.2372689123672
 30
0.0
 11
221.3722071149573
 21
83.57892421740222
 31
0.0
  0
SOLID
  5
15BE
330
1F
100
AcDbEntity
  8
LOGO
 62
     5
100
AcDbTrace
 10
218.6143451917721
 20
84.4733610874257
 30
0.0
 11
219.061563626783
 21
84.4733610874257
 31
0.0
 12
218.6143451917721
 22
82.2372689123672
 32
0.0
 13
219.061563626783
 23
82.2372689123672
 33
0.0
  0
SOLID
  5
15BF
330
1F
100
AcDbEntity
  8
LOGO
 62
     5
100
AcDbTrace
 10
219.5833333749103
 20
82.2372689123672
 30
0.0
 11
220.0305518099226
 21
82.2372689123672
 31
0.0
 12
219.5833333749103
 22
84.4733610874257
 32
0.0
 13
220.0305518099226
 23
84.4733610874257
 33
0.0
  0
SOLID
  5
15C0
330
1F
100
AcDbEntity
  8
LOGO
 62
     5
100
AcDbTrace
 10
220.9249886799464
 20
83.57892421740222
 30
0.0
 11
221.3722071149573
 21
83.57892421740222
 31
0.0
 12
220.9249886799464
 22
82.2372689123672
 32
0.0
 13
221.3722071149573
 23
82.2372689123672
 33
0.0
  0
SOLID
  5
15C1
330
1F
100
AcDbEntity
  8
LOGO
 62
     5
100
AcDbTrace
 10
219.5386115314091
 20
98.02407966828196
 30
0.0
 11
218.2416780698757
 21
93.26865697599009
 31
0.0
 12
219.5386115314091
 22
86.70945326248419
 32
0.0
 13
218.2416780698757
 23
86.70945326248419
 33
0.0
  0
SOLID
  5
15C2
330
1F
100
AcDbEntity
  8
LOGO
 62
     5
100
AcDbTrace
 10
220.0752736534239
 20
86.70945326248419
 30
0.0
 11
221.3722071149573
 21
86.70945326248419
 31
0.0
 12
220.0752736534239
 22
99.00796022530768
 32
0.0
 13
221.3722071149573
 23
99.00796022530835
 33
0.0
  0
SOLID
  5
15C3
330
1F
100
AcDbEntity
  8
LOGO
 62
     2
100
AcDbTrace
 10
219.5386115314091
 20
99.00796022530835
 30
0.0
 11
220.0752736534239
 21
99.00796022530768
 31
0.0
 12
219.5386115314091
 22
86.70945326248419
 32
0.0
 13
220.0752736534239
 23
86.70945326248419
 33
0.0
  0
POLYLINE
  5
15C4
330
1F
100
AcDbEntity
  8
LOGO
 62
     5
100
AcDb2dPolyline
 66
     1
 10
0.0
 20
0.0
 30
0.0
 40
0.4479351312217194
 41
0.4479351312217194
  0
VERTEX
  5
15C5
330
15C4
100
AcDbEntity
  8
LOGO
 62
     5
100
AcDbVertex
100
AcDb2dVertex
 10
214.7395122253697
 20
83.57892421740222
 30
0.0
 42
1.0
  0
VERTEX
  5
15C6
330
15C4
100
AcDbEntity
  8
LOGO
 62
     5
100
AcDbVertex
100
AcDb2dVertex
 10
213.3957068317043
 20
83.57892421740222
 30
0.0
 42
1.0
  0
SEQEND
  5
15C7
330
15C4
100
AcDbEntity
  8
LOGO
 62
     5
  0
POLYLINE
  5
15C8
330
1F
100
AcDbEntity
  8
LOGO
 62
     5
100
AcDb2dPolyline
 66
     1
 10
0.0
 20
0.0
 30
0.0
 40
0.4479351312217194
 41
0.4479351312217194
  0
VERTEX
  5
15C9
330
15C8
100
AcDbEntity
  8
LOGO
 62
     5
100
AcDbVertex
100
AcDb2dVertex
 10
216.0811675304037
 20
83.57892421740222
 30
0.0
 42
1.0
  0
VERTEX
  5
15CA
330
15C8
100
AcDbEntity
  8
LOGO
 62
     5
100
AcDbVertex
100
AcDb2dVertex
 10
214.7373621367389
 20
83.57892421740222
 30
0.0
 42
1.0
  0
SEQEND
  5
15CB
330
15C8
100
AcDbEntity
  8
LOGO
 62
     5
  0
POLYLINE
  5
15CC
330
1F
100
AcDbEntity
  8
LOGO
 62
     5
100
AcDb2dPolyline
 66
     1
 10
0.0
 20
0.0
 30
0.0
 40
0.4479351312217194
 41
0.4479351312217194
  0
VERTEX
  5
15CD
330
15CC
100
AcDbEntity
  8
LOGO
 62
     5
100
AcDbVertex
100
AcDb2dVertex
 10
209.6710068140062
 20
83.57892421740222
 30
0.0
 42
1.0
  0
VERTEX
  5
15CE
330
15CC
100
AcDbEntity
  8
LOGO
 62
     5
100
AcDbVertex
100
AcDb2dVertex
 10
208.3272014203414
 20
83.57892421740222
 30
0.0
 42
1.0
  0
SEQEND
  5
15CF
330
15CC
100
AcDbEntity
  8
LOGO
 62
     5
  0
SOLID
  5
15D0
330
1F
100
AcDbEntity
  8
LOGO
 62
     5
100
AcDbTrace
 10
208.1046672471507
 20
84.4733610874257
 30
0.0
 11
208.5518856821616
 21
84.4733610874257
 31
0.0
 12
208.1046672471507
 22
82.2372689123672
 32
0.0
 13
208.5518856821616
 23
82.2372689123672
 33
0.0
  0
SOLID
  5
15D1
330
1F
100
AcDbEntity
  8
LOGO
 62
     5
100
AcDbTrace
 10
209.4463225521861
 20
83.57892421740222
 30
0.0
 11
209.8935409871983
 21
83.57892421740222
 31
0.0
 12
209.4463225521861
 22
82.2372689123672
 32
0.0
 13
209.8935409871983
 23
82.2372689123672
 33
0.0
  0
POLYLINE
  5
15D2
330
1F
100
AcDbEntity
  8
LOGO
 62
     5
100
AcDb2dPolyline
 66
     1
 10
0.0
 20
0.0
 30
0.0
 70
     1
 40
0.4479351312217194
 41
0.4479351312217194
  0
VERTEX
  5
15D3
330
15D2
100
AcDbEntity
  8
LOGO
 62
     5
100
AcDbVertex
100
AcDb2dVertex
 10
210.6375312822547
 20
83.35531499989611
 30
0.0
 42
1.0
  0
VERTEX
  5
15D4
330
15D2
100
AcDbEntity
  8
LOGO
 62
     5
100
AcDbVertex
100
AcDb2dVertex
 10
212.4292718071422
 20
83.35531499989611
 30
0.0
 42
1.0
  0
SEQEND
  5
15D5
330
15D2
100
AcDbEntity
  8
LOGO
 62
     5
  0
SOLID
  5
15D6
330
1F
100
AcDbEntity
  8
LOGO
 62
     5
100
AcDbTrace
 10
212.2041844753733
 20
85.14418873994372
 30
0.0
 11
212.6514029103848
 21
85.14418873994372
 31
0.0
 12
212.2041844753733
 22
82.2372689123672
 32
0.0
 13
212.6514029103848
 23
82.2372689123672
 33
0.0
  0
SOLID
  5
15D7
330
1F
100
AcDbEntity
  8
LOGO
 62
     5
100
AcDbTrace
 10
213.1731726585142
 20
84.4733610874257
 30
0.0
 11
213.6203910935251
 21
84.4733610874257
 31
0.0
 12
213.1731726585142
 22
82.2372689123672
 32
0.0
 13
213.6203910935251
 23
82.2372689123672
 33
0.0
  0
SOLID
  5
15D8
330
1F
100
AcDbEntity
  8
LOGO
 62
     5
100
AcDbTrace
 10
214.5148279635482
 20
83.57892421740222
 30
0.0
 11
214.9620463985605
 21
83.57892421740222
 31
0.0
 12
214.5148279635482
 22
82.2372689123672
 32
0.0
 13
214.9620463985605
 23
82.2372689123672
 33
0.0
  0
SOLID
  5
15D9
330
1F
100
AcDbEntity
  8
LOGO
 62
     5
100
AcDbTrace
 10
215.8564832685836
 20
83.57892421740222
 30
0.0
 11
216.3037017035951
 21
83.57892421740222
 31
0.0
 12
215.8564832685836
 22
82.23726891236651
 32
0.0
 13
216.3037017035951
 23
82.23726891236651
 33
0.0
  0
SOLID
  5
15DA
330
1F
100
AcDbEntity
  8
LOGO
 62
     5
100
AcDbTrace
 10
207.1356790640105
 20
84.78641399193406
 30
0.0
 11
207.5828974990234
 21
84.78641399193406
 31
0.0
 12
207.1356790640105
 22
85.14418873994372
 32
0.0
 13
207.5828974990234
 23
85.14418873994372
 33
0.0
  0
SOLID
  5
15DB
330
1F
100
AcDbEntity
  8
LOGO
 62
     5
100
AcDbTrace
 10
207.1356790640105
 20
84.4733610874257
 30
0.0
 11
207.5828974990234
 21
84.4733610874257
 31
0.0
 12
207.1356790640105
 22
82.23726891236651
 32
0.0
 13
207.5828974990234
 23
82.2372689123672
 33
0.0
  0
SOLID
  5
15DC
330
1F
100
AcDbEntity
  8
LOGO
 62
     5
100
AcDbTrace
 10
211.5334015446981
 20
86.70945326248455
 30
0.0
 11
212.8303350062329
 21
86.70945326248455
 31
0.0
 12
211.5334015446981
 22
93.26865697599009
 32
0.0
 13
212.8303350062329
 23
98.02407966828196
 33
0.0
  0
SOLID
  5
15DD
330
1F
100
AcDbEntity
  8
LOGO
 62
     5
100
AcDbTrace
 10
213.3669971282477
 20
99.00796022530768
 30
0.0
 11
214.6639305897811
 21
99.00796022530835
 31
0.0
 12
213.3669971282477
 22
87.69333381951026
 32
0.0
 13
214.6639305897811
 23
92.44875651180212
 33
0.0
  0
SOLID
  5
15DE
330
1F
100
AcDbEntity
  8
LOGO
 62
     2
100
AcDbTrace
 10
212.8303350062329
 20
99.00796022530768
 30
0.0
 11
213.3669971282477
 21
99.00796022530768
 31
0.0
 12
212.8303350062329
 22
86.70945326248455
 32
0.0
 13
213.3669971282477
 23
86.70945326248455
 33
0.0
  0
SOLID
  5
15DF
330
1F
100
AcDbEntity
  8
LOGO
 62
     5
100
AcDbTrace
 10
213.3669971282477
 20
87.69333381951026
 30
0.0
 11
214.6639305897811
 21
92.44875651180212
 31
0.0
 12
219.5386115314091
 22
99.00796022530835
 32
0.0
 13
218.2416780698757
 23
99.00796022530835
 33
0.0
  0
SOLID
  5
15E0
330
1F
100
AcDbEntity
  8
LOGO
 62
     5
100
AcDbTrace
 10
213.3669971282477
 20
86.70945326248455
 30
0.0
 11
214.6639305897811
 21
86.70945326248455
 31
0.0
 12
219.5386115314091
 22
98.02407966828196
 32
0.0
 13
218.2416780698757
 23
93.26865697599009
 33
0.0
  0
SOLID
  5
15E1
330
1F
100
AcDbEntity
  8
LOGO
 62
     2
100
AcDbTrace
 10
212.8303350062329
 20
86.70945326248455
 30
0.0
 11
213.3669971282477
 21
86.70945326248455
 31
0.0
 12
219.5386115314091
 22
99.00796022530835
 32
0.0
 13
220.0752736534239
 23
99.00796022530768
 33
0.0
  0
LWPOLYLINE
  5
15E2
330
1F
100
AcDbEntity
  8
LOGO
 62
     4
100
AcDbPolyline
 90
        4
 70
     1
 43
0.0
 10
201.7130275588886
 20
99.72049605413259
 10
592.6488204262195
 20
99.72049605413259
 10
592.6488204262195
 20
69.72483994553477
 10
201.7130275588886
 20
69.72483994553477
1001
GENIUS_GENREC_14
1002
{
1000
PYDIR
1011
201.7130275588886
1021
69.72483994553477
1031
0.0
1002
}
1002
{
1000
PXDIR
1011
592.6488204262195
1021
99.72049605413259
1031
0.0
1002
}
1002
{
1000
PORI
1011
201.7130275588886
1021
99.72049605413259
1031
0.0
1002
}
1002
{
1000
PINS
1011
201.7130275588886
1021
99.72049605413259
1031
0.0
1002
}
1002
{
1000
PINS2
1011
592.6488204262195
1021
69.72483994553477
1031
0.0
1002
}
1002
{
1000
C
1070
     1
1002
}
1001
GENIUS_GENOBJ-N-REC_13
1002
{
1000
OWNER
1000
GEN
1002
}
1001
GENIUS_GENODEF_13
1002
{
1000
HIER
1070
     0
1002
}
1002
{
1000
MANEDIT
1070
     0
1002
}
1002
{
1000
NOSEL
1070
     0
1002
}
1002
{
1000
BEHIND
1070
     0
1002
}
1002
{
1000
OTHER
1070
     0
1002
}
1002
{
1000
REACTOR
1002
}
  0
LINE
  5
15E3
330
1F
100
AcDbEntity
  8
LOGO
 62
     4
100
AcDbLine
 10
322.2849051664421
 20
83.22288519440439
 30
0.0
 11
322.2849051664421
 21
72.22447795458482
 31
0.0
  0
LINE
  5
15E4
330
1F
100
AcDbEntity
  8
LOGO
 62
     4
100
AcDbLine
 10
308.9611647003778
 20
83.22288519440439
 30
0.0
 11
308.9611647003778
 21
72.22447795458482
 31
0.0
  0
LINE
  5
15E5
330
1F
100
AcDbEntity
  8
LOGO
 62
     4
100
AcDbLine
 10
322.2849051664421
 20
72.22447795458482
 30
0.0
 11
308.9611647003778
 21
72.22447795458482
 31
0.0
  0
LINE
  5
15E6
330
1F
100
AcDbEntity
  8
LOGO
 62
     4
100
AcDbLine
 10
341.5997843898324
 20
96.72093044327267
 30
0.0
 11
308.9611647003778
 21
96.72093044327267
 31
0.0
  0
LINE
  5
15E7
330
1F
100
AcDbEntity
  8
LOGO
 62
     4
100
AcDbLine
 10
341.5997843898324
 20
87.72223361069359
 30
0.0
 11
308.9611647003778
 21
87.72223361069359
 31
0.0
  0
LINE
  5
15E8
330
1F
100
AcDbEntity
  8
LOGO
 62
     4
100
AcDbLine
 10
308.9611647003778
 20
96.72093044327267
 30
0.0
 11
308.9611647003778
 21
87.72223361069359
 31
0.0
  0
LINE
  5
15E9
330
1F
100
AcDbEntity
  8
LOGO
 62
     4
100
AcDbLine
 10
341.5997843898324
 20
96.72093044327267
 30
0.0
 11
341.5997843898324
 21
87.72223361069359
 31
0.0
  0
LINE
  5
15EA
330
1F
100
AcDbEntity
  8
LOGO
 62
     4
100
AcDbLine
 10
320.0030633039316
 20
87.72223361069359
 30
0.0
 11
320.0030633039316
 21
83.22288519440439
 31
0.0
  0
TEXT
  5
15EB
330
1F
100
AcDbEntity
  8
LOGO
  6
Continuous
100
AcDbText
 10
310.5600921952978
 20
89.60069841840107
 30
0.0
 40
5.25
  1
MCRPLF
  7
CHINESET
100
AcDbText
  0
LINE
  5
15EC
330
1F
100
AcDbEntity
  8
LOGO
 62
     4
100
AcDbLine
 10
322.2849051664421
 20
83.22288519440439
 30
0.0
 11
308.9611647003778
 21
83.22288519440439
 31
0.0
  0
TEXT
  5
15ED
330
1F
100
AcDbEntity
  8
LOGO
  6
Continuous
100
AcDbText
 10
312.4054902957562
 20
73.77687981382099
 30
196.5865886400747
 40
2.25
  1
Model
 41
0.8
  7
CHINESET
100
AcDbText
  0
TEXT
  5
15EE
330
1F
100
AcDbEntity
  8
LOGO
100
AcDbText
 10
311.8066134387575
 20
77.94789490421203
 30
196.5865886400747
 40
3.75
  1
型號
  7
CHINESET
100
AcDbText
  0
LINE
  5
15EF
330
1F
100
AcDbEntity
  8
LOGO
  6
Continuous
100
AcDbLine
 10
342.7506333665235
 20
92.18970722067206
 30
0.0
 11
346.7241295399329
 21
92.18970722067206
 31
0.0
  0
TEXT
  5
15F0
330
1F
100
AcDbEntity
  8
LOGO
100
AcDbText
 10
269.0432743846592
 20
71.32059701141713
 30
0.0
 40
3.0
  1
30811274
 41
0.7
  7
CHINESET
 72
     1
 11
276.3932743846592
 21
71.32059701141713
 31
0.0
100
AcDbText
  0
LINE
  5
15F1
330
1F
100
AcDbEntity
  8
LOGO
 62
     4
100
AcDbLine
 10
285.7034709978013
 20
75.72397116725529
 30
0.0
 11
285.7034709978027
 21
69.72483994553545
 31
0.0
  0
LINE
  5
15F2
330
1F
100
AcDbEntity
  8
LOGO
 62
     4
100
AcDbLine
 10
285.7034709978013
 20
75.72397116725529
 30
0.0
 11
267.7034709978027
 21
75.72397116725529
 31
0.0
  0
CIRCLE
  5
15F3
330
1F
100
AcDbEntity
  8
LOGO
  6
Continuous
100
AcDbCircle
 10
253.2604378336468
 20
90.72821531434533
 30
0.0
 40
1.741618395480947
  0
CIRCLE
  5
15F4
330
1F
100
AcDbEntity
  8
LOGO
  6
Continuous
100
AcDbCircle
 10
253.2604378336468
 20
90.72821531434533
 30
0.0
 40
1.020434202998395
  0
LINE
  5
15F5
330
1F
100
AcDbEntity
  8
LOGO
100
AcDbLine
 10
264.2049699197016
 20
88.98659691886406
 30
0.0
 11
264.2049699197016
 21
92.46983370982661
 31
0.0
  0
LINE
  5
15F6
330
1F
100
AcDbEntity
  8
LOGO
100
AcDbLine
 10
258.7450962235353
 20
89.70778111134711
 30
0.0
 11
258.7450962235353
 21
91.7486495173439
 31
0.0
  0
LINE
  5
15F7
330
1F
100
AcDbEntity
  8
LOGO
  6
Continuous
100
AcDbLine
 10
258.7450962235353
 20
91.7486495173439
 30
0.0
 11
264.2049699197016
 21
92.46983370982661
 31
0.0
  0
LINE
  5
15F8
330
1F
100
AcDbEntity
  8
LOGO
  6
Continuous
100
AcDbLine
 10
258.7450962235353
 20
89.70778111134711
 30
0.0
 11
264.2049699197016
 21
88.98659691886406
 31
0.0
  0
LINE
  5
15F9
330
1F
100
AcDbEntity
  8
LOGO
  6
AM_ISO08W050x2
 48
0.3
100
AcDbLine
 10
250.8595907967944
 20
90.72821531434533
 30
0.0
 11
255.6612848704992
 21
90.72821531434533
 31
0.0
1001
GENIUS_GENOREF_13
1005
16B6
  0
LINE
  5
15FA
330
1F
100
AcDbEntity
  8
LOGO
  6
AM_ISO08W050x2
 48
0.3
100
AcDbLine
 10
253.2604378336468
 20
88.32736827749295
 30
0.0
 11
253.2604378336468
 21
93.12906235119772
 31
0.0
1001
GENIUS_GENOREF_13
1005
16B5
  0
LINE
  5
15FB
330
1F
100
AcDbEntity
  8
LOGO
  6
CENTER
 48
0.5
100
AcDbLine
 10
258.3084580843213
 20
90.72821531434533
 30
0.0
 11
264.7547615263832
 21
90.72821531434533
 31
0.0
1001
GENIUS_GENOREF_13
1005
16B4
  0
LINE
  5
15FC
330
1F
100
AcDbEntity
  8
LOGO
 62
     4
100
AcDbLine
 10
469.0266180857953
 20
325.4869678965459
 30
0.0
 11
469.0266180857953
 21
99.72049605413259
 31
0.0
  0
LINE
  5
15FD
330
1F
100
AcDbEntity
  8
LOGO
 62
     4
100
AcDbLine
 10
469.0266180857953
 20
219.0035192736029
 30
0.0
 11
592.6488204262195
 21
219.0035192736029
 31
0.0
  0
TEXT
  5
15FF
330
1F
100
AcDbEntity
  8
0
100
AcDbText
 10
412.9649998089385
 20
250.5512845504556
 30
0.0
 40
4.0
  1
stroke=0mm
100
AcDbText
  0
TEXT
  5
1600
330
1F
100
AcDbEntity
  8
0
100
AcDbText
 10
476.1565309562142
 20
315.7392489382725
 30
0.0
 40
4.0
  1
End cover bracket
100
AcDbText
  0
TEXT
  5
1601
330
1F
100
AcDbEntity
  8
0
100
AcDbText
 10
476.1565309562142
 20
209.2558003153294
 30
0.0
 40
4.0
  1
Mid section support
100
AcDbText
  0
LINE
  5
1603
330
1F
100
AcDbEntity
  8
LOGO
 62
     4
100
AcDbLine
 10
343.3298421804463
 20
83.22288519440439
 30
0.0
 11
343.3298421804463
 21
72.22447795458482
 31
0.0
  0
LINE
  5
1604
330
1F
100
AcDbEntity
  8
LOGO
 62
     4
100
AcDbLine
 10
329.8022016229686
 20
83.22288519440439
 30
0.0
 11
329.8022016229686
 21
72.22447795458482
 31
0.0
  0
LINE
  5
1605
330
1F
100
AcDbEntity
  8
LOGO
 62
     4
100
AcDbLine
 10
343.3298421804463
 20
72.22447795458482
 30
0.0
 11
329.8022016229686
 21
72.22447795458482
 31
0.0
  0
LINE
  5
1606
330
1F
100
AcDbEntity
  8
LOGO
 62
     4
100
AcDbLine
 10
359.2901529978308
 20
96.72093044327267
 30
0.0
 11
347.9728758750373
 21
96.72093044327267
 31
0.0
  0
LINE
  5
1607
330
1F
100
AcDbEntity
  8
LOGO
 62
     4
100
AcDbLine
 10
359.2901529978308
 20
87.72223361069359
 30
0.0
 11
347.9728758750373
 21
87.72223361069359
 31
0.0
  0
LINE
  5
1608
330
1F
100
AcDbEntity
  8
LOGO
 62
     4
100
AcDbLine
 10
347.9728758750373
 20
96.72093044327267
 30
0.0
 11
347.9728758750373
 21
87.72223361069359
 31
0.0
  0
LINE
  5
1609
330
1F
100
AcDbEntity
  8
LOGO
 62
     4
100
AcDbLine
 10
359.2901529978308
 20
96.72093044327267
 30
0.0
 11
359.2901529978308
 21
87.72223361069359
 31
0.0
  0
LINE
  5
160A
330
1F
100
AcDbEntity
  8
LOGO
 62
     4
100
AcDbLine
 10
353.6315144364341
 20
87.72223361069359
 30
0.0
 11
353.6315144364341
 21
85.47255940254899
 31
0.0
  0
TEXT
  5
160B
330
1F
100
AcDbEntity
  8
LOGO
  6
Continuous
100
AcDbText
 10
349.4356754239614
 20
89.60069841840107
 30
0.0
 40
5.25
  1
90
  7
CHINESET
100
AcDbText
  0
LINE
  5
160C
330
1F
100
AcDbEntity
  8
LOGO
 62
     4
100
AcDbLine
 10
343.3298421804463
 20
83.22288519440439
 30
0.0
 11
329.8022016229686
 21
83.22288519440439
 31
0.0
  0
TEXT
  5
160D
330
1F
100
AcDbEntity
  8
LOGO
  6
Continuous
100
AcDbText
 10
333.6685212211894
 20
73.77687981382099
 30
196.5865886400747
 40
2.25
  1
Type
 41
0.8
  7
CHINESET
100
AcDbText
  0
TEXT
  5
160E
330
1F
100
AcDbEntity
  8
LOGO
100
AcDbText
 10
332.4129351621141
 20
77.94789490421203
 30
196.5865886400747
 40
3.75
  1
型式
  7
CHINESET
100
AcDbText
  0
LINE
  5
160F
330
1F
100
AcDbEntity
  8
LOGO
 62
     4
100
AcDbLine
 10
373.4378483353225
 20
96.72093044327267
 30
0.0
 11
360.6195558932852
 21
96.72093044327267
 31
0.0
  0
LINE
  5
1610
330
1F
100
AcDbEntity
  8
LOGO
 62
     4
100
AcDbLine
 10
373.4378483353225
 20
87.72223361069359
 30
0.0
 11
360.6195558932852
 21
87.72223361069359
 31
0.0
  0
LINE
  5
1611
330
1F
100
AcDbEntity
  8
LOGO
 62
     4
100
AcDbLine
 10
360.6195558932852
 20
96.72093044327267
 30
0.0
 11
360.6195558932852
 21
87.72223361069359
 31
0.0
  0
LINE
  5
1612
330
1F
100
AcDbEntity
  8
LOGO
 62
     4
100
AcDbLine
 10
373.4378483353225
 20
96.72093044327267
 30
0.0
 11
373.4378483353225
 21
87.72223361069359
 31
0.0
  0
LINE
  5
1613
330
1F
100
AcDbEntity
  8
LOGO
 62
     4
100
AcDbLine
 10
366.278194454682
 20
87.72223361069359
 30
0.0
 11
366.278194454682
 21
83.22288519440439
 31
0.0
  0
TEXT
  5
1614
330
1F
100
AcDbEntity
  8
LOGO
  6
Continuous
100
AcDbText
 10
362.0823554422093
 20
89.60069841840107
 30
0.0
 40
5.25
  1
(V)
  7
CHINESET
100
AcDbText
  0
LINE
  5
1615
330
1F
100
AcDbEntity
  8
LOGO
 62
     4
100
AcDbLine
 10
381.2612091879373
 20
83.22288519440439
 30
0.0
 11
381.2612091879373
 21
72.22447795458482
 31
0.0
  0
LINE
  5
1616
330
1F
100
AcDbEntity
  8
LOGO
 62
     4
100
AcDbLine
 10
345.7867527063031
 20
83.22288519440439
 30
0.0
 11
345.7867527063031
 21
72.22447795458482
 31
0.0
  0
LINE
  5
1617
330
1F
100
AcDbEntity
  8
LOGO
 62
     4
100
AcDbLine
 10
381.2612091879373
 20
72.22447795458482
 30
0.0
 11
345.7867527063031
 21
72.22447795458482
 31
0.0
  0
LINE
  5
1618
330
1F
100
AcDbEntity
  8
LOGO
 62
     4
100
AcDbLine
 10
381.2612091879373
 20
83.22288519440439
 30
0.0
 11
345.7867527063031
 21
83.22288519440439
 31
0.0
  0
TEXT
  5
1619
330
1F
100
AcDbEntity
  8
LOGO
  6
Continuous
100
AcDbText
 10
348.5962108044
 20
73.77687981382099
 30
196.5865886400747
 40
2.25
  1
Material of piston seal
 41
0.8
  7
CHINESET
100
AcDbText
  0
TEXT
  5
161A
330
1F
100
AcDbEntity
  8
LOGO
100
AcDbText
 10
350.3755177234468
 20
77.94789490421203
 30
196.5865886400747
 40
3.75
  1
活塞密封環材質
  7
CHINESET
100
AcDbText
  0
LINE
  5
161B
330
1F
100
AcDbEntity
  8
LOGO
  6
Continuous
100
AcDbLine
 10
374.3944841818311
 20
92.18970722067206
 30
0.0
 11
378.3679803552404
 21
92.18970722067206
 31
0.0
  0
LINE
  5
161C
330
1F
100
AcDbEntity
  8
LOGO
 62
     4
100
AcDbLine
 10
390.9340038131384
 20
96.72093044327267
 30
0.0
 11
379.6167266903449
 21
96.72093044327267
 31
0.0
  0
LINE
  5
161D
330
1F
100
AcDbEntity
  8
LOGO
 62
     4
100
AcDbLine
 10
390.9340038131384
 20
87.72223361069359
 30
0.0
 11
379.6167266903449
 21
87.72223361069359
 31
0.0
  0
LINE
  5
161E
330
1F
100
AcDbEntity
  8
LOGO
 62
     4
100
AcDbLine
 10
379.6167266903449
 20
96.72093044327267
 30
0.0
 11
379.6167266903449
 21
87.72223361069359
 31
0.0
  0
LINE
  5
161F
330
1F
100
AcDbEntity
  8
LOGO
 62
     4
100
AcDbLine
 10
390.9340038131384
 20
96.72093044327267
 30
0.0
 11
390.9340038131384
 21
87.72223361069359
 31
0.0
  0
LINE
  5
1620
330
1F
100
AcDbEntity
  8
LOGO
 62
     4
100
AcDbLine
 10
385.2753652517416
 20
87.72223361069359
 30
0.0
 11
385.2753652517416
 21
83.22288519440439
 31
0.0
  0
TEXT
  5
1621
330
1F
100
AcDbEntity
  8
LOGO
  6
Continuous
100
AcDbText
 10
381.5387116027637
 20
89.60069841840107
 30
0.0
 40
5.25
  1
16
  7
CHINESET
100
AcDbText
  0
LINE
  5
1622
330
1F
100
AcDbEntity
  8
LOGO
 62
     4
100
AcDbLine
 10
397.6072965092005
 20
83.22288519440439
 30
0.0
 11
397.6072965092005
 21
72.22447795458482
 31
0.0
  0
LINE
  5
1623
330
1F
100
AcDbEntity
  8
LOGO
 62
     4
100
AcDbLine
 10
384.0796559517228
 20
83.22288519440439
 30
0.0
 11
384.0796559517228
 21
72.22447795458482
 31
0.0
  0
LINE
  5
1624
330
1F
100
AcDbEntity
  8
LOGO
 62
     4
100
AcDbLine
 10
397.6072965092005
 20
72.22447795458482
 30
0.0
 11
384.0796559517228
 21
72.22447795458482
 31
0.0
  0
LINE
  5
1625
330
1F
100
AcDbEntity
  8
LOGO
 62
     4
100
AcDbLine
 10
397.6072965092005
 20
83.22288519440439
 30
0.0
 11
384.0796559517228
 21
83.22288519440439
 31
0.0
  0
TEXT
  5
1626
330
1F
100
AcDbEntity
  8
LOGO
  6
Continuous
100
AcDbText
 10
387.9459755499436
 20
73.77687981382099
 30
196.5865886400747
 40
2.25
  1
Bore
 41
0.8
  7
CHINESET
100
AcDbText
  0
TEXT
  5
1627
330
1F
100
AcDbEntity
  8
LOGO
100
AcDbText
 10
386.6903894908682
 20
77.94789490421203
 30
196.5865886400747
 40
3.75
  1
內徑
  7
CHINESET
100
AcDbText
  0
LINE
  5
1628
330
1F
100
AcDbEntity
  8
LOGO
  6
Continuous
100
AcDbLine
 10
391.8906396596469
 20
92.18970722067206
 30
0.0
 11
395.8641358330563
 21
92.18970722067206
 31
0.0
  0
LINE
  5
1629
330
1F
100
AcDbEntity
  8
LOGO
 62
     4
100
AcDbLine
 10
408.4301592909541
 20
96.72093044327267
 30
0.0
 11
397.1128821681607
 21
96.72093044327267
 31
0.0
  0
LINE
  5
162A
330
1F
100
AcDbEntity
  8
LOGO
 62
     4
100
AcDbLine
 10
408.4301592909541
 20
87.72223361069359
 30
0.0
 11
397.1128821681607
 21
87.72223361069359
 31
0.0
  0
LINE
  5
162B
330
1F
100
AcDbEntity
  8
LOGO
 62
     4
100
AcDbLine
 10
397.1128821681607
 20
96.72093044327267
 30
0.0
 11
397.1128821681607
 21
87.72223361069359
 31
0.0
  0
LINE
  5
162C
330
1F
100
AcDbEntity
  8
LOGO
 62
     4
100
AcDbLine
 10
408.4301592909541
 20
96.72093044327267
 30
0.0
 11
408.4301592909541
 21
87.72223361069359
 31
0.0
  0
TEXT
  5
162D
330
1F
100
AcDbEntity
  8
LOGO
  6
Continuous
100
AcDbText
 10
401.0760981403993
 20
89.60069841840107
 30
0.0
 40
5.25
  1
0
  7
CHINESET
100
AcDbText
  0
LINE
  5
162E
330
1F
100
AcDbEntity
  8
LOGO
 62
     4
100
AcDbLine
 10
413.9533838304637
 20
83.22288519440439
 30
0.0
 11
413.9533838304637
 21
72.22447795458482
 31
0.0
  0
LINE
  5
162F
330
1F
100
AcDbEntity
  8
LOGO
 62
     4
100
AcDbLine
 10
400.4257432729859
 20
83.22288519440439
 30
0.0
 11
400.4257432729859
 21
72.22447795458482
 31
0.0
  0
LINE
  5
1630
330
1F
100
AcDbEntity
  8
LOGO
 62
     4
100
AcDbLine
 10
413.9533838304637
 20
72.22447795458482
 30
0.0
 11
400.4257432729859
 21
72.22447795458482
 31
0.0
  0
LINE
  5
1631
330
1F
100
AcDbEntity
  8
LOGO
 62
     4
100
AcDbLine
 10
413.9533838304637
 20
83.22288519440439
 30
0.0
 11
400.4257432729859
 21
83.22288519440439
 31
0.0
  0
TEXT
  5
1632
330
1F
100
AcDbEntity
  8
LOGO
  6
Continuous
100
AcDbText
 10
402.8059420196195
 20
73.77687981382099
 30
196.5865886400747
 40
2.25
  1
Stroke
 41
0.8
  7
CHINESET
100
AcDbText
  0
TEXT
  5
1633
330
1F
100
AcDbEntity
  8
LOGO
100
AcDbText
 10
403.0364768121314
 20
77.94789490421203
 30
196.5865886400747
 40
3.75
  1
行程
  7
CHINESET
100
AcDbText
  0
LINE
  5
1634
330
1F
100
AcDbEntity
  8
LOGO
  6
Continuous
100
AcDbLine
 10
409.3867951374627
 20
92.18970722067206
 30
0.0
 11
413.360291310872
 21
92.18970722067206
 31
0.0
  0
LINE
  5
1635
330
1F
100
AcDbEntity
  8
LOGO
 62
     4
100
AcDbLine
 10
425.92631476877
 20
96.72093044327267
 30
0.0
 11
414.6090376459765
 21
96.72093044327267
 31
0.0
  0
LINE
  5
1636
330
1F
100
AcDbEntity
  8
LOGO
 62
     4
100
AcDbLine
 10
425.92631476877
 20
87.72223361069359
 30
0.0
 11
414.6090376459765
 21
87.72223361069359
 31
0.0
  0
LINE
  5
1637
330
1F
100
AcDbEntity
  8
LOGO
 62
     4
100
AcDbLine
 10
414.6090376459765
 20
96.72093044327267
 30
0.0
 11
414.6090376459765
 21
87.72223361069359
 31
0.0
  0
LINE
  5
1638
330
1F
100
AcDbEntity
  8
LOGO
 62
     4
100
AcDbLine
 10
425.92631476877
 20
96.72093044327267
 30
0.0
 11
425.92631476877
 21
87.72223361069359
 31
0.0
  0
LINE
  5
1639
330
1F
100
AcDbEntity
  8
LOGO
  6
Continuous
100
AcDbLine
 10
426.8829506152785
 20
92.18970722067206
 30
0.0
 11
430.8564467886879
 21
92.18970722067206
 31
0.0
  0
LINE
  5
163A
330
1F
100
AcDbEntity
  8
LOGO
 62
     4
100
AcDbLine
 10
443.4224702465858
 20
96.72093044327267
 30
0.0
 11
432.1051931237923
 21
96.72093044327267
 31
0.0
  0
LINE
  5
163B
330
1F
100
AcDbEntity
  8
LOGO
 62
     4
100
AcDbLine
 10
443.4224702465858
 20
87.72223361069359
 30
0.0
 11
432.1051931237923
 21
87.72223361069359
 31
0.0
  0
LINE
  5
163C
330
1F
100
AcDbEntity
  8
LOGO
 62
     4
100
AcDbLine
 10
432.1051931237923
 20
96.72093044327267
 30
0.0
 11
432.1051931237923
 21
87.72223361069359
 31
0.0
  0
LINE
  5
163D
330
1F
100
AcDbEntity
  8
LOGO
 62
     4
100
AcDbLine
 10
443.4224702465858
 20
96.72093044327267
 30
0.0
 11
443.4224702465858
 21
87.72223361069359
 31
0.0
  0
LINE
  5
163E
330
1F
100
AcDbEntity
  8
LOGO
 62
     4
100
AcDbLine
 10
437.2827399677587
 20
83.22288519440439
 30
0.0
 11
437.2827399677587
 21
72.22447795458482
 31
0.0
  0
LINE
  5
163F
330
1F
100
AcDbEntity
  8
LOGO
 62
     4
100
AcDbLine
 10
416.7718305942491
 20
83.22288519440439
 30
0.0
 11
416.7718305942491
 21
72.22447795458482
 31
0.0
  0
LINE
  5
1640
330
1F
100
AcDbEntity
  8
LOGO
 62
     4
100
AcDbLine
 10
437.2827399677587
 20
72.22447795458482
 30
0.0
 11
416.7718305942491
 21
72.22447795458482
 31
0.0
  0
LINE
  5
1641
330
1F
100
AcDbEntity
  8
LOGO
 62
     4
100
AcDbLine
 10
437.2827399677587
 20
83.22288519440439
 30
0.0
 11
416.7718305942491
 21
83.22288519440439
 31
0.0
  0
TEXT
  5
1642
330
1F
100
AcDbEntity
  8
LOGO
  6
Continuous
100
AcDbText
 10
419.1520293408827
 20
73.77687981382099
 30
196.5865886400747
 40
2.25
  1
Grease type
 41
0.8
  7
CHINESET
100
AcDbText
  0
TEXT
  5
1643
330
1F
100
AcDbEntity
  8
LOGO
100
AcDbText
 10
417.5439216417649
 20
77.94789490421203
 30
196.5865886400747
 40
3.75
  1
潤滑油種類
  7
CHINESET
100
AcDbText
  0
LINE
  5
1644
330
1F
100
AcDbEntity
  8
LOGO
 62
     4
100
AcDbLine
 10
456.9697873287213
 20
83.22288519440439
 30
0.0
 11
456.9697873287213
 21
72.22447795458482
 31
0.0
  0
LINE
  5
1645
330
1F
100
AcDbEntity
  8
LOGO
 62
     4
100
AcDbLine
 10
440.1011867315442
 20
83.22288519440439
 30
0.0
 11
440.1011867315442
 21
72.22447795458482
 31
0.0
  0
LINE
  5
1646
330
1F
100
AcDbEntity
  8
LOGO
 62
     4
100
AcDbLine
 10
456.9697873287213
 20
72.22447795458482
 30
0.0
 11
440.1011867315442
 21
72.22447795458482
 31
0.0
  0
LINE
  5
1647
330
1F
100
AcDbEntity
  8
LOGO
 62
     4
100
AcDbLine
 10
456.9697873287213
 20
83.22288519440439
 30
0.0
 11
440.1011867315442
 21
83.22288519440439
 31
0.0
  0
TEXT
  5
1648
330
1F
100
AcDbEntity
  8
LOGO
  6
Continuous
100
AcDbText
 10
442.4813854781778
 20
73.77687981382099
 30
196.5865886400747
 40
2.25
  1
Accessory
 41
0.8
  7
CHINESET
100
AcDbText
  0
TEXT
  5
1649
330
1F
100
AcDbEntity
  8
LOGO
100
AcDbText
 10
444.5497511238534
 20
77.94789490421203
 30
196.5865886400747
 40
3.75
  1
配件
  7
CHINESET
100
AcDbText
  0
LINE
  5
164A
330
1F
100
AcDbEntity
  8
LOGO
 62
     4
100
AcDbLine
 10
402.7715207295574
 20
87.72223361069359
 30
0.0
 11
402.7715207295574
 21
83.22288519440439
 31
0.0
  0
LINE
  5
164B
330
1F
100
AcDbEntity
  8
LOGO
 62
     4
100
AcDbLine
 10
420.2676762073732
 20
87.72223361069359
 30
0.0
 11
420.2676762073732
 21
83.22288519440439
 31
0.0
  0
LINE
  5
164C
330
1F
100
AcDbEntity
  8
LOGO
 62
     4
100
AcDbLine
 10
448.5354870301327
 20
85.47255940254899
 30
0.0
 11
448.5354870301327
 21
83.22288519440439
 31
0.0
  0
LINE
  5
164D
330
1F
100
AcDbEntity
  8
LOGO
 62
     4
100
AcDbLine
 10
336.5660219017075
 20
85.47255940254899
 30
0.0
 11
336.5660219017075
 21
83.22288519440439
 31
0.0
  0
LINE
  5
164E
330
1F
100
AcDbEntity
  8
LOGO
 62
     4
100
AcDbLine
 10
336.5660219017075
 20
85.47255940254899
 30
0.0
 11
353.6315144364341
 21
85.47255940254899
 31
0.0
  0
LINE
  5
164F
330
1F
100
AcDbEntity
  8
LOGO
 62
     4
100
AcDbLine
 10
437.763831685189
 20
85.47255940254899
 30
0.0
 11
448.5354870301327
 21
85.47255940254899
 31
0.0
  0
LINE
  5
1650
330
1F
100
AcDbEntity
  8
LOGO
 62
     4
100
AcDbLine
 10
437.763831685189
 20
87.72223361069359
 30
0.0
 11
437.763831685189
 21
85.47255940254899
 31
0.0
  0
POINT
  5
16B4
330
1F
100
AcDbEntity
  8
0
 60
     1
100
AcDbPoint
 10
-1930.92695728958
 20
-494.9154325062304
 30
0.0
1001
GENIUS_GENOBJ-N-CRS_13
1002
{
1000
OWNER
1000
GEN
1002
}
1001
GENIUS_GENOLIS_13
1002
{
1000
ENT
1005
0
1005
0
1005
0
1005
15FB
1002
}
1001
GENIUS_GENOENT_13
1002
{
1000
MYREF
1005
16B4
1002
}
1002
{
1000
GRP
1005
0
1002
}
1001
GENIUS_GENODEF_13
1002
{
1000
HIER
1070
    10
1002
}
1002
{
1000
MANEDIT
1070
     1
1002
}
1002
{
1000
NOSEL
1070
     0
1002
}
1002
{
1000
BEHIND
1070
     0
1002
}
1002
{
1000
OTHER
1070
     0
1002
}
1002
{
1000
REACTOR
1002
}
  0
POINT
  5
16B5
330
1F
100
AcDbEntity
  8
0
 60
     1
100
AcDbPoint
 10
-1942.251542512434
 20
-486.0398460275941
 30
0.0
1001
GENIUS_GENOBJ-N-CRS_13
1002
{
1000
OWNER
1000
GEN
1002
}
1001
GENIUS_GENOLIS_13
1002
{
1000
ENT
1005
0
1005
0
1005
0
1005
15FA
1002
}
1001
GENIUS_GENOENT_13
1002
{
1000
MYREF
1005
16B5
1002
}
1002
{
1000
GRP
1005
0
1002
}
1001
GENIUS_GENODEF_13
1002
{
1000
HIER
1070
    10
1002
}
1002
{
1000
MANEDIT
1070
     1
1002
}
1002
{
1000
NOSEL
1070
     0
1002
}
1002
{
1000
BEHIND
1070
     0
1002
}
1002
{
1000
OTHER
1070
     0
1002
}
1002
{
1000
REACTOR
1002
}
  0
POINT
  5
16B6
330
1F
100
AcDbEntity
  8
0
 60
     1
100
AcDbPoint
 10
-1935.892868814597
 20
-494.9154325062304
 30
0.0
1001
GENIUS_GENOBJ-N-CRS_13
1002
{
1000
OWNER
1000
GEN
1002
}
1001
GENIUS_GENOLIS_13
1002
{
1000
ENT
1005
0
1005
0
1005
0
1005
15F9
1002
}
1001
GENIUS_GENOENT_13
1002
{
1000
MYREF
1005
16B6
1002
}
1002
{
1000
GRP
1005
0
1002
}
1001
GENIUS_GENODEF_13
1002
{
1000
HIER
1070
    10
1002
}
1002
{
1000
MANEDIT
1070
     1
1002
}
1002
{
1000
NOSEL
1070
     0
1002
}
1002
{
1000
BEHIND
1070
     0
1002
}
1002
{
1000
OTHER
1070
     0
1002
}
1002
{
1000
REACTOR
1002
}
  0
TEXT
  5
1A84
330
1F
100
AcDbEntity
  8
0
100
AcDbText
 10
528.299819026333
 20
315.7392489382725
 30
0.0
 40
3.0
  1
PL24/1
100
AcDbText
  0
LWPOLYLINE
  5
1A93
330
1F
100
AcDbEntity
  8
0
100
AcDbPolyline
 90
        4
 70
     1
 43
0.0
 10
527.2331389343401
 20
319.9808571214642
 10
542.4621472637054
 20
319.9808571214642
 10
542.4621472637054
 20
314.492277019775
 10
527.2331389343401
 20
314.492277019775
1001
GENIUS_GENREC_14
1002
{
1000
PYDIR
1011
527.2331389343401
1021
314.492277019775
1031
0.0
1002
}
1002
{
1000
PXDIR
1011
542.4621472637054
1021
319.9808571214642
1031
0.0
1002
}
1002
{
1000
PORI
1011
527.2331389343401
1021
319.9808571214642
1031
0.0
1002
}
1002
{
1000
PINS
1011
527.2331389343401
1021
319.9808571214642
1031
0.0
1002
}
1002
{
1000
PINS2
1011
542.4621472637054
1021
314.492277019775
1031
0.0
1002
}
1002
{
1000
C
1070
     1
1002
}
1001
GENIUS_GENODEF_13
1002
{
1000
HIER
1070
     0
1002
}
1002
{
1000
MANEDIT
1070
     0
1002
}
1002
{
1000
NOSEL
1070
     0
1002
}
1002
{
1000
BEHIND
1070
     0
1002
}
1002
{
1000
OTHER
1070
     0
1002
}
1002
{
1000
REACTOR
1002
}
1001
GENIUS_GENOBJ-N-REC_13
1002
{
1000
OWNER
1000
GEN
1002
}
  0
TEXT
  5
1A94
330
1F
100
AcDbEntity
  8
0
100
AcDbText
 10
528.299819026333
 20
210.3674137050498
 30
0.0
 40
3.0
  1
PL25/1
100
AcDbText
  0
LWPOLYLINE
  5
1A95
330
1F
100
AcDbEntity
  8
0
100
AcDbPolyline
 90
        4
 70
     1
 43
0.0
 10
527.2331389343401
 20
214.6090218882415
 10
542.4621472637054
 20
214.6090218882415
 10
542.4621472637054
 20
209.1204417865523
 10
527.2331389343401
 20
209.1204417865523
1001
GENIUS_GENREC_14
1002
{
1000
PYDIR
1011
527.2331389343401
1021
209.1204417865523
1031
0.0
1002
}
1002
{
1000
PXDIR
1011
542.4621472637054
1021
214.6090218882415
1031
0.0
1002
}
1002
{
1000
PORI
1011
527.2331389343401
1021
214.6090218882415
1031
0.0
1002
}
1002
{
1000
PINS
1011
527.2331389343401
1021
214.6090218882415
1031
0.0
1002
}
1002
{
1000
PINS2
1011
542.4621472637054
1021
209.1204417865523
1031
0.0
1002
}
1002
{
1000
C
1070
     1
1002
}
1001
GENIUS_GENODEF_13
1002
{
1000
HIER
1070
     0
1002
}
1002
{
1000
MANEDIT
1070
     0
1002
}
1002
{
1000
NOSEL
1070
     0
1002
}
1002
{
1000
BEHIND
1070
     0
1002
}
1002
{
1000
OTHER
1070
     0
1002
}
1002
{
1000
REACTOR
1002
}
1001
GENIUS_GENOBJ-N-REC_13
1002
{
1000
OWNER
1000
GEN
1002
}
  0
LINE
  5
1E81
330
1F
100
AcDbEntity
  8
AM_7
100
AcDbLine
 10
365.1867942977793
 20
188.7954268390645
 30
0.0
 11
232.5635184261771
 21
188.7954268390645
 31
0.0
  0
CIRCLE
  5
1E82
330
1F
100
AcDbEntity
  8
0
100
AcDbCircle
 10
358.0648621994194
 20
188.7954268390643
 30
0.0
 40
3.9
  0
LINE
  5
1E83
330
1F
100
AcDbEntity
  8
AM_7
100
AcDbLine
 10
364.5208821467007
 20
269.6710132231648
 30
0.0
 11
232.4187499283801
 21
269.6710132231649
 31
0.0
1001
ACAD
1000
ASC_BOUNDS
1002
{
1070
    19
1002
}
  0
LINE
  5
1E84
330
1F
100
AcDbEntity
  8
0
100
AcDbLine
 10
349.0648621994194
 20
152.4083186307142
 30
0.0
 11
363.0648621994194
 21
152.4083186307142
 31
0.0
  0
LINE
  5
1E85
330
1F
100
AcDbEntity
  8
0
100
AcDbLine
 10
363.0648621994194
 20
151.9011389537419
 30
0.0
 11
349.0648621994194
 21
151.9011389537419
 31
0.0
  0
LINE
  5
1E86
330
1F
100
AcDbEntity
  8
0
100
AcDbLine
 10
363.0648621994194
 20
150.0083186307142
 30
0.0
 11
349.0648621994194
 21
150.0083186307142
 31
0.0
  0
LINE
  5
1E87
330
1F
100
AcDbEntity
  8
0
100
AcDbLine
 10
363.0648621994194
 20
125.4083186307143
 30
0.0
 11
349.0648621994194
 21
125.4083186307143
 31
0.0
  0
LINE
  5
1E88
330
1F
100
AcDbEntity
  8
0
100
AcDbLine
 10
363.0648621994194
 20
127.8083186307144
 30
0.0
 11
349.0648621994194
 21
127.8083186307144
 31
0.0
  0
LINE
  5
1E89
330
1F
100
AcDbEntity
  8
0
100
AcDbLine
 10
363.0648621994194
 20
125.9154983076869
 30
0.0
 11
349.0648621994194
 21
125.9154983076869
 31
0.0
  0
CIRCLE
  5
1E8A
330
1F
100
AcDbEntity
  8
0
100
AcDbCircle
 10
357.1648621994194
 20
138.9083186307141
 30
0.0
 40
2.1
  0
CIRCLE
  5
1E8B
330
1F
100
AcDbEntity
  8
0
100
AcDbCircle
 10
357.1648621994194
 20
138.9083186307141
 30
0.0
 40
3.9
  0
LINE
  5
1E8D
330
1F
100
AcDbEntity
  8
AM_7
100
AcDbLine
 10
364.9348243908423
 20
138.9083186307143
 30
0.0
 11
232.5635184261773
 21
138.9083186307143
 31
0.0
  0
LINE
  5
1E8E
330
1F
100
AcDbEntity
  8
0
  6
MITTE
 48
0.1
100
AcDbLine
 10
349.0648621994194
 20
177.7954268390649
 30
0.0
 11
363.0648621994194
 21
177.7954268390649
 31
0.0
  0
LINE
  5
1E8F
330
1F
100
AcDbEntity
  8
0
100
AcDbLine
 10
363.0648621994194
 20
175.2954268390648
 30
0.0
 11
349.0648621994194
 21
175.2954268390648
 31
0.0
  0
LINE
  5
1E90
330
1F
100
AcDbEntity
  8
0
  6
MITTE
 48
0.1
100
AcDbLine
 10
349.0648621994194
 20
201.0454268390648
 30
0.0
 11
363.0648621994194
 21
201.0454268390648
 31
0.0
  0
LINE
  5
1E91
330
1F
100
AcDbEntity
  8
0
  6
MITTE
 48
0.1
100
AcDbLine
 10
349.0648621994194
 20
199.7954268390648
 30
0.0
 11
363.0648621994194
 21
199.7954268390648
 31
0.0
  0
LINE
  5
1E92
330
1F
100
AcDbEntity
  8
0
100
AcDbLine
 10
363.0648621994194
 20
202.2954268390648
 30
0.0
 11
349.0648621994194
 21
202.2954268390648
 31
0.0
  0
LINE
  5
1E93
330
1F
100
AcDbEntity
  8
0
100
AcDbLine
 10
349.0648621994194
 20
283.171013223165
 30
0.0
 11
363.0648621994194
 21
283.171013223165
 31
0.0
  0
LINE
  5
1E94
330
1F
100
AcDbEntity
  8
0
100
AcDbLine
 10
363.0648621994194
 20
282.6638335461926
 30
0.0
 11
349.0648621994194
 21
282.6638335461926
 31
0.0
  0
LINE
  5
1E95
330
1F
100
AcDbEntity
  8
0
100
AcDbLine
 10
363.0648621994194
 20
280.7710132231649
 30
0.0
 11
349.0648621994194
 21
280.7710132231649
 31
0.0
  0
LINE
  5
1E96
330
1F
100
AcDbEntity
  8
0
100
AcDbLine
 10
357.5374639278837
 20
270.5400615610358
 30
0.0
 11
355.4458138615487
 21
268.4484114947004
 31
0.0
  0
CIRCLE
  5
1E97
330
1F
100
AcDbEntity
  8
0
100
AcDbCircle
 10
356.3148621994194
 20
269.6710132231649
 30
0.0
 40
1.5
  0
LINE
  5
1E98
330
1F
100
AcDbEntity
  8
0
100
AcDbLine
 10
357.1839105372903
 20
270.893614951629
 30
0.0
 11
355.0922604709551
 21
268.8019648852939
 31
0.0
  0
LWPOLYLINE
  5
1E99
330
1F
100
AcDbEntity
  8
0
100
AcDbPolyline
 90
        5
 70
     0
 43
0.0
 10
363.0648621994194
 20
271.7210132231647
 10
353.7648621994194
 20
271.7210132231647
 10
353.7648621994194
 20
276.3710132231647
 42
0.4142135623730983
 10
351.6648621994195
 20
278.4710132231646
 10
349.0648621994194
 20
278.4710132231646
  0
LWPOLYLINE
  5
1E9A
330
1F
100
AcDbEntity
  8
0
100
AcDbPolyline
 90
        5
 70
     0
 43
0.0
 10
363.5648621994194
 20
271.4210132231646
 10
353.4648621994195
 20
271.4210132231646
 10
353.4648621994195
 20
276.3710132231647
 42
0.4142135623730951
 10
351.6648621994195
 20
278.1710132231647
 10
348.5648621994194
 20
278.1710132231647
  0
LINE
  5
1E9B
330
1F
100
AcDbEntity
  8
0
100
AcDbLine
 10
363.0648621994194
 20
256.171013223165
 30
0.0
 11
349.0648621994194
 21
256.171013223165
 31
0.0
  0
LINE
  5
1E9C
330
1F
100
AcDbEntity
  8
0
100
AcDbLine
 10
363.0648621994194
 20
258.571013223165
 30
0.0
 11
349.0648621994194
 21
258.571013223165
 31
0.0
  0
LINE
  5
1E9D
330
1F
100
AcDbEntity
  8
0
100
AcDbLine
 10
363.0648621994194
 20
256.6781929001375
 30
0.0
 11
349.0648621994194
 21
256.6781929001375
 31
0.0
  0
LINE
  5
1E9E
330
1F
100
AcDbEntity
  8
0
100
AcDbLine
 10
363.0648621994194
 20
267.6210132231649
 30
0.0
 11
353.7648621994194
 21
267.6210132231649
 31
0.0
  0
LINE
  5
1E9F
330
1F
100
AcDbEntity
  8
0
100
AcDbLine
 10
363.5648621994194
 20
267.921013223165
 30
0.0
 11
353.4648621994195
 21
267.921013223165
 31
0.0
  0
LINE
  5
1EA0
330
1F
100
AcDbEntity
  8
0
100
AcDbLine
 10
328.5648621994182
 20
202.3954268390705
 30
0.0
 11
268.5648621994209
 21
202.3954268390665
 31
0.0
1001
GENIUS_GENOREF_13
1005
20B2
  0
LINE
  5
1EA1
330
1F
100
AcDbEntity
  8
0
  6
Continuous
100
AcDbLine
 10
328.5648621994195
 20
211.7954268390648
 30
0.0
 11
268.564862199419
 21
211.7954268390662
 31
0.0
1001
GENIUS_GENOREF_13
1005
20B2
1001
ACAD
1000
ASC_BOUNDS
1002
{
1070
    19
1002
}
  0
LINE
  5
1EA2
330
1F
100
AcDbEntity
  8
0
100
AcDbLine
 10
348.5648621994194
 20
193.994719697751
 30
0.0
 11
248.5648621994194
 21
193.9947196977464
 31
0.0
  0
LWPOLYLINE
  5
1EA3
330
1F
100
AcDbEntity
  8
0
100
AcDbPolyline
 90
        2
 70
     0
 43
0.0
 10
348.5648621994194
 20
200.7954268390641
 10
248.5648621994194
 20
200.7954268390655
  0
LINE
  5
1EA4
330
1F
100
AcDbEntity
  8
0
100
AcDbLine
 10
348.5648621994194
 20
196.3954268390644
 30
0.0
 11
248.5648621994194
 21
196.3954268390601
 31
0.0
  0
LINE
  5
1EA5
330
1F
100
AcDbEntity
  8
0
100
AcDbLine
 10
348.5648621994194
 20
183.5961339803779
 30
0.0
 11
248.5648621994195
 21
183.5961339803813
 31
0.0
  0
LINE
  5
1EA6
330
1F
100
AcDbEntity
  8
0
100
AcDbLine
 10
348.5648621994194
 20
181.1954268390645
 30
0.0
 11
248.5648621994195
 21
181.195426839068
 31
0.0
  0
LINE
  5
1EA7
102
{ACAD_REACTORS
330
2073
330
2091
102
}
330
1F
100
AcDbEntity
  8
0
100
AcDbLine
 10
248.5648621994196
 20
176.7954268390635
 30
0.0
 11
348.5648621994194
 21
176.7954268390646
 31
0.0
  0
LINE
  5
1EA8
330
1F
100
AcDbEntity
  8
0
100
AcDbLine
 10
298.5648621994194
 20
256.6745738817044
 30
0.0
 11
275.8148621994195
 21
256.6745738817044
 31
0.0
1001
ACAD
1000
ASC_BOUNDS
1002
{
1070
    19
1002
}
  0
LINE
  5
1EA9
330
1F
100
AcDbEntity
  8
0
100
AcDbLine
 10
298.5648621994194
 20
282.6674525646254
 30
0.0
 11
275.8148621994195
 21
282.6674525646254
 31
0.0
1001
ACAD
1000
ASC_BOUNDS
1002
{
1070
    19
1002
}
  0
LINE
  5
1EAA
330
1F
100
AcDbEntity
  8
0
100
AcDbLine
 10
328.5648621994182
 20
203.650515627297
 30
0.0
 11
268.5648621994208
 21
203.650515627293
 31
0.0
1001
GENIUS_GENOREF_13
1005
20B2
  0
LINE
  5
1EAB
330
1F
100
AcDbEntity
  8
0
  6
Continuous
100
AcDbLine
 10
328.5648621994194
 20
211.3954268390649
 30
0.0
 11
268.5648621994194
 21
211.3954268390661
 31
0.0
1001
GENIUS_GENOREF_13
1005
20B2
1001
ACAD
1000
ASC_BOUNDS
1002
{
1070
    19
1002
}
  0
LINE
  5
1EAC
330
1F
100
AcDbEntity
  8
0
100
AcDbLine
 10
264.0648621994195
 20
264.9710132231648
 30
0.0
 11
248.5648621994194
 21
264.9710132231648
 31
0.0
1001
ACAD
1000
ASC_BOUNDS
1002
{
1070
    19
1002
}
  0
LINE
  5
1EAD
330
1F
100
AcDbEntity
  8
0
100
AcDbLine
 10
264.0648621994195
 20
274.3710132231649
 30
0.0
 11
248.5648621994194
 21
274.3710132231649
 31
0.0
1001
ACAD
1000
ASC_BOUNDS
1002
{
1070
    19
1002
}
  0
LINE
  5
1EAE
330
1F
100
AcDbEntity
  8
0
100
AcDbLine
 10
248.5648621994194
 20
257.6745738817044
 30
0.0
 11
268.5648621994195
 21
257.6745738817044
 31
0.0
1001
ACAD
1000
ASC_BOUNDS
1002
{
1070
    19
1002
}
  0
LINE
  5
1EAF
330
1F
100
AcDbEntity
  8
0
100
AcDbLine
 10
268.5648621994195
 20
281.6674525646254
 30
0.0
 11
248.5648621994194
 21
281.6674525646254
 31
0.0
1001
ACAD
1000
ASC_BOUNDS
1002
{
1070
    19
1002
}
  0
LINE
  5
1EB0
330
1F
100
AcDbEntity
  8
0
100
AcDbLine
 10
248.0648621994194
 20
283.171013223165
 30
0.0
 11
234.0648621994194
 21
283.171013223165
 31
0.0
  0
LINE
  5
1EB1
330
1F
100
AcDbEntity
  8
0
100
AcDbLine
 10
234.0648621994194
 20
282.6638335461926
 30
0.0
 11
248.0648621994194
 21
282.6638335461926
 31
0.0
  0
LINE
  5
1EB2
330
1F
100
AcDbEntity
  8
0
100
AcDbLine
 10
234.0648621994194
 20
280.7710132231649
 30
0.0
 11
248.0648621994194
 21
280.7710132231649
 31
0.0
  0
LINE
  5
1EB3
330
1F
100
AcDbEntity
  8
0
100
AcDbLine
 10
237.8839105372902
 20
270.8936149516292
 30
0.0
 11
235.7922604709552
 21
268.8019648852939
 31
0.0
  0
LWPOLYLINE
  5
1EB4
330
1F
100
AcDbEntity
  8
0
100
AcDbPolyline
 90
        5
 70
     0
 43
0.0
 10
234.0648621994194
 20
271.7210132231647
 10
243.3648621994194
 20
271.7210132231647
 10
243.3648621994194
 20
276.3710132231647
 42
-0.4142135623730983
 10
245.4648621994194
 20
278.4710132231646
 10
248.0648621994194
 20
278.4710132231646
  0
LWPOLYLINE
  5
1EB5
330
1F
100
AcDbEntity
  8
0
100
AcDbPolyline
 90
        5
 70
     0
 43
0.0
 10
233.5648621994194
 20
271.4210132231646
 10
243.6648621994194
 20
271.4210132231646
 10
243.6648621994194
 20
276.3710132231647
 42
-0.4142135623730951
 10
245.4648621994194
 20
278.1710132231647
 10
248.5648621994194
 20
278.1710132231647
  0
LINE
  5
1EB6
330
1F
100
AcDbEntity
  8
0
100
AcDbLine
 10
234.0648621994194
 20
267.6210132231649
 30
0.0
 11
243.3648621994194
 21
267.6210132231649
 31
0.0
  0
LINE
  5
1EB7
330
1F
100
AcDbEntity
  8
0
100
AcDbLine
 10
233.5648621994194
 20
267.921013223165
 30
0.0
 11
243.6648621994194
 21
267.921013223165
 31
0.0
  0
LINE
  5
1EB8
330
1F
100
AcDbEntity
  8
0
100
AcDbLine
 10
234.0648621994194
 20
256.171013223165
 30
0.0
 11
248.0648621994194
 21
256.171013223165
 31
0.0
  0
LINE
  5
1EB9
330
1F
100
AcDbEntity
  8
0
100
AcDbLine
 10
234.0648621994194
 20
258.571013223165
 30
0.0
 11
248.0648621994194
 21
258.571013223165
 31
0.0
  0
LINE
  5
1EBA
330
1F
100
AcDbEntity
  8
0
100
AcDbLine
 10
234.0648621994194
 20
256.6781929001375
 30
0.0
 11
248.0648621994194
 21
256.6781929001375
 31
0.0
  0
CIRCLE
  5
1EBB
330
1F
100
AcDbEntity
  8
0
100
AcDbCircle
 10
237.0148621994194
 20
269.6710132231649
 30
0.0
 40
1.5
  0
LINE
  5
1EBC
330
1F
100
AcDbEntity
  8
0
100
AcDbLine
 10
238.2374639278837
 20
270.5400615610358
 30
0.0
 11
236.1458138615486
 21
268.4484114947006
 31
0.0
  0
LINE
  5
1EBD
330
1F
100
AcDbEntity
  8
0
100
AcDbLine
 10
233.5648621994194
 20
282.671013223165
 30
0.0
 11
233.5648621994194
 21
256.671013223165
 31
0.0
  0
LINE
  5
1EBE
330
1F
100
AcDbEntity
  8
0
100
AcDbLine
 10
234.3148621994195
 20
267.921013223165
 30
0.0
 11
234.3148621994194
 21
271.4210132231646
 31
0.0
  0
LINE
  5
1EBF
330
1F
100
AcDbEntity
  8
0
100
AcDbLine
 10
234.0648621994194
 20
267.6210132231649
 30
0.0
 11
233.5648621994194
 21
267.921013223165
 31
0.0
  0
POINT
  5
1EC0
330
1F
100
AcDbEntity
  8
0
  6
ByBlock
100
AcDbPoint
 10
234.0648621994194
 20
256.171013223165
 30
0.0
  0
POINT
  5
1EC1
330
1F
100
AcDbEntity
  8
0
  6
ByBlock
100
AcDbPoint
 10
233.5648621994194
 20
256.671013223165
 30
0.0
  0
LINE
  5
1EC2
330
1F
100
AcDbEntity
  8
0
100
AcDbLine
 10
233.5648621994194
 20
256.671013223165
 30
0.0
 11
234.0648621994194
 21
256.171013223165
 31
0.0
  0
LINE
  5
1EC3
330
1F
100
AcDbEntity
  8
0
100
AcDbLine
 10
234.0648621994194
 20
256.171013223165
 30
0.0
 11
234.0648621994194
 21
267.6210132231649
 31
0.0
  0
LINE
  5
1EC4
330
1F
100
AcDbEntity
  8
0
100
AcDbLine
 10
234.0648621994194
 20
271.7210132231647
 30
0.0
 11
234.0648621994194
 21
283.171013223165
 31
0.0
  0
LINE
  5
1EC5
330
1F
100
AcDbEntity
  8
0
100
AcDbLine
 10
234.0648621994194
 20
283.171013223165
 30
0.0
 11
233.5648621994194
 21
282.671013223165
 31
0.0
  0
LINE
  5
1EC6
330
1F
100
AcDbEntity
  8
0
100
AcDbLine
 10
234.0648621994194
 20
271.7210132231647
 30
0.0
 11
233.5648621994194
 21
271.4210132231646
 31
0.0
  0
LINE
  5
1EC7
330
1F
100
AcDbEntity
  8
0
100
AcDbLine
 10
248.0647948907102
 20
277.421677484793
 30
0.0
 11
248.0853870193542
 21
261.921677484793
 31
0.0
  0
LINE
  5
1EC8
330
1F
100
AcDbEntity
  8
0
100
AcDbLine
 10
242.0374639278837
 20
270.5400615610358
 30
0.0
 11
239.9458138615486
 21
268.4484114947006
 31
0.0
  0
CIRCLE
  5
1EC9
330
1F
100
AcDbEntity
  8
0
100
AcDbCircle
 10
240.8148621994194
 20
269.6710132231649
 30
0.0
 40
1.5
  0
LINE
  5
1ECA
330
1F
100
AcDbEntity
  8
0
100
AcDbLine
 10
243.6648621994194
 20
275.7210132231648
 30
0.0
 11
243.6648621994194
 21
263.6210132231649
 31
0.0
  0
LINE
  5
1ECB
330
1F
100
AcDbEntity
  8
AM_7
100
AcDbLine
 10
240.8148621994194
 20
267.4955465853013
 30
0.0
 11
240.8148621994194
 21
271.6355056300356
 31
0.0
  0
LINE
  5
1ECC
330
1F
100
AcDbEntity
  8
0
100
AcDbLine
 10
248.5648621994194
 20
256.671013223165
 30
0.0
 11
248.5648621994195
 21
269.6710132231649
 31
0.0
  0
LINE
  5
1ECD
330
1F
100
AcDbEntity
  8
AM_7
100
AcDbLine
 10
237.0148621994194
 20
267.5365362788135
 30
0.0
 11
237.0148621994194
 21
271.5945159365233
 31
0.0
  0
LINE
  5
1ECE
330
1F
100
AcDbEntity
  8
0
100
AcDbLine
 10
247.3734609549028
 20
264.8260585880549
 30
0.0
 11
244.7098168345294
 21
262.1624144676815
 31
0.0
  0
LINE
  5
1ECF
330
1F
100
AcDbEntity
  8
0
100
AcDbLine
 10
247.0199075643095
 20
265.1796119786482
 30
0.0
 11
244.3562634439361
 21
262.5159678582747
 31
0.0
  0
CIRCLE
  5
1ED0
330
1F
100
AcDbEntity
  8
0
100
AcDbCircle
 10
245.8648621994194
 20
263.6710132231649
 30
0.0
 40
1.9
  0
CIRCLE
  5
1ED1
330
1F
100
AcDbEntity
  8
0
100
AcDbCircle
 10
245.8648621994194
 20
263.6710132231649
 30
0.0
 40
2.0
  0
ARC
  5
1ED2
330
1F
100
AcDbEntity
  8
0
100
AcDbCircle
 10
245.8648621994194
 20
263.6210132231649
 30
0.0
 40
2.2
100
AcDbArc
 50
180.0
 51
270.0
  0
ARC
  5
1ED3
330
1F
100
AcDbEntity
  8
0
100
AcDbCircle
 10
245.4648621994194
 20
262.9710132231648
 30
0.0
 40
2.100000000000008
100
AcDbArc
 50
180.0
 51
270.0
  0
ARC
  5
1ED4
330
1F
100
AcDbEntity
  8
0
100
AcDbCircle
 10
245.4648621994194
 20
262.9710132231648
 30
0.0
 40
1.800000000000011
100
AcDbArc
 50
180.0
 51
270.0
  0
LINE
  5
1ED5
330
1F
100
AcDbEntity
  8
0
100
AcDbLine
 10
243.3648621994194
 20
267.6210132231649
 30
0.0
 11
243.3648621994194
 21
262.9710132231648
 31
0.0
  0
LINE
  5
1ED6
330
1F
100
AcDbEntity
  8
0
100
AcDbLine
 10
243.6648621994194
 20
267.921013223165
 30
0.0
 11
243.6648621994194
 21
262.9710132231648
 31
0.0
  0
LINE
  5
1ED7
330
1F
100
AcDbEntity
  8
0
100
AcDbLine
 10
243.3648621994194
 20
267.6210132231649
 30
0.0
 11
243.6648621994194
 21
267.921013223165
 31
0.0
  0
LINE
  5
1ED8
330
1F
100
AcDbEntity
  8
0
100
AcDbLine
 10
245.8648621994194
 20
261.4210132231649
 30
0.0
 11
247.585387460598
 21
261.4210132231649
 31
0.0
  0
LINE
  5
1ED9
330
1F
100
AcDbEntity
  8
0
100
AcDbLine
 10
248.0648621994194
 20
256.171013223165
 30
0.0
 11
248.0648621994194
 21
260.8710132231649
 31
0.0
  0
LINE
  5
1EDA
330
1F
100
AcDbEntity
  8
0
100
AcDbLine
 10
248.0648621994194
 20
256.171013223165
 30
0.0
 11
248.5648621994194
 21
256.671013223165
 31
0.0
  0
LINE
  5
1EDB
330
1F
100
AcDbEntity
  8
0
100
AcDbLine
 10
248.0648621994194
 20
260.8710132231649
 30
0.0
 11
248.5648621994194
 21
261.1710132231649
 31
0.0
  0
LINE
  5
1EDC
330
1F
100
AcDbEntity
  8
0
100
AcDbLine
 10
245.4648621994194
 20
260.8710132231649
 30
0.0
 11
248.0648621994194
 21
260.8710132231649
 31
0.0
  0
LINE
  5
1EDD
330
1F
100
AcDbEntity
  8
0
100
AcDbLine
 10
245.4648621994194
 20
261.1710132231649
 30
0.0
 11
248.5648621994194
 21
261.1710132231649
 31
0.0
  0
ARC
  5
1EDE
330
1F
100
AcDbEntity
  8
0
100
AcDbCircle
 10
247.585387460598
 20
261.9210132231649
 30
0.0
 40
0.5
100
AcDbArc
 50
270.0
 51
0.0761187979584734
  0
ARC
  5
1EDF
330
1F
100
AcDbEntity
  8
0
100
AcDbCircle
 10
245.8648621994194
 20
275.7210132231648
 30
0.0
 40
2.2
100
AcDbArc
 50
90.0
 51
180.0
  0
CIRCLE
  5
1EE0
330
1F
100
AcDbEntity
  8
0
100
AcDbCircle
 10
245.8648621994194
 20
275.6710132231649
 30
0.0
 40
1.9
  0
CIRCLE
  5
1EE1
330
1F
100
AcDbEntity
  8
0
100
AcDbCircle
 10
245.8648621994194
 20
275.6710132231649
 30
0.0
 40
2.0
  0
LINE
  5
1EE2
330
1F
100
AcDbEntity
  8
0
100
AcDbLine
 10
247.3734609549028
 20
274.5159678582747
 30
0.0
 11
244.7098168345294
 21
277.1796119786482
 31
0.0
  0
LINE
  5
1EE3
330
1F
100
AcDbEntity
  8
0
100
AcDbLine
 10
247.0199075643095
 20
274.1624144676815
 30
0.0
 11
244.3562634439361
 21
276.826058588055
 31
0.0
  0
LINE
  5
1EE4
330
1F
100
AcDbEntity
  8
0
100
AcDbLine
 10
241.6839105372902
 20
270.8936149516292
 30
0.0
 11
239.5922604709551
 21
268.8019648852939
 31
0.0
  0
LINE
  5
1EE5
330
1F
100
AcDbEntity
  8
0
100
AcDbLine
 10
243.3648621994194
 20
271.7210132231647
 30
0.0
 11
243.6648621994194
 21
271.4210132231646
 31
0.0
  0
LINE
  5
1EE6
330
1F
100
AcDbEntity
  8
0
100
AcDbLine
 10
248.5648621994194
 20
269.6710132231649
 30
0.0
 11
248.5648621994194
 21
282.671013223165
 31
0.0
  0
LINE
  5
1EE7
330
1F
100
AcDbEntity
  8
0
100
AcDbLine
 10
248.0648621994194
 20
278.4710132231647
 30
0.0
 11
248.0648621994194
 21
283.171013223165
 31
0.0
  0
LINE
  5
1EE8
330
1F
100
AcDbEntity
  8
0
100
AcDbLine
 10
248.5648621994194
 20
282.671013223165
 30
0.0
 11
248.0648621994194
 21
283.171013223165
 31
0.0
  0
ARC
  5
1EE9
330
1F
100
AcDbEntity
  8
0
100
AcDbCircle
 10
247.5647953319539
 20
277.4210132231649
 30
0.0
 40
0.5
100
AcDbArc
 50
0.0761187979584734
 51
90.0
  0
LINE
  5
1EEA
330
1F
100
AcDbEntity
  8
0
100
AcDbLine
 10
248.0648621994194
 20
278.4710132231646
 30
0.0
 11
248.5648621994194
 21
278.1710132231647
 31
0.0
  0
LINE
  5
1EEB
330
1F
100
AcDbEntity
  8
0
100
AcDbLine
 10
245.8648621994194
 20
277.9210132231649
 30
0.0
 11
247.5647953319539
 21
277.9210132231649
 31
0.0
  0
LINE
  5
1EEC
330
1F
100
AcDbEntity
  8
0
100
AcDbLine
 10
234.0648621994196
 20
202.2954268390648
 30
0.0
 11
248.0648621994196
 21
202.2954268390648
 31
0.0
  0
LINE
  5
1EED
330
1F
100
AcDbEntity
  8
0
  6
MITTE
 48
0.1
100
AcDbLine
 10
248.0648621994196
 20
199.7954268390648
 30
0.0
 11
234.0648621994196
 21
199.7954268390648
 31
0.0
  0
LINE
  5
1EEE
330
1F
100
AcDbEntity
  8
0
  6
MITTE
 48
0.1
100
AcDbLine
 10
248.0648621994196
 20
201.0454268390648
 30
0.0
 11
234.0648621994196
 21
201.0454268390648
 31
0.0
  0
LINE
  5
1EEF
102
{ACAD_REACTORS
330
2073
102
}
330
1F
100
AcDbEntity
  8
0
100
AcDbLine
 10
234.0648621994196
 20
175.2954268390648
 30
0.0
 11
248.0648621994196
 21
175.2954268390648
 31
0.0
  0
LINE
  5
1EF0
330
1F
100
AcDbEntity
  8
0
  6
MITTE
 48
0.1
100
AcDbLine
 10
248.0648621994196
 20
177.7954268390649
 30
0.0
 11
234.0648621994196
 21
177.7954268390649
 31
0.0
  0
CIRCLE
  5
1EF1
330
1F
100
AcDbEntity
  8
0
100
AcDbCircle
 10
239.0648621994196
 20
188.7954268390643
 30
0.0
 40
3.9
  0
LINE
  5
1EF3
102
{ACAD_REACTORS
330
206D
330
2070
102
}
330
1F
100
AcDbEntity
  8
0
100
AcDbLine
 10
233.5648621994196
 20
175.7954268390648
 30
0.0
 11
233.5648621994196
 21
201.7954268390648
 31
0.0
  0
LINE
  5
1EF4
330
1F
100
AcDbEntity
  8
0
100
AcDbLine
 10
234.0648621994196
 20
175.2954268390648
 30
0.0
 11
234.0648621994196
 21
202.2954268390648
 31
0.0
  0
LINE
  5
1EF5
330
1F
100
AcDbEntity
  8
0
100
AcDbLine
 10
234.0648621994196
 20
175.2954268390648
 30
0.0
 11
233.5648621994196
 21
175.7954268390648
 31
0.0
  0
LINE
  5
1EF6
330
1F
100
AcDbEntity
  8
0
100
AcDbLine
 10
234.0648621994196
 20
202.2954268390648
 30
0.0
 11
233.5648621994196
 21
201.7954268390648
 31
0.0
  0
LINE
  5
1EF7
102
{ACAD_REACTORS
330
206D
102
}
330
1F
100
AcDbEntity
  8
0
100
AcDbLine
 10
248.5648621994196
 20
175.7954268390648
 30
0.0
 11
248.5648621994196
 21
201.7954268390648
 31
0.0
  0
LINE
  5
1EF8
330
1F
100
AcDbEntity
  8
0
100
AcDbLine
 10
248.0648621994196
 20
175.2954268390648
 30
0.0
 11
248.0648621994196
 21
202.2954268390648
 31
0.0
  0
LINE
  5
1EF9
330
1F
100
AcDbEntity
  8
0
100
AcDbLine
 10
248.0648621994196
 20
175.2954268390648
 30
0.0
 11
248.5648621994196
 21
175.7954268390648
 31
0.0
  0
LINE
  5
1EFA
330
1F
100
AcDbEntity
  8
AM_7
100
AcDbLine
 10
248.2766448283982
 20
192.3954268390643
 30
0.0
 11
242.7841482412574
 21
192.3954268390644
 31
0.0
  0
LINE
  5
1EFB
330
1F
100
AcDbEntity
  8
0
  6
Continuous
100
AcDbLine
 10
247.1752073791864
 20
191.2093457280094
 30
0.0
 11
244.3787810883645
 21
194.0057720188314
 31
0.0
  0
CIRCLE
  5
1EFC
330
1F
100
AcDbEntity
  8
0
  6
Continuous
100
AcDbCircle
 10
245.5648621994194
 20
192.3954268390644
 30
0.0
 40
2.5
  0
CIRCLE
  5
1EFD
330
1F
100
AcDbEntity
  8
0
  6
Continuous
100
AcDbCircle
 10
245.5648621994194
 20
192.3954268390644
 30
0.0
 40
2.0
  0
LINE
  5
1EFE
330
1F
100
AcDbEntity
  8
0
  6
Continuous
100
AcDbLine
 10
246.7509433104743
 20
190.7850816592975
 30
0.0
 11
243.9545170196525
 21
193.5815079501193
 31
0.0
  0
CIRCLE
  5
1EFF
330
1F
100
AcDbEntity
  8
0
100
AcDbCircle
 10
239.0648621994196
 20
188.7954268390643
 30
0.0
 40
2.1
  0
LINE
  5
1F00
330
1F
100
AcDbEntity
  8
AM_7
100
AcDbLine
 10
239.0648621994195
 20
193.5479693280991
 30
0.0
 11
239.0648621994196
 21
184.3081159076554
 31
0.0
  0
LINE
  5
1F01
330
1F
100
AcDbEntity
  8
AM_7
100
AcDbLine
 10
245.5648621994196
 20
195.1273099011478
 30
0.0
 11
245.5648621994196
 21
189.4959815660732
 31
0.0
  0
LINE
  5
1F02
330
1F
100
AcDbEntity
  8
0
100
AcDbLine
 10
248.0648621994196
 20
202.2954268390648
 30
0.0
 11
248.5648621994196
 21
201.7954268390648
 31
0.0
  0
LWPOLYLINE
  5
1F03
102
{ACAD_REACTORS
330
2058
102
}
330
1F
100
AcDbEntity
  8
0
  6
Continuous
100
AcDbPolyline
 90
        3
 70
     0
 43
0.0
 10
275.8148621994195
 20
282.6674525646254
 10
268.5648621994195
 20
282.6674525646254
 10
268.5648621994195
 20
280.4210132231649
  0
LWPOLYLINE
  5
1F04
330
1F
100
AcDbEntity
  8
0
  6
Continuous
100
AcDbPolyline
 90
        3
 70
     0
 43
0.0
 10
275.8148621994195
 20
256.6745738817044
 10
268.5648621994195
 20
256.6745738817044
 10
268.5648621994195
 20
258.9210132231649
  0
LWPOLYLINE
  5
1F05
102
{ACAD_REACTORS
330
205B
102
}
330
1F
100
AcDbEntity
  8
0
100
AcDbPolyline
 90
        4
 70
     1
 43
0.0
 10
264.0648621994195
 20
280.4210132231649
 10
268.5648621994195
 20
280.4210132231649
 10
268.5648621994195
 20
258.9210132231649
 10
264.0648621994195
 20
258.9210132231649
  0
LINE
  5
1F06
330
1F
100
AcDbEntity
  8
0
  6
Continuous
100
AcDbLine
 10
268.5648621994195
 20
258.9210132231649
 30
0.0
 11
268.5648621994195
 21
280.4210132231649
 31
0.0
1001
ACAD
1000
ASC_BOUNDS
1002
{
1070
    19
1005
0
1005
0
1005
0
1005
0
1005
0
1002
}
  0
CIRCLE
  5
1F07
330
1F
100
AcDbEntity
  8
0
  6
Continuous
100
AcDbCircle
 10
280.5648621994194
 20
261.4210132231647
 30
0.0
 40
1.550000000000579
  0
ARC
  5
1F08
330
1F
100
AcDbEntity
  8
AM_4
  6
Continuous
 48
2.5
100
AcDbCircle
 10
280.5648621994194
 20
261.4210132231647
 30
0.0
 40
2.000000000000994
100
AcDbArc
 50
259.2549162703908
 51
165.5708532168279
  0
ARC
  5
1F09
330
1F
100
AcDbEntity
  8
AM_4
  6
Continuous
 48
2.5
100
AcDbCircle
 10
280.5648621994194
 20
277.9210132231649
 30
0.0
 40
2.000000000000994
100
AcDbArc
 50
194.4291467831721
 51
100.7450837296092
  0
CIRCLE
  5
1F0A
330
1F
100
AcDbEntity
  8
0
  6
Continuous
100
AcDbCircle
 10
280.5648621994194
 20
277.9210132231649
 30
0.0
 40
1.550000000000579
  0
LINE
  5
1F0B
330
1F
100
AcDbEntity
  8
0
  6
Continuous
100
AcDbLine
 10
264.06486219942
 20
211.1418661805296
 30
0.0
 11
268.56486219942
 21
211.1418661805296
 31
0.0
1001
ACAD
1000
ASC_BOUNDS
1002
{
1070
    19
1005
0
1005
0
1005
0
1005
0
1005
0
1002
}
  0
LINE
  5
1F0C
330
1F
100
AcDbEntity
  8
0
100
AcDbLine
 10
265.0648621994201
 20
200.8418661805296
 30
0.0
 11
268.56486219942
 21
200.8418661805296
 31
0.0
  0
ARC
  5
1F0D
330
1F
100
AcDbEntity
  8
0
  6
Continuous
100
AcDbCircle
 10
264.7648621994201
 20
200.8418661805297
 30
0.0
 40
0.3
100
AcDbArc
 50
351.094930208318
 51
0.0
  0
ARC
  5
1F0E
330
1F
100
AcDbEntity
  8
0
  6
Continuous
100
AcDbCircle
 10
264.36486219942
 20
200.8418661805297
 30
0.0
 40
0.3
100
AcDbArc
 50
180.0
 51
188.9050697916819
1001
ACAD
1000
ASC_BOUNDS
1002
{
1070
    19
1005
0
1005
0
1005
0
1005
0
1005
0
1002
}
  0
LINE
  5
1F0F
330
1F
100
AcDbEntity
  8
0
  6
Continuous
100
AcDbLine
 10
264.06486219942
 20
211.1418661805296
 30
0.0
 11
264.0648621994201
 21
200.8418661805296
 31
0.0
1001
ACAD
1000
ASC_BOUNDS
1002
{
1070
    19
1005
0
1005
0
1005
0
1005
0
1005
0
1002
}
  0
LINE
  5
1F10
330
1F
100
AcDbEntity
  8
0
  6
Continuous
100
AcDbLine
 10
267.26486219942
 20
200.8418661805296
 30
0.0
 11
267.26486219942
 21
200.8418661805298
 31
0.0
  0
LINE
  5
1F11
330
1F
100
AcDbEntity
  8
0
  6
Continuous
100
AcDbLine
 10
268.5648621994195
 20
211.7954268390648
 30
0.0
 11
268.5648621994209
 21
202.3954268390705
 31
0.0
1001
ACAD
1000
ASC_BOUNDS
1002
{
1070
    19
1005
0
1005
0
1005
0
1005
0
1005
0
1002
}
  0
LINE
  5
1F12
330
1F
100
AcDbEntity
  8
0
  6
Continuous
100
AcDbLine
 10
268.56486219942
 20
211.1418661805296
 30
0.0
 11
268.56486219942
 21
200.8418661805296
 31
0.0
1001
ACAD
1000
ASC_BOUNDS
1002
{
1070
    19
1005
0
1005
0
1005
0
1005
0
1005
0
1002
}
  0
LWPOLYLINE
  5
1F13
102
{ACAD_REACTORS
330
2058
102
}
330
1F
100
AcDbEntity
  8
0
  6
Continuous
100
AcDbPolyline
 90
        3
 70
     0
 43
0.0
 10
321.3148621994194
 20
282.6674525646254
 10
328.5648621994194
 20
282.6674525646254
 10
328.5648621994194
 20
280.6710132231649
  0
LWPOLYLINE
  5
1F14
330
1F
100
AcDbEntity
  8
0
  6
Continuous
100
AcDbPolyline
 90
        3
 70
     0
 43
0.0
 10
321.3148621994194
 20
256.6745738817044
 10
328.5648621994194
 20
256.6745738817044
 10
328.5648621994194
 20
258.6710132231649
  0
LINE
  5
1F15
330
1F
100
AcDbEntity
  8
0
100
AcDbLine
 10
298.5648621994194
 20
282.6674525646254
 30
0.0
 11
321.3148621994194
 21
282.6674525646254
 31
0.0
1001
ACAD
1000
ASC_BOUNDS
1002
{
1070
    19
1002
}
  0
LINE
  5
1F16
330
1F
100
AcDbEntity
  8
0
100
AcDbLine
 10
298.5648621994194
 20
256.6745738817044
 30
0.0
 11
321.3148621994194
 21
256.6745738817044
 31
0.0
1001
ACAD
1000
ASC_BOUNDS
1002
{
1070
    19
1002
}
  0
LINE
  5
1F17
330
1F
100
AcDbEntity
  8
AM_7
100
AcDbLine
 10
298.5648621994194
 20
255.1710132231648
 30
0.0
 11
298.5648621994194
 21
284.3353833311132
 31
0.0
1001
ACAD
1000
ASC_BOUNDS
1002
{
1070
    19
1005
0
1005
0
1005
0
1005
0
1005
0
1002
}
  0
ARC
  5
1F18
330
1F
100
AcDbEntity
  8
AM_4
  6
Continuous
 48
2.5
100
AcDbCircle
 10
316.5648621994194
 20
261.4210132231647
 30
0.0
 40
2.000000000000994
100
AcDbArc
 50
14.42914678317212
 51
280.7450837296092
  0
CIRCLE
  5
1F19
330
1F
100
AcDbEntity
  8
0
  6
Continuous
100
AcDbCircle
 10
316.5648621994194
 20
261.4210132231647
 30
0.0
 40
1.550000000000579
  0
CIRCLE
  5
1F1A
330
1F
100
AcDbEntity
  8
0
  6
Continuous
100
AcDbCircle
 10
316.5648621994194
 20
277.9210132231649
 30
0.0
 40
1.550000000000579
  0
ARC
  5
1F1B
330
1F
100
AcDbEntity
  8
AM_4
  6
Continuous
 48
2.5
100
AcDbCircle
 10
316.5648621994194
 20
277.9210132231649
 30
0.0
 40
2.000000000000994
100
AcDbArc
 50
79.25491627039078
 51
345.5708532168279
  0
LINE
  5
1F1C
330
1F
100
AcDbEntity
  8
AM_7
100
AcDbLine
 10
298.5648621994194
 20
213.3258415118213
 30
0.0
 11
298.5648621994194
 21
198.9144894575477
 31
0.0
  0
LINE
  5
1F1D
330
1F
100
AcDbEntity
  8
0
100
AcDbLine
 10
333.0648621994194
 20
264.9710132231648
 30
0.0
 11
348.5648621994194
 21
264.9710132231648
 31
0.0
1001
ACAD
1000
ASC_BOUNDS
1002
{
1070
    19
1002
}
  0
LINE
  5
1F1E
330
1F
100
AcDbEntity
  8
0
  6
Continuous
 48
2.0
100
AcDbLine
 10
333.0648621994194
 20
274.3710132231649
 30
0.0
 11
348.5648621994194
 21
274.3710132231649
 31
0.0
1001
ACAD
1000
ASC_BOUNDS
1002
{
1070
    19
1002
}
  0
LINE
  5
1F1F
330
1F
100
AcDbEntity
  8
0
100
AcDbLine
 10
348.5648621994194
 20
257.6745738817044
 30
0.0
 11
328.5648621994194
 21
257.6745738817044
 31
0.0
1001
ACAD
1000
ASC_BOUNDS
1002
{
1070
    19
1002
}
  0
LINE
  5
1F20
330
1F
100
AcDbEntity
  8
0
100
AcDbLine
 10
328.5648621994194
 20
281.6674525646254
 30
0.0
 11
348.5648621994194
 21
281.6674525646254
 31
0.0
1001
ACAD
1000
ASC_BOUNDS
1002
{
1070
    19
1002
}
  0
LWPOLYLINE
  5
1F21
102
{ACAD_REACTORS
330
205B
330
205E
102
}
330
1F
100
AcDbEntity
  8
0
100
AcDbPolyline
 90
        4
 70
     1
 43
0.0
 10
333.0648621994194
 20
280.4210132231649
 10
328.5648621994194
 20
280.4210132231649
 10
328.5648621994194
 20
258.9210132231649
 10
333.0648621994194
 20
258.9210132231649
  0
LINE
  5
1F22
330
1F
100
AcDbEntity
  8
0
  6
Continuous
100
AcDbLine
 10
328.5648621994194
 20
258.6710132231649
 30
0.0
 11
328.5648621994194
 21
280.6710132231649
 31
0.0
1001
ACAD
1000
ASC_BOUNDS
1002
{
1070
    19
1005
0
1005
0
1005
0
1005
0
1005
0
1002
}
  0
LINE
  5
1F23
330
1F
100
AcDbEntity
  8
0
100
AcDbLine
 10
349.0649295081287
 20
277.421677484793
 30
0.0
 11
349.0443373794847
 21
261.921677484793
 31
0.0
  0
LINE
  5
1F24
330
1F
100
AcDbEntity
  8
0
100
AcDbLine
 10
353.4648621994195
 20
275.7210132231648
 30
0.0
 11
353.4648621994195
 21
263.6210132231649
 31
0.0
  0
LINE
  5
1F25
330
1F
100
AcDbEntity
  8
0
100
AcDbLine
 10
348.5648621994194
 20
256.671013223165
 30
0.0
 11
348.5648621994194
 21
269.6710132231649
 31
0.0
  0
LINE
  5
1F26
330
1F
100
AcDbEntity
  8
0
100
AcDbLine
 10
350.1098168345293
 20
265.1796119786482
 30
0.0
 11
352.7734609549027
 21
262.5159678582747
 31
0.0
  0
LINE
  5
1F27
330
1F
100
AcDbEntity
  8
0
100
AcDbLine
 10
349.7562634439359
 20
264.8260585880549
 30
0.0
 11
352.4199075643094
 21
262.1624144676815
 31
0.0
  0
CIRCLE
  5
1F28
330
1F
100
AcDbEntity
  8
0
100
AcDbCircle
 10
351.2648621994194
 20
263.6710132231649
 30
0.0
 40
2.0
  0
CIRCLE
  5
1F29
330
1F
100
AcDbEntity
  8
0
100
AcDbCircle
 10
351.2648621994194
 20
263.6710132231649
 30
0.0
 40
1.9
  0
LINE
  5
1F2A
330
1F
100
AcDbEntity
  8
0
100
AcDbLine
 10
351.6648621994195
 20
261.1710132231649
 30
0.0
 11
348.5648621994194
 21
261.1710132231649
 31
0.0
  0
LINE
  5
1F2B
330
1F
100
AcDbEntity
  8
0
100
AcDbLine
 10
351.6648621994195
 20
260.8710132231649
 30
0.0
 11
349.0648621994194
 21
260.8710132231649
 31
0.0
  0
ARC
  5
1F2C
330
1F
100
AcDbEntity
  8
0
100
AcDbCircle
 10
351.2648621994194
 20
263.6210132231649
 30
0.0
 40
2.2
100
AcDbArc
 50
270.0
 51
0.0
  0
LINE
  5
1F2D
330
1F
100
AcDbEntity
  8
0
100
AcDbLine
 10
351.2648621994194
 20
261.4210132231649
 30
0.0
 11
349.5443369382408
 21
261.4210132231649
 31
0.0
  0
LINE
  5
1F2E
330
1F
100
AcDbEntity
  8
0
100
AcDbLine
 10
349.0648621994194
 20
256.171013223165
 30
0.0
 11
349.0648621994194
 21
260.8710132231649
 31
0.0
  0
LINE
  5
1F2F
330
1F
100
AcDbEntity
  8
0
100
AcDbLine
 10
349.0648621994194
 20
256.171013223165
 30
0.0
 11
348.5648621994194
 21
256.671013223165
 31
0.0
  0
LINE
  5
1F30
330
1F
100
AcDbEntity
  8
0
100
AcDbLine
 10
349.0648621994194
 20
260.8710132231649
 30
0.0
 11
348.5648621994194
 21
261.1710132231649
 31
0.0
  0
ARC
  5
1F31
330
1F
100
AcDbEntity
  8
0
100
AcDbCircle
 10
349.5443369382408
 20
261.9210132231649
 30
0.0
 40
0.5
100
AcDbArc
 50
179.9238812020415
 51
270.0
  0
LINE
  5
1F32
330
1F
100
AcDbEntity
  8
0
100
AcDbLine
 10
353.7648621994194
 20
267.6210132231649
 30
0.0
 11
353.7648621994194
 21
262.9710132231648
 31
0.0
  0
LINE
  5
1F33
330
1F
100
AcDbEntity
  8
0
100
AcDbLine
 10
353.4648621994195
 20
267.921013223165
 30
0.0
 11
353.4648621994195
 21
262.9710132231648
 31
0.0
  0
LINE
  5
1F34
330
1F
100
AcDbEntity
  8
0
100
AcDbLine
 10
353.7648621994194
 20
267.6210132231649
 30
0.0
 11
353.4648621994195
 21
267.921013223165
 31
0.0
  0
ARC
  5
1F35
330
1F
100
AcDbEntity
  8
0
100
AcDbCircle
 10
351.6648621994195
 20
262.9710132231648
 30
0.0
 40
2.100000000000008
100
AcDbArc
 50
270.0
 51
0.0
  0
ARC
  5
1F36
330
1F
100
AcDbEntity
  8
0
100
AcDbCircle
 10
351.6648621994195
 20
262.9710132231648
 30
0.0
 40
1.800000000000011
100
AcDbArc
 50
270.0
 51
0.0
  0
ARC
  5
1F37
330
1F
100
AcDbEntity
  8
0
100
AcDbCircle
 10
351.2648621994194
 20
275.7210132231648
 30
0.0
 40
2.2
100
AcDbArc
 50
0.0
 51
90.0
  0
CIRCLE
  5
1F38
330
1F
100
AcDbEntity
  8
0
100
AcDbCircle
 10
351.2648621994194
 20
275.6710132231649
 30
0.0
 40
1.9
  0
CIRCLE
  5
1F39
330
1F
100
AcDbEntity
  8
0
100
AcDbCircle
 10
351.2648621994194
 20
275.6710132231649
 30
0.0
 40
2.0
  0
LINE
  5
1F3A
330
1F
100
AcDbEntity
  8
0
100
AcDbLine
 10
349.7562634439359
 20
274.5159678582747
 30
0.0
 11
352.4199075643094
 21
277.1796119786482
 31
0.0
  0
LINE
  5
1F3B
330
1F
100
AcDbEntity
  8
0
100
AcDbLine
 10
350.1098168345293
 20
274.1624144676815
 30
0.0
 11
352.7734609549027
 21
276.826058588055
 31
0.0
  0
LINE
  5
1F3C
330
1F
100
AcDbEntity
  8
0
100
AcDbLine
 10
348.5648621994194
 20
282.671013223165
 30
0.0
 11
349.0648621994194
 21
283.171013223165
 31
0.0
  0
ARC
  5
1F3D
330
1F
100
AcDbEntity
  8
0
100
AcDbCircle
 10
349.564929066885
 20
277.4210132231649
 30
0.0
 40
0.5
100
AcDbArc
 50
90.0
 51
179.9238812020415
  0
LINE
  5
1F3E
330
1F
100
AcDbEntity
  8
0
100
AcDbLine
 10
349.0648621994194
 20
278.4710132231646
 30
0.0
 11
348.5648621994194
 21
278.1710132231647
 31
0.0
  0
LINE
  5
1F3F
330
1F
100
AcDbEntity
  8
0
100
AcDbLine
 10
351.2648621994194
 20
277.9210132231649
 30
0.0
 11
349.564929066885
 21
277.9210132231649
 31
0.0
  0
LINE
  5
1F40
102
{ACAD_REACTORS
330
205E
102
}
330
1F
100
AcDbEntity
  8
0
100
AcDbLine
 10
348.5648621994194
 20
269.6710132231649
 30
0.0
 11
348.5648621994194
 21
282.671013223165
 31
0.0
  0
LINE
  5
1F41
330
1F
100
AcDbEntity
  8
0
100
AcDbLine
 10
349.0648621994194
 20
278.4710132231647
 30
0.0
 11
349.0648621994194
 21
283.171013223165
 31
0.0
  0
LINE
  5
1F42
330
1F
100
AcDbEntity
  8
0
100
AcDbLine
 10
353.7648621994194
 20
271.7210132231647
 30
0.0
 11
353.4648621994195
 21
271.4210132231646
 31
0.0
  0
LINE
  5
1F43
330
1F
100
AcDbEntity
  8
0
100
AcDbLine
 10
332.0648621994188
 20
200.8418661805296
 30
0.0
 11
328.5648621994188
 21
200.8418661805296
 31
0.0
  0
LINE
  5
1F44
330
1F
100
AcDbEntity
  8
0
  6
Continuous
100
AcDbLine
 10
333.0648621994188
 20
211.1418661805296
 30
0.0
 11
328.5648621994188
 21
211.1418661805296
 31
0.0
1001
ACAD
1000
ASC_BOUNDS
1002
{
1070
    19
1005
0
1005
0
1005
0
1005
0
1005
0
1002
}
  0
LINE
  5
1F45
330
1F
100
AcDbEntity
  8
0
  6
Continuous
100
AcDbLine
 10
328.5648621994188
 20
211.1418661805296
 30
0.0
 11
328.5648621994188
 21
200.8418661805296
 31
0.0
1001
ACAD
1000
ASC_BOUNDS
1002
{
1070
    19
1005
0
1005
0
1005
0
1005
0
1005
0
1002
}
  0
LINE
  5
1F46
330
1F
100
AcDbEntity
  8
0
  6
Continuous
100
AcDbLine
 10
329.8648621994188
 20
200.8418661805296
 30
0.0
 11
329.8648621994188
 21
200.8418661805298
 31
0.0
  0
LINE
  5
1F47
330
1F
100
AcDbEntity
  8
0
  6
Continuous
100
AcDbLine
 10
328.5648621994195
 20
211.7954268390648
 30
0.0
 11
328.5648621994182
 21
202.3954268390705
 31
0.0
1001
ACAD
1000
ASC_BOUNDS
1002
{
1070
    19
1005
0
1005
0
1005
0
1005
0
1005
0
1002
}
  0
LINE
  5
1F48
330
1F
100
AcDbEntity
  8
0
  6
Continuous
100
AcDbLine
 10
333.0648621994188
 20
211.1418661805296
 30
0.0
 11
333.0648621994188
 21
200.8418661805296
 31
0.0
1001
ACAD
1000
ASC_BOUNDS
1002
{
1070
    19
1005
0
1005
0
1005
0
1005
0
1005
0
1002
}
  0
ARC
  5
1F49
330
1F
100
AcDbEntity
  8
0
  6
Continuous
100
AcDbCircle
 10
332.7648621994189
 20
200.8418661805297
 30
0.0
 40
0.3
100
AcDbArc
 50
351.094930208318
 51
0.0
1001
ACAD
1000
ASC_BOUNDS
1002
{
1070
    19
1005
0
1005
0
1005
0
1005
0
1005
0
1002
}
  0
ARC
  5
1F4A
330
1F
100
AcDbEntity
  8
0
  6
Continuous
100
AcDbCircle
 10
332.3648621994188
 20
200.8418661805297
 30
0.0
 40
0.3
100
AcDbArc
 50
180.0
 51
188.9050697916819
  0
LINE
  5
1F4B
330
1F
100
AcDbEntity
  8
0
100
AcDbLine
 10
349.0648621994194
 20
175.2954268390648
 30
0.0
 11
349.0648621994194
 21
202.2954268390648
 31
0.0
  0
LINE
  5
1F4C
330
1F
100
AcDbEntity
  8
0
100
AcDbLine
 10
348.5648621994194
 20
175.7954268390648
 30
0.0
 11
348.5648621994194
 21
201.7954268390648
 31
0.0
  0
LINE
  5
1F4D
330
1F
100
AcDbEntity
  8
0
100
AcDbLine
 10
349.0648621994194
 20
175.2954268390648
 30
0.0
 11
348.5648621994194
 21
175.7954268390648
 31
0.0
  0
LINE
  5
1F4E
330
1F
100
AcDbEntity
  8
AM_7
100
AcDbLine
 10
348.8079191421763
 20
192.3954268390643
 30
0.0
 11
354.8944737059933
 21
192.3954268390644
 31
0.0
  0
LINE
  5
1F4F
330
1F
100
AcDbEntity
  8
0
  6
Continuous
100
AcDbLine
 10
350.3787810883645
 20
190.7850816592975
 30
0.0
 11
353.1752073791863
 21
193.5815079501193
 31
0.0
  0
LINE
  5
1F50
330
1F
100
AcDbEntity
  8
0
  6
Continuous
100
AcDbLine
 10
349.9545170196524
 20
191.2093457280094
 30
0.0
 11
352.7509433104743
 21
194.0057720188314
 31
0.0
  0
CIRCLE
  5
1F51
330
1F
100
AcDbEntity
  8
0
  6
Continuous
100
AcDbCircle
 10
351.5648621994194
 20
192.3954268390644
 30
0.0
 40
2.0
  0
CIRCLE
  5
1F52
330
1F
100
AcDbEntity
  8
0
  6
Continuous
100
AcDbCircle
 10
351.5648621994194
 20
192.3954268390644
 30
0.0
 40
2.5
  0
LINE
  5
1F53
102
{ACAD_REACTORS
330
2067
102
}
330
1F
100
AcDbEntity
  8
AM_7
100
AcDbLine
 10
351.5648621994194
 20
195.1376569930918
 30
0.0
 11
351.5648621994194
 21
189.3937568527647
 31
0.0
  0
LINE
  5
1F54
330
1F
100
AcDbEntity
  8
0
100
AcDbLine
 10
349.0648621994194
 20
202.2954268390648
 30
0.0
 11
348.5648621994194
 21
201.7954268390648
 31
0.0
  0
LINE
  5
1F55
102
{ACAD_REACTORS
330
2094
102
}
330
1F
100
AcDbEntity
  8
0
100
AcDbLine
 10
348.5648621994192
 20
150.9083186307143
 30
0.0
 11
248.5648621994196
 21
150.9083186307146
 31
0.0
  0
LINE
  5
1F56
102
{ACAD_REACTORS
330
2094
102
}
330
1F
100
AcDbEntity
  8
0
100
AcDbLine
 10
348.5648621994191
 20
126.9083186307143
 30
0.0
 11
248.5648621994196
 21
126.9083186307145
 31
0.0
  0
LINE
  5
1F57
330
1F
100
AcDbEntity
  8
0
100
AcDbLine
 10
348.5648621994193
 20
144.1076114894006
 30
0.0
 11
248.5648621994196
 21
144.1076114893993
 31
0.0
  0
LINE
  5
1F58
330
1F
100
AcDbEntity
  8
0
100
AcDbLine
 10
348.5648621994193
 20
146.5083186307138
 30
0.0
 11
248.5648621994196
 21
146.5083186307129
 31
0.0
  0
LINE
  5
1F59
330
1F
100
AcDbEntity
  8
0
100
AcDbLine
 10
348.5648621994194
 20
131.3083186307146
 30
0.0
 11
248.5648621994196
 21
131.3083186307154
 31
0.0
  0
LINE
  5
1F5A
330
1F
100
AcDbEntity
  8
0
100
AcDbLine
 10
348.5648621994194
 20
133.7090257720279
 30
0.0
 11
248.5648621994196
 21
133.7090257720288
 31
0.0
  0
LINE
  5
1F5B
330
1F
100
AcDbEntity
  8
0
100
AcDbLine
 10
248.5648621994196
 20
151.9083186307142
 30
0.0
 11
248.0648621994196
 21
152.4083186307142
 31
0.0
  0
LINE
  5
1F5C
330
1F
100
AcDbEntity
  8
0
100
AcDbLine
 10
234.0648621994196
 20
152.4083186307142
 30
0.0
 11
233.5648621994196
 21
151.9083186307142
 31
0.0
  0
LINE
  5
1F5D
330
1F
100
AcDbEntity
  8
0
100
AcDbLine
 10
234.0648621994196
 20
138.9083186307143
 30
0.0
 11
234.0648621994196
 21
152.4083186307142
 31
0.0
  0
LINE
  5
1F5E
330
1F
100
AcDbEntity
  8
0
100
AcDbLine
 10
248.0648621994196
 20
138.9083186307143
 30
0.0
 11
248.0648621994196
 21
152.4083186307142
 31
0.0
  0
LINE
  5
1F5F
330
1F
100
AcDbEntity
  8
0
100
AcDbLine
 10
234.0648621994196
 20
150.0083186307142
 30
0.0
 11
248.0648621994196
 21
150.0083186307142
 31
0.0
  0
LINE
  5
1F60
330
1F
100
AcDbEntity
  8
0
100
AcDbLine
 10
234.0648621994196
 20
151.9011389537419
 30
0.0
 11
248.0648621994196
 21
151.9011389537419
 31
0.0
  0
LINE
  5
1F61
330
1F
100
AcDbEntity
  8
0
100
AcDbLine
 10
234.0648621994196
 20
125.9154983076869
 30
0.0
 11
248.0648621994196
 21
125.9154983076869
 31
0.0
  0
LINE
  5
1F62
330
1F
100
AcDbEntity
  8
0
100
AcDbLine
 10
234.0648621994196
 20
127.8083186307144
 30
0.0
 11
248.0648621994196
 21
127.8083186307144
 31
0.0
  0
LINE
  5
1F63
330
1F
100
AcDbEntity
  8
0
100
AcDbLine
 10
234.0648621994196
 20
125.4083186307143
 30
0.0
 11
248.0648621994196
 21
125.4083186307143
 31
0.0
  0
CIRCLE
  5
1F64
330
1F
100
AcDbEntity
  8
0
100
AcDbCircle
 10
239.9648621994197
 20
138.9083186307141
 30
0.0
 40
3.9
  0
LINE
  5
1F65
330
1F
100
AcDbEntity
  8
0
100
AcDbLine
 10
234.0648621994196
 20
125.4083186307143
 30
0.0
 11
234.0648621994196
 21
138.9083186307143
 31
0.0
  0
LINE
  5
1F66
102
{ACAD_REACTORS
330
208E
102
}
330
1F
100
AcDbEntity
  8
0
100
AcDbLine
 10
233.5648621994196
 20
151.9083186307142
 30
0.0
 11
233.5648621994196
 21
125.9083186307143
 31
0.0
  0
POINT
  5
1F67
330
1F
100
AcDbEntity
  8
0
  6
ByBlock
100
AcDbPoint
 10
234.0648621994196
 20
125.4083186307143
 30
0.0
  0
POINT
  5
1F68
330
1F
100
AcDbEntity
  8
0
  6
ByBlock
100
AcDbPoint
 10
233.5648621994196
 20
125.9083186307143
 30
0.0
  0
LINE
  5
1F69
330
1F
100
AcDbEntity
  8
0
100
AcDbLine
 10
233.5648621994196
 20
125.9083186307143
 30
0.0
 11
234.0648621994196
 21
125.4083186307143
 31
0.0
  0
LINE
  5
1F6A
102
{ACAD_REACTORS
330
208E
102
}
330
1F
100
AcDbEntity
  8
AM_7
100
AcDbLine
 10
239.9648621994196
 20
143.6608611197489
 30
0.0
 11
239.9648621994197
 21
134.4210076993051
 31
0.0
  0
CIRCLE
  5
1F6B
330
1F
100
AcDbEntity
  8
0
100
AcDbCircle
 10
239.9648621994197
 20
138.9083186307141
 30
0.0
 40
2.1
  0
LINE
  5
1F6D
330
1F
100
AcDbEntity
  8
0
100
AcDbLine
 10
248.5648621994196
 20
125.9083186307143
 30
0.0
 11
248.5648621994196
 21
138.9083186307143
 31
0.0
  0
LINE
  5
1F6E
330
1F
100
AcDbEntity
  8
0
100
AcDbLine
 10
248.0648621994196
 20
125.4083186307143
 30
0.0
 11
248.0648621994196
 21
138.9083186307143
 31
0.0
  0
LINE
  5
1F6F
330
1F
100
AcDbEntity
  8
0
100
AcDbLine
 10
248.0648621994196
 20
125.4083186307143
 30
0.0
 11
248.5648621994196
 21
125.9083186307143
 31
0.0
  0
LINE
  5
1F70
330
1F
100
AcDbEntity
  8
0
100
AcDbLine
 10
248.5648621994196
 20
138.9083186307143
 30
0.0
 11
248.5648621994196
 21
151.9083186307142
 31
0.0
  0
LINE
  5
1F71
330
1F
100
AcDbEntity
  8
0
100
AcDbLine
 10
248.0648621994196
 20
152.4083186307142
 30
0.0
 11
234.0648621994196
 21
152.4083186307142
 31
0.0
  0
LINE
  5
1F72
330
1F
100
AcDbEntity
  8
0
100
AcDbLine
 10
348.5648621994194
 20
151.9083186307142
 30
0.0
 11
349.0648621994194
 21
152.4083186307142
 31
0.0
  0
LINE
  5
1F73
330
1F
100
AcDbEntity
  8
0
100
AcDbLine
 10
349.0648621994194
 20
138.9083186307143
 30
0.0
 11
349.0648621994194
 21
152.4083186307142
 31
0.0
  0
LINE
  5
1F74
330
1F
100
AcDbEntity
  8
0
100
AcDbLine
 10
349.0648621994194
 20
125.4083186307143
 30
0.0
 11
349.0648621994194
 21
138.9083186307143
 31
0.0
  0
LINE
  5
1F75
330
1F
100
AcDbEntity
  8
0
100
AcDbLine
 10
348.5648621994194
 20
125.9083186307143
 30
0.0
 11
348.5648621994194
 21
138.9083186307143
 31
0.0
  0
LINE
  5
1F76
330
1F
100
AcDbEntity
  8
0
100
AcDbLine
 10
349.0648621994194
 20
125.4083186307143
 30
0.0
 11
348.5648621994194
 21
125.9083186307143
 31
0.0
  0
LINE
  5
1F77
330
1F
100
AcDbEntity
  8
0
100
AcDbLine
 10
348.5648621994194
 20
138.9083186307143
 30
0.0
 11
348.5648621994194
 21
151.9083186307142
 31
0.0
  0
LINE
  5
1F78
102
{ACAD_REACTORS
330
2088
102
}
330
1F
100
AcDbEntity
  8
AM_7
100
AcDbLine
 10
442.9421137081061
 20
188.7954268390645
 30
0.0
 11
413.9421137081061
 21
188.7954268390645
 31
0.0
1001
ACAD
1000
ASC_BOUNDS
1002
{
1070
    19
1005
0
1005
0
1005
0
1005
0
1005
0
1002
}
  0
LINE
  5
1F79
330
1F
100
AcDbEntity
  8
0
100
AcDbLine
 10
439.542113708106
 20
202.2954268390646
 30
0.0
 11
441.4349340311336
 21
201.7882471620922
 31
0.0
  0
LINE
  5
1F7A
330
1F
100
AcDbEntity
  8
AM_7
100
AcDbLine
 10
441.5128623261274
 20
197.7954268390646
 30
0.0
 11
433.3070242910081
 21
197.7954268390646
 31
0.0
1001
ACAD
1000
ASC_BOUNDS
1002
{
1070
    19
1002
}
  0
ARC
  5
1F7B
102
{ACAD_REACTORS
330
2088
102
}
330
1F
100
AcDbEntity
  8
0
100
AcDbCircle
 10
440.9153721522819
 20
175.7954268390646
 30
0.0
 40
0.5
100
AcDbArc
 50
270.0
 51
344.9999999999989
  0
LINE
  5
1F7C
330
1F
100
AcDbEntity
  8
0
100
AcDbLine
 10
441.9421137081061
 20
177.6954268390646
 30
0.0
 11
441.3983350654263
 21
175.6660173165134
 31
0.0
  0
LINE
  5
1F7D
330
1F
100
AcDbEntity
  8
AM_7
100
AcDbLine
 10
441.5128623261274
 20
179.7954268390646
 30
0.0
 11
433.3070242910081
 21
179.7954268390646
 31
0.0
1001
ACAD
1000
ASC_BOUNDS
1002
{
1070
    19
1002
}
  0
LINE
  5
1F7E
330
1F
100
AcDbEntity
  8
0
100
AcDbLine
 10
362.8148621994194
 20
267.921013223165
 30
0.0
 11
362.8148621994194
 21
271.4210132231646
 31
0.0
  0
LINE
  5
1F7F
330
1F
100
AcDbEntity
  8
0
100
AcDbLine
 10
361.3374639278836
 20
270.5400615610358
 30
0.0
 11
359.2458138615486
 21
268.4484114947004
 31
0.0
  0
LINE
  5
1F80
330
1F
100
AcDbEntity
  8
AM_7
100
AcDbLine
 10
356.3148621994194
 20
267.4955465853013
 30
0.0
 11
356.3148621994194
 21
271.6355056300356
 31
0.0
  0
CIRCLE
  5
1F81
330
1F
100
AcDbEntity
  8
0
100
AcDbCircle
 10
360.1148621994194
 20
269.6710132231649
 30
0.0
 40
1.5
  0
LINE
  5
1F82
330
1F
100
AcDbEntity
  8
AM_7
100
AcDbLine
 10
360.1148621994194
 20
267.5365362788135
 30
0.0
 11
360.1148621994194
 21
271.5945159365233
 31
0.0
  0
LINE
  5
1F83
330
1F
100
AcDbEntity
  8
0
100
AcDbLine
 10
363.5648621994194
 20
282.671013223165
 30
0.0
 11
363.5648621994194
 21
256.671013223165
 31
0.0
  0
LINE
  5
1F84
330
1F
100
AcDbEntity
  8
0
100
AcDbLine
 10
363.0648621994194
 20
267.6210132231649
 30
0.0
 11
363.5648621994194
 21
267.921013223165
 31
0.0
  0
LINE
  5
1F85
330
1F
100
AcDbEntity
  8
0
100
AcDbLine
 10
363.5648621994194
 20
256.671013223165
 30
0.0
 11
363.0648621994194
 21
256.171013223165
 31
0.0
  0
POINT
  5
1F86
330
1F
100
AcDbEntity
  8
0
  6
ByBlock
100
AcDbPoint
 10
363.5648621994194
 20
256.671013223165
 30
0.0
  0
POINT
  5
1F87
330
1F
100
AcDbEntity
  8
0
  6
ByBlock
100
AcDbPoint
 10
363.0648621994194
 20
256.171013223165
 30
0.0
  0
LINE
  5
1F88
330
1F
100
AcDbEntity
  8
0
100
AcDbLine
 10
363.0648621994194
 20
256.171013223165
 30
0.0
 11
363.0648621994194
 21
267.6210132231649
 31
0.0
  0
LINE
  5
1F89
330
1F
100
AcDbEntity
  8
0
100
AcDbLine
 10
360.9839105372903
 20
270.893614951629
 30
0.0
 11
358.8922604709551
 21
268.8019648852939
 31
0.0
  0
LINE
  5
1F8A
330
1F
100
AcDbEntity
  8
0
100
AcDbLine
 10
363.0648621994194
 20
283.171013223165
 30
0.0
 11
363.5648621994194
 21
282.671013223165
 31
0.0
  0
LINE
  5
1F8B
330
1F
100
AcDbEntity
  8
0
100
AcDbLine
 10
363.0648621994194
 20
271.7210132231647
 30
0.0
 11
363.5648621994194
 21
271.4210132231646
 31
0.0
  0
LINE
  5
1F8C
330
1F
100
AcDbEntity
  8
0
100
AcDbLine
 10
363.0648621994194
 20
271.7210132231647
 30
0.0
 11
363.0648621994194
 21
283.171013223165
 31
0.0
  0
LINE
  5
1F8D
330
1F
100
AcDbEntity
  8
0
100
AcDbLine
 10
363.0648621994194
 20
175.2954268390648
 30
0.0
 11
363.0648621994194
 21
202.2954268390648
 31
0.0
  0
LINE
  5
1F8E
102
{ACAD_REACTORS
330
2064
330
2067
330
206A
330
2070
102
}
330
1F
100
AcDbEntity
  8
0
100
AcDbLine
 10
363.5648621994194
 20
175.7954268390648
 30
0.0
 11
363.5648621994194
 21
201.7954268390648
 31
0.0
  0
LINE
  5
1F8F
330
1F
100
AcDbEntity
  8
0
100
AcDbLine
 10
363.0648621994194
 20
175.2954268390648
 30
0.0
 11
363.5648621994194
 21
175.7954268390648
 31
0.0
  0
CIRCLE
  5
1F90
330
1F
100
AcDbEntity
  8
0
100
AcDbCircle
 10
358.0648621994194
 20
188.7954268390643
 30
0.0
 40
2.1
  0
LINE
  5
1F91
102
{ACAD_REACTORS
330
2064
102
}
330
1F
100
AcDbEntity
  8
AM_7
100
AcDbLine
 10
358.0648621994195
 20
193.5479693280991
 30
0.0
 11
358.0648621994194
 21
184.3081159076554
 31
0.0
  0
LINE
  5
1F92
330
1F
100
AcDbEntity
  8
0
100
AcDbLine
 10
363.0648621994194
 20
202.2954268390648
 30
0.0
 11
363.5648621994194
 21
201.7954268390648
 31
0.0
  0
LINE
  5
1F93
330
1F
100
AcDbEntity
  8
0
100
AcDbLine
 10
423.4421137081068
 20
211.5454268390642
 30
0.0
 11
433.4421137081063
 21
211.5454268390645
 31
0.0
  0
ARC
  5
1F94
330
1F
100
AcDbEntity
  8
0
  6
Continuous
100
AcDbCircle
 10
420.6921137081057
 20
207.8377294296769
 30
0.0
 40
3.5
100
AcDbArc
 50
270.0
 51
0.0
  0
LINE
  5
1F95
330
1F
100
AcDbEntity
  8
0
  6
Continuous
100
AcDbLine
 10
439.1421137081059
 20
211.1372792820294
 30
0.0
 11
417.7421137081059
 21
211.1372792820294
 31
0.0
1001
ACAD
1000
ASC_BOUNDS
1002
{
1070
    19
1005
0
1005
0
1005
0
1005
0
1005
0
1002
}
  0
LINE
  5
1F96
102
{ACAD_REACTORS
330
207F
102
}
330
1F
100
AcDbEntity
  8
0
100
AcDbLine
 10
417.3421137081061
 20
202.2954268390646
 30
0.0
 11
428.4421137081061
 21
202.2954268390646
 31
0.0
  0
LINE
  5
1F97
102
{ACAD_REACTORS
330
207F
330
2082
330
2088
102
}
330
1F
100
AcDbEntity
  8
0
100
AcDbLine
 10
440.9153721522819
 20
175.2954268390646
 30
0.0
 11
415.9688552639303
 21
175.2954268390646
 31
0.0
  0
LINE
  5
1F98
102
{ACAD_REACTORS
330
2076
102
}
330
1F
100
AcDbEntity
  8
AM_7
100
AcDbLine
 10
419.4421137081061
 20
175.6293882385433
 30
0.0
 11
419.4421137081061
 21
184.1347360384203
 31
0.0
  0
CIRCLE
  5
1F99
330
1F
100
AcDbEntity
  8
0
100
AcDbCircle
 10
419.442113708106
 20
179.7954268390646
 30
0.0
 40
3.399999999999999
  0
CIRCLE
  5
1F9A
330
1F
100
AcDbEntity
  8
0
100
AcDbCircle
 10
419.442113708106
 20
179.7954268390646
 30
0.0
 40
3.6
  0
CIRCLE
  5
1F9B
330
1F
100
AcDbEntity
  8
0
  6
Continuous
100
AcDbCircle
 10
419.442113708106
 20
179.7954268390646
 30
0.0
 40
3.75
  0
LINE
  5
1F9C
102
{ACAD_REACTORS
330
2079
102
}
330
1F
100
AcDbEntity
  8
0
100
AcDbLine
 10
414.9421137081061
 20
177.6954268390646
 30
0.0
 11
414.9421137081061
 21
188.7954268390646
 31
0.0
  0
ARC
  5
1F9D
102
{ACAD_REACTORS
330
207F
330
2082
102
}
330
1F
100
AcDbEntity
  8
0
100
AcDbCircle
 10
415.9688552639302
 20
175.7954268390646
 30
0.0
 40
0.5
100
AcDbArc
 50
195.0000000000011
 51
270.0
  0
LINE
  5
1F9E
102
{ACAD_REACTORS
330
207C
102
}
330
1F
100
AcDbEntity
  8
AM_7
100
AcDbLine
 10
415.3713650900848
 20
179.7954268390646
 30
0.0
 11
423.5772031252039
 21
179.7954268390646
 31
0.0
1001
ACAD
1000
ASC_BOUNDS
1002
{
1070
    19
1002
}
  0
LINE
  5
1F9F
330
1F
100
AcDbEntity
  8
0
100
AcDbLine
 10
415.4858923507857
 20
175.6660173165134
 30
0.0
 11
414.9421137081061
 21
177.6954268390646
 31
0.0
  0
CIRCLE
  5
1FA0
330
1F
100
AcDbEntity
  8
0
100
AcDbCircle
 10
419.442113708106
 20
179.7954268390646
 30
0.0
 40
1.199999999999988
  0
ARC
  5
1FA1
330
1F
100
AcDbEntity
  8
AM_4
  6
Continuous
 48
2.5
100
AcDbCircle
 10
419.442113708106
 20
179.7954268390646
 30
0.0
 40
1.500000000000056
100
AcDbArc
 50
170.4059317731416
 51
80.40593177313521
  0
LWPOLYLINE
  5
1FA2
330
1F
100
AcDbEntity
  8
0
100
AcDbPolyline
 90
        6
 70
     1
 43
0.0
 10
417.642113708106
 20
179.7954268390646
 10
418.5421137081061
 20
178.2365811122526
 10
420.3421137081059
 20
178.2365811122526
 10
421.2421137081061
 20
179.7954268390646
 10
420.3421137081061
 20
181.3542725658766
 10
418.5421137081061
 20
181.3542725658766
  0
CIRCLE
  5
1FA3
330
1F
100
AcDbEntity
  8
0
100
AcDbCircle
 10
419.442113708106
 20
179.7954268390646
 30
0.0
 40
1.540149319223189
  0
LINE
  5
1FA4
330
1F
100
AcDbEntity
  8
0
100
AcDbLine
 10
415.4492933850786
 20
201.7882471620922
 30
0.0
 11
417.3421137081061
 21
202.2954268390646
 31
0.0
  0
CIRCLE
  5
1FA5
330
1F
100
AcDbEntity
  8
0
100
AcDbCircle
 10
419.442113708106
 20
197.7954268390646
 30
0.0
 40
3.6
  0
CIRCLE
  5
1FA6
330
1F
100
AcDbEntity
  8
0
  6
Continuous
100
AcDbCircle
 10
419.442113708106
 20
197.7954268390646
 30
0.0
 40
3.75
  0
LINE
  5
1FA7
102
{ACAD_REACTORS
330
207C
102
}
330
1F
100
AcDbEntity
  8
AM_7
100
AcDbLine
 10
415.3713650900848
 20
197.7954268390646
 30
0.0
 11
423.5772031252039
 21
197.7954268390646
 31
0.0
1001
ACAD
1000
ASC_BOUNDS
1002
{
1070
    19
1002
}
  0
LINE
  5
1FA8
330
1F
100
AcDbEntity
  8
0
100
AcDbLine
 10
414.9421137081061
 20
199.8954268390647
 30
0.0
 11
415.4492933850786
 21
201.7882471620922
 31
0.0
  0
LINE
  5
1FA9
330
1F
100
AcDbEntity
  8
0
100
AcDbLine
 10
414.9421137081061
 20
188.7954268390646
 30
0.0
 11
414.9421137081061
 21
199.8954268390647
 31
0.0
  0
LINE
  5
1FAA
330
1F
100
AcDbEntity
  8
AM_7
100
AcDbLine
 10
419.4421137081061
 20
193.6293882385433
 30
0.0
 11
419.4421137081061
 21
202.1347360384203
 31
0.0
  0
CIRCLE
  5
1FAB
330
1F
100
AcDbEntity
  8
0
100
AcDbCircle
 10
419.442113708106
 20
197.7954268390646
 30
0.0
 40
3.399999999999999
  0
CIRCLE
  5
1FAC
330
1F
100
AcDbEntity
  8
0
100
AcDbCircle
 10
419.442113708106
 20
197.7954268390646
 30
0.0
 40
1.199999999999988
  0
ARC
  5
1FAD
330
1F
100
AcDbEntity
  8
AM_4
  6
Continuous
 48
2.5
100
AcDbCircle
 10
419.442113708106
 20
197.7954268390646
 30
0.0
 40
1.500000000000056
100
AcDbArc
 50
170.4059317731416
 51
80.40593177313521
  0
LWPOLYLINE
  5
1FAE
330
1F
100
AcDbEntity
  8
0
100
AcDbPolyline
 90
        6
 70
     1
 43
0.0
 10
417.642113708106
 20
197.7954268390646
 10
418.5421137081061
 20
196.2365811122525
 10
420.3421137081059
 20
196.2365811122525
 10
421.2421137081061
 20
197.7954268390646
 10
420.3421137081061
 20
199.3542725658766
 10
418.5421137081061
 20
199.3542725658766
  0
CIRCLE
  5
1FAF
330
1F
100
AcDbEntity
  8
0
100
AcDbCircle
 10
419.442113708106
 20
197.7954268390646
 30
0.0
 40
1.540149319223189
  0
ARC
  5
1FB0
330
1F
100
AcDbEntity
  8
0
  6
Continuous
100
AcDbCircle
 10
420.6921137081057
 20
207.5877294296769
 30
0.0
 40
1.75
100
AcDbArc
 50
180.0
 51
0.0
  0
LINE
  5
1FB1
330
1F
100
AcDbEntity
  8
0
  6
MITTE
 48
0.1
100
AcDbLine
 10
418.7663331043039
 20
208.0877294296769
 30
0.0
 11
422.5676020411091
 21
208.0877294296769
 31
0.0
1001
ACAD
1000
ASC_BOUNDS
1002
{
1070
    19
1002
}
  0
LINE
  5
1FB2
330
1F
100
AcDbEntity
  8
0
  6
MITTE
 48
0.1
100
AcDbLine
 10
418.7357594848643
 20
207.5877294296769
 30
0.0
 11
422.5981756605477
 21
207.5877294296769
 31
0.0
1001
ACAD
1000
ASC_BOUNDS
1002
{
1070
    19
1002
}
  0
ARC
  5
1FB3
330
1F
100
AcDbEntity
  8
0
  6
Continuous
100
AcDbCircle
 10
420.6921137081061
 20
207.5877294296769
 30
0.0
 40
1.999999999999957
100
AcDbArc
 50
180.0
 51
0.0
  0
ARC
  5
1FB4
330
1F
100
AcDbEntity
  8
0
  6
Continuous
100
AcDbCircle
 10
420.6921137081057
 20
208.0877294296769
 30
0.0
 40
1.75
100
AcDbArc
 50
0.0
 51
180.0
  0
ARC
  5
1FB5
330
1F
100
AcDbEntity
  8
0
  6
Continuous
100
AcDbCircle
 10
420.6921137081061
 20
208.0877294296769
 30
0.0
 40
1.999999999999957
100
AcDbArc
 50
0.0
 51
180.0
  0
LINE
  5
1FB6
330
1F
100
AcDbEntity
  8
AM_7
100
AcDbLine
 10
417.6921137081056
 20
207.8377294296769
 30
0.0
 11
424.1921137081057
 21
207.8377294296769
 31
0.0
1001
ACAD
1000
ASC_BOUNDS
1002
{
1070
    19
1002
}
  0
LINE
  5
1FB7
102
{ACAD_REACTORS
330
2082
102
}
330
1F
100
AcDbEntity
  8
0
  6
Continuous
100
AcDbLine
 10
423.2811003957186
 20
211.7954268390645
 30
0.0
 11
417.8421137081066
 21
211.7954268390647
 31
0.0
1001
ACAD
1000
ASC_BOUNDS
1002
{
1070
    19
1002
}
  0
LINE
  5
1FB8
330
1F
100
AcDbEntity
  8
0
  6
Continuous
100
AcDbLine
 10
420.6921137081057
 20
204.3377294296769
 30
0.0
 11
417.7421137081059
 21
204.3377294296769
 31
0.0
  0
LINE
  5
1FB9
330
1F
100
AcDbEntity
  8
0
  6
Continuous
100
AcDbLine
 10
417.4421137081066
 20
211.3954268390646
 30
0.0
 11
417.4421137081067
 21
210.2744550343189
 31
0.0
1001
ACAD
1000
ASC_BOUNDS
1002
{
1070
    19
1005
0
1005
0
1005
0
1005
0
1005
0
1002
}
  0
LINE
  5
1FBA
330
1F
100
AcDbEntity
  8
0
  6
Continuous
100
AcDbLine
 10
417.5079116937742
 20
210.1804857722403
 30
0.0
 11
417.6263157224394
 21
210.1373902301891
 31
0.0
  0
ARC
  5
1FBB
330
1F
100
AcDbEntity
  8
0
  6
Continuous
100
AcDbCircle
 10
417.592113708107
 20
210.0434209681105
 30
0.0
 40
0.1
100
AcDbArc
 50
359.9999999999935
 51
70.00000000001688
1001
ACAD
1000
ASC_BOUNDS
1002
{
1070
    19
1005
0
1005
0
1005
0
1005
0
1005
0
1002
}
  0
ARC
  5
1FBC
330
1F
100
AcDbEntity
  8
0
  6
Continuous
100
AcDbCircle
 10
417.5421137081068
 20
210.274455034319
 30
0.0
 40
0.1
100
AcDbArc
 50
180.0000000000065
 51
250.0000000000108
1001
ACAD
1000
ASC_BOUNDS
1002
{
1070
    19
1005
0
1005
0
1005
0
1005
0
1005
0
1002
}
  0
LINE
  5
1FBD
102
{ACAD_REACTORS
330
2082
330
2085
102
}
330
1F
100
AcDbEntity
  8
0
  6
Continuous
100
AcDbLine
 10
417.8421137081066
 20
211.7954268390645
 30
0.0
 11
417.4421137081066
 21
211.3954268390646
 31
0.0
1001
ACAD
1000
ASC_BOUNDS
1002
{
1070
    19
1005
0
1005
0
1005
0
1005
0
1005
0
1002
}
  0
ARC
  5
1FBE
330
1F
100
AcDbEntity
  8
0
  6
Continuous
100
AcDbCircle
 10
417.9421137081057
 20
203.5563157778536
 30
0.0
 40
0.2
100
AcDbArc
 50
180.0
 51
229.9999999999953
1001
ACAD
1000
ASC_BOUNDS
1002
{
1070
    19
1005
0
1005
0
1005
0
1005
0
1005
0
1002
}
  0
LINE
  5
1FBF
330
1F
100
AcDbEntity
  8
0
  6
Continuous
100
AcDbLine
 10
417.5079116937744
 20
205.2654566941151
 30
0.0
 11
417.6263157224392
 21
205.3085522361665
 31
0.0
  0
ARC
  5
1FC0
330
1F
100
AcDbEntity
  8
0
  6
Continuous
100
AcDbCircle
 10
417.5921137081066
 20
205.4025214982452
 30
0.0
 40
0.1
100
AcDbArc
 50
290.0000000000521
 51
359.9999999999935
1001
ACAD
1000
ASC_BOUNDS
1002
{
1070
    19
1005
0
1005
0
1005
0
1005
0
1005
0
1002
}
  0
LINE
  5
1FC1
330
1F
100
AcDbEntity
  8
0
  6
Continuous
100
AcDbLine
 10
417.4421137081067
 20
205.1714874320367
 30
0.0
 11
417.442113708107
 21
203.6505156272911
 31
0.0
1001
ACAD
1000
ASC_BOUNDS
1002
{
1070
    19
1002
}
  0
ARC
  5
1FC2
330
1F
100
AcDbEntity
  8
0
  6
Continuous
100
AcDbCircle
 10
417.542113708107
 20
205.1714874320367
 30
0.0
 40
0.1
100
AcDbArc
 50
110.0000000000243
 51
180.0
1001
ACAD
1000
ASC_BOUNDS
1002
{
1070
    19
1002
}
  0
LINE
  5
1FC3
330
1F
100
AcDbEntity
  8
0
  6
Continuous
100
AcDbLine
 10
417.7421137081059
 20
211.1372792820294
 30
0.0
 11
417.7421137081059
 21
203.5563157778536
 31
0.0
1001
ACAD
1000
ASC_BOUNDS
1002
{
1070
    19
1005
0
1005
0
1005
0
1005
0
1005
0
1002
}
  0
LINE
  5
1FC4
330
1F
100
AcDbEntity
  8
0
  6
Continuous
100
AcDbLine
 10
417.6921137081068
 20
210.0434209681105
 30
0.0
 11
417.6921137081065
 21
205.4025214982451
 31
0.0
1001
ACAD
1000
ASC_BOUNDS
1002
{
1070
    19
1005
0
1005
0
1005
0
1005
0
1005
0
1002
}
  0
LINE
  5
1FC5
330
1F
100
AcDbEntity
  8
0
  6
Continuous
100
AcDbLine
 10
417.6921137081068
 20
209.9734002142894
 30
0.0
 11
417.6921137081065
 21
205.472542252066
 31
0.0
1001
ACAD
1000
ASC_BOUNDS
1002
{
1070
    19
1005
0
1005
0
1005
0
1005
0
1005
0
1002
}
  0
LINE
  5
1FC6
330
1F
100
AcDbEntity
  8
0
  6
Continuous
100
AcDbLine
 10
418.9421137081057
 20
207.5877294296769
 30
0.0
 11
418.9421137081057
 21
208.0877294296769
 31
0.0
  0
LINE
  5
1FC7
330
1F
100
AcDbEntity
  8
0
  6
Continuous
100
AcDbLine
 10
418.6921137081061
 20
207.5877294296769
 30
0.0
 11
418.6921137081061
 21
208.0877294296769
 31
0.0
  0
ARC
  5
1FC8
330
1F
100
AcDbEntity
  8
0
  6
Continuous
100
AcDbCircle
 10
418.792113708106
 20
202.1903774466865
 30
0.0
 40
0.3
100
AcDbArc
 50
20.49738563747176
 51
49.99999999999531
  0
LINE
  5
1FC9
330
1F
100
AcDbEntity
  8
0
100
AcDbLine
 10
418.9421137081065
 20
202.3918661805251
 30
0.0
 11
419.0143799676601
 21
202.3918661805251
 31
0.0
  0
LINE
  5
1FCA
330
1F
100
AcDbEntity
  8
0
  6
Continuous
100
AcDbLine
 10
418.9849499910122
 20
202.4201907796222
 30
0.0
 11
417.8135561861685
 21
203.4031068892298
 31
0.0
  0
LINE
  5
1FCB
330
1F
100
AcDbEntity
  8
0
100
AcDbLine
 10
418.9421137081068
 20
202.3918661805251
 30
0.0
 11
417.442113708107
 21
203.6505156272911
 31
0.0
  0
ARC
  5
1FCC
330
1F
100
AcDbEntity
  8
0
100
AcDbCircle
 10
423.5121344619273
 20
211.6454268390643
 30
0.0
 40
0.1
100
AcDbArc
 50
200.0000000000104
 51
270.0
  0
ARC
  5
1FCD
330
1F
100
AcDbEntity
  8
0
100
AcDbCircle
 10
423.2811003957188
 20
211.6954268390645
 30
0.0
 40
0.1
100
AcDbArc
 50
20.00000000000371
 51
90.0
  0
LINE
  5
1FCE
330
1F
100
AcDbEntity
  8
0
  6
Continuous
100
AcDbLine
 10
423.4421137081068
 20
211.5454268390642
 30
0.0
 11
423.3750696577973
 21
211.7296288533971
 31
0.0
  0
LINE
  5
1FCF
330
1F
100
AcDbEntity
  8
0
  6
Continuous
100
AcDbLine
 10
422.4421137081057
 20
207.5877294296769
 30
0.0
 11
422.4421137081057
 21
208.0877294296769
 31
0.0
  0
LINE
  5
1FD0
330
1F
100
AcDbEntity
  8
0
  6
Continuous
100
AcDbLine
 10
422.6921137081056
 20
207.5877294296769
 30
0.0
 11
422.6921137081056
 21
208.0877294296769
 31
0.0
  0
LINE
  5
1FD1
330
1F
100
AcDbEntity
  8
0
  6
Continuous
100
AcDbLine
 10
424.1921137081057
 20
207.8377294296769
 30
0.0
 11
424.1921137081057
 21
211.1372792820294
 31
0.0
  0
LINE
  5
1FD2
330
1F
100
AcDbEntity
  8
AM_7
100
AcDbLine
 10
420.6921137081057
 20
204.3377294296769
 30
0.0
 11
420.6921137081057
 21
210.5026894998641
 31
0.0
  0
LINE
  5
1FD3
102
{ACAD_REACTORS
330
2076
102
}
330
1F
100
AcDbEntity
  8
AM_7
100
AcDbLine
 10
437.4421137081061
 20
175.6293882385433
 30
0.0
 11
437.4421137081061
 21
184.1347360384203
 31
0.0
  0
CIRCLE
  5
1FD4
330
1F
100
AcDbEntity
  8
0
100
AcDbCircle
 10
437.442113708106
 20
179.7954268390646
 30
0.0
 40
3.399999999999999
  0
CIRCLE
  5
1FD5
330
1F
100
AcDbEntity
  8
0
100
AcDbCircle
 10
437.442113708106
 20
179.7954268390646
 30
0.0
 40
3.6
  0
CIRCLE
  5
1FD6
330
1F
100
AcDbEntity
  8
0
  6
Continuous
100
AcDbCircle
 10
437.442113708106
 20
179.7954268390646
 30
0.0
 40
3.75
  0
LINE
  5
1FD7
330
1F
100
AcDbEntity
  8
AM_7
100
AcDbLine
 10
428.4421137081061
 20
213.2977326612931
 30
0.0
 11
428.442113708106
 21
173.5576191939509
 31
0.0
1001
ACAD
1000
ASC_BOUNDS
1002
{
1070
    19
1005
0
1005
0
1005
0
1005
0
1005
0
1002
}
  0
ARC
  5
1FD8
330
1F
100
AcDbEntity
  8
AM_4
  6
Continuous
 48
2.5
100
AcDbCircle
 10
437.442113708106
 20
179.7954268390646
 30
0.0
 40
1.500000000000056
100
AcDbArc
 50
170.4059317731416
 51
80.40593177313521
  0
LWPOLYLINE
  5
1FD9
330
1F
100
AcDbEntity
  8
0
100
AcDbPolyline
 90
        6
 70
     1
 43
0.0
 10
435.6421137081061
 20
179.7954268390646
 10
436.542113708106
 20
178.2365811122526
 10
438.342113708106
 20
178.2365811122526
 10
439.242113708106
 20
179.7954268390646
 10
438.3421137081061
 20
181.3542725658766
 10
436.542113708106
 20
181.3542725658766
  0
CIRCLE
  5
1FDA
330
1F
100
AcDbEntity
  8
0
100
AcDbCircle
 10
437.442113708106
 20
179.7954268390646
 30
0.0
 40
1.540149319223189
  0
CIRCLE
  5
1FDB
330
1F
100
AcDbEntity
  8
0
100
AcDbCircle
 10
437.442113708106
 20
179.7954268390646
 30
0.0
 40
1.199999999999988
  0
ARC
  5
1FDC
330
1F
100
AcDbEntity
  8
0
  6
Continuous
100
AcDbCircle
 10
436.1921137081061
 20
207.8377294296769
 30
0.0
 40
3.5
100
AcDbArc
 50
180.0
 51
270.0
  0
LINE
  5
1FDD
330
1F
100
AcDbEntity
  8
0
100
AcDbLine
 10
428.4421137081061
 20
202.2954268390646
 30
0.0
 11
439.542113708106
 21
202.2954268390646
 31
0.0
  0
LINE
  5
1FDE
330
1F
100
AcDbEntity
  8
AM_7
100
AcDbLine
 10
439.1921137081062
 20
207.8377294296769
 30
0.0
 11
432.6921137081061
 21
207.8377294296769
 31
0.0
1001
ACAD
1000
ASC_BOUNDS
1002
{
1070
    19
1002
}
  0
LINE
  5
1FDF
330
1F
100
AcDbEntity
  8
0
100
AcDbLine
 10
424.942113708106
 20
197.3954268390647
 30
0.0
 11
424.942113708106
 21
200.5454268390648
 31
0.0
  0
LINE
  5
1FE0
330
1F
100
AcDbEntity
  8
0
100
AcDbLine
 10
431.9421137081061
 20
200.5454268390648
 30
0.0
 11
431.942113708106
 21
197.3954268390647
 31
0.0
  0
LINE
  5
1FE1
330
1F
100
AcDbEntity
  8
0
100
AcDbLine
 10
428.4421137081061
 20
198.6954268390647
 30
0.0
 11
431.942113708106
 21
198.6954268390648
 31
0.0
  0
LINE
  5
1FE2
330
1F
100
AcDbEntity
  8
0
100
AcDbLine
 10
429.942113708106
 20
196.9954268390648
 30
0.0
 11
426.942113708106
 21
196.9954268390648
 31
0.0
  0
CIRCLE
  5
1FE3
330
1F
100
AcDbEntity
  8
0
100
AcDbCircle
 10
428.442113708106
 20
188.7954268390646
 30
0.0
 40
2.1
  0
CIRCLE
  5
1FE5
330
1F
100
AcDbEntity
  8
0
100
AcDbCircle
 10
428.442113708106
 20
188.7954268390646
 30
0.0
 40
3.9
  0
LINE
  5
1FE6
330
1F
100
AcDbEntity
  8
0
100
AcDbLine
 10
426.942113708106
 20
196.9954268390648
 30
0.0
 11
426.942113708106
 21
197.3954268390647
 31
0.0
  0
LINE
  5
1FE7
330
1F
100
AcDbEntity
  8
0
100
AcDbLine
 10
426.942113708106
 20
197.3954268390647
 30
0.0
 11
424.942113708106
 21
197.3954268390647
 31
0.0
  0
LINE
  5
1FE8
330
1F
100
AcDbEntity
  8
0
100
AcDbLine
 10
424.942113708106
 20
198.6954268390647
 30
0.0
 11
428.4421137081061
 21
198.6954268390648
 31
0.0
  0
LINE
  5
1FE9
330
1F
100
AcDbEntity
  8
0
100
AcDbLine
 10
429.942113708106
 20
197.3954268390647
 30
0.0
 11
429.942113708106
 21
196.9954268390648
 31
0.0
  0
LINE
  5
1FEA
330
1F
100
AcDbEntity
  8
0
100
AcDbLine
 10
431.942113708106
 20
197.3954268390647
 30
0.0
 11
429.942113708106
 21
197.3954268390647
 31
0.0
  0
LINE
  5
1FEB
330
1F
100
AcDbEntity
  8
0
100
AcDbLine
 10
428.4421137081061
 20
200.6954268390647
 30
0.0
 11
431.792113708106
 21
200.6954268390647
 31
0.0
  0
LINE
  5
1FEC
330
1F
100
AcDbEntity
  8
0
100
AcDbLine
 10
426.692113708106
 20
201.9954268390646
 30
0.0
 11
426.392113708106
 21
202.2954268390646
 31
0.0
  0
ARC
  5
1FED
330
1F
100
AcDbEntity
  8
0
100
AcDbCircle
 10
425.092113708106
 20
200.5454268390648
 30
0.0
 40
0.1500000000000057
100
AcDbArc
 50
90.0
 51
180.0
  0
LINE
  5
1FEE
330
1F
100
AcDbEntity
  8
0
100
AcDbLine
 10
425.092113708106
 20
200.6954268390647
 30
0.0
 11
428.4421137081061
 21
200.6954268390648
 31
0.0
  0
LINE
  5
1FEF
330
1F
100
AcDbEntity
  8
0
100
AcDbLine
 10
426.692113708106
 20
200.6954268390647
 30
0.0
 11
426.692113708106
 21
201.9954268390646
 31
0.0
  0
LINE
  5
1FF0
330
1F
100
AcDbEntity
  8
0
100
AcDbLine
 10
430.4921137081059
 20
202.2954268390648
 30
0.0
 11
430.192113708106
 21
201.9954268390646
 31
0.0
  0
LINE
  5
1FF1
330
1F
100
AcDbEntity
  8
0
  6
Continuous
100
AcDbLine
 10
432.6921137081061
 20
207.8377294296769
 30
0.0
 11
432.6921137081061
 21
211.1372792820294
 31
0.0
  0
ARC
  5
1FF2
330
1F
100
AcDbEntity
  8
0
100
AcDbCircle
 10
431.792113708106
 20
200.5454268390648
 30
0.0
 40
0.1500000000000057
100
AcDbArc
 50
0.0
 51
90.0
  0
LINE
  5
1FF3
330
1F
100
AcDbEntity
  8
0
100
AcDbLine
 10
430.192113708106
 20
201.9954268390646
 30
0.0
 11
430.192113708106
 21
200.6954268390647
 31
0.0
  0
CIRCLE
  5
1FF4
330
1F
100
AcDbEntity
  8
0
100
AcDbCircle
 10
437.442113708106
 20
197.7954268390646
 30
0.0
 40
3.399999999999999
  0
CIRCLE
  5
1FF5
330
1F
100
AcDbEntity
  8
0
100
AcDbCircle
 10
437.442113708106
 20
197.7954268390646
 30
0.0
 40
3.6
  0
CIRCLE
  5
1FF6
330
1F
100
AcDbEntity
  8
0
  6
Continuous
100
AcDbCircle
 10
437.442113708106
 20
197.7954268390646
 30
0.0
 40
3.75
  0
LINE
  5
1FF7
330
1F
100
AcDbEntity
  8
AM_7
100
AcDbLine
 10
437.4421137081061
 20
193.6293882385433
 30
0.0
 11
437.4421137081061
 21
202.1347360384203
 31
0.0
  0
ARC
  5
1FF8
330
1F
100
AcDbEntity
  8
AM_4
  6
Continuous
 48
2.5
100
AcDbCircle
 10
437.442113708106
 20
197.7954268390646
 30
0.0
 40
1.500000000000056
100
AcDbArc
 50
170.4059317731416
 51
80.40593177313521
  0
LWPOLYLINE
  5
1FF9
330
1F
100
AcDbEntity
  8
0
100
AcDbPolyline
 90
        6
 70
     1
 43
0.0
 10
435.6421137081061
 20
197.7954268390646
 10
436.542113708106
 20
196.2365811122525
 10
438.342113708106
 20
196.2365811122525
 10
439.242113708106
 20
197.7954268390646
 10
438.3421137081061
 20
199.3542725658766
 10
436.542113708106
 20
199.3542725658766
  0
CIRCLE
  5
1FFA
330
1F
100
AcDbEntity
  8
0
100
AcDbCircle
 10
437.442113708106
 20
197.7954268390646
 30
0.0
 40
1.540149319223189
  0
CIRCLE
  5
1FFB
330
1F
100
AcDbEntity
  8
0
100
AcDbCircle
 10
437.442113708106
 20
197.7954268390646
 30
0.0
 40
1.199999999999988
  0
ARC
  5
1FFC
330
1F
100
AcDbEntity
  8
0
  6
Continuous
100
AcDbCircle
 10
436.1921137081061
 20
207.5877294296769
 30
0.0
 40
1.75
100
AcDbArc
 50
180.0
 51
0.0
  0
ARC
  5
1FFD
330
1F
100
AcDbEntity
  8
0
  6
Continuous
100
AcDbCircle
 10
436.1921137081061
 20
207.5877294296769
 30
0.0
 40
1.999999999999957
100
AcDbArc
 50
180.0
 51
0.0
  0
LINE
  5
1FFE
330
1F
100
AcDbEntity
  8
0
  6
Continuous
100
AcDbLine
 10
436.1921137081061
 20
204.3377294296769
 30
0.0
 11
439.1421137081059
 21
204.3377294296769
 31
0.0
  0
ARC
  5
1FFF
330
1F
100
AcDbEntity
  8
0
  6
Continuous
100
AcDbCircle
 10
436.1921137081061
 20
208.0877294296769
 30
0.0
 40
1.75
100
AcDbArc
 50
0.0
 51
180.0
  0
LINE
  5
2000
330
1F
100
AcDbEntity
  8
0
  6
MITTE
 48
0.1
100
AcDbLine
 10
438.1178943119079
 20
208.0877294296769
 30
0.0
 11
434.3166253751027
 21
208.0877294296769
 31
0.0
1001
ACAD
1000
ASC_BOUNDS
1002
{
1070
    19
1002
}
  0
LINE
  5
2001
330
1F
100
AcDbEntity
  8
0
  6
MITTE
 48
0.1
100
AcDbLine
 10
438.1484679313474
 20
207.5877294296769
 30
0.0
 11
434.2860517556641
 21
207.5877294296769
 31
0.0
1001
ACAD
1000
ASC_BOUNDS
1002
{
1070
    19
1002
}
  0
ARC
  5
2002
330
1F
100
AcDbEntity
  8
0
  6
Continuous
100
AcDbCircle
 10
436.1921137081061
 20
208.0877294296769
 30
0.0
 40
1.999999999999957
100
AcDbArc
 50
0.0
 51
180.0
  0
LINE
  5
2003
330
1F
100
AcDbEntity
  8
0
  6
Continuous
100
AcDbLine
 10
439.0421137081067
 20
211.7954268390645
 30
0.0
 11
433.603127020494
 21
211.7954268390647
 31
0.0
1001
ACAD
1000
ASC_BOUNDS
1002
{
1070
    19
1005
0
1005
0
1005
0
1005
0
1005
0
1002
}
  0
ARC
  5
2004
330
1F
100
AcDbEntity
  8
0
100
AcDbCircle
 10
433.3720929542858
 20
211.6454268390644
 30
0.0
 40
0.1
100
AcDbArc
 50
270.0
 51
339.9999999999963
  0
ARC
  5
2005
330
1F
100
AcDbEntity
  8
0
100
AcDbCircle
 10
433.6031270204942
 20
211.6954268390645
 30
0.0
 40
0.1
100
AcDbArc
 50
90.0
 51
159.9999999999963
1001
ACAD
1000
ASC_BOUNDS
1002
{
1070
    19
1005
0
1005
0
1005
0
1005
0
1005
0
1002
}
  0
LINE
  5
2006
330
1F
100
AcDbEntity
  8
0
  6
Continuous
100
AcDbLine
 10
433.4421137081063
 20
211.5454268390645
 30
0.0
 11
433.5091577584154
 21
211.7296288533971
 31
0.0
  0
LINE
  5
2007
330
1F
100
AcDbEntity
  8
0
  6
Continuous
100
AcDbLine
 10
434.4421137081061
 20
207.5877294296769
 30
0.0
 11
434.4421137081061
 21
208.0877294296769
 31
0.0
  0
LINE
  5
2008
330
1F
100
AcDbEntity
  8
0
  6
Continuous
100
AcDbLine
 10
434.1921137081061
 20
207.5877294296769
 30
0.0
 11
434.1921137081061
 21
208.0877294296769
 31
0.0
  0
LINE
  5
2009
330
1F
100
AcDbEntity
  8
AM_7
100
AcDbLine
 10
436.1921137081061
 20
204.3377294296769
 30
0.0
 11
436.1921137081061
 21
210.5026894998641
 31
0.0
  0
LINE
  5
200A
330
1F
100
AcDbEntity
  8
0
  6
Continuous
100
AcDbLine
 10
439.4421137081068
 20
211.3954268390646
 30
0.0
 11
439.4421137081065
 21
210.2744550343189
 31
0.0
1001
ACAD
1000
ASC_BOUNDS
1002
{
1070
    19
1005
0
1005
0
1005
0
1005
0
1005
0
1002
}
  0
LINE
  5
200B
330
1F
100
AcDbEntity
  8
0
  6
Continuous
100
AcDbLine
 10
439.3763157224392
 20
210.1804857722403
 30
0.0
 11
439.2579116937739
 21
210.1373902301891
 31
0.0
  0
ARC
  5
200C
330
1F
100
AcDbEntity
  8
0
  6
Continuous
100
AcDbCircle
 10
439.3421137081068
 20
210.2744550343189
 30
0.0
 40
0.1
100
AcDbArc
 50
289.9999999999892
 51
359.9999999999935
1001
ACAD
1000
ASC_BOUNDS
1002
{
1070
    19
1005
0
1005
0
1005
0
1005
0
1005
0
1002
}
  0
ARC
  5
200D
330
1F
100
AcDbEntity
  8
0
  6
Continuous
100
AcDbCircle
 10
439.2921137081066
 20
210.0434209681103
 30
0.0
 40
0.1
100
AcDbArc
 50
109.9999999999831
 51
180.0
1001
ACAD
1000
ASC_BOUNDS
1002
{
1070
    19
1005
0
1005
0
1005
0
1005
0
1005
0
1002
}
  0
LINE
  5
200E
102
{ACAD_REACTORS
330
2085
102
}
330
1F
100
AcDbEntity
  8
0
  6
Continuous
100
AcDbLine
 10
439.0421137081067
 20
211.7954268390645
 30
0.0
 11
439.4421137081068
 21
211.3954268390646
 31
0.0
1001
ACAD
1000
ASC_BOUNDS
1002
{
1070
    19
1005
0
1005
0
1005
0
1005
0
1005
0
1002
}
  0
LINE
  5
200F
330
1F
100
AcDbEntity
  8
0
  6
Continuous
100
AcDbLine
 10
437.9421137081061
 20
207.5877294296769
 30
0.0
 11
437.9421137081061
 21
208.0877294296769
 31
0.0
  0
LINE
  5
2010
330
1F
100
AcDbEntity
  8
0
  6
Continuous
100
AcDbLine
 10
438.1921137081056
 20
207.5877294296769
 30
0.0
 11
438.1921137081056
 21
208.0877294296769
 31
0.0
  0
ARC
  5
2011
330
1F
100
AcDbEntity
  8
0
  6
Continuous
100
AcDbCircle
 10
438.9421137081061
 20
203.5563157778536
 30
0.0
 40
0.2
100
AcDbArc
 50
310.0000000000047
 51
0.0
1001
ACAD
1000
ASC_BOUNDS
1002
{
1070
    19
1005
0
1005
0
1005
0
1005
0
1005
0
1002
}
  0
LINE
  5
2012
330
1F
100
AcDbEntity
  8
0
  6
Continuous
100
AcDbLine
 10
437.8992774251997
 20
202.4201907796222
 30
0.0
 11
439.0706712300433
 21
203.4031068892298
 31
0.0
  0
ARC
  5
2013
330
1F
100
AcDbEntity
  8
0
  6
Continuous
100
AcDbCircle
 10
438.0921137081058
 20
202.1903774466865
 30
0.0
 40
0.3
100
AcDbArc
 50
130.0000000000047
 51
159.5026143625282
  0
LINE
  5
2014
330
1F
100
AcDbEntity
  8
0
100
AcDbLine
 10
437.9421137081066
 20
202.3918661805251
 30
0.0
 11
439.4421137081064
 21
203.6505156272911
 31
0.0
  0
LINE
  5
2015
330
1F
100
AcDbEntity
  8
0
  6
Continuous
100
AcDbLine
 10
439.3763157224392
 20
205.2654566941151
 30
0.0
 11
439.2579116937741
 21
205.3085522361665
 31
0.0
  0
LINE
  5
2016
330
1F
100
AcDbEntity
  8
0
  6
Continuous
100
AcDbLine
 10
439.4421137081065
 20
205.1714874320367
 30
0.0
 11
439.4421137081064
 21
203.6505156272911
 31
0.0
1001
ACAD
1000
ASC_BOUNDS
1002
{
1070
    19
1002
}
  0
ARC
  5
2017
330
1F
100
AcDbEntity
  8
0
  6
Continuous
100
AcDbCircle
 10
439.3421137081065
 20
205.1714874320365
 30
0.0
 40
0.1
100
AcDbArc
 50
359.9999999999935
 51
69.99999999997569
1001
ACAD
1000
ASC_BOUNDS
1002
{
1070
    19
1002
}
  0
ARC
  5
2018
330
1F
100
AcDbEntity
  8
0
  6
Continuous
100
AcDbCircle
 10
439.2921137081071
 20
205.4025214982451
 30
0.0
 40
0.1
100
AcDbArc
 50
180.0
 51
249.9999999999479
1001
ACAD
1000
ASC_BOUNDS
1002
{
1070
    19
1005
0
1005
0
1005
0
1005
0
1005
0
1002
}
  0
LINE
  5
2019
330
1F
100
AcDbEntity
  8
0
100
AcDbLine
 10
437.9421137081066
 20
202.3918661805251
 30
0.0
 11
437.8698474485519
 21
202.3918661805251
 31
0.0
  0
LINE
  5
201A
330
1F
100
AcDbEntity
  8
0
  6
Continuous
100
AcDbLine
 10
439.1421137081059
 20
211.1372792820294
 30
0.0
 11
439.1421137081059
 21
203.5563157778536
 31
0.0
1001
ACAD
1000
ASC_BOUNDS
1002
{
1070
    19
1005
0
1005
0
1005
0
1005
0
1005
0
1002
}
  0
LINE
  5
201B
330
1F
100
AcDbEntity
  8
0
  6
Continuous
100
AcDbLine
 10
439.1921137081066
 20
210.0434209681105
 30
0.0
 11
439.1921137081068
 21
205.4025214982451
 31
0.0
1001
ACAD
1000
ASC_BOUNDS
1002
{
1070
    19
1005
0
1005
0
1005
0
1005
0
1005
0
1002
}
  0
LINE
  5
201C
330
1F
100
AcDbEntity
  8
0
  6
Continuous
100
AcDbLine
 10
439.1921137081066
 20
209.9734002142894
 30
0.0
 11
439.1921137081068
 21
205.472542252066
 31
0.0
1001
ACAD
1000
ASC_BOUNDS
1002
{
1070
    19
1005
0
1005
0
1005
0
1005
0
1005
0
1002
}
  0
LINE
  5
201D
330
1F
100
AcDbEntity
  8
0
100
AcDbLine
 10
363.0648621994194
 20
152.4083186307142
 30
0.0
 11
363.5648621994194
 21
151.9083186307142
 31
0.0
  0
LINE
  5
201E
330
1F
100
AcDbEntity
  8
0
100
AcDbLine
 10
363.0648621994194
 20
138.9083186307143
 30
0.0
 11
363.0648621994194
 21
152.4083186307142
 31
0.0
  0
LINE
  5
201F
330
1F
100
AcDbEntity
  8
0
100
AcDbLine
 10
363.0648621994194
 20
125.4083186307143
 30
0.0
 11
363.0648621994194
 21
138.9083186307143
 31
0.0
  0
LINE
  5
2020
102
{ACAD_REACTORS
330
208B
102
}
330
1F
100
AcDbEntity
  8
0
100
AcDbLine
 10
363.5648621994194
 20
151.9083186307142
 30
0.0
 11
363.5648621994194
 21
125.9083186307143
 31
0.0
  0
LINE
  5
2021
102
{ACAD_REACTORS
330
208B
102
}
330
1F
100
AcDbEntity
  8
AM_7
100
AcDbLine
 10
357.1648621994195
 20
143.6608611197489
 30
0.0
 11
357.1648621994194
 21
134.4210076993051
 31
0.0
  0
LINE
  5
2022
330
1F
100
AcDbEntity
  8
0
100
AcDbLine
 10
363.5648621994194
 20
125.9083186307143
 30
0.0
 11
363.0648621994194
 21
125.4083186307143
 31
0.0
  0
POINT
  5
2023
330
1F
100
AcDbEntity
  8
0
  6
ByBlock
100
AcDbPoint
 10
363.5648621994194
 20
125.9083186307143
 30
0.0
  0
POINT
  5
2024
330
1F
100
AcDbEntity
  8
0
  6
ByBlock
100
AcDbPoint
 10
363.0648621994194
 20
125.4083186307143
 30
0.0
  0
LINE
  5
2025
102
{ACAD_REACTORS
330
2079
102
}
330
1F
100
AcDbEntity
  8
0
100
AcDbLine
 10
441.9421137081061
 20
199.8954268390647
 30
0.0
 11
441.9421137081061
 21
177.6954268390646
 31
0.0
  0
LINE
  5
2026
330
1F
100
AcDbEntity
  8
0
100
AcDbLine
 10
441.4349340311336
 20
201.7882471620922
 30
0.0
 11
441.9421137081061
 21
199.8954268390647
 31
0.0
  0
LINE
  5
2027
330
1F
100
AcDbEntity
  8
AM_7
  6
AM_ISO08W050x2
100
AcDbLine
 10
280.5648621994194
 20
277.9210132231649
 30
0.0
 11
283.5648621994204
 21
277.9210132231649
 31
0.0
1001
GENIUS_GENOREF_13
1005
20B1
  0
LINE
  5
2028
102
{ACAD_REACTORS
330
2055
102
}
330
1F
100
AcDbEntity
  8
AM_7
  6
AM_ISO08W050x2
100
AcDbLine
 10
280.5648621994194
 20
277.9210132231649
 30
0.0
 11
280.5648621994194
 21
280.9210132231659
 31
0.0
1001
GENIUS_GENOREF_13
1005
20B1
  0
LINE
  5
2029
102
{ACAD_REACTORS
330
2061
102
}
330
1F
100
AcDbEntity
  8
AM_7
  6
AM_ISO08W050x2
100
AcDbLine
 10
280.5648621994194
 20
277.9210132231649
 30
0.0
 11
277.5648621994184
 21
277.9210132231649
 31
0.0
1001
GENIUS_GENOREF_13
1005
20B1
  0
LINE
  5
202A
330
1F
100
AcDbEntity
  8
AM_7
  6
AM_ISO08W050x2
100
AcDbLine
 10
280.5648621994194
 20
277.9210132231649
 30
0.0
 11
280.5648621994194
 21
274.9210132231639
 31
0.0
1001
GENIUS_GENOREF_13
1005
20B1
  0
LINE
  5
202B
330
1F
100
AcDbEntity
  8
AM_7
  6
AM_ISO08W050x2
100
AcDbLine
 10
316.5648621994194
 20
277.9210132231649
 30
0.0
 11
319.5648621994204
 21
277.9210132231649
 31
0.0
1001
GENIUS_GENOREF_13
1005
20B0
  0
LINE
  5
202C
102
{ACAD_REACTORS
330
2055
102
}
330
1F
100
AcDbEntity
  8
AM_7
  6
AM_ISO08W050x2
100
AcDbLine
 10
316.5648621994194
 20
277.9210132231649
 30
0.0
 11
316.5648621994194
 21
280.9210132231659
 31
0.0
1001
GENIUS_GENOREF_13
1005
20B0
  0
LINE
  5
202D
330
1F
100
AcDbEntity
  8
AM_7
  6
AM_ISO08W050x2
100
AcDbLine
 10
316.5648621994194
 20
277.9210132231649
 30
0.0
 11
313.5648621994184
 21
277.9210132231649
 31
0.0
1001
GENIUS_GENOREF_13
1005
20B0
  0
LINE
  5
202E
330
1F
100
AcDbEntity
  8
AM_7
  6
AM_ISO08W050x2
100
AcDbLine
 10
316.5648621994194
 20
277.9210132231649
 30
0.0
 11
316.5648621994194
 21
274.9210132231639
 31
0.0
1001
GENIUS_GENOREF_13
1005
20B0
  0
LINE
  5
202F
330
1F
100
AcDbEntity
  8
AM_7
  6
AM_ISO08W050x2
100
AcDbLine
 10
280.5648621994194
 20
261.4210132231647
 30
0.0
 11
283.5648621994204
 21
261.4210132231647
 31
0.0
1001
GENIUS_GENOREF_13
1005
20AF
  0
LINE
  5
2030
330
1F
100
AcDbEntity
  8
AM_7
  6
AM_ISO08W050x2
100
AcDbLine
 10
280.5648621994194
 20
261.4210132231647
 30
0.0
 11
280.5648621994194
 21
264.4210132231657
 31
0.0
1001
GENIUS_GENOREF_13
1005
20AF
  0
LINE
  5
2031
102
{ACAD_REACTORS
330
2061
102
}
330
1F
100
AcDbEntity
  8
AM_7
  6
AM_ISO08W050x2
100
AcDbLine
 10
280.5648621994194
 20
261.4210132231647
 30
0.0
 11
277.5648621994184
 21
261.4210132231647
 31
0.0
1001
GENIUS_GENOREF_13
1005
20AF
  0
LINE
  5
2032
330
1F
100
AcDbEntity
  8
AM_7
  6
AM_ISO08W050x2
100
AcDbLine
 10
280.5648621994194
 20
261.4210132231647
 30
0.0
 11
280.5648621994194
 21
258.4210132231636
 31
0.0
1001
GENIUS_GENOREF_13
1005
20AF
  0
LINE
  5
2033
330
1F
100
AcDbEntity
  8
AM_7
  6
AM_ISO08W050x2
100
AcDbLine
 10
316.5648621994194
 20
261.4210132231647
 30
0.0
 11
319.5648621994204
 21
261.4210132231647
 31
0.0
1001
GENIUS_GENOREF_13
1005
20AE
  0
LINE
  5
2034
330
1F
100
AcDbEntity
  8
AM_7
  6
AM_ISO08W050x2
100
AcDbLine
 10
316.5648621994194
 20
261.4210132231647
 30
0.0
 11
316.5648621994194
 21
264.4210132231657
 31
0.0
1001
GENIUS_GENOREF_13
1005
20AE
  0
LINE
  5
2035
330
1F
100
AcDbEntity
  8
AM_7
  6
AM_ISO08W050x2
100
AcDbLine
 10
316.5648621994194
 20
261.4210132231647
 30
0.0
 11
313.5648621994184
 21
261.4210132231647
 31
0.0
1001
GENIUS_GENOREF_13
1005
20AE
  0
LINE
  5
2036
330
1F
100
AcDbEntity
  8
AM_7
  6
AM_ISO08W050x2
100
AcDbLine
 10
316.5648621994194
 20
261.4210132231647
 30
0.0
 11
316.5648621994194
 21
258.4210132231636
 31
0.0
1001
GENIUS_GENOREF_13
1005
20AE
  0
LINE
  5
2037
330
1F
100
AcDbEntity
  8
0
  6
Continuous
 48
0.1
100
AcDbLine
 10
268.5648621994197
 20
210.2170973906853
 30
0.0
 11
328.5648621994188
 21
210.2170973906856
 31
0.0
1001
GENIUS_GENOREF_13
1005
20B2
  0
LINE
  5
2038
330
1F
100
AcDbEntity
  8
0
  6
Continuous
 48
0.1
100
AcDbLine
 10
268.5648621994197
 20
210.100778611747
 30
0.0
 11
328.5648621994188
 21
210.1007786117474
 31
0.0
1001
GENIUS_GENOREF_13
1005
20B2
  0
LINE
  5
2039
330
1F
100
AcDbEntity
  8
0
  6
Continuous
 48
0.1
100
AcDbLine
 10
268.5648621994204
 20
205.3451638546117
 30
0.0
 11
328.5648621994184
 21
205.3451638546115
 31
0.0
1001
GENIUS_GENOREF_13
1005
20B2
  0
LINE
  5
203A
330
1F
100
AcDbEntity
  8
0
  6
Continuous
 48
0.1
100
AcDbLine
 10
268.5648621994204
 20
205.2288450756734
 30
0.0
 11
328.5648621994186
 21
205.2288450756724
 31
0.0
1001
GENIUS_GENOREF_13
1005
20B2
  0
LINE
  5
203B
330
1F
100
AcDbEntity
  8
AM_4
  6
HIDDEN
 48
0.2
100
AcDbLine
 10
282.1859760852638
 20
203.6505156272939
 30
0.0
 11
278.943748313575
 21
203.6505156272937
 31
0.0
1001
GENIUS_GENBH_13
1002
{
1000
ML
1040
5.14159265359
1002
}
1002
{
1000
OA
1000
0
1070
   256
1000
ByLayer
1005
10
1005
15
1071
       -1
1002
}
1001
GENIUS_GENOREF_13
1005
20B2
  0
LINE
  5
203C
330
1F
100
AcDbEntity
  8
AM_4
  6
HIDDEN
 48
0.2
100
AcDbLine
 10
278.943748313575
 20
211.518941812147
 30
0.0
 11
278.4648621994194
 21
211.795426839066
 31
0.0
1001
GENIUS_GENOREF_13
1005
0
  0
LINE
  5
203D
330
1F
100
AcDbEntity
  8
AM_7
100
AcDbLine
 10
280.5648621994194
 20
200.0594763006867
 30
0.0
 11
280.5648621994194
 21
212.7954268390659
 31
0.0
1001
GENIUS_GENOREF_13
1005
0
  0
LINE
  5
203E
330
1F
100
AcDbEntity
  8
AM_4
  6
HIDDEN
 48
0.2
100
AcDbLine
 10
278.5648621994194
 20
211.737691812147
 30
0.0
 11
278.5648621994194
 21
204.795426839066
 31
0.0
1001
GENIUS_GENOREF_13
1005
0
  0
LINE
  5
203F
330
1F
100
AcDbEntity
  8
AM_4
  6
HIDDEN
 48
0.2
100
AcDbLine
 10
278.943748313575
 20
211.518941812147
 30
0.0
 11
278.943748313575
 21
201.9954268390659
 31
0.0
1001
GENIUS_GENOREF_13
1005
0
  0
LINE
  5
2040
330
1F
100
AcDbEntity
  8
AM_4
  6
HIDDEN
 48
0.2
100
AcDbLine
 10
282.5648621994194
 20
211.7376918121469
 30
0.0
 11
282.5648621994194
 21
204.795426839066
 31
0.0
1001
GENIUS_GENOREF_13
1005
0
  0
LINE
  5
2041
330
1F
100
AcDbEntity
  8
AM_4
  6
HIDDEN
 48
0.2
100
AcDbLine
 10
282.1859760852638
 20
211.518941812147
 30
0.0
 11
282.1859760852638
 21
201.9954268390659
 31
0.0
1001
GENIUS_GENOREF_13
1005
0
  0
LINE
  5
2042
330
1F
100
AcDbEntity
  8
AM_4
  6
HIDDEN
 48
0.2
100
AcDbLine
 10
278.943748313575
 20
211.518941812147
 30
0.0
 11
282.1859760852638
 21
211.518941812147
 31
0.0
1001
GENIUS_GENOREF_13
1005
0
  0
LINE
  5
2043
330
1F
100
AcDbEntity
  8
AM_4
  6
HIDDEN
 48
0.2
100
AcDbLine
 10
282.1859760852638
 20
211.518941812147
 30
0.0
 11
282.6648621994194
 21
211.795426839066
 31
0.0
1001
GENIUS_GENOREF_13
1005
0
  0
LINE
  5
2044
330
1F
100
AcDbEntity
  8
AM_4
  6
HIDDEN
 48
0.2
100
AcDbLine
 10
282.5648621994194
 20
204.795426839066
 30
0.0
 11
282.1859760852638
 21
204.0954268390659
 31
0.0
1001
GENIUS_GENOREF_13
1005
0
  0
LINE
  5
2045
330
1F
100
AcDbEntity
  8
AM_4
  6
HIDDEN
 48
0.2
100
AcDbLine
 10
278.5648621994194
 20
204.795426839066
 30
0.0
 11
278.943748313575
 21
204.0954268390659
 31
0.0
1001
GENIUS_GENOREF_13
1005
0
  0
LINE
  5
2046
330
1F
100
AcDbEntity
  8
AM_4
  6
HIDDEN
 48
0.2
100
AcDbLine
 10
282.5648621994194
 20
204.795426839066
 30
0.0
 11
278.5648621994194
 21
204.795426839066
 31
0.0
1001
GENIUS_GENOREF_13
1005
0
  0
LINE
  5
2047
330
1F
100
AcDbEntity
  8
AM_7
100
AcDbLine
 10
316.5648621994194
 20
200.0594763006858
 30
0.0
 11
316.5648621994194
 21
212.795426839065
 31
0.0
  0
LINE
  5
2048
330
1F
100
AcDbEntity
  8
AM_4
  6
HIDDEN
 48
0.2
100
AcDbLine
 10
318.1859760852637
 20
211.5189418121462
 30
0.0
 11
318.1859760852637
 21
201.9954268390651
 31
0.0
  0
LINE
  5
2049
330
1F
100
AcDbEntity
  8
AM_4
  6
HIDDEN
 48
0.2
100
AcDbLine
 10
318.5648621994194
 20
211.7376918121462
 30
0.0
 11
318.5648621994194
 21
204.795426839065
 31
0.0
  0
LINE
  5
204A
330
1F
100
AcDbEntity
  8
AM_4
  6
HIDDEN
 48
0.2
100
AcDbLine
 10
314.943748313575
 20
211.5189418121462
 30
0.0
 11
314.943748313575
 21
201.9954268390651
 31
0.0
  0
LINE
  5
204B
330
1F
100
AcDbEntity
  8
AM_4
  6
HIDDEN
 48
0.2
100
AcDbLine
 10
314.5648621994194
 20
211.7376918121462
 30
0.0
 11
314.5648621994194
 21
204.795426839065
 31
0.0
  0
LINE
  5
204C
330
1F
100
AcDbEntity
  8
AM_4
  6
HIDDEN
 48
0.2
100
AcDbLine
 10
318.5648621994194
 20
204.795426839065
 30
0.0
 11
314.5648621994194
 21
204.795426839065
 31
0.0
  0
LINE
  5
204D
330
1F
100
AcDbEntity
  8
AM_4
  6
HIDDEN
 48
0.2
100
AcDbLine
 10
318.1859760852637
 20
203.6505156272931
 30
0.0
 11
314.943748313575
 21
203.6505156272929
 31
0.0
1001
GENIUS_GENBH_13
1002
{
1000
ML
1040
5.14159265359
1002
}
1002
{
1000
OA
1000
0
1070
   256
1000
ByLayer
1005
10
1005
15
1071
       -1
1002
}
  0
LINE
  5
204E
330
1F
100
AcDbEntity
  8
AM_4
  6
HIDDEN
 48
0.2
100
AcDbLine
 10
314.5648621994194
 20
204.795426839065
 30
0.0
 11
314.943748313575
 21
204.0954268390651
 31
0.0
  0
LINE
  5
204F
330
1F
100
AcDbEntity
  8
AM_4
  6
HIDDEN
 48
0.2
100
AcDbLine
 10
318.5648621994194
 20
204.795426839065
 30
0.0
 11
318.1859760852637
 21
204.0954268390651
 31
0.0
  0
LINE
  5
2050
330
1F
100
AcDbEntity
  8
AM_4
  6
HIDDEN
 48
0.2
100
AcDbLine
 10
314.943748313575
 20
211.5189418121462
 30
0.0
 11
318.1859760852637
 21
211.5189418121462
 31
0.0
  0
LINE
  5
2051
330
1F
100
AcDbEntity
  8
AM_4
  6
HIDDEN
 48
0.2
100
AcDbLine
 10
314.943748313575
 20
211.5189418121462
 30
0.0
 11
314.4648621994194
 21
211.795426839065
 31
0.0
  0
LINE
  5
2052
330
1F
100
AcDbEntity
  8
AM_4
  6
HIDDEN
 48
0.2
100
AcDbLine
 10
318.1859760852637
 20
211.5189418121462
 30
0.0
 11
318.6648621994194
 21
211.795426839065
 31
0.0
  0
DIMENSION
  5
2053
102
{ACAD_XDICTIONARY
360
2054
102
}
102
{ACAD_REACTORS
330
2055
102
}
330
1F
100
AcDbEntity
  8
AM_5
100
AcDbDimension
  2
*D3
 10
316.5648621994194
 20
290.73689089355
 30
0.0
 11
298.5648621994194
 21
293.48689089355
 31
0.0
 70
    32
 71
     5
 42
36.0
  3
AM_ISO
100
AcDbAlignedDimension
 13
280.5648621994194
 23
280.9210132231659
 33
0.0
 14
316.5648621994194
 24
280.9210132231659
 34
0.0
100
AcDbRotatedDimension
1001
ACAD
1000
DSTYLE
1002
{
1070
   271
1070
     8
1002
}
  0
DIMENSION
  5
2056
102
{ACAD_XDICTIONARY
360
2057
102
}
102
{ACAD_REACTORS
330
2058
102
}
330
1F
100
AcDbEntity
  8
AM_5
100
AcDbDimension
  2
*D4
 10
328.5648621994194
 20
297.73689089355
 30
0.0
 11
298.5648621994195
 21
300.6618908935501
 31
0.0
 70
    32
  1
(<>)
 71
     5
 42
59.99999999999989
  3
AM_ISO
100
AcDbAlignedDimension
 13
268.5648621994195
 23
282.6674525646254
 33
0.0
 14
328.5648621994194
 24
282.6674525646254
 34
0.0
100
AcDbRotatedDimension
1001
ACAD
1000
DSTYLE
1002
{
1070
   271
1070
     8
1002
}
  0
DIMENSION
  5
2059
102
{ACAD_XDICTIONARY
360
205A
102
}
102
{ACAD_REACTORS
330
205B
102
}
330
1F
100
AcDbEntity
  8
AM_5
100
AcDbDimension
  2
*D5
 10
333.0648621994194
 20
304.73689089355
 30
0.0
 11
298.5648621994195
 21
307.48689089355
 31
0.0
 70
    32
 71
     5
 42
68.99999999999988
  3
AM_ISO
100
AcDbAlignedDimension
 13
264.0648621994195
 23
280.4210132231649
 33
0.0
 14
333.0648621994194
 24
280.4210132231649
 34
0.0
100
AcDbRotatedDimension
1001
ACAD
1000
DSTYLE
1002
{
1070
   271
1070
     8
1002
}
  0
DIMENSION
  5
205C
102
{ACAD_XDICTIONARY
360
205D
102
}
102
{ACAD_REACTORS
330
205E
102
}
330
1F
100
AcDbEntity
  8
AM_5
100
AcDbDimension
  2
*D6
 10
348.5648621994194
 20
304.73689089355
 30
0.0
 11
340.8148621994194
 21
307.48689089355
 31
0.0
 70
    32
 71
     5
 42
15.5
  3
AM_ISO
100
AcDbAlignedDimension
 13
333.0648621994194
 23
280.4210132231649
 33
0.0
 14
348.5648621994194
 24
282.671013223165
 34
0.0
100
AcDbRotatedDimension
1001
ACAD
1000
DSTYLE
1002
{
1070
   271
1070
     8
1002
}
  0
DIMENSION
  5
205F
102
{ACAD_XDICTIONARY
360
2060
102
}
102
{ACAD_REACTORS
330
2061
102
}
330
1F
100
AcDbEntity
  8
AM_5
100
AcDbDimension
  2
*D7
 10
276.4887487085313
 20
277.9210132231649
 30
0.0
 11
276.4887487085313
 21
269.5115678350628
 31
0.0
 70
   160
 71
     5
 42
16.50000000000023
  3
AM_ISO
100
AcDbAlignedDimension
 13
277.5648621994184
 23
261.4210132231647
 33
0.0
 14
277.5648621994184
 24
277.9210132231649
 34
0.0
 50
90.0
100
AcDbRotatedDimension
1001
ACAD
1000
DSTYLE
1002
{
1070
   271
1070
     8
1002
}
  0
DIMENSION
  5
2062
102
{ACAD_XDICTIONARY
360
2063
102
}
102
{ACAD_REACTORS
330
2064
102
}
330
1F
100
AcDbEntity
  8
AM_5
100
AcDbDimension
  2
*D8
 10
358.0648621994195
 20
214.2954268390648
 30
0.0
 11
360.8148621994195
 21
214.2954268390648
 31
0.0
 70
   160
 71
     5
 42
5.499999999999886
  3
AM_ISO
100
AcDbAlignedDimension
 13
363.5648621994194
 23
201.7954268390648
 33
0.0
 14
358.0648621994195
 24
193.5479693280991
 34
0.0
100
AcDbRotatedDimension
1001
ACAD
1000
DSTYLE
1002
{
1070
   271
1070
     8
1002
}
  0
DIMENSION
  5
2065
102
{ACAD_XDICTIONARY
360
2066
102
}
102
{ACAD_REACTORS
330
2067
102
}
330
1F
100
AcDbEntity
  8
AM_5
100
AcDbDimension
  2
*D9
 10
351.5648621994194
 20
221.2954268390648
 30
0.0
 11
357.5648621994194
 21
224.0457713272538
 31
0.0
 70
    32
 71
     5
 42
12.0
  3
AM_ISO
100
AcDbAlignedDimension
 13
363.5648621994194
 23
201.7954268390648
 33
0.0
 14
351.5648621994194
 24
195.1376569930918
 34
0.0
100
AcDbRotatedDimension
1001
ACAD
1000
DSTYLE
1002
{
1070
   271
1070
     8
1002
}
  0
DIMENSION
  5
2068
102
{ACAD_XDICTIONARY
360
2069
102
}
102
{ACAD_REACTORS
330
206A
102
}
330
1F
100
AcDbEntity
  8
AM_5
100
AcDbDimension
  2
*D10
 10
298.5648621994194
 20
228.2954268390648
 30
0.0
 11
331.0648621994194
 21
231.0454268390648
 31
0.0
 70
    32
 71
     5
 42
65.0
  3
AM_ISO
100
AcDbAlignedDimension
 13
363.5648621994194
 23
201.7954268390648
 33
0.0
 14
298.5648621994194
 24
213.3258415118213
 34
0.0
100
AcDbRotatedDimension
1001
ACAD
1000
DSTYLE
1002
{
1070
   271
1070
     8
1002
}
  0
DIMENSION
  5
206B
102
{ACAD_XDICTIONARY
360
206C
102
}
102
{ACAD_REACTORS
330
206D
102
}
330
1F
100
AcDbEntity
  8
AM_5
100
AcDbDimension
  2
*D11
 10
248.5648621994196
 20
214.2954268390648
 30
0.0
 11
241.0648621994196
 21
217.0454268390648
 31
0.0
 70
    32
 71
     5
 42
15.0
  3
AM_ISO
100
AcDbAlignedDimension
 13
233.5648621994196
 23
201.7954268390648
 33
0.0
 14
248.5648621994196
 24
201.7954268390648
 34
0.0
100
AcDbRotatedDimension
1001
ACAD
1000
DSTYLE
1002
{
1070
   271
1070
     8
1002
}
  0
DIMENSION
  5
206E
102
{ACAD_XDICTIONARY
360
206F
102
}
102
{ACAD_REACTORS
330
2070
102
}
330
1F
100
AcDbEntity
  8
AM_5
100
AcDbDimension
  2
*D12
 10
363.5648621994194
 20
235.2954268390648
 30
0.0
 11
298.5648621994195
 21
238.0454268390648
 31
0.0
 70
    32
  1
<>+stroke
 71
     5
 42
129.9999999999998
  3
AM_ISO
100
AcDbAlignedDimension
 13
233.5648621994196
 23
201.7954268390648
 33
0.0
 14
363.5648621994194
 24
201.7954268390648
 34
0.0
100
AcDbRotatedDimension
1001
ACAD
1000
DSTYLE
1002
{
1070
   271
1070
     8
1002
}
  0
DIMENSION
  5
2071
102
{ACAD_XDICTIONARY
360
2072
102
}
102
{ACAD_REACTORS
330
2073
102
}
330
1F
100
AcDbEntity
  8
AM_5
100
AcDbDimension
  2
*D13
 10
256.1845139536554
 20
176.7954268390635
 30
0.0
 11
256.1845139536554
 21
164.7387019676304
 31
0.0
 70
   160
 71
     5
 42
1.499999999998749
  3
AM_ISO
100
AcDbAlignedDimension
 13
248.0648621994196
 23
175.2954268390648
 33
0.0
 14
248.5648621994196
 24
176.7954268390635
 34
0.0
 50
90.0
100
AcDbRotatedDimension
1001
ACAD
1000
DSTYLE
1002
{
1070
   271
1070
     8
1002
}
  0
DIMENSION
  5
2074
102
{ACAD_XDICTIONARY
360
2075
102
}
102
{ACAD_REACTORS
330
2076
102
}
330
1F
100
AcDbEntity
  8
AM_5
100
AcDbDimension
  2
*D14
 10
437.4421137081061
 20
166.7014852704027
 30
0.0
 11
428.4421137081061
 21
169.4514852704027
 31
0.0
 70
    32
 71
     5
 42
18.0
  3
AM_ISO
100
AcDbAlignedDimension
 13
419.4421137081061
 23
175.6293882385433
 33
0.0
 14
437.4421137081061
 24
175.6293882385433
 34
0.0
100
AcDbRotatedDimension
1001
ACAD
1000
DSTYLE
1002
{
1070
   271
1070
     8
1002
}
  0
DIMENSION
  5
2077
102
{ACAD_XDICTIONARY
360
2078
102
}
102
{ACAD_REACTORS
330
2079
102
}
330
1F
100
AcDbEntity
  8
AM_5
100
AcDbDimension
  2
*D15
 10
441.9421137081061
 20
159.7014852704027
 30
0.0
 11
428.4421137081061
 21
162.4518297585917
 31
0.0
 70
    32
 71
     5
 42
27.0
  3
AM_ISO
100
AcDbAlignedDimension
 13
414.9421137081061
 23
177.6954268390646
 33
0.0
 14
441.9421137081061
 24
177.6954268390646
 34
0.0
100
AcDbRotatedDimension
1001
ACAD
1000
DSTYLE
1002
{
1070
   271
1070
     8
1002
}
  0
DIMENSION
  5
207A
102
{ACAD_XDICTIONARY
360
207B
102
}
102
{ACAD_REACTORS
330
207C
102
}
330
1F
100
AcDbEntity
  8
AM_5
100
AcDbDimension
  2
*D16
 10
407.5942975267279
 20
197.7954268390646
 30
0.0
 11
404.8442975267279
 21
188.7954268390646
 31
0.0
 70
    32
 71
     5
 42
18.0
  3
AM_ISO
100
AcDbAlignedDimension
 13
415.3713650900848
 23
179.7954268390646
 33
0.0
 14
415.3713650900848
 24
197.7954268390646
 34
0.0
 50
90.0
100
AcDbRotatedDimension
1001
ACAD
1000
DSTYLE
1002
{
1070
   271
1070
     8
1002
}
  0
DIMENSION
  5
207D
102
{ACAD_XDICTIONARY
360
207E
102
}
102
{ACAD_REACTORS
330
207F
102
}
330
1F
100
AcDbEntity
  8
AM_5
100
AcDbDimension
  2
*D17
 10
400.5942975267279
 20
202.2954268390646
 30
0.0
 11
397.8439530385389
 21
188.7954268390646
 31
0.0
 70
    32
 71
     5
 42
27.0
  3
AM_ISO
100
AcDbAlignedDimension
 13
415.9688552639302
 23
175.2954268390646
 33
0.0
 14
417.3421137081061
 24
202.2954268390646
 34
0.0
 50
90.0
100
AcDbRotatedDimension
1001
ACAD
1000
DSTYLE
1002
{
1070
   271
1070
     8
1002
}
  0
DIMENSION
  5
2080
102
{ACAD_XDICTIONARY
360
2081
102
}
102
{ACAD_REACTORS
330
2082
102
}
330
1F
100
AcDbEntity
  8
AM_5
100
AcDbDimension
  2
*D18
 10
393.5942975267279
 20
211.7954268390647
 30
0.0
 11
390.8442975267279
 21
193.5454268390647
 31
0.0
 70
    32
 71
     5
 42
36.50000000000011
  3
AM_ISO
100
AcDbAlignedDimension
 13
415.9688552639302
 23
175.2954268390646
 33
0.0
 14
417.8421137081069
 24
211.7954268390647
 34
0.0
 50
90.0
100
AcDbRotatedDimension
1001
ACAD
1000
DSTYLE
1002
{
1070
   271
1070
     8
1002
}
  0
DIMENSION
  5
2083
102
{ACAD_XDICTIONARY
360
2084
102
}
102
{ACAD_REACTORS
330
2085
102
}
330
1F
100
AcDbEntity
  8
AM_5
100
AcDbDimension
  2
*D19
 10
439.4421137081068
 20
221.2954268390648
 30
0.0
 11
428.4421137081067
 21
224.0457713272538
 31
0.0
 70
    32
 71
     5
 42
22.00000000000023
  3
AM_ISO
100
AcDbAlignedDimension
 13
417.4421137081066
 23
211.3954268390646
 33
0.0
 14
439.4421137081068
 24
211.3954268390646
 34
0.0
100
AcDbRotatedDimension
1001
ACAD
1000
DSTYLE
1002
{
1070
   271
1070
     8
1002
}
  0
DIMENSION
  5
2086
102
{ACAD_XDICTIONARY
360
2087
102
}
102
{ACAD_REACTORS
330
2088
102
}
330
1F
100
AcDbEntity
  8
AM_5
100
AcDbDimension
  2
*D20
 10
453.9421147081061
 20
188.7954268390644
 30
0.0
 11
451.1921147081061
 21
182.0454268390646
 31
0.0
 70
    32
 71
     5
 42
13.49999999999988
  3
AM_ISO
100
AcDbAlignedDimension
 13
440.9153721522819
 23
175.2954268390646
 33
0.0
 14
442.9421137081061
 24
188.7954268390645
 34
0.0
 50
90.0
100
AcDbRotatedDimension
1001
ACAD
1000
DSTYLE
1002
{
1070
   271
1070
     8
1002
}
  0
DIMENSION
  5
2089
102
{ACAD_XDICTIONARY
360
208A
102
}
102
{ACAD_REACTORS
330
208B
102
}
330
1F
100
AcDbEntity
  8
AM_5
100
AcDbDimension
  2
*D21
 10
363.5648621994194
 20
114.9083186307146
 30
0.0
 11
373.2945866088682
 21
117.6583186307146
 31
0.0
 70
    32
 71
     5
 42
6.399999999999977
  3
AM_ISO
100
AcDbAlignedDimension
 13
357.1648621994194
 23
134.4210076993051
 33
0.0
 14
363.5648621994194
 24
125.9083186307143
 34
0.0
100
AcDbRotatedDimension
1001
ACAD
1000
DSTYLE
1002
{
1070
   271
1070
     8
1002
}
  0
DIMENSION
  5
208C
102
{ACAD_XDICTIONARY
360
208D
102
}
102
{ACAD_REACTORS
330
208E
102
}
330
1F
100
AcDbEntity
  8
AM_5
100
AcDbDimension
  2
*D22
 10
239.9648621994197
 20
114.9083186307143
 30
0.0
 11
249.6945866088685
 21
117.6583186307143
 31
0.0
 70
    32
 71
     5
 42
6.40000000000009
  3
AM_ISO
100
AcDbAlignedDimension
 13
233.5648621994196
 23
125.9083186307143
 33
0.0
 14
239.9648621994197
 24
134.4210076993051
 34
0.0
100
AcDbRotatedDimension
1001
ACAD
1000
DSTYLE
1002
{
1070
   271
1070
     8
1002
}
  0
DIMENSION
  5
208F
102
{ACAD_XDICTIONARY
360
2090
102
}
102
{ACAD_REACTORS
330
2091
102
}
330
1F
100
AcDbEntity
  8
AM_5
100
AcDbDimension
  2
*D23
 10
256.1845139536554
 20
176.7954268390635
 30
0.0
 11
253.4341694654663
 21
188.7954268390645
 31
0.0
 70
    32
 71
     5
 42
24.00000000000193
  3
AM_ISO
100
AcDbAlignedDimension
 13
248.5648621994196
 23
200.7954268390655
 33
0.0
 14
248.5648621994196
 24
176.7954268390635
 34
0.0
 50
90.0
100
AcDbRotatedDimension
1001
ACAD
1000
DSTYLE
1002
{
1070
   271
1070
     8
1002
}
  0
DIMENSION
  5
2092
102
{ACAD_XDICTIONARY
360
2093
102
}
102
{ACAD_REACTORS
330
2094
102
}
330
1F
100
AcDbEntity
  8
AM_5
100
AcDbDimension
  2
*D24
 10
260.5648621994197
 20
126.9083186307145
 30
0.0
 11
257.8145177112308
 21
138.9083186307146
 31
0.0
 70
    32
 71
     5
 42
24.0
  3
AM_ISO
100
AcDbAlignedDimension
 13
248.5648621994196
 23
150.9083186307146
 33
0.0
 14
248.5648621994196
 24
126.9083186307145
 34
0.0
 50
90.0
100
AcDbRotatedDimension
1001
ACAD
1000
DSTYLE
1002
{
1070
   271
1070
     8
1002
}
  0
INSERT
  5
2095
330
1F
100
AcDbEntity
  8
AM_5
100
AcDbBlockReference
  2
*S2
 10
41.21692470107325
 20
-33.53108180682011
 30
0.0
  0
TEXT
  5
2096
330
1F
100
AcDbEntity
  8
AM_5
100
AcDbText
 10
252.7804558864913
 20
248.9030532851241
 30
0.0
 40
3.0
  1
4-M4x7L
100
AcDbText
  0
TEXT
  5
209B
330
1F
100
AcDbEntity
  8
AM_5
100
AcDbText
 10
446.5030744110996
 20
196.4999152791404
 30
0.0
 40
3.0
  1
M5x0.8
100
AcDbText
  0
POINT
  5
20AE
330
1F
100
AcDbEntity
  8
0
 60
     1
100
AcDbPoint
 10
40.96730265540429
 20
304.4028435994495
 30
0.0
1001
GENIUS_GENOLIS_13
1002
{
1000
ENT
1005
2036
1005
2035
1005
2034
1005
2033
1002
}
1001
GENIUS_GENOENT_13
1002
{
1000
MYREF
1005
20AE
1002
}
1002
{
1000
GRP
1005
0
1002
}
1001
GENIUS_GENODEF_13
1002
{
1000
HIER
1070
    10
1002
}
1002
{
1000
MANEDIT
1070
     0
1002
}
1002
{
1000
NOSEL
1070
     0
1002
}
1002
{
1000
BEHIND
1070
     0
1002
}
1002
{
1000
OTHER
1070
     0
1002
}
1002
{
1000
REACTOR
1002
}
1001
GENIUS_GENOBJ-N-CRS_13
1002
{
1000
OWNER
1000
GEN
1002
}
  0
POINT
  5
20AF
330
1F
100
AcDbEntity
  8
0
 60
     1
100
AcDbPoint
 10
40.96730265540429
 20
304.4028435994495
 30
0.0
1001
GENIUS_GENOLIS_13
1002
{
1000
ENT
1005
2032
1005
2031
1005
2030
1005
202F
1002
}
1001
GENIUS_GENODEF_13
1002
{
1000
HIER
1070
    10
1002
}
1002
{
1000
MANEDIT
1070
     0
1002
}
1002
{
1000
NOSEL
1070
     0
1002
}
1002
{
1000
BEHIND
1070
     0
1002
}
1002
{
1000
OTHER
1070
     0
1002
}
1002
{
1000
REACTOR
1002
}
1001
GENIUS_GENOENT_13
1002
{
1000
MYREF
1005
20AF
1002
}
1002
{
1000
GRP
1005
0
1002
}
1001
GENIUS_GENOBJ-N-CRS_13
1002
{
1000
OWNER
1000
GEN
1002
}
  0
POINT
  5
20B0
330
1F
100
AcDbEntity
  8
0
 60
     1
100
AcDbPoint
 10
40.96730265540429
 20
304.4028435994495
 30
0.0
1001
GENIUS_GENODEF_13
1002
{
1000
HIER
1070
    10
1002
}
1002
{
1000
MANEDIT
1070
     0
1002
}
1002
{
1000
NOSEL
1070
     0
1002
}
1002
{
1000
BEHIND
1070
     0
1002
}
1002
{
1000
OTHER
1070
     0
1002
}
1002
{
1000
REACTOR
1002
}
1001
GENIUS_GENOENT_13
1002
{
1000
MYREF
1005
20B0
1002
}
1002
{
1000
GRP
1005
0
1002
}
1001
GENIUS_GENOBJ-N-CRS_13
1002
{
1000
OWNER
1000
GEN
1002
}
1001
GENIUS_GENOLIS_13
1002
{
1000
ENT
1005
202E
1005
202D
1005
202C
1005
202B
1002
}
  0
POINT
  5
20B1
330
1F
100
AcDbEntity
  8
0
 60
     1
100
AcDbPoint
 10
40.96730265540429
 20
304.4028435994495
 30
0.0
1001
GENIUS_GENOLIS_13
1002
{
1000
ENT
1005
202A
1005
2029
1005
2028
1005
2027
1002
}
1001
GENIUS_GENOENT_13
1002
{
1000
MYREF
1005
20B1
1002
}
1002
{
1000
GRP
1005
0
1002
}
1001
GENIUS_GENOBJ-N-CRS_13
1002
{
1000
OWNER
1000
GEN
1002
}
1001
GENIUS_GENODEF_13
1002
{
1000
HIER
1070
    10
1002
}
1002
{
1000
MANEDIT
1070
     0
1002
}
1002
{
1000
NOSEL
1070
     0
1002
}
1002
{
1000
BEHIND
1070
     0
1002
}
1002
{
1000
OTHER
1070
     0
1002
}
1002
{
1000
REACTOR
1002
}
  0
POINT
  5
20B2
330
1F
100
AcDbEntity
  8
0
 60
     1
100
AcDbPoint
 10
40.96730265540429
 20
304.4028435994495
 30
0.0
1001
GENIUS_GENOBJ-NBEHI-BHB_13
1002
{
1000
OWNER
1000
genbehi
1002
}
1001
GENIUS_GENOENT_13
1002
{
1000
MYREF
1005
20B2
1002
}
1002
{
1000
GRP
1005
0
1002
}
1001
GENIUS_GENOLIS_13
1002
{
1000
ENT
1005
0
1005
0
1005
0
1005
203B
1005
203A
1005
0
1005
2039
1005
0
1005
2038
1005
0
1005
2037
1005
0
1005
0
1005
0
1005
1EAB
1005
1EAA
1005
0
1005
0
1005
0
1005
0
1005
1EA1
1005
1EA0
1002
}
1001
GENIUS_GENBH_13
1002
{
1000
FGO
1005
0
1002
}
1001
GENIUS_GENODEF_13
1002
{
1000
HIER
1070
     1
1002
}
1002
{
1000
MANEDIT
1070
     1
1002
}
1002
{
1000
NOSEL
1070
     1
1002
}
1002
{
1000
BEHIND
1070
     0
1002
}
1002
{
1000
OTHER
1070
     1
1002
}
1002
{
1000
REACTOR
1002
}
  0
ARC
  5
21D0
330
1F
100
AcDbEntity
  8
0
 62
     3
100
AcDbCircle
 10
428.4421137081061
 20
188.7954268390645
 30
0.0
 40
2.5
100
AcDbArc
 50
264.2608295227319
 51
174.2608295227253
  0
ARC
  5
25E5
330
1F
100
AcDbEntity
  8
0
 62
     3
100
AcDbCircle
 10
358.0648621994194
 20
188.7954268390646
 30
0.0
 40
2.5
100
AcDbArc
 50
264.2608295227319
 51
174.2608295227253
  0
ARC
  5
25E6
330
1F
100
AcDbEntity
  8
0
 62
     3
100
AcDbCircle
 10
239.0648621994196
 20
188.7954268390646
 30
0.0
 40
2.5
100
AcDbArc
 50
264.2608295227319
 51
174.2608295227253
  0
ARC
  5
25E7
330
1F
100
AcDbEntity
  8
0
 62
     3
100
AcDbCircle
 10
239.9648621994197
 20
138.9083186307142
 30
0.0
 40
2.5
100
AcDbArc
 50
264.2608295227319
 51
174.2608295227253
  0
ARC
  5
25E8
330
1F
100
AcDbEntity
  8
0
 62
     3
100
AcDbCircle
 10
357.1648621994194
 20
138.9083186307142
 30
0.0
 40
2.5
100
AcDbArc
 50
264.2608295227319
 51
174.2608295227253
  0
INSERT
  5
26B9
330
1F
100
AcDbEntity
  8
AM_5
100
AcDbBlockReference
  2
*S25
 10
11.58673342993757
 20
-23.67791973677833
 30
0.0
  0
TEXT
  5
26E2
330
1F
100
AcDbEntity
  8
AM_5
100
AcDbText
 10
370.6339953446326
 20
170.6307546590576
 30
0.0
 40
3.0
  1
2-M5x0.8
100
AcDbText
  0
INSERT
  5
26E3
330
1F
100
AcDbEntity
  8
AM_5
100
AcDbBlockReference
  2
*S26
 10
11.58673342993757
 20
-23.67791973677833
 30
0.0
  0
TEXT
  5
26E5
330
1F
100
AcDbEntity
  8
AM_5
100
AcDbText
 10
368.3166069273626
 20
144.9801426402308
 30
0.0
 40
3.0
  1
2-M5x0.8
100
AcDbText
  0
INSERT
  5
26E6
330
1F
100
AcDbEntity
  8
AM_5
100
AcDbBlockReference
  2
*S27
 10
11.58673342993757
 20
-23.67791973677833
 30
0.0
  0
LINE
  5
28CB
330
1F
100
AcDbEntity
  8
AM_VIS
100
AcDbLine
 10
525.5242365636616
 20
247.8752904068331
 30
0.0
 11
549.5242365636617
 21
247.8752904068331
 31
0.0
  0
LINE
  5
28CC
330
1F
100
AcDbEntity
  8
AM_VIS
100
AcDbLine
 10
525.5242365636616
 20
260.3752904068331
 30
0.0
 11
529.666119740911
 21
260.3752904068331
 31
0.0
  0
LINE
  5
28CD
102
{ACAD_REACTORS
330
2920
102
}
330
1F
100
AcDbEntity
  8
AM_VIS
100
AcDbLine
 10
545.3823533864127
 20
260.3752904068331
 30
0.0
 11
549.5242365636617
 21
260.3752904068331
 31
0.0
  0
LINE
  5
28CE
102
{ACAD_REACTORS
330
2926
102
}
330
1F
100
AcDbEntity
  8
AM_VIS
100
AcDbLine
 10
550.5242365636616
 20
259.3752904068331
 30
0.0
 11
550.5242365636616
 21
250.9752904068331
 31
0.0
  0
LINE
  5
28CF
330
1F
100
AcDbEntity
  8
AM_VIS
100
AcDbLine
 10
550.5242365636616
 20
247.8752904068331
 30
0.0
 11
550.5242365636616
 21
249.4752904068331
 31
0.0
  0
LINE
  5
28D0
330
1F
100
AcDbEntity
  8
AM_VIS
100
AcDbLine
 10
549.5242365636617
 20
249.4752904068331
 30
0.0
 11
525.5242365636616
 21
249.4752904068331
 31
0.0
  0
LINE
  5
28D1
330
1F
100
AcDbEntity
  8
AM_VIS
100
AcDbLine
 10
524.5242365636617
 20
250.9752904068331
 30
0.0
 11
524.5242365636617
 21
259.3752904068331
 31
0.0
  0
LINE
  5
28D2
330
1F
100
AcDbEntity
  8
AM_VIS
100
AcDbLine
 10
524.5242365636617
 20
249.4752904068331
 30
0.0
 11
524.5242365636617
 21
247.8752904068331
 31
0.0
  0
ARC
  5
28D3
330
1F
100
AcDbEntity
  8
AM_VIS
100
AcDbCircle
 10
525.5242365636616
 20
259.3752904068331
 30
0.0
 40
0.9999999999999998
100
AcDbArc
 50
90.0
 51
180.0
  0
ARC
  5
28D4
102
{ACAD_REACTORS
330
2926
330
2929
102
}
330
1F
100
AcDbEntity
  8
AM_VIS
100
AcDbCircle
 10
537.5242365636617
 20
261.8752904068331
 30
0.0
 40
8.0
100
AcDbArc
 50
190.80692287486
 51
349.19307712514
  0
ARC
  5
28D5
330
1F
100
AcDbEntity
  8
AM_VIS
100
AcDbCircle
 10
549.5242365636617
 20
259.3752904068331
 30
0.0
 40
0.9999999999999998
100
AcDbArc
 50
0.0
 51
90.0
  0
LINE
  5
28D6
330
1F
100
AcDbEntity
  8
AM_VIS
100
AcDbLine
 10
550.5242365636616
 20
249.4752904068331
 30
0.0
 11
550.5242365636616
 21
250.9752904068331
 31
0.0
  0
LINE
  5
28D7
102
{ACAD_REACTORS
330
291A
330
2920
330
2923
330
2929
102
}
330
1F
100
AcDbEntity
  8
AM_VIS
100
AcDbLine
 10
550.5242365636616
 20
247.8752904068331
 30
0.0
 11
549.5242365636617
 21
247.8752904068331
 31
0.0
  0
LINE
  5
28D8
330
1F
100
AcDbEntity
  8
AM_VIS
100
AcDbLine
 10
549.5242365636617
 20
249.4752904068331
 30
0.0
 11
550.5242365636616
 21
249.4752904068331
 31
0.0
  0
LINE
  5
28D9
330
1F
100
AcDbEntity
  8
AM_VIS
100
AcDbLine
 10
524.5242365636617
 20
250.9752904068331
 30
0.0
 11
524.5242365636617
 21
249.4752904068331
 31
0.0
  0
LINE
  5
28DA
102
{ACAD_REACTORS
330
291A
102
}
330
1F
100
AcDbEntity
  8
AM_VIS
100
AcDbLine
 10
525.5242365636616
 20
247.8752904068331
 30
0.0
 11
524.5242365636617
 21
247.8752904068331
 31
0.0
  0
LINE
  5
28DB
330
1F
100
AcDbEntity
  8
AM_VIS
100
AcDbLine
 10
524.5242365636617
 20
249.4752904068331
 30
0.0
 11
525.5242365636616
 21
249.4752904068331
 31
0.0
  0
LINE
  5
28DC
330
1F
100
AcDbEntity
  8
AM_VIS
100
AcDbLine
 10
498.217318221372
 20
292.2468506158948
 30
0.0
 11
499.817318221372
 21
292.2468506158948
 31
0.0
  0
LINE
  5
28DD
330
1F
100
AcDbEntity
  8
AM_VIS
100
AcDbLine
 10
498.217318221372
 20
292.2468506158948
 30
0.0
 11
498.217318221372
 21
296.3887337931437
 31
0.0
  0
LINE
  5
28DE
330
1F
100
AcDbEntity
  8
AM_VIS
100
AcDbLine
 10
498.217318221372
 20
272.3887337931437
 30
0.0
 11
498.217318221372
 21
276.5306169703931
 31
0.0
  0
LINE
  5
28DF
330
1F
100
AcDbEntity
  8
AM_VIS
100
AcDbLine
 10
499.817318221372
 20
276.5306169703931
 30
0.0
 11
498.217318221372
 21
276.5306169703931
 31
0.0
  0
LINE
  5
28E0
330
1F
100
AcDbEntity
  8
AM_VIS
100
AcDbLine
 10
499.817318221372
 20
272.3887337931437
 30
0.0
 11
499.817318221372
 21
276.5306169703931
 31
0.0
  0
LINE
  5
28E1
330
1F
100
AcDbEntity
  8
AM_VIS
100
AcDbLine
 10
499.817318221372
 20
292.2468506158948
 30
0.0
 11
499.817318221372
 21
296.3887337931437
 31
0.0
  0
LINE
  5
28E2
330
1F
100
AcDbEntity
  8
AM_VIS
100
AcDbLine
 10
499.817318221372
 20
297.3887337931437
 30
0.0
 11
498.217318221372
 21
297.3887337931437
 31
0.0
  0
LINE
  5
28E3
330
1F
100
AcDbEntity
  8
AM_VIS
100
AcDbLine
 10
501.317318221372
 20
297.3887337931437
 30
0.0
 11
511.2173182213719
 21
297.3887337931437
 31
0.0
  0
LINE
  5
28E4
330
1F
100
AcDbEntity
  8
AM_VIS
100
AcDbLine
 10
512.217318221372
 20
296.3887337931437
 30
0.0
 11
512.217318221372
 21
272.3887337931437
 31
0.0
  0
LINE
  5
28E5
330
1F
100
AcDbEntity
  8
AM_VIS
100
AcDbLine
 10
498.217318221372
 20
271.3887337931437
 30
0.0
 11
499.817318221372
 21
271.3887337931437
 31
0.0
  0
LINE
  5
28E6
330
1F
100
AcDbEntity
  8
AM_VIS
100
AcDbLine
 10
511.2173182213719
 20
271.3887337931437
 30
0.0
 11
501.317318221372
 21
271.3887337931437
 31
0.0
  0
LINE
  5
28E7
330
1F
100
AcDbEntity
  8
AM_VIS
100
AcDbLine
 10
498.217318221372
 20
276.5306169703931
 30
0.0
 11
498.217318221372
 21
292.2468506158948
 31
0.0
  0
LINE
  5
28E8
330
1F
100
AcDbEntity
  8
AM_VIS
100
AcDbLine
 10
498.217318221372
 20
271.3887337931437
 30
0.0
 11
498.217318221372
 21
272.3887337931437
 31
0.0
  0
LINE
  5
28E9
330
1F
100
AcDbEntity
  8
AM_VIS
100
AcDbLine
 10
499.817318221372
 20
272.3887337931437
 30
0.0
 11
499.817318221372
 21
271.3887337931437
 31
0.0
  0
LINE
  5
28EA
330
1F
100
AcDbEntity
  8
AM_VIS
100
AcDbLine
 10
499.817318221372
 20
292.2468506158948
 30
0.0
 11
499.817318221372
 21
276.5306169703931
 31
0.0
  0
LINE
  5
28EB
330
1F
100
AcDbEntity
  8
AM_VIS
100
AcDbLine
 10
498.217318221372
 20
296.3887337931437
 30
0.0
 11
498.217318221372
 21
297.3887337931437
 31
0.0
  0
LINE
  5
28EC
330
1F
100
AcDbEntity
  8
AM_VIS
100
AcDbLine
 10
499.817318221372
 20
297.3887337931437
 30
0.0
 11
499.817318221372
 21
296.3887337931437
 31
0.0
  0
LINE
  5
28ED
330
1F
100
AcDbEntity
  8
AM_VIS
100
AcDbLine
 10
501.317318221372
 20
297.3887337931437
 30
0.0
 11
499.817318221372
 21
297.3887337931437
 31
0.0
  0
CIRCLE
  5
28EE
330
1F
100
AcDbEntity
  8
AM_VIS
100
AcDbCircle
 10
508.2173182213718
 20
293.3887337931437
 30
0.0
 40
1.8
  0
CIRCLE
  5
28EF
102
{ACAD_REACTORS
330
292C
102
}
330
1F
100
AcDbEntity
  8
AM_VIS
100
AcDbCircle
 10
508.2173182213718
 20
275.3887337931437
 30
0.0
 40
1.8
  0
ARC
  5
28F0
330
1F
100
AcDbEntity
  8
AM_VIS
100
AcDbCircle
 10
511.2173182213719
 20
296.3887337931437
 30
0.0
 40
0.9999999999999998
100
AcDbArc
 50
0.0
 51
90.0
  0
LINE
  5
28F1
330
1F
100
AcDbEntity
  8
AM_VIS
100
AcDbLine
 10
499.817318221372
 20
271.3887337931437
 30
0.0
 11
501.317318221372
 21
271.3887337931437
 31
0.0
  0
ARC
  5
28F2
330
1F
100
AcDbEntity
  8
AM_VIS
100
AcDbCircle
 10
511.2173182213719
 20
272.3887337931437
 30
0.0
 40
0.9999999999999998
100
AcDbArc
 50
270.0
 51
0.0
  0
LINE
  5
28F3
330
1F
100
AcDbEntity
  8
AM_7
  6
AM_ISO08W050x2
100
AcDbLine
 10
508.217318221372
 20
275.3887337931437
 30
0.0
 11
508.217318221372
 21
278.1887337931439
 31
0.0
1001
GENIUS_GENOREF_13
1005
2937
  0
LINE
  5
28F4
330
1F
100
AcDbEntity
  8
AM_7
  6
AM_ISO08W050x2
100
AcDbLine
 10
508.217318221372
 20
275.3887337931437
 30
0.0
 11
505.4173182213721
 21
275.3887337931437
 31
0.0
1001
GENIUS_GENOREF_13
1005
2937
  0
LINE
  5
28F5
330
1F
100
AcDbEntity
  8
AM_7
  6
AM_ISO08W050x2
100
AcDbLine
 10
508.217318221372
 20
275.3887337931437
 30
0.0
 11
508.217318221372
 21
272.588733793144
 31
0.0
1001
GENIUS_GENOREF_13
1005
2937
  0
LINE
  5
28F6
330
1F
100
AcDbEntity
  8
AM_7
  6
AM_ISO08W050x2
100
AcDbLine
 10
508.217318221372
 20
275.3887337931437
 30
0.0
 11
511.017318221372
 21
275.3887337931437
 31
0.0
1001
GENIUS_GENOREF_13
1005
2937
  0
LINE
  5
28F7
330
1F
100
AcDbEntity
  8
AM_7
  6
AM_ISO08W050x2
100
AcDbLine
 10
508.217318221372
 20
293.3887337931437
 30
0.0
 11
508.217318221372
 21
296.1887337931439
 31
0.0
1001
GENIUS_GENOREF_13
1005
2936
  0
LINE
  5
28F8
330
1F
100
AcDbEntity
  8
AM_7
  6
AM_ISO08W050x2
100
AcDbLine
 10
508.217318221372
 20
293.3887337931437
 30
0.0
 11
505.4173182213721
 21
293.3887337931437
 31
0.0
1001
GENIUS_GENOREF_13
1005
2936
  0
LINE
  5
28F9
330
1F
100
AcDbEntity
  8
AM_7
  6
AM_ISO08W050x2
100
AcDbLine
 10
508.217318221372
 20
293.3887337931437
 30
0.0
 11
508.217318221372
 21
290.588733793144
 31
0.0
1001
GENIUS_GENOREF_13
1005
2936
  0
LINE
  5
28FA
330
1F
100
AcDbEntity
  8
AM_7
  6
AM_ISO08W050x2
100
AcDbLine
 10
508.217318221372
 20
293.3887337931437
 30
0.0
 11
511.017318221372
 21
293.3887337931437
 31
0.0
1001
GENIUS_GENOREF_13
1005
2936
  0
LINE
  5
28FB
330
1F
100
AcDbEntity
  8
AM_7
  6
AM_ISO08W050x2
100
AcDbLine
 10
528.5242365636617
 20
253.8752904068331
 30
0.0
 11
531.3242365636618
 21
253.8752904068331
 31
0.0
1001
GENIUS_GENOREF_13
1005
2935
  0
LINE
  5
28FC
330
1F
100
AcDbEntity
  8
AM_7
  6
AM_ISO08W050x2
100
AcDbLine
 10
528.5242365636617
 20
253.8752904068331
 30
0.0
 11
528.5242365636617
 21
256.675290406833
 31
0.0
1001
GENIUS_GENOREF_13
1005
2935
  0
LINE
  5
28FD
330
1F
100
AcDbEntity
  8
AM_7
  6
AM_ISO08W050x2
100
AcDbLine
 10
528.5242365636617
 20
253.8752904068331
 30
0.0
 11
525.724236563662
 21
253.8752904068331
 31
0.0
1001
GENIUS_GENOREF_13
1005
2935
  0
LINE
  5
28FE
330
1F
100
AcDbEntity
  8
AM_7
  6
AM_ISO08W050x2
100
AcDbLine
 10
528.5242365636617
 20
253.8752904068331
 30
0.0
 11
528.5242365636617
 21
251.0752904068331
 31
0.0
1001
GENIUS_GENOREF_13
1005
2935
  0
LINE
  5
28FF
102
{ACAD_REACTORS
330
2923
102
}
330
1F
100
AcDbEntity
  8
AM_7
  6
AM_ISO08W050x2
100
AcDbLine
 10
546.5242365636616
 20
253.8752904068331
 30
0.0
 11
549.3242365636619
 21
253.8752904068331
 31
0.0
1001
GENIUS_GENOREF_13
1005
2934
  0
LINE
  5
2900
330
1F
100
AcDbEntity
  8
AM_7
  6
AM_ISO08W050x2
100
AcDbLine
 10
546.5242365636616
 20
253.8752904068331
 30
0.0
 11
546.5242365636616
 21
256.675290406833
 31
0.0
1001
GENIUS_GENOREF_13
1005
2934
  0
LINE
  5
2901
330
1F
100
AcDbEntity
  8
AM_7
  6
AM_ISO08W050x2
100
AcDbLine
 10
546.5242365636616
 20
253.8752904068331
 30
0.0
 11
543.724236563662
 21
253.8752904068331
 31
0.0
1001
GENIUS_GENOREF_13
1005
2934
  0
LINE
  5
2902
330
1F
100
AcDbEntity
  8
AM_7
  6
AM_ISO08W050x2
100
AcDbLine
 10
546.5242365636616
 20
253.8752904068331
 30
0.0
 11
546.5242365636616
 21
251.0752904068331
 31
0.0
1001
GENIUS_GENOREF_13
1005
2934
  0
LINE
  5
2903
102
{ACAD_REACTORS
330
291D
102
}
330
1F
100
AcDbEntity
  8
AM_7
  6
AM_ISO08W050x2
100
AcDbLine
 10
528.5242365636617
 20
249.9741886305073
 30
0.0
 11
528.5242365636617
 21
247.1741886305074
 31
0.0
  0
LINE
  5
2904
102
{ACAD_REACTORS
330
291D
102
}
330
1F
100
AcDbEntity
  8
AM_7
  6
AM_ISO08W050x2
100
AcDbLine
 10
546.5242365636616
 20
249.9741886305073
 30
0.0
 11
546.5242365636616
 21
247.1741886305074
 31
0.0
  0
LINE
  5
2905
102
{ACAD_REACTORS
330
2933
102
}
330
1F
100
AcDbEntity
  8
AM_VIS
100
AcDbLine
 10
498.217318221372
 20
260.3752904068331
 30
0.0
 11
499.8173182213721
 21
260.3752904068331
 31
0.0
  0
LINE
  5
2906
330
1F
100
AcDbEntity
  8
AM_VIS
100
AcDbLine
 10
499.8173182213721
 20
259.3752904068331
 30
0.0
 11
499.8173182213721
 21
250.9752904068331
 31
0.0
  0
LINE
  5
2907
102
{ACAD_REACTORS
330
2930
102
}
330
1F
100
AcDbEntity
  8
AM_VIS
100
AcDbLine
 10
498.217318221372
 20
250.8752904068331
 30
0.0
 11
498.217318221372
 21
259.3752904068331
 31
0.0
  0
LINE
  5
2908
330
1F
100
AcDbEntity
  8
AM_VIS
100
AcDbLine
 10
511.2173182213719
 20
247.8752904068331
 30
0.0
 11
501.217318221372
 21
247.8752904068331
 31
0.0
  0
LINE
  5
2909
330
1F
100
AcDbEntity
  8
AM_VIS
100
AcDbLine
 10
512.217318221372
 20
249.4752904068331
 30
0.0
 11
512.217318221372
 21
247.8752904068331
 31
0.0
  0
LINE
  5
290A
330
1F
100
AcDbEntity
  8
AM_VIS
100
AcDbLine
 10
501.3173182213721
 20
249.4752904068331
 30
0.0
 11
511.2173182213719
 21
249.4752904068331
 31
0.0
  0
LINE
  5
290B
330
1F
100
AcDbEntity
  8
AM_VIS
100
AcDbLine
 10
498.217318221372
 20
260.3752904068331
 30
0.0
 11
498.217318221372
 21
259.3752904068331
 31
0.0
  0
LINE
  5
290C
330
1F
100
AcDbEntity
  8
AM_VIS
100
AcDbLine
 10
499.8173182213721
 20
259.3752904068331
 30
0.0
 11
499.8173182213721
 21
260.3752904068331
 31
0.0
  0
ARC
  5
290D
330
1F
100
AcDbEntity
  8
AM_VIS
100
AcDbCircle
 10
501.3173182213721
 20
250.9752904068331
 30
0.0
 40
1.5
100
AcDbArc
 50
180.0
 51
270.0
  0
ARC
  5
290E
102
{ACAD_REACTORS
330
2917
102
}
330
1F
100
AcDbEntity
  8
AM_VIS
100
AcDbCircle
 10
501.217318221372
 20
250.8752904068331
 30
0.0
 40
3.0
100
AcDbArc
 50
180.0
 51
270.0
  0
LINE
  5
290F
102
{ACAD_REACTORS
330
2917
102
}
330
1F
100
AcDbEntity
  8
AM_VIS
100
AcDbLine
 10
511.2173182213719
 20
247.8752904068331
 30
0.0
 11
512.217318221372
 21
247.8752904068331
 31
0.0
  0
LINE
  5
2910
330
1F
100
AcDbEntity
  8
AM_VIS
100
AcDbLine
 10
512.217318221372
 20
249.4752904068331
 30
0.0
 11
511.2173182213719
 21
249.4752904068331
 31
0.0
  0
LINE
  5
2911
330
1F
100
AcDbEntity
  8
AM_7
  6
AM_ISO08W050x2
100
AcDbLine
 10
500.4537278791384
 20
253.8752904068331
 30
0.0
 11
497.6537278791382
 21
253.8752904068331
 31
0.0
  0
LINE
  5
2912
102
{ACAD_REACTORS
330
2930
102
}
330
1F
100
AcDbEntity
  8
AM_7
  6
AM_ISO08W050x2
100
AcDbLine
 10
508.217318221372
 20
250.4884625530376
 30
0.0
 11
508.217318221372
 21
246.801030530532
 31
0.0
  0
LINE
  5
2913
330
1F
100
AcDbEntity
  8
AM_HID
 48
0.2
100
AcDbLine
 10
506.417318221372
 20
249.4752904068331
 30
0.0
 11
506.417318221372
 21
247.8752904068331
 31
0.0
  0
LINE
  5
2914
330
1F
100
AcDbEntity
  8
AM_HID
 48
0.2
100
AcDbLine
 10
510.0173182213719
 20
249.4752904068331
 30
0.0
 11
510.0173182213719
 21
247.8752904068331
 31
0.0
  0
DIMENSION
  5
2915
102
{ACAD_XDICTIONARY
360
2916
102
}
102
{ACAD_REACTORS
330
2917
102
}
330
1F
100
AcDbEntity
  8
AM_5
100
AcDbDimension
  2
*D29
 10
512.217318221372
 20
235.5852024508938
 30
0.0
 11
505.217318221372
 21
235.5852024508938
 31
0.0
 70
   160
 71
     5
 42
14.0
  3
AM_ISO$0
100
AcDbAlignedDimension
 13
498.217318221372
 23
250.8752904068331
 33
0.0
 14
512.217318221372
 24
247.8752904068331
 34
0.0
100
AcDbRotatedDimension
  0
DIMENSION
  5
2918
102
{ACAD_XDICTIONARY
360
2919
102
}
102
{ACAD_REACTORS
330
291A
102
}
330
1F
100
AcDbEntity
  8
AM_5
100
AcDbDimension
  2
*D30
 10
524.5242365636617
 20
234.630938726327
 30
0.0
 11
537.5242365636617
 21
234.630938726327
 31
0.0
 70
   160
 71
     5
 42
26.0
  3
AM_ISO$0
100
AcDbAlignedDimension
 13
550.5242365636616
 23
247.8752904068331
 33
0.0
 14
524.5242365636617
 24
247.8752904068331
 34
0.0
100
AcDbRotatedDimension
  0
DIMENSION
  5
291B
102
{ACAD_XDICTIONARY
360
291C
102
}
102
{ACAD_REACTORS
330
291D
102
}
330
1F
100
AcDbEntity
  8
AM_5
100
AcDbDimension
  2
*D31
 10
546.5242365636616
 20
240.630938726327
 30
0.0
 11
537.5242365636617
 21
243.380938726327
 31
0.0
 70
    32
 71
     5
 42
18.0
  3
AM_ISO$0
100
AcDbAlignedDimension
 13
528.5242365636617
 23
247.1741886305074
 33
0.0
 14
546.5242365636616
 24
247.1741886305074
 34
0.0
100
AcDbRotatedDimension
1001
ACAD
1000
DSTYLE
1002
{
1070
    40
1040
1.0
1070
   144
1040
1.0
1002
}
  0
DIMENSION
  5
291E
102
{ACAD_XDICTIONARY
360
291F
102
}
102
{ACAD_REACTORS
330
2920
102
}
330
1F
100
AcDbEntity
  8
AM_5
100
AcDbDimension
  2
*D32
 10
564.5242365636617
 20
260.3752904068331
 30
0.0
 11
561.7738920754726
 21
254.1252904068332
 31
0.0
 70
    32
 71
     5
 42
12.5
  3
AM_ISO$0
100
AcDbAlignedDimension
 13
550.5242365636616
 23
247.8752904068331
 33
0.0
 14
549.5242365636617
 24
260.3752904068331
 34
0.0
 50
90.0
100
AcDbRotatedDimension
1001
ACAD
1000
DSTYLE
1002
{
1070
    40
1040
1.0
1070
   144
1040
1.0
1002
}
  0
DIMENSION
  5
2921
102
{ACAD_XDICTIONARY
360
2922
102
}
102
{ACAD_REACTORS
330
2923
102
}
330
1F
100
AcDbEntity
  8
AM_5
100
AcDbDimension
  2
*D33
 10
558.5242365636617
 20
253.8752904068331
 30
0.0
 11
555.7742365636617
 21
250.8752904068332
 31
0.0
 70
    32
 71
     5
 42
6.0
  3
AM_ISO$0
100
AcDbAlignedDimension
 13
550.5242365636616
 23
247.8752904068331
 33
0.0
 14
549.3242365636619
 24
253.8752904068331
 34
0.0
 50
90.0
100
AcDbRotatedDimension
1001
ACAD
1000
DSTYLE
1002
{
1070
    40
1040
1.0
1070
   144
1040
1.0
1002
}
  0
DIMENSION
  5
2924
102
{ACAD_XDICTIONARY
360
2925
102
}
102
{ACAD_REACTORS
330
2926
102
}
330
1F
100
AcDbEntity
  8
AM_5
100
AcDbDimension
  2
*D34
 10
537.5242365636617
 20
267.5825236904411
 30
0.0
 11
544.0242365636617
 21
270.3325236904411
 31
0.0
 70
    32
 71
     5
 42
13.0
  3
AM_ISO$0
100
AcDbAlignedDimension
 13
550.5242365636616
 23
259.3752904068331
 33
0.0
 14
537.5242365636617
 24
261.8752904068331
 34
0.0
100
AcDbRotatedDimension
1001
ACAD
1000
DSTYLE
1002
{
1070
    40
1040
1.0
1070
   144
1040
1.0
1002
}
  0
DIMENSION
  5
2927
102
{ACAD_XDICTIONARY
360
2928
102
}
102
{ACAD_REACTORS
330
2929
102
}
330
1F
100
AcDbEntity
  8
AM_5
100
AcDbDimension
  2
*D35
 10
570.5242365636619
 20
261.8752904068331
 30
0.0
 11
567.7742365636618
 21
254.8752904068332
 31
0.0
 70
    32
 71
     5
 42
14.0
  3
AM_ISO$0
100
AcDbAlignedDimension
 13
550.5242365636616
 23
247.8752904068331
 33
0.0
 14
537.5242365636617
 24
261.8752904068331
 34
0.0
 50
90.0
100
AcDbRotatedDimension
1001
ACAD
1000
DSTYLE
1002
{
1070
    40
1040
1.0
1070
   144
1040
1.0
1002
}
  0
DIMENSION
  5
292A
102
{ACAD_XDICTIONARY
360
292B
102
}
102
{ACAD_REACTORS
330
292C
102
}
330
1F
100
AcDbEntity
  8
AM_5
100
AcDbDimension
  2
*D36
 10
507.1867321301211
 20
273.9129654141228
 30
0.0
 11
526.5613474610399
 21
283.1844204170699
 31
0.0
 70
   163
  1
4-<> thru
 71
     5
 42
3.59999999999934
  3
AM_ISO$3
100
AcDbDiametricDimension
 15
509.2479043126231
 25
276.8645021721653
 35
0.0
 40
0.0
1001
ACAD
1000
DSTYLE
1002
{
1070
    40
1040
1.0
1070
   144
1040
1.0
1002
}
  0
DIMENSION
  5
292D
330
1F
100
AcDbEntity
  8
AM_5
100
AcDbDimension
  2
*D28
 10
537.5242365636619
 20
261.875290406833
 30
0.0
 11
535.1297415693022
 21
259.4514376924016
 31
0.0
 70
   164
 71
     5
 42
8.0
  3
AM_ISO$4
100
AcDbRadialDimension
 15
531.9019533306824
 25
256.1840751369492
 35
0.0
 40
0.0
1001
ACAD
1000
DSTYLE
1002
{
1070
    40
1040
1.0
1070
   144
1040
1.0
1002
}
  0
DIMENSION
  5
292E
102
{ACAD_XDICTIONARY
360
292F
102
}
102
{ACAD_REACTORS
330
2930
102
}
330
1F
100
AcDbEntity
  8
AM_5
100
AcDbDimension
  2
*D37
 10
508.217318221372
 20
241.5852024508938
 30
0.0
 11
503.2173182213719
 21
244.3352024508938
 31
0.0
 70
    32
 71
     5
 42
10.0
  3
AM_ISO$0
100
AcDbAlignedDimension
 13
498.217318221372
 23
250.8752904068331
 33
0.0
 14
508.217318221372
 24
246.801030530532
 34
0.0
100
AcDbRotatedDimension
1001
ACAD
1000
DSTYLE
1002
{
1070
    40
1040
1.0
1070
   144
1040
1.0
1002
}
  0
DIMENSION
  5
2931
102
{ACAD_XDICTIONARY
360
2932
102
}
102
{ACAD_REACTORS
330
2933
102
}
330
1F
100
AcDbEntity
  8
AM_5
100
AcDbDimension
  2
*D38
 10
499.8173182213721
 20
262.10344628385
 30
0.0
 11
509.0041292449941
 21
264.85344628385
 31
0.0
 70
    32
 71
     5
 42
1.600000000000136
  3
AM_ISO$0
100
AcDbAlignedDimension
 13
498.217318221372
 23
260.3752904068331
 33
0.0
 14
499.8173182213721
 24
260.3752904068331
 34
0.0
100
AcDbRotatedDimension
1001
ACAD
1000
DSTYLE
1002
{
1070
    40
1040
1.0
1070
   144
1040
1.0
1002
}
  0
POINT
  5
2934
330
1F
100
AcDbEntity
  8
0
 60
     1
100
AcDbPoint
 10
23.81597089702302
 20
19.2229890805645
 30
0.0
1001
GENIUS_GENODEF_13
1002
{
1000
HIER
1070
    10
1002
}
1002
{
1000
MANEDIT
1070
     0
1002
}
1002
{
1000
NOSEL
1070
     0
1002
}
1002
{
1000
BEHIND
1070
     0
1002
}
1002
{
1000
OTHER
1070
     0
1002
}
1002
{
1000
REACTOR
1002
}
1001
GENIUS_GENOBJ-N-CRS_13
1002
{
1000
OWNER
1000
GEN
1002
}
1001
GENIUS_GENOLIS_13
1002
{
1000
ENT
1005
2902
1005
2901
1005
2900
1005
28FF
1002
}
1001
GENIUS_GENOENT_13
1002
{
1000
MYREF
1005
2934
1002
}
1002
{
1000
GRP
1005
0
1002
}
  0
POINT
  5
2935
330
1F
100
AcDbEntity
  8
0
 60
     1
100
AcDbPoint
 10
23.81597089702302
 20
19.2229890805645
 30
0.0
1001
GENIUS_GENOLIS_13
1002
{
1000
ENT
1005
28FE
1005
28FD
1005
28FC
1005
28FB
1002
}
1001
GENIUS_GENODEF_13
1002
{
1000
HIER
1070
    10
1002
}
1002
{
1000
MANEDIT
1070
     0
1002
}
1002
{
1000
NOSEL
1070
     0
1002
}
1002
{
1000
BEHIND
1070
     0
1002
}
1002
{
1000
OTHER
1070
     0
1002
}
1002
{
1000
REACTOR
1002
}
1001
GENIUS_GENOENT_13
1002
{
1000
MYREF
1005
2935
1002
}
1002
{
1000
GRP
1005
0
1002
}
1001
GENIUS_GENOBJ-N-CRS_13
1002
{
1000
OWNER
1000
GEN
1002
}
  0
POINT
  5
2936
330
1F
100
AcDbEntity
  8
0
 60
     1
100
AcDbPoint
 10
23.81597089702302
 20
19.2229890805645
 30
0.0
1001
GENIUS_GENOLIS_13
1002
{
1000
ENT
1005
28FA
1005
28F9
1005
28F8
1005
28F7
1002
}
1001
GENIUS_GENODEF_13
1002
{
1000
HIER
1070
    10
1002
}
1002
{
1000
MANEDIT
1070
     0
1002
}
1002
{
1000
NOSEL
1070
     0
1002
}
1002
{
1000
BEHIND
1070
     0
1002
}
1002
{
1000
OTHER
1070
     0
1002
}
1002
{
1000
REACTOR
1002
}
1001
GENIUS_GENOENT_13
1002
{
1000
MYREF
1005
2936
1002
}
1002
{
1000
GRP
1005
0
1002
}
1001
GENIUS_GENOBJ-N-CRS_13
1002
{
1000
OWNER
1000
GEN
1002
}
  0
POINT
  5
2937
330
1F
100
AcDbEntity
  8
0
 60
     1
100
AcDbPoint
 10
23.81597089702302
 20
19.2229890805645
 30
0.0
1001
GENIUS_GENOENT_13
1002
{
1000
MYREF
1005
2937
1002
}
1002
{
1000
GRP
1005
0
1002
}
1001
GENIUS_GENOBJ-N-CRS_13
1002
{
1000
OWNER
1000
GEN
1002
}
1001
GENIUS_GENOLIS_13
1002
{
1000
ENT
1005
28F6
1005
28F5
1005
28F4
1005
28F3
1002
}
1001
GENIUS_GENODEF_13
1002
{
1000
HIER
1070
    10
1002
}
1002
{
1000
MANEDIT
1070
     0
1002
}
1002
{
1000
NOSEL
1070
     0
1002
}
1002
{
1000
BEHIND
1070
     0
1002
}
1002
{
1000
OTHER
1070
     0
1002
}
1002
{
1000
REACTOR
1002
}
  0
LINE
  5
2A65
330
1F
100
AcDbEntity
  8
AM_7
100
AcDbLine
 10
502.6820518874387
 20
164.2341566895507
 30
0.0
 11
502.6820518874387
 21
164.2341566895507
 31
0.0
  0
LINE
  5
2A66
330
1F
100
AcDbEntity
  8
AM_7
100
AcDbLine
 10
502.6820518874387
 20
164.2341566895507
 30
0.0
 11
502.6820518874387
 21
164.2341566895507
 31
0.0
  0
LINE
  5
2A67
330
1F
100
AcDbEntity
  8
AM_7
100
AcDbLine
 10
496.9320518874387
 20
164.2341566895507
 30
0.0
 11
502.6820518874387
 21
164.2341566895507
 31
0.0
  0
LINE
  5
2A68
330
1F
100
AcDbEntity
  8
AM_7
100
AcDbLine
 10
502.6820518874387
 20
164.2341566895507
 30
0.0
 11
509.6820518874388
 21
164.2341566895507
 31
0.0
  0
LINE
  5
2A69
330
1F
100
AcDbEntity
  8
AM_7
100
AcDbLine
 10
502.6820518874387
 20
158.4841566895507
 30
0.0
 11
502.6820518874387
 21
164.2341566895507
 31
0.0
  0
LINE
  5
2A6A
330
1F
100
AcDbEntity
  8
AM_7
100
AcDbLine
 10
502.6820518874387
 20
164.2341566895507
 30
0.0
 11
502.6820518874387
 21
169.9841566895507
 31
0.0
  0
LINE
  5
2A6B
330
1F
100
AcDbEntity
  8
AM_7
100
AcDbLine
 10
540.6820518874387
 20
164.2341566895507
 30
0.0
 11
540.6820518874387
 21
164.2341566895507
 31
0.0
  0
LINE
  5
2A6C
330
1F
100
AcDbEntity
  8
AM_7
100
AcDbLine
 10
540.6820518874387
 20
164.2341566895507
 30
0.0
 11
540.6820518874387
 21
164.2341566895507
 31
0.0
  0
LINE
  5
2A6D
330
1F
100
AcDbEntity
  8
AM_7
100
AcDbLine
 10
533.6820518874388
 20
164.2341566895507
 30
0.0
 11
540.6820518874387
 21
164.2341566895507
 31
0.0
  0
LINE
  5
2A6E
330
1F
100
AcDbEntity
  8
AM_7
100
AcDbLine
 10
540.6820518874387
 20
164.2341566895507
 30
0.0
 11
546.4320518874387
 21
164.2341566895507
 31
0.0
  0
LINE
  5
2A6F
330
1F
100
AcDbEntity
  8
AM_7
100
AcDbLine
 10
540.6820518874387
 20
158.4841566895507
 30
0.0
 11
540.6820518874387
 21
164.2341566895507
 31
0.0
  0
LINE
  5
2A70
330
1F
100
AcDbEntity
  8
AM_7
100
AcDbLine
 10
540.6820518874387
 20
164.2341566895507
 30
0.0
 11
540.6820518874387
 21
169.9841566895507
 31
0.0
  0
DIMENSION
  5
2A71
330
1F
100
AcDbEntity
  8
AM_5
100
AcDbDimension
  2
*D39
 10
490.6820518774387
 20
174.2341566895507
 30
0.0
 11
487.9320518774386
 21
169.2341566895508
 31
0.0
 70
    32
 71
     5
 42
10.0
  3
AM_ISO$0
100
AcDbAlignedDimension
 13
496.9320518874387
 23
164.2341566895507
 33
0.0
 14
496.6820518874388
 24
174.2341566895507
 34
0.0
 50
90.0
100
AcDbRotatedDimension
  0
DIMENSION
  5
2A72
330
1F
100
AcDbEntity
  8
AM_5
100
AcDbDimension
  2
*D40
 10
481.6217367166508
 20
174.2341566895507
 30
0.0
 11
481.6217367166508
 21
165.1619743757476
 31
0.0
 70
   160
 71
     5
 42
20.0
  3
AM_ISO$0
100
AcDbAlignedDimension
 13
496.6820518874388
 23
154.2341566895507
 33
0.0
 14
496.6820518874388
 24
174.2341566895507
 34
0.0
 50
90.0
100
AcDbRotatedDimension
  0
DIMENSION
  5
2A73
330
1F
100
AcDbEntity
  8
AM_5
100
AcDbDimension
  2
*D41
 10
534.4320518874387
 20
179.7380909659121
 30
0.0
 11
521.6820518874389
 21
179.7380909659121
 31
0.0
 70
   160
  1
<>
 71
     5
 42
25.49999999999978
  3
AM_ISO$0
100
AcDbAlignedDimension
 13
508.932051887439
 23
174.2341566895507
 33
0.0
 14
534.4320518874387
 24
174.2341566895507
 34
0.0
100
AcDbRotatedDimension
  0
DIMENSION
  5
2A74
330
1F
100
AcDbEntity
  8
AM_5
100
AcDbDimension
  2
*D42
 10
540.6820518874387
 20
185.4228607026796
 30
0.0
 11
521.6820518874388
 21
185.4228607026796
 31
0.0
 70
   160
  1
<>
 71
     5
 42
38.0
  3
AM_ISO$0
100
AcDbAlignedDimension
 13
502.6820518874387
 23
169.9841566895507
 33
0.0
 14
540.6820518874387
 24
169.9841566895507
 34
0.0
100
AcDbRotatedDimension
  0
DIMENSION
  5
2A75
330
1F
100
AcDbEntity
  8
AM_5
100
AcDbDimension
  2
*D43
 10
546.6820518874388
 20
191.3003324350034
 30
0.0
 11
521.6820518874388
 21
191.3003324350034
 31
0.0
 70
   160
 71
     5
 42
50.0
  3
AM_ISO$0
100
AcDbAlignedDimension
 13
496.6820518874388
 23
174.2341566895507
 33
0.0
 14
546.6820518874388
 24
174.2341566895507
 34
0.0
100
AcDbRotatedDimension
  0
LINE
  5
2A76
330
1F
100
AcDbEntity
  8
AM_7
100
AcDbLine
 10
521.6820518874388
 20
176.7511788930953
 30
0.0
 11
521.6820518874388
 21
151.8923595929959
 31
0.0
  0
LINE
  5
2A77
330
1F
100
AcDbEntity
  8
AM_7
100
AcDbLine
 10
521.6820518874388
 20
138.6312553408681
 30
0.0
 11
521.6820518874388
 21
126.8312553408681
 31
0.0
  0
DIMENSION
  5
2A78
330
1F
100
AcDbEntity
  8
AM_5
100
AcDbDimension
  2
*D44
 10
491.9320518874386
 20
130.6312553408681
 30
0.0
 11
489.1820518874386
 21
122.8587679674529
 31
0.0
 70
    32
  1
<>
 71
     5
 42
3.0
  3
AM_ISO$0
100
AcDbAlignedDimension
 13
508.9320518874387
 23
133.6312553408681
 33
0.0
 14
496.6820518874388
 24
130.6312553408681
 34
0.0
 50
90.0
100
AcDbRotatedDimension
  0
DIMENSION
  5
2A79
330
1F
100
AcDbEntity
  8
AM_5
100
AcDbDimension
  2
*D45
 10
484.1820518874388
 20
130.6312553408681
 30
0.0
 11
484.1820518874387
 21
133.1312553408682
 31
0.0
 70
   160
 71
     5
 42
5.0
  3
AM_ISO$0
100
AcDbAlignedDimension
 13
496.6820518874388
 23
135.6312553408681
 33
0.0
 14
496.6820518874388
 24
130.6312553408681
 34
0.0
 50
90.0
100
AcDbRotatedDimension
  0
DIMENSION
  5
2A7A
330
1F
100
AcDbEntity
  8
AM_5
100
AcDbDimension
  2
*D46
 10
503.521140917411
 20
166.8530170523383
 30
0.0
 11
490.8932626751419
 21
148.0061127863169
 31
0.0
 70
   163
  1
2-<>
 71
     5
 42
5.499999999999886
  3
DAYUS$3
100
AcDbDiametricDimension
 15
501.8429628574662
 25
161.6152963267632
 35
0.0
 40
0.0
1001
ACAD
1000
DSTYLE
1002
{
1070
   178
1070
   256
1070
    74
1070
     1
1002
}
  0
LINE
  5
2A7B
330
1F
100
AcDbEntity
  8
AM_7
100
AcDbLine
 10
576.7311962951926
 20
138.6312553408681
 30
0.0
 11
576.7311962951926
 21
127.6312553408681
 31
0.0
  0
LINE
  5
2A7C
330
1F
100
AcDbEntity
  8
AM_VIS
100
AcDbLine
 10
496.6820518874388
 20
174.2341566895507
 30
0.0
 11
546.6820518874388
 21
174.2341566895507
 31
0.0
  0
LINE
  5
2A7D
330
1F
100
AcDbEntity
  8
AM_VIS
100
AcDbLine
 10
546.6820518874388
 20
174.2341566895507
 30
0.0
 11
546.6820518874388
 21
154.2341566895507
 31
0.0
  0
LINE
  5
2A7E
330
1F
100
AcDbEntity
  8
AM_VIS
100
AcDbLine
 10
546.6820518874388
 20
154.2341566895507
 30
0.0
 11
496.6820518874388
 21
154.2341566895507
 31
0.0
  0
LINE
  5
2A80
330
1F
100
AcDbEntity
  8
AM_VIS
100
AcDbLine
 10
496.6820518874388
 20
154.2341566895507
 30
0.0
 11
496.6820518874388
 21
174.2341566895507
 31
0.0
  0
LINE
  5
2A84
330
1F
100
AcDbEntity
  8
AM_VIS
100
AcDbLine
 10
508.9320518874387
 20
154.2341566895507
 30
0.0
 11
508.9320518874387
 21
174.2341566895507
 31
0.0
  0
LINE
  5
2A85
330
1F
100
AcDbEntity
  8
AM_VIS
100
AcDbLine
 10
534.4320518874387
 20
174.2341566895507
 30
0.0
 11
534.4320518874387
 21
154.2341566895507
 31
0.0
  0
CIRCLE
  5
2A86
330
1F
100
AcDbEntity
  8
AM_VIS
100
AcDbCircle
 10
502.6820518874387
 20
164.2341566895507
 30
0.0
 40
2.75
  0
CIRCLE
  5
2A87
330
1F
100
AcDbEntity
  8
AM_VIS
100
AcDbCircle
 10
540.6820518874387
 20
164.2341566895507
 30
0.0
 40
2.75
  0
LINE
  5
2A88
330
1F
100
AcDbEntity
  8
AM_VIS
100
AcDbLine
 10
546.6820518874388
 20
130.6312553408681
 30
0.0
 11
546.6820518874388
 21
135.6312553408681
 31
0.0
  0
LINE
  5
2A89
330
1F
100
AcDbEntity
  8
AM_VIS
100
AcDbLine
 10
546.6820518874388
 20
130.6312553408681
 30
0.0
 11
496.6820518874388
 21
130.6312553408681
 31
0.0
  0
LINE
  5
2A8A
330
1F
100
AcDbEntity
  8
AM_VIS
100
AcDbLine
 10
496.6820518874388
 20
130.6312553408681
 30
0.0
 11
496.6820518874388
 21
135.6312553408681
 31
0.0
  0
LINE
  5
2A8B
330
1F
100
AcDbEntity
  8
AM_VIS
100
AcDbLine
 10
546.6820518874388
 20
135.6312553408681
 30
0.0
 11
534.4320518874387
 21
135.6312553408681
 31
0.0
  0
LINE
  5
2A8C
330
1F
100
AcDbEntity
  8
AM_VIS
100
AcDbLine
 10
508.9320518874387
 20
135.6312553408681
 30
0.0
 11
496.6820518874388
 21
135.6312553408681
 31
0.0
  0
LINE
  5
2A8D
330
1F
100
AcDbEntity
  8
AM_VIS
100
AcDbLine
 10
534.4320518874387
 20
133.6312553408681
 30
0.0
 11
508.9320518874387
 21
133.6312553408681
 31
0.0
  0
LINE
  5
2A8E
330
1F
100
AcDbEntity
  8
AM_VIS
100
AcDbLine
 10
508.9320518874387
 20
133.6312553408681
 30
0.0
 11
508.9320518874387
 21
135.6312553408681
 31
0.0
  0
LINE
  5
2A8F
330
1F
100
AcDbEntity
  8
AM_VIS
100
AcDbLine
 10
534.4320518874387
 20
135.6312553408681
 30
0.0
 11
534.4320518874387
 21
133.6312553408681
 31
0.0
  0
LINE
  5
2A90
330
1F
100
AcDbEntity
  8
AM_VIS
100
AcDbLine
 10
586.7311962951926
 20
130.6312553408681
 30
0.0
 11
566.7311962951925
 21
130.6312553408681
 31
0.0
  0
LINE
  5
2A91
330
1F
100
AcDbEntity
  8
AM_VIS
100
AcDbLine
 10
586.7311962951926
 20
130.6312553408681
 30
0.0
 11
586.7311962951926
 21
135.6312553408681
 31
0.0
  0
LINE
  5
2A92
330
1F
100
AcDbEntity
  8
AM_VIS
100
AcDbLine
 10
566.7311962951925
 20
130.6312553408681
 30
0.0
 11
566.7311962951925
 21
135.6312553408681
 31
0.0
  0
LINE
  5
2A93
330
1F
100
AcDbEntity
  8
AM_VIS
100
AcDbLine
 10
586.7311962951926
 20
135.6312553408681
 30
0.0
 11
566.7311962951925
 21
135.6312553408681
 31
0.0
  0
LINE
  5
2A94
330
1F
100
AcDbEntity
  8
AM_HID
100
AcDbLine
 10
566.7311962951925
 20
133.6312553408681
 30
0.0
 11
586.7311962951926
 21
133.6312553408681
 31
0.0
  0
LINE
  5
2A95
330
1F
100
AcDbEntity
  8
AM_HID
100
AcDbLine
 10
573.9811962951925
 20
135.6312553408681
 30
0.0
 11
573.9811962951925
 21
130.6312553408681
 31
0.0
  0
LINE
  5
2A96
330
1F
100
AcDbEntity
  8
AM_HID
100
AcDbLine
 10
579.4811962951926
 20
135.6312553408681
 30
0.0
 11
579.4811962951926
 21
130.6312553408681
 31
0.0
  0
MTEXT
  5
2A97
330
1F
100
AcDbEntity
  8
AM_5
100
AcDbMText
 10
486.4044111298618
 20
147.9013217066917
 30
0.0
 40
3.0
 41
39.69333333333333
 71
     1
 72
     5
  1
thru
 73
     1
 44
1.0
1001
ACAD
1000
MTEXTBEGIN
1070
    73
1070
     1
1070
    44
1040
1.0
1070
    74
1070
     0
1000
MTEXTEND
  0
ENDSEC
  0
SECTION
  2
OBJECTS
  0
DICTIONARY
  5
C
330
0
100
AcDbDictionary
281
     1
  3
ACAD_COLOR
350
BE
  3
ACAD_GROUP
350
D
  3
ACAD_LAYOUT
350
1A
  3
ACAD_MATERIAL
350
BD
  3
ACAD_MLINESTYLE
350
17
  3
ACAD_PLOTSETTINGS
350
19
  3
ACAD_PLOTSTYLENAME
350
E
  3
ACAD_TABLESTYLE
350
11A
  3
ACDBHEADERROUNDTRIPXREC
350
2F4B
  3
AcDbVariableDictionary
350
94
  3
AcmDictionary
350
5B
  3
AMG
350
41
  3
AMGSNAPSETTINGS
350
1B8
  3
DWGPROPS
350
2F4A
  0
DICTIONARY
  5
3F9
330
2
100
AcDbDictionary
280
     1
281
     1
  3
ACAD_LAYERFILTERS
360
2E40
  3
ACAD_LAYERSTATES
360
CA0
  3
ACLYDICTIONARY
360
2E3F
  3
AMLAYER_GROUPCOLORS
360
18A7
  0
DICTIONARY
  5
8F
330
1F
100
AcDbDictionary
280
     1
281
     1
  3
ACAD_SORTENTS
360
18D9
  0
DICTIONARY
  5
2054
330
2053
100
AcDbDictionary
280
     1
281
     1
  3
ACAD_DIMASSOC
360
2055
  0
DICTIONARY
  5
2057
330
2056
100
AcDbDictionary
280
     1
281
     1
  3
ACAD_DIMASSOC
360
2058
  0
DICTIONARY
  5
205A
330
2059
100
AcDbDictionary
280
     1
281
     1
  3
ACAD_DIMASSOC
360
205B
  0
DICTIONARY
  5
205D
330
205C
100
AcDbDictionary
280
     1
281
     1
  3
ACAD_DIMASSOC
360
205E
  0
DICTIONARY
  5
2060
330
205F
100
AcDbDictionary
280
     1
281
     1
  3
ACAD_DIMASSOC
360
2061
  0
DICTIONARY
  5
2063
330
2062
100
AcDbDictionary
280
     1
281
     1
  3
ACAD_DIMASSOC
360
2064
  0
DICTIONARY
  5
2066
330
2065
100
AcDbDictionary
280
     1
281
     1
  3
ACAD_DIMASSOC
360
2067
  0
DICTIONARY
  5
2069
330
2068
100
AcDbDictionary
280
     1
281
     1
  3
ACAD_DIMASSOC
360
206A
  0
DICTIONARY
  5
206C
330
206B
100
AcDbDictionary
280
     1
281
     1
  3
ACAD_DIMASSOC
360
206D
  0
DICTIONARY
  5
206F
330
206E
100
AcDbDictionary
280
     1
281
     1
  3
ACAD_DIMASSOC
360
2070
  0
DICTIONARY
  5
2072
330
2071
100
AcDbDictionary
280
     1
281
     1
  3
ACAD_DIMASSOC
360
2073
  0
DICTIONARY
  5
2075
330
2074
100
AcDbDictionary
280
     1
281
     1
  3
ACAD_DIMASSOC
360
2076
  0
DICTIONARY
  5
2078
330
2077
100
AcDbDictionary
280
     1
281
     1
  3
ACAD_DIMASSOC
360
2079
  0
DICTIONARY
  5
207B
330
207A
100
AcDbDictionary
280
     1
281
     1
  3
ACAD_DIMASSOC
360
207C
  0
DICTIONARY
  5
207E
330
207D
100
AcDbDictionary
280
     1
281
     1
  3
ACAD_DIMASSOC
360
207F
  0
DICTIONARY
  5
2081
330
2080
100
AcDbDictionary
280
     1
281
     1
  3
ACAD_DIMASSOC
360
2082
  0
DICTIONARY
  5
2084
330
2083
100
AcDbDictionary
280
     1
281
     1
  3
ACAD_DIMASSOC
360
2085
  0
DICTIONARY
  5
2087
330
2086
100
AcDbDictionary
280
     1
281
     1
  3
ACAD_DIMASSOC
360
2088
  0
DICTIONARY
  5
208A
330
2089
100
AcDbDictionary
280
     1
281
     1
  3
ACAD_DIMASSOC
360
208B
  0
DICTIONARY
  5
208D
330
208C
100
AcDbDictionary
280
     1
281
     1
  3
ACAD_DIMASSOC
360
208E
  0
DICTIONARY
  5
2090
330
208F
100
AcDbDictionary
280
     1
281
     1
  3
ACAD_DIMASSOC
360
2091
  0
DICTIONARY
  5
2093
330
2092
100
AcDbDictionary
280
     1
281
     1
  3
ACAD_DIMASSOC
360
2094
  0
DICTIONARY
  5
2916
330
2915
100
AcDbDictionary
280
     1
281
     1
  3
ACAD_DIMASSOC
360
2917
  0
DICTIONARY
  5
2919
330
2918
100
AcDbDictionary
280
     1
281
     1
  3
ACAD_DIMASSOC
360
291A
  0
DICTIONARY
  5
291C
330
291B
100
AcDbDictionary
280
     1
281
     1
  3
ACAD_DIMASSOC
360
291D
  0
DICTIONARY
  5
291F
330
291E
100
AcDbDictionary
280
     1
281
     1
  3
ACAD_DIMASSOC
360
2920
  0
DICTIONARY
  5
2922
330
2921
100
AcDbDictionary
280
     1
281
     1
  3
ACAD_DIMASSOC
360
2923
  0
DICTIONARY
  5
2925
330
2924
100
AcDbDictionary
280
     1
281
     1
  3
ACAD_DIMASSOC
360
2926
  0
DICTIONARY
  5
2928
330
2927
100
AcDbDictionary
280
     1
281
     1
  3
ACAD_DIMASSOC
360
2929
  0
DICTIONARY
  5
292B
330
292A
100
AcDbDictionary
280
     1
281
     1
  3
ACAD_DIMASSOC
360
292C
  0
DICTIONARY
  5
292F
330
292E
100
AcDbDictionary
280
     1
281
     1
  3
ACAD_DIMASSOC
360
2930
  0
DICTIONARY
  5
2932
330
2931
100
AcDbDictionary
280
     1
281
     1
  3
ACAD_DIMASSOC
360
2933
  0
DICTIONARY
  5
BE
102
{ACAD_REACTORS
330
C
102
}
330
C
100
AcDbDictionary
281
     1
  0
DICTIONARY
  5
D
102
{ACAD_REACTORS
330
C
102
}
330
C
100
AcDbDictionary
281
     1
  0
DICTIONARY
  5
1A
102
{ACAD_REACTORS
330
C
102
}
330
C
100
AcDbDictionary
281
     1
  3
Model
350
22
  3
配置1
350
1E
  3
配置2
350
26
  0
DICTIONARY
  5
BD
102
{ACAD_REACTORS
330
C
102
}
330
C
100
AcDbDictionary
281
     1
  0
DICTIONARY
  5
17
102
{ACAD_REACTORS
330
C
102
}
330
C
100
AcDbDictionary
281
     1
  3
Standard
350
18
  0
DICTIONARY
  5
19
102
{ACAD_REACTORS
330
C
102
}
330
C
100
AcDbDictionary
281
     1
  0
ACDBDICTIONARYWDFLT
  5
E
102
{ACAD_REACTORS
330
C
102
}
330
C
100
AcDbDictionary
281
     1
  3
Normal
350
F
100
AcDbDictionaryWithDefault
340
F
  0
DICTIONARY
  5
11A
102
{ACAD_REACTORS
330
C
102
}
330
C
100
AcDbDictionary
281
     1
  3
Standard
350
11B
  0
DICTIONARY
  5
2F4B
102
{ACAD_REACTORS
330
C
102
}
330
C
100
AcDbDictionary
281
     1
  0
DICTIONARY
  5
94
102
{ACAD_REACTORS
330
C
102
}
330
C
100
AcDbDictionary
281
     1
  3
CTABLESTYLE
350
138
  3
DIMASSOC
350
96
  3
INDEXCTL
350
95
  3
PROJECTNAME
350
2733
  0
DICTIONARY
  5
5B
102
{ACAD_REACTORS
330
C
102
}
330
C
100
AcDbDictionary
281
     1
  3
AcmBOM
350
1B5
  3
AcmStdDictionary
350
61
  3
AMDTSECTSYM_ARROWCOLOR
350
123
  0
DICTIONARY
  5
41
102
{ACAD_REACTORS
330
C
102
}
330
C
100
AcDbDictionary
281
     1
  0
DICTIONARY
  5
1B8
102
{ACAD_REACTORS
330
C
102
}
330
C
100
AcDbDictionary
281
     1
  0
XRECORD
  5
2F4A
102
{ACAD_REACTORS
330
C
102
}
330
C
100
AcDbXrecord
280
     1
  1
DWGPROPS COOKIE
  2

  3

  4

  6

  7

  8

  9

300
AmdtFileType=84
301
=
302
=
303
=
304
=
305
=
306
=
307
=
308
=
309
=
 40
0.2080750115740741
 41
2454422.344345151
 42
2454798.592508021
  1

 90
        1
  0
DICTIONARY
  5
2E40
102
{ACAD_REACTORS
330
3F9
102
}
330
3F9
100
AcDbDictionary
281
     1
  0
DICTIONARY
  5
CA0
102
{ACAD_REACTORS
330
3F9
102
}
330
3F9
100
AcDbDictionary
281
     1
  0
DICTIONARY
  5
2E3F
102
{ACAD_REACTORS
330
3F9
102
}
330
3F9
100
AcDbDictionary
281
     1
1001
ACAD
1000
<All
  0
DICTIONARY
  5
18A7
102
{ACAD_REACTORS
330
3F9
102
}
330
3F9
100
AcDbDictionary
280
     1
281
     1
  0
SORTENTSTABLE
  5
18D9
102
{ACAD_REACTORS
330
8F
102
}
330
8F
100
AcDbSortentsTable
330
1F
331
1644
  5
1644
331
1605
  5
1605
331
164C
  5
164C
331
15D6
  5
15D6
331
160D
  5
160D
331
1615
  5
1615
331
15DE
  5
15DE
331
159F
  5
159F
331
161D
  5
161D
331
15E6
  5
15E6
331
15A7
  5
15A7
331
1625
  5
1625
331
15EE
  5
15EE
331
15AF
  5
15AF
331
162D
  5
162D
331
15F6
  5
15F6
331
1635
  5
1635
331
15BF
  5
15BF
331
163D
  5
163D
331
1645
  5
1645
331
1606
  5
1606
331
164D
  5
164D
331
15D7
  5
15D7
331
160E
  5
160E
331
1616
  5
1616
331
15DF
  5
15DF
331
15A0
  5
15A0
331
161E
  5
161E
331
15E7
  5
15E7
331
15A8
  5
15A8
331
1626
  5
1626
331
15EF
  5
15EF
331
15B0
  5
15B0
331
162E
  5
162E
331
15F7
  5
15F7
331
15B8
  5
15B8
331
1636
  5
1636
331
15FF
  5
15FF
331
15C0
  5
15C0
331
163E
  5
163E
331
15C8
  5
15C8
331
1646
  5
1646
331
15D0
  5
15D0
331
1607
  5
1607
331
164E
  5
164E
331
160F
  5
160F
331
15D8
  5
15D8
331
1599
  5
1599
331
1617
  5
1617
331
15E0
  5
15E0
331
15A1
  5
15A1
331
161F
  5
161F
331
15E8
  5
15E8
331
15A9
  5
15A9
331
1627
  5
1627
331
15F0
  5
15F0
331
162F
  5
162F
331
15F8
  5
15F8
331
15B9
  5
15B9
331
1637
  5
1637
331
15C1
  5
15C1
331
163F
  5
163F
331
1600
  5
1600
331
1647
  5
1647
331
15D1
  5
15D1
331
1608
  5
1608
331
164F
  5
164F
331
1610
  5
1610
331
15D9
  5
15D9
331
159A
  5
159A
331
1618
  5
1618
331
15E1
  5
15E1
331
15A2
  5
15A2
331
1620
  5
1620
331
15E9
  5
15E9
331
15AA
  5
15AA
331
1628
  5
1628
331
15F1
  5
15F1
331
1630
  5
1630
331
15F9
  5
15F9
331
1638
  5
1638
331
15C2
  5
15C2
331
1640
  5
1640
331
1601
  5
1601
331
1648
  5
1648
331
15D2
  5
15D2
331
1609
  5
1609
331
1650
  5
1650
331
1611
  5
1611
331
15DA
  5
15DA
331
159B
  5
159B
331
1619
  5
1619
331
15E2
  5
15E2
331
15A3
  5
15A3
331
1621
  5
1621
331
15EA
  5
15EA
331
15AB
  5
15AB
331
1629
  5
1629
331
15F2
  5
15F2
331
1631
  5
1631
331
15FA
  5
15FA
331
1639
  5
1639
331
15C3
  5
15C3
331
1641
  5
1641
331
1649
  5
1649
331
160A
  5
160A
331
1612
  5
1612
331
15DB
  5
15DB
331
159C
  5
159C
331
161A
  5
161A
331
15E3
  5
15E3
331
15A4
  5
15A4
331
1622
  5
1622
331
15EB
  5
15EB
331
15AC
  5
15AC
331
162A
  5
162A
331
15F3
  5
15F3
331
15B4
  5
15B4
331
1632
  5
1632
331
15FB
  5
15FB
331
163A
  5
163A
331
15C4
  5
15C4
331
1642
  5
1642
331
15CC
  5
15CC
331
1603
  5
1603
331
164A
  5
164A
331
160B
  5
160B
331
1613
  5
1613
331
15DC
  5
15DC
331
159D
  5
159D
331
161B
  5
161B
331
15E4
  5
15E4
331
15A5
  5
15A5
331
1623
  5
1623
331
15EC
  5
15EC
331
15AD
  5
15AD
331
162B
  5
162B
331
15F4
  5
15F4
331
1633
  5
1633
331
15FC
  5
15FC
331
15BD
  5
15BD
331
163B
  5
163B
331
1643
  5
1643
331
1604
  5
1604
331
164B
  5
164B
331
160C
  5
160C
331
1614
  5
1614
331
15DD
  5
15DD
331
159E
  5
159E
331
161C
  5
161C
331
15E5
  5
15E5
331
15A6
  5
15A6
331
1624
  5
1624
331
15ED
  5
15ED
331
15AE
  5
15AE
331
162C
  5
162C
331
15F5
  5
15F5
331
1634
  5
1634
331
15FD
  5
15FD
331
15BE
  5
15BE
331
163C
  5
163C
  0
DIMASSOC
  5
2055
102
{ACAD_REACTORS
330
2054
102
}
330
2054
100
AcDbDimAssoc
330
2053
 90
        3
 70
     0
 71
     0
  1
AcDbOsnapPointRef
 72
     1
331
2028
 73
     0
 91
        0
 40
0.0
 10
239.3479374983461
 20
314.452095029986
 30
0.0
 75
     0
  1
AcDbOsnapPointRef
 72
     1
331
202C
 73
     0
 91
        0
 40
0.0
 10
275.3479374983462
 20
314.452095029986
 30
0.0
 75
     0
  0
DIMASSOC
  5
2058
102
{ACAD_REACTORS
330
2057
102
}
330
2057
100
AcDbDimAssoc
330
2056
 90
        3
 70
     0
 71
     0
  1
AcDbOsnapPointRef
 72
     1
331
1F03
 73
     2
 91
        1
 40
0.0
 10
227.3479374983462
 20
316.1985343714455
 30
0.0
 75
     0
  1
AcDbOsnapPointRef
 72
     1
331
1F13
 73
     2
 91
        1
 40
0.0
 10
287.3479374983461
 20
316.1985343714455
 30
0.0
 75
     0
  0
DIMASSOC
  5
205B
102
{ACAD_REACTORS
330
205A
102
}
330
205A
100
AcDbDimAssoc
330
2059
 90
        3
 70
     0
 71
     0
  1
AcDbOsnapPointRef
 72
    13
331
1F05
 73
     2
 91
        1
 40
0.0
 10
222.8479374983463
 20
313.952095029985
 30
0.0
 75
     0
  1
AcDbOsnapPointRef
 72
    13
331
1F21
 73
     2
 91
        1
 40
0.0
 10
291.8479374983462
 20
313.952095029985
 30
0.0
 75
     0
  0
DIMASSOC
  5
205E
102
{ACAD_REACTORS
330
205D
102
}
330
205D
100
AcDbDimAssoc
330
205C
 90
        3
 70
     0
 71
     0
  1
AcDbOsnapPointRef
 72
    13
331
1F21
 73
     2
 91
        1
 40
0.0
 10
291.8479374983462
 20
313.952095029985
 30
0.0
 75
     0
  1
AcDbOsnapPointRef
 72
     1
331
1F40
 73
     0
 91
        0
 40
0.0
 10
307.3479374983461
 20
316.2020950299851
 30
0.0
 75
     0
  0
DIMASSOC
  5
2061
102
{ACAD_REACTORS
330
2060
102
}
330
2060
100
AcDbDimAssoc
330
205F
 90
        3
 70
     0
 71
     0
  1
AcDbOsnapPointRef
 72
     1
331
2031
 73
     0
 91
        0
 40
0.0
 10
236.3479374983451
 20
294.9520950299848
 30
0.0
 75
     0
  1
AcDbOsnapPointRef
 72
     1
331
2029
 73
     0
 91
        0
 40
0.0
 10
236.3479374983451
 20
311.452095029985
 30
0.0
 75
     0
  0
DIMASSOC
  5
2064
102
{ACAD_REACTORS
330
2063
102
}
330
2063
100
AcDbDimAssoc
330
2062
 90
        3
 70
     0
 71
     0
  1
AcDbOsnapPointRef
 72
     1
331
1F8E
 73
     0
 91
        0
 40
0.0
 10
322.3479374983461
 20
235.326508645885
 30
0.0
 75
     0
  1
AcDbOsnapPointRef
 72
    13
331
1F91
 73
     0
 91
        0
 40
0.0
 10
316.8479374983462
 20
227.0790511349193
 30
0.0
 75
     0
  0
DIMASSOC
  5
2067
102
{ACAD_REACTORS
330
2066
102
}
330
2066
100
AcDbDimAssoc
330
2065
 90
        3
 70
     0
 71
     0
  1
AcDbOsnapPointRef
 72
     1
331
1F8E
 73
     0
 91
        0
 40
0.0
 10
322.3479374983461
 20
235.326508645885
 30
0.0
 75
     0
  1
AcDbOsnapPointRef
 72
    13
331
1F53
 73
     0
 91
        0
 40
0.0
 10
310.3479374983461
 20
228.668738799912
 30
0.0
 75
     0
  0
DIMASSOC
  5
206A
102
{ACAD_REACTORS
330
2069
102
}
330
2069
100
AcDbDimAssoc
330
2068
 90
        1
 70
     0
 71
     0
  1
AcDbOsnapPointRef
 72
     1
331
1F8E
 73
     0
 91
        0
 40
0.0
 10
322.3479374983461
 20
235.326508645885
 30
0.0
 75
     0
  0
DIMASSOC
  5
206D
102
{ACAD_REACTORS
330
206C
102
}
330
206C
100
AcDbDimAssoc
330
206B
 90
        3
 70
     0
 71
     0
  1
AcDbOsnapPointRef
 72
     1
331
1EF3
 73
     0
 91
        0
 40
0.0
 10
192.3479374983464
 20
235.326508645885
 30
0.0
 75
     0
  1
AcDbOsnapPointRef
 72
     1
331
1EF7
 73
     0
 91
        0
 40
0.0
 10
207.3479374983464
 20
235.326508645885
 30
0.0
 75
     0
  0
DIMASSOC
  5
2070
102
{ACAD_REACTORS
330
206F
102
}
330
206F
100
AcDbDimAssoc
330
206E
 90
        3
 70
     0
 71
     0
  1
AcDbOsnapPointRef
 72
     1
331
1EF3
 73
     0
 91
        0
 40
0.0
 10
192.3479374983464
 20
235.326508645885
 30
0.0
 75
     0
  1
AcDbOsnapPointRef
 72
     1
331
1F8E
 73
     0
 91
        0
 40
0.0
 10
322.3479374983461
 20
235.326508645885
 30
0.0
 75
     0
  0
DIMASSOC
  5
2073
102
{ACAD_REACTORS
330
2072
102
}
330
2072
100
AcDbDimAssoc
330
2071
 90
        3
 70
     0
 71
     0
  1
AcDbOsnapPointRef
 72
     1
331
1EEF
 73
     0
 91
        0
 40
0.0
 10
206.8479374983464
 20
208.8265086458849
 30
0.0
 75
     0
  1
AcDbOsnapPointRef
 72
    13
331
1EA7
 73
     0
 91
        0
 40
0.0
 10
207.3479374983464
 20
210.3265086458837
 30
0.0
 75
     0
  0
DIMASSOC
  5
2076
102
{ACAD_REACTORS
330
2075
102
}
330
2075
100
AcDbDimAssoc
330
2074
 90
        3
 70
     0
 71
     0
  1
AcDbOsnapPointRef
 72
    13
331
1F98
 73
     0
 91
        0
 40
0.0
 10
378.2251890070329
 20
209.1604700453635
 30
0.0
 75
     0
  1
AcDbOsnapPointRef
 72
    13
331
1FD3
 73
     0
 91
        0
 40
0.0
 10
396.2251890070329
 20
209.1604700453635
 30
0.0
 75
     0
  0
DIMASSOC
  5
2079
102
{ACAD_REACTORS
330
2078
102
}
330
2078
100
AcDbDimAssoc
330
2077
 90
        3
 70
     0
 71
     0
  1
AcDbOsnapPointRef
 72
    13
331
1F9C
 73
     0
 91
        0
 40
0.0
 10
373.7251890070329
 20
211.2265086458848
 30
0.0
 75
     0
  1
AcDbOsnapPointRef
 72
     1
331
2025
 73
     0
 91
        0
 40
0.0
 10
400.7251890070328
 20
211.2265086458848
 30
0.0
 75
     0
  0
DIMASSOC
  5
207C
102
{ACAD_REACTORS
330
207B
102
}
330
207B
100
AcDbDimAssoc
330
207A
 90
        3
 70
     0
 71
     0
  1
AcDbOsnapPointRef
 72
    13
331
1F9E
 73
     0
 91
        0
 40
0.0
 10
374.1544403890116
 20
213.3265086458847
 30
0.0
 75
     0
  1
AcDbOsnapPointRef
 72
    13
331
1FA7
 73
     0
 91
        0
 40
0.0
 10
374.1544403890116
 20
231.3265086458847
 30
0.0
 75
     0
  0
DIMASSOC
  5
207F
102
{ACAD_REACTORS
330
207E
102
}
330
207E
100
AcDbDimAssoc
330
207D
 90
        3
 70
     0
 71
     0
  1
AcDbOsnapPointRef
 72
     6
331
1F97
 73
     0
 91
        0
 40
1.0
 10
374.751930562857
 20
208.8265086458847
 30
0.0
332
1F9D
 74
     0
 92
        0
 75
     0
  1
AcDbOsnapPointRef
 72
    13
331
1F96
 73
     0
 91
        0
 40
0.0
 10
376.1251890070329
 20
235.8265086458847
 30
0.0
 75
     0
  0
DIMASSOC
  5
2082
102
{ACAD_REACTORS
330
2081
102
}
330
2081
100
AcDbDimAssoc
330
2080
 90
        3
 70
     0
 71
     0
  1
AcDbOsnapPointRef
 72
     6
331
1F97
 73
     0
 91
        0
 40
1.0
 10
374.751930562857
 20
208.8265086458847
 30
0.0
332
1F9D
 74
     0
 92
        0
 75
     0
  1
AcDbOsnapPointRef
 72
     6
331
1FB7
 73
     0
 91
        0
 40
0.999999999999958
 10
376.6251890070337
 20
245.3265086458848
 30
0.0
332
1FBD
 74
     0
 92
        0
 75
     0
  0
DIMASSOC
  5
2085
102
{ACAD_REACTORS
330
2084
102
}
330
2084
100
AcDbDimAssoc
330
2083
 90
        3
 70
     0
 71
     0
  1
AcDbOsnapPointRef
 72
     1
331
1FBD
 73
     0
 91
        0
 40
0.0
 10
376.2251890070333
 20
244.9265086458847
 30
0.0
 75
     0
  1
AcDbOsnapPointRef
 72
     1
331
200E
 73
     0
 91
        0
 40
0.0
 10
398.2251890070336
 20
244.9265086458847
 30
0.0
 75
     0
  0
DIMASSOC
  5
2088
102
{ACAD_REACTORS
330
2087
102
}
330
2087
100
AcDbDimAssoc
330
2086
 90
        3
 70
     0
 71
     0
  1
AcDbOsnapPointRef
 72
     6
331
1F97
 73
     0
 91
        0
 40
0.0
 10
399.6984474512086
 20
208.8265086458847
 30
0.0
332
1F7B
 74
     0
 92
        0
 75
     0
  1
AcDbOsnapPointRef
 72
    13
331
1F78
 73
     0
 91
        0
 40
0.0
 10
401.7251890070329
 20
222.3265086458846
 30
0.0
 75
     0
  0
DIMASSOC
  5
208B
102
{ACAD_REACTORS
330
208A
102
}
330
208A
100
AcDbDimAssoc
330
2089
 90
        3
 70
     0
 71
     0
  1
AcDbOsnapPointRef
 72
     1
331
2021
 73
     0
 91
        0
 40
0.0
 10
315.9479374983462
 20
167.9520895061253
 30
0.0
 75
     0
  1
AcDbOsnapPointRef
 72
     1
331
2020
 73
     0
 91
        0
 40
0.0
 10
322.3479374983461
 20
159.4394004375344
 30
0.0
 75
     0
  0
DIMASSOC
  5
208E
102
{ACAD_REACTORS
330
208D
102
}
330
208D
100
AcDbDimAssoc
330
208C
 90
        3
 70
     0
 71
     0
  1
AcDbOsnapPointRef
 72
     1
331
1F66
 73
     0
 91
        0
 40
0.0
 10
192.3479374983464
 20
159.4394004375344
 30
0.0
 75
     0
  1
AcDbOsnapPointRef
 72
     1
331
1F6A
 73
     0
 91
        0
 40
0.0
 10
198.7479374983464
 20
167.9520895061253
 30
0.0
 75
     0
  0
DIMASSOC
  5
2091
102
{ACAD_REACTORS
330
2090
102
}
330
2090
100
AcDbDimAssoc
330
208F
 90
        2
 70
     0
 71
     0
  1
AcDbOsnapPointRef
 72
    13
331
1EA7
 73
     0
 91
        0
 40
0.0
 10
207.3479374983464
 20
210.3265086458837
 30
0.0
 75
     0
  0
DIMASSOC
  5
2094
102
{ACAD_REACTORS
330
2093
102
}
330
2093
100
AcDbDimAssoc
330
2092
 90
        3
 70
     0
 71
     0
  1
AcDbOsnapPointRef
 72
     1
331
1F55
 73
     0
 91
        0
 40
0.0
 10
207.3479374983464
 20
184.4394004375346
 30
0.0
 75
     0
  1
AcDbOsnapPointRef
 72
     1
331
1F56
 73
     0
 91
        0
 40
0.0
 10
207.3479374983464
 20
160.4394004375347
 30
0.0
 75
     0
  0
DIMASSOC
  5
2917
102
{ACAD_REACTORS
330
2916
102
}
330
2916
100
AcDbDimAssoc
330
2915
 90
        3
 70
     0
 71
     0
  1
AcDbOsnapPointRef
 72
    13
331
290E
 73
     0
 91
        0
 40
0.0
 10
0.0
 20
0.0
 30
2.000000000000000E+50
 75
     0
  1
AcDbOsnapPointRef
 72
     1
331
290F
 73
     0
 91
        0
 40
0.0
 10
0.0
 20
0.0
 30
2.000000000000000E+50
 75
     0
  0
DIMASSOC
  5
291A
102
{ACAD_REACTORS
330
2919
102
}
330
2919
100
AcDbDimAssoc
330
2918
 90
        3
 70
     0
 71
     0
  1
AcDbOsnapPointRef
 72
    13
331
28D7
 73
     0
 91
        0
 40
0.0
 10
0.0
 20
0.0
 30
2.000000000000000E+50
 75
     0
  1
AcDbOsnapPointRef
 72
     1
331
28DA
 73
     0
 91
        0
 40
0.0
 10
0.0
 20
0.0
 30
2.000000000000000E+50
 75
     0
  0
DIMASSOC
  5
291D
102
{ACAD_REACTORS
330
291C
102
}
330
291C
100
AcDbDimAssoc
330
291B
 90
        3
 70
     0
 71
     0
  1
AcDbOsnapPointRef
 72
     1
331
2903
 73
     0
 91
        0
 40
0.0
 10
0.0
 20
0.0
 30
2.000000000000000E+50
 75
     0
  1
AcDbOsnapPointRef
 72
     1
331
2904
 73
     0
 91
        0
 40
0.0
 10
0.0
 20
0.0
 30
2.000000000000000E+50
 75
     0
  0
DIMASSOC
  5
2920
102
{ACAD_REACTORS
330
291F
102
}
330
291F
100
AcDbDimAssoc
330
291E
 90
        3
 70
     0
 71
     0
  1
AcDbOsnapPointRef
 72
    13
331
28D7
 73
     0
 91
        0
 40
0.0
 10
0.0
 20
0.0
 30
2.000000000000000E+50
 75
     0
  1
AcDbOsnapPointRef
 72
     1
331
28CD
 73
     0
 91
        0
 40
0.0
 10
0.0
 20
0.0
 30
2.000000000000000E+50
 75
     0
  0
DIMASSOC
  5
2923
102
{ACAD_REACTORS
330
2922
102
}
330
2922
100
AcDbDimAssoc
330
2921
 90
        3
 70
     0
 71
     0
  1
AcDbOsnapPointRef
 72
    13
331
28D7
 73
     0
 91
        0
 40
0.0
 10
0.0
 20
0.0
 30
2.000000000000000E+50
 75
     0
  1
AcDbOsnapPointRef
 72
     1
331
28FF
 73
     0
 91
        0
 40
0.0
 10
0.0
 20
0.0
 30
2.000000000000000E+50
 75
     0
  0
DIMASSOC
  5
2926
102
{ACAD_REACTORS
330
2925
102
}
330
2925
100
AcDbDimAssoc
330
2924
 90
        3
 70
     0
 71
     0
  1
AcDbOsnapPointRef
 72
    13
331
28CE
 73
     0
 91
        0
 40
0.0
 10
0.0
 20
0.0
 30
2.000000000000000E+50
 75
     0
  1
AcDbOsnapPointRef
 72
     3
331
28D4
 73
     0
 91
        0
 40
3.330209039765197
 10
0.0
 20
0.0
 30
0.0
 75
     0
  0
DIMASSOC
  5
2929
102
{ACAD_REACTORS
330
2928
102
}
330
2928
100
AcDbDimAssoc
330
2927
 90
        3
 70
     0
 71
     0
  1
AcDbOsnapPointRef
 72
    13
331
28D7
 73
     0
 91
        0
 40
0.0
 10
0.0
 20
0.0
 30
2.000000000000000E+50
 75
     0
  1
AcDbOsnapPointRef
 72
     3
331
28D4
 73
     0
 91
        0
 40
3.330209039765197
 10
0.0
 20
0.0
 30
0.0
 75
     0
  0
DIMASSOC
  5
292C
102
{ACAD_REACTORS
330
292B
102
}
330
292B
100
AcDbDimAssoc
330
292A
 90
        2
 70
     0
 71
     0
  1
AcDbOsnapPointRef
 72
     3
331
28EF
 73
     2
 91
        0
 40
0.0
 10
0.0
 20
0.0
 30
0.0
 75
     0
  0
DIMASSOC
  5
2930
102
{ACAD_REACTORS
330
292F
102
}
330
292F
100
AcDbDimAssoc
330
292E
 90
        3
 70
     0
 71
     0
  1
AcDbOsnapPointRef
 72
    13
331
2907
 73
     0
 91
        0
 40
0.0
 10
0.0
 20
0.0
 30
2.000000000000000E+50
 75
     0
  1
AcDbOsnapPointRef
 72
     1
331
2912
 73
     0
 91
        0
 40
0.0
 10
0.0
 20
0.0
 30
2.000000000000000E+50
 75
     0
  0
DIMASSOC
  5
2933
102
{ACAD_REACTORS
330
2932
102
}
330
2932
100
AcDbDimAssoc
330
2931
 90
        3
 70
     0
 71
     0
  1
AcDbOsnapPointRef
 72
    13
331
2905
 73
     2
 91
        0
 40
0.0
 10
0.0
 20
0.0
 30
2.000000000000000E+50
 75
     0
  1
AcDbOsnapPointRef
 72
     1
331
2905
 73
     2
 91
        0
 40
0.0
 10
0.0
 20
0.0
 30
2.000000000000000E+50
 75
     0
  0
LAYOUT
  5
22
102
{ACAD_XDICTIONARY
360
2F4E
102
}
102
{ACAD_REACTORS
330
1A
102
}
330
1A
100
AcDbPlotSettings
  1

  2
\\RD\EPSON Stylus C63 Series單色
  4
A4
  6

 40
3.757083177566528
 41
3.757076978683471
 42
3.757080078125
 43
3.757080078125
 44
209.9733276367187
 45
296.9683227539062
 46
0.0
 47
0.0
 48
0.0
 49
0.0
140
0.0
141
0.0
142
1.0
143
0.3405120737814363
 70
 11952
 72
     1
 73
     0
 74
     0
  7
單色出圖.ctb
 75
     0
147
2.936753428137963
148
-2047.07469463503
149
-1261.649717473083
100
AcDbLayout
  1
Model
 70
     1
 71
     0
 10
0.0
 20
0.0
 11
12.0
 21
9.0
 12
0.0
 22
0.0
 32
0.0
 14
0.0
 24
0.0
 34
0.0
 15
0.0
 25
0.0
 35
0.0
146
0.0
 13
0.0
 23
0.0
 33
0.0
 16
1.0
 26
0.0
 36
0.0
 17
0.0
 27
1.0
 37
0.0
 76
     0
330
1F
1001
ACAD_PSEXT
1000
\\RD\EPSON Stylus C63 Series單色
1000
EPSON Stylus C63 Series
1000
\\RD
1000

1070
     0
  0
LAYOUT
  5
1E
102
{ACAD_XDICTIONARY
360
2F4C
102
}
102
{ACAD_REACTORS
330
1A
102
}
330
1A
100
AcDbPlotSettings
  1

  2

  4

  6

 40
0.0
 41
0.0
 42
0.0
 43
0.0
 44
0.0
 45
0.0
 46
0.0
 47
0.0
 48
0.0
 49
0.0
140
0.0
141
0.0
142
1.0
143
1.0
 70
   688
 72
     0
 73
     0
 74
     5
  7
單色出圖.ctb
 75
    16
147
1.0
148
0.0
149
0.0
100
AcDbLayout
  1
配置1
 70
     1
 71
     1
 10
0.0
 20
0.0
 11
420.0
 21
297.0
 12
0.0
 22
0.0
 32
0.0
 14
1.000000000000000E+20
 24
1.000000000000000E+20
 34
1.000000000000000E+20
 15
-1.000000000000000E+20
 25
-1.000000000000000E+20
 35
-1.000000000000000E+20
146
0.0
 13
0.0
 23
0.0
 33
0.0
 16
1.0
 26
0.0
 36
0.0
 17
0.0
 27
1.0
 37
0.0
 76
     0
330
1B
  0
LAYOUT
  5
26
102
{ACAD_XDICTIONARY
360
2F50
102
}
102
{ACAD_REACTORS
330
1A
102
}
330
1A
100
AcDbPlotSettings
  1

  2

  4

  6

 40
0.0
 41
0.0
 42
0.0
 43
0.0
 44
0.0
 45
0.0
 46
0.0
 47
0.0
 48
0.0
 49
0.0
140
0.0
141
0.0
142
1.0
143
1.0
 70
   688
 72
     0
 73
     0
 74
     5
  7
單色出圖.ctb
 75
    16
147
1.0
148
0.0
149
0.0
100
AcDbLayout
  1
配置2
 70
     1
 71
     2
 10
0.0
 20
0.0
 11
12.0
 21
9.0
 12
0.0
 22
0.0
 32
0.0
 14
0.0
 24
0.0
 34
0.0
 15
0.0
 25
0.0
 35
0.0
146
0.0
 13
0.0
 23
0.0
 33
0.0
 16
1.0
 26
0.0
 36
0.0
 17
0.0
 27
1.0
 37
0.0
 76
     0
330
23
  0
MLINESTYLE
  5
18
102
{ACAD_REACTORS
330
17
102
}
330
17
100
AcDbMlineStyle
  2
STANDARD
 70
     0
  3

 62
   256
 51
90.0
 52
90.0
 71
     2
 49
0.5
 62
   256
  6
BYLAYER
 49
-0.5
 62
   256
  6
BYLAYER
  0
ACDBPLACEHOLDER
  5
F
102
{ACAD_REACTORS
330
E
102
}
330
E
  0
TABLESTYLE
  5
11B
102
{ACAD_REACTORS
330
11A
102
}
330
11A
100
AcDbTableStyle
  3
Standard
 70
     0
 71
     0
 40
1.5
 41
1.5
280
     0
281
     0
  7
STANDARD
140
4.5
170
     2
 62
     0
 63
     7
283
     0
274
    -2
284
     1
 64
     0
275
    -2
285
     1
 65
     0
276
    -2
286
     1
 66
     0
277
    -2
287
     1
 67
     0
278
    -2
288
     1
 68
     0
279
    -2
289
     1
 69
     0
  7
STANDARD
140
6.0
170
     5
 62
     0
 63
     7
283
     0
274
    -2
284
     1
 64
     0
275
    -2
285
     1
 65
     0
276
    -2
286
     1
 66
     0
277
    -2
287
     1
 67
     0
278
    -2
288
     1
 68
     0
279
    -2
289
     1
 69
     0
  7
STANDARD
140
4.5
170
     5
 62
     0
 63
     7
283
     0
274
    -2
284
     1
 64
     0
275
    -2
285
     1
 65
     0
276
    -2
286
     1
 66
     0
277
    -2
287
     1
 67
     0
278
    -2
288
     1
 68
     0
279
    -2
289
     1
 69
     0
  0
DICTIONARYVAR
  5
138
102
{ACAD_REACTORS
330
94
102
}
330
94
100
DictionaryVariables
280
     0
  1
STANDARD
  0
DICTIONARYVAR
  5
96
102
{ACAD_REACTORS
330
94
102
}
330
94
100
DictionaryVariables
280
     0
  1
2
  0
DICTIONARYVAR
  5
95
102
{ACAD_REACTORS
330
94
102
}
330
94
100
DictionaryVariables
280
     0
  1
0
  0
DICTIONARYVAR
  5
2733
102
{ACAD_REACTORS
330
94
102
}
330
94
100
DictionaryVariables
280
     0
  1

  0
DICTIONARY
  5
1B5
102
{ACAD_REACTORS
330
5B
102
}
330
5B
100
AcDbDictionary
281
     1
  0
DICTIONARY
  5
61
102
{ACAD_REACTORS
330
5B
102
}
330
5B
100
AcDbDictionary
281
     1
  0
XRECORD
  5
123
102
{ACAD_REACTORS
330
5B
102
}
330
5B
100
AcDbXrecord
280
     1
 90
-1023410169
  0
DICTIONARY
  5
2F4E
330
22
100
AcDbDictionary
280
     1
281
     1
  3
ACAD_XREC_ROUNDTRIP
360
2F4F
  0
DICTIONARY
  5
2F4C
330
1E
100
AcDbDictionary
280
     1
281
     1
  3
ACAD_XREC_ROUNDTRIP
360
2F4D
  0
DICTIONARY
  5
2F50
330
26
100
AcDbDictionary
280
     1
281
     1
  3
ACAD_XREC_ROUNDTRIP
360
2F51
  0
XRECORD
  5
2F4F
102
{ACAD_REACTORS
330
2F4E
102
}
330
2F4E
100
AcDbXrecord
280
     1
102
SHADEPLOT
 70
     0
102
SHADEPLOTRESLEVEL
 70
     2
102
SHADEPLOTCUSTOMDPI
 70
   300
  0
XRECORD
  5
2F4D
102
{ACAD_REACTORS
330
2F4C
102
}
330
2F4C
100
AcDbXrecord
280
     1
102
SHADEPLOT
 70
     0
102
SHADEPLOTRESLEVEL
 70
     2
102
SHADEPLOTCUSTOMDPI
 70
   300
  0
XRECORD
  5
2F51
102
{ACAD_REACTORS
330
2F50
102
}
330
2F50
100
AcDbXrecord
280
     1
102
SHADEPLOT
 70
     0
102
SHADEPLOTRESLEVEL
 70
     2
102
SHADEPLOTCUSTOMDPI
 70
   300
  0
ENDSEC
  0
EOF
