  0
SECTION
  2
HEADER
  9
$ACADVER
  1
AC1018
  9
$ACADMAINTVER
 70
    39
  9
$DWGCODEPAGE
  3
ANSI_950
  9
$CUSTOMPROPERTYTAG
  1
AmdtFileType
  9
$CUSTOMPROPERTY
  1
84
  9
$INSBASE
 10
0.0
 20
0.0
 30
0.0
  9
$EXTMIN
 10
175.6010567166597
 20
109.3890602692115
 30
-0.0070152009634512
  9
$EXTMAX
 10
717.7486405345476
 20
465.4379126955218
 30
281.1348138699607
  9
$LIMMIN
 10
0.0
 20
0.0
  9
$LIMMAX
 10
420.0
 20
297.0
  9
$ORTHOMODE
 70
     1
  9
$REGENMODE
 70
     1
  9
$FILLMODE
 70
     1
  9
$QTEXTMODE
 70
     0
  9
$MIRRTEXT
 70
     1
  9
$LTSCALE
 40
1.0
  9
$ATTMODE
 70
     1
  9
$TEXTSIZE
 40
3.0
  9
$TRACEWID
 40
1.0
  9
$TEXTSTYLE
  7
STANDARD
  9
$CLAYER
  8
0
  9
$CELTYPE
  6
ByLayer
  9
$CECOLOR
 62
   256
  9
$CELTSCALE
 40
1.0
  9
$DISPSILH
 70
     0
  9
$DIMSCALE
 40
1.0
  9
$DIMASZ
 40
3.0
  9
$DIMEXO
 40
1.5
  9
$DIMDLI
 40
8.0
  9
$DIMRND
 40
0.0
  9
$DIMDLE
 40
0.0
  9
$DIMEXE
 40
1.5
  9
$DIMTP
 40
0.1
  9
$DIMTM
 40
0.1
  9
$DIMTXT
 40
3.5
  9
$DIMCEN
 40
0.0
  9
$DIMTSZ
 40
0.0
  9
$DIMTOL
 70
     0
  9
$DIMLIM
 70
     0
  9
$DIMTIH
 70
     0
  9
$DIMTOH
 70
     0
  9
$DIMSE1
 70
     0
  9
$DIMSE2
 70
     0
  9
$DIMTAD
 70
     1
  9
$DIMZIN
 70
     8
  9
$DIMBLK
  1

  9
$DIMASO
 70
     1
  9
$DIMSHO
 70
     1
  9
$DIMPOST
  1

  9
$DIMAPOST
  1
"
  9
$DIMALT
 70
     0
  9
$DIMALTD
 70
     2
  9
$DIMALTF
 40
0.0393701
  9
$DIMLFAC
 40
1.0
  9
$DIMTOFL
 70
     1
  9
$DIMTVP
 40
0.0
  9
$DIMTIX
 70
     0
  9
$DIMSOXD
 70
     0
  9
$DIMSAH
 70
     0
  9
$DIMBLK1
  1

  9
$DIMBLK2
  1

  9
$DIMSTYLE
  2
AM_ISO
  9
$DIMCLRD
 70
   256
  9
$DIMCLRE
 70
   256
  9
$DIMCLRT
 70
   256
  9
$DIMTFAC
 40
0.6
  9
$DIMGAP
 40
1.0
  9
$DIMJUST
 70
     0
  9
$DIMSD1
 70
     0
  9
$DIMSD2
 70
     0
  9
$DIMTOLJ
 70
     0
  9
$DIMTZIN
 70
     8
  9
$DIMALTZ
 70
     0
  9
$DIMALTTZ
 70
     0
  9
$DIMUPT
 70
     0
  9
$DIMDEC
 70
     2
  9
$DIMTDEC
 70
     8
  9
$DIMALTU
 70
     2
  9
$DIMALTTD
 70
     2
  9
$DIMTXSTY
  7
STANDARD
  9
$DIMAUNIT
 70
     0
  9
$DIMADEC
 70
     0
  9
$DIMALTRND
 40
0.0
  9
$DIMAZIN
 70
     2
  9
$DIMDSEP
 70
    46
  9
$DIMATFIT
 70
     3
  9
$DIMFRAC
 70
     0
  9
$DIMLDRBLK
  1

  9
$DIMLUNIT
 70
     2
  9
$DIMLWD
 70
    -1
  9
$DIMLWE
 70
    -1
  9
$DIMTMOVE
 70
     0
  9
$LUNITS
 70
     2
  9
$LUPREC
 70
     2
  9
$SKETCHINC
 40
1.0
  9
$FILLETRAD
 40
2.5
  9
$AUNITS
 70
     0
  9
$AUPREC
 70
     0
  9
$MENU
  1
.
  9
$ELEVATION
 40
0.0
  9
$PELEVATION
 40
0.0
  9
$THICKNESS
 40
0.0
  9
$LIMCHECK
 70
     0
  9
$CHAMFERA
 40
2.5
  9
$CHAMFERB
 40
2.5
  9
$CHAMFERC
 40
20.0
  9
$CHAMFERD
 40
0.0
  9
$SKPOLY
 70
     0
  9
$TDCREATE
 40
2454422.344998727
  9
$TDUCREATE
 40
2454422.011665394
  9
$TDUPDATE
 40
2454798.599836458
  9
$TDUUPDATE
 40
2454798.266503125
  9
$TDINDWG
 40
0.1128364468
  9
$TDUSRTIMER
 40
0.1128364468
  9
$USRTIMER
 70
     1
  9
$ANGBASE
 50
0.0
  9
$ANGDIR
 70
     0
  9
$PDMODE
 70
     0
  9
$PDSIZE
 40
0.0
  9
$PLINEWID
 40
0.0
  9
$SPLFRAME
 70
     0
  9
$SPLINETYPE
 70
     6
  9
$SPLINESEGS
 70
     8
  9
$HANDSEED
  5
2E43
  9
$SURFTAB1
 70
     6
  9
$SURFTAB2
 70
     6
  9
$SURFTYPE
 70
     6
  9
$SURFU
 70
     6
  9
$SURFV
 70
     6
  9
$UCSBASE
  2

  9
$UCSNAME
  2

  9
$UCSORG
 10
0.0
 20
0.0
 30
0.0
  9
$UCSXDIR
 10
1.0
 20
0.0
 30
0.0
  9
$UCSYDIR
 10
0.0
 20
1.0
 30
0.0
  9
$UCSORTHOREF
  2

  9
$UCSORTHOVIEW
 70
     0
  9
$UCSORGTOP
 10
0.0
 20
0.0
 30
0.0
  9
$UCSORGBOTTOM
 10
0.0
 20
0.0
 30
0.0
  9
$UCSORGLEFT
 10
0.0
 20
0.0
 30
0.0
  9
$UCSORGRIGHT
 10
0.0
 20
0.0
 30
0.0
  9
$UCSORGFRONT
 10
0.0
 20
0.0
 30
0.0
  9
$UCSORGBACK
 10
0.0
 20
0.0
 30
0.0
  9
$PUCSBASE
  2

  9
$PUCSNAME
  2

  9
$PUCSORG
 10
0.0
 20
0.0
 30
0.0
  9
$PUCSXDIR
 10
1.0
 20
0.0
 30
0.0
  9
$PUCSYDIR
 10
0.0
 20
1.0
 30
0.0
  9
$PUCSORTHOREF
  2

  9
$PUCSORTHOVIEW
 70
     0
  9
$PUCSORGTOP
 10
0.0
 20
0.0
 30
0.0
  9
$PUCSORGBOTTOM
 10
0.0
 20
0.0
 30
0.0
  9
$PUCSORGLEFT
 10
0.0
 20
0.0
 30
0.0
  9
$PUCSORGRIGHT
 10
0.0
 20
0.0
 30
0.0
  9
$PUCSORGFRONT
 10
0.0
 20
0.0
 30
0.0
  9
$PUCSORGBACK
 10
0.0
 20
0.0
 30
0.0
  9
$USERI1
 70
     0
  9
$USERI2
 70
     0
  9
$USERI3
 70
     0
  9
$USERI4
 70
     0
  9
$USERI5
 70
     0
  9
$USERR1
 40
0.0
  9
$USERR2
 40
0.0
  9
$USERR3
 40
0.0
  9
$USERR4
 40
0.0
  9
$USERR5
 40
0.0
  9
$WORLDVIEW
 70
     1
  9
$SHADEDGE
 70
     3
  9
$SHADEDIF
 70
    70
  9
$TILEMODE
 70
     1
  9
$MAXACTVP
 70
    64
  9
$PINSBASE
 10
0.0
 20
0.0
 30
0.0
  9
$PLIMCHECK
 70
     0
  9
$PEXTMIN
 10
1.000000000000000E+20
 20
1.000000000000000E+20
 30
1.000000000000000E+20
  9
$PEXTMAX
 10
-1.000000000000000E+20
 20
-1.000000000000000E+20
 30
-1.000000000000000E+20
  9
$PLIMMIN
 10
0.0
 20
0.0
  9
$PLIMMAX
 10
420.0
 20
297.0
  9
$UNITMODE
 70
     0
  9
$VISRETAIN
 70
     1
  9
$PLINEGEN
 70
     0
  9
$PSLTSCALE
 70
     1
  9
$TREEDEPTH
 70
  3020
  9
$CMLSTYLE
  2
Standard
  9
$CMLJUST
 70
     0
  9
$CMLSCALE
 40
20.0
  9
$PROXYGRAPHICS
 70
     1
  9
$MEASUREMENT
 70
     1
  9
$CELWEIGHT
370
    -1
  9
$ENDCAPS
280
     0
  9
$JOINSTYLE
280
     0
  9
$LWDISPLAY
290
     0
  9
$INSUNITS
 70
     4
  9
$HYPERLINKBASE
  1

  9
$STYLESHEET
  1
acad.ctb
  9
$XEDIT
290
     1
  9
$CEPSNTYPE
380
     0
  9
$PSTYLEMODE
290
     1
  9
$FINGERPRINTGUID
  2
{6A0080B6-1BE7-4745-B4E0-F1BAF73BF38F}
  9
$VERSIONGUID
  2
{F3D43086-1EEF-43F1-900F-19A77178790B}
  9
$EXTNAMES
290
     1
  9
$PSVPSCALE
 40
0.0
  9
$OLESTARTUP
290
     0
  9
$SORTENTS
280
   127
  9
$INDEXCTL
280
     0
  9
$HIDETEXT
280
     0
  9
$XCLIPFRAME
290
     0
  9
$HALOGAP
280
     0
  9
$OBSCOLOR
 70
   257
  9
$OBSLTYPE
280
     0
  9
$INTERSECTIONDISPLAY
280
     0
  9
$INTERSECTIONCOLOR
 70
   257
  9
$DIMASSOC
280
     2
  9
$PROJECTNAME
  1

  0
ENDSEC
  0
SECTION
  2
CLASSES
  0
CLASS
  1
ACDBDICTIONARYWDFLT
  2
AcDbDictionaryWithDefault
  3
ObjectDBX Classes
 90
        0
 91
        1
280
     0
281
     0
  0
CLASS
  1
ACME_DOCUMENT
  2
AcMeDbDoc
  3
AcMeServices
 90
        0
 91
        2
280
     0
281
     0
  0
CLASS
  1
AMGSETTINGSOBJ
  2
AmgSettingsObj
  3
"AcadM|Product Description: AutoCAD Mechanical 2000|Company: Autodesk"
 90
        0
 91
        2
280
     0
281
     0
  0
CLASS
  1
ACMESCOPE
  2
AcMeScope
  3
AcMeServices
 90
        0
 91
        1
280
     0
281
     0
  0
CLASS
  1
ACMECOMMANDHISTORY
  2
AcMeCommandHistory
  3
AcMeServices
 90
        0
 91
        1
280
     0
281
     0
  0
CLASS
  1
ACIMSYSVARMAN
  2
AcImSysVarManager
  3
AcMeServices
 90
        0
 91
        5
280
     0
281
     0
  0
CLASS
  1
ACIMREALSYSVAR
  2
AcImRealSysVar
  3
AcMeServices
 90
        0
 91
        1
280
     0
281
     0
  0
CLASS
  1
ACIMINTSYSVAR
  2
AcImIntSysVar
  3
AcMeServices
 90
        0
 91
       26
280
     0
281
     0
  0
CLASS
  1
ACMEDRAWINGMAN
  2
AcMeDrawingMan
  3
AcMeServices
 90
        0
 91
        1
280
     0
281
     0
  0
CLASS
  1
ACMEVIEW
  2
AcMeView
  3
AcMeServices
 90
        0
 91
        1
280
     0
281
     0
  0
CLASS
  1
ACDBENTITYCACHE
  2
AcMeEntityCache
  3
AcMeServices
 90
        0
 91
        1
280
     0
281
     0
  0
CLASS
  1
GSMANAGER
  2
AcMeGSManager
  3
AcMeServices
 90
        0
 91
        1
280
     0
281
     0
  0
CLASS
  1
AMDTINTERNALREACTOR
  2
AmdtInternalReactor
  3
AcMeServices
 90
        0
 91
        2
280
     0
281
     0
  0
CLASS
  1
ACMESTATEMGR
  2
AcMeStateMgr
  3
AcMeServices
 90
        0
 91
        1
280
     0
281
     0
  0
CLASS
  1
ACGREFMASTER
  2
AcGrefMaster
  3
AcAttribServices
 90
        0
 91
        1
280
     0
281
     0
  0
CLASS
  1
ACME_DATABASE
  2
AcMeDbDatabase
  3
AcMeServices
 90
        0
 91
        1
280
     0
281
     0
  0
CLASS
  1
ACRFINSADJUSTERMGR
  2
AcRfInsAdjusterMgr
  3
AcMeServices
 90
        0
 91
        1
280
     0
281
     0
  0
CLASS
  1
ACGREFACADMASTER
  2
AcGrefacadMaster
  3
AcGrefServices
 90
        0
 91
        1
280
     0
281
     0
  0
CLASS
  1
AMIMASTER
  2
AmiMaster
  3
AmiServices
 90
        0
 91
        1
280
     0
281
     0
  0
CLASS
  1
ACMDATADICTIONARY
  2
AcmDataDictionary
  3
"AcmSymBB|Product Description: AutoCAD Mechanical 2004 DX|Company: Autodesk"
 90
        0
 91
        1
280
     0
281
     0
  0
CLASS
  1
ACMDATAENTRYBLOCK
  2
AcmDataEntryBlock
  3
"AcmSymBB|Product Description: AutoCAD Mechanical 2004 DX|Company: Autodesk"
 90
        0
 91
        0
280
     0
281
     0
  0
CLASS
  1
ACIMSTRSYSVAR
  2
AcImStrSysVar
  3
AcMeServices
 90
        0
 91
        5
280
     0
281
     0
  0
CLASS
  1
ACMSTANDARDISO
  2
AcmStandardISO
  3
"Amdt_StdImp|Product Description: AutoCAD Mechanical 2004 DX|Company: Autodesk"
 90
        0
 91
        1
280
     0
281
     0
  0
CLASS
  1
AMGOBJPROPCFG
  2
AmgObjPropCfg
  3
"AmgLay|Product Description: AutoCAD Mechanical 2000|Company: Autodesk"
 90
        1
 91
        1
280
     0
281
     0
  0
CLASS
  1
AMDTEDGESTANDARDISO
  2
AmdtEdgeStdISO
  3
"Amdt_StdImp|Product Description: AutoCAD Mechanical 2004 DX|Company: Autodesk"
 90
        0
 91
        0
280
     0
281
     0
  0
CLASS
  1
ACMSURFSTANDARDISO
  2
AcmSurfTextStdISO
  3
"Amdt_StdImp|Product Description: AutoCAD Mechanical 2004 DX|Company: Autodesk"
 90
        0
 91
        1
280
     0
281
     0
  0
CLASS
  1
ACMFCFSTANDARDISO
  2
AcmFCFStdISO
  3
"Amdt_StdImp|Product Description: AutoCAD Mechanical 2004 DX|Company: Autodesk"
 90
        0
 91
        1
280
     0
281
     0
  0
CLASS
  1
ACMWELDSTANDARDISO
  2
AcmWeldingStdISO
  3
"Amdt_StdImp|Product Description: AutoCAD Mechanical 2004 DX|Company: Autodesk"
 90
        0
 91
        1
280
     0
281
     0
  0
CLASS
  1
ACMIDSTANDARDISO
  2
AcmIdStdISO
  3
"Amdt_StdImp|Product Description: AutoCAD Mechanical 2004 DX|Company: Autodesk"
 90
        0
 91
        1
280
     0
281
     0
  0
CLASS
  1
ACMDATUMSTANDARDISO
  2
AcmDatumStdISO
  3
"Amdt_StdImp|Product Description: AutoCAD Mechanical 2004 DX|Company: Autodesk"
 90
        0
 91
        1
280
     0
281
     0
  0
CLASS
  1
ACMBOMSTANDARDISO
  2
AcmBOMStdISO
  3
"Amdt_StdImp|Product Description: AutoCAD Mechanical 2004 DX|Company: Autodesk"
 90
        0
 91
        1
280
     0
281
     0
  0
CLASS
  1
ACMDETAILSTANDARDISO
  2
AmdtDetailSymStdISO
  3
"Amdt_StdImp|Product Description: AutoCAD Mechanical 2004 DX|Company: Autodesk"
 90
        0
 91
        1
280
     0
281
     0
  0
CLASS
  1
ACMSECTIONSTANDARDISO
  2
AmdtSectionSymStdISO
  3
"Amdt_StdImp|Product Description: AutoCAD Mechanical 2004 DX|Company: Autodesk"
 90
        0
 91
        1
280
     0
281
     0
  0
CLASS
  1
ACMCENTERLINESTANDARDISO
  2
AmdtCenterLineStdISO
  3
"Amdt_StdImp|Product Description: AutoCAD Mechanical 2004 DX|Company: Autodesk"
 90
        0
 91
        1
280
     0
281
     0
  0
CLASS
  1
ACMNOTESTANDARDISO
  2
AmdtNoteStdISO
  3
"Amdt_StdImp|Product Description: AutoCAD Mechanical 2004 DX|Company: Autodesk"
 90
        0
 91
        1
280
     0
281
     0
  0
CLASS
  1
ACAMGLAYSTD
  2
AcAmgLayStd
  3
"AcAmgLayStd|Product Description: AutoCAD Mechanical 2000|Company: Autodesk"
 90
        0
 91
        1
280
     0
281
     0
  0
CLASS
  1
ACAMGDIMSTD
  2
AcAmgDimStd
  3
"AcAmgDimStd|Product Description: AutoCAD Mechanical 2000|Company: Autodesk"
 90
        0
 91
        1
280
     0
281
     0
  0
CLASS
  1
ACAMGHOLECHARTSTDISO
  2
AcAmgHoleChartStdISO
  3
ACMSYMBB_MODULE_NAME
 90
        0
 91
        1
280
     0
281
     0
  0
CLASS
  1
ACAMGTITLESTD
  2
AcAmgTitleStd
  3
"TITLEAPP"
 90
        0
 91
        1
280
     0
281
     0
  0
CLASS
  1
LAYER_INDEX
  2
AcDbLayerIndex
  3
ObjectDBX Classes
 90
        0
 91
        0
280
     0
281
     0
  0
CLASS
  1
IDBUFFER
  2
AcDbIdBuffer
  3
ObjectDBX Classes
 90
        0
 91
        0
280
     0
281
     0
  0
CLASS
  1
DICTIONARYVAR
  2
AcDbDictionaryVar
  3
ObjectDBX Classes
 90
        0
 91
        4
280
     0
281
     0
  0
CLASS
  1
AM_DRAWING_MGR
  2
AcDmDwgMgr
  3
AcMechDwgViewMgmt
 90
        0
 91
        1
280
     0
281
     0
  0
CLASS
  1
AM_DWG_DOCUMENT
  2
AcDmDwgDocument
  3
AcMechDwgViewMgmt
 90
        0
 91
        1
280
     0
281
     0
  0
CLASS
  1
AM_DWG_SHEET
  2
AcDmSheet
  3
AcMechDwgViewMgmt
 90
        0
 91
        2
280
     0
281
     0
  0
CLASS
  1
AM_VIEWDIMPARMAP
  2
AcDmViewDimParMap
  3
AcMechDwgViewMgmt
 90
        0
 91
        2
280
     0
281
     0
  0
CLASS
  1
AM_DWGMGR_NAME
  2
AcDmDwgMgrName
  3
AcMechDwgViewMgmt
 90
        0
 91
        1
280
     0
281
     0
  0
CLASS
  1
AMDTMENUSTATEMGR
  2
AmdtMenuStateMgr
  3
McadcomServices
 90
        0
 91
        1
280
     0
281
     0
  0
CLASS
  1
AMDTMCOMMENUSTATE
  2
AmdtMcomMenuState
  3
McadcomServices
 90
        0
 91
        1
280
     0
281
     0
  0
CLASS
  1
MAPIAMMOUDLE
  2
MApiAmModule
  3
MApiAmServices
 90
        0
 91
        1
280
     0
281
     0
  0
CLASS
  1
AMDTADMENUSTATE
  2
AmdtAdMenuState
  3
DesignerServices
 90
        0
 91
        1
280
     0
281
     0
  0
CLASS
  1
ADAPPL
  2
AcAdAppl
  3
DesignerServices
 90
        0
 91
        1
280
     0
281
     0
  0
CLASS
  1
DEPMGR
  2
AcAdDepMgr
  3
DesignerServices
 90
        0
 91
        1
280
     0
281
     0
  0
CLASS
  1
PARAMMGR
  2
AcAdParamMgr
  3
DesignerServices
 90
        0
 91
        1
280
     0
281
     0
  0
CLASS
  1
PARAMSCOPE
  2
AcAdParamScope
  3
DesignerServices
 90
        0
 91
        1
280
     0
281
     0
  0
CLASS
  1
NAMEDAPPL
  2
AcAdNamedAppl
  3
DesignerServices
 90
        0
 91
        1
280
     0
281
     0
  0
CLASS
  1
AMDTDMMENUSTATE
  2
AmdtDmMenuState
  3
AcMechDwgViewMgmt
 90
        0
 91
        1
280
     0
281
     0
  0
CLASS
  1
AMDTAMMENUSTATE
  2
AmdtAmMenuState
  3
DesignerAssemblies
 90
        0
 91
        1
280
     0
281
     0
  0
CLASS
  1
ACAMPROJECT
  2
AcAmProject
  3
DesignerAssemblies
 90
        0
 91
        1
280
     0
281
     0
  0
CLASS
  1
ACAMGRCOMPDEF
  2
AcAmGrCompDef
  3
DesignerAssemblies
 90
        0
 91
        1
280
     0
281
     0
  0
CLASS
  1
ACCMCONTEXT
  2
AcCmContext
  3
DesignerAssemblies
 90
        0
 91
        1
280
     0
281
     0
  0
CLASS
  1
ACAMCOMPDEF
  2
AcAmCompDef
  3
DesignerAssemblies
 90
        0
 91
        1
280
     0
281
     0
  0
CLASS
  1
ACAMCOMPDEFMGR
  2
AcAmCompDefMgr
  3
DesignerAssemblies
 90
        0
 91
        1
280
     0
281
     0
  0
CLASS
  1
AMCONTEXTMGR
  2
AcAmContextMgr
  3
DesignerAssemblies
 90
        0
 91
        1
280
     0
281
     0
  0
CLASS
  1
ACAMCONTEXTMODELER
  2
AcAmContextModeler
  3
DesignerAssemblies
 90
        0
 91
        1
280
     0
281
     0
  0
CLASS
  1
ACMTHREADLINESTANDARDISO
  2
AmdtThreadLineStdISO
  3
"Amdt_StdImp|Product Description: AutoCAD Mechanical 2004 DX|Company: Autodesk"
 90
        0
 91
        1
280
     0
281
     0
  0
CLASS
  1
CATALOGSTATE
  2
AcAmCatalogState
  3
DesignerAssemblies
 90
        0
 91
        1
280
     0
281
     0
  0
CLASS
  1
ACAMGRCOMPDEFSET
  2
AcAmGrCompDefSet
  3
DesignerAssemblies
 90
        0
 91
        1
280
     0
281
     0
  0
CLASS
  1
AMDTBROWSERDBTAB
  2
AmdtBrowserDbTab
  3
McadcomServices
 90
        0
 91
        1
280
     0
281
     0
  0
CLASS
  1
CBROWSERAPPOBJECT
  2
CBrowserAppObject
  3
McadcomServices
 90
        0
 91
        3
280
     0
281
     0
  0
CLASS
  1
DM_PLACEHOLDER
  2
AcDmSelsetPlaceholder
  3
AcMechDwgViewMgmt
 90
        0
 91
        1
280
     0
281
     0
  0
CLASS
  1
TABLESTYLE
  2
AcDbTableStyle
  3
ObjectDBX Classes
 90
     2047
 91
        1
280
     0
281
     0
  0
CLASS
  1
VAACXREFPANELOBJECT
  2
VaAcXREFPanelObject
  3
VAAC_ADDIN
 90
        0
 91
        0
280
     0
281
     0
  0
CLASS
  1
VAACIMAGEINVENTORY
  2
VaAcImageInventory
  3
VAAC_ADDIN
 90
        0
 91
        0
280
     0
281
     0
  0
CLASS
  1
AMDTNOTETEMPLATEDB
  2
AmdtNoteTemplateDB
  3
AMDT_STDIMP_MODULE_NAME
 90
        0
 91
        5
280
     0
281
     0
  0
CLASS
  1
ACMBOM
  2
AcmBom
  3
"AcmSymBB|Product Description: AutoCAD Mechanical 2004 DX|Company: Autodesk"
 90
        0
 91
        0
280
     0
281
     0
  0
CLASS
  1
AMDTFORMULAUPDATEDISPATCHER
  2
AmdtFormulaUpdateDispatcher
  3
AcMeServices
 90
        0
 91
        0
280
     0
281
     0
  0
CLASS
  1
ACMPARTLIST
  2
AcmPartList
  3
"AcmSymBB|Product Description: AutoCAD Mechanical 2004 DX|Company: Autodesk"
 90
     1023
 91
        0
280
     0
281
     1
  0
CLASS
  1
ACAMGFILTERDAT
  2
AcAmgFilterDat
  3
"AcadM|Product Description: AutoCAD Mechanical 2000|Company: Autodesk"
 90
        0
 91
        0
280
     0
281
     0
  0
CLASS
  1
DIMASSOC
  2
AcDbDimAssoc
  3
"AcDbDimAssoc|Product Desc:     AcDim ARX App For Dimension|Company:          Autodesk, Inc.|WEB Address:      www.autodesk.com"
 90
        0
 91
       21
280
     0
281
     0
  0
CLASS
  1
SORTENTSTABLE
  2
AcDbSortentsTable
  3
ObjectDBX Classes
 90
        0
 91
        0
280
     0
281
     0
  0
CLASS
  1
AMDTEDGESTANDARDISO13715
  2
AmdtEdgeStdISO13715
  3
"Amdt_StdImp|Product Description: AutoCAD Mechanical 2004 DX|Company: Autodesk"
 90
        0
 91
        1
280
     0
281
     0
  0
CLASS
  1
ACRFATTGENMGR
  2
AcRfAttGeneralMgr
  3
AcAttribServices
 90
        0
 91
        0
280
     0
281
     0
  0
ENDSEC
  0
SECTION
  2
TABLES
  0
TABLE
  2
VPORT
  5
8
330
0
100
AcDbSymbolTable
 70
     4
  0
VPORT
  5
2E42
330
8
100
AcDbSymbolTableRecord
100
AcDbViewportTableRecord
  2
*Active
 70
     0
 10
0.0
 20
0.0
 11
1.0
 21
1.0
 12
446.6748486256036
 22
287.4134864823667
 13
0.0
 23
0.0
 14
2.5
 24
2.5
 15
10.0
 25
10.0
 16
0.0
 26
0.0
 36
1.0
 17
0.0
 27
0.0
 37
0.0
 40
554.4940990491514
 41
0.9855453350854139
 42
50.0
 43
0.0
 44
0.0
 50
0.0
 51
0.0
 71
     0
 72
   100
 73
     1
 74
     3
 75
     0
 76
     0
 77
     0
 78
     0
281
     0
 65
     1
110
0.0
120
0.0
130
0.0
111
1.0
121
0.0
131
0.0
112
0.0
122
1.0
132
0.0
 79
     0
146
0.0
  0
ENDTAB
  0
TABLE
  2
LTYPE
  5
5
330
0
100
AcDbSymbolTable
 70
    14
  0
LTYPE
  5
14
330
5
100
AcDbSymbolTableRecord
100
AcDbLinetypeTableRecord
  2
ByBlock
 70
     0
  3

 72
    65
 73
     0
 40
0.0
  0
LTYPE
  5
15
330
5
100
AcDbSymbolTableRecord
100
AcDbLinetypeTableRecord
  2
ByLayer
 70
     0
  3

 72
    65
 73
     0
 40
0.0
  0
LTYPE
  5
16
330
5
100
AcDbSymbolTableRecord
100
AcDbLinetypeTableRecord
  2
Continuous
 70
     0
  3
Solid line
 72
    65
 73
     0
 40
0.0
  0
LTYPE
  5
64
330
5
100
AcDbSymbolTableRecord
100
AcDbLinetypeTableRecord
  2
AM_ISO02W050
 70
     0
  3
__ __ __ __ __ __ __ __ __ __ __ __ __ __ __
 72
    65
 73
     2
 40
7.5
 49
6.0
 74
     0
 49
-1.5
 74
     0
  0
LTYPE
  5
65
330
5
100
AcDbSymbolTableRecord
100
AcDbLinetypeTableRecord
  2
AM_ISO08W050
 70
     0
  3
____ . ____ . ____ . ____ . ____ . ____ . ____
 72
    65
 73
     4
 40
18.0
 49
12.0
 74
     0
 49
-1.5
 74
     0
 49
3.0
 74
     0
 49
-1.5
 74
     0
  0
LTYPE
  5
66
330
5
100
AcDbSymbolTableRecord
100
AcDbLinetypeTableRecord
  2
AM_ISO09W050
 70
     0
  3
_____ . . _____ . . _____ . . ____ .. ____
 72
    65
 73
     6
 40
22.5
 49
12.0
 74
     0
 49
-1.5
 74
     0
 49
3.0
 74
     0
 49
-1.5
 74
     0
 49
3.0
 74
     0
 49
-1.5
 74
     0
  0
LTYPE
  5
67
330
5
100
AcDbSymbolTableRecord
100
AcDbLinetypeTableRecord
  2
Amconstr
 70
     0
  3
_______________________
 72
    65
 73
     2
 40
9999.0
 49
9999.0
 74
     0
 49
0.0
 74
     0
  0
LTYPE
  5
68
330
5
100
AcDbSymbolTableRecord
100
AcDbLinetypeTableRecord
  2
AM_ISO08W050x2
 70
     0
  3
__ . __ . __ . __ . __ . __
 72
    65
 73
     4
 40
9.0
 49
6.0
 74
     0
 49
-0.75
 74
     0
 49
1.5
 74
     0
 49
-0.75
 74
     0
  0
LTYPE
  5
69
330
5
100
AcDbSymbolTableRecord
100
AcDbLinetypeTableRecord
  2
AM_ISO02W050x2
 70
     0
  3
 _ _ _ _ _ _ _ _ _ _ _ _
 72
    65
 73
     2
 40
3.75
 49
3.0
 74
     0
 49
-0.75
 74
     0
  0
LTYPE
  5
6C
330
5
100
AcDbSymbolTableRecord
100
AcDbLinetypeTableRecord
  2
Amzigzag
 70
     0
  3
/\/-/\/-/\/-/\/-/\/-/\/
 72
    65
 73
     2
 40
11.0001
 49
0.0001
 74
     4
 75
   135
340
6B
 46
0.04
 50
0.0
 44
0.0
 45
0.0
 49
-11.0
 74
     0
  0
LTYPE
  5
7A
330
5
100
AcDbSymbolTableRecord
100
AcDbLinetypeTableRecord
  2
ACISOWELD
 70
     0
  3
_ _ _ _ _
 72
    65
 73
     2
 40
2.0
 49
2.0
 74
     0
 49
-1.0
 74
     0
  0
LTYPE
  5
7B
330
5
100
AcDbSymbolTableRecord
100
AcDbLinetypeTableRecord
  2
ACISOTGB
 70
     0
  3
__ . . __ . .
 72
    65
 73
     6
 40
9.0
 49
4.0
 74
     0
 49
-1.0
 74
     0
 49
1.0
 74
     0
 49
-1.0
 74
     0
 49
1.0
 74
     0
 49
-1.0
 74
     0
  0
LTYPE
  5
7C
330
5
100
AcDbSymbolTableRecord
100
AcDbLinetypeTableRecord
  2
ACISOTGL
 70
     0
  3
_ _ _ _ _
 72
    65
 73
     2
 40
3.0
 49
2.0
 74
     0
 49
-1.0
 74
     0
  0
LTYPE
  5
7E
330
5
100
AcDbSymbolTableRecord
100
AcDbLinetypeTableRecord
  2
CENTER
 70
     0
  3
__ . __
 72
    65
 73
     4
 40
7.0
 49
4.0
 74
     0
 49
-1.0
 74
     0
 49
1.0
 74
     0
 49
-1.0
 74
     0
  0
LTYPE
  5
D8
330
5
100
AcDbSymbolTableRecord
100
AcDbLinetypeTableRecord
  2
HIDDEN
 70
     0
  3
Hidden __ __ __ __ __ __ __ __ __ __ __ __ __ _
 72
    65
 73
     2
 40
9.524999999999998
 49
6.349999999999999
 74
     0
 49
-3.174999999999999
 74
     0
  0
LTYPE
  5
D9
330
5
100
AcDbSymbolTableRecord
100
AcDbLinetypeTableRecord
  2
PHANTOM2
 70
     0
  3
Phantom (.5x) ___ _ _ ___ _ _ ___ _ _ ___ _ _
 72
    65
 73
     6
 40
31.75
 49
15.875
 74
     0
 49
-3.174999999999999
 74
     0
 49
3.174999999999999
 74
     0
 49
-3.174999999999999
 74
     0
 49
3.174999999999999
 74
     0
 49
-3.174999999999999
 74
     0
  0
ENDTAB
  0
TABLE
  2
LAYER
  5
2
102
{ACAD_XDICTIONARY
360
3F9
102
}
330
0
100
AcDbSymbolTable
 70
     8
  0
LAYER
  5
10
330
2
100
AcDbSymbolTableRecord
100
AcDbLayerTableRecord
  2
0
 70
     0
 62
     7
  6
Continuous
370
    -3
390
F
  0
LAYER
  5
CB8
330
2
100
AcDbSymbolTableRecord
100
AcDbLayerTableRecord
  2
Defpoints
 70
     0
 62
     7
  6
Continuous
290
     0
370
    -3
390
F
  0
LAYER
  5
CB9
330
2
100
AcDbSymbolTableRecord
100
AcDbLayerTableRecord
  2
AM_5
 70
     0
 62
     5
  6
Continuous
370
    -3
390
F
  0
LAYER
  5
CBA
330
2
100
AcDbSymbolTableRecord
100
AcDbLayerTableRecord
  2
AM_4
 70
     0
 62
     3
  6
Continuous
370
    -3
390
F
  0
LAYER
  5
CBB
330
2
100
AcDbSymbolTableRecord
100
AcDbLayerTableRecord
  2
AM_VIS
 70
     0
 62
     7
  6
Continuous
370
    -3
390
F
  0
LAYER
  5
CBD
330
2
100
AcDbSymbolTableRecord
100
AcDbLayerTableRecord
  2
AM_7
 70
     0
 62
     1
  6
CENTER
370
    -3
390
F
  0
LAYER
  5
CBF
330
2
100
AcDbSymbolTableRecord
100
AcDbLayerTableRecord
  2
LOGO
 70
     0
 62
     7
  6
Continuous
370
    -3
390
F
  0
LAYER
  5
2553
330
2
100
AcDbSymbolTableRecord
100
AcDbLayerTableRecord
  2
AM_HID
 70
     0
 62
     7
  6
AM_ISO02W050
370
    -3
390
F
  0
ENDTAB
  0
TABLE
  2
STYLE
  5
3
330
0
100
AcDbSymbolTable
 70
     7
  0
STYLE
  5
11
330
3
100
AcDbSymbolTableRecord
100
AcDbTextStyleTableRecord
  2
STANDARD
 70
     0
 40
0.0
 41
1.0
 50
0.0
 71
     0
 42
3.0
  3
ISOCP.SHX
  4
CHINESET.SHX
  0
STYLE
  5
6B
330
3
100
AcDbSymbolTableRecord
100
AcDbTextStyleTableRecord
  2

 70
     1
 40
0.0
 41
1.0
 50
0.0
 71
     0
 42
2.5
  3
ltypeshp.shx
  4

  0
STYLE
  5
6D
330
3
100
AcDbSymbolTableRecord
100
AcDbTextStyleTableRecord
  2
ACISOTS
 70
     0
 40
1.0
 41
1.0
 50
0.0
 71
     0
 42
1.0
  3
isocp.shx
  4
chineset.shx
  0
STYLE
  5
79
330
3
100
AcDbSymbolTableRecord
100
AcDbTextStyleTableRecord
  2
ACISOGDT
 70
     0
 40
0.0
 41
1.0
 50
0.0
 71
     0
 42
2.5
  3
amgdt.shx
  4
chineset.shx
  0
STYLE
  5
CC2
330
3
100
AcDbSymbolTableRecord
100
AcDbTextStyleTableRecord
  2
CHINESET
 70
     0
 40
0.0
 41
1.0
 50
0.0
 71
     0
 42
2.5
  3
simplex.shx
  4
CHINESET.shx
  0
STYLE
  5
2554
330
3
100
AcDbSymbolTableRecord
100
AcDbTextStyleTableRecord
  2
DAYUS
 70
     0
 40
0.0
 41
1.0
 50
0.0
 71
     0
 42
1.5
  3
simplex.shx
  4
dayus.shx
  0
ENDTAB
  0
TABLE
  2
VIEW
  5
6
330
0
100
AcDbSymbolTable
 70
     0
  0
ENDTAB
  0
TABLE
  2
UCS
  5
7
330
0
100
AcDbSymbolTable
 70
     0
  0
ENDTAB
  0
TABLE
  2
APPID
  5
9
330
0
100
AcDbSymbolTable
 70
    24
  0
APPID
  5
12
330
9
100
AcDbSymbolTableRecord
100
AcDbRegAppTableRecord
  2
ACAD
 70
     0
  0
APPID
  5
46
330
9
100
AcDbSymbolTableRecord
100
AcDbRegAppTableRecord
  2
MCAD_NO_VIS
 70
     0
  0
APPID
  5
47
330
9
100
AcDbSymbolTableRecord
100
AcDbRegAppTableRecord
  2
ACAD_TEMP_GRAPHIC
 70
     0
  0
APPID
  5
58
330
9
100
AcDbSymbolTableRecord
100
AcDbRegAppTableRecord
  2
ACATTRIBSERVICES
 70
     0
  0
APPID
  5
EE
330
9
100
AcDbSymbolTableRecord
100
AcDbRegAppTableRecord
  2
AD_DRAW
 70
     0
  0
APPID
  5
10C
330
9
100
AcDbSymbolTableRecord
100
AcDbRegAppTableRecord
  2
DESIGNERASSEMBLIES
 70
     0
  0
APPID
  5
111
330
9
100
AcDbSymbolTableRecord
100
AcDbRegAppTableRecord
  2
ACADM_DIM_EDIT
 70
     0
  0
APPID
  5
112
330
9
100
AcDbSymbolTableRecord
100
AcDbRegAppTableRecord
  2
AMDT_DM_ADJ
 70
     0
  0
APPID
  5
22C
330
9
100
AcDbSymbolTableRecord
100
AcDbRegAppTableRecord
  2
ACAD_DSTYLE_DIMTEXT_FILL
 70
     0
  0
APPID
  5
452
330
9
100
AcDbSymbolTableRecord
100
AcDbRegAppTableRecord
  2
GENIUS_GENOENT_13
 70
     0
  0
APPID
  5
453
330
9
100
AcDbSymbolTableRecord
100
AcDbRegAppTableRecord
  2
GENIUS_GENOBJ-N-CRS_13
 70
     0
  0
APPID
  5
454
330
9
100
AcDbSymbolTableRecord
100
AcDbRegAppTableRecord
  2
GENIUS_GENOLIS_13
 70
     0
  0
APPID
  5
455
330
9
100
AcDbSymbolTableRecord
100
AcDbRegAppTableRecord
  2
GENIUS_GENODEF_13
 70
     0
  0
APPID
  5
456
330
9
100
AcDbSymbolTableRecord
100
AcDbRegAppTableRecord
  2
GENIUS_GENOREF_13
 70
     0
  0
APPID
  5
6F3
330
9
100
AcDbSymbolTableRecord
100
AcDbRegAppTableRecord
  2
ACAD_PSEXT
 70
     0
  0
APPID
  5
808
330
9
100
AcDbSymbolTableRecord
100
AcDbRegAppTableRecord
  2
GENIUS_GENDTOL_13
 70
     0
  0
APPID
  5
CC3
330
9
100
AcDbSymbolTableRecord
100
AcDbRegAppTableRecord
  2
GENIUS_GENOBJ-N-CEN_13
 70
     0
  0
APPID
  5
CC4
330
9
100
AcDbSymbolTableRecord
100
AcDbRegAppTableRecord
  2
GENIUS_GENCEN_19
 70
     0
  0
APPID
  5
CC5
330
9
100
AcDbSymbolTableRecord
100
AcDbRegAppTableRecord
  2
GENIUS_GENREC_14
 70
     0
  0
APPID
  5
CC6
330
9
100
AcDbSymbolTableRecord
100
AcDbRegAppTableRecord
  2
GENIUS_GENOBJ-N-REC_13
 70
     0
  0
APPID
  5
1CCD
330
9
100
AcDbSymbolTableRecord
100
AcDbRegAppTableRecord
  2
GENIUS_GENBH_13
 70
     0
  0
APPID
  5
1CCE
330
9
100
AcDbSymbolTableRecord
100
AcDbRegAppTableRecord
  2
GENIUS_GENOBJ-NBEHI-BHB_13
 70
     0
  0
APPID
  5
2556
330
9
100
AcDbSymbolTableRecord
100
AcDbRegAppTableRecord
  2
AD_SKETCHDIM
 70
     0
  0
APPID
  5
2D28
330
9
100
AcDbSymbolTableRecord
100
AcDbRegAppTableRecord
  2
AcAecLayerStandard
 70
     0
  0
ENDTAB
  0
TABLE
  2
DIMSTYLE
  5
A
330
0
100
AcDbSymbolTable
 70
    10
100
AcDbDimStyleTable
 71
     3
340
81
340
8B
340
86
  0
DIMSTYLE
105
81
102
{ACAD_REACTORS
330
20B1
330
20B5
330
20B8
330
20BB
330
20BE
330
20C1
330
20C4
330
20C7
330
20CA
330
20CD
330
20D0
330
20D3
330
20D6
330
20D9
330
20DC
330
20DF
330
20E2
330
20E5
330
20E8
330
2107
330
210A
102
}
330
A
100
AcDbSymbolTableRecord
100
AcDbDimStyleTableRecord
  2
AM_ISO
 70
     0
  4
"
 41
3.0
 42
1.5
 43
8.0
 44
1.5
 47
0.1
 48
0.1
 73
     0
 74
     0
 77
     1
 78
     8
 79
     2
140
3.5
141
0.0
143
0.0393701
146
0.6
147
1.0
172
     1
176
   256
177
   256
178
   256
271
     2
272
     2
283
     0
284
     8
340
11
371
    -1
372
    -1
  0
DIMSTYLE
105
82
102
{ACAD_REACTORS
330
2659
102
}
330
A
100
AcDbSymbolTableRecord
100
AcDbDimStyleTableRecord
  2
AM_ISO$3
 70
     0
  4
"
 41
3.0
 42
1.5
 43
8.0
 44
1.5
 47
0.1
 48
0.1
 73
     0
 77
     1
 78
     8
 79
     2
140
3.5
141
0.0
143
0.0393701
146
0.6
147
1.0
176
   256
177
   256
178
   256
271
     2
272
     2
283
     0
284
     8
288
     1
289
     0
340
11
371
    -1
372
    -1
  0
DIMSTYLE
105
83
102
{ACAD_REACTORS
330
26AE
102
}
330
A
100
AcDbSymbolTableRecord
100
AcDbDimStyleTableRecord
  2
AM_ISO$4
 70
     0
  4
"
 41
3.0
 42
1.5
 43
8.0
 44
1.5
 47
0.1
 48
0.1
 73
     0
 77
     1
 78
     8
 79
     2
140
3.5
141
0.0
143
0.0393701
146
0.6
147
1.0
176
   256
177
   256
178
   256
271
     2
272
     2
283
     0
284
     8
288
     1
289
     0
340
11
371
    -1
372
    -1
  0
DIMSTYLE
105
84
330
A
100
AcDbSymbolTableRecord
100
AcDbDimStyleTableRecord
  2
AM_ISO$6
 70
     0
  4
"
 41
3.0
 42
1.5
 43
8.0
 44
1.5
 47
0.1
 48
0.1
 73
     0
 74
     0
 78
     8
 79
     2
140
3.5
141
0.0
143
0.0393701
146
0.6
147
1.0
172
     1
176
   256
177
   256
178
   256
271
     2
272
     2
283
     0
284
     8
340
11
371
    -1
372
    -1
  0
DIMSTYLE
105
85
330
A
100
AcDbSymbolTableRecord
100
AcDbDimStyleTableRecord
  2
AM_ISO$7
 70
     0
  4
"
 41
3.0
 42
1.5
 43
8.0
 44
1.5
 47
0.1
 48
0.1
 73
     0
 74
     0
 77
     1
 78
     8
 79
     2
140
5.0
141
0.0
143
0.0393701
146
0.6
147
1.0
172
     1
176
   256
177
   256
178
   256
271
     2
272
     2
283
     0
284
     8
340
11
371
    -1
372
    -1
  0
DIMSTYLE
105
86
330
A
100
AcDbSymbolTableRecord
100
AcDbDimStyleTableRecord
  2
AM_ISO$SF
 70
     0
  4
"
 41
2.5
 42
1.0
 43
10.0
 44
1.0
 47
0.1
 48
0.1
 73
     0
 74
     0
 75
     1
 76
     1
 77
     1
 78
     8
 79
     2
140
3.5
141
0.0
143
0.0393701
146
0.71
147
1.5
172
     1
176
   256
177
   256
178
     2
271
     2
272
     3
274
     4
283
     0
284
     8
340
11
371
    -1
372
    -1
  0
DIMSTYLE
105
8B
330
A
100
AcDbSymbolTableRecord
100
AcDbDimStyleTableRecord
  2
AM_ISO$SH
 70
     0
  4
"
 41
2.5
 42
1.0
 43
10.0
 44
1.0
 47
0.1
 48
0.1
 73
     0
 74
     0
 75
     1
 76
     1
 77
     1
 78
     8
 79
     2
140
3.5
141
0.0
143
0.0393701
144
2.0
146
0.71
147
1.5
172
     1
173
     1
176
   256
177
   256
178
     2
271
     2
272
     3
274
     4
283
     0
284
     8
340
11
343
87
371
    -1
372
    -1
  0
DIMSTYLE
105
40B
102
{ACAD_REACTORS
330
2615
330
2616
330
2617
330
2618
330
2619
330
261C
330
261D
330
2651
330
2652
330
2653
330
2654
330
2655
330
2656
330
2657
330
2658
330
265A
330
265B
330
265C
102
}
330
A
100
AcDbSymbolTableRecord
100
AcDbDimStyleTableRecord
  2
AM_ISO$0
 70
     0
  4
"
 41
3.0
 42
1.5
 43
8.0
 44
1.5
 47
0.1
 48
0.1
 73
     0
 74
     0
 77
     1
 78
     8
 79
     2
140
3.5
141
0.0
143
0.0393701
146
0.6
147
1.0
172
     1
176
   256
177
   256
178
   256
271
     2
272
     2
283
     0
284
     8
340
11
371
    -1
372
    -1
  0
DIMSTYLE
105
2555
102
{ACAD_REACTORS
330
261E
102
}
330
A
100
AcDbSymbolTableRecord
100
AcDbDimStyleTableRecord
  2
DAYUS$3
 70
     0
  4
"
 40
0.5
 41
3.5
 42
2.5
 43
10.0
 44
1.0
 47
0.1
 48
0.1
 73
     0
 74
     0
 77
     1
 78
     8
 79
     2
140
4.5
141
0.0
143
0.0393701
146
0.71
147
1.5
172
     1
176
   256
177
   256
178
     3
271
     2
272
     2
283
     0
284
     8
340
2554
371
    -1
372
    -1
  0
ENDTAB
  0
TABLE
  2
BLOCK_RECORD
  5
1
330
0
100
AcDbSymbolTable
 70
    50
  0
BLOCK_RECORD
  5
1F
102
{ACAD_XDICTIONARY
360
8F
102
}
330
1
100
AcDbSymbolTableRecord
100
AcDbBlockTableRecord
  2
*Model_Space
340
22
  0
BLOCK_RECORD
  5
1B
330
1
100
AcDbSymbolTableRecord
100
AcDbBlockTableRecord
  2
*Paper_Space
340
1E
  0
BLOCK_RECORD
  5
23
330
1
100
AcDbSymbolTableRecord
100
AcDbBlockTableRecord
  2
*Paper_Space0
340
26
  0
BLOCK_RECORD
  5
87
330
1
100
AcDbSymbolTableRecord
100
AcDbBlockTableRecord
  2
GENAXEH
340
0
  0
BLOCK_RECORD
  5
1CB1
330
1
100
AcDbSymbolTableRecord
100
AcDbBlockTableRecord
  2
*S2
340
0
102
{BLKREFS
331
20EB
102
}
  0
BLOCK_RECORD
  5
1CB8
330
1
100
AcDbSymbolTableRecord
100
AcDbBlockTableRecord
  2
*S3
340
0
102
{BLKREFS
331
20EE
102
}
  0
BLOCK_RECORD
  5
1CBF
330
1
100
AcDbSymbolTableRecord
100
AcDbBlockTableRecord
  2
*S4
340
0
102
{BLKREFS
331
20EF
102
}
  0
BLOCK_RECORD
  5
1CC6
330
1
100
AcDbSymbolTableRecord
100
AcDbBlockTableRecord
  2
*S5
340
0
102
{BLKREFS
331
20F1
102
}
  0
BLOCK_RECORD
  5
2124
330
1
100
AcDbSymbolTableRecord
100
AcDbBlockTableRecord
  2
*D6
340
0
  0
BLOCK_RECORD
  5
2130
330
1
100
AcDbSymbolTableRecord
100
AcDbBlockTableRecord
  2
*D7
340
0
  0
BLOCK_RECORD
  5
213C
330
1
100
AcDbSymbolTableRecord
100
AcDbBlockTableRecord
  2
*D8
340
0
  0
BLOCK_RECORD
  5
2148
330
1
100
AcDbSymbolTableRecord
100
AcDbBlockTableRecord
  2
*D9
340
0
  0
BLOCK_RECORD
  5
2154
330
1
100
AcDbSymbolTableRecord
100
AcDbBlockTableRecord
  2
*D10
340
0
  0
BLOCK_RECORD
  5
2160
330
1
100
AcDbSymbolTableRecord
100
AcDbBlockTableRecord
  2
*D11
340
0
  0
BLOCK_RECORD
  5
216C
330
1
100
AcDbSymbolTableRecord
100
AcDbBlockTableRecord
  2
*D12
340
0
  0
BLOCK_RECORD
  5
2178
330
1
100
AcDbSymbolTableRecord
100
AcDbBlockTableRecord
  2
*D13
340
0
  0
BLOCK_RECORD
  5
2184
330
1
100
AcDbSymbolTableRecord
100
AcDbBlockTableRecord
  2
*D14
340
0
  0
BLOCK_RECORD
  5
2190
330
1
100
AcDbSymbolTableRecord
100
AcDbBlockTableRecord
  2
*D15
340
0
  0
BLOCK_RECORD
  5
219C
330
1
100
AcDbSymbolTableRecord
100
AcDbBlockTableRecord
  2
*D16
340
0
  0
BLOCK_RECORD
  5
21A8
330
1
100
AcDbSymbolTableRecord
100
AcDbBlockTableRecord
  2
*D17
340
0
  0
BLOCK_RECORD
  5
21B4
330
1
100
AcDbSymbolTableRecord
100
AcDbBlockTableRecord
  2
*D18
340
0
  0
BLOCK_RECORD
  5
21C0
330
1
100
AcDbSymbolTableRecord
100
AcDbBlockTableRecord
  2
*D19
340
0
  0
BLOCK_RECORD
  5
21CC
330
1
100
AcDbSymbolTableRecord
100
AcDbBlockTableRecord
  2
*D20
340
0
  0
BLOCK_RECORD
  5
21D8
330
1
100
AcDbSymbolTableRecord
100
AcDbBlockTableRecord
  2
*D21
340
0
  0
BLOCK_RECORD
  5
21E4
330
1
100
AcDbSymbolTableRecord
100
AcDbBlockTableRecord
  2
*D22
340
0
  0
BLOCK_RECORD
  5
21F0
330
1
100
AcDbSymbolTableRecord
100
AcDbBlockTableRecord
  2
*D23
340
0
  0
BLOCK_RECORD
  5
21FC
330
1
100
AcDbSymbolTableRecord
100
AcDbBlockTableRecord
  2
*D24
340
0
  0
BLOCK_RECORD
  5
2208
330
1
100
AcDbSymbolTableRecord
100
AcDbBlockTableRecord
  2
*D25
340
0
  0
BLOCK_RECORD
  5
2216
330
1
100
AcDbSymbolTableRecord
100
AcDbBlockTableRecord
  2
*D26
340
0
  0
BLOCK_RECORD
  5
26B1
330
1
100
AcDbSymbolTableRecord
100
AcDbBlockTableRecord
  2
*D27
340
0
  0
BLOCK_RECORD
  5
26BD
330
1
100
AcDbSymbolTableRecord
100
AcDbBlockTableRecord
  2
*D28
340
0
  0
BLOCK_RECORD
  5
26C9
330
1
100
AcDbSymbolTableRecord
100
AcDbBlockTableRecord
  2
*D29
340
0
  0
BLOCK_RECORD
  5
26D5
330
1
100
AcDbSymbolTableRecord
100
AcDbBlockTableRecord
  2
*D30
340
0
  0
BLOCK_RECORD
  5
26E1
330
1
100
AcDbSymbolTableRecord
100
AcDbBlockTableRecord
  2
*D31
340
0
  0
BLOCK_RECORD
  5
26ED
330
1
100
AcDbSymbolTableRecord
100
AcDbBlockTableRecord
  2
*D32
340
0
  0
BLOCK_RECORD
  5
26FB
330
1
100
AcDbSymbolTableRecord
100
AcDbBlockTableRecord
  2
*D33
340
0
  0
BLOCK_RECORD
  5
2709
330
1
100
AcDbSymbolTableRecord
100
AcDbBlockTableRecord
  2
*D34
340
0
  0
BLOCK_RECORD
  5
2715
330
1
100
AcDbSymbolTableRecord
100
AcDbBlockTableRecord
  2
*D35
340
0
  0
BLOCK_RECORD
  5
2721
330
1
100
AcDbSymbolTableRecord
100
AcDbBlockTableRecord
  2
*D36
340
0
  0
BLOCK_RECORD
  5
272D
330
1
100
AcDbSymbolTableRecord
100
AcDbBlockTableRecord
  2
*D37
340
0
  0
BLOCK_RECORD
  5
2739
330
1
100
AcDbSymbolTableRecord
100
AcDbBlockTableRecord
  2
*D38
340
0
  0
BLOCK_RECORD
  5
2745
330
1
100
AcDbSymbolTableRecord
100
AcDbBlockTableRecord
  2
*D39
340
0
  0
BLOCK_RECORD
  5
2751
330
1
100
AcDbSymbolTableRecord
100
AcDbBlockTableRecord
  2
*D40
340
0
  0
BLOCK_RECORD
  5
275F
330
1
100
AcDbSymbolTableRecord
100
AcDbBlockTableRecord
  2
*D41
340
0
  0
BLOCK_RECORD
  5
276B
330
1
100
AcDbSymbolTableRecord
100
AcDbBlockTableRecord
  2
*D42
340
0
  0
BLOCK_RECORD
  5
2777
330
1
100
AcDbSymbolTableRecord
100
AcDbBlockTableRecord
  2
*D43
340
0
  0
BLOCK_RECORD
  5
2783
330
1
100
AcDbSymbolTableRecord
100
AcDbBlockTableRecord
  2
*D44
340
0
  0
BLOCK_RECORD
  5
278F
330
1
100
AcDbSymbolTableRecord
100
AcDbBlockTableRecord
  2
*D45
340
0
  0
BLOCK_RECORD
  5
279B
330
1
100
AcDbSymbolTableRecord
100
AcDbBlockTableRecord
  2
*D46
340
0
  0
BLOCK_RECORD
  5
27A9
330
1
100
AcDbSymbolTableRecord
100
AcDbBlockTableRecord
  2
*D47
340
0
  0
ENDTAB
  0
ENDSEC
  0
SECTION
  2
BLOCKS
  0
BLOCK
  5
20
330
1F
100
AcDbEntity
  8
0
100
AcDbBlockBegin
  2
*Model_Space
 70
     0
 10
0.0
 20
0.0
 30
0.0
  3
*Model_Space
  1

  0
ENDBLK
  5
21
330
1F
100
AcDbEntity
  8
0
100
AcDbBlockEnd
  0
BLOCK
  5
1C
330
1B
100
AcDbEntity
 67
     1
  8
0
100
AcDbBlockBegin
  2
*Paper_Space
 70
     0
 10
0.0
 20
0.0
 30
0.0
  3
*Paper_Space
  1

  0
ENDBLK
  5
1D
330
1B
100
AcDbEntity
 67
     1
  8
0
100
AcDbBlockEnd
  0
BLOCK
  5
24
330
23
100
AcDbEntity
  8
0
100
AcDbBlockBegin
  2
*Paper_Space0
 70
     0
 10
0.0
 20
0.0
 30
0.0
  3
*Paper_Space0
  1

  0
ENDBLK
  5
25
330
23
100
AcDbEntity
  8
0
100
AcDbBlockEnd
  0
BLOCK
  5
89
330
87
100
AcDbEntity
  8
0
100
AcDbBlockBegin
  2
GENAXEH
 70
     0
 10
0.0
 20
0.0
 30
0.0
  3
GENAXEH
  1

  0
LINE
  5
88
330
87
100
AcDbEntity
  8
0
100
AcDbLine
 10
-1.0
 20
0.0
 30
0.0
 11
1.0
 21
0.0
 31
0.0
  0
ENDBLK
  5
8A
330
87
100
AcDbEntity
  8
0
100
AcDbBlockEnd
  0
BLOCK
  5
1CB2
330
1CB1
100
AcDbEntity
  8
0
100
AcDbBlockBegin
  2
*S2
 70
     1
 10
0.0
 20
0.0
 30
0.0
  3
*S2
  1

  0
LINE
  5
1CB3
330
1CB1
100
AcDbEntity
  8
AM_5
100
AcDbLine
 10
175.9193346012855
 20
283.8351633386178
 30
0.0
 11
194.302794080299
 21
283.8351633386178
 31
0.0
  0
LINE
  5
1CB4
330
1CB1
100
AcDbEntity
  8
AM_5
100
AcDbLine
 10
194.302794080299
 20
283.8351633386178
 30
0.0
 11
202.0619654871661
 21
293.6131852513988
 31
0.0
  0
TRACE
  5
1CB5
330
1CB1
100
AcDbEntity
  8
AM_5
100
AcDbTrace
 10
202.4229131888695
 20
293.3267617690818
 30
0.0
 11
201.7010177854627
 21
293.8996087337159
 31
0.0
 12
204.237567840664
 22
296.3548552533236
 32
0.0
 13
204.237567840664
 23
296.3548552533236
 33
0.0
  0
MTEXT
  5
1CB6
330
1CB1
100
AcDbEntity
  8
AM_5
 62
     2
100
AcDbMText
 10
175.9193346012855
 20
280.44134647306
 30
0.0
 40
3.5
 41
0.0
 71
     9
 72
     5
  1

  7
ACISOTS
 73
     1
 44
1.0
  0
ENDBLK
  5
1CB7
330
1CB1
100
AcDbEntity
  8
0
100
AcDbBlockEnd
  0
BLOCK
  5
1CB9
330
1CB8
100
AcDbEntity
  8
0
100
AcDbBlockBegin
  2
*S3
 70
     1
 10
0.0
 20
0.0
 30
0.0
  3
*S3
  1

  0
LINE
  5
1CBA
330
1CB8
100
AcDbEntity
  8
AM_5
100
AcDbLine
 10
356.9663049903907
 20
166.7058090982183
 30
0.0
 11
343.5400476595814
 21
166.7058090982183
 31
0.0
  0
LINE
  5
1CBB
330
1CB8
100
AcDbEntity
  8
AM_5
100
AcDbLine
 10
343.5400476595814
 20
166.7058090982183
 30
0.0
 11
336.2175926666788
 21
160.1765777485491
 31
0.0
  0
TRACE
  5
1CBC
330
1CB8
100
AcDbEntity
  8
AM_5
100
AcDbTrace
 10
335.9109302051877
 20
160.5204960372455
 30
0.0
 11
336.5242551281698
 21
159.8326594598528
 31
0.0
 12
333.6052738992164
 22
157.8472450850672
 32
0.0
 13
333.6052738992164
 23
157.8472450850672
 33
0.0
  0
MTEXT
  5
1CBD
330
1CB8
100
AcDbEntity
  8
AM_5
 62
     2
100
AcDbMText
 10
356.9663049903907
 20
164.2988257421649
 30
0.0
 40
3.5
 41
0.0
 71
     9
 72
     5
  1

  7
ACISOTS
210
0.0
220
0.0
230
-1.0
 11
-1.0
 21
0.0
 31
0.0
 73
     1
 44
1.0
  0
ENDBLK
  5
1CBE
330
1CB8
100
AcDbEntity
  8
0
100
AcDbBlockEnd
  0
BLOCK
  5
1CC0
330
1CBF
100
AcDbEntity
  8
0
100
AcDbBlockBegin
  2
*S4
 70
     1
 10
0.0
 20
0.0
 30
0.0
  3
*S4
  1

  0
LINE
  5
1CC1
330
1CBF
100
AcDbEntity
  8
AM_5
100
AcDbLine
 10
356.9663049903907
 20
205.5746144713642
 30
0.0
 11
343.5400476595814
 21
205.5746144713642
 31
0.0
  0
LINE
  5
1CC2
330
1CBF
100
AcDbEntity
  8
AM_5
100
AcDbLine
 10
343.5400476595814
 20
205.5746144713642
 30
0.0
 11
336.1535570839498
 21
212.5290260448436
 31
0.0
  0
TRACE
  5
1CC3
330
1CBF
100
AcDbEntity
  8
AM_5
100
AcDbTrace
 10
336.4694202835984
 20
212.8645138891769
 30
0.0
 11
335.8376938843012
 21
212.1935382005104
 31
0.0
 12
333.6052738992164
 22
214.9282452533373
 32
0.0
 13
333.6052738992164
 23
214.9282452533373
 33
0.0
  0
MTEXT
  5
1CC4
330
1CBF
100
AcDbEntity
  8
AM_5
 62
     2
100
AcDbMText
 10
356.9663049903907
 20
203.1676311153108
 30
0.0
 40
3.5
 41
0.0
 71
     9
 72
     5
  1

  7
ACISOTS
210
0.0
220
0.0
230
-1.0
 11
-1.0
 21
0.0
 31
0.0
 73
     1
 44
1.0
  0
ENDBLK
  5
1CC5
330
1CBF
100
AcDbEntity
  8
0
100
AcDbBlockEnd
  0
BLOCK
  5
1CC7
330
1CC6
100
AcDbEntity
  8
0
100
AcDbBlockBegin
  2
*S5
 70
     1
 10
0.0
 20
0.0
 30
0.0
  3
*S5
  1

  0
LINE
  5
1CC8
330
1CC6
100
AcDbEntity
  8
AM_5
100
AcDbLine
 10
457.0760830164419
 20
226.7170109581751
 30
0.0
 11
447.6119055210188
 21
226.7170109581751
 31
0.0
  0
LINE
  5
1CC9
330
1CC6
100
AcDbEntity
  8
AM_5
100
AcDbLine
 10
447.6119055210188
 20
226.7170109581751
 30
0.0
 11
431.852929322205
 21
221.7794517800108
 31
0.0
  0
TRACE
  5
1CCA
330
1CC6
100
AcDbEntity
  8
AM_5
100
AcDbTrace
 10
431.7151617117599
 20
222.2191582049125
 30
0.0
 11
431.9906969326501
 21
221.339745355109
 31
0.0
 12
428.5130274219643
 22
220.7330028817033
 32
0.0
 13
428.5130274219643
 23
220.7330028817033
 33
0.0
  0
MTEXT
  5
1CCB
330
1CC6
100
AcDbEntity
  8
AM_5
 62
     2
100
AcDbMText
 10
457.0760830164419
 20
225.5018137500851
 30
0.0
 40
3.5
 41
0.0
 71
     9
 72
     5
  1

  7
ACISOTS
210
0.0
220
0.0
230
-1.0
 11
-1.0
 21
0.0
 31
0.0
 73
     1
 44
1.0
  0
ENDBLK
  5
1CCC
330
1CC6
100
AcDbEntity
  8
0
100
AcDbBlockEnd
  0
BLOCK
  5
212E
330
2124
100
AcDbEntity
  8
0
100
AcDbBlockBegin
  2
*D6
 70
     1
 10
0.0
 20
0.0
 30
0.0
  3
*D6
  1

  0
LINE
  5
2C5E
330
2124
100
AcDbEntity
  8
AM_5
100
AcDbLine
 10
210.4795850485245
 20
314.9000579663107
 30
0.0
 11
210.4795850485245
 21
348.3000579663108
 31
0.0
  0
LINE
  5
2C5F
330
2124
100
AcDbEntity
  8
AM_5
100
AcDbLine
 10
410.4795850485245
 20
314.9000579663109
 30
0.0
 11
410.4795850485245
 21
348.3000579663108
 31
0.0
  0
LINE
  5
2C60
330
2124
100
AcDbEntity
  8
AM_5
100
AcDbLine
 10
213.4795850485245
 20
346.8000579663108
 30
0.0
 11
407.4795850485245
 21
346.8000579663108
 31
0.0
  0
SOLID
  5
2C61
330
2124
100
AcDbEntity
  8
AM_5
100
AcDbTrace
 10
213.4795850485245
 20
347.3000579663108
 30
0.0
 11
213.4795850485245
 21
346.3000579663108
 31
0.0
 12
210.4795850485245
 22
346.8000579663108
 32
0.0
 13
210.4795850485245
 23
346.8000579663108
 33
0.0
  0
SOLID
  5
2C62
330
2124
100
AcDbEntity
  8
AM_5
100
AcDbTrace
 10
407.4795850485245
 20
347.3000579663108
 30
0.0
 11
407.4795850485245
 21
346.3000579663108
 31
0.0
 12
410.4795850485245
 22
346.8000579663108
 32
0.0
 13
410.4795850485245
 23
346.8000579663108
 33
0.0
  0
MTEXT
  5
2C63
330
2124
100
AcDbEntity
  8
AM_5
100
AcDbMText
 10
310.4795850485245
 20
349.5504024544997
 30
0.0
 40
3.5
 41
0.0
 71
     5
 72
     1
  1
200+stroke
 73
     1
 44
1.0
  0
POINT
  5
2C64
330
2124
100
AcDbEntity
  8
Defpoints
 62
     0
100
AcDbPoint
 10
210.4795850485245
 20
313.4000579663107
 30
0.0
  0
POINT
  5
2C65
330
2124
100
AcDbEntity
  8
Defpoints
 62
     0
100
AcDbPoint
 10
410.4795850485245
 20
313.4000579663109
 30
0.0
  0
POINT
  5
2C66
330
2124
100
AcDbEntity
  8
Defpoints
 62
     0
100
AcDbPoint
 10
410.4795850485245
 20
346.8000579663108
 30
0.0
  0
ENDBLK
  5
212F
330
2124
100
AcDbEntity
  8
0
100
AcDbBlockEnd
  0
BLOCK
  5
213A
330
2130
100
AcDbEntity
  8
0
100
AcDbBlockBegin
  2
*D7
 70
     1
 10
0.0
 20
0.0
 30
0.0
  3
*D7
  1

  0
LINE
  5
2C67
330
2130
100
AcDbEntity
  8
AM_5
100
AcDbLine
 10
410.4804589317689
 20
185.6737868129799
 30
0.0
 11
410.4804589317689
 21
173.2737868129802
 31
0.0
  0
LINE
  5
2C68
330
2130
100
AcDbEntity
  8
AM_5
100
AcDbLine
 10
401.9804589317686
 20
197.4581705831992
 30
0.0
 11
401.9804589317686
 21
173.2737868129802
 31
0.0
  0
LINE
  5
2C69
330
2130
100
AcDbEntity
  8
AM_5
100
AcDbLine
 10
407.4804589317689
 20
174.7737868129802
 30
0.0
 11
404.9804589317687
 21
174.7737868129802
 31
0.0
  0
SOLID
  5
2C6A
330
2130
100
AcDbEntity
  8
AM_5
100
AcDbTrace
 10
407.4804589317689
 20
175.2737868129802
 30
0.0
 11
407.4804589317689
 21
174.2737868129802
 31
0.0
 12
410.4804589317689
 22
174.7737868129802
 32
0.0
 13
410.4804589317689
 23
174.7737868129802
 33
0.0
  0
SOLID
  5
2C6B
330
2130
100
AcDbEntity
  8
AM_5
100
AcDbTrace
 10
404.9804589317687
 20
175.2737868129802
 30
0.0
 11
404.9804589317687
 21
174.2737868129802
 31
0.0
 12
401.9804589317686
 22
174.7737868129802
 32
0.0
 13
401.9804589317686
 23
174.7737868129802
 33
0.0
  0
MTEXT
  5
2C6C
330
2130
100
AcDbEntity
  8
AM_5
100
AcDbMText
 10
406.2304589317688
 20
177.5237868129802
 30
0.0
 40
3.5
 41
0.0
 71
     5
 72
     1
  1
8.5
 73
     1
 44
1.0
  0
POINT
  5
2C6D
330
2130
100
AcDbEntity
  8
Defpoints
 62
     0
100
AcDbPoint
 10
410.4804589317689
 20
187.1737868129798
 30
0.0
  0
POINT
  5
2C6E
330
2130
100
AcDbEntity
  8
Defpoints
 62
     0
100
AcDbPoint
 10
401.9804589317686
 20
198.9581705831992
 30
0.0
  0
POINT
  5
2C6F
330
2130
100
AcDbEntity
  8
Defpoints
 62
     0
100
AcDbPoint
 10
401.9804589317686
 20
174.7737868129802
 30
0.0
  0
ENDBLK
  5
213B
330
2130
100
AcDbEntity
  8
0
100
AcDbBlockEnd
  0
BLOCK
  5
2146
330
213C
100
AcDbEntity
  8
0
100
AcDbBlockBegin
  2
*D8
 70
     1
 10
0.0
 20
0.0
 30
0.0
  3
*D8
  1

  0
LINE
  5
2C70
330
213C
100
AcDbEntity
  8
AM_5
100
AcDbLine
 10
210.4795850485245
 20
185.6737868129799
 30
0.0
 11
210.4795850485245
 21
173.27378681298
 31
0.0
  0
LINE
  5
2C71
330
213C
100
AcDbEntity
  8
AM_5
100
AcDbLine
 10
218.9795850485248
 20
197.4581705831992
 30
0.0
 11
218.9795850485248
 21
173.27378681298
 31
0.0
  0
LINE
  5
2C72
330
213C
100
AcDbEntity
  8
AM_5
100
AcDbLine
 10
213.4795850485245
 20
174.77378681298
 30
0.0
 11
215.9795850485248
 21
174.77378681298
 31
0.0
  0
SOLID
  5
2C73
330
213C
100
AcDbEntity
  8
AM_5
100
AcDbTrace
 10
213.4795850485245
 20
175.27378681298
 30
0.0
 11
213.4795850485245
 21
174.27378681298
 31
0.0
 12
210.4795850485245
 22
174.77378681298
 32
0.0
 13
210.4795850485245
 23
174.77378681298
 33
0.0
  0
SOLID
  5
2C74
330
213C
100
AcDbEntity
  8
AM_5
100
AcDbTrace
 10
215.9795850485248
 20
175.27378681298
 30
0.0
 11
215.9795850485248
 21
174.27378681298
 31
0.0
 12
218.9795850485248
 22
174.77378681298
 32
0.0
 13
218.9795850485248
 23
174.77378681298
 33
0.0
  0
MTEXT
  5
2C75
330
213C
100
AcDbEntity
  8
AM_5
100
AcDbMText
 10
214.7295850485246
 20
177.52378681298
 30
0.0
 40
3.5
 41
0.0
 71
     5
 72
     1
  1
8.5
 73
     1
 44
1.0
  0
POINT
  5
2C76
330
213C
100
AcDbEntity
  8
Defpoints
 62
     0
100
AcDbPoint
 10
210.4795850485245
 20
187.1737868129798
 30
0.0
  0
POINT
  5
2C77
330
213C
100
AcDbEntity
  8
Defpoints
 62
     0
100
AcDbPoint
 10
218.9795850485248
 20
198.9581705831992
 30
0.0
  0
POINT
  5
2C78
330
213C
100
AcDbEntity
  8
Defpoints
 62
     0
100
AcDbPoint
 10
218.9795850485248
 20
174.77378681298
 30
0.0
  0
ENDBLK
  5
2147
330
213C
100
AcDbEntity
  8
0
100
AcDbBlockEnd
  0
BLOCK
  5
2152
330
2148
100
AcDbEntity
  8
0
100
AcDbBlockBegin
  2
*D9
 70
     1
 10
0.0
 20
0.0
 30
0.0
  3
*D9
  1

  0
LINE
  5
2C79
330
2148
100
AcDbEntity
  8
AM_5
100
AcDbLine
 10
410.4795850485245
 20
314.9000579663109
 30
0.0
 11
410.4795850485245
 21
327.3000579663108
 31
0.0
  0
LINE
  5
2C7A
330
2148
100
AcDbEntity
  8
AM_5
100
AcDbLine
 10
401.9795850485245
 20
303.8000579663107
 30
0.0
 11
401.9795850485245
 21
327.3000579663108
 31
0.0
  0
LINE
  5
2C7B
330
2148
100
AcDbEntity
  8
AM_5
100
AcDbLine
 10
407.4795850485245
 20
325.8000579663108
 30
0.0
 11
404.9795850485245
 21
325.8000579663108
 31
0.0
  0
SOLID
  5
2C7C
330
2148
100
AcDbEntity
  8
AM_5
100
AcDbTrace
 10
407.4795850485245
 20
326.3000579663108
 30
0.0
 11
407.4795850485245
 21
325.3000579663108
 31
0.0
 12
410.4795850485245
 22
325.8000579663108
 32
0.0
 13
410.4795850485245
 23
325.8000579663108
 33
0.0
  0
SOLID
  5
2C7D
330
2148
100
AcDbEntity
  8
AM_5
100
AcDbTrace
 10
404.9795850485245
 20
326.3000579663108
 30
0.0
 11
404.9795850485245
 21
325.3000579663108
 31
0.0
 12
401.9795850485245
 22
325.8000579663108
 32
0.0
 13
401.9795850485245
 23
325.8000579663108
 33
0.0
  0
MTEXT
  5
2C7E
330
2148
100
AcDbEntity
  8
AM_5
100
AcDbMText
 10
406.2295850485245
 20
328.5500579663108
 30
0.0
 40
3.5
 41
0.0
 71
     5
 72
     1
  1
8.5
 73
     1
 44
1.0
  0
POINT
  5
2C7F
330
2148
100
AcDbEntity
  8
Defpoints
 62
     0
100
AcDbPoint
 10
410.4795850485245
 20
313.4000579663109
 30
0.0
  0
POINT
  5
2C80
330
2148
100
AcDbEntity
  8
Defpoints
 62
     0
100
AcDbPoint
 10
401.9795850485245
 20
302.3000579663108
 30
0.0
  0
POINT
  5
2C81
330
2148
100
AcDbEntity
  8
Defpoints
 62
     0
100
AcDbPoint
 10
401.9795850485245
 20
325.8000579663108
 30
0.0
  0
ENDBLK
  5
2153
330
2148
100
AcDbEntity
  8
0
100
AcDbBlockEnd
  0
BLOCK
  5
215E
330
2154
100
AcDbEntity
  8
0
100
AcDbBlockBegin
  2
*D10
 70
     1
 10
0.0
 20
0.0
 30
0.0
  3
*D10
  1

  0
LINE
  5
2C82
330
2154
100
AcDbEntity
  8
AM_5
100
AcDbLine
 10
410.4795850485245
 20
314.9000579663109
 30
0.0
 11
410.4795850485245
 21
334.3000579663108
 31
0.0
  0
LINE
  5
2C83
330
2154
100
AcDbEntity
  8
AM_5
100
AcDbLine
 10
391.9795850485245
 20
306.6000579663107
 30
0.0
 11
391.9795850485245
 21
334.3000579663108
 31
0.0
  0
LINE
  5
2C84
330
2154
100
AcDbEntity
  8
AM_5
100
AcDbLine
 10
407.4795850485245
 20
332.8000579663108
 30
0.0
 11
394.9795850485245
 21
332.8000579663108
 31
0.0
  0
SOLID
  5
2C85
330
2154
100
AcDbEntity
  8
AM_5
100
AcDbTrace
 10
407.4795850485245
 20
333.3000579663107
 30
0.0
 11
407.4795850485245
 21
332.3000579663108
 31
0.0
 12
410.4795850485245
 22
332.8000579663108
 32
0.0
 13
410.4795850485245
 23
332.8000579663108
 33
0.0
  0
SOLID
  5
2C86
330
2154
100
AcDbEntity
  8
AM_5
100
AcDbTrace
 10
394.9795850485245
 20
333.3000579663107
 30
0.0
 11
394.9795850485245
 21
332.3000579663108
 31
0.0
 12
391.9795850485245
 22
332.8000579663108
 32
0.0
 13
391.9795850485245
 23
332.8000579663108
 33
0.0
  0
MTEXT
  5
2C87
330
2154
100
AcDbEntity
  8
AM_5
100
AcDbMText
 10
401.2295850485245
 20
335.5500579663108
 30
0.0
 40
3.5
 41
0.0
 71
     5
 72
     1
  1
18.5
 73
     1
 44
1.0
  0
POINT
  5
2C88
330
2154
100
AcDbEntity
  8
Defpoints
 62
     0
100
AcDbPoint
 10
410.4795850485245
 20
313.4000579663109
 30
0.0
  0
POINT
  5
2C89
330
2154
100
AcDbEntity
  8
Defpoints
 62
     0
100
AcDbPoint
 10
391.9795850485245
 20
305.1000579663107
 30
0.0
  0
POINT
  5
2C8A
330
2154
100
AcDbEntity
  8
Defpoints
 62
     0
100
AcDbPoint
 10
391.9795850485245
 20
332.8000579663108
 30
0.0
  0
ENDBLK
  5
215F
330
2154
100
AcDbEntity
  8
0
100
AcDbBlockEnd
  0
BLOCK
  5
216A
330
2160
100
AcDbEntity
  8
0
100
AcDbBlockBegin
  2
*D11
 70
     1
 10
0.0
 20
0.0
 30
0.0
  3
*D11
  1

  0
LINE
  5
2C8B
330
2160
100
AcDbEntity
  8
AM_5
100
AcDbLine
 10
277.9795850485251
 20
415.2550430916892
 30
0.0
 11
277.9795850485251
 21
429.2536823815606
 31
0.0
  0
LINE
  5
2C8C
330
2160
100
AcDbEntity
  8
AM_5
100
AcDbLine
 10
342.9795850485242
 20
415.2550430916892
 30
0.0
 11
342.9795850485242
 21
429.2536823815606
 31
0.0
  0
LINE
  5
2C8D
330
2160
100
AcDbEntity
  8
AM_5
100
AcDbLine
 10
280.9795850485251
 20
427.7536823815605
 30
0.0
 11
339.9795850485242
 21
427.7536823815605
 31
0.0
  0
SOLID
  5
2C8E
330
2160
100
AcDbEntity
  8
AM_5
100
AcDbTrace
 10
280.9795850485251
 20
428.2536823815605
 30
0.0
 11
280.9795850485251
 21
427.2536823815605
 31
0.0
 12
277.9795850485251
 22
427.7536823815605
 32
0.0
 13
277.9795850485251
 23
427.7536823815605
 33
0.0
  0
SOLID
  5
2C8F
330
2160
100
AcDbEntity
  8
AM_5
100
AcDbTrace
 10
339.9795850485242
 20
428.2536823815605
 30
0.0
 11
339.9795850485242
 21
427.2536823815605
 31
0.0
 12
342.9795850485242
 22
427.7536823815605
 32
0.0
 13
342.9795850485242
 23
427.7536823815605
 33
0.0
  0
MTEXT
  5
2C90
330
2160
100
AcDbEntity
  8
AM_5
100
AcDbMText
 10
310.4795850485246
 20
430.5036823815605
 30
0.0
 40
3.5
 41
0.0
 71
     5
 72
     1
  1
65
 73
     1
 44
1.0
  0
POINT
  5
2C91
330
2160
100
AcDbEntity
  8
Defpoints
 62
     0
100
AcDbPoint
 10
277.9795850485251
 20
413.7550430916892
 30
0.0
  0
POINT
  5
2C92
330
2160
100
AcDbEntity
  8
Defpoints
 62
     0
100
AcDbPoint
 10
342.9795850485242
 20
413.7550430916892
 30
0.0
  0
POINT
  5
2C93
330
2160
100
AcDbEntity
  8
Defpoints
 62
     0
100
AcDbPoint
 10
342.9795850485242
 20
427.7536823815605
 30
0.0
  0
ENDBLK
  5
216B
330
2160
100
AcDbEntity
  8
0
100
AcDbBlockEnd
  0
BLOCK
  5
2176
330
216C
100
AcDbEntity
  8
0
100
AcDbBlockBegin
  2
*D12
 70
     1
 10
0.0
 20
0.0
 30
0.0
  3
*D12
  1

  0
LINE
  5
2C94
330
216C
100
AcDbEntity
  8
AM_5
100
AcDbLine
 10
259.4795850485247
 20
415.755043091689
 30
0.0
 11
259.4795850485247
 21
436.2536823815605
 31
0.0
  0
LINE
  5
2C95
330
216C
100
AcDbEntity
  8
AM_5
100
AcDbLine
 10
361.4795850485247
 20
415.7550430916892
 30
0.0
 11
361.4795850485247
 21
436.2536823815605
 31
0.0
  0
LINE
  5
2C96
330
216C
100
AcDbEntity
  8
AM_5
100
AcDbLine
 10
262.4795850485246
 20
434.7536823815605
 30
0.0
 11
358.4795850485246
 21
434.7536823815605
 31
0.0
  0
SOLID
  5
2C97
330
216C
100
AcDbEntity
  8
AM_5
100
AcDbTrace
 10
262.4795850485246
 20
435.2536823815605
 30
0.0
 11
262.4795850485246
 21
434.2536823815605
 31
0.0
 12
259.4795850485247
 22
434.7536823815605
 32
0.0
 13
259.4795850485247
 23
434.7536823815605
 33
0.0
  0
SOLID
  5
2C98
330
216C
100
AcDbEntity
  8
AM_5
100
AcDbTrace
 10
358.4795850485246
 20
435.2536823815605
 30
0.0
 11
358.4795850485246
 21
434.2536823815605
 31
0.0
 12
361.4795850485247
 22
434.7536823815605
 32
0.0
 13
361.4795850485247
 23
434.7536823815605
 33
0.0
  0
MTEXT
  5
2C99
330
216C
100
AcDbEntity
  8
AM_5
100
AcDbMText
 10
310.4795850485246
 20
437.6786823815606
 30
0.0
 40
3.5
 41
0.0
 71
     5
 72
     1
  1
(102)
 73
     1
 44
1.0
  0
POINT
  5
2C9A
330
216C
100
AcDbEntity
  8
Defpoints
 62
     0
100
AcDbPoint
 10
259.4795850485247
 20
414.2550430916889
 30
0.0
  0
POINT
  5
2C9B
330
216C
100
AcDbEntity
  8
Defpoints
 62
     0
100
AcDbPoint
 10
361.4795850485247
 20
414.2550430916892
 30
0.0
  0
POINT
  5
2C9C
330
216C
100
AcDbEntity
  8
Defpoints
 62
     0
100
AcDbPoint
 10
361.4795850485247
 20
434.7536823815605
 30
0.0
  0
ENDBLK
  5
2177
330
216C
100
AcDbEntity
  8
0
100
AcDbBlockEnd
  0
BLOCK
  5
2182
330
2178
100
AcDbEntity
  8
0
100
AcDbBlockBegin
  2
*D13
 70
     1
 10
0.0
 20
0.0
 30
0.0
  3
*D13
  1

  0
LINE
  5
2C9D
330
2178
100
AcDbEntity
  8
AM_5
100
AcDbLine
 10
254.4795850485247
 20
415.755043091689
 30
0.0
 11
254.4795850485247
 21
443.2536823815605
 31
0.0
  0
LINE
  5
2C9E
330
2178
100
AcDbEntity
  8
AM_5
100
AcDbLine
 10
366.4795850485246
 20
415.7550430916892
 30
0.0
 11
366.4795850485246
 21
443.2536823815605
 31
0.0
  0
LINE
  5
2C9F
330
2178
100
AcDbEntity
  8
AM_5
100
AcDbLine
 10
257.4795850485247
 20
441.7536823815606
 30
0.0
 11
363.4795850485247
 21
441.7536823815606
 31
0.0
  0
SOLID
  5
2CA0
330
2178
100
AcDbEntity
  8
AM_5
100
AcDbTrace
 10
257.4795850485247
 20
442.2536823815605
 30
0.0
 11
257.4795850485247
 21
441.2536823815606
 31
0.0
 12
254.4795850485247
 22
441.7536823815606
 32
0.0
 13
254.4795850485247
 23
441.7536823815606
 33
0.0
  0
SOLID
  5
2CA1
330
2178
100
AcDbEntity
  8
AM_5
100
AcDbTrace
 10
363.4795850485247
 20
442.2536823815605
 30
0.0
 11
363.4795850485247
 21
441.2536823815606
 31
0.0
 12
366.4795850485246
 22
441.7536823815606
 32
0.0
 13
366.4795850485246
 23
441.7536823815606
 33
0.0
  0
MTEXT
  5
2CA2
330
2178
100
AcDbEntity
  8
AM_5
100
AcDbMText
 10
310.4795850485246
 20
444.5040268697495
 30
0.0
 40
3.5
 41
0.0
 71
     5
 72
     1
  1
112
 73
     1
 44
1.0
  0
POINT
  5
2CA3
330
2178
100
AcDbEntity
  8
Defpoints
 62
     0
100
AcDbPoint
 10
254.4795850485247
 20
414.2550430916889
 30
0.0
  0
POINT
  5
2CA4
330
2178
100
AcDbEntity
  8
Defpoints
 62
     0
100
AcDbPoint
 10
366.4795850485246
 20
414.2550430916892
 30
0.0
  0
POINT
  5
2CA5
330
2178
100
AcDbEntity
  8
Defpoints
 62
     0
100
AcDbPoint
 10
366.4795850485246
 20
441.7536823815606
 30
0.0
  0
ENDBLK
  5
2183
330
2178
100
AcDbEntity
  8
0
100
AcDbBlockEnd
  0
BLOCK
  5
218E
330
2184
100
AcDbEntity
  8
0
100
AcDbBlockBegin
  2
*D14
 70
     1
 10
0.0
 20
0.0
 30
0.0
  3
*D14
  1

  0
LINE
  5
2CA6
330
2184
100
AcDbEntity
  8
AM_5
100
AcDbLine
 10
310.4795850485245
 20
330.1886556873931
 30
0.0
 11
310.4795850485245
 21
341.3000579663107
 31
0.0
  0
LINE
  5
2CA7
330
2184
100
AcDbEntity
  8
AM_5
100
AcDbLine
 10
410.4795850485245
 20
314.9000579663109
 30
0.0
 11
410.4795850485245
 21
341.3000579663107
 31
0.0
  0
LINE
  5
2CA8
330
2184
100
AcDbEntity
  8
AM_5
100
AcDbLine
 10
313.4795850485245
 20
339.8000579663108
 30
0.0
 11
407.4795850485245
 21
339.8000579663108
 31
0.0
  0
SOLID
  5
2CA9
330
2184
100
AcDbEntity
  8
AM_5
100
AcDbTrace
 10
313.4795850485245
 20
340.3000579663108
 30
0.0
 11
313.4795850485245
 21
339.3000579663107
 31
0.0
 12
310.4795850485245
 22
339.8000579663108
 32
0.0
 13
310.4795850485245
 23
339.8000579663108
 33
0.0
  0
SOLID
  5
2CAA
330
2184
100
AcDbEntity
  8
AM_5
100
AcDbTrace
 10
407.4795850485245
 20
340.3000579663108
 30
0.0
 11
407.4795850485245
 21
339.3000579663107
 31
0.0
 12
410.4795850485245
 22
339.8000579663108
 32
0.0
 13
410.4795850485245
 23
339.8000579663108
 33
0.0
  0
MTEXT
  5
2CAB
330
2184
100
AcDbEntity
  8
AM_5
100
AcDbMText
 10
360.4795850485245
 20
342.5500579663108
 30
0.0
 40
3.5
 41
0.0
 71
     5
 72
     1
  1
100
 73
     1
 44
1.0
  0
POINT
  5
2CAC
330
2184
100
AcDbEntity
  8
Defpoints
 62
     0
100
AcDbPoint
 10
310.4795850485245
 20
328.6886556873931
 30
0.0
  0
POINT
  5
2CAD
330
2184
100
AcDbEntity
  8
Defpoints
 62
     0
100
AcDbPoint
 10
410.4795850485245
 20
313.4000579663109
 30
0.0
  0
POINT
  5
2CAE
330
2184
100
AcDbEntity
  8
Defpoints
 62
     0
100
AcDbPoint
 10
410.4795850485245
 20
339.8000579663108
 30
0.0
  0
ENDBLK
  5
218F
330
2184
100
AcDbEntity
  8
0
100
AcDbBlockEnd
  0
BLOCK
  5
219A
330
2190
100
AcDbEntity
  8
0
100
AcDbBlockBegin
  2
*D15
 70
     1
 10
0.0
 20
0.0
 30
0.0
  3
*D15
  1

  0
LINE
  5
2CAF
330
2190
100
AcDbEntity
  8
AM_5
100
AcDbLine
 10
210.4795850485245
 20
314.9000579663107
 30
0.0
 11
210.4795850485245
 21
327.3000579663108
 31
0.0
  0
LINE
  5
2CB0
330
2190
100
AcDbEntity
  8
AM_5
100
AcDbLine
 10
233.4795850485243
 20
315.1000579663107
 30
0.0
 11
233.4795850485243
 21
327.3000579663108
 31
0.0
  0
LINE
  5
2CB1
330
2190
100
AcDbEntity
  8
AM_5
100
AcDbLine
 10
213.4795850485245
 20
325.8000579663108
 30
0.0
 11
230.4795850485243
 21
325.8000579663108
 31
0.0
  0
SOLID
  5
2CB2
330
2190
100
AcDbEntity
  8
AM_5
100
AcDbTrace
 10
213.4795850485245
 20
326.3000579663108
 30
0.0
 11
213.4795850485245
 21
325.3000579663108
 31
0.0
 12
210.4795850485245
 22
325.8000579663108
 32
0.0
 13
210.4795850485245
 23
325.8000579663108
 33
0.0
  0
SOLID
  5
2CB3
330
2190
100
AcDbEntity
  8
AM_5
100
AcDbTrace
 10
230.4795850485243
 20
326.3000579663108
 30
0.0
 11
230.4795850485243
 21
325.3000579663108
 31
0.0
 12
233.4795850485243
 22
325.8000579663108
 32
0.0
 13
233.4795850485243
 23
325.8000579663108
 33
0.0
  0
MTEXT
  5
2CB4
330
2190
100
AcDbEntity
  8
AM_5
100
AcDbMText
 10
221.9795850485244
 20
328.5504024544998
 30
0.0
 40
3.5
 41
0.0
 71
     5
 72
     1
  1
23
 73
     1
 44
1.0
  0
POINT
  5
2CB5
330
2190
100
AcDbEntity
  8
Defpoints
 62
     0
100
AcDbPoint
 10
210.4795850485245
 20
313.4000579663107
 30
0.0
  0
POINT
  5
2CB6
330
2190
100
AcDbEntity
  8
Defpoints
 62
     0
100
AcDbPoint
 10
233.4795850485243
 20
313.6000579663107
 30
0.0
  0
POINT
  5
2CB7
330
2190
100
AcDbEntity
  8
Defpoints
 62
     0
100
AcDbPoint
 10
233.4795850485243
 20
325.8000579663108
 30
0.0
  0
ENDBLK
  5
219B
330
2190
100
AcDbEntity
  8
0
100
AcDbBlockEnd
  0
BLOCK
  5
21A6
330
219C
100
AcDbEntity
  8
0
100
AcDbBlockBegin
  2
*D16
 70
     1
 10
0.0
 20
0.0
 30
0.0
  3
*D16
  1

  0
LINE
  5
2D54
330
219C
100
AcDbEntity
  8
AM_5
100
AcDbLine
 10
272.9795850485251
 20
410.2550430916892
 30
0.0
 11
267.2653815869139
 21
410.2550430916892
 31
0.0
  0
LINE
  5
2D55
330
219C
100
AcDbEntity
  8
AM_5
100
AcDbLine
 10
272.9795850485251
 20
385.2550430916892
 30
0.0
 11
267.2653815869139
 21
385.2550430916892
 31
0.0
  0
LINE
  5
2D56
330
219C
100
AcDbEntity
  8
AM_5
100
AcDbLine
 10
268.7653815869139
 20
407.2550430916892
 30
0.0
 11
268.7653815869139
 21
388.2550430916893
 31
0.0
  0
SOLID
  5
2D57
330
219C
100
AcDbEntity
  8
AM_5
100
AcDbTrace
 10
268.2653815869139
 20
407.2550430916892
 30
0.0
 11
269.2653815869139
 21
407.2550430916892
 31
0.0
 12
268.7653815869139
 22
410.2550430916892
 32
0.0
 13
268.7653815869139
 23
410.2550430916892
 33
0.0
  0
SOLID
  5
2D58
330
219C
100
AcDbEntity
  8
AM_5
100
AcDbTrace
 10
268.2653815869139
 20
388.2550430916893
 30
0.0
 11
269.2653815869139
 21
388.2550430916893
 31
0.0
 12
268.7653815869139
 22
385.2550430916892
 32
0.0
 13
268.7653815869139
 23
385.2550430916892
 33
0.0
  0
MTEXT
  5
2D59
330
219C
100
AcDbEntity
  8
AM_5
100
AcDbMText
 10
266.0150370987248
 20
400.830768714957
 30
0.0
 40
3.5
 41
0.0
 71
     5
 72
     1
  1
25
 11
0.0000000000000001
 21
1.0
 31
0.0
 73
     1
 44
1.0
  0
POINT
  5
2D5A
330
219C
100
AcDbEntity
  8
Defpoints
 62
     0
100
AcDbPoint
 10
274.4795850485251
 20
410.2550430916892
 30
0.0
  0
POINT
  5
2D5B
330
219C
100
AcDbEntity
  8
Defpoints
 62
     0
100
AcDbPoint
 10
274.4795850485251
 20
385.2550430916892
 30
0.0
  0
POINT
  5
2D5C
330
219C
100
AcDbEntity
  8
Defpoints
 62
     0
100
AcDbPoint
 10
268.7653815869139
 20
385.2550430916892
 30
0.0
  0
ENDBLK
  5
21A7
330
219C
100
AcDbEntity
  8
0
100
AcDbBlockEnd
  0
BLOCK
  5
21B2
330
21A8
100
AcDbEntity
  8
0
100
AcDbBlockBegin
  2
*D17
 70
     1
 10
0.0
 20
0.0
 30
0.0
  3
*D17
  1

  0
LINE
  5
2CC1
330
21A8
100
AcDbEntity
  8
AM_5
100
AcDbLine
 10
387.4795850485245
 20
419.0550430916882
 30
0.0
 11
387.4795850485245
 21
443.2536823815605
 31
0.0
  0
LINE
  5
2CC2
330
21A8
100
AcDbEntity
  8
AM_5
100
AcDbLine
 10
366.4795850485246
 20
415.7550430916892
 30
0.0
 11
366.4795850485246
 21
443.2536823815605
 31
0.0
  0
LINE
  5
2CC3
330
21A8
100
AcDbEntity
  8
AM_5
100
AcDbLine
 10
384.4795850485245
 20
441.7536823815606
 30
0.0
 11
369.4795850485247
 21
441.7536823815606
 31
0.0
  0
SOLID
  5
2CC4
330
21A8
100
AcDbEntity
  8
AM_5
100
AcDbTrace
 10
384.4795850485245
 20
442.2536823815605
 30
0.0
 11
384.4795850485245
 21
441.2536823815606
 31
0.0
 12
387.4795850485245
 22
441.7536823815606
 32
0.0
 13
387.4795850485245
 23
441.7536823815606
 33
0.0
  0
SOLID
  5
2CC5
330
21A8
100
AcDbEntity
  8
AM_5
100
AcDbTrace
 10
369.4795850485247
 20
442.2536823815605
 30
0.0
 11
369.4795850485247
 21
441.2536823815606
 31
0.0
 12
366.4795850485246
 22
441.7536823815606
 32
0.0
 13
366.4795850485246
 23
441.7536823815606
 33
0.0
  0
MTEXT
  5
2CC6
330
21A8
100
AcDbEntity
  8
AM_5
100
AcDbMText
 10
376.9795850485246
 20
444.5040268697495
 30
0.0
 40
3.5
 41
0.0
 71
     5
 72
     1
  1
21
 73
     1
 44
1.0
  0
POINT
  5
2CC7
330
21A8
100
AcDbEntity
  8
Defpoints
 62
     0
100
AcDbPoint
 10
387.4795850485245
 20
417.5550430916882
 30
0.0
  0
POINT
  5
2CC8
330
21A8
100
AcDbEntity
  8
Defpoints
 62
     0
100
AcDbPoint
 10
366.4795850485246
 20
414.2550430916892
 30
0.0
  0
POINT
  5
2CC9
330
21A8
100
AcDbEntity
  8
Defpoints
 62
     0
100
AcDbPoint
 10
366.4795850485246
 20
441.7536823815606
 30
0.0
  0
ENDBLK
  5
21B3
330
21A8
100
AcDbEntity
  8
0
100
AcDbBlockEnd
  0
BLOCK
  5
21BE
330
21B4
100
AcDbEntity
  8
0
100
AcDbBlockBegin
  2
*D18
 70
     1
 10
0.0
 20
0.0
 30
0.0
  3
*D18
  1

  0
LINE
  5
2CCA
330
21B4
100
AcDbEntity
  8
AM_5
100
AcDbLine
 10
484.2331107699355
 20
307.3000579663108
 30
0.0
 11
472.6331107699352
 21
307.3000579663108
 31
0.0
  0
LINE
  5
2CCB
330
21B4
100
AcDbEntity
  8
AM_5
100
AcDbLine
 10
484.2331107699355
 20
280.3000579663106
 30
0.0
 11
472.6331107699352
 21
280.3000579663106
 31
0.0
  0
LINE
  5
2CCC
330
21B4
100
AcDbEntity
  8
AM_5
100
AcDbLine
 10
474.1331107699352
 20
304.3000579663108
 30
0.0
 11
474.1331107699352
 21
283.3000579663107
 31
0.0
  0
SOLID
  5
2CCD
330
21B4
100
AcDbEntity
  8
AM_5
100
AcDbTrace
 10
473.6331107699352
 20
304.3000579663108
 30
0.0
 11
474.6331107699352
 21
304.3000579663108
 31
0.0
 12
474.1331107699352
 22
307.3000579663108
 32
0.0
 13
474.1331107699352
 23
307.3000579663108
 33
0.0
  0
SOLID
  5
2CCE
330
21B4
100
AcDbEntity
  8
AM_5
100
AcDbTrace
 10
473.6331107699352
 20
283.3000579663107
 30
0.0
 11
474.6331107699352
 21
283.3000579663107
 31
0.0
 12
474.1331107699352
 22
280.3000579663106
 32
0.0
 13
474.1331107699352
 23
280.3000579663106
 33
0.0
  0
MTEXT
  5
2CCF
330
21B4
100
AcDbEntity
  8
AM_5
100
AcDbMText
 10
471.3827662817461
 20
293.8000579663107
 30
0.0
 40
3.5
 41
0.0
 71
     5
 72
     1
  1
27
 11
0.0000000000000001
 21
1.0
 31
0.0
 73
     1
 44
1.0
  0
POINT
  5
2CD0
330
21B4
100
AcDbEntity
  8
Defpoints
 62
     0
100
AcDbPoint
 10
485.7331107699356
 20
307.3000579663108
 30
0.0
  0
POINT
  5
2CD1
330
21B4
100
AcDbEntity
  8
Defpoints
 62
     0
100
AcDbPoint
 10
485.7331107699356
 20
280.3000579663106
 30
0.0
  0
POINT
  5
2CD2
330
21B4
100
AcDbEntity
  8
Defpoints
 62
     0
100
AcDbPoint
 10
474.1331107699352
 20
280.3000579663106
 30
0.0
  0
ENDBLK
  5
21BF
330
21B4
100
AcDbEntity
  8
0
100
AcDbBlockEnd
  0
BLOCK
  5
21CA
330
21C0
100
AcDbEntity
  8
0
100
AcDbBlockBegin
  2
*D19
 70
     1
 10
0.0
 20
0.0
 30
0.0
  3
*D19
  1

  0
LINE
  5
2CD3
330
21C0
100
AcDbEntity
  8
AM_5
100
AcDbLine
 10
489.7647632675225
 20
313.8000579663108
 30
0.0
 11
465.6331107699352
 21
313.8000579663108
 31
0.0
  0
LINE
  5
2CD4
330
21C0
100
AcDbEntity
  8
AM_5
100
AcDbLine
 10
487.1238472140585
 20
273.8000579663106
 30
0.0
 11
465.6331107699352
 21
273.8000579663106
 31
0.0
  0
LINE
  5
2CD5
330
21C0
100
AcDbEntity
  8
AM_5
100
AcDbLine
 10
467.1331107699352
 20
310.8000579663108
 30
0.0
 11
467.1331107699352
 21
276.8000579663107
 31
0.0
  0
SOLID
  5
2CD6
330
21C0
100
AcDbEntity
  8
AM_5
100
AcDbTrace
 10
466.6331107699352
 20
310.8000579663108
 30
0.0
 11
467.6331107699352
 21
310.8000579663108
 31
0.0
 12
467.1331107699352
 22
313.8000579663108
 32
0.0
 13
467.1331107699352
 23
313.8000579663108
 33
0.0
  0
SOLID
  5
2CD7
330
21C0
100
AcDbEntity
  8
AM_5
100
AcDbTrace
 10
466.6331107699352
 20
276.8000579663107
 30
0.0
 11
467.6331107699352
 21
276.8000579663107
 31
0.0
 12
467.1331107699352
 22
273.8000579663106
 32
0.0
 13
467.1331107699352
 23
273.8000579663106
 33
0.0
  0
MTEXT
  5
2CD8
330
21C0
100
AcDbEntity
  8
AM_5
100
AcDbMText
 10
464.3831107699352
 20
293.8000579663107
 30
0.0
 40
3.5
 41
0.0
 71
     5
 72
     1
  1
40
 11
0.0000000000000001
 21
1.0
 31
0.0
 73
     1
 44
1.0
  0
POINT
  5
2CD9
330
21C0
100
AcDbEntity
  8
Defpoints
 62
     0
100
AcDbPoint
 10
491.2647632675225
 20
313.8000579663108
 30
0.0
  0
POINT
  5
2CDA
330
21C0
100
AcDbEntity
  8
Defpoints
 62
     0
100
AcDbPoint
 10
488.6238472140584
 20
273.8000579663106
 30
0.0
  0
POINT
  5
2CDB
330
21C0
100
AcDbEntity
  8
Defpoints
 62
     0
100
AcDbPoint
 10
467.1331107699352
 20
273.8000579663106
 30
0.0
  0
ENDBLK
  5
21CB
330
21C0
100
AcDbEntity
  8
0
100
AcDbBlockEnd
  0
BLOCK
  5
21D6
330
21CC
100
AcDbEntity
  8
0
100
AcDbBlockBegin
  2
*D20
 70
     1
 10
0.0
 20
0.0
 30
0.0
  3
*D20
  1

  0
LINE
  5
2CDC
330
21CC
100
AcDbEntity
  8
AM_5
100
AcDbLine
 10
487.1238472140585
 20
273.8000579663106
 30
0.0
 11
458.6331107699352
 21
273.8000579663106
 31
0.0
  0
LINE
  5
2CDD
330
21CC
100
AcDbEntity
  8
AM_5
100
AcDbLine
 10
488.3331107699352
 20
326.3000579663108
 30
0.0
 11
458.6331107699352
 21
326.3000579663108
 31
0.0
  0
LINE
  5
2CDE
330
21CC
100
AcDbEntity
  8
AM_5
100
AcDbLine
 10
460.1331107699352
 20
276.8000579663107
 30
0.0
 11
460.1331107699352
 21
323.3000579663108
 31
0.0
  0
SOLID
  5
2CDF
330
21CC
100
AcDbEntity
  8
AM_5
100
AcDbTrace
 10
459.6331107699352
 20
276.8000579663107
 30
0.0
 11
460.6331107699352
 21
276.8000579663107
 31
0.0
 12
460.1331107699352
 22
273.8000579663106
 32
0.0
 13
460.1331107699352
 23
273.8000579663106
 33
0.0
  0
SOLID
  5
2CE0
330
21CC
100
AcDbEntity
  8
AM_5
100
AcDbTrace
 10
459.6331107699352
 20
323.3000579663108
 30
0.0
 11
460.6331107699352
 21
323.3000579663108
 31
0.0
 12
460.1331107699352
 22
326.3000579663108
 32
0.0
 13
460.1331107699352
 23
326.3000579663108
 33
0.0
  0
MTEXT
  5
2CE1
330
21CC
100
AcDbEntity
  8
AM_5
100
AcDbMText
 10
457.3827662817461
 20
300.0500579663108
 30
0.0
 40
3.5
 41
0.0
 71
     5
 72
     1
  1
52.5
 11
0.0000000000000001
 21
1.0
 31
0.0
 73
     1
 44
1.0
  0
POINT
  5
2CE2
330
21CC
100
AcDbEntity
  8
Defpoints
 62
     0
100
AcDbPoint
 10
488.6238472140584
 20
273.8000579663106
 30
0.0
  0
POINT
  5
2CE3
330
21CC
100
AcDbEntity
  8
Defpoints
 62
     0
100
AcDbPoint
 10
489.8331107699353
 20
326.3000579663108
 30
0.0
  0
POINT
  5
2CE4
330
21CC
100
AcDbEntity
  8
Defpoints
 62
     0
100
AcDbPoint
 10
460.1331107699352
 20
326.3000579663108
 30
0.0
  0
ENDBLK
  5
21D7
330
21CC
100
AcDbEntity
  8
0
100
AcDbBlockEnd
  0
BLOCK
  5
21E2
330
21D8
100
AcDbEntity
  8
0
100
AcDbBlockBegin
  2
*D21
 70
     1
 10
0.0
 20
0.0
 30
0.0
  3
*D21
  1

  0
LINE
  5
2CE5
330
21D8
100
AcDbEntity
  8
AM_5
100
AcDbLine
 10
489.6331107699352
 20
327.6000579663107
 30
0.0
 11
489.6331107699352
 21
335.2000579663108
 31
0.0
  0
LINE
  5
2CE6
330
21D8
100
AcDbEntity
  8
AM_5
100
AcDbLine
 10
522.6331107699352
 20
327.6000579663107
 30
0.0
 11
522.6331107699352
 21
335.2000579663108
 31
0.0
  0
LINE
  5
2CE7
330
21D8
100
AcDbEntity
  8
AM_5
100
AcDbLine
 10
492.6331107699352
 20
333.7000579663108
 30
0.0
 11
519.6331107699352
 21
333.7000579663108
 31
0.0
  0
SOLID
  5
2CE8
330
21D8
100
AcDbEntity
  8
AM_5
100
AcDbTrace
 10
492.6331107699352
 20
334.2000579663109
 30
0.0
 11
492.6331107699352
 21
333.2000579663108
 31
0.0
 12
489.6331107699352
 22
333.7000579663108
 32
0.0
 13
489.6331107699352
 23
333.7000579663108
 33
0.0
  0
SOLID
  5
2CE9
330
21D8
100
AcDbEntity
  8
AM_5
100
AcDbTrace
 10
519.6331107699352
 20
334.2000579663109
 30
0.0
 11
519.6331107699352
 21
333.2000579663108
 31
0.0
 12
522.6331107699352
 22
333.7000579663108
 32
0.0
 13
522.6331107699352
 23
333.7000579663108
 33
0.0
  0
MTEXT
  5
2CEA
330
21D8
100
AcDbEntity
  8
AM_5
100
AcDbMText
 10
506.1331107699352
 20
336.4500579663109
 30
0.0
 40
3.5
 41
0.0
 71
     5
 72
     1
  1
33
 73
     1
 44
1.0
  0
POINT
  5
2CEB
330
21D8
100
AcDbEntity
  8
Defpoints
 62
     0
100
AcDbPoint
 10
489.6331107699352
 20
326.1000579663107
 30
0.0
  0
POINT
  5
2CEC
330
21D8
100
AcDbEntity
  8
Defpoints
 62
     0
100
AcDbPoint
 10
522.6331107699352
 20
326.1000579663107
 30
0.0
  0
POINT
  5
2CED
330
21D8
100
AcDbEntity
  8
Defpoints
 62
     0
100
AcDbPoint
 10
522.6331107699352
 20
333.7000579663108
 30
0.0
  0
ENDBLK
  5
21E3
330
21D8
100
AcDbEntity
  8
0
100
AcDbBlockEnd
  0
BLOCK
  5
21EE
330
21E4
100
AcDbEntity
  8
0
100
AcDbBlockBegin
  2
*D22
 70
     1
 10
0.0
 20
0.0
 30
0.0
  3
*D22
  1

  0
LINE
  5
2CEE
330
21E4
100
AcDbEntity
  8
AM_5
100
AcDbLine
 10
525.142374325811
 20
273.8000579663106
 30
0.0
 11
539.6331107699352
 21
273.8000579663106
 31
0.0
  0
LINE
  5
2CEF
330
21E4
100
AcDbEntity
  8
AM_5
100
AcDbLine
 10
529.1332190970177
 20
293.8000579663107
 30
0.0
 11
539.6331107699352
 21
293.8000579663107
 31
0.0
  0
LINE
  5
2CF0
330
21E4
100
AcDbEntity
  8
AM_5
100
AcDbLine
 10
538.1331107699351
 20
276.8000579663107
 30
0.0
 11
538.1331107699351
 21
290.8000579663108
 31
0.0
  0
SOLID
  5
2CF1
330
21E4
100
AcDbEntity
  8
AM_5
100
AcDbTrace
 10
537.6331107699352
 20
276.8000579663107
 30
0.0
 11
538.6331107699352
 21
276.8000579663107
 31
0.0
 12
538.1331107699351
 22
273.8000579663106
 32
0.0
 13
538.1331107699351
 23
273.8000579663106
 33
0.0
  0
SOLID
  5
2CF2
330
21E4
100
AcDbEntity
  8
AM_5
100
AcDbTrace
 10
537.6331107699352
 20
290.8000579663108
 30
0.0
 11
538.6331107699352
 21
290.8000579663108
 31
0.0
 12
538.1331107699351
 22
293.8000579663107
 32
0.0
 13
538.1331107699351
 23
293.8000579663107
 33
0.0
  0
MTEXT
  5
2CF3
330
21E4
100
AcDbEntity
  8
AM_5
100
AcDbMText
 10
535.3827662817462
 20
283.8000579663108
 30
0.0
 40
3.5
 41
0.0
 71
     5
 72
     1
  1
20
 11
0.0000000000000001
 21
1.0
 31
0.0
 73
     1
 44
1.0
  0
POINT
  5
2CF4
330
21E4
100
AcDbEntity
  8
Defpoints
 62
     0
100
AcDbPoint
 10
523.642374325811
 20
273.8000579663106
 30
0.0
  0
POINT
  5
2CF5
330
21E4
100
AcDbEntity
  8
Defpoints
 62
     0
100
AcDbPoint
 10
527.6332190970176
 20
293.8000579663107
 30
0.0
  0
POINT
  5
2CF6
330
21E4
100
AcDbEntity
  8
Defpoints
 62
     0
100
AcDbPoint
 10
538.1331107699351
 20
293.8000579663107
 30
0.0
  0
ENDBLK
  5
21EF
330
21E4
100
AcDbEntity
  8
0
100
AcDbBlockEnd
  0
BLOCK
  5
21FA
330
21F0
100
AcDbEntity
  8
0
100
AcDbBlockBegin
  2
*D23
 70
     1
 10
0.0
 20
0.0
 30
0.0
  3
*D23
  1

  0
LINE
  5
2CF7
330
21F0
100
AcDbEntity
  8
AM_5
100
AcDbLine
 10
492.6331107699352
 20
271.900057966311
 30
0.0
 11
492.6331107699352
 21
260.3000579663107
 31
0.0
  0
LINE
  5
2CF8
330
21F0
100
AcDbEntity
  8
AM_5
100
AcDbLine
 10
519.6331107699352
 20
271.900057966311
 30
0.0
 11
519.6331107699352
 21
260.3000579663107
 31
0.0
  0
LINE
  5
2CF9
330
21F0
100
AcDbEntity
  8
AM_5
100
AcDbLine
 10
495.6331107699352
 20
261.8000579663108
 30
0.0
 11
516.6331107699352
 21
261.8000579663108
 31
0.0
  0
SOLID
  5
2CFA
330
21F0
100
AcDbEntity
  8
AM_5
100
AcDbTrace
 10
495.6331107699352
 20
262.3000579663107
 30
0.0
 11
495.6331107699352
 21
261.3000579663108
 31
0.0
 12
492.6331107699352
 22
261.8000579663108
 32
0.0
 13
492.6331107699352
 23
261.8000579663108
 33
0.0
  0
SOLID
  5
2CFB
330
21F0
100
AcDbEntity
  8
AM_5
100
AcDbTrace
 10
516.6331107699352
 20
262.3000579663107
 30
0.0
 11
516.6331107699352
 21
261.3000579663108
 31
0.0
 12
519.6331107699352
 22
261.8000579663108
 32
0.0
 13
519.6331107699352
 23
261.8000579663108
 33
0.0
  0
MTEXT
  5
2CFC
330
21F0
100
AcDbEntity
  8
AM_5
100
AcDbMText
 10
506.1331107699352
 20
264.5504024544997
 30
0.0
 40
3.5
 41
0.0
 71
     5
 72
     1
  1
27
 73
     1
 44
1.0
  0
POINT
  5
2CFD
330
21F0
100
AcDbEntity
  8
Defpoints
 62
     0
100
AcDbPoint
 10
492.6331107699352
 20
273.400057966311
 30
0.0
  0
POINT
  5
2CFE
330
21F0
100
AcDbEntity
  8
Defpoints
 62
     0
100
AcDbPoint
 10
519.6331107699352
 20
273.400057966311
 30
0.0
  0
POINT
  5
2CFF
330
21F0
100
AcDbEntity
  8
Defpoints
 62
     0
100
AcDbPoint
 10
519.6331107699352
 20
261.8000579663108
 30
0.0
  0
ENDBLK
  5
21FB
330
21F0
100
AcDbEntity
  8
0
100
AcDbBlockEnd
  0
BLOCK
  5
2206
330
21FC
100
AcDbEntity
  8
0
100
AcDbBlockBegin
  2
*D24
 70
     1
 10
0.0
 20
0.0
 30
0.0
  3
*D24
  1

  0
LINE
  5
2D00
330
21FC
100
AcDbEntity
  8
AM_5
100
AcDbLine
 10
486.1331107699352
 20
277.431710463898
 30
0.0
 11
486.1331107699352
 21
253.3000579663108
 31
0.0
  0
LINE
  5
2D01
330
21FC
100
AcDbEntity
  8
AM_5
100
AcDbLine
 10
526.1331107699352
 20
277.431710463898
 30
0.0
 11
526.1331107699352
 21
253.3000579663108
 31
0.0
  0
LINE
  5
2D02
330
21FC
100
AcDbEntity
  8
AM_5
100
AcDbLine
 10
489.1331107699352
 20
254.8000579663108
 30
0.0
 11
523.1331107699352
 21
254.8000579663108
 31
0.0
  0
SOLID
  5
2D03
330
21FC
100
AcDbEntity
  8
AM_5
100
AcDbTrace
 10
489.1331107699352
 20
255.3000579663108
 30
0.0
 11
489.1331107699352
 21
254.3000579663107
 31
0.0
 12
486.1331107699352
 22
254.8000579663108
 32
0.0
 13
486.1331107699352
 23
254.8000579663108
 33
0.0
  0
SOLID
  5
2D04
330
21FC
100
AcDbEntity
  8
AM_5
100
AcDbTrace
 10
523.1331107699352
 20
255.3000579663108
 30
0.0
 11
523.1331107699352
 21
254.3000579663107
 31
0.0
 12
526.1331107699352
 22
254.8000579663108
 32
0.0
 13
526.1331107699352
 23
254.8000579663108
 33
0.0
  0
MTEXT
  5
2D05
330
21FC
100
AcDbEntity
  8
AM_5
100
AcDbMText
 10
506.1331107699352
 20
257.5500579663108
 30
0.0
 40
3.5
 41
0.0
 71
     5
 72
     1
  1
40
 73
     1
 44
1.0
  0
POINT
  5
2D06
330
21FC
100
AcDbEntity
  8
Defpoints
 62
     0
100
AcDbPoint
 10
486.1331107699352
 20
278.931710463898
 30
0.0
  0
POINT
  5
2D07
330
21FC
100
AcDbEntity
  8
Defpoints
 62
     0
100
AcDbPoint
 10
526.1331107699352
 20
278.931710463898
 30
0.0
  0
POINT
  5
2D08
330
21FC
100
AcDbEntity
  8
Defpoints
 62
     0
100
AcDbPoint
 10
526.1331107699352
 20
254.8000579663108
 30
0.0
  0
ENDBLK
  5
2207
330
21FC
100
AcDbEntity
  8
0
100
AcDbBlockEnd
  0
BLOCK
  5
2214
330
2208
100
AcDbEntity
  8
0
100
AcDbBlockBegin
  2
*D25
 70
     1
 10
0.0
 20
0.0
 30
0.0
  3
*D25
  1

  0
LINE
  5
2D09
330
2208
100
AcDbEntity
  8
AM_5
100
AcDbLine
 10
234.9772723315262
 20
275.8000579663105
 30
0.0
 11
245.6102548002464
 21
275.8000579663105
 31
0.0
  0
LINE
  5
2D0A
330
2208
100
AcDbEntity
  8
AM_5
100
AcDbLine
 10
234.7795850485245
 20
273.8000579663106
 30
0.0
 11
245.6102548002464
 21
273.8000579663106
 31
0.0
  0
LINE
  5
2D0B
330
2208
100
AcDbEntity
  8
AM_5
100
AcDbLine
 10
244.1102548002464
 20
278.8000579663105
 30
0.0
 11
244.1102548002464
 21
281.8000579663106
 31
0.0
  0
LINE
  5
2D0C
330
2208
100
AcDbEntity
  8
AM_5
100
AcDbLine
 10
244.1102548002464
 20
270.8000579663107
 30
0.0
 11
244.1102548002464
 21
261.6028138718224
 31
0.0
  0
LINE
  5
2D0D
330
2208
100
AcDbEntity
  8
AM_5
100
AcDbLine
 10
244.1102548002464
 20
275.8000579663105
 30
0.0
 11
244.1102548002464
 21
273.8000579663106
 31
0.0
  0
SOLID
  5
2D0E
330
2208
100
AcDbEntity
  8
AM_5
100
AcDbTrace
 10
243.6102548002464
 20
278.8000579663105
 30
0.0
 11
244.6102548002464
 21
278.8000579663105
 31
0.0
 12
244.1102548002464
 22
275.8000579663105
 32
0.0
 13
244.1102548002464
 23
275.8000579663105
 33
0.0
  0
SOLID
  5
2D0F
330
2208
100
AcDbEntity
  8
AM_5
100
AcDbTrace
 10
243.6102548002464
 20
270.8000579663107
 30
0.0
 11
244.6102548002464
 21
270.8000579663107
 31
0.0
 12
244.1102548002464
 22
273.8000579663106
 32
0.0
 13
244.1102548002464
 23
273.8000579663106
 33
0.0
  0
MTEXT
  5
2D10
330
2208
100
AcDbEntity
  8
AM_5
100
AcDbMText
 10
241.1852548002463
 20
264.7014359190666
 30
0.0
 40
3.5
 41
0.0
 71
     5
 72
     1
  1
(2)
 11
0.0000000000000001
 21
1.0
 31
0.0
 73
     1
 44
1.0
  0
POINT
  5
2D11
330
2208
100
AcDbEntity
  8
Defpoints
 62
     0
100
AcDbPoint
 10
233.4772723315262
 20
275.8000579663105
 30
0.0
  0
POINT
  5
2D12
330
2208
100
AcDbEntity
  8
Defpoints
 62
     0
100
AcDbPoint
 10
233.2795850485245
 20
273.8000579663106
 30
0.0
  0
POINT
  5
2D13
330
2208
100
AcDbEntity
  8
Defpoints
 62
     0
100
AcDbPoint
 10
244.1102548002464
 20
273.8000579663106
 30
0.0
  0
ENDBLK
  5
2215
330
2208
100
AcDbEntity
  8
0
100
AcDbBlockEnd
  0
BLOCK
  5
2221
330
2216
100
AcDbEntity
  8
0
100
AcDbBlockBegin
  2
*D26
 70
     1
 10
0.0
 20
0.0
 30
0.0
  3
*D26
  1

  0
LINE
  5
2D14
330
2216
100
AcDbEntity
  8
AM_5
100
AcDbLine
 10
234.9772723315262
 20
275.8000579663105
 30
0.0
 11
245.6102548002463
 21
275.8000579663105
 31
0.0
  0
LINE
  5
2D15
330
2216
100
AcDbEntity
  8
AM_5
100
AcDbLine
 10
234.9794749191435
 20
311.8000579663105
 30
0.0
 11
245.6102548002463
 21
311.8000579663105
 31
0.0
  0
LINE
  5
2D16
330
2216
100
AcDbEntity
  8
AM_5
100
AcDbLine
 10
244.1102548002463
 20
278.8000579663105
 30
0.0
 11
244.1102548002463
 21
308.8000579663106
 31
0.0
  0
LINE
  5
2D17
330
2216
100
AcDbEntity
  8
AM_5
100
AcDbLine
 10
244.1102548002463
 20
311.8000579663105
 30
0.0
 11
244.1102548002463
 21
327.165445105418
 31
0.0
  0
SOLID
  5
2D18
330
2216
100
AcDbEntity
  8
AM_5
100
AcDbTrace
 10
243.6102548002463
 20
278.8000579663105
 30
0.0
 11
244.6102548002463
 21
278.8000579663105
 31
0.0
 12
244.1102548002463
 22
275.8000579663105
 32
0.0
 13
244.1102548002463
 23
275.8000579663105
 33
0.0
  0
SOLID
  5
2D19
330
2216
100
AcDbEntity
  8
AM_5
100
AcDbTrace
 10
243.6102548002463
 20
308.8000579663106
 30
0.0
 11
244.6102548002463
 21
308.8000579663106
 31
0.0
 12
244.1102548002463
 22
311.8000579663105
 32
0.0
 13
244.1102548002463
 23
311.8000579663105
 33
0.0
  0
MTEXT
  5
2D1A
330
2216
100
AcDbEntity
  8
AM_5
100
AcDbMText
 10
241.3602548002462
 20
321.9744674151293
 30
0.0
 40
3.5
 41
0.0
 71
     5
 72
     1
  1
{\Famgdt|c136;o}36
 11
0.0000000000000001
 21
1.0
 31
0.0
 73
     1
 44
1.0
  0
POINT
  5
2D1B
330
2216
100
AcDbEntity
  8
Defpoints
 62
     0
100
AcDbPoint
 10
233.4772723315262
 20
275.8000579663105
 30
0.0
  0
POINT
  5
2D1C
330
2216
100
AcDbEntity
  8
Defpoints
 62
     0
100
AcDbPoint
 10
233.4794749191436
 20
311.8000579663105
 30
0.0
  0
POINT
  5
2D1D
330
2216
100
AcDbEntity
  8
Defpoints
 62
     0
100
AcDbPoint
 10
244.1102548002463
 20
311.8000579663105
 30
0.0
  0
ENDBLK
  5
2222
330
2216
100
AcDbEntity
  8
0
100
AcDbBlockEnd
  0
BLOCK
  5
26BB
330
26B1
100
AcDbEntity
  8
0
100
AcDbBlockBegin
  2
*D27
 70
     1
 10
0.0
 20
0.0
 30
0.0
  3
*D27
  1

  0
LINE
  5
2E2F
330
26B1
100
AcDbEntity
  8
AM_5
100
AcDbLine
 10
609.4386562956913
 20
222.0760283486103
 30
0.0
 11
597.1886562956913
 21
222.0760283486103
 31
0.0
  0
LINE
  5
2E30
330
26B1
100
AcDbEntity
  8
AM_5
100
AcDbLine
 10
609.1886562956913
 20
232.0760283486103
 30
0.0
 11
597.1886562956913
 21
232.0760283486103
 31
0.0
  0
LINE
  5
2E31
330
26B1
100
AcDbEntity
  8
AM_5
100
AcDbLine
 10
598.6886562956913
 20
225.0760283486103
 30
0.0
 11
598.6886562956913
 21
229.0760283486103
 31
0.0
  0
SOLID
  5
2E32
330
26B1
100
AcDbEntity
  8
AM_5
100
AcDbTrace
 10
598.1886562956913
 20
225.0760283486103
 30
0.0
 11
599.1886562956913
 21
225.0760283486103
 31
0.0
 12
598.6886562956913
 22
222.0760283486103
 32
0.0
 13
598.6886562956913
 23
222.0760283486103
 33
0.0
  0
SOLID
  5
2E33
330
26B1
100
AcDbEntity
  8
AM_5
100
AcDbTrace
 10
598.1886562956913
 20
229.0760283486103
 30
0.0
 11
599.1886562956913
 21
229.0760283486103
 31
0.0
 12
598.6886562956913
 22
232.0760283486103
 32
0.0
 13
598.6886562956913
 23
232.0760283486103
 33
0.0
  0
MTEXT
  5
2E34
330
26B1
100
AcDbEntity
  8
AM_5
100
AcDbMText
 10
595.9386562956913
 20
227.0760283486104
 30
0.0
 40
3.5
 41
0.0
 71
     5
 72
     1
  1
10
 11
0.0000000000000001
 21
1.0
 31
0.0
 73
     1
 44
1.0
  0
POINT
  5
2E35
330
26B1
100
AcDbEntity
  8
Defpoints
 62
     0
100
AcDbPoint
 10
610.9386562956913
 20
222.0760283486103
 30
0.0
  0
POINT
  5
2E36
330
26B1
100
AcDbEntity
  8
Defpoints
 62
     0
100
AcDbPoint
 10
610.6886562956913
 20
232.0760283486103
 30
0.0
  0
POINT
  5
2E37
330
26B1
100
AcDbEntity
  8
Defpoints
 62
     0
100
AcDbPoint
 10
598.6886562956913
 20
232.0760283486103
 30
0.0
  0
ENDBLK
  5
26BC
330
26B1
100
AcDbEntity
  8
0
100
AcDbBlockEnd
  0
BLOCK
  5
26C7
330
26BD
100
AcDbEntity
  8
0
100
AcDbBlockBegin
  2
*D28
 70
     1
 10
0.0
 20
0.0
 30
0.0
  3
*D28
  1

  0
LINE
  5
2E26
330
26BD
100
AcDbEntity
  8
AM_5
100
AcDbLine
 10
609.1886562956913
 20
212.0760283486103
 30
0.0
 11
589.1886562956913
 21
212.0760283486103
 31
0.0
  0
LINE
  5
2E27
330
26BD
100
AcDbEntity
  8
AM_5
100
AcDbLine
 10
609.1886562956913
 20
232.0760283486103
 30
0.0
 11
589.1886562956913
 21
232.0760283486103
 31
0.0
  0
LINE
  5
2E28
330
26BD
100
AcDbEntity
  8
AM_5
100
AcDbLine
 10
590.6886562956913
 20
215.0760283486103
 30
0.0
 11
590.6886562956913
 21
229.0760283486103
 31
0.0
  0
SOLID
  5
2E29
330
26BD
100
AcDbEntity
  8
AM_5
100
AcDbTrace
 10
590.1886562956913
 20
215.0760283486103
 30
0.0
 11
591.1886562956913
 21
215.0760283486103
 31
0.0
 12
590.6886562956913
 22
212.0760283486103
 32
0.0
 13
590.6886562956913
 23
212.0760283486103
 33
0.0
  0
SOLID
  5
2E2A
330
26BD
100
AcDbEntity
  8
AM_5
100
AcDbTrace
 10
590.1886562956913
 20
229.0760283486103
 30
0.0
 11
591.1886562956913
 21
229.0760283486103
 31
0.0
 12
590.6886562956913
 22
232.0760283486103
 32
0.0
 13
590.6886562956913
 23
232.0760283486103
 33
0.0
  0
MTEXT
  5
2E2B
330
26BD
100
AcDbEntity
  8
AM_5
100
AcDbMText
 10
587.9383118075024
 20
222.0760283486104
 30
0.0
 40
3.5
 41
0.0
 71
     5
 72
     1
  1
20
 11
0.0000000000000001
 21
1.0
 31
0.0
 73
     1
 44
1.0
  0
POINT
  5
2E2C
330
26BD
100
AcDbEntity
  8
Defpoints
 62
     0
100
AcDbPoint
 10
610.6886562956913
 20
212.0760283486103
 30
0.0
  0
POINT
  5
2E2D
330
26BD
100
AcDbEntity
  8
Defpoints
 62
     0
100
AcDbPoint
 10
610.6886562956913
 20
232.0760283486103
 30
0.0
  0
POINT
  5
2E2E
330
26BD
100
AcDbEntity
  8
Defpoints
 62
     0
100
AcDbPoint
 10
590.6886562956913
 20
232.0760283486103
 30
0.0
  0
ENDBLK
  5
26C8
330
26BD
100
AcDbEntity
  8
0
100
AcDbBlockEnd
  0
BLOCK
  5
26D3
330
26C9
100
AcDbEntity
  8
0
100
AcDbBlockBegin
  2
*D29
 70
     1
 10
0.0
 20
0.0
 30
0.0
  3
*D29
  1

  0
LINE
  5
2C43
330
26C9
100
AcDbEntity
  8
AM_5
100
AcDbLine
 10
622.4386562956916
 20
233.5760283486103
 30
0.0
 11
622.4386562956916
 21
239.6653832338675
 31
0.0
  0
LINE
  5
2C44
330
26C9
100
AcDbEntity
  8
AM_5
100
AcDbLine
 10
658.9386562956913
 20
233.5760283486103
 30
0.0
 11
658.9386562956913
 21
239.6653832338675
 31
0.0
  0
LINE
  5
2C45
330
26C9
100
AcDbEntity
  8
AM_5
100
AcDbLine
 10
625.4386562956916
 20
238.1653832338675
 30
0.0
 11
655.9386562956913
 21
238.1653832338675
 31
0.0
  0
SOLID
  5
2C46
330
26C9
100
AcDbEntity
  8
AM_5
100
AcDbTrace
 10
625.4386562956916
 20
238.6653832338675
 30
0.0
 11
625.4386562956916
 21
237.6653832338675
 31
0.0
 12
622.4386562956916
 22
238.1653832338675
 32
0.0
 13
622.4386562956916
 23
238.1653832338675
 33
0.0
  0
SOLID
  5
2C47
330
26C9
100
AcDbEntity
  8
AM_5
100
AcDbTrace
 10
655.9386562956913
 20
238.6653832338675
 30
0.0
 11
655.9386562956913
 21
237.6653832338675
 31
0.0
 12
658.9386562956913
 22
238.1653832338675
 32
0.0
 13
658.9386562956913
 23
238.1653832338675
 33
0.0
  0
MTEXT
  5
2C48
330
26C9
100
AcDbEntity
  8
AM_5
100
AcDbMText
 10
640.6886562956915
 20
240.9153832338675
 30
0.0
 40
3.5
 41
0.0
 71
     5
 72
     1
  1
36.5
 73
     1
 44
1.0
  0
POINT
  5
2C49
330
26C9
100
AcDbEntity
  8
Defpoints
 62
     0
100
AcDbPoint
 10
622.4386562956916
 20
232.0760283486103
 30
0.0
  0
POINT
  5
2C4A
330
26C9
100
AcDbEntity
  8
Defpoints
 62
     0
100
AcDbPoint
 10
658.9386562956913
 20
232.0760283486103
 30
0.0
  0
POINT
  5
2C4B
330
26C9
100
AcDbEntity
  8
Defpoints
 62
     0
100
AcDbPoint
 10
658.9386562956913
 20
238.1653832338675
 30
0.0
  0
ENDBLK
  5
26D4
330
26C9
100
AcDbEntity
  8
0
100
AcDbBlockEnd
  0
BLOCK
  5
26DF
330
26D5
100
AcDbEntity
  8
0
100
AcDbBlockBegin
  2
*D30
 70
     1
 10
0.0
 20
0.0
 30
0.0
  3
*D30
  1

  0
LINE
  5
2E1D
330
26D5
100
AcDbEntity
  8
AM_5
100
AcDbLine
 10
616.6886562956912
 20
229.3260283486103
 30
0.0
 11
616.6886562956912
 21
247.6653832338675
 31
0.0
  0
LINE
  5
2E1E
330
26D5
100
AcDbEntity
  8
AM_5
100
AcDbLine
 10
664.6886562956913
 20
229.3260283486103
 30
0.0
 11
664.6886562956913
 21
247.6653832338675
 31
0.0
  0
LINE
  5
2E1F
330
26D5
100
AcDbEntity
  8
AM_5
100
AcDbLine
 10
619.6886562956913
 20
246.1653832338675
 30
0.0
 11
661.6886562956913
 21
246.1653832338675
 31
0.0
  0
SOLID
  5
2E20
330
26D5
100
AcDbEntity
  8
AM_5
100
AcDbTrace
 10
619.6886562956913
 20
246.6653832338675
 30
0.0
 11
619.6886562956913
 21
245.6653832338675
 31
0.0
 12
616.6886562956912
 22
246.1653832338675
 32
0.0
 13
616.6886562956912
 23
246.1653832338675
 33
0.0
  0
SOLID
  5
2E21
330
26D5
100
AcDbEntity
  8
AM_5
100
AcDbTrace
 10
661.6886562956913
 20
246.6653832338675
 30
0.0
 11
661.6886562956913
 21
245.6653832338675
 31
0.0
 12
664.6886562956913
 22
246.1653832338675
 32
0.0
 13
664.6886562956913
 23
246.1653832338675
 33
0.0
  0
MTEXT
  5
2E22
330
26D5
100
AcDbEntity
  8
AM_5
100
AcDbMText
 10
640.6886562956913
 20
248.9153832338675
 30
0.0
 40
3.5
 41
0.0
 71
     5
 72
     1
  1
48
 73
     1
 44
1.0
  0
POINT
  5
2E23
330
26D5
100
AcDbEntity
  8
Defpoints
 62
     0
100
AcDbPoint
 10
616.6886562956912
 20
227.8260283486103
 30
0.0
  0
POINT
  5
2E24
330
26D5
100
AcDbEntity
  8
Defpoints
 62
     0
100
AcDbPoint
 10
664.6886562956913
 20
227.8260283486103
 30
0.0
  0
POINT
  5
2E25
330
26D5
100
AcDbEntity
  8
Defpoints
 62
     0
100
AcDbPoint
 10
664.6886562956913
 20
246.1653832338675
 30
0.0
  0
ENDBLK
  5
26E0
330
26D5
100
AcDbEntity
  8
0
100
AcDbBlockEnd
  0
BLOCK
  5
26EB
330
26E1
100
AcDbEntity
  8
0
100
AcDbBlockBegin
  2
*D31
 70
     1
 10
0.0
 20
0.0
 30
0.0
  3
*D31
  1

  0
LINE
  5
2E14
330
26E1
100
AcDbEntity
  8
AM_5
100
AcDbLine
 10
610.6886562956913
 20
233.5760283486103
 30
0.0
 11
610.6886562956913
 21
255.6653832338675
 31
0.0
  0
LINE
  5
2E15
330
26E1
100
AcDbEntity
  8
AM_5
100
AcDbLine
 10
670.6886562956912
 20
233.5760283486103
 30
0.0
 11
670.6886562956912
 21
255.6653832338675
 31
0.0
  0
LINE
  5
2E16
330
26E1
100
AcDbEntity
  8
AM_5
100
AcDbLine
 10
613.6886562956913
 20
254.1653832338675
 30
0.0
 11
667.6886562956913
 21
254.1653832338675
 31
0.0
  0
SOLID
  5
2E17
330
26E1
100
AcDbEntity
  8
AM_5
100
AcDbTrace
 10
613.6886562956913
 20
254.6653832338675
 30
0.0
 11
613.6886562956913
 21
253.6653832338675
 31
0.0
 12
610.6886562956913
 22
254.1653832338675
 32
0.0
 13
610.6886562956913
 23
254.1653832338675
 33
0.0
  0
SOLID
  5
2E18
330
26E1
100
AcDbEntity
  8
AM_5
100
AcDbTrace
 10
667.6886562956913
 20
254.6653832338675
 30
0.0
 11
667.6886562956913
 21
253.6653832338675
 31
0.0
 12
670.6886562956912
 22
254.1653832338675
 32
0.0
 13
670.6886562956912
 23
254.1653832338675
 33
0.0
  0
MTEXT
  5
2E19
330
26E1
100
AcDbEntity
  8
AM_5
100
AcDbMText
 10
640.6886562956913
 20
256.9153832338675
 30
0.0
 40
3.5
 41
0.0
 71
     5
 72
     1
  1
60
 73
     1
 44
1.0
  0
POINT
  5
2E1A
330
26E1
100
AcDbEntity
  8
Defpoints
 62
     0
100
AcDbPoint
 10
610.6886562956913
 20
232.0760283486103
 30
0.0
  0
POINT
  5
2E1B
330
26E1
100
AcDbEntity
  8
Defpoints
 62
     0
100
AcDbPoint
 10
670.6886562956912
 20
232.0760283486103
 30
0.0
  0
POINT
  5
2E1C
330
26E1
100
AcDbEntity
  8
Defpoints
 62
     0
100
AcDbPoint
 10
670.6886562956912
 20
254.1653832338675
 30
0.0
  0
ENDBLK
  5
26EC
330
26E1
100
AcDbEntity
  8
0
100
AcDbBlockEnd
  0
BLOCK
  5
26F9
330
26ED
100
AcDbEntity
  8
0
100
AcDbBlockBegin
  2
*D32
 70
     1
 10
0.0
 20
0.0
 30
0.0
  3
*D32
  1

  0
LINE
  5
2E09
330
26ED
100
AcDbEntity
  8
AM_5
100
AcDbLine
 10
620.9386562956913
 20
192.7426351817216
 30
0.0
 11
597.1886562956913
 21
192.7426351817216
 31
0.0
  0
LINE
  5
2E0A
330
26ED
100
AcDbEntity
  8
AM_5
100
AcDbLine
 10
609.1886562956913
 20
188.9426351817217
 30
0.0
 11
597.1886562956913
 21
188.9426351817217
 31
0.0
  0
LINE
  5
2E0B
330
26ED
100
AcDbEntity
  8
AM_5
100
AcDbLine
 10
598.6886562956913
 20
195.7426351817216
 30
0.0
 11
598.6886562956913
 21
198.7426351817216
 31
0.0
  0
LINE
  5
2E0C
330
26ED
100
AcDbEntity
  8
AM_5
100
AcDbLine
 10
598.6886562956913
 20
185.9426351817217
 30
0.0
 11
598.6886562956913
 21
176.0426351817217
 31
0.0
  0
LINE
  5
2E0D
330
26ED
100
AcDbEntity
  8
AM_5
100
AcDbLine
 10
598.6886562956913
 20
192.7426351817216
 30
0.0
 11
598.6886562956913
 21
188.9426351817217
 31
0.0
  0
SOLID
  5
2E0E
330
26ED
100
AcDbEntity
  8
AM_5
100
AcDbTrace
 10
598.1886562956913
 20
195.7426351817216
 30
0.0
 11
599.1886562956913
 21
195.7426351817216
 31
0.0
 12
598.6886562956913
 22
192.7426351817216
 32
0.0
 13
598.6886562956913
 23
192.7426351817216
 33
0.0
  0
SOLID
  5
2E0F
330
26ED
100
AcDbEntity
  8
AM_5
100
AcDbTrace
 10
598.1886562956913
 20
185.9426351817217
 30
0.0
 11
599.1886562956913
 21
185.9426351817217
 31
0.0
 12
598.6886562956913
 22
188.9426351817217
 32
0.0
 13
598.6886562956913
 23
188.9426351817217
 33
0.0
  0
MTEXT
  5
2E10
330
26ED
100
AcDbEntity
  8
AM_5
100
AcDbMText
 10
595.9386562956913
 20
179.4926351817218
 30
0.0
 40
3.5
 41
0.0
 71
     5
 72
     1
  1
3.8
 11
0.0000000000000001
 21
1.0
 31
0.0
 73
     1
 44
1.0
  0
POINT
  5
2E11
330
26ED
100
AcDbEntity
  8
Defpoints
 62
     0
100
AcDbPoint
 10
622.4386562956913
 20
192.7426351817216
 30
0.0
  0
POINT
  5
2E12
330
26ED
100
AcDbEntity
  8
Defpoints
 62
     0
100
AcDbPoint
 10
610.6886562956913
 20
188.9426351817217
 30
0.0
  0
POINT
  5
2E13
330
26ED
100
AcDbEntity
  8
Defpoints
 62
     0
100
AcDbPoint
 10
598.6886562956913
 20
188.9426351817217
 30
0.0
  0
ENDBLK
  5
26FA
330
26ED
100
AcDbEntity
  8
0
100
AcDbBlockEnd
  0
BLOCK
  5
2707
330
26FB
100
AcDbEntity
  8
0
100
AcDbBlockBegin
  2
*D33
 70
     1
 10
0.0
 20
0.0
 30
0.0
  3
*D33
  1

  0
LINE
  5
2DFE
330
26FB
100
AcDbEntity
  8
AM_5
100
AcDbLine
 10
609.1886562956913
 20
194.7426351817216
 30
0.0
 11
589.1886562956913
 21
194.7426351817216
 31
0.0
  0
LINE
  5
2DFF
330
26FB
100
AcDbEntity
  8
AM_5
100
AcDbLine
 10
609.1886562956913
 20
188.9426351817217
 30
0.0
 11
589.1886562956913
 21
188.9426351817217
 31
0.0
  0
LINE
  5
2E00
330
26FB
100
AcDbEntity
  8
AM_5
100
AcDbLine
 10
590.6886562956913
 20
197.7426351817216
 30
0.0
 11
590.6886562956913
 21
200.7426351817216
 31
0.0
  0
LINE
  5
2E01
330
26FB
100
AcDbEntity
  8
AM_5
100
AcDbLine
 10
590.6886562956913
 20
185.9426351817217
 30
0.0
 11
590.6886562956913
 21
176.0426351817217
 31
0.0
  0
LINE
  5
2E02
330
26FB
100
AcDbEntity
  8
AM_5
100
AcDbLine
 10
590.6886562956913
 20
194.7426351817216
 30
0.0
 11
590.6886562956913
 21
188.9426351817217
 31
0.0
  0
SOLID
  5
2E03
330
26FB
100
AcDbEntity
  8
AM_5
100
AcDbTrace
 10
590.1886562956913
 20
197.7426351817216
 30
0.0
 11
591.1886562956913
 21
197.7426351817216
 31
0.0
 12
590.6886562956913
 22
194.7426351817216
 32
0.0
 13
590.6886562956913
 23
194.7426351817216
 33
0.0
  0
SOLID
  5
2E04
330
26FB
100
AcDbEntity
  8
AM_5
100
AcDbTrace
 10
590.1886562956913
 20
185.9426351817217
 30
0.0
 11
591.1886562956913
 21
185.9426351817217
 31
0.0
 12
590.6886562956913
 22
188.9426351817217
 32
0.0
 13
590.6886562956913
 23
188.9426351817217
 33
0.0
  0
MTEXT
  5
2E05
330
26FB
100
AcDbEntity
  8
AM_5
100
AcDbMText
 10
587.9386562956913
 20
179.4926351817218
 30
0.0
 40
3.5
 41
0.0
 71
     5
 72
     1
  1
5.8
 11
0.0000000000000001
 21
1.0
 31
0.0
 73
     1
 44
1.0
  0
POINT
  5
2E06
330
26FB
100
AcDbEntity
  8
Defpoints
 62
     0
100
AcDbPoint
 10
610.6886562956913
 20
194.7426351817216
 30
0.0
  0
POINT
  5
2E07
330
26FB
100
AcDbEntity
  8
Defpoints
 62
     0
100
AcDbPoint
 10
610.6886562956913
 20
188.9426351817217
 30
0.0
  0
POINT
  5
2E08
330
26FB
100
AcDbEntity
  8
Defpoints
 62
     0
100
AcDbPoint
 10
590.6886562956913
 20
188.9426351817217
 30
0.0
  0
ENDBLK
  5
2708
330
26FB
100
AcDbEntity
  8
0
100
AcDbBlockEnd
  0
BLOCK
  5
2713
330
2709
100
AcDbEntity
  8
0
100
AcDbBlockBegin
  2
*D34
 70
     1
 10
0.0
 20
0.0
 30
0.0
  3
*D34
  1

  0
LINE
  5
2DF5
330
2709
100
AcDbEntity
  8
AM_5
100
AcDbLine
 10
599.5882486274044
 20
206.333372284267
 30
0.0
 11
612.0168200559758
 21
206.333372284267
 31
0.0
  0
LINE
  5
2DF6
330
2709
100
AcDbEntity
  8
AM_5
100
AcDbLine
 10
612.0168200559758
 20
206.333372284267
 30
0.0
 11
615.4084084456352
 21
217.761985529812
 31
0.0
  0
LINE
  5
2DF7
330
2709
100
AcDbEntity
  8
AM_5
100
AcDbLine
 10
617.9689041457471
 20
226.3900711674088
 30
0.0
 11
618.4667783096578
 21
228.0677544858305
 31
0.0
  0
MTEXT
  5
2DF8
330
2709
100
AcDbEntity
  8
AM_5
100
AcDbMText
 10
605.42753434169
 20
208.2083722842671
 30
0.0
 40
2.25
 41
0.0
 71
     5
 72
     1
  1
2-\U+22055.5
  7
DAYUS
 73
     1
 44
1.0
  0
LINE
  5
2DF9
330
2709
100
AcDbEntity
  8
AM_5
100
AcDbLine
 10
617.4710299818364
 20
224.7123878489872
 30
0.0
 11
615.9062826095459
 21
219.4396688482337
 31
0.0
  0
SOLID
  5
2DFA
330
2709
100
AcDbEntity
  8
AM_5
100
AcDbTrace
 10
617.6892902593436
 20
226.4730501947273
 30
0.0
 11
618.2485180321507
 21
226.3070921400904
 31
0.0
 12
617.4710299818364
 22
224.7123878489872
 32
0.0
 13
617.4710299818364
 23
224.7123878489872
 33
0.0
  0
SOLID
  5
2DFB
330
2709
100
AcDbEntity
  8
AM_5
100
AcDbTrace
 10
615.1287945592316
 20
217.8449645571304
 30
0.0
 11
615.6880223320388
 21
217.6790065024936
 31
0.0
 12
615.9062826095459
 22
219.4396688482337
 32
0.0
 13
615.9062826095459
 23
219.4396688482337
 33
0.0
  0
POINT
  5
2DFC
330
2709
100
AcDbEntity
  8
Defpoints
 62
     0
100
AcDbPoint
 10
615.9062826095459
 20
219.4396688482337
 30
0.0
  0
POINT
  5
2DFD
330
2709
100
AcDbEntity
  8
Defpoints
 62
     0
100
AcDbPoint
 10
617.4710299818364
 20
224.7123878489872
 30
0.0
  0
ENDBLK
  5
2714
330
2709
100
AcDbEntity
  8
0
100
AcDbBlockEnd
  0
BLOCK
  5
271F
330
2715
100
AcDbEntity
  8
0
100
AcDbBlockBegin
  2
*D35
 70
     1
 10
0.0
 20
0.0
 30
0.0
  3
*D35
  1

  0
LINE
  5
2C09
330
2715
100
AcDbEntity
  8
AM_5
100
AcDbLine
 10
589.6532034397994
 20
346.649144037861
 30
0.0
 11
589.6532034397994
 21
334.9698161653971
 31
0.0
  0
LINE
  5
2C0A
330
2715
100
AcDbEntity
  8
AM_5
100
AcDbLine
 10
629.6532034397994
 20
346.649144037861
 30
0.0
 11
629.6532034397994
 21
334.9698161653971
 31
0.0
  0
LINE
  5
2C0B
330
2715
100
AcDbEntity
  8
AM_5
100
AcDbLine
 10
592.6532034397994
 20
336.4698161653971
 30
0.0
 11
626.6532034397994
 21
336.4698161653971
 31
0.0
  0
SOLID
  5
2C0C
330
2715
100
AcDbEntity
  8
AM_5
100
AcDbTrace
 10
592.6532034397994
 20
336.9698161653971
 30
0.0
 11
592.6532034397994
 21
335.9698161653971
 31
0.0
 12
589.6532034397994
 22
336.4698161653971
 32
0.0
 13
589.6532034397994
 23
336.4698161653971
 33
0.0
  0
SOLID
  5
2C0D
330
2715
100
AcDbEntity
  8
AM_5
100
AcDbTrace
 10
626.6532034397994
 20
336.9698161653971
 30
0.0
 11
626.6532034397994
 21
335.9698161653971
 31
0.0
 12
629.6532034397994
 22
336.4698161653971
 32
0.0
 13
629.6532034397994
 23
336.4698161653971
 33
0.0
  0
MTEXT
  5
2C0E
330
2715
100
AcDbEntity
  8
AM_5
100
AcDbMText
 10
609.6532034397994
 20
339.2198161653971
 30
0.0
 40
3.5
 41
0.0
 71
     5
 72
     1
  1
40
 73
     1
 44
1.0
  0
POINT
  5
2C0F
330
2715
100
AcDbEntity
  8
Defpoints
 62
     0
100
AcDbPoint
 10
589.6532034397994
 20
348.1491440378611
 30
0.0
  0
POINT
  5
2C10
330
2715
100
AcDbEntity
  8
Defpoints
 62
     0
100
AcDbPoint
 10
629.6532034397994
 20
348.1491440378611
 30
0.0
  0
POINT
  5
2C11
330
2715
100
AcDbEntity
  8
Defpoints
 62
     0
100
AcDbPoint
 10
629.6532034397994
 20
336.4698161653971
 30
0.0
  0
ENDBLK
  5
2720
330
2715
100
AcDbEntity
  8
0
100
AcDbBlockEnd
  0
BLOCK
  5
272B
330
2721
100
AcDbEntity
  8
0
100
AcDbBlockBegin
  2
*D36
 70
     1
 10
0.0
 20
0.0
 30
0.0
  3
*D36
  1

  0
LINE
  5
2C00
330
2721
100
AcDbEntity
  8
AM_5
100
AcDbLine
 10
596.1532034397994
 20
343.4550285158772
 30
0.0
 11
596.1532034397994
 21
340.8798530273987
 31
0.0
  0
LINE
  5
2C01
330
2721
100
AcDbEntity
  8
AM_5
100
AcDbLine
 10
623.1532034397994
 20
343.4550285158772
 30
0.0
 11
623.1532034397994
 21
340.8798530273987
 31
0.0
  0
LINE
  5
2C02
330
2721
100
AcDbEntity
  8
AM_5
100
AcDbLine
 10
599.1532034397994
 20
342.3798530273987
 30
0.0
 11
620.1532034397994
 21
342.3798530273987
 31
0.0
  0
SOLID
  5
2C03
330
2721
100
AcDbEntity
  8
AM_5
100
AcDbTrace
 10
599.1532034397994
 20
342.8798530273987
 30
0.0
 11
599.1532034397994
 21
341.8798530273987
 31
0.0
 12
596.1532034397994
 22
342.3798530273987
 32
0.0
 13
596.1532034397994
 23
342.3798530273987
 33
0.0
  0
SOLID
  5
2C04
330
2721
100
AcDbEntity
  8
AM_5
100
AcDbTrace
 10
620.1532034397994
 20
342.8798530273987
 30
0.0
 11
620.1532034397994
 21
341.8798530273987
 31
0.0
 12
623.1532034397994
 22
342.3798530273987
 32
0.0
 13
623.1532034397994
 23
342.3798530273987
 33
0.0
  0
MTEXT
  5
2C05
330
2721
100
AcDbEntity
  8
AM_5
100
AcDbMText
 10
609.6532034397994
 20
345.1301975155877
 30
0.0
 40
3.5
 41
0.0
 71
     5
 72
     1
  1
27
 73
     1
 44
1.0
  0
POINT
  5
2C06
330
2721
100
AcDbEntity
  8
Defpoints
 62
     0
100
AcDbPoint
 10
596.1532034397994
 20
344.9550285158772
 30
0.0
  0
POINT
  5
2C07
330
2721
100
AcDbEntity
  8
Defpoints
 62
     0
100
AcDbPoint
 10
623.1532034397994
 20
344.9550285158772
 30
0.0
  0
POINT
  5
2C08
330
2721
100
AcDbEntity
  8
Defpoints
 62
     0
100
AcDbPoint
 10
623.1532034397994
 20
342.3798530273987
 30
0.0
  0
ENDBLK
  5
272C
330
2721
100
AcDbEntity
  8
0
100
AcDbBlockEnd
  0
BLOCK
  5
2737
330
272D
100
AcDbEntity
  8
0
100
AcDbBlockBegin
  2
*D37
 70
     1
 10
0.0
 20
0.0
 30
0.0
  3
*D37
  1

  0
LINE
  5
2BF7
330
272D
100
AcDbEntity
  8
AM_5
100
AcDbLine
 10
631.1532034397994
 20
348.1491440378611
 30
0.0
 11
647.4032034397994
 21
348.149144037861
 31
0.0
  0
LINE
  5
2BF8
330
272D
100
AcDbEntity
  8
AM_5
100
AcDbLine
 10
631.1532034397994
 20
366.1491440378611
 30
0.0
 11
647.4032034397994
 21
366.149144037861
 31
0.0
  0
LINE
  5
2BF9
330
272D
100
AcDbEntity
  8
AM_5
100
AcDbLine
 10
645.9032034397994
 20
351.149144037861
 30
0.0
 11
645.9032034397994
 21
363.149144037861
 31
0.0
  0
SOLID
  5
2BFA
330
272D
100
AcDbEntity
  8
AM_5
100
AcDbTrace
 10
645.4032034397994
 20
351.149144037861
 30
0.0
 11
646.4032034397994
 21
351.149144037861
 31
0.0
 12
645.9032034397994
 22
348.149144037861
 32
0.0
 13
645.9032034397994
 23
348.149144037861
 33
0.0
  0
SOLID
  5
2BFB
330
272D
100
AcDbEntity
  8
AM_5
100
AcDbTrace
 10
645.4032034397994
 20
363.149144037861
 30
0.0
 11
646.4032034397994
 21
363.149144037861
 31
0.0
 12
645.9032034397994
 22
366.149144037861
 32
0.0
 13
645.9032034397994
 23
366.149144037861
 33
0.0
  0
MTEXT
  5
2BFC
330
272D
100
AcDbEntity
  8
AM_5
100
AcDbMText
 10
643.1532034397993
 20
357.1491440378611
 30
0.0
 40
3.5
 41
0.0
 71
     5
 72
     1
  1
18
 11
0.0000000000000001
 21
1.0
 31
0.0
 73
     1
 44
1.0
  0
POINT
  5
2BFD
330
272D
100
AcDbEntity
  8
Defpoints
 62
     0
100
AcDbPoint
 10
629.6532034397994
 20
348.1491440378611
 30
0.0
  0
POINT
  5
2BFE
330
272D
100
AcDbEntity
  8
Defpoints
 62
     0
100
AcDbPoint
 10
629.6532034397994
 20
366.1491440378611
 30
0.0
  0
POINT
  5
2BFF
330
272D
100
AcDbEntity
  8
Defpoints
 62
     0
100
AcDbPoint
 10
645.9032034397994
 20
366.149144037861
 30
0.0
  0
ENDBLK
  5
2738
330
272D
100
AcDbEntity
  8
0
100
AcDbBlockEnd
  0
BLOCK
  5
2743
330
2739
100
AcDbEntity
  8
0
100
AcDbBlockBegin
  2
*D38
 70
     1
 10
0.0
 20
0.0
 30
0.0
  3
*D38
  1

  0
LINE
  5
2BEE
330
2739
100
AcDbEntity
  8
AM_5
100
AcDbLine
 10
626.6532034397994
 20
368.1491440378611
 30
0.0
 11
655.4032034397994
 21
368.149144037861
 31
0.0
  0
LINE
  5
2BEF
330
2739
100
AcDbEntity
  8
AM_5
100
AcDbLine
 10
631.1532034397994
 20
348.1491440378611
 30
0.0
 11
655.4032034397994
 21
348.149144037861
 31
0.0
  0
LINE
  5
2BF0
330
2739
100
AcDbEntity
  8
AM_5
100
AcDbLine
 10
653.9032034397994
 20
365.149144037861
 30
0.0
 11
653.9032034397994
 21
351.149144037861
 31
0.0
  0
SOLID
  5
2BF1
330
2739
100
AcDbEntity
  8
AM_5
100
AcDbTrace
 10
653.4032034397994
 20
365.149144037861
 30
0.0
 11
654.4032034397994
 21
365.149144037861
 31
0.0
 12
653.9032034397994
 22
368.149144037861
 32
0.0
 13
653.9032034397994
 23
368.149144037861
 33
0.0
  0
SOLID
  5
2BF2
330
2739
100
AcDbEntity
  8
AM_5
100
AcDbTrace
 10
653.4032034397994
 20
351.149144037861
 30
0.0
 11
654.4032034397994
 21
351.149144037861
 31
0.0
 12
653.9032034397994
 22
348.149144037861
 32
0.0
 13
653.9032034397994
 23
348.149144037861
 33
0.0
  0
MTEXT
  5
2BF3
330
2739
100
AcDbEntity
  8
AM_5
100
AcDbMText
 10
651.1528589516103
 20
358.1491440378611
 30
0.0
 40
3.5
 41
0.0
 71
     5
 72
     1
  1
20
 11
0.0000000000000001
 21
1.0
 31
0.0
 73
     1
 44
1.0
  0
POINT
  5
2BF4
330
2739
100
AcDbEntity
  8
Defpoints
 62
     0
100
AcDbPoint
 10
625.1532034397994
 20
368.1491440378611
 30
0.0
  0
POINT
  5
2BF5
330
2739
100
AcDbEntity
  8
Defpoints
 62
     0
100
AcDbPoint
 10
629.6532034397994
 20
348.1491440378611
 30
0.0
  0
POINT
  5
2BF6
330
2739
100
AcDbEntity
  8
Defpoints
 62
     0
100
AcDbPoint
 10
653.9032034397994
 20
348.149144037861
 30
0.0
  0
ENDBLK
  5
2744
330
2739
100
AcDbEntity
  8
0
100
AcDbBlockEnd
  0
BLOCK
  5
274F
330
2745
100
AcDbEntity
  8
0
100
AcDbBlockBegin
  2
*D39
 70
     1
 10
0.0
 20
0.0
 30
0.0
  3
*D39
  1

  0
LINE
  5
2BE5
330
2745
100
AcDbEntity
  8
AM_5
100
AcDbLine
 10
631.7782034397994
 20
357.149144037861
 30
0.0
 11
639.4032034397994
 21
357.149144037861
 31
0.0
  0
LINE
  5
2BE6
330
2745
100
AcDbEntity
  8
AM_5
100
AcDbLine
 10
631.1532034397994
 20
348.1491440378611
 30
0.0
 11
639.4032034397994
 21
348.1491440378611
 31
0.0
  0
LINE
  5
2BE7
330
2745
100
AcDbEntity
  8
AM_5
100
AcDbLine
 10
637.9032034397994
 20
354.1491440378611
 30
0.0
 11
637.9032034397994
 21
351.149144037861
 31
0.0
  0
SOLID
  5
2BE8
330
2745
100
AcDbEntity
  8
AM_5
100
AcDbTrace
 10
637.4032034397994
 20
354.1491440378611
 30
0.0
 11
638.4032034397994
 21
354.1491440378611
 31
0.0
 12
637.9032034397994
 22
357.149144037861
 32
0.0
 13
637.9032034397994
 23
357.149144037861
 33
0.0
  0
SOLID
  5
2BE9
330
2745
100
AcDbEntity
  8
AM_5
100
AcDbTrace
 10
637.4032034397994
 20
351.149144037861
 30
0.0
 11
638.4032034397994
 21
351.149144037861
 31
0.0
 12
637.9032034397994
 22
348.1491440378611
 32
0.0
 13
637.9032034397994
 23
348.1491440378611
 33
0.0
  0
MTEXT
  5
2BEA
330
2745
100
AcDbEntity
  8
AM_5
100
AcDbMText
 10
635.1532034397993
 20
350.8614036398074
 30
0.0
 40
3.5
 41
0.0
 71
     5
 72
     1
  1
9
 11
0.0000000000000001
 21
1.0
 31
0.0
 73
     1
 44
1.0
  0
POINT
  5
2BEB
330
2745
100
AcDbEntity
  8
Defpoints
 62
     0
100
AcDbPoint
 10
630.2782034397994
 20
357.149144037861
 30
0.0
  0
POINT
  5
2BEC
330
2745
100
AcDbEntity
  8
Defpoints
 62
     0
100
AcDbPoint
 10
629.6532034397994
 20
348.1491440378611
 30
0.0
  0
POINT
  5
2BED
330
2745
100
AcDbEntity
  8
Defpoints
 62
     0
100
AcDbPoint
 10
637.9032034397994
 20
348.1491440378611
 30
0.0
  0
ENDBLK
  5
2750
330
2745
100
AcDbEntity
  8
0
100
AcDbBlockEnd
  0
BLOCK
  5
275D
330
2751
100
AcDbEntity
  8
0
100
AcDbBlockBegin
  2
*D40
 70
     1
 10
0.0
 20
0.0
 30
0.0
  3
*D40
  1

  0
LINE
  5
2BDA
330
2751
100
AcDbEntity
  8
AM_5
100
AcDbLine
 10
676.3330640178252
 20
350.649144037861
 30
0.0
 11
672.6837587499415
 21
350.649144037861
 31
0.0
  0
LINE
  5
2BDB
330
2751
100
AcDbEntity
  8
AM_5
100
AcDbLine
 10
676.3330640178252
 20
348.1491440378611
 30
0.0
 11
672.6837587499415
 21
348.1491440378611
 31
0.0
  0
LINE
  5
2BDC
330
2751
100
AcDbEntity
  8
AM_5
100
AcDbLine
 10
674.1837587499414
 20
345.1491440378611
 30
0.0
 11
674.1837587499414
 21
342.149144037861
 31
0.0
  0
LINE
  5
2BDD
330
2751
100
AcDbEntity
  8
AM_5
100
AcDbLine
 10
674.1837587499414
 20
353.6491440378611
 30
0.0
 11
674.1837587499414
 21
363.7829967374476
 31
0.0
  0
LINE
  5
2BDE
330
2751
100
AcDbEntity
  8
AM_5
100
AcDbLine
 10
674.1837587499414
 20
348.1491440378611
 30
0.0
 11
674.1837587499414
 21
350.649144037861
 31
0.0
  0
SOLID
  5
2BDF
330
2751
100
AcDbEntity
  8
AM_5
100
AcDbTrace
 10
673.6837587499414
 20
345.1491440378611
 30
0.0
 11
674.6837587499414
 21
345.1491440378611
 31
0.0
 12
674.1837587499414
 22
348.1491440378611
 32
0.0
 13
674.1837587499414
 23
348.1491440378611
 33
0.0
  0
SOLID
  5
2BE0
330
2751
100
AcDbEntity
  8
AM_5
100
AcDbTrace
 10
673.6837587499414
 20
353.6491440378611
 30
0.0
 11
674.6837587499414
 21
353.6491440378611
 31
0.0
 12
674.1837587499414
 22
350.649144037861
 32
0.0
 13
674.1837587499414
 23
350.649144037861
 33
0.0
  0
MTEXT
  5
2BE1
330
2751
100
AcDbEntity
  8
AM_5
100
AcDbMText
 10
671.4334142617524
 20
360.2160703876545
 30
0.0
 40
3.5
 41
0.0
 71
     5
 72
     1
  1
2.5
 11
0.0000000000000001
 21
1.0
 31
0.0
 73
     1
 44
1.0
  0
POINT
  5
2BE2
330
2751
100
AcDbEntity
  8
Defpoints
 62
     0
100
AcDbPoint
 10
677.8330640178252
 20
350.649144037861
 30
0.0
  0
POINT
  5
2BE3
330
2751
100
AcDbEntity
  8
Defpoints
 62
     0
100
AcDbPoint
 10
677.8330640178252
 20
348.1491440378611
 30
0.0
  0
POINT
  5
2BE4
330
2751
100
AcDbEntity
  8
Defpoints
 62
     0
100
AcDbPoint
 10
674.1837587499414
 20
348.1491440378611
 30
0.0
  0
ENDBLK
  5
275E
330
2751
100
AcDbEntity
  8
0
100
AcDbBlockEnd
  0
BLOCK
  5
2769
330
275F
100
AcDbEntity
  8
0
100
AcDbBlockBegin
  2
*D41
 70
     1
 10
0.0
 20
0.0
 30
0.0
  3
*D41
  1

  0
LINE
  5
2BD1
330
275F
100
AcDbEntity
  8
AM_5
100
AcDbLine
 10
677.8330640178252
 20
346.649144037861
 30
0.0
 11
677.8330640178252
 21
326.6491440378611
 31
0.0
  0
LINE
  5
2BD2
330
275F
100
AcDbEntity
  8
AM_5
100
AcDbLine
 10
699.8330640178252
 20
350.649144037861
 30
0.0
 11
699.8330640178252
 21
326.6491440378611
 31
0.0
  0
LINE
  5
2BD3
330
275F
100
AcDbEntity
  8
AM_5
100
AcDbLine
 10
680.8330640178252
 20
328.149144037861
 30
0.0
 11
696.8330640178252
 21
328.149144037861
 31
0.0
  0
SOLID
  5
2BD4
330
275F
100
AcDbEntity
  8
AM_5
100
AcDbTrace
 10
680.8330640178252
 20
328.6491440378611
 30
0.0
 11
680.8330640178252
 21
327.649144037861
 31
0.0
 12
677.8330640178252
 22
328.149144037861
 32
0.0
 13
677.8330640178252
 23
328.149144037861
 33
0.0
  0
SOLID
  5
2BD5
330
275F
100
AcDbEntity
  8
AM_5
100
AcDbTrace
 10
696.8330640178252
 20
328.6491440378611
 30
0.0
 11
696.8330640178252
 21
327.649144037861
 31
0.0
 12
699.8330640178252
 22
328.149144037861
 32
0.0
 13
699.8330640178252
 23
328.149144037861
 33
0.0
  0
MTEXT
  5
2BD6
330
275F
100
AcDbEntity
  8
AM_5
100
AcDbMText
 10
688.8330640178252
 20
330.8994885260501
 30
0.0
 40
3.5
 41
0.0
 71
     5
 72
     1
  1
22
 73
     1
 44
1.0
  0
POINT
  5
2BD7
330
275F
100
AcDbEntity
  8
Defpoints
 62
     0
100
AcDbPoint
 10
677.8330640178252
 20
348.1491440378611
 30
0.0
  0
POINT
  5
2BD8
330
275F
100
AcDbEntity
  8
Defpoints
 62
     0
100
AcDbPoint
 10
699.8330640178252
 20
352.1491440378611
 30
0.0
  0
POINT
  5
2BD9
330
275F
100
AcDbEntity
  8
Defpoints
 62
     0
100
AcDbPoint
 10
699.8330640178252
 20
328.149144037861
 30
0.0
  0
ENDBLK
  5
276A
330
275F
100
AcDbEntity
  8
0
100
AcDbBlockEnd
  0
BLOCK
  5
2775
330
276B
100
AcDbEntity
  8
0
100
AcDbBlockBegin
  2
*D42
 70
     1
 10
0.0
 20
0.0
 30
0.0
  3
*D42
  1

  0
LINE
  5
2BC8
330
276B
100
AcDbEntity
  8
AM_5
100
AcDbLine
 10
683.8330640178252
 20
341.7142310620422
 30
0.0
 11
683.8330640178252
 21
334.649144037861
 31
0.0
  0
LINE
  5
2BC9
330
276B
100
AcDbEntity
  8
AM_5
100
AcDbLine
 10
699.8330640178252
 20
350.649144037861
 30
0.0
 11
699.8330640178252
 21
334.649144037861
 31
0.0
  0
LINE
  5
2BCA
330
276B
100
AcDbEntity
  8
AM_5
100
AcDbLine
 10
686.8330640178252
 20
336.149144037861
 30
0.0
 11
696.8330640178252
 21
336.149144037861
 31
0.0
  0
SOLID
  5
2BCB
330
276B
100
AcDbEntity
  8
AM_5
100
AcDbTrace
 10
686.8330640178252
 20
336.649144037861
 30
0.0
 11
686.8330640178252
 21
335.6491440378611
 31
0.0
 12
683.8330640178252
 22
336.149144037861
 32
0.0
 13
683.8330640178252
 23
336.149144037861
 33
0.0
  0
SOLID
  5
2BCC
330
276B
100
AcDbEntity
  8
AM_5
100
AcDbTrace
 10
696.8330640178252
 20
336.649144037861
 30
0.0
 11
696.8330640178252
 21
335.6491440378611
 31
0.0
 12
699.8330640178252
 22
336.149144037861
 32
0.0
 13
699.8330640178252
 23
336.149144037861
 33
0.0
  0
MTEXT
  5
2BCD
330
276B
100
AcDbEntity
  8
AM_5
100
AcDbMText
 10
691.8330640178252
 20
338.8991440378611
 30
0.0
 40
3.5
 41
0.0
 71
     5
 72
     1
  1
16
 73
     1
 44
1.0
  0
POINT
  5
2BCE
330
276B
100
AcDbEntity
  8
Defpoints
 62
     0
100
AcDbPoint
 10
683.8330640178252
 20
343.2142310620422
 30
0.0
  0
POINT
  5
2BCF
330
276B
100
AcDbEntity
  8
Defpoints
 62
     0
100
AcDbPoint
 10
699.8330640178252
 20
352.1491440378611
 30
0.0
  0
POINT
  5
2BD0
330
276B
100
AcDbEntity
  8
Defpoints
 62
     0
100
AcDbPoint
 10
699.8330640178252
 20
336.149144037861
 30
0.0
  0
ENDBLK
  5
2776
330
276B
100
AcDbEntity
  8
0
100
AcDbBlockEnd
  0
BLOCK
  5
2781
330
2777
100
AcDbEntity
  8
0
100
AcDbBlockBegin
  2
*D43
 70
     1
 10
0.0
 20
0.0
 30
0.0
  3
*D43
  1

  0
LINE
  5
2BBF
330
2777
100
AcDbEntity
  8
AM_5
100
AcDbLine
 10
600.891367958867
 20
353.891491970765
 30
0.0
 11
603.3634537949018
 21
352.1918474140191
 31
0.0
  0
LINE
  5
2BC0
330
2777
100
AcDbEntity
  8
AM_5
100
AcDbLine
 10
591.4150389207336
 20
360.4067961049577
 30
0.0
 11
586.6134262509363
 21
363.7080709712518
 31
0.0
  0
LINE
  5
2BC1
330
2777
100
AcDbEntity
  8
AM_5
100
AcDbLine
 10
586.6134262509363
 20
363.7080709712518
 30
0.0
 11
572.1684515041057
 21
363.7080709712519
 31
0.0
  0
LINE
  5
2BC2
330
2777
100
AcDbEntity
  8
AM_5
100
AcDbLine
 10
598.4192821228321
 20
355.5911365275109
 30
0.0
 11
593.8871247567684
 21
358.7071515482118
 31
0.0
  0
SOLID
  5
2BC3
330
2777
100
AcDbEntity
  8
AM_5
100
AcDbTrace
 10
601.174642051658
 20
354.3035062767708
 30
0.0
 11
600.608093866076
 21
353.4794776647593
 31
0.0
 12
598.4192821228321
 22
355.5911365275109
 32
0.0
 13
598.4192821228321
 23
355.5911365275109
 33
0.0
  0
SOLID
  5
2BC4
330
2777
100
AcDbEntity
  8
AM_5
100
AcDbTrace
 10
591.6983130135246
 20
360.8188104109636
 30
0.0
 11
591.1317648279426
 21
359.994781798952
 31
0.0
 12
593.8871247567684
 22
358.7071515482118
 32
0.0
 13
593.8871247567684
 23
358.7071515482118
 33
0.0
  0
MTEXT
  5
2BC5
330
2777
100
AcDbEntity
  8
AM_5
100
AcDbMText
 10
578.8909388775209
 20
366.4580709712518
 30
0.0
 40
3.5
 41
0.0
 71
     5
 72
     1
  1
4-\U+22055.5
 73
     1
 44
1.0
  0
POINT
  5
2BC6
330
2777
100
AcDbEntity
  8
Defpoints
 62
     0
100
AcDbPoint
 10
593.8871247567684
 20
358.7071515482118
 30
0.0
  0
POINT
  5
2BC7
330
2777
100
AcDbEntity
  8
Defpoints
 62
     0
100
AcDbPoint
 10
598.4192821228321
 20
355.5911365275109
 30
0.0
  0
ENDBLK
  5
2782
330
2777
100
AcDbEntity
  8
0
100
AcDbBlockEnd
  0
BLOCK
  5
278D
330
2783
100
AcDbEntity
  8
0
100
AcDbBlockBegin
  2
*D44
 70
     1
 10
0.0
 20
0.0
 30
0.0
  3
*D44
  1

  0
LINE
  5
2BB6
330
2783
100
AcDbEntity
  8
AM_5
100
AcDbLine
 10
609.6532034397994
 20
369.6881605707915
 30
0.0
 11
609.6532034397994
 21
377.0376141922358
 31
0.0
  0
LINE
  5
2BB7
330
2783
100
AcDbEntity
  8
AM_5
100
AcDbLine
 10
629.6532034397994
 20
366.6491440378611
 30
0.0
 11
629.6532034397994
 21
377.0376141922358
 31
0.0
  0
LINE
  5
2BB8
330
2783
100
AcDbEntity
  8
AM_5
100
AcDbLine
 10
612.6532034397994
 20
375.5376141922358
 30
0.0
 11
626.6532034397994
 21
375.5376141922358
 31
0.0
  0
SOLID
  5
2BB9
330
2783
100
AcDbEntity
  8
AM_5
100
AcDbTrace
 10
612.6532034397994
 20
376.0376141922358
 30
0.0
 11
612.6532034397994
 21
375.0376141922358
 31
0.0
 12
609.6532034397994
 22
375.5376141922358
 32
0.0
 13
609.6532034397994
 23
375.5376141922358
 33
0.0
  0
SOLID
  5
2BBA
330
2783
100
AcDbEntity
  8
AM_5
100
AcDbTrace
 10
626.6532034397994
 20
376.0376141922358
 30
0.0
 11
626.6532034397994
 21
375.0376141922358
 31
0.0
 12
629.6532034397994
 22
375.5376141922358
 32
0.0
 13
629.6532034397994
 23
375.5376141922358
 33
0.0
  0
MTEXT
  5
2BBB
330
2783
100
AcDbEntity
  8
AM_5
100
AcDbMText
 10
619.6532034397994
 20
378.2879586804248
 30
0.0
 40
3.5
 41
0.0
 71
     5
 72
     1
  1
20
 73
     1
 44
1.0
  0
POINT
  5
2BBC
330
2783
100
AcDbEntity
  8
Defpoints
 62
     0
100
AcDbPoint
 10
609.6532034397994
 20
368.1881605707915
 30
0.0
  0
POINT
  5
2BBD
330
2783
100
AcDbEntity
  8
Defpoints
 62
     0
100
AcDbPoint
 10
629.6532034397994
 20
365.149144037861
 30
0.0
  0
POINT
  5
2BBE
330
2783
100
AcDbEntity
  8
Defpoints
 62
     0
100
AcDbPoint
 10
629.6532034397994
 20
375.5376141922358
 30
0.0
  0
ENDBLK
  5
278E
330
2783
100
AcDbEntity
  8
0
100
AcDbBlockEnd
  0
BLOCK
  5
2799
330
278F
100
AcDbEntity
  8
0
100
AcDbBlockBegin
  2
*D45
 70
     1
 10
0.0
 20
0.0
 30
0.0
  3
*D45
  1

  0
LINE
  5
2BAD
330
278F
100
AcDbEntity
  8
AM_5
100
AcDbLine
 10
588.1532034397994
 20
414.6944262326188
 30
0.0
 11
576.1532034397994
 21
414.6944262326188
 31
0.0
  0
LINE
  5
2BAE
330
278F
100
AcDbEntity
  8
AM_5
100
AcDbLine
 10
588.1532034397994
 20
392.6944262326188
 30
0.0
 11
576.1532034397994
 21
392.6944262326188
 31
0.0
  0
LINE
  5
2BAF
330
278F
100
AcDbEntity
  8
AM_5
100
AcDbLine
 10
577.6532034397994
 20
411.6944262326188
 30
0.0
 11
577.6532034397994
 21
395.6944262326189
 31
0.0
  0
SOLID
  5
2BB0
330
278F
100
AcDbEntity
  8
AM_5
100
AcDbTrace
 10
577.1532034397994
 20
411.6944262326188
 30
0.0
 11
578.1532034397994
 21
411.6944262326188
 31
0.0
 12
577.6532034397994
 22
414.6944262326188
 32
0.0
 13
577.6532034397994
 23
414.6944262326188
 33
0.0
  0
SOLID
  5
2BB1
330
278F
100
AcDbEntity
  8
AM_5
100
AcDbTrace
 10
577.1532034397994
 20
395.6944262326189
 30
0.0
 11
578.1532034397994
 21
395.6944262326189
 31
0.0
 12
577.6532034397994
 22
392.6944262326188
 32
0.0
 13
577.6532034397994
 23
392.6944262326188
 33
0.0
  0
MTEXT
  5
2BB2
330
278F
100
AcDbEntity
  8
AM_5
100
AcDbMText
 10
574.9028589516103
 20
403.6944262326189
 30
0.0
 40
3.5
 41
0.0
 71
     5
 72
     1
  1
22
 11
0.0000000000000001
 21
1.0
 31
0.0
 73
     1
 44
1.0
  0
POINT
  5
2BB3
330
278F
100
AcDbEntity
  8
Defpoints
 62
     0
100
AcDbPoint
 10
589.6532034397994
 20
414.6944262326188
 30
0.0
  0
POINT
  5
2BB4
330
278F
100
AcDbEntity
  8
Defpoints
 62
     0
100
AcDbPoint
 10
589.6532034397994
 20
392.6944262326188
 30
0.0
  0
POINT
  5
2BB5
330
278F
100
AcDbEntity
  8
Defpoints
 62
     0
100
AcDbPoint
 10
577.6532034397994
 20
392.6944262326188
 30
0.0
  0
ENDBLK
  5
279A
330
278F
100
AcDbEntity
  8
0
100
AcDbBlockEnd
  0
BLOCK
  5
27A7
330
279B
100
AcDbEntity
  8
0
100
AcDbBlockBegin
  2
*D46
 70
     1
 10
0.0
 20
0.0
 30
0.0
  3
*D46
  1

  0
LINE
  5
2BA2
330
279B
100
AcDbEntity
  8
AM_5
100
AcDbLine
 10
588.1532034397994
 20
392.6944262326188
 30
0.0
 11
584.1284239726154
 21
392.6944262326188
 31
0.0
  0
LINE
  5
2BA3
330
279B
100
AcDbEntity
  8
AM_5
100
AcDbLine
 10
600.4032034397994
 20
398.6944262326188
 30
0.0
 11
584.1284239726154
 21
398.6944262326188
 31
0.0
  0
LINE
  5
2BA4
330
279B
100
AcDbEntity
  8
AM_5
100
AcDbLine
 10
585.6284239726154
 20
389.6944262326189
 30
0.0
 11
585.6284239726154
 21
386.6944262326189
 31
0.0
  0
LINE
  5
2BA5
330
279B
100
AcDbEntity
  8
AM_5
100
AcDbLine
 10
585.6284239726154
 20
401.6944262326188
 30
0.0
 11
585.6284239726154
 21
404.6944262326189
 31
0.0
  0
LINE
  5
2BA6
330
279B
100
AcDbEntity
  8
AM_5
100
AcDbLine
 10
585.6284239726154
 20
392.6944262326188
 30
0.0
 11
585.6284239726154
 21
398.6944262326188
 31
0.0
  0
SOLID
  5
2BA7
330
279B
100
AcDbEntity
  8
AM_5
100
AcDbTrace
 10
585.1284239726154
 20
389.6944262326189
 30
0.0
 11
586.1284239726154
 21
389.6944262326189
 31
0.0
 12
585.6284239726154
 22
392.6944262326188
 32
0.0
 13
585.6284239726154
 23
392.6944262326188
 33
0.0
  0
SOLID
  5
2BA8
330
279B
100
AcDbEntity
  8
AM_5
100
AcDbTrace
 10
585.1284239726154
 20
401.6944262326188
 30
0.0
 11
586.1284239726154
 21
401.6944262326188
 31
0.0
 12
585.6284239726154
 22
398.6944262326188
 32
0.0
 13
585.6284239726154
 23
398.6944262326188
 33
0.0
  0
MTEXT
  5
2BA9
330
279B
100
AcDbEntity
  8
AM_5
100
AcDbMText
 10
582.8784239726153
 20
395.6944262326189
 30
0.0
 40
3.5
 41
0.0
 71
     5
 72
     1
  1
6
 11
0.0000000000000001
 21
1.0
 31
0.0
 73
     1
 44
1.0
  0
POINT
  5
2BAA
330
279B
100
AcDbEntity
  8
Defpoints
 62
     0
100
AcDbPoint
 10
589.6532034397994
 20
392.6944262326188
 30
0.0
  0
POINT
  5
2BAB
330
279B
100
AcDbEntity
  8
Defpoints
 62
     0
100
AcDbPoint
 10
601.9032034397994
 20
398.6944262326188
 30
0.0
  0
POINT
  5
2BAC
330
279B
100
AcDbEntity
  8
Defpoints
 62
     0
100
AcDbPoint
 10
585.6284239726154
 20
398.6944262326188
 30
0.0
  0
ENDBLK
  5
27A8
330
279B
100
AcDbEntity
  8
0
100
AcDbBlockEnd
  0
BLOCK
  5
27AF
330
27A9
100
AcDbEntity
  8
0
100
AcDbBlockBegin
  2
*D47
 70
     1
 10
0.0
 20
0.0
 30
0.0
  3
*D47
  1

  0
LINE
  5
2B9D
330
27A9
100
AcDbEntity
  8
AM_5
100
AcDbLine
 10
609.6532034397994
 20
368.149144037861
 30
0.0
 11
603.7862332624002
 21
360.6772861070977
 31
0.0
  0
SOLID
  5
2B9E
330
27A9
100
AcDbEntity
  8
AM_5
100
AcDbTrace
 10
603.3929775818339
 20
360.9860740111713
 30
0.0
 11
604.1794889429668
 21
360.3684982030241
 31
0.0
 12
601.9335058379584
 22
358.3177520236987
 32
0.0
 13
601.9335058379584
 23
358.3177520236987
 33
0.0
  0
MTEXT
  5
2B9F
330
27A9
100
AcDbEntity
  8
AM_5
100
AcDbMText
 10
603.9828432843215
 20
365.3811305029099
 30
0.0
 40
3.5
 41
0.0
 71
     5
 72
     1
  1
R12.5
 11
0.6175758081472688
 21
0.7865113611329769
 31
0.0
 73
     1
 44
1.0
  0
POINT
  5
2BA0
330
27A9
100
AcDbEntity
  8
Defpoints
 62
     0
100
AcDbPoint
 10
601.9335058379584
 20
358.3177520236987
 30
0.0
  0
POINT
  5
2BA1
330
27A9
100
AcDbEntity
  8
Defpoints
 62
     0
100
AcDbPoint
 10
609.6532034397994
 20
368.149144037861
 30
0.0
  0
ENDBLK
  5
27B0
330
27A9
100
AcDbEntity
  8
0
100
AcDbBlockEnd
  0
ENDSEC
  0
SECTION
  2
ENTITIES
  0
TEXT
  5
1533
330
1F
100
AcDbEntity
  8
LOGO
 62
     7
100
AcDbText
 10
272.4901748491496
 20
133.5100400104163
 30
0.0
 40
5.719171764705881
  1
Order example:
 41
0.8
  7
CHINESET
100
AcDbText
  0
TEXT
  5
1534
330
1F
100
AcDbEntity
  8
LOGO
 62
     7
100
AcDbText
 10
273.5162415593643
 20
141.5614496854985
 30
0.0
 40
8.578757647058823
  1
訂購代號：
  7
CHINESET
100
AcDbText
  0
LINE
  5
1535
330
1F
100
AcDbEntity
  8
LOGO
 62
     4
100
AcDbLine
 10
270.0051753190695
 20
109.4072905008276
 30
0.0
 11
270.0051753190695
 21
152.3010787361221
 31
0.0
  0
TEXT
  5
1536
330
1F
100
AcDbEntity
  8
LOGO
  6
Continuous
100
AcDbText
 10
191.0464827468487
 20
117.8337104672807
 30
0.0
 40
6.434068235294117
  1
金器工業股份有限公司
  7
CHINESET
100
AcDbText
  0
TEXT
  5
1537
330
1F
100
AcDbEntity
  8
LOGO
  6
Continuous
100
AcDbText
 10
179.2283723162402
 20
111.398381659063
 30
0.0
 40
4.289378823529411
  1
MINDMAN INDUSTRIAL CO., LTD.
 41
0.85
  7
CHINESET
100
AcDbText
  0
LINE
  5
1538
330
1F
100
AcDbEntity
  8
LOGO
 62
     4
100
AcDbLine
 10
270.0051753190695
 20
143.7223210890632
 30
0.0
 11
207.0942859073044
 21
143.7223210890632
 31
0.0
  0
LINE
  5
1539
330
1F
100
AcDbEntity
  8
LOGO
 62
     4
100
AcDbLine
 10
270.0051753190695
 20
135.1435634420043
 30
0.0
 11
207.0942859073044
 21
135.1435634420043
 31
0.0
  0
LINE
  5
153A
330
1F
100
AcDbEntity
  8
LOGO
 62
     4
100
AcDbLine
 10
270.0051753190695
 20
126.5648057949458
 30
0.0
 11
175.6388412014223
 21
126.5648057949458
 31
0.0
  0
LINE
  5
153B
330
1F
100
AcDbEntity
  8
LOGO
 62
     4
100
AcDbLine
 10
207.0942859073044
 20
126.5648057949458
 30
0.0
 11
207.0942859073044
 21
152.3010787361221
 31
0.0
  0
TEXT
  5
153C
330
1F
100
AcDbEntity
  8
LOGO
100
AcDbText
 10
250.0909094714945
 20
128.7094952067099
 30
0.0
 40
4.289378823529411
  1
mm
  7
CHINESET
 72
     1
 11
255.4015689672928
 21
130.8541846184747
 31
0.0
100
AcDbText
 73
     2
  0
TEXT
  5
153D
330
1F
100
AcDbEntity
  8
LOGO
100
AcDbText
 10
247.8440919925029
 20
145.8670105008277
 30
0.0
 40
4.289378823529411
  1
1 : 1
  7
CHINESET
 72
     1
 11
255.4015689672928
 21
148.0116999125924
 31
0.0
100
AcDbText
 73
     2
  0
LINE
  5
153E
330
1F
100
AcDbEntity
  8
LOGO
 62
     4
100
AcDbLine
 10
241.40931649554
 20
126.5648057949458
 30
0.0
 11
241.40931649554
 21
152.3010787361221
 31
0.0
  0
TEXT
  5
153F
330
1F
100
AcDbEntity
  8
LOGO
100
AcDbText
 10
210.6311085354558
 20
145.869121415603
 30
281.1188217553068
 40
4.289378823529411
  1
比例 Scale:
 41
0.9
  7
CHINESET
 72
     4
 11
224.2518012014222
 21
148.0116999125924
 31
281.1188217553068
100
AcDbText
  0
TEXT
  5
1540
330
1F
100
AcDbEntity
  8
LOGO
100
AcDbText
 10
210.3840862728507
 20
137.3485898344312
 30
281.1188217553068
 40
4.289378823529411
  1
投影  View:
 41
0.9
  7
CHINESET
 72
     4
 11
224.2518012014222
 21
139.4329422655335
 31
281.1188217553068
100
AcDbText
  0
TEXT
  5
1541
330
1F
100
AcDbEntity
  8
LOGO
100
AcDbText
 10
210.8034496489011
 20
128.7094952067099
 30
281.1188217553068
 40
4.289378823529411
  1
單位  Unit:
 41
0.9
  7
CHINESET
 72
     4
 11
224.2518012014222
 21
130.8541846184747
 31
281.1188217553068
100
AcDbText
  0
LWPOLYLINE
  5
1542
330
1F
100
AcDbEntity
  8
LOGO
 62
     4
100
AcDbPolyline
 90
        4
 70
     1
 43
0.0
 10
175.6388412014224
 20
152.3010787361221
 10
717.7382535028015
 20
152.3010787361221
 10
717.7382535028015
 20
465.4083634630953
 10
175.6388412014224
 20
465.4083634630953
1001
GENIUS_GENREC_14
1002
{
1000
PYDIR
1011
175.6388412014224
1021
465.4083634630953
1031
0.0
1002
}
1002
{
1000
PXDIR
1011
717.7382535028015
1021
152.3010787361221
1031
0.0
1002
}
1002
{
1000
PORI
1011
175.6388412014224
1021
152.3010787361221
1031
0.0
1002
}
1002
{
1000
PINS
1011
175.6388412014224
1021
152.3010787361221
1031
0.0
1002
}
1002
{
1000
PINS2
1011
717.7382535028015
1021
465.4083634630953
1031
0.0
1002
}
1002
{
1000
C
1070
     1
1002
}
1001
GENIUS_GENODEF_13
1002
{
1000
HIER
1070
     0
1002
}
1002
{
1000
MANEDIT
1070
     0
1002
}
1002
{
1000
NOSEL
1070
     0
1002
}
1002
{
1000
BEHIND
1070
     0
1002
}
1002
{
1000
OTHER
1070
     0
1002
}
1002
{
1000
REACTOR
1002
}
1001
GENIUS_GENOBJ-N-REC_13
1002
{
1000
OWNER
1000
GEN
1002
}
  0
SOLID
  5
1543
330
1F
100
AcDbEntity
  8
LOGO
 62
     5
100
AcDbTrace
 10
180.089140570128
 20
133.6952875440653
 30
0.0
 11
181.9437554201217
 21
133.6952875440648
 31
0.0
 12
189.68197600113
 22
151.2821525009034
 32
0.0
 13
191.5365908511247
 23
151.2821525009024
 33
0.0
  0
SOLID
  5
1544
330
1F
100
AcDbEntity
  8
LOGO
 62
     5
100
AcDbTrace
 10
182.7111822546039
 20
133.6952875440653
 30
0.0
 11
184.5657971045977
 21
133.6952875440653
 31
0.0
 12
191.5365908511247
 22
149.8752033043557
 32
0.0
 13
189.68197600113
 23
143.0749488543784
 33
0.0
  0
SOLID
  5
1545
330
1F
100
AcDbEntity
  8
LOGO
 62
     2
100
AcDbTrace
 10
181.9437554201217
 20
133.6952875440648
 30
0.0
 11
182.7111822546039
 21
133.6952875440653
 31
0.0
 12
191.5365908511247
 22
151.2821525009024
 32
0.0
 13
192.3040176856058
 23
151.2821525009024
 33
0.0
  0
SOLID
  5
1546
330
1F
100
AcDbEntity
  8
LOGO
 62
     5
100
AcDbTrace
 10
177.115738158316
 20
127.3000639233975
 30
0.0
 11
177.7552605203834
 21
127.3000639233975
 31
0.0
 12
179.5562052684062
 22
130.4976757337312
 32
0.0
 13
180.1957276304718
 23
130.4976757337312
 33
0.0
  0
SOLID
  5
1547
330
1F
100
AcDbEntity
  8
LOGO
 62
     5
100
AcDbTrace
 10
179.5562052684062
 20
130.4976757337312
 30
0.0
 11
180.1957276304718
 21
130.4976757337312
 31
0.0
 12
179.5562052684062
 22
127.3000639233975
 32
0.0
 13
180.1957276304718
 23
127.3000639233975
 33
0.0
  0
SOLID
  5
1548
330
1F
100
AcDbEntity
  8
LOGO
 62
     5
100
AcDbTrace
 10
179.5562052684062
 20
127.3000639233975
 30
0.0
 11
180.1957276304718
 21
127.3000639233975
 31
0.0
 12
181.9966723784974
 22
130.4976757337312
 32
0.0
 13
182.636194740564
 23
130.4976757337312
 33
0.0
  0
SOLID
  5
1549
330
1F
100
AcDbEntity
  8
LOGO
 62
     5
100
AcDbTrace
 10
181.9966723784974
 20
130.4976757337312
 30
0.0
 11
182.636194740564
 21
130.4976757337312
 31
0.0
 12
181.9966723784974
 22
127.3000639233975
 32
0.0
 13
182.636194740564
 23
127.3000639233975
 33
0.0
  0
POLYLINE
  5
154A
330
1F
100
AcDbEntity
  8
LOGO
 62
     5
100
AcDb2dPolyline
 66
     1
 10
0.0
 20
0.0
 30
0.0
 40
0.6405472376470588
 41
0.6405472376470588
  0
VERTEX
  5
154B
330
154A
100
AcDbEntity
  8
LOGO
 62
     5
100
AcDbVertex
100
AcDb2dVertex
 10
203.4332440989388
 20
129.2186310095976
 30
0.0
 42
1.0
  0
VERTEX
  5
154C
330
154A
100
AcDbEntity
  8
LOGO
 62
     5
100
AcDbVertex
100
AcDb2dVertex
 10
201.5116023859972
 20
129.2186310095976
 30
0.0
 42
1.0
  0
SEQEND
  5
154D
330
154A
100
AcDbEntity
  8
LOGO
 62
     5
  0
POLYLINE
  5
154E
330
1F
100
AcDbEntity
  8
LOGO
 62
     5
100
AcDb2dPolyline
 66
     1
 10
0.0
 20
0.0
 30
0.0
 70
     1
  0
VERTEX
  5
154F
330
154E
100
AcDbEntity
  8
LOGO
 62
     5
100
AcDbVertex
100
AcDb2dVertex
 10
197.8892222824786
 20
128.8988698285639
 30
0.0
 42
1.000000057330635
  0
VERTEX
  5
1550
330
154E
100
AcDbEntity
  8
LOGO
 62
     5
100
AcDbVertex
100
AcDb2dVertex
 10
199.8077893686792
 20
128.8988698285639
 30
0.0
 42
1.000000057330635
  0
SEQEND
  5
1551
330
154E
100
AcDbEntity
  8
LOGO
 62
     5
  0
CIRCLE
  5
1552
330
1F
100
AcDbEntity
  8
LOGO
 62
     5
100
AcDbCircle
 10
198.8485058255803
 20
128.8988698285639
 30
0.0
 40
0.9592835431002354
  0
POLYLINE
  5
1553
330
1F
100
AcDbEntity
  8
LOGO
 62
     5
100
AcDb2dPolyline
 66
     1
 10
0.0
 20
0.0
 30
0.0
 70
     1
 40
0.6405472376470588
 41
0.6405472376470588
  0
VERTEX
  5
1554
330
1553
100
AcDbEntity
  8
LOGO
 62
     5
100
AcDbVertex
100
AcDb2dVertex
 10
197.5674113502853
 20
128.8988698285639
 30
0.0
 42
1.0
  0
VERTEX
  5
1555
330
1553
100
AcDbEntity
  8
LOGO
 62
     5
100
AcDbVertex
100
AcDb2dVertex
 10
200.1296003008735
 20
128.8988698285639
 30
0.0
 42
1.0
  0
SEQEND
  5
1556
330
1553
100
AcDbEntity
  8
LOGO
 62
     5
  0
LINE
  5
1557
330
1F
100
AcDbEntity
  8
LOGO
100
AcDbLine
 10
203.7514679666005
 20
127.3000639233975
 30
0.0
 11
203.7514679666005
 21
129.2186310095976
 31
0.0
  0
SOLID
  5
1558
330
1F
100
AcDbEntity
  8
LOGO
 62
     5
100
AcDbTrace
 10
199.8077254164459
 20
130.4976757337312
 30
0.0
 11
200.4472477785114
 21
130.4976757337312
 31
0.0
 12
199.8077254164459
 22
127.3000639233975
 32
0.0
 13
200.4472477785114
 23
127.3000639233975
 33
0.0
  0
SOLID
  5
1559
330
1F
100
AcDbEntity
  8
LOGO
 62
     5
100
AcDbTrace
 10
201.1933785183335
 20
127.3000639233975
 30
0.0
 11
201.832900880401
 21
127.3000639233975
 31
0.0
 12
201.1933785183335
 22
130.4976757337312
 32
0.0
 13
201.832900880401
 23
130.4976757337312
 33
0.0
  0
SOLID
  5
155A
330
1F
100
AcDbEntity
  8
LOGO
 62
     5
100
AcDbTrace
 10
203.1119456045351
 20
129.2186310095976
 30
0.0
 11
203.7514679666005
 21
129.2186310095976
 31
0.0
 12
203.1119456045351
 22
127.3000639233975
 32
0.0
 13
203.7514679666005
 23
127.3000639233975
 33
0.0
  0
SOLID
  5
155B
330
1F
100
AcDbEntity
  8
LOGO
 62
     5
100
AcDbTrace
 10
201.1294262821266
 20
149.8752033043557
 30
0.0
 11
199.2748114321339
 21
143.0749488543784
 31
0.0
 12
201.1294262821266
 22
133.6952875440648
 32
0.0
 13
199.2748114321339
 23
133.6952875440648
 33
0.0
  0
SOLID
  5
155C
330
1F
100
AcDbEntity
  8
LOGO
 62
     5
100
AcDbTrace
 10
201.8968531166079
 20
133.6952875440648
 30
0.0
 11
203.7514679666005
 21
133.6952875440648
 31
0.0
 12
201.8968531166079
 22
151.2821525009024
 32
0.0
 13
203.7514679666005
 23
151.2821525009034
 33
0.0
  0
SOLID
  5
155D
330
1F
100
AcDbEntity
  8
LOGO
 62
     2
100
AcDbTrace
 10
201.1294262821266
 20
151.2821525009034
 30
0.0
 11
201.8968531166079
 21
151.2821525009024
 31
0.0
 12
201.1294262821266
 22
133.6952875440648
 32
0.0
 13
201.8968531166079
 23
133.6952875440648
 33
0.0
  0
POLYLINE
  5
155E
330
1F
100
AcDbEntity
  8
LOGO
 62
     5
100
AcDb2dPolyline
 66
     1
 10
0.0
 20
0.0
 30
0.0
 40
0.6405472376470588
 41
0.6405472376470588
  0
VERTEX
  5
155F
330
155E
100
AcDbEntity
  8
LOGO
 62
     5
100
AcDbVertex
100
AcDb2dVertex
 10
194.2667142744904
 20
129.2186310095976
 30
0.0
 42
1.0
  0
VERTEX
  5
1560
330
155E
100
AcDbEntity
  8
LOGO
 62
     5
100
AcDbVertex
100
AcDb2dVertex
 10
192.3450725615488
 20
129.2186310095976
 30
0.0
 42
1.0
  0
SEQEND
  5
1561
330
155E
100
AcDbEntity
  8
LOGO
 62
     5
  0
POLYLINE
  5
1562
330
1F
100
AcDbEntity
  8
LOGO
 62
     5
100
AcDb2dPolyline
 66
     1
 10
0.0
 20
0.0
 30
0.0
 40
0.6405472376470588
 41
0.6405472376470588
  0
VERTEX
  5
1563
330
1562
100
AcDbEntity
  8
LOGO
 62
     5
100
AcDbVertex
100
AcDb2dVertex
 10
196.185281360689
 20
129.2186310095976
 30
0.0
 42
1.0
  0
VERTEX
  5
1564
330
1562
100
AcDbEntity
  8
LOGO
 62
     5
100
AcDbVertex
100
AcDb2dVertex
 10
194.2636396477484
 20
129.2186310095976
 30
0.0
 42
1.0
  0
SEQEND
  5
1565
330
1562
100
AcDbEntity
  8
LOGO
 62
     5
  0
POLYLINE
  5
1566
330
1F
100
AcDbEntity
  8
LOGO
 62
     5
100
AcDb2dPolyline
 66
     1
 10
0.0
 20
0.0
 30
0.0
 40
0.6405472376470588
 41
0.6405472376470588
  0
VERTEX
  5
1567
330
1566
100
AcDbEntity
  8
LOGO
 62
     5
100
AcDbVertex
100
AcDb2dVertex
 10
187.0187515362405
 20
129.2186310095976
 30
0.0
 42
1.0
  0
VERTEX
  5
1568
330
1566
100
AcDbEntity
  8
LOGO
 62
     5
100
AcDbVertex
100
AcDb2dVertex
 10
185.0971098232999
 20
129.2186310095976
 30
0.0
 42
1.0
  0
SEQEND
  5
1569
330
1566
100
AcDbEntity
  8
LOGO
 62
     5
  0
SOLID
  5
156A
330
1F
100
AcDbEntity
  8
LOGO
 62
     5
100
AcDbTrace
 10
184.7788859556372
 20
130.4976757337312
 30
0.0
 11
185.4184083177027
 21
130.4976757337312
 31
0.0
 12
184.7788859556372
 22
127.3000639233975
 32
0.0
 13
185.4184083177027
 23
127.3000639233975
 33
0.0
  0
SOLID
  5
156B
330
1F
100
AcDbEntity
  8
LOGO
 62
     5
100
AcDbTrace
 10
186.6974530418377
 20
129.2186310095976
 30
0.0
 11
187.3369754039053
 21
129.2186310095976
 31
0.0
 12
186.6974530418377
 22
127.3000639233975
 32
0.0
 13
187.3369754039053
 23
127.3000639233975
 33
0.0
  0
POLYLINE
  5
156C
330
1F
100
AcDbEntity
  8
LOGO
 62
     5
100
AcDb2dPolyline
 66
     1
 10
0.0
 20
0.0
 30
0.0
 70
     1
 40
0.6405472376470588
 41
0.6405472376470588
  0
VERTEX
  5
156D
330
156C
100
AcDbEntity
  8
LOGO
 62
     5
100
AcDbVertex
100
AcDb2dVertex
 10
188.4008815258358
 20
128.8988698285639
 30
0.0
 42
1.0
  0
VERTEX
  5
156E
330
156C
100
AcDbEntity
  8
LOGO
 62
     5
100
AcDbVertex
100
AcDb2dVertex
 10
190.963070476425
 20
128.8988698285639
 30
0.0
 42
1.0
  0
SEQEND
  5
156F
330
156C
100
AcDbEntity
  8
LOGO
 62
     5
  0
SOLID
  5
1570
330
1F
100
AcDbEntity
  8
LOGO
 62
     5
100
AcDbTrace
 10
190.6411955919954
 20
131.456959276832
 30
0.0
 11
191.280717954062
 21
131.456959276832
 31
0.0
 12
190.6411955919954
 22
127.3000639233975
 32
0.0
 13
191.280717954062
 23
127.3000639233975
 33
0.0
  0
SOLID
  5
1571
330
1F
100
AcDbEntity
  8
LOGO
 62
     5
100
AcDbTrace
 10
192.026848693887
 20
130.4976757337312
 30
0.0
 11
192.6663710559525
 21
130.4976757337312
 31
0.0
 12
192.026848693887
 22
127.3000639233975
 32
0.0
 13
192.6663710559525
 23
127.3000639233975
 33
0.0
  0
SOLID
  5
1572
330
1F
100
AcDbEntity
  8
LOGO
 62
     5
100
AcDbTrace
 10
193.9454157800856
 20
129.2186310095976
 30
0.0
 11
194.5849381421531
 21
129.2186310095976
 31
0.0
 12
193.9454157800856
 22
127.3000639233975
 32
0.0
 13
194.5849381421531
 23
127.3000639233975
 33
0.0
  0
SOLID
  5
1573
330
1F
100
AcDbEntity
  8
LOGO
 62
     5
100
AcDbTrace
 10
195.8639828662862
 20
129.2186310095976
 30
0.0
 11
196.5035052283527
 21
129.2186310095976
 31
0.0
 12
195.8639828662862
 22
127.3000639233966
 32
0.0
 13
196.5035052283527
 23
127.3000639233966
 33
0.0
  0
SOLID
  5
1574
330
1F
100
AcDbEntity
  8
LOGO
 62
     5
100
AcDbTrace
 10
183.3932328537466
 20
130.9453413871782
 30
0.0
 11
184.0327552158151
 21
130.9453413871782
 31
0.0
 12
183.3932328537466
 22
131.456959276832
 32
0.0
 13
184.0327552158151
 23
131.456959276832
 33
0.0
  0
SOLID
  5
1575
330
1F
100
AcDbEntity
  8
LOGO
 62
     5
100
AcDbTrace
 10
183.3932328537466
 20
130.4976757337312
 30
0.0
 11
184.0327552158151
 21
130.4976757337312
 31
0.0
 12
183.3932328537466
 22
127.3000639233966
 32
0.0
 13
184.0327552158151
 23
127.3000639233975
 33
0.0
  0
SOLID
  5
1576
330
1F
100
AcDbEntity
  8
LOGO
 62
     5
100
AcDbTrace
 10
189.68197600113
 20
133.6952875440653
 30
0.0
 11
191.5365908511247
 21
133.6952875440653
 31
0.0
 12
189.68197600113
 22
143.0749488543784
 32
0.0
 13
191.5365908511247
 23
149.8752033043557
 33
0.0
  0
SOLID
  5
1577
330
1F
100
AcDbEntity
  8
LOGO
 62
     5
100
AcDbTrace
 10
192.3040176856058
 20
151.2821525009024
 30
0.0
 11
194.1586325355986
 21
151.2821525009034
 31
0.0
 12
192.3040176856058
 22
135.1022367406121
 32
0.0
 13
194.1586325355986
 23
141.9024911905895
 33
0.0
  0
SOLID
  5
1578
330
1F
100
AcDbEntity
  8
LOGO
 62
     2
100
AcDbTrace
 10
191.5365908511247
 20
151.2821525009024
 30
0.0
 11
192.3040176856058
 21
151.2821525009024
 31
0.0
 12
191.5365908511247
 22
133.6952875440653
 32
0.0
 13
192.3040176856058
 23
133.6952875440653
 33
0.0
  0
SOLID
  5
1579
330
1F
100
AcDbEntity
  8
LOGO
 62
     5
100
AcDbTrace
 10
192.3040176856058
 20
135.1022367406121
 30
0.0
 11
194.1586325355986
 21
141.9024911905895
 31
0.0
 12
201.1294262821266
 22
151.2821525009034
 32
0.0
 13
199.2748114321339
 23
151.2821525009034
 33
0.0
  0
SOLID
  5
157A
330
1F
100
AcDbEntity
  8
LOGO
 62
     5
100
AcDbTrace
 10
192.3040176856058
 20
133.6952875440653
 30
0.0
 11
194.1586325355986
 21
133.6952875440653
 31
0.0
 12
201.1294262821266
 22
149.8752033043557
 32
0.0
 13
199.2748114321339
 23
143.0749488543784
 33
0.0
  0
SOLID
  5
157B
330
1F
100
AcDbEntity
  8
LOGO
 62
     2
100
AcDbTrace
 10
191.5365908511247
 20
133.6952875440653
 30
0.0
 11
192.3040176856058
 21
133.6952875440653
 31
0.0
 12
201.1294262821266
 22
151.2821525009034
 32
0.0
 13
201.8968531166079
 23
151.2821525009024
 33
0.0
  0
LWPOLYLINE
  5
157C
330
1F
100
AcDbEntity
  8
LOGO
 62
     4
100
AcDbPolyline
 90
        4
 70
     1
 43
0.0
 10
175.6388412014224
 20
152.3010787361221
 10
717.7382535028015
 20
152.3010787361221
 10
717.7382535028015
 20
109.4072905008272
 10
175.6388412014224
 20
109.4072905008272
1001
GENIUS_GENREC_14
1002
{
1000
PYDIR
1011
175.6388412014224
1021
109.4072905008272
1031
0.0
1002
}
1002
{
1000
PXDIR
1011
717.7382535028015
1021
152.3010787361221
1031
0.0
1002
}
1002
{
1000
PORI
1011
175.6388412014224
1021
152.3010787361221
1031
0.0
1002
}
1002
{
1000
PINS
1011
175.6388412014224
1021
152.3010787361221
1031
0.0
1002
}
1002
{
1000
PINS2
1011
717.7382535028015
1021
109.4072905008272
1031
0.0
1002
}
1002
{
1000
C
1070
     1
1002
}
1001
GENIUS_GENOBJ-N-REC_13
1002
{
1000
OWNER
1000
GEN
1002
}
1001
GENIUS_GENODEF_13
1002
{
1000
HIER
1070
     0
1002
}
1002
{
1000
MANEDIT
1070
     0
1002
}
1002
{
1000
NOSEL
1070
     0
1002
}
1002
{
1000
BEHIND
1070
     0
1002
}
1002
{
1000
OTHER
1070
     0
1002
}
1002
{
1000
REACTOR
1002
}
  0
LINE
  5
157D
330
1F
100
AcDbEntity
  8
LOGO
 62
     4
100
AcDbLine
 10
348.0566261802239
 20
128.7094952067108
 30
0.0
 11
348.0566261802239
 21
112.9817728537688
 31
0.0
  0
LINE
  5
157E
330
1F
100
AcDbEntity
  8
LOGO
 62
     4
100
AcDbLine
 10
329.0036773137519
 20
128.7094952067108
 30
0.0
 11
329.0036773137519
 21
112.9817728537688
 31
0.0
  0
LINE
  5
157F
330
1F
100
AcDbEntity
  8
LOGO
 62
     4
100
AcDbLine
 10
348.0566261802239
 20
112.9817728537688
 30
0.0
 11
329.0036773137519
 21
112.9817728537688
 31
0.0
  0
LINE
  5
1580
330
1F
100
AcDbEntity
  8
LOGO
 62
     4
100
AcDbLine
 10
375.9408536977746
 20
148.0116999125924
 30
0.0
 11
329.0036773137519
 21
148.0116999125924
 31
0.0
  0
LINE
  5
1581
330
1F
100
AcDbEntity
  8
LOGO
 62
     4
100
AcDbLine
 10
375.9408536977746
 20
135.1435634420043
 30
0.0
 11
329.0036773137519
 21
135.1435634420043
 31
0.0
  0
LINE
  5
1582
330
1F
100
AcDbEntity
  8
LOGO
 62
     4
100
AcDbLine
 10
329.0036773137519
 20
148.0116999125924
 30
0.0
 11
329.0036773137519
 21
135.1435634420043
 31
0.0
  0
LINE
  5
1583
330
1F
100
AcDbEntity
  8
LOGO
 62
     4
100
AcDbLine
 10
375.9408536977746
 20
148.0116999125924
 30
0.0
 11
375.9408536977746
 21
135.1435634420043
 31
0.0
  0
LINE
  5
1584
330
1F
100
AcDbEntity
  8
LOGO
 62
     4
100
AcDbLine
 10
344.793592316834
 20
135.1435634420043
 30
0.0
 11
344.793592316834
 21
128.7094952067108
 31
0.0
  0
TEXT
  5
1585
330
1F
100
AcDbEntity
  8
LOGO
  6
Continuous
100
AcDbText
 10
331.2901436314876
 20
137.8297681170259
 30
0.0
 40
7.507500000000001
  1
MCRPLF
  7
CHINESET
100
AcDbText
  0
LINE
  5
1586
330
1F
100
AcDbEntity
  8
LOGO
 62
     4
100
AcDbLine
 10
348.0566261802239
 20
128.7094952067108
 30
0.0
 11
329.0036773137519
 21
128.7094952067108
 31
0.0
  0
TEXT
  5
1587
330
1F
100
AcDbEntity
  8
LOGO
  6
Continuous
100
AcDbText
 10
333.929062915143
 20
115.2017075124765
 30
281.1188217553068
 40
3.2175
  1
Model
 41
0.8
  7
CHINESET
100
AcDbText
  0
TEXT
  5
1588
330
1F
100
AcDbEntity
  8
LOGO
100
AcDbText
 10
333.0726690096349
 20
121.1662590917357
 30
281.1188217553068
 40
5.3625
  1
型號
  7
CHINESET
100
AcDbText
  0
LINE
  5
1589
330
1F
100
AcDbEntity
  8
LOGO
  6
Continuous
100
AcDbLine
 10
377.3088429582819
 20
141.5320507042735
 30
0.0
 11
382.9909424862572
 21
141.5320507042735
 31
0.0
  0
TEXT
  5
158A
330
1F
100
AcDbEntity
  8
LOGO
100
AcDbText
 10
271.9210941622744
 20
111.689223105039
 30
0.0
 40
4.29
  1
30811274
 41
0.7
  7
CHINESET
 72
     1
 11
282.4315941622743
 21
111.689223105039
 31
0.0
100
AcDbText
  0
LINE
  5
158B
330
1F
100
AcDbEntity
  8
LOGO
 62
     4
100
AcDbLine
 10
295.7451753190676
 20
117.9860481478875
 30
0.0
 11
295.7451753190696
 21
109.4072905008281
 31
0.0
  0
LINE
  5
158C
330
1F
100
AcDbEntity
  8
LOGO
 62
     4
100
AcDbLine
 10
295.7451753190676
 20
117.9860481478875
 30
0.0
 11
270.0051753190695
 21
117.9860481478875
 31
0.0
  0
CIRCLE
  5
158D
330
1F
100
AcDbEntity
  8
LOGO
  6
Continuous
100
AcDbCircle
 10
249.3516378943267
 20
139.4421172782263
 30
0.0
 40
2.490514305537754
  0
CIRCLE
  5
158E
330
1F
100
AcDbEntity
  8
LOGO
  6
Continuous
100
AcDbCircle
 10
249.3516378943267
 20
139.4421172782263
 30
0.0
 40
1.459220910287705
  0
LINE
  5
158F
330
1F
100
AcDbEntity
  8
LOGO
100
AcDbLine
 10
265.002318777385
 20
136.9516029726881
 30
0.0
 11
265.002318777385
 21
141.9326315837645
 31
0.0
  0
LINE
  5
1590
330
1F
100
AcDbEntity
  8
LOGO
100
AcDbLine
 10
257.194699391867
 20
137.9828963679388
 30
0.0
 11
257.194699391867
 21
140.9013381885142
 31
0.0
  0
LINE
  5
1591
330
1F
100
AcDbEntity
  8
LOGO
  6
Continuous
100
AcDbLine
 10
257.194699391867
 20
140.9013381885142
 30
0.0
 11
265.002318777385
 21
141.9326315837645
 31
0.0
  0
LINE
  5
1592
330
1F
100
AcDbEntity
  8
LOGO
  6
Continuous
100
AcDbLine
 10
257.194699391867
 20
137.9828963679388
 30
0.0
 11
265.002318777385
 21
136.9516029726881
 31
0.0
  0
LINE
  5
1593
330
1F
100
AcDbEntity
  8
LOGO
  6
AM_ISO08W050x2
 48
0.3
100
AcDbLine
 10
245.9184266316278
 20
139.4421172782263
 30
0.0
 11
252.7848491570256
 21
139.4421172782263
 31
0.0
1001
GENIUS_GENOREF_13
1005
1629
  0
LINE
  5
1594
330
1F
100
AcDbEntity
  8
LOGO
  6
AM_ISO08W050x2
 48
0.3
100
AcDbLine
 10
249.3516378943267
 20
136.0089060155274
 30
0.0
 11
249.3516378943267
 21
142.8753285409252
 31
0.0
1001
GENIUS_GENOREF_13
1005
1628
  0
LINE
  5
1595
330
1F
100
AcDbEntity
  8
LOGO
  6
CENTER
 48
0.5
100
AcDbLine
 10
256.5703068527911
 20
139.4421172782263
 30
0.0
 11
265.7885207749396
 21
139.4421172782263
 31
0.0
1001
GENIUS_GENOREF_13
1005
1627
  0
LINE
  5
1596
330
1F
100
AcDbEntity
  8
LOGO
 62
     4
100
AcDbLine
 10
559.2106694031417
 20
465.4083634630953
 30
0.0
 11
559.2106694031417
 21
152.3010787361221
 31
0.0
  0
LINE
  5
1597
330
1F
100
AcDbEntity
  8
LOGO
 62
     4
100
AcDbLine
 10
559.2106694031417
 20
291.636558667313
 30
0.0
 11
717.7382535028015
 21
291.636558667313
 31
0.0
  0
TEXT
  5
1599
330
1F
100
AcDbEntity
  8
0
100
AcDbText
 10
569.4064448078405
 20
451.4691253527642
 30
0.0
 40
5.72
  1
End cover bracket
100
AcDbText
  0
TEXT
  5
159A
330
1F
100
AcDbEntity
  8
0
100
AcDbText
 10
569.4064448078405
 20
277.697320556982
 30
0.0
 40
5.72
  1
Mid section support
100
AcDbText
  0
LINE
  5
159C
330
1F
100
AcDbEntity
  8
LOGO
 62
     4
100
AcDbLine
 10
378.1371115621914
 20
128.7094952067108
 30
0.0
 11
378.1371115621914
 21
112.9817728537688
 31
0.0
  0
LINE
  5
159D
330
1F
100
AcDbEntity
  8
LOGO
 62
     4
100
AcDbLine
 10
358.7925855649983
 20
128.7094952067108
 30
0.0
 11
358.7925855649983
 21
112.9817728537688
 31
0.0
  0
LINE
  5
159E
330
1F
100
AcDbEntity
  8
LOGO
 62
     4
100
AcDbLine
 10
378.1371115621914
 20
112.9817728537688
 30
0.0
 11
358.7925855649983
 21
112.9817728537688
 31
0.0
  0
LINE
  5
159F
330
1F
100
AcDbEntity
  8
LOGO
 62
     4
100
AcDbLine
 10
400.9603560310512
 20
148.0116999125924
 30
0.0
 11
384.7766497454566
 21
148.0116999125924
 31
0.0
  0
LINE
  5
15A0
330
1F
100
AcDbEntity
  8
LOGO
 62
     4
100
AcDbLine
 10
400.9603560310512
 20
135.1435634420043
 30
0.0
 11
384.7766497454566
 21
135.1435634420043
 31
0.0
  0
LINE
  5
15A1
330
1F
100
AcDbEntity
  8
LOGO
 62
     4
100
AcDbLine
 10
384.7766497454566
 20
148.0116999125924
 30
0.0
 11
384.7766497454566
 21
135.1435634420043
 31
0.0
  0
LINE
  5
15A2
330
1F
100
AcDbEntity
  8
LOGO
 62
     4
100
AcDbLine
 10
400.9603560310512
 20
148.0116999125924
 30
0.0
 11
400.9603560310512
 21
135.1435634420043
 31
0.0
  0
LINE
  5
15A3
330
1F
100
AcDbEntity
  8
LOGO
 62
     4
100
AcDbLine
 10
392.868502888254
 20
135.1435634420043
 30
0.0
 11
392.868502888254
 21
131.9265293243575
 31
0.0
  0
TEXT
  5
15A4
330
1F
100
AcDbEntity
  8
LOGO
  6
Continuous
100
AcDbText
 10
386.868453100418
 20
137.8297681170259
 30
0.0
 40
7.507500000000001
  1
90
  7
CHINESET
100
AcDbText
  0
LINE
  5
15A5
330
1F
100
AcDbEntity
  8
LOGO
 62
     4
100
AcDbLine
 10
378.1371115621914
 20
128.7094952067108
 30
0.0
 11
358.7925855649983
 21
128.7094952067108
 31
0.0
  0
TEXT
  5
15A6
330
1F
100
AcDbEntity
  8
LOGO
  6
Continuous
100
AcDbText
 10
364.3214225904541
 20
115.2017075124765
 30
281.1188217553068
 40
3.2175
  1
Type
 41
0.8
  7
CHINESET
100
AcDbText
  0
TEXT
  5
15A7
330
1F
100
AcDbEntity
  8
LOGO
100
AcDbText
 10
362.5259345259764
 20
121.1662590917357
 30
281.1188217553068
 40
5.3625
  1
型式
  7
CHINESET
100
AcDbText
  0
LINE
  5
15A8
330
1F
100
AcDbEntity
  8
LOGO
 62
     4
100
AcDbLine
 10
421.1915603636644
 20
148.0116999125924
 30
0.0
 11
402.861402171551
 21
148.0116999125924
 31
0.0
  0
LINE
  5
15A9
330
1F
100
AcDbEntity
  8
LOGO
 62
     4
100
AcDbLine
 10
421.1915603636644
 20
135.1435634420043
 30
0.0
 11
402.861402171551
 21
135.1435634420043
 31
0.0
  0
LINE
  5
15AA
330
1F
100
AcDbEntity
  8
LOGO
 62
     4
100
AcDbLine
 10
402.861402171551
 20
148.0116999125924
 30
0.0
 11
402.861402171551
 21
135.1435634420043
 31
0.0
  0
LINE
  5
15AB
330
1F
100
AcDbEntity
  8
LOGO
 62
     4
100
AcDbLine
 10
421.1915603636644
 20
148.0116999125924
 30
0.0
 11
421.1915603636644
 21
135.1435634420043
 31
0.0
  0
LINE
  5
15AC
330
1F
100
AcDbEntity
  8
LOGO
 62
     4
100
AcDbLine
 10
410.9532553143484
 20
135.1435634420043
 30
0.0
 11
410.9532553143484
 21
128.7094952067108
 31
0.0
  0
TEXT
  5
15AD
330
1F
100
AcDbEntity
  8
LOGO
  6
Continuous
100
AcDbText
 10
404.9532055265125
 20
137.8297681170259
 30
0.0
 40
7.507500000000001
  1
(V)
  7
CHINESET
100
AcDbText
  0
LINE
  5
15AE
330
1F
100
AcDbEntity
  8
LOGO
 62
     4
100
AcDbLine
 10
432.3789663829035
 20
128.7094952067108
 30
0.0
 11
432.3789663829035
 21
112.9817728537688
 31
0.0
  0
LINE
  5
15AF
330
1F
100
AcDbEntity
  8
LOGO
 62
     4
100
AcDbLine
 10
381.6504936141667
 20
128.7094952067108
 30
0.0
 11
381.6504936141667
 21
112.9817728537688
 31
0.0
  0
LINE
  5
15B0
330
1F
100
AcDbEntity
  8
LOGO
 62
     4
100
AcDbLine
 10
432.3789663829035
 20
112.9817728537688
 30
0.0
 11
381.6504936141667
 21
112.9817728537688
 31
0.0
  0
LINE
  5
15B1
330
1F
100
AcDbEntity
  8
LOGO
 62
     4
100
AcDbLine
 10
432.3789663829035
 20
128.7094952067108
 30
0.0
 11
381.6504936141667
 21
128.7094952067108
 31
0.0
  0
TEXT
  5
15B2
330
1F
100
AcDbEntity
  8
LOGO
  6
Continuous
100
AcDbText
 10
385.6680186944453
 20
115.2017075124765
 30
281.1188217553068
 40
3.2175
  1
Material of piston seal
 41
0.8
  7
CHINESET
100
AcDbText
  0
TEXT
  5
15B3
330
1F
100
AcDbEntity
  8
LOGO
100
AcDbText
 10
388.2124275886822
 20
121.1662590917357
 30
281.1188217553068
 40
5.3625
  1
活塞密封環材質
  7
CHINESET
100
AcDbText
  0
LINE
  5
15B4
330
1F
100
AcDbEntity
  8
LOGO
  6
Continuous
100
AcDbLine
 10
422.5595496241718
 20
141.5320507042735
 30
0.0
 11
428.241649152147
 21
141.5320507042735
 31
0.0
  0
LINE
  5
15B5
330
1F
100
AcDbEntity
  8
LOGO
 62
     4
100
AcDbLine
 10
446.2110626969411
 20
148.0116999125924
 30
0.0
 11
430.0273564113464
 21
148.0116999125924
 31
0.0
  0
LINE
  5
15B6
330
1F
100
AcDbEntity
  8
LOGO
 62
     4
100
AcDbLine
 10
446.2110626969411
 20
135.1435634420043
 30
0.0
 11
430.0273564113464
 21
135.1435634420043
 31
0.0
  0
LINE
  5
15B7
330
1F
100
AcDbEntity
  8
LOGO
 62
     4
100
AcDbLine
 10
430.0273564113464
 20
148.0116999125924
 30
0.0
 11
430.0273564113464
 21
135.1435634420043
 31
0.0
  0
LINE
  5
15B8
330
1F
100
AcDbEntity
  8
LOGO
 62
     4
100
AcDbLine
 10
446.2110626969411
 20
148.0116999125924
 30
0.0
 11
446.2110626969411
 21
135.1435634420043
 31
0.0
  0
LINE
  5
15B9
330
1F
100
AcDbEntity
  8
LOGO
 62
     4
100
AcDbLine
 10
438.1192095541437
 20
135.1435634420043
 30
0.0
 11
438.1192095541437
 21
128.7094952067108
 31
0.0
  0
TEXT
  5
15BA
330
1F
100
AcDbEntity
  8
LOGO
  6
Continuous
100
AcDbText
 10
432.7757948361052
 20
137.8297681170259
 30
0.0
 40
7.507500000000001
  1
25
  7
CHINESET
100
AcDbText
  0
LINE
  5
15BB
330
1F
100
AcDbEntity
  8
LOGO
 62
     4
100
AcDbLine
 10
455.75387125231
 20
128.7094952067108
 30
0.0
 11
455.75387125231
 21
112.9817728537688
 31
0.0
  0
LINE
  5
15BC
330
1F
100
AcDbEntity
  8
LOGO
 62
     4
100
AcDbLine
 10
436.4093452551166
 20
128.7094952067108
 30
0.0
 11
436.4093452551166
 21
112.9817728537688
 31
0.0
  0
LINE
  5
15BD
330
1F
100
AcDbEntity
  8
LOGO
 62
     4
100
AcDbLine
 10
455.75387125231
 20
112.9817728537688
 30
0.0
 11
436.4093452551166
 21
112.9817728537688
 31
0.0
  0
LINE
  5
15BE
330
1F
100
AcDbEntity
  8
LOGO
 62
     4
100
AcDbLine
 10
455.75387125231
 20
128.7094952067108
 30
0.0
 11
436.4093452551166
 21
128.7094952067108
 31
0.0
  0
TEXT
  5
15BF
330
1F
100
AcDbEntity
  8
LOGO
  6
Continuous
100
AcDbText
 10
441.9381822805725
 20
115.2017075124765
 30
281.1188217553068
 40
3.2175
  1
Bore
 41
0.8
  7
CHINESET
100
AcDbText
  0
TEXT
  5
15C0
330
1F
100
AcDbEntity
  8
LOGO
100
AcDbText
 10
440.1426942160948
 20
121.1662590917357
 30
281.1188217553068
 40
5.3625
  1
內徑
  7
CHINESET
100
AcDbText
  0
LINE
  5
15C1
330
1F
100
AcDbEntity
  8
LOGO
  6
Continuous
100
AcDbLine
 10
447.5790519574482
 20
141.5320507042735
 30
0.0
 11
453.2611514854236
 21
141.5320507042735
 31
0.0
  0
LINE
  5
15C2
330
1F
100
AcDbEntity
  8
LOGO
 62
     4
100
AcDbLine
 10
471.2305650302177
 20
148.0116999125924
 30
0.0
 11
455.046858744623
 21
148.0116999125924
 31
0.0
  0
LINE
  5
15C3
330
1F
100
AcDbEntity
  8
LOGO
 62
     4
100
AcDbLine
 10
471.2305650302177
 20
135.1435634420043
 30
0.0
 11
455.046858744623
 21
135.1435634420043
 31
0.0
  0
LINE
  5
15C4
330
1F
100
AcDbEntity
  8
LOGO
 62
     4
100
AcDbLine
 10
455.046858744623
 20
148.0116999125924
 30
0.0
 11
455.046858744623
 21
135.1435634420043
 31
0.0
  0
LINE
  5
15C5
330
1F
100
AcDbEntity
  8
LOGO
 62
     4
100
AcDbLine
 10
471.2305650302177
 20
148.0116999125924
 30
0.0
 11
471.2305650302177
 21
135.1435634420043
 31
0.0
  0
TEXT
  5
15C6
330
1F
100
AcDbEntity
  8
LOGO
  6
Continuous
100
AcDbText
 10
460.7142575849242
 20
137.8297681170259
 30
0.0
 40
7.507500000000001
  1
0
  7
CHINESET
100
AcDbText
  0
LINE
  5
15C7
330
1F
100
AcDbEntity
  8
LOGO
 62
     4
100
AcDbLine
 10
479.1287761217162
 20
128.7094952067108
 30
0.0
 11
479.1287761217162
 21
112.9817728537688
 31
0.0
  0
LINE
  5
15C8
330
1F
100
AcDbEntity
  8
LOGO
 62
     4
100
AcDbLine
 10
459.7842501245231
 20
128.7094952067108
 30
0.0
 11
459.7842501245231
 21
112.9817728537688
 31
0.0
  0
LINE
  5
15C9
330
1F
100
AcDbEntity
  8
LOGO
 62
     4
100
AcDbLine
 10
479.1287761217162
 20
112.9817728537688
 30
0.0
 11
459.7842501245231
 21
112.9817728537688
 31
0.0
  0
LINE
  5
15CA
330
1F
100
AcDbEntity
  8
LOGO
 62
     4
100
AcDbLine
 10
479.1287761217162
 20
128.7094952067108
 30
0.0
 11
459.7842501245231
 21
128.7094952067108
 31
0.0
  0
TEXT
  5
15CB
330
1F
100
AcDbEntity
  8
LOGO
  6
Continuous
100
AcDbText
 10
463.1879343322092
 20
115.2017075124765
 30
281.1188217553068
 40
3.2175
  1
Stroke
 41
0.8
  7
CHINESET
100
AcDbText
  0
TEXT
  5
15CC
330
1F
100
AcDbEntity
  8
LOGO
100
AcDbText
 10
463.5175990855012
 20
121.1662590917357
 30
281.1188217553068
 40
5.3625
  1
行程
  7
CHINESET
100
AcDbText
  0
LINE
  5
15CD
330
1F
100
AcDbEntity
  8
LOGO
  6
Continuous
100
AcDbLine
 10
472.5985542907249
 20
141.5320507042735
 30
0.0
 11
478.2806538187003
 21
141.5320507042735
 31
0.0
  0
LINE
  5
15CE
330
1F
100
AcDbEntity
  8
LOGO
 62
     4
100
AcDbLine
 10
496.2500673634943
 20
148.0116999125924
 30
0.0
 11
480.0663610778997
 21
148.0116999125924
 31
0.0
  0
LINE
  5
15CF
330
1F
100
AcDbEntity
  8
LOGO
 62
     4
100
AcDbLine
 10
496.2500673634943
 20
135.1435634420043
 30
0.0
 11
480.0663610778997
 21
135.1435634420043
 31
0.0
  0
LINE
  5
15D0
330
1F
100
AcDbEntity
  8
LOGO
 62
     4
100
AcDbLine
 10
480.0663610778997
 20
148.0116999125924
 30
0.0
 11
480.0663610778997
 21
135.1435634420043
 31
0.0
  0
LINE
  5
15D1
330
1F
100
AcDbEntity
  8
LOGO
 62
     4
100
AcDbLine
 10
496.2500673634943
 20
148.0116999125924
 30
0.0
 11
496.2500673634943
 21
135.1435634420043
 31
0.0
  0
LINE
  5
15D2
330
1F
100
AcDbEntity
  8
LOGO
  6
Continuous
100
AcDbLine
 10
497.6180566240016
 20
141.5320507042735
 30
0.0
 11
503.3001561519768
 21
141.5320507042735
 31
0.0
  0
LINE
  5
15D3
330
1F
100
AcDbEntity
  8
LOGO
 62
     4
100
AcDbLine
 10
521.269569696771
 20
148.0116999125924
 30
0.0
 11
505.0858634111762
 21
148.0116999125924
 31
0.0
  0
LINE
  5
15D4
330
1F
100
AcDbEntity
  8
LOGO
 62
     4
100
AcDbLine
 10
521.269569696771
 20
135.1435634420043
 30
0.0
 11
505.0858634111762
 21
135.1435634420043
 31
0.0
  0
LINE
  5
15D5
330
1F
100
AcDbEntity
  8
LOGO
 62
     4
100
AcDbLine
 10
505.0858634111762
 20
148.0116999125924
 30
0.0
 11
505.0858634111762
 21
135.1435634420043
 31
0.0
  0
LINE
  5
15D6
330
1F
100
AcDbEntity
  8
LOGO
 62
     4
100
AcDbLine
 10
521.269569696771
 20
148.0116999125924
 30
0.0
 11
521.269569696771
 21
135.1435634420043
 31
0.0
  0
LINE
  5
15D7
330
1F
100
AcDbEntity
  8
LOGO
 62
     4
100
AcDbLine
 10
512.4897553980481
 20
128.7094952067108
 30
0.0
 11
512.4897553980481
 21
112.9817728537688
 31
0.0
  0
LINE
  5
15D8
330
1F
100
AcDbEntity
  8
LOGO
 62
     4
100
AcDbLine
 10
483.1591549939296
 20
128.7094952067108
 30
0.0
 11
483.1591549939296
 21
112.9817728537688
 31
0.0
  0
LINE
  5
15D9
330
1F
100
AcDbEntity
  8
LOGO
 62
     4
100
AcDbLine
 10
512.4897553980481
 20
112.9817728537688
 30
0.0
 11
483.1591549939296
 21
112.9817728537688
 31
0.0
  0
LINE
  5
15DA
330
1F
100
AcDbEntity
  8
LOGO
 62
     4
100
AcDbLine
 10
512.4897553980481
 20
128.7094952067108
 30
0.0
 11
483.1591549939296
 21
128.7094952067108
 31
0.0
  0
TEXT
  5
15DB
330
1F
100
AcDbEntity
  8
LOGO
  6
Continuous
100
AcDbText
 10
486.5628392016156
 20
115.2017075124765
 30
281.1188217553068
 40
3.2175
  1
Grease type
 41
0.8
  7
CHINESET
100
AcDbText
  0
TEXT
  5
15DC
330
1F
100
AcDbEntity
  8
LOGO
100
AcDbText
 10
484.2632451918769
 20
121.1662590917357
 30
281.1188217553068
 40
5.3625
  1
潤滑油種類
  7
CHINESET
100
AcDbText
  0
LINE
  5
15DD
330
1F
100
AcDbEntity
  8
LOGO
 62
     4
100
AcDbLine
 10
540.6422331242248
 20
128.7094952067108
 30
0.0
 11
540.6422331242248
 21
112.9817728537688
 31
0.0
  0
LINE
  5
15DE
330
1F
100
AcDbEntity
  8
LOGO
 62
     4
100
AcDbLine
 10
516.5201342702614
 20
128.7094952067108
 30
0.0
 11
516.5201342702614
 21
112.9817728537688
 31
0.0
  0
LINE
  5
15DF
330
1F
100
AcDbEntity
  8
LOGO
 62
     4
100
AcDbLine
 10
540.6422331242248
 20
112.9817728537688
 30
0.0
 11
516.5201342702614
 21
112.9817728537688
 31
0.0
  0
LINE
  5
15E0
330
1F
100
AcDbEntity
  8
LOGO
 62
     4
100
AcDbLine
 10
540.6422331242248
 20
128.7094952067108
 30
0.0
 11
516.5201342702614
 21
128.7094952067108
 31
0.0
  0
TEXT
  5
15E1
330
1F
100
AcDbEntity
  8
LOGO
  6
Continuous
100
AcDbText
 10
519.9238184779475
 20
115.2017075124765
 30
281.1188217553068
 40
3.2175
  1
Accessory
 41
0.8
  7
CHINESET
100
AcDbText
  0
TEXT
  5
15E2
330
1F
100
AcDbEntity
  8
LOGO
100
AcDbText
 10
522.8815813512635
 20
121.1662590917357
 30
281.1188217553068
 40
5.3625
  1
配件
  7
CHINESET
100
AcDbText
  0
LINE
  5
15E3
330
1F
100
AcDbEntity
  8
LOGO
 62
     4
100
AcDbLine
 10
463.1387118874203
 20
135.1435634420043
 30
0.0
 11
463.1387118874203
 21
128.7094952067108
 31
0.0
  0
LINE
  5
15E4
330
1F
100
AcDbEntity
  8
LOGO
 62
     4
100
AcDbLine
 10
488.1582142206969
 20
135.1435634420043
 30
0.0
 11
488.1582142206969
 21
128.7094952067108
 31
0.0
  0
LINE
  5
15E5
330
1F
100
AcDbEntity
  8
LOGO
 62
     4
100
AcDbLine
 10
528.581183697243
 20
131.9265293243575
 30
0.0
 11
528.581183697243
 21
128.7094952067108
 31
0.0
  0
LINE
  5
15E6
330
1F
100
AcDbEntity
  8
LOGO
 62
     4
100
AcDbLine
 10
368.4648485635948
 20
131.9265293243575
 30
0.0
 11
368.4648485635948
 21
128.7094952067108
 31
0.0
  0
LINE
  5
15E7
330
1F
100
AcDbEntity
  8
LOGO
 62
     4
100
AcDbLine
 10
368.4648485635948
 20
131.9265293243575
 30
0.0
 11
392.868502888254
 21
131.9265293243575
 31
0.0
  0
LINE
  5
15E8
330
1F
100
AcDbEntity
  8
LOGO
 62
     4
100
AcDbLine
 10
513.1777165539736
 20
131.9265293243575
 30
0.0
 11
528.581183697243
 21
131.9265293243575
 31
0.0
  0
LINE
  5
15E9
330
1F
100
AcDbEntity
  8
LOGO
 62
     4
100
AcDbLine
 10
513.1777165539736
 20
135.1435634420043
 30
0.0
 11
513.1777165539736
 21
131.9265293243575
 31
0.0
  0
TEXT
  5
15FB
330
1F
100
AcDbEntity
  8
0
100
AcDbText
 10
482.0842464403918
 20
390.0540065284215
 30
0.0
 40
5.2
  1
stroke=0mm
100
AcDbText
  0
POINT
  5
1627
330
1F
100
AcDbEntity
  8
0
 60
     1
100
AcDbPoint
 10
-1941.345953994298
 20
608.9723262418743
 30
0.0
1001
GENIUS_GENOBJ-N-CRS_13
1002
{
1000
OWNER
1000
GEN
1002
}
1001
GENIUS_GENOLIS_13
1002
{
1000
ENT
1005
0
1005
0
1005
0
1005
1595
1002
}
1001
GENIUS_GENOENT_13
1002
{
1000
MYREF
1005
1627
1002
}
1002
{
1000
GRP
1005
0
1002
}
1001
GENIUS_GENODEF_13
1002
{
1000
HIER
1070
    10
1002
}
1002
{
1000
MANEDIT
1070
     1
1002
}
1002
{
1000
NOSEL
1070
     0
1002
}
1002
{
1000
BEHIND
1070
     0
1002
}
1002
{
1000
OTHER
1070
     0
1002
}
1002
{
1000
REACTOR
1002
}
  0
POINT
  5
1628
330
1F
100
AcDbEntity
  8
0
 60
     1
100
AcDbPoint
 10
-1952.670539217152
 20
617.8479127205106
 30
0.0
1001
GENIUS_GENOBJ-N-CRS_13
1002
{
1000
OWNER
1000
GEN
1002
}
1001
GENIUS_GENOLIS_13
1002
{
1000
ENT
1005
0
1005
0
1005
0
1005
1594
1002
}
1001
GENIUS_GENOENT_13
1002
{
1000
MYREF
1005
1628
1002
}
1002
{
1000
GRP
1005
0
1002
}
1001
GENIUS_GENODEF_13
1002
{
1000
HIER
1070
    10
1002
}
1002
{
1000
MANEDIT
1070
     1
1002
}
1002
{
1000
NOSEL
1070
     0
1002
}
1002
{
1000
BEHIND
1070
     0
1002
}
1002
{
1000
OTHER
1070
     0
1002
}
1002
{
1000
REACTOR
1002
}
  0
POINT
  5
1629
330
1F
100
AcDbEntity
  8
0
 60
     1
100
AcDbPoint
 10
-1946.311865519315
 20
608.9723262418743
 30
0.0
1001
GENIUS_GENOBJ-N-CRS_13
1002
{
1000
OWNER
1000
GEN
1002
}
1001
GENIUS_GENOLIS_13
1002
{
1000
ENT
1005
0
1005
0
1005
0
1005
1593
1002
}
1001
GENIUS_GENOENT_13
1002
{
1000
MYREF
1005
1629
1002
}
1002
{
1000
GRP
1005
0
1002
}
1001
GENIUS_GENODEF_13
1002
{
1000
HIER
1070
    10
1002
}
1002
{
1000
MANEDIT
1070
     1
1002
}
1002
{
1000
NOSEL
1070
     0
1002
}
1002
{
1000
BEHIND
1070
     0
1002
}
1002
{
1000
OTHER
1070
     0
1002
}
1002
{
1000
REACTOR
1002
}
  0
TEXT
  5
1AB3
330
1F
100
AcDbEntity
  8
0
100
AcDbText
 10
640.703974758532
 20
451.7584645925917
 30
0.0
 40
3.85
  1
PL24/2
100
AcDbText
  0
LWPOLYLINE
  5
1AC3
330
1F
100
AcDbEntity
  8
0
100
AcDbPolyline
 90
        4
 70
     1
 43
0.0
 10
639.7993332666921
 20
456.9933949556705
 10
658.3268186067729
 20
456.9933949556705
 10
658.3268186067729
 20
450.722753635865
 10
639.7993332666921
 20
450.722753635865
1001
GENIUS_GENREC_14
1002
{
1000
PYDIR
1011
639.7993332666921
1021
450.722753635865
1031
0.0
1002
}
1002
{
1000
PXDIR
1011
658.3268186067729
1021
456.9933949556705
1031
0.0
1002
}
1002
{
1000
PORI
1011
639.7993332666921
1021
456.9933949556705
1031
0.0
1002
}
1002
{
1000
PINS
1011
639.7993332666921
1021
456.9933949556705
1031
0.0
1002
}
1002
{
1000
PINS2
1011
658.3268186067729
1021
450.722753635865
1031
0.0
1002
}
1002
{
1000
C
1070
     1
1002
}
1001
GENIUS_GENOBJ-N-REC_13
1002
{
1000
OWNER
1000
GEN
1002
}
1001
GENIUS_GENODEF_13
1002
{
1000
HIER
1070
     0
1002
}
1002
{
1000
MANEDIT
1070
     0
1002
}
1002
{
1000
NOSEL
1070
     0
1002
}
1002
{
1000
BEHIND
1070
     0
1002
}
1002
{
1000
OTHER
1070
     0
1002
}
1002
{
1000
REACTOR
1002
}
  0
TEXT
  5
1AC4
330
1F
100
AcDbEntity
  8
0
100
AcDbText
 10
643.649766140974
 20
278.335533206746
 30
0.0
 40
3.85
  1
PL25/2
100
AcDbText
  0
LWPOLYLINE
  5
1AC5
330
1F
100
AcDbEntity
  8
0
100
AcDbPolyline
 90
        4
 70
     1
 43
0.0
 10
642.7451246491342
 20
283.5704635698249
 10
660.7620487769308
 20
283.5704635698249
 10
660.7620487769308
 20
277.2998222500192
 10
642.7451246491342
 20
277.2998222500192
1001
GENIUS_GENREC_14
1002
{
1000
PYDIR
1011
642.7451246491342
1021
277.2998222500192
1031
0.0
1002
}
1002
{
1000
PXDIR
1011
660.7620487769308
1021
283.5704635698249
1031
0.0
1002
}
1002
{
1000
PORI
1011
642.7451246491342
1021
283.5704635698249
1031
0.0
1002
}
1002
{
1000
PINS
1011
642.7451246491342
1021
283.5704635698249
1031
0.0
1002
}
1002
{
1000
PINS2
1011
660.7620487769308
1021
277.2998222500192
1031
0.0
1002
}
1002
{
1000
C
1070
     1
1002
}
1001
GENIUS_GENOBJ-N-REC_13
1002
{
1000
OWNER
1000
GEN
1002
}
1001
GENIUS_GENODEF_13
1002
{
1000
HIER
1070
     0
1002
}
1002
{
1000
MANEDIT
1070
     0
1002
}
1002
{
1000
NOSEL
1070
     0
1002
}
1002
{
1000
BEHIND
1070
     0
1002
}
1002
{
1000
OTHER
1070
     0
1002
}
1002
{
1000
REACTOR
1002
}
  0
LINE
  5
1EFC
330
1F
100
AcDbEntity
  8
0
  6
Continuous
 48
2.5
100
AcDbLine
 10
366.4795850485244
 20
381.255043091689
 30
0.0
 11
254.4795850485249
 21
381.255043091689
 31
0.0
  0
LINE
  5
1EFD
102
{ACAD_REACTORS
330
20C9
330
20D5
102
}
330
1F
100
AcDbEntity
  8
0
  6
Continuous
 48
2.5
100
AcDbLine
 10
366.4795850485246
 20
414.2550430916892
 30
0.0
 11
254.4795850485247
 21
414.2550430916889
 31
0.0
  0
LINE
  5
1EFE
330
1F
100
AcDbEntity
  8
0
  6
Continuous
 48
2.5
100
AcDbLine
 10
387.4795850485245
 20
379.7510577284534
 30
0.0
 11
233.4787111652802
 21
379.7563070644553
 31
0.0
  0
LINE
  5
1EFF
330
1F
100
AcDbEntity
  8
AM_7
100
AcDbLine
 10
208.5263573044961
 20
397.755043091689
 30
0.0
 11
412.3532785535656
 21
397.755043091689
 31
0.0
  0
LINE
  5
1F00
330
1F
100
AcDbEntity
  8
0
  6
Continuous
 48
2.5
100
AcDbLine
 10
361.4795850485245
 20
326.3000579663108
 30
0.0
 11
259.4795850485247
 21
326.3000579663108
 31
0.0
1001
GENIUS_GENOREF_13
1005
210E
  0
LINE
  5
1F01
330
1F
100
AcDbEntity
  8
0
  6
Continuous
 48
2.5
100
AcDbLine
 10
259.4795850485247
 20
313.3000579663108
 30
0.0
 11
361.4795850485245
 21
313.3000579663108
 31
0.0
  0
LINE
  5
1F02
330
1F
100
AcDbEntity
  8
0
  6
Continuous
 48
2.5
100
AcDbLine
 10
255.4784904370388
 20
311.8000579663105
 30
0.0
 11
387.4796951779054
 21
311.800057966311
 31
0.0
  0
LINE
  5
1F03
330
1F
100
AcDbEntity
  8
0
  6
Continuous
 48
2.5
100
AcDbLine
 10
387.4797817064423
 20
195.8710864733932
 30
0.0
 11
233.4795850485245
 21
195.8763357935245
 31
0.0
  0
LINE
  5
1F04
330
1F
100
AcDbEntity
  8
0
  6
Continuous
 48
2.5
100
AcDbLine
 10
387.4798379491085
 20
198.2710864694393
 30
0.0
 11
233.4795850485245
 21
198.2763357908886
 31
0.0
  0
LINE
  5
1F05
330
1F
100
AcDbEntity
  8
0
  6
Continuous
 48
2.5
100
AcDbLine
 10
387.480236261343
 20
215.2679577955867
 30
0.0
 11
233.4795850485245
 21
215.2732071263701
 31
0.0
  0
LINE
  5
1F06
330
1F
100
AcDbEntity
  8
0
  6
Continuous
 48
2.5
100
AcDbLine
 10
387.4802925040092
 20
217.6679577942687
 30
0.0
 11
233.4795850485245
 21
217.6732071263702
 31
0.0
  0
LINE
  5
1F07
330
1F
100
AcDbEntity
  8
0
  6
Continuous
 48
2.5
100
AcDbLine
 10
387.4804589317687
 20
224.7698014497446
 30
0.0
 11
233.4795850485245
 21
224.7750507857463
 31
0.0
  0
LINE
  5
1F08
330
1F
100
AcDbEntity
  8
0
  6
Continuous
 48
2.5
100
AcDbLine
 10
387.4796152917745
 20
188.7698014695147
 30
0.0
 11
233.4795850485248
 21
188.7750507857465
 31
0.0
  0
LINE
  5
1F09
330
1F
100
AcDbEntity
  8
AM_7
100
AcDbLine
 10
208.5272311877402
 20
206.7737868129802
 30
0.0
 11
411.7356078054934
 21
206.7737868129802
 31
0.0
  0
LINE
  5
1F0A
330
1F
100
AcDbEntity
  8
0
  6
Continuous
 48
2.5
100
AcDbLine
 10
387.4795850485243
 20
415.7510577284533
 30
0.0
 11
233.4787111652802
 21
415.7563070644552
 31
0.0
  0
LINE
  5
1F0B
330
1F
100
AcDbEntity
  8
0
  6
Continuous
 48
2.5
100
AcDbLine
 10
233.4777067307507
 20
282.9000579663111
 30
0.0
 11
387.4814633662982
 21
282.9000579663098
 31
0.0
  0
LINE
  5
1F0C
330
1F
100
AcDbEntity
  8
0
  6
Continuous
 48
2.5
100
AcDbLine
 10
233.4778535699252
 20
285.3000579663112
 30
0.0
 11
387.4813165271232
 21
285.3000579663096
 31
0.0
  0
LINE
  5
1F0D
330
1F
100
AcDbEntity
  8
AM_7
100
AcDbLine
 10
208.8184594712438
 20
293.8000579663105
 30
0.0
 11
411.3542967035357
 21
293.8000579663107
 31
0.0
  0
LINE
  5
1F0E
330
1F
100
AcDbEntity
  8
0
  6
Continuous
 48
2.5
100
AcDbLine
 10
233.4788936807442
 20
302.3000579663101
 30
0.0
 11
387.4802764163044
 21
302.3000579663119
 31
0.0
  0
LINE
  5
1F0F
330
1F
100
AcDbEntity
  8
0
  6
Continuous
 48
2.5
100
AcDbLine
 10
233.479040519919
 20
304.7000579663102
 30
0.0
 11
387.4801295771299
 21
304.7000579663118
 31
0.0
  0
LINE
  5
1F10
330
1F
100
AcDbEntity
  8
0
  6
Continuous
 48
2.5
100
AcDbLine
 10
254.4795850485249
 20
381.255043091689
 30
0.0
 11
254.4795850485247
 21
414.2550430916889
 31
0.0
  0
LINE
  5
1F11
102
{ACAD_REACTORS
330
20C6
102
}
330
1F
100
AcDbEntity
  8
0
  6
Continuous
 48
2.5
100
AcDbLine
 10
259.4795850485247
 20
381.255043091689
 30
0.0
 11
259.4795850485247
 21
414.2550430916889
 31
0.0
  0
LINE
  5
1F12
330
1F
100
AcDbEntity
  8
0
  6
Continuous
 48
2.5
100
AcDbLine
 10
232.9787111652804
 20
409.7550430916889
 30
0.0
 11
232.9787111652804
 21
385.755043091689
 31
0.0
  0
LINE
  5
1F13
330
1F
100
AcDbEntity
  8
0
  6
Continuous
 48
2.5
100
AcDbLine
 10
225.7787111652803
 20
406.755043091689
 30
0.0
 11
225.7787111652806
 21
388.755043091689
 31
0.0
  0
LINE
  5
1F14
330
1F
100
AcDbEntity
  8
0
  6
Continuous
 48
2.5
100
AcDbLine
 10
210.9787111652804
 20
400.005043091689
 30
0.0
 11
210.9787111652804
 21
395.505043091689
 31
0.0
  0
ARC
  5
1F15
330
1F
100
AcDbEntity
  8
AM_4
  6
Continuous
 48
2.5
100
AcDbCircle
 10
215.4787111652804
 20
397.755043091689
 30
0.0
 40
2.0
100
AcDbArc
 50
73.61171832686044
 51
342.8651268285464
  0
ARC
  5
1F16
330
1F
100
AcDbEntity
  8
AM_4
  6
Continuous
 48
2.5
100
AcDbCircle
 10
220.9787111652804
 20
397.755043091689
 30
0.0
 40
2.0
100
AcDbArc
 50
73.61171832686044
 51
342.8651268285464
  0
LINE
  5
1F17
330
1F
100
AcDbEntity
  8
0
  6
Continuous
 48
2.5
100
AcDbLine
 10
210.4787111652802
 20
417.3550430916884
 30
0.0
 11
210.4787111652802
 21
378.1550430916886
 31
0.0
  0
LINE
  5
1F18
330
1F
100
AcDbEntity
  8
0
  6
Continuous
 48
2.5
100
AcDbLine
 10
210.4787111652802
 20
395.505043091689
 30
0.0
 11
225.7787111652803
 21
395.505043091689
 31
0.0
  0
LINE
  5
1F19
330
1F
100
AcDbEntity
  8
0
  6
Continuous
 48
2.5
100
AcDbLine
 10
210.8787111652807
 20
395.1050430916885
 30
0.0
 11
225.3787111652807
 21
395.1050430916885
 31
0.0
  0
LINE
  5
1F1A
330
1F
100
AcDbEntity
  8
0
  6
Continuous
 48
2.5
100
AcDbLine
 10
233.2787111652804
 20
377.755043091689
 30
0.0
 11
210.8787111652807
 21
377.755043091689
 31
0.0
  0
LINE
  5
1F1B
330
1F
100
AcDbEntity
  8
0
  6
Continuous
 48
2.5
100
AcDbLine
 10
233.2787111652804
 20
378.5875235506728
 30
0.0
 11
210.8787111652807
 21
378.5875235506728
 31
0.0
  0
LINE
  5
1F1C
330
1F
100
AcDbEntity
  8
0
  6
Continuous
 48
2.5
100
AcDbLine
 10
233.2787111652804
 20
382.8866955892763
 30
0.0
 11
210.8787111652807
 21
382.8866955892763
 31
0.0
  0
LINE
  5
1F1D
330
1F
100
AcDbEntity
  8
0
  6
Continuous
 48
2.5
100
AcDbLine
 10
210.8787111652807
 20
395.1050430916885
 30
0.0
 11
210.8787111652807
 21
377.755043091689
 31
0.0
  0
LINE
  5
1F1E
330
1F
100
AcDbEntity
  8
0
  6
Continuous
 48
2.5
100
AcDbLine
 10
210.4787111652802
 20
378.1550430916886
 30
0.0
 11
210.8787111652807
 21
377.755043091689
 31
0.0
  0
CIRCLE
  5
1F1F
330
1F
100
AcDbEntity
  8
0
  6
Continuous
 48
2.5
100
AcDbCircle
 10
215.4787111652804
 20
397.755043091689
 30
0.0
 40
1.6
  0
LINE
  5
1F20
330
1F
100
AcDbEntity
  8
0
  6
Continuous
 48
2.5
100
AcDbLine
 10
210.8787111652807
 20
395.1050430916885
 30
0.0
 11
210.4787111652802
 21
395.505043091689
 31
0.0
  0
CIRCLE
  5
1F21
330
1F
100
AcDbEntity
  8
0
  6
Continuous
 48
2.5
100
AcDbCircle
 10
220.9787111652804
 20
397.755043091689
 30
0.0
 40
1.6
  0
LINE
  5
1F22
330
1F
100
AcDbEntity
  8
0
  6
Continuous
 48
2.5
100
AcDbLine
 10
232.9787111652802
 20
390.755043091689
 30
0.0
 11
254.4795850485249
 21
390.755043091689
 31
0.0
  0
LINE
  5
1F23
330
1F
100
AcDbEntity
  8
0
  6
Continuous
 48
2.5
100
AcDbLine
 10
233.4787111652802
 20
390.7550430916892
 30
0.0
 11
233.4787111652802
 21
377.9550430916888
 31
0.0
  0
ARC
  5
1F24
330
1F
100
AcDbEntity
  8
0
  6
Continuous
 48
2.5
100
AcDbCircle
 10
229.2787111652806
 20
388.755043091689
 30
0.0
 40
3.5
100
AcDbArc
 50
180.0
 51
270.0
  0
ARC
  5
1F25
330
1F
100
AcDbEntity
  8
0
  6
Continuous
 48
2.5
100
AcDbCircle
 10
228.9787111652802
 20
388.2050430916891
 30
0.0
 40
3.2
100
AcDbArc
 50
180.0
 51
270.0
  0
ARC
  5
1F26
330
1F
100
AcDbEntity
  8
0
  6
Continuous
 48
2.5
100
AcDbCircle
 10
228.9787111652802
 20
388.2050430916891
 30
0.0
 40
3.6
100
AcDbArc
 50
180.0
 51
270.0
  0
CIRCLE
  5
1F27
330
1F
100
AcDbEntity
  8
0
  6
Continuous
 48
2.5
100
AcDbCircle
 10
229.3787111652805
 20
389.005043091689
 30
0.0
 40
3.25
  0
CIRCLE
  5
1F28
330
1F
100
AcDbEntity
  8
0
  6
Continuous
 48
2.5
100
AcDbCircle
 10
229.3787111652805
 20
389.005043091689
 30
0.0
 40
1.75
  0
LINE
  5
1F29
330
1F
100
AcDbEntity
  8
0
  6
Continuous
 48
2.5
100
AcDbLine
 10
228.9787111652802
 20
384.6050430916885
 30
0.0
 11
233.2787111652804
 21
384.6050430916885
 31
0.0
  0
LINE
  5
1F2A
330
1F
100
AcDbEntity
  8
0
  6
Continuous
 48
2.5
100
AcDbLine
 10
228.9787111652802
 20
385.0050430916881
 30
0.0
 11
233.4787111652802
 21
385.005043091689
 31
0.0
  0
LINE
  5
1F2B
330
1F
100
AcDbEntity
  8
0
  6
Continuous
 48
2.5
100
AcDbLine
 10
229.2787111652806
 20
385.255043091689
 30
0.0
 11
232.4787111652804
 21
385.255043091689
 31
0.0
  0
LINE
  5
1F2C
330
1F
100
AcDbEntity
  8
0
  6
Continuous
 48
2.5
100
AcDbLine
 10
233.2787111652804
 20
384.6050430916885
 30
0.0
 11
233.2787111652804
 21
377.755043091689
 31
0.0
  0
LINE
  5
1F2D
330
1F
100
AcDbEntity
  8
0
  6
Continuous
 48
2.5
100
AcDbLine
 10
233.4787111652802
 20
377.9550430916888
 30
0.0
 11
233.2787111652804
 21
377.755043091689
 31
0.0
  0
LINE
  5
1F2E
330
1F
100
AcDbEntity
  8
0
  6
Continuous
 48
2.5
100
AcDbLine
 10
233.2787111652804
 20
384.6050430916885
 30
0.0
 11
233.4787111652802
 21
385.005043091689
 31
0.0
  0
ARC
  5
1F2F
330
1F
100
AcDbEntity
  8
0
  6
Continuous
 48
2.5
100
AcDbCircle
 10
232.4787111652804
 20
385.755043091689
 30
0.0
 40
0.5
100
AcDbArc
 50
270.0
 51
0.0
  0
LINE
  5
1F30
330
1F
100
AcDbEntity
  8
0
  6
Continuous
 48
2.5
100
AcDbLine
 10
225.7787111652803
 20
395.505043091689
 30
0.0
 11
225.7787111652803
 21
388.2050430916888
 31
0.0
  0
LINE
  5
1F31
330
1F
100
AcDbEntity
  8
0
  6
Continuous
 48
2.5
100
AcDbLine
 10
225.3787111652807
 20
395.1050430916885
 30
0.0
 11
225.3787111652807
 21
388.2050430916888
 31
0.0
  0
LINE
  5
1F32
330
1F
100
AcDbEntity
  8
0
  6
Continuous
 48
2.5
100
AcDbLine
 10
225.3787111652807
 20
395.1050430916885
 30
0.0
 11
225.7787111652803
 21
395.505043091689
 31
0.0
  0
CIRCLE
  5
1F33
330
1F
100
AcDbEntity
  8
0
  6
Continuous
 48
2.5
100
AcDbCircle
 10
277.9795850485251
 20
385.2550430916892
 30
0.0
 40
2.067
  0
ARC
  5
1F34
330
1F
100
AcDbEntity
  8
AM_4
  6
Continuous
 48
2.5
100
AcDbCircle
 10
277.9795850485251
 20
385.2550430916892
 30
0.0
 40
2.5
100
AcDbArc
 50
350.000000000003
 51
280.000000000005
  0
CIRCLE
  5
1F35
330
1F
100
AcDbEntity
  8
0
  6
Continuous
 48
2.5
100
AcDbCircle
 10
228.9817742714956
 20
299.6000579663107
 30
0.0
 40
4.0
  0
LINE
  5
1F36
102
{ACAD_REACTORS
330
20B3
330
20CF
102
}
330
1F
100
AcDbEntity
  8
0
  6
Continuous
 48
2.5
100
AcDbLine
 10
210.4795850485245
 20
274.2000579663105
 30
0.0
 11
210.4795850485245
 21
313.4000579663107
 31
0.0
  0
LINE
  5
1F37
330
1F
100
AcDbEntity
  8
0
  6
Continuous
 48
2.5
100
AcDbLine
 10
210.8795850485244
 20
273.8000579663104
 30
0.0
 11
210.8795850485246
 21
313.8000579663105
 31
0.0
  0
LINE
  5
1F38
102
{ACAD_REACTORS
330
20CF
102
}
330
1F
100
AcDbEntity
  8
0
  6
Continuous
 48
2.5
100
AcDbLine
 10
233.4795850485243
 20
313.6000579663107
 30
0.0
 11
233.4771620538993
 21
273.9976349716853
 31
0.0
  0
LINE
  5
1F39
102
{ACAD_REACTORS
330
2109
102
}
330
1F
100
AcDbEntity
  8
0
  6
Continuous
 48
2.5
100
AcDbLine
 10
233.2795850485245
 20
273.8000579663106
 30
0.0
 11
233.2795850485245
 21
313.8000579663108
 31
0.0
  0
LINE
  5
1F3A
330
1F
100
AcDbEntity
  8
0
  6
Continuous
 48
2.5
100
AcDbLine
 10
210.8787111652807
 20
400.4050430916886
 30
0.0
 11
225.3787111652807
 21
400.4050430916886
 31
0.0
  0
LINE
  5
1F3B
330
1F
100
AcDbEntity
  8
0
  6
Continuous
 48
2.5
100
AcDbLine
 10
210.4787111652802
 20
400.005043091689
 30
0.0
 11
225.7787111652803
 21
400.005043091689
 31
0.0
  0
LINE
  5
1F3C
330
1F
100
AcDbEntity
  8
0
  6
Continuous
 48
2.5
100
AcDbLine
 10
210.8787111652807
 20
412.755043091689
 30
0.0
 11
233.2787111652804
 21
412.755043091689
 31
0.0
  0
ARC
  5
1F3D
330
1F
100
AcDbEntity
  8
AM_4
  6
Continuous
 48
2.5
100
AcDbCircle
 10
218.9817742714956
 20
293.8000579663107
 30
0.0
 40
4.849999999999999
100
AcDbArc
 50
186.5114669976764
 51
96.51146699767982
  0
LINE
  5
1F3E
330
1F
100
AcDbEntity
  8
0
  6
Continuous
 48
2.5
100
AcDbLine
 10
210.8787111652807
 20
417.7550430916889
 30
0.0
 11
233.2787111652804
 21
417.7550430916889
 31
0.0
  0
LINE
  5
1F3F
330
1F
100
AcDbEntity
  8
0
  6
Continuous
 48
2.5
100
AcDbLine
 10
210.8787111652807
 20
416.9225626327042
 30
0.0
 11
233.2787111652804
 21
416.9225626327042
 31
0.0
  0
LINE
  5
1F40
330
1F
100
AcDbEntity
  8
0
  6
Continuous
 48
2.5
100
AcDbLine
 10
210.8795850485244
 20
273.8000579663106
 30
0.0
 11
233.2795850485245
 21
273.8000579663106
 31
0.0
  0
LINE
  5
1F41
330
1F
100
AcDbEntity
  8
0
  6
Continuous
 48
2.5
100
AcDbLine
 10
233.2795850485245
 20
274.1100279558739
 30
0.0
 11
210.8795850485244
 21
274.1100279558739
 31
0.0
  0
LINE
  5
1F42
330
1F
100
AcDbEntity
  8
0
  6
Continuous
 48
2.5
100
AcDbLine
 10
233.2795850485245
 20
278.6728914187955
 30
0.0
 11
210.8795850485244
 21
278.6728914187955
 31
0.0
  0
CIRCLE
  5
1F43
330
1F
100
AcDbEntity
  8
0
  6
Continuous
 48
2.5
100
AcDbCircle
 10
218.9817742714956
 20
293.8000579663107
 30
0.0
 40
7.0
  0
LINE
  5
1F44
330
1F
100
AcDbEntity
  8
0
  6
Continuous
 48
2.5
100
AcDbLine
 10
210.8787111652807
 20
417.7550430916889
 30
0.0
 11
210.8787111652807
 21
400.4050430916886
 31
0.0
  0
LINE
  5
1F45
330
1F
100
AcDbEntity
  8
0
  6
Continuous
 48
2.5
100
AcDbLine
 10
210.8787111652807
 20
400.4050430916886
 30
0.0
 11
210.4787111652802
 21
400.005043091689
 31
0.0
  0
LINE
  5
1F46
330
1F
100
AcDbEntity
  8
0
  6
Continuous
 48
2.5
100
AcDbLine
 10
210.4787111652802
 20
417.3550430916884
 30
0.0
 11
210.8787111652807
 21
417.7550430916889
 31
0.0
  0
LINE
  5
1F47
330
1F
100
AcDbEntity
  8
0
  6
Continuous
 48
2.5
100
AcDbLine
 10
210.8795850485246
 20
273.8000579663104
 30
0.0
 11
210.4795850485245
 21
274.2000579663105
 31
0.0
  0
CIRCLE
  5
1F48
330
1F
100
AcDbEntity
  8
0
  6
Continuous
 48
2.5
100
AcDbCircle
 10
218.9817742714956
 20
293.8000579663107
 30
0.0
 40
4.299999999999999
  0
LINE
  5
1F49
330
1F
100
AcDbEntity
  8
0
  6
Continuous
 48
2.5
100
AcDbLine
 10
232.9787111652804
 20
404.7550430916889
 30
0.0
 11
254.4795850485249
 21
404.7550430916889
 31
0.0
  0
LINE
  5
1F4A
330
1F
100
AcDbEntity
  8
0
  6
Continuous
 48
2.5
100
AcDbLine
 10
233.2787111652804
 20
417.7550430916889
 30
0.0
 11
233.2787111652804
 21
410.9050430916886
 31
0.0
  0
LINE
  5
1F4B
330
1F
100
AcDbEntity
  8
0
  6
Continuous
 48
2.5
100
AcDbLine
 10
233.4787111652802
 20
417.5550430916882
 30
0.0
 11
233.4787111652802
 21
404.7550430916889
 31
0.0
  0
ARC
  5
1F4C
330
1F
100
AcDbEntity
  8
0
  6
Continuous
 48
2.5
100
AcDbCircle
 10
228.9787111652802
 20
407.3050430916884
 30
0.0
 40
3.6
100
AcDbArc
 50
90.0
 51
180.0
  0
LINE
  5
1F4D
330
1F
100
AcDbEntity
  8
0
  6
Continuous
 48
2.5
100
AcDbLine
 10
229.2787111652804
 20
410.255043091689
 30
0.0
 11
232.4787111652804
 21
410.255043091689
 31
0.0
  0
LINE
  5
1F4E
330
1F
100
AcDbEntity
  8
0
  6
Continuous
 48
2.5
100
AcDbLine
 10
228.9787111652802
 20
410.9050430916886
 30
0.0
 11
233.2787111652804
 21
410.9050430916886
 31
0.0
  0
LINE
  5
1F4F
330
1F
100
AcDbEntity
  8
0
  6
Continuous
 48
2.5
100
AcDbLine
 10
228.9787111652802
 20
410.505043091689
 30
0.0
 11
233.4787111652802
 21
410.505043091689
 31
0.0
  0
CIRCLE
  5
1F50
330
1F
100
AcDbEntity
  8
0
  6
Continuous
 48
2.5
100
AcDbCircle
 10
229.3787111652805
 20
406.505043091689
 30
0.0
 40
3.25
  0
CIRCLE
  5
1F51
330
1F
100
AcDbEntity
  8
0
  6
Continuous
 48
2.5
100
AcDbCircle
 10
229.3787111652805
 20
406.505043091689
 30
0.0
 40
1.75
  0
LINE
  5
1F52
330
1F
100
AcDbEntity
  8
0
  6
Continuous
 48
2.5
100
AcDbLine
 10
225.3787111652807
 20
400.4050430916886
 30
0.0
 11
225.3787111652807
 21
407.3050430916882
 31
0.0
  0
LINE
  5
1F53
330
1F
100
AcDbEntity
  8
0
  6
Continuous
 48
2.5
100
AcDbLine
 10
225.7787111652803
 20
400.005043091689
 30
0.0
 11
225.7787111652803
 21
407.3050430916882
 31
0.0
  0
LINE
  5
1F54
330
1F
100
AcDbEntity
  8
0
  6
Continuous
 48
2.5
100
AcDbLine
 10
225.3787111652807
 20
400.4050430916886
 30
0.0
 11
225.7787111652803
 21
400.005043091689
 31
0.0
  0
ARC
  5
1F55
330
1F
100
AcDbEntity
  8
0
  6
Continuous
 48
2.5
100
AcDbCircle
 10
229.2787111652804
 20
406.755043091689
 30
0.0
 40
3.5
100
AcDbArc
 50
90.0
 51
180.0
  0
ARC
  5
1F56
330
1F
100
AcDbEntity
  8
0
  6
Continuous
 48
2.5
100
AcDbCircle
 10
228.9787111652802
 20
407.3050430916884
 30
0.0
 40
3.2
100
AcDbArc
 50
90.0
 51
180.0
  0
ARC
  5
1F57
330
1F
100
AcDbEntity
  8
0
  6
Continuous
 48
2.5
100
AcDbCircle
 10
232.4787111652804
 20
409.7550430916889
 30
0.0
 40
0.5
100
AcDbArc
 50
0.0
 51
90.0
  0
LINE
  5
1F58
330
1F
100
AcDbEntity
  8
0
  6
Continuous
 48
2.5
100
AcDbLine
 10
233.2787111652804
 20
410.9050430916886
 30
0.0
 11
233.4787111652802
 21
410.505043091689
 31
0.0
  0
LINE
  5
1F59
330
1F
100
AcDbEntity
  8
0
  6
Continuous
 48
2.5
100
AcDbLine
 10
233.4787111652802
 20
417.5550430916882
 30
0.0
 11
233.2787111652804
 21
417.7550430916889
 31
0.0
  0
CIRCLE
  5
1F5A
330
1F
100
AcDbEntity
  8
0
  6
Continuous
 48
2.5
100
AcDbCircle
 10
277.9795850485251
 20
410.2550430916892
 30
0.0
 40
2.067
  0
ARC
  5
1F5B
330
1F
100
AcDbEntity
  8
AM_4
  6
Continuous
 48
2.5
100
AcDbCircle
 10
277.9795850485251
 20
410.2550430916892
 30
0.0
 40
2.5
100
AcDbArc
 50
350.000000000003
 51
280.000000000005
  0
LINE
  5
1F5C
330
1F
100
AcDbEntity
  8
0
  6
Continuous
 48
2.5
100
AcDbLine
 10
233.4795850485243
 20
274.0000579663107
 30
0.0
 11
233.2795850485245
 21
273.8000579663106
 31
0.0
  0
CIRCLE
  5
1F5D
330
1F
100
AcDbEntity
  8
0
  6
Continuous
 48
2.5
100
AcDbCircle
 10
228.9817742714956
 20
299.6000579663107
 30
0.0
 40
2.9
  0
LINE
  5
1F5E
330
1F
100
AcDbEntity
  8
0
  6
Continuous
 48
2.5
100
AcDbLine
 10
231.4122786049818
 20
298.0180817702494
 30
0.0
 11
227.3997980754341
 21
302.0305622997967
 31
0.0
  0
LINE
  5
1F5F
330
1F
100
AcDbEntity
  8
0
  6
Continuous
 48
2.5
100
AcDbLine
 10
230.5637504675581
 20
297.169553632825
 30
0.0
 11
226.5512699380099
 21
301.1820341623729
 31
0.0
  0
LINE
  5
1F60
330
1F
100
AcDbEntity
  8
0
  6
Continuous
 48
2.5
100
AcDbLine
 10
233.2795850485245
 20
308.6684054687235
 30
0.0
 11
210.8795850485244
 21
308.6684054687235
 31
0.0
  0
LINE
  5
1F61
330
1F
100
AcDbEntity
  8
0
  6
Continuous
 48
2.5
100
AcDbLine
 10
233.2795850485245
 20
313.8000579663108
 30
0.0
 11
210.8795850485244
 21
313.8000579663108
 31
0.0
  0
LINE
  5
1F62
330
1F
100
AcDbEntity
  8
0
  6
Continuous
 48
2.5
100
AcDbLine
 10
233.2795850485245
 20
312.7434336392848
 30
0.0
 11
210.8795850485244
 21
312.7434336392848
 31
0.0
  0
LINE
  5
1F63
330
1F
100
AcDbEntity
  8
0
  6
Continuous
 48
2.5
100
AcDbLine
 10
210.8795850485246
 20
313.8000579663105
 30
0.0
 11
210.4795850485245
 21
313.4000579663107
 31
0.0
  0
LINE
  5
1F64
330
1F
100
AcDbEntity
  8
0
  6
Continuous
 48
2.5
100
AcDbLine
 10
254.9795850485245
 20
325.8000579663108
 30
0.0
 11
259.4795850485245
 21
325.8000579663108
 31
0.0
  0
ARC
  5
1F65
330
1F
100
AcDbEntity
  8
0
  6
Continuous
 48
2.5
100
AcDbCircle
 10
254.9795850485245
 20
325.3000579663108
 30
0.0
 40
0.5
100
AcDbArc
 50
90.0
 51
180.0
  0
LINE
  5
1F66
102
{ACAD_REACTORS
330
210C
102
}
330
1F
100
AcDbEntity
  8
0
  6
Continuous
 48
2.5
100
AcDbLine
 10
233.4794749191435
 20
311.8000579663105
 30
0.0
 11
255.4784904370388
 21
311.8000579663105
 31
0.0
  0
LINE
  5
1F67
330
1F
100
AcDbEntity
  8
0
  6
Continuous
 48
2.5
100
AcDbLine
 10
233.4795850485243
 20
313.6000579663107
 30
0.0
 11
233.2795850485245
 21
313.8000579663108
 31
0.0
  0
LINE
  5
1F68
330
1F
100
AcDbEntity
  8
0
  6
Continuous
 48
2.5
100
AcDbLine
 10
254.4795850485245
 20
311.800057966311
 30
0.0
 11
254.4795850485245
 21
325.3000579663108
 31
0.0
  0
LINE
  5
1F69
330
1F
100
AcDbEntity
  8
0
  6
Continuous
 48
2.5
100
AcDbLine
 10
259.4795850485245
 20
313.3000579663108
 30
0.0
 11
259.4795850485245
 21
326.3000579663108
 31
0.0
  0
LINE
  5
1F6A
330
1F
100
AcDbEntity
  8
AM_7
100
AcDbLine
 10
277.979585048525
 20
327.7376597284146
 30
0.0
 11
277.979585048525
 21
313.1312784090269
 31
0.0
  0
LINE
  5
1F6B
330
1F
100
AcDbEntity
  8
0
  6
Continuous
 48
2.5
100
AcDbLine
 10
259.4795850485247
 20
311.800057966311
 30
0.0
 11
259.4795850485245
 21
325.8000579663108
 31
0.0
  0
LINE
  5
1F6C
330
1F
100
AcDbEntity
  8
0
  6
Continuous
 48
2.5
100
AcDbLine
 10
233.2795850485247
 20
186.7737868129802
 30
0.0
 11
210.8795850485251
 21
186.7737868129802
 31
0.0
  0
LINE
  5
1F6D
330
1F
100
AcDbEntity
  8
0
  6
Continuous
 48
2.5
100
AcDbLine
 10
210.8795850485251
 20
188.3513811135903
 30
0.0
 11
233.2795850485247
 21
188.3513811135903
 31
0.0
  0
CIRCLE
  5
1F6E
330
1F
100
AcDbEntity
  8
0
  6
Continuous
 48
2.5
100
AcDbCircle
 10
218.979585048525
 20
206.7737868129802
 30
0.0
 40
7.0
  0
ARC
  5
1F6F
330
1F
100
AcDbEntity
  8
AM_4
  6
Continuous
 48
2.5
100
AcDbCircle
 10
218.979585048525
 20
206.7737868129802
 30
0.0
 40
4.849999999999999
100
AcDbArc
 50
276.5114669976798
 51
186.5114669976848
  0
LINE
  5
1F70
330
1F
100
AcDbEntity
  8
0
  6
Continuous
 48
2.5
100
AcDbLine
 10
210.8795850485251
 20
226.7737868129803
 30
0.0
 11
233.2795850485247
 21
226.7737868129803
 31
0.0
  0
LINE
  5
1F71
330
1F
100
AcDbEntity
  8
0
  6
Continuous
 48
2.5
100
AcDbLine
 10
210.8795850485251
 20
225.1961925123701
 30
0.0
 11
233.2795850485247
 21
225.1961925123701
 31
0.0
  0
LINE
  5
1F72
330
1F
100
AcDbEntity
  8
0
  6
Continuous
 48
2.5
100
AcDbLine
 10
210.8795850485251
 20
226.7737868129803
 30
0.0
 11
210.8795850485253
 21
206.7737868129802
 31
0.0
  0
LINE
  5
1F73
102
{ACAD_REACTORS
330
20BA
102
}
330
1F
100
AcDbEntity
  8
0
  6
Continuous
 48
2.5
100
AcDbLine
 10
210.4795850485245
 20
226.3737868129797
 30
0.0
 11
210.4795850485245
 21
187.1737868129798
 31
0.0
  0
LINE
  5
1F74
102
{ACAD_REACTORS
330
20BA
102
}
330
1F
100
AcDbEntity
  8
AM_7
100
AcDbLine
 10
218.9795850485248
 20
214.3952506010665
 30
0.0
 11
218.9795850485248
 21
198.9581705831992
 31
0.0
  0
CIRCLE
  5
1F75
330
1F
100
AcDbEntity
  8
0
  6
Continuous
 48
2.5
100
AcDbCircle
 10
218.979585048525
 20
206.7737868129802
 30
0.0
 40
4.299999999999999
  0
LINE
  5
1F76
330
1F
100
AcDbEntity
  8
0
  6
Continuous
 48
2.5
100
AcDbLine
 10
210.8795850485251
 20
206.7737868129802
 30
0.0
 11
210.8795850485251
 21
186.7737868129802
 31
0.0
  0
LINE
  5
1F77
330
1F
100
AcDbEntity
  8
0
  6
Continuous
 48
2.5
100
AcDbLine
 10
210.4795850485245
 20
187.1737868129798
 30
0.0
 11
210.8795850485251
 21
186.7737868129802
 31
0.0
  0
LINE
  5
1F78
330
1F
100
AcDbEntity
  8
0
  6
Continuous
 48
2.5
100
AcDbLine
 10
210.4795850485245
 20
226.3737868129797
 30
0.0
 11
210.8795850485251
 21
226.7737868129803
 31
0.0
  0
LINE
  5
1F79
330
1F
100
AcDbEntity
  8
0
  6
Continuous
 48
2.5
100
AcDbLine
 10
233.2795850485247
 20
226.7737868129803
 30
0.0
 11
233.2795850485247
 21
206.7737868129802
 31
0.0
  0
LINE
  5
1F7A
330
1F
100
AcDbEntity
  8
0
  6
Continuous
 48
2.5
100
AcDbLine
 10
233.4795850485245
 20
226.5737868129795
 30
0.0
 11
233.4795850485248
 21
206.7737868129802
 31
0.0
  0
LINE
  5
1F7B
330
1F
100
AcDbEntity
  8
0
  6
Continuous
 48
2.5
100
AcDbLine
 10
233.2795850485247
 20
206.7737868129802
 30
0.0
 11
233.2795850485247
 21
186.7737868129802
 31
0.0
  0
LINE
  5
1F7C
330
1F
100
AcDbEntity
  8
0
  6
Continuous
 48
2.5
100
AcDbLine
 10
233.4795850485248
 20
206.7737868129802
 30
0.0
 11
233.4795850485245
 21
186.97378681298
 31
0.0
  0
LINE
  5
1F7D
330
1F
100
AcDbEntity
  8
0
  6
Continuous
 48
2.5
100
AcDbLine
 10
233.4795850485245
 20
186.97378681298
 30
0.0
 11
233.2795850485247
 21
186.7737868129802
 31
0.0
  0
LINE
  5
1F7E
330
1F
100
AcDbEntity
  8
0
  6
Continuous
 48
2.5
100
AcDbLine
 10
233.4795850485245
 20
226.5737868129795
 30
0.0
 11
233.2795850485247
 21
226.7737868129803
 31
0.0
  0
LINE
  5
1F7F
330
1F
100
AcDbEntity
  8
AM_7
100
AcDbLine
 10
310.4795850485246
 20
417.4443731737474
 30
0.0
 11
310.4795850485246
 21
378.0289238281828
 31
0.0
  0
LINE
  5
1F80
330
1F
100
AcDbEntity
  8
0
  6
Continuous
 48
2.5
100
AcDbLine
 10
410.4795850485245
 20
417.3550430916884
 30
0.0
 11
410.4795850485245
 21
378.1550430916886
 31
0.0
  0
LINE
  5
1F81
330
1F
100
AcDbEntity
  8
0
  6
Continuous
 48
2.5
100
AcDbLine
 10
409.9795850485243
 20
400.005043091689
 30
0.0
 11
409.9795850485243
 21
395.505043091689
 31
0.0
  0
ARC
  5
1F82
330
1F
100
AcDbEntity
  8
AM_4
  6
Continuous
 48
2.5
100
AcDbCircle
 10
399.9795850485243
 20
397.755043091689
 30
0.0
 40
2.0
100
AcDbArc
 50
197.1348731714536
 51
106.3882816731395
  0
ARC
  5
1F83
330
1F
100
AcDbEntity
  8
AM_4
  6
Continuous
 48
2.5
100
AcDbCircle
 10
405.4795850485243
 20
397.755043091689
 30
0.0
 40
2.0
100
AcDbArc
 50
197.1348731714536
 51
106.3882816731395
  0
LINE
  5
1F84
330
1F
100
AcDbEntity
  8
0
  6
Continuous
 48
2.5
100
AcDbLine
 10
366.4795850485244
 20
381.255043091689
 30
0.0
 11
366.4795850485246
 21
414.2550430916892
 31
0.0
  0
LINE
  5
1F85
102
{ACAD_REACTORS
330
20C6
102
}
330
1F
100
AcDbEntity
  8
0
  6
Continuous
 48
2.5
100
AcDbLine
 10
361.4795850485242
 20
381.2550430916892
 30
0.0
 11
361.4795850485247
 21
414.2550430916892
 31
0.0
  0
LINE
  5
1F86
330
1F
100
AcDbEntity
  8
0
  6
Continuous
 48
2.5
100
AcDbLine
 10
387.9795850485243
 20
409.7550430916889
 30
0.0
 11
387.9795850485243
 21
385.755043091689
 31
0.0
  0
LINE
  5
1F87
330
1F
100
AcDbEntity
  8
0
  6
Continuous
 48
2.5
100
AcDbLine
 10
395.1795850485244
 20
406.755043091689
 30
0.0
 11
395.1795850485241
 21
388.755043091689
 31
0.0
  0
CIRCLE
  5
1F88
330
1F
100
AcDbEntity
  8
0
  6
Continuous
 48
2.5
100
AcDbCircle
 10
342.9795850485242
 20
385.2550430916892
 30
0.0
 40
2.067
  0
ARC
  5
1F89
330
1F
100
AcDbEntity
  8
AM_4
  6
Continuous
 48
2.5
100
AcDbCircle
 10
342.9795850485242
 20
385.2550430916892
 30
0.0
 40
2.5
100
AcDbArc
 50
259.999999999995
 51
189.999999999997
  0
LINE
  5
1F8A
330
1F
100
AcDbEntity
  8
0
  6
Continuous
 48
2.5
100
AcDbLine
 10
387.9795850485243
 20
390.755043091689
 30
0.0
 11
366.4795850485244
 21
390.755043091689
 31
0.0
  0
LINE
  5
1F8B
330
1F
100
AcDbEntity
  8
0
  6
Continuous
 48
2.5
100
AcDbLine
 10
387.6795850485244
 20
382.8866955892763
 30
0.0
 11
410.079585048524
 21
382.8866955892763
 31
0.0
  0
LINE
  5
1F8C
330
1F
100
AcDbEntity
  8
0
  6
Continuous
 48
2.5
100
AcDbLine
 10
387.6795850485244
 20
378.5875235506728
 30
0.0
 11
410.079585048524
 21
378.5875235506728
 31
0.0
  0
LINE
  5
1F8D
330
1F
100
AcDbEntity
  8
0
  6
Continuous
 48
2.5
100
AcDbLine
 10
387.6795850485244
 20
377.755043091689
 30
0.0
 11
410.079585048524
 21
377.755043091689
 31
0.0
  0
LINE
  5
1F8E
330
1F
100
AcDbEntity
  8
0
  6
Continuous
 48
2.5
100
AcDbLine
 10
391.9795850485245
 20
385.0050430916881
 30
0.0
 11
387.4795850485245
 21
385.005043091689
 31
0.0
  0
LINE
  5
1F8F
330
1F
100
AcDbEntity
  8
0
  6
Continuous
 48
2.5
100
AcDbLine
 10
391.9795850485245
 20
384.6050430916885
 30
0.0
 11
387.6795850485244
 21
384.6050430916885
 31
0.0
  0
LINE
  5
1F90
330
1F
100
AcDbEntity
  8
0
  6
Continuous
 48
2.5
100
AcDbLine
 10
387.4795850485245
 20
390.755043091689
 30
0.0
 11
387.4795850485245
 21
377.9550430916888
 31
0.0
  0
LINE
  5
1F91
330
1F
100
AcDbEntity
  8
0
  6
Continuous
 48
2.5
100
AcDbLine
 10
387.6795850485244
 20
384.6050430916885
 30
0.0
 11
387.6795850485244
 21
377.755043091689
 31
0.0
  0
LINE
  5
1F92
330
1F
100
AcDbEntity
  8
0
  6
Continuous
 48
2.5
100
AcDbLine
 10
387.4795850485245
 20
377.9550430916888
 30
0.0
 11
387.6795850485244
 21
377.755043091689
 31
0.0
  0
LINE
  5
1F93
330
1F
100
AcDbEntity
  8
0
  6
Continuous
 48
2.5
100
AcDbLine
 10
387.6795850485244
 20
384.6050430916885
 30
0.0
 11
387.4795850485245
 21
385.005043091689
 31
0.0
  0
CIRCLE
  5
1F94
330
1F
100
AcDbEntity
  8
0
  6
Continuous
 48
2.5
100
AcDbCircle
 10
405.4795850485243
 20
397.755043091689
 30
0.0
 40
1.6
  0
LINE
  5
1F95
330
1F
100
AcDbEntity
  8
0
  6
Continuous
 48
2.5
100
AcDbLine
 10
410.4795850485245
 20
395.505043091689
 30
0.0
 11
395.1795850485244
 21
395.505043091689
 31
0.0
  0
LINE
  5
1F96
330
1F
100
AcDbEntity
  8
0
  6
Continuous
 48
2.5
100
AcDbLine
 10
410.079585048524
 20
395.1050430916885
 30
0.0
 11
395.579585048524
 21
395.1050430916885
 31
0.0
  0
CIRCLE
  5
1F97
330
1F
100
AcDbEntity
  8
0
  6
Continuous
 48
2.5
100
AcDbCircle
 10
391.5795850485242
 20
389.005043091689
 30
0.0
 40
1.75
  0
ARC
  5
1F98
330
1F
100
AcDbEntity
  8
0
  6
Continuous
 48
2.5
100
AcDbCircle
 10
391.9795850485245
 20
388.2050430916891
 30
0.0
 40
3.6
100
AcDbArc
 50
270.0
 51
0.0
  0
ARC
  5
1F99
330
1F
100
AcDbEntity
  8
0
  6
Continuous
 48
2.5
100
AcDbCircle
 10
391.9795850485245
 20
388.2050430916891
 30
0.0
 40
3.2
100
AcDbArc
 50
270.0
 51
0.0
  0
ARC
  5
1F9A
330
1F
100
AcDbEntity
  8
0
  6
Continuous
 48
2.5
100
AcDbCircle
 10
391.6795850485241
 20
388.755043091689
 30
0.0
 40
3.5
100
AcDbArc
 50
270.0
 51
0.0
  0
CIRCLE
  5
1F9B
330
1F
100
AcDbEntity
  8
0
  6
Continuous
 48
2.5
100
AcDbCircle
 10
391.5795850485242
 20
389.005043091689
 30
0.0
 40
3.25
  0
ARC
  5
1F9C
330
1F
100
AcDbEntity
  8
0
  6
Continuous
 48
2.5
100
AcDbCircle
 10
388.4795850485243
 20
385.755043091689
 30
0.0
 40
0.5
100
AcDbArc
 50
180.0
 51
270.0
  0
LINE
  5
1F9D
330
1F
100
AcDbEntity
  8
0
  6
Continuous
 48
2.5
100
AcDbLine
 10
391.6795850485241
 20
385.255043091689
 30
0.0
 11
388.4795850485243
 21
385.255043091689
 31
0.0
  0
LINE
  5
1F9E
330
1F
100
AcDbEntity
  8
0
  6
Continuous
 48
2.5
100
AcDbLine
 10
395.579585048524
 20
395.1050430916885
 30
0.0
 11
395.579585048524
 21
388.2050430916888
 31
0.0
  0
LINE
  5
1F9F
330
1F
100
AcDbEntity
  8
0
  6
Continuous
 48
2.5
100
AcDbLine
 10
395.1795850485244
 20
395.505043091689
 30
0.0
 11
395.1795850485244
 21
388.2050430916888
 31
0.0
  0
LINE
  5
1FA0
330
1F
100
AcDbEntity
  8
0
  6
Continuous
 48
2.5
100
AcDbLine
 10
395.579585048524
 20
395.1050430916885
 30
0.0
 11
395.1795850485244
 21
395.505043091689
 31
0.0
  0
CIRCLE
  5
1FA1
330
1F
100
AcDbEntity
  8
0
  6
Continuous
 48
2.5
100
AcDbCircle
 10
399.9795850485243
 20
397.755043091689
 30
0.0
 40
1.6
  0
LINE
  5
1FA2
330
1F
100
AcDbEntity
  8
0
  6
Continuous
 48
2.5
100
AcDbLine
 10
410.079585048524
 20
395.1050430916885
 30
0.0
 11
410.079585048524
 21
377.755043091689
 31
0.0
  0
LINE
  5
1FA3
330
1F
100
AcDbEntity
  8
0
  6
Continuous
 48
2.5
100
AcDbLine
 10
410.4795850485245
 20
378.1550430916886
 30
0.0
 11
410.079585048524
 21
377.755043091689
 31
0.0
  0
LINE
  5
1FA4
330
1F
100
AcDbEntity
  8
0
  6
Continuous
 48
2.5
100
AcDbLine
 10
410.079585048524
 20
395.1050430916885
 30
0.0
 11
410.4795850485245
 21
395.505043091689
 31
0.0
  0
LINE
  5
1FA5
330
1F
100
AcDbEntity
  8
AM_7
100
AcDbLine
 10
498.5922405908058
 20
320.8000579663107
 30
0.0
 11
491.2022752004286
 21
320.8000579663107
 31
0.0
  0
ARC
  5
1FA6
330
1F
100
AcDbEntity
  8
0
  6
Continuous
 48
2.5
100
AcDbCircle
 10
494.8831107699352
 20
321.3000579663108
 30
0.0
 40
1.7
100
AcDbArc
 50
0.0
 51
180.0
  0
ARC
  5
1FA7
330
1F
100
AcDbEntity
  8
0
  6
Continuous
 48
2.5
100
AcDbCircle
 10
494.8831107699352
 20
321.3000579663108
 30
0.0
 40
3.25
100
AcDbArc
 50
0.0
 51
180.0
  0
LINE
  5
1FA8
330
1F
100
AcDbEntity
  8
0
  6
Continuous
 48
2.5
100
AcDbLine
 10
499.4991361737352
 20
326.3000579663108
 30
0.0
 11
489.8331107699353
 21
326.3000579663108
 31
0.0
  0
CIRCLE
  5
1FA9
330
1F
100
AcDbEntity
  8
0
  6
Continuous
 48
2.5
100
AcDbCircle
 10
492.6331107699352
 20
307.3000579663108
 30
0.0
 40
5.399999999999636
  0
CIRCLE
  5
1FAA
330
1F
100
AcDbEntity
  8
0
  6
Continuous
 48
2.5
100
AcDbCircle
 10
492.6331107699352
 20
307.3000579663108
 30
0.0
 40
3.799999999999999
  0
ARC
  5
1FAB
330
1F
100
AcDbEntity
  8
0
  6
Continuous
 48
2.5
100
AcDbCircle
 10
494.8831107699352
 20
320.3000579663108
 30
0.0
 40
1.7
100
AcDbArc
 50
180.0
 51
0.0
  0
ARC
  5
1FAC
330
1F
100
AcDbEntity
  8
0
  6
Continuous
 48
2.5
100
AcDbCircle
 10
494.8831107699352
 20
320.3000579663108
 30
0.0
 40
3.25
100
AcDbArc
 50
180.0
 51
0.0
  0
LINE
  5
1FAD
330
1F
100
AcDbEntity
  8
0
  6
Continuous
 48
2.5
100
AcDbLine
 10
522.6331107699352
 20
325.8000579663108
 30
0.0
 11
489.6331107699352
 21
325.8000579663108
 31
0.0
  0
LINE
  5
1FAE
102
{ACAD_REACTORS
330
20DB
102
}
330
1F
100
AcDbEntity
  8
0
  6
Continuous
 48
2.5
100
AcDbLine
 10
491.2647632675225
 20
313.8000579663108
 30
0.0
 11
503.4831107699349
 21
313.8000579663105
 31
0.0
  0
CIRCLE
  5
1FAF
330
1F
100
AcDbEntity
  8
0
  6
Continuous
 48
2.5
100
AcDbCircle
 10
492.6331107699352
 20
280.3000579663106
 30
0.0
 40
5.399999999999636
  0
CIRCLE
  5
1FB0
330
1F
100
AcDbEntity
  8
0
  6
Continuous
 48
2.5
100
AcDbCircle
 10
492.6331107699352
 20
280.3000579663106
 30
0.0
 40
3.799999999999999
  0
LINE
  5
1FB1
102
{ACAD_REACTORS
330
20DB
330
20DE
330
20E4
102
}
330
1F
100
AcDbEntity
  8
0
  6
Continuous
 48
2.5
100
AcDbLine
 10
523.642374325811
 20
273.8000579663106
 30
0.0
 11
488.6238472140584
 21
273.8000579663106
 31
0.0
  0
CIRCLE
  5
1FB2
330
1F
100
AcDbEntity
  8
0
  6
Continuous
 48
2.5
100
AcDbCircle
 10
391.9795850485245
 20
299.6000579663107
 30
0.0
 40
4.0
  0
LINE
  5
1FB3
102
{ACAD_REACTORS
330
20B3
330
20BD
330
20C0
330
20CC
102
}
330
1F
100
AcDbEntity
  8
0
  6
Continuous
 48
2.5
100
AcDbLine
 10
410.4795850485245
 20
274.2000579663107
 30
0.0
 11
410.4795850485245
 21
313.4000579663109
 31
0.0
  0
LINE
  5
1FB4
330
1F
100
AcDbEntity
  8
0
  6
Continuous
 48
2.5
100
AcDbLine
 10
410.0795850485246
 20
273.8000579663106
 30
0.0
 11
410.0795850485244
 21
313.8000579663108
 31
0.0
  0
LINE
  5
1FB5
330
1F
100
AcDbEntity
  8
0
  6
Continuous
 48
2.5
100
AcDbLine
 10
387.6795850485244
 20
273.8000579663106
 30
0.0
 11
387.6795850485244
 21
313.8000579663108
 31
0.0
  0
LINE
  5
1FB6
330
1F
100
AcDbEntity
  8
0
  6
Continuous
 48
2.5
100
AcDbLine
 10
387.4795850485245
 20
313.6000579663107
 30
0.0
 11
387.4820080431496
 21
273.9976349716853
 31
0.0
  0
CIRCLE
  5
1FB7
330
1F
100
AcDbEntity
  8
0
  6
Continuous
 48
2.5
100
AcDbCircle
 10
342.9795850485242
 20
410.2550430916892
 30
0.0
 40
2.067
  0
ARC
  5
1FB8
330
1F
100
AcDbEntity
  8
AM_4
  6
Continuous
 48
2.5
100
AcDbCircle
 10
342.9795850485242
 20
410.2550430916892
 30
0.0
 40
2.5
100
AcDbArc
 50
259.999999999995
 51
189.999999999997
  0
LINE
  5
1FB9
330
1F
100
AcDbEntity
  8
0
  6
Continuous
 48
2.5
100
AcDbLine
 10
410.079585048524
 20
416.9225626327042
 30
0.0
 11
387.6795850485244
 21
416.9225626327042
 31
0.0
  0
LINE
  5
1FBA
330
1F
100
AcDbEntity
  8
0
  6
Continuous
 48
2.5
100
AcDbLine
 10
410.079585048524
 20
417.7550430916889
 30
0.0
 11
387.6795850485244
 21
417.7550430916889
 31
0.0
  0
LINE
  5
1FBB
330
1F
100
AcDbEntity
  8
0
  6
Continuous
 48
2.5
100
AcDbLine
 10
387.9795850485241
 20
404.7550430916892
 30
0.0
 11
366.4795850485244
 21
404.7550430916889
 31
0.0
  0
LINE
  5
1FBC
330
1F
100
AcDbEntity
  8
0
  6
Continuous
 48
2.5
100
AcDbLine
 10
410.079585048524
 20
412.755043091689
 30
0.0
 11
387.6795850485244
 21
412.755043091689
 31
0.0
  0
LINE
  5
1FBD
330
1F
100
AcDbEntity
  8
0
  6
Continuous
 48
2.5
100
AcDbLine
 10
391.9795850485245
 20
410.505043091689
 30
0.0
 11
387.4795850485245
 21
410.505043091689
 31
0.0
  0
LINE
  5
1FBE
330
1F
100
AcDbEntity
  8
0
  6
Continuous
 48
2.5
100
AcDbLine
 10
391.9795850485245
 20
410.9050430916886
 30
0.0
 11
387.6795850485244
 21
410.9050430916886
 31
0.0
  0
LINE
  5
1FBF
330
1F
100
AcDbEntity
  8
0
  6
Continuous
 48
2.5
100
AcDbLine
 10
387.4795850485245
 20
417.5550430916882
 30
0.0
 11
387.4795850485243
 21
404.7550430916889
 31
0.0
  0
LINE
  5
1FC0
330
1F
100
AcDbEntity
  8
0
  6
Continuous
 48
2.5
100
AcDbLine
 10
387.6795850485244
 20
417.7550430916889
 30
0.0
 11
387.6795850485244
 21
410.9050430916886
 31
0.0
  0
LINE
  5
1FC1
330
1F
100
AcDbEntity
  8
0
  6
Continuous
 48
2.5
100
AcDbLine
 10
387.6795850485244
 20
410.9050430916886
 30
0.0
 11
387.4795850485245
 21
410.505043091689
 31
0.0
  0
LINE
  5
1FC2
330
1F
100
AcDbEntity
  8
0
  6
Continuous
 48
2.5
100
AcDbLine
 10
387.4795850485245
 20
417.5550430916882
 30
0.0
 11
387.6795850485244
 21
417.7550430916889
 31
0.0
  0
LINE
  5
1FC3
330
1F
100
AcDbEntity
  8
0
  6
Continuous
 48
2.5
100
AcDbLine
 10
410.4795850485245
 20
400.005043091689
 30
0.0
 11
395.1795850485244
 21
400.005043091689
 31
0.0
  0
LINE
  5
1FC4
330
1F
100
AcDbEntity
  8
0
  6
Continuous
 48
2.5
100
AcDbLine
 10
410.079585048524
 20
400.4050430916886
 30
0.0
 11
395.579585048524
 21
400.4050430916886
 31
0.0
  0
ARC
  5
1FC5
330
1F
100
AcDbEntity
  8
0
  6
Continuous
 48
2.5
100
AcDbCircle
 10
391.9795850485245
 20
407.3050430916884
 30
0.0
 40
3.6
100
AcDbArc
 50
0.0
 51
90.0
  0
CIRCLE
  5
1FC6
330
1F
100
AcDbEntity
  8
0
  6
Continuous
 48
2.5
100
AcDbCircle
 10
391.5795850485242
 20
406.505043091689
 30
0.0
 40
1.75
  0
LINE
  5
1FC7
330
1F
100
AcDbEntity
  8
0
  6
Continuous
 48
2.5
100
AcDbLine
 10
395.1795850485244
 20
400.005043091689
 30
0.0
 11
395.1795850485244
 21
407.3050430916882
 31
0.0
  0
LINE
  5
1FC8
330
1F
100
AcDbEntity
  8
0
  6
Continuous
 48
2.5
100
AcDbLine
 10
395.579585048524
 20
400.4050430916886
 30
0.0
 11
395.579585048524
 21
407.3050430916882
 31
0.0
  0
CIRCLE
  5
1FC9
330
1F
100
AcDbEntity
  8
0
  6
Continuous
 48
2.5
100
AcDbCircle
 10
391.5795850485242
 20
406.505043091689
 30
0.0
 40
3.25
  0
LINE
  5
1FCA
330
1F
100
AcDbEntity
  8
0
  6
Continuous
 48
2.5
100
AcDbLine
 10
395.579585048524
 20
400.4050430916886
 30
0.0
 11
395.1795850485244
 21
400.005043091689
 31
0.0
  0
ARC
  5
1FCB
330
1F
100
AcDbEntity
  8
0
  6
Continuous
 48
2.5
100
AcDbCircle
 10
391.6795850485243
 20
406.755043091689
 30
0.0
 40
3.5
100
AcDbArc
 50
0.0
 51
90.0
  0
ARC
  5
1FCC
330
1F
100
AcDbEntity
  8
0
  6
Continuous
 48
2.5
100
AcDbCircle
 10
388.4795850485243
 20
409.7550430916889
 30
0.0
 40
0.5
100
AcDbArc
 50
90.0
 51
180.0
  0
LINE
  5
1FCD
330
1F
100
AcDbEntity
  8
0
  6
Continuous
 48
2.5
100
AcDbLine
 10
391.6795850485243
 20
410.255043091689
 30
0.0
 11
388.4795850485243
 21
410.255043091689
 31
0.0
  0
ARC
  5
1FCE
330
1F
100
AcDbEntity
  8
0
  6
Continuous
 48
2.5
100
AcDbCircle
 10
391.9795850485245
 20
407.3050430916884
 30
0.0
 40
3.2
100
AcDbArc
 50
0.0
 51
90.0
  0
LINE
  5
1FCF
330
1F
100
AcDbEntity
  8
0
  6
Continuous
 48
2.5
100
AcDbLine
 10
410.079585048524
 20
417.7550430916889
 30
0.0
 11
410.079585048524
 21
400.4050430916886
 31
0.0
  0
LINE
  5
1FD0
330
1F
100
AcDbEntity
  8
0
  6
Continuous
 48
2.5
100
AcDbLine
 10
410.079585048524
 20
400.4050430916886
 30
0.0
 11
410.4795850485245
 21
400.005043091689
 31
0.0
  0
LINE
  5
1FD1
330
1F
100
AcDbEntity
  8
0
  6
Continuous
 48
2.5
100
AcDbLine
 10
410.4795850485245
 20
417.3550430916884
 30
0.0
 11
410.079585048524
 21
417.7550430916889
 31
0.0
  0
LINE
  5
1FD2
330
1F
100
AcDbEntity
  8
0
  6
Continuous
 48
2.5
100
AcDbLine
 10
387.6795850485244
 20
274.1100279558739
 30
0.0
 11
410.0795850485244
 21
274.1100279558739
 31
0.0
  0
LINE
  5
1FD3
330
1F
100
AcDbEntity
  8
0
  6
Continuous
 48
2.5
100
AcDbLine
 10
387.6795850485244
 20
278.6728914187955
 30
0.0
 11
410.0795850485244
 21
278.6728914187955
 31
0.0
  0
LINE
  5
1FD4
330
1F
100
AcDbEntity
  8
0
  6
Continuous
 48
2.5
100
AcDbLine
 10
410.0795850485244
 20
273.8000579663106
 30
0.0
 11
387.6795850485244
 21
273.8000579663106
 31
0.0
  0
LINE
  5
1FD5
330
1F
100
AcDbEntity
  8
0
  6
Continuous
 48
2.5
100
AcDbLine
 10
387.4795850485245
 20
274.0000579663107
 30
0.0
 11
387.6795850485244
 21
273.8000579663106
 31
0.0
  0
LINE
  5
1FD6
330
1F
100
AcDbEntity
  8
0
  6
Continuous
 48
2.5
100
AcDbLine
 10
410.0795850485244
 20
273.8000579663106
 30
0.0
 11
410.4795850485245
 21
274.2000579663107
 31
0.0
  0
CIRCLE
  5
1FD7
330
1F
100
AcDbEntity
  8
0
  6
Continuous
 48
2.5
100
AcDbCircle
 10
401.9795850485245
 20
293.8000579663107
 30
0.0
 40
4.299999999999999
  0
ARC
  5
1FD8
330
1F
100
AcDbEntity
  8
AM_4
  6
Continuous
 48
2.5
100
AcDbCircle
 10
401.9795850485245
 20
293.8000579663107
 30
0.0
 40
4.849999999999999
100
AcDbArc
 50
83.48853300232018
 51
353.4885330023236
  0
CIRCLE
  5
1FD9
330
1F
100
AcDbEntity
  8
0
  6
Continuous
 48
2.5
100
AcDbCircle
 10
401.9795850485245
 20
293.8000579663107
 30
0.0
 40
7.0
  0
CIRCLE
  5
1FDA
330
1F
100
AcDbEntity
  8
0
  6
Continuous
 48
2.5
100
AcDbCircle
 10
391.9795850485245
 20
299.6000579663107
 30
0.0
 40
2.9
  0
LINE
  5
1FDB
330
1F
100
AcDbEntity
  8
0
  6
Continuous
 48
2.5
100
AcDbLine
 10
390.3976088524621
 20
297.169553632825
 30
0.0
 11
394.4100893820102
 21
301.1820341623729
 31
0.0
  0
LINE
  5
1FDC
330
1F
100
AcDbEntity
  8
0
  6
Continuous
 48
2.5
100
AcDbLine
 10
389.5490807150384
 20
298.0180817702494
 30
0.0
 11
393.5615612445861
 21
302.0305622997967
 31
0.0
  0
LINE
  5
1FDD
330
1F
100
AcDbEntity
  8
AM_7
100
AcDbLine
 10
342.9795850485241
 20
327.7376597284146
 30
0.0
 11
342.9795850485241
 21
312.7984068387022
 31
0.0
  0
LINE
  5
1FDE
330
1F
100
AcDbEntity
  8
0
  6
Continuous
 48
2.5
100
AcDbLine
 10
387.6795850485244
 20
313.8000579663108
 30
0.0
 11
410.0795850485244
 21
313.8000579663108
 31
0.0
  0
LINE
  5
1FDF
330
1F
100
AcDbEntity
  8
0
  6
Continuous
 48
2.5
100
AcDbLine
 10
387.6795850485244
 20
312.7434336392848
 30
0.0
 11
410.0795850485244
 21
312.7434336392848
 31
0.0
  0
LINE
  5
1FE0
330
1F
100
AcDbEntity
  8
0
  6
Continuous
 48
2.5
100
AcDbLine
 10
387.6795850485244
 20
308.6684054687235
 30
0.0
 11
410.0795850485244
 21
308.6684054687235
 31
0.0
  0
ARC
  5
1FE1
330
1F
100
AcDbEntity
  8
0
  6
Continuous
 48
2.5
100
AcDbCircle
 10
365.9795850485246
 20
325.3000579663108
 30
0.0
 40
0.5
100
AcDbArc
 50
0.0
 51
90.0
  0
LINE
  5
1FE2
330
1F
100
AcDbEntity
  8
0
  6
Continuous
 48
2.5
100
AcDbLine
 10
361.4795850485245
 20
313.3000579663108
 30
0.0
 11
361.4795850485245
 21
326.3000579663108
 31
0.0
  0
LINE
  5
1FE3
330
1F
100
AcDbEntity
  8
0
  6
Continuous
 48
2.5
100
AcDbLine
 10
361.4795850485243
 20
311.800057966311
 30
0.0
 11
361.4795850485245
 21
325.8000579663108
 31
0.0
  0
LINE
  5
1FE4
330
1F
100
AcDbEntity
  8
0
  6
Continuous
 48
2.5
100
AcDbLine
 10
366.4795850485246
 20
311.800057966311
 30
0.0
 11
366.4795850485246
 21
325.3000579663108
 31
0.0
  0
LINE
  5
1FE5
330
1F
100
AcDbEntity
  8
0
  6
Continuous
 48
2.5
100
AcDbLine
 10
365.9795850485246
 20
325.8000579663108
 30
0.0
 11
361.4795850485245
 21
325.8000579663108
 31
0.0
  0
LINE
  5
1FE6
330
1F
100
AcDbEntity
  8
0
  6
Continuous
 48
2.5
100
AcDbLine
 10
387.4795850485245
 20
313.6000579663107
 30
0.0
 11
387.6795850485244
 21
313.8000579663108
 31
0.0
  0
LINE
  5
1FE7
330
1F
100
AcDbEntity
  8
0
  6
Continuous
 48
2.5
100
AcDbLine
 10
410.0795850485244
 20
313.8000579663108
 30
0.0
 11
410.4795850485245
 21
313.4000579663109
 31
0.0
  0
LINE
  5
1FE8
102
{ACAD_REACTORS
330
20EA
102
}
330
1F
100
AcDbEntity
  8
0
  6
Continuous
 48
2.5
100
AcDbLine
 10
486.1331107699352
 20
278.931710463898
 30
0.0
 11
486.1331107699352
 21
308.6684054687235
 31
0.0
  0
ARC
  5
1FE9
330
1F
100
AcDbEntity
  8
0
  6
Continuous
 48
2.5
100
AcDbCircle
 10
488.6238472140584
 20
275.3000579663106
 30
0.0
 40
1.5
100
AcDbArc
 50
194.9999999999944
 51
270.0
  0
LINE
  5
1FEA
330
1F
100
AcDbEntity
  8
0
  6
Continuous
 48
2.5
100
AcDbLine
 10
486.1671849436461
 20
278.6728914187955
 30
0.0
 11
487.1749584746249
 21
274.911829398657
 31
0.0
  0
ARC
  5
1FEB
330
1F
100
AcDbEntity
  8
0
  6
Continuous
 48
2.5
100
AcDbCircle
 10
487.1331107699352
 20
278.931710463898
 30
0.0
 40
1.0
100
AcDbArc
 50
180.0
 51
194.9999999999944
  0
LINE
  5
1FEC
102
{ACAD_REACTORS
330
20E1
102
}
330
1F
100
AcDbEntity
  8
0
  6
Continuous
 48
2.5
100
AcDbLine
 10
489.6331107699352
 20
326.1000579663107
 30
0.0
 11
489.6331107699352
 21
313.5000579663108
 31
0.0
  0
LINE
  5
1FED
330
1F
100
AcDbEntity
  8
0
  6
Continuous
 48
2.5
100
AcDbLine
 10
489.6331107699352
 20
325.8000579663108
 30
0.0
 11
489.6331107699352
 21
313.3981341776644
 31
0.0
  0
ARC
  5
1FEE
330
1F
100
AcDbEntity
  8
0
  6
Continuous
 48
2.5
100
AcDbCircle
 10
488.4144799683526
 20
311.5186887678933
 30
0.0
 40
1.5
100
AcDbArc
 50
104.9999999999944
 51
165.0000000000055
  0
ARC
  5
1FEF
330
1F
100
AcDbEntity
  8
0
  6
Continuous
 48
2.5
100
AcDbCircle
 10
487.1331107699352
 20
308.6684054687235
 30
0.0
 40
1.0
100
AcDbArc
 50
165.0000000000055
 51
180.0
  0
LINE
  5
1FF0
330
1F
100
AcDbEntity
  8
0
  6
Continuous
 48
2.5
100
AcDbLine
 10
486.1671849436461
 20
308.9272245138259
 30
0.0
 11
486.965591228919
 21
311.906917335547
 31
0.0
  0
ARC
  5
1FF1
330
1F
100
AcDbEntity
  8
0
  6
Continuous
 48
2.5
100
AcDbCircle
 10
491.2647632675225
 20
312.8000579663108
 30
0.0
 40
1.0
100
AcDbArc
 50
90.0
 51
104.9999999999944
  0
LINE
  5
1FF2
330
1F
100
AcDbEntity
  8
0
  6
Continuous
 48
2.5
100
AcDbLine
 10
491.0059442224191
 20
313.7659837925999
 30
0.0
 11
488.0262514006981
 21
312.967577507327
 31
0.0
  0
LINE
  5
1FF3
330
1F
100
AcDbEntity
  8
AM_7
100
AcDbLine
 10
494.8831107699352
 20
325.0057213005261
 30
0.0
 11
494.883110769935
 21
316.6128284018673
 31
0.0
  0
LINE
  5
1FF4
330
1F
100
AcDbEntity
  8
0
  6
Continuous
 48
2.5
100
AcDbLine
 10
493.1831107699354
 20
321.3000579663108
 30
0.0
 11
493.1831107699354
 21
320.3000579663108
 31
0.0
  0
LINE
  5
1FF5
330
1F
100
AcDbEntity
  8
0
  6
Continuous
 48
2.5
100
AcDbLine
 10
491.6331107699352
 20
321.3000579663108
 30
0.0
 11
491.6331107699352
 21
320.3000579663108
 31
0.0
  0
ARC
  5
1FF6
102
{ACAD_REACTORS
330
20DE
102
}
330
1F
100
AcDbEntity
  8
0
  6
Continuous
 48
2.5
100
AcDbCircle
 10
489.8331107699353
 20
326.1000579663107
 30
0.0
 40
0.2
100
AcDbArc
 50
90.0
 51
180.0
  0
LINE
  5
1FF7
330
1F
100
AcDbEntity
  8
0
  6
Continuous
 48
2.5
100
AcDbLine
 10
410.0804589317683
 20
225.1961925123701
 30
0.0
 11
387.6804589317687
 21
225.1961925123701
 31
0.0
  0
LINE
  5
1FF8
330
1F
100
AcDbEntity
  8
0
  6
Continuous
 48
2.5
100
AcDbLine
 10
410.0804589317683
 20
226.7737868129803
 30
0.0
 11
387.6804589317687
 21
226.7737868129803
 31
0.0
  0
LINE
  5
1FF9
330
1F
100
AcDbEntity
  8
0
  6
Continuous
 48
2.5
100
AcDbLine
 10
410.0804589317683
 20
188.3513811135903
 30
0.0
 11
387.6804589317687
 21
188.3513811135903
 31
0.0
  0
LINE
  5
1FFA
330
1F
100
AcDbEntity
  8
0
  6
Continuous
 48
2.5
100
AcDbLine
 10
387.6804589317687
 20
186.7737868129802
 30
0.0
 11
410.0804589317683
 21
186.7737868129802
 31
0.0
  0
LINE
  5
1FFB
330
1F
100
AcDbEntity
  8
0
  6
Continuous
 48
2.5
100
AcDbLine
 10
387.6804589317687
 20
226.7737868129803
 30
0.0
 11
387.6804589317687
 21
206.7737868129802
 31
0.0
  0
LINE
  5
1FFC
330
1F
100
AcDbEntity
  8
0
  6
Continuous
 48
2.5
100
AcDbLine
 10
387.4804589317689
 20
226.5737868129795
 30
0.0
 11
387.4804589317687
 21
206.7737868129802
 31
0.0
  0
LINE
  5
1FFD
330
1F
100
AcDbEntity
  8
0
  6
Continuous
 48
2.5
100
AcDbLine
 10
387.6804589317687
 20
206.7737868129802
 30
0.0
 11
387.6804589317687
 21
186.7737868129802
 31
0.0
  0
LINE
  5
1FFE
330
1F
100
AcDbEntity
  8
0
  6
Continuous
 48
2.5
100
AcDbLine
 10
387.4804589317687
 20
206.7737868129802
 30
0.0
 11
387.4804589317689
 21
186.97378681298
 31
0.0
  0
LINE
  5
1FFF
330
1F
100
AcDbEntity
  8
0
  6
Continuous
 48
2.5
100
AcDbLine
 10
387.4804589317689
 20
186.97378681298
 30
0.0
 11
387.6804589317687
 21
186.7737868129802
 31
0.0
  0
LINE
  5
2000
330
1F
100
AcDbEntity
  8
0
  6
Continuous
 48
2.5
100
AcDbLine
 10
387.4804589317689
 20
226.5737868129795
 30
0.0
 11
387.6804589317687
 21
226.7737868129803
 31
0.0
  0
LINE
  5
2001
330
1F
100
AcDbEntity
  8
0
  6
Continuous
 48
2.5
100
AcDbLine
 10
410.0804589317683
 20
226.7737868129803
 30
0.0
 11
410.080458931768
 21
206.7737868129802
 31
0.0
  0
LINE
  5
2002
102
{ACAD_REACTORS
330
20B7
102
}
330
1F
100
AcDbEntity
  8
0
  6
Continuous
 48
2.5
100
AcDbLine
 10
410.4804589317689
 20
226.3737868129797
 30
0.0
 11
410.4804589317689
 21
187.1737868129798
 31
0.0
  0
LINE
  5
2003
102
{ACAD_REACTORS
330
20B7
102
}
330
1F
100
AcDbEntity
  8
AM_7
100
AcDbLine
 10
401.9804589317686
 20
214.3952506010665
 30
0.0
 11
401.9804589317686
 21
198.9581705831992
 31
0.0
  0
CIRCLE
  5
2004
330
1F
100
AcDbEntity
  8
0
  6
Continuous
 48
2.5
100
AcDbCircle
 10
401.9804589317685
 20
206.7737868129802
 30
0.0
 40
7.0
  0
ARC
  5
2005
330
1F
100
AcDbEntity
  8
AM_4
  6
Continuous
 48
2.5
100
AcDbCircle
 10
401.9804589317685
 20
206.7737868129802
 30
0.0
 40
4.849999999999999
100
AcDbArc
 50
353.4885330023151
 51
263.4885330023202
  0
CIRCLE
  5
2006
330
1F
100
AcDbEntity
  8
0
  6
Continuous
 48
2.5
100
AcDbCircle
 10
401.9804589317685
 20
206.7737868129802
 30
0.0
 40
4.299999999999999
  0
LINE
  5
2007
330
1F
100
AcDbEntity
  8
0
  6
Continuous
 48
2.5
100
AcDbLine
 10
410.0804589317683
 20
206.7737868129802
 30
0.0
 11
410.0804589317683
 21
186.7737868129802
 31
0.0
  0
LINE
  5
2008
330
1F
100
AcDbEntity
  8
0
  6
Continuous
 48
2.5
100
AcDbLine
 10
410.4804589317689
 20
187.1737868129798
 30
0.0
 11
410.0804589317683
 21
186.7737868129802
 31
0.0
  0
LINE
  5
2009
330
1F
100
AcDbEntity
  8
0
  6
Continuous
 48
2.5
100
AcDbLine
 10
410.4804589317689
 20
226.3737868129797
 30
0.0
 11
410.0804589317683
 21
226.7737868129803
 31
0.0
  0
CIRCLE
  5
200A
330
1F
100
AcDbEntity
  8
0
  6
Continuous
 48
2.5
100
AcDbCircle
 10
519.6331107699352
 20
307.3000579663108
 30
0.0
 40
5.399999999999636
  0
LINE
  5
200B
330
1F
100
AcDbEntity
  8
0
  6
Continuous
 48
2.5
100
AcDbLine
 10
526.1331107699352
 20
308.8000579663108
 30
0.0
 11
526.1331107699352
 21
278.931710463898
 31
0.0
  0
CIRCLE
  5
200C
330
1F
100
AcDbEntity
  8
0
  6
Continuous
 48
2.5
100
AcDbCircle
 10
519.6331107699352
 20
280.3000579663106
 30
0.0
 40
3.799999999999999
  0
CIRCLE
  5
200D
330
1F
100
AcDbEntity
  8
0
  6
Continuous
 48
2.5
100
AcDbCircle
 10
519.6331107699352
 20
280.3000579663106
 30
0.0
 40
5.399999999999636
  0
ARC
  5
200E
330
1F
100
AcDbEntity
  8
0
  6
Continuous
 48
2.5
100
AcDbCircle
 10
523.642374325811
 20
275.3000579663106
 30
0.0
 40
1.5
100
AcDbArc
 50
270.0
 51
345.0000000000056
  0
LINE
  5
200F
330
1F
100
AcDbEntity
  8
0
  6
Continuous
 48
2.5
100
AcDbLine
 10
526.0990365962243
 20
278.6728914187955
 30
0.0
 11
525.0912630652447
 21
274.911829398657
 31
0.0
  0
ARC
  5
2010
330
1F
100
AcDbEntity
  8
0
  6
Continuous
 48
2.5
100
AcDbCircle
 10
525.1331107699352
 20
278.931710463898
 30
0.0
 40
1.0
100
AcDbArc
 50
345.0000000000056
 51
0.0
  0
CIRCLE
  5
2011
330
1F
100
AcDbEntity
  8
0
  6
Continuous
 48
2.5
100
AcDbCircle
 10
506.1331107699352
 20
293.8000579663107
 30
0.0
 40
7.0
  0
CIRCLE
  5
2012
330
1F
100
AcDbEntity
  8
0
  6
Continuous
 48
2.5
100
AcDbCircle
 10
506.1331107699352
 20
293.8000579663107
 30
0.0
 40
4.299999999999999
  0
ARC
  5
2013
330
1F
100
AcDbEntity
  8
AM_4
  6
Continuous
 48
2.5
100
AcDbCircle
 10
506.1331107699352
 20
293.8000579663107
 30
0.0
 40
4.849999999999999
100
AcDbArc
 50
83.48853300232018
 51
353.4885330023151
  0
LINE
  5
2014
330
1F
100
AcDbEntity
  8
0
  6
Continuous
 48
2.5
100
AcDbLine
 10
512.7670853662352
 20
326.3000579663108
 30
0.0
 11
512.6331107699352
 21
325.8000579663108
 31
0.0
  0
LINE
  5
2015
102
{ACAD_REACTORS
330
20E1
102
}
330
1F
100
AcDbEntity
  8
0
  6
Continuous
 48
2.5
100
AcDbLine
 10
522.6331107699352
 20
313.5000579663108
 30
0.0
 11
522.6331107699352
 21
326.1000579663107
 31
0.0
  0
LINE
  5
2016
330
1F
100
AcDbEntity
  8
0
  6
Continuous
 48
2.5
100
AcDbLine
 10
499.4991361737352
 20
326.3000579663108
 30
0.0
 11
499.6331107699352
 21
325.8000579663108
 31
0.0
  0
LINE
  5
2017
330
1F
100
AcDbEntity
  8
0
  6
Continuous
 48
2.5
100
AcDbLine
 10
508.7831107699348
 20
313.8000579663108
 30
0.0
 11
521.1331107699352
 21
313.8000579663108
 31
0.0
  0
LINE
  5
2018
330
1F
100
AcDbEntity
  8
0
  6
Continuous
 48
2.5
100
AcDbLine
 10
499.6331107699352
 20
325.8000579663108
 30
0.0
 11
512.6331107699352
 21
325.8000579663108
 31
0.0
  0
LINE
  5
2019
330
1F
100
AcDbEntity
  8
0
  6
Continuous
 48
2.5
100
AcDbLine
 10
501.0331107699348
 20
311.4500579663113
 30
0.0
 11
503.8831107699352
 21
311.4500579663113
 31
0.0
  0
LINE
  5
201A
330
1F
100
AcDbEntity
  8
0
  6
Continuous
 48
2.5
100
AcDbLine
 10
508.7831107699346
 20
313.8000579663105
 30
0.0
 11
503.4831107699349
 21
313.8000579663105
 31
0.0
  0
LINE
  5
201B
330
1F
100
AcDbEntity
  8
0
  6
Continuous
 48
2.5
100
AcDbLine
 10
503.4831107699346
 20
313.8000579663108
 30
0.0
 11
503.8831107699352
 21
313.4000579663111
 31
0.0
  0
LINE
  5
201C
330
1F
100
AcDbEntity
  8
0
  6
Continuous
 48
2.5
100
AcDbLine
 10
500.8831107699352
 20
307.1500579663111
 30
0.0
 11
506.1331107699352
 21
307.1500579663109
 31
0.0
  0
LWPOLYLINE
  5
201D
330
1F
100
AcDbEntity
  8
0
  6
Continuous
 48
2.5
100
AcDbPolyline
 90
        4
 70
     1
 43
0.0
 10
501.1331107699352
 20
308.9500579663113
 10
511.1331107699352
 20
308.9500579663113
 10
511.1331107699352
 20
311.4500579663113
 10
501.1331107699352
 20
311.4500579663113
  0
LINE
  5
201E
330
1F
100
AcDbEntity
  8
0
  6
Continuous
 48
2.5
100
AcDbLine
 10
500.8831107699352
 20
311.3000579663108
 30
0.0
 11
500.8831107699352
 21
307.1500579663111
 31
0.0
  0
ARC
  5
201F
330
1F
100
AcDbEntity
  8
0
  6
Continuous
 48
2.5
100
AcDbCircle
 10
501.0331107699348
 20
311.3000579663108
 30
0.0
 40
0.15
100
AcDbArc
 50
90.0
 51
180.0
  0
LINE
  5
2020
330
1F
100
AcDbEntity
  8
0
  6
Continuous
 48
2.5
100
AcDbLine
 10
508.1331107699352
 20
308.6500579663111
 30
0.0
 11
506.6331107699352
 21
307.1500579663111
 31
0.0
  0
LINE
  5
2021
330
1F
100
AcDbEntity
  8
0
  6
Continuous
 48
2.5
100
AcDbLine
 10
504.1331107699352
 20
308.6500579663111
 30
0.0
 11
505.6331107699352
 21
307.1500579663111
 31
0.0
  0
LINE
  5
2022
330
1F
100
AcDbEntity
  8
0
  6
Continuous
 48
2.5
100
AcDbLine
 10
511.3831107699352
 20
311.3000579663108
 30
0.0
 11
511.383110769935
 21
307.1500579663111
 31
0.0
  0
LINE
  5
2023
330
1F
100
AcDbEntity
  8
0
  6
Continuous
 48
2.5
100
AcDbLine
 10
506.1331107699352
 20
307.1500579663111
 30
0.0
 11
511.383110769935
 21
307.1500579663111
 31
0.0
  0
LINE
  5
2024
330
1F
100
AcDbEntity
  8
0
  6
Continuous
 48
2.5
100
AcDbLine
 10
506.6331107699352
 20
307.1500579663111
 30
0.0
 11
505.6331107699352
 21
307.1500579663111
 31
0.0
  0
LINE
  5
2025
330
1F
100
AcDbEntity
  8
0
  6
Continuous
 48
2.5
100
AcDbLine
 10
503.8831107699352
 20
313.4000579663111
 30
0.0
 11
503.8831107699352
 21
311.4500579663113
 31
0.0
  0
LINE
  5
2026
330
1F
100
AcDbEntity
  8
0
  6
Continuous
 48
2.5
100
AcDbLine
 10
504.1331107699352
 20
308.6500579663111
 30
0.0
 11
504.1331107699352
 21
308.9500579663113
 31
0.0
  0
LINE
  5
2027
330
1F
100
AcDbEntity
  8
0
  6
Continuous
 48
2.5
100
AcDbLine
 10
508.3831107699352
 20
313.4000579663111
 30
0.0
 11
508.3831107699352
 21
311.4500579663113
 31
0.0
  0
ARC
  5
2028
330
1F
100
AcDbEntity
  8
0
  6
Continuous
 48
2.5
100
AcDbCircle
 10
511.2331107699346
 20
311.3000579663108
 30
0.0
 40
0.15
100
AcDbArc
 50
0.0
 51
90.0
  0
LINE
  5
2029
330
1F
100
AcDbEntity
  8
0
  6
Continuous
 48
2.5
100
AcDbLine
 10
508.3831107699352
 20
311.4500579663113
 30
0.0
 11
511.2331107699346
 21
311.4500579663113
 31
0.0
  0
LINE
  5
202A
330
1F
100
AcDbEntity
  8
0
  6
Continuous
 48
2.5
100
AcDbLine
 10
508.7831107699348
 20
313.8000579663108
 30
0.0
 11
508.3831107699352
 21
313.4000579663111
 31
0.0
  0
LINE
  5
202B
330
1F
100
AcDbEntity
  8
0
  6
Continuous
 48
2.5
100
AcDbLine
 10
508.1331107699352
 20
308.6500579663109
 30
0.0
 11
508.1331107699352
 21
308.9500579663113
 31
0.0
  0
LINE
  5
202C
330
1F
100
AcDbEntity
  8
0
  6
Continuous
 48
2.5
100
AcDbLine
 10
496.5831107699354
 20
321.3000579663108
 30
0.0
 11
496.5831107699354
 21
320.3000579663108
 31
0.0
  0
LINE
  5
202D
330
1F
100
AcDbEntity
  8
0
  6
Continuous
 48
2.5
100
AcDbLine
 10
498.1331107699352
 20
321.3000579663108
 30
0.0
 11
498.1331107699352
 21
320.3000579663108
 31
0.0
  0
LINE
  5
202E
330
1F
100
AcDbEntity
  8
0
  6
Continuous
 48
2.5
100
AcDbLine
 10
522.6331107699352
 20
313.3981341776642
 30
0.0
 11
522.6331107699352
 21
325.8000579663108
 31
0.0
  0
CIRCLE
  5
202F
330
1F
100
AcDbEntity
  8
0
  6
Continuous
 48
2.5
100
AcDbCircle
 10
519.6331107699352
 20
307.3000579663108
 30
0.0
 40
3.799999999999999
  0
LINE
  5
2030
330
1F
100
AcDbEntity
  8
0
  6
Continuous
 48
2.5
100
AcDbLine
 10
521.2602773174503
 20
313.7659837925999
 30
0.0
 11
524.2399701391714
 21
312.967577507327
 31
0.0
  0
ARC
  5
2031
330
1F
100
AcDbEntity
  8
0
  6
Continuous
 48
2.5
100
AcDbCircle
 10
521.001458272347
 20
312.8000579663108
 30
0.0
 40
1.0
100
AcDbArc
 50
75.00000000000555
 51
90.0
  0
ARC
  5
2032
330
1F
100
AcDbEntity
  8
0
  6
Continuous
 48
2.5
100
AcDbCircle
 10
523.8517415715177
 20
311.5186887678933
 30
0.0
 40
1.5
100
AcDbArc
 50
14.99999999999445
 51
75.00000000000555
  0
ARC
  5
2033
330
1F
100
AcDbEntity
  8
0
  6
Continuous
 48
2.5
100
AcDbCircle
 10
525.1331107699352
 20
308.6684054687235
 30
0.0
 40
1.0
100
AcDbArc
 50
0.0
 51
14.99999999999445
  0
LINE
  5
2034
330
1F
100
AcDbEntity
  8
0
  6
Continuous
 48
2.5
100
AcDbLine
 10
526.0990365962243
 20
308.9272245138259
 30
0.0
 11
525.3006303109505
 21
311.906917335547
 31
0.0
  0
LINE
  5
2035
330
1F
100
AcDbEntity
  8
AM_7
100
AcDbLine
 10
520.9070316496308
 20
320.8000579663107
 30
0.0
 11
513.661967300116
 21
320.8000579663107
 31
0.0
  0
ARC
  5
2036
330
1F
100
AcDbEntity
  8
0
  6
Continuous
 48
2.5
100
AcDbCircle
 10
517.3831107699352
 20
321.3000579663108
 30
0.0
 40
3.25
100
AcDbArc
 50
0.0
 51
180.0
  0
ARC
  5
2037
330
1F
100
AcDbEntity
  8
0
  6
Continuous
 48
2.5
100
AcDbCircle
 10
517.3831107699352
 20
320.3000579663108
 30
0.0
 40
3.25
100
AcDbArc
 50
180.0
 51
0.0
  0
LINE
  5
2038
330
1F
100
AcDbEntity
  8
AM_7
100
AcDbLine
 10
517.3831107699352
 20
324.9574849329643
 30
0.0
 11
517.3831107699352
 21
316.6610647694292
 31
0.0
  0
ARC
  5
2039
330
1F
100
AcDbEntity
  8
0
  6
Continuous
 48
2.5
100
AcDbCircle
 10
517.3831107699352
 20
320.3000579663108
 30
0.0
 40
1.7
100
AcDbArc
 50
180.0
 51
0.0
  0
ARC
  5
203A
330
1F
100
AcDbEntity
  8
0
  6
Continuous
 48
2.5
100
AcDbCircle
 10
517.3831107699352
 20
321.3000579663108
 30
0.0
 40
1.7
100
AcDbArc
 50
0.0
 51
180.0
  0
LINE
  5
203B
330
1F
100
AcDbEntity
  8
0
  6
Continuous
 48
2.5
100
AcDbLine
 10
514.1331107699352
 20
320.3000579663108
 30
0.0
 11
514.1331107699352
 21
321.3000579663108
 31
0.0
  0
LINE
  5
203C
330
1F
100
AcDbEntity
  8
0
  6
Continuous
 48
2.5
100
AcDbLine
 10
515.6831107699353
 20
320.3000579663108
 30
0.0
 11
515.6831107699353
 21
321.3000579663108
 31
0.0
  0
LINE
  5
203D
330
1F
100
AcDbEntity
  8
0
  6
Continuous
 48
2.5
100
AcDbLine
 10
519.0831107699355
 20
320.3000579663108
 30
0.0
 11
519.0831107699355
 21
321.3000579663108
 31
0.0
  0
LINE
  5
203E
330
1F
100
AcDbEntity
  8
0
  6
Continuous
 48
2.5
100
AcDbLine
 10
520.6331107699352
 20
320.3000579663108
 30
0.0
 11
520.6331107699352
 21
321.3000579663108
 31
0.0
  0
LINE
  5
203F
330
1F
100
AcDbEntity
  8
0
  6
Continuous
 48
2.5
100
AcDbLine
 10
522.4331107699351
 20
326.3000579663108
 30
0.0
 11
512.7670853662352
 21
326.3000579663108
 31
0.0
  0
ARC
  5
2040
330
1F
100
AcDbEntity
  8
0
  6
Continuous
 48
2.5
100
AcDbCircle
 10
522.4331107699351
 20
326.1000579663107
 30
0.0
 40
0.2
100
AcDbArc
 50
0.0
 51
89.99999999989578
  0
LINE
  5
2041
330
1F
100
AcDbEntity
  8
AM_7
100
AcDbLine
 10
492.6331107699352
 20
307.3000579663108
 30
0.0
 11
499.5331107699349
 21
307.3000579663108
 31
0.0
1001
GENIUS_GENOREF_13
1005
210D
  0
LINE
  5
2042
330
1F
100
AcDbEntity
  8
AM_7
100
AcDbLine
 10
492.6331107699352
 20
307.3000579663108
 30
0.0
 11
492.6331107699352
 21
314.2000579663104
 31
0.0
1001
GENIUS_GENOREF_13
1005
210D
  0
LINE
  5
2043
102
{ACAD_REACTORS
330
20D8
102
}
330
1F
100
AcDbEntity
  8
AM_7
100
AcDbLine
 10
492.6331107699352
 20
307.3000579663108
 30
0.0
 11
485.7331107699356
 21
307.3000579663108
 31
0.0
1001
GENIUS_GENOREF_13
1005
210D
  0
LINE
  5
2044
330
1F
100
AcDbEntity
  8
AM_7
100
AcDbLine
 10
492.6331107699352
 20
307.3000579663108
 30
0.0
 11
492.6331107699352
 21
300.4000579663111
 31
0.0
1001
GENIUS_GENOREF_13
1005
210D
  0
LINE
  5
2045
330
1F
100
AcDbEntity
  8
AM_7
100
AcDbLine
 10
519.6331107699352
 20
307.3000579663108
 30
0.0
 11
526.5331107699348
 21
307.3000579663108
 31
0.0
1001
GENIUS_GENOREF_13
1005
2123
  0
LINE
  5
2046
330
1F
100
AcDbEntity
  8
AM_7
100
AcDbLine
 10
519.6331107699352
 20
307.3000579663108
 30
0.0
 11
519.6331107699352
 21
314.2000579663104
 31
0.0
1001
GENIUS_GENOREF_13
1005
2123
  0
LINE
  5
2047
330
1F
100
AcDbEntity
  8
AM_7
100
AcDbLine
 10
519.6331107699352
 20
307.3000579663108
 30
0.0
 11
512.7331107699355
 21
307.3000579663108
 31
0.0
1001
GENIUS_GENOREF_13
1005
2123
  0
LINE
  5
2048
330
1F
100
AcDbEntity
  8
AM_7
100
AcDbLine
 10
519.6331107699352
 20
307.3000579663108
 30
0.0
 11
519.6331107699352
 21
300.4000579663111
 31
0.0
1001
GENIUS_GENOREF_13
1005
2123
  0
LINE
  5
2049
330
1F
100
AcDbEntity
  8
AM_7
100
AcDbLine
 10
492.6331107699352
 20
280.3000579663106
 30
0.0
 11
499.5331107699349
 21
280.3000579663106
 31
0.0
1001
GENIUS_GENOREF_13
1005
2122
  0
LINE
  5
204A
330
1F
100
AcDbEntity
  8
AM_7
100
AcDbLine
 10
492.6331107699352
 20
280.3000579663106
 30
0.0
 11
492.6331107699352
 21
287.2000579663104
 31
0.0
1001
GENIUS_GENOREF_13
1005
2122
  0
LINE
  5
204B
102
{ACAD_REACTORS
330
20D8
102
}
330
1F
100
AcDbEntity
  8
AM_7
100
AcDbLine
 10
492.6331107699352
 20
280.3000579663106
 30
0.0
 11
485.7331107699356
 21
280.3000579663106
 31
0.0
1001
GENIUS_GENOREF_13
1005
2122
  0
LINE
  5
204C
102
{ACAD_REACTORS
330
20E7
102
}
330
1F
100
AcDbEntity
  8
AM_7
100
AcDbLine
 10
492.6331107699352
 20
280.3000579663106
 30
0.0
 11
492.6331107699352
 21
273.400057966311
 31
0.0
1001
GENIUS_GENOREF_13
1005
2122
  0
LINE
  5
204D
330
1F
100
AcDbEntity
  8
AM_7
100
AcDbLine
 10
519.6331107699352
 20
280.3000579663106
 30
0.0
 11
526.5331107699348
 21
280.3000579663106
 31
0.0
1001
GENIUS_GENOREF_13
1005
2121
  0
LINE
  5
204E
330
1F
100
AcDbEntity
  8
AM_7
100
AcDbLine
 10
519.6331107699352
 20
280.3000579663106
 30
0.0
 11
519.6331107699352
 21
287.2000579663104
 31
0.0
1001
GENIUS_GENOREF_13
1005
2121
  0
LINE
  5
204F
330
1F
100
AcDbEntity
  8
AM_7
100
AcDbLine
 10
519.6331107699352
 20
280.3000579663106
 30
0.0
 11
512.7331107699355
 21
280.3000579663106
 31
0.0
1001
GENIUS_GENOREF_13
1005
2121
  0
LINE
  5
2050
102
{ACAD_REACTORS
330
20E7
102
}
330
1F
100
AcDbEntity
  8
AM_7
100
AcDbLine
 10
519.6331107699352
 20
280.3000579663106
 30
0.0
 11
519.6331107699352
 21
273.400057966311
 31
0.0
1001
GENIUS_GENOREF_13
1005
2121
  0
LINE
  5
2051
102
{ACAD_REACTORS
330
20E4
102
}
330
1F
100
AcDbEntity
  8
AM_7
100
AcDbLine
 10
506.1331107699352
 20
293.8000579663107
 30
0.0
 11
527.6332190970176
 21
293.8000579663107
 31
0.0
1001
GENIUS_GENOREF_13
1005
2120
  0
LINE
  5
2052
330
1F
100
AcDbEntity
  8
AM_7
100
AcDbLine
 10
506.1331107699352
 20
293.8000579663107
 30
0.0
 11
506.1331107699352
 21
328.1559132464279
 31
0.0
1001
GENIUS_GENOREF_13
1005
2120
  0
LINE
  5
2053
330
1F
100
AcDbEntity
  8
AM_7
100
AcDbLine
 10
506.1331107699352
 20
293.8000579663107
 30
0.0
 11
484.6330024428528
 21
293.8000579663107
 31
0.0
1001
GENIUS_GENOREF_13
1005
2120
  0
LINE
  5
2054
330
1F
100
AcDbEntity
  8
AM_7
100
AcDbLine
 10
506.1331107699352
 20
293.8000579663107
 30
0.0
 11
506.1331107699352
 21
272.2999496392283
 31
0.0
1001
GENIUS_GENOREF_13
1005
2120
  0
LINE
  5
2055
330
1F
100
AcDbEntity
  8
AM_7
100
AcDbLine
 10
401.9795850485245
 20
293.8000579663107
 30
0.0
 11
410.4795850485245
 21
293.8000579663107
 31
0.0
1001
GENIUS_GENOREF_13
1005
211F
  0
LINE
  5
2056
102
{ACAD_REACTORS
330
20BD
102
}
330
1F
100
AcDbEntity
  8
AM_7
100
AcDbLine
 10
401.9795850485245
 20
293.8000579663107
 30
0.0
 11
401.9795850485245
 21
302.3000579663108
 31
0.0
1001
GENIUS_GENOREF_13
1005
211F
  0
LINE
  5
2057
330
1F
100
AcDbEntity
  8
AM_7
100
AcDbLine
 10
401.9795850485245
 20
293.8000579663107
 30
0.0
 11
393.4795850485246
 21
293.8000579663107
 31
0.0
1001
GENIUS_GENOREF_13
1005
211F
  0
LINE
  5
2058
330
1F
100
AcDbEntity
  8
AM_7
100
AcDbLine
 10
401.9795850485245
 20
293.8000579663107
 30
0.0
 11
401.9795850485245
 21
285.3000579663108
 31
0.0
1001
GENIUS_GENOREF_13
1005
211F
  0
LINE
  5
2059
330
1F
100
AcDbEntity
  8
AM_7
  6
AM_ISO08W050x2
100
AcDbLine
 10
391.9795850485245
 20
299.6000579663107
 30
0.0
 11
397.4795850485246
 21
299.6000579663107
 31
0.0
1001
GENIUS_GENOREF_13
1005
211E
  0
LINE
  5
205A
102
{ACAD_REACTORS
330
20C0
102
}
330
1F
100
AcDbEntity
  8
AM_7
  6
AM_ISO08W050x2
100
AcDbLine
 10
391.9795850485245
 20
299.6000579663107
 30
0.0
 11
391.9795850485245
 21
305.1000579663107
 31
0.0
1001
GENIUS_GENOREF_13
1005
211E
  0
LINE
  5
205B
330
1F
100
AcDbEntity
  8
AM_7
  6
AM_ISO08W050x2
100
AcDbLine
 10
391.9795850485245
 20
299.6000579663107
 30
0.0
 11
386.4795850485245
 21
299.6000579663107
 31
0.0
1001
GENIUS_GENOREF_13
1005
211E
  0
LINE
  5
205C
330
1F
100
AcDbEntity
  8
AM_7
  6
AM_ISO08W050x2
100
AcDbLine
 10
391.9795850485245
 20
299.6000579663107
 30
0.0
 11
391.9795850485245
 21
294.1000579663107
 31
0.0
1001
GENIUS_GENOREF_13
1005
211E
  0
LINE
  5
205D
330
1F
100
AcDbEntity
  8
AM_7
100
AcDbLine
 10
218.9817742714956
 20
293.8000579663107
 30
0.0
 11
227.4817742714956
 21
293.8000579663107
 31
0.0
1001
GENIUS_GENOREF_13
1005
211D
  0
LINE
  5
205E
330
1F
100
AcDbEntity
  8
AM_7
100
AcDbLine
 10
218.9817742714956
 20
293.8000579663107
 30
0.0
 11
218.9817742714956
 21
302.3000579663108
 31
0.0
1001
GENIUS_GENOREF_13
1005
211D
  0
LINE
  5
205F
330
1F
100
AcDbEntity
  8
AM_7
100
AcDbLine
 10
218.9817742714956
 20
293.8000579663107
 30
0.0
 11
210.4817742714956
 21
293.8000579663107
 31
0.0
1001
GENIUS_GENOREF_13
1005
211D
  0
LINE
  5
2060
330
1F
100
AcDbEntity
  8
AM_7
100
AcDbLine
 10
218.9817742714956
 20
293.8000579663107
 30
0.0
 11
218.9817742714956
 21
285.3000579663108
 31
0.0
1001
GENIUS_GENOREF_13
1005
211D
  0
LINE
  5
2061
330
1F
100
AcDbEntity
  8
AM_7
  6
AM_ISO08W050x2
100
AcDbLine
 10
228.9817742714956
 20
299.6000579663107
 30
0.0
 11
234.4817742714956
 21
299.6000579663107
 31
0.0
1001
GENIUS_GENOREF_13
1005
211C
  0
LINE
  5
2062
330
1F
100
AcDbEntity
  8
AM_7
  6
AM_ISO08W050x2
100
AcDbLine
 10
228.9817742714956
 20
299.6000579663107
 30
0.0
 11
228.9817742714956
 21
305.1000579663107
 31
0.0
1001
GENIUS_GENOREF_13
1005
211C
  0
LINE
  5
2063
330
1F
100
AcDbEntity
  8
AM_7
  6
AM_ISO08W050x2
100
AcDbLine
 10
228.9817742714956
 20
299.6000579663107
 30
0.0
 11
223.4817742714956
 21
299.6000579663107
 31
0.0
1001
GENIUS_GENOREF_13
1005
211C
  0
LINE
  5
2064
330
1F
100
AcDbEntity
  8
AM_7
  6
AM_ISO08W050x2
100
AcDbLine
 10
228.9817742714956
 20
299.6000579663107
 30
0.0
 11
228.9817742714956
 21
294.1000579663107
 31
0.0
1001
GENIUS_GENOREF_13
1005
211C
  0
LINE
  5
2065
330
1F
100
AcDbEntity
  8
AM_7
  6
AM_ISO08W050x2
100
AcDbLine
 10
391.5795850485242
 20
389.005043091689
 30
0.0
 11
396.3295850485242
 21
389.005043091689
 31
0.0
1001
GENIUS_GENOREF_13
1005
211B
  0
LINE
  5
2066
330
1F
100
AcDbEntity
  8
AM_7
  6
AM_ISO08W050x2
100
AcDbLine
 10
391.5795850485242
 20
389.005043091689
 30
0.0
 11
391.5795850485242
 21
393.755043091689
 31
0.0
1001
GENIUS_GENOREF_13
1005
211B
  0
LINE
  5
2067
330
1F
100
AcDbEntity
  8
AM_7
  6
AM_ISO08W050x2
100
AcDbLine
 10
391.5795850485242
 20
389.005043091689
 30
0.0
 11
386.8295850485242
 21
389.005043091689
 31
0.0
1001
GENIUS_GENOREF_13
1005
211B
  0
LINE
  5
2068
330
1F
100
AcDbEntity
  8
AM_7
  6
AM_ISO08W050x2
100
AcDbLine
 10
391.5795850485242
 20
389.005043091689
 30
0.0
 11
391.5795850485242
 21
384.255043091689
 31
0.0
1001
GENIUS_GENOREF_13
1005
211B
  0
LINE
  5
2069
330
1F
100
AcDbEntity
  8
AM_7
  6
AM_ISO08W050x2
100
AcDbLine
 10
391.5795850485242
 20
406.505043091689
 30
0.0
 11
396.3295850485242
 21
406.505043091689
 31
0.0
1001
GENIUS_GENOREF_13
1005
211A
  0
LINE
  5
206A
330
1F
100
AcDbEntity
  8
AM_7
  6
AM_ISO08W050x2
100
AcDbLine
 10
391.5795850485242
 20
406.505043091689
 30
0.0
 11
391.5795850485242
 21
411.255043091689
 31
0.0
1001
GENIUS_GENOREF_13
1005
211A
  0
LINE
  5
206B
330
1F
100
AcDbEntity
  8
AM_7
  6
AM_ISO08W050x2
100
AcDbLine
 10
391.5795850485242
 20
406.505043091689
 30
0.0
 11
386.8295850485242
 21
406.505043091689
 31
0.0
1001
GENIUS_GENOREF_13
1005
211A
  0
LINE
  5
206C
330
1F
100
AcDbEntity
  8
AM_7
  6
AM_ISO08W050x2
100
AcDbLine
 10
391.5795850485242
 20
406.505043091689
 30
0.0
 11
391.5795850485242
 21
401.7550430916889
 31
0.0
1001
GENIUS_GENOREF_13
1005
211A
  0
LINE
  5
206D
330
1F
100
AcDbEntity
  8
AM_7
  6
AM_ISO08W050x2
100
AcDbLine
 10
277.9795850485251
 20
410.2550430916892
 30
0.0
 11
281.4795850485251
 21
410.2550430916892
 31
0.0
1001
GENIUS_GENOREF_13
1005
2119
  0
LINE
  5
206E
102
{ACAD_REACTORS
330
20C3
102
}
330
1F
100
AcDbEntity
  8
AM_7
  6
AM_ISO08W050x2
100
AcDbLine
 10
277.9795850485251
 20
410.2550430916892
 30
0.0
 11
277.9795850485251
 21
413.7550430916892
 31
0.0
1001
GENIUS_GENOREF_13
1005
2119
  0
LINE
  5
206F
102
{ACAD_REACTORS
330
20D2
102
}
330
1F
100
AcDbEntity
  8
AM_7
  6
AM_ISO08W050x2
100
AcDbLine
 10
277.9795850485251
 20
410.2550430916892
 30
0.0
 11
274.4795850485251
 21
410.2550430916892
 31
0.0
1001
GENIUS_GENOREF_13
1005
2119
  0
LINE
  5
2070
330
1F
100
AcDbEntity
  8
AM_7
  6
AM_ISO08W050x2
100
AcDbLine
 10
277.9795850485251
 20
410.2550430916892
 30
0.0
 11
277.9795850485251
 21
406.7550430916892
 31
0.0
1001
GENIUS_GENOREF_13
1005
2119
  0
LINE
  5
2071
330
1F
100
AcDbEntity
  8
AM_7
  6
AM_ISO08W050x2
100
AcDbLine
 10
342.9795850485242
 20
410.2550430916892
 30
0.0
 11
346.4795850485242
 21
410.2550430916892
 31
0.0
1001
GENIUS_GENOREF_13
1005
2118
  0
LINE
  5
2072
102
{ACAD_REACTORS
330
20C3
102
}
330
1F
100
AcDbEntity
  8
AM_7
  6
AM_ISO08W050x2
100
AcDbLine
 10
342.9795850485242
 20
410.2550430916892
 30
0.0
 11
342.9795850485242
 21
413.7550430916892
 31
0.0
1001
GENIUS_GENOREF_13
1005
2118
  0
LINE
  5
2073
330
1F
100
AcDbEntity
  8
AM_7
  6
AM_ISO08W050x2
100
AcDbLine
 10
342.9795850485242
 20
410.2550430916892
 30
0.0
 11
339.4795850485242
 21
410.2550430916892
 31
0.0
1001
GENIUS_GENOREF_13
1005
2118
  0
LINE
  5
2074
330
1F
100
AcDbEntity
  8
AM_7
  6
AM_ISO08W050x2
100
AcDbLine
 10
342.9795850485242
 20
410.2550430916892
 30
0.0
 11
342.9795850485242
 21
406.7550430916892
 31
0.0
1001
GENIUS_GENOREF_13
1005
2118
  0
LINE
  5
2075
330
1F
100
AcDbEntity
  8
AM_7
  6
AM_ISO08W050x2
100
AcDbLine
 10
342.9795850485242
 20
385.2550430916892
 30
0.0
 11
346.4795850485242
 21
385.2550430916892
 31
0.0
1001
GENIUS_GENOREF_13
1005
2117
  0
LINE
  5
2076
330
1F
100
AcDbEntity
  8
AM_7
  6
AM_ISO08W050x2
100
AcDbLine
 10
342.9795850485242
 20
385.2550430916892
 30
0.0
 11
342.9795850485242
 21
388.7550430916892
 31
0.0
1001
GENIUS_GENOREF_13
1005
2117
  0
LINE
  5
2077
330
1F
100
AcDbEntity
  8
AM_7
  6
AM_ISO08W050x2
100
AcDbLine
 10
342.9795850485242
 20
385.2550430916892
 30
0.0
 11
339.4795850485242
 21
385.2550430916892
 31
0.0
1001
GENIUS_GENOREF_13
1005
2117
  0
LINE
  5
2078
330
1F
100
AcDbEntity
  8
AM_7
  6
AM_ISO08W050x2
100
AcDbLine
 10
342.9795850485242
 20
385.2550430916892
 30
0.0
 11
342.9795850485242
 21
381.7550430916892
 31
0.0
1001
GENIUS_GENOREF_13
1005
2117
  0
LINE
  5
2079
330
1F
100
AcDbEntity
  8
AM_7
  6
AM_ISO08W050x2
100
AcDbLine
 10
277.9795850485251
 20
385.2550430916892
 30
0.0
 11
281.4795850485251
 21
385.2550430916892
 31
0.0
1001
GENIUS_GENOREF_13
1005
2116
  0
LINE
  5
207A
330
1F
100
AcDbEntity
  8
AM_7
  6
AM_ISO08W050x2
100
AcDbLine
 10
277.9795850485251
 20
385.2550430916892
 30
0.0
 11
277.9795850485251
 21
388.7550430916892
 31
0.0
1001
GENIUS_GENOREF_13
1005
2116
  0
LINE
  5
207B
102
{ACAD_REACTORS
330
20D2
102
}
330
1F
100
AcDbEntity
  8
AM_7
  6
AM_ISO08W050x2
100
AcDbLine
 10
277.9795850485251
 20
385.2550430916892
 30
0.0
 11
274.4795850485251
 21
385.2550430916892
 31
0.0
1001
GENIUS_GENOREF_13
1005
2116
  0
LINE
  5
207C
330
1F
100
AcDbEntity
  8
AM_7
  6
AM_ISO08W050x2
100
AcDbLine
 10
277.9795850485251
 20
385.2550430916892
 30
0.0
 11
277.9795850485251
 21
381.7550430916892
 31
0.0
1001
GENIUS_GENOREF_13
1005
2116
  0
LINE
  5
207D
330
1F
100
AcDbEntity
  8
AM_4
  6
HIDDEN
 48
0.2
100
AcDbLine
 10
275.9125977504171
 20
325.977889182662
 30
0.0
 11
275.354585048525
 21
326.3000579663108
 31
0.0
1001
GENIUS_GENOREF_13
1005
0
  0
LINE
  5
207E
330
1F
100
AcDbEntity
  8
AM_4
  6
HIDDEN
 48
0.2
100
AcDbLine
 10
275.479585048525
 20
326.227889182662
 30
0.0
 11
275.479585048525
 21
318.3000579663108
 31
0.0
1001
GENIUS_GENOREF_13
1005
0
  0
LINE
  5
207F
330
1F
100
AcDbEntity
  8
AM_4
  6
HIDDEN
 48
0.2
100
AcDbLine
 10
275.9125977504171
 20
325.977889182662
 30
0.0
 11
275.9125977504171
 21
315.1000579663107
 31
0.0
1001
GENIUS_GENOREF_13
1005
0
  0
LINE
  5
2080
330
1F
100
AcDbEntity
  8
AM_4
  6
HIDDEN
 48
0.2
100
AcDbLine
 10
280.479585048525
 20
326.227889182662
 30
0.0
 11
280.479585048525
 21
318.3000579663108
 31
0.0
1001
GENIUS_GENOREF_13
1005
0
  0
LINE
  5
2081
330
1F
100
AcDbEntity
  8
AM_4
  6
HIDDEN
 48
0.2
100
AcDbLine
 10
280.0465723466329
 20
325.977889182662
 30
0.0
 11
280.0465723466329
 21
315.1000579663107
 31
0.0
1001
GENIUS_GENOREF_13
1005
0
  0
LINE
  5
2082
330
1F
100
AcDbEntity
  8
AM_4
  6
HIDDEN
 48
0.2
100
AcDbLine
 10
275.9125977504171
 20
325.977889182662
 30
0.0
 11
280.0465723466329
 21
325.977889182662
 31
0.0
1001
GENIUS_GENOREF_13
1005
0
  0
LINE
  5
2083
330
1F
100
AcDbEntity
  8
AM_4
  6
HIDDEN
 48
0.2
100
AcDbLine
 10
280.0465723466329
 20
325.977889182662
 30
0.0
 11
280.604585048525
 21
326.3000579663108
 31
0.0
1001
GENIUS_GENOREF_13
1005
0
  0
LINE
  5
2084
330
1F
100
AcDbEntity
  8
AM_4
  6
HIDDEN
 48
0.2
100
AcDbLine
 10
280.479585048525
 20
318.3000579663108
 30
0.0
 11
280.0465723466329
 21
317.5000579663108
 31
0.0
1001
GENIUS_GENOREF_13
1005
0
  0
LINE
  5
2085
330
1F
100
AcDbEntity
  8
AM_4
  6
HIDDEN
 48
0.2
100
AcDbLine
 10
275.479585048525
 20
318.3000579663108
 30
0.0
 11
275.9125977504171
 21
317.5000579663108
 31
0.0
1001
GENIUS_GENOREF_13
1005
0
  0
LINE
  5
2086
330
1F
100
AcDbEntity
  8
AM_4
  6
HIDDEN
 48
0.2
100
AcDbLine
 10
280.479585048525
 20
318.3000579663108
 30
0.0
 11
275.479585048525
 21
318.3000579663108
 31
0.0
1001
GENIUS_GENOREF_13
1005
0
  0
LINE
  5
2087
330
1F
100
AcDbEntity
  8
AM_4
  6
HIDDEN
 48
0.2
100
AcDbLine
 10
277.979585048525
 20
313.9066822933366
 30
0.0
 11
280.0465723466329
 21
315.1000579663107
 31
0.0
1001
GENIUS_GENOREF_13
1005
0
  0
LINE
  5
2088
330
1F
100
AcDbEntity
  8
AM_4
  6
HIDDEN
 48
0.2
100
AcDbLine
 10
277.979585048525
 20
313.9066822933366
 30
0.0
 11
275.9125977504171
 21
315.1000579663107
 31
0.0
1001
GENIUS_GENOREF_13
1005
0
  0
LINE
  5
2089
330
1F
100
AcDbEntity
  8
AM_4
  6
HIDDEN
 48
0.2
100
AcDbLine
 10
280.0465723466329
 20
315.1000579663107
 30
0.0
 11
275.9125977504171
 21
315.1000579663107
 31
0.0
1001
GENIUS_GENOREF_13
1005
0
  0
LINE
  5
208A
330
1F
100
AcDbEntity
  8
AM_4
  6
HIDDEN
 48
0.2
100
AcDbLine
 10
345.0465723466319
 20
315.1000579663107
 30
0.0
 11
340.9125977504162
 21
315.1000579663107
 31
0.0
  0
LINE
  5
208B
330
1F
100
AcDbEntity
  8
AM_4
  6
HIDDEN
 48
0.2
100
AcDbLine
 10
342.9795850485241
 20
313.9066822933366
 30
0.0
 11
340.9125977504162
 21
315.1000579663107
 31
0.0
  0
LINE
  5
208C
330
1F
100
AcDbEntity
  8
AM_4
  6
HIDDEN
 48
0.2
100
AcDbLine
 10
345.4795850485241
 20
318.3000579663108
 30
0.0
 11
340.4795850485241
 21
318.3000579663108
 31
0.0
  0
LINE
  5
208D
330
1F
100
AcDbEntity
  8
AM_4
  6
HIDDEN
 48
0.2
100
AcDbLine
 10
340.9125977504162
 20
325.977889182662
 30
0.0
 11
345.0465723466319
 21
325.977889182662
 31
0.0
  0
LINE
  5
208E
330
1F
100
AcDbEntity
  8
AM_4
  6
HIDDEN
 48
0.2
100
AcDbLine
 10
340.9125977504162
 20
325.977889182662
 30
0.0
 11
340.9125977504162
 21
315.1000579663107
 31
0.0
  0
LINE
  5
208F
330
1F
100
AcDbEntity
  8
AM_4
  6
HIDDEN
 48
0.2
100
AcDbLine
 10
340.4795850485241
 20
326.227889182662
 30
0.0
 11
340.4795850485241
 21
318.3000579663108
 31
0.0
  0
LINE
  5
2090
330
1F
100
AcDbEntity
  8
AM_4
  6
HIDDEN
 48
0.2
100
AcDbLine
 10
340.4795850485241
 20
318.3000579663108
 30
0.0
 11
340.9125977504162
 21
317.5000579663108
 31
0.0
  0
LINE
  5
2091
330
1F
100
AcDbEntity
  8
AM_4
  6
HIDDEN
 48
0.2
100
AcDbLine
 10
340.9125977504162
 20
325.977889182662
 30
0.0
 11
340.3545850485241
 21
326.3000579663108
 31
0.0
  0
LINE
  5
2092
330
1F
100
AcDbEntity
  8
AM_4
  6
HIDDEN
 48
0.2
100
AcDbLine
 10
342.9795850485241
 20
313.9066822933366
 30
0.0
 11
345.0465723466319
 21
315.1000579663107
 31
0.0
  0
LINE
  5
2093
330
1F
100
AcDbEntity
  8
AM_4
  6
HIDDEN
 48
0.2
100
AcDbLine
 10
345.0465723466319
 20
325.977889182662
 30
0.0
 11
345.0465723466319
 21
315.1000579663107
 31
0.0
  0
LINE
  5
2094
330
1F
100
AcDbEntity
  8
AM_4
  6
HIDDEN
 48
0.2
100
AcDbLine
 10
345.4795850485241
 20
326.227889182662
 30
0.0
 11
345.4795850485241
 21
318.3000579663108
 31
0.0
  0
LINE
  5
2095
330
1F
100
AcDbEntity
  8
AM_4
  6
HIDDEN
 48
0.2
100
AcDbLine
 10
345.4795850485241
 20
318.3000579663108
 30
0.0
 11
345.0465723466319
 21
317.5000579663108
 31
0.0
  0
LINE
  5
2096
330
1F
100
AcDbEntity
  8
AM_4
  6
HIDDEN
 48
0.2
100
AcDbLine
 10
345.0465723466319
 20
325.977889182662
 30
0.0
 11
345.6045850485241
 21
326.3000579663108
 31
0.0
  0
LINE
  5
2097
330
1F
100
AcDbEntity
  8
AM_7
100
AcDbLine
 10
229.3787111652805
 20
406.505043091689
 30
0.0
 11
233.6287111652805
 21
406.505043091689
 31
0.0
1001
GENIUS_GENOREF_13
1005
2115
  0
LINE
  5
2098
330
1F
100
AcDbEntity
  8
AM_7
100
AcDbLine
 10
229.3787111652805
 20
406.505043091689
 30
0.0
 11
229.3787111652805
 21
410.755043091689
 31
0.0
1001
GENIUS_GENOREF_13
1005
2115
  0
LINE
  5
2099
330
1F
100
AcDbEntity
  8
AM_7
100
AcDbLine
 10
229.3787111652805
 20
406.505043091689
 30
0.0
 11
225.1287111652805
 21
406.505043091689
 31
0.0
1001
GENIUS_GENOREF_13
1005
2115
  0
LINE
  5
209A
330
1F
100
AcDbEntity
  8
AM_7
100
AcDbLine
 10
229.3787111652805
 20
406.505043091689
 30
0.0
 11
229.3787111652805
 21
402.255043091689
 31
0.0
1001
GENIUS_GENOREF_13
1005
2115
  0
LINE
  5
209B
330
1F
100
AcDbEntity
  8
AM_7
100
AcDbLine
 10
229.3787111652805
 20
389.005043091689
 30
0.0
 11
233.6287111652805
 21
389.005043091689
 31
0.0
1001
GENIUS_GENOREF_13
1005
2114
  0
LINE
  5
209C
330
1F
100
AcDbEntity
  8
AM_7
100
AcDbLine
 10
229.3787111652805
 20
389.005043091689
 30
0.0
 11
229.3787111652805
 21
393.255043091689
 31
0.0
1001
GENIUS_GENOREF_13
1005
2114
  0
LINE
  5
209D
330
1F
100
AcDbEntity
  8
AM_7
100
AcDbLine
 10
229.3787111652805
 20
389.005043091689
 30
0.0
 11
225.1287111652805
 21
389.005043091689
 31
0.0
1001
GENIUS_GENOREF_13
1005
2114
  0
LINE
  5
209E
330
1F
100
AcDbEntity
  8
AM_7
100
AcDbLine
 10
229.3787111652805
 20
389.005043091689
 30
0.0
 11
229.3787111652805
 21
384.755043091689
 31
0.0
1001
GENIUS_GENOREF_13
1005
2114
  0
LINE
  5
209F
330
1F
100
AcDbEntity
  8
AM_7
  6
AM_ISO08W050x2
100
AcDbLine
 10
220.9787111652804
 20
397.755043091689
 30
0.0
 11
223.9787111652804
 21
397.755043091689
 31
0.0
1001
GENIUS_GENOREF_13
1005
2113
  0
LINE
  5
20A0
330
1F
100
AcDbEntity
  8
AM_7
  6
AM_ISO08W050x2
100
AcDbLine
 10
220.9787111652804
 20
397.755043091689
 30
0.0
 11
217.9787111652804
 21
397.755043091689
 31
0.0
1001
GENIUS_GENOREF_13
1005
2113
  0
LINE
  5
20A1
330
1F
100
AcDbEntity
  8
AM_7
  6
AM_ISO08W050x2
100
AcDbLine
 10
215.4787111652804
 20
397.755043091689
 30
0.0
 11
218.0787111652804
 21
397.755043091689
 31
0.0
1001
GENIUS_GENOREF_13
1005
2112
  0
LINE
  5
20A2
330
1F
100
AcDbEntity
  8
AM_7
  6
AM_ISO08W050x2
100
AcDbLine
 10
215.4787111652804
 20
397.755043091689
 30
0.0
 11
215.4787111652804
 21
400.3550430916891
 31
0.0
1001
GENIUS_GENOREF_13
1005
2112
  0
LINE
  5
20A3
330
1F
100
AcDbEntity
  8
AM_7
  6
AM_ISO08W050x2
100
AcDbLine
 10
215.4787111652804
 20
397.755043091689
 30
0.0
 11
212.8787111652804
 21
397.755043091689
 31
0.0
1001
GENIUS_GENOREF_13
1005
2112
  0
LINE
  5
20A4
330
1F
100
AcDbEntity
  8
AM_7
  6
AM_ISO08W050x2
100
AcDbLine
 10
215.4787111652804
 20
397.755043091689
 30
0.0
 11
215.4787111652804
 21
395.1550430916891
 31
0.0
1001
GENIUS_GENOREF_13
1005
2112
  0
LINE
  5
20A5
330
1F
100
AcDbEntity
  8
AM_7
  6
AM_ISO08W050x2
100
AcDbLine
 10
220.9787111652804
 20
397.755043091689
 30
0.0
 11
223.5787111652804
 21
397.755043091689
 31
0.0
1001
GENIUS_GENOREF_13
1005
2111
  0
LINE
  5
20A6
330
1F
100
AcDbEntity
  8
AM_7
  6
AM_ISO08W050x2
100
AcDbLine
 10
220.9787111652804
 20
397.755043091689
 30
0.0
 11
220.9787111652804
 21
400.3550430916891
 31
0.0
1001
GENIUS_GENOREF_13
1005
2111
  0
LINE
  5
20A7
330
1F
100
AcDbEntity
  8
AM_7
  6
AM_ISO08W050x2
100
AcDbLine
 10
220.9787111652804
 20
397.755043091689
 30
0.0
 11
218.3787111652804
 21
397.755043091689
 31
0.0
1001
GENIUS_GENOREF_13
1005
2111
  0
LINE
  5
20A8
330
1F
100
AcDbEntity
  8
AM_7
  6
AM_ISO08W050x2
100
AcDbLine
 10
220.9787111652804
 20
397.755043091689
 30
0.0
 11
220.9787111652804
 21
395.1550430916891
 31
0.0
1001
GENIUS_GENOREF_13
1005
2111
  0
LINE
  5
20A9
330
1F
100
AcDbEntity
  8
AM_7
  6
AM_ISO08W050x2
100
AcDbLine
 10
399.9795850485243
 20
397.755043091689
 30
0.0
 11
402.5795850485243
 21
397.755043091689
 31
0.0
1001
GENIUS_GENOREF_13
1005
2110
  0
LINE
  5
20AA
330
1F
100
AcDbEntity
  8
AM_7
  6
AM_ISO08W050x2
100
AcDbLine
 10
399.9795850485243
 20
397.755043091689
 30
0.0
 11
399.9795850485243
 21
400.3550430916891
 31
0.0
1001
GENIUS_GENOREF_13
1005
2110
  0
LINE
  5
20AB
330
1F
100
AcDbEntity
  8
AM_7
  6
AM_ISO08W050x2
100
AcDbLine
 10
399.9795850485243
 20
397.755043091689
 30
0.0
 11
397.3795850485243
 21
397.755043091689
 31
0.0
1001
GENIUS_GENOREF_13
1005
2110
  0
LINE
  5
20AC
330
1F
100
AcDbEntity
  8
AM_7
  6
AM_ISO08W050x2
100
AcDbLine
 10
399.9795850485243
 20
397.755043091689
 30
0.0
 11
399.9795850485243
 21
395.1550430916891
 31
0.0
1001
GENIUS_GENOREF_13
1005
2110
  0
LINE
  5
20AD
330
1F
100
AcDbEntity
  8
AM_7
  6
AM_ISO08W050x2
100
AcDbLine
 10
405.4795850485243
 20
397.755043091689
 30
0.0
 11
408.0795850485243
 21
397.755043091689
 31
0.0
1001
GENIUS_GENOREF_13
1005
210F
  0
LINE
  5
20AE
330
1F
100
AcDbEntity
  8
AM_7
  6
AM_ISO08W050x2
100
AcDbLine
 10
405.4795850485243
 20
397.755043091689
 30
0.0
 11
405.4795850485243
 21
400.3550430916891
 31
0.0
1001
GENIUS_GENOREF_13
1005
210F
  0
LINE
  5
20AF
330
1F
100
AcDbEntity
  8
AM_7
  6
AM_ISO08W050x2
100
AcDbLine
 10
405.4795850485243
 20
397.755043091689
 30
0.0
 11
402.8795850485242
 21
397.755043091689
 31
0.0
1001
GENIUS_GENOREF_13
1005
210F
  0
LINE
  5
20B0
330
1F
100
AcDbEntity
  8
AM_7
  6
AM_ISO08W050x2
100
AcDbLine
 10
405.4795850485243
 20
397.755043091689
 30
0.0
 11
405.4795850485243
 21
395.1550430916891
 31
0.0
1001
GENIUS_GENOREF_13
1005
210F
  0
DIMENSION
  5
20B1
102
{ACAD_XDICTIONARY
360
20B2
102
}
102
{ACAD_REACTORS
330
20B3
102
}
330
1F
100
AcDbEntity
  8
AM_5
100
AcDbDimension
  2
*D6
 10
410.4795850485245
 20
346.8000579663108
 30
0.0
 11
310.4795850485245
 21
349.5504024544997
 31
0.0
 70
    32
  1
<>+stroke
 71
     5
 42
200.0
  3
AM_ISO
100
AcDbAlignedDimension
 13
210.4795850485245
 23
313.4000579663107
 33
0.0
 14
410.4795850485245
 24
313.4000579663109
 34
0.0
100
AcDbRotatedDimension
  0
LINE
  5
20B4
102
{ACAD_REACTORS
330
20CC
102
}
330
1F
100
AcDbEntity
  8
AM_7
100
AcDbLine
 10
310.4795850485245
 20
309.2348445851905
 30
0.0
 11
310.4795850485245
 21
328.6886556873931
 31
0.0
  0
DIMENSION
  5
20B5
102
{ACAD_XDICTIONARY
360
20B6
102
}
102
{ACAD_REACTORS
330
20B7
102
}
330
1F
100
AcDbEntity
  8
AM_5
100
AcDbDimension
  2
*D7
 10
401.9804589317686
 20
174.7737868129802
 30
0.0
 11
406.2304589317688
 21
177.5237868129802
 31
0.0
 70
    32
 71
     5
 42
8.500000000000227
  3
AM_ISO
100
AcDbAlignedDimension
 13
410.4804589317689
 23
187.1737868129798
 33
0.0
 14
401.9804589317686
 24
198.9581705831992
 34
0.0
100
AcDbRotatedDimension
1001
ACAD
1000
DSTYLE
1002
{
1070
   271
1070
     8
1002
}
  0
DIMENSION
  5
20B8
102
{ACAD_XDICTIONARY
360
20B9
102
}
102
{ACAD_REACTORS
330
20BA
102
}
330
1F
100
AcDbEntity
  8
AM_5
100
AcDbDimension
  2
*D8
 10
218.9795850485248
 20
174.77378681298
 30
0.0
 11
214.7295850485246
 21
177.52378681298
 31
0.0
 70
    32
 71
     5
 42
8.500000000000227
  3
AM_ISO
100
AcDbAlignedDimension
 13
210.4795850485245
 23
187.1737868129798
 33
0.0
 14
218.9795850485248
 24
198.9581705831992
 34
0.0
100
AcDbRotatedDimension
1001
ACAD
1000
DSTYLE
1002
{
1070
   271
1070
     8
1002
}
  0
DIMENSION
  5
20BB
102
{ACAD_XDICTIONARY
360
20BC
102
}
102
{ACAD_REACTORS
330
20BD
102
}
330
1F
100
AcDbEntity
  8
AM_5
100
AcDbDimension
  2
*D9
 10
401.9795850485245
 20
325.8000579663108
 30
0.0
 11
406.2295850485245
 21
328.5500579663108
 31
0.0
 70
    32
 71
     5
 42
8.5
  3
AM_ISO
100
AcDbAlignedDimension
 13
410.4795850485245
 23
313.4000579663109
 33
0.0
 14
401.9795850485245
 24
302.3000579663108
 34
0.0
100
AcDbRotatedDimension
1001
ACAD
1000
DSTYLE
1002
{
1070
   271
1070
     8
1002
}
  0
DIMENSION
  5
20BE
102
{ACAD_XDICTIONARY
360
20BF
102
}
102
{ACAD_REACTORS
330
20C0
102
}
330
1F
100
AcDbEntity
  8
AM_5
100
AcDbDimension
  2
*D10
 10
391.9795850485245
 20
332.8000579663108
 30
0.0
 11
401.2295850485245
 21
335.5500579663108
 31
0.0
 70
    32
 71
     5
 42
18.5
  3
AM_ISO
100
AcDbAlignedDimension
 13
410.4795850485245
 23
313.4000579663109
 33
0.0
 14
391.9795850485245
 24
305.1000579663107
 34
0.0
100
AcDbRotatedDimension
1001
ACAD
1000
DSTYLE
1002
{
1070
   271
1070
     8
1002
}
  0
DIMENSION
  5
20C1
102
{ACAD_XDICTIONARY
360
20C2
102
}
102
{ACAD_REACTORS
330
20C3
102
}
330
1F
100
AcDbEntity
  8
AM_5
100
AcDbDimension
  2
*D11
 10
342.9795850485242
 20
427.7536823815605
 30
0.0
 11
310.4795850485246
 21
430.5036823815605
 31
0.0
 70
    32
 71
     5
 42
64.99999999999909
  3
AM_ISO
100
AcDbAlignedDimension
 13
277.9795850485251
 23
413.7550430916892
 33
0.0
 14
342.9795850485242
 24
413.7550430916892
 34
0.0
100
AcDbRotatedDimension
1001
ACAD
1000
DSTYLE
1002
{
1070
   271
1070
     8
1002
}
  0
DIMENSION
  5
20C4
102
{ACAD_XDICTIONARY
360
20C5
102
}
102
{ACAD_REACTORS
330
20C6
102
}
330
1F
100
AcDbEntity
  8
AM_5
100
AcDbDimension
  2
*D12
 10
361.4795850485247
 20
434.7536823815605
 30
0.0
 11
310.4795850485246
 21
437.6786823815606
 31
0.0
 70
    32
  1
(<>)
 71
     5
 42
102.0
  3
AM_ISO
100
AcDbAlignedDimension
 13
259.4795850485247
 23
414.2550430916889
 33
0.0
 14
361.4795850485247
 24
414.2550430916892
 34
0.0
100
AcDbRotatedDimension
1001
ACAD
1000
DSTYLE
1002
{
1070
   271
1070
     8
1002
}
  0
DIMENSION
  5
20C7
102
{ACAD_XDICTIONARY
360
20C8
102
}
102
{ACAD_REACTORS
330
20C9
102
}
330
1F
100
AcDbEntity
  8
AM_5
100
AcDbDimension
  2
*D13
 10
366.4795850485246
 20
441.7536823815606
 30
0.0
 11
310.4795850485246
 21
444.5040268697495
 31
0.0
 70
    32
 71
     5
 42
112.0
  3
AM_ISO
100
AcDbAlignedDimension
 13
254.4795850485247
 23
414.2550430916889
 33
0.0
 14
366.4795850485246
 24
414.2550430916892
 34
0.0
100
AcDbRotatedDimension
1001
ACAD
1000
DSTYLE
1002
{
1070
   271
1070
     8
1002
}
  0
DIMENSION
  5
20CA
102
{ACAD_XDICTIONARY
360
20CB
102
}
102
{ACAD_REACTORS
330
20CC
102
}
330
1F
100
AcDbEntity
  8
AM_5
100
AcDbDimension
  2
*D14
 10
410.4795850485245
 20
339.8000579663108
 30
0.0
 11
360.4795850485245
 21
342.5500579663108
 31
0.0
 70
    32
 71
     5
 42
100.0
  3
AM_ISO
100
AcDbAlignedDimension
 13
310.4795850485245
 23
328.6886556873931
 33
0.0
 14
410.4795850485245
 24
313.4000579663109
 34
0.0
100
AcDbRotatedDimension
1001
ACAD
1000
DSTYLE
1002
{
1070
   271
1070
     8
1002
}
  0
DIMENSION
  5
20CD
102
{ACAD_XDICTIONARY
360
20CE
102
}
102
{ACAD_REACTORS
330
20CF
102
}
330
1F
100
AcDbEntity
  8
AM_5
100
AcDbDimension
  2
*D15
 10
233.4795850485243
 20
325.8000579663108
 30
0.0
 11
221.9795850485244
 21
328.5504024544998
 31
0.0
 70
    32
 71
     5
 42
22.99999999999977
  3
AM_ISO
100
AcDbAlignedDimension
 13
210.4795850485245
 23
313.4000579663107
 33
0.0
 14
233.4795850485243
 24
313.6000579663107
 34
0.0
100
AcDbRotatedDimension
1001
ACAD
1000
DSTYLE
1002
{
1070
   271
1070
     8
1002
}
  0
DIMENSION
  5
20D0
102
{ACAD_XDICTIONARY
360
20D1
102
}
102
{ACAD_REACTORS
330
20D2
102
}
330
1F
100
AcDbEntity
  8
AM_5
100
AcDbDimension
  2
*D16
 10
268.7653815869139
 20
385.2550430916892
 30
0.0
 11
268.7653815869138
 21
400.830768714957
 31
0.0
 70
   160
 71
     5
 42
25.0
  3
AM_ISO
100
AcDbAlignedDimension
 13
274.4795850485251
 23
410.2550430916892
 33
0.0
 14
274.4795850485251
 24
385.2550430916892
 34
0.0
 50
90.0
100
AcDbRotatedDimension
1001
ACAD
1000
DSTYLE
1002
{
1070
   271
1070
     8
1002
}
  0
DIMENSION
  5
20D3
102
{ACAD_XDICTIONARY
360
20D4
102
}
102
{ACAD_REACTORS
330
20D5
102
}
330
1F
100
AcDbEntity
  8
AM_5
100
AcDbDimension
  2
*D17
 10
366.4795850485246
 20
441.7536823815606
 30
0.0
 11
376.9795850485246
 21
444.5040268697495
 31
0.0
 70
    32
 71
     5
 42
20.99999999999988
  3
AM_ISO
100
AcDbAlignedDimension
 13
387.4795850485245
 23
417.5550430916882
 33
0.0
 14
366.4795850485246
 24
414.2550430916892
 34
0.0
100
AcDbRotatedDimension
1001
ACAD
1000
DSTYLE
1002
{
1070
   271
1070
     8
1002
}
  0
DIMENSION
  5
20D6
102
{ACAD_XDICTIONARY
360
20D7
102
}
102
{ACAD_REACTORS
330
20D8
102
}
330
1F
100
AcDbEntity
  8
AM_5
100
AcDbDimension
  2
*D18
 10
474.1331107699352
 20
280.3000579663106
 30
0.0
 11
471.3827662817461
 21
293.8000579663107
 31
0.0
 70
    32
 71
     5
 42
27.00000000000012
  3
AM_ISO
100
AcDbAlignedDimension
 13
485.7331107699356
 23
307.3000579663108
 33
0.0
 14
485.7331107699356
 24
280.3000579663106
 34
0.0
 50
90.0
100
AcDbRotatedDimension
1001
ACAD
1000
DSTYLE
1002
{
1070
   271
1070
     8
1002
}
  0
DIMENSION
  5
20D9
102
{ACAD_XDICTIONARY
360
20DA
102
}
102
{ACAD_REACTORS
330
20DB
102
}
330
1F
100
AcDbEntity
  8
AM_5
100
AcDbDimension
  2
*D19
 10
467.1331107699352
 20
273.8000579663106
 30
0.0
 11
464.3831107699352
 21
293.8000579663107
 31
0.0
 70
    32
 71
     5
 42
40.00000000000011
  3
AM_ISO
100
AcDbAlignedDimension
 13
491.2647632675225
 23
313.8000579663108
 33
0.0
 14
488.6238472140584
 24
273.8000579663106
 34
0.0
 50
90.0
100
AcDbRotatedDimension
1001
ACAD
1000
DSTYLE
1002
{
1070
   271
1070
     8
1002
}
  0
DIMENSION
  5
20DC
102
{ACAD_XDICTIONARY
360
20DD
102
}
102
{ACAD_REACTORS
330
20DE
102
}
330
1F
100
AcDbEntity
  8
AM_5
100
AcDbDimension
  2
*D20
 10
460.1331107699352
 20
326.3000579663108
 30
0.0
 11
457.3827662817461
 21
300.0500579663108
 31
0.0
 70
    32
 71
     5
 42
52.50000000000011
  3
AM_ISO
100
AcDbAlignedDimension
 13
488.6238472140584
 23
273.8000579663106
 33
0.0
 14
489.8331107699353
 24
326.3000579663108
 34
0.0
 50
90.0
100
AcDbRotatedDimension
1001
ACAD
1000
DSTYLE
1002
{
1070
   271
1070
     8
1002
}
  0
DIMENSION
  5
20DF
102
{ACAD_XDICTIONARY
360
20E0
102
}
102
{ACAD_REACTORS
330
20E1
102
}
330
1F
100
AcDbEntity
  8
AM_5
100
AcDbDimension
  2
*D21
 10
522.6331107699352
 20
333.7000579663108
 30
0.0
 11
506.1331107699352
 21
336.4500579663109
 31
0.0
 70
    32
 71
     5
 42
33.0
  3
AM_ISO
100
AcDbAlignedDimension
 13
489.6331107699352
 23
326.1000579663107
 33
0.0
 14
522.6331107699352
 24
326.1000579663107
 34
0.0
100
AcDbRotatedDimension
1001
ACAD
1000
DSTYLE
1002
{
1070
   271
1070
     8
1002
}
  0
DIMENSION
  5
20E2
102
{ACAD_XDICTIONARY
360
20E3
102
}
102
{ACAD_REACTORS
330
20E4
102
}
330
1F
100
AcDbEntity
  8
AM_5
100
AcDbDimension
  2
*D22
 10
538.1331107699351
 20
293.8000579663107
 30
0.0
 11
535.3827662817462
 21
283.8000579663108
 31
0.0
 70
    32
 71
     5
 42
20.00000000000011
  3
AM_ISO
100
AcDbAlignedDimension
 13
523.642374325811
 23
273.8000579663106
 33
0.0
 14
527.6332190970176
 24
293.8000579663107
 34
0.0
 50
90.0
100
AcDbRotatedDimension
1001
ACAD
1000
DSTYLE
1002
{
1070
   271
1070
     8
1002
}
  0
DIMENSION
  5
20E5
102
{ACAD_XDICTIONARY
360
20E6
102
}
102
{ACAD_REACTORS
330
20E7
102
}
330
1F
100
AcDbEntity
  8
AM_5
100
AcDbDimension
  2
*D23
 10
519.6331107699352
 20
261.8000579663108
 30
0.0
 11
506.1331107699352
 21
264.5504024544997
 31
0.0
 70
    32
 71
     5
 42
27.0
  3
AM_ISO
100
AcDbAlignedDimension
 13
492.6331107699352
 23
273.400057966311
 33
0.0
 14
519.6331107699352
 24
273.400057966311
 34
0.0
100
AcDbRotatedDimension
1001
ACAD
1000
DSTYLE
1002
{
1070
   271
1070
     8
1002
}
  0
DIMENSION
  5
20E8
102
{ACAD_XDICTIONARY
360
20E9
102
}
102
{ACAD_REACTORS
330
20EA
102
}
330
1F
100
AcDbEntity
  8
AM_5
100
AcDbDimension
  2
*D24
 10
526.1331107699352
 20
254.8000579663108
 30
0.0
 11
506.1331107699352
 21
257.5500579663108
 31
0.0
 70
    32
 71
     5
 42
40.0
  3
AM_ISO
100
AcDbAlignedDimension
 13
486.1331107699352
 23
278.931710463898
 33
0.0
 14
526.1331107699352
 24
278.931710463898
 34
0.0
100
AcDbRotatedDimension
1001
ACAD
1000
DSTYLE
1002
{
1070
   271
1070
     8
1002
}
  0
INSERT
  5
20EB
330
1F
100
AcDbEntity
  8
AM_5
100
AcDbBlockReference
  2
*S2
 10
71.85324952565247
 20
87.15335085664014
 30
0.0
  0
TEXT
  5
20EC
330
1F
100
AcDbEntity
  8
AM_5
100
AcDbText
 10
249.5693499909535
 20
371.9140876486597
 30
0.0
 40
3.0
  1
4-M5x8L
100
AcDbText
  0
TEXT
  5
20ED
330
1F
100
AcDbEntity
  8
AM_5
100
AcDbText
 10
416.1497984128507
 20
219.8342221964601
 30
0.0
 40
3.0
  1
2-G1/8
100
AcDbText
  0
INSERT
  5
20EE
330
1F
100
AcDbEntity
  8
AM_5
100
AcDbBlockReference
  2
*S3
 10
71.85324952565247
 20
52.36276153540956
 30
0.0
  0
INSERT
  5
20EF
330
1F
100
AcDbEntity
  8
AM_5
100
AcDbBlockReference
  2
*S4
 10
71.85324952565247
 20
75.3599304943911
 30
0.0
  0
TEXT
  5
20F0
330
1F
100
AcDbEntity
  8
AM_5
100
AcDbText
 10
416.1497984128507
 20
281.7001965285876
 30
0.0
 40
3.0
  1
2-G1/8
100
AcDbText
  0
INSERT
  5
20F1
330
1F
100
AcDbEntity
  8
AM_5
100
AcDbBlockReference
  2
*S5
 10
81.28821193199291
 20
75.3599304943911
 30
0.0
  0
TEXT
  5
20F2
330
1F
100
AcDbEntity
  8
AM_5
100
AcDbText
 10
529.6566186806285
 20
302.8425930153985
 30
0.0
 40
3.0
  1
G1/8
100
AcDbText
  0
LINE
  5
20F3
330
1F
100
AcDbEntity
  8
AM_4
  6
HIDDEN
 48
0.2
100
AcDbLine
 10
501.8501107699351
 20
274.5170579663106
 30
0.0
 11
510.4161107699353
 21
274.5170579663106
 31
0.0
  0
LINE
  5
20F4
330
1F
100
AcDbEntity
  8
AM_4
  6
HIDDEN
 48
0.2
100
AcDbLine
 10
501.8501107699351
 20
274.5170579663106
 30
0.0
 11
502.3501107699351
 21
281.8000579663108
 31
0.0
  0
LINE
  5
20F5
330
1F
100
AcDbEntity
  8
AM_4
  6
HIDDEN
 48
0.2
100
AcDbLine
 10
501.2691107699351
 20
273.9360579663107
 30
0.0
 11
501.7691107699351
 21
280.8000579663107
 31
0.0
  0
LINE
  5
20F6
330
1F
100
AcDbEntity
  8
AM_4
  6
HIDDEN
 48
0.2
100
AcDbLine
 10
501.1331107699352
 20
273.8000579663106
 30
0.0
 11
501.8501107699351
 21
274.5170579663106
 31
0.0
  0
LINE
  5
20F7
330
1F
100
AcDbEntity
  8
AM_4
  6
HIDDEN
 48
0.2
100
AcDbLine
 10
510.9971107699352
 20
273.9360579663107
 30
0.0
 11
510.4971107699352
 21
280.8000579663107
 31
0.0
  0
LINE
  5
20F8
330
1F
100
AcDbEntity
  8
AM_4
  6
HIDDEN
 48
0.2
100
AcDbLine
 10
509.9161107699351
 20
281.8000579663108
 30
0.0
 11
510.4161107699351
 21
274.5170579663106
 31
0.0
  0
LINE
  5
20F9
330
1F
100
AcDbEntity
  8
AM_7
 48
0.3
100
AcDbLine
 10
506.1331107699352
 20
272.6888703458282
 30
0.0
 11
506.1331107699352
 21
282.5887335619668
 31
0.0
  0
LINE
  5
20FA
330
1F
100
AcDbEntity
  8
AM_4
  6
HIDDEN
 48
0.2
100
AcDbLine
 10
510.4161107699351
 20
274.5170579663106
 30
0.0
 11
511.1331107699352
 21
273.8000579663106
 31
0.0
  0
LINE
  5
20FB
330
1F
100
AcDbEntity
  8
AM_7
 48
0.3
100
AcDbLine
 10
527.2442983904176
 20
293.8000579663107
 30
0.0
 11
517.344435174279
 21
293.8000579663107
 31
0.0
  0
LINE
  5
20FC
330
1F
100
AcDbEntity
  8
AM_4
  6
HIDDEN
 48
0.2
100
AcDbLine
 10
494.1331107699352
 20
297.5830579663107
 30
0.0
 11
486.8501107699353
 21
298.0830579663106
 31
0.0
  0
LINE
  5
20FD
330
1F
100
AcDbEntity
  8
AM_4
  6
HIDDEN
 48
0.2
100
AcDbLine
 10
486.2691107699353
 20
298.6640579663108
 30
0.0
 11
493.1331107699352
 21
298.1640579663108
 31
0.0
  0
LINE
  5
20FE
330
1F
100
AcDbEntity
  8
AM_4
  6
HIDDEN
 48
0.2
100
AcDbLine
 10
486.8501107699353
 20
289.5170579663106
 30
0.0
 11
486.8501107699353
 21
298.0830579663109
 31
0.0
  0
LINE
  5
20FF
330
1F
100
AcDbEntity
  8
AM_4
  6
HIDDEN
 48
0.2
100
AcDbLine
 10
486.8501107699353
 20
298.0830579663106
 30
0.0
 11
486.1331107699352
 21
298.8000579663108
 31
0.0
  0
LINE
  5
2100
330
1F
100
AcDbEntity
  8
AM_4
  6
HIDDEN
 48
0.2
100
AcDbLine
 10
486.2691107699353
 20
288.9360579663107
 30
0.0
 11
493.1331107699352
 21
289.4360579663107
 31
0.0
  0
LINE
  5
2101
330
1F
100
AcDbEntity
  8
AM_4
  6
HIDDEN
 48
0.2
100
AcDbLine
 10
486.8501107699351
 20
289.5170579663106
 30
0.0
 11
494.1331107699352
 21
290.0170579663106
 31
0.0
  0
LINE
  5
2102
330
1F
100
AcDbEntity
  8
AM_4
  6
HIDDEN
 48
0.2
100
AcDbLine
 10
486.8501107699353
 20
289.5170579663108
 30
0.0
 11
486.1331107699352
 21
288.8000579663108
 31
0.0
  0
LINE
  5
2106
102
{ACAD_REACTORS
330
2109
330
210C
102
}
330
1F
100
AcDbEntity
  8
0
  6
Continuous
 48
2.5
100
AcDbLine
 10
233.4772723315262
 20
275.8000579663105
 30
0.0
 11
387.4796951779054
 21
275.800057966311
 31
0.0
  0
DIMENSION
  5
2107
102
{ACAD_XDICTIONARY
360
2108
102
}
102
{ACAD_REACTORS
330
2109
102
}
330
1F
100
AcDbEntity
  8
AM_5
100
AcDbDimension
  2
*D25
 10
244.1102548002464
 20
273.8000579663106
 30
0.0
 11
241.1852548002463
 21
264.7014359190666
 31
0.0
 70
    32
  1
(<>)
 71
     5
 42
1.999999999999886
  3
AM_ISO
100
AcDbAlignedDimension
 13
233.4772723315262
 23
275.8000579663105
 33
0.0
 14
233.2795850485245
 24
273.8000579663106
 34
0.0
 50
90.0
100
AcDbRotatedDimension
1001
ACAD
1000
DSTYLE
1002
{
1070
   271
1070
     8
1002
}
  0
DIMENSION
  5
210A
102
{ACAD_XDICTIONARY
360
210B
102
}
102
{ACAD_REACTORS
330
210C
102
}
330
1F
100
AcDbEntity
  8
AM_5
100
AcDbDimension
  2
*D26
 10
244.1102548002463
 20
311.8000579663105
 30
0.0
 11
244.1102548002462
 21
321.9744674151293
 31
0.0
 70
   160
  1
{\Famgdt;o}<>
 71
     5
 42
36.0
  3
AM_ISO
100
AcDbAlignedDimension
 13
233.4772723315262
 23
275.8000579663105
 33
0.0
 14
233.4794749191436
 24
311.8000579663105
 34
0.0
 50
90.0
100
AcDbRotatedDimension
1001
ACAD
1000
DSTYLE
1002
{
1070
   271
1070
     8
1002
}
  0
POINT
  5
210D
330
1F
100
AcDbEntity
  8
0
 60
     1
100
AcDbPoint
 10
-381.9776536148781
 20
101.1448423175968
 30
0.0
1001
GENIUS_GENOBJ-N-CRS_13
1002
{
1000
OWNER
1000
GEN
1002
}
1001
GENIUS_GENOENT_13
1002
{
1000
MYREF
1005
210D
1002
}
1002
{
1000
GRP
1005
0
1002
}
1001
GENIUS_GENOLIS_13
1002
{
1000
ENT
1005
2044
1005
2043
1005
2042
1005
2041
1002
}
1001
GENIUS_GENODEF_13
1002
{
1000
HIER
1070
    10
1002
}
1002
{
1000
MANEDIT
1070
     0
1002
}
1002
{
1000
NOSEL
1070
     0
1002
}
1002
{
1000
BEHIND
1070
     0
1002
}
1002
{
1000
OTHER
1070
     0
1002
}
1002
{
1000
REACTOR
1002
}
  0
POINT
  5
210E
330
1F
100
AcDbEntity
  8
0
 60
     1
100
AcDbPoint
 10
-381.9776536148781
 20
101.1448423175968
 30
0.0
1001
GENIUS_GENOENT_13
1002
{
1000
MYREF
1005
210E
1002
}
1002
{
1000
GRP
1005
0
1002
}
1001
GENIUS_GENOLIS_13
1002
{
1000
ENT
1005
1F00
1002
}
1001
GENIUS_GENOBJ-NBEHI-BHB_13
1002
{
1000
OWNER
1000
genbehi
1002
}
1001
GENIUS_GENODEF_13
1002
{
1000
HIER
1070
     1
1002
}
1002
{
1000
MANEDIT
1070
     0
1002
}
1002
{
1000
NOSEL
1070
     1
1002
}
1002
{
1000
BEHIND
1070
     0
1002
}
1002
{
1000
OTHER
1070
     1
1002
}
1002
{
1000
REACTOR
1002
}
1001
GENIUS_GENBH_13
1002
{
1000
FGO
1005
0
1002
}
  0
POINT
  5
210F
330
1F
100
AcDbEntity
  8
0
 60
     1
100
AcDbPoint
 10
-381.9776536148781
 20
101.1448423175968
 30
0.0
1001
GENIUS_GENOENT_13
1002
{
1000
MYREF
1005
210F
1002
}
1002
{
1000
GRP
1005
0
1002
}
1001
GENIUS_GENOBJ-N-CRS_13
1002
{
1000
OWNER
1000
GEN
1002
}
1001
GENIUS_GENODEF_13
1002
{
1000
HIER
1070
    10
1002
}
1002
{
1000
MANEDIT
1070
     0
1002
}
1002
{
1000
NOSEL
1070
     0
1002
}
1002
{
1000
BEHIND
1070
     0
1002
}
1002
{
1000
OTHER
1070
     0
1002
}
1002
{
1000
REACTOR
1002
}
1001
GENIUS_GENOLIS_13
1002
{
1000
ENT
1005
20B0
1005
20AF
1005
20AE
1005
20AD
1002
}
  0
POINT
  5
2110
330
1F
100
AcDbEntity
  8
0
 60
     1
100
AcDbPoint
 10
-381.9776536148781
 20
101.1448423175968
 30
0.0
1001
GENIUS_GENOLIS_13
1002
{
1000
ENT
1005
20AC
1005
20AB
1005
20AA
1005
20A9
1002
}
1001
GENIUS_GENOENT_13
1002
{
1000
MYREF
1005
2110
1002
}
1002
{
1000
GRP
1005
0
1002
}
1001
GENIUS_GENOBJ-N-CRS_13
1002
{
1000
OWNER
1000
GEN
1002
}
1001
GENIUS_GENODEF_13
1002
{
1000
HIER
1070
    10
1002
}
1002
{
1000
MANEDIT
1070
     0
1002
}
1002
{
1000
NOSEL
1070
     0
1002
}
1002
{
1000
BEHIND
1070
     0
1002
}
1002
{
1000
OTHER
1070
     0
1002
}
1002
{
1000
REACTOR
1002
}
  0
POINT
  5
2111
330
1F
100
AcDbEntity
  8
0
 60
     1
100
AcDbPoint
 10
-381.9776536148781
 20
101.1448423175968
 30
0.0
1001
GENIUS_GENOENT_13
1002
{
1000
MYREF
1005
2111
1002
}
1002
{
1000
GRP
1005
0
1002
}
1001
GENIUS_GENOLIS_13
1002
{
1000
ENT
1005
20A8
1005
20A7
1005
20A6
1005
20A5
1002
}
1001
GENIUS_GENOBJ-N-CRS_13
1002
{
1000
OWNER
1000
GEN
1002
}
1001
GENIUS_GENODEF_13
1002
{
1000
HIER
1070
    10
1002
}
1002
{
1000
MANEDIT
1070
     0
1002
}
1002
{
1000
NOSEL
1070
     0
1002
}
1002
{
1000
BEHIND
1070
     0
1002
}
1002
{
1000
OTHER
1070
     0
1002
}
1002
{
1000
REACTOR
1002
}
  0
POINT
  5
2112
330
1F
100
AcDbEntity
  8
0
 60
     1
100
AcDbPoint
 10
-381.9776536148781
 20
101.1448423175968
 30
0.0
1001
GENIUS_GENODEF_13
1002
{
1000
HIER
1070
    10
1002
}
1002
{
1000
MANEDIT
1070
     0
1002
}
1002
{
1000
NOSEL
1070
     0
1002
}
1002
{
1000
BEHIND
1070
     0
1002
}
1002
{
1000
OTHER
1070
     0
1002
}
1002
{
1000
REACTOR
1002
}
1001
GENIUS_GENOENT_13
1002
{
1000
MYREF
1005
2112
1002
}
1002
{
1000
GRP
1005
0
1002
}
1001
GENIUS_GENOBJ-N-CRS_13
1002
{
1000
OWNER
1000
GEN
1002
}
1001
GENIUS_GENOLIS_13
1002
{
1000
ENT
1005
20A4
1005
20A3
1005
20A2
1005
20A1
1002
}
  0
POINT
  5
2113
330
1F
100
AcDbEntity
  8
0
 60
     1
100
AcDbPoint
 10
-381.9776536148781
 20
101.1448423175968
 30
0.0
1001
GENIUS_GENOLIS_13
1002
{
1000
ENT
1005
0
1005
20A0
1005
0
1005
209F
1002
}
1001
GENIUS_GENOENT_13
1002
{
1000
MYREF
1005
2113
1002
}
1002
{
1000
GRP
1005
0
1002
}
1001
GENIUS_GENOBJ-N-CRS_13
1002
{
1000
OWNER
1000
GEN
1002
}
1001
GENIUS_GENODEF_13
1002
{
1000
HIER
1070
    10
1002
}
1002
{
1000
MANEDIT
1070
     1
1002
}
1002
{
1000
NOSEL
1070
     0
1002
}
1002
{
1000
BEHIND
1070
     0
1002
}
1002
{
1000
OTHER
1070
     0
1002
}
1002
{
1000
REACTOR
1002
}
  0
POINT
  5
2114
330
1F
100
AcDbEntity
  8
0
 60
     1
100
AcDbPoint
 10
-381.9776536148781
 20
101.1448423175968
 30
0.0
1001
GENIUS_GENOENT_13
1002
{
1000
MYREF
1005
2114
1002
}
1002
{
1000
GRP
1005
0
1002
}
1001
GENIUS_GENOBJ-N-CRS_13
1002
{
1000
OWNER
1000
GEN
1002
}
1001
GENIUS_GENODEF_13
1002
{
1000
HIER
1070
    10
1002
}
1002
{
1000
MANEDIT
1070
     0
1002
}
1002
{
1000
NOSEL
1070
     0
1002
}
1002
{
1000
BEHIND
1070
     0
1002
}
1002
{
1000
OTHER
1070
     0
1002
}
1002
{
1000
REACTOR
1002
}
1001
GENIUS_GENOLIS_13
1002
{
1000
ENT
1005
209E
1005
209D
1005
209C
1005
209B
1002
}
  0
POINT
  5
2115
330
1F
100
AcDbEntity
  8
0
 60
     1
100
AcDbPoint
 10
-381.9776536148781
 20
101.1448423175968
 30
0.0
1001
GENIUS_GENOLIS_13
1002
{
1000
ENT
1005
209A
1005
2099
1005
2098
1005
2097
1002
}
1001
GENIUS_GENODEF_13
1002
{
1000
HIER
1070
    10
1002
}
1002
{
1000
MANEDIT
1070
     0
1002
}
1002
{
1000
NOSEL
1070
     0
1002
}
1002
{
1000
BEHIND
1070
     0
1002
}
1002
{
1000
OTHER
1070
     0
1002
}
1002
{
1000
REACTOR
1002
}
1001
GENIUS_GENOENT_13
1002
{
1000
MYREF
1005
2115
1002
}
1002
{
1000
GRP
1005
0
1002
}
1001
GENIUS_GENOBJ-N-CRS_13
1002
{
1000
OWNER
1000
GEN
1002
}
  0
POINT
  5
2116
330
1F
100
AcDbEntity
  8
0
 60
     1
100
AcDbPoint
 10
-381.9776536148781
 20
101.1448423175968
 30
0.0
1001
GENIUS_GENOLIS_13
1002
{
1000
ENT
1005
207C
1005
207B
1005
207A
1005
2079
1002
}
1001
GENIUS_GENOBJ-N-CRS_13
1002
{
1000
OWNER
1000
GEN
1002
}
1001
GENIUS_GENOENT_13
1002
{
1000
MYREF
1005
2116
1002
}
1002
{
1000
GRP
1005
0
1002
}
1001
GENIUS_GENODEF_13
1002
{
1000
HIER
1070
    10
1002
}
1002
{
1000
MANEDIT
1070
     0
1002
}
1002
{
1000
NOSEL
1070
     0
1002
}
1002
{
1000
BEHIND
1070
     0
1002
}
1002
{
1000
OTHER
1070
     0
1002
}
1002
{
1000
REACTOR
1002
}
  0
POINT
  5
2117
330
1F
100
AcDbEntity
  8
0
 60
     1
100
AcDbPoint
 10
-381.9776536148781
 20
101.1448423175968
 30
0.0
1001
GENIUS_GENODEF_13
1002
{
1000
HIER
1070
    10
1002
}
1002
{
1000
MANEDIT
1070
     0
1002
}
1002
{
1000
NOSEL
1070
     0
1002
}
1002
{
1000
BEHIND
1070
     0
1002
}
1002
{
1000
OTHER
1070
     0
1002
}
1002
{
1000
REACTOR
1002
}
1001
GENIUS_GENOENT_13
1002
{
1000
MYREF
1005
2117
1002
}
1002
{
1000
GRP
1005
0
1002
}
1001
GENIUS_GENOLIS_13
1002
{
1000
ENT
1005
2078
1005
2077
1005
2076
1005
2075
1002
}
1001
GENIUS_GENOBJ-N-CRS_13
1002
{
1000
OWNER
1000
GEN
1002
}
  0
POINT
  5
2118
330
1F
100
AcDbEntity
  8
0
 60
     1
100
AcDbPoint
 10
-381.9776536148781
 20
101.1448423175968
 30
0.0
1001
GENIUS_GENOLIS_13
1002
{
1000
ENT
1005
2074
1005
2073
1005
2072
1005
2071
1002
}
1001
GENIUS_GENODEF_13
1002
{
1000
HIER
1070
    10
1002
}
1002
{
1000
MANEDIT
1070
     0
1002
}
1002
{
1000
NOSEL
1070
     0
1002
}
1002
{
1000
BEHIND
1070
     0
1002
}
1002
{
1000
OTHER
1070
     0
1002
}
1002
{
1000
REACTOR
1002
}
1001
GENIUS_GENOENT_13
1002
{
1000
MYREF
1005
2118
1002
}
1002
{
1000
GRP
1005
0
1002
}
1001
GENIUS_GENOBJ-N-CRS_13
1002
{
1000
OWNER
1000
GEN
1002
}
  0
POINT
  5
2119
330
1F
100
AcDbEntity
  8
0
 60
     1
100
AcDbPoint
 10
-381.9776536148781
 20
101.1448423175968
 30
0.0
1001
GENIUS_GENOENT_13
1002
{
1000
MYREF
1005
2119
1002
}
1002
{
1000
GRP
1005
0
1002
}
1001
GENIUS_GENOLIS_13
1002
{
1000
ENT
1005
2070
1005
206F
1005
206E
1005
206D
1002
}
1001
GENIUS_GENODEF_13
1002
{
1000
HIER
1070
    10
1002
}
1002
{
1000
MANEDIT
1070
     0
1002
}
1002
{
1000
NOSEL
1070
     0
1002
}
1002
{
1000
BEHIND
1070
     0
1002
}
1002
{
1000
OTHER
1070
     0
1002
}
1002
{
1000
REACTOR
1002
}
1001
GENIUS_GENOBJ-N-CRS_13
1002
{
1000
OWNER
1000
GEN
1002
}
  0
POINT
  5
211A
330
1F
100
AcDbEntity
  8
0
 60
     1
100
AcDbPoint
 10
-381.9776536148781
 20
101.1448423175968
 30
0.0
1001
GENIUS_GENODEF_13
1002
{
1000
HIER
1070
    10
1002
}
1002
{
1000
MANEDIT
1070
     0
1002
}
1002
{
1000
NOSEL
1070
     0
1002
}
1002
{
1000
BEHIND
1070
     0
1002
}
1002
{
1000
OTHER
1070
     0
1002
}
1002
{
1000
REACTOR
1002
}
1001
GENIUS_GENOENT_13
1002
{
1000
MYREF
1005
211A
1002
}
1002
{
1000
GRP
1005
0
1002
}
1001
GENIUS_GENOBJ-N-CRS_13
1002
{
1000
OWNER
1000
GEN
1002
}
1001
GENIUS_GENOLIS_13
1002
{
1000
ENT
1005
206C
1005
206B
1005
206A
1005
2069
1002
}
  0
POINT
  5
211B
330
1F
100
AcDbEntity
  8
0
 60
     1
100
AcDbPoint
 10
-381.9776536148781
 20
101.1448423175968
 30
0.0
1001
GENIUS_GENOLIS_13
1002
{
1000
ENT
1005
2068
1005
2067
1005
2066
1005
2065
1002
}
1001
GENIUS_GENOENT_13
1002
{
1000
MYREF
1005
211B
1002
}
1002
{
1000
GRP
1005
0
1002
}
1001
GENIUS_GENOBJ-N-CRS_13
1002
{
1000
OWNER
1000
GEN
1002
}
1001
GENIUS_GENODEF_13
1002
{
1000
HIER
1070
    10
1002
}
1002
{
1000
MANEDIT
1070
     0
1002
}
1002
{
1000
NOSEL
1070
     0
1002
}
1002
{
1000
BEHIND
1070
     0
1002
}
1002
{
1000
OTHER
1070
     0
1002
}
1002
{
1000
REACTOR
1002
}
  0
POINT
  5
211C
330
1F
100
AcDbEntity
  8
0
 60
     1
100
AcDbPoint
 10
-381.9776536148781
 20
101.1448423175968
 30
0.0
1001
GENIUS_GENOBJ-N-CRS_13
1002
{
1000
OWNER
1000
GEN
1002
}
1001
GENIUS_GENOENT_13
1002
{
1000
MYREF
1005
211C
1002
}
1002
{
1000
GRP
1005
0
1002
}
1001
GENIUS_GENOLIS_13
1002
{
1000
ENT
1005
2064
1005
2063
1005
2062
1005
2061
1002
}
1001
GENIUS_GENODEF_13
1002
{
1000
HIER
1070
    10
1002
}
1002
{
1000
MANEDIT
1070
     0
1002
}
1002
{
1000
NOSEL
1070
     0
1002
}
1002
{
1000
BEHIND
1070
     0
1002
}
1002
{
1000
OTHER
1070
     0
1002
}
1002
{
1000
REACTOR
1002
}
  0
POINT
  5
211D
330
1F
100
AcDbEntity
  8
0
 60
     1
100
AcDbPoint
 10
-381.9776536148781
 20
101.1448423175968
 30
0.0
1001
GENIUS_GENOENT_13
1002
{
1000
MYREF
1005
211D
1002
}
1002
{
1000
GRP
1005
0
1002
}
1001
GENIUS_GENOBJ-N-CRS_13
1002
{
1000
OWNER
1000
GEN
1002
}
1001
GENIUS_GENODEF_13
1002
{
1000
HIER
1070
    10
1002
}
1002
{
1000
MANEDIT
1070
     0
1002
}
1002
{
1000
NOSEL
1070
     0
1002
}
1002
{
1000
BEHIND
1070
     0
1002
}
1002
{
1000
OTHER
1070
     0
1002
}
1002
{
1000
REACTOR
1002
}
1001
GENIUS_GENOLIS_13
1002
{
1000
ENT
1005
2060
1005
205F
1005
205E
1005
205D
1002
}
  0
POINT
  5
211E
330
1F
100
AcDbEntity
  8
0
 60
     1
100
AcDbPoint
 10
-381.9776536148781
 20
101.1448423175968
 30
0.0
1001
GENIUS_GENODEF_13
1002
{
1000
HIER
1070
    10
1002
}
1002
{
1000
MANEDIT
1070
     0
1002
}
1002
{
1000
NOSEL
1070
     0
1002
}
1002
{
1000
BEHIND
1070
     0
1002
}
1002
{
1000
OTHER
1070
     0
1002
}
1002
{
1000
REACTOR
1002
}
1001
GENIUS_GENOBJ-N-CRS_13
1002
{
1000
OWNER
1000
GEN
1002
}
1001
GENIUS_GENOLIS_13
1002
{
1000
ENT
1005
205C
1005
205B
1005
205A
1005
2059
1002
}
1001
GENIUS_GENOENT_13
1002
{
1000
MYREF
1005
211E
1002
}
1002
{
1000
GRP
1005
0
1002
}
  0
POINT
  5
211F
330
1F
100
AcDbEntity
  8
0
 60
     1
100
AcDbPoint
 10
-381.9776536148781
 20
101.1448423175968
 30
0.0
1001
GENIUS_GENOBJ-N-CRS_13
1002
{
1000
OWNER
1000
GEN
1002
}
1001
GENIUS_GENODEF_13
1002
{
1000
HIER
1070
    10
1002
}
1002
{
1000
MANEDIT
1070
     0
1002
}
1002
{
1000
NOSEL
1070
     0
1002
}
1002
{
1000
BEHIND
1070
     0
1002
}
1002
{
1000
OTHER
1070
     0
1002
}
1002
{
1000
REACTOR
1002
}
1001
GENIUS_GENOLIS_13
1002
{
1000
ENT
1005
2058
1005
2057
1005
2056
1005
2055
1002
}
1001
GENIUS_GENOENT_13
1002
{
1000
MYREF
1005
211F
1002
}
1002
{
1000
GRP
1005
0
1002
}
  0
POINT
  5
2120
330
1F
100
AcDbEntity
  8
0
 60
     1
100
AcDbPoint
 10
-381.9776536148781
 20
101.1448423175968
 30
0.0
1001
GENIUS_GENOLIS_13
1002
{
1000
ENT
1005
2054
1005
2053
1005
2052
1005
2051
1002
}
1001
GENIUS_GENOBJ-N-CRS_13
1002
{
1000
OWNER
1000
GEN
1002
}
1001
GENIUS_GENOENT_13
1002
{
1000
MYREF
1005
2120
1002
}
1002
{
1000
GRP
1005
0
1002
}
1001
GENIUS_GENODEF_13
1002
{
1000
HIER
1070
    10
1002
}
1002
{
1000
MANEDIT
1070
     0
1002
}
1002
{
1000
NOSEL
1070
     0
1002
}
1002
{
1000
BEHIND
1070
     0
1002
}
1002
{
1000
OTHER
1070
     0
1002
}
1002
{
1000
REACTOR
1002
}
  0
POINT
  5
2121
330
1F
100
AcDbEntity
  8
0
 60
     1
100
AcDbPoint
 10
-381.9776536148781
 20
101.1448423175968
 30
0.0
1001
GENIUS_GENOBJ-N-CRS_13
1002
{
1000
OWNER
1000
GEN
1002
}
1001
GENIUS_GENOENT_13
1002
{
1000
MYREF
1005
2121
1002
}
1002
{
1000
GRP
1005
0
1002
}
1001
GENIUS_GENOLIS_13
1002
{
1000
ENT
1005
2050
1005
204F
1005
204E
1005
204D
1002
}
1001
GENIUS_GENODEF_13
1002
{
1000
HIER
1070
    10
1002
}
1002
{
1000
MANEDIT
1070
     0
1002
}
1002
{
1000
NOSEL
1070
     0
1002
}
1002
{
1000
BEHIND
1070
     0
1002
}
1002
{
1000
OTHER
1070
     0
1002
}
1002
{
1000
REACTOR
1002
}
  0
POINT
  5
2122
330
1F
100
AcDbEntity
  8
0
 60
     1
100
AcDbPoint
 10
-381.9776536148781
 20
101.1448423175968
 30
0.0
1001
GENIUS_GENODEF_13
1002
{
1000
HIER
1070
    10
1002
}
1002
{
1000
MANEDIT
1070
     0
1002
}
1002
{
1000
NOSEL
1070
     0
1002
}
1002
{
1000
BEHIND
1070
     0
1002
}
1002
{
1000
OTHER
1070
     0
1002
}
1002
{
1000
REACTOR
1002
}
1001
GENIUS_GENOLIS_13
1002
{
1000
ENT
1005
204C
1005
204B
1005
204A
1005
2049
1002
}
1001
GENIUS_GENOENT_13
1002
{
1000
MYREF
1005
2122
1002
}
1002
{
1000
GRP
1005
0
1002
}
1001
GENIUS_GENOBJ-N-CRS_13
1002
{
1000
OWNER
1000
GEN
1002
}
  0
POINT
  5
2123
330
1F
100
AcDbEntity
  8
0
 60
     1
100
AcDbPoint
 10
-381.9776536148781
 20
101.1448423175968
 30
0.0
1001
GENIUS_GENOLIS_13
1002
{
1000
ENT
1005
2048
1005
2047
1005
2046
1005
2045
1002
}
1001
GENIUS_GENOENT_13
1002
{
1000
MYREF
1005
2123
1002
}
1002
{
1000
GRP
1005
0
1002
}
1001
GENIUS_GENOBJ-N-CRS_13
1002
{
1000
OWNER
1000
GEN
1002
}
1001
GENIUS_GENODEF_13
1002
{
1000
HIER
1070
    10
1002
}
1002
{
1000
MANEDIT
1070
     0
1002
}
1002
{
1000
NOSEL
1070
     0
1002
}
1002
{
1000
BEHIND
1070
     0
1002
}
1002
{
1000
OTHER
1070
     0
1002
}
1002
{
1000
REACTOR
1002
}
  0
LINE
  5
2609
330
1F
100
AcDbEntity
  8
AM_7
100
AcDbLine
 10
616.6886562956912
 20
222.0760283486103
 30
0.0
 11
616.6886562956912
 21
222.0760283486103
 31
0.0
  0
LINE
  5
260A
330
1F
100
AcDbEntity
  8
AM_7
100
AcDbLine
 10
616.6886562956912
 20
222.0760283486103
 30
0.0
 11
616.6886562956912
 21
222.0760283486103
 31
0.0
  0
LINE
  5
260B
330
1F
100
AcDbEntity
  8
AM_7
100
AcDbLine
 10
610.9386562956913
 20
222.0760283486103
 30
0.0
 11
616.6886562956912
 21
222.0760283486103
 31
0.0
  0
LINE
  5
260C
330
1F
100
AcDbEntity
  8
AM_7
100
AcDbLine
 10
616.6886562956912
 20
222.0760283486103
 30
0.0
 11
623.1886562956913
 21
222.0760283486103
 31
0.0
  0
LINE
  5
260D
330
1F
100
AcDbEntity
  8
AM_7
100
AcDbLine
 10
616.6886562956912
 20
216.3260283486103
 30
0.0
 11
616.6886562956912
 21
222.0760283486103
 31
0.0
  0
LINE
  5
260E
330
1F
100
AcDbEntity
  8
AM_7
100
AcDbLine
 10
616.6886562956912
 20
222.0760283486103
 30
0.0
 11
616.6886562956912
 21
227.8260283486103
 31
0.0
  0
LINE
  5
260F
330
1F
100
AcDbEntity
  8
AM_7
100
AcDbLine
 10
664.6886562956913
 20
222.0760283486103
 30
0.0
 11
664.6886562956913
 21
222.0760283486103
 31
0.0
  0
LINE
  5
2610
330
1F
100
AcDbEntity
  8
AM_7
100
AcDbLine
 10
664.6886562956913
 20
222.0760283486103
 30
0.0
 11
664.6886562956913
 21
222.0760283486103
 31
0.0
  0
LINE
  5
2611
330
1F
100
AcDbEntity
  8
AM_7
100
AcDbLine
 10
658.1886562956912
 20
222.0760283486103
 30
0.0
 11
664.6886562956913
 21
222.0760283486103
 31
0.0
  0
LINE
  5
2612
330
1F
100
AcDbEntity
  8
AM_7
100
AcDbLine
 10
664.6886562956913
 20
222.0760283486103
 30
0.0
 11
670.4386562956913
 21
222.0760283486103
 31
0.0
  0
LINE
  5
2613
330
1F
100
AcDbEntity
  8
AM_7
100
AcDbLine
 10
664.6886562956913
 20
216.3260283486103
 30
0.0
 11
664.6886562956913
 21
222.0760283486103
 31
0.0
  0
LINE
  5
2614
330
1F
100
AcDbEntity
  8
AM_7
100
AcDbLine
 10
664.6886562956913
 20
222.0760283486103
 30
0.0
 11
664.6886562956913
 21
227.8260283486103
 31
0.0
  0
DIMENSION
  5
2615
330
1F
100
AcDbEntity
  8
AM_5
100
AcDbDimension
  2
*D27
 10
598.6886562956913
 20
232.0760283486103
 30
0.0
 11
595.9386562956913
 21
227.0760283486104
 31
0.0
 70
    32
 71
     5
 42
10.0
  3
AM_ISO$0
100
AcDbAlignedDimension
 13
610.9386562956913
 23
222.0760283486103
 33
0.0
 14
610.6886562956913
 24
232.0760283486103
 34
0.0
 50
90.0
100
AcDbRotatedDimension
  0
DIMENSION
  5
2616
330
1F
100
AcDbEntity
  8
AM_5
100
AcDbDimension
  2
*D28
 10
590.6886562956913
 20
232.0760283486103
 30
0.0
 11
587.9383118075024
 21
222.0760283486104
 31
0.0
 70
    32
 71
     5
 42
20.0
  3
AM_ISO$0
100
AcDbAlignedDimension
 13
610.6886562956913
 23
212.0760283486103
 33
0.0
 14
610.6886562956913
 24
232.0760283486103
 34
0.0
 50
90.0
100
AcDbRotatedDimension
  0
DIMENSION
  5
2617
330
1F
100
AcDbEntity
  8
AM_5
100
AcDbDimension
  2
*D29
 10
658.9386562956913
 20
238.1653832338675
 30
0.0
 11
640.6886562956915
 21
240.9153832338675
 31
0.0
 70
    32
  1
<>
 71
     5
 42
36.49999999999966
  3
AM_ISO$0
100
AcDbAlignedDimension
 13
622.4386562956916
 23
232.0760283486103
 33
0.0
 14
658.9386562956913
 24
232.0760283486103
 34
0.0
100
AcDbRotatedDimension
  0
DIMENSION
  5
2618
330
1F
100
AcDbEntity
  8
AM_5
100
AcDbDimension
  2
*D30
 10
664.6886562956913
 20
246.1653832338675
 30
0.0
 11
640.6886562956913
 21
248.9153832338675
 31
0.0
 70
    32
  1
<>
 71
     5
 42
48.0
  3
AM_ISO$0
100
AcDbAlignedDimension
 13
616.6886562956912
 23
227.8260283486103
 33
0.0
 14
664.6886562956913
 24
227.8260283486103
 34
0.0
100
AcDbRotatedDimension
  0
DIMENSION
  5
2619
330
1F
100
AcDbEntity
  8
AM_5
100
AcDbDimension
  2
*D31
 10
670.6886562956912
 20
254.1653832338675
 30
0.0
 11
640.6886562956913
 21
256.9153832338675
 31
0.0
 70
    32
 71
     5
 42
60.0
  3
AM_ISO$0
100
AcDbAlignedDimension
 13
610.6886562956913
 23
232.0760283486103
 33
0.0
 14
670.6886562956912
 24
232.0760283486103
 34
0.0
100
AcDbRotatedDimension
  0
LINE
  5
261A
330
1F
100
AcDbEntity
  8
AM_7
100
AcDbLine
 10
640.6886562956916
 20
237.0760283486103
 30
0.0
 11
640.6886562956916
 21
207.0760283486103
 31
0.0
  0
LINE
  5
261B
330
1F
100
AcDbEntity
  8
AM_7
100
AcDbLine
 10
640.6886562956916
 20
197.7426351817216
 30
0.0
 11
640.6886562956916
 21
185.9426351817217
 31
0.0
  0
DIMENSION
  5
261C
330
1F
100
AcDbEntity
  8
AM_5
100
AcDbDimension
  2
*D32
 10
598.6886562956913
 20
188.9426351817217
 30
0.0
 11
595.9386562956913
 21
179.4926351817218
 31
0.0
 70
    32
  1
<>
 71
     5
 42
3.799999999999954
  3
AM_ISO$0
100
AcDbAlignedDimension
 13
622.4386562956913
 23
192.7426351817216
 33
0.0
 14
610.6886562956913
 24
188.9426351817217
 34
0.0
 50
90.0
100
AcDbRotatedDimension
  0
DIMENSION
  5
261D
330
1F
100
AcDbEntity
  8
AM_5
100
AcDbDimension
  2
*D33
 10
590.6886562956913
 20
188.9426351817217
 30
0.0
 11
587.9386562956913
 21
179.4926351817218
 31
0.0
 70
    32
 71
     5
 42
5.799999999999954
  3
AM_ISO$0
100
AcDbAlignedDimension
 13
610.6886562956913
 23
194.7426351817216
 33
0.0
 14
610.6886562956913
 24
188.9426351817217
 34
0.0
 50
90.0
100
AcDbRotatedDimension
  0
DIMENSION
  5
261E
330
1F
100
AcDbEntity
  8
AM_5
100
AcDbDimension
  2
*D34
 10
617.4710299818364
 20
224.7123878489872
 30
0.0
 11
605.42753434169
 21
206.3333722842671
 31
0.0
 70
   163
  1
2-<>
 71
     5
 42
5.499999999999829
  3
DAYUS$3
100
AcDbDiametricDimension
 15
615.9062826095459
 25
219.4396688482337
 35
0.0
 40
0.0
1001
ACAD
1000
DSTYLE
1002
{
1070
   178
1070
   256
1070
    74
1070
     1
1002
}
  0
LINE
  5
261F
330
1F
100
AcDbEntity
  8
AM_7
100
AcDbLine
 10
701.4976590761646
 20
197.7426351817216
 30
0.0
 11
701.4976590761646
 21
185.9426351817217
 31
0.0
  0
LINE
  5
2620
330
1F
100
AcDbEntity
  8
AM_VIS
100
AcDbLine
 10
658.9386562956917
 20
232.0760283486103
 30
0.0
 11
670.6886562956912
 21
232.0760283486103
 31
0.0
  0
LINE
  5
2621
330
1F
100
AcDbEntity
  8
AM_VIS
100
AcDbLine
 10
670.6886562956912
 20
232.0760283486103
 30
0.0
 11
670.6886562956912
 21
212.0760283486103
 31
0.0
  0
LINE
  5
2622
330
1F
100
AcDbEntity
  8
AM_VIS
100
AcDbLine
 10
670.6886562956912
 20
212.0760283486103
 30
0.0
 11
658.9386562956917
 21
212.0760283486103
 31
0.0
  0
LINE
  5
2623
330
1F
100
AcDbEntity
  8
AM_VIS
100
AcDbLine
 10
622.4386562956916
 20
212.0760283486103
 30
0.0
 11
610.6886562956913
 21
212.0760283486103
 31
0.0
  0
LINE
  5
2624
330
1F
100
AcDbEntity
  8
AM_VIS
100
AcDbLine
 10
610.6886562956913
 20
212.0760283486103
 30
0.0
 11
610.6886562956913
 21
232.0760283486103
 31
0.0
  0
LINE
  5
2625
330
1F
100
AcDbEntity
  8
AM_VIS
100
AcDbLine
 10
610.6886562956913
 20
232.0760283486103
 30
0.0
 11
622.4386562956916
 21
232.0760283486103
 31
0.0
  0
LINE
  5
2626
330
1F
100
AcDbEntity
  8
AM_VIS
100
AcDbLine
 10
658.9386562956917
 20
212.0760283486103
 30
0.0
 11
622.4386562956916
 21
212.0760283486103
 31
0.0
  0
LINE
  5
2627
330
1F
100
AcDbEntity
  8
AM_VIS
100
AcDbLine
 10
622.4386562956916
 20
232.0760283486103
 30
0.0
 11
658.9386562956917
 21
232.0760283486103
 31
0.0
  0
LINE
  5
2628
330
1F
100
AcDbEntity
  8
AM_VIS
100
AcDbLine
 10
622.4386562956913
 20
212.0760283486103
 30
0.0
 11
622.4386562956913
 21
232.0760283486103
 31
0.0
  0
LINE
  5
2629
330
1F
100
AcDbEntity
  8
AM_VIS
100
AcDbLine
 10
658.9386562956913
 20
232.0760283486103
 30
0.0
 11
658.9386562956913
 21
212.0760283486103
 31
0.0
  0
CIRCLE
  5
262A
330
1F
100
AcDbEntity
  8
AM_VIS
100
AcDbCircle
 10
616.6886562956912
 20
222.0760283486103
 30
0.0
 40
2.75
  0
CIRCLE
  5
262B
330
1F
100
AcDbEntity
  8
AM_VIS
100
AcDbCircle
 10
664.6886562956913
 20
222.0760283486103
 30
0.0
 40
2.75
  0
LINE
  5
262C
330
1F
100
AcDbEntity
  8
AM_VIS
100
AcDbLine
 10
670.6886562956912
 20
188.9426351817217
 30
0.0
 11
670.6886562956912
 21
194.7426351817216
 31
0.0
  0
LINE
  5
262D
330
1F
100
AcDbEntity
  8
AM_VIS
100
AcDbLine
 10
670.6886562956912
 20
188.9426351817217
 30
0.0
 11
610.6886562956913
 21
188.9426351817217
 31
0.0
  0
LINE
  5
262E
330
1F
100
AcDbEntity
  8
AM_VIS
100
AcDbLine
 10
610.6886562956913
 20
188.9426351817217
 30
0.0
 11
610.6886562956913
 21
194.7426351817216
 31
0.0
  0
LINE
  5
262F
330
1F
100
AcDbEntity
  8
AM_VIS
100
AcDbLine
 10
670.6886562956912
 20
194.7426351817216
 30
0.0
 11
658.9386562956917
 21
194.7426351817216
 31
0.0
  0
LINE
  5
2630
330
1F
100
AcDbEntity
  8
AM_VIS
100
AcDbLine
 10
622.4386562956916
 20
194.7426351817216
 30
0.0
 11
610.6886562956913
 21
194.7426351817216
 31
0.0
  0
LINE
  5
2631
330
1F
100
AcDbEntity
  8
AM_VIS
100
AcDbLine
 10
658.9386562956917
 20
192.7426351817216
 30
0.0
 11
622.4386562956916
 21
192.7426351817216
 31
0.0
  0
LINE
  5
2632
330
1F
100
AcDbEntity
  8
AM_VIS
100
AcDbLine
 10
622.4386562956913
 20
192.7426351817216
 30
0.0
 11
622.4386562956913
 21
194.7426351817216
 31
0.0
  0
LINE
  5
2633
330
1F
100
AcDbEntity
  8
AM_VIS
100
AcDbLine
 10
658.9386562956913
 20
194.7426351817216
 30
0.0
 11
658.9386562956913
 21
192.7426351817216
 31
0.0
  0
LINE
  5
2634
330
1F
100
AcDbEntity
  8
AM_VIS
100
AcDbLine
 10
711.4976590761646
 20
188.9426351817217
 30
0.0
 11
691.4976590761646
 21
188.9426351817217
 31
0.0
  0
LINE
  5
2635
330
1F
100
AcDbEntity
  8
AM_VIS
100
AcDbLine
 10
711.4976590761646
 20
188.9426351817217
 30
0.0
 11
711.4976590761646
 21
194.7426351817216
 31
0.0
  0
LINE
  5
2636
330
1F
100
AcDbEntity
  8
AM_VIS
100
AcDbLine
 10
691.4976590761646
 20
188.9426351817217
 30
0.0
 11
691.4976590761646
 21
194.7426351817216
 31
0.0
  0
LINE
  5
2637
330
1F
100
AcDbEntity
  8
AM_VIS
100
AcDbLine
 10
711.4976590761646
 20
194.7426351817216
 30
0.0
 11
691.4976590761646
 21
194.7426351817216
 31
0.0
  0
LINE
  5
2638
330
1F
100
AcDbEntity
  8
AM_HID
100
AcDbLine
 10
691.4976590761646
 20
192.7426351817216
 30
0.0
 11
711.4976590761646
 21
192.7426351817216
 31
0.0
  0
LINE
  5
2639
330
1F
100
AcDbEntity
  8
AM_HID
100
AcDbLine
 10
698.7476590761645
 20
194.7426351817216
 30
0.0
 11
698.7476590761645
 21
188.9426351817217
 31
0.0
  0
LINE
  5
263A
330
1F
100
AcDbEntity
  8
AM_HID
100
AcDbLine
 10
704.2476590761646
 20
194.7426351817216
 30
0.0
 11
704.2476590761646
 21
188.9426351817217
 31
0.0
  0
LINE
  5
263B
330
1F
100
AcDbEntity
  8
AM_7
 48
0.3
100
AcDbLine
 10
623.1532034397994
 20
350.399144037861
 30
0.0
 11
623.1532034397994
 21
344.9550285158772
 31
0.0
  0
LINE
  5
263C
330
1F
100
AcDbEntity
  8
AM_7
 48
0.3
100
AcDbLine
 10
596.1532034397994
 20
350.399144037861
 30
0.0
 11
596.1532034397994
 21
344.9550285158772
 31
0.0
  0
LINE
  5
263D
330
1F
100
AcDbEntity
  8
AM_7
 48
0.3
100
AcDbLine
 10
623.1532034397994
 20
357.149144037861
 30
0.0
 11
623.1532034397994
 21
357.149144037861
 31
0.0
  0
LINE
  5
263E
330
1F
100
AcDbEntity
  8
AM_7
 48
0.3
100
AcDbLine
 10
623.1532034397994
 20
357.149144037861
 30
0.0
 11
623.1532034397994
 21
357.149144037861
 31
0.0
  0
LINE
  5
263F
330
1F
100
AcDbEntity
  8
AM_7
 48
0.3
100
AcDbLine
 10
618.1657034397995
 20
357.149144037861
 30
0.0
 11
623.1532034397994
 21
357.149144037861
 31
0.0
  0
LINE
  5
2640
330
1F
100
AcDbEntity
  8
AM_7
 48
0.3
100
AcDbLine
 10
623.1532034397994
 20
357.149144037861
 30
0.0
 11
628.1407034397993
 21
357.149144037861
 31
0.0
  0
LINE
  5
2641
330
1F
100
AcDbEntity
  8
AM_7
 48
0.3
100
AcDbLine
 10
623.1532034397994
 20
352.161644037861
 30
0.0
 11
623.1532034397994
 21
357.149144037861
 31
0.0
  0
LINE
  5
2642
330
1F
100
AcDbEntity
  8
AM_7
 48
0.3
100
AcDbLine
 10
623.1532034397994
 20
357.149144037861
 30
0.0
 11
623.1532034397994
 21
362.136644037861
 31
0.0
  0
LINE
  5
2643
330
1F
100
AcDbEntity
  8
AM_7
 48
0.3
100
AcDbLine
 10
596.1532034397994
 20
357.149144037861
 30
0.0
 11
596.1532034397994
 21
357.149144037861
 31
0.0
  0
LINE
  5
2644
330
1F
100
AcDbEntity
  8
AM_7
 48
0.3
100
AcDbLine
 10
596.1532034397994
 20
357.149144037861
 30
0.0
 11
596.1532034397994
 21
357.149144037861
 31
0.0
  0
LINE
  5
2645
330
1F
100
AcDbEntity
  8
AM_7
 48
0.3
100
AcDbLine
 10
591.1657034397994
 20
357.149144037861
 30
0.0
 11
596.1532034397994
 21
357.149144037861
 31
0.0
  0
LINE
  5
2646
330
1F
100
AcDbEntity
  8
AM_7
 48
0.3
100
AcDbLine
 10
596.1532034397994
 20
357.149144037861
 30
0.0
 11
601.1407034397993
 21
357.149144037861
 31
0.0
  0
LINE
  5
2647
330
1F
100
AcDbEntity
  8
AM_7
 48
0.3
100
AcDbLine
 10
596.1532034397994
 20
352.161644037861
 30
0.0
 11
596.1532034397994
 21
357.149144037861
 31
0.0
  0
LINE
  5
2648
330
1F
100
AcDbEntity
  8
AM_7
 48
0.3
100
AcDbLine
 10
596.1532034397994
 20
357.149144037861
 30
0.0
 11
596.1532034397994
 21
362.136644037861
 31
0.0
  0
LINE
  5
2649
330
1F
100
AcDbEntity
  8
AM_7
 48
0.3
100
AcDbLine
 10
704.3870535044144
 20
357.149144037861
 30
0.0
 11
694.6370535044144
 21
357.149144037861
 31
0.0
  0
LINE
  5
264A
330
1F
100
AcDbEntity
  8
AM_7
 48
0.3
100
AcDbLine
 10
683.8330640178252
 20
352.9642310620422
 30
0.0
 11
683.8330640178252
 21
343.2142310620422
 31
0.0
  0
LINE
  5
264B
330
1F
100
AcDbEntity
  8
AM_7
 48
0.1
100
AcDbLine
 10
609.6532034397994
 20
368.1491440378611
 30
0.0
 11
609.6532034397994
 21
368.1491440378611
 31
0.0
  0
LINE
  5
264C
330
1F
100
AcDbEntity
  8
AM_7
 48
0.1
100
AcDbLine
 10
609.6532034397994
 20
368.1491440378611
 30
0.0
 11
609.6532034397994
 21
368.1491440378611
 31
0.0
  0
LINE
  5
264D
330
1F
100
AcDbEntity
  8
AM_7
 48
0.1
100
AcDbLine
 10
607.7932034397994
 20
368.1491440378612
 30
0.0
 11
609.6532034397994
 21
368.1491440378612
 31
0.0
  0
LINE
  5
264E
330
1F
100
AcDbEntity
  8
AM_7
 48
0.1
100
AcDbLine
 10
609.6532034397994
 20
368.1491440378612
 30
0.0
 11
611.5132034397994
 21
368.1491440378612
 31
0.0
  0
LINE
  5
264F
330
1F
100
AcDbEntity
  8
AM_7
 48
0.1
100
AcDbLine
 10
609.6532034397994
 20
361.949144037861
 30
0.0
 11
609.6532034397994
 21
369.6881605707915
 31
0.0
  0
LINE
  5
2650
330
1F
100
AcDbEntity
  8
AM_7
 48
0.1
100
AcDbLine
 10
609.6532034397994
 20
368.1491440378611
 30
0.0
 11
609.6532034397994
 21
366.6881605707914
 31
0.0
  0
DIMENSION
  5
2651
330
1F
100
AcDbEntity
  8
AM_5
100
AcDbDimension
  2
*D35
 10
629.6532034397994
 20
336.4698161653971
 30
0.0
 11
609.6532034397994
 21
336.4698161653971
 31
0.0
 70
   160
 71
     5
 42
40.0
  3
AM_ISO$0
100
AcDbAlignedDimension
 13
589.6532034397994
 23
348.1491440378611
 33
0.0
 14
629.6532034397994
 24
348.1491440378611
 34
0.0
100
AcDbRotatedDimension
  0
DIMENSION
  5
2652
330
1F
100
AcDbEntity
  8
AM_5
100
AcDbDimension
  2
*D36
 10
623.1532034397994
 20
342.3798530273987
 30
0.0
 11
609.6532034397994
 21
342.3798530273987
 31
0.0
 70
   160
  1
<>
 71
     5
 42
27.0
  3
AM_ISO$0
100
AcDbAlignedDimension
 13
596.1532034397994
 23
344.9550285158772
 33
0.0
 14
623.1532034397994
 24
344.9550285158772
 34
0.0
100
AcDbRotatedDimension
1001
GENIUS_GENDTOL_13
1000
TolAcTol
1000

1000

1040
27.0
  0
DIMENSION
  5
2653
330
1F
100
AcDbEntity
  8
AM_5
100
AcDbDimension
  2
*D37
 10
645.9032034397994
 20
366.149144037861
 30
0.0
 11
643.1532034397993
 21
357.1491440378611
 31
0.0
 70
    32
 71
     5
 42
18.0
  3
AM_ISO$0
100
AcDbAlignedDimension
 13
629.6532034397994
 23
348.1491440378611
 33
0.0
 14
629.6532034397994
 24
366.1491440378611
 34
0.0
 50
90.0
100
AcDbRotatedDimension
  0
DIMENSION
  5
2654
330
1F
100
AcDbEntity
  8
AM_5
100
AcDbDimension
  2
*D38
 10
653.9032034397994
 20
348.149144037861
 30
0.0
 11
651.1528589516103
 21
358.1491440378611
 31
0.0
 70
    32
 71
     5
 42
20.0
  3
AM_ISO$0
100
AcDbAlignedDimension
 13
625.1532034397994
 23
368.1491440378611
 33
0.0
 14
629.6532034397994
 24
348.1491440378611
 34
0.0
 50
90.0
100
AcDbRotatedDimension
  0
DIMENSION
  5
2655
330
1F
100
AcDbEntity
  8
AM_5
100
AcDbDimension
  2
*D39
 10
637.9032034397994
 20
348.1491440378611
 30
0.0
 11
637.9032034397993
 21
350.8614036398074
 31
0.0
 70
   160
 71
     5
 42
9.0
  3
AM_ISO$0
100
AcDbAlignedDimension
 13
630.2782034397994
 23
357.149144037861
 33
0.0
 14
629.6532034397994
 24
348.1491440378611
 34
0.0
 50
90.0
100
AcDbRotatedDimension
1001
GENIUS_GENDTOL_13
1000
TolAcTol
1000

1000

1040
9.0
  0
DIMENSION
  5
2656
330
1F
100
AcDbEntity
  8
AM_5
100
AcDbDimension
  2
*D40
 10
674.1837587499414
 20
348.1491440378611
 30
0.0
 11
674.1837587499413
 21
360.2160703876545
 31
0.0
 70
   160
 71
     5
 42
2.5
  3
AM_ISO$0
100
AcDbAlignedDimension
 13
677.8330640178252
 23
350.649144037861
 33
0.0
 14
677.8330640178252
 24
348.1491440378611
 34
0.0
 50
90.0
100
AcDbRotatedDimension
  0
DIMENSION
  5
2657
330
1F
100
AcDbEntity
  8
AM_5
100
AcDbDimension
  2
*D41
 10
699.8330640178252
 20
328.149144037861
 30
0.0
 11
688.8330640178252
 21
330.8994885260501
 31
0.0
 70
    32
 71
     5
 42
22.0
  3
AM_ISO$0
100
AcDbAlignedDimension
 13
677.8330640178252
 23
348.1491440378611
 33
0.0
 14
699.8330640178252
 24
352.1491440378611
 34
0.0
100
AcDbRotatedDimension
  0
DIMENSION
  5
2658
330
1F
100
AcDbEntity
  8
AM_5
100
AcDbDimension
  2
*D42
 10
699.8330640178252
 20
336.149144037861
 30
0.0
 11
691.8330640178252
 21
338.8991440378611
 31
0.0
 70
    32
 71
     5
 42
16.0
  3
AM_ISO$0
100
AcDbAlignedDimension
 13
683.8330640178252
 23
343.2142310620422
 33
0.0
 14
699.8330640178252
 24
352.1491440378611
 34
0.0
100
AcDbRotatedDimension
  0
DIMENSION
  5
2659
330
1F
100
AcDbEntity
  8
AM_5
100
AcDbDimension
  2
*D43
 10
598.4192821228321
 20
355.5911365275109
 30
0.0
 11
578.8909388775209
 21
363.7080709712518
 31
0.0
 70
   163
  1
4-<>
 71
     5
 42
5.499999999999886
  3
AM_ISO$3
100
AcDbDiametricDimension
 15
593.8871247567684
 25
358.7071515482118
 35
0.0
 40
0.0
1001
ACAD
1000
DSTYLE
1002
{
1070
   141
1040
0.0
1070
   144
1040
1.0
1070
   172
1070
     1
1002
}
  0
DIMENSION
  5
265A
330
1F
100
AcDbEntity
  8
AM_5
100
AcDbDimension
  2
*D44
 10
629.6532034397994
 20
375.5376141922358
 30
0.0
 11
619.6532034397994
 21
378.2879586804248
 31
0.0
 70
    32
  1
<>
 71
     5
 42
20.0
  3
AM_ISO$0
100
AcDbAlignedDimension
 13
609.6532034397994
 23
368.1881605707915
 33
0.0
 14
629.6532034397994
 24
365.149144037861
 34
0.0
100
AcDbRotatedDimension
1001
GENIUS_GENDTOL_13
1000
TolAcTol
1000

1000

1040
20.0
  0
DIMENSION
  5
265B
330
1F
100
AcDbEntity
  8
AM_5
100
AcDbDimension
  2
*D45
 10
577.6532034397994
 20
392.6944262326188
 30
0.0
 11
574.9028589516103
 21
403.6944262326189
 31
0.0
 70
    32
  1
<>
 71
     5
 42
22.0
  3
AM_ISO$0
100
AcDbAlignedDimension
 13
589.6532034397994
 23
414.6944262326188
 33
0.0
 14
589.6532034397994
 24
392.6944262326188
 34
0.0
 50
90.0
100
AcDbRotatedDimension
1001
AD_SKETCHDIM
1005
0
1000
d0
  0
DIMENSION
  5
265C
330
1F
100
AcDbEntity
  8
AM_5
100
AcDbDimension
  2
*D46
 10
585.6284239726154
 20
398.6944262326188
 30
0.0
 11
585.6284239726153
 21
395.6944262326189
 31
0.0
 70
   160
 71
     5
 42
6.0
  3
AM_ISO$0
100
AcDbAlignedDimension
 13
589.6532034397994
 23
392.6944262326188
 33
0.0
 14
601.9032034397994
 24
398.6944262326188
 34
0.0
 50
270.0
100
AcDbRotatedDimension
1001
AD_SKETCHDIM
1005
0
1000
d10
  0
LINE
  5
265D
330
1F
100
AcDbEntity
  8
AM_7
 48
0.1
100
AcDbLine
 10
596.1532034397994
 20
417.6944262326188
 30
0.0
 11
596.1532034397994
 21
409.1944262326189
 31
0.0
  0
LINE
  5
265E
330
1F
100
AcDbEntity
  8
AM_7
 48
0.1
100
AcDbLine
 10
623.1532034397994
 20
417.6944262326188
 30
0.0
 11
623.1532034397994
 21
409.1944262326189
 31
0.0
  0
LINE
  5
265F
330
1F
100
AcDbEntity
  8
AM_7
 48
0.1
100
AcDbLine
 10
623.1532034397994
 20
398.6944262326188
 30
0.0
 11
623.1532034397994
 21
398.6944262326188
 31
0.0
  0
LINE
  5
2660
330
1F
100
AcDbEntity
  8
AM_7
 48
0.1
100
AcDbLine
 10
623.1532034397994
 20
398.6944262326188
 30
0.0
 11
623.1532034397994
 21
398.6944262326188
 31
0.0
  0
LINE
  5
2661
330
1F
100
AcDbEntity
  8
AM_7
 48
0.1
100
AcDbLine
 10
617.4032034397994
 20
398.6944262326188
 30
0.0
 11
623.1532034397994
 21
398.6944262326188
 31
0.0
  0
LINE
  5
2662
330
1F
100
AcDbEntity
  8
AM_7
 48
0.1
100
AcDbLine
 10
623.1532034397994
 20
398.6944262326188
 30
0.0
 11
628.9032034397994
 21
398.6944262326188
 31
0.0
  0
LINE
  5
2663
330
1F
100
AcDbEntity
  8
AM_7
100
AcDbLine
 10
623.1532034397994
 20
392.9444262326189
 30
0.0
 11
623.1532034397994
 21
398.6944262326188
 31
0.0
  0
LINE
  5
2664
330
1F
100
AcDbEntity
  8
AM_7
 48
0.1
100
AcDbLine
 10
623.1532034397994
 20
398.6944262326188
 30
0.0
 11
623.1532034397994
 21
404.4444262326188
 31
0.0
  0
LINE
  5
2665
330
1F
100
AcDbEntity
  8
AM_7
 48
0.1
100
AcDbLine
 10
596.1532034397994
 20
398.6944262326188
 30
0.0
 11
596.1532034397994
 21
398.6944262326188
 31
0.0
  0
LINE
  5
2666
330
1F
100
AcDbEntity
  8
AM_7
 48
0.1
100
AcDbLine
 10
596.1532034397994
 20
398.6944262326188
 30
0.0
 11
596.1532034397994
 21
398.6944262326188
 31
0.0
  0
LINE
  5
2667
330
1F
100
AcDbEntity
  8
AM_7
 48
0.1
100
AcDbLine
 10
590.4032034397994
 20
398.6944262326188
 30
0.0
 11
596.1532034397994
 21
398.6944262326188
 31
0.0
  0
LINE
  5
2668
330
1F
100
AcDbEntity
  8
AM_7
 48
0.1
100
AcDbLine
 10
596.1532034397994
 20
398.6944262326188
 30
0.0
 11
601.9032034397994
 21
398.6944262326188
 31
0.0
  0
LINE
  5
2669
330
1F
100
AcDbEntity
  8
AM_7
 48
0.1
100
AcDbLine
 10
596.1532034397994
 20
392.9444262326189
 30
0.0
 11
596.1532034397994
 21
398.6944262326188
 31
0.0
  0
LINE
  5
266A
330
1F
100
AcDbEntity
  8
AM_7
 48
0.1
100
AcDbLine
 10
596.1532034397994
 20
398.6944262326188
 30
0.0
 11
596.1532034397994
 21
404.4444262326188
 31
0.0
  0
LINE
  5
266B
330
1F
100
AcDbEntity
  8
AM_VIS
 48
0.3
100
AcDbLine
 10
589.6532034397994
 20
350.649144037861
 30
0.0
 11
589.6532034397994
 21
348.1491440378611
 31
0.0
  0
LINE
  5
266C
330
1F
100
AcDbEntity
  8
AM_VIS
 48
0.3
100
AcDbLine
 10
589.6532034397994
 20
352.649144037861
 30
0.0
 11
589.6532034397994
 21
365.149144037861
 31
0.0
  0
LINE
  5
266D
330
1F
100
AcDbEntity
  8
AM_VIS
 48
0.3
100
AcDbLine
 10
628.6532034397994
 20
350.649144037861
 30
0.0
 11
590.6532034397994
 21
350.649144037861
 31
0.0
  0
LINE
  5
266E
330
1F
100
AcDbEntity
  8
AM_VIS
 48
0.3
100
AcDbLine
 10
629.6532034397994
 20
348.1491440378611
 30
0.0
 11
629.6532034397994
 21
350.649144037861
 31
0.0
  0
LINE
  5
266F
330
1F
100
AcDbEntity
  8
AM_VIS
100
AcDbLine
 10
629.6532034397994
 20
365.149144037861
 30
0.0
 11
629.6532034397994
 21
352.649144037861
 31
0.0
  0
LINE
  5
2670
330
1F
100
AcDbEntity
  8
AM_VIS
100
AcDbLine
 10
621.9921661190525
 20
366.1491440378611
 30
0.0
 11
628.6532034397994
 21
366.1491440378611
 31
0.0
  0
LINE
  5
2671
330
1F
100
AcDbEntity
  8
AM_VIS
100
AcDbLine
 10
590.6532034397994
 20
366.1491440378611
 30
0.0
 11
597.3142407605463
 21
366.1491440378611
 31
0.0
  0
LINE
  5
2672
330
1F
100
AcDbEntity
  8
AM_VIS
100
AcDbLine
 10
590.6532034397994
 20
348.1491440378611
 30
0.0
 11
628.6532034397994
 21
348.1491440378611
 31
0.0
  0
LINE
  5
2673
330
1F
100
AcDbEntity
  8
AM_HID
 48
0.5
100
AcDbLine
 10
625.9032034397994
 20
350.649144037861
 30
0.0
 11
625.9032034397994
 21
348.1491440378611
 31
0.0
  0
LINE
  5
2674
330
1F
100
AcDbEntity
  8
AM_HID
 48
0.5
100
AcDbLine
 10
620.4032034397994
 20
350.649144037861
 30
0.0
 11
620.4032034397994
 21
348.1491440378611
 31
0.0
  0
LINE
  5
2675
330
1F
100
AcDbEntity
  8
AM_HID
 48
0.5
100
AcDbLine
 10
598.9032034397994
 20
350.649144037861
 30
0.0
 11
598.9032034397994
 21
348.1491440378611
 31
0.0
  0
LINE
  5
2676
330
1F
100
AcDbEntity
  8
AM_HID
 48
0.5
100
AcDbLine
 10
593.4032034397993
 20
350.649144037861
 30
0.0
 11
593.4032034397993
 21
348.1491440378611
 31
0.0
  0
LINE
  5
2677
330
1F
100
AcDbEntity
  8
AM_VIS
100
AcDbLine
 10
589.6532034397994
 20
350.649144037861
 30
0.0
 11
590.6532034397994
 21
350.649144037861
 31
0.0
  0
LINE
  5
2678
330
1F
100
AcDbEntity
  8
AM_VIS
100
AcDbLine
 10
590.6532034397994
 20
348.1491440378611
 30
0.0
 11
589.6532034397994
 21
348.1491440378611
 31
0.0
  0
LINE
  5
2679
330
1F
100
AcDbEntity
  8
AM_VIS
100
AcDbLine
 10
589.6532034397994
 20
352.649144037861
 30
0.0
 11
589.6532034397994
 21
350.649144037861
 31
0.0
  0
LINE
  5
267A
330
1F
100
AcDbEntity
  8
AM_VIS
100
AcDbLine
 10
628.6532034397994
 20
350.649144037861
 30
0.0
 11
629.6532034397994
 21
350.649144037861
 31
0.0
  0
LINE
  5
267B
330
1F
100
AcDbEntity
  8
AM_VIS
100
AcDbLine
 10
629.6532034397994
 20
348.1491440378611
 30
0.0
 11
628.6532034397994
 21
348.1491440378611
 31
0.0
  0
LINE
  5
267C
330
1F
100
AcDbEntity
  8
AM_VIS
100
AcDbLine
 10
629.6532034397994
 20
350.649144037861
 30
0.0
 11
629.6532034397994
 21
352.649144037861
 31
0.0
  0
ARC
  5
267D
330
1F
100
AcDbEntity
  8
AM_VIS
100
AcDbCircle
 10
628.6532034397994
 20
365.149144037861
 30
0.0
 40
0.9999999999999998
100
AcDbArc
 50
0.0
 51
90.0
  0
ARC
  5
267E
330
1F
100
AcDbEntity
  8
AM_VIS
100
AcDbCircle
 10
609.6532034397994
 20
368.1491440378611
 30
0.0
 40
12.5
100
AcDbArc
 50
189.2068962213473
 51
350.7931037786527
  0
ARC
  5
267F
330
1F
100
AcDbEntity
  8
AM_VIS
100
AcDbCircle
 10
590.6532034397994
 20
365.149144037861
 30
0.0
 40
0.9999999999999998
100
AcDbArc
 50
90.0
 51
180.0
  0
CIRCLE
  5
2680
330
1F
100
AcDbEntity
  8
AM_VIS
100
AcDbCircle
 10
623.1532034397994
 20
357.149144037861
 30
0.0
 40
2.75
  0
CIRCLE
  5
2681
330
1F
100
AcDbEntity
  8
AM_VIS
100
AcDbCircle
 10
596.1532034397994
 20
357.149144037861
 30
0.0
 40
2.75
  0
LINE
  5
2682
330
1F
100
AcDbEntity
  8
AM_VIS
 48
0.3
100
AcDbLine
 10
695.3330640178251
 20
350.649144037861
 30
0.0
 11
678.8330640178251
 21
350.649144037861
 31
0.0
  0
LINE
  5
2683
330
1F
100
AcDbEntity
  8
AM_VIS
 48
0.3
100
AcDbLine
 10
677.8330640178252
 20
350.649144037861
 30
0.0
 11
677.8330640178252
 21
348.1491440378611
 31
0.0
  0
LINE
  5
2684
330
1F
100
AcDbEntity
  8
AM_VIS
 48
0.3
100
AcDbLine
 10
678.8330640178251
 20
348.1491440378611
 30
0.0
 11
695.8330640178252
 21
348.1491440378611
 31
0.0
  0
LINE
  5
2685
330
1F
100
AcDbEntity
  8
AM_VIS
 48
0.3
100
AcDbLine
 10
699.8330640178252
 20
352.1491440378611
 30
0.0
 11
699.8330640178252
 21
365.149144037861
 31
0.0
  0
LINE
  5
2686
330
1F
100
AcDbEntity
  8
AM_VIS
 48
0.3
100
AcDbLine
 10
697.3330640178252
 20
365.149144037861
 30
0.0
 11
697.3330640178252
 21
352.649144037861
 31
0.0
  0
LINE
  5
2687
330
1F
100
AcDbEntity
  8
AM_VIS
100
AcDbLine
 10
699.8330640178252
 20
366.1491440378611
 30
0.0
 11
697.3330640178252
 21
366.1491440378611
 31
0.0
  0
LINE
  5
2688
330
1F
100
AcDbEntity
  8
AM_HID
 48
0.3
100
AcDbLine
 10
699.8330640178252
 20
354.3991440378611
 30
0.0
 11
697.3330640178252
 21
354.3991440378611
 31
0.0
  0
LINE
  5
2689
330
1F
100
AcDbEntity
  8
AM_HID
 48
0.3
100
AcDbLine
 10
699.8330640178252
 20
359.8991440378611
 30
0.0
 11
697.3330640178252
 21
359.8991440378611
 31
0.0
  0
LINE
  5
268A
330
1F
100
AcDbEntity
  8
AM_HID
 48
0.3
100
AcDbLine
 10
697.3330640178252
 20
355.6491440378611
 30
0.0
 11
699.8330640178252
 21
355.6491440378611
 31
0.0
  0
LINE
  5
268B
330
1F
100
AcDbEntity
  8
AM_HID
 48
0.3
100
AcDbLine
 10
686.5830640178252
 20
350.649144037861
 30
0.0
 11
686.5830640178252
 21
348.1491440378611
 31
0.0
  0
LINE
  5
268C
330
1F
100
AcDbEntity
  8
AM_HID
 48
0.3
100
AcDbLine
 10
681.0830640178252
 20
350.649144037861
 30
0.0
 11
681.0830640178252
 21
348.1491440378611
 31
0.0
  0
LINE
  5
268D
330
1F
100
AcDbEntity
  8
AM_VIS
100
AcDbLine
 10
677.8330640178252
 20
350.649144037861
 30
0.0
 11
678.8330640178251
 21
350.649144037861
 31
0.0
  0
LINE
  5
268E
330
1F
100
AcDbEntity
  8
AM_VIS
100
AcDbLine
 10
678.8330640178251
 20
348.1491440378611
 30
0.0
 11
677.8330640178252
 21
348.1491440378611
 31
0.0
  0
ARC
  5
268F
330
1F
100
AcDbEntity
  8
AM_VIS
100
AcDbCircle
 10
695.8330640178252
 20
352.1491440378611
 30
0.0
 40
3.999999999999999
100
AcDbArc
 50
270.0
 51
0.0
  0
ARC
  5
2690
330
1F
100
AcDbEntity
  8
AM_VIS
100
AcDbCircle
 10
695.3330640178251
 20
352.649144037861
 30
0.0
 40
1.999999999999999
100
AcDbArc
 50
270.0
 51
0.0
  0
LINE
  5
2691
330
1F
100
AcDbEntity
  8
AM_VIS
100
AcDbLine
 10
697.3330640178252
 20
365.149144037861
 30
0.0
 11
697.3330640178252
 21
366.1491440378611
 31
0.0
  0
LINE
  5
2692
330
1F
100
AcDbEntity
  8
AM_VIS
100
AcDbLine
 10
699.8330640178252
 20
366.1491440378611
 30
0.0
 11
699.8330640178252
 21
365.149144037861
 31
0.0
  0
LINE
  5
2693
330
1F
100
AcDbEntity
  8
AM_VIS
100
AcDbLine
 10
621.9921661190525
 20
414.6944262326188
 30
0.0
 11
621.9921661190525
 21
412.1944262326188
 31
0.0
  0
LINE
  5
2694
330
1F
100
AcDbEntity
  8
AM_VIS
100
AcDbLine
 10
621.9921661190525
 20
414.6944262326188
 30
0.0
 11
628.6532034397994
 21
414.6944262326188
 31
0.0
  0
LINE
  5
2695
330
1F
100
AcDbEntity
  8
AM_VIS
100
AcDbLine
 10
590.6532034397994
 20
414.6944262326188
 30
0.0
 11
597.3142407605463
 21
414.6944262326188
 31
0.0
  0
LINE
  5
2696
330
1F
100
AcDbEntity
  8
AM_VIS
100
AcDbLine
 10
597.3142407605463
 20
412.1944262326188
 30
0.0
 11
597.3142407605463
 21
414.6944262326188
 31
0.0
  0
LINE
  5
2697
330
1F
100
AcDbEntity
  8
AM_VIS
100
AcDbLine
 10
590.6532034397994
 20
412.1944262326188
 30
0.0
 11
597.3142407605463
 21
412.1944262326188
 31
0.0
  0
LINE
  5
2698
330
1F
100
AcDbEntity
  8
AM_VIS
100
AcDbLine
 10
621.9921661190525
 20
412.1944262326188
 30
0.0
 11
628.6532034397994
 21
412.1944262326188
 31
0.0
  0
LINE
  5
2699
330
1F
100
AcDbEntity
  8
AM_VIS
100
AcDbLine
 10
629.6532034397994
 20
412.1944262326188
 30
0.0
 11
629.6532034397994
 21
414.6944262326188
 31
0.0
  0
LINE
  5
269A
330
1F
100
AcDbEntity
  8
AM_VIS
100
AcDbLine
 10
629.6532034397994
 20
410.1944262326188
 30
0.0
 11
629.6532034397994
 21
393.6944262326189
 31
0.0
  0
LINE
  5
269B
330
1F
100
AcDbEntity
  8
AM_VIS
100
AcDbLine
 10
628.6532034397994
 20
392.6944262326188
 30
0.0
 11
590.6532034397994
 21
392.6944262326188
 31
0.0
  0
LINE
  5
269C
330
1F
100
AcDbEntity
  8
AM_VIS
100
AcDbLine
 10
589.6532034397994
 20
414.6944262326188
 30
0.0
 11
589.6532034397994
 21
412.1944262326188
 31
0.0
  0
LINE
  5
269D
330
1F
100
AcDbEntity
  8
AM_VIS
100
AcDbLine
 10
589.6532034397994
 20
393.6944262326189
 30
0.0
 11
589.6532034397994
 21
410.1944262326188
 31
0.0
  0
LINE
  5
269E
330
1F
100
AcDbEntity
  8
AM_HID
100
AcDbLine
 10
593.4032034397993
 20
414.6944262326188
 30
0.0
 11
593.4032034397993
 21
412.1944262326188
 31
0.0
  0
LINE
  5
269F
330
1F
100
AcDbEntity
  8
AM_HID
100
AcDbLine
 10
598.9032034397994
 20
414.6944262326188
 30
0.0
 11
598.9032034397994
 21
412.1944262326188
 31
0.0
  0
LINE
  5
26A0
330
1F
100
AcDbEntity
  8
AM_HID
100
AcDbLine
 10
620.4032034397994
 20
414.6944262326188
 30
0.0
 11
620.4032034397994
 21
412.1944262326188
 31
0.0
  0
LINE
  5
26A1
330
1F
100
AcDbEntity
  8
AM_HID
100
AcDbLine
 10
625.9032034397994
 20
414.6944262326188
 30
0.0
 11
625.9032034397994
 21
412.1944262326188
 31
0.0
  0
LINE
  5
26A2
330
1F
100
AcDbEntity
  8
AM_VIS
100
AcDbLine
 10
597.3142407605463
 20
414.6944262326188
 30
0.0
 11
621.9921661190525
 21
414.6944262326188
 31
0.0
  0
LINE
  5
26A3
330
1F
100
AcDbEntity
  8
AM_VIS
100
AcDbLine
 10
589.6532034397994
 20
414.6944262326188
 30
0.0
 11
590.6532034397994
 21
414.6944262326188
 31
0.0
  0
LINE
  5
26A4
330
1F
100
AcDbEntity
  8
AM_VIS
100
AcDbLine
 10
590.6532034397994
 20
412.1944262326188
 30
0.0
 11
589.6532034397994
 21
412.1944262326188
 31
0.0
  0
LINE
  5
26A5
330
1F
100
AcDbEntity
  8
AM_VIS
100
AcDbLine
 10
621.9921661190525
 20
412.1944262326188
 30
0.0
 11
597.3142407605463
 21
412.1944262326188
 31
0.0
  0
LINE
  5
26A6
330
1F
100
AcDbEntity
  8
AM_VIS
100
AcDbLine
 10
628.6532034397994
 20
414.6944262326188
 30
0.0
 11
629.6532034397994
 21
414.6944262326188
 31
0.0
  0
LINE
  5
26A7
330
1F
100
AcDbEntity
  8
AM_VIS
100
AcDbLine
 10
629.6532034397994
 20
412.1944262326188
 30
0.0
 11
628.6532034397994
 21
412.1944262326188
 31
0.0
  0
LINE
  5
26A8
330
1F
100
AcDbEntity
  8
AM_VIS
100
AcDbLine
 10
629.6532034397994
 20
410.1944262326188
 30
0.0
 11
629.6532034397994
 21
412.1944262326188
 31
0.0
  0
CIRCLE
  5
26A9
330
1F
100
AcDbEntity
  8
AM_VIS
100
AcDbCircle
 10
623.1532034397994
 20
398.6944262326188
 30
0.0
 40
2.75
  0
CIRCLE
  5
26AA
330
1F
100
AcDbEntity
  8
AM_VIS
100
AcDbCircle
 10
596.1532034397994
 20
398.6944262326188
 30
0.0
 40
2.75
  0
ARC
  5
26AB
330
1F
100
AcDbEntity
  8
AM_VIS
100
AcDbCircle
 10
628.6532034397994
 20
393.6944262326189
 30
0.0
 40
0.9999999999999998
100
AcDbArc
 50
270.0
 51
0.0
  0
LINE
  5
26AC
330
1F
100
AcDbEntity
  8
AM_VIS
100
AcDbLine
 10
589.6532034397994
 20
412.1944262326188
 30
0.0
 11
589.6532034397994
 21
410.1944262326188
 31
0.0
  0
ARC
  5
26AD
330
1F
100
AcDbEntity
  8
AM_VIS
100
AcDbCircle
 10
590.6532034397994
 20
393.6944262326189
 30
0.0
 40
0.9999999999999998
100
AcDbArc
 50
180.0
 51
270.0
  0
DIMENSION
  5
26AE
330
1F
100
AcDbEntity
  8
AM_5
100
AcDbDimension
  2
*D47
 10
609.6532034397994
 20
368.149144037861
 30
0.0
 11
606.1460204713116
 21
363.6825842829332
 31
0.0
 70
   164
 71
     5
 42
12.5
  3
AM_ISO$4
100
AcDbRadialDimension
 15
601.9335058379584
 25
358.3177520236987
 35
0.0
 40
0.0
1001
ACAD
1000
DSTYLE
1002
{
1070
    40
1040
1.0
1070
   144
1040
1.0
1070
   272
1070
     8
1002
}
  0
TEXT
  5
26AF
330
1F
100
AcDbEntity
  8
AM_5
100
AcDbText
 10
573.9045125477822
 20
359.6858612037629
 30
0.0
 40
3.5
  1
thru
100
AcDbText
  0
TEXT
  5
26B0
330
1F
100
AcDbEntity
  8
AM_5
100
AcDbText
 10
601.0131608804282
 20
202.5175449230544
 30
0.0
 40
3.5
  1
thru
100
AcDbText
  0
ENDSEC
  0
SECTION
  2
OBJECTS
  0
DICTIONARY
  5
C
330
0
100
AcDbDictionary
281
     1
  3
ACAD_COLOR
350
BE
  3
ACAD_GROUP
350
D
  3
ACAD_LAYOUT
350
1A
  3
ACAD_MATERIAL
350
BD
  3
ACAD_MLINESTYLE
350
17
  3
ACAD_PLOTSETTINGS
350
19
  3
ACAD_PLOTSTYLENAME
350
E
  3
ACAD_TABLESTYLE
350
11A
  3
AcDbVariableDictionary
350
94
  3
AcmDictionary
350
5B
  3
AMG
350
41
  3
AMGSNAPSETTINGS
350
1B8
  0
DICTIONARY
  5
3F9
330
2
100
AcDbDictionary
280
     1
281
     1
  3
ACAD_LAYERFILTERS
360
2D51
  3
ACAD_LAYERSTATES
360
CC7
  3
ACLYDICTIONARY
360
2D50
  0
DICTIONARY
  5
8F
330
1F
100
AcDbDictionary
280
     1
281
     1
  0
DICTIONARY
  5
20B2
330
20B1
100
AcDbDictionary
280
     1
281
     1
  3
ACAD_DIMASSOC
360
20B3
  0
DICTIONARY
  5
20B6
330
20B5
100
AcDbDictionary
280
     1
281
     1
  3
ACAD_DIMASSOC
360
20B7
  0
DICTIONARY
  5
20B9
330
20B8
100
AcDbDictionary
280
     1
281
     1
  3
ACAD_DIMASSOC
360
20BA
  0
DICTIONARY
  5
20BC
330
20BB
100
AcDbDictionary
280
     1
281
     1
  3
ACAD_DIMASSOC
360
20BD
  0
DICTIONARY
  5
20BF
330
20BE
100
AcDbDictionary
280
     1
281
     1
  3
ACAD_DIMASSOC
360
20C0
  0
DICTIONARY
  5
20C2
330
20C1
100
AcDbDictionary
280
     1
281
     1
  3
ACAD_DIMASSOC
360
20C3
  0
DICTIONARY
  5
20C5
330
20C4
100
AcDbDictionary
280
     1
281
     1
  3
ACAD_DIMASSOC
360
20C6
  0
DICTIONARY
  5
20C8
330
20C7
100
AcDbDictionary
280
     1
281
     1
  3
ACAD_DIMASSOC
360
20C9
  0
DICTIONARY
  5
20CB
330
20CA
100
AcDbDictionary
280
     1
281
     1
  3
ACAD_DIMASSOC
360
20CC
  0
DICTIONARY
  5
20CE
330
20CD
100
AcDbDictionary
280
     1
281
     1
  3
ACAD_DIMASSOC
360
20CF
  0
DICTIONARY
  5
20D1
330
20D0
100
AcDbDictionary
280
     1
281
     1
  3
ACAD_DIMASSOC
360
20D2
  0
DICTIONARY
  5
20D4
330
20D3
100
AcDbDictionary
280
     1
281
     1
  3
ACAD_DIMASSOC
360
20D5
  0
DICTIONARY
  5
20D7
330
20D6
100
AcDbDictionary
280
     1
281
     1
  3
ACAD_DIMASSOC
360
20D8
  0
DICTIONARY
  5
20DA
330
20D9
100
AcDbDictionary
280
     1
281
     1
  3
ACAD_DIMASSOC
360
20DB
  0
DICTIONARY
  5
20DD
330
20DC
100
AcDbDictionary
280
     1
281
     1
  3
ACAD_DIMASSOC
360
20DE
  0
DICTIONARY
  5
20E0
330
20DF
100
AcDbDictionary
280
     1
281
     1
  3
ACAD_DIMASSOC
360
20E1
  0
DICTIONARY
  5
20E3
330
20E2
100
AcDbDictionary
280
     1
281
     1
  3
ACAD_DIMASSOC
360
20E4
  0
DICTIONARY
  5
20E6
330
20E5
100
AcDbDictionary
280
     1
281
     1
  3
ACAD_DIMASSOC
360
20E7
  0
DICTIONARY
  5
20E9
330
20E8
100
AcDbDictionary
280
     1
281
     1
  3
ACAD_DIMASSOC
360
20EA
  0
DICTIONARY
  5
2108
330
2107
100
AcDbDictionary
280
     1
281
     1
  3
ACAD_DIMASSOC
360
2109
  0
DICTIONARY
  5
210B
330
210A
100
AcDbDictionary
280
     1
281
     1
  3
ACAD_DIMASSOC
360
210C
  0
DICTIONARY
  5
BE
102
{ACAD_REACTORS
330
C
102
}
330
C
100
AcDbDictionary
281
     1
  0
DICTIONARY
  5
D
102
{ACAD_REACTORS
330
C
102
}
330
C
100
AcDbDictionary
281
     1
  0
DICTIONARY
  5
1A
102
{ACAD_REACTORS
330
C
102
}
330
C
100
AcDbDictionary
281
     1
  3
Model
350
22
  3
配置1
350
1E
  3
配置2
350
26
  0
DICTIONARY
  5
BD
102
{ACAD_REACTORS
330
C
102
}
330
C
100
AcDbDictionary
281
     1
  0
DICTIONARY
  5
17
102
{ACAD_REACTORS
330
C
102
}
330
C
100
AcDbDictionary
281
     1
  3
Standard
350
18
  0
DICTIONARY
  5
19
102
{ACAD_REACTORS
330
C
102
}
330
C
100
AcDbDictionary
281
     1
  0
ACDBDICTIONARYWDFLT
  5
E
102
{ACAD_REACTORS
330
C
102
}
330
C
100
AcDbDictionary
281
     1
  3
Normal
350
F
100
AcDbDictionaryWithDefault
340
F
  0
DICTIONARY
  5
11A
102
{ACAD_REACTORS
330
C
102
}
330
C
100
AcDbDictionary
281
     1
  3
Standard
350
11B
  0
DICTIONARY
  5
94
102
{ACAD_REACTORS
330
C
102
}
330
C
100
AcDbDictionary
281
     1
  3
CTABLESTYLE
350
138
  3
DIMASSOC
350
96
  3
INDEXCTL
350
95
  3
PROJECTNAME
350
23D7
  0
DICTIONARY
  5
5B
102
{ACAD_REACTORS
330
C
102
}
330
C
100
AcDbDictionary
281
     1
  3
AcmBOM
350
1B5
  3
AcmStdDictionary
350
61
  3
AMDTSECTSYM_ARROWCOLOR
350
123
  0
DICTIONARY
  5
41
102
{ACAD_REACTORS
330
C
102
}
330
C
100
AcDbDictionary
281
     1
  0
DICTIONARY
  5
1B8
102
{ACAD_REACTORS
330
C
102
}
330
C
100
AcDbDictionary
281
     1
  0
DICTIONARY
  5
2D51
102
{ACAD_REACTORS
330
3F9
102
}
330
3F9
100
AcDbDictionary
281
     1
  0
DICTIONARY
  5
CC7
102
{ACAD_REACTORS
330
3F9
102
}
330
3F9
100
AcDbDictionary
281
     1
  0
DICTIONARY
  5
2D50
102
{ACAD_REACTORS
330
3F9
102
}
330
3F9
100
AcDbDictionary
281
     1
1001
ACAD
1000
<All
  0
DIMASSOC
  5
20B3
102
{ACAD_REACTORS
330
20B2
102
}
330
20B2
100
AcDbDimAssoc
330
20B1
 90
        3
 70
     0
 71
     0
  1
AcDbOsnapPointRef
 72
     1
331
1F36
 73
     0
 91
        0
 40
0.0
 10
138.626335522872
 20
238.0401274719195
 30
0.0
 75
     0
  1
AcDbOsnapPointRef
 72
     1
331
1FB3
 73
     0
 91
        0
 40
0.0
 10
338.6263355228721
 20
238.0401274719197
 30
0.0
 75
     0
  0
DIMASSOC
  5
20B7
102
{ACAD_REACTORS
330
20B6
102
}
330
20B6
100
AcDbDimAssoc
330
20B5
 90
        3
 70
     0
 71
     0
  1
AcDbOsnapPointRef
 72
     1
331
2002
 73
     0
 91
        0
 40
0.0
 10
338.6272094061165
 20
134.8110252775703
 30
0.0
 75
     0
  1
AcDbOsnapPointRef
 72
     1
331
2003
 73
     0
 91
        0
 40
0.0
 10
330.1272094061162
 20
146.5954090477897
 30
0.0
 75
     0
  0
DIMASSOC
  5
20BA
102
{ACAD_REACTORS
330
20B9
102
}
330
20B9
100
AcDbDimAssoc
330
20B8
 90
        3
 70
     0
 71
     0
  1
AcDbOsnapPointRef
 72
     1
331
1F73
 73
     0
 91
        0
 40
0.0
 10
138.626335522872
 20
134.8110252775703
 30
0.0
 75
     0
  1
AcDbOsnapPointRef
 72
     1
331
1F74
 73
     0
 91
        0
 40
0.0
 10
147.1263355228723
 20
146.5954090477897
 30
0.0
 75
     0
  0
DIMASSOC
  5
20BD
102
{ACAD_REACTORS
330
20BC
102
}
330
20BC
100
AcDbDimAssoc
330
20BB
 90
        3
 70
     0
 71
     0
  1
AcDbOsnapPointRef
 72
     1
331
1FB3
 73
     0
 91
        0
 40
0.0
 10
338.6263355228721
 20
238.0401274719197
 30
0.0
 75
     0
  1
AcDbOsnapPointRef
 72
     1
331
2056
 73
     0
 91
        0
 40
0.0
 10
330.1263355228721
 20
226.9401274719196
 30
0.0
 75
     0
  0
DIMASSOC
  5
20C0
102
{ACAD_REACTORS
330
20BF
102
}
330
20BF
100
AcDbDimAssoc
330
20BE
 90
        3
 70
     0
 71
     0
  1
AcDbOsnapPointRef
 72
     1
331
1FB3
 73
     0
 91
        0
 40
0.0
 10
338.6263355228721
 20
238.0401274719197
 30
0.0
 75
     0
  1
AcDbOsnapPointRef
 72
     1
331
205A
 73
     0
 91
        0
 40
0.0
 10
320.1263355228721
 20
229.7401274719196
 30
0.0
 75
     0
  0
DIMASSOC
  5
20C3
102
{ACAD_REACTORS
330
20C2
102
}
330
20C2
100
AcDbDimAssoc
330
20C1
 90
        3
 70
     0
 71
     0
  1
AcDbOsnapPointRef
 72
     1
331
206E
 73
     0
 91
        0
 40
0.0
 10
206.1263355228726
 20
326.6016922350491
 30
0.0
 75
     0
  1
AcDbOsnapPointRef
 72
     1
331
2072
 73
     0
 91
        0
 40
0.0
 10
271.1263355228717
 20
326.6016922350491
 30
0.0
 75
     0
  0
DIMASSOC
  5
20C6
102
{ACAD_REACTORS
330
20C5
102
}
330
20C5
100
AcDbDimAssoc
330
20C4
 90
        3
 70
     0
 71
     0
  1
AcDbOsnapPointRef
 72
     1
331
1F11
 73
     0
 91
        0
 40
0.0
 10
187.6263355228721
 20
327.1016922350489
 30
0.0
 75
     0
  1
AcDbOsnapPointRef
 72
     1
331
1F85
 73
     0
 91
        0
 40
0.0
 10
289.6263355228722
 20
327.1016922350491
 30
0.0
 75
     0
  0
DIMASSOC
  5
20C9
102
{ACAD_REACTORS
330
20C8
102
}
330
20C8
100
AcDbDimAssoc
330
20C7
 90
        3
 70
     0
 71
     0
  1
AcDbOsnapPointRef
 72
     1
331
1EFD
 73
     0
 91
        0
 40
0.0
 10
182.6263355228722
 20
327.1016922350489
 30
0.0
 75
     0
  1
AcDbOsnapPointRef
 72
    13
331
1EFD
 73
     0
 91
        0
 40
0.0
 10
294.6263355228722
 20
327.1016922350491
 30
0.0
 75
     0
  0
DIMASSOC
  5
20CC
102
{ACAD_REACTORS
330
20CB
102
}
330
20CB
100
AcDbDimAssoc
330
20CA
 90
        3
 70
     0
 71
     0
  1
AcDbOsnapPointRef
 72
     1
331
20B4
 73
     0
 91
        0
 40
0.0
 10
238.6263355228721
 20
253.328725193002
 30
0.0
 75
     0
  1
AcDbOsnapPointRef
 72
     1
331
1FB3
 73
     0
 91
        0
 40
0.0
 10
338.6263355228721
 20
238.0401274719197
 30
0.0
 75
     0
  0
DIMASSOC
  5
20CF
102
{ACAD_REACTORS
330
20CE
102
}
330
20CE
100
AcDbDimAssoc
330
20CD
 90
        3
 70
     0
 71
     0
  1
AcDbOsnapPointRef
 72
     1
331
1F36
 73
     0
 91
        0
 40
0.0
 10
138.626335522872
 20
238.0401274719195
 30
0.0
 75
     0
  1
AcDbOsnapPointRef
 72
    13
331
1F38
 73
     0
 91
        0
 40
0.0
 10
161.6263355228718
 20
238.2401274719196
 30
0.0
 75
     0
  0
DIMASSOC
  5
20D2
102
{ACAD_REACTORS
330
20D1
102
}
330
20D1
100
AcDbDimAssoc
330
20D0
 90
        3
 70
     0
 71
     0
  1
AcDbOsnapPointRef
 72
     1
331
206F
 73
     0
 91
        0
 40
0.0
 10
202.6263355228727
 20
323.1016922350491
 30
0.0
 75
     0
  1
AcDbOsnapPointRef
 72
     1
331
207B
 73
     0
 91
        0
 40
0.0
 10
202.6263355228727
 20
298.1016922350491
 30
0.0
 75
     0
  0
DIMASSOC
  5
20D5
102
{ACAD_REACTORS
330
20D4
102
}
330
20D4
100
AcDbDimAssoc
330
20D3
 90
        2
 70
     0
 71
     0
  1
AcDbOsnapPointRef
 72
    13
331
1EFD
 73
     0
 91
        0
 40
0.0
 10
294.6263355228722
 20
327.1016922350491
 30
0.0
 75
     0
  0
DIMASSOC
  5
20D8
102
{ACAD_REACTORS
330
20D7
102
}
330
20D7
100
AcDbDimAssoc
330
20D6
 90
        3
 70
     0
 71
     0
  1
AcDbOsnapPointRef
 72
     1
331
2043
 73
     0
 91
        0
 40
0.0
 10
404.4448988379427
 20
231.9401274719196
 30
0.0
 75
     0
  1
AcDbOsnapPointRef
 72
     1
331
204B
 73
     0
 91
        0
 40
0.0
 10
404.4448988379427
 20
204.9401274719195
 30
0.0
 75
     0
  0
DIMASSOC
  5
20DB
102
{ACAD_REACTORS
330
20DA
102
}
330
20DA
100
AcDbDimAssoc
330
20D9
 90
        3
 70
     0
 71
     0
  1
AcDbOsnapPointRef
 72
    13
331
1FAE
 73
     0
 91
        0
 40
0.0
 10
409.9765513355296
 20
238.4401274719196
 30
0.0
 75
     0
  1
AcDbOsnapPointRef
 72
     1
331
1FB1
 73
     0
 91
        0
 40
0.0
 10
407.3356352820655
 20
198.4401274719195
 30
0.0
 75
     0
  0
DIMASSOC
  5
20DE
102
{ACAD_REACTORS
330
20DD
102
}
330
20DD
100
AcDbDimAssoc
330
20DC
 90
        3
 70
     0
 71
     0
  1
AcDbOsnapPointRef
 72
     1
331
1FB1
 73
     0
 91
        0
 40
0.0
 10
407.3356352820655
 20
198.4401274719195
 30
0.0
 75
     0
  1
AcDbOsnapPointRef
 72
    13
331
1FF6
 73
     0
 91
        0
 40
0.0
 10
408.5448988379424
 20
250.9401274719197
 30
0.0
 75
     0
  0
DIMASSOC
  5
20E1
102
{ACAD_REACTORS
330
20E0
102
}
330
20E0
100
AcDbDimAssoc
330
20DF
 90
        3
 70
     0
 71
     0
  1
AcDbOsnapPointRef
 72
    13
331
1FEC
 73
     0
 91
        0
 40
0.0
 10
408.3448988379423
 20
250.7401274719196
 30
0.0
 75
     0
  1
AcDbOsnapPointRef
 72
     1
331
2015
 73
     0
 91
        0
 40
0.0
 10
441.3448988379423
 20
250.7401274719196
 30
0.0
 75
     0
  0
DIMASSOC
  5
20E4
102
{ACAD_REACTORS
330
20E3
102
}
330
20E3
100
AcDbDimAssoc
330
20E2
 90
        3
 70
     0
 71
     0
  1
AcDbOsnapPointRef
 72
    13
331
1FB1
 73
     0
 91
        0
 40
0.0
 10
442.3541623938181
 20
198.4401274719195
 30
0.0
 75
     0
  1
AcDbOsnapPointRef
 72
     1
331
2051
 73
     0
 91
        0
 40
0.0
 10
446.3450071650247
 20
218.4401274719196
 30
0.0
 75
     0
  0
DIMASSOC
  5
20E7
102
{ACAD_REACTORS
330
20E6
102
}
330
20E6
100
AcDbDimAssoc
330
20E5
 90
        3
 70
     0
 71
     0
  1
AcDbOsnapPointRef
 72
     1
331
204C
 73
     0
 91
        0
 40
0.0
 10
411.3448988379422
 20
198.0401274719199
 30
0.0
 75
     0
  1
AcDbOsnapPointRef
 72
     1
331
2050
 73
     0
 91
        0
 40
0.0
 10
438.3448988379423
 20
198.0401274719199
 30
0.0
 75
     0
  0
DIMASSOC
  5
20EA
102
{ACAD_REACTORS
330
20E9
102
}
330
20E9
100
AcDbDimAssoc
330
20E8
 90
        1
 70
     0
 71
     0
  1
AcDbOsnapPointRef
 72
    13
331
1FE8
 73
     0
 91
        0
 40
0.0
 10
404.8448988379423
 20
203.5717799695068
 30
0.0
 75
     0
  0
DIMASSOC
  5
2109
102
{ACAD_REACTORS
330
2108
102
}
330
2108
100
AcDbDimAssoc
330
2107
 90
        3
 70
     0
 71
     0
  1
AcDbOsnapPointRef
 72
    13
331
2106
 73
     0
 91
        0
 40
0.0
 10
161.6240228058738
 20
200.4401274719195
 30
0.0
 75
     0
  1
AcDbOsnapPointRef
 72
    13
331
1F39
 73
     0
 91
        0
 40
0.0
 10
161.426335522872
 20
198.4401274719195
 30
0.0
 75
     0
  0
DIMASSOC
  5
210C
102
{ACAD_REACTORS
330
210B
102
}
330
210B
100
AcDbDimAssoc
330
210A
 90
        3
 70
     0
 71
     0
  1
AcDbOsnapPointRef
 72
    13
331
2106
 73
     0
 91
        0
 40
0.0
 10
161.6240228058738
 20
200.4401274719195
 30
0.0
 75
     0
  1
AcDbOsnapPointRef
 72
    13
331
1F66
 73
     0
 91
        0
 40
0.0
 10
161.626225393491
 20
236.4401274719194
 30
0.0
 75
     0
  0
LAYOUT
  5
22
102
{ACAD_REACTORS
330
1A
102
}
330
1A
100
AcDbPlotSettings
  1

  2
\\RD\EPSON Stylus C63 Series單色
  4
A4
  6

 40
3.757083177566528
 41
3.757076978683471
 42
3.757080078125
 43
3.757080078125
 44
209.9733276367187
 45
296.9683227539062
 46
0.0
 47
0.0
 48
0.0
 49
0.0
140
0.0
141
0.0
142
1.0
143
0.3405120737814363
 70
 11952
 72
     1
 73
     0
 74
     0
  7
acad.ctb
 75
     0
147
2.936753428137963
 76
     0
 77
     2
 78
   300
148
-2047.07469463503
149
-1261.649717473083
100
AcDbLayout
  1
Model
 70
     1
 71
     0
 10
0.0
 20
0.0
 11
12.0
 21
9.0
 12
0.0
 22
0.0
 32
0.0
 14
0.0
 24
0.0
 34
0.0
 15
0.0
 25
0.0
 35
0.0
146
0.0
 13
0.0
 23
0.0
 33
0.0
 16
1.0
 26
0.0
 36
0.0
 17
0.0
 27
1.0
 37
0.0
 76
     0
330
1F
1001
ACAD_PSEXT
1000
\\RD\EPSON Stylus C63 Series單色
1000
EPSON Stylus C63 Series
1000
\\RD
1000

1070
     0
  0
LAYOUT
  5
1E
102
{ACAD_REACTORS
330
1A
102
}
330
1A
100
AcDbPlotSettings
  1

  2

  4

  6

 40
0.0
 41
0.0
 42
0.0
 43
0.0
 44
0.0
 45
0.0
 46
0.0
 47
0.0
 48
0.0
 49
0.0
140
0.0
141
0.0
142
1.0
143
1.0
 70
   688
 72
     0
 73
     0
 74
     5
  7
acad.ctb
 75
    16
147
1.0
 76
     0
 77
     2
 78
   300
148
0.0
149
0.0
100
AcDbLayout
  1
配置1
 70
     1
 71
     1
 10
0.0
 20
0.0
 11
420.0
 21
297.0
 12
0.0
 22
0.0
 32
0.0
 14
1.000000000000000E+20
 24
1.000000000000000E+20
 34
1.000000000000000E+20
 15
-1.000000000000000E+20
 25
-1.000000000000000E+20
 35
-1.000000000000000E+20
146
0.0
 13
0.0
 23
0.0
 33
0.0
 16
1.0
 26
0.0
 36
0.0
 17
0.0
 27
1.0
 37
0.0
 76
     0
330
1B
  0
LAYOUT
  5
26
102
{ACAD_REACTORS
330
1A
102
}
330
1A
100
AcDbPlotSettings
  1

  2

  4

  6

 40
0.0
 41
0.0
 42
0.0
 43
0.0
 44
0.0
 45
0.0
 46
0.0
 47
0.0
 48
0.0
 49
0.0
140
0.0
141
0.0
142
1.0
143
1.0
 70
   688
 72
     0
 73
     0
 74
     5
  7
acad.ctb
 75
    16
147
1.0
 76
     0
 77
     2
 78
   300
148
0.0
149
0.0
100
AcDbLayout
  1
配置2
 70
     1
 71
     2
 10
0.0
 20
0.0
 11
12.0
 21
9.0
 12
0.0
 22
0.0
 32
0.0
 14
0.0
 24
0.0
 34
0.0
 15
0.0
 25
0.0
 35
0.0
146
0.0
 13
0.0
 23
0.0
 33
0.0
 16
1.0
 26
0.0
 36
0.0
 17
0.0
 27
1.0
 37
0.0
 76
     0
330
23
  0
MLINESTYLE
  5
18
102
{ACAD_REACTORS
330
17
102
}
330
17
100
AcDbMlineStyle
  2
STANDARD
 70
     0
  3

 62
   256
 51
90.0
 52
90.0
 71
     2
 49
0.5
 62
   256
  6
BYLAYER
 49
-0.5
 62
   256
  6
BYLAYER
  0
ACDBPLACEHOLDER
  5
F
102
{ACAD_REACTORS
330
E
102
}
330
E
  0
TABLESTYLE
  5
11B
102
{ACAD_REACTORS
330
11A
102
}
330
11A
100
AcDbTableStyle
  3
Standard
 70
     0
 71
     0
 40
1.5
 41
1.5
280
     0
281
     0
  7
STANDARD
140
4.5
170
     2
 62
     0
 63
     7
283
     0
274
    -2
284
     1
 64
     0
275
    -2
285
     1
 65
     0
276
    -2
286
     1
 66
     0
277
    -2
287
     1
 67
     0
278
    -2
288
     1
 68
     0
279
    -2
289
     1
 69
     0
  7
STANDARD
140
6.0
170
     5
 62
     0
 63
     7
283
     0
274
    -2
284
     1
 64
     0
275
    -2
285
     1
 65
     0
276
    -2
286
     1
 66
     0
277
    -2
287
     1
 67
     0
278
    -2
288
     1
 68
     0
279
    -2
289
     1
 69
     0
  7
STANDARD
140
4.5
170
     5
 62
     0
 63
     7
283
     0
274
    -2
284
     1
 64
     0
275
    -2
285
     1
 65
     0
276
    -2
286
     1
 66
     0
277
    -2
287
     1
 67
     0
278
    -2
288
     1
 68
     0
279
    -2
289
     1
 69
     0
  0
DICTIONARYVAR
  5
138
102
{ACAD_REACTORS
330
94
102
}
330
94
100
DictionaryVariables
280
     0
  1
STANDARD
  0
DICTIONARYVAR
  5
96
102
{ACAD_REACTORS
330
94
102
}
330
94
100
DictionaryVariables
280
     0
  1
2
  0
DICTIONARYVAR
  5
95
102
{ACAD_REACTORS
330
94
102
}
330
94
100
DictionaryVariables
280
     0
  1
0
  0
DICTIONARYVAR
  5
23D7
102
{ACAD_REACTORS
330
94
102
}
330
94
100
DictionaryVariables
280
     0
  1

  0
DICTIONARY
  5
1B5
102
{ACAD_REACTORS
330
5B
102
}
330
5B
100
AcDbDictionary
281
     1
  0
DICTIONARY
  5
61
102
{ACAD_REACTORS
330
5B
102
}
330
5B
100
AcDbDictionary
281
     1
  0
XRECORD
  5
123
102
{ACAD_REACTORS
330
5B
102
}
330
5B
100
AcDbXrecord
280
     1
 90
-1023410169
  0
ENDSEC
  0
EOF
