  0
SECTION
  2
HEADER
  9
$ACADVER
  1
AC1015
  9
$ACADMAINTVER
 70
    20
  9
$DWGCODEPAGE
  3
ANSI_950
  9
$INSBASE
 10
0.0
 20
0.0
 30
0.0
  9
$EXTMIN
 10
195.6661717422243
 20
656.610609465672
 30
-0.0032959142589561
  9
$EXTMAX
 10
1054.662862870749
 20
1251.29879403502
 30
389.6412578639441
  9
$LIMMIN
 10
0.0
 20
0.0
  9
$LIMMAX
 10
420.0
 20
297.0
  9
$ORTHOMODE
 70
     1
  9
$REGENMODE
 70
     1
  9
$FILLMODE
 70
     1
  9
$QTEXTMODE
 70
     0
  9
$MIRRTEXT
 70
     1
  9
$LTSCALE
 40
1.0
  9
$ATTMODE
 70
     1
  9
$TEXTSIZE
 40
3.0
  9
$TRACEWID
 40
1.0
  9
$TEXTSTYLE
  7
STANDARD
  9
$CLAYER
  8
0
  9
$CELTYPE
  6
ByLayer
  9
$CECOLOR
 62
   256
  9
$CELTSCALE
 40
1.0
  9
$DISPSILH
 70
     0
  9
$DIMSCALE
 40
1.0
  9
$DIMASZ
 40
3.0
  9
$DIMEXO
 40
1.5
  9
$DIMDLI
 40
8.0
  9
$DIMRND
 40
0.0
  9
$DIMDLE
 40
0.0
  9
$DIMEXE
 40
1.5
  9
$DIMTP
 40
0.1
  9
$DIMTM
 40
0.1
  9
$DIMTXT
 40
3.5
  9
$DIMCEN
 40
0.0
  9
$DIMTSZ
 40
0.0
  9
$DIMTOL
 70
     0
  9
$DIMLIM
 70
     0
  9
$DIMTIH
 70
     0
  9
$DIMTOH
 70
     0
  9
$DIMSE1
 70
     0
  9
$DIMSE2
 70
     0
  9
$DIMTAD
 70
     1
  9
$DIMZIN
 70
     8
  9
$DIMBLK
  1

  9
$DIMASO
 70
     1
  9
$DIMSHO
 70
     1
  9
$DIMPOST
  1

  9
$DIMAPOST
  1
"
  9
$DIMALT
 70
     0
  9
$DIMALTD
 70
     2
  9
$DIMALTF
 40
0.0393701
  9
$DIMLFAC
 40
1.0
  9
$DIMTOFL
 70
     1
  9
$DIMTVP
 40
0.0
  9
$DIMTIX
 70
     0
  9
$DIMSOXD
 70
     0
  9
$DIMSAH
 70
     0
  9
$DIMBLK1
  1

  9
$DIMBLK2
  1

  9
$DIMSTYLE
  2
AM_ISO
  9
$DIMCLRD
 70
   256
  9
$DIMCLRE
 70
   256
  9
$DIMCLRT
 70
   256
  9
$DIMTFAC
 40
0.6
  9
$DIMGAP
 40
1.0
  9
$DIMJUST
 70
     0
  9
$DIMSD1
 70
     0
  9
$DIMSD2
 70
     0
  9
$DIMTOLJ
 70
     0
  9
$DIMTZIN
 70
     8
  9
$DIMALTZ
 70
     0
  9
$DIMALTTZ
 70
     0
  9
$DIMUPT
 70
     0
  9
$DIMDEC
 70
     2
  9
$DIMTDEC
 70
     8
  9
$DIMALTU
 70
     2
  9
$DIMALTTD
 70
     2
  9
$DIMTXSTY
  7
STANDARD
  9
$DIMAUNIT
 70
     0
  9
$DIMADEC
 70
     0
  9
$DIMALTRND
 40
0.0
  9
$DIMAZIN
 70
     2
  9
$DIMDSEP
 70
    46
  9
$DIMATFIT
 70
     3
  9
$DIMFRAC
 70
     0
  9
$DIMLDRBLK
  1

  9
$DIMLUNIT
 70
     2
  9
$DIMLWD
 70
    -1
  9
$DIMLWE
 70
    -1
  9
$DIMTMOVE
 70
     0
  9
$LUNITS
 70
     2
  9
$LUPREC
 70
     2
  9
$SKETCHINC
 40
1.0
  9
$FILLETRAD
 40
2.5
  9
$AUNITS
 70
     0
  9
$AUPREC
 70
     0
  9
$MENU
  1
.
  9
$ELEVATION
 40
0.0
  9
$PELEVATION
 40
0.0
  9
$THICKNESS
 40
0.0
  9
$LIMCHECK
 70
     0
  9
$CHAMFERA
 40
2.5
  9
$CHAMFERB
 40
2.5
  9
$CHAMFERC
 40
20.0
  9
$CHAMFERD
 40
0.0
  9
$SKPOLY
 70
     0
  9
$TDCREATE
 40
2454422.357293646
  9
$TDUCREATE
 40
2454422.023960312
  9
$TDUPDATE
 40
2454509.681178021
  9
$TDUUPDATE
 40
2454509.347844687
  9
$TDINDWG
 40
0.0751031019
  9
$TDUSRTIMER
 40
0.0751031019
  9
$USRTIMER
 70
     1
  9
$ANGBASE
 50
0.0
  9
$ANGDIR
 70
     0
  9
$PDMODE
 70
     0
  9
$PDSIZE
 40
0.0
  9
$PLINEWID
 40
0.0
  9
$SPLFRAME
 70
     0
  9
$SPLINETYPE
 70
     6
  9
$SPLINESEGS
 70
     8
  9
$HANDSEED
  5
29A0
  9
$SURFTAB1
 70
     6
  9
$SURFTAB2
 70
     6
  9
$SURFTYPE
 70
     6
  9
$SURFU
 70
     6
  9
$SURFV
 70
     6
  9
$UCSBASE
  2

  9
$UCSNAME
  2

  9
$UCSORG
 10
0.0
 20
0.0
 30
0.0
  9
$UCSXDIR
 10
1.0
 20
0.0
 30
0.0
  9
$UCSYDIR
 10
0.0
 20
1.0
 30
0.0
  9
$UCSORTHOREF
  2

  9
$UCSORTHOVIEW
 70
     0
  9
$UCSORGTOP
 10
0.0
 20
0.0
 30
0.0
  9
$UCSORGBOTTOM
 10
0.0
 20
0.0
 30
0.0
  9
$UCSORGLEFT
 10
0.0
 20
0.0
 30
0.0
  9
$UCSORGRIGHT
 10
0.0
 20
0.0
 30
0.0
  9
$UCSORGFRONT
 10
0.0
 20
0.0
 30
0.0
  9
$UCSORGBACK
 10
0.0
 20
0.0
 30
0.0
  9
$PUCSBASE
  2

  9
$PUCSNAME
  2

  9
$PUCSORG
 10
0.0
 20
0.0
 30
0.0
  9
$PUCSXDIR
 10
1.0
 20
0.0
 30
0.0
  9
$PUCSYDIR
 10
0.0
 20
1.0
 30
0.0
  9
$PUCSORTHOREF
  2

  9
$PUCSORTHOVIEW
 70
     0
  9
$PUCSORGTOP
 10
0.0
 20
0.0
 30
0.0
  9
$PUCSORGBOTTOM
 10
0.0
 20
0.0
 30
0.0
  9
$PUCSORGLEFT
 10
0.0
 20
0.0
 30
0.0
  9
$PUCSORGRIGHT
 10
0.0
 20
0.0
 30
0.0
  9
$PUCSORGFRONT
 10
0.0
 20
0.0
 30
0.0
  9
$PUCSORGBACK
 10
0.0
 20
0.0
 30
0.0
  9
$USERI1
 70
     0
  9
$USERI2
 70
     0
  9
$USERI3
 70
     0
  9
$USERI4
 70
     0
  9
$USERI5
 70
     0
  9
$USERR1
 40
0.0
  9
$USERR2
 40
0.0
  9
$USERR3
 40
0.0
  9
$USERR4
 40
0.0
  9
$USERR5
 40
0.0
  9
$WORLDVIEW
 70
     1
  9
$SHADEDGE
 70
     3
  9
$SHADEDIF
 70
    70
  9
$TILEMODE
 70
     1
  9
$MAXACTVP
 70
    64
  9
$PINSBASE
 10
0.0
 20
0.0
 30
0.0
  9
$PLIMCHECK
 70
     0
  9
$PEXTMIN
 10
1.000000000000000E+20
 20
1.000000000000000E+20
 30
1.000000000000000E+20
  9
$PEXTMAX
 10
-1.000000000000000E+20
 20
-1.000000000000000E+20
 30
-1.000000000000000E+20
  9
$PLIMMIN
 10
0.0
 20
0.0
  9
$PLIMMAX
 10
420.0
 20
297.0
  9
$UNITMODE
 70
     0
  9
$VISRETAIN
 70
     1
  9
$PLINEGEN
 70
     0
  9
$PSLTSCALE
 70
     1
  9
$TREEDEPTH
 70
  3020
  9
$CMLSTYLE
  2
Standard
  9
$CMLJUST
 70
     0
  9
$CMLSCALE
 40
20.0
  9
$PROXYGRAPHICS
 70
     1
  9
$MEASUREMENT
 70
     1
  9
$CELWEIGHT
370
    -1
  9
$ENDCAPS
280
     0
  9
$JOINSTYLE
280
     0
  9
$LWDISPLAY
290
     0
  9
$INSUNITS
 70
     4
  9
$HYPERLINKBASE
  1

  9
$STYLESHEET
  1
彩色出圖.ctb
  9
$XEDIT
290
     1
  9
$CEPSNTYPE
380
     0
  9
$PSTYLEMODE
290
     1
  9
$FINGERPRINTGUID
  2
{ABB14155-5191-4067-BFDF-D88247C7222B}
  9
$VERSIONGUID
  2
{2ED4529E-1200-42C2-961C-D271EDDE8019}
  9
$EXTNAMES
290
     1
  9
$PSVPSCALE
 40
0.0
  9
$OLESTARTUP
290
     0
  0
ENDSEC
  0
SECTION
  2
CLASSES
  0
CLASS
  1
ACDBDICTIONARYWDFLT
  2
AcDbDictionaryWithDefault
  3
ObjectDBX Classes
 90
        0
280
     0
281
     0
  0
CLASS
  1
ACDBPLACEHOLDER
  2
AcDbPlaceHolder
  3
ObjectDBX Classes
 90
        0
280
     0
281
     0
  0
CLASS
  1
LAYOUT
  2
AcDbLayout
  3
ObjectDBX Classes
 90
        0
280
     0
281
     0
  0
CLASS
  1
ACME_DOCUMENT
  2
AcMeDbDoc
  3
AcMeServices
 90
        0
280
     0
281
     0
  0
CLASS
  1
AMGSETTINGSOBJ
  2
AmgSettingsObj
  3
"AcadM|Product Description: AutoCAD Mechanical 2000|Company: Autodesk"
 90
        0
280
     0
281
     0
  0
CLASS
  1
ACMESCOPE
  2
AcMeScope
  3
AcMeServices
 90
        0
280
     0
281
     0
  0
CLASS
  1
ACMECOMMANDHISTORY
  2
AcMeCommandHistory
  3
AcMeServices
 90
        0
280
     0
281
     0
  0
CLASS
  1
ACIMSYSVARMAN
  2
AcImSysVarManager
  3
AcMeServices
 90
        0
280
     0
281
     0
  0
CLASS
  1
ACIMREALSYSVAR
  2
AcImRealSysVar
  3
AcMeServices
 90
        0
280
     0
281
     0
  0
CLASS
  1
ACIMINTSYSVAR
  2
AcImIntSysVar
  3
AcMeServices
 90
        0
280
     0
281
     0
  0
CLASS
  1
ACMEDRAWINGMAN
  2
AcMeDrawingMan
  3
AcMeServices
 90
        0
280
     0
281
     0
  0
CLASS
  1
ACMEVIEW
  2
AcMeView
  3
AcMeServices
 90
        0
280
     0
281
     0
  0
CLASS
  1
ACDBENTITYCACHE
  2
AcMeEntityCache
  3
AcMeServices
 90
        0
280
     0
281
     0
  0
CLASS
  1
GSMANAGER
  2
AcMeGSManager
  3
AcMeServices
 90
        0
280
     0
281
     0
  0
CLASS
  1
AMDTINTERNALREACTOR
  2
AmdtInternalReactor
  3
AcMeServices
 90
        0
280
     0
281
     0
  0
CLASS
  1
ACMESTATEMGR
  2
AcMeStateMgr
  3
AcMeServices
 90
        0
280
     0
281
     0
  0
CLASS
  1
ACGREFMASTER
  2
AcGrefMaster
  3
AcAttribServices
 90
        0
280
     0
281
     0
  0
CLASS
  1
ACME_DATABASE
  2
AcMeDbDatabase
  3
AcMeServices
 90
        0
280
     0
281
     0
  0
CLASS
  1
ACRFINSADJUSTERMGR
  2
AcRfInsAdjusterMgr
  3
AcMeServices
 90
        0
280
     0
281
     0
  0
CLASS
  1
ACGREFACADMASTER
  2
AcGrefacadMaster
  3
AcGrefServices
 90
        0
280
     0
281
     0
  0
CLASS
  1
AMIMASTER
  2
AmiMaster
  3
AmiServices
 90
        0
280
     0
281
     0
  0
CLASS
  1
ACMDATADICTIONARY
  2
AcmDataDictionary
  3
"AcmSymBB|Product Description: AutoCAD Mechanical 2004 DX|Company: Autodesk"
 90
        0
280
     0
281
     0
  0
CLASS
  1
ACMDATAENTRYBLOCK
  2
AcmDataEntryBlock
  3
"AcmSymBB|Product Description: AutoCAD Mechanical 2004 DX|Company: Autodesk"
 90
        0
280
     0
281
     0
  0
CLASS
  1
ACIMSTRSYSVAR
  2
AcImStrSysVar
  3
AcMeServices
 90
        0
280
     0
281
     0
  0
CLASS
  1
ACMSTANDARDISO
  2
AcmStandardISO
  3
"Amdt_StdImp|Product Description: AutoCAD Mechanical 2004 DX|Company: Autodesk"
 90
        0
280
     0
281
     0
  0
CLASS
  1
AMGOBJPROPCFG
  2
AmgObjPropCfg
  3
"AmgLay|Product Description: AutoCAD Mechanical 2000|Company: Autodesk"
 90
        1
280
     0
281
     0
  0
CLASS
  1
AMDTEDGESTANDARDISO
  2
AmdtEdgeStdISO
  3
"Amdt_StdImp|Product Description: AutoCAD Mechanical 2004 DX|Company: Autodesk"
 90
        0
280
     0
281
     0
  0
CLASS
  1
ACMSURFSTANDARDISO
  2
AcmSurfTextStdISO
  3
"Amdt_StdImp|Product Description: AutoCAD Mechanical 2004 DX|Company: Autodesk"
 90
        0
280
     0
281
     0
  0
CLASS
  1
ACMFCFSTANDARDISO
  2
AcmFCFStdISO
  3
"Amdt_StdImp|Product Description: AutoCAD Mechanical 2004 DX|Company: Autodesk"
 90
        0
280
     0
281
     0
  0
CLASS
  1
ACMWELDSTANDARDISO
  2
AcmWeldingStdISO
  3
"Amdt_StdImp|Product Description: AutoCAD Mechanical 2004 DX|Company: Autodesk"
 90
        0
280
     0
281
     0
  0
CLASS
  1
ACMIDSTANDARDISO
  2
AcmIdStdISO
  3
"Amdt_StdImp|Product Description: AutoCAD Mechanical 2004 DX|Company: Autodesk"
 90
        0
280
     0
281
     0
  0
CLASS
  1
ACMDATUMSTANDARDISO
  2
AcmDatumStdISO
  3
"Amdt_StdImp|Product Description: AutoCAD Mechanical 2004 DX|Company: Autodesk"
 90
        0
280
     0
281
     0
  0
CLASS
  1
ACMBOMSTANDARDISO
  2
AcmBOMStdISO
  3
"Amdt_StdImp|Product Description: AutoCAD Mechanical 2004 DX|Company: Autodesk"
 90
        0
280
     0
281
     0
  0
CLASS
  1
ACMDETAILSTANDARDISO
  2
AmdtDetailSymStdISO
  3
"Amdt_StdImp|Product Description: AutoCAD Mechanical 2004 DX|Company: Autodesk"
 90
        0
280
     0
281
     0
  0
CLASS
  1
ACMSECTIONSTANDARDISO
  2
AmdtSectionSymStdISO
  3
"Amdt_StdImp|Product Description: AutoCAD Mechanical 2004 DX|Company: Autodesk"
 90
        0
280
     0
281
     0
  0
CLASS
  1
ACMCENTERLINESTANDARDISO
  2
AmdtCenterLineStdISO
  3
"Amdt_StdImp|Product Description: AutoCAD Mechanical 2004 DX|Company: Autodesk"
 90
        0
280
     0
281
     0
  0
CLASS
  1
ACMNOTESTANDARDISO
  2
AmdtNoteStdISO
  3
"Amdt_StdImp|Product Description: AutoCAD Mechanical 2004 DX|Company: Autodesk"
 90
        0
280
     0
281
     0
  0
CLASS
  1
ACAMGLAYSTD
  2
AcAmgLayStd
  3
"AcAmgLayStd|Product Description: AutoCAD Mechanical 2000|Company: Autodesk"
 90
        0
280
     0
281
     0
  0
CLASS
  1
ACAMGDIMSTD
  2
AcAmgDimStd
  3
"AcAmgDimStd|Product Description: AutoCAD Mechanical 2000|Company: Autodesk"
 90
        0
280
     0
281
     0
  0
CLASS
  1
ACAMGHOLECHARTSTDISO
  2
AcAmgHoleChartStdISO
  3
ACMSYMBB_MODULE_NAME
 90
        0
280
     0
281
     0
  0
CLASS
  1
ACAMGTITLESTD
  2
AcAmgTitleStd
  3
"TITLEAPP"
 90
        0
280
     0
281
     0
  0
CLASS
  1
LAYER_INDEX
  2
AcDbLayerIndex
  3
ObjectDBX Classes
 90
    32768
280
     0
281
     0
  0
CLASS
  1
IDBUFFER
  2
AcDbIdBuffer
  3
ObjectDBX Classes
 90
    32768
280
     0
281
     0
  0
CLASS
  1
DICTIONARYVAR
  2
AcDbDictionaryVar
  3
ObjectDBX Classes
 90
        0
280
     0
281
     0
  0
CLASS
  1
AM_DRAWING_MGR
  2
AcDmDwgMgr
  3
AcMechDwgViewMgmt
 90
        0
280
     0
281
     0
  0
CLASS
  1
AM_DWG_DOCUMENT
  2
AcDmDwgDocument
  3
AcMechDwgViewMgmt
 90
        0
280
     0
281
     0
  0
CLASS
  1
AM_DWG_SHEET
  2
AcDmSheet
  3
AcMechDwgViewMgmt
 90
        0
280
     0
281
     0
  0
CLASS
  1
AM_VIEWDIMPARMAP
  2
AcDmViewDimParMap
  3
AcMechDwgViewMgmt
 90
        0
280
     0
281
     0
  0
CLASS
  1
AM_DWGMGR_NAME
  2
AcDmDwgMgrName
  3
AcMechDwgViewMgmt
 90
        0
280
     0
281
     0
  0
CLASS
  1
AMDTMENUSTATEMGR
  2
AmdtMenuStateMgr
  3
McadcomServices
 90
        0
280
     0
281
     0
  0
CLASS
  1
AMDTMCOMMENUSTATE
  2
AmdtMcomMenuState
  3
McadcomServices
 90
        0
280
     0
281
     0
  0
CLASS
  1
MAPIAMMOUDLE
  2
MApiAmModule
  3
MApiAmServices
 90
        0
280
     0
281
     0
  0
CLASS
  1
AMDTADMENUSTATE
  2
AmdtAdMenuState
  3
DesignerServices
 90
        0
280
     0
281
     0
  0
CLASS
  1
ADAPPL
  2
AcAdAppl
  3
DesignerServices
 90
        0
280
     0
281
     0
  0
CLASS
  1
DEPMGR
  2
AcAdDepMgr
  3
DesignerServices
 90
        0
280
     0
281
     0
  0
CLASS
  1
PARAMMGR
  2
AcAdParamMgr
  3
DesignerServices
 90
        0
280
     0
281
     0
  0
CLASS
  1
PARAMSCOPE
  2
AcAdParamScope
  3
DesignerServices
 90
        0
280
     0
281
     0
  0
CLASS
  1
NAMEDAPPL
  2
AcAdNamedAppl
  3
DesignerServices
 90
        0
280
     0
281
     0
  0
CLASS
  1
AMDTDMMENUSTATE
  2
AmdtDmMenuState
  3
AcMechDwgViewMgmt
 90
        0
280
     0
281
     0
  0
CLASS
  1
AMDTAMMENUSTATE
  2
AmdtAmMenuState
  3
DesignerAssemblies
 90
        0
280
     0
281
     0
  0
CLASS
  1
ACAMPROJECT
  2
AcAmProject
  3
DesignerAssemblies
 90
        0
280
     0
281
     0
  0
CLASS
  1
ACAMGRCOMPDEF
  2
AcAmGrCompDef
  3
DesignerAssemblies
 90
        0
280
     0
281
     0
  0
CLASS
  1
ACCMCONTEXT
  2
AcCmContext
  3
DesignerAssemblies
 90
        0
280
     0
281
     0
  0
CLASS
  1
ACAMCOMPDEF
  2
AcAmCompDef
  3
DesignerAssemblies
 90
        0
280
     0
281
     0
  0
CLASS
  1
ACAMCOMPDEFMGR
  2
AcAmCompDefMgr
  3
DesignerAssemblies
 90
        0
280
     0
281
     0
  0
CLASS
  1
AMCONTEXTMGR
  2
AcAmContextMgr
  3
DesignerAssemblies
 90
        0
280
     0
281
     0
  0
CLASS
  1
ACAMCONTEXTMODELER
  2
AcAmContextModeler
  3
DesignerAssemblies
 90
        0
280
     0
281
     0
  0
CLASS
  1
ACMTHREADLINESTANDARDISO
  2
AmdtThreadLineStdISO
  3
"Amdt_StdImp|Product Description: AutoCAD Mechanical 2004 DX|Company: Autodesk"
 90
        0
280
     0
281
     0
  0
CLASS
  1
CATALOGSTATE
  2
AcAmCatalogState
  3
DesignerAssemblies
 90
        0
280
     0
281
     0
  0
CLASS
  1
ACAMGRCOMPDEFSET
  2
AcAmGrCompDefSet
  3
DesignerAssemblies
 90
        0
280
     0
281
     0
  0
CLASS
  1
AMDTBROWSERDBTAB
  2
AmdtBrowserDbTab
  3
McadcomServices
 90
        0
280
     0
281
     0
  0
CLASS
  1
CBROWSERAPPOBJECT
  2
CBrowserAppObject
  3
McadcomServices
 90
        0
280
     0
281
     0
  0
CLASS
  1
DM_PLACEHOLDER
  2
AcDmSelsetPlaceholder
  3
AcMechDwgViewMgmt
 90
        0
280
     0
281
     0
  0
CLASS
  1
TABLESTYLE
  2
AcDbTableStyle
  3
ObjectDBX Classes
 90
     2047
280
     0
281
     0
  0
CLASS
  1
VAACXREFPANELOBJECT
  2
VaAcXREFPanelObject
  3
VAAC_ADDIN
 90
    32768
280
     0
281
     0
  0
CLASS
  1
VAACIMAGEINVENTORY
  2
VaAcImageInventory
  3
VAAC_ADDIN
 90
    32768
280
     0
281
     0
  0
CLASS
  1
AMDTNOTETEMPLATEDB
  2
AmdtNoteTemplateDB
  3
AMDT_STDIMP_MODULE_NAME
 90
        0
280
     0
281
     0
  0
CLASS
  1
ACMBOM
  2
AcmBom
  3
"AcmSymBB|Product Description: AutoCAD Mechanical 2004 DX|Company: Autodesk"
 90
    32768
280
     0
281
     0
  0
CLASS
  1
AMDTFORMULAUPDATEDISPATCHER
  2
AmdtFormulaUpdateDispatcher
  3
AcMeServices
 90
    32768
280
     0
281
     0
  0
CLASS
  1
ACMPARTLIST
  2
AcmPartList
  3
"AcmSymBB|Product Description: AutoCAD Mechanical 2004 DX|Company: Autodesk"
 90
    33791
280
     0
281
     1
  0
CLASS
  1
ACAMGFILTERDAT
  2
AcAmgFilterDat
  3
"AcadM|Product Description: AutoCAD Mechanical 2000|Company: Autodesk"
 90
        0
280
     0
281
     0
  0
CLASS
  1
DIMASSOC
  2
AcDbDimAssoc
  3
"AcDbDimAssoc|Product Desc:     AcDim ARX App For Dimension|Company:          Autodesk, Inc.|WEB Address:      www.autodesk.com"
 90
        0
280
     0
281
     0
  0
CLASS
  1
SORTENTSTABLE
  2
AcDbSortentsTable
  3
ObjectDBX Classes
 90
    32768
280
     0
281
     0
  0
CLASS
  1
ACRFATTGENMGR
  2
AcRfAttGeneralMgr
  3
AcAttribServices
 90
        0
280
     0
281
     0
  0
ENDSEC
  0
SECTION
  2
TABLES
  0
TABLE
  2
VPORT
  5
8
330
0
100
AcDbSymbolTable
 70
     3
  0
VPORT
  5
2997
330
8
100
AcDbSymbolTableRecord
100
AcDbViewportTableRecord
  2
*Active
 70
     0
 10
0.0
 20
0.0
 11
1.0
 21
1.0
 12
625.2259035446153
 22
954.0210560089104
 13
0.0
 23
0.0
 14
2.5
 24
2.5
 15
10.0
 25
10.0
 16
0.0
 26
0.0
 36
1.0
 17
0.0
 27
0.0
 37
0.0
 40
599.9316087816846
 41
1.679945054945054
 42
50.0
 43
0.0
 44
0.0
 50
0.0
 51
0.0
 71
     0
 72
   100
 73
     1
 74
     3
 75
     0
 76
     0
 77
     0
 78
     0
281
     0
 65
     1
110
0.0
120
0.0
130
0.0
111
1.0
121
0.0
131
0.0
112
0.0
122
1.0
132
0.0
 79
     0
146
0.0
  0
ENDTAB
  0
TABLE
  2
LTYPE
  5
5
330
0
100
AcDbSymbolTable
 70
    14
  0
LTYPE
  5
14
330
5
100
AcDbSymbolTableRecord
100
AcDbLinetypeTableRecord
  2
ByBlock
 70
     0
  3

 72
    65
 73
     0
 40
0.0
  0
LTYPE
  5
15
330
5
100
AcDbSymbolTableRecord
100
AcDbLinetypeTableRecord
  2
ByLayer
 70
     0
  3

 72
    65
 73
     0
 40
0.0
  0
LTYPE
  5
16
330
5
100
AcDbSymbolTableRecord
100
AcDbLinetypeTableRecord
  2
Continuous
 70
     0
  3
Solid line
 72
    65
 73
     0
 40
0.0
  0
LTYPE
  5
64
330
5
100
AcDbSymbolTableRecord
100
AcDbLinetypeTableRecord
  2
AM_ISO02W050
 70
     0
  3
__ __ __ __ __ __ __ __ __ __ __ __ __ __ __
 72
    65
 73
     2
 40
7.5
 49
6.0
 74
     0
 49
-1.5
 74
     0
  0
LTYPE
  5
65
330
5
100
AcDbSymbolTableRecord
100
AcDbLinetypeTableRecord
  2
AM_ISO08W050
 70
     0
  3
____ . ____ . ____ . ____ . ____ . ____ . ____
 72
    65
 73
     4
 40
18.0
 49
12.0
 74
     0
 49
-1.5
 74
     0
 49
3.0
 74
     0
 49
-1.5
 74
     0
  0
LTYPE
  5
66
330
5
100
AcDbSymbolTableRecord
100
AcDbLinetypeTableRecord
  2
AM_ISO09W050
 70
     0
  3
_____ . . _____ . . _____ . . ____ .. ____
 72
    65
 73
     6
 40
22.5
 49
12.0
 74
     0
 49
-1.5
 74
     0
 49
3.0
 74
     0
 49
-1.5
 74
     0
 49
3.0
 74
     0
 49
-1.5
 74
     0
  0
LTYPE
  5
67
330
5
100
AcDbSymbolTableRecord
100
AcDbLinetypeTableRecord
  2
Amconstr
 70
     0
  3
_______________________
 72
    65
 73
     2
 40
9999.0
 49
9999.0
 74
     0
 49
0.0
 74
     0
  0
LTYPE
  5
68
330
5
100
AcDbSymbolTableRecord
100
AcDbLinetypeTableRecord
  2
AM_ISO08W050x2
 70
     0
  3
__ . __ . __ . __ . __ . __
 72
    65
 73
     4
 40
9.0
 49
6.0
 74
     0
 49
-0.75
 74
     0
 49
1.5
 74
     0
 49
-0.75
 74
     0
  0
LTYPE
  5
69
330
5
100
AcDbSymbolTableRecord
100
AcDbLinetypeTableRecord
  2
AM_ISO02W050x2
 70
     0
  3
 _ _ _ _ _ _ _ _ _ _ _ _
 72
    65
 73
     2
 40
3.75
 49
3.0
 74
     0
 49
-0.75
 74
     0
  0
LTYPE
  5
6C
330
5
100
AcDbSymbolTableRecord
100
AcDbLinetypeTableRecord
  2
Amzigzag
 70
     0
  3
/\/-/\/-/\/-/\/-/\/-/\/
 72
    65
 73
     2
 40
11.0001
 49
0.0001
 74
     4
 75
   135
340
6B
 46
0.04
 50
0.0
 44
0.0
 45
0.0
 49
-11.0
 74
     0
  0
LTYPE
  5
7A
330
5
100
AcDbSymbolTableRecord
100
AcDbLinetypeTableRecord
  2
ACISOWELD
 70
     0
  3
_ _ _ _ _
 72
    65
 73
     2
 40
2.0
 49
2.0
 74
     0
 49
-1.0
 74
     0
  0
LTYPE
  5
7B
330
5
100
AcDbSymbolTableRecord
100
AcDbLinetypeTableRecord
  2
ACISOTGB
 70
     0
  3
__ . . __ . .
 72
    65
 73
     6
 40
9.0
 49
4.0
 74
     0
 49
-1.0
 74
     0
 49
1.0
 74
     0
 49
-1.0
 74
     0
 49
1.0
 74
     0
 49
-1.0
 74
     0
  0
LTYPE
  5
7C
330
5
100
AcDbSymbolTableRecord
100
AcDbLinetypeTableRecord
  2
ACISOTGL
 70
     0
  3
_ _ _ _ _
 72
    65
 73
     2
 40
3.0
 49
2.0
 74
     0
 49
-1.0
 74
     0
  0
LTYPE
  5
7E
330
5
100
AcDbSymbolTableRecord
100
AcDbLinetypeTableRecord
  2
CENTER
 70
     0
  3
__ . __
 72
    65
 73
     4
 40
7.0
 49
4.0
 74
     0
 49
-1.0
 74
     0
 49
1.0
 74
     0
 49
-1.0
 74
     0
  0
LTYPE
  5
D8
330
5
100
AcDbSymbolTableRecord
100
AcDbLinetypeTableRecord
  2
HIDDEN
 70
     0
  3
Hidden __ __ __ __ __ __ __ __ __ __ __ __ __ _
 72
    65
 73
     2
 40
9.524999999999998
 49
6.349999999999999
 74
     0
 49
-3.174999999999999
 74
     0
  0
LTYPE
  5
D9
330
5
100
AcDbSymbolTableRecord
100
AcDbLinetypeTableRecord
  2
PHANTOM2
 70
     0
  3
Phantom (.5x) ___ _ _ ___ _ _ ___ _ _ ___ _ _
 72
    65
 73
     6
 40
31.75
 49
15.875
 74
     0
 49
-3.174999999999999
 74
     0
 49
3.174999999999999
 74
     0
 49
-3.174999999999999
 74
     0
 49
3.174999999999999
 74
     0
 49
-3.174999999999999
 74
     0
  0
ENDTAB
  0
TABLE
  2
LAYER
  5
2
102
{ACAD_XDICTIONARY
360
3F9
102
}
330
0
100
AcDbSymbolTable
 70
     8
  0
LAYER
  5
10
330
2
100
AcDbSymbolTableRecord
100
AcDbLayerTableRecord
  2
0
 70
     0
 62
     7
  6
Continuous
370
    -3
390
F
  0
LAYER
  5
CA8
330
2
100
AcDbSymbolTableRecord
100
AcDbLayerTableRecord
  2
Defpoints
 70
     0
 62
     7
  6
Continuous
290
     0
370
    -3
390
F
  0
LAYER
  5
CA9
330
2
100
AcDbSymbolTableRecord
100
AcDbLayerTableRecord
  2
AM_5
 70
     0
 62
     5
  6
Continuous
370
    50
390
F
  0
LAYER
  5
CAA
330
2
100
AcDbSymbolTableRecord
100
AcDbLayerTableRecord
  2
AM_VIS
 70
     0
 62
     7
  6
Continuous
370
    50
390
F
  0
LAYER
  5
CAB
330
2
100
AcDbSymbolTableRecord
100
AcDbLayerTableRecord
  2
AM_HID
 70
     0
 62
     3
  6
AM_ISO02W050
370
    25
390
F
  0
LAYER
  5
CAC
330
2
100
AcDbSymbolTableRecord
100
AcDbLayerTableRecord
  2
AM_7
 70
     0
 62
     1
  6
CENTER
370
    25
390
F
  0
LAYER
  5
1774
330
2
100
AcDbSymbolTableRecord
100
AcDbLayerTableRecord
  2
AM_4
 70
     0
 62
     3
  6
Continuous
370
    25
390
F
  0
LAYER
  5
1B54
330
2
100
AcDbSymbolTableRecord
100
AcDbLayerTableRecord
  2
LOGO
 70
     0
 62
     7
  6
Continuous
370
    -3
390
F
  0
ENDTAB
  0
TABLE
  2
STYLE
  5
3
330
0
100
AcDbSymbolTable
 70
     6
  0
STYLE
  5
11
330
3
100
AcDbSymbolTableRecord
100
AcDbTextStyleTableRecord
  2
STANDARD
 70
     0
 40
0.0
 41
1.0
 50
0.0
 71
     0
 42
3.0
  3
ISOCP.SHX
  4
CHINESET.SHX
  0
STYLE
  5
6B
330
3
100
AcDbSymbolTableRecord
100
AcDbTextStyleTableRecord
  2

 70
     1
 40
0.0
 41
1.0
 50
0.0
 71
     0
 42
2.5
  3
ltypeshp.shx
  4

  0
STYLE
  5
6D
330
3
100
AcDbSymbolTableRecord
100
AcDbTextStyleTableRecord
  2
ACISOTS
 70
     0
 40
1.0
 41
1.0
 50
0.0
 71
     0
 42
1.0
  3
isocp.shx
  4
chineset.shx
  0
STYLE
  5
79
330
3
100
AcDbSymbolTableRecord
100
AcDbTextStyleTableRecord
  2
ACISOGDT
 70
     0
 40
0.0
 41
1.0
 50
0.0
 71
     0
 42
2.5
  3
amgdt.shx
  4
chineset.shx
  0
STYLE
  5
1B55
330
3
100
AcDbSymbolTableRecord
100
AcDbTextStyleTableRecord
  2
CHINESET
 70
     0
 40
0.0
 41
1.0
 50
0.0
 71
     0
 42
2.5
  3
simplex.shx
  4
CHINESET.shx
  0
ENDTAB
  0
TABLE
  2
VIEW
  5
6
330
0
100
AcDbSymbolTable
 70
     0
  0
ENDTAB
  0
TABLE
  2
UCS
  5
7
330
0
100
AcDbSymbolTable
 70
     0
  0
ENDTAB
  0
TABLE
  2
APPID
  5
9
330
0
100
AcDbSymbolTable
 70
    20
  0
APPID
  5
12
330
9
100
AcDbSymbolTableRecord
100
AcDbRegAppTableRecord
  2
ACAD
 70
     0
  0
APPID
  5
46
330
9
100
AcDbSymbolTableRecord
100
AcDbRegAppTableRecord
  2
MCAD_NO_VIS
 70
     0
  0
APPID
  5
47
330
9
100
AcDbSymbolTableRecord
100
AcDbRegAppTableRecord
  2
ACAD_TEMP_GRAPHIC
 70
     0
  0
APPID
  5
58
330
9
100
AcDbSymbolTableRecord
100
AcDbRegAppTableRecord
  2
ACATTRIBSERVICES
 70
     0
  0
APPID
  5
EE
330
9
100
AcDbSymbolTableRecord
100
AcDbRegAppTableRecord
  2
AD_DRAW
 70
     0
  0
APPID
  5
10C
330
9
100
AcDbSymbolTableRecord
100
AcDbRegAppTableRecord
  2
DESIGNERASSEMBLIES
 70
     0
  0
APPID
  5
111
330
9
100
AcDbSymbolTableRecord
100
AcDbRegAppTableRecord
  2
ACADM_DIM_EDIT
 70
     0
  0
APPID
  5
112
330
9
100
AcDbSymbolTableRecord
100
AcDbRegAppTableRecord
  2
AMDT_DM_ADJ
 70
     0
  0
APPID
  5
22C
330
9
100
AcDbSymbolTableRecord
100
AcDbRegAppTableRecord
  2
ACAD_DSTYLE_DIMTEXT_FILL
 70
     0
  0
APPID
  5
452
330
9
100
AcDbSymbolTableRecord
100
AcDbRegAppTableRecord
  2
GENIUS_GENOENT_13
 70
     0
  0
APPID
  5
453
330
9
100
AcDbSymbolTableRecord
100
AcDbRegAppTableRecord
  2
GENIUS_GENOBJ-N-CRS_13
 70
     0
  0
APPID
  5
454
330
9
100
AcDbSymbolTableRecord
100
AcDbRegAppTableRecord
  2
GENIUS_GENOLIS_13
 70
     0
  0
APPID
  5
455
330
9
100
AcDbSymbolTableRecord
100
AcDbRegAppTableRecord
  2
GENIUS_GENODEF_13
 70
     0
  0
APPID
  5
456
330
9
100
AcDbSymbolTableRecord
100
AcDbRegAppTableRecord
  2
GENIUS_GENOREF_13
 70
     0
  0
APPID
  5
6F3
330
9
100
AcDbSymbolTableRecord
100
AcDbRegAppTableRecord
  2
ACAD_PSEXT
 70
     0
  0
APPID
  5
808
330
9
100
AcDbSymbolTableRecord
100
AcDbRegAppTableRecord
  2
GENIUS_GENDTOL_13
 70
     0
  0
APPID
  5
CB0
330
9
100
AcDbSymbolTableRecord
100
AcDbRegAppTableRecord
  2
GENIUS_GENOBJ-N-CEN_13
 70
     0
  0
APPID
  5
172E
330
9
100
AcDbSymbolTableRecord
100
AcDbRegAppTableRecord
  2
GENIUS_GENCEN_19
 70
     0
  0
APPID
  5
1B56
330
9
100
AcDbSymbolTableRecord
100
AcDbRegAppTableRecord
  2
GENIUS_GENREC_14
 70
     0
  0
APPID
  5
1B57
330
9
100
AcDbSymbolTableRecord
100
AcDbRegAppTableRecord
  2
GENIUS_GENOBJ-N-REC_13
 70
     0
  0
ENDTAB
  0
TABLE
  2
DIMSTYLE
  5
A
330
0
100
AcDbSymbolTable
 70
     9
100
AcDbDimStyleTable
 71
     3
340
81
340
8B
340
86
  0
DIMSTYLE
105
81
102
{ACAD_REACTORS
330
2544
330
2547
330
254A
330
254D
330
2550
330
2553
330
2556
330
2559
330
255C
330
255F
330
2562
330
2565
330
2568
330
256B
330
256E
330
2571
330
2574
330
2577
330
257A
330
2595
330
2598
330
25AB
330
25AE
102
}
330
A
100
AcDbSymbolTableRecord
100
AcDbDimStyleTableRecord
  2
AM_ISO
 70
     0
  4
"
 41
3.0
 42
1.5
 43
8.0
 44
1.5
 47
0.1
 48
0.1
 73
     0
 74
     0
 77
     1
 78
     8
 79
     2
140
3.5
141
0.0
143
0.0393701
146
0.6
147
1.0
172
     1
176
   256
177
   256
178
   256
271
     2
272
     2
283
     0
284
     8
340
11
371
    -1
372
    -1
  0
DIMSTYLE
105
82
330
A
100
AcDbSymbolTableRecord
100
AcDbDimStyleTableRecord
  2
AM_ISO$3
 70
     0
  4
"
 41
3.0
 42
1.5
 43
8.0
 44
1.5
 47
0.1
 48
0.1
 73
     0
 77
     1
 78
     8
 79
     2
140
3.5
141
0.0
143
0.0393701
146
0.6
147
1.0
176
   256
177
   256
178
   256
271
     2
272
     2
283
     0
284
     8
288
     1
289
     0
340
11
371
    -1
372
    -1
  0
DIMSTYLE
105
83
330
A
100
AcDbSymbolTableRecord
100
AcDbDimStyleTableRecord
  2
AM_ISO$4
 70
     0
  4
"
 41
3.0
 42
1.5
 43
8.0
 44
1.5
 47
0.1
 48
0.1
 73
     0
 77
     1
 78
     8
 79
     2
140
3.5
141
0.0
143
0.0393701
146
0.6
147
1.0
176
   256
177
   256
178
   256
271
     2
272
     2
283
     0
284
     8
288
     1
289
     0
340
11
371
    -1
372
    -1
  0
DIMSTYLE
105
84
330
A
100
AcDbSymbolTableRecord
100
AcDbDimStyleTableRecord
  2
AM_ISO$6
 70
     0
  4
"
 41
3.0
 42
1.5
 43
8.0
 44
1.5
 47
0.1
 48
0.1
 73
     0
 74
     0
 78
     8
 79
     2
140
3.5
141
0.0
143
0.0393701
146
0.6
147
1.0
172
     1
176
   256
177
   256
178
   256
271
     2
272
     2
283
     0
284
     8
340
11
371
    -1
372
    -1
  0
DIMSTYLE
105
85
330
A
100
AcDbSymbolTableRecord
100
AcDbDimStyleTableRecord
  2
AM_ISO$7
 70
     0
  4
"
 41
3.0
 42
1.5
 43
8.0
 44
1.5
 47
0.1
 48
0.1
 73
     0
 74
     0
 77
     1
 78
     8
 79
     2
140
5.0
141
0.0
143
0.0393701
146
0.6
147
1.0
172
     1
176
   256
177
   256
178
   256
271
     2
272
     2
283
     0
284
     8
340
11
371
    -1
372
    -1
  0
DIMSTYLE
105
86
330
A
100
AcDbSymbolTableRecord
100
AcDbDimStyleTableRecord
  2
AM_ISO$SF
 70
     0
  4
"
 41
2.5
 42
1.0
 43
10.0
 44
1.0
 47
0.1
 48
0.1
 73
     0
 74
     0
 75
     1
 76
     1
 77
     1
 78
     8
 79
     2
140
3.5
141
0.0
143
0.0393701
146
0.71
147
1.5
172
     1
176
   256
177
   256
178
     2
271
     2
272
     3
274
     4
283
     0
284
     8
340
11
371
    -1
372
    -1
  0
DIMSTYLE
105
8B
330
A
100
AcDbSymbolTableRecord
100
AcDbDimStyleTableRecord
  2
AM_ISO$SH
 70
     0
  4
"
 41
2.5
 42
1.0
 43
10.0
 44
1.0
 47
0.1
 48
0.1
 73
     0
 74
     0
 75
     1
 76
     1
 77
     1
 78
     8
 79
     2
140
3.5
141
0.0
143
0.0393701
144
2.0
146
0.71
147
1.5
172
     1
173
     1
176
   256
177
   256
178
     2
271
     2
272
     3
274
     4
283
     0
284
     8
340
11
343
87
371
    -1
372
    -1
  0
DIMSTYLE
105
40B
330
A
100
AcDbSymbolTableRecord
100
AcDbDimStyleTableRecord
  2
AM_ISO$0
 70
     0
  4
"
 41
3.0
 42
1.5
 43
8.0
 44
1.5
 47
0.1
 48
0.1
 73
     0
 74
     0
 77
     1
 78
     8
 79
     2
140
3.5
141
0.0
143
0.0393701
146
0.6
147
1.0
172
     1
176
   256
177
   256
178
   256
271
     2
272
     2
283
     0
284
     8
340
11
371
    -1
372
    -1
  0
ENDTAB
  0
TABLE
  2
BLOCK_RECORD
  5
1
330
0
100
AcDbSymbolTable
 70
    32
  0
BLOCK_RECORD
  5
1F
102
{ACAD_XDICTIONARY
360
8F
102
}
330
1
100
AcDbSymbolTableRecord
100
AcDbBlockTableRecord
  2
*Model_Space
340
22
  0
BLOCK_RECORD
  5
1B
330
1
100
AcDbSymbolTableRecord
100
AcDbBlockTableRecord
  2
*Paper_Space
340
1E
  0
BLOCK_RECORD
  5
23
330
1
100
AcDbSymbolTableRecord
100
AcDbBlockTableRecord
  2
*Paper_Space0
340
26
  0
BLOCK_RECORD
  5
87
330
1
100
AcDbSymbolTableRecord
100
AcDbBlockTableRecord
  2
GENAXEH
340
0
  0
BLOCK_RECORD
  5
2135
330
1
100
AcDbSymbolTableRecord
100
AcDbBlockTableRecord
  2
*S3
340
0
102
{BLKREFS
331
258E
102
}
  0
BLOCK_RECORD
  5
213C
330
1
100
AcDbSymbolTableRecord
100
AcDbBlockTableRecord
  2
*S4
340
0
102
{BLKREFS
331
258F
102
}
  0
BLOCK_RECORD
  5
2143
330
1
100
AcDbSymbolTableRecord
100
AcDbBlockTableRecord
  2
*S5
340
0
102
{BLKREFS
331
2591
102
}
  0
BLOCK_RECORD
  5
214A
330
1
100
AcDbSymbolTableRecord
100
AcDbBlockTableRecord
  2
*S6
340
0
102
{BLKREFS
331
2593
102
}
  0
BLOCK_RECORD
  5
2151
330
1
100
AcDbSymbolTableRecord
100
AcDbBlockTableRecord
  2
*S7
340
0
102
{BLKREFS
331
25B1
102
}
  0
BLOCK_RECORD
  5
25B7
330
1
100
AcDbSymbolTableRecord
100
AcDbBlockTableRecord
  2
*D8
340
0
  0
BLOCK_RECORD
  5
25C3
330
1
100
AcDbSymbolTableRecord
100
AcDbBlockTableRecord
  2
*D9
340
0
  0
BLOCK_RECORD
  5
25CF
330
1
100
AcDbSymbolTableRecord
100
AcDbBlockTableRecord
  2
*D10
340
0
  0
BLOCK_RECORD
  5
25DB
330
1
100
AcDbSymbolTableRecord
100
AcDbBlockTableRecord
  2
*D11
340
0
  0
BLOCK_RECORD
  5
25E7
330
1
100
AcDbSymbolTableRecord
100
AcDbBlockTableRecord
  2
*D12
340
0
  0
BLOCK_RECORD
  5
25F5
330
1
100
AcDbSymbolTableRecord
100
AcDbBlockTableRecord
  2
*D13
340
0
  0
BLOCK_RECORD
  5
2601
330
1
100
AcDbSymbolTableRecord
100
AcDbBlockTableRecord
  2
*D14
340
0
  0
BLOCK_RECORD
  5
260D
330
1
100
AcDbSymbolTableRecord
100
AcDbBlockTableRecord
  2
*D15
340
0
  0
BLOCK_RECORD
  5
2619
330
1
100
AcDbSymbolTableRecord
100
AcDbBlockTableRecord
  2
*D16
340
0
  0
BLOCK_RECORD
  5
2625
330
1
100
AcDbSymbolTableRecord
100
AcDbBlockTableRecord
  2
*D17
340
0
  0
BLOCK_RECORD
  5
2631
330
1
100
AcDbSymbolTableRecord
100
AcDbBlockTableRecord
  2
*D18
340
0
  0
BLOCK_RECORD
  5
263D
330
1
100
AcDbSymbolTableRecord
100
AcDbBlockTableRecord
  2
*D19
340
0
  0
BLOCK_RECORD
  5
2649
330
1
100
AcDbSymbolTableRecord
100
AcDbBlockTableRecord
  2
*D20
340
0
  0
BLOCK_RECORD
  5
2655
330
1
100
AcDbSymbolTableRecord
100
AcDbBlockTableRecord
  2
*D21
340
0
  0
BLOCK_RECORD
  5
2661
330
1
100
AcDbSymbolTableRecord
100
AcDbBlockTableRecord
  2
*D22
340
0
  0
BLOCK_RECORD
  5
266D
330
1
100
AcDbSymbolTableRecord
100
AcDbBlockTableRecord
  2
*D23
340
0
  0
BLOCK_RECORD
  5
2679
330
1
100
AcDbSymbolTableRecord
100
AcDbBlockTableRecord
  2
*D24
340
0
  0
BLOCK_RECORD
  5
2685
330
1
100
AcDbSymbolTableRecord
100
AcDbBlockTableRecord
  2
*D25
340
0
  0
BLOCK_RECORD
  5
2691
330
1
100
AcDbSymbolTableRecord
100
AcDbBlockTableRecord
  2
*D26
340
0
  0
BLOCK_RECORD
  5
269D
330
1
100
AcDbSymbolTableRecord
100
AcDbBlockTableRecord
  2
*D27
340
0
  0
BLOCK_RECORD
  5
26A9
330
1
100
AcDbSymbolTableRecord
100
AcDbBlockTableRecord
  2
*D28
340
0
  0
BLOCK_RECORD
  5
26B5
330
1
100
AcDbSymbolTableRecord
100
AcDbBlockTableRecord
  2
*D29
340
0
  0
BLOCK_RECORD
  5
26C1
330
1
100
AcDbSymbolTableRecord
100
AcDbBlockTableRecord
  2
*D30
340
0
  0
ENDTAB
  0
ENDSEC
  0
SECTION
  2
BLOCKS
  0
BLOCK
  5
20
330
1F
100
AcDbEntity
  8
0
100
AcDbBlockBegin
  2
*Model_Space
 70
     0
 10
0.0
 20
0.0
 30
0.0
  3
*Model_Space
  1

  0
ENDBLK
  5
21
330
1F
100
AcDbEntity
  8
0
100
AcDbBlockEnd
  0
BLOCK
  5
1C
330
1B
100
AcDbEntity
 67
     1
  8
0
100
AcDbBlockBegin
  2
*Paper_Space
 70
     0
 10
0.0
 20
0.0
 30
0.0
  3
*Paper_Space
  1

  0
ENDBLK
  5
1D
330
1B
100
AcDbEntity
 67
     1
  8
0
100
AcDbBlockEnd
  0
BLOCK
  5
24
330
23
100
AcDbEntity
  8
0
100
AcDbBlockBegin
  2
*Paper_Space0
 70
     0
 10
0.0
 20
0.0
 30
0.0
  3
*Paper_Space0
  1

  0
ENDBLK
  5
25
330
23
100
AcDbEntity
  8
0
100
AcDbBlockEnd
  0
BLOCK
  5
89
330
87
100
AcDbEntity
  8
0
100
AcDbBlockBegin
  2
GENAXEH
 70
     0
 10
0.0
 20
0.0
 30
0.0
  3
GENAXEH
  1

  0
LINE
  5
88
330
87
100
AcDbEntity
  8
0
100
AcDbLine
 10
-1.0
 20
0.0
 30
0.0
 11
1.0
 21
0.0
 31
0.0
  0
ENDBLK
  5
8A
330
87
100
AcDbEntity
  8
0
100
AcDbBlockEnd
  0
BLOCK
  5
2136
330
2135
100
AcDbEntity
  8
0
100
AcDbBlockBegin
  2
*S3
 70
     1
 10
0.0
 20
0.0
 30
0.0
  3
*S3
  1

  0
LINE
  5
2137
330
2135
100
AcDbEntity
  8
AM_5
100
AcDbLine
 10
1780.723044464259
 20
799.747608605608
 30
0.0
 11
1771.258866968836
 21
799.747608605608
 31
0.0
  0
LINE
  5
2138
330
2135
100
AcDbEntity
  8
AM_5
100
AcDbLine
 10
1771.258866968836
 20
799.747608605608
 30
0.0
 11
1739.763869652028
 21
790.9218908396926
 31
0.0
  0
TRACE
  5
2139
330
2135
100
AcDbEntity
  8
AM_5
100
AcDbTrace
 10
1739.639535576493
 20
791.3655829539437
 30
0.0
 11
1739.888203727562
 21
790.4781987254415
 31
0.0
 12
1736.393693435385
 22
789.9774797698869
 32
0.0
 13
1736.393693435385
 23
789.9774797698869
 33
0.0
  0
MTEXT
  5
213A
330
2135
100
AcDbEntity
  8
AM_5
 62
     2
100
AcDbMText
 10
1780.723044464259
 20
798.5324113975179
 30
0.0
 40
3.5
 41
0.0
 71
     9
 72
     5
  1

  7
ACISOTS
210
0.0
220
0.0
230
-1.0
 11
-1.0
 21
0.0
 31
0.0
 73
     1
 44
1.0
1001
ACAD
1000
MTEXTBEGIN
1070
    73
1070
     1
1070
    44
1040
1.0
1070
    74
1070
     0
1000
MTEXTEND
  0
ENDBLK
  5
213B
330
2135
100
AcDbEntity
  8
0
100
AcDbBlockEnd
  0
BLOCK
  5
213D
330
213C
100
AcDbEntity
  8
0
100
AcDbBlockBegin
  2
*S4
 70
     1
 10
0.0
 20
0.0
 30
0.0
  3
*S4
  1

  0
LINE
  5
213E
330
213C
100
AcDbEntity
  8
AM_5
100
AcDbLine
 10
1647.880114989345
 20
768.7115703849928
 30
0.0
 11
1634.453857658536
 21
768.7115703849928
 31
0.0
  0
LINE
  5
213F
330
213C
100
AcDbEntity
  8
AM_5
100
AcDbLine
 10
1634.453857658536
 20
768.7115703849928
 30
0.0
 11
1621.151340780922
 21
779.260994531628
 31
0.0
  0
TRACE
  5
2140
330
213C
100
AcDbEntity
  8
AM_5
100
AcDbTrace
 10
1621.437655233514
 20
779.6220287250561
 30
0.0
 11
1620.865026328329
 21
778.8999603381996
 31
0.0
 12
1618.409013809119
 22
781.4357687221413
 32
0.0
 13
1618.409013809119
 23
781.4357687221413
 33
0.0
  0
MTEXT
  5
2141
330
213C
100
AcDbEntity
  8
AM_5
 62
     2
100
AcDbMText
 10
1647.880114989345
 20
766.3045870289395
 30
0.0
 40
3.5
 41
0.0
 71
     9
 72
     5
  1

  7
ACISOTS
210
0.0
220
0.0
230
-1.0
 11
-1.0
 21
0.0
 31
0.0
 73
     1
 44
1.0
1001
ACAD
1000
MTEXTBEGIN
1070
    73
1070
     1
1070
    44
1040
1.0
1070
    74
1070
     0
1000
MTEXTEND
  0
ENDBLK
  5
2142
330
213C
100
AcDbEntity
  8
0
100
AcDbBlockEnd
  0
BLOCK
  5
2144
330
2143
100
AcDbEntity
  8
0
100
AcDbBlockBegin
  2
*S5
 70
     1
 10
0.0
 20
0.0
 30
0.0
  3
*S5
  1

  0
LINE
  5
2145
330
2143
100
AcDbEntity
  8
AM_5
100
AcDbLine
 10
1646.791757824107
 20
694.5496015851435
 30
0.0
 11
1633.365500493297
 21
694.5496015851435
 31
0.0
  0
LINE
  5
2146
330
2143
100
AcDbEntity
  8
AM_5
100
AcDbLine
 10
1633.365500493297
 20
694.5496015851435
 30
0.0
 11
1622.018705230399
 21
686.9681583721881
 31
0.0
  0
TRACE
  5
2147
330
2143
100
AcDbEntity
  8
AM_5
100
AcDbTrace
 10
1621.762713173169
 20
687.351289839472
 30
0.0
 11
1622.274697287628
 21
686.585026904904
 31
0.0
 12
1619.108532799078
 22
685.023705641988
 32
0.0
 13
1619.108532799078
 23
685.023705641988
 33
0.0
  0
MTEXT
  5
2148
330
2143
100
AcDbEntity
  8
AM_5
 62
     2
100
AcDbMText
 10
1646.791757824107
 20
692.14261822909
 30
0.0
 40
3.5
 41
0.0
 71
     9
 72
     5
  1

  7
ACISOTS
210
0.0
220
0.0
230
-1.0
 11
-1.0
 21
0.0
 31
0.0
 73
     1
 44
1.0
1001
ACAD
1000
MTEXTBEGIN
1070
    73
1070
     1
1070
    44
1040
1.0
1070
    74
1070
     0
1000
MTEXTEND
  0
ENDBLK
  5
2149
330
2143
100
AcDbEntity
  8
0
100
AcDbBlockEnd
  0
BLOCK
  5
214B
330
214A
100
AcDbEntity
  8
0
100
AcDbBlockBegin
  2
*S6
 70
     1
 10
0.0
 20
0.0
 30
0.0
  3
*S6
  1

  0
LINE
  5
214C
330
214A
100
AcDbEntity
  8
AM_5
100
AcDbLine
 10
1394.881678302189
 20
884.151707633862
 30
0.0
 11
1414.239514654495
 21
884.151707633862
 31
0.0
  0
LINE
  5
214D
330
214A
100
AcDbEntity
  8
AM_5
100
AcDbLine
 10
1414.239514654495
 20
884.151707633862
 30
0.0
 11
1429.264297997046
 21
903.3174164352685
 31
0.0
  0
TRACE
  5
214E
330
214A
100
AcDbEntity
  8
AM_5
100
AcDbTrace
 10
1429.626932897102
 20
903.033132098997
 30
0.0
 11
1428.901663096991
 21
903.60170077154
 31
0.0
 12
1431.423651923099
 22
906.0719019810724
 32
0.0
 13
1431.423651923099
 23
906.0719019810724
 33
0.0
  0
MTEXT
  5
214F
330
214A
100
AcDbEntity
  8
AM_5
 62
     2
100
AcDbMText
 10
1394.881678302189
 20
880.7578907683042
 30
0.0
 40
3.5
 41
0.0
 71
     9
 72
     5
  1

  7
ACISOTS
 73
     1
 44
1.0
1001
ACAD
1000
MTEXTBEGIN
1070
    73
1070
     1
1070
    44
1040
1.0
1070
    74
1070
     0
1000
MTEXTEND
  0
ENDBLK
  5
2150
330
214A
100
AcDbEntity
  8
0
100
AcDbBlockEnd
  0
BLOCK
  5
2152
330
2151
100
AcDbEntity
  8
0
100
AcDbBlockBegin
  2
*S7
 70
     1
 10
0.0
 20
0.0
 30
0.0
  3
*S7
  1

  0
LINE
  5
2153
330
2151
100
AcDbEntity
  8
AM_5
100
AcDbLine
 10
1667.396938130004
 20
738.8494431567058
 30
0.0
 11
1686.75477448231
 21
738.8494431567058
 31
0.0
  0
LINE
  5
2154
330
2151
100
AcDbEntity
  8
AM_5
100
AcDbLine
 10
1686.75477448231
 20
738.8494431567058
 30
0.0
 11
1699.509495453019
 21
755.1194460176106
 31
0.0
  0
TRACE
  5
2155
330
2151
100
AcDbEntity
  8
AM_5
100
AcDbTrace
 10
1699.872130353074
 20
754.8351616813391
 30
0.0
 11
1699.146860552964
 21
755.4037303538822
 31
0.0
 12
1701.668849379071
 22
757.8739315634145
 32
0.0
 13
1701.668849379071
 23
757.8739315634145
 33
0.0
  0
MTEXT
  5
2156
330
2151
100
AcDbEntity
  8
AM_5
 62
     2
100
AcDbMText
 10
1667.396938130004
 20
735.4556262911479
 30
0.0
 40
3.5
 41
0.0
 71
     9
 72
     5
  1

  7
ACISOTS
 73
     1
 44
1.0
1001
ACAD
1000
MTEXTBEGIN
1070
    73
1070
     1
1070
    44
1040
1.0
1070
    74
1070
     0
1000
MTEXTEND
  0
ENDBLK
  5
2157
330
2151
100
AcDbEntity
  8
0
100
AcDbBlockEnd
  0
BLOCK
  5
25C1
330
25B7
100
AcDbEntity
  8
0
100
AcDbBlockBegin
  2
*D8
 70
     1
 10
0.0
 20
0.0
 30
0.0
  3
*D8
  1

  0
LINE
  5
2875
330
25B7
100
AcDbEntity
  8
AM_5
100
AcDbLine
 10
569.6701275497217
 20
993.9057772366783
 30
0.0
 11
569.6701275497217
 21
1006.405777236678
 31
0.0
  0
LINE
  5
2876
330
25B7
100
AcDbEntity
  8
AM_5
100
AcDbLine
 10
554.6701275497216
 20
972.3848434256554
 30
0.0
 11
554.6701275497216
 21
1006.405777236678
 31
0.0
  0
LINE
  5
2877
330
25B7
100
AcDbEntity
  8
AM_5
100
AcDbLine
 10
566.6701275497216
 20
1004.905777236678
 30
0.0
 11
557.6701275497216
 21
1004.905777236678
 31
0.0
  0
SOLID
  5
2878
330
25B7
100
AcDbEntity
  8
AM_5
100
AcDbTrace
 10
566.6701275497216
 20
1005.405777236678
 30
0.0
 11
566.6701275497216
 21
1004.405777236678
 31
0.0
 12
569.6701275497217
 22
1004.905777236678
 32
0.0
 13
569.6701275497217
 23
1004.905777236678
 33
0.0
  0
SOLID
  5
2879
330
25B7
100
AcDbEntity
  8
AM_5
100
AcDbTrace
 10
557.6701275497216
 20
1005.405777236678
 30
0.0
 11
557.6701275497216
 21
1004.405777236678
 31
0.0
 12
554.6701275497216
 22
1004.905777236678
 32
0.0
 13
554.6701275497216
 23
1004.905777236678
 33
0.0
  0
MTEXT
  5
287A
330
25B7
100
AcDbEntity
  8
AM_5
100
AcDbMText
 10
562.1701275497216
 20
1007.655777236678
 30
0.0
 40
3.5
 41
0.0
 71
     5
 72
     1
  1
15
 73
     1
 44
1.0
1001
ACAD
1000
MTEXTBEGIN
1070
    73
1070
     1
1070
    44
1040
1.0
1070
    74
1070
     0
1000
MTEXTEND
  0
POINT
  5
287B
330
25B7
100
AcDbEntity
  8
Defpoints
 62
     0
100
AcDbPoint
 10
569.6701275497217
 20
992.4057772366783
 30
0.0
  0
POINT
  5
287C
330
25B7
100
AcDbEntity
  8
Defpoints
 62
     0
100
AcDbPoint
 10
554.6701275497216
 20
970.8848434256555
 30
0.0
  0
POINT
  5
287D
330
25B7
100
AcDbEntity
  8
Defpoints
 62
     0
100
AcDbPoint
 10
554.6701275497216
 20
1004.905777236678
 30
0.0
  0
ENDBLK
  5
25C2
330
25B7
100
AcDbEntity
  8
0
100
AcDbBlockEnd
  0
BLOCK
  5
25CD
330
25C3
100
AcDbEntity
  8
0
100
AcDbBlockBegin
  2
*D9
 70
     1
 10
0.0
 20
0.0
 30
0.0
  3
*D9
  1

  0
LINE
  5
287E
330
25C3
100
AcDbEntity
  8
AM_5
100
AcDbLine
 10
569.6701275497217
 20
993.9057772366783
 30
0.0
 11
569.6701275497217
 21
1013.405777236678
 31
0.0
  0
LINE
  5
287F
330
25C3
100
AcDbEntity
  8
AM_5
100
AcDbLine
 10
545.6701275497216
 20
979.9136035496559
 30
0.0
 11
545.6701275497216
 21
1013.405777236678
 31
0.0
  0
LINE
  5
2880
330
25C3
100
AcDbEntity
  8
AM_5
100
AcDbLine
 10
566.6701275497216
 20
1011.905777236678
 30
0.0
 11
548.6701275497217
 21
1011.905777236678
 31
0.0
  0
SOLID
  5
2881
330
25C3
100
AcDbEntity
  8
AM_5
100
AcDbTrace
 10
566.6701275497216
 20
1012.405777236678
 30
0.0
 11
566.6701275497216
 21
1011.405777236678
 31
0.0
 12
569.6701275497217
 22
1011.905777236678
 32
0.0
 13
569.6701275497217
 23
1011.905777236678
 33
0.0
  0
SOLID
  5
2882
330
25C3
100
AcDbEntity
  8
AM_5
100
AcDbTrace
 10
548.6701275497217
 20
1012.405777236678
 30
0.0
 11
548.6701275497217
 21
1011.405777236678
 31
0.0
 12
545.6701275497216
 22
1011.905777236678
 32
0.0
 13
545.6701275497216
 23
1011.905777236678
 33
0.0
  0
MTEXT
  5
2883
330
25C3
100
AcDbEntity
  8
AM_5
100
AcDbMText
 10
557.6701275497216
 20
1014.656121724867
 30
0.0
 40
3.5
 41
0.0
 71
     5
 72
     1
  1
24
 73
     1
 44
1.0
1001
ACAD
1000
MTEXTBEGIN
1070
    73
1070
     1
1070
    44
1040
1.0
1070
    74
1070
     0
1000
MTEXTEND
  0
POINT
  5
2884
330
25C3
100
AcDbEntity
  8
Defpoints
 62
     0
100
AcDbPoint
 10
569.6701275497217
 20
992.4057772366783
 30
0.0
  0
POINT
  5
2885
330
25C3
100
AcDbEntity
  8
Defpoints
 62
     0
100
AcDbPoint
 10
545.6701275497216
 20
978.4136035496558
 30
0.0
  0
POINT
  5
2886
330
25C3
100
AcDbEntity
  8
Defpoints
 62
     0
100
AcDbPoint
 10
545.6701275497216
 20
1011.905777236678
 30
0.0
  0
ENDBLK
  5
25CE
330
25C3
100
AcDbEntity
  8
0
100
AcDbBlockEnd
  0
BLOCK
  5
25D9
330
25CF
100
AcDbEntity
  8
0
100
AcDbBlockBegin
  2
*D10
 70
     1
 10
0.0
 20
0.0
 30
0.0
  3
*D10
  1

  0
LINE
  5
2887
330
25CF
100
AcDbEntity
  8
AM_5
100
AcDbLine
 10
569.6701275497217
 20
993.9057772366783
 30
0.0
 11
569.6701275497217
 21
1020.405777236678
 31
0.0
  0
LINE
  5
2888
330
25CF
100
AcDbEntity
  8
AM_5
100
AcDbLine
 10
419.6701275497223
 20
1007.984509133322
 30
0.0
 11
419.6701275497223
 21
1020.405777236678
 31
0.0
  0
LINE
  5
2889
330
25CF
100
AcDbEntity
  8
AM_5
100
AcDbLine
 10
566.6701275497216
 20
1018.905777236678
 30
0.0
 11
422.6701275497223
 21
1018.905777236678
 31
0.0
  0
SOLID
  5
288A
330
25CF
100
AcDbEntity
  8
AM_5
100
AcDbTrace
 10
566.6701275497216
 20
1019.405777236678
 30
0.0
 11
566.6701275497216
 21
1018.405777236678
 31
0.0
 12
569.6701275497217
 22
1018.905777236678
 32
0.0
 13
569.6701275497217
 23
1018.905777236678
 33
0.0
  0
SOLID
  5
288B
330
25CF
100
AcDbEntity
  8
AM_5
100
AcDbTrace
 10
422.6701275497223
 20
1019.405777236678
 30
0.0
 11
422.6701275497223
 21
1018.405777236678
 31
0.0
 12
419.6701275497223
 22
1018.905777236678
 32
0.0
 13
419.6701275497223
 23
1018.905777236678
 33
0.0
  0
MTEXT
  5
288C
330
25CF
100
AcDbEntity
  8
AM_5
100
AcDbMText
 10
494.6701275497219
 20
1021.655777236678
 30
0.0
 40
3.5
 41
0.0
 71
     5
 72
     1
  1
150
 73
     1
 44
1.0
1001
ACAD
1000
MTEXTBEGIN
1070
    73
1070
     1
1070
    44
1040
1.0
1070
    74
1070
     0
1000
MTEXTEND
  0
POINT
  5
288D
330
25CF
100
AcDbEntity
  8
Defpoints
 62
     0
100
AcDbPoint
 10
569.6701275497217
 20
992.4057772366783
 30
0.0
  0
POINT
  5
288E
330
25CF
100
AcDbEntity
  8
Defpoints
 62
     0
100
AcDbPoint
 10
419.6701275497223
 20
1006.484509133322
 30
0.0
  0
POINT
  5
288F
330
25CF
100
AcDbEntity
  8
Defpoints
 62
     0
100
AcDbPoint
 10
419.6701275497223
 20
1018.905777236678
 30
0.0
  0
ENDBLK
  5
25DA
330
25CF
100
AcDbEntity
  8
0
100
AcDbBlockEnd
  0
BLOCK
  5
25E5
330
25DB
100
AcDbEntity
  8
0
100
AcDbBlockBegin
  2
*D11
 70
     1
 10
0.0
 20
0.0
 30
0.0
  3
*D11
  1

  0
LINE
  5
2890
330
25DB
100
AcDbEntity
  8
AM_5
100
AcDbLine
 10
569.6701275497217
 20
993.9057772366783
 30
0.0
 11
569.6701275497217
 21
1027.405777236678
 31
0.0
  0
LINE
  5
2891
330
25DB
100
AcDbEntity
  8
AM_5
100
AcDbLine
 10
269.6701275497217
 20
993.9057772366783
 30
0.0
 11
269.6701275497217
 21
1027.405777236678
 31
0.0
  0
LINE
  5
2892
330
25DB
100
AcDbEntity
  8
AM_5
100
AcDbLine
 10
566.6701275497216
 20
1025.905777236678
 30
0.0
 11
272.6701275497216
 21
1025.905777236678
 31
0.0
  0
SOLID
  5
2893
330
25DB
100
AcDbEntity
  8
AM_5
100
AcDbTrace
 10
566.6701275497216
 20
1026.405777236678
 30
0.0
 11
566.6701275497216
 21
1025.405777236678
 31
0.0
 12
569.6701275497217
 22
1025.905777236678
 32
0.0
 13
569.6701275497217
 23
1025.905777236678
 33
0.0
  0
SOLID
  5
2894
330
25DB
100
AcDbEntity
  8
AM_5
100
AcDbTrace
 10
272.6701275497216
 20
1026.405777236678
 30
0.0
 11
272.6701275497216
 21
1025.405777236678
 31
0.0
 12
269.6701275497217
 22
1025.905777236678
 32
0.0
 13
269.6701275497217
 23
1025.905777236678
 33
0.0
  0
MTEXT
  5
2895
330
25DB
100
AcDbEntity
  8
AM_5
100
AcDbMText
 10
419.6701275497217
 20
1028.655777236678
 30
0.0
 40
3.5
 41
0.0
 71
     5
 72
     1
  1
300
 73
     1
 44
1.0
1001
ACAD
1000
MTEXTBEGIN
1070
    73
1070
     1
1070
    44
1040
1.0
1070
    74
1070
     0
1000
MTEXTEND
  0
POINT
  5
2896
330
25DB
100
AcDbEntity
  8
Defpoints
 62
     0
100
AcDbPoint
 10
569.6701275497217
 20
992.4057772366783
 30
0.0
  0
POINT
  5
2897
330
25DB
100
AcDbEntity
  8
Defpoints
 62
     0
100
AcDbPoint
 10
269.6701275497217
 20
992.4057772366783
 30
0.0
  0
POINT
  5
2898
330
25DB
100
AcDbEntity
  8
Defpoints
 62
     0
100
AcDbPoint
 10
269.6701275497217
 20
1025.905777236678
 30
0.0
  0
ENDBLK
  5
25E6
330
25DB
100
AcDbEntity
  8
0
100
AcDbBlockEnd
  0
BLOCK
  5
25F3
330
25E7
100
AcDbEntity
  8
0
100
AcDbBlockBegin
  2
*D12
 70
     1
 10
0.0
 20
0.0
 30
0.0
  3
*D12
  1

  0
LINE
  5
2899
330
25E7
100
AcDbEntity
  8
AM_5
100
AcDbLine
 10
300.6701275497214
 20
923.9057772366781
 30
0.0
 11
313.1701275497217
 21
923.9057772366781
 31
0.0
  0
LINE
  5
289A
330
25E7
100
AcDbEntity
  8
AM_5
100
AcDbLine
 10
301.1701275497217
 20
930.9057772366784
 30
0.0
 11
313.1701275497217
 21
930.9057772366784
 31
0.0
  0
LINE
  5
289B
330
25E7
100
AcDbEntity
  8
AM_5
100
AcDbLine
 10
311.6701275497216
 20
920.9057772366781
 30
0.0
 11
311.6701275497216
 21
917.905777236678
 31
0.0
  0
LINE
  5
289C
330
25E7
100
AcDbEntity
  8
AM_5
100
AcDbLine
 10
311.6701275497216
 20
933.9057772366786
 30
0.0
 11
311.6701275497216
 21
936.9057772366785
 31
0.0
  0
LINE
  5
289D
330
25E7
100
AcDbEntity
  8
AM_5
100
AcDbLine
 10
311.6701275497216
 20
923.9057772366781
 30
0.0
 11
311.6701275497216
 21
930.9057772366784
 31
0.0
  0
SOLID
  5
289E
330
25E7
100
AcDbEntity
  8
AM_5
100
AcDbTrace
 10
311.1701275497217
 20
920.9057772366781
 30
0.0
 11
312.1701275497216
 21
920.9057772366781
 31
0.0
 12
311.6701275497216
 22
923.9057772366781
 32
0.0
 13
311.6701275497216
 23
923.9057772366781
 33
0.0
  0
SOLID
  5
289F
330
25E7
100
AcDbEntity
  8
AM_5
100
AcDbTrace
 10
311.1701275497217
 20
933.9057772366786
 30
0.0
 11
312.1701275497216
 21
933.9057772366786
 31
0.0
 12
311.6701275497216
 22
930.9057772366784
 32
0.0
 13
311.6701275497216
 23
930.9057772366784
 33
0.0
  0
MTEXT
  5
28A0
330
25E7
100
AcDbEntity
  8
AM_5
100
AcDbMText
 10
308.7451275497215
 20
927.4057772366784
 30
0.0
 40
3.5
 41
0.0
 71
     5
 72
     1
  1
(7)
 11
0.0000000000000001
 21
1.0
 31
0.0
 73
     1
 44
1.0
1001
ACAD
1000
MTEXTBEGIN
1070
    73
1070
     1
1070
    44
1040
1.0
1070
    74
1070
     0
1000
MTEXTEND
  0
POINT
  5
28A1
330
25E7
100
AcDbEntity
  8
Defpoints
 62
     0
100
AcDbPoint
 10
299.1701275497214
 20
923.9057772366781
 30
0.0
  0
POINT
  5
28A2
330
25E7
100
AcDbEntity
  8
Defpoints
 62
     0
100
AcDbPoint
 10
299.6701275497216
 20
930.9057772366784
 30
0.0
  0
POINT
  5
28A3
330
25E7
100
AcDbEntity
  8
Defpoints
 62
     0
100
AcDbPoint
 10
311.6701275497216
 20
930.9057772366784
 30
0.0
  0
ENDBLK
  5
25F4
330
25E7
100
AcDbEntity
  8
0
100
AcDbBlockEnd
  0
BLOCK
  5
25FF
330
25F5
100
AcDbEntity
  8
0
100
AcDbBlockBegin
  2
*D13
 70
     1
 10
0.0
 20
0.0
 30
0.0
  3
*D13
  1

  0
LINE
  5
28A4
330
25F5
100
AcDbEntity
  8
AM_5
100
AcDbLine
 10
374.6701275497226
 20
1115.288792260594
 30
0.0
 11
374.6701275497226
 21
1138.288792260594
 31
0.0
  0
LINE
  5
28A5
330
25F5
100
AcDbEntity
  8
AM_5
100
AcDbLine
 10
464.6701275497226
 20
1115.288792260594
 30
0.0
 11
464.6701275497226
 21
1138.288792260594
 31
0.0
  0
LINE
  5
28A6
330
25F5
100
AcDbEntity
  8
AM_5
100
AcDbLine
 10
377.6701275497226
 20
1136.788792260595
 30
0.0
 11
461.6701275497225
 21
1136.788792260595
 31
0.0
  0
SOLID
  5
28A7
330
25F5
100
AcDbEntity
  8
AM_5
100
AcDbTrace
 10
377.6701275497226
 20
1137.288792260594
 30
0.0
 11
377.6701275497226
 21
1136.288792260594
 31
0.0
 12
374.6701275497226
 22
1136.788792260595
 32
0.0
 13
374.6701275497226
 23
1136.788792260595
 33
0.0
  0
SOLID
  5
28A8
330
25F5
100
AcDbEntity
  8
AM_5
100
AcDbTrace
 10
461.6701275497225
 20
1137.288792260594
 30
0.0
 11
461.6701275497225
 21
1136.288792260594
 31
0.0
 12
464.6701275497226
 22
1136.788792260595
 32
0.0
 13
464.6701275497226
 23
1136.788792260595
 33
0.0
  0
MTEXT
  5
28A9
330
25F5
100
AcDbEntity
  8
AM_5
100
AcDbMText
 10
419.6701275497225
 20
1139.538792260594
 30
0.0
 40
3.5
 41
0.0
 71
     5
 72
     1
  1
90
 73
     1
 44
1.0
1001
ACAD
1000
MTEXTBEGIN
1070
    73
1070
     1
1070
    44
1040
1.0
1070
    74
1070
     0
1000
MTEXTEND
  0
POINT
  5
28AA
330
25F5
100
AcDbEntity
  8
Defpoints
 62
     0
100
AcDbPoint
 10
374.6701275497226
 20
1113.788792260594
 30
0.0
  0
POINT
  5
28AB
330
25F5
100
AcDbEntity
  8
Defpoints
 62
     0
100
AcDbPoint
 10
464.6701275497226
 20
1113.788792260594
 30
0.0
  0
POINT
  5
28AC
330
25F5
100
AcDbEntity
  8
Defpoints
 62
     0
100
AcDbPoint
 10
464.6701275497226
 20
1136.788792260595
 30
0.0
  0
ENDBLK
  5
2600
330
25F5
100
AcDbEntity
  8
0
100
AcDbBlockEnd
  0
BLOCK
  5
260B
330
2601
100
AcDbEntity
  8
0
100
AcDbBlockBegin
  2
*D14
 70
     1
 10
0.0
 20
0.0
 30
0.0
  3
*D14
  1

  0
LINE
  5
28AD
330
2601
100
AcDbEntity
  8
AM_5
100
AcDbLine
 10
352.1701275497223
 20
1115.488792260594
 30
0.0
 11
352.1701275497223
 21
1145.288792260594
 31
0.0
  0
LINE
  5
28AE
330
2601
100
AcDbEntity
  8
AM_5
100
AcDbLine
 10
487.1701275497223
 20
1115.488792260594
 30
0.0
 11
487.1701275497223
 21
1145.288792260594
 31
0.0
  0
LINE
  5
28AF
330
2601
100
AcDbEntity
  8
AM_5
100
AcDbLine
 10
355.1701275497223
 20
1143.788792260594
 30
0.0
 11
484.1701275497223
 21
1143.788792260594
 31
0.0
  0
SOLID
  5
28B0
330
2601
100
AcDbEntity
  8
AM_5
100
AcDbTrace
 10
355.1701275497223
 20
1144.288792260594
 30
0.0
 11
355.1701275497223
 21
1143.288792260594
 31
0.0
 12
352.1701275497223
 22
1143.788792260594
 32
0.0
 13
352.1701275497223
 23
1143.788792260594
 33
0.0
  0
SOLID
  5
28B1
330
2601
100
AcDbEntity
  8
AM_5
100
AcDbTrace
 10
484.1701275497223
 20
1144.288792260594
 30
0.0
 11
484.1701275497223
 21
1143.288792260594
 31
0.0
 12
487.1701275497223
 22
1143.788792260594
 32
0.0
 13
487.1701275497223
 23
1143.788792260594
 33
0.0
  0
MTEXT
  5
28B2
330
2601
100
AcDbEntity
  8
AM_5
100
AcDbMText
 10
419.6701275497223
 20
1146.713792260594
 30
0.0
 40
3.5
 41
0.0
 71
     5
 72
     1
  1
(135)
 73
     1
 44
1.0
1001
ACAD
1000
MTEXTBEGIN
1070
    73
1070
     1
1070
    44
1040
1.0
1070
    74
1070
     0
1000
MTEXTEND
  0
POINT
  5
28B3
330
2601
100
AcDbEntity
  8
Defpoints
 62
     0
100
AcDbPoint
 10
352.1701275497223
 20
1113.988792260594
 30
0.0
  0
POINT
  5
28B4
330
2601
100
AcDbEntity
  8
Defpoints
 62
     0
100
AcDbPoint
 10
487.1701275497223
 20
1113.988792260594
 30
0.0
  0
POINT
  5
28B5
330
2601
100
AcDbEntity
  8
Defpoints
 62
     0
100
AcDbPoint
 10
487.1701275497223
 20
1143.788792260594
 30
0.0
  0
ENDBLK
  5
260C
330
2601
100
AcDbEntity
  8
0
100
AcDbBlockEnd
  0
BLOCK
  5
2617
330
260D
100
AcDbEntity
  8
0
100
AcDbBlockBegin
  2
*D15
 70
     1
 10
0.0
 20
0.0
 30
0.0
  3
*D15
  1

  0
LINE
  5
28B6
330
260D
100
AcDbEntity
  8
AM_5
100
AcDbLine
 10
343.6701275497223
 20
1114.788792260594
 30
0.0
 11
343.6701275497223
 21
1152.288792260594
 31
0.0
  0
LINE
  5
28B7
330
260D
100
AcDbEntity
  8
AM_5
100
AcDbLine
 10
495.6701275497223
 20
1114.788792260594
 30
0.0
 11
495.6701275497223
 21
1152.288792260594
 31
0.0
  0
LINE
  5
28B8
330
260D
100
AcDbEntity
  8
AM_5
100
AcDbLine
 10
346.6701275497223
 20
1150.788792260594
 30
0.0
 11
492.6701275497223
 21
1150.788792260594
 31
0.0
  0
SOLID
  5
28B9
330
260D
100
AcDbEntity
  8
AM_5
100
AcDbTrace
 10
346.6701275497223
 20
1151.288792260594
 30
0.0
 11
346.6701275497223
 21
1150.288792260594
 31
0.0
 12
343.6701275497223
 22
1150.788792260594
 32
0.0
 13
343.6701275497223
 23
1150.788792260594
 33
0.0
  0
SOLID
  5
28BA
330
260D
100
AcDbEntity
  8
AM_5
100
AcDbTrace
 10
492.6701275497223
 20
1151.288792260594
 30
0.0
 11
492.6701275497223
 21
1150.288792260594
 31
0.0
 12
495.6701275497223
 22
1150.788792260594
 32
0.0
 13
495.6701275497223
 23
1150.788792260594
 33
0.0
  0
MTEXT
  5
28BB
330
260D
100
AcDbEntity
  8
AM_5
100
AcDbMText
 10
419.6701275497223
 20
1153.539136748783
 30
0.0
 40
3.5
 41
0.0
 71
     5
 72
     1
  1
152
 73
     1
 44
1.0
1001
ACAD
1000
MTEXTBEGIN
1070
    73
1070
     1
1070
    44
1040
1.0
1070
    74
1070
     0
1000
MTEXTEND
  0
POINT
  5
28BC
330
260D
100
AcDbEntity
  8
Defpoints
 62
     0
100
AcDbPoint
 10
343.6701275497223
 20
1113.288792260594
 30
0.0
  0
POINT
  5
28BD
330
260D
100
AcDbEntity
  8
Defpoints
 62
     0
100
AcDbPoint
 10
495.6701275497223
 20
1113.288792260594
 30
0.0
  0
POINT
  5
28BE
330
260D
100
AcDbEntity
  8
Defpoints
 62
     0
100
AcDbPoint
 10
495.6701275497223
 20
1150.788792260594
 30
0.0
  0
ENDBLK
  5
2618
330
260D
100
AcDbEntity
  8
0
100
AcDbBlockEnd
  0
BLOCK
  5
2623
330
2619
100
AcDbEntity
  8
0
100
AcDbBlockBegin
  2
*D16
 70
     1
 10
0.0
 20
0.0
 30
0.0
  3
*D16
  1

  0
LINE
  5
28BF
330
2619
100
AcDbEntity
  8
AM_5
100
AcDbLine
 10
368.345238937914
 20
1109.288792260594
 30
0.0
 11
335.500711804199
 21
1109.288792260594
 31
0.0
  0
LINE
  5
28C0
330
2619
100
AcDbEntity
  8
AM_5
100
AcDbLine
 10
368.0688755537453
 20
1082.288792260595
 30
0.0
 11
335.500711804199
 21
1082.288792260595
 31
0.0
  0
LINE
  5
28C1
330
2619
100
AcDbEntity
  8
AM_5
100
AcDbLine
 10
337.000711804199
 20
1106.288792260595
 30
0.0
 11
337.000711804199
 21
1085.288792260594
 31
0.0
  0
SOLID
  5
28C2
330
2619
100
AcDbEntity
  8
AM_5
100
AcDbTrace
 10
336.5007118041989
 20
1106.288792260595
 30
0.0
 11
337.500711804199
 21
1106.288792260595
 31
0.0
 12
337.000711804199
 22
1109.288792260594
 32
0.0
 13
337.000711804199
 23
1109.288792260594
 33
0.0
  0
SOLID
  5
28C3
330
2619
100
AcDbEntity
  8
AM_5
100
AcDbTrace
 10
336.5007118041989
 20
1085.288792260594
 30
0.0
 11
337.500711804199
 21
1085.288792260594
 31
0.0
 12
337.000711804199
 22
1082.288792260595
 32
0.0
 13
337.000711804199
 23
1082.288792260595
 33
0.0
  0
MTEXT
  5
28C4
330
2619
100
AcDbEntity
  8
AM_5
100
AcDbMText
 10
334.2503673160098
 20
1099.917625642484
 30
0.0
 40
3.5
 41
0.0
 71
     5
 72
     1
  1
27
 11
0.0000000000000001
 21
1.0
 31
0.0
 73
     1
 44
1.0
1001
ACAD
1000
MTEXTBEGIN
1070
    73
1070
     1
1070
    44
1040
1.0
1070
    74
1070
     0
1000
MTEXTEND
  0
POINT
  5
28C5
330
2619
100
AcDbEntity
  8
Defpoints
 62
     0
100
AcDbPoint
 10
369.845238937914
 20
1109.288792260594
 30
0.0
  0
POINT
  5
28C6
330
2619
100
AcDbEntity
  8
Defpoints
 62
     0
100
AcDbPoint
 10
369.5688755537454
 20
1082.288792260595
 30
0.0
  0
POINT
  5
28C7
330
2619
100
AcDbEntity
  8
Defpoints
 62
     0
100
AcDbPoint
 10
337.000711804199
 20
1082.288792260595
 30
0.0
  0
ENDBLK
  5
2624
330
2619
100
AcDbEntity
  8
0
100
AcDbBlockEnd
  0
BLOCK
  5
262F
330
2625
100
AcDbEntity
  8
0
100
AcDbBlockBegin
  2
*D17
 70
     1
 10
0.0
 20
0.0
 30
0.0
  3
*D17
  1

  0
LINE
  5
28C8
330
2625
100
AcDbEntity
  8
AM_5
100
AcDbLine
 10
301.1701275497217
 20
988.9057772366783
 30
0.0
 11
313.1701275497216
 21
988.9057772366783
 31
0.0
  0
LINE
  5
28C9
330
2625
100
AcDbEntity
  8
AM_5
100
AcDbLine
 10
301.1701275497217
 20
930.9057772366784
 30
0.0
 11
313.1701275497216
 21
930.9057772366784
 31
0.0
  0
LINE
  5
28CA
330
2625
100
AcDbEntity
  8
AM_5
100
AcDbLine
 10
311.6701275497216
 20
985.9057772366783
 30
0.0
 11
311.6701275497216
 21
933.9057772366786
 31
0.0
  0
SOLID
  5
28CB
330
2625
100
AcDbEntity
  8
AM_5
100
AcDbTrace
 10
311.1701275497216
 20
985.9057772366783
 30
0.0
 11
312.1701275497216
 21
985.9057772366783
 31
0.0
 12
311.6701275497216
 22
988.9057772366783
 32
0.0
 13
311.6701275497216
 23
988.9057772366783
 33
0.0
  0
SOLID
  5
28CC
330
2625
100
AcDbEntity
  8
AM_5
100
AcDbTrace
 10
311.1701275497216
 20
933.9057772366786
 30
0.0
 11
312.1701275497216
 21
933.9057772366786
 31
0.0
 12
311.6701275497216
 22
930.9057772366784
 32
0.0
 13
311.6701275497216
 23
930.9057772366784
 33
0.0
  0
MTEXT
  5
28CD
330
2625
100
AcDbEntity
  8
AM_5
100
AcDbMText
 10
308.9201275497214
 20
964.5415243696001
 30
0.0
 40
3.5
 41
0.0
 71
     5
 72
     1
  1
58
 11
0.0000000000000001
 21
1.0
 31
0.0
 73
     1
 44
1.0
1001
ACAD
1000
MTEXTBEGIN
1070
    73
1070
     1
1070
    44
1040
1.0
1070
    74
1070
     0
1000
MTEXTEND
  0
POINT
  5
28CE
330
2625
100
AcDbEntity
  8
Defpoints
 62
     0
100
AcDbPoint
 10
299.6701275497216
 20
988.9057772366783
 30
0.0
  0
POINT
  5
28CF
330
2625
100
AcDbEntity
  8
Defpoints
 62
     0
100
AcDbPoint
 10
299.6701275497216
 20
930.9057772366784
 30
0.0
  0
POINT
  5
28D0
330
2625
100
AcDbEntity
  8
Defpoints
 62
     0
100
AcDbPoint
 10
311.6701275497216
 20
930.9057772366784
 30
0.0
  0
ENDBLK
  5
2630
330
2625
100
AcDbEntity
  8
0
100
AcDbBlockEnd
  0
BLOCK
  5
263B
330
2631
100
AcDbEntity
  8
0
100
AcDbBlockBegin
  2
*D18
 70
     1
 10
0.0
 20
0.0
 30
0.0
  3
*D18
  1

  0
LINE
  5
28D1
330
2631
100
AcDbEntity
  8
AM_5
100
AcDbLine
 10
569.6701275497218
 20
818.0137132233365
 30
0.0
 11
569.6701275497218
 21
806.013713223337
 31
0.0
  0
LINE
  5
28D2
330
2631
100
AcDbEntity
  8
AM_5
100
AcDbLine
 10
554.6701275497221
 20
842.3322117443742
 30
0.0
 11
554.6701275497221
 21
806.013713223337
 31
0.0
  0
LINE
  5
28D3
330
2631
100
AcDbEntity
  8
AM_5
100
AcDbLine
 10
566.6701275497218
 20
807.513713223337
 30
0.0
 11
557.6701275497221
 21
807.513713223337
 31
0.0
  0
SOLID
  5
28D4
330
2631
100
AcDbEntity
  8
AM_5
100
AcDbTrace
 10
566.6701275497218
 20
808.0137132233371
 30
0.0
 11
566.6701275497218
 21
807.0137132233369
 31
0.0
 12
569.6701275497218
 22
807.513713223337
 32
0.0
 13
569.6701275497218
 23
807.513713223337
 33
0.0
  0
SOLID
  5
28D5
330
2631
100
AcDbEntity
  8
AM_5
100
AcDbTrace
 10
557.6701275497221
 20
808.0137132233371
 30
0.0
 11
557.6701275497221
 21
807.0137132233369
 31
0.0
 12
554.6701275497221
 22
807.513713223337
 32
0.0
 13
554.6701275497221
 23
807.513713223337
 33
0.0
  0
MTEXT
  5
28D6
330
2631
100
AcDbEntity
  8
AM_5
100
AcDbMText
 10
562.170127549722
 20
810.263713223337
 30
0.0
 40
3.5
 41
0.0
 71
     5
 72
     1
  1
15
 73
     1
 44
1.0
1001
ACAD
1000
MTEXTBEGIN
1070
    73
1070
     1
1070
    44
1040
1.0
1070
    74
1070
     0
1000
MTEXTEND
  0
POINT
  5
28D7
330
2631
100
AcDbEntity
  8
Defpoints
 62
     0
100
AcDbPoint
 10
569.6701275497218
 20
819.5137132233364
 30
0.0
  0
POINT
  5
28D8
330
2631
100
AcDbEntity
  8
Defpoints
 62
     0
100
AcDbPoint
 10
554.6701275497221
 20
843.8322117443743
 30
0.0
  0
POINT
  5
28D9
330
2631
100
AcDbEntity
  8
Defpoints
 62
     0
100
AcDbPoint
 10
554.6701275497221
 20
807.513713223337
 30
0.0
  0
ENDBLK
  5
263C
330
2631
100
AcDbEntity
  8
0
100
AcDbBlockEnd
  0
BLOCK
  5
2647
330
263D
100
AcDbEntity
  8
0
100
AcDbBlockBegin
  2
*D19
 70
     1
 10
0.0
 20
0.0
 30
0.0
  3
*D19
  1

  0
LINE
  5
28DA
330
263D
100
AcDbEntity
  8
AM_5
100
AcDbLine
 10
269.6701275497217
 20
818.0137132233365
 30
0.0
 11
269.6701275497217
 21
806.0137132233364
 31
0.0
  0
LINE
  5
28DB
330
263D
100
AcDbEntity
  8
AM_5
100
AcDbLine
 10
284.6701275497214
 20
842.3322117443719
 30
0.0
 11
284.6701275497214
 21
806.0137132233364
 31
0.0
  0
LINE
  5
28DC
330
263D
100
AcDbEntity
  8
AM_5
100
AcDbLine
 10
272.6701275497216
 20
807.5137132233365
 30
0.0
 11
281.6701275497214
 21
807.5137132233365
 31
0.0
  0
SOLID
  5
28DD
330
263D
100
AcDbEntity
  8
AM_5
100
AcDbTrace
 10
272.6701275497216
 20
808.0137132233364
 30
0.0
 11
272.6701275497216
 21
807.0137132233364
 31
0.0
 12
269.6701275497217
 22
807.5137132233365
 32
0.0
 13
269.6701275497217
 23
807.5137132233365
 33
0.0
  0
SOLID
  5
28DE
330
263D
100
AcDbEntity
  8
AM_5
100
AcDbTrace
 10
281.6701275497214
 20
808.0137132233364
 30
0.0
 11
281.6701275497214
 21
807.0137132233364
 31
0.0
 12
284.6701275497214
 22
807.5137132233365
 32
0.0
 13
284.6701275497214
 23
807.5137132233365
 33
0.0
  0
MTEXT
  5
28DF
330
263D
100
AcDbEntity
  8
AM_5
100
AcDbMText
 10
277.1701275497215
 20
810.2637132233365
 30
0.0
 40
3.5
 41
0.0
 71
     5
 72
     1
  1
15
 73
     1
 44
1.0
1001
ACAD
1000
MTEXTBEGIN
1070
    73
1070
     1
1070
    44
1040
1.0
1070
    74
1070
     0
1000
MTEXTEND
  0
POINT
  5
28E0
330
263D
100
AcDbEntity
  8
Defpoints
 62
     0
100
AcDbPoint
 10
269.6701275497217
 20
819.5137132233364
 30
0.0
  0
POINT
  5
28E1
330
263D
100
AcDbEntity
  8
Defpoints
 62
     0
100
AcDbPoint
 10
284.6701275497214
 20
843.8322117443719
 30
0.0
  0
POINT
  5
28E2
330
263D
100
AcDbEntity
  8
Defpoints
 62
     0
100
AcDbPoint
 10
284.6701275497214
 20
807.5137132233365
 30
0.0
  0
ENDBLK
  5
2648
330
263D
100
AcDbEntity
  8
0
100
AcDbBlockEnd
  0
BLOCK
  5
2653
330
2649
100
AcDbEntity
  8
0
100
AcDbBlockBegin
  2
*D20
 70
     1
 10
0.0
 20
0.0
 30
0.0
  3
*D20
  1

  0
LINE
  5
28E3
330
2649
100
AcDbEntity
  8
AM_5
100
AcDbLine
 10
644.9133147069107
 20
927.5709196565504
 30
0.0
 11
644.9133147069107
 21
910.4057772366783
 31
0.0
  0
LINE
  5
28E4
330
2649
100
AcDbEntity
  8
AM_5
100
AcDbLine
 10
698.9133147069107
 20
927.5709196565504
 30
0.0
 11
698.9133147069107
 21
910.4057772366783
 31
0.0
  0
LINE
  5
28E5
330
2649
100
AcDbEntity
  8
AM_5
100
AcDbLine
 10
647.9133147069108
 20
911.9057772366783
 30
0.0
 11
695.9133147069108
 21
911.9057772366783
 31
0.0
  0
SOLID
  5
28E6
330
2649
100
AcDbEntity
  8
AM_5
100
AcDbTrace
 10
647.9133147069108
 20
912.4057772366782
 30
0.0
 11
647.9133147069108
 21
911.4057772366782
 31
0.0
 12
644.9133147069107
 22
911.9057772366783
 32
0.0
 13
644.9133147069107
 23
911.9057772366783
 33
0.0
  0
SOLID
  5
28E7
330
2649
100
AcDbEntity
  8
AM_5
100
AcDbTrace
 10
695.9133147069108
 20
912.4057772366782
 30
0.0
 11
695.9133147069108
 21
911.4057772366782
 31
0.0
 12
698.9133147069107
 22
911.9057772366783
 32
0.0
 13
698.9133147069107
 23
911.9057772366783
 33
0.0
  0
MTEXT
  5
28E8
330
2649
100
AcDbEntity
  8
AM_5
100
AcDbMText
 10
671.9133147069108
 20
914.6557772366783
 30
0.0
 40
3.5
 41
0.0
 71
     5
 72
     1
  1
54
 73
     1
 44
1.0
1001
ACAD
1000
MTEXTBEGIN
1070
    73
1070
     1
1070
    44
1040
1.0
1070
    74
1070
     0
1000
MTEXTEND
  0
POINT
  5
28E9
330
2649
100
AcDbEntity
  8
Defpoints
 62
     0
100
AcDbPoint
 10
644.9133147069107
 20
929.0709196565503
 30
0.0
  0
POINT
  5
28EA
330
2649
100
AcDbEntity
  8
Defpoints
 62
     0
100
AcDbPoint
 10
698.9133147069107
 20
929.0709196565503
 30
0.0
  0
POINT
  5
28EB
330
2649
100
AcDbEntity
  8
Defpoints
 62
     0
100
AcDbPoint
 10
698.9133147069107
 20
911.9057772366783
 30
0.0
  0
ENDBLK
  5
2654
330
2649
100
AcDbEntity
  8
0
100
AcDbBlockEnd
  0
BLOCK
  5
265F
330
2655
100
AcDbEntity
  8
0
100
AcDbBlockBegin
  2
*D21
 70
     1
 10
0.0
 20
0.0
 30
0.0
  3
*D21
  1

  0
LINE
  5
28EC
330
2655
100
AcDbEntity
  8
AM_5
100
AcDbLine
 10
635.9133147069107
 20
932.7349084806469
 30
0.0
 11
635.9133147069107
 21
903.4057772366784
 31
0.0
  0
LINE
  5
28ED
330
2655
100
AcDbEntity
  8
AM_5
100
AcDbLine
 10
707.9133147069107
 20
932.7349084806469
 30
0.0
 11
707.9133147069107
 21
903.4057772366784
 31
0.0
  0
LINE
  5
28EE
330
2655
100
AcDbEntity
  8
AM_5
100
AcDbLine
 10
638.9133147069108
 20
904.9057772366785
 30
0.0
 11
704.9133147069108
 21
904.9057772366785
 31
0.0
  0
SOLID
  5
28EF
330
2655
100
AcDbEntity
  8
AM_5
100
AcDbTrace
 10
638.9133147069108
 20
905.4057772366784
 30
0.0
 11
638.9133147069108
 21
904.4057772366784
 31
0.0
 12
635.9133147069107
 22
904.9057772366785
 32
0.0
 13
635.9133147069107
 23
904.9057772366785
 33
0.0
  0
SOLID
  5
28F0
330
2655
100
AcDbEntity
  8
AM_5
100
AcDbTrace
 10
704.9133147069108
 20
905.4057772366784
 30
0.0
 11
704.9133147069108
 21
904.4057772366784
 31
0.0
 12
707.9133147069107
 22
904.9057772366785
 32
0.0
 13
707.9133147069107
 23
904.9057772366785
 33
0.0
  0
MTEXT
  5
28F1
330
2655
100
AcDbEntity
  8
AM_5
100
AcDbMText
 10
671.9133147069108
 20
907.6561217248674
 30
0.0
 40
3.5
 41
0.0
 71
     5
 72
     1
  1
72
 73
     1
 44
1.0
1001
ACAD
1000
MTEXTBEGIN
1070
    73
1070
     1
1070
    44
1040
1.0
1070
    74
1070
     0
1000
MTEXTEND
  0
POINT
  5
28F2
330
2655
100
AcDbEntity
  8
Defpoints
 62
     0
100
AcDbPoint
 10
635.9133147069107
 20
934.2349084806468
 30
0.0
  0
POINT
  5
28F3
330
2655
100
AcDbEntity
  8
Defpoints
 62
     0
100
AcDbPoint
 10
707.9133147069107
 20
934.2349084806468
 30
0.0
  0
POINT
  5
28F4
330
2655
100
AcDbEntity
  8
Defpoints
 62
     0
100
AcDbPoint
 10
707.9133147069107
 20
904.9057772366785
 30
0.0
  0
ENDBLK
  5
2660
330
2655
100
AcDbEntity
  8
0
100
AcDbBlockEnd
  0
BLOCK
  5
266B
330
2661
100
AcDbEntity
  8
0
100
AcDbBlockBegin
  2
*D22
 70
     1
 10
0.0
 20
0.0
 30
0.0
  3
*D22
  1

  0
LINE
  5
28F5
330
2661
100
AcDbEntity
  8
AM_5
100
AcDbLine
 10
639.0111241011693
 20
923.9057772366782
 30
0.0
 11
622.4133147069108
 21
923.9057772366782
 31
0.0
  0
LINE
  5
28F6
330
2661
100
AcDbEntity
  8
AM_5
100
AcDbLine
 10
639.5541941075239
 20
932.9057772366782
 30
0.0
 11
622.4133147069108
 21
932.9057772366782
 31
0.0
  0
LINE
  5
28F7
330
2661
100
AcDbEntity
  8
AM_5
100
AcDbLine
 10
623.9133147069107
 20
926.9057772366783
 30
0.0
 11
623.9133147069107
 21
929.9057772366783
 31
0.0
  0
SOLID
  5
28F8
330
2661
100
AcDbEntity
  8
AM_5
100
AcDbTrace
 10
623.4133147069107
 20
926.9057772366783
 30
0.0
 11
624.4133147069107
 21
926.9057772366783
 31
0.0
 12
623.9133147069107
 22
923.9057772366782
 32
0.0
 13
623.9133147069107
 23
923.9057772366782
 33
0.0
  0
SOLID
  5
28F9
330
2661
100
AcDbEntity
  8
AM_5
100
AcDbTrace
 10
623.4133147069107
 20
929.9057772366783
 30
0.0
 11
624.4133147069107
 21
929.9057772366783
 31
0.0
 12
623.9133147069107
 22
932.9057772366782
 32
0.0
 13
623.9133147069107
 23
932.9057772366782
 33
0.0
  0
MTEXT
  5
28FA
330
2661
100
AcDbEntity
  8
AM_5
100
AcDbMText
 10
621.1633147069107
 20
928.4057772366784
 30
0.0
 40
3.5
 41
0.0
 71
     5
 72
     1
  1
9
 11
0.0000000000000001
 21
1.0
 31
0.0
 73
     1
 44
1.0
1001
ACAD
1000
MTEXTBEGIN
1070
    73
1070
     1
1070
    44
1040
1.0
1070
    74
1070
     0
1000
MTEXTEND
  0
POINT
  5
28FB
330
2661
100
AcDbEntity
  8
Defpoints
 62
     0
100
AcDbPoint
 10
640.5111241011693
 20
923.9057772366782
 30
0.0
  0
POINT
  5
28FC
330
2661
100
AcDbEntity
  8
Defpoints
 62
     0
100
AcDbPoint
 10
641.0541941075239
 20
932.9057772366782
 30
0.0
  0
POINT
  5
28FD
330
2661
100
AcDbEntity
  8
Defpoints
 62
     0
100
AcDbPoint
 10
623.9133147069107
 20
932.9057772366782
 30
0.0
  0
ENDBLK
  5
266C
330
2661
100
AcDbEntity
  8
0
100
AcDbBlockEnd
  0
BLOCK
  5
2677
330
266D
100
AcDbEntity
  8
0
100
AcDbBlockBegin
  2
*D23
 70
     1
 10
0.0
 20
0.0
 30
0.0
  3
*D23
  1

  0
LINE
  5
28FE
330
266D
100
AcDbEntity
  8
AM_5
100
AcDbLine
 10
639.5541941075239
 20
932.9057772366782
 30
0.0
 11
622.4133147069108
 21
932.9057772366782
 31
0.0
  0
LINE
  5
28FF
330
266D
100
AcDbEntity
  8
AM_5
100
AcDbLine
 10
639.5541941075239
 20
986.9057772366783
 30
0.0
 11
622.4133147069108
 21
986.9057772366783
 31
0.0
  0
LINE
  5
2900
330
266D
100
AcDbEntity
  8
AM_5
100
AcDbLine
 10
623.9133147069107
 20
935.9057772366783
 30
0.0
 11
623.9133147069107
 21
983.9057772366784
 31
0.0
  0
SOLID
  5
2901
330
266D
100
AcDbEntity
  8
AM_5
100
AcDbTrace
 10
623.4133147069107
 20
935.9057772366783
 30
0.0
 11
624.4133147069107
 21
935.9057772366783
 31
0.0
 12
623.9133147069107
 22
932.9057772366782
 32
0.0
 13
623.9133147069107
 23
932.9057772366782
 33
0.0
  0
SOLID
  5
2902
330
266D
100
AcDbEntity
  8
AM_5
100
AcDbTrace
 10
623.4133147069107
 20
983.9057772366784
 30
0.0
 11
624.4133147069107
 21
983.9057772366784
 31
0.0
 12
623.9133147069107
 22
986.9057772366783
 32
0.0
 13
623.9133147069107
 23
986.9057772366783
 33
0.0
  0
MTEXT
  5
2903
330
266D
100
AcDbEntity
  8
AM_5
100
AcDbMText
 10
621.1633147069107
 20
959.9057772366784
 30
0.0
 40
3.5
 41
0.0
 71
     5
 72
     1
  1
54
 11
0.0000000000000001
 21
1.0
 31
0.0
 73
     1
 44
1.0
1001
ACAD
1000
MTEXTBEGIN
1070
    73
1070
     1
1070
    44
1040
1.0
1070
    74
1070
     0
1000
MTEXTEND
  0
POINT
  5
2904
330
266D
100
AcDbEntity
  8
Defpoints
 62
     0
100
AcDbPoint
 10
641.0541941075239
 20
932.9057772366782
 30
0.0
  0
POINT
  5
2905
330
266D
100
AcDbEntity
  8
Defpoints
 62
     0
100
AcDbPoint
 10
641.0541941075239
 20
986.9057772366783
 30
0.0
  0
POINT
  5
2906
330
266D
100
AcDbEntity
  8
Defpoints
 62
     0
100
AcDbPoint
 10
623.9133147069107
 20
986.9057772366783
 30
0.0
  0
ENDBLK
  5
2678
330
266D
100
AcDbEntity
  8
0
100
AcDbBlockEnd
  0
BLOCK
  5
2683
330
2679
100
AcDbEntity
  8
0
100
AcDbBlockBegin
  2
*D24
 70
     1
 10
0.0
 20
0.0
 30
0.0
  3
*D24
  1

  0
LINE
  5
2907
330
2679
100
AcDbEntity
  8
AM_5
100
AcDbLine
 10
639.0111241011693
 20
923.9057772366782
 30
0.0
 11
615.4133147069107
 21
923.9057772366782
 31
0.0
  0
LINE
  5
2908
330
2679
100
AcDbEntity
  8
AM_5
100
AcDbLine
 10
644.7424459508799
 20
992.9057772366784
 30
0.0
 11
615.4133147069107
 21
992.9057772366784
 31
0.0
  0
LINE
  5
2909
330
2679
100
AcDbEntity
  8
AM_5
100
AcDbLine
 10
616.9133147069108
 20
926.9057772366783
 30
0.0
 11
616.9133147069108
 21
989.9057772366782
 31
0.0
  0
SOLID
  5
290A
330
2679
100
AcDbEntity
  8
AM_5
100
AcDbTrace
 10
616.4133147069108
 20
926.9057772366783
 30
0.0
 11
617.4133147069108
 21
926.9057772366783
 31
0.0
 12
616.9133147069108
 22
923.9057772366782
 32
0.0
 13
616.9133147069108
 23
923.9057772366782
 33
0.0
  0
SOLID
  5
290B
330
2679
100
AcDbEntity
  8
AM_5
100
AcDbTrace
 10
616.4133147069108
 20
989.9057772366782
 30
0.0
 11
617.4133147069108
 21
989.9057772366782
 31
0.0
 12
616.9133147069108
 22
992.9057772366784
 32
0.0
 13
616.9133147069108
 23
992.9057772366784
 33
0.0
  0
MTEXT
  5
290C
330
2679
100
AcDbEntity
  8
AM_5
100
AcDbMText
 10
614.1633147069106
 20
958.4057772366785
 30
0.0
 40
3.5
 41
0.0
 71
     5
 72
     1
  1
69
 11
0.0000000000000001
 21
1.0
 31
0.0
 73
     1
 44
1.0
1001
ACAD
1000
MTEXTBEGIN
1070
    73
1070
     1
1070
    44
1040
1.0
1070
    74
1070
     0
1000
MTEXTEND
  0
POINT
  5
290D
330
2679
100
AcDbEntity
  8
Defpoints
 62
     0
100
AcDbPoint
 10
640.5111241011693
 20
923.9057772366782
 30
0.0
  0
POINT
  5
290E
330
2679
100
AcDbEntity
  8
Defpoints
 62
     0
100
AcDbPoint
 10
646.24244595088
 20
992.9057772366784
 30
0.0
  0
POINT
  5
290F
330
2679
100
AcDbEntity
  8
Defpoints
 62
     0
100
AcDbPoint
 10
616.9133147069108
 20
992.9057772366784
 30
0.0
  0
ENDBLK
  5
2684
330
2679
100
AcDbEntity
  8
0
100
AcDbBlockEnd
  0
BLOCK
  5
268F
330
2685
100
AcDbEntity
  8
0
100
AcDbBlockBegin
  2
*D25
 70
     1
 10
0.0
 20
0.0
 30
0.0
  3
*D25
  1

  0
LINE
  5
2910
330
2685
100
AcDbEntity
  8
AM_5
100
AcDbLine
 10
639.0111241011693
 20
923.9057772366782
 30
0.0
 11
608.4133147069108
 21
923.9057772366782
 31
0.0
  0
LINE
  5
2911
330
2685
100
AcDbEntity
  8
AM_5
100
AcDbLine
 10
652.7133147069105
 20
1003.905777236678
 30
0.0
 11
608.4133147069108
 21
1003.905777236678
 31
0.0
  0
LINE
  5
2912
330
2685
100
AcDbEntity
  8
AM_5
100
AcDbLine
 10
609.9133147069108
 20
926.9057772366783
 30
0.0
 11
609.9133147069108
 21
1000.905777236678
 31
0.0
  0
SOLID
  5
2913
330
2685
100
AcDbEntity
  8
AM_5
100
AcDbTrace
 10
609.4133147069108
 20
926.9057772366783
 30
0.0
 11
610.4133147069108
 21
926.9057772366783
 31
0.0
 12
609.9133147069108
 22
923.9057772366782
 32
0.0
 13
609.9133147069108
 23
923.9057772366782
 33
0.0
  0
SOLID
  5
2914
330
2685
100
AcDbEntity
  8
AM_5
100
AcDbTrace
 10
609.4133147069108
 20
1000.905777236678
 30
0.0
 11
610.4133147069108
 21
1000.905777236678
 31
0.0
 12
609.9133147069108
 22
1003.905777236678
 32
0.0
 13
609.9133147069108
 23
1003.905777236678
 33
0.0
  0
MTEXT
  5
2915
330
2685
100
AcDbEntity
  8
AM_5
100
AcDbMText
 10
607.1633147069107
 20
963.9057772366784
 30
0.0
 40
3.5
 41
0.0
 71
     5
 72
     1
  1
80
 11
0.0000000000000001
 21
1.0
 31
0.0
 73
     1
 44
1.0
1001
ACAD
1000
MTEXTBEGIN
1070
    73
1070
     1
1070
    44
1040
1.0
1070
    74
1070
     0
1000
MTEXTEND
  0
POINT
  5
2916
330
2685
100
AcDbEntity
  8
Defpoints
 62
     0
100
AcDbPoint
 10
640.5111241011693
 20
923.9057772366782
 30
0.0
  0
POINT
  5
2917
330
2685
100
AcDbEntity
  8
Defpoints
 62
     0
100
AcDbPoint
 10
654.2133147069105
 20
1003.905777236678
 30
0.0
  0
POINT
  5
2918
330
2685
100
AcDbEntity
  8
Defpoints
 62
     0
100
AcDbPoint
 10
609.9133147069108
 20
1003.905777236678
 30
0.0
  0
ENDBLK
  5
2690
330
2685
100
AcDbEntity
  8
0
100
AcDbBlockEnd
  0
BLOCK
  5
269B
330
2691
100
AcDbEntity
  8
0
100
AcDbBlockBegin
  2
*D26
 70
     1
 10
0.0
 20
0.0
 30
0.0
  3
*D26
  1

  0
LINE
  5
2919
330
2691
100
AcDbEntity
  8
AM_5
100
AcDbLine
 10
704.8155053126522
 20
923.9057772366782
 30
0.0
 11
722.4133147069108
 21
923.9057772366782
 31
0.0
  0
LINE
  5
291A
330
2691
100
AcDbEntity
  8
AM_5
100
AcDbLine
 10
710.4133147069108
 20
959.9057772366784
 30
0.0
 11
722.4133147069108
 21
959.9057772366784
 31
0.0
  0
LINE
  5
291B
330
2691
100
AcDbEntity
  8
AM_5
100
AcDbLine
 10
720.9133147069108
 20
926.9057772366783
 30
0.0
 11
720.9133147069108
 21
956.9057772366782
 31
0.0
  0
SOLID
  5
291C
330
2691
100
AcDbEntity
  8
AM_5
100
AcDbTrace
 10
720.4133147069107
 20
926.9057772366783
 30
0.0
 11
721.4133147069108
 21
926.9057772366783
 31
0.0
 12
720.9133147069108
 22
923.9057772366782
 32
0.0
 13
720.9133147069108
 23
923.9057772366782
 33
0.0
  0
SOLID
  5
291D
330
2691
100
AcDbEntity
  8
AM_5
100
AcDbTrace
 10
720.4133147069107
 20
956.9057772366782
 30
0.0
 11
721.4133147069108
 21
956.9057772366782
 31
0.0
 12
720.9133147069108
 22
959.9057772366784
 32
0.0
 13
720.9133147069108
 23
959.9057772366784
 33
0.0
  0
MTEXT
  5
291E
330
2691
100
AcDbEntity
  8
AM_5
100
AcDbMText
 10
718.1633147069106
 20
941.9057772366784
 30
0.0
 40
3.5
 41
0.0
 71
     5
 72
     1
  1
36
 11
0.0000000000000001
 21
1.0
 31
0.0
 73
     1
 44
1.0
1001
ACAD
1000
MTEXTBEGIN
1070
    73
1070
     1
1070
    44
1040
1.0
1070
    74
1070
     0
1000
MTEXTEND
  0
POINT
  5
291F
330
2691
100
AcDbEntity
  8
Defpoints
 62
     0
100
AcDbPoint
 10
703.3155053126522
 20
923.9057772366782
 30
0.0
  0
POINT
  5
2920
330
2691
100
AcDbEntity
  8
Defpoints
 62
     0
100
AcDbPoint
 10
708.9133147069108
 20
959.9057772366784
 30
0.0
  0
POINT
  5
2921
330
2691
100
AcDbEntity
  8
Defpoints
 62
     0
100
AcDbPoint
 10
720.9133147069108
 20
959.9057772366784
 30
0.0
  0
ENDBLK
  5
269C
330
2691
100
AcDbEntity
  8
0
100
AcDbBlockEnd
  0
BLOCK
  5
26A7
330
269D
100
AcDbEntity
  8
0
100
AcDbBlockBegin
  2
*D27
 70
     1
 10
0.0
 20
0.0
 30
0.0
  3
*D27
  1

  0
LINE
  5
2922
330
269D
100
AcDbEntity
  8
AM_5
100
AcDbLine
 10
269.6701275497217
 20
993.9057772366783
 30
0.0
 11
269.6701275497217
 21
1006.405777236678
 31
0.0
  0
LINE
  5
2923
330
269D
100
AcDbEntity
  8
AM_5
100
AcDbLine
 10
299.6701275497216
 20
993.9057772366783
 30
0.0
 11
299.6701275497216
 21
1006.405777236678
 31
0.0
  0
LINE
  5
2924
330
269D
100
AcDbEntity
  8
AM_5
100
AcDbLine
 10
272.6701275497216
 20
1004.905777236678
 30
0.0
 11
296.6701275497216
 21
1004.905777236678
 31
0.0
  0
SOLID
  5
2925
330
269D
100
AcDbEntity
  8
AM_5
100
AcDbTrace
 10
272.6701275497216
 20
1005.405777236678
 30
0.0
 11
272.6701275497216
 21
1004.405777236678
 31
0.0
 12
269.6701275497217
 22
1004.905777236678
 32
0.0
 13
269.6701275497217
 23
1004.905777236678
 33
0.0
  0
SOLID
  5
2926
330
269D
100
AcDbEntity
  8
AM_5
100
AcDbTrace
 10
296.6701275497216
 20
1005.405777236678
 30
0.0
 11
296.6701275497216
 21
1004.405777236678
 31
0.0
 12
299.6701275497216
 22
1004.905777236678
 32
0.0
 13
299.6701275497216
 23
1004.905777236678
 33
0.0
  0
MTEXT
  5
2927
330
269D
100
AcDbEntity
  8
AM_5
100
AcDbMText
 10
284.6701275497217
 20
1007.655777236678
 30
0.0
 40
3.5
 41
0.0
 71
     5
 72
     1
  1
30
 73
     1
 44
1.0
1001
ACAD
1000
MTEXTBEGIN
1070
    73
1070
     1
1070
    44
1040
1.0
1070
    74
1070
     0
1000
MTEXTEND
  0
POINT
  5
2928
330
269D
100
AcDbEntity
  8
Defpoints
 62
     0
100
AcDbPoint
 10
269.6701275497217
 20
992.4057772366783
 30
0.0
  0
POINT
  5
2929
330
269D
100
AcDbEntity
  8
Defpoints
 62
     0
100
AcDbPoint
 10
299.6701275497216
 20
992.4057772366783
 30
0.0
  0
POINT
  5
292A
330
269D
100
AcDbEntity
  8
Defpoints
 62
     0
100
AcDbPoint
 10
299.6701275497216
 20
1004.905777236678
 30
0.0
  0
ENDBLK
  5
26A8
330
269D
100
AcDbEntity
  8
0
100
AcDbBlockEnd
  0
BLOCK
  5
26B3
330
26A9
100
AcDbEntity
  8
0
100
AcDbBlockBegin
  2
*D28
 70
     1
 10
0.0
 20
0.0
 30
0.0
  3
*D28
  1

  0
LINE
  5
292B
330
26A9
100
AcDbEntity
  8
AM_5
100
AcDbLine
 10
539.6701275497219
 20
1132.788792260594
 30
0.0
 11
539.6701275497219
 21
1152.288792260594
 31
0.0
  0
LINE
  5
292C
330
26A9
100
AcDbEntity
  8
AM_5
100
AcDbLine
 10
495.6701275497223
 20
1114.788792260594
 30
0.0
 11
495.6701275497223
 21
1152.288792260594
 31
0.0
  0
LINE
  5
292D
330
26A9
100
AcDbEntity
  8
AM_5
100
AcDbLine
 10
536.6701275497218
 20
1150.788792260594
 30
0.0
 11
498.6701275497223
 21
1150.788792260594
 31
0.0
  0
SOLID
  5
292E
330
26A9
100
AcDbEntity
  8
AM_5
100
AcDbTrace
 10
536.6701275497218
 20
1151.288792260594
 30
0.0
 11
536.6701275497218
 21
1150.288792260594
 31
0.0
 12
539.6701275497219
 22
1150.788792260594
 32
0.0
 13
539.6701275497219
 23
1150.788792260594
 33
0.0
  0
SOLID
  5
292F
330
26A9
100
AcDbEntity
  8
AM_5
100
AcDbTrace
 10
498.6701275497223
 20
1151.288792260594
 30
0.0
 11
498.6701275497223
 21
1150.288792260594
 31
0.0
 12
495.6701275497223
 22
1150.788792260594
 32
0.0
 13
495.6701275497223
 23
1150.788792260594
 33
0.0
  0
MTEXT
  5
2930
330
26A9
100
AcDbEntity
  8
AM_5
100
AcDbMText
 10
517.6701275497221
 20
1153.538792260595
 30
0.0
 40
3.5
 41
0.0
 71
     5
 72
     1
  1
44
 73
     1
 44
1.0
1001
ACAD
1000
MTEXTBEGIN
1070
    73
1070
     1
1070
    44
1040
1.0
1070
    74
1070
     0
1000
MTEXTEND
  0
POINT
  5
2931
330
26A9
100
AcDbEntity
  8
Defpoints
 62
     0
100
AcDbPoint
 10
539.6701275497219
 20
1131.288792260594
 30
0.0
  0
POINT
  5
2932
330
26A9
100
AcDbEntity
  8
Defpoints
 62
     0
100
AcDbPoint
 10
495.6701275497223
 20
1113.288792260594
 30
0.0
  0
POINT
  5
2933
330
26A9
100
AcDbEntity
  8
Defpoints
 62
     0
100
AcDbPoint
 10
495.6701275497223
 20
1150.788792260594
 30
0.0
  0
ENDBLK
  5
26B4
330
26A9
100
AcDbEntity
  8
0
100
AcDbBlockEnd
  0
BLOCK
  5
26BF
330
26B5
100
AcDbEntity
  8
0
100
AcDbBlockBegin
  2
*D29
 70
     1
 10
0.0
 20
0.0
 30
0.0
  3
*D29
  1

  0
LINE
  5
2934
330
26B5
100
AcDbEntity
  8
AM_5
100
AcDbLine
 10
301.1701275497217
 20
884.0137132233364
 30
0.0
 11
315.2798010877763
 21
884.0137132233364
 31
0.0
  0
LINE
  5
2935
330
26B5
100
AcDbEntity
  8
AM_5
100
AcDbLine
 10
301.1701275497217
 20
826.0137132233367
 30
0.0
 11
315.2798010877763
 21
826.0137132233367
 31
0.0
  0
LINE
  5
2936
330
26B5
100
AcDbEntity
  8
AM_5
100
AcDbLine
 10
313.7798010877763
 20
881.0137132233364
 30
0.0
 11
313.7798010877763
 21
829.0137132233367
 31
0.0
  0
SOLID
  5
2937
330
26B5
100
AcDbEntity
  8
AM_5
100
AcDbTrace
 10
313.2798010877763
 20
881.0137132233364
 30
0.0
 11
314.2798010877763
 21
881.0137132233364
 31
0.0
 12
313.7798010877763
 22
884.0137132233364
 32
0.0
 13
313.7798010877763
 23
884.0137132233364
 33
0.0
  0
SOLID
  5
2938
330
26B5
100
AcDbEntity
  8
AM_5
100
AcDbTrace
 10
313.2798010877763
 20
829.0137132233367
 30
0.0
 11
314.2798010877763
 21
829.0137132233367
 31
0.0
 12
313.7798010877763
 22
826.0137132233367
 32
0.0
 13
313.7798010877763
 23
826.0137132233367
 33
0.0
  0
MTEXT
  5
2939
330
26B5
100
AcDbEntity
  8
AM_5
100
AcDbMText
 10
311.0298010877762
 20
858.5593630675283
 30
0.0
 40
3.5
 41
0.0
 71
     5
 72
     1
  1
58
 11
0.0000000000000001
 21
1.0
 31
0.0
 73
     1
 44
1.0
1001
ACAD
1000
MTEXTBEGIN
1070
    73
1070
     1
1070
    44
1040
1.0
1070
    74
1070
     0
1000
MTEXTEND
  0
POINT
  5
293A
330
26B5
100
AcDbEntity
  8
Defpoints
 62
     0
100
AcDbPoint
 10
299.6701275497216
 20
884.0137132233364
 30
0.0
  0
POINT
  5
293B
330
26B5
100
AcDbEntity
  8
Defpoints
 62
     0
100
AcDbPoint
 10
299.6701275497216
 20
826.0137132233367
 30
0.0
  0
POINT
  5
293C
330
26B5
100
AcDbEntity
  8
Defpoints
 62
     0
100
AcDbPoint
 10
313.7798010877763
 20
826.0137132233367
 30
0.0
  0
ENDBLK
  5
26C0
330
26B5
100
AcDbEntity
  8
0
100
AcDbBlockEnd
  0
BLOCK
  5
26CB
330
26C1
100
AcDbEntity
  8
0
100
AcDbBlockBegin
  2
*D30
 70
     1
 10
0.0
 20
0.0
 30
0.0
  3
*D30
  1

  0
LINE
  5
293D
330
26C1
100
AcDbEntity
  8
AM_5
100
AcDbLine
 10
653.7133147069107
 20
1004.905777236678
 30
0.0
 11
653.7133147069107
 21
1013.405777236678
 31
0.0
  0
LINE
  5
293E
330
26C1
100
AcDbEntity
  8
AM_5
100
AcDbLine
 10
690.1133147069113
 20
1004.905777236678
 30
0.0
 11
690.1133147069113
 21
1013.405777236678
 31
0.0
  0
LINE
  5
293F
330
26C1
100
AcDbEntity
  8
AM_5
100
AcDbLine
 10
656.7133147069107
 20
1011.905777236678
 30
0.0
 11
687.1133147069112
 21
1011.905777236678
 31
0.0
  0
SOLID
  5
2940
330
26C1
100
AcDbEntity
  8
AM_5
100
AcDbTrace
 10
656.7133147069107
 20
1012.405777236678
 30
0.0
 11
656.7133147069107
 21
1011.405777236678
 31
0.0
 12
653.7133147069107
 22
1011.905777236678
 32
0.0
 13
653.7133147069107
 23
1011.905777236678
 33
0.0
  0
SOLID
  5
2941
330
26C1
100
AcDbEntity
  8
AM_5
100
AcDbTrace
 10
687.1133147069112
 20
1012.405777236678
 30
0.0
 11
687.1133147069112
 21
1011.405777236678
 31
0.0
 12
690.1133147069113
 22
1011.905777236678
 32
0.0
 13
690.1133147069113
 23
1011.905777236678
 33
0.0
  0
MTEXT
  5
2942
330
26C1
100
AcDbEntity
  8
AM_5
100
AcDbMText
 10
671.913314706911
 20
1014.655777236678
 30
0.0
 40
3.5
 41
0.0
 71
     5
 72
     1
  1
36.4
 73
     1
 44
1.0
1001
ACAD
1000
MTEXTBEGIN
1070
    73
1070
     1
1070
    44
1040
1.0
1070
    74
1070
     0
1000
MTEXTEND
  0
POINT
  5
2943
330
26C1
100
AcDbEntity
  8
Defpoints
 62
     0
100
AcDbPoint
 10
653.7133147069107
 20
1003.405777236678
 30
0.0
  0
POINT
  5
2944
330
26C1
100
AcDbEntity
  8
Defpoints
 62
     0
100
AcDbPoint
 10
690.1133147069113
 20
1003.405777236678
 30
0.0
  0
POINT
  5
2945
330
26C1
100
AcDbEntity
  8
Defpoints
 62
     0
100
AcDbPoint
 10
690.1133147069113
 20
1011.905777236678
 30
0.0
  0
ENDBLK
  5
26CC
330
26C1
100
AcDbEntity
  8
0
100
AcDbBlockEnd
  0
ENDSEC
  0
SECTION
  2
ENTITIES
  0
LINE
  5
180E
330
1F
100
AcDbEntity
  8
AM_7
100
AcDbLine
 10
876.4459334277949
 20
1116.903016908885
 30
0.0
 11
876.4459334277949
 21
1116.903016908885
 31
0.0
  0
LINE
  5
180F
330
1F
100
AcDbEntity
  8
AM_7
100
AcDbLine
 10
876.4459334277949
 20
1116.903016908885
 30
0.0
 11
876.4459334277949
 21
1116.903016908885
 31
0.0
  0
LINE
  5
1810
330
1F
100
AcDbEntity
  8
AM_7
100
AcDbLine
 10
868.9459334277948
 20
1116.903016908885
 30
0.0
 11
876.4459334277949
 21
1116.903016908885
 31
0.0
  0
LINE
  5
1811
330
1F
100
AcDbEntity
  8
AM_7
100
AcDbLine
 10
876.4459334277949
 20
1116.903016908885
 30
0.0
 11
883.9459334277949
 21
1116.903016908885
 31
0.0
  0
LINE
  5
1812
330
1F
100
AcDbEntity
  8
AM_7
100
AcDbLine
 10
876.4459334277949
 20
1109.403016908885
 30
0.0
 11
876.4459334277949
 21
1116.903016908885
 31
0.0
  0
LINE
  5
1813
330
1F
100
AcDbEntity
  8
AM_7
100
AcDbLine
 10
876.4459334277949
 20
1116.903016908885
 30
0.0
 11
876.4459334277949
 21
1124.403016908885
 31
0.0
  0
LINE
  5
1814
330
1F
100
AcDbEntity
  8
AM_7
100
AcDbLine
 10
876.4459334277949
 20
1146.903016908885
 30
0.0
 11
876.4459334277949
 21
1146.903016908885
 31
0.0
  0
LINE
  5
1815
330
1F
100
AcDbEntity
  8
AM_7
100
AcDbLine
 10
876.4459334277949
 20
1146.903016908885
 30
0.0
 11
876.4459334277949
 21
1146.903016908885
 31
0.0
  0
LINE
  5
1816
330
1F
100
AcDbEntity
  8
AM_7
100
AcDbLine
 10
868.9459334277948
 20
1146.903016908885
 30
0.0
 11
876.4459334277949
 21
1146.903016908885
 31
0.0
  0
LINE
  5
1817
330
1F
100
AcDbEntity
  8
AM_7
100
AcDbLine
 10
876.4459334277949
 20
1146.903016908885
 30
0.0
 11
883.9459334277949
 21
1146.903016908885
 31
0.0
  0
LINE
  5
1818
330
1F
100
AcDbEntity
  8
AM_7
100
AcDbLine
 10
876.4459334277949
 20
1139.403016908885
 30
0.0
 11
876.4459334277949
 21
1146.903016908885
 31
0.0
  0
LINE
  5
1819
330
1F
100
AcDbEntity
  8
AM_7
100
AcDbLine
 10
876.4459334277949
 20
1146.903016908885
 30
0.0
 11
876.4459334277949
 21
1154.403016908885
 31
0.0
  0
LINE
  5
181A
330
1F
100
AcDbEntity
  8
AM_7
100
AcDbLine
 10
922.2534949500108
 20
1064.879586688924
 30
0.0
 11
922.2534949500108
 21
1064.879586688924
 31
0.0
  0
LINE
  5
181B
330
1F
100
AcDbEntity
  8
AM_7
100
AcDbLine
 10
922.2534949500108
 20
1064.879586688924
 30
0.0
 11
922.2534949500108
 21
1064.879586688924
 31
0.0
  0
LINE
  5
181C
330
1F
100
AcDbEntity
  8
AM_7
100
AcDbLine
 10
916.0034949500108
 20
1064.879586688924
 30
0.0
 11
922.2534949500108
 21
1064.879586688924
 31
0.0
  0
LINE
  5
181D
330
1F
100
AcDbEntity
  8
AM_7
100
AcDbLine
 10
922.2534949500108
 20
1064.879586688924
 30
0.0
 11
928.5034949500108
 21
1064.879586688924
 31
0.0
  0
LINE
  5
181E
330
1F
100
AcDbEntity
  8
AM_7
100
AcDbLine
 10
922.2534949500108
 20
1058.629586688924
 30
0.0
 11
922.2534949500108
 21
1064.879586688924
 31
0.0
  0
LINE
  5
181F
330
1F
100
AcDbEntity
  8
AM_7
100
AcDbLine
 10
922.2534949500108
 20
1064.879586688924
 30
0.0
 11
922.2534949500108
 21
1071.129586688924
 31
0.0
  0
LINE
  5
1820
330
1F
100
AcDbEntity
  8
AM_7
100
AcDbLine
 10
976.2534949500107
 20
1064.879586688924
 30
0.0
 11
976.2534949500107
 21
1064.879586688924
 31
0.0
  0
LINE
  5
1821
330
1F
100
AcDbEntity
  8
AM_7
100
AcDbLine
 10
976.2534949500107
 20
1064.879586688924
 30
0.0
 11
976.2534949500107
 21
1064.879586688924
 31
0.0
  0
LINE
  5
1822
330
1F
100
AcDbEntity
  8
AM_7
100
AcDbLine
 10
970.0034949500107
 20
1064.879586688924
 30
0.0
 11
976.2534949500107
 21
1064.879586688924
 31
0.0
  0
LINE
  5
1823
330
1F
100
AcDbEntity
  8
AM_7
100
AcDbLine
 10
976.2534949500107
 20
1064.879586688924
 30
0.0
 11
982.5034949500107
 21
1064.879586688924
 31
0.0
  0
LINE
  5
1824
330
1F
100
AcDbEntity
  8
AM_7
100
AcDbLine
 10
976.2534949500107
 20
1058.629586688924
 30
0.0
 11
976.2534949500107
 21
1064.879586688924
 31
0.0
  0
LINE
  5
1825
330
1F
100
AcDbEntity
  8
AM_7
100
AcDbLine
 10
976.2534949500107
 20
1064.879586688924
 30
0.0
 11
976.2534949500107
 21
1071.129586688924
 31
0.0
  0
LINE
  5
1826
330
1F
100
AcDbEntity
  8
AM_VIS
100
AcDbLine
 10
887.9459334277949
 20
1053.879586688924
 30
0.0
 11
863.9459334277949
 21
1053.879586688924
 31
0.0
  0
LINE
  5
1827
330
1F
100
AcDbEntity
  8
AM_VIS
100
AcDbLine
 10
887.9459334277949
 20
1073.879586688924
 30
0.0
 11
863.9459334277949
 21
1073.879586688924
 31
0.0
  0
LINE
  5
1828
330
1F
100
AcDbEntity
  8
AM_VIS
100
AcDbLine
 10
887.9459334277949
 20
1053.879586688924
 30
0.0
 11
887.9459334277949
 21
1073.879586688924
 31
0.0
  0
LINE
  5
1829
330
1F
100
AcDbEntity
  8
AM_VIS
100
AcDbLine
 10
863.9459334277949
 20
1053.879586688924
 30
0.0
 11
863.9459334277949
 21
1073.879586688924
 31
0.0
  0
LINE
  5
182A
330
1F
100
AcDbEntity
  8
AM_VIS
100
AcDbLine
 10
887.9459334277949
 20
1096.403016908885
 30
0.0
 11
863.9459334277949
 21
1096.403016908885
 31
0.0
  0
LINE
  5
182B
330
1F
100
AcDbEntity
  8
AM_VIS
100
AcDbLine
 10
887.9459334277949
 20
1167.403016908885
 30
0.0
 11
887.9459334277949
 21
1096.403016908885
 31
0.0
  0
LINE
  5
182C
330
1F
100
AcDbEntity
  8
AM_VIS
100
AcDbLine
 10
863.9459334277949
 20
1167.403016908885
 30
0.0
 11
887.9459334277949
 21
1167.403016908885
 31
0.0
  0
LINE
  5
182D
330
1F
100
AcDbEntity
  8
AM_VIS
100
AcDbLine
 10
863.9459334277949
 20
1096.403016908885
 30
0.0
 11
863.9459334277949
 21
1167.403016908885
 31
0.0
  0
CIRCLE
  5
182E
330
1F
100
AcDbEntity
  8
AM_VIS
100
AcDbCircle
 10
876.4459334277949
 20
1116.903016908885
 30
0.0
 40
4.5
  0
CIRCLE
  5
182F
330
1F
100
AcDbEntity
  8
AM_VIS
100
AcDbCircle
 10
876.4459334277949
 20
1146.903016908885
 30
0.0
 40
4.5
  0
LINE
  5
1830
330
1F
100
AcDbEntity
  8
AM_VIS
100
AcDbLine
 10
984.7534949500108
 20
1053.879586688924
 30
0.0
 11
913.7534949500107
 21
1053.879586688924
 31
0.0
  0
LINE
  5
1831
330
1F
100
AcDbEntity
  8
AM_VIS
100
AcDbLine
 10
913.7534949500107
 20
1053.879586688924
 30
0.0
 11
913.7534949500107
 21
1073.879586688924
 31
0.0
  0
LINE
  5
1832
330
1F
100
AcDbEntity
  8
AM_VIS
100
AcDbLine
 10
984.7534949500108
 20
1073.879586688924
 30
0.0
 11
913.7534949500107
 21
1073.879586688924
 31
0.0
  0
LINE
  5
1833
330
1F
100
AcDbEntity
  8
AM_VIS
100
AcDbLine
 10
984.7534949500108
 20
1053.879586688924
 30
0.0
 11
984.7534949500108
 21
1073.879586688924
 31
0.0
  0
LINE
  5
1A89
330
1F
100
AcDbEntity
  8
AM_7
100
AcDbLine
 10
902.5323103134772
 20
872.1902810769881
 30
0.0
 11
902.5323103134772
 21
872.1902810769881
 31
0.0
  0
LINE
  5
1A8A
330
1F
100
AcDbEntity
  8
AM_7
100
AcDbLine
 10
902.5323103134772
 20
872.1902810769881
 30
0.0
 11
902.5323103134772
 21
872.1902810769881
 31
0.0
  0
LINE
  5
1A8B
330
1F
100
AcDbEntity
  8
AM_7
100
AcDbLine
 10
896.2323103134773
 20
872.1902810769881
 30
0.0
 11
902.5323103134772
 21
872.1902810769881
 31
0.0
  0
LINE
  5
1A8C
330
1F
100
AcDbEntity
  8
AM_7
100
AcDbLine
 10
902.5323103134772
 20
872.1902810769881
 30
0.0
 11
908.832310313477
 21
872.1902810769881
 31
0.0
  0
LINE
  5
1A8D
330
1F
100
AcDbEntity
  8
AM_7
100
AcDbLine
 10
902.5323103134772
 20
865.890281076988
 30
0.0
 11
902.5323103134772
 21
872.1902810769881
 31
0.0
  0
LINE
  5
1A8E
330
1F
100
AcDbEntity
  8
AM_7
100
AcDbLine
 10
902.5323103134772
 20
872.1902810769881
 30
0.0
 11
902.5323103134772
 21
878.4902810769882
 31
0.0
  0
LINE
  5
1A8F
330
1F
100
AcDbEntity
  8
AM_7
100
AcDbLine
 10
902.5323103134772
 20
802.190281076988
 30
0.0
 11
902.5323103134772
 21
802.190281076988
 31
0.0
  0
LINE
  5
1A90
330
1F
100
AcDbEntity
  8
AM_7
100
AcDbLine
 10
902.5323103134772
 20
802.190281076988
 30
0.0
 11
902.5323103134772
 21
802.190281076988
 31
0.0
  0
LINE
  5
1A91
330
1F
100
AcDbEntity
  8
AM_7
100
AcDbLine
 10
896.2323103134773
 20
802.190281076988
 30
0.0
 11
902.5323103134772
 21
802.190281076988
 31
0.0
  0
LINE
  5
1A92
330
1F
100
AcDbEntity
  8
AM_7
100
AcDbLine
 10
902.5323103134772
 20
802.190281076988
 30
0.0
 11
908.832310313477
 21
802.190281076988
 31
0.0
  0
LINE
  5
1A93
330
1F
100
AcDbEntity
  8
AM_7
100
AcDbLine
 10
902.5323103134772
 20
795.8902810769881
 30
0.0
 11
902.5323103134772
 21
802.190281076988
 31
0.0
  0
LINE
  5
1A94
330
1F
100
AcDbEntity
  8
AM_7
100
AcDbLine
 10
902.5323103134772
 20
802.190281076988
 30
0.0
 11
902.5323103134772
 21
808.4902810769881
 31
0.0
  0
LINE
  5
1A95
330
1F
100
AcDbEntity
  8
AM_7
100
AcDbLine
 10
857.5323103134772
 20
872.1902810769881
 30
0.0
 11
857.5323103134772
 21
872.1902810769881
 31
0.0
  0
LINE
  5
1A96
330
1F
100
AcDbEntity
  8
AM_7
100
AcDbLine
 10
857.5323103134772
 20
872.1902810769881
 30
0.0
 11
857.5323103134772
 21
872.1902810769881
 31
0.0
  0
LINE
  5
1A97
330
1F
100
AcDbEntity
  8
AM_7
100
AcDbLine
 10
851.2323103134772
 20
872.1902810769881
 30
0.0
 11
857.5323103134772
 21
872.1902810769881
 31
0.0
  0
LINE
  5
1A98
330
1F
100
AcDbEntity
  8
AM_7
100
AcDbLine
 10
857.5323103134772
 20
872.1902810769881
 30
0.0
 11
863.8323103134771
 21
872.1902810769881
 31
0.0
  0
LINE
  5
1A99
330
1F
100
AcDbEntity
  8
AM_7
100
AcDbLine
 10
857.5323103134772
 20
865.890281076988
 30
0.0
 11
857.5323103134772
 21
872.1902810769881
 31
0.0
  0
LINE
  5
1A9A
330
1F
100
AcDbEntity
  8
AM_7
100
AcDbLine
 10
857.5323103134772
 20
872.1902810769881
 30
0.0
 11
857.5323103134772
 21
878.4902810769882
 31
0.0
  0
LINE
  5
1A9B
330
1F
100
AcDbEntity
  8
AM_7
100
AcDbLine
 10
857.5323103134772
 20
802.190281076988
 30
0.0
 11
857.5323103134772
 21
802.190281076988
 31
0.0
  0
LINE
  5
1A9C
330
1F
100
AcDbEntity
  8
AM_7
100
AcDbLine
 10
857.5323103134772
 20
802.190281076988
 30
0.0
 11
857.5323103134772
 21
802.190281076988
 31
0.0
  0
LINE
  5
1A9D
330
1F
100
AcDbEntity
  8
AM_7
100
AcDbLine
 10
851.2323103134772
 20
802.190281076988
 30
0.0
 11
857.5323103134772
 21
802.190281076988
 31
0.0
  0
LINE
  5
1A9E
330
1F
100
AcDbEntity
  8
AM_7
100
AcDbLine
 10
857.5323103134772
 20
802.190281076988
 30
0.0
 11
863.8323103134771
 21
802.190281076988
 31
0.0
  0
LINE
  5
1A9F
330
1F
100
AcDbEntity
  8
AM_7
100
AcDbLine
 10
857.5323103134772
 20
795.8902810769881
 30
0.0
 11
857.5323103134772
 21
802.190281076988
 31
0.0
  0
LINE
  5
1AA0
330
1F
100
AcDbEntity
  8
AM_7
100
AcDbLine
 10
857.5323103134772
 20
802.190281076988
 30
0.0
 11
857.5323103134772
 21
808.4902810769881
 31
0.0
  0
LINE
  5
1AA1
330
1F
100
AcDbEntity
  8
AM_7
100
AcDbLine
 10
860.5323103134772
 20
817.190281076988
 30
0.0
 11
860.5323103134772
 21
817.190281076988
 31
0.0
  0
LINE
  5
1AA2
330
1F
100
AcDbEntity
  8
AM_7
100
AcDbLine
 10
860.5323103134772
 20
817.190281076988
 30
0.0
 11
860.5323103134772
 21
817.190281076988
 31
0.0
  0
LINE
  5
1AA3
330
1F
100
AcDbEntity
  8
AM_7
100
AcDbLine
 10
854.2823103134772
 20
817.190281076988
 30
0.0
 11
860.5323103134772
 21
817.190281076988
 31
0.0
  0
LINE
  5
1AA4
330
1F
100
AcDbEntity
  8
AM_7
100
AcDbLine
 10
860.5323103134772
 20
817.190281076988
 30
0.0
 11
866.7823103134772
 21
817.190281076988
 31
0.0
  0
LINE
  5
1AA5
330
1F
100
AcDbEntity
  8
AM_7
100
AcDbLine
 10
860.5323103134772
 20
810.940281076988
 30
0.0
 11
860.5323103134772
 21
817.190281076988
 31
0.0
  0
LINE
  5
1AA6
330
1F
100
AcDbEntity
  8
AM_7
100
AcDbLine
 10
860.5323103134772
 20
817.190281076988
 30
0.0
 11
860.5323103134772
 21
823.440281076988
 31
0.0
  0
LINE
  5
1AA7
330
1F
100
AcDbEntity
  8
AM_7
100
AcDbLine
 10
860.5323103134772
 20
857.1902810769881
 30
0.0
 11
860.5323103134772
 21
857.1902810769881
 31
0.0
  0
LINE
  5
1AA8
330
1F
100
AcDbEntity
  8
AM_7
100
AcDbLine
 10
860.5323103134772
 20
857.1902810769881
 30
0.0
 11
860.5323103134772
 21
857.1902810769881
 31
0.0
  0
LINE
  5
1AA9
330
1F
100
AcDbEntity
  8
AM_7
100
AcDbLine
 10
854.2823103134772
 20
857.1902810769881
 30
0.0
 11
860.5323103134772
 21
857.1902810769881
 31
0.0
  0
LINE
  5
1AAA
330
1F
100
AcDbEntity
  8
AM_7
100
AcDbLine
 10
860.5323103134772
 20
857.1902810769881
 30
0.0
 11
866.7823103134772
 21
857.1902810769881
 31
0.0
  0
LINE
  5
1AAB
330
1F
100
AcDbEntity
  8
AM_7
100
AcDbLine
 10
860.5323103134772
 20
850.9402810769881
 30
0.0
 11
860.5323103134772
 21
857.1902810769881
 31
0.0
  0
LINE
  5
1AAC
330
1F
100
AcDbEntity
  8
AM_7
100
AcDbLine
 10
860.5323103134772
 20
857.1902810769881
 30
0.0
 11
860.5323103134772
 21
863.4402810769881
 31
0.0
  0
LINE
  5
1AAD
330
1F
100
AcDbEntity
  8
AM_7
100
AcDbLine
 10
899.5323103134772
 20
817.190281076988
 30
0.0
 11
899.5323103134772
 21
817.190281076988
 31
0.0
  0
LINE
  5
1AAE
330
1F
100
AcDbEntity
  8
AM_7
100
AcDbLine
 10
899.5323103134772
 20
817.190281076988
 30
0.0
 11
899.5323103134772
 21
817.190281076988
 31
0.0
  0
LINE
  5
1AAF
330
1F
100
AcDbEntity
  8
AM_7
100
AcDbLine
 10
893.2823103134772
 20
817.190281076988
 30
0.0
 11
899.5323103134772
 21
817.190281076988
 31
0.0
  0
LINE
  5
1AB0
330
1F
100
AcDbEntity
  8
AM_7
100
AcDbLine
 10
899.5323103134772
 20
817.190281076988
 30
0.0
 11
905.7823103134772
 21
817.190281076988
 31
0.0
  0
LINE
  5
1AB1
330
1F
100
AcDbEntity
  8
AM_7
100
AcDbLine
 10
899.5323103134772
 20
810.940281076988
 30
0.0
 11
899.5323103134772
 21
817.190281076988
 31
0.0
  0
LINE
  5
1AB2
330
1F
100
AcDbEntity
  8
AM_7
100
AcDbLine
 10
899.5323103134772
 20
817.190281076988
 30
0.0
 11
899.5323103134772
 21
823.440281076988
 31
0.0
  0
LINE
  5
1AB3
330
1F
100
AcDbEntity
  8
AM_7
100
AcDbLine
 10
899.5323103134772
 20
857.1902810769881
 30
0.0
 11
899.5323103134772
 21
857.1902810769881
 31
0.0
  0
LINE
  5
1AB4
330
1F
100
AcDbEntity
  8
AM_7
100
AcDbLine
 10
899.5323103134772
 20
857.1902810769881
 30
0.0
 11
899.5323103134772
 21
857.1902810769881
 31
0.0
  0
LINE
  5
1AB5
330
1F
100
AcDbEntity
  8
AM_7
100
AcDbLine
 10
893.2823103134772
 20
857.1902810769881
 30
0.0
 11
899.5323103134772
 21
857.1902810769881
 31
0.0
  0
LINE
  5
1AB6
330
1F
100
AcDbEntity
  8
AM_7
100
AcDbLine
 10
899.5323103134772
 20
857.1902810769881
 30
0.0
 11
905.7823103134772
 21
857.1902810769881
 31
0.0
  0
LINE
  5
1AB7
330
1F
100
AcDbEntity
  8
AM_7
100
AcDbLine
 10
899.5323103134772
 20
850.9402810769881
 30
0.0
 11
899.5323103134772
 21
857.1902810769881
 31
0.0
  0
LINE
  5
1AB8
330
1F
100
AcDbEntity
  8
AM_7
100
AcDbLine
 10
899.5323103134772
 20
857.1902810769881
 30
0.0
 11
899.5323103134772
 21
863.4402810769881
 31
0.0
  0
LINE
  5
1AB9
330
1F
100
AcDbEntity
  8
AM_7
100
AcDbLine
 10
1015.153340435338
 20
778.6720502262144
 30
0.0
 11
1015.153340435338
 21
762.6720502262144
 31
0.0
  0
LINE
  5
1ABA
330
1F
100
AcDbEntity
  8
AM_7
100
AcDbLine
 10
945.1533404353385
 20
778.6720502262144
 30
0.0
 11
945.1533404353385
 21
762.6720502262144
 31
0.0
  0
LINE
  5
1ABB
330
1F
100
AcDbEntity
  8
AM_7
100
AcDbLine
 10
960.1533404353386
 20
762.6720502262144
 30
0.0
 11
960.1533404353386
 21
775.8720502262145
 31
0.0
  0
LINE
  5
1ABC
330
1F
100
AcDbEntity
  8
AM_7
100
AcDbLine
 10
1000.153340435338
 20
762.6720502262144
 30
0.0
 11
1000.153340435338
 21
775.8720502262145
 31
0.0
  0
LINE
  5
1ABD
330
1F
100
AcDbEntity
  8
AM_VIS
100
AcDbLine
 10
910.0323103134771
 20
765.6720502262144
 30
0.0
 11
910.0323103134771
 21
775.6720502262144
 31
0.0
  0
LINE
  5
1ABE
330
1F
100
AcDbEntity
  8
AM_VIS
100
AcDbLine
 10
850.0323103134771
 20
775.6720502262144
 30
0.0
 11
910.0323103134771
 21
775.6720502262144
 31
0.0
  0
LINE
  5
1ABF
330
1F
100
AcDbEntity
  8
AM_VIS
100
AcDbLine
 10
850.0323103134771
 20
765.6720502262144
 30
0.0
 11
910.0323103134771
 21
765.6720502262144
 31
0.0
  0
LINE
  5
1AC0
330
1F
100
AcDbEntity
  8
AM_VIS
100
AcDbLine
 10
850.0323103134771
 20
765.6720502262144
 30
0.0
 11
850.0323103134771
 21
775.6720502262144
 31
0.0
  0
LINE
  5
1AC1
330
1F
100
AcDbEntity
  8
AM_VIS
100
AcDbLine
 10
850.0323103134771
 20
866.440281076988
 30
0.0
 11
850.0323103134771
 21
879.6902810769879
 31
0.0
  0
LINE
  5
1AC2
330
1F
100
AcDbEntity
  8
AM_VIS
100
AcDbLine
 10
850.0323103134771
 20
879.6902810769879
 30
0.0
 11
910.0323103134771
 21
879.6902810769879
 31
0.0
  0
LINE
  5
1AC3
330
1F
100
AcDbEntity
  8
AM_VIS
100
AcDbLine
 10
850.0323103134771
 20
794.6902810769881
 30
0.0
 11
910.0323103134771
 21
794.6902810769881
 31
0.0
  0
LINE
  5
1AC4
330
1F
100
AcDbEntity
  8
AM_VIS
100
AcDbLine
 10
850.0323103134771
 20
794.6902810769881
 30
0.0
 11
850.0323103134771
 21
807.9402810769881
 31
0.0
  0
LINE
  5
1AC5
330
1F
100
AcDbEntity
  8
AM_VIS
100
AcDbLine
 10
910.0323103134771
 20
866.440281076988
 30
0.0
 11
910.0323103134771
 21
879.6902810769879
 31
0.0
  0
LINE
  5
1AC6
330
1F
100
AcDbEntity
  8
AM_VIS
100
AcDbLine
 10
910.0323103134771
 20
794.6902810769881
 30
0.0
 11
910.0323103134771
 21
807.9402810769881
 31
0.0
  0
LINE
  5
1AC7
330
1F
100
AcDbEntity
  8
AM_VIS
100
AcDbLine
 10
910.0323103134771
 20
807.9402810769881
 30
0.0
 11
850.0323103134771
 21
807.9402810769881
 31
0.0
  0
LINE
  5
1AC8
330
1F
100
AcDbEntity
  8
AM_VIS
100
AcDbLine
 10
910.0323103134771
 20
866.440281076988
 30
0.0
 11
910.0323103134771
 21
807.9402810769881
 31
0.0
  0
LINE
  5
1AC9
330
1F
100
AcDbEntity
  8
AM_VIS
100
AcDbLine
 10
850.0323103134771
 20
807.9402810769881
 30
0.0
 11
850.0323103134771
 21
866.440281076988
 31
0.0
  0
LINE
  5
1ACA
330
1F
100
AcDbEntity
  8
AM_VIS
100
AcDbLine
 10
850.0323103134771
 20
866.440281076988
 30
0.0
 11
910.0323103134771
 21
866.440281076988
 31
0.0
  0
CIRCLE
  5
1ACB
330
1F
100
AcDbEntity
  8
AM_VIS
100
AcDbCircle
 10
902.5323103134772
 20
872.1902810769881
 30
0.0
 40
3.299999999999999
  0
CIRCLE
  5
1ACC
330
1F
100
AcDbEntity
  8
AM_VIS
100
AcDbCircle
 10
902.5323103134772
 20
802.190281076988
 30
0.0
 40
3.299999999999999
  0
CIRCLE
  5
1ACD
330
1F
100
AcDbEntity
  8
AM_VIS
100
AcDbCircle
 10
857.5323103134772
 20
872.1902810769881
 30
0.0
 40
3.299999999999999
  0
CIRCLE
  5
1ACE
330
1F
100
AcDbEntity
  8
AM_VIS
100
AcDbCircle
 10
857.5323103134772
 20
802.190281076988
 30
0.0
 40
3.299999999999999
  0
CIRCLE
  5
1ACF
330
1F
100
AcDbEntity
  8
AM_VIS
100
AcDbCircle
 10
860.5323103134772
 20
817.190281076988
 30
0.0
 40
3.25
  0
CIRCLE
  5
1AD0
330
1F
100
AcDbEntity
  8
AM_VIS
100
AcDbCircle
 10
860.5323103134772
 20
857.1902810769881
 30
0.0
 40
3.25
  0
CIRCLE
  5
1AD1
330
1F
100
AcDbEntity
  8
AM_VIS
100
AcDbCircle
 10
899.5323103134772
 20
817.190281076988
 30
0.0
 40
3.25
  0
CIRCLE
  5
1AD2
330
1F
100
AcDbEntity
  8
AM_VIS
100
AcDbCircle
 10
899.5323103134772
 20
857.1902810769881
 30
0.0
 40
3.25
  0
LINE
  5
1AD3
330
1F
100
AcDbEntity
  8
AM_VIS
100
AcDbLine
 10
1009.403340435338
 20
775.6720502262144
 30
0.0
 11
1022.653340435338
 21
775.6720502262144
 31
0.0
  0
LINE
  5
1AD4
330
1F
100
AcDbEntity
  8
AM_VIS
100
AcDbLine
 10
1022.653340435338
 20
775.6720502262144
 30
0.0
 11
1022.653340435338
 21
765.6720502262144
 31
0.0
  0
LINE
  5
1AD5
330
1F
100
AcDbEntity
  8
AM_VIS
100
AcDbLine
 10
1022.653340435338
 20
765.6720502262144
 30
0.0
 11
937.6533404353386
 21
765.6720502262144
 31
0.0
  0
LINE
  5
1AD6
330
1F
100
AcDbEntity
  8
AM_VIS
100
AcDbLine
 10
937.6533404353386
 20
765.6720502262144
 30
0.0
 11
937.6533404353386
 21
775.6720502262144
 31
0.0
  0
LINE
  5
1AD7
330
1F
100
AcDbEntity
  8
AM_VIS
100
AcDbLine
 10
937.6533404353386
 20
775.6720502262144
 30
0.0
 11
950.9033404353386
 21
775.6720502262144
 31
0.0
  0
LINE
  5
1AD8
330
1F
100
AcDbEntity
  8
AM_VIS
100
AcDbLine
 10
950.9033404353386
 20
772.8720502262144
 30
0.0
 11
950.9033404353386
 21
775.6720502262144
 31
0.0
  0
LINE
  5
1AD9
330
1F
100
AcDbEntity
  8
AM_VIS
100
AcDbLine
 10
1009.403340435338
 20
772.8720502262144
 30
0.0
 11
950.9033404353386
 21
772.8720502262144
 31
0.0
  0
LINE
  5
1ADA
330
1F
100
AcDbEntity
  8
AM_VIS
100
AcDbLine
 10
1009.403340435338
 20
775.6720502262144
 30
0.0
 11
1009.403340435338
 21
772.8720502262144
 31
0.0
  0
LINE
  5
1ADB
330
1F
100
AcDbEntity
  8
AM_HID
100
AcDbLine
 10
1011.853340435338
 20
775.6720502262144
 30
0.0
 11
1011.853340435338
 21
765.6720502262144
 31
0.0
  0
LINE
  5
1ADC
330
1F
100
AcDbEntity
  8
AM_HID
100
AcDbLine
 10
1018.453340435338
 20
775.6720502262144
 30
0.0
 11
1018.453340435338
 21
765.6720502262144
 31
0.0
  0
LINE
  5
1ADD
330
1F
100
AcDbEntity
  8
AM_HID
100
AcDbLine
 10
941.8533404353386
 20
775.6720502262144
 30
0.0
 11
941.8533404353386
 21
765.6720502262144
 31
0.0
  0
LINE
  5
1ADE
330
1F
100
AcDbEntity
  8
AM_HID
100
AcDbLine
 10
948.4533404353385
 20
775.6720502262144
 30
0.0
 11
948.4533404353385
 21
765.6720502262144
 31
0.0
  0
LINE
  5
1ADF
330
1F
100
AcDbEntity
  8
AM_HID
100
AcDbLine
 10
965.9033404353385
 20
765.6720502262144
 30
0.0
 11
965.9033404353385
 21
766.6720502262144
 31
0.0
  0
LINE
  5
1AE0
330
1F
100
AcDbEntity
  8
AM_HID
100
AcDbLine
 10
954.4033404353385
 20
765.6720502262144
 30
0.0
 11
954.4033404353385
 21
766.6720502262144
 31
0.0
  0
LINE
  5
1AE1
330
1F
100
AcDbEntity
  8
AM_HID
100
AcDbLine
 10
963.4033404353386
 20
769.1720502262143
 30
0.0
 11
963.4033404353386
 21
772.8720502262144
 31
0.0
  0
LINE
  5
1AE2
330
1F
100
AcDbEntity
  8
AM_HID
100
AcDbLine
 10
956.9033404353385
 20
769.1720502262143
 30
0.0
 11
956.9033404353385
 21
772.8720502262144
 31
0.0
  0
LINE
  5
1AE3
330
1F
100
AcDbEntity
  8
AM_HID
100
AcDbLine
 10
956.9033404353385
 20
769.1720502262143
 30
0.0
 11
954.4033404353385
 21
766.6720502262144
 31
0.0
  0
LINE
  5
1AE4
330
1F
100
AcDbEntity
  8
AM_HID
100
AcDbLine
 10
963.4033404353386
 20
769.1720502262143
 30
0.0
 11
965.9033404353385
 21
766.6720502262144
 31
0.0
  0
LINE
  5
1AE5
330
1F
100
AcDbEntity
  8
AM_HID
100
AcDbLine
 10
1005.903340435338
 20
765.6720502262144
 30
0.0
 11
1005.903340435338
 21
766.6720502262144
 31
0.0
  0
LINE
  5
1AE6
330
1F
100
AcDbEntity
  8
AM_HID
100
AcDbLine
 10
994.4033404353385
 20
765.6720502262144
 30
0.0
 11
994.4033404353385
 21
766.6720502262144
 31
0.0
  0
LINE
  5
1AE7
330
1F
100
AcDbEntity
  8
AM_HID
100
AcDbLine
 10
1003.403340435338
 20
769.1720502262143
 30
0.0
 11
1003.403340435338
 21
772.8720502262144
 31
0.0
  0
LINE
  5
1AE8
330
1F
100
AcDbEntity
  8
AM_HID
100
AcDbLine
 10
996.9033404353385
 20
769.1720502262143
 30
0.0
 11
996.9033404353385
 21
772.8720502262144
 31
0.0
  0
LINE
  5
1AE9
330
1F
100
AcDbEntity
  8
AM_HID
100
AcDbLine
 10
996.9033404353385
 20
769.1720502262143
 30
0.0
 11
994.4033404353385
 21
766.6720502262144
 31
0.0
  0
LINE
  5
1AEA
330
1F
100
AcDbEntity
  8
AM_HID
100
AcDbLine
 10
1003.403340435338
 20
769.1720502262143
 30
0.0
 11
1005.903340435338
 21
766.6720502262144
 31
0.0
  0
LINE
  5
1AEB
330
1F
100
AcDbEntity
  8
AM_HID
100
AcDbLine
 10
963.4033404353386
 20
769.1720502262143
 30
0.0
 11
956.9033404353385
 21
769.1720502262143
 31
0.0
  0
LINE
  5
1AEC
330
1F
100
AcDbEntity
  8
AM_HID
100
AcDbLine
 10
954.4033404353385
 20
766.6720502262144
 30
0.0
 11
965.9033404353385
 21
766.6720502262144
 31
0.0
  0
LINE
  5
1AED
330
1F
100
AcDbEntity
  8
AM_HID
100
AcDbLine
 10
1003.403340435338
 20
769.1720502262143
 30
0.0
 11
996.9033404353385
 21
769.1720502262143
 31
0.0
  0
LINE
  5
1AEE
330
1F
100
AcDbEntity
  8
AM_HID
100
AcDbLine
 10
994.4033404353385
 20
766.6720502262144
 30
0.0
 11
1005.903340435338
 21
766.6720502262144
 31
0.0
  0
LINE
  5
1AEF
330
1F
100
AcDbEntity
  8
AM_HID
100
AcDbLine
 10
910.0323103134771
 20
772.8720502262144
 30
0.0
 11
850.0323103134771
 21
772.8720502262143
 31
0.0
  0
LINE
  5
1B07
330
1F
100
AcDbEntity
  8
AM_HID
100
AcDbLine
 10
871.9459334277949
 20
1053.879586688924
 30
0.0
 11
871.9459334277949
 21
1073.879586688924
 31
0.0
  0
LINE
  5
1B08
330
1F
100
AcDbEntity
  8
AM_HID
100
AcDbLine
 10
880.9459334277949
 20
1053.879586688924
 30
0.0
 11
880.9459334277949
 21
1073.879586688924
 31
0.0
  0
LINE
  5
1B09
330
1F
100
AcDbEntity
  8
AM_7
100
AcDbLine
 10
876.4459334277949
 20
1051.313685051371
 30
0.0
 11
876.4459334277949
 21
1076.296028619935
 31
0.0
  0
LINE
  5
1B0A
330
1F
100
AcDbEntity
  8
AM_7
100
AcDbLine
 10
861.2854478411392
 20
1064.879586688924
 30
0.0
 11
889.9181168507519
 21
1064.879586688924
 31
0.0
  0
TEXT
  5
1C1D
330
1F
100
AcDbEntity
  8
LOGO
 62
     7
100
AcDbText
 10
329.9822205824309
 20
690.1107332090547
 30
0.0
 40
7.926772065882354
  1
Order example:
 41
0.8
  7
CHINESET
100
AcDbText
  0
TEXT
  5
1C1E
330
1F
100
AcDbEntity
  8
LOGO
 62
     7
100
AcDbText
 10
331.4043490427884
 20
701.2699870187186
 30
0.0
 40
11.89015809882353
  1
訂購代號：
  7
CHINESET
100
AcDbText
  0
LINE
  5
1C1F
330
1F
100
AcDbEntity
  8
LOGO
 62
     4
100
AcDbLine
 10
326.5380112337402
 20
656.7043223887649
 30
0.0
 11
326.5380112337402
 21
716.1551128828829
 31
0.0
  0
TEXT
  5
1C20
330
1F
100
AcDbEntity
  8
LOGO
  6
Continuous
100
AcDbText
 10
217.1012633286421
 20
668.3833404622689
 30
0.0
 40
8.917618574117648
  1
金器工業股份有限公司
  7
CHINESET
100
AcDbText
  0
TEXT
  5
1C21
330
1F
100
AcDbEntity
  8
LOGO
  6
Continuous
100
AcDbText
 10
200.7213622718185
 20
659.463974734079
 30
0.0
 40
5.945079049411765
  1
MINDMAN INDUSTRIAL CO., LTD.
 41
0.85
  7
CHINESET
100
AcDbText
  0
LINE
  5
1C22
330
1F
100
AcDbEntity
  8
LOGO
 62
     4
100
AcDbLine
 10
326.5380112337402
 20
704.2649547840593
 30
0.0
 11
239.3435185090335
 21
704.2649547840593
 31
0.0
  0
LINE
  5
1C23
330
1F
100
AcDbEntity
  8
LOGO
 62
     4
100
AcDbLine
 10
326.5380112337402
 20
692.3747966852358
 30
0.0
 11
239.3435185090335
 21
692.3747966852358
 31
0.0
  0
LINE
  5
1C24
330
1F
100
AcDbEntity
  8
LOGO
 62
     4
100
AcDbLine
 10
326.5380112337402
 20
680.4846385864126
 30
0.0
 11
195.7462721466809
 21
680.4846385864126
 31
0.0
  0
LINE
  5
1C25
330
1F
100
AcDbEntity
  8
LOGO
 62
     4
100
AcDbLine
 10
239.3435185090335
 20
680.4846385864126
 30
0.0
 11
239.3435185090335
 21
716.1551128828829
 31
0.0
  0
TEXT
  5
1C26
330
1F
100
AcDbEntity
  8
LOGO
100
AcDbText
 10
298.936838769001
 20
683.4571781111177
 30
0.0
 40
5.945079049411765
  1
mm
  7
CHINESET
 72
     1
 11
306.2974128301775
 21
686.4297176358236
 31
0.0
100
AcDbText
 73
     2
  0
TEXT
  5
1C27
330
1F
100
AcDbEntity
  8
LOGO
100
AcDbText
 10
295.8227497431187
 20
707.2374943087648
 30
0.0
 40
5.945079049411765
  1
1 : 1
  7
CHINESET
 72
     1
 11
306.2974128301775
 21
710.2100338334707
 31
0.0
100
AcDbText
 73
     2
  0
LINE
  5
1C28
330
1F
100
AcDbEntity
  8
LOGO
 62
     4
100
AcDbLine
 10
286.9041509043277
 20
680.4846385864126
 30
0.0
 11
286.9041509043277
 21
716.1551128828829
 31
0.0
  0
TEXT
  5
1C29
330
1F
100
AcDbEntity
  8
LOGO
100
AcDbText
 10
244.2455546716513
 20
707.2404200366435
 30
389.6306869528554
 40
5.945079049411765
  1
比例 Scale:
 41
0.9
  7
CHINESET
 72
     4
 11
263.1238347066807
 21
710.2100338334707
 31
389.6306869528554
100
AcDbText
  0
TEXT
  5
1C2A
330
1F
100
AcDbEntity
  8
LOGO
100
AcDbText
 10
243.9031818156807
 20
695.4309632651393
 30
389.6306869528554
 40
5.945079049411765
  1
投影  View:
 41
0.9
  7
CHINESET
 72
     4
 11
263.1238347066807
 21
698.3198757346472
 31
389.6306869528554
100
AcDbText
  0
TEXT
  5
1C2B
330
1F
100
AcDbEntity
  8
LOGO
100
AcDbText
 10
244.4844194548865
 20
683.4571781111177
 30
389.6306869528554
 40
5.945079049411765
  1
單位  Unit:
 41
0.9
  7
CHINESET
 72
     4
 11
263.1238347066807
 21
686.4297176358236
 31
389.6306869528554
100
AcDbText
  0
LWPOLYLINE
  5
1C2C
330
1F
100
AcDbEntity
  8
LOGO
 62
     4
100
AcDbPolyline
 90
        4
 70
     1
 43
0.0
 10
195.7462721466812
 20
716.1551128828831
 10
1054.649807629169
 20
716.1551128828831
 10
1054.649807629169
 20
1251.298322388764
 10
195.7462721466812
 20
1251.298322388764
1001
GENIUS_GENREC_14
1002
{
1000
PYDIR
1011
195.7462721466812
1021
1251.298322388764
1031
0.0
1002
}
1002
{
1000
PXDIR
1011
1054.649807629169
1021
716.1551128828831
1031
0.0
1002
}
1002
{
1000
PORI
1011
195.7462721466812
1021
716.1551128828831
1031
0.0
1002
}
1002
{
1000
PINS
1011
195.7462721466812
1021
716.1551128828831
1031
0.0
1002
}
1002
{
1000
PINS2
1011
1054.649807629169
1021
1251.298322388764
1031
0.0
1002
}
1002
{
1000
C
1070
     1
1002
}
1001
GENIUS_GENODEF_13
1002
{
1000
HIER
1070
     0
1002
}
1002
{
1000
MANEDIT
1070
     0
1002
}
1002
{
1000
NOSEL
1070
     0
1002
}
1002
{
1000
BEHIND
1070
     0
1002
}
1002
{
1000
OTHER
1070
     0
1002
}
1002
{
1000
REACTOR
1002
}
1001
GENIUS_GENOBJ-N-REC_13
1002
{
1000
OWNER
1000
GEN
1002
}
  0
SOLID
  5
1C2D
330
1F
100
AcDbEntity
  8
LOGO
 62
     5
100
AcDbTrace
 10
201.9143870717075
 20
690.3674862906923
 30
0.0
 11
204.4848832537983
 21
690.3674862906914
 31
0.0
 12
215.2100569790758
 22
714.7428811208698
 32
0.0
 13
217.7805531611684
 23
714.7428811208685
 33
0.0
  0
SOLID
  5
1C2E
330
1F
100
AcDbEntity
  8
LOGO
 62
     5
100
AcDbTrace
 10
205.5485368463908
 20
690.3674862906923
 30
0.0
 11
208.1190330284825
 21
690.3674862906923
 31
0.0
 12
217.7805531611684
 22
712.7928495344547
 32
0.0
 13
215.2100569790758
 23
703.3676968667862
 33
0.0
  0
SOLID
  5
1C2F
330
1F
100
AcDbEntity
  8
LOGO
 62
     2
100
AcDbTrace
 10
204.4848832537983
 20
690.3674862906914
 30
0.0
 11
205.5485368463908
 21
690.3674862906923
 31
0.0
 12
217.7805531611684
 22
714.7428811208685
 32
0.0
 13
218.8442067537592
 23
714.7428811208685
 33
0.0
  0
SOLID
  5
1C30
330
1F
100
AcDbEntity
  8
LOGO
 62
     5
100
AcDbTrace
 10
197.7932513289355
 20
681.5037063524469
 30
0.0
 11
198.6796293227609
 21
681.5037063524469
 31
0.0
 12
201.1757387435208
 22
685.9355963215693
 32
0.0
 13
202.0621167373436
 23
685.9355963215693
 33
0.0
  0
SOLID
  5
1C31
330
1F
100
AcDbEntity
  8
LOGO
 62
     5
100
AcDbTrace
 10
201.1757387435208
 20
685.9355963215693
 30
0.0
 11
202.0621167373436
 21
685.9355963215693
 31
0.0
 12
201.1757387435208
 22
681.5037063524469
 32
0.0
 13
202.0621167373436
 23
681.5037063524469
 33
0.0
  0
SOLID
  5
1C32
330
1F
100
AcDbEntity
  8
LOGO
 62
     5
100
AcDbTrace
 10
201.1757387435208
 20
681.5037063524469
 30
0.0
 11
202.0621167373436
 21
681.5037063524469
 31
0.0
 12
204.5582261581072
 22
685.9355963215693
 32
0.0
 13
205.4446041519313
 23
685.9355963215693
 33
0.0
  0
SOLID
  5
1C33
330
1F
100
AcDbEntity
  8
LOGO
 62
     5
100
AcDbTrace
 10
204.5582261581072
 20
685.9355963215693
 30
0.0
 11
205.4446041519313
 21
685.9355963215693
 31
0.0
 12
204.5582261581072
 22
681.5037063524469
 32
0.0
 13
205.4446041519313
 23
681.5037063524469
 33
0.0
  0
POLYLINE
  5
1C34
330
1F
100
AcDbEntity
  8
LOGO
 62
     5
100
AcDb2dPolyline
 66
     1
 10
0.0
 20
0.0
 30
0.0
 40
0.8877984713788235
 41
0.8877984713788235
  0
VERTEX
  5
1C35
330
1C34
100
AcDbEntity
  8
LOGO
 62
     5
100
AcDbVertex
100
AcDb2dVertex
 10
234.2693145626386
 20
684.16284033392
 30
0.0
 42
1.0
  0
VERTEX
  5
1C36
330
1C34
100
AcDbEntity
  8
LOGO
 62
     5
100
AcDbVertex
100
AcDb2dVertex
 10
231.6059191485019
 20
684.16284033392
 30
0.0
 42
1.0
  0
SEQEND
  5
1C37
330
1C34
100
AcDbEntity
  8
LOGO
 62
     5
  0
POLYLINE
  5
1C38
330
1F
100
AcDbEntity
  8
LOGO
 62
     5
100
AcDb2dPolyline
 66
     1
 10
0.0
 20
0.0
 30
0.0
 70
     1
  0
VERTEX
  5
1C39
330
1C38
100
AcDbEntity
  8
LOGO
 62
     5
100
AcDbVertex
100
AcDb2dVertex
 10
226.5853003250252
 20
683.7196513370074
 30
0.0
 42
1.000000057330635
  0
VERTEX
  5
1C3A
330
1C38
100
AcDbEntity
  8
LOGO
 62
     5
100
AcDbVertex
100
AcDb2dVertex
 10
229.244434306499
 20
683.7196513370074
 30
0.0
 42
1.000000057330635
  0
SEQEND
  5
1C3B
330
1C38
100
AcDbEntity
  8
LOGO
 62
     5
  0
CIRCLE
  5
1C3C
330
1F
100
AcDbEntity
  8
LOGO
 62
     5
100
AcDbCircle
 10
227.9148673157639
 20
683.7196513370074
 30
0.0
 40
1.329566990736926
  0
POLYLINE
  5
1C3D
330
1F
100
AcDbEntity
  8
LOGO
 62
     5
100
AcDb2dPolyline
 66
     1
 10
0.0
 20
0.0
 30
0.0
 70
     1
 40
0.8877984713788235
 41
0.8877984713788235
  0
VERTEX
  5
1C3E
330
1C3D
100
AcDbEntity
  8
LOGO
 62
     5
100
AcDbVertex
100
AcDb2dVertex
 10
226.1392703730053
 20
683.7196513370074
 30
0.0
 42
1.0
  0
VERTEX
  5
1C3F
330
1C3D
100
AcDbEntity
  8
LOGO
 62
     5
100
AcDbVertex
100
AcDb2dVertex
 10
229.69046425852
 20
683.7196513370074
 30
0.0
 42
1.0
  0
SEQEND
  5
1C40
330
1C3D
100
AcDbEntity
  8
LOGO
 62
     5
  0
LINE
  5
1C41
330
1F
100
AcDbEntity
  8
LOGO
100
AcDbLine
 10
234.7103728432178
 20
681.5037063524469
 30
0.0
 11
234.7103728432178
 21
684.16284033392
 31
0.0
  0
SOLID
  5
1C42
330
1F
100
AcDbEntity
  8
LOGO
 62
     5
100
AcDbTrace
 10
229.2443456687038
 20
685.9355963215693
 30
0.0
 11
230.1307236625264
 21
685.9355963215693
 31
0.0
 12
229.2443456687038
 22
681.5037063524469
 32
0.0
 13
230.1307236625264
 23
681.5037063524469
 33
0.0
  0
SOLID
  5
1C43
330
1F
100
AcDbEntity
  8
LOGO
 62
     5
100
AcDbTrace
 10
231.16486086792
 20
681.5037063524469
 30
0.0
 11
232.0512388617453
 21
681.5037063524469
 31
0.0
 12
231.16486086792
 22
685.9355963215693
 32
0.0
 13
232.0512388617453
 23
685.9355963215693
 33
0.0
  0
SOLID
  5
1C44
330
1F
100
AcDbEntity
  8
LOGO
 62
     5
100
AcDbTrace
 10
233.8239948493953
 20
684.16284033392
 30
0.0
 11
234.7103728432178
 21
684.16284033392
 31
0.0
 12
233.8239948493953
 22
681.5037063524469
 32
0.0
 13
234.7103728432178
 23
681.5037063524469
 33
0.0
  0
SOLID
  5
1C45
330
1F
100
AcDbEntity
  8
LOGO
 62
     5
100
AcDbTrace
 10
231.0762230685369
 20
712.7928495344547
 30
0.0
 11
228.5057268864469
 21
703.3676968667862
 31
0.0
 12
231.0762230685369
 22
690.3674862906914
 32
0.0
 13
228.5057268864469
 23
690.3674862906914
 33
0.0
  0
SOLID
  5
1C46
330
1F
100
AcDbEntity
  8
LOGO
 62
     5
100
AcDbTrace
 10
232.1398766611278
 20
690.3674862906914
 30
0.0
 11
234.7103728432178
 21
690.3674862906914
 31
0.0
 12
232.1398766611278
 22
714.7428811208685
 32
0.0
 13
234.7103728432178
 23
714.7428811208698
 33
0.0
  0
SOLID
  5
1C47
330
1F
100
AcDbEntity
  8
LOGO
 62
     2
100
AcDbTrace
 10
231.0762230685369
 20
714.7428811208698
 30
0.0
 11
232.1398766611278
 21
714.7428811208685
 31
0.0
 12
231.0762230685369
 22
690.3674862906914
 32
0.0
 13
232.1398766611278
 23
690.3674862906914
 33
0.0
  0
POLYLINE
  5
1C48
330
1F
100
AcDbEntity
  8
LOGO
 62
     5
100
AcDb2dPolyline
 66
     1
 10
0.0
 20
0.0
 30
0.0
 40
0.8877984713788235
 41
0.8877984713788235
  0
VERTEX
  5
1C49
330
1C48
100
AcDbEntity
  8
LOGO
 62
     5
100
AcDbVertex
100
AcDb2dVertex
 10
221.5645042259532
 20
684.16284033392
 30
0.0
 42
1.0
  0
VERTEX
  5
1C4A
330
1C48
100
AcDbEntity
  8
LOGO
 62
     5
100
AcDbVertex
100
AcDb2dVertex
 10
218.9011088118167
 20
684.16284033392
 30
0.0
 42
1.0
  0
SEQEND
  5
1C4B
330
1C48
100
AcDbEntity
  8
LOGO
 62
     5
  0
POLYLINE
  5
1C4C
330
1F
100
AcDbEntity
  8
LOGO
 62
     5
100
AcDb2dPolyline
 66
     1
 10
0.0
 20
0.0
 30
0.0
 40
0.8877984713788235
 41
0.8877984713788235
  0
VERTEX
  5
1C4D
330
1C4C
100
AcDbEntity
  8
LOGO
 62
     5
100
AcDbVertex
100
AcDb2dVertex
 10
224.2236382074247
 20
684.16284033392
 30
0.0
 42
1.0
  0
VERTEX
  5
1C4E
330
1C4C
100
AcDbEntity
  8
LOGO
 62
     5
100
AcDbVertex
100
AcDb2dVertex
 10
221.560242793289
 20
684.16284033392
 30
0.0
 42
1.0
  0
SEQEND
  5
1C4F
330
1C4C
100
AcDbEntity
  8
LOGO
 62
     5
  0
POLYLINE
  5
1C50
330
1F
100
AcDbEntity
  8
LOGO
 62
     5
100
AcDb2dPolyline
 66
     1
 10
0.0
 20
0.0
 30
0.0
 40
0.8877984713788235
 41
0.8877984713788235
  0
VERTEX
  5
1C51
330
1C50
100
AcDbEntity
  8
LOGO
 62
     5
100
AcDbVertex
100
AcDb2dVertex
 10
211.5188278707393
 20
684.16284033392
 30
0.0
 42
1.0
  0
VERTEX
  5
1C52
330
1C50
100
AcDbEntity
  8
LOGO
 62
     5
100
AcDbVertex
100
AcDb2dVertex
 10
208.8554324566031
 20
684.16284033392
 30
0.0
 42
1.0
  0
SEQEND
  5
1C53
330
1C50
100
AcDbEntity
  8
LOGO
 62
     5
  0
SOLID
  5
1C54
330
1F
100
AcDbEntity
  8
LOGO
 62
     5
100
AcDbTrace
 10
208.4143741760227
 20
685.9355963215693
 30
0.0
 11
209.3007521698456
 21
685.9355963215693
 31
0.0
 12
208.4143741760227
 22
681.5037063524469
 32
0.0
 13
209.3007521698456
 23
681.5037063524469
 33
0.0
  0
SOLID
  5
1C55
330
1F
100
AcDbEntity
  8
LOGO
 62
     5
100
AcDbTrace
 10
211.0735081574968
 20
684.16284033392
 30
0.0
 11
211.9598861513226
 21
684.16284033392
 31
0.0
 12
211.0735081574968
 22
681.5037063524469
 32
0.0
 13
211.9598861513226
 23
681.5037063524469
 33
0.0
  0
POLYLINE
  5
1C56
330
1F
100
AcDbEntity
  8
LOGO
 62
     5
100
AcDb2dPolyline
 66
     1
 10
0.0
 20
0.0
 30
0.0
 70
     1
 40
0.8877984713788235
 41
0.8877984713788235
  0
VERTEX
  5
1C57
330
1C56
100
AcDbEntity
  8
LOGO
 62
     5
100
AcDbVertex
100
AcDb2dVertex
 10
213.4344600363184
 20
683.7196513370074
 30
0.0
 42
1.0
  0
VERTEX
  5
1C58
330
1C56
100
AcDbEntity
  8
LOGO
 62
     5
100
AcDbVertex
100
AcDb2dVertex
 10
216.9856539218347
 20
683.7196513370074
 30
0.0
 42
1.0
  0
SEQEND
  5
1C59
330
1C56
100
AcDbEntity
  8
LOGO
 62
     5
  0
SOLID
  5
1C5A
330
1F
100
AcDbEntity
  8
LOGO
 62
     5
100
AcDbTrace
 10
216.5395353320154
 20
687.2651633123068
 30
0.0
 11
217.4259133258399
 21
687.2651633123068
 31
0.0
 12
216.5395353320154
 22
681.5037063524469
 32
0.0
 13
217.4259133258399
 23
681.5037063524469
 33
0.0
  0
SOLID
  5
1C5B
330
1F
100
AcDbEntity
  8
LOGO
 62
     5
100
AcDbTrace
 10
218.4600505312375
 20
685.9355963215693
 30
0.0
 11
219.3464285250597
 21
685.9355963215693
 31
0.0
 12
218.4600505312375
 22
681.5037063524469
 32
0.0
 13
219.3464285250597
 23
681.5037063524469
 33
0.0
  0
SOLID
  5
1C5C
330
1F
100
AcDbEntity
  8
LOGO
 62
     5
100
AcDbTrace
 10
221.1191845127083
 20
684.16284033392
 30
0.0
 11
222.005562506534
 21
684.16284033392
 31
0.0
 12
221.1191845127083
 22
681.5037063524469
 32
0.0
 13
222.005562506534
 23
681.5037063524469
 33
0.0
  0
SOLID
  5
1C5D
330
1F
100
AcDbEntity
  8
LOGO
 62
     5
100
AcDbTrace
 10
223.7783184941822
 20
684.16284033392
 30
0.0
 11
224.6646964880067
 21
684.16284033392
 31
0.0
 12
223.7783184941822
 22
681.5037063524455
 32
0.0
 13
224.6646964880067
 23
681.5037063524455
 33
0.0
  0
SOLID
  5
1C5E
330
1F
100
AcDbEntity
  8
LOGO
 62
     5
100
AcDbTrace
 10
206.4938589768027
 20
686.5560609172466
 30
0.0
 11
207.3802369706292
 21
686.5560609172466
 31
0.0
 12
206.4938589768027
 22
687.2651633123068
 32
0.0
 13
207.3802369706292
 23
687.2651633123068
 33
0.0
  0
SOLID
  5
1C5F
330
1F
100
AcDbEntity
  8
LOGO
 62
     5
100
AcDbTrace
 10
206.4938589768027
 20
685.9355963215693
 30
0.0
 11
207.3802369706292
 21
685.9355963215693
 31
0.0
 12
206.4938589768027
 22
681.5037063524455
 32
0.0
 13
207.3802369706292
 23
681.5037063524469
 33
0.0
  0
SOLID
  5
1C60
330
1F
100
AcDbEntity
  8
LOGO
 62
     5
100
AcDbTrace
 10
215.2100569790758
 20
690.3674862906923
 30
0.0
 11
217.7805531611684
 21
690.3674862906923
 31
0.0
 12
215.2100569790758
 22
703.3676968667862
 32
0.0
 13
217.7805531611684
 23
712.7928495344547
 33
0.0
  0
SOLID
  5
1C61
330
1F
100
AcDbEntity
  8
LOGO
 62
     5
100
AcDbTrace
 10
218.8442067537592
 20
714.7428811208685
 30
0.0
 11
221.4147029358494
 21
714.7428811208698
 31
0.0
 12
218.8442067537592
 22
692.3175178771061
 32
0.0
 13
221.4147029358494
 23
701.7426705447747
 33
0.0
  0
SOLID
  5
1C62
330
1F
100
AcDbEntity
  8
LOGO
 62
     2
100
AcDbTrace
 10
217.7805531611684
 20
714.7428811208685
 30
0.0
 11
218.8442067537592
 21
714.7428811208685
 31
0.0
 12
217.7805531611684
 22
690.3674862906923
 32
0.0
 13
218.8442067537592
 23
690.3674862906923
 33
0.0
  0
SOLID
  5
1C63
330
1F
100
AcDbEntity
  8
LOGO
 62
     5
100
AcDbTrace
 10
218.8442067537592
 20
692.3175178771061
 30
0.0
 11
221.4147029358494
 21
701.7426705447747
 31
0.0
 12
231.0762230685369
 22
714.7428811208698
 32
0.0
 13
228.5057268864469
 23
714.7428811208698
 33
0.0
  0
SOLID
  5
1C64
330
1F
100
AcDbEntity
  8
LOGO
 62
     5
100
AcDbTrace
 10
218.8442067537592
 20
690.3674862906923
 30
0.0
 11
221.4147029358494
 21
690.3674862906923
 31
0.0
 12
231.0762230685369
 22
712.7928495344547
 32
0.0
 13
228.5057268864469
 23
703.3676968667862
 33
0.0
  0
SOLID
  5
1C65
330
1F
100
AcDbEntity
  8
LOGO
 62
     2
100
AcDbTrace
 10
217.7805531611684
 20
690.3674862906923
 30
0.0
 11
218.8442067537592
 21
690.3674862906923
 31
0.0
 12
231.0762230685369
 22
714.7428811208698
 32
0.0
 13
232.1398766611278
 23
714.7428811208685
 33
0.0
  0
LWPOLYLINE
  5
1C66
330
1F
100
AcDbEntity
  8
LOGO
 62
     4
100
AcDbPolyline
 90
        4
 70
     1
 43
0.0
 10
195.7462721466812
 20
716.1551128828831
 10
1054.649807629169
 20
716.1551128828831
 10
1054.649807629169
 20
656.7043223887644
 10
195.7462721466812
 20
656.7043223887644
1001
GENIUS_GENREC_14
1002
{
1000
PYDIR
1011
195.7462721466812
1021
656.7043223887644
1031
0.0
1002
}
1002
{
1000
PXDIR
1011
1054.649807629169
1021
716.1551128828831
1031
0.0
1002
}
1002
{
1000
PORI
1011
195.7462721466812
1021
716.1551128828831
1031
0.0
1002
}
1002
{
1000
PINS
1011
195.7462721466812
1021
716.1551128828831
1031
0.0
1002
}
1002
{
1000
PINS2
1011
1054.649807629169
1021
656.7043223887644
1031
0.0
1002
}
1002
{
1000
C
1070
     1
1002
}
1001
GENIUS_GENOBJ-N-REC_13
1002
{
1000
OWNER
1000
GEN
1002
}
1001
GENIUS_GENODEF_13
1002
{
1000
HIER
1070
     0
1002
}
1002
{
1000
MANEDIT
1070
     0
1002
}
1002
{
1000
NOSEL
1070
     0
1002
}
1002
{
1000
BEHIND
1070
     0
1002
}
1002
{
1000
OTHER
1070
     0
1002
}
1002
{
1000
REACTOR
1002
}
  0
LINE
  5
1C67
330
1F
100
AcDbEntity
  8
LOGO
 62
     4
100
AcDbLine
 10
434.7173221272998
 20
683.457178111119
 30
0.0
 11
434.7173221272998
 21
661.6585549299413
 31
0.0
  0
LINE
  5
1C68
330
1F
100
AcDbEntity
  8
LOGO
 62
     4
100
AcDbLine
 10
408.3099349983699
 20
683.457178111119
 30
0.0
 11
408.3099349983699
 21
661.6585549299413
 31
0.0
  0
LINE
  5
1C69
330
1F
100
AcDbEntity
  8
LOGO
 62
     4
100
AcDbLine
 10
434.7173221272998
 20
661.6585549299413
 30
0.0
 11
408.3099349983699
 21
661.6585549299413
 31
0.0
  0
LINE
  5
1C6A
330
1F
100
AcDbEntity
  8
LOGO
 62
     4
100
AcDbLine
 10
471.2241626143263
 20
710.2100338334707
 30
0.0
 11
408.3099349983699
 21
710.2100338334707
 31
0.0
  0
LINE
  5
1C6B
330
1F
100
AcDbEntity
  8
LOGO
 62
     4
100
AcDbLine
 10
471.2241626143263
 20
692.3747966852358
 30
0.0
 11
408.3099349983699
 21
692.3747966852358
 31
0.0
  0
LINE
  5
1C6C
330
1F
100
AcDbEntity
  8
LOGO
 62
     4
100
AcDbLine
 10
408.3099349983699
 20
710.2100338334707
 30
0.0
 11
408.3099349983699
 21
692.3747966852358
 31
0.0
  0
LINE
  5
1C6D
330
1F
100
AcDbEntity
  8
LOGO
 62
     4
100
AcDbLine
 10
471.2241626143263
 20
710.2100338334707
 30
0.0
 11
471.2241626143263
 21
692.3747966852358
 31
0.0
  0
LINE
  5
1C6E
330
1F
100
AcDbEntity
  8
LOGO
 62
     4
100
AcDbLine
 10
430.1947571926417
 20
692.3747966852358
 30
0.0
 11
430.1947571926417
 21
683.457178111119
 31
0.0
  0
TEXT
  5
1C6F
330
1F
100
AcDbEntity
  8
LOGO
  6
Continuous
100
AcDbText
 10
411.4789773147517
 20
696.0978763648158
 30
0.0
 40
10.405395
  1
MCRPLF
  7
CHINESET
100
AcDbText
  0
LINE
  5
1C70
330
1F
100
AcDbEntity
  8
LOGO
 62
     4
100
AcDbLine
 10
434.7173221272998
 20
683.457178111119
 30
0.0
 11
408.3099349983699
 21
683.457178111119
 31
0.0
  0
TEXT
  5
1C71
330
1F
100
AcDbEntity
  8
LOGO
  6
Continuous
100
AcDbText
 10
415.1365194418977
 20
664.7353843669102
 30
389.6306869528554
 40
4.459455
  1
Model
 41
0.8
  7
CHINESET
100
AcDbText
  0
TEXT
  5
1C72
330
1F
100
AcDbEntity
  8
LOGO
100
AcDbText
 10
413.9495574888636
 20
673.0022528557635
 30
389.6306869528554
 40
7.432425
  1
型號
  7
CHINESET
100
AcDbText
  0
LINE
  5
1C73
330
1F
100
AcDbEntity
  8
LOGO
  6
Continuous
100
AcDbLine
 10
473.1201957293895
 20
701.229240030741
 30
0.0
 11
480.995585675163
 21
701.229240030741
 31
0.0
  0
TEXT
  5
1C74
330
1F
100
AcDbEntity
  8
LOGO
100
AcDbText
 10
329.986266750422
 20
659.8670809782019
 30
0.0
 40
5.945940000000001
  1
10711174
 41
0.7
  7
CHINESET
 72
     1
 11
343.761027750422
 21
659.8670809782019
 31
0.0
100
AcDbText
  0
LINE
  5
1C75
330
1F
100
AcDbEntity
  8
LOGO
 62
     4
100
AcDbLine
 10
362.2136512337377
 20
668.5944804875898
 30
0.0
 11
362.2136512337406
 21
656.7043223887655
 31
0.0
  0
LINE
  5
1C76
330
1F
100
AcDbEntity
  8
LOGO
 62
     4
100
AcDbLine
 10
362.2136512337377
 20
668.5944804875898
 30
0.0
 11
326.5380112337402
 21
668.5944804875898
 31
0.0
  0
CIRCLE
  5
1C77
330
1F
100
AcDbEntity
  8
LOGO
  6
Continuous
100
AcDbCircle
 10
297.9122083630466
 20
698.3325923022395
 30
0.0
 40
3.451852827475328
  0
CIRCLE
  5
1C78
330
1F
100
AcDbEntity
  8
LOGO
  6
Continuous
100
AcDbCircle
 10
297.9122083630466
 20
698.3325923022395
 30
0.0
 40
2.02248018165876
  0
LINE
  5
1C79
330
1F
100
AcDbEntity
  8
LOGO
100
AcDbLine
 10
319.6040520669653
 20
694.8807394747634
 30
0.0
 11
319.6040520669653
 21
701.7844451297153
 31
0.0
  0
LINE
  5
1C7A
330
1F
100
AcDbEntity
  8
LOGO
100
AcDbLine
 10
308.7826915986374
 20
696.3101121205809
 30
0.0
 11
308.7826915986374
 21
700.3550724838985
 31
0.0
  0
LINE
  5
1C7B
330
1F
100
AcDbEntity
  8
LOGO
  6
Continuous
100
AcDbLine
 10
308.7826915986374
 20
700.3550724838985
 30
0.0
 11
319.6040520669653
 21
701.7844451297153
 31
0.0
  0
LINE
  5
1C7C
330
1F
100
AcDbEntity
  8
LOGO
  6
Continuous
100
AcDbLine
 10
308.7826915986374
 20
696.3101121205809
 30
0.0
 11
319.6040520669653
 21
694.8807394747634
 31
0.0
  0
LINE
  5
1C7D
330
1F
100
AcDbEntity
  8
LOGO
  6
AM_ISO08W050x2
 48
0.3
100
AcDbLine
 10
293.1537775529457
 20
698.3325923022395
 30
0.0
 11
302.6706391731472
 21
698.3325923022395
 31
0.0
1001
GENIUS_GENOREF_13
1005
1CDB
  0
LINE
  5
1C7E
330
1F
100
AcDbEntity
  8
LOGO
  6
AM_ISO08W050x2
 48
0.3
100
AcDbLine
 10
297.9122083630466
 20
693.5741614921389
 30
0.0
 11
297.9122083630466
 21
703.09102311234
 31
0.0
1001
GENIUS_GENOREF_13
1005
1CDA
  0
LINE
  5
1C7F
330
1F
100
AcDbEntity
  8
LOGO
  6
CENTER
 48
0.5
100
AcDbLine
 10
307.9172835394784
 20
698.3325923022395
 30
0.0
 11
320.6937280355758
 21
698.3325923022395
 31
0.0
1001
GENIUS_GENOREF_13
1005
1CD9
  0
LINE
  5
1C80
330
1F
100
AcDbEntity
  8
LOGO
 62
     4
100
AcDbLine
 10
798.4959072215681
 20
1251.298322388764
 30
0.0
 11
798.4959072215681
 21
716.1551128828829
 31
0.0
  0
LINE
  5
1C81
330
1F
100
AcDbEntity
  8
LOGO
 62
     4
100
AcDbLine
 10
798.4959072215681
 20
983.7267176358237
 30
0.0
 11
1054.649807629169
 21
983.7267176358237
 31
0.0
  0
TEXT
  5
1C82
330
1F
100
AcDbEntity
  8
0
100
AcDbText
 10
812.6272519324805
 20
1231.978538367845
 30
0.0
 40
7.92792
  1
End cover bracket
100
AcDbText
  0
TEXT
  5
1C83
330
1F
100
AcDbEntity
  8
0
100
AcDbText
 10
812.6272519324805
 20
964.4069336149049
 30
0.0
 40
7.92792
  1
Mid section support
100
AcDbText
  0
LINE
  5
1C85
330
1F
100
AcDbEntity
  8
LOGO
 62
     4
100
AcDbLine
 10
474.2681760144078
 20
683.457178111119
 30
0.0
 11
474.2681760144078
 21
661.6585549299413
 31
0.0
  0
LINE
  5
1C86
330
1F
100
AcDbEntity
  8
LOGO
 62
     4
100
AcDbLine
 10
447.456662982298
 20
683.457178111119
 30
0.0
 11
447.456662982298
 21
661.6585549299413
 31
0.0
  0
LINE
  5
1C87
330
1F
100
AcDbEntity
  8
LOGO
 62
     4
100
AcDbLine
 10
474.2681760144078
 20
661.6585549299413
 30
0.0
 11
447.456662982298
 21
661.6585549299413
 31
0.0
  0
LINE
  5
1C88
330
1F
100
AcDbEntity
  8
LOGO
 62
     4
100
AcDbLine
 10
505.9011928482472
 20
710.2100338334707
 30
0.0
 11
483.4705759364132
 21
710.2100338334707
 31
0.0
  0
LINE
  5
1C89
330
1F
100
AcDbEntity
  8
LOGO
 62
     4
100
AcDbLine
 10
505.9011928482472
 20
692.3747966852358
 30
0.0
 11
483.4705759364132
 21
692.3747966852358
 31
0.0
  0
LINE
  5
1C8A
330
1F
100
AcDbEntity
  8
LOGO
 62
     4
100
AcDbLine
 10
483.4705759364132
 20
710.2100338334707
 30
0.0
 11
483.4705759364132
 21
692.3747966852358
 31
0.0
  0
LINE
  5
1C8B
330
1F
100
AcDbEntity
  8
LOGO
 62
     4
100
AcDbLine
 10
505.9011928482472
 20
710.2100338334707
 30
0.0
 11
505.9011928482472
 21
692.3747966852358
 31
0.0
  0
LINE
  5
1C8C
330
1F
100
AcDbEntity
  8
LOGO
 62
     4
100
AcDbLine
 10
494.6858843923304
 20
692.3747966852358
 30
0.0
 11
494.6858843923304
 21
687.9159873981773
 31
0.0
  0
TEXT
  5
1C8D
330
1F
100
AcDbEntity
  8
LOGO
  6
Continuous
100
AcDbText
 10
486.3698153863899
 20
696.0978763648158
 30
0.0
 40
10.405395
  1
90
  7
CHINESET
100
AcDbText
  0
LINE
  5
1C8E
330
1F
100
AcDbEntity
  8
LOGO
 62
     4
100
AcDbLine
 10
474.2681760144078
 20
683.457178111119
 30
0.0
 11
447.456662982298
 21
683.457178111119
 31
0.0
  0
TEXT
  5
1C8F
330
1F
100
AcDbEntity
  8
LOGO
  6
Continuous
100
AcDbText
 10
455.1196310995798
 20
664.7353843669102
 30
389.6306869528554
 40
4.459455
  1
Type
 41
0.8
  7
CHINESET
100
AcDbText
  0
TEXT
  5
1C90
330
1F
100
AcDbEntity
  8
LOGO
100
AcDbText
 10
452.6310846422137
 20
673.0022528557635
 30
389.6306869528554
 40
7.432425
  1
型式
  7
CHINESET
100
AcDbText
  0
LINE
  5
1C91
330
1F
100
AcDbEntity
  8
LOGO
 62
     4
100
AcDbLine
 10
533.9416420532495
 20
710.2100338334707
 30
0.0
 11
508.53604279898
 21
710.2100338334707
 31
0.0
  0
LINE
  5
1C92
330
1F
100
AcDbEntity
  8
LOGO
 62
     4
100
AcDbLine
 10
533.9416420532495
 20
692.3747966852358
 30
0.0
 11
508.53604279898
 21
692.3747966852358
 31
0.0
  0
LINE
  5
1C93
330
1F
100
AcDbEntity
  8
LOGO
 62
     4
100
AcDbLine
 10
508.53604279898
 20
710.2100338334707
 30
0.0
 11
508.53604279898
 21
692.3747966852358
 31
0.0
  0
LINE
  5
1C94
330
1F
100
AcDbEntity
  8
LOGO
 62
     4
100
AcDbLine
 10
533.9416420532495
 20
710.2100338334707
 30
0.0
 11
533.9416420532495
 21
692.3747966852358
 31
0.0
  0
LINE
  5
1C95
330
1F
100
AcDbEntity
  8
LOGO
 62
     4
100
AcDbLine
 10
519.7513512548977
 20
692.3747966852358
 30
0.0
 11
519.7513512548977
 21
683.457178111119
 31
0.0
  0
TEXT
  5
1C96
330
1F
100
AcDbEntity
  8
LOGO
  6
Continuous
100
AcDbText
 10
511.4352822489569
 20
696.0978763648158
 30
0.0
 40
10.405395
  1
(V)
  7
CHINESET
100
AcDbText
  0
LINE
  5
1C97
330
1F
100
AcDbEntity
  8
LOGO
 62
     4
100
AcDbLine
 10
549.4473867959149
 20
683.457178111119
 30
0.0
 11
549.4473867959149
 21
661.6585549299413
 31
0.0
  0
LINE
  5
1C98
330
1F
100
AcDbEntity
  8
LOGO
 62
     4
100
AcDbLine
 10
479.1377235384452
 20
683.457178111119
 30
0.0
 11
479.1377235384452
 21
661.6585549299413
 31
0.0
  0
LINE
  5
1C99
330
1F
100
AcDbEntity
  8
LOGO
 62
     4
100
AcDbLine
 10
549.4473867959149
 20
661.6585549299413
 30
0.0
 11
479.1377235384452
 21
661.6585549299413
 31
0.0
  0
LINE
  5
1C9A
330
1F
100
AcDbEntity
  8
LOGO
 62
     4
100
AcDbLine
 10
549.4473867959149
 20
683.457178111119
 30
0.0
 11
479.1377235384452
 21
683.457178111119
 31
0.0
  0
TEXT
  5
1C9B
330
1F
100
AcDbEntity
  8
LOGO
  6
Continuous
100
AcDbText
 10
484.7060132997116
 20
664.7353843669102
 30
389.6306869528554
 40
4.459455
  1
Material of piston seal
 41
0.8
  7
CHINESET
100
AcDbText
  0
TEXT
  5
1C9C
330
1F
100
AcDbEntity
  8
LOGO
100
AcDbText
 10
488.2325640271238
 20
673.0022528557635
 30
389.6306869528554
 40
7.432425
  1
活塞密封環材質
  7
CHINESET
100
AcDbText
  0
LINE
  5
1C9D
330
1F
100
AcDbEntity
  8
LOGO
  6
Continuous
100
AcDbLine
 10
535.8376751683123
 20
701.229240030741
 30
0.0
 11
543.713065114086
 21
701.229240030741
 31
0.0
  0
LINE
  5
1C9E
330
1F
100
AcDbEntity
  8
LOGO
 62
     4
100
AcDbLine
 10
568.6186722871708
 20
710.2100338334707
 30
0.0
 11
546.1880553753363
 21
710.2100338334707
 31
0.0
  0
LINE
  5
1C9F
330
1F
100
AcDbEntity
  8
LOGO
 62
     4
100
AcDbLine
 10
568.6186722871708
 20
692.3747966852358
 30
0.0
 11
546.1880553753363
 21
692.3747966852358
 31
0.0
  0
LINE
  5
1CA0
330
1F
100
AcDbEntity
  8
LOGO
 62
     4
100
AcDbLine
 10
546.1880553753363
 20
710.2100338334707
 30
0.0
 11
546.1880553753363
 21
692.3747966852358
 31
0.0
  0
LINE
  5
1CA1
330
1F
100
AcDbEntity
  8
LOGO
 62
     4
100
AcDbLine
 10
568.6186722871708
 20
710.2100338334707
 30
0.0
 11
568.6186722871708
 21
692.3747966852358
 31
0.0
  0
LINE
  5
1CA2
330
1F
100
AcDbEntity
  8
LOGO
 62
     4
100
AcDbLine
 10
557.4033638312537
 20
692.3747966852358
 30
0.0
 11
557.4033638312537
 21
683.457178111119
 31
0.0
  0
TEXT
  5
1CA3
330
1F
100
AcDbEntity
  8
LOGO
  6
Continuous
100
AcDbText
 10
549.9973910320526
 20
696.0978763648158
 30
0.0
 40
10.405395
  1
40
  7
CHINESET
100
AcDbText
  0
LINE
  5
1CA4
330
1F
100
AcDbEntity
  8
LOGO
 62
     4
100
AcDbLine
 10
581.8450049449122
 20
683.457178111119
 30
0.0
 11
581.8450049449122
 21
661.6585549299413
 31
0.0
  0
LINE
  5
1CA5
330
1F
100
AcDbEntity
  8
LOGO
 62
     4
100
AcDbLine
 10
555.0334919128023
 20
683.457178111119
 30
0.0
 11
555.0334919128023
 21
661.6585549299413
 31
0.0
  0
LINE
  5
1CA6
330
1F
100
AcDbEntity
  8
LOGO
 62
     4
100
AcDbLine
 10
581.8450049449122
 20
661.6585549299413
 30
0.0
 11
555.0334919128023
 21
661.6585549299413
 31
0.0
  0
LINE
  5
1CA7
330
1F
100
AcDbEntity
  8
LOGO
 62
     4
100
AcDbLine
 10
581.8450049449122
 20
683.457178111119
 30
0.0
 11
555.0334919128023
 21
683.457178111119
 31
0.0
  0
TEXT
  5
1CA8
330
1F
100
AcDbEntity
  8
LOGO
  6
Continuous
100
AcDbText
 10
562.6964600300842
 20
664.7353843669102
 30
389.6306869528554
 40
4.459455
  1
Bore
 41
0.8
  7
CHINESET
100
AcDbText
  0
TEXT
  5
1CA9
330
1F
100
AcDbEntity
  8
LOGO
100
AcDbText
 10
560.2079135727179
 20
673.0022528557635
 30
389.6306869528554
 40
7.432425
  1
內徑
  7
CHINESET
100
AcDbText
  0
LINE
  5
1CAA
330
1F
100
AcDbEntity
  8
LOGO
  6
Continuous
100
AcDbLine
 10
570.5147054022342
 20
701.229240030741
 30
0.0
 11
578.3900953480078
 21
701.229240030741
 31
0.0
  0
LINE
  5
1CAB
330
1F
100
AcDbEntity
  8
LOGO
 62
     4
100
AcDbLine
 10
603.2957025210921
 20
710.2100338334707
 30
0.0
 11
580.8650856092579
 21
710.2100338334707
 31
0.0
  0
LINE
  5
1CAC
330
1F
100
AcDbEntity
  8
LOGO
 62
     4
100
AcDbLine
 10
603.2957025210921
 20
692.3747966852358
 30
0.0
 11
580.8650856092579
 21
692.3747966852358
 31
0.0
  0
LINE
  5
1CAD
330
1F
100
AcDbEntity
  8
LOGO
 62
     4
100
AcDbLine
 10
580.8650856092579
 20
710.2100338334707
 30
0.0
 11
580.8650856092579
 21
692.3747966852358
 31
0.0
  0
LINE
  5
1CAE
330
1F
100
AcDbEntity
  8
LOGO
 62
     4
100
AcDbLine
 10
603.2957025210921
 20
710.2100338334707
 30
0.0
 11
603.2957025210921
 21
692.3747966852358
 31
0.0
  0
TEXT
  5
1CAF
330
1F
100
AcDbEntity
  8
LOGO
  6
Continuous
100
AcDbText
 10
588.7201004019154
 20
696.0978763648158
 30
0.0
 40
10.405395
  1
0
  7
CHINESET
100
AcDbText
  0
LINE
  5
1CB0
330
1F
100
AcDbEntity
  8
LOGO
 62
     4
100
AcDbLine
 10
614.2426230939093
 20
683.457178111119
 30
0.0
 11
614.2426230939093
 21
661.6585549299413
 31
0.0
  0
LINE
  5
1CB1
330
1F
100
AcDbEntity
  8
LOGO
 62
     4
100
AcDbLine
 10
587.4311100617999
 20
683.457178111119
 30
0.0
 11
587.4311100617999
 21
661.6585549299413
 31
0.0
  0
LINE
  5
1CB2
330
1F
100
AcDbEntity
  8
LOGO
 62
     4
100
AcDbLine
 10
614.2426230939093
 20
661.6585549299413
 30
0.0
 11
587.4311100617999
 21
661.6585549299413
 31
0.0
  0
LINE
  5
1CB3
330
1F
100
AcDbEntity
  8
LOGO
 62
     4
100
AcDbLine
 10
614.2426230939093
 20
683.457178111119
 30
0.0
 11
587.4311100617999
 21
683.457178111119
 31
0.0
  0
TEXT
  5
1CB4
330
1F
100
AcDbEntity
  8
LOGO
  6
Continuous
100
AcDbText
 10
592.1486163736529
 20
664.7353843669102
 30
389.6306869528554
 40
4.459455
  1
Stroke
 41
0.8
  7
CHINESET
100
AcDbText
  0
TEXT
  5
1CB5
330
1F
100
AcDbEntity
  8
LOGO
100
AcDbText
 10
592.605531721715
 20
673.0022528557635
 30
389.6306869528554
 40
7.432425
  1
行程
  7
CHINESET
100
AcDbText
  0
LINE
  5
1CB6
330
1F
100
AcDbEntity
  8
LOGO
  6
Continuous
100
AcDbLine
 10
605.1917356361553
 20
701.229240030741
 30
0.0
 11
613.0671255819292
 21
701.229240030741
 31
0.0
  0
LINE
  5
1CB7
330
1F
100
AcDbEntity
  8
LOGO
 62
     4
100
AcDbLine
 10
637.9727327550137
 20
710.2100338334707
 30
0.0
 11
615.5421158431798
 21
710.2100338334707
 31
0.0
  0
LINE
  5
1CB8
330
1F
100
AcDbEntity
  8
LOGO
 62
     4
100
AcDbLine
 10
637.9727327550137
 20
692.3747966852358
 30
0.0
 11
615.5421158431798
 21
692.3747966852358
 31
0.0
  0
LINE
  5
1CB9
330
1F
100
AcDbEntity
  8
LOGO
 62
     4
100
AcDbLine
 10
615.5421158431798
 20
710.2100338334707
 30
0.0
 11
615.5421158431798
 21
692.3747966852358
 31
0.0
  0
LINE
  5
1CBA
330
1F
100
AcDbEntity
  8
LOGO
 62
     4
100
AcDbLine
 10
637.9727327550137
 20
710.2100338334707
 30
0.0
 11
637.9727327550137
 21
692.3747966852358
 31
0.0
  0
LINE
  5
1CBB
330
1F
100
AcDbEntity
  8
LOGO
  6
Continuous
100
AcDbLine
 10
639.8687658700766
 20
701.229240030741
 30
0.0
 11
647.7441558158503
 21
701.229240030741
 31
0.0
  0
LINE
  5
1CBC
330
1F
100
AcDbEntity
  8
LOGO
 62
     4
100
AcDbLine
 10
672.6497629889352
 20
710.2100338334707
 30
0.0
 11
650.2191460771005
 21
710.2100338334707
 31
0.0
  0
LINE
  5
1CBD
330
1F
100
AcDbEntity
  8
LOGO
 62
     4
100
AcDbLine
 10
672.6497629889352
 20
692.3747966852358
 30
0.0
 11
650.2191460771005
 21
692.3747966852358
 31
0.0
  0
LINE
  5
1CBE
330
1F
100
AcDbEntity
  8
LOGO
 62
     4
100
AcDbLine
 10
650.2191460771005
 20
710.2100338334707
 30
0.0
 11
650.2191460771005
 21
692.3747966852358
 31
0.0
  0
LINE
  5
1CBF
330
1F
100
AcDbEntity
  8
LOGO
 62
     4
100
AcDbLine
 10
672.6497629889352
 20
710.2100338334707
 30
0.0
 11
672.6497629889352
 21
692.3747966852358
 31
0.0
  0
LINE
  5
1CC0
330
1F
100
AcDbEntity
  8
LOGO
 62
     4
100
AcDbLine
 10
660.4809403709054
 20
683.457178111119
 30
0.0
 11
660.4809403709054
 21
661.6585549299413
 31
0.0
  0
LINE
  5
1CC1
330
1F
100
AcDbEntity
  8
LOGO
 62
     4
100
AcDbLine
 10
619.8287282107972
 20
683.457178111119
 30
0.0
 11
619.8287282107972
 21
661.6585549299413
 31
0.0
  0
LINE
  5
1CC2
330
1F
100
AcDbEntity
  8
LOGO
 62
     4
100
AcDbLine
 10
660.4809403709054
 20
661.6585549299413
 30
0.0
 11
619.8287282107972
 21
661.6585549299413
 31
0.0
  0
LINE
  5
1CC3
330
1F
100
AcDbEntity
  8
LOGO
 62
     4
100
AcDbLine
 10
660.4809403709054
 20
683.457178111119
 30
0.0
 11
619.8287282107972
 21
683.457178111119
 31
0.0
  0
TEXT
  5
1CC4
330
1F
100
AcDbEntity
  8
LOGO
  6
Continuous
100
AcDbText
 10
624.5462345226501
 20
664.7353843669102
 30
389.6306869528554
 40
4.459455
  1
Grease type
 41
0.8
  7
CHINESET
100
AcDbText
  0
TEXT
  5
1CC5
330
1F
100
AcDbEntity
  8
LOGO
100
AcDbText
 10
621.3589972251516
 20
673.0022528557635
 30
389.6306869528554
 40
7.432425
  1
潤滑油種類
  7
CHINESET
100
AcDbText
  0
LINE
  5
1CC6
330
1F
100
AcDbEntity
  8
LOGO
 62
     4
100
AcDbLine
 10
699.5002744993861
 20
683.457178111119
 30
0.0
 11
699.5002744993861
 21
661.6585549299413
 31
0.0
  0
LINE
  5
1CC7
330
1F
100
AcDbEntity
  8
LOGO
 62
     4
100
AcDbLine
 10
666.0670454877929
 20
683.457178111119
 30
0.0
 11
666.0670454877929
 21
661.6585549299413
 31
0.0
  0
LINE
  5
1CC8
330
1F
100
AcDbEntity
  8
LOGO
 62
     4
100
AcDbLine
 10
699.5002744993861
 20
661.6585549299413
 30
0.0
 11
666.0670454877929
 21
661.6585549299413
 31
0.0
  0
LINE
  5
1CC9
330
1F
100
AcDbEntity
  8
LOGO
 62
     4
100
AcDbLine
 10
699.5002744993861
 20
683.457178111119
 30
0.0
 11
666.0670454877929
 21
683.457178111119
 31
0.0
  0
TEXT
  5
1CCA
330
1F
100
AcDbEntity
  8
LOGO
  6
Continuous
100
AcDbText
 10
670.7845517996455
 20
664.7353843669102
 30
389.6306869528554
 40
4.459455
  1
Accessory
 41
0.8
  7
CHINESET
100
AcDbText
  0
TEXT
  5
1CCB
330
1F
100
AcDbEntity
  8
LOGO
100
AcDbText
 10
674.8840111420617
 20
673.0022528557635
 30
389.6306869528554
 40
7.432425
  1
配件
  7
CHINESET
100
AcDbText
  0
LINE
  5
1CCC
330
1F
100
AcDbEntity
  8
LOGO
 62
     4
100
AcDbLine
 10
592.0803940651749
 20
692.3747966852358
 30
0.0
 11
592.0803940651749
 21
683.457178111119
 31
0.0
  0
LINE
  5
1CCD
330
1F
100
AcDbEntity
  8
LOGO
 62
     4
100
AcDbLine
 10
626.7574242990966
 20
692.3747966852358
 30
0.0
 11
626.7574242990966
 21
683.457178111119
 31
0.0
  0
LINE
  5
1CCE
330
1F
100
AcDbEntity
  8
LOGO
 62
     4
100
AcDbLine
 10
682.7836599935891
 20
687.9159873981773
 30
0.0
 11
682.7836599935891
 21
683.457178111119
 31
0.0
  0
LINE
  5
1CCF
330
1F
100
AcDbEntity
  8
LOGO
 62
     4
100
AcDbLine
 10
460.862419498353
 20
687.9159873981773
 30
0.0
 11
460.862419498353
 21
683.457178111119
 31
0.0
  0
LINE
  5
1CD0
330
1F
100
AcDbEntity
  8
LOGO
 62
     4
100
AcDbLine
 10
460.862419498353
 20
687.9159873981773
 30
0.0
 11
494.6858843923304
 21
687.9159873981773
 31
0.0
  0
LINE
  5
1CD1
330
1F
100
AcDbEntity
  8
LOGO
 62
     4
100
AcDbLine
 10
661.434454533018
 20
687.9159873981773
 30
0.0
 11
682.7836599935891
 21
687.9159873981773
 31
0.0
  0
LINE
  5
1CD2
330
1F
100
AcDbEntity
  8
LOGO
 62
     4
100
AcDbLine
 10
661.434454533018
 20
692.3747966852358
 30
0.0
 11
661.434454533018
 21
687.9159873981773
 31
0.0
  0
TEXT
  5
1CD3
330
1F
100
AcDbEntity
  8
0
100
AcDbText
 10
909.1890417641783
 20
1233.648114010622
 30
0.0
 40
5.4
  1
PL24/4
100
AcDbText
  0
LWPOLYLINE
  5
1CD4
330
1F
100
AcDbEntity
  8
0
100
AcDbPolyline
 90
        4
 70
     1
 43
0.0
 10
907.7356535399344
 20
1241.384270929978
 10
934.0469751677579
 20
1241.384270929978
 10
934.0469751677579
 20
1231.97485575671
 10
907.7356535399344
 20
1231.97485575671
1001
GENIUS_GENREC_14
1002
{
1000
PYDIR
1011
907.7356535399344
1021
1231.97485575671
1031
0.0
1002
}
1002
{
1000
PXDIR
1011
934.0469751677579
1021
1241.384270929978
1031
0.0
1002
}
1002
{
1000
PORI
1011
907.7356535399344
1021
1241.384270929978
1031
0.0
1002
}
1002
{
1000
PINS
1011
907.7356535399344
1021
1241.384270929978
1031
0.0
1002
}
1002
{
1000
PINS2
1011
934.0469751677579
1021
1231.97485575671
1031
0.0
1002
}
1002
{
1000
C
1070
     1
1002
}
1001
GENIUS_GENOBJ-N-REC_13
1002
{
1000
OWNER
1000
GEN
1002
}
1001
GENIUS_GENODEF_13
1002
{
1000
HIER
1070
     0
1002
}
1002
{
1000
MANEDIT
1070
     0
1002
}
1002
{
1000
NOSEL
1070
     0
1002
}
1002
{
1000
BEHIND
1070
     0
1002
}
1002
{
1000
OTHER
1070
     0
1002
}
1002
{
1000
REACTOR
1002
}
  0
TEXT
  5
1CD5
330
1F
100
AcDbEntity
  8
0
100
AcDbText
 10
915.5852441573935
 20
965.3785166768736
 30
0.0
 40
5.4
  1
PL25/4
100
AcDbText
  0
LWPOLYLINE
  5
1CD6
330
1F
100
AcDbEntity
  8
0
100
AcDbPolyline
 90
        4
 70
     1
 43
0.0
 10
914.1318559331496
 20
973.1146735962298
 10
940.4431775609731
 20
973.1146735962298
 10
940.4431775609731
 20
963.7052584229616
 10
914.1318559331496
 20
963.7052584229616
1001
GENIUS_GENREC_14
1002
{
1000
PYDIR
1011
914.1318559331496
1021
963.7052584229616
1031
0.0
1002
}
1002
{
1000
PXDIR
1011
940.4431775609731
1021
973.1146735962298
1031
0.0
1002
}
1002
{
1000
PORI
1011
914.1318559331496
1021
973.1146735962298
1031
0.0
1002
}
1002
{
1000
PINS
1011
914.1318559331496
1021
973.1146735962298
1031
0.0
1002
}
1002
{
1000
PINS2
1011
940.4431775609731
1021
963.7052584229616
1031
0.0
1002
}
1002
{
1000
C
1070
     1
1002
}
1001
GENIUS_GENOBJ-N-REC_13
1002
{
1000
OWNER
1000
GEN
1002
}
1001
GENIUS_GENODEF_13
1002
{
1000
HIER
1070
     0
1002
}
1002
{
1000
MANEDIT
1070
     0
1002
}
1002
{
1000
NOSEL
1070
     0
1002
}
1002
{
1000
BEHIND
1070
     0
1002
}
1002
{
1000
OTHER
1070
     0
1002
}
1002
{
1000
REACTOR
1002
}
  0
POINT
  5
1CD9
330
1F
100
AcDbEntity
  8
0
 60
     1
100
AcDbPoint
 10
-1875.760056743074
 20
413.232124218603
 30
0.0
1001
GENIUS_GENOBJ-N-CRS_13
1002
{
1000
OWNER
1000
GEN
1002
}
1001
GENIUS_GENOLIS_13
1002
{
1000
ENT
1005
0
1005
0
1005
0
1005
1C7F
1002
}
1001
GENIUS_GENOENT_13
1002
{
1000
MYREF
1005
1CD9
1002
}
1002
{
1000
GRP
1005
0
1002
}
1001
GENIUS_GENODEF_13
1002
{
1000
HIER
1070
    10
1002
}
1002
{
1000
MANEDIT
1070
     1
1002
}
1002
{
1000
NOSEL
1070
     0
1002
}
1002
{
1000
BEHIND
1070
     0
1002
}
1002
{
1000
OTHER
1070
     0
1002
}
1002
{
1000
REACTOR
1002
}
  0
POINT
  5
1CDA
330
1F
100
AcDbEntity
  8
0
 60
     1
100
AcDbPoint
 10
-1887.084641965929
 20
422.1077106972392
 30
0.0
1001
GENIUS_GENOBJ-N-CRS_13
1002
{
1000
OWNER
1000
GEN
1002
}
1001
GENIUS_GENOLIS_13
1002
{
1000
ENT
1005
0
1005
0
1005
0
1005
1C7E
1002
}
1001
GENIUS_GENOENT_13
1002
{
1000
MYREF
1005
1CDA
1002
}
1002
{
1000
GRP
1005
0
1002
}
1001
GENIUS_GENODEF_13
1002
{
1000
HIER
1070
    10
1002
}
1002
{
1000
MANEDIT
1070
     1
1002
}
1002
{
1000
NOSEL
1070
     0
1002
}
1002
{
1000
BEHIND
1070
     0
1002
}
1002
{
1000
OTHER
1070
     0
1002
}
1002
{
1000
REACTOR
1002
}
  0
POINT
  5
1CDB
330
1F
100
AcDbEntity
  8
0
 60
     1
100
AcDbPoint
 10
-1880.725968268092
 20
413.232124218603
 30
0.0
1001
GENIUS_GENOBJ-N-CRS_13
1002
{
1000
OWNER
1000
GEN
1002
}
1001
GENIUS_GENOLIS_13
1002
{
1000
ENT
1005
0
1005
0
1005
0
1005
1C7D
1002
}
1001
GENIUS_GENOENT_13
1002
{
1000
MYREF
1005
1CDB
1002
}
1002
{
1000
GRP
1005
0
1002
}
1001
GENIUS_GENODEF_13
1002
{
1000
HIER
1070
    10
1002
}
1002
{
1000
MANEDIT
1070
     1
1002
}
1002
{
1000
NOSEL
1070
     0
1002
}
1002
{
1000
BEHIND
1070
     0
1002
}
1002
{
1000
OTHER
1070
     0
1002
}
1002
{
1000
REACTOR
1002
}
  0
LINE
  5
238D
330
1F
100
AcDbEntity
  8
AM_7
100
AcDbLine
 10
469.7713795456998
 20
1082.288792260595
 30
0.0
 11
460.3087121198523
 21
1082.288792260595
 31
0.0
  0
LINE
  5
238E
330
1F
100
AcDbEntity
  8
0
  6
Continuous
 48
3.0
100
AcDbLine
 10
487.1701275497223
 20
989.6057772366825
 30
0.0
 11
352.1701275497223
 21
989.6057772366809
 31
0.0
1001
ACAD
1000
ASC_BOUNDS
1002
{
1070
    19
1002
}
  0
LINE
  5
238F
330
1F
100
AcDbEntity
  8
0
  6
Continuous
 48
3.0
100
AcDbLine
 10
352.1701275497219
 20
1003.905777236681
 30
0.0
 11
487.1701275497218
 21
1003.905777236678
 31
0.0
1001
ACAD
1000
ASC_BOUNDS
1002
{
1070
    19
1002
}
  0
LINE
  5
2390
330
1F
100
AcDbEntity
  8
0
  6
Continuous
 48
3.0
100
AcDbLine
 10
352.1701275497223
 20
994.9057772366806
 30
0.0
 11
487.1701275497223
 21
994.9057772366781
 31
0.0
1001
ACAD
1000
ASC_BOUNDS
1002
{
1070
    19
1002
}
  0
LINE
  5
2391
330
1F
100
AcDbEntity
  8
0
  6
Continuous
 48
3.0
100
AcDbLine
 10
352.1701275497221
 20
1003.405777236681
 30
0.0
 11
487.1701275497218
 21
1003.405777236678
 31
0.0
1001
ACAD
1000
ASC_BOUNDS
1002
{
1070
    19
1002
}
  0
LINE
  5
2392
330
1F
100
AcDbEntity
  8
0
  6
Continuous
 48
3.0
100
AcDbLine
 10
352.1701275497221
 20
1001.405777236681
 30
0.0
 11
487.1701275497221
 21
1001.405777236678
 31
0.0
1001
ACAD
1000
ASC_BOUNDS
1002
{
1070
    19
1002
}
  0
LINE
  5
2393
330
1F
100
AcDbEntity
  8
0
  6
Continuous
 48
3.0
100
AcDbLine
 10
487.1701275497218
 20
993.4057772366825
 30
0.0
 11
352.1701275497223
 21
993.4057772366802
 31
0.0
1001
ACAD
1000
ASC_BOUNDS
1002
{
1070
    19
1002
}
  0
LINE
  5
2394
330
1F
100
AcDbEntity
  8
0
  6
Continuous
 48
3.0
100
AcDbLine
 10
487.1701275497218
 20
990.905777236682
 30
0.0
 11
352.1701275497223
 21
990.9057772366804
 31
0.0
1001
ACAD
1000
ASC_BOUNDS
1002
{
1070
    19
1002
}
  0
LINE
  5
2395
102
{ACAD_REACTORS
330
2558
102
}
330
1F
100
AcDbEntity
  8
0
  6
Continuous
 48
3.0
100
AcDbLine
 10
352.1701275497223
 20
1113.988792260594
 30
0.0
 11
487.1701275497223
 21
1113.988792260594
 31
0.0
1001
ACAD
1000
ASC_BOUNDS
1002
{
1070
    19
1002
}
  0
LINE
  5
2396
330
1F
100
AcDbEntity
  8
0
  6
Continuous
 48
3.0
100
AcDbLine
 10
352.1701275497223
 20
1077.588792260595
 30
0.0
 11
487.1701275497223
 21
1077.588792260595
 31
0.0
1001
ACAD
1000
ASC_BOUNDS
1002
{
1070
    19
1002
}
  0
LINE
  5
2397
330
1F
100
AcDbEntity
  8
AM_7
100
AcDbLine
 10
267.013853876424
 20
959.9057772366785
 30
0.0
 11
571.495065554745
 21
959.9057772366784
 31
0.0
  0
LINE
  5
2398
102
{ACAD_REACTORS
330
2561
102
}
330
1F
100
AcDbEntity
  8
0
  6
Continuous
 48
3.0
100
AcDbLine
 10
299.6701275497216
 20
988.9057772366783
 30
0.0
 11
539.6701275497219
 21
988.9057772366784
 31
0.0
1001
ACAD
1000
ASC_BOUNDS
1002
{
1070
    19
1002
}
  0
LINE
  5
2399
330
1F
100
AcDbEntity
  8
0
  6
Continuous
 48
3.0
100
AcDbLine
 10
299.6701275497216
 20
970.8057772366801
 30
0.0
 11
539.6701275497219
 21
970.8057772366784
 31
0.0
  0
LINE
  5
239A
330
1F
100
AcDbEntity
  8
0
  6
Continuous
 48
3.0
100
AcDbLine
 10
299.6701275497216
 20
968.40577723668
 30
0.0
 11
539.6701275497219
 21
968.4057772366784
 31
0.0
  0
LINE
  5
239B
330
1F
100
AcDbEntity
  8
0
  6
Continuous
 48
3.0
100
AcDbLine
 10
299.6701275497216
 20
951.4057772366822
 30
0.0
 11
539.6701275497219
 21
951.4057772366783
 31
0.0
  0
LINE
  5
239C
330
1F
100
AcDbEntity
  8
0
  6
Continuous
 48
3.0
100
AcDbLine
 10
299.6701275497216
 20
949.0057772366823
 30
0.0
 11
539.6701275497219
 21
949.0057772366784
 31
0.0
  0
LINE
  5
239D
102
{ACAD_REACTORS
330
2552
330
2561
102
}
330
1F
100
AcDbEntity
  8
0
  6
Continuous
 48
3.0
100
AcDbLine
 10
299.6701275497216
 20
930.9057772366784
 30
0.0
 11
539.6701275497216
 21
930.9057772366784
 31
0.0
  0
LINE
  5
239E
330
1F
100
AcDbEntity
  8
0
  6
Continuous
 48
3.0
100
AcDbLine
 10
299.6701275497214
 20
1066.788792260594
 30
0.0
 11
539.6701275497216
 21
1066.788792260594
 31
0.0
  0
LINE
  5
239F
330
1F
100
AcDbEntity
  8
0
  6
Continuous
 48
3.0
100
AcDbLine
 10
299.6701275497216
 20
1124.788792260594
 30
0.0
 11
539.6701275497219
 21
1124.788792260594
 31
0.0
1001
ACAD
1000
ASC_BOUNDS
1002
{
1070
    19
1002
}
  0
LINE
  5
23A0
330
1F
100
AcDbEntity
  8
AM_7
100
AcDbLine
 10
267.013853876424
 20
1095.788792260594
 30
0.0
 11
571.8107829973832
 21
1095.788792260594
 31
0.0
  0
LINE
  5
23A1
102
{ACAD_REACTORS
330
25AD
102
}
330
1F
100
AcDbEntity
  8
0
  6
Continuous
 48
3.0
100
AcDbLine
 10
299.6701275497216
 20
884.0137132233364
 30
0.0
 11
539.6701275497219
 21
884.0137132233367
 31
0.0
1001
ACAD
1000
ASC_BOUNDS
1002
{
1070
    19
1002
}
  0
LINE
  5
23A2
102
{ACAD_REACTORS
330
25AD
102
}
330
1F
100
AcDbEntity
  8
0
  6
Continuous
 48
3.0
100
AcDbLine
 10
299.6701275497216
 20
826.0137132233367
 30
0.0
 11
539.6701275497216
 21
826.0137132233365
 31
0.0
  0
LINE
  5
23A3
330
1F
100
AcDbEntity
  8
AM_7
100
AcDbLine
 10
267.013853876424
 20
855.0137132233366
 30
0.0
 11
571.495065554745
 21
855.0137132233365
 31
0.0
  0
LINE
  5
23A4
330
1F
100
AcDbEntity
  8
0
  6
Continuous
 48
3.0
100
AcDbLine
 10
299.6701275497216
 20
863.5137132233383
 30
0.0
 11
539.670127549722
 21
863.5137132233365
 31
0.0
  0
LINE
  5
23A5
330
1F
100
AcDbEntity
  8
0
  6
Continuous
 48
3.0
100
AcDbLine
 10
299.6701275497216
 20
865.913713223338
 30
0.0
 11
539.670127549722
 21
865.9137132233363
 31
0.0
  0
LINE
  5
23A6
330
1F
100
AcDbEntity
  8
0
  6
Continuous
 48
3.0
100
AcDbLine
 10
299.6701275497214
 20
844.1137132233404
 30
0.0
 11
539.670127549722
 21
844.1137132233363
 31
0.0
  0
LINE
  5
23A7
330
1F
100
AcDbEntity
  8
0
  6
Continuous
 48
3.0
100
AcDbLine
 10
299.6701275497214
 20
846.5137132233401
 30
0.0
 11
539.670127549722
 21
846.5137132233364
 31
0.0
  0
LINE
  5
23A8
330
1F
100
AcDbEntity
  8
AM_7
100
AcDbLine
 10
419.6701275497225
 20
1063.730825568686
 30
0.0
 11
419.6701275497223
 21
1126.545107983296
 31
0.0
  0
LINE
  5
23A9
330
1F
100
AcDbEntity
  8
0
  6
Continuous
 48
3.0
100
AcDbLine
 10
269.6701275497217
 20
1131.288792260594
 30
0.0
 11
269.6701275497217
 21
1060.288792260594
 31
0.0
  0
LINE
  5
23AA
330
1F
100
AcDbEntity
  8
0
  6
Continuous
 48
3.0
100
AcDbLine
 10
270.1701275497216
 20
1131.788792260594
 30
0.0
 11
270.1701275497216
 21
1098.438792260594
 31
0.0
  0
LINE
  5
23AB
330
1F
100
AcDbEntity
  8
0
  6
Continuous
 48
3.0
100
AcDbLine
 10
299.6701275497216
 20
1131.288792260594
 30
0.0
 11
299.6701275497216
 21
1104.488792260594
 31
0.0
  0
LINE
  5
23AC
330
1F
100
AcDbEntity
  8
0
  6
Continuous
 48
3.0
100
AcDbLine
 10
299.1701275497216
 20
1131.788792260594
 30
0.0
 11
299.1701275497216
 21
1111.788792260594
 31
0.0
  0
LINE
  5
23AD
330
1F
100
AcDbEntity
  8
0
  6
Continuous
 48
3.0
100
AcDbLine
 10
299.3701275497215
 20
1104.488792260594
 30
0.0
 11
343.6701275497223
 21
1104.488792260594
 31
0.0
1001
ACAD
1000
ASC_BOUNDS
1002
{
1070
    19
1005
0
1002
}
  0
LINE
  5
23AE
330
1F
100
AcDbEntity
  8
0
  6
Continuous
 48
3.0
100
AcDbLine
 10
299.3701275497215
 20
1087.088792260594
 30
0.0
 11
343.6701275497223
 21
1087.088792260594
 31
0.0
1001
ACAD
1000
ASC_BOUNDS
1002
{
1070
    19
1005
0
1002
}
  0
LINE
  5
23AF
330
1F
100
AcDbEntity
  8
0
  6
Continuous
 48
3.0
100
AcDbLine
 10
299.6701275497214
 20
1087.088792260594
 30
0.0
 11
299.6701275497216
 21
1060.288792260594
 31
0.0
  0
LINE
  5
23B0
330
1F
100
AcDbEntity
  8
0
  6
Continuous
 48
3.0
100
AcDbLine
 10
299.1701275497216
 20
1059.788792260595
 30
0.0
 11
299.1701275497216
 21
1079.788792260594
 31
0.0
  0
LINE
  5
23B1
330
1F
100
AcDbEntity
  8
0
  6
Continuous
 48
3.0
100
AcDbLine
 10
270.1701275497216
 20
1059.788792260595
 30
0.0
 11
270.1701275497216
 21
1093.138792260594
 31
0.0
  0
LINE
  5
23B2
330
1F
100
AcDbEntity
  8
0
  6
Continuous
 48
3.0
100
AcDbLine
 10
270.1701275497216
 20
1061.902040914646
 30
0.0
 11
299.1701275497216
 21
1061.902040914646
 31
0.0
  0
LINE
  5
23B3
330
1F
100
AcDbEntity
  8
0
  6
Continuous
 48
3.0
100
AcDbLine
 10
270.1701275497216
 20
1059.788792260595
 30
0.0
 11
299.1701275497216
 21
1059.788792260595
 31
0.0
  0
LINE
  5
23B4
330
1F
100
AcDbEntity
  8
0
  6
Continuous
 48
3.0
100
AcDbLine
 10
270.1701275497216
 20
1069.788792260594
 30
0.0
 11
299.1701275497216
 21
1069.788792260594
 31
0.0
  0
LINE
  5
23B5
330
1F
100
AcDbEntity
  8
0
  6
Continuous
 48
3.0
100
AcDbLine
 10
269.6701275497217
 20
1060.288792260594
 30
0.0
 11
270.1701275497216
 21
1059.788792260595
 31
0.0
  0
LINE
  5
23B6
330
1F
100
AcDbEntity
  8
0
  6
Continuous
 48
3.0
100
AcDbLine
 10
299.6701275497216
 20
1060.288792260594
 30
0.0
 11
299.1701275497216
 21
1059.788792260595
 31
0.0
  0
LINE
  5
23B7
330
1F
100
AcDbEntity
  8
0
  6
Continuous
 48
3.0
100
AcDbLine
 10
269.6701275497217
 20
1098.038792260594
 30
0.0
 11
292.1701275497217
 21
1098.038792260594
 31
0.0
  0
LINE
  5
23B8
330
1F
100
AcDbEntity
  8
0
  6
Continuous
 48
3.0
100
AcDbLine
 10
270.1701275497216
 20
1098.438792260594
 30
0.0
 11
290.6701275497217
 21
1098.438792260594
 31
0.0
  0
LINE
  5
23B9
330
1F
100
AcDbEntity
  8
0
  6
Continuous
 48
3.0
100
AcDbLine
 10
270.1701275497216
 20
1093.138792260594
 30
0.0
 11
290.6701275497217
 21
1093.138792260594
 31
0.0
  0
LINE
  5
23BA
330
1F
100
AcDbEntity
  8
0
  6
Continuous
 48
3.0
100
AcDbLine
 10
269.6701275497217
 20
1093.538792260594
 30
0.0
 11
292.1701275497219
 21
1093.538792260594
 31
0.0
  0
LINE
  5
23BB
330
1F
100
AcDbEntity
  8
0
  6
Continuous
 48
3.0
100
AcDbLine
 10
273.3701275497215
 20
1098.038792260594
 30
0.0
 11
273.3701275497215
 21
1093.538792260594
 31
0.0
  0
LINE
  5
23BC
330
1F
100
AcDbEntity
  8
AM_7
100
AcDbLine
 10
278.3701275497215
 20
1098.43849011352
 30
0.0
 11
278.3701275497215
 21
1093.109515794523
 31
0.0
  0
CIRCLE
  5
23BD
330
1F
100
AcDbEntity
  8
0
  6
Continuous
 48
3.0
100
AcDbCircle
 10
278.3701275497215
 20
1095.788792260594
 30
0.0
 40
1.78
  0
ARC
  5
23BE
330
1F
100
AcDbEntity
  8
AM_4
  6
Continuous
 48
2.5
100
AcDbCircle
 10
278.3701275497215
 20
1095.788792260594
 30
0.0
 40
2.0
100
AcDbArc
 50
11.53695903281813
 51
281.5369590328181
  0
LINE
  5
23BF
330
1F
100
AcDbEntity
  8
0
  6
Continuous
 48
3.0
100
AcDbLine
 10
269.6701275497217
 20
1093.538792260594
 30
0.0
 11
270.1701275497216
 21
1093.138792260594
 31
0.0
  0
LINE
  5
23C0
330
1F
100
AcDbEntity
  8
0
  6
Continuous
 48
3.0
100
AcDbLine
 10
269.6701275497217
 20
1098.038792260594
 30
0.0
 11
270.1701275497216
 21
1098.438792260594
 31
0.0
  0
LINE
  5
23C1
330
1F
100
AcDbEntity
  8
0
  6
Continuous
 48
3.0
100
AcDbLine
 10
299.3701275497215
 20
1109.788792260594
 30
0.0
 11
299.3701275497217
 21
1081.788792260594
 31
0.0
  0
LWPOLYLINE
  5
23C2
330
1F
100
AcDbEntity
  8
0
  6
Continuous
 48
3.0
100
AcDbPolyline
 90
        7
 70
     0
 43
0.0
 10
299.3701275497215
 20
1109.788792260594
 10
295.6701275497216
 20
1109.788792260594
 42
0.4142135623730951
 10
292.1701275497217
 20
1106.288792260595
 10
292.1701275497217
 20
1085.288792260594
 42
0.4142135623730951
 10
295.6701275497216
 20
1081.788792260594
 10
299.3701275497215
 20
1081.788792260594
 10
299.3701275497215
 20
1109.788792260594
  0
LINE
  5
23C3
330
1F
100
AcDbEntity
  8
AM_7
100
AcDbLine
 10
287.8701275497215
 20
1098.43849011352
 30
0.0
 11
287.8701275497215
 21
1093.109515794523
 31
0.0
  0
ARC
  5
23C4
330
1F
100
AcDbEntity
  8
AM_4
  6
Continuous
 48
2.5
100
AcDbCircle
 10
287.8701275497215
 20
1095.788792260594
 30
0.0
 40
2.0
100
AcDbArc
 50
11.53695903281813
 51
281.5369590328181
  0
CIRCLE
  5
23C5
330
1F
100
AcDbEntity
  8
0
  6
Continuous
 48
3.0
100
AcDbCircle
 10
287.8701275497215
 20
1095.788792260594
 30
0.0
 40
1.78
  0
ARC
  5
23C6
330
1F
100
AcDbEntity
  8
0
  6
Continuous
 48
3.0
100
AcDbCircle
 10
295.6701275497219
 20
1084.788792260594
 30
0.0
 40
3.5
100
AcDbArc
 50
180.0
 51
270.0
  0
ARC
  5
23C7
330
1F
100
AcDbEntity
  8
0
  6
Continuous
 48
3.0
100
AcDbCircle
 10
295.6701275497214
 20
1085.288792260594
 30
0.0
 40
3.5
100
AcDbArc
 50
180.0
 51
270.0
  0
ARC
  5
23C8
330
1F
100
AcDbEntity
  8
0
  6
Continuous
 48
3.0
100
AcDbCircle
 10
295.6701275497219
 20
1084.788792260594
 30
0.0
 40
5.0
100
AcDbArc
 50
180.0
 51
270.0
  0
LINE
  5
23C9
330
1F
100
AcDbEntity
  8
0
  6
Continuous
 48
3.0
100
AcDbLine
 10
290.6701275497217
 20
1093.138792260594
 30
0.0
 11
290.6701275497219
 21
1084.788792260594
 31
0.0
  0
LINE
  5
23CA
330
1F
100
AcDbEntity
  8
0
  6
Continuous
 48
3.0
100
AcDbLine
 10
292.1701275497219
 20
1093.538792260594
 30
0.0
 11
292.1701275497219
 21
1084.788792260594
 31
0.0
  0
LINE
  5
23CB
330
1F
100
AcDbEntity
  8
0
  6
Continuous
 48
3.0
100
AcDbLine
 10
292.1701275497217
 20
1085.288792260594
 30
0.0
 11
292.1701275497214
 21
1090.288792260594
 31
0.0
  0
LINE
  5
23CC
330
1F
100
AcDbEntity
  8
0
  6
Continuous
 48
3.0
100
AcDbLine
 10
290.6701275497217
 20
1093.138792260594
 30
0.0
 11
291.0701275497217
 21
1093.538792260594
 31
0.0
  0
CIRCLE
  5
23CD
330
1F
100
AcDbEntity
  8
0
  6
Continuous
 48
3.0
100
AcDbCircle
 10
295.7701275497216
 20
1085.538792260594
 30
0.0
 40
3.25
  0
LINE
  5
23CE
330
1F
100
AcDbEntity
  8
0
  6
Continuous
 48
3.0
100
AcDbLine
 10
295.6701275497219
 20
1081.288792260594
 30
0.0
 11
299.6701275497216
 21
1081.288792260594
 31
0.0
  0
LINE
  5
23CF
330
1F
100
AcDbEntity
  8
0
  6
Continuous
 48
3.0
100
AcDbLine
 10
295.6701275497219
 20
1079.788792260594
 30
0.0
 11
299.1701275497216
 21
1079.788792260594
 31
0.0
  0
LINE
  5
23D0
330
1F
100
AcDbEntity
  8
0
  6
Continuous
 48
3.0
100
AcDbLine
 10
299.3701275497217
 20
1081.788792260594
 30
0.0
 11
295.6701275497216
 21
1081.788792260594
 31
0.0
  0
LINE
  5
23D1
330
1F
100
AcDbEntity
  8
0
  6
Continuous
 48
3.0
100
AcDbLine
 10
299.6701275497216
 20
1080.288792260594
 30
0.0
 11
299.1701275497216
 21
1079.788792260594
 31
0.0
  0
CIRCLE
  5
23D2
330
1F
100
AcDbEntity
  8
0
  6
Continuous
 48
3.0
100
AcDbCircle
 10
295.7701275497216
 20
1085.538792260594
 30
0.0
 40
1.35
  0
ARC
  5
23D3
330
1F
100
AcDbEntity
  8
AM_4
  6
Continuous
 48
2.5
100
AcDbCircle
 10
295.7701275497216
 20
1085.538792260594
 30
0.0
 40
1.5
100
AcDbArc
 50
13.49339882155269
 51
283.4933988215527
  0
CIRCLE
  5
23D4
330
1F
100
AcDbEntity
  8
0
  6
Continuous
 48
3.0
100
AcDbCircle
 10
295.7701275497216
 20
1085.538792260594
 30
0.0
 40
1.75
  0
ARC
  5
23D5
330
1F
100
AcDbEntity
  8
0
  6
Continuous
 48
3.0
100
AcDbCircle
 10
295.6701275497216
 20
1106.788792260594
 30
0.0
 40
3.5
100
AcDbArc
 50
90.0
 51
180.0
  0
ARC
  5
23D6
330
1F
100
AcDbEntity
  8
0
  6
Continuous
 48
3.0
100
AcDbCircle
 10
295.6701275497214
 20
1106.288792260595
 30
0.0
 40
3.5
100
AcDbArc
 50
90.0
 51
180.0
  0
ARC
  5
23D7
330
1F
100
AcDbEntity
  8
0
  6
Continuous
 48
3.0
100
AcDbCircle
 10
295.6701275497216
 20
1106.788792260594
 30
0.0
 40
5.0
100
AcDbArc
 50
90.0
 51
180.0
  0
LINE
  5
23D8
330
1F
100
AcDbEntity
  8
0
  6
Continuous
 48
3.0
100
AcDbLine
 10
292.1701275497217
 20
1106.788792260594
 30
0.0
 11
292.1701275497217
 21
1098.038792260594
 31
0.0
  0
LINE
  5
23D9
330
1F
100
AcDbEntity
  8
0
  6
Continuous
 48
3.0
100
AcDbLine
 10
290.6701275497217
 20
1106.788792260594
 30
0.0
 11
290.6701275497217
 21
1098.438792260594
 31
0.0
  0
LINE
  5
23DA
330
1F
100
AcDbEntity
  8
0
  6
Continuous
 48
3.0
100
AcDbLine
 10
290.6701275497217
 20
1098.438792260594
 30
0.0
 11
291.0701275497217
 21
1098.038792260594
 31
0.0
  0
LINE
  5
23DB
330
1F
100
AcDbEntity
  8
0
  6
Continuous
 48
3.0
100
AcDbLine
 10
292.1701275497217
 20
1101.288792260594
 30
0.0
 11
292.1701275497214
 21
1106.288792260595
 31
0.0
  0
LINE
  5
23DC
330
1F
100
AcDbEntity
  8
0
  6
Continuous
 48
3.0
100
AcDbLine
 10
295.6701275497214
 20
1109.788792260594
 30
0.0
 11
299.3701275497215
 21
1109.788792260594
 31
0.0
  0
CIRCLE
  5
23DD
330
1F
100
AcDbEntity
  8
0
  6
Continuous
 48
3.0
100
AcDbCircle
 10
295.7701275497216
 20
1106.038792260594
 30
0.0
 40
3.25
  0
CIRCLE
  5
23DE
330
1F
100
AcDbEntity
  8
0
  6
Continuous
 48
3.0
100
AcDbCircle
 10
295.7701275497216
 20
1106.038792260594
 30
0.0
 40
1.35
  0
ARC
  5
23DF
330
1F
100
AcDbEntity
  8
AM_4
  6
Continuous
 48
2.5
100
AcDbCircle
 10
295.7701275497216
 20
1106.038792260594
 30
0.0
 40
1.5
100
AcDbArc
 50
13.49339882155269
 51
283.4933988215527
  0
CIRCLE
  5
23E0
330
1F
100
AcDbEntity
  8
0
  6
Continuous
 48
3.0
100
AcDbCircle
 10
295.7701275497216
 20
1106.038792260594
 30
0.0
 40
1.75
  0
LINE
  5
23E1
330
1F
100
AcDbEntity
  8
0
  6
Continuous
 48
3.0
100
AcDbLine
 10
295.6701275497216
 20
1110.288792260594
 30
0.0
 11
299.6701275497219
 21
1110.288792260594
 31
0.0
  0
LINE
  5
23E2
330
1F
100
AcDbEntity
  8
0
  6
Continuous
 48
3.0
100
AcDbLine
 10
295.6701275497216
 20
1111.788792260594
 30
0.0
 11
299.1701275497216
 21
1111.788792260594
 31
0.0
  0
LINE
  5
23E3
330
1F
100
AcDbEntity
  8
0
  6
Continuous
 48
3.0
100
AcDbLine
 10
299.1701275497216
 20
1111.788792260594
 30
0.0
 11
299.6701275497216
 21
1111.288792260594
 31
0.0
  0
LINE
  5
23E4
330
1F
100
AcDbEntity
  8
0
  6
Continuous
 48
3.0
100
AcDbLine
 10
343.6701275497223
 20
1113.288792260594
 30
0.0
 11
352.1701275497223
 21
1113.288792260594
 31
0.0
1001
ACAD
1000
ASC_BOUNDS
1002
{
1070
    19
1002
}
  0
LINE
  5
23E5
330
1F
100
AcDbEntity
  8
0
  6
Continuous
 48
3.0
100
AcDbLine
 10
343.6701275497223
 20
1078.288792260594
 30
0.0
 11
352.1701275497223
 21
1078.288792260594
 31
0.0
1001
ACAD
1000
ASC_BOUNDS
1002
{
1070
    19
1002
}
  0
LINE
  5
23E6
102
{ACAD_REACTORS
330
255B
102
}
330
1F
100
AcDbEntity
  8
0
  6
Continuous
 48
3.0
100
AcDbLine
 10
343.6701275497223
 20
1113.288792260594
 30
0.0
 11
343.6701275497223
 21
1078.288792260594
 31
0.0
  0
LINE
  5
23E7
330
1F
100
AcDbEntity
  8
0
  6
Continuous
 48
3.0
100
AcDbLine
 10
352.1701275497223
 20
1113.988792260594
 30
0.0
 11
352.1701275497223
 21
1077.588792260595
 31
0.0
  0
LINE
  5
23E8
102
{ACAD_REACTORS
330
255E
102
}
330
1F
100
AcDbEntity
  8
AM_7
100
AcDbLine
 10
369.5688755537454
 20
1082.288792260595
 30
0.0
 11
379.1774804412307
 21
1082.288792260595
 31
0.0
  0
CIRCLE
  5
23E9
330
1F
100
AcDbEntity
  8
0
  6
Continuous
 48
3.0
100
AcDbCircle
 10
374.6701275497226
 20
1082.288792260595
 30
0.0
 40
2.399999999999999
  0
ARC
  5
23EA
330
1F
100
AcDbEntity
  8
AM_4
  6
Continuous
 48
2.5
100
AcDbCircle
 10
374.6701275497226
 20
1082.288792260595
 30
0.0
 40
3.0
100
AcDbArc
 50
197.2093364051096
 51
104.9409487366493
  0
LINE
  5
23EB
330
1F
100
AcDbEntity
  8
AM_7
100
AcDbLine
 10
374.6701275497226
 20
1077.788792260594
 30
0.0
 11
374.670127549723
 21
1086.170005587379
 31
0.0
  0
LINE
  5
23EC
102
{ACAD_REACTORS
330
255E
102
}
330
1F
100
AcDbEntity
  8
AM_7
100
AcDbLine
 10
369.845238937914
 20
1109.288792260594
 30
0.0
 11
378.9731160616448
 21
1109.288792260594
 31
0.0
  0
CIRCLE
  5
23ED
330
1F
100
AcDbEntity
  8
0
  6
Continuous
 48
3.0
100
AcDbCircle
 10
374.6701275497226
 20
1109.288792260594
 30
0.0
 40
2.399999999999999
  0
ARC
  5
23EE
330
1F
100
AcDbEntity
  8
AM_4
  6
Continuous
 48
2.5
100
AcDbCircle
 10
374.6701275497226
 20
1109.288792260594
 30
0.0
 40
3.0
100
AcDbArc
 50
197.2093364051096
 51
104.9409487366493
  0
LINE
  5
23EF
102
{ACAD_REACTORS
330
2555
102
}
330
1F
100
AcDbEntity
  8
AM_7
100
AcDbLine
 10
374.670127549723
 20
1105.440116890777
 30
0.0
 11
374.6701275497226
 21
1113.788792260594
 31
0.0
  0
LINE
  5
23F0
330
1F
100
AcDbEntity
  8
AM_7
100
AcDbLine
 10
464.6701275497226
 20
1077.788792260594
 30
0.0
 11
464.6701275497226
 21
1086.078811121249
 31
0.0
  0
CIRCLE
  5
23F1
330
1F
100
AcDbEntity
  8
0
  6
Continuous
 48
3.0
100
AcDbCircle
 10
464.6701275497226
 20
1082.288792260595
 30
0.0
 40
2.399999999999999
  0
ARC
  5
23F2
330
1F
100
AcDbEntity
  8
AM_4
  6
Continuous
 48
2.5
100
AcDbCircle
 10
464.6701275497226
 20
1082.288792260595
 30
0.0
 40
3.0
100
AcDbArc
 50
75.05905126335068
 51
342.7906635948904
  0
LINE
  5
23F3
102
{ACAD_REACTORS
330
2555
102
}
330
1F
100
AcDbEntity
  8
AM_7
100
AcDbLine
 10
464.6701275497226
 20
1105.474885426635
 30
0.0
 11
464.6701275497226
 21
1113.788792260594
 31
0.0
  0
LINE
  5
23F4
330
1F
100
AcDbEntity
  8
AM_7
100
AcDbLine
 10
469.495016161531
 20
1109.288792260594
 30
0.0
 11
460.3087121198523
 21
1109.288792260594
 31
0.0
  0
CIRCLE
  5
23F5
330
1F
100
AcDbEntity
  8
0
  6
Continuous
 48
3.0
100
AcDbCircle
 10
464.6701275497226
 20
1109.288792260594
 30
0.0
 40
2.399999999999999
  0
ARC
  5
23F6
330
1F
100
AcDbEntity
  8
AM_4
  6
Continuous
 48
2.5
100
AcDbCircle
 10
464.6701275497226
 20
1109.288792260594
 30
0.0
 40
3.0
100
AcDbArc
 50
75.05905126335068
 51
342.7906635948904
  0
LINE
  5
23F7
102
{ACAD_REACTORS
330
2552
102
}
330
1F
100
AcDbEntity
  8
0
  6
Continuous
 48
3.0
100
AcDbLine
 10
299.1701275497214
 20
923.9057772366784
 30
0.0
 11
299.1701275497216
 21
992.9057772366784
 31
0.0
  0
LINE
  5
23F8
102
{ACAD_REACTORS
330
2597
102
}
330
1F
100
AcDbEntity
  8
0
  6
Continuous
 48
3.0
100
AcDbLine
 10
299.6701275497216
 20
992.4057772366783
 30
0.0
 11
299.6701275497216
 21
924.4057772366785
 31
0.0
1001
ACAD
1000
ASC_BOUNDS
1002
{
1070
    19
1005
0
1002
}
  0
LINE
  5
23F9
330
1F
100
AcDbEntity
  8
0
  6
Continuous
 48
3.0
100
AcDbLine
 10
270.1701275497216
 20
923.9057772366782
 30
0.0
 11
270.1701275497216
 21
992.9057772366784
 31
0.0
  0
LINE
  5
23FA
102
{ACAD_REACTORS
330
254F
330
2597
102
}
330
1F
100
AcDbEntity
  8
0
  6
Continuous
 48
3.0
100
AcDbLine
 10
269.6701275497217
 20
992.4057772366783
 30
0.0
 11
269.6701275497217
 21
924.4057772366783
 31
0.0
1001
ACAD
1000
ASC_BOUNDS
1002
{
1070
    19
1005
0
1005
0
1005
0
1005
0
1005
0
1005
0
1005
0
1005
0
1005
0
1005
0
1005
0
1005
0
1002
}
  0
LINE
  5
23FB
330
1F
100
AcDbEntity
  8
AM_7
100
AcDbLine
 10
284.6701275497217
 20
970.8848434256555
 30
0.0
 11
284.6701275497217
 21
948.7242757577163
 31
0.0
  0
CIRCLE
  5
23FC
330
1F
100
AcDbEntity
  8
0
  6
Continuous
 48
3.0
100
AcDbCircle
 10
284.6701275497217
 20
959.9057772366784
 30
0.0
 40
10.0
  0
LINE
  5
23FD
330
1F
100
AcDbEntity
  8
0
  6
Continuous
 48
3.0
100
AcDbLine
 10
270.1701275497216
 20
1129.675543606543
 30
0.0
 11
299.1701275497216
 21
1129.675543606543
 31
0.0
  0
LINE
  5
23FE
330
1F
100
AcDbEntity
  8
0
  6
Continuous
 48
3.0
100
AcDbLine
 10
270.1701275497216
 20
1121.788792260594
 30
0.0
 11
299.1701275497216
 21
1121.788792260594
 31
0.0
  0
LINE
  5
23FF
330
1F
100
AcDbEntity
  8
0
  6
Continuous
 48
3.0
100
AcDbLine
 10
270.1701275497216
 20
1131.788792260594
 30
0.0
 11
299.1701275497216
 21
1131.788792260594
 31
0.0
  0
LINE
  5
2400
330
1F
100
AcDbEntity
  8
0
  6
Continuous
 48
3.0
100
AcDbLine
 10
269.6701275497217
 20
1131.288792260594
 30
0.0
 11
270.1701275497216
 21
1131.788792260594
 31
0.0
  0
LINE
  5
2401
330
1F
100
AcDbEntity
  8
0
  6
Continuous
 48
3.0
100
AcDbLine
 10
299.1701275497216
 20
1131.788792260594
 30
0.0
 11
299.6701275497216
 21
1131.288792260594
 31
0.0
  0
LINE
  5
2402
330
1F
100
AcDbEntity
  8
0
  6
Continuous
 48
3.0
100
AcDbLine
 10
270.1701275497219
 20
924.4223938859503
 30
0.0
 11
299.1701275497216
 21
924.4223938859503
 31
0.0
  0
LINE
  5
2403
330
1F
100
AcDbEntity
  8
0
  6
Continuous
 48
3.0
100
AcDbLine
 10
299.1701275497216
 20
923.9057772366782
 30
0.0
 11
270.1701275497216
 21
923.9057772366782
 31
0.0
  0
LINE
  5
2404
330
1F
100
AcDbEntity
  8
0
  6
Continuous
 48
3.0
100
AcDbLine
 10
270.1701275497219
 20
934.2349084806468
 30
0.0
 11
299.1701275497216
 21
934.2349084806468
 31
0.0
  0
LINE
  5
2405
330
1F
100
AcDbEntity
  8
0
  6
Continuous
 48
3.0
100
AcDbLine
 10
270.1701275497216
 20
923.9057772366782
 30
0.0
 11
269.6701275497217
 21
924.4057772366783
 31
0.0
  0
LINE
  5
2406
102
{ACAD_REACTORS
330
2552
102
}
330
1F
100
AcDbEntity
  8
0
  6
Continuous
 48
3.0
100
AcDbLine
 10
299.6701275497216
 20
924.4057772366785
 30
0.0
 11
299.1701275497216
 21
923.9057772366782
 31
0.0
  0
LINE
  5
2407
330
1F
100
AcDbEntity
  8
0
  6
Continuous
 48
3.0
100
AcDbLine
 10
270.1701275497219
 20
982.9057772366782
 30
0.0
 11
299.1701275497216
 21
982.9057772366782
 31
0.0
  0
LINE
  5
2408
330
1F
100
AcDbEntity
  8
0
  6
Continuous
 48
3.0
100
AcDbLine
 10
270.1701275497219
 20
990.7925285826264
 30
0.0
 11
299.1701275497216
 21
990.7925285826264
 31
0.0
  0
LINE
  5
2409
330
1F
100
AcDbEntity
  8
0
  6
Continuous
 48
3.0
100
AcDbLine
 10
299.1701275497216
 20
992.9057772366784
 30
0.0
 11
270.1701275497216
 21
992.9057772366784
 31
0.0
  0
ARC
  5
240A
330
1F
100
AcDbEntity
  8
AM_4
  6
Continuous
 48
2.5
100
AcDbCircle
 10
284.6701275497217
 20
959.9057772366784
 30
0.0
 40
6.599999999999999
100
AcDbArc
 50
172.1625202369229
 51
82.16252023691003
  0
CIRCLE
  5
240B
330
1F
100
AcDbEntity
  8
0
  6
Continuous
 48
3.0
100
AcDbCircle
 10
284.6701275497217
 20
959.9057772366784
 30
0.0
 40
5.69999999999996
  0
LINE
  5
240C
330
1F
100
AcDbEntity
  8
0
  6
Continuous
 48
3.0
100
AcDbLine
 10
270.1701275497216
 20
992.9057772366784
 30
0.0
 11
269.6701275497217
 21
992.4057772366783
 31
0.0
  0
LINE
  5
240D
330
1F
100
AcDbEntity
  8
AM_7
100
AcDbLine
 10
293.670127549723
 20
978.4136035496558
 30
0.0
 11
293.670127549723
 21
967.0341505749039
 31
0.0
  0
CIRCLE
  5
240E
330
1F
100
AcDbEntity
  8
0
  6
Continuous
 48
3.0
100
AcDbCircle
 10
293.670127549723
 20
972.7057772366784
 30
0.0
 40
3.9
  0
LINE
  5
240F
330
1F
100
AcDbEntity
  8
0
  6
Continuous
 48
3.0
100
AcDbLine
 10
295.9707487996991
 20
969.5566278492789
 30
0.0
 11
290.5209781623237
 21
975.0063984866544
 31
0.0
  0
LINE
  5
2410
330
1F
100
AcDbEntity
  8
0
  6
Continuous
 48
3.0
100
AcDbLine
 10
296.8192769371228
 20
970.4051559867027
 30
0.0
 11
291.3695062997474
 21
975.8549266240782
 31
0.0
  0
CIRCLE
  5
2411
330
1F
100
AcDbEntity
  8
0
  6
Continuous
 48
3.0
100
AcDbCircle
 10
293.670127549723
 20
972.7057772366784
 30
0.0
 40
5.0
  0
LINE
  5
2412
330
1F
100
AcDbEntity
  8
AM_7
100
AcDbLine
 10
300.275484800995
 20
972.7057772366784
 30
0.0
 11
287.6833229735439
 21
972.7057772366784
 31
0.0
  0
LINE
  5
2413
330
1F
100
AcDbEntity
  8
0
  6
Continuous
 48
3.0
100
AcDbLine
 10
299.1701275497216
 20
992.9057772366784
 30
0.0
 11
299.6701275497216
 21
992.4057772366783
 31
0.0
  0
LINE
  5
2414
330
1F
100
AcDbEntity
  8
0
  6
Continuous
 48
3.0
100
AcDbLine
 10
299.6701275497216
 20
890.5137132233365
 30
0.0
 11
299.6701275497216
 21
855.0137132233366
 31
0.0
  0
LINE
  5
2415
330
1F
100
AcDbEntity
  8
0
  6
Continuous
 48
3.0
100
AcDbLine
 10
299.1701275497216
 20
891.0137132233364
 30
0.0
 11
299.1701275497216
 21
855.0137132233366
 31
0.0
  0
LINE
  5
2416
102
{ACAD_REACTORS
330
2567
102
}
330
1F
100
AcDbEntity
  8
0
  6
Continuous
 48
3.0
100
AcDbLine
 10
269.6701275497217
 20
890.5137132233365
 30
0.0
 11
269.6701275497217
 21
819.5137132233364
 31
0.0
  0
LINE
  5
2417
330
1F
100
AcDbEntity
  8
0
  6
Continuous
 48
3.0
100
AcDbLine
 10
270.1701275497216
 20
891.0137132233364
 30
0.0
 11
270.1701275497216
 21
855.0137132233366
 31
0.0
  0
LINE
  5
2418
330
1F
100
AcDbEntity
  8
0
  6
Continuous
 48
3.0
100
AcDbLine
 10
299.1701275497216
 20
819.0137132233365
 30
0.0
 11
299.1701275497216
 21
855.0137132233366
 31
0.0
  0
LINE
  5
2419
330
1F
100
AcDbEntity
  8
0
  6
Continuous
 48
3.0
100
AcDbLine
 10
299.6701275497214
 20
855.0137132233366
 30
0.0
 11
299.6701275497216
 21
819.5137132233364
 31
0.0
  0
LINE
  5
241A
330
1F
100
AcDbEntity
  8
0
  6
Continuous
 48
3.0
100
AcDbLine
 10
270.1701275497216
 20
819.0137132233365
 30
0.0
 11
270.1701275497214
 21
855.0137132233366
 31
0.0
  0
LINE
  5
241B
330
1F
100
AcDbEntity
  8
0
  6
Continuous
 48
3.0
100
AcDbLine
 10
270.1701275497216
 20
819.0137132233365
 30
0.0
 11
299.1701275497216
 21
819.0137132233365
 31
0.0
  0
LINE
  5
241C
330
1F
100
AcDbEntity
  8
0
  6
Continuous
 48
3.0
100
AcDbLine
 10
270.1701275497216
 20
822.0896190450734
 30
0.0
 11
299.1701275497216
 21
822.0896190450734
 31
0.0
  0
LINE
  5
241D
330
1F
100
AcDbEntity
  8
0
  6
Continuous
 48
3.0
100
AcDbLine
 10
269.6701275497217
 20
819.5137132233364
 30
0.0
 11
270.1701275497216
 21
819.0137132233365
 31
0.0
  0
LINE
  5
241E
330
1F
100
AcDbEntity
  8
0
  6
Continuous
 48
3.0
100
AcDbLine
 10
299.6701275497216
 20
819.5137132233364
 30
0.0
 11
299.1701275497216
 21
819.0137132233365
 31
0.0
  0
ARC
  5
241F
330
1F
100
AcDbEntity
  8
AM_4
  6
Continuous
 48
2.5
100
AcDbCircle
 10
284.6701275497214
 20
855.0137132233365
 30
0.0
 40
6.599999999999999
100
AcDbArc
 50
172.1625202369229
 51
82.16252023691003
  0
CIRCLE
  5
2420
330
1F
100
AcDbEntity
  8
0
  6
Continuous
 48
3.0
100
AcDbCircle
 10
284.6701275497214
 20
855.0137132233365
 30
0.0
 40
10.0
  0
CIRCLE
  5
2421
330
1F
100
AcDbEntity
  8
0
  6
Continuous
 48
3.0
100
AcDbCircle
 10
284.6701275497214
 20
855.0137132233365
 30
0.0
 40
5.69999999999996
  0
LINE
  5
2422
102
{ACAD_REACTORS
330
2567
102
}
330
1F
100
AcDbEntity
  8
AM_7
100
AcDbLine
 10
284.6701275497214
 20
865.9927794123111
 30
0.0
 11
284.6701275497214
 21
843.8322117443719
 31
0.0
  0
LINE
  5
2423
330
1F
100
AcDbEntity
  8
0
  6
Continuous
 48
3.0
100
AcDbLine
 10
270.1701275497216
 20
891.0137132233364
 30
0.0
 11
299.1701275497216
 21
891.0137132233364
 31
0.0
  0
LINE
  5
2424
330
1F
100
AcDbEntity
  8
0
  6
Continuous
 48
3.0
100
AcDbLine
 10
270.1701275497216
 20
887.9378074015997
 30
0.0
 11
299.1701275497216
 21
887.9378074015997
 31
0.0
  0
LINE
  5
2425
330
1F
100
AcDbEntity
  8
0
  6
Continuous
 48
3.0
100
AcDbLine
 10
269.6701275497217
 20
890.5137132233365
 30
0.0
 11
270.1701275497216
 21
891.0137132233364
 31
0.0
  0
LINE
  5
2426
330
1F
100
AcDbEntity
  8
0
  6
Continuous
 48
3.0
100
AcDbLine
 10
299.1701275497216
 20
891.0137132233364
 30
0.0
 11
299.6701275497216
 21
890.5137132233365
 31
0.0
  0
LINE
  5
2427
330
1F
100
AcDbEntity
  8
0
  6
Continuous
 48
3.0
100
AcDbLine
 10
343.9701275497221
 20
1001.055777236684
 30
0.0
 11
351.8701275497222
 21
1001.055777236683
 31
0.0
  0
LINE
  5
2428
330
1F
100
AcDbEntity
  8
0
  6
Continuous
 48
3.0
100
AcDbLine
 10
352.1701275497219
 20
1000.755777236683
 30
0.0
 11
343.6701275497223
 21
1000.755777236684
 31
0.0
  0
LINE
  5
2429
330
1F
100
AcDbEntity
  8
0
  6
Continuous
 48
3.0
100
AcDbLine
 10
343.9701275497212
 20
989.2557772366838
 30
0.0
 11
352.1662530893666
 21
989.2557772366831
 31
0.0
  0
LINE
  5
242A
330
1F
100
AcDbEntity
  8
0
  6
Continuous
 48
3.0
100
AcDbLine
 10
343.6701275497214
 20
989.5557772366837
 30
0.0
 11
352.1701275497215
 21
989.5557772366835
 31
0.0
  0
LINE
  5
242B
330
1F
100
AcDbEntity
  8
0
  6
Continuous
 48
3.0
100
AcDbLine
 10
343.6701275497214
 20
989.5557772366837
 30
0.0
 11
343.6701275497223
 21
1000.755777236683
 31
0.0
  0
LINE
  5
242C
330
1F
100
AcDbEntity
  8
0
  6
Continuous
 48
3.0
100
AcDbLine
 10
343.9701275497221
 20
1001.055777236684
 30
0.0
 11
343.9701275497212
 21
989.2557772366838
 31
0.0
  0
LINE
  5
242D
330
1F
100
AcDbEntity
  8
0
  6
Continuous
 48
3.0
100
AcDbLine
 10
343.9701275497212
 20
989.2557772366838
 30
0.0
 11
343.6701275497214
 21
989.5557772366837
 31
0.0
  0
LINE
  5
242E
330
1F
100
AcDbEntity
  8
0
  6
Continuous
 48
3.0
100
AcDbLine
 10
343.9701275497221
 20
1001.055777236684
 30
0.0
 11
343.6701275497223
 21
1000.755777236683
 31
0.0
  0
LINE
  5
242F
330
1F
100
AcDbEntity
  8
0
  6
Continuous
 48
3.0
100
AcDbLine
 10
352.1701275497219
 20
1003.905777236681
 30
0.0
 11
352.1701275497223
 21
989.6057772366809
 31
0.0
  0
LINE
  5
2430
330
1F
100
AcDbEntity
  8
0
  6
Continuous
 48
3.0
100
AcDbLine
 10
352.1701275497215
 20
989.3179016997555
 30
0.0
 11
352.1701275497219
 21
1000.755777236683
 31
0.0
  0
LINE
  5
2431
330
1F
100
AcDbEntity
  8
0
  6
Continuous
 48
3.0
100
AcDbLine
 10
351.8701275497222
 20
1001.055777236683
 30
0.0
 11
351.8701275497213
 21
989.2557772366833
 31
0.0
  0
LINE
  5
2432
330
1F
100
AcDbEntity
  8
0
  6
Continuous
 48
3.0
100
AcDbLine
 10
351.2763453323889
 20
988.9057772366784
 30
0.0
 11
349.9701275497216
 21
989.2557772366833
 31
0.0
  0
ARC
  5
2433
330
1F
100
AcDbEntity
  8
0
  6
Continuous
 48
3.0
100
AcDbCircle
 10
351.6701275497214
 20
989.3179016997555
 30
0.0
 40
0.5
100
AcDbArc
 50
304.4875823196603
 51
0.0
  0
LINE
  5
2434
330
1F
100
AcDbEntity
  8
0
  6
Continuous
 48
3.0
100
AcDbLine
 10
369.6701275497219
 20
988.9057772366784
 30
0.0
 11
369.6701275497219
 21
989.6057772366811
 31
0.0
  0
LINE
  5
2435
330
1F
100
AcDbEntity
  8
0
  6
Continuous
 48
3.0
100
AcDbLine
 10
352.1701275497219
 20
1000.755777236683
 30
0.0
 11
351.8701275497222
 21
1001.055777236683
 31
0.0
  0
LINE
  5
2436
102
{ACAD_REACTORS
330
254C
102
}
330
1F
100
AcDbEntity
  8
AM_7
100
AcDbLine
 10
419.6701275497223
 20
985.405635043768
 30
0.0
 11
419.6701275497223
 21
1006.484509133322
 31
0.0
  0
LINE
  5
2437
330
1F
100
AcDbEntity
  8
0
  6
Continuous
 48
3.0
100
AcDbLine
 10
469.6701275497223
 20
988.9057772366784
 30
0.0
 11
469.6701275497223
 21
989.6057772366821
 31
0.0
  0
LINE
  5
2438
330
1F
100
AcDbEntity
  8
0
  6
Continuous
 48
3.0
100
AcDbLine
 10
569.6701275497218
 20
1131.288792260594
 30
0.0
 11
569.6701275497218
 21
1060.288792260594
 31
0.0
  0
LINE
  5
2439
102
{ACAD_REACTORS
330
259A
102
}
330
1F
100
AcDbEntity
  8
0
  6
Continuous
 48
3.0
100
AcDbLine
 10
539.6701275497219
 20
1131.288792260594
 30
0.0
 11
539.6701275497219
 21
1104.488792260594
 31
0.0
  0
LINE
  5
243A
330
1F
100
AcDbEntity
  8
0
  6
Continuous
 48
3.0
100
AcDbLine
 10
540.1701275497218
 20
1131.788792260594
 30
0.0
 11
540.1701275497218
 21
1111.788792260594
 31
0.0
  0
LINE
  5
243B
330
1F
100
AcDbEntity
  8
0
  6
Continuous
 48
3.0
100
AcDbLine
 10
569.1701275497218
 20
1131.788792260594
 30
0.0
 11
569.1701275497218
 21
1098.438792260594
 31
0.0
  0
CIRCLE
  5
243C
330
1F
100
AcDbEntity
  8
0
  6
Continuous
 48
3.0
100
AcDbCircle
 10
551.4701275497221
 20
1095.788792260594
 30
0.0
 40
1.78
  0
ARC
  5
243D
330
1F
100
AcDbEntity
  8
AM_4
  6
Continuous
 48
2.5
100
AcDbCircle
 10
551.4701275497221
 20
1095.788792260594
 30
0.0
 40
2.0
100
AcDbArc
 50
258.4630409671819
 51
168.4630409671818
  0
LINE
  5
243E
330
1F
100
AcDbEntity
  8
0
  6
Continuous
 48
3.0
100
AcDbLine
 10
569.1701275497218
 20
1059.788792260595
 30
0.0
 11
540.1701275497218
 21
1059.788792260595
 31
0.0
  0
LINE
  5
243F
330
1F
100
AcDbEntity
  8
0
  6
Continuous
 48
3.0
100
AcDbLine
 10
569.6701275497218
 20
1093.538792260594
 30
0.0
 11
547.1701275497216
 21
1093.538792260594
 31
0.0
  0
LINE
  5
2440
330
1F
100
AcDbEntity
  8
0
  6
Continuous
 48
3.0
100
AcDbLine
 10
569.1701275497218
 20
1093.138792260594
 30
0.0
 11
548.6701275497218
 21
1093.138792260594
 31
0.0
  0
LINE
  5
2441
330
1F
100
AcDbEntity
  8
0
  6
Continuous
 48
3.0
100
AcDbLine
 10
569.1701275497218
 20
1069.788792260594
 30
0.0
 11
540.1701275497218
 21
1069.788792260594
 31
0.0
  0
LINE
  5
2442
330
1F
100
AcDbEntity
  8
0
  6
Continuous
 48
3.0
100
AcDbLine
 10
569.1701275497218
 20
1061.902040914646
 30
0.0
 11
540.1701275497218
 21
1061.902040914646
 31
0.0
  0
LINE
  5
2443
330
1F
100
AcDbEntity
  8
0
  6
Continuous
 48
3.0
100
AcDbLine
 10
569.1701275497218
 20
1098.438792260594
 30
0.0
 11
548.6701275497218
 21
1098.438792260594
 31
0.0
  0
LINE
  5
2444
330
1F
100
AcDbEntity
  8
0
  6
Continuous
 48
3.0
100
AcDbLine
 10
569.6701275497218
 20
1098.038792260594
 30
0.0
 11
547.1701275497219
 21
1098.038792260594
 31
0.0
  0
LINE
  5
2445
330
1F
100
AcDbEntity
  8
0
  6
Continuous
 48
3.0
100
AcDbLine
 10
539.970127549722
 20
1104.488792260594
 30
0.0
 11
495.6701275497223
 21
1104.488792260594
 31
0.0
1001
ACAD
1000
ASC_BOUNDS
1002
{
1070
    19
1005
0
1002
}
  0
LINE
  5
2446
330
1F
100
AcDbEntity
  8
0
  6
Continuous
 48
3.0
100
AcDbLine
 10
539.970127549722
 20
1087.088792260594
 30
0.0
 11
495.6701275497223
 21
1087.088792260594
 31
0.0
1001
ACAD
1000
ASC_BOUNDS
1002
{
1070
    19
1005
0
1002
}
  0
LINE
  5
2447
102
{ACAD_REACTORS
330
255B
102
}
330
1F
100
AcDbEntity
  8
0
  6
Continuous
 48
3.0
100
AcDbLine
 10
487.1701275497223
 20
1113.288792260594
 30
0.0
 11
495.6701275497223
 21
1113.288792260594
 31
0.0
1001
ACAD
1000
ASC_BOUNDS
1002
{
1070
    19
1002
}
  0
LINE
  5
2448
330
1F
100
AcDbEntity
  8
0
  6
Continuous
 48
3.0
100
AcDbLine
 10
487.1701275497223
 20
1078.288792260594
 30
0.0
 11
495.6701275497223
 21
1078.288792260594
 31
0.0
1001
ACAD
1000
ASC_BOUNDS
1002
{
1070
    19
1002
}
  0
LINE
  5
2449
330
1F
100
AcDbEntity
  8
0
  6
Continuous
 48
3.0
100
AcDbLine
 10
487.1701275497223
 20
1113.988792260594
 30
0.0
 11
487.1701275497223
 21
1077.588792260595
 31
0.0
  0
LINE
  5
244A
102
{ACAD_REACTORS
330
259A
102
}
330
1F
100
AcDbEntity
  8
0
  6
Continuous
 48
3.0
100
AcDbLine
 10
495.6701275497223
 20
1113.288792260594
 30
0.0
 11
495.6701275497223
 21
1078.288792260594
 31
0.0
  0
LINE
  5
244B
330
1F
100
AcDbEntity
  8
0
  6
Continuous
 48
3.0
100
AcDbLine
 10
539.670127549722
 20
1087.088792260594
 30
0.0
 11
539.6701275497219
 21
1060.288792260594
 31
0.0
  0
LINE
  5
244C
330
1F
100
AcDbEntity
  8
0
  6
Continuous
 48
3.0
100
AcDbLine
 10
540.1701275497218
 20
1059.788792260595
 30
0.0
 11
540.1701275497218
 21
1079.788792260594
 31
0.0
  0
LINE
  5
244D
330
1F
100
AcDbEntity
  8
0
  6
Continuous
 48
3.0
100
AcDbLine
 10
539.6701275497219
 20
1060.288792260594
 30
0.0
 11
540.1701275497218
 21
1059.788792260595
 31
0.0
  0
LINE
  5
244E
330
1F
100
AcDbEntity
  8
AM_7
100
AcDbLine
 10
551.4701275497221
 20
1098.43849011352
 30
0.0
 11
551.4701275497221
 21
1093.109515794523
 31
0.0
  0
LWPOLYLINE
  5
244F
330
1F
100
AcDbEntity
  8
0
  6
Continuous
 48
3.0
100
AcDbPolyline
 90
        7
 70
     0
 43
0.0
 10
539.970127549722
 20
1109.788792260594
 10
543.6701275497219
 20
1109.788792260594
 42
-0.4142135623730951
 10
547.1701275497219
 20
1106.288792260595
 10
547.1701275497219
 20
1085.288792260594
 42
-0.4142135623730951
 10
543.6701275497219
 20
1081.788792260594
 10
539.970127549722
 20
1081.788792260594
 10
539.970127549722
 20
1109.788792260594
  0
LINE
  5
2450
330
1F
100
AcDbEntity
  8
0
  6
Continuous
 48
3.0
100
AcDbLine
 10
539.970127549722
 20
1109.788792260594
 30
0.0
 11
539.9701275497218
 21
1081.788792260594
 31
0.0
  0
CIRCLE
  5
2451
330
1F
100
AcDbEntity
  8
0
  6
Continuous
 48
3.0
100
AcDbCircle
 10
543.5701275497219
 20
1085.538792260594
 30
0.0
 40
3.25
  0
LINE
  5
2452
330
1F
100
AcDbEntity
  8
0
  6
Continuous
 48
3.0
100
AcDbLine
 10
539.9701275497218
 20
1081.788792260594
 30
0.0
 11
543.6701275497219
 21
1081.788792260594
 31
0.0
  0
LINE
  5
2453
330
1F
100
AcDbEntity
  8
0
  6
Continuous
 48
3.0
100
AcDbLine
 10
543.6701275497216
 20
1079.788792260594
 30
0.0
 11
540.1701275497218
 21
1079.788792260594
 31
0.0
  0
LINE
  5
2454
330
1F
100
AcDbEntity
  8
0
  6
Continuous
 48
3.0
100
AcDbLine
 10
543.6701275497216
 20
1081.288792260594
 30
0.0
 11
539.6701275497219
 21
1081.288792260594
 31
0.0
  0
CIRCLE
  5
2455
330
1F
100
AcDbEntity
  8
0
  6
Continuous
 48
3.0
100
AcDbCircle
 10
543.5701275497219
 20
1085.538792260594
 30
0.0
 40
1.75
  0
ARC
  5
2456
330
1F
100
AcDbEntity
  8
AM_4
  6
Continuous
 48
2.5
100
AcDbCircle
 10
543.5701275497219
 20
1085.538792260594
 30
0.0
 40
1.5
100
AcDbArc
 50
256.5066011784473
 51
166.5066011784473
  0
CIRCLE
  5
2457
330
1F
100
AcDbEntity
  8
0
  6
Continuous
 48
3.0
100
AcDbCircle
 10
543.5701275497219
 20
1085.538792260594
 30
0.0
 40
1.35
  0
LINE
  5
2458
330
1F
100
AcDbEntity
  8
0
  6
Continuous
 48
3.0
100
AcDbLine
 10
539.6701275497219
 20
1080.288792260594
 30
0.0
 11
540.1701275497218
 21
1079.788792260594
 31
0.0
  0
ARC
  5
2459
330
1F
100
AcDbEntity
  8
0
  6
Continuous
 48
3.0
100
AcDbCircle
 10
543.6701275497216
 20
1084.788792260594
 30
0.0
 40
5.0
100
AcDbArc
 50
270.0
 51
0.0
  0
LINE
  5
245A
330
1F
100
AcDbEntity
  8
0
  6
Continuous
 48
3.0
100
AcDbLine
 10
547.1701275497219
 20
1085.288792260594
 30
0.0
 11
547.170127549722
 21
1090.288792260594
 31
0.0
  0
LINE
  5
245B
330
1F
100
AcDbEntity
  8
0
  6
Continuous
 48
3.0
100
AcDbLine
 10
547.1701275497216
 20
1093.538792260594
 30
0.0
 11
547.1701275497216
 21
1084.788792260594
 31
0.0
  0
LINE
  5
245C
330
1F
100
AcDbEntity
  8
0
  6
Continuous
 48
3.0
100
AcDbLine
 10
548.6701275497218
 20
1093.138792260594
 30
0.0
 11
548.6701275497217
 21
1084.788792260594
 31
0.0
  0
ARC
  5
245D
330
1F
100
AcDbEntity
  8
0
  6
Continuous
 48
3.0
100
AcDbCircle
 10
543.670127549722
 20
1085.288792260594
 30
0.0
 40
3.5
100
AcDbArc
 50
270.0
 51
0.0
  0
ARC
  5
245E
330
1F
100
AcDbEntity
  8
0
  6
Continuous
 48
3.0
100
AcDbCircle
 10
543.6701275497216
 20
1084.788792260594
 30
0.0
 40
3.5
100
AcDbArc
 50
270.0
 51
0.0
  0
LINE
  5
245F
330
1F
100
AcDbEntity
  8
0
  6
Continuous
 48
3.0
100
AcDbLine
 10
548.6701275497218
 20
1093.138792260594
 30
0.0
 11
548.2701275497218
 21
1093.538792260594
 31
0.0
  0
CIRCLE
  5
2460
330
1F
100
AcDbEntity
  8
0
  6
Continuous
 48
3.0
100
AcDbCircle
 10
543.5701275497219
 20
1106.038792260594
 30
0.0
 40
1.75
  0
CIRCLE
  5
2461
330
1F
100
AcDbEntity
  8
0
  6
Continuous
 48
3.0
100
AcDbCircle
 10
543.5701275497219
 20
1106.038792260594
 30
0.0
 40
3.25
  0
ARC
  5
2462
330
1F
100
AcDbEntity
  8
AM_4
  6
Continuous
 48
2.5
100
AcDbCircle
 10
543.5701275497219
 20
1106.038792260594
 30
0.0
 40
1.5
100
AcDbArc
 50
256.5066011784473
 51
166.5066011784473
  0
CIRCLE
  5
2463
330
1F
100
AcDbEntity
  8
0
  6
Continuous
 48
3.0
100
AcDbCircle
 10
543.5701275497219
 20
1106.038792260594
 30
0.0
 40
1.35
  0
LINE
  5
2464
330
1F
100
AcDbEntity
  8
0
  6
Continuous
 48
3.0
100
AcDbLine
 10
543.670127549722
 20
1109.788792260594
 30
0.0
 11
539.970127549722
 21
1109.788792260594
 31
0.0
  0
LINE
  5
2465
330
1F
100
AcDbEntity
  8
0
  6
Continuous
 48
3.0
100
AcDbLine
 10
543.6701275497219
 20
1111.788792260594
 30
0.0
 11
540.1701275497218
 21
1111.788792260594
 31
0.0
  0
LINE
  5
2466
330
1F
100
AcDbEntity
  8
0
  6
Continuous
 48
3.0
100
AcDbLine
 10
543.6701275497219
 20
1110.288792260594
 30
0.0
 11
539.6701275497216
 21
1110.288792260594
 31
0.0
  0
LINE
  5
2467
330
1F
100
AcDbEntity
  8
0
  6
Continuous
 48
3.0
100
AcDbLine
 10
540.1701275497218
 20
1111.788792260594
 30
0.0
 11
539.6701275497219
 21
1111.288792260594
 31
0.0
  0
LINE
  5
2468
330
1F
100
AcDbEntity
  8
0
  6
Continuous
 48
3.0
100
AcDbLine
 10
547.1701275497219
 20
1101.288792260594
 30
0.0
 11
547.170127549722
 21
1106.288792260595
 31
0.0
  0
LINE
  5
2469
330
1F
100
AcDbEntity
  8
0
  6
Continuous
 48
3.0
100
AcDbLine
 10
548.6701275497218
 20
1106.788792260594
 30
0.0
 11
548.6701275497218
 21
1098.438792260594
 31
0.0
  0
LINE
  5
246A
330
1F
100
AcDbEntity
  8
0
  6
Continuous
 48
3.0
100
AcDbLine
 10
547.1701275497219
 20
1106.788792260594
 30
0.0
 11
547.1701275497219
 21
1098.038792260594
 31
0.0
  0
LINE
  5
246B
330
1F
100
AcDbEntity
  8
0
  6
Continuous
 48
3.0
100
AcDbLine
 10
548.6701275497218
 20
1098.438792260594
 30
0.0
 11
548.2701275497218
 21
1098.038792260594
 31
0.0
  0
ARC
  5
246C
330
1F
100
AcDbEntity
  8
0
  6
Continuous
 48
3.0
100
AcDbCircle
 10
543.6701275497219
 20
1106.788792260594
 30
0.0
 40
5.0
100
AcDbArc
 50
0.0
 51
90.0
  0
ARC
  5
246D
330
1F
100
AcDbEntity
  8
0
  6
Continuous
 48
3.0
100
AcDbCircle
 10
543.670127549722
 20
1106.288792260595
 30
0.0
 40
3.5
100
AcDbArc
 50
0.0
 51
90.0
  0
ARC
  5
246E
330
1F
100
AcDbEntity
  8
0
  6
Continuous
 48
3.0
100
AcDbCircle
 10
543.6701275497219
 20
1106.788792260594
 30
0.0
 40
3.5
100
AcDbArc
 50
0.0
 51
90.0
  0
LINE
  5
246F
330
1F
100
AcDbEntity
  8
0
  6
Continuous
 48
3.0
100
AcDbLine
 10
569.1701275497218
 20
1059.788792260595
 30
0.0
 11
569.1701275497218
 21
1093.138792260594
 31
0.0
  0
LINE
  5
2470
330
1F
100
AcDbEntity
  8
0
  6
Continuous
 48
3.0
100
AcDbLine
 10
569.6701275497218
 20
1060.288792260594
 30
0.0
 11
569.1701275497218
 21
1059.788792260595
 31
0.0
  0
LINE
  5
2471
330
1F
100
AcDbEntity
  8
0
  6
Continuous
 48
3.0
100
AcDbLine
 10
565.970127549722
 20
1098.038792260594
 30
0.0
 11
565.970127549722
 21
1093.538792260594
 31
0.0
  0
LINE
  5
2472
330
1F
100
AcDbEntity
  8
AM_7
100
AcDbLine
 10
560.970127549722
 20
1098.43849011352
 30
0.0
 11
560.970127549722
 21
1093.109515794523
 31
0.0
  0
ARC
  5
2473
330
1F
100
AcDbEntity
  8
AM_4
  6
Continuous
 48
2.5
100
AcDbCircle
 10
560.970127549722
 20
1095.788792260594
 30
0.0
 40
2.0
100
AcDbArc
 50
258.4630409671819
 51
168.4630409671818
  0
CIRCLE
  5
2474
330
1F
100
AcDbEntity
  8
0
  6
Continuous
 48
3.0
100
AcDbCircle
 10
560.970127549722
 20
1095.788792260594
 30
0.0
 40
1.78
  0
LINE
  5
2475
330
1F
100
AcDbEntity
  8
0
  6
Continuous
 48
3.0
100
AcDbLine
 10
569.6701275497218
 20
1093.538792260594
 30
0.0
 11
569.1701275497218
 21
1093.138792260594
 31
0.0
  0
LINE
  5
2476
330
1F
100
AcDbEntity
  8
0
  6
Continuous
 48
3.0
100
AcDbLine
 10
569.6701275497218
 20
1098.038792260594
 30
0.0
 11
569.1701275497218
 21
1098.438792260594
 31
0.0
  0
LINE
  5
2477
330
1F
100
AcDbEntity
  8
0
  6
Continuous
 48
3.0
100
AcDbLine
 10
637.6529902475592
 20
989.3983347430635
 30
0.0
 11
635.998500141188
 21
983.2236936054654
 31
0.0
  0
LINE
  5
2478
330
1F
100
AcDbEntity
  8
0
  6
Continuous
 48
3.0
100
AcDbLine
 10
635.998500141188
 20
933.5878608678905
 30
0.0
 11
638.096309535447
 21
925.758729623922
 31
0.0
  0
LINE
  5
2479
102
{ACAD_REACTORS
330
257C
102
}
330
1F
100
AcDbEntity
  8
AM_7
100
AcDbLine
 10
633.9133147069108
 20
959.9057772366784
 30
0.0
 11
708.9133147069108
 21
959.9057772366784
 31
0.0
  0
LINE
  5
247A
330
1F
100
AcDbEntity
  8
0
  6
Continuous
 48
3.0
100
AcDbLine
 10
540.1701275497216
 20
923.9057772366782
 30
0.0
 11
569.1701275497216
 21
923.9057772366782
 31
0.0
  0
LINE
  5
247B
330
1F
100
AcDbEntity
  8
0
  6
Continuous
 48
3.0
100
AcDbLine
 10
540.1701275497216
 20
992.9057772366784
 30
0.0
 11
569.1701275497216
 21
992.9057772366784
 31
0.0
  0
LINE
  5
247C
330
1F
100
AcDbEntity
  8
0
  6
Continuous
 48
3.0
100
AcDbLine
 10
569.1701275497214
 20
982.9057772366782
 30
0.0
 11
540.1701275497216
 21
982.9057772366782
 31
0.0
  0
LINE
  5
247D
330
1F
100
AcDbEntity
  8
0
  6
Continuous
 48
3.0
100
AcDbLine
 10
569.1701275497214
 20
990.7925285826264
 30
0.0
 11
540.1701275497216
 21
990.7925285826264
 31
0.0
  0
LINE
  5
247E
330
1F
100
AcDbEntity
  8
0
  6
Continuous
 48
3.0
100
AcDbLine
 10
569.1701275497214
 20
934.2349084806468
 30
0.0
 11
540.1701275497216
 21
934.2349084806468
 31
0.0
  0
LINE
  5
247F
330
1F
100
AcDbEntity
  8
0
  6
Continuous
 48
3.0
100
AcDbLine
 10
569.1701275497214
 20
924.4223938859503
 30
0.0
 11
540.1701275497216
 21
924.4223938859503
 31
0.0
  0
LINE
  5
2480
330
1F
100
AcDbEntity
  8
0
  6
Continuous
 48
3.0
100
AcDbLine
 10
569.1701275497218
 20
1131.788792260594
 30
0.0
 11
540.1701275497218
 21
1131.788792260594
 31
0.0
  0
LINE
  5
2481
330
1F
100
AcDbEntity
  8
0
  6
Continuous
 48
3.0
100
AcDbLine
 10
569.1701275497218
 20
1121.788792260594
 30
0.0
 11
540.1701275497218
 21
1121.788792260594
 31
0.0
  0
LINE
  5
2482
330
1F
100
AcDbEntity
  8
0
  6
Continuous
 48
3.0
100
AcDbLine
 10
569.1701275497218
 20
1129.675543606543
 30
0.0
 11
540.1701275497218
 21
1129.675543606543
 31
0.0
  0
ARC
  5
2483
330
1F
100
AcDbEntity
  8
AM_4
  6
Continuous
 48
2.5
100
AcDbCircle
 10
554.6701275497216
 20
959.905777236678
 30
0.0
 40
6.599999999999999
100
AcDbArc
 50
172.1625202369229
 51
82.16252023691003
  0
CIRCLE
  5
2484
330
1F
100
AcDbEntity
  8
0
  6
Continuous
 48
3.0
100
AcDbCircle
 10
554.6701275497216
 20
959.905777236678
 30
0.0
 40
10.0
  0
CIRCLE
  5
2485
330
1F
100
AcDbEntity
  8
0
  6
Continuous
 48
3.0
100
AcDbCircle
 10
554.6701275497216
 20
959.905777236678
 30
0.0
 40
5.69999999999996
  0
LINE
  5
2486
330
1F
100
AcDbEntity
  8
0
  6
Continuous
 48
3.0
100
AcDbLine
 10
539.6701275497216
 20
992.4057772366783
 30
0.0
 11
539.6701275497216
 21
924.4057772366785
 31
0.0
1001
ACAD
1000
ASC_BOUNDS
1002
{
1070
    19
1005
0
1002
}
  0
LINE
  5
2487
330
1F
100
AcDbEntity
  8
0
  6
Continuous
 48
3.0
100
AcDbLine
 10
540.1701275497218
 20
923.9057772366784
 30
0.0
 11
540.1701275497216
 21
992.9057772366784
 31
0.0
  0
LINE
  5
2488
330
1F
100
AcDbEntity
  8
0
  6
Continuous
 48
3.0
100
AcDbLine
 10
540.1701275497218
 20
1131.788792260594
 30
0.0
 11
539.6701275497219
 21
1131.288792260594
 31
0.0
  0
LINE
  5
2489
330
1F
100
AcDbEntity
  8
0
  6
Continuous
 48
3.0
100
AcDbLine
 10
539.6701275497216
 20
924.4057772366785
 30
0.0
 11
540.1701275497216
 21
923.9057772366782
 31
0.0
  0
LINE
  5
248A
330
1F
100
AcDbEntity
  8
0
  6
Continuous
 48
3.0
100
AcDbLine
 10
487.1701275497218
 20
1003.905777236681
 30
0.0
 11
487.1701275497223
 21
989.6057772366825
 31
0.0
  0
LINE
  5
248B
330
1F
100
AcDbEntity
  8
0
  6
Continuous
 48
3.0
100
AcDbLine
 10
487.470127549722
 20
1001.055777236683
 30
0.0
 11
487.4701275497229
 21
989.2557772366833
 31
0.0
  0
LINE
  5
248C
330
1F
100
AcDbEntity
  8
0
  6
Continuous
 48
3.0
100
AcDbLine
 10
495.3701275497222
 20
1001.055777236684
 30
0.0
 11
495.3701275497226
 21
989.2557772366838
 31
0.0
  0
LINE
  5
248D
330
1F
100
AcDbEntity
  8
0
  6
Continuous
 48
3.0
100
AcDbLine
 10
495.6701275497228
 20
989.5557772366837
 30
0.0
 11
495.6701275497218
 21
1000.755777236683
 31
0.0
  0
LINE
  5
248E
330
1F
100
AcDbEntity
  8
0
  6
Continuous
 48
3.0
100
AcDbLine
 10
487.1701275497223
 20
989.3179016997555
 30
0.0
 11
487.1701275497223
 21
1000.755777236683
 31
0.0
  0
LINE
  5
248F
330
1F
100
AcDbEntity
  8
0
  6
Continuous
 48
3.0
100
AcDbLine
 10
495.6701275497228
 20
989.5557772366837
 30
0.0
 11
487.1701275497223
 21
989.5557772366835
 31
0.0
  0
LINE
  5
2490
330
1F
100
AcDbEntity
  8
0
  6
Continuous
 48
3.0
100
AcDbLine
 10
495.3701275497226
 20
989.2557772366838
 30
0.0
 11
487.1740020100776
 21
989.2557772366831
 31
0.0
  0
ARC
  5
2491
330
1F
100
AcDbEntity
  8
0
  6
Continuous
 48
3.0
100
AcDbCircle
 10
487.6701275497228
 20
989.3179016997555
 30
0.0
 40
0.5
100
AcDbArc
 50
180.0
 51
235.5124176803398
  0
LINE
  5
2492
330
1F
100
AcDbEntity
  8
0
  6
Continuous
 48
3.0
100
AcDbLine
 10
488.0639097670548
 20
988.9057772366784
 30
0.0
 11
489.3701275497225
 21
989.2557772366833
 31
0.0
  0
LINE
  5
2493
330
1F
100
AcDbEntity
  8
0
  6
Continuous
 48
3.0
100
AcDbLine
 10
495.3701275497226
 20
989.2557772366838
 30
0.0
 11
495.6701275497228
 21
989.5557772366837
 31
0.0
  0
LINE
  5
2494
330
1F
100
AcDbEntity
  8
0
  6
Continuous
 48
3.0
100
AcDbLine
 10
487.1701275497223
 20
1000.755777236683
 30
0.0
 11
495.6701275497218
 21
1000.755777236684
 31
0.0
  0
LINE
  5
2495
330
1F
100
AcDbEntity
  8
0
  6
Continuous
 48
3.0
100
AcDbLine
 10
495.3701275497222
 20
1001.055777236684
 30
0.0
 11
487.470127549722
 21
1001.055777236683
 31
0.0
  0
LINE
  5
2496
330
1F
100
AcDbEntity
  8
0
  6
Continuous
 48
3.0
100
AcDbLine
 10
487.1701275497223
 20
1000.755777236683
 30
0.0
 11
487.470127549722
 21
1001.055777236683
 31
0.0
  0
LINE
  5
2497
330
1F
100
AcDbEntity
  8
0
  6
Continuous
 48
3.0
100
AcDbLine
 10
495.3701275497222
 20
1001.055777236684
 30
0.0
 11
495.6701275497218
 21
1000.755777236683
 31
0.0
  0
LINE
  5
2498
102
{ACAD_REACTORS
330
2549
102
}
330
1F
100
AcDbEntity
  8
AM_7
100
AcDbLine
 10
545.6701275497216
 20
978.4136035496558
 30
0.0
 11
545.6701275497216
 21
967.0341505749039
 31
0.0
  0
CIRCLE
  5
2499
330
1F
100
AcDbEntity
  8
0
  6
Continuous
 48
3.0
100
AcDbCircle
 10
545.6701275497216
 20
972.7057772366784
 30
0.0
 40
5.0
  0
LINE
  5
249A
330
1F
100
AcDbEntity
  8
0
  6
Continuous
 48
3.0
100
AcDbLine
 10
543.3695062997456
 20
969.5566278492789
 30
0.0
 11
548.819276937121
 21
975.0063984866544
 31
0.0
  0
LINE
  5
249B
330
1F
100
AcDbEntity
  8
0
  6
Continuous
 48
3.0
100
AcDbLine
 10
542.5209781623218
 20
970.4051559867027
 30
0.0
 11
547.9707487996972
 21
975.8549266240782
 31
0.0
  0
CIRCLE
  5
249C
330
1F
100
AcDbEntity
  8
0
  6
Continuous
 48
3.0
100
AcDbCircle
 10
545.6701275497216
 20
972.7057772366784
 30
0.0
 40
3.9
  0
LINE
  5
249D
330
1F
100
AcDbEntity
  8
AM_7
100
AcDbLine
 10
539.0647702984497
 20
972.7057772366784
 30
0.0
 11
551.6569321259007
 21
972.7057772366784
 31
0.0
  0
LINE
  5
249E
330
1F
100
AcDbEntity
  8
0
  6
Continuous
 48
3.0
100
AcDbLine
 10
540.1701275497216
 20
992.9057772366784
 30
0.0
 11
539.6701275497216
 21
992.4057772366783
 31
0.0
  0
LINE
  5
249F
330
1F
100
AcDbEntity
  8
0
  6
Continuous
 48
3.0
100
AcDbLine
 10
569.1701275497216
 20
923.9057772366782
 30
0.0
 11
569.1701275497216
 21
992.9057772366784
 31
0.0
  0
LINE
  5
24A0
102
{ACAD_REACTORS
330
2546
102
}
330
1F
100
AcDbEntity
  8
AM_7
100
AcDbLine
 10
554.6701275497216
 20
970.8848434256555
 30
0.0
 11
554.6701275497216
 21
948.7242757577163
 31
0.0
  0
LINE
  5
24A1
102
{ACAD_REACTORS
330
256D
102
}
330
1F
100
AcDbEntity
  8
0
  6
Continuous
 48
3.0
100
AcDbLine
 10
635.9133147069107
 20
982.5766459927095
 30
0.0
 11
635.9133147069107
 21
934.2349084806468
 31
0.0
  0
LINE
  5
24A2
102
{ACAD_REACTORS
330
2546
330
2549
330
254C
330
254F
102
}
330
1F
100
AcDbEntity
  8
0
  6
Continuous
 48
3.0
100
AcDbLine
 10
569.6701275497217
 20
992.4057772366783
 30
0.0
 11
569.6701275497217
 21
924.4057772366783
 31
0.0
1001
ACAD
1000
ASC_BOUNDS
1002
{
1070
    19
1005
0
1005
0
1005
0
1005
0
1005
0
1005
0
1005
0
1005
0
1005
0
1005
0
1005
0
1005
0
1002
}
  0
LINE
  5
24A3
330
1F
100
AcDbEntity
  8
0
  6
Continuous
 48
3.0
100
AcDbLine
 10
569.6701275497218
 20
1131.288792260594
 30
0.0
 11
569.1701275497218
 21
1131.788792260594
 31
0.0
  0
LINE
  5
24A4
330
1F
100
AcDbEntity
  8
0
  6
Continuous
 48
3.0
100
AcDbLine
 10
569.1701275497216
 20
923.9057772366782
 30
0.0
 11
569.6701275497217
 21
924.4057772366783
 31
0.0
  0
ARC
  5
24A5
330
1F
100
AcDbEntity
  8
0
  6
Continuous
 48
3.0
100
AcDbCircle
 10
638.4133147069108
 20
934.2349084806468
 30
0.0
 40
2.5
100
AcDbArc
 50
180.0
 51
194.9999999999944
  0
LINE
  5
24A6
330
1F
100
AcDbEntity
  8
0
  6
Continuous
 48
3.0
100
AcDbLine
 10
569.1701275497216
 20
992.9057772366784
 30
0.0
 11
569.6701275497217
 21
992.4057772366783
 31
0.0
  0
ARC
  5
24A7
330
1F
100
AcDbEntity
  8
0
  6
Continuous
 48
3.0
100
AcDbCircle
 10
638.4133147069094
 20
982.5766459927095
 30
0.0
 40
2.5
100
AcDbArc
 50
164.9999999999787
 51
179.999999999987
  0
ARC
  5
24A8
330
1F
100
AcDbEntity
  8
AM_4
  6
Continuous
 48
2.5
100
AcDbCircle
 10
554.6701275497221
 20
855.0137132233363
 30
0.0
 40
6.599999999999999
100
AcDbArc
 50
172.1625202369229
 51
82.16252023691003
  0
CIRCLE
  5
24A9
330
1F
100
AcDbEntity
  8
0
  6
Continuous
 48
3.0
100
AcDbCircle
 10
554.6701275497221
 20
855.0137132233363
 30
0.0
 40
10.0
  0
CIRCLE
  5
24AA
330
1F
100
AcDbEntity
  8
0
  6
Continuous
 48
3.0
100
AcDbCircle
 10
554.6701275497221
 20
855.0137132233363
 30
0.0
 40
5.69999999999996
  0
LINE
  5
24AB
330
1F
100
AcDbEntity
  8
0
  6
Continuous
 48
3.0
100
AcDbLine
 10
569.1701275497218
 20
819.0137132233365
 30
0.0
 11
540.1701275497218
 21
819.0137132233365
 31
0.0
  0
LINE
  5
24AC
330
1F
100
AcDbEntity
  8
0
  6
Continuous
 48
3.0
100
AcDbLine
 10
569.1701275497218
 20
891.0137132233364
 30
0.0
 11
540.1701275497218
 21
891.0137132233364
 31
0.0
  0
LINE
  5
24AD
330
1F
100
AcDbEntity
  8
0
  6
Continuous
 48
3.0
100
AcDbLine
 10
569.1701275497218
 20
887.9378074015997
 30
0.0
 11
540.1701275497218
 21
887.9378074015997
 31
0.0
  0
LINE
  5
24AE
330
1F
100
AcDbEntity
  8
0
  6
Continuous
 48
3.0
100
AcDbLine
 10
569.1701275497218
 20
822.0896190450734
 30
0.0
 11
540.1701275497218
 21
822.0896190450734
 31
0.0
  0
LINE
  5
24AF
330
1F
100
AcDbEntity
  8
0
  6
Continuous
 48
3.0
100
AcDbLine
 10
539.6701275497219
 20
890.5137132233365
 30
0.0
 11
539.6701275497219
 21
855.0137132233366
 31
0.0
  0
LINE
  5
24B0
330
1F
100
AcDbEntity
  8
0
  6
Continuous
 48
3.0
100
AcDbLine
 10
540.1701275497218
 20
891.0137132233364
 30
0.0
 11
540.1701275497218
 21
855.0137132233365
 31
0.0
  0
LINE
  5
24B1
330
1F
100
AcDbEntity
  8
0
  6
Continuous
 48
3.0
100
AcDbLine
 10
540.1701275497218
 20
819.0137132233365
 30
0.0
 11
540.1701275497218
 21
855.0137132233365
 31
0.0
  0
LINE
  5
24B2
330
1F
100
AcDbEntity
  8
0
  6
Continuous
 48
3.0
100
AcDbLine
 10
539.670127549722
 20
855.0137132233365
 30
0.0
 11
539.6701275497219
 21
819.5137132233364
 31
0.0
  0
LINE
  5
24B3
330
1F
100
AcDbEntity
  8
0
  6
Continuous
 48
3.0
100
AcDbLine
 10
539.6701275497219
 20
819.5137132233364
 30
0.0
 11
540.1701275497218
 21
819.0137132233365
 31
0.0
  0
LINE
  5
24B4
330
1F
100
AcDbEntity
  8
0
  6
Continuous
 48
3.0
100
AcDbLine
 10
540.1701275497218
 20
891.0137132233364
 30
0.0
 11
539.6701275497219
 21
890.5137132233365
 31
0.0
  0
LINE
  5
24B5
102
{ACAD_REACTORS
330
2564
102
}
330
1F
100
AcDbEntity
  8
0
  6
Continuous
 48
3.0
100
AcDbLine
 10
569.6701275497218
 20
890.5137132233365
 30
0.0
 11
569.6701275497218
 21
819.5137132233364
 31
0.0
  0
LINE
  5
24B6
330
1F
100
AcDbEntity
  8
0
  6
Continuous
 48
3.0
100
AcDbLine
 10
569.1701275497218
 20
891.0137132233364
 30
0.0
 11
569.1701275497218
 21
855.0137132233365
 31
0.0
  0
LINE
  5
24B7
330
1F
100
AcDbEntity
  8
0
  6
Continuous
 48
3.0
100
AcDbLine
 10
569.1701275497218
 20
819.0137132233365
 30
0.0
 11
569.1701275497218
 21
855.0137132233365
 31
0.0
  0
LINE
  5
24B8
330
1F
100
AcDbEntity
  8
0
  6
Continuous
 48
3.0
100
AcDbLine
 10
569.6701275497218
 20
819.5137132233364
 30
0.0
 11
569.1701275497218
 21
819.0137132233365
 31
0.0
  0
LINE
  5
24B9
102
{ACAD_REACTORS
330
2564
102
}
330
1F
100
AcDbEntity
  8
AM_7
100
AcDbLine
 10
554.6701275497221
 20
865.9927794123134
 30
0.0
 11
554.6701275497221
 21
843.8322117443743
 31
0.0
  0
LINE
  5
24BA
330
1F
100
AcDbEntity
  8
0
  6
Continuous
 48
3.0
100
AcDbLine
 10
569.6701275497218
 20
890.5137132233365
 30
0.0
 11
569.1701275497218
 21
891.0137132233364
 31
0.0
  0
CIRCLE
  5
24BB
330
1F
100
AcDbEntity
  8
0
  6
Continuous
 48
3.0
100
AcDbCircle
 10
671.9133147069108
 20
959.905777236678
 30
0.0
 40
10.0
  0
LINE
  5
24BC
330
1F
100
AcDbEntity
  8
AM_7
100
AcDbLine
 10
671.913314706911
 20
1003.905777236678
 30
0.0
 11
671.9133147069108
 21
921.7303666444374
 31
0.0
  0
LINE
  5
24BD
102
{ACAD_REACTORS
330
256D
102
}
330
1F
100
AcDbEntity
  8
0
  6
Continuous
 48
3.0
100
AcDbLine
 10
707.9133147069107
 20
982.5766459927098
 30
0.0
 11
707.9133147069107
 21
934.2349084806468
 31
0.0
  0
LINE
  5
24BE
102
{ACAD_REACTORS
330
2570
330
2576
330
2579
330
257C
102
}
330
1F
100
AcDbEntity
  8
0
  6
Continuous
 48
3.0
100
AcDbLine
 10
640.5111241011693
 20
923.9057772366782
 30
0.0
 11
703.3155053126522
 21
923.9057772366782
 31
0.0
  0
LINE
  5
24BF
330
1F
100
AcDbEntity
  8
AM_7
100
AcDbLine
 10
658.0472478960193
 20
939.9057772366782
 30
0.0
 11
645.8475051805464
 21
939.9057772366782
 31
0.0
  0
ARC
  5
24C0
330
1F
100
AcDbEntity
  8
0
  6
Continuous
 48
3.0
100
AcDbCircle
 10
640.5111241011693
 20
926.4057772366783
 30
0.0
 40
2.5
100
AcDbArc
 50
194.9999999999944
 51
270.0
  0
CIRCLE
  5
24C1
330
1F
100
AcDbEntity
  8
0
  6
Continuous
 48
3.0
100
AcDbCircle
 10
644.9133147069107
 20
932.9057772366782
 30
0.0
 40
2.399999999999999
  0
ARC
  5
24C2
330
1F
100
AcDbEntity
  8
AM_4
  6
Continuous
 48
2.5
100
AcDbCircle
 10
644.9133147069107
 20
932.9057772366782
 30
0.0
 40
3.0
100
AcDbArc
 50
249.923523087557
 51
160.7104180731933
  0
LINE
  5
24C3
102
{ACAD_REACTORS
330
2570
330
2573
102
}
330
1F
100
AcDbEntity
  8
AM_7
100
AcDbLine
 10
648.8128156417765
 20
932.9057772366782
 30
0.0
 11
641.0541941075239
 21
932.9057772366782
 31
0.0
  0
CIRCLE
  5
24C4
330
1F
100
AcDbEntity
  8
0
  6
Continuous
 48
3.0
100
AcDbCircle
 10
651.9133147069108
 20
939.9057772366782
 30
0.0
 40
5.5
  0
LINE
  5
24C5
102
{ACAD_REACTORS
330
256A
102
}
330
1F
100
AcDbEntity
  8
AM_7
100
AcDbLine
 10
644.9133147069107
 20
929.0709196565503
 30
0.0
 11
644.9133147069107
 21
936.9602237797462
 31
0.0
  0
CIRCLE
  5
24C6
330
1F
100
AcDbEntity
  8
0
  6
Continuous
 48
3.0
100
AcDbCircle
 10
651.9133147069108
 20
939.9057772366782
 30
0.0
 40
3.299999999999999
  0
LINE
  5
24C7
330
1F
100
AcDbEntity
  8
AM_7
100
AcDbLine
 10
651.9133147069108
 20
946.0258446122164
 30
0.0
 11
651.9133147069108
 21
933.7005654750901
 31
0.0
  0
ARC
  5
24C8
330
1F
100
AcDbEntity
  8
AM_4
  6
Continuous
 48
2.5
100
AcDbCircle
 10
698.9133147069107
 20
932.9057772366782
 30
0.0
 40
3.0
100
AcDbArc
 50
19.28958192680667
 51
290.076476912443
  0
CIRCLE
  5
24C9
330
1F
100
AcDbEntity
  8
0
  6
Continuous
 48
3.0
100
AcDbCircle
 10
698.9133147069107
 20
932.9057772366782
 30
0.0
 40
2.399999999999999
  0
LINE
  5
24CA
330
1F
100
AcDbEntity
  8
AM_7
100
AcDbLine
 10
695.013813772045
 20
932.9057772366782
 30
0.0
 11
702.7724353062977
 21
932.9057772366782
 31
0.0
  0
LINE
  5
24CB
330
1F
100
AcDbEntity
  8
AM_7
100
AcDbLine
 10
685.7793815178022
 20
939.9057772366782
 30
0.0
 11
697.9791242332751
 21
939.9057772366782
 31
0.0
  0
CIRCLE
  5
24CC
330
1F
100
AcDbEntity
  8
0
  6
Continuous
 48
3.0
100
AcDbCircle
 10
691.9133147069108
 20
939.9057772366782
 30
0.0
 40
3.299999999999999
  0
CIRCLE
  5
24CD
330
1F
100
AcDbEntity
  8
0
  6
Continuous
 48
3.0
100
AcDbCircle
 10
691.9133147069108
 20
939.9057772366782
 30
0.0
 40
5.5
  0
LINE
  5
24CE
102
{ACAD_REACTORS
330
256A
102
}
330
1F
100
AcDbEntity
  8
AM_7
100
AcDbLine
 10
698.9133147069107
 20
929.0709196565503
 30
0.0
 11
698.9133147069107
 21
936.9602237797462
 31
0.0
  0
LINE
  5
24CF
330
1F
100
AcDbEntity
  8
AM_7
100
AcDbLine
 10
691.9133147069108
 20
946.0258446122164
 30
0.0
 11
691.9133147069108
 21
933.7005654750901
 31
0.0
  0
ARC
  5
24D0
330
1F
100
AcDbEntity
  8
0
  6
Continuous
 48
3.0
100
AcDbCircle
 10
703.3155053126522
 20
926.4057772366783
 30
0.0
 40
2.5
100
AcDbArc
 50
270.0
 51
345.0000000000056
  0
LINE
  5
24D1
330
1F
100
AcDbEntity
  8
0
  6
Continuous
 48
3.0
100
AcDbLine
 10
705.7303198783749
 20
925.758729623922
 30
0.0
 11
707.8281292726335
 21
933.5878608678905
 31
0.0
  0
ARC
  5
24D2
330
1F
100
AcDbEntity
  8
0
  6
Continuous
 48
3.0
100
AcDbCircle
 10
705.4133147069108
 20
934.2349084806468
 30
0.0
 40
2.5
100
AcDbArc
 50
345.0000000000056
 51
0.0
  0
ARC
  5
24D3
330
1F
100
AcDbEntity
  8
AM_4
  6
Continuous
 48
2.5
100
AcDbCircle
 10
671.9133147069108
 20
959.905777236678
 30
0.0
 40
6.599999999999999
100
AcDbArc
 50
172.1625202369229
 51
82.16252023691003
  0
LINE
  5
24D4
330
1F
100
AcDbEntity
  8
0
  6
Continuous
 48
3.0
100
AcDbLine
 10
671.9133147069112
 20
1003.605777236678
 30
0.0
 11
681.1133147069113
 21
1003.605777236678
 31
0.0
1001
ACAD
1000
ASC_BOUNDS
1002
{
1070
    19
1002
}
  0
LINE
  5
24D5
330
1F
100
AcDbEntity
  8
0
  6
Continuous
 48
3.0
100
AcDbLine
 10
671.9133147069108
 20
992.9057772366784
 30
0.0
 11
697.5841834629425
 21
992.9057772366784
 31
0.0
  0
LINE
  5
24D6
330
1F
100
AcDbEntity
  8
0
  6
Continuous
 48
3.0
100
AcDbLine
 10
663.1669045453968
 20
1000.855777236678
 30
0.0
 11
680.6597248684242
 21
1000.855777236678
 31
0.0
  0
LINE
  5
24D7
330
1F
100
AcDbEntity
  8
0
  6
Continuous
 48
3.0
100
AcDbLine
 10
689.6453655144787
 20
1000.755777236678
 30
0.0
 11
654.1812638993424
 21
1000.755777236678
 31
0.0
  0
LINE
  5
24D8
330
1F
100
AcDbEntity
  8
AM_7
100
AcDbLine
 10
658.1633147069105
 20
993.355777236678
 30
0.0
 11
658.1633147069108
 21
1001.055777236678
 31
0.0
  0
LINE
  5
24D9
330
1F
100
AcDbEntity
  8
0
  6
Continuous
 48
3.0
100
AcDbLine
 10
654.1812638993417
 20
992.9057772366784
 30
0.0
 11
654.1812638993424
 21
1000.755777236678
 31
0.0
  0
LINE
  5
24DA
330
1F
100
AcDbEntity
  8
0
  6
Continuous
 48
3.0
100
AcDbLine
 10
654.4812638993423
 20
1001.055777236678
 30
0.0
 11
654.4812638993421
 21
992.9057772366784
 31
0.0
  0
ARC
  5
24DB
330
1F
100
AcDbEntity
  8
0
  6
Continuous
 48
3.0
100
AcDbCircle
 10
658.1633147069108
 20
997.7057772366782
 30
0.0
 40
3.0
100
AcDbArc
 50
0.9549738737840383
 51
179.0450261262159
  0
ARC
  5
24DC
330
1F
100
AcDbEntity
  8
0
  6
Continuous
 48
3.0
100
AcDbCircle
 10
658.1633147069108
 20
997.7557772366782
 30
0.0
 40
1.6
100
AcDbArc
 50
0.0
 51
180.0
  0
LINE
  5
24DD
330
1F
100
AcDbEntity
  8
0
  6
Continuous
 48
3.0
100
AcDbLine
 10
653.9633147069089
 20
1001.261439669382
 30
0.0
 11
653.9633147069105
 21
995.1557772366784
 31
0.0
1001
ACAD
1000
ASC_BOUNDS
1002
{
1070
    19
1002
}
  0
ARC
  5
24DE
330
1F
100
AcDbEntity
  8
0
  6
Continuous
 48
3.0
100
AcDbCircle
 10
658.1633147069108
 20
997.1557772366782
 30
0.0
 40
1.6
100
AcDbArc
 50
180.0
 51
0.0
  0
ARC
  5
24DF
330
1F
100
AcDbEntity
  8
0
  6
Continuous
 48
3.0
100
AcDbCircle
 10
658.1633147069108
 20
997.2057772366783
 30
0.0
 40
3.0
100
AcDbArc
 50
180.954973873784
 51
359.0450261262159
  0
LINE
  5
24E0
330
1F
100
AcDbEntity
  8
AM_7
100
AcDbLine
 10
654.1812638993421
 20
997.4557772366781
 30
0.0
 11
661.7407216437209
 21
997.4557772366782
 31
0.0
  0
LINE
  5
24E1
330
1F
100
AcDbEntity
  8
AM_7
100
AcDbLine
 10
658.0472478960193
 20
979.9057772366783
 30
0.0
 11
645.8475051805464
 21
979.9057772366783
 31
0.0
  0
LINE
  5
24E2
102
{ACAD_REACTORS
330
2576
102
}
330
1F
100
AcDbEntity
  8
0
  6
Continuous
 48
3.0
100
AcDbLine
 10
646.24244595088
 20
992.9057772366784
 30
0.0
 11
671.913314706911
 21
992.9057772366784
 31
0.0
  0
LINE
  5
24E3
330
1F
100
AcDbEntity
  8
AM_7
100
AcDbLine
 10
651.9133147069108
 20
986.0258446122164
 30
0.0
 11
651.9133147069108
 21
973.7005654750902
 31
0.0
  0
CIRCLE
  5
24E4
330
1F
100
AcDbEntity
  8
0
  6
Continuous
 48
3.0
100
AcDbCircle
 10
651.9133147069108
 20
979.9057772366783
 30
0.0
 40
5.5
  0
LINE
  5
24E5
102
{ACAD_REACTORS
330
2573
102
}
330
1F
100
AcDbEntity
  8
AM_7
100
AcDbLine
 10
648.8128156417765
 20
986.9057772366783
 30
0.0
 11
641.0541941075239
 21
986.9057772366783
 31
0.0
  0
ARC
  5
24E6
330
1F
100
AcDbEntity
  8
AM_4
  6
Continuous
 48
2.5
100
AcDbCircle
 10
644.9133147069107
 20
986.9057772366783
 30
0.0
 40
3.0
100
AcDbArc
 50
199.2895819268066
 51
110.0764769124429
  0
CIRCLE
  5
24E7
330
1F
100
AcDbEntity
  8
0
  6
Continuous
 48
3.0
100
AcDbCircle
 10
644.9133147069107
 20
986.9057772366783
 30
0.0
 40
2.399999999999999
  0
ARC
  5
24E8
330
1F
100
AcDbEntity
  8
0
  6
Continuous
 48
3.0
100
AcDbCircle
 10
646.24244595088
 20
990.4057772366725
 30
0.0
 40
2.5
100
AcDbArc
 50
90.0
 51
104.9999999999676
  0
ARC
  5
24E9
330
1F
100
AcDbEntity
  8
0
  6
Continuous
 48
3.0
100
AcDbCircle
 10
640.067804813282
 20
988.7512871303073
 30
0.0
 40
2.5
100
AcDbArc
 50
104.9999999999944
 51
165.0000000000055
  0
LINE
  5
24EA
330
1F
100
AcDbEntity
  8
0
  6
Continuous
 48
3.0
100
AcDbLine
 10
639.4207572005259
 20
991.1661016960298
 30
0.0
 11
645.595398338122
 21
992.8205918024008
 31
0.0
  0
LINE
  5
24EB
330
1F
100
AcDbEntity
  8
AM_7
100
AcDbLine
 10
644.9133147069107
 20
990.7406348168064
 30
0.0
 11
644.9133147069107
 21
982.8513306936105
 31
0.0
  0
LINE
  5
24EC
330
1F
100
AcDbEntity
  8
0
  6
Continuous
 48
3.0
100
AcDbLine
 10
656.5633147069107
 20
997.7557772366782
 30
0.0
 11
656.5633147069107
 21
997.1557772366782
 31
0.0
  0
LINE
  5
24ED
330
1F
100
AcDbEntity
  8
0
  6
Continuous
 48
3.0
100
AcDbLine
 10
655.1637314025165
 20
997.7557772366782
 30
0.0
 11
655.1637314025165
 21
997.1557772366782
 31
0.0
  0
LINE
  5
24EE
330
1F
100
AcDbEntity
  8
0
  6
Continuous
 48
3.0
100
AcDbLine
 10
653.7133147069105
 20
994.9057772366781
 30
0.0
 11
653.7133147069109
 21
992.9057772366784
 31
0.0
1001
ACAD
1000
ASC_BOUNDS
1002
{
1070
    19
1002
}
  0
LINE
  5
24EF
330
1F
100
AcDbEntity
  8
0
  6
Continuous
 48
3.0
100
AcDbLine
 10
653.9633147069105
 20
995.1557772366784
 30
0.0
 11
653.7133147069105
 21
994.9057772366781
 31
0.0
  0
CIRCLE
  5
24F0
330
1F
100
AcDbEntity
  8
0
  6
Continuous
 48
3.0
100
AcDbCircle
 10
651.9133147069108
 20
979.9057772366783
 30
0.0
 40
3.299999999999999
  0
CIRCLE
  5
24F1
330
1F
100
AcDbEntity
  8
0
  6
Continuous
 48
3.0
100
AcDbCircle
 10
671.9133147069108
 20
959.905777236678
 30
0.0
 40
5.69999999999996
  0
LINE
  5
24F2
330
1F
100
AcDbEntity
  8
0
  6
Continuous
 48
3.0
100
AcDbLine
 10
666.463314706911
 20
988.5057772366785
 30
0.0
 11
669.6633147069108
 21
988.5057772366785
 31
0.0
  0
LINE
  5
24F3
330
1F
100
AcDbEntity
  8
0
  6
Continuous
 48
3.0
100
AcDbLine
 10
666.3133147069109
 20
981.5057772366785
 30
0.0
 11
677.5133147069111
 21
981.5057772366785
 31
0.0
  0
LWPOLYLINE
  5
24F4
330
1F
100
AcDbEntity
  8
0
  6
Continuous
 48
3.0
100
AcDbPolyline
 90
        4
 70
     1
 43
0.0
 10
666.4133147069103
 20
986.0057772366785
 10
677.4133147069103
 20
986.0057772366785
 10
677.4133147069103
 20
988.5057772366785
 10
666.4133147069103
 20
988.5057772366785
  0
ARC
  5
24F5
330
1F
100
AcDbEntity
  8
0
  6
Continuous
 48
3.0
100
AcDbCircle
 10
666.463314706911
 20
988.3557772366783
 30
0.0
 40
0.15
100
AcDbArc
 50
90.0
 51
180.0
  0
LINE
  5
24F6
330
1F
100
AcDbEntity
  8
0
  6
Continuous
 48
3.0
100
AcDbLine
 10
666.3133147069109
 20
988.3557772366783
 30
0.0
 11
666.3133147069109
 21
981.5057772366785
 31
0.0
  0
LINE
  5
24F7
330
1F
100
AcDbEntity
  8
0
  6
Continuous
 48
3.0
100
AcDbLine
 10
659.7633147069107
 20
997.7557772366782
 30
0.0
 11
659.7633147069107
 21
997.1557772366782
 31
0.0
  0
LINE
  5
24F8
330
1F
100
AcDbEntity
  8
0
  6
Continuous
 48
3.0
100
AcDbLine
 10
661.1628980113048
 20
997.7557772366782
 30
0.0
 11
661.1628980113048
 21
997.1557772366782
 31
0.0
  0
LINE
  5
24F9
330
1F
100
AcDbEntity
  8
0
  6
Continuous
 48
3.0
100
AcDbLine
 10
669.2633147069106
 20
992.9057772366784
 30
0.0
 11
669.6633147069108
 21
992.5057772366784
 31
0.0
  0
LINE
  5
24FA
330
1F
100
AcDbEntity
  8
0
  6
Continuous
 48
3.0
100
AcDbLine
 10
674.5633147069108
 20
992.9057772366784
 30
0.0
 11
674.1633147069108
 21
992.5057772366784
 31
0.0
  0
ARC
  5
24FB
330
1F
100
AcDbEntity
  8
0
  6
Continuous
 48
3.0
100
AcDbCircle
 10
677.363314706911
 20
988.3557772366783
 30
0.0
 40
0.15
100
AcDbArc
 50
0.0
 51
90.0
  0
LINE
  5
24FC
330
1F
100
AcDbEntity
  8
0
  6
Continuous
 48
3.0
100
AcDbLine
 10
677.5133147069111
 20
988.3557772366783
 30
0.0
 11
677.5133147069111
 21
981.5057772366785
 31
0.0
  0
LINE
  5
24FD
330
1F
100
AcDbEntity
  8
0
  6
Continuous
 48
3.0
100
AcDbLine
 10
674.1633147069108
 20
988.5057772366785
 30
0.0
 11
677.363314706911
 21
988.5057772366785
 31
0.0
  0
LINE
  5
24FE
330
1F
100
AcDbEntity
  8
0
  6
Continuous
 48
3.0
100
AcDbLine
 10
669.6633147069108
 20
992.5057772366784
 30
0.0
 11
669.6633147069108
 21
988.5057772366785
 31
0.0
  0
LINE
  5
24FF
330
1F
100
AcDbEntity
  8
0
  6
Continuous
 48
3.0
100
AcDbLine
 10
674.1633147069108
 20
992.5057772366784
 30
0.0
 11
674.1633147069108
 21
988.5057772366785
 31
0.0
  0
LINE
  5
2500
330
1F
100
AcDbEntity
  8
0
  6
Continuous
 48
3.0
100
AcDbLine
 10
654.4812638993423
 20
1001.055777236678
 30
0.0
 11
663.1133147069106
 21
1001.055777236678
 31
0.0
  0
LINE
  5
2501
102
{ACAD_REACTORS
330
2579
102
}
330
1F
100
AcDbEntity
  8
0
  6
Continuous
 48
3.0
100
AcDbLine
 10
662.4133147069105
 20
1003.905777236678
 30
0.0
 11
654.2133147069105
 21
1003.905777236678
 31
0.0
1001
ACAD
1000
ASC_BOUNDS
1002
{
1070
    19
1002
}
  0
LINE
  5
2502
330
1F
100
AcDbEntity
  8
0
  6
Continuous
 48
3.0
100
AcDbLine
 10
654.1812638993424
 20
1000.755777236678
 30
0.0
 11
654.4812638993423
 21
1001.055777236678
 31
0.0
  0
LINE
  5
2503
330
1F
100
AcDbEntity
  8
0
  6
Continuous
 48
3.0
100
AcDbLine
 10
653.7133147069107
 20
1003.405777236678
 30
0.0
 11
653.7133147069112
 21
1001.405777236678
 31
0.0
1001
ACAD
1000
ASC_BOUNDS
1002
{
1070
    19
1002
}
  0
LINE
  5
2504
330
1F
100
AcDbEntity
  8
0
  6
Continuous
 48
3.0
100
AcDbLine
 10
653.7133147069112
 20
1001.405777236678
 30
0.0
 11
653.9633147069089
 21
1001.261439669382
 31
0.0
  0
LINE
  5
2505
102
{ACAD_REACTORS
330
25B0
102
}
330
1F
100
AcDbEntity
  8
0
  6
Continuous
 48
3.0
100
AcDbLine
 10
654.2133147069105
 20
1003.905777236678
 30
0.0
 11
653.7133147069107
 21
1003.405777236678
 31
0.0
1001
ACAD
1000
ASC_BOUNDS
1002
{
1070
    19
1002
}
  0
LINE
  5
2506
330
1F
100
AcDbEntity
  8
0
  6
Continuous
 48
3.0
100
AcDbLine
 10
671.9133147069108
 20
1003.605777236678
 30
0.0
 11
662.7133147069107
 21
1003.605777236678
 31
0.0
1001
ACAD
1000
ASC_BOUNDS
1002
{
1070
    19
1002
}
  0
LINE
  5
2507
330
1F
100
AcDbEntity
  8
0
  6
Continuous
 48
3.0
100
AcDbLine
 10
663.1133147069106
 20
1001.055777236678
 30
0.0
 11
663.1669045453968
 21
1000.855777236678
 31
0.0
  0
LINE
  5
2508
330
1F
100
AcDbEntity
  8
0
  6
Continuous
 48
3.0
100
AcDbLine
 10
662.4133147069105
 20
1003.905777236678
 30
0.0
 11
662.7133147069107
 21
1003.605777236678
 31
0.0
  0
LINE
  5
2509
330
1F
100
AcDbEntity
  8
AM_7
100
AcDbLine
 10
685.6633147069105
 20
993.355777236678
 30
0.0
 11
685.6633147069103
 21
1001.055777236678
 31
0.0
  0
LINE
  5
250A
330
1F
100
AcDbEntity
  8
0
  6
Continuous
 48
3.0
100
AcDbLine
 10
689.3453655144788
 20
1001.055777236678
 30
0.0
 11
689.3453655144785
 21
992.9057772366784
 31
0.0
  0
ARC
  5
250B
330
1F
100
AcDbEntity
  8
0
  6
Continuous
 48
3.0
100
AcDbCircle
 10
685.6633147069103
 20
997.7557772366782
 30
0.0
 40
1.6
100
AcDbArc
 50
0.0
 51
180.0
  0
LINE
  5
250C
330
1F
100
AcDbEntity
  8
0
  6
Continuous
 48
3.0
100
AcDbLine
 10
689.6453655144791
 20
992.9057772366784
 30
0.0
 11
689.6453655144787
 21
1000.755777236678
 31
0.0
  0
LINE
  5
250D
330
1F
100
AcDbEntity
  8
0
  6
Continuous
 48
3.0
100
AcDbLine
 10
689.8633147069131
 20
1001.261439669382
 30
0.0
 11
689.8633147069115
 21
995.1557772366784
 31
0.0
1001
ACAD
1000
ASC_BOUNDS
1002
{
1070
    19
1002
}
  0
ARC
  5
250E
330
1F
100
AcDbEntity
  8
0
  6
Continuous
 48
3.0
100
AcDbCircle
 10
685.6633147069103
 20
997.7057772366782
 30
0.0
 40
3.0
100
AcDbArc
 50
0.9549738737840383
 51
179.0450261262159
  0
LINE
  5
250F
330
1F
100
AcDbEntity
  8
AM_7
100
AcDbLine
 10
695.013813772045
 20
986.9057772366783
 30
0.0
 11
702.7724353062977
 21
986.9057772366783
 31
0.0
  0
CIRCLE
  5
2510
330
1F
100
AcDbEntity
  8
0
  6
Continuous
 48
3.0
100
AcDbCircle
 10
698.9133147069107
 20
986.9057772366783
 30
0.0
 40
2.399999999999999
  0
ARC
  5
2511
330
1F
100
AcDbEntity
  8
AM_4
  6
Continuous
 48
2.5
100
AcDbCircle
 10
698.9133147069107
 20
986.9057772366783
 30
0.0
 40
3.0
100
AcDbArc
 50
69.92352308755702
 51
340.7104180731933
  0
LINE
  5
2512
330
1F
100
AcDbEntity
  8
0
  6
Continuous
 48
3.0
100
AcDbLine
 10
704.4058722132961
 20
991.1661016960298
 30
0.0
 11
698.2312310756985
 21
992.820591802401
 31
0.0
  0
CIRCLE
  5
2513
330
1F
100
AcDbEntity
  8
0
  6
Continuous
 48
3.0
100
AcDbCircle
 10
691.9133147069108
 20
979.9057772366783
 30
0.0
 40
5.5
  0
LINE
  5
2514
330
1F
100
AcDbEntity
  8
AM_7
100
AcDbLine
 10
691.9133147069108
 20
986.0258446122164
 30
0.0
 11
691.9133147069108
 21
973.7005654750902
 31
0.0
  0
LINE
  5
2515
330
1F
100
AcDbEntity
  8
AM_7
100
AcDbLine
 10
689.6453655144789
 20
997.4557772366781
 30
0.0
 11
682.0859077701002
 21
997.4557772366782
 31
0.0
  0
CIRCLE
  5
2516
330
1F
100
AcDbEntity
  8
0
  6
Continuous
 48
3.0
100
AcDbCircle
 10
691.9133147069108
 20
979.9057772366783
 30
0.0
 40
3.299999999999999
  0
LINE
  5
2517
330
1F
100
AcDbEntity
  8
AM_7
100
AcDbLine
 10
685.7793815178022
 20
979.9057772366783
 30
0.0
 11
697.9791242332751
 21
979.9057772366783
 31
0.0
  0
ARC
  5
2518
330
1F
100
AcDbEntity
  8
0
  6
Continuous
 48
3.0
100
AcDbCircle
 10
685.6633147069103
 20
997.1557772366782
 30
0.0
 40
1.6
100
AcDbArc
 50
180.0
 51
0.0
  0
LINE
  5
2519
330
1F
100
AcDbEntity
  8
0
  6
Continuous
 48
3.0
100
AcDbLine
 10
688.6628980113045
 20
997.7557772366782
 30
0.0
 11
688.6628980113045
 21
997.1557772366782
 31
0.0
  0
LINE
  5
251A
330
1F
100
AcDbEntity
  8
0
  6
Continuous
 48
3.0
100
AcDbLine
 10
684.0633147069104
 20
997.7557772366782
 30
0.0
 11
684.0633147069104
 21
997.1557772366782
 31
0.0
  0
LINE
  5
251B
330
1F
100
AcDbEntity
  8
0
  6
Continuous
 48
3.0
100
AcDbLine
 10
687.2633147069104
 20
997.7557772366782
 30
0.0
 11
687.2633147069104
 21
997.1557772366782
 31
0.0
  0
LINE
  5
251C
330
1F
100
AcDbEntity
  8
0
  6
Continuous
 48
3.0
100
AcDbLine
 10
682.6637314025163
 20
997.7557772366782
 30
0.0
 11
682.6637314025163
 21
997.1557772366782
 31
0.0
  0
ARC
  5
251D
330
1F
100
AcDbEntity
  8
0
  6
Continuous
 48
3.0
100
AcDbCircle
 10
685.6633147069103
 20
997.2057772366783
 30
0.0
 40
3.0
100
AcDbArc
 50
180.954973873784
 51
359.0450261262159
  0
ARC
  5
251E
330
1F
100
AcDbEntity
  8
0
  6
Continuous
 48
3.0
100
AcDbCircle
 10
697.5841834629425
 20
990.4057772366783
 30
0.0
 40
2.5
100
AcDbArc
 50
75.00000000000555
 51
90.0
  0
LINE
  5
251F
330
1F
100
AcDbEntity
  8
0
  6
Continuous
 48
3.0
100
AcDbLine
 10
690.1133147069115
 20
994.9057772366781
 30
0.0
 11
690.1133147069113
 21
992.9057772366784
 31
0.0
1001
ACAD
1000
ASC_BOUNDS
1002
{
1070
    19
1002
}
  0
LINE
  5
2520
330
1F
100
AcDbEntity
  8
0
  6
Continuous
 48
3.0
100
AcDbLine
 10
689.8633147069115
 20
995.1557772366784
 30
0.0
 11
690.1133147069115
 21
994.9057772366781
 31
0.0
  0
LINE
  5
2521
330
1F
100
AcDbEntity
  8
AM_7
100
AcDbLine
 10
698.9133147069107
 20
990.7406348168064
 30
0.0
 11
698.9133147069107
 21
982.8513306936105
 31
0.0
  0
ARC
  5
2522
330
1F
100
AcDbEntity
  8
0
  6
Continuous
 48
3.0
100
AcDbCircle
 10
703.7588246005396
 20
988.7512871303073
 30
0.0
 40
2.5
100
AcDbArc
 50
14.99999999999445
 51
75.00000000000555
  0
ARC
  5
2523
330
1F
100
AcDbEntity
  8
0
  6
Continuous
 48
3.0
100
AcDbCircle
 10
705.4133147069108
 20
982.5766459927098
 30
0.0
 40
2.5
100
AcDbArc
 50
0.0
 51
14.99999999999445
  0
LINE
  5
2524
330
1F
100
AcDbEntity
  8
0
  6
Continuous
 48
3.0
100
AcDbLine
 10
706.1736391662623
 20
989.3983347430635
 30
0.0
 11
707.8281292726335
 21
983.2236936054661
 31
0.0
  0
LINE
  5
2525
330
1F
100
AcDbEntity
  8
0
  6
Continuous
 48
3.0
100
AcDbLine
 10
680.7133147069105
 20
1001.055777236678
 30
0.0
 11
689.3453655144788
 21
1001.055777236678
 31
0.0
  0
LINE
  5
2526
330
1F
100
AcDbEntity
  8
0
  6
Continuous
 48
3.0
100
AcDbLine
 10
681.4133147069115
 20
1003.905777236678
 30
0.0
 11
689.6133147069114
 21
1003.905777236678
 31
0.0
1001
ACAD
1000
ASC_BOUNDS
1002
{
1070
    19
1002
}
  0
LINE
  5
2527
330
1F
100
AcDbEntity
  8
0
  6
Continuous
 48
3.0
100
AcDbLine
 10
680.7133147069105
 20
1001.055777236678
 30
0.0
 11
680.6597248684242
 21
1000.855777236678
 31
0.0
  0
LINE
  5
2528
330
1F
100
AcDbEntity
  8
0
  6
Continuous
 48
3.0
100
AcDbLine
 10
681.4133147069115
 20
1003.905777236678
 30
0.0
 11
681.1133147069113
 21
1003.605777236678
 31
0.0
  0
LINE
  5
2529
330
1F
100
AcDbEntity
  8
0
  6
Continuous
 48
3.0
100
AcDbLine
 10
689.3453655144788
 20
1001.055777236678
 30
0.0
 11
689.6453655144787
 21
1000.755777236678
 31
0.0
  0
LINE
  5
252A
330
1F
100
AcDbEntity
  8
0
  6
Continuous
 48
3.0
100
AcDbLine
 10
690.1133147069113
 20
1003.405777236678
 30
0.0
 11
690.1133147069108
 21
1001.405777236678
 31
0.0
1001
ACAD
1000
ASC_BOUNDS
1002
{
1070
    19
1002
}
  0
LINE
  5
252B
330
1F
100
AcDbEntity
  8
0
  6
Continuous
 48
3.0
100
AcDbLine
 10
690.1133147069108
 20
1001.405777236678
 30
0.0
 11
689.8633147069131
 21
1001.261439669382
 31
0.0
  0
LINE
  5
252C
102
{ACAD_REACTORS
330
25B0
102
}
330
1F
100
AcDbEntity
  8
0
  6
Continuous
 48
3.0
100
AcDbLine
 10
689.6133147069114
 20
1003.905777236678
 30
0.0
 11
690.1133147069113
 21
1003.405777236678
 31
0.0
1001
ACAD
1000
ASC_BOUNDS
1002
{
1070
    19
1002
}
  0
LINE
  5
252D
330
1F
100
AcDbEntity
  8
AM_4
  6
HIDDEN
 48
0.2
100
AcDbLine
 10
372.2113934270876
 20
1003.506674696302
 30
0.0
 11
371.5201275497225
 21
1003.90577723668
 31
0.0
1001
GENIUS_GENOREF_13
1005
0
  0
LINE
  5
252E
330
1F
100
AcDbEntity
  8
AM_7
  6
AM_ISO08W050x2
100
AcDbLine
 10
374.6701275497223
 20
987.4862264291115
 30
0.0
 11
374.6701275497223
 21
1004.90577723668
 31
0.0
1001
GENIUS_GENOREF_13
1005
0
  0
LINE
  5
252F
330
1F
100
AcDbEntity
  8
AM_4
  6
HIDDEN
 48
0.2
100
AcDbLine
 10
371.6701275497223
 20
1003.819174696302
 30
0.0
 11
371.6701275497223
 21
993.9057772366803
 31
0.0
1001
GENIUS_GENOREF_13
1005
0
  0
LINE
  5
2530
330
1F
100
AcDbEntity
  8
AM_4
  6
HIDDEN
 48
0.2
100
AcDbLine
 10
372.2113934270876
 20
1003.506674696302
 30
0.0
 11
372.2113934270876
 21
989.9057772366804
 31
0.0
1001
GENIUS_GENOREF_13
1005
0
  0
LINE
  5
2531
330
1F
100
AcDbEntity
  8
AM_4
  6
HIDDEN
 48
0.2
100
AcDbLine
 10
377.6701275497223
 20
1003.819174696302
 30
0.0
 11
377.6701275497223
 21
993.9057772366803
 31
0.0
1001
GENIUS_GENOREF_13
1005
0
  0
LINE
  5
2532
330
1F
100
AcDbEntity
  8
AM_4
  6
HIDDEN
 48
0.2
100
AcDbLine
 10
377.1288616723571
 20
1003.506674696302
 30
0.0
 11
377.1288616723571
 21
989.9057772366804
 31
0.0
1001
GENIUS_GENOREF_13
1005
0
  0
LINE
  5
2533
330
1F
100
AcDbEntity
  8
AM_4
  6
HIDDEN
 48
0.2
100
AcDbLine
 10
372.2113934270876
 20
1003.506674696302
 30
0.0
 11
377.1288616723571
 21
1003.506674696302
 31
0.0
1001
GENIUS_GENOREF_13
1005
0
  0
LINE
  5
2534
330
1F
100
AcDbEntity
  8
AM_4
  6
HIDDEN
 48
0.2
100
AcDbLine
 10
377.1288616723571
 20
1003.506674696302
 30
0.0
 11
377.8201275497224
 21
1003.90577723668
 31
0.0
1001
GENIUS_GENOREF_13
1005
0
  0
LINE
  5
2535
330
1F
100
AcDbEntity
  8
AM_4
  6
HIDDEN
 48
0.2
100
AcDbLine
 10
377.6701275497223
 20
993.9057772366803
 30
0.0
 11
377.1288616723571
 21
992.9057772366803
 31
0.0
1001
GENIUS_GENOREF_13
1005
0
  0
LINE
  5
2536
330
1F
100
AcDbEntity
  8
AM_4
  6
HIDDEN
 48
0.2
100
AcDbLine
 10
371.6701275497223
 20
993.9057772366803
 30
0.0
 11
372.2113934270876
 21
992.9057772366803
 31
0.0
1001
GENIUS_GENOREF_13
1005
0
  0
LINE
  5
2537
330
1F
100
AcDbEntity
  8
AM_4
  6
HIDDEN
 48
0.2
100
AcDbLine
 10
377.6701275497223
 20
993.9057772366803
 30
0.0
 11
371.6701275497223
 21
993.9057772366803
 31
0.0
1001
GENIUS_GENOREF_13
1005
0
  0
LINE
  5
2538
330
1F
100
AcDbEntity
  8
AM_7
  6
AM_ISO08W050x2
100
AcDbLine
 10
464.6701275497214
 20
987.4862264291099
 30
0.0
 11
464.6701275497214
 21
1004.905777236679
 31
0.0
  0
LINE
  5
2539
330
1F
100
AcDbEntity
  8
AM_4
  6
HIDDEN
 48
0.2
100
AcDbLine
 10
462.2113934270867
 20
1003.5066746963
 30
0.0
 11
462.2113934270867
 21
989.9057772366788
 31
0.0
  0
LINE
  5
253A
330
1F
100
AcDbEntity
  8
AM_4
  6
HIDDEN
 48
0.2
100
AcDbLine
 10
467.1288616723561
 20
1003.5066746963
 30
0.0
 11
467.1288616723561
 21
989.9057772366788
 31
0.0
  0
LINE
  5
253B
330
1F
100
AcDbEntity
  8
0
  6
Continuous
 48
3.0
100
AcDbLine
 10
459.6701275497209
 20
988.9057772366767
 30
0.0
 11
459.6701275497209
 21
989.6057772366793
 31
0.0
  0
LINE
  5
253C
330
1F
100
AcDbEntity
  8
AM_4
  6
HIDDEN
 48
0.2
100
AcDbLine
 10
467.1288616723561
 20
1003.5066746963
 30
0.0
 11
467.8201275497214
 21
1003.905777236679
 31
0.0
  0
LINE
  5
253D
330
1F
100
AcDbEntity
  8
AM_4
  6
HIDDEN
 48
0.2
100
AcDbLine
 10
467.6701275497214
 20
993.9057772366787
 30
0.0
 11
467.1288616723561
 21
992.9057772366787
 31
0.0
  0
LINE
  5
253E
330
1F
100
AcDbEntity
  8
AM_4
  6
HIDDEN
 48
0.2
100
AcDbLine
 10
467.6701275497214
 20
993.9057772366787
 30
0.0
 11
461.6701275497214
 21
993.9057772366787
 31
0.0
  0
LINE
  5
253F
330
1F
100
AcDbEntity
  8
AM_4
  6
HIDDEN
 48
0.2
100
AcDbLine
 10
461.6701275497214
 20
1003.8191746963
 30
0.0
 11
461.6701275497214
 21
993.9057772366787
 31
0.0
  0
LINE
  5
2540
330
1F
100
AcDbEntity
  8
AM_4
  6
HIDDEN
 48
0.2
100
AcDbLine
 10
461.6701275497214
 20
993.9057772366787
 30
0.0
 11
462.2113934270867
 21
992.9057772366787
 31
0.0
  0
LINE
  5
2541
330
1F
100
AcDbEntity
  8
AM_4
  6
HIDDEN
 48
0.2
100
AcDbLine
 10
462.2113934270867
 20
1003.5066746963
 30
0.0
 11
467.1288616723561
 21
1003.5066746963
 31
0.0
  0
LINE
  5
2542
330
1F
100
AcDbEntity
  8
AM_4
  6
HIDDEN
 48
0.2
100
AcDbLine
 10
462.2113934270867
 20
1003.5066746963
 30
0.0
 11
461.5201275497216
 21
1003.905777236679
 31
0.0
  0
LINE
  5
2543
330
1F
100
AcDbEntity
  8
AM_4
  6
HIDDEN
 48
0.2
100
AcDbLine
 10
467.6701275497214
 20
1003.8191746963
 30
0.0
 11
467.6701275497214
 21
993.9057772366787
 31
0.0
  0
DIMENSION
  5
2544
102
{ACAD_XDICTIONARY
360
2545
102
}
102
{ACAD_REACTORS
330
2546
102
}
330
1F
100
AcDbEntity
  8
AM_5
100
AcDbDimension
  2
*D8
 10
554.6701275497216
 20
1004.905777236678
 30
0.0
 11
562.1701275497216
 21
1007.655777236678
 31
0.0
 70
    32
 71
     5
 42
15.0
  3
AM_ISO
100
AcDbAlignedDimension
 13
569.6701275497217
 23
992.4057772366783
 33
0.0
 14
554.6701275497216
 24
970.8848434256555
 34
0.0
100
AcDbRotatedDimension
1001
ACAD
1000
DSTYLE
1002
{
1070
   271
1070
     8
1002
}
  0
DIMENSION
  5
2547
102
{ACAD_XDICTIONARY
360
2548
102
}
102
{ACAD_REACTORS
330
2549
102
}
330
1F
100
AcDbEntity
  8
AM_5
100
AcDbDimension
  2
*D9
 10
545.6701275497216
 20
1011.905777236678
 30
0.0
 11
557.6701275497216
 21
1014.656121724867
 31
0.0
 70
    32
 71
     5
 42
24.0
  3
AM_ISO
100
AcDbAlignedDimension
 13
569.6701275497217
 23
992.4057772366783
 33
0.0
 14
545.6701275497216
 24
978.4136035496558
 34
0.0
100
AcDbRotatedDimension
1001
ACAD
1000
DSTYLE
1002
{
1070
   271
1070
     8
1002
}
  0
DIMENSION
  5
254A
102
{ACAD_XDICTIONARY
360
254B
102
}
102
{ACAD_REACTORS
330
254C
102
}
330
1F
100
AcDbEntity
  8
AM_5
100
AcDbDimension
  2
*D10
 10
419.6701275497223
 20
1018.905777236678
 30
0.0
 11
494.6701275497219
 21
1021.655777236678
 31
0.0
 70
    32
 71
     5
 42
149.9999999999993
  3
AM_ISO
100
AcDbAlignedDimension
 13
569.6701275497217
 23
992.4057772366783
 33
0.0
 14
419.6701275497223
 24
1006.484509133322
 34
0.0
100
AcDbRotatedDimension
1001
ACAD
1000
DSTYLE
1002
{
1070
   271
1070
     8
1002
}
  0
DIMENSION
  5
254D
102
{ACAD_XDICTIONARY
360
254E
102
}
102
{ACAD_REACTORS
330
254F
102
}
330
1F
100
AcDbEntity
  8
AM_5
100
AcDbDimension
  2
*D11
 10
269.6701275497217
 20
1025.905777236678
 30
0.0
 11
419.6701275497217
 21
1028.655777236678
 31
0.0
 70
    32
 71
     5
 42
300.0
  3
AM_ISO
100
AcDbAlignedDimension
 13
569.6701275497217
 23
992.4057772366783
 33
0.0
 14
269.6701275497217
 24
992.4057772366783
 34
0.0
100
AcDbRotatedDimension
1001
ACAD
1000
DSTYLE
1002
{
1070
   271
1070
     8
1002
}
  0
DIMENSION
  5
2550
102
{ACAD_XDICTIONARY
360
2551
102
}
102
{ACAD_REACTORS
330
2552
102
}
330
1F
100
AcDbEntity
  8
AM_5
100
AcDbDimension
  2
*D12
 10
311.6701275497216
 20
930.9057772366784
 30
0.0
 11
308.7451275497215
 21
927.4057772366784
 31
0.0
 70
    32
  1
(<>)
 71
     5
 42
7.000000000000454
  3
AM_ISO
100
AcDbAlignedDimension
 13
299.1701275497214
 23
923.9057772366781
 33
0.0
 14
299.6701275497216
 24
930.9057772366784
 34
0.0
 50
90.0
100
AcDbRotatedDimension
1001
ACAD
1000
DSTYLE
1002
{
1070
   271
1070
     8
1002
}
  0
DIMENSION
  5
2553
102
{ACAD_XDICTIONARY
360
2554
102
}
102
{ACAD_REACTORS
330
2555
102
}
330
1F
100
AcDbEntity
  8
AM_5
100
AcDbDimension
  2
*D13
 10
464.6701275497226
 20
1136.788792260595
 30
0.0
 11
419.6701275497225
 21
1139.538792260594
 31
0.0
 70
    32
 71
     5
 42
90.0
  3
AM_ISO
100
AcDbAlignedDimension
 13
374.6701275497226
 23
1113.788792260594
 33
0.0
 14
464.6701275497226
 24
1113.788792260594
 34
0.0
100
AcDbRotatedDimension
1001
ACAD
1000
DSTYLE
1002
{
1070
   271
1070
     8
1002
}
  0
DIMENSION
  5
2556
102
{ACAD_XDICTIONARY
360
2557
102
}
102
{ACAD_REACTORS
330
2558
102
}
330
1F
100
AcDbEntity
  8
AM_5
100
AcDbDimension
  2
*D14
 10
487.1701275497223
 20
1143.788792260594
 30
0.0
 11
419.6701275497223
 21
1146.713792260594
 31
0.0
 70
    32
  1
(<>)
 71
     5
 42
135.0
  3
AM_ISO
100
AcDbAlignedDimension
 13
352.1701275497223
 23
1113.988792260594
 33
0.0
 14
487.1701275497223
 24
1113.988792260594
 34
0.0
100
AcDbRotatedDimension
1001
ACAD
1000
DSTYLE
1002
{
1070
   271
1070
     8
1002
}
  0
DIMENSION
  5
2559
102
{ACAD_XDICTIONARY
360
255A
102
}
102
{ACAD_REACTORS
330
255B
102
}
330
1F
100
AcDbEntity
  8
AM_5
100
AcDbDimension
  2
*D15
 10
495.6701275497223
 20
1150.788792260594
 30
0.0
 11
419.6701275497223
 21
1153.539136748783
 31
0.0
 70
    32
 71
     5
 42
152.0
  3
AM_ISO
100
AcDbAlignedDimension
 13
343.6701275497223
 23
1113.288792260594
 33
0.0
 14
495.6701275497223
 24
1113.288792260594
 34
0.0
100
AcDbRotatedDimension
1001
ACAD
1000
DSTYLE
1002
{
1070
   271
1070
     8
1002
}
  0
DIMENSION
  5
255C
102
{ACAD_XDICTIONARY
360
255D
102
}
102
{ACAD_REACTORS
330
255E
102
}
330
1F
100
AcDbEntity
  8
AM_5
100
AcDbDimension
  2
*D16
 10
337.000711804199
 20
1082.288792260595
 30
0.0
 11
337.0007118041988
 21
1099.917625642484
 31
0.0
 70
   160
 71
     5
 42
27.0
  3
AM_ISO
100
AcDbAlignedDimension
 13
369.845238937914
 23
1109.288792260594
 33
0.0
 14
369.5688755537454
 24
1082.288792260595
 34
0.0
 50
90.0
100
AcDbRotatedDimension
1001
ACAD
1000
DSTYLE
1002
{
1070
   271
1070
     8
1002
}
  0
DIMENSION
  5
255F
102
{ACAD_XDICTIONARY
360
2560
102
}
102
{ACAD_REACTORS
330
2561
102
}
330
1F
100
AcDbEntity
  8
AM_5
100
AcDbDimension
  2
*D17
 10
311.6701275497216
 20
930.9057772366784
 30
0.0
 11
311.6701275497214
 21
964.5415243696001
 31
0.0
 70
   160
 71
     5
 42
57.99999999999977
  3
AM_ISO
100
AcDbAlignedDimension
 13
299.6701275497216
 23
988.9057772366783
 33
0.0
 14
299.6701275497216
 24
930.9057772366784
 34
0.0
 50
90.0
100
AcDbRotatedDimension
1001
ACAD
1000
DSTYLE
1002
{
1070
   271
1070
     8
1002
}
  0
DIMENSION
  5
2562
102
{ACAD_XDICTIONARY
360
2563
102
}
102
{ACAD_REACTORS
330
2564
102
}
330
1F
100
AcDbEntity
  8
AM_5
100
AcDbDimension
  2
*D18
 10
554.6701275497221
 20
807.513713223337
 30
0.0
 11
562.170127549722
 21
810.263713223337
 31
0.0
 70
    32
 71
     5
 42
14.99999999999977
  3
AM_ISO
100
AcDbAlignedDimension
 13
569.6701275497218
 23
819.5137132233364
 33
0.0
 14
554.6701275497221
 24
843.8322117443743
 34
0.0
100
AcDbRotatedDimension
1001
ACAD
1000
DSTYLE
1002
{
1070
   271
1070
     8
1002
}
  0
DIMENSION
  5
2565
102
{ACAD_XDICTIONARY
360
2566
102
}
102
{ACAD_REACTORS
330
2567
102
}
330
1F
100
AcDbEntity
  8
AM_5
100
AcDbDimension
  2
*D19
 10
284.6701275497214
 20
807.5137132233365
 30
0.0
 11
277.1701275497215
 21
810.2637132233365
 31
0.0
 70
    32
 71
     5
 42
14.99999999999977
  3
AM_ISO
100
AcDbAlignedDimension
 13
269.6701275497217
 23
819.5137132233364
 33
0.0
 14
284.6701275497214
 24
843.8322117443719
 34
0.0
100
AcDbRotatedDimension
1001
ACAD
1000
DSTYLE
1002
{
1070
   271
1070
     8
1002
}
  0
DIMENSION
  5
2568
102
{ACAD_XDICTIONARY
360
2569
102
}
102
{ACAD_REACTORS
330
256A
102
}
330
1F
100
AcDbEntity
  8
AM_5
100
AcDbDimension
  2
*D20
 10
698.9133147069107
 20
911.9057772366783
 30
0.0
 11
671.9133147069108
 21
914.6557772366783
 31
0.0
 70
    32
 71
     5
 42
54.0
  3
AM_ISO
100
AcDbAlignedDimension
 13
644.9133147069107
 23
929.0709196565503
 33
0.0
 14
698.9133147069107
 24
929.0709196565503
 34
0.0
100
AcDbRotatedDimension
1001
ACAD
1000
DSTYLE
1002
{
1070
   271
1070
     8
1002
}
  0
DIMENSION
  5
256B
102
{ACAD_XDICTIONARY
360
256C
102
}
102
{ACAD_REACTORS
330
256D
102
}
330
1F
100
AcDbEntity
  8
AM_5
100
AcDbDimension
  2
*D21
 10
707.9133147069107
 20
904.9057772366785
 30
0.0
 11
671.9133147069108
 21
907.6561217248674
 31
0.0
 70
    32
 71
     5
 42
72.0
  3
AM_ISO
100
AcDbAlignedDimension
 13
635.9133147069107
 23
934.2349084806468
 33
0.0
 14
707.9133147069107
 24
934.2349084806468
 34
0.0
100
AcDbRotatedDimension
1001
ACAD
1000
DSTYLE
1002
{
1070
   271
1070
     8
1002
}
  0
DIMENSION
  5
256E
102
{ACAD_XDICTIONARY
360
256F
102
}
102
{ACAD_REACTORS
330
2570
102
}
330
1F
100
AcDbEntity
  8
AM_5
100
AcDbDimension
  2
*D22
 10
623.9133147069107
 20
932.9057772366782
 30
0.0
 11
621.1633147069107
 21
928.4057772366784
 31
0.0
 70
    32
 71
     5
 42
9.0
  3
AM_ISO
100
AcDbAlignedDimension
 13
640.5111241011693
 23
923.9057772366782
 33
0.0
 14
641.0541941075239
 24
932.9057772366782
 34
0.0
 50
90.0
100
AcDbRotatedDimension
1001
ACAD
1000
DSTYLE
1002
{
1070
   271
1070
     8
1002
}
  0
DIMENSION
  5
2571
102
{ACAD_XDICTIONARY
360
2572
102
}
102
{ACAD_REACTORS
330
2573
102
}
330
1F
100
AcDbEntity
  8
AM_5
100
AcDbDimension
  2
*D23
 10
623.9133147069107
 20
986.9057772366783
 30
0.0
 11
621.1633147069107
 21
959.9057772366784
 31
0.0
 70
    32
 71
     5
 42
54.0
  3
AM_ISO
100
AcDbAlignedDimension
 13
641.0541941075239
 23
932.9057772366782
 33
0.0
 14
641.0541941075239
 24
986.9057772366783
 34
0.0
 50
90.0
100
AcDbRotatedDimension
1001
ACAD
1000
DSTYLE
1002
{
1070
   271
1070
     8
1002
}
  0
DIMENSION
  5
2574
102
{ACAD_XDICTIONARY
360
2575
102
}
102
{ACAD_REACTORS
330
2576
102
}
330
1F
100
AcDbEntity
  8
AM_5
100
AcDbDimension
  2
*D24
 10
616.9133147069108
 20
992.9057772366784
 30
0.0
 11
614.1633147069106
 21
958.4057772366785
 31
0.0
 70
    32
 71
     5
 42
69.0
  3
AM_ISO
100
AcDbAlignedDimension
 13
640.5111241011693
 23
923.9057772366782
 33
0.0
 14
646.24244595088
 24
992.9057772366784
 34
0.0
 50
90.0
100
AcDbRotatedDimension
1001
ACAD
1000
DSTYLE
1002
{
1070
   271
1070
     8
1002
}
  0
DIMENSION
  5
2577
102
{ACAD_XDICTIONARY
360
2578
102
}
102
{ACAD_REACTORS
330
2579
102
}
330
1F
100
AcDbEntity
  8
AM_5
100
AcDbDimension
  2
*D25
 10
609.9133147069108
 20
1003.905777236678
 30
0.0
 11
607.1633147069107
 21
963.9057772366784
 31
0.0
 70
    32
 71
     5
 42
80.0
  3
AM_ISO
100
AcDbAlignedDimension
 13
640.5111241011693
 23
923.9057772366782
 33
0.0
 14
654.2133147069105
 24
1003.905777236678
 34
0.0
 50
90.0
100
AcDbRotatedDimension
1001
ACAD
1000
DSTYLE
1002
{
1070
   271
1070
     8
1002
}
  0
DIMENSION
  5
257A
102
{ACAD_XDICTIONARY
360
257B
102
}
102
{ACAD_REACTORS
330
257C
102
}
330
1F
100
AcDbEntity
  8
AM_5
100
AcDbDimension
  2
*D26
 10
720.9133147069108
 20
959.9057772366784
 30
0.0
 11
718.1633147069106
 21
941.9057772366784
 31
0.0
 70
    32
 71
     5
 42
36.0
  3
AM_ISO
100
AcDbAlignedDimension
 13
703.3155053126522
 23
923.9057772366782
 33
0.0
 14
708.9133147069108
 24
959.9057772366784
 34
0.0
 50
90.0
100
AcDbRotatedDimension
1001
ACAD
1000
DSTYLE
1002
{
1070
   271
1070
     8
1002
}
  0
LINE
  5
257D
330
1F
100
AcDbEntity
  8
AM_7
100
AcDbLine
 10
543.5701275497219
 20
1085.538792260594
 30
0.0
 11
547.820127549722
 21
1085.538792260594
 31
0.0
1001
GENIUS_GENOREF_13
1005
25B6
  0
LINE
  5
257E
330
1F
100
AcDbEntity
  8
AM_7
100
AcDbLine
 10
543.5701275497219
 20
1085.538792260594
 30
0.0
 11
543.5701275497219
 21
1089.788792260594
 31
0.0
1001
GENIUS_GENOREF_13
1005
25B6
  0
LINE
  5
257F
330
1F
100
AcDbEntity
  8
AM_7
100
AcDbLine
 10
543.5701275497219
 20
1085.538792260594
 30
0.0
 11
539.320127549722
 21
1085.538792260594
 31
0.0
1001
GENIUS_GENOREF_13
1005
25B6
  0
LINE
  5
2580
330
1F
100
AcDbEntity
  8
AM_7
100
AcDbLine
 10
543.5701275497219
 20
1085.538792260594
 30
0.0
 11
543.5701275497219
 21
1081.288792260594
 31
0.0
1001
GENIUS_GENOREF_13
1005
25B6
  0
LINE
  5
2581
330
1F
100
AcDbEntity
  8
AM_7
100
AcDbLine
 10
543.5701275497219
 20
1106.038792260594
 30
0.0
 11
547.820127549722
 21
1106.038792260594
 31
0.0
1001
GENIUS_GENOREF_13
1005
25B5
  0
LINE
  5
2582
330
1F
100
AcDbEntity
  8
AM_7
100
AcDbLine
 10
543.5701275497219
 20
1106.038792260594
 30
0.0
 11
543.5701275497219
 21
1110.288792260594
 31
0.0
1001
GENIUS_GENOREF_13
1005
25B5
  0
LINE
  5
2583
330
1F
100
AcDbEntity
  8
AM_7
100
AcDbLine
 10
543.5701275497219
 20
1106.038792260594
 30
0.0
 11
539.320127549722
 21
1106.038792260594
 31
0.0
1001
GENIUS_GENOREF_13
1005
25B5
  0
LINE
  5
2584
330
1F
100
AcDbEntity
  8
AM_7
100
AcDbLine
 10
543.5701275497219
 20
1106.038792260594
 30
0.0
 11
543.5701275497219
 21
1101.788792260594
 31
0.0
1001
GENIUS_GENOREF_13
1005
25B5
  0
LINE
  5
2585
330
1F
100
AcDbEntity
  8
AM_7
100
AcDbLine
 10
295.7701275497216
 20
1085.538792260594
 30
0.0
 11
300.0201275497216
 21
1085.538792260594
 31
0.0
1001
GENIUS_GENOREF_13
1005
25B4
  0
LINE
  5
2586
330
1F
100
AcDbEntity
  8
AM_7
100
AcDbLine
 10
295.7701275497216
 20
1085.538792260594
 30
0.0
 11
295.7701275497216
 21
1089.788792260594
 31
0.0
1001
GENIUS_GENOREF_13
1005
25B4
  0
LINE
  5
2587
330
1F
100
AcDbEntity
  8
AM_7
100
AcDbLine
 10
295.7701275497216
 20
1085.538792260594
 30
0.0
 11
291.5201275497216
 21
1085.538792260594
 31
0.0
1001
GENIUS_GENOREF_13
1005
25B4
  0
LINE
  5
2588
330
1F
100
AcDbEntity
  8
AM_7
100
AcDbLine
 10
295.7701275497216
 20
1085.538792260594
 30
0.0
 11
295.7701275497216
 21
1081.288792260594
 31
0.0
1001
GENIUS_GENOREF_13
1005
25B4
  0
LINE
  5
2589
330
1F
100
AcDbEntity
  8
AM_7
100
AcDbLine
 10
295.7701275497216
 20
1106.038792260594
 30
0.0
 11
300.0201275497216
 21
1106.038792260594
 31
0.0
1001
GENIUS_GENOREF_13
1005
25B3
  0
LINE
  5
258A
330
1F
100
AcDbEntity
  8
AM_7
100
AcDbLine
 10
295.7701275497216
 20
1106.038792260594
 30
0.0
 11
295.7701275497216
 21
1110.288792260594
 31
0.0
1001
GENIUS_GENOREF_13
1005
25B3
  0
LINE
  5
258B
330
1F
100
AcDbEntity
  8
AM_7
100
AcDbLine
 10
295.7701275497216
 20
1106.038792260594
 30
0.0
 11
291.5201275497216
 21
1106.038792260594
 31
0.0
1001
GENIUS_GENOREF_13
1005
25B3
  0
LINE
  5
258C
330
1F
100
AcDbEntity
  8
AM_7
100
AcDbLine
 10
295.7701275497216
 20
1106.038792260594
 30
0.0
 11
295.7701275497216
 21
1101.788792260594
 31
0.0
1001
GENIUS_GENOREF_13
1005
25B3
  0
TEXT
  5
258D
330
1F
100
AcDbEntity
  8
AM_5
100
AcDbText
 10
713.1986798343548
 20
974.3156159204527
 30
0.0
 40
3.0
  1
G1/4
100
AcDbText
  0
INSERT
  5
258E
330
1F
100
AcDbEntity
  8
AM_5
100
AcDbBlockReference
  2
*S3
 10
-1058.816688362097
 20
173.8023557520124
 30
0.0
  0
INSERT
  5
258F
330
1F
100
AcDbEntity
  8
AM_5
100
AcDbBlockReference
  2
*S4
 10
-1058.816688362097
 20
173.8023557520124
 30
0.0
  0
TEXT
  5
2590
330
1F
100
AcDbEntity
  8
AM_5
100
AcDbText
 10
576.3936705240546
 20
943.2795776998377
 30
0.0
 40
3.0
  1
2-G1/4
100
AcDbText
  0
INSERT
  5
2591
330
1F
100
AcDbEntity
  8
AM_5
100
AcDbBlockReference
  2
*S5
 10
-1058.816688362097
 20
173.8023557520124
 30
0.0
  0
TEXT
  5
2592
330
1F
100
AcDbEntity
  8
AM_5
100
AcDbText
 10
575.3053133588166
 20
869.1176088999881
 30
0.0
 40
3.0
  1
2-G1/4
100
AcDbText
  0
INSERT
  5
2593
330
1F
100
AcDbEntity
  8
AM_5
100
AcDbBlockReference
  2
*S6
 10
-1058.816688362097
 20
173.8023557520124
 30
0.0
  0
TEXT
  5
2594
330
1F
100
AcDbEntity
  8
AM_5
100
AcDbText
 10
336.2630362717086
 20
1058.879636839276
 30
0.0
 40
3.0
  1
4-M6x10L
100
AcDbText
  0
DIMENSION
  5
2595
102
{ACAD_XDICTIONARY
360
2596
102
}
102
{ACAD_REACTORS
330
2597
102
}
330
1F
100
AcDbEntity
  8
AM_5
100
AcDbDimension
  2
*D27
 10
299.6701275497216
 20
1004.905777236678
 30
0.0
 11
284.6701275497217
 21
1007.655777236678
 31
0.0
 70
    32
 71
     5
 42
30.0
  3
AM_ISO
100
AcDbAlignedDimension
 13
269.6701275497217
 23
992.4057772366783
 33
0.0
 14
299.6701275497216
 24
992.4057772366783
 34
0.0
100
AcDbRotatedDimension
1001
ACAD
1000
DSTYLE
1002
{
1070
   271
1070
     8
1002
}
  0
DIMENSION
  5
2598
102
{ACAD_XDICTIONARY
360
2599
102
}
102
{ACAD_REACTORS
330
259A
102
}
330
1F
100
AcDbEntity
  8
AM_5
100
AcDbDimension
  2
*D28
 10
495.6701275497223
 20
1150.788792260594
 30
0.0
 11
517.6701275497221
 21
1153.538792260595
 31
0.0
 70
    32
 71
     5
 42
43.99999999999955
  3
AM_ISO
100
AcDbAlignedDimension
 13
539.6701275497219
 23
1131.288792260594
 33
0.0
 14
495.6701275497223
 24
1113.288792260594
 34
0.0
100
AcDbRotatedDimension
1001
ACAD
1000
DSTYLE
1002
{
1070
   271
1070
     8
1002
}
  0
LINE
  5
259B
330
1F
100
AcDbEntity
  8
AM_4
  6
HIDDEN
 48
0.2
100
AcDbLine
 10
666.5633147069106
 20
925.2557772366783
 30
0.0
 11
677.2633147069109
 21
925.2557772366783
 31
0.0
  0
LINE
  5
259C
330
1F
100
AcDbEntity
  8
AM_7
100
AcDbLine
 10
671.9133147069108
 20
932.9057772366782
 30
0.0
 11
671.9133147069108
 21
922.9057772366783
 31
0.0
1001
GENIUS_GENOBJ-N-CEN_13
1002
{
1000
OWNER
1000
GEN
1002
}
1001
GENIUS_GENODEF_13
1002
{
1000
HIER
1070
     0
1002
}
1002
{
1000
MANEDIT
1070
     0
1002
}
1002
{
1000
NOSEL
1070
     0
1002
}
1002
{
1000
BEHIND
1070
     0
1002
}
1002
{
1000
OTHER
1070
     0
1002
}
1002
{
1000
REACTOR
1002
}
  0
LINE
  5
259D
330
1F
100
AcDbEntity
  8
AM_4
  6
HIDDEN
 48
0.2
100
AcDbLine
 10
665.2133147069108
 20
923.9057772366782
 30
0.0
 11
665.9133147069107
 21
930.9057772366783
 31
0.0
  0
LINE
  5
259E
330
1F
100
AcDbEntity
  8
AM_4
  6
HIDDEN
 48
0.2
100
AcDbLine
 10
666.5633147069106
 20
925.2557772366783
 30
0.0
 11
667.2283147069106
 21
931.9057772366782
 31
0.0
  0
LINE
  5
259F
330
1F
100
AcDbEntity
  8
AM_4
  6
HIDDEN
 48
0.2
100
AcDbLine
 10
665.2133147069108
 20
923.9057772366782
 30
0.0
 11
666.5633147069106
 21
925.2557772366783
 31
0.0
  0
LINE
  5
25A0
330
1F
100
AcDbEntity
  8
AM_4
  6
HIDDEN
 48
0.2
100
AcDbLine
 10
677.2633147069109
 20
925.2557772366783
 30
0.0
 11
676.598314706911
 21
931.9057772366782
 31
0.0
  0
LINE
  5
25A1
330
1F
100
AcDbEntity
  8
AM_4
  6
HIDDEN
 48
0.2
100
AcDbLine
 10
678.6133147069108
 20
923.9057772366782
 30
0.0
 11
677.9133147069107
 21
930.9057772366783
 31
0.0
  0
LINE
  5
25A2
330
1F
100
AcDbEntity
  8
AM_4
  6
HIDDEN
 48
0.2
100
AcDbLine
 10
678.6133147069108
 20
923.9057772366782
 30
0.0
 11
677.2633147069109
 21
925.2557772366783
 31
0.0
  0
LINE
  5
25A3
330
1F
100
AcDbEntity
  8
AM_4
  6
HIDDEN
 48
0.2
100
AcDbLine
 10
635.9133147069107
 20
966.6057772366784
 30
0.0
 11
637.2633147069107
 21
965.2557772366785
 31
0.0
  0
LINE
  5
25A4
330
1F
100
AcDbEntity
  8
AM_4
  6
HIDDEN
 48
0.2
100
AcDbLine
 10
635.9133147069107
 20
953.2057772366782
 30
0.0
 11
637.2633147069107
 21
954.5557772366782
 31
0.0
  0
LINE
  5
25A5
330
1F
100
AcDbEntity
  8
AM_4
  6
HIDDEN
 48
0.2
100
AcDbLine
 10
635.9133147069107
 20
953.2057772366782
 30
0.0
 11
642.9133147069108
 21
953.9057772366783
 31
0.0
  0
LINE
  5
25A6
330
1F
100
AcDbEntity
  8
AM_4
  6
HIDDEN
 48
0.2
100
AcDbLine
 10
637.2633147069107
 20
965.2557772366785
 30
0.0
 11
643.9133147069107
 21
964.5907772366784
 31
0.0
  0
LINE
  5
25A7
330
1F
100
AcDbEntity
  8
AM_7
100
AcDbLine
 10
644.9133147069107
 20
959.9057772366784
 30
0.0
 11
634.9133147069108
 21
959.9057772366784
 31
0.0
1001
GENIUS_GENOBJ-N-CEN_13
1002
{
1000
OWNER
1000
GEN
1002
}
1001
GENIUS_GENODEF_13
1002
{
1000
HIER
1070
     0
1002
}
1002
{
1000
MANEDIT
1070
     0
1002
}
1002
{
1000
NOSEL
1070
     0
1002
}
1002
{
1000
BEHIND
1070
     0
1002
}
1002
{
1000
OTHER
1070
     0
1002
}
1002
{
1000
REACTOR
1002
}
  0
LINE
  5
25A8
330
1F
100
AcDbEntity
  8
AM_4
  6
HIDDEN
 48
0.2
100
AcDbLine
 10
637.2633147069107
 20
954.5557772366782
 30
0.0
 11
643.9133147069107
 21
955.2207772366781
 31
0.0
  0
LINE
  5
25A9
330
1F
100
AcDbEntity
  8
AM_4
  6
HIDDEN
 48
0.2
100
AcDbLine
 10
637.2633147069107
 20
954.5557772366782
 30
0.0
 11
637.2633147069107
 21
965.2557772366785
 31
0.0
  0
LINE
  5
25AA
330
1F
100
AcDbEntity
  8
AM_4
  6
HIDDEN
 48
0.2
100
AcDbLine
 10
635.9133147069107
 20
966.6057772366784
 30
0.0
 11
642.9133147069108
 21
965.9057772366782
 31
0.0
  0
DIMENSION
  5
25AB
102
{ACAD_XDICTIONARY
360
25AC
102
}
102
{ACAD_REACTORS
330
25AD
102
}
330
1F
100
AcDbEntity
  8
AM_5
100
AcDbDimension
  2
*D29
 10
313.7798010877763
 20
826.0137132233367
 30
0.0
 11
313.7798010877761
 21
858.5593630675283
 31
0.0
 70
   160
 71
     5
 42
57.99999999999977
  3
AM_ISO
100
AcDbAlignedDimension
 13
299.6701275497216
 23
884.0137132233364
 33
0.0
 14
299.6701275497216
 24
826.0137132233367
 34
0.0
 50
90.0
100
AcDbRotatedDimension
1001
ACAD
1000
DSTYLE
1002
{
1070
   271
1070
     8
1002
}
  0
DIMENSION
  5
25AE
102
{ACAD_XDICTIONARY
360
25AF
102
}
102
{ACAD_REACTORS
330
25B0
102
}
330
1F
100
AcDbEntity
  8
AM_5
100
AcDbDimension
  2
*D30
 10
690.1133147069113
 20
1011.905777236678
 30
0.0
 11
671.913314706911
 21
1014.655777236678
 31
0.0
 70
    32
 71
     5
 42
36.40000000000055
  3
AM_ISO
100
AcDbAlignedDimension
 13
653.7133147069107
 23
1003.405777236678
 33
0.0
 14
690.1133147069113
 24
1003.405777236678
 34
0.0
100
AcDbRotatedDimension
1001
ACAD
1000
DSTYLE
1002
{
1070
   271
1070
     8
1002
}
  0
INSERT
  5
25B1
330
1F
100
AcDbEntity
  8
AM_5
100
AcDbBlockReference
  2
*S7
 10
-1058.816688362097
 20
173.8023557520124
 30
0.0
  0
TEXT
  5
25B2
330
1F
100
AcDbEntity
  8
AM_5
100
AcDbText
 10
608.7782960995241
 20
913.5773723621198
 30
0.0
 40
3.0
  1
4-M6x15L
100
AcDbText
  0
POINT
  5
25B3
330
1F
100
AcDbEntity
  8
0
 60
     1
100
AcDbPoint
 10
-1964.461491312389
 20
170.1634777498491
 30
0.0
1001
GENIUS_GENOBJ-N-CRS_13
1002
{
1000
OWNER
1000
GEN
1002
}
1001
GENIUS_GENOENT_13
1002
{
1000
MYREF
1005
25B3
1002
}
1002
{
1000
GRP
1005
0
1002
}
1001
GENIUS_GENOLIS_13
1002
{
1000
ENT
1005
258C
1005
258B
1005
258A
1005
2589
1002
}
1001
GENIUS_GENODEF_13
1002
{
1000
HIER
1070
    10
1002
}
1002
{
1000
MANEDIT
1070
     0
1002
}
1002
{
1000
NOSEL
1070
     0
1002
}
1002
{
1000
BEHIND
1070
     0
1002
}
1002
{
1000
OTHER
1070
     0
1002
}
1002
{
1000
REACTOR
1002
}
  0
POINT
  5
25B4
330
1F
100
AcDbEntity
  8
0
 60
     1
100
AcDbPoint
 10
-1964.461491312389
 20
170.1634777498491
 30
0.0
1001
GENIUS_GENODEF_13
1002
{
1000
HIER
1070
    10
1002
}
1002
{
1000
MANEDIT
1070
     0
1002
}
1002
{
1000
NOSEL
1070
     0
1002
}
1002
{
1000
BEHIND
1070
     0
1002
}
1002
{
1000
OTHER
1070
     0
1002
}
1002
{
1000
REACTOR
1002
}
1001
GENIUS_GENOENT_13
1002
{
1000
MYREF
1005
25B4
1002
}
1002
{
1000
GRP
1005
0
1002
}
1001
GENIUS_GENOBJ-N-CRS_13
1002
{
1000
OWNER
1000
GEN
1002
}
1001
GENIUS_GENOLIS_13
1002
{
1000
ENT
1005
2588
1005
2587
1005
2586
1005
2585
1002
}
  0
POINT
  5
25B5
330
1F
100
AcDbEntity
  8
0
 60
     1
100
AcDbPoint
 10
-1964.461491312389
 20
170.1634777498491
 30
0.0
1001
GENIUS_GENOENT_13
1002
{
1000
MYREF
1005
25B5
1002
}
1002
{
1000
GRP
1005
0
1002
}
1001
GENIUS_GENOBJ-N-CRS_13
1002
{
1000
OWNER
1000
GEN
1002
}
1001
GENIUS_GENODEF_13
1002
{
1000
HIER
1070
    10
1002
}
1002
{
1000
MANEDIT
1070
     0
1002
}
1002
{
1000
NOSEL
1070
     0
1002
}
1002
{
1000
BEHIND
1070
     0
1002
}
1002
{
1000
OTHER
1070
     0
1002
}
1002
{
1000
REACTOR
1002
}
1001
GENIUS_GENOLIS_13
1002
{
1000
ENT
1005
2584
1005
2583
1005
2582
1005
2581
1002
}
  0
POINT
  5
25B6
330
1F
100
AcDbEntity
  8
0
 60
     1
100
AcDbPoint
 10
-1964.461491312389
 20
170.1634777498491
 30
0.0
1001
GENIUS_GENOBJ-N-CRS_13
1002
{
1000
OWNER
1000
GEN
1002
}
1001
GENIUS_GENOLIS_13
1002
{
1000
ENT
1005
2580
1005
257F
1005
257E
1005
257D
1002
}
1001
GENIUS_GENOENT_13
1002
{
1000
MYREF
1005
25B6
1002
}
1002
{
1000
GRP
1005
0
1002
}
1001
GENIUS_GENODEF_13
1002
{
1000
HIER
1070
    10
1002
}
1002
{
1000
MANEDIT
1070
     0
1002
}
1002
{
1000
NOSEL
1070
     0
1002
}
1002
{
1000
BEHIND
1070
     0
1002
}
1002
{
1000
OTHER
1070
     0
1002
}
1002
{
1000
REACTOR
1002
}
  0
TEXT
  5
279E
330
1F
100
AcDbEntity
  8
0
100
AcDbText
 10
627.5760720190962
 20
1055.131714449705
 30
0.0
 40
8.808799999999999
  1
stroke=0mm
100
AcDbText
  0
ENDSEC
  0
SECTION
  2
OBJECTS
  0
DICTIONARY
  5
C
330
0
100
AcDbDictionary
281
     1
  3
ACAD_COLOR
350
BE
  3
ACAD_GROUP
350
D
  3
ACAD_LAYOUT
350
1A
  3
ACAD_MATERIAL
350
BD
  3
ACAD_MLINESTYLE
350
17
  3
ACAD_PLOTSETTINGS
350
19
  3
ACAD_PLOTSTYLENAME
350
E
  3
ACAD_TABLESTYLE
350
11A
  3
ACDBHEADERROUNDTRIPXREC
350
2999
  3
AcDbVariableDictionary
350
94
  3
AcmDictionary
350
5B
  3
AMG
350
41
  3
AMGSNAPSETTINGS
350
1B8
  3
DWGPROPS
350
2998
  0
DICTIONARY
  5
3F9
330
2
100
AcDbDictionary
280
     1
281
     1
  3
ACAD_LAYERFILTERS
360
1720
  3
ACAD_LAYERSTATES
360
CB1
  3
ACLYDICTIONARY
360
171F
  0
DICTIONARY
  5
8F
330
1F
100
AcDbDictionary
280
     1
281
     1
  0
DICTIONARY
  5
2545
330
2544
100
AcDbDictionary
280
     1
281
     1
  3
ACAD_DIMASSOC
360
2546
  0
DICTIONARY
  5
2548
330
2547
100
AcDbDictionary
280
     1
281
     1
  3
ACAD_DIMASSOC
360
2549
  0
DICTIONARY
  5
254B
330
254A
100
AcDbDictionary
280
     1
281
     1
  3
ACAD_DIMASSOC
360
254C
  0
DICTIONARY
  5
254E
330
254D
100
AcDbDictionary
280
     1
281
     1
  3
ACAD_DIMASSOC
360
254F
  0
DICTIONARY
  5
2551
330
2550
100
AcDbDictionary
280
     1
281
     1
  3
ACAD_DIMASSOC
360
2552
  0
DICTIONARY
  5
2554
330
2553
100
AcDbDictionary
280
     1
281
     1
  3
ACAD_DIMASSOC
360
2555
  0
DICTIONARY
  5
2557
330
2556
100
AcDbDictionary
280
     1
281
     1
  3
ACAD_DIMASSOC
360
2558
  0
DICTIONARY
  5
255A
330
2559
100
AcDbDictionary
280
     1
281
     1
  3
ACAD_DIMASSOC
360
255B
  0
DICTIONARY
  5
255D
330
255C
100
AcDbDictionary
280
     1
281
     1
  3
ACAD_DIMASSOC
360
255E
  0
DICTIONARY
  5
2560
330
255F
100
AcDbDictionary
280
     1
281
     1
  3
ACAD_DIMASSOC
360
2561
  0
DICTIONARY
  5
2563
330
2562
100
AcDbDictionary
280
     1
281
     1
  3
ACAD_DIMASSOC
360
2564
  0
DICTIONARY
  5
2566
330
2565
100
AcDbDictionary
280
     1
281
     1
  3
ACAD_DIMASSOC
360
2567
  0
DICTIONARY
  5
2569
330
2568
100
AcDbDictionary
280
     1
281
     1
  3
ACAD_DIMASSOC
360
256A
  0
DICTIONARY
  5
256C
330
256B
100
AcDbDictionary
280
     1
281
     1
  3
ACAD_DIMASSOC
360
256D
  0
DICTIONARY
  5
256F
330
256E
100
AcDbDictionary
280
     1
281
     1
  3
ACAD_DIMASSOC
360
2570
  0
DICTIONARY
  5
2572
330
2571
100
AcDbDictionary
280
     1
281
     1
  3
ACAD_DIMASSOC
360
2573
  0
DICTIONARY
  5
2575
330
2574
100
AcDbDictionary
280
     1
281
     1
  3
ACAD_DIMASSOC
360
2576
  0
DICTIONARY
  5
2578
330
2577
100
AcDbDictionary
280
     1
281
     1
  3
ACAD_DIMASSOC
360
2579
  0
DICTIONARY
  5
257B
330
257A
100
AcDbDictionary
280
     1
281
     1
  3
ACAD_DIMASSOC
360
257C
  0
DICTIONARY
  5
2596
330
2595
100
AcDbDictionary
280
     1
281
     1
  3
ACAD_DIMASSOC
360
2597
  0
DICTIONARY
  5
2599
330
2598
100
AcDbDictionary
280
     1
281
     1
  3
ACAD_DIMASSOC
360
259A
  0
DICTIONARY
  5
25AC
330
25AB
100
AcDbDictionary
280
     1
281
     1
  3
ACAD_DIMASSOC
360
25AD
  0
DICTIONARY
  5
25AF
330
25AE
100
AcDbDictionary
280
     1
281
     1
  3
ACAD_DIMASSOC
360
25B0
  0
DICTIONARY
  5
BE
102
{ACAD_REACTORS
330
C
102
}
330
C
100
AcDbDictionary
281
     1
  0
DICTIONARY
  5
D
102
{ACAD_REACTORS
330
C
102
}
330
C
100
AcDbDictionary
281
     1
  0
DICTIONARY
  5
1A
102
{ACAD_REACTORS
330
C
102
}
330
C
100
AcDbDictionary
281
     1
  3
Model
350
22
  3
配置1
350
1E
  3
配置2
350
26
  0
DICTIONARY
  5
BD
102
{ACAD_REACTORS
330
C
102
}
330
C
100
AcDbDictionary
281
     1
  0
DICTIONARY
  5
17
102
{ACAD_REACTORS
330
C
102
}
330
C
100
AcDbDictionary
281
     1
  3
Standard
350
18
  0
DICTIONARY
  5
19
102
{ACAD_REACTORS
330
C
102
}
330
C
100
AcDbDictionary
281
     1
  0
ACDBDICTIONARYWDFLT
  5
E
102
{ACAD_REACTORS
330
C
102
}
330
C
100
AcDbDictionary
281
     1
  3
Normal
350
F
100
AcDbDictionaryWithDefault
340
F
  0
DICTIONARY
  5
11A
102
{ACAD_REACTORS
330
C
102
}
330
C
100
AcDbDictionary
281
     1
  3
Standard
350
11B
  0
DICTIONARY
  5
2999
102
{ACAD_REACTORS
330
C
102
}
330
C
100
AcDbDictionary
281
     1
  0
DICTIONARY
  5
94
102
{ACAD_REACTORS
330
C
102
}
330
C
100
AcDbDictionary
281
     1
  3
CTABLESTYLE
350
138
  3
DIMASSOC
350
96
  3
INDEXCTL
350
95
  3
PROJECTNAME
350
2996
  0
DICTIONARY
  5
5B
102
{ACAD_REACTORS
330
C
102
}
330
C
100
AcDbDictionary
281
     1
  3
AcmBOM
350
1B5
  3
AcmStdDictionary
350
61
  3
AMDTSECTSYM_ARROWCOLOR
350
123
  0
DICTIONARY
  5
41
102
{ACAD_REACTORS
330
C
102
}
330
C
100
AcDbDictionary
281
     1
  0
DICTIONARY
  5
1B8
102
{ACAD_REACTORS
330
C
102
}
330
C
100
AcDbDictionary
281
     1
  0
XRECORD
  5
2998
102
{ACAD_REACTORS
330
C
102
}
330
C
100
AcDbXrecord
280
     1
  1
DWGPROPS COOKIE
  2

  3

  4

  6

  7

  8

  9

300
AmdtFileType=84
301
=
302
=
303
=
304
=
305
=
306
=
307
=
308
=
309
=
 40
0.0751029166666667
 41
2454422.357293646
 42
2454509.681178021
  1

 90
        1
  0
DICTIONARY
  5
1720
102
{ACAD_REACTORS
330
3F9
102
}
330
3F9
100
AcDbDictionary
281
     1
  0
DICTIONARY
  5
CB1
102
{ACAD_REACTORS
330
3F9
102
}
330
3F9
100
AcDbDictionary
281
     1
  0
DICTIONARY
  5
171F
102
{ACAD_REACTORS
330
3F9
102
}
330
3F9
100
AcDbDictionary
281
     1
1001
ACAD
1000
<All
  0
DIMASSOC
  5
2546
102
{ACAD_REACTORS
330
2545
102
}
330
2545
100
AcDbDimAssoc
330
2544
 90
        3
 70
     0
 71
     0
  1
AcDbOsnapPointRef
 72
    13
331
24A2
 73
     0
 91
        0
 40
0.0
 10
1628.486815911819
 20
818.6034214846658
 30
0.0
 75
     0
  1
AcDbOsnapPointRef
 72
    13
331
24A0
 73
     0
 91
        0
 40
0.0
 10
1613.486815911819
 20
797.082487673643
 30
0.0
 75
     0
  0
DIMASSOC
  5
2549
102
{ACAD_REACTORS
330
2548
102
}
330
2548
100
AcDbDimAssoc
330
2547
 90
        3
 70
     0
 71
     0
  1
AcDbOsnapPointRef
 72
    13
331
24A2
 73
     0
 91
        0
 40
0.0
 10
1628.486815911819
 20
818.6034214846658
 30
0.0
 75
     0
  1
AcDbOsnapPointRef
 72
    13
331
2498
 73
     0
 91
        0
 40
0.0
 10
1604.486815911819
 20
804.6112477976434
 30
0.0
 75
     0
  0
DIMASSOC
  5
254C
102
{ACAD_REACTORS
330
254B
102
}
330
254B
100
AcDbDimAssoc
330
254A
 90
        3
 70
     0
 71
     0
  1
AcDbOsnapPointRef
 72
    13
331
24A2
 73
     0
 91
        0
 40
0.0
 10
1628.486815911819
 20
818.6034214846658
 30
0.0
 75
     0
  1
AcDbOsnapPointRef
 72
     1
331
2436
 73
     0
 91
        0
 40
0.0
 10
1478.48681591182
 20
832.6821533813101
 30
0.0
 75
     0
  0
DIMASSOC
  5
254F
102
{ACAD_REACTORS
330
254E
102
}
330
254E
100
AcDbDimAssoc
330
254D
 90
        3
 70
     0
 71
     0
  1
AcDbOsnapPointRef
 72
    13
331
24A2
 73
     0
 91
        0
 40
0.0
 10
1628.486815911819
 20
818.6034214846658
 30
0.0
 75
     0
  1
AcDbOsnapPointRef
 72
    13
331
23FA
 73
     0
 91
        0
 40
0.0
 10
1328.486815911819
 20
818.6034214846658
 30
0.0
 75
     0
  0
DIMASSOC
  5
2552
102
{ACAD_REACTORS
330
2551
102
}
330
2551
100
AcDbDimAssoc
330
2550
 90
        3
 70
     0
 71
     0
  1
AcDbOsnapPointRef
 72
     6
331
23F7
 73
     0
 91
        0
 40
-0.0000000000000049
 10
1357.986815911819
 20
750.1034214846656
 30
0.0
332
2406
 74
     0
 92
        0
 75
     0
  1
AcDbOsnapPointRef
 72
    13
331
239D
 73
     0
 91
        0
 40
0.0
 10
1358.486815911819
 20
757.1034214846661
 30
0.0
 75
     0
  0
DIMASSOC
  5
2555
102
{ACAD_REACTORS
330
2554
102
}
330
2554
100
AcDbDimAssoc
330
2553
 90
        3
 70
     0
 71
     0
  1
AcDbOsnapPointRef
 72
     1
331
23EF
 73
     0
 91
        0
 40
0.0
 10
1433.48681591182
 20
939.9864365085822
 30
0.0
 75
     0
  1
AcDbOsnapPointRef
 72
     1
331
23F3
 73
     0
 91
        0
 40
0.0
 10
1523.48681591182
 20
939.9864365085822
 30
0.0
 75
     0
  0
DIMASSOC
  5
2558
102
{ACAD_REACTORS
330
2557
102
}
330
2557
100
AcDbDimAssoc
330
2556
 90
        3
 70
     0
 71
     0
  1
AcDbOsnapPointRef
 72
    13
331
2395
 73
     0
 91
        0
 40
0.0
 10
1410.98681591182
 20
940.186436508582
 30
0.0
 75
     0
  1
AcDbOsnapPointRef
 72
     1
331
2395
 73
     0
 91
        0
 40
0.0
 10
1545.98681591182
 20
940.186436508582
 30
0.0
 75
     0
  0
DIMASSOC
  5
255B
102
{ACAD_REACTORS
330
255A
102
}
330
255A
100
AcDbDimAssoc
330
2559
 90
        3
 70
     0
 71
     0
  1
AcDbOsnapPointRef
 72
    13
331
23E6
 73
     0
 91
        0
 40
0.0
 10
1402.48681591182
 20
939.4864365085821
 30
0.0
 75
     0
  1
AcDbOsnapPointRef
 72
     1
331
2447
 73
     0
 91
        0
 40
0.0
 10
1554.48681591182
 20
939.4864365085821
 30
0.0
 75
     0
  0
DIMASSOC
  5
255E
102
{ACAD_REACTORS
330
255D
102
}
330
255D
100
AcDbDimAssoc
330
255C
 90
        3
 70
     0
 71
     0
  1
AcDbOsnapPointRef
 72
    13
331
23EC
 73
     0
 91
        0
 40
0.0
 10
1428.661927300012
 20
935.4864365085822
 30
0.0
 75
     0
  1
AcDbOsnapPointRef
 72
    13
331
23E8
 73
     0
 91
        0
 40
0.0
 10
1428.385563915843
 20
908.4864365085822
 30
0.0
 75
     0
  0
DIMASSOC
  5
2561
102
{ACAD_REACTORS
330
2560
102
}
330
2560
100
AcDbDimAssoc
330
255F
 90
        3
 70
     0
 71
     0
  1
AcDbOsnapPointRef
 72
    13
331
2398
 73
     0
 91
        0
 40
0.0
 10
1358.486815911819
 20
815.1034214846658
 30
0.0
 75
     0
  1
AcDbOsnapPointRef
 72
    13
331
239D
 73
     0
 91
        0
 40
0.0
 10
1358.486815911819
 20
757.1034214846661
 30
0.0
 75
     0
  0
DIMASSOC
  5
2564
102
{ACAD_REACTORS
330
2563
102
}
330
2563
100
AcDbDimAssoc
330
2562
 90
        3
 70
     0
 71
     0
  1
AcDbOsnapPointRef
 72
     1
331
24B5
 73
     0
 91
        0
 40
0.0
 10
1628.486815911819
 20
645.711357471324
 30
0.0
 75
     0
  1
AcDbOsnapPointRef
 72
     1
331
24B9
 73
     0
 91
        0
 40
0.0
 10
1613.48681591182
 20
670.0298559923618
 30
0.0
 75
     0
  0
DIMASSOC
  5
2567
102
{ACAD_REACTORS
330
2566
102
}
330
2566
100
AcDbDimAssoc
330
2565
 90
        3
 70
     0
 71
     0
  1
AcDbOsnapPointRef
 72
     1
331
2416
 73
     0
 91
        0
 40
0.0
 10
1328.486815911819
 20
645.711357471324
 30
0.0
 75
     0
  1
AcDbOsnapPointRef
 72
     1
331
2422
 73
     0
 91
        0
 40
0.0
 10
1343.486815911819
 20
670.0298559923595
 30
0.0
 75
     0
  0
DIMASSOC
  5
256A
102
{ACAD_REACTORS
330
2569
102
}
330
2569
100
AcDbDimAssoc
330
2568
 90
        3
 70
     0
 71
     0
  1
AcDbOsnapPointRef
 72
    13
331
24C5
 73
     0
 91
        0
 40
0.0
 10
1703.730003069008
 20
755.2685639045379
 30
0.0
 75
     0
  1
AcDbOsnapPointRef
 72
    13
331
24CE
 73
     0
 91
        0
 40
0.0
 10
1757.730003069008
 20
755.2685639045379
 30
0.0
 75
     0
  0
DIMASSOC
  5
256D
102
{ACAD_REACTORS
330
256C
102
}
330
256C
100
AcDbDimAssoc
330
256B
 90
        3
 70
     0
 71
     0
  1
AcDbOsnapPointRef
 72
     1
331
24A1
 73
     0
 91
        0
 40
0.0
 10
1694.730003069008
 20
760.4325527286343
 30
0.0
 75
     0
  1
AcDbOsnapPointRef
 72
     1
331
24BD
 73
     0
 91
        0
 40
0.0
 10
1766.730003069008
 20
760.4325527286343
 30
0.0
 75
     0
  0
DIMASSOC
  5
2570
102
{ACAD_REACTORS
330
256F
102
}
330
256F
100
AcDbDimAssoc
330
256E
 90
        3
 70
     0
 71
     0
  1
AcDbOsnapPointRef
 72
    13
331
24BE
 73
     0
 91
        0
 40
0.0
 10
1699.327812463267
 20
750.1034214846659
 30
0.0
 75
     0
  1
AcDbOsnapPointRef
 72
     1
331
24C3
 73
     0
 91
        0
 40
0.0
 10
1699.870882469621
 20
759.1034214846659
 30
0.0
 75
     0
  0
DIMASSOC
  5
2573
102
{ACAD_REACTORS
330
2572
102
}
330
2572
100
AcDbDimAssoc
330
2571
 90
        3
 70
     0
 71
     0
  1
AcDbOsnapPointRef
 72
     1
331
24C3
 73
     0
 91
        0
 40
0.0
 10
1699.870882469621
 20
759.1034214846659
 30
0.0
 75
     0
  1
AcDbOsnapPointRef
 72
     1
331
24E5
 73
     0
 91
        0
 40
0.0
 10
1699.870882469621
 20
813.1034214846659
 30
0.0
 75
     0
  0
DIMASSOC
  5
2576
102
{ACAD_REACTORS
330
2575
102
}
330
2575
100
AcDbDimAssoc
330
2574
 90
        3
 70
     0
 71
     0
  1
AcDbOsnapPointRef
 72
    13
331
24BE
 73
     0
 91
        0
 40
0.0
 10
1699.327812463267
 20
750.1034214846659
 30
0.0
 75
     0
  1
AcDbOsnapPointRef
 72
    13
331
24E2
 73
     0
 91
        0
 40
0.0
 10
1705.059134312978
 20
819.1034214846659
 30
0.0
 75
     0
  0
DIMASSOC
  5
2579
102
{ACAD_REACTORS
330
2578
102
}
330
2578
100
AcDbDimAssoc
330
2577
 90
        3
 70
     0
 71
     0
  1
AcDbOsnapPointRef
 72
    13
331
24BE
 73
     0
 91
        0
 40
0.0
 10
1699.327812463267
 20
750.1034214846659
 30
0.0
 75
     0
  1
AcDbOsnapPointRef
 72
     1
331
2501
 73
     0
 91
        0
 40
0.0
 10
1713.030003069008
 20
830.1034214846659
 30
0.0
 75
     0
  0
DIMASSOC
  5
257C
102
{ACAD_REACTORS
330
257B
102
}
330
257B
100
AcDbDimAssoc
330
257A
 90
        3
 70
     0
 71
     0
  1
AcDbOsnapPointRef
 72
     1
331
24BE
 73
     0
 91
        0
 40
0.0
 10
1762.13219367475
 20
750.1034214846659
 30
0.0
 75
     0
  1
AcDbOsnapPointRef
 72
     1
331
2479
 73
     0
 91
        0
 40
0.0
 10
1767.730003069008
 20
786.1034214846658
 30
0.0
 75
     0
  0
DIMASSOC
  5
2597
102
{ACAD_REACTORS
330
2596
102
}
330
2596
100
AcDbDimAssoc
330
2595
 90
        3
 70
     0
 71
     0
  1
AcDbOsnapPointRef
 72
    13
331
23FA
 73
     0
 91
        0
 40
0.0
 10
1328.486815911819
 20
818.6034214846658
 30
0.0
 75
     0
  1
AcDbOsnapPointRef
 72
    13
331
23F8
 73
     0
 91
        0
 40
0.0
 10
1358.486815911819
 20
818.6034214846658
 30
0.0
 75
     0
  0
DIMASSOC
  5
259A
102
{ACAD_REACTORS
330
2599
102
}
330
2599
100
AcDbDimAssoc
330
2598
 90
        3
 70
     0
 71
     0
  1
AcDbOsnapPointRef
 72
    13
331
2439
 73
     0
 91
        0
 40
0.0
 10
1598.48681591182
 20
957.4864365085819
 30
0.0
 75
     0
  1
AcDbOsnapPointRef
 72
    13
331
244A
 73
     0
 91
        0
 40
0.0
 10
1554.48681591182
 20
939.4864365085821
 30
0.0
 75
     0
  0
DIMASSOC
  5
25AD
102
{ACAD_REACTORS
330
25AC
102
}
330
25AC
100
AcDbDimAssoc
330
25AB
 90
        3
 70
     0
 71
     0
  1
AcDbOsnapPointRef
 72
    13
331
23A1
 73
     0
 91
        0
 40
0.0
 10
1358.486815911819
 20
710.211357471324
 30
0.0
 75
     0
  1
AcDbOsnapPointRef
 72
    13
331
23A2
 73
     0
 91
        0
 40
0.0
 10
1358.486815911819
 20
652.2113574713243
 30
0.0
 75
     0
  0
DIMASSOC
  5
25B0
102
{ACAD_REACTORS
330
25AF
102
}
330
25AF
100
AcDbDimAssoc
330
25AE
 90
        3
 70
     0
 71
     0
  1
AcDbOsnapPointRef
 72
     1
331
2505
 73
     0
 91
        0
 40
0.0
 10
1712.530003069008
 20
829.6034214846658
 30
0.0
 75
     0
  1
AcDbOsnapPointRef
 72
     1
331
252C
 73
     0
 91
        0
 40
0.0
 10
1748.930003069009
 20
829.6034214846658
 30
0.0
 75
     0
  0
LAYOUT
  5
22
102
{ACAD_XDICTIONARY
360
299C
102
}
102
{ACAD_REACTORS
330
1A
102
}
330
1A
100
AcDbPlotSettings
  1

  2
\\RD\EPSON Stylus C63 Series單色
  4
A4
  6

 40
3.757083177566528
 41
3.757076978683471
 42
3.757080078125
 43
3.757080078125
 44
209.9733276367187
 45
296.9683227539062
 46
0.0
 47
0.0
 48
0.0
 49
0.0
140
0.0
141
0.0
142
1.0
143
0.3405120737814363
 70
 11952
 72
     1
 73
     0
 74
     0
  7
單色出圖.ctb
 75
     0
147
2.936753428137963
148
-2047.07469463503
149
-1261.649717473083
100
AcDbLayout
  1
Model
 70
     1
 71
     0
 10
0.0
 20
0.0
 11
12.0
 21
9.0
 12
0.0
 22
0.0
 32
0.0
 14
0.0
 24
0.0
 34
0.0
 15
0.0
 25
0.0
 35
0.0
146
0.0
 13
0.0
 23
0.0
 33
0.0
 16
1.0
 26
0.0
 36
0.0
 17
0.0
 27
1.0
 37
0.0
 76
     0
330
1F
1001
ACAD_PSEXT
1000
\\RD\EPSON Stylus C63 Series單色
1000
EPSON Stylus C63 Series
1000
\\RD
1000

1070
     0
  0
LAYOUT
  5
1E
102
{ACAD_XDICTIONARY
360
299A
102
}
102
{ACAD_REACTORS
330
1A
102
}
330
1A
100
AcDbPlotSettings
  1

  2

  4

  6

 40
0.0
 41
0.0
 42
0.0
 43
0.0
 44
0.0
 45
0.0
 46
0.0
 47
0.0
 48
0.0
 49
0.0
140
0.0
141
0.0
142
1.0
143
1.0
 70
   688
 72
     0
 73
     0
 74
     5
  7
單色出圖.ctb
 75
    16
147
1.0
148
0.0
149
0.0
100
AcDbLayout
  1
配置1
 70
     1
 71
     1
 10
0.0
 20
0.0
 11
420.0
 21
297.0
 12
0.0
 22
0.0
 32
0.0
 14
1.000000000000000E+20
 24
1.000000000000000E+20
 34
1.000000000000000E+20
 15
-1.000000000000000E+20
 25
-1.000000000000000E+20
 35
-1.000000000000000E+20
146
0.0
 13
0.0
 23
0.0
 33
0.0
 16
1.0
 26
0.0
 36
0.0
 17
0.0
 27
1.0
 37
0.0
 76
     0
330
1B
  0
LAYOUT
  5
26
102
{ACAD_XDICTIONARY
360
299E
102
}
102
{ACAD_REACTORS
330
1A
102
}
330
1A
100
AcDbPlotSettings
  1

  2

  4

  6

 40
0.0
 41
0.0
 42
0.0
 43
0.0
 44
0.0
 45
0.0
 46
0.0
 47
0.0
 48
0.0
 49
0.0
140
0.0
141
0.0
142
1.0
143
1.0
 70
   688
 72
     0
 73
     0
 74
     5
  7
單色出圖.ctb
 75
    16
147
1.0
148
0.0
149
0.0
100
AcDbLayout
  1
配置2
 70
     1
 71
     2
 10
0.0
 20
0.0
 11
12.0
 21
9.0
 12
0.0
 22
0.0
 32
0.0
 14
0.0
 24
0.0
 34
0.0
 15
0.0
 25
0.0
 35
0.0
146
0.0
 13
0.0
 23
0.0
 33
0.0
 16
1.0
 26
0.0
 36
0.0
 17
0.0
 27
1.0
 37
0.0
 76
     0
330
23
  0
MLINESTYLE
  5
18
102
{ACAD_REACTORS
330
17
102
}
330
17
100
AcDbMlineStyle
  2
STANDARD
 70
     0
  3

 62
   256
 51
90.0
 52
90.0
 71
     2
 49
0.5
 62
   256
  6
BYLAYER
 49
-0.5
 62
   256
  6
BYLAYER
  0
ACDBPLACEHOLDER
  5
F
102
{ACAD_REACTORS
330
E
102
}
330
E
  0
TABLESTYLE
  5
11B
102
{ACAD_REACTORS
330
11A
102
}
330
11A
100
AcDbTableStyle
  3
Standard
 70
     0
 71
     0
 40
1.5
 41
1.5
280
     0
281
     0
  7
STANDARD
140
4.5
170
     2
 62
     0
 63
     7
283
     0
274
    -2
284
     1
 64
     0
275
    -2
285
     1
 65
     0
276
    -2
286
     1
 66
     0
277
    -2
287
     1
 67
     0
278
    -2
288
     1
 68
     0
279
    -2
289
     1
 69
     0
  7
STANDARD
140
6.0
170
     5
 62
     0
 63
     7
283
     0
274
    -2
284
     1
 64
     0
275
    -2
285
     1
 65
     0
276
    -2
286
     1
 66
     0
277
    -2
287
     1
 67
     0
278
    -2
288
     1
 68
     0
279
    -2
289
     1
 69
     0
  7
STANDARD
140
4.5
170
     5
 62
     0
 63
     7
283
     0
274
    -2
284
     1
 64
     0
275
    -2
285
     1
 65
     0
276
    -2
286
     1
 66
     0
277
    -2
287
     1
 67
     0
278
    -2
288
     1
 68
     0
279
    -2
289
     1
 69
     0
  0
DICTIONARYVAR
  5
138
102
{ACAD_REACTORS
330
94
102
}
330
94
100
DictionaryVariables
280
     0
  1
STANDARD
  0
DICTIONARYVAR
  5
96
102
{ACAD_REACTORS
330
94
102
}
330
94
100
DictionaryVariables
280
     0
  1
2
  0
DICTIONARYVAR
  5
95
102
{ACAD_REACTORS
330
94
102
}
330
94
100
DictionaryVariables
280
     0
  1
0
  0
DICTIONARYVAR
  5
2996
102
{ACAD_REACTORS
330
94
102
}
330
94
100
DictionaryVariables
280
     0
  1

  0
DICTIONARY
  5
1B5
102
{ACAD_REACTORS
330
5B
102
}
330
5B
100
AcDbDictionary
281
     1
  0
DICTIONARY
  5
61
102
{ACAD_REACTORS
330
5B
102
}
330
5B
100
AcDbDictionary
281
     1
  0
XRECORD
  5
123
102
{ACAD_REACTORS
330
5B
102
}
330
5B
100
AcDbXrecord
280
     1
 90
-1023410169
  0
DICTIONARY
  5
299C
330
22
100
AcDbDictionary
280
     1
281
     1
  3
ACAD_XREC_ROUNDTRIP
360
299D
  0
DICTIONARY
  5
299A
330
1E
100
AcDbDictionary
280
     1
281
     1
  3
ACAD_XREC_ROUNDTRIP
360
299B
  0
DICTIONARY
  5
299E
330
26
100
AcDbDictionary
280
     1
281
     1
  3
ACAD_XREC_ROUNDTRIP
360
299F
  0
XRECORD
  5
299D
102
{ACAD_REACTORS
330
299C
102
}
330
299C
100
AcDbXrecord
280
     1
102
SHADEPLOT
 70
     0
102
SHADEPLOTRESLEVEL
 70
     2
102
SHADEPLOTCUSTOMDPI
 70
   300
  0
XRECORD
  5
299B
102
{ACAD_REACTORS
330
299A
102
}
330
299A
100
AcDbXrecord
280
     1
102
SHADEPLOT
 70
     0
102
SHADEPLOTRESLEVEL
 70
     2
102
SHADEPLOTCUSTOMDPI
 70
   300
  0
XRECORD
  5
299F
102
{ACAD_REACTORS
330
299E
102
}
330
299E
100
AcDbXrecord
280
     1
102
SHADEPLOT
 70
     0
102
SHADEPLOTRESLEVEL
 70
     2
102
SHADEPLOTCUSTOMDPI
 70
   300
  0
ENDSEC
  0
EOF
