  0
SECTION
  2
HEADER
  9
$ACADVER
  1
AC1015
  9
$ACADMAINTVER
 70
    20
  9
$DWGCODEPAGE
  3
ANSI_950
  9
$INSBASE
 10
0.0
 20
0.0
 30
0.0
  9
$EXTMIN
 10
878.3172418057027
 20
18.8292987907547
 30
-0.0000000000002274
  9
$EXTMAX
 10
1290.817241805703
 20
318.8292987907545
 30
196.5865886400747
  9
$LIMMIN
 10
0.0
 20
0.0
  9
$LIMMAX
 10
420.0
 20
297.0
  9
$ORTHOMODE
 70
     0
  9
$REGENMODE
 70
     1
  9
$FILLMODE
 70
     1
  9
$QTEXTMODE
 70
     0
  9
$MIRRTEXT
 70
     1
  9
$LTSCALE
 40
1.0
  9
$ATTMODE
 70
     1
  9
$TEXTSIZE
 40
3.0
  9
$TRACEWID
 40
1.0
  9
$TEXTSTYLE
  7
STANDARD
  9
$CLAYER
  8
0
  9
$CELTYPE
  6
ByLayer
  9
$CECOLOR
 62
   256
  9
$CELTSCALE
 40
1.0
  9
$DISPSILH
 70
     0
  9
$DIMSCALE
 40
1.0
  9
$DIMASZ
 40
3.0
  9
$DIMEXO
 40
1.0
  9
$DIMDLI
 40
8.0
  9
$DIMRND
 40
0.0
  9
$DIMDLE
 40
0.0
  9
$DIMEXE
 40
1.5
  9
$DIMTP
 40
0.1
  9
$DIMTM
 40
0.1
  9
$DIMTXT
 40
3.5
  9
$DIMCEN
 40
0.0
  9
$DIMTSZ
 40
0.0
  9
$DIMTOL
 70
     0
  9
$DIMLIM
 70
     0
  9
$DIMTIH
 70
     0
  9
$DIMTOH
 70
     0
  9
$DIMSE1
 70
     0
  9
$DIMSE2
 70
     0
  9
$DIMTAD
 70
     1
  9
$DIMZIN
 70
     8
  9
$DIMBLK
  1

  9
$DIMASO
 70
     1
  9
$DIMSHO
 70
     1
  9
$DIMPOST
  1

  9
$DIMAPOST
  1
"
  9
$DIMALT
 70
     0
  9
$DIMALTD
 70
     2
  9
$DIMALTF
 40
0.0393701
  9
$DIMLFAC
 40
1.0
  9
$DIMTOFL
 70
     1
  9
$DIMTVP
 40
0.0
  9
$DIMTIX
 70
     0
  9
$DIMSOXD
 70
     0
  9
$DIMSAH
 70
     0
  9
$DIMBLK1
  1

  9
$DIMBLK2
  1

  9
$DIMSTYLE
  2
AM_ISO
  9
$DIMCLRD
 70
   256
  9
$DIMCLRE
 70
   256
  9
$DIMCLRT
 70
   256
  9
$DIMTFAC
 40
0.6
  9
$DIMGAP
 40
0.7
  9
$DIMJUST
 70
     0
  9
$DIMSD1
 70
     0
  9
$DIMSD2
 70
     0
  9
$DIMTOLJ
 70
     0
  9
$DIMTZIN
 70
     8
  9
$DIMALTZ
 70
     0
  9
$DIMALTTZ
 70
     0
  9
$DIMUPT
 70
     0
  9
$DIMDEC
 70
     2
  9
$DIMTDEC
 70
     8
  9
$DIMALTU
 70
     2
  9
$DIMALTTD
 70
     2
  9
$DIMTXSTY
  7
STANDARD
  9
$DIMAUNIT
 70
     0
  9
$DIMADEC
 70
     0
  9
$DIMALTRND
 40
0.0
  9
$DIMAZIN
 70
     2
  9
$DIMDSEP
 70
    46
  9
$DIMATFIT
 70
     3
  9
$DIMFRAC
 70
     0
  9
$DIMLDRBLK
  1

  9
$DIMLUNIT
 70
     2
  9
$DIMLWD
 70
    -1
  9
$DIMLWE
 70
    -1
  9
$DIMTMOVE
 70
     0
  9
$LUNITS
 70
     2
  9
$LUPREC
 70
     2
  9
$SKETCHINC
 40
1.0
  9
$FILLETRAD
 40
2.5
  9
$AUNITS
 70
     0
  9
$AUPREC
 70
     0
  9
$MENU
  1
.
  9
$ELEVATION
 40
0.0
  9
$PELEVATION
 40
0.0
  9
$THICKNESS
 40
0.0
  9
$LIMCHECK
 70
     0
  9
$CHAMFERA
 40
2.5
  9
$CHAMFERB
 40
2.5
  9
$CHAMFERC
 40
20.0
  9
$CHAMFERD
 40
0.0
  9
$SKPOLY
 70
     0
  9
$TDCREATE
 40
2454070.719031748
  9
$TDUCREATE
 40
2454070.385698415
  9
$TDUPDATE
 40
2457068.628518148
  9
$TDUUPDATE
 40
2457068.295184815
  9
$TDINDWG
 40
0.2826779398
  9
$TDUSRTIMER
 40
0.2826779398
  9
$USRTIMER
 70
     1
  9
$ANGBASE
 50
0.0
  9
$ANGDIR
 70
     0
  9
$PDMODE
 70
     0
  9
$PDSIZE
 40
0.0
  9
$PLINEWID
 40
0.0
  9
$SPLFRAME
 70
     0
  9
$SPLINETYPE
 70
     6
  9
$SPLINESEGS
 70
     8
  9
$HANDSEED
  5
543E
  9
$SURFTAB1
 70
     6
  9
$SURFTAB2
 70
     6
  9
$SURFTYPE
 70
     6
  9
$SURFU
 70
     6
  9
$SURFV
 70
     6
  9
$UCSBASE
  2

  9
$UCSNAME
  2

  9
$UCSORG
 10
0.0
 20
0.0
 30
0.0
  9
$UCSXDIR
 10
1.0
 20
0.0
 30
0.0
  9
$UCSYDIR
 10
0.0
 20
1.0
 30
0.0
  9
$UCSORTHOREF
  2

  9
$UCSORTHOVIEW
 70
     0
  9
$UCSORGTOP
 10
0.0
 20
0.0
 30
0.0
  9
$UCSORGBOTTOM
 10
0.0
 20
0.0
 30
0.0
  9
$UCSORGLEFT
 10
0.0
 20
0.0
 30
0.0
  9
$UCSORGRIGHT
 10
0.0
 20
0.0
 30
0.0
  9
$UCSORGFRONT
 10
0.0
 20
0.0
 30
0.0
  9
$UCSORGBACK
 10
0.0
 20
0.0
 30
0.0
  9
$PUCSBASE
  2

  9
$PUCSNAME
  2

  9
$PUCSORG
 10
0.0
 20
0.0
 30
0.0
  9
$PUCSXDIR
 10
1.0
 20
0.0
 30
0.0
  9
$PUCSYDIR
 10
0.0
 20
1.0
 30
0.0
  9
$PUCSORTHOREF
  2

  9
$PUCSORTHOVIEW
 70
     0
  9
$PUCSORGTOP
 10
0.0
 20
0.0
 30
0.0
  9
$PUCSORGBOTTOM
 10
0.0
 20
0.0
 30
0.0
  9
$PUCSORGLEFT
 10
0.0
 20
0.0
 30
0.0
  9
$PUCSORGRIGHT
 10
0.0
 20
0.0
 30
0.0
  9
$PUCSORGFRONT
 10
0.0
 20
0.0
 30
0.0
  9
$PUCSORGBACK
 10
0.0
 20
0.0
 30
0.0
  9
$USERI1
 70
     0
  9
$USERI2
 70
     0
  9
$USERI3
 70
     0
  9
$USERI4
 70
     0
  9
$USERI5
 70
     0
  9
$USERR1
 40
0.0
  9
$USERR2
 40
0.0
  9
$USERR3
 40
0.0
  9
$USERR4
 40
0.0
  9
$USERR5
 40
0.0
  9
$WORLDVIEW
 70
     1
  9
$SHADEDGE
 70
     3
  9
$SHADEDIF
 70
    70
  9
$TILEMODE
 70
     1
  9
$MAXACTVP
 70
    64
  9
$PINSBASE
 10
0.0
 20
0.0
 30
0.0
  9
$PLIMCHECK
 70
     0
  9
$PEXTMIN
 10
1.000000000000000E+20
 20
1.000000000000000E+20
 30
1.000000000000000E+20
  9
$PEXTMAX
 10
-1.000000000000000E+20
 20
-1.000000000000000E+20
 30
-1.000000000000000E+20
  9
$PLIMMIN
 10
0.0
 20
0.0
  9
$PLIMMAX
 10
420.0
 20
297.0
  9
$UNITMODE
 70
     0
  9
$VISRETAIN
 70
     1
  9
$PLINEGEN
 70
     0
  9
$PSLTSCALE
 70
     1
  9
$TREEDEPTH
 70
  3020
  9
$CMLSTYLE
  2
Standard
  9
$CMLJUST
 70
     0
  9
$CMLSCALE
 40
20.0
  9
$PROXYGRAPHICS
 70
     1
  9
$MEASUREMENT
 70
     1
  9
$CELWEIGHT
370
    -1
  9
$ENDCAPS
280
     0
  9
$JOINSTYLE
280
     0
  9
$LWDISPLAY
290
     0
  9
$INSUNITS
 70
     4
  9
$HYPERLINKBASE
  1

  9
$STYLESHEET
  1
彩色出圖.ctb
  9
$XEDIT
290
     1
  9
$CEPSNTYPE
380
     0
  9
$PSTYLEMODE
290
     1
  9
$FINGERPRINTGUID
  2
{72A33D65-2724-49D4-AEA8-618A406F8275}
  9
$VERSIONGUID
  2
{6479AA58-6A21-4404-9EB0-27A43A49C98D}
  9
$EXTNAMES
290
     1
  9
$PSVPSCALE
 40
0.0
  9
$OLESTARTUP
290
     0
  0
ENDSEC
  0
SECTION
  2
CLASSES
  0
CLASS
  1
ACDBDICTIONARYWDFLT
  2
AcDbDictionaryWithDefault
  3
ObjectDBX Classes
 90
        0
280
     0
281
     0
  0
CLASS
  1
ACDBPLACEHOLDER
  2
AcDbPlaceHolder
  3
ObjectDBX Classes
 90
        0
280
     0
281
     0
  0
CLASS
  1
LAYOUT
  2
AcDbLayout
  3
ObjectDBX Classes
 90
        0
280
     0
281
     0
  0
CLASS
  1
ACME_DOCUMENT
  2
AcMeDbDoc
  3
AcMeServices
 90
        0
280
     0
281
     0
  0
CLASS
  1
AMGSETTINGSOBJ
  2
AmgSettingsObj
  3
"AcadM|Product Description: AutoCAD Mechanical 2000|Company: Autodesk"
 90
        0
280
     0
281
     0
  0
CLASS
  1
ACMESCOPE
  2
AcMeScope
  3
AcMeServices
 90
        0
280
     0
281
     0
  0
CLASS
  1
ACMECOMMANDHISTORY
  2
AcMeCommandHistory
  3
AcMeServices
 90
        0
280
     0
281
     0
  0
CLASS
  1
ACIMSYSVARMAN
  2
AcImSysVarManager
  3
AcMeServices
 90
        0
280
     0
281
     0
  0
CLASS
  1
ACIMREALSYSVAR
  2
AcImRealSysVar
  3
AcMeServices
 90
        0
280
     0
281
     0
  0
CLASS
  1
ACIMINTSYSVAR
  2
AcImIntSysVar
  3
AcMeServices
 90
        0
280
     0
281
     0
  0
CLASS
  1
ACMEDRAWINGMAN
  2
AcMeDrawingMan
  3
AcMeServices
 90
        0
280
     0
281
     0
  0
CLASS
  1
ACMEVIEW
  2
AcMeView
  3
AcMeServices
 90
        0
280
     0
281
     0
  0
CLASS
  1
ACDBENTITYCACHE
  2
AcMeEntityCache
  3
AcMeServices
 90
        0
280
     0
281
     0
  0
CLASS
  1
GSMANAGER
  2
AcMeGSManager
  3
AcMeServices
 90
        0
280
     0
281
     0
  0
CLASS
  1
AMDTINTERNALREACTOR
  2
AmdtInternalReactor
  3
AcMeServices
 90
        0
280
     0
281
     0
  0
CLASS
  1
ACMESTATEMGR
  2
AcMeStateMgr
  3
AcMeServices
 90
        0
280
     0
281
     0
  0
CLASS
  1
ACGREFMASTER
  2
AcGrefMaster
  3
AcAttribServices
 90
        0
280
     0
281
     0
  0
CLASS
  1
ACME_DATABASE
  2
AcMeDbDatabase
  3
AcMeServices
 90
        0
280
     0
281
     0
  0
CLASS
  1
ACRFINSADJUSTERMGR
  2
AcRfInsAdjusterMgr
  3
AcMeServices
 90
        0
280
     0
281
     0
  0
CLASS
  1
ACGREFACADMASTER
  2
AcGrefacadMaster
  3
AcGrefServices
 90
        0
280
     0
281
     0
  0
CLASS
  1
AMIMASTER
  2
AmiMaster
  3
AmiServices
 90
        0
280
     0
281
     0
  0
CLASS
  1
ACMDATADICTIONARY
  2
AcmDataDictionary
  3
"AcmSymBB|Product Description: AutoCAD Mechanical 2004 DX|Company: Autodesk"
 90
        0
280
     0
281
     0
  0
CLASS
  1
ACMDATAENTRYBLOCK
  2
AcmDataEntryBlock
  3
"AcmSymBB|Product Description: AutoCAD Mechanical 2004 DX|Company: Autodesk"
 90
        0
280
     0
281
     0
  0
CLASS
  1
ACIMSTRSYSVAR
  2
AcImStrSysVar
  3
AcMeServices
 90
        0
280
     0
281
     0
  0
CLASS
  1
ACMSTANDARDISO
  2
AcmStandardISO
  3
"Amdt_StdImp|Product Description: AutoCAD Mechanical 2004 DX|Company: Autodesk"
 90
        0
280
     0
281
     0
  0
CLASS
  1
AMGOBJPROPCFG
  2
AmgObjPropCfg
  3
"AmgLay|Product Description: AutoCAD Mechanical 2000|Company: Autodesk"
 90
        1
280
     0
281
     0
  0
CLASS
  1
AMDTEDGESTANDARDISO
  2
AmdtEdgeStdISO
  3
"Amdt_StdImp|Product Description: AutoCAD Mechanical 2004 DX|Company: Autodesk"
 90
    32768
280
     0
281
     0
  0
CLASS
  1
ACMSURFSTANDARDISO
  2
AcmSurfTextStdISO
  3
"Amdt_StdImp|Product Description: AutoCAD Mechanical 2004 DX|Company: Autodesk"
 90
        0
280
     0
281
     0
  0
CLASS
  1
ACMFCFSTANDARDISO
  2
AcmFCFStdISO
  3
"Amdt_StdImp|Product Description: AutoCAD Mechanical 2004 DX|Company: Autodesk"
 90
        0
280
     0
281
     0
  0
CLASS
  1
ACMWELDSTANDARDISO
  2
AcmWeldingStdISO
  3
"Amdt_StdImp|Product Description: AutoCAD Mechanical 2004 DX|Company: Autodesk"
 90
        0
280
     0
281
     0
  0
CLASS
  1
ACMIDSTANDARDISO
  2
AcmIdStdISO
  3
"Amdt_StdImp|Product Description: AutoCAD Mechanical 2004 DX|Company: Autodesk"
 90
        0
280
     0
281
     0
  0
CLASS
  1
ACMDATUMSTANDARDISO
  2
AcmDatumStdISO
  3
"Amdt_StdImp|Product Description: AutoCAD Mechanical 2004 DX|Company: Autodesk"
 90
        0
280
     0
281
     0
  0
CLASS
  1
ACMBOMSTANDARDISO
  2
AcmBOMStdISO
  3
"Amdt_StdImp|Product Description: AutoCAD Mechanical 2004 DX|Company: Autodesk"
 90
        0
280
     0
281
     0
  0
CLASS
  1
ACMDETAILSTANDARDISO
  2
AmdtDetailSymStdISO
  3
"Amdt_StdImp|Product Description: AutoCAD Mechanical 2004 DX|Company: Autodesk"
 90
        0
280
     0
281
     0
  0
CLASS
  1
ACMSECTIONSTANDARDISO
  2
AmdtSectionSymStdISO
  3
"Amdt_StdImp|Product Description: AutoCAD Mechanical 2004 DX|Company: Autodesk"
 90
        0
280
     0
281
     0
  0
CLASS
  1
ACMCENTERLINESTANDARDISO
  2
AmdtCenterLineStdISO
  3
"Amdt_StdImp|Product Description: AutoCAD Mechanical 2004 DX|Company: Autodesk"
 90
        0
280
     0
281
     0
  0
CLASS
  1
ACMNOTESTANDARDISO
  2
AmdtNoteStdISO
  3
"Amdt_StdImp|Product Description: AutoCAD Mechanical 2004 DX|Company: Autodesk"
 90
        0
280
     0
281
     0
  0
CLASS
  1
ACAMGLAYSTD
  2
AcAmgLayStd
  3
"AcAmgLayStd|Product Description: AutoCAD Mechanical 2000|Company: Autodesk"
 90
        0
280
     0
281
     0
  0
CLASS
  1
ACAMGDIMSTD
  2
AcAmgDimStd
  3
"AcAmgDimStd|Product Description: AutoCAD Mechanical 2000|Company: Autodesk"
 90
        0
280
     0
281
     0
  0
CLASS
  1
ACAMGHOLECHARTSTDISO
  2
AcAmgHoleChartStdISO
  3
ACMSYMBB_MODULE_NAME
 90
        0
280
     0
281
     0
  0
CLASS
  1
ACAMGTITLESTD
  2
AcAmgTitleStd
  3
"TITLEAPP"
 90
        0
280
     0
281
     0
  0
CLASS
  1
LAYER_INDEX
  2
AcDbLayerIndex
  3
ObjectDBX Classes
 90
        0
280
     0
281
     0
  0
CLASS
  1
IDBUFFER
  2
AcDbIdBuffer
  3
ObjectDBX Classes
 90
        0
280
     0
281
     0
  0
CLASS
  1
DICTIONARYVAR
  2
AcDbDictionaryVar
  3
ObjectDBX Classes
 90
        0
280
     0
281
     0
  0
CLASS
  1
AM_DRAWING_MGR
  2
AcDmDwgMgr
  3
AcMechDwgViewMgmt
 90
        0
280
     0
281
     0
  0
CLASS
  1
AM_DWG_DOCUMENT
  2
AcDmDwgDocument
  3
AcMechDwgViewMgmt
 90
        0
280
     0
281
     0
  0
CLASS
  1
AM_DWG_SHEET
  2
AcDmSheet
  3
AcMechDwgViewMgmt
 90
        0
280
     0
281
     0
  0
CLASS
  1
AM_VIEWDIMPARMAP
  2
AcDmViewDimParMap
  3
AcMechDwgViewMgmt
 90
        0
280
     0
281
     0
  0
CLASS
  1
AM_DWGMGR_NAME
  2
AcDmDwgMgrName
  3
AcMechDwgViewMgmt
 90
        0
280
     0
281
     0
  0
CLASS
  1
AMDTMENUSTATEMGR
  2
AmdtMenuStateMgr
  3
McadcomServices
 90
        0
280
     0
281
     0
  0
CLASS
  1
AMDTMCOMMENUSTATE
  2
AmdtMcomMenuState
  3
McadcomServices
 90
        0
280
     0
281
     0
  0
CLASS
  1
MAPIAMMOUDLE
  2
MApiAmModule
  3
MApiAmServices
 90
        0
280
     0
281
     0
  0
CLASS
  1
AMDTADMENUSTATE
  2
AmdtAdMenuState
  3
DesignerServices
 90
        0
280
     0
281
     0
  0
CLASS
  1
ADAPPL
  2
AcAdAppl
  3
DesignerServices
 90
        0
280
     0
281
     0
  0
CLASS
  1
DEPMGR
  2
AcAdDepMgr
  3
DesignerServices
 90
        0
280
     0
281
     0
  0
CLASS
  1
PARAMMGR
  2
AcAdParamMgr
  3
DesignerServices
 90
        0
280
     0
281
     0
  0
CLASS
  1
PARAMSCOPE
  2
AcAdParamScope
  3
DesignerServices
 90
        0
280
     0
281
     0
  0
CLASS
  1
NAMEDAPPL
  2
AcAdNamedAppl
  3
DesignerServices
 90
        0
280
     0
281
     0
  0
CLASS
  1
AMDTDMMENUSTATE
  2
AmdtDmMenuState
  3
AcMechDwgViewMgmt
 90
        0
280
     0
281
     0
  0
CLASS
  1
AMDTAMMENUSTATE
  2
AmdtAmMenuState
  3
DesignerAssemblies
 90
        0
280
     0
281
     0
  0
CLASS
  1
ACAMPROJECT
  2
AcAmProject
  3
DesignerAssemblies
 90
        0
280
     0
281
     0
  0
CLASS
  1
ACAMGRCOMPDEF
  2
AcAmGrCompDef
  3
DesignerAssemblies
 90
        0
280
     0
281
     0
  0
CLASS
  1
ACCMCONTEXT
  2
AcCmContext
  3
DesignerAssemblies
 90
        0
280
     0
281
     0
  0
CLASS
  1
ACAMCOMPDEF
  2
AcAmCompDef
  3
DesignerAssemblies
 90
        0
280
     0
281
     0
  0
CLASS
  1
ACAMCOMPDEFMGR
  2
AcAmCompDefMgr
  3
DesignerAssemblies
 90
        0
280
     0
281
     0
  0
CLASS
  1
AMCONTEXTMGR
  2
AcAmContextMgr
  3
DesignerAssemblies
 90
        0
280
     0
281
     0
  0
CLASS
  1
ACAMCONTEXTMODELER
  2
AcAmContextModeler
  3
DesignerAssemblies
 90
        0
280
     0
281
     0
  0
CLASS
  1
ACMTHREADLINESTANDARDISO
  2
AmdtThreadLineStdISO
  3
"Amdt_StdImp|Product Description: AutoCAD Mechanical 2004 DX|Company: Autodesk"
 90
        0
280
     0
281
     0
  0
CLASS
  1
CATALOGSTATE
  2
AcAmCatalogState
  3
DesignerAssemblies
 90
        0
280
     0
281
     0
  0
CLASS
  1
ACAMGRCOMPDEFSET
  2
AcAmGrCompDefSet
  3
DesignerAssemblies
 90
        0
280
     0
281
     0
  0
CLASS
  1
AMDTBROWSERDBTAB
  2
AmdtBrowserDbTab
  3
McadcomServices
 90
        0
280
     0
281
     0
  0
CLASS
  1
CBROWSERAPPOBJECT
  2
CBrowserAppObject
  3
McadcomServices
 90
        0
280
     0
281
     0
  0
CLASS
  1
DM_PLACEHOLDER
  2
AcDmSelsetPlaceholder
  3
AcMechDwgViewMgmt
 90
        0
280
     0
281
     0
  0
CLASS
  1
TABLESTYLE
  2
AcDbTableStyle
  3
ObjectDBX Classes
 90
     2047
280
     0
281
     0
  0
CLASS
  1
VAACXREFPANELOBJECT
  2
VaAcXREFPanelObject
  3
VAAC_ADDIN
 90
    32768
280
     0
281
     0
  0
CLASS
  1
VAACIMAGEINVENTORY
  2
VaAcImageInventory
  3
VAAC_ADDIN
 90
    32768
280
     0
281
     0
  0
CLASS
  1
AMDTNOTETEMPLATEDB
  2
AmdtNoteTemplateDB
  3
AMDT_STDIMP_MODULE_NAME
 90
        0
280
     0
281
     0
  0
CLASS
  1
ACMBOM
  2
AcmBom
  3
"AcmSymBB|Product Description: AutoCAD Mechanical 2004 DX|Company: Autodesk"
 90
    32768
280
     0
281
     0
  0
CLASS
  1
AMDTFORMULAUPDATEDISPATCHER
  2
AmdtFormulaUpdateDispatcher
  3
AcMeServices
 90
    32768
280
     0
281
     0
  0
CLASS
  1
ACMPARTLIST
  2
AcmPartList
  3
"AcmSymBB|Product Description: AutoCAD Mechanical 2004 DX|Company: Autodesk"
 90
    33791
280
     0
281
     1
  0
CLASS
  1
ACAMGFILTERDAT
  2
AcAmgFilterDat
  3
"AcadM|Product Description: AutoCAD Mechanical 2000|Company: Autodesk"
 90
    32768
280
     0
281
     0
  0
CLASS
  1
DIMASSOC
  2
AcDbDimAssoc
  3
"AcDbDimAssoc|Product Desc:     AcDim ARX App For Dimension|Company:          Autodesk, Inc.|WEB Address:      www.autodesk.com"
 90
        0
280
     0
281
     0
  0
CLASS
  1
SORTENTSTABLE
  2
AcDbSortentsTable
  3
ObjectDBX Classes
 90
        0
280
     0
281
     0
  0
CLASS
  1
ACMSTANDARDANSI
  2
AcmStandardANSI
  3
"Amdt_StdImp|Product Description: AutoCAD Mechanical 2004 DX|Company: Autodesk"
 90
    32768
280
     0
281
     0
  0
CLASS
  1
ACMSURFSTANDARDANSI
  2
AcmSurfTextStdANSI
  3
"Amdt_StdImp|Product Description: AutoCAD Mechanical 2004 DX|Company: Autodesk"
 90
    32768
280
     0
281
     0
  0
CLASS
  1
ACMFCFSTANDARDANSI
  2
AcmFCFStdANSI
  3
"Amdt_StdImp|Product Description: AutoCAD Mechanical 2004 DX|Company: Autodesk"
 90
    32768
280
     0
281
     0
  0
CLASS
  1
ACMWELDSTANDARDANSI
  2
AcmWeldingStdANSI
  3
"Amdt_StdImp|Product Description: AutoCAD Mechanical 2004 DX|Company: Autodesk"
 90
    32768
280
     0
281
     0
  0
CLASS
  1
ACMIDSTANDARDANSI
  2
AcmIdStdANSI
  3
"Amdt_StdImp|Product Description: AutoCAD Mechanical 2004 DX|Company: Autodesk"
 90
    32768
280
     0
281
     0
  0
CLASS
  1
ACMDATUMSTANDARDANSI
  2
AcmDatumStdANSI
  3
"Amdt_StdImp|Product Description: AutoCAD Mechanical 2004 DX|Company: Autodesk"
 90
    32768
280
     0
281
     0
  0
CLASS
  1
ACMBOMSTANDARDANSI
  2
AcmBOMStdANSI
  3
"Amdt_StdImp|Product Description: AutoCAD Mechanical 2004 DX|Company: Autodesk"
 90
    32768
280
     0
281
     0
  0
CLASS
  1
ACMDETAILSTANDARDANSI
  2
AmdtDetailSymStdANSI
  3
"Amdt_StdImp|Product Description: AutoCAD Mechanical 2004 DX|Company: Autodesk"
 90
    32768
280
     0
281
     0
  0
CLASS
  1
ACMSECTIONSTANDARDANSI
  2
AmdtSectionSymStdANSI
  3
"Amdt_StdImp|Product Description: AutoCAD Mechanical 2004 DX|Company: Autodesk"
 90
    32768
280
     0
281
     0
  0
CLASS
  1
ACMCENTERLINESTANDARDANSI
  2
AmdtCenterLineStdANSI
  3
"Amdt_StdImp|Product Description: AutoCAD Mechanical 2004 DX|Company: Autodesk"
 90
    32768
280
     0
281
     0
  0
CLASS
  1
ACMTHREADLINESTANDARDANSI
  2
AmdtThreadLineStdANSI
  3
"Amdt_StdImp|Product Description: AutoCAD Mechanical 2004 DX|Company: Autodesk"
 90
    32768
280
     0
281
     0
  0
CLASS
  1
ACMNOTESTANDARDANSI
  2
AmdtNoteStdANSI
  3
"Amdt_StdImp|Product Description: AutoCAD Mechanical 2004 DX|Company: Autodesk"
 90
    32768
280
     0
281
     0
  0
CLASS
  1
ACAMGHOLECHARTSTDANSI
  2
AcAmgHoleChartStdANSI
  3
ACMSYMBB_MODULE_NAME
 90
    32768
280
     0
281
     0
  0
CLASS
  1
AMDTNOTE
  2
AmdtNote
  3
"AcmSymBB|Product Description: AutoCAD Mechanical 2004 DX|Company: Autodesk"
 90
    33791
280
     0
281
     1
  0
CLASS
  1
AMDTEDGESTANDARDISO13715
  2
AmdtEdgeStdISO13715
  3
"Amdt_StdImp|Product Description: AutoCAD Mechanical 2004 DX|Company: Autodesk"
 90
        0
280
     0
281
     0
  0
CLASS
  1
ASAPP
  2
AcAsAppObject
  3
AutoSurfServices
 90
        0
280
     0
281
     0
  0
CLASS
  1
IM_STATIC_MAN
  2
AcImStaticVarManager
  3
AcMeServices
 90
        0
280
     0
281
     0
  0
CLASS
  1
ACIMDBLSTATICVAR
  2
AcImDblStaticVar
  3
AcMeServices
 90
        0
280
     0
281
     0
  0
CLASS
  1
ACIMSTRSTATICVAR
  2
AcImStrStaticVar
  3
AcMeServices
 90
        0
280
     0
281
     0
  0
CLASS
  1
ACIMINTSTATICVAR
  2
AcImIntStaticVar
  3
AcMeServices
 90
        0
280
     0
281
     0
  0
CLASS
  1
ACASGREFMASTER
  2
AcAsGrefMaster
  3
AutoSurfResolverServices
 90
        0
280
     0
281
     0
  0
CLASS
  1
ACADGREFMODULE
  2
AcAdGrefModule
  3
AdGrefServices
 90
        0
280
     0
281
     0
  0
CLASS
  1
AMDTMAPISURFMOUDULE
  2
AmdtMApiSurfModule
  3
MApiSurfServices
 90
        0
280
     0
281
     0
  0
CLASS
  1
MAPIADMODULE
  2
MApiAdModule
  3
MApiAdServices
 90
        0
280
     0
281
     0
  0
ENDSEC
  0
SECTION
  2
TABLES
  0
TABLE
  2
VPORT
  5
8
330
0
100
AcDbSymbolTable
 70
     5
  0
VPORT
  5
5435
330
8
100
AcDbSymbolTableRecord
100
AcDbViewportTableRecord
  2
*Active
 70
     0
 10
0.0
 20
0.0
 11
1.0
 21
1.0
 12
-56.96805893709927
 22
2.903296044226237
 13
0.0
 23
0.0
 14
2.5
 24
2.5
 15
10.0
 25
10.0
 16
0.0
 26
0.0
 36
1.0
 17
1084.567241805703
 27
171.9719270996695
 37
0.0
 40
343.7020304930917
 41
1.576441102756892
 42
50.0
 43
0.0
 44
0.0
 50
0.0
 51
0.0
 71
     0
 72
   100
 73
     1
 74
     3
 75
     0
 76
     0
 77
     0
 78
     0
281
     0
 65
     0
110
0.0
120
0.0
130
0.0
111
1.0
121
0.0
131
0.0
112
0.0
122
1.0
132
0.0
 79
     0
146
0.0
  0
ENDTAB
  0
TABLE
  2
LTYPE
  5
5
330
0
100
AcDbSymbolTable
 70
    18
  0
LTYPE
  5
14
330
5
100
AcDbSymbolTableRecord
100
AcDbLinetypeTableRecord
  2
ByBlock
 70
     0
  3

 72
    65
 73
     0
 40
0.0
  0
LTYPE
  5
15
330
5
100
AcDbSymbolTableRecord
100
AcDbLinetypeTableRecord
  2
ByLayer
 70
     0
  3

 72
    65
 73
     0
 40
0.0
  0
LTYPE
  5
16
330
5
100
AcDbSymbolTableRecord
100
AcDbLinetypeTableRecord
  2
Continuous
 70
     0
  3
Solid line
 72
    65
 73
     0
 40
0.0
  0
LTYPE
  5
64
330
5
100
AcDbSymbolTableRecord
100
AcDbLinetypeTableRecord
  2
AM_ISO02W050
 70
     0
  3
__ __ __ __ __ __ __ __ __ __ __ __ __ __ __
 72
    65
 73
     2
 40
7.5
 49
6.0
 74
     0
 49
-1.5
 74
     0
  0
LTYPE
  5
65
330
5
100
AcDbSymbolTableRecord
100
AcDbLinetypeTableRecord
  2
AM_ISO08W050
 70
     0
  3
____ . ____ . ____ . ____ . ____ . ____ . ____
 72
    65
 73
     4
 40
18.0
 49
12.0
 74
     0
 49
-1.5
 74
     0
 49
3.0
 74
     0
 49
-1.5
 74
     0
  0
LTYPE
  5
66
330
5
100
AcDbSymbolTableRecord
100
AcDbLinetypeTableRecord
  2
AM_ISO09W050
 70
     0
  3
_____ . . _____ . . _____ . . ____ .. ____
 72
    65
 73
     6
 40
22.5
 49
12.0
 74
     0
 49
-1.5
 74
     0
 49
3.0
 74
     0
 49
-1.5
 74
     0
 49
3.0
 74
     0
 49
-1.5
 74
     0
  0
LTYPE
  5
67
330
5
100
AcDbSymbolTableRecord
100
AcDbLinetypeTableRecord
  2
Amconstr
 70
     0
  3
_______________________
 72
    65
 73
     2
 40
9999.0
 49
9999.0
 74
     0
 49
0.0
 74
     0
  0
LTYPE
  5
68
330
5
100
AcDbSymbolTableRecord
100
AcDbLinetypeTableRecord
  2
AM_ISO08W050x2
 70
     0
  3
__ . __ . __ . __ . __ . __
 72
    65
 73
     4
 40
9.0
 49
6.0
 74
     0
 49
-0.75
 74
     0
 49
1.5
 74
     0
 49
-0.75
 74
     0
  0
LTYPE
  5
69
330
5
100
AcDbSymbolTableRecord
100
AcDbLinetypeTableRecord
  2
AM_ISO02W050x2
 70
     0
  3
 _ _ _ _ _ _ _ _ _ _ _ _
 72
    65
 73
     2
 40
3.75
 49
3.0
 74
     0
 49
-0.75
 74
     0
  0
LTYPE
  5
6C
330
5
100
AcDbSymbolTableRecord
100
AcDbLinetypeTableRecord
  2
Amzigzag
 70
     0
  3
/\/-/\/-/\/-/\/-/\/-/\/
 72
    65
 73
     2
 40
11.0001
 49
0.0001
 74
     4
 75
   135
340
6B
 46
0.04
 50
0.0
 44
0.0
 45
0.0
 49
-11.0
 74
     0
  0
LTYPE
  5
7A
330
5
100
AcDbSymbolTableRecord
100
AcDbLinetypeTableRecord
  2
ACISOWELD
 70
     0
  3
_ _ _ _ _
 72
    65
 73
     2
 40
2.0
 49
2.0
 74
     0
 49
-1.0
 74
     0
  0
LTYPE
  5
7B
330
5
100
AcDbSymbolTableRecord
100
AcDbLinetypeTableRecord
  2
ACISOTGB
 70
     0
  3
__ . . __ . .
 72
    65
 73
     6
 40
9.0
 49
4.0
 74
     0
 49
-1.0
 74
     0
 49
1.0
 74
     0
 49
-1.0
 74
     0
 49
1.0
 74
     0
 49
-1.0
 74
     0
  0
LTYPE
  5
7C
330
5
100
AcDbSymbolTableRecord
100
AcDbLinetypeTableRecord
  2
ACISOTGL
 70
     0
  3
_ _ _ _ _
 72
    65
 73
     2
 40
3.0
 49
2.0
 74
     0
 49
-1.0
 74
     0
  0
LTYPE
  5
7E
330
5
100
AcDbSymbolTableRecord
100
AcDbLinetypeTableRecord
  2
CENTER
 70
     0
  3
__ . __
 72
    65
 73
     4
 40
7.0
 49
4.0
 74
     0
 49
-1.0
 74
     0
 49
1.0
 74
     0
 49
-1.0
 74
     0
  0
LTYPE
  5
D8
330
5
100
AcDbSymbolTableRecord
100
AcDbLinetypeTableRecord
  2
HIDDEN
 70
     0
  3
Hidden __ __ __ __ __ __ __ __ __ __ __ __ __ _
 72
    65
 73
     2
 40
9.524999999999998
 49
6.349999999999999
 74
     0
 49
-3.174999999999999
 74
     0
  0
LTYPE
  5
D9
330
5
100
AcDbSymbolTableRecord
100
AcDbLinetypeTableRecord
  2
PHANTOM2
 70
     0
  3
Phantom (.5x) ___ _ _ ___ _ _ ___ _ _ ___ _ _
 72
    65
 73
     6
 40
31.75
 49
15.875
 74
     0
 49
-3.174999999999999
 74
     0
 49
3.174999999999999
 74
     0
 49
-3.174999999999999
 74
     0
 49
3.174999999999999
 74
     0
 49
-3.174999999999999
 74
     0
  0
LTYPE
  5
18AC
330
5
100
AcDbSymbolTableRecord
100
AcDbLinetypeTableRecord
  2
ACANSTGBM
 70
     0
  3
__ . . __ . .
 72
    65
 73
     6
 40
9.0
 49
4.0
 74
     0
 49
-1.0
 74
     0
 49
1.0
 74
     0
 49
-1.0
 74
     0
 49
1.0
 74
     0
 49
-1.0
 74
     0
  0
LTYPE
  5
18AD
330
5
100
AcDbSymbolTableRecord
100
AcDbLinetypeTableRecord
  2
ACANSTGLM
 70
     0
  3
_ _ _ _ _
 72
    65
 73
     2
 40
3.0
 49
2.0
 74
     0
 49
-1.0
 74
     0
  0
LTYPE
  5
53CF
330
5
100
AcDbSymbolTableRecord
100
AcDbLinetypeTableRecord
  2
ASULTYPE
 70
     0
  3
實線
 72
    65
 73
     2
 40
3.0
 49
2.5
 74
     0
 49
0.5
 74
     0
  0
LTYPE
  5
53D0
330
5
100
AcDbSymbolTableRecord
100
AcDbLinetypeTableRecord
  2
ASVLTYPE
 70
     0
  3
__ __ __ __ __ __ __ __ __ __ __ __ __ __ __ __ __ __ __ __ __
 72
    65
 73
     2
 40
0.75
 49
0.5
 74
     0
 49
-0.25
 74
     0
  0
ENDTAB
  0
TABLE
  2
LAYER
  5
2
102
{ACAD_XDICTIONARY
360
3F9
102
}
330
0
100
AcDbSymbolTable
 70
     9
  0
LAYER
  5
10
330
2
100
AcDbSymbolTableRecord
100
AcDbLayerTableRecord
  2
0
 70
     0
 62
     7
  6
Continuous
370
    -3
390
F
  0
LAYER
  5
C29
330
2
100
AcDbSymbolTableRecord
100
AcDbLayerTableRecord
  2
Defpoints
 70
     0
 62
     7
  6
Continuous
290
     0
370
    -3
390
F
  0
LAYER
  5
C2A
330
2
100
AcDbSymbolTableRecord
100
AcDbLayerTableRecord
  2
AM_VIS
 70
     0
 62
     7
  6
Continuous
370
    50
390
F
  0
LAYER
  5
C2C
330
2
100
AcDbSymbolTableRecord
100
AcDbLayerTableRecord
  2
AM_4
 70
     0
 62
     3
  6
Continuous
370
    25
390
F
  0
LAYER
  5
137E
330
2
100
AcDbSymbolTableRecord
100
AcDbLayerTableRecord
  2
AM_7
 70
     0
 62
     1
  6
CENTER
370
    25
390
F
  0
LAYER
  5
277A
330
2
100
AcDbSymbolTableRecord
100
AcDbLayerTableRecord
  2
AM_5
 70
     0
 62
     5
  6
Continuous
370
    50
390
F
  0
LAYER
  5
44C4
330
2
100
AcDbSymbolTableRecord
100
AcDbLayerTableRecord
  2
DIM2
 70
     0
 62
     5
  6
Continuous
370
    -3
390
F
  0
LAYER
  5
45AD
330
2
100
AcDbSymbolTableRecord
100
AcDbLayerTableRecord
  2
LOGO
 70
     0
 62
     7
  6
Continuous
370
    -3
390
F
  0
LAYER
  5
493F
330
2
100
AcDbSymbolTableRecord
100
AcDbLayerTableRecord
  2
底
 70
     0
 62
     4
  6
Continuous
370
    -3
390
F
1001
AcAecLayerStandard
1000

1000

  0
ENDTAB
  0
TABLE
  2
STYLE
  5
3
330
0
100
AcDbSymbolTable
 70
     8
  0
STYLE
  5
11
330
3
100
AcDbSymbolTableRecord
100
AcDbTextStyleTableRecord
  2
STANDARD
 70
     0
 40
0.0
 41
1.0
 50
0.0
 71
     0
 42
3.0
  3
ISOCP.SHX
  4
CHINESET.SHX
  0
STYLE
  5
6B
330
3
100
AcDbSymbolTableRecord
100
AcDbTextStyleTableRecord
  2

 70
     1
 40
0.0
 41
1.0
 50
0.0
 71
     0
 42
2.5
  3
ltypeshp.shx
  4

  0
STYLE
  5
6D
330
3
100
AcDbSymbolTableRecord
100
AcDbTextStyleTableRecord
  2
ACISOTS
 70
     0
 40
1.0
 41
1.0
 50
0.0
 71
     0
 42
1.0
  3
isocp.shx
  4
chineset.shx
  0
STYLE
  5
79
330
3
100
AcDbSymbolTableRecord
100
AcDbTextStyleTableRecord
  2
ACISOGDT
 70
     0
 40
0.0
 41
1.0
 50
0.0
 71
     0
 42
2.5
  3
amgdt.shx
  4
chineset.shx
  0
STYLE
  5
C2F
330
3
100
AcDbSymbolTableRecord
100
AcDbTextStyleTableRecord
  2
dayus
 70
     0
 40
3.0
 41
1.0
 50
0.0
 71
     0
 42
3.0
  3
simplex.shx
  4
dayus.shx
  0
STYLE
  5
18AF
330
3
100
AcDbSymbolTableRecord
100
AcDbTextStyleTableRecord
  2
ACANSTS
 70
     0
 40
1.0
 41
1.0
 50
0.0
 71
     0
 42
4.0
  3
romans.shx
  4
chineset.shx
  0
STYLE
  5
18B0
330
3
100
AcDbSymbolTableRecord
100
AcDbTextStyleTableRecord
  2
ACANSGDT
 70
     0
 40
0.0
 41
1.0
 50
0.0
 71
     0
 42
4.0
  3
amgdtans.shx
  4

  0
STYLE
  5
447A
330
3
100
AcDbSymbolTableRecord
100
AcDbTextStyleTableRecord
  2
CHINESET
 70
     0
 40
3.0
 41
1.0
 50
0.0
 71
     0
 42
4.5
  3
simplex.shx
  4
CHINESET.shx
  0
ENDTAB
  0
TABLE
  2
VIEW
  5
6
330
0
100
AcDbSymbolTable
 70
     0
  0
ENDTAB
  0
TABLE
  2
UCS
  5
7
330
0
100
AcDbSymbolTable
 70
     0
  0
ENDTAB
  0
TABLE
  2
APPID
  5
9
330
0
100
AcDbSymbolTable
 70
    28
  0
APPID
  5
12
330
9
100
AcDbSymbolTableRecord
100
AcDbRegAppTableRecord
  2
ACAD
 70
     0
  0
APPID
  5
46
330
9
100
AcDbSymbolTableRecord
100
AcDbRegAppTableRecord
  2
MCAD_NO_VIS
 70
     0
  0
APPID
  5
47
330
9
100
AcDbSymbolTableRecord
100
AcDbRegAppTableRecord
  2
ACAD_TEMP_GRAPHIC
 70
     0
  0
APPID
  5
58
330
9
100
AcDbSymbolTableRecord
100
AcDbRegAppTableRecord
  2
ACATTRIBSERVICES
 70
     0
  0
APPID
  5
EE
330
9
100
AcDbSymbolTableRecord
100
AcDbRegAppTableRecord
  2
AD_DRAW
 70
     0
  0
APPID
  5
10C
330
9
100
AcDbSymbolTableRecord
100
AcDbRegAppTableRecord
  2
DESIGNERASSEMBLIES
 70
     0
  0
APPID
  5
111
330
9
100
AcDbSymbolTableRecord
100
AcDbRegAppTableRecord
  2
ACADM_DIM_EDIT
 70
     0
  0
APPID
  5
112
330
9
100
AcDbSymbolTableRecord
100
AcDbRegAppTableRecord
  2
AMDT_DM_ADJ
 70
     0
  0
APPID
  5
22C
330
9
100
AcDbSymbolTableRecord
100
AcDbRegAppTableRecord
  2
ACAD_DSTYLE_DIMTEXT_FILL
 70
     0
  0
APPID
  5
452
330
9
100
AcDbSymbolTableRecord
100
AcDbRegAppTableRecord
  2
GENIUS_GENOENT_13
 70
     0
  0
APPID
  5
453
330
9
100
AcDbSymbolTableRecord
100
AcDbRegAppTableRecord
  2
GENIUS_GENOBJ-N-CRS_13
 70
     0
  0
APPID
  5
454
330
9
100
AcDbSymbolTableRecord
100
AcDbRegAppTableRecord
  2
GENIUS_GENOLIS_13
 70
     0
  0
APPID
  5
455
330
9
100
AcDbSymbolTableRecord
100
AcDbRegAppTableRecord
  2
GENIUS_GENODEF_13
 70
     0
  0
APPID
  5
456
330
9
100
AcDbSymbolTableRecord
100
AcDbRegAppTableRecord
  2
GENIUS_GENOREF_13
 70
     0
  0
APPID
  5
6F3
330
9
100
AcDbSymbolTableRecord
100
AcDbRegAppTableRecord
  2
ACAD_PSEXT
 70
     0
  0
APPID
  5
808
330
9
100
AcDbSymbolTableRecord
100
AcDbRegAppTableRecord
  2
GENIUS_GENDTOL_13
 70
     0
  0
APPID
  5
159E
330
9
100
AcDbSymbolTableRecord
100
AcDbRegAppTableRecord
  2
GENIUS_GENOBJ-N-CEN_13
 70
     0
  0
APPID
  5
159F
330
9
100
AcDbSymbolTableRecord
100
AcDbRegAppTableRecord
  2
GENIUS_GENCEN_19
 70
     0
  0
APPID
  5
277E
330
9
100
AcDbSymbolTableRecord
100
AcDbRegAppTableRecord
  2
GENIUS_GENOBJ-N-HTC_13
 70
     0
  0
APPID
  5
277F
330
9
100
AcDbSymbolTableRecord
100
AcDbRegAppTableRecord
  2
GENIUS_GENHATCH_13
 70
     0
  0
APPID
  5
4258
330
9
100
AcDbSymbolTableRecord
100
AcDbRegAppTableRecord
  2
GENIUS_GENDIMSH_14
 70
     0
  0
APPID
  5
4368
330
9
100
AcDbSymbolTableRecord
100
AcDbRegAppTableRecord
  2
AcAecLayerStandard
 70
     0
  0
APPID
  5
45AE
330
9
100
AcDbSymbolTableRecord
100
AcDbRegAppTableRecord
  2
GENIUS_GENREC_14
 70
     0
  0
APPID
  5
45AF
330
9
100
AcDbSymbolTableRecord
100
AcDbRegAppTableRecord
  2
GENIUS_GENOBJ-N-REC_13
 70
     0
  0
APPID
  5
5350
330
9
100
AcDbSymbolTableRecord
100
AcDbRegAppTableRecord
  2
GENIUS_GENDIM_13
 70
     0
  0
APPID
  5
5351
330
9
100
AcDbSymbolTableRecord
100
AcDbRegAppTableRecord
  2
GENIUS_GE3DTOL_13
 70
     0
  0
APPID
  5
53D1
330
9
100
AcDbSymbolTableRecord
100
AcDbRegAppTableRecord
  2
ASURF_PCURVE_APPNAME
 70
     0
  0
APPID
  5
53D6
330
9
100
AcDbSymbolTableRecord
100
AcDbRegAppTableRecord
  2
AMG_3D2D_5.0
 70
     0
  0
ENDTAB
  0
TABLE
  2
DIMSTYLE
  5
A
330
0
100
AcDbSymbolTable
 70
    14
100
AcDbDimStyleTable
 71
     3
340
81
340
8B
340
86
  0
DIMSTYLE
105
81
330
A
100
AcDbSymbolTableRecord
100
AcDbDimStyleTableRecord
  2
AM_ISO
 70
     0
  4
"
 41
3.0
 42
1.0
 43
8.0
 44
1.5
 47
0.1
 48
0.1
 73
     0
 74
     0
 77
     1
 78
     8
 79
     2
140
3.5
141
0.0
143
0.0393701
146
0.6
147
0.7
172
     1
176
   256
177
   256
178
   256
271
     2
272
     2
283
     0
284
     8
340
11
371
    -1
372
    -1
  0
DIMSTYLE
105
82
330
A
100
AcDbSymbolTableRecord
100
AcDbDimStyleTableRecord
  2
AM_ISO$3
 70
     0
  4
"
 41
3.0
 42
1.0
 43
8.0
 44
1.5
 47
0.1
 48
0.1
 73
     0
 77
     1
 78
     8
 79
     2
140
3.5
141
0.0
143
0.0393701
146
0.6
147
0.7
176
   256
177
   256
178
   256
271
     2
272
     2
283
     0
284
     8
288
     1
289
     0
340
11
371
    -1
372
    -1
  0
DIMSTYLE
105
83
330
A
100
AcDbSymbolTableRecord
100
AcDbDimStyleTableRecord
  2
AM_ISO$4
 70
     0
  4
"
 41
3.0
 42
1.0
 43
8.0
 44
1.5
 47
0.1
 48
0.1
 73
     0
 77
     1
 78
     8
 79
     2
140
3.5
141
0.0
143
0.0393701
146
0.6
147
0.7
176
   256
177
   256
178
   256
271
     2
272
     2
283
     0
284
     8
288
     1
289
     0
340
11
371
    -1
372
    -1
  0
DIMSTYLE
105
84
330
A
100
AcDbSymbolTableRecord
100
AcDbDimStyleTableRecord
  2
AM_ISO$6
 70
     0
  4
"
 41
3.0
 42
1.0
 43
8.0
 44
1.5
 47
0.1
 48
0.1
 73
     0
 74
     0
 78
     8
 79
     2
140
3.5
141
0.0
143
0.0393701
146
0.6
147
0.7
172
     1
176
   256
177
   256
178
   256
271
     2
272
     2
283
     0
284
     8
340
11
371
    -1
372
    -1
  0
DIMSTYLE
105
85
330
A
100
AcDbSymbolTableRecord
100
AcDbDimStyleTableRecord
  2
AM_ISO$7
 70
     0
  4
"
 41
3.0
 42
1.0
 43
8.0
 44
1.5
 47
0.1
 48
0.1
 73
     0
 74
     0
 77
     1
 78
     8
 79
     2
140
5.0
141
0.0
143
0.0393701
146
0.6
147
0.7
172
     1
176
   256
177
   256
178
   256
271
     2
272
     2
283
     0
284
     8
340
11
371
    -1
372
    -1
  0
DIMSTYLE
105
86
330
A
100
AcDbSymbolTableRecord
100
AcDbDimStyleTableRecord
  2
AM_ISO$SF
 70
     0
  4
"
 41
2.5
 42
1.0
 43
10.0
 44
1.0
 47
0.1
 48
0.1
 73
     0
 74
     0
 75
     1
 76
     1
 77
     1
 78
     8
 79
     2
140
3.5
141
0.0
143
0.0393701
146
0.71
147
1.5
172
     1
176
   256
177
   256
178
     2
271
     2
272
     3
274
     4
283
     0
284
     8
340
11
371
    -1
372
    -1
  0
DIMSTYLE
105
8B
330
A
100
AcDbSymbolTableRecord
100
AcDbDimStyleTableRecord
  2
AM_ISO$SH
 70
     0
  4
"
 41
2.5
 42
1.0
 43
10.0
 44
1.0
 47
0.1
 48
0.1
 73
     0
 74
     0
 75
     1
 76
     1
 77
     1
 78
     8
 79
     2
140
3.5
141
0.0
143
0.0393701
144
2.0
146
0.71
147
1.5
172
     1
173
     1
176
   256
177
   256
178
     2
271
     2
272
     3
274
     4
283
     0
284
     8
340
11
343
87
371
    -1
372
    -1
  0
DIMSTYLE
105
40B
102
{ACAD_REACTORS
330
4D5B
330
4D5C
330
4D5F
330
4D62
330
4D63
330
4D66
330
4D69
330
4D6A
330
4D6D
330
4D70
330
4D73
330
4D74
330
4D77
330
4D7A
330
4D7B
330
4D7E
330
4D81
330
4D84
330
4D87
330
4D8A
330
4D8B
330
4D8E
330
4D94
330
4D95
330
4D9A
330
4D9B
330
4D9E
330
4DA0
330
4DA3
330
4DA4
330
4DA7
330
4DA8
330
4DAB
102
}
330
A
100
AcDbSymbolTableRecord
100
AcDbDimStyleTableRecord
  2
AM_ISO$0
 70
     0
  4
"
 41
3.0
 42
1.0
 43
8.0
 44
1.5
 47
0.1
 48
0.1
 73
     0
 74
     0
 77
     1
 78
     8
 79
     2
140
3.5
141
0.0
143
0.0393701
146
0.6
147
0.7
172
     1
176
   256
177
   256
178
   256
271
     2
272
     2
283
     0
284
     8
340
11
371
    -1
372
    -1
  0
DIMSTYLE
105
C31
330
A
100
AcDbSymbolTableRecord
100
AcDbDimStyleTableRecord
  2
AM_ANSI
 70
     0
  4
"
 40
0.6666666666666666
 41
3.799999999999999
 42
3.0
 43
8.0
 44
3.0
 47
0.1
 48
0.1
 73
     0
 74
     0
 77
     3
 78
     8
 79
     2
140
3.0
141
3.0
143
0.0393701
146
0.6
147
1.3
172
     1
176
   256
177
   256
178
   256
271
     2
272
     2
284
     8
340
C2F
371
    -1
372
    -1
  0
DIMSTYLE
105
C32
330
A
100
AcDbSymbolTableRecord
100
AcDbDimStyleTableRecord
  2
AM_ANSI$7
 70
     0
  4
"
 40
0.6666666666666666
 41
2.5
 42
1.0
 43
10.0
 44
1.0
 47
0.1
 48
0.1
 78
     8
 79
     2
140
5.0
141
0.0
143
0.0393701
146
0.71
147
1.5
176
   256
177
   256
178
     2
271
     2
272
     3
274
     4
284
     8
340
11
371
    -1
372
    -1
  0
DIMSTYLE
105
18B1
330
A
100
AcDbSymbolTableRecord
100
AcDbDimStyleTableRecord
  2
AM_ANSI$3
 70
     0
  4
"
 40
0.6666666666666666
 41
2.5
 42
1.0
 43
10.0
 44
1.0
 47
0.1
 48
0.1
 78
     8
 79
     2
140
3.5
141
0.0
143
0.0393701
146
0.71
147
1.5
176
   256
177
   256
178
     2
271
     2
272
     3
274
     4
284
     8
288
     1
289
     0
340
11
371
    -1
372
    -1
  0
DIMSTYLE
105
18B2
330
A
100
AcDbSymbolTableRecord
100
AcDbDimStyleTableRecord
  2
AM_ANSI$4
 70
     0
  4
"
 40
0.6666666666666666
 41
2.5
 42
1.0
 43
10.0
 44
1.0
 47
0.1
 48
0.1
 78
     8
 79
     2
140
3.5
141
0.0
143
0.0393701
146
0.71
147
1.5
176
   256
177
   256
178
     2
271
     2
272
     3
274
     4
284
     8
288
     1
289
     0
340
11
371
    -1
372
    -1
  0
DIMSTYLE
105
18B3
330
A
100
AcDbSymbolTableRecord
100
AcDbDimStyleTableRecord
  2
AM_ANSI$SF
 70
     0
  4
"
 40
0.6666666666666666
 41
2.5
 42
1.0
 43
10.0
 44
1.0
 47
0.1
 48
0.1
 75
     1
 76
     1
 78
     8
 79
     2
140
3.5
141
0.0
143
0.0393701
146
0.71
147
1.5
176
   256
177
   256
178
     2
271
     2
272
     3
274
     4
284
     8
340
11
371
    -1
372
    -1
  0
DIMSTYLE
105
18B4
330
A
100
AcDbSymbolTableRecord
100
AcDbDimStyleTableRecord
  2
AM_ANSI$SH
 70
     0
  4
"
 40
0.6666666666666666
 41
2.5
 42
1.0
 43
10.0
 44
1.0
 47
0.1
 48
0.1
 75
     1
 76
     1
 78
     8
 79
     2
140
3.5
141
0.0
143
0.0393701
146
0.71
147
1.5
173
     1
176
   256
177
   256
178
     2
271
     2
272
     3
274
     4
284
     8
340
11
343
87
371
    -1
372
    -1
  0
ENDTAB
  0
TABLE
  2
BLOCK_RECORD
  5
1
330
0
100
AcDbSymbolTable
 70
    46
  0
BLOCK_RECORD
  5
1F
102
{ACAD_XDICTIONARY
360
8F
102
}
330
1
100
AcDbSymbolTableRecord
100
AcDbBlockTableRecord
  2
*Model_Space
340
22
  0
BLOCK_RECORD
  5
1B
330
1
100
AcDbSymbolTableRecord
100
AcDbBlockTableRecord
  2
*Paper_Space
340
1E
  0
BLOCK_RECORD
  5
23
330
1
100
AcDbSymbolTableRecord
100
AcDbBlockTableRecord
  2
*Paper_Space0
340
26
  0
BLOCK_RECORD
  5
87
330
1
100
AcDbSymbolTableRecord
100
AcDbBlockTableRecord
  2
GENAXEH
340
0
  0
BLOCK_RECORD
  5
4259
330
1
100
AcDbSymbolTableRecord
100
AcDbBlockTableRecord
  2
GENDOT
340
0
102
{BLKREFS
331
5165
331
5181
102
}
  0
BLOCK_RECORD
  5
4471
102
{ACAD_XDICTIONARY
360
4472
102
}
330
1
100
AcDbSymbolTableRecord
100
AcDbBlockTableRecord
  2
A$C1F6E6265
340
0
102
{BLKREFS
331
5129
102
}
  0
BLOCK_RECORD
  5
4486
102
{ACAD_XDICTIONARY
360
4487
102
}
330
1
100
AcDbSymbolTableRecord
100
AcDbBlockTableRecord
  2
A$C5ECF147B
340
0
102
{BLKREFS
331
5119
102
}
  0
BLOCK_RECORD
  5
4ED2
330
1
100
AcDbSymbolTableRecord
100
AcDbBlockTableRecord
  2
*D5
340
0
  0
BLOCK_RECORD
  5
4EDE
330
1
100
AcDbSymbolTableRecord
100
AcDbBlockTableRecord
  2
*D6
340
0
  0
BLOCK_RECORD
  5
4EEA
330
1
100
AcDbSymbolTableRecord
100
AcDbBlockTableRecord
  2
*D7
340
0
  0
BLOCK_RECORD
  5
4EF6
330
1
100
AcDbSymbolTableRecord
100
AcDbBlockTableRecord
  2
*D8
340
0
  0
BLOCK_RECORD
  5
4F02
330
1
100
AcDbSymbolTableRecord
100
AcDbBlockTableRecord
  2
*D9
340
0
  0
BLOCK_RECORD
  5
4F0E
330
1
100
AcDbSymbolTableRecord
100
AcDbBlockTableRecord
  2
*D10
340
0
  0
BLOCK_RECORD
  5
4F1A
330
1
100
AcDbSymbolTableRecord
100
AcDbBlockTableRecord
  2
*D11
340
0
  0
BLOCK_RECORD
  5
4F26
330
1
100
AcDbSymbolTableRecord
100
AcDbBlockTableRecord
  2
*D12
340
0
  0
BLOCK_RECORD
  5
4F32
330
1
100
AcDbSymbolTableRecord
100
AcDbBlockTableRecord
  2
*D13
340
0
  0
BLOCK_RECORD
  5
4F3E
330
1
100
AcDbSymbolTableRecord
100
AcDbBlockTableRecord
  2
*D14
340
0
  0
BLOCK_RECORD
  5
4F4A
330
1
100
AcDbSymbolTableRecord
100
AcDbBlockTableRecord
  2
*D15
340
0
  0
BLOCK_RECORD
  5
4F56
330
1
100
AcDbSymbolTableRecord
100
AcDbBlockTableRecord
  2
*D16
340
0
  0
BLOCK_RECORD
  5
4F62
330
1
100
AcDbSymbolTableRecord
100
AcDbBlockTableRecord
  2
*D17
340
0
  0
BLOCK_RECORD
  5
4F77
330
1
100
AcDbSymbolTableRecord
100
AcDbBlockTableRecord
  2
*D18
340
0
  0
BLOCK_RECORD
  5
4F83
330
1
100
AcDbSymbolTableRecord
100
AcDbBlockTableRecord
  2
*D19
340
0
  0
BLOCK_RECORD
  5
4F98
330
1
100
AcDbSymbolTableRecord
100
AcDbBlockTableRecord
  2
*D20
340
0
  0
BLOCK_RECORD
  5
4FA4
330
1
100
AcDbSymbolTableRecord
100
AcDbBlockTableRecord
  2
*D21
340
0
  0
BLOCK_RECORD
  5
4FB9
330
1
100
AcDbSymbolTableRecord
100
AcDbBlockTableRecord
  2
*D22
340
0
  0
BLOCK_RECORD
  5
4FC5
330
1
100
AcDbSymbolTableRecord
100
AcDbBlockTableRecord
  2
*D23
340
0
  0
BLOCK_RECORD
  5
4FD1
330
1
100
AcDbSymbolTableRecord
100
AcDbBlockTableRecord
  2
*D24
340
0
  0
BLOCK_RECORD
  5
4FEF
330
1
100
AcDbSymbolTableRecord
100
AcDbBlockTableRecord
  2
*D25
340
0
  0
BLOCK_RECORD
  5
5004
330
1
100
AcDbSymbolTableRecord
100
AcDbBlockTableRecord
  2
*D26
340
0
  0
BLOCK_RECORD
  5
5012
330
1
100
AcDbSymbolTableRecord
100
AcDbBlockTableRecord
  2
*D27
340
0
  0
BLOCK_RECORD
  5
501C
330
1
100
AcDbSymbolTableRecord
100
AcDbBlockTableRecord
  2
*D28
340
0
  0
BLOCK_RECORD
  5
5028
330
1
100
AcDbSymbolTableRecord
100
AcDbBlockTableRecord
  2
*D29
340
0
  0
BLOCK_RECORD
  5
5034
330
1
100
AcDbSymbolTableRecord
100
AcDbBlockTableRecord
  2
*D30
340
0
  0
BLOCK_RECORD
  5
5049
330
1
100
AcDbSymbolTableRecord
100
AcDbBlockTableRecord
  2
*D31
340
0
  0
BLOCK_RECORD
  5
5055
330
1
100
AcDbSymbolTableRecord
100
AcDbBlockTableRecord
  2
*D32
340
0
  0
BLOCK_RECORD
  5
506A
330
1
100
AcDbSymbolTableRecord
100
AcDbBlockTableRecord
  2
*D33
340
0
  0
BLOCK_RECORD
  5
5081
330
1
100
AcDbSymbolTableRecord
100
AcDbBlockTableRecord
  2
*D34
340
0
  0
BLOCK_RECORD
  5
5096
330
1
100
AcDbSymbolTableRecord
100
AcDbBlockTableRecord
  2
*D35
340
0
  0
BLOCK_RECORD
  5
50AD
330
1
100
AcDbSymbolTableRecord
100
AcDbBlockTableRecord
  2
*D36
340
0
  0
BLOCK_RECORD
  5
50C4
330
1
100
AcDbSymbolTableRecord
100
AcDbBlockTableRecord
  2
*D37
340
0
  0
BLOCK_RECORD
  5
5260
330
1
100
AcDbSymbolTableRecord
100
AcDbBlockTableRecord
  2
*S38
340
0
102
{BLKREFS
331
4EA4
102
}
  0
BLOCK_RECORD
  5
5268
330
1
100
AcDbSymbolTableRecord
100
AcDbBlockTableRecord
  2
*S39
340
0
102
{BLKREFS
331
4EA5
102
}
  0
BLOCK_RECORD
  5
5270
330
1
100
AcDbSymbolTableRecord
100
AcDbBlockTableRecord
  2
*S40
340
0
102
{BLKREFS
331
4EA6
102
}
  0
BLOCK_RECORD
  5
5278
330
1
100
AcDbSymbolTableRecord
100
AcDbBlockTableRecord
  2
*S41
340
0
102
{BLKREFS
331
4EA7
102
}
  0
BLOCK_RECORD
  5
5280
330
1
100
AcDbSymbolTableRecord
100
AcDbBlockTableRecord
  2
*S42
340
0
102
{BLKREFS
331
4EA8
102
}
  0
BLOCK_RECORD
  5
5288
330
1
100
AcDbSymbolTableRecord
100
AcDbBlockTableRecord
  2
*S43
340
0
102
{BLKREFS
331
4EA9
102
}
  0
BLOCK_RECORD
  5
5290
330
1
100
AcDbSymbolTableRecord
100
AcDbBlockTableRecord
  2
*S44
340
0
102
{BLKREFS
331
4EAA
102
}
  0
ENDTAB
  0
ENDSEC
  0
SECTION
  2
BLOCKS
  0
BLOCK
  5
20
330
1F
100
AcDbEntity
  8
0
100
AcDbBlockBegin
  2
*Model_Space
 70
     0
 10
0.0
 20
0.0
 30
0.0
  3
*Model_Space
  1

  0
ENDBLK
  5
21
330
1F
100
AcDbEntity
  8
0
100
AcDbBlockEnd
  0
BLOCK
  5
1C
330
1B
100
AcDbEntity
 67
     1
  8
0
100
AcDbBlockBegin
  2
*Paper_Space
 70
     0
 10
0.0
 20
0.0
 30
0.0
  3
*Paper_Space
  1

  0
ENDBLK
  5
1D
330
1B
100
AcDbEntity
 67
     1
  8
0
100
AcDbBlockEnd
  0
BLOCK
  5
24
330
23
100
AcDbEntity
  8
0
100
AcDbBlockBegin
  2
*Paper_Space0
 70
     0
 10
0.0
 20
0.0
 30
0.0
  3
*Paper_Space0
  1

  0
ENDBLK
  5
25
330
23
100
AcDbEntity
  8
0
100
AcDbBlockEnd
  0
BLOCK
  5
89
330
87
100
AcDbEntity
  8
0
100
AcDbBlockBegin
  2
GENAXEH
 70
     0
 10
0.0
 20
0.0
 30
0.0
  3
GENAXEH
  1

  0
LINE
  5
88
330
87
100
AcDbEntity
  8
0
100
AcDbLine
 10
-1.0
 20
0.0
 30
0.0
 11
1.0
 21
0.0
 31
0.0
  0
ENDBLK
  5
8A
330
87
100
AcDbEntity
  8
0
100
AcDbBlockEnd
  0
BLOCK
  5
425C
330
4259
100
AcDbEntity
  8
0
100
AcDbBlockBegin
  2
GENDOT
 70
     0
 10
0.0
 20
0.0
 30
0.0
  3
GENDOT
  1

  0
LINE
  5
425A
330
4259
100
AcDbEntity
  8
0
100
AcDbLine
 10
0.0
 20
0.0
 30
0.0
 11
-1.0
 21
0.0
 31
0.0
  0
LWPOLYLINE
  5
425B
330
4259
100
AcDbEntity
  8
0
100
AcDbPolyline
 90
        2
 70
     1
 43
0.25
 10
-0.125
 20
0.0
 42
1.0
 10
0.125
 20
0.0
 42
1.0
  0
ENDBLK
  5
425D
330
4259
100
AcDbEntity
  8
0
100
AcDbBlockEnd
  0
BLOCK
  5
4474
330
4471
100
AcDbEntity
  8
0
100
AcDbBlockBegin
  2
A$C1F6E6265
 70
     0
 10
0.0
 20
0.0
 30
0.0
  3
A$C1F6E6265
  1

  0
LINE
  5
4475
330
4471
100
AcDbEntity
  8
AM_5
 62
     5
100
AcDbLine
 10
12.57846733029419
 20
0.460783587398737
 30
0.0
 11
7.091423997858555
 21
0.460783587398737
 31
0.0
  0
LINE
  5
4476
330
4471
100
AcDbEntity
  8
AM_5
 62
     5
100
AcDbLine
 10
7.091423997858555
 20
0.460783587398737
 30
0.0
 11
3.50000046420655
 21
0.460783587398737
 31
0.0
  0
TRACE
  5
4477
330
4471
100
AcDbEntity
  8
AM_5
 62
     5
370
    35
100
AcDbTrace
 10
3.50000046420655
 20
0.9215673268987245
 30
0.0
 11
3.50000046420655
 21
-0.0000001521012507
 31
0.0
 12
0.0000004642065505
 22
0.460783587398737
 32
0.0
 13
0.0000004642065505
 23
0.460783587398737
 33
0.0
  0
MTEXT
  5
4478
330
4471
100
AcDbEntity
  8
AM_5
 62
     5
100
AcDbMText
 10
6.603782167567317
 20
1.421084835219261
 30
0.0
 40
2.449999999999999
 41
0.0
 71
     7
 72
     5
  1
SL
  7
ACISOTS
 73
     1
 44
1.0
1001
ACAD
1000
MTEXTBEGIN
1070
    73
1070
     1
1070
    44
1040
1.0
1070
    74
1070
     0
1000
MTEXTEND
  0
ENDBLK
  5
4479
330
4471
100
AcDbEntity
  8
0
100
AcDbBlockEnd
  0
BLOCK
  5
4488
330
4486
100
AcDbEntity
  8
0
100
AcDbBlockBegin
  2
A$C5ECF147B
 70
     0
 10
0.0
 20
0.0
 30
0.0
  3
A$C5ECF147B
  1

  0
CIRCLE
  5
4489
330
4486
100
AcDbEntity
  8
0
100
AcDbCircle
 10
-3.079240456948355
 20
2.061381943681453
 30
0.0
 40
1.25
  0
CIRCLE
  5
448A
330
4486
100
AcDbEntity
  8
0
100
AcDbCircle
 10
-3.079240456948355
 20
2.061381943681453
 30
0.0
 40
0.75
  0
ENDBLK
  5
448B
330
4486
100
AcDbEntity
  8
0
100
AcDbBlockEnd
  0
BLOCK
  5
4EDC
330
4ED2
100
AcDbEntity
  8
0
100
AcDbBlockBegin
  2
*D5
 70
     1
 10
0.0
 20
0.0
 30
0.0
  3
*D5
  1

  0
LINE
  5
4F6E
330
4ED2
100
AcDbEntity
  8
AM_5
100
AcDbLine
 10
954.4763999572547
 20
167.4438527643176
 30
0.0
 11
954.4763999572547
 21
150.4438527643176
 31
0.0
  0
LINE
  5
4F6F
330
4ED2
100
AcDbEntity
  8
AM_5
100
AcDbLine
 10
965.4763999572542
 20
167.4438527643175
 30
0.0
 11
965.4763999572542
 21
150.4438527643176
 31
0.0
  0
LINE
  5
4F70
330
4ED2
100
AcDbEntity
  8
AM_5
100
AcDbLine
 10
957.4763999572546
 20
151.9438527643176
 30
0.0
 11
962.4763999572541
 21
151.9438527643176
 31
0.0
  0
SOLID
  5
4F71
330
4ED2
100
AcDbEntity
  8
AM_5
100
AcDbTrace
 10
957.4763999572546
 20
152.4438527643176
 30
0.0
 11
957.4763999572546
 21
151.4438527643176
 31
0.0
 12
954.4763999572547
 22
151.9438527643176
 32
0.0
 13
954.4763999572547
 23
151.9438527643176
 33
0.0
  0
SOLID
  5
4F72
330
4ED2
100
AcDbEntity
  8
AM_5
100
AcDbTrace
 10
962.4763999572541
 20
152.4438527643176
 30
0.0
 11
962.4763999572541
 21
151.4438527643176
 31
0.0
 12
965.4763999572542
 22
151.9438527643176
 32
0.0
 13
965.4763999572542
 23
151.9438527643176
 33
0.0
  0
MTEXT
  5
4F73
330
4ED2
100
AcDbEntity
  8
AM_5
100
AcDbMText
 10
959.9763999572545
 20
154.3938527643176
 30
0.0
 40
3.5
 41
0.0
 71
     5
 72
     1
  1
11
 73
     1
 44
1.0
1001
ACAD
1000
MTEXTBEGIN
1070
    73
1070
     1
1070
    44
1040
1.0
1070
    74
1070
     0
1000
MTEXTEND
  0
POINT
  5
4F74
330
4ED2
100
AcDbEntity
  8
Defpoints
 62
     0
100
AcDbPoint
 10
954.4763999572547
 20
168.4438527643176
 30
0.0
  0
POINT
  5
4F75
330
4ED2
100
AcDbEntity
  8
Defpoints
 62
     0
100
AcDbPoint
 10
965.4763999572542
 20
168.4438527643175
 30
0.0
  0
POINT
  5
4F76
330
4ED2
100
AcDbEntity
  8
Defpoints
 62
     0
100
AcDbPoint
 10
965.4763999572542
 20
151.9438527643176
 30
0.0
  0
ENDBLK
  5
4EDD
330
4ED2
100
AcDbEntity
  8
0
100
AcDbBlockEnd
  0
BLOCK
  5
4EE8
330
4EDE
100
AcDbEntity
  8
0
100
AcDbBlockBegin
  2
*D6
 70
     1
 10
0.0
 20
0.0
 30
0.0
  3
*D6
  1

  0
LINE
  5
4F8F
330
4EDE
100
AcDbEntity
  8
AM_5
100
AcDbLine
 10
969.4763999572543
 20
189.4438527643176
 30
0.0
 11
983.476399957254
 21
189.4438527643176
 31
0.0
  0
LINE
  5
4F90
330
4EDE
100
AcDbEntity
  8
AM_5
100
AcDbLine
 10
969.4763999572543
 20
171.4438527643176
 30
0.0
 11
983.476399957254
 21
171.4438527643176
 31
0.0
  0
LINE
  5
4F91
330
4EDE
100
AcDbEntity
  8
AM_5
100
AcDbLine
 10
981.976399957254
 20
186.4438527643176
 30
0.0
 11
981.976399957254
 21
174.4438527643176
 31
0.0
  0
SOLID
  5
4F92
330
4EDE
100
AcDbEntity
  8
AM_5
100
AcDbTrace
 10
981.4763999572539
 20
186.4438527643176
 30
0.0
 11
982.4763999572539
 21
186.4438527643176
 31
0.0
 12
981.976399957254
 22
189.4438527643176
 32
0.0
 13
981.976399957254
 23
189.4438527643176
 33
0.0
  0
SOLID
  5
4F93
330
4EDE
100
AcDbEntity
  8
AM_5
100
AcDbTrace
 10
981.4763999572539
 20
174.4438527643176
 30
0.0
 11
982.4763999572539
 21
174.4438527643176
 31
0.0
 12
981.976399957254
 22
171.4438527643176
 32
0.0
 13
981.976399957254
 23
171.4438527643176
 33
0.0
  0
MTEXT
  5
4F94
330
4EDE
100
AcDbEntity
  8
AM_5
100
AcDbMText
 10
979.5263999572538
 20
180.4438527643178
 30
0.0
 40
3.5
 41
0.0
 71
     5
 72
     1
  1
18
 11
0.0000000000000001
 21
1.0
 31
0.0
 73
     1
 44
1.0
1001
ACAD
1000
MTEXTBEGIN
1070
    73
1070
     1
1070
    44
1040
1.0
1070
    74
1070
     0
1000
MTEXTEND
  0
POINT
  5
4F95
330
4EDE
100
AcDbEntity
  8
Defpoints
 62
     0
100
AcDbPoint
 10
968.4763999572544
 20
189.4438527643176
 30
0.0
  0
POINT
  5
4F96
330
4EDE
100
AcDbEntity
  8
Defpoints
 62
     0
100
AcDbPoint
 10
968.4763999572544
 20
171.4438527643176
 30
0.0
  0
POINT
  5
4F97
330
4EDE
100
AcDbEntity
  8
Defpoints
 62
     0
100
AcDbPoint
 10
981.976399957254
 20
171.4438527643176
 30
0.0
  0
ENDBLK
  5
4EE9
330
4EDE
100
AcDbEntity
  8
0
100
AcDbBlockEnd
  0
BLOCK
  5
4EF4
330
4EEA
100
AcDbEntity
  8
0
100
AcDbBlockBegin
  2
*D7
 70
     1
 10
0.0
 20
0.0
 30
0.0
  3
*D7
  1

  0
LINE
  5
51AC
330
4EEA
100
AcDbEntity
  8
AM_5
100
AcDbLine
 10
1034.135130867759
 20
274.6311030084454
 30
0.0
 11
1013.635130867759
 21
274.6311030084454
 31
0.0
  0
LINE
  5
51AD
330
4EEA
100
AcDbEntity
  8
AM_5
100
AcDbLine
 10
1034.135130867759
 20
263.6311030084454
 30
0.0
 11
1013.635130867759
 21
263.6311030084454
 31
0.0
  0
LINE
  5
51AE
330
4EEA
100
AcDbEntity
  8
AM_5
100
AcDbLine
 10
1015.135130867759
 20
271.6311030084454
 30
0.0
 11
1015.135130867759
 21
266.6311030084454
 31
0.0
  0
SOLID
  5
51AF
330
4EEA
100
AcDbEntity
  8
AM_5
100
AcDbTrace
 10
1014.635130867759
 20
271.6311030084454
 30
0.0
 11
1015.635130867758
 21
271.6311030084454
 31
0.0
 12
1015.135130867759
 22
274.6311030084454
 32
0.0
 13
1015.135130867759
 23
274.6311030084454
 33
0.0
  0
SOLID
  5
51B0
330
4EEA
100
AcDbEntity
  8
AM_5
100
AcDbTrace
 10
1014.635130867759
 20
266.6311030084454
 30
0.0
 11
1015.635130867758
 21
266.6311030084454
 31
0.0
 12
1015.135130867759
 22
263.6311030084454
 32
0.0
 13
1015.135130867759
 23
263.6311030084454
 33
0.0
  0
MTEXT
  5
51B1
330
4EEA
100
AcDbEntity
  8
AM_5
100
AcDbMText
 10
1012.685130867758
 20
269.1311030084456
 30
0.0
 40
3.5
 41
0.0
 71
     5
 72
     1
  1
11
 11
0.0000000000000001
 21
1.0
 31
0.0
 73
     1
 44
1.0
1001
ACAD
1000
MTEXTBEGIN
1070
    73
1070
     1
1070
    44
1040
1.0
1070
    74
1070
     0
1000
MTEXTEND
  0
POINT
  5
51B2
330
4EEA
100
AcDbEntity
  8
Defpoints
 62
     0
100
AcDbPoint
 10
1035.135130867758
 20
274.6311030084454
 30
0.0
  0
POINT
  5
51B3
330
4EEA
100
AcDbEntity
  8
Defpoints
 62
     0
100
AcDbPoint
 10
1035.135130867758
 20
263.6311030084454
 30
0.0
  0
POINT
  5
51B4
330
4EEA
100
AcDbEntity
  8
Defpoints
 62
     0
100
AcDbPoint
 10
1015.135130867759
 20
263.6311030084454
 30
0.0
  0
ENDBLK
  5
4EF5
330
4EEA
100
AcDbEntity
  8
0
100
AcDbBlockEnd
  0
BLOCK
  5
4F00
330
4EF6
100
AcDbEntity
  8
0
100
AcDbBlockBegin
  2
*D8
 70
     1
 10
0.0
 20
0.0
 30
0.0
  3
*D8
  1

  0
LINE
  5
51D0
330
4EF6
100
AcDbEntity
  8
AM_5
100
AcDbLine
 10
1038.135130867759
 20
259.6311030084455
 30
0.0
 11
1038.135130867759
 21
245.6311030084455
 31
0.0
  0
LINE
  5
51D1
330
4EF6
100
AcDbEntity
  8
AM_5
100
AcDbLine
 10
1058.135130867759
 20
257.9811030084454
 30
0.0
 11
1058.135130867759
 21
245.6311030084455
 31
0.0
  0
LINE
  5
51D2
330
4EF6
100
AcDbEntity
  8
AM_5
100
AcDbLine
 10
1041.135130867758
 20
247.1311030084455
 30
0.0
 11
1055.135130867759
 21
247.1311030084455
 31
0.0
  0
SOLID
  5
51D3
330
4EF6
100
AcDbEntity
  8
AM_5
100
AcDbTrace
 10
1041.135130867758
 20
247.6311030084455
 30
0.0
 11
1041.135130867758
 21
246.6311030084455
 31
0.0
 12
1038.135130867759
 22
247.1311030084455
 32
0.0
 13
1038.135130867759
 23
247.1311030084455
 33
0.0
  0
SOLID
  5
51D4
330
4EF6
100
AcDbEntity
  8
AM_5
100
AcDbTrace
 10
1055.135130867759
 20
247.6311030084455
 30
0.0
 11
1055.135130867759
 21
246.6311030084455
 31
0.0
 12
1058.135130867759
 22
247.1311030084455
 32
0.0
 13
1058.135130867759
 23
247.1311030084455
 33
0.0
  0
MTEXT
  5
51D5
330
4EF6
100
AcDbEntity
  8
AM_5
100
AcDbMText
 10
1048.135130867759
 20
249.5814474966345
 30
0.0
 40
3.5
 41
0.0
 71
     5
 72
     1
  1
L2
 73
     1
 44
1.0
1001
ACAD
1000
MTEXTBEGIN
1070
    73
1070
     1
1070
    44
1040
1.0
1070
    74
1070
     0
1000
MTEXTEND
  0
POINT
  5
51D6
330
4EF6
100
AcDbEntity
  8
Defpoints
 62
     0
100
AcDbPoint
 10
1038.135130867759
 20
260.6311030084455
 30
0.0
  0
POINT
  5
51D7
330
4EF6
100
AcDbEntity
  8
Defpoints
 62
     0
100
AcDbPoint
 10
1058.135130867759
 20
258.9811030084454
 30
0.0
  0
POINT
  5
51D8
330
4EF6
100
AcDbEntity
  8
Defpoints
 62
     0
100
AcDbPoint
 10
1058.135130867759
 20
247.1311030084455
 30
0.0
  0
ENDBLK
  5
4F01
330
4EF6
100
AcDbEntity
  8
0
100
AcDbBlockEnd
  0
BLOCK
  5
4F0C
330
4F02
100
AcDbEntity
  8
0
100
AcDbBlockBegin
  2
*D9
 70
     1
 10
0.0
 20
0.0
 30
0.0
  3
*D9
  1

  0
LINE
  5
51D9
330
4F02
100
AcDbEntity
  8
AM_5
100
AcDbLine
 10
1058.135130867759
 20
259.6311030084455
 30
0.0
 11
1058.135130867759
 21
245.6311030084455
 31
0.0
  0
LINE
  5
51DA
330
4F02
100
AcDbEntity
  8
AM_5
100
AcDbLine
 10
1078.135130867758
 20
259.6311030084452
 30
0.0
 11
1078.135130867758
 21
245.6311030084455
 31
0.0
  0
LINE
  5
51DB
330
4F02
100
AcDbEntity
  8
AM_5
100
AcDbLine
 10
1061.135130867759
 20
247.1311030084455
 30
0.0
 11
1075.135130867759
 21
247.1311030084455
 31
0.0
  0
SOLID
  5
51DC
330
4F02
100
AcDbEntity
  8
AM_5
100
AcDbTrace
 10
1061.135130867759
 20
247.6311030084455
 30
0.0
 11
1061.135130867759
 21
246.6311030084455
 31
0.0
 12
1058.135130867759
 22
247.1311030084455
 32
0.0
 13
1058.135130867759
 23
247.1311030084455
 33
0.0
  0
SOLID
  5
51DD
330
4F02
100
AcDbEntity
  8
AM_5
100
AcDbTrace
 10
1075.135130867759
 20
247.6311030084455
 30
0.0
 11
1075.135130867759
 21
246.6311030084455
 31
0.0
 12
1078.135130867758
 22
247.1311030084455
 32
0.0
 13
1078.135130867758
 23
247.1311030084455
 33
0.0
  0
MTEXT
  5
51DE
330
4F02
100
AcDbEntity
  8
AM_5
100
AcDbMText
 10
1068.135130867759
 20
249.5811030084455
 30
0.0
 40
3.5
 41
0.0
 71
     5
 72
     1
  1
L3
 73
     1
 44
1.0
1001
ACAD
1000
MTEXTBEGIN
1070
    73
1070
     1
1070
    44
1040
1.0
1070
    74
1070
     0
1000
MTEXTEND
  0
POINT
  5
51DF
330
4F02
100
AcDbEntity
  8
Defpoints
 62
     0
100
AcDbPoint
 10
1058.135130867759
 20
260.6311030084455
 30
0.0
  0
POINT
  5
51E0
330
4F02
100
AcDbEntity
  8
Defpoints
 62
     0
100
AcDbPoint
 10
1078.135130867758
 20
260.6311030084452
 30
0.0
  0
POINT
  5
51E1
330
4F02
100
AcDbEntity
  8
Defpoints
 62
     0
100
AcDbPoint
 10
1078.135130867758
 20
247.1311030084455
 30
0.0
  0
ENDBLK
  5
4F0D
330
4F02
100
AcDbEntity
  8
0
100
AcDbBlockEnd
  0
BLOCK
  5
4F18
330
4F0E
100
AcDbEntity
  8
0
100
AcDbBlockBegin
  2
*D10
 70
     1
 10
0.0
 20
0.0
 30
0.0
  3
*D10
  1

  0
LINE
  5
4FFB
330
4F0E
100
AcDbEntity
  8
AM_5
100
AcDbLine
 10
1037.885130867759
 20
191.9438527643176
 30
0.0
 11
1013.635130867759
 21
191.9438527643176
 31
0.0
  0
LINE
  5
4FFC
330
4F0E
100
AcDbEntity
  8
AM_5
100
AcDbLine
 10
1038.885130867758
 20
168.9438527643176
 30
0.0
 11
1013.635130867759
 21
168.9438527643176
 31
0.0
  0
LINE
  5
4FFD
330
4F0E
100
AcDbEntity
  8
AM_5
100
AcDbLine
 10
1015.135130867759
 20
188.9438527643176
 30
0.0
 11
1015.135130867759
 21
171.9438527643176
 31
0.0
  0
SOLID
  5
4FFE
330
4F0E
100
AcDbEntity
  8
AM_5
100
AcDbTrace
 10
1014.635130867759
 20
188.9438527643176
 30
0.0
 11
1015.635130867758
 21
188.9438527643176
 31
0.0
 12
1015.135130867759
 22
191.9438527643176
 32
0.0
 13
1015.135130867759
 23
191.9438527643176
 33
0.0
  0
SOLID
  5
4FFF
330
4F0E
100
AcDbEntity
  8
AM_5
100
AcDbTrace
 10
1014.635130867759
 20
171.9438527643176
 30
0.0
 11
1015.635130867758
 21
171.9438527643176
 31
0.0
 12
1015.135130867759
 22
168.9438527643176
 32
0.0
 13
1015.135130867759
 23
168.9438527643176
 33
0.0
  0
MTEXT
  5
5000
330
4F0E
100
AcDbEntity
  8
AM_5
100
AcDbMText
 10
1012.68478637957
 20
180.4438527643178
 30
0.0
 40
3.5
 41
0.0
 71
     5
 72
     1
  1
23
 11
0.0000000000000001
 21
1.0
 31
0.0
 73
     1
 44
1.0
1001
ACAD
1000
MTEXTBEGIN
1070
    73
1070
     1
1070
    44
1040
1.0
1070
    74
1070
     0
1000
MTEXTEND
  0
POINT
  5
5001
330
4F0E
100
AcDbEntity
  8
Defpoints
 62
     0
100
AcDbPoint
 10
1038.885130867758
 20
191.9438527643176
 30
0.0
  0
POINT
  5
5002
330
4F0E
100
AcDbEntity
  8
Defpoints
 62
     0
100
AcDbPoint
 10
1039.885130867759
 20
168.9438527643176
 30
0.0
  0
POINT
  5
5003
330
4F0E
100
AcDbEntity
  8
Defpoints
 62
     0
100
AcDbPoint
 10
1015.135130867759
 20
168.9438527643176
 30
0.0
  0
ENDBLK
  5
4F19
330
4F0E
100
AcDbEntity
  8
0
100
AcDbBlockEnd
  0
BLOCK
  5
4F24
330
4F1A
100
AcDbEntity
  8
0
100
AcDbBlockBegin
  2
*D11
 70
     1
 10
0.0
 20
0.0
 30
0.0
  3
*D11
  1

  0
LINE
  5
5157
330
4F1A
100
AcDbEntity
  8
AM_5
100
AcDbLine
 10
1043.635130867759
 20
162.9438527643176
 30
0.0
 11
1043.635130867759
 21
147.5540455273331
 31
0.0
  0
LINE
  5
5158
330
4F1A
100
AcDbEntity
  8
AM_5
100
AcDbLine
 10
1088.635130867759
 20
186.1438527643177
 30
0.0
 11
1088.635130867759
 21
147.5540455273331
 31
0.0
  0
LINE
  5
5159
330
4F1A
100
AcDbEntity
  8
AM_5
100
AcDbLine
 10
1046.635130867759
 20
149.0540455273331
 30
0.0
 11
1085.635130867759
 21
149.0540455273331
 31
0.0
  0
SOLID
  5
515A
330
4F1A
100
AcDbEntity
  8
AM_5
100
AcDbTrace
 10
1046.635130867759
 20
149.5540455273331
 30
0.0
 11
1046.635130867759
 21
148.5540455273331
 31
0.0
 12
1043.635130867759
 22
149.0540455273331
 32
0.0
 13
1043.635130867759
 23
149.0540455273331
 33
0.0
  0
SOLID
  5
515B
330
4F1A
100
AcDbEntity
  8
AM_5
100
AcDbTrace
 10
1085.635130867759
 20
149.5540455273331
 30
0.0
 11
1085.635130867759
 21
148.5540455273331
 31
0.0
 12
1088.635130867759
 22
149.0540455273331
 32
0.0
 13
1088.635130867759
 23
149.0540455273331
 33
0.0
  0
MTEXT
  5
515C
330
4F1A
100
AcDbEntity
  8
AM_5
100
AcDbMText
 10
1066.135130867759
 20
151.5040455273331
 30
0.0
 40
3.5
 41
0.0
 71
     5
 72
     1
  1
C
 73
     1
 44
1.0
1001
ACAD
1000
MTEXTBEGIN
1070
    73
1070
     1
1070
    44
1040
1.0
1070
    74
1070
     0
1000
MTEXTEND
  0
POINT
  5
515D
330
4F1A
100
AcDbEntity
  8
Defpoints
 62
     0
100
AcDbPoint
 10
1043.635130867759
 20
163.9438527643176
 30
0.0
  0
POINT
  5
515E
330
4F1A
100
AcDbEntity
  8
Defpoints
 62
     0
100
AcDbPoint
 10
1088.635130867759
 20
187.1438527643177
 30
0.0
  0
POINT
  5
515F
330
4F1A
100
AcDbEntity
  8
Defpoints
 62
     0
100
AcDbPoint
 10
1088.635130867759
 20
149.0540455273331
 30
0.0
  0
ENDBLK
  5
4F25
330
4F1A
100
AcDbEntity
  8
0
100
AcDbBlockEnd
  0
BLOCK
  5
4F30
330
4F26
100
AcDbEntity
  8
0
100
AcDbBlockBegin
  2
*D12
 70
     1
 10
0.0
 20
0.0
 30
0.0
  3
*D12
  1

  0
LINE
  5
5061
330
4F26
100
AcDbEntity
  8
AM_5
100
AcDbLine
 10
1105.635130867758
 20
190.4438527643176
 30
0.0
 11
1127.135130867759
 21
190.4438527643176
 31
0.0
  0
LINE
  5
5062
330
4F26
100
AcDbEntity
  8
AM_5
100
AcDbLine
 10
1106.635130867759
 20
170.4438527643176
 30
0.0
 11
1127.135130867759
 21
170.4438527643176
 31
0.0
  0
LINE
  5
5063
330
4F26
100
AcDbEntity
  8
AM_5
100
AcDbLine
 10
1125.635130867759
 20
187.4438527643176
 30
0.0
 11
1125.635130867759
 21
173.4438527643176
 31
0.0
  0
SOLID
  5
5064
330
4F26
100
AcDbEntity
  8
AM_5
100
AcDbTrace
 10
1125.135130867759
 20
187.4438527643176
 30
0.0
 11
1126.135130867758
 21
187.4438527643176
 31
0.0
 12
1125.635130867759
 22
190.4438527643176
 32
0.0
 13
1125.635130867759
 23
190.4438527643176
 33
0.0
  0
SOLID
  5
5065
330
4F26
100
AcDbEntity
  8
AM_5
100
AcDbTrace
 10
1125.135130867759
 20
173.4438527643176
 30
0.0
 11
1126.135130867758
 21
173.4438527643176
 31
0.0
 12
1125.635130867759
 22
170.4438527643176
 32
0.0
 13
1125.635130867759
 23
170.4438527643176
 33
0.0
  0
MTEXT
  5
5066
330
4F26
100
AcDbEntity
  8
AM_5
100
AcDbMText
 10
1123.18478637957
 20
180.4438527643178
 30
0.0
 40
3.5
 41
0.0
 71
     5
 72
     1
  1
20
 11
0.0000000000000001
 21
1.0
 31
0.0
 73
     1
 44
1.0
1001
ACAD
1000
MTEXTBEGIN
1070
    73
1070
     1
1070
    44
1040
1.0
1070
    74
1070
     0
1000
MTEXTEND
  0
POINT
  5
5067
330
4F26
100
AcDbEntity
  8
Defpoints
 62
     0
100
AcDbPoint
 10
1104.635130867759
 20
190.4438527643176
 30
0.0
  0
POINT
  5
5068
330
4F26
100
AcDbEntity
  8
Defpoints
 62
     0
100
AcDbPoint
 10
1105.635130867758
 20
170.4438527643176
 30
0.0
  0
POINT
  5
5069
330
4F26
100
AcDbEntity
  8
Defpoints
 62
     0
100
AcDbPoint
 10
1125.635130867759
 20
170.4438527643176
 30
0.0
  0
ENDBLK
  5
4F31
330
4F26
100
AcDbEntity
  8
0
100
AcDbBlockEnd
  0
BLOCK
  5
4F3C
330
4F32
100
AcDbEntity
  8
0
100
AcDbBlockBegin
  2
*D13
 70
     1
 10
0.0
 20
0.0
 30
0.0
  3
*D13
  1

  0
LINE
  5
5191
330
4F32
100
AcDbEntity
  8
AM_5
100
AcDbLine
 10
1047.635130867758
 20
103.7823312591829
 30
0.0
 11
1015.184154982181
 21
103.7823312591829
 31
0.0
  0
LINE
  5
5192
330
4F32
100
AcDbEntity
  8
AM_5
100
AcDbLine
 10
1047.635130867758
 20
90.78233125918293
 30
0.0
 11
1015.184154982181
 21
90.78233125918293
 31
0.0
  0
LINE
  5
5193
330
4F32
100
AcDbEntity
  8
AM_5
100
AcDbLine
 10
1016.684154982181
 20
100.7823312591829
 30
0.0
 11
1016.684154982181
 21
93.78233125918294
 31
0.0
  0
SOLID
  5
5194
330
4F32
100
AcDbEntity
  8
AM_5
100
AcDbTrace
 10
1016.184154982181
 20
100.7823312591829
 30
0.0
 11
1017.184154982181
 21
100.7823312591829
 31
0.0
 12
1016.684154982181
 22
103.7823312591829
 32
0.0
 13
1016.684154982181
 23
103.7823312591829
 33
0.0
  0
SOLID
  5
5195
330
4F32
100
AcDbEntity
  8
AM_5
100
AcDbTrace
 10
1016.184154982181
 20
93.78233125918294
 30
0.0
 11
1017.184154982181
 21
93.78233125918294
 31
0.0
 12
1016.684154982181
 22
90.78233125918293
 32
0.0
 13
1016.684154982181
 23
90.78233125918293
 33
0.0
  0
MTEXT
  5
5196
330
4F32
100
AcDbEntity
  8
AM_5
100
AcDbMText
 10
1014.234154982181
 20
97.28233125918311
 30
0.0
 40
3.5
 41
0.0
 71
     5
 72
     1
  1
13
 11
0.0000000000000001
 21
1.0
 31
0.0
 73
     1
 44
1.0
1001
ACAD
1000
MTEXTBEGIN
1070
    73
1070
     1
1070
    44
1040
1.0
1070
    74
1070
     0
1000
MTEXTEND
  0
POINT
  5
5197
330
4F32
100
AcDbEntity
  8
Defpoints
 62
     0
100
AcDbPoint
 10
1048.635130867759
 20
103.7823312591829
 30
0.0
  0
POINT
  5
5198
330
4F32
100
AcDbEntity
  8
Defpoints
 62
     0
100
AcDbPoint
 10
1048.635130867759
 20
90.78233125918293
 30
0.0
  0
POINT
  5
5199
330
4F32
100
AcDbEntity
  8
Defpoints
 62
     0
100
AcDbPoint
 10
1016.684154982181
 20
90.78233125918293
 30
0.0
  0
ENDBLK
  5
4F3D
330
4F32
100
AcDbEntity
  8
0
100
AcDbBlockEnd
  0
BLOCK
  5
4F48
330
4F3E
100
AcDbEntity
  8
0
100
AcDbBlockBegin
  2
*D14
 70
     1
 10
0.0
 20
0.0
 30
0.0
  3
*D14
  1

  0
LINE
  5
51A3
330
4F3E
100
AcDbEntity
  8
AM_5
100
AcDbLine
 10
1050.635130867759
 20
106.7823312591829
 30
0.0
 11
1050.635130867759
 21
116.186067030026
 31
0.0
  0
LINE
  5
51A4
330
4F3E
100
AcDbEntity
  8
AM_5
100
AcDbLine
 10
1095.635130867758
 20
106.7823312591829
 30
0.0
 11
1095.635130867758
 21
116.186067030026
 31
0.0
  0
LINE
  5
51A5
330
4F3E
100
AcDbEntity
  8
AM_5
100
AcDbLine
 10
1053.635130867759
 20
114.686067030026
 30
0.0
 11
1092.635130867759
 21
114.686067030026
 31
0.0
  0
SOLID
  5
51A6
330
4F3E
100
AcDbEntity
  8
AM_5
100
AcDbTrace
 10
1053.635130867759
 20
115.186067030026
 30
0.0
 11
1053.635130867759
 21
114.186067030026
 31
0.0
 12
1050.635130867759
 22
114.686067030026
 32
0.0
 13
1050.635130867759
 23
114.686067030026
 33
0.0
  0
SOLID
  5
51A7
330
4F3E
100
AcDbEntity
  8
AM_5
100
AcDbTrace
 10
1092.635130867759
 20
115.186067030026
 30
0.0
 11
1092.635130867759
 21
114.186067030026
 31
0.0
 12
1095.635130867758
 22
114.686067030026
 32
0.0
 13
1095.635130867758
 23
114.686067030026
 33
0.0
  0
MTEXT
  5
51A8
330
4F3E
100
AcDbEntity
  8
AM_5
100
AcDbMText
 10
1073.135130867759
 20
117.1360670300261
 30
0.0
 40
3.5
 41
0.0
 71
     5
 72
     1
  1
5+stroke
 73
     1
 44
1.0
1001
ACAD
1000
MTEXTBEGIN
1070
    73
1070
     1
1070
    44
1040
1.0
1070
    74
1070
     0
1000
MTEXTEND
  0
POINT
  5
51A9
330
4F3E
100
AcDbEntity
  8
Defpoints
 62
     0
100
AcDbPoint
 10
1050.635130867759
 20
105.7823312591829
 30
0.0
  0
POINT
  5
51AA
330
4F3E
100
AcDbEntity
  8
Defpoints
 62
     0
100
AcDbPoint
 10
1095.635130867758
 20
105.7823312591829
 30
0.0
  0
POINT
  5
51AB
330
4F3E
100
AcDbEntity
  8
Defpoints
 62
     0
100
AcDbPoint
 10
1095.635130867758
 20
114.686067030026
 30
0.0
  0
ENDBLK
  5
4F49
330
4F3E
100
AcDbEntity
  8
0
100
AcDbBlockEnd
  0
BLOCK
  5
4F54
330
4F4A
100
AcDbEntity
  8
0
100
AcDbBlockBegin
  2
*D15
 70
     1
 10
0.0
 20
0.0
 30
0.0
  3
*D15
  1

  0
LINE
  5
50A4
330
4F4A
100
AcDbEntity
  8
AM_5
100
AcDbLine
 10
1173.563729338185
 20
191.9438527643176
 30
0.0
 11
1160.563729338184
 21
191.9438527643176
 31
0.0
  0
LINE
  5
50A5
330
4F4A
100
AcDbEntity
  8
AM_5
100
AcDbLine
 10
1173.563729338184
 20
168.9438527643176
 30
0.0
 11
1160.563729338184
 21
168.9438527643176
 31
0.0
  0
LINE
  5
50A6
330
4F4A
100
AcDbEntity
  8
AM_5
100
AcDbLine
 10
1162.063729338184
 20
188.9438527643176
 30
0.0
 11
1162.063729338184
 21
171.9438527643176
 31
0.0
  0
SOLID
  5
50A7
330
4F4A
100
AcDbEntity
  8
AM_5
100
AcDbTrace
 10
1161.563729338184
 20
188.9438527643176
 30
0.0
 11
1162.563729338184
 21
188.9438527643176
 31
0.0
 12
1162.063729338184
 22
191.9438527643176
 32
0.0
 13
1162.063729338184
 23
191.9438527643176
 33
0.0
  0
SOLID
  5
50A8
330
4F4A
100
AcDbEntity
  8
AM_5
100
AcDbTrace
 10
1161.563729338184
 20
171.9438527643176
 30
0.0
 11
1162.563729338184
 21
171.9438527643176
 31
0.0
 12
1162.063729338184
 22
168.9438527643176
 32
0.0
 13
1162.063729338184
 23
168.9438527643176
 33
0.0
  0
MTEXT
  5
50A9
330
4F4A
100
AcDbEntity
  8
AM_5
100
AcDbMText
 10
1159.613384849995
 20
180.4438527643178
 30
0.0
 40
3.5
 41
0.0
 71
     5
 72
     1
  1
23
 11
0.0000000000000001
 21
1.0
 31
0.0
 73
     1
 44
1.0
1001
ACAD
1000
MTEXTBEGIN
1070
    73
1070
     1
1070
    44
1040
1.0
1070
    74
1070
     0
1000
MTEXTEND
  0
POINT
  5
50AA
330
4F4A
100
AcDbEntity
  8
Defpoints
 62
     0
100
AcDbPoint
 10
1174.563729338184
 20
191.9438527643176
 30
0.0
  0
POINT
  5
50AB
330
4F4A
100
AcDbEntity
  8
Defpoints
 62
     0
100
AcDbPoint
 10
1174.563729338184
 20
168.9438527643176
 30
0.0
  0
POINT
  5
50AC
330
4F4A
100
AcDbEntity
  8
Defpoints
 62
     0
100
AcDbPoint
 10
1162.063729338184
 20
168.9438527643176
 30
0.0
  0
ENDBLK
  5
4F55
330
4F4A
100
AcDbEntity
  8
0
100
AcDbBlockEnd
  0
BLOCK
  5
4F60
330
4F56
100
AcDbEntity
  8
0
100
AcDbBlockBegin
  2
*D16
 70
     1
 10
0.0
 20
0.0
 30
0.0
  3
*D16
  1

  0
LINE
  5
50BB
330
4F56
100
AcDbEntity
  8
AM_5
100
AcDbLine
 10
1188.563729338184
 20
190.4438527643176
 30
0.0
 11
1207.563729338184
 21
190.4438527643176
 31
0.0
  0
LINE
  5
50BC
330
4F56
100
AcDbEntity
  8
AM_5
100
AcDbLine
 10
1188.563729338184
 20
170.4438527643176
 30
0.0
 11
1207.563729338184
 21
170.4438527643176
 31
0.0
  0
LINE
  5
50BD
330
4F56
100
AcDbEntity
  8
AM_5
100
AcDbLine
 10
1206.063729338184
 20
187.4438527643176
 30
0.0
 11
1206.063729338184
 21
173.4438527643176
 31
0.0
  0
SOLID
  5
50BE
330
4F56
100
AcDbEntity
  8
AM_5
100
AcDbTrace
 10
1205.563729338184
 20
187.4438527643176
 30
0.0
 11
1206.563729338184
 21
187.4438527643176
 31
0.0
 12
1206.063729338184
 22
190.4438527643176
 32
0.0
 13
1206.063729338184
 23
190.4438527643176
 33
0.0
  0
SOLID
  5
50BF
330
4F56
100
AcDbEntity
  8
AM_5
100
AcDbTrace
 10
1205.563729338184
 20
173.4438527643176
 30
0.0
 11
1206.563729338184
 21
173.4438527643176
 31
0.0
 12
1206.063729338184
 22
170.4438527643176
 32
0.0
 13
1206.063729338184
 23
170.4438527643176
 33
0.0
  0
MTEXT
  5
50C0
330
4F56
100
AcDbEntity
  8
AM_5
100
AcDbMText
 10
1203.613384849995
 20
180.4438527643178
 30
0.0
 40
3.5
 41
0.0
 71
     5
 72
     1
  1
20
 11
0.0000000000000001
 21
1.0
 31
0.0
 73
     1
 44
1.0
1001
ACAD
1000
MTEXTBEGIN
1070
    73
1070
     1
1070
    44
1040
1.0
1070
    74
1070
     0
1000
MTEXTEND
  0
POINT
  5
50C1
330
4F56
100
AcDbEntity
  8
Defpoints
 62
     0
100
AcDbPoint
 10
1187.563729338184
 20
190.4438527643176
 30
0.0
  0
POINT
  5
50C2
330
4F56
100
AcDbEntity
  8
Defpoints
 62
     0
100
AcDbPoint
 10
1187.563729338184
 20
170.4438527643176
 30
0.0
  0
POINT
  5
50C3
330
4F56
100
AcDbEntity
  8
Defpoints
 62
     0
100
AcDbPoint
 10
1206.063729338184
 20
170.4438527643176
 30
0.0
  0
ENDBLK
  5
4F61
330
4F56
100
AcDbEntity
  8
0
100
AcDbBlockEnd
  0
BLOCK
  5
4F6C
330
4F62
100
AcDbEntity
  8
0
100
AcDbBlockBegin
  2
*D17
 70
     1
 10
0.0
 20
0.0
 30
0.0
  3
*D17
  1

  0
LINE
  5
50D2
330
4F62
100
AcDbEntity
  8
AM_5
100
AcDbLine
 10
1177.563729338184
 20
164.9438527643176
 30
0.0
 11
1177.563729338184
 21
150.4438527643176
 31
0.0
  0
LINE
  5
50D3
330
4F62
100
AcDbEntity
  8
AM_5
100
AcDbLine
 10
1190.563729338184
 20
164.9438527643176
 30
0.0
 11
1190.563729338184
 21
150.4438527643176
 31
0.0
  0
LINE
  5
50D4
330
4F62
100
AcDbEntity
  8
AM_5
100
AcDbLine
 10
1180.563729338184
 20
151.9438527643176
 30
0.0
 11
1187.563729338184
 21
151.9438527643176
 31
0.0
  0
SOLID
  5
50D5
330
4F62
100
AcDbEntity
  8
AM_5
100
AcDbTrace
 10
1180.563729338184
 20
152.4438527643176
 30
0.0
 11
1180.563729338184
 21
151.4438527643176
 31
0.0
 12
1177.563729338184
 22
151.9438527643176
 32
0.0
 13
1177.563729338184
 23
151.9438527643176
 33
0.0
  0
SOLID
  5
50D6
330
4F62
100
AcDbEntity
  8
AM_5
100
AcDbTrace
 10
1187.563729338184
 20
152.4438527643176
 30
0.0
 11
1187.563729338184
 21
151.4438527643176
 31
0.0
 12
1190.563729338184
 22
151.9438527643176
 32
0.0
 13
1190.563729338184
 23
151.9438527643176
 33
0.0
  0
MTEXT
  5
50D7
330
4F62
100
AcDbEntity
  8
AM_5
100
AcDbMText
 10
1184.063729338184
 20
154.3938527643176
 30
0.0
 40
3.5
 41
0.0
 71
     5
 72
     1
  1
13
 73
     1
 44
1.0
1001
ACAD
1000
MTEXTBEGIN
1070
    73
1070
     1
1070
    44
1040
1.0
1070
    74
1070
     0
1000
MTEXTEND
  0
POINT
  5
50D8
330
4F62
100
AcDbEntity
  8
Defpoints
 62
     0
100
AcDbPoint
 10
1177.563729338184
 20
165.9438527643176
 30
0.0
  0
POINT
  5
50D9
330
4F62
100
AcDbEntity
  8
Defpoints
 62
     0
100
AcDbPoint
 10
1190.563729338184
 20
165.9438527643176
 30
0.0
  0
POINT
  5
50DA
330
4F62
100
AcDbEntity
  8
Defpoints
 62
     0
100
AcDbPoint
 10
1190.563729338184
 20
151.9438527643176
 30
0.0
  0
ENDBLK
  5
4F6D
330
4F62
100
AcDbEntity
  8
0
100
AcDbBlockEnd
  0
BLOCK
  5
4F81
330
4F77
100
AcDbEntity
  8
0
100
AcDbBlockBegin
  2
*D18
 70
     1
 10
0.0
 20
0.0
 30
0.0
  3
*D18
  1

  0
LINE
  5
4F78
330
4F77
100
AcDbEntity
  8
AM_5
100
AcDbLine
 10
949.976399957254
 20
162.9438527643177
 30
0.0
 11
949.976399957254
 21
142.4438527643176
 31
0.0
  0
LINE
  5
4F79
330
4F77
100
AcDbEntity
  8
AM_5
100
AcDbLine
 10
969.9763999572539
 20
162.9438527643175
 30
0.0
 11
969.9763999572539
 21
142.4438527643176
 31
0.0
  0
LINE
  5
4F7A
330
4F77
100
AcDbEntity
  8
AM_5
100
AcDbLine
 10
952.9763999572539
 20
143.9438527643176
 30
0.0
 11
966.9763999572539
 21
143.9438527643176
 31
0.0
  0
SOLID
  5
4F7B
330
4F77
100
AcDbEntity
  8
AM_5
100
AcDbTrace
 10
952.9763999572539
 20
144.4438527643176
 30
0.0
 11
952.9763999572539
 21
143.4438527643176
 31
0.0
 12
949.976399957254
 22
143.9438527643176
 32
0.0
 13
949.976399957254
 23
143.9438527643176
 33
0.0
  0
SOLID
  5
4F7C
330
4F77
100
AcDbEntity
  8
AM_5
100
AcDbTrace
 10
966.9763999572539
 20
144.4438527643176
 30
0.0
 11
966.9763999572539
 21
143.4438527643176
 31
0.0
 12
969.9763999572539
 22
143.9438527643176
 32
0.0
 13
969.9763999572539
 23
143.9438527643176
 33
0.0
  0
MTEXT
  5
4F7D
330
4F77
100
AcDbEntity
  8
AM_5
100
AcDbMText
 10
959.9763999572539
 20
146.3941972525066
 30
0.0
 40
3.5
 41
0.0
 71
     5
 72
     1
  1
20
 73
     1
 44
1.0
1001
ACAD
1000
MTEXTBEGIN
1070
    73
1070
     1
1070
    44
1040
1.0
1070
    74
1070
     0
1000
MTEXTEND
  0
POINT
  5
4F7E
330
4F77
100
AcDbEntity
  8
Defpoints
 62
     0
100
AcDbPoint
 10
949.976399957254
 20
163.9438527643178
 30
0.0
  0
POINT
  5
4F7F
330
4F77
100
AcDbEntity
  8
Defpoints
 62
     0
100
AcDbPoint
 10
969.9763999572539
 20
163.9438527643175
 30
0.0
  0
POINT
  5
4F80
330
4F77
100
AcDbEntity
  8
Defpoints
 62
     0
100
AcDbPoint
 10
969.9763999572539
 20
143.9438527643176
 30
0.0
  0
ENDBLK
  5
4F82
330
4F77
100
AcDbEntity
  8
0
100
AcDbBlockEnd
  0
BLOCK
  5
4F8D
330
4F83
100
AcDbEntity
  8
0
100
AcDbBlockBegin
  2
*D19
 70
     1
 10
0.0
 20
0.0
 30
0.0
  3
*D19
  1

  0
LINE
  5
4F84
330
4F83
100
AcDbEntity
  8
AM_5
100
AcDbLine
 10
970.4763999572541
 20
210.9438527643177
 30
0.0
 11
983.476399957254
 21
210.9438527643177
 31
0.0
  0
LINE
  5
4F85
330
4F83
100
AcDbEntity
  8
AM_5
100
AcDbLine
 10
969.4763999572543
 20
189.4438527643176
 30
0.0
 11
983.476399957254
 21
189.4438527643176
 31
0.0
  0
LINE
  5
4F86
330
4F83
100
AcDbEntity
  8
AM_5
100
AcDbLine
 10
981.976399957254
 20
207.9438527643176
 30
0.0
 11
981.976399957254
 21
192.4438527643176
 31
0.0
  0
SOLID
  5
4F87
330
4F83
100
AcDbEntity
  8
AM_5
100
AcDbTrace
 10
981.4763999572539
 20
207.9438527643176
 30
0.0
 11
982.4763999572539
 21
207.9438527643176
 31
0.0
 12
981.976399957254
 22
210.9438527643177
 32
0.0
 13
981.976399957254
 23
210.9438527643177
 33
0.0
  0
SOLID
  5
4F88
330
4F83
100
AcDbEntity
  8
AM_5
100
AcDbTrace
 10
981.4763999572539
 20
192.4438527643176
 30
0.0
 11
982.4763999572539
 21
192.4438527643176
 31
0.0
 12
981.976399957254
 22
189.4438527643176
 32
0.0
 13
981.976399957254
 23
189.4438527643176
 33
0.0
  0
MTEXT
  5
4F89
330
4F83
100
AcDbEntity
  8
AM_5
100
AcDbMText
 10
979.5260554690649
 20
200.1938527643178
 30
0.0
 40
3.5
 41
0.0
 71
     5
 72
     1
  1
21.5
 11
0.0000000000000001
 21
1.0
 31
0.0
 73
     1
 44
1.0
1001
ACAD
1000
MTEXTBEGIN
1070
    73
1070
     1
1070
    44
1040
1.0
1070
    74
1070
     0
1000
MTEXTEND
  0
POINT
  5
4F8A
330
4F83
100
AcDbEntity
  8
Defpoints
 62
     0
100
AcDbPoint
 10
969.4763999572542
 20
210.9438527643177
 30
0.0
  0
POINT
  5
4F8B
330
4F83
100
AcDbEntity
  8
Defpoints
 62
     0
100
AcDbPoint
 10
968.4763999572544
 20
189.4438527643176
 30
0.0
  0
POINT
  5
4F8C
330
4F83
100
AcDbEntity
  8
Defpoints
 62
     0
100
AcDbPoint
 10
981.976399957254
 20
189.4438527643176
 30
0.0
  0
ENDBLK
  5
4F8E
330
4F83
100
AcDbEntity
  8
0
100
AcDbBlockEnd
  0
BLOCK
  5
4FA2
330
4F98
100
AcDbEntity
  8
0
100
AcDbBlockBegin
  2
*D20
 70
     1
 10
0.0
 20
0.0
 30
0.0
  3
*D20
  1

  0
LINE
  5
4F99
330
4F98
100
AcDbEntity
  8
AM_5
100
AcDbLine
 10
970.4763999572545
 20
164.9438527643176
 30
0.0
 11
991.476399957254
 21
164.9438527643176
 31
0.0
  0
LINE
  5
4F9A
330
4F98
100
AcDbEntity
  8
AM_5
100
AcDbLine
 10
970.4763999572545
 20
210.9438527643177
 30
0.0
 11
991.476399957254
 21
210.9438527643177
 31
0.0
  0
LINE
  5
4F9B
330
4F98
100
AcDbEntity
  8
AM_5
100
AcDbLine
 10
989.976399957254
 20
167.9438527643176
 30
0.0
 11
989.976399957254
 21
207.9438527643176
 31
0.0
  0
SOLID
  5
4F9C
330
4F98
100
AcDbEntity
  8
AM_5
100
AcDbTrace
 10
989.4763999572539
 20
167.9438527643176
 30
0.0
 11
990.4763999572539
 21
167.9438527643176
 31
0.0
 12
989.976399957254
 22
164.9438527643176
 32
0.0
 13
989.976399957254
 23
164.9438527643176
 33
0.0
  0
SOLID
  5
4F9D
330
4F98
100
AcDbEntity
  8
AM_5
100
AcDbTrace
 10
989.4763999572539
 20
207.9438527643176
 30
0.0
 11
990.4763999572539
 21
207.9438527643176
 31
0.0
 12
989.976399957254
 22
210.9438527643177
 32
0.0
 13
989.976399957254
 23
210.9438527643177
 33
0.0
  0
MTEXT
  5
4F9E
330
4F98
100
AcDbEntity
  8
AM_5
100
AcDbMText
 10
987.5263999572538
 20
187.9438527643178
 30
0.0
 40
3.5
 41
0.0
 71
     5
 72
     1
  1
46
 11
0.0000000000000001
 21
1.0
 31
0.0
 73
     1
 44
1.0
1001
ACAD
1000
MTEXTBEGIN
1070
    73
1070
     1
1070
    44
1040
1.0
1070
    74
1070
     0
1000
MTEXTEND
  0
POINT
  5
4F9F
330
4F98
100
AcDbEntity
  8
Defpoints
 62
     0
100
AcDbPoint
 10
969.4763999572543
 20
164.9438527643176
 30
0.0
  0
POINT
  5
4FA0
330
4F98
100
AcDbEntity
  8
Defpoints
 62
     0
100
AcDbPoint
 10
969.4763999572543
 20
210.9438527643177
 30
0.0
  0
POINT
  5
4FA1
330
4F98
100
AcDbEntity
  8
Defpoints
 62
     0
100
AcDbPoint
 10
989.976399957254
 20
210.9438527643177
 30
0.0
  0
ENDBLK
  5
4FA3
330
4F98
100
AcDbEntity
  8
0
100
AcDbBlockEnd
  0
BLOCK
  5
4FAE
330
4FA4
100
AcDbEntity
  8
0
100
AcDbBlockBegin
  2
*D21
 70
     1
 10
0.0
 20
0.0
 30
0.0
  3
*D21
  1

  0
LINE
  5
4FA5
330
4FA4
100
AcDbEntity
  8
AM_5
100
AcDbLine
 10
970.976399957254
 20
163.9438527643175
 30
0.0
 11
999.4763999572539
 21
163.9438527643175
 31
0.0
  0
LINE
  5
4FA6
330
4FA4
100
AcDbEntity
  8
AM_5
100
AcDbLine
 10
970.4763999572541
 20
210.9438527643177
 30
0.0
 11
999.4763999572539
 21
210.9438527643177
 31
0.0
  0
LINE
  5
4FA7
330
4FA4
100
AcDbEntity
  8
AM_5
100
AcDbLine
 10
997.976399957254
 20
166.9438527643175
 30
0.0
 11
997.976399957254
 21
207.9438527643176
 31
0.0
  0
SOLID
  5
4FA8
330
4FA4
100
AcDbEntity
  8
AM_5
100
AcDbTrace
 10
997.4763999572539
 20
166.9438527643175
 30
0.0
 11
998.4763999572539
 21
166.9438527643175
 31
0.0
 12
997.976399957254
 22
163.9438527643175
 32
0.0
 13
997.976399957254
 23
163.9438527643175
 33
0.0
  0
SOLID
  5
4FA9
330
4FA4
100
AcDbEntity
  8
AM_5
100
AcDbTrace
 10
997.4763999572539
 20
207.9438527643176
 30
0.0
 11
998.4763999572539
 21
207.9438527643176
 31
0.0
 12
997.976399957254
 22
210.9438527643177
 32
0.0
 13
997.976399957254
 23
210.9438527643177
 33
0.0
  0
MTEXT
  5
4FAA
330
4FA4
100
AcDbEntity
  8
AM_5
100
AcDbMText
 10
995.5263999572538
 20
187.4438527643177
 30
0.0
 40
3.5
 41
0.0
 71
     5
 72
     1
  1
47
 11
0.0000000000000001
 21
1.0
 31
0.0
 73
     1
 44
1.0
1001
ACAD
1000
MTEXTBEGIN
1070
    73
1070
     1
1070
    44
1040
1.0
1070
    74
1070
     0
1000
MTEXTEND
  0
POINT
  5
4FAB
330
4FA4
100
AcDbEntity
  8
Defpoints
 62
     0
100
AcDbPoint
 10
969.9763999572539
 20
163.9438527643175
 30
0.0
  0
POINT
  5
4FAC
330
4FA4
100
AcDbEntity
  8
Defpoints
 62
     0
100
AcDbPoint
 10
969.4763999572542
 20
210.9438527643177
 30
0.0
  0
POINT
  5
4FAD
330
4FA4
100
AcDbEntity
  8
Defpoints
 62
     0
100
AcDbPoint
 10
997.976399957254
 20
210.9438527643177
 30
0.0
  0
ENDBLK
  5
4FAF
330
4FA4
100
AcDbEntity
  8
0
100
AcDbBlockEnd
  0
BLOCK
  5
4FC3
330
4FB9
100
AcDbEntity
  8
0
100
AcDbBlockBegin
  2
*D22
 70
     1
 10
0.0
 20
0.0
 30
0.0
  3
*D22
  1

  0
LINE
  5
51B5
330
4FB9
100
AcDbEntity
  8
AM_5
100
AcDbLine
 10
1026.135130867759
 20
278.6311030084453
 30
0.0
 11
1005.635130867759
 21
278.6311030084453
 31
0.0
  0
LINE
  5
51B6
330
4FB9
100
AcDbEntity
  8
AM_5
100
AcDbLine
 10
1026.135130867759
 20
259.631103008445
 30
0.0
 11
1005.635130867759
 21
259.631103008445
 31
0.0
  0
LINE
  5
51B7
330
4FB9
100
AcDbEntity
  8
AM_5
100
AcDbLine
 10
1007.135130867759
 20
275.6311030084453
 30
0.0
 11
1007.135130867759
 21
262.6311030084451
 31
0.0
  0
SOLID
  5
51B8
330
4FB9
100
AcDbEntity
  8
AM_5
100
AcDbTrace
 10
1006.635130867759
 20
275.6311030084453
 30
0.0
 11
1007.635130867758
 21
275.6311030084453
 31
0.0
 12
1007.135130867759
 22
278.6311030084453
 32
0.0
 13
1007.135130867759
 23
278.6311030084453
 33
0.0
  0
SOLID
  5
51B9
330
4FB9
100
AcDbEntity
  8
AM_5
100
AcDbTrace
 10
1006.635130867759
 20
262.6311030084451
 30
0.0
 11
1007.635130867758
 21
262.6311030084451
 31
0.0
 12
1007.135130867759
 22
259.631103008445
 32
0.0
 13
1007.135130867759
 23
259.631103008445
 33
0.0
  0
MTEXT
  5
51BA
330
4FB9
100
AcDbEntity
  8
AM_5
100
AcDbMText
 10
1004.685130867758
 20
269.1311030084453
 30
0.0
 40
3.5
 41
0.0
 71
     5
 72
     1
  1
19
 11
0.0000000000000001
 21
1.0
 31
0.0
 73
     1
 44
1.0
1001
ACAD
1000
MTEXTBEGIN
1070
    73
1070
     1
1070
    44
1040
1.0
1070
    74
1070
     0
1000
MTEXTEND
  0
POINT
  5
51BB
330
4FB9
100
AcDbEntity
  8
Defpoints
 62
     0
100
AcDbPoint
 10
1027.135130867758
 20
278.6311030084453
 30
0.0
  0
POINT
  5
51BC
330
4FB9
100
AcDbEntity
  8
Defpoints
 62
     0
100
AcDbPoint
 10
1027.135130867758
 20
259.631103008445
 30
0.0
  0
POINT
  5
51BD
330
4FB9
100
AcDbEntity
  8
Defpoints
 62
     0
100
AcDbPoint
 10
1007.135130867759
 20
259.631103008445
 30
0.0
  0
ENDBLK
  5
4FC4
330
4FB9
100
AcDbEntity
  8
0
100
AcDbBlockEnd
  0
BLOCK
  5
4FCF
330
4FC5
100
AcDbEntity
  8
0
100
AcDbBlockBegin
  2
*D23
 70
     1
 10
0.0
 20
0.0
 30
0.0
  3
*D23
  1

  0
LINE
  5
51BE
330
4FC5
100
AcDbEntity
  8
AM_5
100
AcDbLine
 10
1027.135130867758
 20
279.6311030084451
 30
0.0
 11
1027.135130867758
 21
292.6311030084455
 31
0.0
  0
LINE
  5
51BF
330
4FC5
100
AcDbEntity
  8
AM_5
100
AcDbLine
 10
1106.135130867759
 20
279.6311030084451
 30
0.0
 11
1106.135130867759
 21
292.6311030084455
 31
0.0
  0
LINE
  5
51C0
330
4FC5
100
AcDbEntity
  8
AM_5
100
AcDbLine
 10
1030.135130867759
 20
291.1311030084455
 30
0.0
 11
1103.135130867759
 21
291.1311030084455
 31
0.0
  0
SOLID
  5
51C1
330
4FC5
100
AcDbEntity
  8
AM_5
100
AcDbTrace
 10
1030.135130867759
 20
291.6311030084455
 30
0.0
 11
1030.135130867759
 21
290.6311030084455
 31
0.0
 12
1027.135130867758
 22
291.1311030084455
 32
0.0
 13
1027.135130867758
 23
291.1311030084455
 33
0.0
  0
SOLID
  5
51C2
330
4FC5
100
AcDbEntity
  8
AM_5
100
AcDbTrace
 10
1103.135130867759
 20
291.6311030084455
 30
0.0
 11
1103.135130867759
 21
290.6311030084455
 31
0.0
 12
1106.135130867759
 22
291.1311030084455
 32
0.0
 13
1106.135130867759
 23
291.1311030084455
 33
0.0
  0
MTEXT
  5
51C3
330
4FC5
100
AcDbEntity
  8
AM_5
100
AcDbMText
 10
1066.635130867759
 20
293.5811030084455
 30
0.0
 40
3.5
 41
0.0
 71
     5
 72
     1
  1
L1
 73
     1
 44
1.0
1001
ACAD
1000
MTEXTBEGIN
1070
    73
1070
     1
1070
    44
1040
1.0
1070
    74
1070
     0
1000
MTEXTEND
  0
POINT
  5
51C4
330
4FC5
100
AcDbEntity
  8
Defpoints
 62
     0
100
AcDbPoint
 10
1027.135130867758
 20
278.631103008445
 30
0.0
  0
POINT
  5
51C5
330
4FC5
100
AcDbEntity
  8
Defpoints
 62
     0
100
AcDbPoint
 10
1106.135130867759
 20
278.631103008445
 30
0.0
  0
POINT
  5
51C6
330
4FC5
100
AcDbEntity
  8
Defpoints
 62
     0
100
AcDbPoint
 10
1106.135130867759
 20
291.1311030084455
 30
0.0
  0
ENDBLK
  5
4FD0
330
4FC5
100
AcDbEntity
  8
0
100
AcDbBlockEnd
  0
BLOCK
  5
4FDB
330
4FD1
100
AcDbEntity
  8
0
100
AcDbBlockBegin
  2
*D24
 70
     1
 10
0.0
 20
0.0
 30
0.0
  3
*D24
  1

  0
LINE
  5
51C7
330
4FD1
100
AcDbEntity
  8
AM_5
100
AcDbLine
 10
1027.135130867758
 20
258.6311030084451
 30
0.0
 11
1027.135130867758
 21
245.6311030084455
 31
0.0
  0
LINE
  5
51C8
330
4FD1
100
AcDbEntity
  8
AM_5
100
AcDbLine
 10
1038.135130867759
 20
259.6311030084455
 30
0.0
 11
1038.135130867759
 21
245.6311030084455
 31
0.0
  0
LINE
  5
51C9
330
4FD1
100
AcDbEntity
  8
AM_5
100
AcDbLine
 10
1030.135130867759
 20
247.1311030084455
 30
0.0
 11
1035.135130867758
 21
247.1311030084455
 31
0.0
  0
SOLID
  5
51CA
330
4FD1
100
AcDbEntity
  8
AM_5
100
AcDbTrace
 10
1030.135130867759
 20
247.6311030084455
 30
0.0
 11
1030.135130867759
 21
246.6311030084455
 31
0.0
 12
1027.135130867758
 22
247.1311030084455
 32
0.0
 13
1027.135130867758
 23
247.1311030084455
 33
0.0
  0
SOLID
  5
51CB
330
4FD1
100
AcDbEntity
  8
AM_5
100
AcDbTrace
 10
1035.135130867758
 20
247.6311030084455
 30
0.0
 11
1035.135130867758
 21
246.6311030084455
 31
0.0
 12
1038.135130867759
 22
247.1311030084455
 32
0.0
 13
1038.135130867759
 23
247.1311030084455
 33
0.0
  0
MTEXT
  5
51CC
330
4FD1
100
AcDbEntity
  8
AM_5
100
AcDbMText
 10
1032.635130867759
 20
249.5811030084455
 30
0.0
 40
3.5
 41
0.0
 71
     5
 72
     1
  1
11
 73
     1
 44
1.0
1001
ACAD
1000
MTEXTBEGIN
1070
    73
1070
     1
1070
    44
1040
1.0
1070
    74
1070
     0
1000
MTEXTEND
  0
POINT
  5
51CD
330
4FD1
100
AcDbEntity
  8
Defpoints
 62
     0
100
AcDbPoint
 10
1027.135130867758
 20
259.631103008445
 30
0.0
  0
POINT
  5
51CE
330
4FD1
100
AcDbEntity
  8
Defpoints
 62
     0
100
AcDbPoint
 10
1038.135130867759
 20
260.6311030084455
 30
0.0
  0
POINT
  5
51CF
330
4FD1
100
AcDbEntity
  8
Defpoints
 62
     0
100
AcDbPoint
 10
1038.135130867759
 20
247.1311030084455
 30
0.0
  0
ENDBLK
  5
4FDC
330
4FD1
100
AcDbEntity
  8
0
100
AcDbBlockEnd
  0
BLOCK
  5
4FF9
330
4FEF
100
AcDbEntity
  8
0
100
AcDbBlockBegin
  2
*D25
 70
     1
 10
0.0
 20
0.0
 30
0.0
  3
*D25
  1

  0
LINE
  5
4FF0
330
4FEF
100
AcDbEntity
  8
AM_5
100
AcDbLine
 10
1026.135130867759
 20
210.9438527643177
 30
0.0
 11
1013.635130867759
 21
210.9438527643177
 31
0.0
  0
LINE
  5
4FF1
330
4FEF
100
AcDbEntity
  8
AM_5
100
AcDbLine
 10
1037.135130867758
 20
202.9438527643177
 30
0.0
 11
1013.635130867759
 21
202.9438527643177
 31
0.0
  0
LINE
  5
4FF2
330
4FEF
100
AcDbEntity
  8
AM_5
100
AcDbLine
 10
1015.135130867759
 20
207.9438527643176
 30
0.0
 11
1015.135130867759
 21
205.9438527643176
 31
0.0
  0
SOLID
  5
4FF3
330
4FEF
100
AcDbEntity
  8
AM_5
100
AcDbTrace
 10
1014.635130867759
 20
207.9438527643176
 30
0.0
 11
1015.635130867758
 21
207.9438527643176
 31
0.0
 12
1015.135130867759
 22
210.9438527643177
 32
0.0
 13
1015.135130867759
 23
210.9438527643177
 33
0.0
  0
SOLID
  5
4FF4
330
4FEF
100
AcDbEntity
  8
AM_5
100
AcDbTrace
 10
1014.635130867759
 20
205.9438527643176
 30
0.0
 11
1015.635130867758
 21
205.9438527643176
 31
0.0
 12
1015.135130867759
 22
202.9438527643177
 32
0.0
 13
1015.135130867759
 23
202.9438527643177
 33
0.0
  0
MTEXT
  5
4FF5
330
4FEF
100
AcDbEntity
  8
AM_5
100
AcDbMText
 10
1012.685130867758
 20
206.9438527643178
 30
0.0
 40
3.5
 41
0.0
 71
     5
 72
     1
  1
8
 11
0.0000000000000001
 21
1.0
 31
0.0
 73
     1
 44
1.0
1001
ACAD
1000
MTEXTBEGIN
1070
    73
1070
     1
1070
    44
1040
1.0
1070
    74
1070
     0
1000
MTEXTEND
  0
POINT
  5
4FF6
330
4FEF
100
AcDbEntity
  8
Defpoints
 62
     0
100
AcDbPoint
 10
1027.135130867758
 20
210.9438527643177
 30
0.0
  0
POINT
  5
4FF7
330
4FEF
100
AcDbEntity
  8
Defpoints
 62
     0
100
AcDbPoint
 10
1038.135130867759
 20
202.9438527643177
 30
0.0
  0
POINT
  5
4FF8
330
4FEF
100
AcDbEntity
  8
Defpoints
 62
     0
100
AcDbPoint
 10
1015.135130867759
 20
202.9438527643177
 30
0.0
  0
ENDBLK
  5
4FFA
330
4FEF
100
AcDbEntity
  8
0
100
AcDbBlockEnd
  0
BLOCK
  5
5010
330
5004
100
AcDbEntity
  8
0
100
AcDbBlockBegin
  2
*D26
 70
     1
 10
0.0
 20
0.0
 30
0.0
  3
*D26
  1

  0
LINE
  5
5005
330
5004
100
AcDbEntity
  8
AM_5
100
AcDbLine
 10
1037.635130867759
 20
168.9438527643176
 30
0.0
 11
1013.635130867759
 21
168.9438527643176
 31
0.0
  0
LINE
  5
5006
330
5004
100
AcDbEntity
  8
AM_5
100
AcDbLine
 10
1037.635130867759
 20
163.9438527643175
 30
0.0
 11
1013.635130867759
 21
163.9438527643175
 31
0.0
  0
LINE
  5
5007
330
5004
100
AcDbEntity
  8
AM_5
100
AcDbLine
 10
1015.135130867759
 20
171.9438527643176
 30
0.0
 11
1015.135130867759
 21
174.9438527643176
 31
0.0
  0
LINE
  5
5008
330
5004
100
AcDbEntity
  8
AM_5
100
AcDbLine
 10
1015.135130867759
 20
160.9438527643175
 30
0.0
 11
1015.135130867759
 21
157.9438527643175
 31
0.0
  0
LINE
  5
5009
330
5004
100
AcDbEntity
  8
AM_5
100
AcDbLine
 10
1015.135130867759
 20
168.9438527643176
 30
0.0
 11
1015.135130867759
 21
163.9438527643175
 31
0.0
  0
SOLID
  5
500A
330
5004
100
AcDbEntity
  8
AM_5
100
AcDbTrace
 10
1014.635130867759
 20
171.9438527643176
 30
0.0
 11
1015.635130867758
 21
171.9438527643176
 31
0.0
 12
1015.135130867759
 22
168.9438527643176
 32
0.0
 13
1015.135130867759
 23
168.9438527643176
 33
0.0
  0
SOLID
  5
500B
330
5004
100
AcDbEntity
  8
AM_5
100
AcDbTrace
 10
1014.635130867759
 20
160.9438527643175
 30
0.0
 11
1015.635130867758
 21
160.9438527643175
 31
0.0
 12
1015.135130867759
 22
163.9438527643175
 32
0.0
 13
1015.135130867759
 23
163.9438527643175
 33
0.0
  0
MTEXT
  5
500C
330
5004
100
AcDbEntity
  8
AM_5
100
AcDbMText
 10
1012.685130867758
 20
166.4438527643177
 30
0.0
 40
3.5
 41
0.0
 71
     5
 72
     1
  1
5
 11
0.0000000000000001
 21
1.0
 31
0.0
 73
     1
 44
1.0
1001
ACAD
1000
MTEXTBEGIN
1070
    73
1070
     1
1070
    44
1040
1.0
1070
    74
1070
     0
1000
MTEXTEND
  0
POINT
  5
500D
330
5004
100
AcDbEntity
  8
Defpoints
 62
     0
100
AcDbPoint
 10
1038.635130867759
 20
168.9438527643176
 30
0.0
  0
POINT
  5
500E
330
5004
100
AcDbEntity
  8
Defpoints
 62
     0
100
AcDbPoint
 10
1038.635130867759
 20
163.9438527643175
 30
0.0
  0
POINT
  5
500F
330
5004
100
AcDbEntity
  8
Defpoints
 62
     0
100
AcDbPoint
 10
1015.135130867759
 20
163.9438527643175
 30
0.0
  0
ENDBLK
  5
5011
330
5004
100
AcDbEntity
  8
0
100
AcDbBlockEnd
  0
BLOCK
  5
50DB
330
5012
100
AcDbEntity
  8
0
100
AcDbBlockBegin
  2
*D27
 70
     1
 10
0.0
 20
0.0
 30
0.0
  3
*D27
  1

  0
LINE
  5
517D
330
5012
100
AcDbEntity
  8
AM_5
100
AcDbLine
 10
1027.135130867758
 20
163.9438527643176
 30
0.0
 11
1027.135130867758
 21
147.5540455273331
 31
0.0
  0
LINE
  5
517E
330
5012
100
AcDbEntity
  8
AM_5
100
AcDbLine
 10
1034.635130867759
 20
163.9438527643176
 30
0.0
 11
1034.635130867759
 21
147.5540455273331
 31
0.0
  0
LINE
  5
517F
330
5012
100
AcDbEntity
  8
AM_5
100
AcDbLine
 10
1030.135130867759
 20
149.0540455273331
 30
0.0
 11
1031.635130867758
 21
149.0540455273331
 31
0.0
  0
SOLID
  5
5180
330
5012
100
AcDbEntity
  8
AM_5
100
AcDbTrace
 10
1030.135130867759
 20
149.5540455273331
 30
0.0
 11
1030.135130867759
 21
148.5540455273331
 31
0.0
 12
1027.135130867758
 22
149.0540455273331
 32
0.0
 13
1027.135130867758
 23
149.0540455273331
 33
0.0
  0
INSERT
  5
5181
330
5012
100
AcDbEntity
  8
AM_5
100
AcDbBlockReference
  2
GENDOT
 10
1034.635130867759
 20
149.0540455273331
 30
0.0
 41
3.0
 42
3.0
 43
3.0
  0
MTEXT
  5
5182
330
5012
100
AcDbEntity
  8
AM_5
100
AcDbMText
 10
1030.885130867758
 20
151.5040455273331
 30
0.0
 40
3.5
 41
0.0
 71
     5
 72
     1
  1
7.5
 73
     1
 44
1.0
1001
ACAD
1000
MTEXTBEGIN
1070
    73
1070
     1
1070
    44
1040
1.0
1070
    74
1070
     0
1000
MTEXTEND
  0
POINT
  5
5183
330
5012
100
AcDbEntity
  8
Defpoints
 62
     0
100
AcDbPoint
 10
1027.135130867758
 20
164.9438527643176
 30
0.0
  0
POINT
  5
5184
330
5012
100
AcDbEntity
  8
Defpoints
 62
     0
100
AcDbPoint
 10
1034.635130867759
 20
164.9438527643176
 30
0.0
  0
POINT
  5
5185
330
5012
100
AcDbEntity
  8
Defpoints
 62
     0
100
AcDbPoint
 10
1034.635130867759
 20
149.0540455273331
 30
0.0
  0
ENDBLK
  5
50DC
330
5012
100
AcDbEntity
  8
0
100
AcDbBlockEnd
  0
BLOCK
  5
5026
330
501C
100
AcDbEntity
  8
0
100
AcDbBlockBegin
  2
*D28
 70
     1
 10
0.0
 20
0.0
 30
0.0
  3
*D28
  1

  0
LINE
  5
5174
330
501C
100
AcDbEntity
  8
AM_5
100
AcDbLine
 10
1027.135130867758
 20
163.9438527643176
 30
0.0
 11
1027.135130867758
 21
139.5540455273331
 31
0.0
  0
LINE
  5
5175
330
501C
100
AcDbEntity
  8
AM_5
100
AcDbLine
 10
1038.635130867759
 20
162.9438527643175
 30
0.0
 11
1038.635130867759
 21
139.5540455273331
 31
0.0
  0
LINE
  5
5176
330
501C
100
AcDbEntity
  8
AM_5
100
AcDbLine
 10
1030.135130867759
 20
141.0540455273331
 30
0.0
 11
1035.635130867759
 21
141.0540455273331
 31
0.0
  0
SOLID
  5
5177
330
501C
100
AcDbEntity
  8
AM_5
100
AcDbTrace
 10
1030.135130867759
 20
141.5540455273331
 30
0.0
 11
1030.135130867759
 21
140.5540455273331
 31
0.0
 12
1027.135130867758
 22
141.0540455273331
 32
0.0
 13
1027.135130867758
 23
141.0540455273331
 33
0.0
  0
SOLID
  5
5178
330
501C
100
AcDbEntity
  8
AM_5
100
AcDbTrace
 10
1035.635130867759
 20
141.5540455273331
 30
0.0
 11
1035.635130867759
 21
140.5540455273331
 31
0.0
 12
1038.635130867759
 22
141.0540455273331
 32
0.0
 13
1038.635130867759
 23
141.0540455273331
 33
0.0
  0
MTEXT
  5
5179
330
501C
100
AcDbEntity
  8
AM_5
100
AcDbMText
 10
1032.885130867759
 20
143.5040455273331
 30
0.0
 40
3.5
 41
0.0
 71
     5
 72
     1
  1
11.5
 73
     1
 44
1.0
1001
ACAD
1000
MTEXTBEGIN
1070
    73
1070
     1
1070
    44
1040
1.0
1070
    74
1070
     0
1000
MTEXTEND
  0
POINT
  5
517A
330
501C
100
AcDbEntity
  8
Defpoints
 62
     0
100
AcDbPoint
 10
1027.135130867758
 20
164.9438527643176
 30
0.0
  0
POINT
  5
517B
330
501C
100
AcDbEntity
  8
Defpoints
 62
     0
100
AcDbPoint
 10
1038.635130867759
 20
163.9438527643175
 30
0.0
  0
POINT
  5
517C
330
501C
100
AcDbEntity
  8
Defpoints
 62
     0
100
AcDbPoint
 10
1038.635130867759
 20
141.0540455273331
 30
0.0
  0
ENDBLK
  5
5027
330
501C
100
AcDbEntity
  8
0
100
AcDbBlockEnd
  0
BLOCK
  5
5032
330
5028
100
AcDbEntity
  8
0
100
AcDbBlockBegin
  2
*D29
 70
     1
 10
0.0
 20
0.0
 30
0.0
  3
*D29
  1

  0
LINE
  5
516B
330
5028
100
AcDbEntity
  8
AM_5
100
AcDbLine
 10
1038.635130867759
 20
162.9438527643175
 30
0.0
 11
1038.635130867759
 21
139.5540455273331
 31
0.0
  0
LINE
  5
516C
330
5028
100
AcDbEntity
  8
AM_5
100
AcDbLine
 10
1113.635130867759
 20
162.9438527643175
 30
0.0
 11
1113.635130867759
 21
139.5540455273331
 31
0.0
  0
LINE
  5
516D
330
5028
100
AcDbEntity
  8
AM_5
100
AcDbLine
 10
1041.635130867759
 20
141.0540455273331
 30
0.0
 11
1110.635130867759
 21
141.0540455273331
 31
0.0
  0
SOLID
  5
516E
330
5028
100
AcDbEntity
  8
AM_5
100
AcDbTrace
 10
1041.635130867759
 20
141.5540455273331
 30
0.0
 11
1041.635130867759
 21
140.5540455273331
 31
0.0
 12
1038.635130867759
 22
141.0540455273331
 32
0.0
 13
1038.635130867759
 23
141.0540455273331
 33
0.0
  0
SOLID
  5
516F
330
5028
100
AcDbEntity
  8
AM_5
100
AcDbTrace
 10
1110.635130867759
 20
141.5540455273331
 30
0.0
 11
1110.635130867759
 21
140.5540455273331
 31
0.0
 12
1113.635130867759
 22
141.0540455273331
 32
0.0
 13
1113.635130867759
 23
141.0540455273331
 33
0.0
  0
MTEXT
  5
5170
330
5028
100
AcDbEntity
  8
AM_5
100
AcDbMText
 10
1076.135130867759
 20
143.5040455273331
 30
0.0
 40
3.5
 41
0.0
 71
     5
 72
     1
  1
35+stroke
 73
     1
 44
1.0
1001
ACAD
1000
MTEXTBEGIN
1070
    73
1070
     1
1070
    44
1040
1.0
1070
    74
1070
     0
1000
MTEXTEND
  0
POINT
  5
5171
330
5028
100
AcDbEntity
  8
Defpoints
 62
     0
100
AcDbPoint
 10
1038.635130867759
 20
163.9438527643175
 30
0.0
  0
POINT
  5
5172
330
5028
100
AcDbEntity
  8
Defpoints
 62
     0
100
AcDbPoint
 10
1113.635130867759
 20
163.9438527643175
 30
0.0
  0
POINT
  5
5173
330
5028
100
AcDbEntity
  8
Defpoints
 62
     0
100
AcDbPoint
 10
1113.635130867759
 20
141.0540455273331
 30
0.0
  0
ENDBLK
  5
5033
330
5028
100
AcDbEntity
  8
0
100
AcDbBlockEnd
  0
BLOCK
  5
50DD
330
5034
100
AcDbEntity
  8
0
100
AcDbBlockBegin
  2
*D30
 70
     1
 10
0.0
 20
0.0
 30
0.0
  3
*D30
  1

  0
LINE
  5
5160
330
5034
100
AcDbEntity
  8
AM_5
100
AcDbLine
 10
1038.635130867759
 20
162.9438527643175
 30
0.0
 11
1038.635130867759
 21
147.5540455273331
 31
0.0
  0
LINE
  5
5161
330
5034
100
AcDbEntity
  8
AM_5
100
AcDbLine
 10
1043.635130867759
 20
163.1938527643176
 30
0.0
 11
1043.635130867759
 21
147.5540455273331
 31
0.0
  0
LINE
  5
5162
330
5034
100
AcDbEntity
  8
AM_5
100
AcDbLine
 10
1035.635130867759
 20
149.0540455273331
 30
0.0
 11
1032.635130867759
 21
149.0540455273331
 31
0.0
  0
LINE
  5
5163
330
5034
100
AcDbEntity
  8
AM_5
100
AcDbLine
 10
1046.635130867759
 20
149.0540455273331
 30
0.0
 11
1049.635130867758
 21
149.0540455273331
 31
0.0
  0
LINE
  5
5164
330
5034
100
AcDbEntity
  8
AM_5
100
AcDbLine
 10
1038.635130867759
 20
149.0540455273331
 30
0.0
 11
1043.635130867759
 21
149.0540455273331
 31
0.0
  0
INSERT
  5
5165
330
5034
100
AcDbEntity
  8
AM_5
100
AcDbBlockReference
  2
GENDOT
 10
1038.635130867759
 20
149.0540455273331
 30
0.0
 41
3.0
 42
3.0
 43
3.0
  0
SOLID
  5
5166
330
5034
100
AcDbEntity
  8
AM_5
100
AcDbTrace
 10
1046.635130867759
 20
149.5540455273331
 30
0.0
 11
1046.635130867759
 21
148.5540455273331
 31
0.0
 12
1043.635130867759
 22
149.0540455273331
 32
0.0
 13
1043.635130867759
 23
149.0540455273331
 33
0.0
  0
MTEXT
  5
5167
330
5034
100
AcDbEntity
  8
AM_5
100
AcDbMText
 10
1041.135130867758
 20
151.5040455273331
 30
0.0
 40
3.5
 41
0.0
 71
     5
 72
     1
  1
5
 73
     1
 44
1.0
1001
ACAD
1000
MTEXTBEGIN
1070
    73
1070
     1
1070
    44
1040
1.0
1070
    74
1070
     0
1000
MTEXTEND
  0
POINT
  5
5168
330
5034
100
AcDbEntity
  8
Defpoints
 62
     0
100
AcDbPoint
 10
1038.635130867759
 20
163.9438527643175
 30
0.0
  0
POINT
  5
5169
330
5034
100
AcDbEntity
  8
Defpoints
 62
     0
100
AcDbPoint
 10
1043.635130867759
 20
164.1938527643176
 30
0.0
  0
POINT
  5
516A
330
5034
100
AcDbEntity
  8
Defpoints
 62
     0
100
AcDbPoint
 10
1043.635130867759
 20
149.0540455273331
 30
0.0
  0
ENDBLK
  5
50DE
330
5034
100
AcDbEntity
  8
0
100
AcDbBlockEnd
  0
BLOCK
  5
5053
330
5049
100
AcDbEntity
  8
0
100
AcDbBlockBegin
  2
*D31
 70
     1
 10
0.0
 20
0.0
 30
0.0
  3
*D31
  1

  0
LINE
  5
514E
330
5049
100
AcDbEntity
  8
AM_5
100
AcDbLine
 10
1101.135130867759
 20
165.9438527643176
 30
0.0
 11
1101.135130867759
 21
147.5540455273331
 31
0.0
  0
LINE
  5
514F
330
5049
100
AcDbEntity
  8
AM_5
100
AcDbLine
 10
1113.635130867759
 20
162.9438527643175
 30
0.0
 11
1113.635130867759
 21
147.5540455273331
 31
0.0
  0
LINE
  5
5150
330
5049
100
AcDbEntity
  8
AM_5
100
AcDbLine
 10
1104.135130867759
 20
149.0540455273331
 30
0.0
 11
1110.635130867759
 21
149.0540455273331
 31
0.0
  0
SOLID
  5
5151
330
5049
100
AcDbEntity
  8
AM_5
100
AcDbTrace
 10
1104.135130867759
 20
149.5540455273331
 30
0.0
 11
1104.135130867759
 21
148.5540455273331
 31
0.0
 12
1101.135130867759
 22
149.0540455273331
 32
0.0
 13
1101.135130867759
 23
149.0540455273331
 33
0.0
  0
SOLID
  5
5152
330
5049
100
AcDbEntity
  8
AM_5
100
AcDbTrace
 10
1110.635130867759
 20
149.5540455273331
 30
0.0
 11
1110.635130867759
 21
148.5540455273331
 31
0.0
 12
1113.635130867759
 22
149.0540455273331
 32
0.0
 13
1113.635130867759
 23
149.0540455273331
 33
0.0
  0
MTEXT
  5
5153
330
5049
100
AcDbEntity
  8
AM_5
100
AcDbMText
 10
1107.385130867759
 20
151.5043900155221
 30
0.0
 40
3.5
 41
0.0
 71
     5
 72
     1
  1
12.5
 73
     1
 44
1.0
1001
ACAD
1000
MTEXTBEGIN
1070
    73
1070
     1
1070
    44
1040
1.0
1070
    74
1070
     0
1000
MTEXTEND
  0
POINT
  5
5154
330
5049
100
AcDbEntity
  8
Defpoints
 62
     0
100
AcDbPoint
 10
1101.135130867759
 20
166.9438527643176
 30
0.0
  0
POINT
  5
5155
330
5049
100
AcDbEntity
  8
Defpoints
 62
     0
100
AcDbPoint
 10
1113.635130867759
 20
163.9438527643175
 30
0.0
  0
POINT
  5
5156
330
5049
100
AcDbEntity
  8
Defpoints
 62
     0
100
AcDbPoint
 10
1113.635130867759
 20
149.0540455273331
 30
0.0
  0
ENDBLK
  5
5054
330
5049
100
AcDbEntity
  8
0
100
AcDbBlockEnd
  0
BLOCK
  5
505F
330
5055
100
AcDbEntity
  8
0
100
AcDbBlockBegin
  2
*D32
 70
     1
 10
0.0
 20
0.0
 30
0.0
  3
*D32
  1

  0
LINE
  5
5145
330
5055
100
AcDbEntity
  8
AM_5
100
AcDbLine
 10
1027.135130867758
 20
163.9438527643176
 30
0.0
 11
1027.135130867758
 21
131.5540455273331
 31
0.0
  0
LINE
  5
5146
330
5055
100
AcDbEntity
  8
AM_5
100
AcDbLine
 10
1113.635130867759
 20
162.9438527643175
 30
0.0
 11
1113.635130867759
 21
131.5540455273331
 31
0.0
  0
LINE
  5
5147
330
5055
100
AcDbEntity
  8
AM_5
100
AcDbLine
 10
1030.135130867759
 20
133.0540455273331
 30
0.0
 11
1110.635130867759
 21
133.0540455273331
 31
0.0
  0
SOLID
  5
5148
330
5055
100
AcDbEntity
  8
AM_5
100
AcDbTrace
 10
1030.135130867759
 20
133.5540455273331
 30
0.0
 11
1030.135130867759
 21
132.5540455273331
 31
0.0
 12
1027.135130867758
 22
133.0540455273331
 32
0.0
 13
1027.135130867758
 23
133.0540455273331
 33
0.0
  0
SOLID
  5
5149
330
5055
100
AcDbEntity
  8
AM_5
100
AcDbTrace
 10
1110.635130867759
 20
133.5540455273331
 30
0.0
 11
1110.635130867759
 21
132.5540455273331
 31
0.0
 12
1113.635130867759
 22
133.0540455273331
 32
0.0
 13
1113.635130867759
 23
133.0540455273331
 33
0.0
  0
MTEXT
  5
514A
330
5055
100
AcDbEntity
  8
AM_5
100
AcDbMText
 10
1070.385130867759
 20
135.5040455273331
 30
0.0
 40
3.5
 41
0.0
 71
     5
 72
     1
  1
46.5+stroke
 73
     1
 44
1.0
1001
ACAD
1000
MTEXTBEGIN
1070
    73
1070
     1
1070
    44
1040
1.0
1070
    74
1070
     0
1000
MTEXTEND
  0
POINT
  5
514B
330
5055
100
AcDbEntity
  8
Defpoints
 62
     0
100
AcDbPoint
 10
1027.135130867758
 20
164.9438527643176
 30
0.0
  0
POINT
  5
514C
330
5055
100
AcDbEntity
  8
Defpoints
 62
     0
100
AcDbPoint
 10
1113.635130867759
 20
163.9438527643175
 30
0.0
  0
POINT
  5
514D
330
5055
100
AcDbEntity
  8
Defpoints
 62
     0
100
AcDbPoint
 10
1113.635130867759
 20
133.0540455273331
 30
0.0
  0
ENDBLK
  5
5060
330
5055
100
AcDbEntity
  8
0
100
AcDbBlockEnd
  0
BLOCK
  5
5076
330
506A
100
AcDbEntity
  8
0
100
AcDbBlockBegin
  2
*D33
 70
     1
 10
0.0
 20
0.0
 30
0.0
  3
*D33
  1

  0
LINE
  5
506B
330
506A
100
AcDbEntity
  8
AM_5
100
AcDbLine
 10
1105.635130867758
 20
170.4438527643176
 30
0.0
 11
1127.135130867759
 21
170.4438527643176
 31
0.0
  0
LINE
  5
506C
330
506A
100
AcDbEntity
  8
AM_5
100
AcDbLine
 10
1114.635130867759
 20
163.9438527643176
 30
0.0
 11
1127.135130867759
 21
163.9438527643176
 31
0.0
  0
LINE
  5
506D
330
506A
100
AcDbEntity
  8
AM_5
100
AcDbLine
 10
1125.635130867759
 20
173.4438527643176
 30
0.0
 11
1125.635130867759
 21
176.4438527643176
 31
0.0
  0
LINE
  5
506E
330
506A
100
AcDbEntity
  8
AM_5
100
AcDbLine
 10
1125.635130867759
 20
160.9438527643176
 30
0.0
 11
1125.635130867759
 21
157.9438527643176
 31
0.0
  0
LINE
  5
506F
330
506A
100
AcDbEntity
  8
AM_5
100
AcDbLine
 10
1125.635130867759
 20
170.4438527643176
 30
0.0
 11
1125.635130867759
 21
163.9438527643176
 31
0.0
  0
SOLID
  5
5070
330
506A
100
AcDbEntity
  8
AM_5
100
AcDbTrace
 10
1125.135130867759
 20
173.4438527643176
 30
0.0
 11
1126.135130867758
 21
173.4438527643176
 31
0.0
 12
1125.635130867759
 22
170.4438527643176
 32
0.0
 13
1125.635130867759
 23
170.4438527643176
 33
0.0
  0
SOLID
  5
5071
330
506A
100
AcDbEntity
  8
AM_5
100
AcDbTrace
 10
1125.135130867759
 20
160.9438527643176
 30
0.0
 11
1126.135130867758
 21
160.9438527643176
 31
0.0
 12
1125.635130867759
 22
163.9438527643176
 32
0.0
 13
1125.635130867759
 23
163.9438527643176
 33
0.0
  0
MTEXT
  5
5072
330
506A
100
AcDbEntity
  8
AM_5
100
AcDbMText
 10
1123.185130867758
 20
167.1938527643178
 30
0.0
 40
3.5
 41
0.0
 71
     5
 72
     1
  1
6.5
 11
0.0000000000000001
 21
1.0
 31
0.0
 73
     1
 44
1.0
1001
ACAD
1000
MTEXTBEGIN
1070
    73
1070
     1
1070
    44
1040
1.0
1070
    74
1070
     0
1000
MTEXTEND
  0
POINT
  5
5073
330
506A
100
AcDbEntity
  8
Defpoints
 62
     0
100
AcDbPoint
 10
1104.635130867759
 20
170.4438527643176
 30
0.0
  0
POINT
  5
5074
330
506A
100
AcDbEntity
  8
Defpoints
 62
     0
100
AcDbPoint
 10
1113.635130867759
 20
163.9438527643176
 30
0.0
  0
POINT
  5
5075
330
506A
100
AcDbEntity
  8
Defpoints
 62
     0
100
AcDbPoint
 10
1125.635130867759
 20
163.9438527643176
 30
0.0
  0
ENDBLK
  5
5077
330
506A
100
AcDbEntity
  8
0
100
AcDbBlockEnd
  0
BLOCK
  5
508B
330
5081
100
AcDbEntity
  8
0
100
AcDbBlockBegin
  2
*D34
 70
     1
 10
0.0
 20
0.0
 30
0.0
  3
*D34
  1

  0
LINE
  5
519A
330
5081
100
AcDbEntity
  8
AM_5
100
AcDbLine
 10
1038.635130867759
 20
108.2823312591829
 30
0.0
 11
1038.635130867759
 21
116.186067030026
 31
0.0
  0
LINE
  5
519B
330
5081
100
AcDbEntity
  8
AM_5
100
AcDbLine
 10
1050.635130867759
 20
109.4323312591829
 30
0.0
 11
1050.635130867759
 21
116.186067030026
 31
0.0
  0
LINE
  5
519C
330
5081
100
AcDbEntity
  8
AM_5
100
AcDbLine
 10
1041.635130867759
 20
114.686067030026
 30
0.0
 11
1047.635130867758
 21
114.686067030026
 31
0.0
  0
SOLID
  5
519D
330
5081
100
AcDbEntity
  8
AM_5
100
AcDbTrace
 10
1041.635130867759
 20
115.186067030026
 30
0.0
 11
1041.635130867759
 21
114.186067030026
 31
0.0
 12
1038.635130867759
 22
114.686067030026
 32
0.0
 13
1038.635130867759
 23
114.686067030026
 33
0.0
  0
SOLID
  5
519E
330
5081
100
AcDbEntity
  8
AM_5
100
AcDbTrace
 10
1047.635130867758
 20
115.186067030026
 30
0.0
 11
1047.635130867758
 21
114.186067030026
 31
0.0
 12
1050.635130867759
 22
114.686067030026
 32
0.0
 13
1050.635130867759
 23
114.686067030026
 33
0.0
  0
MTEXT
  5
519F
330
5081
100
AcDbEntity
  8
AM_5
100
AcDbMText
 10
1044.635130867759
 20
117.136411518215
 30
0.0
 40
3.5
 41
0.0
 71
     5
 72
     1
  1
12
 73
     1
 44
1.0
1001
ACAD
1000
MTEXTBEGIN
1070
    73
1070
     1
1070
    44
1040
1.0
1070
    74
1070
     0
1000
MTEXTEND
  0
POINT
  5
51A0
330
5081
100
AcDbEntity
  8
Defpoints
 62
     0
100
AcDbPoint
 10
1038.635130867759
 20
107.2823312591829
 30
0.0
  0
POINT
  5
51A1
330
5081
100
AcDbEntity
  8
Defpoints
 62
     0
100
AcDbPoint
 10
1050.635130867759
 20
108.4323312591829
 30
0.0
  0
POINT
  5
51A2
330
5081
100
AcDbEntity
  8
Defpoints
 62
     0
100
AcDbPoint
 10
1050.635130867759
 20
114.686067030026
 30
0.0
  0
ENDBLK
  5
508C
330
5081
100
AcDbEntity
  8
0
100
AcDbBlockEnd
  0
BLOCK
  5
50A2
330
5096
100
AcDbEntity
  8
0
100
AcDbBlockBegin
  2
*D35
 70
     1
 10
0.0
 20
0.0
 30
0.0
  3
*D35
  1

  0
LINE
  5
5229
330
5096
100
AcDbEntity
  8
AM_5
100
AcDbLine
 10
1180.563729338184
 20
202.3438527643178
 30
0.0
 11
1180.563729338184
 21
221.4768390095028
 31
0.0
  0
LINE
  5
522A
330
5096
100
AcDbEntity
  8
AM_5
100
AcDbLine
 10
1187.563729338184
 20
202.3438527643178
 30
0.0
 11
1187.563729338184
 21
221.4768390095028
 31
0.0
  0
LINE
  5
522B
330
5096
100
AcDbEntity
  8
AM_5
100
AcDbLine
 10
1177.563729338184
 20
219.9768390095028
 30
0.0
 11
1174.563729338184
 21
219.9768390095028
 31
0.0
  0
LINE
  5
522C
330
5096
100
AcDbEntity
  8
AM_5
100
AcDbLine
 10
1190.563729338184
 20
219.9768390095028
 30
0.0
 11
1230.790582241661
 21
219.9768390095028
 31
0.0
  0
LINE
  5
522D
330
5096
100
AcDbEntity
  8
AM_5
100
AcDbLine
 10
1180.563729338184
 20
219.9768390095028
 30
0.0
 11
1187.563729338184
 21
219.9768390095028
 31
0.0
  0
SOLID
  5
522E
330
5096
100
AcDbEntity
  8
AM_5
100
AcDbTrace
 10
1177.563729338184
 20
220.4768390095028
 30
0.0
 11
1177.563729338184
 21
219.4768390095028
 31
0.0
 12
1180.563729338184
 22
219.9768390095028
 32
0.0
 13
1180.563729338184
 23
219.9768390095028
 33
0.0
  0
SOLID
  5
522F
330
5096
100
AcDbEntity
  8
AM_5
100
AcDbTrace
 10
1190.563729338184
 20
220.4768390095028
 30
0.0
 11
1190.563729338184
 21
219.4768390095028
 31
0.0
 12
1187.563729338184
 22
219.9768390095028
 32
0.0
 13
1187.563729338184
 23
219.9768390095028
 33
0.0
  0
MTEXT
  5
5230
330
5096
100
AcDbEntity
  8
AM_5
100
AcDbMText
 10
1212.177155789923
 20
222.9277654612412
 30
0.0
 40
3.5
 41
0.0
 71
     5
 72
     1
  1
guied rail width=7
 73
     1
 44
1.0
1001
ACAD
1000
MTEXTBEGIN
1070
    73
1070
     1
1070
    44
1040
1.0
1070
    74
1070
     0
1000
MTEXTEND
  0
POINT
  5
5231
330
5096
100
AcDbEntity
  8
Defpoints
 62
     0
100
AcDbPoint
 10
1180.563729338184
 20
201.3438527643177
 30
0.0
  0
POINT
  5
5232
330
5096
100
AcDbEntity
  8
Defpoints
 62
     0
100
AcDbPoint
 10
1187.563729338184
 20
201.3438527643177
 30
0.0
  0
POINT
  5
5233
330
5096
100
AcDbEntity
  8
Defpoints
 62
     0
100
AcDbPoint
 10
1187.563729338184
 20
219.9768390095028
 30
0.0
  0
ENDBLK
  5
50A3
330
5096
100
AcDbEntity
  8
0
100
AcDbBlockEnd
  0
BLOCK
  5
50B9
330
50AD
100
AcDbEntity
  8
0
100
AcDbBlockBegin
  2
*D36
 70
     1
 10
0.0
 20
0.0
 30
0.0
  3
*D36
  1

  0
LINE
  5
50AE
330
50AD
100
AcDbEntity
  8
AM_5
100
AcDbLine
 10
1173.563729338184
 20
168.9438527643176
 30
0.0
 11
1160.563729338184
 21
168.9438527643176
 31
0.0
  0
LINE
  5
50AF
330
50AD
100
AcDbEntity
  8
AM_5
100
AcDbLine
 10
1173.063729338184
 20
163.9438527643175
 30
0.0
 11
1160.563729338184
 21
163.9438527643175
 31
0.0
  0
LINE
  5
50B0
330
50AD
100
AcDbEntity
  8
AM_5
100
AcDbLine
 10
1162.063729338184
 20
171.9438527643176
 30
0.0
 11
1162.063729338184
 21
174.9438527643176
 31
0.0
  0
LINE
  5
50B1
330
50AD
100
AcDbEntity
  8
AM_5
100
AcDbLine
 10
1162.063729338184
 20
160.9438527643175
 30
0.0
 11
1162.063729338184
 21
157.9438527643175
 31
0.0
  0
LINE
  5
50B2
330
50AD
100
AcDbEntity
  8
AM_5
100
AcDbLine
 10
1162.063729338184
 20
168.9438527643176
 30
0.0
 11
1162.063729338184
 21
163.9438527643175
 31
0.0
  0
SOLID
  5
50B3
330
50AD
100
AcDbEntity
  8
AM_5
100
AcDbTrace
 10
1161.563729338184
 20
171.9438527643176
 30
0.0
 11
1162.563729338184
 21
171.9438527643176
 31
0.0
 12
1162.063729338184
 22
168.9438527643176
 32
0.0
 13
1162.063729338184
 23
168.9438527643176
 33
0.0
  0
SOLID
  5
50B4
330
50AD
100
AcDbEntity
  8
AM_5
100
AcDbTrace
 10
1161.563729338184
 20
160.9438527643175
 30
0.0
 11
1162.563729338184
 21
160.9438527643175
 31
0.0
 12
1162.063729338184
 22
163.9438527643175
 32
0.0
 13
1162.063729338184
 23
163.9438527643175
 33
0.0
  0
MTEXT
  5
50B5
330
50AD
100
AcDbEntity
  8
AM_5
100
AcDbMText
 10
1159.613729338184
 20
166.4438527643178
 30
0.0
 40
3.5
 41
0.0
 71
     5
 72
     1
  1
5
 11
0.0000000000000001
 21
1.0
 31
0.0
 73
     1
 44
1.0
1001
ACAD
1000
MTEXTBEGIN
1070
    73
1070
     1
1070
    44
1040
1.0
1070
    74
1070
     0
1000
MTEXTEND
  0
POINT
  5
50B6
330
50AD
100
AcDbEntity
  8
Defpoints
 62
     0
100
AcDbPoint
 10
1174.563729338184
 20
168.9438527643176
 30
0.0
  0
POINT
  5
50B7
330
50AD
100
AcDbEntity
  8
Defpoints
 62
     0
100
AcDbPoint
 10
1174.063729338184
 20
163.9438527643175
 30
0.0
  0
POINT
  5
50B8
330
50AD
100
AcDbEntity
  8
Defpoints
 62
     0
100
AcDbPoint
 10
1162.063729338184
 20
163.9438527643175
 30
0.0
  0
ENDBLK
  5
50BA
330
50AD
100
AcDbEntity
  8
0
100
AcDbBlockEnd
  0
BLOCK
  5
50D0
330
50C4
100
AcDbEntity
  8
0
100
AcDbBlockBegin
  2
*D37
 70
     1
 10
0.0
 20
0.0
 30
0.0
  3
*D37
  1

  0
LINE
  5
50C5
330
50C4
100
AcDbEntity
  8
AM_5
100
AcDbLine
 10
1188.563729338184
 20
170.4438527643176
 30
0.0
 11
1207.563729338184
 21
170.4438527643176
 31
0.0
  0
LINE
  5
50C6
330
50C4
100
AcDbEntity
  8
AM_5
100
AcDbLine
 10
1195.063729338184
 20
163.9438527643178
 30
0.0
 11
1207.563729338184
 21
163.9438527643178
 31
0.0
  0
LINE
  5
50C7
330
50C4
100
AcDbEntity
  8
AM_5
100
AcDbLine
 10
1206.063729338184
 20
173.4438527643176
 30
0.0
 11
1206.063729338184
 21
176.4438527643176
 31
0.0
  0
LINE
  5
50C8
330
50C4
100
AcDbEntity
  8
AM_5
100
AcDbLine
 10
1206.063729338184
 20
160.9438527643177
 30
0.0
 11
1206.063729338184
 21
157.9438527643177
 31
0.0
  0
LINE
  5
50C9
330
50C4
100
AcDbEntity
  8
AM_5
100
AcDbLine
 10
1206.063729338184
 20
170.4438527643176
 30
0.0
 11
1206.063729338184
 21
163.9438527643178
 31
0.0
  0
SOLID
  5
50CA
330
50C4
100
AcDbEntity
  8
AM_5
100
AcDbTrace
 10
1205.563729338184
 20
173.4438527643176
 30
0.0
 11
1206.563729338184
 21
173.4438527643176
 31
0.0
 12
1206.063729338184
 22
170.4438527643176
 32
0.0
 13
1206.063729338184
 23
170.4438527643176
 33
0.0
  0
SOLID
  5
50CB
330
50C4
100
AcDbEntity
  8
AM_5
100
AcDbTrace
 10
1205.563729338184
 20
160.9438527643177
 30
0.0
 11
1206.563729338184
 21
160.9438527643177
 31
0.0
 12
1206.063729338184
 22
163.9438527643178
 32
0.0
 13
1206.063729338184
 23
163.9438527643178
 33
0.0
  0
MTEXT
  5
50CC
330
50C4
100
AcDbEntity
  8
AM_5
100
AcDbMText
 10
1203.613729338184
 20
167.1938527643179
 30
0.0
 40
3.5
 41
0.0
 71
     5
 72
     1
  1
6.5
 11
0.0000000000000001
 21
1.0
 31
0.0
 73
     1
 44
1.0
1001
ACAD
1000
MTEXTBEGIN
1070
    73
1070
     1
1070
    44
1040
1.0
1070
    74
1070
     0
1000
MTEXTEND
  0
POINT
  5
50CD
330
50C4
100
AcDbEntity
  8
Defpoints
 62
     0
100
AcDbPoint
 10
1187.563729338184
 20
170.4438527643176
 30
0.0
  0
POINT
  5
50CE
330
50C4
100
AcDbEntity
  8
Defpoints
 62
     0
100
AcDbPoint
 10
1194.063729338184
 20
163.9438527643178
 30
0.0
  0
POINT
  5
50CF
330
50C4
100
AcDbEntity
  8
Defpoints
 62
     0
100
AcDbPoint
 10
1206.063729338184
 20
163.9438527643178
 30
0.0
  0
ENDBLK
  5
50D1
330
50C4
100
AcDbEntity
  8
0
100
AcDbBlockEnd
  0
BLOCK
  5
5265
330
5260
100
AcDbEntity
  8
0
100
AcDbBlockBegin
  2
*S38
 70
     1
 10
0.0
 20
0.0
 30
0.0
  3
*S38
  1

  0
LINE
  5
5261
330
5260
100
AcDbEntity
  8
AM_5
 62
     5
100
AcDbLine
 10
1001.017426954131
 20
218.599987506346
 30
0.0
 11
958.3094480093249
 21
218.599987506346
 31
0.0
  0
LINE
  5
5262
330
5260
100
AcDbEntity
  8
AM_5
 62
     5
100
AcDbLine
 10
958.3094480093249
 20
218.599987506346
 30
0.0
 11
963.4363610735814
 21
194.3546596684059
 31
0.0
  0
TRACE
  5
5263
330
5260
100
AcDbEntity
  8
AM_5
 62
     5
370
    35
100
AcDbTrace
 10
962.9855462632349
 20
194.2593304422484
 30
0.0
 11
963.8871758839281
 21
194.4499888945634
 31
0.0
 12
964.160458438461
 22
190.9303812033604
 32
0.0
 13
964.160458438461
 23
190.9303812033604
 33
0.0
  0
MTEXT
  5
5264
330
5260
100
AcDbEntity
  8
AM_5
 62
     5
100
AcDbMText
 10
1001.017426954131
 20
215.3235005461047
 30
0.0
 40
3.5
 41
0.0
 71
     7
 72
     5
  1

  7
ACISOTS
 73
     1
 44
1.0
1001
ACAD
1000
MTEXTBEGIN
1070
    73
1070
     1
1070
    44
1040
1.0
1070
    74
1070
     0
1000
MTEXTEND
  0
ENDBLK
  5
5266
330
5260
100
AcDbEntity
  8
0
100
AcDbBlockEnd
  0
BLOCK
  5
526D
330
5268
100
AcDbEntity
  8
0
100
AcDbBlockBegin
  2
*S39
 70
     1
 10
0.0
 20
0.0
 30
0.0
  3
*S39
  1

  0
LINE
  5
5269
330
5268
100
AcDbEntity
  8
AM_5
 62
     5
100
AcDbLine
 10
1141.364410389419
 20
114.4523169341162
 30
0.0
 11
1103.313006716682
 21
114.4523169341162
 31
0.0
  0
LINE
  5
526A
330
5268
100
AcDbEntity
  8
AM_5
 62
     5
100
AcDbLine
 10
1103.313006716682
 20
114.4523169341162
 30
0.0
 11
1099.039809489195
 21
108.2718038427255
 31
0.0
  0
TRACE
  5
526B
330
5268
100
AcDbEntity
  8
AM_5
 62
     5
370
    35
100
AcDbTrace
 10
1098.660795489685
 20
108.5338535379424
 30
0.0
 11
1099.418823488705
 21
108.0097541475086
 31
0.0
 12
1097.049344430132
 22
105.3929066843247
 32
0.0
 13
1097.049344430132
 23
105.3929066843247
 33
0.0
  0
MTEXT
  5
526C
330
5268
100
AcDbEntity
  8
AM_5
 62
     5
100
AcDbMText
 10
1141.364410389419
 20
119.7033072342099
 30
0.0
 40
3.5
 41
0.0
 71
     7
 72
     5
  1

  7
ACISOTS
 73
     1
 44
1.0
1001
ACAD
1000
MTEXTBEGIN
1070
    73
1070
     1
1070
    44
1040
1.0
1070
    74
1070
     0
1000
MTEXTEND
  0
ENDBLK
  5
526E
330
5268
100
AcDbEntity
  8
0
100
AcDbBlockEnd
  0
BLOCK
  5
5275
330
5270
100
AcDbEntity
  8
0
100
AcDbBlockBegin
  2
*S40
 70
     1
 10
0.0
 20
0.0
 30
0.0
  3
*S40
  1

  0
LINE
  5
5271
330
5270
100
AcDbEntity
  8
AM_5
 62
     5
100
AcDbLine
 10
1124.221895388734
 20
248.8461155339688
 30
0.0
 11
1087.150461576447
 21
248.8461155339688
 31
0.0
  0
LINE
  5
5272
330
5270
100
AcDbEntity
  8
AM_5
 62
     5
100
AcDbLine
 10
1087.150461576447
 20
248.8461155339688
 30
0.0
 11
1081.33684481424
 21
259.3210500602534
 31
0.0
  0
TRACE
  5
5273
330
5270
100
AcDbEntity
  8
AM_5
 62
     5
370
    35
100
AcDbTrace
 10
1081.739736799742
 20
259.5446561930078
 30
0.0
 11
1080.933952828737
 21
259.0974439274992
 31
0.0
 12
1079.638387604163
 22
262.3813185297732
 32
0.0
 13
1079.638387604163
 23
262.3813185297732
 33
0.0
  0
MTEXT
  5
5274
330
5270
100
AcDbEntity
  8
AM_5
 62
     5
100
AcDbMText
 10
1124.221895388734
 20
253.5776849905102
 30
0.0
 40
3.5
 41
0.0
 71
     7
 72
     5
  1

  7
ACISOTS
 73
     1
 44
1.0
1001
ACAD
1000
MTEXTBEGIN
1070
    73
1070
     1
1070
    44
1040
1.0
1070
    74
1070
     0
1000
MTEXTEND
  0
ENDBLK
  5
5276
330
5270
100
AcDbEntity
  8
0
100
AcDbBlockEnd
  0
BLOCK
  5
527D
330
5278
100
AcDbEntity
  8
0
100
AcDbBlockBegin
  2
*S41
 70
     1
 10
0.0
 20
0.0
 30
0.0
  3
*S41
  1

  0
LINE
  5
5279
330
5278
100
AcDbEntity
  8
AM_5
 62
     5
100
AcDbLine
 10
1105.320385866345
 20
227.9513991859515
 30
0.0
 11
1061.995628984975
 21
227.9513991859515
 31
0.0
  0
LINE
  5
527A
330
5278
100
AcDbEntity
  8
AM_5
 62
     5
100
AcDbLine
 10
1061.995628984975
 20
227.9513991859515
 30
0.0
 11
1047.828085341681
 21
197.7056787066312
 31
0.0
  0
TRACE
  5
527B
330
5278
100
AcDbEntity
  8
AM_5
 62
     5
370
    35
100
AcDbTrace
 10
1047.410810852555
 20
197.9011362603687
 30
0.0
 11
1048.245359830806
 21
197.5102211528938
 31
0.0
 12
1046.343437817393
 22
194.5361642755827
 32
0.0
 13
1046.343437817393
 23
194.5361642755827
 33
0.0
  0
MTEXT
  5
527C
330
5278
100
AcDbEntity
  8
AM_5
 62
     5
100
AcDbMText
 10
1105.320385866345
 20
228.3819317947571
 30
0.0
 40
3.5
 41
0.0
 71
     7
 72
     5
  1

  7
ACISOTS
 73
     1
 44
1.0
1001
ACAD
1000
MTEXTBEGIN
1070
    73
1070
     1
1070
    44
1040
1.0
1070
    74
1070
     0
1000
MTEXTEND
  0
ENDBLK
  5
527E
330
5278
100
AcDbEntity
  8
0
100
AcDbBlockEnd
  0
BLOCK
  5
5285
330
5280
100
AcDbEntity
  8
0
100
AcDbBlockBegin
  2
*S42
 70
     1
 10
0.0
 20
0.0
 30
0.0
  3
*S42
  1

  0
LINE
  5
5281
330
5280
100
AcDbEntity
  8
AM_5
 62
     5
100
AcDbLine
 10
1154.151699279339
 20
215.3114075471886
 30
0.0
 11
1112.660330949524
 21
215.3114075471886
 31
0.0
  0
LINE
  5
5282
330
5280
100
AcDbEntity
  8
AM_5
 62
     5
100
AcDbLine
 10
1112.660330949524
 20
215.3114075471886
 30
0.0
 11
1104.224340069037
 21
195.5316641371341
 31
0.0
  0
TRACE
  5
5283
330
5280
100
AcDbEntity
  8
AM_5
 62
     5
370
    35
100
AcDbTrace
 10
1103.800495212388
 20
195.7124324752921
 30
0.0
 11
1104.648184925685
 21
195.3508957989761
 31
0.0
 12
1102.851268214897
 22
192.3122428097263
 32
0.0
 13
1102.851268214897
 23
192.3122428097263
 33
0.0
  0
MTEXT
  5
5284
330
5280
100
AcDbEntity
  8
AM_5
 62
     5
100
AcDbMText
 10
1154.151699279339
 20
215.7419401559941
 30
0.0
 40
3.5
 41
0.0
 71
     7
 72
     5
  1

  7
ACISOTS
 73
     1
 44
1.0
1001
ACAD
1000
MTEXTBEGIN
1070
    73
1070
     1
1070
    44
1040
1.0
1070
    74
1070
     0
1000
MTEXTEND
  0
ENDBLK
  5
5286
330
5280
100
AcDbEntity
  8
0
100
AcDbBlockEnd
  0
BLOCK
  5
528D
330
5288
100
AcDbEntity
  8
0
100
AcDbBlockBegin
  2
*S43
 70
     1
 10
0.0
 20
0.0
 30
0.0
  3
*S43
  1

  0
LINE
  5
5289
330
5288
100
AcDbEntity
  8
AM_5
 62
     5
100
AcDbLine
 10
1217.725129428743
 20
202.5424110709507
 30
0.0
 11
1198.255405519429
 21
202.5424110709507
 31
0.0
  0
LINE
  5
528A
330
5288
100
AcDbEntity
  8
AM_5
 62
     5
100
AcDbLine
 10
1198.255405519429
 20
202.5424110709507
 30
0.0
 11
1188.522662584386
 21
194.4493918196555
 31
0.0
  0
TRACE
  5
528B
330
5288
100
AcDbEntity
  8
AM_5
 62
     5
370
    35
100
AcDbTrace
 10
1188.228054299392
 20
194.8036905820022
 30
0.0
 11
1188.817270869381
 21
194.0950930573088
 31
0.0
 12
1185.831496291151
 22
192.211619717284
 32
0.0
 13
1185.831496291151
 23
192.211619717284
 33
0.0
  0
MTEXT
  5
528C
330
5288
100
AcDbEntity
  8
AM_5
 62
     5
100
AcDbMText
 10
1217.725129428743
 20
209.7307005564853
 30
0.0
 40
3.5
 41
0.0
 71
     7
 72
     5
  1

  7
ACISOTS
 73
     1
 44
1.0
1001
ACAD
1000
MTEXTBEGIN
1070
    73
1070
     1
1070
    44
1040
1.0
1070
    74
1070
     0
1000
MTEXTEND
  0
ENDBLK
  5
528E
330
5288
100
AcDbEntity
  8
0
100
AcDbBlockEnd
  0
BLOCK
  5
5295
330
5290
100
AcDbEntity
  8
0
100
AcDbBlockBegin
  2
*S44
 70
     1
 10
0.0
 20
0.0
 30
0.0
  3
*S44
  1

  0
LINE
  5
5291
330
5290
100
AcDbEntity
  8
AM_5
 62
     5
100
AcDbLine
 10
1130.844575206962
 20
199.666095210551
 30
0.0
 11
1169.150720717858
 21
199.666095210551
 31
0.0
  0
LINE
  5
5292
330
5290
100
AcDbEntity
  8
AM_5
 62
     5
100
AcDbLine
 10
1169.150720717858
 20
199.666095210551
 30
0.0
 11
1173.4819503861
 21
195.7122817763316
 31
0.0
  0
TRACE
  5
5293
330
5290
100
AcDbEntity
  8
AM_5
 62
     5
370
    35
100
AcDbTrace
 10
1173.171291775925
 20
195.3719688578112
 30
0.0
 11
1173.792608996274
 21
196.0525946948519
 31
0.0
 12
1176.066883648097
 22
193.352595349914
 32
0.0
 13
1176.066883648097
 23
193.352595349914
 33
0.0
  0
MTEXT
  5
5294
330
5290
100
AcDbEntity
  8
AM_5
 62
     5
100
AcDbMText
 10
1130.844575206962
 20
203.6506851584106
 30
0.0
 40
3.5
 41
0.0
 71
     7
 72
     5
  1

  7
ACISOTS
210
0.0
220
0.0
230
-1.0
 11
-1.0
 21
0.0
 31
0.0
 73
     1
 44
1.0
1001
ACAD
1000
MTEXTBEGIN
1070
    73
1070
     1
1070
    44
1040
1.0
1070
    74
1070
     0
1000
MTEXTEND
  0
ENDBLK
  5
5296
330
5290
100
AcDbEntity
  8
0
100
AcDbBlockEnd
  0
ENDSEC
  0
SECTION
  2
ENTITIES
  0
TEXT
  5
464D
330
1F
100
AcDbEntity
  8
LOGO
 62
     7
100
AcDbText
 10
946.0454471537637
 20
35.68436837787999
 30
0.0
 40
3.999420814479637
  1
Order example:
 41
0.8
  7
CHINESET
100
AcDbText
  0
TEXT
  5
464E
330
1F
100
AcDbEntity
  8
LOGO
 62
     7
100
AcDbText
 10
946.7629763217461
 20
41.31472479402134
 30
0.0
 40
5.999131221719456
  1
訂購代號：
  7
CHINESET
100
AcDbText
  0
LINE
  5
464F
330
1F
100
AcDbEntity
  8
LOGO
 62
     4
100
AcDbLine
 10
944.3076852446168
 20
18.82929879075504
 30
0.0
 11
944.3076852446168
 21
48.82495489935251
 31
0.0
  0
TEXT
  5
4650
330
1F
100
AcDbEntity
  8
LOGO
  6
Continuous
100
AcDbText
 10
889.0918163129938
 20
24.72190016589707
 30
0.0
 40
4.499348416289592
  1
金器工業股份有限公司
  7
CHINESET
100
AcDbText
  0
TEXT
  5
4651
330
1F
100
AcDbEntity
  8
LOGO
  6
Continuous
100
AcDbText
 10
880.8274034244565
 20
20.22167023008046
 30
0.0
 40
2.999565610859728
  1
MINDMAN INDUSTRIAL CO., LTD.
 41
0.85
  7
CHINESET
100
AcDbText
  0
LINE
  5
4652
330
1F
100
AcDbEntity
  8
LOGO
 62
     4
100
AcDbLine
 10
944.3076852446168
 20
42.82582367763303
 30
0.0
 11
900.3140562853406
 21
42.82582367763303
 31
0.0
  0
LINE
  5
4653
330
1F
100
AcDbEntity
  8
LOGO
 62
     4
100
AcDbLine
 10
944.3076852446168
 20
36.82669245591353
 30
0.0
 11
900.3140562853406
 21
36.82669245591353
 31
0.0
  0
LINE
  5
4654
330
1F
100
AcDbEntity
  8
LOGO
 62
     4
100
AcDbLine
 10
944.3076852446168
 20
30.82756123419438
 30
0.0
 11
878.3172418057027
 21
30.82756123419438
 31
0.0
  0
LINE
  5
4655
330
1F
100
AcDbEntity
  8
LOGO
 62
     4
100
AcDbLine
 10
900.3140562853406
 20
30.82756123419438
 30
0.0
 11
900.3140562853406
 21
48.82495489935251
 31
0.0
  0
TEXT
  5
4656
330
1F
100
AcDbEntity
  8
LOGO
100
AcDbText
 10
930.3816252113476
 20
32.32734403962375
 30
0.0
 40
2.999565610859728
  1
mm
  7
CHINESET
 72
     1
 11
934.0953731105072
 21
33.82712684505361
 31
0.0
100
AcDbText
 73
     2
  0
TEXT
  5
4657
330
1F
100
AcDbEntity
  8
LOGO
100
AcDbText
 10
928.8104241770877
 20
44.32560648306274
 30
0.0
 40
2.999565610859728
  1
1 : 1
  7
CHINESET
 72
     1
 11
934.0953731105072
 21
45.8253892884926
 31
0.0
100
AcDbText
 73
     2
  0
LINE
  5
4658
330
1F
100
AcDbEntity
  8
LOGO
 62
     4
100
AcDbLine
 10
924.3105811722186
 20
30.82756123419438
 30
0.0
 11
924.3105811722186
 21
48.82495489935251
 31
0.0
  0
TEXT
  5
4659
330
1F
100
AcDbEntity
  8
LOGO
100
AcDbText
 10
902.7873588225094
 20
44.32708264724131
 30
196.5865886400747
 40
2.999565610859728
  1
比例 Scale:
 41
0.9
  7
CHINESET
 72
     4
 11
912.3123187287795
 21
45.8253892884926
 31
196.5865886400747
100
AcDbText
  0
TEXT
  5
465A
330
1F
100
AcDbEntity
  8
LOGO
100
AcDbText
 10
902.6146159815269
 20
38.36866895411411
 30
196.5865886400747
 40
2.999565610859728
  1
投影  View:
 41
0.9
  7
CHINESET
 72
     4
 11
912.3123187287795
 21
39.82625806677311
 31
196.5865886400747
100
AcDbText
  0
TEXT
  5
465B
330
1F
100
AcDbEntity
  8
LOGO
100
AcDbText
 10
902.90787708366
 20
32.32734403962375
 30
196.5865886400747
 40
2.999565610859728
  1
單位  Unit:
 41
0.9
  7
CHINESET
 72
     4
 11
912.3123187287795
 21
33.82712684505361
 31
196.5865886400747
100
AcDbText
  0
LWPOLYLINE
  5
465C
330
1F
100
AcDbEntity
  8
LOGO
 62
     4
100
AcDbPolyline
 90
        4
 70
     1
 43
0.0
 10
878.3172418057027
 20
48.82495489935251
 10
1290.817241805703
 20
48.82495489935251
 10
1290.817241805703
 20
318.8292987907545
 10
878.3172418057027
 20
318.8292987907545
1001
GENIUS_GENREC_14
1002
{
1000
PYDIR
1011
878.3172418057027
1021
318.8292987907545
1031
0.0
1002
}
1002
{
1000
PXDIR
1011
1290.817241805703
1021
48.82495489935251
1031
0.0
1002
}
1002
{
1000
PORI
1011
878.3172418057027
1021
48.82495489935251
1031
0.0
1002
}
1002
{
1000
PINS
1011
878.3172418057027
1021
48.82495489935251
1031
0.0
1002
}
1002
{
1000
PINS2
1011
1290.817241805703
1021
318.8292987907545
1031
0.0
1002
}
1002
{
1000
C
1070
     1
1002
}
1001
GENIUS_GENODEF_13
1002
{
1000
HIER
1070
     0
1002
}
1002
{
1000
MANEDIT
1070
     0
1002
}
1002
{
1000
NOSEL
1070
     0
1002
}
1002
{
1000
BEHIND
1070
     0
1002
}
1002
{
1000
OTHER
1070
     0
1002
}
1002
{
1000
REACTOR
1002
}
1001
GENIUS_GENOBJ-N-REC_13
1002
{
1000
OWNER
1000
GEN
1002
}
  0
SOLID
  5
465D
330
1F
100
AcDbEntity
  8
LOGO
 62
     5
100
AcDbTrace
 10
881.429339266336
 20
35.81391210770448
 30
0.0
 11
882.7262727278702
 21
35.81391210770414
 31
0.0
 12
888.1376157915124
 22
48.11241907052829
 32
0.0
 13
889.4345492530471
 23
48.1124190705276
 33
0.0
  0
SOLID
  5
465E
330
1F
100
AcDbEntity
  8
LOGO
 62
     5
100
AcDbTrace
 10
883.2629348498857
 20
35.81391210770448
 30
0.0
 11
884.5598683114198
 21
35.81391210770448
 31
0.0
 12
889.4345492530471
 22
47.12853851350189
 32
0.0
 13
888.1376157915124
 23
42.37311582121003
 33
0.0
  0
SOLID
  5
465F
330
1F
100
AcDbEntity
  8
LOGO
 62
     2
100
AcDbTrace
 10
882.7262727278702
 20
35.81391210770414
 30
0.0
 11
883.2629348498857
 21
35.81391210770448
 31
0.0
 12
889.4345492530471
 22
48.1124190705276
 32
0.0
 13
889.9712113750618
 23
48.1124190705276
 33
0.0
  0
SOLID
  5
4660
330
1F
100
AcDbEntity
  8
LOGO
 62
     5
100
AcDbTrace
 10
879.3500368804535
 20
31.34172775758714
 30
0.0
 11
879.7972553154657
 21
31.34172775758714
 31
0.0
 12
881.05665723716
 22
33.57781993264564
 32
0.0
 13
881.5038756721708
 23
33.57781993264564
 33
0.0
  0
SOLID
  5
4661
330
1F
100
AcDbEntity
  8
LOGO
 62
     5
100
AcDbTrace
 10
881.05665723716
 20
33.57781993264564
 30
0.0
 11
881.5038756721708
 21
33.57781993264564
 31
0.0
 12
881.05665723716
 22
31.34172775758714
 32
0.0
 13
881.5038756721708
 23
31.34172775758714
 33
0.0
  0
SOLID
  5
4662
330
1F
100
AcDbEntity
  8
LOGO
 62
     5
100
AcDbTrace
 10
881.05665723716
 20
31.34172775758714
 30
0.0
 11
881.5038756721708
 21
31.34172775758714
 31
0.0
 12
882.7632775938672
 22
33.57781993264564
 32
0.0
 13
883.2104960288788
 23
33.57781993264564
 33
0.0
  0
SOLID
  5
4663
330
1F
100
AcDbEntity
  8
LOGO
 62
     5
100
AcDbTrace
 10
882.7632775938672
 20
33.57781993264564
 30
0.0
 11
883.2104960288788
 21
33.57781993264564
 31
0.0
 12
882.7632775938672
 22
31.34172775758714
 32
0.0
 13
883.2104960288788
 23
31.34172775758714
 33
0.0
  0
POLYLINE
  5
4664
330
1F
100
AcDbEntity
  8
LOGO
 62
     5
100
AcDb2dPolyline
 66
     1
 10
0.0
 20
0.0
 30
0.0
 40
0.4479351312217194
 41
0.4479351312217194
  0
VERTEX
  5
4665
330
4664
100
AcDbEntity
  8
LOGO
 62
     5
100
AcDbVertex
100
AcDb2dVertex
 10
897.7538871885814
 20
32.68338306262217
 30
0.0
 42
1.0
  0
VERTEX
  5
4666
330
4664
100
AcDbEntity
  8
LOGO
 62
     5
100
AcDbVertex
100
AcDb2dVertex
 10
896.4100817949159
 20
32.68338306262217
 30
0.0
 42
1.0
  0
SEQEND
  5
4667
330
4664
100
AcDbEntity
  8
LOGO
 62
     5
  0
POLYLINE
  5
4668
330
1F
100
AcDbEntity
  8
LOGO
 62
     5
100
AcDb2dPolyline
 66
     1
 10
0.0
 20
0.0
 30
0.0
 70
     1
  0
VERTEX
  5
4669
330
4668
100
AcDbEntity
  8
LOGO
 62
     5
100
AcDbVertex
100
AcDb2dVertex
 10
893.8769488553925
 20
32.45977384511605
 30
0.0
 42
1.000000057330635
  0
VERTEX
  5
466A
330
4668
100
AcDbEntity
  8
LOGO
 62
     5
100
AcDbVertex
100
AcDb2dVertex
 10
895.2186041604278
 20
32.45977384511605
 30
0.0
 42
1.000000057330635
  0
SEQEND
  5
466B
330
4668
100
AcDbEntity
  8
LOGO
 62
     5
  0
CIRCLE
  5
466C
330
1F
100
AcDbEntity
  8
LOGO
 62
     5
100
AcDbCircle
 10
894.5477765079111
 20
32.45977384511605
 30
0.0
 40
0.6708276525176471
  0
POLYLINE
  5
466D
330
1F
100
AcDbEntity
  8
LOGO
 62
     5
100
AcDb2dPolyline
 66
     1
 10
0.0
 20
0.0
 30
0.0
 70
     1
 40
0.4479351312217194
 41
0.4479351312217194
  0
VERTEX
  5
466E
330
466D
100
AcDbEntity
  8
LOGO
 62
     5
100
AcDbVertex
100
AcDb2dVertex
 10
893.6519062454671
 20
32.45977384511605
 30
0.0
 42
1.0
  0
VERTEX
  5
466F
330
466D
100
AcDbEntity
  8
LOGO
 62
     5
100
AcDbVertex
100
AcDb2dVertex
 10
895.4436467703539
 20
32.45977384511605
 30
0.0
 42
1.0
  0
SEQEND
  5
4670
330
466D
100
AcDbEntity
  8
LOGO
 62
     5
  0
LINE
  5
4671
330
1F
100
AcDbEntity
  8
LOGO
100
AcDbLine
 10
897.9764213617714
 20
31.34172775758714
 30
0.0
 11
897.9764213617714
 21
32.68338306262217
 31
0.0
  0
SOLID
  5
4672
330
1F
100
AcDbEntity
  8
LOGO
 62
     5
100
AcDbTrace
 10
895.2185594385863
 20
33.57781993264564
 30
0.0
 11
895.6657778735971
 21
33.57781993264564
 31
0.0
 12
895.2185594385863
 22
31.34172775758714
 32
0.0
 13
895.6657778735971
 23
31.34172775758714
 33
0.0
  0
SOLID
  5
4673
330
1F
100
AcDbEntity
  8
LOGO
 62
     5
100
AcDbTrace
 10
896.1875476217246
 20
31.34172775758714
 30
0.0
 11
896.6347660567368
 21
31.34172775758714
 31
0.0
 12
896.1875476217246
 22
33.57781993264564
 32
0.0
 13
896.6347660567368
 23
33.57781993264564
 33
0.0
  0
SOLID
  5
4674
330
1F
100
AcDbEntity
  8
LOGO
 62
     5
100
AcDbTrace
 10
897.5292029267606
 20
32.68338306262217
 30
0.0
 11
897.9764213617714
 21
32.68338306262217
 31
0.0
 12
897.5292029267606
 22
31.34172775758714
 32
0.0
 13
897.9764213617714
 23
31.34172775758714
 33
0.0
  0
SOLID
  5
4675
330
1F
100
AcDbEntity
  8
LOGO
 62
     5
100
AcDbTrace
 10
896.1428257782232
 20
47.12853851350189
 30
0.0
 11
894.8458923166898
 21
42.37311582121003
 31
0.0
 12
896.1428257782232
 22
35.81391210770414
 32
0.0
 13
894.8458923166898
 23
35.81391210770414
 33
0.0
  0
SOLID
  5
4676
330
1F
100
AcDbEntity
  8
LOGO
 62
     5
100
AcDbTrace
 10
896.679487900238
 20
35.81391210770414
 30
0.0
 11
897.9764213617714
 21
35.81391210770414
 31
0.0
 12
896.679487900238
 22
48.1124190705276
 32
0.0
 13
897.9764213617714
 23
48.11241907052829
 33
0.0
  0
SOLID
  5
4677
330
1F
100
AcDbEntity
  8
LOGO
 62
     2
100
AcDbTrace
 10
896.1428257782232
 20
48.11241907052829
 30
0.0
 11
896.679487900238
 21
48.1124190705276
 31
0.0
 12
896.1428257782232
 22
35.81391210770414
 32
0.0
 13
896.679487900238
 23
35.81391210770414
 33
0.0
  0
POLYLINE
  5
4678
330
1F
100
AcDbEntity
  8
LOGO
 62
     5
100
AcDb2dPolyline
 66
     1
 10
0.0
 20
0.0
 30
0.0
 40
0.4479351312217194
 41
0.4479351312217194
  0
VERTEX
  5
4679
330
4678
100
AcDbEntity
  8
LOGO
 62
     5
100
AcDbVertex
100
AcDb2dVertex
 10
891.3437264721839
 20
32.68338306262217
 30
0.0
 42
1.0
  0
VERTEX
  5
467A
330
4678
100
AcDbEntity
  8
LOGO
 62
     5
100
AcDbVertex
100
AcDb2dVertex
 10
889.9999210785184
 20
32.68338306262217
 30
0.0
 42
1.0
  0
SEQEND
  5
467B
330
4678
100
AcDbEntity
  8
LOGO
 62
     5
  0
POLYLINE
  5
467C
330
1F
100
AcDbEntity
  8
LOGO
 62
     5
100
AcDb2dPolyline
 66
     1
 10
0.0
 20
0.0
 30
0.0
 40
0.4479351312217194
 41
0.4479351312217194
  0
VERTEX
  5
467D
330
467C
100
AcDbEntity
  8
LOGO
 62
     5
100
AcDbVertex
100
AcDb2dVertex
 10
892.685381777218
 20
32.68338306262217
 30
0.0
 42
1.0
  0
VERTEX
  5
467E
330
467C
100
AcDbEntity
  8
LOGO
 62
     5
100
AcDbVertex
100
AcDb2dVertex
 10
891.3415763835532
 20
32.68338306262217
 30
0.0
 42
1.0
  0
SEQEND
  5
467F
330
467C
100
AcDbEntity
  8
LOGO
 62
     5
  0
POLYLINE
  5
4680
330
1F
100
AcDbEntity
  8
LOGO
 62
     5
100
AcDb2dPolyline
 66
     1
 10
0.0
 20
0.0
 30
0.0
 40
0.4479351312217194
 41
0.4479351312217194
  0
VERTEX
  5
4681
330
4680
100
AcDbEntity
  8
LOGO
 62
     5
100
AcDbVertex
100
AcDb2dVertex
 10
886.2752210608205
 20
32.68338306262217
 30
0.0
 42
1.0
  0
VERTEX
  5
4682
330
4680
100
AcDbEntity
  8
LOGO
 62
     5
100
AcDbVertex
100
AcDb2dVertex
 10
884.9314156671557
 20
32.68338306262217
 30
0.0
 42
1.0
  0
SEQEND
  5
4683
330
4680
100
AcDbEntity
  8
LOGO
 62
     5
  0
SOLID
  5
4684
330
1F
100
AcDbEntity
  8
LOGO
 62
     5
100
AcDbTrace
 10
884.7088814939649
 20
33.57781993264564
 30
0.0
 11
885.1560999289757
 21
33.57781993264564
 31
0.0
 12
884.7088814939649
 22
31.34172775758714
 32
0.0
 13
885.1560999289757
 23
31.34172775758714
 33
0.0
  0
SOLID
  5
4685
330
1F
100
AcDbEntity
  8
LOGO
 62
     5
100
AcDbTrace
 10
886.0505367990002
 20
32.68338306262217
 30
0.0
 11
886.4977552340125
 21
32.68338306262217
 31
0.0
 12
886.0505367990002
 22
31.34172775758714
 32
0.0
 13
886.4977552340125
 23
31.34172775758714
 33
0.0
  0
POLYLINE
  5
4686
330
1F
100
AcDbEntity
  8
LOGO
 62
     5
100
AcDb2dPolyline
 66
     1
 10
0.0
 20
0.0
 30
0.0
 70
     1
 40
0.4479351312217194
 41
0.4479351312217194
  0
VERTEX
  5
4687
330
4686
100
AcDbEntity
  8
LOGO
 62
     5
100
AcDbVertex
100
AcDb2dVertex
 10
887.2417455290689
 20
32.45977384511605
 30
0.0
 42
1.0
  0
VERTEX
  5
4688
330
4686
100
AcDbEntity
  8
LOGO
 62
     5
100
AcDbVertex
100
AcDb2dVertex
 10
889.0334860539564
 20
32.45977384511605
 30
0.0
 42
1.0
  0
SEQEND
  5
4689
330
4686
100
AcDbEntity
  8
LOGO
 62
     5
  0
SOLID
  5
468A
330
1F
100
AcDbEntity
  8
LOGO
 62
     5
100
AcDbTrace
 10
888.8083987221873
 20
34.24864758516367
 30
0.0
 11
889.2556171571991
 21
34.24864758516367
 31
0.0
 12
888.8083987221873
 22
31.34172775758714
 32
0.0
 13
889.2556171571991
 23
31.34172775758714
 33
0.0
  0
SOLID
  5
468B
330
1F
100
AcDbEntity
  8
LOGO
 62
     5
100
AcDbTrace
 10
889.7773869053283
 20
33.57781993264564
 30
0.0
 11
890.2246053403393
 21
33.57781993264564
 31
0.0
 12
889.7773869053283
 22
31.34172775758714
 32
0.0
 13
890.2246053403393
 23
31.34172775758714
 33
0.0
  0
SOLID
  5
468C
330
1F
100
AcDbEntity
  8
LOGO
 62
     5
100
AcDbTrace
 10
891.1190422103624
 20
32.68338306262217
 30
0.0
 11
891.5662606453746
 21
32.68338306262217
 31
0.0
 12
891.1190422103624
 22
31.34172775758714
 32
0.0
 13
891.5662606453746
 23
31.34172775758714
 33
0.0
  0
SOLID
  5
468D
330
1F
100
AcDbEntity
  8
LOGO
 62
     5
100
AcDbTrace
 10
892.4606975153977
 20
32.68338306262217
 30
0.0
 11
892.9079159504093
 21
32.68338306262217
 31
0.0
 12
892.4606975153977
 22
31.34172775758646
 32
0.0
 13
892.9079159504093
 23
31.34172775758646
 33
0.0
  0
SOLID
  5
468E
330
1F
100
AcDbEntity
  8
LOGO
 62
     5
100
AcDbTrace
 10
883.7398933108246
 20
33.89087283715401
 30
0.0
 11
884.1871117458376
 21
33.89087283715401
 31
0.0
 12
883.7398933108246
 22
34.24864758516367
 32
0.0
 13
884.1871117458376
 23
34.24864758516367
 33
0.0
  0
SOLID
  5
468F
330
1F
100
AcDbEntity
  8
LOGO
 62
     5
100
AcDbTrace
 10
883.7398933108246
 20
33.57781993264564
 30
0.0
 11
884.1871117458376
 21
33.57781993264564
 31
0.0
 12
883.7398933108246
 22
31.34172775758646
 32
0.0
 13
884.1871117458376
 23
31.34172775758714
 33
0.0
  0
SOLID
  5
4690
330
1F
100
AcDbEntity
  8
LOGO
 62
     5
100
AcDbTrace
 10
888.1376157915124
 20
35.81391210770448
 30
0.0
 11
889.4345492530471
 21
35.81391210770448
 31
0.0
 12
888.1376157915124
 22
42.37311582121003
 32
0.0
 13
889.4345492530471
 23
47.12853851350189
 33
0.0
  0
SOLID
  5
4691
330
1F
100
AcDbEntity
  8
LOGO
 62
     5
100
AcDbTrace
 10
889.9712113750618
 20
48.1124190705276
 30
0.0
 11
891.2681448365953
 21
48.11241907052829
 31
0.0
 12
889.9712113750618
 22
36.7977926647302
 32
0.0
 13
891.2681448365953
 23
41.55321535702205
 33
0.0
  0
SOLID
  5
4692
330
1F
100
AcDbEntity
  8
LOGO
 62
     2
100
AcDbTrace
 10
889.4345492530471
 20
48.1124190705276
 30
0.0
 11
889.9712113750618
 21
48.1124190705276
 31
0.0
 12
889.4345492530471
 22
35.81391210770448
 32
0.0
 13
889.9712113750618
 23
35.81391210770448
 33
0.0
  0
SOLID
  5
4693
330
1F
100
AcDbEntity
  8
LOGO
 62
     5
100
AcDbTrace
 10
889.9712113750618
 20
36.7977926647302
 30
0.0
 11
891.2681448365953
 21
41.55321535702205
 31
0.0
 12
896.1428257782232
 22
48.11241907052829
 32
0.0
 13
894.8458923166898
 23
48.11241907052829
 33
0.0
  0
SOLID
  5
4694
330
1F
100
AcDbEntity
  8
LOGO
 62
     5
100
AcDbTrace
 10
889.9712113750618
 20
35.81391210770448
 30
0.0
 11
891.2681448365953
 21
35.81391210770448
 31
0.0
 12
896.1428257782232
 22
47.12853851350189
 32
0.0
 13
894.8458923166898
 23
42.37311582121003
 33
0.0
  0
SOLID
  5
4695
330
1F
100
AcDbEntity
  8
LOGO
 62
     2
100
AcDbTrace
 10
889.4345492530471
 20
35.81391210770448
 30
0.0
 11
889.9712113750618
 21
35.81391210770448
 31
0.0
 12
896.1428257782232
 22
48.11241907052829
 32
0.0
 13
896.679487900238
 23
48.1124190705276
 33
0.0
  0
LWPOLYLINE
  5
4696
330
1F
100
AcDbEntity
  8
LOGO
 62
     4
100
AcDbPolyline
 90
        4
 70
     1
 43
0.0
 10
878.3172418057027
 20
48.82495489935251
 10
1290.817241805703
 20
48.82495489935251
 10
1290.817241805703
 20
18.8292987907547
 10
878.3172418057027
 20
18.8292987907547
1001
GENIUS_GENREC_14
1002
{
1000
PYDIR
1011
878.3172418057027
1021
18.8292987907547
1031
0.0
1002
}
1002
{
1000
PXDIR
1011
1290.817241805703
1021
48.82495489935251
1031
0.0
1002
}
1002
{
1000
PORI
1011
878.3172418057027
1021
48.82495489935251
1031
0.0
1002
}
1002
{
1000
PINS
1011
878.3172418057027
1021
48.82495489935251
1031
0.0
1002
}
1002
{
1000
PINS2
1011
1290.817241805703
1021
18.8292987907547
1031
0.0
1002
}
1002
{
1000
C
1070
     1
1002
}
1001
GENIUS_GENOBJ-N-REC_13
1002
{
1000
OWNER
1000
GEN
1002
}
1001
GENIUS_GENODEF_13
1002
{
1000
HIER
1070
     0
1002
}
1002
{
1000
MANEDIT
1070
     0
1002
}
1002
{
1000
NOSEL
1070
     0
1002
}
1002
{
1000
BEHIND
1070
     0
1002
}
1002
{
1000
OTHER
1070
     0
1002
}
1002
{
1000
REACTOR
1002
}
  0
LINE
  5
4697
330
1F
100
AcDbEntity
  8
LOGO
 62
     4
100
AcDbLine
 10
1005.56248301959
 20
32.32734403962434
 30
0.0
 11
1005.56248301959
 21
21.32893679980475
 31
0.0
  0
LINE
  5
4698
330
1F
100
AcDbEntity
  8
LOGO
 62
     4
100
AcDbLine
 10
985.565378947192
 20
32.32734403962434
 30
0.0
 11
985.565378947192
 21
21.32893679980475
 31
0.0
  0
LINE
  5
4699
330
1F
100
AcDbEntity
  8
LOGO
 62
     4
100
AcDbLine
 10
1005.56248301959
 20
21.32893679980475
 30
0.0
 11
985.565378947192
 21
21.32893679980475
 31
0.0
  0
LINE
  5
469A
330
1F
100
AcDbEntity
  8
LOGO
 62
     4
100
AcDbLine
 10
1009.149176154299
 20
45.8253892884926
 30
0.0
 11
985.565378947192
 21
45.8253892884926
 31
0.0
  0
LINE
  5
469B
330
1F
100
AcDbEntity
  8
LOGO
 62
     4
100
AcDbLine
 10
1009.149176154299
 20
36.82669245591353
 30
0.0
 11
985.565378947192
 21
36.82669245591353
 31
0.0
  0
LINE
  5
469C
330
1F
100
AcDbEntity
  8
LOGO
 62
     4
100
AcDbLine
 10
985.565378947192
 20
45.8253892884926
 30
0.0
 11
985.565378947192
 21
36.82669245591353
 31
0.0
  0
LINE
  5
469D
330
1F
100
AcDbEntity
  8
LOGO
 62
     4
100
AcDbLine
 10
1009.149176154299
 20
45.8253892884926
 30
0.0
 11
1009.149176154299
 21
36.82669245591353
 31
0.0
  0
LINE
  5
469E
330
1F
100
AcDbEntity
  8
LOGO
 62
     4
100
AcDbLine
 10
996.6072775507457
 20
36.82669245591353
 30
0.0
 11
996.6072775507457
 21
32.32734403962434
 31
0.0
  0
TEXT
  5
469F
330
1F
100
AcDbEntity
  8
LOGO
  6
Continuous
 62
     7
100
AcDbText
 10
987.1643064421119
 20
38.705157263621
 30
0.0
 40
5.25
  1
MCSH
  7
CHINESET
100
AcDbText
  0
LINE
  5
46A0
330
1F
100
AcDbEntity
  8
LOGO
 62
     4
100
AcDbLine
 10
1005.56248301959
 20
32.32734403962434
 30
0.0
 11
985.565378947192
 21
32.32734403962434
 31
0.0
  0
TEXT
  5
46A1
330
1F
100
AcDbEntity
  8
LOGO
  6
Continuous
100
AcDbText
 10
991.9823863341566
 20
22.88133865904092
 30
196.5865886400747
 40
2.25
  1
Model
 41
0.8
  7
CHINESET
100
AcDbText
  0
TEXT
  5
46A2
330
1F
100
AcDbEntity
  8
LOGO
100
AcDbText
 10
991.3835094771579
 20
27.05235374943197
 30
196.5865886400747
 40
3.75
  1
型號
  7
CHINESET
100
AcDbText
  0
LINE
  5
46A3
330
1F
100
AcDbEntity
  8
LOGO
  6
Continuous
 62
     7
100
AcDbLine
 10
1010.105812000808
 20
41.294166065892
 30
0.0
 11
1014.079308174217
 21
41.294166065892
 31
0.0
  0
LINE
  5
46AF
330
1F
100
AcDbEntity
  8
LOGO
 62
     4
100
AcDbLine
 10
1026.943019351494
 20
32.32734403962434
 30
0.0
 11
1026.943019351494
 21
21.32893679980475
 31
0.0
  0
LINE
  5
46B0
330
1F
100
AcDbEntity
  8
LOGO
 62
     4
100
AcDbLine
 10
1010.990828483934
 20
32.32734403962434
 30
0.0
 11
1010.990828483934
 21
21.32893679980475
 31
0.0
  0
LINE
  5
46B1
330
1F
100
AcDbEntity
  8
LOGO
 62
     4
100
AcDbLine
 10
1026.943019351494
 20
21.32893679980475
 30
0.0
 11
1010.990828483934
 21
21.32893679980475
 31
0.0
  0
LINE
  5
46B2
330
1F
100
AcDbEntity
  8
LOGO
 62
     4
100
AcDbLine
 10
1026.21551752673
 20
45.8253892884926
 30
0.0
 11
1015.796942926598
 21
45.8253892884926
 31
0.0
  0
LINE
  5
46B3
330
1F
100
AcDbEntity
  8
LOGO
 62
     4
100
AcDbLine
 10
1026.21551752673
 20
36.82669245591353
 30
0.0
 11
1015.796942926598
 21
36.82669245591353
 31
0.0
  0
LINE
  5
46B4
330
1F
100
AcDbEntity
  8
LOGO
 62
     4
100
AcDbLine
 10
1015.796942926598
 20
45.8253892884926
 30
0.0
 11
1015.796942926598
 21
36.82669245591353
 31
0.0
  0
LINE
  5
46B5
330
1F
100
AcDbEntity
  8
LOGO
 62
     4
100
AcDbLine
 10
1026.21551752673
 20
45.8253892884926
 30
0.0
 11
1026.21551752673
 21
36.82669245591353
 31
0.0
  0
LINE
  5
46B6
330
1F
100
AcDbEntity
  8
LOGO
 62
     4
100
AcDbLine
 10
1020.253143076373
 20
36.82669245591353
 30
0.0
 11
1020.253143076373
 21
32.32734403962434
 31
0.0
  0
TEXT
  5
46B7
330
1F
100
AcDbEntity
  8
LOGO
  6
Continuous
 62
     7
100
AcDbText
 10
1017.102111715279
 20
38.705157263621
 30
0.0
 40
5.25
  1
10
  7
CHINESET
100
AcDbText
  0
LINE
  5
46B8
330
1F
100
AcDbEntity
  8
LOGO
 62
     4
100
AcDbLine
 10
1026.943019351494
 20
32.32734403962434
 30
0.0
 11
1010.990828483934
 21
32.32734403962434
 31
0.0
  0
LINE
  5
46B9
330
1F
100
AcDbEntity
  8
LOGO
  6
Continuous
 62
     7
100
AcDbLine
 10
1027.635816070419
 20
41.294166065892
 30
0.0
 11
1031.609312243829
 21
41.294166065892
 31
0.0
  0
LINE
  5
46BA
330
1F
100
AcDbEntity
  8
LOGO
 62
     4
100
AcDbLine
 10
1047.112703371159
 20
32.32734403962434
 30
0.0
 11
1047.112703371159
 21
21.32893679980475
 31
0.0
  0
LINE
  5
46BB
330
1F
100
AcDbEntity
  8
LOGO
 62
     4
100
AcDbLine
 10
1030.821874143527
 20
32.32734403962434
 30
0.0
 11
1030.821874143527
 21
21.32893679980475
 31
0.0
  0
LINE
  5
46BC
330
1F
100
AcDbEntity
  8
LOGO
 62
     4
100
AcDbLine
 10
1047.112703371159
 20
21.32893679980475
 30
0.0
 11
1030.821874143527
 21
21.32893679980475
 31
0.0
  0
LINE
  5
46BD
330
1F
100
AcDbEntity
  8
LOGO
 62
     4
100
AcDbLine
 10
1045.143046997273
 20
45.8253892884926
 30
0.0
 11
1033.284912250459
 21
45.8253892884926
 31
0.0
  0
LINE
  5
46BE
330
1F
100
AcDbEntity
  8
LOGO
 62
     4
100
AcDbLine
 10
1045.143046997273
 20
36.82669245591353
 30
0.0
 11
1033.284912250459
 21
36.82669245591353
 31
0.0
  0
LINE
  5
46BF
330
1F
100
AcDbEntity
  8
LOGO
 62
     4
100
AcDbLine
 10
1033.284912250459
 20
45.8253892884926
 30
0.0
 11
1033.284912250459
 21
36.82669245591353
 31
0.0
  0
LINE
  5
46C0
330
1F
100
AcDbEntity
  8
LOGO
 62
     4
100
AcDbLine
 10
1045.143046997273
 20
45.8253892884926
 30
0.0
 11
1045.143046997273
 21
36.82669245591353
 31
0.0
  0
LINE
  5
46C1
330
1F
100
AcDbEntity
  8
LOGO
 62
     4
100
AcDbLine
 10
1039.213979623866
 20
36.82669245591353
 30
0.0
 11
1039.213979623866
 21
32.32734403962434
 31
0.0
  0
TEXT
  5
46C2
330
1F
100
AcDbEntity
  8
LOGO
  6
Continuous
 62
     7
100
AcDbText
 10
1037.989023574051
 20
38.705157263621
 30
0.0
 40
5.25
  1
*
  7
CHINESET
100
AcDbText
  0
LINE
  5
46C3
330
1F
100
AcDbEntity
  8
LOGO
 62
     4
100
AcDbLine
 10
1047.112703371159
 20
32.32734403962434
 30
0.0
 11
1030.821874143527
 21
32.32734403962434
 31
0.0
  0
TEXT
  5
46C6
330
1F
100
AcDbEntity
  8
LOGO
  6
Continuous
100
AcDbText
 10
1012.623507497508
 20
22.88133865904092
 30
196.5865886400747
 40
2.25
  1
Tube I.D.
 41
0.8
  7
CHINESET
100
AcDbText
  0
TEXT
  5
46C7
330
1F
100
AcDbEntity
  8
LOGO
100
AcDbText
 10
1014.103625206312
 20
27.05235374943197
 30
196.5865886400747
 40
3.75
  1
內徑
  7
CHINESET
100
AcDbText
  0
TEXT
  5
46C8
330
1F
100
AcDbEntity
  8
LOGO
  6
Continuous
100
AcDbText
 10
1035.115334945952
 20
22.88133865904092
 30
196.5865886400747
 40
2.25
  1
Stroke
 41
0.8
  7
CHINESET
100
AcDbText
  0
TEXT
  5
46C9
330
1F
100
AcDbEntity
  8
LOGO
100
AcDbText
 10
1034.959327342322
 20
27.05235374943197
 30
196.5865886400747
 40
3.75
  1
行程
  7
CHINESET
100
AcDbText
  0
TEXT
  5
46D6
330
1F
100
AcDbEntity
  8
LOGO
100
AcDbText
 10
945.9474886314735
 20
20.42505585663707
 30
0.0
 40
3.0
  1
10701179
 41
0.7
  7
CHINESET
 72
     1
 11
952.9974886314734
 21
20.42505585663707
 31
0.0
100
AcDbText
  0
LINE
  5
46D7
330
1F
100
AcDbEntity
  8
LOGO
 62
     4
100
AcDbLine
 10
962.3076852446155
 20
24.82843001247522
 30
0.0
 11
962.3076852446169
 21
18.82929879075539
 31
0.0
  0
LINE
  5
46D8
330
1F
100
AcDbEntity
  8
LOGO
 62
     4
100
AcDbLine
 10
962.3076852446155
 20
24.82843001247522
 30
0.0
 11
944.3076852446168
 21
24.82843001247522
 31
0.0
  0
CIRCLE
  5
46D9
330
1F
100
AcDbEntity
  8
LOGO
  6
Continuous
100
AcDbCircle
 10
929.8646520804609
 20
39.83267415956527
 30
0.0
 40
1.741618395480947
  0
CIRCLE
  5
46DA
330
1F
100
AcDbEntity
  8
LOGO
  6
Continuous
100
AcDbCircle
 10
929.8646520804609
 20
39.83267415956527
 30
0.0
 40
1.020434202998395
  0
LINE
  5
46DB
330
1F
100
AcDbEntity
  8
LOGO
100
AcDbLine
 10
940.8091841665157
 20
38.09105576408399
 30
0.0
 11
940.8091841665157
 21
41.57429255504655
 31
0.0
  0
LINE
  5
46DC
330
1F
100
AcDbEntity
  8
LOGO
100
AcDbLine
 10
935.3493104703494
 20
38.81223995656706
 30
0.0
 11
935.3493104703494
 21
40.85310836256383
 31
0.0
  0
LINE
  5
46DD
330
1F
100
AcDbEntity
  8
LOGO
  6
Continuous
100
AcDbLine
 10
935.3493104703494
 20
40.85310836256383
 30
0.0
 11
940.8091841665157
 21
41.57429255504655
 31
0.0
  0
LINE
  5
46DE
330
1F
100
AcDbEntity
  8
LOGO
  6
Continuous
100
AcDbLine
 10
935.3493104703494
 20
38.81223995656706
 30
0.0
 11
940.8091841665157
 21
38.09105576408399
 31
0.0
  0
LINE
  5
46DF
330
1F
100
AcDbEntity
  8
LOGO
  6
AM_ISO08W050x2
 48
0.3
100
AcDbLine
 10
927.4638050436086
 20
39.83267415956527
 30
0.0
 11
932.2654991173134
 21
39.83267415956527
 31
0.0
1001
GENIUS_GENOREF_13
1005
46E4
  0
LINE
  5
46E0
330
1F
100
AcDbEntity
  8
LOGO
  6
AM_ISO08W050x2
 48
0.3
100
AcDbLine
 10
929.8646520804609
 20
37.43182712271289
 30
0.0
 11
929.8646520804609
 21
42.23352119641766
 31
0.0
1001
GENIUS_GENOREF_13
1005
46E3
  0
LINE
  5
46E1
330
1F
100
AcDbEntity
  8
LOGO
  6
CENTER
 48
0.5
100
AcDbLine
 10
934.9126723311355
 20
39.83267415956527
 30
0.0
 11
941.3589757731973
 21
39.83267415956527
 31
0.0
1001
GENIUS_GENOREF_13
1005
46E2
  0
POINT
  5
46E2
330
1F
100
AcDbEntity
  8
0
 60
     1
100
AcDbPoint
 10
-1205.831745533407
 20
-871.4447039898473
 30
0.0
1001
GENIUS_GENOBJ-N-CRS_13
1002
{
1000
OWNER
1000
GEN
1002
}
1001
GENIUS_GENOLIS_13
1002
{
1000
ENT
1005
0
1005
0
1005
0
1005
46E1
1002
}
1001
GENIUS_GENOENT_13
1002
{
1000
MYREF
1005
46E2
1002
}
1002
{
1000
GRP
1005
0
1002
}
1001
GENIUS_GENODEF_13
1002
{
1000
HIER
1070
    10
1002
}
1002
{
1000
MANEDIT
1070
     1
1002
}
1002
{
1000
NOSEL
1070
     0
1002
}
1002
{
1000
BEHIND
1070
     0
1002
}
1002
{
1000
OTHER
1070
     0
1002
}
1002
{
1000
REACTOR
1002
}
  0
POINT
  5
46E3
330
1F
100
AcDbEntity
  8
0
 60
     1
100
AcDbPoint
 10
-1217.156330756262
 20
-862.5691175112111
 30
0.0
1001
GENIUS_GENOBJ-N-CRS_13
1002
{
1000
OWNER
1000
GEN
1002
}
1001
GENIUS_GENOLIS_13
1002
{
1000
ENT
1005
0
1005
0
1005
0
1005
46E0
1002
}
1001
GENIUS_GENOENT_13
1002
{
1000
MYREF
1005
46E3
1002
}
1002
{
1000
GRP
1005
0
1002
}
1001
GENIUS_GENODEF_13
1002
{
1000
HIER
1070
    10
1002
}
1002
{
1000
MANEDIT
1070
     1
1002
}
1002
{
1000
NOSEL
1070
     0
1002
}
1002
{
1000
BEHIND
1070
     0
1002
}
1002
{
1000
OTHER
1070
     0
1002
}
1002
{
1000
REACTOR
1002
}
  0
POINT
  5
46E4
330
1F
100
AcDbEntity
  8
0
 60
     1
100
AcDbPoint
 10
-1210.797657058425
 20
-871.4447039898473
 30
0.0
1001
GENIUS_GENOBJ-N-CRS_13
1002
{
1000
OWNER
1000
GEN
1002
}
1001
GENIUS_GENOLIS_13
1002
{
1000
ENT
1005
0
1005
0
1005
0
1005
46DF
1002
}
1001
GENIUS_GENOENT_13
1002
{
1000
MYREF
1005
46E4
1002
}
1002
{
1000
GRP
1005
0
1002
}
1001
GENIUS_GENODEF_13
1002
{
1000
HIER
1070
    10
1002
}
1002
{
1000
MANEDIT
1070
     1
1002
}
1002
{
1000
NOSEL
1070
     0
1002
}
1002
{
1000
BEHIND
1070
     0
1002
}
1002
{
1000
OTHER
1070
     0
1002
}
1002
{
1000
REACTOR
1002
}
  0
ARC
  5
4C0C
330
1F
100
AcDbEntity
  8
AM_4
100
AcDbCircle
 10
954.4763999572545
 20
171.4438527643176
 30
0.0
 40
2.0
100
AcDbArc
 50
260.0000000000014
 51
189.9999999999986
  0
ARC
  5
4C0D
330
1F
100
AcDbEntity
  8
AM_4
100
AcDbCircle
 10
965.4763999572544
 20
171.4438527643176
 30
0.0
 40
2.0
100
AcDbArc
 50
260.0000000000014
 51
189.9999999999986
  0
ARC
  5
4C0E
330
1F
100
AcDbEntity
  8
AM_4
100
AcDbCircle
 10
954.4763999572547
 20
189.4438527643176
 30
0.0
 40
2.0
100
AcDbArc
 50
260.0000000000014
 51
189.9999999999986
  0
ARC
  5
4C0F
330
1F
100
AcDbEntity
  8
AM_4
100
AcDbCircle
 10
965.4763999572544
 20
189.4438527643176
 30
0.0
 40
2.0
100
AcDbArc
 50
260.0000000000014
 51
189.9999999999986
  0
ARC
  5
4C10
330
1F
100
AcDbEntity
  8
AM_4
100
AcDbCircle
 10
1043.635130867759
 20
191.9438527643176
 30
0.0
 40
2.5
100
AcDbArc
 50
260.0000000000014
 51
189.9999999999986
  0
ARC
  5
4C11
330
1F
100
AcDbEntity
  8
AM_4
100
AcDbCircle
 10
1088.635130867759
 20
191.9438527643176
 30
0.0
 40
2.5
100
AcDbArc
 50
260.0000000000014
 51
189.9999999999986
  0
ARC
  5
4C12
330
1F
100
AcDbEntity
  8
AM_4
100
AcDbCircle
 10
1043.635130867759
 20
168.9438527643176
 30
0.0
 40
2.5
100
AcDbArc
 50
260.0000000000014
 51
189.9999999999986
  0
ARC
  5
4C13
330
1F
100
AcDbEntity
  8
AM_4
100
AcDbCircle
 10
1038.135130867759
 20
263.6311030084452
 30
0.0
 40
2.0
100
AcDbArc
 50
260.0000000000014
 51
189.9999999999986
  0
ARC
  5
4C14
330
1F
100
AcDbEntity
  8
AM_4
100
AcDbCircle
 10
1058.135130867759
 20
263.6311030084452
 30
0.0
 40
2.0
100
AcDbArc
 50
260.0000000000014
 51
189.9999999999986
  0
ARC
  5
4C15
330
1F
100
AcDbEntity
  8
AM_4
100
AcDbCircle
 10
1078.135130867758
 20
263.6311030084452
 30
0.0
 40
2.0
100
AcDbArc
 50
260.0000000000014
 51
189.9999999999986
  0
ARC
  5
4C16
330
1F
100
AcDbEntity
  8
AM_4
100
AcDbCircle
 10
1038.135130867759
 20
274.6311030084452
 30
0.0
 40
2.0
100
AcDbArc
 50
260.0000000000014
 51
189.9999999999986
  0
ARC
  5
4C17
330
1F
100
AcDbEntity
  8
AM_4
100
AcDbCircle
 10
1058.135130867759
 20
274.6311030084452
 30
0.0
 40
2.0
100
AcDbArc
 50
260.0000000000014
 51
189.9999999999986
  0
ARC
  5
4C18
330
1F
100
AcDbEntity
  8
AM_4
100
AcDbCircle
 10
1078.135130867758
 20
274.6311030084452
 30
0.0
 40
2.0
100
AcDbArc
 50
260.0000000000014
 51
189.9999999999986
  0
ARC
  5
4C19
330
1F
100
AcDbEntity
  8
AM_4
100
AcDbCircle
 10
1095.635130867758
 20
90.78233125918293
 30
0.0
 40
2.0
100
AcDbArc
 50
260.0000000000014
 51
189.9999999999986
  0
ARC
  5
4C1A
330
1F
100
AcDbEntity
  8
AM_4
100
AcDbCircle
 10
1095.635130867758
 20
103.7823312591829
 30
0.0
 40
2.0
100
AcDbArc
 50
260.0000000000014
 51
189.9999999999986
  0
ARC
  5
4C1B
330
1F
100
AcDbEntity
  8
AM_4
100
AcDbCircle
 10
1050.635130867759
 20
90.78233125918293
 30
0.0
 40
2.0
100
AcDbArc
 50
260.0000000000014
 51
189.9999999999986
  0
ARC
  5
4C1C
330
1F
100
AcDbEntity
  8
AM_4
100
AcDbCircle
 10
1050.635130867759
 20
103.7823312591829
 30
0.0
 40
2.0
100
AcDbArc
 50
260.0000000000014
 51
189.9999999999986
  0
ARC
  5
4C1D
330
1F
100
AcDbEntity
  8
AM_4
100
AcDbCircle
 10
1184.063729338184
 20
190.4438527643176
 30
0.0
 40
2.5
100
AcDbArc
 50
260.0000000000014
 51
189.9999999999986
  0
ARC
  5
4C1E
330
1F
100
AcDbEntity
  8
AM_4
100
AcDbCircle
 10
1184.063729338184
 20
170.4438527643176
 30
0.0
 40
2.5
100
AcDbArc
 50
260.0000000000014
 51
189.9999999999986
  0
ARC
  5
4C1F
330
1F
100
AcDbEntity
  8
AM_4
100
AcDbCircle
 10
1190.563729338184
 20
168.9438527643176
 30
0.0
 40
2.0
100
AcDbArc
 50
260.0000000000014
 51
189.9999999999986
  0
ARC
  5
4C20
330
1F
100
AcDbEntity
  8
AM_4
100
AcDbCircle
 10
1190.563729338184
 20
191.9438527643176
 30
0.0
 40
2.0
100
AcDbArc
 50
260.0000000000014
 51
189.9999999999986
  0
ARC
  5
4C21
330
1F
100
AcDbEntity
  8
AM_4
100
AcDbCircle
 10
1177.563729338184
 20
168.9438527643176
 30
0.0
 40
2.0
100
AcDbArc
 50
260.0000000000014
 51
189.9999999999986
  0
ARC
  5
4C22
330
1F
100
AcDbEntity
  8
AM_4
100
AcDbCircle
 10
1177.563729338184
 20
191.9438527643176
 30
0.0
 40
2.0
100
AcDbArc
 50
260.0000000000014
 51
189.9999999999986
  0
LINE
  5
4C23
330
1F
100
AcDbEntity
  8
AM_VIS
100
AcDbLine
 10
969.9763999572539
 20
183.7438527643176
 30
0.0
 11
969.476399957254
 21
183.7438527643176
 31
0.0
  0
LINE
  5
4C24
330
1F
100
AcDbEntity
  8
AM_VIS
100
AcDbLine
 10
969.476399957254
 20
187.1438527643177
 30
0.0
 11
969.9763999572539
 21
187.1438527643177
 31
0.0
  0
LINE
  5
4C25
330
1F
100
AcDbEntity
  8
AM_VIS
100
AcDbLine
 10
949.976399957254
 20
187.1438527643177
 30
0.0
 11
950.476399957254
 21
187.1438527643177
 31
0.0
  0
LINE
  5
4C26
330
1F
100
AcDbEntity
  8
AM_VIS
100
AcDbLine
 10
950.476399957254
 20
183.7438527643176
 30
0.0
 11
949.976399957254
 21
183.7438527643176
 31
0.0
  0
LINE
  5
4C27
330
1F
100
AcDbEntity
  8
AM_VIS
100
AcDbLine
 10
969.9763999572539
 20
183.7438527643176
 30
0.0
 11
969.9763999572539
 21
177.1438527643176
 31
0.0
  0
LINE
  5
4C28
330
1F
100
AcDbEntity
  8
AM_VIS
100
AcDbLine
 10
949.976399957254
 20
177.1438527643177
 30
0.0
 11
949.976399957254
 21
183.7438527643177
 31
0.0
  0
LINE
  5
4C29
330
1F
100
AcDbEntity
  8
AM_VIS
100
AcDbLine
 10
949.976399957254
 20
187.1438527643177
 30
0.0
 11
949.976399957254
 21
201.9438527643178
 31
0.0
  0
LINE
  5
4C2A
330
1F
100
AcDbEntity
  8
AM_VIS
100
AcDbLine
 10
969.9763999572539
 20
173.7438527643176
 30
0.0
 11
969.476399957254
 21
173.7438527643176
 31
0.0
  0
LINE
  5
4C2B
330
1F
100
AcDbEntity
  8
AM_VIS
100
AcDbLine
 10
969.476399957254
 20
177.1438527643177
 30
0.0
 11
969.9763999572539
 21
177.1438527643177
 31
0.0
  0
LINE
  5
4C2C
330
1F
100
AcDbEntity
  8
AM_VIS
100
AcDbLine
 10
949.976399957254
 20
177.1438527643177
 30
0.0
 11
950.476399957254
 21
177.1438527643177
 31
0.0
  0
LINE
  5
4C2D
330
1F
100
AcDbEntity
  8
AM_VIS
100
AcDbLine
 10
950.476399957254
 20
173.7438527643176
 30
0.0
 11
949.976399957254
 21
173.7438527643176
 31
0.0
  0
LINE
  5
4C2E
102
{ACAD_REACTORS
330
4D5E
330
4D68
102
}
330
1F
100
AcDbEntity
  8
AM_VIS
100
AcDbLine
 10
969.9763999572539
 20
173.7438527643176
 30
0.0
 11
969.9763999572539
 21
163.9438527643175
 31
0.0
  0
LINE
  5
4C2F
330
1F
100
AcDbEntity
  8
AM_VIS
100
AcDbLine
 10
969.9763999572539
 20
201.9438527643175
 30
0.0
 11
969.9763999572539
 21
187.1438527643176
 31
0.0
  0
LINE
  5
4C30
102
{ACAD_REACTORS
330
4D5E
102
}
330
1F
100
AcDbEntity
  8
AM_VIS
100
AcDbLine
 10
949.976399957254
 20
163.9438527643178
 30
0.0
 11
949.976399957254
 21
173.7438527643177
 31
0.0
  0
LINE
  5
4C31
330
1F
100
AcDbEntity
  8
AM_VIS
100
AcDbLine
 10
969.4763999572542
 20
201.9438527643177
 30
0.0
 11
969.9763999572539
 21
201.9438527643177
 31
0.0
  0
LINE
  5
4C32
330
1F
100
AcDbEntity
  8
AM_VIS
100
AcDbLine
 10
969.9763999572539
 20
163.9438527643176
 30
0.0
 11
949.976399957254
 21
163.9438527643176
 31
0.0
  0
LINE
  5
4C33
330
1F
100
AcDbEntity
  8
AM_VIS
100
AcDbLine
 10
949.976399957254
 20
201.9438527643177
 30
0.0
 11
950.4763999572542
 21
201.9438527643177
 31
0.0
  0
CIRCLE
  5
4C34
330
1F
100
AcDbEntity
  8
AM_VIS
100
AcDbCircle
 10
959.9763999572539
 20
180.4438527643176
 30
0.0
 40
1.45
  0
CIRCLE
  5
4C35
330
1F
100
AcDbEntity
  8
AM_VIS
100
AcDbCircle
 10
959.9763999572543
 20
180.4438527643176
 30
0.0
 40
7.599999999999998
  0
CIRCLE
  5
4C36
330
1F
100
AcDbEntity
  8
AM_VIS
100
AcDbCircle
 10
965.4763999572542
 20
189.4438527643176
 30
0.0
 40
1.649999999999999
  0
CIRCLE
  5
4C37
330
1F
100
AcDbEntity
  8
AM_VIS
100
AcDbCircle
 10
954.4763999572545
 20
189.4438527643176
 30
0.0
 40
1.649999999999999
  0
CIRCLE
  5
4C38
330
1F
100
AcDbEntity
  8
AM_VIS
100
AcDbCircle
 10
965.4763999572542
 20
171.4438527643176
 30
0.0
 40
1.649999999999999
  0
CIRCLE
  5
4C39
330
1F
100
AcDbEntity
  8
AM_VIS
100
AcDbCircle
 10
954.4763999572541
 20
171.4438527643176
 30
0.0
 40
1.649999999999999
  0
LINE
  5
4C3A
102
{ACAD_REACTORS
330
4D65
102
}
330
1F
100
AcDbEntity
  8
AM_VIS
100
AcDbLine
 10
950.4763999572544
 20
164.9438527643176
 30
0.0
 11
969.4763999572543
 21
164.9438527643176
 31
0.0
  0
LINE
  5
4C3B
330
1F
100
AcDbEntity
  8
AM_VIS
100
AcDbLine
 10
969.4763999572542
 20
210.9438527643177
 30
0.0
 11
969.4763999572542
 21
164.9438527643176
 31
0.0
  0
LINE
  5
4C3C
330
1F
100
AcDbEntity
  8
AM_VIS
100
AcDbLine
 10
950.4763999572542
 20
210.9438527643177
 30
0.0
 11
950.4763999572542
 21
164.9438527643176
 31
0.0
  0
LINE
  5
4C3D
102
{ACAD_REACTORS
330
4D61
330
4D65
330
4D68
102
}
330
1F
100
AcDbEntity
  8
AM_VIS
100
AcDbLine
 10
950.4763999572542
 20
210.9438527643177
 30
0.0
 11
969.4763999572542
 21
210.9438527643177
 31
0.0
  0
CIRCLE
  5
4C3E
330
1F
100
AcDbEntity
  8
AM_VIS
100
AcDbCircle
 10
959.9763999572539
 20
180.4456041102657
 30
0.0
 40
2.149999999999999
  0
ARC
  5
4C3F
330
1F
100
AcDbEntity
  8
AM_VIS
100
AcDbCircle
 10
959.9763999572539
 20
180.4456041102657
 30
0.0
 40
4.999999999999983
100
AcDbArc
 50
61.99590962173327
 51
118.0040903782667
  0
ARC
  5
4C40
330
1F
100
AcDbEntity
  8
AM_VIS
100
AcDbCircle
 10
959.9763999572539
 20
180.4456041102657
 30
0.0
 40
4.999999999999983
100
AcDbArc
 50
121.9959096217346
 51
180.0
  0
ARC
  5
4C41
330
1F
100
AcDbEntity
  8
AM_VIS
100
AcDbCircle
 10
959.9763999572539
 20
180.4456041102657
 30
0.0
 40
4.999999999999983
100
AcDbArc
 50
180.0
 51
239.9999999999998
  0
ARC
  5
4C42
330
1F
100
AcDbEntity
  8
AM_VIS
100
AcDbCircle
 10
959.9763999572539
 20
180.4456041102657
 30
0.0
 40
4.999999999999983
100
AcDbArc
 50
239.9999999999998
 51
299.9999999999997
  0
ARC
  5
4C43
330
1F
100
AcDbEntity
  8
AM_VIS
100
AcDbCircle
 10
959.9763999572539
 20
180.4456041102657
 30
0.0
 40
4.999999999999983
100
AcDbArc
 50
299.9999999999997
 51
0.0
  0
ARC
  5
4C44
330
1F
100
AcDbEntity
  8
AM_VIS
100
AcDbCircle
 10
959.9763999572539
 20
180.4456041102657
 30
0.0
 40
4.999999999999983
100
AcDbArc
 50
0.0
 51
58.00409037826533
  0
LINE
  5
4C45
330
1F
100
AcDbEntity
  8
AM_VIS
100
AcDbLine
 10
957.3271063560177
 20
184.6860337364296
 30
0.0
 11
957.628726978654
 21
184.8601744841018
 31
0.0
  0
LINE
  5
4C46
330
1F
100
AcDbEntity
  8
AM_VIS
100
AcDbLine
 10
962.324072935854
 20
184.8601744841018
 30
0.0
 11
962.6256935584901
 21
184.6860337364296
 31
0.0
  0
LINE
  5
4C47
330
1F
100
AcDbEntity
  8
AM_VIS
100
AcDbLine
 10
954.976399957254
 20
180.4456041102657
 30
0.0
 11
954.976399957254
 21
177.5588527643176
 31
0.0
  0
LINE
  5
4C48
330
1F
100
AcDbEntity
  8
AM_VIS
100
AcDbLine
 10
954.976399957254
 20
177.5588527643176
 30
0.0
 11
957.4763999572539
 21
176.1154770913436
 31
0.0
  0
LINE
  5
4C49
330
1F
100
AcDbEntity
  8
AM_VIS
100
AcDbLine
 10
959.9763999572539
 20
174.6721014183695
 30
0.0
 11
962.476399957254
 21
176.1154770913436
 31
0.0
  0
LINE
  5
4C4A
330
1F
100
AcDbEntity
  8
AM_VIS
100
AcDbLine
 10
957.4763999572539
 20
176.1154770913436
 30
0.0
 11
959.9763999572539
 21
174.6721014183695
 31
0.0
  0
LINE
  5
4C4B
330
1F
100
AcDbEntity
  8
AM_VIS
100
AcDbLine
 10
964.9763999572538
 20
180.4456041102657
 30
0.0
 11
964.9763999572538
 21
177.5588527643176
 31
0.0
  0
LINE
  5
4C4C
330
1F
100
AcDbEntity
  8
AM_VIS
100
AcDbLine
 10
962.476399957254
 20
176.1154770913436
 30
0.0
 11
964.976399957254
 21
177.5588527643173
 31
0.0
  0
LINE
  5
4C4D
330
1F
100
AcDbEntity
  8
AM_VIS
100
AcDbLine
 10
954.9763999572546
 20
183.328852764318
 30
0.0
 11
957.3271063560181
 21
184.6860337364299
 31
0.0
  0
LINE
  5
4C4E
330
1F
100
AcDbEntity
  8
AM_VIS
100
AcDbLine
 10
954.976399957254
 20
183.328852764318
 30
0.0
 11
954.976399957254
 21
180.4456041102657
 31
0.0
  0
LINE
  5
4C4F
330
1F
100
AcDbEntity
  8
AM_VIS
100
AcDbLine
 10
962.6256935584899
 20
184.6860337364299
 30
0.0
 11
964.976399957254
 21
183.3288527643177
 31
0.0
  0
LINE
  5
4C50
330
1F
100
AcDbEntity
  8
AM_VIS
100
AcDbLine
 10
964.976399957254
 20
183.328852764318
 30
0.0
 11
964.976399957254
 21
180.4456041102657
 31
0.0
  0
LINE
  5
4C51
330
1F
100
AcDbEntity
  8
AM_VIS
100
AcDbLine
 10
959.9763999572546
 20
186.2156041102658
 30
0.0
 11
962.3240729358542
 21
184.8601744841017
 31
0.0
  0
LINE
  5
4C52
330
1F
100
AcDbEntity
  8
AM_VIS
100
AcDbLine
 10
957.6287269786536
 20
184.8601744841017
 30
0.0
 11
959.9763999572546
 21
186.2156041102658
 31
0.0
  0
LINE
  5
4C53
330
1F
100
AcDbEntity
  8
AM_VIS
100
AcDbLine
 10
1038.635130867759
 20
201.9438527643175
 30
0.0
 11
1038.635130867759
 21
187.1438527643176
 31
0.0
  0
LINE
  5
4C54
330
1F
100
AcDbEntity
  8
AM_VIS
100
AcDbLine
 10
1113.635130867759
 20
201.9438527643177
 30
0.0
 11
1038.635130867759
 21
201.9438527643177
 31
0.0
  0
LINE
  5
4C55
102
{ACAD_REACTORS
330
4D97
102
}
330
1F
100
AcDbEntity
  8
AM_VIS
100
AcDbLine
 10
1113.635130867759
 20
163.9438527643176
 30
0.0
 11
1038.635130867759
 21
163.9438527643176
 31
0.0
  0
LINE
  5
4C56
102
{ACAD_REACTORS
330
4D7D
330
4D83
330
4D86
330
4D89
102
}
330
1F
100
AcDbEntity
  8
AM_VIS
100
AcDbLine
 10
1038.635130867759
 20
173.7438527643176
 30
0.0
 11
1038.635130867759
 21
163.9438527643175
 31
0.0
  0
LINE
  5
4C57
330
1F
100
AcDbEntity
  8
AM_VIS
100
AcDbLine
 10
1113.635130867759
 20
173.7438527643176
 30
0.0
 11
1038.635130867759
 21
173.7438527643176
 31
0.0
  0
LINE
  5
4C58
330
1F
100
AcDbEntity
  8
AM_VIS
100
AcDbLine
 10
1038.635130867759
 20
174.9938527643177
 30
0.0
 11
1038.635130867759
 21
175.8938527643177
 31
0.0
  0
LINE
  5
4C59
330
1F
100
AcDbEntity
  8
AM_VIS
100
AcDbLine
 10
1113.635130867759
 20
187.1438527643176
 30
0.0
 11
1113.635130867759
 21
201.9438527643175
 31
0.0
  0
LINE
  5
4C5A
102
{ACAD_REACTORS
330
4D86
330
4D8D
330
4D90
102
}
330
1F
100
AcDbEntity
  8
AM_VIS
100
AcDbLine
 10
1113.635130867759
 20
163.9438527643175
 30
0.0
 11
1113.635130867759
 21
173.7438527643176
 31
0.0
  0
LINE
  5
4C5B
330
1F
100
AcDbEntity
  8
AM_VIS
100
AcDbLine
 10
1113.635130867759
 20
175.8938527643177
 30
0.0
 11
1113.635130867759
 21
174.9938527643177
 31
0.0
  0
LINE
  5
4C5C
330
1F
100
AcDbEntity
  8
AM_VIS
100
AcDbLine
 10
1113.635130867759
 20
177.1438527643176
 30
0.0
 11
1113.635130867759
 21
183.7438527643176
 31
0.0
  0
LINE
  5
4C5D
330
1F
100
AcDbEntity
  8
AM_VIS
100
AcDbLine
 10
1038.635130867759
 20
177.1438527643177
 30
0.0
 11
1113.635130867759
 21
177.1438527643177
 31
0.0
  0
LINE
  5
4C5E
330
1F
100
AcDbEntity
  8
AM_VIS
100
AcDbLine
 10
1038.635130867759
 20
183.7438527643176
 30
0.0
 11
1038.635130867759
 21
177.1438527643176
 31
0.0
  0
LINE
  5
4C5F
330
1F
100
AcDbEntity
  8
AM_VIS
100
AcDbLine
 10
1038.635130867759
 20
187.1438527643177
 30
0.0
 11
1113.635130867759
 21
187.1438527643177
 31
0.0
  0
LINE
  5
4C60
330
1F
100
AcDbEntity
  8
AM_VIS
100
AcDbLine
 10
1113.635130867759
 20
183.7438527643176
 30
0.0
 11
1038.635130867759
 21
183.7438527643176
 31
0.0
  0
LINE
  5
4C61
330
1F
100
AcDbEntity
  8
AM_VIS
100
AcDbLine
 10
1038.635130867759
 20
184.9938527643177
 30
0.0
 11
1038.635130867759
 21
185.8938527643177
 31
0.0
  0
LINE
  5
4C62
330
1F
100
AcDbEntity
  8
AM_VIS
100
AcDbLine
 10
1113.635130867759
 20
185.8938527643177
 30
0.0
 11
1113.635130867759
 21
184.9938527643177
 31
0.0
  0
CIRCLE
  5
4C63
330
1F
100
AcDbEntity
  8
AM_VIS
100
AcDbCircle
 10
1043.635130867759
 20
191.9438527643176
 30
0.0
 40
2.149999999999999
  0
CIRCLE
  5
4C64
330
1F
100
AcDbEntity
  8
AM_VIS
100
AcDbCircle
 10
1043.635130867759
 20
168.9438527643176
 30
0.0
 40
2.149999999999999
  0
CIRCLE
  5
4C65
330
1F
100
AcDbEntity
  8
AM_VIS
100
AcDbCircle
 10
1088.635130867759
 20
191.9438527643176
 30
0.0
 40
2.149999999999999
  0
CIRCLE
  5
4C66
330
1F
100
AcDbEntity
  8
AM_VIS
100
AcDbCircle
 10
1088.635130867759
 20
191.9438527643176
 30
0.0
 40
3.75
  0
CIRCLE
  5
4C67
330
1F
100
AcDbEntity
  8
AM_VIS
100
AcDbCircle
 10
1043.635130867759
 20
191.9438527643176
 30
0.0
 40
3.75
  0
CIRCLE
  5
4C68
330
1F
100
AcDbEntity
  8
AM_VIS
100
AcDbCircle
 10
1043.635130867759
 20
168.9438527643176
 30
0.0
 40
3.75
  0
LINE
  5
4C69
330
1F
100
AcDbEntity
  8
AM_VIS
100
AcDbLine
 10
1038.635130867759
 20
173.7438527643175
 30
0.0
 11
1038.635130867759
 21
174.9938527643176
 31
0.0
  0
LINE
  5
4C6A
330
1F
100
AcDbEntity
  8
AM_VIS
100
AcDbLine
 10
1038.635130867759
 20
175.8938527643177
 30
0.0
 11
1038.635130867759
 21
177.1438527643178
 31
0.0
  0
LINE
  5
4C6B
330
1F
100
AcDbEntity
  8
AM_VIS
100
AcDbLine
 10
1113.635130867759
 20
174.9938527643176
 30
0.0
 11
1113.635130867759
 21
173.7438527643175
 31
0.0
  0
LINE
  5
4C6C
330
1F
100
AcDbEntity
  8
AM_VIS
100
AcDbLine
 10
1113.635130867759
 20
177.1438527643178
 30
0.0
 11
1113.635130867759
 21
175.8938527643177
 31
0.0
  0
LINE
  5
4C6D
330
1F
100
AcDbEntity
  8
AM_VIS
100
AcDbLine
 10
1038.635130867759
 20
185.8938527643177
 30
0.0
 11
1038.635130867759
 21
187.1438527643178
 31
0.0
  0
LINE
  5
4C6E
330
1F
100
AcDbEntity
  8
AM_VIS
100
AcDbLine
 10
1113.635130867759
 20
187.1438527643178
 30
0.0
 11
1113.635130867759
 21
185.8938527643177
 31
0.0
  0
LINE
  5
4C6F
330
1F
100
AcDbEntity
  8
AM_VIS
100
AcDbLine
 10
1038.635130867759
 20
183.7438527643175
 30
0.0
 11
1038.635130867759
 21
184.9938527643176
 31
0.0
  0
LINE
  5
4C70
330
1F
100
AcDbEntity
  8
AM_VIS
100
AcDbLine
 10
1113.635130867759
 20
184.9938527643176
 30
0.0
 11
1113.635130867759
 21
183.7438527643175
 31
0.0
  0
LINE
  5
4C71
330
1F
100
AcDbEntity
  8
AM_VIS
100
AcDbLine
 10
1038.635130867759
 20
182.0438527643176
 30
0.0
 11
1037.135130867758
 21
182.0438527643176
 31
0.0
  0
LINE
  5
4C72
330
1F
100
AcDbEntity
  8
AM_VIS
100
AcDbLine
 10
1038.635130867759
 20
178.8438527643176
 30
0.0
 11
1037.135130867758
 21
178.8438527643176
 31
0.0
  0
LINE
  5
4C73
330
1F
100
AcDbEntity
  8
AM_VIS
100
AcDbLine
 10
1037.135130867758
 20
182.3938527643177
 30
0.0
 11
1036.735130867759
 21
182.3938527643177
 31
0.0
  0
LINE
  5
4C74
330
1F
100
AcDbEntity
  8
AM_VIS
100
AcDbLine
 10
1037.135130867758
 20
178.4938527643176
 30
0.0
 11
1036.735130867759
 21
178.4938527643176
 31
0.0
  0
LINE
  5
4C75
330
1F
100
AcDbEntity
  8
AM_VIS
100
AcDbLine
 10
1037.135130867758
 20
182.3938527643177
 30
0.0
 11
1037.135130867758
 21
178.4938527643176
 31
0.0
  0
LINE
  5
4C76
330
1F
100
AcDbEntity
  8
AM_VIS
100
AcDbLine
 10
1027.135130867758
 20
210.9438527643177
 30
0.0
 11
1027.135130867758
 21
164.9438527643176
 31
0.0
  0
LINE
  5
4C77
102
{ACAD_REACTORS
330
4D79
102
}
330
1F
100
AcDbEntity
  8
AM_VIS
100
AcDbLine
 10
1027.135130867758
 20
210.9438527643177
 30
0.0
 11
1106.135130867759
 21
210.9438527643177
 31
0.0
  0
LINE
  5
4C78
102
{ACAD_REACTORS
330
4D80
330
4D83
330
4D90
102
}
330
1F
100
AcDbEntity
  8
AM_VIS
100
AcDbLine
 10
1027.135130867758
 20
164.9438527643176
 30
0.0
 11
1034.635130867759
 21
164.9438527643176
 31
0.0
  0
LINE
  5
4C79
102
{ACAD_REACTORS
330
4D80
102
}
330
1F
100
AcDbEntity
  8
AM_VIS
100
AcDbLine
 10
1034.635130867759
 20
200.4438527643177
 30
0.0
 11
1034.635130867759
 21
164.9438527643176
 31
0.0
  0
LINE
  5
4C7A
330
1F
100
AcDbEntity
  8
AM_VIS
100
AcDbLine
 10
1106.135130867759
 20
210.9438527643177
 30
0.0
 11
1106.135130867759
 21
202.9438527643177
 31
0.0
  0
LINE
  5
4C7B
330
1F
100
AcDbEntity
  8
AM_VIS
100
AcDbLine
 10
1038.135130867759
 20
202.9438527643177
 30
0.0
 11
1034.635130867759
 21
200.4438527643177
 31
0.0
  0
LINE
  5
4C7C
102
{ACAD_REACTORS
330
4D79
102
}
330
1F
100
AcDbEntity
  8
AM_VIS
100
AcDbLine
 10
1038.135130867759
 20
202.9438527643177
 30
0.0
 11
1106.135130867759
 21
202.9438527643177
 31
0.0
  0
LINE
  5
4C7D
330
1F
100
AcDbEntity
  8
AM_VIS
100
AcDbLine
 10
1034.679690575035
 20
174.6721014183695
 30
0.0
 11
1036.290571160482
 21
174.6721014183695
 31
0.0
  0
LINE
  5
4C7E
330
1F
100
AcDbEntity
  8
AM_VIS
100
AcDbLine
 10
1034.680702175311
 20
177.5588527643176
 30
0.0
 11
1036.289559560207
 21
177.5588527643176
 31
0.0
  0
LINE
  5
4C7F
330
1F
100
AcDbEntity
  8
AM_VIS
100
AcDbLine
 10
1034.681712855143
 20
183.3288527643176
 30
0.0
 11
1036.288548880373
 21
183.3288527643176
 31
0.0
  0
LINE
  5
4C80
330
1F
100
AcDbEntity
  8
AM_VIS
100
AcDbLine
 10
1034.681712855143
 20
186.2156041102658
 30
0.0
 11
1036.288548880373
 21
186.2156041102658
 31
0.0
  0
LINE
  5
4C81
330
1F
100
AcDbEntity
  8
AM_VIS
100
AcDbLine
 10
1034.635008559289
 20
174.7508489926628
 30
0.0
 11
1034.679572558415
 21
174.6720346881919
 31
0.0
  0
LINE
  5
4C82
330
1F
100
AcDbEntity
  8
AM_VIS
100
AcDbLine
 10
1034.635003100643
 20
177.4783569650042
 30
0.0
 11
1034.680578989841
 21
177.5589224503286
 31
0.0
  0
LINE
  5
4C83
330
1F
100
AcDbEntity
  8
AM_VIS
100
AcDbLine
 10
1034.634974713524
 20
177.7202558691548
 30
0.0
 11
1034.680549954025
 21
177.558809793179
 31
0.0
  0
LINE
  5
4C84
330
1F
100
AcDbEntity
  8
AM_VIS
100
AcDbLine
 10
1034.634967904174
 20
183.1639489117284
 30
0.0
 11
1034.681554084949
 21
183.3288976055153
 31
0.0
  0
LINE
  5
4C85
330
1F
100
AcDbEntity
  8
AM_VIS
100
AcDbLine
 10
1034.634996730142
 20
183.4112519316708
 30
0.0
 11
1034.681583635016
 21
183.3287797704046
 31
0.0
  0
LINE
  5
4C86
330
1F
100
AcDbEntity
  8
AM_VIS
100
AcDbLine
 10
1034.634996730142
 20
186.1332049429125
 30
0.0
 11
1034.681583635017
 21
186.2156771041788
 31
0.0
  0
SPLINE
  5
4C87
330
1F
100
AcDbEntity
  8
AM_VIS
100
AcDbSpline
210
-0.0000000000024171
220
0.0000000000009796
230
1.0
 70
    12
 71
     2
 72
     6
 73
     3
 74
     0
 42
0.0000000001
 43
0.0000000001
 40
0.1720783492765962
 40
0.1720783492765962
 40
0.1720783492765962
 40
2.948307817841269
 40
2.948307817841269
 40
2.948307817841269
 10
1036.290571160482
 20
174.6721014183695
 30
0.0000000000002274
 41
1.004132204286627
 10
1036.709824428403
 20
175.3982693796478
 30
0.0
 41
1.035399602141689
 10
1036.735130867759
 20
176.0275310445336
 30
0.0
 41
1.0
  0
SPLINE
  5
4C88
330
1F
100
AcDbEntity
  8
AM_VIS
100
AcDbSpline
210
0.0
220
0.0
230
1.0
 70
    12
 71
     2
 72
     6
 73
     3
 74
     0
 42
0.0000000001
 43
0.0000000001
 40
0.168165829300429
 40
0.168165829300429
 40
0.168165829300429
 40
3.116750142344341
 40
3.116750142344341
 40
3.116750142344341
 10
1036.289559560208
 20
177.5588527643179
 30
0.0
 41
1.00432879147897
 10
1036.735130867759
 20
179.1037635993428
 30
0.0
 41
1.040114455815392
 10
1036.735130867759
 20
180.4421014183696
 30
0.0
 41
1.0
  0
SPLINE
  5
4C89
330
1F
100
AcDbEntity
  8
AM_VIS
100
AcDbSpline
210
0.0
220
0.0
230
1.0
 70
    12
 71
     2
 72
     6
 73
     3
 74
     0
 42
0.0000000001
 43
0.0000000001
 40
0.0
 40
0.0
 40
0.0
 40
2.779475564695734
 40
2.779475564695734
 40
2.779475564695734
 10
1036.735130867759
 20
176.2016717922055
 30
0.0
 41
1.0
 10
1036.709795851728
 20
176.8316440353863
 30
0.0
 41
1.03544099299673
 10
1036.289559560207
 20
177.5588527643177
 30
0.0
 41
1.004058994563012
  0
SPLINE
  5
4C8A
330
1F
100
AcDbEntity
  8
AM_VIS
100
AcDbSpline
210
0.0
220
0.0
230
1.0
 70
    12
 71
     2
 72
     6
 73
     3
 74
     0
 42
0.0000000001
 43
0.0000000001
 40
0.1649388657239382
 40
0.1649388657239382
 40
0.1649388657239382
 40
3.11675014234431
 40
3.11675014234431
 40
3.11675014234431
 10
1036.288548880373
 20
183.3288527643176
 30
0.0
 41
1.004250372109893
 10
1036.735130867759
 20
184.1023554562142
 30
0.0
 41
1.040158357523507
 10
1036.735130867759
 20
184.7722284372917
 30
0.0
 41
1.0
  0
SPLINE
  5
4C8B
330
1F
100
AcDbEntity
  8
AM_VIS
100
AcDbSpline
210
0.0000000000018587
220
0.0000000000003744
230
1.0
 70
    12
 71
     2
 72
     6
 73
     3
 74
     0
 42
0.0000000001
 43
0.0000000001
 40
3.116750142344341
 40
3.116750142344341
 40
3.116750142344341
 40
6.068561418964723
 40
6.068561418964723
 40
6.068561418964723
 10
1036.735130867759
 20
180.4421014183696
 30
0.0
 41
1.0
 10
1036.73513086776
 20
181.7818473805257
 30
0.0
 41
1.040158357523491
 10
1036.288548880373
 20
183.3288527643176
 30
-0.0000000000002274
 41
1.004250372109892
  0
SPLINE
  5
4C8C
330
1F
100
AcDbEntity
  8
AM_VIS
100
AcDbSpline
210
0.0
220
0.0
230
1.0
 70
    12
 71
     2
 72
     6
 73
     3
 74
     0
 42
0.0000000001
 43
0.0000000001
 40
3.11675014234431
 40
3.11675014234431
 40
3.11675014234431
 40
6.068561418964705
 40
6.068561418964705
 40
6.068561418964705
 10
1036.735130867759
 20
184.7722284372917
 30
0.0
 41
1.0
 10
1036.735130867759
 20
185.4421014183695
 30
0.0
 41
1.040158357523522
 10
1036.288548880369
 20
186.2156041102648
 30
0.0
 41
1.004250372109895
  0
LINE
  5
4C8D
330
1F
100
AcDbEntity
  8
AM_VIS
100
AcDbLine
 10
1036.735130867759
 20
176.0275310445335
 30
0.0
 11
1036.735130867759
 21
176.2016717922056
 31
0.0
  0
LINE
  5
4C8E
330
1F
100
AcDbEntity
  8
AM_VIS
100
AcDbLine
 10
1034.635130867759
 20
174.749281095342
 30
0.0
 11
1034.679690575035
 21
174.6721014183695
 31
0.0
  0
LINE
  5
4C8F
330
1F
100
AcDbEntity
  8
AM_VIS
100
AcDbLine
 10
1034.635130867759
 20
186.1349217413972
 30
0.0
 11
1034.681712855143
 21
186.2156041102658
 31
0.0
  0
LINE
  5
4C90
330
1F
100
AcDbEntity
  8
AM_VIS
100
AcDbLine
 10
1036.735130867759
 20
175.4421014183696
 30
0.0
 11
1036.290571160482
 21
174.6721014183695
 31
0.0
  0
LINE
  5
4C91
330
1F
100
AcDbEntity
  8
AM_VIS
100
AcDbLine
 10
1036.735130867759
 20
185.4421014183696
 30
0.0
 11
1036.288548880373
 21
186.2156041102658
 31
0.0
  0
LINE
  5
4C92
330
1F
100
AcDbEntity
  8
AM_VIS
100
AcDbLine
 10
1036.735130867759
 20
176.2016717922057
 30
0.0
 11
1036.735130867759
 21
180.4421014183696
 31
0.0
  0
LINE
  5
4C93
330
1F
100
AcDbEntity
  8
AM_VIS
100
AcDbLine
 10
1036.735130867759
 20
180.4421014183696
 30
0.0
 11
1036.735130867759
 21
184.7722284372918
 31
0.0
  0
LINE
  5
4C94
330
1F
100
AcDbEntity
  8
AM_VIS
100
AcDbLine
 10
1036.735130867759
 20
184.7722284372918
 30
0.0
 11
1036.735130867759
 21
185.4421014183696
 31
0.0
  0
LINE
  5
4C95
330
1F
100
AcDbEntity
  8
AM_VIS
100
AcDbLine
 10
1036.735130867759
 20
175.4421014183696
 30
0.0
 11
1036.735130867759
 21
176.0275310445335
 31
0.0
  0
LINE
  5
4C96
330
1F
100
AcDbEntity
  8
AM_VIS
100
AcDbLine
 10
1104.985130867758
 20
201.9438527643177
 30
0.0
 11
1104.985130867758
 21
202.9438527643178
 31
0.0
  0
LINE
  5
4C97
330
1F
100
AcDbEntity
  8
AM_VIS
100
AcDbLine
 10
1081.285130867758
 20
202.9438527643175
 30
0.0
 11
1081.285130867758
 21
201.9438527643177
 31
0.0
  0
LINE
  5
4C98
330
1F
100
AcDbEntity
  8
AM_VIS
100
AcDbLine
 10
1038.635130867759
 20
279.1311030084455
 30
0.0
 11
1038.635130867759
 21
278.631103008445
 31
0.0
  0
LINE
  5
4C99
330
1F
100
AcDbEntity
  8
AM_VIS
100
AcDbLine
 10
1038.635130867759
 20
259.631103008445
 30
0.0
 11
1038.635130867759
 21
259.1311030084455
 31
0.0
  0
LINE
  5
4C9A
330
1F
100
AcDbEntity
  8
AM_VIS
100
AcDbLine
 10
1106.135130867759
 20
277.6311030084455
 30
0.0
 11
1113.635130867759
 21
277.6311030084455
 31
0.0
  0
LINE
  5
4C9B
330
1F
100
AcDbEntity
  8
AM_VIS
100
AcDbLine
 10
1113.635130867759
 20
260.6311030084455
 30
0.0
 11
1106.135130867759
 21
260.6311030084455
 31
0.0
  0
LINE
  5
4C9C
330
1F
100
AcDbEntity
  8
AM_VIS
100
AcDbLine
 10
1106.135130867759
 20
272.6311030084455
 30
0.0
 11
1113.635130867759
 21
272.6311030084455
 31
0.0
  0
LINE
  5
4C9D
330
1F
100
AcDbEntity
  8
AM_VIS
100
AcDbLine
 10
1113.635130867759
 20
265.6311030084455
 30
0.0
 11
1106.135130867759
 21
265.6311030084455
 31
0.0
  0
LINE
  5
4C9E
330
1F
100
AcDbEntity
  8
AM_VIS
100
AcDbLine
 10
1113.635130867759
 20
259.1311030084455
 30
0.0
 11
1038.635130867759
 21
259.1311030084455
 31
0.0
  0
LINE
  5
4C9F
330
1F
100
AcDbEntity
  8
AM_VIS
100
AcDbLine
 10
1113.635130867759
 20
279.1311030084455
 30
0.0
 11
1038.635130867759
 21
279.1311030084455
 31
0.0
  0
LINE
  5
4CA0
330
1F
100
AcDbEntity
  8
AM_VIS
100
AcDbLine
 10
1113.635130867759
 20
259.1311030084455
 30
0.0
 11
1113.635130867759
 21
260.6311030084455
 31
0.0
  0
LINE
  5
4CA1
330
1F
100
AcDbEntity
  8
AM_VIS
100
AcDbLine
 10
1113.635130867759
 20
265.6311030084455
 30
0.0
 11
1113.635130867759
 21
260.6311030084455
 31
0.0
  0
LINE
  5
4CA2
330
1F
100
AcDbEntity
  8
AM_VIS
100
AcDbLine
 10
1113.635130867759
 20
272.6311030084455
 30
0.0
 11
1113.635130867759
 21
265.6311030084455
 31
0.0
  0
LINE
  5
4CA3
330
1F
100
AcDbEntity
  8
AM_VIS
100
AcDbLine
 10
1113.635130867759
 20
277.6311030084455
 30
0.0
 11
1113.635130867759
 21
272.6311030084455
 31
0.0
  0
LINE
  5
4CA4
330
1F
100
AcDbEntity
  8
AM_VIS
100
AcDbLine
 10
1113.635130867759
 20
277.6311030084455
 30
0.0
 11
1113.635130867759
 21
279.1311030084455
 31
0.0
  0
ARC
  5
4CA5
330
1F
100
AcDbEntity
  8
AM_VIS
100
AcDbCircle
 10
1104.635130867759
 20
269.1311030084455
 30
0.0
 40
2.25
100
AcDbArc
 50
311.8103148957761
 51
48.18968510422388
  0
LINE
  5
4CA6
102
{ACAD_REACTORS
330
4D6C
102
}
330
1F
100
AcDbEntity
  8
AM_VIS
100
AcDbLine
 10
1027.135130867758
 20
278.6311030084453
 30
0.0
 11
1027.135130867758
 21
259.6311030084453
 31
0.0
  0
LINE
  5
4CA7
102
{ACAD_REACTORS
330
4D6F
102
}
330
1F
100
AcDbEntity
  8
AM_VIS
100
AcDbLine
 10
1106.135130867759
 20
278.631103008445
 30
0.0
 11
1027.135130867758
 21
278.631103008445
 31
0.0
  0
LINE
  5
4CA8
102
{ACAD_REACTORS
330
4D6C
330
4D72
102
}
330
1F
100
AcDbEntity
  8
AM_VIS
100
AcDbLine
 10
1027.135130867758
 20
259.631103008445
 30
0.0
 11
1106.135130867759
 21
259.631103008445
 31
0.0
  0
LINE
  5
4CA9
102
{ACAD_REACTORS
330
4D6F
102
}
330
1F
100
AcDbEntity
  8
AM_VIS
100
AcDbLine
 10
1106.135130867759
 20
259.6311030084453
 30
0.0
 11
1106.135130867759
 21
278.6311030084453
 31
0.0
  0
CIRCLE
  5
4CAA
330
1F
100
AcDbEntity
  8
AM_VIS
100
AcDbCircle
 10
1038.135130867759
 20
263.6311030084451
 30
0.0
 40
1.649999999999999
  0
CIRCLE
  5
4CAB
330
1F
100
AcDbEntity
  8
AM_VIS
100
AcDbCircle
 10
1058.135130867759
 20
263.6311030084451
 30
0.0
 40
1.649999999999999
  0
CIRCLE
  5
4CAC
330
1F
100
AcDbEntity
  8
AM_VIS
100
AcDbCircle
 10
1078.135130867758
 20
263.6311030084451
 30
0.0
 40
1.649999999999999
  0
CIRCLE
  5
4CAD
330
1F
100
AcDbEntity
  8
AM_VIS
100
AcDbCircle
 10
1038.135130867759
 20
274.631103008445
 30
0.0
 40
1.649999999999999
  0
CIRCLE
  5
4CAE
330
1F
100
AcDbEntity
  8
AM_VIS
100
AcDbCircle
 10
1058.135130867759
 20
274.631103008445
 30
0.0
 40
1.649999999999999
  0
CIRCLE
  5
4CAF
330
1F
100
AcDbEntity
  8
AM_VIS
100
AcDbCircle
 10
1078.135130867758
 20
274.631103008445
 30
0.0
 40
1.649999999999999
  0
CIRCLE
  5
4CB0
330
1F
100
AcDbEntity
  8
AM_VIS
100
AcDbCircle
 10
1089.135130867759
 20
263.1311030084451
 30
0.0
 40
2.1
  0
CIRCLE
  5
4CB1
330
1F
100
AcDbEntity
  8
AM_VIS
100
AcDbCircle
 10
1097.135130867759
 20
263.1311030084451
 30
0.0
 40
2.1
  0
CIRCLE
  5
4CB2
330
1F
100
AcDbEntity
  8
AM_VIS
100
AcDbCircle
 10
1089.135130867759
 20
275.1311030084451
 30
0.0
 40
2.1
  0
CIRCLE
  5
4CB3
330
1F
100
AcDbEntity
  8
AM_VIS
100
AcDbCircle
 10
1097.135130867759
 20
275.1311030084451
 30
0.0
 40
2.1
  0
LINE
  5
4CB4
330
1F
100
AcDbEntity
  8
AM_VIS
100
AcDbLine
 10
1038.635130867759
 20
107.2823312591829
 30
0.0
 11
1038.635130867759
 21
87.28233125918293
 31
0.0
  0
LINE
  5
4CB5
330
1F
100
AcDbEntity
  8
AM_VIS
100
AcDbLine
 10
1113.635130867759
 20
87.28233125918293
 30
0.0
 11
1038.635130867759
 21
87.28233125918293
 31
0.0
  0
LINE
  5
4CB6
102
{ACAD_REACTORS
330
4D9D
102
}
330
1F
100
AcDbEntity
  8
AM_VIS
100
AcDbLine
 10
1113.635130867759
 20
107.2823312591829
 30
0.0
 11
1038.635130867759
 21
107.2823312591829
 31
0.0
  0
LINE
  5
4CB7
330
1F
100
AcDbEntity
  8
AM_VIS
100
AcDbLine
 10
1113.635130867759
 20
87.28233125918293
 30
0.0
 11
1113.635130867759
 21
107.2823312591829
 31
0.0
  0
CIRCLE
  5
4CB8
330
1F
100
AcDbEntity
  8
AM_VIS
100
AcDbCircle
 10
1095.635130867758
 20
90.78233125918293
 30
0.0
 40
1.649999999999999
  0
CIRCLE
  5
4CB9
330
1F
100
AcDbEntity
  8
AM_VIS
100
AcDbCircle
 10
1095.635130867758
 20
103.7823312591829
 30
0.0
 40
1.649999999999999
  0
CIRCLE
  5
4CBA
330
1F
100
AcDbEntity
  8
AM_VIS
100
AcDbCircle
 10
1050.635130867759
 20
90.78233125918293
 30
0.0
 40
1.649999999999999
  0
CIRCLE
  5
4CBB
330
1F
100
AcDbEntity
  8
AM_VIS
100
AcDbCircle
 10
1050.635130867759
 20
103.7823312591829
 30
0.0
 40
1.649999999999999
  0
CIRCLE
  5
4CBC
330
1F
100
AcDbEntity
  8
AM_VIS
100
AcDbCircle
 10
1052.635130867759
 20
97.28233125918293
 30
0.0
 40
0.6
  0
CIRCLE
  5
4CBD
330
1F
100
AcDbEntity
  8
AM_VIS
100
AcDbCircle
 10
1052.635130867759
 20
97.28233125918293
 30
0.0
 40
2.25
  0
LINE
  5
4CBE
330
1F
100
AcDbEntity
  8
AM_VIS
100
AcDbLine
 10
1038.635130867759
 20
98.88233125918285
 30
0.0
 11
1037.135130867758
 21
98.88233125918285
 31
0.0
  0
LINE
  5
4CBF
330
1F
100
AcDbEntity
  8
AM_VIS
100
AcDbLine
 10
1038.635130867759
 20
95.68233125918302
 30
0.0
 11
1037.135130867758
 21
95.68233125918302
 31
0.0
  0
LINE
  5
4CC0
330
1F
100
AcDbEntity
  8
AM_VIS
100
AcDbLine
 10
1037.135130867758
 20
99.23233125918299
 30
0.0
 11
1036.735130867759
 21
99.23233125918299
 31
0.0
  0
LINE
  5
4CC1
330
1F
100
AcDbEntity
  8
AM_VIS
100
AcDbLine
 10
1037.135130867758
 20
95.3323312591829
 30
0.0
 11
1036.735130867759
 21
95.3323312591829
 31
0.0
  0
LINE
  5
4CC2
330
1F
100
AcDbEntity
  8
AM_VIS
100
AcDbLine
 10
1037.135130867758
 20
99.23233125918299
 30
0.0
 11
1037.135130867758
 21
95.3323312591829
 31
0.0
  0
LINE
  5
4CC3
330
1F
100
AcDbEntity
  8
AM_VIS
100
AcDbLine
 10
1034.635130867759
 20
87.78233125918339
 30
0.0
 11
1027.135130867758
 21
87.78233125918339
 31
0.0
  0
LINE
  5
4CC4
330
1F
100
AcDbEntity
  8
AM_VIS
100
AcDbLine
 10
1027.135130867758
 20
87.78233125918339
 30
0.0
 11
1027.135130867758
 21
106.7823312591834
 31
0.0
  0
LINE
  5
4CC5
330
1F
100
AcDbEntity
  8
AM_VIS
100
AcDbLine
 10
1027.135130867758
 20
106.7823312591834
 30
0.0
 11
1034.635130867759
 21
106.7823312591834
 31
0.0
  0
LINE
  5
4CC6
330
1F
100
AcDbEntity
  8
AM_VIS
100
AcDbLine
 10
1034.635130867759
 20
106.7823312591834
 30
0.0
 11
1034.635130867759
 21
87.78233125918339
 31
0.0
  0
LINE
  5
4CC7
330
1F
100
AcDbEntity
  8
AM_VIS
100
AcDbLine
 10
1034.635130867759
 20
87.78233125918317
 30
0.0
 11
1038.135130867759
 21
87.78233125918317
 31
0.0
  0
LINE
  5
4CC8
330
1F
100
AcDbEntity
  8
AM_VIS
100
AcDbLine
 10
1038.135130867759
 20
106.7823312591834
 30
0.0
 11
1034.635130867759
 21
106.7823312591834
 31
0.0
  0
ARC
  5
4CC9
330
1F
100
AcDbEntity
  8
AM_VIS
100
AcDbCircle
 10
1038.135130867759
 20
102.7823312591834
 30
0.0
 40
1.649999999999999
100
AcDbArc
 50
211.9527464002628
 51
270.0
  0
ARC
  5
4CCA
330
1F
100
AcDbEntity
  8
AM_VIS
100
AcDbCircle
 10
1038.135130867759
 20
102.7823312591834
 30
0.0
 40
1.649999999999999
100
AcDbArc
 50
90.0
 51
197.6397013942514
  0
ARC
  5
4CCB
330
1F
100
AcDbEntity
  8
AM_VIS
100
AcDbCircle
 10
1038.135130867759
 20
91.78233125918339
 30
0.0
 40
1.649999999999999
100
AcDbArc
 50
162.3602986057804
 51
270.0
  0
ARC
  5
4CCC
330
1F
100
AcDbEntity
  8
AM_VIS
100
AcDbCircle
 10
1038.135130867759
 20
91.78233125918339
 30
0.0
 40
1.649999999999999
100
AcDbArc
 50
90.0
 51
148.047253599735
  0
LINE
  5
4CCD
330
1F
100
AcDbEntity
  8
AM_VIS
100
AcDbLine
 10
1038.635130867759
 20
87.78233125918339
 30
0.0
 11
1038.135130867759
 21
87.78233125918339
 31
0.0
  0
LINE
  5
4CCE
330
1F
100
AcDbEntity
  8
AM_VIS
100
AcDbLine
 10
1038.135130867759
 20
89.7823312591834
 30
0.0
 11
1038.135130867759
 21
90.13233125918331
 31
0.0
  0
LINE
  5
4CCF
330
1F
100
AcDbEntity
  8
AM_VIS
100
AcDbLine
 10
1038.135130867759
 20
93.43233125918326
 30
0.0
 11
1038.135130867759
 21
93.7823312591834
 31
0.0
  0
LINE
  5
4CD0
330
1F
100
AcDbEntity
  8
AM_VIS
100
AcDbLine
 10
1038.135130867759
 20
98.88233125918285
 30
0.0
 11
1038.135130867759
 21
101.1323312591833
 31
0.0
  0
LINE
  5
4CD1
330
1F
100
AcDbEntity
  8
AM_VIS
100
AcDbLine
 10
1038.135130867759
 20
104.4323312591835
 30
0.0
 11
1038.135130867759
 21
106.7823312591834
 31
0.0
  0
LINE
  5
4CD2
330
1F
100
AcDbEntity
  8
AM_VIS
100
AcDbLine
 10
1038.135130867759
 20
106.7823312591834
 30
0.0
 11
1038.635130867759
 21
106.7823312591834
 31
0.0
  0
ARC
  5
4CD3
330
1F
100
AcDbEntity
  8
AM_VIS
100
AcDbCircle
 10
1038.135130867759
 20
91.78233125918339
 30
0.0
 40
1.649999999999999
100
AcDbArc
 50
72.36029860576678
 51
90.0
  0
ARC
  5
4CD4
330
1F
100
AcDbEntity
  8
AM_VIS
100
AcDbCircle
 10
1038.135130867759
 20
91.78233125918339
 30
0.0
 40
1.649999999999999
100
AcDbArc
 50
270.0
 51
287.6397013942332
  0
ARC
  5
4CD5
330
1F
100
AcDbEntity
  8
AM_VIS
100
AcDbCircle
 10
1038.135130867759
 20
102.7823312591834
 30
0.0
 40
1.649999999999999
100
AcDbArc
 50
72.36029860576678
 51
90.0
  0
ARC
  5
4CD6
330
1F
100
AcDbEntity
  8
AM_VIS
100
AcDbCircle
 10
1038.135130867759
 20
102.7823312591834
 30
0.0
 40
1.649999999999999
100
AcDbArc
 50
270.0
 51
287.6397013942332
  0
LINE
  5
4CD7
330
1F
100
AcDbEntity
  8
AM_VIS
100
AcDbLine
 10
1034.680702175311
 20
92.28233125918293
 30
0.0
 11
1036.289559560207
 21
92.28233125918293
 31
0.0
  0
LINE
  5
4CD8
330
1F
100
AcDbEntity
  8
AM_VIS
100
AcDbLine
 10
1034.679690575035
 20
97.28233125918293
 30
0.0
 11
1036.290571160482
 21
97.28233125918293
 31
0.0
  0
LINE
  5
4CD9
330
1F
100
AcDbEntity
  8
AM_VIS
100
AcDbLine
 10
1034.680702175311
 20
102.2823312591829
 30
0.0
 11
1036.289559560207
 21
102.2823312591829
 31
0.0
  0
LINE
  5
4CDA
330
1F
100
AcDbEntity
  8
AM_VIS
100
AcDbLine
 10
1034.634985668419
 20
97.14586407517984
 30
0.0
 11
1034.679549154462
 21
97.28237742458546
 31
0.0
  0
LINE
  5
4CDB
330
1F
100
AcDbEntity
  8
AM_VIS
100
AcDbLine
 10
1034.634985668419
 20
97.41879844318582
 30
0.0
 11
1034.679549154462
 21
97.28228509377974
 31
0.0
  0
LINE
  5
4CDC
330
1F
100
AcDbEntity
  8
AM_VIS
100
AcDbLine
 10
1034.634979181985
 20
102.1428327959868
 30
0.0
 11
1034.680554524571
 21
102.2823794812745
 31
0.0
  0
LINE
  5
4CDD
330
1F
100
AcDbEntity
  8
AM_VIS
100
AcDbLine
 10
1034.635130867759
 20
102.2823312591827
 30
0.0
 11
1034.680702175311
 21
102.2823312591827
 31
0.0
  0
LINE
  5
4CDE
330
1F
100
AcDbEntity
  8
AM_VIS
100
AcDbLine
 10
1034.635130867759
 20
92.28233125918293
 30
0.0
 11
1034.68070217531
 21
92.28233125918293
 31
0.0
  0
LINE
  5
4CDF
330
1F
100
AcDbEntity
  8
AM_VIS
100
AcDbLine
 10
1034.634979181985
 20
92.42182972237836
 30
0.0
 11
1034.680554524571
 21
92.28228303709082
 31
0.0
  0
SPLINE
  5
4CE0
330
1F
100
AcDbEntity
  8
AM_VIS
100
AcDbSpline
210
0.0000000000000563
220
0.0000000000000132
230
1.0
 70
    12
 71
     2
 72
     6
 73
     3
 74
     0
 42
0.0000000001
 43
0.0000000001
 40
0.0
 40
0.0
 40
0.0
 40
2.776229468564773
 40
2.776229468564773
 40
2.776229468564773
 10
1036.735130867759
 20
94.93465828058267
 30
0.0
 41
1.0
 10
1036.709824428403
 20
96.02457145542025
 30
0.0000000000001137
 41
1.035399602141696
 10
1036.290571160482
 20
97.28233125918386
 30
0.0
 41
1.004132204286627
  0
SPLINE
  5
4CE1
330
1F
100
AcDbEntity
  8
AM_VIS
100
AcDbSpline
210
0.0
220
0.0
230
1.0
 70
    12
 71
     2
 72
     6
 73
     3
 74
     0
 42
0.0000000001
 43
0.0000000001
 40
0.1720783492765962
 40
0.1720783492765962
 40
0.1720783492765962
 40
2.948307817841269
 40
2.948307817841269
 40
2.948307817841269
 10
1036.290571160482
 20
97.28233125918386
 30
0.0
 41
1.004132204286627
 10
1036.709824428403
 20
98.54009106294556
 30
0.0
 41
1.035399602141689
 10
1036.735130867759
 20
99.6300042377832
 30
0.0
 41
1.0
  0
LINE
  5
4CE2
330
1F
100
AcDbEntity
  8
AM_VIS
100
AcDbLine
 10
1036.289559560207
 20
102.2823312591829
 30
0.0
 11
1036.735130867759
 21
102.2823312591829
 31
0.0
  0
SPLINE
  5
4CE3
330
1F
100
AcDbEntity
  8
AM_VIS
100
AcDbSpline
210
-0.0000000000000563
220
-0.0000000000000132
230
1.0
 70
    12
 71
     2
 72
     6
 73
     3
 74
     0
 42
0.0000000001
 43
0.0000000001
 40
0.0
 40
0.0
 40
0.0
 40
2.779475564695734
 40
2.779475564695734
 40
2.779475564695734
 10
1036.735130867759
 20
99.93162486041891
 30
0.0
 41
1.0
 10
1036.709795851728
 20
101.0227687929665
 30
-0.0000000000001137
 41
1.03544099299673
 10
1036.289559560207
 20
102.282331259183
 30
0.0
 41
1.004058994563012
  0
LINE
  5
4CE4
330
1F
100
AcDbEntity
  8
AM_VIS
100
AcDbLine
 10
1036.289559560207
 20
92.28233125918293
 30
0.0
 11
1036.735130867759
 21
92.28233125918293
 31
0.0
  0
SPLINE
  5
4CE5
330
1F
100
AcDbEntity
  8
AM_VIS
100
AcDbSpline
210
0.0
220
0.0
230
1.0
 70
    12
 71
     2
 72
     6
 73
     3
 74
     0
 42
0.0000000001
 43
0.0000000001
 40
0.168832253145506
 40
0.168832253145506
 40
0.168832253145506
 40
2.948307817841347
 40
2.948307817841347
 40
2.948307817841347
 10
1036.289559560207
 20
92.28233125918373
 30
0.0
 41
1.004058994563021
 10
1036.709795851728
 20
93.54189372539963
 30
0.0
 41
1.03544099299681
 10
1036.735130867759
 20
94.63303765794696
 30
0.0
 41
1.0
  0
LINE
  5
4CE6
330
1F
100
AcDbEntity
  8
AM_VIS
100
AcDbLine
 10
1036.735130867759
 20
99.63000423778296
 30
0.0
 11
1036.735130867759
 21
99.93162486041914
 31
0.0
  0
LINE
  5
4CE7
330
1F
100
AcDbEntity
  8
AM_VIS
100
AcDbLine
 10
1036.735130867759
 20
94.63303765794675
 30
0.0
 11
1036.735130867759
 21
94.9346582805829
 31
0.0
  0
LINE
  5
4CE8
330
1F
100
AcDbEntity
  8
AM_VIS
100
AcDbLine
 10
1036.735130867759
 20
99.93162486041914
 30
0.0
 11
1036.735130867759
 21
102.2823312591829
 31
0.0
  0
LINE
  5
4CE9
330
1F
100
AcDbEntity
  8
AM_VIS
100
AcDbLine
 10
1036.735130867759
 20
92.28233125918293
 30
0.0
 11
1036.735130867759
 21
94.63303765794675
 31
0.0
  0
LINE
  5
4CEA
330
1F
100
AcDbEntity
  8
AM_VIS
100
AcDbLine
 10
1036.735130867759
 20
94.9346582805829
 30
0.0
 11
1036.735130867759
 21
99.63000423778296
 31
0.0
  0
LINE
  5
4CEB
330
1F
100
AcDbEntity
  8
AM_VIS
100
AcDbLine
 10
1174.063729338184
 20
187.1438527643176
 30
0.0
 11
1174.063729338184
 21
201.9438527643175
 31
0.0
  0
LINE
  5
4CEC
330
1F
100
AcDbEntity
  8
AM_VIS
100
AcDbLine
 10
1174.063729338184
 20
201.9438527643177
 30
0.0
 11
1175.563729338184
 21
201.9438527643177
 31
0.0
  0
LINE
  5
4CED
330
1F
100
AcDbEntity
  8
AM_VIS
100
AcDbLine
 10
1175.563729338184
 20
197.9438527643176
 30
0.0
 11
1175.563729338184
 21
201.9438527643177
 31
0.0
  0
LINE
  5
4CEE
330
1F
100
AcDbEntity
  8
AM_VIS
100
AcDbLine
 10
1180.563729338184
 20
197.9438527643176
 30
0.0
 11
1175.563729338184
 21
197.9438527643176
 31
0.0
  0
LINE
  5
4CEF
330
1F
100
AcDbEntity
  8
AM_VIS
100
AcDbLine
 10
1180.563729338184
 20
196.9438527643176
 30
0.0
 11
1180.563729338184
 21
197.9438527643176
 31
0.0
  0
LINE
  5
4CF0
330
1F
100
AcDbEntity
  8
AM_VIS
100
AcDbLine
 10
1187.563729338184
 20
196.9438527643176
 30
0.0
 11
1180.563729338184
 21
196.9438527643176
 31
0.0
  0
LINE
  5
4CF1
330
1F
100
AcDbEntity
  8
AM_VIS
100
AcDbLine
 10
1187.563729338184
 20
197.9438527643176
 30
0.0
 11
1187.563729338184
 21
196.9438527643176
 31
0.0
  0
LINE
  5
4CF2
330
1F
100
AcDbEntity
  8
AM_VIS
100
AcDbLine
 10
1192.563729338184
 20
197.9438527643176
 30
0.0
 11
1187.563729338184
 21
197.9438527643176
 31
0.0
  0
LINE
  5
4CF3
330
1F
100
AcDbEntity
  8
AM_VIS
100
AcDbLine
 10
1192.563729338184
 20
201.9438527643177
 30
0.0
 11
1192.563729338184
 21
197.9438527643176
 31
0.0
  0
LINE
  5
4CF4
330
1F
100
AcDbEntity
  8
AM_VIS
100
AcDbLine
 10
1192.563729338184
 20
201.9438527643177
 30
0.0
 11
1194.063729338184
 21
201.9438527643177
 31
0.0
  0
LINE
  5
4CF5
330
1F
100
AcDbEntity
  8
AM_VIS
100
AcDbLine
 10
1194.063729338184
 20
201.9438527643178
 30
0.0
 11
1194.063729338184
 21
187.1438527643177
 31
0.0
  0
LINE
  5
4CF6
330
1F
100
AcDbEntity
  8
AM_VIS
100
AcDbLine
 10
1194.063729338184
 20
183.7438527643177
 30
0.0
 11
1194.063729338184
 21
177.1438527643177
 31
0.0
  0
LINE
  5
4CF7
330
1F
100
AcDbEntity
  8
AM_VIS
100
AcDbLine
 10
1193.563729338184
 20
177.1438527643177
 30
0.0
 11
1194.063729338184
 21
177.1438527643177
 31
0.0
  0
LINE
  5
4CF8
330
1F
100
AcDbEntity
  8
AM_VIS
100
AcDbLine
 10
1193.063729338184
 20
177.5938527643176
 30
0.0
 11
1193.563729338184
 21
177.1438527643177
 31
0.0
  0
LINE
  5
4CF9
330
1F
100
AcDbEntity
  8
AM_VIS
100
AcDbLine
 10
1190.963729338184
 20
177.5938527643176
 30
0.0
 11
1193.063729338184
 21
177.5938527643176
 31
0.0
  0
LINE
  5
4CFA
330
1F
100
AcDbEntity
  8
AM_VIS
100
AcDbLine
 10
1189.263729338184
 20
174.9938527643176
 30
0.0
 11
1189.263729338184
 21
175.8938527643176
 31
0.0
  0
LINE
  5
4CFB
330
1F
100
AcDbEntity
  8
AM_VIS
100
AcDbLine
 10
1193.063729339735
 20
173.2938527643177
 30
0.0
 11
1190.963729338184
 21
173.2938527643177
 31
0.0
  0
LINE
  5
4CFC
330
1F
100
AcDbEntity
  8
AM_VIS
100
AcDbLine
 10
1193.563729338184
 20
173.7438527643177
 30
0.0
 11
1193.063729339735
 21
173.2938527643177
 31
0.0
  0
LINE
  5
4CFD
330
1F
100
AcDbEntity
  8
AM_VIS
100
AcDbLine
 10
1194.063729338184
 20
173.7438527643176
 30
0.0
 11
1193.563729338184
 21
173.7438527643176
 31
0.0
  0
LINE
  5
4CFE
102
{ACAD_REACTORS
330
4DAA
102
}
330
1F
100
AcDbEntity
  8
AM_VIS
100
AcDbLine
 10
1194.063729338184
 20
173.7438527643177
 30
0.0
 11
1194.063729338184
 21
163.9438527643178
 31
0.0
  0
LINE
  5
4CFF
330
1F
100
AcDbEntity
  8
AM_VIS
100
AcDbLine
 10
1194.063729338184
 20
163.9438527643176
 30
0.0
 11
1174.063729338184
 21
163.9438527643176
 31
0.0
  0
LINE
  5
4D00
102
{ACAD_REACTORS
330
4DA6
102
}
330
1F
100
AcDbEntity
  8
AM_VIS
100
AcDbLine
 10
1174.063729338184
 20
163.9438527643175
 30
0.0
 11
1174.063729338184
 21
173.7438527643176
 31
0.0
  0
LINE
  5
4D01
330
1F
100
AcDbEntity
  8
AM_VIS
100
AcDbLine
 10
1174.563729338184
 20
173.7438527643176
 30
0.0
 11
1174.063729338184
 21
173.7438527643176
 31
0.0
  0
LINE
  5
4D02
330
1F
100
AcDbEntity
  8
AM_VIS
100
AcDbLine
 10
1175.063729338184
 20
173.2938527643177
 30
0.0
 11
1174.563729338184
 21
173.7438527643177
 31
0.0
  0
LINE
  5
4D03
330
1F
100
AcDbEntity
  8
AM_VIS
100
AcDbLine
 10
1177.163729338184
 20
173.2938527643177
 30
0.0
 11
1175.063729338184
 21
173.2938527643177
 31
0.0
  0
LINE
  5
4D04
330
1F
100
AcDbEntity
  8
AM_VIS
100
AcDbLine
 10
1178.863729338184
 20
175.8938527643177
 30
0.0
 11
1178.863729338184
 21
174.9938527643177
 31
0.0
  0
LINE
  5
4D05
330
1F
100
AcDbEntity
  8
AM_VIS
100
AcDbLine
 10
1175.063729336633
 20
177.5938527643176
 30
0.0
 11
1177.163729338184
 21
177.5938527643176
 31
0.0
  0
LINE
  5
4D06
330
1F
100
AcDbEntity
  8
AM_VIS
100
AcDbLine
 10
1174.563729338184
 20
177.1438527643177
 30
0.0
 11
1175.063729336633
 21
177.5938527643176
 31
0.0
  0
LINE
  5
4D07
330
1F
100
AcDbEntity
  8
AM_VIS
100
AcDbLine
 10
1174.063729338184
 20
177.1438527643177
 30
0.0
 11
1174.563729338184
 21
177.1438527643177
 31
0.0
  0
LINE
  5
4D08
330
1F
100
AcDbEntity
  8
AM_VIS
100
AcDbLine
 10
1174.063729338184
 20
177.1438527643176
 30
0.0
 11
1174.063729338184
 21
183.7438527643176
 31
0.0
  0
LINE
  5
4D09
330
1F
100
AcDbEntity
  8
AM_VIS
100
AcDbLine
 10
1193.563729338184
 20
183.7438527643176
 30
0.0
 11
1193.063729339735
 21
183.2938527643177
 31
0.0
  0
LINE
  5
4D0A
330
1F
100
AcDbEntity
  8
AM_VIS
100
AcDbLine
 10
1194.063729338184
 20
183.7438527643176
 30
0.0
 11
1193.563729338184
 21
183.7438527643176
 31
0.0
  0
LINE
  5
4D0B
330
1F
100
AcDbEntity
  8
AM_VIS
100
AcDbLine
 10
1189.263729338184
 20
184.9938527643176
 30
0.0
 11
1189.263729338184
 21
185.8938527643175
 31
0.0
  0
LINE
  5
4D0C
330
1F
100
AcDbEntity
  8
AM_VIS
100
AcDbLine
 10
1193.063729339735
 20
183.2938527643177
 30
0.0
 11
1190.963729338184
 21
183.2938527643177
 31
0.0
  0
LINE
  5
4D0D
330
1F
100
AcDbEntity
  8
AM_VIS
100
AcDbLine
 10
1193.563729338184
 20
187.1438527643177
 30
0.0
 11
1194.063729338184
 21
187.1438527643177
 31
0.0
  0
LINE
  5
4D0E
330
1F
100
AcDbEntity
  8
AM_VIS
100
AcDbLine
 10
1193.063729338184
 20
187.5938527643177
 30
0.0
 11
1193.563729338184
 21
187.1438527643177
 31
0.0
  0
LINE
  5
4D0F
330
1F
100
AcDbEntity
  8
AM_VIS
100
AcDbLine
 10
1190.963729338184
 20
187.5938527643176
 30
0.0
 11
1193.063729338184
 21
187.5938527643176
 31
0.0
  0
LINE
  5
4D10
330
1F
100
AcDbEntity
  8
AM_VIS
100
AcDbLine
 10
1175.063729336633
 20
187.5938527643176
 30
0.0
 11
1177.163729338184
 21
187.5938527643176
 31
0.0
  0
LINE
  5
4D11
330
1F
100
AcDbEntity
  8
AM_VIS
100
AcDbLine
 10
1174.563729338184
 20
187.1438527643177
 30
0.0
 11
1175.063729336633
 21
187.5938527643176
 31
0.0
  0
LINE
  5
4D12
330
1F
100
AcDbEntity
  8
AM_VIS
100
AcDbLine
 10
1174.063729338184
 20
187.1438527643177
 30
0.0
 11
1174.563729338184
 21
187.1438527643177
 31
0.0
  0
LINE
  5
4D13
330
1F
100
AcDbEntity
  8
AM_VIS
100
AcDbLine
 10
1174.563729338184
 20
183.7438527643176
 30
0.0
 11
1174.063729338184
 21
183.7438527643176
 31
0.0
  0
LINE
  5
4D14
330
1F
100
AcDbEntity
  8
AM_VIS
100
AcDbLine
 10
1175.063729338184
 20
183.2938527643177
 30
0.0
 11
1174.563729338184
 21
183.7438527643177
 31
0.0
  0
LINE
  5
4D15
330
1F
100
AcDbEntity
  8
AM_VIS
100
AcDbLine
 10
1177.163729338184
 20
183.2938527643177
 30
0.0
 11
1175.063729338184
 21
183.2938527643177
 31
0.0
  0
LINE
  5
4D16
330
1F
100
AcDbEntity
  8
AM_VIS
100
AcDbLine
 10
1178.863729338184
 20
185.8938527643177
 30
0.0
 11
1178.863729338184
 21
184.9938527643177
 31
0.0
  0
CIRCLE
  5
4D17
330
1F
100
AcDbEntity
  8
AM_VIS
100
AcDbCircle
 10
1184.063729338184
 20
190.4438527643176
 30
0.0
 40
1.0
  0
CIRCLE
  5
4D18
330
1F
100
AcDbEntity
  8
AM_VIS
100
AcDbCircle
 10
1184.063729338184
 20
170.4438527643176
 30
0.0
 40
1.5
  0
ARC
  5
4D19
330
1F
100
AcDbEntity
  8
AM_VIS
100
AcDbCircle
 10
1190.963729338184
 20
175.8938527643177
 30
0.0
 40
1.7
100
AcDbArc
 50
90.0
 51
180.0
  0
ARC
  5
4D1A
330
1F
100
AcDbEntity
  8
AM_VIS
100
AcDbCircle
 10
1190.963729338184
 20
174.9938527643176
 30
0.0
 40
1.7
100
AcDbArc
 50
180.0
 51
270.0
  0
ARC
  5
4D1B
330
1F
100
AcDbEntity
  8
AM_VIS
100
AcDbCircle
 10
1177.163729338184
 20
174.9938527643176
 30
0.0
 40
1.7
100
AcDbArc
 50
270.0
 51
0.0
  0
ARC
  5
4D1C
330
1F
100
AcDbEntity
  8
AM_VIS
100
AcDbCircle
 10
1177.163729338184
 20
175.8938527643177
 30
0.0
 40
1.7
100
AcDbArc
 50
0.0
 51
90.0
  0
CIRCLE
  5
4D1D
330
1F
100
AcDbEntity
  8
AM_VIS
100
AcDbCircle
 10
1190.563729338184
 20
168.9438527643176
 30
0.0
 40
1.649999999999999
  0
CIRCLE
  5
4D1E
330
1F
100
AcDbEntity
  8
AM_VIS
100
AcDbCircle
 10
1190.563729338184
 20
191.9438527643176
 30
0.0
 40
1.649999999999999
  0
CIRCLE
  5
4D1F
330
1F
100
AcDbEntity
  8
AM_VIS
100
AcDbCircle
 10
1177.563729338184
 20
168.9438527643176
 30
0.0
 40
1.649999999999999
  0
CIRCLE
  5
4D20
330
1F
100
AcDbEntity
  8
AM_VIS
100
AcDbCircle
 10
1177.563729338184
 20
191.9438527643176
 30
0.0
 40
1.649999999999999
  0
CIRCLE
  5
4D21
330
1F
100
AcDbEntity
  8
AM_VIS
100
AcDbCircle
 10
1184.063729338184
 20
170.4438527643176
 30
0.0
 40
2.049999999999999
  0
CIRCLE
  5
4D22
330
1F
100
AcDbEntity
  8
AM_VIS
100
AcDbCircle
 10
1184.063729338184
 20
190.4438527643176
 30
0.0
 40
2.049999999999999
  0
CIRCLE
  5
4D23
330
1F
100
AcDbEntity
  8
AM_VIS
100
AcDbCircle
 10
1184.063729338184
 20
180.4438527643176
 30
0.0
 40
5.5
  0
ARC
  5
4D24
330
1F
100
AcDbEntity
  8
AM_VIS
100
AcDbCircle
 10
1190.963729338184
 20
184.9938527643176
 30
0.0
 40
1.7
100
AcDbArc
 50
180.0
 51
270.0
  0
ARC
  5
4D25
330
1F
100
AcDbEntity
  8
AM_VIS
100
AcDbCircle
 10
1190.963729338184
 20
185.8938527643177
 30
0.0
 40
1.7
100
AcDbArc
 50
90.0
 51
180.0
  0
ARC
  5
4D26
330
1F
100
AcDbEntity
  8
AM_VIS
100
AcDbCircle
 10
1177.163729338184
 20
185.8938527643177
 30
0.0
 40
1.7
100
AcDbArc
 50
0.0
 51
90.0
  0
ARC
  5
4D27
330
1F
100
AcDbEntity
  8
AM_VIS
100
AcDbCircle
 10
1177.163729338184
 20
184.9938527643176
 30
0.0
 40
1.7
100
AcDbArc
 50
270.0
 51
0.0
  0
LINE
  5
4D28
330
1F
100
AcDbEntity
  8
AM_VIS
100
AcDbLine
 10
1190.01666978808
 20
179.6938527643176
 30
0.0
 11
1178.110788888289
 21
179.6938527643176
 31
0.0
  0
LINE
  5
4D29
330
1F
100
AcDbEntity
  8
AM_VIS
100
AcDbLine
 10
1178.110788888289
 20
181.1938527643176
 30
0.0
 11
1190.01666978808
 21
181.1938527643176
 31
0.0
  0
ARC
  5
4D2A
330
1F
100
AcDbEntity
  8
AM_VIS
100
AcDbCircle
 10
1184.063729338184
 20
180.4438527643176
 30
0.0
 40
6.0
100
AcDbArc
 50
187.1807557814601
 51
352.8192442185398
  0
ARC
  5
4D2B
330
1F
100
AcDbEntity
  8
AM_VIS
100
AcDbCircle
 10
1184.063729338184
 20
180.4438527643176
 30
0.0
 40
6.0
100
AcDbArc
 50
7.180755781460175
 51
172.8192442185398
  0
LINE
  5
4D2C
330
1F
100
AcDbEntity
  8
AM_VIS
100
AcDbLine
 10
1193.563729338184
 20
187.1438527643177
 30
0.0
 11
1193.563729338184
 21
183.7438527643176
 31
0.0
  0
LINE
  5
4D2D
330
1F
100
AcDbEntity
  8
AM_VIS
100
AcDbLine
 10
1193.563729338184
 20
177.1438527643177
 30
0.0
 11
1193.563729338184
 21
173.7438527643176
 31
0.0
  0
LINE
  5
4D2E
330
1F
100
AcDbEntity
  8
AM_VIS
100
AcDbLine
 10
1174.563729338184
 20
187.1438527643177
 30
0.0
 11
1174.563729338184
 21
183.7438527643176
 31
0.0
  0
LINE
  5
4D2F
330
1F
100
AcDbEntity
  8
AM_VIS
100
AcDbLine
 10
1174.563729338184
 20
177.1438527643177
 30
0.0
 11
1174.563729338184
 21
173.7438527643176
 31
0.0
  0
LINE
  5
4D30
330
1F
100
AcDbEntity
  8
AM_VIS
100
AcDbLine
 10
1174.563729338184
 20
210.9438527643177
 30
0.0
 11
1174.563729338184
 21
202.9438527643177
 31
0.0
  0
LINE
  5
4D31
330
1F
100
AcDbEntity
  8
AM_VIS
100
AcDbLine
 10
1174.563729338184
 20
210.9438527643177
 30
0.0
 11
1193.563729338184
 21
210.9438527643177
 31
0.0
  0
LINE
  5
4D32
330
1F
100
AcDbEntity
  8
AM_VIS
100
AcDbLine
 10
1193.563729338184
 20
210.9438527643177
 30
0.0
 11
1193.563729338184
 21
202.9438527643177
 31
0.0
  0
LINE
  5
4D33
330
1F
100
AcDbEntity
  8
AM_VIS
100
AcDbLine
 10
1175.563729338184
 20
202.9438527643177
 30
0.0
 11
1175.563729338184
 21
204.9438527643177
 31
0.0
  0
LINE
  5
4D34
330
1F
100
AcDbEntity
  8
AM_VIS
100
AcDbLine
 10
1175.563729338184
 20
204.9438527643177
 30
0.0
 11
1192.563729338184
 21
204.9438527643177
 31
0.0
  0
LINE
  5
4D35
330
1F
100
AcDbEntity
  8
AM_VIS
100
AcDbLine
 10
1192.563729338184
 20
204.9438527643177
 30
0.0
 11
1192.563729338184
 21
202.9438527643177
 31
0.0
  0
LINE
  5
4D36
330
1F
100
AcDbEntity
  8
AM_VIS
100
AcDbLine
 10
1193.563729338184
 20
201.9438527643177
 30
0.0
 11
1193.563729338184
 21
202.9438527643177
 31
0.0
  0
LINE
  5
4D37
330
1F
100
AcDbEntity
  8
AM_VIS
100
AcDbLine
 10
1175.563729338184
 20
200.4438527643177
 30
0.0
 11
1175.763729338184
 21
200.4438527643177
 31
0.0
  0
LINE
  5
4D38
330
1F
100
AcDbEntity
  8
AM_VIS
100
AcDbLine
 10
1180.463729338184
 20
200.4438527643177
 30
0.0
 11
1181.363729338184
 21
200.4438527643177
 31
0.0
  0
LINE
  5
4D39
330
1F
100
AcDbEntity
  8
AM_VIS
100
AcDbLine
 10
1186.763729338184
 20
200.4438527643177
 30
0.0
 11
1187.663729338184
 21
200.4438527643177
 31
0.0
  0
LINE
  5
4D3A
330
1F
100
AcDbEntity
  8
AM_VIS
100
AcDbLine
 10
1192.363729338184
 20
200.4438527643177
 30
0.0
 11
1192.563729338184
 21
200.4438527643177
 31
0.0
  0
LINE
  5
4D3B
330
1F
100
AcDbEntity
  8
AM_VIS
100
AcDbLine
 10
1174.563729338184
 20
202.9438527643177
 30
0.0
 11
1174.563729338184
 21
201.9438527643177
 31
0.0
  0
LINE
  5
4D3C
330
1F
100
AcDbEntity
  8
AM_VIS
100
AcDbLine
 10
1192.563729338184
 20
202.9438527643177
 30
0.0
 11
1193.563729338184
 21
202.9438527643177
 31
0.0
  0
LINE
  5
4D3D
330
1F
100
AcDbEntity
  8
AM_VIS
100
AcDbLine
 10
1174.563729338184
 20
202.9438527643177
 30
0.0
 11
1175.563729338184
 21
202.9438527643177
 31
0.0
  0
ARC
  5
4D3E
330
1F
100
AcDbEntity
  8
AM_VIS
100
AcDbCircle
 10
1184.063729338184
 20
180.4438527643176
 30
0.0
 40
7.599999999999998
100
AcDbArc
 50
202.0243128370386
 51
226.8016292767565
  0
ARC
  5
4D3F
330
1F
100
AcDbEntity
  8
AM_VIS
100
AcDbCircle
 10
1184.063729338184
 20
180.4438527643176
 30
0.0
 40
7.599999999999998
100
AcDbArc
 50
133.1983707232435
 51
157.9756871629614
  0
ARC
  5
4D40
330
1F
100
AcDbEntity
  8
AM_VIS
100
AcDbCircle
 10
1184.063729338184
 20
180.4438527643176
 30
0.0
 40
7.599999999999998
100
AcDbArc
 50
22.02431283704555
 51
46.80162927674837
  0
ARC
  5
4D41
330
1F
100
AcDbEntity
  8
AM_VIS
100
AcDbCircle
 10
1184.063729338184
 20
180.4438527643176
 30
0.0
 40
7.599999999999998
100
AcDbArc
 50
313.1983707232516
 51
337.9756871629544
  0
LINE
  5
4D42
330
1F
100
AcDbEntity
  8
AM_VIS
100
AcDbLine
 10
1187.263729338184
 20
201.6438527643177
 30
0.0
 11
1187.563729338184
 21
201.3438527643177
 31
0.0
  0
LINE
  5
4D43
102
{ACAD_REACTORS
330
4DA2
102
}
330
1F
100
AcDbEntity
  8
AM_VIS
100
AcDbLine
 10
1187.563729338184
 20
201.3438527643177
 30
0.0
 11
1187.563729338184
 21
200.8438527643177
 31
0.0
  0
LINE
  5
4D44
330
1F
100
AcDbEntity
  8
AM_VIS
100
AcDbLine
 10
1186.563729338184
 20
200.3438527643178
 30
0.0
 11
1187.563729338184
 21
200.8438527643177
 31
0.0
  0
LINE
  5
4D45
330
1F
100
AcDbEntity
  8
AM_VIS
100
AcDbLine
 10
1187.563729338184
 20
199.8438527643177
 30
0.0
 11
1186.563729338184
 21
200.3438527643178
 31
0.0
  0
LINE
  5
4D46
330
1F
100
AcDbEntity
  8
AM_VIS
100
AcDbLine
 10
1187.563729338184
 20
199.8438527643177
 30
0.0
 11
1187.563729338184
 21
197.9438527643176
 31
0.0
  0
LINE
  5
4D47
330
1F
100
AcDbEntity
  8
AM_VIS
100
AcDbLine
 10
1187.563729338184
 20
197.2438527643177
 30
0.0
 11
1187.263729338184
 21
196.9438527643177
 31
0.0
  0
LINE
  5
4D48
330
1F
100
AcDbEntity
  8
AM_VIS
100
AcDbLine
 10
1180.863729338184
 20
196.9438527643177
 30
0.0
 11
1180.563729338184
 21
197.2438527643177
 31
0.0
  0
LINE
  5
4D49
330
1F
100
AcDbEntity
  8
AM_VIS
100
AcDbLine
 10
1180.563729338184
 20
197.9438527643176
 30
0.0
 11
1180.563729338184
 21
199.8438527643177
 31
0.0
  0
LINE
  5
4D4A
330
1F
100
AcDbEntity
  8
AM_VIS
100
AcDbLine
 10
1181.563729338184
 20
200.3438527643178
 30
0.0
 11
1180.563729338184
 21
199.8438527643177
 31
0.0
  0
LINE
  5
4D4B
330
1F
100
AcDbEntity
  8
AM_VIS
100
AcDbLine
 10
1180.563729338184
 20
200.8438527643177
 30
0.0
 11
1181.563729338184
 21
200.3438527643178
 31
0.0
  0
LINE
  5
4D4C
330
1F
100
AcDbEntity
  8
AM_VIS
100
AcDbLine
 10
1180.563729338184
 20
200.8438527643177
 30
0.0
 11
1180.563729338184
 21
201.3438527643177
 31
0.0
  0
LINE
  5
4D4D
330
1F
100
AcDbEntity
  8
AM_VIS
100
AcDbLine
 10
1180.863729338184
 20
201.6438527643177
 30
0.0
 11
1187.263729338184
 21
201.6438527643177
 31
0.0
  0
LINE
  5
4D4E
102
{ACAD_REACTORS
330
4DA2
102
}
330
1F
100
AcDbEntity
  8
AM_VIS
100
AcDbLine
 10
1180.563729338184
 20
201.3438527643177
 30
0.0
 11
1180.863729338184
 21
201.6438527643177
 31
0.0
  0
LINE
  5
4D4F
330
1F
100
AcDbEntity
  8
AM_VIS
100
AcDbLine
 10
1192.363729338184
 20
204.7438527643176
 30
0.0
 11
1192.363729338184
 21
198.2438527643176
 31
0.0
  0
LINE
  5
4D50
330
1F
100
AcDbEntity
  8
AM_VIS
100
AcDbLine
 10
1192.363729338184
 20
198.2438527643176
 30
0.0
 11
1187.663729338184
 21
198.2438527643176
 31
0.0
  0
LINE
  5
4D51
330
1F
100
AcDbEntity
  8
AM_VIS
100
AcDbLine
 10
1180.463729338184
 20
198.2438527643176
 30
0.0
 11
1175.763729338184
 21
198.2438527643176
 31
0.0
  0
LINE
  5
4D52
330
1F
100
AcDbEntity
  8
AM_VIS
100
AcDbLine
 10
1180.463729338184
 20
198.2438527643176
 30
0.0
 11
1180.463729338184
 21
201.7438527643176
 31
0.0
  0
LINE
  5
4D53
330
1F
100
AcDbEntity
  8
AM_VIS
100
AcDbLine
 10
1187.663729338184
 20
201.7438527643176
 30
0.0
 11
1187.663729338184
 21
198.2438527643176
 31
0.0
  0
LINE
  5
4D54
330
1F
100
AcDbEntity
  8
AM_VIS
100
AcDbLine
 10
1180.463729338184
 20
201.7438527643176
 30
0.0
 11
1187.663729338184
 21
201.7438527643176
 31
0.0
  0
LINE
  5
4D55
330
1F
100
AcDbEntity
  8
AM_VIS
100
AcDbLine
 10
1175.763729338184
 20
204.7438527643176
 30
0.0
 11
1192.363729338184
 21
204.7438527643176
 31
0.0
  0
LINE
  5
4D56
330
1F
100
AcDbEntity
  8
AM_VIS
100
AcDbLine
 10
1175.763729338184
 20
198.2438527643176
 30
0.0
 11
1175.763729338184
 21
204.7438527643176
 31
0.0
  0
LINE
  5
4D57
330
1F
100
AcDbEntity
  8
AM_VIS
100
AcDbLine
 10
1192.563729338184
 20
202.9438527643177
 30
0.0
 11
1192.363729338184
 21
202.9438527643177
 31
0.0
  0
LINE
  5
4D58
330
1F
100
AcDbEntity
  8
AM_VIS
100
AcDbLine
 10
1175.763729338184
 20
202.9438527643177
 30
0.0
 11
1175.563729338184
 21
202.9438527643177
 31
0.0
  0
LINE
  5
4D59
330
1F
100
AcDbEntity
  8
AM_VIS
100
AcDbLine
 10
1186.563729338184
 20
204.9438527643177
 30
0.0
 11
1186.563729338184
 21
204.7438527643176
 31
0.0
  0
LINE
  5
4D5A
330
1F
100
AcDbEntity
  8
AM_VIS
100
AcDbLine
 10
1181.563729338184
 20
204.7438527643176
 30
0.0
 11
1181.563729338184
 21
204.9438527643175
 31
0.0
  0
DIMENSION
  5
4D5B
330
1F
100
AcDbEntity
  8
AM_5
100
AcDbDimension
  2
*D5
 10
965.4763999572542
 20
151.9438527643176
 30
0.0
 11
959.9763999572545
 21
154.3938527643176
 31
0.0
 70
    32
 71
     5
 42
10.99999999999954
  3
AM_ISO$0
100
AcDbAlignedDimension
 13
954.4763999572547
 23
168.4438527643176
 33
0.0
 14
965.4763999572542
 24
168.4438527643175
 34
0.0
100
AcDbRotatedDimension
  0
DIMENSION
  5
4D5C
102
{ACAD_XDICTIONARY
360
4D5D
102
}
102
{ACAD_REACTORS
330
4D5E
102
}
330
1F
100
AcDbEntity
  8
AM_5
100
AcDbDimension
  2
*D18
 10
969.9763999572539
 20
143.9438527643176
 30
0.0
 11
959.9763999572539
 21
146.3941972525066
 31
0.0
 70
    32
 71
     5
 42
20.0
  3
AM_ISO$0
100
AcDbAlignedDimension
 13
949.976399957254
 23
163.9438527643178
 33
0.0
 14
969.9763999572539
 24
163.9438527643175
 34
0.0
100
AcDbRotatedDimension
  0
DIMENSION
  5
4D5F
102
{ACAD_XDICTIONARY
360
4D60
102
}
102
{ACAD_REACTORS
330
4D61
102
}
330
1F
100
AcDbEntity
  8
AM_5
100
AcDbDimension
  2
*D19
 10
981.976399957254
 20
189.4438527643176
 30
0.0
 11
979.5260554690649
 21
200.1938527643178
 31
0.0
 70
    32
 71
     5
 42
21.5
  3
AM_ISO$0
100
AcDbAlignedDimension
 13
969.4763999572542
 23
210.9438527643177
 33
0.0
 14
968.4763999572544
 24
189.4438527643176
 34
0.0
 50
90.0
100
AcDbRotatedDimension
  0
DIMENSION
  5
4D62
330
1F
100
AcDbEntity
  8
AM_5
100
AcDbDimension
  2
*D6
 10
981.976399957254
 20
171.4438527643176
 30
0.0
 11
979.5263999572538
 21
180.4438527643178
 31
0.0
 70
    32
 71
     5
 42
18.0
  3
AM_ISO$0
100
AcDbAlignedDimension
 13
968.4763999572544
 23
189.4438527643176
 33
0.0
 14
968.4763999572544
 24
171.4438527643176
 34
0.0
 50
90.0
100
AcDbRotatedDimension
  0
DIMENSION
  5
4D63
102
{ACAD_XDICTIONARY
360
4D64
102
}
102
{ACAD_REACTORS
330
4D65
102
}
330
1F
100
AcDbEntity
  8
AM_5
100
AcDbDimension
  2
*D20
 10
989.976399957254
 20
210.9438527643177
 30
0.0
 11
987.5263999572538
 21
187.9438527643178
 31
0.0
 70
    32
 71
     5
 42
46.0
  3
AM_ISO$0
100
AcDbAlignedDimension
 13
969.4763999572543
 23
164.9438527643176
 33
0.0
 14
969.4763999572543
 24
210.9438527643177
 34
0.0
 50
90.0
100
AcDbRotatedDimension
  0
DIMENSION
  5
4D66
102
{ACAD_XDICTIONARY
360
4D67
102
}
102
{ACAD_REACTORS
330
4D68
102
}
330
1F
100
AcDbEntity
  8
AM_5
100
AcDbDimension
  2
*D21
 10
997.976399957254
 20
210.9438527643177
 30
0.0
 11
995.5263999572538
 21
187.4438527643177
 31
0.0
 70
    32
 71
     5
 42
47.00000000000011
  3
AM_ISO$0
100
AcDbAlignedDimension
 13
969.9763999572539
 23
163.9438527643175
 33
0.0
 14
969.4763999572542
 24
210.9438527643177
 34
0.0
 50
90.0
100
AcDbRotatedDimension
  0
DIMENSION
  5
4D69
330
1F
100
AcDbEntity
  8
AM_5
100
AcDbDimension
  2
*D7
 10
1015.135130867759
 20
263.6311030084454
 30
0.0
 11
1012.685130867758
 21
269.1311030084456
 31
0.0
 70
    32
 71
     5
 42
11.0
  3
AM_ISO$0
100
AcDbAlignedDimension
 13
1035.135130867758
 23
274.6311030084454
 33
0.0
 14
1035.135130867758
 24
263.6311030084454
 34
0.0
 50
90.0
100
AcDbRotatedDimension
  0
DIMENSION
  5
4D6A
102
{ACAD_XDICTIONARY
360
4D6B
102
}
102
{ACAD_REACTORS
330
4D6C
102
}
330
1F
100
AcDbEntity
  8
AM_5
100
AcDbDimension
  2
*D22
 10
1007.135130867759
 20
259.631103008445
 30
0.0
 11
1004.685130867758
 21
269.1311030084453
 31
0.0
 70
    32
 71
     5
 42
19.00000000000023
  3
AM_ISO$0
100
AcDbAlignedDimension
 13
1027.135130867758
 23
278.6311030084453
 33
0.0
 14
1027.135130867758
 24
259.631103008445
 34
0.0
 50
90.0
100
AcDbRotatedDimension
  0
DIMENSION
  5
4D6D
102
{ACAD_XDICTIONARY
360
4D6E
102
}
102
{ACAD_REACTORS
330
4D6F
102
}
330
1F
100
AcDbEntity
  8
AM_5
100
AcDbDimension
  2
*D23
 10
1106.135130867759
 20
291.1311030084455
 30
0.0
 11
1066.635130867759
 21
293.5811030084455
 31
0.0
 70
    32
  1
L1
 71
     5
 42
79.0
  3
AM_ISO$0
100
AcDbAlignedDimension
 13
1027.135130867758
 23
278.631103008445
 33
0.0
 14
1106.135130867759
 24
278.631103008445
 34
0.0
100
AcDbRotatedDimension
  0
DIMENSION
  5
4D70
102
{ACAD_XDICTIONARY
360
4D71
102
}
102
{ACAD_REACTORS
330
4D72
102
}
330
1F
100
AcDbEntity
  8
AM_5
100
AcDbDimension
  2
*D24
 10
1038.135130867759
 20
247.1311030084455
 30
0.0
 11
1032.635130867759
 21
249.5811030084455
 31
0.0
 70
    32
 71
     5
 42
11.0
  3
AM_ISO$0
100
AcDbAlignedDimension
 13
1027.135130867758
 23
259.631103008445
 33
0.0
 14
1038.135130867759
 24
260.6311030084455
 34
0.0
100
AcDbRotatedDimension
  0
DIMENSION
  5
4D73
330
1F
100
AcDbEntity
  8
AM_5
100
AcDbDimension
  2
*D8
 10
1058.135130867759
 20
247.1311030084455
 30
0.0
 11
1048.135130867759
 21
249.5814474966345
 31
0.0
 70
    32
  1
L2
 71
     5
 42
20.0
  3
AM_ISO$0
100
AcDbAlignedDimension
 13
1038.135130867759
 23
260.6311030084455
 33
0.0
 14
1058.135130867759
 24
258.9811030084454
 34
0.0
100
AcDbRotatedDimension
  0
DIMENSION
  5
4D74
330
1F
100
AcDbEntity
  8
AM_5
100
AcDbDimension
  2
*D9
 10
1078.135130867758
 20
247.1311030084455
 30
0.0
 11
1068.135130867759
 21
249.5811030084455
 31
0.0
 70
    32
  1
L3
 71
     5
 42
20.0
  3
AM_ISO$0
100
AcDbAlignedDimension
 13
1058.135130867759
 23
260.6311030084455
 33
0.0
 14
1078.135130867758
 24
260.6311030084452
 34
0.0
100
AcDbRotatedDimension
  0
MTEXT
  5
4D75
330
1F
100
AcDbEntity
  8
AM_5
100
AcDbMText
 10
1088.265326984706
 20
253.0950404329438
 30
0.0
 40
3.5
 41
0.0
 71
     1
 72
     1
  1
N-M4*0.7x5.8depth max.
 73
     1
 44
1.0
1001
ACAD
1000
MTEXTBEGIN
1070
    73
1070
     1
1070
    44
1040
1.0
1070
    74
1070
     0
1000
MTEXTEND
  0
MTEXT
  5
4D76
330
1F
100
AcDbEntity
  8
AM_5
100
AcDbMText
 10
960.2501421494309
 20
219.4997626750566
 30
0.0
 40
3.5
 41
0.0
 71
     7
 72
     1
  1
4-M4*0.7x7.5depth
 73
     1
 44
1.0
1001
ACAD
1000
MTEXTBEGIN
1070
    73
1070
     1
1070
    44
1040
1.0
1070
    74
1070
     0
1000
MTEXTEND
  0
DIMENSION
  5
4D77
102
{ACAD_XDICTIONARY
360
4D78
102
}
102
{ACAD_REACTORS
330
4D79
102
}
330
1F
100
AcDbEntity
  8
AM_5
100
AcDbDimension
  2
*D25
 10
1015.135130867759
 20
202.9438527643177
 30
0.0
 11
1012.685130867758
 21
206.9438527643178
 31
0.0
 70
    32
 71
     5
 42
8.0
  3
AM_ISO$0
100
AcDbAlignedDimension
 13
1027.135130867758
 23
210.9438527643177
 33
0.0
 14
1038.135130867759
 24
202.9438527643177
 34
0.0
 50
90.0
100
AcDbRotatedDimension
  0
DIMENSION
  5
4D7A
330
1F
100
AcDbEntity
  8
AM_5
100
AcDbDimension
  2
*D10
 10
1015.135130867759
 20
168.9438527643176
 30
0.0
 11
1012.68478637957
 21
180.4438527643178
 31
0.0
 70
    32
 71
     5
 42
23.0
  3
AM_ISO$0
100
AcDbAlignedDimension
 13
1038.885130867758
 23
191.9438527643176
 33
0.0
 14
1039.885130867759
 24
168.9438527643176
 34
0.0
 50
90.0
100
AcDbRotatedDimension
  0
DIMENSION
  5
4D7B
102
{ACAD_XDICTIONARY
360
4D7C
102
}
102
{ACAD_REACTORS
330
4D7D
102
}
330
1F
100
AcDbEntity
  8
AM_5
100
AcDbDimension
  2
*D26
 10
1015.135130867759
 20
163.9438527643175
 30
0.0
 11
1012.685130867758
 21
166.4438527643177
 31
0.0
 70
    32
 71
     5
 42
5.000000000000113
  3
AM_ISO$0
100
AcDbAlignedDimension
 13
1038.635130867759
 23
168.9438527643176
 33
0.0
 14
1038.635130867759
 24
163.9438527643175
 34
0.0
 50
90.0
100
AcDbRotatedDimension
  0
DIMENSION
  5
4D7E
102
{ACAD_XDICTIONARY
360
4D7F
102
}
102
{ACAD_REACTORS
330
4D80
102
}
330
1F
100
AcDbEntity
  8
AM_5
100
AcDbDimension
  2
*D27
 10
1034.635130867759
 20
149.0540455273331
 30
0.0
 11
1030.885130867758
 21
151.5040455273331
 31
0.0
 70
    32
 71
     5
 42
7.5
  3
AM_ISO$0
100
AcDbAlignedDimension
 13
1027.135130867758
 23
164.9438527643176
 33
0.0
 14
1034.635130867759
 24
164.9438527643176
 34
0.0
100
AcDbRotatedDimension
1001
ACAD
1000
DSTYLE
1002
{
1070
   173
1070
     1
1070
   174
1070
     1
1070
   344
1005
4259
1002
}
  0
DIMENSION
  5
4D81
102
{ACAD_XDICTIONARY
360
4D82
102
}
102
{ACAD_REACTORS
330
4D83
102
}
330
1F
100
AcDbEntity
  8
AM_5
100
AcDbDimension
  2
*D28
 10
1038.635130867759
 20
141.0540455273331
 30
0.0
 11
1032.885130867759
 21
143.5040455273331
 31
0.0
 70
    32
 71
     5
 42
11.5
  3
AM_ISO$0
100
AcDbAlignedDimension
 13
1027.135130867758
 23
164.9438527643176
 33
0.0
 14
1038.635130867759
 24
163.9438527643175
 34
0.0
100
AcDbRotatedDimension
  0
DIMENSION
  5
4D84
102
{ACAD_XDICTIONARY
360
4D85
102
}
102
{ACAD_REACTORS
330
4D86
102
}
330
1F
100
AcDbEntity
  8
AM_5
100
AcDbDimension
  2
*D29
 10
1113.635130867759
 20
141.0540455273331
 30
0.0
 11
1076.135130867759
 21
143.5040455273331
 31
0.0
 70
    32
  1
35+stroke
 71
     5
 42
75.0
  3
AM_ISO$0
100
AcDbAlignedDimension
 13
1038.635130867759
 23
163.9438527643175
 33
0.0
 14
1113.635130867759
 24
163.9438527643175
 34
0.0
100
AcDbRotatedDimension
  0
DIMENSION
  5
4D87
102
{ACAD_XDICTIONARY
360
4D88
102
}
102
{ACAD_REACTORS
330
4D89
102
}
330
1F
100
AcDbEntity
  8
AM_5
100
AcDbDimension
  2
*D30
 10
1043.635130867759
 20
149.0540455273331
 30
0.0
 11
1041.135130867758
 21
151.5040455273331
 31
0.0
 70
    32
 71
     5
 42
5.0
  3
AM_ISO$0
100
AcDbAlignedDimension
 13
1038.635130867759
 23
163.9438527643175
 33
0.0
 14
1043.635130867759
 24
164.1938527643176
 34
0.0
100
AcDbRotatedDimension
1001
ACAD
1000
DSTYLE
1002
{
1070
   173
1070
     1
1070
   174
1070
     1
1070
   343
1005
4259
1002
}
  0
DIMENSION
  5
4D8A
330
1F
100
AcDbEntity
  8
AM_5
100
AcDbDimension
  2
*D11
 10
1088.635130867759
 20
149.0540455273331
 30
0.0
 11
1066.135130867759
 21
151.5040455273331
 31
0.0
 70
    32
  1
C
 71
     5
 42
45.0
  3
AM_ISO$0
100
AcDbAlignedDimension
 13
1043.635130867759
 23
163.9438527643176
 33
0.0
 14
1088.635130867759
 24
187.1438527643177
 34
0.0
100
AcDbRotatedDimension
  0
DIMENSION
  5
4D8B
102
{ACAD_XDICTIONARY
360
4D8C
102
}
102
{ACAD_REACTORS
330
4D8D
102
}
330
1F
100
AcDbEntity
  8
AM_5
100
AcDbDimension
  2
*D31
 10
1113.635130867759
 20
149.0540455273331
 30
0.0
 11
1107.385130867759
 21
151.5043900155221
 31
0.0
 70
    32
 71
     5
 42
12.5
  3
AM_ISO$0
100
AcDbAlignedDimension
 13
1101.135130867759
 23
166.9438527643176
 33
0.0
 14
1113.635130867759
 24
163.9438527643175
 34
0.0
100
AcDbRotatedDimension
  0
DIMENSION
  5
4D8E
102
{ACAD_XDICTIONARY
360
4D8F
102
}
102
{ACAD_REACTORS
330
4D90
102
}
330
1F
100
AcDbEntity
  8
AM_5
100
AcDbDimension
  2
*D32
 10
1113.635130867759
 20
133.0540455273331
 30
0.0
 11
1070.385130867759
 21
135.5040455273331
 31
0.0
 70
    32
  1
46.5+stroke
 71
     5
 42
86.5
  3
AM_ISO$0
100
AcDbAlignedDimension
 13
1027.135130867758
 23
164.9438527643176
 33
0.0
 14
1113.635130867759
 24
163.9438527643175
 34
0.0
100
AcDbRotatedDimension
  0
MTEXT
  5
4D91
330
1F
100
AcDbEntity
  8
AM_5
100
AcDbMText
 10
1063.008478934171
 20
228.818707634153
 30
0.0
 40
3.5
 41
0.0
 71
     7
 72
     1
  1
3-M5*0.8thru
 73
     1
 44
1.0
1001
ACAD
1000
MTEXTBEGIN
1070
    73
1070
     1
1070
    44
1040
1.0
1070
    74
1070
     0
1000
MTEXTEND
  0
MTEXT
  5
4D92
330
1F
100
AcDbEntity
  8
AM_5
100
AcDbMText
 10
1063.376562207781
 20
223.5176501472272
 30
0.0
 40
3.5
 41
0.0
 71
     7
 72
     1
  1
bottom hole dia.%%C4.3
 73
     1
 44
1.0
1001
ACAD
1000
MTEXTBEGIN
1070
    73
1070
     1
1070
    44
1040
1.0
1070
    74
1070
     0
1000
MTEXTEND
  0
MTEXT
  5
4D93
330
1F
100
AcDbEntity
  8
AM_5
100
AcDbMText
 10
1063.225897108455
 20
217.7720357117221
 30
0.0
 40
3.5
 41
0.0
 71
     7
 72
     1
  1
2*3-%%C7.5x4.4depth
 73
     1
 44
1.0
1001
ACAD
1000
MTEXTBEGIN
1070
    73
1070
     1
1070
    44
1040
1.0
1070
    74
1070
     0
1000
MTEXTEND
  0
DIMENSION
  5
4D94
330
1F
100
AcDbEntity
  8
AM_5
100
AcDbDimension
  2
*D12
 10
1125.635130867759
 20
170.4438527643176
 30
0.0
 11
1123.18478637957
 21
180.4438527643178
 31
0.0
 70
    32
 71
     5
 42
20.0
  3
AM_ISO$0
100
AcDbAlignedDimension
 13
1104.635130867759
 23
190.4438527643176
 33
0.0
 14
1105.635130867758
 24
170.4438527643176
 34
0.0
 50
90.0
100
AcDbRotatedDimension
  0
DIMENSION
  5
4D95
102
{ACAD_XDICTIONARY
360
4D96
102
}
102
{ACAD_REACTORS
330
4D97
102
}
330
1F
100
AcDbEntity
  8
AM_5
100
AcDbDimension
  2
*D33
 10
1125.635130867759
 20
163.9438527643176
 30
0.0
 11
1125.635130867759
 21
167.1938527643178
 31
0.0
 70
   160
 71
     5
 42
6.5
  3
AM_ISO$0
100
AcDbAlignedDimension
 13
1104.635130867759
 23
170.4438527643176
 33
0.0
 14
1113.635130867759
 24
163.9438527643176
 34
0.0
 50
90.0
100
AcDbRotatedDimension
  0
MTEXT
  5
4D98
330
1F
100
AcDbEntity
  8
AM_5
100
AcDbMText
 10
1113.484137989257
 20
215.3779591313249
 30
0.0
 40
3.5
 41
0.0
 71
     7
 72
     1
  1
2*2-M5*0.8*4depth
 73
     1
 44
1.0
1001
ACAD
1000
MTEXTBEGIN
1070
    73
1070
     1
1070
    44
1040
1.0
1070
    74
1070
     0
1000
MTEXTEND
  0
DIMENSION
  5
4D9A
330
1F
100
AcDbEntity
  8
AM_5
100
AcDbDimension
  2
*D13
 10
1016.684154982181
 20
90.78233125918293
 30
0.0
 11
1014.234154982181
 21
97.28233125918311
 31
0.0
 70
    32
 71
     5
 42
13.0
  3
AM_ISO$0
100
AcDbAlignedDimension
 13
1048.635130867759
 23
103.7823312591829
 33
0.0
 14
1048.635130867759
 24
90.78233125918293
 34
0.0
 50
90.0
100
AcDbRotatedDimension
  0
DIMENSION
  5
4D9B
102
{ACAD_XDICTIONARY
360
4D9C
102
}
102
{ACAD_REACTORS
330
4D9D
102
}
330
1F
100
AcDbEntity
  8
AM_5
100
AcDbDimension
  2
*D34
 10
1050.635130867759
 20
114.686067030026
 30
0.0
 11
1044.635130867759
 21
117.136411518215
 31
0.0
 70
    32
 71
     5
 42
12.0
  3
AM_ISO$0
100
AcDbAlignedDimension
 13
1038.635130867759
 23
107.2823312591829
 33
0.0
 14
1050.635130867759
 24
108.4323312591829
 34
0.0
100
AcDbRotatedDimension
  0
DIMENSION
  5
4D9E
330
1F
100
AcDbEntity
  8
AM_5
100
AcDbDimension
  2
*D14
 10
1095.635130867758
 20
114.686067030026
 30
0.0
 11
1073.135130867759
 21
117.1360670300261
 31
0.0
 70
    32
  1
5+stroke
 71
     5
 42
45.0
  3
AM_ISO$0
100
AcDbAlignedDimension
 13
1050.635130867759
 23
105.7823312591829
 33
0.0
 14
1095.635130867758
 24
105.7823312591829
 34
0.0
100
AcDbRotatedDimension
  0
MTEXT
  5
4D9F
330
1F
100
AcDbEntity
  8
AM_5
100
AcDbMText
 10
1105.253700856787
 20
115.3520921028268
 30
0.0
 40
3.5
 41
0.0
 71
     7
 72
     1
  1
4-M4*0.7x6depth
 73
     1
 44
1.0
1001
ACAD
1000
MTEXTBEGIN
1070
    73
1070
     1
1070
    44
1040
1.0
1070
    74
1070
     0
1000
MTEXTEND
  0
DIMENSION
  5
4DA0
102
{ACAD_XDICTIONARY
360
4DA1
102
}
102
{ACAD_REACTORS
330
4DA2
102
}
330
1F
100
AcDbEntity
  8
AM_5
100
AcDbDimension
  2
*D35
 10
1187.563729338184
 20
219.9768390095028
 30
0.0
 11
1212.177155789923
 21
222.9277654612412
 31
0.0
 70
    32
  1
guied rail width=<>
 71
     5
 42
7.0
  3
AM_ISO$0
100
AcDbAlignedDimension
 13
1180.563729338184
 23
201.3438527643177
 33
0.0
 14
1187.563729338184
 24
201.3438527643177
 34
0.0
100
AcDbRotatedDimension
  0
DIMENSION
  5
4DA3
330
1F
100
AcDbEntity
  8
AM_5
100
AcDbDimension
  2
*D15
 10
1162.063729338184
 20
168.9438527643176
 30
0.0
 11
1159.613384849995
 21
180.4438527643178
 31
0.0
 70
    32
 71
     5
 42
23.0
  3
AM_ISO$0
100
AcDbAlignedDimension
 13
1174.563729338184
 23
191.9438527643176
 33
0.0
 14
1174.563729338184
 24
168.9438527643176
 34
0.0
 50
90.0
100
AcDbRotatedDimension
  0
DIMENSION
  5
4DA4
102
{ACAD_XDICTIONARY
360
4DA5
102
}
102
{ACAD_REACTORS
330
4DA6
102
}
330
1F
100
AcDbEntity
  8
AM_5
100
AcDbDimension
  2
*D36
 10
1162.063729338184
 20
163.9438527643175
 30
0.0
 11
1159.613729338184
 21
166.4438527643178
 31
0.0
 70
    32
 71
     5
 42
5.000000000000113
  3
AM_ISO$0
100
AcDbAlignedDimension
 13
1174.563729338184
 23
168.9438527643176
 33
0.0
 14
1174.063729338184
 24
163.9438527643175
 34
0.0
 50
90.0
100
AcDbRotatedDimension
  0
DIMENSION
  5
4DA7
330
1F
100
AcDbEntity
  8
AM_5
100
AcDbDimension
  2
*D16
 10
1206.063729338184
 20
170.4438527643176
 30
0.0
 11
1203.613384849995
 21
180.4438527643178
 31
0.0
 70
    32
 71
     5
 42
20.0
  3
AM_ISO$0
100
AcDbAlignedDimension
 13
1187.563729338184
 23
190.4438527643176
 33
0.0
 14
1187.563729338184
 24
170.4438527643176
 34
0.0
 50
90.0
100
AcDbRotatedDimension
  0
DIMENSION
  5
4DA8
102
{ACAD_XDICTIONARY
360
4DA9
102
}
102
{ACAD_REACTORS
330
4DAA
102
}
330
1F
100
AcDbEntity
  8
AM_5
100
AcDbDimension
  2
*D37
 10
1206.063729338184
 20
163.9438527643178
 30
0.0
 11
1206.063729338184
 21
167.1938527643179
 31
0.0
 70
   160
 71
     5
 42
6.499999999999886
  3
AM_ISO$0
100
AcDbAlignedDimension
 13
1187.563729338184
 23
170.4438527643176
 33
0.0
 14
1194.063729338184
 24
163.9438527643178
 34
0.0
 50
90.0
100
AcDbRotatedDimension
  0
DIMENSION
  5
4DAB
330
1F
100
AcDbEntity
  8
AM_5
100
AcDbDimension
  2
*D17
 10
1190.563729338184
 20
151.9438527643176
 30
0.0
 11
1184.063729338184
 21
154.3938527643176
 31
0.0
 70
    32
 71
     5
 42
13.0
  3
AM_ISO$0
100
AcDbAlignedDimension
 13
1177.563729338184
 23
165.9438527643176
 33
0.0
 14
1190.563729338184
 24
165.9438527643176
 34
0.0
100
AcDbRotatedDimension
  0
MTEXT
  5
4DAC
330
1F
100
AcDbEntity
  8
AM_5
100
AcDbMText
 10
1132.87670434056
 20
200.1000015788913
 30
0.0
 40
3.5
 41
0.0
 71
     7
 72
     1
  1
4-M4*0.7x6depth
 73
     1
 44
1.0
1001
ACAD
1000
MTEXTBEGIN
1070
    73
1070
     1
1070
    44
1040
1.0
1070
    74
1070
     0
1000
MTEXTEND
  0
MTEXT
  5
4DAD
330
1F
100
AcDbEntity
  8
AM_5
100
AcDbMText
 10
1198.955867238773
 20
203.6427812684629
 30
0.0
 40
3.5
 41
0.0
 71
     7
 72
     1
  1
2-M5*0.8
 73
     1
 44
1.0
1001
ACAD
1000
MTEXTBEGIN
1070
    73
1070
     1
1070
    44
1040
1.0
1070
    74
1070
     0
1000
MTEXTEND
  0
LINE
  5
4DAE
330
1F
100
AcDbEntity
  8
DIM2
100
AcDbLine
 10
1160.531224000057
 20
99.02399688492941
 30
0.0
 11
1218.851224000057
 21
99.02399688492948
 31
0.0
  0
LINE
  5
4DAF
330
1F
100
AcDbEntity
  8
DIM2
100
AcDbLine
 10
1160.531224000057
 20
140.4959968849294
 30
0.0
 11
1218.851224000057
 21
140.4959968849294
 31
0.0
  0
LINE
  5
4DB0
330
1F
100
AcDbEntity
  8
DIM2
100
AcDbLine
 10
1160.531224000057
 20
104.2079968849294
 30
0.0
 11
1218.851224000057
 21
104.2079968849294
 31
0.0
  0
LINE
  5
4DB1
330
1F
100
AcDbEntity
  8
DIM2
100
AcDbLine
 10
1160.531224000057
 20
109.3919968849294
 30
0.0
 11
1218.851224000057
 21
109.3919968849294
 31
0.0
  0
LINE
  5
4DB2
330
1F
100
AcDbEntity
  8
DIM2
100
AcDbLine
 10
1160.531224000057
 20
114.5759968849294
 30
0.0
 11
1218.851224000057
 21
114.5759968849294
 31
0.0
  0
LINE
  5
4DB3
330
1F
100
AcDbEntity
  8
DIM2
100
AcDbLine
 10
1160.531224000057
 20
119.7599968849295
 30
0.0
 11
1218.851224000057
 21
119.7599968849295
 31
0.0
  0
LINE
  5
4DB4
330
1F
100
AcDbEntity
  8
DIM2
100
AcDbLine
 10
1160.531224000057
 20
124.9439968849294
 30
0.0
 11
1218.851224000057
 21
124.9439968849294
 31
0.0
  0
LINE
  5
4DB5
330
1F
100
AcDbEntity
  8
DIM2
100
AcDbLine
 10
1160.531224000057
 20
130.1279968849295
 30
0.0
 11
1218.851224000057
 21
130.1279968849295
 31
0.0
  0
LINE
  5
4DB6
330
1F
100
AcDbEntity
  8
DIM2
100
AcDbLine
 10
1160.531224000057
 20
140.4959968849294
 30
0.0
 11
1160.531224000057
 21
83.47199688492949
 31
0.0
  0
LINE
  5
4DB7
330
1F
100
AcDbEntity
  8
DIM2
100
AcDbLine
 10
1170.251224000057
 20
140.4959968849294
 30
0.0
 11
1170.251224000057
 21
83.47199688492949
 31
0.0
  0
TEXT
  5
4DB8
330
1F
100
AcDbEntity
  8
DIM2
100
AcDbText
 10
1163.712595428628
 20
105.5039968849294
 30
0.0
 40
2.592
  1
25
 41
0.8
  7
dayus
 72
     4
 11
1165.391224000057
 21
106.7999968849294
 31
0.0
100
AcDbText
  0
TEXT
  5
4DB9
330
1F
100
AcDbEntity
  8
DIM2
100
AcDbText
 10
1163.712595428628
 20
100.3199968849295
 30
0.0
 40
2.592
  1
30
 41
0.8
  7
dayus
 72
     4
 11
1165.391224000057
 21
101.6159968849295
 31
0.0
100
AcDbText
  0
TEXT
  5
4DBA
330
1F
100
AcDbEntity
  8
DIM2
100
AcDbText
 10
1163.712595428628
 20
110.6879968849294
 30
0.0
 40
2.592
  1
20
 41
0.8
  7
dayus
 72
     4
 11
1165.391224000057
 21
111.9839968849294
 31
0.0
100
AcDbText
  0
TEXT
  5
4DBB
330
1F
100
AcDbEntity
  8
DIM2
100
AcDbText
 10
1163.910081142914
 20
115.8719968849294
 30
0.0
 40
2.592
  1
15
 41
0.8
  7
dayus
 72
     4
 11
1165.391224000057
 21
117.1679968849294
 31
0.0
100
AcDbText
  0
TEXT
  5
4DBC
330
1F
100
AcDbEntity
  8
DIM2
100
AcDbText
 10
1161.130210113169
 20
134.2375156397313
 30
0.0
 40
2.2
  1
stroke
 41
0.8
  7
CHINESET
 72
     4
 11
1164.985448208407
 21
135.3375156397313
 31
0.0
100
AcDbText
  0
TEXT
  5
4DBD
330
1F
100
AcDbEntity
  8
DIM2
100
AcDbText
 10
1164.700024000057
 20
126.2399968849294
 30
0.0
 40
2.592
  1
5
 41
0.8
  7
dayus
 72
     4
 11
1165.391224000057
 21
127.5359968849294
 31
0.0
100
AcDbText
  0
TEXT
  5
4DBE
330
1F
100
AcDbEntity
  8
DIM2
100
AcDbText
 10
1163.910081142914
 20
121.0559968849294
 30
0.0
 40
2.592
  1
10
 41
0.8
  7
dayus
 72
     4
 11
1165.391224000057
 21
122.3519968849294
 31
0.0
100
AcDbText
  0
LINE
  5
4DBF
330
1F
100
AcDbEntity
  8
DIM2
100
AcDbLine
 10
1179.971224000057
 20
140.4959968849294
 30
0.0
 11
1179.971224000057
 21
83.47199688492949
 31
0.0
  0
LINE
  5
4DC0
330
1F
100
AcDbEntity
  8
DIM2
100
AcDbLine
 10
1160.531224000057
 20
83.47199688492949
 30
0.0
 11
1218.851224000057
 21
83.47199688492949
 31
0.0
  0
LINE
  5
4DC1
330
1F
100
AcDbEntity
  8
DIM2
100
AcDbLine
 10
1160.531224000057
 20
88.65599688492952
 30
0.0
 11
1218.851224000057
 21
88.65599688492952
 31
0.0
  0
LINE
  5
4DC2
330
1F
100
AcDbEntity
  8
DIM2
100
AcDbLine
 10
1160.531224000057
 20
93.83999688492954
 30
0.0
 11
1218.851224000057
 21
93.83999688492947
 31
0.0
  0
TEXT
  5
4DC3
330
1F
100
AcDbEntity
  8
DIM2
100
AcDbText
 10
1163.712595428628
 20
89.95199688492943
 30
0.0
 40
2.592
  1
50
 41
0.8
  7
dayus
 72
     4
 11
1165.391224000057
 21
91.24799688492945
 31
0.0
100
AcDbText
  0
TEXT
  5
4DC4
330
1F
100
AcDbEntity
  8
DIM2
100
AcDbText
 10
1163.712595428628
 20
84.76799688492942
 30
0.0
 40
2.592
  1
60
 41
0.8
  7
dayus
 72
     4
 11
1165.391224000057
 21
86.06399688492942
 31
0.0
100
AcDbText
  0
TEXT
  5
4DC5
330
1F
100
AcDbEntity
  8
DIM2
100
AcDbText
 10
1163.712595428628
 20
95.13599688492947
 30
0.0
 40
2.592
  1
40
 41
0.8
  7
dayus
 72
     4
 11
1165.391224000057
 21
96.43199688492948
 31
0.0
100
AcDbText
  0
LINE
  5
4DC6
330
1F
100
AcDbEntity
  8
DIM2
100
AcDbLine
 10
1209.131224000057
 20
140.4959968849294
 30
0.0
 11
1209.131224000057
 21
83.47199688492949
 31
0.0
  0
TEXT
  5
4DC7
330
1F
100
AcDbEntity
  8
DIM2
100
AcDbText
 10
1174.283365703486
 20
134.0159968849294
 30
0.0
 40
2.592
  1
C
  7
dayus
 72
     4
 11
1175.2090799892
 21
135.3119968849294
 31
0.0
100
AcDbText
  0
TEXT
  5
4DC8
330
1F
100
AcDbEntity
  8
DIM2
100
AcDbText
 10
1202.455937132058
 20
134.0159968849294
 30
0.0
 40
2.592
  1
L3
  7
dayus
 72
     4
 11
1204.369079989201
 21
135.3119968849294
 31
0.0
100
AcDbText
  0
TEXT
  5
4DC9
330
1F
100
AcDbEntity
  8
DIM2
100
AcDbText
 10
1183.571365703486
 20
134.0159968849294
 30
0.0
 40
2.592
  1
L1
  7
dayus
 72
     4
 11
1184.929079989201
 21
135.3119968849294
 31
0.0
100
AcDbText
  0
TEXT
  5
4DCA
330
1F
100
AcDbEntity
  8
DIM2
100
AcDbText
 10
1192.735937132058
 20
134.0159968849294
 30
0.0
 40
2.592
  1
L2
  7
dayus
 72
     4
 11
1194.649079989201
 21
135.3119968849294
 31
0.0
100
AcDbText
  0
LINE
  5
4DCB
330
1F
100
AcDbEntity
  8
DIM2
100
AcDbLine
 10
1218.851224000057
 20
140.4959968849294
 30
0.0
 11
1218.851224000057
 21
83.47199688492949
 31
0.0
  0
TEXT
  5
4DCC
330
1F
100
AcDbEntity
  8
DIM2
100
AcDbText
 10
1213.225079989201
 20
134.0159968849294
 30
0.0
 40
2.592
  1
N
  7
dayus
 72
     4
 11
1214.089079989201
 21
135.3119968849294
 31
0.0
100
AcDbText
  0
TEXT
  5
4DCD
330
1F
100
AcDbEntity
  8
DIM2
100
AcDbText
 10
1203.382538285771
 20
100.5051397420723
 30
0.0
 40
2.592
  1
-
 41
0.8
  7
dayus
 72
     4
 11
1204.271224000057
 21
101.6159968849295
 31
0.0
100
AcDbText
  0
LINE
  5
4DCE
330
1F
100
AcDbEntity
  8
DIM2
100
AcDbLine
 10
1189.691224000057
 20
140.4959968849294
 30
0.0
 11
1189.691224000057
 21
83.47199688492949
 31
0.0
  0
LINE
  5
4DCF
330
1F
100
AcDbEntity
  8
DIM2
100
AcDbLine
 10
1199.411224000057
 20
140.4959968849294
 30
0.0
 11
1199.411224000057
 21
83.47199688492949
 31
0.0
  0
TEXT
  5
4DD0
330
1F
100
AcDbEntity
  8
DIM2
100
AcDbText
 10
1183.2019668572
 20
105.5039968849294
 30
0.0
 40
2.592
  1
69
 41
0.8
  7
dayus
 72
     4
 11
1184.831224000057
 21
106.7999968849294
 31
0.0
100
AcDbText
  0
TEXT
  5
4DD1
330
1F
100
AcDbEntity
  8
DIM2
100
AcDbText
 10
1183.2019668572
 20
115.8719968849294
 30
0.0
 40
2.592
  1
59
 41
0.8
  7
dayus
 72
     4
 11
1184.831224000057
 21
117.1679968849294
 31
0.0
100
AcDbText
  0
TEXT
  5
4DD2
330
1F
100
AcDbEntity
  8
DIM2
100
AcDbText
 10
1183.2019668572
 20
126.2399968849294
 30
0.0
 40
2.592
  1
49
 41
0.8
  7
dayus
 72
     4
 11
1184.831224000057
 21
127.5359968849294
 31
0.0
100
AcDbText
  0
TEXT
  5
4DD3
330
1F
100
AcDbEntity
  8
DIM2
100
AcDbText
 10
1183.2019668572
 20
89.95199688492943
 30
0.0
 40
2.592
  1
89
 41
0.8
  7
dayus
 72
     4
 11
1184.831224000057
 21
91.24799688492945
 31
0.0
100
AcDbText
  0
TEXT
  5
4DD4
330
1F
100
AcDbEntity
  8
DIM2
100
AcDbText
 10
1183.2019668572
 20
84.76799688492942
 30
0.0
 40
2.592
  1
99
 41
0.8
  7
dayus
 72
     4
 11
1184.831224000057
 21
86.06399688492942
 31
0.0
100
AcDbText
  0
TEXT
  5
4DD5
330
1F
100
AcDbEntity
  8
DIM2
100
AcDbText
 10
1183.2019668572
 20
95.13599688492947
 30
0.0
 40
2.592
  1
79
 41
0.8
  7
dayus
 72
     4
 11
1184.831224000057
 21
96.43199688492948
 31
0.0
100
AcDbText
  0
TEXT
  5
4DD6
330
1F
100
AcDbEntity
  8
DIM2
100
AcDbText
 10
1192.872595428628
 20
105.5039968849294
 30
0.0
 40
2.592
  1
30
 41
0.8
  7
dayus
 72
     4
 11
1194.551224000057
 21
106.7999968849294
 31
0.0
100
AcDbText
  0
TEXT
  5
4DD7
330
1F
100
AcDbEntity
  8
DIM2
100
AcDbText
 10
1192.872595428628
 20
115.8719968849294
 30
0.0
 40
2.592
  1
20
 41
0.8
  7
dayus
 72
     4
 11
1194.551224000057
 21
117.1679968849294
 31
0.0
100
AcDbText
  0
TEXT
  5
4DD8
330
1F
100
AcDbEntity
  8
DIM2
100
AcDbText
 10
1193.070081142914
 20
126.2399968849294
 30
0.0
 40
2.592
  1
10
 41
0.8
  7
dayus
 72
     4
 11
1194.551224000057
 21
127.5359968849294
 31
0.0
100
AcDbText
  0
TEXT
  5
4DD9
330
1F
100
AcDbEntity
  8
DIM2
100
AcDbText
 10
1193.070081142914
 20
121.0559968849294
 30
0.0
 40
2.592
  1
10
 41
0.8
  7
dayus
 72
     4
 11
1194.551224000057
 21
122.3519968849294
 31
0.0
100
AcDbText
  0
TEXT
  5
4DDA
330
1F
100
AcDbEntity
  8
DIM2
100
AcDbText
 10
1192.872595428628
 20
89.95199688492943
 30
0.0
 40
2.592
  1
25
 41
0.8
  7
dayus
 72
     4
 11
1194.551224000057
 21
91.24799688492945
 31
0.0
100
AcDbText
  0
TEXT
  5
4DDB
330
1F
100
AcDbEntity
  8
DIM2
100
AcDbText
 10
1192.872595428628
 20
84.76799688492942
 30
0.0
 40
2.592
  1
30
 41
0.8
  7
dayus
 72
     4
 11
1194.551224000057
 21
86.06399688492942
 31
0.0
100
AcDbText
  0
TEXT
  5
4DDC
330
1F
100
AcDbEntity
  8
DIM2
100
AcDbText
 10
1192.872595428628
 20
95.13599688492947
 30
0.0
 40
2.592
  1
20
 41
0.8
  7
dayus
 72
     4
 11
1194.551224000057
 21
96.43199688492948
 31
0.0
100
AcDbText
  0
TEXT
  5
4DDD
330
1F
100
AcDbEntity
  8
DIM2
100
AcDbText
 10
1213.250652571485
 20
126.2399968849294
 30
0.0
 40
2.592
  1
4
 41
0.8
  7
dayus
 72
     4
 11
1213.991224000057
 21
127.5359968849294
 31
0.0
100
AcDbText
  0
TEXT
  5
4DDE
330
1F
100
AcDbEntity
  8
DIM2
100
AcDbText
 10
1213.349395428628
 20
89.95199688492943
 30
0.0
 40
2.592
  1
6
 41
0.8
  7
dayus
 72
     4
 11
1213.991224000057
 21
91.24799688492945
 31
0.0
100
AcDbText
  0
TEXT
  5
4DDF
330
1F
100
AcDbEntity
  8
DIM2
100
AcDbText
 10
1213.349395428628
 20
84.76799688492942
 30
0.0
 40
2.592
  1
6
 41
0.8
  7
dayus
 72
     4
 11
1213.991224000057
 21
86.06399688492942
 31
0.0
100
AcDbText
  0
TEXT
  5
4DE0
330
1F
100
AcDbEntity
  8
DIM2
100
AcDbText
 10
1213.349395428628
 20
95.13599688492947
 30
0.0
 40
2.592
  1
6
 41
0.8
  7
dayus
 72
     4
 11
1213.991224000057
 21
96.43199688492948
 31
0.0
100
AcDbText
  0
TEXT
  5
4DE1
330
1F
100
AcDbEntity
  8
DIM2
100
AcDbText
 10
1213.250652571485
 20
121.0559968849294
 30
0.0
 40
2.592
  1
4
 41
0.8
  7
dayus
 72
     4
 11
1213.991224000057
 21
122.3519968849294
 31
0.0
100
AcDbText
  0
TEXT
  5
4DE2
330
1F
100
AcDbEntity
  8
DIM2
100
AcDbText
 10
1213.250652571485
 20
115.8719968849295
 30
0.0
 40
2.592
  1
4
 41
0.8
  7
dayus
 72
     4
 11
1213.991224000057
 21
117.1679968849295
 31
0.0
100
AcDbText
  0
TEXT
  5
4DE3
330
1F
100
AcDbEntity
  8
DIM2
100
AcDbText
 10
1213.250652571485
 20
110.6879968849294
 30
0.0
 40
2.592
  1
4
 41
0.8
  7
dayus
 72
     4
 11
1213.991224000057
 21
111.9839968849294
 31
0.0
100
AcDbText
  0
TEXT
  5
4DE4
330
1F
100
AcDbEntity
  8
DIM2
100
AcDbText
 10
1213.250652571485
 20
105.5039968849295
 30
0.0
 40
2.592
  1
4
 41
0.8
  7
dayus
 72
     4
 11
1213.991224000057
 21
106.7999968849295
 31
0.0
100
AcDbText
  0
TEXT
  5
4DE5
330
1F
100
AcDbEntity
  8
DIM2
100
AcDbText
 10
1213.250652571485
 20
100.3199968849295
 30
0.0
 40
2.592
  1
4
 41
0.8
  7
dayus
 72
     4
 11
1213.991224000057
 21
101.6159968849295
 31
0.0
100
AcDbText
  0
TEXT
  5
4DE6
330
1F
100
AcDbEntity
  8
DIM2
100
AcDbText
 10
1183.2019668572
 20
121.0559968849294
 30
0.0
 40
2.592
  1
49
 41
0.8
  7
dayus
 72
     4
 11
1184.831224000057
 21
122.3519968849294
 31
0.0
100
AcDbText
  0
TEXT
  5
4DE7
330
1F
100
AcDbEntity
  8
DIM2
100
AcDbText
 10
1183.2019668572
 20
110.6879968849294
 30
0.0
 40
2.592
  1
59
 41
0.8
  7
dayus
 72
     4
 11
1184.831224000057
 21
111.9839968849294
 31
0.0
100
AcDbText
  0
TEXT
  5
4DE8
330
1F
100
AcDbEntity
  8
DIM2
100
AcDbText
 10
1183.2019668572
 20
100.3199968849295
 30
0.0
 40
2.592
  1
69
 41
0.8
  7
dayus
 72
     4
 11
1184.831224000057
 21
101.6159968849295
 31
0.0
100
AcDbText
  0
TEXT
  5
4DE9
330
1F
100
AcDbEntity
  8
DIM2
100
AcDbText
 10
1192.872595428628
 20
110.6879968849294
 30
0.0
 40
2.592
  1
20
 41
0.8
  7
dayus
 72
     4
 11
1194.551224000057
 21
111.9839968849294
 31
0.0
100
AcDbText
  0
TEXT
  5
4DEA
330
1F
100
AcDbEntity
  8
DIM2
100
AcDbText
 10
1192.872595428628
 20
100.3199968849294
 30
0.0
 40
2.592
  1
30
 41
0.8
  7
dayus
 72
     4
 11
1194.551224000057
 21
101.6159968849294
 31
0.0
100
AcDbText
  0
TEXT
  5
4DEB
330
1F
100
AcDbEntity
  8
DIM2
100
AcDbText
 10
1203.382538285771
 20
105.6891397420724
 30
0.0
 40
2.592
  1
-
 41
0.8
  7
dayus
 72
     4
 11
1204.271224000057
 21
106.7999968849295
 31
0.0
100
AcDbText
  0
TEXT
  5
4DEC
330
1F
100
AcDbEntity
  8
DIM2
100
AcDbText
 10
1203.382538285771
 20
110.8731397420724
 30
0.0
 40
2.592
  1
-
 41
0.8
  7
dayus
 72
     4
 11
1204.271224000057
 21
111.9839968849295
 31
0.0
100
AcDbText
  0
TEXT
  5
4DED
330
1F
100
AcDbEntity
  8
DIM2
100
AcDbText
 10
1203.382538285771
 20
116.0571397420724
 30
0.0
 40
2.592
  1
-
 41
0.8
  7
dayus
 72
     4
 11
1204.271224000057
 21
117.1679968849296
 31
0.0
100
AcDbText
  0
TEXT
  5
4DEE
330
1F
100
AcDbEntity
  8
DIM2
100
AcDbText
 10
1203.382538285771
 20
121.2411397420724
 30
0.0
 40
2.592
  1
-
 41
0.8
  7
dayus
 72
     4
 11
1204.271224000057
 21
122.3519968849295
 31
0.0
100
AcDbText
  0
TEXT
  5
4DEF
330
1F
100
AcDbEntity
  8
DIM2
100
AcDbText
 10
1203.382538285771
 20
126.4251397420723
 30
0.0
 40
2.592
  1
-
 41
0.8
  7
dayus
 72
     4
 11
1204.271224000057
 21
127.5359968849294
 31
0.0
100
AcDbText
  0
TEXT
  5
4DF0
330
1F
100
AcDbEntity
  8
DIM2
100
AcDbText
 10
1202.592595428629
 20
95.13599688492947
 30
0.0
 40
2.592
  1
20
 41
0.8
  7
dayus
 72
     4
 11
1204.271224000057
 21
96.43199688492948
 31
0.0
100
AcDbText
  0
TEXT
  5
4DF1
330
1F
100
AcDbEntity
  8
DIM2
100
AcDbText
 10
1202.592595428629
 20
89.95199688492943
 30
0.0
 40
2.592
  1
25
 41
0.8
  7
dayus
 72
     4
 11
1204.271224000057
 21
91.24799688492945
 31
0.0
100
AcDbText
  0
TEXT
  5
4DF2
330
1F
100
AcDbEntity
  8
DIM2
100
AcDbText
 10
1202.592595428629
 20
84.76799688492942
 30
0.0
 40
2.592
  1
30
 41
0.8
  7
dayus
 72
     4
 11
1204.271224000057
 21
86.06399688492942
 31
0.0
100
AcDbText
  0
TEXT
  5
4DF3
330
1F
100
AcDbEntity
  8
DIM2
100
AcDbText
 10
1173.432595428628
 20
105.5039968849294
 30
0.0
 40
2.592
  1
30
 41
0.8
  7
dayus
 72
     4
 11
1175.111224000057
 21
106.7999968849294
 31
0.0
100
AcDbText
  0
TEXT
  5
4DF4
330
1F
100
AcDbEntity
  8
DIM2
100
AcDbText
 10
1173.432595428628
 20
100.3199968849295
 30
0.0
 40
2.592
  1
30
 41
0.8
  7
dayus
 72
     4
 11
1175.111224000057
 21
101.6159968849295
 31
0.0
100
AcDbText
  0
TEXT
  5
4DF5
330
1F
100
AcDbEntity
  8
DIM2
100
AcDbText
 10
1173.383224000057
 20
110.6879968849294
 30
0.0
 40
2.592
  1
24
 41
0.8
  7
dayus
 72
     4
 11
1175.111224000057
 21
111.9839968849294
 31
0.0
100
AcDbText
  0
TEXT
  5
4DF6
330
1F
100
AcDbEntity
  8
DIM2
100
AcDbText
 10
1173.383224000057
 20
115.8719968849294
 30
0.0
 40
2.592
  1
24
 41
0.8
  7
dayus
 72
     4
 11
1175.111224000057
 21
117.1679968849294
 31
0.0
100
AcDbText
  0
TEXT
  5
4DF7
330
1F
100
AcDbEntity
  8
DIM2
100
AcDbText
 10
1173.580709714342
 20
126.2399968849294
 30
0.0
 40
2.592
  1
14
 41
0.8
  7
dayus
 72
     4
 11
1175.111224000057
 21
127.5359968849294
 31
0.0
100
AcDbText
  0
TEXT
  5
4DF8
330
1F
100
AcDbEntity
  8
DIM2
100
AcDbText
 10
1173.580709714342
 20
121.0559968849294
 30
0.0
 40
2.592
  1
14
 41
0.8
  7
dayus
 72
     4
 11
1175.111224000057
 21
122.3519968849294
 31
0.0
100
AcDbText
  0
TEXT
  5
4DF9
330
1F
100
AcDbEntity
  8
DIM2
100
AcDbText
 10
1173.432595428628
 20
89.95199688492943
 30
0.0
 40
2.592
  1
55
 41
0.8
  7
dayus
 72
     4
 11
1175.111224000057
 21
91.24799688492945
 31
0.0
100
AcDbText
  0
TEXT
  5
4DFA
330
1F
100
AcDbEntity
  8
DIM2
100
AcDbText
 10
1173.432595428628
 20
84.76799688492942
 30
0.0
 40
2.592
  1
60
 41
0.8
  7
dayus
 72
     4
 11
1175.111224000057
 21
86.06399688492942
 31
0.0
100
AcDbText
  0
TEXT
  5
4DFB
330
1F
100
AcDbEntity
  8
DIM2
100
AcDbText
 10
1173.432595428628
 20
95.13599688492947
 30
0.0
 40
2.592
  1
45
 41
0.8
  7
dayus
 72
     4
 11
1175.111224000057
 21
96.43199688492948
 31
0.0
100
AcDbText
  0
LINE
  5
4DFC
330
1F
100
AcDbEntity
  8
AM_VIS
100
AcDbLine
 10
1089.135130867759
 20
275.9971284122296
 30
0.0
 11
1089.885130867759
 21
275.5641157103374
 31
0.0
  0
LINE
  5
4DFD
330
1F
100
AcDbEntity
  8
AM_VIS
100
AcDbLine
 10
1088.385130867759
 20
275.5641157103374
 30
0.0
 11
1089.135130867759
 21
275.9971284122296
 31
0.0
  0
LINE
  5
4DFE
330
1F
100
AcDbEntity
  8
AM_VIS
100
AcDbLine
 10
1088.385130867759
 20
274.698090306553
 30
0.0
 11
1088.385130867759
 21
275.5641157103374
 31
0.0
  0
LINE
  5
4DFF
330
1F
100
AcDbEntity
  8
AM_VIS
100
AcDbLine
 10
1089.135130867759
 20
274.2650776046608
 30
0.0
 11
1088.385130867759
 21
274.698090306553
 31
0.0
  0
LINE
  5
4E00
330
1F
100
AcDbEntity
  8
AM_VIS
100
AcDbLine
 10
1089.885130867759
 20
274.698090306553
 30
0.0
 11
1089.135130867759
 21
274.2650776046608
 31
0.0
  0
LINE
  5
4E01
330
1F
100
AcDbEntity
  8
AM_VIS
100
AcDbLine
 10
1089.885130867759
 20
275.5641157103374
 30
0.0
 11
1089.885130867759
 21
274.698090306553
 31
0.0
  0
CIRCLE
  5
4E02
330
1F
100
AcDbEntity
  8
AM_VIS
100
AcDbCircle
 10
1089.135130867759
 20
275.1311030084452
 30
0.0
 40
1.9
  0
LINE
  5
4E03
330
1F
100
AcDbEntity
  8
AM_VIS
100
AcDbLine
 10
1097.135130867759
 20
275.9971284122295
 30
0.0
 11
1097.885130867759
 21
275.5641157103373
 31
0.0
  0
LINE
  5
4E04
330
1F
100
AcDbEntity
  8
AM_VIS
100
AcDbLine
 10
1096.385130867759
 20
275.5641157103373
 30
0.0
 11
1097.135130867759
 21
275.9971284122295
 31
0.0
  0
LINE
  5
4E05
330
1F
100
AcDbEntity
  8
AM_VIS
100
AcDbLine
 10
1096.385130867759
 20
274.6980903065528
 30
0.0
 11
1096.385130867759
 21
275.5641157103373
 31
0.0
  0
LINE
  5
4E06
330
1F
100
AcDbEntity
  8
AM_VIS
100
AcDbLine
 10
1097.135130867759
 20
274.2650776046606
 30
0.0
 11
1096.385130867759
 21
274.6980903065528
 31
0.0
  0
LINE
  5
4E07
330
1F
100
AcDbEntity
  8
AM_VIS
100
AcDbLine
 10
1097.885130867759
 20
274.6980903065528
 30
0.0
 11
1097.135130867759
 21
274.2650776046606
 31
0.0
  0
LINE
  5
4E08
330
1F
100
AcDbEntity
  8
AM_VIS
100
AcDbLine
 10
1097.885130867759
 20
275.5641157103373
 30
0.0
 11
1097.885130867759
 21
274.6980903065528
 31
0.0
  0
CIRCLE
  5
4E09
330
1F
100
AcDbEntity
  8
AM_VIS
100
AcDbCircle
 10
1097.135130867759
 20
275.1311030084451
 30
0.0
 40
1.9
  0
LINE
  5
4E0A
330
1F
100
AcDbEntity
  8
AM_VIS
100
AcDbLine
 10
1097.135130867759
 20
263.9971284122296
 30
0.0
 11
1097.885130867759
 21
263.5641157103374
 31
0.0
  0
LINE
  5
4E0B
330
1F
100
AcDbEntity
  8
AM_VIS
100
AcDbLine
 10
1096.385130867759
 20
263.5641157103374
 30
0.0
 11
1097.135130867759
 21
263.9971284122296
 31
0.0
  0
LINE
  5
4E0C
330
1F
100
AcDbEntity
  8
AM_VIS
100
AcDbLine
 10
1096.385130867759
 20
262.698090306553
 30
0.0
 11
1096.385130867759
 21
263.5641157103374
 31
0.0
  0
LINE
  5
4E0D
330
1F
100
AcDbEntity
  8
AM_VIS
100
AcDbLine
 10
1097.135130867759
 20
262.2650776046608
 30
0.0
 11
1096.385130867759
 21
262.698090306553
 31
0.0
  0
LINE
  5
4E0E
330
1F
100
AcDbEntity
  8
AM_VIS
100
AcDbLine
 10
1097.885130867759
 20
262.698090306553
 30
0.0
 11
1097.135130867759
 21
262.2650776046608
 31
0.0
  0
LINE
  5
4E0F
330
1F
100
AcDbEntity
  8
AM_VIS
100
AcDbLine
 10
1097.885130867759
 20
263.5641157103374
 30
0.0
 11
1097.885130867759
 21
262.698090306553
 31
0.0
  0
CIRCLE
  5
4E10
330
1F
100
AcDbEntity
  8
AM_VIS
100
AcDbCircle
 10
1097.135130867759
 20
263.1311030084451
 30
0.0
 40
1.9
  0
LINE
  5
4E11
330
1F
100
AcDbEntity
  8
AM_VIS
100
AcDbLine
 10
1089.135130867759
 20
263.9971284122295
 30
0.0
 11
1089.885130867759
 21
263.5641157103373
 31
0.0
  0
LINE
  5
4E12
330
1F
100
AcDbEntity
  8
AM_VIS
100
AcDbLine
 10
1088.385130867759
 20
263.5641157103373
 30
0.0
 11
1089.135130867759
 21
263.9971284122295
 31
0.0
  0
LINE
  5
4E13
330
1F
100
AcDbEntity
  8
AM_VIS
100
AcDbLine
 10
1088.385130867759
 20
262.6980903065529
 30
0.0
 11
1088.385130867759
 21
263.5641157103373
 31
0.0
  0
LINE
  5
4E14
330
1F
100
AcDbEntity
  8
AM_VIS
100
AcDbLine
 10
1089.135130867759
 20
262.2650776046606
 30
0.0
 11
1088.385130867759
 21
262.6980903065529
 31
0.0
  0
LINE
  5
4E15
330
1F
100
AcDbEntity
  8
AM_VIS
100
AcDbLine
 10
1089.885130867759
 20
262.6980903065529
 30
0.0
 11
1089.135130867759
 21
262.2650776046606
 31
0.0
  0
LINE
  5
4E16
330
1F
100
AcDbEntity
  8
AM_VIS
100
AcDbLine
 10
1089.885130867759
 20
263.5641157103373
 30
0.0
 11
1089.885130867759
 21
262.6980903065529
 31
0.0
  0
CIRCLE
  5
4E17
330
1F
100
AcDbEntity
  8
AM_VIS
100
AcDbCircle
 10
1089.135130867759
 20
263.1311030084451
 30
0.0
 40
1.9
  0
LINE
  5
4E18
330
1F
100
AcDbEntity
  8
AM_VIS
100
AcDbLine
 10
1099.885130867759
 20
189.7221649283694
 30
0.0
 11
1099.885130867759
 21
191.1655406013435
 31
0.0
  0
LINE
  5
4E19
330
1F
100
AcDbEntity
  8
AM_VIS
100
AcDbLine
 10
1099.885130867759
 20
191.1655406013435
 30
0.0
 11
1101.135130867759
 21
191.8872284378305
 31
0.0
  0
LINE
  5
4E1A
330
1F
100
AcDbEntity
  8
AM_VIS
100
AcDbLine
 10
1101.135130867759
 20
191.8872284378305
 30
0.0
 11
1102.385130867759
 21
191.1655406013435
 31
0.0
  0
LINE
  5
4E1B
330
1F
100
AcDbEntity
  8
AM_VIS
100
AcDbLine
 10
1102.385130867759
 20
191.1655406013435
 30
0.0
 11
1102.385130867759
 21
189.7221649283694
 31
0.0
  0
LINE
  5
4E1C
330
1F
100
AcDbEntity
  8
AM_VIS
100
AcDbLine
 10
1102.385130867759
 20
189.7221649283694
 30
0.0
 11
1101.135130867759
 21
189.0004770918824
 31
0.0
  0
LINE
  5
4E1D
330
1F
100
AcDbEntity
  8
AM_VIS
100
AcDbLine
 10
1101.135130867759
 20
189.0004770918824
 30
0.0
 11
1099.885130867759
 21
189.7221649283694
 31
0.0
  0
CIRCLE
  5
4E1E
330
1F
100
AcDbEntity
  8
AM_VIS
100
AcDbCircle
 10
1101.135130867759
 20
190.4438527643176
 30
0.0
 40
2.5
  0
LINE
  5
4E1F
330
1F
100
AcDbEntity
  8
AM_VIS
100
AcDbLine
 10
1099.885130867759
 20
169.7221649283694
 30
0.0
 11
1099.885130867759
 21
171.1655406013435
 31
0.0
  0
LINE
  5
4E20
330
1F
100
AcDbEntity
  8
AM_VIS
100
AcDbLine
 10
1099.885130867759
 20
171.1655406013435
 30
0.0
 11
1101.135130867759
 21
171.8872284378305
 31
0.0
  0
LINE
  5
4E21
330
1F
100
AcDbEntity
  8
AM_VIS
100
AcDbLine
 10
1101.135130867759
 20
171.8872284378305
 30
0.0
 11
1102.385130867759
 21
171.1655406013435
 31
0.0
  0
LINE
  5
4E22
330
1F
100
AcDbEntity
  8
AM_VIS
100
AcDbLine
 10
1102.385130867759
 20
171.1655406013435
 30
0.0
 11
1102.385130867759
 21
169.7221649283694
 31
0.0
  0
LINE
  5
4E23
330
1F
100
AcDbEntity
  8
AM_VIS
100
AcDbLine
 10
1102.385130867759
 20
169.7221649283694
 30
0.0
 11
1101.135130867759
 21
169.0004770918824
 31
0.0
  0
LINE
  5
4E24
330
1F
100
AcDbEntity
  8
AM_VIS
100
AcDbLine
 10
1101.135130867759
 20
169.0004770918824
 30
0.0
 11
1099.885130867759
 21
169.7221649283694
 31
0.0
  0
CIRCLE
  5
4E25
330
1F
100
AcDbEntity
  8
AM_VIS
100
AcDbCircle
 10
1101.135130867759
 20
170.4438527643176
 30
0.0
 40
2.5
  0
LINE
  5
4E26
330
1F
100
AcDbEntity
  8
AM_7
  6
AM_ISO08W050x2
100
AcDbLine
 10
1038.135130867759
 20
274.631103008445
 30
0.0
 11
1041.135130867758
 21
274.631103008445
 31
0.0
1001
GENIUS_GENOREF_13
1005
4ED1
  0
LINE
  5
4E27
330
1F
100
AcDbEntity
  8
AM_7
  6
AM_ISO08W050x2
100
AcDbLine
 10
1038.135130867759
 20
274.631103008445
 30
0.0
 11
1038.135130867759
 21
277.6311030084451
 31
0.0
1001
GENIUS_GENOREF_13
1005
4ED1
  0
LINE
  5
4E28
330
1F
100
AcDbEntity
  8
AM_7
  6
AM_ISO08W050x2
100
AcDbLine
 10
1038.135130867759
 20
274.631103008445
 30
0.0
 11
1035.135130867758
 21
274.631103008445
 31
0.0
1001
GENIUS_GENOREF_13
1005
4ED1
  0
LINE
  5
4E29
330
1F
100
AcDbEntity
  8
AM_7
  6
AM_ISO08W050x2
100
AcDbLine
 10
1038.135130867759
 20
274.631103008445
 30
0.0
 11
1038.135130867759
 21
271.6311030084451
 31
0.0
1001
GENIUS_GENOREF_13
1005
4ED1
  0
LINE
  5
4E2A
330
1F
100
AcDbEntity
  8
AM_7
  6
AM_ISO08W050x2
100
AcDbLine
 10
1058.135130867759
 20
274.631103008445
 30
0.0
 11
1061.135130867759
 21
274.631103008445
 31
0.0
1001
GENIUS_GENOREF_13
1005
4ED0
  0
LINE
  5
4E2B
330
1F
100
AcDbEntity
  8
AM_7
  6
AM_ISO08W050x2
100
AcDbLine
 10
1058.135130867759
 20
274.631103008445
 30
0.0
 11
1058.135130867759
 21
277.6311030084451
 31
0.0
1001
GENIUS_GENOREF_13
1005
4ED0
  0
LINE
  5
4E2C
330
1F
100
AcDbEntity
  8
AM_7
  6
AM_ISO08W050x2
100
AcDbLine
 10
1058.135130867759
 20
274.631103008445
 30
0.0
 11
1055.135130867759
 21
274.631103008445
 31
0.0
1001
GENIUS_GENOREF_13
1005
4ED0
  0
LINE
  5
4E2D
330
1F
100
AcDbEntity
  8
AM_7
  6
AM_ISO08W050x2
100
AcDbLine
 10
1058.135130867759
 20
274.631103008445
 30
0.0
 11
1058.135130867759
 21
271.6311030084451
 31
0.0
1001
GENIUS_GENOREF_13
1005
4ED0
  0
LINE
  5
4E2E
330
1F
100
AcDbEntity
  8
AM_7
  6
AM_ISO08W050x2
100
AcDbLine
 10
1078.135130867758
 20
274.631103008445
 30
0.0
 11
1081.135130867759
 21
274.631103008445
 31
0.0
1001
GENIUS_GENOREF_13
1005
4ECF
  0
LINE
  5
4E2F
330
1F
100
AcDbEntity
  8
AM_7
  6
AM_ISO08W050x2
100
AcDbLine
 10
1078.135130867758
 20
274.631103008445
 30
0.0
 11
1078.135130867758
 21
277.6311030084451
 31
0.0
1001
GENIUS_GENOREF_13
1005
4ECF
  0
LINE
  5
4E30
330
1F
100
AcDbEntity
  8
AM_7
  6
AM_ISO08W050x2
100
AcDbLine
 10
1078.135130867758
 20
274.631103008445
 30
0.0
 11
1075.135130867759
 21
274.631103008445
 31
0.0
1001
GENIUS_GENOREF_13
1005
4ECF
  0
LINE
  5
4E31
330
1F
100
AcDbEntity
  8
AM_7
  6
AM_ISO08W050x2
100
AcDbLine
 10
1078.135130867758
 20
274.631103008445
 30
0.0
 11
1078.135130867758
 21
271.6311030084451
 31
0.0
1001
GENIUS_GENOREF_13
1005
4ECF
  0
LINE
  5
4E32
330
1F
100
AcDbEntity
  8
AM_7
  6
AM_ISO08W050x2
100
AcDbLine
 10
1089.135130867759
 20
275.1311030084451
 30
0.0
 11
1092.235130867758
 21
275.1311030084451
 31
0.0
1001
GENIUS_GENOREF_13
1005
4ECE
  0
LINE
  5
4E33
330
1F
100
AcDbEntity
  8
AM_7
  6
AM_ISO08W050x2
100
AcDbLine
 10
1089.135130867759
 20
275.1311030084451
 30
0.0
 11
1089.135130867759
 21
278.2311030084451
 31
0.0
1001
GENIUS_GENOREF_13
1005
4ECE
  0
LINE
  5
4E34
330
1F
100
AcDbEntity
  8
AM_7
  6
AM_ISO08W050x2
100
AcDbLine
 10
1089.135130867759
 20
275.1311030084451
 30
0.0
 11
1086.035130867758
 21
275.1311030084451
 31
0.0
1001
GENIUS_GENOREF_13
1005
4ECE
  0
LINE
  5
4E35
330
1F
100
AcDbEntity
  8
AM_7
  6
AM_ISO08W050x2
100
AcDbLine
 10
1089.135130867759
 20
275.1311030084451
 30
0.0
 11
1089.135130867759
 21
272.031103008445
 31
0.0
1001
GENIUS_GENOREF_13
1005
4ECE
  0
LINE
  5
4E36
330
1F
100
AcDbEntity
  8
AM_7
  6
AM_ISO08W050x2
100
AcDbLine
 10
1097.135130867759
 20
275.1311030084451
 30
0.0
 11
1100.235130867758
 21
275.1311030084451
 31
0.0
1001
GENIUS_GENOREF_13
1005
4ECD
  0
LINE
  5
4E37
330
1F
100
AcDbEntity
  8
AM_7
  6
AM_ISO08W050x2
100
AcDbLine
 10
1097.135130867759
 20
275.1311030084451
 30
0.0
 11
1097.135130867759
 21
278.2311030084451
 31
0.0
1001
GENIUS_GENOREF_13
1005
4ECD
  0
LINE
  5
4E38
330
1F
100
AcDbEntity
  8
AM_7
  6
AM_ISO08W050x2
100
AcDbLine
 10
1097.135130867759
 20
275.1311030084451
 30
0.0
 11
1094.035130867758
 21
275.1311030084451
 31
0.0
1001
GENIUS_GENOREF_13
1005
4ECD
  0
LINE
  5
4E39
330
1F
100
AcDbEntity
  8
AM_7
  6
AM_ISO08W050x2
100
AcDbLine
 10
1097.135130867759
 20
275.1311030084451
 30
0.0
 11
1097.135130867759
 21
272.031103008445
 31
0.0
1001
GENIUS_GENOREF_13
1005
4ECD
  0
LINE
  5
4E3A
330
1F
100
AcDbEntity
  8
AM_7
  6
AM_ISO08W050x2
100
AcDbLine
 10
1038.135130867759
 20
263.6311030084455
 30
0.0
 11
1041.135130867758
 21
263.6311030084455
 31
0.0
1001
GENIUS_GENOREF_13
1005
4ECC
  0
LINE
  5
4E3B
330
1F
100
AcDbEntity
  8
AM_7
  6
AM_ISO08W050x2
100
AcDbLine
 10
1038.135130867759
 20
263.6311030084455
 30
0.0
 11
1038.135130867759
 21
260.6311030084455
 31
0.0
1001
GENIUS_GENOREF_13
1005
4ECC
  0
LINE
  5
4E3C
330
1F
100
AcDbEntity
  8
AM_7
  6
AM_ISO08W050x2
100
AcDbLine
 10
1038.135130867759
 20
263.6311030084455
 30
0.0
 11
1035.135130867758
 21
263.6311030084455
 31
0.0
1001
GENIUS_GENOREF_13
1005
4ECC
  0
LINE
  5
4E3D
330
1F
100
AcDbEntity
  8
AM_7
  6
AM_ISO08W050x2
100
AcDbLine
 10
1038.135130867759
 20
263.6311030084455
 30
0.0
 11
1038.135130867759
 21
266.6311030084455
 31
0.0
1001
GENIUS_GENOREF_13
1005
4ECC
  0
LINE
  5
4E3E
330
1F
100
AcDbEntity
  8
AM_7
  6
AM_ISO08W050x2
100
AcDbLine
 10
1058.135130867759
 20
263.6311030084455
 30
0.0
 11
1061.135130867759
 21
263.6311030084455
 31
0.0
1001
GENIUS_GENOREF_13
1005
4ECB
  0
LINE
  5
4E3F
330
1F
100
AcDbEntity
  8
AM_7
  6
AM_ISO08W050x2
100
AcDbLine
 10
1058.135130867759
 20
263.6311030084455
 30
0.0
 11
1058.135130867759
 21
260.6311030084455
 31
0.0
1001
GENIUS_GENOREF_13
1005
4ECB
  0
LINE
  5
4E40
330
1F
100
AcDbEntity
  8
AM_7
  6
AM_ISO08W050x2
100
AcDbLine
 10
1058.135130867759
 20
263.6311030084455
 30
0.0
 11
1055.135130867759
 21
263.6311030084455
 31
0.0
1001
GENIUS_GENOREF_13
1005
4ECB
  0
LINE
  5
4E41
330
1F
100
AcDbEntity
  8
AM_7
  6
AM_ISO08W050x2
100
AcDbLine
 10
1058.135130867759
 20
263.6311030084455
 30
0.0
 11
1058.135130867759
 21
266.6311030084455
 31
0.0
1001
GENIUS_GENOREF_13
1005
4ECB
  0
LINE
  5
4E42
330
1F
100
AcDbEntity
  8
AM_7
  6
AM_ISO08W050x2
100
AcDbLine
 10
1078.135130867758
 20
263.6311030084455
 30
0.0
 11
1081.135130867759
 21
263.6311030084455
 31
0.0
1001
GENIUS_GENOREF_13
1005
4ECA
  0
LINE
  5
4E43
330
1F
100
AcDbEntity
  8
AM_7
  6
AM_ISO08W050x2
100
AcDbLine
 10
1078.135130867758
 20
263.6311030084455
 30
0.0
 11
1078.135130867758
 21
260.6311030084455
 31
0.0
1001
GENIUS_GENOREF_13
1005
4ECA
  0
LINE
  5
4E44
330
1F
100
AcDbEntity
  8
AM_7
  6
AM_ISO08W050x2
100
AcDbLine
 10
1078.135130867758
 20
263.6311030084455
 30
0.0
 11
1075.135130867759
 21
263.6311030084455
 31
0.0
1001
GENIUS_GENOREF_13
1005
4ECA
  0
LINE
  5
4E45
330
1F
100
AcDbEntity
  8
AM_7
  6
AM_ISO08W050x2
100
AcDbLine
 10
1078.135130867758
 20
263.6311030084455
 30
0.0
 11
1078.135130867758
 21
266.6311030084455
 31
0.0
1001
GENIUS_GENOREF_13
1005
4ECA
  0
LINE
  5
4E46
330
1F
100
AcDbEntity
  8
AM_7
  6
AM_ISO08W050x2
100
AcDbLine
 10
1089.135130867759
 20
263.1311030084455
 30
0.0
 11
1092.235130867758
 21
263.1311030084455
 31
0.0
1001
GENIUS_GENOREF_13
1005
4EC9
  0
LINE
  5
4E47
330
1F
100
AcDbEntity
  8
AM_7
  6
AM_ISO08W050x2
100
AcDbLine
 10
1089.135130867759
 20
263.1311030084455
 30
0.0
 11
1089.135130867759
 21
260.0311030084455
 31
0.0
1001
GENIUS_GENOREF_13
1005
4EC9
  0
LINE
  5
4E48
330
1F
100
AcDbEntity
  8
AM_7
  6
AM_ISO08W050x2
100
AcDbLine
 10
1089.135130867759
 20
263.1311030084455
 30
0.0
 11
1086.035130867758
 21
263.1311030084455
 31
0.0
1001
GENIUS_GENOREF_13
1005
4EC9
  0
LINE
  5
4E49
330
1F
100
AcDbEntity
  8
AM_7
  6
AM_ISO08W050x2
100
AcDbLine
 10
1089.135130867759
 20
263.1311030084455
 30
0.0
 11
1089.135130867759
 21
266.2311030084455
 31
0.0
1001
GENIUS_GENOREF_13
1005
4EC9
  0
LINE
  5
4E4A
330
1F
100
AcDbEntity
  8
AM_7
  6
AM_ISO08W050x2
100
AcDbLine
 10
1097.135130867759
 20
263.1311030084455
 30
0.0
 11
1100.235130867758
 21
263.1311030084455
 31
0.0
1001
GENIUS_GENOREF_13
1005
4EC8
  0
LINE
  5
4E4B
330
1F
100
AcDbEntity
  8
AM_7
  6
AM_ISO08W050x2
100
AcDbLine
 10
1097.135130867759
 20
263.1311030084455
 30
0.0
 11
1097.135130867759
 21
260.0311030084455
 31
0.0
1001
GENIUS_GENOREF_13
1005
4EC8
  0
LINE
  5
4E4C
330
1F
100
AcDbEntity
  8
AM_7
  6
AM_ISO08W050x2
100
AcDbLine
 10
1097.135130867759
 20
263.1311030084455
 30
0.0
 11
1094.035130867758
 21
263.1311030084455
 31
0.0
1001
GENIUS_GENOREF_13
1005
4EC8
  0
LINE
  5
4E4D
330
1F
100
AcDbEntity
  8
AM_7
  6
AM_ISO08W050x2
100
AcDbLine
 10
1097.135130867759
 20
263.1311030084455
 30
0.0
 11
1097.135130867759
 21
266.2311030084455
 31
0.0
1001
GENIUS_GENOREF_13
1005
4EC8
  0
LINE
  5
4E4E
330
1F
100
AcDbEntity
  8
AM_7
100
AcDbLine
 10
1026.135130867759
 20
269.1311030084453
 30
0.0
 11
1116.507505245395
 21
269.1311030084453
 31
0.0
1001
GENIUS_GENOBJ-N-CEN_13
1002
{
1000
OWNER
1000
GEN
1002
}
1001
GENIUS_GENODEF_13
1002
{
1000
HIER
1070
     0
1002
}
1002
{
1000
MANEDIT
1070
     0
1002
}
1002
{
1000
NOSEL
1070
     0
1002
}
1002
{
1000
BEHIND
1070
     0
1002
}
1002
{
1000
OTHER
1070
     0
1002
}
1002
{
1000
REACTOR
1002
}
1001
GENIUS_GENCEN_19
1002
{
1040
1.0
1002
}
  0
LINE
  5
4E4F
330
1F
100
AcDbEntity
  8
AM_7
  6
AM_ISO08W050x2
100
AcDbLine
 10
954.4763999572547
 20
189.4438527643176
 30
0.0
 11
957.4763999572546
 21
189.4438527643176
 31
0.0
1001
GENIUS_GENOREF_13
1005
4EC7
  0
LINE
  5
4E50
330
1F
100
AcDbEntity
  8
AM_7
  6
AM_ISO08W050x2
100
AcDbLine
 10
954.4763999572547
 20
189.4438527643176
 30
0.0
 11
954.4763999572547
 21
192.4438527643176
 31
0.0
1001
GENIUS_GENOREF_13
1005
4EC7
  0
LINE
  5
4E51
330
1F
100
AcDbEntity
  8
AM_7
  6
AM_ISO08W050x2
100
AcDbLine
 10
954.4763999572547
 20
189.4438527643176
 30
0.0
 11
951.4763999572547
 21
189.4438527643176
 31
0.0
1001
GENIUS_GENOREF_13
1005
4EC7
  0
LINE
  5
4E52
330
1F
100
AcDbEntity
  8
AM_7
  6
AM_ISO08W050x2
100
AcDbLine
 10
954.4763999572547
 20
189.4438527643176
 30
0.0
 11
954.4763999572547
 21
186.4438527643176
 31
0.0
1001
GENIUS_GENOREF_13
1005
4EC7
  0
LINE
  5
4E53
330
1F
100
AcDbEntity
  8
AM_7
  6
AM_ISO08W050x2
100
AcDbLine
 10
965.4763999572544
 20
189.4438527643176
 30
0.0
 11
968.4763999572544
 21
189.4438527643176
 31
0.0
1001
GENIUS_GENOREF_13
1005
4EC6
  0
LINE
  5
4E54
330
1F
100
AcDbEntity
  8
AM_7
  6
AM_ISO08W050x2
100
AcDbLine
 10
965.4763999572544
 20
189.4438527643176
 30
0.0
 11
965.4763999572544
 21
192.4438527643176
 31
0.0
1001
GENIUS_GENOREF_13
1005
4EC6
  0
LINE
  5
4E55
330
1F
100
AcDbEntity
  8
AM_7
  6
AM_ISO08W050x2
100
AcDbLine
 10
965.4763999572544
 20
189.4438527643176
 30
0.0
 11
962.4763999572545
 21
189.4438527643176
 31
0.0
1001
GENIUS_GENOREF_13
1005
4EC6
  0
LINE
  5
4E56
330
1F
100
AcDbEntity
  8
AM_7
  6
AM_ISO08W050x2
100
AcDbLine
 10
965.4763999572544
 20
189.4438527643176
 30
0.0
 11
965.4763999572544
 21
186.4438527643176
 31
0.0
1001
GENIUS_GENOREF_13
1005
4EC6
  0
LINE
  5
4E57
330
1F
100
AcDbEntity
  8
AM_7
  6
AM_ISO08W050x2
100
AcDbLine
 10
965.4763999572542
 20
171.4438527643176
 30
0.0
 11
968.4763999572544
 21
171.4438527643176
 31
0.0
1001
GENIUS_GENOREF_13
1005
4EC5
  0
LINE
  5
4E58
330
1F
100
AcDbEntity
  8
AM_7
  6
AM_ISO08W050x2
100
AcDbLine
 10
965.4763999572542
 20
171.4438527643176
 30
0.0
 11
965.4763999572542
 21
174.4438527643177
 31
0.0
1001
GENIUS_GENOREF_13
1005
4EC5
  0
LINE
  5
4E59
330
1F
100
AcDbEntity
  8
AM_7
  6
AM_ISO08W050x2
100
AcDbLine
 10
965.4763999572542
 20
171.4438527643176
 30
0.0
 11
962.4763999572541
 21
171.4438527643176
 31
0.0
1001
GENIUS_GENOREF_13
1005
4EC5
  0
LINE
  5
4E5A
330
1F
100
AcDbEntity
  8
AM_7
  6
AM_ISO08W050x2
100
AcDbLine
 10
965.4763999572542
 20
171.4438527643176
 30
0.0
 11
965.4763999572542
 21
168.4438527643175
 31
0.0
1001
GENIUS_GENOREF_13
1005
4EC5
  0
LINE
  5
4E5B
330
1F
100
AcDbEntity
  8
AM_7
  6
AM_ISO08W050x2
100
AcDbLine
 10
954.4763999572545
 20
171.4438527643176
 30
0.0
 11
957.4763999572544
 21
171.4438527643176
 31
0.0
1001
GENIUS_GENOREF_13
1005
4EC4
  0
LINE
  5
4E5C
330
1F
100
AcDbEntity
  8
AM_7
  6
AM_ISO08W050x2
100
AcDbLine
 10
954.4763999572545
 20
171.4438527643176
 30
0.0
 11
954.4763999572545
 21
174.4438527643176
 31
0.0
1001
GENIUS_GENOREF_13
1005
4EC4
  0
LINE
  5
4E5D
330
1F
100
AcDbEntity
  8
AM_7
  6
AM_ISO08W050x2
100
AcDbLine
 10
954.4763999572545
 20
171.4438527643176
 30
0.0
 11
951.4763999572544
 21
171.4438527643176
 31
0.0
1001
GENIUS_GENOREF_13
1005
4EC4
  0
LINE
  5
4E5E
330
1F
100
AcDbEntity
  8
AM_7
  6
AM_ISO08W050x2
100
AcDbLine
 10
954.4763999572545
 20
171.4438527643176
 30
0.0
 11
954.4763999572545
 21
168.4438527643176
 31
0.0
1001
GENIUS_GENOREF_13
1005
4EC4
  0
LINE
  5
4E5F
330
1F
100
AcDbEntity
  8
AM_7
100
AcDbLine
 10
1043.635130867759
 20
168.9438527643176
 30
0.0
 11
1048.385130867758
 21
168.9438527643176
 31
0.0
1001
GENIUS_GENOREF_13
1005
4EC3
  0
LINE
  5
4E60
330
1F
100
AcDbEntity
  8
AM_7
100
AcDbLine
 10
1043.635130867759
 20
168.9438527643176
 30
0.0
 11
1043.635130867759
 21
173.6938527643176
 31
0.0
1001
GENIUS_GENOREF_13
1005
4EC3
  0
LINE
  5
4E61
330
1F
100
AcDbEntity
  8
AM_7
100
AcDbLine
 10
1043.635130867759
 20
168.9438527643176
 30
0.0
 11
1038.885130867758
 21
168.9438527643176
 31
0.0
1001
GENIUS_GENOREF_13
1005
4EC3
  0
LINE
  5
4E62
330
1F
100
AcDbEntity
  8
AM_7
100
AcDbLine
 10
1043.635130867759
 20
168.9438527643176
 30
0.0
 11
1043.635130867759
 21
164.1938527643176
 31
0.0
1001
GENIUS_GENOREF_13
1005
4EC3
  0
LINE
  5
4E63
330
1F
100
AcDbEntity
  8
AM_7
100
AcDbLine
 10
1043.635130867759
 20
191.9438527643176
 30
0.0
 11
1048.385130867758
 21
191.9438527643176
 31
0.0
1001
GENIUS_GENOREF_13
1005
4EC2
  0
LINE
  5
4E64
330
1F
100
AcDbEntity
  8
AM_7
100
AcDbLine
 10
1043.635130867759
 20
191.9438527643176
 30
0.0
 11
1043.635130867759
 21
196.6938527643176
 31
0.0
1001
GENIUS_GENOREF_13
1005
4EC2
  0
LINE
  5
4E65
330
1F
100
AcDbEntity
  8
AM_7
100
AcDbLine
 10
1043.635130867759
 20
191.9438527643176
 30
0.0
 11
1038.885130867758
 21
191.9438527643176
 31
0.0
1001
GENIUS_GENOREF_13
1005
4EC2
  0
LINE
  5
4E66
330
1F
100
AcDbEntity
  8
AM_7
100
AcDbLine
 10
1043.635130867759
 20
191.9438527643176
 30
0.0
 11
1043.635130867759
 21
187.1938527643176
 31
0.0
1001
GENIUS_GENOREF_13
1005
4EC2
  0
LINE
  5
4E67
330
1F
100
AcDbEntity
  8
AM_7
100
AcDbLine
 10
1088.635130867759
 20
191.9438527643176
 30
0.0
 11
1093.385130867758
 21
191.9438527643176
 31
0.0
1001
GENIUS_GENOREF_13
1005
4EC1
  0
LINE
  5
4E68
330
1F
100
AcDbEntity
  8
AM_7
100
AcDbLine
 10
1088.635130867759
 20
191.9438527643176
 30
0.0
 11
1088.635130867759
 21
196.6938527643176
 31
0.0
1001
GENIUS_GENOREF_13
1005
4EC1
  0
LINE
  5
4E69
330
1F
100
AcDbEntity
  8
AM_7
100
AcDbLine
 10
1088.635130867759
 20
191.9438527643176
 30
0.0
 11
1083.885130867759
 21
191.9438527643176
 31
0.0
1001
GENIUS_GENOREF_13
1005
4EC1
  0
LINE
  5
4E6A
330
1F
100
AcDbEntity
  8
AM_7
100
AcDbLine
 10
1088.635130867759
 20
191.9438527643176
 30
0.0
 11
1088.635130867759
 21
187.1938527643176
 31
0.0
1001
GENIUS_GENOREF_13
1005
4EC1
  0
LINE
  5
4E6B
330
1F
100
AcDbEntity
  8
AM_7
  6
AM_ISO08W050x2
100
AcDbLine
 10
1101.135130867759
 20
190.4438527643176
 30
0.0
 11
1104.635130867759
 21
190.4438527643176
 31
0.0
1001
GENIUS_GENOREF_13
1005
4EC0
  0
LINE
  5
4E6C
330
1F
100
AcDbEntity
  8
AM_7
  6
AM_ISO08W050x2
100
AcDbLine
 10
1101.135130867759
 20
190.4438527643176
 30
0.0
 11
1101.135130867759
 21
193.9438527643176
 31
0.0
1001
GENIUS_GENOREF_13
1005
4EC0
  0
LINE
  5
4E6D
330
1F
100
AcDbEntity
  8
AM_7
  6
AM_ISO08W050x2
100
AcDbLine
 10
1101.135130867759
 20
190.4438527643176
 30
0.0
 11
1097.635130867758
 21
190.4438527643176
 31
0.0
1001
GENIUS_GENOREF_13
1005
4EC0
  0
LINE
  5
4E6E
330
1F
100
AcDbEntity
  8
AM_7
  6
AM_ISO08W050x2
100
AcDbLine
 10
1101.135130867759
 20
190.4438527643176
 30
0.0
 11
1101.135130867759
 21
186.9438527643176
 31
0.0
1001
GENIUS_GENOREF_13
1005
4EC0
  0
LINE
  5
4E6F
330
1F
100
AcDbEntity
  8
AM_7
  6
AM_ISO08W050x2
100
AcDbLine
 10
1101.135130867759
 20
170.4438527643176
 30
0.0
 11
1104.635130867759
 21
170.4438527643176
 31
0.0
1001
GENIUS_GENOREF_13
1005
4EBF
  0
LINE
  5
4E70
330
1F
100
AcDbEntity
  8
AM_7
  6
AM_ISO08W050x2
100
AcDbLine
 10
1101.135130867759
 20
170.4438527643176
 30
0.0
 11
1101.135130867759
 21
173.9438527643176
 31
0.0
1001
GENIUS_GENOREF_13
1005
4EBF
  0
LINE
  5
4E71
330
1F
100
AcDbEntity
  8
AM_7
  6
AM_ISO08W050x2
100
AcDbLine
 10
1101.135130867759
 20
170.4438527643176
 30
0.0
 11
1097.635130867758
 21
170.4438527643176
 31
0.0
1001
GENIUS_GENOREF_13
1005
4EBF
  0
LINE
  5
4E72
330
1F
100
AcDbEntity
  8
AM_7
  6
AM_ISO08W050x2
100
AcDbLine
 10
1101.135130867759
 20
170.4438527643176
 30
0.0
 11
1101.135130867759
 21
166.9438527643176
 31
0.0
1001
GENIUS_GENOREF_13
1005
4EBF
  0
LINE
  5
4E73
330
1F
100
AcDbEntity
  8
AM_7
  6
AM_ISO08W050x2
100
AcDbLine
 10
1177.563729338184
 20
191.9438527643176
 30
0.0
 11
1180.563729338184
 21
191.9438527643176
 31
0.0
1001
GENIUS_GENOREF_13
1005
4EBE
  0
LINE
  5
4E74
330
1F
100
AcDbEntity
  8
AM_7
  6
AM_ISO08W050x2
100
AcDbLine
 10
1177.563729338184
 20
191.9438527643176
 30
0.0
 11
1177.563729338184
 21
194.9438527643175
 31
0.0
1001
GENIUS_GENOREF_13
1005
4EBE
  0
LINE
  5
4E75
330
1F
100
AcDbEntity
  8
AM_7
  6
AM_ISO08W050x2
100
AcDbLine
 10
1177.563729338184
 20
191.9438527643176
 30
0.0
 11
1174.563729338184
 21
191.9438527643176
 31
0.0
1001
GENIUS_GENOREF_13
1005
4EBE
  0
LINE
  5
4E76
330
1F
100
AcDbEntity
  8
AM_7
  6
AM_ISO08W050x2
100
AcDbLine
 10
1177.563729338184
 20
191.9438527643176
 30
0.0
 11
1177.563729338184
 21
188.9438527643178
 31
0.0
1001
GENIUS_GENOREF_13
1005
4EBE
  0
LINE
  5
4E77
330
1F
100
AcDbEntity
  8
AM_7
  6
AM_ISO08W050x2
100
AcDbLine
 10
1190.563729338184
 20
191.9438527643176
 30
0.0
 11
1193.563729338184
 21
191.9438527643176
 31
0.0
1001
GENIUS_GENOREF_13
1005
4EBD
  0
LINE
  5
4E78
330
1F
100
AcDbEntity
  8
AM_7
  6
AM_ISO08W050x2
100
AcDbLine
 10
1190.563729338184
 20
191.9438527643176
 30
0.0
 11
1190.563729338184
 21
194.9438527643175
 31
0.0
1001
GENIUS_GENOREF_13
1005
4EBD
  0
LINE
  5
4E79
330
1F
100
AcDbEntity
  8
AM_7
  6
AM_ISO08W050x2
100
AcDbLine
 10
1190.563729338184
 20
191.9438527643176
 30
0.0
 11
1187.563729338184
 21
191.9438527643176
 31
0.0
1001
GENIUS_GENOREF_13
1005
4EBD
  0
LINE
  5
4E7A
330
1F
100
AcDbEntity
  8
AM_7
  6
AM_ISO08W050x2
100
AcDbLine
 10
1190.563729338184
 20
191.9438527643176
 30
0.0
 11
1190.563729338184
 21
188.9438527643178
 31
0.0
1001
GENIUS_GENOREF_13
1005
4EBD
  0
LINE
  5
4E7B
330
1F
100
AcDbEntity
  8
AM_7
  6
AM_ISO08W050x2
100
AcDbLine
 10
1190.563729338184
 20
168.9438527643176
 30
0.0
 11
1193.563729338184
 21
168.9438527643176
 31
0.0
1001
GENIUS_GENOREF_13
1005
4EBC
  0
LINE
  5
4E7C
330
1F
100
AcDbEntity
  8
AM_7
  6
AM_ISO08W050x2
100
AcDbLine
 10
1190.563729338184
 20
168.9438527643176
 30
0.0
 11
1190.563729338184
 21
171.9438527643176
 31
0.0
1001
GENIUS_GENOREF_13
1005
4EBC
  0
LINE
  5
4E7D
330
1F
100
AcDbEntity
  8
AM_7
  6
AM_ISO08W050x2
100
AcDbLine
 10
1190.563729338184
 20
168.9438527643176
 30
0.0
 11
1187.563729338184
 21
168.9438527643176
 31
0.0
1001
GENIUS_GENOREF_13
1005
4EBC
  0
LINE
  5
4E7E
330
1F
100
AcDbEntity
  8
AM_7
  6
AM_ISO08W050x2
100
AcDbLine
 10
1190.563729338184
 20
168.9438527643176
 30
0.0
 11
1190.563729338184
 21
165.9438527643176
 31
0.0
1001
GENIUS_GENOREF_13
1005
4EBC
  0
LINE
  5
4E7F
330
1F
100
AcDbEntity
  8
AM_7
  6
AM_ISO08W050x2
100
AcDbLine
 10
1177.563729338184
 20
168.9438527643176
 30
0.0
 11
1180.563729338184
 21
168.9438527643176
 31
0.0
1001
GENIUS_GENOREF_13
1005
4EBB
  0
LINE
  5
4E80
330
1F
100
AcDbEntity
  8
AM_7
  6
AM_ISO08W050x2
100
AcDbLine
 10
1177.563729338184
 20
168.9438527643176
 30
0.0
 11
1177.563729338184
 21
171.9438527643176
 31
0.0
1001
GENIUS_GENOREF_13
1005
4EBB
  0
LINE
  5
4E81
330
1F
100
AcDbEntity
  8
AM_7
  6
AM_ISO08W050x2
100
AcDbLine
 10
1177.563729338184
 20
168.9438527643176
 30
0.0
 11
1174.563729338184
 21
168.9438527643176
 31
0.0
1001
GENIUS_GENOREF_13
1005
4EBB
  0
LINE
  5
4E82
330
1F
100
AcDbEntity
  8
AM_7
  6
AM_ISO08W050x2
100
AcDbLine
 10
1177.563729338184
 20
168.9438527643176
 30
0.0
 11
1177.563729338184
 21
165.9438527643176
 31
0.0
1001
GENIUS_GENOREF_13
1005
4EBB
  0
LINE
  5
4E83
330
1F
100
AcDbEntity
  8
AM_7
  6
AM_ISO08W050x2
100
AcDbLine
 10
1184.063729338184
 20
170.4438527643176
 30
0.0
 11
1187.563729338184
 21
170.4438527643176
 31
0.0
1001
GENIUS_GENOREF_13
1005
4EBA
  0
LINE
  5
4E84
330
1F
100
AcDbEntity
  8
AM_7
  6
AM_ISO08W050x2
100
AcDbLine
 10
1184.063729338184
 20
170.4438527643176
 30
0.0
 11
1184.063729338184
 21
173.9438527643177
 31
0.0
1001
GENIUS_GENOREF_13
1005
4EBA
  0
LINE
  5
4E85
330
1F
100
AcDbEntity
  8
AM_7
  6
AM_ISO08W050x2
100
AcDbLine
 10
1184.063729338184
 20
170.4438527643176
 30
0.0
 11
1180.563729338184
 21
170.4438527643176
 31
0.0
1001
GENIUS_GENOREF_13
1005
4EBA
  0
LINE
  5
4E86
330
1F
100
AcDbEntity
  8
AM_7
  6
AM_ISO08W050x2
100
AcDbLine
 10
1184.063729338184
 20
170.4438527643176
 30
0.0
 11
1184.063729338184
 21
166.9438527643175
 31
0.0
1001
GENIUS_GENOREF_13
1005
4EBA
  0
LINE
  5
4E87
330
1F
100
AcDbEntity
  8
AM_7
100
AcDbLine
 10
1184.063729338184
 20
180.4438527643176
 30
0.0
 11
1191.063729338184
 21
180.4438527643176
 31
0.0
1001
GENIUS_GENOREF_13
1005
4EB9
  0
LINE
  5
4E88
330
1F
100
AcDbEntity
  8
AM_7
100
AcDbLine
 10
1184.063729338184
 20
180.4438527643176
 30
0.0
 11
1184.063729338184
 21
187.443852764318
 31
0.0
1001
GENIUS_GENOREF_13
1005
4EB9
  0
LINE
  5
4E89
330
1F
100
AcDbEntity
  8
AM_7
100
AcDbLine
 10
1184.063729338184
 20
180.4438527643176
 30
0.0
 11
1177.063729338184
 21
180.4438527643176
 31
0.0
1001
GENIUS_GENOREF_13
1005
4EB9
  0
LINE
  5
4E8A
330
1F
100
AcDbEntity
  8
AM_7
100
AcDbLine
 10
1184.063729338184
 20
180.4438527643176
 30
0.0
 11
1184.063729338184
 21
173.4438527643173
 31
0.0
1001
GENIUS_GENOREF_13
1005
4EB9
  0
LINE
  5
4E8B
330
1F
100
AcDbEntity
  8
AM_7
  6
AM_ISO08W050x2
100
AcDbLine
 10
1184.063729338184
 20
190.4438527643176
 30
0.0
 11
1187.563729338184
 21
190.4438527643176
 31
0.0
1001
GENIUS_GENOREF_13
1005
4EB8
  0
LINE
  5
4E8C
330
1F
100
AcDbEntity
  8
AM_7
  6
AM_ISO08W050x2
100
AcDbLine
 10
1184.063729338184
 20
190.4438527643176
 30
0.0
 11
1184.063729338184
 21
193.9438527643175
 31
0.0
1001
GENIUS_GENOREF_13
1005
4EB8
  0
LINE
  5
4E8D
330
1F
100
AcDbEntity
  8
AM_7
  6
AM_ISO08W050x2
100
AcDbLine
 10
1184.063729338184
 20
190.4438527643176
 30
0.0
 11
1180.563729338184
 21
190.4438527643176
 31
0.0
1001
GENIUS_GENOREF_13
1005
4EB8
  0
LINE
  5
4E8E
330
1F
100
AcDbEntity
  8
AM_7
  6
AM_ISO08W050x2
100
AcDbLine
 10
1184.063729338184
 20
190.4438527643176
 30
0.0
 11
1184.063729338184
 21
186.9438527643177
 31
0.0
1001
GENIUS_GENOREF_13
1005
4EB8
  0
LINE
  5
4E8F
330
1F
100
AcDbEntity
  8
AM_7
  6
AM_ISO08W050x2
100
AcDbLine
 10
1095.635130867758
 20
103.7823312591829
 30
0.0
 11
1098.635130867759
 21
103.7823312591829
 31
0.0
1001
GENIUS_GENOREF_13
1005
4EB7
  0
LINE
  5
4E90
330
1F
100
AcDbEntity
  8
AM_7
  6
AM_ISO08W050x2
100
AcDbLine
 10
1095.635130867758
 20
103.7823312591829
 30
0.0
 11
1095.635130867758
 21
106.7823312591829
 31
0.0
1001
GENIUS_GENOREF_13
1005
4EB7
  0
LINE
  5
4E91
330
1F
100
AcDbEntity
  8
AM_7
  6
AM_ISO08W050x2
100
AcDbLine
 10
1095.635130867758
 20
103.7823312591829
 30
0.0
 11
1092.635130867759
 21
103.7823312591829
 31
0.0
1001
GENIUS_GENOREF_13
1005
4EB7
  0
LINE
  5
4E92
330
1F
100
AcDbEntity
  8
AM_7
  6
AM_ISO08W050x2
100
AcDbLine
 10
1095.635130867758
 20
103.7823312591829
 30
0.0
 11
1095.635130867758
 21
100.7823312591829
 31
0.0
1001
GENIUS_GENOREF_13
1005
4EB7
  0
LINE
  5
4E93
330
1F
100
AcDbEntity
  8
AM_7
  6
AM_ISO08W050x2
100
AcDbLine
 10
1095.635130867758
 20
90.78233125918293
 30
0.0
 11
1098.635130867759
 21
90.78233125918293
 31
0.0
1001
GENIUS_GENOREF_13
1005
4EB6
  0
LINE
  5
4E94
330
1F
100
AcDbEntity
  8
AM_7
  6
AM_ISO08W050x2
100
AcDbLine
 10
1095.635130867758
 20
90.78233125918293
 30
0.0
 11
1095.635130867758
 21
93.78233125918294
 31
0.0
1001
GENIUS_GENOREF_13
1005
4EB6
  0
LINE
  5
4E95
330
1F
100
AcDbEntity
  8
AM_7
  6
AM_ISO08W050x2
100
AcDbLine
 10
1095.635130867758
 20
90.78233125918293
 30
0.0
 11
1092.635130867759
 21
90.78233125918293
 31
0.0
1001
GENIUS_GENOREF_13
1005
4EB6
  0
LINE
  5
4E96
330
1F
100
AcDbEntity
  8
AM_7
  6
AM_ISO08W050x2
100
AcDbLine
 10
1095.635130867758
 20
90.78233125918293
 30
0.0
 11
1095.635130867758
 21
87.78233125918294
 31
0.0
1001
GENIUS_GENOREF_13
1005
4EB6
  0
LINE
  5
4E97
330
1F
100
AcDbEntity
  8
AM_7
  6
AM_ISO08W050x2
100
AcDbLine
 10
1050.635130867759
 20
90.78233125918293
 30
0.0
 11
1053.801571201187
 21
90.78233125918293
 31
0.0
1001
GENIUS_GENOREF_13
1005
4EB5
  0
LINE
  5
4E98
330
1F
100
AcDbEntity
  8
AM_7
  6
AM_ISO08W050x2
100
AcDbLine
 10
1050.635130867759
 20
90.78233125918293
 30
0.0
 11
1050.635130867759
 21
93.94877159261193
 31
0.0
1001
GENIUS_GENOREF_13
1005
4EB5
  0
LINE
  5
4E99
330
1F
100
AcDbEntity
  8
AM_7
  6
AM_ISO08W050x2
100
AcDbLine
 10
1050.635130867759
 20
90.78233125918293
 30
0.0
 11
1047.46869053433
 21
90.78233125918293
 31
0.0
1001
GENIUS_GENOREF_13
1005
4EB5
  0
LINE
  5
4E9A
330
1F
100
AcDbEntity
  8
AM_7
  6
AM_ISO08W050x2
100
AcDbLine
 10
1050.635130867759
 20
90.78233125918293
 30
0.0
 11
1050.635130867759
 21
87.61589092575395
 31
0.0
1001
GENIUS_GENOREF_13
1005
4EB5
  0
LINE
  5
4E9B
330
1F
100
AcDbEntity
  8
AM_7
  6
AM_ISO08W050x2
100
AcDbLine
 10
1050.635130867759
 20
103.7823312591829
 30
0.0
 11
1053.635130867759
 21
103.7823312591829
 31
0.0
1001
GENIUS_GENOREF_13
1005
4EB4
  0
LINE
  5
4E9C
330
1F
100
AcDbEntity
  8
AM_7
  6
AM_ISO08W050x2
100
AcDbLine
 10
1050.635130867759
 20
103.7823312591829
 30
0.0
 11
1050.635130867759
 21
106.7823312591829
 31
0.0
1001
GENIUS_GENOREF_13
1005
4EB4
  0
LINE
  5
4E9D
330
1F
100
AcDbEntity
  8
AM_7
  6
AM_ISO08W050x2
100
AcDbLine
 10
1050.635130867759
 20
103.7823312591829
 30
0.0
 11
1047.635130867758
 21
103.7823312591829
 31
0.0
1001
GENIUS_GENOREF_13
1005
4EB4
  0
LINE
  5
4E9E
330
1F
100
AcDbEntity
  8
AM_7
  6
AM_ISO08W050x2
100
AcDbLine
 10
1050.635130867759
 20
103.7823312591829
 30
0.0
 11
1050.635130867759
 21
100.7823312591829
 31
0.0
1001
GENIUS_GENOREF_13
1005
4EB4
  0
LINE
  5
4E9F
330
1F
100
AcDbEntity
  8
AM_7
  6
AM_ISO08W050x2
100
AcDbLine
 10
1052.635130867759
 20
97.28233125918293
 30
0.0
 11
1055.885130867759
 21
97.28233125918293
 31
0.0
1001
GENIUS_GENOREF_13
1005
4EB3
  0
LINE
  5
4EA0
330
1F
100
AcDbEntity
  8
AM_7
  6
AM_ISO08W050x2
100
AcDbLine
 10
1052.635130867759
 20
97.28233125918293
 30
0.0
 11
1052.635130867759
 21
100.5323312591829
 31
0.0
1001
GENIUS_GENOREF_13
1005
4EB3
  0
LINE
  5
4EA1
330
1F
100
AcDbEntity
  8
AM_7
  6
AM_ISO08W050x2
100
AcDbLine
 10
1052.635130867759
 20
97.28233125918293
 30
0.0
 11
1049.385130867759
 21
97.28233125918293
 31
0.0
1001
GENIUS_GENOREF_13
1005
4EB3
  0
LINE
  5
4EA2
330
1F
100
AcDbEntity
  8
AM_7
  6
AM_ISO08W050x2
100
AcDbLine
 10
1052.635130867759
 20
97.28233125918293
 30
0.0
 11
1052.635130867759
 21
94.03233125918294
 31
0.0
1001
GENIUS_GENOREF_13
1005
4EB3
  0
LINE
  5
4EA3
330
1F
100
AcDbEntity
  8
AM_7
100
AcDbLine
 10
1026.135130867759
 20
97.2823312591834
 30
0.0
 11
1114.361756299938
 21
97.2823312591834
 31
0.0
1001
GENIUS_GENOBJ-N-CEN_13
1002
{
1000
OWNER
1000
GEN
1002
}
1001
GENIUS_GENODEF_13
1002
{
1000
HIER
1070
     0
1002
}
1002
{
1000
MANEDIT
1070
     0
1002
}
1002
{
1000
NOSEL
1070
     0
1002
}
1002
{
1000
BEHIND
1070
     0
1002
}
1002
{
1000
OTHER
1070
     0
1002
}
1002
{
1000
REACTOR
1002
}
1001
GENIUS_GENCEN_19
1002
{
1040
1.0
1002
}
  0
INSERT
  5
4EA4
330
1F
100
AcDbEntity
  8
AM_5
100
AcDbBlockReference
  2
*S38
 10
0.0
 20
0.0
 30
0.0
  0
INSERT
  5
4EA5
330
1F
100
AcDbEntity
  8
AM_5
100
AcDbBlockReference
  2
*S39
 10
0.0
 20
0.0
 30
0.0
  0
INSERT
  5
4EA6
330
1F
100
AcDbEntity
  8
AM_5
100
AcDbBlockReference
  2
*S40
 10
0.0
 20
0.0
 30
0.0
  0
INSERT
  5
4EA7
330
1F
100
AcDbEntity
  8
AM_5
100
AcDbBlockReference
  2
*S41
 10
0.0
 20
0.0
 30
0.0
  0
INSERT
  5
4EA8
330
1F
100
AcDbEntity
  8
AM_5
100
AcDbBlockReference
  2
*S42
 10
0.0
 20
0.0
 30
0.0
  0
INSERT
  5
4EA9
330
1F
100
AcDbEntity
  8
AM_5
100
AcDbBlockReference
  2
*S43
 10
0.0
 20
0.0
 30
0.0
  0
INSERT
  5
4EAA
330
1F
100
AcDbEntity
  8
AM_5
100
AcDbBlockReference
  2
*S44
 10
0.0
 20
0.0
 30
0.0
  0
LINE
  5
4EAB
330
1F
100
AcDbEntity
  8
AM_7
100
AcDbLine
 10
1024.913825792685
 20
180.4438527643176
 30
0.0
 11
1117.734148545398
 21
180.4438527643176
 31
0.0
1001
GENIUS_GENOBJ-N-CEN_13
1002
{
1000
OWNER
1000
GEN
1002
}
1001
GENIUS_GENODEF_13
1002
{
1000
HIER
1070
     0
1002
}
1002
{
1000
MANEDIT
1070
     0
1002
}
1002
{
1000
NOSEL
1070
     0
1002
}
1002
{
1000
BEHIND
1070
     0
1002
}
1002
{
1000
OTHER
1070
     0
1002
}
1002
{
1000
REACTOR
1002
}
1001
GENIUS_GENCEN_19
1002
{
1040
1.0
1002
}
  0
POINT
  5
4EB3
330
1F
100
AcDbEntity
  8
0
 60
     1
100
AcDbPoint
 10
403.7846288602497
 20
230.9982945506135
 30
0.0
1001
GENIUS_GENODEF_13
1002
{
1000
HIER
1070
    10
1002
}
1002
{
1000
MANEDIT
1070
     0
1002
}
1002
{
1000
NOSEL
1070
     0
1002
}
1002
{
1000
BEHIND
1070
     0
1002
}
1002
{
1000
OTHER
1070
     0
1002
}
1002
{
1000
REACTOR
1002
}
1001
GENIUS_GENOENT_13
1002
{
1000
MYREF
1005
4EB3
1002
}
1002
{
1000
GRP
1005
0
1002
}
1001
GENIUS_GENOBJ-N-CRS_13
1002
{
1000
OWNER
1000
GEN
1002
}
1001
GENIUS_GENOLIS_13
1002
{
1000
ENT
1005
4EA2
1005
4EA1
1005
4EA0
1005
4E9F
1002
}
  0
POINT
  5
4EB4
330
1F
100
AcDbEntity
  8
0
 60
     1
100
AcDbPoint
 10
403.7846288602497
 20
230.9982945506135
 30
0.0
1001
GENIUS_GENODEF_13
1002
{
1000
HIER
1070
    10
1002
}
1002
{
1000
MANEDIT
1070
     0
1002
}
1002
{
1000
NOSEL
1070
     0
1002
}
1002
{
1000
BEHIND
1070
     0
1002
}
1002
{
1000
OTHER
1070
     0
1002
}
1002
{
1000
REACTOR
1002
}
1001
GENIUS_GENOLIS_13
1002
{
1000
ENT
1005
4E9E
1005
4E9D
1005
4E9C
1005
4E9B
1002
}
1001
GENIUS_GENOENT_13
1002
{
1000
MYREF
1005
4EB4
1002
}
1002
{
1000
GRP
1005
0
1002
}
1001
GENIUS_GENOBJ-N-CRS_13
1002
{
1000
OWNER
1000
GEN
1002
}
  0
POINT
  5
4EB5
330
1F
100
AcDbEntity
  8
0
 60
     1
100
AcDbPoint
 10
403.7846288602497
 20
230.9982945506135
 30
0.0
1001
GENIUS_GENODEF_13
1002
{
1000
HIER
1070
    10
1002
}
1002
{
1000
MANEDIT
1070
     0
1002
}
1002
{
1000
NOSEL
1070
     0
1002
}
1002
{
1000
BEHIND
1070
     0
1002
}
1002
{
1000
OTHER
1070
     0
1002
}
1002
{
1000
REACTOR
1002
}
1001
GENIUS_GENOLIS_13
1002
{
1000
ENT
1005
4E9A
1005
4E99
1005
4E98
1005
4E97
1002
}
1001
GENIUS_GENOENT_13
1002
{
1000
MYREF
1005
4EB5
1002
}
1002
{
1000
GRP
1005
0
1002
}
1001
GENIUS_GENOBJ-N-CRS_13
1002
{
1000
OWNER
1000
GEN
1002
}
  0
POINT
  5
4EB6
330
1F
100
AcDbEntity
  8
0
 60
     1
100
AcDbPoint
 10
403.7846288602497
 20
230.9982945506135
 30
0.0
1001
GENIUS_GENOENT_13
1002
{
1000
MYREF
1005
4EB6
1002
}
1002
{
1000
GRP
1005
0
1002
}
1001
GENIUS_GENOLIS_13
1002
{
1000
ENT
1005
4E96
1005
4E95
1005
4E94
1005
4E93
1002
}
1001
GENIUS_GENODEF_13
1002
{
1000
HIER
1070
    10
1002
}
1002
{
1000
MANEDIT
1070
     0
1002
}
1002
{
1000
NOSEL
1070
     0
1002
}
1002
{
1000
BEHIND
1070
     0
1002
}
1002
{
1000
OTHER
1070
     0
1002
}
1002
{
1000
REACTOR
1002
}
1001
GENIUS_GENOBJ-N-CRS_13
1002
{
1000
OWNER
1000
GEN
1002
}
  0
POINT
  5
4EB7
330
1F
100
AcDbEntity
  8
0
 60
     1
100
AcDbPoint
 10
403.7846288602497
 20
230.9982945506135
 30
0.0
1001
GENIUS_GENOBJ-N-CRS_13
1002
{
1000
OWNER
1000
GEN
1002
}
1001
GENIUS_GENOLIS_13
1002
{
1000
ENT
1005
4E92
1005
4E91
1005
4E90
1005
4E8F
1002
}
1001
GENIUS_GENOENT_13
1002
{
1000
MYREF
1005
4EB7
1002
}
1002
{
1000
GRP
1005
0
1002
}
1001
GENIUS_GENODEF_13
1002
{
1000
HIER
1070
    10
1002
}
1002
{
1000
MANEDIT
1070
     0
1002
}
1002
{
1000
NOSEL
1070
     0
1002
}
1002
{
1000
BEHIND
1070
     0
1002
}
1002
{
1000
OTHER
1070
     0
1002
}
1002
{
1000
REACTOR
1002
}
  0
POINT
  5
4EB8
330
1F
100
AcDbEntity
  8
0
 60
     1
100
AcDbPoint
 10
403.7846288602497
 20
230.9982945506135
 30
0.0
1001
GENIUS_GENOENT_13
1002
{
1000
MYREF
1005
4EB8
1002
}
1002
{
1000
GRP
1005
0
1002
}
1001
GENIUS_GENOLIS_13
1002
{
1000
ENT
1005
4E8E
1005
4E8D
1005
4E8C
1005
4E8B
1002
}
1001
GENIUS_GENODEF_13
1002
{
1000
HIER
1070
    10
1002
}
1002
{
1000
MANEDIT
1070
     0
1002
}
1002
{
1000
NOSEL
1070
     0
1002
}
1002
{
1000
BEHIND
1070
     0
1002
}
1002
{
1000
OTHER
1070
     0
1002
}
1002
{
1000
REACTOR
1002
}
1001
GENIUS_GENOBJ-N-CRS_13
1002
{
1000
OWNER
1000
GEN
1002
}
  0
POINT
  5
4EB9
330
1F
100
AcDbEntity
  8
0
 60
     1
100
AcDbPoint
 10
403.7846288602497
 20
230.9982945506135
 30
0.0
1001
GENIUS_GENOENT_13
1002
{
1000
MYREF
1005
4EB9
1002
}
1002
{
1000
GRP
1005
0
1002
}
1001
GENIUS_GENODEF_13
1002
{
1000
HIER
1070
    10
1002
}
1002
{
1000
MANEDIT
1070
     0
1002
}
1002
{
1000
NOSEL
1070
     0
1002
}
1002
{
1000
BEHIND
1070
     0
1002
}
1002
{
1000
OTHER
1070
     0
1002
}
1002
{
1000
REACTOR
1002
}
1001
GENIUS_GENOBJ-N-CRS_13
1002
{
1000
OWNER
1000
GEN
1002
}
1001
GENIUS_GENOLIS_13
1002
{
1000
ENT
1005
4E8A
1005
4E89
1005
4E88
1005
4E87
1002
}
  0
POINT
  5
4EBA
330
1F
100
AcDbEntity
  8
0
 60
     1
100
AcDbPoint
 10
403.7846288602497
 20
230.9982945506135
 30
0.0
1001
GENIUS_GENOENT_13
1002
{
1000
MYREF
1005
4EBA
1002
}
1002
{
1000
GRP
1005
0
1002
}
1001
GENIUS_GENOLIS_13
1002
{
1000
ENT
1005
4E86
1005
4E85
1005
4E84
1005
4E83
1002
}
1001
GENIUS_GENOBJ-N-CRS_13
1002
{
1000
OWNER
1000
GEN
1002
}
1001
GENIUS_GENODEF_13
1002
{
1000
HIER
1070
    10
1002
}
1002
{
1000
MANEDIT
1070
     0
1002
}
1002
{
1000
NOSEL
1070
     0
1002
}
1002
{
1000
BEHIND
1070
     0
1002
}
1002
{
1000
OTHER
1070
     0
1002
}
1002
{
1000
REACTOR
1002
}
  0
POINT
  5
4EBB
330
1F
100
AcDbEntity
  8
0
 60
     1
100
AcDbPoint
 10
403.7846288602497
 20
230.9982945506135
 30
0.0
1001
GENIUS_GENODEF_13
1002
{
1000
HIER
1070
    10
1002
}
1002
{
1000
MANEDIT
1070
     0
1002
}
1002
{
1000
NOSEL
1070
     0
1002
}
1002
{
1000
BEHIND
1070
     0
1002
}
1002
{
1000
OTHER
1070
     0
1002
}
1002
{
1000
REACTOR
1002
}
1001
GENIUS_GENOENT_13
1002
{
1000
MYREF
1005
4EBB
1002
}
1002
{
1000
GRP
1005
0
1002
}
1001
GENIUS_GENOLIS_13
1002
{
1000
ENT
1005
4E82
1005
4E81
1005
4E80
1005
4E7F
1002
}
1001
GENIUS_GENOBJ-N-CRS_13
1002
{
1000
OWNER
1000
GEN
1002
}
  0
POINT
  5
4EBC
330
1F
100
AcDbEntity
  8
0
 60
     1
100
AcDbPoint
 10
403.7846288602497
 20
230.9982945506135
 30
0.0
1001
GENIUS_GENOLIS_13
1002
{
1000
ENT
1005
4E7E
1005
4E7D
1005
4E7C
1005
4E7B
1002
}
1001
GENIUS_GENOENT_13
1002
{
1000
MYREF
1005
4EBC
1002
}
1002
{
1000
GRP
1005
0
1002
}
1001
GENIUS_GENODEF_13
1002
{
1000
HIER
1070
    10
1002
}
1002
{
1000
MANEDIT
1070
     0
1002
}
1002
{
1000
NOSEL
1070
     0
1002
}
1002
{
1000
BEHIND
1070
     0
1002
}
1002
{
1000
OTHER
1070
     0
1002
}
1002
{
1000
REACTOR
1002
}
1001
GENIUS_GENOBJ-N-CRS_13
1002
{
1000
OWNER
1000
GEN
1002
}
  0
POINT
  5
4EBD
330
1F
100
AcDbEntity
  8
0
 60
     1
100
AcDbPoint
 10
403.7846288602497
 20
230.9982945506135
 30
0.0
1001
GENIUS_GENOENT_13
1002
{
1000
MYREF
1005
4EBD
1002
}
1002
{
1000
GRP
1005
0
1002
}
1001
GENIUS_GENOLIS_13
1002
{
1000
ENT
1005
4E7A
1005
4E79
1005
4E78
1005
4E77
1002
}
1001
GENIUS_GENOBJ-N-CRS_13
1002
{
1000
OWNER
1000
GEN
1002
}
1001
GENIUS_GENODEF_13
1002
{
1000
HIER
1070
    10
1002
}
1002
{
1000
MANEDIT
1070
     0
1002
}
1002
{
1000
NOSEL
1070
     0
1002
}
1002
{
1000
BEHIND
1070
     0
1002
}
1002
{
1000
OTHER
1070
     0
1002
}
1002
{
1000
REACTOR
1002
}
  0
POINT
  5
4EBE
330
1F
100
AcDbEntity
  8
0
 60
     1
100
AcDbPoint
 10
403.7846288602497
 20
230.9982945506135
 30
0.0
1001
GENIUS_GENOENT_13
1002
{
1000
MYREF
1005
4EBE
1002
}
1002
{
1000
GRP
1005
0
1002
}
1001
GENIUS_GENOBJ-N-CRS_13
1002
{
1000
OWNER
1000
GEN
1002
}
1001
GENIUS_GENODEF_13
1002
{
1000
HIER
1070
    10
1002
}
1002
{
1000
MANEDIT
1070
     0
1002
}
1002
{
1000
NOSEL
1070
     0
1002
}
1002
{
1000
BEHIND
1070
     0
1002
}
1002
{
1000
OTHER
1070
     0
1002
}
1002
{
1000
REACTOR
1002
}
1001
GENIUS_GENOLIS_13
1002
{
1000
ENT
1005
4E76
1005
4E75
1005
4E74
1005
4E73
1002
}
  0
POINT
  5
4EBF
330
1F
100
AcDbEntity
  8
0
 60
     1
100
AcDbPoint
 10
403.7846288602497
 20
230.9982945506135
 30
0.0
1001
GENIUS_GENODEF_13
1002
{
1000
HIER
1070
    10
1002
}
1002
{
1000
MANEDIT
1070
     0
1002
}
1002
{
1000
NOSEL
1070
     0
1002
}
1002
{
1000
BEHIND
1070
     0
1002
}
1002
{
1000
OTHER
1070
     0
1002
}
1002
{
1000
REACTOR
1002
}
1001
GENIUS_GENOLIS_13
1002
{
1000
ENT
1005
4E72
1005
4E71
1005
4E70
1005
4E6F
1002
}
1001
GENIUS_GENOENT_13
1002
{
1000
MYREF
1005
4EBF
1002
}
1002
{
1000
GRP
1005
0
1002
}
1001
GENIUS_GENOBJ-N-CRS_13
1002
{
1000
OWNER
1000
GEN
1002
}
  0
POINT
  5
4EC0
330
1F
100
AcDbEntity
  8
0
 60
     1
100
AcDbPoint
 10
403.7846288602497
 20
230.9982945506135
 30
0.0
1001
GENIUS_GENOENT_13
1002
{
1000
MYREF
1005
4EC0
1002
}
1002
{
1000
GRP
1005
0
1002
}
1001
GENIUS_GENOBJ-N-CRS_13
1002
{
1000
OWNER
1000
GEN
1002
}
1001
GENIUS_GENODEF_13
1002
{
1000
HIER
1070
    10
1002
}
1002
{
1000
MANEDIT
1070
     0
1002
}
1002
{
1000
NOSEL
1070
     0
1002
}
1002
{
1000
BEHIND
1070
     0
1002
}
1002
{
1000
OTHER
1070
     0
1002
}
1002
{
1000
REACTOR
1002
}
1001
GENIUS_GENOLIS_13
1002
{
1000
ENT
1005
4E6E
1005
4E6D
1005
4E6C
1005
4E6B
1002
}
  0
POINT
  5
4EC1
330
1F
100
AcDbEntity
  8
0
 60
     1
100
AcDbPoint
 10
403.7846288602497
 20
230.9982945506135
 30
0.0
1001
GENIUS_GENODEF_13
1002
{
1000
HIER
1070
    10
1002
}
1002
{
1000
MANEDIT
1070
     0
1002
}
1002
{
1000
NOSEL
1070
     0
1002
}
1002
{
1000
BEHIND
1070
     0
1002
}
1002
{
1000
OTHER
1070
     0
1002
}
1002
{
1000
REACTOR
1002
}
1001
GENIUS_GENOENT_13
1002
{
1000
MYREF
1005
4EC1
1002
}
1002
{
1000
GRP
1005
0
1002
}
1001
GENIUS_GENOBJ-N-CRS_13
1002
{
1000
OWNER
1000
GEN
1002
}
1001
GENIUS_GENOLIS_13
1002
{
1000
ENT
1005
4E6A
1005
4E69
1005
4E68
1005
4E67
1002
}
  0
POINT
  5
4EC2
330
1F
100
AcDbEntity
  8
0
 60
     1
100
AcDbPoint
 10
403.7846288602497
 20
230.9982945506135
 30
0.0
1001
GENIUS_GENOLIS_13
1002
{
1000
ENT
1005
4E66
1005
4E65
1005
4E64
1005
4E63
1002
}
1001
GENIUS_GENOBJ-N-CRS_13
1002
{
1000
OWNER
1000
GEN
1002
}
1001
GENIUS_GENODEF_13
1002
{
1000
HIER
1070
    10
1002
}
1002
{
1000
MANEDIT
1070
     0
1002
}
1002
{
1000
NOSEL
1070
     0
1002
}
1002
{
1000
BEHIND
1070
     0
1002
}
1002
{
1000
OTHER
1070
     0
1002
}
1002
{
1000
REACTOR
1002
}
1001
GENIUS_GENOENT_13
1002
{
1000
MYREF
1005
4EC2
1002
}
1002
{
1000
GRP
1005
0
1002
}
  0
POINT
  5
4EC3
330
1F
100
AcDbEntity
  8
0
 60
     1
100
AcDbPoint
 10
403.7846288602497
 20
230.9982945506135
 30
0.0
1001
GENIUS_GENODEF_13
1002
{
1000
HIER
1070
    10
1002
}
1002
{
1000
MANEDIT
1070
     0
1002
}
1002
{
1000
NOSEL
1070
     0
1002
}
1002
{
1000
BEHIND
1070
     0
1002
}
1002
{
1000
OTHER
1070
     0
1002
}
1002
{
1000
REACTOR
1002
}
1001
GENIUS_GENOLIS_13
1002
{
1000
ENT
1005
4E62
1005
4E61
1005
4E60
1005
4E5F
1002
}
1001
GENIUS_GENOENT_13
1002
{
1000
MYREF
1005
4EC3
1002
}
1002
{
1000
GRP
1005
0
1002
}
1001
GENIUS_GENOBJ-N-CRS_13
1002
{
1000
OWNER
1000
GEN
1002
}
  0
POINT
  5
4EC4
330
1F
100
AcDbEntity
  8
0
 60
     1
100
AcDbPoint
 10
403.7846288602497
 20
230.9982945506135
 30
0.0
1001
GENIUS_GENOENT_13
1002
{
1000
MYREF
1005
4EC4
1002
}
1002
{
1000
GRP
1005
0
1002
}
1001
GENIUS_GENOBJ-N-CRS_13
1002
{
1000
OWNER
1000
GEN
1002
}
1001
GENIUS_GENOLIS_13
1002
{
1000
ENT
1005
4E5E
1005
4E5D
1005
4E5C
1005
4E5B
1002
}
1001
GENIUS_GENODEF_13
1002
{
1000
HIER
1070
    10
1002
}
1002
{
1000
MANEDIT
1070
     0
1002
}
1002
{
1000
NOSEL
1070
     0
1002
}
1002
{
1000
BEHIND
1070
     0
1002
}
1002
{
1000
OTHER
1070
     0
1002
}
1002
{
1000
REACTOR
1002
}
  0
POINT
  5
4EC5
330
1F
100
AcDbEntity
  8
0
 60
     1
100
AcDbPoint
 10
403.7846288602497
 20
230.9982945506135
 30
0.0
1001
GENIUS_GENODEF_13
1002
{
1000
HIER
1070
    10
1002
}
1002
{
1000
MANEDIT
1070
     0
1002
}
1002
{
1000
NOSEL
1070
     0
1002
}
1002
{
1000
BEHIND
1070
     0
1002
}
1002
{
1000
OTHER
1070
     0
1002
}
1002
{
1000
REACTOR
1002
}
1001
GENIUS_GENOLIS_13
1002
{
1000
ENT
1005
4E5A
1005
4E59
1005
4E58
1005
4E57
1002
}
1001
GENIUS_GENOENT_13
1002
{
1000
MYREF
1005
4EC5
1002
}
1002
{
1000
GRP
1005
0
1002
}
1001
GENIUS_GENOBJ-N-CRS_13
1002
{
1000
OWNER
1000
GEN
1002
}
  0
POINT
  5
4EC6
330
1F
100
AcDbEntity
  8
0
 60
     1
100
AcDbPoint
 10
403.7846288602497
 20
230.9982945506135
 30
0.0
1001
GENIUS_GENODEF_13
1002
{
1000
HIER
1070
    10
1002
}
1002
{
1000
MANEDIT
1070
     0
1002
}
1002
{
1000
NOSEL
1070
     0
1002
}
1002
{
1000
BEHIND
1070
     0
1002
}
1002
{
1000
OTHER
1070
     0
1002
}
1002
{
1000
REACTOR
1002
}
1001
GENIUS_GENOBJ-N-CRS_13
1002
{
1000
OWNER
1000
GEN
1002
}
1001
GENIUS_GENOLIS_13
1002
{
1000
ENT
1005
4E56
1005
4E55
1005
4E54
1005
4E53
1002
}
1001
GENIUS_GENOENT_13
1002
{
1000
MYREF
1005
4EC6
1002
}
1002
{
1000
GRP
1005
0
1002
}
  0
POINT
  5
4EC7
330
1F
100
AcDbEntity
  8
0
 60
     1
100
AcDbPoint
 10
403.7846288602497
 20
230.9982945506135
 30
0.0
1001
GENIUS_GENOBJ-N-CRS_13
1002
{
1000
OWNER
1000
GEN
1002
}
1001
GENIUS_GENOENT_13
1002
{
1000
MYREF
1005
4EC7
1002
}
1002
{
1000
GRP
1005
0
1002
}
1001
GENIUS_GENODEF_13
1002
{
1000
HIER
1070
    10
1002
}
1002
{
1000
MANEDIT
1070
     0
1002
}
1002
{
1000
NOSEL
1070
     0
1002
}
1002
{
1000
BEHIND
1070
     0
1002
}
1002
{
1000
OTHER
1070
     0
1002
}
1002
{
1000
REACTOR
1002
}
1001
GENIUS_GENOLIS_13
1002
{
1000
ENT
1005
4E52
1005
4E51
1005
4E50
1005
4E4F
1002
}
  0
POINT
  5
4EC8
330
1F
100
AcDbEntity
  8
0
 60
     1
100
AcDbPoint
 10
403.7846288602497
 20
340.2300548682413
 30
0.0
1001
GENIUS_GENOENT_13
1002
{
1000
MYREF
1005
4EC8
1002
}
1002
{
1000
GRP
1005
0
1002
}
1001
GENIUS_GENOBJ-N-CRS_13
1002
{
1000
OWNER
1000
GEN
1002
}
1001
GENIUS_GENODEF_13
1002
{
1000
HIER
1070
    10
1002
}
1002
{
1000
MANEDIT
1070
     0
1002
}
1002
{
1000
NOSEL
1070
     0
1002
}
1002
{
1000
BEHIND
1070
     0
1002
}
1002
{
1000
OTHER
1070
     0
1002
}
1002
{
1000
REACTOR
1002
}
1001
GENIUS_GENOLIS_13
1002
{
1000
ENT
1005
4E4D
1005
4E4C
1005
4E4B
1005
4E4A
1002
}
  0
POINT
  5
4EC9
330
1F
100
AcDbEntity
  8
0
 60
     1
100
AcDbPoint
 10
403.7846288602497
 20
340.2300548682413
 30
0.0
1001
GENIUS_GENODEF_13
1002
{
1000
HIER
1070
    10
1002
}
1002
{
1000
MANEDIT
1070
     0
1002
}
1002
{
1000
NOSEL
1070
     0
1002
}
1002
{
1000
BEHIND
1070
     0
1002
}
1002
{
1000
OTHER
1070
     0
1002
}
1002
{
1000
REACTOR
1002
}
1001
GENIUS_GENOENT_13
1002
{
1000
MYREF
1005
4EC9
1002
}
1002
{
1000
GRP
1005
0
1002
}
1001
GENIUS_GENOLIS_13
1002
{
1000
ENT
1005
4E49
1005
4E48
1005
4E47
1005
4E46
1002
}
1001
GENIUS_GENOBJ-N-CRS_13
1002
{
1000
OWNER
1000
GEN
1002
}
  0
POINT
  5
4ECA
330
1F
100
AcDbEntity
  8
0
 60
     1
100
AcDbPoint
 10
403.7846288602497
 20
340.2300548682413
 30
0.0
1001
GENIUS_GENOENT_13
1002
{
1000
MYREF
1005
4ECA
1002
}
1002
{
1000
GRP
1005
0
1002
}
1001
GENIUS_GENOLIS_13
1002
{
1000
ENT
1005
4E45
1005
4E44
1005
4E43
1005
4E42
1002
}
1001
GENIUS_GENODEF_13
1002
{
1000
HIER
1070
    10
1002
}
1002
{
1000
MANEDIT
1070
     0
1002
}
1002
{
1000
NOSEL
1070
     0
1002
}
1002
{
1000
BEHIND
1070
     0
1002
}
1002
{
1000
OTHER
1070
     0
1002
}
1002
{
1000
REACTOR
1002
}
1001
GENIUS_GENOBJ-N-CRS_13
1002
{
1000
OWNER
1000
GEN
1002
}
  0
POINT
  5
4ECB
330
1F
100
AcDbEntity
  8
0
 60
     1
100
AcDbPoint
 10
403.7846288602497
 20
340.2300548682413
 30
0.0
1001
GENIUS_GENOLIS_13
1002
{
1000
ENT
1005
4E41
1005
4E40
1005
4E3F
1005
4E3E
1002
}
1001
GENIUS_GENOENT_13
1002
{
1000
MYREF
1005
4ECB
1002
}
1002
{
1000
GRP
1005
0
1002
}
1001
GENIUS_GENOBJ-N-CRS_13
1002
{
1000
OWNER
1000
GEN
1002
}
1001
GENIUS_GENODEF_13
1002
{
1000
HIER
1070
    10
1002
}
1002
{
1000
MANEDIT
1070
     0
1002
}
1002
{
1000
NOSEL
1070
     0
1002
}
1002
{
1000
BEHIND
1070
     0
1002
}
1002
{
1000
OTHER
1070
     0
1002
}
1002
{
1000
REACTOR
1002
}
  0
POINT
  5
4ECC
330
1F
100
AcDbEntity
  8
0
 60
     1
100
AcDbPoint
 10
403.7846288602497
 20
340.2300548682413
 30
0.0
1001
GENIUS_GENOLIS_13
1002
{
1000
ENT
1005
4E3D
1005
4E3C
1005
4E3B
1005
4E3A
1002
}
1001
GENIUS_GENOENT_13
1002
{
1000
MYREF
1005
4ECC
1002
}
1002
{
1000
GRP
1005
0
1002
}
1001
GENIUS_GENOBJ-N-CRS_13
1002
{
1000
OWNER
1000
GEN
1002
}
1001
GENIUS_GENODEF_13
1002
{
1000
HIER
1070
    10
1002
}
1002
{
1000
MANEDIT
1070
     0
1002
}
1002
{
1000
NOSEL
1070
     0
1002
}
1002
{
1000
BEHIND
1070
     0
1002
}
1002
{
1000
OTHER
1070
     0
1002
}
1002
{
1000
REACTOR
1002
}
  0
POINT
  5
4ECD
330
1F
100
AcDbEntity
  8
0
 60
     1
100
AcDbPoint
 10
403.7846288602497
 20
230.9982945506135
 30
0.0
1001
GENIUS_GENOENT_13
1002
{
1000
MYREF
1005
4ECD
1002
}
1002
{
1000
GRP
1005
0
1002
}
1001
GENIUS_GENOBJ-N-CRS_13
1002
{
1000
OWNER
1000
GEN
1002
}
1001
GENIUS_GENODEF_13
1002
{
1000
HIER
1070
    10
1002
}
1002
{
1000
MANEDIT
1070
     0
1002
}
1002
{
1000
NOSEL
1070
     0
1002
}
1002
{
1000
BEHIND
1070
     0
1002
}
1002
{
1000
OTHER
1070
     0
1002
}
1002
{
1000
REACTOR
1002
}
1001
GENIUS_GENOLIS_13
1002
{
1000
ENT
1005
4E39
1005
4E38
1005
4E37
1005
4E36
1002
}
  0
POINT
  5
4ECE
330
1F
100
AcDbEntity
  8
0
 60
     1
100
AcDbPoint
 10
403.7846288602497
 20
230.9982945506135
 30
0.0
1001
GENIUS_GENODEF_13
1002
{
1000
HIER
1070
    10
1002
}
1002
{
1000
MANEDIT
1070
     0
1002
}
1002
{
1000
NOSEL
1070
     0
1002
}
1002
{
1000
BEHIND
1070
     0
1002
}
1002
{
1000
OTHER
1070
     0
1002
}
1002
{
1000
REACTOR
1002
}
1001
GENIUS_GENOENT_13
1002
{
1000
MYREF
1005
4ECE
1002
}
1002
{
1000
GRP
1005
0
1002
}
1001
GENIUS_GENOLIS_13
1002
{
1000
ENT
1005
4E35
1005
4E34
1005
4E33
1005
4E32
1002
}
1001
GENIUS_GENOBJ-N-CRS_13
1002
{
1000
OWNER
1000
GEN
1002
}
  0
POINT
  5
4ECF
330
1F
100
AcDbEntity
  8
0
 60
     1
100
AcDbPoint
 10
403.7846288602497
 20
230.9982945506135
 30
0.0
1001
GENIUS_GENOENT_13
1002
{
1000
MYREF
1005
4ECF
1002
}
1002
{
1000
GRP
1005
0
1002
}
1001
GENIUS_GENOLIS_13
1002
{
1000
ENT
1005
4E31
1005
4E30
1005
4E2F
1005
4E2E
1002
}
1001
GENIUS_GENODEF_13
1002
{
1000
HIER
1070
    10
1002
}
1002
{
1000
MANEDIT
1070
     0
1002
}
1002
{
1000
NOSEL
1070
     0
1002
}
1002
{
1000
BEHIND
1070
     0
1002
}
1002
{
1000
OTHER
1070
     0
1002
}
1002
{
1000
REACTOR
1002
}
1001
GENIUS_GENOBJ-N-CRS_13
1002
{
1000
OWNER
1000
GEN
1002
}
  0
POINT
  5
4ED0
330
1F
100
AcDbEntity
  8
0
 60
     1
100
AcDbPoint
 10
403.7846288602497
 20
230.9982945506135
 30
0.0
1001
GENIUS_GENOLIS_13
1002
{
1000
ENT
1005
4E2D
1005
4E2C
1005
4E2B
1005
4E2A
1002
}
1001
GENIUS_GENOENT_13
1002
{
1000
MYREF
1005
4ED0
1002
}
1002
{
1000
GRP
1005
0
1002
}
1001
GENIUS_GENOBJ-N-CRS_13
1002
{
1000
OWNER
1000
GEN
1002
}
1001
GENIUS_GENODEF_13
1002
{
1000
HIER
1070
    10
1002
}
1002
{
1000
MANEDIT
1070
     0
1002
}
1002
{
1000
NOSEL
1070
     0
1002
}
1002
{
1000
BEHIND
1070
     0
1002
}
1002
{
1000
OTHER
1070
     0
1002
}
1002
{
1000
REACTOR
1002
}
  0
POINT
  5
4ED1
330
1F
100
AcDbEntity
  8
0
 60
     1
100
AcDbPoint
 10
403.7846288602497
 20
230.9982945506135
 30
0.0
1001
GENIUS_GENOLIS_13
1002
{
1000
ENT
1005
4E29
1005
4E28
1005
4E27
1005
4E26
1002
}
1001
GENIUS_GENOENT_13
1002
{
1000
MYREF
1005
4ED1
1002
}
1002
{
1000
GRP
1005
0
1002
}
1001
GENIUS_GENOBJ-N-CRS_13
1002
{
1000
OWNER
1000
GEN
1002
}
1001
GENIUS_GENODEF_13
1002
{
1000
HIER
1070
    10
1002
}
1002
{
1000
MANEDIT
1070
     0
1002
}
1002
{
1000
NOSEL
1070
     0
1002
}
1002
{
1000
BEHIND
1070
     0
1002
}
1002
{
1000
OTHER
1070
     0
1002
}
1002
{
1000
REACTOR
1002
}
  0
MTEXT
  5
50E6
330
1F
100
AcDbEntity
  8
AM_5
100
AcDbMText
 10
1114.487645114464
 20
210.3153359584286
 30
0.0
 40
3.5
 41
0.0
 71
     7
 72
     1
  1
plug for port
 73
     1
 44
1.0
1001
ACAD
1000
MTEXTBEGIN
1070
    73
1070
     1
1070
    44
1040
1.0
1070
    74
1070
     0
1000
MTEXTEND
  0
TEXT
  5
50E7
330
1F
100
AcDbEntity
  8
AM_5
100
AcDbText
 10
1113.173127414058
 20
206.8603536411155
 30
0.0
 40
3.0
  1
(hexagon socket head set screw)
 41
0.8
100
AcDbText
  0
INSERT
  5
5119
330
1F
100
AcDbEntity
  8
DIM2
100
AcDbBlockReference
  2
A$C5ECF147B
 10
1161.167000203196
 20
94.42813756910785
 30
0.0
 41
0.9408000000000356
 42
0.940799999999956
 43
0.9407999999999997
  0
LINE
  5
5128
330
1F
100
AcDbEntity
  8
AM_7
  6
ACISOTGB
 62
     2
100
AcDbLine
 10
1066.135130867759
 20
214.2145253583976
 30
0.0
 11
1066.135130867759
 21
155.6251831108176
 31
0.0
1001
GENIUS_GENOBJ-N-CEN_13
1002
{
1000
OWNER
1000
GEN
1002
}
1001
GENIUS_GENODEF_13
1002
{
1000
HIER
1070
     0
1002
}
1002
{
1000
MANEDIT
1070
     0
1002
}
1002
{
1000
NOSEL
1070
     0
1002
}
1002
{
1000
BEHIND
1070
     0
1002
}
1002
{
1000
OTHER
1070
     0
1002
}
1002
{
1000
REACTOR
1002
}
1001
GENIUS_GENCEN_19
1002
{
1040
3.0
1002
}
  0
INSERT
  5
5129
330
1F
100
AcDbEntity
  8
0
100
AcDbBlockReference
  2
A$C1F6E6265
 10
1066.135130310711
 20
156.7762175464591
 30
0.0
 41
1.199999999999999
 42
1.199999999999999
 43
1.199999999999999
  0
LINE
  5
532C
330
1F
100
AcDbEntity
  8
AM_7
  6
AM_ISO08W050x2
100
AcDbLine
 10
959.9763999572539
 20
180.4456041102657
 30
0.0
 11
968.7499026491501
 21
180.4456041102657
 31
0.0
1001
GENIUS_GENOREF_13
1005
5330
  0
LINE
  5
532D
330
1F
100
AcDbEntity
  8
AM_7
  6
AM_ISO08W050x2
100
AcDbLine
 10
959.9763999572539
 20
180.4456041102657
 30
0.0
 11
959.9763999572539
 21
189.2191068021618
 31
0.0
1001
GENIUS_GENOREF_13
1005
5330
  0
LINE
  5
532E
330
1F
100
AcDbEntity
  8
AM_7
  6
AM_ISO08W050x2
100
AcDbLine
 10
959.9763999572539
 20
180.4456041102657
 30
0.0
 11
951.2028972653578
 21
180.4456041102657
 31
0.0
1001
GENIUS_GENOREF_13
1005
5330
  0
LINE
  5
532F
330
1F
100
AcDbEntity
  8
AM_7
  6
AM_ISO08W050x2
100
AcDbLine
 10
959.9763999572539
 20
180.4456041102657
 30
0.0
 11
959.9763999572539
 21
171.6721014183695
 31
0.0
1001
GENIUS_GENOREF_13
1005
5330
  0
POINT
  5
5330
330
1F
100
AcDbEntity
  8
0
 60
     1
100
AcDbPoint
 10
0.0
 20
0.0
 30
0.0
1001
GENIUS_GENODEF_13
1002
{
1000
HIER
1070
    10
1002
}
1002
{
1000
MANEDIT
1070
     0
1002
}
1002
{
1000
NOSEL
1070
     0
1002
}
1002
{
1000
BEHIND
1070
     0
1002
}
1002
{
1000
OTHER
1070
     0
1002
}
1002
{
1000
REACTOR
1002
}
1001
GENIUS_GENOLIS_13
1002
{
1000
ENT
1005
532F
1005
532E
1005
532D
1005
532C
1002
}
1001
GENIUS_GENOBJ-N-CRS_13
1002
{
1000
OWNER
1000
GEN
1002
}
1001
GENIUS_GENOENT_13
1002
{
1000
MYREF
1005
5330
1002
}
1002
{
1000
GRP
1005
0
1002
}
  0
ENDSEC
  0
SECTION
  2
OBJECTS
  0
DICTIONARY
  5
C
330
0
100
AcDbDictionary
281
     1
  3
ACAD_COLOR
350
BE
  3
ACAD_GROUP
350
D
  3
ACAD_LAYOUT
350
1A
  3
ACAD_MATERIAL
350
BD
  3
ACAD_MLINESTYLE
350
17
  3
ACAD_PLOTSETTINGS
350
19
  3
ACAD_PLOTSTYLENAME
350
E
  3
ACAD_TABLESTYLE
350
11A
  3
ACDBHEADERROUNDTRIPXREC
350
5437
  3
AcDbVariableDictionary
350
94
  3
AcmDictionary
350
5B
  3
AMG
350
41
  3
AMGSNAPSETTINGS
350
1B8
  3
DWGPROPS
350
5436
  3
MAPISURF_MODULE
350
53D4
  0
DICTIONARY
  5
3F9
330
2
100
AcDbDictionary
280
     1
281
     1
  3
ACAD_LAYERFILTERS
360
436C
  3
ACAD_LAYERSTATES
360
C35
  3
ACLYDICTIONARY
360
436B
  0
DICTIONARY
  5
8F
330
1F
100
AcDbDictionary
280
     1
281
     1
  3
ACAD_INDEX
360
5429
  3
ACAD_SORTENTS
360
1588
  0
DICTIONARY
  5
4472
330
4471
100
AcDbDictionary
280
     1
281
     1
  3
ACAD_SORTENTS
360
4473
  0
DICTIONARY
  5
4487
330
4486
100
AcDbDictionary
280
     1
281
     1
  0
DICTIONARY
  5
4D5D
330
4D5C
100
AcDbDictionary
280
     1
281
     1
  3
ACAD_DIMASSOC
360
4D5E
  0
DICTIONARY
  5
4D60
330
4D5F
100
AcDbDictionary
280
     1
281
     1
  3
ACAD_DIMASSOC
360
4D61
  0
DICTIONARY
  5
4D64
330
4D63
100
AcDbDictionary
280
     1
281
     1
  3
ACAD_DIMASSOC
360
4D65
  0
DICTIONARY
  5
4D67
330
4D66
100
AcDbDictionary
280
     1
281
     1
  3
ACAD_DIMASSOC
360
4D68
  0
DICTIONARY
  5
4D6B
330
4D6A
100
AcDbDictionary
280
     1
281
     1
  3
ACAD_DIMASSOC
360
4D6C
  0
DICTIONARY
  5
4D6E
330
4D6D
100
AcDbDictionary
280
     1
281
     1
  3
ACAD_DIMASSOC
360
4D6F
  0
DICTIONARY
  5
4D71
330
4D70
100
AcDbDictionary
280
     1
281
     1
  3
ACAD_DIMASSOC
360
4D72
  0
DICTIONARY
  5
4D78
330
4D77
100
AcDbDictionary
280
     1
281
     1
  3
ACAD_DIMASSOC
360
4D79
  0
DICTIONARY
  5
4D7C
330
4D7B
100
AcDbDictionary
280
     1
281
     1
  3
ACAD_DIMASSOC
360
4D7D
  0
DICTIONARY
  5
4D7F
330
4D7E
100
AcDbDictionary
280
     1
281
     1
  3
ACAD_DIMASSOC
360
4D80
  0
DICTIONARY
  5
4D82
330
4D81
100
AcDbDictionary
280
     1
281
     1
  3
ACAD_DIMASSOC
360
4D83
  0
DICTIONARY
  5
4D85
330
4D84
100
AcDbDictionary
280
     1
281
     1
  3
ACAD_DIMASSOC
360
4D86
  0
DICTIONARY
  5
4D88
330
4D87
100
AcDbDictionary
280
     1
281
     1
  3
ACAD_DIMASSOC
360
4D89
  0
DICTIONARY
  5
4D8C
330
4D8B
100
AcDbDictionary
280
     1
281
     1
  3
ACAD_DIMASSOC
360
4D8D
  0
DICTIONARY
  5
4D8F
330
4D8E
100
AcDbDictionary
280
     1
281
     1
  3
ACAD_DIMASSOC
360
4D90
  0
DICTIONARY
  5
4D96
330
4D95
100
AcDbDictionary
280
     1
281
     1
  3
ACAD_DIMASSOC
360
4D97
  0
DICTIONARY
  5
4D9C
330
4D9B
100
AcDbDictionary
280
     1
281
     1
  3
ACAD_DIMASSOC
360
4D9D
  0
DICTIONARY
  5
4DA1
330
4DA0
100
AcDbDictionary
280
     1
281
     1
  3
ACAD_DIMASSOC
360
4DA2
  0
DICTIONARY
  5
4DA5
330
4DA4
100
AcDbDictionary
280
     1
281
     1
  3
ACAD_DIMASSOC
360
4DA6
  0
DICTIONARY
  5
4DA9
330
4DA8
100
AcDbDictionary
280
     1
281
     1
  3
ACAD_DIMASSOC
360
4DAA
  0
DICTIONARY
  5
BE
102
{ACAD_REACTORS
330
C
102
}
330
C
100
AcDbDictionary
281
     1
  0
DICTIONARY
  5
D
102
{ACAD_REACTORS
330
C
102
}
330
C
100
AcDbDictionary
281
     1
  0
DICTIONARY
  5
1A
102
{ACAD_REACTORS
330
C
102
}
330
C
100
AcDbDictionary
281
     1
  3
Model
350
22
  3
配置1
350
1E
  3
配置2
350
26
  0
DICTIONARY
  5
BD
102
{ACAD_REACTORS
330
C
102
}
330
C
100
AcDbDictionary
281
     1
  0
DICTIONARY
  5
17
102
{ACAD_REACTORS
330
C
102
}
330
C
100
AcDbDictionary
281
     1
  3
Standard
350
18
  0
DICTIONARY
  5
19
102
{ACAD_REACTORS
330
C
102
}
330
C
100
AcDbDictionary
281
     1
  0
ACDBDICTIONARYWDFLT
  5
E
102
{ACAD_REACTORS
330
C
102
}
330
C
100
AcDbDictionary
281
     1
  3
Normal
350
F
100
AcDbDictionaryWithDefault
340
F
  0
DICTIONARY
  5
11A
102
{ACAD_REACTORS
330
C
102
}
330
C
100
AcDbDictionary
281
     1
  3
Standard
350
11B
  0
DICTIONARY
  5
5437
102
{ACAD_REACTORS
330
C
102
}
330
C
100
AcDbDictionary
281
     1
  0
DICTIONARY
  5
94
102
{ACAD_REACTORS
330
C
102
}
330
C
100
AcDbDictionary
281
     1
  3
CTABLESTYLE
350
138
  3
DIMASSOC
350
96
  3
INDEXCTL
350
95
  3
PROJECTNAME
350
52A1
  0
DICTIONARY
  5
5B
102
{ACAD_REACTORS
330
C
102
}
330
C
100
AcDbDictionary
281
     1
  3
AcmBOM
350
1B5
  3
AcmStdDictionary
350
61
  3
AMDTSECTSYM_ARROWCOLOR
350
123
  0
DICTIONARY
  5
41
102
{ACAD_REACTORS
330
C
102
}
330
C
100
AcDbDictionary
281
     1
  3
AcMgSettings
350
534E
  0
DICTIONARY
  5
1B8
102
{ACAD_REACTORS
330
C
102
}
330
C
100
AcDbDictionary
281
     1
  0
XRECORD
  5
5436
102
{ACAD_REACTORS
330
C
102
}
330
C
100
AcDbXrecord
280
     1
  1
DWGPROPS COOKIE
  2

  3

  4

  6

  7

  8

  9

300
AmdtFileType=84
301
=
302
=
303
=
304
=
305
=
306
=
307
=
308
=
309
=
 40
0.2826779398148148
 41
2454070.719031748
 42
2457068.628518148
  1

 90
        1
  0
DICTIONARY
  5
436C
102
{ACAD_REACTORS
330
3F9
102
}
330
3F9
100
AcDbDictionary
281
     1
  0
DICTIONARY
  5
C35
102
{ACAD_REACTORS
330
3F9
102
}
330
3F9
100
AcDbDictionary
281
     1
  0
DICTIONARY
  5
436B
102
{ACAD_REACTORS
330
3F9
102
}
330
3F9
100
AcDbDictionary
281
     1
1001
ACAD
1000
<All
  0
DICTIONARY
  5
5429
102
{ACAD_REACTORS
330
8F
102
}
330
8F
100
AcDbDictionary
281
     1
  3
*A1
350
542A
  0
SORTENTSTABLE
  5
1588
102
{ACAD_REACTORS
330
8F
102
}
330
8F
100
AcDbSortentsTable
330
1F
  0
SORTENTSTABLE
  5
4473
102
{ACAD_REACTORS
330
4472
102
}
330
4472
100
AcDbSortentsTable
330
4471
  0
DIMASSOC
  5
4D5E
102
{ACAD_REACTORS
330
4D5D
102
}
330
4D5D
100
AcDbDimAssoc
330
4D5C
 90
        3
 70
     0
 71
     0
  1
AcDbOsnapPointRef
 72
    13
331
4C30
 73
     2
 91
        0
 40
0.0
 10
0.0
 20
0.0
 30
2.000000000000000E+50
 75
     0
  1
AcDbOsnapPointRef
 72
     1
331
4C2E
 73
     2
 91
        0
 40
1.0
 10
0.0
 20
0.0
 30
2.000000000000000E+50
 75
     0
  0
DIMASSOC
  5
4D61
102
{ACAD_REACTORS
330
4D60
102
}
330
4D60
100
AcDbDimAssoc
330
4D5F
 90
        1
 70
     0
 71
     0
  1
AcDbOsnapPointRef
 72
     1
331
4C3D
 73
     2
 91
        0
 40
1.0
 10
0.0
 20
0.0
 30
2.000000000000000E+50
 75
     0
  0
DIMASSOC
  5
4D65
102
{ACAD_REACTORS
330
4D64
102
}
330
4D64
100
AcDbDimAssoc
330
4D63
 90
        3
 70
     0
 71
     0
  1
AcDbOsnapPointRef
 72
     1
331
4C3A
 73
     2
 91
        0
 40
1.0
 10
0.0
 20
0.0
 30
2.000000000000000E+50
 75
     0
  1
AcDbOsnapPointRef
 72
     8
331
4C3D
 73
     2
 91
        0
 40
1.0
 10
0.0
 20
0.0
 30
0.0
 75
     1
  1
AcDbOsnapPointRef
 72
     1
331
4C3A
 73
     2
 91
        0
 40
1.0
 10
0.0
 20
0.0
 30
2.000000000000000E+50
 75
     0
  0
DIMASSOC
  5
4D68
102
{ACAD_REACTORS
330
4D67
102
}
330
4D67
100
AcDbDimAssoc
330
4D66
 90
        3
 70
     0
 71
     0
  1
AcDbOsnapPointRef
 72
     1
331
4C2E
 73
     2
 91
        0
 40
1.0
 10
0.0
 20
0.0
 30
2.000000000000000E+50
 75
     0
  1
AcDbOsnapPointRef
 72
     1
331
4C3D
 73
     2
 91
        0
 40
1.0
 10
0.0
 20
0.0
 30
2.000000000000000E+50
 75
     0
  0
DIMASSOC
  5
4D6C
102
{ACAD_REACTORS
330
4D6B
102
}
330
4D6B
100
AcDbDimAssoc
330
4D6A
 90
        3
 70
     0
 71
     0
  1
AcDbOsnapPointRef
 72
    13
331
4CA6
 73
     2
 91
        0
 40
0.0
 10
0.0
 20
0.0
 30
2.000000000000000E+50
 75
     0
  1
AcDbOsnapPointRef
 72
    13
331
4CA8
 73
     2
 91
        0
 40
0.0
 10
0.0
 20
0.0
 30
2.000000000000000E+50
 75
     0
  0
DIMASSOC
  5
4D6F
102
{ACAD_REACTORS
330
4D6E
102
}
330
4D6E
100
AcDbDimAssoc
330
4D6D
 90
        3
 70
     0
 71
     0
  1
AcDbOsnapPointRef
 72
     1
331
4CA7
 73
     2
 91
        0
 40
1.0
 10
0.0
 20
0.0
 30
2.000000000000000E+50
 75
     0
  1
AcDbOsnapPointRef
 72
     8
331
4CA9
 73
     2
 91
        0
 40
0.9999999999999879
 10
0.0
 20
0.0
 30
0.0
 75
     1
  1
AcDbOsnapPointRef
 72
     1
331
4CA7
 73
     2
 91
        0
 40
1.0
 10
0.0
 20
0.0
 30
2.000000000000000E+50
 75
     0
  0
DIMASSOC
  5
4D72
102
{ACAD_REACTORS
330
4D71
102
}
330
4D71
100
AcDbDimAssoc
330
4D70
 90
        1
 70
     0
 71
     0
  1
AcDbOsnapPointRef
 72
    13
331
4CA8
 73
     2
 91
        0
 40
0.0
 10
0.0
 20
0.0
 30
2.000000000000000E+50
 75
     0
  0
DIMASSOC
  5
4D79
102
{ACAD_REACTORS
330
4D78
102
}
330
4D78
100
AcDbDimAssoc
330
4D77
 90
        3
 70
     0
 71
     0
  1
AcDbOsnapPointRef
 72
    13
331
4C77
 73
     2
 91
        0
 40
0.0
 10
0.0
 20
0.0
 30
2.000000000000000E+50
 75
     0
  1
AcDbOsnapPointRef
 72
    13
331
4C7C
 73
     2
 91
        0
 40
0.0
 10
0.0
 20
0.0
 30
2.000000000000000E+50
 75
     0
  0
DIMASSOC
  5
4D7D
102
{ACAD_REACTORS
330
4D7C
102
}
330
4D7C
100
AcDbDimAssoc
330
4D7B
 90
        2
 70
     0
 71
     0
  1
AcDbOsnapPointRef
 72
     1
331
4C56
 73
     2
 91
        0
 40
1.0
 10
0.0
 20
0.0
 30
2.000000000000000E+50
 75
     0
  0
DIMASSOC
  5
4D80
102
{ACAD_REACTORS
330
4D7F
102
}
330
4D7F
100
AcDbDimAssoc
330
4D7E
 90
        3
 70
     0
 71
     0
  1
AcDbOsnapPointRef
 72
    13
331
4C78
 73
     2
 91
        0
 40
0.0
 10
0.0
 20
0.0
 30
2.000000000000000E+50
 75
     0
  1
AcDbOsnapPointRef
 72
     8
331
4C79
 73
     2
 91
        0
 40
1.0
 10
0.0
 20
0.0
 30
0.0
 75
     1
  1
AcDbOsnapPointRef
 72
    13
331
4C78
 73
     2
 91
        0
 40
0.0
 10
0.0
 20
0.0
 30
2.000000000000000E+50
 75
     0
  0
DIMASSOC
  5
4D83
102
{ACAD_REACTORS
330
4D82
102
}
330
4D82
100
AcDbDimAssoc
330
4D81
 90
        3
 70
     0
 71
     0
  1
AcDbOsnapPointRef
 72
    13
331
4C78
 73
     2
 91
        0
 40
0.0
 10
0.0
 20
0.0
 30
2.000000000000000E+50
 75
     0
  1
AcDbOsnapPointRef
 72
     1
331
4C56
 73
     2
 91
        0
 40
1.0
 10
0.0
 20
0.0
 30
2.000000000000000E+50
 75
     0
  0
DIMASSOC
  5
4D86
102
{ACAD_REACTORS
330
4D85
102
}
330
4D85
100
AcDbDimAssoc
330
4D84
 90
        3
 70
     0
 71
     0
  1
AcDbOsnapPointRef
 72
     1
331
4C56
 73
     2
 91
        0
 40
1.0
 10
0.0
 20
0.0
 30
2.000000000000000E+50
 75
     0
  1
AcDbOsnapPointRef
 72
    13
331
4C5A
 73
     2
 91
        0
 40
0.0
 10
0.0
 20
0.0
 30
2.000000000000000E+50
 75
     0
  0
DIMASSOC
  5
4D89
102
{ACAD_REACTORS
330
4D88
102
}
330
4D88
100
AcDbDimAssoc
330
4D87
 90
        1
 70
     0
 71
     0
  1
AcDbOsnapPointRef
 72
     1
331
4C56
 73
     2
 91
        0
 40
1.0
 10
0.0
 20
0.0
 30
2.000000000000000E+50
 75
     0
  0
DIMASSOC
  5
4D8D
102
{ACAD_REACTORS
330
4D8C
102
}
330
4D8C
100
AcDbDimAssoc
330
4D8B
 90
        2
 70
     0
 71
     0
  1
AcDbOsnapPointRef
 72
    13
331
4C5A
 73
     2
 91
        0
 40
0.0
 10
0.0
 20
0.0
 30
2.000000000000000E+50
 75
     0
  0
DIMASSOC
  5
4D90
102
{ACAD_REACTORS
330
4D8F
102
}
330
4D8F
100
AcDbDimAssoc
330
4D8E
 90
        3
 70
     0
 71
     0
  1
AcDbOsnapPointRef
 72
    13
331
4C78
 73
     2
 91
        0
 40
0.0
 10
0.0
 20
0.0
 30
2.000000000000000E+50
 75
     0
  1
AcDbOsnapPointRef
 72
    13
331
4C5A
 73
     2
 91
        0
 40
0.0
 10
0.0
 20
0.0
 30
2.000000000000000E+50
 75
     0
  0
DIMASSOC
  5
4D97
102
{ACAD_REACTORS
330
4D96
102
}
330
4D96
100
AcDbDimAssoc
330
4D95
 90
        2
 70
     0
 71
     0
  1
AcDbOsnapPointRef
 72
    13
331
4C55
 73
     2
 91
        0
 40
0.0
 10
0.0
 20
0.0
 30
2.000000000000000E+50
 75
     0
  0
DIMASSOC
  5
4D9D
102
{ACAD_REACTORS
330
4D9C
102
}
330
4D9C
100
AcDbDimAssoc
330
4D9B
 90
        1
 70
     0
 71
     0
  1
AcDbOsnapPointRef
 72
     1
331
4CB6
 73
     2
 91
        0
 40
1.0
 10
0.0
 20
0.0
 30
2.000000000000000E+50
 75
     0
  0
DIMASSOC
  5
4DA2
102
{ACAD_REACTORS
330
4DA1
102
}
330
4DA1
100
AcDbDimAssoc
330
4DA0
 90
        3
 70
     0
 71
     0
  1
AcDbOsnapPointRef
 72
    13
331
4D4E
 73
     2
 91
        0
 40
0.0
 10
0.0
 20
0.0
 30
2.000000000000000E+50
 75
     0
  1
AcDbOsnapPointRef
 72
    13
331
4D43
 73
     2
 91
        0
 40
0.0
 10
0.0
 20
0.0
 30
2.000000000000000E+50
 75
     0
  0
DIMASSOC
  5
4DA6
102
{ACAD_REACTORS
330
4DA5
102
}
330
4DA5
100
AcDbDimAssoc
330
4DA4
 90
        2
 70
     0
 71
     0
  1
AcDbOsnapPointRef
 72
    13
331
4D00
 73
     2
 91
        0
 40
0.0
 10
0.0
 20
0.0
 30
2.000000000000000E+50
 75
     0
  0
DIMASSOC
  5
4DAA
102
{ACAD_REACTORS
330
4DA9
102
}
330
4DA9
100
AcDbDimAssoc
330
4DA8
 90
        2
 70
     0
 71
     0
  1
AcDbOsnapPointRef
 72
     1
331
4CFE
 73
     2
 91
        0
 40
1.0
 10
0.0
 20
0.0
 30
2.000000000000000E+50
 75
     0
  0
LAYOUT
  5
22
102
{ACAD_XDICTIONARY
360
543A
102
}
102
{ACAD_REACTORS
330
1A
102
}
330
1A
100
AcDbPlotSettings
  1

  2
\\RD\EPSON Stylus C63 Series單色
  4
A4
  6

 40
3.757083177566528
 41
3.757076978683471
 42
3.757080078125
 43
3.757080078125
 44
209.9733276367187
 45
296.9683227539062
 46
0.0
 47
0.0
 48
0.0
 49
0.0
140
0.0
141
0.0
142
1.0
143
0.3405120737814363
 70
 11952
 72
     1
 73
     0
 74
     0
  7
單色出圖.ctb
 75
     0
147
2.936753428137963
148
-2047.07469463503
149
-1261.649717473083
100
AcDbLayout
  1
Model
 70
     1
 71
     0
 10
0.0
 20
0.0
 11
12.0
 21
9.0
 12
0.0
 22
0.0
 32
0.0
 14
0.0
 24
0.0
 34
0.0
 15
0.0
 25
0.0
 35
0.0
146
0.0
 13
0.0
 23
0.0
 33
0.0
 16
1.0
 26
0.0
 36
0.0
 17
0.0
 27
1.0
 37
0.0
 76
     0
330
1F
1001
ACAD_PSEXT
1000
\\RD\EPSON Stylus C63 Series單色
1000
EPSON Stylus C63 Series
1000
\\RD
1000

1070
     0
  0
LAYOUT
  5
1E
102
{ACAD_XDICTIONARY
360
5438
102
}
102
{ACAD_REACTORS
330
1A
102
}
330
1A
100
AcDbPlotSettings
  1

  2

  4

  6

 40
0.0
 41
0.0
 42
0.0
 43
0.0
 44
0.0
 45
0.0
 46
0.0
 47
0.0
 48
0.0
 49
0.0
140
0.0
141
0.0
142
1.0
143
1.0
 70
   688
 72
     0
 73
     0
 74
     5
  7
單色出圖.ctb
 75
    16
147
1.0
148
0.0
149
0.0
100
AcDbLayout
  1
配置1
 70
     1
 71
     1
 10
0.0
 20
0.0
 11
420.0
 21
297.0
 12
0.0
 22
0.0
 32
0.0
 14
1.000000000000000E+20
 24
1.000000000000000E+20
 34
1.000000000000000E+20
 15
-1.000000000000000E+20
 25
-1.000000000000000E+20
 35
-1.000000000000000E+20
146
0.0
 13
0.0
 23
0.0
 33
0.0
 16
1.0
 26
0.0
 36
0.0
 17
0.0
 27
1.0
 37
0.0
 76
     0
330
1B
  0
LAYOUT
  5
26
102
{ACAD_XDICTIONARY
360
543C
102
}
102
{ACAD_REACTORS
330
1A
102
}
330
1A
100
AcDbPlotSettings
  1

  2

  4

  6

 40
0.0
 41
0.0
 42
0.0
 43
0.0
 44
0.0
 45
0.0
 46
0.0
 47
0.0
 48
0.0
 49
0.0
140
0.0
141
0.0
142
1.0
143
1.0
 70
   688
 72
     0
 73
     0
 74
     5
  7
單色出圖.ctb
 75
    16
147
1.0
148
0.0
149
0.0
100
AcDbLayout
  1
配置2
 70
     1
 71
     2
 10
0.0
 20
0.0
 11
12.0
 21
9.0
 12
0.0
 22
0.0
 32
0.0
 14
0.0
 24
0.0
 34
0.0
 15
0.0
 25
0.0
 35
0.0
146
0.0
 13
0.0
 23
0.0
 33
0.0
 16
1.0
 26
0.0
 36
0.0
 17
0.0
 27
1.0
 37
0.0
 76
     0
330
23
  0
MLINESTYLE
  5
18
102
{ACAD_REACTORS
330
17
102
}
330
17
100
AcDbMlineStyle
  2
STANDARD
 70
     0
  3

 62
   256
 51
90.0
 52
90.0
 71
     2
 49
0.5
 62
   256
  6
BYLAYER
 49
-0.5
 62
   256
  6
BYLAYER
  0
ACDBPLACEHOLDER
  5
F
102
{ACAD_REACTORS
330
E
102
}
330
E
  0
TABLESTYLE
  5
11B
102
{ACAD_REACTORS
330
11A
102
}
330
11A
100
AcDbTableStyle
  3
Standard
 70
     0
 71
     0
 40
1.5
 41
1.5
280
     0
281
     0
  7
STANDARD
140
4.5
170
     2
 62
     0
 63
     7
283
     0
274
    -2
284
     1
 64
     0
275
    -2
285
     1
 65
     0
276
    -2
286
     1
 66
     0
277
    -2
287
     1
 67
     0
278
    -2
288
     1
 68
     0
279
    -2
289
     1
 69
     0
  7
STANDARD
140
6.0
170
     5
 62
     0
 63
     7
283
     0
274
    -2
284
     1
 64
     0
275
    -2
285
     1
 65
     0
276
    -2
286
     1
 66
     0
277
    -2
287
     1
 67
     0
278
    -2
288
     1
 68
     0
279
    -2
289
     1
 69
     0
  7
STANDARD
140
4.5
170
     5
 62
     0
 63
     7
283
     0
274
    -2
284
     1
 64
     0
275
    -2
285
     1
 65
     0
276
    -2
286
     1
 66
     0
277
    -2
287
     1
 67
     0
278
    -2
288
     1
 68
     0
279
    -2
289
     1
 69
     0
  0
DICTIONARYVAR
  5
138
102
{ACAD_REACTORS
330
94
102
}
330
94
100
DictionaryVariables
280
     0
  1
STANDARD
  0
DICTIONARYVAR
  5
96
102
{ACAD_REACTORS
330
94
102
}
330
94
100
DictionaryVariables
280
     0
  1
2
  0
DICTIONARYVAR
  5
95
102
{ACAD_REACTORS
330
94
102
}
330
94
100
DictionaryVariables
280
     0
  1
1
  0
DICTIONARYVAR
  5
52A1
102
{ACAD_REACTORS
330
94
102
}
330
94
100
DictionaryVariables
280
     0
  1

  0
DICTIONARY
  5
1B5
102
{ACAD_REACTORS
330
5B
102
}
330
5B
100
AcDbDictionary
281
     1
  0
DICTIONARY
  5
61
102
{ACAD_REACTORS
330
5B
102
}
330
5B
100
AcDbDictionary
281
     1
  0
XRECORD
  5
123
102
{ACAD_REACTORS
330
5B
102
}
330
5B
100
AcDbXrecord
280
     1
 90
-1023410169
  0
DICTIONARY
  5
534E
102
{ACAD_REACTORS
330
41
102
}
330
41
100
AcDbDictionary
281
     1
  3
DWGSETTINGS
350
534F
  3
TRANSSETTINGS
350
5352
  0
LAYER_INDEX
  5
542A
102
{ACAD_REACTORS
330
5429
102
}
330
5429
100
AcDbIndex
 40
2457068.628518148
100
AcDbLayerIndex
  8
0
360
542B
 90
       36
  8
Defpoints
360
542C
 90
        0
  8
AM_VIS
360
542D
 90
      354
  8
AM_4
360
542E
 90
       23
  8
AM_7
360
542F
 90
      132
  8
AM_5
360
5430
 90
       51
  8
DIM2
360
5431
 90
       79
  8
LOGO
360
5432
 90
      103
  8
底
360
5433
 90
        0
  0
DICTIONARY
  5
543A
330
22
100
AcDbDictionary
280
     1
281
     1
  3
ACAD_XREC_ROUNDTRIP
360
543B
  0
DICTIONARY
  5
5438
330
1E
100
AcDbDictionary
280
     1
281
     1
  3
ACAD_XREC_ROUNDTRIP
360
5439
  0
DICTIONARY
  5
543C
330
26
100
AcDbDictionary
280
     1
281
     1
  3
ACAD_XREC_ROUNDTRIP
360
543D
  0
IDBUFFER
  5
542B
330
0
100
AcDbIdBuffer
330
4EC0
330
4EC1
330
4EC2
330
4EC3
330
4EC4
330
4EC5
330
4EC6
330
4EC7
330
4EC8
330
4EC9
330
4ECA
330
4ECB
330
4ECC
330
4ECD
330
4ECE
330
4ECF
330
4ED0
330
4ED1
330
5129
330
5330
330
46E2
330
46E3
330
46E4
330
4EB3
330
4EB4
330
4EB5
330
4EB6
330
4EB7
330
4EB8
330
4EB9
330
4EBA
330
4EBB
330
4EBC
330
4EBD
330
4EBE
330
4EBF
  0
IDBUFFER
  5
542C
330
0
100
AcDbIdBuffer
  0
IDBUFFER
  5
542D
330
0
100
AcDbIdBuffer
330
4D13
330
4D14
330
4D15
330
4D16
330
4D17
330
4D18
330
4D19
330
4D1A
330
4D1B
330
4D1C
330
4D1D
330
4D1E
330
4D1F
330
4D20
330
4D21
330
4D22
330
4D23
330
4D24
330
4D25
330
4D26
330
4D27
330
4D28
330
4D29
330
4D2A
330
4D2B
330
4D2C
330
4D2D
330
4D2E
330
4D2F
330
4D30
330
4D31
330
4D32
330
4D33
330
4D34
330
4D35
330
4D36
330
4D37
330
4D38
330
4D39
330
4D3A
330
4D3B
330
4D3C
330
4D3D
330
4D3E
330
4D3F
330
4D40
330
4D41
330
4D42
330
4D43
330
4D44
330
4D45
330
4D46
330
4D47
330
4D48
330
4D49
330
4D4A
330
4D4B
330
4D4C
330
4D4D
330
4D4E
330
4D4F
330
4D50
330
4D51
330
4D52
330
4D53
330
4D54
330
4D55
330
4D56
330
4D57
330
4D58
330
4D59
330
4D5A
330
4DFC
330
4DFD
330
4DFE
330
4DFF
330
4E00
330
4E01
330
4E02
330
4E03
330
4E04
330
4E05
330
4E06
330
4E07
330
4E08
330
4E09
330
4E0A
330
4E0B
330
4E0C
330
4E0D
330
4E0E
330
4E0F
330
4E10
330
4E11
330
4E12
330
4E13
330
4E14
330
4E15
330
4E16
330
4E17
330
4E18
330
4E19
330
4E1A
330
4E1B
330
4E1C
330
4E1D
330
4E1E
330
4E1F
330
4E20
330
4E21
330
4E22
330
4E23
330
4E24
330
4E25
330
4C23
330
4C24
330
4C25
330
4C26
330
4C27
330
4C28
330
4C29
330
4C2A
330
4C2B
330
4C2C
330
4C2D
330
4C2E
330
4C2F
330
4C30
330
4C31
330
4C32
330
4C33
330
4C34
330
4C35
330
4C36
330
4C37
330
4C38
330
4C39
330
4C3A
330
4C3B
330
4C3C
330
4C3D
330
4C3E
330
4C3F
330
4C40
330
4C41
330
4C42
330
4C43
330
4C44
330
4C45
330
4C46
330
4C47
330
4C48
330
4C49
330
4C4A
330
4C4B
330
4C4C
330
4C4D
330
4C4E
330
4C4F
330
4C50
330
4C51
330
4C52
330
4C53
330
4C54
330
4C55
330
4C56
330
4C57
330
4C58
330
4C59
330
4C5A
330
4C5B
330
4C5C
330
4C5D
330
4C5E
330
4C5F
330
4C60
330
4C61
330
4C62
330
4C63
330
4C64
330
4C65
330
4C66
330
4C67
330
4C68
330
4C69
330
4C6A
330
4C6B
330
4C6C
330
4C6D
330
4C6E
330
4C6F
330
4C70
330
4C71
330
4C72
330
4C73
330
4C74
330
4C75
330
4C76
330
4C77
330
4C78
330
4C79
330
4C7A
330
4C7B
330
4C7C
330
4C7D
330
4C7E
330
4C7F
330
4C80
330
4C81
330
4C82
330
4C83
330
4C84
330
4C85
330
4C86
330
4C87
330
4C88
330
4C89
330
4C8A
330
4C8B
330
4C8C
330
4C8D
330
4C8E
330
4C8F
330
4C90
330
4C91
330
4C92
330
4C93
330
4C94
330
4C95
330
4C96
330
4C97
330
4C98
330
4C99
330
4C9A
330
4C9B
330
4C9C
330
4C9D
330
4C9E
330
4C9F
330
4CA0
330
4CA1
330
4CA2
330
4CA3
330
4CA4
330
4CA5
330
4CA6
330
4CA7
330
4CA8
330
4CA9
330
4CAA
330
4CAB
330
4CAC
330
4CAD
330
4CAE
330
4CAF
330
4CB0
330
4CB1
330
4CB2
330
4CB3
330
4CB4
330
4CB5
330
4CB6
330
4CB7
330
4CB8
330
4CB9
330
4CBA
330
4CBB
330
4CBC
330
4CBD
330
4CBE
330
4CBF
330
4CC0
330
4CC1
330
4CC2
330
4CC3
330
4CC4
330
4CC5
330
4CC6
330
4CC7
330
4CC8
330
4CC9
330
4CCA
330
4CCB
330
4CCC
330
4CCD
330
4CCE
330
4CCF
330
4CD0
330
4CD1
330
4CD2
330
4CD3
330
4CD4
330
4CD5
330
4CD6
330
4CD7
330
4CD8
330
4CD9
330
4CDA
330
4CDB
330
4CDC
330
4CDD
330
4CDE
330
4CDF
330
4CE0
330
4CE1
330
4CE2
330
4CE3
330
4CE4
330
4CE5
330
4CE6
330
4CE7
330
4CE8
330
4CE9
330
4CEA
330
4CEB
330
4CEC
330
4CED
330
4CEE
330
4CEF
330
4CF0
330
4CF1
330
4CF2
330
4CF3
330
4CF4
330
4CF5
330
4CF6
330
4CF7
330
4CF8
330
4CF9
330
4CFA
330
4CFB
330
4CFC
330
4CFD
330
4CFE
330
4CFF
330
4D00
330
4D01
330
4D02
330
4D03
330
4D04
330
4D05
330
4D06
330
4D07
330
4D08
330
4D09
330
4D0A
330
4D0B
330
4D0C
330
4D0D
330
4D0E
330
4D0F
330
4D10
330
4D11
330
4D12
  0
IDBUFFER
  5
542E
330
0
100
AcDbIdBuffer
330
4C1C
330
4C1D
330
4C1E
330
4C1F
330
4C20
330
4C21
330
4C22
330
4C0C
330
4C0D
330
4C0E
330
4C0F
330
4C10
330
4C11
330
4C12
330
4C13
330
4C14
330
4C15
330
4C16
330
4C17
330
4C18
330
4C19
330
4C1A
330
4C1B
  0
IDBUFFER
  5
542F
330
0
100
AcDbIdBuffer
330
4E96
330
4E97
330
4E98
330
4E99
330
4E9A
330
4E9B
330
4E9C
330
4E9D
330
4E9E
330
4E9F
330
4EA0
330
4EA1
330
4EA2
330
4EA3
330
4EAB
330
5128
330
532C
330
532D
330
532E
330
532F
330
4E26
330
4E27
330
4E28
330
4E29
330
4E2A
330
4E2B
330
4E2C
330
4E2D
330
4E2E
330
4E2F
330
4E30
330
4E31
330
4E32
330
4E33
330
4E34
330
4E35
330
4E36
330
4E37
330
4E38
330
4E39
330
4E3A
330
4E3B
330
4E3C
330
4E3D
330
4E3E
330
4E3F
330
4E40
330
4E41
330
4E42
330
4E43
330
4E44
330
4E45
330
4E46
330
4E47
330
4E48
330
4E49
330
4E4A
330
4E4B
330
4E4C
330
4E4D
330
4E4E
330
4E4F
330
4E50
330
4E51
330
4E52
330
4E53
330
4E54
330
4E55
330
4E56
330
4E57
330
4E58
330
4E59
330
4E5A
330
4E5B
330
4E5C
330
4E5D
330
4E5E
330
4E5F
330
4E60
330
4E61
330
4E62
330
4E63
330
4E64
330
4E65
330
4E66
330
4E67
330
4E68
330
4E69
330
4E6A
330
4E6B
330
4E6C
330
4E6D
330
4E6E
330
4E6F
330
4E70
330
4E71
330
4E72
330
4E73
330
4E74
330
4E75
330
4E76
330
4E77
330
4E78
330
4E79
330
4E7A
330
4E7B
330
4E7C
330
4E7D
330
4E7E
330
4E7F
330
4E80
330
4E81
330
4E82
330
4E83
330
4E84
330
4E85
330
4E86
330
4E87
330
4E88
330
4E89
330
4E8A
330
4E8B
330
4E8C
330
4E8D
330
4E8E
330
4E8F
330
4E90
330
4E91
330
4E92
330
4E93
330
4E94
330
4E95
  0
IDBUFFER
  5
5430
330
0
100
AcDbIdBuffer
330
4EAA
330
50E6
330
50E7
330
4D5B
330
4D5C
330
4D5F
330
4D62
330
4D63
330
4D66
330
4D69
330
4D6A
330
4D6D
330
4D70
330
4D73
330
4D74
330
4D75
330
4D76
330
4D77
330
4D7A
330
4D7B
330
4D7E
330
4D81
330
4D84
330
4D87
330
4D8A
330
4D8B
330
4D8E
330
4D91
330
4D92
330
4D93
330
4D94
330
4D95
330
4D98
330
4D9A
330
4D9B
330
4D9E
330
4D9F
330
4DA0
330
4DA3
330
4DA4
330
4DA7
330
4DA8
330
4DAB
330
4DAC
330
4DAD
330
4EA4
330
4EA5
330
4EA6
330
4EA7
330
4EA8
330
4EA9
  0
IDBUFFER
  5
5431
330
0
100
AcDbIdBuffer
330
4DDE
330
4DDF
330
4DE0
330
4DE1
330
4DE2
330
4DE3
330
4DE4
330
4DE5
330
4DE6
330
4DE7
330
4DE8
330
4DE9
330
4DEA
330
4DEB
330
4DEC
330
4DED
330
4DEE
330
4DEF
330
4DF0
330
4DF1
330
4DF2
330
4DF3
330
4DF4
330
4DF5
330
4DF6
330
4DF7
330
4DF8
330
4DF9
330
4DFA
330
4DFB
330
5119
330
4DAE
330
4DAF
330
4DB0
330
4DB1
330
4DB2
330
4DB3
330
4DB4
330
4DB5
330
4DB6
330
4DB7
330
4DB8
330
4DB9
330
4DBA
330
4DBB
330
4DBC
330
4DBD
330
4DBE
330
4DBF
330
4DC0
330
4DC1
330
4DC2
330
4DC3
330
4DC4
330
4DC5
330
4DC6
330
4DC7
330
4DC8
330
4DC9
330
4DCA
330
4DCB
330
4DCC
330
4DCD
330
4DCE
330
4DCF
330
4DD0
330
4DD1
330
4DD2
330
4DD3
330
4DD4
330
4DD5
330
4DD6
330
4DD7
330
4DD8
330
4DD9
330
4DDA
330
4DDB
330
4DDC
330
4DDD
  0
IDBUFFER
  5
5432
330
0
100
AcDbIdBuffer
330
4692
330
4693
330
4694
330
4695
330
4696
330
4697
330
4698
330
4699
330
469A
330
469B
330
469C
330
469D
330
469E
330
469F
330
46A0
330
46A1
330
46A2
330
46A3
330
46AF
330
46B0
330
46B1
330
46B2
330
46B3
330
46B4
330
46B5
330
46B6
330
46B7
330
46B8
330
46B9
330
46BA
330
46BB
330
46BC
330
46BD
330
46BE
330
46BF
330
46C0
330
46C1
330
46C2
330
46C3
330
46C6
330
46C7
330
46C8
330
46C9
330
46D6
330
46D7
330
46D8
330
46D9
330
46DA
330
46DB
330
46DC
330
46DD
330
46DE
330
46DF
330
46E0
330
46E1
330
464D
330
464E
330
464F
330
4650
330
4651
330
4652
330
4653
330
4654
330
4655
330
4656
330
4657
330
4658
330
4659
330
465A
330
465B
330
465C
330
465D
330
465E
330
465F
330
4660
330
4661
330
4662
330
4663
330
4664
330
4668
330
466C
330
466D
330
4671
330
4672
330
4673
330
4674
330
4675
330
4676
330
4677
330
4678
330
467C
330
4680
330
4684
330
4685
330
4686
330
468A
330
468B
330
468C
330
468D
330
468E
330
468F
330
4690
330
4691
  0
IDBUFFER
  5
5433
330
0
100
AcDbIdBuffer
  0
XRECORD
  5
543B
102
{ACAD_REACTORS
330
543A
102
}
330
543A
100
AcDbXrecord
280
     1
102
SHADEPLOT
 70
     0
102
SHADEPLOTRESLEVEL
 70
     2
102
SHADEPLOTCUSTOMDPI
 70
   300
  0
XRECORD
  5
5439
102
{ACAD_REACTORS
330
5438
102
}
330
5438
100
AcDbXrecord
280
     1
102
SHADEPLOT
 70
     0
102
SHADEPLOTRESLEVEL
 70
     2
102
SHADEPLOTCUSTOMDPI
 70
   300
  0
XRECORD
  5
543D
102
{ACAD_REACTORS
330
543C
102
}
330
543C
100
AcDbXrecord
280
     1
102
SHADEPLOT
 70
     0
102
SHADEPLOTRESLEVEL
 70
     2
102
SHADEPLOTCUSTOMDPI
 70
   300
  0
ENDSEC
  0
EOF
