  0
SECTION
  2
HEADER
  9
$ACADVER
  1
AC1015
  9
$ACADMAINTVER
 70
    20
  9
$DWGCODEPAGE
  3
ANSI_950
  9
$INSBASE
 10
0.0
 20
0.0
 30
0.0
  9
$EXTMIN
 10
1379.14020152273
 20
9.830601958175359
 30
-0.0000000000001137
  9
$EXTMAX
 10
1882.503139010625
 20
399.8306019581752
 30
255.5625652320971
  9
$LIMMIN
 10
0.0
 20
0.0
  9
$LIMMAX
 10
420.0
 20
297.0
  9
$ORTHOMODE
 70
     0
  9
$REGENMODE
 70
     1
  9
$FILLMODE
 70
     1
  9
$QTEXTMODE
 70
     0
  9
$MIRRTEXT
 70
     1
  9
$LTSCALE
 40
1.0
  9
$ATTMODE
 70
     1
  9
$TEXTSIZE
 40
3.0
  9
$TRACEWID
 40
1.0
  9
$TEXTSTYLE
  7
STANDARD
  9
$CLAYER
  8
0
  9
$CELTYPE
  6
ByLayer
  9
$CECOLOR
 62
   256
  9
$CELTSCALE
 40
1.0
  9
$DISPSILH
 70
     0
  9
$DIMSCALE
 40
1.0
  9
$DIMASZ
 40
3.0
  9
$DIMEXO
 40
1.0
  9
$DIMDLI
 40
8.0
  9
$DIMRND
 40
0.0
  9
$DIMDLE
 40
0.0
  9
$DIMEXE
 40
1.5
  9
$DIMTP
 40
0.1
  9
$DIMTM
 40
0.1
  9
$DIMTXT
 40
3.5
  9
$DIMCEN
 40
0.0
  9
$DIMTSZ
 40
0.0
  9
$DIMTOL
 70
     0
  9
$DIMLIM
 70
     0
  9
$DIMTIH
 70
     0
  9
$DIMTOH
 70
     0
  9
$DIMSE1
 70
     0
  9
$DIMSE2
 70
     0
  9
$DIMTAD
 70
     1
  9
$DIMZIN
 70
     8
  9
$DIMBLK
  1

  9
$DIMASO
 70
     1
  9
$DIMSHO
 70
     1
  9
$DIMPOST
  1

  9
$DIMAPOST
  1
"
  9
$DIMALT
 70
     0
  9
$DIMALTD
 70
     2
  9
$DIMALTF
 40
0.0393701
  9
$DIMLFAC
 40
1.0
  9
$DIMTOFL
 70
     1
  9
$DIMTVP
 40
0.0
  9
$DIMTIX
 70
     0
  9
$DIMSOXD
 70
     0
  9
$DIMSAH
 70
     0
  9
$DIMBLK1
  1

  9
$DIMBLK2
  1

  9
$DIMSTYLE
  2
AM_ISO
  9
$DIMCLRD
 70
   256
  9
$DIMCLRE
 70
   256
  9
$DIMCLRT
 70
   256
  9
$DIMTFAC
 40
0.6
  9
$DIMGAP
 40
0.7
  9
$DIMJUST
 70
     0
  9
$DIMSD1
 70
     0
  9
$DIMSD2
 70
     0
  9
$DIMTOLJ
 70
     0
  9
$DIMTZIN
 70
     8
  9
$DIMALTZ
 70
     0
  9
$DIMALTTZ
 70
     0
  9
$DIMUPT
 70
     0
  9
$DIMDEC
 70
     2
  9
$DIMTDEC
 70
     8
  9
$DIMALTU
 70
     2
  9
$DIMALTTD
 70
     2
  9
$DIMTXSTY
  7
STANDARD
  9
$DIMAUNIT
 70
     0
  9
$DIMADEC
 70
     0
  9
$DIMALTRND
 40
0.0
  9
$DIMAZIN
 70
     2
  9
$DIMDSEP
 70
    46
  9
$DIMATFIT
 70
     3
  9
$DIMFRAC
 70
     0
  9
$DIMLDRBLK
  1

  9
$DIMLUNIT
 70
     2
  9
$DIMLWD
 70
    -1
  9
$DIMLWE
 70
    -1
  9
$DIMTMOVE
 70
     0
  9
$LUNITS
 70
     2
  9
$LUPREC
 70
     2
  9
$SKETCHINC
 40
1.0
  9
$FILLETRAD
 40
2.5
  9
$AUNITS
 70
     0
  9
$AUPREC
 70
     0
  9
$MENU
  1
.
  9
$ELEVATION
 40
0.0
  9
$PELEVATION
 40
0.0
  9
$THICKNESS
 40
0.0
  9
$LIMCHECK
 70
     0
  9
$CHAMFERA
 40
2.5
  9
$CHAMFERB
 40
2.5
  9
$CHAMFERC
 40
20.0
  9
$CHAMFERD
 40
0.0
  9
$SKPOLY
 70
     0
  9
$TDCREATE
 40
2454070.719031748
  9
$TDUCREATE
 40
2454070.385698415
  9
$TDUPDATE
 40
2457068.629888055
  9
$TDUUPDATE
 40
2457068.296554723
  9
$TDINDWG
 40
0.2937570602
  9
$TDUSRTIMER
 40
0.2937570602
  9
$USRTIMER
 70
     1
  9
$ANGBASE
 50
0.0
  9
$ANGDIR
 70
     0
  9
$PDMODE
 70
     0
  9
$PDSIZE
 40
0.0
  9
$PLINEWID
 40
0.0
  9
$SPLFRAME
 70
     0
  9
$SPLINETYPE
 70
     6
  9
$SPLINESEGS
 70
     8
  9
$HANDSEED
  5
6040
  9
$SURFTAB1
 70
     6
  9
$SURFTAB2
 70
     6
  9
$SURFTYPE
 70
     6
  9
$SURFU
 70
     6
  9
$SURFV
 70
     6
  9
$UCSBASE
  2

  9
$UCSNAME
  2

  9
$UCSORG
 10
0.0
 20
0.0
 30
0.0
  9
$UCSXDIR
 10
1.0
 20
0.0
 30
0.0
  9
$UCSYDIR
 10
0.0
 20
1.0
 30
0.0
  9
$UCSORTHOREF
  2

  9
$UCSORTHOVIEW
 70
     0
  9
$UCSORGTOP
 10
0.0
 20
0.0
 30
0.0
  9
$UCSORGBOTTOM
 10
0.0
 20
0.0
 30
0.0
  9
$UCSORGLEFT
 10
0.0
 20
0.0
 30
0.0
  9
$UCSORGRIGHT
 10
0.0
 20
0.0
 30
0.0
  9
$UCSORGFRONT
 10
0.0
 20
0.0
 30
0.0
  9
$UCSORGBACK
 10
0.0
 20
0.0
 30
0.0
  9
$PUCSBASE
  2

  9
$PUCSNAME
  2

  9
$PUCSORG
 10
0.0
 20
0.0
 30
0.0
  9
$PUCSXDIR
 10
1.0
 20
0.0
 30
0.0
  9
$PUCSYDIR
 10
0.0
 20
1.0
 30
0.0
  9
$PUCSORTHOREF
  2

  9
$PUCSORTHOVIEW
 70
     0
  9
$PUCSORGTOP
 10
0.0
 20
0.0
 30
0.0
  9
$PUCSORGBOTTOM
 10
0.0
 20
0.0
 30
0.0
  9
$PUCSORGLEFT
 10
0.0
 20
0.0
 30
0.0
  9
$PUCSORGRIGHT
 10
0.0
 20
0.0
 30
0.0
  9
$PUCSORGFRONT
 10
0.0
 20
0.0
 30
0.0
  9
$PUCSORGBACK
 10
0.0
 20
0.0
 30
0.0
  9
$USERI1
 70
     0
  9
$USERI2
 70
     0
  9
$USERI3
 70
     0
  9
$USERI4
 70
     0
  9
$USERI5
 70
     0
  9
$USERR1
 40
0.0
  9
$USERR2
 40
0.0
  9
$USERR3
 40
0.0
  9
$USERR4
 40
0.0
  9
$USERR5
 40
0.0
  9
$WORLDVIEW
 70
     1
  9
$SHADEDGE
 70
     3
  9
$SHADEDIF
 70
    70
  9
$TILEMODE
 70
     1
  9
$MAXACTVP
 70
    64
  9
$PINSBASE
 10
0.0
 20
0.0
 30
0.0
  9
$PLIMCHECK
 70
     0
  9
$PEXTMIN
 10
1.000000000000000E+20
 20
1.000000000000000E+20
 30
1.000000000000000E+20
  9
$PEXTMAX
 10
-1.000000000000000E+20
 20
-1.000000000000000E+20
 30
-1.000000000000000E+20
  9
$PLIMMIN
 10
0.0
 20
0.0
  9
$PLIMMAX
 10
420.0
 20
297.0
  9
$UNITMODE
 70
     0
  9
$VISRETAIN
 70
     1
  9
$PLINEGEN
 70
     0
  9
$PSLTSCALE
 70
     1
  9
$TREEDEPTH
 70
  3020
  9
$CMLSTYLE
  2
Standard
  9
$CMLJUST
 70
     0
  9
$CMLSCALE
 40
20.0
  9
$PROXYGRAPHICS
 70
     1
  9
$MEASUREMENT
 70
     1
  9
$CELWEIGHT
370
    -1
  9
$ENDCAPS
280
     0
  9
$JOINSTYLE
280
     0
  9
$LWDISPLAY
290
     0
  9
$INSUNITS
 70
     4
  9
$HYPERLINKBASE
  1

  9
$STYLESHEET
  1
彩色出圖.ctb
  9
$XEDIT
290
     1
  9
$CEPSNTYPE
380
     0
  9
$PSTYLEMODE
290
     1
  9
$FINGERPRINTGUID
  2
{72A33D65-2724-49D4-AEA8-618A406F8275}
  9
$VERSIONGUID
  2
{DC36F4B4-7C62-4E8B-8BBA-9B4F23606229}
  9
$EXTNAMES
290
     1
  9
$PSVPSCALE
 40
0.0
  9
$OLESTARTUP
290
     0
  0
ENDSEC
  0
SECTION
  2
CLASSES
  0
CLASS
  1
ACDBDICTIONARYWDFLT
  2
AcDbDictionaryWithDefault
  3
ObjectDBX Classes
 90
        0
280
     0
281
     0
  0
CLASS
  1
ACDBPLACEHOLDER
  2
AcDbPlaceHolder
  3
ObjectDBX Classes
 90
        0
280
     0
281
     0
  0
CLASS
  1
LAYOUT
  2
AcDbLayout
  3
ObjectDBX Classes
 90
        0
280
     0
281
     0
  0
CLASS
  1
ACME_DOCUMENT
  2
AcMeDbDoc
  3
AcMeServices
 90
        0
280
     0
281
     0
  0
CLASS
  1
AMGSETTINGSOBJ
  2
AmgSettingsObj
  3
"AcadM|Product Description: AutoCAD Mechanical 2000|Company: Autodesk"
 90
        0
280
     0
281
     0
  0
CLASS
  1
ACMESCOPE
  2
AcMeScope
  3
AcMeServices
 90
        0
280
     0
281
     0
  0
CLASS
  1
ACMECOMMANDHISTORY
  2
AcMeCommandHistory
  3
AcMeServices
 90
        0
280
     0
281
     0
  0
CLASS
  1
ACIMSYSVARMAN
  2
AcImSysVarManager
  3
AcMeServices
 90
        0
280
     0
281
     0
  0
CLASS
  1
ACIMREALSYSVAR
  2
AcImRealSysVar
  3
AcMeServices
 90
        0
280
     0
281
     0
  0
CLASS
  1
ACIMINTSYSVAR
  2
AcImIntSysVar
  3
AcMeServices
 90
        0
280
     0
281
     0
  0
CLASS
  1
ACMEDRAWINGMAN
  2
AcMeDrawingMan
  3
AcMeServices
 90
        0
280
     0
281
     0
  0
CLASS
  1
ACMEVIEW
  2
AcMeView
  3
AcMeServices
 90
        0
280
     0
281
     0
  0
CLASS
  1
ACDBENTITYCACHE
  2
AcMeEntityCache
  3
AcMeServices
 90
        0
280
     0
281
     0
  0
CLASS
  1
GSMANAGER
  2
AcMeGSManager
  3
AcMeServices
 90
        0
280
     0
281
     0
  0
CLASS
  1
AMDTINTERNALREACTOR
  2
AmdtInternalReactor
  3
AcMeServices
 90
        0
280
     0
281
     0
  0
CLASS
  1
ACMESTATEMGR
  2
AcMeStateMgr
  3
AcMeServices
 90
        0
280
     0
281
     0
  0
CLASS
  1
ACGREFMASTER
  2
AcGrefMaster
  3
AcAttribServices
 90
        0
280
     0
281
     0
  0
CLASS
  1
ACME_DATABASE
  2
AcMeDbDatabase
  3
AcMeServices
 90
        0
280
     0
281
     0
  0
CLASS
  1
ACRFINSADJUSTERMGR
  2
AcRfInsAdjusterMgr
  3
AcMeServices
 90
        0
280
     0
281
     0
  0
CLASS
  1
ACGREFACADMASTER
  2
AcGrefacadMaster
  3
AcGrefServices
 90
        0
280
     0
281
     0
  0
CLASS
  1
AMIMASTER
  2
AmiMaster
  3
AmiServices
 90
        0
280
     0
281
     0
  0
CLASS
  1
ACMDATADICTIONARY
  2
AcmDataDictionary
  3
"AcmSymBB|Product Description: AutoCAD Mechanical 2004 DX|Company: Autodesk"
 90
        0
280
     0
281
     0
  0
CLASS
  1
ACMDATAENTRYBLOCK
  2
AcmDataEntryBlock
  3
"AcmSymBB|Product Description: AutoCAD Mechanical 2004 DX|Company: Autodesk"
 90
        0
280
     0
281
     0
  0
CLASS
  1
ACIMSTRSYSVAR
  2
AcImStrSysVar
  3
AcMeServices
 90
        0
280
     0
281
     0
  0
CLASS
  1
ACMSTANDARDISO
  2
AcmStandardISO
  3
"Amdt_StdImp|Product Description: AutoCAD Mechanical 2004 DX|Company: Autodesk"
 90
        0
280
     0
281
     0
  0
CLASS
  1
AMGOBJPROPCFG
  2
AmgObjPropCfg
  3
"AmgLay|Product Description: AutoCAD Mechanical 2000|Company: Autodesk"
 90
        1
280
     0
281
     0
  0
CLASS
  1
AMDTEDGESTANDARDISO
  2
AmdtEdgeStdISO
  3
"Amdt_StdImp|Product Description: AutoCAD Mechanical 2004 DX|Company: Autodesk"
 90
    32768
280
     0
281
     0
  0
CLASS
  1
ACMSURFSTANDARDISO
  2
AcmSurfTextStdISO
  3
"Amdt_StdImp|Product Description: AutoCAD Mechanical 2004 DX|Company: Autodesk"
 90
        0
280
     0
281
     0
  0
CLASS
  1
ACMFCFSTANDARDISO
  2
AcmFCFStdISO
  3
"Amdt_StdImp|Product Description: AutoCAD Mechanical 2004 DX|Company: Autodesk"
 90
        0
280
     0
281
     0
  0
CLASS
  1
ACMWELDSTANDARDISO
  2
AcmWeldingStdISO
  3
"Amdt_StdImp|Product Description: AutoCAD Mechanical 2004 DX|Company: Autodesk"
 90
        0
280
     0
281
     0
  0
CLASS
  1
ACMIDSTANDARDISO
  2
AcmIdStdISO
  3
"Amdt_StdImp|Product Description: AutoCAD Mechanical 2004 DX|Company: Autodesk"
 90
        0
280
     0
281
     0
  0
CLASS
  1
ACMDATUMSTANDARDISO
  2
AcmDatumStdISO
  3
"Amdt_StdImp|Product Description: AutoCAD Mechanical 2004 DX|Company: Autodesk"
 90
        0
280
     0
281
     0
  0
CLASS
  1
ACMBOMSTANDARDISO
  2
AcmBOMStdISO
  3
"Amdt_StdImp|Product Description: AutoCAD Mechanical 2004 DX|Company: Autodesk"
 90
        0
280
     0
281
     0
  0
CLASS
  1
ACMDETAILSTANDARDISO
  2
AmdtDetailSymStdISO
  3
"Amdt_StdImp|Product Description: AutoCAD Mechanical 2004 DX|Company: Autodesk"
 90
        0
280
     0
281
     0
  0
CLASS
  1
ACMSECTIONSTANDARDISO
  2
AmdtSectionSymStdISO
  3
"Amdt_StdImp|Product Description: AutoCAD Mechanical 2004 DX|Company: Autodesk"
 90
        0
280
     0
281
     0
  0
CLASS
  1
ACMCENTERLINESTANDARDISO
  2
AmdtCenterLineStdISO
  3
"Amdt_StdImp|Product Description: AutoCAD Mechanical 2004 DX|Company: Autodesk"
 90
        0
280
     0
281
     0
  0
CLASS
  1
ACMNOTESTANDARDISO
  2
AmdtNoteStdISO
  3
"Amdt_StdImp|Product Description: AutoCAD Mechanical 2004 DX|Company: Autodesk"
 90
        0
280
     0
281
     0
  0
CLASS
  1
ACAMGLAYSTD
  2
AcAmgLayStd
  3
"AcAmgLayStd|Product Description: AutoCAD Mechanical 2000|Company: Autodesk"
 90
        0
280
     0
281
     0
  0
CLASS
  1
ACAMGDIMSTD
  2
AcAmgDimStd
  3
"AcAmgDimStd|Product Description: AutoCAD Mechanical 2000|Company: Autodesk"
 90
        0
280
     0
281
     0
  0
CLASS
  1
ACAMGHOLECHARTSTDISO
  2
AcAmgHoleChartStdISO
  3
ACMSYMBB_MODULE_NAME
 90
        0
280
     0
281
     0
  0
CLASS
  1
ACAMGTITLESTD
  2
AcAmgTitleStd
  3
"TITLEAPP"
 90
        0
280
     0
281
     0
  0
CLASS
  1
LAYER_INDEX
  2
AcDbLayerIndex
  3
ObjectDBX Classes
 90
        0
280
     0
281
     0
  0
CLASS
  1
IDBUFFER
  2
AcDbIdBuffer
  3
ObjectDBX Classes
 90
        0
280
     0
281
     0
  0
CLASS
  1
DICTIONARYVAR
  2
AcDbDictionaryVar
  3
ObjectDBX Classes
 90
        0
280
     0
281
     0
  0
CLASS
  1
AM_DRAWING_MGR
  2
AcDmDwgMgr
  3
AcMechDwgViewMgmt
 90
        0
280
     0
281
     0
  0
CLASS
  1
AM_DWG_DOCUMENT
  2
AcDmDwgDocument
  3
AcMechDwgViewMgmt
 90
        0
280
     0
281
     0
  0
CLASS
  1
AM_DWG_SHEET
  2
AcDmSheet
  3
AcMechDwgViewMgmt
 90
        0
280
     0
281
     0
  0
CLASS
  1
AM_VIEWDIMPARMAP
  2
AcDmViewDimParMap
  3
AcMechDwgViewMgmt
 90
        0
280
     0
281
     0
  0
CLASS
  1
AM_DWGMGR_NAME
  2
AcDmDwgMgrName
  3
AcMechDwgViewMgmt
 90
        0
280
     0
281
     0
  0
CLASS
  1
AMDTMENUSTATEMGR
  2
AmdtMenuStateMgr
  3
McadcomServices
 90
        0
280
     0
281
     0
  0
CLASS
  1
AMDTMCOMMENUSTATE
  2
AmdtMcomMenuState
  3
McadcomServices
 90
        0
280
     0
281
     0
  0
CLASS
  1
MAPIAMMOUDLE
  2
MApiAmModule
  3
MApiAmServices
 90
        0
280
     0
281
     0
  0
CLASS
  1
AMDTADMENUSTATE
  2
AmdtAdMenuState
  3
DesignerServices
 90
        0
280
     0
281
     0
  0
CLASS
  1
ADAPPL
  2
AcAdAppl
  3
DesignerServices
 90
        0
280
     0
281
     0
  0
CLASS
  1
DEPMGR
  2
AcAdDepMgr
  3
DesignerServices
 90
        0
280
     0
281
     0
  0
CLASS
  1
PARAMMGR
  2
AcAdParamMgr
  3
DesignerServices
 90
        0
280
     0
281
     0
  0
CLASS
  1
PARAMSCOPE
  2
AcAdParamScope
  3
DesignerServices
 90
        0
280
     0
281
     0
  0
CLASS
  1
NAMEDAPPL
  2
AcAdNamedAppl
  3
DesignerServices
 90
        0
280
     0
281
     0
  0
CLASS
  1
AMDTDMMENUSTATE
  2
AmdtDmMenuState
  3
AcMechDwgViewMgmt
 90
        0
280
     0
281
     0
  0
CLASS
  1
AMDTAMMENUSTATE
  2
AmdtAmMenuState
  3
DesignerAssemblies
 90
        0
280
     0
281
     0
  0
CLASS
  1
ACAMPROJECT
  2
AcAmProject
  3
DesignerAssemblies
 90
        0
280
     0
281
     0
  0
CLASS
  1
ACAMGRCOMPDEF
  2
AcAmGrCompDef
  3
DesignerAssemblies
 90
        0
280
     0
281
     0
  0
CLASS
  1
ACCMCONTEXT
  2
AcCmContext
  3
DesignerAssemblies
 90
        0
280
     0
281
     0
  0
CLASS
  1
ACAMCOMPDEF
  2
AcAmCompDef
  3
DesignerAssemblies
 90
        0
280
     0
281
     0
  0
CLASS
  1
ACAMCOMPDEFMGR
  2
AcAmCompDefMgr
  3
DesignerAssemblies
 90
        0
280
     0
281
     0
  0
CLASS
  1
AMCONTEXTMGR
  2
AcAmContextMgr
  3
DesignerAssemblies
 90
        0
280
     0
281
     0
  0
CLASS
  1
ACAMCONTEXTMODELER
  2
AcAmContextModeler
  3
DesignerAssemblies
 90
        0
280
     0
281
     0
  0
CLASS
  1
ACMTHREADLINESTANDARDISO
  2
AmdtThreadLineStdISO
  3
"Amdt_StdImp|Product Description: AutoCAD Mechanical 2004 DX|Company: Autodesk"
 90
        0
280
     0
281
     0
  0
CLASS
  1
CATALOGSTATE
  2
AcAmCatalogState
  3
DesignerAssemblies
 90
        0
280
     0
281
     0
  0
CLASS
  1
ACAMGRCOMPDEFSET
  2
AcAmGrCompDefSet
  3
DesignerAssemblies
 90
        0
280
     0
281
     0
  0
CLASS
  1
AMDTBROWSERDBTAB
  2
AmdtBrowserDbTab
  3
McadcomServices
 90
        0
280
     0
281
     0
  0
CLASS
  1
CBROWSERAPPOBJECT
  2
CBrowserAppObject
  3
McadcomServices
 90
        0
280
     0
281
     0
  0
CLASS
  1
DM_PLACEHOLDER
  2
AcDmSelsetPlaceholder
  3
AcMechDwgViewMgmt
 90
        0
280
     0
281
     0
  0
CLASS
  1
TABLESTYLE
  2
AcDbTableStyle
  3
ObjectDBX Classes
 90
     2047
280
     0
281
     0
  0
CLASS
  1
VAACXREFPANELOBJECT
  2
VaAcXREFPanelObject
  3
VAAC_ADDIN
 90
    32768
280
     0
281
     0
  0
CLASS
  1
VAACIMAGEINVENTORY
  2
VaAcImageInventory
  3
VAAC_ADDIN
 90
    32768
280
     0
281
     0
  0
CLASS
  1
AMDTNOTETEMPLATEDB
  2
AmdtNoteTemplateDB
  3
AMDT_STDIMP_MODULE_NAME
 90
        0
280
     0
281
     0
  0
CLASS
  1
ACMBOM
  2
AcmBom
  3
"AcmSymBB|Product Description: AutoCAD Mechanical 2004 DX|Company: Autodesk"
 90
    32768
280
     0
281
     0
  0
CLASS
  1
AMDTFORMULAUPDATEDISPATCHER
  2
AmdtFormulaUpdateDispatcher
  3
AcMeServices
 90
    32768
280
     0
281
     0
  0
CLASS
  1
ACMPARTLIST
  2
AcmPartList
  3
"AcmSymBB|Product Description: AutoCAD Mechanical 2004 DX|Company: Autodesk"
 90
    33791
280
     0
281
     1
  0
CLASS
  1
ACAMGFILTERDAT
  2
AcAmgFilterDat
  3
"AcadM|Product Description: AutoCAD Mechanical 2000|Company: Autodesk"
 90
    32768
280
     0
281
     0
  0
CLASS
  1
DIMASSOC
  2
AcDbDimAssoc
  3
"AcDbDimAssoc|Product Desc:     AcDim ARX App For Dimension|Company:          Autodesk, Inc.|WEB Address:      www.autodesk.com"
 90
        0
280
     0
281
     0
  0
CLASS
  1
SORTENTSTABLE
  2
AcDbSortentsTable
  3
ObjectDBX Classes
 90
        0
280
     0
281
     0
  0
CLASS
  1
ACMSTANDARDANSI
  2
AcmStandardANSI
  3
"Amdt_StdImp|Product Description: AutoCAD Mechanical 2004 DX|Company: Autodesk"
 90
    32768
280
     0
281
     0
  0
CLASS
  1
ACMSURFSTANDARDANSI
  2
AcmSurfTextStdANSI
  3
"Amdt_StdImp|Product Description: AutoCAD Mechanical 2004 DX|Company: Autodesk"
 90
    32768
280
     0
281
     0
  0
CLASS
  1
ACMFCFSTANDARDANSI
  2
AcmFCFStdANSI
  3
"Amdt_StdImp|Product Description: AutoCAD Mechanical 2004 DX|Company: Autodesk"
 90
    32768
280
     0
281
     0
  0
CLASS
  1
ACMWELDSTANDARDANSI
  2
AcmWeldingStdANSI
  3
"Amdt_StdImp|Product Description: AutoCAD Mechanical 2004 DX|Company: Autodesk"
 90
    32768
280
     0
281
     0
  0
CLASS
  1
ACMIDSTANDARDANSI
  2
AcmIdStdANSI
  3
"Amdt_StdImp|Product Description: AutoCAD Mechanical 2004 DX|Company: Autodesk"
 90
    32768
280
     0
281
     0
  0
CLASS
  1
ACMDATUMSTANDARDANSI
  2
AcmDatumStdANSI
  3
"Amdt_StdImp|Product Description: AutoCAD Mechanical 2004 DX|Company: Autodesk"
 90
    32768
280
     0
281
     0
  0
CLASS
  1
ACMBOMSTANDARDANSI
  2
AcmBOMStdANSI
  3
"Amdt_StdImp|Product Description: AutoCAD Mechanical 2004 DX|Company: Autodesk"
 90
    32768
280
     0
281
     0
  0
CLASS
  1
ACMDETAILSTANDARDANSI
  2
AmdtDetailSymStdANSI
  3
"Amdt_StdImp|Product Description: AutoCAD Mechanical 2004 DX|Company: Autodesk"
 90
    32768
280
     0
281
     0
  0
CLASS
  1
ACMSECTIONSTANDARDANSI
  2
AmdtSectionSymStdANSI
  3
"Amdt_StdImp|Product Description: AutoCAD Mechanical 2004 DX|Company: Autodesk"
 90
    32768
280
     0
281
     0
  0
CLASS
  1
ACMCENTERLINESTANDARDANSI
  2
AmdtCenterLineStdANSI
  3
"Amdt_StdImp|Product Description: AutoCAD Mechanical 2004 DX|Company: Autodesk"
 90
    32768
280
     0
281
     0
  0
CLASS
  1
ACMTHREADLINESTANDARDANSI
  2
AmdtThreadLineStdANSI
  3
"Amdt_StdImp|Product Description: AutoCAD Mechanical 2004 DX|Company: Autodesk"
 90
    32768
280
     0
281
     0
  0
CLASS
  1
ACMNOTESTANDARDANSI
  2
AmdtNoteStdANSI
  3
"Amdt_StdImp|Product Description: AutoCAD Mechanical 2004 DX|Company: Autodesk"
 90
    32768
280
     0
281
     0
  0
CLASS
  1
ACAMGHOLECHARTSTDANSI
  2
AcAmgHoleChartStdANSI
  3
ACMSYMBB_MODULE_NAME
 90
    32768
280
     0
281
     0
  0
CLASS
  1
AMDTNOTE
  2
AmdtNote
  3
"AcmSymBB|Product Description: AutoCAD Mechanical 2004 DX|Company: Autodesk"
 90
    33791
280
     0
281
     1
  0
CLASS
  1
ASAPP
  2
AcAsAppObject
  3
AutoSurfServices
 90
        0
280
     0
281
     0
  0
CLASS
  1
IM_STATIC_MAN
  2
AcImStaticVarManager
  3
AcMeServices
 90
        0
280
     0
281
     0
  0
CLASS
  1
ACIMDBLSTATICVAR
  2
AcImDblStaticVar
  3
AcMeServices
 90
        0
280
     0
281
     0
  0
CLASS
  1
ACIMSTRSTATICVAR
  2
AcImStrStaticVar
  3
AcMeServices
 90
        0
280
     0
281
     0
  0
CLASS
  1
ACIMINTSTATICVAR
  2
AcImIntStaticVar
  3
AcMeServices
 90
        0
280
     0
281
     0
  0
CLASS
  1
ACASGREFMASTER
  2
AcAsGrefMaster
  3
AutoSurfResolverServices
 90
        0
280
     0
281
     0
  0
CLASS
  1
ACADGREFMODULE
  2
AcAdGrefModule
  3
AdGrefServices
 90
        0
280
     0
281
     0
  0
CLASS
  1
AMDTMAPISURFMOUDULE
  2
AmdtMApiSurfModule
  3
MApiSurfServices
 90
        0
280
     0
281
     0
  0
CLASS
  1
MAPIADMODULE
  2
MApiAdModule
  3
MApiAdServices
 90
        0
280
     0
281
     0
  0
CLASS
  1
AMDTEDGESTANDARDISO13715
  2
AmdtEdgeStdISO13715
  3
"Amdt_StdImp|Product Description: AutoCAD Mechanical 2004 DX|Company: Autodesk"
 90
        0
280
     0
281
     0
  0
ENDSEC
  0
SECTION
  2
TABLES
  0
TABLE
  2
VPORT
  5
8
330
0
100
AcDbSymbolTable
 70
     5
  0
VPORT
  5
6037
330
8
100
AcDbSymbolTableRecord
100
AcDbViewportTableRecord
  2
*Active
 70
     0
 10
0.0
 20
0.0
 11
1.0
 21
1.0
 12
-95.91878553792355
 22
-57.60422985898998
 13
0.0
 23
0.0
 14
2.5
 24
2.5
 15
10.0
 25
10.0
 16
0.0
 26
0.0
 36
1.0
 17
1630.831247486739
 27
208.919639887495
 37
0.0
 40
398.1478867629647
 41
1.576441102756892
 42
50.0
 43
0.0
 44
0.0
 50
0.0
 51
0.0
 71
     0
 72
   100
 73
     1
 74
     3
 75
     0
 76
     0
 77
     0
 78
     0
281
     0
 65
     0
110
0.0
120
0.0
130
0.0
111
1.0
121
0.0
131
0.0
112
0.0
122
1.0
132
0.0
 79
     0
146
0.0
  0
ENDTAB
  0
TABLE
  2
LTYPE
  5
5
330
0
100
AcDbSymbolTable
 70
    18
  0
LTYPE
  5
14
330
5
100
AcDbSymbolTableRecord
100
AcDbLinetypeTableRecord
  2
ByBlock
 70
     0
  3

 72
    65
 73
     0
 40
0.0
  0
LTYPE
  5
15
330
5
100
AcDbSymbolTableRecord
100
AcDbLinetypeTableRecord
  2
ByLayer
 70
     0
  3

 72
    65
 73
     0
 40
0.0
  0
LTYPE
  5
16
330
5
100
AcDbSymbolTableRecord
100
AcDbLinetypeTableRecord
  2
Continuous
 70
     0
  3
Solid line
 72
    65
 73
     0
 40
0.0
  0
LTYPE
  5
64
330
5
100
AcDbSymbolTableRecord
100
AcDbLinetypeTableRecord
  2
AM_ISO02W050
 70
     0
  3
__ __ __ __ __ __ __ __ __ __ __ __ __ __ __
 72
    65
 73
     2
 40
7.5
 49
6.0
 74
     0
 49
-1.5
 74
     0
  0
LTYPE
  5
65
330
5
100
AcDbSymbolTableRecord
100
AcDbLinetypeTableRecord
  2
AM_ISO08W050
 70
     0
  3
____ . ____ . ____ . ____ . ____ . ____ . ____
 72
    65
 73
     4
 40
18.0
 49
12.0
 74
     0
 49
-1.5
 74
     0
 49
3.0
 74
     0
 49
-1.5
 74
     0
  0
LTYPE
  5
66
330
5
100
AcDbSymbolTableRecord
100
AcDbLinetypeTableRecord
  2
AM_ISO09W050
 70
     0
  3
_____ . . _____ . . _____ . . ____ .. ____
 72
    65
 73
     6
 40
22.5
 49
12.0
 74
     0
 49
-1.5
 74
     0
 49
3.0
 74
     0
 49
-1.5
 74
     0
 49
3.0
 74
     0
 49
-1.5
 74
     0
  0
LTYPE
  5
67
330
5
100
AcDbSymbolTableRecord
100
AcDbLinetypeTableRecord
  2
Amconstr
 70
     0
  3
_______________________
 72
    65
 73
     2
 40
9999.0
 49
9999.0
 74
     0
 49
0.0
 74
     0
  0
LTYPE
  5
68
330
5
100
AcDbSymbolTableRecord
100
AcDbLinetypeTableRecord
  2
AM_ISO08W050x2
 70
     0
  3
__ . __ . __ . __ . __ . __
 72
    65
 73
     4
 40
9.0
 49
6.0
 74
     0
 49
-0.75
 74
     0
 49
1.5
 74
     0
 49
-0.75
 74
     0
  0
LTYPE
  5
69
330
5
100
AcDbSymbolTableRecord
100
AcDbLinetypeTableRecord
  2
AM_ISO02W050x2
 70
     0
  3
 _ _ _ _ _ _ _ _ _ _ _ _
 72
    65
 73
     2
 40
3.75
 49
3.0
 74
     0
 49
-0.75
 74
     0
  0
LTYPE
  5
6C
330
5
100
AcDbSymbolTableRecord
100
AcDbLinetypeTableRecord
  2
Amzigzag
 70
     0
  3
/\/-/\/-/\/-/\/-/\/-/\/
 72
    65
 73
     2
 40
11.0001
 49
0.0001
 74
     4
 75
   135
340
6B
 46
0.04
 50
0.0
 44
0.0
 45
0.0
 49
-11.0
 74
     0
  0
LTYPE
  5
7A
330
5
100
AcDbSymbolTableRecord
100
AcDbLinetypeTableRecord
  2
ACISOWELD
 70
     0
  3
_ _ _ _ _
 72
    65
 73
     2
 40
2.0
 49
2.0
 74
     0
 49
-1.0
 74
     0
  0
LTYPE
  5
7B
330
5
100
AcDbSymbolTableRecord
100
AcDbLinetypeTableRecord
  2
ACISOTGB
 70
     0
  3
__ . . __ . .
 72
    65
 73
     6
 40
9.0
 49
4.0
 74
     0
 49
-1.0
 74
     0
 49
1.0
 74
     0
 49
-1.0
 74
     0
 49
1.0
 74
     0
 49
-1.0
 74
     0
  0
LTYPE
  5
7C
330
5
100
AcDbSymbolTableRecord
100
AcDbLinetypeTableRecord
  2
ACISOTGL
 70
     0
  3
_ _ _ _ _
 72
    65
 73
     2
 40
3.0
 49
2.0
 74
     0
 49
-1.0
 74
     0
  0
LTYPE
  5
7E
330
5
100
AcDbSymbolTableRecord
100
AcDbLinetypeTableRecord
  2
CENTER
 70
     0
  3
__ . __
 72
    65
 73
     4
 40
7.0
 49
4.0
 74
     0
 49
-1.0
 74
     0
 49
1.0
 74
     0
 49
-1.0
 74
     0
  0
LTYPE
  5
D8
330
5
100
AcDbSymbolTableRecord
100
AcDbLinetypeTableRecord
  2
HIDDEN
 70
     0
  3
Hidden __ __ __ __ __ __ __ __ __ __ __ __ __ _
 72
    65
 73
     2
 40
9.524999999999998
 49
6.349999999999999
 74
     0
 49
-3.174999999999999
 74
     0
  0
LTYPE
  5
D9
330
5
100
AcDbSymbolTableRecord
100
AcDbLinetypeTableRecord
  2
PHANTOM2
 70
     0
  3
Phantom (.5x) ___ _ _ ___ _ _ ___ _ _ ___ _ _
 72
    65
 73
     6
 40
31.75
 49
15.875
 74
     0
 49
-3.174999999999999
 74
     0
 49
3.174999999999999
 74
     0
 49
-3.174999999999999
 74
     0
 49
3.174999999999999
 74
     0
 49
-3.174999999999999
 74
     0
  0
LTYPE
  5
18AC
330
5
100
AcDbSymbolTableRecord
100
AcDbLinetypeTableRecord
  2
ACANSTGBM
 70
     0
  3
__ . . __ . .
 72
    65
 73
     6
 40
9.0
 49
4.0
 74
     0
 49
-1.0
 74
     0
 49
1.0
 74
     0
 49
-1.0
 74
     0
 49
1.0
 74
     0
 49
-1.0
 74
     0
  0
LTYPE
  5
18AD
330
5
100
AcDbSymbolTableRecord
100
AcDbLinetypeTableRecord
  2
ACANSTGLM
 70
     0
  3
_ _ _ _ _
 72
    65
 73
     2
 40
3.0
 49
2.0
 74
     0
 49
-1.0
 74
     0
  0
LTYPE
  5
5FD2
330
5
100
AcDbSymbolTableRecord
100
AcDbLinetypeTableRecord
  2
ASULTYPE
 70
     0
  3
實線
 72
    65
 73
     2
 40
3.0
 49
2.5
 74
     0
 49
0.5
 74
     0
  0
LTYPE
  5
5FD3
330
5
100
AcDbSymbolTableRecord
100
AcDbLinetypeTableRecord
  2
ASVLTYPE
 70
     0
  3
__ __ __ __ __ __ __ __ __ __ __ __ __ __ __ __ __ __ __ __ __
 72
    65
 73
     2
 40
0.75
 49
0.5
 74
     0
 49
-0.25
 74
     0
  0
ENDTAB
  0
TABLE
  2
LAYER
  5
2
102
{ACAD_XDICTIONARY
360
3F9
102
}
330
0
100
AcDbSymbolTable
 70
     8
  0
LAYER
  5
10
330
2
100
AcDbSymbolTableRecord
100
AcDbLayerTableRecord
  2
0
 70
     0
 62
     7
  6
Continuous
370
    -3
390
F
  0
LAYER
  5
C29
330
2
100
AcDbSymbolTableRecord
100
AcDbLayerTableRecord
  2
Defpoints
 70
     0
 62
     7
  6
Continuous
290
     0
370
    -3
390
F
  0
LAYER
  5
C2A
330
2
100
AcDbSymbolTableRecord
100
AcDbLayerTableRecord
  2
AM_VIS
 70
     0
 62
     7
  6
Continuous
370
    50
390
F
  0
LAYER
  5
C2C
330
2
100
AcDbSymbolTableRecord
100
AcDbLayerTableRecord
  2
AM_4
 70
     0
 62
     3
  6
Continuous
370
    25
390
F
  0
LAYER
  5
137E
330
2
100
AcDbSymbolTableRecord
100
AcDbLayerTableRecord
  2
AM_7
 70
     0
 62
     1
  6
CENTER
370
    25
390
F
  0
LAYER
  5
277A
330
2
100
AcDbSymbolTableRecord
100
AcDbLayerTableRecord
  2
AM_5
 70
     0
 62
     5
  6
Continuous
370
    50
390
F
  0
LAYER
  5
44C4
330
2
100
AcDbSymbolTableRecord
100
AcDbLayerTableRecord
  2
DIM2
 70
     0
 62
     5
  6
Continuous
370
    -3
390
F
  0
LAYER
  5
45AD
330
2
100
AcDbSymbolTableRecord
100
AcDbLayerTableRecord
  2
LOGO
 70
     0
 62
     7
  6
Continuous
370
    -3
390
F
  0
ENDTAB
  0
TABLE
  2
STYLE
  5
3
330
0
100
AcDbSymbolTable
 70
     8
  0
STYLE
  5
11
330
3
100
AcDbSymbolTableRecord
100
AcDbTextStyleTableRecord
  2
STANDARD
 70
     0
 40
0.0
 41
1.0
 50
0.0
 71
     0
 42
3.0
  3
ISOCP.SHX
  4
CHINESET.SHX
  0
STYLE
  5
6B
330
3
100
AcDbSymbolTableRecord
100
AcDbTextStyleTableRecord
  2

 70
     1
 40
0.0
 41
1.0
 50
0.0
 71
     0
 42
2.5
  3
ltypeshp.shx
  4

  0
STYLE
  5
6D
330
3
100
AcDbSymbolTableRecord
100
AcDbTextStyleTableRecord
  2
ACISOTS
 70
     0
 40
1.0
 41
1.0
 50
0.0
 71
     0
 42
1.0
  3
isocp.shx
  4
chineset.shx
  0
STYLE
  5
79
330
3
100
AcDbSymbolTableRecord
100
AcDbTextStyleTableRecord
  2
ACISOGDT
 70
     0
 40
0.0
 41
1.0
 50
0.0
 71
     0
 42
2.5
  3
amgdt.shx
  4
chineset.shx
  0
STYLE
  5
C2F
330
3
100
AcDbSymbolTableRecord
100
AcDbTextStyleTableRecord
  2
dayus
 70
     0
 40
3.0
 41
1.0
 50
0.0
 71
     0
 42
3.0
  3
simplex.shx
  4
dayus.shx
  0
STYLE
  5
18AF
330
3
100
AcDbSymbolTableRecord
100
AcDbTextStyleTableRecord
  2
ACANSTS
 70
     0
 40
1.0
 41
1.0
 50
0.0
 71
     0
 42
4.0
  3
romans.shx
  4
chineset.shx
  0
STYLE
  5
18B0
330
3
100
AcDbSymbolTableRecord
100
AcDbTextStyleTableRecord
  2
ACANSGDT
 70
     0
 40
0.0
 41
1.0
 50
0.0
 71
     0
 42
4.0
  3
amgdtans.shx
  4

  0
STYLE
  5
447A
330
3
100
AcDbSymbolTableRecord
100
AcDbTextStyleTableRecord
  2
CHINESET
 70
     0
 40
3.0
 41
1.0
 50
0.0
 71
     0
 42
4.5
  3
simplex.shx
  4
CHINESET.shx
  0
ENDTAB
  0
TABLE
  2
VIEW
  5
6
330
0
100
AcDbSymbolTable
 70
     0
  0
ENDTAB
  0
TABLE
  2
UCS
  5
7
330
0
100
AcDbSymbolTable
 70
     0
  0
ENDTAB
  0
TABLE
  2
APPID
  5
9
330
0
100
AcDbSymbolTable
 70
    28
  0
APPID
  5
12
330
9
100
AcDbSymbolTableRecord
100
AcDbRegAppTableRecord
  2
ACAD
 70
     0
  0
APPID
  5
46
330
9
100
AcDbSymbolTableRecord
100
AcDbRegAppTableRecord
  2
MCAD_NO_VIS
 70
     0
  0
APPID
  5
47
330
9
100
AcDbSymbolTableRecord
100
AcDbRegAppTableRecord
  2
ACAD_TEMP_GRAPHIC
 70
     0
  0
APPID
  5
58
330
9
100
AcDbSymbolTableRecord
100
AcDbRegAppTableRecord
  2
ACATTRIBSERVICES
 70
     0
  0
APPID
  5
EE
330
9
100
AcDbSymbolTableRecord
100
AcDbRegAppTableRecord
  2
AD_DRAW
 70
     0
  0
APPID
  5
10C
330
9
100
AcDbSymbolTableRecord
100
AcDbRegAppTableRecord
  2
DESIGNERASSEMBLIES
 70
     0
  0
APPID
  5
111
330
9
100
AcDbSymbolTableRecord
100
AcDbRegAppTableRecord
  2
ACADM_DIM_EDIT
 70
     0
  0
APPID
  5
112
330
9
100
AcDbSymbolTableRecord
100
AcDbRegAppTableRecord
  2
AMDT_DM_ADJ
 70
     0
  0
APPID
  5
22C
330
9
100
AcDbSymbolTableRecord
100
AcDbRegAppTableRecord
  2
ACAD_DSTYLE_DIMTEXT_FILL
 70
     0
  0
APPID
  5
452
330
9
100
AcDbSymbolTableRecord
100
AcDbRegAppTableRecord
  2
GENIUS_GENOENT_13
 70
     0
  0
APPID
  5
453
330
9
100
AcDbSymbolTableRecord
100
AcDbRegAppTableRecord
  2
GENIUS_GENOBJ-N-CRS_13
 70
     0
  0
APPID
  5
454
330
9
100
AcDbSymbolTableRecord
100
AcDbRegAppTableRecord
  2
GENIUS_GENOLIS_13
 70
     0
  0
APPID
  5
455
330
9
100
AcDbSymbolTableRecord
100
AcDbRegAppTableRecord
  2
GENIUS_GENODEF_13
 70
     0
  0
APPID
  5
456
330
9
100
AcDbSymbolTableRecord
100
AcDbRegAppTableRecord
  2
GENIUS_GENOREF_13
 70
     0
  0
APPID
  5
6F3
330
9
100
AcDbSymbolTableRecord
100
AcDbRegAppTableRecord
  2
ACAD_PSEXT
 70
     0
  0
APPID
  5
808
330
9
100
AcDbSymbolTableRecord
100
AcDbRegAppTableRecord
  2
GENIUS_GENDTOL_13
 70
     0
  0
APPID
  5
159E
330
9
100
AcDbSymbolTableRecord
100
AcDbRegAppTableRecord
  2
GENIUS_GENOBJ-N-CEN_13
 70
     0
  0
APPID
  5
159F
330
9
100
AcDbSymbolTableRecord
100
AcDbRegAppTableRecord
  2
GENIUS_GENCEN_19
 70
     0
  0
APPID
  5
277E
330
9
100
AcDbSymbolTableRecord
100
AcDbRegAppTableRecord
  2
GENIUS_GENOBJ-N-HTC_13
 70
     0
  0
APPID
  5
277F
330
9
100
AcDbSymbolTableRecord
100
AcDbRegAppTableRecord
  2
GENIUS_GENHATCH_13
 70
     0
  0
APPID
  5
4258
330
9
100
AcDbSymbolTableRecord
100
AcDbRegAppTableRecord
  2
GENIUS_GENDIMSH_14
 70
     0
  0
APPID
  5
4368
330
9
100
AcDbSymbolTableRecord
100
AcDbRegAppTableRecord
  2
AcAecLayerStandard
 70
     0
  0
APPID
  5
45AE
330
9
100
AcDbSymbolTableRecord
100
AcDbRegAppTableRecord
  2
GENIUS_GENREC_14
 70
     0
  0
APPID
  5
45AF
330
9
100
AcDbSymbolTableRecord
100
AcDbRegAppTableRecord
  2
GENIUS_GENOBJ-N-REC_13
 70
     0
  0
APPID
  5
5F53
330
9
100
AcDbSymbolTableRecord
100
AcDbRegAppTableRecord
  2
GENIUS_GENDIM_13
 70
     0
  0
APPID
  5
5F54
330
9
100
AcDbSymbolTableRecord
100
AcDbRegAppTableRecord
  2
GENIUS_GE3DTOL_13
 70
     0
  0
APPID
  5
5FD4
330
9
100
AcDbSymbolTableRecord
100
AcDbRegAppTableRecord
  2
ASURF_PCURVE_APPNAME
 70
     0
  0
APPID
  5
5FD9
330
9
100
AcDbSymbolTableRecord
100
AcDbRegAppTableRecord
  2
AMG_3D2D_5.0
 70
     0
  0
ENDTAB
  0
TABLE
  2
DIMSTYLE
  5
A
330
0
100
AcDbSymbolTable
 70
    14
100
AcDbDimStyleTable
 71
     3
340
81
340
8B
340
86
  0
DIMSTYLE
105
81
330
A
100
AcDbSymbolTableRecord
100
AcDbDimStyleTableRecord
  2
AM_ISO
 70
     0
  4
"
 41
3.0
 42
1.0
 43
8.0
 44
1.5
 47
0.1
 48
0.1
 73
     0
 74
     0
 77
     1
 78
     8
 79
     2
140
3.5
141
0.0
143
0.0393701
146
0.6
147
0.7
172
     1
176
   256
177
   256
178
   256
271
     2
272
     2
283
     0
284
     8
340
11
371
    -1
372
    -1
  0
DIMSTYLE
105
82
330
A
100
AcDbSymbolTableRecord
100
AcDbDimStyleTableRecord
  2
AM_ISO$3
 70
     0
  4
"
 41
3.0
 42
1.0
 43
8.0
 44
1.5
 47
0.1
 48
0.1
 73
     0
 77
     1
 78
     8
 79
     2
140
3.5
141
0.0
143
0.0393701
146
0.6
147
0.7
176
   256
177
   256
178
   256
271
     2
272
     2
283
     0
284
     8
288
     1
289
     0
340
11
371
    -1
372
    -1
  0
DIMSTYLE
105
83
330
A
100
AcDbSymbolTableRecord
100
AcDbDimStyleTableRecord
  2
AM_ISO$4
 70
     0
  4
"
 41
3.0
 42
1.0
 43
8.0
 44
1.5
 47
0.1
 48
0.1
 73
     0
 77
     1
 78
     8
 79
     2
140
3.5
141
0.0
143
0.0393701
146
0.6
147
0.7
176
   256
177
   256
178
   256
271
     2
272
     2
283
     0
284
     8
288
     1
289
     0
340
11
371
    -1
372
    -1
  0
DIMSTYLE
105
84
330
A
100
AcDbSymbolTableRecord
100
AcDbDimStyleTableRecord
  2
AM_ISO$6
 70
     0
  4
"
 41
3.0
 42
1.0
 43
8.0
 44
1.5
 47
0.1
 48
0.1
 73
     0
 74
     0
 78
     8
 79
     2
140
3.5
141
0.0
143
0.0393701
146
0.6
147
0.7
172
     1
176
   256
177
   256
178
   256
271
     2
272
     2
283
     0
284
     8
340
11
371
    -1
372
    -1
  0
DIMSTYLE
105
85
330
A
100
AcDbSymbolTableRecord
100
AcDbDimStyleTableRecord
  2
AM_ISO$7
 70
     0
  4
"
 41
3.0
 42
1.0
 43
8.0
 44
1.5
 47
0.1
 48
0.1
 73
     0
 74
     0
 77
     1
 78
     8
 79
     2
140
5.0
141
0.0
143
0.0393701
146
0.6
147
0.7
172
     1
176
   256
177
   256
178
   256
271
     2
272
     2
283
     0
284
     8
340
11
371
    -1
372
    -1
  0
DIMSTYLE
105
86
330
A
100
AcDbSymbolTableRecord
100
AcDbDimStyleTableRecord
  2
AM_ISO$SF
 70
     0
  4
"
 41
2.5
 42
1.0
 43
10.0
 44
1.0
 47
0.1
 48
0.1
 73
     0
 74
     0
 75
     1
 76
     1
 77
     1
 78
     8
 79
     2
140
3.5
141
0.0
143
0.0393701
146
0.71
147
1.5
172
     1
176
   256
177
   256
178
     2
271
     2
272
     3
274
     4
283
     0
284
     8
340
11
371
    -1
372
    -1
  0
DIMSTYLE
105
8B
330
A
100
AcDbSymbolTableRecord
100
AcDbDimStyleTableRecord
  2
AM_ISO$SH
 70
     0
  4
"
 41
2.5
 42
1.0
 43
10.0
 44
1.0
 47
0.1
 48
0.1
 73
     0
 74
     0
 75
     1
 76
     1
 77
     1
 78
     8
 79
     2
140
3.5
141
0.0
143
0.0393701
144
2.0
146
0.71
147
1.5
172
     1
173
     1
176
   256
177
   256
178
     2
271
     2
272
     3
274
     4
283
     0
284
     8
340
11
343
87
371
    -1
372
    -1
  0
DIMSTYLE
105
40B
102
{ACAD_REACTORS
330
57D5
330
57D6
330
57D9
330
57DC
330
57DD
330
57E0
330
57E3
330
57E6
330
57E7
330
57EA
330
57ED
330
57EE
330
57EF
330
57F2
330
57F3
330
57F6
330
57F9
330
57FC
330
57FD
330
5800
330
5803
330
5806
330
5809
330
580A
330
580B
330
580C
330
580F
330
5819
330
581C
330
581D
330
5820
330
5821
330
5824
102
}
330
A
100
AcDbSymbolTableRecord
100
AcDbDimStyleTableRecord
  2
AM_ISO$0
 70
     0
  4
"
 41
3.0
 42
1.0
 43
8.0
 44
1.5
 47
0.1
 48
0.1
 73
     0
 74
     0
 77
     1
 78
     8
 79
     2
140
3.5
141
0.0
143
0.0393701
146
0.6
147
0.7
172
     1
176
   256
177
   256
178
   256
271
     2
272
     2
283
     0
284
     8
340
11
371
    -1
372
    -1
  0
DIMSTYLE
105
C31
330
A
100
AcDbSymbolTableRecord
100
AcDbDimStyleTableRecord
  2
AM_ANSI
 70
     0
  4
"
 40
0.6666666666666666
 41
3.799999999999999
 42
3.0
 43
8.0
 44
3.0
 47
0.1
 48
0.1
 73
     0
 74
     0
 77
     3
 78
     8
 79
     2
140
3.0
141
3.0
143
0.0393701
146
0.6
147
1.3
172
     1
176
   256
177
   256
178
   256
271
     2
272
     2
284
     8
340
C2F
371
    -1
372
    -1
  0
DIMSTYLE
105
C32
330
A
100
AcDbSymbolTableRecord
100
AcDbDimStyleTableRecord
  2
AM_ANSI$7
 70
     0
  4
"
 40
0.6666666666666666
 41
2.5
 42
1.0
 43
10.0
 44
1.0
 47
0.1
 48
0.1
 78
     8
 79
     2
140
5.0
141
0.0
143
0.0393701
146
0.71
147
1.5
176
   256
177
   256
178
     2
271
     2
272
     3
274
     4
284
     8
340
11
371
    -1
372
    -1
  0
DIMSTYLE
105
18B1
330
A
100
AcDbSymbolTableRecord
100
AcDbDimStyleTableRecord
  2
AM_ANSI$3
 70
     0
  4
"
 40
0.6666666666666666
 41
2.5
 42
1.0
 43
10.0
 44
1.0
 47
0.1
 48
0.1
 78
     8
 79
     2
140
3.5
141
0.0
143
0.0393701
146
0.71
147
1.5
176
   256
177
   256
178
     2
271
     2
272
     3
274
     4
284
     8
288
     1
289
     0
340
11
371
    -1
372
    -1
  0
DIMSTYLE
105
18B2
330
A
100
AcDbSymbolTableRecord
100
AcDbDimStyleTableRecord
  2
AM_ANSI$4
 70
     0
  4
"
 40
0.6666666666666666
 41
2.5
 42
1.0
 43
10.0
 44
1.0
 47
0.1
 48
0.1
 78
     8
 79
     2
140
3.5
141
0.0
143
0.0393701
146
0.71
147
1.5
176
   256
177
   256
178
     2
271
     2
272
     3
274
     4
284
     8
288
     1
289
     0
340
11
371
    -1
372
    -1
  0
DIMSTYLE
105
18B3
330
A
100
AcDbSymbolTableRecord
100
AcDbDimStyleTableRecord
  2
AM_ANSI$SF
 70
     0
  4
"
 40
0.6666666666666666
 41
2.5
 42
1.0
 43
10.0
 44
1.0
 47
0.1
 48
0.1
 75
     1
 76
     1
 78
     8
 79
     2
140
3.5
141
0.0
143
0.0393701
146
0.71
147
1.5
176
   256
177
   256
178
     2
271
     2
272
     3
274
     4
284
     8
340
11
371
    -1
372
    -1
  0
DIMSTYLE
105
18B4
330
A
100
AcDbSymbolTableRecord
100
AcDbDimStyleTableRecord
  2
AM_ANSI$SH
 70
     0
  4
"
 40
0.6666666666666666
 41
2.5
 42
1.0
 43
10.0
 44
1.0
 47
0.1
 48
0.1
 75
     1
 76
     1
 78
     8
 79
     2
140
3.5
141
0.0
143
0.0393701
146
0.71
147
1.5
173
     1
176
   256
177
   256
178
     2
271
     2
272
     3
274
     4
284
     8
340
11
343
87
371
    -1
372
    -1
  0
ENDTAB
  0
TABLE
  2
BLOCK_RECORD
  5
1
330
0
100
AcDbSymbolTable
 70
    46
  0
BLOCK_RECORD
  5
1F
102
{ACAD_XDICTIONARY
360
8F
102
}
330
1
100
AcDbSymbolTableRecord
100
AcDbBlockTableRecord
  2
*Model_Space
340
22
  0
BLOCK_RECORD
  5
1B
330
1
100
AcDbSymbolTableRecord
100
AcDbBlockTableRecord
  2
*Paper_Space
340
1E
  0
BLOCK_RECORD
  5
23
330
1
100
AcDbSymbolTableRecord
100
AcDbBlockTableRecord
  2
*Paper_Space0
340
26
  0
BLOCK_RECORD
  5
87
330
1
100
AcDbSymbolTableRecord
100
AcDbBlockTableRecord
  2
GENAXEH
340
0
  0
BLOCK_RECORD
  5
4259
330
1
100
AcDbSymbolTableRecord
100
AcDbBlockTableRecord
  2
GENDOT
340
0
102
{BLKREFS
331
5E01
331
5E0B
102
}
  0
BLOCK_RECORD
  5
4486
102
{ACAD_XDICTIONARY
360
4487
102
}
330
1
100
AcDbSymbolTableRecord
100
AcDbBlockTableRecord
  2
A$C5ECF147B
340
0
102
{BLKREFS
331
5B73
102
}
  0
BLOCK_RECORD
  5
592A
330
1
100
AcDbSymbolTableRecord
100
AcDbBlockTableRecord
  2
*D4
340
0
  0
BLOCK_RECORD
  5
5936
330
1
100
AcDbSymbolTableRecord
100
AcDbBlockTableRecord
  2
*D5
340
0
  0
BLOCK_RECORD
  5
5942
330
1
100
AcDbSymbolTableRecord
100
AcDbBlockTableRecord
  2
*D6
340
0
  0
BLOCK_RECORD
  5
594E
330
1
100
AcDbSymbolTableRecord
100
AcDbBlockTableRecord
  2
*D7
340
0
  0
BLOCK_RECORD
  5
595A
330
1
100
AcDbSymbolTableRecord
100
AcDbBlockTableRecord
  2
*D8
340
0
  0
BLOCK_RECORD
  5
5966
330
1
100
AcDbSymbolTableRecord
100
AcDbBlockTableRecord
  2
*D9
340
0
  0
BLOCK_RECORD
  5
5972
330
1
100
AcDbSymbolTableRecord
100
AcDbBlockTableRecord
  2
*D10
340
0
  0
BLOCK_RECORD
  5
597E
330
1
100
AcDbSymbolTableRecord
100
AcDbBlockTableRecord
  2
*D11
340
0
  0
BLOCK_RECORD
  5
598A
330
1
100
AcDbSymbolTableRecord
100
AcDbBlockTableRecord
  2
*D12
340
0
  0
BLOCK_RECORD
  5
5996
330
1
100
AcDbSymbolTableRecord
100
AcDbBlockTableRecord
  2
*D13
340
0
  0
BLOCK_RECORD
  5
59A2
330
1
100
AcDbSymbolTableRecord
100
AcDbBlockTableRecord
  2
*D14
340
0
  0
BLOCK_RECORD
  5
59AE
330
1
100
AcDbSymbolTableRecord
100
AcDbBlockTableRecord
  2
*D15
340
0
  0
BLOCK_RECORD
  5
59BA
330
1
100
AcDbSymbolTableRecord
100
AcDbBlockTableRecord
  2
*D16
340
0
  0
BLOCK_RECORD
  5
59CF
330
1
100
AcDbSymbolTableRecord
100
AcDbBlockTableRecord
  2
*D17
340
0
  0
BLOCK_RECORD
  5
59DB
330
1
100
AcDbSymbolTableRecord
100
AcDbBlockTableRecord
  2
*D18
340
0
  0
BLOCK_RECORD
  5
59F0
330
1
100
AcDbSymbolTableRecord
100
AcDbBlockTableRecord
  2
*D19
340
0
  0
BLOCK_RECORD
  5
59FC
330
1
100
AcDbSymbolTableRecord
100
AcDbBlockTableRecord
  2
*D20
340
0
  0
BLOCK_RECORD
  5
5A08
330
1
100
AcDbSymbolTableRecord
100
AcDbBlockTableRecord
  2
*D21
340
0
  0
BLOCK_RECORD
  5
5A1D
330
1
100
AcDbSymbolTableRecord
100
AcDbBlockTableRecord
  2
*D22
340
0
  0
BLOCK_RECORD
  5
5A29
330
1
100
AcDbSymbolTableRecord
100
AcDbBlockTableRecord
  2
*D23
340
0
  0
BLOCK_RECORD
  5
5A47
330
1
100
AcDbSymbolTableRecord
100
AcDbBlockTableRecord
  2
*D24
340
0
  0
BLOCK_RECORD
  5
5A5E
330
1
100
AcDbSymbolTableRecord
100
AcDbBlockTableRecord
  2
*D25
340
0
  0
BLOCK_RECORD
  5
5A6C
330
1
100
AcDbSymbolTableRecord
100
AcDbBlockTableRecord
  2
*D26
340
0
  0
BLOCK_RECORD
  5
5A78
330
1
100
AcDbSymbolTableRecord
100
AcDbBlockTableRecord
  2
*D27
340
0
  0
BLOCK_RECORD
  5
5A8D
330
1
100
AcDbSymbolTableRecord
100
AcDbBlockTableRecord
  2
*D28
340
0
  0
BLOCK_RECORD
  5
5A99
330
1
100
AcDbSymbolTableRecord
100
AcDbBlockTableRecord
  2
*D29
340
0
  0
BLOCK_RECORD
  5
5AA5
330
1
100
AcDbSymbolTableRecord
100
AcDbBlockTableRecord
  2
*D30
340
0
  0
BLOCK_RECORD
  5
5AB1
330
1
100
AcDbSymbolTableRecord
100
AcDbBlockTableRecord
  2
*D31
340
0
  0
BLOCK_RECORD
  5
5AD8
330
1
100
AcDbSymbolTableRecord
100
AcDbBlockTableRecord
  2
*D32
340
0
  0
BLOCK_RECORD
  5
5AE6
330
1
100
AcDbSymbolTableRecord
100
AcDbBlockTableRecord
  2
*D33
340
0
  0
BLOCK_RECORD
  5
5AF2
330
1
100
AcDbSymbolTableRecord
100
AcDbBlockTableRecord
  2
*D34
340
0
  0
BLOCK_RECORD
  5
5B09
330
1
100
AcDbSymbolTableRecord
100
AcDbBlockTableRecord
  2
*D35
340
0
  0
BLOCK_RECORD
  5
5B20
330
1
100
AcDbSymbolTableRecord
100
AcDbBlockTableRecord
  2
*D36
340
0
  0
BLOCK_RECORD
  5
5D66
102
{ACAD_XDICTIONARY
360
5D6B
102
}
330
1
100
AcDbSymbolTableRecord
100
AcDbBlockTableRecord
  2
A$C1BA4754C
340
0
102
{BLKREFS
331
5D6F
102
}
  0
BLOCK_RECORD
  5
5F04
330
1
100
AcDbSymbolTableRecord
100
AcDbBlockTableRecord
  2
*S38
340
0
102
{BLKREFS
331
58FC
102
}
  0
BLOCK_RECORD
  5
5F0C
330
1
100
AcDbSymbolTableRecord
100
AcDbBlockTableRecord
  2
*S39
340
0
102
{BLKREFS
331
58FD
102
}
  0
BLOCK_RECORD
  5
5F14
330
1
100
AcDbSymbolTableRecord
100
AcDbBlockTableRecord
  2
*S40
340
0
102
{BLKREFS
331
58FE
102
}
  0
BLOCK_RECORD
  5
5F1C
330
1
100
AcDbSymbolTableRecord
100
AcDbBlockTableRecord
  2
*S41
340
0
102
{BLKREFS
331
58FF
102
}
  0
BLOCK_RECORD
  5
5F24
330
1
100
AcDbSymbolTableRecord
100
AcDbBlockTableRecord
  2
*S42
340
0
102
{BLKREFS
331
5900
102
}
  0
BLOCK_RECORD
  5
5F2C
330
1
100
AcDbSymbolTableRecord
100
AcDbBlockTableRecord
  2
*S43
340
0
102
{BLKREFS
331
5901
102
}
  0
BLOCK_RECORD
  5
5F34
330
1
100
AcDbSymbolTableRecord
100
AcDbBlockTableRecord
  2
*S44
340
0
102
{BLKREFS
331
5902
102
}
  0
ENDTAB
  0
ENDSEC
  0
SECTION
  2
BLOCKS
  0
BLOCK
  5
20
330
1F
100
AcDbEntity
  8
0
100
AcDbBlockBegin
  2
*Model_Space
 70
     0
 10
0.0
 20
0.0
 30
0.0
  3
*Model_Space
  1

  0
ENDBLK
  5
21
330
1F
100
AcDbEntity
  8
0
100
AcDbBlockEnd
  0
BLOCK
  5
1C
330
1B
100
AcDbEntity
 67
     1
  8
0
100
AcDbBlockBegin
  2
*Paper_Space
 70
     0
 10
0.0
 20
0.0
 30
0.0
  3
*Paper_Space
  1

  0
ENDBLK
  5
1D
330
1B
100
AcDbEntity
 67
     1
  8
0
100
AcDbBlockEnd
  0
BLOCK
  5
24
330
23
100
AcDbEntity
  8
0
100
AcDbBlockBegin
  2
*Paper_Space0
 70
     0
 10
0.0
 20
0.0
 30
0.0
  3
*Paper_Space0
  1

  0
ENDBLK
  5
25
330
23
100
AcDbEntity
  8
0
100
AcDbBlockEnd
  0
BLOCK
  5
89
330
87
100
AcDbEntity
  8
0
100
AcDbBlockBegin
  2
GENAXEH
 70
     0
 10
0.0
 20
0.0
 30
0.0
  3
GENAXEH
  1

  0
LINE
  5
88
330
87
100
AcDbEntity
  8
0
100
AcDbLine
 10
-1.0
 20
0.0
 30
0.0
 11
1.0
 21
0.0
 31
0.0
  0
ENDBLK
  5
8A
330
87
100
AcDbEntity
  8
0
100
AcDbBlockEnd
  0
BLOCK
  5
425C
330
4259
100
AcDbEntity
  8
0
100
AcDbBlockBegin
  2
GENDOT
 70
     0
 10
0.0
 20
0.0
 30
0.0
  3
GENDOT
  1

  0
LINE
  5
425A
330
4259
100
AcDbEntity
  8
0
100
AcDbLine
 10
0.0
 20
0.0
 30
0.0
 11
-1.0
 21
0.0
 31
0.0
  0
LWPOLYLINE
  5
425B
330
4259
100
AcDbEntity
  8
0
100
AcDbPolyline
 90
        2
 70
     1
 43
0.25
 10
-0.125
 20
0.0
 42
1.0
 10
0.125
 20
0.0
 42
1.0
  0
ENDBLK
  5
425D
330
4259
100
AcDbEntity
  8
0
100
AcDbBlockEnd
  0
BLOCK
  5
4488
330
4486
100
AcDbEntity
  8
0
100
AcDbBlockBegin
  2
A$C5ECF147B
 70
     0
 10
0.0
 20
0.0
 30
0.0
  3
A$C5ECF147B
  1

  0
CIRCLE
  5
4489
330
4486
100
AcDbEntity
  8
0
100
AcDbCircle
 10
-3.079240456948355
 20
2.061381943681453
 30
0.0
 40
1.25
  0
CIRCLE
  5
448A
330
4486
100
AcDbEntity
  8
0
100
AcDbCircle
 10
-3.079240456948355
 20
2.061381943681453
 30
0.0
 40
0.75
  0
ENDBLK
  5
448B
330
4486
100
AcDbEntity
  8
0
100
AcDbBlockEnd
  0
BLOCK
  5
5934
330
592A
100
AcDbEntity
  8
0
100
AcDbBlockBegin
  2
*D4
 70
     1
 10
0.0
 20
0.0
 30
0.0
  3
*D4
  1

  0
LINE
  5
5D70
330
592A
100
AcDbEntity
  8
AM_5
100
AcDbLine
 10
1444.505601793071
 20
205.0632268376449
 30
0.0
 11
1444.505601793071
 21
186.8132268376447
 31
0.0
  0
LINE
  5
5D71
330
592A
100
AcDbEntity
  8
AM_5
100
AcDbLine
 10
1460.505601793071
 20
205.0632268376449
 30
0.0
 11
1460.505601793071
 21
186.8132268376447
 31
0.0
  0
LINE
  5
5D72
330
592A
100
AcDbEntity
  8
AM_5
100
AcDbLine
 10
1449.005601793072
 20
189.0632268376446
 30
0.0
 11
1456.005601793072
 21
189.0632268376446
 31
0.0
  0
SOLID
  5
5D73
330
592A
100
AcDbEntity
  8
AM_5
100
AcDbTrace
 10
1449.005601793072
 20
189.8132268376446
 30
0.0
 11
1449.005601793072
 21
188.3132268376446
 31
0.0
 12
1444.505601793071
 22
189.0632268376446
 32
0.0
 13
1444.505601793071
 23
189.0632268376446
 33
0.0
  0
SOLID
  5
5D74
330
592A
100
AcDbEntity
  8
AM_5
100
AcDbTrace
 10
1456.005601793072
 20
189.8132268376446
 30
0.0
 11
1456.005601793072
 21
188.3132268376446
 31
0.0
 12
1460.505601793071
 22
189.0632268376446
 32
0.0
 13
1460.505601793071
 23
189.0632268376446
 33
0.0
  0
MTEXT
  5
5D75
330
592A
100
AcDbEntity
  8
AM_5
100
AcDbMText
 10
1452.505601793071
 20
192.7382268376446
 30
0.0
 40
5.25
 41
0.0
 71
     5
 72
     1
  1
16
 73
     1
 44
1.0
1001
ACAD
1000
MTEXTBEGIN
1070
    73
1070
     1
1070
    44
1040
1.0
1070
    74
1070
     0
1000
MTEXTEND
  0
POINT
  5
5D76
330
592A
100
AcDbEntity
  8
Defpoints
 62
     0
100
AcDbPoint
 10
1444.505601793071
 20
206.5632268376449
 30
0.0
  0
POINT
  5
5D77
330
592A
100
AcDbEntity
  8
Defpoints
 62
     0
100
AcDbPoint
 10
1460.505601793071
 20
206.5632268376449
 30
0.0
  0
POINT
  5
5D78
330
592A
100
AcDbEntity
  8
Defpoints
 62
     0
100
AcDbPoint
 10
1460.505601793071
 20
189.0632268376446
 30
0.0
  0
ENDBLK
  5
5935
330
592A
100
AcDbEntity
  8
0
100
AcDbBlockEnd
  0
BLOCK
  5
5940
330
5936
100
AcDbEntity
  8
0
100
AcDbBlockBegin
  2
*D5
 70
     1
 10
0.0
 20
0.0
 30
0.0
  3
*D5
  1

  0
LINE
  5
5D8B
330
5936
100
AcDbEntity
  8
AM_5
100
AcDbLine
 10
1465.505601793072
 20
236.0632268376447
 30
0.0
 11
1482.255601793071
 21
236.0632268376446
 31
0.0
  0
LINE
  5
5D8C
330
5936
100
AcDbEntity
  8
AM_5
100
AcDbLine
 10
1465.505601793071
 20
210.0632268376446
 30
0.0
 11
1482.255601793071
 21
210.0632268376446
 31
0.0
  0
LINE
  5
5D8D
330
5936
100
AcDbEntity
  8
AM_5
100
AcDbLine
 10
1480.005601793072
 20
231.5632268376446
 30
0.0
 11
1480.005601793072
 21
214.5632268376446
 31
0.0
  0
SOLID
  5
5D8E
330
5936
100
AcDbEntity
  8
AM_5
100
AcDbTrace
 10
1479.255601793072
 20
231.5632268376446
 30
0.0
 11
1480.755601793072
 21
231.5632268376446
 31
0.0
 12
1480.005601793072
 22
236.0632268376446
 32
0.0
 13
1480.005601793072
 23
236.0632268376446
 33
0.0
  0
SOLID
  5
5D8F
330
5936
100
AcDbEntity
  8
AM_5
100
AcDbTrace
 10
1479.255601793072
 20
214.5632268376446
 30
0.0
 11
1480.755601793072
 21
214.5632268376446
 31
0.0
 12
1480.005601793072
 22
210.0632268376446
 32
0.0
 13
1480.005601793072
 23
210.0632268376446
 33
0.0
  0
MTEXT
  5
5D90
330
5936
100
AcDbEntity
  8
AM_5
100
AcDbMText
 10
1476.330085060788
 20
223.0632268376449
 30
0.0
 40
5.25
 41
0.0
 71
     5
 72
     1
  1
26
 11
0.0000000000000001
 21
1.0
 31
0.0
 73
     1
 44
1.0
1001
ACAD
1000
MTEXTBEGIN
1070
    73
1070
     1
1070
    44
1040
1.0
1070
    74
1070
     0
1000
MTEXTEND
  0
POINT
  5
5D91
330
5936
100
AcDbEntity
  8
Defpoints
 62
     0
100
AcDbPoint
 10
1464.005601793072
 20
236.0632268376447
 30
0.0
  0
POINT
  5
5D92
330
5936
100
AcDbEntity
  8
Defpoints
 62
     0
100
AcDbPoint
 10
1464.005601793071
 20
210.0632268376446
 30
0.0
  0
POINT
  5
5D93
330
5936
100
AcDbEntity
  8
Defpoints
 62
     0
100
AcDbPoint
 10
1480.005601793072
 20
210.0632268376446
 30
0.0
  0
ENDBLK
  5
5941
330
5936
100
AcDbEntity
  8
0
100
AcDbBlockEnd
  0
BLOCK
  5
594C
330
5942
100
AcDbEntity
  8
0
100
AcDbBlockBegin
  2
*D6
 70
     1
 10
0.0
 20
0.0
 30
0.0
  3
*D6
  1

  0
LINE
  5
5DAF
330
5942
100
AcDbEntity
  8
AM_5
100
AcDbLine
 10
1554.39603567984
 20
343.4368189448735
 30
0.0
 11
1528.14603567984
 21
343.4368189448735
 31
0.0
  0
LINE
  5
5DB0
330
5942
100
AcDbEntity
  8
AM_5
100
AcDbLine
 10
1554.39603567984
 20
327.4368189448734
 30
0.0
 11
1528.14603567984
 21
327.4368189448734
 31
0.0
  0
LINE
  5
5DB1
330
5942
100
AcDbEntity
  8
AM_5
100
AcDbLine
 10
1530.39603567984
 20
338.9368189448735
 30
0.0
 11
1530.39603567984
 21
331.9368189448734
 31
0.0
  0
SOLID
  5
5DB2
330
5942
100
AcDbEntity
  8
AM_5
100
AcDbTrace
 10
1529.64603567984
 20
338.9368189448735
 30
0.0
 11
1531.14603567984
 21
338.9368189448735
 31
0.0
 12
1530.39603567984
 22
343.4368189448735
 32
0.0
 13
1530.39603567984
 23
343.4368189448735
 33
0.0
  0
SOLID
  5
5DB3
330
5942
100
AcDbEntity
  8
AM_5
100
AcDbTrace
 10
1529.64603567984
 20
331.9368189448734
 30
0.0
 11
1531.14603567984
 21
331.9368189448734
 31
0.0
 12
1530.39603567984
 22
327.4368189448734
 32
0.0
 13
1530.39603567984
 23
327.4368189448734
 33
0.0
  0
MTEXT
  5
5DB4
330
5942
100
AcDbEntity
  8
AM_5
100
AcDbMText
 10
1526.72103567984
 20
335.4368189448737
 30
0.0
 40
5.25
 41
0.0
 71
     5
 72
     1
  1
16
 11
0.0000000000000001
 21
1.0
 31
0.0
 73
     1
 44
1.0
1001
ACAD
1000
MTEXTBEGIN
1070
    73
1070
     1
1070
    44
1040
1.0
1070
    74
1070
     0
1000
MTEXTEND
  0
POINT
  5
5DB5
330
5942
100
AcDbEntity
  8
Defpoints
 62
     0
100
AcDbPoint
 10
1555.89603567984
 20
343.4368189448735
 30
0.0
  0
POINT
  5
5DB6
330
5942
100
AcDbEntity
  8
Defpoints
 62
     0
100
AcDbPoint
 10
1555.89603567984
 20
327.4368189448734
 30
0.0
  0
POINT
  5
5DB7
330
5942
100
AcDbEntity
  8
Defpoints
 62
     0
100
AcDbPoint
 10
1530.39603567984
 20
327.4368189448734
 30
0.0
  0
ENDBLK
  5
594D
330
5942
100
AcDbEntity
  8
0
100
AcDbBlockEnd
  0
BLOCK
  5
5958
330
594E
100
AcDbEntity
  8
0
100
AcDbBlockBegin
  2
*D7
 70
     1
 10
0.0
 20
0.0
 30
0.0
  3
*D7
  1

  0
LINE
  5
5DCA
330
594E
100
AcDbEntity
  8
AM_5
100
AcDbLine
 10
1559.39603567984
 20
322.4368189448735
 30
0.0
 11
1559.39603567984
 21
305.6868189448735
 31
0.0
  0
LINE
  5
5DCB
330
594E
100
AcDbEntity
  8
AM_5
100
AcDbLine
 10
1579.39603567984
 20
321.2868189448735
 30
0.0
 11
1579.39603567984
 21
305.6868189448735
 31
0.0
  0
LINE
  5
5DCC
330
594E
100
AcDbEntity
  8
AM_5
100
AcDbLine
 10
1563.89603567984
 20
307.9368189448735
 30
0.0
 11
1574.89603567984
 21
307.9368189448735
 31
0.0
  0
SOLID
  5
5DCD
330
594E
100
AcDbEntity
  8
AM_5
100
AcDbTrace
 10
1563.89603567984
 20
308.6868189448734
 30
0.0
 11
1563.89603567984
 21
307.1868189448734
 31
0.0
 12
1559.39603567984
 22
307.9368189448735
 32
0.0
 13
1559.39603567984
 23
307.9368189448735
 33
0.0
  0
SOLID
  5
5DCE
330
594E
100
AcDbEntity
  8
AM_5
100
AcDbTrace
 10
1574.89603567984
 20
308.6868189448734
 30
0.0
 11
1574.89603567984
 21
307.1868189448734
 31
0.0
 12
1579.39603567984
 22
307.9368189448735
 32
0.0
 13
1579.39603567984
 23
307.9368189448735
 33
0.0
  0
MTEXT
  5
5DCF
330
594E
100
AcDbEntity
  8
AM_5
100
AcDbMText
 10
1569.39603567984
 20
311.6123356771569
 30
0.0
 40
5.25
 41
0.0
 71
     5
 72
     1
  1
L2
 73
     1
 44
1.0
1001
ACAD
1000
MTEXTBEGIN
1070
    73
1070
     1
1070
    44
1040
1.0
1070
    74
1070
     0
1000
MTEXTEND
  0
POINT
  5
5DD0
330
594E
100
AcDbEntity
  8
Defpoints
 62
     0
100
AcDbPoint
 10
1559.39603567984
 20
323.9368189448734
 30
0.0
  0
POINT
  5
5DD1
330
594E
100
AcDbEntity
  8
Defpoints
 62
     0
100
AcDbPoint
 10
1579.39603567984
 20
322.7868189448735
 30
0.0
  0
POINT
  5
5DD2
330
594E
100
AcDbEntity
  8
Defpoints
 62
     0
100
AcDbPoint
 10
1579.39603567984
 20
307.9368189448735
 30
0.0
  0
ENDBLK
  5
5959
330
594E
100
AcDbEntity
  8
0
100
AcDbBlockEnd
  0
BLOCK
  5
5964
330
595A
100
AcDbEntity
  8
0
100
AcDbBlockBegin
  2
*D8
 70
     1
 10
0.0
 20
0.0
 30
0.0
  3
*D8
  1

  0
LINE
  5
5DD3
330
595A
100
AcDbEntity
  8
AM_5
100
AcDbLine
 10
1579.39603567984
 20
322.4368189448735
 30
0.0
 11
1579.39603567984
 21
305.6868189448735
 31
0.0
  0
LINE
  5
5DD4
330
595A
100
AcDbEntity
  8
AM_5
100
AcDbLine
 10
1599.39603567984
 20
322.4368189448735
 30
0.0
 11
1599.39603567984
 21
305.6868189448735
 31
0.0
  0
LINE
  5
5DD5
330
595A
100
AcDbEntity
  8
AM_5
100
AcDbLine
 10
1583.89603567984
 20
307.9368189448735
 30
0.0
 11
1594.89603567984
 21
307.9368189448735
 31
0.0
  0
SOLID
  5
5DD6
330
595A
100
AcDbEntity
  8
AM_5
100
AcDbTrace
 10
1583.89603567984
 20
308.6868189448734
 30
0.0
 11
1583.89603567984
 21
307.1868189448734
 31
0.0
 12
1579.39603567984
 22
307.9368189448735
 32
0.0
 13
1579.39603567984
 23
307.9368189448735
 33
0.0
  0
SOLID
  5
5DD7
330
595A
100
AcDbEntity
  8
AM_5
100
AcDbTrace
 10
1594.89603567984
 20
308.6868189448734
 30
0.0
 11
1594.89603567984
 21
307.1868189448734
 31
0.0
 12
1599.39603567984
 22
307.9368189448735
 32
0.0
 13
1599.39603567984
 23
307.9368189448735
 33
0.0
  0
MTEXT
  5
5DD8
330
595A
100
AcDbEntity
  8
AM_5
100
AcDbMText
 10
1589.39603567984
 20
311.6118189448735
 30
0.0
 40
5.25
 41
0.0
 71
     5
 72
     1
  1
L3
 73
     1
 44
1.0
1001
ACAD
1000
MTEXTBEGIN
1070
    73
1070
     1
1070
    44
1040
1.0
1070
    74
1070
     0
1000
MTEXTEND
  0
POINT
  5
5DD9
330
595A
100
AcDbEntity
  8
Defpoints
 62
     0
100
AcDbPoint
 10
1579.39603567984
 20
323.9368189448734
 30
0.0
  0
POINT
  5
5DDA
330
595A
100
AcDbEntity
  8
Defpoints
 62
     0
100
AcDbPoint
 10
1599.39603567984
 20
323.9368189448734
 30
0.0
  0
POINT
  5
5DDB
330
595A
100
AcDbEntity
  8
Defpoints
 62
     0
100
AcDbPoint
 10
1599.39603567984
 20
307.9368189448735
 30
0.0
  0
ENDBLK
  5
5965
330
595A
100
AcDbEntity
  8
0
100
AcDbBlockEnd
  0
BLOCK
  5
5970
330
5966
100
AcDbEntity
  8
0
100
AcDbBlockBegin
  2
*D9
 70
     1
 10
0.0
 20
0.0
 30
0.0
  3
*D9
  1

  0
LINE
  5
5DE7
330
5966
100
AcDbEntity
  8
AM_5
100
AcDbLine
 10
1557.64603567984
 20
236.5632268376447
 30
0.0
 11
1528.14603567984
 21
236.5632268376447
 31
0.0
  0
LINE
  5
5DE8
330
5966
100
AcDbEntity
  8
AM_5
100
AcDbLine
 10
1557.64603567984
 20
209.5632268376447
 30
0.0
 11
1528.14603567984
 21
209.5632268376447
 31
0.0
  0
LINE
  5
5DE9
330
5966
100
AcDbEntity
  8
AM_5
100
AcDbLine
 10
1530.39603567984
 20
232.0632268376447
 30
0.0
 11
1530.39603567984
 21
214.0632268376446
 31
0.0
  0
SOLID
  5
5DEA
330
5966
100
AcDbEntity
  8
AM_5
100
AcDbTrace
 10
1529.64603567984
 20
232.0632268376447
 30
0.0
 11
1531.14603567984
 21
232.0632268376447
 31
0.0
 12
1530.39603567984
 22
236.5632268376447
 32
0.0
 13
1530.39603567984
 23
236.5632268376447
 33
0.0
  0
SOLID
  5
5DEB
330
5966
100
AcDbEntity
  8
AM_5
100
AcDbTrace
 10
1529.64603567984
 20
214.0632268376446
 30
0.0
 11
1531.14603567984
 21
214.0632268376446
 31
0.0
 12
1530.39603567984
 22
209.5632268376447
 32
0.0
 13
1530.39603567984
 23
209.5632268376447
 33
0.0
  0
MTEXT
  5
5DEC
330
5966
100
AcDbEntity
  8
AM_5
100
AcDbMText
 10
1526.720518947557
 20
223.0632268376449
 30
0.0
 40
5.25
 41
0.0
 71
     5
 72
     1
  1
27
 11
0.0000000000000001
 21
1.0
 31
0.0
 73
     1
 44
1.0
1001
ACAD
1000
MTEXTBEGIN
1070
    73
1070
     1
1070
    44
1040
1.0
1070
    74
1070
     0
1000
MTEXTEND
  0
POINT
  5
5DED
330
5966
100
AcDbEntity
  8
Defpoints
 62
     0
100
AcDbPoint
 10
1559.14603567984
 20
236.5632268376447
 30
0.0
  0
POINT
  5
5DEE
330
5966
100
AcDbEntity
  8
Defpoints
 62
     0
100
AcDbPoint
 10
1559.14603567984
 20
209.5632268376447
 30
0.0
  0
POINT
  5
5DEF
330
5966
100
AcDbEntity
  8
Defpoints
 62
     0
100
AcDbPoint
 10
1530.39603567984
 20
209.5632268376447
 30
0.0
  0
ENDBLK
  5
5971
330
5966
100
AcDbEntity
  8
0
100
AcDbBlockEnd
  0
BLOCK
  5
597C
330
5972
100
AcDbEntity
  8
0
100
AcDbBlockBegin
  2
*D10
 70
     1
 10
0.0
 20
0.0
 30
0.0
  3
*D10
  1

  0
LINE
  5
5E11
330
5972
100
AcDbEntity
  8
AM_5
100
AcDbLine
 10
1564.39603567984
 20
202.5632268376447
 30
0.0
 11
1564.39603567984
 21
178.1282915194456
 31
0.0
  0
LINE
  5
5E12
330
5972
100
AcDbEntity
  8
AM_5
100
AcDbLine
 10
1614.39603567984
 20
229.8132268376447
 30
0.0
 11
1614.39603567984
 21
178.1282915194456
 31
0.0
  0
LINE
  5
5E13
330
5972
100
AcDbEntity
  8
AM_5
100
AcDbLine
 10
1568.89603567984
 20
180.3782915194456
 30
0.0
 11
1609.89603567984
 21
180.3782915194456
 31
0.0
  0
SOLID
  5
5E14
330
5972
100
AcDbEntity
  8
AM_5
100
AcDbTrace
 10
1568.89603567984
 20
181.1282915194457
 30
0.0
 11
1568.89603567984
 21
179.6282915194456
 31
0.0
 12
1564.39603567984
 22
180.3782915194456
 32
0.0
 13
1564.39603567984
 23
180.3782915194456
 33
0.0
  0
SOLID
  5
5E15
330
5972
100
AcDbEntity
  8
AM_5
100
AcDbTrace
 10
1609.89603567984
 20
181.1282915194457
 30
0.0
 11
1609.89603567984
 21
179.6282915194456
 31
0.0
 12
1614.39603567984
 22
180.3782915194456
 32
0.0
 13
1614.39603567984
 23
180.3782915194456
 33
0.0
  0
MTEXT
  5
5E16
330
5972
100
AcDbEntity
  8
AM_5
100
AcDbMText
 10
1589.39603567984
 20
184.0532915194456
 30
0.0
 40
5.25
 41
0.0
 71
     5
 72
     1
  1
C
 73
     1
 44
1.0
1001
ACAD
1000
MTEXTBEGIN
1070
    73
1070
     1
1070
    44
1040
1.0
1070
    74
1070
     0
1000
MTEXTEND
  0
POINT
  5
5E17
330
5972
100
AcDbEntity
  8
Defpoints
 62
     0
100
AcDbPoint
 10
1564.39603567984
 20
204.0632268376447
 30
0.0
  0
POINT
  5
5E18
330
5972
100
AcDbEntity
  8
Defpoints
 62
     0
100
AcDbPoint
 10
1614.39603567984
 20
231.3132268376447
 30
0.0
  0
POINT
  5
5E19
330
5972
100
AcDbEntity
  8
Defpoints
 62
     0
100
AcDbPoint
 10
1614.39603567984
 20
180.3782915194456
 30
0.0
  0
ENDBLK
  5
597D
330
5972
100
AcDbEntity
  8
0
100
AcDbBlockEnd
  0
BLOCK
  5
5988
330
597E
100
AcDbEntity
  8
0
100
AcDbBlockBegin
  2
*D11
 70
     1
 10
0.0
 20
0.0
 30
0.0
  3
*D11
  1

  0
LINE
  5
5E3E
330
597E
100
AcDbEntity
  8
AM_5
100
AcDbLine
 10
1571.39603567984
 20
114.0121532549814
 30
0.0
 11
1571.39603567984
 21
130.2621532549814
 31
0.0
  0
LINE
  5
5E3F
330
597E
100
AcDbEntity
  8
AM_5
100
AcDbLine
 10
1621.39603567984
 20
114.0121532549814
 30
0.0
 11
1621.39603567984
 21
130.2621532549814
 31
0.0
  0
LINE
  5
5E40
330
597E
100
AcDbEntity
  8
AM_5
100
AcDbLine
 10
1575.89603567984
 20
128.0121532549814
 30
0.0
 11
1616.89603567984
 21
128.0121532549814
 31
0.0
  0
SOLID
  5
5E41
330
597E
100
AcDbEntity
  8
AM_5
100
AcDbTrace
 10
1575.89603567984
 20
128.7621532549814
 30
0.0
 11
1575.89603567984
 21
127.2621532549814
 31
0.0
 12
1571.39603567984
 22
128.0121532549814
 32
0.0
 13
1571.39603567984
 23
128.0121532549814
 33
0.0
  0
SOLID
  5
5E42
330
597E
100
AcDbEntity
  8
AM_5
100
AcDbTrace
 10
1616.89603567984
 20
128.7621532549814
 30
0.0
 11
1616.89603567984
 21
127.2621532549814
 31
0.0
 12
1621.39603567984
 22
128.0121532549814
 32
0.0
 13
1621.39603567984
 23
128.0121532549814
 33
0.0
  0
MTEXT
  5
5E43
330
597E
100
AcDbEntity
  8
AM_5
100
AcDbMText
 10
1596.39603567984
 20
131.6871532549814
 30
0.0
 40
5.25
 41
0.0
 71
     5
 72
     1
  1
10+stroke
 73
     1
 44
1.0
1001
ACAD
1000
MTEXTBEGIN
1070
    73
1070
     1
1070
    44
1040
1.0
1070
    74
1070
     0
1000
MTEXTEND
  0
POINT
  5
5E44
330
597E
100
AcDbEntity
  8
Defpoints
 62
     0
100
AcDbPoint
 10
1571.39603567984
 20
112.5121532549814
 30
0.0
  0
POINT
  5
5E45
330
597E
100
AcDbEntity
  8
Defpoints
 62
     0
100
AcDbPoint
 10
1621.39603567984
 20
112.5121532549814
 30
0.0
  0
POINT
  5
5E46
330
597E
100
AcDbEntity
  8
Defpoints
 62
     0
100
AcDbPoint
 10
1621.39603567984
 20
128.0121532549814
 30
0.0
  0
ENDBLK
  5
5989
330
597E
100
AcDbEntity
  8
0
100
AcDbBlockEnd
  0
BLOCK
  5
5994
330
598A
100
AcDbEntity
  8
0
100
AcDbBlockBegin
  2
*D12
 70
     1
 10
0.0
 20
0.0
 30
0.0
  3
*D12
  1

  0
LINE
  5
5E47
330
598A
100
AcDbEntity
  8
AM_5
100
AcDbLine
 10
1566.39603567984
 20
109.0121532549815
 30
0.0
 11
1528.14603567984
 21
109.0121532549815
 31
0.0
  0
LINE
  5
5E48
330
598A
100
AcDbEntity
  8
AM_5
100
AcDbLine
 10
1566.39603567984
 20
92.01215325498145
 30
0.0
 11
1528.14603567984
 21
92.01215325498145
 31
0.0
  0
LINE
  5
5E49
330
598A
100
AcDbEntity
  8
AM_5
100
AcDbLine
 10
1530.39603567984
 20
104.5121532549815
 30
0.0
 11
1530.39603567984
 21
96.51215325498146
 31
0.0
  0
SOLID
  5
5E4A
330
598A
100
AcDbEntity
  8
AM_5
100
AcDbTrace
 10
1529.64603567984
 20
104.5121532549815
 30
0.0
 11
1531.14603567984
 21
104.5121532549815
 31
0.0
 12
1530.39603567984
 22
109.0121532549815
 32
0.0
 13
1530.39603567984
 23
109.0121532549815
 33
0.0
  0
SOLID
  5
5E4B
330
598A
100
AcDbEntity
  8
AM_5
100
AcDbTrace
 10
1529.64603567984
 20
96.51215325498146
 30
0.0
 11
1531.14603567984
 21
96.51215325498146
 31
0.0
 12
1530.39603567984
 22
92.01215325498145
 32
0.0
 13
1530.39603567984
 23
92.01215325498145
 33
0.0
  0
MTEXT
  5
5E4C
330
598A
100
AcDbEntity
  8
AM_5
100
AcDbMText
 10
1526.72103567984
 20
100.5121532549817
 30
0.0
 40
5.25
 41
0.0
 71
     5
 72
     1
  1
17
 11
0.0000000000000001
 21
1.0
 31
0.0
 73
     1
 44
1.0
1001
ACAD
1000
MTEXTBEGIN
1070
    73
1070
     1
1070
    44
1040
1.0
1070
    74
1070
     0
1000
MTEXTEND
  0
POINT
  5
5E4D
330
598A
100
AcDbEntity
  8
Defpoints
 62
     0
100
AcDbPoint
 10
1567.89603567984
 20
109.0121532549815
 30
0.0
  0
POINT
  5
5E4E
330
598A
100
AcDbEntity
  8
Defpoints
 62
     0
100
AcDbPoint
 10
1567.89603567984
 20
92.01215325498145
 30
0.0
  0
POINT
  5
5E4F
330
598A
100
AcDbEntity
  8
Defpoints
 62
     0
100
AcDbPoint
 10
1530.39603567984
 20
92.01215325498145
 30
0.0
  0
ENDBLK
  5
5995
330
598A
100
AcDbEntity
  8
0
100
AcDbBlockEnd
  0
BLOCK
  5
59A0
330
5996
100
AcDbEntity
  8
0
100
AcDbBlockBegin
  2
*D13
 70
     1
 10
0.0
 20
0.0
 30
0.0
  3
*D13
  1

  0
LINE
  5
5E50
330
5996
100
AcDbEntity
  8
AM_5
100
AcDbLine
 10
1634.39603567984
 20
235.5632268376447
 30
0.0
 11
1658.64603567984
 21
235.5632268376447
 31
0.0
  0
LINE
  5
5E51
330
5996
100
AcDbEntity
  8
AM_5
100
AcDbLine
 10
1634.39603567984
 20
210.5632268376447
 30
0.0
 11
1658.64603567984
 21
210.5632268376447
 31
0.0
  0
LINE
  5
5E52
330
5996
100
AcDbEntity
  8
AM_5
100
AcDbLine
 10
1656.39603567984
 20
231.0632268376447
 30
0.0
 11
1656.39603567984
 21
215.0632268376447
 31
0.0
  0
SOLID
  5
5E53
330
5996
100
AcDbEntity
  8
AM_5
100
AcDbTrace
 10
1655.64603567984
 20
231.0632268376447
 30
0.0
 11
1657.14603567984
 21
231.0632268376447
 31
0.0
 12
1656.39603567984
 22
235.5632268376447
 32
0.0
 13
1656.39603567984
 23
235.5632268376447
 33
0.0
  0
SOLID
  5
5E54
330
5996
100
AcDbEntity
  8
AM_5
100
AcDbTrace
 10
1655.64603567984
 20
215.0632268376447
 30
0.0
 11
1657.14603567984
 21
215.0632268376447
 31
0.0
 12
1656.39603567984
 22
210.5632268376447
 32
0.0
 13
1656.39603567984
 23
210.5632268376447
 33
0.0
  0
MTEXT
  5
5E55
330
5996
100
AcDbEntity
  8
AM_5
100
AcDbMText
 10
1652.720518947557
 20
223.0632268376449
 30
0.0
 40
5.25
 41
0.0
 71
     5
 72
     1
  1
25
 11
0.0000000000000001
 21
1.0
 31
0.0
 73
     1
 44
1.0
1001
ACAD
1000
MTEXTBEGIN
1070
    73
1070
     1
1070
    44
1040
1.0
1070
    74
1070
     0
1000
MTEXTEND
  0
POINT
  5
5E56
330
5996
100
AcDbEntity
  8
Defpoints
 62
     0
100
AcDbPoint
 10
1632.89603567984
 20
235.5632268376447
 30
0.0
  0
POINT
  5
5E57
330
5996
100
AcDbEntity
  8
Defpoints
 62
     0
100
AcDbPoint
 10
1632.89603567984
 20
210.5632268376447
 30
0.0
  0
POINT
  5
5E58
330
5996
100
AcDbEntity
  8
Defpoints
 62
     0
100
AcDbPoint
 10
1656.39603567984
 20
210.5632268376447
 30
0.0
  0
ENDBLK
  5
59A1
330
5996
100
AcDbEntity
  8
0
100
AcDbBlockEnd
  0
BLOCK
  5
59AC
330
59A2
100
AcDbEntity
  8
0
100
AcDbBlockBegin
  2
*D14
 70
     1
 10
0.0
 20
0.0
 30
0.0
  3
*D14
  1

  0
LINE
  5
5E78
330
59A2
100
AcDbEntity
  8
AM_5
100
AcDbLine
 10
1736.249884633002
 20
236.5632268376447
 30
0.0
 11
1718.499884633002
 21
236.5632268376447
 31
0.0
  0
LINE
  5
5E79
330
59A2
100
AcDbEntity
  8
AM_5
100
AcDbLine
 10
1734.749884633002
 20
209.5632268376447
 30
0.0
 11
1718.499884633002
 21
209.5632268376447
 31
0.0
  0
LINE
  5
5E7A
330
59A2
100
AcDbEntity
  8
AM_5
100
AcDbLine
 10
1720.749884633002
 20
232.0632268376447
 30
0.0
 11
1720.749884633002
 21
214.0632268376447
 31
0.0
  0
SOLID
  5
5E7B
330
59A2
100
AcDbEntity
  8
AM_5
100
AcDbTrace
 10
1719.999884633002
 20
232.0632268376447
 30
0.0
 11
1721.499884633002
 21
232.0632268376447
 31
0.0
 12
1720.749884633002
 22
236.5632268376447
 32
0.0
 13
1720.749884633002
 23
236.5632268376447
 33
0.0
  0
SOLID
  5
5E7C
330
59A2
100
AcDbEntity
  8
AM_5
100
AcDbTrace
 10
1719.999884633002
 20
214.0632268376447
 30
0.0
 11
1721.499884633002
 21
214.0632268376447
 31
0.0
 12
1720.749884633002
 22
209.5632268376447
 32
0.0
 13
1720.749884633002
 23
209.5632268376447
 33
0.0
  0
MTEXT
  5
5E7D
330
59A2
100
AcDbEntity
  8
AM_5
100
AcDbMText
 10
1717.074367900718
 20
223.0632268376449
 30
0.0
 40
5.25
 41
0.0
 71
     5
 72
     1
  1
27
 11
0.0000000000000001
 21
1.0
 31
0.0
 73
     1
 44
1.0
1001
ACAD
1000
MTEXTBEGIN
1070
    73
1070
     1
1070
    44
1040
1.0
1070
    74
1070
     0
1000
MTEXTEND
  0
POINT
  5
5E7E
330
59A2
100
AcDbEntity
  8
Defpoints
 62
     0
100
AcDbPoint
 10
1737.749884633002
 20
236.5632268376447
 30
0.0
  0
POINT
  5
5E7F
330
59A2
100
AcDbEntity
  8
Defpoints
 62
     0
100
AcDbPoint
 10
1736.249884633002
 20
209.5632268376447
 30
0.0
  0
POINT
  5
5E80
330
59A2
100
AcDbEntity
  8
Defpoints
 62
     0
100
AcDbPoint
 10
1720.749884633002
 20
209.5632268376447
 30
0.0
  0
ENDBLK
  5
59AD
330
59A2
100
AcDbEntity
  8
0
100
AcDbBlockEnd
  0
BLOCK
  5
59B8
330
59AE
100
AcDbEntity
  8
0
100
AcDbBlockBegin
  2
*D15
 70
     1
 10
0.0
 20
0.0
 30
0.0
  3
*D15
  1

  0
LINE
  5
5E8C
330
59AE
100
AcDbEntity
  8
AM_5
100
AcDbLine
 10
1753.749884633002
 20
235.5632268376447
 30
0.0
 11
1777.999884633002
 21
235.5632268376447
 31
0.0
  0
LINE
  5
5E8D
330
59AE
100
AcDbEntity
  8
AM_5
100
AcDbLine
 10
1753.749884633002
 20
210.5632268376447
 30
0.0
 11
1777.999884633002
 21
210.5632268376447
 31
0.0
  0
LINE
  5
5E8E
330
59AE
100
AcDbEntity
  8
AM_5
100
AcDbLine
 10
1775.749884633002
 20
231.0632268376447
 30
0.0
 11
1775.749884633002
 21
215.0632268376447
 31
0.0
  0
SOLID
  5
5E8F
330
59AE
100
AcDbEntity
  8
AM_5
100
AcDbTrace
 10
1774.999884633002
 20
231.0632268376447
 30
0.0
 11
1776.499884633002
 21
231.0632268376447
 31
0.0
 12
1775.749884633002
 22
235.5632268376447
 32
0.0
 13
1775.749884633002
 23
235.5632268376447
 33
0.0
  0
SOLID
  5
5E90
330
59AE
100
AcDbEntity
  8
AM_5
100
AcDbTrace
 10
1774.999884633002
 20
215.0632268376447
 30
0.0
 11
1776.499884633002
 21
215.0632268376447
 31
0.0
 12
1775.749884633002
 22
210.5632268376447
 32
0.0
 13
1775.749884633002
 23
210.5632268376447
 33
0.0
  0
MTEXT
  5
5E91
330
59AE
100
AcDbEntity
  8
AM_5
100
AcDbMText
 10
1772.074367900718
 20
223.0632268376449
 30
0.0
 40
5.25
 41
0.0
 71
     5
 72
     1
  1
25
 11
0.0000000000000001
 21
1.0
 31
0.0
 73
     1
 44
1.0
1001
ACAD
1000
MTEXTBEGIN
1070
    73
1070
     1
1070
    44
1040
1.0
1070
    74
1070
     0
1000
MTEXTEND
  0
POINT
  5
5E92
330
59AE
100
AcDbEntity
  8
Defpoints
 62
     0
100
AcDbPoint
 10
1752.249884633002
 20
235.5632268376447
 30
0.0
  0
POINT
  5
5E93
330
59AE
100
AcDbEntity
  8
Defpoints
 62
     0
100
AcDbPoint
 10
1752.249884633002
 20
210.5632268376447
 30
0.0
  0
POINT
  5
5E94
330
59AE
100
AcDbEntity
  8
Defpoints
 62
     0
100
AcDbPoint
 10
1775.749884633002
 20
210.5632268376447
 30
0.0
  0
ENDBLK
  5
59B9
330
59AE
100
AcDbEntity
  8
0
100
AcDbBlockEnd
  0
BLOCK
  5
59C4
330
59BA
100
AcDbEntity
  8
0
100
AcDbBlockBegin
  2
*D16
 70
     1
 10
0.0
 20
0.0
 30
0.0
  3
*D16
  1

  0
LINE
  5
5EA0
330
59BA
100
AcDbEntity
  8
AM_5
100
AcDbLine
 10
1739.749884633002
 20
204.5632268376447
 30
0.0
 11
1739.749884633002
 21
186.8132268376447
 31
0.0
  0
LINE
  5
5EA1
330
59BA
100
AcDbEntity
  8
AM_5
100
AcDbLine
 10
1756.749884633002
 20
204.5632268376447
 30
0.0
 11
1756.749884633002
 21
186.8132268376447
 31
0.0
  0
LINE
  5
5EA2
330
59BA
100
AcDbEntity
  8
AM_5
100
AcDbLine
 10
1744.249884633002
 20
189.0632268376446
 30
0.0
 11
1752.249884633002
 21
189.0632268376446
 31
0.0
  0
SOLID
  5
5EA3
330
59BA
100
AcDbEntity
  8
AM_5
100
AcDbTrace
 10
1744.249884633002
 20
189.8132268376446
 30
0.0
 11
1744.249884633002
 21
188.3132268376446
 31
0.0
 12
1739.749884633002
 22
189.0632268376446
 32
0.0
 13
1739.749884633002
 23
189.0632268376446
 33
0.0
  0
SOLID
  5
5EA4
330
59BA
100
AcDbEntity
  8
AM_5
100
AcDbTrace
 10
1752.249884633002
 20
189.8132268376446
 30
0.0
 11
1752.249884633002
 21
188.3132268376446
 31
0.0
 12
1756.749884633002
 22
189.0632268376446
 32
0.0
 13
1756.749884633002
 23
189.0632268376446
 33
0.0
  0
MTEXT
  5
5EA5
330
59BA
100
AcDbEntity
  8
AM_5
100
AcDbMText
 10
1748.249884633002
 20
192.7382268376446
 30
0.0
 40
5.25
 41
0.0
 71
     5
 72
     1
  1
17
 73
     1
 44
1.0
1001
ACAD
1000
MTEXTBEGIN
1070
    73
1070
     1
1070
    44
1040
1.0
1070
    74
1070
     0
1000
MTEXTEND
  0
POINT
  5
5EA6
330
59BA
100
AcDbEntity
  8
Defpoints
 62
     0
100
AcDbPoint
 10
1739.749884633002
 20
206.0632268376447
 30
0.0
  0
POINT
  5
5EA7
330
59BA
100
AcDbEntity
  8
Defpoints
 62
     0
100
AcDbPoint
 10
1756.749884633002
 20
206.0632268376447
 30
0.0
  0
POINT
  5
5EA8
330
59BA
100
AcDbEntity
  8
Defpoints
 62
     0
100
AcDbPoint
 10
1756.749884633002
 20
189.0632268376446
 30
0.0
  0
ENDBLK
  5
59C5
330
59BA
100
AcDbEntity
  8
0
100
AcDbBlockEnd
  0
BLOCK
  5
59D9
330
59CF
100
AcDbEntity
  8
0
100
AcDbBlockBegin
  2
*D17
 70
     1
 10
0.0
 20
0.0
 30
0.0
  3
*D17
  1

  0
LINE
  5
5D79
330
59CF
100
AcDbEntity
  8
AM_5
100
AcDbLine
 10
1440.005601793072
 20
202.5632268376447
 30
0.0
 11
1440.005601793072
 21
174.8132268376446
 31
0.0
  0
LINE
  5
5D7A
330
59CF
100
AcDbEntity
  8
AM_5
100
AcDbLine
 10
1465.005601793072
 20
202.5632268376447
 30
0.0
 11
1465.005601793072
 21
174.8132268376446
 31
0.0
  0
LINE
  5
5D7B
330
59CF
100
AcDbEntity
  8
AM_5
100
AcDbLine
 10
1444.505601793071
 20
177.0632268376446
 30
0.0
 11
1460.505601793071
 21
177.0632268376446
 31
0.0
  0
SOLID
  5
5D7C
330
59CF
100
AcDbEntity
  8
AM_5
100
AcDbTrace
 10
1444.505601793071
 20
177.8132268376446
 30
0.0
 11
1444.505601793071
 21
176.3132268376446
 31
0.0
 12
1440.005601793072
 22
177.0632268376446
 32
0.0
 13
1440.005601793072
 23
177.0632268376446
 33
0.0
  0
SOLID
  5
5D7D
330
59CF
100
AcDbEntity
  8
AM_5
100
AcDbTrace
 10
1460.505601793071
 20
177.8132268376446
 30
0.0
 11
1460.505601793071
 21
176.3132268376446
 31
0.0
 12
1465.005601793072
 22
177.0632268376446
 32
0.0
 13
1465.005601793072
 23
177.0632268376446
 33
0.0
  0
MTEXT
  5
5D7E
330
59CF
100
AcDbEntity
  8
AM_5
100
AcDbMText
 10
1452.505601793071
 20
180.7387435699281
 30
0.0
 40
5.25
 41
0.0
 71
     5
 72
     1
  1
25
 73
     1
 44
1.0
1001
ACAD
1000
MTEXTBEGIN
1070
    73
1070
     1
1070
    44
1040
1.0
1070
    74
1070
     0
1000
MTEXTEND
  0
POINT
  5
5D7F
330
59CF
100
AcDbEntity
  8
Defpoints
 62
     0
100
AcDbPoint
 10
1440.005601793072
 20
204.0632268376447
 30
0.0
  0
POINT
  5
5D80
330
59CF
100
AcDbEntity
  8
Defpoints
 62
     0
100
AcDbPoint
 10
1465.005601793072
 20
204.0632268376447
 30
0.0
  0
POINT
  5
5D81
330
59CF
100
AcDbEntity
  8
Defpoints
 62
     0
100
AcDbPoint
 10
1465.005601793072
 20
177.0632268376446
 30
0.0
  0
ENDBLK
  5
59DA
330
59CF
100
AcDbEntity
  8
0
100
AcDbBlockEnd
  0
BLOCK
  5
59E5
330
59DB
100
AcDbEntity
  8
0
100
AcDbBlockBegin
  2
*D18
 70
     1
 10
0.0
 20
0.0
 30
0.0
  3
*D18
  1

  0
LINE
  5
5D82
330
59DB
100
AcDbEntity
  8
AM_5
100
AcDbLine
 10
1466.005601793072
 20
257.5632268376446
 30
0.0
 11
1482.255601793071
 21
257.5632268376446
 31
0.0
  0
LINE
  5
5D83
330
59DB
100
AcDbEntity
  8
AM_5
100
AcDbLine
 10
1465.505601793071
 20
236.0632268376447
 30
0.0
 11
1482.255601793071
 21
236.0632268376446
 31
0.0
  0
LINE
  5
5D84
330
59DB
100
AcDbEntity
  8
AM_5
100
AcDbLine
 10
1480.005601793072
 20
253.0632268376447
 30
0.0
 11
1480.005601793072
 21
240.5632268376447
 31
0.0
  0
SOLID
  5
5D85
330
59DB
100
AcDbEntity
  8
AM_5
100
AcDbTrace
 10
1479.255601793072
 20
253.0632268376447
 30
0.0
 11
1480.755601793072
 21
253.0632268376447
 31
0.0
 12
1480.005601793072
 22
257.5632268376446
 32
0.0
 13
1480.005601793072
 23
257.5632268376446
 33
0.0
  0
SOLID
  5
5D86
330
59DB
100
AcDbEntity
  8
AM_5
100
AcDbTrace
 10
1479.255601793072
 20
240.5632268376447
 30
0.0
 11
1480.755601793072
 21
240.5632268376447
 31
0.0
 12
1480.005601793072
 22
236.0632268376446
 32
0.0
 13
1480.005601793072
 23
236.0632268376446
 33
0.0
  0
MTEXT
  5
5D87
330
59DB
100
AcDbEntity
  8
AM_5
100
AcDbMText
 10
1476.330085060788
 20
246.8132268376449
 30
0.0
 40
5.25
 41
0.0
 71
     5
 72
     1
  1
21.5
 11
0.0000000000000001
 21
1.0
 31
0.0
 73
     1
 44
1.0
1001
ACAD
1000
MTEXTBEGIN
1070
    73
1070
     1
1070
    44
1040
1.0
1070
    74
1070
     0
1000
MTEXTEND
  0
POINT
  5
5D88
330
59DB
100
AcDbEntity
  8
Defpoints
 62
     0
100
AcDbPoint
 10
1464.505601793072
 20
257.5632268376446
 30
0.0
  0
POINT
  5
5D89
330
59DB
100
AcDbEntity
  8
Defpoints
 62
     0
100
AcDbPoint
 10
1464.005601793071
 20
236.0632268376447
 30
0.0
  0
POINT
  5
5D8A
330
59DB
100
AcDbEntity
  8
Defpoints
 62
     0
100
AcDbPoint
 10
1480.005601793072
 20
236.0632268376446
 30
0.0
  0
ENDBLK
  5
59E6
330
59DB
100
AcDbEntity
  8
0
100
AcDbBlockEnd
  0
BLOCK
  5
59FA
330
59F0
100
AcDbEntity
  8
0
100
AcDbBlockBegin
  2
*D19
 70
     1
 10
0.0
 20
0.0
 30
0.0
  3
*D19
  1

  0
LINE
  5
5D94
330
59F0
100
AcDbEntity
  8
AM_5
100
AcDbLine
 10
1466.005601793072
 20
257.5632268376446
 30
0.0
 11
1494.255601793072
 21
257.5632268376446
 31
0.0
  0
LINE
  5
5D95
330
59F0
100
AcDbEntity
  8
AM_5
100
AcDbLine
 10
1466.005601793072
 20
205.0632268376447
 30
0.0
 11
1494.255601793072
 21
205.0632268376446
 31
0.0
  0
LINE
  5
5D96
330
59F0
100
AcDbEntity
  8
AM_5
100
AcDbLine
 10
1492.005601793072
 20
253.0632268376447
 30
0.0
 11
1492.005601793072
 21
209.5632268376447
 31
0.0
  0
SOLID
  5
5D97
330
59F0
100
AcDbEntity
  8
AM_5
100
AcDbTrace
 10
1491.255601793072
 20
253.0632268376447
 30
0.0
 11
1492.755601793072
 21
253.0632268376447
 31
0.0
 12
1492.005601793072
 22
257.5632268376446
 32
0.0
 13
1492.005601793072
 23
257.5632268376446
 33
0.0
  0
SOLID
  5
5D98
330
59F0
100
AcDbEntity
  8
AM_5
100
AcDbTrace
 10
1491.255601793072
 20
209.5632268376447
 30
0.0
 11
1492.755601793072
 21
209.5632268376447
 31
0.0
 12
1492.005601793072
 22
205.0632268376446
 32
0.0
 13
1492.005601793072
 23
205.0632268376446
 33
0.0
  0
MTEXT
  5
5D99
330
59F0
100
AcDbEntity
  8
AM_5
100
AcDbMText
 10
1488.330085060788
 20
231.3132268376449
 30
0.0
 40
5.25
 41
0.0
 71
     5
 72
     1
  1
52.5
 11
0.0000000000000001
 21
1.0
 31
0.0
 73
     1
 44
1.0
1001
ACAD
1000
MTEXTBEGIN
1070
    73
1070
     1
1070
    44
1040
1.0
1070
    74
1070
     0
1000
MTEXTEND
  0
POINT
  5
5D9A
330
59F0
100
AcDbEntity
  8
Defpoints
 62
     0
100
AcDbPoint
 10
1464.505601793072
 20
257.5632268376446
 30
0.0
  0
POINT
  5
5D9B
330
59F0
100
AcDbEntity
  8
Defpoints
 62
     0
100
AcDbPoint
 10
1464.505601793072
 20
205.0632268376447
 30
0.0
  0
POINT
  5
5D9C
330
59F0
100
AcDbEntity
  8
Defpoints
 62
     0
100
AcDbPoint
 10
1492.005601793072
 20
205.0632268376446
 30
0.0
  0
ENDBLK
  5
59FB
330
59F0
100
AcDbEntity
  8
0
100
AcDbBlockEnd
  0
BLOCK
  5
5A06
330
59FC
100
AcDbEntity
  8
0
100
AcDbBlockBegin
  2
*D20
 70
     1
 10
0.0
 20
0.0
 30
0.0
  3
*D20
  1

  0
LINE
  5
5D9D
330
59FC
100
AcDbEntity
  8
AM_5
100
AcDbLine
 10
1466.005601793071
 20
257.5632268376446
 30
0.0
 11
1506.255601793071
 21
257.5632268376446
 31
0.0
  0
LINE
  5
5D9E
330
59FC
100
AcDbEntity
  8
AM_5
100
AcDbLine
 10
1466.505601793072
 20
204.0632268376447
 30
0.0
 11
1506.255601793071
 21
204.0632268376446
 31
0.0
  0
LINE
  5
5D9F
330
59FC
100
AcDbEntity
  8
AM_5
100
AcDbLine
 10
1504.005601793072
 20
253.0632268376447
 30
0.0
 11
1504.005601793072
 21
208.5632268376446
 31
0.0
  0
SOLID
  5
5DA0
330
59FC
100
AcDbEntity
  8
AM_5
100
AcDbTrace
 10
1503.255601793072
 20
253.0632268376447
 30
0.0
 11
1504.755601793071
 21
253.0632268376447
 31
0.0
 12
1504.005601793072
 22
257.5632268376446
 32
0.0
 13
1504.005601793072
 23
257.5632268376446
 33
0.0
  0
SOLID
  5
5DA1
330
59FC
100
AcDbEntity
  8
AM_5
100
AcDbTrace
 10
1503.255601793072
 20
208.5632268376446
 30
0.0
 11
1504.755601793071
 21
208.5632268376446
 31
0.0
 12
1504.005601793072
 22
204.0632268376446
 32
0.0
 13
1504.005601793072
 23
204.0632268376446
 33
0.0
  0
MTEXT
  5
5DA2
330
59FC
100
AcDbEntity
  8
AM_5
100
AcDbMText
 10
1500.330601793072
 20
230.8132268376449
 30
0.0
 40
5.25
 41
0.0
 71
     5
 72
     1
  1
53.5
 11
0.0000000000000001
 21
1.0
 31
0.0
 73
     1
 44
1.0
1001
ACAD
1000
MTEXTBEGIN
1070
    73
1070
     1
1070
    44
1040
1.0
1070
    74
1070
     0
1000
MTEXTEND
  0
POINT
  5
5DA3
330
59FC
100
AcDbEntity
  8
Defpoints
 62
     0
100
AcDbPoint
 10
1464.505601793071
 20
257.5632268376446
 30
0.0
  0
POINT
  5
5DA4
330
59FC
100
AcDbEntity
  8
Defpoints
 62
     0
100
AcDbPoint
 10
1465.005601793072
 20
204.0632268376447
 30
0.0
  0
POINT
  5
5DA5
330
59FC
100
AcDbEntity
  8
Defpoints
 62
     0
100
AcDbPoint
 10
1504.005601793072
 20
204.0632268376446
 30
0.0
  0
ENDBLK
  5
5A07
330
59FC
100
AcDbEntity
  8
0
100
AcDbBlockEnd
  0
BLOCK
  5
5A12
330
5A08
100
AcDbEntity
  8
0
100
AcDbBlockBegin
  2
*D21
 70
     1
 10
0.0
 20
0.0
 30
0.0
  3
*D21
  1

  0
LINE
  5
5DA6
330
5A08
100
AcDbEntity
  8
AM_5
100
AcDbLine
 10
1545.39603567984
 20
348.9368189448734
 30
0.0
 11
1545.39603567984
 21
365.1868189448734
 31
0.0
  0
LINE
  5
5DA7
330
5A08
100
AcDbEntity
  8
AM_5
100
AcDbLine
 10
1633.39603567984
 20
348.9368189448734
 30
0.0
 11
1633.39603567984
 21
365.1868189448734
 31
0.0
  0
LINE
  5
5DA8
330
5A08
100
AcDbEntity
  8
AM_5
100
AcDbLine
 10
1549.89603567984
 20
362.9368189448734
 30
0.0
 11
1628.89603567984
 21
362.9368189448734
 31
0.0
  0
SOLID
  5
5DA9
330
5A08
100
AcDbEntity
  8
AM_5
100
AcDbTrace
 10
1549.89603567984
 20
363.6868189448734
 30
0.0
 11
1549.89603567984
 21
362.1868189448735
 31
0.0
 12
1545.39603567984
 22
362.9368189448734
 32
0.0
 13
1545.39603567984
 23
362.9368189448734
 33
0.0
  0
SOLID
  5
5DAA
330
5A08
100
AcDbEntity
  8
AM_5
100
AcDbTrace
 10
1628.89603567984
 20
363.6868189448734
 30
0.0
 11
1628.89603567984
 21
362.1868189448735
 31
0.0
 12
1633.39603567984
 22
362.9368189448734
 32
0.0
 13
1633.39603567984
 23
362.9368189448734
 33
0.0
  0
MTEXT
  5
5DAB
330
5A08
100
AcDbEntity
  8
AM_5
100
AcDbMText
 10
1589.39603567984
 20
366.6118189448734
 30
0.0
 40
5.25
 41
0.0
 71
     5
 72
     1
  1
L1
 73
     1
 44
1.0
1001
ACAD
1000
MTEXTBEGIN
1070
    73
1070
     1
1070
    44
1040
1.0
1070
    74
1070
     0
1000
MTEXTEND
  0
POINT
  5
5DAC
330
5A08
100
AcDbEntity
  8
Defpoints
 62
     0
100
AcDbPoint
 10
1545.39603567984
 20
347.4368189448735
 30
0.0
  0
POINT
  5
5DAD
330
5A08
100
AcDbEntity
  8
Defpoints
 62
     0
100
AcDbPoint
 10
1633.39603567984
 20
347.4368189448735
 30
0.0
  0
POINT
  5
5DAE
330
5A08
100
AcDbEntity
  8
Defpoints
 62
     0
100
AcDbPoint
 10
1633.39603567984
 20
362.9368189448734
 30
0.0
  0
ENDBLK
  5
5A13
330
5A08
100
AcDbEntity
  8
0
100
AcDbBlockEnd
  0
BLOCK
  5
5A27
330
5A1D
100
AcDbEntity
  8
0
100
AcDbBlockBegin
  2
*D22
 70
     1
 10
0.0
 20
0.0
 30
0.0
  3
*D22
  1

  0
LINE
  5
5DB8
330
5A1D
100
AcDbEntity
  8
AM_5
100
AcDbLine
 10
1543.89603567984
 20
347.4368189448735
 30
0.0
 11
1516.14603567984
 21
347.4368189448735
 31
0.0
  0
LINE
  5
5DB9
330
5A1D
100
AcDbEntity
  8
AM_5
100
AcDbLine
 10
1543.89603567984
 20
323.4368189448734
 30
0.0
 11
1516.14603567984
 21
323.4368189448734
 31
0.0
  0
LINE
  5
5DBA
330
5A1D
100
AcDbEntity
  8
AM_5
100
AcDbLine
 10
1518.39603567984
 20
342.9368189448734
 30
0.0
 11
1518.39603567984
 21
327.9368189448734
 31
0.0
  0
SOLID
  5
5DBB
330
5A1D
100
AcDbEntity
  8
AM_5
100
AcDbTrace
 10
1517.64603567984
 20
342.9368189448734
 30
0.0
 11
1519.14603567984
 21
342.9368189448734
 31
0.0
 12
1518.39603567984
 22
347.4368189448735
 32
0.0
 13
1518.39603567984
 23
347.4368189448735
 33
0.0
  0
SOLID
  5
5DBC
330
5A1D
100
AcDbEntity
  8
AM_5
100
AcDbTrace
 10
1517.64603567984
 20
327.9368189448734
 30
0.0
 11
1519.14603567984
 21
327.9368189448734
 31
0.0
 12
1518.39603567984
 22
323.4368189448734
 32
0.0
 13
1518.39603567984
 23
323.4368189448734
 33
0.0
  0
MTEXT
  5
5DBD
330
5A1D
100
AcDbEntity
  8
AM_5
100
AcDbMText
 10
1514.720518947557
 20
335.4368189448737
 30
0.0
 40
5.25
 41
0.0
 71
     5
 72
     1
  1
24
 11
0.0000000000000001
 21
1.0
 31
0.0
 73
     1
 44
1.0
1001
ACAD
1000
MTEXTBEGIN
1070
    73
1070
     1
1070
    44
1040
1.0
1070
    74
1070
     0
1000
MTEXTEND
  0
POINT
  5
5DBE
330
5A1D
100
AcDbEntity
  8
Defpoints
 62
     0
100
AcDbPoint
 10
1545.39603567984
 20
347.4368189448735
 30
0.0
  0
POINT
  5
5DBF
330
5A1D
100
AcDbEntity
  8
Defpoints
 62
     0
100
AcDbPoint
 10
1545.39603567984
 20
323.4368189448734
 30
0.0
  0
POINT
  5
5DC0
330
5A1D
100
AcDbEntity
  8
Defpoints
 62
     0
100
AcDbPoint
 10
1518.39603567984
 20
323.4368189448734
 30
0.0
  0
ENDBLK
  5
5A28
330
5A1D
100
AcDbEntity
  8
0
100
AcDbBlockEnd
  0
BLOCK
  5
5A33
330
5A29
100
AcDbEntity
  8
0
100
AcDbBlockBegin
  2
*D23
 70
     1
 10
0.0
 20
0.0
 30
0.0
  3
*D23
  1

  0
LINE
  5
5DC1
330
5A29
100
AcDbEntity
  8
AM_5
100
AcDbLine
 10
1545.39603567984
 20
321.9368189448734
 30
0.0
 11
1545.39603567984
 21
305.6868189448735
 31
0.0
  0
LINE
  5
5DC2
330
5A29
100
AcDbEntity
  8
AM_5
100
AcDbLine
 10
1559.39603567984
 20
322.4368189448735
 30
0.0
 11
1559.39603567984
 21
305.6868189448735
 31
0.0
  0
LINE
  5
5DC3
330
5A29
100
AcDbEntity
  8
AM_5
100
AcDbLine
 10
1549.89603567984
 20
307.9368189448735
 30
0.0
 11
1554.89603567984
 21
307.9368189448735
 31
0.0
  0
SOLID
  5
5DC4
330
5A29
100
AcDbEntity
  8
AM_5
100
AcDbTrace
 10
1549.89603567984
 20
308.6868189448734
 30
0.0
 11
1549.89603567984
 21
307.1868189448734
 31
0.0
 12
1545.39603567984
 22
307.9368189448735
 32
0.0
 13
1545.39603567984
 23
307.9368189448735
 33
0.0
  0
SOLID
  5
5DC5
330
5A29
100
AcDbEntity
  8
AM_5
100
AcDbTrace
 10
1554.89603567984
 20
308.6868189448734
 30
0.0
 11
1554.89603567984
 21
307.1868189448734
 31
0.0
 12
1559.39603567984
 22
307.9368189448735
 32
0.0
 13
1559.39603567984
 23
307.9368189448735
 33
0.0
  0
MTEXT
  5
5DC6
330
5A29
100
AcDbEntity
  8
AM_5
100
AcDbMText
 10
1552.39603567984
 20
311.6118189448735
 30
0.0
 40
5.25
 41
0.0
 71
     5
 72
     1
  1
14
 73
     1
 44
1.0
1001
ACAD
1000
MTEXTBEGIN
1070
    73
1070
     1
1070
    44
1040
1.0
1070
    74
1070
     0
1000
MTEXTEND
  0
POINT
  5
5DC7
330
5A29
100
AcDbEntity
  8
Defpoints
 62
     0
100
AcDbPoint
 10
1545.39603567984
 20
323.4368189448734
 30
0.0
  0
POINT
  5
5DC8
330
5A29
100
AcDbEntity
  8
Defpoints
 62
     0
100
AcDbPoint
 10
1559.39603567984
 20
323.9368189448734
 30
0.0
  0
POINT
  5
5DC9
330
5A29
100
AcDbEntity
  8
Defpoints
 62
     0
100
AcDbPoint
 10
1559.39603567984
 20
307.9368189448735
 30
0.0
  0
ENDBLK
  5
5A34
330
5A29
100
AcDbEntity
  8
0
100
AcDbBlockEnd
  0
BLOCK
  5
5A53
330
5A47
100
AcDbEntity
  8
0
100
AcDbBlockBegin
  2
*D24
 70
     1
 10
0.0
 20
0.0
 30
0.0
  3
*D24
  1

  0
LINE
  5
5DDC
330
5A47
100
AcDbEntity
  8
AM_5
100
AcDbLine
 10
1543.89603567984
 20
257.5632268376446
 30
0.0
 11
1528.14603567984
 21
257.5632268376446
 31
0.0
  0
LINE
  5
5DDD
330
5A47
100
AcDbEntity
  8
AM_5
100
AcDbLine
 10
1557.39603567984
 20
248.5632268376447
 30
0.0
 11
1528.14603567984
 21
248.5632268376447
 31
0.0
  0
LINE
  5
5DDE
330
5A47
100
AcDbEntity
  8
AM_5
100
AcDbLine
 10
1530.39603567984
 20
262.0632268376446
 30
0.0
 11
1530.39603567984
 21
266.5632268376447
 31
0.0
  0
LINE
  5
5DDF
330
5A47
100
AcDbEntity
  8
AM_5
100
AcDbLine
 10
1530.39603567984
 20
244.0632268376447
 30
0.0
 11
1530.39603567984
 21
239.5632268376447
 31
0.0
  0
LINE
  5
5DE0
330
5A47
100
AcDbEntity
  8
AM_5
100
AcDbLine
 10
1530.39603567984
 20
257.5632268376446
 30
0.0
 11
1530.39603567984
 21
248.5632268376447
 31
0.0
  0
SOLID
  5
5DE1
330
5A47
100
AcDbEntity
  8
AM_5
100
AcDbTrace
 10
1529.64603567984
 20
262.0632268376446
 30
0.0
 11
1531.14603567984
 21
262.0632268376446
 31
0.0
 12
1530.39603567984
 22
257.5632268376446
 32
0.0
 13
1530.39603567984
 23
257.5632268376446
 33
0.0
  0
SOLID
  5
5DE2
330
5A47
100
AcDbEntity
  8
AM_5
100
AcDbTrace
 10
1529.64603567984
 20
244.0632268376447
 30
0.0
 11
1531.14603567984
 21
244.0632268376447
 31
0.0
 12
1530.39603567984
 22
248.5632268376447
 32
0.0
 13
1530.39603567984
 23
248.5632268376447
 33
0.0
  0
MTEXT
  5
5DE3
330
5A47
100
AcDbEntity
  8
AM_5
100
AcDbMText
 10
1526.72103567984
 20
253.0632268376449
 30
0.0
 40
5.25
 41
0.0
 71
     5
 72
     1
  1
9
 11
0.0000000000000001
 21
1.0
 31
0.0
 73
     1
 44
1.0
1001
ACAD
1000
MTEXTBEGIN
1070
    73
1070
     1
1070
    44
1040
1.0
1070
    74
1070
     0
1000
MTEXTEND
  0
POINT
  5
5DE4
330
5A47
100
AcDbEntity
  8
Defpoints
 62
     0
100
AcDbPoint
 10
1545.39603567984
 20
257.5632268376446
 30
0.0
  0
POINT
  5
5DE5
330
5A47
100
AcDbEntity
  8
Defpoints
 62
     0
100
AcDbPoint
 10
1558.89603567984
 20
248.5632268376447
 30
0.0
  0
POINT
  5
5DE6
330
5A47
100
AcDbEntity
  8
Defpoints
 62
     0
100
AcDbPoint
 10
1530.39603567984
 20
248.5632268376447
 30
0.0
  0
ENDBLK
  5
5A54
330
5A47
100
AcDbEntity
  8
0
100
AcDbBlockEnd
  0
BLOCK
  5
5A6A
330
5A5E
100
AcDbEntity
  8
0
100
AcDbBlockBegin
  2
*D25
 70
     1
 10
0.0
 20
0.0
 30
0.0
  3
*D25
  1

  0
LINE
  5
5DF0
330
5A5E
100
AcDbEntity
  8
AM_5
100
AcDbLine
 10
1557.64603567984
 20
209.5632268376447
 30
0.0
 11
1528.14603567984
 21
209.5632268376447
 31
0.0
  0
LINE
  5
5DF1
330
5A5E
100
AcDbEntity
  8
AM_5
100
AcDbLine
 10
1557.89603567984
 20
204.0632268376447
 30
0.0
 11
1528.14603567984
 21
204.0632268376447
 31
0.0
  0
LINE
  5
5DF2
330
5A5E
100
AcDbEntity
  8
AM_5
100
AcDbLine
 10
1530.39603567984
 20
214.0632268376446
 30
0.0
 11
1530.39603567984
 21
218.5632268376447
 31
0.0
  0
LINE
  5
5DF3
330
5A5E
100
AcDbEntity
  8
AM_5
100
AcDbLine
 10
1530.39603567984
 20
199.5632268376446
 30
0.0
 11
1530.39603567984
 21
183.5582647173987
 31
0.0
  0
LINE
  5
5DF4
330
5A5E
100
AcDbEntity
  8
AM_5
100
AcDbLine
 10
1530.39603567984
 20
209.5632268376447
 30
0.0
 11
1530.39603567984
 21
204.0632268376447
 31
0.0
  0
SOLID
  5
5DF5
330
5A5E
100
AcDbEntity
  8
AM_5
100
AcDbTrace
 10
1529.64603567984
 20
214.0632268376446
 30
0.0
 11
1531.14603567984
 21
214.0632268376446
 31
0.0
 12
1530.39603567984
 22
209.5632268376447
 32
0.0
 13
1530.39603567984
 23
209.5632268376447
 33
0.0
  0
SOLID
  5
5DF6
330
5A5E
100
AcDbEntity
  8
AM_5
100
AcDbTrace
 10
1529.64603567984
 20
199.5632268376446
 30
0.0
 11
1531.14603567984
 21
199.5632268376446
 31
0.0
 12
1530.39603567984
 22
204.0632268376447
 32
0.0
 13
1530.39603567984
 23
204.0632268376447
 33
0.0
  0
MTEXT
  5
5DF7
330
5A5E
100
AcDbEntity
  8
AM_5
100
AcDbMText
 10
1526.72103567984
 20
188.3919957775219
 30
0.0
 40
5.25
 41
0.0
 71
     5
 72
     1
  1
5.5
 11
0.0000000000000001
 21
1.0
 31
0.0
 73
     1
 44
1.0
1001
ACAD
1000
MTEXTBEGIN
1070
    73
1070
     1
1070
    44
1040
1.0
1070
    74
1070
     0
1000
MTEXTEND
  0
POINT
  5
5DF8
330
5A5E
100
AcDbEntity
  8
Defpoints
 62
     0
100
AcDbPoint
 10
1559.14603567984
 20
209.5632268376447
 30
0.0
  0
POINT
  5
5DF9
330
5A5E
100
AcDbEntity
  8
Defpoints
 62
     0
100
AcDbPoint
 10
1559.39603567984
 20
204.0632268376447
 30
0.0
  0
POINT
  5
5DFA
330
5A5E
100
AcDbEntity
  8
Defpoints
 62
     0
100
AcDbPoint
 10
1530.39603567984
 20
204.0632268376447
 30
0.0
  0
ENDBLK
  5
5A6B
330
5A5E
100
AcDbEntity
  8
0
100
AcDbBlockEnd
  0
BLOCK
  5
5B37
330
5A6C
100
AcDbEntity
  8
0
100
AcDbBlockBegin
  2
*D26
 70
     1
 10
0.0
 20
0.0
 30
0.0
  3
*D26
  1

  0
LINE
  5
5DFB
330
5A6C
100
AcDbEntity
  8
AM_5
100
AcDbLine
 10
1545.39603567984
 20
203.5632268376446
 30
0.0
 11
1545.39603567984
 21
178.1282915194456
 31
0.0
  0
LINE
  5
5DFC
330
5A6C
100
AcDbEntity
  8
AM_5
100
AcDbLine
 10
1555.39603567984
 20
203.5632268376446
 30
0.0
 11
1555.39603567984
 21
178.1282915194456
 31
0.0
  0
LINE
  5
5DFD
330
5A6C
100
AcDbEntity
  8
AM_5
100
AcDbLine
 10
1540.89603567984
 20
180.3782915194456
 30
0.0
 11
1536.39603567984
 21
180.3782915194456
 31
0.0
  0
LINE
  5
5DFE
330
5A6C
100
AcDbEntity
  8
AM_5
100
AcDbLine
 10
1559.89603567984
 20
180.3782915194456
 30
0.0
 11
1564.39603567984
 21
180.3782915194456
 31
0.0
  0
LINE
  5
5DFF
330
5A6C
100
AcDbEntity
  8
AM_5
100
AcDbLine
 10
1545.39603567984
 20
180.3782915194456
 30
0.0
 11
1555.39603567984
 21
180.3782915194456
 31
0.0
  0
SOLID
  5
5E00
330
5A6C
100
AcDbEntity
  8
AM_5
100
AcDbTrace
 10
1540.89603567984
 20
181.1282915194457
 30
0.0
 11
1540.89603567984
 21
179.6282915194456
 31
0.0
 12
1545.39603567984
 22
180.3782915194456
 32
0.0
 13
1545.39603567984
 23
180.3782915194456
 33
0.0
  0
INSERT
  5
5E01
330
5A6C
100
AcDbEntity
  8
AM_5
100
AcDbBlockReference
  2
GENDOT
 10
1555.39603567984
 20
180.3782915194456
 30
0.0
 41
4.5
 42
4.5
 43
4.5
 50
180.0
  0
MTEXT
  5
5E02
330
5A6C
100
AcDbEntity
  8
AM_5
100
AcDbMText
 10
1550.39603567984
 20
184.0532915194456
 30
0.0
 40
5.25
 41
0.0
 71
     5
 72
     1
  1
10
 73
     1
 44
1.0
1001
ACAD
1000
MTEXTBEGIN
1070
    73
1070
     1
1070
    44
1040
1.0
1070
    74
1070
     0
1000
MTEXTEND
  0
POINT
  5
5E03
330
5A6C
100
AcDbEntity
  8
Defpoints
 62
     0
100
AcDbPoint
 10
1545.39603567984
 20
205.0632268376447
 30
0.0
  0
POINT
  5
5E04
330
5A6C
100
AcDbEntity
  8
Defpoints
 62
     0
100
AcDbPoint
 10
1555.39603567984
 20
205.0632268376447
 30
0.0
  0
POINT
  5
5E05
330
5A6C
100
AcDbEntity
  8
Defpoints
 62
     0
100
AcDbPoint
 10
1555.39603567984
 20
180.3782915194456
 30
0.0
  0
ENDBLK
  5
5B38
330
5A6C
100
AcDbEntity
  8
0
100
AcDbBlockEnd
  0
BLOCK
  5
5B39
330
5A78
100
AcDbEntity
  8
0
100
AcDbBlockBegin
  2
*D27
 70
     1
 10
0.0
 20
0.0
 30
0.0
  3
*D27
  1

  0
LINE
  5
5E06
330
5A78
100
AcDbEntity
  8
AM_5
100
AcDbLine
 10
1559.39603567984
 20
202.5632268376447
 30
0.0
 11
1559.39603567984
 21
178.1282915194456
 31
0.0
  0
LINE
  5
5E07
330
5A78
100
AcDbEntity
  8
AM_5
100
AcDbLine
 10
1564.39603567984
 20
202.8132268376447
 30
0.0
 11
1564.39603567984
 21
178.1282915194456
 31
0.0
  0
LINE
  5
5E08
330
5A78
100
AcDbEntity
  8
AM_5
100
AcDbLine
 10
1554.89603567984
 20
180.3782915194456
 30
0.0
 11
1550.39603567984
 21
180.3782915194456
 31
0.0
  0
LINE
  5
5E09
330
5A78
100
AcDbEntity
  8
AM_5
100
AcDbLine
 10
1568.89603567984
 20
180.3782915194456
 30
0.0
 11
1573.39603567984
 21
180.3782915194456
 31
0.0
  0
LINE
  5
5E0A
330
5A78
100
AcDbEntity
  8
AM_5
100
AcDbLine
 10
1559.39603567984
 20
180.3782915194456
 30
0.0
 11
1564.39603567984
 21
180.3782915194456
 31
0.0
  0
INSERT
  5
5E0B
330
5A78
100
AcDbEntity
  8
AM_5
100
AcDbBlockReference
  2
GENDOT
 10
1559.39603567984
 20
180.3782915194456
 30
0.0
 41
4.5
 42
4.5
 43
4.5
  0
SOLID
  5
5E0C
330
5A78
100
AcDbEntity
  8
AM_5
100
AcDbTrace
 10
1568.89603567984
 20
181.1282915194457
 30
0.0
 11
1568.89603567984
 21
179.6282915194456
 31
0.0
 12
1564.39603567984
 22
180.3782915194456
 32
0.0
 13
1564.39603567984
 23
180.3782915194456
 33
0.0
  0
MTEXT
  5
5E0D
330
5A78
100
AcDbEntity
  8
AM_5
100
AcDbMText
 10
1561.89603567984
 20
184.0532915194456
 30
0.0
 40
5.25
 41
0.0
 71
     5
 72
     1
  1
5
 73
     1
 44
1.0
1001
ACAD
1000
MTEXTBEGIN
1070
    73
1070
     1
1070
    44
1040
1.0
1070
    74
1070
     0
1000
MTEXTEND
  0
POINT
  5
5E0E
330
5A78
100
AcDbEntity
  8
Defpoints
 62
     0
100
AcDbPoint
 10
1559.39603567984
 20
204.0632268376447
 30
0.0
  0
POINT
  5
5E0F
330
5A78
100
AcDbEntity
  8
Defpoints
 62
     0
100
AcDbPoint
 10
1564.39603567984
 20
204.3132268376447
 30
0.0
  0
POINT
  5
5E10
330
5A78
100
AcDbEntity
  8
Defpoints
 62
     0
100
AcDbPoint
 10
1564.39603567984
 20
180.3782915194456
 30
0.0
  0
ENDBLK
  5
5B3A
330
5A78
100
AcDbEntity
  8
0
100
AcDbBlockEnd
  0
BLOCK
  5
5A97
330
5A8D
100
AcDbEntity
  8
0
100
AcDbBlockBegin
  2
*D28
 70
     1
 10
0.0
 20
0.0
 30
0.0
  3
*D28
  1

  0
LINE
  5
5E1A
330
5A8D
100
AcDbEntity
  8
AM_5
100
AcDbLine
 10
1545.39603567984
 20
203.5632268376446
 30
0.0
 11
1545.39603567984
 21
166.1282915194457
 31
0.0
  0
LINE
  5
5E1B
330
5A8D
100
AcDbEntity
  8
AM_5
100
AcDbLine
 10
1559.39603567984
 20
202.5632268376447
 30
0.0
 11
1559.39603567984
 21
166.1282915194457
 31
0.0
  0
LINE
  5
5E1C
330
5A8D
100
AcDbEntity
  8
AM_5
100
AcDbLine
 10
1549.89603567984
 20
168.3782915194456
 30
0.0
 11
1554.89603567984
 21
168.3782915194456
 31
0.0
  0
SOLID
  5
5E1D
330
5A8D
100
AcDbEntity
  8
AM_5
100
AcDbTrace
 10
1549.89603567984
 20
169.1282915194456
 30
0.0
 11
1549.89603567984
 21
167.6282915194456
 31
0.0
 12
1545.39603567984
 22
168.3782915194456
 32
0.0
 13
1545.39603567984
 23
168.3782915194456
 33
0.0
  0
SOLID
  5
5E1E
330
5A8D
100
AcDbEntity
  8
AM_5
100
AcDbTrace
 10
1554.89603567984
 20
169.1282915194456
 30
0.0
 11
1554.89603567984
 21
167.6282915194456
 31
0.0
 12
1559.39603567984
 22
168.3782915194456
 32
0.0
 13
1559.39603567984
 23
168.3782915194456
 33
0.0
  0
MTEXT
  5
5E1F
330
5A8D
100
AcDbEntity
  8
AM_5
100
AcDbMText
 10
1552.39603567984
 20
172.0532915194457
 30
0.0
 40
5.25
 41
0.0
 71
     5
 72
     1
  1
14
 73
     1
 44
1.0
1001
ACAD
1000
MTEXTBEGIN
1070
    73
1070
     1
1070
    44
1040
1.0
1070
    74
1070
     0
1000
MTEXTEND
  0
POINT
  5
5E20
330
5A8D
100
AcDbEntity
  8
Defpoints
 62
     0
100
AcDbPoint
 10
1545.39603567984
 20
205.0632268376447
 30
0.0
  0
POINT
  5
5E21
330
5A8D
100
AcDbEntity
  8
Defpoints
 62
     0
100
AcDbPoint
 10
1559.39603567984
 20
204.0632268376447
 30
0.0
  0
POINT
  5
5E22
330
5A8D
100
AcDbEntity
  8
Defpoints
 62
     0
100
AcDbPoint
 10
1559.39603567984
 20
168.3782915194456
 30
0.0
  0
ENDBLK
  5
5A98
330
5A8D
100
AcDbEntity
  8
0
100
AcDbBlockEnd
  0
BLOCK
  5
5AA3
330
5A99
100
AcDbEntity
  8
0
100
AcDbBlockBegin
  2
*D29
 70
     1
 10
0.0
 20
0.0
 30
0.0
  3
*D29
  1

  0
LINE
  5
5E23
330
5A99
100
AcDbEntity
  8
AM_5
100
AcDbLine
 10
1559.39603567984
 20
202.5632268376447
 30
0.0
 11
1559.39603567984
 21
166.1282915194457
 31
0.0
  0
LINE
  5
5E24
330
5A99
100
AcDbEntity
  8
AM_5
100
AcDbLine
 10
1641.39603567984
 20
202.5632268376447
 30
0.0
 11
1641.39603567984
 21
166.1282915194457
 31
0.0
  0
LINE
  5
5E25
330
5A99
100
AcDbEntity
  8
AM_5
100
AcDbLine
 10
1563.89603567984
 20
168.3782915194456
 30
0.0
 11
1636.89603567984
 21
168.3782915194456
 31
0.0
  0
SOLID
  5
5E26
330
5A99
100
AcDbEntity
  8
AM_5
100
AcDbTrace
 10
1563.89603567984
 20
169.1282915194456
 30
0.0
 11
1563.89603567984
 21
167.6282915194456
 31
0.0
 12
1559.39603567984
 22
168.3782915194456
 32
0.0
 13
1559.39603567984
 23
168.3782915194456
 33
0.0
  0
SOLID
  5
5E27
330
5A99
100
AcDbEntity
  8
AM_5
100
AcDbTrace
 10
1636.89603567984
 20
169.1282915194456
 30
0.0
 11
1636.89603567984
 21
167.6282915194456
 31
0.0
 12
1641.39603567984
 22
168.3782915194456
 32
0.0
 13
1641.39603567984
 23
168.3782915194456
 33
0.0
  0
MTEXT
  5
5E28
330
5A99
100
AcDbEntity
  8
AM_5
100
AcDbMText
 10
1600.39603567984
 20
172.0538082517291
 30
0.0
 40
5.25
 41
0.0
 71
     5
 72
     1
  1
42+stroke
 73
     1
 44
1.0
1001
ACAD
1000
MTEXTBEGIN
1070
    73
1070
     1
1070
    44
1040
1.0
1070
    74
1070
     0
1000
MTEXTEND
  0
POINT
  5
5E29
330
5A99
100
AcDbEntity
  8
Defpoints
 62
     0
100
AcDbPoint
 10
1559.39603567984
 20
204.0632268376447
 30
0.0
  0
POINT
  5
5E2A
330
5A99
100
AcDbEntity
  8
Defpoints
 62
     0
100
AcDbPoint
 10
1641.39603567984
 20
204.0632268376447
 30
0.0
  0
POINT
  5
5E2B
330
5A99
100
AcDbEntity
  8
Defpoints
 62
     0
100
AcDbPoint
 10
1641.39603567984
 20
168.3782915194456
 30
0.0
  0
ENDBLK
  5
5AA4
330
5A99
100
AcDbEntity
  8
0
100
AcDbBlockEnd
  0
BLOCK
  5
5AAF
330
5AA5
100
AcDbEntity
  8
0
100
AcDbBlockBegin
  2
*D30
 70
     1
 10
0.0
 20
0.0
 30
0.0
  3
*D30
  1

  0
LINE
  5
5E2C
330
5AA5
100
AcDbEntity
  8
AM_5
100
AcDbLine
 10
1545.39603567984
 20
203.5632268376446
 30
0.0
 11
1545.39603567984
 21
154.1282915194456
 31
0.0
  0
LINE
  5
5E2D
330
5AA5
100
AcDbEntity
  8
AM_5
100
AcDbLine
 10
1641.39603567984
 20
202.5632268376447
 30
0.0
 11
1641.39603567984
 21
154.1282915194456
 31
0.0
  0
LINE
  5
5E2E
330
5AA5
100
AcDbEntity
  8
AM_5
100
AcDbLine
 10
1549.89603567984
 20
156.3782915194456
 30
0.0
 11
1636.89603567984
 21
156.3782915194456
 31
0.0
  0
SOLID
  5
5E2F
330
5AA5
100
AcDbEntity
  8
AM_5
100
AcDbTrace
 10
1549.89603567984
 20
157.1282915194456
 30
0.0
 11
1549.89603567984
 21
155.6282915194456
 31
0.0
 12
1545.39603567984
 22
156.3782915194456
 32
0.0
 13
1545.39603567984
 23
156.3782915194456
 33
0.0
  0
SOLID
  5
5E30
330
5AA5
100
AcDbEntity
  8
AM_5
100
AcDbTrace
 10
1636.89603567984
 20
157.1282915194456
 30
0.0
 11
1636.89603567984
 21
155.6282915194456
 31
0.0
 12
1641.39603567984
 22
156.3782915194456
 32
0.0
 13
1641.39603567984
 23
156.3782915194456
 33
0.0
  0
MTEXT
  5
5E31
330
5AA5
100
AcDbEntity
  8
AM_5
100
AcDbMText
 10
1593.39603567984
 20
160.0532915194456
 30
0.0
 40
5.25
 41
0.0
 71
     5
 72
     1
  1
56+stroke
 73
     1
 44
1.0
1001
ACAD
1000
MTEXTBEGIN
1070
    73
1070
     1
1070
    44
1040
1.0
1070
    74
1070
     0
1000
MTEXTEND
  0
POINT
  5
5E32
330
5AA5
100
AcDbEntity
  8
Defpoints
 62
     0
100
AcDbPoint
 10
1545.39603567984
 20
205.0632268376447
 30
0.0
  0
POINT
  5
5E33
330
5AA5
100
AcDbEntity
  8
Defpoints
 62
     0
100
AcDbPoint
 10
1641.39603567984
 20
204.0632268376447
 30
0.0
  0
POINT
  5
5E34
330
5AA5
100
AcDbEntity
  8
Defpoints
 62
     0
100
AcDbPoint
 10
1641.39603567984
 20
156.3782915194456
 30
0.0
  0
ENDBLK
  5
5AB0
330
5AA5
100
AcDbEntity
  8
0
100
AcDbBlockEnd
  0
BLOCK
  5
5ABB
330
5AB1
100
AcDbEntity
  8
0
100
AcDbBlockBegin
  2
*D31
 70
     1
 10
0.0
 20
0.0
 30
0.0
  3
*D31
  1

  0
LINE
  5
5E35
330
5AB1
100
AcDbEntity
  8
AM_5
100
AcDbLine
 10
1559.39603567984
 20
114.5121532549814
 30
0.0
 11
1559.39603567984
 21
130.2621532549814
 31
0.0
  0
LINE
  5
5E36
330
5AB1
100
AcDbEntity
  8
AM_5
100
AcDbLine
 10
1571.39603567984
 20
114.0121532549814
 30
0.0
 11
1571.39603567984
 21
130.2621532549814
 31
0.0
  0
LINE
  5
5E37
330
5AB1
100
AcDbEntity
  8
AM_5
100
AcDbLine
 10
1563.89603567984
 20
128.0121532549814
 30
0.0
 11
1566.89603567984
 21
128.0121532549814
 31
0.0
  0
SOLID
  5
5E38
330
5AB1
100
AcDbEntity
  8
AM_5
100
AcDbTrace
 10
1563.89603567984
 20
128.7621532549814
 30
0.0
 11
1563.89603567984
 21
127.2621532549814
 31
0.0
 12
1559.39603567984
 22
128.0121532549814
 32
0.0
 13
1559.39603567984
 23
128.0121532549814
 33
0.0
  0
SOLID
  5
5E39
330
5AB1
100
AcDbEntity
  8
AM_5
100
AcDbTrace
 10
1566.89603567984
 20
128.7621532549814
 30
0.0
 11
1566.89603567984
 21
127.2621532549814
 31
0.0
 12
1571.39603567984
 22
128.0121532549814
 32
0.0
 13
1571.39603567984
 23
128.0121532549814
 33
0.0
  0
MTEXT
  5
5E3A
330
5AB1
100
AcDbEntity
  8
AM_5
100
AcDbMText
 10
1565.39603567984
 20
131.6876699872649
 30
0.0
 40
5.25
 41
0.0
 71
     5
 72
     1
  1
12
 73
     1
 44
1.0
1001
ACAD
1000
MTEXTBEGIN
1070
    73
1070
     1
1070
    44
1040
1.0
1070
    74
1070
     0
1000
MTEXTEND
  0
POINT
  5
5E3B
330
5AB1
100
AcDbEntity
  8
Defpoints
 62
     0
100
AcDbPoint
 10
1559.39603567984
 20
113.0121532549814
 30
0.0
  0
POINT
  5
5E3C
330
5AB1
100
AcDbEntity
  8
Defpoints
 62
     0
100
AcDbPoint
 10
1571.39603567984
 20
112.5121532549814
 30
0.0
  0
POINT
  5
5E3D
330
5AB1
100
AcDbEntity
  8
Defpoints
 62
     0
100
AcDbPoint
 10
1571.39603567984
 20
128.0121532549814
 30
0.0
  0
ENDBLK
  5
5ABC
330
5AB1
100
AcDbEntity
  8
0
100
AcDbBlockEnd
  0
BLOCK
  5
5AE4
330
5AD8
100
AcDbEntity
  8
0
100
AcDbBlockBegin
  2
*D32
 70
     1
 10
0.0
 20
0.0
 30
0.0
  3
*D32
  1

  0
LINE
  5
5E59
330
5AD8
100
AcDbEntity
  8
AM_5
100
AcDbLine
 10
1634.396035679841
 20
210.5632268376447
 30
0.0
 11
1658.64603567984
 21
210.5632268376447
 31
0.0
  0
LINE
  5
5E5A
330
5AD8
100
AcDbEntity
  8
AM_5
100
AcDbLine
 10
1642.89603567984
 20
204.0632268376447
 30
0.0
 11
1658.64603567984
 21
204.0632268376447
 31
0.0
  0
LINE
  5
5E5B
330
5AD8
100
AcDbEntity
  8
AM_5
100
AcDbLine
 10
1656.39603567984
 20
215.0632268376447
 30
0.0
 11
1656.39603567984
 21
219.5632268376447
 31
0.0
  0
LINE
  5
5E5C
330
5AD8
100
AcDbEntity
  8
AM_5
100
AcDbLine
 10
1656.39603567984
 20
199.5632268376446
 30
0.0
 11
1656.39603567984
 21
185.0815914890523
 31
0.0
  0
LINE
  5
5E5D
330
5AD8
100
AcDbEntity
  8
AM_5
100
AcDbLine
 10
1656.39603567984
 20
210.5632268376447
 30
0.0
 11
1656.39603567984
 21
204.0632268376447
 31
0.0
  0
SOLID
  5
5E5E
330
5AD8
100
AcDbEntity
  8
AM_5
100
AcDbTrace
 10
1655.64603567984
 20
215.0632268376447
 30
0.0
 11
1657.14603567984
 21
215.0632268376447
 31
0.0
 12
1656.39603567984
 22
210.5632268376447
 32
0.0
 13
1656.39603567984
 23
210.5632268376447
 33
0.0
  0
SOLID
  5
5E5F
330
5AD8
100
AcDbEntity
  8
AM_5
100
AcDbTrace
 10
1655.64603567984
 20
199.5632268376446
 30
0.0
 11
1657.14603567984
 21
199.5632268376446
 31
0.0
 12
1656.39603567984
 22
204.0632268376447
 32
0.0
 13
1656.39603567984
 23
204.0632268376447
 33
0.0
  0
MTEXT
  5
5E60
330
5AD8
100
AcDbEntity
  8
AM_5
100
AcDbMText
 10
1652.72103567984
 20
190.0724091633487
 30
0.0
 40
5.25
 41
0.0
 71
     5
 72
     1
  1
6.5
 11
0.0000000000000001
 21
1.0
 31
0.0
 73
     1
 44
1.0
1001
ACAD
1000
MTEXTBEGIN
1070
    73
1070
     1
1070
    44
1040
1.0
1070
    74
1070
     0
1000
MTEXTEND
  0
POINT
  5
5E61
330
5AD8
100
AcDbEntity
  8
Defpoints
 62
     0
100
AcDbPoint
 10
1632.896035679841
 20
210.5632268376447
 30
0.0
  0
POINT
  5
5E62
330
5AD8
100
AcDbEntity
  8
Defpoints
 62
     0
100
AcDbPoint
 10
1641.39603567984
 20
204.0632268376447
 30
0.0
  0
POINT
  5
5E63
330
5AD8
100
AcDbEntity
  8
Defpoints
 62
     0
100
AcDbPoint
 10
1656.39603567984
 20
204.0632268376447
 30
0.0
  0
ENDBLK
  5
5AE5
330
5AD8
100
AcDbEntity
  8
0
100
AcDbBlockEnd
  0
BLOCK
  5
5AF0
330
5AE6
100
AcDbEntity
  8
0
100
AcDbBlockBegin
  2
*D33
 70
     1
 10
0.0
 20
0.0
 30
0.0
  3
*D33
  1

  0
LINE
  5
5E64
330
5AE6
100
AcDbEntity
  8
AM_5
100
AcDbLine
 10
1628.89603567984
 20
205.0632268376447
 30
0.0
 11
1628.89603567984
 21
178.1282915194456
 31
0.0
  0
LINE
  5
5E65
330
5AE6
100
AcDbEntity
  8
AM_5
100
AcDbLine
 10
1641.39603567984
 20
202.5632268376447
 30
0.0
 11
1641.39603567984
 21
178.1282915194456
 31
0.0
  0
LINE
  5
5E66
330
5AE6
100
AcDbEntity
  8
AM_5
100
AcDbLine
 10
1633.39603567984
 20
180.3782915194456
 30
0.0
 11
1636.89603567984
 21
180.3782915194456
 31
0.0
  0
SOLID
  5
5E67
330
5AE6
100
AcDbEntity
  8
AM_5
100
AcDbTrace
 10
1633.39603567984
 20
181.1282915194457
 30
0.0
 11
1633.39603567984
 21
179.6282915194456
 31
0.0
 12
1628.89603567984
 22
180.3782915194456
 32
0.0
 13
1628.89603567984
 23
180.3782915194456
 33
0.0
  0
SOLID
  5
5E68
330
5AE6
100
AcDbEntity
  8
AM_5
100
AcDbTrace
 10
1636.89603567984
 20
181.1282915194457
 30
0.0
 11
1636.89603567984
 21
179.6282915194456
 31
0.0
 12
1641.39603567984
 22
180.3782915194456
 32
0.0
 13
1641.39603567984
 23
180.3782915194456
 33
0.0
  0
MTEXT
  5
5E69
330
5AE6
100
AcDbEntity
  8
AM_5
100
AcDbMText
 10
1635.14603567984
 20
184.0538082517291
 30
0.0
 40
5.25
 41
0.0
 71
     5
 72
     1
  1
12.5
 73
     1
 44
1.0
1001
ACAD
1000
MTEXTBEGIN
1070
    73
1070
     1
1070
    44
1040
1.0
1070
    74
1070
     0
1000
MTEXTEND
  0
POINT
  5
5E6A
330
5AE6
100
AcDbEntity
  8
Defpoints
 62
     0
100
AcDbPoint
 10
1628.89603567984
 20
206.5632268376447
 30
0.0
  0
POINT
  5
5E6B
330
5AE6
100
AcDbEntity
  8
Defpoints
 62
     0
100
AcDbPoint
 10
1641.39603567984
 20
204.0632268376447
 30
0.0
  0
POINT
  5
5E6C
330
5AE6
100
AcDbEntity
  8
Defpoints
 62
     0
100
AcDbPoint
 10
1641.39603567984
 20
180.3782915194456
 30
0.0
  0
ENDBLK
  5
5AF1
330
5AE6
100
AcDbEntity
  8
0
100
AcDbBlockEnd
  0
BLOCK
  5
5AFE
330
5AF2
100
AcDbEntity
  8
0
100
AcDbBlockBegin
  2
*D34
 70
     1
 10
0.0
 20
0.0
 30
0.0
  3
*D34
  1

  0
LINE
  5
5ECB
330
5AF2
100
AcDbEntity
  8
AM_5
100
AcDbLine
 10
1743.749884633002
 20
248.2632268376448
 30
0.0
 11
1743.749884633002
 21
274.8132268376447
 31
0.0
  0
LINE
  5
5ECC
330
5AF2
100
AcDbEntity
  8
AM_5
100
AcDbLine
 10
1752.749884633002
 20
248.2632268376448
 30
0.0
 11
1752.749884633002
 21
274.8132268376447
 31
0.0
  0
LINE
  5
5ECD
330
5AF2
100
AcDbEntity
  8
AM_5
100
AcDbLine
 10
1739.249884633002
 20
272.5632268376447
 30
0.0
 11
1734.749884633002
 21
272.5632268376447
 31
0.0
  0
LINE
  5
5ECE
330
5AF2
100
AcDbEntity
  8
AM_5
100
AcDbLine
 10
1757.249884633002
 20
272.5632268376447
 30
0.0
 11
1817.966029752976
 21
272.5632268376447
 31
0.0
  0
LINE
  5
5ECF
330
5AF2
100
AcDbEntity
  8
AM_5
100
AcDbLine
 10
1743.749884633002
 20
272.5632268376447
 30
0.0
 11
1752.749884633002
 21
272.5632268376447
 31
0.0
  0
SOLID
  5
5ED0
330
5AF2
100
AcDbEntity
  8
AM_5
100
AcDbTrace
 10
1739.249884633002
 20
273.3132268376447
 30
0.0
 11
1739.249884633002
 21
271.8132268376447
 31
0.0
 12
1743.749884633002
 22
272.5632268376447
 32
0.0
 13
1743.749884633002
 23
272.5632268376447
 33
0.0
  0
SOLID
  5
5ED1
330
5AF2
100
AcDbEntity
  8
AM_5
100
AcDbTrace
 10
1757.249884633002
 20
273.3132268376447
 30
0.0
 11
1757.249884633002
 21
271.8132268376447
 31
0.0
 12
1752.749884633002
 22
272.5632268376447
 32
0.0
 13
1752.749884633002
 23
272.5632268376447
 33
0.0
  0
MTEXT
  5
5ED2
330
5AF2
100
AcDbEntity
  8
AM_5
100
AcDbMText
 10
1789.857957192989
 20
276.9896165152522
 30
0.0
 40
5.25
 41
0.0
 71
     5
 72
     1
  1
guied rail width=9
 73
     1
 44
1.0
1001
ACAD
1000
MTEXTBEGIN
1070
    73
1070
     1
1070
    44
1040
1.0
1070
    74
1070
     0
1000
MTEXTEND
  0
POINT
  5
5ED3
330
5AF2
100
AcDbEntity
  8
Defpoints
 62
     0
100
AcDbPoint
 10
1743.749884633002
 20
246.7632268376448
 30
0.0
  0
POINT
  5
5ED4
330
5AF2
100
AcDbEntity
  8
Defpoints
 62
     0
100
AcDbPoint
 10
1752.749884633002
 20
246.7632268376448
 30
0.0
  0
POINT
  5
5ED5
330
5AF2
100
AcDbEntity
  8
Defpoints
 62
     0
100
AcDbPoint
 10
1752.749884633002
 20
272.5632268376447
 30
0.0
  0
ENDBLK
  5
5AFF
330
5AF2
100
AcDbEntity
  8
0
100
AcDbBlockEnd
  0
BLOCK
  5
5B15
330
5B09
100
AcDbEntity
  8
0
100
AcDbBlockBegin
  2
*D35
 70
     1
 10
0.0
 20
0.0
 30
0.0
  3
*D35
  1

  0
LINE
  5
5E81
330
5B09
100
AcDbEntity
  8
AM_5
100
AcDbLine
 10
1734.749884633002
 20
209.5632268376447
 30
0.0
 11
1718.499884633002
 21
209.5632268376447
 31
0.0
  0
LINE
  5
5E82
330
5B09
100
AcDbEntity
  8
AM_5
100
AcDbLine
 10
1734.249884633002
 20
204.0632268376447
 30
0.0
 11
1718.499884633002
 21
204.0632268376447
 31
0.0
  0
LINE
  5
5E83
330
5B09
100
AcDbEntity
  8
AM_5
100
AcDbLine
 10
1720.749884633002
 20
214.0632268376447
 30
0.0
 11
1720.749884633002
 21
218.5632268376447
 31
0.0
  0
LINE
  5
5E84
330
5B09
100
AcDbEntity
  8
AM_5
100
AcDbLine
 10
1720.749884633002
 20
199.5632268376447
 30
0.0
 11
1720.749884633002
 21
185.3957647173987
 31
0.0
  0
LINE
  5
5E85
330
5B09
100
AcDbEntity
  8
AM_5
100
AcDbLine
 10
1720.749884633002
 20
209.5632268376447
 30
0.0
 11
1720.749884633002
 21
204.0632268376447
 31
0.0
  0
SOLID
  5
5E86
330
5B09
100
AcDbEntity
  8
AM_5
100
AcDbTrace
 10
1719.999884633002
 20
214.0632268376447
 30
0.0
 11
1721.499884633002
 21
214.0632268376447
 31
0.0
 12
1720.749884633002
 22
209.5632268376447
 32
0.0
 13
1720.749884633002
 23
209.5632268376447
 33
0.0
  0
SOLID
  5
5E87
330
5B09
100
AcDbEntity
  8
AM_5
100
AcDbTrace
 10
1719.999884633002
 20
199.5632268376447
 30
0.0
 11
1721.499884633002
 21
199.5632268376447
 31
0.0
 12
1720.749884633002
 22
204.0632268376447
 32
0.0
 13
1720.749884633002
 23
204.0632268376447
 33
0.0
  0
MTEXT
  5
5E88
330
5B09
100
AcDbEntity
  8
AM_5
100
AcDbMText
 10
1717.074884633002
 20
190.2294957775219
 30
0.0
 40
5.25
 41
0.0
 71
     5
 72
     1
  1
5.5
 11
0.0000000000000001
 21
1.0
 31
0.0
 73
     1
 44
1.0
1001
ACAD
1000
MTEXTBEGIN
1070
    73
1070
     1
1070
    44
1040
1.0
1070
    74
1070
     0
1000
MTEXTEND
  0
POINT
  5
5E89
330
5B09
100
AcDbEntity
  8
Defpoints
 62
     0
100
AcDbPoint
 10
1736.249884633002
 20
209.5632268376447
 30
0.0
  0
POINT
  5
5E8A
330
5B09
100
AcDbEntity
  8
Defpoints
 62
     0
100
AcDbPoint
 10
1735.749884633002
 20
204.0632268376447
 30
0.0
  0
POINT
  5
5E8B
330
5B09
100
AcDbEntity
  8
Defpoints
 62
     0
100
AcDbPoint
 10
1720.749884633002
 20
204.0632268376447
 30
0.0
  0
ENDBLK
  5
5B16
330
5B09
100
AcDbEntity
  8
0
100
AcDbBlockEnd
  0
BLOCK
  5
5B2C
330
5B20
100
AcDbEntity
  8
0
100
AcDbBlockBegin
  2
*D36
 70
     1
 10
0.0
 20
0.0
 30
0.0
  3
*D36
  1

  0
LINE
  5
5E95
330
5B20
100
AcDbEntity
  8
AM_5
100
AcDbLine
 10
1753.749884633002
 20
210.5632268376447
 30
0.0
 11
1777.999884633002
 21
210.5632268376447
 31
0.0
  0
LINE
  5
5E96
330
5B20
100
AcDbEntity
  8
AM_5
100
AcDbLine
 10
1762.249884633002
 20
204.0632268376447
 30
0.0
 11
1777.999884633002
 21
204.0632268376447
 31
0.0
  0
LINE
  5
5E97
330
5B20
100
AcDbEntity
  8
AM_5
100
AcDbLine
 10
1775.749884633002
 20
215.0632268376447
 30
0.0
 11
1775.749884633002
 21
219.5632268376447
 31
0.0
  0
LINE
  5
5E98
330
5B20
100
AcDbEntity
  8
AM_5
100
AcDbLine
 10
1775.749884633002
 20
199.5632268376446
 30
0.0
 11
1775.749884633002
 21
185.0815914890523
 31
0.0
  0
LINE
  5
5E99
330
5B20
100
AcDbEntity
  8
AM_5
100
AcDbLine
 10
1775.749884633002
 20
210.5632268376447
 30
0.0
 11
1775.749884633002
 21
204.0632268376447
 31
0.0
  0
SOLID
  5
5E9A
330
5B20
100
AcDbEntity
  8
AM_5
100
AcDbTrace
 10
1774.999884633002
 20
215.0632268376447
 30
0.0
 11
1776.499884633002
 21
215.0632268376447
 31
0.0
 12
1775.749884633002
 22
210.5632268376447
 32
0.0
 13
1775.749884633002
 23
210.5632268376447
 33
0.0
  0
SOLID
  5
5E9B
330
5B20
100
AcDbEntity
  8
AM_5
100
AcDbTrace
 10
1774.999884633002
 20
199.5632268376446
 30
0.0
 11
1776.499884633002
 21
199.5632268376446
 31
0.0
 12
1775.749884633002
 22
204.0632268376447
 32
0.0
 13
1775.749884633002
 23
204.0632268376447
 33
0.0
  0
MTEXT
  5
5E9C
330
5B20
100
AcDbEntity
  8
AM_5
100
AcDbMText
 10
1772.074884633002
 20
190.0724091633487
 30
0.0
 40
5.25
 41
0.0
 71
     5
 72
     1
  1
6.5
 11
0.0000000000000001
 21
1.0
 31
0.0
 73
     1
 44
1.0
1001
ACAD
1000
MTEXTBEGIN
1070
    73
1070
     1
1070
    44
1040
1.0
1070
    74
1070
     0
1000
MTEXTEND
  0
POINT
  5
5E9D
330
5B20
100
AcDbEntity
  8
Defpoints
 62
     0
100
AcDbPoint
 10
1752.249884633002
 20
210.5632268376447
 30
0.0
  0
POINT
  5
5E9E
330
5B20
100
AcDbEntity
  8
Defpoints
 62
     0
100
AcDbPoint
 10
1760.749884633002
 20
204.0632268376447
 30
0.0
  0
POINT
  5
5E9F
330
5B20
100
AcDbEntity
  8
Defpoints
 62
     0
100
AcDbPoint
 10
1775.749884633002
 20
204.0632268376447
 30
0.0
  0
ENDBLK
  5
5B2D
330
5B20
100
AcDbEntity
  8
0
100
AcDbBlockEnd
  0
BLOCK
  5
5D6D
330
5D66
100
AcDbEntity
  8
0
100
AcDbBlockBegin
  2
A$C1BA4754C
 70
     0
 10
0.0
 20
0.0
 30
0.0
  3
A$C1BA4754C
  1

  0
LINE
  5
5D67
330
5D66
100
AcDbEntity
  8
AM_7
  6
ACISOTGB
 62
     2
100
AcDbLine
 10
0.0
 20
57.61702881863806
 30
0.0
 11
0.0
 21
-12.17169391359635
 31
0.0
1001
GENIUS_GENOBJ-N-CEN_13
1002
{
1000
OWNER
1000
GEN
1002
}
1001
GENIUS_GENODEF_13
1002
{
1000
HIER
1070
     0
1002
}
1002
{
1000
MANEDIT
1070
     0
1002
}
1002
{
1000
NOSEL
1070
     0
1002
}
1002
{
1000
BEHIND
1070
     0
1002
}
1002
{
1000
OTHER
1070
     0
1002
}
1002
{
1000
REACTOR
1002
}
1001
GENIUS_GENCEN_19
1002
{
1040
3.0
1002
}
  0
LINE
  5
5D68
330
5D66
100
AcDbEntity
  8
AM_5
 62
     5
100
AcDbLine
 10
14.8964290102233
 20
-9.382438973160191
 30
0.0
 11
4.84323839999979
 21
-9.382438973160162
 31
0.0
  0
TRACE
  5
5D69
330
5D66
100
AcDbEntity
  8
AM_5
 62
     5
370
    35
100
AcDbTrace
 10
4.84323839999979
 20
-8.744814544233889
 30
0.0
 11
4.84323839999979
 21
-10.02006340208643
 31
0.0
 12
-0.0000000000002274
 22
-9.382438973160191
 32
0.0
 13
-0.0000000000002274
 23
-9.382438973160191
 33
0.0
  0
MTEXT
  5
5D6A
330
5D66
100
AcDbEntity
  8
AM_5
 62
     5
100
AcDbMText
 10
6.160055729081477
 20
-7.484084736828634
 30
0.0
 40
4.843238399999999
 41
0.0
 71
     7
 72
     5
  1
SL
  7
ACISOTS
 73
     1
 44
1.0
1001
ACAD
1000
MTEXTBEGIN
1070
    73
1070
     1
1070
    44
1040
1.0
1070
    74
1070
     0
1000
MTEXTEND
  0
ENDBLK
  5
5D6E
330
5D66
100
AcDbEntity
  8
0
100
AcDbBlockEnd
  0
BLOCK
  5
5F09
330
5F04
100
AcDbEntity
  8
0
100
AcDbBlockBegin
  2
*S38
 70
     1
 10
0.0
 20
0.0
 30
0.0
  3
*S38
  1

  0
LINE
  5
5F05
330
5F04
100
AcDbEntity
  8
AM_5
 62
     5
100
AcDbLine
 10
1669.084736785312
 20
306.0797906409884
 30
0.0
 11
1612.439077392024
 21
306.0797906409884
 31
0.0
  0
LINE
  5
5F06
330
5F04
100
AcDbEntity
  8
AM_5
 62
     5
100
AcDbLine
 10
1612.439077392024
 20
306.0797906409884
 30
0.0
 11
1603.521639584091
 21
321.5516363923401
 31
0.0
  0
TRACE
  5
5F07
330
5F04
100
AcDbEntity
  8
AM_5
 62
     5
370
    35
100
AcDbTrace
 10
1604.12047041386
 20
321.8967818111711
 30
0.0
 11
1602.922808754322
 21
321.2064909735091
 31
0.0
 12
1600.899999837821
 22
326.1002081506805
 32
0.0
 13
1600.899999837821
 23
326.1002081506805
 33
0.0
  0
MTEXT
  5
5F08
330
5F04
100
AcDbEntity
  8
AM_5
 62
     5
100
AcDbMText
 10
1669.084736785312
 20
322.1215472788025
 30
0.0
 40
5.25
 41
0.0
 71
     7
 72
     5
  1

  7
ACISOTS
 73
     1
 44
1.0
1001
ACAD
1000
MTEXTBEGIN
1070
    73
1070
     1
1070
    44
1040
1.0
1070
    74
1070
     0
1000
MTEXTEND
  0
ENDBLK
  5
5F0A
330
5F04
100
AcDbEntity
  8
0
100
AcDbBlockEnd
  0
BLOCK
  5
5F11
330
5F0C
100
AcDbEntity
  8
0
100
AcDbBlockBegin
  2
*S39
 70
     1
 10
0.0
 20
0.0
 30
0.0
  3
*S39
  1

  0
LINE
  5
5F0D
330
5F0C
100
AcDbEntity
  8
AM_5
 62
     5
100
AcDbLine
 10
1510.841931409561
 20
272.0584028614673
 30
0.0
 11
1451.332212257137
 21
272.0584028614673
 31
0.0
  0
LINE
  5
5F0E
330
5F0C
100
AcDbEntity
  8
AM_5
 62
     5
100
AcDbLine
 10
1451.332212257137
 20
272.0584028614673
 30
0.0
 11
1458.041148980558
 21
242.7202315742513
 31
0.0
  0
TRACE
  5
5F0F
330
5F0C
100
AcDbEntity
  8
AM_5
 62
     5
370
    35
100
AcDbTrace
 10
1457.367365872168
 20
242.5661535236719
 30
0.0
 11
1458.714932088948
 21
242.8743096248307
 31
0.0
 12
1459.211487972149
 22
237.6023407347783
 32
0.0
 13
1459.211487972149
 23
237.6023407347783
 33
0.0
  0
MTEXT
  5
5F10
330
5F0C
100
AcDbEntity
  8
AM_5
 62
     5
100
AcDbMText
 10
1510.841931409561
 20
289.1083260700455
 30
0.0
 40
5.25
 41
0.0
 71
     7
 72
     5
  1

  7
ACISOTS
 73
     1
 44
1.0
1001
ACAD
1000
MTEXTBEGIN
1070
    73
1070
     1
1070
    44
1040
1.0
1070
    74
1070
     0
1000
MTEXTEND
  0
ENDBLK
  5
5F12
330
5F0C
100
AcDbEntity
  8
0
100
AcDbBlockEnd
  0
BLOCK
  5
5F19
330
5F14
100
AcDbEntity
  8
0
100
AcDbBlockBegin
  2
*S40
 70
     1
 10
0.0
 20
0.0
 30
0.0
  3
*S40
  1

  0
LINE
  5
5F15
330
5F14
100
AcDbEntity
  8
AM_5
 62
     5
100
AcDbLine
 10
1637.934205453762
 20
281.0559362462015
 30
0.0
 11
1573.457088147866
 21
281.0559362462015
 31
0.0
  0
LINE
  5
5F16
330
5F14
100
AcDbEntity
  8
AM_5
 62
     5
100
AcDbLine
 10
1573.457088147866
 20
281.0559362462015
 30
0.0
 11
1567.863892666176
 21
244.4719864268793
 31
0.0
  0
TRACE
  5
5F17
330
5F14
100
AcDbEntity
  8
AM_5
 62
     5
370
    35
100
AcDbTrace
 10
1567.180656025647
 20
244.5764441497223
 30
0.0
 11
1568.547129306704
 21
244.3675287040364
 31
0.0
 12
1567.070457484745
 22
239.2822888814661
 32
0.0
 13
1567.070457484745
 23
239.2822888814661
 33
0.0
  0
MTEXT
  5
5F18
330
5F14
100
AcDbEntity
  8
AM_5
 62
     5
100
AcDbMText
 10
1637.934205453762
 20
298.1058594547798
 30
0.0
 40
5.25
 41
0.0
 71
     7
 72
     5
  1

  7
ACISOTS
 73
     1
 44
1.0
1001
ACAD
1000
MTEXTBEGIN
1070
    73
1070
     1
1070
    44
1040
1.0
1070
    74
1070
     0
1000
MTEXTEND
  0
ENDBLK
  5
5F1A
330
5F14
100
AcDbEntity
  8
0
100
AcDbBlockEnd
  0
BLOCK
  5
5F21
330
5F1C
100
AcDbEntity
  8
0
100
AcDbBlockBegin
  2
*S41
 70
     1
 10
0.0
 20
0.0
 30
0.0
  3
*S41
  1

  0
LINE
  5
5F1D
330
5F1C
100
AcDbEntity
  8
AM_5
 62
     5
100
AcDbLine
 10
1702.714937275824
 20
275.0575260589825
 30
0.0
 11
1645.072598539682
 21
275.0575260589825
 31
0.0
  0
LINE
  5
5F1E
330
5F1C
100
AcDbEntity
  8
AM_5
 62
     5
100
AcDbLine
 10
1645.072598539682
 20
275.0575260589825
 30
0.0
 11
1632.60401535119
 21
242.2700328463498
 31
0.0
  0
TRACE
  5
5F1F
330
5F1C
100
AcDbEntity
  8
AM_5
 62
     5
370
    35
100
AcDbTrace
 10
1631.957976841333
 20
242.5157114302811
 30
0.0
 11
1633.250053861048
 21
242.0243542624186
 31
0.0
 12
1630.73790122856
 22
237.3628831562222
 32
0.0
 13
1630.73790122856
 23
237.3628831562222
 33
0.0
  0
MTEXT
  5
5F20
330
5F1C
100
AcDbEntity
  8
AM_5
 62
     5
100
AcDbMText
 10
1702.714937275824
 20
292.1074492675607
 30
0.0
 40
5.25
 41
0.0
 71
     7
 72
     5
  1

  7
ACISOTS
 73
     1
 44
1.0
1001
ACAD
1000
MTEXTBEGIN
1070
    73
1070
     1
1070
    44
1040
1.0
1070
    74
1070
     0
1000
MTEXTEND
  0
ENDBLK
  5
5F22
330
5F1C
100
AcDbEntity
  8
0
100
AcDbBlockEnd
  0
BLOCK
  5
5F29
330
5F24
100
AcDbEntity
  8
0
100
AcDbBlockBegin
  2
*S42
 70
     1
 10
0.0
 20
0.0
 30
0.0
  3
*S42
  1

  0
LINE
  5
5F25
330
5F24
100
AcDbEntity
  8
AM_5
 62
     5
100
AcDbLine
 10
1801.450595699315
 20
251.6190949582673
 30
0.0
 11
1772.709239497322
 21
251.6190949582673
 31
0.0
  0
LINE
  5
5F26
330
5F24
100
AcDbEntity
  8
AM_5
 62
     5
100
AcDbLine
 10
1772.709239497322
 20
251.6190949582673
 30
0.0
 11
1754.533173699726
 21
240.2257476041864
 31
0.0
  0
TRACE
  5
5F27
330
5F24
100
AcDbEntity
  8
AM_5
 62
     5
370
    35
100
AcDbTrace
 10
1754.166079990199
 20
240.811380536361
 30
0.0
 11
1754.900267409254
 21
239.6401146720117
 31
0.0
 12
1750.084849926766
 22
237.4373940378467
 32
0.0
 13
1750.084849926766
 23
237.4373940378467
 33
0.0
  0
MTEXT
  5
5F28
330
5F24
100
AcDbEntity
  8
AM_5
 62
     5
100
AcDbMText
 10
1801.450595699315
 20
265.7320515436949
 30
0.0
 40
5.25
 41
0.0
 71
     7
 72
     5
  1

  7
ACISOTS
 73
     1
 44
1.0
1001
ACAD
1000
MTEXTBEGIN
1070
    73
1070
     1
1070
    44
1040
1.0
1070
    74
1070
     0
1000
MTEXTEND
  0
ENDBLK
  5
5F2A
330
5F24
100
AcDbEntity
  8
0
100
AcDbBlockEnd
  0
BLOCK
  5
5F31
330
5F2C
100
AcDbEntity
  8
0
100
AcDbBlockBegin
  2
*S43
 70
     1
 10
0.0
 20
0.0
 30
0.0
  3
*S43
  1

  0
LINE
  5
5F2D
330
5F2C
100
AcDbEntity
  8
AM_5
 62
     5
100
AcDbLine
 10
1669.998469657519
 20
252.3841024213401
 30
0.0
 11
1726.6117532491
 21
252.3841024213401
 31
0.0
  0
LINE
  5
5F2E
330
5F2C
100
AcDbEntity
  8
AM_5
 62
     5
100
AcDbLine
 10
1726.6117532491
 20
252.3841024213401
 30
0.0
 11
1735.004880809562
 21
242.2463346821222
 31
0.0
  0
TRACE
  5
5F2F
330
5F2C
100
AcDbEntity
  8
AM_5
 62
     5
370
    35
100
AcDbTrace
 10
1734.472486908556
 20
241.8055621137911
 30
0.0
 11
1735.537274710569
 21
242.6871072504533
 31
0.0
 12
1738.352880873178
 22
238.2024015009196
 32
0.0
 13
1738.352880873178
 23
238.2024015009196
 33
0.0
  0
MTEXT
  5
5F30
330
5F2C
100
AcDbEntity
  8
AM_5
 62
     5
100
AcDbMText
 10
1669.998469657519
 20
266.4970590067677
 30
0.0
 40
5.25
 41
0.0
 71
     7
 72
     5
  1

  7
ACISOTS
210
0.0
220
0.0
230
-1.0
 11
-1.0
 21
0.0
 31
0.0
 73
     1
 44
1.0
1001
ACAD
1000
MTEXTBEGIN
1070
    73
1070
     1
1070
    44
1040
1.0
1070
    74
1070
     0
1000
MTEXTEND
  0
ENDBLK
  5
5F32
330
5F2C
100
AcDbEntity
  8
0
100
AcDbBlockEnd
  0
BLOCK
  5
5F39
330
5F34
100
AcDbEntity
  8
0
100
AcDbBlockBegin
  2
*S44
 70
     1
 10
0.0
 20
0.0
 30
0.0
  3
*S44
  1

  0
LINE
  5
5F35
330
5F34
100
AcDbEntity
  8
AM_5
 62
     5
100
AcDbLine
 10
1689.634485920895
 20
121.0472018039107
 30
0.0
 11
1634.314492428291
 21
121.0472018039107
 31
0.0
  0
LINE
  5
5F36
330
5F34
100
AcDbEntity
  8
AM_5
 62
     5
100
AcDbLine
 10
1634.314492428291
 20
121.0472018039107
 30
0.0
 11
1626.667711026662
 21
113.9876149948228
 31
0.0
  0
TRACE
  5
5F37
330
5F34
100
AcDbEntity
  8
AM_5
 62
     5
370
    35
100
AcDbTrace
 10
1626.198863811661
 20
114.4954594708275
 30
0.0
 11
1627.136558241662
 21
113.4797705188181
 31
0.0
 12
1622.810249242213
 22
110.4263668173545
 32
0.0
 13
1622.810249242213
 23
110.4263668173545
 33
0.0
  0
MTEXT
  5
5F38
330
5F34
100
AcDbEntity
  8
AM_5
 62
     5
100
AcDbMText
 10
1689.634485920895
 20
136.623110513913
 30
0.0
 40
5.25
 41
0.0
 71
     7
 72
     5
  1

  7
ACISOTS
 73
     1
 44
1.0
1001
ACAD
1000
MTEXTBEGIN
1070
    73
1070
     1
1070
    44
1040
1.0
1070
    74
1070
     0
1000
MTEXTEND
  0
ENDBLK
  5
5F3A
330
5F34
100
AcDbEntity
  8
0
100
AcDbBlockEnd
  0
ENDSEC
  0
SECTION
  2
ENTITIES
  0
TEXT
  5
464D
330
1F
100
AcDbEntity
  8
LOGO
 62
     7
100
AcDbText
 10
1467.18686847521
 20
31.74219242143824
 30
0.0
 40
5.199247058823528
  1
Order example:
 41
0.8
  7
CHINESET
100
AcDbText
  0
TEXT
  5
464E
330
1F
100
AcDbEntity
  8
LOGO
 62
     7
100
AcDbText
 10
1468.119656393587
 20
39.06165576242199
 30
0.0
 40
7.798870588235293
  1
訂購代號：
  7
CHINESET
100
AcDbText
  0
LINE
  5
464F
330
1F
100
AcDbEntity
  8
LOGO
 62
     4
100
AcDbLine
 10
1464.927777993319
 20
9.830601958175805
 30
0.0
 11
1464.927777993319
 21
48.82495489935251
 31
0.0
  0
TEXT
  5
4650
330
1F
100
AcDbEntity
  8
LOGO
  6
Continuous
100
AcDbText
 10
1393.147148382209
 20
17.49098374586043
 30
0.0
 40
5.84915294117647
  1
金器工業股份有限公司
  7
CHINESET
100
AcDbText
  0
TEXT
  5
4651
330
1F
100
AcDbEntity
  8
LOGO
  6
Continuous
100
AcDbText
 10
1382.40341162711
 20
11.64068482929883
 30
0.0
 40
3.899435294117646
  1
MINDMAN INDUSTRIAL CO., LTD.
 41
0.85
  7
CHINESET
100
AcDbText
  0
LINE
  5
4652
330
1F
100
AcDbEntity
  8
LOGO
 62
     4
100
AcDbLine
 10
1464.927777993319
 20
41.02608431111717
 30
0.0
 11
1407.73606034626
 21
41.02608431111717
 31
0.0
  0
LINE
  5
4653
330
1F
100
AcDbEntity
  8
LOGO
 62
     4
100
AcDbLine
 10
1464.927777993319
 20
33.22721372288183
 30
0.0
 11
1407.73606034626
 21
33.22721372288183
 31
0.0
  0
LINE
  5
4654
330
1F
100
AcDbEntity
  8
LOGO
 62
     4
100
AcDbLine
 10
1464.927777993319
 20
25.42834313464694
 30
0.0
 11
1379.140201522731
 21
25.42834313464694
 31
0.0
  0
LINE
  5
4655
330
1F
100
AcDbEntity
  8
LOGO
 62
     4
100
AcDbLine
 10
1407.73606034626
 20
25.42834313464694
 30
0.0
 11
1407.73606034626
 21
48.82495489935251
 31
0.0
  0
TEXT
  5
4656
330
1F
100
AcDbEntity
  8
LOGO
100
AcDbText
 10
1446.823899950069
 20
27.37806078170511
 30
0.0
 40
3.899435294117646
  1
mm
  7
CHINESET
 72
     1
 11
1451.651772218976
 21
29.32777842876394
 31
0.0
100
AcDbText
 73
     2
  0
TEXT
  5
4657
330
1F
100
AcDbEntity
  8
LOGO
100
AcDbText
 10
1444.781338605531
 20
42.97580195817579
 30
0.0
 40
3.899435294117646
  1
1 : 1
  7
CHINESET
 72
     1
 11
1451.651772218976
 21
44.92551960523463
 31
0.0
100
AcDbText
 73
     2
  0
LINE
  5
4658
330
1F
100
AcDbEntity
  8
LOGO
 62
     4
100
AcDbLine
 10
1438.931542699201
 20
25.42834313464694
 30
0.0
 11
1438.931542699201
 21
48.82495489935251
 31
0.0
  0
TEXT
  5
4659
330
1F
100
AcDbEntity
  8
LOGO
100
AcDbText
 10
1410.951353644579
 20
42.97772097160794
 30
255.5625652320971
 40
3.899435294117646
  1
比例 Scale:
 41
0.9
  7
CHINESET
 72
     4
 11
1423.333801522731
 21
44.92551960523463
 31
255.5625652320971
100
AcDbText
  0
TEXT
  5
465A
330
1F
100
AcDbEntity
  8
LOGO
100
AcDbText
 10
1410.726787951302
 20
35.23178317054259
 30
255.5625652320971
 40
3.899435294117646
  1
投影  View:
 41
0.9
  7
CHINESET
 72
     4
 11
1423.333801522731
 21
37.12664901699928
 31
255.5625652320971
100
AcDbText
  0
TEXT
  5
465B
330
1F
100
AcDbEntity
  8
LOGO
100
AcDbText
 10
1411.108027384075
 20
27.37806078170511
 30
255.5625652320971
 40
3.899435294117646
  1
單位  Unit:
 41
0.9
  7
CHINESET
 72
     4
 11
1423.333801522731
 21
29.32777842876394
 31
255.5625652320971
100
AcDbText
  0
LWPOLYLINE
  5
465C
330
1F
100
AcDbEntity
  8
LOGO
 62
     4
100
AcDbPolyline
 90
        4
 70
     1
 43
0.0
 10
1379.14020152273
 20
48.82495489935251
 10
1882.503139010625
 20
48.82495489935251
 10
1882.503139010625
 20
399.8306019581752
 10
1379.14020152273
 20
399.8306019581752
1001
GENIUS_GENREC_14
1002
{
1000
PYDIR
1011
1379.14020152273
1021
399.8306019581752
1031
0.0
1002
}
1002
{
1000
PXDIR
1011
1882.503139010625
1021
48.82495489935251
1031
0.0
1002
}
1002
{
1000
PORI
1011
1379.14020152273
1021
48.82495489935251
1031
0.0
1002
}
1002
{
1000
PINS
1011
1379.14020152273
1021
48.82495489935251
1031
0.0
1002
}
1002
{
1000
PINS2
1011
1882.503139010625
1021
399.8306019581752
1031
0.0
1002
}
1002
{
1000
C
1070
     1
1002
}
1001
GENIUS_GENODEF_13
1002
{
1000
HIER
1070
     0
1002
}
1002
{
1000
MANEDIT
1070
     0
1002
}
1002
{
1000
NOSEL
1070
     0
1002
}
1002
{
1000
BEHIND
1070
     0
1002
}
1002
{
1000
OTHER
1070
     0
1002
}
1002
{
1000
REACTOR
1002
}
1001
GENIUS_GENOBJ-N-REC_13
1002
{
1000
OWNER
1000
GEN
1002
}
  0
SOLID
  5
465D
330
1F
100
AcDbEntity
  8
LOGO
 62
     5
100
AcDbTrace
 10
1383.185928221554
 20
31.91059927021007
 30
0.0
 11
1384.871941721548
 21
31.91059927020963
 31
0.0
 12
1391.906687704283
 22
47.89865832188101
 32
0.0
 13
1393.592701204278
 23
47.89865832188013
 33
0.0
  0
SOLID
  5
465E
330
1F
100
AcDbEntity
  8
LOGO
 62
     5
100
AcDbTrace
 10
1385.569602480169
 20
31.91059927021007
 30
0.0
 11
1387.255615980163
 21
31.91059927021007
 31
0.0
 12
1393.592701204278
 22
46.61961359774671
 32
0.0
 13
1391.906687704283
 23
40.43756409776729
 33
0.0
  0
SOLID
  5
465F
330
1F
100
AcDbEntity
  8
LOGO
 62
     2
100
AcDbTrace
 10
1384.871941721548
 20
31.91059927020963
 30
0.0
 11
1385.569602480169
 21
31.91059927021007
 31
0.0
 12
1393.592701204278
 22
47.89865832188013
 32
0.0
 13
1394.290361962898
 23
47.89865832188013
 33
0.0
  0
SOLID
  5
4660
330
1F
100
AcDbEntity
  8
LOGO
 62
     5
100
AcDbTrace
 10
1380.482835119907
 20
26.09675961505752
 30
0.0
 11
1381.064219085423
 21
26.09675961505752
 31
0.0
 12
1382.701441583625
 22
29.00367944263357
 32
0.0
 13
1383.282825549139
 23
29.00367944263357
 33
0.0
  0
SOLID
  5
4661
330
1F
100
AcDbEntity
  8
LOGO
 62
     5
100
AcDbTrace
 10
1382.701441583625
 20
29.00367944263357
 30
0.0
 11
1383.282825549139
 21
29.00367944263357
 31
0.0
 12
1382.701441583625
 22
26.09675961505752
 32
0.0
 13
1383.282825549139
 23
26.09675961505752
 33
0.0
  0
SOLID
  5
4662
330
1F
100
AcDbEntity
  8
LOGO
 62
     5
100
AcDbTrace
 10
1382.701441583625
 20
26.09675961505752
 30
0.0
 11
1383.282825549139
 21
26.09675961505752
 31
0.0
 12
1384.920048047344
 22
29.00367944263357
 32
0.0
 13
1385.50143201286
 23
29.00367944263357
 33
0.0
  0
SOLID
  5
4663
330
1F
100
AcDbEntity
  8
LOGO
 62
     5
100
AcDbTrace
 10
1384.920048047344
 20
29.00367944263357
 30
0.0
 11
1385.50143201286
 21
29.00367944263357
 31
0.0
 12
1384.920048047344
 22
26.09675961505752
 32
0.0
 13
1385.50143201286
 23
26.09675961505752
 33
0.0
  0
POLYLINE
  5
4664
330
1F
100
AcDbEntity
  8
LOGO
 62
     5
100
AcDb2dPolyline
 66
     1
 10
0.0
 20
0.0
 30
0.0
 40
0.5823156705882352
 41
0.5823156705882352
  0
VERTEX
  5
4665
330
4664
100
AcDbEntity
  8
LOGO
 62
     5
100
AcDbVertex
100
AcDb2dVertex
 10
1404.407840520472
 20
27.84091151160307
 30
0.0
 42
1.0
  0
VERTEX
  5
4666
330
4664
100
AcDbEntity
  8
LOGO
 62
     5
100
AcDbVertex
100
AcDb2dVertex
 10
1402.660893508708
 20
27.84091151160307
 30
0.0
 42
1.0
  0
SEQEND
  5
4667
330
4664
100
AcDbEntity
  8
LOGO
 62
     5
  0
POLYLINE
  5
4668
330
1F
100
AcDbEntity
  8
LOGO
 62
     5
100
AcDb2dPolyline
 66
     1
 10
0.0
 20
0.0
 30
0.0
 70
     1
  0
VERTEX
  5
4669
330
4668
100
AcDbEntity
  8
LOGO
 62
     5
100
AcDbVertex
100
AcDb2dVertex
 10
1399.367820687327
 20
27.55021952884511
 30
0.0
 42
1.000000057330635
  0
VERTEX
  5
466A
330
4668
100
AcDbEntity
  8
LOGO
 62
     5
100
AcDbVertex
100
AcDb2dVertex
 10
1401.111972583873
 20
27.55021952884511
 30
0.0
 42
1.000000057330635
  0
SEQEND
  5
466B
330
4668
100
AcDbEntity
  8
LOGO
 62
     5
  0
CIRCLE
  5
466C
330
1F
100
AcDbEntity
  8
LOGO
 62
     5
100
AcDbCircle
 10
1400.239896635602
 20
27.55021952884511
 30
0.0
 40
0.8720759482729413
  0
POLYLINE
  5
466D
330
1F
100
AcDbEntity
  8
LOGO
 62
     5
100
AcDb2dPolyline
 66
     1
 10
0.0
 20
0.0
 30
0.0
 70
     1
 40
0.5823156705882352
 41
0.5823156705882352
  0
VERTEX
  5
466E
330
466D
100
AcDbEntity
  8
LOGO
 62
     5
100
AcDbVertex
100
AcDb2dVertex
 10
1399.075265294424
 20
27.55021952884511
 30
0.0
 42
1.0
  0
VERTEX
  5
466F
330
466D
100
AcDbEntity
  8
LOGO
 62
     5
100
AcDbVertex
100
AcDb2dVertex
 10
1401.404527976777
 20
27.55021952884511
 30
0.0
 42
1.0
  0
SEQEND
  5
4670
330
466D
100
AcDbEntity
  8
LOGO
 62
     5
  0
LINE
  5
4671
330
1F
100
AcDbEntity
  8
LOGO
100
AcDbLine
 10
1404.69713494562
 20
26.09675961505752
 30
0.0
 11
1404.69713494562
 21
27.84091151160307
 31
0.0
  0
SOLID
  5
4672
330
1F
100
AcDbEntity
  8
LOGO
 62
     5
100
AcDbTrace
 10
1401.11191444548
 20
29.00367944263357
 30
0.0
 11
1401.693298410993
 21
29.00367944263357
 31
0.0
 12
1401.11191444548
 22
26.09675961505752
 32
0.0
 13
1401.693298410993
 23
26.09675961505752
 33
0.0
  0
SOLID
  5
4673
330
1F
100
AcDbEntity
  8
LOGO
 62
     5
100
AcDbTrace
 10
1402.371599083559
 20
26.09675961505752
 30
0.0
 11
1402.952983049075
 21
26.09675961505752
 31
0.0
 12
1402.371599083559
 22
29.00367944263357
 32
0.0
 13
1402.952983049075
 23
29.00367944263357
 33
0.0
  0
SOLID
  5
4674
330
1F
100
AcDbEntity
  8
LOGO
 62
     5
100
AcDbTrace
 10
1404.115750980106
 20
27.84091151160307
 30
0.0
 11
1404.69713494562
 21
27.84091151160307
 31
0.0
 12
1404.115750980106
 22
26.09675961505752
 32
0.0
 13
1404.69713494562
 23
26.09675961505752
 33
0.0
  0
SOLID
  5
4675
330
1F
100
AcDbEntity
  8
LOGO
 62
     5
100
AcDbTrace
 10
1402.313460687007
 20
46.61961359774671
 30
0.0
 11
1400.627447187014
 21
40.43756409776729
 31
0.0
 12
1402.313460687007
 22
31.91059927020963
 32
0.0
 13
1400.627447187014
 23
31.91059927020963
 33
0.0
  0
SOLID
  5
4676
330
1F
100
AcDbEntity
  8
LOGO
 62
     5
100
AcDbTrace
 10
1403.011121445627
 20
31.91059927020963
 30
0.0
 11
1404.69713494562
 21
31.91059927020963
 31
0.0
 12
1403.011121445627
 22
47.89865832188013
 32
0.0
 13
1404.69713494562
 23
47.89865832188101
 33
0.0
  0
SOLID
  5
4677
330
1F
100
AcDbEntity
  8
LOGO
 62
     2
100
AcDbTrace
 10
1402.313460687007
 20
47.89865832188101
 30
0.0
 11
1403.011121445627
 21
47.89865832188013
 31
0.0
 12
1402.313460687007
 22
31.91059927020963
 32
0.0
 13
1403.011121445627
 23
31.91059927020963
 33
0.0
  0
POLYLINE
  5
4678
330
1F
100
AcDbEntity
  8
LOGO
 62
     5
100
AcDb2dPolyline
 66
     1
 10
0.0
 20
0.0
 30
0.0
 40
0.5823156705882352
 41
0.5823156705882352
  0
VERTEX
  5
4679
330
4678
100
AcDbEntity
  8
LOGO
 62
     5
100
AcDbVertex
100
AcDb2dVertex
 10
1396.074631589156
 20
27.84091151160307
 30
0.0
 42
1.0
  0
VERTEX
  5
467A
330
4678
100
AcDbEntity
  8
LOGO
 62
     5
100
AcDbVertex
100
AcDb2dVertex
 10
1394.327684577391
 20
27.84091151160307
 30
0.0
 42
1.0
  0
SEQEND
  5
467B
330
4678
100
AcDbEntity
  8
LOGO
 62
     5
  0
POLYLINE
  5
467C
330
1F
100
AcDbEntity
  8
LOGO
 62
     5
100
AcDb2dPolyline
 66
     1
 10
0.0
 20
0.0
 30
0.0
 40
0.5823156705882352
 41
0.5823156705882352
  0
VERTEX
  5
467D
330
467C
100
AcDbEntity
  8
LOGO
 62
     5
100
AcDbVertex
100
AcDb2dVertex
 10
1397.8187834857
 20
27.84091151160307
 30
0.0
 42
1.0
  0
VERTEX
  5
467E
330
467C
100
AcDbEntity
  8
LOGO
 62
     5
100
AcDbVertex
100
AcDb2dVertex
 10
1396.071836473936
 20
27.84091151160307
 30
0.0
 42
1.0
  0
SEQEND
  5
467F
330
467C
100
AcDbEntity
  8
LOGO
 62
     5
  0
POLYLINE
  5
4680
330
1F
100
AcDbEntity
  8
LOGO
 62
     5
100
AcDb2dPolyline
 66
     1
 10
0.0
 20
0.0
 30
0.0
 40
0.5823156705882352
 41
0.5823156705882352
  0
VERTEX
  5
4681
330
4680
100
AcDbEntity
  8
LOGO
 62
     5
100
AcDbVertex
100
AcDb2dVertex
 10
1389.485574554384
 20
27.84091151160307
 30
0.0
 42
1.0
  0
VERTEX
  5
4682
330
4680
100
AcDbEntity
  8
LOGO
 62
     5
100
AcDbVertex
100
AcDb2dVertex
 10
1387.73862754262
 20
27.84091151160307
 30
0.0
 42
1.0
  0
SEQEND
  5
4683
330
4680
100
AcDbEntity
  8
LOGO
 62
     5
  0
SOLID
  5
4684
330
1F
100
AcDbEntity
  8
LOGO
 62
     5
100
AcDbTrace
 10
1387.449333117471
 20
29.00367944263357
 30
0.0
 11
1388.030717082986
 21
29.00367944263357
 31
0.0
 12
1387.449333117471
 22
26.09675961505752
 32
0.0
 13
1388.030717082986
 23
26.09675961505752
 33
0.0
  0
SOLID
  5
4685
330
1F
100
AcDbEntity
  8
LOGO
 62
     5
100
AcDbTrace
 10
1389.193485014017
 20
27.84091151160307
 30
0.0
 11
1389.774868979533
 21
27.84091151160307
 31
0.0
 12
1389.193485014017
 22
26.09675961505752
 32
0.0
 13
1389.774868979533
 23
26.09675961505752
 33
0.0
  0
POLYLINE
  5
4686
330
1F
100
AcDbEntity
  8
LOGO
 62
     5
100
AcDb2dPolyline
 66
     1
 10
0.0
 20
0.0
 30
0.0
 70
     1
 40
0.5823156705882352
 41
0.5823156705882352
  0
VERTEX
  5
4687
330
4686
100
AcDbEntity
  8
LOGO
 62
     5
100
AcDbVertex
100
AcDb2dVertex
 10
1390.742056363106
 20
27.55021952884511
 30
0.0
 42
1.0
  0
VERTEX
  5
4688
330
4686
100
AcDbEntity
  8
LOGO
 62
     5
100
AcDbVertex
100
AcDb2dVertex
 10
1393.07131904546
 20
27.55021952884511
 30
0.0
 42
1.0
  0
SEQEND
  5
4689
330
4686
100
AcDbEntity
  8
LOGO
 62
     5
  0
SOLID
  5
468A
330
1F
100
AcDbEntity
  8
LOGO
 62
     5
100
AcDbTrace
 10
1392.778705514161
 20
29.87575539090702
 30
0.0
 11
1393.360089479676
 21
29.87575539090702
 31
0.0
 12
1392.778705514161
 22
26.09675961505752
 32
0.0
 13
1393.360089479676
 23
26.09675961505752
 33
0.0
  0
SOLID
  5
468B
330
1F
100
AcDbEntity
  8
LOGO
 62
     5
100
AcDbTrace
 10
1394.038390152244
 20
29.00367944263357
 30
0.0
 11
1394.619774117758
 21
29.00367944263357
 31
0.0
 12
1394.038390152244
 22
26.09675961505752
 32
0.0
 13
1394.619774117758
 23
26.09675961505752
 33
0.0
  0
SOLID
  5
468C
330
1F
100
AcDbEntity
  8
LOGO
 62
     5
100
AcDbTrace
 10
1395.782542048788
 20
27.84091151160307
 30
0.0
 11
1396.363926014304
 21
27.84091151160307
 31
0.0
 12
1395.782542048788
 22
26.09675961505752
 32
0.0
 13
1396.363926014304
 23
26.09675961505752
 33
0.0
  0
SOLID
  5
468D
330
1F
100
AcDbEntity
  8
LOGO
 62
     5
100
AcDbTrace
 10
1397.526693945334
 20
27.84091151160307
 30
0.0
 11
1398.108077910849
 21
27.84091151160307
 31
0.0
 12
1397.526693945334
 22
26.09675961505664
 32
0.0
 13
1398.108077910849
 23
26.09675961505664
 33
0.0
  0
SOLID
  5
468E
330
1F
100
AcDbEntity
  8
LOGO
 62
     5
100
AcDbTrace
 10
1386.189648479389
 20
29.41064821849446
 30
0.0
 11
1386.771032444906
 21
29.41064821849446
 31
0.0
 12
1386.189648479389
 22
29.87575539090702
 32
0.0
 13
1386.771032444906
 23
29.87575539090702
 33
0.0
  0
SOLID
  5
468F
330
1F
100
AcDbEntity
  8
LOGO
 62
     5
100
AcDbTrace
 10
1386.189648479389
 20
29.00367944263357
 30
0.0
 11
1386.771032444906
 21
29.00367944263357
 31
0.0
 12
1386.189648479389
 22
26.09675961505664
 32
0.0
 13
1386.771032444906
 23
26.09675961505752
 33
0.0
  0
SOLID
  5
4690
330
1F
100
AcDbEntity
  8
LOGO
 62
     5
100
AcDbTrace
 10
1391.906687704283
 20
31.91059927021007
 30
0.0
 11
1393.592701204278
 21
31.91059927021007
 31
0.0
 12
1391.906687704283
 22
40.43756409776729
 32
0.0
 13
1393.592701204278
 23
46.61961359774671
 33
0.0
  0
SOLID
  5
4691
330
1F
100
AcDbEntity
  8
LOGO
 62
     5
100
AcDbTrace
 10
1394.290361962898
 20
47.89865832188013
 30
0.0
 11
1395.976375462891
 21
47.89865832188101
 31
0.0
 12
1394.290361962898
 22
33.1896439943435
 32
0.0
 13
1395.976375462891
 23
39.37169349432291
 33
0.0
  0
SOLID
  5
4692
330
1F
100
AcDbEntity
  8
LOGO
 62
     2
100
AcDbTrace
 10
1393.592701204278
 20
47.89865832188013
 30
0.0
 11
1394.290361962898
 21
47.89865832188013
 31
0.0
 12
1393.592701204278
 22
31.91059927021007
 32
0.0
 13
1394.290361962898
 23
31.91059927021007
 33
0.0
  0
SOLID
  5
4693
330
1F
100
AcDbEntity
  8
LOGO
 62
     5
100
AcDbTrace
 10
1394.290361962898
 20
33.1896439943435
 30
0.0
 11
1395.976375462891
 21
39.37169349432291
 31
0.0
 12
1402.313460687007
 22
47.89865832188101
 32
0.0
 13
1400.627447187014
 23
47.89865832188101
 33
0.0
  0
SOLID
  5
4694
330
1F
100
AcDbEntity
  8
LOGO
 62
     5
100
AcDbTrace
 10
1394.290361962898
 20
31.91059927021007
 30
0.0
 11
1395.976375462891
 21
31.91059927021007
 31
0.0
 12
1402.313460687007
 22
46.61961359774671
 32
0.0
 13
1400.627447187014
 23
40.43756409776729
 33
0.0
  0
SOLID
  5
4695
330
1F
100
AcDbEntity
  8
LOGO
 62
     2
100
AcDbTrace
 10
1393.592701204278
 20
31.91059927021007
 30
0.0
 11
1394.290361962898
 21
31.91059927021007
 31
0.0
 12
1402.313460687007
 22
47.89865832188101
 32
0.0
 13
1403.011121445627
 23
47.89865832188013
 33
0.0
  0
LWPOLYLINE
  5
4696
330
1F
100
AcDbEntity
  8
LOGO
 62
     4
100
AcDbPolyline
 90
        4
 70
     1
 43
0.0
 10
1379.14020152273
 20
48.82495489935251
 10
1882.503139010625
 20
48.82495489935251
 10
1882.503139010625
 20
9.830601958175359
 10
1379.14020152273
 20
9.830601958175359
1001
GENIUS_GENREC_14
1002
{
1000
PYDIR
1011
1379.14020152273
1021
9.830601958175359
1031
0.0
1002
}
1002
{
1000
PXDIR
1011
1882.503139010625
1021
48.82495489935251
1031
0.0
1002
}
1002
{
1000
PORI
1011
1379.14020152273
1021
48.82495489935251
1031
0.0
1002
}
1002
{
1000
PINS
1011
1379.14020152273
1021
48.82495489935251
1031
0.0
1002
}
1002
{
1000
PINS2
1011
1882.503139010625
1021
9.830601958175359
1031
0.0
1002
}
1002
{
1000
C
1070
     1
1002
}
1001
GENIUS_GENOBJ-N-REC_13
1002
{
1000
OWNER
1000
GEN
1002
}
1001
GENIUS_GENODEF_13
1002
{
1000
HIER
1070
     0
1002
}
1002
{
1000
MANEDIT
1070
     0
1002
}
1002
{
1000
NOSEL
1070
     0
1002
}
1002
{
1000
BEHIND
1070
     0
1002
}
1002
{
1000
OTHER
1070
     0
1002
}
1002
{
1000
REACTOR
1002
}
  0
LINE
  5
4697
330
1F
100
AcDbEntity
  8
LOGO
 62
     4
100
AcDbLine
 10
1544.559015100784
 20
27.37806078170589
 30
0.0
 11
1544.559015100784
 21
13.08013136994041
 31
0.0
  0
LINE
  5
4698
330
1F
100
AcDbEntity
  8
LOGO
 62
     4
100
AcDbLine
 10
1518.562779806667
 20
27.37806078170589
 30
0.0
 11
1518.562779806667
 21
13.08013136994041
 31
0.0
  0
LINE
  5
4699
330
1F
100
AcDbEntity
  8
LOGO
 62
     4
100
AcDbLine
 10
1544.559015100784
 20
13.08013136994041
 30
0.0
 11
1518.562779806667
 21
13.08013136994041
 31
0.0
  0
LINE
  5
469A
330
1F
100
AcDbEntity
  8
LOGO
 62
     4
100
AcDbLine
 10
1549.221716175907
 20
44.92551960523463
 30
0.0
 11
1518.562779806667
 21
44.92551960523463
 31
0.0
  0
LINE
  5
469B
330
1F
100
AcDbEntity
  8
LOGO
 62
     4
100
AcDbLine
 10
1549.221716175907
 20
33.22721372288183
 30
0.0
 11
1518.562779806667
 21
33.22721372288183
 31
0.0
  0
LINE
  5
469C
330
1F
100
AcDbEntity
  8
LOGO
 62
     4
100
AcDbLine
 10
1518.562779806667
 20
44.92551960523463
 30
0.0
 11
1518.562779806667
 21
33.22721372288183
 31
0.0
  0
LINE
  5
469D
330
1F
100
AcDbEntity
  8
LOGO
 62
     4
100
AcDbLine
 10
1549.221716175907
 20
44.92551960523463
 30
0.0
 11
1549.221716175907
 21
33.22721372288183
 31
0.0
  0
LINE
  5
469E
330
1F
100
AcDbEntity
  8
LOGO
 62
     4
100
AcDbLine
 10
1532.917247991287
 20
33.22721372288183
 30
0.0
 11
1532.917247991287
 21
27.37806078170589
 31
0.0
  0
TEXT
  5
469F
330
1F
100
AcDbEntity
  8
LOGO
  6
Continuous
 62
     7
100
AcDbText
 10
1520.641385550062
 20
35.66921797290155
 30
0.0
 40
6.825
  1
MCSH
  7
CHINESET
100
AcDbText
  0
LINE
  5
46A0
330
1F
100
AcDbEntity
  8
LOGO
 62
     4
100
AcDbLine
 10
1544.559015100784
 20
27.37806078170589
 30
0.0
 11
1518.562779806667
 21
27.37806078170589
 31
0.0
  0
TEXT
  5
46A1
330
1F
100
AcDbEntity
  8
LOGO
  6
Continuous
100
AcDbText
 10
1526.904889409721
 20
15.09825378694744
 30
255.5625652320971
 40
2.925
  1
Model
 41
0.8
  7
CHINESET
100
AcDbText
  0
TEXT
  5
46A2
330
1F
100
AcDbEntity
  8
LOGO
100
AcDbText
 10
1526.126349495622
 20
20.5205734044558
 30
255.5625652320971
 40
4.875
  1
型號
  7
CHINESET
100
AcDbText
  0
LINE
  5
46A3
330
1F
100
AcDbEntity
  8
LOGO
  6
Continuous
 62
     7
100
AcDbLine
 10
1550.465342776368
 20
39.03492941585384
 30
0.0
 11
1555.6308878018
 21
39.03492941585384
 31
0.0
  0
LINE
  5
46AF
330
1F
100
AcDbEntity
  8
LOGO
 62
     4
100
AcDbLine
 10
1572.353712332259
 20
27.37806078170589
 30
0.0
 11
1572.353712332259
 21
13.08013136994041
 31
0.0
  0
LINE
  5
46B0
330
1F
100
AcDbEntity
  8
LOGO
 62
     4
100
AcDbLine
 10
1551.615864204431
 20
27.37806078170589
 30
0.0
 11
1551.615864204431
 21
13.08013136994041
 31
0.0
  0
LINE
  5
46B1
330
1F
100
AcDbEntity
  8
LOGO
 62
     4
100
AcDbLine
 10
1572.353712332259
 20
13.08013136994041
 30
0.0
 11
1551.615864204431
 21
13.08013136994041
 31
0.0
  0
LINE
  5
46B2
330
1F
100
AcDbEntity
  8
LOGO
 62
     4
100
AcDbLine
 10
1571.407959960066
 20
44.92551960523463
 30
0.0
 11
1557.863812979895
 21
44.92551960523463
 31
0.0
  0
LINE
  5
46B3
330
1F
100
AcDbEntity
  8
LOGO
 62
     4
100
AcDbLine
 10
1571.407959960066
 20
33.22721372288183
 30
0.0
 11
1557.863812979895
 21
33.22721372288183
 31
0.0
  0
LINE
  5
46B4
330
1F
100
AcDbEntity
  8
LOGO
 62
     4
100
AcDbLine
 10
1557.863812979895
 20
44.92551960523463
 30
0.0
 11
1557.863812979895
 21
33.22721372288183
 31
0.0
  0
LINE
  5
46B5
330
1F
100
AcDbEntity
  8
LOGO
 62
     4
100
AcDbLine
 10
1571.407959960066
 20
44.92551960523463
 30
0.0
 11
1571.407959960066
 21
33.22721372288183
 31
0.0
  0
LINE
  5
46B6
330
1F
100
AcDbEntity
  8
LOGO
 62
     4
100
AcDbLine
 10
1563.656873174602
 20
33.22721372288183
 30
0.0
 11
1563.656873174602
 21
27.37806078170589
 31
0.0
  0
TEXT
  5
46B7
330
1F
100
AcDbEntity
  8
LOGO
  6
Continuous
 62
     7
100
AcDbText
 10
1559.56053240518
 20
35.66921797290155
 30
0.0
 40
6.825
  1
16
  7
CHINESET
100
AcDbText
  0
LINE
  5
46B8
330
1F
100
AcDbEntity
  8
LOGO
 62
     4
100
AcDbLine
 10
1572.353712332259
 20
27.37806078170589
 30
0.0
 11
1551.615864204431
 21
27.37806078170589
 31
0.0
  0
LINE
  5
46B9
330
1F
100
AcDbEntity
  8
LOGO
  6
Continuous
 62
     7
100
AcDbLine
 10
1573.254348066862
 20
39.03492941585384
 30
0.0
 11
1578.419893092295
 21
39.03492941585384
 31
0.0
  0
LINE
  5
46BA
330
1F
100
AcDbEntity
  8
LOGO
 62
     4
100
AcDbLine
 10
1598.574301557824
 20
27.37806078170589
 30
0.0
 11
1598.574301557824
 21
13.08013136994041
 31
0.0
  0
LINE
  5
46BB
330
1F
100
AcDbEntity
  8
LOGO
 62
     4
100
AcDbLine
 10
1577.396223561903
 20
27.37806078170589
 30
0.0
 11
1577.396223561903
 21
13.08013136994041
 31
0.0
  0
LINE
  5
46BC
330
1F
100
AcDbEntity
  8
LOGO
 62
     4
100
AcDbLine
 10
1598.574301557824
 20
13.08013136994041
 30
0.0
 11
1577.396223561903
 21
13.08013136994041
 31
0.0
  0
LINE
  5
46BD
330
1F
100
AcDbEntity
  8
LOGO
 62
     4
100
AcDbLine
 10
1596.013748271772
 20
44.92551960523463
 30
0.0
 11
1580.598173100914
 21
44.92551960523463
 31
0.0
  0
LINE
  5
46BE
330
1F
100
AcDbEntity
  8
LOGO
 62
     4
100
AcDbLine
 10
1596.013748271772
 20
33.22721372288183
 30
0.0
 11
1580.598173100914
 21
33.22721372288183
 31
0.0
  0
LINE
  5
46BF
330
1F
100
AcDbEntity
  8
LOGO
 62
     4
100
AcDbLine
 10
1580.598173100914
 20
44.92551960523463
 30
0.0
 11
1580.598173100914
 21
33.22721372288183
 31
0.0
  0
LINE
  5
46C0
330
1F
100
AcDbEntity
  8
LOGO
 62
     4
100
AcDbLine
 10
1596.013748271772
 20
44.92551960523463
 30
0.0
 11
1596.013748271772
 21
33.22721372288183
 31
0.0
  0
LINE
  5
46C1
330
1F
100
AcDbEntity
  8
LOGO
 62
     4
100
AcDbLine
 10
1588.305960686343
 20
33.22721372288183
 30
0.0
 11
1588.305960686343
 21
27.37806078170589
 31
0.0
  0
TEXT
  5
46C2
330
1F
100
AcDbEntity
  8
LOGO
  6
Continuous
 62
     7
100
AcDbText
 10
1586.713517821583
 20
35.66921797290155
 30
0.0
 40
6.825
  1
*
  7
CHINESET
100
AcDbText
  0
LINE
  5
46C3
330
1F
100
AcDbEntity
  8
LOGO
 62
     4
100
AcDbLine
 10
1598.574301557824
 20
27.37806078170589
 30
0.0
 11
1577.396223561903
 21
27.37806078170589
 31
0.0
  0
TEXT
  5
46C6
330
1F
100
AcDbEntity
  8
LOGO
  6
Continuous
100
AcDbText
 10
1553.738346922077
 20
15.09825378694744
 30
255.5625652320971
 40
2.925
  1
Tube I.D.
 41
0.8
  7
CHINESET
100
AcDbText
  0
TEXT
  5
46C7
330
1F
100
AcDbEntity
  8
LOGO
100
AcDbText
 10
1555.662499943523
 20
20.5205734044558
 30
255.5625652320971
 40
4.875
  1
內徑
  7
CHINESET
100
AcDbText
  0
TEXT
  5
46C8
330
1F
100
AcDbEntity
  8
LOGO
  6
Continuous
100
AcDbText
 10
1582.977722605054
 20
15.09825378694744
 30
255.5625652320971
 40
2.925
  1
Stroke
 41
0.8
  7
CHINESET
100
AcDbText
  0
TEXT
  5
46C9
330
1F
100
AcDbEntity
  8
LOGO
100
AcDbText
 10
1582.774912720336
 20
20.5205734044558
 30
255.5625652320971
 40
4.875
  1
行程
  7
CHINESET
100
AcDbText
  0
TEXT
  5
46D6
330
1F
100
AcDbEntity
  8
LOGO
100
AcDbText
 10
1466.994522396233
 20
11.90508614382244
 30
0.0
 40
3.9
  1
10701170
 41
0.7
  7
CHINESET
 72
     1
 11
1476.224522396233
 21
11.90508614382244
 31
0.0
100
AcDbText
  0
LINE
  5
46D7
330
1F
100
AcDbEntity
  8
LOGO
 62
     4
100
AcDbLine
 10
1488.327777993317
 20
17.62947254641203
 30
0.0
 11
1488.327777993319
 21
9.830601958176245
 31
0.0
  0
LINE
  5
46D8
330
1F
100
AcDbEntity
  8
LOGO
 62
     4
100
AcDbLine
 10
1488.327777993317
 20
17.62947254641203
 30
0.0
 11
1464.927777993319
 21
17.62947254641203
 31
0.0
  0
CIRCLE
  5
46D9
330
1F
100
AcDbEntity
  8
LOGO
  6
Continuous
100
AcDbCircle
 10
1446.151834879916
 20
37.1349899376291
 30
0.0
 40
2.264103914125231
  0
CIRCLE
  5
46DA
330
1F
100
AcDbEntity
  8
LOGO
  6
Continuous
100
AcDbCircle
 10
1446.151834879916
 20
37.1349899376291
 30
0.0
 40
1.326564463897914
  0
LINE
  5
46DB
330
1F
100
AcDbEntity
  8
LOGO
100
AcDbLine
 10
1460.379726591788
 20
34.87088602350343
 30
0.0
 11
1460.379726591788
 21
39.39909385175477
 31
0.0
  0
LINE
  5
46DC
330
1F
100
AcDbEntity
  8
LOGO
100
AcDbLine
 10
1453.281890786771
 20
35.80842547373142
 30
0.0
 11
1453.281890786771
 21
38.46155440152723
 31
0.0
  0
LINE
  5
46DD
330
1F
100
AcDbEntity
  8
LOGO
  6
Continuous
100
AcDbLine
 10
1453.281890786771
 20
38.46155440152723
 30
0.0
 11
1460.379726591788
 21
39.39909385175477
 31
0.0
  0
LINE
  5
46DE
330
1F
100
AcDbEntity
  8
LOGO
  6
Continuous
100
AcDbLine
 10
1453.281890786771
 20
35.80842547373142
 30
0.0
 11
1460.379726591788
 21
34.87088602350343
 31
0.0
  0
LINE
  5
46DF
330
1F
100
AcDbEntity
  8
LOGO
  6
AM_ISO08W050x2
 48
0.3
100
AcDbLine
 10
1443.030733732008
 20
37.1349899376291
 30
0.0
 11
1449.272936027824
 21
37.1349899376291
 31
0.0
1001
GENIUS_GENOREF_13
1005
46E4
  0
LINE
  5
46E0
330
1F
100
AcDbEntity
  8
LOGO
  6
AM_ISO08W050x2
 48
0.3
100
AcDbLine
 10
1446.151834879916
 20
34.01388878972099
 30
0.0
 11
1446.151834879916
 21
40.25609108553719
 31
0.0
1001
GENIUS_GENOREF_13
1005
46E3
  0
LINE
  5
46E1
330
1F
100
AcDbEntity
  8
LOGO
  6
CENTER
 48
0.5
100
AcDbLine
 10
1452.714261205793
 20
37.1349899376291
 30
0.0
 11
1461.094455680474
 21
37.1349899376291
 31
0.0
1001
GENIUS_GENOREF_13
1005
46E2
  0
POINT
  5
46E2
330
1F
100
AcDbEntity
  8
0
 60
     1
100
AcDbPoint
 10
-1205.831745533407
 20
-871.4447039898473
 30
0.0
1001
GENIUS_GENOBJ-N-CRS_13
1002
{
1000
OWNER
1000
GEN
1002
}
1001
GENIUS_GENOLIS_13
1002
{
1000
ENT
1005
0
1005
0
1005
0
1005
46E1
1002
}
1001
GENIUS_GENOENT_13
1002
{
1000
MYREF
1005
46E2
1002
}
1002
{
1000
GRP
1005
0
1002
}
1001
GENIUS_GENODEF_13
1002
{
1000
HIER
1070
    10
1002
}
1002
{
1000
MANEDIT
1070
     1
1002
}
1002
{
1000
NOSEL
1070
     0
1002
}
1002
{
1000
BEHIND
1070
     0
1002
}
1002
{
1000
OTHER
1070
     0
1002
}
1002
{
1000
REACTOR
1002
}
  0
POINT
  5
46E3
330
1F
100
AcDbEntity
  8
0
 60
     1
100
AcDbPoint
 10
-1217.156330756262
 20
-862.5691175112111
 30
0.0
1001
GENIUS_GENOBJ-N-CRS_13
1002
{
1000
OWNER
1000
GEN
1002
}
1001
GENIUS_GENOLIS_13
1002
{
1000
ENT
1005
0
1005
0
1005
0
1005
46E0
1002
}
1001
GENIUS_GENOENT_13
1002
{
1000
MYREF
1005
46E3
1002
}
1002
{
1000
GRP
1005
0
1002
}
1001
GENIUS_GENODEF_13
1002
{
1000
HIER
1070
    10
1002
}
1002
{
1000
MANEDIT
1070
     1
1002
}
1002
{
1000
NOSEL
1070
     0
1002
}
1002
{
1000
BEHIND
1070
     0
1002
}
1002
{
1000
OTHER
1070
     0
1002
}
1002
{
1000
REACTOR
1002
}
  0
POINT
  5
46E4
330
1F
100
AcDbEntity
  8
0
 60
     1
100
AcDbPoint
 10
-1210.797657058425
 20
-871.4447039898473
 30
0.0
1001
GENIUS_GENOBJ-N-CRS_13
1002
{
1000
OWNER
1000
GEN
1002
}
1001
GENIUS_GENOLIS_13
1002
{
1000
ENT
1005
0
1005
0
1005
0
1005
46DF
1002
}
1001
GENIUS_GENOENT_13
1002
{
1000
MYREF
1005
46E4
1002
}
1002
{
1000
GRP
1005
0
1002
}
1001
GENIUS_GENODEF_13
1002
{
1000
HIER
1070
    10
1002
}
1002
{
1000
MANEDIT
1070
     1
1002
}
1002
{
1000
NOSEL
1070
     0
1002
}
1002
{
1000
BEHIND
1070
     0
1002
}
1002
{
1000
OTHER
1070
     0
1002
}
1002
{
1000
REACTOR
1002
}
  0
ARC
  5
565C
330
1F
100
AcDbEntity
  8
AM_4
100
AcDbCircle
 10
1444.505601793071
 20
210.0632268376446
 30
0.0
 40
2.0
100
AcDbArc
 50
259.9999999999948
 51
189.9999999999958
  0
ARC
  5
565D
330
1F
100
AcDbEntity
  8
AM_4
100
AcDbCircle
 10
1460.505601793071
 20
210.0632268376446
 30
0.0
 40
2.0
100
AcDbArc
 50
259.9999999999948
 51
189.9999999999958
  0
ARC
  5
565E
330
1F
100
AcDbEntity
  8
AM_4
100
AcDbCircle
 10
1444.505601793071
 20
236.0632268376447
 30
0.0
 40
2.0
100
AcDbArc
 50
259.9999999999948
 51
189.9999999999958
  0
ARC
  5
565F
330
1F
100
AcDbEntity
  8
AM_4
100
AcDbCircle
 10
1460.505601793071
 20
236.0632268376447
 30
0.0
 40
2.0
100
AcDbArc
 50
259.9999999999948
 51
189.9999999999958
  0
ARC
  5
5660
330
1F
100
AcDbEntity
  8
AM_4
100
AcDbCircle
 10
1452.505601793071
 20
223.0632268376447
 30
0.0
 40
2.049999999999999
100
AcDbArc
 50
350.0000000000042
 51
280.0000000000052
  0
ARC
  5
5661
330
1F
100
AcDbEntity
  8
AM_4
100
AcDbCircle
 10
1564.39603567984
 20
236.5632268376447
 30
0.0
 40
2.5
100
AcDbArc
 50
259.9999999999948
 51
189.9999999999958
  0
ARC
  5
5662
330
1F
100
AcDbEntity
  8
AM_4
100
AcDbCircle
 10
1614.39603567984
 20
236.5632268376447
 30
0.0
 40
2.5
100
AcDbArc
 50
259.9999999999948
 51
189.9999999999958
  0
ARC
  5
5663
330
1F
100
AcDbEntity
  8
AM_4
100
AcDbCircle
 10
1559.39603567984
 20
327.4368189448734
 30
0.0
 40
2.0
100
AcDbArc
 50
259.9999999999948
 51
189.9999999999958
  0
ARC
  5
5664
330
1F
100
AcDbEntity
  8
AM_4
100
AcDbCircle
 10
1579.39603567984
 20
327.4368189448734
 30
0.0
 40
2.0
100
AcDbArc
 50
259.9999999999948
 51
189.9999999999958
  0
ARC
  5
5665
330
1F
100
AcDbEntity
  8
AM_4
100
AcDbCircle
 10
1599.39603567984
 20
327.4368189448734
 30
0.0
 40
2.0
100
AcDbArc
 50
259.9999999999948
 51
189.9999999999958
  0
ARC
  5
5666
330
1F
100
AcDbEntity
  8
AM_4
100
AcDbCircle
 10
1559.39603567984
 20
343.4368189448735
 30
0.0
 40
2.0
100
AcDbArc
 50
259.9999999999948
 51
189.9999999999958
  0
ARC
  5
5667
330
1F
100
AcDbEntity
  8
AM_4
100
AcDbCircle
 10
1579.39603567984
 20
343.4368189448735
 30
0.0
 40
2.0
100
AcDbArc
 50
259.9999999999948
 51
189.9999999999958
  0
ARC
  5
5668
330
1F
100
AcDbEntity
  8
AM_4
100
AcDbCircle
 10
1599.39603567984
 20
343.4368189448735
 30
0.0
 40
2.0
100
AcDbArc
 50
259.9999999999948
 51
189.9999999999958
  0
ARC
  5
5669
330
1F
100
AcDbEntity
  8
AM_4
100
AcDbCircle
 10
1621.39603567984
 20
92.01215325498157
 30
0.0
 40
2.0
100
AcDbArc
 50
259.9999999999948
 51
189.9999999999958
  0
ARC
  5
566A
330
1F
100
AcDbEntity
  8
AM_4
100
AcDbCircle
 10
1621.39603567984
 20
109.0121532549815
 30
0.0
 40
2.0
100
AcDbArc
 50
259.9999999999948
 51
189.9999999999958
  0
ARC
  5
566B
330
1F
100
AcDbEntity
  8
AM_4
100
AcDbCircle
 10
1571.39603567984
 20
92.01215325498157
 30
0.0
 40
2.0
100
AcDbArc
 50
259.9999999999948
 51
189.9999999999958
  0
ARC
  5
566C
330
1F
100
AcDbEntity
  8
AM_4
100
AcDbCircle
 10
1571.39603567984
 20
109.0121532549815
 30
0.0
 40
2.0
100
AcDbArc
 50
259.9999999999948
 51
189.9999999999958
  0
ARC
  5
566D
330
1F
100
AcDbEntity
  8
AM_4
100
AcDbCircle
 10
1748.249884633002
 20
235.5632268376447
 30
0.0
 40
2.5
100
AcDbArc
 50
259.9999999999948
 51
189.9999999999958
  0
ARC
  5
566E
330
1F
100
AcDbEntity
  8
AM_4
100
AcDbCircle
 10
1748.249884633002
 20
210.5632268376447
 30
0.0
 40
2.5
100
AcDbArc
 50
259.9999999999948
 51
189.9999999999958
  0
ARC
  5
566F
330
1F
100
AcDbEntity
  8
AM_4
100
AcDbCircle
 10
1756.749884633002
 20
209.5632268376447
 30
0.0
 40
2.0
100
AcDbArc
 50
259.9999999999948
 51
189.9999999999958
  0
ARC
  5
5670
330
1F
100
AcDbEntity
  8
AM_4
100
AcDbCircle
 10
1756.749884633002
 20
236.5632268376447
 30
0.0
 40
2.0
100
AcDbArc
 50
259.9999999999948
 51
189.9999999999958
  0
ARC
  5
5671
330
1F
100
AcDbEntity
  8
AM_4
100
AcDbCircle
 10
1739.749884633002
 20
209.5632268376447
 30
0.0
 40
2.0
100
AcDbArc
 50
259.9999999999948
 51
189.9999999999958
  0
ARC
  5
5672
330
1F
100
AcDbEntity
  8
AM_4
100
AcDbCircle
 10
1739.749884633002
 20
236.5632268376447
 30
0.0
 40
2.0
100
AcDbArc
 50
259.9999999999948
 51
189.9999999999958
  0
LINE
  5
5673
330
1F
100
AcDbEntity
  8
AM_VIS
100
AcDbLine
 10
1465.005601793072
 20
227.3632268376446
 30
0.0
 11
1464.505601793072
 21
227.3632268376446
 31
0.0
  0
LINE
  5
5674
330
1F
100
AcDbEntity
  8
AM_VIS
100
AcDbLine
 10
1464.505601793072
 20
230.7632268376447
 30
0.0
 11
1465.005601793072
 21
230.7632268376447
 31
0.0
  0
LINE
  5
5675
330
1F
100
AcDbEntity
  8
AM_VIS
100
AcDbLine
 10
1440.005601793072
 20
230.7632268376447
 30
0.0
 11
1440.505601793072
 21
230.7632268376447
 31
0.0
  0
LINE
  5
5676
330
1F
100
AcDbEntity
  8
AM_VIS
100
AcDbLine
 10
1440.505601793072
 20
227.3632268376446
 30
0.0
 11
1440.005601793072
 21
227.3632268376446
 31
0.0
  0
LINE
  5
5677
330
1F
100
AcDbEntity
  8
AM_VIS
100
AcDbLine
 10
1465.005601793072
 20
227.3632268376446
 30
0.0
 11
1465.005601793072
 21
218.7632268376446
 31
0.0
  0
LINE
  5
5678
330
1F
100
AcDbEntity
  8
AM_VIS
100
AcDbLine
 10
1440.005601793072
 20
218.7632268376447
 30
0.0
 11
1440.005601793072
 21
227.3632268376447
 31
0.0
  0
LINE
  5
5679
330
1F
100
AcDbEntity
  8
AM_VIS
100
AcDbLine
 10
1440.005601793072
 20
230.7632268376447
 30
0.0
 11
1440.005601793072
 21
247.5632268376447
 31
0.0
  0
LINE
  5
567A
330
1F
100
AcDbEntity
  8
AM_VIS
100
AcDbLine
 10
1465.005601793072
 20
215.3632268376446
 30
0.0
 11
1464.505601793072
 21
215.3632268376446
 31
0.0
  0
LINE
  5
567B
330
1F
100
AcDbEntity
  8
AM_VIS
100
AcDbLine
 10
1464.505601793072
 20
218.7632268376447
 30
0.0
 11
1465.005601793072
 21
218.7632268376447
 31
0.0
  0
LINE
  5
567C
330
1F
100
AcDbEntity
  8
AM_VIS
100
AcDbLine
 10
1440.005601793072
 20
218.7632268376447
 30
0.0
 11
1440.505601793072
 21
218.7632268376447
 31
0.0
  0
LINE
  5
567D
330
1F
100
AcDbEntity
  8
AM_VIS
100
AcDbLine
 10
1440.505601793072
 20
215.3632268376446
 30
0.0
 11
1440.005601793072
 21
215.3632268376446
 31
0.0
  0
LINE
  5
567E
330
1F
100
AcDbEntity
  8
AM_VIS
100
AcDbLine
 10
1465.005601793072
 20
215.3632268376446
 30
0.0
 11
1465.005601793072
 21
204.0632268376447
 31
0.0
  0
LINE
  5
567F
330
1F
100
AcDbEntity
  8
AM_VIS
100
AcDbLine
 10
1465.005601793072
 20
247.5632268376447
 30
0.0
 11
1465.005601793072
 21
230.7632268376446
 31
0.0
  0
LINE
  5
5680
330
1F
100
AcDbEntity
  8
AM_VIS
100
AcDbLine
 10
1440.005601793072
 20
204.0632268376447
 30
0.0
 11
1440.005601793072
 21
215.3632268376447
 31
0.0
  0
LINE
  5
5681
330
1F
100
AcDbEntity
  8
AM_VIS
100
AcDbLine
 10
1464.505601793072
 20
247.5632268376447
 30
0.0
 11
1465.005601793072
 21
247.5632268376447
 31
0.0
  0
LINE
  5
5682
102
{ACAD_REACTORS
330
57D8
330
57E2
102
}
330
1F
100
AcDbEntity
  8
AM_VIS
100
AcDbLine
 10
1465.005601793072
 20
204.0632268376447
 30
0.0
 11
1440.005601793072
 21
204.0632268376447
 31
0.0
  0
LINE
  5
5683
330
1F
100
AcDbEntity
  8
AM_VIS
100
AcDbLine
 10
1440.005601793072
 20
247.5632268376447
 30
0.0
 11
1440.505601793072
 21
247.5632268376447
 31
0.0
  0
CIRCLE
  5
5684
330
1F
100
AcDbEntity
  8
AM_VIS
100
AcDbCircle
 10
1452.505601793071
 20
223.0632268376447
 30
0.0
 40
10.0
  0
CIRCLE
  5
5685
330
1F
100
AcDbEntity
  8
AM_VIS
100
AcDbCircle
 10
1460.505601793071
 20
236.0632268376447
 30
0.0
 40
1.649999999999999
  0
CIRCLE
  5
5686
330
1F
100
AcDbEntity
  8
AM_VIS
100
AcDbCircle
 10
1444.505601793071
 20
236.0632268376447
 30
0.0
 40
1.649999999999999
  0
CIRCLE
  5
5687
330
1F
100
AcDbEntity
  8
AM_VIS
100
AcDbCircle
 10
1460.505601793071
 20
210.0632268376446
 30
0.0
 40
1.649999999999999
  0
CIRCLE
  5
5688
330
1F
100
AcDbEntity
  8
AM_VIS
100
AcDbCircle
 10
1444.505601793071
 20
210.0632268376446
 30
0.0
 40
1.649999999999999
  0
LINE
  5
5689
330
1F
100
AcDbEntity
  8
AM_VIS
100
AcDbLine
 10
1440.505601793072
 20
205.0632268376447
 30
0.0
 11
1464.505601793072
 21
205.0632268376447
 31
0.0
  0
LINE
  5
568A
102
{ACAD_REACTORS
330
57DB
330
57DF
102
}
330
1F
100
AcDbEntity
  8
AM_VIS
100
AcDbLine
 10
1464.505601793072
 20
257.5632268376446
 30
0.0
 11
1464.505601793072
 21
205.0632268376447
 31
0.0
  0
LINE
  5
568B
330
1F
100
AcDbEntity
  8
AM_VIS
100
AcDbLine
 10
1440.505601793072
 20
257.5632268376446
 30
0.0
 11
1440.505601793072
 21
205.0632268376447
 31
0.0
  0
LINE
  5
568C
102
{ACAD_REACTORS
330
57E2
102
}
330
1F
100
AcDbEntity
  8
AM_VIS
100
AcDbLine
 10
1440.505601793071
 20
257.5632268376446
 30
0.0
 11
1464.505601793071
 21
257.5632268376446
 31
0.0
  0
CIRCLE
  5
568D
330
1F
100
AcDbEntity
  8
AM_VIS
100
AcDbCircle
 10
1452.505601793071
 20
223.0632268376448
 30
0.0
 40
2.649999999999999
  0
ARC
  5
568E
330
1F
100
AcDbEntity
  8
AM_VIS
100
AcDbCircle
 10
1452.505601793071
 20
223.0632268376448
 30
0.0
 40
6.499999999999991
100
AcDbArc
 50
180.0
 51
239.9999999999998
  0
ARC
  5
568F
330
1F
100
AcDbEntity
  8
AM_VIS
100
AcDbCircle
 10
1452.505601793071
 20
223.0632268376448
 30
0.0
 40
6.499999999999991
100
AcDbArc
 50
239.9999999999998
 51
300.0000000000001
  0
ARC
  5
5690
330
1F
100
AcDbEntity
  8
AM_VIS
100
AcDbCircle
 10
1452.505601793071
 20
223.0632268376448
 30
0.0
 40
6.499999999999991
100
AcDbArc
 50
300.0000000000001
 51
0.0
  0
ARC
  5
5691
330
1F
100
AcDbEntity
  8
AM_VIS
100
AcDbCircle
 10
1452.505601793071
 20
223.0632268376448
 30
0.0
 40
6.499999999999991
100
AcDbArc
 50
0.0
 51
180.0
  0
LINE
  5
5692
330
1F
100
AcDbEntity
  8
AM_VIS
100
AcDbLine
 10
1459.005601793071
 20
223.0632268376448
 30
0.0
 11
1459.005601793071
 21
226.8204500879121
 31
0.0
  0
LINE
  5
5693
330
1F
100
AcDbEntity
  8
AM_VIS
100
AcDbLine
 10
1459.005601793071
 20
226.8204500879121
 30
0.0
 11
1452.505601793071
 21
230.5732268376448
 31
0.0
  0
LINE
  5
5694
330
1F
100
AcDbEntity
  8
AM_VIS
100
AcDbLine
 10
1446.005601793071
 20
226.8204500879121
 30
0.0
 11
1452.505601793071
 21
230.5732268376448
 31
0.0
  0
LINE
  5
5695
330
1F
100
AcDbEntity
  8
AM_VIS
100
AcDbLine
 10
1446.005601793071
 20
223.0632268376448
 30
0.0
 11
1446.005601793071
 21
226.8204500879121
 31
0.0
  0
LINE
  5
5696
330
1F
100
AcDbEntity
  8
AM_VIS
100
AcDbLine
 10
1455.755601793071
 20
217.434061713046
 30
0.0
 11
1459.005601793071
 21
219.3104500879121
 31
0.0
  0
LINE
  5
5697
330
1F
100
AcDbEntity
  8
AM_VIS
100
AcDbLine
 10
1459.00560179307
 20
219.3104500879121
 30
0.0
 11
1459.00560179307
 21
223.0632268376448
 31
0.0
  0
LINE
  5
5698
330
1F
100
AcDbEntity
  8
AM_VIS
100
AcDbLine
 10
1452.505601793071
 20
215.5576733381797
 30
0.0
 11
1455.755601793071
 21
217.434061713046
 31
0.0
  0
LINE
  5
5699
330
1F
100
AcDbEntity
  8
AM_VIS
100
AcDbLine
 10
1452.505601793071
 20
215.5576733381797
 30
0.0
 11
1449.255601793071
 21
217.434061713046
 31
0.0
  0
LINE
  5
569A
330
1F
100
AcDbEntity
  8
AM_VIS
100
AcDbLine
 10
1449.255601793071
 20
217.434061713046
 30
0.0
 11
1446.005601793071
 21
219.3104500879121
 31
0.0
  0
LINE
  5
569B
330
1F
100
AcDbEntity
  8
AM_VIS
100
AcDbLine
 10
1446.005601793071
 20
219.3104500879121
 30
0.0
 11
1446.005601793071
 21
223.0632268376448
 31
0.0
  0
CIRCLE
  5
569C
330
1F
100
AcDbEntity
  8
AM_VIS
100
AcDbCircle
 10
1452.505601793071
 20
223.0632268376448
 30
0.0
 40
1.899999999999999
  0
LINE
  5
569D
330
1F
100
AcDbEntity
  8
AM_VIS
100
AcDbLine
 10
1559.39603567984
 20
247.5632268376447
 30
0.0
 11
1559.39603567984
 21
230.7632268376446
 31
0.0
  0
LINE
  5
569E
330
1F
100
AcDbEntity
  8
AM_VIS
100
AcDbLine
 10
1641.39603567984
 20
247.5632268376447
 30
0.0
 11
1559.39603567984
 21
247.5632268376447
 31
0.0
  0
LINE
  5
569F
102
{ACAD_REACTORS
330
5805
102
}
330
1F
100
AcDbEntity
  8
AM_VIS
100
AcDbLine
 10
1641.39603567984
 20
204.0632268376447
 30
0.0
 11
1559.39603567984
 21
204.0632268376447
 31
0.0
  0
LINE
  5
56A0
102
{ACAD_REACTORS
330
57F5
330
57FB
330
57FF
330
5802
102
}
330
1F
100
AcDbEntity
  8
AM_VIS
100
AcDbLine
 10
1559.39603567984
 20
215.3632268376446
 30
0.0
 11
1559.39603567984
 21
204.0632268376447
 31
0.0
  0
LINE
  5
56A1
330
1F
100
AcDbEntity
  8
AM_VIS
100
AcDbLine
 10
1641.39603567984
 20
215.3632268376446
 30
0.0
 11
1559.39603567984
 21
215.3632268376446
 31
0.0
  0
LINE
  5
56A2
330
1F
100
AcDbEntity
  8
AM_VIS
100
AcDbLine
 10
1559.39603567984
 20
216.6132268376447
 30
0.0
 11
1559.39603567984
 21
217.5132268376447
 31
0.0
  0
LINE
  5
56A3
330
1F
100
AcDbEntity
  8
AM_VIS
100
AcDbLine
 10
1641.39603567984
 20
230.7632268376446
 30
0.0
 11
1641.39603567984
 21
247.5632268376447
 31
0.0
  0
LINE
  5
56A4
102
{ACAD_REACTORS
330
5802
330
580E
330
5811
102
}
330
1F
100
AcDbEntity
  8
AM_VIS
100
AcDbLine
 10
1641.39603567984
 20
204.0632268376447
 30
0.0
 11
1641.39603567984
 21
215.3632268376446
 31
0.0
  0
LINE
  5
56A5
330
1F
100
AcDbEntity
  8
AM_VIS
100
AcDbLine
 10
1641.39603567984
 20
217.5132268376447
 30
0.0
 11
1641.39603567984
 21
216.6132268376447
 31
0.0
  0
LINE
  5
56A6
330
1F
100
AcDbEntity
  8
AM_VIS
100
AcDbLine
 10
1641.39603567984
 20
218.7632268376446
 30
0.0
 11
1641.39603567984
 21
227.3632268376446
 31
0.0
  0
LINE
  5
56A7
330
1F
100
AcDbEntity
  8
AM_VIS
100
AcDbLine
 10
1559.39603567984
 20
218.7632268376447
 30
0.0
 11
1641.39603567984
 21
218.7632268376447
 31
0.0
  0
LINE
  5
56A8
330
1F
100
AcDbEntity
  8
AM_VIS
100
AcDbLine
 10
1559.39603567984
 20
227.3632268376446
 30
0.0
 11
1559.39603567984
 21
218.7632268376446
 31
0.0
  0
LINE
  5
56A9
330
1F
100
AcDbEntity
  8
AM_VIS
100
AcDbLine
 10
1559.39603567984
 20
230.7632268376447
 30
0.0
 11
1641.39603567984
 21
230.7632268376447
 31
0.0
  0
LINE
  5
56AA
330
1F
100
AcDbEntity
  8
AM_VIS
100
AcDbLine
 10
1641.39603567984
 20
227.3632268376446
 30
0.0
 11
1559.39603567984
 21
227.3632268376446
 31
0.0
  0
LINE
  5
56AB
330
1F
100
AcDbEntity
  8
AM_VIS
100
AcDbLine
 10
1559.39603567984
 20
228.6132268376448
 30
0.0
 11
1559.39603567984
 21
229.5132268376447
 31
0.0
  0
LINE
  5
56AC
330
1F
100
AcDbEntity
  8
AM_VIS
100
AcDbLine
 10
1641.39603567984
 20
229.5132268376447
 30
0.0
 11
1641.39603567984
 21
228.6132268376448
 31
0.0
  0
CIRCLE
  5
56AD
330
1F
100
AcDbEntity
  8
AM_VIS
100
AcDbCircle
 10
1564.39603567984
 20
236.5632268376447
 30
0.0
 40
2.149999999999999
  0
CIRCLE
  5
56AE
330
1F
100
AcDbEntity
  8
AM_VIS
100
AcDbCircle
 10
1564.39603567984
 20
209.5632268376447
 30
0.0
 40
2.149999999999999
  0
CIRCLE
  5
56AF
330
1F
100
AcDbEntity
  8
AM_VIS
100
AcDbCircle
 10
1614.39603567984
 20
236.5632268376447
 30
0.0
 40
2.149999999999999
  0
CIRCLE
  5
56B0
330
1F
100
AcDbEntity
  8
AM_VIS
100
AcDbCircle
 10
1614.39603567984
 20
236.5632268376447
 30
0.0
 40
3.75
  0
CIRCLE
  5
56B1
330
1F
100
AcDbEntity
  8
AM_VIS
100
AcDbCircle
 10
1564.39603567984
 20
236.5632268376447
 30
0.0
 40
3.75
  0
CIRCLE
  5
56B2
330
1F
100
AcDbEntity
  8
AM_VIS
100
AcDbCircle
 10
1564.39603567984
 20
209.5632268376447
 30
0.0
 40
3.75
  0
LINE
  5
56B3
330
1F
100
AcDbEntity
  8
AM_VIS
100
AcDbLine
 10
1559.39603567984
 20
215.3632268376445
 30
0.0
 11
1559.39603567984
 21
216.6132268376446
 31
0.0
  0
LINE
  5
56B4
330
1F
100
AcDbEntity
  8
AM_VIS
100
AcDbLine
 10
1559.39603567984
 20
217.5132268376447
 30
0.0
 11
1559.39603567984
 21
218.7632268376448
 31
0.0
  0
LINE
  5
56B5
330
1F
100
AcDbEntity
  8
AM_VIS
100
AcDbLine
 10
1641.39603567984
 20
216.6132268376446
 30
0.0
 11
1641.39603567984
 21
215.3632268376445
 31
0.0
  0
LINE
  5
56B6
330
1F
100
AcDbEntity
  8
AM_VIS
100
AcDbLine
 10
1641.39603567984
 20
218.7632268376448
 30
0.0
 11
1641.39603567984
 21
217.5132268376447
 31
0.0
  0
LINE
  5
56B7
330
1F
100
AcDbEntity
  8
AM_VIS
100
AcDbLine
 10
1559.39603567984
 20
229.5132268376447
 30
0.0
 11
1559.39603567984
 21
230.7632268376448
 31
0.0
  0
LINE
  5
56B8
330
1F
100
AcDbEntity
  8
AM_VIS
100
AcDbLine
 10
1641.39603567984
 20
230.7632268376448
 30
0.0
 11
1641.39603567984
 21
229.5132268376447
 31
0.0
  0
LINE
  5
56B9
330
1F
100
AcDbEntity
  8
AM_VIS
100
AcDbLine
 10
1559.39603567984
 20
227.3632268376445
 30
0.0
 11
1559.39603567984
 21
228.6132268376446
 31
0.0
  0
LINE
  5
56BA
330
1F
100
AcDbEntity
  8
AM_VIS
100
AcDbLine
 10
1641.39603567984
 20
228.6132268376446
 30
0.0
 11
1641.39603567984
 21
227.3632268376445
 31
0.0
  0
LINE
  5
56BB
330
1F
100
AcDbEntity
  8
AM_VIS
100
AcDbLine
 10
1545.39603567984
 20
257.5632268376446
 30
0.0
 11
1545.39603567984
 21
205.0632268376447
 31
0.0
  0
LINE
  5
56BC
102
{ACAD_REACTORS
330
57F1
102
}
330
1F
100
AcDbEntity
  8
AM_VIS
100
AcDbLine
 10
1545.39603567984
 20
257.5632268376446
 30
0.0
 11
1633.39603567984
 21
257.5632268376446
 31
0.0
  0
LINE
  5
56BD
102
{ACAD_REACTORS
330
57F8
330
57FF
330
5805
102
}
330
1F
100
AcDbEntity
  8
AM_VIS
100
AcDbLine
 10
1545.39603567984
 20
205.0632268376447
 30
0.0
 11
1555.39603567984
 21
205.0632268376447
 31
0.0
  0
LINE
  5
56BE
102
{ACAD_REACTORS
330
57F8
102
}
330
1F
100
AcDbEntity
  8
AM_VIS
100
AcDbLine
 10
1555.39603567984
 20
246.0632268376447
 30
0.0
 11
1555.39603567984
 21
205.0632268376447
 31
0.0
  0
LINE
  5
56BF
330
1F
100
AcDbEntity
  8
AM_VIS
100
AcDbLine
 10
1633.39603567984
 20
257.5632268376446
 30
0.0
 11
1633.39603567984
 21
248.5632268376447
 31
0.0
  0
LINE
  5
56C0
330
1F
100
AcDbEntity
  8
AM_VIS
100
AcDbLine
 10
1558.89603567984
 20
248.5632268376447
 30
0.0
 11
1633.39603567984
 21
248.5632268376447
 31
0.0
  0
LINE
  5
56C1
102
{ACAD_REACTORS
330
57F1
102
}
330
1F
100
AcDbEntity
  8
AM_VIS
100
AcDbLine
 10
1558.89603567984
 20
248.5632268376447
 30
0.0
 11
1555.39603567984
 21
246.0632268376447
 31
0.0
  0
LINE
  5
56C2
330
1F
100
AcDbEntity
  8
AM_VIS
100
AcDbLine
 10
1555.576592263441
 20
94.02104625605119
 30
0.0
 11
1557.415479096239
 21
94.02104625605119
 31
0.0
  0
LINE
  5
56C3
330
1F
100
AcDbEntity
  8
AM_VIS
100
AcDbLine
 10
1555.576592263441
 20
100.5210462560512
 30
0.0
 11
1557.415479096239
 21
100.5210462560512
 31
0.0
  0
LINE
  5
56C4
330
1F
100
AcDbEntity
  8
AM_VIS
100
AcDbLine
 10
1555.576592263441
 20
107.0210462560512
 30
0.0
 11
1557.415479096239
 21
107.0210462560512
 31
0.0
  0
LINE
  5
56C5
330
1F
100
AcDbEntity
  8
AM_VIS
100
AcDbLine
 10
1555.39603567984
 20
94.02104625605119
 30
0.0
 11
1555.576592263441
 21
94.02104625605119
 31
0.0
  0
LINE
  5
56C6
330
1F
100
AcDbEntity
  8
AM_VIS
100
AcDbLine
 10
1555.393828587936
 20
94.60296612329802
 30
0.0
 11
1555.574563378627
 21
94.02041679849872
 31
0.0
  0
LINE
  5
56C7
330
1F
100
AcDbEntity
  8
AM_VIS
100
AcDbLine
 10
1555.393828587936
 20
101.102966123298
 30
0.0
 11
1555.574563378627
 21
100.5204167984987
 31
0.0
  0
LINE
  5
56C8
330
1F
100
AcDbEntity
  8
AM_VIS
100
AcDbLine
 10
1555.393828587936
 20
99.93912638880438
 30
0.0
 11
1555.574563378627
 21
100.5216757136036
 31
0.0
  0
LINE
  5
56C9
330
1F
100
AcDbEntity
  8
AM_VIS
100
AcDbLine
 10
1555.39603567984
 20
107.0210462560511
 30
0.0
 11
1555.576592263441
 21
107.0210462560511
 31
0.0
  0
LINE
  5
56CA
330
1F
100
AcDbEntity
  8
AM_VIS
100
AcDbLine
 10
1555.393828587936
 20
106.4391263888045
 30
0.0
 11
1555.574563378627
 21
107.0216757136036
 31
0.0
  0
LINE
  5
56CB
330
1F
100
AcDbEntity
  8
AM_VIS
100
AcDbLine
 10
1557.415479096239
 20
107.0210462560512
 30
0.0
 11
1557.99603567984
 21
107.0210462560512
 31
0.0
  0
SPLINE
  5
56CC
330
1F
100
AcDbEntity
  8
AM_VIS
100
AcDbSpline
210
0.0
220
0.0
230
1.0
 70
    12
 71
     2
 72
     6
 73
     3
 74
     0
 42
0.0000000001
 43
0.0000000001
 40
5.62072041351948
 40
5.62072041351948
 40
5.62072041351948
 40
9.665398020163607
 40
9.665398020163607
 40
9.665398020163607
 10
1557.99603567984
 20
103.7710462560511
 30
0.0
 41
1.0
 10
1557.99603567984
 20
105.2793765052487
 30
0.0
 41
1.053374490012287
 10
1557.41547909624
 20
107.0210462560517
 30
0.0
 41
1.029932277311701
  0
SPLINE
  5
56CD
330
1F
100
AcDbEntity
  8
AM_VIS
100
AcDbSpline
210
0.0
220
0.0
230
1.0
 70
    12
 71
     2
 72
     6
 73
     3
 74
     0
 42
0.0000000001
 43
0.0000000001
 40
1.576042806875375
 40
1.576042806875375
 40
1.576042806875375
 40
5.62072041351948
 40
5.62072041351948
 40
5.62072041351948
 10
1557.41547909624
 20
100.5210462560514
 30
0.0
 41
1.029932277311696
 10
1557.99603567984
 20
102.2627160068536
 30
0.0
 41
1.053374490012275
 10
1557.99603567984
 20
103.7710462560511
 30
0.0
 41
1.0
  0
SPLINE
  5
56CE
330
1F
100
AcDbEntity
  8
AM_VIS
100
AcDbSpline
210
-0.0000000000014298
220
-0.0000000000003326
230
1.0
 70
    12
 71
     2
 72
     6
 73
     3
 74
     0
 42
0.0000000001
 43
0.0000000001
 40
5.620720413519507
 40
5.620720413519507
 40
5.620720413519507
 40
9.665398020163657
 40
9.665398020163657
 40
9.665398020163657
 10
1557.99603567984
 20
97.27104625605107
 30
0.0
 41
1.0
 10
1557.996035679841
 20
98.77937650524895
 30
0.0
 41
1.053374490012322
 10
1557.41547909624
 20
100.5210462560512
 30
0.0000000000002274
 41
1.029932277311721
  0
LINE
  5
56CF
330
1F
100
AcDbEntity
  8
AM_VIS
100
AcDbLine
 10
1557.415479096239
 20
94.02104625605119
 30
0.0
 11
1557.99603567984
 21
94.02104625605119
 31
0.0
  0
SPLINE
  5
56D0
330
1F
100
AcDbEntity
  8
AM_VIS
100
AcDbSpline
210
0.0
220
0.0
230
1.0
 70
    12
 71
     2
 72
     6
 73
     3
 74
     0
 42
0.0000000001
 43
0.0000000001
 40
1.576042806875438
 40
1.576042806875438
 40
1.576042806875438
 40
5.620720413519507
 40
5.620720413519507
 40
5.620720413519507
 10
1557.41547909624
 20
94.02104625605131
 30
0.0
 41
1.029932277311673
 10
1557.996035679839
 20
95.76271600685279
 30
0.0
 41
1.053374490012233
 10
1557.99603567984
 20
97.27104625605107
 30
0.0
 41
1.0
  0
LINE
  5
56D1
330
1F
100
AcDbEntity
  8
AM_VIS
100
AcDbLine
 10
1557.99603567984
 20
94.02104625605108
 30
0.0
 11
1557.99603567984
 21
97.27104625605107
 31
0.0
  0
LINE
  5
56D2
330
1F
100
AcDbEntity
  8
AM_VIS
100
AcDbLine
 10
1557.99603567984
 20
97.27104625605107
 30
0.0
 11
1557.99603567984
 21
103.7710462560511
 31
0.0
  0
LINE
  5
56D3
330
1F
100
AcDbEntity
  8
AM_VIS
100
AcDbLine
 10
1557.99603567984
 20
103.7710462560511
 30
0.0
 11
1557.99603567984
 21
107.0210462560511
 31
0.0
  0
LINE
  5
56D4
330
1F
100
AcDbEntity
  8
AM_VIS
100
AcDbLine
 10
1558.14603567984
 20
221.0632268376447
 30
0.0
 11
1559.39603567984
 21
221.0632268376447
 31
0.0
  0
LINE
  5
56D5
330
1F
100
AcDbEntity
  8
AM_VIS
100
AcDbLine
 10
1558.14603567984
 20
225.0632268376447
 30
0.0
 11
1559.39603567984
 21
225.0632268376447
 31
0.0
  0
LINE
  5
56D6
330
1F
100
AcDbEntity
  8
AM_VIS
100
AcDbLine
 10
1558.14603567984
 20
225.4632268376446
 30
0.0
 11
1557.99603567984
 21
225.4632268376446
 31
0.0
  0
LINE
  5
56D7
330
1F
100
AcDbEntity
  8
AM_VIS
100
AcDbLine
 10
1558.14603567984
 20
220.6632268376447
 30
0.0
 11
1557.99603567984
 21
220.6632268376447
 31
0.0
  0
LINE
  5
56D8
330
1F
100
AcDbEntity
  8
AM_VIS
100
AcDbLine
 10
1558.14603567984
 20
225.4632268376446
 30
0.0
 11
1558.14603567984
 21
220.6632268376447
 31
0.0
  0
LINE
  5
56D9
330
1F
100
AcDbEntity
  8
AM_VIS
100
AcDbLine
 10
1601.996035679841
 20
248.5632268376447
 30
0.0
 11
1601.996035679841
 21
247.5632268376447
 31
0.0
  0
LINE
  5
56DA
330
1F
100
AcDbEntity
  8
AM_VIS
100
AcDbLine
 10
1632.796035679841
 20
247.5632268376446
 30
0.0
 11
1632.796035679841
 21
248.5632268376447
 31
0.0
  0
LINE
  5
56DB
330
1F
100
AcDbEntity
  8
AM_VIS
100
AcDbLine
 10
1559.39603567984
 20
347.9368189448734
 30
0.0
 11
1559.39603567984
 21
347.4368189448735
 31
0.0
  0
LINE
  5
56DC
330
1F
100
AcDbEntity
  8
AM_VIS
100
AcDbLine
 10
1559.39603567984
 20
323.4368189448734
 30
0.0
 11
1559.39603567984
 21
322.9368189448734
 31
0.0
  0
LINE
  5
56DD
330
1F
100
AcDbEntity
  8
AM_VIS
100
AcDbLine
 10
1633.39603567984
 20
345.7368189448734
 30
0.0
 11
1641.39603567984
 21
345.7368189448734
 31
0.0
  0
LINE
  5
56DE
330
1F
100
AcDbEntity
  8
AM_VIS
100
AcDbLine
 10
1641.39603567984
 20
325.1368189448735
 30
0.0
 11
1633.39603567984
 21
325.1368189448735
 31
0.0
  0
LINE
  5
56DF
330
1F
100
AcDbEntity
  8
AM_VIS
100
AcDbLine
 10
1640.39603567984
 20
339.9368189448734
 30
0.0
 11
1641.39603567984
 21
339.9368189448734
 31
0.0
  0
LINE
  5
56E0
330
1F
100
AcDbEntity
  8
AM_VIS
100
AcDbLine
 10
1641.39603567984
 20
330.9368189448735
 30
0.0
 11
1640.39603567984
 21
330.9368189448735
 31
0.0
  0
LINE
  5
56E1
330
1F
100
AcDbEntity
  8
AM_VIS
100
AcDbLine
 10
1641.39603567984
 20
322.9368189448734
 30
0.0
 11
1559.39603567984
 21
322.9368189448734
 31
0.0
  0
LINE
  5
56E2
330
1F
100
AcDbEntity
  8
AM_VIS
100
AcDbLine
 10
1641.39603567984
 20
347.9368189448734
 30
0.0
 11
1559.39603567984
 21
347.9368189448734
 31
0.0
  0
LINE
  5
56E3
330
1F
100
AcDbEntity
  8
AM_VIS
100
AcDbLine
 10
1641.39603567984
 20
322.9368189448734
 30
0.0
 11
1641.39603567984
 21
325.1368189448735
 31
0.0
  0
LINE
  5
56E4
330
1F
100
AcDbEntity
  8
AM_VIS
100
AcDbLine
 10
1641.39603567984
 20
330.9368189448735
 30
0.0
 11
1641.39603567984
 21
325.1368189448735
 31
0.0
  0
LINE
  5
56E5
330
1F
100
AcDbEntity
  8
AM_VIS
100
AcDbLine
 10
1641.39603567984
 20
339.9368189448734
 30
0.0
 11
1641.39603567984
 21
330.9368189448735
 31
0.0
  0
LINE
  5
56E6
330
1F
100
AcDbEntity
  8
AM_VIS
100
AcDbLine
 10
1641.39603567984
 20
345.7368189448736
 30
0.0
 11
1641.39603567984
 21
339.9368189448734
 31
0.0
  0
LINE
  5
56E7
330
1F
100
AcDbEntity
  8
AM_VIS
100
AcDbLine
 10
1641.39603567984
 20
345.7368189448734
 30
0.0
 11
1641.39603567984
 21
347.9368189448734
 31
0.0
  0
LINE
  5
56E8
330
1F
100
AcDbEntity
  8
AM_VIS
100
AcDbLine
 10
1545.39603567984
 20
347.4368189448737
 30
0.0
 11
1545.39603567984
 21
323.4368189448737
 31
0.0
  0
LINE
  5
56E9
102
{ACAD_REACTORS
330
57E5
330
57E9
102
}
330
1F
100
AcDbEntity
  8
AM_VIS
100
AcDbLine
 10
1633.39603567984
 20
347.4368189448735
 30
0.0
 11
1545.39603567984
 21
347.4368189448735
 31
0.0
  0
LINE
  5
56EA
102
{ACAD_REACTORS
330
57E9
330
57EC
102
}
330
1F
100
AcDbEntity
  8
AM_VIS
100
AcDbLine
 10
1545.39603567984
 20
323.4368189448734
 30
0.0
 11
1633.39603567984
 21
323.4368189448734
 31
0.0
  0
LINE
  5
56EB
102
{ACAD_REACTORS
330
57E5
102
}
330
1F
100
AcDbEntity
  8
AM_VIS
100
AcDbLine
 10
1633.39603567984
 20
323.4368189448734
 30
0.0
 11
1633.39603567984
 21
347.4368189448737
 31
0.0
  0
CIRCLE
  5
56EC
330
1F
100
AcDbEntity
  8
AM_VIS
100
AcDbCircle
 10
1559.39603567984
 20
327.4368189448734
 30
0.0
 40
1.649999999999999
  0
CIRCLE
  5
56ED
330
1F
100
AcDbEntity
  8
AM_VIS
100
AcDbCircle
 10
1579.39603567984
 20
327.4368189448734
 30
0.0
 40
1.649999999999999
  0
CIRCLE
  5
56EE
330
1F
100
AcDbEntity
  8
AM_VIS
100
AcDbCircle
 10
1599.39603567984
 20
327.4368189448734
 30
0.0
 40
1.649999999999999
  0
CIRCLE
  5
56EF
330
1F
100
AcDbEntity
  8
AM_VIS
100
AcDbCircle
 10
1559.39603567984
 20
343.4368189448735
 30
0.0
 40
1.649999999999999
  0
CIRCLE
  5
56F0
330
1F
100
AcDbEntity
  8
AM_VIS
100
AcDbCircle
 10
1579.39603567984
 20
343.4368189448735
 30
0.0
 40
1.649999999999999
  0
CIRCLE
  5
56F1
330
1F
100
AcDbEntity
  8
AM_VIS
100
AcDbCircle
 10
1599.39603567984
 20
343.4368189448735
 30
0.0
 40
1.649999999999999
  0
CIRCLE
  5
56F2
330
1F
100
AcDbEntity
  8
AM_VIS
100
AcDbCircle
 10
1612.39603567984
 20
327.9368189448734
 30
0.0
 40
3.0
  0
CIRCLE
  5
56F3
330
1F
100
AcDbEntity
  8
AM_VIS
100
AcDbCircle
 10
1622.39603567984
 20
327.9368189448734
 30
0.0
 40
3.0
  0
CIRCLE
  5
56F4
330
1F
100
AcDbEntity
  8
AM_VIS
100
AcDbCircle
 10
1612.39603567984
 20
342.9368189448734
 30
0.0
 40
3.0
  0
CIRCLE
  5
56F5
330
1F
100
AcDbEntity
  8
AM_VIS
100
AcDbCircle
 10
1622.39603567984
 20
342.9368189448734
 30
0.0
 40
3.0
  0
LINE
  5
56F6
330
1F
100
AcDbEntity
  8
AM_VIS
100
AcDbLine
 10
1640.39603567984
 20
330.9368189448735
 30
0.0
 11
1640.39603567984
 21
331.2368189448736
 31
0.0
  0
LINE
  5
56F7
330
1F
100
AcDbEntity
  8
AM_VIS
100
AcDbLine
 10
1633.39603567984
 20
330.9368189448735
 30
0.0
 11
1640.39603567984
 21
330.9368189448735
 31
0.0
  0
LINE
  5
56F8
330
1F
100
AcDbEntity
  8
AM_VIS
100
AcDbLine
 10
1640.39603567984
 20
331.2368189448736
 30
0.0
 11
1640.39603567984
 21
339.6368189448735
 31
0.0
  0
LINE
  5
56F9
330
1F
100
AcDbEntity
  8
AM_VIS
100
AcDbLine
 10
1640.39603567984
 20
331.2368189448736
 30
0.0
 11
1633.39603567984
 21
331.2368189448736
 31
0.0
  0
LINE
  5
56FA
330
1F
100
AcDbEntity
  8
AM_VIS
100
AcDbLine
 10
1640.39603567984
 20
339.9368189448734
 30
0.0
 11
1633.39603567984
 21
339.9368189448734
 31
0.0
  0
LINE
  5
56FB
330
1F
100
AcDbEntity
  8
AM_VIS
100
AcDbLine
 10
1640.39603567984
 20
339.6368189448735
 30
0.0
 11
1640.39603567984
 21
339.9368189448737
 31
0.0
  0
LINE
  5
56FC
330
1F
100
AcDbEntity
  8
AM_VIS
100
AcDbLine
 10
1633.39603567984
 20
339.6368189448735
 30
0.0
 11
1640.39603567984
 21
339.6368189448735
 31
0.0
  0
LINE
  5
56FD
330
1F
100
AcDbEntity
  8
AM_VIS
100
AcDbLine
 10
1559.39603567984
 20
113.0121532549814
 30
0.0
 11
1559.39603567984
 21
112.5121532549815
 31
0.0
  0
LINE
  5
56FE
330
1F
100
AcDbEntity
  8
AM_VIS
100
AcDbLine
 10
1559.39603567984
 20
112.5121532549814
 30
0.0
 11
1559.39603567984
 21
88.01215325498146
 31
0.0
  0
LINE
  5
56FF
330
1F
100
AcDbEntity
  8
AM_VIS
100
AcDbLine
 10
1641.39603567984
 20
88.01215325498146
 30
0.0
 11
1559.39603567984
 21
88.01215325498146
 31
0.0
  0
LINE
  5
5700
102
{ACAD_REACTORS
330
5808
102
}
330
1F
100
AcDbEntity
  8
AM_VIS
100
AcDbLine
 10
1641.39603567984
 20
113.0121532549814
 30
0.0
 11
1559.39603567984
 21
113.0121532549814
 31
0.0
  0
LINE
  5
5701
330
1F
100
AcDbEntity
  8
AM_VIS
100
AcDbLine
 10
1641.39603567984
 20
88.01215325498146
 30
0.0
 11
1641.39603567984
 21
113.0121532549814
 31
0.0
  0
CIRCLE
  5
5702
330
1F
100
AcDbEntity
  8
AM_VIS
100
AcDbCircle
 10
1621.39603567984
 20
92.01215325498145
 30
0.0
 40
1.649999999999999
  0
CIRCLE
  5
5703
330
1F
100
AcDbEntity
  8
AM_VIS
100
AcDbCircle
 10
1621.39603567984
 20
109.0121532549814
 30
0.0
 40
1.649999999999999
  0
CIRCLE
  5
5704
330
1F
100
AcDbEntity
  8
AM_VIS
100
AcDbCircle
 10
1571.39603567984
 20
92.01215325498145
 30
0.0
 40
1.649999999999999
  0
CIRCLE
  5
5705
330
1F
100
AcDbEntity
  8
AM_VIS
100
AcDbCircle
 10
1571.39603567984
 20
109.0121532549814
 30
0.0
 40
1.649999999999999
  0
CIRCLE
  5
5706
330
1F
100
AcDbEntity
  8
AM_VIS
100
AcDbCircle
 10
1575.39603567984
 20
100.5121532549814
 30
0.0
 40
0.6
  0
CIRCLE
  5
5707
330
1F
100
AcDbEntity
  8
AM_VIS
100
AcDbCircle
 10
1575.39603567984
 20
100.5121532549814
 30
0.0
 40
2.25
  0
LINE
  5
5708
330
1F
100
AcDbEntity
  8
AM_VIS
100
AcDbLine
 10
1555.39603567984
 20
88.51215325498145
 30
0.0
 11
1545.39603567984
 21
88.51215325498145
 31
0.0
  0
LINE
  5
5709
330
1F
100
AcDbEntity
  8
AM_VIS
100
AcDbLine
 10
1545.39603567984
 20
88.51215325498145
 30
0.0
 11
1545.39603567984
 21
112.5121532549814
 31
0.0
  0
LINE
  5
570A
330
1F
100
AcDbEntity
  8
AM_VIS
100
AcDbLine
 10
1545.39603567984
 20
112.5121532549814
 30
0.0
 11
1555.39603567984
 21
112.5121532549814
 31
0.0
  0
LINE
  5
570B
330
1F
100
AcDbEntity
  8
AM_VIS
100
AcDbLine
 10
1555.39603567984
 20
112.5121532549814
 30
0.0
 11
1555.39603567984
 21
88.51215325498145
 31
0.0
  0
LINE
  5
570C
330
1F
100
AcDbEntity
  8
AM_VIS
100
AcDbLine
 10
1559.39603567984
 20
88.51215325498145
 30
0.0
 11
1558.89603567984
 21
88.51215325498145
 31
0.0
  0
LINE
  5
570D
330
1F
100
AcDbEntity
  8
AM_VIS
100
AcDbLine
 10
1558.89603567984
 20
112.5121532549814
 30
0.0
 11
1559.39603567984
 21
112.5121532549814
 31
0.0
  0
LINE
  5
570E
330
1F
100
AcDbEntity
  8
AM_VIS
100
AcDbLine
 10
1558.89603567984
 20
88.51215325498145
 30
0.0
 11
1558.89603567984
 21
90.93973473562977
 31
0.0
  0
LINE
  5
570F
330
1F
100
AcDbEntity
  8
AM_VIS
100
AcDbLine
 10
1555.39603567984
 20
88.51215325498145
 30
0.0
 11
1558.89603567984
 21
88.51215325498145
 31
0.0
  0
LINE
  5
5710
330
1F
100
AcDbEntity
  8
AM_VIS
100
AcDbLine
 10
1558.89603567984
 20
112.5121532549814
 30
0.0
 11
1555.39603567984
 21
112.5121532549814
 31
0.0
  0
LINE
  5
5711
330
1F
100
AcDbEntity
  8
AM_VIS
100
AcDbLine
 10
1558.89603567984
 20
110.0845717743331
 30
0.0
 11
1558.89603567984
 21
112.5121532549814
 31
0.0
  0
ARC
  5
5712
330
1F
100
AcDbEntity
  8
AM_VIS
100
AcDbCircle
 10
1559.39603567984
 20
108.5121532549814
 30
0.0
 40
1.649999999999999
100
AcDbArc
 50
107.6397013942332
 51
252.3602986057668
  0
LINE
  5
5713
330
1F
100
AcDbEntity
  8
AM_VIS
100
AcDbLine
 10
1558.89603567984
 20
94.08457177433291
 30
0.0
 11
1558.89603567984
 21
98.51215325498145
 31
0.0
  0
LINE
  5
5714
330
1F
100
AcDbEntity
  8
AM_VIS
100
AcDbLine
 10
1558.89603567984
 20
102.5121532549814
 30
0.0
 11
1558.89603567984
 21
106.9397347356297
 31
0.0
  0
ARC
  5
5715
330
1F
100
AcDbEntity
  8
AM_VIS
100
AcDbCircle
 10
1559.39603567984
 20
92.51215325498145
 30
0.0
 40
1.649999999999999
100
AcDbArc
 50
107.6397013942332
 51
252.3602986057668
  0
ARC
  5
5716
330
1F
100
AcDbEntity
  8
AM_VIS
100
AcDbCircle
 10
1559.39603567984
 20
108.5121532549814
 30
0.0
 40
1.649999999999999
100
AcDbArc
 50
90.0
 51
107.6397013942332
  0
ARC
  5
5717
330
1F
100
AcDbEntity
  8
AM_VIS
100
AcDbCircle
 10
1559.39603567984
 20
108.5121532549814
 30
0.0
 40
1.649999999999999
100
AcDbArc
 50
252.3602986057668
 51
270.0
  0
ARC
  5
5718
330
1F
100
AcDbEntity
  8
AM_VIS
100
AcDbCircle
 10
1559.39603567984
 20
92.51215325498145
 30
0.0
 40
1.649999999999999
100
AcDbArc
 50
90.0
 51
107.6397013942332
  0
ARC
  5
5719
330
1F
100
AcDbEntity
  8
AM_VIS
100
AcDbCircle
 10
1559.39603567984
 20
92.51215325498145
 30
0.0
 40
1.649999999999999
100
AcDbArc
 50
252.3602986057668
 51
270.0
  0
LINE
  5
571A
330
1F
100
AcDbEntity
  8
AM_VIS
100
AcDbLine
 10
1558.14603567984
 20
98.51215325498145
 30
0.0
 11
1559.39603567984
 21
98.51215325498145
 31
0.0
  0
LINE
  5
571B
330
1F
100
AcDbEntity
  8
AM_VIS
100
AcDbLine
 10
1558.14603567984
 20
102.5121532549814
 30
0.0
 11
1559.39603567984
 21
102.5121532549814
 31
0.0
  0
LINE
  5
571C
330
1F
100
AcDbEntity
  8
AM_VIS
100
AcDbLine
 10
1558.14603567984
 20
102.9121532549815
 30
0.0
 11
1557.99603567984
 21
102.9121532549815
 31
0.0
  0
LINE
  5
571D
330
1F
100
AcDbEntity
  8
AM_VIS
100
AcDbLine
 10
1558.14603567984
 20
98.11215325498137
 30
0.0
 11
1557.99603567984
 21
98.11215325498137
 31
0.0
  0
LINE
  5
571E
330
1F
100
AcDbEntity
  8
AM_VIS
100
AcDbLine
 10
1558.14603567984
 20
102.9121532549815
 30
0.0
 11
1558.14603567984
 21
98.11215325498137
 31
0.0
  0
LINE
  5
571F
330
1F
100
AcDbEntity
  8
AM_VIS
100
AcDbLine
 10
1735.749884633002
 20
230.7632268376446
 30
0.0
 11
1735.749884633002
 21
247.5632268376447
 31
0.0
  0
LINE
  5
5720
330
1F
100
AcDbEntity
  8
AM_VIS
100
AcDbLine
 10
1735.749884633002
 20
247.5632268376447
 30
0.0
 11
1737.949884633002
 21
247.5632268376447
 31
0.0
  0
LINE
  5
5721
330
1F
100
AcDbEntity
  8
AM_VIS
100
AcDbLine
 10
1737.949884633002
 20
243.0632268376446
 30
0.0
 11
1737.949884633002
 21
247.5632268376447
 31
0.0
  0
LINE
  5
5722
330
1F
100
AcDbEntity
  8
AM_VIS
100
AcDbLine
 10
1743.749884633002
 20
243.0632268376446
 30
0.0
 11
1737.949884633002
 21
243.0632268376446
 31
0.0
  0
LINE
  5
5723
330
1F
100
AcDbEntity
  8
AM_VIS
100
AcDbLine
 10
1743.749884633002
 20
241.5632268376447
 30
0.0
 11
1743.749884633002
 21
243.0632268376446
 31
0.0
  0
LINE
  5
5724
330
1F
100
AcDbEntity
  8
AM_VIS
100
AcDbLine
 10
1752.749884633002
 20
241.5632268376447
 30
0.0
 11
1743.749884633002
 21
241.5632268376447
 31
0.0
  0
LINE
  5
5725
330
1F
100
AcDbEntity
  8
AM_VIS
100
AcDbLine
 10
1752.749884633002
 20
243.0632268376446
 30
0.0
 11
1752.749884633002
 21
241.5632268376447
 31
0.0
  0
LINE
  5
5726
330
1F
100
AcDbEntity
  8
AM_VIS
100
AcDbLine
 10
1758.549884633002
 20
243.0632268376446
 30
0.0
 11
1752.749884633002
 21
243.0632268376446
 31
0.0
  0
LINE
  5
5727
330
1F
100
AcDbEntity
  8
AM_VIS
100
AcDbLine
 10
1758.549884633002
 20
247.5632268376447
 30
0.0
 11
1758.549884633002
 21
243.0632268376446
 31
0.0
  0
LINE
  5
5728
330
1F
100
AcDbEntity
  8
AM_VIS
100
AcDbLine
 10
1758.549884633002
 20
247.5632268376447
 30
0.0
 11
1760.749884633002
 21
247.5632268376447
 31
0.0
  0
LINE
  5
5729
330
1F
100
AcDbEntity
  8
AM_VIS
100
AcDbLine
 10
1760.749884633002
 20
247.5632268376447
 30
0.0
 11
1760.749884633002
 21
230.7632268376447
 31
0.0
  0
LINE
  5
572A
330
1F
100
AcDbEntity
  8
AM_VIS
100
AcDbLine
 10
1760.749884633002
 20
227.3632268376447
 30
0.0
 11
1760.749884633002
 21
218.7632268376447
 31
0.0
  0
LINE
  5
572B
330
1F
100
AcDbEntity
  8
AM_VIS
100
AcDbLine
 10
1760.249884633002
 20
218.7632268376447
 30
0.0
 11
1760.749884633002
 21
218.7632268376447
 31
0.0
  0
LINE
  5
572C
330
1F
100
AcDbEntity
  8
AM_VIS
100
AcDbLine
 10
1759.749884633002
 20
219.2132268376446
 30
0.0
 11
1760.249884633002
 21
218.7632268376447
 31
0.0
  0
LINE
  5
572D
330
1F
100
AcDbEntity
  8
AM_VIS
100
AcDbLine
 10
1757.649884633002
 20
219.2132268376446
 30
0.0
 11
1759.749884633002
 21
219.2132268376446
 31
0.0
  0
LINE
  5
572E
330
1F
100
AcDbEntity
  8
AM_VIS
100
AcDbLine
 10
1755.949884633002
 20
216.6132268376446
 30
0.0
 11
1755.949884633002
 21
217.5132268376446
 31
0.0
  0
LINE
  5
572F
330
1F
100
AcDbEntity
  8
AM_VIS
100
AcDbLine
 10
1759.749884634552
 20
214.9132268376447
 30
0.0
 11
1757.649884633002
 21
214.9132268376447
 31
0.0
  0
LINE
  5
5730
330
1F
100
AcDbEntity
  8
AM_VIS
100
AcDbLine
 10
1760.249884633002
 20
215.3632268376446
 30
0.0
 11
1759.749884634552
 21
214.9132268376447
 31
0.0
  0
LINE
  5
5731
330
1F
100
AcDbEntity
  8
AM_VIS
100
AcDbLine
 10
1760.749884633002
 20
215.3632268376446
 30
0.0
 11
1760.249884633002
 21
215.3632268376446
 31
0.0
  0
LINE
  5
5732
330
1F
100
AcDbEntity
  8
AM_VIS
100
AcDbLine
 10
1760.749884633002
 20
215.3632268376447
 30
0.0
 11
1760.749884633002
 21
204.0632268376447
 31
0.0
  0
LINE
  5
5733
102
{ACAD_REACTORS
330
5823
102
}
330
1F
100
AcDbEntity
  8
AM_VIS
100
AcDbLine
 10
1760.749884633002
 20
204.0632268376447
 30
0.0
 11
1735.749884633002
 21
204.0632268376447
 31
0.0
  0
LINE
  5
5734
102
{ACAD_REACTORS
330
581F
102
}
330
1F
100
AcDbEntity
  8
AM_VIS
100
AcDbLine
 10
1735.749884633002
 20
204.0632268376447
 30
0.0
 11
1735.749884633002
 21
215.3632268376446
 31
0.0
  0
LINE
  5
5735
330
1F
100
AcDbEntity
  8
AM_VIS
100
AcDbLine
 10
1736.249884633002
 20
215.3632268376446
 30
0.0
 11
1735.749884633002
 21
215.3632268376446
 31
0.0
  0
LINE
  5
5736
330
1F
100
AcDbEntity
  8
AM_VIS
100
AcDbLine
 10
1736.749884633002
 20
214.9132268376447
 30
0.0
 11
1736.249884633002
 21
215.3632268376446
 31
0.0
  0
LINE
  5
5737
330
1F
100
AcDbEntity
  8
AM_VIS
100
AcDbLine
 10
1738.849884633002
 20
214.9132268376447
 30
0.0
 11
1736.749884633002
 21
214.9132268376447
 31
0.0
  0
LINE
  5
5738
330
1F
100
AcDbEntity
  8
AM_VIS
100
AcDbLine
 10
1740.549884633002
 20
217.5132268376447
 30
0.0
 11
1740.549884633002
 21
216.6132268376447
 31
0.0
  0
LINE
  5
5739
330
1F
100
AcDbEntity
  8
AM_VIS
100
AcDbLine
 10
1736.749884631451
 20
219.2132268376446
 30
0.0
 11
1738.849884633002
 21
219.2132268376446
 31
0.0
  0
LINE
  5
573A
330
1F
100
AcDbEntity
  8
AM_VIS
100
AcDbLine
 10
1736.249884633002
 20
218.7632268376446
 30
0.0
 11
1736.749884631451
 21
219.2132268376446
 31
0.0
  0
LINE
  5
573B
330
1F
100
AcDbEntity
  8
AM_VIS
100
AcDbLine
 10
1735.749884633002
 20
218.7632268376447
 30
0.0
 11
1736.249884633002
 21
218.7632268376447
 31
0.0
  0
LINE
  5
573C
330
1F
100
AcDbEntity
  8
AM_VIS
100
AcDbLine
 10
1735.749884633002
 20
218.7632268376446
 30
0.0
 11
1735.749884633002
 21
227.3632268376446
 31
0.0
  0
LINE
  5
573D
330
1F
100
AcDbEntity
  8
AM_VIS
100
AcDbLine
 10
1760.249884633002
 20
227.3632268376447
 30
0.0
 11
1759.749884634552
 21
226.9132268376447
 31
0.0
  0
LINE
  5
573E
330
1F
100
AcDbEntity
  8
AM_VIS
100
AcDbLine
 10
1760.749884633002
 20
227.3632268376446
 30
0.0
 11
1760.249884633002
 21
227.3632268376446
 31
0.0
  0
LINE
  5
573F
330
1F
100
AcDbEntity
  8
AM_VIS
100
AcDbLine
 10
1755.949884633002
 20
228.6132268376446
 30
0.0
 11
1755.949884633002
 21
229.5132268376446
 31
0.0
  0
LINE
  5
5740
330
1F
100
AcDbEntity
  8
AM_VIS
100
AcDbLine
 10
1759.749884634552
 20
226.9132268376447
 30
0.0
 11
1757.649884633002
 21
226.9132268376447
 31
0.0
  0
LINE
  5
5741
330
1F
100
AcDbEntity
  8
AM_VIS
100
AcDbLine
 10
1760.249884633002
 20
230.7632268376447
 30
0.0
 11
1760.749884633002
 21
230.7632268376447
 31
0.0
  0
LINE
  5
5742
330
1F
100
AcDbEntity
  8
AM_VIS
100
AcDbLine
 10
1759.749884633002
 20
231.2132268376446
 30
0.0
 11
1760.249884633002
 21
230.7632268376447
 31
0.0
  0
LINE
  5
5743
330
1F
100
AcDbEntity
  8
AM_VIS
100
AcDbLine
 10
1757.649884633002
 20
231.2132268376446
 30
0.0
 11
1759.749884633002
 21
231.2132268376446
 31
0.0
  0
LINE
  5
5744
330
1F
100
AcDbEntity
  8
AM_VIS
100
AcDbLine
 10
1736.749884631451
 20
231.2132268376446
 30
0.0
 11
1738.849884633002
 21
231.2132268376446
 31
0.0
  0
LINE
  5
5745
330
1F
100
AcDbEntity
  8
AM_VIS
100
AcDbLine
 10
1736.249884633002
 20
230.7632268376447
 30
0.0
 11
1736.749884631451
 21
231.2132268376446
 31
0.0
  0
LINE
  5
5746
330
1F
100
AcDbEntity
  8
AM_VIS
100
AcDbLine
 10
1735.749884633002
 20
230.7632268376447
 30
0.0
 11
1736.249884633002
 21
230.7632268376447
 31
0.0
  0
LINE
  5
5747
330
1F
100
AcDbEntity
  8
AM_VIS
100
AcDbLine
 10
1736.249884633002
 20
227.3632268376446
 30
0.0
 11
1735.749884633002
 21
227.3632268376446
 31
0.0
  0
LINE
  5
5748
330
1F
100
AcDbEntity
  8
AM_VIS
100
AcDbLine
 10
1736.749884633002
 20
226.9132268376447
 30
0.0
 11
1736.249884633002
 21
227.3632268376446
 31
0.0
  0
LINE
  5
5749
330
1F
100
AcDbEntity
  8
AM_VIS
100
AcDbLine
 10
1738.849884633002
 20
226.9132268376447
 30
0.0
 11
1736.749884633002
 21
226.9132268376447
 31
0.0
  0
LINE
  5
574A
330
1F
100
AcDbEntity
  8
AM_VIS
100
AcDbLine
 10
1740.549884633002
 20
229.5132268376447
 30
0.0
 11
1740.549884633002
 21
228.6132268376448
 31
0.0
  0
CIRCLE
  5
574B
330
1F
100
AcDbEntity
  8
AM_VIS
100
AcDbCircle
 10
1748.249884633002
 20
235.5632268376447
 30
0.0
 40
1.0
  0
CIRCLE
  5
574C
330
1F
100
AcDbEntity
  8
AM_VIS
100
AcDbCircle
 10
1748.249884633002
 20
210.5632268376447
 30
0.0
 40
1.5
  0
ARC
  5
574D
330
1F
100
AcDbEntity
  8
AM_VIS
100
AcDbCircle
 10
1757.649884633002
 20
217.5132268376447
 30
0.0
 40
1.7
100
AcDbArc
 50
90.0
 51
180.0
  0
ARC
  5
574E
330
1F
100
AcDbEntity
  8
AM_VIS
100
AcDbCircle
 10
1757.649884633002
 20
216.6132268376446
 30
0.0
 40
1.7
100
AcDbArc
 50
180.0
 51
270.0
  0
ARC
  5
574F
330
1F
100
AcDbEntity
  8
AM_VIS
100
AcDbCircle
 10
1738.849884633002
 20
216.6132268376446
 30
0.0
 40
1.7
100
AcDbArc
 50
270.0
 51
0.0
  0
ARC
  5
5750
330
1F
100
AcDbEntity
  8
AM_VIS
100
AcDbCircle
 10
1738.849884633002
 20
217.5132268376447
 30
0.0
 40
1.7
100
AcDbArc
 50
0.0
 51
90.0
  0
CIRCLE
  5
5751
330
1F
100
AcDbEntity
  8
AM_VIS
100
AcDbCircle
 10
1756.749884633002
 20
209.5632268376447
 30
0.0
 40
1.649999999999999
  0
CIRCLE
  5
5752
330
1F
100
AcDbEntity
  8
AM_VIS
100
AcDbCircle
 10
1756.749884633002
 20
236.5632268376447
 30
0.0
 40
1.649999999999999
  0
CIRCLE
  5
5753
330
1F
100
AcDbEntity
  8
AM_VIS
100
AcDbCircle
 10
1739.749884633002
 20
209.5632268376447
 30
0.0
 40
1.649999999999999
  0
CIRCLE
  5
5754
330
1F
100
AcDbEntity
  8
AM_VIS
100
AcDbCircle
 10
1739.749884633002
 20
236.5632268376447
 30
0.0
 40
1.649999999999999
  0
CIRCLE
  5
5755
330
1F
100
AcDbEntity
  8
AM_VIS
100
AcDbCircle
 10
1748.249884633002
 20
210.5632268376447
 30
0.0
 40
2.049999999999999
  0
CIRCLE
  5
5756
330
1F
100
AcDbEntity
  8
AM_VIS
100
AcDbCircle
 10
1748.249884633002
 20
235.5632268376447
 30
0.0
 40
2.049999999999999
  0
ARC
  5
5757
330
1F
100
AcDbEntity
  8
AM_VIS
100
AcDbCircle
 10
1757.649884633002
 20
228.6132268376446
 30
0.0
 40
1.7
100
AcDbArc
 50
180.0
 51
270.0
  0
ARC
  5
5758
330
1F
100
AcDbEntity
  8
AM_VIS
100
AcDbCircle
 10
1757.649884633002
 20
229.5132268376447
 30
0.0
 40
1.7
100
AcDbArc
 50
90.0
 51
180.0
  0
ARC
  5
5759
330
1F
100
AcDbEntity
  8
AM_VIS
100
AcDbCircle
 10
1738.849884633002
 20
229.5132268376447
 30
0.0
 40
1.7
100
AcDbArc
 50
0.0
 51
90.0
  0
ARC
  5
575A
330
1F
100
AcDbEntity
  8
AM_VIS
100
AcDbCircle
 10
1738.849884633002
 20
228.6132268376446
 30
0.0
 40
1.7
100
AcDbArc
 50
270.0
 51
0.0
  0
LINE
  5
575B
330
1F
100
AcDbEntity
  8
AM_VIS
100
AcDbLine
 10
1760.249884633002
 20
230.7632268376447
 30
0.0
 11
1760.249884633002
 21
227.3632268376446
 31
0.0
  0
LINE
  5
575C
330
1F
100
AcDbEntity
  8
AM_VIS
100
AcDbLine
 10
1760.249884633002
 20
218.7632268376447
 30
0.0
 11
1760.249884633002
 21
215.3632268376446
 31
0.0
  0
LINE
  5
575D
330
1F
100
AcDbEntity
  8
AM_VIS
100
AcDbLine
 10
1736.249884633002
 20
230.7632268376447
 30
0.0
 11
1736.249884633002
 21
227.3632268376446
 31
0.0
  0
LINE
  5
575E
330
1F
100
AcDbEntity
  8
AM_VIS
100
AcDbLine
 10
1736.249884633002
 20
218.7632268376447
 30
0.0
 11
1736.249884633002
 21
215.3632268376446
 31
0.0
  0
LINE
  5
575F
330
1F
100
AcDbEntity
  8
AM_VIS
100
AcDbLine
 10
1736.249884633002
 20
257.5632268376446
 30
0.0
 11
1736.249884633002
 21
248.5632268376447
 31
0.0
  0
LINE
  5
5760
330
1F
100
AcDbEntity
  8
AM_VIS
100
AcDbLine
 10
1736.249884633002
 20
257.5632268376446
 30
0.0
 11
1760.249884633002
 21
257.5632268376446
 31
0.0
  0
LINE
  5
5761
330
1F
100
AcDbEntity
  8
AM_VIS
100
AcDbLine
 10
1760.249884633002
 20
257.5632268376446
 30
0.0
 11
1760.249884633002
 21
248.5632268376447
 31
0.0
  0
LINE
  5
5762
330
1F
100
AcDbEntity
  8
AM_VIS
100
AcDbLine
 10
1738.249884633002
 20
248.5632268376447
 30
0.0
 11
1738.249884633002
 21
251.5632268376446
 31
0.0
  0
LINE
  5
5763
330
1F
100
AcDbEntity
  8
AM_VIS
100
AcDbLine
 10
1738.249884633002
 20
251.5632268376446
 30
0.0
 11
1758.249884633002
 21
251.5632268376446
 31
0.0
  0
LINE
  5
5764
330
1F
100
AcDbEntity
  8
AM_VIS
100
AcDbLine
 10
1758.249884633002
 20
251.5632268376446
 30
0.0
 11
1758.249884633002
 21
248.5632268376447
 31
0.0
  0
LINE
  5
5765
330
1F
100
AcDbEntity
  8
AM_VIS
100
AcDbLine
 10
1758.249884633002
 20
248.5632268376447
 30
0.0
 11
1760.249884633002
 21
248.5632268376447
 31
0.0
  0
LINE
  5
5766
330
1F
100
AcDbEntity
  8
AM_VIS
100
AcDbLine
 10
1736.249884633002
 20
248.5632268376447
 30
0.0
 11
1738.249884633002
 21
248.5632268376447
 31
0.0
  0
LINE
  5
5767
330
1F
100
AcDbEntity
  8
AM_VIS
100
AcDbLine
 10
1760.249884633002
 20
247.5632268376447
 30
0.0
 11
1760.249884633002
 21
248.5632268376447
 31
0.0
  0
LINE
  5
5768
330
1F
100
AcDbEntity
  8
AM_VIS
100
AcDbLine
 10
1737.949884633002
 20
246.0632268376447
 30
0.0
 11
1738.449884633002
 21
246.0632268376447
 31
0.0
  0
LINE
  5
5769
330
1F
100
AcDbEntity
  8
AM_VIS
100
AcDbLine
 10
1743.649884633002
 20
246.0632268376447
 30
0.0
 11
1744.149884633002
 21
246.0632268376447
 31
0.0
  0
LINE
  5
576A
330
1F
100
AcDbEntity
  8
AM_VIS
100
AcDbLine
 10
1752.349884633001
 20
246.0632268376447
 30
0.0
 11
1752.849884633002
 21
246.0632268376447
 31
0.0
  0
LINE
  5
576B
330
1F
100
AcDbEntity
  8
AM_VIS
100
AcDbLine
 10
1758.049884633001
 20
246.0632268376447
 30
0.0
 11
1758.549884633002
 21
246.0632268376447
 31
0.0
  0
LINE
  5
576C
330
1F
100
AcDbEntity
  8
AM_VIS
100
AcDbLine
 10
1736.249884633002
 20
248.5632268376447
 30
0.0
 11
1736.249884633002
 21
247.5632268376447
 31
0.0
  0
ARC
  5
576D
330
1F
100
AcDbEntity
  8
AM_VIS
100
AcDbCircle
 10
1748.249884633002
 20
223.0632268376447
 30
0.0
 40
10.0
100
AcDbArc
 50
202.6995556487239
 51
219.646111146975
  0
ARC
  5
576E
330
1F
100
AcDbEntity
  8
AM_VIS
100
AcDbCircle
 10
1748.249884633002
 20
223.0632268376447
 30
0.0
 40
10.0
100
AcDbArc
 50
140.353888853025
 51
157.3004443512761
  0
ARC
  5
576F
330
1F
100
AcDbEntity
  8
AM_VIS
100
AcDbCircle
 10
1748.249884633002
 20
223.0632268376447
 30
0.0
 40
10.0
100
AcDbArc
 50
22.69955564872392
 51
39.64611114697497
  0
ARC
  5
5770
330
1F
100
AcDbEntity
  8
AM_VIS
100
AcDbCircle
 10
1748.249884633002
 20
223.0632268376447
 30
0.0
 40
10.0
100
AcDbArc
 50
320.3538888530251
 51
337.3004443512761
  0
LINE
  5
5771
330
1F
100
AcDbEntity
  8
AM_VIS
100
AcDbLine
 10
1758.249884633002
 20
248.5632268376447
 30
0.0
 11
1758.049884633001
 21
248.5632268376447
 31
0.0
  0
LINE
  5
5772
330
1F
100
AcDbEntity
  8
AM_VIS
100
AcDbLine
 10
1738.449884633002
 20
248.5632268376447
 30
0.0
 11
1738.249884633002
 21
248.5632268376447
 31
0.0
  0
CIRCLE
  5
5773
330
1F
100
AcDbEntity
  8
AM_VIS
100
AcDbCircle
 10
1748.249884633002
 20
223.0632268376447
 30
0.0
 40
8.3
  0
LINE
  5
5774
102
{ACAD_REACTORS
330
581B
102
}
330
1F
100
AcDbEntity
  8
AM_VIS
100
AcDbLine
 10
1752.749884633002
 20
246.7632268376448
 30
0.0
 11
1752.749884633002
 21
246.2632268376448
 31
0.0
  0
LINE
  5
5775
330
1F
100
AcDbEntity
  8
AM_VIS
100
AcDbLine
 10
1752.749884633002
 20
245.2632268376448
 30
0.0
 11
1751.749884633002
 21
245.7632268376448
 31
0.0
  0
LINE
  5
5776
330
1F
100
AcDbEntity
  8
AM_VIS
100
AcDbLine
 10
1751.749884633002
 20
245.7632268376448
 30
0.0
 11
1752.749884633002
 21
246.2632268376448
 31
0.0
  0
LINE
  5
5777
330
1F
100
AcDbEntity
  8
AM_VIS
100
AcDbLine
 10
1743.749884633002
 20
243.0632268376448
 30
0.0
 11
1743.749884633002
 21
245.2632268376449
 31
0.0
  0
LINE
  5
5778
330
1F
100
AcDbEntity
  8
AM_VIS
100
AcDbLine
 10
1743.749884633002
 20
246.2632268376448
 30
0.0
 11
1744.749884633002
 21
245.7632268376448
 31
0.0
  0
LINE
  5
5779
330
1F
100
AcDbEntity
  8
AM_VIS
100
AcDbLine
 10
1744.749884633002
 20
245.7632268376448
 30
0.0
 11
1743.749884633002
 21
245.2632268376448
 31
0.0
  0
LINE
  5
577A
330
1F
100
AcDbEntity
  8
AM_VIS
100
AcDbLine
 10
1752.749884633002
 20
245.2632268376448
 30
0.0
 11
1752.749884633002
 21
243.0632268376446
 31
0.0
  0
LINE
  5
577B
330
1F
100
AcDbEntity
  8
AM_VIS
100
AcDbLine
 10
1752.749884633002
 20
241.8632268376447
 30
0.0
 11
1752.449884633002
 21
241.5632268376448
 31
0.0
  0
LINE
  5
577C
330
1F
100
AcDbEntity
  8
AM_VIS
100
AcDbLine
 10
1744.049884633002
 20
241.5632268376448
 30
0.0
 11
1743.749884633002
 21
241.8632268376447
 31
0.0
  0
LINE
  5
577D
330
1F
100
AcDbEntity
  8
AM_VIS
100
AcDbLine
 10
1743.749884633002
 20
246.2632268376448
 30
0.0
 11
1743.749884633002
 21
246.7632268376448
 31
0.0
  0
LINE
  5
577E
102
{ACAD_REACTORS
330
581B
102
}
330
1F
100
AcDbEntity
  8
AM_VIS
100
AcDbLine
 10
1743.749884633002
 20
246.7632268376448
 30
0.0
 11
1744.049884633002
 21
247.0632268376448
 31
0.0
  0
LINE
  5
577F
330
1F
100
AcDbEntity
  8
AM_VIS
100
AcDbLine
 10
1744.049884633002
 20
247.0632268376448
 30
0.0
 11
1752.449884633002
 21
247.0632268376448
 31
0.0
  0
LINE
  5
5780
330
1F
100
AcDbEntity
  8
AM_VIS
100
AcDbLine
 10
1752.449884633002
 20
247.0632268376448
 30
0.0
 11
1752.749884633002
 21
246.7632268376448
 31
0.0
  0
LINE
  5
5781
330
1F
100
AcDbEntity
  8
AM_VIS
100
AcDbLine
 10
1743.649884633002
 20
243.5632268376445
 30
0.0
 11
1738.449884633002
 21
243.5632268376445
 31
0.0
  0
LINE
  5
5782
330
1F
100
AcDbEntity
  8
AM_VIS
100
AcDbLine
 10
1738.449884633002
 20
243.5632268376445
 30
0.0
 11
1738.449884633002
 21
251.3632268376445
 31
0.0
  0
LINE
  5
5783
330
1F
100
AcDbEntity
  8
AM_VIS
100
AcDbLine
 10
1758.049884633001
 20
243.5632268376445
 30
0.0
 11
1752.849884633002
 21
243.5632268376445
 31
0.0
  0
LINE
  5
5784
330
1F
100
AcDbEntity
  8
AM_VIS
100
AcDbLine
 10
1752.849884633002
 20
247.0632268376446
 30
0.0
 11
1752.849884633002
 21
243.5632268376445
 31
0.0
  0
LINE
  5
5785
330
1F
100
AcDbEntity
  8
AM_VIS
100
AcDbLine
 10
1743.649884633002
 20
243.5632268376445
 30
0.0
 11
1743.649884633002
 21
247.0632268376446
 31
0.0
  0
LINE
  5
5786
330
1F
100
AcDbEntity
  8
AM_VIS
100
AcDbLine
 10
1743.649884633002
 20
247.0632268376446
 30
0.0
 11
1744.049884633002
 21
247.0632268376446
 31
0.0
  0
LINE
  5
5787
330
1F
100
AcDbEntity
  8
AM_VIS
100
AcDbLine
 10
1752.449884633002
 20
247.0632268376446
 30
0.0
 11
1752.849884633002
 21
247.0632268376446
 31
0.0
  0
LINE
  5
5788
330
1F
100
AcDbEntity
  8
AM_VIS
100
AcDbLine
 10
1738.449884633002
 20
251.3632268376445
 30
0.0
 11
1758.049884633001
 21
251.3632268376445
 31
0.0
  0
LINE
  5
5789
330
1F
100
AcDbEntity
  8
AM_VIS
100
AcDbLine
 10
1758.049884633001
 20
251.3632268376446
 30
0.0
 11
1758.049884633001
 21
243.5632268376445
 31
0.0
  0
LINE
  5
578A
330
1F
100
AcDbEntity
  8
AM_VIS
100
AcDbLine
 10
1738.249884633002
 20
249.5632268376446
 30
0.0
 11
1738.449884633002
 21
249.5632268376446
 31
0.0
  0
LINE
  5
578B
330
1F
100
AcDbEntity
  8
AM_VIS
100
AcDbLine
 10
1758.049884633001
 20
249.5632268376446
 30
0.0
 11
1758.249884633002
 21
249.5632268376446
 31
0.0
  0
LINE
  5
578C
330
1F
100
AcDbEntity
  8
AM_VIS
100
AcDbLine
 10
1745.749884633002
 20
251.3632268376445
 30
0.0
 11
1745.749884633002
 21
251.5632268376446
 31
0.0
  0
LINE
  5
578D
330
1F
100
AcDbEntity
  8
AM_VIS
100
AcDbLine
 10
1750.749884633002
 20
251.5632268376444
 30
0.0
 11
1750.749884633002
 21
251.3632268376445
 31
0.0
  0
LINE
  5
578E
330
1F
100
AcDbEntity
  8
DIM2
100
AcDbLine
 10
1718.328183781948
 20
98.06190759342001
 30
0.0
 11
1805.808183781948
 21
98.06190759342001
 31
0.0
  0
LINE
  5
578F
330
1F
100
AcDbEntity
  8
DIM2
100
AcDbLine
 10
1718.328183781948
 20
160.26990759342
 30
0.0
 11
1805.808183781948
 21
160.26990759342
 31
0.0
  0
LINE
  5
5790
330
1F
100
AcDbEntity
  8
DIM2
100
AcDbLine
 10
1718.328183781948
 20
105.8379075934199
 30
0.0
 11
1805.808183781948
 21
105.8379075934199
 31
0.0
  0
LINE
  5
5791
330
1F
100
AcDbEntity
  8
DIM2
100
AcDbLine
 10
1718.328183781948
 20
113.6139075934199
 30
0.0
 11
1805.808183781948
 21
113.6139075934201
 31
0.0
  0
LINE
  5
5792
330
1F
100
AcDbEntity
  8
DIM2
100
AcDbLine
 10
1718.328183781948
 20
121.38990759342
 30
0.0
 11
1805.808183781948
 21
121.38990759342
 31
0.0
  0
LINE
  5
5793
330
1F
100
AcDbEntity
  8
DIM2
100
AcDbLine
 10
1718.328183781948
 20
129.16590759342
 30
0.0
 11
1805.808183781948
 21
129.16590759342
 31
0.0
  0
LINE
  5
5794
330
1F
100
AcDbEntity
  8
DIM2
100
AcDbLine
 10
1718.328183781948
 20
136.9419075934201
 30
0.0
 11
1805.808183781948
 21
136.9419075934201
 31
0.0
  0
LINE
  5
5795
330
1F
100
AcDbEntity
  8
DIM2
100
AcDbLine
 10
1718.328183781948
 20
144.7179075934201
 30
0.0
 11
1805.808183781948
 21
144.7179075934201
 31
0.0
  0
LINE
  5
5796
330
1F
100
AcDbEntity
  8
DIM2
100
AcDbLine
 10
1718.328183781948
 20
160.26990759342
 30
0.0
 11
1718.328183781948
 21
74.73390759341999
 31
0.0
  0
LINE
  5
5797
330
1F
100
AcDbEntity
  8
DIM2
100
AcDbLine
 10
1732.908183781948
 20
160.26990759342
 30
0.0
 11
1732.908183781948
 21
74.73390759341999
 31
0.0
  0
TEXT
  5
5798
330
1F
100
AcDbEntity
  8
DIM2
100
AcDbText
 10
1723.100240924805
 20
107.7819075934201
 30
0.0
 40
3.888
  1
25
 41
0.8
  7
dayus
 72
     4
 11
1725.618183781948
 21
109.7259075934201
 31
0.0
100
AcDbText
  0
TEXT
  5
5799
330
1F
100
AcDbEntity
  8
DIM2
100
AcDbText
 10
1723.100240924805
 20
100.00590759342
 30
0.0
 40
3.888
  1
30
 41
0.8
  7
dayus
 72
     4
 11
1725.618183781948
 21
101.94990759342
 31
0.0
100
AcDbText
  0
TEXT
  5
579A
330
1F
100
AcDbEntity
  8
DIM2
100
AcDbText
 10
1723.100240924805
 20
115.55790759342
 30
0.0
 40
3.888
  1
20
 41
0.8
  7
dayus
 72
     4
 11
1725.618183781948
 21
117.50190759342
 31
0.0
100
AcDbText
  0
TEXT
  5
579B
330
1F
100
AcDbEntity
  8
DIM2
100
AcDbText
 10
1723.396469496234
 20
123.33390759342
 30
0.0
 40
3.888
  1
15
 41
0.8
  7
dayus
 72
     4
 11
1725.618183781948
 21
125.27790759342
 31
0.0
100
AcDbText
  0
TEXT
  5
579C
330
1F
100
AcDbEntity
  8
DIM2
100
AcDbText
 10
1719.194097995958
 20
150.4562668369528
 30
0.0
 40
3.5
  1
stroke
 41
0.8
  7
CHINESET
 72
     4
 11
1725.327431329291
 21
152.2062668369528
 31
0.0
100
AcDbText
  0
TEXT
  5
579D
330
1F
100
AcDbEntity
  8
DIM2
100
AcDbText
 10
1724.581383781948
 20
138.8859075934199
 30
0.0
 40
3.888
  1
5
 41
0.8
  7
dayus
 72
     4
 11
1725.618183781948
 21
140.8299075934199
 31
0.0
100
AcDbText
  0
TEXT
  5
579E
330
1F
100
AcDbEntity
  8
DIM2
100
AcDbText
 10
1723.396469496234
 20
131.10990759342
 30
0.0
 40
3.888
  1
10
 41
0.8
  7
dayus
 72
     4
 11
1725.618183781948
 21
133.0539075934199
 31
0.0
100
AcDbText
  0
LINE
  5
579F
330
1F
100
AcDbEntity
  8
DIM2
100
AcDbLine
 10
1747.488183781948
 20
160.26990759342
 30
0.0
 11
1747.488183781948
 21
74.73390759341999
 31
0.0
  0
LINE
  5
57A0
330
1F
100
AcDbEntity
  8
DIM2
100
AcDbLine
 10
1718.328183781948
 20
74.73390759341999
 30
0.0
 11
1805.808183781948
 21
74.73390759341999
 31
0.0
  0
LINE
  5
57A1
330
1F
100
AcDbEntity
  8
DIM2
100
AcDbLine
 10
1718.328183781948
 20
82.50990759342011
 30
0.0
 11
1805.808183781948
 21
82.50990759342011
 31
0.0
  0
LINE
  5
57A2
330
1F
100
AcDbEntity
  8
DIM2
100
AcDbLine
 10
1718.328183781948
 20
90.28590759342007
 30
0.0
 11
1805.808183781948
 21
90.28590759342007
 31
0.0
  0
TEXT
  5
57A3
330
1F
100
AcDbEntity
  8
DIM2
100
AcDbText
 10
1723.100240924805
 20
84.45390759341991
 30
0.0
 40
3.888
  1
50
 41
0.8
  7
dayus
 72
     4
 11
1725.618183781948
 21
86.39790759341991
 31
0.0
100
AcDbText
  0
TEXT
  5
57A4
330
1F
100
AcDbEntity
  8
DIM2
100
AcDbText
 10
1723.100240924805
 20
76.67790759341996
 30
0.0
 40
3.888
  1
60
 41
0.8
  7
dayus
 72
     4
 11
1725.618183781948
 21
78.62190759341996
 31
0.0
100
AcDbText
  0
TEXT
  5
57A5
330
1F
100
AcDbEntity
  8
DIM2
100
AcDbText
 10
1723.100240924805
 20
92.22990759342003
 30
0.0
 40
3.888
  1
40
 41
0.8
  7
dayus
 72
     4
 11
1725.618183781948
 21
94.17390759342003
 31
0.0
100
AcDbText
  0
LINE
  5
57A6
330
1F
100
AcDbEntity
  8
DIM2
100
AcDbLine
 10
1791.228183781948
 20
160.26990759342
 30
0.0
 11
1791.228183781948
 21
74.73390759341999
 31
0.0
  0
TEXT
  5
57A7
330
1F
100
AcDbEntity
  8
DIM2
100
AcDbText
 10
1738.956396337092
 20
150.54990759342
 30
0.0
 40
3.888
  1
C
  7
dayus
 72
     4
 11
1740.344967765664
 21
152.49390759342
 31
0.0
100
AcDbText
  0
TEXT
  5
57A8
330
1F
100
AcDbEntity
  8
DIM2
100
AcDbText
 10
1781.215253479949
 20
150.54990759342
 30
0.0
 40
3.888
  1
L3
  7
dayus
 72
     4
 11
1784.084967765664
 21
152.49390759342
 31
0.0
100
AcDbText
  0
TEXT
  5
57A9
330
1F
100
AcDbEntity
  8
DIM2
100
AcDbText
 10
1752.888396337092
 20
150.5499075934199
 30
0.0
 40
3.888
  1
L1
  7
dayus
 72
     4
 11
1754.924967765663
 21
152.4939075934199
 31
0.0
100
AcDbText
  0
TEXT
  5
57AA
330
1F
100
AcDbEntity
  8
DIM2
100
AcDbText
 10
1766.635253479949
 20
150.5499075934199
 30
0.0
 40
3.888
  1
L2
  7
dayus
 72
     4
 11
1769.504967765664
 21
152.4939075934199
 31
0.0
100
AcDbText
  0
LINE
  5
57AB
330
1F
100
AcDbEntity
  8
DIM2
100
AcDbLine
 10
1805.808183781948
 20
160.26990759342
 30
0.0
 11
1805.808183781948
 21
74.73390759341999
 31
0.0
  0
TEXT
  5
57AC
330
1F
100
AcDbEntity
  8
DIM2
100
AcDbText
 10
1797.368967765663
 20
150.54990759342
 30
0.0
 40
3.888
  1
N
  7
dayus
 72
     4
 11
1798.664967765663
 21
152.49390759342
 31
0.0
100
AcDbText
  0
TEXT
  5
57AD
330
1F
100
AcDbEntity
  8
DIM2
100
AcDbText
 10
1782.605155210519
 20
100.2836218791342
 30
0.0
 40
3.888
  1
-
 41
0.8
  7
dayus
 72
     4
 11
1783.938183781948
 21
101.94990759342
 31
0.0
100
AcDbText
  0
LINE
  5
57AE
330
1F
100
AcDbEntity
  8
DIM2
100
AcDbLine
 10
1762.068183781948
 20
160.26990759342
 30
0.0
 11
1762.068183781948
 21
74.73390759341999
 31
0.0
  0
LINE
  5
57AF
330
1F
100
AcDbEntity
  8
DIM2
100
AcDbLine
 10
1776.648183781948
 20
160.26990759342
 30
0.0
 11
1776.648183781948
 21
74.73390759341999
 31
0.0
  0
TEXT
  5
57B0
330
1F
100
AcDbEntity
  8
DIM2
100
AcDbText
 10
1752.260240924805
 20
107.7819075934201
 30
0.0
 40
3.888
  1
78
 41
0.8
  7
dayus
 72
     4
 11
1754.778183781948
 21
109.7259075934201
 31
0.0
100
AcDbText
  0
TEXT
  5
57B1
330
1F
100
AcDbEntity
  8
DIM2
100
AcDbText
 10
1752.260240924805
 20
123.33390759342
 30
0.0
 40
3.888
  1
68
 41
0.8
  7
dayus
 72
     4
 11
1754.778183781948
 21
125.27790759342
 31
0.0
100
AcDbText
  0
TEXT
  5
57B2
330
1F
100
AcDbEntity
  8
DIM2
100
AcDbText
 10
1752.260240924805
 20
138.8859075934199
 30
0.0
 40
3.888
  1
58
 41
0.8
  7
dayus
 72
     4
 11
1754.778183781948
 21
140.8299075934199
 31
0.0
100
AcDbText
  0
TEXT
  5
57B3
330
1F
100
AcDbEntity
  8
DIM2
100
AcDbText
 10
1752.260240924805
 20
84.45390759341991
 30
0.0
 40
3.888
  1
98
 41
0.8
  7
dayus
 72
     4
 11
1754.778183781948
 21
86.39790759341991
 31
0.0
100
AcDbText
  0
TEXT
  5
57B4
330
1F
100
AcDbEntity
  8
DIM2
100
AcDbText
 10
1751.075326639091
 20
76.67790759341996
 30
0.0
 40
3.888
  1
108
 41
0.8
  7
dayus
 72
     4
 11
1754.778183781948
 21
78.62190759341996
 31
0.0
100
AcDbText
  0
TEXT
  5
57B5
330
1F
100
AcDbEntity
  8
DIM2
100
AcDbText
 10
1752.260240924805
 20
92.22990759342003
 30
0.0
 40
3.888
  1
88
 41
0.8
  7
dayus
 72
     4
 11
1754.778183781948
 21
94.17390759342003
 31
0.0
100
AcDbText
  0
TEXT
  5
57B6
330
1F
100
AcDbEntity
  8
DIM2
100
AcDbText
 10
1766.840240924805
 20
107.7819075934201
 30
0.0
 40
3.888
  1
30
 41
0.8
  7
dayus
 72
     4
 11
1769.358183781948
 21
109.7259075934201
 31
0.0
100
AcDbText
  0
TEXT
  5
57B7
330
1F
100
AcDbEntity
  8
DIM2
100
AcDbText
 10
1766.840240924805
 20
123.33390759342
 30
0.0
 40
3.888
  1
20
 41
0.8
  7
dayus
 72
     4
 11
1769.358183781948
 21
125.27790759342
 31
0.0
100
AcDbText
  0
TEXT
  5
57B8
330
1F
100
AcDbEntity
  8
DIM2
100
AcDbText
 10
1767.136469496234
 20
138.8859075934199
 30
0.0
 40
3.888
  1
10
 41
0.8
  7
dayus
 72
     4
 11
1769.358183781948
 21
140.8299075934199
 31
0.0
100
AcDbText
  0
TEXT
  5
57B9
330
1F
100
AcDbEntity
  8
DIM2
100
AcDbText
 10
1767.136469496234
 20
131.10990759342
 30
0.0
 40
3.888
  1
10
 41
0.8
  7
dayus
 72
     4
 11
1769.358183781948
 21
133.0539075934199
 31
0.0
100
AcDbText
  0
TEXT
  5
57BA
330
1F
100
AcDbEntity
  8
DIM2
100
AcDbText
 10
1766.840240924805
 20
84.45390759341991
 30
0.0
 40
3.888
  1
25
 41
0.8
  7
dayus
 72
     4
 11
1769.358183781948
 21
86.39790759341991
 31
0.0
100
AcDbText
  0
TEXT
  5
57BB
330
1F
100
AcDbEntity
  8
DIM2
100
AcDbText
 10
1766.840240924805
 20
76.67790759341996
 30
0.0
 40
3.888
  1
30
 41
0.8
  7
dayus
 72
     4
 11
1769.358183781948
 21
78.62190759341996
 31
0.0
100
AcDbText
  0
TEXT
  5
57BC
330
1F
100
AcDbEntity
  8
DIM2
100
AcDbText
 10
1766.840240924805
 20
92.22990759342003
 30
0.0
 40
3.888
  1
20
 41
0.8
  7
dayus
 72
     4
 11
1769.358183781948
 21
94.17390759342003
 31
0.0
100
AcDbText
  0
TEXT
  5
57BD
330
1F
100
AcDbEntity
  8
DIM2
100
AcDbText
 10
1797.407326639091
 20
138.8859075934199
 30
0.0
 40
3.888
  1
4
 41
0.8
  7
dayus
 72
     4
 11
1798.518183781948
 21
140.8299075934199
 31
0.0
100
AcDbText
  0
TEXT
  5
57BE
330
1F
100
AcDbEntity
  8
DIM2
100
AcDbText
 10
1797.555440924805
 20
84.45390759341991
 30
0.0
 40
3.888
  1
6
 41
0.8
  7
dayus
 72
     4
 11
1798.518183781948
 21
86.39790759341991
 31
0.0
100
AcDbText
  0
TEXT
  5
57BF
330
1F
100
AcDbEntity
  8
DIM2
100
AcDbText
 10
1797.555440924805
 20
76.67790759341996
 30
0.0
 40
3.888
  1
6
 41
0.8
  7
dayus
 72
     4
 11
1798.518183781948
 21
78.62190759341996
 31
0.0
100
AcDbText
  0
TEXT
  5
57C0
330
1F
100
AcDbEntity
  8
DIM2
100
AcDbText
 10
1797.555440924805
 20
92.22990759342003
 30
0.0
 40
3.888
  1
6
 41
0.8
  7
dayus
 72
     4
 11
1798.518183781948
 21
94.17390759342003
 31
0.0
100
AcDbText
  0
TEXT
  5
57C1
330
1F
100
AcDbEntity
  8
DIM2
100
AcDbText
 10
1797.407326639091
 20
131.10990759342
 30
0.0
 40
3.888
  1
4
 41
0.8
  7
dayus
 72
     4
 11
1798.518183781948
 21
133.0539075934199
 31
0.0
100
AcDbText
  0
TEXT
  5
57C2
330
1F
100
AcDbEntity
  8
DIM2
100
AcDbText
 10
1797.407326639091
 20
123.3339075934202
 30
0.0
 40
3.888
  1
4
 41
0.8
  7
dayus
 72
     4
 11
1798.518183781948
 21
125.2779075934202
 31
0.0
100
AcDbText
  0
TEXT
  5
57C3
330
1F
100
AcDbEntity
  8
DIM2
100
AcDbText
 10
1797.407326639091
 20
115.55790759342
 30
0.0
 40
3.888
  1
4
 41
0.8
  7
dayus
 72
     4
 11
1798.518183781948
 21
117.50190759342
 31
0.0
100
AcDbText
  0
TEXT
  5
57C4
330
1F
100
AcDbEntity
  8
DIM2
100
AcDbText
 10
1797.407326639091
 20
107.7819075934201
 30
0.0
 40
3.888
  1
4
 41
0.8
  7
dayus
 72
     4
 11
1798.518183781948
 21
109.7259075934201
 31
0.0
100
AcDbText
  0
TEXT
  5
57C5
330
1F
100
AcDbEntity
  8
DIM2
100
AcDbText
 10
1797.407326639091
 20
100.00590759342
 30
0.0
 40
3.888
  1
4
 41
0.8
  7
dayus
 72
     4
 11
1798.518183781948
 21
101.94990759342
 31
0.0
100
AcDbText
  0
TEXT
  5
57C6
330
1F
100
AcDbEntity
  8
DIM2
100
AcDbText
 10
1766.840240924805
 20
115.55790759342
 30
0.0
 40
3.888
  1
20
 41
0.8
  7
dayus
 72
     4
 11
1769.358183781948
 21
117.50190759342
 31
0.0
100
AcDbText
  0
TEXT
  5
57C7
330
1F
100
AcDbEntity
  8
DIM2
100
AcDbText
 10
1766.840240924805
 20
100.00590759342
 30
0.0
 40
3.888
  1
30
 41
0.8
  7
dayus
 72
     4
 11
1769.358183781948
 21
101.94990759342
 31
0.0
100
AcDbText
  0
TEXT
  5
57C8
330
1F
100
AcDbEntity
  8
DIM2
100
AcDbText
 10
1782.605155210519
 20
108.0596218791344
 30
0.0
 40
3.888
  1
-
 41
0.8
  7
dayus
 72
     4
 11
1783.938183781948
 21
109.7259075934201
 31
0.0
100
AcDbText
  0
TEXT
  5
57C9
330
1F
100
AcDbEntity
  8
DIM2
100
AcDbText
 10
1782.605155210519
 20
115.8356218791343
 30
0.0
 40
3.888
  1
-
 41
0.8
  7
dayus
 72
     4
 11
1783.938183781948
 21
117.50190759342
 31
0.0
100
AcDbText
  0
TEXT
  5
57CA
330
1F
100
AcDbEntity
  8
DIM2
100
AcDbText
 10
1782.605155210519
 20
123.6116218791345
 30
0.0
 40
3.888
  1
-
 41
0.8
  7
dayus
 72
     4
 11
1783.938183781948
 21
125.2779075934202
 31
0.0
100
AcDbText
  0
TEXT
  5
57CB
330
1F
100
AcDbEntity
  8
DIM2
100
AcDbText
 10
1782.605155210519
 20
131.3876218791344
 30
0.0
 40
3.888
  1
-
 41
0.8
  7
dayus
 72
     4
 11
1783.938183781948
 21
133.0539075934201
 31
0.0
100
AcDbText
  0
TEXT
  5
57CC
330
1F
100
AcDbEntity
  8
DIM2
100
AcDbText
 10
1782.605155210519
 20
139.1636218791344
 30
0.0
 40
3.888
  1
-
 41
0.8
  7
dayus
 72
     4
 11
1783.938183781948
 21
140.8299075934201
 31
0.0
100
AcDbText
  0
TEXT
  5
57CD
330
1F
100
AcDbEntity
  8
DIM2
100
AcDbText
 10
1781.420240924805
 20
92.22990759342003
 30
0.0
 40
3.888
  1
20
 41
0.8
  7
dayus
 72
     4
 11
1783.938183781948
 21
94.17390759342003
 31
0.0
100
AcDbText
  0
TEXT
  5
57CE
330
1F
100
AcDbEntity
  8
DIM2
100
AcDbText
 10
1781.420240924805
 20
84.45390759341991
 30
0.0
 40
3.888
  1
25
 41
0.8
  7
dayus
 72
     4
 11
1783.938183781948
 21
86.39790759341991
 31
0.0
100
AcDbText
  0
TEXT
  5
57CF
330
1F
100
AcDbEntity
  8
DIM2
100
AcDbText
 10
1781.420240924805
 20
76.67790759341996
 30
0.0
 40
3.888
  1
30
 41
0.8
  7
dayus
 72
     4
 11
1783.938183781948
 21
78.62190759341996
 31
0.0
100
AcDbText
  0
TEXT
  5
57D0
330
1F
100
AcDbEntity
  8
DIM2
100
AcDbText
 10
1737.680240924805
 20
107.7819075934199
 30
0.0
 40
3.888
  1
40
 41
0.8
  7
dayus
 72
     4
 11
1740.198183781948
 21
109.7259075934199
 31
0.0
100
AcDbText
  0
TEXT
  5
57D1
330
1F
100
AcDbEntity
  8
DIM2
100
AcDbText
 10
1737.680240924805
 20
123.33390759342
 30
0.0
 40
3.888
  1
30
 41
0.8
  7
dayus
 72
     4
 11
1740.198183781948
 21
125.27790759342
 31
0.0
100
AcDbText
  0
TEXT
  5
57D2
330
1F
100
AcDbEntity
  8
DIM2
100
AcDbText
 10
1737.680240924805
 20
138.8859075934199
 30
0.0
 40
3.888
  1
20
 41
0.8
  7
dayus
 72
     4
 11
1740.198183781948
 21
140.8299075934199
 31
0.0
100
AcDbText
  0
TEXT
  5
57D3
330
1F
100
AcDbEntity
  8
DIM2
100
AcDbText
 10
1737.680240924805
 20
92.22990759341987
 30
0.0
 40
3.888
  1
50
 41
0.8
  7
dayus
 72
     4
 11
1740.198183781948
 21
94.17390759341987
 31
0.0
100
AcDbText
  0
TEXT
  5
57D4
330
1F
100
AcDbEntity
  8
DIM2
100
AcDbText
 10
1737.680240924805
 20
76.67790759341996
 30
0.0
 40
3.888
  1
60
 41
0.8
  7
dayus
 72
     4
 11
1740.198183781948
 21
78.62190759341996
 31
0.0
100
AcDbText
  0
DIMENSION
  5
57D5
330
1F
100
AcDbEntity
  8
AM_5
100
AcDbDimension
  2
*D4
 10
1460.505601793071
 20
189.0632268376446
 30
0.0
 11
1452.505601793071
 21
192.7382268376446
 31
0.0
 70
    32
 71
     5
 42
16.0
  3
AM_ISO$0
100
AcDbAlignedDimension
 13
1444.505601793071
 23
206.5632268376449
 33
0.0
 14
1460.505601793071
 24
206.5632268376449
 34
0.0
100
AcDbRotatedDimension
1001
ACAD
1000
DSTYLE
1002
{
1070
    40
1040
1.5
1002
}
  0
DIMENSION
  5
57D6
102
{ACAD_XDICTIONARY
360
57D7
102
}
102
{ACAD_REACTORS
330
57D8
102
}
330
1F
100
AcDbEntity
  8
AM_5
100
AcDbDimension
  2
*D17
 10
1465.005601793072
 20
177.0632268376446
 30
0.0
 11
1452.505601793071
 21
180.7387435699281
 31
0.0
 70
    32
 71
     5
 42
25.0
  3
AM_ISO$0
100
AcDbAlignedDimension
 13
1440.005601793072
 23
204.0632268376447
 33
0.0
 14
1465.005601793072
 24
204.0632268376447
 34
0.0
100
AcDbRotatedDimension
1001
ACAD
1000
DSTYLE
1002
{
1070
    40
1040
1.5
1002
}
  0
DIMENSION
  5
57D9
102
{ACAD_XDICTIONARY
360
57DA
102
}
102
{ACAD_REACTORS
330
57DB
102
}
330
1F
100
AcDbEntity
  8
AM_5
100
AcDbDimension
  2
*D18
 10
1480.005601793072
 20
236.0632268376446
 30
0.0
 11
1476.330085060788
 21
246.8132268376449
 31
0.0
 70
    32
 71
     5
 42
21.50000000000003
  3
AM_ISO$0
100
AcDbAlignedDimension
 13
1464.505601793072
 23
257.5632268376446
 33
0.0
 14
1464.005601793071
 24
236.0632268376447
 34
0.0
 50
90.0
100
AcDbRotatedDimension
1001
ACAD
1000
DSTYLE
1002
{
1070
    40
1040
1.5
1002
}
  0
DIMENSION
  5
57DC
330
1F
100
AcDbEntity
  8
AM_5
100
AcDbDimension
  2
*D5
 10
1480.005601793072
 20
210.0632268376446
 30
0.0
 11
1476.330085060788
 21
223.0632268376449
 31
0.0
 70
    32
 71
     5
 42
26.0
  3
AM_ISO$0
100
AcDbAlignedDimension
 13
1464.005601793072
 23
236.0632268376447
 33
0.0
 14
1464.005601793071
 24
210.0632268376446
 34
0.0
 50
90.0
100
AcDbRotatedDimension
1001
ACAD
1000
DSTYLE
1002
{
1070
    40
1040
1.5
1002
}
  0
DIMENSION
  5
57DD
102
{ACAD_XDICTIONARY
360
57DE
102
}
102
{ACAD_REACTORS
330
57DF
102
}
330
1F
100
AcDbEntity
  8
AM_5
100
AcDbDimension
  2
*D19
 10
1492.005601793072
 20
205.0632268376446
 30
0.0
 11
1488.330085060788
 21
231.3132268376449
 31
0.0
 70
    32
 71
     5
 42
52.50000000000003
  3
AM_ISO$0
100
AcDbAlignedDimension
 13
1464.505601793072
 23
257.5632268376446
 33
0.0
 14
1464.505601793072
 24
205.0632268376447
 34
0.0
 50
90.0
100
AcDbRotatedDimension
1001
ACAD
1000
DSTYLE
1002
{
1070
    40
1040
1.5
1002
}
  0
DIMENSION
  5
57E0
102
{ACAD_XDICTIONARY
360
57E1
102
}
102
{ACAD_REACTORS
330
57E2
102
}
330
1F
100
AcDbEntity
  8
AM_5
100
AcDbDimension
  2
*D20
 10
1504.005601793072
 20
204.0632268376446
 30
0.0
 11
1500.330601793072
 21
230.8132268376449
 31
0.0
 70
    32
 71
     5
 42
53.50000000000003
  3
AM_ISO$0
100
AcDbAlignedDimension
 13
1464.505601793071
 23
257.5632268376446
 33
0.0
 14
1465.005601793072
 24
204.0632268376447
 34
0.0
 50
90.0
100
AcDbRotatedDimension
1001
ACAD
1000
DSTYLE
1002
{
1070
    40
1040
1.5
1002
}
  0
DIMENSION
  5
57E3
102
{ACAD_XDICTIONARY
360
57E4
102
}
102
{ACAD_REACTORS
330
57E5
102
}
330
1F
100
AcDbEntity
  8
AM_5
100
AcDbDimension
  2
*D21
 10
1633.39603567984
 20
362.9368189448734
 30
0.0
 11
1589.39603567984
 21
366.6118189448734
 31
0.0
 70
    32
  1
L1
 71
     5
 42
88.0
  3
AM_ISO$0
100
AcDbAlignedDimension
 13
1545.39603567984
 23
347.4368189448735
 33
0.0
 14
1633.39603567984
 24
347.4368189448735
 34
0.0
100
AcDbRotatedDimension
1001
ACAD
1000
DSTYLE
1002
{
1070
    40
1040
1.5
1002
}
  0
DIMENSION
  5
57E6
330
1F
100
AcDbEntity
  8
AM_5
100
AcDbDimension
  2
*D6
 10
1530.39603567984
 20
327.4368189448734
 30
0.0
 11
1526.72103567984
 21
335.4368189448737
 31
0.0
 70
    32
 71
     5
 42
16.0
  3
AM_ISO$0
100
AcDbAlignedDimension
 13
1555.89603567984
 23
343.4368189448735
 33
0.0
 14
1555.89603567984
 24
327.4368189448734
 34
0.0
 50
90.0
100
AcDbRotatedDimension
1001
ACAD
1000
DSTYLE
1002
{
1070
    40
1040
1.5
1002
}
  0
DIMENSION
  5
57E7
102
{ACAD_XDICTIONARY
360
57E8
102
}
102
{ACAD_REACTORS
330
57E9
102
}
330
1F
100
AcDbEntity
  8
AM_5
100
AcDbDimension
  2
*D22
 10
1518.39603567984
 20
323.4368189448734
 30
0.0
 11
1514.720518947557
 21
335.4368189448737
 31
0.0
 70
    32
 71
     5
 42
24.0
  3
AM_ISO$0
100
AcDbAlignedDimension
 13
1545.39603567984
 23
347.4368189448735
 33
0.0
 14
1545.39603567984
 24
323.4368189448734
 34
0.0
 50
90.0
100
AcDbRotatedDimension
1001
ACAD
1000
DSTYLE
1002
{
1070
    40
1040
1.5
1002
}
  0
DIMENSION
  5
57EA
102
{ACAD_XDICTIONARY
360
57EB
102
}
102
{ACAD_REACTORS
330
57EC
102
}
330
1F
100
AcDbEntity
  8
AM_5
100
AcDbDimension
  2
*D23
 10
1559.39603567984
 20
307.9368189448735
 30
0.0
 11
1552.39603567984
 21
311.6118189448735
 31
0.0
 70
    32
 71
     5
 42
14.0
  3
AM_ISO$0
100
AcDbAlignedDimension
 13
1545.39603567984
 23
323.4368189448734
 33
0.0
 14
1559.39603567984
 24
323.9368189448734
 34
0.0
100
AcDbRotatedDimension
1001
ACAD
1000
DSTYLE
1002
{
1070
    40
1040
1.5
1002
}
  0
DIMENSION
  5
57ED
330
1F
100
AcDbEntity
  8
AM_5
100
AcDbDimension
  2
*D7
 10
1579.39603567984
 20
307.9368189448735
 30
0.0
 11
1569.39603567984
 21
311.6123356771569
 31
0.0
 70
    32
  1
L2
 71
     5
 42
20.0
  3
AM_ISO$0
100
AcDbAlignedDimension
 13
1559.39603567984
 23
323.9368189448734
 33
0.0
 14
1579.39603567984
 24
322.7868189448735
 34
0.0
100
AcDbRotatedDimension
1001
ACAD
1000
DSTYLE
1002
{
1070
    40
1040
1.5
1002
}
  0
DIMENSION
  5
57EE
330
1F
100
AcDbEntity
  8
AM_5
100
AcDbDimension
  2
*D8
 10
1599.39603567984
 20
307.9368189448735
 30
0.0
 11
1589.39603567984
 21
311.6118189448735
 31
0.0
 70
    32
  1
L3
 71
     5
 42
20.0
  3
AM_ISO$0
100
AcDbAlignedDimension
 13
1579.39603567984
 23
323.9368189448734
 33
0.0
 14
1599.39603567984
 24
323.9368189448734
 34
0.0
100
AcDbRotatedDimension
1001
ACAD
1000
DSTYLE
1002
{
1070
    40
1040
1.5
1002
}
  0
DIMENSION
  5
57EF
102
{ACAD_XDICTIONARY
360
57F0
102
}
102
{ACAD_REACTORS
330
57F1
102
}
330
1F
100
AcDbEntity
  8
AM_5
100
AcDbDimension
  2
*D24
 10
1530.39603567984
 20
248.5632268376447
 30
0.0
 11
1526.72103567984
 21
253.0632268376449
 31
0.0
 70
    32
 71
     5
 42
9.0
  3
AM_ISO$0
100
AcDbAlignedDimension
 13
1545.39603567984
 23
257.5632268376446
 33
0.0
 14
1558.89603567984
 24
248.5632268376447
 34
0.0
 50
90.0
100
AcDbRotatedDimension
1001
ACAD
1000
DSTYLE
1002
{
1070
    40
1040
1.5
1002
}
  0
DIMENSION
  5
57F2
330
1F
100
AcDbEntity
  8
AM_5
100
AcDbDimension
  2
*D9
 10
1530.39603567984
 20
209.5632268376447
 30
0.0
 11
1526.720518947557
 21
223.0632268376449
 31
0.0
 70
    32
 71
     5
 42
27.0
  3
AM_ISO$0
100
AcDbAlignedDimension
 13
1559.14603567984
 23
236.5632268376447
 33
0.0
 14
1559.14603567984
 24
209.5632268376447
 34
0.0
 50
90.0
100
AcDbRotatedDimension
1001
ACAD
1000
DSTYLE
1002
{
1070
    40
1040
1.5
1002
}
  0
DIMENSION
  5
57F3
102
{ACAD_XDICTIONARY
360
57F4
102
}
102
{ACAD_REACTORS
330
57F5
102
}
330
1F
100
AcDbEntity
  8
AM_5
100
AcDbDimension
  2
*D25
 10
1530.39603567984
 20
204.0632268376447
 30
0.0
 11
1530.39603567984
 21
188.3919957775219
 31
0.0
 70
   160
 71
     5
 42
5.5
  3
AM_ISO$0
100
AcDbAlignedDimension
 13
1559.14603567984
 23
209.5632268376447
 33
0.0
 14
1559.39603567984
 24
204.0632268376447
 34
0.0
 50
90.0
100
AcDbRotatedDimension
1001
ACAD
1000
DSTYLE
1002
{
1070
    40
1040
1.5
1002
}
  0
DIMENSION
  5
57F6
102
{ACAD_XDICTIONARY
360
57F7
102
}
102
{ACAD_REACTORS
330
57F8
102
}
330
1F
100
AcDbEntity
  8
AM_5
100
AcDbDimension
  2
*D26
 10
1555.39603567984
 20
180.3782915194456
 30
0.0
 11
1550.39603567984
 21
184.0532915194456
 31
0.0
 70
    32
 71
     5
 42
10.0
  3
AM_ISO$0
100
AcDbAlignedDimension
 13
1545.39603567984
 23
205.0632268376447
 33
0.0
 14
1555.39603567984
 24
205.0632268376447
 34
0.0
100
AcDbRotatedDimension
1001
ACAD
1000
DSTYLE
1002
{
1070
    40
1040
1.5
1070
   173
1070
     1
1070
   174
1070
     1
1070
   344
1005
4259
1002
}
  0
DIMENSION
  5
57F9
102
{ACAD_XDICTIONARY
360
57FA
102
}
102
{ACAD_REACTORS
330
57FB
102
}
330
1F
100
AcDbEntity
  8
AM_5
100
AcDbDimension
  2
*D27
 10
1564.39603567984
 20
180.3782915194456
 30
0.0
 11
1561.89603567984
 21
184.0532915194456
 31
0.0
 70
    32
 71
     5
 42
5.0
  3
AM_ISO$0
100
AcDbAlignedDimension
 13
1559.39603567984
 23
204.0632268376447
 33
0.0
 14
1564.39603567984
 24
204.3132268376447
 34
0.0
100
AcDbRotatedDimension
1001
ACAD
1000
DSTYLE
1002
{
1070
    40
1040
1.5
1070
   173
1070
     1
1070
   174
1070
     1
1070
   343
1005
4259
1002
}
  0
DIMENSION
  5
57FC
330
1F
100
AcDbEntity
  8
AM_5
100
AcDbDimension
  2
*D10
 10
1614.39603567984
 20
180.3782915194456
 30
0.0
 11
1589.39603567984
 21
184.0532915194456
 31
0.0
 70
    32
  1
C
 71
     5
 42
50.0
  3
AM_ISO$0
100
AcDbAlignedDimension
 13
1564.39603567984
 23
204.0632268376447
 33
0.0
 14
1614.39603567984
 24
231.3132268376447
 34
0.0
100
AcDbRotatedDimension
1001
ACAD
1000
DSTYLE
1002
{
1070
    40
1040
1.5
1002
}
  0
DIMENSION
  5
57FD
102
{ACAD_XDICTIONARY
360
57FE
102
}
102
{ACAD_REACTORS
330
57FF
102
}
330
1F
100
AcDbEntity
  8
AM_5
100
AcDbDimension
  2
*D28
 10
1559.39603567984
 20
168.3782915194456
 30
0.0
 11
1552.39603567984
 21
172.0532915194457
 31
0.0
 70
    32
 71
     5
 42
14.0
  3
AM_ISO$0
100
AcDbAlignedDimension
 13
1545.39603567984
 23
205.0632268376447
 33
0.0
 14
1559.39603567984
 24
204.0632268376447
 34
0.0
100
AcDbRotatedDimension
1001
ACAD
1000
DSTYLE
1002
{
1070
    40
1040
1.5
1002
}
  0
DIMENSION
  5
5800
102
{ACAD_XDICTIONARY
360
5801
102
}
102
{ACAD_REACTORS
330
5802
102
}
330
1F
100
AcDbEntity
  8
AM_5
100
AcDbDimension
  2
*D29
 10
1641.39603567984
 20
168.3782915194456
 30
0.0
 11
1600.39603567984
 21
172.0538082517291
 31
0.0
 70
    32
  1
42+stroke
 71
     5
 42
82.0
  3
AM_ISO$0
100
AcDbAlignedDimension
 13
1559.39603567984
 23
204.0632268376447
 33
0.0
 14
1641.39603567984
 24
204.0632268376447
 34
0.0
100
AcDbRotatedDimension
1001
ACAD
1000
DSTYLE
1002
{
1070
    40
1040
1.5
1002
}
  0
DIMENSION
  5
5803
102
{ACAD_XDICTIONARY
360
5804
102
}
102
{ACAD_REACTORS
330
5805
102
}
330
1F
100
AcDbEntity
  8
AM_5
100
AcDbDimension
  2
*D30
 10
1641.39603567984
 20
156.3782915194456
 30
0.0
 11
1593.39603567984
 21
160.0532915194456
 31
0.0
 70
    32
  1
56+stroke
 71
     5
 42
96.0
  3
AM_ISO$0
100
AcDbAlignedDimension
 13
1545.39603567984
 23
205.0632268376447
 33
0.0
 14
1641.39603567984
 24
204.0632268376447
 34
0.0
100
AcDbRotatedDimension
1001
ACAD
1000
DSTYLE
1002
{
1070
    40
1040
1.5
1002
}
  0
DIMENSION
  5
5806
102
{ACAD_XDICTIONARY
360
5807
102
}
102
{ACAD_REACTORS
330
5808
102
}
330
1F
100
AcDbEntity
  8
AM_5
100
AcDbDimension
  2
*D31
 10
1571.39603567984
 20
128.0121532549814
 30
0.0
 11
1565.39603567984
 21
131.6876699872649
 31
0.0
 70
    32
 71
     5
 42
12.0
  3
AM_ISO$0
100
AcDbAlignedDimension
 13
1559.39603567984
 23
113.0121532549814
 33
0.0
 14
1571.39603567984
 24
112.5121532549814
 34
0.0
100
AcDbRotatedDimension
1001
ACAD
1000
DSTYLE
1002
{
1070
    40
1040
1.5
1002
}
  0
DIMENSION
  5
5809
330
1F
100
AcDbEntity
  8
AM_5
100
AcDbDimension
  2
*D11
 10
1621.39603567984
 20
128.0121532549814
 30
0.0
 11
1596.39603567984
 21
131.6871532549814
 31
0.0
 70
    32
  1
10+stroke
 71
     5
 42
50.0
  3
AM_ISO$0
100
AcDbAlignedDimension
 13
1571.39603567984
 23
112.5121532549814
 33
0.0
 14
1621.39603567984
 24
112.5121532549814
 34
0.0
100
AcDbRotatedDimension
1001
ACAD
1000
DSTYLE
1002
{
1070
    40
1040
1.5
1002
}
  0
DIMENSION
  5
580A
330
1F
100
AcDbEntity
  8
AM_5
100
AcDbDimension
  2
*D12
 10
1530.39603567984
 20
92.01215325498145
 30
0.0
 11
1526.72103567984
 21
100.5121532549817
 31
0.0
 70
    32
 71
     5
 42
17.00000000000011
  3
AM_ISO$0
100
AcDbAlignedDimension
 13
1567.89603567984
 23
109.0121532549815
 33
0.0
 14
1567.89603567984
 24
92.01215325498145
 34
0.0
 50
90.0
100
AcDbRotatedDimension
1001
ACAD
1000
DSTYLE
1002
{
1070
    40
1040
1.5
1002
}
  0
DIMENSION
  5
580B
330
1F
100
AcDbEntity
  8
AM_5
100
AcDbDimension
  2
*D13
 10
1656.39603567984
 20
210.5632268376447
 30
0.0
 11
1652.720518947557
 21
223.0632268376449
 31
0.0
 70
    32
 71
     5
 42
25.0
  3
AM_ISO$0
100
AcDbAlignedDimension
 13
1632.89603567984
 23
235.5632268376447
 33
0.0
 14
1632.89603567984
 24
210.5632268376447
 34
0.0
 50
90.0
100
AcDbRotatedDimension
1001
ACAD
1000
DSTYLE
1002
{
1070
    40
1040
1.5
1002
}
  0
DIMENSION
  5
580C
102
{ACAD_XDICTIONARY
360
580D
102
}
102
{ACAD_REACTORS
330
580E
102
}
330
1F
100
AcDbEntity
  8
AM_5
100
AcDbDimension
  2
*D32
 10
1656.39603567984
 20
204.0632268376447
 30
0.0
 11
1656.39603567984
 21
190.0724091633487
 31
0.0
 70
   160
 71
     5
 42
6.5
  3
AM_ISO$0
100
AcDbAlignedDimension
 13
1632.896035679841
 23
210.5632268376447
 33
0.0
 14
1641.39603567984
 24
204.0632268376447
 34
0.0
 50
90.0
100
AcDbRotatedDimension
1001
ACAD
1000
DSTYLE
1002
{
1070
    40
1040
1.5
1002
}
  0
DIMENSION
  5
580F
102
{ACAD_XDICTIONARY
360
5810
102
}
102
{ACAD_REACTORS
330
5811
102
}
330
1F
100
AcDbEntity
  8
AM_5
100
AcDbDimension
  2
*D33
 10
1641.39603567984
 20
180.3782915194456
 30
0.0
 11
1635.14603567984
 21
184.0538082517291
 31
0.0
 70
    32
 71
     5
 42
12.49999999999977
  3
AM_ISO$0
100
AcDbAlignedDimension
 13
1628.89603567984
 23
206.5632268376447
 33
0.0
 14
1641.39603567984
 24
204.0632268376447
 34
0.0
100
AcDbRotatedDimension
1001
ACAD
1000
DSTYLE
1002
{
1070
    40
1040
1.5
1002
}
  0
MTEXT
  5
5812
330
1F
100
AcDbEntity
  8
AM_5
100
AcDbMText
 10
1453.045212357319
 20
273.3813676386169
 30
0.0
 40
5.25
 41
0.0
 71
     7
 72
     1
  1
4-M4*0.7x10depth
 73
     1
 44
1.0
1001
ACAD
1000
MTEXTBEGIN
1070
    73
1070
     1
1070
    44
1040
1.0
1070
    74
1070
     0
1000
MTEXTEND
  0
MTEXT
  5
5813
330
1F
100
AcDbEntity
  8
AM_5
100
AcDbMText
 10
1575.299060748346
 20
281.8518654367739
 30
0.0
 40
5.25
 41
0.0
 71
     7
 72
     1
  1
3-M5*0.8thru
 73
     1
 44
1.0
1001
ACAD
1000
MTEXTBEGIN
1070
    73
1070
     1
1070
    44
1040
1.0
1070
    74
1070
     0
1000
MTEXTEND
  0
MTEXT
  5
5814
330
1F
100
AcDbEntity
  8
AM_5
100
AcDbMText
 10
1576.098062725243
 20
274.1939526528199
 30
0.0
 40
5.25
 41
0.0
 71
     7
 72
     1
  1
{\F|c136;bottom hole dia.%%C4.3}
 73
     1
 44
1.0
1001
ACAD
1000
MTEXTBEGIN
1070
    73
1070
     1
1070
    44
1040
1.0
1070
    74
1070
     0
1000
MTEXTEND
  0
MTEXT
  5
5815
330
1F
100
AcDbEntity
  8
AM_5
100
AcDbMText
 10
1575.573874234914
 20
266.2235104802955
 30
0.0
 40
5.25
 41
0.0
 71
     7
 72
     1
  1
2*3-%%C7.5x4.4depth
 73
     1
 44
1.0
1001
ACAD
1000
MTEXTBEGIN
1070
    73
1070
     1
1070
    44
1040
1.0
1070
    74
1070
     0
1000
MTEXTEND
  0
MTEXT
  5
5816
330
1F
100
AcDbEntity
  8
AM_5
100
AcDbMText
 10
1647.671366741188
 20
276.5423092781429
 30
0.0
 40
5.25
 41
0.0
 71
     7
 72
     1
  1
2*2-M5*0.8*4L
 73
     1
 44
1.0
1001
ACAD
1000
MTEXTBEGIN
1070
    73
1070
     1
1070
    44
1040
1.0
1070
    74
1070
     0
1000
MTEXTEND
  0
MTEXT
  5
5818
330
1F
100
AcDbEntity
  8
AM_5
100
AcDbMText
 10
1635.273088319579
 20
122.6702812573102
 30
0.0
 40
5.25
 41
0.0
 71
     7
 72
     1
  1
4-M4*0.7x6depth
 73
     1
 44
1.0
1001
ACAD
1000
MTEXTBEGIN
1070
    73
1070
     1
1070
    44
1040
1.0
1070
    74
1070
     0
1000
MTEXTEND
  0
DIMENSION
  5
5819
102
{ACAD_XDICTIONARY
360
581A
102
}
102
{ACAD_REACTORS
330
581B
102
}
330
1F
100
AcDbEntity
  8
AM_5
100
AcDbDimension
  2
*D34
 10
1752.749884633002
 20
272.5632268376447
 30
0.0
 11
1789.857957192989
 21
272.5632268376447
 31
0.0
 70
   160
  1
guied rail width=<>
 71
     5
 42
9.0
  3
AM_ISO$0
100
AcDbAlignedDimension
 13
1743.749884633002
 23
246.7632268376448
 33
0.0
 14
1752.749884633002
 24
246.7632268376448
 34
0.0
100
AcDbRotatedDimension
1001
ACAD
1000
DSTYLE
1002
{
1070
    40
1040
1.5
1002
}
  0
DIMENSION
  5
581C
330
1F
100
AcDbEntity
  8
AM_5
100
AcDbDimension
  2
*D14
 10
1720.749884633002
 20
209.5632268376447
 30
0.0
 11
1717.074367900718
 21
223.0632268376449
 31
0.0
 70
    32
 71
     5
 42
27.0
  3
AM_ISO$0
100
AcDbAlignedDimension
 13
1737.749884633002
 23
236.5632268376447
 33
0.0
 14
1736.249884633002
 24
209.5632268376447
 34
0.0
 50
90.0
100
AcDbRotatedDimension
1001
ACAD
1000
DSTYLE
1002
{
1070
    40
1040
1.5
1002
}
  0
DIMENSION
  5
581D
102
{ACAD_XDICTIONARY
360
581E
102
}
102
{ACAD_REACTORS
330
581F
102
}
330
1F
100
AcDbEntity
  8
AM_5
100
AcDbDimension
  2
*D35
 10
1720.749884633002
 20
204.0632268376447
 30
0.0
 11
1720.749884633002
 21
190.2294957775219
 31
0.0
 70
   160
 71
     5
 42
5.5
  3
AM_ISO$0
100
AcDbAlignedDimension
 13
1736.249884633002
 23
209.5632268376447
 33
0.0
 14
1735.749884633002
 24
204.0632268376447
 34
0.0
 50
90.0
100
AcDbRotatedDimension
1001
ACAD
1000
DSTYLE
1002
{
1070
    40
1040
1.5
1002
}
  0
DIMENSION
  5
5820
330
1F
100
AcDbEntity
  8
AM_5
100
AcDbDimension
  2
*D15
 10
1775.749884633002
 20
210.5632268376447
 30
0.0
 11
1772.074367900718
 21
223.0632268376449
 31
0.0
 70
    32
 71
     5
 42
25.0
  3
AM_ISO$0
100
AcDbAlignedDimension
 13
1752.249884633002
 23
235.5632268376447
 33
0.0
 14
1752.249884633002
 24
210.5632268376447
 34
0.0
 50
90.0
100
AcDbRotatedDimension
1001
ACAD
1000
DSTYLE
1002
{
1070
    40
1040
1.5
1002
}
  0
DIMENSION
  5
5821
102
{ACAD_XDICTIONARY
360
5822
102
}
102
{ACAD_REACTORS
330
5823
102
}
330
1F
100
AcDbEntity
  8
AM_5
100
AcDbDimension
  2
*D36
 10
1775.749884633002
 20
204.0632268376447
 30
0.0
 11
1775.749884633002
 21
190.0724091633487
 31
0.0
 70
   160
 71
     5
 42
6.5
  3
AM_ISO$0
100
AcDbAlignedDimension
 13
1752.249884633002
 23
210.5632268376447
 33
0.0
 14
1760.749884633002
 24
204.0632268376447
 34
0.0
 50
90.0
100
AcDbRotatedDimension
1001
ACAD
1000
DSTYLE
1002
{
1070
    40
1040
1.5
1002
}
  0
DIMENSION
  5
5824
330
1F
100
AcDbEntity
  8
AM_5
100
AcDbDimension
  2
*D16
 10
1756.749884633002
 20
189.0632268376446
 30
0.0
 11
1748.249884633002
 21
192.7382268376446
 31
0.0
 70
    32
 71
     5
 42
17.0
  3
AM_ISO$0
100
AcDbAlignedDimension
 13
1739.749884633002
 23
206.0632268376447
 33
0.0
 14
1756.749884633002
 24
206.0632268376447
 34
0.0
100
AcDbRotatedDimension
1001
ACAD
1000
DSTYLE
1002
{
1070
    40
1040
1.5
1002
}
  0
MTEXT
  5
5825
330
1F
100
AcDbEntity
  8
AM_5
100
AcDbMText
 10
1613.839102528678
 20
307.5704569893406
 30
0.0
 40
5.25
 41
0.0
 71
     7
 72
     1
  1
N-M4*0.7x5.8depth max.
 73
     1
 44
1.0
1001
ACAD
1000
MTEXTBEGIN
1070
    73
1070
     1
1070
    44
1040
1.0
1070
    74
1070
     0
1000
MTEXTEND
  0
MTEXT
  5
5826
330
1F
100
AcDbEntity
  8
AM_5
100
AcDbMText
 10
1773.571098190977
 20
253.6943391465964
 30
0.0
 40
5.25
 41
0.0
 71
     7
 72
     1
  1
2-M5*0.8
 73
     1
 44
1.0
1001
ACAD
1000
MTEXTBEGIN
1070
    73
1070
     1
1070
    44
1040
1.0
1070
    74
1070
     0
1000
MTEXTEND
  0
MTEXT
  5
5827
330
1F
100
AcDbEntity
  8
AM_5
100
AcDbMText
 10
1670.603941913489
 20
253.4002120824801
 30
0.0
 40
5.25
 41
0.0
 71
     7
 72
     1
  1
4-M4*0.7x6depth
 73
     1
 44
1.0
1001
ACAD
1000
MTEXTBEGIN
1070
    73
1070
     1
1070
    44
1040
1.0
1070
    74
1070
     0
1000
MTEXTEND
  0
TEXT
  5
5828
330
1F
100
AcDbEntity
  8
DIM2
100
AcDbText
 10
1752.260240924805
 20
131.10990759342
 30
0.0
 40
3.888
  1
58
 41
0.8
  7
dayus
 72
     4
 11
1754.778183781948
 21
133.0539075934199
 31
0.0
100
AcDbText
  0
TEXT
  5
5829
330
1F
100
AcDbEntity
  8
DIM2
100
AcDbText
 10
1752.260240924805
 20
115.55790759342
 30
0.0
 40
3.888
  1
68
 41
0.8
  7
dayus
 72
     4
 11
1754.778183781948
 21
117.50190759342
 31
0.0
100
AcDbText
  0
TEXT
  5
582A
330
1F
100
AcDbEntity
  8
DIM2
100
AcDbText
 10
1752.260240924805
 20
100.00590759342
 30
0.0
 40
3.888
  1
78
 41
0.8
  7
dayus
 72
     4
 11
1754.778183781948
 21
101.9499075934201
 31
0.0
100
AcDbText
  0
TEXT
  5
582B
330
1F
100
AcDbEntity
  8
DIM2
100
AcDbText
 10
1737.680240924805
 20
131.10990759342
 30
0.0
 40
3.888
  1
20
 41
0.8
  7
dayus
 72
     4
 11
1740.198183781948
 21
133.0539075934199
 31
0.0
100
AcDbText
  0
TEXT
  5
582C
330
1F
100
AcDbEntity
  8
DIM2
100
AcDbText
 10
1737.680240924805
 20
115.55790759342
 30
0.0
 40
3.888
  1
30
 41
0.8
  7
dayus
 72
     4
 11
1740.198183781948
 21
117.50190759342
 31
0.0
100
AcDbText
  0
TEXT
  5
582D
330
1F
100
AcDbEntity
  8
DIM2
100
AcDbText
 10
1737.680240924805
 20
100.00590759342
 30
0.0
 40
3.888
  1
40
 41
0.8
  7
dayus
 72
     4
 11
1740.198183781948
 21
101.9499075934201
 31
0.0
100
AcDbText
  0
TEXT
  5
582E
330
1F
100
AcDbEntity
  8
DIM2
100
AcDbText
 10
1737.680240924805
 20
84.45390759341991
 30
0.0
 40
3.888
  1
60
 41
0.8
  7
dayus
 72
     4
 11
1740.198183781948
 21
86.39790759341991
 31
0.0
100
AcDbText
  0
LINE
  5
582F
330
1F
100
AcDbEntity
  8
AM_VIS
100
AcDbLine
 10
1751.071884633002
 20
215.2576957218269
 30
0.0
 11
1750.886867621822
 21
215.769444849296
 31
0.0
  0
LINE
  5
5830
330
1F
100
AcDbEntity
  8
AM_VIS
100
AcDbLine
 10
1745.612901644182
 20
215.7694448492961
 30
0.0
 11
1745.427884633002
 21
215.2576957218268
 31
0.0
  0
CIRCLE
  5
5831
330
1F
100
AcDbEntity
  8
AM_VIS
100
AcDbCircle
 10
1744.993610121507
 20
215.9933425765689
 30
0.0
 40
0.3292613636363637
  0
CIRCLE
  5
5832
330
1F
100
AcDbEntity
  8
AM_VIS
100
AcDbCircle
 10
1751.506159144497
 20
215.9933425765689
 30
0.0
 40
0.3292613636363637
  0
ARC
  5
5833
330
1F
100
AcDbEntity
  8
AM_VIS
100
AcDbCircle
 10
1752.29178807903
 20
217.0504120665095
 30
0.0
 40
0.6585227272727275
100
AcDbArc
 50
233.3797486552247
 51
305.5762058791547
  0
ARC
  5
5834
330
1F
100
AcDbEntity
  8
AM_VIS
100
AcDbCircle
 10
1751.506159144497
 20
215.9933425765689
 30
0.0
 40
0.6585227272727275
100
AcDbArc
 50
53.37974865522462
 51
199.8768740700807
  0
ARC
  5
5835
330
1F
100
AcDbEntity
  8
AM_VIS
100
AcDbCircle
 10
1744.993610121507
 20
215.9933425765689
 30
0.0
 40
0.6585227272727275
100
AcDbArc
 50
340.1231259299192
 51
126.6202513447753
  0
ARC
  5
5836
330
1F
100
AcDbEntity
  8
AM_VIS
100
AcDbCircle
 10
1744.207981186974
 20
217.0504120665095
 30
0.0
 40
0.6585227272727275
100
AcDbArc
 50
234.4237941208606
 51
306.6202513447754
  0
ARC
  5
5837
330
1F
100
AcDbEntity
  8
AM_VIS
100
AcDbCircle
 10
1748.249884633002
 20
222.7010393376446
 30
0.0
 40
7.605937500000004
100
AcDbArc
 50
305.5762058791547
 51
234.4237941208453
  0
LINE
  5
5838
330
1F
100
AcDbEntity
  8
AM_VIS
100
AcDbLine
 10
1555.576592263441
 20
226.824896588447
 30
0.0
 11
1557.415479096239
 21
226.824896588447
 31
0.0
  0
LINE
  5
5839
330
1F
100
AcDbEntity
  8
AM_VIS
100
AcDbLine
 10
1555.577876427741
 20
219.314896588447
 30
0.0
 11
1557.41419493194
 21
219.314896588447
 31
0.0
  0
LINE
  5
583A
330
1F
100
AcDbEntity
  8
AM_VIS
100
AcDbLine
 10
1555.579159451722
 20
215.5621198387143
 30
0.0
 11
1557.412911907959
 21
215.5621198387143
 31
0.0
  0
LINE
  5
583B
330
1F
100
AcDbEntity
  8
AM_VIS
100
AcDbLine
 10
1555.576592263441
 20
230.5776733381794
 30
0.0
 11
1557.415479096239
 21
230.5776733381794
 31
0.0
  0
SPLINE
  5
583C
330
1F
100
AcDbEntity
  8
AM_VIS
100
AcDbSpline
210
0.0000000003103225
220
-0.0000000001667286
230
-1.0
 70
    12
 71
     2
 72
     6
 73
     3
 74
     0
 42
0.0000000001
 43
0.0000000001
 40
1.488452384160907
 40
1.488452384160907
 40
1.488452384160907
 40
2.153799559559366
 40
2.153799559559366
 40
2.153799559559366
 10
1555.577876427741
 20
219.314896588447
 30
-0.0000000000001137
 41
1.07081419988624
 10
1555.477911930408
 20
219.1415990234308
 30
0.0
 41
1.084211953608959
 10
1555.39603567984
 20
218.9755714329509
 30
0.0
 41
1.095437764907323
  0
SPLINE
  5
583D
330
1F
100
AcDbEntity
  8
AM_VIS
100
AcDbSpline
210
0.0000000003003801
220
0.0000000001614724
230
1.0
 70
    12
 71
     2
 72
     6
 73
     3
 74
     0
 42
0.0000000001
 43
0.0000000001
 40
9.031571046659101
 40
9.031571046659101
 40
9.031571046659101
 40
9.701132425109815
 40
9.701132425109815
 40
9.701132425109815
 10
1555.39603567984
 20
215.9036682444777
 30
0.0
 41
1.095437764907325
 10
1555.47843592534
 20
215.7365781039265
 30
0.0000000000001137
 41
1.084140851107911
 10
1555.579159451721
 20
215.5621198387134
 30
0.0000000000001137
 41
1.070644394276291
  0
LINE
  5
583E
330
1F
100
AcDbEntity
  8
AM_VIS
100
AcDbLine
 10
1555.393754803286
 20
219.9914638408483
 30
0.0
 11
1555.575770898765
 21
219.3143306139124
 31
0.0
  0
LINE
  5
583F
330
1F
100
AcDbEntity
  8
AM_VIS
100
AcDbLine
 10
1555.393784126114
 20
226.1527676446353
 30
0.0
 11
1555.574512663058
 21
226.8254553070852
 31
0.0
  0
SPLINE
  5
5840
330
1F
100
AcDbEntity
  8
AM_VIS
100
AcDbSpline
210
0.0000000000045012
220
0.0000000000024223
230
1.0
 70
    12
 71
     2
 72
     6
 73
     3
 74
     0
 42
0.0000000001
 43
0.0000000001
 40
8.987311082598639
 40
8.987311082598639
 40
8.987311082598639
 40
9.665398020163543
 40
9.665398020163543
 40
9.665398020163543
 10
1555.39603567984
 20
227.1612635187095
 30
0.0
 41
1.035633383801348
 10
1555.477425508756
 20
226.9966584459853
 30
-0.0000000000001137
 41
1.033862345358074
 10
1555.576592263443
 20
226.8248965884471
 30
0.0
 41
1.029932277311673
  0
SPLINE
  5
5841
330
1F
100
AcDbEntity
  8
AM_VIS
100
AcDbSpline
210
0.0000000003195848
220
-0.0000000001719824
230
-1.0
 70
    12
 71
     2
 72
     6
 73
     3
 74
     0
 42
0.0000000001
 43
0.0000000001
 40
1.576042806875341
 40
1.576042806875341
 40
1.576042806875341
 40
2.254129744440421
 40
2.254129744440421
 40
2.254129744440421
 10
1555.576592263442
 20
230.5776733381797
 30
0.0
 41
1.029932277311721
 10
1555.477425508755
 20
230.4059114806414
 30
0.0000000000001137
 41
1.033862345358131
 10
1555.39603567984
 20
230.2413064079164
 30
0.0000000000001137
 41
1.035633383801407
  0
SPLINE
  5
5842
330
1F
100
AcDbEntity
  8
AM_VIS
100
AcDbSpline
210
0.0
220
0.0
230
1.0
 70
    12
 71
     2
 72
     6
 73
     3
 74
     0
 42
0.0000000001
 43
0.0000000001
 40
5.620720413519507
 40
5.620720413519507
 40
5.620720413519507
 40
9.665398020163657
 40
9.665398020163657
 40
9.665398020163657
 10
1557.99603567984
 20
228.7012849633131
 30
0.0
 41
1.0
 10
1557.996035679841
 20
229.5721198387145
 30
0.0
 41
1.053374490012322
 10
1557.41547909624
 20
230.5776733381797
 30
0.0
 41
1.029932277311721
  0
SPLINE
  5
5843
330
1F
100
AcDbEntity
  8
AM_VIS
100
AcDbSpline
210
0.0000000000000334
220
0.0000000000000067
230
-1.0
 70
    12
 71
     2
 72
     6
 73
     3
 74
     0
 42
0.0000000001
 43
0.0000000001
 40
5.620720413519483
 40
5.620720413519483
 40
5.620720413519483
 40
9.665398020163607
 40
9.665398020163607
 40
9.665398020163607
 10
1557.99603567984
 20
223.0721198387143
 30
0.0
 41
1.0
 10
1557.996035679842
 20
224.8137895895172
 30
-0.0000000000001137
 41
1.053374490012308
 10
1557.415479096239
 20
226.824896588447
 30
0.0
 41
1.029932277311714
  0
SPLINE
  5
5844
330
1F
100
AcDbEntity
  8
AM_VIS
100
AcDbSpline
210
0.0000000000000334
220
-0.0000000000000135
230
1.0
 70
    12
 71
     2
 72
     6
 73
     3
 74
     0
 42
0.0000000001
 43
0.0000000001
 40
1.576042806875438
 40
1.576042806875438
 40
1.576042806875438
 40
5.620720413519507
 40
5.620720413519507
 40
5.620720413519507
 10
1557.41547909624
 20
226.8248965884471
 30
0.0
 41
1.029932277311673
 10
1557.996035679839
 20
227.8304500879115
 30
0.0000000000001137
 41
1.053374490012233
 10
1557.99603567984
 20
228.7012849633131
 30
0.0
 41
1.0
  0
SPLINE
  5
5845
330
1F
100
AcDbEntity
  8
AM_VIS
100
AcDbSpline
210
0.0000000000000001
220
-0.0000000000000303
230
1.0
 70
    12
 71
     2
 72
     6
 73
     3
 74
     0
 42
0.0000000001
 43
0.0000000001
 40
1.484238181108682
 40
1.484238181108682
 40
1.484238181108682
 40
9.696918222057604
 40
9.696918222057604
 40
9.696918222057604
 10
1557.412911907959
 20
215.5621198387142
 30
-0.0000000000001137
 41
1.07064439427629
 10
1558.49640554805
 20
217.438785873032
 30
0.0
 41
1.236188712111717
 10
1557.41419493194
 20
219.3148965884469
 30
0.0
 41
1.070814199886241
  0
SPLINE
  5
5846
330
1F
100
AcDbEntity
  8
AM_VIS
100
AcDbSpline
210
0.0
220
0.0
230
1.0
 70
    12
 71
     2
 72
     6
 73
     3
 74
     0
 42
0.0000000001
 43
0.0000000001
 40
1.571671735180405
 40
1.571671735180405
 40
1.571671735180405
 40
5.620720413519483
 40
5.620720413519483
 40
5.620720413519483
 10
1557.41419493194
 20
219.314896588447
 30
0.0
 41
1.029881519730549
 10
1557.99603567984
 20
221.3286633401327
 30
0.0
 41
1.053432171673305
 10
1557.99603567984
 20
223.0721198387143
 30
0.0
 41
1.0
  0
LINE
  5
5847
330
1F
100
AcDbEntity
  8
AM_VIS
100
AcDbLine
 10
1555.39603567984
 20
215.8792995156868
 30
0.0
 11
1555.579159451722
 21
215.5621198387143
 31
0.0
  0
LINE
  5
5848
330
1F
100
AcDbEntity
  8
AM_VIS
100
AcDbLine
 10
1555.39603567984
 20
230.2649401617418
 30
0.0
 11
1555.576592263441
 21
230.5776733381794
 31
0.0
  0
LINE
  5
5849
330
1F
100
AcDbEntity
  8
AM_VIS
100
AcDbLine
 10
1557.99603567984
 20
229.5721198387143
 30
0.0
 11
1557.415479096239
 21
230.5776733381794
 31
0.0
  0
LINE
  5
584A
330
1F
100
AcDbEntity
  8
AM_VIS
100
AcDbLine
 10
1557.99603567984
 20
216.5721198387143
 30
0.0
 11
1557.412911907959
 21
215.5621198387143
 31
0.0
  0
LINE
  5
584B
330
1F
100
AcDbEntity
  8
AM_VIS
100
AcDbLine
 10
1557.99603567984
 20
216.5721198387143
 30
0.0
 11
1557.99603567984
 21
223.0721198387143
 31
0.0
  0
LINE
  5
584C
330
1F
100
AcDbEntity
  8
AM_VIS
100
AcDbLine
 10
1557.99603567984
 20
223.0721198387143
 30
0.0
 11
1557.99603567984
 21
228.7012849633131
 31
0.0
  0
LINE
  5
584D
330
1F
100
AcDbEntity
  8
AM_VIS
100
AcDbLine
 10
1557.99603567984
 20
228.7012849633131
 30
0.0
 11
1557.99603567984
 21
229.5721198387143
 31
0.0
  0
ARC
  5
584E
330
1F
100
AcDbEntity
  8
AM_4
100
AcDbCircle
 10
1564.39603567984
 20
209.5632268376447
 30
0.0
 40
2.5
100
AcDbArc
 50
259.9999999999948
 51
189.9999999999958
  0
LINE
  5
584F
330
1F
100
AcDbEntity
  8
AM_VIS
100
AcDbLine
 10
1627.64603567984
 20
209.8415390016965
 30
0.0
 11
1627.64603567984
 21
211.2849146746706
 31
0.0
  0
LINE
  5
5850
330
1F
100
AcDbEntity
  8
AM_VIS
100
AcDbLine
 10
1627.64603567984
 20
211.2849146746706
 30
0.0
 11
1628.89603567984
 21
212.0066025111576
 31
0.0
  0
LINE
  5
5851
330
1F
100
AcDbEntity
  8
AM_VIS
100
AcDbLine
 10
1628.89603567984
 20
212.0066025111576
 30
0.0
 11
1630.146035679841
 21
211.2849146746706
 31
0.0
  0
LINE
  5
5852
330
1F
100
AcDbEntity
  8
AM_VIS
100
AcDbLine
 10
1630.146035679841
 20
211.2849146746706
 30
0.0
 11
1630.146035679841
 21
209.8415390016965
 31
0.0
  0
LINE
  5
5853
330
1F
100
AcDbEntity
  8
AM_VIS
100
AcDbLine
 10
1630.146035679841
 20
209.8415390016965
 30
0.0
 11
1628.89603567984
 21
209.1198511652094
 31
0.0
  0
LINE
  5
5854
330
1F
100
AcDbEntity
  8
AM_VIS
100
AcDbLine
 10
1628.89603567984
 20
209.1198511652094
 30
0.0
 11
1627.64603567984
 21
209.8415390016965
 31
0.0
  0
CIRCLE
  5
5855
330
1F
100
AcDbEntity
  8
AM_VIS
100
AcDbCircle
 10
1628.89603567984
 20
210.5632268376447
 30
0.0
 40
2.5
  0
LINE
  5
5856
330
1F
100
AcDbEntity
  8
AM_VIS
100
AcDbLine
 10
1612.39603567984
 20
344.3801946178475
 30
0.0
 11
1613.64603567984
 21
343.6585067813605
 31
0.0
  0
LINE
  5
5857
330
1F
100
AcDbEntity
  8
AM_VIS
100
AcDbLine
 10
1611.14603567984
 20
343.6585067813605
 30
0.0
 11
1612.39603567984
 21
344.3801946178475
 31
0.0
  0
LINE
  5
5858
330
1F
100
AcDbEntity
  8
AM_VIS
100
AcDbLine
 10
1611.14603567984
 20
342.2151311083864
 30
0.0
 11
1611.14603567984
 21
343.6585067813605
 31
0.0
  0
LINE
  5
5859
330
1F
100
AcDbEntity
  8
AM_VIS
100
AcDbLine
 10
1612.39603567984
 20
341.4934432718994
 30
0.0
 11
1611.14603567984
 21
342.2151311083864
 31
0.0
  0
LINE
  5
585A
330
1F
100
AcDbEntity
  8
AM_VIS
100
AcDbLine
 10
1613.64603567984
 20
342.2151311083864
 30
0.0
 11
1612.39603567984
 21
341.4934432718994
 31
0.0
  0
LINE
  5
585B
330
1F
100
AcDbEntity
  8
AM_VIS
100
AcDbLine
 10
1613.64603567984
 20
343.6585067813605
 30
0.0
 11
1613.64603567984
 21
342.2151311083864
 31
0.0
  0
CIRCLE
  5
585C
330
1F
100
AcDbEntity
  8
AM_VIS
100
AcDbCircle
 10
1612.39603567984
 20
342.9368189448734
 30
0.0
 40
2.75
  0
LINE
  5
585D
330
1F
100
AcDbEntity
  8
AM_VIS
100
AcDbLine
 10
1622.39603567984
 20
344.3801946178475
 30
0.0
 11
1623.64603567984
 21
343.6585067813605
 31
0.0
  0
LINE
  5
585E
330
1F
100
AcDbEntity
  8
AM_VIS
100
AcDbLine
 10
1621.14603567984
 20
343.6585067813605
 30
0.0
 11
1622.39603567984
 21
344.3801946178475
 31
0.0
  0
LINE
  5
585F
330
1F
100
AcDbEntity
  8
AM_VIS
100
AcDbLine
 10
1621.14603567984
 20
342.2151311083864
 30
0.0
 11
1621.14603567984
 21
343.6585067813605
 31
0.0
  0
LINE
  5
5860
330
1F
100
AcDbEntity
  8
AM_VIS
100
AcDbLine
 10
1622.39603567984
 20
341.4934432718994
 30
0.0
 11
1621.14603567984
 21
342.2151311083864
 31
0.0
  0
LINE
  5
5861
330
1F
100
AcDbEntity
  8
AM_VIS
100
AcDbLine
 10
1623.64603567984
 20
342.2151311083864
 30
0.0
 11
1622.39603567984
 21
341.4934432718994
 31
0.0
  0
LINE
  5
5862
330
1F
100
AcDbEntity
  8
AM_VIS
100
AcDbLine
 10
1623.64603567984
 20
343.6585067813605
 30
0.0
 11
1623.64603567984
 21
342.2151311083864
 31
0.0
  0
CIRCLE
  5
5863
330
1F
100
AcDbEntity
  8
AM_VIS
100
AcDbCircle
 10
1622.39603567984
 20
342.9368189448734
 30
0.0
 40
2.75
  0
LINE
  5
5864
330
1F
100
AcDbEntity
  8
AM_VIS
100
AcDbLine
 10
1612.39603567984
 20
329.3801946178475
 30
0.0
 11
1613.64603567984
 21
328.6585067813605
 31
0.0
  0
LINE
  5
5865
330
1F
100
AcDbEntity
  8
AM_VIS
100
AcDbLine
 10
1611.14603567984
 20
328.6585067813605
 30
0.0
 11
1612.39603567984
 21
329.3801946178475
 31
0.0
  0
LINE
  5
5866
330
1F
100
AcDbEntity
  8
AM_VIS
100
AcDbLine
 10
1611.14603567984
 20
327.2151311083864
 30
0.0
 11
1611.14603567984
 21
328.6585067813605
 31
0.0
  0
LINE
  5
5867
330
1F
100
AcDbEntity
  8
AM_VIS
100
AcDbLine
 10
1612.39603567984
 20
326.4934432718994
 30
0.0
 11
1611.14603567984
 21
327.2151311083864
 31
0.0
  0
LINE
  5
5868
330
1F
100
AcDbEntity
  8
AM_VIS
100
AcDbLine
 10
1613.64603567984
 20
327.2151311083864
 30
0.0
 11
1612.39603567984
 21
326.4934432718994
 31
0.0
  0
LINE
  5
5869
330
1F
100
AcDbEntity
  8
AM_VIS
100
AcDbLine
 10
1613.64603567984
 20
328.6585067813605
 30
0.0
 11
1613.64603567984
 21
327.2151311083864
 31
0.0
  0
CIRCLE
  5
586A
330
1F
100
AcDbEntity
  8
AM_VIS
100
AcDbCircle
 10
1612.39603567984
 20
327.9368189448734
 30
0.0
 40
2.75
  0
LINE
  5
586B
330
1F
100
AcDbEntity
  8
AM_VIS
100
AcDbLine
 10
1622.39603567984
 20
329.3801946178475
 30
0.0
 11
1623.64603567984
 21
328.6585067813605
 31
0.0
  0
LINE
  5
586C
330
1F
100
AcDbEntity
  8
AM_VIS
100
AcDbLine
 10
1621.14603567984
 20
328.6585067813605
 30
0.0
 11
1622.39603567984
 21
329.3801946178475
 31
0.0
  0
LINE
  5
586D
330
1F
100
AcDbEntity
  8
AM_VIS
100
AcDbLine
 10
1621.14603567984
 20
327.2151311083864
 30
0.0
 11
1621.14603567984
 21
328.6585067813605
 31
0.0
  0
LINE
  5
586E
330
1F
100
AcDbEntity
  8
AM_VIS
100
AcDbLine
 10
1622.39603567984
 20
326.4934432718994
 30
0.0
 11
1621.14603567984
 21
327.2151311083864
 31
0.0
  0
LINE
  5
586F
330
1F
100
AcDbEntity
  8
AM_VIS
100
AcDbLine
 10
1623.64603567984
 20
327.2151311083864
 30
0.0
 11
1622.39603567984
 21
326.4934432718994
 31
0.0
  0
LINE
  5
5870
330
1F
100
AcDbEntity
  8
AM_VIS
100
AcDbLine
 10
1623.64603567984
 20
328.6585067813605
 30
0.0
 11
1623.64603567984
 21
327.2151311083864
 31
0.0
  0
CIRCLE
  5
5871
330
1F
100
AcDbEntity
  8
AM_VIS
100
AcDbCircle
 10
1622.39603567984
 20
327.9368189448734
 30
0.0
 40
2.75
  0
LINE
  5
5872
330
1F
100
AcDbEntity
  8
AM_VIS
100
AcDbLine
 10
1627.64603567984
 20
234.8415390016965
 30
0.0
 11
1627.64603567984
 21
236.2849146746706
 31
0.0
  0
LINE
  5
5873
330
1F
100
AcDbEntity
  8
AM_VIS
100
AcDbLine
 10
1627.64603567984
 20
236.2849146746706
 30
0.0
 11
1628.89603567984
 21
237.0066025111576
 31
0.0
  0
LINE
  5
5874
330
1F
100
AcDbEntity
  8
AM_VIS
100
AcDbLine
 10
1628.89603567984
 20
237.0066025111576
 30
0.0
 11
1630.14603567984
 21
236.2849146746706
 31
0.0
  0
LINE
  5
5875
330
1F
100
AcDbEntity
  8
AM_VIS
100
AcDbLine
 10
1630.14603567984
 20
236.2849146746706
 30
0.0
 11
1630.14603567984
 21
234.8415390016965
 31
0.0
  0
LINE
  5
5876
330
1F
100
AcDbEntity
  8
AM_VIS
100
AcDbLine
 10
1630.14603567984
 20
234.8415390016965
 30
0.0
 11
1628.89603567984
 21
234.1198511652094
 31
0.0
  0
LINE
  5
5877
330
1F
100
AcDbEntity
  8
AM_VIS
100
AcDbLine
 10
1628.89603567984
 20
234.1198511652094
 30
0.0
 11
1627.64603567984
 21
234.8415390016965
 31
0.0
  0
CIRCLE
  5
5878
330
1F
100
AcDbEntity
  8
AM_VIS
100
AcDbCircle
 10
1628.89603567984
 20
235.5632268376447
 30
0.0
 40
2.5
  0
LINE
  5
5879
330
1F
100
AcDbEntity
  8
AM_7
  6
AM_ISO08W050x2
100
AcDbLine
 10
1559.39603567984
 20
343.4368189448735
 30
0.0
 11
1562.89603567984
 21
343.4368189448735
 31
0.0
1001
GENIUS_GENOREF_13
1005
5927
  0
LINE
  5
587A
330
1F
100
AcDbEntity
  8
AM_7
  6
AM_ISO08W050x2
100
AcDbLine
 10
1559.39603567984
 20
343.4368189448735
 30
0.0
 11
1559.39603567984
 21
346.9368189448734
 31
0.0
1001
GENIUS_GENOREF_13
1005
5927
  0
LINE
  5
587B
330
1F
100
AcDbEntity
  8
AM_7
  6
AM_ISO08W050x2
100
AcDbLine
 10
1559.39603567984
 20
343.4368189448735
 30
0.0
 11
1555.89603567984
 21
343.4368189448735
 31
0.0
1001
GENIUS_GENOREF_13
1005
5927
  0
LINE
  5
587C
330
1F
100
AcDbEntity
  8
AM_7
  6
AM_ISO08W050x2
100
AcDbLine
 10
1559.39603567984
 20
343.4368189448735
 30
0.0
 11
1559.39603567984
 21
339.9368189448734
 31
0.0
1001
GENIUS_GENOREF_13
1005
5927
  0
LINE
  5
587D
330
1F
100
AcDbEntity
  8
AM_7
  6
AM_ISO08W050x2
100
AcDbLine
 10
1579.39603567984
 20
343.4368189448735
 30
0.0
 11
1582.89603567984
 21
343.4368189448735
 31
0.0
1001
GENIUS_GENOREF_13
1005
5926
  0
LINE
  5
587E
330
1F
100
AcDbEntity
  8
AM_7
  6
AM_ISO08W050x2
100
AcDbLine
 10
1579.39603567984
 20
343.4368189448735
 30
0.0
 11
1579.39603567984
 21
346.9368189448734
 31
0.0
1001
GENIUS_GENOREF_13
1005
5926
  0
LINE
  5
587F
330
1F
100
AcDbEntity
  8
AM_7
  6
AM_ISO08W050x2
100
AcDbLine
 10
1579.39603567984
 20
343.4368189448735
 30
0.0
 11
1575.89603567984
 21
343.4368189448735
 31
0.0
1001
GENIUS_GENOREF_13
1005
5926
  0
LINE
  5
5880
330
1F
100
AcDbEntity
  8
AM_7
  6
AM_ISO08W050x2
100
AcDbLine
 10
1579.39603567984
 20
343.4368189448735
 30
0.0
 11
1579.39603567984
 21
339.9368189448734
 31
0.0
1001
GENIUS_GENOREF_13
1005
5926
  0
LINE
  5
5881
330
1F
100
AcDbEntity
  8
AM_7
  6
AM_ISO08W050x2
100
AcDbLine
 10
1599.39603567984
 20
343.4368189448735
 30
0.0
 11
1602.89603567984
 21
343.4368189448735
 31
0.0
1001
GENIUS_GENOREF_13
1005
5925
  0
LINE
  5
5882
330
1F
100
AcDbEntity
  8
AM_7
  6
AM_ISO08W050x2
100
AcDbLine
 10
1599.39603567984
 20
343.4368189448735
 30
0.0
 11
1599.39603567984
 21
346.9368189448734
 31
0.0
1001
GENIUS_GENOREF_13
1005
5925
  0
LINE
  5
5883
330
1F
100
AcDbEntity
  8
AM_7
  6
AM_ISO08W050x2
100
AcDbLine
 10
1599.39603567984
 20
343.4368189448735
 30
0.0
 11
1595.89603567984
 21
343.4368189448735
 31
0.0
1001
GENIUS_GENOREF_13
1005
5925
  0
LINE
  5
5884
330
1F
100
AcDbEntity
  8
AM_7
  6
AM_ISO08W050x2
100
AcDbLine
 10
1599.39603567984
 20
343.4368189448735
 30
0.0
 11
1599.39603567984
 21
339.9368189448734
 31
0.0
1001
GENIUS_GENOREF_13
1005
5925
  0
LINE
  5
5885
330
1F
100
AcDbEntity
  8
AM_7
  6
AM_ISO08W050x2
100
AcDbLine
 10
1599.39603567984
 20
327.4368189448734
 30
0.0
 11
1602.89603567984
 21
327.4368189448734
 31
0.0
1001
GENIUS_GENOREF_13
1005
5924
  0
LINE
  5
5886
330
1F
100
AcDbEntity
  8
AM_7
  6
AM_ISO08W050x2
100
AcDbLine
 10
1599.39603567984
 20
327.4368189448734
 30
0.0
 11
1599.39603567984
 21
330.9368189448735
 31
0.0
1001
GENIUS_GENOREF_13
1005
5924
  0
LINE
  5
5887
330
1F
100
AcDbEntity
  8
AM_7
  6
AM_ISO08W050x2
100
AcDbLine
 10
1599.39603567984
 20
327.4368189448734
 30
0.0
 11
1595.89603567984
 21
327.4368189448734
 31
0.0
1001
GENIUS_GENOREF_13
1005
5924
  0
LINE
  5
5888
330
1F
100
AcDbEntity
  8
AM_7
  6
AM_ISO08W050x2
100
AcDbLine
 10
1599.39603567984
 20
327.4368189448734
 30
0.0
 11
1599.39603567984
 21
323.9368189448734
 31
0.0
1001
GENIUS_GENOREF_13
1005
5924
  0
LINE
  5
5889
330
1F
100
AcDbEntity
  8
AM_7
  6
AM_ISO08W050x2
100
AcDbLine
 10
1579.39603567984
 20
327.4368189448734
 30
0.0
 11
1582.89603567984
 21
327.4368189448734
 31
0.0
1001
GENIUS_GENOREF_13
1005
5923
  0
LINE
  5
588A
330
1F
100
AcDbEntity
  8
AM_7
  6
AM_ISO08W050x2
100
AcDbLine
 10
1579.39603567984
 20
327.4368189448734
 30
0.0
 11
1579.39603567984
 21
330.9368189448735
 31
0.0
1001
GENIUS_GENOREF_13
1005
5923
  0
LINE
  5
588B
330
1F
100
AcDbEntity
  8
AM_7
  6
AM_ISO08W050x2
100
AcDbLine
 10
1579.39603567984
 20
327.4368189448734
 30
0.0
 11
1575.89603567984
 21
327.4368189448734
 31
0.0
1001
GENIUS_GENOREF_13
1005
5923
  0
LINE
  5
588C
330
1F
100
AcDbEntity
  8
AM_7
  6
AM_ISO08W050x2
100
AcDbLine
 10
1579.39603567984
 20
327.4368189448734
 30
0.0
 11
1579.39603567984
 21
323.9368189448734
 31
0.0
1001
GENIUS_GENOREF_13
1005
5923
  0
LINE
  5
588D
330
1F
100
AcDbEntity
  8
AM_7
  6
AM_ISO08W050x2
100
AcDbLine
 10
1559.39603567984
 20
327.4368189448734
 30
0.0
 11
1562.89603567984
 21
327.4368189448734
 31
0.0
1001
GENIUS_GENOREF_13
1005
5922
  0
LINE
  5
588E
330
1F
100
AcDbEntity
  8
AM_7
  6
AM_ISO08W050x2
100
AcDbLine
 10
1559.39603567984
 20
327.4368189448734
 30
0.0
 11
1559.39603567984
 21
330.9368189448735
 31
0.0
1001
GENIUS_GENOREF_13
1005
5922
  0
LINE
  5
588F
330
1F
100
AcDbEntity
  8
AM_7
  6
AM_ISO08W050x2
100
AcDbLine
 10
1559.39603567984
 20
327.4368189448734
 30
0.0
 11
1555.89603567984
 21
327.4368189448734
 31
0.0
1001
GENIUS_GENOREF_13
1005
5922
  0
LINE
  5
5890
330
1F
100
AcDbEntity
  8
AM_7
  6
AM_ISO08W050x2
100
AcDbLine
 10
1559.39603567984
 20
327.4368189448734
 30
0.0
 11
1559.39603567984
 21
323.9368189448734
 31
0.0
1001
GENIUS_GENOREF_13
1005
5922
  0
LINE
  5
5891
330
1F
100
AcDbEntity
  8
AM_7
  6
AM_ISO08W050x2
100
AcDbLine
 10
1612.39603567984
 20
342.9368189448734
 30
0.0
 11
1616.89603567984
 21
342.9368189448734
 31
0.0
1001
GENIUS_GENOREF_13
1005
5921
  0
LINE
  5
5892
330
1F
100
AcDbEntity
  8
AM_7
  6
AM_ISO08W050x2
100
AcDbLine
 10
1612.39603567984
 20
342.9368189448734
 30
0.0
 11
1612.39603567984
 21
347.4368189448735
 31
0.0
1001
GENIUS_GENOREF_13
1005
5921
  0
LINE
  5
5893
330
1F
100
AcDbEntity
  8
AM_7
  6
AM_ISO08W050x2
100
AcDbLine
 10
1612.39603567984
 20
342.9368189448734
 30
0.0
 11
1607.89603567984
 21
342.9368189448734
 31
0.0
1001
GENIUS_GENOREF_13
1005
5921
  0
LINE
  5
5894
330
1F
100
AcDbEntity
  8
AM_7
  6
AM_ISO08W050x2
100
AcDbLine
 10
1612.39603567984
 20
342.9368189448734
 30
0.0
 11
1612.39603567984
 21
338.4368189448734
 31
0.0
1001
GENIUS_GENOREF_13
1005
5921
  0
LINE
  5
5895
330
1F
100
AcDbEntity
  8
AM_7
  6
AM_ISO08W050x2
100
AcDbLine
 10
1622.39603567984
 20
342.9368189448734
 30
0.0
 11
1626.89603567984
 21
342.9368189448734
 31
0.0
1001
GENIUS_GENOREF_13
1005
5920
  0
LINE
  5
5896
330
1F
100
AcDbEntity
  8
AM_7
  6
AM_ISO08W050x2
100
AcDbLine
 10
1622.39603567984
 20
342.9368189448734
 30
0.0
 11
1622.39603567984
 21
347.4368189448735
 31
0.0
1001
GENIUS_GENOREF_13
1005
5920
  0
LINE
  5
5897
330
1F
100
AcDbEntity
  8
AM_7
  6
AM_ISO08W050x2
100
AcDbLine
 10
1622.39603567984
 20
342.9368189448734
 30
0.0
 11
1617.89603567984
 21
342.9368189448734
 31
0.0
1001
GENIUS_GENOREF_13
1005
5920
  0
LINE
  5
5898
330
1F
100
AcDbEntity
  8
AM_7
  6
AM_ISO08W050x2
100
AcDbLine
 10
1622.39603567984
 20
342.9368189448734
 30
0.0
 11
1622.39603567984
 21
338.4368189448734
 31
0.0
1001
GENIUS_GENOREF_13
1005
5920
  0
LINE
  5
5899
330
1F
100
AcDbEntity
  8
AM_7
  6
AM_ISO08W050x2
100
AcDbLine
 10
1622.39603567984
 20
327.9368189448734
 30
0.0
 11
1626.89603567984
 21
327.9368189448734
 31
0.0
1001
GENIUS_GENOREF_13
1005
591F
  0
LINE
  5
589A
330
1F
100
AcDbEntity
  8
AM_7
  6
AM_ISO08W050x2
100
AcDbLine
 10
1622.39603567984
 20
327.9368189448734
 30
0.0
 11
1622.39603567984
 21
332.4368189448734
 31
0.0
1001
GENIUS_GENOREF_13
1005
591F
  0
LINE
  5
589B
330
1F
100
AcDbEntity
  8
AM_7
  6
AM_ISO08W050x2
100
AcDbLine
 10
1622.39603567984
 20
327.9368189448734
 30
0.0
 11
1617.89603567984
 21
327.9368189448734
 31
0.0
1001
GENIUS_GENOREF_13
1005
591F
  0
LINE
  5
589C
330
1F
100
AcDbEntity
  8
AM_7
  6
AM_ISO08W050x2
100
AcDbLine
 10
1622.39603567984
 20
327.9368189448734
 30
0.0
 11
1622.39603567984
 21
323.4368189448734
 31
0.0
1001
GENIUS_GENOREF_13
1005
591F
  0
LINE
  5
589D
330
1F
100
AcDbEntity
  8
AM_7
  6
AM_ISO08W050x2
100
AcDbLine
 10
1612.39603567984
 20
327.9368189448734
 30
0.0
 11
1616.89603567984
 21
327.9368189448734
 31
0.0
1001
GENIUS_GENOREF_13
1005
591E
  0
LINE
  5
589E
330
1F
100
AcDbEntity
  8
AM_7
  6
AM_ISO08W050x2
100
AcDbLine
 10
1612.39603567984
 20
327.9368189448734
 30
0.0
 11
1612.39603567984
 21
332.4368189448734
 31
0.0
1001
GENIUS_GENOREF_13
1005
591E
  0
LINE
  5
589F
330
1F
100
AcDbEntity
  8
AM_7
  6
AM_ISO08W050x2
100
AcDbLine
 10
1612.39603567984
 20
327.9368189448734
 30
0.0
 11
1607.89603567984
 21
327.9368189448734
 31
0.0
1001
GENIUS_GENOREF_13
1005
591E
  0
LINE
  5
58A0
330
1F
100
AcDbEntity
  8
AM_7
  6
AM_ISO08W050x2
100
AcDbLine
 10
1612.39603567984
 20
327.9368189448734
 30
0.0
 11
1612.39603567984
 21
323.4368189448734
 31
0.0
1001
GENIUS_GENOREF_13
1005
591E
  0
LINE
  5
58A1
330
1F
100
AcDbEntity
  8
AM_7
  6
AM_ISO08W050x2
100
AcDbLine
 10
1564.39603567984
 20
236.5632268376447
 30
0.0
 11
1569.64603567984
 21
236.5632268376447
 31
0.0
1001
GENIUS_GENOREF_13
1005
591D
  0
LINE
  5
58A2
330
1F
100
AcDbEntity
  8
AM_7
  6
AM_ISO08W050x2
100
AcDbLine
 10
1564.39603567984
 20
236.5632268376447
 30
0.0
 11
1564.39603567984
 21
241.8132268376447
 31
0.0
1001
GENIUS_GENOREF_13
1005
591D
  0
LINE
  5
58A3
330
1F
100
AcDbEntity
  8
AM_7
  6
AM_ISO08W050x2
100
AcDbLine
 10
1564.39603567984
 20
236.5632268376447
 30
0.0
 11
1559.14603567984
 21
236.5632268376447
 31
0.0
1001
GENIUS_GENOREF_13
1005
591D
  0
LINE
  5
58A4
330
1F
100
AcDbEntity
  8
AM_7
  6
AM_ISO08W050x2
100
AcDbLine
 10
1564.39603567984
 20
236.5632268376447
 30
0.0
 11
1564.39603567984
 21
231.3132268376447
 31
0.0
1001
GENIUS_GENOREF_13
1005
591D
  0
LINE
  5
58A5
330
1F
100
AcDbEntity
  8
AM_7
  6
AM_ISO08W050x2
100
AcDbLine
 10
1614.39603567984
 20
236.5632268376447
 30
0.0
 11
1619.64603567984
 21
236.5632268376447
 31
0.0
1001
GENIUS_GENOREF_13
1005
591C
  0
LINE
  5
58A6
330
1F
100
AcDbEntity
  8
AM_7
  6
AM_ISO08W050x2
100
AcDbLine
 10
1614.39603567984
 20
236.5632268376447
 30
0.0
 11
1614.39603567984
 21
241.8132268376447
 31
0.0
1001
GENIUS_GENOREF_13
1005
591C
  0
LINE
  5
58A7
330
1F
100
AcDbEntity
  8
AM_7
  6
AM_ISO08W050x2
100
AcDbLine
 10
1614.39603567984
 20
236.5632268376447
 30
0.0
 11
1609.14603567984
 21
236.5632268376447
 31
0.0
1001
GENIUS_GENOREF_13
1005
591C
  0
LINE
  5
58A8
330
1F
100
AcDbEntity
  8
AM_7
  6
AM_ISO08W050x2
100
AcDbLine
 10
1614.39603567984
 20
236.5632268376447
 30
0.0
 11
1614.39603567984
 21
231.3132268376447
 31
0.0
1001
GENIUS_GENOREF_13
1005
591C
  0
LINE
  5
58A9
330
1F
100
AcDbEntity
  8
AM_7
  6
AM_ISO08W050x2
100
AcDbLine
 10
1564.39603567984
 20
209.5632268376447
 30
0.0
 11
1569.64603567984
 21
209.5632268376447
 31
0.0
1001
GENIUS_GENOREF_13
1005
591B
  0
LINE
  5
58AA
330
1F
100
AcDbEntity
  8
AM_7
  6
AM_ISO08W050x2
100
AcDbLine
 10
1564.39603567984
 20
209.5632268376447
 30
0.0
 11
1564.39603567984
 21
214.8132268376447
 31
0.0
1001
GENIUS_GENOREF_13
1005
591B
  0
LINE
  5
58AB
330
1F
100
AcDbEntity
  8
AM_7
  6
AM_ISO08W050x2
100
AcDbLine
 10
1564.39603567984
 20
209.5632268376447
 30
0.0
 11
1559.14603567984
 21
209.5632268376447
 31
0.0
1001
GENIUS_GENOREF_13
1005
591B
  0
LINE
  5
58AC
330
1F
100
AcDbEntity
  8
AM_7
  6
AM_ISO08W050x2
100
AcDbLine
 10
1564.39603567984
 20
209.5632268376447
 30
0.0
 11
1564.39603567984
 21
204.3132268376447
 31
0.0
1001
GENIUS_GENOREF_13
1005
591B
  0
LINE
  5
58AD
330
1F
100
AcDbEntity
  8
AM_7
  6
AM_ISO08W050x2
100
AcDbLine
 10
1628.89603567984
 20
210.5632268376447
 30
0.0
 11
1632.896035679841
 21
210.5632268376447
 31
0.0
1001
GENIUS_GENOREF_13
1005
591A
  0
LINE
  5
58AE
330
1F
100
AcDbEntity
  8
AM_7
  6
AM_ISO08W050x2
100
AcDbLine
 10
1628.89603567984
 20
210.5632268376447
 30
0.0
 11
1628.89603567984
 21
214.5632268376447
 31
0.0
1001
GENIUS_GENOREF_13
1005
591A
  0
LINE
  5
58AF
330
1F
100
AcDbEntity
  8
AM_7
  6
AM_ISO08W050x2
100
AcDbLine
 10
1628.89603567984
 20
210.5632268376447
 30
0.0
 11
1624.89603567984
 21
210.5632268376447
 31
0.0
1001
GENIUS_GENOREF_13
1005
591A
  0
LINE
  5
58B0
330
1F
100
AcDbEntity
  8
AM_7
  6
AM_ISO08W050x2
100
AcDbLine
 10
1628.89603567984
 20
210.5632268376447
 30
0.0
 11
1628.89603567984
 21
206.5632268376447
 31
0.0
1001
GENIUS_GENOREF_13
1005
591A
  0
LINE
  5
58B1
330
1F
100
AcDbEntity
  8
AM_7
  6
AM_ISO08W050x2
100
AcDbLine
 10
1628.89603567984
 20
235.5632268376447
 30
0.0
 11
1632.89603567984
 21
235.5632268376447
 31
0.0
1001
GENIUS_GENOREF_13
1005
5919
  0
LINE
  5
58B2
330
1F
100
AcDbEntity
  8
AM_7
  6
AM_ISO08W050x2
100
AcDbLine
 10
1628.89603567984
 20
235.5632268376447
 30
0.0
 11
1628.89603567984
 21
239.5632268376447
 31
0.0
1001
GENIUS_GENOREF_13
1005
5919
  0
LINE
  5
58B3
330
1F
100
AcDbEntity
  8
AM_7
  6
AM_ISO08W050x2
100
AcDbLine
 10
1628.89603567984
 20
235.5632268376447
 30
0.0
 11
1624.89603567984
 21
235.5632268376447
 31
0.0
1001
GENIUS_GENOREF_13
1005
5919
  0
LINE
  5
58B4
330
1F
100
AcDbEntity
  8
AM_7
  6
AM_ISO08W050x2
100
AcDbLine
 10
1628.89603567984
 20
235.5632268376447
 30
0.0
 11
1628.89603567984
 21
231.5632268376447
 31
0.0
1001
GENIUS_GENOREF_13
1005
5919
  0
LINE
  5
58B5
330
1F
100
AcDbEntity
  8
AM_7
  6
AM_ISO08W050x2
100
AcDbLine
 10
1460.505601793071
 20
236.0632268376447
 30
0.0
 11
1464.005601793072
 21
236.0632268376447
 31
0.0
1001
GENIUS_GENOREF_13
1005
5918
  0
LINE
  5
58B6
330
1F
100
AcDbEntity
  8
AM_7
  6
AM_ISO08W050x2
100
AcDbLine
 10
1460.505601793071
 20
236.0632268376447
 30
0.0
 11
1460.505601793071
 21
239.5632268376449
 31
0.0
1001
GENIUS_GENOREF_13
1005
5918
  0
LINE
  5
58B7
330
1F
100
AcDbEntity
  8
AM_7
  6
AM_ISO08W050x2
100
AcDbLine
 10
1460.505601793071
 20
236.0632268376447
 30
0.0
 11
1457.005601793071
 21
236.0632268376447
 31
0.0
1001
GENIUS_GENOREF_13
1005
5918
  0
LINE
  5
58B8
330
1F
100
AcDbEntity
  8
AM_7
  6
AM_ISO08W050x2
100
AcDbLine
 10
1460.505601793071
 20
236.0632268376447
 30
0.0
 11
1460.505601793071
 21
232.5632268376444
 31
0.0
1001
GENIUS_GENOREF_13
1005
5918
  0
LINE
  5
58B9
330
1F
100
AcDbEntity
  8
AM_7
  6
AM_ISO08W050x2
100
AcDbLine
 10
1444.505601793071
 20
236.0632268376447
 30
0.0
 11
1448.005601793071
 21
236.0632268376447
 31
0.0
1001
GENIUS_GENOREF_13
1005
5917
  0
LINE
  5
58BA
330
1F
100
AcDbEntity
  8
AM_7
  6
AM_ISO08W050x2
100
AcDbLine
 10
1444.505601793071
 20
236.0632268376447
 30
0.0
 11
1444.505601793071
 21
239.5632268376445
 31
0.0
1001
GENIUS_GENOREF_13
1005
5917
  0
LINE
  5
58BB
330
1F
100
AcDbEntity
  8
AM_7
  6
AM_ISO08W050x2
100
AcDbLine
 10
1444.505601793071
 20
236.0632268376447
 30
0.0
 11
1441.005601793072
 21
236.0632268376447
 31
0.0
1001
GENIUS_GENOREF_13
1005
5917
  0
LINE
  5
58BC
330
1F
100
AcDbEntity
  8
AM_7
  6
AM_ISO08W050x2
100
AcDbLine
 10
1444.505601793071
 20
236.0632268376447
 30
0.0
 11
1444.505601793071
 21
232.5632268376449
 31
0.0
1001
GENIUS_GENOREF_13
1005
5917
  0
LINE
  5
58BD
330
1F
100
AcDbEntity
  8
AM_7
  6
AM_ISO08W050x2
100
AcDbLine
 10
1444.505601793071
 20
210.0632268376446
 30
0.0
 11
1448.005601793071
 21
210.0632268376446
 31
0.0
1001
GENIUS_GENOREF_13
1005
5916
  0
LINE
  5
58BE
330
1F
100
AcDbEntity
  8
AM_7
  6
AM_ISO08W050x2
100
AcDbLine
 10
1444.505601793071
 20
210.0632268376446
 30
0.0
 11
1444.505601793071
 21
213.5632268376444
 31
0.0
1001
GENIUS_GENOREF_13
1005
5916
  0
LINE
  5
58BF
330
1F
100
AcDbEntity
  8
AM_7
  6
AM_ISO08W050x2
100
AcDbLine
 10
1444.505601793071
 20
210.0632268376446
 30
0.0
 11
1441.005601793072
 21
210.0632268376446
 31
0.0
1001
GENIUS_GENOREF_13
1005
5916
  0
LINE
  5
58C0
330
1F
100
AcDbEntity
  8
AM_7
  6
AM_ISO08W050x2
100
AcDbLine
 10
1444.505601793071
 20
210.0632268376446
 30
0.0
 11
1444.505601793071
 21
206.5632268376449
 31
0.0
1001
GENIUS_GENOREF_13
1005
5916
  0
LINE
  5
58C1
330
1F
100
AcDbEntity
  8
AM_7
  6
AM_ISO08W050x2
100
AcDbLine
 10
1460.505601793071
 20
210.0632268376446
 30
0.0
 11
1464.005601793071
 21
210.0632268376446
 31
0.0
1001
GENIUS_GENOREF_13
1005
5915
  0
LINE
  5
58C2
330
1F
100
AcDbEntity
  8
AM_7
  6
AM_ISO08W050x2
100
AcDbLine
 10
1460.505601793071
 20
210.0632268376446
 30
0.0
 11
1460.505601793071
 21
213.5632268376444
 31
0.0
1001
GENIUS_GENOREF_13
1005
5915
  0
LINE
  5
58C3
330
1F
100
AcDbEntity
  8
AM_7
  6
AM_ISO08W050x2
100
AcDbLine
 10
1460.505601793071
 20
210.0632268376446
 30
0.0
 11
1457.005601793072
 21
210.0632268376446
 31
0.0
1001
GENIUS_GENOREF_13
1005
5915
  0
LINE
  5
58C4
330
1F
100
AcDbEntity
  8
AM_7
  6
AM_ISO08W050x2
100
AcDbLine
 10
1460.505601793071
 20
210.0632268376446
 30
0.0
 11
1460.505601793071
 21
206.5632268376449
 31
0.0
1001
GENIUS_GENOREF_13
1005
5915
  0
LINE
  5
58C5
330
1F
100
AcDbEntity
  8
AM_7
  6
AM_ISO08W050x2
100
AcDbLine
 10
1739.749884633002
 20
209.5632268376447
 30
0.0
 11
1743.249884633002
 21
209.5632268376447
 31
0.0
1001
GENIUS_GENOREF_13
1005
5914
  0
LINE
  5
58C6
330
1F
100
AcDbEntity
  8
AM_7
  6
AM_ISO08W050x2
100
AcDbLine
 10
1739.749884633002
 20
209.5632268376447
 30
0.0
 11
1739.749884633002
 21
213.0632268376447
 31
0.0
1001
GENIUS_GENOREF_13
1005
5914
  0
LINE
  5
58C7
330
1F
100
AcDbEntity
  8
AM_7
  6
AM_ISO08W050x2
100
AcDbLine
 10
1739.749884633002
 20
209.5632268376447
 30
0.0
 11
1736.249884633002
 21
209.5632268376447
 31
0.0
1001
GENIUS_GENOREF_13
1005
5914
  0
LINE
  5
58C8
330
1F
100
AcDbEntity
  8
AM_7
  6
AM_ISO08W050x2
100
AcDbLine
 10
1739.749884633002
 20
209.5632268376447
 30
0.0
 11
1739.749884633002
 21
206.0632268376447
 31
0.0
1001
GENIUS_GENOREF_13
1005
5914
  0
LINE
  5
58C9
330
1F
100
AcDbEntity
  8
AM_7
  6
AM_ISO08W050x2
100
AcDbLine
 10
1748.249884633002
 20
210.5632268376447
 30
0.0
 11
1752.249884633002
 21
210.5632268376447
 31
0.0
1001
GENIUS_GENOREF_13
1005
5913
  0
LINE
  5
58CA
330
1F
100
AcDbEntity
  8
AM_7
  6
AM_ISO08W050x2
100
AcDbLine
 10
1748.249884633002
 20
210.5632268376447
 30
0.0
 11
1748.249884633002
 21
214.5632268376447
 31
0.0
1001
GENIUS_GENOREF_13
1005
5913
  0
LINE
  5
58CB
330
1F
100
AcDbEntity
  8
AM_7
  6
AM_ISO08W050x2
100
AcDbLine
 10
1748.249884633002
 20
210.5632268376447
 30
0.0
 11
1744.249884633002
 21
210.5632268376447
 31
0.0
1001
GENIUS_GENOREF_13
1005
5913
  0
LINE
  5
58CC
330
1F
100
AcDbEntity
  8
AM_7
  6
AM_ISO08W050x2
100
AcDbLine
 10
1748.249884633002
 20
210.5632268376447
 30
0.0
 11
1748.249884633002
 21
206.5632268376447
 31
0.0
1001
GENIUS_GENOREF_13
1005
5913
  0
LINE
  5
58CD
330
1F
100
AcDbEntity
  8
AM_7
  6
AM_ISO08W050x2
100
AcDbLine
 10
1756.749884633002
 20
209.5632268376447
 30
0.0
 11
1760.249884633002
 21
209.5632268376447
 31
0.0
1001
GENIUS_GENOREF_13
1005
5912
  0
LINE
  5
58CE
330
1F
100
AcDbEntity
  8
AM_7
  6
AM_ISO08W050x2
100
AcDbLine
 10
1756.749884633002
 20
209.5632268376447
 30
0.0
 11
1756.749884633002
 21
213.0632268376447
 31
0.0
1001
GENIUS_GENOREF_13
1005
5912
  0
LINE
  5
58CF
330
1F
100
AcDbEntity
  8
AM_7
  6
AM_ISO08W050x2
100
AcDbLine
 10
1756.749884633002
 20
209.5632268376447
 30
0.0
 11
1753.249884633002
 21
209.5632268376447
 31
0.0
1001
GENIUS_GENOREF_13
1005
5912
  0
LINE
  5
58D0
330
1F
100
AcDbEntity
  8
AM_7
  6
AM_ISO08W050x2
100
AcDbLine
 10
1756.749884633002
 20
209.5632268376447
 30
0.0
 11
1756.749884633002
 21
206.0632268376447
 31
0.0
1001
GENIUS_GENOREF_13
1005
5912
  0
LINE
  5
58D1
330
1F
100
AcDbEntity
  8
AM_7
  6
AM_ISO08W050x2
100
AcDbLine
 10
1756.749884633002
 20
236.5632268376447
 30
0.0
 11
1760.249884633002
 21
236.5632268376447
 31
0.0
1001
GENIUS_GENOREF_13
1005
5911
  0
LINE
  5
58D2
330
1F
100
AcDbEntity
  8
AM_7
  6
AM_ISO08W050x2
100
AcDbLine
 10
1756.749884633002
 20
236.5632268376447
 30
0.0
 11
1756.749884633002
 21
240.0632268376447
 31
0.0
1001
GENIUS_GENOREF_13
1005
5911
  0
LINE
  5
58D3
330
1F
100
AcDbEntity
  8
AM_7
  6
AM_ISO08W050x2
100
AcDbLine
 10
1756.749884633002
 20
236.5632268376447
 30
0.0
 11
1753.249884633002
 21
236.5632268376447
 31
0.0
1001
GENIUS_GENOREF_13
1005
5911
  0
LINE
  5
58D4
330
1F
100
AcDbEntity
  8
AM_7
  6
AM_ISO08W050x2
100
AcDbLine
 10
1756.749884633002
 20
236.5632268376447
 30
0.0
 11
1756.749884633002
 21
233.0632268376447
 31
0.0
1001
GENIUS_GENOREF_13
1005
5911
  0
LINE
  5
58D5
330
1F
100
AcDbEntity
  8
AM_7
  6
AM_ISO08W050x2
100
AcDbLine
 10
1748.249884633002
 20
235.5632268376447
 30
0.0
 11
1752.249884633002
 21
235.5632268376447
 31
0.0
1001
GENIUS_GENOREF_13
1005
5910
  0
LINE
  5
58D6
330
1F
100
AcDbEntity
  8
AM_7
  6
AM_ISO08W050x2
100
AcDbLine
 10
1748.249884633002
 20
235.5632268376447
 30
0.0
 11
1748.249884633002
 21
239.5632268376447
 31
0.0
1001
GENIUS_GENOREF_13
1005
5910
  0
LINE
  5
58D7
330
1F
100
AcDbEntity
  8
AM_7
  6
AM_ISO08W050x2
100
AcDbLine
 10
1748.249884633002
 20
235.5632268376447
 30
0.0
 11
1744.249884633002
 21
235.5632268376447
 31
0.0
1001
GENIUS_GENOREF_13
1005
5910
  0
LINE
  5
58D8
330
1F
100
AcDbEntity
  8
AM_7
  6
AM_ISO08W050x2
100
AcDbLine
 10
1748.249884633002
 20
235.5632268376447
 30
0.0
 11
1748.249884633002
 21
231.5632268376447
 31
0.0
1001
GENIUS_GENOREF_13
1005
5910
  0
LINE
  5
58D9
330
1F
100
AcDbEntity
  8
AM_7
  6
AM_ISO08W050x2
100
AcDbLine
 10
1739.749884633002
 20
236.5632268376447
 30
0.0
 11
1743.249884633002
 21
236.5632268376447
 31
0.0
1001
GENIUS_GENOREF_13
1005
590F
  0
LINE
  5
58DA
330
1F
100
AcDbEntity
  8
AM_7
  6
AM_ISO08W050x2
100
AcDbLine
 10
1739.749884633002
 20
236.5632268376447
 30
0.0
 11
1739.749884633002
 21
240.0632268376447
 31
0.0
1001
GENIUS_GENOREF_13
1005
590F
  0
LINE
  5
58DB
330
1F
100
AcDbEntity
  8
AM_7
  6
AM_ISO08W050x2
100
AcDbLine
 10
1739.749884633002
 20
236.5632268376447
 30
0.0
 11
1736.249884633002
 21
236.5632268376447
 31
0.0
1001
GENIUS_GENOREF_13
1005
590F
  0
LINE
  5
58DC
330
1F
100
AcDbEntity
  8
AM_7
  6
AM_ISO08W050x2
100
AcDbLine
 10
1739.749884633002
 20
236.5632268376447
 30
0.0
 11
1739.749884633002
 21
233.0632268376447
 31
0.0
1001
GENIUS_GENOREF_13
1005
590F
  0
LINE
  5
58DD
330
1F
100
AcDbEntity
  8
AM_7
  6
AM_ISO08W050x2
100
AcDbLine
 10
1621.39603567984
 20
109.0121532549814
 30
0.0
 11
1624.89603567984
 21
109.0121532549814
 31
0.0
1001
GENIUS_GENOREF_13
1005
590E
  0
LINE
  5
58DE
330
1F
100
AcDbEntity
  8
AM_7
  6
AM_ISO08W050x2
100
AcDbLine
 10
1621.39603567984
 20
109.0121532549814
 30
0.0
 11
1621.39603567984
 21
112.5121532549814
 31
0.0
1001
GENIUS_GENOREF_13
1005
590E
  0
LINE
  5
58DF
330
1F
100
AcDbEntity
  8
AM_7
  6
AM_ISO08W050x2
100
AcDbLine
 10
1621.39603567984
 20
109.0121532549814
 30
0.0
 11
1617.89603567984
 21
109.0121532549814
 31
0.0
1001
GENIUS_GENOREF_13
1005
590E
  0
LINE
  5
58E0
330
1F
100
AcDbEntity
  8
AM_7
  6
AM_ISO08W050x2
100
AcDbLine
 10
1621.39603567984
 20
109.0121532549814
 30
0.0
 11
1621.39603567984
 21
105.5121532549814
 31
0.0
1001
GENIUS_GENOREF_13
1005
590E
  0
LINE
  5
58E1
330
1F
100
AcDbEntity
  8
AM_7
  6
AM_ISO08W050x2
100
AcDbLine
 10
1621.39603567984
 20
92.01215325498157
 30
0.0
 11
1624.89603567984
 21
92.01215325498157
 31
0.0
1001
GENIUS_GENOREF_13
1005
590D
  0
LINE
  5
58E2
330
1F
100
AcDbEntity
  8
AM_7
  6
AM_ISO08W050x2
100
AcDbLine
 10
1621.39603567984
 20
92.01215325498157
 30
0.0
 11
1621.39603567984
 21
95.51215325498157
 31
0.0
1001
GENIUS_GENOREF_13
1005
590D
  0
LINE
  5
58E3
330
1F
100
AcDbEntity
  8
AM_7
  6
AM_ISO08W050x2
100
AcDbLine
 10
1621.39603567984
 20
92.01215325498157
 30
0.0
 11
1617.89603567984
 21
92.01215325498157
 31
0.0
1001
GENIUS_GENOREF_13
1005
590D
  0
LINE
  5
58E4
330
1F
100
AcDbEntity
  8
AM_7
  6
AM_ISO08W050x2
100
AcDbLine
 10
1621.39603567984
 20
92.01215325498157
 30
0.0
 11
1621.39603567984
 21
88.51215325498158
 31
0.0
1001
GENIUS_GENOREF_13
1005
590D
  0
LINE
  5
58E5
330
1F
100
AcDbEntity
  8
AM_7
  6
AM_ISO08W050x2
100
AcDbLine
 10
1571.39603567984
 20
109.0121532549814
 30
0.0
 11
1574.89603567984
 21
109.0121532549814
 31
0.0
1001
GENIUS_GENOREF_13
1005
590C
  0
LINE
  5
58E6
330
1F
100
AcDbEntity
  8
AM_7
  6
AM_ISO08W050x2
100
AcDbLine
 10
1571.39603567984
 20
109.0121532549814
 30
0.0
 11
1571.39603567984
 21
112.5121532549814
 31
0.0
1001
GENIUS_GENOREF_13
1005
590C
  0
LINE
  5
58E7
330
1F
100
AcDbEntity
  8
AM_7
  6
AM_ISO08W050x2
100
AcDbLine
 10
1571.39603567984
 20
109.0121532549814
 30
0.0
 11
1567.89603567984
 21
109.0121532549814
 31
0.0
1001
GENIUS_GENOREF_13
1005
590C
  0
LINE
  5
58E8
330
1F
100
AcDbEntity
  8
AM_7
  6
AM_ISO08W050x2
100
AcDbLine
 10
1571.39603567984
 20
109.0121532549814
 30
0.0
 11
1571.39603567984
 21
105.5121532549814
 31
0.0
1001
GENIUS_GENOREF_13
1005
590C
  0
LINE
  5
58E9
330
1F
100
AcDbEntity
  8
AM_7
  6
AM_ISO08W050x2
100
AcDbLine
 10
1571.39603567984
 20
92.01215325498145
 30
0.0
 11
1574.89603567984
 21
92.01215325498145
 31
0.0
1001
GENIUS_GENOREF_13
1005
590B
  0
LINE
  5
58EA
330
1F
100
AcDbEntity
  8
AM_7
  6
AM_ISO08W050x2
100
AcDbLine
 10
1571.39603567984
 20
92.01215325498145
 30
0.0
 11
1571.39603567984
 21
95.51215325498146
 31
0.0
1001
GENIUS_GENOREF_13
1005
590B
  0
LINE
  5
58EB
330
1F
100
AcDbEntity
  8
AM_7
  6
AM_ISO08W050x2
100
AcDbLine
 10
1571.39603567984
 20
92.01215325498145
 30
0.0
 11
1567.89603567984
 21
92.01215325498145
 31
0.0
1001
GENIUS_GENOREF_13
1005
590B
  0
LINE
  5
58EC
330
1F
100
AcDbEntity
  8
AM_7
  6
AM_ISO08W050x2
100
AcDbLine
 10
1571.39603567984
 20
92.01215325498145
 30
0.0
 11
1571.39603567984
 21
88.51215325498145
 31
0.0
1001
GENIUS_GENOREF_13
1005
590B
  0
LINE
  5
58ED
330
1F
100
AcDbEntity
  8
AM_7
  6
AM_ISO08W050x2
100
AcDbLine
 10
1575.39603567984
 20
100.5121532549814
 30
0.0
 11
1579.14603567984
 21
100.5121532549814
 31
0.0
1001
GENIUS_GENOREF_13
1005
590A
  0
LINE
  5
58EE
330
1F
100
AcDbEntity
  8
AM_7
  6
AM_ISO08W050x2
100
AcDbLine
 10
1575.39603567984
 20
100.5121532549814
 30
0.0
 11
1575.39603567984
 21
104.2621532549814
 31
0.0
1001
GENIUS_GENOREF_13
1005
590A
  0
LINE
  5
58EF
330
1F
100
AcDbEntity
  8
AM_7
  6
AM_ISO08W050x2
100
AcDbLine
 10
1575.39603567984
 20
100.5121532549814
 30
0.0
 11
1571.64603567984
 21
100.5121532549814
 31
0.0
1001
GENIUS_GENOREF_13
1005
590A
  0
LINE
  5
58F0
330
1F
100
AcDbEntity
  8
AM_7
  6
AM_ISO08W050x2
100
AcDbLine
 10
1575.39603567984
 20
100.5121532549814
 30
0.0
 11
1575.39603567984
 21
96.76215325498146
 31
0.0
1001
GENIUS_GENOREF_13
1005
590A
  0
LINE
  5
58F1
330
1F
100
AcDbEntity
  8
AM_7
100
AcDbLine
 10
1541.681530176884
 20
223.0632268376447
 30
0.0
 11
1645.216878391878
 21
223.0632268376447
 31
0.0
1001
GENIUS_GENODEF_13
1002
{
1000
HIER
1070
     0
1002
}
1002
{
1000
MANEDIT
1070
     0
1002
}
1002
{
1000
NOSEL
1070
     0
1002
}
1002
{
1000
BEHIND
1070
     0
1002
}
1002
{
1000
OTHER
1070
     0
1002
}
1002
{
1000
REACTOR
1002
}
1001
GENIUS_GENOBJ-N-CEN_13
1002
{
1000
OWNER
1000
GEN
1002
}
1001
GENIUS_GENCEN_19
1002
{
1040
1.5
1002
}
  0
LINE
  5
58F2
330
1F
100
AcDbEntity
  8
AM_7
100
AcDbLine
 10
1452.505601793071
 20
223.0632268376448
 30
0.0
 11
1464.005601793072
 21
223.0632268376448
 31
0.0
1001
GENIUS_GENOREF_13
1005
5929
  0
LINE
  5
58F3
330
1F
100
AcDbEntity
  8
AM_7
100
AcDbLine
 10
1452.505601793071
 20
223.0632268376448
 30
0.0
 11
1452.505601793071
 21
234.563226837645
 31
0.0
1001
GENIUS_GENOREF_13
1005
5929
  0
LINE
  5
58F4
330
1F
100
AcDbEntity
  8
AM_7
100
AcDbLine
 10
1452.505601793071
 20
223.0632268376448
 30
0.0
 11
1441.005601793071
 21
223.0632268376448
 31
0.0
1001
GENIUS_GENOREF_13
1005
5929
  0
LINE
  5
58F5
330
1F
100
AcDbEntity
  8
AM_7
100
AcDbLine
 10
1452.505601793071
 20
223.0632268376448
 30
0.0
 11
1452.505601793071
 21
211.5632268376446
 31
0.0
1001
GENIUS_GENOREF_13
1005
5929
  0
LINE
  5
58F6
330
1F
100
AcDbEntity
  8
AM_7
100
AcDbLine
 10
1748.249884633002
 20
223.0632268376447
 30
0.0
 11
1758.049884633002
 21
223.0632268376447
 31
0.0
1001
GENIUS_GENOREF_13
1005
5928
  0
LINE
  5
58F7
330
1F
100
AcDbEntity
  8
AM_7
100
AcDbLine
 10
1748.249884633002
 20
223.0632268376447
 30
0.0
 11
1748.249884633002
 21
232.8632268376446
 31
0.0
1001
GENIUS_GENOREF_13
1005
5928
  0
LINE
  5
58F8
330
1F
100
AcDbEntity
  8
AM_7
100
AcDbLine
 10
1748.249884633002
 20
223.0632268376447
 30
0.0
 11
1738.449884633002
 21
223.0632268376447
 31
0.0
1001
GENIUS_GENOREF_13
1005
5928
  0
LINE
  5
58F9
330
1F
100
AcDbEntity
  8
AM_7
100
AcDbLine
 10
1748.249884633002
 20
223.0632268376447
 30
0.0
 11
1748.249884633002
 21
213.2632268376447
 31
0.0
1001
GENIUS_GENOREF_13
1005
5928
  0
LINE
  5
58FA
330
1F
100
AcDbEntity
  8
AM_7
100
AcDbLine
 10
1543.89603567984
 20
335.4368189448737
 30
0.0
 11
1645.675881547737
 21
335.4368189448737
 31
0.0
1001
GENIUS_GENOBJ-N-CEN_13
1002
{
1000
OWNER
1000
GEN
1002
}
1001
GENIUS_GENODEF_13
1002
{
1000
HIER
1070
     0
1002
}
1002
{
1000
MANEDIT
1070
     0
1002
}
1002
{
1000
NOSEL
1070
     0
1002
}
1002
{
1000
BEHIND
1070
     0
1002
}
1002
{
1000
OTHER
1070
     0
1002
}
1002
{
1000
REACTOR
1002
}
1001
GENIUS_GENCEN_19
1002
{
1040
1.5
1002
}
  0
LINE
  5
58FB
330
1F
100
AcDbEntity
  8
AM_7
100
AcDbLine
 10
1543.89603567984
 20
100.5121532549814
 30
0.0
 11
1645.662690689078
 21
100.5121532549814
 31
0.0
1001
GENIUS_GENOBJ-N-CEN_13
1002
{
1000
OWNER
1000
GEN
1002
}
1001
GENIUS_GENODEF_13
1002
{
1000
HIER
1070
     0
1002
}
1002
{
1000
MANEDIT
1070
     0
1002
}
1002
{
1000
NOSEL
1070
     0
1002
}
1002
{
1000
BEHIND
1070
     0
1002
}
1002
{
1000
OTHER
1070
     0
1002
}
1002
{
1000
REACTOR
1002
}
1001
GENIUS_GENCEN_19
1002
{
1040
1.5
1002
}
  0
INSERT
  5
58FC
330
1F
100
AcDbEntity
  8
AM_5
100
AcDbBlockReference
  2
*S38
 10
0.0
 20
0.0
 30
0.0
  0
INSERT
  5
58FD
330
1F
100
AcDbEntity
  8
AM_5
100
AcDbBlockReference
  2
*S39
 10
0.0
 20
0.0
 30
0.0
  0
INSERT
  5
58FE
330
1F
100
AcDbEntity
  8
AM_5
100
AcDbBlockReference
  2
*S40
 10
0.0
 20
0.0
 30
0.0
  0
INSERT
  5
58FF
330
1F
100
AcDbEntity
  8
AM_5
100
AcDbBlockReference
  2
*S41
 10
0.0
 20
0.0
 30
0.0
  0
INSERT
  5
5900
330
1F
100
AcDbEntity
  8
AM_5
100
AcDbBlockReference
  2
*S42
 10
0.0
 20
0.0
 30
0.0
  0
INSERT
  5
5901
330
1F
100
AcDbEntity
  8
AM_5
100
AcDbBlockReference
  2
*S43
 10
0.0
 20
0.0
 30
0.0
  0
INSERT
  5
5902
330
1F
100
AcDbEntity
  8
AM_5
100
AcDbBlockReference
  2
*S44
 10
0.0
 20
0.0
 30
0.0
  0
POINT
  5
590A
330
1F
100
AcDbEntity
  8
0
 60
     1
100
AcDbPoint
 10
262.602731754652
 20
9.844639087274913
 30
0.0
1001
GENIUS_GENODEF_13
1002
{
1000
HIER
1070
    10
1002
}
1002
{
1000
MANEDIT
1070
     0
1002
}
1002
{
1000
NOSEL
1070
     0
1002
}
1002
{
1000
BEHIND
1070
     0
1002
}
1002
{
1000
OTHER
1070
     0
1002
}
1002
{
1000
REACTOR
1002
}
1001
GENIUS_GENOENT_13
1002
{
1000
MYREF
1005
590A
1002
}
1002
{
1000
GRP
1005
0
1002
}
1001
GENIUS_GENOBJ-N-CRS_13
1002
{
1000
OWNER
1000
GEN
1002
}
1001
GENIUS_GENOLIS_13
1002
{
1000
ENT
1005
58F0
1005
58EF
1005
58EE
1005
58ED
1002
}
  0
POINT
  5
590B
330
1F
100
AcDbEntity
  8
0
 60
     1
100
AcDbPoint
 10
262.602731754652
 20
9.844639087274913
 30
0.0
1001
GENIUS_GENOENT_13
1002
{
1000
MYREF
1005
590B
1002
}
1002
{
1000
GRP
1005
0
1002
}
1001
GENIUS_GENOBJ-N-CRS_13
1002
{
1000
OWNER
1000
GEN
1002
}
1001
GENIUS_GENODEF_13
1002
{
1000
HIER
1070
    10
1002
}
1002
{
1000
MANEDIT
1070
     0
1002
}
1002
{
1000
NOSEL
1070
     0
1002
}
1002
{
1000
BEHIND
1070
     0
1002
}
1002
{
1000
OTHER
1070
     0
1002
}
1002
{
1000
REACTOR
1002
}
1001
GENIUS_GENOLIS_13
1002
{
1000
ENT
1005
58EC
1005
58EB
1005
58EA
1005
58E9
1002
}
  0
POINT
  5
590C
330
1F
100
AcDbEntity
  8
0
 60
     1
100
AcDbPoint
 10
262.602731754652
 20
9.844639087274913
 30
0.0
1001
GENIUS_GENOENT_13
1002
{
1000
MYREF
1005
590C
1002
}
1002
{
1000
GRP
1005
0
1002
}
1001
GENIUS_GENOBJ-N-CRS_13
1002
{
1000
OWNER
1000
GEN
1002
}
1001
GENIUS_GENOLIS_13
1002
{
1000
ENT
1005
58E8
1005
58E7
1005
58E6
1005
58E5
1002
}
1001
GENIUS_GENODEF_13
1002
{
1000
HIER
1070
    10
1002
}
1002
{
1000
MANEDIT
1070
     0
1002
}
1002
{
1000
NOSEL
1070
     0
1002
}
1002
{
1000
BEHIND
1070
     0
1002
}
1002
{
1000
OTHER
1070
     0
1002
}
1002
{
1000
REACTOR
1002
}
  0
POINT
  5
590D
330
1F
100
AcDbEntity
  8
0
 60
     1
100
AcDbPoint
 10
262.602731754652
 20
9.844639087274913
 30
0.0
1001
GENIUS_GENODEF_13
1002
{
1000
HIER
1070
    10
1002
}
1002
{
1000
MANEDIT
1070
     0
1002
}
1002
{
1000
NOSEL
1070
     0
1002
}
1002
{
1000
BEHIND
1070
     0
1002
}
1002
{
1000
OTHER
1070
     0
1002
}
1002
{
1000
REACTOR
1002
}
1001
GENIUS_GENOBJ-N-CRS_13
1002
{
1000
OWNER
1000
GEN
1002
}
1001
GENIUS_GENOENT_13
1002
{
1000
MYREF
1005
590D
1002
}
1002
{
1000
GRP
1005
0
1002
}
1001
GENIUS_GENOLIS_13
1002
{
1000
ENT
1005
58E4
1005
58E3
1005
58E2
1005
58E1
1002
}
  0
POINT
  5
590E
330
1F
100
AcDbEntity
  8
0
 60
     1
100
AcDbPoint
 10
262.602731754652
 20
9.844639087274913
 30
0.0
1001
GENIUS_GENODEF_13
1002
{
1000
HIER
1070
    10
1002
}
1002
{
1000
MANEDIT
1070
     0
1002
}
1002
{
1000
NOSEL
1070
     0
1002
}
1002
{
1000
BEHIND
1070
     0
1002
}
1002
{
1000
OTHER
1070
     0
1002
}
1002
{
1000
REACTOR
1002
}
1001
GENIUS_GENOENT_13
1002
{
1000
MYREF
1005
590E
1002
}
1002
{
1000
GRP
1005
0
1002
}
1001
GENIUS_GENOBJ-N-CRS_13
1002
{
1000
OWNER
1000
GEN
1002
}
1001
GENIUS_GENOLIS_13
1002
{
1000
ENT
1005
58E0
1005
58DF
1005
58DE
1005
58DD
1002
}
  0
POINT
  5
590F
330
1F
100
AcDbEntity
  8
0
 60
     1
100
AcDbPoint
 10
262.602731754652
 20
9.844639087274913
 30
0.0
1001
GENIUS_GENOLIS_13
1002
{
1000
ENT
1005
58DC
1005
58DB
1005
58DA
1005
58D9
1002
}
1001
GENIUS_GENOENT_13
1002
{
1000
MYREF
1005
590F
1002
}
1002
{
1000
GRP
1005
0
1002
}
1001
GENIUS_GENOBJ-N-CRS_13
1002
{
1000
OWNER
1000
GEN
1002
}
1001
GENIUS_GENODEF_13
1002
{
1000
HIER
1070
    10
1002
}
1002
{
1000
MANEDIT
1070
     0
1002
}
1002
{
1000
NOSEL
1070
     0
1002
}
1002
{
1000
BEHIND
1070
     0
1002
}
1002
{
1000
OTHER
1070
     0
1002
}
1002
{
1000
REACTOR
1002
}
  0
POINT
  5
5910
330
1F
100
AcDbEntity
  8
0
 60
     1
100
AcDbPoint
 10
262.602731754652
 20
9.844639087274913
 30
0.0
1001
GENIUS_GENOBJ-N-CRS_13
1002
{
1000
OWNER
1000
GEN
1002
}
1001
GENIUS_GENOLIS_13
1002
{
1000
ENT
1005
58D8
1005
58D7
1005
58D6
1005
58D5
1002
}
1001
GENIUS_GENOENT_13
1002
{
1000
MYREF
1005
5910
1002
}
1002
{
1000
GRP
1005
0
1002
}
1001
GENIUS_GENODEF_13
1002
{
1000
HIER
1070
    10
1002
}
1002
{
1000
MANEDIT
1070
     0
1002
}
1002
{
1000
NOSEL
1070
     0
1002
}
1002
{
1000
BEHIND
1070
     0
1002
}
1002
{
1000
OTHER
1070
     0
1002
}
1002
{
1000
REACTOR
1002
}
  0
POINT
  5
5911
330
1F
100
AcDbEntity
  8
0
 60
     1
100
AcDbPoint
 10
262.602731754652
 20
9.844639087274913
 30
0.0
1001
GENIUS_GENOBJ-N-CRS_13
1002
{
1000
OWNER
1000
GEN
1002
}
1001
GENIUS_GENOLIS_13
1002
{
1000
ENT
1005
58D4
1005
58D3
1005
58D2
1005
58D1
1002
}
1001
GENIUS_GENODEF_13
1002
{
1000
HIER
1070
    10
1002
}
1002
{
1000
MANEDIT
1070
     0
1002
}
1002
{
1000
NOSEL
1070
     0
1002
}
1002
{
1000
BEHIND
1070
     0
1002
}
1002
{
1000
OTHER
1070
     0
1002
}
1002
{
1000
REACTOR
1002
}
1001
GENIUS_GENOENT_13
1002
{
1000
MYREF
1005
5911
1002
}
1002
{
1000
GRP
1005
0
1002
}
  0
POINT
  5
5912
330
1F
100
AcDbEntity
  8
0
 60
     1
100
AcDbPoint
 10
262.602731754652
 20
9.844639087274913
 30
0.0
1001
GENIUS_GENODEF_13
1002
{
1000
HIER
1070
    10
1002
}
1002
{
1000
MANEDIT
1070
     0
1002
}
1002
{
1000
NOSEL
1070
     0
1002
}
1002
{
1000
BEHIND
1070
     0
1002
}
1002
{
1000
OTHER
1070
     0
1002
}
1002
{
1000
REACTOR
1002
}
1001
GENIUS_GENOENT_13
1002
{
1000
MYREF
1005
5912
1002
}
1002
{
1000
GRP
1005
0
1002
}
1001
GENIUS_GENOBJ-N-CRS_13
1002
{
1000
OWNER
1000
GEN
1002
}
1001
GENIUS_GENOLIS_13
1002
{
1000
ENT
1005
58D0
1005
58CF
1005
58CE
1005
58CD
1002
}
  0
POINT
  5
5913
330
1F
100
AcDbEntity
  8
0
 60
     1
100
AcDbPoint
 10
262.602731754652
 20
9.844639087274913
 30
0.0
1001
GENIUS_GENODEF_13
1002
{
1000
HIER
1070
    10
1002
}
1002
{
1000
MANEDIT
1070
     0
1002
}
1002
{
1000
NOSEL
1070
     0
1002
}
1002
{
1000
BEHIND
1070
     0
1002
}
1002
{
1000
OTHER
1070
     0
1002
}
1002
{
1000
REACTOR
1002
}
1001
GENIUS_GENOENT_13
1002
{
1000
MYREF
1005
5913
1002
}
1002
{
1000
GRP
1005
0
1002
}
1001
GENIUS_GENOBJ-N-CRS_13
1002
{
1000
OWNER
1000
GEN
1002
}
1001
GENIUS_GENOLIS_13
1002
{
1000
ENT
1005
58CC
1005
58CB
1005
58CA
1005
58C9
1002
}
  0
POINT
  5
5914
330
1F
100
AcDbEntity
  8
0
 60
     1
100
AcDbPoint
 10
262.602731754652
 20
9.844639087274913
 30
0.0
1001
GENIUS_GENOENT_13
1002
{
1000
MYREF
1005
5914
1002
}
1002
{
1000
GRP
1005
0
1002
}
1001
GENIUS_GENOBJ-N-CRS_13
1002
{
1000
OWNER
1000
GEN
1002
}
1001
GENIUS_GENODEF_13
1002
{
1000
HIER
1070
    10
1002
}
1002
{
1000
MANEDIT
1070
     0
1002
}
1002
{
1000
NOSEL
1070
     0
1002
}
1002
{
1000
BEHIND
1070
     0
1002
}
1002
{
1000
OTHER
1070
     0
1002
}
1002
{
1000
REACTOR
1002
}
1001
GENIUS_GENOLIS_13
1002
{
1000
ENT
1005
58C8
1005
58C7
1005
58C6
1005
58C5
1002
}
  0
POINT
  5
5915
330
1F
100
AcDbEntity
  8
0
 60
     1
100
AcDbPoint
 10
262.602731754652
 20
9.844639087274913
 30
0.0
1001
GENIUS_GENOENT_13
1002
{
1000
MYREF
1005
5915
1002
}
1002
{
1000
GRP
1005
0
1002
}
1001
GENIUS_GENOBJ-N-CRS_13
1002
{
1000
OWNER
1000
GEN
1002
}
1001
GENIUS_GENODEF_13
1002
{
1000
HIER
1070
    10
1002
}
1002
{
1000
MANEDIT
1070
     0
1002
}
1002
{
1000
NOSEL
1070
     0
1002
}
1002
{
1000
BEHIND
1070
     0
1002
}
1002
{
1000
OTHER
1070
     0
1002
}
1002
{
1000
REACTOR
1002
}
1001
GENIUS_GENOLIS_13
1002
{
1000
ENT
1005
58C4
1005
58C3
1005
58C2
1005
58C1
1002
}
  0
POINT
  5
5916
330
1F
100
AcDbEntity
  8
0
 60
     1
100
AcDbPoint
 10
262.602731754652
 20
9.844639087274913
 30
0.0
1001
GENIUS_GENOLIS_13
1002
{
1000
ENT
1005
58C0
1005
58BF
1005
58BE
1005
58BD
1002
}
1001
GENIUS_GENODEF_13
1002
{
1000
HIER
1070
    10
1002
}
1002
{
1000
MANEDIT
1070
     0
1002
}
1002
{
1000
NOSEL
1070
     0
1002
}
1002
{
1000
BEHIND
1070
     0
1002
}
1002
{
1000
OTHER
1070
     0
1002
}
1002
{
1000
REACTOR
1002
}
1001
GENIUS_GENOENT_13
1002
{
1000
MYREF
1005
5916
1002
}
1002
{
1000
GRP
1005
0
1002
}
1001
GENIUS_GENOBJ-N-CRS_13
1002
{
1000
OWNER
1000
GEN
1002
}
  0
POINT
  5
5917
330
1F
100
AcDbEntity
  8
0
 60
     1
100
AcDbPoint
 10
262.602731754652
 20
9.844639087274913
 30
0.0
1001
GENIUS_GENOBJ-N-CRS_13
1002
{
1000
OWNER
1000
GEN
1002
}
1001
GENIUS_GENOLIS_13
1002
{
1000
ENT
1005
58BC
1005
58BB
1005
58BA
1005
58B9
1002
}
1001
GENIUS_GENOENT_13
1002
{
1000
MYREF
1005
5917
1002
}
1002
{
1000
GRP
1005
0
1002
}
1001
GENIUS_GENODEF_13
1002
{
1000
HIER
1070
    10
1002
}
1002
{
1000
MANEDIT
1070
     0
1002
}
1002
{
1000
NOSEL
1070
     0
1002
}
1002
{
1000
BEHIND
1070
     0
1002
}
1002
{
1000
OTHER
1070
     0
1002
}
1002
{
1000
REACTOR
1002
}
  0
POINT
  5
5918
330
1F
100
AcDbEntity
  8
0
 60
     1
100
AcDbPoint
 10
262.602731754652
 20
9.844639087274913
 30
0.0
1001
GENIUS_GENOLIS_13
1002
{
1000
ENT
1005
58B8
1005
58B7
1005
58B6
1005
58B5
1002
}
1001
GENIUS_GENOENT_13
1002
{
1000
MYREF
1005
5918
1002
}
1002
{
1000
GRP
1005
0
1002
}
1001
GENIUS_GENODEF_13
1002
{
1000
HIER
1070
    10
1002
}
1002
{
1000
MANEDIT
1070
     0
1002
}
1002
{
1000
NOSEL
1070
     0
1002
}
1002
{
1000
BEHIND
1070
     0
1002
}
1002
{
1000
OTHER
1070
     0
1002
}
1002
{
1000
REACTOR
1002
}
1001
GENIUS_GENOBJ-N-CRS_13
1002
{
1000
OWNER
1000
GEN
1002
}
  0
POINT
  5
5919
330
1F
100
AcDbEntity
  8
0
 60
     1
100
AcDbPoint
 10
262.602731754652
 20
9.844639087274913
 30
0.0
1001
GENIUS_GENOLIS_13
1002
{
1000
ENT
1005
58B4
1005
58B3
1005
58B2
1005
58B1
1002
}
1001
GENIUS_GENOENT_13
1002
{
1000
MYREF
1005
5919
1002
}
1002
{
1000
GRP
1005
0
1002
}
1001
GENIUS_GENOBJ-N-CRS_13
1002
{
1000
OWNER
1000
GEN
1002
}
1001
GENIUS_GENODEF_13
1002
{
1000
HIER
1070
    10
1002
}
1002
{
1000
MANEDIT
1070
     0
1002
}
1002
{
1000
NOSEL
1070
     0
1002
}
1002
{
1000
BEHIND
1070
     0
1002
}
1002
{
1000
OTHER
1070
     0
1002
}
1002
{
1000
REACTOR
1002
}
  0
POINT
  5
591A
330
1F
100
AcDbEntity
  8
0
 60
     1
100
AcDbPoint
 10
262.602731754652
 20
9.844639087274913
 30
0.0
1001
GENIUS_GENODEF_13
1002
{
1000
HIER
1070
    10
1002
}
1002
{
1000
MANEDIT
1070
     0
1002
}
1002
{
1000
NOSEL
1070
     0
1002
}
1002
{
1000
BEHIND
1070
     0
1002
}
1002
{
1000
OTHER
1070
     0
1002
}
1002
{
1000
REACTOR
1002
}
1001
GENIUS_GENOENT_13
1002
{
1000
MYREF
1005
591A
1002
}
1002
{
1000
GRP
1005
0
1002
}
1001
GENIUS_GENOBJ-N-CRS_13
1002
{
1000
OWNER
1000
GEN
1002
}
1001
GENIUS_GENOLIS_13
1002
{
1000
ENT
1005
58B0
1005
58AF
1005
58AE
1005
58AD
1002
}
  0
POINT
  5
591B
330
1F
100
AcDbEntity
  8
0
 60
     1
100
AcDbPoint
 10
262.602731754652
 20
9.844639087274913
 30
0.0
1001
GENIUS_GENOBJ-N-CRS_13
1002
{
1000
OWNER
1000
GEN
1002
}
1001
GENIUS_GENODEF_13
1002
{
1000
HIER
1070
    10
1002
}
1002
{
1000
MANEDIT
1070
     0
1002
}
1002
{
1000
NOSEL
1070
     0
1002
}
1002
{
1000
BEHIND
1070
     0
1002
}
1002
{
1000
OTHER
1070
     0
1002
}
1002
{
1000
REACTOR
1002
}
1001
GENIUS_GENOENT_13
1002
{
1000
MYREF
1005
591B
1002
}
1002
{
1000
GRP
1005
0
1002
}
1001
GENIUS_GENOLIS_13
1002
{
1000
ENT
1005
58AC
1005
58AB
1005
58AA
1005
58A9
1002
}
  0
POINT
  5
591C
330
1F
100
AcDbEntity
  8
0
 60
     1
100
AcDbPoint
 10
262.602731754652
 20
9.844639087274913
 30
0.0
1001
GENIUS_GENODEF_13
1002
{
1000
HIER
1070
    10
1002
}
1002
{
1000
MANEDIT
1070
     0
1002
}
1002
{
1000
NOSEL
1070
     0
1002
}
1002
{
1000
BEHIND
1070
     0
1002
}
1002
{
1000
OTHER
1070
     0
1002
}
1002
{
1000
REACTOR
1002
}
1001
GENIUS_GENOENT_13
1002
{
1000
MYREF
1005
591C
1002
}
1002
{
1000
GRP
1005
0
1002
}
1001
GENIUS_GENOBJ-N-CRS_13
1002
{
1000
OWNER
1000
GEN
1002
}
1001
GENIUS_GENOLIS_13
1002
{
1000
ENT
1005
58A8
1005
58A7
1005
58A6
1005
58A5
1002
}
  0
POINT
  5
591D
330
1F
100
AcDbEntity
  8
0
 60
     1
100
AcDbPoint
 10
262.602731754652
 20
9.844639087274913
 30
0.0
1001
GENIUS_GENODEF_13
1002
{
1000
HIER
1070
    10
1002
}
1002
{
1000
MANEDIT
1070
     0
1002
}
1002
{
1000
NOSEL
1070
     0
1002
}
1002
{
1000
BEHIND
1070
     0
1002
}
1002
{
1000
OTHER
1070
     0
1002
}
1002
{
1000
REACTOR
1002
}
1001
GENIUS_GENOENT_13
1002
{
1000
MYREF
1005
591D
1002
}
1002
{
1000
GRP
1005
0
1002
}
1001
GENIUS_GENOBJ-N-CRS_13
1002
{
1000
OWNER
1000
GEN
1002
}
1001
GENIUS_GENOLIS_13
1002
{
1000
ENT
1005
58A4
1005
58A3
1005
58A2
1005
58A1
1002
}
  0
POINT
  5
591E
330
1F
100
AcDbEntity
  8
0
 60
     1
100
AcDbPoint
 10
262.602731754652
 20
9.844639087274913
 30
0.0
1001
GENIUS_GENODEF_13
1002
{
1000
HIER
1070
    10
1002
}
1002
{
1000
MANEDIT
1070
     0
1002
}
1002
{
1000
NOSEL
1070
     0
1002
}
1002
{
1000
BEHIND
1070
     0
1002
}
1002
{
1000
OTHER
1070
     0
1002
}
1002
{
1000
REACTOR
1002
}
1001
GENIUS_GENOLIS_13
1002
{
1000
ENT
1005
58A0
1005
589F
1005
589E
1005
589D
1002
}
1001
GENIUS_GENOENT_13
1002
{
1000
MYREF
1005
591E
1002
}
1002
{
1000
GRP
1005
0
1002
}
1001
GENIUS_GENOBJ-N-CRS_13
1002
{
1000
OWNER
1000
GEN
1002
}
  0
POINT
  5
591F
330
1F
100
AcDbEntity
  8
0
 60
     1
100
AcDbPoint
 10
262.602731754652
 20
9.844639087274913
 30
0.0
1001
GENIUS_GENOENT_13
1002
{
1000
MYREF
1005
591F
1002
}
1002
{
1000
GRP
1005
0
1002
}
1001
GENIUS_GENOBJ-N-CRS_13
1002
{
1000
OWNER
1000
GEN
1002
}
1001
GENIUS_GENODEF_13
1002
{
1000
HIER
1070
    10
1002
}
1002
{
1000
MANEDIT
1070
     0
1002
}
1002
{
1000
NOSEL
1070
     0
1002
}
1002
{
1000
BEHIND
1070
     0
1002
}
1002
{
1000
OTHER
1070
     0
1002
}
1002
{
1000
REACTOR
1002
}
1001
GENIUS_GENOLIS_13
1002
{
1000
ENT
1005
589C
1005
589B
1005
589A
1005
5899
1002
}
  0
POINT
  5
5920
330
1F
100
AcDbEntity
  8
0
 60
     1
100
AcDbPoint
 10
262.602731754652
 20
9.844639087274913
 30
0.0
1001
GENIUS_GENODEF_13
1002
{
1000
HIER
1070
    10
1002
}
1002
{
1000
MANEDIT
1070
     0
1002
}
1002
{
1000
NOSEL
1070
     0
1002
}
1002
{
1000
BEHIND
1070
     0
1002
}
1002
{
1000
OTHER
1070
     0
1002
}
1002
{
1000
REACTOR
1002
}
1001
GENIUS_GENOLIS_13
1002
{
1000
ENT
1005
5898
1005
5897
1005
5896
1005
5895
1002
}
1001
GENIUS_GENOENT_13
1002
{
1000
MYREF
1005
5920
1002
}
1002
{
1000
GRP
1005
0
1002
}
1001
GENIUS_GENOBJ-N-CRS_13
1002
{
1000
OWNER
1000
GEN
1002
}
  0
POINT
  5
5921
330
1F
100
AcDbEntity
  8
0
 60
     1
100
AcDbPoint
 10
262.602731754652
 20
9.844639087274913
 30
0.0
1001
GENIUS_GENODEF_13
1002
{
1000
HIER
1070
    10
1002
}
1002
{
1000
MANEDIT
1070
     0
1002
}
1002
{
1000
NOSEL
1070
     0
1002
}
1002
{
1000
BEHIND
1070
     0
1002
}
1002
{
1000
OTHER
1070
     0
1002
}
1002
{
1000
REACTOR
1002
}
1001
GENIUS_GENOBJ-N-CRS_13
1002
{
1000
OWNER
1000
GEN
1002
}
1001
GENIUS_GENOENT_13
1002
{
1000
MYREF
1005
5921
1002
}
1002
{
1000
GRP
1005
0
1002
}
1001
GENIUS_GENOLIS_13
1002
{
1000
ENT
1005
5894
1005
5893
1005
5892
1005
5891
1002
}
  0
POINT
  5
5922
330
1F
100
AcDbEntity
  8
0
 60
     1
100
AcDbPoint
 10
262.602731754652
 20
9.844639087274913
 30
0.0
1001
GENIUS_GENODEF_13
1002
{
1000
HIER
1070
    10
1002
}
1002
{
1000
MANEDIT
1070
     0
1002
}
1002
{
1000
NOSEL
1070
     0
1002
}
1002
{
1000
BEHIND
1070
     0
1002
}
1002
{
1000
OTHER
1070
     0
1002
}
1002
{
1000
REACTOR
1002
}
1001
GENIUS_GENOBJ-N-CRS_13
1002
{
1000
OWNER
1000
GEN
1002
}
1001
GENIUS_GENOLIS_13
1002
{
1000
ENT
1005
5890
1005
588F
1005
588E
1005
588D
1002
}
1001
GENIUS_GENOENT_13
1002
{
1000
MYREF
1005
5922
1002
}
1002
{
1000
GRP
1005
0
1002
}
  0
POINT
  5
5923
330
1F
100
AcDbEntity
  8
0
 60
     1
100
AcDbPoint
 10
262.602731754652
 20
9.844639087274913
 30
0.0
1001
GENIUS_GENOLIS_13
1002
{
1000
ENT
1005
588C
1005
588B
1005
588A
1005
5889
1002
}
1001
GENIUS_GENOBJ-N-CRS_13
1002
{
1000
OWNER
1000
GEN
1002
}
1001
GENIUS_GENOENT_13
1002
{
1000
MYREF
1005
5923
1002
}
1002
{
1000
GRP
1005
0
1002
}
1001
GENIUS_GENODEF_13
1002
{
1000
HIER
1070
    10
1002
}
1002
{
1000
MANEDIT
1070
     0
1002
}
1002
{
1000
NOSEL
1070
     0
1002
}
1002
{
1000
BEHIND
1070
     0
1002
}
1002
{
1000
OTHER
1070
     0
1002
}
1002
{
1000
REACTOR
1002
}
  0
POINT
  5
5924
330
1F
100
AcDbEntity
  8
0
 60
     1
100
AcDbPoint
 10
262.602731754652
 20
9.844639087274913
 30
0.0
1001
GENIUS_GENOENT_13
1002
{
1000
MYREF
1005
5924
1002
}
1002
{
1000
GRP
1005
0
1002
}
1001
GENIUS_GENOBJ-N-CRS_13
1002
{
1000
OWNER
1000
GEN
1002
}
1001
GENIUS_GENOLIS_13
1002
{
1000
ENT
1005
5888
1005
5887
1005
5886
1005
5885
1002
}
1001
GENIUS_GENODEF_13
1002
{
1000
HIER
1070
    10
1002
}
1002
{
1000
MANEDIT
1070
     0
1002
}
1002
{
1000
NOSEL
1070
     0
1002
}
1002
{
1000
BEHIND
1070
     0
1002
}
1002
{
1000
OTHER
1070
     0
1002
}
1002
{
1000
REACTOR
1002
}
  0
POINT
  5
5925
330
1F
100
AcDbEntity
  8
0
 60
     1
100
AcDbPoint
 10
262.602731754652
 20
9.844639087274913
 30
0.0
1001
GENIUS_GENOLIS_13
1002
{
1000
ENT
1005
5884
1005
5883
1005
5882
1005
5881
1002
}
1001
GENIUS_GENOENT_13
1002
{
1000
MYREF
1005
5925
1002
}
1002
{
1000
GRP
1005
0
1002
}
1001
GENIUS_GENOBJ-N-CRS_13
1002
{
1000
OWNER
1000
GEN
1002
}
1001
GENIUS_GENODEF_13
1002
{
1000
HIER
1070
    10
1002
}
1002
{
1000
MANEDIT
1070
     0
1002
}
1002
{
1000
NOSEL
1070
     0
1002
}
1002
{
1000
BEHIND
1070
     0
1002
}
1002
{
1000
OTHER
1070
     0
1002
}
1002
{
1000
REACTOR
1002
}
  0
POINT
  5
5926
330
1F
100
AcDbEntity
  8
0
 60
     1
100
AcDbPoint
 10
262.602731754652
 20
9.844639087274913
 30
0.0
1001
GENIUS_GENOLIS_13
1002
{
1000
ENT
1005
5880
1005
587F
1005
587E
1005
587D
1002
}
1001
GENIUS_GENODEF_13
1002
{
1000
HIER
1070
    10
1002
}
1002
{
1000
MANEDIT
1070
     0
1002
}
1002
{
1000
NOSEL
1070
     0
1002
}
1002
{
1000
BEHIND
1070
     0
1002
}
1002
{
1000
OTHER
1070
     0
1002
}
1002
{
1000
REACTOR
1002
}
1001
GENIUS_GENOENT_13
1002
{
1000
MYREF
1005
5926
1002
}
1002
{
1000
GRP
1005
0
1002
}
1001
GENIUS_GENOBJ-N-CRS_13
1002
{
1000
OWNER
1000
GEN
1002
}
  0
POINT
  5
5927
330
1F
100
AcDbEntity
  8
0
 60
     1
100
AcDbPoint
 10
262.602731754652
 20
9.844639087274913
 30
0.0
1001
GENIUS_GENOLIS_13
1002
{
1000
ENT
1005
587C
1005
587B
1005
587A
1005
5879
1002
}
1001
GENIUS_GENODEF_13
1002
{
1000
HIER
1070
    10
1002
}
1002
{
1000
MANEDIT
1070
     0
1002
}
1002
{
1000
NOSEL
1070
     0
1002
}
1002
{
1000
BEHIND
1070
     0
1002
}
1002
{
1000
OTHER
1070
     0
1002
}
1002
{
1000
REACTOR
1002
}
1001
GENIUS_GENOENT_13
1002
{
1000
MYREF
1005
5927
1002
}
1002
{
1000
GRP
1005
0
1002
}
1001
GENIUS_GENOBJ-N-CRS_13
1002
{
1000
OWNER
1000
GEN
1002
}
  0
POINT
  5
5928
330
1F
100
AcDbEntity
  8
0
 60
     1
100
AcDbPoint
 10
262.602731754652
 20
9.844639087274913
 30
0.0
1001
GENIUS_GENOLIS_13
1002
{
1000
ENT
1005
58F9
1005
58F8
1005
58F7
1005
58F6
1002
}
1001
GENIUS_GENOENT_13
1002
{
1000
MYREF
1005
5928
1002
}
1002
{
1000
GRP
1005
0
1002
}
1001
GENIUS_GENOBJ-N-CRS_13
1002
{
1000
OWNER
1000
GEN
1002
}
1001
GENIUS_GENODEF_13
1002
{
1000
HIER
1070
    10
1002
}
1002
{
1000
MANEDIT
1070
     0
1002
}
1002
{
1000
NOSEL
1070
     0
1002
}
1002
{
1000
BEHIND
1070
     0
1002
}
1002
{
1000
OTHER
1070
     0
1002
}
1002
{
1000
REACTOR
1002
}
  0
POINT
  5
5929
330
1F
100
AcDbEntity
  8
0
 60
     1
100
AcDbPoint
 10
262.602731754652
 20
9.844639087274913
 30
0.0
1001
GENIUS_GENODEF_13
1002
{
1000
HIER
1070
    10
1002
}
1002
{
1000
MANEDIT
1070
     0
1002
}
1002
{
1000
NOSEL
1070
     0
1002
}
1002
{
1000
BEHIND
1070
     0
1002
}
1002
{
1000
OTHER
1070
     0
1002
}
1002
{
1000
REACTOR
1002
}
1001
GENIUS_GENOBJ-N-CRS_13
1002
{
1000
OWNER
1000
GEN
1002
}
1001
GENIUS_GENOLIS_13
1002
{
1000
ENT
1005
58F5
1005
58F4
1005
58F3
1005
58F2
1002
}
1001
GENIUS_GENOENT_13
1002
{
1000
MYREF
1005
5929
1002
}
1002
{
1000
GRP
1005
0
1002
}
  0
MTEXT
  5
5B63
330
1F
100
AcDbEntity
  8
AM_5
100
AcDbMText
 10
1648.776897019748
 20
268.2483525239174
 30
0.0
 40
4.2
 41
0.0
 71
     7
 72
     1
  1
plug for port
 73
     1
 44
1.0
1001
ACAD
1000
MTEXTBEGIN
1070
    73
1070
     1
1070
    44
1040
1.0
1070
    74
1070
     0
1000
MTEXTEND
  0
TEXT
  5
5B64
330
1F
100
AcDbEntity
  8
AM_5
100
AcDbText
 10
1647.199475779261
 20
264.1023737431417
 30
0.0
 40
3.599999999999999
  1
(hexagon socket head set screw)
 41
0.8
100
AcDbText
  0
INSERT
  5
5B73
330
1F
100
AcDbEntity
  8
DIM2
100
AcDbBlockReference
  2
A$C5ECF147B
 10
1719.579093074952
 20
91.39456903746438
 30
0.0
 41
1.317120000000049
 42
1.317119999999938
 43
1.317119999999999
  0
INSERT
  5
5D6F
330
1F
100
AcDbEntity
  8
0
100
AcDbBlockReference
  2
A$C1BA4754C
 10
1589.39603567984
 20
204.0632268376447
 30
0.0
  0
ENDSEC
  0
SECTION
  2
OBJECTS
  0
DICTIONARY
  5
C
330
0
100
AcDbDictionary
281
     1
  3
ACAD_COLOR
350
BE
  3
ACAD_GROUP
350
D
  3
ACAD_LAYOUT
350
1A
  3
ACAD_MATERIAL
350
BD
  3
ACAD_MLINESTYLE
350
17
  3
ACAD_PLOTSETTINGS
350
19
  3
ACAD_PLOTSTYLENAME
350
E
  3
ACAD_TABLESTYLE
350
11A
  3
ACDBHEADERROUNDTRIPXREC
350
6039
  3
AcDbVariableDictionary
350
94
  3
AcmDictionary
350
5B
  3
AMG
350
41
  3
AMGSNAPSETTINGS
350
1B8
  3
DWGPROPS
350
6038
  3
MAPISURF_MODULE
350
5FD7
  0
DICTIONARY
  5
3F9
330
2
100
AcDbDictionary
280
     1
281
     1
  3
ACAD_LAYERFILTERS
360
436C
  3
ACAD_LAYERSTATES
360
C35
  3
ACLYDICTIONARY
360
436B
  0
DICTIONARY
  5
8F
330
1F
100
AcDbDictionary
280
     1
281
     1
  3
ACAD_INDEX
360
602C
  3
ACAD_SORTENTS
360
1588
  0
DICTIONARY
  5
4487
330
4486
100
AcDbDictionary
280
     1
281
     1
  0
DICTIONARY
  5
5D6B
330
5D66
100
AcDbDictionary
280
     1
281
     1
  3
ACAD_SORTENTS
360
5D6C
  0
DICTIONARY
  5
57D7
330
57D6
100
AcDbDictionary
280
     1
281
     1
  3
ACAD_DIMASSOC
360
57D8
  0
DICTIONARY
  5
57DA
330
57D9
100
AcDbDictionary
280
     1
281
     1
  3
ACAD_DIMASSOC
360
57DB
  0
DICTIONARY
  5
57DE
330
57DD
100
AcDbDictionary
280
     1
281
     1
  3
ACAD_DIMASSOC
360
57DF
  0
DICTIONARY
  5
57E1
330
57E0
100
AcDbDictionary
280
     1
281
     1
  3
ACAD_DIMASSOC
360
57E2
  0
DICTIONARY
  5
57E4
330
57E3
100
AcDbDictionary
280
     1
281
     1
  3
ACAD_DIMASSOC
360
57E5
  0
DICTIONARY
  5
57E8
330
57E7
100
AcDbDictionary
280
     1
281
     1
  3
ACAD_DIMASSOC
360
57E9
  0
DICTIONARY
  5
57EB
330
57EA
100
AcDbDictionary
280
     1
281
     1
  3
ACAD_DIMASSOC
360
57EC
  0
DICTIONARY
  5
57F0
330
57EF
100
AcDbDictionary
280
     1
281
     1
  3
ACAD_DIMASSOC
360
57F1
  0
DICTIONARY
  5
57F4
330
57F3
100
AcDbDictionary
280
     1
281
     1
  3
ACAD_DIMASSOC
360
57F5
  0
DICTIONARY
  5
57F7
330
57F6
100
AcDbDictionary
280
     1
281
     1
  3
ACAD_DIMASSOC
360
57F8
  0
DICTIONARY
  5
57FA
330
57F9
100
AcDbDictionary
280
     1
281
     1
  3
ACAD_DIMASSOC
360
57FB
  0
DICTIONARY
  5
57FE
330
57FD
100
AcDbDictionary
280
     1
281
     1
  3
ACAD_DIMASSOC
360
57FF
  0
DICTIONARY
  5
5801
330
5800
100
AcDbDictionary
280
     1
281
     1
  3
ACAD_DIMASSOC
360
5802
  0
DICTIONARY
  5
5804
330
5803
100
AcDbDictionary
280
     1
281
     1
  3
ACAD_DIMASSOC
360
5805
  0
DICTIONARY
  5
5807
330
5806
100
AcDbDictionary
280
     1
281
     1
  3
ACAD_DIMASSOC
360
5808
  0
DICTIONARY
  5
580D
330
580C
100
AcDbDictionary
280
     1
281
     1
  3
ACAD_DIMASSOC
360
580E
  0
DICTIONARY
  5
5810
330
580F
100
AcDbDictionary
280
     1
281
     1
  3
ACAD_DIMASSOC
360
5811
  0
DICTIONARY
  5
581A
330
5819
100
AcDbDictionary
280
     1
281
     1
  3
ACAD_DIMASSOC
360
581B
  0
DICTIONARY
  5
581E
330
581D
100
AcDbDictionary
280
     1
281
     1
  3
ACAD_DIMASSOC
360
581F
  0
DICTIONARY
  5
5822
330
5821
100
AcDbDictionary
280
     1
281
     1
  3
ACAD_DIMASSOC
360
5823
  0
DICTIONARY
  5
BE
102
{ACAD_REACTORS
330
C
102
}
330
C
100
AcDbDictionary
281
     1
  0
DICTIONARY
  5
D
102
{ACAD_REACTORS
330
C
102
}
330
C
100
AcDbDictionary
281
     1
  0
DICTIONARY
  5
1A
102
{ACAD_REACTORS
330
C
102
}
330
C
100
AcDbDictionary
281
     1
  3
Model
350
22
  3
配置1
350
1E
  3
配置2
350
26
  0
DICTIONARY
  5
BD
102
{ACAD_REACTORS
330
C
102
}
330
C
100
AcDbDictionary
281
     1
  0
DICTIONARY
  5
17
102
{ACAD_REACTORS
330
C
102
}
330
C
100
AcDbDictionary
281
     1
  3
Standard
350
18
  0
DICTIONARY
  5
19
102
{ACAD_REACTORS
330
C
102
}
330
C
100
AcDbDictionary
281
     1
  0
ACDBDICTIONARYWDFLT
  5
E
102
{ACAD_REACTORS
330
C
102
}
330
C
100
AcDbDictionary
281
     1
  3
Normal
350
F
100
AcDbDictionaryWithDefault
340
F
  0
DICTIONARY
  5
11A
102
{ACAD_REACTORS
330
C
102
}
330
C
100
AcDbDictionary
281
     1
  3
Standard
350
11B
  0
DICTIONARY
  5
6039
102
{ACAD_REACTORS
330
C
102
}
330
C
100
AcDbDictionary
281
     1
  0
DICTIONARY
  5
94
102
{ACAD_REACTORS
330
C
102
}
330
C
100
AcDbDictionary
281
     1
  3
CTABLESTYLE
350
138
  3
DIMASSOC
350
96
  3
INDEXCTL
350
95
  3
PROJECTNAME
350
5F45
  0
DICTIONARY
  5
5B
102
{ACAD_REACTORS
330
C
102
}
330
C
100
AcDbDictionary
281
     1
  3
AcmBOM
350
1B5
  3
AcmStdDictionary
350
61
  3
AMDTSECTSYM_ARROWCOLOR
350
123
  0
DICTIONARY
  5
41
102
{ACAD_REACTORS
330
C
102
}
330
C
100
AcDbDictionary
281
     1
  3
AcMgSettings
350
5F51
  0
DICTIONARY
  5
1B8
102
{ACAD_REACTORS
330
C
102
}
330
C
100
AcDbDictionary
281
     1
  0
XRECORD
  5
6038
102
{ACAD_REACTORS
330
C
102
}
330
C
100
AcDbXrecord
280
     1
  1
DWGPROPS COOKIE
  2

  3

  4

  6

  7

  8

  9

300
AmdtFileType=84
301
=
302
=
303
=
304
=
305
=
306
=
307
=
308
=
309
=
 40
0.293756875
 41
2454070.719031748
 42
2457068.629888055
  1

 90
        1
  0
DICTIONARY
  5
436C
102
{ACAD_REACTORS
330
3F9
102
}
330
3F9
100
AcDbDictionary
281
     1
  0
DICTIONARY
  5
C35
102
{ACAD_REACTORS
330
3F9
102
}
330
3F9
100
AcDbDictionary
281
     1
  0
DICTIONARY
  5
436B
102
{ACAD_REACTORS
330
3F9
102
}
330
3F9
100
AcDbDictionary
281
     1
1001
ACAD
1000
<All
  0
DICTIONARY
  5
602C
102
{ACAD_REACTORS
330
8F
102
}
330
8F
100
AcDbDictionary
281
     1
  3
*A1
350
602D
  0
SORTENTSTABLE
  5
1588
102
{ACAD_REACTORS
330
8F
102
}
330
8F
100
AcDbSortentsTable
330
1F
331
58B6
  5
58B6
331
58F5
  5
58F5
331
565E
  5
565E
331
46B7
  5
46B7
331
58BE
  5
58BE
331
58FD
  5
58FD
331
4678
  5
4678
331
569D
  5
569D
331
5666
  5
5666
331
46BF
  5
46BF
331
58C6
  5
58C6
331
4680
  5
4680
331
56A5
  5
56A5
331
56D4
  5
56D4
331
5713
  5
5713
331
574A
  5
574A
331
5789
  5
5789
331
57C0
  5
57C0
331
583E
  5
583E
331
566E
  5
566E
331
58CE
  5
58CE
331
46C7
  5
46C7
331
56AD
  5
56AD
331
56DC
  5
56DC
331
571B
  5
571B
331
5752
  5
5752
331
5791
  5
5791
331
57C8
  5
57C8
331
587D
  5
587D
331
5846
  5
5846
331
5676
  5
5676
331
56E4
  5
56E4
331
5723
  5
5723
331
575A
  5
575A
331
5799
  5
5799
331
57D0
  5
57D0
331
580F
  5
580F
331
5885
  5
5885
331
584E
  5
584E
331
56EC
  5
56EC
331
5762
  5
5762
331
588D
  5
588D
331
5856
  5
5856
331
58D6
  5
58D6
331
5897
  5
5897
331
4651
  5
4651
331
4690
  5
4690
331
567E
  5
567E
331
58DE
  5
58DE
331
589F
  5
589F
331
4659
  5
4659
331
4698
  5
4698
331
57E0
  5
57E0
331
56F4
  5
56F4
331
5686
  5
5686
331
46D7
  5
46D7
331
58E6
  5
58E6
331
58A7
  5
58A7
331
4661
  5
4661
331
46A0
  5
46A0
331
56B5
  5
56B5
331
572B
  5
572B
331
576A
  5
576A
331
57A1
  5
57A1
331
585E
  5
585E
331
56FC
  5
56FC
331
568E
  5
568E
331
58EE
  5
58EE
331
58AF
  5
58AF
331
46DF
  5
46DF
331
56BD
  5
56BD
331
5733
  5
5733
331
5772
  5
5772
331
57A9
  5
57A9
331
5866
  5
5866
331
5827
  5
5827
331
5704
  5
5704
331
5696
  5
5696
331
56C5
  5
56C5
331
573B
  5
573B
331
577A
  5
577A
331
57B1
  5
57B1
331
586E
  5
586E
331
582F
  5
582F
331
570C
  5
570C
331
56CD
  5
56CD
331
5743
  5
5743
331
5782
  5
5782
331
57B9
  5
57B9
331
5876
  5
5876
331
5837
  5
5837
331
46B0
  5
46B0
331
58B7
  5
58B7
331
58F6
  5
58F6
331
4671
  5
4671
331
565F
  5
565F
331
58BF
  5
58BF
331
58FE
  5
58FE
331
46B8
  5
46B8
331
569E
  5
569E
331
5667
  5
5667
331
58C7
  5
58C7
331
46C0
  5
46C0
331
56A6
  5
56A6
331
56D5
  5
56D5
331
5714
  5
5714
331
574B
  5
574B
331
578A
  5
578A
331
57C1
  5
57C1
331
5800
  5
5800
331
583F
  5
583F
331
58CF
  5
58CF
331
566F
  5
566F
331
56AE
  5
56AE
331
56DD
  5
56DD
331
571C
  5
571C
331
5753
  5
5753
331
5792
  5
5792
331
57C9
  5
57C9
331
587E
  5
587E
331
5847
  5
5847
331
5677
  5
5677
331
56E5
  5
56E5
331
5724
  5
5724
331
575B
  5
575B
331
579A
  5
579A
331
57D1
  5
57D1
331
5886
  5
5886
331
584F
  5
584F
331
56ED
  5
56ED
331
5763
  5
5763
331
57D9
  5
57D9
331
588E
  5
588E
331
5857
  5
5857
331
5890
  5
5890
331
46C8
  5
46C8
331
58D7
  5
58D7
331
5898
  5
5898
331
4652
  5
4652
331
4691
  5
4691
331
567F
  5
567F
331
58DF
  5
58DF
331
58A0
  5
58A0
331
465A
  5
465A
331
4699
  5
4699
331
5818
  5
5818
331
56F5
  5
56F5
331
5687
  5
5687
331
46D8
  5
46D8
331
58E7
  5
58E7
331
58A8
  5
58A8
331
4662
  5
4662
331
46A1
  5
46A1
331
56B6
  5
56B6
331
572C
  5
572C
331
576B
  5
576B
331
57A2
  5
57A2
331
585F
  5
585F
331
5820
  5
5820
331
56FD
  5
56FD
331
568F
  5
568F
331
58EF
  5
58EF
331
46E0
  5
46E0
331
56BE
  5
56BE
331
5734
  5
5734
331
5773
  5
5773
331
57AA
  5
57AA
331
5867
  5
5867
331
5828
  5
5828
331
5705
  5
5705
331
5697
  5
5697
331
56C6
  5
56C6
331
573C
  5
573C
331
577B
  5
577B
331
57B2
  5
57B2
331
586F
  5
586F
331
5830
  5
5830
331
57F9
  5
57F9
331
570D
  5
570D
331
56CE
  5
56CE
331
5744
  5
5744
331
5783
  5
5783
331
57BA
  5
57BA
331
5877
  5
5877
331
58B0
  5
58B0
331
46B1
  5
46B1
331
58B8
  5
58B8
331
58F7
  5
58F7
331
4672
  5
4672
331
5660
  5
5660
331
58C0
  5
58C0
331
58FF
  5
58FF
331
46B9
  5
46B9
331
569F
  5
569F
331
5838
  5
5838
331
5668
  5
5668
331
58C8
  5
58C8
331
46C1
  5
46C1
331
56A7
  5
56A7
331
56D6
  5
56D6
331
5715
  5
5715
331
574C
  5
574C
331
578B
  5
578B
331
57C2
  5
57C2
331
5840
  5
5840
331
5670
  5
5670
331
468A
  5
468A
331
56AF
  5
56AF
331
56DE
  5
56DE
331
571D
  5
571D
331
5754
  5
5754
331
5793
  5
5793
331
57CA
  5
57CA
331
5809
  5
5809
331
587F
  5
587F
331
5848
  5
5848
331
56E6
  5
56E6
331
5725
  5
5725
331
575C
  5
575C
331
579B
  5
579B
331
57D2
  5
57D2
331
5887
  5
5887
331
5850
  5
5850
331
56EE
  5
56EE
331
5764
  5
5764
331
588F
  5
588F
331
58D0
  5
58D0
331
5891
  5
5891
331
5678
  5
5678
331
46C9
  5
46C9
331
58D8
  5
58D8
331
5899
  5
5899
331
4653
  5
4653
331
4692
  5
4692
331
5680
  5
5680
331
58E0
  5
58E0
331
58A1
  5
58A1
331
465B
  5
465B
331
469A
  5
469A
331
5858
  5
5858
331
5819
  5
5819
331
56F6
  5
56F6
331
5688
  5
5688
331
46D9
  5
46D9
331
58E8
  5
58E8
331
58A9
  5
58A9
331
4663
  5
4663
331
46A2
  5
46A2
331
56B7
  5
56B7
331
572D
  5
572D
331
576C
  5
576C
331
57A3
  5
57A3
331
5860
  5
5860
331
5821
  5
5821
331
57EA
  5
57EA
331
56FE
  5
56FE
331
5690
  5
5690
331
46E1
  5
46E1
331
56BF
  5
56BF
331
5735
  5
5735
331
5774
  5
5774
331
57AB
  5
57AB
331
5868
  5
5868
331
5829
  5
5829
331
57F2
  5
57F2
331
5706
  5
5706
331
56C7
  5
56C7
331
573D
  5
573D
331
577C
  5
577C
331
57B3
  5
57B3
331
5870
  5
5870
331
5831
  5
5831
331
570E
  5
570E
331
56CF
  5
56CF
331
5745
  5
5745
331
5784
  5
5784
331
57BB
  5
57BB
331
58B1
  5
58B1
331
58F0
  5
58F0
331
5698
  5
5698
331
46B2
  5
46B2
331
58B9
  5
58B9
331
58F8
  5
58F8
331
4673
  5
4673
331
5661
  5
5661
331
58C1
  5
58C1
331
5900
  5
5900
331
46BA
  5
46BA
331
56A0
  5
56A0
331
5839
  5
5839
331
574D
  5
574D
331
5669
  5
5669
331
58C9
  5
58C9
331
46C2
  5
46C2
331
56A8
  5
56A8
331
56D7
  5
56D7
331
5716
  5
5716
331
578C
  5
578C
331
57C3
  5
57C3
331
5878
  5
5878
331
5841
  5
5841
331
5755
  5
5755
331
5671
  5
5671
331
468B
  5
468B
331
56DF
  5
56DF
331
571E
  5
571E
331
5794
  5
5794
331
57CB
  5
57CB
331
580A
  5
580A
331
5880
  5
5880
331
5849
  5
5849
331
575D
  5
575D
331
56E7
  5
56E7
331
5726
  5
5726
331
579C
  5
579C
331
57D3
  5
57D3
331
5812
  5
5812
331
5888
  5
5888
331
5851
  5
5851
331
5765
  5
5765
331
56EF
  5
56EF
331
58D1
  5
58D1
331
5892
  5
5892
331
5679
  5
5679
331
58D9
  5
58D9
331
589A
  5
589A
331
4654
  5
4654
331
4693
  5
4693
331
5681
  5
5681
331
58E1
  5
58E1
331
58A2
  5
58A2
331
465C
  5
465C
331
469B
  5
469B
331
56B0
  5
56B0
331
5859
  5
5859
331
57E3
  5
57E3
331
576D
  5
576D
331
56F7
  5
56F7
331
5689
  5
5689
331
46DA
  5
46DA
331
58E9
  5
58E9
331
58AA
  5
58AA
331
4664
  5
4664
331
46A3
  5
46A3
331
56B8
  5
56B8
331
572E
  5
572E
331
57A4
  5
57A4
331
5861
  5
5861
331
5775
  5
5775
331
56FF
  5
56FF
331
5691
  5
5691
331
466C
  5
466C
331
56C0
  5
56C0
331
5736
  5
5736
331
57AC
  5
57AC
331
5869
  5
5869
331
582A
  5
582A
331
57F3
  5
57F3
331
577D
  5
577D
331
5707
  5
5707
331
56C8
  5
56C8
331
573E
  5
573E
331
57B4
  5
57B4
331
5871
  5
5871
331
5832
  5
5832
331
5785
  5
5785
331
570F
  5
570F
331
5746
  5
5746
331
57BC
  5
57BC
331
58B2
  5
58B2
331
58F1
  5
58F1
331
5699
  5
5699
331
46B3
  5
46B3
331
58BA
  5
58BA
331
58F9
  5
58F9
331
4674
  5
4674
331
5662
  5
5662
331
46BB
  5
46BB
331
58C2
  5
58C2
331
5901
  5
5901
331
467C
  5
467C
331
56A1
  5
56A1
331
56D0
  5
56D0
331
583A
  5
583A
331
574E
  5
574E
331
566A
  5
566A
331
46C3
  5
46C3
331
58CA
  5
58CA
331
464D
  5
464D
331
4684
  5
4684
331
56A9
  5
56A9
331
56D8
  5
56D8
331
5717
  5
5717
331
578D
  5
578D
331
57C4
  5
57C4
331
5803
  5
5803
331
5879
  5
5879
331
5842
  5
5842
331
5756
  5
5756
331
5672
  5
5672
331
468C
  5
468C
331
56E0
  5
56E0
331
571F
  5
571F
331
5795
  5
5795
331
57CC
  5
57CC
331
580B
  5
580B
331
5881
  5
5881
331
584A
  5
584A
331
575E
  5
575E
331
56E8
  5
56E8
331
5727
  5
5727
331
579D
  5
579D
331
57D4
  5
57D4
331
5813
  5
5813
331
5889
  5
5889
331
5852
  5
5852
331
5766
  5
5766
331
57DC
  5
57DC
331
58D2
  5
58D2
331
5893
  5
5893
331
567A
  5
567A
331
4655
  5
4655
331
4694
  5
4694
331
58DA
  5
58DA
331
589B
  5
589B
331
56F0
  5
56F0
331
5682
  5
5682
331
465D
  5
465D
331
469C
  5
469C
331
56B1
  5
56B1
331
58E2
  5
58E2
331
58A3
  5
58A3
331
585A
  5
585A
331
576E
  5
576E
331
56F8
  5
56F8
331
568A
  5
568A
331
46DB
  5
46DB
331
56B9
  5
56B9
331
572F
  5
572F
331
57A5
  5
57A5
331
58EA
  5
58EA
331
58AB
  5
58AB
331
5862
  5
5862
331
5776
  5
5776
331
5700
  5
5700
331
5692
  5
5692
331
466D
  5
466D
331
56C1
  5
56C1
331
5737
  5
5737
331
57AD
  5
57AD
331
586A
  5
586A
331
582B
  5
582B
331
577E
  5
577E
331
5708
  5
5708
331
56C9
  5
56C9
331
573F
  5
573F
331
57B5
  5
57B5
331
5872
  5
5872
331
5833
  5
5833
331
57FC
  5
57FC
331
5786
  5
5786
331
5747
  5
5747
331
57BD
  5
57BD
331
58B3
  5
58B3
331
58F2
  5
58F2
331
569A
  5
569A
331
46B4
  5
46B4
331
4675
  5
4675
331
58BB
  5
58BB
331
58FA
  5
58FA
331
5663
  5
5663
331
46BC
  5
46BC
331
56A2
  5
56A2
331
56D1
  5
56D1
331
5710
  5
5710
331
58C3
  5
58C3
331
5902
  5
5902
331
583B
  5
583B
331
566B
  5
566B
331
464E
  5
464E
331
4685
  5
4685
331
56AA
  5
56AA
331
56D9
  5
56D9
331
5718
  5
5718
331
574F
  5
574F
331
578E
  5
578E
331
57C5
  5
57C5
331
587A
  5
587A
331
58CB
  5
58CB
331
5843
  5
5843
331
5673
  5
5673
331
468D
  5
468D
331
56E1
  5
56E1
331
5720
  5
5720
331
5757
  5
5757
331
5796
  5
5796
331
57CD
  5
57CD
331
580C
  5
580C
331
5882
  5
5882
331
584B
  5
584B
331
56E9
  5
56E9
331
575F
  5
575F
331
579E
  5
579E
331
57D5
  5
57D5
331
5814
  5
5814
331
588A
  5
588A
331
5853
  5
5853
331
5767
  5
5767
331
57DD
  5
57DD
331
58D3
  5
58D3
331
5894
  5
5894
331
567B
  5
567B
331
4656
  5
4656
331
4695
  5
4695
331
58DB
  5
58DB
331
589C
  5
589C
331
56F1
  5
56F1
331
5683
  5
5683
331
465E
  5
465E
331
469D
  5
469D
331
56B2
  5
56B2
331
5728
  5
5728
331
58E3
  5
58E3
331
58A4
  5
58A4
331
585B
  5
585B
331
581C
  5
581C
331
56F9
  5
56F9
331
568B
  5
568B
331
46DC
  5
46DC
331
56BA
  5
56BA
331
5730
  5
5730
331
576F
  5
576F
331
57A6
  5
57A6
331
58EB
  5
58EB
331
58AC
  5
58AC
331
5863
  5
5863
331
5824
  5
5824
331
57ED
  5
57ED
331
5701
  5
5701
331
5693
  5
5693
331
56C2
  5
56C2
331
5738
  5
5738
331
5777
  5
5777
331
57AE
  5
57AE
331
586B
  5
586B
331
582C
  5
582C
331
5709
  5
5709
331
56CA
  5
56CA
331
5740
  5
5740
331
577F
  5
577F
331
57B6
  5
57B6
331
5873
  5
5873
331
5834
  5
5834
331
57FD
  5
57FD
331
5787
  5
5787
331
57BE
  5
57BE
331
58B4
  5
58B4
331
58F3
  5
58F3
331
565C
  5
565C
331
46B5
  5
46B5
331
4676
  5
4676
331
569B
  5
569B
331
58BC
  5
58BC
331
58FB
  5
58FB
331
5664
  5
5664
331
46BD
  5
46BD
331
56A3
  5
56A3
331
56D2
  5
56D2
331
5711
  5
5711
331
5748
  5
5748
331
58C4
  5
58C4
331
583C
  5
583C
331
566C
  5
566C
331
464F
  5
464F
331
4686
  5
4686
331
56AB
  5
56AB
331
56DA
  5
56DA
331
5719
  5
5719
331
5750
  5
5750
331
578F
  5
578F
331
57C6
  5
57C6
331
587B
  5
587B
331
58CC
  5
58CC
331
5844
  5
5844
331
5674
  5
5674
331
468E
  5
468E
331
56E2
  5
56E2
331
5721
  5
5721
331
5758
  5
5758
331
5797
  5
5797
331
57CE
  5
57CE
331
5883
  5
5883
331
584C
  5
584C
331
56EA
  5
56EA
331
5760
  5
5760
331
579F
  5
579F
331
57D6
  5
57D6
331
5815
  5
5815
331
588B
  5
588B
331
5854
  5
5854
331
58D4
  5
58D4
331
5895
  5
5895
331
567C
  5
567C
331
58DC
  5
58DC
331
589D
  5
589D
331
4657
  5
4657
331
4696
  5
4696
331
56F2
  5
56F2
331
5684
  5
5684
331
58E4
  5
58E4
331
58A5
  5
58A5
331
465F
  5
465F
331
469E
  5
469E
331
56B3
  5
56B3
331
5729
  5
5729
331
5768
  5
5768
331
585C
  5
585C
331
581D
  5
581D
331
57E6
  5
57E6
331
56FA
  5
56FA
331
568C
  5
568C
331
58EC
  5
58EC
331
58AD
  5
58AD
331
46DD
  5
46DD
331
56BB
  5
56BB
331
5731
  5
5731
331
5770
  5
5770
331
57A7
  5
57A7
331
5864
  5
5864
331
5825
  5
5825
331
57EE
  5
57EE
331
5702
  5
5702
331
5694
  5
5694
331
56C3
  5
56C3
331
5739
  5
5739
331
5778
  5
5778
331
57AF
  5
57AF
331
586C
  5
586C
331
582D
  5
582D
331
57F6
  5
57F6
331
570A
  5
570A
331
56CB
  5
56CB
331
5741
  5
5741
331
5780
  5
5780
331
57B7
  5
57B7
331
5874
  5
5874
331
5835
  5
5835
331
57BF
  5
57BF
331
5B63
  5
5B63
331
58B5
  5
58B5
331
58F4
  5
58F4
331
565D
  5
565D
331
46B6
  5
46B6
331
58BD
  5
58BD
331
58FC
  5
58FC
331
4677
  5
4677
331
569C
  5
569C
331
5665
  5
5665
331
58C5
  5
58C5
331
46BE
  5
46BE
331
56A4
  5
56A4
331
56D3
  5
56D3
331
5712
  5
5712
331
5749
  5
5749
331
5788
  5
5788
331
583D
  5
583D
331
566D
  5
566D
331
58CD
  5
58CD
331
46C6
  5
46C6
331
56AC
  5
56AC
331
56DB
  5
56DB
331
571A
  5
571A
331
5751
  5
5751
331
5790
  5
5790
331
57C7
  5
57C7
331
5806
  5
5806
331
587C
  5
587C
331
5845
  5
5845
331
5675
  5
5675
331
468F
  5
468F
331
56E3
  5
56E3
331
5722
  5
5722
331
5759
  5
5759
331
5798
  5
5798
331
57CF
  5
57CF
331
5884
  5
5884
331
584D
  5
584D
331
56EB
  5
56EB
331
5761
  5
5761
331
5816
  5
5816
331
588C
  5
588C
331
5855
  5
5855
331
5B73
  5
5B73
331
58D5
  5
58D5
331
5896
  5
5896
331
4650
  5
4650
331
567D
  5
567D
331
58DD
  5
58DD
331
589E
  5
589E
331
4658
  5
4658
331
4697
  5
4697
331
56F3
  5
56F3
331
5685
  5
5685
331
46D6
  5
46D6
331
58E5
  5
58E5
331
58A6
  5
58A6
331
4660
  5
4660
331
469F
  5
469F
331
56B4
  5
56B4
331
572A
  5
572A
331
5769
  5
5769
331
57A0
  5
57A0
331
585D
  5
585D
331
57E7
  5
57E7
331
56FB
  5
56FB
331
568D
  5
568D
331
46DE
  5
46DE
331
58ED
  5
58ED
331
58AE
  5
58AE
331
4668
  5
4668
331
56BC
  5
56BC
331
5732
  5
5732
331
5771
  5
5771
331
57A8
  5
57A8
331
5865
  5
5865
331
5826
  5
5826
331
57EF
  5
57EF
331
5703
  5
5703
331
5695
  5
5695
331
46AF
  5
46AF
331
56C4
  5
56C4
331
573A
  5
573A
331
5779
  5
5779
331
57B0
  5
57B0
331
586D
  5
586D
331
582E
  5
582E
331
570B
  5
570B
331
56CC
  5
56CC
331
5742
  5
5742
331
5781
  5
5781
331
57B8
  5
57B8
331
5875
  5
5875
331
5836
  5
5836
331
5B64
  5
5B64
  0
SORTENTSTABLE
  5
5D6C
102
{ACAD_REACTORS
330
5D6B
102
}
330
5D6B
100
AcDbSortentsTable
330
5D66
  0
DIMASSOC
  5
57D8
102
{ACAD_REACTORS
330
57D7
102
}
330
57D7
100
AcDbDimAssoc
330
57D6
 90
        3
 70
     0
 71
     0
  1
AcDbOsnapPointRef
 72
     1
331
5682
 73
     2
 91
        0
 40
1.0
 10
0.0
 20
0.0
 30
2.000000000000000E+50
 75
     0
  1
AcDbOsnapPointRef
 72
    13
331
5682
 73
     2
 91
        0
 40
0.0
 10
0.0
 20
0.0
 30
2.000000000000000E+50
 75
     0
  0
DIMASSOC
  5
57DB
102
{ACAD_REACTORS
330
57DA
102
}
330
57DA
100
AcDbDimAssoc
330
57D9
 90
        1
 70
     0
 71
     0
  1
AcDbOsnapPointRef
 72
    13
331
568A
 73
     2
 91
        0
 40
0.0
 10
0.0
 20
0.0
 30
2.000000000000000E+50
 75
     0
  0
DIMASSOC
  5
57DF
102
{ACAD_REACTORS
330
57DE
102
}
330
57DE
100
AcDbDimAssoc
330
57DD
 90
        3
 70
     0
 71
     0
  1
AcDbOsnapPointRef
 72
    13
331
568A
 73
     2
 91
        0
 40
0.0
 10
0.0
 20
0.0
 30
2.000000000000000E+50
 75
     0
  1
AcDbOsnapPointRef
 72
     1
331
568A
 73
     2
 91
        0
 40
1.0
 10
0.0
 20
0.0
 30
2.000000000000000E+50
 75
     0
  0
DIMASSOC
  5
57E2
102
{ACAD_REACTORS
330
57E1
102
}
330
57E1
100
AcDbDimAssoc
330
57E0
 90
        3
 70
     0
 71
     0
  1
AcDbOsnapPointRef
 72
     1
331
568C
 73
     2
 91
        0
 40
1.0
 10
0.0
 20
0.0
 30
2.000000000000000E+50
 75
     0
  1
AcDbOsnapPointRef
 72
    13
331
5682
 73
     2
 91
        0
 40
0.0
 10
0.0
 20
0.0
 30
2.000000000000000E+50
 75
     0
  0
DIMASSOC
  5
57E5
102
{ACAD_REACTORS
330
57E4
102
}
330
57E4
100
AcDbDimAssoc
330
57E3
 90
        3
 70
     0
 71
     0
  1
AcDbOsnapPointRef
 72
     1
331
56E9
 73
     2
 91
        0
 40
1.0
 10
0.0
 20
0.0
 30
2.000000000000000E+50
 75
     0
  1
AcDbOsnapPointRef
 72
     8
331
56EB
 73
     2
 91
        0
 40
0.9999999999999904
 10
0.0
 20
0.0
 30
0.0
 75
     1
  1
AcDbOsnapPointRef
 72
     1
331
56E9
 73
     2
 91
        0
 40
1.0
 10
0.0
 20
0.0
 30
2.000000000000000E+50
 75
     0
  0
DIMASSOC
  5
57E9
102
{ACAD_REACTORS
330
57E8
102
}
330
57E8
100
AcDbDimAssoc
330
57E7
 90
        3
 70
     0
 71
     0
  1
AcDbOsnapPointRef
 72
     1
331
56E9
 73
     2
 91
        0
 40
1.0
 10
0.0
 20
0.0
 30
2.000000000000000E+50
 75
     0
  1
AcDbOsnapPointRef
 72
    13
331
56EA
 73
     2
 91
        0
 40
0.0
 10
0.0
 20
0.0
 30
2.000000000000000E+50
 75
     0
  0
DIMASSOC
  5
57EC
102
{ACAD_REACTORS
330
57EB
102
}
330
57EB
100
AcDbDimAssoc
330
57EA
 90
        1
 70
     0
 71
     0
  1
AcDbOsnapPointRef
 72
    13
331
56EA
 73
     2
 91
        0
 40
0.0
 10
0.0
 20
0.0
 30
2.000000000000000E+50
 75
     0
  0
DIMASSOC
  5
57F1
102
{ACAD_REACTORS
330
57F0
102
}
330
57F0
100
AcDbDimAssoc
330
57EF
 90
        3
 70
     0
 71
     0
  1
AcDbOsnapPointRef
 72
    13
331
56BC
 73
     2
 91
        0
 40
0.0
 10
0.0
 20
0.0
 30
2.000000000000000E+50
 75
     0
  1
AcDbOsnapPointRef
 72
    13
331
56C1
 73
     2
 91
        0
 40
0.0
 10
0.0
 20
0.0
 30
2.000000000000000E+50
 75
     0
  0
DIMASSOC
  5
57F5
102
{ACAD_REACTORS
330
57F4
102
}
330
57F4
100
AcDbDimAssoc
330
57F3
 90
        2
 70
     0
 71
     0
  1
AcDbOsnapPointRef
 72
     1
331
56A0
 73
     2
 91
        0
 40
1.0
 10
0.0
 20
0.0
 30
2.000000000000000E+50
 75
     0
  0
DIMASSOC
  5
57F8
102
{ACAD_REACTORS
330
57F7
102
}
330
57F7
100
AcDbDimAssoc
330
57F6
 90
        3
 70
     0
 71
     0
  1
AcDbOsnapPointRef
 72
    13
331
56BD
 73
     2
 91
        0
 40
0.0
 10
0.0
 20
0.0
 30
2.000000000000000E+50
 75
     0
  1
AcDbOsnapPointRef
 72
     1
331
56BE
 73
     2
 91
        0
 40
1.0
 10
0.0
 20
0.0
 30
2.000000000000000E+50
 75
     0
  0
DIMASSOC
  5
57FB
102
{ACAD_REACTORS
330
57FA
102
}
330
57FA
100
AcDbDimAssoc
330
57F9
 90
        1
 70
     0
 71
     0
  1
AcDbOsnapPointRef
 72
     1
331
56A0
 73
     2
 91
        0
 40
1.0
 10
0.0
 20
0.0
 30
2.000000000000000E+50
 75
     0
  0
DIMASSOC
  5
57FF
102
{ACAD_REACTORS
330
57FE
102
}
330
57FE
100
AcDbDimAssoc
330
57FD
 90
        3
 70
     0
 71
     0
  1
AcDbOsnapPointRef
 72
    13
331
56BD
 73
     2
 91
        0
 40
0.0
 10
0.0
 20
0.0
 30
2.000000000000000E+50
 75
     0
  1
AcDbOsnapPointRef
 72
     1
331
56A0
 73
     2
 91
        0
 40
1.0
 10
0.0
 20
0.0
 30
2.000000000000000E+50
 75
     0
  0
DIMASSOC
  5
5802
102
{ACAD_REACTORS
330
5801
102
}
330
5801
100
AcDbDimAssoc
330
5800
 90
        3
 70
     0
 71
     0
  1
AcDbOsnapPointRef
 72
     1
331
56A0
 73
     2
 91
        0
 40
1.0
 10
0.0
 20
0.0
 30
2.000000000000000E+50
 75
     0
  1
AcDbOsnapPointRef
 72
    13
331
56A4
 73
     2
 91
        0
 40
0.0
 10
0.0
 20
0.0
 30
2.000000000000000E+50
 75
     0
  0
DIMASSOC
  5
5805
102
{ACAD_REACTORS
330
5804
102
}
330
5804
100
AcDbDimAssoc
330
5803
 90
        3
 70
     0
 71
     0
  1
AcDbOsnapPointRef
 72
    13
331
56BD
 73
     2
 91
        0
 40
0.0
 10
0.0
 20
0.0
 30
2.000000000000000E+50
 75
     0
  1
AcDbOsnapPointRef
 72
    13
331
569F
 73
     2
 91
        0
 40
0.0
 10
0.0
 20
0.0
 30
2.000000000000000E+50
 75
     0
  0
DIMASSOC
  5
5808
102
{ACAD_REACTORS
330
5807
102
}
330
5807
100
AcDbDimAssoc
330
5806
 90
        1
 70
     0
 71
     0
  1
AcDbOsnapPointRef
 72
     1
331
5700
 73
     2
 91
        0
 40
1.0
 10
0.0
 20
0.0
 30
2.000000000000000E+50
 75
     0
  0
DIMASSOC
  5
580E
102
{ACAD_REACTORS
330
580D
102
}
330
580D
100
AcDbDimAssoc
330
580C
 90
        2
 70
     0
 71
     0
  1
AcDbOsnapPointRef
 72
    13
331
56A4
 73
     2
 91
        0
 40
0.0
 10
0.0
 20
0.0
 30
2.000000000000000E+50
 75
     0
  0
DIMASSOC
  5
5811
102
{ACAD_REACTORS
330
5810
102
}
330
5810
100
AcDbDimAssoc
330
580F
 90
        2
 70
     0
 71
     0
  1
AcDbOsnapPointRef
 72
    13
331
56A4
 73
     2
 91
        0
 40
0.0
 10
0.0
 20
0.0
 30
2.000000000000000E+50
 75
     0
  0
DIMASSOC
  5
581B
102
{ACAD_REACTORS
330
581A
102
}
330
581A
100
AcDbDimAssoc
330
5819
 90
        3
 70
     0
 71
     0
  1
AcDbOsnapPointRef
 72
    13
331
577E
 73
     2
 91
        0
 40
0.0
 10
0.0
 20
0.0
 30
2.000000000000000E+50
 75
     0
  1
AcDbOsnapPointRef
 72
    13
331
5774
 73
     2
 91
        0
 40
0.0
 10
0.0
 20
0.0
 30
2.000000000000000E+50
 75
     0
  0
DIMASSOC
  5
581F
102
{ACAD_REACTORS
330
581E
102
}
330
581E
100
AcDbDimAssoc
330
581D
 90
        2
 70
     0
 71
     0
  1
AcDbOsnapPointRef
 72
    13
331
5734
 73
     2
 91
        0
 40
0.0
 10
0.0
 20
0.0
 30
2.000000000000000E+50
 75
     0
  0
DIMASSOC
  5
5823
102
{ACAD_REACTORS
330
5822
102
}
330
5822
100
AcDbDimAssoc
330
5821
 90
        2
 70
     0
 71
     0
  1
AcDbOsnapPointRef
 72
    13
331
5733
 73
     2
 91
        0
 40
0.0
 10
0.0
 20
0.0
 30
2.000000000000000E+50
 75
     0
  0
LAYOUT
  5
22
102
{ACAD_XDICTIONARY
360
603C
102
}
102
{ACAD_REACTORS
330
1A
102
}
330
1A
100
AcDbPlotSettings
  1

  2
\\RD\EPSON Stylus C63 Series單色
  4
A4
  6

 40
3.757083177566528
 41
3.757076978683471
 42
3.757080078125
 43
3.757080078125
 44
209.9733276367187
 45
296.9683227539062
 46
0.0
 47
0.0
 48
0.0
 49
0.0
140
0.0
141
0.0
142
1.0
143
0.3405120737814363
 70
 11952
 72
     1
 73
     0
 74
     0
  7
單色出圖.ctb
 75
     0
147
2.936753428137963
148
-2047.07469463503
149
-1261.649717473083
100
AcDbLayout
  1
Model
 70
     1
 71
     0
 10
0.0
 20
0.0
 11
12.0
 21
9.0
 12
0.0
 22
0.0
 32
0.0
 14
0.0
 24
0.0
 34
0.0
 15
0.0
 25
0.0
 35
0.0
146
0.0
 13
0.0
 23
0.0
 33
0.0
 16
1.0
 26
0.0
 36
0.0
 17
0.0
 27
1.0
 37
0.0
 76
     0
330
1F
1001
ACAD_PSEXT
1000
\\RD\EPSON Stylus C63 Series單色
1000
EPSON Stylus C63 Series
1000
\\RD
1000

1070
     0
  0
LAYOUT
  5
1E
102
{ACAD_XDICTIONARY
360
603A
102
}
102
{ACAD_REACTORS
330
1A
102
}
330
1A
100
AcDbPlotSettings
  1

  2

  4

  6

 40
0.0
 41
0.0
 42
0.0
 43
0.0
 44
0.0
 45
0.0
 46
0.0
 47
0.0
 48
0.0
 49
0.0
140
0.0
141
0.0
142
1.0
143
1.0
 70
   688
 72
     0
 73
     0
 74
     5
  7
單色出圖.ctb
 75
    16
147
1.0
148
0.0
149
0.0
100
AcDbLayout
  1
配置1
 70
     1
 71
     1
 10
0.0
 20
0.0
 11
420.0
 21
297.0
 12
0.0
 22
0.0
 32
0.0
 14
1.000000000000000E+20
 24
1.000000000000000E+20
 34
1.000000000000000E+20
 15
-1.000000000000000E+20
 25
-1.000000000000000E+20
 35
-1.000000000000000E+20
146
0.0
 13
0.0
 23
0.0
 33
0.0
 16
1.0
 26
0.0
 36
0.0
 17
0.0
 27
1.0
 37
0.0
 76
     0
330
1B
  0
LAYOUT
  5
26
102
{ACAD_XDICTIONARY
360
603E
102
}
102
{ACAD_REACTORS
330
1A
102
}
330
1A
100
AcDbPlotSettings
  1

  2

  4

  6

 40
0.0
 41
0.0
 42
0.0
 43
0.0
 44
0.0
 45
0.0
 46
0.0
 47
0.0
 48
0.0
 49
0.0
140
0.0
141
0.0
142
1.0
143
1.0
 70
   688
 72
     0
 73
     0
 74
     5
  7
單色出圖.ctb
 75
    16
147
1.0
148
0.0
149
0.0
100
AcDbLayout
  1
配置2
 70
     1
 71
     2
 10
0.0
 20
0.0
 11
12.0
 21
9.0
 12
0.0
 22
0.0
 32
0.0
 14
0.0
 24
0.0
 34
0.0
 15
0.0
 25
0.0
 35
0.0
146
0.0
 13
0.0
 23
0.0
 33
0.0
 16
1.0
 26
0.0
 36
0.0
 17
0.0
 27
1.0
 37
0.0
 76
     0
330
23
  0
MLINESTYLE
  5
18
102
{ACAD_REACTORS
330
17
102
}
330
17
100
AcDbMlineStyle
  2
STANDARD
 70
     0
  3

 62
   256
 51
90.0
 52
90.0
 71
     2
 49
0.5
 62
   256
  6
BYLAYER
 49
-0.5
 62
   256
  6
BYLAYER
  0
ACDBPLACEHOLDER
  5
F
102
{ACAD_REACTORS
330
E
102
}
330
E
  0
TABLESTYLE
  5
11B
102
{ACAD_REACTORS
330
11A
102
}
330
11A
100
AcDbTableStyle
  3
Standard
 70
     0
 71
     0
 40
1.5
 41
1.5
280
     0
281
     0
  7
STANDARD
140
4.5
170
     2
 62
     0
 63
     7
283
     0
274
    -2
284
     1
 64
     0
275
    -2
285
     1
 65
     0
276
    -2
286
     1
 66
     0
277
    -2
287
     1
 67
     0
278
    -2
288
     1
 68
     0
279
    -2
289
     1
 69
     0
  7
STANDARD
140
6.0
170
     5
 62
     0
 63
     7
283
     0
274
    -2
284
     1
 64
     0
275
    -2
285
     1
 65
     0
276
    -2
286
     1
 66
     0
277
    -2
287
     1
 67
     0
278
    -2
288
     1
 68
     0
279
    -2
289
     1
 69
     0
  7
STANDARD
140
4.5
170
     5
 62
     0
 63
     7
283
     0
274
    -2
284
     1
 64
     0
275
    -2
285
     1
 65
     0
276
    -2
286
     1
 66
     0
277
    -2
287
     1
 67
     0
278
    -2
288
     1
 68
     0
279
    -2
289
     1
 69
     0
  0
DICTIONARYVAR
  5
138
102
{ACAD_REACTORS
330
94
102
}
330
94
100
DictionaryVariables
280
     0
  1
STANDARD
  0
DICTIONARYVAR
  5
96
102
{ACAD_REACTORS
330
94
102
}
330
94
100
DictionaryVariables
280
     0
  1
2
  0
DICTIONARYVAR
  5
95
102
{ACAD_REACTORS
330
94
102
}
330
94
100
DictionaryVariables
280
     0
  1
1
  0
DICTIONARYVAR
  5
5F45
102
{ACAD_REACTORS
330
94
102
}
330
94
100
DictionaryVariables
280
     0
  1

  0
DICTIONARY
  5
1B5
102
{ACAD_REACTORS
330
5B
102
}
330
5B
100
AcDbDictionary
281
     1
  0
DICTIONARY
  5
61
102
{ACAD_REACTORS
330
5B
102
}
330
5B
100
AcDbDictionary
281
     1
  0
XRECORD
  5
123
102
{ACAD_REACTORS
330
5B
102
}
330
5B
100
AcDbXrecord
280
     1
 90
-1023410169
  0
DICTIONARY
  5
5F51
102
{ACAD_REACTORS
330
41
102
}
330
41
100
AcDbDictionary
281
     1
  3
DWGSETTINGS
350
5F52
  3
TRANSSETTINGS
350
5F55
  0
LAYER_INDEX
  5
602D
102
{ACAD_REACTORS
330
602C
102
}
330
602C
100
AcDbIndex
 40
2457068.629888055
100
AcDbLayerIndex
  8
0
360
602E
 90
       36
  8
Defpoints
360
602F
 90
        0
  8
AM_VIS
360
6030
 90
      356
  8
AM_4
360
6031
 90
       24
  8
AM_7
360
6032
 90
      131
  8
AM_5
360
6033
 90
       51
  8
DIM2
360
6034
 90
       79
  8
LOGO
360
6035
 90
      103
  0
DICTIONARY
  5
603C
330
22
100
AcDbDictionary
280
     1
281
     1
  3
ACAD_XREC_ROUNDTRIP
360
603D
  0
DICTIONARY
  5
603A
330
1E
100
AcDbDictionary
280
     1
281
     1
  3
ACAD_XREC_ROUNDTRIP
360
603B
  0
DICTIONARY
  5
603E
330
26
100
AcDbDictionary
280
     1
281
     1
  3
ACAD_XREC_ROUNDTRIP
360
603F
  0
IDBUFFER
  5
602E
330
0
100
AcDbIdBuffer
330
5917
330
5918
330
5919
330
591A
330
591B
330
591C
330
591D
330
591E
330
591F
330
5920
330
5921
330
5922
330
5923
330
5924
330
5925
330
5926
330
5927
330
5928
330
5929
330
5D6F
330
46E2
330
46E3
330
46E4
330
590A
330
590B
330
590C
330
590D
330
590E
330
590F
330
5910
330
5911
330
5912
330
5913
330
5914
330
5915
330
5916
  0
IDBUFFER
  5
602F
330
0
100
AcDbIdBuffer
  0
IDBUFFER
  5
6030
330
0
100
AcDbIdBuffer
330
5763
330
5764
330
5765
330
5766
330
5767
330
5768
330
5769
330
576A
330
576B
330
576C
330
576D
330
576E
330
576F
330
5770
330
5771
330
5772
330
5773
330
5774
330
5775
330
5776
330
5777
330
5778
330
5779
330
577A
330
577B
330
577C
330
577D
330
577E
330
577F
330
5780
330
5781
330
5782
330
5783
330
5784
330
5785
330
5786
330
5787
330
5788
330
5789
330
578A
330
578B
330
578C
330
578D
330
582F
330
5830
330
5831
330
5832
330
5833
330
5834
330
5835
330
5836
330
5837
330
5838
330
5839
330
583A
330
583B
330
583C
330
583D
330
583E
330
583F
330
5840
330
5841
330
5842
330
5843
330
5844
330
5845
330
5846
330
5847
330
5848
330
5849
330
584A
330
584B
330
584C
330
584D
330
584F
330
5850
330
5851
330
5852
330
5853
330
5854
330
5855
330
5856
330
5857
330
5858
330
5859
330
585A
330
585B
330
585C
330
585D
330
585E
330
585F
330
5860
330
5861
330
5862
330
5863
330
5864
330
5865
330
5866
330
5867
330
5868
330
5869
330
586A
330
586B
330
586C
330
586D
330
586E
330
586F
330
5870
330
5871
330
5872
330
5873
330
5874
330
5875
330
5876
330
5877
330
5878
330
5673
330
5674
330
5675
330
5676
330
5677
330
5678
330
5679
330
567A
330
567B
330
567C
330
567D
330
567E
330
567F
330
5680
330
5681
330
5682
330
5683
330
5684
330
5685
330
5686
330
5687
330
5688
330
5689
330
568A
330
568B
330
568C
330
568D
330
568E
330
568F
330
5690
330
5691
330
5692
330
5693
330
5694
330
5695
330
5696
330
5697
330
5698
330
5699
330
569A
330
569B
330
569C
330
569D
330
569E
330
569F
330
56A0
330
56A1
330
56A2
330
56A3
330
56A4
330
56A5
330
56A6
330
56A7
330
56A8
330
56A9
330
56AA
330
56AB
330
56AC
330
56AD
330
56AE
330
56AF
330
56B0
330
56B1
330
56B2
330
56B3
330
56B4
330
56B5
330
56B6
330
56B7
330
56B8
330
56B9
330
56BA
330
56BB
330
56BC
330
56BD
330
56BE
330
56BF
330
56C0
330
56C1
330
56C2
330
56C3
330
56C4
330
56C5
330
56C6
330
56C7
330
56C8
330
56C9
330
56CA
330
56CB
330
56CC
330
56CD
330
56CE
330
56CF
330
56D0
330
56D1
330
56D2
330
56D3
330
56D4
330
56D5
330
56D6
330
56D7
330
56D8
330
56D9
330
56DA
330
56DB
330
56DC
330
56DD
330
56DE
330
56DF
330
56E0
330
56E1
330
56E2
330
56E3
330
56E4
330
56E5
330
56E6
330
56E7
330
56E8
330
56E9
330
56EA
330
56EB
330
56EC
330
56ED
330
56EE
330
56EF
330
56F0
330
56F1
330
56F2
330
56F3
330
56F4
330
56F5
330
56F6
330
56F7
330
56F8
330
56F9
330
56FA
330
56FB
330
56FC
330
56FD
330
56FE
330
56FF
330
5700
330
5701
330
5702
330
5703
330
5704
330
5705
330
5706
330
5707
330
5708
330
5709
330
570A
330
570B
330
570C
330
570D
330
570E
330
570F
330
5710
330
5711
330
5712
330
5713
330
5714
330
5715
330
5716
330
5717
330
5718
330
5719
330
571A
330
571B
330
571C
330
571D
330
571E
330
571F
330
5720
330
5721
330
5722
330
5723
330
5724
330
5725
330
5726
330
5727
330
5728
330
5729
330
572A
330
572B
330
572C
330
572D
330
572E
330
572F
330
5730
330
5731
330
5732
330
5733
330
5734
330
5735
330
5736
330
5737
330
5738
330
5739
330
573A
330
573B
330
573C
330
573D
330
573E
330
573F
330
5740
330
5741
330
5742
330
5743
330
5744
330
5745
330
5746
330
5747
330
5748
330
5749
330
574A
330
574B
330
574C
330
574D
330
574E
330
574F
330
5750
330
5751
330
5752
330
5753
330
5754
330
5755
330
5756
330
5757
330
5758
330
5759
330
575A
330
575B
330
575C
330
575D
330
575E
330
575F
330
5760
330
5761
330
5762
  0
IDBUFFER
  5
6031
330
0
100
AcDbIdBuffer
330
566C
330
566D
330
566E
330
566F
330
5670
330
5671
330
5672
330
584E
330
565C
330
565D
330
565E
330
565F
330
5660
330
5661
330
5662
330
5663
330
5664
330
5665
330
5666
330
5667
330
5668
330
5669
330
566A
330
566B
  0
IDBUFFER
  5
6032
330
0
100
AcDbIdBuffer
330
58E9
330
58EA
330
58EB
330
58EC
330
58ED
330
58EE
330
58EF
330
58F0
330
58F1
330
58F2
330
58F3
330
58F4
330
58F5
330
58F6
330
58F7
330
58F8
330
58F9
330
58FA
330
58FB
330
5879
330
587A
330
587B
330
587C
330
587D
330
587E
330
587F
330
5880
330
5881
330
5882
330
5883
330
5884
330
5885
330
5886
330
5887
330
5888
330
5889
330
588A
330
588B
330
588C
330
588D
330
588E
330
588F
330
5890
330
5891
330
5892
330
5893
330
5894
330
5895
330
5896
330
5897
330
5898
330
5899
330
589A
330
589B
330
589C
330
589D
330
589E
330
589F
330
58A0
330
58A1
330
58A2
330
58A3
330
58A4
330
58A5
330
58A6
330
58A7
330
58A8
330
58A9
330
58AA
330
58AB
330
58AC
330
58AD
330
58AE
330
58AF
330
58B0
330
58B1
330
58B2
330
58B3
330
58B4
330
58B5
330
58B6
330
58B7
330
58B8
330
58B9
330
58BA
330
58BB
330
58BC
330
58BD
330
58BE
330
58BF
330
58C0
330
58C1
330
58C2
330
58C3
330
58C4
330
58C5
330
58C6
330
58C7
330
58C8
330
58C9
330
58CA
330
58CB
330
58CC
330
58CD
330
58CE
330
58CF
330
58D0
330
58D1
330
58D2
330
58D3
330
58D4
330
58D5
330
58D6
330
58D7
330
58D8
330
58D9
330
58DA
330
58DB
330
58DC
330
58DD
330
58DE
330
58DF
330
58E0
330
58E1
330
58E2
330
58E3
330
58E4
330
58E5
330
58E6
330
58E7
330
58E8
  0
IDBUFFER
  5
6033
330
0
100
AcDbIdBuffer
330
5902
330
5B63
330
5B64
330
57D5
330
57D6
330
57D9
330
57DC
330
57DD
330
57E0
330
57E3
330
57E6
330
57E7
330
57EA
330
57ED
330
57EE
330
57EF
330
57F2
330
57F3
330
57F6
330
57F9
330
57FC
330
57FD
330
5800
330
5803
330
5806
330
5809
330
580A
330
580B
330
580C
330
580F
330
5812
330
5813
330
5814
330
5815
330
5816
330
5818
330
5819
330
581C
330
581D
330
5820
330
5821
330
5824
330
5825
330
5826
330
5827
330
58FC
330
58FD
330
58FE
330
58FF
330
5900
330
5901
  0
IDBUFFER
  5
6034
330
0
100
AcDbIdBuffer
330
57BE
330
57BF
330
57C0
330
57C1
330
57C2
330
57C3
330
57C4
330
57C5
330
57C6
330
57C7
330
57C8
330
57C9
330
57CA
330
57CB
330
57CC
330
57CD
330
57CE
330
57CF
330
57D0
330
57D1
330
57D2
330
57D3
330
57D4
330
5828
330
5829
330
582A
330
582B
330
582C
330
582D
330
582E
330
5B73
330
578E
330
578F
330
5790
330
5791
330
5792
330
5793
330
5794
330
5795
330
5796
330
5797
330
5798
330
5799
330
579A
330
579B
330
579C
330
579D
330
579E
330
579F
330
57A0
330
57A1
330
57A2
330
57A3
330
57A4
330
57A5
330
57A6
330
57A7
330
57A8
330
57A9
330
57AA
330
57AB
330
57AC
330
57AD
330
57AE
330
57AF
330
57B0
330
57B1
330
57B2
330
57B3
330
57B4
330
57B5
330
57B6
330
57B7
330
57B8
330
57B9
330
57BA
330
57BB
330
57BC
330
57BD
  0
IDBUFFER
  5
6035
330
0
100
AcDbIdBuffer
330
4692
330
4693
330
4694
330
4695
330
4696
330
4697
330
4698
330
4699
330
469A
330
469B
330
469C
330
469D
330
469E
330
469F
330
46A0
330
46A1
330
46A2
330
46A3
330
46AF
330
46B0
330
46B1
330
46B2
330
46B3
330
46B4
330
46B5
330
46B6
330
46B7
330
46B8
330
46B9
330
46BA
330
46BB
330
46BC
330
46BD
330
46BE
330
46BF
330
46C0
330
46C1
330
46C2
330
46C3
330
46C6
330
46C7
330
46C8
330
46C9
330
46D6
330
46D7
330
46D8
330
46D9
330
46DA
330
46DB
330
46DC
330
46DD
330
46DE
330
46DF
330
46E0
330
46E1
330
464D
330
464E
330
464F
330
4650
330
4651
330
4652
330
4653
330
4654
330
4655
330
4656
330
4657
330
4658
330
4659
330
465A
330
465B
330
465C
330
465D
330
465E
330
465F
330
4660
330
4661
330
4662
330
4663
330
4664
330
4668
330
466C
330
466D
330
4671
330
4672
330
4673
330
4674
330
4675
330
4676
330
4677
330
4678
330
467C
330
4680
330
4684
330
4685
330
4686
330
468A
330
468B
330
468C
330
468D
330
468E
330
468F
330
4690
330
4691
  0
XRECORD
  5
603D
102
{ACAD_REACTORS
330
603C
102
}
330
603C
100
AcDbXrecord
280
     1
102
SHADEPLOT
 70
     0
102
SHADEPLOTRESLEVEL
 70
     2
102
SHADEPLOTCUSTOMDPI
 70
   300
  0
XRECORD
  5
603B
102
{ACAD_REACTORS
330
603A
102
}
330
603A
100
AcDbXrecord
280
     1
102
SHADEPLOT
 70
     0
102
SHADEPLOTRESLEVEL
 70
     2
102
SHADEPLOTCUSTOMDPI
 70
   300
  0
XRECORD
  5
603F
102
{ACAD_REACTORS
330
603E
102
}
330
603E
100
AcDbXrecord
280
     1
102
SHADEPLOT
 70
     0
102
SHADEPLOTRESLEVEL
 70
     2
102
SHADEPLOTCUSTOMDPI
 70
   300
  0
ENDSEC
  0
EOF
