  0
SECTION
  2
HEADER
  9
$ACADVER
  1
AC1015
  9
$ACADMAINTVER
 70
    20
  9
$DWGCODEPAGE
  3
ANSI_950
  9
$INSBASE
 10
0.0
 20
0.0
 30
0.0
  9
$EXTMIN
 10
1934.989113364822
 20
18.44894298988942
 30
-0.0000000000002274
  9
$EXTMAX
 10
2438.352050852716
 20
408.4489429898892
 30
255.5625652320971
  9
$LIMMIN
 10
0.0
 20
0.0
  9
$LIMMAX
 10
420.0
 20
297.0
  9
$ORTHOMODE
 70
     0
  9
$REGENMODE
 70
     1
  9
$FILLMODE
 70
     1
  9
$QTEXTMODE
 70
     0
  9
$MIRRTEXT
 70
     1
  9
$LTSCALE
 40
2.0
  9
$ATTMODE
 70
     1
  9
$TEXTSIZE
 40
3.0
  9
$TRACEWID
 40
1.0
  9
$TEXTSTYLE
  7
STANDARD
  9
$CLAYER
  8
0
  9
$CELTYPE
  6
ByLayer
  9
$CECOLOR
 62
   256
  9
$CELTSCALE
 40
1.0
  9
$DISPSILH
 70
     0
  9
$DIMSCALE
 40
1.0
  9
$DIMASZ
 40
3.0
  9
$DIMEXO
 40
1.0
  9
$DIMDLI
 40
8.0
  9
$DIMRND
 40
0.0
  9
$DIMDLE
 40
0.0
  9
$DIMEXE
 40
1.5
  9
$DIMTP
 40
0.1
  9
$DIMTM
 40
0.1
  9
$DIMTXT
 40
3.5
  9
$DIMCEN
 40
0.0
  9
$DIMTSZ
 40
0.0
  9
$DIMTOL
 70
     0
  9
$DIMLIM
 70
     0
  9
$DIMTIH
 70
     0
  9
$DIMTOH
 70
     0
  9
$DIMSE1
 70
     0
  9
$DIMSE2
 70
     0
  9
$DIMTAD
 70
     1
  9
$DIMZIN
 70
     8
  9
$DIMBLK
  1

  9
$DIMASO
 70
     1
  9
$DIMSHO
 70
     1
  9
$DIMPOST
  1

  9
$DIMAPOST
  1
"
  9
$DIMALT
 70
     0
  9
$DIMALTD
 70
     2
  9
$DIMALTF
 40
0.0393701
  9
$DIMLFAC
 40
1.0
  9
$DIMTOFL
 70
     1
  9
$DIMTVP
 40
0.0
  9
$DIMTIX
 70
     0
  9
$DIMSOXD
 70
     0
  9
$DIMSAH
 70
     0
  9
$DIMBLK1
  1

  9
$DIMBLK2
  1

  9
$DIMSTYLE
  2
AM_ISO
  9
$DIMCLRD
 70
   256
  9
$DIMCLRE
 70
   256
  9
$DIMCLRT
 70
   256
  9
$DIMTFAC
 40
0.6
  9
$DIMGAP
 40
0.7
  9
$DIMJUST
 70
     0
  9
$DIMSD1
 70
     0
  9
$DIMSD2
 70
     0
  9
$DIMTOLJ
 70
     0
  9
$DIMTZIN
 70
     8
  9
$DIMALTZ
 70
     0
  9
$DIMALTTZ
 70
     0
  9
$DIMUPT
 70
     0
  9
$DIMDEC
 70
     2
  9
$DIMTDEC
 70
     8
  9
$DIMALTU
 70
     2
  9
$DIMALTTD
 70
     2
  9
$DIMTXSTY
  7
STANDARD
  9
$DIMAUNIT
 70
     0
  9
$DIMADEC
 70
     0
  9
$DIMALTRND
 40
0.0
  9
$DIMAZIN
 70
     2
  9
$DIMDSEP
 70
    46
  9
$DIMATFIT
 70
     3
  9
$DIMFRAC
 70
     0
  9
$DIMLDRBLK
  1

  9
$DIMLUNIT
 70
     2
  9
$DIMLWD
 70
    -1
  9
$DIMLWE
 70
    -1
  9
$DIMTMOVE
 70
     0
  9
$LUNITS
 70
     2
  9
$LUPREC
 70
     2
  9
$SKETCHINC
 40
1.0
  9
$FILLETRAD
 40
2.5
  9
$AUNITS
 70
     0
  9
$AUPREC
 70
     0
  9
$MENU
  1
.
  9
$ELEVATION
 40
0.0
  9
$PELEVATION
 40
0.0
  9
$THICKNESS
 40
0.0
  9
$LIMCHECK
 70
     0
  9
$CHAMFERA
 40
2.5
  9
$CHAMFERB
 40
2.5
  9
$CHAMFERC
 40
20.0
  9
$CHAMFERD
 40
0.0
  9
$SKPOLY
 70
     0
  9
$TDCREATE
 40
2454070.719031748
  9
$TDUCREATE
 40
2454070.385698415
  9
$TDUPDATE
 40
2457068.630949433
  9
$TDUUPDATE
 40
2457068.297616100
  9
$TDINDWG
 40
0.3171549537
  9
$TDUSRTIMER
 40
0.3171549537
  9
$USRTIMER
 70
     1
  9
$ANGBASE
 50
0.0
  9
$ANGDIR
 70
     0
  9
$PDMODE
 70
     0
  9
$PDSIZE
 40
0.0
  9
$PLINEWID
 40
0.0
  9
$SPLFRAME
 70
     0
  9
$SPLINETYPE
 70
     6
  9
$SPLINESEGS
 70
     8
  9
$HANDSEED
  5
6B2D
  9
$SURFTAB1
 70
     6
  9
$SURFTAB2
 70
     6
  9
$SURFTYPE
 70
     6
  9
$SURFU
 70
     6
  9
$SURFV
 70
     6
  9
$UCSBASE
  2

  9
$UCSNAME
  2

  9
$UCSORG
 10
0.0
 20
0.0
 30
0.0
  9
$UCSXDIR
 10
1.0
 20
0.0
 30
0.0
  9
$UCSYDIR
 10
0.0
 20
1.0
 30
0.0
  9
$UCSORTHOREF
  2

  9
$UCSORTHOVIEW
 70
     0
  9
$UCSORGTOP
 10
0.0
 20
0.0
 30
0.0
  9
$UCSORGBOTTOM
 10
0.0
 20
0.0
 30
0.0
  9
$UCSORGLEFT
 10
0.0
 20
0.0
 30
0.0
  9
$UCSORGRIGHT
 10
0.0
 20
0.0
 30
0.0
  9
$UCSORGFRONT
 10
0.0
 20
0.0
 30
0.0
  9
$UCSORGBACK
 10
0.0
 20
0.0
 30
0.0
  9
$PUCSBASE
  2

  9
$PUCSNAME
  2

  9
$PUCSORG
 10
0.0
 20
0.0
 30
0.0
  9
$PUCSXDIR
 10
1.0
 20
0.0
 30
0.0
  9
$PUCSYDIR
 10
0.0
 20
1.0
 30
0.0
  9
$PUCSORTHOREF
  2

  9
$PUCSORTHOVIEW
 70
     0
  9
$PUCSORGTOP
 10
0.0
 20
0.0
 30
0.0
  9
$PUCSORGBOTTOM
 10
0.0
 20
0.0
 30
0.0
  9
$PUCSORGLEFT
 10
0.0
 20
0.0
 30
0.0
  9
$PUCSORGRIGHT
 10
0.0
 20
0.0
 30
0.0
  9
$PUCSORGFRONT
 10
0.0
 20
0.0
 30
0.0
  9
$PUCSORGBACK
 10
0.0
 20
0.0
 30
0.0
  9
$USERI1
 70
     0
  9
$USERI2
 70
     0
  9
$USERI3
 70
     0
  9
$USERI4
 70
     0
  9
$USERI5
 70
     0
  9
$USERR1
 40
0.0
  9
$USERR2
 40
0.0
  9
$USERR3
 40
0.0
  9
$USERR4
 40
0.0
  9
$USERR5
 40
0.0
  9
$WORLDVIEW
 70
     1
  9
$SHADEDGE
 70
     3
  9
$SHADEDIF
 70
    70
  9
$TILEMODE
 70
     1
  9
$MAXACTVP
 70
    64
  9
$PINSBASE
 10
0.0
 20
0.0
 30
0.0
  9
$PLIMCHECK
 70
     0
  9
$PEXTMIN
 10
1.000000000000000E+20
 20
1.000000000000000E+20
 30
1.000000000000000E+20
  9
$PEXTMAX
 10
-1.000000000000000E+20
 20
-1.000000000000000E+20
 30
-1.000000000000000E+20
  9
$PLIMMIN
 10
0.0
 20
0.0
  9
$PLIMMAX
 10
420.0
 20
297.0
  9
$UNITMODE
 70
     0
  9
$VISRETAIN
 70
     1
  9
$PLINEGEN
 70
     0
  9
$PSLTSCALE
 70
     1
  9
$TREEDEPTH
 70
  3020
  9
$CMLSTYLE
  2
Standard
  9
$CMLJUST
 70
     0
  9
$CMLSCALE
 40
20.0
  9
$PROXYGRAPHICS
 70
     1
  9
$MEASUREMENT
 70
     1
  9
$CELWEIGHT
370
    -1
  9
$ENDCAPS
280
     0
  9
$JOINSTYLE
280
     0
  9
$LWDISPLAY
290
     0
  9
$INSUNITS
 70
     4
  9
$HYPERLINKBASE
  1

  9
$STYLESHEET
  1
彩色出圖.ctb
  9
$XEDIT
290
     1
  9
$CEPSNTYPE
380
     0
  9
$PSTYLEMODE
290
     1
  9
$FINGERPRINTGUID
  2
{72A33D65-2724-49D4-AEA8-618A406F8275}
  9
$VERSIONGUID
  2
{55D3C92E-CF38-43A6-B072-3FA957C6927E}
  9
$EXTNAMES
290
     1
  9
$PSVPSCALE
 40
0.0
  9
$OLESTARTUP
290
     0
  0
ENDSEC
  0
SECTION
  2
CLASSES
  0
CLASS
  1
ACDBDICTIONARYWDFLT
  2
AcDbDictionaryWithDefault
  3
ObjectDBX Classes
 90
        0
280
     0
281
     0
  0
CLASS
  1
ACDBPLACEHOLDER
  2
AcDbPlaceHolder
  3
ObjectDBX Classes
 90
        0
280
     0
281
     0
  0
CLASS
  1
LAYOUT
  2
AcDbLayout
  3
ObjectDBX Classes
 90
        0
280
     0
281
     0
  0
CLASS
  1
ACME_DOCUMENT
  2
AcMeDbDoc
  3
AcMeServices
 90
        0
280
     0
281
     0
  0
CLASS
  1
AMGSETTINGSOBJ
  2
AmgSettingsObj
  3
"AcadM|Product Description: AutoCAD Mechanical 2000|Company: Autodesk"
 90
        0
280
     0
281
     0
  0
CLASS
  1
ACMESCOPE
  2
AcMeScope
  3
AcMeServices
 90
        0
280
     0
281
     0
  0
CLASS
  1
ACMECOMMANDHISTORY
  2
AcMeCommandHistory
  3
AcMeServices
 90
        0
280
     0
281
     0
  0
CLASS
  1
ACIMSYSVARMAN
  2
AcImSysVarManager
  3
AcMeServices
 90
        0
280
     0
281
     0
  0
CLASS
  1
ACIMREALSYSVAR
  2
AcImRealSysVar
  3
AcMeServices
 90
        0
280
     0
281
     0
  0
CLASS
  1
ACIMINTSYSVAR
  2
AcImIntSysVar
  3
AcMeServices
 90
        0
280
     0
281
     0
  0
CLASS
  1
ACMEDRAWINGMAN
  2
AcMeDrawingMan
  3
AcMeServices
 90
        0
280
     0
281
     0
  0
CLASS
  1
ACMEVIEW
  2
AcMeView
  3
AcMeServices
 90
        0
280
     0
281
     0
  0
CLASS
  1
ACDBENTITYCACHE
  2
AcMeEntityCache
  3
AcMeServices
 90
        0
280
     0
281
     0
  0
CLASS
  1
GSMANAGER
  2
AcMeGSManager
  3
AcMeServices
 90
        0
280
     0
281
     0
  0
CLASS
  1
AMDTINTERNALREACTOR
  2
AmdtInternalReactor
  3
AcMeServices
 90
        0
280
     0
281
     0
  0
CLASS
  1
ACMESTATEMGR
  2
AcMeStateMgr
  3
AcMeServices
 90
        0
280
     0
281
     0
  0
CLASS
  1
ACGREFMASTER
  2
AcGrefMaster
  3
AcAttribServices
 90
        0
280
     0
281
     0
  0
CLASS
  1
ACME_DATABASE
  2
AcMeDbDatabase
  3
AcMeServices
 90
        0
280
     0
281
     0
  0
CLASS
  1
ACRFINSADJUSTERMGR
  2
AcRfInsAdjusterMgr
  3
AcMeServices
 90
        0
280
     0
281
     0
  0
CLASS
  1
ACGREFACADMASTER
  2
AcGrefacadMaster
  3
AcGrefServices
 90
        0
280
     0
281
     0
  0
CLASS
  1
AMIMASTER
  2
AmiMaster
  3
AmiServices
 90
        0
280
     0
281
     0
  0
CLASS
  1
ACMDATADICTIONARY
  2
AcmDataDictionary
  3
"AcmSymBB|Product Description: AutoCAD Mechanical 2004 DX|Company: Autodesk"
 90
        0
280
     0
281
     0
  0
CLASS
  1
ACMDATAENTRYBLOCK
  2
AcmDataEntryBlock
  3
"AcmSymBB|Product Description: AutoCAD Mechanical 2004 DX|Company: Autodesk"
 90
        0
280
     0
281
     0
  0
CLASS
  1
ACIMSTRSYSVAR
  2
AcImStrSysVar
  3
AcMeServices
 90
        0
280
     0
281
     0
  0
CLASS
  1
ACMSTANDARDISO
  2
AcmStandardISO
  3
"Amdt_StdImp|Product Description: AutoCAD Mechanical 2004 DX|Company: Autodesk"
 90
        0
280
     0
281
     0
  0
CLASS
  1
AMGOBJPROPCFG
  2
AmgObjPropCfg
  3
"AmgLay|Product Description: AutoCAD Mechanical 2000|Company: Autodesk"
 90
        1
280
     0
281
     0
  0
CLASS
  1
AMDTEDGESTANDARDISO
  2
AmdtEdgeStdISO
  3
"Amdt_StdImp|Product Description: AutoCAD Mechanical 2004 DX|Company: Autodesk"
 90
    32768
280
     0
281
     0
  0
CLASS
  1
ACMSURFSTANDARDISO
  2
AcmSurfTextStdISO
  3
"Amdt_StdImp|Product Description: AutoCAD Mechanical 2004 DX|Company: Autodesk"
 90
        0
280
     0
281
     0
  0
CLASS
  1
ACMFCFSTANDARDISO
  2
AcmFCFStdISO
  3
"Amdt_StdImp|Product Description: AutoCAD Mechanical 2004 DX|Company: Autodesk"
 90
        0
280
     0
281
     0
  0
CLASS
  1
ACMWELDSTANDARDISO
  2
AcmWeldingStdISO
  3
"Amdt_StdImp|Product Description: AutoCAD Mechanical 2004 DX|Company: Autodesk"
 90
        0
280
     0
281
     0
  0
CLASS
  1
ACMIDSTANDARDISO
  2
AcmIdStdISO
  3
"Amdt_StdImp|Product Description: AutoCAD Mechanical 2004 DX|Company: Autodesk"
 90
        0
280
     0
281
     0
  0
CLASS
  1
ACMDATUMSTANDARDISO
  2
AcmDatumStdISO
  3
"Amdt_StdImp|Product Description: AutoCAD Mechanical 2004 DX|Company: Autodesk"
 90
        0
280
     0
281
     0
  0
CLASS
  1
ACMBOMSTANDARDISO
  2
AcmBOMStdISO
  3
"Amdt_StdImp|Product Description: AutoCAD Mechanical 2004 DX|Company: Autodesk"
 90
        0
280
     0
281
     0
  0
CLASS
  1
ACMDETAILSTANDARDISO
  2
AmdtDetailSymStdISO
  3
"Amdt_StdImp|Product Description: AutoCAD Mechanical 2004 DX|Company: Autodesk"
 90
        0
280
     0
281
     0
  0
CLASS
  1
ACMSECTIONSTANDARDISO
  2
AmdtSectionSymStdISO
  3
"Amdt_StdImp|Product Description: AutoCAD Mechanical 2004 DX|Company: Autodesk"
 90
        0
280
     0
281
     0
  0
CLASS
  1
ACMCENTERLINESTANDARDISO
  2
AmdtCenterLineStdISO
  3
"Amdt_StdImp|Product Description: AutoCAD Mechanical 2004 DX|Company: Autodesk"
 90
        0
280
     0
281
     0
  0
CLASS
  1
ACMNOTESTANDARDISO
  2
AmdtNoteStdISO
  3
"Amdt_StdImp|Product Description: AutoCAD Mechanical 2004 DX|Company: Autodesk"
 90
        0
280
     0
281
     0
  0
CLASS
  1
ACAMGLAYSTD
  2
AcAmgLayStd
  3
"AcAmgLayStd|Product Description: AutoCAD Mechanical 2000|Company: Autodesk"
 90
        0
280
     0
281
     0
  0
CLASS
  1
ACAMGDIMSTD
  2
AcAmgDimStd
  3
"AcAmgDimStd|Product Description: AutoCAD Mechanical 2000|Company: Autodesk"
 90
        0
280
     0
281
     0
  0
CLASS
  1
ACAMGHOLECHARTSTDISO
  2
AcAmgHoleChartStdISO
  3
ACMSYMBB_MODULE_NAME
 90
        0
280
     0
281
     0
  0
CLASS
  1
ACAMGTITLESTD
  2
AcAmgTitleStd
  3
"TITLEAPP"
 90
        0
280
     0
281
     0
  0
CLASS
  1
LAYER_INDEX
  2
AcDbLayerIndex
  3
ObjectDBX Classes
 90
        0
280
     0
281
     0
  0
CLASS
  1
IDBUFFER
  2
AcDbIdBuffer
  3
ObjectDBX Classes
 90
        0
280
     0
281
     0
  0
CLASS
  1
DICTIONARYVAR
  2
AcDbDictionaryVar
  3
ObjectDBX Classes
 90
        0
280
     0
281
     0
  0
CLASS
  1
AM_DRAWING_MGR
  2
AcDmDwgMgr
  3
AcMechDwgViewMgmt
 90
        0
280
     0
281
     0
  0
CLASS
  1
AM_DWG_DOCUMENT
  2
AcDmDwgDocument
  3
AcMechDwgViewMgmt
 90
        0
280
     0
281
     0
  0
CLASS
  1
AM_DWG_SHEET
  2
AcDmSheet
  3
AcMechDwgViewMgmt
 90
        0
280
     0
281
     0
  0
CLASS
  1
AM_VIEWDIMPARMAP
  2
AcDmViewDimParMap
  3
AcMechDwgViewMgmt
 90
        0
280
     0
281
     0
  0
CLASS
  1
AM_DWGMGR_NAME
  2
AcDmDwgMgrName
  3
AcMechDwgViewMgmt
 90
        0
280
     0
281
     0
  0
CLASS
  1
AMDTMENUSTATEMGR
  2
AmdtMenuStateMgr
  3
McadcomServices
 90
        0
280
     0
281
     0
  0
CLASS
  1
AMDTMCOMMENUSTATE
  2
AmdtMcomMenuState
  3
McadcomServices
 90
        0
280
     0
281
     0
  0
CLASS
  1
MAPIAMMOUDLE
  2
MApiAmModule
  3
MApiAmServices
 90
        0
280
     0
281
     0
  0
CLASS
  1
AMDTADMENUSTATE
  2
AmdtAdMenuState
  3
DesignerServices
 90
        0
280
     0
281
     0
  0
CLASS
  1
ADAPPL
  2
AcAdAppl
  3
DesignerServices
 90
        0
280
     0
281
     0
  0
CLASS
  1
DEPMGR
  2
AcAdDepMgr
  3
DesignerServices
 90
        0
280
     0
281
     0
  0
CLASS
  1
PARAMMGR
  2
AcAdParamMgr
  3
DesignerServices
 90
        0
280
     0
281
     0
  0
CLASS
  1
PARAMSCOPE
  2
AcAdParamScope
  3
DesignerServices
 90
        0
280
     0
281
     0
  0
CLASS
  1
NAMEDAPPL
  2
AcAdNamedAppl
  3
DesignerServices
 90
        0
280
     0
281
     0
  0
CLASS
  1
AMDTDMMENUSTATE
  2
AmdtDmMenuState
  3
AcMechDwgViewMgmt
 90
        0
280
     0
281
     0
  0
CLASS
  1
AMDTAMMENUSTATE
  2
AmdtAmMenuState
  3
DesignerAssemblies
 90
        0
280
     0
281
     0
  0
CLASS
  1
ACAMPROJECT
  2
AcAmProject
  3
DesignerAssemblies
 90
        0
280
     0
281
     0
  0
CLASS
  1
ACAMGRCOMPDEF
  2
AcAmGrCompDef
  3
DesignerAssemblies
 90
        0
280
     0
281
     0
  0
CLASS
  1
ACCMCONTEXT
  2
AcCmContext
  3
DesignerAssemblies
 90
        0
280
     0
281
     0
  0
CLASS
  1
ACAMCOMPDEF
  2
AcAmCompDef
  3
DesignerAssemblies
 90
        0
280
     0
281
     0
  0
CLASS
  1
ACAMCOMPDEFMGR
  2
AcAmCompDefMgr
  3
DesignerAssemblies
 90
        0
280
     0
281
     0
  0
CLASS
  1
AMCONTEXTMGR
  2
AcAmContextMgr
  3
DesignerAssemblies
 90
        0
280
     0
281
     0
  0
CLASS
  1
ACAMCONTEXTMODELER
  2
AcAmContextModeler
  3
DesignerAssemblies
 90
        0
280
     0
281
     0
  0
CLASS
  1
ACMTHREADLINESTANDARDISO
  2
AmdtThreadLineStdISO
  3
"Amdt_StdImp|Product Description: AutoCAD Mechanical 2004 DX|Company: Autodesk"
 90
        0
280
     0
281
     0
  0
CLASS
  1
CATALOGSTATE
  2
AcAmCatalogState
  3
DesignerAssemblies
 90
        0
280
     0
281
     0
  0
CLASS
  1
ACAMGRCOMPDEFSET
  2
AcAmGrCompDefSet
  3
DesignerAssemblies
 90
        0
280
     0
281
     0
  0
CLASS
  1
AMDTBROWSERDBTAB
  2
AmdtBrowserDbTab
  3
McadcomServices
 90
        0
280
     0
281
     0
  0
CLASS
  1
CBROWSERAPPOBJECT
  2
CBrowserAppObject
  3
McadcomServices
 90
        0
280
     0
281
     0
  0
CLASS
  1
DM_PLACEHOLDER
  2
AcDmSelsetPlaceholder
  3
AcMechDwgViewMgmt
 90
        0
280
     0
281
     0
  0
CLASS
  1
TABLESTYLE
  2
AcDbTableStyle
  3
ObjectDBX Classes
 90
     2047
280
     0
281
     0
  0
CLASS
  1
VAACXREFPANELOBJECT
  2
VaAcXREFPanelObject
  3
VAAC_ADDIN
 90
    32768
280
     0
281
     0
  0
CLASS
  1
VAACIMAGEINVENTORY
  2
VaAcImageInventory
  3
VAAC_ADDIN
 90
    32768
280
     0
281
     0
  0
CLASS
  1
AMDTNOTETEMPLATEDB
  2
AmdtNoteTemplateDB
  3
AMDT_STDIMP_MODULE_NAME
 90
        0
280
     0
281
     0
  0
CLASS
  1
ACMBOM
  2
AcmBom
  3
"AcmSymBB|Product Description: AutoCAD Mechanical 2004 DX|Company: Autodesk"
 90
    32768
280
     0
281
     0
  0
CLASS
  1
AMDTFORMULAUPDATEDISPATCHER
  2
AmdtFormulaUpdateDispatcher
  3
AcMeServices
 90
    32768
280
     0
281
     0
  0
CLASS
  1
ACMPARTLIST
  2
AcmPartList
  3
"AcmSymBB|Product Description: AutoCAD Mechanical 2004 DX|Company: Autodesk"
 90
    33791
280
     0
281
     1
  0
CLASS
  1
ACAMGFILTERDAT
  2
AcAmgFilterDat
  3
"AcadM|Product Description: AutoCAD Mechanical 2000|Company: Autodesk"
 90
    32768
280
     0
281
     0
  0
CLASS
  1
DIMASSOC
  2
AcDbDimAssoc
  3
"AcDbDimAssoc|Product Desc:     AcDim ARX App For Dimension|Company:          Autodesk, Inc.|WEB Address:      www.autodesk.com"
 90
        0
280
     0
281
     0
  0
CLASS
  1
SORTENTSTABLE
  2
AcDbSortentsTable
  3
ObjectDBX Classes
 90
        0
280
     0
281
     0
  0
CLASS
  1
ACMSTANDARDANSI
  2
AcmStandardANSI
  3
"Amdt_StdImp|Product Description: AutoCAD Mechanical 2004 DX|Company: Autodesk"
 90
    32768
280
     0
281
     0
  0
CLASS
  1
ACMSURFSTANDARDANSI
  2
AcmSurfTextStdANSI
  3
"Amdt_StdImp|Product Description: AutoCAD Mechanical 2004 DX|Company: Autodesk"
 90
    32768
280
     0
281
     0
  0
CLASS
  1
ACMFCFSTANDARDANSI
  2
AcmFCFStdANSI
  3
"Amdt_StdImp|Product Description: AutoCAD Mechanical 2004 DX|Company: Autodesk"
 90
    32768
280
     0
281
     0
  0
CLASS
  1
ACMWELDSTANDARDANSI
  2
AcmWeldingStdANSI
  3
"Amdt_StdImp|Product Description: AutoCAD Mechanical 2004 DX|Company: Autodesk"
 90
    32768
280
     0
281
     0
  0
CLASS
  1
ACMIDSTANDARDANSI
  2
AcmIdStdANSI
  3
"Amdt_StdImp|Product Description: AutoCAD Mechanical 2004 DX|Company: Autodesk"
 90
    32768
280
     0
281
     0
  0
CLASS
  1
ACMDATUMSTANDARDANSI
  2
AcmDatumStdANSI
  3
"Amdt_StdImp|Product Description: AutoCAD Mechanical 2004 DX|Company: Autodesk"
 90
    32768
280
     0
281
     0
  0
CLASS
  1
ACMBOMSTANDARDANSI
  2
AcmBOMStdANSI
  3
"Amdt_StdImp|Product Description: AutoCAD Mechanical 2004 DX|Company: Autodesk"
 90
    32768
280
     0
281
     0
  0
CLASS
  1
ACMDETAILSTANDARDANSI
  2
AmdtDetailSymStdANSI
  3
"Amdt_StdImp|Product Description: AutoCAD Mechanical 2004 DX|Company: Autodesk"
 90
    32768
280
     0
281
     0
  0
CLASS
  1
ACMSECTIONSTANDARDANSI
  2
AmdtSectionSymStdANSI
  3
"Amdt_StdImp|Product Description: AutoCAD Mechanical 2004 DX|Company: Autodesk"
 90
    32768
280
     0
281
     0
  0
CLASS
  1
ACMCENTERLINESTANDARDANSI
  2
AmdtCenterLineStdANSI
  3
"Amdt_StdImp|Product Description: AutoCAD Mechanical 2004 DX|Company: Autodesk"
 90
    32768
280
     0
281
     0
  0
CLASS
  1
ACMTHREADLINESTANDARDANSI
  2
AmdtThreadLineStdANSI
  3
"Amdt_StdImp|Product Description: AutoCAD Mechanical 2004 DX|Company: Autodesk"
 90
    32768
280
     0
281
     0
  0
CLASS
  1
ACMNOTESTANDARDANSI
  2
AmdtNoteStdANSI
  3
"Amdt_StdImp|Product Description: AutoCAD Mechanical 2004 DX|Company: Autodesk"
 90
    32768
280
     0
281
     0
  0
CLASS
  1
ACAMGHOLECHARTSTDANSI
  2
AcAmgHoleChartStdANSI
  3
ACMSYMBB_MODULE_NAME
 90
    32768
280
     0
281
     0
  0
CLASS
  1
AMDTNOTE
  2
AmdtNote
  3
"AcmSymBB|Product Description: AutoCAD Mechanical 2004 DX|Company: Autodesk"
 90
    33791
280
     0
281
     1
  0
CLASS
  1
AMDTEDGESTANDARDISO13715
  2
AmdtEdgeStdISO13715
  3
"Amdt_StdImp|Product Description: AutoCAD Mechanical 2004 DX|Company: Autodesk"
 90
        0
280
     0
281
     0
  0
CLASS
  1
ASAPP
  2
AcAsAppObject
  3
AutoSurfServices
 90
        0
280
     0
281
     0
  0
CLASS
  1
IM_STATIC_MAN
  2
AcImStaticVarManager
  3
AcMeServices
 90
        0
280
     0
281
     0
  0
CLASS
  1
ACIMDBLSTATICVAR
  2
AcImDblStaticVar
  3
AcMeServices
 90
        0
280
     0
281
     0
  0
CLASS
  1
ACIMSTRSTATICVAR
  2
AcImStrStaticVar
  3
AcMeServices
 90
        0
280
     0
281
     0
  0
CLASS
  1
ACIMINTSTATICVAR
  2
AcImIntStaticVar
  3
AcMeServices
 90
        0
280
     0
281
     0
  0
CLASS
  1
ACASGREFMASTER
  2
AcAsGrefMaster
  3
AutoSurfResolverServices
 90
        0
280
     0
281
     0
  0
CLASS
  1
ACADGREFMODULE
  2
AcAdGrefModule
  3
AdGrefServices
 90
        0
280
     0
281
     0
  0
CLASS
  1
AMDTMAPISURFMOUDULE
  2
AmdtMApiSurfModule
  3
MApiSurfServices
 90
        0
280
     0
281
     0
  0
CLASS
  1
MAPIADMODULE
  2
MApiAdModule
  3
MApiAdServices
 90
        0
280
     0
281
     0
  0
ENDSEC
  0
SECTION
  2
TABLES
  0
TABLE
  2
VPORT
  5
8
330
0
100
AcDbSymbolTable
 70
     5
  0
VPORT
  5
6B24
330
8
100
AcDbSymbolTableRecord
100
AcDbViewportTableRecord
  2
*Active
 70
     0
 10
0.0
 20
0.0
 11
1.0
 21
1.0
 12
-39.123305390437
 22
-30.03002135565947
 13
0.0
 23
0.0
 14
2.5
 24
2.5
 15
10.0
 25
10.0
 16
0.0
 26
0.0
 36
1.0
 17
2186.729755313808
 27
217.5364434300212
 37
0.0
 40
446.8469467865453
 41
1.576441102756892
 42
50.0
 43
0.0
 44
0.0
 50
0.0
 51
0.0
 71
     0
 72
   100
 73
     1
 74
     3
 75
     0
 76
     0
 77
     0
 78
     0
281
     0
 65
     0
110
0.0
120
0.0
130
0.0
111
1.0
121
0.0
131
0.0
112
0.0
122
1.0
132
0.0
 79
     0
146
0.0
  0
ENDTAB
  0
TABLE
  2
LTYPE
  5
5
330
0
100
AcDbSymbolTable
 70
    18
  0
LTYPE
  5
14
330
5
100
AcDbSymbolTableRecord
100
AcDbLinetypeTableRecord
  2
ByBlock
 70
     0
  3

 72
    65
 73
     0
 40
0.0
  0
LTYPE
  5
15
330
5
100
AcDbSymbolTableRecord
100
AcDbLinetypeTableRecord
  2
ByLayer
 70
     0
  3

 72
    65
 73
     0
 40
0.0
  0
LTYPE
  5
16
330
5
100
AcDbSymbolTableRecord
100
AcDbLinetypeTableRecord
  2
Continuous
 70
     0
  3
Solid line
 72
    65
 73
     0
 40
0.0
  0
LTYPE
  5
64
330
5
100
AcDbSymbolTableRecord
100
AcDbLinetypeTableRecord
  2
AM_ISO02W050
 70
     0
  3
__ __ __ __ __ __ __ __ __ __ __ __ __ __ __
 72
    65
 73
     2
 40
7.5
 49
6.0
 74
     0
 49
-1.5
 74
     0
  0
LTYPE
  5
65
330
5
100
AcDbSymbolTableRecord
100
AcDbLinetypeTableRecord
  2
AM_ISO08W050
 70
     0
  3
____ . ____ . ____ . ____ . ____ . ____ . ____
 72
    65
 73
     4
 40
18.0
 49
12.0
 74
     0
 49
-1.5
 74
     0
 49
3.0
 74
     0
 49
-1.5
 74
     0
  0
LTYPE
  5
66
330
5
100
AcDbSymbolTableRecord
100
AcDbLinetypeTableRecord
  2
AM_ISO09W050
 70
     0
  3
_____ . . _____ . . _____ . . ____ .. ____
 72
    65
 73
     6
 40
22.5
 49
12.0
 74
     0
 49
-1.5
 74
     0
 49
3.0
 74
     0
 49
-1.5
 74
     0
 49
3.0
 74
     0
 49
-1.5
 74
     0
  0
LTYPE
  5
67
330
5
100
AcDbSymbolTableRecord
100
AcDbLinetypeTableRecord
  2
Amconstr
 70
     0
  3
_______________________
 72
    65
 73
     2
 40
9999.0
 49
9999.0
 74
     0
 49
0.0
 74
     0
  0
LTYPE
  5
68
330
5
100
AcDbSymbolTableRecord
100
AcDbLinetypeTableRecord
  2
AM_ISO08W050x2
 70
     0
  3
__ . __ . __ . __ . __ . __
 72
    65
 73
     4
 40
9.0
 49
6.0
 74
     0
 49
-0.75
 74
     0
 49
1.5
 74
     0
 49
-0.75
 74
     0
  0
LTYPE
  5
69
330
5
100
AcDbSymbolTableRecord
100
AcDbLinetypeTableRecord
  2
AM_ISO02W050x2
 70
     0
  3
 _ _ _ _ _ _ _ _ _ _ _ _
 72
    65
 73
     2
 40
3.75
 49
3.0
 74
     0
 49
-0.75
 74
     0
  0
LTYPE
  5
6C
330
5
100
AcDbSymbolTableRecord
100
AcDbLinetypeTableRecord
  2
Amzigzag
 70
     0
  3
/\/-/\/-/\/-/\/-/\/-/\/
 72
    65
 73
     2
 40
11.0001
 49
0.0001
 74
     4
 75
   135
340
6B
 46
0.04
 50
0.0
 44
0.0
 45
0.0
 49
-11.0
 74
     0
  0
LTYPE
  5
7A
330
5
100
AcDbSymbolTableRecord
100
AcDbLinetypeTableRecord
  2
ACISOWELD
 70
     0
  3
_ _ _ _ _
 72
    65
 73
     2
 40
2.0
 49
2.0
 74
     0
 49
-1.0
 74
     0
  0
LTYPE
  5
7B
330
5
100
AcDbSymbolTableRecord
100
AcDbLinetypeTableRecord
  2
ACISOTGB
 70
     0
  3
__ . . __ . .
 72
    65
 73
     6
 40
9.0
 49
4.0
 74
     0
 49
-1.0
 74
     0
 49
1.0
 74
     0
 49
-1.0
 74
     0
 49
1.0
 74
     0
 49
-1.0
 74
     0
  0
LTYPE
  5
7C
330
5
100
AcDbSymbolTableRecord
100
AcDbLinetypeTableRecord
  2
ACISOTGL
 70
     0
  3
_ _ _ _ _
 72
    65
 73
     2
 40
3.0
 49
2.0
 74
     0
 49
-1.0
 74
     0
  0
LTYPE
  5
7E
330
5
100
AcDbSymbolTableRecord
100
AcDbLinetypeTableRecord
  2
CENTER
 70
     0
  3
__ . __
 72
    65
 73
     4
 40
7.0
 49
4.0
 74
     0
 49
-1.0
 74
     0
 49
1.0
 74
     0
 49
-1.0
 74
     0
  0
LTYPE
  5
D8
330
5
100
AcDbSymbolTableRecord
100
AcDbLinetypeTableRecord
  2
HIDDEN
 70
     0
  3
Hidden __ __ __ __ __ __ __ __ __ __ __ __ __ _
 72
    65
 73
     2
 40
9.524999999999998
 49
6.349999999999999
 74
     0
 49
-3.174999999999999
 74
     0
  0
LTYPE
  5
D9
330
5
100
AcDbSymbolTableRecord
100
AcDbLinetypeTableRecord
  2
PHANTOM2
 70
     0
  3
Phantom (.5x) ___ _ _ ___ _ _ ___ _ _ ___ _ _
 72
    65
 73
     6
 40
31.75
 49
15.875
 74
     0
 49
-3.174999999999999
 74
     0
 49
3.174999999999999
 74
     0
 49
-3.174999999999999
 74
     0
 49
3.174999999999999
 74
     0
 49
-3.174999999999999
 74
     0
  0
LTYPE
  5
18AC
330
5
100
AcDbSymbolTableRecord
100
AcDbLinetypeTableRecord
  2
ACANSTGBM
 70
     0
  3
__ . . __ . .
 72
    65
 73
     6
 40
9.0
 49
4.0
 74
     0
 49
-1.0
 74
     0
 49
1.0
 74
     0
 49
-1.0
 74
     0
 49
1.0
 74
     0
 49
-1.0
 74
     0
  0
LTYPE
  5
18AD
330
5
100
AcDbSymbolTableRecord
100
AcDbLinetypeTableRecord
  2
ACANSTGLM
 70
     0
  3
_ _ _ _ _
 72
    65
 73
     2
 40
3.0
 49
2.0
 74
     0
 49
-1.0
 74
     0
  0
LTYPE
  5
6ABF
330
5
100
AcDbSymbolTableRecord
100
AcDbLinetypeTableRecord
  2
ASULTYPE
 70
     0
  3
實線
 72
    65
 73
     2
 40
3.0
 49
2.5
 74
     0
 49
0.5
 74
     0
  0
LTYPE
  5
6AC0
330
5
100
AcDbSymbolTableRecord
100
AcDbLinetypeTableRecord
  2
ASVLTYPE
 70
     0
  3
__ __ __ __ __ __ __ __ __ __ __ __ __ __ __ __ __ __ __ __ __
 72
    65
 73
     2
 40
0.75
 49
0.5
 74
     0
 49
-0.25
 74
     0
  0
ENDTAB
  0
TABLE
  2
LAYER
  5
2
102
{ACAD_XDICTIONARY
360
3F9
102
}
330
0
100
AcDbSymbolTable
 70
     8
  0
LAYER
  5
10
330
2
100
AcDbSymbolTableRecord
100
AcDbLayerTableRecord
  2
0
 70
     0
 62
     7
  6
Continuous
370
    -3
390
F
  0
LAYER
  5
C29
330
2
100
AcDbSymbolTableRecord
100
AcDbLayerTableRecord
  2
Defpoints
 70
     0
 62
     7
  6
Continuous
290
     0
370
    -3
390
F
  0
LAYER
  5
C2A
330
2
100
AcDbSymbolTableRecord
100
AcDbLayerTableRecord
  2
AM_VIS
 70
     0
 62
     7
  6
Continuous
370
    50
390
F
  0
LAYER
  5
C2C
330
2
100
AcDbSymbolTableRecord
100
AcDbLayerTableRecord
  2
AM_4
 70
     0
 62
     3
  6
Continuous
370
    25
390
F
  0
LAYER
  5
137E
330
2
100
AcDbSymbolTableRecord
100
AcDbLayerTableRecord
  2
AM_7
 70
     0
 62
     1
  6
CENTER
370
    25
390
F
  0
LAYER
  5
277A
330
2
100
AcDbSymbolTableRecord
100
AcDbLayerTableRecord
  2
AM_5
 70
     0
 62
     5
  6
Continuous
370
    50
390
F
  0
LAYER
  5
44C4
330
2
100
AcDbSymbolTableRecord
100
AcDbLayerTableRecord
  2
DIM2
 70
     0
 62
     5
  6
Continuous
370
    -3
390
F
  0
LAYER
  5
45AD
330
2
100
AcDbSymbolTableRecord
100
AcDbLayerTableRecord
  2
LOGO
 70
     0
 62
     7
  6
Continuous
370
    -3
390
F
  0
ENDTAB
  0
TABLE
  2
STYLE
  5
3
330
0
100
AcDbSymbolTable
 70
     8
  0
STYLE
  5
11
330
3
100
AcDbSymbolTableRecord
100
AcDbTextStyleTableRecord
  2
STANDARD
 70
     0
 40
0.0
 41
1.0
 50
0.0
 71
     0
 42
3.0
  3
ISOCP.SHX
  4
CHINESET.SHX
  0
STYLE
  5
6B
330
3
100
AcDbSymbolTableRecord
100
AcDbTextStyleTableRecord
  2

 70
     1
 40
0.0
 41
1.0
 50
0.0
 71
     0
 42
2.5
  3
ltypeshp.shx
  4

  0
STYLE
  5
6D
330
3
100
AcDbSymbolTableRecord
100
AcDbTextStyleTableRecord
  2
ACISOTS
 70
     0
 40
1.0
 41
1.0
 50
0.0
 71
     0
 42
1.0
  3
isocp.shx
  4
chineset.shx
  0
STYLE
  5
79
330
3
100
AcDbSymbolTableRecord
100
AcDbTextStyleTableRecord
  2
ACISOGDT
 70
     0
 40
0.0
 41
1.0
 50
0.0
 71
     0
 42
2.5
  3
amgdt.shx
  4
chineset.shx
  0
STYLE
  5
C2F
330
3
100
AcDbSymbolTableRecord
100
AcDbTextStyleTableRecord
  2
dayus
 70
     0
 40
3.0
 41
1.0
 50
0.0
 71
     0
 42
3.0
  3
simplex.shx
  4
dayus.shx
  0
STYLE
  5
18AF
330
3
100
AcDbSymbolTableRecord
100
AcDbTextStyleTableRecord
  2
ACANSTS
 70
     0
 40
1.0
 41
1.0
 50
0.0
 71
     0
 42
4.0
  3
romans.shx
  4
chineset.shx
  0
STYLE
  5
18B0
330
3
100
AcDbSymbolTableRecord
100
AcDbTextStyleTableRecord
  2
ACANSGDT
 70
     0
 40
0.0
 41
1.0
 50
0.0
 71
     0
 42
4.0
  3
amgdtans.shx
  4

  0
STYLE
  5
447A
330
3
100
AcDbSymbolTableRecord
100
AcDbTextStyleTableRecord
  2
CHINESET
 70
     0
 40
3.0
 41
1.0
 50
0.0
 71
     0
 42
4.5
  3
simplex.shx
  4
CHINESET.shx
  0
ENDTAB
  0
TABLE
  2
VIEW
  5
6
330
0
100
AcDbSymbolTable
 70
     0
  0
ENDTAB
  0
TABLE
  2
UCS
  5
7
330
0
100
AcDbSymbolTable
 70
     0
  0
ENDTAB
  0
TABLE
  2
APPID
  5
9
330
0
100
AcDbSymbolTable
 70
    28
  0
APPID
  5
12
330
9
100
AcDbSymbolTableRecord
100
AcDbRegAppTableRecord
  2
ACAD
 70
     0
  0
APPID
  5
46
330
9
100
AcDbSymbolTableRecord
100
AcDbRegAppTableRecord
  2
MCAD_NO_VIS
 70
     0
  0
APPID
  5
47
330
9
100
AcDbSymbolTableRecord
100
AcDbRegAppTableRecord
  2
ACAD_TEMP_GRAPHIC
 70
     0
  0
APPID
  5
58
330
9
100
AcDbSymbolTableRecord
100
AcDbRegAppTableRecord
  2
ACATTRIBSERVICES
 70
     0
  0
APPID
  5
EE
330
9
100
AcDbSymbolTableRecord
100
AcDbRegAppTableRecord
  2
AD_DRAW
 70
     0
  0
APPID
  5
10C
330
9
100
AcDbSymbolTableRecord
100
AcDbRegAppTableRecord
  2
DESIGNERASSEMBLIES
 70
     0
  0
APPID
  5
111
330
9
100
AcDbSymbolTableRecord
100
AcDbRegAppTableRecord
  2
ACADM_DIM_EDIT
 70
     0
  0
APPID
  5
112
330
9
100
AcDbSymbolTableRecord
100
AcDbRegAppTableRecord
  2
AMDT_DM_ADJ
 70
     0
  0
APPID
  5
22C
330
9
100
AcDbSymbolTableRecord
100
AcDbRegAppTableRecord
  2
ACAD_DSTYLE_DIMTEXT_FILL
 70
     0
  0
APPID
  5
452
330
9
100
AcDbSymbolTableRecord
100
AcDbRegAppTableRecord
  2
GENIUS_GENOENT_13
 70
     0
  0
APPID
  5
453
330
9
100
AcDbSymbolTableRecord
100
AcDbRegAppTableRecord
  2
GENIUS_GENOBJ-N-CRS_13
 70
     0
  0
APPID
  5
454
330
9
100
AcDbSymbolTableRecord
100
AcDbRegAppTableRecord
  2
GENIUS_GENOLIS_13
 70
     0
  0
APPID
  5
455
330
9
100
AcDbSymbolTableRecord
100
AcDbRegAppTableRecord
  2
GENIUS_GENODEF_13
 70
     0
  0
APPID
  5
456
330
9
100
AcDbSymbolTableRecord
100
AcDbRegAppTableRecord
  2
GENIUS_GENOREF_13
 70
     0
  0
APPID
  5
6F3
330
9
100
AcDbSymbolTableRecord
100
AcDbRegAppTableRecord
  2
ACAD_PSEXT
 70
     0
  0
APPID
  5
808
330
9
100
AcDbSymbolTableRecord
100
AcDbRegAppTableRecord
  2
GENIUS_GENDTOL_13
 70
     0
  0
APPID
  5
159E
330
9
100
AcDbSymbolTableRecord
100
AcDbRegAppTableRecord
  2
GENIUS_GENOBJ-N-CEN_13
 70
     0
  0
APPID
  5
159F
330
9
100
AcDbSymbolTableRecord
100
AcDbRegAppTableRecord
  2
GENIUS_GENCEN_19
 70
     0
  0
APPID
  5
277E
330
9
100
AcDbSymbolTableRecord
100
AcDbRegAppTableRecord
  2
GENIUS_GENOBJ-N-HTC_13
 70
     0
  0
APPID
  5
277F
330
9
100
AcDbSymbolTableRecord
100
AcDbRegAppTableRecord
  2
GENIUS_GENHATCH_13
 70
     0
  0
APPID
  5
4258
330
9
100
AcDbSymbolTableRecord
100
AcDbRegAppTableRecord
  2
GENIUS_GENDIMSH_14
 70
     0
  0
APPID
  5
4368
330
9
100
AcDbSymbolTableRecord
100
AcDbRegAppTableRecord
  2
AcAecLayerStandard
 70
     0
  0
APPID
  5
45AE
330
9
100
AcDbSymbolTableRecord
100
AcDbRegAppTableRecord
  2
GENIUS_GENREC_14
 70
     0
  0
APPID
  5
45AF
330
9
100
AcDbSymbolTableRecord
100
AcDbRegAppTableRecord
  2
GENIUS_GENOBJ-N-REC_13
 70
     0
  0
APPID
  5
6A40
330
9
100
AcDbSymbolTableRecord
100
AcDbRegAppTableRecord
  2
GENIUS_GENDIM_13
 70
     0
  0
APPID
  5
6A41
330
9
100
AcDbSymbolTableRecord
100
AcDbRegAppTableRecord
  2
GENIUS_GE3DTOL_13
 70
     0
  0
APPID
  5
6AC1
330
9
100
AcDbSymbolTableRecord
100
AcDbRegAppTableRecord
  2
ASURF_PCURVE_APPNAME
 70
     0
  0
APPID
  5
6AC6
330
9
100
AcDbSymbolTableRecord
100
AcDbRegAppTableRecord
  2
AMG_3D2D_5.0
 70
     0
  0
ENDTAB
  0
TABLE
  2
DIMSTYLE
  5
A
330
0
100
AcDbSymbolTable
 70
    14
100
AcDbDimStyleTable
 71
     3
340
81
340
8B
340
86
  0
DIMSTYLE
105
81
330
A
100
AcDbSymbolTableRecord
100
AcDbDimStyleTableRecord
  2
AM_ISO
 70
     0
  4
"
 41
3.0
 42
1.0
 43
8.0
 44
1.5
 47
0.1
 48
0.1
 73
     0
 74
     0
 77
     1
 78
     8
 79
     2
140
3.5
141
0.0
143
0.0393701
146
0.6
147
0.7
172
     1
176
   256
177
   256
178
   256
271
     2
272
     2
283
     0
284
     8
340
11
371
    -1
372
    -1
  0
DIMSTYLE
105
82
330
A
100
AcDbSymbolTableRecord
100
AcDbDimStyleTableRecord
  2
AM_ISO$3
 70
     0
  4
"
 41
3.0
 42
1.0
 43
8.0
 44
1.5
 47
0.1
 48
0.1
 73
     0
 77
     1
 78
     8
 79
     2
140
3.5
141
0.0
143
0.0393701
146
0.6
147
0.7
176
   256
177
   256
178
   256
271
     2
272
     2
283
     0
284
     8
288
     1
289
     0
340
11
371
    -1
372
    -1
  0
DIMSTYLE
105
83
330
A
100
AcDbSymbolTableRecord
100
AcDbDimStyleTableRecord
  2
AM_ISO$4
 70
     0
  4
"
 41
3.0
 42
1.0
 43
8.0
 44
1.5
 47
0.1
 48
0.1
 73
     0
 77
     1
 78
     8
 79
     2
140
3.5
141
0.0
143
0.0393701
146
0.6
147
0.7
176
   256
177
   256
178
   256
271
     2
272
     2
283
     0
284
     8
288
     1
289
     0
340
11
371
    -1
372
    -1
  0
DIMSTYLE
105
84
330
A
100
AcDbSymbolTableRecord
100
AcDbDimStyleTableRecord
  2
AM_ISO$6
 70
     0
  4
"
 41
3.0
 42
1.0
 43
8.0
 44
1.5
 47
0.1
 48
0.1
 73
     0
 74
     0
 78
     8
 79
     2
140
3.5
141
0.0
143
0.0393701
146
0.6
147
0.7
172
     1
176
   256
177
   256
178
   256
271
     2
272
     2
283
     0
284
     8
340
11
371
    -1
372
    -1
  0
DIMSTYLE
105
85
330
A
100
AcDbSymbolTableRecord
100
AcDbDimStyleTableRecord
  2
AM_ISO$7
 70
     0
  4
"
 41
3.0
 42
1.0
 43
8.0
 44
1.5
 47
0.1
 48
0.1
 73
     0
 74
     0
 77
     1
 78
     8
 79
     2
140
5.0
141
0.0
143
0.0393701
146
0.6
147
0.7
172
     1
176
   256
177
   256
178
   256
271
     2
272
     2
283
     0
284
     8
340
11
371
    -1
372
    -1
  0
DIMSTYLE
105
86
330
A
100
AcDbSymbolTableRecord
100
AcDbDimStyleTableRecord
  2
AM_ISO$SF
 70
     0
  4
"
 41
2.5
 42
1.0
 43
10.0
 44
1.0
 47
0.1
 48
0.1
 73
     0
 74
     0
 75
     1
 76
     1
 77
     1
 78
     8
 79
     2
140
3.5
141
0.0
143
0.0393701
146
0.71
147
1.5
172
     1
176
   256
177
   256
178
     2
271
     2
272
     3
274
     4
283
     0
284
     8
340
11
371
    -1
372
    -1
  0
DIMSTYLE
105
8B
330
A
100
AcDbSymbolTableRecord
100
AcDbDimStyleTableRecord
  2
AM_ISO$SH
 70
     0
  4
"
 41
2.5
 42
1.0
 43
10.0
 44
1.0
 47
0.1
 48
0.1
 73
     0
 74
     0
 75
     1
 76
     1
 77
     1
 78
     8
 79
     2
140
3.5
141
0.0
143
0.0393701
144
2.0
146
0.71
147
1.5
172
     1
173
     1
176
   256
177
   256
178
     2
271
     2
272
     3
274
     4
283
     0
284
     8
340
11
343
87
371
    -1
372
    -1
  0
DIMSTYLE
105
40B
102
{ACAD_REACTORS
330
64BA
330
64BD
330
64BE
330
64C1
330
64C4
330
64C5
330
64C8
330
64CB
330
64CC
330
64CF
330
64D2
330
64D3
330
64D4
330
64D7
330
64D8
330
64DB
330
64DE
330
64E1
330
64E2
330
64E5
330
64E8
330
64EB
330
64EE
330
64F1
330
64F2
330
64F3
330
64F4
330
64F7
330
64FA
330
64FB
330
64FE
330
64FF
330
6500
102
}
330
A
100
AcDbSymbolTableRecord
100
AcDbDimStyleTableRecord
  2
AM_ISO$0
 70
     0
  4
"
 41
3.0
 42
1.0
 43
8.0
 44
1.5
 47
0.1
 48
0.1
 73
     0
 74
     0
 77
     1
 78
     8
 79
     2
140
3.5
141
0.0
143
0.0393701
146
0.6
147
0.7
172
     1
176
   256
177
   256
178
   256
271
     2
272
     2
283
     0
284
     8
340
11
371
    -1
372
    -1
  0
DIMSTYLE
105
C31
330
A
100
AcDbSymbolTableRecord
100
AcDbDimStyleTableRecord
  2
AM_ANSI
 70
     0
  4
"
 40
0.6666666666666666
 41
3.799999999999999
 42
3.0
 43
8.0
 44
3.0
 47
0.1
 48
0.1
 73
     0
 74
     0
 77
     3
 78
     8
 79
     2
140
3.0
141
3.0
143
0.0393701
146
0.6
147
1.3
172
     1
176
   256
177
   256
178
   256
271
     2
272
     2
284
     8
340
C2F
371
    -1
372
    -1
  0
DIMSTYLE
105
C32
330
A
100
AcDbSymbolTableRecord
100
AcDbDimStyleTableRecord
  2
AM_ANSI$7
 70
     0
  4
"
 40
0.6666666666666666
 41
2.5
 42
1.0
 43
10.0
 44
1.0
 47
0.1
 48
0.1
 78
     8
 79
     2
140
5.0
141
0.0
143
0.0393701
146
0.71
147
1.5
176
   256
177
   256
178
     2
271
     2
272
     3
274
     4
284
     8
340
11
371
    -1
372
    -1
  0
DIMSTYLE
105
18B1
330
A
100
AcDbSymbolTableRecord
100
AcDbDimStyleTableRecord
  2
AM_ANSI$3
 70
     0
  4
"
 40
0.6666666666666666
 41
2.5
 42
1.0
 43
10.0
 44
1.0
 47
0.1
 48
0.1
 78
     8
 79
     2
140
3.5
141
0.0
143
0.0393701
146
0.71
147
1.5
176
   256
177
   256
178
     2
271
     2
272
     3
274
     4
284
     8
288
     1
289
     0
340
11
371
    -1
372
    -1
  0
DIMSTYLE
105
18B2
330
A
100
AcDbSymbolTableRecord
100
AcDbDimStyleTableRecord
  2
AM_ANSI$4
 70
     0
  4
"
 40
0.6666666666666666
 41
2.5
 42
1.0
 43
10.0
 44
1.0
 47
0.1
 48
0.1
 78
     8
 79
     2
140
3.5
141
0.0
143
0.0393701
146
0.71
147
1.5
176
   256
177
   256
178
     2
271
     2
272
     3
274
     4
284
     8
288
     1
289
     0
340
11
371
    -1
372
    -1
  0
DIMSTYLE
105
18B3
330
A
100
AcDbSymbolTableRecord
100
AcDbDimStyleTableRecord
  2
AM_ANSI$SF
 70
     0
  4
"
 40
0.6666666666666666
 41
2.5
 42
1.0
 43
10.0
 44
1.0
 47
0.1
 48
0.1
 75
     1
 76
     1
 78
     8
 79
     2
140
3.5
141
0.0
143
0.0393701
146
0.71
147
1.5
176
   256
177
   256
178
     2
271
     2
272
     3
274
     4
284
     8
340
11
371
    -1
372
    -1
  0
DIMSTYLE
105
18B4
330
A
100
AcDbSymbolTableRecord
100
AcDbDimStyleTableRecord
  2
AM_ANSI$SH
 70
     0
  4
"
 40
0.6666666666666666
 41
2.5
 42
1.0
 43
10.0
 44
1.0
 47
0.1
 48
0.1
 75
     1
 76
     1
 78
     8
 79
     2
140
3.5
141
0.0
143
0.0393701
146
0.71
147
1.5
173
     1
176
   256
177
   256
178
     2
271
     2
272
     3
274
     4
284
     8
340
11
343
87
371
    -1
372
    -1
  0
ENDTAB
  0
TABLE
  2
BLOCK_RECORD
  5
1
330
0
100
AcDbSymbolTable
 70
    46
  0
BLOCK_RECORD
  5
1F
102
{ACAD_XDICTIONARY
360
8F
102
}
330
1
100
AcDbSymbolTableRecord
100
AcDbBlockTableRecord
  2
*Model_Space
340
22
  0
BLOCK_RECORD
  5
1B
330
1
100
AcDbSymbolTableRecord
100
AcDbBlockTableRecord
  2
*Paper_Space
340
1E
  0
BLOCK_RECORD
  5
23
330
1
100
AcDbSymbolTableRecord
100
AcDbBlockTableRecord
  2
*Paper_Space0
340
26
  0
BLOCK_RECORD
  5
87
330
1
100
AcDbSymbolTableRecord
100
AcDbBlockTableRecord
  2
GENAXEH
340
0
  0
BLOCK_RECORD
  5
4259
330
1
100
AcDbSymbolTableRecord
100
AcDbBlockTableRecord
  2
GENDOT
340
0
102
{BLKREFS
331
6902
331
690E
102
}
  0
BLOCK_RECORD
  5
4486
102
{ACAD_XDICTIONARY
360
4487
102
}
330
1
100
AcDbSymbolTableRecord
100
AcDbBlockTableRecord
  2
A$C5ECF147B
340
0
102
{BLKREFS
331
6926
102
}
  0
BLOCK_RECORD
  5
65F7
330
1
100
AcDbSymbolTableRecord
100
AcDbBlockTableRecord
  2
*D4
340
0
  0
BLOCK_RECORD
  5
6603
330
1
100
AcDbSymbolTableRecord
100
AcDbBlockTableRecord
  2
*D5
340
0
  0
BLOCK_RECORD
  5
660F
330
1
100
AcDbSymbolTableRecord
100
AcDbBlockTableRecord
  2
*D6
340
0
  0
BLOCK_RECORD
  5
661B
330
1
100
AcDbSymbolTableRecord
100
AcDbBlockTableRecord
  2
*D7
340
0
  0
BLOCK_RECORD
  5
6627
330
1
100
AcDbSymbolTableRecord
100
AcDbBlockTableRecord
  2
*D8
340
0
  0
BLOCK_RECORD
  5
6633
330
1
100
AcDbSymbolTableRecord
100
AcDbBlockTableRecord
  2
*D9
340
0
  0
BLOCK_RECORD
  5
663F
330
1
100
AcDbSymbolTableRecord
100
AcDbBlockTableRecord
  2
*D10
340
0
  0
BLOCK_RECORD
  5
664B
330
1
100
AcDbSymbolTableRecord
100
AcDbBlockTableRecord
  2
*D11
340
0
  0
BLOCK_RECORD
  5
6657
330
1
100
AcDbSymbolTableRecord
100
AcDbBlockTableRecord
  2
*D12
340
0
  0
BLOCK_RECORD
  5
6663
330
1
100
AcDbSymbolTableRecord
100
AcDbBlockTableRecord
  2
*D13
340
0
  0
BLOCK_RECORD
  5
666F
330
1
100
AcDbSymbolTableRecord
100
AcDbBlockTableRecord
  2
*D14
340
0
  0
BLOCK_RECORD
  5
667B
330
1
100
AcDbSymbolTableRecord
100
AcDbBlockTableRecord
  2
*D15
340
0
  0
BLOCK_RECORD
  5
6687
330
1
100
AcDbSymbolTableRecord
100
AcDbBlockTableRecord
  2
*D16
340
0
  0
BLOCK_RECORD
  5
6693
330
1
100
AcDbSymbolTableRecord
100
AcDbBlockTableRecord
  2
*D17
340
0
  0
BLOCK_RECORD
  5
66A8
330
1
100
AcDbSymbolTableRecord
100
AcDbBlockTableRecord
  2
*D18
340
0
  0
BLOCK_RECORD
  5
66B4
330
1
100
AcDbSymbolTableRecord
100
AcDbBlockTableRecord
  2
*D19
340
0
  0
BLOCK_RECORD
  5
66C9
330
1
100
AcDbSymbolTableRecord
100
AcDbBlockTableRecord
  2
*D20
340
0
  0
BLOCK_RECORD
  5
66D5
330
1
100
AcDbSymbolTableRecord
100
AcDbBlockTableRecord
  2
*D21
340
0
  0
BLOCK_RECORD
  5
66EA
330
1
100
AcDbSymbolTableRecord
100
AcDbBlockTableRecord
  2
*D22
340
0
  0
BLOCK_RECORD
  5
66F6
330
1
100
AcDbSymbolTableRecord
100
AcDbBlockTableRecord
  2
*D23
340
0
  0
BLOCK_RECORD
  5
6714
330
1
100
AcDbSymbolTableRecord
100
AcDbBlockTableRecord
  2
*D24
340
0
  0
BLOCK_RECORD
  5
672B
330
1
100
AcDbSymbolTableRecord
100
AcDbBlockTableRecord
  2
*D25
340
0
  0
BLOCK_RECORD
  5
6739
330
1
100
AcDbSymbolTableRecord
100
AcDbBlockTableRecord
  2
*D26
340
0
  0
BLOCK_RECORD
  5
6745
330
1
100
AcDbSymbolTableRecord
100
AcDbBlockTableRecord
  2
*D27
340
0
  0
BLOCK_RECORD
  5
675A
330
1
100
AcDbSymbolTableRecord
100
AcDbBlockTableRecord
  2
*D28
340
0
  0
BLOCK_RECORD
  5
6766
330
1
100
AcDbSymbolTableRecord
100
AcDbBlockTableRecord
  2
*D29
340
0
  0
BLOCK_RECORD
  5
6772
330
1
100
AcDbSymbolTableRecord
100
AcDbBlockTableRecord
  2
*D30
340
0
  0
BLOCK_RECORD
  5
677E
330
1
100
AcDbSymbolTableRecord
100
AcDbBlockTableRecord
  2
*D31
340
0
  0
BLOCK_RECORD
  5
678A
330
1
100
AcDbSymbolTableRecord
100
AcDbBlockTableRecord
  2
*D32
340
0
  0
BLOCK_RECORD
  5
67B1
330
1
100
AcDbSymbolTableRecord
100
AcDbBlockTableRecord
  2
*D33
340
0
  0
BLOCK_RECORD
  5
67BF
330
1
100
AcDbSymbolTableRecord
100
AcDbBlockTableRecord
  2
*D34
340
0
  0
BLOCK_RECORD
  5
67D5
330
1
100
AcDbSymbolTableRecord
100
AcDbBlockTableRecord
  2
*D35
340
0
  0
BLOCK_RECORD
  5
67F5
330
1
100
AcDbSymbolTableRecord
100
AcDbBlockTableRecord
  2
*D36
340
0
  0
BLOCK_RECORD
  5
691A
102
{ACAD_XDICTIONARY
360
691F
102
}
330
1
100
AcDbSymbolTableRecord
100
AcDbBlockTableRecord
  2
A$C3CDC37D5
340
0
102
{BLKREFS
331
6923
102
}
  0
BLOCK_RECORD
  5
695D
330
1
100
AcDbSymbolTableRecord
100
AcDbBlockTableRecord
  2
*S38
340
0
102
{BLKREFS
331
65C9
102
}
  0
BLOCK_RECORD
  5
6965
330
1
100
AcDbSymbolTableRecord
100
AcDbBlockTableRecord
  2
*S39
340
0
102
{BLKREFS
331
65CA
102
}
  0
BLOCK_RECORD
  5
696D
330
1
100
AcDbSymbolTableRecord
100
AcDbBlockTableRecord
  2
*S40
340
0
102
{BLKREFS
331
65CB
102
}
  0
BLOCK_RECORD
  5
6975
330
1
100
AcDbSymbolTableRecord
100
AcDbBlockTableRecord
  2
*S41
340
0
102
{BLKREFS
331
65CC
102
}
  0
BLOCK_RECORD
  5
697D
330
1
100
AcDbSymbolTableRecord
100
AcDbBlockTableRecord
  2
*S42
340
0
102
{BLKREFS
331
65CD
102
}
  0
BLOCK_RECORD
  5
6985
330
1
100
AcDbSymbolTableRecord
100
AcDbBlockTableRecord
  2
*S43
340
0
102
{BLKREFS
331
65CE
102
}
  0
BLOCK_RECORD
  5
698D
330
1
100
AcDbSymbolTableRecord
100
AcDbBlockTableRecord
  2
*S44
340
0
102
{BLKREFS
331
65CF
102
}
  0
ENDTAB
  0
ENDSEC
  0
SECTION
  2
BLOCKS
  0
BLOCK
  5
20
330
1F
100
AcDbEntity
  8
0
100
AcDbBlockBegin
  2
*Model_Space
 70
     0
 10
0.0
 20
0.0
 30
0.0
  3
*Model_Space
  1

  0
ENDBLK
  5
21
330
1F
100
AcDbEntity
  8
0
100
AcDbBlockEnd
  0
BLOCK
  5
1C
330
1B
100
AcDbEntity
 67
     1
  8
0
100
AcDbBlockBegin
  2
*Paper_Space
 70
     0
 10
0.0
 20
0.0
 30
0.0
  3
*Paper_Space
  1

  0
ENDBLK
  5
1D
330
1B
100
AcDbEntity
 67
     1
  8
0
100
AcDbBlockEnd
  0
BLOCK
  5
24
330
23
100
AcDbEntity
  8
0
100
AcDbBlockBegin
  2
*Paper_Space0
 70
     0
 10
0.0
 20
0.0
 30
0.0
  3
*Paper_Space0
  1

  0
ENDBLK
  5
25
330
23
100
AcDbEntity
  8
0
100
AcDbBlockEnd
  0
BLOCK
  5
89
330
87
100
AcDbEntity
  8
0
100
AcDbBlockBegin
  2
GENAXEH
 70
     0
 10
0.0
 20
0.0
 30
0.0
  3
GENAXEH
  1

  0
LINE
  5
88
330
87
100
AcDbEntity
  8
0
100
AcDbLine
 10
-1.0
 20
0.0
 30
0.0
 11
1.0
 21
0.0
 31
0.0
  0
ENDBLK
  5
8A
330
87
100
AcDbEntity
  8
0
100
AcDbBlockEnd
  0
BLOCK
  5
425C
330
4259
100
AcDbEntity
  8
0
100
AcDbBlockBegin
  2
GENDOT
 70
     0
 10
0.0
 20
0.0
 30
0.0
  3
GENDOT
  1

  0
LINE
  5
425A
330
4259
100
AcDbEntity
  8
0
100
AcDbLine
 10
0.0
 20
0.0
 30
0.0
 11
-1.0
 21
0.0
 31
0.0
  0
LWPOLYLINE
  5
425B
330
4259
100
AcDbEntity
  8
0
100
AcDbPolyline
 90
        2
 70
     1
 43
0.25
 10
-0.125
 20
0.0
 42
1.0
 10
0.125
 20
0.0
 42
1.0
  0
ENDBLK
  5
425D
330
4259
100
AcDbEntity
  8
0
100
AcDbBlockEnd
  0
BLOCK
  5
4488
330
4486
100
AcDbEntity
  8
0
100
AcDbBlockBegin
  2
A$C5ECF147B
 70
     0
 10
0.0
 20
0.0
 30
0.0
  3
A$C5ECF147B
  1

  0
CIRCLE
  5
4489
330
4486
100
AcDbEntity
  8
0
100
AcDbCircle
 10
-3.079240456948355
 20
2.061381943681453
 30
0.0
 40
1.25
  0
CIRCLE
  5
448A
330
4486
100
AcDbEntity
  8
0
100
AcDbCircle
 10
-3.079240456948355
 20
2.061381943681453
 30
0.0
 40
0.75
  0
ENDBLK
  5
448B
330
4486
100
AcDbEntity
  8
0
100
AcDbBlockEnd
  0
BLOCK
  5
6601
330
65F7
100
AcDbEntity
  8
0
100
AcDbBlockBegin
  2
*D4
 70
     1
 10
0.0
 20
0.0
 30
0.0
  3
*D4
  1

  0
LINE
  5
669F
330
65F7
100
AcDbEntity
  8
AM_5
100
AcDbLine
 10
2025.030661397769
 20
253.1324308732252
 30
0.0
 11
2042.780661397769
 21
253.1324308732252
 31
0.0
  0
LINE
  5
66A0
330
65F7
100
AcDbEntity
  8
AM_5
100
AcDbLine
 10
2025.030661397768
 20
219.1324308732252
 30
0.0
 11
2042.780661397769
 21
219.1324308732252
 31
0.0
  0
LINE
  5
66A1
330
65F7
100
AcDbEntity
  8
AM_5
100
AcDbLine
 10
2040.530661397768
 20
248.6324308732252
 30
0.0
 11
2040.530661397768
 21
223.6324308732252
 31
0.0
  0
SOLID
  5
66A2
330
65F7
100
AcDbEntity
  8
AM_5
100
AcDbTrace
 10
2039.780661397768
 20
248.6324308732252
 30
0.0
 11
2041.280661397768
 21
248.6324308732252
 31
0.0
 12
2040.530661397768
 22
253.1324308732252
 32
0.0
 13
2040.530661397768
 23
253.1324308732252
 33
0.0
  0
SOLID
  5
66A3
330
65F7
100
AcDbEntity
  8
AM_5
100
AcDbTrace
 10
2039.780661397768
 20
223.6324308732252
 30
0.0
 11
2041.280661397768
 21
223.6324308732252
 31
0.0
 12
2040.530661397768
 22
219.1324308732252
 32
0.0
 13
2040.530661397768
 23
219.1324308732252
 33
0.0
  0
MTEXT
  5
66A4
330
65F7
100
AcDbEntity
  8
AM_5
100
AcDbMText
 10
2036.855661397769
 20
236.1324308732256
 30
0.0
 40
5.25
 41
0.0
 71
     5
 72
     1
  1
34
 11
0.0000000000000001
 21
1.0
 31
0.0
 73
     1
 44
1.0
1001
ACAD
1000
MTEXTBEGIN
1070
    73
1070
     1
1070
    44
1040
1.0
1070
    74
1070
     0
1000
MTEXTEND
  0
POINT
  5
66A5
330
65F7
100
AcDbEntity
  8
Defpoints
 62
     0
100
AcDbPoint
 10
2023.530661397769
 20
253.1324308732252
 30
0.0
  0
POINT
  5
66A6
330
65F7
100
AcDbEntity
  8
Defpoints
 62
     0
100
AcDbPoint
 10
2023.530661397768
 20
219.1324308732252
 30
0.0
  0
POINT
  5
66A7
330
65F7
100
AcDbEntity
  8
Defpoints
 62
     0
100
AcDbPoint
 10
2040.530661397768
 20
219.1324308732252
 30
0.0
  0
ENDBLK
  5
6602
330
65F7
100
AcDbEntity
  8
0
100
AcDbBlockEnd
  0
BLOCK
  5
660D
330
6603
100
AcDbEntity
  8
0
100
AcDbBlockBegin
  2
*D5
 70
     1
 10
0.0
 20
0.0
 30
0.0
  3
*D5
  1

  0
LINE
  5
66C0
330
6603
100
AcDbEntity
  8
AM_5
100
AcDbLine
 10
1999.530661397768
 20
212.5824308732252
 30
0.0
 11
1999.530661397768
 21
195.8824308732254
 31
0.0
  0
LINE
  5
66C1
330
6603
100
AcDbEntity
  8
AM_5
100
AcDbLine
 10
2019.530661397769
 20
212.5824308732252
 30
0.0
 11
2019.530661397769
 21
195.8824308732254
 31
0.0
  0
LINE
  5
66C2
330
6603
100
AcDbEntity
  8
AM_5
100
AcDbLine
 10
2004.030661397768
 20
198.1324308732254
 30
0.0
 11
2015.030661397768
 21
198.1324308732254
 31
0.0
  0
SOLID
  5
66C3
330
6603
100
AcDbEntity
  8
AM_5
100
AcDbTrace
 10
2004.030661397768
 20
198.8824308732255
 30
0.0
 11
2004.030661397768
 21
197.3824308732254
 31
0.0
 12
1999.530661397768
 22
198.1324308732254
 32
0.0
 13
1999.530661397768
 23
198.1324308732254
 33
0.0
  0
SOLID
  5
66C4
330
6603
100
AcDbEntity
  8
AM_5
100
AcDbTrace
 10
2015.030661397768
 20
198.8824308732255
 30
0.0
 11
2015.030661397768
 21
197.3824308732254
 31
0.0
 12
2019.530661397769
 22
198.1324308732254
 32
0.0
 13
2019.530661397769
 23
198.1324308732254
 33
0.0
  0
MTEXT
  5
66C5
330
6603
100
AcDbEntity
  8
AM_5
100
AcDbMText
 10
2009.530661397768
 20
201.8079476055089
 30
0.0
 40
5.25
 41
0.0
 71
     5
 72
     1
  1
20
 73
     1
 44
1.0
1001
ACAD
1000
MTEXTBEGIN
1070
    73
1070
     1
1070
    44
1040
1.0
1070
    74
1070
     0
1000
MTEXTEND
  0
POINT
  5
66C6
330
6603
100
AcDbEntity
  8
Defpoints
 62
     0
100
AcDbPoint
 10
1999.530661397768
 20
214.0824308732252
 30
0.0
  0
POINT
  5
66C7
330
6603
100
AcDbEntity
  8
Defpoints
 62
     0
100
AcDbPoint
 10
2019.530661397769
 20
214.0824308732252
 30
0.0
  0
POINT
  5
66C8
330
6603
100
AcDbEntity
  8
Defpoints
 62
     0
100
AcDbPoint
 10
2019.530661397769
 20
198.1324308732254
 30
0.0
  0
ENDBLK
  5
660E
330
6603
100
AcDbEntity
  8
0
100
AcDbBlockEnd
  0
BLOCK
  5
6619
330
660F
100
AcDbEntity
  8
0
100
AcDbBlockBegin
  2
*D6
 70
     1
 10
0.0
 20
0.0
 30
0.0
  3
*D6
  1

  0
LINE
  5
66E1
330
660F
100
AcDbEntity
  8
AM_5
100
AcDbLine
 10
2122.39270986209
 20
358.2473506551743
 30
0.0
 11
2096.64270986209
 21
358.2473506551743
 31
0.0
  0
LINE
  5
66E2
330
660F
100
AcDbEntity
  8
AM_5
100
AcDbLine
 10
2122.39270986209
 20
338.2473506551743
 30
0.0
 11
2096.64270986209
 21
338.2473506551743
 31
0.0
  0
LINE
  5
66E3
330
660F
100
AcDbEntity
  8
AM_5
100
AcDbLine
 10
2098.89270986209
 20
353.7473506551743
 30
0.0
 11
2098.89270986209
 21
342.7473506551743
 31
0.0
  0
SOLID
  5
66E4
330
660F
100
AcDbEntity
  8
AM_5
100
AcDbTrace
 10
2098.14270986209
 20
353.7473506551743
 30
0.0
 11
2099.64270986209
 21
353.7473506551743
 31
0.0
 12
2098.89270986209
 22
358.2473506551743
 32
0.0
 13
2098.89270986209
 23
358.2473506551743
 33
0.0
  0
SOLID
  5
66E5
330
660F
100
AcDbEntity
  8
AM_5
100
AcDbTrace
 10
2098.14270986209
 20
342.7473506551743
 30
0.0
 11
2099.64270986209
 21
342.7473506551743
 31
0.0
 12
2098.89270986209
 22
338.2473506551743
 32
0.0
 13
2098.89270986209
 23
338.2473506551743
 33
0.0
  0
MTEXT
  5
66E6
330
660F
100
AcDbEntity
  8
AM_5
100
AcDbMText
 10
2095.217193129807
 20
348.2473506551747
 30
0.0
 40
5.25
 41
0.0
 71
     5
 72
     1
  1
20
 11
0.0000000000000001
 21
1.0
 31
0.0
 73
     1
 44
1.0
1001
ACAD
1000
MTEXTBEGIN
1070
    73
1070
     1
1070
    44
1040
1.0
1070
    74
1070
     0
1000
MTEXTEND
  0
POINT
  5
66E7
330
660F
100
AcDbEntity
  8
Defpoints
 62
     0
100
AcDbPoint
 10
2123.89270986209
 20
358.2473506551743
 30
0.0
  0
POINT
  5
66E8
330
660F
100
AcDbEntity
  8
Defpoints
 62
     0
100
AcDbPoint
 10
2123.89270986209
 20
338.2473506551743
 30
0.0
  0
POINT
  5
66E9
330
660F
100
AcDbEntity
  8
Defpoints
 62
     0
100
AcDbPoint
 10
2098.89270986209
 20
338.2473506551743
 30
0.0
  0
ENDBLK
  5
661A
330
660F
100
AcDbEntity
  8
0
100
AcDbBlockEnd
  0
BLOCK
  5
6625
330
661B
100
AcDbEntity
  8
0
100
AcDbBlockBegin
  2
*D7
 70
     1
 10
0.0
 20
0.0
 30
0.0
  3
*D7
  1

  0
LINE
  5
6702
330
661B
100
AcDbEntity
  8
AM_5
100
AcDbLine
 10
2127.89270986209
 20
332.7473506551744
 30
0.0
 11
2127.89270986209
 21
314.9973506551743
 31
0.0
  0
LINE
  5
6703
330
661B
100
AcDbEntity
  8
AM_5
100
AcDbLine
 10
2147.89270986209
 20
332.7473506551744
 30
0.0
 11
2147.89270986209
 21
314.9973506551743
 31
0.0
  0
LINE
  5
6704
330
661B
100
AcDbEntity
  8
AM_5
100
AcDbLine
 10
2132.392709862089
 20
317.2473506551743
 30
0.0
 11
2143.39270986209
 21
317.2473506551743
 31
0.0
  0
SOLID
  5
6705
330
661B
100
AcDbEntity
  8
AM_5
100
AcDbTrace
 10
2132.392709862089
 20
317.9973506551743
 30
0.0
 11
2132.392709862089
 21
316.4973506551743
 31
0.0
 12
2127.89270986209
 22
317.2473506551743
 32
0.0
 13
2127.89270986209
 23
317.2473506551743
 33
0.0
  0
SOLID
  5
6706
330
661B
100
AcDbEntity
  8
AM_5
100
AcDbTrace
 10
2143.39270986209
 20
317.9973506551743
 30
0.0
 11
2143.39270986209
 21
316.4973506551743
 31
0.0
 12
2147.89270986209
 22
317.2473506551743
 32
0.0
 13
2147.89270986209
 23
317.2473506551743
 33
0.0
  0
MTEXT
  5
6707
330
661B
100
AcDbEntity
  8
AM_5
100
AcDbMText
 10
2137.89270986209
 20
320.9228673874578
 30
0.0
 40
5.25
 41
0.0
 71
     5
 72
     1
  1
L2
 73
     1
 44
1.0
1001
ACAD
1000
MTEXTBEGIN
1070
    73
1070
     1
1070
    44
1040
1.0
1070
    74
1070
     0
1000
MTEXTEND
  0
POINT
  5
6708
330
661B
100
AcDbEntity
  8
Defpoints
 62
     0
100
AcDbPoint
 10
2127.89270986209
 20
334.2473506551743
 30
0.0
  0
POINT
  5
6709
330
661B
100
AcDbEntity
  8
Defpoints
 62
     0
100
AcDbPoint
 10
2147.89270986209
 20
334.2473506551743
 30
0.0
  0
POINT
  5
670A
330
661B
100
AcDbEntity
  8
Defpoints
 62
     0
100
AcDbPoint
 10
2147.89270986209
 20
317.2473506551743
 30
0.0
  0
ENDBLK
  5
6626
330
661B
100
AcDbEntity
  8
0
100
AcDbBlockEnd
  0
BLOCK
  5
6631
330
6627
100
AcDbEntity
  8
0
100
AcDbBlockBegin
  2
*D8
 70
     1
 10
0.0
 20
0.0
 30
0.0
  3
*D8
  1

  0
LINE
  5
670B
330
6627
100
AcDbEntity
  8
AM_5
100
AcDbLine
 10
2147.892709862089
 20
332.7473506551744
 30
0.0
 11
2147.892709862089
 21
314.9973506551743
 31
0.0
  0
LINE
  5
670C
330
6627
100
AcDbEntity
  8
AM_5
100
AcDbLine
 10
2167.89270986209
 20
332.7473506551744
 30
0.0
 11
2167.89270986209
 21
314.9973506551743
 31
0.0
  0
LINE
  5
670D
330
6627
100
AcDbEntity
  8
AM_5
100
AcDbLine
 10
2152.392709862089
 20
317.2473506551743
 30
0.0
 11
2163.39270986209
 21
317.2473506551743
 31
0.0
  0
SOLID
  5
670E
330
6627
100
AcDbEntity
  8
AM_5
100
AcDbTrace
 10
2152.392709862089
 20
317.9973506551743
 30
0.0
 11
2152.392709862089
 21
316.4973506551743
 31
0.0
 12
2147.892709862089
 22
317.2473506551743
 32
0.0
 13
2147.892709862089
 23
317.2473506551743
 33
0.0
  0
SOLID
  5
670F
330
6627
100
AcDbEntity
  8
AM_5
100
AcDbTrace
 10
2163.39270986209
 20
317.9973506551743
 30
0.0
 11
2163.39270986209
 21
316.4973506551743
 31
0.0
 12
2167.89270986209
 22
317.2473506551743
 32
0.0
 13
2167.89270986209
 23
317.2473506551743
 33
0.0
  0
MTEXT
  5
6710
330
6627
100
AcDbEntity
  8
AM_5
100
AcDbMText
 10
2157.89270986209
 20
320.9223506551743
 30
0.0
 40
5.25
 41
0.0
 71
     5
 72
     1
  1
L3
 73
     1
 44
1.0
1001
ACAD
1000
MTEXTBEGIN
1070
    73
1070
     1
1070
    44
1040
1.0
1070
    74
1070
     0
1000
MTEXTEND
  0
POINT
  5
6711
330
6627
100
AcDbEntity
  8
Defpoints
 62
     0
100
AcDbPoint
 10
2147.892709862089
 20
334.2473506551743
 30
0.0
  0
POINT
  5
6712
330
6627
100
AcDbEntity
  8
Defpoints
 62
     0
100
AcDbPoint
 10
2167.89270986209
 20
334.2473506551743
 30
0.0
  0
POINT
  5
6713
330
6627
100
AcDbEntity
  8
Defpoints
 62
     0
100
AcDbPoint
 10
2167.89270986209
 20
317.2473506551743
 30
0.0
  0
ENDBLK
  5
6632
330
6627
100
AcDbEntity
  8
0
100
AcDbBlockEnd
  0
BLOCK
  5
663D
330
6633
100
AcDbEntity
  8
0
100
AcDbBlockBegin
  2
*D9
 70
     1
 10
0.0
 20
0.0
 30
0.0
  3
*D9
  1

  0
LINE
  5
6722
330
6633
100
AcDbEntity
  8
AM_5
100
AcDbLine
 10
2127.74270986209
 20
253.1324308732255
 30
0.0
 11
2096.64270986209
 21
253.1324308732255
 31
0.0
  0
LINE
  5
6723
330
6633
100
AcDbEntity
  8
AM_5
100
AcDbLine
 10
2126.242709862089
 20
219.1324308732255
 30
0.0
 11
2096.64270986209
 21
219.1324308732255
 31
0.0
  0
LINE
  5
6724
330
6633
100
AcDbEntity
  8
AM_5
100
AcDbLine
 10
2098.89270986209
 20
248.6324308732255
 30
0.0
 11
2098.89270986209
 21
223.6324308732255
 31
0.0
  0
SOLID
  5
6725
330
6633
100
AcDbEntity
  8
AM_5
100
AcDbTrace
 10
2098.14270986209
 20
248.6324308732255
 30
0.0
 11
2099.64270986209
 21
248.6324308732255
 31
0.0
 12
2098.89270986209
 22
253.1324308732255
 32
0.0
 13
2098.89270986209
 23
253.1324308732255
 33
0.0
  0
SOLID
  5
6726
330
6633
100
AcDbEntity
  8
AM_5
100
AcDbTrace
 10
2098.14270986209
 20
223.6324308732255
 30
0.0
 11
2099.64270986209
 21
223.6324308732255
 31
0.0
 12
2098.89270986209
 22
219.1324308732255
 32
0.0
 13
2098.89270986209
 23
219.1324308732255
 33
0.0
  0
MTEXT
  5
6727
330
6633
100
AcDbEntity
  8
AM_5
100
AcDbMText
 10
2095.21770986209
 20
236.1324308732258
 30
0.0
 40
5.25
 41
0.0
 71
     5
 72
     1
  1
34
 11
0.0000000000000001
 21
1.0
 31
0.0
 73
     1
 44
1.0
1001
ACAD
1000
MTEXTBEGIN
1070
    73
1070
     1
1070
    44
1040
1.0
1070
    74
1070
     0
1000
MTEXTEND
  0
POINT
  5
6728
330
6633
100
AcDbEntity
  8
Defpoints
 62
     0
100
AcDbPoint
 10
2129.242709862089
 20
253.1324308732255
 30
0.0
  0
POINT
  5
6729
330
6633
100
AcDbEntity
  8
Defpoints
 62
     0
100
AcDbPoint
 10
2127.74270986209
 20
219.1324308732255
 30
0.0
  0
POINT
  5
672A
330
6633
100
AcDbEntity
  8
Defpoints
 62
     0
100
AcDbPoint
 10
2098.89270986209
 20
219.1324308732255
 30
0.0
  0
ENDBLK
  5
663E
330
6633
100
AcDbEntity
  8
0
100
AcDbBlockEnd
  0
BLOCK
  5
6649
330
663F
100
AcDbEntity
  8
0
100
AcDbBlockBegin
  2
*D10
 70
     1
 10
0.0
 20
0.0
 30
0.0
  3
*D10
  1

  0
LINE
  5
68F4
330
663F
100
AcDbEntity
  8
AM_5
100
AcDbLine
 10
2135.39270986209
 20
211.4824308732255
 30
0.0
 11
2135.39270986209
 21
186.2207254122224
 31
0.0
  0
LINE
  5
68F5
330
663F
100
AcDbEntity
  8
AM_5
100
AcDbLine
 10
2185.39270986209
 20
245.4824308732255
 30
0.0
 11
2185.39270986209
 21
186.2207254122224
 31
0.0
  0
LINE
  5
68F6
330
663F
100
AcDbEntity
  8
AM_5
100
AcDbLine
 10
2139.89270986209
 20
188.4707254122224
 30
0.0
 11
2180.89270986209
 21
188.4707254122224
 31
0.0
  0
SOLID
  5
68F7
330
663F
100
AcDbEntity
  8
AM_5
100
AcDbTrace
 10
2139.89270986209
 20
189.2207254122224
 30
0.0
 11
2139.89270986209
 21
187.7207254122224
 31
0.0
 12
2135.39270986209
 22
188.4707254122224
 32
0.0
 13
2135.39270986209
 23
188.4707254122224
 33
0.0
  0
SOLID
  5
68F8
330
663F
100
AcDbEntity
  8
AM_5
100
AcDbTrace
 10
2180.89270986209
 20
189.2207254122224
 30
0.0
 11
2180.89270986209
 21
187.7207254122224
 31
0.0
 12
2185.39270986209
 22
188.4707254122224
 32
0.0
 13
2185.39270986209
 23
188.4707254122224
 33
0.0
  0
MTEXT
  5
68F9
330
663F
100
AcDbEntity
  8
AM_5
100
AcDbMText
 10
2160.39270986209
 20
192.1457254122224
 30
0.0
 40
5.25
 41
0.0
 71
     5
 72
     1
  1
C
 73
     1
 44
1.0
1001
ACAD
1000
MTEXTBEGIN
1070
    73
1070
     1
1070
    44
1040
1.0
1070
    74
1070
     0
1000
MTEXTEND
  0
POINT
  5
68FA
330
663F
100
AcDbEntity
  8
Defpoints
 62
     0
100
AcDbPoint
 10
2135.39270986209
 20
212.9824308732255
 30
0.0
  0
POINT
  5
68FB
330
663F
100
AcDbEntity
  8
Defpoints
 62
     0
100
AcDbPoint
 10
2185.39270986209
 20
246.9824308732255
 30
0.0
  0
POINT
  5
68FC
330
663F
100
AcDbEntity
  8
Defpoints
 62
     0
100
AcDbPoint
 10
2185.39270986209
 20
188.4707254122224
 30
0.0
  0
ENDBLK
  5
664A
330
663F
100
AcDbEntity
  8
0
100
AcDbBlockEnd
  0
BLOCK
  5
6655
330
664B
100
AcDbEntity
  8
0
100
AcDbBlockBegin
  2
*D11
 70
     1
 10
0.0
 20
0.0
 30
0.0
  3
*D11
  1

  0
LINE
  5
68BE
330
664B
100
AcDbEntity
  8
AM_5
100
AcDbLine
 10
2144.39270986209
 20
118.2497417496293
 30
0.0
 11
2144.39270986209
 21
135.9997417496292
 31
0.0
  0
LINE
  5
68BF
330
664B
100
AcDbEntity
  8
AM_5
100
AcDbLine
 10
2194.39270986209
 20
118.2497417496293
 30
0.0
 11
2194.39270986209
 21
135.9997417496292
 31
0.0
  0
LINE
  5
68C0
330
664B
100
AcDbEntity
  8
AM_5
100
AcDbLine
 10
2148.89270986209
 20
133.7497417496292
 30
0.0
 11
2189.89270986209
 21
133.7497417496292
 31
0.0
  0
SOLID
  5
68C1
330
664B
100
AcDbEntity
  8
AM_5
100
AcDbTrace
 10
2148.89270986209
 20
134.4997417496292
 30
0.0
 11
2148.89270986209
 21
132.9997417496292
 31
0.0
 12
2144.39270986209
 22
133.7497417496292
 32
0.0
 13
2144.39270986209
 23
133.7497417496292
 33
0.0
  0
SOLID
  5
68C2
330
664B
100
AcDbEntity
  8
AM_5
100
AcDbTrace
 10
2189.89270986209
 20
134.4997417496292
 30
0.0
 11
2189.89270986209
 21
132.9997417496292
 31
0.0
 12
2194.39270986209
 22
133.7497417496292
 32
0.0
 13
2194.39270986209
 23
133.7497417496292
 33
0.0
  0
MTEXT
  5
68C3
330
664B
100
AcDbEntity
  8
AM_5
100
AcDbMText
 10
2169.39270986209
 20
137.4247417496293
 30
0.0
 40
5.25
 41
0.0
 71
     5
 72
     1
  1
10+stroke
 73
     1
 44
1.0
1001
ACAD
1000
MTEXTBEGIN
1070
    73
1070
     1
1070
    44
1040
1.0
1070
    74
1070
     0
1000
MTEXTEND
  0
POINT
  5
68C4
330
664B
100
AcDbEntity
  8
Defpoints
 62
     0
100
AcDbPoint
 10
2144.39270986209
 20
116.7497417496292
 30
0.0
  0
POINT
  5
68C5
330
664B
100
AcDbEntity
  8
Defpoints
 62
     0
100
AcDbPoint
 10
2194.39270986209
 20
116.7497417496292
 30
0.0
  0
POINT
  5
68C6
330
664B
100
AcDbEntity
  8
Defpoints
 62
     0
100
AcDbPoint
 10
2194.39270986209
 20
133.7497417496292
 30
0.0
  0
ENDBLK
  5
6656
330
664B
100
AcDbEntity
  8
0
100
AcDbBlockEnd
  0
BLOCK
  5
6661
330
6657
100
AcDbEntity
  8
0
100
AcDbBlockBegin
  2
*D12
 70
     1
 10
0.0
 20
0.0
 30
0.0
  3
*D12
  1

  0
LINE
  5
68C7
330
6657
100
AcDbEntity
  8
AM_5
100
AcDbLine
 10
2138.89270986209
 20
112.7497417496292
 30
0.0
 11
2096.64270986209
 21
112.7497417496292
 31
0.0
  0
LINE
  5
68C8
330
6657
100
AcDbEntity
  8
AM_5
100
AcDbLine
 10
2138.89270986209
 20
92.74974174962926
 30
0.0
 11
2096.64270986209
 21
92.74974174962926
 31
0.0
  0
LINE
  5
68C9
330
6657
100
AcDbEntity
  8
AM_5
100
AcDbLine
 10
2098.89270986209
 20
108.2497417496292
 30
0.0
 11
2098.89270986209
 21
97.24974174962927
 31
0.0
  0
SOLID
  5
68CA
330
6657
100
AcDbEntity
  8
AM_5
100
AcDbTrace
 10
2098.14270986209
 20
108.2497417496292
 30
0.0
 11
2099.64270986209
 21
108.2497417496292
 31
0.0
 12
2098.89270986209
 22
112.7497417496292
 32
0.0
 13
2098.89270986209
 23
112.7497417496292
 33
0.0
  0
SOLID
  5
68CB
330
6657
100
AcDbEntity
  8
AM_5
100
AcDbTrace
 10
2098.14270986209
 20
97.24974174962927
 30
0.0
 11
2099.64270986209
 21
97.24974174962927
 31
0.0
 12
2098.89270986209
 22
92.74974174962926
 32
0.0
 13
2098.89270986209
 23
92.74974174962926
 33
0.0
  0
MTEXT
  5
68CC
330
6657
100
AcDbEntity
  8
AM_5
100
AcDbMText
 10
2095.217193129807
 20
102.7497417496296
 30
0.0
 40
5.25
 41
0.0
 71
     5
 72
     1
  1
20
 11
0.0000000000000001
 21
1.0
 31
0.0
 73
     1
 44
1.0
1001
ACAD
1000
MTEXTBEGIN
1070
    73
1070
     1
1070
    44
1040
1.0
1070
    74
1070
     0
1000
MTEXTEND
  0
POINT
  5
68CD
330
6657
100
AcDbEntity
  8
Defpoints
 62
     0
100
AcDbPoint
 10
2140.39270986209
 20
112.7497417496292
 30
0.0
  0
POINT
  5
68CE
330
6657
100
AcDbEntity
  8
Defpoints
 62
     0
100
AcDbPoint
 10
2140.39270986209
 20
92.74974174962926
 30
0.0
  0
POINT
  5
68CF
330
6657
100
AcDbEntity
  8
Defpoints
 62
     0
100
AcDbPoint
 10
2098.89270986209
 20
92.74974174962926
 30
0.0
  0
ENDBLK
  5
6662
330
6657
100
AcDbEntity
  8
0
100
AcDbBlockEnd
  0
BLOCK
  5
666D
330
6663
100
AcDbEntity
  8
0
100
AcDbBlockBegin
  2
*D13
 70
     1
 10
0.0
 20
0.0
 30
0.0
  3
*D13
  1

  0
LINE
  5
67A8
330
6663
100
AcDbEntity
  8
AM_5
100
AcDbLine
 10
2212.39270986209
 20
252.1324308732255
 30
0.0
 11
2239.14270986209
 21
252.1324308732255
 31
0.0
  0
LINE
  5
67A9
330
6663
100
AcDbEntity
  8
AM_5
100
AcDbLine
 10
2212.39270986209
 20
220.1324308732255
 30
0.0
 11
2239.14270986209
 21
220.1324308732255
 31
0.0
  0
LINE
  5
67AA
330
6663
100
AcDbEntity
  8
AM_5
100
AcDbLine
 10
2236.89270986209
 20
247.6324308732255
 30
0.0
 11
2236.89270986209
 21
224.6324308732255
 31
0.0
  0
SOLID
  5
67AB
330
6663
100
AcDbEntity
  8
AM_5
100
AcDbTrace
 10
2236.14270986209
 20
247.6324308732255
 30
0.0
 11
2237.64270986209
 21
247.6324308732255
 31
0.0
 12
2236.89270986209
 22
252.1324308732255
 32
0.0
 13
2236.89270986209
 23
252.1324308732255
 33
0.0
  0
SOLID
  5
67AC
330
6663
100
AcDbEntity
  8
AM_5
100
AcDbTrace
 10
2236.14270986209
 20
224.6324308732255
 30
0.0
 11
2237.64270986209
 21
224.6324308732255
 31
0.0
 12
2236.89270986209
 22
220.1324308732255
 32
0.0
 13
2236.89270986209
 23
220.1324308732255
 33
0.0
  0
MTEXT
  5
67AD
330
6663
100
AcDbEntity
  8
AM_5
100
AcDbMText
 10
2233.217193129807
 20
236.1324308732258
 30
0.0
 40
5.25
 41
0.0
 71
     5
 72
     1
  1
32
 11
0.0000000000000001
 21
1.0
 31
0.0
 73
     1
 44
1.0
1001
ACAD
1000
MTEXTBEGIN
1070
    73
1070
     1
1070
    44
1040
1.0
1070
    74
1070
     0
1000
MTEXTEND
  0
POINT
  5
67AE
330
6663
100
AcDbEntity
  8
Defpoints
 62
     0
100
AcDbPoint
 10
2210.89270986209
 20
252.1324308732255
 30
0.0
  0
POINT
  5
67AF
330
6663
100
AcDbEntity
  8
Defpoints
 62
     0
100
AcDbPoint
 10
2210.89270986209
 20
220.1324308732255
 30
0.0
  0
POINT
  5
67B0
330
6663
100
AcDbEntity
  8
Defpoints
 62
     0
100
AcDbPoint
 10
2236.89270986209
 20
220.1324308732255
 30
0.0
  0
ENDBLK
  5
666E
330
6663
100
AcDbEntity
  8
0
100
AcDbBlockEnd
  0
BLOCK
  5
6679
330
666F
100
AcDbEntity
  8
0
100
AcDbBlockBegin
  2
*D14
 70
     1
 10
0.0
 20
0.0
 30
0.0
  3
*D14
  1

  0
LINE
  5
67CC
330
666F
100
AcDbEntity
  8
AM_5
100
AcDbLine
 10
2310.63554708812
 20
253.1324308732255
 30
0.0
 11
2292.88554708812
 21
253.1324308732255
 31
0.0
  0
LINE
  5
67CD
330
666F
100
AcDbEntity
  8
AM_5
100
AcDbLine
 10
2310.63554708812
 20
219.1324308732255
 30
0.0
 11
2292.88554708812
 21
219.1324308732255
 31
0.0
  0
LINE
  5
67CE
330
666F
100
AcDbEntity
  8
AM_5
100
AcDbLine
 10
2295.13554708812
 20
248.6324308732255
 30
0.0
 11
2295.13554708812
 21
223.6324308732255
 31
0.0
  0
SOLID
  5
67CF
330
666F
100
AcDbEntity
  8
AM_5
100
AcDbTrace
 10
2294.38554708812
 20
248.6324308732255
 30
0.0
 11
2295.88554708812
 21
248.6324308732255
 31
0.0
 12
2295.13554708812
 22
253.1324308732255
 32
0.0
 13
2295.13554708812
 23
253.1324308732255
 33
0.0
  0
SOLID
  5
67D0
330
666F
100
AcDbEntity
  8
AM_5
100
AcDbTrace
 10
2294.38554708812
 20
223.6324308732255
 30
0.0
 11
2295.88554708812
 21
223.6324308732255
 31
0.0
 12
2295.13554708812
 22
219.1324308732255
 32
0.0
 13
2295.13554708812
 23
219.1324308732255
 33
0.0
  0
MTEXT
  5
67D1
330
666F
100
AcDbEntity
  8
AM_5
100
AcDbMText
 10
2291.46054708812
 20
236.1324308732259
 30
0.0
 40
5.25
 41
0.0
 71
     5
 72
     1
  1
34
 11
0.0000000000000001
 21
1.0
 31
0.0
 73
     1
 44
1.0
1001
ACAD
1000
MTEXTBEGIN
1070
    73
1070
     1
1070
    44
1040
1.0
1070
    74
1070
     0
1000
MTEXTEND
  0
POINT
  5
67D2
330
666F
100
AcDbEntity
  8
Defpoints
 62
     0
100
AcDbPoint
 10
2312.13554708812
 20
253.1324308732255
 30
0.0
  0
POINT
  5
67D3
330
666F
100
AcDbEntity
  8
Defpoints
 62
     0
100
AcDbPoint
 10
2312.13554708812
 20
219.1324308732255
 30
0.0
  0
POINT
  5
67D4
330
666F
100
AcDbEntity
  8
Defpoints
 62
     0
100
AcDbPoint
 10
2295.13554708812
 20
219.1324308732255
 30
0.0
  0
ENDBLK
  5
667A
330
666F
100
AcDbEntity
  8
0
100
AcDbBlockEnd
  0
BLOCK
  5
6685
330
667B
100
AcDbEntity
  8
0
100
AcDbBlockBegin
  2
*D15
 70
     1
 10
0.0
 20
0.0
 30
0.0
  3
*D15
  1

  0
LINE
  5
67E3
330
667B
100
AcDbEntity
  8
AM_5
100
AcDbLine
 10
2316.13554708812
 20
213.6324308732255
 30
0.0
 11
2316.13554708812
 21
195.8824308732254
 31
0.0
  0
LINE
  5
67E4
330
667B
100
AcDbEntity
  8
AM_5
100
AcDbLine
 10
2336.13554708812
 20
213.6324308732255
 30
0.0
 11
2336.13554708812
 21
195.8824308732254
 31
0.0
  0
LINE
  5
67E5
330
667B
100
AcDbEntity
  8
AM_5
100
AcDbLine
 10
2320.63554708812
 20
198.1324308732254
 30
0.0
 11
2331.63554708812
 21
198.1324308732254
 31
0.0
  0
SOLID
  5
67E6
330
667B
100
AcDbEntity
  8
AM_5
100
AcDbTrace
 10
2320.63554708812
 20
198.8824308732255
 30
0.0
 11
2320.63554708812
 21
197.3824308732254
 31
0.0
 12
2316.13554708812
 22
198.1324308732254
 32
0.0
 13
2316.13554708812
 23
198.1324308732254
 33
0.0
  0
SOLID
  5
67E7
330
667B
100
AcDbEntity
  8
AM_5
100
AcDbTrace
 10
2331.63554708812
 20
198.8824308732255
 30
0.0
 11
2331.63554708812
 21
197.3824308732254
 31
0.0
 12
2336.13554708812
 22
198.1324308732254
 32
0.0
 13
2336.13554708812
 23
198.1324308732254
 33
0.0
  0
MTEXT
  5
67E8
330
667B
100
AcDbEntity
  8
AM_5
100
AcDbMText
 10
2326.13554708812
 20
201.8079476055089
 30
0.0
 40
5.25
 41
0.0
 71
     5
 72
     1
  1
20
 73
     1
 44
1.0
1001
ACAD
1000
MTEXTBEGIN
1070
    73
1070
     1
1070
    44
1040
1.0
1070
    74
1070
     0
1000
MTEXTEND
  0
POINT
  5
67E9
330
667B
100
AcDbEntity
  8
Defpoints
 62
     0
100
AcDbPoint
 10
2316.13554708812
 20
215.1324308732255
 30
0.0
  0
POINT
  5
67EA
330
667B
100
AcDbEntity
  8
Defpoints
 62
     0
100
AcDbPoint
 10
2336.13554708812
 20
215.1324308732255
 30
0.0
  0
POINT
  5
67EB
330
667B
100
AcDbEntity
  8
Defpoints
 62
     0
100
AcDbPoint
 10
2336.13554708812
 20
198.1324308732254
 30
0.0
  0
ENDBLK
  5
6686
330
667B
100
AcDbEntity
  8
0
100
AcDbBlockEnd
  0
BLOCK
  5
6691
330
6687
100
AcDbEntity
  8
0
100
AcDbBlockBegin
  2
*D16
 70
     1
 10
0.0
 20
0.0
 30
0.0
  3
*D16
  1

  0
LINE
  5
67EC
330
6687
100
AcDbEntity
  8
AM_5
100
AcDbLine
 10
2331.63554708812
 20
252.1324308732255
 30
0.0
 11
2359.38554708812
 21
252.1324308732255
 31
0.0
  0
LINE
  5
67ED
330
6687
100
AcDbEntity
  8
AM_5
100
AcDbLine
 10
2331.63554708812
 20
220.1324308732255
 30
0.0
 11
2359.38554708812
 21
220.1324308732255
 31
0.0
  0
LINE
  5
67EE
330
6687
100
AcDbEntity
  8
AM_5
100
AcDbLine
 10
2357.13554708812
 20
247.6324308732255
 30
0.0
 11
2357.13554708812
 21
224.6324308732255
 31
0.0
  0
SOLID
  5
67EF
330
6687
100
AcDbEntity
  8
AM_5
100
AcDbTrace
 10
2356.38554708812
 20
247.6324308732255
 30
0.0
 11
2357.88554708812
 21
247.6324308732255
 31
0.0
 12
2357.13554708812
 22
252.1324308732255
 32
0.0
 13
2357.13554708812
 23
252.1324308732255
 33
0.0
  0
SOLID
  5
67F0
330
6687
100
AcDbEntity
  8
AM_5
100
AcDbTrace
 10
2356.38554708812
 20
224.6324308732255
 30
0.0
 11
2357.88554708812
 21
224.6324308732255
 31
0.0
 12
2357.13554708812
 22
220.1324308732255
 32
0.0
 13
2357.13554708812
 23
220.1324308732255
 33
0.0
  0
MTEXT
  5
67F1
330
6687
100
AcDbEntity
  8
AM_5
100
AcDbMText
 10
2353.460030355837
 20
236.1324308732259
 30
0.0
 40
5.25
 41
0.0
 71
     5
 72
     1
  1
32
 11
0.0000000000000001
 21
1.0
 31
0.0
 73
     1
 44
1.0
1001
ACAD
1000
MTEXTBEGIN
1070
    73
1070
     1
1070
    44
1040
1.0
1070
    74
1070
     0
1000
MTEXTEND
  0
POINT
  5
67F2
330
6687
100
AcDbEntity
  8
Defpoints
 62
     0
100
AcDbPoint
 10
2330.13554708812
 20
252.1324308732255
 30
0.0
  0
POINT
  5
67F3
330
6687
100
AcDbEntity
  8
Defpoints
 62
     0
100
AcDbPoint
 10
2330.13554708812
 20
220.1324308732255
 30
0.0
  0
POINT
  5
67F4
330
6687
100
AcDbEntity
  8
Defpoints
 62
     0
100
AcDbPoint
 10
2357.13554708812
 20
220.1324308732255
 30
0.0
  0
ENDBLK
  5
6692
330
6687
100
AcDbEntity
  8
0
100
AcDbBlockEnd
  0
BLOCK
  5
669D
330
6693
100
AcDbEntity
  8
0
100
AcDbBlockBegin
  2
*D17
 70
     1
 10
0.0
 20
0.0
 30
0.0
  3
*D17
  1

  0
LINE
  5
6694
330
6693
100
AcDbEntity
  8
AM_5
100
AcDbLine
 10
2026.530661397768
 20
277.6324308732252
 30
0.0
 11
2042.780661397769
 21
277.6324308732252
 31
0.0
  0
LINE
  5
6695
330
6693
100
AcDbEntity
  8
AM_5
100
AcDbLine
 10
2025.030661397769
 20
253.1324308732252
 30
0.0
 11
2042.780661397769
 21
253.1324308732252
 31
0.0
  0
LINE
  5
6696
330
6693
100
AcDbEntity
  8
AM_5
100
AcDbLine
 10
2040.530661397768
 20
273.1324308732252
 30
0.0
 11
2040.530661397768
 21
257.6324308732253
 31
0.0
  0
SOLID
  5
6697
330
6693
100
AcDbEntity
  8
AM_5
100
AcDbTrace
 10
2039.780661397768
 20
273.1324308732252
 30
0.0
 11
2041.280661397768
 21
273.1324308732252
 31
0.0
 12
2040.530661397768
 22
277.6324308732252
 32
0.0
 13
2040.530661397768
 23
277.6324308732252
 33
0.0
  0
SOLID
  5
6698
330
6693
100
AcDbEntity
  8
AM_5
100
AcDbTrace
 10
2039.780661397768
 20
257.6324308732253
 30
0.0
 11
2041.280661397768
 21
257.6324308732253
 31
0.0
 12
2040.530661397768
 22
253.1324308732252
 32
0.0
 13
2040.530661397768
 23
253.1324308732252
 33
0.0
  0
MTEXT
  5
6699
330
6693
100
AcDbEntity
  8
AM_5
100
AcDbMText
 10
2036.855144665485
 20
265.3824308732256
 30
0.0
 40
5.25
 41
0.0
 71
     5
 72
     1
  1
24.5
 11
0.0000000000000001
 21
1.0
 31
0.0
 73
     1
 44
1.0
1001
ACAD
1000
MTEXTBEGIN
1070
    73
1070
     1
1070
    44
1040
1.0
1070
    74
1070
     0
1000
MTEXTEND
  0
POINT
  5
669A
330
6693
100
AcDbEntity
  8
Defpoints
 62
     0
100
AcDbPoint
 10
2025.030661397768
 20
277.6324308732252
 30
0.0
  0
POINT
  5
669B
330
6693
100
AcDbEntity
  8
Defpoints
 62
     0
100
AcDbPoint
 10
2023.530661397769
 20
253.1324308732252
 30
0.0
  0
POINT
  5
669C
330
6693
100
AcDbEntity
  8
Defpoints
 62
     0
100
AcDbPoint
 10
2040.530661397768
 20
253.1324308732252
 30
0.0
  0
ENDBLK
  5
669E
330
6693
100
AcDbEntity
  8
0
100
AcDbBlockEnd
  0
BLOCK
  5
66B2
330
66A8
100
AcDbEntity
  8
0
100
AcDbBlockBegin
  2
*D18
 70
     1
 10
0.0
 20
0.0
 30
0.0
  3
*D18
  1

  0
LINE
  5
66A9
330
66A8
100
AcDbEntity
  8
AM_5
100
AcDbLine
 10
2026.530661397769
 20
277.6324308732252
 30
0.0
 11
2054.780661397768
 21
277.6324308732252
 31
0.0
  0
LINE
  5
66AA
330
66A8
100
AcDbEntity
  8
AM_5
100
AcDbLine
 10
2026.530661397769
 20
214.1324308732253
 30
0.0
 11
2054.780661397768
 21
214.1324308732253
 31
0.0
  0
LINE
  5
66AB
330
66A8
100
AcDbEntity
  8
AM_5
100
AcDbLine
 10
2052.530661397768
 20
273.1324308732252
 30
0.0
 11
2052.530661397768
 21
218.6324308732253
 31
0.0
  0
SOLID
  5
66AC
330
66A8
100
AcDbEntity
  8
AM_5
100
AcDbTrace
 10
2051.780661397768
 20
273.1324308732252
 30
0.0
 11
2053.280661397768
 21
273.1324308732252
 31
0.0
 12
2052.530661397768
 22
277.6324308732252
 32
0.0
 13
2052.530661397768
 23
277.6324308732252
 33
0.0
  0
SOLID
  5
66AD
330
66A8
100
AcDbEntity
  8
AM_5
100
AcDbTrace
 10
2051.780661397768
 20
218.6324308732253
 30
0.0
 11
2053.280661397768
 21
218.6324308732253
 31
0.0
 12
2052.530661397768
 22
214.1324308732253
 32
0.0
 13
2052.530661397768
 23
214.1324308732253
 33
0.0
  0
MTEXT
  5
66AE
330
66A8
100
AcDbEntity
  8
AM_5
100
AcDbMText
 10
2048.855661397768
 20
245.8824308732256
 30
0.0
 40
5.25
 41
0.0
 71
     5
 72
     1
  1
63.5
 11
0.0000000000000001
 21
1.0
 31
0.0
 73
     1
 44
1.0
1001
ACAD
1000
MTEXTBEGIN
1070
    73
1070
     1
1070
    44
1040
1.0
1070
    74
1070
     0
1000
MTEXTEND
  0
POINT
  5
66AF
330
66A8
100
AcDbEntity
  8
Defpoints
 62
     0
100
AcDbPoint
 10
2025.030661397769
 20
277.6324308732252
 30
0.0
  0
POINT
  5
66B0
330
66A8
100
AcDbEntity
  8
Defpoints
 62
     0
100
AcDbPoint
 10
2025.030661397769
 20
214.1324308732253
 30
0.0
  0
POINT
  5
66B1
330
66A8
100
AcDbEntity
  8
Defpoints
 62
     0
100
AcDbPoint
 10
2052.530661397768
 20
214.1324308732253
 30
0.0
  0
ENDBLK
  5
66B3
330
66A8
100
AcDbEntity
  8
0
100
AcDbBlockEnd
  0
BLOCK
  5
66BE
330
66B4
100
AcDbEntity
  8
0
100
AcDbBlockBegin
  2
*D19
 70
     1
 10
0.0
 20
0.0
 30
0.0
  3
*D19
  1

  0
LINE
  5
66B5
330
66B4
100
AcDbEntity
  8
AM_5
100
AcDbLine
 10
2026.530661397768
 20
277.6324308732252
 30
0.0
 11
2066.780661397768
 21
277.6324308732252
 31
0.0
  0
LINE
  5
66B6
330
66B4
100
AcDbEntity
  8
AM_5
100
AcDbLine
 10
2027.030661397768
 20
213.1324308732255
 30
0.0
 11
2066.780661397768
 21
213.1324308732255
 31
0.0
  0
LINE
  5
66B7
330
66B4
100
AcDbEntity
  8
AM_5
100
AcDbLine
 10
2064.530661397768
 20
273.1324308732252
 30
0.0
 11
2064.530661397768
 21
217.6324308732255
 31
0.0
  0
SOLID
  5
66B8
330
66B4
100
AcDbEntity
  8
AM_5
100
AcDbTrace
 10
2063.780661397768
 20
273.1324308732252
 30
0.0
 11
2065.280661397768
 21
273.1324308732252
 31
0.0
 12
2064.530661397768
 22
277.6324308732252
 32
0.0
 13
2064.530661397768
 23
277.6324308732252
 33
0.0
  0
SOLID
  5
66B9
330
66B4
100
AcDbEntity
  8
AM_5
100
AcDbTrace
 10
2063.780661397768
 20
217.6324308732255
 30
0.0
 11
2065.280661397768
 21
217.6324308732255
 31
0.0
 12
2064.530661397768
 22
213.1324308732255
 32
0.0
 13
2064.530661397768
 23
213.1324308732255
 33
0.0
  0
MTEXT
  5
66BA
330
66B4
100
AcDbEntity
  8
AM_5
100
AcDbMText
 10
2060.855661397768
 20
245.3824308732257
 30
0.0
 40
5.25
 41
0.0
 71
     5
 72
     1
  1
64.5
 11
0.0000000000000001
 21
1.0
 31
0.0
 73
     1
 44
1.0
1001
ACAD
1000
MTEXTBEGIN
1070
    73
1070
     1
1070
    44
1040
1.0
1070
    74
1070
     0
1000
MTEXTEND
  0
POINT
  5
66BB
330
66B4
100
AcDbEntity
  8
Defpoints
 62
     0
100
AcDbPoint
 10
2025.030661397768
 20
277.6324308732252
 30
0.0
  0
POINT
  5
66BC
330
66B4
100
AcDbEntity
  8
Defpoints
 62
     0
100
AcDbPoint
 10
2025.530661397768
 20
213.1324308732255
 30
0.0
  0
POINT
  5
66BD
330
66B4
100
AcDbEntity
  8
Defpoints
 62
     0
100
AcDbPoint
 10
2064.530661397768
 20
213.1324308732255
 30
0.0
  0
ENDBLK
  5
66BF
330
66B4
100
AcDbEntity
  8
0
100
AcDbBlockEnd
  0
BLOCK
  5
66D3
330
66C9
100
AcDbEntity
  8
0
100
AcDbBlockBegin
  2
*D20
 70
     1
 10
0.0
 20
0.0
 30
0.0
  3
*D20
  1

  0
LINE
  5
66CA
330
66C9
100
AcDbEntity
  8
AM_5
100
AcDbLine
 10
1993.530661397768
 20
211.6324308732255
 30
0.0
 11
1993.530661397768
 21
183.8824308732254
 31
0.0
  0
LINE
  5
66CB
330
66C9
100
AcDbEntity
  8
AM_5
100
AcDbLine
 10
2025.530661397768
 20
211.6324308732255
 30
0.0
 11
2025.530661397768
 21
183.8824308732254
 31
0.0
  0
LINE
  5
66CC
330
66C9
100
AcDbEntity
  8
AM_5
100
AcDbLine
 10
1998.030661397768
 20
186.1324308732255
 30
0.0
 11
2021.030661397769
 21
186.1324308732255
 31
0.0
  0
SOLID
  5
66CD
330
66C9
100
AcDbEntity
  8
AM_5
100
AcDbTrace
 10
1998.030661397768
 20
186.8824308732254
 30
0.0
 11
1998.030661397768
 21
185.3824308732255
 31
0.0
 12
1993.530661397768
 22
186.1324308732255
 32
0.0
 13
1993.530661397768
 23
186.1324308732255
 33
0.0
  0
SOLID
  5
66CE
330
66C9
100
AcDbEntity
  8
AM_5
100
AcDbTrace
 10
2021.030661397769
 20
186.8824308732254
 30
0.0
 11
2021.030661397769
 21
185.3824308732255
 31
0.0
 12
2025.530661397768
 22
186.1324308732255
 32
0.0
 13
2025.530661397768
 23
186.1324308732255
 33
0.0
  0
MTEXT
  5
66CF
330
66C9
100
AcDbEntity
  8
AM_5
100
AcDbMText
 10
2009.530661397768
 20
189.8079476055089
 30
0.0
 40
5.25
 41
0.0
 71
     5
 72
     1
  1
32
 73
     1
 44
1.0
1001
ACAD
1000
MTEXTBEGIN
1070
    73
1070
     1
1070
    44
1040
1.0
1070
    74
1070
     0
1000
MTEXTEND
  0
POINT
  5
66D0
330
66C9
100
AcDbEntity
  8
Defpoints
 62
     0
100
AcDbPoint
 10
1993.530661397768
 20
213.1324308732255
 30
0.0
  0
POINT
  5
66D1
330
66C9
100
AcDbEntity
  8
Defpoints
 62
     0
100
AcDbPoint
 10
2025.530661397768
 20
213.1324308732255
 30
0.0
  0
POINT
  5
66D2
330
66C9
100
AcDbEntity
  8
Defpoints
 62
     0
100
AcDbPoint
 10
2025.530661397768
 20
186.1324308732255
 30
0.0
  0
ENDBLK
  5
66D4
330
66C9
100
AcDbEntity
  8
0
100
AcDbBlockEnd
  0
BLOCK
  5
66DF
330
66D5
100
AcDbEntity
  8
0
100
AcDbBlockBegin
  2
*D21
 70
     1
 10
0.0
 20
0.0
 30
0.0
  3
*D21
  1

  0
LINE
  5
66D6
330
66D5
100
AcDbEntity
  8
AM_5
100
AcDbLine
 10
2113.89270986209
 20
365.2473506551745
 30
0.0
 11
2113.89270986209
 21
380.9973506551743
 31
0.0
  0
LINE
  5
66D7
330
66D5
100
AcDbEntity
  8
AM_5
100
AcDbLine
 10
2207.89270986209
 20
365.2473506551743
 30
0.0
 11
2207.89270986209
 21
380.9973506551743
 31
0.0
  0
LINE
  5
66D8
330
66D5
100
AcDbEntity
  8
AM_5
100
AcDbLine
 10
2118.39270986209
 20
378.7473506551743
 30
0.0
 11
2203.39270986209
 21
378.7473506551743
 31
0.0
  0
SOLID
  5
66D9
330
66D5
100
AcDbEntity
  8
AM_5
100
AcDbTrace
 10
2118.39270986209
 20
379.4973506551743
 30
0.0
 11
2118.39270986209
 21
377.9973506551743
 31
0.0
 12
2113.89270986209
 22
378.7473506551743
 32
0.0
 13
2113.89270986209
 23
378.7473506551743
 33
0.0
  0
SOLID
  5
66DA
330
66D5
100
AcDbEntity
  8
AM_5
100
AcDbTrace
 10
2203.39270986209
 20
379.4973506551743
 30
0.0
 11
2203.39270986209
 21
377.9973506551743
 31
0.0
 12
2207.89270986209
 22
378.7473506551743
 32
0.0
 13
2207.89270986209
 23
378.7473506551743
 33
0.0
  0
MTEXT
  5
66DB
330
66D5
100
AcDbEntity
  8
AM_5
100
AcDbMText
 10
2160.89270986209
 20
382.4223506551744
 30
0.0
 40
5.25
 41
0.0
 71
     5
 72
     1
  1
L1
 73
     1
 44
1.0
1001
ACAD
1000
MTEXTBEGIN
1070
    73
1070
     1
1070
    44
1040
1.0
1070
    74
1070
     0
1000
MTEXTEND
  0
POINT
  5
66DC
330
66D5
100
AcDbEntity
  8
Defpoints
 62
     0
100
AcDbPoint
 10
2113.89270986209
 20
363.7473506551746
 30
0.0
  0
POINT
  5
66DD
330
66D5
100
AcDbEntity
  8
Defpoints
 62
     0
100
AcDbPoint
 10
2207.89270986209
 20
363.7473506551743
 30
0.0
  0
POINT
  5
66DE
330
66D5
100
AcDbEntity
  8
Defpoints
 62
     0
100
AcDbPoint
 10
2207.89270986209
 20
378.7473506551743
 30
0.0
  0
ENDBLK
  5
66E0
330
66D5
100
AcDbEntity
  8
0
100
AcDbBlockEnd
  0
BLOCK
  5
66F4
330
66EA
100
AcDbEntity
  8
0
100
AcDbBlockBegin
  2
*D22
 70
     1
 10
0.0
 20
0.0
 30
0.0
  3
*D22
  1

  0
LINE
  5
66EB
330
66EA
100
AcDbEntity
  8
AM_5
100
AcDbLine
 10
2112.39270986209
 20
363.7473506551743
 30
0.0
 11
2084.64270986209
 21
363.7473506551743
 31
0.0
  0
LINE
  5
66EC
330
66EA
100
AcDbEntity
  8
AM_5
100
AcDbLine
 10
2112.39270986209
 20
332.7473506551746
 30
0.0
 11
2084.64270986209
 21
332.7473506551746
 31
0.0
  0
LINE
  5
66ED
330
66EA
100
AcDbEntity
  8
AM_5
100
AcDbLine
 10
2086.89270986209
 20
359.2473506551743
 30
0.0
 11
2086.89270986209
 21
337.2473506551746
 31
0.0
  0
SOLID
  5
66EE
330
66EA
100
AcDbEntity
  8
AM_5
100
AcDbTrace
 10
2086.14270986209
 20
359.2473506551743
 30
0.0
 11
2087.64270986209
 21
359.2473506551743
 31
0.0
 12
2086.89270986209
 22
363.7473506551743
 32
0.0
 13
2086.89270986209
 23
363.7473506551743
 33
0.0
  0
SOLID
  5
66EF
330
66EA
100
AcDbEntity
  8
AM_5
100
AcDbTrace
 10
2086.14270986209
 20
337.2473506551746
 30
0.0
 11
2087.64270986209
 21
337.2473506551746
 31
0.0
 12
2086.89270986209
 22
332.7473506551746
 32
0.0
 13
2086.89270986209
 23
332.7473506551746
 33
0.0
  0
MTEXT
  5
66F0
330
66EA
100
AcDbEntity
  8
AM_5
100
AcDbMText
 10
2083.21770986209
 20
348.2473506551748
 30
0.0
 40
5.25
 41
0.0
 71
     5
 72
     1
  1
31
 11
0.0000000000000001
 21
1.0
 31
0.0
 73
     1
 44
1.0
1001
ACAD
1000
MTEXTBEGIN
1070
    73
1070
     1
1070
    44
1040
1.0
1070
    74
1070
     0
1000
MTEXTEND
  0
POINT
  5
66F1
330
66EA
100
AcDbEntity
  8
Defpoints
 62
     0
100
AcDbPoint
 10
2113.89270986209
 20
363.7473506551743
 30
0.0
  0
POINT
  5
66F2
330
66EA
100
AcDbEntity
  8
Defpoints
 62
     0
100
AcDbPoint
 10
2113.89270986209
 20
332.7473506551746
 30
0.0
  0
POINT
  5
66F3
330
66EA
100
AcDbEntity
  8
Defpoints
 62
     0
100
AcDbPoint
 10
2086.89270986209
 20
332.7473506551746
 30
0.0
  0
ENDBLK
  5
66F5
330
66EA
100
AcDbEntity
  8
0
100
AcDbBlockEnd
  0
BLOCK
  5
6700
330
66F6
100
AcDbEntity
  8
0
100
AcDbBlockBegin
  2
*D23
 70
     1
 10
0.0
 20
0.0
 30
0.0
  3
*D23
  1

  0
LINE
  5
66F7
330
66F6
100
AcDbEntity
  8
AM_5
100
AcDbLine
 10
2113.89270986209
 20
331.2473506551743
 30
0.0
 11
2113.89270986209
 21
314.9973506551743
 31
0.0
  0
LINE
  5
66F8
330
66F6
100
AcDbEntity
  8
AM_5
100
AcDbLine
 10
2127.89270986209
 20
332.7473506551744
 30
0.0
 11
2127.89270986209
 21
314.9973506551743
 31
0.0
  0
LINE
  5
66F9
330
66F6
100
AcDbEntity
  8
AM_5
100
AcDbLine
 10
2118.39270986209
 20
317.2473506551743
 30
0.0
 11
2123.39270986209
 21
317.2473506551743
 31
0.0
  0
SOLID
  5
66FA
330
66F6
100
AcDbEntity
  8
AM_5
100
AcDbTrace
 10
2118.39270986209
 20
317.9973506551743
 30
0.0
 11
2118.39270986209
 21
316.4973506551743
 31
0.0
 12
2113.89270986209
 22
317.2473506551743
 32
0.0
 13
2113.89270986209
 23
317.2473506551743
 33
0.0
  0
SOLID
  5
66FB
330
66F6
100
AcDbEntity
  8
AM_5
100
AcDbTrace
 10
2123.39270986209
 20
317.9973506551743
 30
0.0
 11
2123.39270986209
 21
316.4973506551743
 31
0.0
 12
2127.89270986209
 22
317.2473506551743
 32
0.0
 13
2127.89270986209
 23
317.2473506551743
 33
0.0
  0
MTEXT
  5
66FC
330
66F6
100
AcDbEntity
  8
AM_5
100
AcDbMText
 10
2120.89270986209
 20
320.9223506551743
 30
0.0
 40
5.25
 41
0.0
 71
     5
 72
     1
  1
14
 73
     1
 44
1.0
1001
ACAD
1000
MTEXTBEGIN
1070
    73
1070
     1
1070
    44
1040
1.0
1070
    74
1070
     0
1000
MTEXTEND
  0
POINT
  5
66FD
330
66F6
100
AcDbEntity
  8
Defpoints
 62
     0
100
AcDbPoint
 10
2113.89270986209
 20
332.7473506551744
 30
0.0
  0
POINT
  5
66FE
330
66F6
100
AcDbEntity
  8
Defpoints
 62
     0
100
AcDbPoint
 10
2127.89270986209
 20
334.2473506551743
 30
0.0
  0
POINT
  5
66FF
330
66F6
100
AcDbEntity
  8
Defpoints
 62
     0
100
AcDbPoint
 10
2127.89270986209
 20
317.2473506551743
 30
0.0
  0
ENDBLK
  5
6701
330
66F6
100
AcDbEntity
  8
0
100
AcDbBlockEnd
  0
BLOCK
  5
6720
330
6714
100
AcDbEntity
  8
0
100
AcDbBlockBegin
  2
*D24
 70
     1
 10
0.0
 20
0.0
 30
0.0
  3
*D24
  1

  0
LINE
  5
6715
330
6714
100
AcDbEntity
  8
AM_5
100
AcDbLine
 10
2112.39270986209
 20
277.6324308732252
 30
0.0
 11
2096.64270986209
 21
277.6324308732252
 31
0.0
  0
LINE
  5
6716
330
6714
100
AcDbEntity
  8
AM_5
100
AcDbLine
 10
2126.89270986209
 20
268.1324308732255
 30
0.0
 11
2096.64270986209
 21
268.1324308732255
 31
0.0
  0
LINE
  5
6717
330
6714
100
AcDbEntity
  8
AM_5
100
AcDbLine
 10
2098.89270986209
 20
282.1324308732252
 30
0.0
 11
2098.89270986209
 21
286.6324308732252
 31
0.0
  0
LINE
  5
6718
330
6714
100
AcDbEntity
  8
AM_5
100
AcDbLine
 10
2098.89270986209
 20
263.6324308732255
 30
0.0
 11
2098.89270986209
 21
259.1324308732255
 31
0.0
  0
LINE
  5
6719
330
6714
100
AcDbEntity
  8
AM_5
100
AcDbLine
 10
2098.89270986209
 20
277.6324308732252
 30
0.0
 11
2098.89270986209
 21
268.1324308732255
 31
0.0
  0
SOLID
  5
671A
330
6714
100
AcDbEntity
  8
AM_5
100
AcDbTrace
 10
2098.14270986209
 20
282.1324308732252
 30
0.0
 11
2099.64270986209
 21
282.1324308732252
 31
0.0
 12
2098.89270986209
 22
277.6324308732252
 32
0.0
 13
2098.89270986209
 23
277.6324308732252
 33
0.0
  0
SOLID
  5
671B
330
6714
100
AcDbEntity
  8
AM_5
100
AcDbTrace
 10
2098.14270986209
 20
263.6324308732255
 30
0.0
 11
2099.64270986209
 21
263.6324308732255
 31
0.0
 12
2098.89270986209
 22
268.1324308732255
 32
0.0
 13
2098.89270986209
 23
268.1324308732255
 33
0.0
  0
MTEXT
  5
671C
330
6714
100
AcDbEntity
  8
AM_5
100
AcDbMText
 10
2095.21770986209
 20
272.8824308732257
 30
0.0
 40
5.25
 41
0.0
 71
     5
 72
     1
  1
9.5
 11
0.0000000000000001
 21
1.0
 31
0.0
 73
     1
 44
1.0
1001
ACAD
1000
MTEXTBEGIN
1070
    73
1070
     1
1070
    44
1040
1.0
1070
    74
1070
     0
1000
MTEXTEND
  0
POINT
  5
671D
330
6714
100
AcDbEntity
  8
Defpoints
 62
     0
100
AcDbPoint
 10
2113.89270986209
 20
277.6324308732252
 30
0.0
  0
POINT
  5
671E
330
6714
100
AcDbEntity
  8
Defpoints
 62
     0
100
AcDbPoint
 10
2128.39270986209
 20
268.1324308732255
 30
0.0
  0
POINT
  5
671F
330
6714
100
AcDbEntity
  8
Defpoints
 62
     0
100
AcDbPoint
 10
2098.89270986209
 20
268.1324308732255
 30
0.0
  0
ENDBLK
  5
6721
330
6714
100
AcDbEntity
  8
0
100
AcDbBlockEnd
  0
BLOCK
  5
6737
330
672B
100
AcDbEntity
  8
0
100
AcDbBlockBegin
  2
*D25
 70
     1
 10
0.0
 20
0.0
 30
0.0
  3
*D25
  1

  0
LINE
  5
672C
330
672B
100
AcDbEntity
  8
AM_5
100
AcDbLine
 10
2127.74270986209
 20
219.1324308732255
 30
0.0
 11
2096.64270986209
 21
219.1324308732255
 31
0.0
  0
LINE
  5
672D
330
672B
100
AcDbEntity
  8
AM_5
100
AcDbLine
 10
2127.89270986209
 20
213.1324308732257
 30
0.0
 11
2096.64270986209
 21
213.1324308732257
 31
0.0
  0
LINE
  5
672E
330
672B
100
AcDbEntity
  8
AM_5
100
AcDbLine
 10
2098.89270986209
 20
223.6324308732255
 30
0.0
 11
2098.89270986209
 21
228.1324308732255
 31
0.0
  0
LINE
  5
672F
330
672B
100
AcDbEntity
  8
AM_5
100
AcDbLine
 10
2098.89270986209
 20
208.6324308732257
 30
0.0
 11
2098.89270986209
 21
204.1324308732257
 31
0.0
  0
LINE
  5
6730
330
672B
100
AcDbEntity
  8
AM_5
100
AcDbLine
 10
2098.89270986209
 20
219.1324308732255
 30
0.0
 11
2098.89270986209
 21
213.1324308732257
 31
0.0
  0
SOLID
  5
6731
330
672B
100
AcDbEntity
  8
AM_5
100
AcDbTrace
 10
2098.14270986209
 20
223.6324308732255
 30
0.0
 11
2099.64270986209
 21
223.6324308732255
 31
0.0
 12
2098.89270986209
 22
219.1324308732255
 32
0.0
 13
2098.89270986209
 23
219.1324308732255
 33
0.0
  0
SOLID
  5
6732
330
672B
100
AcDbEntity
  8
AM_5
100
AcDbTrace
 10
2098.14270986209
 20
208.6324308732257
 30
0.0
 11
2099.64270986209
 21
208.6324308732257
 31
0.0
 12
2098.89270986209
 22
213.1324308732257
 32
0.0
 13
2098.89270986209
 23
213.1324308732257
 33
0.0
  0
MTEXT
  5
6733
330
672B
100
AcDbEntity
  8
AM_5
100
AcDbMText
 10
2095.21770986209
 20
216.1324308732259
 30
0.0
 40
5.25
 41
0.0
 71
     5
 72
     1
  1
6
 11
0.0000000000000001
 21
1.0
 31
0.0
 73
     1
 44
1.0
1001
ACAD
1000
MTEXTBEGIN
1070
    73
1070
     1
1070
    44
1040
1.0
1070
    74
1070
     0
1000
MTEXTEND
  0
POINT
  5
6734
330
672B
100
AcDbEntity
  8
Defpoints
 62
     0
100
AcDbPoint
 10
2129.242709862089
 20
219.1324308732255
 30
0.0
  0
POINT
  5
6735
330
672B
100
AcDbEntity
  8
Defpoints
 62
     0
100
AcDbPoint
 10
2129.39270986209
 20
213.1324308732257
 30
0.0
  0
POINT
  5
6736
330
672B
100
AcDbEntity
  8
Defpoints
 62
     0
100
AcDbPoint
 10
2098.89270986209
 20
213.1324308732257
 30
0.0
  0
ENDBLK
  5
6738
330
672B
100
AcDbEntity
  8
0
100
AcDbBlockEnd
  0
BLOCK
  5
6803
330
6739
100
AcDbEntity
  8
0
100
AcDbBlockBegin
  2
*D26
 70
     1
 10
0.0
 20
0.0
 30
0.0
  3
*D26
  1

  0
LINE
  5
6908
330
6739
100
AcDbEntity
  8
AM_5
100
AcDbLine
 10
2113.89270986209
 20
212.6324308732252
 30
0.0
 11
2113.89270986209
 21
186.2207254122224
 31
0.0
  0
LINE
  5
6909
330
6739
100
AcDbEntity
  8
AM_5
100
AcDbLine
 10
2124.89270986209
 20
212.6324308732252
 30
0.0
 11
2124.89270986209
 21
186.2207254122224
 31
0.0
  0
LINE
  5
690A
330
6739
100
AcDbEntity
  8
AM_5
100
AcDbLine
 10
2109.39270986209
 20
188.4707254122224
 30
0.0
 11
2104.89270986209
 21
188.4707254122224
 31
0.0
  0
LINE
  5
690B
330
6739
100
AcDbEntity
  8
AM_5
100
AcDbLine
 10
2129.39270986209
 20
188.4707254122224
 30
0.0
 11
2133.89270986209
 21
188.4707254122224
 31
0.0
  0
LINE
  5
690C
330
6739
100
AcDbEntity
  8
AM_5
100
AcDbLine
 10
2113.89270986209
 20
188.4707254122224
 30
0.0
 11
2124.89270986209
 21
188.4707254122224
 31
0.0
  0
SOLID
  5
690D
330
6739
100
AcDbEntity
  8
AM_5
100
AcDbTrace
 10
2109.39270986209
 20
189.2207254122224
 30
0.0
 11
2109.39270986209
 21
187.7207254122224
 31
0.0
 12
2113.89270986209
 22
188.4707254122224
 32
0.0
 13
2113.89270986209
 23
188.4707254122224
 33
0.0
  0
INSERT
  5
690E
330
6739
100
AcDbEntity
  8
AM_5
100
AcDbBlockReference
  2
GENDOT
 10
2124.89270986209
 20
188.4707254122224
 30
0.0
 41
4.5
 42
4.5
 43
4.5
 50
180.0
  0
MTEXT
  5
690F
330
6739
100
AcDbEntity
  8
AM_5
100
AcDbMText
 10
2119.39270986209
 20
192.1457254122224
 30
0.0
 40
5.25
 41
0.0
 71
     5
 72
     1
  1
11
 73
     1
 44
1.0
1001
ACAD
1000
MTEXTBEGIN
1070
    73
1070
     1
1070
    44
1040
1.0
1070
    74
1070
     0
1000
MTEXTEND
  0
POINT
  5
6910
330
6739
100
AcDbEntity
  8
Defpoints
 62
     0
100
AcDbPoint
 10
2113.89270986209
 20
214.1324308732253
 30
0.0
  0
POINT
  5
6911
330
6739
100
AcDbEntity
  8
Defpoints
 62
     0
100
AcDbPoint
 10
2124.89270986209
 20
214.1324308732253
 30
0.0
  0
POINT
  5
6912
330
6739
100
AcDbEntity
  8
Defpoints
 62
     0
100
AcDbPoint
 10
2124.89270986209
 20
188.4707254122224
 30
0.0
  0
ENDBLK
  5
6804
330
6739
100
AcDbEntity
  8
0
100
AcDbBlockEnd
  0
BLOCK
  5
6805
330
6745
100
AcDbEntity
  8
0
100
AcDbBlockBegin
  2
*D27
 70
     1
 10
0.0
 20
0.0
 30
0.0
  3
*D27
  1

  0
LINE
  5
68FD
330
6745
100
AcDbEntity
  8
AM_5
100
AcDbLine
 10
2129.39270986209
 20
211.6324308732255
 30
0.0
 11
2129.39270986209
 21
186.2207254122224
 31
0.0
  0
LINE
  5
68FE
330
6745
100
AcDbEntity
  8
AM_5
100
AcDbLine
 10
2135.39270986209
 20
211.4824308732254
 30
0.0
 11
2135.39270986209
 21
186.2207254122224
 31
0.0
  0
LINE
  5
68FF
330
6745
100
AcDbEntity
  8
AM_5
100
AcDbLine
 10
2124.89270986209
 20
188.4707254122224
 30
0.0
 11
2120.39270986209
 21
188.4707254122224
 31
0.0
  0
LINE
  5
6900
330
6745
100
AcDbEntity
  8
AM_5
100
AcDbLine
 10
2139.89270986209
 20
188.4707254122224
 30
0.0
 11
2144.39270986209
 21
188.4707254122224
 31
0.0
  0
LINE
  5
6901
330
6745
100
AcDbEntity
  8
AM_5
100
AcDbLine
 10
2129.39270986209
 20
188.4707254122224
 30
0.0
 11
2135.39270986209
 21
188.4707254122224
 31
0.0
  0
INSERT
  5
6902
330
6745
100
AcDbEntity
  8
AM_5
100
AcDbBlockReference
  2
GENDOT
 10
2129.39270986209
 20
188.4707254122224
 30
0.0
 41
4.5
 42
4.5
 43
4.5
  0
SOLID
  5
6903
330
6745
100
AcDbEntity
  8
AM_5
100
AcDbTrace
 10
2139.89270986209
 20
189.2207254122224
 30
0.0
 11
2139.89270986209
 21
187.7207254122224
 31
0.0
 12
2135.39270986209
 22
188.4707254122224
 32
0.0
 13
2135.39270986209
 23
188.4707254122224
 33
0.0
  0
MTEXT
  5
6904
330
6745
100
AcDbEntity
  8
AM_5
100
AcDbMText
 10
2132.39270986209
 20
192.1457254122224
 30
0.0
 40
5.25
 41
0.0
 71
     5
 72
     1
  1
6
 73
     1
 44
1.0
1001
ACAD
1000
MTEXTBEGIN
1070
    73
1070
     1
1070
    44
1040
1.0
1070
    74
1070
     0
1000
MTEXTEND
  0
POINT
  5
6905
330
6745
100
AcDbEntity
  8
Defpoints
 62
     0
100
AcDbPoint
 10
2129.39270986209
 20
213.1324308732255
 30
0.0
  0
POINT
  5
6906
330
6745
100
AcDbEntity
  8
Defpoints
 62
     0
100
AcDbPoint
 10
2135.39270986209
 20
212.9824308732254
 30
0.0
  0
POINT
  5
6907
330
6745
100
AcDbEntity
  8
Defpoints
 62
     0
100
AcDbPoint
 10
2135.39270986209
 20
188.4707254122224
 30
0.0
  0
ENDBLK
  5
6806
330
6745
100
AcDbEntity
  8
0
100
AcDbBlockEnd
  0
BLOCK
  5
6764
330
675A
100
AcDbEntity
  8
0
100
AcDbBlockBegin
  2
*D28
 70
     1
 10
0.0
 20
0.0
 30
0.0
  3
*D28
  1

  0
LINE
  5
68EB
330
675A
100
AcDbEntity
  8
AM_5
100
AcDbLine
 10
2206.89270986209
 20
214.6324308732255
 30
0.0
 11
2206.89270986209
 21
186.2207254122224
 31
0.0
  0
LINE
  5
68EC
330
675A
100
AcDbEntity
  8
AM_5
100
AcDbLine
 10
2221.89270986209
 20
211.6324308732255
 30
0.0
 11
2221.89270986209
 21
186.2207254122224
 31
0.0
  0
LINE
  5
68ED
330
675A
100
AcDbEntity
  8
AM_5
100
AcDbLine
 10
2211.39270986209
 20
188.4707254122224
 30
0.0
 11
2217.39270986209
 21
188.4707254122224
 31
0.0
  0
SOLID
  5
68EE
330
675A
100
AcDbEntity
  8
AM_5
100
AcDbTrace
 10
2211.39270986209
 20
189.2207254122224
 30
0.0
 11
2211.39270986209
 21
187.7207254122224
 31
0.0
 12
2206.89270986209
 22
188.4707254122224
 32
0.0
 13
2206.89270986209
 23
188.4707254122224
 33
0.0
  0
SOLID
  5
68EF
330
675A
100
AcDbEntity
  8
AM_5
100
AcDbTrace
 10
2217.39270986209
 20
189.2207254122224
 30
0.0
 11
2217.39270986209
 21
187.7207254122224
 31
0.0
 12
2221.89270986209
 22
188.4707254122224
 32
0.0
 13
2221.89270986209
 23
188.4707254122224
 33
0.0
  0
MTEXT
  5
68F0
330
675A
100
AcDbEntity
  8
AM_5
100
AcDbMText
 10
2214.39270986209
 20
192.1457254122224
 30
0.0
 40
5.25
 41
0.0
 71
     5
 72
     1
  1
15
 73
     1
 44
1.0
1001
ACAD
1000
MTEXTBEGIN
1070
    73
1070
     1
1070
    44
1040
1.0
1070
    74
1070
     0
1000
MTEXTEND
  0
POINT
  5
68F1
330
675A
100
AcDbEntity
  8
Defpoints
 62
     0
100
AcDbPoint
 10
2206.89270986209
 20
216.1324308732255
 30
0.0
  0
POINT
  5
68F2
330
675A
100
AcDbEntity
  8
Defpoints
 62
     0
100
AcDbPoint
 10
2221.89270986209
 20
213.1324308732255
 30
0.0
  0
POINT
  5
68F3
330
675A
100
AcDbEntity
  8
Defpoints
 62
     0
100
AcDbPoint
 10
2221.89270986209
 20
188.4707254122224
 30
0.0
  0
ENDBLK
  5
6765
330
675A
100
AcDbEntity
  8
0
100
AcDbBlockEnd
  0
BLOCK
  5
6770
330
6766
100
AcDbEntity
  8
0
100
AcDbBlockBegin
  2
*D29
 70
     1
 10
0.0
 20
0.0
 30
0.0
  3
*D29
  1

  0
LINE
  5
68E2
330
6766
100
AcDbEntity
  8
AM_5
100
AcDbLine
 10
2113.89270986209
 20
212.6324308732252
 30
0.0
 11
2113.89270986209
 21
174.2207254122224
 31
0.0
  0
LINE
  5
68E3
330
6766
100
AcDbEntity
  8
AM_5
100
AcDbLine
 10
2129.39270986209
 20
211.6324308732255
 30
0.0
 11
2129.39270986209
 21
174.2207254122224
 31
0.0
  0
LINE
  5
68E4
330
6766
100
AcDbEntity
  8
AM_5
100
AcDbLine
 10
2118.39270986209
 20
176.4707254122224
 30
0.0
 11
2124.89270986209
 21
176.4707254122224
 31
0.0
  0
SOLID
  5
68E5
330
6766
100
AcDbEntity
  8
AM_5
100
AcDbTrace
 10
2118.39270986209
 20
177.2207254122224
 30
0.0
 11
2118.39270986209
 21
175.7207254122224
 31
0.0
 12
2113.89270986209
 22
176.4707254122224
 32
0.0
 13
2113.89270986209
 23
176.4707254122224
 33
0.0
  0
SOLID
  5
68E6
330
6766
100
AcDbEntity
  8
AM_5
100
AcDbTrace
 10
2124.89270986209
 20
177.2207254122224
 30
0.0
 11
2124.89270986209
 21
175.7207254122224
 31
0.0
 12
2129.39270986209
 22
176.4707254122224
 32
0.0
 13
2129.39270986209
 23
176.4707254122224
 33
0.0
  0
MTEXT
  5
68E7
330
6766
100
AcDbEntity
  8
AM_5
100
AcDbMText
 10
2121.64270986209
 20
180.1457254122224
 30
0.0
 40
5.25
 41
0.0
 71
     5
 72
     1
  1
15.5
 73
     1
 44
1.0
1001
ACAD
1000
MTEXTBEGIN
1070
    73
1070
     1
1070
    44
1040
1.0
1070
    74
1070
     0
1000
MTEXTEND
  0
POINT
  5
68E8
330
6766
100
AcDbEntity
  8
Defpoints
 62
     0
100
AcDbPoint
 10
2113.89270986209
 20
214.1324308732253
 30
0.0
  0
POINT
  5
68E9
330
6766
100
AcDbEntity
  8
Defpoints
 62
     0
100
AcDbPoint
 10
2129.39270986209
 20
213.1324308732255
 30
0.0
  0
POINT
  5
68EA
330
6766
100
AcDbEntity
  8
Defpoints
 62
     0
100
AcDbPoint
 10
2129.39270986209
 20
176.4707254122224
 30
0.0
  0
ENDBLK
  5
6771
330
6766
100
AcDbEntity
  8
0
100
AcDbBlockEnd
  0
BLOCK
  5
677C
330
6772
100
AcDbEntity
  8
0
100
AcDbBlockBegin
  2
*D30
 70
     1
 10
0.0
 20
0.0
 30
0.0
  3
*D30
  1

  0
LINE
  5
68D9
330
6772
100
AcDbEntity
  8
AM_5
100
AcDbLine
 10
2129.39270986209
 20
211.6324308732255
 30
0.0
 11
2129.39270986209
 21
174.2207254122224
 31
0.0
  0
LINE
  5
68DA
330
6772
100
AcDbEntity
  8
AM_5
100
AcDbLine
 10
2221.89270986209
 20
211.6324308732255
 30
0.0
 11
2221.89270986209
 21
174.2207254122224
 31
0.0
  0
LINE
  5
68DB
330
6772
100
AcDbEntity
  8
AM_5
100
AcDbLine
 10
2133.89270986209
 20
176.4707254122224
 30
0.0
 11
2217.39270986209
 21
176.4707254122224
 31
0.0
  0
SOLID
  5
68DC
330
6772
100
AcDbEntity
  8
AM_5
100
AcDbTrace
 10
2133.89270986209
 20
177.2207254122224
 30
0.0
 11
2133.89270986209
 21
175.7207254122224
 31
0.0
 12
2129.39270986209
 22
176.4707254122224
 32
0.0
 13
2129.39270986209
 23
176.4707254122224
 33
0.0
  0
SOLID
  5
68DD
330
6772
100
AcDbEntity
  8
AM_5
100
AcDbTrace
 10
2217.39270986209
 20
177.2207254122224
 30
0.0
 11
2217.39270986209
 21
175.7207254122224
 31
0.0
 12
2221.89270986209
 22
176.4707254122224
 32
0.0
 13
2221.89270986209
 23
176.4707254122224
 33
0.0
  0
MTEXT
  5
68DE
330
6772
100
AcDbEntity
  8
AM_5
100
AcDbMText
 10
2175.64270986209
 20
180.1462421445059
 30
0.0
 40
5.25
 41
0.0
 71
     5
 72
     1
  1
52.5+stroke
 73
     1
 44
1.0
1001
ACAD
1000
MTEXTBEGIN
1070
    73
1070
     1
1070
    44
1040
1.0
1070
    74
1070
     0
1000
MTEXTEND
  0
POINT
  5
68DF
330
6772
100
AcDbEntity
  8
Defpoints
 62
     0
100
AcDbPoint
 10
2129.39270986209
 20
213.1324308732255
 30
0.0
  0
POINT
  5
68E0
330
6772
100
AcDbEntity
  8
Defpoints
 62
     0
100
AcDbPoint
 10
2221.89270986209
 20
213.1324308732255
 30
0.0
  0
POINT
  5
68E1
330
6772
100
AcDbEntity
  8
Defpoints
 62
     0
100
AcDbPoint
 10
2221.89270986209
 20
176.4707254122224
 30
0.0
  0
ENDBLK
  5
677D
330
6772
100
AcDbEntity
  8
0
100
AcDbBlockEnd
  0
BLOCK
  5
6788
330
677E
100
AcDbEntity
  8
0
100
AcDbBlockBegin
  2
*D31
 70
     1
 10
0.0
 20
0.0
 30
0.0
  3
*D31
  1

  0
LINE
  5
68D0
330
677E
100
AcDbEntity
  8
AM_5
100
AcDbLine
 10
2113.89270986209
 20
212.6324308732252
 30
0.0
 11
2113.89270986209
 21
162.2207254122224
 31
0.0
  0
LINE
  5
68D1
330
677E
100
AcDbEntity
  8
AM_5
100
AcDbLine
 10
2221.89270986209
 20
211.6324308732255
 30
0.0
 11
2221.89270986209
 21
162.2207254122224
 31
0.0
  0
LINE
  5
68D2
330
677E
100
AcDbEntity
  8
AM_5
100
AcDbLine
 10
2118.39270986209
 20
164.4707254122224
 30
0.0
 11
2217.39270986209
 21
164.4707254122224
 31
0.0
  0
SOLID
  5
68D3
330
677E
100
AcDbEntity
  8
AM_5
100
AcDbTrace
 10
2118.39270986209
 20
165.2207254122224
 30
0.0
 11
2118.39270986209
 21
163.7207254122224
 31
0.0
 12
2113.89270986209
 22
164.4707254122224
 32
0.0
 13
2113.89270986209
 23
164.4707254122224
 33
0.0
  0
SOLID
  5
68D4
330
677E
100
AcDbEntity
  8
AM_5
100
AcDbTrace
 10
2217.39270986209
 20
165.2207254122224
 30
0.0
 11
2217.39270986209
 21
163.7207254122224
 31
0.0
 12
2221.89270986209
 22
164.4707254122224
 32
0.0
 13
2221.89270986209
 23
164.4707254122224
 33
0.0
  0
MTEXT
  5
68D5
330
677E
100
AcDbEntity
  8
AM_5
100
AcDbMText
 10
2167.89270986209
 20
168.1457254122224
 30
0.0
 40
5.25
 41
0.0
 71
     5
 72
     1
  1
68+stroke
 73
     1
 44
1.0
1001
ACAD
1000
MTEXTBEGIN
1070
    73
1070
     1
1070
    44
1040
1.0
1070
    74
1070
     0
1000
MTEXTEND
  0
POINT
  5
68D6
330
677E
100
AcDbEntity
  8
Defpoints
 62
     0
100
AcDbPoint
 10
2113.89270986209
 20
214.1324308732253
 30
0.0
  0
POINT
  5
68D7
330
677E
100
AcDbEntity
  8
Defpoints
 62
     0
100
AcDbPoint
 10
2221.89270986209
 20
213.1324308732255
 30
0.0
  0
POINT
  5
68D8
330
677E
100
AcDbEntity
  8
Defpoints
 62
     0
100
AcDbPoint
 10
2221.89270986209
 20
164.4707254122224
 30
0.0
  0
ENDBLK
  5
6789
330
677E
100
AcDbEntity
  8
0
100
AcDbBlockEnd
  0
BLOCK
  5
6794
330
678A
100
AcDbEntity
  8
0
100
AcDbBlockBegin
  2
*D32
 70
     1
 10
0.0
 20
0.0
 30
0.0
  3
*D32
  1

  0
LINE
  5
68B5
330
678A
100
AcDbEntity
  8
AM_5
100
AcDbLine
 10
2129.39270986209
 20
120.2497417496292
 30
0.0
 11
2129.39270986209
 21
135.9997417496292
 31
0.0
  0
LINE
  5
68B6
330
678A
100
AcDbEntity
  8
AM_5
100
AcDbLine
 10
2144.39270986209
 20
118.2497417496293
 30
0.0
 11
2144.39270986209
 21
135.9997417496292
 31
0.0
  0
LINE
  5
68B7
330
678A
100
AcDbEntity
  8
AM_5
100
AcDbLine
 10
2133.89270986209
 20
133.7497417496292
 30
0.0
 11
2139.89270986209
 21
133.7497417496292
 31
0.0
  0
SOLID
  5
68B8
330
678A
100
AcDbEntity
  8
AM_5
100
AcDbTrace
 10
2133.89270986209
 20
134.4997417496292
 30
0.0
 11
2133.89270986209
 21
132.9997417496292
 31
0.0
 12
2129.39270986209
 22
133.7497417496292
 32
0.0
 13
2129.39270986209
 23
133.7497417496292
 33
0.0
  0
SOLID
  5
68B9
330
678A
100
AcDbEntity
  8
AM_5
100
AcDbTrace
 10
2139.89270986209
 20
134.4997417496292
 30
0.0
 11
2139.89270986209
 21
132.9997417496292
 31
0.0
 12
2144.39270986209
 22
133.7497417496292
 32
0.0
 13
2144.39270986209
 23
133.7497417496292
 33
0.0
  0
MTEXT
  5
68BA
330
678A
100
AcDbEntity
  8
AM_5
100
AcDbMText
 10
2136.89270986209
 20
137.4247417496293
 30
0.0
 40
5.25
 41
0.0
 71
     5
 72
     1
  1
15
 73
     1
 44
1.0
1001
ACAD
1000
MTEXTBEGIN
1070
    73
1070
     1
1070
    44
1040
1.0
1070
    74
1070
     0
1000
MTEXTEND
  0
POINT
  5
68BB
330
678A
100
AcDbEntity
  8
Defpoints
 62
     0
100
AcDbPoint
 10
2129.39270986209
 20
118.7497417496292
 30
0.0
  0
POINT
  5
68BC
330
678A
100
AcDbEntity
  8
Defpoints
 62
     0
100
AcDbPoint
 10
2144.39270986209
 20
116.7497417496292
 30
0.0
  0
POINT
  5
68BD
330
678A
100
AcDbEntity
  8
Defpoints
 62
     0
100
AcDbPoint
 10
2144.39270986209
 20
133.7497417496292
 30
0.0
  0
ENDBLK
  5
6795
330
678A
100
AcDbEntity
  8
0
100
AcDbBlockEnd
  0
BLOCK
  5
67BD
330
67B1
100
AcDbEntity
  8
0
100
AcDbBlockBegin
  2
*D33
 70
     1
 10
0.0
 20
0.0
 30
0.0
  3
*D33
  1

  0
LINE
  5
67B2
330
67B1
100
AcDbEntity
  8
AM_5
100
AcDbLine
 10
2212.39270986209
 20
220.1324308732255
 30
0.0
 11
2239.14270986209
 21
220.1324308732255
 31
0.0
  0
LINE
  5
67B3
330
67B1
100
AcDbEntity
  8
AM_5
100
AcDbLine
 10
2223.39270986209
 20
213.1324308732255
 30
0.0
 11
2239.14270986209
 21
213.1324308732255
 31
0.0
  0
LINE
  5
67B4
330
67B1
100
AcDbEntity
  8
AM_5
100
AcDbLine
 10
2236.89270986209
 20
224.6324308732255
 30
0.0
 11
2236.89270986209
 21
229.1324308732255
 31
0.0
  0
LINE
  5
67B5
330
67B1
100
AcDbEntity
  8
AM_5
100
AcDbLine
 10
2236.89270986209
 20
208.6324308732255
 30
0.0
 11
2236.89270986209
 21
204.1324308732255
 31
0.0
  0
LINE
  5
67B6
330
67B1
100
AcDbEntity
  8
AM_5
100
AcDbLine
 10
2236.89270986209
 20
220.1324308732255
 30
0.0
 11
2236.89270986209
 21
213.1324308732255
 31
0.0
  0
SOLID
  5
67B7
330
67B1
100
AcDbEntity
  8
AM_5
100
AcDbTrace
 10
2236.14270986209
 20
224.6324308732255
 30
0.0
 11
2237.64270986209
 21
224.6324308732255
 31
0.0
 12
2236.89270986209
 22
220.1324308732255
 32
0.0
 13
2236.89270986209
 23
220.1324308732255
 33
0.0
  0
SOLID
  5
67B8
330
67B1
100
AcDbEntity
  8
AM_5
100
AcDbTrace
 10
2236.14270986209
 20
208.6324308732255
 30
0.0
 11
2237.64270986209
 21
208.6324308732255
 31
0.0
 12
2236.89270986209
 22
213.1324308732255
 32
0.0
 13
2236.89270986209
 23
213.1324308732255
 33
0.0
  0
MTEXT
  5
67B9
330
67B1
100
AcDbEntity
  8
AM_5
100
AcDbMText
 10
2233.21770986209
 20
216.6324308732258
 30
0.0
 40
5.25
 41
0.0
 71
     5
 72
     1
  1
7
 11
0.0000000000000001
 21
1.0
 31
0.0
 73
     1
 44
1.0
1001
ACAD
1000
MTEXTBEGIN
1070
    73
1070
     1
1070
    44
1040
1.0
1070
    74
1070
     0
1000
MTEXTEND
  0
POINT
  5
67BA
330
67B1
100
AcDbEntity
  8
Defpoints
 62
     0
100
AcDbPoint
 10
2210.89270986209
 20
220.1324308732255
 30
0.0
  0
POINT
  5
67BB
330
67B1
100
AcDbEntity
  8
Defpoints
 62
     0
100
AcDbPoint
 10
2221.89270986209
 20
213.1324308732255
 30
0.0
  0
POINT
  5
67BC
330
67B1
100
AcDbEntity
  8
Defpoints
 62
     0
100
AcDbPoint
 10
2236.89270986209
 20
213.1324308732255
 30
0.0
  0
ENDBLK
  5
67BE
330
67B1
100
AcDbEntity
  8
0
100
AcDbBlockEnd
  0
BLOCK
  5
67CA
330
67BF
100
AcDbEntity
  8
0
100
AcDbBlockBegin
  2
*D34
 70
     1
 10
0.0
 20
0.0
 30
0.0
  3
*D34
  1

  0
LINE
  5
6836
330
67BF
100
AcDbEntity
  8
AM_5
100
AcDbLine
 10
2320.13554708812
 20
266.8324308732258
 30
0.0
 11
2320.13554708812
 21
294.8824308732252
 31
0.0
  0
LINE
  5
6837
330
67BF
100
AcDbEntity
  8
AM_5
100
AcDbLine
 10
2332.13554708812
 20
266.8324308732258
 30
0.0
 11
2332.13554708812
 21
294.8824308732252
 31
0.0
  0
LINE
  5
6838
330
67BF
100
AcDbEntity
  8
AM_5
100
AcDbLine
 10
2324.63554708812
 20
292.6324308732252
 30
0.0
 11
2327.63554708812
 21
292.6324308732252
 31
0.0
  0
LINE
  5
6839
330
67BF
100
AcDbEntity
  8
AM_5
100
AcDbLine
 10
2332.13554708812
 20
292.6324308732252
 30
0.0
 11
2395.416136482705
 21
292.6324308732252
 31
0.0
  0
SOLID
  5
683A
330
67BF
100
AcDbEntity
  8
AM_5
100
AcDbTrace
 10
2324.63554708812
 20
293.3824308732253
 30
0.0
 11
2324.63554708812
 21
291.8824308732252
 31
0.0
 12
2320.13554708812
 22
292.6324308732252
 32
0.0
 13
2320.13554708812
 23
292.6324308732252
 33
0.0
  0
SOLID
  5
683B
330
67BF
100
AcDbEntity
  8
AM_5
100
AcDbTrace
 10
2327.63554708812
 20
293.3824308732253
 30
0.0
 11
2327.63554708812
 21
291.8824308732252
 31
0.0
 12
2332.13554708812
 22
292.6324308732252
 32
0.0
 13
2332.13554708812
 23
292.6324308732252
 33
0.0
  0
MTEXT
  5
683C
330
67BF
100
AcDbEntity
  8
AM_5
100
AcDbMText
 10
2366.025841785412
 20
297.0593372831163
 30
0.0
 40
5.25
 41
0.0
 71
     5
 72
     1
  1
guied rail width=12
 73
     1
 44
1.0
1001
ACAD
1000
MTEXTBEGIN
1070
    73
1070
     1
1070
    44
1040
1.0
1070
    74
1070
     0
1000
MTEXTEND
  0
POINT
  5
683D
330
67BF
100
AcDbEntity
  8
Defpoints
 62
     0
100
AcDbPoint
 10
2320.13554708812
 20
265.3324308732257
 30
0.0
  0
POINT
  5
683E
330
67BF
100
AcDbEntity
  8
Defpoints
 62
     0
100
AcDbPoint
 10
2332.13554708812
 20
265.3324308732257
 30
0.0
  0
POINT
  5
683F
330
67BF
100
AcDbEntity
  8
Defpoints
 62
     0
100
AcDbPoint
 10
2332.13554708812
 20
292.6324308732252
 30
0.0
  0
ENDBLK
  5
67CB
330
67BF
100
AcDbEntity
  8
0
100
AcDbBlockEnd
  0
BLOCK
  5
67E1
330
67D5
100
AcDbEntity
  8
0
100
AcDbBlockBegin
  2
*D35
 70
     1
 10
0.0
 20
0.0
 30
0.0
  3
*D35
  1

  0
LINE
  5
67D6
330
67D5
100
AcDbEntity
  8
AM_5
100
AcDbLine
 10
2310.63554708812
 20
219.1324308732255
 30
0.0
 11
2292.88554708812
 21
219.1324308732255
 31
0.0
  0
LINE
  5
67D7
330
67D5
100
AcDbEntity
  8
AM_5
100
AcDbLine
 10
2308.63554708812
 20
213.1324308732255
 30
0.0
 11
2292.88554708812
 21
213.1324308732255
 31
0.0
  0
LINE
  5
67D8
330
67D5
100
AcDbEntity
  8
AM_5
100
AcDbLine
 10
2295.13554708812
 20
223.6324308732255
 30
0.0
 11
2295.13554708812
 21
228.1324308732255
 31
0.0
  0
LINE
  5
67D9
330
67D5
100
AcDbEntity
  8
AM_5
100
AcDbLine
 10
2295.13554708812
 20
208.6324308732255
 30
0.0
 11
2295.13554708812
 21
204.1324308732255
 31
0.0
  0
LINE
  5
67DA
330
67D5
100
AcDbEntity
  8
AM_5
100
AcDbLine
 10
2295.13554708812
 20
219.1324308732255
 30
0.0
 11
2295.13554708812
 21
213.1324308732255
 31
0.0
  0
SOLID
  5
67DB
330
67D5
100
AcDbEntity
  8
AM_5
100
AcDbTrace
 10
2294.38554708812
 20
223.6324308732255
 30
0.0
 11
2295.88554708812
 21
223.6324308732255
 31
0.0
 12
2295.13554708812
 22
219.1324308732255
 32
0.0
 13
2295.13554708812
 23
219.1324308732255
 33
0.0
  0
SOLID
  5
67DC
330
67D5
100
AcDbEntity
  8
AM_5
100
AcDbTrace
 10
2294.38554708812
 20
208.6324308732255
 30
0.0
 11
2295.88554708812
 21
208.6324308732255
 31
0.0
 12
2295.13554708812
 22
213.1324308732255
 32
0.0
 13
2295.13554708812
 23
213.1324308732255
 33
0.0
  0
MTEXT
  5
67DD
330
67D5
100
AcDbEntity
  8
AM_5
100
AcDbMText
 10
2291.46054708812
 20
216.1324308732258
 30
0.0
 40
5.25
 41
0.0
 71
     5
 72
     1
  1
6
 11
0.0000000000000001
 21
1.0
 31
0.0
 73
     1
 44
1.0
1001
ACAD
1000
MTEXTBEGIN
1070
    73
1070
     1
1070
    44
1040
1.0
1070
    74
1070
     0
1000
MTEXTEND
  0
POINT
  5
67DE
330
67D5
100
AcDbEntity
  8
Defpoints
 62
     0
100
AcDbPoint
 10
2312.13554708812
 20
219.1324308732255
 30
0.0
  0
POINT
  5
67DF
330
67D5
100
AcDbEntity
  8
Defpoints
 62
     0
100
AcDbPoint
 10
2310.13554708812
 20
213.1324308732255
 30
0.0
  0
POINT
  5
67E0
330
67D5
100
AcDbEntity
  8
Defpoints
 62
     0
100
AcDbPoint
 10
2295.13554708812
 20
213.1324308732255
 30
0.0
  0
ENDBLK
  5
67E2
330
67D5
100
AcDbEntity
  8
0
100
AcDbBlockEnd
  0
BLOCK
  5
6801
330
67F5
100
AcDbEntity
  8
0
100
AcDbBlockBegin
  2
*D36
 70
     1
 10
0.0
 20
0.0
 30
0.0
  3
*D36
  1

  0
LINE
  5
67F6
330
67F5
100
AcDbEntity
  8
AM_5
100
AcDbLine
 10
2332.68554708812
 20
220.1324308732255
 30
0.0
 11
2359.38554708812
 21
220.1324308732255
 31
0.0
  0
LINE
  5
67F7
330
67F5
100
AcDbEntity
  8
AM_5
100
AcDbLine
 10
2343.63554708812
 20
213.1324308732255
 30
0.0
 11
2359.38554708812
 21
213.1324308732255
 31
0.0
  0
LINE
  5
67F8
330
67F5
100
AcDbEntity
  8
AM_5
100
AcDbLine
 10
2357.13554708812
 20
224.6324308732255
 30
0.0
 11
2357.13554708812
 21
229.1324308732255
 31
0.0
  0
LINE
  5
67F9
330
67F5
100
AcDbEntity
  8
AM_5
100
AcDbLine
 10
2357.13554708812
 20
208.6324308732255
 30
0.0
 11
2357.13554708812
 21
204.1324308732255
 31
0.0
  0
LINE
  5
67FA
330
67F5
100
AcDbEntity
  8
AM_5
100
AcDbLine
 10
2357.13554708812
 20
220.1324308732255
 30
0.0
 11
2357.13554708812
 21
213.1324308732255
 31
0.0
  0
SOLID
  5
67FB
330
67F5
100
AcDbEntity
  8
AM_5
100
AcDbTrace
 10
2356.38554708812
 20
224.6324308732255
 30
0.0
 11
2357.88554708812
 21
224.6324308732255
 31
0.0
 12
2357.13554708812
 22
220.1324308732255
 32
0.0
 13
2357.13554708812
 23
220.1324308732255
 33
0.0
  0
SOLID
  5
67FC
330
67F5
100
AcDbEntity
  8
AM_5
100
AcDbTrace
 10
2356.38554708812
 20
208.6324308732255
 30
0.0
 11
2357.88554708812
 21
208.6324308732255
 31
0.0
 12
2357.13554708812
 22
213.1324308732255
 32
0.0
 13
2357.13554708812
 23
213.1324308732255
 33
0.0
  0
MTEXT
  5
67FD
330
67F5
100
AcDbEntity
  8
AM_5
100
AcDbMText
 10
2353.46054708812
 20
216.6324308732258
 30
0.0
 40
5.25
 41
0.0
 71
     5
 72
     1
  1
7
 11
0.0000000000000001
 21
1.0
 31
0.0
 73
     1
 44
1.0
1001
ACAD
1000
MTEXTBEGIN
1070
    73
1070
     1
1070
    44
1040
1.0
1070
    74
1070
     0
1000
MTEXTEND
  0
POINT
  5
67FE
330
67F5
100
AcDbEntity
  8
Defpoints
 62
     0
100
AcDbPoint
 10
2331.18554708812
 20
220.1324308732255
 30
0.0
  0
POINT
  5
67FF
330
67F5
100
AcDbEntity
  8
Defpoints
 62
     0
100
AcDbPoint
 10
2342.13554708812
 20
213.1324308732255
 30
0.0
  0
POINT
  5
6800
330
67F5
100
AcDbEntity
  8
Defpoints
 62
     0
100
AcDbPoint
 10
2357.13554708812
 20
213.1324308732255
 30
0.0
  0
ENDBLK
  5
6802
330
67F5
100
AcDbEntity
  8
0
100
AcDbBlockEnd
  0
BLOCK
  5
6921
330
691A
100
AcDbEntity
  8
0
100
AcDbBlockBegin
  2
A$C3CDC37D5
 70
     0
 10
0.0
 20
0.0
 30
0.0
  3
A$C3CDC37D5
  1

  0
LINE
  5
691B
330
691A
100
AcDbEntity
  8
AM_7
  6
ACISOTGB
 62
     2
100
AcDbLine
 10
0.0
 20
66.881721946862
 30
0.0
 11
0.0
 21
-12.17169391359635
 31
0.0
1001
GENIUS_GENOBJ-N-CEN_13
1002
{
1000
OWNER
1000
GEN
1002
}
1001
GENIUS_GENODEF_13
1002
{
1000
HIER
1070
     0
1002
}
1002
{
1000
MANEDIT
1070
     0
1002
}
1002
{
1000
NOSEL
1070
     0
1002
}
1002
{
1000
BEHIND
1070
     0
1002
}
1002
{
1000
OTHER
1070
     0
1002
}
1002
{
1000
REACTOR
1002
}
1001
GENIUS_GENCEN_19
1002
{
1040
3.0
1002
}
  0
LINE
  5
691C
330
691A
100
AcDbEntity
  8
AM_5
 62
     5
100
AcDbLine
 10
14.89642901022307
 20
-9.382438973160191
 30
0.0
 11
4.84323839999979
 21
-9.382438973160162
 31
0.0
  0
TRACE
  5
691D
330
691A
100
AcDbEntity
  8
AM_5
 62
     5
370
    35
100
AcDbTrace
 10
4.84323839999979
 20
-8.744814544233889
 30
0.0
 11
4.84323839999979
 21
-10.02006340208643
 31
0.0
 12
0.0
 22
-9.382438973160191
 32
0.0
 13
0.0
 23
-9.382438973160191
 33
0.0
  0
MTEXT
  5
691E
330
691A
100
AcDbEntity
  8
AM_5
 62
     5
100
AcDbMText
 10
6.16005572908125
 20
-7.484084736828634
 30
0.0
 40
4.843238399999999
 41
0.0
 71
     7
 72
     5
  1
SL
  7
ACISOTS
 73
     1
 44
1.0
1001
ACAD
1000
MTEXTBEGIN
1070
    73
1070
     1
1070
    44
1040
1.0
1070
    74
1070
     0
1000
MTEXTEND
  0
ENDBLK
  5
6922
330
691A
100
AcDbEntity
  8
0
100
AcDbBlockEnd
  0
BLOCK
  5
6962
330
695D
100
AcDbEntity
  8
0
100
AcDbBlockBegin
  2
*S38
 70
     1
 10
0.0
 20
0.0
 30
0.0
  3
*S38
  1

  0
LINE
  5
695E
330
695D
100
AcDbEntity
  8
AM_5
 62
     5
100
AcDbLine
 10
2240.788366970587
 20
319.2948082454571
 30
0.0
 11
2180.274270428748
 21
319.2948082454571
 31
0.0
  0
LINE
  5
695F
330
695D
100
AcDbEntity
  8
AM_5
 62
     5
100
AcDbLine
 10
2180.274270428748
 20
319.2948082454571
 30
0.0
 11
2172.510208120824
 21
332.0515614963254
 31
0.0
  0
TRACE
  5
6960
330
695D
100
AcDbEntity
  8
AM_5
 62
     5
370
    35
100
AcDbTrace
 10
2173.100628196122
 20
332.4109051445337
 30
0.0
 11
2171.919788045526
 21
331.6922178481171
 31
0.0
 12
2169.780722114886
 22
336.5362472315122
 32
0.0
 13
2169.780722114886
 23
336.5362472315122
 33
0.0
  0
MTEXT
  5
6961
330
695D
100
AcDbEntity
  8
AM_5
 62
     5
100
AcDbMText
 10
2240.788366970587
 20
331.2998327569915
 30
0.0
 40
5.25
 41
0.0
 71
     7
 72
     5
  1

  7
ACISOTS
 73
     1
 44
1.0
1001
ACAD
1000
MTEXTBEGIN
1070
    73
1070
     1
1070
    44
1040
1.0
1070
    74
1070
     0
1000
MTEXTEND
  0
ENDBLK
  5
6963
330
695D
100
AcDbEntity
  8
0
100
AcDbBlockEnd
  0
BLOCK
  5
696A
330
6965
100
AcDbEntity
  8
0
100
AcDbBlockBegin
  2
*S39
 70
     1
 10
0.0
 20
0.0
 30
0.0
  3
*S39
  1

  0
LINE
  5
6966
330
6965
100
AcDbEntity
  8
AM_5
 62
     5
100
AcDbLine
 10
2070.319118661179
 20
286.6746562142974
 30
0.0
 11
2012.878669495826
 21
286.6746562142974
 31
0.0
  0
LINE
  5
6967
330
6965
100
AcDbEntity
  8
AM_5
 62
     5
100
AcDbLine
 10
2012.878669495826
 20
286.6746562142974
 30
0.0
 11
2017.132242304683
 21
260.3825963694538
 31
0.0
  0
TRACE
  5
6968
330
6965
100
AcDbEntity
  8
AM_5
 62
     5
370
    35
100
AcDbTrace
 10
2016.44993809894
 20
260.2722120696293
 30
0.0
 11
2017.814546510425
 21
260.4929806692783
 31
0.0
 12
2017.970694307795
 22
255.1999813694296
 32
0.0
 13
2017.970694307795
 23
255.1999813694296
 33
0.0
  0
MTEXT
  5
6969
330
6965
100
AcDbEntity
  8
AM_5
 62
     5
100
AcDbMText
 10
2070.319118661179
 20
302.9899523155608
 30
0.0
 40
5.25
 41
0.0
 71
     7
 72
     5
  1

  7
ACISOTS
 73
     1
 44
1.0
1001
ACAD
1000
MTEXTBEGIN
1070
    73
1070
     1
1070
    44
1040
1.0
1070
    74
1070
     0
1000
MTEXTEND
  0
ENDBLK
  5
696B
330
6965
100
AcDbEntity
  8
0
100
AcDbBlockEnd
  0
BLOCK
  5
6972
330
696D
100
AcDbEntity
  8
0
100
AcDbBlockBegin
  2
*S40
 70
     1
 10
0.0
 20
0.0
 30
0.0
  3
*S40
  1

  0
LINE
  5
696E
330
696D
100
AcDbEntity
  8
AM_5
 62
     5
100
AcDbLine
 10
2206.947871831228
 20
298.1958662870942
 30
0.0
 11
2146.848160201294
 21
298.1958662870942
 31
0.0
  0
LINE
  5
696F
330
696D
100
AcDbEntity
  8
AM_5
 62
     5
100
AcDbLine
 10
2146.848160201294
 20
298.1958662870942
 30
0.0
 11
2139.342128992558
 21
261.7498748815208
 31
0.0
  0
TRACE
  5
6970
330
696D
100
AcDbEntity
  8
AM_5
 62
     5
370
    35
100
AcDbTrace
 10
2138.665161144297
 20
261.8892960249822
 30
0.0
 11
2140.019096840818
 21
261.6104537380593
 31
0.0
 12
2138.283120263984
 22
256.6077935409734
 32
0.0
 13
2138.283120263984
 23
256.6077935409734
 33
0.0
  0
MTEXT
  5
6971
330
696D
100
AcDbEntity
  8
AM_5
 62
     5
100
AcDbMText
 10
2206.947871831228
 20
314.5111623883575
 30
0.0
 40
5.25
 41
0.0
 71
     7
 72
     5
  1

  7
ACISOTS
 73
     1
 44
1.0
1001
ACAD
1000
MTEXTBEGIN
1070
    73
1070
     1
1070
    44
1040
1.0
1070
    74
1070
     0
1000
MTEXTEND
  0
ENDBLK
  5
6973
330
696D
100
AcDbEntity
  8
0
100
AcDbBlockEnd
  0
BLOCK
  5
697A
330
6975
100
AcDbEntity
  8
0
100
AcDbBlockBegin
  2
*S41
 70
     1
 10
0.0
 20
0.0
 30
0.0
  3
*S41
  1

  0
LINE
  5
6976
330
6975
100
AcDbEntity
  8
AM_5
 62
     5
100
AcDbLine
 10
2270.684307775879
 20
286.7693834887212
 30
0.0
 11
2221.70908083383
 21
286.7693834887212
 31
0.0
  0
LINE
  5
6977
330
6975
100
AcDbEntity
  8
AM_5
 62
     5
100
AcDbLine
 10
2221.70908083383
 20
286.7693834887212
 30
0.0
 11
2210.597592510896
 21
258.7797554681233
 31
0.0
  0
TRACE
  5
6978
330
6975
100
AcDbEntity
  8
AM_5
 62
     5
370
    35
100
AcDbTrace
 10
2209.95518656308
 20
259.0347815864584
 30
0.0
 11
2211.239998458712
 21
258.5247293497881
 31
0.0
 12
2208.660476815056
 22
253.9001978261917
 32
0.0
 13
2208.660476815056
 23
253.9001978261917
 33
0.0
  0
MTEXT
  5
6979
330
6975
100
AcDbEntity
  8
AM_5
 62
     5
100
AcDbMText
 10
2270.684307775879
 20
303.2012780792533
 30
0.0
 40
5.25
 41
0.0
 71
     7
 72
     5
  1

  7
ACISOTS
 73
     1
 44
1.0
1001
ACAD
1000
MTEXTBEGIN
1070
    73
1070
     1
1070
    44
1040
1.0
1070
    74
1070
     0
1000
MTEXTEND
  0
ENDBLK
  5
697B
330
6975
100
AcDbEntity
  8
0
100
AcDbBlockEnd
  0
BLOCK
  5
6982
330
697D
100
AcDbEntity
  8
0
100
AcDbBlockBegin
  2
*S42
 70
     1
 10
0.0
 20
0.0
 30
0.0
  3
*S42
  1

  0
LINE
  5
697E
330
697D
100
AcDbEntity
  8
AM_5
 62
     5
100
AcDbLine
 10
2244.323804122599
 20
263.3456431247811
 30
0.0
 11
2302.142812796811
 21
263.3456431247811
 31
0.0
  0
LINE
  5
697F
330
697D
100
AcDbEntity
  8
AM_5
 62
     5
100
AcDbLine
 10
2302.142812796811
 20
263.3456431247811
 30
0.0
 11
2310.029611942931
 21
257.871341795855
 31
0.0
  0
TRACE
  5
6980
330
697D
100
AcDbEntity
  8
AM_5
 62
     5
370
    35
100
AcDbTrace
 10
2309.635496630408
 20
257.303541792986
 30
0.0
 11
2310.423727255452
 21
258.4391417987239
 31
0.0
 12
2314.34248116917
 22
254.8777387765231
 32
0.0
 13
2314.34248116917
 23
254.8777387765231
 33
0.0
  0
MTEXT
  5
6981
330
697D
100
AcDbEntity
  8
AM_5
 62
     5
100
AcDbMText
 10
2244.323804122599
 20
277.4585997102087
 30
0.0
 40
5.25
 41
0.0
 71
     7
 72
     5
  1

  7
ACISOTS
210
0.0
220
0.0
230
-1.0
 11
-1.0
 21
0.0
 31
0.0
 73
     1
 44
1.0
1001
ACAD
1000
MTEXTBEGIN
1070
    73
1070
     1
1070
    44
1040
1.0
1070
    74
1070
     0
1000
MTEXTEND
  0
ENDBLK
  5
6983
330
697D
100
AcDbEntity
  8
0
100
AcDbBlockEnd
  0
BLOCK
  5
698A
330
6985
100
AcDbEntity
  8
0
100
AcDbBlockBegin
  2
*S43
 70
     1
 10
0.0
 20
0.0
 30
0.0
  3
*S43
  1

  0
LINE
  5
6986
330
6985
100
AcDbEntity
  8
AM_5
 62
     5
100
AcDbLine
 10
2381.146334594696
 20
269.8565752083642
 30
0.0
 11
2352.219596317953
 21
269.8565752083642
 31
0.0
  0
LINE
  5
6987
330
6985
100
AcDbEntity
  8
AM_5
 62
     5
100
AcDbLine
 10
2352.219596317953
 20
269.8565752083642
 30
0.0
 11
2332.292663512388
 21
256.7804948974654
 31
0.0
  0
TRACE
  5
6988
330
6985
100
AcDbEntity
  8
AM_5
 62
     5
370
    35
100
AcDbTrace
 10
2331.913465210853
 20
257.3583637155679
 30
0.0
 11
2332.671861813922
 21
256.202626079363
 31
0.0
 12
2327.903314041087
 22
253.9001978261917
 32
0.0
 13
2327.903314041087
 23
253.9001978261917
 33
0.0
  0
MTEXT
  5
6989
330
6985
100
AcDbEntity
  8
AM_5
 62
     5
100
AcDbMText
 10
2381.146334594696
 20
283.2356628715073
 30
0.0
 40
5.25
 41
0.0
 71
     7
 72
     5
  1

  7
ACISOTS
 73
     1
 44
1.0
1001
ACAD
1000
MTEXTBEGIN
1070
    73
1070
     1
1070
    44
1040
1.0
1070
    74
1070
     0
1000
MTEXTEND
  0
ENDBLK
  5
698B
330
6985
100
AcDbEntity
  8
0
100
AcDbBlockEnd
  0
BLOCK
  5
6992
330
698D
100
AcDbEntity
  8
0
100
AcDbBlockBegin
  2
*S44
 70
     1
 10
0.0
 20
0.0
 30
0.0
  3
*S44
  1

  0
LINE
  5
698E
330
698D
100
AcDbEntity
  8
AM_5
 62
     5
100
AcDbLine
 10
2261.914025688561
 20
127.9253779228492
 30
0.0
 11
2207.674710348335
 21
127.9253779228492
 31
0.0
  0
LINE
  5
698F
330
698D
100
AcDbEntity
  8
AM_5
 62
     5
100
AcDbLine
 10
2207.674710348335
 20
127.9253779228492
 30
0.0
 11
2199.580858743927
 21
118.500408081271
 31
0.0
  0
TRACE
  5
6990
330
698D
100
AcDbEntity
  8
AM_5
 62
     5
370
    35
100
AcDbTrace
 10
2199.056500095425
 20
118.9507099029005
 30
0.0
 11
2200.105217392429
 21
118.0501062596414
 31
0.0
 12
2196.160476815056
 22
114.5175087025955
 32
0.0
 13
2196.160476815056
 23
114.5175087025955
 33
0.0
  0
MTEXT
  5
6991
330
698D
100
AcDbEntity
  8
AM_5
 62
     5
100
AcDbMText
 10
2261.914025688561
 20
146.0869760275176
 30
0.0
 40
5.25
 41
0.0
 71
     7
 72
     5
  1

  7
ACISOTS
 73
     1
 44
1.0
1001
ACAD
1000
MTEXTBEGIN
1070
    73
1070
     1
1070
    44
1040
1.0
1070
    74
1070
     0
1000
MTEXTEND
  0
ENDBLK
  5
6993
330
698D
100
AcDbEntity
  8
0
100
AcDbBlockEnd
  0
ENDSEC
  0
SECTION
  2
ENTITIES
  0
TEXT
  5
464D
330
1F
100
AcDbEntity
  8
LOGO
 62
     7
100
AcDbText
 10
2023.035780317301
 20
40.3605334531523
 30
0.0
 40
5.199247058823528
  1
Order example:
 41
0.8
  7
CHINESET
100
AcDbText
  0
TEXT
  5
464E
330
1F
100
AcDbEntity
  8
LOGO
 62
     7
100
AcDbText
 10
2023.968568235678
 20
47.67999679413605
 30
0.0
 40
7.798870588235293
  1
訂購代號：
  7
CHINESET
100
AcDbText
  0
LINE
  5
464F
330
1F
100
AcDbEntity
  8
LOGO
 62
     4
100
AcDbLine
 10
2020.77668983541
 20
18.44894298988987
 30
0.0
 11
2020.77668983541
 21
57.44329593106659
 31
0.0
  0
TEXT
  5
4650
330
1F
100
AcDbEntity
  8
LOGO
  6
Continuous
100
AcDbText
 10
1948.9960602243
 20
26.1093247775745
 30
0.0
 40
5.84915294117647
  1
金器工業股份有限公司
  7
CHINESET
100
AcDbText
  0
TEXT
  5
4651
330
1F
100
AcDbEntity
  8
LOGO
  6
Continuous
100
AcDbText
 10
1938.252323469201
 20
20.2590258610129
 30
0.0
 40
3.899435294117646
  1
MINDMAN INDUSTRIAL CO., LTD.
 41
0.85
  7
CHINESET
100
AcDbText
  0
LINE
  5
4652
330
1F
100
AcDbEntity
  8
LOGO
 62
     4
100
AcDbLine
 10
2020.77668983541
 20
49.64442534283124
 30
0.0
 11
1963.584972188351
 21
49.64442534283124
 31
0.0
  0
LINE
  5
4653
330
1F
100
AcDbEntity
  8
LOGO
 62
     4
100
AcDbLine
 10
2020.77668983541
 20
41.84555475459589
 30
0.0
 11
1963.584972188351
 21
41.84555475459589
 31
0.0
  0
LINE
  5
4654
330
1F
100
AcDbEntity
  8
LOGO
 62
     4
100
AcDbLine
 10
2020.77668983541
 20
34.04668416636101
 30
0.0
 11
1934.989113364822
 21
34.04668416636101
 31
0.0
  0
LINE
  5
4655
330
1F
100
AcDbEntity
  8
LOGO
 62
     4
100
AcDbLine
 10
1963.584972188351
 20
34.04668416636101
 30
0.0
 11
1963.584972188351
 21
57.44329593106659
 31
0.0
  0
TEXT
  5
4656
330
1F
100
AcDbEntity
  8
LOGO
100
AcDbText
 10
2002.67281179216
 20
35.99640181341918
 30
0.0
 40
3.899435294117646
  1
mm
  7
CHINESET
 72
     1
 11
2007.500684061068
 21
37.946119460478
 31
0.0
100
AcDbText
 73
     2
  0
TEXT
  5
4657
330
1F
100
AcDbEntity
  8
LOGO
100
AcDbText
 10
2000.630250447622
 20
51.59414298988987
 30
0.0
 40
3.899435294117646
  1
1 : 1
  7
CHINESET
 72
     1
 11
2007.500684061068
 21
53.54386063694869
 31
0.0
100
AcDbText
 73
     2
  0
LINE
  5
4658
330
1F
100
AcDbEntity
  8
LOGO
 62
     4
100
AcDbLine
 10
1994.780454541292
 20
34.04668416636101
 30
0.0
 11
1994.780454541292
 21
57.44329593106659
 31
0.0
  0
TEXT
  5
4659
330
1F
100
AcDbEntity
  8
LOGO
100
AcDbText
 10
1966.80026548667
 20
51.59606200332201
 30
255.5625652320971
 40
3.899435294117646
  1
比例 Scale:
 41
0.9
  7
CHINESET
 72
     4
 11
1979.182713364821
 21
53.54386063694869
 31
255.5625652320971
100
AcDbText
  0
TEXT
  5
465A
330
1F
100
AcDbEntity
  8
LOGO
100
AcDbText
 10
1966.575699793393
 20
43.85012420225666
 30
255.5625652320971
 40
3.899435294117646
  1
投影  View:
 41
0.9
  7
CHINESET
 72
     4
 11
1979.182713364821
 21
45.74499004871334
 31
255.5625652320971
100
AcDbText
  0
TEXT
  5
465B
330
1F
100
AcDbEntity
  8
LOGO
100
AcDbText
 10
1966.956939226166
 20
35.99640181341918
 30
255.5625652320971
 40
3.899435294117646
  1
單位  Unit:
 41
0.9
  7
CHINESET
 72
     4
 11
1979.182713364821
 21
37.946119460478
 31
255.5625652320971
100
AcDbText
  0
LWPOLYLINE
  5
465C
330
1F
100
AcDbEntity
  8
LOGO
 62
     4
100
AcDbPolyline
 90
        4
 70
     1
 43
0.0
 10
1934.989113364822
 20
57.44329593106659
 10
2438.352050852716
 20
57.44329593106659
 10
2438.352050852716
 20
408.4489429898892
 10
1934.989113364822
 20
408.4489429898892
1001
GENIUS_GENREC_14
1002
{
1000
PYDIR
1011
1934.989113364822
1021
408.4489429898892
1031
0.0
1002
}
1002
{
1000
PXDIR
1011
2438.352050852716
1021
57.44329593106659
1031
0.0
1002
}
1002
{
1000
PORI
1011
1934.989113364822
1021
57.44329593106659
1031
0.0
1002
}
1002
{
1000
PINS
1011
1934.989113364822
1021
57.44329593106659
1031
0.0
1002
}
1002
{
1000
PINS2
1011
2438.352050852716
1021
408.4489429898892
1031
0.0
1002
}
1002
{
1000
C
1070
     1
1002
}
1001
GENIUS_GENODEF_13
1002
{
1000
HIER
1070
     0
1002
}
1002
{
1000
MANEDIT
1070
     0
1002
}
1002
{
1000
NOSEL
1070
     0
1002
}
1002
{
1000
BEHIND
1070
     0
1002
}
1002
{
1000
OTHER
1070
     0
1002
}
1002
{
1000
REACTOR
1002
}
1001
GENIUS_GENOBJ-N-REC_13
1002
{
1000
OWNER
1000
GEN
1002
}
  0
SOLID
  5
465D
330
1F
100
AcDbEntity
  8
LOGO
 62
     5
100
AcDbTrace
 10
1939.034840063645
 20
40.52894030192414
 30
0.0
 11
1940.720853563639
 21
40.52894030192369
 31
0.0
 12
1947.755599546374
 22
56.51699935359508
 32
0.0
 13
1949.441613046369
 23
56.5169993535942
 33
0.0
  0
SOLID
  5
465E
330
1F
100
AcDbEntity
  8
LOGO
 62
     5
100
AcDbTrace
 10
1941.418514322259
 20
40.52894030192414
 30
0.0
 11
1943.104527822254
 21
40.52894030192414
 31
0.0
 12
1949.441613046369
 22
55.23795462946077
 32
0.0
 13
1947.755599546374
 23
49.05590512948136
 33
0.0
  0
SOLID
  5
465F
330
1F
100
AcDbEntity
  8
LOGO
 62
     2
100
AcDbTrace
 10
1940.720853563639
 20
40.52894030192369
 30
0.0
 11
1941.418514322259
 21
40.52894030192414
 31
0.0
 12
1949.441613046369
 22
56.5169993535942
 32
0.0
 13
1950.139273804989
 23
56.5169993535942
 33
0.0
  0
SOLID
  5
4660
330
1F
100
AcDbEntity
  8
LOGO
 62
     5
100
AcDbTrace
 10
1936.331746961997
 20
34.71510064677159
 30
0.0
 11
1936.913130927514
 21
34.71510064677159
 31
0.0
 12
1938.550353425716
 22
37.62202047434764
 32
0.0
 13
1939.13173739123
 23
37.62202047434764
 33
0.0
  0
SOLID
  5
4661
330
1F
100
AcDbEntity
  8
LOGO
 62
     5
100
AcDbTrace
 10
1938.550353425716
 20
37.62202047434764
 30
0.0
 11
1939.13173739123
 21
37.62202047434764
 31
0.0
 12
1938.550353425716
 22
34.71510064677159
 32
0.0
 13
1939.13173739123
 23
34.71510064677159
 33
0.0
  0
SOLID
  5
4662
330
1F
100
AcDbEntity
  8
LOGO
 62
     5
100
AcDbTrace
 10
1938.550353425716
 20
34.71510064677159
 30
0.0
 11
1939.13173739123
 21
34.71510064677159
 31
0.0
 12
1940.768959889435
 22
37.62202047434764
 32
0.0
 13
1941.350343854951
 23
37.62202047434764
 33
0.0
  0
SOLID
  5
4663
330
1F
100
AcDbEntity
  8
LOGO
 62
     5
100
AcDbTrace
 10
1940.768959889435
 20
37.62202047434764
 30
0.0
 11
1941.350343854951
 21
37.62202047434764
 31
0.0
 12
1940.768959889435
 22
34.71510064677159
 32
0.0
 13
1941.350343854951
 23
34.71510064677159
 33
0.0
  0
POLYLINE
  5
4664
330
1F
100
AcDbEntity
  8
LOGO
 62
     5
100
AcDb2dPolyline
 66
     1
 10
0.0
 20
0.0
 30
0.0
 40
0.5823156705882352
 41
0.5823156705882352
  0
VERTEX
  5
4665
330
4664
100
AcDbEntity
  8
LOGO
 62
     5
100
AcDbVertex
100
AcDb2dVertex
 10
1960.256752362564
 20
36.45925254331713
 30
0.0
 42
1.0
  0
VERTEX
  5
4666
330
4664
100
AcDbEntity
  8
LOGO
 62
     5
100
AcDbVertex
100
AcDb2dVertex
 10
1958.509805350799
 20
36.45925254331713
 30
0.0
 42
1.0
  0
SEQEND
  5
4667
330
4664
100
AcDbEntity
  8
LOGO
 62
     5
  0
POLYLINE
  5
4668
330
1F
100
AcDbEntity
  8
LOGO
 62
     5
100
AcDb2dPolyline
 66
     1
 10
0.0
 20
0.0
 30
0.0
 70
     1
  0
VERTEX
  5
4669
330
4668
100
AcDbEntity
  8
LOGO
 62
     5
100
AcDbVertex
100
AcDb2dVertex
 10
1955.216732529418
 20
36.16856056055917
 30
0.0
 42
1.000000057330635
  0
VERTEX
  5
466A
330
4668
100
AcDbEntity
  8
LOGO
 62
     5
100
AcDbVertex
100
AcDb2dVertex
 10
1956.960884425964
 20
36.16856056055917
 30
0.0
 42
1.000000057330635
  0
SEQEND
  5
466B
330
4668
100
AcDbEntity
  8
LOGO
 62
     5
  0
CIRCLE
  5
466C
330
1F
100
AcDbEntity
  8
LOGO
 62
     5
100
AcDbCircle
 10
1956.088808477693
 20
36.16856056055917
 30
0.0
 40
0.8720759482729413
  0
POLYLINE
  5
466D
330
1F
100
AcDbEntity
  8
LOGO
 62
     5
100
AcDb2dPolyline
 66
     1
 10
0.0
 20
0.0
 30
0.0
 70
     1
 40
0.5823156705882352
 41
0.5823156705882352
  0
VERTEX
  5
466E
330
466D
100
AcDbEntity
  8
LOGO
 62
     5
100
AcDbVertex
100
AcDb2dVertex
 10
1954.924177136516
 20
36.16856056055917
 30
0.0
 42
1.0
  0
VERTEX
  5
466F
330
466D
100
AcDbEntity
  8
LOGO
 62
     5
100
AcDbVertex
100
AcDb2dVertex
 10
1957.253439818868
 20
36.16856056055917
 30
0.0
 42
1.0
  0
SEQEND
  5
4670
330
466D
100
AcDbEntity
  8
LOGO
 62
     5
  0
LINE
  5
4671
330
1F
100
AcDbEntity
  8
LOGO
100
AcDbLine
 10
1960.546046787711
 20
34.71510064677159
 30
0.0
 11
1960.546046787711
 21
36.45925254331713
 31
0.0
  0
SOLID
  5
4672
330
1F
100
AcDbEntity
  8
LOGO
 62
     5
100
AcDbTrace
 10
1956.960826287571
 20
37.62202047434764
 30
0.0
 11
1957.542210253084
 21
37.62202047434764
 31
0.0
 12
1956.960826287571
 22
34.71510064677159
 32
0.0
 13
1957.542210253084
 23
34.71510064677159
 33
0.0
  0
SOLID
  5
4673
330
1F
100
AcDbEntity
  8
LOGO
 62
     5
100
AcDbTrace
 10
1958.22051092565
 20
34.71510064677159
 30
0.0
 11
1958.801894891166
 21
34.71510064677159
 31
0.0
 12
1958.22051092565
 22
37.62202047434764
 32
0.0
 13
1958.801894891166
 23
37.62202047434764
 33
0.0
  0
SOLID
  5
4674
330
1F
100
AcDbEntity
  8
LOGO
 62
     5
100
AcDbTrace
 10
1959.964662822197
 20
36.45925254331713
 30
0.0
 11
1960.546046787711
 21
36.45925254331713
 31
0.0
 12
1959.964662822197
 22
34.71510064677159
 32
0.0
 13
1960.546046787711
 23
34.71510064677159
 33
0.0
  0
SOLID
  5
4675
330
1F
100
AcDbEntity
  8
LOGO
 62
     5
100
AcDbTrace
 10
1958.162372529098
 20
55.23795462946077
 30
0.0
 11
1956.476359029105
 21
49.05590512948136
 31
0.0
 12
1958.162372529098
 22
40.52894030192369
 32
0.0
 13
1956.476359029105
 23
40.52894030192369
 33
0.0
  0
SOLID
  5
4676
330
1F
100
AcDbEntity
  8
LOGO
 62
     5
100
AcDbTrace
 10
1958.860033287718
 20
40.52894030192369
 30
0.0
 11
1960.546046787711
 21
40.52894030192369
 31
0.0
 12
1958.860033287718
 22
56.5169993535942
 32
0.0
 13
1960.546046787711
 23
56.51699935359508
 33
0.0
  0
SOLID
  5
4677
330
1F
100
AcDbEntity
  8
LOGO
 62
     2
100
AcDbTrace
 10
1958.162372529098
 20
56.51699935359508
 30
0.0
 11
1958.860033287718
 21
56.5169993535942
 31
0.0
 12
1958.162372529098
 22
40.52894030192369
 32
0.0
 13
1958.860033287718
 23
40.52894030192369
 33
0.0
  0
POLYLINE
  5
4678
330
1F
100
AcDbEntity
  8
LOGO
 62
     5
100
AcDb2dPolyline
 66
     1
 10
0.0
 20
0.0
 30
0.0
 40
0.5823156705882352
 41
0.5823156705882352
  0
VERTEX
  5
4679
330
4678
100
AcDbEntity
  8
LOGO
 62
     5
100
AcDbVertex
100
AcDb2dVertex
 10
1951.923543431247
 20
36.45925254331713
 30
0.0
 42
1.0
  0
VERTEX
  5
467A
330
4678
100
AcDbEntity
  8
LOGO
 62
     5
100
AcDbVertex
100
AcDb2dVertex
 10
1950.176596419482
 20
36.45925254331713
 30
0.0
 42
1.0
  0
SEQEND
  5
467B
330
4678
100
AcDbEntity
  8
LOGO
 62
     5
  0
POLYLINE
  5
467C
330
1F
100
AcDbEntity
  8
LOGO
 62
     5
100
AcDb2dPolyline
 66
     1
 10
0.0
 20
0.0
 30
0.0
 40
0.5823156705882352
 41
0.5823156705882352
  0
VERTEX
  5
467D
330
467C
100
AcDbEntity
  8
LOGO
 62
     5
100
AcDbVertex
100
AcDb2dVertex
 10
1953.667695327791
 20
36.45925254331713
 30
0.0
 42
1.0
  0
VERTEX
  5
467E
330
467C
100
AcDbEntity
  8
LOGO
 62
     5
100
AcDbVertex
100
AcDb2dVertex
 10
1951.920748316027
 20
36.45925254331713
 30
0.0
 42
1.0
  0
SEQEND
  5
467F
330
467C
100
AcDbEntity
  8
LOGO
 62
     5
  0
POLYLINE
  5
4680
330
1F
100
AcDbEntity
  8
LOGO
 62
     5
100
AcDb2dPolyline
 66
     1
 10
0.0
 20
0.0
 30
0.0
 40
0.5823156705882352
 41
0.5823156705882352
  0
VERTEX
  5
4681
330
4680
100
AcDbEntity
  8
LOGO
 62
     5
100
AcDbVertex
100
AcDb2dVertex
 10
1945.334486396475
 20
36.45925254331713
 30
0.0
 42
1.0
  0
VERTEX
  5
4682
330
4680
100
AcDbEntity
  8
LOGO
 62
     5
100
AcDbVertex
100
AcDb2dVertex
 10
1943.587539384711
 20
36.45925254331713
 30
0.0
 42
1.0
  0
SEQEND
  5
4683
330
4680
100
AcDbEntity
  8
LOGO
 62
     5
  0
SOLID
  5
4684
330
1F
100
AcDbEntity
  8
LOGO
 62
     5
100
AcDbTrace
 10
1943.298244959562
 20
37.62202047434764
 30
0.0
 11
1943.879628925077
 21
37.62202047434764
 31
0.0
 12
1943.298244959562
 22
34.71510064677159
 32
0.0
 13
1943.879628925077
 23
34.71510064677159
 33
0.0
  0
SOLID
  5
4685
330
1F
100
AcDbEntity
  8
LOGO
 62
     5
100
AcDbTrace
 10
1945.042396856108
 20
36.45925254331713
 30
0.0
 11
1945.623780821624
 21
36.45925254331713
 31
0.0
 12
1945.042396856108
 22
34.71510064677159
 32
0.0
 13
1945.623780821624
 23
34.71510064677159
 33
0.0
  0
POLYLINE
  5
4686
330
1F
100
AcDbEntity
  8
LOGO
 62
     5
100
AcDb2dPolyline
 66
     1
 10
0.0
 20
0.0
 30
0.0
 70
     1
 40
0.5823156705882352
 41
0.5823156705882352
  0
VERTEX
  5
4687
330
4686
100
AcDbEntity
  8
LOGO
 62
     5
100
AcDbVertex
100
AcDb2dVertex
 10
1946.590968205197
 20
36.16856056055917
 30
0.0
 42
1.0
  0
VERTEX
  5
4688
330
4686
100
AcDbEntity
  8
LOGO
 62
     5
100
AcDbVertex
100
AcDb2dVertex
 10
1948.920230887551
 20
36.16856056055917
 30
0.0
 42
1.0
  0
SEQEND
  5
4689
330
4686
100
AcDbEntity
  8
LOGO
 62
     5
  0
SOLID
  5
468A
330
1F
100
AcDbEntity
  8
LOGO
 62
     5
100
AcDbTrace
 10
1948.627617356252
 20
38.49409642262108
 30
0.0
 11
1949.209001321767
 21
38.49409642262108
 31
0.0
 12
1948.627617356252
 22
34.71510064677159
 32
0.0
 13
1949.209001321767
 23
34.71510064677159
 33
0.0
  0
SOLID
  5
468B
330
1F
100
AcDbEntity
  8
LOGO
 62
     5
100
AcDbTrace
 10
1949.887301994335
 20
37.62202047434764
 30
0.0
 11
1950.468685959849
 21
37.62202047434764
 31
0.0
 12
1949.887301994335
 22
34.71510064677159
 32
0.0
 13
1950.468685959849
 23
34.71510064677159
 33
0.0
  0
SOLID
  5
468C
330
1F
100
AcDbEntity
  8
LOGO
 62
     5
100
AcDbTrace
 10
1951.631453890879
 20
36.45925254331713
 30
0.0
 11
1952.212837856395
 21
36.45925254331713
 31
0.0
 12
1951.631453890879
 22
34.71510064677159
 32
0.0
 13
1952.212837856395
 23
34.71510064677159
 33
0.0
  0
SOLID
  5
468D
330
1F
100
AcDbEntity
  8
LOGO
 62
     5
100
AcDbTrace
 10
1953.375605787425
 20
36.45925254331713
 30
0.0
 11
1953.95698975294
 21
36.45925254331713
 31
0.0
 12
1953.375605787425
 22
34.71510064677071
 32
0.0
 13
1953.95698975294
 23
34.71510064677071
 33
0.0
  0
SOLID
  5
468E
330
1F
100
AcDbEntity
  8
LOGO
 62
     5
100
AcDbTrace
 10
1942.03856032148
 20
38.02898925020853
 30
0.0
 11
1942.619944286997
 21
38.02898925020853
 31
0.0
 12
1942.03856032148
 22
38.49409642262108
 32
0.0
 13
1942.619944286997
 23
38.49409642262108
 33
0.0
  0
SOLID
  5
468F
330
1F
100
AcDbEntity
  8
LOGO
 62
     5
100
AcDbTrace
 10
1942.03856032148
 20
37.62202047434764
 30
0.0
 11
1942.619944286997
 21
37.62202047434764
 31
0.0
 12
1942.03856032148
 22
34.71510064677071
 32
0.0
 13
1942.619944286997
 23
34.71510064677159
 33
0.0
  0
SOLID
  5
4690
330
1F
100
AcDbEntity
  8
LOGO
 62
     5
100
AcDbTrace
 10
1947.755599546374
 20
40.52894030192414
 30
0.0
 11
1949.441613046369
 21
40.52894030192414
 31
0.0
 12
1947.755599546374
 22
49.05590512948136
 32
0.0
 13
1949.441613046369
 23
55.23795462946077
 33
0.0
  0
SOLID
  5
4691
330
1F
100
AcDbEntity
  8
LOGO
 62
     5
100
AcDbTrace
 10
1950.139273804989
 20
56.5169993535942
 30
0.0
 11
1951.825287304982
 21
56.51699935359508
 31
0.0
 12
1950.139273804989
 22
41.80798502605756
 32
0.0
 13
1951.825287304982
 23
47.99003452603698
 33
0.0
  0
SOLID
  5
4692
330
1F
100
AcDbEntity
  8
LOGO
 62
     2
100
AcDbTrace
 10
1949.441613046369
 20
56.5169993535942
 30
0.0
 11
1950.139273804989
 21
56.5169993535942
 31
0.0
 12
1949.441613046369
 22
40.52894030192414
 32
0.0
 13
1950.139273804989
 23
40.52894030192414
 33
0.0
  0
SOLID
  5
4693
330
1F
100
AcDbEntity
  8
LOGO
 62
     5
100
AcDbTrace
 10
1950.139273804989
 20
41.80798502605756
 30
0.0
 11
1951.825287304982
 21
47.99003452603698
 31
0.0
 12
1958.162372529098
 22
56.51699935359508
 32
0.0
 13
1956.476359029105
 23
56.51699935359508
 33
0.0
  0
SOLID
  5
4694
330
1F
100
AcDbEntity
  8
LOGO
 62
     5
100
AcDbTrace
 10
1950.139273804989
 20
40.52894030192414
 30
0.0
 11
1951.825287304982
 21
40.52894030192414
 31
0.0
 12
1958.162372529098
 22
55.23795462946077
 32
0.0
 13
1956.476359029105
 23
49.05590512948136
 33
0.0
  0
SOLID
  5
4695
330
1F
100
AcDbEntity
  8
LOGO
 62
     2
100
AcDbTrace
 10
1949.441613046369
 20
40.52894030192414
 30
0.0
 11
1950.139273804989
 21
40.52894030192414
 31
0.0
 12
1958.162372529098
 22
56.51699935359508
 32
0.0
 13
1958.860033287718
 23
56.5169993535942
 33
0.0
  0
LWPOLYLINE
  5
4696
330
1F
100
AcDbEntity
  8
LOGO
 62
     4
100
AcDbPolyline
 90
        4
 70
     1
 43
0.0
 10
1934.989113364822
 20
57.44329593106659
 10
2438.352050852716
 20
57.44329593106659
 10
2438.352050852716
 20
18.44894298988942
 10
1934.989113364822
 20
18.44894298988942
1001
GENIUS_GENREC_14
1002
{
1000
PYDIR
1011
1934.989113364822
1021
18.44894298988942
1031
0.0
1002
}
1002
{
1000
PXDIR
1011
2438.352050852716
1021
57.44329593106659
1031
0.0
1002
}
1002
{
1000
PORI
1011
1934.989113364822
1021
57.44329593106659
1031
0.0
1002
}
1002
{
1000
PINS
1011
1934.989113364822
1021
57.44329593106659
1031
0.0
1002
}
1002
{
1000
PINS2
1011
2438.352050852716
1021
18.44894298988942
1031
0.0
1002
}
1002
{
1000
C
1070
     1
1002
}
1001
GENIUS_GENOBJ-N-REC_13
1002
{
1000
OWNER
1000
GEN
1002
}
1001
GENIUS_GENODEF_13
1002
{
1000
HIER
1070
     0
1002
}
1002
{
1000
MANEDIT
1070
     0
1002
}
1002
{
1000
NOSEL
1070
     0
1002
}
1002
{
1000
BEHIND
1070
     0
1002
}
1002
{
1000
OTHER
1070
     0
1002
}
1002
{
1000
REACTOR
1002
}
  0
LINE
  5
4697
330
1F
100
AcDbEntity
  8
LOGO
 62
     4
100
AcDbLine
 10
2100.407926942876
 20
35.99640181341995
 30
0.0
 11
2100.407926942876
 21
21.69847240165449
 31
0.0
  0
LINE
  5
4698
330
1F
100
AcDbEntity
  8
LOGO
 62
     4
100
AcDbLine
 10
2074.411691648758
 20
35.99640181341995
 30
0.0
 11
2074.411691648758
 21
21.69847240165449
 31
0.0
  0
LINE
  5
4699
330
1F
100
AcDbEntity
  8
LOGO
 62
     4
100
AcDbLine
 10
2100.407926942876
 20
21.69847240165449
 30
0.0
 11
2074.411691648758
 21
21.69847240165449
 31
0.0
  0
LINE
  5
469A
330
1F
100
AcDbEntity
  8
LOGO
 62
     4
100
AcDbLine
 10
2105.070628017998
 20
53.54386063694869
 30
0.0
 11
2074.411691648758
 21
53.54386063694869
 31
0.0
  0
LINE
  5
469B
330
1F
100
AcDbEntity
  8
LOGO
 62
     4
100
AcDbLine
 10
2105.070628017998
 20
41.84555475459589
 30
0.0
 11
2074.411691648758
 21
41.84555475459589
 31
0.0
  0
LINE
  5
469C
330
1F
100
AcDbEntity
  8
LOGO
 62
     4
100
AcDbLine
 10
2074.411691648758
 20
53.54386063694869
 30
0.0
 11
2074.411691648758
 21
41.84555475459589
 31
0.0
  0
LINE
  5
469D
330
1F
100
AcDbEntity
  8
LOGO
 62
     4
100
AcDbLine
 10
2105.070628017998
 20
53.54386063694869
 30
0.0
 11
2105.070628017998
 21
41.84555475459589
 31
0.0
  0
LINE
  5
469E
330
1F
100
AcDbEntity
  8
LOGO
 62
     4
100
AcDbLine
 10
2088.766159833378
 20
41.84555475459589
 30
0.0
 11
2088.766159833378
 21
35.99640181341995
 31
0.0
  0
TEXT
  5
469F
330
1F
100
AcDbEntity
  8
LOGO
  6
Continuous
 62
     7
100
AcDbText
 10
2076.490297392154
 20
44.28755900461561
 30
0.0
 40
6.825
  1
MCSH
  7
CHINESET
100
AcDbText
  0
LINE
  5
46A0
330
1F
100
AcDbEntity
  8
LOGO
 62
     4
100
AcDbLine
 10
2100.407926942876
 20
35.99640181341995
 30
0.0
 11
2074.411691648758
 21
35.99640181341995
 31
0.0
  0
TEXT
  5
46A1
330
1F
100
AcDbEntity
  8
LOGO
  6
Continuous
100
AcDbText
 10
2082.753801251811
 20
23.71659481866151
 30
255.5625652320971
 40
2.925
  1
Model
 41
0.8
  7
CHINESET
100
AcDbText
  0
TEXT
  5
46A2
330
1F
100
AcDbEntity
  8
LOGO
100
AcDbText
 10
2081.975261337714
 20
29.13891443616987
 30
255.5625652320971
 40
4.875
  1
型號
  7
CHINESET
100
AcDbText
  0
LINE
  5
46A3
330
1F
100
AcDbEntity
  8
LOGO
  6
Continuous
 62
     7
100
AcDbLine
 10
2106.314254618459
 20
47.6532704475679
 30
0.0
 11
2111.479799643891
 21
47.6532704475679
 31
0.0
  0
LINE
  5
46AF
330
1F
100
AcDbEntity
  8
LOGO
 62
     4
100
AcDbLine
 10
2128.202624174351
 20
35.99640181341995
 30
0.0
 11
2128.202624174351
 21
21.69847240165449
 31
0.0
  0
LINE
  5
46B0
330
1F
100
AcDbEntity
  8
LOGO
 62
     4
100
AcDbLine
 10
2107.464776046522
 20
35.99640181341995
 30
0.0
 11
2107.464776046522
 21
21.69847240165449
 31
0.0
  0
LINE
  5
46B1
330
1F
100
AcDbEntity
  8
LOGO
 62
     4
100
AcDbLine
 10
2128.202624174351
 20
21.69847240165449
 30
0.0
 11
2107.464776046522
 21
21.69847240165449
 31
0.0
  0
LINE
  5
46B2
330
1F
100
AcDbEntity
  8
LOGO
 62
     4
100
AcDbLine
 10
2128.664216736284
 20
53.54386063694869
 30
0.0
 11
2113.712724821986
 21
53.54386063694869
 31
0.0
  0
LINE
  5
46B3
330
1F
100
AcDbEntity
  8
LOGO
 62
     4
100
AcDbLine
 10
2128.664216736284
 20
41.84555475459589
 30
0.0
 11
2113.712724821986
 21
41.84555475459589
 31
0.0
  0
LINE
  5
46B4
330
1F
100
AcDbEntity
  8
LOGO
 62
     4
100
AcDbLine
 10
2113.712724821986
 20
53.54386063694869
 30
0.0
 11
2113.712724821986
 21
41.84555475459589
 31
0.0
  0
LINE
  5
46B5
330
1F
100
AcDbEntity
  8
LOGO
 62
     4
100
AcDbLine
 10
2128.664216736284
 20
53.54386063694869
 30
0.0
 11
2128.664216736284
 21
41.84555475459589
 31
0.0
  0
LINE
  5
46B6
330
1F
100
AcDbEntity
  8
LOGO
 62
     4
100
AcDbLine
 10
2121.188470779135
 20
41.84555475459589
 30
0.0
 11
2121.188470779135
 21
35.99640181341995
 31
0.0
  0
TEXT
  5
46B7
330
1F
100
AcDbEntity
  8
LOGO
  6
Continuous
 62
     7
100
AcDbText
 10
2115.409444247271
 20
44.28755900461561
 30
0.0
 40
6.825
  1
20
  7
CHINESET
100
AcDbText
  0
LINE
  5
46B8
330
1F
100
AcDbEntity
  8
LOGO
 62
     4
100
AcDbLine
 10
2128.202624174351
 20
35.99640181341995
 30
0.0
 11
2107.464776046522
 21
35.99640181341995
 31
0.0
  0
LINE
  5
46B9
330
1F
100
AcDbEntity
  8
LOGO
  6
Continuous
 62
     7
100
AcDbLine
 10
2129.975553733495
 20
47.6532704475679
 30
0.0
 11
2135.141098758928
 21
47.6532704475679
 31
0.0
  0
LINE
  5
46BA
330
1F
100
AcDbEntity
  8
LOGO
 62
     4
100
AcDbLine
 10
2155.295507224456
 20
35.99640181341995
 30
0.0
 11
2155.295507224456
 21
21.69847240165449
 31
0.0
  0
LINE
  5
46BB
330
1F
100
AcDbEntity
  8
LOGO
 62
     4
100
AcDbLine
 10
2134.117429228536
 20
35.99640181341995
 30
0.0
 11
2134.117429228536
 21
21.69847240165449
 31
0.0
  0
LINE
  5
46BC
330
1F
100
AcDbEntity
  8
LOGO
 62
     4
100
AcDbLine
 10
2155.295507224456
 20
21.69847240165449
 30
0.0
 11
2134.117429228536
 21
21.69847240165449
 31
0.0
  0
LINE
  5
46BD
330
1F
100
AcDbEntity
  8
LOGO
 62
     4
100
AcDbLine
 10
2152.734953938405
 20
53.54386063694869
 30
0.0
 11
2137.319378767547
 21
53.54386063694869
 31
0.0
  0
LINE
  5
46BE
330
1F
100
AcDbEntity
  8
LOGO
 62
     4
100
AcDbLine
 10
2152.734953938405
 20
41.84555475459589
 30
0.0
 11
2137.319378767547
 21
41.84555475459589
 31
0.0
  0
LINE
  5
46BF
330
1F
100
AcDbEntity
  8
LOGO
 62
     4
100
AcDbLine
 10
2137.319378767547
 20
53.54386063694869
 30
0.0
 11
2137.319378767547
 21
41.84555475459589
 31
0.0
  0
LINE
  5
46C0
330
1F
100
AcDbEntity
  8
LOGO
 62
     4
100
AcDbLine
 10
2152.734953938405
 20
53.54386063694869
 30
0.0
 11
2152.734953938405
 21
41.84555475459589
 31
0.0
  0
LINE
  5
46C1
330
1F
100
AcDbEntity
  8
LOGO
 62
     4
100
AcDbLine
 10
2145.027166352976
 20
41.84555475459589
 30
0.0
 11
2145.027166352976
 21
35.99640181341995
 31
0.0
  0
TEXT
  5
46C2
330
1F
100
AcDbEntity
  8
LOGO
  6
Continuous
 62
     7
100
AcDbText
 10
2143.434723488216
 20
44.28755900461561
 30
0.0
 40
6.825
  1
*
  7
CHINESET
100
AcDbText
  0
LINE
  5
46C3
330
1F
100
AcDbEntity
  8
LOGO
 62
     4
100
AcDbLine
 10
2155.295507224456
 20
35.99640181341995
 30
0.0
 11
2134.117429228536
 21
35.99640181341995
 31
0.0
  0
TEXT
  5
46C6
330
1F
100
AcDbEntity
  8
LOGO
  6
Continuous
100
AcDbText
 10
2109.587258764168
 20
23.71659481866151
 30
255.5625652320971
 40
2.925
  1
Tube I.D.
 41
0.8
  7
CHINESET
100
AcDbText
  0
TEXT
  5
46C7
330
1F
100
AcDbEntity
  8
LOGO
100
AcDbText
 10
2111.511411785615
 20
29.13891443616987
 30
255.5625652320971
 40
4.875
  1
內徑
  7
CHINESET
100
AcDbText
  0
TEXT
  5
46C8
330
1F
100
AcDbEntity
  8
LOGO
  6
Continuous
100
AcDbText
 10
2139.698928271688
 20
23.71659481866151
 30
255.5625652320971
 40
2.925
  1
Stroke
 41
0.8
  7
CHINESET
100
AcDbText
  0
TEXT
  5
46C9
330
1F
100
AcDbEntity
  8
LOGO
100
AcDbText
 10
2139.496118386968
 20
29.13891443616987
 30
255.5625652320971
 40
4.875
  1
行程
  7
CHINESET
100
AcDbText
  0
TEXT
  5
46D6
330
1F
100
AcDbEntity
  8
LOGO
100
AcDbText
 10
2022.843434238324
 20
20.52342717553651
 30
0.0
 40
3.9
  1
10701172
 41
0.7
  7
CHINESET
 72
     1
 11
2032.073434238323
 21
20.52342717553651
 31
0.0
100
AcDbText
  0
LINE
  5
46D7
330
1F
100
AcDbEntity
  8
LOGO
 62
     4
100
AcDbLine
 10
2044.176689835409
 20
26.2478135781261
 30
0.0
 11
2044.17668983541
 21
18.44894298989031
 31
0.0
  0
LINE
  5
46D8
330
1F
100
AcDbEntity
  8
LOGO
 62
     4
100
AcDbLine
 10
2044.176689835409
 20
26.2478135781261
 30
0.0
 11
2020.77668983541
 21
26.2478135781261
 31
0.0
  0
CIRCLE
  5
46D9
330
1F
100
AcDbEntity
  8
LOGO
  6
Continuous
100
AcDbCircle
 10
2002.000746722007
 20
45.75333096934317
 30
0.0
 40
2.264103914125231
  0
CIRCLE
  5
46DA
330
1F
100
AcDbEntity
  8
LOGO
  6
Continuous
100
AcDbCircle
 10
2002.000746722007
 20
45.75333096934317
 30
0.0
 40
1.326564463897914
  0
LINE
  5
46DB
330
1F
100
AcDbEntity
  8
LOGO
100
AcDbLine
 10
2016.228638433879
 20
43.4892270552175
 30
0.0
 11
2016.228638433879
 21
48.01743488346883
 31
0.0
  0
LINE
  5
46DC
330
1F
100
AcDbEntity
  8
LOGO
100
AcDbLine
 10
2009.130802628862
 20
44.42676650544548
 30
0.0
 11
2009.130802628862
 21
47.07989543324129
 31
0.0
  0
LINE
  5
46DD
330
1F
100
AcDbEntity
  8
LOGO
  6
Continuous
100
AcDbLine
 10
2009.130802628862
 20
47.07989543324129
 30
0.0
 11
2016.228638433879
 21
48.01743488346883
 31
0.0
  0
LINE
  5
46DE
330
1F
100
AcDbEntity
  8
LOGO
  6
Continuous
100
AcDbLine
 10
2009.130802628862
 20
44.42676650544548
 30
0.0
 11
2016.228638433879
 21
43.4892270552175
 31
0.0
  0
LINE
  5
46DF
330
1F
100
AcDbEntity
  8
LOGO
  6
AM_ISO08W050x2
 48
0.3
100
AcDbLine
 10
1998.879645574099
 20
45.75333096934317
 30
0.0
 11
2005.121847869915
 21
45.75333096934317
 31
0.0
1001
GENIUS_GENOREF_13
1005
46E4
  0
LINE
  5
46E0
330
1F
100
AcDbEntity
  8
LOGO
  6
AM_ISO08W050x2
 48
0.3
100
AcDbLine
 10
2002.000746722007
 20
42.63222982143505
 30
0.0
 11
2002.000746722007
 21
48.87443211725126
 31
0.0
1001
GENIUS_GENOREF_13
1005
46E3
  0
LINE
  5
46E1
330
1F
100
AcDbEntity
  8
LOGO
  6
CENTER
 48
0.5
100
AcDbLine
 10
2008.563173047885
 20
45.75333096934317
 30
0.0
 11
2016.943367522565
 21
45.75333096934317
 31
0.0
1001
GENIUS_GENOREF_13
1005
46E2
  0
POINT
  5
46E2
330
1F
100
AcDbEntity
  8
0
 60
     1
100
AcDbPoint
 10
-1205.831745533407
 20
-871.4447039898473
 30
0.0
1001
GENIUS_GENOBJ-N-CRS_13
1002
{
1000
OWNER
1000
GEN
1002
}
1001
GENIUS_GENOLIS_13
1002
{
1000
ENT
1005
0
1005
0
1005
0
1005
46E1
1002
}
1001
GENIUS_GENOENT_13
1002
{
1000
MYREF
1005
46E2
1002
}
1002
{
1000
GRP
1005
0
1002
}
1001
GENIUS_GENODEF_13
1002
{
1000
HIER
1070
    10
1002
}
1002
{
1000
MANEDIT
1070
     1
1002
}
1002
{
1000
NOSEL
1070
     0
1002
}
1002
{
1000
BEHIND
1070
     0
1002
}
1002
{
1000
OTHER
1070
     0
1002
}
1002
{
1000
REACTOR
1002
}
  0
POINT
  5
46E3
330
1F
100
AcDbEntity
  8
0
 60
     1
100
AcDbPoint
 10
-1217.156330756262
 20
-862.5691175112111
 30
0.0
1001
GENIUS_GENOBJ-N-CRS_13
1002
{
1000
OWNER
1000
GEN
1002
}
1001
GENIUS_GENOLIS_13
1002
{
1000
ENT
1005
0
1005
0
1005
0
1005
46E0
1002
}
1001
GENIUS_GENOENT_13
1002
{
1000
MYREF
1005
46E3
1002
}
1002
{
1000
GRP
1005
0
1002
}
1001
GENIUS_GENODEF_13
1002
{
1000
HIER
1070
    10
1002
}
1002
{
1000
MANEDIT
1070
     1
1002
}
1002
{
1000
NOSEL
1070
     0
1002
}
1002
{
1000
BEHIND
1070
     0
1002
}
1002
{
1000
OTHER
1070
     0
1002
}
1002
{
1000
REACTOR
1002
}
  0
POINT
  5
46E4
330
1F
100
AcDbEntity
  8
0
 60
     1
100
AcDbPoint
 10
-1210.797657058425
 20
-871.4447039898473
 30
0.0
1001
GENIUS_GENOBJ-N-CRS_13
1002
{
1000
OWNER
1000
GEN
1002
}
1001
GENIUS_GENOLIS_13
1002
{
1000
ENT
1005
0
1005
0
1005
0
1005
46DF
1002
}
1001
GENIUS_GENOENT_13
1002
{
1000
MYREF
1005
46E4
1002
}
1002
{
1000
GRP
1005
0
1002
}
1001
GENIUS_GENODEF_13
1002
{
1000
HIER
1070
    10
1002
}
1002
{
1000
MANEDIT
1070
     1
1002
}
1002
{
1000
NOSEL
1070
     0
1002
}
1002
{
1000
BEHIND
1070
     0
1002
}
1002
{
1000
OTHER
1070
     0
1002
}
1002
{
1000
REACTOR
1002
}
  0
ARC
  5
6323
330
1F
100
AcDbEntity
  8
AM_4
100
AcDbCircle
 10
1999.530661397768
 20
219.1324308732252
 30
0.0
 40
2.5
100
AcDbArc
 50
259.9999999999948
 51
189.999999999995
  0
ARC
  5
6324
330
1F
100
AcDbEntity
  8
AM_4
100
AcDbCircle
 10
2019.530661397768
 20
219.1324308732252
 30
0.0
 40
2.5
100
AcDbArc
 50
259.9999999999948
 51
189.999999999995
  0
ARC
  5
6325
330
1F
100
AcDbEntity
  8
AM_4
100
AcDbCircle
 10
1999.530661397768
 20
253.1324308732252
 30
0.0
 40
2.5
100
AcDbArc
 50
259.9999999999948
 51
189.999999999995
  0
ARC
  5
6326
330
1F
100
AcDbEntity
  8
AM_4
100
AcDbCircle
 10
2019.530661397769
 20
253.1324308732252
 30
0.0
 40
2.5
100
AcDbArc
 50
259.9999999999948
 51
189.999999999995
  0
ARC
  5
6327
330
1F
100
AcDbEntity
  8
AM_4
100
AcDbCircle
 10
2135.39270986209
 20
253.1324308732255
 30
0.0
 40
3.0
100
AcDbArc
 50
259.9999999999948
 51
189.999999999995
  0
ARC
  5
6328
330
1F
100
AcDbEntity
  8
AM_4
100
AcDbCircle
 10
2185.39270986209
 20
253.1324308732255
 30
0.0
 40
3.0
100
AcDbArc
 50
259.9999999999948
 51
189.999999999995
  0
ARC
  5
6329
330
1F
100
AcDbEntity
  8
AM_4
100
AcDbCircle
 10
2135.39270986209
 20
219.1324308732255
 30
0.0
 40
3.0
100
AcDbArc
 50
259.9999999999948
 51
189.999999999995
  0
ARC
  5
632A
330
1F
100
AcDbEntity
  8
AM_4
100
AcDbCircle
 10
2127.89270986209
 20
338.2473506551743
 30
0.0
 40
2.5
100
AcDbArc
 50
259.9999999999948
 51
189.999999999995
  0
ARC
  5
632B
330
1F
100
AcDbEntity
  8
AM_4
100
AcDbCircle
 10
2147.89270986209
 20
338.2473506551743
 30
0.0
 40
2.5
100
AcDbArc
 50
259.9999999999948
 51
189.999999999995
  0
ARC
  5
632C
330
1F
100
AcDbEntity
  8
AM_4
100
AcDbCircle
 10
2167.89270986209
 20
338.2473506551743
 30
0.0
 40
2.5
100
AcDbArc
 50
259.9999999999948
 51
189.999999999995
  0
ARC
  5
632D
330
1F
100
AcDbEntity
  8
AM_4
100
AcDbCircle
 10
2127.89270986209
 20
358.2473506551743
 30
0.0
 40
2.5
100
AcDbArc
 50
259.9999999999948
 51
189.999999999995
  0
ARC
  5
632E
330
1F
100
AcDbEntity
  8
AM_4
100
AcDbCircle
 10
2147.89270986209
 20
358.2473506551743
 30
0.0
 40
2.5
100
AcDbArc
 50
259.9999999999948
 51
189.999999999995
  0
ARC
  5
632F
330
1F
100
AcDbEntity
  8
AM_4
100
AcDbCircle
 10
2167.89270986209
 20
358.2473506551743
 30
0.0
 40
2.5
100
AcDbArc
 50
259.9999999999948
 51
189.999999999995
  0
ARC
  5
6330
330
1F
100
AcDbEntity
  8
AM_4
100
AcDbCircle
 10
2194.39270986209
 20
92.74974174962926
 30
0.0
 40
2.5
100
AcDbArc
 50
259.9999999999948
 51
189.999999999995
  0
ARC
  5
6331
330
1F
100
AcDbEntity
  8
AM_4
100
AcDbCircle
 10
2194.39270986209
 20
112.7497417496292
 30
0.0
 40
2.5
100
AcDbArc
 50
259.9999999999948
 51
189.999999999995
  0
ARC
  5
6332
330
1F
100
AcDbEntity
  8
AM_4
100
AcDbCircle
 10
2144.39270986209
 20
92.74974174962926
 30
0.0
 40
2.5
100
AcDbArc
 50
259.9999999999948
 51
189.999999999995
  0
ARC
  5
6333
330
1F
100
AcDbEntity
  8
AM_4
100
AcDbCircle
 10
2144.39270986209
 20
112.7497417496292
 30
0.0
 40
2.5
100
AcDbArc
 50
259.9999999999948
 51
189.999999999995
  0
ARC
  5
6334
330
1F
100
AcDbEntity
  8
AM_4
100
AcDbCircle
 10
2326.13554708812
 20
252.1324308732255
 30
0.0
 40
2.5
100
AcDbArc
 50
259.9999999999948
 51
189.999999999995
  0
ARC
  5
6335
330
1F
100
AcDbEntity
  8
AM_4
100
AcDbCircle
 10
2326.13554708812
 20
220.1324308732255
 30
0.0
 40
2.5
100
AcDbArc
 50
259.9999999999948
 51
189.999999999995
  0
ARC
  5
6336
330
1F
100
AcDbEntity
  8
AM_4
100
AcDbCircle
 10
2336.13554708812
 20
219.1324308732255
 30
0.0
 40
2.5
100
AcDbArc
 50
259.9999999999948
 51
189.999999999995
  0
ARC
  5
6337
330
1F
100
AcDbEntity
  8
AM_4
100
AcDbCircle
 10
2336.13554708812
 20
253.1324308732255
 30
0.0
 40
2.5
100
AcDbArc
 50
259.9999999999948
 51
189.999999999995
  0
ARC
  5
6338
330
1F
100
AcDbEntity
  8
AM_4
100
AcDbCircle
 10
2316.13554708812
 20
219.1324308732255
 30
0.0
 40
2.5
100
AcDbArc
 50
259.9999999999948
 51
189.999999999995
  0
ARC
  5
6339
330
1F
100
AcDbEntity
  8
AM_4
100
AcDbCircle
 10
2316.13554708812
 20
253.1324308732255
 30
0.0
 40
2.5
100
AcDbArc
 50
259.9999999999948
 51
189.999999999995
  0
LINE
  5
633A
330
1F
100
AcDbEntity
  8
AM_VIS
100
AcDbLine
 10
2025.530661397768
 20
240.4324308732256
 30
0.0
 11
2025.030661397769
 21
240.4324308732256
 31
0.0
  0
LINE
  5
633B
330
1F
100
AcDbEntity
  8
AM_VIS
100
AcDbLine
 10
2025.030661397769
 20
243.8324308732255
 30
0.0
 11
2025.530661397768
 21
243.8324308732255
 31
0.0
  0
LINE
  5
633C
330
1F
100
AcDbEntity
  8
AM_VIS
100
AcDbLine
 10
1993.530661397768
 20
243.8324308732255
 30
0.0
 11
1994.030661397768
 21
243.8324308732255
 31
0.0
  0
LINE
  5
633D
330
1F
100
AcDbEntity
  8
AM_VIS
100
AcDbLine
 10
1994.030661397768
 20
240.4324308732256
 30
0.0
 11
1993.530661397768
 21
240.4324308732256
 31
0.0
  0
LINE
  5
633E
330
1F
100
AcDbEntity
  8
AM_VIS
100
AcDbLine
 10
2025.530661397768
 20
240.4324308732256
 30
0.0
 11
2025.530661397768
 21
231.8324308732255
 31
0.0
  0
LINE
  5
633F
330
1F
100
AcDbEntity
  8
AM_VIS
100
AcDbLine
 10
1993.530661397768
 20
231.8324308732255
 30
0.0
 11
1993.530661397768
 21
240.4324308732256
 31
0.0
  0
LINE
  5
6340
330
1F
100
AcDbEntity
  8
AM_VIS
100
AcDbLine
 10
1993.530661397768
 20
243.8324308732255
 30
0.0
 11
1993.530661397768
 21
267.1324308732255
 31
0.0
  0
LINE
  5
6341
330
1F
100
AcDbEntity
  8
AM_VIS
100
AcDbLine
 10
2025.530661397768
 20
228.4324308732256
 30
0.0
 11
2025.030661397769
 21
228.4324308732256
 31
0.0
  0
LINE
  5
6342
330
1F
100
AcDbEntity
  8
AM_VIS
100
AcDbLine
 10
2025.030661397769
 20
231.8324308732255
 30
0.0
 11
2025.530661397768
 21
231.8324308732255
 31
0.0
  0
LINE
  5
6343
330
1F
100
AcDbEntity
  8
AM_VIS
100
AcDbLine
 10
1993.530661397768
 20
231.8324308732255
 30
0.0
 11
1994.030661397768
 21
231.8324308732255
 31
0.0
  0
LINE
  5
6344
330
1F
100
AcDbEntity
  8
AM_VIS
100
AcDbLine
 10
1994.030661397768
 20
228.4324308732256
 30
0.0
 11
1993.530661397768
 21
228.4324308732256
 31
0.0
  0
LINE
  5
6345
330
1F
100
AcDbEntity
  8
AM_VIS
100
AcDbLine
 10
2025.530661397768
 20
228.4324308732256
 30
0.0
 11
2025.530661397768
 21
213.1324308732257
 31
0.0
  0
LINE
  5
6346
330
1F
100
AcDbEntity
  8
AM_VIS
100
AcDbLine
 10
2025.530661397768
 20
267.1324308732255
 30
0.0
 11
2025.530661397768
 21
243.8324308732255
 31
0.0
  0
LINE
  5
6347
330
1F
100
AcDbEntity
  8
AM_VIS
100
AcDbLine
 10
1993.530661397768
 20
213.1324308732257
 30
0.0
 11
1993.530661397768
 21
228.4324308732256
 31
0.0
  0
LINE
  5
6348
330
1F
100
AcDbEntity
  8
AM_VIS
100
AcDbLine
 10
2025.030661397769
 20
267.1324308732255
 30
0.0
 11
2025.530661397768
 21
267.1324308732255
 31
0.0
  0
LINE
  5
6349
102
{ACAD_REACTORS
330
64C3
330
64C7
102
}
330
1F
100
AcDbEntity
  8
AM_VIS
100
AcDbLine
 10
2025.530661397768
 20
213.1324308732255
 30
0.0
 11
1993.530661397768
 21
213.1324308732255
 31
0.0
  0
LINE
  5
634A
330
1F
100
AcDbEntity
  8
AM_VIS
100
AcDbLine
 10
1993.530661397768
 20
267.1324308732255
 30
0.0
 11
1994.030661397768
 21
267.1324308732255
 31
0.0
  0
CIRCLE
  5
634B
330
1F
100
AcDbEntity
  8
AM_VIS
100
AcDbCircle
 10
2009.530661397768
 20
236.1324308732255
 30
0.0
 40
2.5
  0
CIRCLE
  5
634C
330
1F
100
AcDbEntity
  8
AM_VIS
100
AcDbCircle
 10
2009.530661397768
 20
236.1324308732252
 30
0.0
 40
13.0
  0
CIRCLE
  5
634D
330
1F
100
AcDbEntity
  8
AM_VIS
100
AcDbCircle
 10
2019.530661397769
 20
253.1324308732252
 30
0.0
 40
2.049999999999999
  0
CIRCLE
  5
634E
330
1F
100
AcDbEntity
  8
AM_VIS
100
AcDbCircle
 10
1999.530661397768
 20
253.1324308732252
 30
0.0
 40
2.049999999999999
  0
CIRCLE
  5
634F
330
1F
100
AcDbEntity
  8
AM_VIS
100
AcDbCircle
 10
2019.530661397768
 20
219.1324308732252
 30
0.0
 40
2.049999999999999
  0
CIRCLE
  5
6350
330
1F
100
AcDbEntity
  8
AM_VIS
100
AcDbCircle
 10
1999.530661397768
 20
219.1324308732252
 30
0.0
 40
2.049999999999999
  0
LINE
  5
6351
330
1F
100
AcDbEntity
  8
AM_VIS
100
AcDbLine
 10
1994.030661397768
 20
214.1324308732253
 30
0.0
 11
2025.030661397769
 21
214.1324308732253
 31
0.0
  0
LINE
  5
6352
102
{ACAD_REACTORS
330
64C0
102
}
330
1F
100
AcDbEntity
  8
AM_VIS
100
AcDbLine
 10
2025.030661397769
 20
277.6324308732252
 30
0.0
 11
2025.030661397769
 21
214.1324308732253
 31
0.0
  0
LINE
  5
6353
330
1F
100
AcDbEntity
  8
AM_VIS
100
AcDbLine
 10
1994.030661397768
 20
277.6324308732252
 30
0.0
 11
1994.030661397768
 21
214.1324308732253
 31
0.0
  0
LINE
  5
6354
102
{ACAD_REACTORS
330
64BC
330
64C3
102
}
330
1F
100
AcDbEntity
  8
AM_VIS
100
AcDbLine
 10
1994.030661397768
 20
277.6324308732252
 30
0.0
 11
2025.030661397768
 21
277.6324308732252
 31
0.0
  0
ARC
  5
6355
330
1F
100
AcDbEntity
  8
AM_VIS
100
AcDbCircle
 10
2009.530661397768
 20
236.1324308732255
 30
0.0
 40
8.500000000000024
100
AcDbArc
 50
0.0
 51
58.17939801755164
  0
ARC
  5
6356
330
1F
100
AcDbEntity
  8
AM_VIS
100
AcDbCircle
 10
2009.530661397768
 20
236.1324308732255
 30
0.0
 40
8.500000000000024
100
AcDbArc
 50
299.9999999999997
 51
0.0
  0
ARC
  5
6357
330
1F
100
AcDbEntity
  8
AM_VIS
100
AcDbCircle
 10
2009.530661397768
 20
236.1324308732255
 30
0.0
 40
8.500000000000024
100
AcDbArc
 50
239.9999999999998
 51
299.9999999999997
  0
ARC
  5
6358
330
1F
100
AcDbEntity
  8
AM_VIS
100
AcDbCircle
 10
2009.530661397768
 20
236.1324308732255
 30
0.0
 40
8.500000000000024
100
AcDbArc
 50
180.0
 51
239.9999999999998
  0
ARC
  5
6359
330
1F
100
AcDbEntity
  8
AM_VIS
100
AcDbCircle
 10
2009.530661397768
 20
236.1324308732255
 30
0.0
 40
8.500000000000024
100
AcDbArc
 50
121.8206019824483
 51
180.0
  0
ARC
  5
635A
330
1F
100
AcDbEntity
  8
AM_VIS
100
AcDbCircle
 10
2009.530661397768
 20
236.1324308732255
 30
0.0
 40
8.500000000000024
100
AcDbArc
 50
61.82060198244315
 51
118.1793980175568
  0
CIRCLE
  5
635B
330
1F
100
AcDbEntity
  8
AM_VIS
100
AcDbCircle
 10
2009.530661397768
 20
236.1324308732255
 30
0.0
 40
3.099999999999999
  0
LINE
  5
635C
330
1F
100
AcDbEntity
  8
AM_VIS
100
AcDbLine
 10
2014.012382952685
 20
243.3549077270613
 30
0.0
 11
2018.030661397768
 21
241.0349535851139
 31
0.0
  0
LINE
  5
635D
330
1F
100
AcDbEntity
  8
AM_VIS
100
AcDbLine
 10
2018.030661397768
 20
241.0349535851137
 30
0.0
 11
2018.030661397768
 21
236.1324308732255
 31
0.0
  0
LINE
  5
635E
330
1F
100
AcDbEntity
  8
AM_VIS
100
AcDbLine
 10
2018.030661397768
 20
236.1324308732255
 30
0.0
 11
2018.030661397768
 21
231.2249535851137
 31
0.0
  0
LINE
  5
635F
330
1F
100
AcDbEntity
  8
AM_VIS
100
AcDbLine
 10
2013.780661397769
 20
228.7712149410576
 30
0.0
 11
2018.030661397768
 21
231.2249535851139
 31
0.0
  0
LINE
  5
6360
330
1F
100
AcDbEntity
  8
AM_VIS
100
AcDbLine
 10
2009.530661397768
 20
226.3174762970018
 30
0.0
 11
2013.780661397769
 21
228.7712149410576
 31
0.0
  0
LINE
  5
6361
330
1F
100
AcDbEntity
  8
AM_VIS
100
AcDbLine
 10
2005.280661397768
 20
228.7712149410576
 30
0.0
 11
2009.530661397769
 21
226.3174762970018
 31
0.0
  0
LINE
  5
6362
330
1F
100
AcDbEntity
  8
AM_VIS
100
AcDbLine
 10
2001.030661397768
 20
231.2249535851137
 30
0.0
 11
2005.280661397768
 21
228.7712149410576
 31
0.0
  0
LINE
  5
6363
330
1F
100
AcDbEntity
  8
AM_VIS
100
AcDbLine
 10
2001.030661397769
 20
236.1324308732255
 30
0.0
 11
2001.030661397769
 21
231.2249535851137
 31
0.0
  0
LINE
  5
6364
330
1F
100
AcDbEntity
  8
AM_VIS
100
AcDbLine
 10
2001.030661397769
 20
241.0349535851137
 30
0.0
 11
2005.048939842852
 21
243.3549077270613
 31
0.0
  0
LINE
  5
6365
330
1F
100
AcDbEntity
  8
AM_VIS
100
AcDbLine
 10
2001.030661397769
 20
241.0349535851137
 30
0.0
 11
2001.030661397769
 21
236.1324308732255
 31
0.0
  0
LINE
  5
6366
330
1F
100
AcDbEntity
  8
AM_VIS
100
AcDbLine
 10
2005.51667374156
 20
243.6249540193896
 30
0.0
 11
2009.530661397768
 21
245.9424308732252
 31
0.0
  0
LINE
  5
6367
330
1F
100
AcDbEntity
  8
AM_VIS
100
AcDbLine
 10
2009.530661397768
 20
245.9424308732254
 30
0.0
 11
2013.544649053977
 21
243.6249540193896
 31
0.0
  0
LINE
  5
6368
330
1F
100
AcDbEntity
  8
AM_VIS
100
AcDbLine
 10
2005.048939842851
 20
243.3549077270613
 30
0.0
 11
2005.51667374156
 21
243.6249540193896
 31
0.0
  0
LINE
  5
6369
330
1F
100
AcDbEntity
  8
AM_VIS
100
AcDbLine
 10
2013.544649053978
 20
243.6249540193894
 30
0.0
 11
2014.012382952685
 21
243.3549077270615
 31
0.0
  0
LINE
  5
636A
330
1F
100
AcDbEntity
  8
AM_VIS
100
AcDbLine
 10
2129.39270986209
 20
267.1324308732255
 30
0.0
 11
2129.39270986209
 21
243.8324308732255
 31
0.0
  0
LINE
  5
636B
330
1F
100
AcDbEntity
  8
AM_VIS
100
AcDbLine
 10
2221.89270986209
 20
267.1324308732255
 30
0.0
 11
2129.39270986209
 21
267.1324308732255
 31
0.0
  0
LINE
  5
636C
102
{ACAD_REACTORS
330
64E0
330
64E7
330
64EA
102
}
330
1F
100
AcDbEntity
  8
AM_VIS
100
AcDbLine
 10
2221.89270986209
 20
213.1324308732255
 30
0.0
 11
2129.39270986209
 21
213.1324308732255
 31
0.0
  0
LINE
  5
636D
102
{ACAD_REACTORS
330
64DA
102
}
330
1F
100
AcDbEntity
  8
AM_VIS
100
AcDbLine
 10
2129.39270986209
 20
228.4324308732256
 30
0.0
 11
2129.39270986209
 21
213.1324308732257
 31
0.0
  0
LINE
  5
636E
330
1F
100
AcDbEntity
  8
AM_VIS
100
AcDbLine
 10
2221.89270986209
 20
228.4324308732256
 30
0.0
 11
2129.39270986209
 21
228.4324308732256
 31
0.0
  0
LINE
  5
636F
330
1F
100
AcDbEntity
  8
AM_VIS
100
AcDbLine
 10
2129.39270986209
 20
229.6824308732257
 30
0.0
 11
2129.39270986209
 21
230.5824308732255
 31
0.0
  0
LINE
  5
6370
330
1F
100
AcDbEntity
  8
AM_VIS
100
AcDbLine
 10
2221.89270986209
 20
243.8324308732255
 30
0.0
 11
2221.89270986209
 21
267.1324308732255
 31
0.0
  0
LINE
  5
6371
102
{ACAD_REACTORS
330
64E4
330
64EA
330
64ED
330
64F6
102
}
330
1F
100
AcDbEntity
  8
AM_VIS
100
AcDbLine
 10
2221.89270986209
 20
213.1324308732255
 30
0.0
 11
2221.89270986209
 21
228.4324308732254
 31
0.0
  0
LINE
  5
6372
330
1F
100
AcDbEntity
  8
AM_VIS
100
AcDbLine
 10
2221.89270986209
 20
230.5824308732255
 30
0.0
 11
2221.89270986209
 21
229.6824308732257
 31
0.0
  0
LINE
  5
6373
330
1F
100
AcDbEntity
  8
AM_VIS
100
AcDbLine
 10
2221.89270986209
 20
231.8324308732255
 30
0.0
 11
2221.89270986209
 21
240.4324308732254
 31
0.0
  0
LINE
  5
6374
330
1F
100
AcDbEntity
  8
AM_VIS
100
AcDbLine
 10
2129.39270986209
 20
231.8324308732255
 30
0.0
 11
2221.89270986209
 21
231.8324308732255
 31
0.0
  0
LINE
  5
6375
330
1F
100
AcDbEntity
  8
AM_VIS
100
AcDbLine
 10
2129.39270986209
 20
240.4324308732256
 30
0.0
 11
2129.39270986209
 21
231.8324308732255
 31
0.0
  0
LINE
  5
6376
330
1F
100
AcDbEntity
  8
AM_VIS
100
AcDbLine
 10
2129.39270986209
 20
243.8324308732255
 30
0.0
 11
2221.89270986209
 21
243.8324308732255
 31
0.0
  0
LINE
  5
6377
330
1F
100
AcDbEntity
  8
AM_VIS
100
AcDbLine
 10
2221.89270986209
 20
240.4324308732256
 30
0.0
 11
2129.39270986209
 21
240.4324308732256
 31
0.0
  0
LINE
  5
6378
330
1F
100
AcDbEntity
  8
AM_VIS
100
AcDbLine
 10
2129.39270986209
 20
241.6824308732257
 30
0.0
 11
2129.39270986209
 21
242.5824308732255
 31
0.0
  0
LINE
  5
6379
330
1F
100
AcDbEntity
  8
AM_VIS
100
AcDbLine
 10
2221.89270986209
 20
242.5824308732255
 30
0.0
 11
2221.89270986209
 21
241.6824308732257
 31
0.0
  0
CIRCLE
  5
637A
330
1F
100
AcDbEntity
  8
AM_VIS
100
AcDbCircle
 10
2135.39270986209
 20
253.1324308732255
 30
0.0
 40
2.549999999999999
  0
CIRCLE
  5
637B
330
1F
100
AcDbEntity
  8
AM_VIS
100
AcDbCircle
 10
2135.39270986209
 20
219.1324308732255
 30
0.0
 40
2.549999999999999
  0
CIRCLE
  5
637C
330
1F
100
AcDbEntity
  8
AM_VIS
100
AcDbCircle
 10
2185.39270986209
 20
253.1324308732255
 30
0.0
 40
2.549999999999999
  0
CIRCLE
  5
637D
330
1F
100
AcDbEntity
  8
AM_VIS
100
AcDbCircle
 10
2185.39270986209
 20
253.1324308732255
 30
0.0
 40
4.65
  0
CIRCLE
  5
637E
330
1F
100
AcDbEntity
  8
AM_VIS
100
AcDbCircle
 10
2135.39270986209
 20
253.1324308732255
 30
0.0
 40
4.65
  0
CIRCLE
  5
637F
330
1F
100
AcDbEntity
  8
AM_VIS
100
AcDbCircle
 10
2135.39270986209
 20
219.1324308732255
 30
0.0
 40
4.65
  0
LINE
  5
6380
330
1F
100
AcDbEntity
  8
AM_VIS
100
AcDbLine
 10
2129.39270986209
 20
228.4324308732256
 30
0.0
 11
2129.39270986209
 21
229.6824308732257
 31
0.0
  0
LINE
  5
6381
330
1F
100
AcDbEntity
  8
AM_VIS
100
AcDbLine
 10
2129.39270986209
 20
230.5824308732255
 30
0.0
 11
2129.39270986209
 21
231.8324308732258
 31
0.0
  0
LINE
  5
6382
330
1F
100
AcDbEntity
  8
AM_VIS
100
AcDbLine
 10
2221.89270986209
 20
229.6824308732254
 30
0.0
 11
2221.89270986209
 21
228.4324308732254
 31
0.0
  0
LINE
  5
6383
330
1F
100
AcDbEntity
  8
AM_VIS
100
AcDbLine
 10
2221.89270986209
 20
231.8324308732258
 30
0.0
 11
2221.89270986209
 21
230.5824308732255
 31
0.0
  0
LINE
  5
6384
330
1F
100
AcDbEntity
  8
AM_VIS
100
AcDbLine
 10
2129.39270986209
 20
242.5824308732255
 30
0.0
 11
2129.39270986209
 21
243.8324308732258
 31
0.0
  0
LINE
  5
6385
330
1F
100
AcDbEntity
  8
AM_VIS
100
AcDbLine
 10
2221.89270986209
 20
243.8324308732258
 30
0.0
 11
2221.89270986209
 21
242.5824308732255
 31
0.0
  0
LINE
  5
6386
330
1F
100
AcDbEntity
  8
AM_VIS
100
AcDbLine
 10
2129.39270986209
 20
240.4324308732256
 30
0.0
 11
2129.39270986209
 21
241.6824308732257
 31
0.0
  0
LINE
  5
6387
330
1F
100
AcDbEntity
  8
AM_VIS
100
AcDbLine
 10
2221.89270986209
 20
241.6824308732254
 30
0.0
 11
2221.89270986209
 21
240.4324308732254
 31
0.0
  0
LINE
  5
6388
330
1F
100
AcDbEntity
  8
AM_VIS
100
AcDbLine
 10
2127.992709862089
 20
233.6324308732255
 30
0.0
 11
2129.39270986209
 21
233.6324308732255
 31
0.0
  0
LINE
  5
6389
330
1F
100
AcDbEntity
  8
AM_VIS
100
AcDbLine
 10
2127.992709862089
 20
238.6324308732255
 30
0.0
 11
2129.39270986209
 21
238.6324308732255
 31
0.0
  0
LINE
  5
638A
330
1F
100
AcDbEntity
  8
AM_VIS
100
AcDbLine
 10
2113.89270986209
 20
277.6324308732252
 30
0.0
 11
2113.89270986209
 21
214.1324308732253
 31
0.0
  0
LINE
  5
638B
102
{ACAD_REACTORS
330
64D6
102
}
330
1F
100
AcDbEntity
  8
AM_VIS
100
AcDbLine
 10
2113.89270986209
 20
277.6324308732252
 30
0.0
 11
2207.89270986209
 21
277.6324308732252
 31
0.0
  0
LINE
  5
638C
102
{ACAD_REACTORS
330
64DD
330
64E7
330
64ED
102
}
330
1F
100
AcDbEntity
  8
AM_VIS
100
AcDbLine
 10
2113.89270986209
 20
214.1324308732253
 30
0.0
 11
2124.89270986209
 21
214.1324308732253
 31
0.0
  0
LINE
  5
638D
102
{ACAD_REACTORS
330
64DD
102
}
330
1F
100
AcDbEntity
  8
AM_VIS
100
AcDbLine
 10
2124.89270986209
 20
265.1324308732252
 30
0.0
 11
2124.89270986209
 21
214.1324308732253
 31
0.0
  0
LINE
  5
638E
330
1F
100
AcDbEntity
  8
AM_VIS
100
AcDbLine
 10
2207.89270986209
 20
277.6324308732252
 30
0.0
 11
2207.89270986209
 21
268.1324308732253
 31
0.0
  0
LINE
  5
638F
330
1F
100
AcDbEntity
  8
AM_VIS
100
AcDbLine
 10
2128.39270986209
 20
268.1324308732253
 30
0.0
 11
2207.89270986209
 21
268.1324308732253
 31
0.0
  0
LINE
  5
6390
102
{ACAD_REACTORS
330
64D6
102
}
330
1F
100
AcDbEntity
  8
AM_VIS
100
AcDbLine
 10
2128.39270986209
 20
268.1324308732255
 30
0.0
 11
2124.89270986209
 21
265.1324308732255
 31
0.0
  0
LINE
  5
6391
330
1F
100
AcDbEntity
  8
AM_VIS
100
AcDbLine
 10
2127.992709862089
 20
228.6299985746143
 30
0.0
 11
2127.992709862089
 21
228.9000448669421
 31
0.0
  0
SPLINE
  5
6392
330
1F
100
AcDbEntity
  8
AM_VIS
100
AcDbSpline
210
-0.0000000000023444
220
-0.0000000000012078
230
1.0
 70
    12
 71
     2
 72
     6
 73
     3
 74
     0
 42
0.0000000001
 43
0.0000000001
 40
3.555039550062482
 40
3.555039550062482
 40
3.555039550062482
 40
4.975538948499628
 40
4.975538948499628
 40
4.975538948499628
 10
2124.89270986209
 20
227.0092547593432
 30
0.0
 41
1.032234545132554
 10
2125.041376862688
 20
226.6722025993082
 30
0.0000000000002274
 41
1.031736008938212
 10
2125.249038714728
 20
226.3125217207778
 30
0.0
 41
1.025692535866209
  0
SPLINE
  5
6393
330
1F
100
AcDbEntity
  8
AM_VIS
100
AcDbSpline
210
-0.0000000000023313
220
0.0000000000012017
230
-1.0
 70
    12
 71
     2
 72
     6
 73
     3
 74
     0
 42
0.0000000001
 43
0.0000000001
 40
1.874248151371804
 40
1.874248151371804
 40
1.874248151371804
 40
3.299610000624201
 40
3.299610000624201
 40
3.299610000624201
 10
2125.250469519319
 20
231.2199990088901
 30
0.0
 41
1.02565109658536
 10
2125.041886005088
 20
230.8589951505029
 30
-0.0000000000002274
 41
1.031734302420281
 10
2124.89270986209
 20
230.5207886822127
 30
0.0
 41
1.032234545132576
  0
LINE
  5
6394
330
1F
100
AcDbEntity
  8
AM_VIS
100
AcDbLine
 10
2125.249038714728
 20
226.3125217207782
 30
0.0
 11
2127.236381009451
 21
226.3125217207782
 31
0.0
  0
SPLINE
  5
6395
330
1F
100
AcDbEntity
  8
AM_VIS
100
AcDbSpline
210
0.0
220
0.0
230
1.0
 70
    12
 71
     2
 72
     6
 73
     3
 74
     0
 42
0.0000000001
 43
0.0000000001
 40
10.94830790122548
 40
10.94830790122548
 40
10.94830790122548
 40
12.37505547960525
 40
12.37505547960525
 40
12.37505547960525
 10
2124.89270986209
 20
241.7331702098388
 30
0.0
 41
1.034966226587367
 10
2125.042267296533
 20
241.3930921869819
 30
0.0
 41
1.033889833296
 10
2125.251899240644
 20
241.0299990088902
 30
0.0
 41
1.027160740060376
  0
SPLINE
  5
6396
330
1F
100
AcDbEntity
  8
AM_VIS
100
AcDbSpline
210
-0.0000000001039905
220
0.0000000000535174
230
-1.0
 70
    12
 71
     2
 72
     6
 73
     3
 74
     0
 42
0.0000000001
 43
0.0000000001
 40
1.860444614455319
 40
1.860444614455319
 40
1.860444614455319
 40
3.287192192835166
 40
3.287192192835166
 40
3.287192192835166
 10
2125.251899240644
 20
245.9374762970019
 30
0.0
 41
1.027160740060319
 10
2125.042267296531
 20
245.5743831189098
 30
0.0
 41
1.033889833295929
 10
2124.89270986209
 20
245.234305096053
 30
-0.0000000000002274
 41
1.034966226587292
  0
LINE
  5
6397
330
1F
100
AcDbEntity
  8
AM_VIS
100
AcDbLine
 10
2125.251899240644
 20
245.9374762970019
 30
0.0
 11
2127.233520483534
 21
245.9374762970019
 31
0.0
  0
LINE
  5
6398
330
1F
100
AcDbEntity
  8
AM_VIS
100
AcDbLine
 10
2125.250469519319
 20
231.2199990088899
 30
0.0
 11
2127.23495020486
 21
231.2199990088899
 31
0.0
  0
SPLINE
  5
6399
330
1F
100
AcDbEntity
  8
AM_VIS
100
AcDbSpline
210
-0.000000000104978
220
-0.0000000000269993
230
1.0
 70
    12
 71
     2
 72
     6
 73
     3
 74
     0
 42
0.0000000001
 43
0.0000000001
 40
10.94830790122541
 40
10.94830790122541
 40
10.94830790122541
 40
12.37021928064995
 40
12.37021928064995
 40
12.37021928064995
 10
2124.89270986209
 20
232.6213868345642
 30
0.0000000000002274
 41
1.034966226587298
 10
2125.041759820657
 20
231.9435386833813
 30
0.0
 41
1.03389348191058
 10
2125.250469519319
 20
231.21999900889
 30
0.0
 41
1.027206293880103
  0
SPLINE
  5
639A
330
1F
100
AcDbEntity
  8
AM_VIS
100
AcDbSpline
210
-0.0000000001039905
220
0.0000000000267587
230
1.0
 70
    12
 71
     2
 72
     6
 73
     3
 74
     0
 42
0.0000000001
 43
0.0000000001
 40
1.860444614455284
 40
1.860444614455284
 40
1.860444614455284
 40
3.28719219283518
 40
3.28719219283518
 40
3.28719219283518
 10
2125.251899240644
 20
241.0299990088901
 30
0.0
 41
1.027160740060323
 10
2125.042267296531
 20
240.3038126527067
 30
0.0
 41
1.033889833295934
 10
2124.89270986209
 20
239.6236566069926
 30
0.0000000000002274
 41
1.034966226587298
  0
LINE
  5
639B
330
1F
100
AcDbEntity
  8
AM_VIS
100
AcDbLine
 10
2125.251899240644
 20
241.0299990088901
 30
0.0
 11
2127.233520483534
 21
241.0299990088901
 31
0.0
  0
SPLINE
  5
639C
330
1F
100
AcDbEntity
  8
AM_VIS
100
AcDbSpline
210
0.0
220
0.0
230
1.0
 70
    12
 71
     2
 72
     6
 73
     3
 74
     0
 42
0.0000000001
 43
0.0000000001
 40
1.879110602186885
 40
1.879110602186885
 40
1.879110602186885
 40
6.854649550686424
 40
6.854649550686424
 40
6.854649550686424
 10
2127.236381009449
 20
226.3125217207775
 30
0.0
 41
1.025692535866254
 10
2127.9532428137
 20
227.5541627877432
 30
0.0
 41
1.046860820546342
 10
2127.992709862089
 20
228.629998574614
 30
0.0
 41
1.0
  0
SPLINE
  5
639D
330
1F
100
AcDbEntity
  8
AM_VIS
100
AcDbSpline
210
0.0
220
0.0
230
1.0
 70
    12
 71
     2
 72
     6
 73
     3
 74
     0
 42
0.0000000001
 43
0.0000000001
 40
7.117750047030232
 40
7.117750047030232
 40
7.117750047030232
 40
12.37505547960514
 40
12.37505547960514
 40
12.37505547960514
 10
2127.992709862089
 20
243.483737652946
 30
0.0
 41
1.0
 10
2127.992709862089
 20
244.6225217207782
 30
0.0
 41
1.051956225232305
 10
2127.233520483534
 20
245.937476297002
 30
0.0
 41
1.027160740060323
  0
SPLINE
  5
639E
330
1F
100
AcDbEntity
  8
AM_VIS
100
AcDbSpline
210
0.0
220
0.0
230
1.0
 70
    12
 71
     2
 72
     6
 73
     3
 74
     0
 42
0.0000000001
 43
0.0000000001
 40
1.860444614455224
 40
1.860444614455224
 40
1.860444614455224
 40
7.117750047030232
 40
7.117750047030232
 40
7.117750047030232
 10
2127.233520483537
 20
241.0299990088906
 30
0.0
 41
1.027160740060367
 10
2127.992709862089
 20
242.3449535851136
 30
0.0
 41
1.051956225232393
 10
2127.992709862089
 20
243.483737652946
 30
0.0
 41
1.0
  0
SPLINE
  5
639F
330
1F
100
AcDbEntity
  8
AM_VIS
100
AcDbSpline
210
0.0
220
0.0
230
1.0
 70
    12
 71
     2
 72
     6
 73
     3
 74
     0
 42
0.0000000001
 43
0.0000000001
 40
7.117750047030209
 40
7.117750047030209
 40
7.117750047030209
 40
12.37505547960512
 40
12.37505547960512
 40
12.37505547960512
 10
2127.992709862089
 20
236.1225217207781
 30
0.0
 41
1.0
 10
2127.992709862089
 20
238.4000898564428
 30
0.0
 41
1.051956225232306
 10
2127.233520483534
 20
241.0299990088901
 30
0.0
 41
1.027160740060323
  0
SPLINE
  5
63A0
330
1F
100
AcDbEntity
  8
AM_VIS
100
AcDbSpline
210
0.0
220
0.0
230
1.0
 70
    12
 71
     2
 72
     6
 73
     3
 74
     0
 42
0.0000000001
 43
0.0000000001
 40
1.865280813410461
 40
1.865280813410461
 40
1.865280813410461
 40
7.117750047030209
 40
7.117750047030209
 40
7.117750047030209
 10
2127.23495020486
 20
231.21999900889
 30
0.0
 41
1.027206293880103
 10
2127.99270986209
 20
233.8469453331261
 30
0.0
 41
1.051908430664271
 10
2127.992709862089
 20
236.1225217207781
 30
0.0
 41
1.0
  0
SPLINE
  5
63A1
330
1F
100
AcDbEntity
  8
AM_VIS
100
AcDbSpline
210
0.0
220
0.0
230
1.0
 70
    12
 71
     2
 72
     6
 73
     3
 74
     0
 42
0.0000000001
 43
0.0000000001
 40
0.0
 40
0.0
 40
0.0
 40
4.980401399314661
 40
4.980401399314661
 40
4.980401399314661
 10
2127.992709862089
 20
228.9000448669426
 30
0.0
 41
1.0
 10
2127.953205971818
 20
229.9768849299263
 30
0.0
 41
1.046906616275678
 10
2127.234950204863
 20
231.2199990088902
 30
0.0
 41
1.02565109658538
  0
LINE
  5
63A2
330
1F
100
AcDbEntity
  8
AM_VIS
100
AcDbLine
 10
2124.89270986209
 20
226.9297013977507
 30
0.0
 11
2125.249038714728
 21
226.3125217207782
 31
0.0
  0
LINE
  5
63A3
330
1F
100
AcDbEntity
  8
AM_VIS
100
AcDbLine
 10
2124.89270986209
 20
245.3153420438056
 30
0.0
 11
2125.251899240644
 21
245.9374762970019
 31
0.0
  0
LINE
  5
63A4
330
1F
100
AcDbEntity
  8
AM_VIS
100
AcDbLine
 10
2127.992709862089
 20
227.6225217207781
 30
0.0
 11
2127.236381009451
 21
226.3125217207782
 31
0.0
  0
LINE
  5
63A5
330
1F
100
AcDbEntity
  8
AM_VIS
100
AcDbLine
 10
2127.992709862089
 20
244.6225217207782
 30
0.0
 11
2127.233520483534
 21
245.9374762970019
 31
0.0
  0
LINE
  5
63A6
330
1F
100
AcDbEntity
  8
AM_VIS
100
AcDbLine
 10
2127.992709862089
 20
227.6225217207781
 30
0.0
 11
2127.992709862089
 21
228.6299985746143
 31
0.0
  0
LINE
  5
63A7
330
1F
100
AcDbEntity
  8
AM_VIS
100
AcDbLine
 10
2127.992709862089
 20
243.483737652946
 30
0.0
 11
2127.992709862089
 21
244.6225217207782
 31
0.0
  0
LINE
  5
63A8
330
1F
100
AcDbEntity
  8
AM_VIS
100
AcDbLine
 10
2127.992709862089
 20
236.1225217207781
 30
0.0
 11
2127.992709862089
 21
243.483737652946
 31
0.0
  0
LINE
  5
63A9
330
1F
100
AcDbEntity
  8
AM_VIS
100
AcDbLine
 10
2127.992709862089
 20
228.9000448669421
 30
0.0
 11
2127.992709862089
 21
236.1225217207781
 31
0.0
  0
LINE
  5
63AA
330
1F
100
AcDbEntity
  8
AM_VIS
100
AcDbLine
 10
2207.09270986209
 20
267.1324308732257
 30
0.0
 11
2207.09270986209
 21
268.1324308732253
 31
0.0
  0
LINE
  5
63AB
330
1F
100
AcDbEntity
  8
AM_VIS
100
AcDbLine
 10
2171.69270986209
 20
268.1324308732255
 30
0.0
 11
2171.69270986209
 21
267.1324308732259
 31
0.0
  0
LINE
  5
63AC
330
1F
100
AcDbEntity
  8
AM_VIS
100
AcDbLine
 10
2129.39270986209
 20
364.2473506551743
 30
0.0
 11
2129.39270986209
 21
363.7473506551743
 31
0.0
  0
LINE
  5
63AD
330
1F
100
AcDbEntity
  8
AM_VIS
100
AcDbLine
 10
2129.39270986209
 20
332.7473506551744
 30
0.0
 11
2129.39270986209
 21
332.2473506551743
 31
0.0
  0
LINE
  5
63AE
330
1F
100
AcDbEntity
  8
AM_VIS
100
AcDbLine
 10
2207.89270986209
 20
362.2473506551743
 30
0.0
 11
2221.89270986209
 21
362.2473506551743
 31
0.0
  0
LINE
  5
63AF
330
1F
100
AcDbEntity
  8
AM_VIS
100
AcDbLine
 10
2221.89270986209
 20
334.2473506551743
 30
0.0
 11
2207.89270986209
 21
334.2473506551743
 31
0.0
  0
LINE
  5
63B0
330
1F
100
AcDbEntity
  8
AM_VIS
100
AcDbLine
 10
2210.39270986209
 20
354.2473506551743
 30
0.0
 11
2221.89270986209
 21
354.2473506551743
 31
0.0
  0
LINE
  5
63B1
330
1F
100
AcDbEntity
  8
AM_VIS
100
AcDbLine
 10
2221.89270986209
 20
342.2473506551743
 30
0.0
 11
2210.39270986209
 21
342.2473506551743
 31
0.0
  0
LINE
  5
63B2
330
1F
100
AcDbEntity
  8
AM_VIS
100
AcDbLine
 10
2221.89270986209
 20
332.2473506551743
 30
0.0
 11
2129.39270986209
 21
332.2473506551743
 31
0.0
  0
LINE
  5
63B3
330
1F
100
AcDbEntity
  8
AM_VIS
100
AcDbLine
 10
2221.89270986209
 20
364.2473506551743
 30
0.0
 11
2129.39270986209
 21
364.2473506551743
 31
0.0
  0
LINE
  5
63B4
330
1F
100
AcDbEntity
  8
AM_VIS
100
AcDbLine
 10
2221.89270986209
 20
332.2473506551743
 30
0.0
 11
2221.89270986209
 21
334.2473506551743
 31
0.0
  0
LINE
  5
63B5
330
1F
100
AcDbEntity
  8
AM_VIS
100
AcDbLine
 10
2221.89270986209
 20
342.2473506551743
 30
0.0
 11
2221.89270986209
 21
334.2473506551743
 31
0.0
  0
LINE
  5
63B6
330
1F
100
AcDbEntity
  8
AM_VIS
100
AcDbLine
 10
2221.89270986209
 20
354.2473506551743
 30
0.0
 11
2221.89270986209
 21
342.2473506551743
 31
0.0
  0
LINE
  5
63B7
330
1F
100
AcDbEntity
  8
AM_VIS
100
AcDbLine
 10
2221.89270986209
 20
362.2473506551743
 30
0.0
 11
2221.89270986209
 21
354.2473506551743
 31
0.0
  0
LINE
  5
63B8
330
1F
100
AcDbEntity
  8
AM_VIS
100
AcDbLine
 10
2221.89270986209
 20
362.2473506551743
 30
0.0
 11
2221.89270986209
 21
364.2473506551743
 31
0.0
  0
CIRCLE
  5
63B9
330
1F
100
AcDbEntity
  8
AM_VIS
100
AcDbCircle
 10
2212.39270986209
 20
348.2473506551743
 30
0.0
 40
0.6
  0
ARC
  5
63BA
330
1F
100
AcDbEntity
  8
AM_VIS
100
AcDbCircle
 10
2212.39270986209
 20
348.2473506551743
 30
0.0
 40
2.25
100
AcDbArc
 50
207.2660444507307
 51
152.7339555492693
  0
LINE
  5
63BB
102
{ACAD_REACTORS
330
64CA
330
64CE
102
}
330
1F
100
AcDbEntity
  8
AM_VIS
100
AcDbLine
 10
2113.89270986209
 20
363.7473506551746
 30
0.0
 11
2113.89270986209
 21
332.7473506551746
 31
0.0
  0
LINE
  5
63BC
102
{ACAD_REACTORS
330
64CA
330
64CE
102
}
330
1F
100
AcDbEntity
  8
AM_VIS
100
AcDbLine
 10
2207.89270986209
 20
363.7473506551743
 30
0.0
 11
2113.89270986209
 21
363.7473506551743
 31
0.0
  0
LINE
  5
63BD
102
{ACAD_REACTORS
330
64D1
102
}
330
1F
100
AcDbEntity
  8
AM_VIS
100
AcDbLine
 10
2113.89270986209
 20
332.7473506551744
 30
0.0
 11
2207.89270986209
 21
332.7473506551744
 31
0.0
  0
LINE
  5
63BE
330
1F
100
AcDbEntity
  8
AM_VIS
100
AcDbLine
 10
2207.89270986209
 20
332.7473506551746
 30
0.0
 11
2207.89270986209
 21
363.7473506551746
 31
0.0
  0
CIRCLE
  5
63BF
330
1F
100
AcDbEntity
  8
AM_VIS
100
AcDbCircle
 10
2127.89270986209
 20
338.2473506551743
 30
0.0
 40
2.049999999999999
  0
CIRCLE
  5
63C0
330
1F
100
AcDbEntity
  8
AM_VIS
100
AcDbCircle
 10
2147.89270986209
 20
338.2473506551743
 30
0.0
 40
2.049999999999999
  0
CIRCLE
  5
63C1
330
1F
100
AcDbEntity
  8
AM_VIS
100
AcDbCircle
 10
2167.89270986209
 20
338.2473506551743
 30
0.0
 40
2.049999999999999
  0
CIRCLE
  5
63C2
330
1F
100
AcDbEntity
  8
AM_VIS
100
AcDbCircle
 10
2127.89270986209
 20
358.2473506551743
 30
0.0
 40
2.049999999999999
  0
CIRCLE
  5
63C3
330
1F
100
AcDbEntity
  8
AM_VIS
100
AcDbCircle
 10
2147.89270986209
 20
358.2473506551743
 30
0.0
 40
2.049999999999999
  0
CIRCLE
  5
63C4
330
1F
100
AcDbEntity
  8
AM_VIS
100
AcDbCircle
 10
2167.89270986209
 20
358.2473506551743
 30
0.0
 40
2.049999999999999
  0
CIRCLE
  5
63C5
330
1F
100
AcDbEntity
  8
AM_VIS
100
AcDbCircle
 10
2181.89270986209
 20
338.2473506551743
 30
0.0
 40
3.0
  0
CIRCLE
  5
63C6
330
1F
100
AcDbEntity
  8
AM_VIS
100
AcDbCircle
 10
2196.89270986209
 20
338.2473506551743
 30
0.0
 40
3.0
  0
CIRCLE
  5
63C7
330
1F
100
AcDbEntity
  8
AM_VIS
100
AcDbCircle
 10
2181.89270986209
 20
358.2473506551743
 30
0.0
 40
3.0
  0
CIRCLE
  5
63C8
330
1F
100
AcDbEntity
  8
AM_VIS
100
AcDbCircle
 10
2196.89270986209
 20
358.2473506551743
 30
0.0
 40
3.0
  0
LINE
  5
63C9
330
1F
100
AcDbEntity
  8
AM_VIS
100
AcDbLine
 10
2210.39270986209
 20
354.2473506551743
 30
0.0
 11
2207.89270986209
 21
354.2473506551743
 31
0.0
  0
LINE
  5
63CA
330
1F
100
AcDbEntity
  8
AM_VIS
100
AcDbLine
 10
2210.39270986209
 20
353.9473506551741
 30
0.0
 11
2210.39270986209
 21
354.2473506551743
 31
0.0
  0
LINE
  5
63CB
330
1F
100
AcDbEntity
  8
AM_VIS
100
AcDbLine
 10
2207.89270986209
 20
353.9473506551744
 30
0.0
 11
2210.39270986209
 21
353.9473506551744
 31
0.0
  0
LINE
  5
63CC
330
1F
100
AcDbEntity
  8
AM_VIS
100
AcDbLine
 10
2210.39270986209
 20
342.5473506551743
 30
0.0
 11
2210.39270986209
 21
353.9473506551741
 31
0.0
  0
LINE
  5
63CD
330
1F
100
AcDbEntity
  8
AM_VIS
100
AcDbLine
 10
2207.89270986209
 20
342.2473506551743
 30
0.0
 11
2210.39270986209
 21
342.2473506551743
 31
0.0
  0
LINE
  5
63CE
330
1F
100
AcDbEntity
  8
AM_VIS
100
AcDbLine
 10
2210.39270986209
 20
342.5473506551743
 30
0.0
 11
2207.89270986209
 21
342.5473506551743
 31
0.0
  0
LINE
  5
63CF
330
1F
100
AcDbEntity
  8
AM_VIS
100
AcDbLine
 10
2210.39270986209
 20
342.2473506551741
 30
0.0
 11
2210.39270986209
 21
342.5473506551743
 31
0.0
  0
LINE
  5
63D0
330
1F
100
AcDbEntity
  8
AM_VIS
100
AcDbLine
 10
2129.39270986209
 20
118.7497417496292
 30
0.0
 11
2129.39270986209
 21
86.74974174962926
 31
0.0
  0
LINE
  5
63D1
330
1F
100
AcDbEntity
  8
AM_VIS
100
AcDbLine
 10
2221.89270986209
 20
86.74974174962926
 30
0.0
 11
2129.39270986209
 21
86.74974174962926
 31
0.0
  0
LINE
  5
63D2
102
{ACAD_REACTORS
330
64F0
102
}
330
1F
100
AcDbEntity
  8
AM_VIS
100
AcDbLine
 10
2221.89270986209
 20
118.7497417496292
 30
0.0
 11
2129.39270986209
 21
118.7497417496292
 31
0.0
  0
LINE
  5
63D3
330
1F
100
AcDbEntity
  8
AM_VIS
100
AcDbLine
 10
2221.89270986209
 20
86.74974174962926
 30
0.0
 11
2221.89270986209
 21
118.7497417496292
 31
0.0
  0
CIRCLE
  5
63D4
330
1F
100
AcDbEntity
  8
AM_VIS
100
AcDbCircle
 10
2194.39270986209
 20
92.74974174962926
 30
0.0
 40
2.049999999999999
  0
CIRCLE
  5
63D5
330
1F
100
AcDbEntity
  8
AM_VIS
100
AcDbCircle
 10
2194.39270986209
 20
112.7497417496292
 30
0.0
 40
2.049999999999999
  0
CIRCLE
  5
63D6
330
1F
100
AcDbEntity
  8
AM_VIS
100
AcDbCircle
 10
2144.39270986209
 20
92.74974174962926
 30
0.0
 40
2.049999999999999
  0
CIRCLE
  5
63D7
330
1F
100
AcDbEntity
  8
AM_VIS
100
AcDbCircle
 10
2144.39270986209
 20
112.7497417496292
 30
0.0
 40
2.049999999999999
  0
CIRCLE
  5
63D8
330
1F
100
AcDbEntity
  8
AM_VIS
100
AcDbCircle
 10
2150.39270986209
 20
102.7497417496292
 30
0.0
 40
0.6
  0
CIRCLE
  5
63D9
330
1F
100
AcDbEntity
  8
AM_VIS
100
AcDbCircle
 10
2150.39270986209
 20
102.7497417496292
 30
0.0
 40
2.25
  0
LINE
  5
63DA
330
1F
100
AcDbEntity
  8
AM_VIS
100
AcDbLine
 10
2127.992709862089
 20
100.2497417496292
 30
0.0
 11
2129.39270986209
 21
100.2497417496292
 31
0.0
  0
LINE
  5
63DB
330
1F
100
AcDbEntity
  8
AM_VIS
100
AcDbLine
 10
2127.992709862089
 20
105.2497417496292
 30
0.0
 11
2129.39270986209
 21
105.2497417496292
 31
0.0
  0
LINE
  5
63DC
330
1F
100
AcDbEntity
  8
AM_VIS
100
AcDbLine
 10
2124.89270986209
 20
87.24974174962927
 30
0.0
 11
2113.89270986209
 21
87.24974174962927
 31
0.0
  0
LINE
  5
63DD
330
1F
100
AcDbEntity
  8
AM_VIS
100
AcDbLine
 10
2113.89270986209
 20
87.24974174962927
 30
0.0
 11
2113.89270986209
 21
118.2497417496293
 31
0.0
  0
LINE
  5
63DE
330
1F
100
AcDbEntity
  8
AM_VIS
100
AcDbLine
 10
2113.89270986209
 20
118.2497417496293
 30
0.0
 11
2124.89270986209
 21
118.2497417496293
 31
0.0
  0
LINE
  5
63DF
330
1F
100
AcDbEntity
  8
AM_VIS
100
AcDbLine
 10
2124.89270986209
 20
118.2497417496293
 30
0.0
 11
2124.89270986209
 21
87.24974174962927
 31
0.0
  0
LINE
  5
63E0
330
1F
100
AcDbEntity
  8
AM_VIS
100
AcDbLine
 10
2129.39270986209
 20
87.24974174962927
 30
0.0
 11
2128.39270986209
 21
87.24974174962927
 31
0.0
  0
LINE
  5
63E1
330
1F
100
AcDbEntity
  8
AM_VIS
100
AcDbLine
 10
2128.39270986209
 20
118.2497417496293
 30
0.0
 11
2129.39270986209
 21
118.2497417496293
 31
0.0
  0
LINE
  5
63E2
330
1F
100
AcDbEntity
  8
AM_VIS
100
AcDbLine
 10
2128.39270986209
 20
87.24974174962927
 30
0.0
 11
2128.39270986209
 21
90.76165221442215
 31
0.0
  0
LINE
  5
63E3
330
1F
100
AcDbEntity
  8
AM_VIS
100
AcDbLine
 10
2124.89270986209
 20
87.24974174962927
 30
0.0
 11
2128.39270986209
 21
87.24974174962927
 31
0.0
  0
LINE
  5
63E4
330
1F
100
AcDbEntity
  8
AM_VIS
100
AcDbLine
 10
2128.39270986209
 20
118.2497417496293
 30
0.0
 11
2124.89270986209
 21
118.2497417496293
 31
0.0
  0
LINE
  5
63E5
330
1F
100
AcDbEntity
  8
AM_VIS
100
AcDbLine
 10
2128.39270986209
 20
114.7378312848363
 30
0.0
 11
2128.39270986209
 21
118.2497417496293
 31
0.0
  0
ARC
  5
63E6
330
1F
100
AcDbEntity
  8
AM_VIS
100
AcDbCircle
 10
2127.89270986209
 20
112.7497417496292
 30
0.0
 40
2.050000000000001
100
AcDbArc
 50
272.7960256962894
 51
284.1169805713034
  0
ARC
  5
63E7
330
1F
100
AcDbEntity
  8
AM_VIS
100
AcDbCircle
 10
2127.89270986209
 20
112.7497417496292
 30
0.0
 40
2.050000000000001
100
AcDbArc
 50
75.88301942869667
 51
227.0297160682587
  0
LINE
  5
63E8
330
1F
100
AcDbEntity
  8
AM_VIS
100
AcDbLine
 10
2128.39270986209
 20
94.73783128483637
 30
0.0
 11
2128.39270986209
 21
100.2497417496292
 31
0.0
  0
LINE
  5
63E9
330
1F
100
AcDbEntity
  8
AM_VIS
100
AcDbLine
 10
2128.39270986209
 20
105.2497417496295
 30
0.0
 11
2128.39270986209
 21
110.7616522144221
 31
0.0
  0
ARC
  5
63EA
330
1F
100
AcDbEntity
  8
AM_VIS
100
AcDbCircle
 10
2127.89270986209
 20
92.74974174962926
 30
0.0
 40
2.050000000000001
100
AcDbArc
 50
132.9702839317413
 51
284.1169805713034
  0
ARC
  5
63EB
330
1F
100
AcDbEntity
  8
AM_VIS
100
AcDbCircle
 10
2127.89270986209
 20
92.74974174962926
 30
0.0
 40
2.050000000000001
100
AcDbArc
 50
75.88301942869667
 51
87.20397430371056
  0
ARC
  5
63EC
330
1F
100
AcDbEntity
  8
AM_VIS
100
AcDbCircle
 10
2127.89270986209
 20
112.7497417496292
 30
0.0
 40
2.049999999999999
100
AcDbArc
 50
42.97028393174307
 51
75.88301942869667
  0
ARC
  5
63ED
330
1F
100
AcDbEntity
  8
AM_VIS
100
AcDbCircle
 10
2127.89270986209
 20
112.7497417496292
 30
0.0
 40
2.049999999999999
100
AcDbArc
 50
284.1169805713034
 51
317.0297160682582
  0
ARC
  5
63EE
330
1F
100
AcDbEntity
  8
AM_VIS
100
AcDbCircle
 10
2127.89270986209
 20
92.74974174962926
 30
0.0
 40
2.049999999999999
100
AcDbArc
 50
42.97028393174307
 51
75.88301942869667
  0
ARC
  5
63EF
330
1F
100
AcDbEntity
  8
AM_VIS
100
AcDbCircle
 10
2127.89270986209
 20
92.74974174962926
 30
0.0
 40
2.049999999999999
100
AcDbArc
 50
284.1169805713034
 51
317.0297160682582
  0
LINE
  5
63F0
330
1F
100
AcDbEntity
  8
AM_VIS
100
AcDbLine
 10
2127.992709862089
 20
106.7637294058381
 30
0.0
 11
2127.992709862089
 21
107.2314633045457
 31
0.0
  0
SPLINE
  5
63F1
330
1F
100
AcDbEntity
  8
AM_VIS
100
AcDbSpline
210
0.0000000000011722
220
0.0000000000003487
230
1.0
 70
    12
 71
     2
 72
     6
 73
     3
 74
     0
 42
0.0000000001
 43
0.0000000001
 40
3.555039550062261
 40
3.555039550062261
 40
3.555039550062261
 40
4.975538948499628
 40
4.975538948499628
 40
4.975538948499628
 10
2124.89270986209
 20
103.9565187717359
 30
0.0000000000001137
 41
1.032234545132554
 10
2125.041376862687
 20
103.3727273057532
 30
0.0
 41
1.031736008938213
 10
2125.249038714728
 20
102.7497417496292
 30
0.0000000000001137
 41
1.025692535866209
  0
SPLINE
  5
63F2
330
1F
100
AcDbEntity
  8
AM_VIS
100
AcDbSpline
210
0.000000000053045
220
-0.0000000000157855
230
-1.0
 70
    12
 71
     2
 72
     6
 73
     3
 74
     0
 42
0.0000000001
 43
0.0000000001
 40
1.874248151371804
 40
1.874248151371804
 40
1.874248151371804
 40
3.299610000624501
 40
3.299610000624501
 40
3.299610000624501
 10
2125.250469519319
 20
111.2497417496292
 30
0.0
 41
1.02565109658536
 10
2125.041886005088
 20
110.6244647251747
 30
0.0
 41
1.031734302420283
 10
2124.89270986209
 20
110.0386739386479
 30
0.0000000000001137
 41
1.032234545132576
  0
LINE
  5
63F3
330
1F
100
AcDbEntity
  8
AM_VIS
100
AcDbLine
 10
2124.89270986209
 20
94.24974174962926
 30
0.0
 11
2125.250469519319
 21
94.24974174962926
 31
0.0
  0
LINE
  5
63F4
330
1F
100
AcDbEntity
  8
AM_VIS
100
AcDbLine
 10
2127.992709862089
 20
98.26802019471257
 30
0.0
 11
2127.992709862089
 21
98.73575409342061
 31
0.0
  0
LINE
  5
63F5
330
1F
100
AcDbEntity
  8
AM_VIS
100
AcDbLine
 10
2125.250469519319
 20
94.24974174962926
 30
0.0
 11
2127.23495020486
 21
94.24974174962926
 31
0.0
  0
SPLINE
  5
63F6
330
1F
100
AcDbEntity
  8
AM_VIS
100
AcDbSpline
210
-0.0000000000542106
220
-0.0000000000161324
230
1.0
 70
    12
 71
     2
 72
     6
 73
     3
 74
     0
 42
0.0000000001
 43
0.0000000001
 40
3.555039550062326
 40
3.555039550062326
 40
3.555039550062326
 40
4.980401399315034
 40
4.980401399315034
 40
4.980401399315034
 10
2124.89270986209
 20
95.4608095606107
 30
0.0
 41
1.032234545132568
 10
2125.041886005087
 20
94.87501877408318
 30
0.0
 41
1.031734302420274
 10
2125.250469519319
 20
94.24974174962926
 30
-0.0000000000001137
 41
1.025651096585353
  0
SPLINE
  5
63F7
330
1F
100
AcDbEntity
  8
AM_VIS
100
AcDbSpline
210
-0.0000000001094483
220
0.0000000000325541
230
1.0
 70
    12
 71
     2
 72
     6
 73
     3
 74
     0
 42
0.0000000001
 43
0.0000000001
 40
1.879110602186967
 40
1.879110602186967
 40
1.879110602186967
 40
3.299610000624386
 40
3.299610000624386
 40
3.299610000624386
 10
2125.249038714731
 20
102.7497417496292
 30
-0.0000000000001137
 41
1.025692535866205
 10
2125.041376862687
 20
102.1267561935054
 30
0.0000000000001137
 41
1.031736008938208
 10
2124.892709862089
 20
101.5429647275227
 30
0.0000000000001137
 41
1.032234545132549
  0
LINE
  5
63F8
330
1F
100
AcDbEntity
  8
AM_VIS
100
AcDbLine
 10
2125.249038714728
 20
102.7497417496292
 30
0.0
 11
2127.236381009451
 21
102.7497417496292
 31
0.0
  0
LINE
  5
63F9
330
1F
100
AcDbEntity
  8
AM_VIS
100
AcDbLine
 10
2125.250469519319
 20
111.2497417496292
 30
0.0
 11
2127.23495020486
 21
111.2497417496292
 31
0.0
  0
LINE
  5
63FA
330
1F
100
AcDbEntity
  8
AM_VIS
100
AcDbLine
 10
2124.89270986209
 20
111.2497417496292
 30
0.0
 11
2125.250469519319
 21
111.2497417496292
 31
0.0
  0
SPLINE
  5
63FB
330
1F
100
AcDbEntity
  8
AM_VIS
100
AcDbSpline
210
-0.000000000000662
220
0.0000000000001548
230
1.0
 70
    12
 71
     2
 72
     6
 73
     3
 74
     0
 42
0.0000000001
 43
0.0000000001
 40
1.879110602186885
 40
1.879110602186885
 40
1.879110602186885
 40
6.854649550686424
 40
6.854649550686424
 40
6.854649550686424
 10
2127.236381009449
 20
102.7497417496291
 30
0.0000000000001137
 41
1.025692535866254
 10
2127.9532428137
 20
104.9003271623767
 30
0.0000000000001137
 41
1.046860820546342
 10
2127.992709862089
 20
106.7637294058377
 30
0.0
 41
1.0
  0
SPLINE
  5
63FC
330
1F
100
AcDbEntity
  8
AM_VIS
100
AcDbSpline
210
-0.0000000000007267
220
-0.0000000000001699
230
1.0
 70
    12
 71
     2
 72
     6
 73
     3
 74
     0
 42
0.0000000001
 43
0.0000000001
 40
0.0
 40
0.0
 40
0.0
 40
4.975538948499675
 40
4.975538948499675
 40
4.975538948499675
 10
2127.992709862089
 20
98.73575409342061
 30
0.0
 41
1.0
 10
2127.9532428137
 20
100.5991563368818
 30
-0.0000000000001137
 41
1.04686082054628
 10
2127.236381009451
 20
102.7497417496293
 30
0.0000000000001137
 41
1.025692535866221
  0
LINE
  5
63FD
330
1F
100
AcDbEntity
  8
AM_VIS
100
AcDbLine
 10
2127.23495020486
 20
94.24974174962926
 30
0.0
 11
2127.992709862089
 21
94.24974174962926
 31
0.0
  0
SPLINE
  5
63FE
330
1F
100
AcDbEntity
  8
AM_VIS
100
AcDbSpline
210
0.0
220
0.0
230
1.0
 70
    12
 71
     2
 72
     6
 73
     3
 74
     0
 42
0.0000000001
 43
0.0000000001
 40
1.874248151371815
 40
1.874248151371815
 40
1.874248151371815
 40
6.85464955068664
 40
6.85464955068664
 40
6.85464955068664
 10
2127.23495020486
 20
94.24974174962926
 30
0.0
 41
1.025651096585358
 10
2127.953205971818
 20
96.40287849399758
 30
0.0
 41
1.046906616275638
 10
2127.992709862089
 20
98.26802019471257
 30
0.0
 41
1.0
  0
LINE
  5
63FF
330
1F
100
AcDbEntity
  8
AM_VIS
100
AcDbLine
 10
2127.23495020486
 20
111.2497417496292
 30
0.0
 11
2127.992709862089
 21
111.2497417496292
 31
0.0
  0
SPLINE
  5
6400
330
1F
100
AcDbEntity
  8
AM_VIS
100
AcDbSpline
210
0.0
220
0.0
230
1.0
 70
    12
 71
     2
 72
     6
 73
     3
 74
     0
 42
0.0000000001
 43
0.0000000001
 40
0.0
 40
0.0
 40
0.0
 40
4.980401399314661
 40
4.980401399314661
 40
4.980401399314661
 10
2127.992709862089
 20
107.2314633045462
 30
0.0
 41
1.0
 10
2127.953205971818
 20
109.0966050052609
 30
0.0
 41
1.046906616275678
 10
2127.234950204863
 20
111.2497417496294
 30
0.0
 41
1.02565109658538
  0
LINE
  5
6401
330
1F
100
AcDbEntity
  8
AM_VIS
100
AcDbLine
 10
2127.992709862089
 20
98.73575409342061
 30
0.0
 11
2127.992709862089
 21
106.7637294058381
 31
0.0
  0
LINE
  5
6402
330
1F
100
AcDbEntity
  8
AM_VIS
100
AcDbLine
 10
2127.992709862089
 20
94.24974174962926
 30
0.0
 11
2127.992709862089
 21
98.26802019471257
 31
0.0
  0
LINE
  5
6403
330
1F
100
AcDbEntity
  8
AM_VIS
100
AcDbLine
 10
2127.992709862089
 20
107.2314633045457
 30
0.0
 11
2127.992709862089
 21
111.2497417496292
 31
0.0
  0
LINE
  5
6404
330
1F
100
AcDbEntity
  8
AM_VIS
100
AcDbLine
 10
2310.13554708812
 20
243.8324308732255
 30
0.0
 11
2310.13554708812
 21
267.1324308732255
 31
0.0
  0
LINE
  5
6405
330
1F
100
AcDbEntity
  8
AM_VIS
100
AcDbLine
 10
2310.13554708812
 20
267.1324308732255
 30
0.0
 11
2312.13554708812
 21
267.1324308732255
 31
0.0
  0
LINE
  5
6406
330
1F
100
AcDbEntity
  8
AM_VIS
100
AcDbLine
 10
2312.13554708812
 20
260.6324308732255
 30
0.0
 11
2312.13554708812
 21
267.1324308732255
 31
0.0
  0
LINE
  5
6407
330
1F
100
AcDbEntity
  8
AM_VIS
100
AcDbLine
 10
2320.13554708812
 20
260.6324308732255
 30
0.0
 11
2312.13554708812
 21
260.6324308732255
 31
0.0
  0
LINE
  5
6408
330
1F
100
AcDbEntity
  8
AM_VIS
100
AcDbLine
 10
2320.13554708812
 20
258.1324308732255
 30
0.0
 11
2320.13554708812
 21
260.6324308732255
 31
0.0
  0
LINE
  5
6409
330
1F
100
AcDbEntity
  8
AM_VIS
100
AcDbLine
 10
2332.13554708812
 20
258.1324308732255
 30
0.0
 11
2320.13554708812
 21
258.1324308732255
 31
0.0
  0
LINE
  5
640A
330
1F
100
AcDbEntity
  8
AM_VIS
100
AcDbLine
 10
2332.13554708812
 20
260.6324308732255
 30
0.0
 11
2332.13554708812
 21
258.1324308732255
 31
0.0
  0
LINE
  5
640B
330
1F
100
AcDbEntity
  8
AM_VIS
100
AcDbLine
 10
2340.13554708812
 20
260.6324308732255
 30
0.0
 11
2332.13554708812
 21
260.6324308732255
 31
0.0
  0
LINE
  5
640C
330
1F
100
AcDbEntity
  8
AM_VIS
100
AcDbLine
 10
2340.13554708812
 20
267.1324308732255
 30
0.0
 11
2340.13554708812
 21
260.6324308732255
 31
0.0
  0
LINE
  5
640D
330
1F
100
AcDbEntity
  8
AM_VIS
100
AcDbLine
 10
2340.13554708812
 20
267.1324308732255
 30
0.0
 11
2342.13554708812
 21
267.1324308732255
 31
0.0
  0
LINE
  5
640E
330
1F
100
AcDbEntity
  8
AM_VIS
100
AcDbLine
 10
2342.13554708812
 20
267.1324308732255
 30
0.0
 11
2342.13554708812
 21
243.8324308732255
 31
0.0
  0
LINE
  5
640F
330
1F
100
AcDbEntity
  8
AM_VIS
100
AcDbLine
 10
2342.13554708812
 20
240.4324308732256
 30
0.0
 11
2342.13554708812
 21
231.8324308732255
 31
0.0
  0
LINE
  5
6410
330
1F
100
AcDbEntity
  8
AM_VIS
100
AcDbLine
 10
2341.63554708812
 20
231.8324308732255
 30
0.0
 11
2342.13554708812
 21
231.8324308732255
 31
0.0
  0
LINE
  5
6411
330
1F
100
AcDbEntity
  8
AM_VIS
100
AcDbLine
 10
2341.13554708812
 20
232.2824308732255
 30
0.0
 11
2341.63554708812
 21
231.8324308732255
 31
0.0
  0
LINE
  5
6412
330
1F
100
AcDbEntity
  8
AM_VIS
100
AcDbLine
 10
2339.035547088121
 20
232.2824308732255
 30
0.0
 11
2341.13554708812
 21
232.2824308732255
 31
0.0
  0
LINE
  5
6413
330
1F
100
AcDbEntity
  8
AM_VIS
100
AcDbLine
 10
2337.335547088121
 20
229.6824308732254
 30
0.0
 11
2337.335547088121
 21
230.5824308732255
 31
0.0
  0
LINE
  5
6414
330
1F
100
AcDbEntity
  8
AM_VIS
100
AcDbLine
 10
2341.13554708967
 20
227.9824308732256
 30
0.0
 11
2339.035547088121
 21
227.9824308732256
 31
0.0
  0
LINE
  5
6415
330
1F
100
AcDbEntity
  8
AM_VIS
100
AcDbLine
 10
2341.63554708812
 20
228.4324308732254
 30
0.0
 11
2341.135547089672
 21
227.9824308732256
 31
0.0
  0
LINE
  5
6416
330
1F
100
AcDbEntity
  8
AM_VIS
100
AcDbLine
 10
2342.13554708812
 20
228.4324308732256
 30
0.0
 11
2341.63554708812
 21
228.4324308732256
 31
0.0
  0
LINE
  5
6417
330
1F
100
AcDbEntity
  8
AM_VIS
100
AcDbLine
 10
2342.13554708812
 20
228.4324308732256
 30
0.0
 11
2342.13554708812
 21
213.1324308732257
 31
0.0
  0
LINE
  5
6418
102
{ACAD_REACTORS
330
6502
102
}
330
1F
100
AcDbEntity
  8
AM_VIS
100
AcDbLine
 10
2342.13554708812
 20
213.1324308732255
 30
0.0
 11
2310.13554708812
 21
213.1324308732255
 31
0.0
  0
LINE
  5
6419
102
{ACAD_REACTORS
330
64FD
102
}
330
1F
100
AcDbEntity
  8
AM_VIS
100
AcDbLine
 10
2310.13554708812
 20
213.1324308732255
 30
0.0
 11
2310.13554708812
 21
228.4324308732254
 31
0.0
  0
LINE
  5
641A
330
1F
100
AcDbEntity
  8
AM_VIS
100
AcDbLine
 10
2310.63554708812
 20
228.4324308732254
 30
0.0
 11
2310.13554708812
 21
228.4324308732254
 31
0.0
  0
LINE
  5
641B
330
1F
100
AcDbEntity
  8
AM_VIS
100
AcDbLine
 10
2311.13554708812
 20
227.9824308732256
 30
0.0
 11
2310.63554708812
 21
228.4324308732254
 31
0.0
  0
LINE
  5
641C
330
1F
100
AcDbEntity
  8
AM_VIS
100
AcDbLine
 10
2313.235547088121
 20
227.9824308732256
 30
0.0
 11
2311.13554708812
 21
227.9824308732256
 31
0.0
  0
LINE
  5
641D
330
1F
100
AcDbEntity
  8
AM_VIS
100
AcDbLine
 10
2314.93554708812
 20
230.5824308732255
 30
0.0
 11
2314.93554708812
 21
229.6824308732257
 31
0.0
  0
LINE
  5
641E
330
1F
100
AcDbEntity
  8
AM_VIS
100
AcDbLine
 10
2311.135547086569
 20
232.2824308732255
 30
0.0
 11
2313.235547088121
 21
232.2824308732255
 31
0.0
  0
LINE
  5
641F
330
1F
100
AcDbEntity
  8
AM_VIS
100
AcDbLine
 10
2310.63554708812
 20
231.8324308732255
 30
0.0
 11
2311.135547086569
 21
232.2824308732255
 31
0.0
  0
LINE
  5
6420
330
1F
100
AcDbEntity
  8
AM_VIS
100
AcDbLine
 10
2310.13554708812
 20
231.8324308732255
 30
0.0
 11
2310.63554708812
 21
231.8324308732255
 31
0.0
  0
LINE
  5
6421
330
1F
100
AcDbEntity
  8
AM_VIS
100
AcDbLine
 10
2310.13554708812
 20
231.8324308732255
 30
0.0
 11
2310.13554708812
 21
240.4324308732254
 31
0.0
  0
LINE
  5
6422
330
1F
100
AcDbEntity
  8
AM_VIS
100
AcDbLine
 10
2341.63554708812
 20
240.4324308732254
 30
0.0
 11
2341.135547089672
 21
239.9824308732256
 31
0.0
  0
LINE
  5
6423
330
1F
100
AcDbEntity
  8
AM_VIS
100
AcDbLine
 10
2342.13554708812
 20
240.4324308732256
 30
0.0
 11
2341.63554708812
 21
240.4324308732256
 31
0.0
  0
LINE
  5
6424
330
1F
100
AcDbEntity
  8
AM_VIS
100
AcDbLine
 10
2337.335547088121
 20
241.6824308732254
 30
0.0
 11
2337.335547088121
 21
242.5824308732255
 31
0.0
  0
LINE
  5
6425
330
1F
100
AcDbEntity
  8
AM_VIS
100
AcDbLine
 10
2341.13554708967
 20
239.9824308732256
 30
0.0
 11
2339.035547088121
 21
239.9824308732256
 31
0.0
  0
LINE
  5
6426
330
1F
100
AcDbEntity
  8
AM_VIS
100
AcDbLine
 10
2341.63554708812
 20
243.8324308732255
 30
0.0
 11
2342.13554708812
 21
243.8324308732255
 31
0.0
  0
LINE
  5
6427
330
1F
100
AcDbEntity
  8
AM_VIS
100
AcDbLine
 10
2341.13554708812
 20
244.2824308732256
 30
0.0
 11
2341.63554708812
 21
243.8324308732255
 31
0.0
  0
LINE
  5
6428
330
1F
100
AcDbEntity
  8
AM_VIS
100
AcDbLine
 10
2339.035547088121
 20
244.2824308732256
 30
0.0
 11
2341.13554708812
 21
244.2824308732256
 31
0.0
  0
LINE
  5
6429
330
1F
100
AcDbEntity
  8
AM_VIS
100
AcDbLine
 10
2311.135547086569
 20
244.2824308732256
 30
0.0
 11
2313.235547088121
 21
244.2824308732256
 31
0.0
  0
LINE
  5
642A
330
1F
100
AcDbEntity
  8
AM_VIS
100
AcDbLine
 10
2310.63554708812
 20
243.8324308732255
 30
0.0
 11
2311.135547086569
 21
244.2824308732256
 31
0.0
  0
LINE
  5
642B
330
1F
100
AcDbEntity
  8
AM_VIS
100
AcDbLine
 10
2310.13554708812
 20
243.8324308732255
 30
0.0
 11
2310.63554708812
 21
243.8324308732255
 31
0.0
  0
LINE
  5
642C
330
1F
100
AcDbEntity
  8
AM_VIS
100
AcDbLine
 10
2310.63554708812
 20
240.4324308732254
 30
0.0
 11
2310.13554708812
 21
240.4324308732254
 31
0.0
  0
LINE
  5
642D
330
1F
100
AcDbEntity
  8
AM_VIS
100
AcDbLine
 10
2311.13554708812
 20
239.9824308732256
 30
0.0
 11
2310.63554708812
 21
240.4324308732256
 31
0.0
  0
LINE
  5
642E
330
1F
100
AcDbEntity
  8
AM_VIS
100
AcDbLine
 10
2313.235547088121
 20
239.9824308732256
 30
0.0
 11
2311.13554708812
 21
239.9824308732256
 31
0.0
  0
LINE
  5
642F
330
1F
100
AcDbEntity
  8
AM_VIS
100
AcDbLine
 10
2314.93554708812
 20
242.5824308732255
 30
0.0
 11
2314.93554708812
 21
241.6824308732257
 31
0.0
  0
CIRCLE
  5
6430
330
1F
100
AcDbEntity
  8
AM_VIS
100
AcDbCircle
 10
2326.13554708812
 20
252.1324308732255
 30
0.0
 40
1.0
  0
CIRCLE
  5
6431
330
1F
100
AcDbEntity
  8
AM_VIS
100
AcDbCircle
 10
2326.13554708812
 20
220.1324308732255
 30
0.0
 40
1.5
  0
ARC
  5
6432
330
1F
100
AcDbEntity
  8
AM_VIS
100
AcDbCircle
 10
2339.035547088121
 20
230.5824308732255
 30
0.0
 40
1.7
100
AcDbArc
 50
90.0
 51
180.0
  0
ARC
  5
6433
330
1F
100
AcDbEntity
  8
AM_VIS
100
AcDbCircle
 10
2339.035547088121
 20
229.6824308732254
 30
0.0
 40
1.7
100
AcDbArc
 50
180.0
 51
270.0
  0
ARC
  5
6434
330
1F
100
AcDbEntity
  8
AM_VIS
100
AcDbCircle
 10
2313.235547088121
 20
229.6824308732254
 30
0.0
 40
1.7
100
AcDbArc
 50
270.0
 51
0.0
  0
ARC
  5
6435
330
1F
100
AcDbEntity
  8
AM_VIS
100
AcDbCircle
 10
2313.235547088121
 20
230.5824308732255
 30
0.0
 40
1.7
100
AcDbArc
 50
0.0
 51
90.0
  0
CIRCLE
  5
6436
330
1F
100
AcDbEntity
  8
AM_VIS
100
AcDbCircle
 10
2336.13554708812
 20
219.1324308732255
 30
0.0
 40
2.049999999999999
  0
CIRCLE
  5
6437
330
1F
100
AcDbEntity
  8
AM_VIS
100
AcDbCircle
 10
2336.13554708812
 20
253.1324308732255
 30
0.0
 40
2.049999999999999
  0
CIRCLE
  5
6438
330
1F
100
AcDbEntity
  8
AM_VIS
100
AcDbCircle
 10
2316.13554708812
 20
219.1324308732255
 30
0.0
 40
2.049999999999999
  0
CIRCLE
  5
6439
330
1F
100
AcDbEntity
  8
AM_VIS
100
AcDbCircle
 10
2316.13554708812
 20
253.1324308732255
 30
0.0
 40
2.049999999999999
  0
CIRCLE
  5
643A
330
1F
100
AcDbEntity
  8
AM_VIS
100
AcDbCircle
 10
2326.13554708812
 20
220.1324308732255
 30
0.0
 40
2.049999999999999
  0
CIRCLE
  5
643B
330
1F
100
AcDbEntity
  8
AM_VIS
100
AcDbCircle
 10
2326.13554708812
 20
252.1324308732255
 30
0.0
 40
2.049999999999999
  0
ARC
  5
643C
330
1F
100
AcDbEntity
  8
AM_VIS
100
AcDbCircle
 10
2339.035547088121
 20
241.6824308732254
 30
0.0
 40
1.7
100
AcDbArc
 50
180.0
 51
270.0
  0
ARC
  5
643D
330
1F
100
AcDbEntity
  8
AM_VIS
100
AcDbCircle
 10
2339.035547088121
 20
242.5824308732255
 30
0.0
 40
1.7
100
AcDbArc
 50
90.0
 51
180.0
  0
ARC
  5
643E
330
1F
100
AcDbEntity
  8
AM_VIS
100
AcDbCircle
 10
2313.235547088121
 20
242.5824308732255
 30
0.0
 40
1.7
100
AcDbArc
 50
0.0
 51
90.0
  0
ARC
  5
643F
330
1F
100
AcDbEntity
  8
AM_VIS
100
AcDbCircle
 10
2313.235547088121
 20
241.6824308732254
 30
0.0
 40
1.7
100
AcDbArc
 50
270.0
 51
0.0
  0
CIRCLE
  5
6440
330
1F
100
AcDbEntity
  8
AM_VIS
100
AcDbCircle
 10
2326.13554708812
 20
236.1324308732255
 30
0.0
 40
10.6
  0
LINE
  5
6441
330
1F
100
AcDbEntity
  8
AM_VIS
100
AcDbLine
 10
2341.63554708812
 20
243.8324308732255
 30
0.0
 11
2341.63554708812
 21
240.4324308732254
 31
0.0
  0
LINE
  5
6442
330
1F
100
AcDbEntity
  8
AM_VIS
100
AcDbLine
 10
2341.63554708812
 20
231.8324308732255
 30
0.0
 11
2341.63554708812
 21
228.4324308732254
 31
0.0
  0
LINE
  5
6443
330
1F
100
AcDbEntity
  8
AM_VIS
100
AcDbLine
 10
2310.63554708812
 20
243.8324308732255
 30
0.0
 11
2310.63554708812
 21
240.4324308732254
 31
0.0
  0
LINE
  5
6444
330
1F
100
AcDbEntity
  8
AM_VIS
100
AcDbLine
 10
2310.63554708812
 20
231.8324308732255
 30
0.0
 11
2310.63554708812
 21
228.4324308732254
 31
0.0
  0
LINE
  5
6445
330
1F
100
AcDbEntity
  8
AM_VIS
100
AcDbLine
 10
2310.63554708812
 20
277.6324308732252
 30
0.0
 11
2310.63554708812
 21
268.1324308732253
 31
0.0
  0
LINE
  5
6446
330
1F
100
AcDbEntity
  8
AM_VIS
100
AcDbLine
 10
2310.635547088121
 20
277.6324308732252
 30
0.0
 11
2341.635547088121
 21
277.6324308732252
 31
0.0
  0
LINE
  5
6447
330
1F
100
AcDbEntity
  8
AM_VIS
100
AcDbLine
 10
2341.63554708812
 20
277.6324308732252
 30
0.0
 11
2341.63554708812
 21
268.1324308732253
 31
0.0
  0
LINE
  5
6448
330
1F
100
AcDbEntity
  8
AM_VIS
100
AcDbLine
 10
2312.63554708812
 20
268.1324308732253
 30
0.0
 11
2312.63554708812
 21
271.1324308732252
 31
0.0
  0
LINE
  5
6449
330
1F
100
AcDbEntity
  8
AM_VIS
100
AcDbLine
 10
2312.63554708812
 20
271.1324308732252
 30
0.0
 11
2339.63554708812
 21
271.1324308732252
 31
0.0
  0
LINE
  5
644A
330
1F
100
AcDbEntity
  8
AM_VIS
100
AcDbLine
 10
2339.63554708812
 20
271.1324308732252
 30
0.0
 11
2339.63554708812
 21
268.1324308732253
 31
0.0
  0
LINE
  5
644B
330
1F
100
AcDbEntity
  8
AM_VIS
100
AcDbLine
 10
2339.635547088121
 20
268.1324308732253
 30
0.0
 11
2341.635547088121
 21
268.1324308732253
 31
0.0
  0
LINE
  5
644C
330
1F
100
AcDbEntity
  8
AM_VIS
100
AcDbLine
 10
2310.635547088121
 20
268.1324308732253
 30
0.0
 11
2312.635547088121
 21
268.1324308732253
 31
0.0
  0
LINE
  5
644D
330
1F
100
AcDbEntity
  8
AM_VIS
100
AcDbLine
 10
2341.63554708812
 20
267.1324308732255
 30
0.0
 11
2341.63554708812
 21
268.1324308732255
 31
0.0
  0
LINE
  5
644E
330
1F
100
AcDbEntity
  8
AM_VIS
100
AcDbLine
 10
2312.13554708812
 20
265.1324308732252
 30
0.0
 11
2312.835547088121
 21
265.1324308732252
 31
0.0
  0
LINE
  5
644F
330
1F
100
AcDbEntity
  8
AM_VIS
100
AcDbLine
 10
2320.035547088121
 20
265.1324308732252
 30
0.0
 11
2320.13554708812
 21
265.1324308732252
 31
0.0
  0
LINE
  5
6450
330
1F
100
AcDbEntity
  8
AM_VIS
100
AcDbLine
 10
2332.135547088121
 20
265.1324308732252
 30
0.0
 11
2332.23554708812
 21
265.1324308732252
 31
0.0
  0
LINE
  5
6451
330
1F
100
AcDbEntity
  8
AM_VIS
100
AcDbLine
 10
2339.43554708812
 20
265.1324308732252
 30
0.0
 11
2340.13554708812
 21
265.1324308732252
 31
0.0
  0
LINE
  5
6452
330
1F
100
AcDbEntity
  8
AM_VIS
100
AcDbLine
 10
2310.63554708812
 20
268.1324308732255
 30
0.0
 11
2310.63554708812
 21
267.1324308732255
 31
0.0
  0
ARC
  5
6453
330
1F
100
AcDbEntity
  8
AM_VIS
100
AcDbCircle
 10
2326.13554708812
 20
236.1324308732252
 30
0.0
 40
13.0
100
AcDbArc
 50
197.5847567409591
 51
210.4599501640866
  0
ARC
  5
6454
330
1F
100
AcDbEntity
  8
AM_VIS
100
AcDbCircle
 10
2326.13554708812
 20
236.1324308732252
 30
0.0
 40
13.0
100
AcDbArc
 50
149.5400498359134
 51
162.4152432590386
  0
ARC
  5
6455
330
1F
100
AcDbEntity
  8
AM_VIS
100
AcDbCircle
 10
2326.13554708812
 20
236.1324308732252
 30
0.0
 40
13.0
100
AcDbArc
 50
17.58475674096142
 51
30.45995016408661
  0
ARC
  5
6456
330
1F
100
AcDbEntity
  8
AM_VIS
100
AcDbCircle
 10
2326.13554708812
 20
236.1324308732252
 30
0.0
 40
13.0
100
AcDbArc
 50
329.5400498359134
 51
342.4152432590409
  0
LINE
  5
6457
330
1F
100
AcDbEntity
  8
AM_VIS
100
AcDbLine
 10
2339.63554708812
 20
268.1324308732253
 30
0.0
 11
2339.43554708812
 21
268.1324308732253
 31
0.0
  0
LINE
  5
6458
330
1F
100
AcDbEntity
  8
AM_VIS
100
AcDbLine
 10
2312.835547088121
 20
268.1324308732253
 30
0.0
 11
2312.63554708812
 21
268.1324308732253
 31
0.0
  0
LINE
  5
6459
330
1F
100
AcDbEntity
  8
AM_VIS
100
AcDbLine
 10
2331.83554708812
 20
265.6324308732257
 30
0.0
 11
2332.13554708812
 21
265.3324308732257
 31
0.0
  0
LINE
  5
645A
102
{ACAD_REACTORS
330
64F9
102
}
330
1F
100
AcDbEntity
  8
AM_VIS
100
AcDbLine
 10
2332.13554708812
 20
265.3324308732257
 30
0.0
 11
2332.13554708812
 21
264.8324308732258
 31
0.0
  0
LINE
  5
645B
330
1F
100
AcDbEntity
  8
AM_VIS
100
AcDbLine
 10
2331.13554708812
 20
264.3324308732257
 30
0.0
 11
2332.13554708812
 21
264.8324308732258
 31
0.0
  0
LINE
  5
645C
330
1F
100
AcDbEntity
  8
AM_VIS
100
AcDbLine
 10
2332.13554708812
 20
263.8324308732257
 30
0.0
 11
2331.13554708812
 21
264.3324308732257
 31
0.0
  0
LINE
  5
645D
330
1F
100
AcDbEntity
  8
AM_VIS
100
AcDbLine
 10
2332.13554708812
 20
263.8324308732257
 30
0.0
 11
2332.13554708812
 21
260.6324308732257
 31
0.0
  0
LINE
  5
645E
330
1F
100
AcDbEntity
  8
AM_VIS
100
AcDbLine
 10
2332.13554708812
 20
258.4324308732257
 30
0.0
 11
2331.83554708812
 21
258.1324308732257
 31
0.0
  0
LINE
  5
645F
330
1F
100
AcDbEntity
  8
AM_VIS
100
AcDbLine
 10
2320.43554708812
 20
258.1324308732257
 30
0.0
 11
2320.13554708812
 21
258.4324308732257
 31
0.0
  0
LINE
  5
6460
330
1F
100
AcDbEntity
  8
AM_VIS
100
AcDbLine
 10
2320.13554708812
 20
260.6324308732255
 30
0.0
 11
2320.13554708812
 21
263.8324308732257
 31
0.0
  0
LINE
  5
6461
330
1F
100
AcDbEntity
  8
AM_VIS
100
AcDbLine
 10
2321.13554708812
 20
264.3324308732257
 30
0.0
 11
2320.13554708812
 21
263.8324308732257
 31
0.0
  0
LINE
  5
6462
330
1F
100
AcDbEntity
  8
AM_VIS
100
AcDbLine
 10
2320.13554708812
 20
264.8324308732258
 30
0.0
 11
2321.13554708812
 21
264.3324308732257
 31
0.0
  0
LINE
  5
6463
102
{ACAD_REACTORS
330
64F9
102
}
330
1F
100
AcDbEntity
  8
AM_VIS
100
AcDbLine
 10
2320.13554708812
 20
264.8324308732258
 30
0.0
 11
2320.13554708812
 21
265.3324308732257
 31
0.0
  0
LINE
  5
6464
330
1F
100
AcDbEntity
  8
AM_VIS
100
AcDbLine
 10
2320.43554708812
 20
265.6324308732257
 30
0.0
 11
2331.83554708812
 21
265.6324308732257
 31
0.0
  0
LINE
  5
6465
330
1F
100
AcDbEntity
  8
AM_VIS
100
AcDbLine
 10
2320.13554708812
 20
265.3324308732257
 30
0.0
 11
2320.43554708812
 21
265.6324308732257
 31
0.0
  0
LINE
  5
6466
330
1F
100
AcDbEntity
  8
AM_VIS
100
AcDbLine
 10
2339.43554708812
 20
270.9324308732252
 30
0.0
 11
2339.43554708812
 21
260.9324308732252
 31
0.0
  0
LINE
  5
6467
330
1F
100
AcDbEntity
  8
AM_VIS
100
AcDbLine
 10
2339.43554708812
 20
260.9324308732252
 30
0.0
 11
2332.23554708812
 21
260.9324308732252
 31
0.0
  0
LINE
  5
6468
330
1F
100
AcDbEntity
  8
AM_VIS
100
AcDbLine
 10
2320.035547088121
 20
260.9324308732252
 30
0.0
 11
2312.835547088121
 21
260.9324308732252
 31
0.0
  0
LINE
  5
6469
330
1F
100
AcDbEntity
  8
AM_VIS
100
AcDbLine
 10
2320.035547088121
 20
260.9324308732252
 30
0.0
 11
2320.035547088121
 21
265.7324308732252
 31
0.0
  0
LINE
  5
646A
330
1F
100
AcDbEntity
  8
AM_VIS
100
AcDbLine
 10
2332.23554708812
 20
265.7324308732252
 30
0.0
 11
2332.23554708812
 21
260.9324308732252
 31
0.0
  0
LINE
  5
646B
330
1F
100
AcDbEntity
  8
AM_VIS
100
AcDbLine
 10
2320.035547088121
 20
265.7324308732252
 30
0.0
 11
2332.23554708812
 21
265.7324308732252
 31
0.0
  0
LINE
  5
646C
330
1F
100
AcDbEntity
  8
AM_VIS
100
AcDbLine
 10
2312.835547088121
 20
270.9324308732252
 30
0.0
 11
2339.43554708812
 21
270.9324308732252
 31
0.0
  0
LINE
  5
646D
330
1F
100
AcDbEntity
  8
AM_VIS
100
AcDbLine
 10
2312.835547088121
 20
260.9324308732252
 30
0.0
 11
2312.835547088121
 21
270.9324308732252
 31
0.0
  0
LINE
  5
646E
330
1F
100
AcDbEntity
  8
AM_VIS
100
AcDbLine
 10
2312.835547088121
 20
269.1324308732252
 30
0.0
 11
2312.63554708812
 21
269.1324308732252
 31
0.0
  0
LINE
  5
646F
330
1F
100
AcDbEntity
  8
AM_VIS
100
AcDbLine
 10
2339.63554708812
 20
269.1324308732252
 30
0.0
 11
2339.43554708812
 21
269.1324308732252
 31
0.0
  0
LINE
  5
6470
330
1F
100
AcDbEntity
  8
AM_VIS
100
AcDbLine
 10
2320.13554708812
 20
270.9324308732252
 30
0.0
 11
2320.13554708812
 21
271.1324308732252
 31
0.0
  0
LINE
  5
6471
330
1F
100
AcDbEntity
  8
AM_VIS
100
AcDbLine
 10
2332.13554708812
 20
271.1324308732252
 30
0.0
 11
2332.13554708812
 21
270.9324308732252
 31
0.0
  0
LINE
  5
6472
330
1F
100
AcDbEntity
  8
DIM2
100
AcDbLine
 10
2285.921466141299
 20
112.2491484415129
 30
0.0
 11
2373.4014661413
 21
112.2491484415129
 31
0.0
  0
LINE
  5
6473
330
1F
100
AcDbEntity
  8
DIM2
100
AcDbLine
 10
2285.921466141299
 20
174.4571484415128
 30
0.0
 11
2373.4014661413
 21
174.4571484415128
 31
0.0
  0
LINE
  5
6474
330
1F
100
AcDbEntity
  8
DIM2
100
AcDbLine
 10
2285.921466141299
 20
120.0251484415129
 30
0.0
 11
2373.4014661413
 21
120.0251484415129
 31
0.0
  0
LINE
  5
6475
330
1F
100
AcDbEntity
  8
DIM2
100
AcDbLine
 10
2285.921466141299
 20
127.8011484415128
 30
0.0
 11
2373.4014661413
 21
127.8011484415129
 31
0.0
  0
LINE
  5
6476
330
1F
100
AcDbEntity
  8
DIM2
100
AcDbLine
 10
2285.921466141299
 20
135.5771484415129
 30
0.0
 11
2373.4014661413
 21
135.5771484415129
 31
0.0
  0
LINE
  5
6477
330
1F
100
AcDbEntity
  8
DIM2
100
AcDbLine
 10
2285.921466141299
 20
143.3531484415128
 30
0.0
 11
2373.4014661413
 21
143.3531484415128
 31
0.0
  0
LINE
  5
6478
330
1F
100
AcDbEntity
  8
DIM2
100
AcDbLine
 10
2285.921466141299
 20
151.129148441513
 30
0.0
 11
2373.4014661413
 21
151.129148441513
 31
0.0
  0
LINE
  5
6479
330
1F
100
AcDbEntity
  8
DIM2
100
AcDbLine
 10
2285.921466141299
 20
158.9051484415129
 30
0.0
 11
2373.4014661413
 21
158.9051484415128
 31
0.0
  0
LINE
  5
647A
330
1F
100
AcDbEntity
  8
DIM2
100
AcDbLine
 10
2285.921466141299
 20
174.4571484415128
 30
0.0
 11
2285.921466141299
 21
88.92114844151285
 31
0.0
  0
LINE
  5
647B
330
1F
100
AcDbEntity
  8
DIM2
100
AcDbLine
 10
2300.501466141299
 20
174.4571484415128
 30
0.0
 11
2300.501466141299
 21
88.92114844151285
 31
0.0
  0
TEXT
  5
647C
330
1F
100
AcDbEntity
  8
DIM2
100
AcDbText
 10
2290.693523284156
 20
121.969148441513
 30
0.0
 40
3.888
  1
25
 41
0.8
  7
dayus
 72
     4
 11
2293.211466141299
 21
123.913148441513
 31
0.0
100
AcDbText
  0
TEXT
  5
647D
330
1F
100
AcDbEntity
  8
DIM2
100
AcDbText
 10
2290.693523284156
 20
114.1931484415128
 30
0.0
 40
3.888
  1
30
 41
0.8
  7
dayus
 72
     4
 11
2293.211466141299
 21
116.1371484415128
 31
0.0
100
AcDbText
  0
TEXT
  5
647E
330
1F
100
AcDbEntity
  8
DIM2
100
AcDbText
 10
2290.693523284156
 20
129.7451484415129
 30
0.0
 40
3.888
  1
20
 41
0.8
  7
dayus
 72
     4
 11
2293.211466141299
 21
131.6891484415129
 31
0.0
100
AcDbText
  0
TEXT
  5
647F
330
1F
100
AcDbEntity
  8
DIM2
100
AcDbText
 10
2290.989751855585
 20
137.5211484415129
 30
0.0
 40
3.888
  1
15
 41
0.8
  7
dayus
 72
     4
 11
2293.211466141299
 21
139.4651484415129
 31
0.0
100
AcDbText
  0
TEXT
  5
6480
330
1F
100
AcDbEntity
  8
DIM2
100
AcDbText
 10
2287.095454906046
 20
164.4891426462696
 30
0.0
 40
3.5
  1
stroke
 41
0.8
  7
CHINESET
 72
     4
 11
2293.228788239378
 21
166.2391426462696
 31
0.0
100
AcDbText
  0
TEXT
  5
6481
330
1F
100
AcDbEntity
  8
DIM2
100
AcDbText
 10
2292.1746661413
 20
153.0731484415128
 30
0.0
 40
3.888
  1
5
 41
0.8
  7
dayus
 72
     4
 11
2293.211466141299
 21
155.0171484415128
 31
0.0
100
AcDbText
  0
TEXT
  5
6482
330
1F
100
AcDbEntity
  8
DIM2
100
AcDbText
 10
2290.989751855585
 20
145.2971484415128
 30
0.0
 40
3.888
  1
10
 41
0.8
  7
dayus
 72
     4
 11
2293.211466141299
 21
147.2411484415128
 31
0.0
100
AcDbText
  0
LINE
  5
6483
330
1F
100
AcDbEntity
  8
DIM2
100
AcDbLine
 10
2315.081466141299
 20
174.4571484415128
 30
0.0
 11
2315.081466141299
 21
88.92114844151285
 31
0.0
  0
LINE
  5
6484
330
1F
100
AcDbEntity
  8
DIM2
100
AcDbLine
 10
2285.921466141299
 20
88.92114844151285
 30
0.0
 11
2373.4014661413
 21
88.92114844151285
 31
0.0
  0
LINE
  5
6485
330
1F
100
AcDbEntity
  8
DIM2
100
AcDbLine
 10
2285.921466141299
 20
96.69714844151299
 30
0.0
 11
2373.4014661413
 21
96.69714844151299
 31
0.0
  0
LINE
  5
6486
330
1F
100
AcDbEntity
  8
DIM2
100
AcDbLine
 10
2285.921466141299
 20
104.4731484415129
 30
0.0
 11
2373.4014661413
 21
104.4731484415129
 31
0.0
  0
TEXT
  5
6487
330
1F
100
AcDbEntity
  8
DIM2
100
AcDbText
 10
2290.693523284156
 20
98.64114844151279
 30
0.0
 40
3.888
  1
50
 41
0.8
  7
dayus
 72
     4
 11
2293.211466141299
 21
100.5851484415128
 31
0.0
100
AcDbText
  0
TEXT
  5
6488
330
1F
100
AcDbEntity
  8
DIM2
100
AcDbText
 10
2290.693523284156
 20
90.86514844151288
 30
0.0
 40
3.888
  1
60
 41
0.8
  7
dayus
 72
     4
 11
2293.211466141299
 21
92.80914844151288
 31
0.0
100
AcDbText
  0
TEXT
  5
6489
330
1F
100
AcDbEntity
  8
DIM2
100
AcDbText
 10
2290.693523284156
 20
106.4171484415129
 30
0.0
 40
3.888
  1
40
 41
0.8
  7
dayus
 72
     4
 11
2293.211466141299
 21
108.3611484415129
 31
0.0
100
AcDbText
  0
LINE
  5
648A
330
1F
100
AcDbEntity
  8
DIM2
100
AcDbLine
 10
2358.8214661413
 20
174.4571484415128
 30
0.0
 11
2358.8214661413
 21
88.92114844151285
 31
0.0
  0
TEXT
  5
648B
330
1F
100
AcDbEntity
  8
DIM2
100
AcDbText
 10
2306.549678696443
 20
164.7371484415129
 30
0.0
 40
3.888
  1
C
  7
dayus
 72
     4
 11
2307.938250125015
 21
166.6811484415129
 31
0.0
100
AcDbText
  0
TEXT
  5
648C
330
1F
100
AcDbEntity
  8
DIM2
100
AcDbText
 10
2348.8085358393
 20
164.7371484415129
 30
0.0
 40
3.888
  1
L3
  7
dayus
 72
     4
 11
2351.678250125015
 21
166.6811484415129
 31
0.0
100
AcDbText
  0
TEXT
  5
648D
330
1F
100
AcDbEntity
  8
DIM2
100
AcDbText
 10
2320.481678696443
 20
164.7371484415127
 30
0.0
 40
3.888
  1
L1
  7
dayus
 72
     4
 11
2322.518250125015
 21
166.6811484415127
 31
0.0
100
AcDbText
  0
TEXT
  5
648E
330
1F
100
AcDbEntity
  8
DIM2
100
AcDbText
 10
2334.2285358393
 20
164.7371484415127
 30
0.0
 40
3.888
  1
L2
  7
dayus
 72
     4
 11
2337.098250125015
 21
166.6811484415127
 31
0.0
100
AcDbText
  0
LINE
  5
648F
330
1F
100
AcDbEntity
  8
DIM2
100
AcDbLine
 10
2373.4014661413
 20
174.4571484415128
 30
0.0
 11
2373.4014661413
 21
88.92114844151285
 31
0.0
  0
TEXT
  5
6490
330
1F
100
AcDbEntity
  8
DIM2
100
AcDbText
 10
2364.962250125015
 20
164.7371484415129
 30
0.0
 40
3.888
  1
N
  7
dayus
 72
     4
 11
2366.258250125015
 21
166.6811484415129
 31
0.0
100
AcDbText
  0
TEXT
  5
6491
330
1F
100
AcDbEntity
  8
DIM2
100
AcDbText
 10
2350.19843756987
 20
114.4708627272271
 30
0.0
 40
3.888
  1
-
 41
0.8
  7
dayus
 72
     4
 11
2351.531466141299
 21
116.1371484415128
 31
0.0
100
AcDbText
  0
LINE
  5
6492
330
1F
100
AcDbEntity
  8
DIM2
100
AcDbLine
 10
2329.661466141299
 20
174.4571484415128
 30
0.0
 11
2329.661466141299
 21
88.92114844151285
 31
0.0
  0
LINE
  5
6493
330
1F
100
AcDbEntity
  8
DIM2
100
AcDbLine
 10
2344.2414661413
 20
174.4571484415128
 30
0.0
 11
2344.2414661413
 21
88.92114844151285
 31
0.0
  0
TEXT
  5
6494
330
1F
100
AcDbEntity
  8
DIM2
100
AcDbText
 10
2319.7794661413
 20
121.969148441513
 30
0.0
 40
3.888
  1
84
 41
0.8
  7
dayus
 72
     4
 11
2322.3714661413
 21
123.913148441513
 31
0.0
100
AcDbText
  0
TEXT
  5
6495
330
1F
100
AcDbEntity
  8
DIM2
100
AcDbText
 10
2319.7794661413
 20
137.5211484415129
 30
0.0
 40
3.888
  1
74
 41
0.8
  7
dayus
 72
     4
 11
2322.3714661413
 21
139.4651484415129
 31
0.0
100
AcDbText
  0
TEXT
  5
6496
330
1F
100
AcDbEntity
  8
DIM2
100
AcDbText
 10
2319.7794661413
 20
153.0731484415128
 30
0.0
 40
3.888
  1
64
 41
0.8
  7
dayus
 72
     4
 11
2322.3714661413
 21
155.0171484415128
 31
0.0
100
AcDbText
  0
TEXT
  5
6497
330
1F
100
AcDbEntity
  8
DIM2
100
AcDbText
 10
2318.594551855586
 20
98.64114844151279
 30
0.0
 40
3.888
  1
104
 41
0.8
  7
dayus
 72
     4
 11
2322.3714661413
 21
100.5851484415128
 31
0.0
100
AcDbText
  0
TEXT
  5
6498
330
1F
100
AcDbEntity
  8
DIM2
100
AcDbText
 10
2318.890780427014
 20
90.86514844151288
 30
0.0
 40
3.888
  1
114
 41
0.8
  7
dayus
 72
     4
 11
2322.3714661413
 21
92.80914844151288
 31
0.0
100
AcDbText
  0
TEXT
  5
6499
330
1F
100
AcDbEntity
  8
DIM2
100
AcDbText
 10
2319.7794661413
 20
106.4171484415129
 30
0.0
 40
3.888
  1
94
 41
0.8
  7
dayus
 72
     4
 11
2322.3714661413
 21
108.3611484415129
 31
0.0
100
AcDbText
  0
TEXT
  5
649A
330
1F
100
AcDbEntity
  8
DIM2
100
AcDbText
 10
2334.433523284156
 20
121.969148441513
 30
0.0
 40
3.888
  1
30
 41
0.8
  7
dayus
 72
     4
 11
2336.951466141299
 21
123.913148441513
 31
0.0
100
AcDbText
  0
TEXT
  5
649B
330
1F
100
AcDbEntity
  8
DIM2
100
AcDbText
 10
2334.433523284156
 20
137.5211484415129
 30
0.0
 40
3.888
  1
20
 41
0.8
  7
dayus
 72
     4
 11
2336.951466141299
 21
139.4651484415129
 31
0.0
100
AcDbText
  0
TEXT
  5
649C
330
1F
100
AcDbEntity
  8
DIM2
100
AcDbText
 10
2334.729751855585
 20
153.0731484415128
 30
0.0
 40
3.888
  1
10
 41
0.8
  7
dayus
 72
     4
 11
2336.951466141299
 21
155.0171484415128
 31
0.0
100
AcDbText
  0
TEXT
  5
649D
330
1F
100
AcDbEntity
  8
DIM2
100
AcDbText
 10
2334.729751855585
 20
145.2971484415128
 30
0.0
 40
3.888
  1
10
 41
0.8
  7
dayus
 72
     4
 11
2336.951466141299
 21
147.2411484415128
 31
0.0
100
AcDbText
  0
TEXT
  5
649E
330
1F
100
AcDbEntity
  8
DIM2
100
AcDbText
 10
2334.433523284156
 20
98.64114844151279
 30
0.0
 40
3.888
  1
25
 41
0.8
  7
dayus
 72
     4
 11
2336.951466141299
 21
100.5851484415128
 31
0.0
100
AcDbText
  0
TEXT
  5
649F
330
1F
100
AcDbEntity
  8
DIM2
100
AcDbText
 10
2334.433523284156
 20
90.86514844151288
 30
0.0
 40
3.888
  1
30
 41
0.8
  7
dayus
 72
     4
 11
2336.951466141299
 21
92.80914844151288
 31
0.0
100
AcDbText
  0
TEXT
  5
64A0
330
1F
100
AcDbEntity
  8
DIM2
100
AcDbText
 10
2334.433523284156
 20
106.4171484415129
 30
0.0
 40
3.888
  1
20
 41
0.8
  7
dayus
 72
     4
 11
2336.951466141299
 21
108.3611484415129
 31
0.0
100
AcDbText
  0
TEXT
  5
64A1
330
1F
100
AcDbEntity
  8
DIM2
100
AcDbText
 10
2365.000608998442
 20
153.0731484415128
 30
0.0
 40
3.888
  1
4
 41
0.8
  7
dayus
 72
     4
 11
2366.111466141299
 21
155.0171484415128
 31
0.0
100
AcDbText
  0
TEXT
  5
64A2
330
1F
100
AcDbEntity
  8
DIM2
100
AcDbText
 10
2365.148723284157
 20
98.64114844151279
 30
0.0
 40
3.888
  1
6
 41
0.8
  7
dayus
 72
     4
 11
2366.111466141299
 21
100.5851484415128
 31
0.0
100
AcDbText
  0
TEXT
  5
64A3
330
1F
100
AcDbEntity
  8
DIM2
100
AcDbText
 10
2365.148723284157
 20
90.86514844151288
 30
0.0
 40
3.888
  1
6
 41
0.8
  7
dayus
 72
     4
 11
2366.111466141299
 21
92.80914844151288
 31
0.0
100
AcDbText
  0
TEXT
  5
64A4
330
1F
100
AcDbEntity
  8
DIM2
100
AcDbText
 10
2365.148723284157
 20
106.4171484415129
 30
0.0
 40
3.888
  1
6
 41
0.8
  7
dayus
 72
     4
 11
2366.111466141299
 21
108.3611484415129
 31
0.0
100
AcDbText
  0
TEXT
  5
64A5
330
1F
100
AcDbEntity
  8
DIM2
100
AcDbText
 10
2365.000608998442
 20
145.2971484415129
 30
0.0
 40
3.888
  1
4
 41
0.8
  7
dayus
 72
     4
 11
2366.111466141299
 21
147.2411484415129
 31
0.0
100
AcDbText
  0
TEXT
  5
64A6
330
1F
100
AcDbEntity
  8
DIM2
100
AcDbText
 10
2365.000608998442
 20
137.5211484415131
 30
0.0
 40
3.888
  1
4
 41
0.8
  7
dayus
 72
     4
 11
2366.111466141299
 21
139.465148441513
 31
0.0
100
AcDbText
  0
TEXT
  5
64A7
330
1F
100
AcDbEntity
  8
DIM2
100
AcDbText
 10
2365.000608998442
 20
129.7451484415129
 30
0.0
 40
3.888
  1
4
 41
0.8
  7
dayus
 72
     4
 11
2366.111466141299
 21
131.6891484415129
 31
0.0
100
AcDbText
  0
TEXT
  5
64A8
330
1F
100
AcDbEntity
  8
DIM2
100
AcDbText
 10
2365.000608998442
 20
121.969148441513
 30
0.0
 40
3.888
  1
4
 41
0.8
  7
dayus
 72
     4
 11
2366.111466141299
 21
123.913148441513
 31
0.0
100
AcDbText
  0
TEXT
  5
64A9
330
1F
100
AcDbEntity
  8
DIM2
100
AcDbText
 10
2365.000608998442
 20
114.1931484415128
 30
0.0
 40
3.888
  1
4
 41
0.8
  7
dayus
 72
     4
 11
2366.111466141299
 21
116.1371484415128
 31
0.0
100
AcDbText
  0
TEXT
  5
64AA
330
1F
100
AcDbEntity
  8
DIM2
100
AcDbText
 10
2334.433523284156
 20
129.7451484415129
 30
0.0
 40
3.888
  1
20
 41
0.8
  7
dayus
 72
     4
 11
2336.951466141299
 21
131.6891484415128
 31
0.0
100
AcDbText
  0
TEXT
  5
64AB
330
1F
100
AcDbEntity
  8
DIM2
100
AcDbText
 10
2334.433523284156
 20
114.1931484415128
 30
0.0
 40
3.888
  1
30
 41
0.8
  7
dayus
 72
     4
 11
2336.951466141299
 21
116.1371484415128
 31
0.0
100
AcDbText
  0
TEXT
  5
64AC
330
1F
100
AcDbEntity
  8
DIM2
100
AcDbText
 10
2350.19843756987
 20
122.2468627272272
 30
0.0
 40
3.888
  1
-
 41
0.8
  7
dayus
 72
     4
 11
2351.531466141299
 21
123.913148441513
 31
0.0
100
AcDbText
  0
TEXT
  5
64AD
330
1F
100
AcDbEntity
  8
DIM2
100
AcDbText
 10
2350.19843756987
 20
130.0228627272272
 30
0.0
 40
3.888
  1
-
 41
0.8
  7
dayus
 72
     4
 11
2351.531466141299
 21
131.6891484415129
 31
0.0
100
AcDbText
  0
TEXT
  5
64AE
330
1F
100
AcDbEntity
  8
DIM2
100
AcDbText
 10
2350.19843756987
 20
137.7988627272273
 30
0.0
 40
3.888
  1
-
 41
0.8
  7
dayus
 72
     4
 11
2351.531466141299
 21
139.465148441513
 31
0.0
100
AcDbText
  0
TEXT
  5
64AF
330
1F
100
AcDbEntity
  8
DIM2
100
AcDbText
 10
2350.19843756987
 20
145.5748627272273
 30
0.0
 40
3.888
  1
-
 41
0.8
  7
dayus
 72
     4
 11
2351.531466141299
 21
147.241148441513
 31
0.0
100
AcDbText
  0
TEXT
  5
64B0
330
1F
100
AcDbEntity
  8
DIM2
100
AcDbText
 10
2350.19843756987
 20
153.3508627272272
 30
0.0
 40
3.888
  1
-
 41
0.8
  7
dayus
 72
     4
 11
2351.531466141299
 21
155.0171484415129
 31
0.0
100
AcDbText
  0
TEXT
  5
64B1
330
1F
100
AcDbEntity
  8
DIM2
100
AcDbText
 10
2349.013523284157
 20
106.4171484415129
 30
0.0
 40
3.888
  1
20
 41
0.8
  7
dayus
 72
     4
 11
2351.531466141299
 21
108.3611484415129
 31
0.0
100
AcDbText
  0
TEXT
  5
64B2
330
1F
100
AcDbEntity
  8
DIM2
100
AcDbText
 10
2349.013523284157
 20
98.64114844151279
 30
0.0
 40
3.888
  1
25
 41
0.8
  7
dayus
 72
     4
 11
2351.531466141299
 21
100.5851484415128
 31
0.0
100
AcDbText
  0
TEXT
  5
64B3
330
1F
100
AcDbEntity
  8
DIM2
100
AcDbText
 10
2349.013523284157
 20
90.86514844151288
 30
0.0
 40
3.888
  1
30
 41
0.8
  7
dayus
 72
     4
 11
2351.531466141299
 21
92.80914844151288
 31
0.0
100
AcDbText
  0
TEXT
  5
64B4
330
1F
100
AcDbEntity
  8
DIM2
100
AcDbText
 10
2305.273523284156
 20
121.969148441513
 30
0.0
 40
3.888
  1
40
 41
0.8
  7
dayus
 72
     4
 11
2307.791466141299
 21
123.913148441513
 31
0.0
100
AcDbText
  0
TEXT
  5
64B5
330
1F
100
AcDbEntity
  8
DIM2
100
AcDbText
 10
2305.273523284156
 20
137.5211484415129
 30
0.0
 40
3.888
  1
25
 41
0.8
  7
dayus
 72
     4
 11
2307.791466141299
 21
139.4651484415129
 31
0.0
100
AcDbText
  0
TEXT
  5
64B6
330
1F
100
AcDbEntity
  8
DIM2
100
AcDbText
 10
2305.273523284156
 20
153.0731484415128
 30
0.0
 40
3.888
  1
20
 41
0.8
  7
dayus
 72
     4
 11
2307.791466141299
 21
155.0171484415128
 31
0.0
100
AcDbText
  0
TEXT
  5
64B7
330
1F
100
AcDbEntity
  8
DIM2
100
AcDbText
 10
2305.273523284156
 20
98.64114844151279
 30
0.0
 40
3.888
  1
70
 41
0.8
  7
dayus
 72
     4
 11
2307.791466141299
 21
100.5851484415128
 31
0.0
100
AcDbText
  0
TEXT
  5
64B8
330
1F
100
AcDbEntity
  8
DIM2
100
AcDbText
 10
2305.273523284156
 20
90.86514844151288
 30
0.0
 40
3.888
  1
70
 41
0.8
  7
dayus
 72
     4
 11
2307.791466141299
 21
92.80914844151288
 31
0.0
100
AcDbText
  0
TEXT
  5
64B9
330
1F
100
AcDbEntity
  8
DIM2
100
AcDbText
 10
2305.273523284156
 20
106.4171484415129
 30
0.0
 40
3.888
  1
50
 41
0.8
  7
dayus
 72
     4
 11
2307.791466141299
 21
108.3611484415129
 31
0.0
100
AcDbText
  0
DIMENSION
  5
64BA
102
{ACAD_XDICTIONARY
360
64BB
102
}
102
{ACAD_REACTORS
330
64BC
102
}
330
1F
100
AcDbEntity
  8
AM_5
100
AcDbDimension
  2
*D17
 10
2040.530661397768
 20
253.1324308732252
 30
0.0
 11
2036.855144665485
 21
265.3824308732256
 31
0.0
 70
    32
 71
     5
 42
24.5
  3
AM_ISO$0
100
AcDbAlignedDimension
 13
2025.030661397768
 23
277.6324308732252
 33
0.0
 14
2023.530661397769
 24
253.1324308732252
 34
0.0
 50
90.0
100
AcDbRotatedDimension
1001
ACAD
1000
DSTYLE
1002
{
1070
    40
1040
1.5
1002
}
  0
DIMENSION
  5
64BD
330
1F
100
AcDbEntity
  8
AM_5
100
AcDbDimension
  2
*D4
 10
2040.530661397768
 20
219.1324308732252
 30
0.0
 11
2036.855661397769
 21
236.1324308732256
 31
0.0
 70
    32
 71
     5
 42
34.0
  3
AM_ISO$0
100
AcDbAlignedDimension
 13
2023.530661397769
 23
253.1324308732252
 33
0.0
 14
2023.530661397768
 24
219.1324308732252
 34
0.0
 50
90.0
100
AcDbRotatedDimension
1001
ACAD
1000
DSTYLE
1002
{
1070
    40
1040
1.5
1002
}
  0
DIMENSION
  5
64BE
102
{ACAD_XDICTIONARY
360
64BF
102
}
102
{ACAD_REACTORS
330
64C0
102
}
330
1F
100
AcDbEntity
  8
AM_5
100
AcDbDimension
  2
*D18
 10
2052.530661397768
 20
214.1324308732253
 30
0.0
 11
2048.855661397768
 21
245.8824308732256
 31
0.0
 70
    32
 71
     5
 42
63.5
  3
AM_ISO$0
100
AcDbAlignedDimension
 13
2025.030661397769
 23
277.6324308732252
 33
0.0
 14
2025.030661397769
 24
214.1324308732253
 34
0.0
 50
90.0
100
AcDbRotatedDimension
1001
ACAD
1000
DSTYLE
1002
{
1070
    40
1040
1.5
1002
}
  0
DIMENSION
  5
64C1
102
{ACAD_XDICTIONARY
360
64C2
102
}
102
{ACAD_REACTORS
330
64C3
102
}
330
1F
100
AcDbEntity
  8
AM_5
100
AcDbDimension
  2
*D19
 10
2064.530661397768
 20
213.1324308732255
 30
0.0
 11
2060.855661397768
 21
245.3824308732257
 31
0.0
 70
    32
 71
     5
 42
64.49999999999977
  3
AM_ISO$0
100
AcDbAlignedDimension
 13
2025.030661397768
 23
277.6324308732252
 33
0.0
 14
2025.530661397768
 24
213.1324308732255
 34
0.0
 50
90.0
100
AcDbRotatedDimension
1001
ACAD
1000
DSTYLE
1002
{
1070
    40
1040
1.5
1002
}
  0
DIMENSION
  5
64C4
330
1F
100
AcDbEntity
  8
AM_5
100
AcDbDimension
  2
*D5
 10
2019.530661397769
 20
198.1324308732254
 30
0.0
 11
2009.530661397768
 21
201.8079476055089
 31
0.0
 70
    32
 71
     5
 42
20.0
  3
AM_ISO$0
100
AcDbAlignedDimension
 13
1999.530661397768
 23
214.0824308732252
 33
0.0
 14
2019.530661397769
 24
214.0824308732252
 34
0.0
100
AcDbRotatedDimension
1001
ACAD
1000
DSTYLE
1002
{
1070
    40
1040
1.5
1002
}
  0
DIMENSION
  5
64C5
102
{ACAD_XDICTIONARY
360
64C6
102
}
102
{ACAD_REACTORS
330
64C7
102
}
330
1F
100
AcDbEntity
  8
AM_5
100
AcDbDimension
  2
*D20
 10
2025.530661397768
 20
186.1324308732255
 30
0.0
 11
2009.530661397768
 21
189.8079476055089
 31
0.0
 70
    32
 71
     5
 42
32.0
  3
AM_ISO$0
100
AcDbAlignedDimension
 13
1993.530661397768
 23
213.1324308732255
 33
0.0
 14
2025.530661397768
 24
213.1324308732255
 34
0.0
100
AcDbRotatedDimension
1001
ACAD
1000
DSTYLE
1002
{
1070
    40
1040
1.5
1002
}
  0
DIMENSION
  5
64C8
102
{ACAD_XDICTIONARY
360
64C9
102
}
102
{ACAD_REACTORS
330
64CA
102
}
330
1F
100
AcDbEntity
  8
AM_5
100
AcDbDimension
  2
*D21
 10
2207.89270986209
 20
378.7473506551743
 30
0.0
 11
2160.89270986209
 21
382.4223506551744
 31
0.0
 70
    32
  1
L1
 71
     5
 42
94.0
  3
AM_ISO$0
100
AcDbAlignedDimension
 13
2113.89270986209
 23
363.7473506551746
 33
0.0
 14
2207.89270986209
 24
363.7473506551743
 34
0.0
100
AcDbRotatedDimension
1001
ACAD
1000
DSTYLE
1002
{
1070
    40
1040
1.5
1002
}
  0
DIMENSION
  5
64CB
330
1F
100
AcDbEntity
  8
AM_5
100
AcDbDimension
  2
*D6
 10
2098.89270986209
 20
338.2473506551743
 30
0.0
 11
2095.217193129807
 21
348.2473506551747
 31
0.0
 70
    32
 71
     5
 42
20.0
  3
AM_ISO$0
100
AcDbAlignedDimension
 13
2123.89270986209
 23
358.2473506551743
 33
0.0
 14
2123.89270986209
 24
338.2473506551743
 34
0.0
 50
90.0
100
AcDbRotatedDimension
1001
ACAD
1000
DSTYLE
1002
{
1070
    40
1040
1.5
1002
}
  0
DIMENSION
  5
64CC
102
{ACAD_XDICTIONARY
360
64CD
102
}
102
{ACAD_REACTORS
330
64CE
102
}
330
1F
100
AcDbEntity
  8
AM_5
100
AcDbDimension
  2
*D22
 10
2086.89270986209
 20
332.7473506551746
 30
0.0
 11
2083.21770986209
 21
348.2473506551748
 31
0.0
 70
    32
 71
     5
 42
30.99999999999977
  3
AM_ISO$0
100
AcDbAlignedDimension
 13
2113.89270986209
 23
363.7473506551743
 33
0.0
 14
2113.89270986209
 24
332.7473506551746
 34
0.0
 50
90.0
100
AcDbRotatedDimension
1001
ACAD
1000
DSTYLE
1002
{
1070
    40
1040
1.5
1002
}
  0
DIMENSION
  5
64CF
102
{ACAD_XDICTIONARY
360
64D0
102
}
102
{ACAD_REACTORS
330
64D1
102
}
330
1F
100
AcDbEntity
  8
AM_5
100
AcDbDimension
  2
*D23
 10
2127.89270986209
 20
317.2473506551743
 30
0.0
 11
2120.89270986209
 21
320.9223506551743
 31
0.0
 70
    32
 71
     5
 42
14.0
  3
AM_ISO$0
100
AcDbAlignedDimension
 13
2113.89270986209
 23
332.7473506551744
 33
0.0
 14
2127.89270986209
 24
334.2473506551743
 34
0.0
100
AcDbRotatedDimension
1001
ACAD
1000
DSTYLE
1002
{
1070
    40
1040
1.5
1002
}
  0
DIMENSION
  5
64D2
330
1F
100
AcDbEntity
  8
AM_5
100
AcDbDimension
  2
*D7
 10
2147.89270986209
 20
317.2473506551743
 30
0.0
 11
2137.89270986209
 21
320.9228673874578
 31
0.0
 70
    32
  1
L2
 71
     5
 42
20.00000000000046
  3
AM_ISO$0
100
AcDbAlignedDimension
 13
2127.89270986209
 23
334.2473506551743
 33
0.0
 14
2147.89270986209
 24
334.2473506551743
 34
0.0
100
AcDbRotatedDimension
1001
ACAD
1000
DSTYLE
1002
{
1070
    40
1040
1.5
1002
}
  0
DIMENSION
  5
64D3
330
1F
100
AcDbEntity
  8
AM_5
100
AcDbDimension
  2
*D8
 10
2167.89270986209
 20
317.2473506551743
 30
0.0
 11
2157.89270986209
 21
320.9223506551743
 31
0.0
 70
    32
  1
L3
 71
     5
 42
20.00000000000046
  3
AM_ISO$0
100
AcDbAlignedDimension
 13
2147.892709862089
 23
334.2473506551743
 33
0.0
 14
2167.89270986209
 24
334.2473506551743
 34
0.0
100
AcDbRotatedDimension
1001
ACAD
1000
DSTYLE
1002
{
1070
    40
1040
1.5
1002
}
  0
DIMENSION
  5
64D4
102
{ACAD_XDICTIONARY
360
64D5
102
}
102
{ACAD_REACTORS
330
64D6
102
}
330
1F
100
AcDbEntity
  8
AM_5
100
AcDbDimension
  2
*D24
 10
2098.89270986209
 20
268.1324308732255
 30
0.0
 11
2098.89270986209
 21
272.8824308732257
 31
0.0
 70
   160
 71
     5
 42
9.499999999999772
  3
AM_ISO$0
100
AcDbAlignedDimension
 13
2113.89270986209
 23
277.6324308732252
 33
0.0
 14
2128.39270986209
 24
268.1324308732255
 34
0.0
 50
90.0
100
AcDbRotatedDimension
1001
ACAD
1000
DSTYLE
1002
{
1070
    40
1040
1.5
1002
}
  0
DIMENSION
  5
64D7
330
1F
100
AcDbEntity
  8
AM_5
100
AcDbDimension
  2
*D9
 10
2098.89270986209
 20
219.1324308732255
 30
0.0
 11
2095.21770986209
 21
236.1324308732258
 31
0.0
 70
    32
 71
     5
 42
34.0
  3
AM_ISO$0
100
AcDbAlignedDimension
 13
2129.242709862089
 23
253.1324308732255
 33
0.0
 14
2127.74270986209
 24
219.1324308732255
 34
0.0
 50
90.0
100
AcDbRotatedDimension
1001
ACAD
1000
DSTYLE
1002
{
1070
    40
1040
1.5
1002
}
  0
DIMENSION
  5
64D8
102
{ACAD_XDICTIONARY
360
64D9
102
}
102
{ACAD_REACTORS
330
64DA
102
}
330
1F
100
AcDbEntity
  8
AM_5
100
AcDbDimension
  2
*D25
 10
2098.89270986209
 20
213.1324308732257
 30
0.0
 11
2095.21770986209
 21
216.1324308732259
 31
0.0
 70
    32
 71
     5
 42
5.999999999999772
  3
AM_ISO$0
100
AcDbAlignedDimension
 13
2129.242709862089
 23
219.1324308732255
 33
0.0
 14
2129.39270986209
 24
213.1324308732257
 34
0.0
 50
90.0
100
AcDbRotatedDimension
1001
ACAD
1000
DSTYLE
1002
{
1070
    40
1040
1.5
1002
}
  0
DIMENSION
  5
64DB
102
{ACAD_XDICTIONARY
360
64DC
102
}
102
{ACAD_REACTORS
330
64DD
102
}
330
1F
100
AcDbEntity
  8
AM_5
100
AcDbDimension
  2
*D26
 10
2124.89270986209
 20
188.4707254122224
 30
0.0
 11
2119.39270986209
 21
192.1457254122224
 31
0.0
 70
    32
 71
     5
 42
11.0
  3
AM_ISO$0
100
AcDbAlignedDimension
 13
2113.89270986209
 23
214.1324308732253
 33
0.0
 14
2124.89270986209
 24
214.1324308732253
 34
0.0
100
AcDbRotatedDimension
1001
ACAD
1000
DSTYLE
1002
{
1070
    40
1040
1.5
1070
   173
1070
     1
1070
   174
1070
     1
1070
   344
1005
4259
1002
}
  0
DIMENSION
  5
64DE
102
{ACAD_XDICTIONARY
360
64DF
102
}
102
{ACAD_REACTORS
330
64E0
102
}
330
1F
100
AcDbEntity
  8
AM_5
100
AcDbDimension
  2
*D27
 10
2135.39270986209
 20
188.4707254122224
 30
0.0
 11
2132.39270986209
 21
192.1457254122224
 31
0.0
 70
    32
 71
     5
 42
6.0
  3
AM_ISO$0
100
AcDbAlignedDimension
 13
2129.39270986209
 23
213.1324308732255
 33
0.0
 14
2135.39270986209
 24
212.9824308732254
 34
0.0
100
AcDbRotatedDimension
1001
ACAD
1000
DSTYLE
1002
{
1070
    40
1040
1.5
1070
   173
1070
     1
1070
   174
1070
     1
1070
   343
1005
4259
1002
}
  0
DIMENSION
  5
64E1
330
1F
100
AcDbEntity
  8
AM_5
100
AcDbDimension
  2
*D10
 10
2185.39270986209
 20
188.4707254122224
 30
0.0
 11
2160.39270986209
 21
192.1457254122224
 31
0.0
 70
    32
  1
C
 71
     5
 42
50.0
  3
AM_ISO$0
100
AcDbAlignedDimension
 13
2135.39270986209
 23
212.9824308732255
 33
0.0
 14
2185.39270986209
 24
246.9824308732255
 34
0.0
100
AcDbRotatedDimension
1001
ACAD
1000
DSTYLE
1002
{
1070
    40
1040
1.5
1002
}
  0
DIMENSION
  5
64E2
102
{ACAD_XDICTIONARY
360
64E3
102
}
102
{ACAD_REACTORS
330
64E4
102
}
330
1F
100
AcDbEntity
  8
AM_5
100
AcDbDimension
  2
*D28
 10
2221.89270986209
 20
188.4707254122224
 30
0.0
 11
2214.39270986209
 21
192.1457254122224
 31
0.0
 70
    32
 71
     5
 42
15.0
  3
AM_ISO$0
100
AcDbAlignedDimension
 13
2206.89270986209
 23
216.1324308732255
 33
0.0
 14
2221.89270986209
 24
213.1324308732255
 34
0.0
100
AcDbRotatedDimension
1001
ACAD
1000
DSTYLE
1002
{
1070
    40
1040
1.5
1002
}
  0
DIMENSION
  5
64E5
102
{ACAD_XDICTIONARY
360
64E6
102
}
102
{ACAD_REACTORS
330
64E7
102
}
330
1F
100
AcDbEntity
  8
AM_5
100
AcDbDimension
  2
*D29
 10
2129.39270986209
 20
176.4707254122224
 30
0.0
 11
2121.64270986209
 21
180.1457254122224
 31
0.0
 70
    32
 71
     5
 42
15.5
  3
AM_ISO$0
100
AcDbAlignedDimension
 13
2113.89270986209
 23
214.1324308732253
 33
0.0
 14
2129.39270986209
 24
213.1324308732255
 34
0.0
100
AcDbRotatedDimension
1001
ACAD
1000
DSTYLE
1002
{
1070
    40
1040
1.5
1002
}
  0
DIMENSION
  5
64E8
102
{ACAD_XDICTIONARY
360
64E9
102
}
102
{ACAD_REACTORS
330
64EA
102
}
330
1F
100
AcDbEntity
  8
AM_5
100
AcDbDimension
  2
*D30
 10
2221.89270986209
 20
176.4707254122224
 30
0.0
 11
2175.64270986209
 21
180.1462421445059
 31
0.0
 70
    32
  1
52.5+stroke
 71
     5
 42
92.5
  3
AM_ISO$0
100
AcDbAlignedDimension
 13
2129.39270986209
 23
213.1324308732255
 33
0.0
 14
2221.89270986209
 24
213.1324308732255
 34
0.0
100
AcDbRotatedDimension
1001
ACAD
1000
DSTYLE
1002
{
1070
    40
1040
1.5
1002
}
  0
DIMENSION
  5
64EB
102
{ACAD_XDICTIONARY
360
64EC
102
}
102
{ACAD_REACTORS
330
64ED
102
}
330
1F
100
AcDbEntity
  8
AM_5
100
AcDbDimension
  2
*D31
 10
2221.89270986209
 20
164.4707254122224
 30
0.0
 11
2167.89270986209
 21
168.1457254122224
 31
0.0
 70
    32
  1
68+stroke
 71
     5
 42
108.0
  3
AM_ISO$0
100
AcDbAlignedDimension
 13
2113.89270986209
 23
214.1324308732253
 33
0.0
 14
2221.89270986209
 24
213.1324308732255
 34
0.0
100
AcDbRotatedDimension
1001
ACAD
1000
DSTYLE
1002
{
1070
    40
1040
1.5
1002
}
  0
DIMENSION
  5
64EE
102
{ACAD_XDICTIONARY
360
64EF
102
}
102
{ACAD_REACTORS
330
64F0
102
}
330
1F
100
AcDbEntity
  8
AM_5
100
AcDbDimension
  2
*D32
 10
2144.39270986209
 20
133.7497417496292
 30
0.0
 11
2136.89270986209
 21
137.4247417496293
 31
0.0
 70
    32
 71
     5
 42
15.0
  3
AM_ISO$0
100
AcDbAlignedDimension
 13
2129.39270986209
 23
118.7497417496292
 33
0.0
 14
2144.39270986209
 24
116.7497417496292
 34
0.0
100
AcDbRotatedDimension
1001
ACAD
1000
DSTYLE
1002
{
1070
    40
1040
1.5
1002
}
  0
DIMENSION
  5
64F1
330
1F
100
AcDbEntity
  8
AM_5
100
AcDbDimension
  2
*D11
 10
2194.39270986209
 20
133.7497417496292
 30
0.0
 11
2169.39270986209
 21
137.4247417496293
 31
0.0
 70
    32
  1
10+stroke
 71
     5
 42
50.0
  3
AM_ISO$0
100
AcDbAlignedDimension
 13
2144.39270986209
 23
116.7497417496292
 33
0.0
 14
2194.39270986209
 24
116.7497417496292
 34
0.0
100
AcDbRotatedDimension
1001
ACAD
1000
DSTYLE
1002
{
1070
    40
1040
1.5
1002
}
  0
DIMENSION
  5
64F2
330
1F
100
AcDbEntity
  8
AM_5
100
AcDbDimension
  2
*D12
 10
2098.89270986209
 20
92.74974174962926
 30
0.0
 11
2095.217193129807
 21
102.7497417496296
 31
0.0
 70
    32
 71
     5
 42
20.0
  3
AM_ISO$0
100
AcDbAlignedDimension
 13
2140.39270986209
 23
112.7497417496292
 33
0.0
 14
2140.39270986209
 24
92.74974174962926
 34
0.0
 50
90.0
100
AcDbRotatedDimension
1001
ACAD
1000
DSTYLE
1002
{
1070
    40
1040
1.5
1002
}
  0
DIMENSION
  5
64F3
330
1F
100
AcDbEntity
  8
AM_5
100
AcDbDimension
  2
*D13
 10
2236.89270986209
 20
220.1324308732255
 30
0.0
 11
2233.217193129807
 21
236.1324308732258
 31
0.0
 70
    32
 71
     5
 42
32.0
  3
AM_ISO$0
100
AcDbAlignedDimension
 13
2210.89270986209
 23
252.1324308732255
 33
0.0
 14
2210.89270986209
 24
220.1324308732255
 34
0.0
 50
90.0
100
AcDbRotatedDimension
1001
ACAD
1000
DSTYLE
1002
{
1070
    40
1040
1.5
1002
}
  0
DIMENSION
  5
64F4
102
{ACAD_XDICTIONARY
360
64F5
102
}
102
{ACAD_REACTORS
330
64F6
102
}
330
1F
100
AcDbEntity
  8
AM_5
100
AcDbDimension
  2
*D33
 10
2236.89270986209
 20
213.1324308732255
 30
0.0
 11
2233.21770986209
 21
216.6324308732258
 31
0.0
 70
    32
 71
     5
 42
7.0
  3
AM_ISO$0
100
AcDbAlignedDimension
 13
2210.89270986209
 23
220.1324308732255
 33
0.0
 14
2221.89270986209
 24
213.1324308732255
 34
0.0
 50
90.0
100
AcDbRotatedDimension
1001
ACAD
1000
DSTYLE
1002
{
1070
    40
1040
1.5
1002
}
  0
DIMENSION
  5
64F7
102
{ACAD_XDICTIONARY
360
64F8
102
}
102
{ACAD_REACTORS
330
64F9
102
}
330
1F
100
AcDbEntity
  8
AM_5
100
AcDbDimension
  2
*D34
 10
2332.13554708812
 20
292.6324308732252
 30
0.0
 11
2366.025841785412
 21
297.0593372831163
 31
0.0
 70
    32
  1
guied rail width=<>
 71
     5
 42
12.0
  3
AM_ISO$0
100
AcDbAlignedDimension
 13
2320.13554708812
 23
265.3324308732257
 33
0.0
 14
2332.13554708812
 24
265.3324308732257
 34
0.0
100
AcDbRotatedDimension
1001
ACAD
1000
DSTYLE
1002
{
1070
    40
1040
1.5
1002
}
  0
DIMENSION
  5
64FA
330
1F
100
AcDbEntity
  8
AM_5
100
AcDbDimension
  2
*D14
 10
2295.13554708812
 20
219.1324308732255
 30
0.0
 11
2291.46054708812
 21
236.1324308732259
 31
0.0
 70
    32
 71
     5
 42
34.0
  3
AM_ISO$0
100
AcDbAlignedDimension
 13
2312.13554708812
 23
253.1324308732255
 33
0.0
 14
2312.13554708812
 24
219.1324308732255
 34
0.0
 50
90.0
100
AcDbRotatedDimension
1001
ACAD
1000
DSTYLE
1002
{
1070
    40
1040
1.5
1002
}
  0
DIMENSION
  5
64FB
102
{ACAD_XDICTIONARY
360
64FC
102
}
102
{ACAD_REACTORS
330
64FD
102
}
330
1F
100
AcDbEntity
  8
AM_5
100
AcDbDimension
  2
*D35
 10
2295.13554708812
 20
213.1324308732255
 30
0.0
 11
2291.46054708812
 21
216.1324308732258
 31
0.0
 70
    32
 71
     5
 42
6.0
  3
AM_ISO$0
100
AcDbAlignedDimension
 13
2312.13554708812
 23
219.1324308732255
 33
0.0
 14
2310.13554708812
 24
213.1324308732255
 34
0.0
 50
90.0
100
AcDbRotatedDimension
1001
ACAD
1000
DSTYLE
1002
{
1070
    40
1040
1.5
1002
}
  0
DIMENSION
  5
64FE
330
1F
100
AcDbEntity
  8
AM_5
100
AcDbDimension
  2
*D15
 10
2336.13554708812
 20
198.1324308732254
 30
0.0
 11
2326.13554708812
 21
201.8079476055089
 31
0.0
 70
    32
 71
     5
 42
20.0
  3
AM_ISO$0
100
AcDbAlignedDimension
 13
2316.13554708812
 23
215.1324308732255
 33
0.0
 14
2336.13554708812
 24
215.1324308732255
 34
0.0
100
AcDbRotatedDimension
1001
ACAD
1000
DSTYLE
1002
{
1070
    40
1040
1.5
1002
}
  0
DIMENSION
  5
64FF
330
1F
100
AcDbEntity
  8
AM_5
100
AcDbDimension
  2
*D16
 10
2357.13554708812
 20
220.1324308732255
 30
0.0
 11
2353.460030355837
 21
236.1324308732259
 31
0.0
 70
    32
 71
     5
 42
32.0
  3
AM_ISO$0
100
AcDbAlignedDimension
 13
2330.13554708812
 23
252.1324308732255
 33
0.0
 14
2330.13554708812
 24
220.1324308732255
 34
0.0
 50
90.0
100
AcDbRotatedDimension
1001
ACAD
1000
DSTYLE
1002
{
1070
    40
1040
1.5
1002
}
  0
DIMENSION
  5
6500
102
{ACAD_XDICTIONARY
360
6501
102
}
102
{ACAD_REACTORS
330
6502
102
}
330
1F
100
AcDbEntity
  8
AM_5
100
AcDbDimension
  2
*D36
 10
2357.13554708812
 20
213.1324308732255
 30
0.0
 11
2353.46054708812
 21
216.6324308732258
 31
0.0
 70
    32
 71
     5
 42
7.0
  3
AM_ISO$0
100
AcDbAlignedDimension
 13
2331.18554708812
 23
220.1324308732255
 33
0.0
 14
2342.13554708812
 24
213.1324308732255
 34
0.0
 50
90.0
100
AcDbRotatedDimension
1001
ACAD
1000
DSTYLE
1002
{
1070
    40
1040
1.5
1002
}
  0
MTEXT
  5
6503
330
1F
100
AcDbEntity
  8
AM_5
100
AcDbMText
 10
2014.695681244027
 20
288.6119585704741
 30
0.0
 40
5.25
 41
0.0
 71
     7
 72
     1
  1
4-M5*0.8x11depth
 73
     1
 44
1.0
1001
ACAD
1000
MTEXTBEGIN
1070
    73
1070
     1
1070
    44
1040
1.0
1070
    74
1070
     0
1000
MTEXTEND
  0
MTEXT
  5
6504
330
1F
100
AcDbEntity
  8
AM_5
100
AcDbMText
 10
2181.500546062718
 20
321.1844412060309
 30
0.0
 40
5.25
 41
0.0
 71
     7
 72
     1
  1
N-M5*0.8x6.3depth max.
 73
     1
 44
1.0
1001
ACAD
1000
MTEXTBEGIN
1070
    73
1070
     1
1070
    44
1040
1.0
1070
    74
1070
     0
1000
MTEXTEND
  0
MTEXT
  5
6505
330
1F
100
AcDbEntity
  8
AM_5
100
AcDbMText
 10
2149.134983755069
 20
298.9496132211911
 30
0.0
 40
5.25
 41
0.0
 71
     7
 72
     1
  1
3-M6*1.0thru
 73
     1
 44
1.0
1001
ACAD
1000
MTEXTBEGIN
1070
    73
1070
     1
1070
    44
1040
1.0
1070
    74
1070
     0
1000
MTEXTEND
  0
MTEXT
  5
6506
330
1F
100
AcDbEntity
  8
AM_5
100
AcDbMText
 10
2149.033051796304
 20
291.3063043706006
 30
0.0
 40
5.25
 41
0.0
 71
     7
 72
     1
  1
{\fProxy 3|b0|i0|c136|p11;bottom hole dia.%%C\fTimes New Roman|b0|i0|c0|p18;5.1}
 73
     1
 44
1.0
1001
ACAD
1000
MTEXTBEGIN
1070
    73
1070
     1
1070
    44
1040
1.0
1070
    74
1070
     0
1000
MTEXTEND
  0
MTEXT
  5
6507
330
1F
100
AcDbEntity
  8
AM_5
100
AcDbMText
 10
2149.6370479024
 20
283.8043381815039
 30
0.0
 40
5.25
 41
0.0
 71
     7
 72
     1
  1
2*3-%%C9.3x8thru
 73
     1
 44
1.0
1001
ACAD
1000
MTEXTBEGIN
1070
    73
1070
     1
1070
    44
1040
1.0
1070
    74
1070
     0
1000
MTEXTEND
  0
MTEXT
  5
6508
330
1F
100
AcDbEntity
  8
AM_5
100
AcDbMText
 10
2223.240828937721
 20
288.1942704078698
 30
0.0
 40
5.25
 41
0.0
 71
     7
 72
     1
  1
2*2-M5*0.8*4L
 73
     1
 44
1.0
1001
ACAD
1000
MTEXTBEGIN
1070
    73
1070
     1
1070
    44
1040
1.0
1070
    74
1070
     0
1000
MTEXTEND
  0
MTEXT
  5
650A
330
1F
100
AcDbEntity
  8
AM_5
100
AcDbMText
 10
2208.269762501828
 20
129.2402727488199
 30
0.0
 40
5.25
 41
0.0
 71
     7
 72
     1
  1
4-M5*0.8x8depth
 73
     1
 44
1.0
1001
ACAD
1000
MTEXTBEGIN
1070
    73
1070
     1
1070
    44
1040
1.0
1070
    74
1070
     0
1000
MTEXTEND
  0
MTEXT
  5
650B
330
1F
100
AcDbEntity
  8
AM_5
100
AcDbMText
 10
2245.445362556285
 20
264.7818493517612
 30
0.0
 40
5.25
 41
0.0
 71
     7
 72
     1
  1
4-M5*0.8x8depth
 73
     1
 44
1.0
1001
ACAD
1000
MTEXTBEGIN
1070
    73
1070
     1
1070
    44
1040
1.0
1070
    74
1070
     0
1000
MTEXTEND
  0
MTEXT
  5
650C
330
1F
100
AcDbEntity
  8
AM_5
100
AcDbMText
 10
2353.107422035045
 20
271.2420331950283
 30
0.0
 40
5.25
 41
0.0
 71
     7
 72
     1
  1
2-M5*0.8
 73
     1
 44
1.0
1001
ACAD
1000
MTEXTBEGIN
1070
    73
1070
     1
1070
    44
1040
1.0
1070
    74
1070
     0
1000
MTEXTEND
  0
TEXT
  5
650D
330
1F
100
AcDbEntity
  8
DIM2
100
AcDbText
 10
2305.273523284157
 20
145.2971484415128
 30
0.0
 40
3.888
  1
20
 41
0.8
  7
dayus
 72
     4
 11
2307.7914661413
 21
147.2411484415128
 31
0.0
100
AcDbText
  0
TEXT
  5
650E
330
1F
100
AcDbEntity
  8
DIM2
100
AcDbText
 10
2305.273523284156
 20
129.7451484415129
 30
0.0
 40
3.888
  1
25
 41
0.8
  7
dayus
 72
     4
 11
2307.791466141299
 21
131.6891484415128
 31
0.0
100
AcDbText
  0
TEXT
  5
650F
330
1F
100
AcDbEntity
  8
DIM2
100
AcDbText
 10
2305.273523284157
 20
114.193148441513
 30
0.0
 40
3.888
  1
40
 41
0.8
  7
dayus
 72
     4
 11
2307.7914661413
 21
116.137148441513
 31
0.0
100
AcDbText
  0
TEXT
  5
6510
330
1F
100
AcDbEntity
  8
DIM2
100
AcDbText
 10
2319.7794661413
 20
145.2971484415128
 30
0.0
 40
3.888
  1
64
 41
0.8
  7
dayus
 72
     4
 11
2322.3714661413
 21
147.2411484415128
 31
0.0
100
AcDbText
  0
TEXT
  5
6511
330
1F
100
AcDbEntity
  8
DIM2
100
AcDbText
 10
2319.7794661413
 20
129.7451484415129
 30
0.0
 40
3.888
  1
74
 41
0.8
  7
dayus
 72
     4
 11
2322.3714661413
 21
131.6891484415128
 31
0.0
100
AcDbText
  0
TEXT
  5
6512
330
1F
100
AcDbEntity
  8
DIM2
100
AcDbText
 10
2319.7794661413
 20
114.1931484415129
 30
0.0
 40
3.888
  1
84
 41
0.8
  7
dayus
 72
     4
 11
2322.3714661413
 21
116.1371484415129
 31
0.0
100
AcDbText
  0
LINE
  5
6513
330
1F
100
AcDbEntity
  8
AM_VIS
100
AcDbLine
 10
2323.154948865413
 20
227.8746615500609
 30
0.0
 11
2322.532203899231
 21
226.1636838173972
 31
0.0
  0
LINE
  5
6514
330
1F
100
AcDbEntity
  8
AM_VIS
100
AcDbLine
 10
2329.738890277009
 20
226.163683817397
 30
0.0
 11
2329.116145310827
 21
227.8746615500609
 31
0.0
  0
ARC
  5
6515
330
1F
100
AcDbEntity
  8
AM_VIS
100
AcDbCircle
 10
2321.36953288592
 20
228.5244998223796
 30
0.0
 40
1.9
100
AcDbArc
 50
340.0000000000054
 51
114.0885258690895
  0
ARC
  5
6516
330
1F
100
AcDbEntity
  8
AM_VIS
100
AcDbCircle
 10
2319.818571828163
 20
231.9935803630016
 30
0.0
 40
1.9
100
AcDbArc
 50
209.3012369346632
 51
294.0885258691037
  0
ARC
  5
6517
330
1F
100
AcDbEntity
  8
AM_VIS
100
AcDbCircle
 10
2326.13554708812
 20
235.5386808732257
 30
0.0
 40
9.143749999999998
100
AcDbArc
 50
330.6987630653368
 51
209.3012369346632
  0
ARC
  5
6518
330
1F
100
AcDbEntity
  8
AM_VIS
100
AcDbCircle
 10
2332.452522348077
 20
231.9935803630016
 30
0.0
 40
1.9
100
AcDbArc
 50
245.9114741308963
 51
330.6987630653368
  0
ARC
  5
6519
330
1F
100
AcDbEntity
  8
AM_VIS
100
AcDbCircle
 10
2330.901561290321
 20
228.5244998223796
 30
0.0
 40
1.9
100
AcDbArc
 50
65.91147413091052
 51
199.9999999999946
  0
CIRCLE
  5
651A
330
1F
100
AcDbEntity
  8
AM_VIS
100
AcDbCircle
 10
2321.36953288592
 20
228.5244998223796
 30
0.0
 40
0.95
  0
CIRCLE
  5
651B
330
1F
100
AcDbEntity
  8
AM_VIS
100
AcDbCircle
 10
2330.901561290321
 20
228.5244998223796
 30
0.0
 40
0.95
  0
LINE
  5
651C
330
1F
100
AcDbEntity
  8
AM_VIS
100
AcDbLine
 10
2181.89270986209
 20
359.6907263281484
 30
0.0
 11
2183.14270986209
 21
358.9690384916614
 31
0.0
  0
LINE
  5
651D
330
1F
100
AcDbEntity
  8
AM_VIS
100
AcDbLine
 10
2180.64270986209
 20
358.9690384916614
 30
0.0
 11
2181.89270986209
 21
359.6907263281484
 31
0.0
  0
LINE
  5
651E
330
1F
100
AcDbEntity
  8
AM_VIS
100
AcDbLine
 10
2180.64270986209
 20
357.5256628186873
 30
0.0
 11
2180.64270986209
 21
358.9690384916614
 31
0.0
  0
LINE
  5
651F
330
1F
100
AcDbEntity
  8
AM_VIS
100
AcDbLine
 10
2181.89270986209
 20
356.8039749822002
 30
0.0
 11
2180.64270986209
 21
357.5256628186873
 31
0.0
  0
LINE
  5
6520
330
1F
100
AcDbEntity
  8
AM_VIS
100
AcDbLine
 10
2183.14270986209
 20
357.5256628186873
 30
0.0
 11
2181.89270986209
 21
356.8039749822002
 31
0.0
  0
LINE
  5
6521
330
1F
100
AcDbEntity
  8
AM_VIS
100
AcDbLine
 10
2183.14270986209
 20
358.9690384916614
 30
0.0
 11
2183.14270986209
 21
357.5256628186873
 31
0.0
  0
CIRCLE
  5
6522
330
1F
100
AcDbEntity
  8
AM_VIS
100
AcDbCircle
 10
2181.89270986209
 20
358.2473506551743
 30
0.0
 40
2.75
  0
LINE
  5
6523
330
1F
100
AcDbEntity
  8
AM_VIS
100
AcDbLine
 10
2196.89270986209
 20
359.6907263281484
 30
0.0
 11
2198.14270986209
 21
358.9690384916614
 31
0.0
  0
LINE
  5
6524
330
1F
100
AcDbEntity
  8
AM_VIS
100
AcDbLine
 10
2195.64270986209
 20
358.9690384916614
 30
0.0
 11
2196.89270986209
 21
359.6907263281484
 31
0.0
  0
LINE
  5
6525
330
1F
100
AcDbEntity
  8
AM_VIS
100
AcDbLine
 10
2195.64270986209
 20
357.5256628186873
 30
0.0
 11
2195.64270986209
 21
358.9690384916614
 31
0.0
  0
LINE
  5
6526
330
1F
100
AcDbEntity
  8
AM_VIS
100
AcDbLine
 10
2196.89270986209
 20
356.8039749822002
 30
0.0
 11
2195.64270986209
 21
357.5256628186873
 31
0.0
  0
LINE
  5
6527
330
1F
100
AcDbEntity
  8
AM_VIS
100
AcDbLine
 10
2198.14270986209
 20
357.5256628186873
 30
0.0
 11
2196.89270986209
 21
356.8039749822002
 31
0.0
  0
LINE
  5
6528
330
1F
100
AcDbEntity
  8
AM_VIS
100
AcDbLine
 10
2198.14270986209
 20
358.9690384916614
 30
0.0
 11
2198.14270986209
 21
357.5256628186873
 31
0.0
  0
CIRCLE
  5
6529
330
1F
100
AcDbEntity
  8
AM_VIS
100
AcDbCircle
 10
2196.89270986209
 20
358.2473506551743
 30
0.0
 40
2.75
  0
LINE
  5
652A
330
1F
100
AcDbEntity
  8
AM_VIS
100
AcDbLine
 10
2196.89270986209
 20
339.6907263281484
 30
0.0
 11
2198.14270986209
 21
338.9690384916614
 31
0.0
  0
LINE
  5
652B
330
1F
100
AcDbEntity
  8
AM_VIS
100
AcDbLine
 10
2195.64270986209
 20
338.9690384916614
 30
0.0
 11
2196.89270986209
 21
339.6907263281484
 31
0.0
  0
LINE
  5
652C
330
1F
100
AcDbEntity
  8
AM_VIS
100
AcDbLine
 10
2195.64270986209
 20
337.5256628186873
 30
0.0
 11
2195.64270986209
 21
338.9690384916614
 31
0.0
  0
LINE
  5
652D
330
1F
100
AcDbEntity
  8
AM_VIS
100
AcDbLine
 10
2196.89270986209
 20
336.8039749822003
 30
0.0
 11
2195.64270986209
 21
337.5256628186873
 31
0.0
  0
LINE
  5
652E
330
1F
100
AcDbEntity
  8
AM_VIS
100
AcDbLine
 10
2198.14270986209
 20
337.5256628186873
 30
0.0
 11
2196.89270986209
 21
336.8039749822003
 31
0.0
  0
LINE
  5
652F
330
1F
100
AcDbEntity
  8
AM_VIS
100
AcDbLine
 10
2198.14270986209
 20
338.9690384916614
 30
0.0
 11
2198.14270986209
 21
337.5256628186873
 31
0.0
  0
CIRCLE
  5
6530
330
1F
100
AcDbEntity
  8
AM_VIS
100
AcDbCircle
 10
2196.89270986209
 20
338.2473506551743
 30
0.0
 40
2.75
  0
LINE
  5
6531
330
1F
100
AcDbEntity
  8
AM_VIS
100
AcDbLine
 10
2181.89270986209
 20
339.6907263281484
 30
0.0
 11
2183.14270986209
 21
338.9690384916614
 31
0.0
  0
LINE
  5
6532
330
1F
100
AcDbEntity
  8
AM_VIS
100
AcDbLine
 10
2180.64270986209
 20
338.9690384916614
 30
0.0
 11
2181.89270986209
 21
339.6907263281484
 31
0.0
  0
LINE
  5
6533
330
1F
100
AcDbEntity
  8
AM_VIS
100
AcDbLine
 10
2180.64270986209
 20
337.5256628186873
 30
0.0
 11
2180.64270986209
 21
338.9690384916614
 31
0.0
  0
LINE
  5
6534
330
1F
100
AcDbEntity
  8
AM_VIS
100
AcDbLine
 10
2181.89270986209
 20
336.8039749822003
 30
0.0
 11
2180.64270986209
 21
337.5256628186873
 31
0.0
  0
LINE
  5
6535
330
1F
100
AcDbEntity
  8
AM_VIS
100
AcDbLine
 10
2183.14270986209
 20
337.5256628186873
 30
0.0
 11
2181.89270986209
 21
336.8039749822003
 31
0.0
  0
LINE
  5
6536
330
1F
100
AcDbEntity
  8
AM_VIS
100
AcDbLine
 10
2183.14270986209
 20
338.9690384916614
 30
0.0
 11
2183.14270986209
 21
337.5256628186873
 31
0.0
  0
CIRCLE
  5
6537
330
1F
100
AcDbEntity
  8
AM_VIS
100
AcDbCircle
 10
2181.89270986209
 20
338.2473506551743
 30
0.0
 40
2.75
  0
LINE
  5
6538
330
1F
100
AcDbEntity
  8
AM_VIS
100
AcDbLine
 10
2205.64270986209
 20
251.4107430372773
 30
0.0
 11
2205.64270986209
 21
252.8541187102514
 31
0.0
  0
LINE
  5
6539
330
1F
100
AcDbEntity
  8
AM_VIS
100
AcDbLine
 10
2205.64270986209
 20
252.8541187102514
 30
0.0
 11
2206.89270986209
 21
253.5758065467384
 31
0.0
  0
LINE
  5
653A
330
1F
100
AcDbEntity
  8
AM_VIS
100
AcDbLine
 10
2206.89270986209
 20
253.5758065467384
 30
0.0
 11
2208.14270986209
 21
252.8541187102514
 31
0.0
  0
LINE
  5
653B
330
1F
100
AcDbEntity
  8
AM_VIS
100
AcDbLine
 10
2208.14270986209
 20
252.8541187102514
 30
0.0
 11
2208.14270986209
 21
251.4107430372773
 31
0.0
  0
LINE
  5
653C
330
1F
100
AcDbEntity
  8
AM_VIS
100
AcDbLine
 10
2208.14270986209
 20
251.4107430372773
 30
0.0
 11
2206.89270986209
 21
250.6890552007902
 31
0.0
  0
LINE
  5
653D
330
1F
100
AcDbEntity
  8
AM_VIS
100
AcDbLine
 10
2206.89270986209
 20
250.6890552007902
 30
0.0
 11
2205.64270986209
 21
251.4107430372773
 31
0.0
  0
CIRCLE
  5
653E
330
1F
100
AcDbEntity
  8
AM_VIS
100
AcDbCircle
 10
2206.89270986209
 20
252.1324308732255
 30
0.0
 40
2.5
  0
LINE
  5
653F
330
1F
100
AcDbEntity
  8
AM_VIS
100
AcDbLine
 10
2205.64270986209
 20
219.4107430372773
 30
0.0
 11
2205.64270986209
 21
220.8541187102514
 31
0.0
  0
LINE
  5
6540
330
1F
100
AcDbEntity
  8
AM_VIS
100
AcDbLine
 10
2205.64270986209
 20
220.8541187102514
 30
0.0
 11
2206.89270986209
 21
221.5758065467384
 31
0.0
  0
LINE
  5
6541
330
1F
100
AcDbEntity
  8
AM_VIS
100
AcDbLine
 10
2206.89270986209
 20
221.5758065467384
 30
0.0
 11
2208.14270986209
 21
220.8541187102514
 31
0.0
  0
LINE
  5
6542
330
1F
100
AcDbEntity
  8
AM_VIS
100
AcDbLine
 10
2208.14270986209
 20
220.8541187102514
 30
0.0
 11
2208.14270986209
 21
219.4107430372773
 31
0.0
  0
LINE
  5
6543
330
1F
100
AcDbEntity
  8
AM_VIS
100
AcDbLine
 10
2208.14270986209
 20
219.4107430372773
 30
0.0
 11
2206.89270986209
 21
218.6890552007902
 31
0.0
  0
LINE
  5
6544
330
1F
100
AcDbEntity
  8
AM_VIS
100
AcDbLine
 10
2206.89270986209
 20
218.6890552007902
 30
0.0
 11
2205.64270986209
 21
219.4107430372773
 31
0.0
  0
CIRCLE
  5
6545
330
1F
100
AcDbEntity
  8
AM_VIS
100
AcDbCircle
 10
2206.89270986209
 20
220.1324308732255
 30
0.0
 40
2.5
  0
LINE
  5
6546
330
1F
100
AcDbEntity
  8
AM_7
  6
AM_ISO08W050x2
100
AcDbLine
 10
2181.89270986209
 20
358.2473506551743
 30
0.0
 11
2186.39270986209
 21
358.2473506551743
 31
0.0
1001
GENIUS_GENOREF_13
1005
65F6
  0
LINE
  5
6547
330
1F
100
AcDbEntity
  8
AM_7
  6
AM_ISO08W050x2
100
AcDbLine
 10
2181.89270986209
 20
358.2473506551743
 30
0.0
 11
2181.89270986209
 21
362.7473506551743
 31
0.0
1001
GENIUS_GENOREF_13
1005
65F6
  0
LINE
  5
6548
330
1F
100
AcDbEntity
  8
AM_7
  6
AM_ISO08W050x2
100
AcDbLine
 10
2181.89270986209
 20
358.2473506551743
 30
0.0
 11
2177.39270986209
 21
358.2473506551743
 31
0.0
1001
GENIUS_GENOREF_13
1005
65F6
  0
LINE
  5
6549
330
1F
100
AcDbEntity
  8
AM_7
  6
AM_ISO08W050x2
100
AcDbLine
 10
2181.89270986209
 20
358.2473506551743
 30
0.0
 11
2181.89270986209
 21
353.7473506551743
 31
0.0
1001
GENIUS_GENOREF_13
1005
65F6
  0
LINE
  5
654A
330
1F
100
AcDbEntity
  8
AM_7
  6
AM_ISO08W050x2
100
AcDbLine
 10
2196.89270986209
 20
358.2473506551743
 30
0.0
 11
2201.39270986209
 21
358.2473506551743
 31
0.0
1001
GENIUS_GENOREF_13
1005
65F5
  0
LINE
  5
654B
330
1F
100
AcDbEntity
  8
AM_7
  6
AM_ISO08W050x2
100
AcDbLine
 10
2196.89270986209
 20
358.2473506551743
 30
0.0
 11
2196.89270986209
 21
362.7473506551743
 31
0.0
1001
GENIUS_GENOREF_13
1005
65F5
  0
LINE
  5
654C
330
1F
100
AcDbEntity
  8
AM_7
  6
AM_ISO08W050x2
100
AcDbLine
 10
2196.89270986209
 20
358.2473506551743
 30
0.0
 11
2192.39270986209
 21
358.2473506551743
 31
0.0
1001
GENIUS_GENOREF_13
1005
65F5
  0
LINE
  5
654D
330
1F
100
AcDbEntity
  8
AM_7
  6
AM_ISO08W050x2
100
AcDbLine
 10
2196.89270986209
 20
358.2473506551743
 30
0.0
 11
2196.89270986209
 21
353.7473506551743
 31
0.0
1001
GENIUS_GENOREF_13
1005
65F5
  0
LINE
  5
654E
330
1F
100
AcDbEntity
  8
AM_7
  6
AM_ISO08W050x2
100
AcDbLine
 10
2196.89270986209
 20
338.2473506551743
 30
0.0
 11
2201.39270986209
 21
338.2473506551743
 31
0.0
1001
GENIUS_GENOREF_13
1005
65F4
  0
LINE
  5
654F
330
1F
100
AcDbEntity
  8
AM_7
  6
AM_ISO08W050x2
100
AcDbLine
 10
2196.89270986209
 20
338.2473506551743
 30
0.0
 11
2196.89270986209
 21
342.7473506551743
 31
0.0
1001
GENIUS_GENOREF_13
1005
65F4
  0
LINE
  5
6550
330
1F
100
AcDbEntity
  8
AM_7
  6
AM_ISO08W050x2
100
AcDbLine
 10
2196.89270986209
 20
338.2473506551743
 30
0.0
 11
2192.39270986209
 21
338.2473506551743
 31
0.0
1001
GENIUS_GENOREF_13
1005
65F4
  0
LINE
  5
6551
330
1F
100
AcDbEntity
  8
AM_7
  6
AM_ISO08W050x2
100
AcDbLine
 10
2196.89270986209
 20
338.2473506551743
 30
0.0
 11
2196.89270986209
 21
333.7473506551743
 31
0.0
1001
GENIUS_GENOREF_13
1005
65F4
  0
LINE
  5
6552
330
1F
100
AcDbEntity
  8
AM_7
  6
AM_ISO08W050x2
100
AcDbLine
 10
2181.89270986209
 20
338.2473506551743
 30
0.0
 11
2186.39270986209
 21
338.2473506551743
 31
0.0
1001
GENIUS_GENOREF_13
1005
65F3
  0
LINE
  5
6553
330
1F
100
AcDbEntity
  8
AM_7
  6
AM_ISO08W050x2
100
AcDbLine
 10
2181.89270986209
 20
338.2473506551743
 30
0.0
 11
2181.89270986209
 21
342.7473506551743
 31
0.0
1001
GENIUS_GENOREF_13
1005
65F3
  0
LINE
  5
6554
330
1F
100
AcDbEntity
  8
AM_7
  6
AM_ISO08W050x2
100
AcDbLine
 10
2181.89270986209
 20
338.2473506551743
 30
0.0
 11
2177.39270986209
 21
338.2473506551743
 31
0.0
1001
GENIUS_GENOREF_13
1005
65F3
  0
LINE
  5
6555
330
1F
100
AcDbEntity
  8
AM_7
  6
AM_ISO08W050x2
100
AcDbLine
 10
2181.89270986209
 20
338.2473506551743
 30
0.0
 11
2181.89270986209
 21
333.7473506551743
 31
0.0
1001
GENIUS_GENOREF_13
1005
65F3
  0
LINE
  5
6556
330
1F
100
AcDbEntity
  8
AM_7
  6
AM_ISO08W050x2
100
AcDbLine
 10
2167.89270986209
 20
358.2473506551743
 30
0.0
 11
2171.89270986209
 21
358.2473506551743
 31
0.0
1001
GENIUS_GENOREF_13
1005
65F2
  0
LINE
  5
6557
330
1F
100
AcDbEntity
  8
AM_7
  6
AM_ISO08W050x2
100
AcDbLine
 10
2167.89270986209
 20
358.2473506551743
 30
0.0
 11
2167.89270986209
 21
362.2473506551743
 31
0.0
1001
GENIUS_GENOREF_13
1005
65F2
  0
LINE
  5
6558
330
1F
100
AcDbEntity
  8
AM_7
  6
AM_ISO08W050x2
100
AcDbLine
 10
2167.89270986209
 20
358.2473506551743
 30
0.0
 11
2163.89270986209
 21
358.2473506551743
 31
0.0
1001
GENIUS_GENOREF_13
1005
65F2
  0
LINE
  5
6559
330
1F
100
AcDbEntity
  8
AM_7
  6
AM_ISO08W050x2
100
AcDbLine
 10
2167.89270986209
 20
358.2473506551743
 30
0.0
 11
2167.89270986209
 21
354.2473506551743
 31
0.0
1001
GENIUS_GENOREF_13
1005
65F2
  0
LINE
  5
655A
330
1F
100
AcDbEntity
  8
AM_7
  6
AM_ISO08W050x2
100
AcDbLine
 10
2167.89270986209
 20
338.2473506551743
 30
0.0
 11
2171.89270986209
 21
338.2473506551743
 31
0.0
1001
GENIUS_GENOREF_13
1005
65F1
  0
LINE
  5
655B
330
1F
100
AcDbEntity
  8
AM_7
  6
AM_ISO08W050x2
100
AcDbLine
 10
2167.89270986209
 20
338.2473506551743
 30
0.0
 11
2167.89270986209
 21
342.2473506551743
 31
0.0
1001
GENIUS_GENOREF_13
1005
65F1
  0
LINE
  5
655C
330
1F
100
AcDbEntity
  8
AM_7
  6
AM_ISO08W050x2
100
AcDbLine
 10
2167.89270986209
 20
338.2473506551743
 30
0.0
 11
2163.89270986209
 21
338.2473506551743
 31
0.0
1001
GENIUS_GENOREF_13
1005
65F1
  0
LINE
  5
655D
330
1F
100
AcDbEntity
  8
AM_7
  6
AM_ISO08W050x2
100
AcDbLine
 10
2167.89270986209
 20
338.2473506551743
 30
0.0
 11
2167.89270986209
 21
334.2473506551743
 31
0.0
1001
GENIUS_GENOREF_13
1005
65F1
  0
LINE
  5
655E
330
1F
100
AcDbEntity
  8
AM_7
  6
AM_ISO08W050x2
100
AcDbLine
 10
2147.89270986209
 20
338.2473506551743
 30
0.0
 11
2151.89270986209
 21
338.2473506551743
 31
0.0
1001
GENIUS_GENOREF_13
1005
65F0
  0
LINE
  5
655F
330
1F
100
AcDbEntity
  8
AM_7
  6
AM_ISO08W050x2
100
AcDbLine
 10
2147.89270986209
 20
338.2473506551743
 30
0.0
 11
2147.89270986209
 21
342.2473506551743
 31
0.0
1001
GENIUS_GENOREF_13
1005
65F0
  0
LINE
  5
6560
330
1F
100
AcDbEntity
  8
AM_7
  6
AM_ISO08W050x2
100
AcDbLine
 10
2147.89270986209
 20
338.2473506551743
 30
0.0
 11
2143.89270986209
 21
338.2473506551743
 31
0.0
1001
GENIUS_GENOREF_13
1005
65F0
  0
LINE
  5
6561
330
1F
100
AcDbEntity
  8
AM_7
  6
AM_ISO08W050x2
100
AcDbLine
 10
2147.89270986209
 20
338.2473506551743
 30
0.0
 11
2147.89270986209
 21
334.2473506551743
 31
0.0
1001
GENIUS_GENOREF_13
1005
65F0
  0
LINE
  5
6562
330
1F
100
AcDbEntity
  8
AM_7
  6
AM_ISO08W050x2
100
AcDbLine
 10
2127.89270986209
 20
338.2473506551743
 30
0.0
 11
2131.89270986209
 21
338.2473506551743
 31
0.0
1001
GENIUS_GENOREF_13
1005
65EF
  0
LINE
  5
6563
330
1F
100
AcDbEntity
  8
AM_7
  6
AM_ISO08W050x2
100
AcDbLine
 10
2127.89270986209
 20
338.2473506551743
 30
0.0
 11
2127.89270986209
 21
342.2473506551743
 31
0.0
1001
GENIUS_GENOREF_13
1005
65EF
  0
LINE
  5
6564
330
1F
100
AcDbEntity
  8
AM_7
  6
AM_ISO08W050x2
100
AcDbLine
 10
2127.89270986209
 20
338.2473506551743
 30
0.0
 11
2123.89270986209
 21
338.2473506551743
 31
0.0
1001
GENIUS_GENOREF_13
1005
65EF
  0
LINE
  5
6565
330
1F
100
AcDbEntity
  8
AM_7
  6
AM_ISO08W050x2
100
AcDbLine
 10
2127.89270986209
 20
338.2473506551743
 30
0.0
 11
2127.89270986209
 21
334.2473506551743
 31
0.0
1001
GENIUS_GENOREF_13
1005
65EF
  0
LINE
  5
6566
330
1F
100
AcDbEntity
  8
AM_7
  6
AM_ISO08W050x2
100
AcDbLine
 10
2127.89270986209
 20
358.2473506551743
 30
0.0
 11
2131.89270986209
 21
358.2473506551743
 31
0.0
1001
GENIUS_GENOREF_13
1005
65EE
  0
LINE
  5
6567
330
1F
100
AcDbEntity
  8
AM_7
  6
AM_ISO08W050x2
100
AcDbLine
 10
2127.89270986209
 20
358.2473506551743
 30
0.0
 11
2127.89270986209
 21
362.2473506551743
 31
0.0
1001
GENIUS_GENOREF_13
1005
65EE
  0
LINE
  5
6568
330
1F
100
AcDbEntity
  8
AM_7
  6
AM_ISO08W050x2
100
AcDbLine
 10
2127.89270986209
 20
358.2473506551743
 30
0.0
 11
2123.89270986209
 21
358.2473506551743
 31
0.0
1001
GENIUS_GENOREF_13
1005
65EE
  0
LINE
  5
6569
330
1F
100
AcDbEntity
  8
AM_7
  6
AM_ISO08W050x2
100
AcDbLine
 10
2127.89270986209
 20
358.2473506551743
 30
0.0
 11
2127.89270986209
 21
354.2473506551743
 31
0.0
1001
GENIUS_GENOREF_13
1005
65EE
  0
LINE
  5
656A
330
1F
100
AcDbEntity
  8
AM_7
  6
AM_ISO08W050x2
100
AcDbLine
 10
2147.89270986209
 20
358.2473506551743
 30
0.0
 11
2151.89270986209
 21
358.2473506551743
 31
0.0
1001
GENIUS_GENOREF_13
1005
65ED
  0
LINE
  5
656B
330
1F
100
AcDbEntity
  8
AM_7
  6
AM_ISO08W050x2
100
AcDbLine
 10
2147.89270986209
 20
358.2473506551743
 30
0.0
 11
2147.89270986209
 21
362.2473506551743
 31
0.0
1001
GENIUS_GENOREF_13
1005
65ED
  0
LINE
  5
656C
330
1F
100
AcDbEntity
  8
AM_7
  6
AM_ISO08W050x2
100
AcDbLine
 10
2147.89270986209
 20
358.2473506551743
 30
0.0
 11
2143.89270986209
 21
358.2473506551743
 31
0.0
1001
GENIUS_GENOREF_13
1005
65ED
  0
LINE
  5
656D
330
1F
100
AcDbEntity
  8
AM_7
  6
AM_ISO08W050x2
100
AcDbLine
 10
2147.89270986209
 20
358.2473506551743
 30
0.0
 11
2147.89270986209
 21
354.2473506551743
 31
0.0
1001
GENIUS_GENOREF_13
1005
65ED
  0
LINE
  5
656E
330
1F
100
AcDbEntity
  8
AM_7
100
AcDbLine
 10
2135.39270986209
 20
253.1324308732255
 30
0.0
 11
2141.54270986209
 21
253.1324308732255
 31
0.0
1001
GENIUS_GENOREF_13
1005
65EC
  0
LINE
  5
656F
330
1F
100
AcDbEntity
  8
AM_7
100
AcDbLine
 10
2135.39270986209
 20
253.1324308732255
 30
0.0
 11
2135.39270986209
 21
259.2824308732256
 31
0.0
1001
GENIUS_GENOREF_13
1005
65EC
  0
LINE
  5
6570
330
1F
100
AcDbEntity
  8
AM_7
100
AcDbLine
 10
2135.39270986209
 20
253.1324308732255
 30
0.0
 11
2129.242709862089
 21
253.1324308732255
 31
0.0
1001
GENIUS_GENOREF_13
1005
65EC
  0
LINE
  5
6571
330
1F
100
AcDbEntity
  8
AM_7
100
AcDbLine
 10
2135.39270986209
 20
253.1324308732255
 30
0.0
 11
2135.39270986209
 21
246.9824308732254
 31
0.0
1001
GENIUS_GENOREF_13
1005
65EC
  0
LINE
  5
6572
330
1F
100
AcDbEntity
  8
AM_7
100
AcDbLine
 10
2135.39270986209
 20
219.1324308732255
 30
0.0
 11
2141.54270986209
 21
219.1324308732255
 31
0.0
1001
GENIUS_GENOREF_13
1005
65EB
  0
LINE
  5
6573
330
1F
100
AcDbEntity
  8
AM_7
100
AcDbLine
 10
2135.39270986209
 20
219.1324308732255
 30
0.0
 11
2135.39270986209
 21
225.2824308732256
 31
0.0
1001
GENIUS_GENOREF_13
1005
65EB
  0
LINE
  5
6574
330
1F
100
AcDbEntity
  8
AM_7
100
AcDbLine
 10
2135.39270986209
 20
219.1324308732255
 30
0.0
 11
2129.242709862089
 21
219.1324308732255
 31
0.0
1001
GENIUS_GENOREF_13
1005
65EB
  0
LINE
  5
6575
330
1F
100
AcDbEntity
  8
AM_7
100
AcDbLine
 10
2135.39270986209
 20
219.1324308732255
 30
0.0
 11
2135.39270986209
 21
212.9824308732254
 31
0.0
1001
GENIUS_GENOREF_13
1005
65EB
  0
LINE
  5
6576
330
1F
100
AcDbEntity
  8
AM_7
  6
AM_ISO08W050x2
100
AcDbLine
 10
2206.89270986209
 20
220.1324308732255
 30
0.0
 11
2210.89270986209
 21
220.1324308732255
 31
0.0
1001
GENIUS_GENOREF_13
1005
65EA
  0
LINE
  5
6577
330
1F
100
AcDbEntity
  8
AM_7
  6
AM_ISO08W050x2
100
AcDbLine
 10
2206.89270986209
 20
220.1324308732255
 30
0.0
 11
2206.89270986209
 21
224.1324308732255
 31
0.0
1001
GENIUS_GENOREF_13
1005
65EA
  0
LINE
  5
6578
330
1F
100
AcDbEntity
  8
AM_7
  6
AM_ISO08W050x2
100
AcDbLine
 10
2206.89270986209
 20
220.1324308732255
 30
0.0
 11
2202.89270986209
 21
220.1324308732255
 31
0.0
1001
GENIUS_GENOREF_13
1005
65EA
  0
LINE
  5
6579
330
1F
100
AcDbEntity
  8
AM_7
  6
AM_ISO08W050x2
100
AcDbLine
 10
2206.89270986209
 20
220.1324308732255
 30
0.0
 11
2206.89270986209
 21
216.1324308732255
 31
0.0
1001
GENIUS_GENOREF_13
1005
65EA
  0
LINE
  5
657A
330
1F
100
AcDbEntity
  8
AM_7
  6
AM_ISO08W050x2
100
AcDbLine
 10
2206.89270986209
 20
252.1324308732255
 30
0.0
 11
2210.89270986209
 21
252.1324308732255
 31
0.0
1001
GENIUS_GENOREF_13
1005
65E9
  0
LINE
  5
657B
330
1F
100
AcDbEntity
  8
AM_7
  6
AM_ISO08W050x2
100
AcDbLine
 10
2206.89270986209
 20
252.1324308732255
 30
0.0
 11
2206.89270986209
 21
256.1324308732255
 31
0.0
1001
GENIUS_GENOREF_13
1005
65E9
  0
LINE
  5
657C
330
1F
100
AcDbEntity
  8
AM_7
  6
AM_ISO08W050x2
100
AcDbLine
 10
2206.89270986209
 20
252.1324308732255
 30
0.0
 11
2202.89270986209
 21
252.1324308732255
 31
0.0
1001
GENIUS_GENOREF_13
1005
65E9
  0
LINE
  5
657D
330
1F
100
AcDbEntity
  8
AM_7
  6
AM_ISO08W050x2
100
AcDbLine
 10
2206.89270986209
 20
252.1324308732255
 30
0.0
 11
2206.89270986209
 21
248.1324308732255
 31
0.0
1001
GENIUS_GENOREF_13
1005
65E9
  0
LINE
  5
657E
330
1F
100
AcDbEntity
  8
AM_7
100
AcDbLine
 10
2185.39270986209
 20
253.1324308732255
 30
0.0
 11
2191.54270986209
 21
253.1324308732255
 31
0.0
1001
GENIUS_GENOREF_13
1005
65E8
  0
LINE
  5
657F
330
1F
100
AcDbEntity
  8
AM_7
100
AcDbLine
 10
2185.39270986209
 20
253.1324308732255
 30
0.0
 11
2185.39270986209
 21
259.2824308732256
 31
0.0
1001
GENIUS_GENOREF_13
1005
65E8
  0
LINE
  5
6580
330
1F
100
AcDbEntity
  8
AM_7
100
AcDbLine
 10
2185.39270986209
 20
253.1324308732255
 30
0.0
 11
2179.242709862089
 21
253.1324308732255
 31
0.0
1001
GENIUS_GENOREF_13
1005
65E8
  0
LINE
  5
6581
330
1F
100
AcDbEntity
  8
AM_7
100
AcDbLine
 10
2185.39270986209
 20
253.1324308732255
 30
0.0
 11
2185.39270986209
 21
246.9824308732254
 31
0.0
1001
GENIUS_GENOREF_13
1005
65E8
  0
LINE
  5
6582
330
1F
100
AcDbEntity
  8
AM_7
  6
AM_ISO08W050x2
100
AcDbLine
 10
2194.39270986209
 20
112.7497417496292
 30
0.0
 11
2198.643853017941
 21
112.7497417496292
 31
0.0
1001
GENIUS_GENOREF_13
1005
65E7
  0
LINE
  5
6583
330
1F
100
AcDbEntity
  8
AM_7
  6
AM_ISO08W050x2
100
AcDbLine
 10
2194.39270986209
 20
112.7497417496292
 30
0.0
 11
2194.39270986209
 21
117.0008849054808
 31
0.0
1001
GENIUS_GENOREF_13
1005
65E7
  0
LINE
  5
6584
330
1F
100
AcDbEntity
  8
AM_7
  6
AM_ISO08W050x2
100
AcDbLine
 10
2194.39270986209
 20
112.7497417496292
 30
0.0
 11
2190.141566706238
 21
112.7497417496292
 31
0.0
1001
GENIUS_GENOREF_13
1005
65E7
  0
LINE
  5
6585
330
1F
100
AcDbEntity
  8
AM_7
  6
AM_ISO08W050x2
100
AcDbLine
 10
2194.39270986209
 20
112.7497417496292
 30
0.0
 11
2194.39270986209
 21
108.4985985937777
 31
0.0
1001
GENIUS_GENOREF_13
1005
65E7
  0
LINE
  5
6586
330
1F
100
AcDbEntity
  8
AM_7
  6
AM_ISO08W050x2
100
AcDbLine
 10
2194.39270986209
 20
92.74974174962926
 30
0.0
 11
2198.39270986209
 21
92.74974174962926
 31
0.0
1001
GENIUS_GENOREF_13
1005
65E6
  0
LINE
  5
6587
330
1F
100
AcDbEntity
  8
AM_7
  6
AM_ISO08W050x2
100
AcDbLine
 10
2194.39270986209
 20
92.74974174962926
 30
0.0
 11
2194.39270986209
 21
96.74974174962926
 31
0.0
1001
GENIUS_GENOREF_13
1005
65E6
  0
LINE
  5
6588
330
1F
100
AcDbEntity
  8
AM_7
  6
AM_ISO08W050x2
100
AcDbLine
 10
2194.39270986209
 20
92.74974174962926
 30
0.0
 11
2190.39270986209
 21
92.74974174962926
 31
0.0
1001
GENIUS_GENOREF_13
1005
65E6
  0
LINE
  5
6589
330
1F
100
AcDbEntity
  8
AM_7
  6
AM_ISO08W050x2
100
AcDbLine
 10
2194.39270986209
 20
92.74974174962926
 30
0.0
 11
2194.39270986209
 21
88.74974174962927
 31
0.0
1001
GENIUS_GENOREF_13
1005
65E6
  0
LINE
  5
658A
330
1F
100
AcDbEntity
  8
AM_7
  6
AM_ISO08W050x2
100
AcDbLine
 10
2144.39270986209
 20
92.74974174962926
 30
0.0
 11
2148.39270986209
 21
92.74974174962926
 31
0.0
1001
GENIUS_GENOREF_13
1005
65E5
  0
LINE
  5
658B
330
1F
100
AcDbEntity
  8
AM_7
  6
AM_ISO08W050x2
100
AcDbLine
 10
2144.39270986209
 20
92.74974174962926
 30
0.0
 11
2144.39270986209
 21
96.74974174962926
 31
0.0
1001
GENIUS_GENOREF_13
1005
65E5
  0
LINE
  5
658C
330
1F
100
AcDbEntity
  8
AM_7
  6
AM_ISO08W050x2
100
AcDbLine
 10
2144.39270986209
 20
92.74974174962926
 30
0.0
 11
2140.39270986209
 21
92.74974174962926
 31
0.0
1001
GENIUS_GENOREF_13
1005
65E5
  0
LINE
  5
658D
330
1F
100
AcDbEntity
  8
AM_7
  6
AM_ISO08W050x2
100
AcDbLine
 10
2144.39270986209
 20
92.74974174962926
 30
0.0
 11
2144.39270986209
 21
88.74974174962927
 31
0.0
1001
GENIUS_GENOREF_13
1005
65E5
  0
LINE
  5
658E
330
1F
100
AcDbEntity
  8
AM_7
  6
AM_ISO08W050x2
100
AcDbLine
 10
2144.39270986209
 20
112.7497417496292
 30
0.0
 11
2148.39270986209
 21
112.7497417496292
 31
0.0
1001
GENIUS_GENOREF_13
1005
65E4
  0
LINE
  5
658F
330
1F
100
AcDbEntity
  8
AM_7
  6
AM_ISO08W050x2
100
AcDbLine
 10
2144.39270986209
 20
112.7497417496292
 30
0.0
 11
2144.39270986209
 21
116.7497417496292
 31
0.0
1001
GENIUS_GENOREF_13
1005
65E4
  0
LINE
  5
6590
330
1F
100
AcDbEntity
  8
AM_7
  6
AM_ISO08W050x2
100
AcDbLine
 10
2144.39270986209
 20
112.7497417496292
 30
0.0
 11
2140.39270986209
 21
112.7497417496292
 31
0.0
1001
GENIUS_GENOREF_13
1005
65E4
  0
LINE
  5
6591
330
1F
100
AcDbEntity
  8
AM_7
  6
AM_ISO08W050x2
100
AcDbLine
 10
2144.39270986209
 20
112.7497417496292
 30
0.0
 11
2144.39270986209
 21
108.7497417496292
 31
0.0
1001
GENIUS_GENOREF_13
1005
65E4
  0
LINE
  5
6592
330
1F
100
AcDbEntity
  8
AM_7
  6
AM_ISO08W050x2
100
AcDbLine
 10
2150.39270986209
 20
102.7497417496292
 30
0.0
 11
2154.14270986209
 21
102.7497417496292
 31
0.0
1001
GENIUS_GENOREF_13
1005
65E3
  0
LINE
  5
6593
330
1F
100
AcDbEntity
  8
AM_7
  6
AM_ISO08W050x2
100
AcDbLine
 10
2150.39270986209
 20
102.7497417496292
 30
0.0
 11
2150.39270986209
 21
106.4997417496292
 31
0.0
1001
GENIUS_GENOREF_13
1005
65E3
  0
LINE
  5
6594
330
1F
100
AcDbEntity
  8
AM_7
  6
AM_ISO08W050x2
100
AcDbLine
 10
2150.39270986209
 20
102.7497417496292
 30
0.0
 11
2146.64270986209
 21
102.7497417496292
 31
0.0
1001
GENIUS_GENOREF_13
1005
65E3
  0
LINE
  5
6595
330
1F
100
AcDbEntity
  8
AM_7
  6
AM_ISO08W050x2
100
AcDbLine
 10
2150.39270986209
 20
102.7497417496292
 30
0.0
 11
2150.39270986209
 21
98.99974174962927
 31
0.0
1001
GENIUS_GENOREF_13
1005
65E3
  0
LINE
  5
6596
330
1F
100
AcDbEntity
  8
AM_7
100
AcDbLine
 10
2009.530661397768
 20
236.1324308732255
 30
0.0
 11
2024.030661397768
 21
236.1324308732255
 31
0.0
1001
GENIUS_GENOREF_13
1005
65E2
  0
LINE
  5
6597
330
1F
100
AcDbEntity
  8
AM_7
100
AcDbLine
 10
2009.530661397768
 20
236.1324308732255
 30
0.0
 11
2009.530661397768
 21
250.632430873225
 31
0.0
1001
GENIUS_GENOREF_13
1005
65E2
  0
LINE
  5
6598
330
1F
100
AcDbEntity
  8
AM_7
100
AcDbLine
 10
2009.530661397768
 20
236.1324308732255
 30
0.0
 11
1995.030661397769
 21
236.1324308732255
 31
0.0
1001
GENIUS_GENOREF_13
1005
65E2
  0
LINE
  5
6599
330
1F
100
AcDbEntity
  8
AM_7
100
AcDbLine
 10
2009.530661397768
 20
236.1324308732255
 30
0.0
 11
2009.530661397768
 21
221.6324308732259
 31
0.0
1001
GENIUS_GENOREF_13
1005
65E2
  0
LINE
  5
659A
330
1F
100
AcDbEntity
  8
AM_7
  6
AM_ISO08W050x2
100
AcDbLine
 10
2019.530661397768
 20
219.1324308732252
 30
0.0
 11
2023.530661397768
 21
219.1324308732252
 31
0.0
1001
GENIUS_GENOREF_13
1005
65E1
  0
LINE
  5
659B
330
1F
100
AcDbEntity
  8
AM_7
  6
AM_ISO08W050x2
100
AcDbLine
 10
2019.530661397768
 20
219.1324308732252
 30
0.0
 11
2019.530661397768
 21
223.1324308732252
 31
0.0
1001
GENIUS_GENOREF_13
1005
65E1
  0
LINE
  5
659C
330
1F
100
AcDbEntity
  8
AM_7
  6
AM_ISO08W050x2
100
AcDbLine
 10
2019.530661397768
 20
219.1324308732252
 30
0.0
 11
2015.530661397768
 21
219.1324308732252
 31
0.0
1001
GENIUS_GENOREF_13
1005
65E1
  0
LINE
  5
659D
330
1F
100
AcDbEntity
  8
AM_7
  6
AM_ISO08W050x2
100
AcDbLine
 10
2019.530661397768
 20
219.1324308732252
 30
0.0
 11
2019.530661397768
 21
215.1324308732252
 31
0.0
1001
GENIUS_GENOREF_13
1005
65E1
  0
LINE
  5
659E
330
1F
100
AcDbEntity
  8
AM_7
  6
AM_ISO08W050x2
100
AcDbLine
 10
1999.530661397768
 20
219.1324308732252
 30
0.0
 11
2003.530661397768
 21
219.1324308732252
 31
0.0
1001
GENIUS_GENOREF_13
1005
65E0
  0
LINE
  5
659F
330
1F
100
AcDbEntity
  8
AM_7
  6
AM_ISO08W050x2
100
AcDbLine
 10
1999.530661397768
 20
219.1324308732252
 30
0.0
 11
1999.530661397768
 21
223.1324308732252
 31
0.0
1001
GENIUS_GENOREF_13
1005
65E0
  0
LINE
  5
65A0
330
1F
100
AcDbEntity
  8
AM_7
  6
AM_ISO08W050x2
100
AcDbLine
 10
1999.530661397768
 20
219.1324308732252
 30
0.0
 11
1995.530661397768
 21
219.1324308732252
 31
0.0
1001
GENIUS_GENOREF_13
1005
65E0
  0
LINE
  5
65A1
330
1F
100
AcDbEntity
  8
AM_7
  6
AM_ISO08W050x2
100
AcDbLine
 10
1999.530661397768
 20
219.1324308732252
 30
0.0
 11
1999.530661397768
 21
215.1324308732252
 31
0.0
1001
GENIUS_GENOREF_13
1005
65E0
  0
LINE
  5
65A2
330
1F
100
AcDbEntity
  8
AM_7
  6
AM_ISO08W050x2
100
AcDbLine
 10
1999.530661397768
 20
253.1324308732252
 30
0.0
 11
2003.530661397769
 21
253.1324308732252
 31
0.0
1001
GENIUS_GENOREF_13
1005
65DF
  0
LINE
  5
65A3
330
1F
100
AcDbEntity
  8
AM_7
  6
AM_ISO08W050x2
100
AcDbLine
 10
1999.530661397768
 20
253.1324308732252
 30
0.0
 11
1999.530661397768
 21
257.1324308732252
 31
0.0
1001
GENIUS_GENOREF_13
1005
65DF
  0
LINE
  5
65A4
330
1F
100
AcDbEntity
  8
AM_7
  6
AM_ISO08W050x2
100
AcDbLine
 10
1999.530661397768
 20
253.1324308732252
 30
0.0
 11
1995.530661397768
 21
253.1324308732252
 31
0.0
1001
GENIUS_GENOREF_13
1005
65DF
  0
LINE
  5
65A5
330
1F
100
AcDbEntity
  8
AM_7
  6
AM_ISO08W050x2
100
AcDbLine
 10
1999.530661397768
 20
253.1324308732252
 30
0.0
 11
1999.530661397768
 21
249.1324308732252
 31
0.0
1001
GENIUS_GENOREF_13
1005
65DF
  0
LINE
  5
65A6
330
1F
100
AcDbEntity
  8
AM_7
  6
AM_ISO08W050x2
100
AcDbLine
 10
2019.530661397769
 20
253.1324308732252
 30
0.0
 11
2023.530661397769
 21
253.1324308732252
 31
0.0
1001
GENIUS_GENOREF_13
1005
65DE
  0
LINE
  5
65A7
330
1F
100
AcDbEntity
  8
AM_7
  6
AM_ISO08W050x2
100
AcDbLine
 10
2019.530661397769
 20
253.1324308732252
 30
0.0
 11
2019.530661397769
 21
257.1324308732252
 31
0.0
1001
GENIUS_GENOREF_13
1005
65DE
  0
LINE
  5
65A8
330
1F
100
AcDbEntity
  8
AM_7
  6
AM_ISO08W050x2
100
AcDbLine
 10
2019.530661397769
 20
253.1324308732252
 30
0.0
 11
2015.530661397769
 21
253.1324308732252
 31
0.0
1001
GENIUS_GENOREF_13
1005
65DE
  0
LINE
  5
65A9
330
1F
100
AcDbEntity
  8
AM_7
  6
AM_ISO08W050x2
100
AcDbLine
 10
2019.530661397769
 20
253.1324308732252
 30
0.0
 11
2019.530661397769
 21
249.1324308732252
 31
0.0
1001
GENIUS_GENOREF_13
1005
65DE
  0
LINE
  5
65AA
330
1F
100
AcDbEntity
  8
AM_7
  6
AM_ISO08W050x2
100
AcDbLine
 10
2316.13554708812
 20
253.1324308732255
 30
0.0
 11
2320.13554708812
 21
253.1324308732255
 31
0.0
1001
GENIUS_GENOREF_13
1005
65DD
  0
LINE
  5
65AB
330
1F
100
AcDbEntity
  8
AM_7
  6
AM_ISO08W050x2
100
AcDbLine
 10
2316.13554708812
 20
253.1324308732255
 30
0.0
 11
2316.13554708812
 21
257.1324308732255
 31
0.0
1001
GENIUS_GENOREF_13
1005
65DD
  0
LINE
  5
65AC
330
1F
100
AcDbEntity
  8
AM_7
  6
AM_ISO08W050x2
100
AcDbLine
 10
2316.13554708812
 20
253.1324308732255
 30
0.0
 11
2312.13554708812
 21
253.1324308732255
 31
0.0
1001
GENIUS_GENOREF_13
1005
65DD
  0
LINE
  5
65AD
330
1F
100
AcDbEntity
  8
AM_7
  6
AM_ISO08W050x2
100
AcDbLine
 10
2316.13554708812
 20
253.1324308732255
 30
0.0
 11
2316.13554708812
 21
249.1324308732255
 31
0.0
1001
GENIUS_GENOREF_13
1005
65DD
  0
LINE
  5
65AE
330
1F
100
AcDbEntity
  8
AM_7
  6
AM_ISO08W050x2
100
AcDbLine
 10
2326.13554708812
 20
252.1324308732255
 30
0.0
 11
2330.13554708812
 21
252.1324308732255
 31
0.0
1001
GENIUS_GENOREF_13
1005
65DC
  0
LINE
  5
65AF
330
1F
100
AcDbEntity
  8
AM_7
  6
AM_ISO08W050x2
100
AcDbLine
 10
2326.13554708812
 20
252.1324308732255
 30
0.0
 11
2326.13554708812
 21
256.1324308732255
 31
0.0
1001
GENIUS_GENOREF_13
1005
65DC
  0
LINE
  5
65B0
330
1F
100
AcDbEntity
  8
AM_7
  6
AM_ISO08W050x2
100
AcDbLine
 10
2326.13554708812
 20
252.1324308732255
 30
0.0
 11
2322.13554708812
 21
252.1324308732255
 31
0.0
1001
GENIUS_GENOREF_13
1005
65DC
  0
LINE
  5
65B1
330
1F
100
AcDbEntity
  8
AM_7
  6
AM_ISO08W050x2
100
AcDbLine
 10
2326.13554708812
 20
252.1324308732255
 30
0.0
 11
2326.13554708812
 21
248.1324308732255
 31
0.0
1001
GENIUS_GENOREF_13
1005
65DC
  0
LINE
  5
65B2
330
1F
100
AcDbEntity
  8
AM_7
  6
AM_ISO08W050x2
100
AcDbLine
 10
2336.13554708812
 20
253.1324308732255
 30
0.0
 11
2340.13554708812
 21
253.1324308732255
 31
0.0
1001
GENIUS_GENOREF_13
1005
65DB
  0
LINE
  5
65B3
330
1F
100
AcDbEntity
  8
AM_7
  6
AM_ISO08W050x2
100
AcDbLine
 10
2336.13554708812
 20
253.1324308732255
 30
0.0
 11
2336.13554708812
 21
257.1324308732255
 31
0.0
1001
GENIUS_GENOREF_13
1005
65DB
  0
LINE
  5
65B4
330
1F
100
AcDbEntity
  8
AM_7
  6
AM_ISO08W050x2
100
AcDbLine
 10
2336.13554708812
 20
253.1324308732255
 30
0.0
 11
2332.13554708812
 21
253.1324308732255
 31
0.0
1001
GENIUS_GENOREF_13
1005
65DB
  0
LINE
  5
65B5
330
1F
100
AcDbEntity
  8
AM_7
  6
AM_ISO08W050x2
100
AcDbLine
 10
2336.13554708812
 20
253.1324308732255
 30
0.0
 11
2336.13554708812
 21
249.1324308732255
 31
0.0
1001
GENIUS_GENOREF_13
1005
65DB
  0
LINE
  5
65B6
330
1F
100
AcDbEntity
  8
AM_7
  6
AM_ISO08W050x2
100
AcDbLine
 10
2336.13554708812
 20
219.1324308732255
 30
0.0
 11
2340.13554708812
 21
219.1324308732255
 31
0.0
1001
GENIUS_GENOREF_13
1005
65DA
  0
LINE
  5
65B7
330
1F
100
AcDbEntity
  8
AM_7
  6
AM_ISO08W050x2
100
AcDbLine
 10
2336.13554708812
 20
219.1324308732255
 30
0.0
 11
2336.13554708812
 21
223.1324308732255
 31
0.0
1001
GENIUS_GENOREF_13
1005
65DA
  0
LINE
  5
65B8
330
1F
100
AcDbEntity
  8
AM_7
  6
AM_ISO08W050x2
100
AcDbLine
 10
2336.13554708812
 20
219.1324308732255
 30
0.0
 11
2332.13554708812
 21
219.1324308732255
 31
0.0
1001
GENIUS_GENOREF_13
1005
65DA
  0
LINE
  5
65B9
330
1F
100
AcDbEntity
  8
AM_7
  6
AM_ISO08W050x2
100
AcDbLine
 10
2336.13554708812
 20
219.1324308732255
 30
0.0
 11
2336.13554708812
 21
215.1324308732255
 31
0.0
1001
GENIUS_GENOREF_13
1005
65DA
  0
LINE
  5
65BA
330
1F
100
AcDbEntity
  8
AM_7
  6
AM_ISO08W050x2
100
AcDbLine
 10
2326.13554708812
 20
220.1324308732255
 30
0.0
 11
2330.13554708812
 21
220.1324308732255
 31
0.0
1001
GENIUS_GENOREF_13
1005
65D9
  0
LINE
  5
65BB
330
1F
100
AcDbEntity
  8
AM_7
  6
AM_ISO08W050x2
100
AcDbLine
 10
2326.13554708812
 20
220.1324308732255
 30
0.0
 11
2326.13554708812
 21
224.1324308732255
 31
0.0
1001
GENIUS_GENOREF_13
1005
65D9
  0
LINE
  5
65BC
330
1F
100
AcDbEntity
  8
AM_7
  6
AM_ISO08W050x2
100
AcDbLine
 10
2326.13554708812
 20
220.1324308732255
 30
0.0
 11
2322.13554708812
 21
220.1324308732255
 31
0.0
1001
GENIUS_GENOREF_13
1005
65D9
  0
LINE
  5
65BD
330
1F
100
AcDbEntity
  8
AM_7
  6
AM_ISO08W050x2
100
AcDbLine
 10
2326.13554708812
 20
220.1324308732255
 30
0.0
 11
2326.13554708812
 21
216.1324308732255
 31
0.0
1001
GENIUS_GENOREF_13
1005
65D9
  0
LINE
  5
65BE
330
1F
100
AcDbEntity
  8
AM_7
  6
AM_ISO08W050x2
100
AcDbLine
 10
2316.13554708812
 20
219.1324308732255
 30
0.0
 11
2320.13554708812
 21
219.1324308732255
 31
0.0
1001
GENIUS_GENOREF_13
1005
65D8
  0
LINE
  5
65BF
330
1F
100
AcDbEntity
  8
AM_7
  6
AM_ISO08W050x2
100
AcDbLine
 10
2316.13554708812
 20
219.1324308732255
 30
0.0
 11
2316.13554708812
 21
223.1324308732255
 31
0.0
1001
GENIUS_GENOREF_13
1005
65D8
  0
LINE
  5
65C0
330
1F
100
AcDbEntity
  8
AM_7
  6
AM_ISO08W050x2
100
AcDbLine
 10
2316.13554708812
 20
219.1324308732255
 30
0.0
 11
2312.13554708812
 21
219.1324308732255
 31
0.0
1001
GENIUS_GENOREF_13
1005
65D8
  0
LINE
  5
65C1
330
1F
100
AcDbEntity
  8
AM_7
  6
AM_ISO08W050x2
100
AcDbLine
 10
2316.13554708812
 20
219.1324308732255
 30
0.0
 11
2316.13554708812
 21
215.1324308732255
 31
0.0
1001
GENIUS_GENOREF_13
1005
65D8
  0
LINE
  5
65C2
330
1F
100
AcDbEntity
  8
AM_7
100
AcDbLine
 10
2110.51915102074
 20
102.7497417496292
 30
0.0
 11
2224.842878972832
 21
102.7497417496292
 31
0.0
1001
GENIUS_GENODEF_13
1002
{
1000
HIER
1070
     0
1002
}
1002
{
1000
MANEDIT
1070
     0
1002
}
1002
{
1000
NOSEL
1070
     0
1002
}
1002
{
1000
BEHIND
1070
     0
1002
}
1002
{
1000
OTHER
1070
     0
1002
}
1002
{
1000
REACTOR
1002
}
1001
GENIUS_GENOBJ-N-CEN_13
1002
{
1000
OWNER
1000
GEN
1002
}
1001
GENIUS_GENCEN_19
1002
{
1040
1.5
1002
}
  0
LINE
  5
65C3
330
1F
100
AcDbEntity
  8
AM_7
100
AcDbLine
 10
2111.438343299568
 20
236.1225217207756
 30
0.0
 11
2225.654777533431
 21
236.1225217207756
 31
0.0
1001
GENIUS_GENOBJ-N-CEN_13
1002
{
1000
OWNER
1000
GEN
1002
}
1001
GENIUS_GENODEF_13
1002
{
1000
HIER
1070
     0
1002
}
1002
{
1000
MANEDIT
1070
     0
1002
}
1002
{
1000
NOSEL
1070
     0
1002
}
1002
{
1000
BEHIND
1070
     0
1002
}
1002
{
1000
OTHER
1070
     0
1002
}
1002
{
1000
REACTOR
1002
}
1001
GENIUS_GENCEN_19
1002
{
1040
1.5
1002
}
  0
LINE
  5
65C4
330
1F
100
AcDbEntity
  8
AM_7
100
AcDbLine
 10
2326.13554708812
 20
236.1324308732255
 30
0.0
 11
2338.53554708812
 21
236.1324308732255
 31
0.0
1001
GENIUS_GENOREF_13
1005
65D7
  0
LINE
  5
65C5
330
1F
100
AcDbEntity
  8
AM_7
100
AcDbLine
 10
2326.13554708812
 20
236.1324308732255
 30
0.0
 11
2326.13554708812
 21
248.5324308732256
 31
0.0
1001
GENIUS_GENOREF_13
1005
65D7
  0
LINE
  5
65C6
330
1F
100
AcDbEntity
  8
AM_7
100
AcDbLine
 10
2326.13554708812
 20
236.1324308732255
 30
0.0
 11
2313.73554708812
 21
236.1324308732255
 31
0.0
1001
GENIUS_GENOREF_13
1005
65D7
  0
LINE
  5
65C7
330
1F
100
AcDbEntity
  8
AM_7
100
AcDbLine
 10
2326.13554708812
 20
236.1324308732255
 30
0.0
 11
2326.13554708812
 21
223.7324308732254
 31
0.0
1001
GENIUS_GENOREF_13
1005
65D7
  0
LINE
  5
65C8
330
1F
100
AcDbEntity
  8
AM_7
100
AcDbLine
 10
2110.247927603994
 20
348.2473506551746
 30
0.0
 11
2224.544286339624
 21
348.2473506551746
 31
0.0
1001
GENIUS_GENODEF_13
1002
{
1000
HIER
1070
     0
1002
}
1002
{
1000
MANEDIT
1070
     0
1002
}
1002
{
1000
NOSEL
1070
     0
1002
}
1002
{
1000
BEHIND
1070
     0
1002
}
1002
{
1000
OTHER
1070
     0
1002
}
1002
{
1000
REACTOR
1002
}
1001
GENIUS_GENOBJ-N-CEN_13
1002
{
1000
OWNER
1000
GEN
1002
}
1001
GENIUS_GENCEN_19
1002
{
1040
1.5
1002
}
  0
INSERT
  5
65C9
330
1F
100
AcDbEntity
  8
AM_5
100
AcDbBlockReference
  2
*S38
 10
0.0
 20
0.0
 30
0.0
  0
INSERT
  5
65CA
330
1F
100
AcDbEntity
  8
AM_5
100
AcDbBlockReference
  2
*S39
 10
0.0
 20
0.0
 30
0.0
  0
INSERT
  5
65CB
330
1F
100
AcDbEntity
  8
AM_5
100
AcDbBlockReference
  2
*S40
 10
0.0
 20
0.0
 30
0.0
  0
INSERT
  5
65CC
330
1F
100
AcDbEntity
  8
AM_5
100
AcDbBlockReference
  2
*S41
 10
0.0
 20
0.0
 30
0.0
  0
INSERT
  5
65CD
330
1F
100
AcDbEntity
  8
AM_5
100
AcDbBlockReference
  2
*S42
 10
0.0
 20
0.0
 30
0.0
  0
INSERT
  5
65CE
330
1F
100
AcDbEntity
  8
AM_5
100
AcDbBlockReference
  2
*S43
 10
0.0
 20
0.0
 30
0.0
  0
INSERT
  5
65CF
330
1F
100
AcDbEntity
  8
AM_5
100
AcDbBlockReference
  2
*S44
 10
0.0
 20
0.0
 30
0.0
  0
POINT
  5
65D7
330
1F
100
AcDbEntity
  8
0
 60
     1
100
AcDbPoint
 10
820.3159569150704
 20
348.7419381178123
 30
0.0
1001
GENIUS_GENODEF_13
1002
{
1000
HIER
1070
    10
1002
}
1002
{
1000
MANEDIT
1070
     0
1002
}
1002
{
1000
NOSEL
1070
     0
1002
}
1002
{
1000
BEHIND
1070
     0
1002
}
1002
{
1000
OTHER
1070
     0
1002
}
1002
{
1000
REACTOR
1002
}
1001
GENIUS_GENOENT_13
1002
{
1000
MYREF
1005
65D7
1002
}
1002
{
1000
GRP
1005
0
1002
}
1001
GENIUS_GENOBJ-N-CRS_13
1002
{
1000
OWNER
1000
GEN
1002
}
1001
GENIUS_GENOLIS_13
1002
{
1000
ENT
1005
65C7
1005
65C6
1005
65C5
1005
65C4
1002
}
  0
POINT
  5
65D8
330
1F
100
AcDbEntity
  8
0
 60
     1
100
AcDbPoint
 10
820.3159569150704
 20
348.7419381178123
 30
0.0
1001
GENIUS_GENOLIS_13
1002
{
1000
ENT
1005
65C1
1005
65C0
1005
65BF
1005
65BE
1002
}
1001
GENIUS_GENOENT_13
1002
{
1000
MYREF
1005
65D8
1002
}
1002
{
1000
GRP
1005
0
1002
}
1001
GENIUS_GENOBJ-N-CRS_13
1002
{
1000
OWNER
1000
GEN
1002
}
1001
GENIUS_GENODEF_13
1002
{
1000
HIER
1070
    10
1002
}
1002
{
1000
MANEDIT
1070
     0
1002
}
1002
{
1000
NOSEL
1070
     0
1002
}
1002
{
1000
BEHIND
1070
     0
1002
}
1002
{
1000
OTHER
1070
     0
1002
}
1002
{
1000
REACTOR
1002
}
  0
POINT
  5
65D9
330
1F
100
AcDbEntity
  8
0
 60
     1
100
AcDbPoint
 10
820.3159569150704
 20
348.7419381178123
 30
0.0
1001
GENIUS_GENOBJ-N-CRS_13
1002
{
1000
OWNER
1000
GEN
1002
}
1001
GENIUS_GENODEF_13
1002
{
1000
HIER
1070
    10
1002
}
1002
{
1000
MANEDIT
1070
     0
1002
}
1002
{
1000
NOSEL
1070
     0
1002
}
1002
{
1000
BEHIND
1070
     0
1002
}
1002
{
1000
OTHER
1070
     0
1002
}
1002
{
1000
REACTOR
1002
}
1001
GENIUS_GENOLIS_13
1002
{
1000
ENT
1005
65BD
1005
65BC
1005
65BB
1005
65BA
1002
}
1001
GENIUS_GENOENT_13
1002
{
1000
MYREF
1005
65D9
1002
}
1002
{
1000
GRP
1005
0
1002
}
  0
POINT
  5
65DA
330
1F
100
AcDbEntity
  8
0
 60
     1
100
AcDbPoint
 10
820.3159569150704
 20
348.7419381178123
 30
0.0
1001
GENIUS_GENOENT_13
1002
{
1000
MYREF
1005
65DA
1002
}
1002
{
1000
GRP
1005
0
1002
}
1001
GENIUS_GENOBJ-N-CRS_13
1002
{
1000
OWNER
1000
GEN
1002
}
1001
GENIUS_GENODEF_13
1002
{
1000
HIER
1070
    10
1002
}
1002
{
1000
MANEDIT
1070
     0
1002
}
1002
{
1000
NOSEL
1070
     0
1002
}
1002
{
1000
BEHIND
1070
     0
1002
}
1002
{
1000
OTHER
1070
     0
1002
}
1002
{
1000
REACTOR
1002
}
1001
GENIUS_GENOLIS_13
1002
{
1000
ENT
1005
65B9
1005
65B8
1005
65B7
1005
65B6
1002
}
  0
POINT
  5
65DB
330
1F
100
AcDbEntity
  8
0
 60
     1
100
AcDbPoint
 10
820.3159569150704
 20
348.7419381178123
 30
0.0
1001
GENIUS_GENODEF_13
1002
{
1000
HIER
1070
    10
1002
}
1002
{
1000
MANEDIT
1070
     0
1002
}
1002
{
1000
NOSEL
1070
     0
1002
}
1002
{
1000
BEHIND
1070
     0
1002
}
1002
{
1000
OTHER
1070
     0
1002
}
1002
{
1000
REACTOR
1002
}
1001
GENIUS_GENOENT_13
1002
{
1000
MYREF
1005
65DB
1002
}
1002
{
1000
GRP
1005
0
1002
}
1001
GENIUS_GENOBJ-N-CRS_13
1002
{
1000
OWNER
1000
GEN
1002
}
1001
GENIUS_GENOLIS_13
1002
{
1000
ENT
1005
65B5
1005
65B4
1005
65B3
1005
65B2
1002
}
  0
POINT
  5
65DC
330
1F
100
AcDbEntity
  8
0
 60
     1
100
AcDbPoint
 10
820.3159569150704
 20
348.7419381178123
 30
0.0
1001
GENIUS_GENODEF_13
1002
{
1000
HIER
1070
    10
1002
}
1002
{
1000
MANEDIT
1070
     0
1002
}
1002
{
1000
NOSEL
1070
     0
1002
}
1002
{
1000
BEHIND
1070
     0
1002
}
1002
{
1000
OTHER
1070
     0
1002
}
1002
{
1000
REACTOR
1002
}
1001
GENIUS_GENOLIS_13
1002
{
1000
ENT
1005
65B1
1005
65B0
1005
65AF
1005
65AE
1002
}
1001
GENIUS_GENOBJ-N-CRS_13
1002
{
1000
OWNER
1000
GEN
1002
}
1001
GENIUS_GENOENT_13
1002
{
1000
MYREF
1005
65DC
1002
}
1002
{
1000
GRP
1005
0
1002
}
  0
POINT
  5
65DD
330
1F
100
AcDbEntity
  8
0
 60
     1
100
AcDbPoint
 10
820.3159569150704
 20
348.7419381178123
 30
0.0
1001
GENIUS_GENODEF_13
1002
{
1000
HIER
1070
    10
1002
}
1002
{
1000
MANEDIT
1070
     0
1002
}
1002
{
1000
NOSEL
1070
     0
1002
}
1002
{
1000
BEHIND
1070
     0
1002
}
1002
{
1000
OTHER
1070
     0
1002
}
1002
{
1000
REACTOR
1002
}
1001
GENIUS_GENOENT_13
1002
{
1000
MYREF
1005
65DD
1002
}
1002
{
1000
GRP
1005
0
1002
}
1001
GENIUS_GENOBJ-N-CRS_13
1002
{
1000
OWNER
1000
GEN
1002
}
1001
GENIUS_GENOLIS_13
1002
{
1000
ENT
1005
65AD
1005
65AC
1005
65AB
1005
65AA
1002
}
  0
POINT
  5
65DE
330
1F
100
AcDbEntity
  8
0
 60
     1
100
AcDbPoint
 10
820.3159569150704
 20
348.7419381178123
 30
0.0
1001
GENIUS_GENOBJ-N-CRS_13
1002
{
1000
OWNER
1000
GEN
1002
}
1001
GENIUS_GENOLIS_13
1002
{
1000
ENT
1005
65A9
1005
65A8
1005
65A7
1005
65A6
1002
}
1001
GENIUS_GENOENT_13
1002
{
1000
MYREF
1005
65DE
1002
}
1002
{
1000
GRP
1005
0
1002
}
1001
GENIUS_GENODEF_13
1002
{
1000
HIER
1070
    10
1002
}
1002
{
1000
MANEDIT
1070
     0
1002
}
1002
{
1000
NOSEL
1070
     0
1002
}
1002
{
1000
BEHIND
1070
     0
1002
}
1002
{
1000
OTHER
1070
     0
1002
}
1002
{
1000
REACTOR
1002
}
  0
POINT
  5
65DF
330
1F
100
AcDbEntity
  8
0
 60
     1
100
AcDbPoint
 10
820.3159569150704
 20
348.7419381178123
 30
0.0
1001
GENIUS_GENOBJ-N-CRS_13
1002
{
1000
OWNER
1000
GEN
1002
}
1001
GENIUS_GENOLIS_13
1002
{
1000
ENT
1005
65A5
1005
65A4
1005
65A3
1005
65A2
1002
}
1001
GENIUS_GENOENT_13
1002
{
1000
MYREF
1005
65DF
1002
}
1002
{
1000
GRP
1005
0
1002
}
1001
GENIUS_GENODEF_13
1002
{
1000
HIER
1070
    10
1002
}
1002
{
1000
MANEDIT
1070
     0
1002
}
1002
{
1000
NOSEL
1070
     0
1002
}
1002
{
1000
BEHIND
1070
     0
1002
}
1002
{
1000
OTHER
1070
     0
1002
}
1002
{
1000
REACTOR
1002
}
  0
POINT
  5
65E0
330
1F
100
AcDbEntity
  8
0
 60
     1
100
AcDbPoint
 10
820.3159569150704
 20
348.7419381178123
 30
0.0
1001
GENIUS_GENODEF_13
1002
{
1000
HIER
1070
    10
1002
}
1002
{
1000
MANEDIT
1070
     0
1002
}
1002
{
1000
NOSEL
1070
     0
1002
}
1002
{
1000
BEHIND
1070
     0
1002
}
1002
{
1000
OTHER
1070
     0
1002
}
1002
{
1000
REACTOR
1002
}
1001
GENIUS_GENOENT_13
1002
{
1000
MYREF
1005
65E0
1002
}
1002
{
1000
GRP
1005
0
1002
}
1001
GENIUS_GENOBJ-N-CRS_13
1002
{
1000
OWNER
1000
GEN
1002
}
1001
GENIUS_GENOLIS_13
1002
{
1000
ENT
1005
65A1
1005
65A0
1005
659F
1005
659E
1002
}
  0
POINT
  5
65E1
330
1F
100
AcDbEntity
  8
0
 60
     1
100
AcDbPoint
 10
820.3159569150704
 20
348.7419381178123
 30
0.0
1001
GENIUS_GENOENT_13
1002
{
1000
MYREF
1005
65E1
1002
}
1002
{
1000
GRP
1005
0
1002
}
1001
GENIUS_GENOBJ-N-CRS_13
1002
{
1000
OWNER
1000
GEN
1002
}
1001
GENIUS_GENODEF_13
1002
{
1000
HIER
1070
    10
1002
}
1002
{
1000
MANEDIT
1070
     0
1002
}
1002
{
1000
NOSEL
1070
     0
1002
}
1002
{
1000
BEHIND
1070
     0
1002
}
1002
{
1000
OTHER
1070
     0
1002
}
1002
{
1000
REACTOR
1002
}
1001
GENIUS_GENOLIS_13
1002
{
1000
ENT
1005
659D
1005
659C
1005
659B
1005
659A
1002
}
  0
POINT
  5
65E2
330
1F
100
AcDbEntity
  8
0
 60
     1
100
AcDbPoint
 10
820.3159569150704
 20
348.7419381178123
 30
0.0
1001
GENIUS_GENOENT_13
1002
{
1000
MYREF
1005
65E2
1002
}
1002
{
1000
GRP
1005
0
1002
}
1001
GENIUS_GENOBJ-N-CRS_13
1002
{
1000
OWNER
1000
GEN
1002
}
1001
GENIUS_GENOLIS_13
1002
{
1000
ENT
1005
6599
1005
6598
1005
6597
1005
6596
1002
}
1001
GENIUS_GENODEF_13
1002
{
1000
HIER
1070
    10
1002
}
1002
{
1000
MANEDIT
1070
     0
1002
}
1002
{
1000
NOSEL
1070
     0
1002
}
1002
{
1000
BEHIND
1070
     0
1002
}
1002
{
1000
OTHER
1070
     0
1002
}
1002
{
1000
REACTOR
1002
}
  0
POINT
  5
65E3
330
1F
100
AcDbEntity
  8
0
 60
     1
100
AcDbPoint
 10
820.3159569150704
 20
348.7419381178123
 30
0.0
1001
GENIUS_GENODEF_13
1002
{
1000
HIER
1070
    10
1002
}
1002
{
1000
MANEDIT
1070
     0
1002
}
1002
{
1000
NOSEL
1070
     0
1002
}
1002
{
1000
BEHIND
1070
     0
1002
}
1002
{
1000
OTHER
1070
     0
1002
}
1002
{
1000
REACTOR
1002
}
1001
GENIUS_GENOENT_13
1002
{
1000
MYREF
1005
65E3
1002
}
1002
{
1000
GRP
1005
0
1002
}
1001
GENIUS_GENOBJ-N-CRS_13
1002
{
1000
OWNER
1000
GEN
1002
}
1001
GENIUS_GENOLIS_13
1002
{
1000
ENT
1005
6595
1005
6594
1005
6593
1005
6592
1002
}
  0
POINT
  5
65E4
330
1F
100
AcDbEntity
  8
0
 60
     1
100
AcDbPoint
 10
820.3159569150704
 20
348.7419381178123
 30
0.0
1001
GENIUS_GENODEF_13
1002
{
1000
HIER
1070
    10
1002
}
1002
{
1000
MANEDIT
1070
     0
1002
}
1002
{
1000
NOSEL
1070
     0
1002
}
1002
{
1000
BEHIND
1070
     0
1002
}
1002
{
1000
OTHER
1070
     0
1002
}
1002
{
1000
REACTOR
1002
}
1001
GENIUS_GENOENT_13
1002
{
1000
MYREF
1005
65E4
1002
}
1002
{
1000
GRP
1005
0
1002
}
1001
GENIUS_GENOBJ-N-CRS_13
1002
{
1000
OWNER
1000
GEN
1002
}
1001
GENIUS_GENOLIS_13
1002
{
1000
ENT
1005
6591
1005
6590
1005
658F
1005
658E
1002
}
  0
POINT
  5
65E5
330
1F
100
AcDbEntity
  8
0
 60
     1
100
AcDbPoint
 10
820.3159569150704
 20
348.7419381178123
 30
0.0
1001
GENIUS_GENOLIS_13
1002
{
1000
ENT
1005
658D
1005
658C
1005
658B
1005
658A
1002
}
1001
GENIUS_GENOENT_13
1002
{
1000
MYREF
1005
65E5
1002
}
1002
{
1000
GRP
1005
0
1002
}
1001
GENIUS_GENODEF_13
1002
{
1000
HIER
1070
    10
1002
}
1002
{
1000
MANEDIT
1070
     0
1002
}
1002
{
1000
NOSEL
1070
     0
1002
}
1002
{
1000
BEHIND
1070
     0
1002
}
1002
{
1000
OTHER
1070
     0
1002
}
1002
{
1000
REACTOR
1002
}
1001
GENIUS_GENOBJ-N-CRS_13
1002
{
1000
OWNER
1000
GEN
1002
}
  0
POINT
  5
65E6
330
1F
100
AcDbEntity
  8
0
 60
     1
100
AcDbPoint
 10
820.3159569150704
 20
348.7419381178123
 30
0.0
1001
GENIUS_GENODEF_13
1002
{
1000
HIER
1070
    10
1002
}
1002
{
1000
MANEDIT
1070
     0
1002
}
1002
{
1000
NOSEL
1070
     0
1002
}
1002
{
1000
BEHIND
1070
     0
1002
}
1002
{
1000
OTHER
1070
     0
1002
}
1002
{
1000
REACTOR
1002
}
1001
GENIUS_GENOLIS_13
1002
{
1000
ENT
1005
6589
1005
6588
1005
6587
1005
6586
1002
}
1001
GENIUS_GENOENT_13
1002
{
1000
MYREF
1005
65E6
1002
}
1002
{
1000
GRP
1005
0
1002
}
1001
GENIUS_GENOBJ-N-CRS_13
1002
{
1000
OWNER
1000
GEN
1002
}
  0
POINT
  5
65E7
330
1F
100
AcDbEntity
  8
0
 60
     1
100
AcDbPoint
 10
820.3159569150704
 20
348.7419381178123
 30
0.0
1001
GENIUS_GENOLIS_13
1002
{
1000
ENT
1005
6585
1005
6584
1005
6583
1005
6582
1002
}
1001
GENIUS_GENOBJ-N-CRS_13
1002
{
1000
OWNER
1000
GEN
1002
}
1001
GENIUS_GENOENT_13
1002
{
1000
MYREF
1005
65E7
1002
}
1002
{
1000
GRP
1005
0
1002
}
1001
GENIUS_GENODEF_13
1002
{
1000
HIER
1070
    10
1002
}
1002
{
1000
MANEDIT
1070
     0
1002
}
1002
{
1000
NOSEL
1070
     0
1002
}
1002
{
1000
BEHIND
1070
     0
1002
}
1002
{
1000
OTHER
1070
     0
1002
}
1002
{
1000
REACTOR
1002
}
  0
POINT
  5
65E8
330
1F
100
AcDbEntity
  8
0
 60
     1
100
AcDbPoint
 10
820.3159569150704
 20
348.7419381178123
 30
0.0
1001
GENIUS_GENOENT_13
1002
{
1000
MYREF
1005
65E8
1002
}
1002
{
1000
GRP
1005
0
1002
}
1001
GENIUS_GENOBJ-N-CRS_13
1002
{
1000
OWNER
1000
GEN
1002
}
1001
GENIUS_GENODEF_13
1002
{
1000
HIER
1070
    10
1002
}
1002
{
1000
MANEDIT
1070
     0
1002
}
1002
{
1000
NOSEL
1070
     0
1002
}
1002
{
1000
BEHIND
1070
     0
1002
}
1002
{
1000
OTHER
1070
     0
1002
}
1002
{
1000
REACTOR
1002
}
1001
GENIUS_GENOLIS_13
1002
{
1000
ENT
1005
6581
1005
6580
1005
657F
1005
657E
1002
}
  0
POINT
  5
65E9
330
1F
100
AcDbEntity
  8
0
 60
     1
100
AcDbPoint
 10
820.3159569150704
 20
348.7419381178123
 30
0.0
1001
GENIUS_GENOBJ-N-CRS_13
1002
{
1000
OWNER
1000
GEN
1002
}
1001
GENIUS_GENODEF_13
1002
{
1000
HIER
1070
    10
1002
}
1002
{
1000
MANEDIT
1070
     0
1002
}
1002
{
1000
NOSEL
1070
     0
1002
}
1002
{
1000
BEHIND
1070
     0
1002
}
1002
{
1000
OTHER
1070
     0
1002
}
1002
{
1000
REACTOR
1002
}
1001
GENIUS_GENOENT_13
1002
{
1000
MYREF
1005
65E9
1002
}
1002
{
1000
GRP
1005
0
1002
}
1001
GENIUS_GENOLIS_13
1002
{
1000
ENT
1005
657D
1005
657C
1005
657B
1005
657A
1002
}
  0
POINT
  5
65EA
330
1F
100
AcDbEntity
  8
0
 60
     1
100
AcDbPoint
 10
820.3159569150704
 20
348.7419381178123
 30
0.0
1001
GENIUS_GENODEF_13
1002
{
1000
HIER
1070
    10
1002
}
1002
{
1000
MANEDIT
1070
     0
1002
}
1002
{
1000
NOSEL
1070
     0
1002
}
1002
{
1000
BEHIND
1070
     0
1002
}
1002
{
1000
OTHER
1070
     0
1002
}
1002
{
1000
REACTOR
1002
}
1001
GENIUS_GENOENT_13
1002
{
1000
MYREF
1005
65EA
1002
}
1002
{
1000
GRP
1005
0
1002
}
1001
GENIUS_GENOLIS_13
1002
{
1000
ENT
1005
6579
1005
6578
1005
6577
1005
6576
1002
}
1001
GENIUS_GENOBJ-N-CRS_13
1002
{
1000
OWNER
1000
GEN
1002
}
  0
POINT
  5
65EB
330
1F
100
AcDbEntity
  8
0
 60
     1
100
AcDbPoint
 10
820.3159569150704
 20
348.7419381178123
 30
0.0
1001
GENIUS_GENODEF_13
1002
{
1000
HIER
1070
    10
1002
}
1002
{
1000
MANEDIT
1070
     0
1002
}
1002
{
1000
NOSEL
1070
     0
1002
}
1002
{
1000
BEHIND
1070
     0
1002
}
1002
{
1000
OTHER
1070
     0
1002
}
1002
{
1000
REACTOR
1002
}
1001
GENIUS_GENOENT_13
1002
{
1000
MYREF
1005
65EB
1002
}
1002
{
1000
GRP
1005
0
1002
}
1001
GENIUS_GENOBJ-N-CRS_13
1002
{
1000
OWNER
1000
GEN
1002
}
1001
GENIUS_GENOLIS_13
1002
{
1000
ENT
1005
6575
1005
6574
1005
6573
1005
6572
1002
}
  0
POINT
  5
65EC
330
1F
100
AcDbEntity
  8
0
 60
     1
100
AcDbPoint
 10
820.3159569150704
 20
348.7419381178123
 30
0.0
1001
GENIUS_GENODEF_13
1002
{
1000
HIER
1070
    10
1002
}
1002
{
1000
MANEDIT
1070
     0
1002
}
1002
{
1000
NOSEL
1070
     0
1002
}
1002
{
1000
BEHIND
1070
     0
1002
}
1002
{
1000
OTHER
1070
     0
1002
}
1002
{
1000
REACTOR
1002
}
1001
GENIUS_GENOLIS_13
1002
{
1000
ENT
1005
6571
1005
6570
1005
656F
1005
656E
1002
}
1001
GENIUS_GENOENT_13
1002
{
1000
MYREF
1005
65EC
1002
}
1002
{
1000
GRP
1005
0
1002
}
1001
GENIUS_GENOBJ-N-CRS_13
1002
{
1000
OWNER
1000
GEN
1002
}
  0
POINT
  5
65ED
330
1F
100
AcDbEntity
  8
0
 60
     1
100
AcDbPoint
 10
820.3159569150704
 20
348.7419381178123
 30
0.0
1001
GENIUS_GENODEF_13
1002
{
1000
HIER
1070
    10
1002
}
1002
{
1000
MANEDIT
1070
     0
1002
}
1002
{
1000
NOSEL
1070
     0
1002
}
1002
{
1000
BEHIND
1070
     0
1002
}
1002
{
1000
OTHER
1070
     0
1002
}
1002
{
1000
REACTOR
1002
}
1001
GENIUS_GENOENT_13
1002
{
1000
MYREF
1005
65ED
1002
}
1002
{
1000
GRP
1005
0
1002
}
1001
GENIUS_GENOBJ-N-CRS_13
1002
{
1000
OWNER
1000
GEN
1002
}
1001
GENIUS_GENOLIS_13
1002
{
1000
ENT
1005
656D
1005
656C
1005
656B
1005
656A
1002
}
  0
POINT
  5
65EE
330
1F
100
AcDbEntity
  8
0
 60
     1
100
AcDbPoint
 10
820.3159569150704
 20
348.7419381178123
 30
0.0
1001
GENIUS_GENODEF_13
1002
{
1000
HIER
1070
    10
1002
}
1002
{
1000
MANEDIT
1070
     0
1002
}
1002
{
1000
NOSEL
1070
     0
1002
}
1002
{
1000
BEHIND
1070
     0
1002
}
1002
{
1000
OTHER
1070
     0
1002
}
1002
{
1000
REACTOR
1002
}
1001
GENIUS_GENOENT_13
1002
{
1000
MYREF
1005
65EE
1002
}
1002
{
1000
GRP
1005
0
1002
}
1001
GENIUS_GENOBJ-N-CRS_13
1002
{
1000
OWNER
1000
GEN
1002
}
1001
GENIUS_GENOLIS_13
1002
{
1000
ENT
1005
6569
1005
6568
1005
6567
1005
6566
1002
}
  0
POINT
  5
65EF
330
1F
100
AcDbEntity
  8
0
 60
     1
100
AcDbPoint
 10
820.3159569150704
 20
348.7419381178123
 30
0.0
1001
GENIUS_GENOLIS_13
1002
{
1000
ENT
1005
6565
1005
6564
1005
6563
1005
6562
1002
}
1001
GENIUS_GENODEF_13
1002
{
1000
HIER
1070
    10
1002
}
1002
{
1000
MANEDIT
1070
     0
1002
}
1002
{
1000
NOSEL
1070
     0
1002
}
1002
{
1000
BEHIND
1070
     0
1002
}
1002
{
1000
OTHER
1070
     0
1002
}
1002
{
1000
REACTOR
1002
}
1001
GENIUS_GENOENT_13
1002
{
1000
MYREF
1005
65EF
1002
}
1002
{
1000
GRP
1005
0
1002
}
1001
GENIUS_GENOBJ-N-CRS_13
1002
{
1000
OWNER
1000
GEN
1002
}
  0
POINT
  5
65F0
330
1F
100
AcDbEntity
  8
0
 60
     1
100
AcDbPoint
 10
820.3159569150704
 20
348.7419381178123
 30
0.0
1001
GENIUS_GENOENT_13
1002
{
1000
MYREF
1005
65F0
1002
}
1002
{
1000
GRP
1005
0
1002
}
1001
GENIUS_GENOLIS_13
1002
{
1000
ENT
1005
6561
1005
6560
1005
655F
1005
655E
1002
}
1001
GENIUS_GENODEF_13
1002
{
1000
HIER
1070
    10
1002
}
1002
{
1000
MANEDIT
1070
     0
1002
}
1002
{
1000
NOSEL
1070
     0
1002
}
1002
{
1000
BEHIND
1070
     0
1002
}
1002
{
1000
OTHER
1070
     0
1002
}
1002
{
1000
REACTOR
1002
}
1001
GENIUS_GENOBJ-N-CRS_13
1002
{
1000
OWNER
1000
GEN
1002
}
  0
POINT
  5
65F1
330
1F
100
AcDbEntity
  8
0
 60
     1
100
AcDbPoint
 10
820.3159569150704
 20
348.7419381178123
 30
0.0
1001
GENIUS_GENODEF_13
1002
{
1000
HIER
1070
    10
1002
}
1002
{
1000
MANEDIT
1070
     0
1002
}
1002
{
1000
NOSEL
1070
     0
1002
}
1002
{
1000
BEHIND
1070
     0
1002
}
1002
{
1000
OTHER
1070
     0
1002
}
1002
{
1000
REACTOR
1002
}
1001
GENIUS_GENOLIS_13
1002
{
1000
ENT
1005
655D
1005
655C
1005
655B
1005
655A
1002
}
1001
GENIUS_GENOENT_13
1002
{
1000
MYREF
1005
65F1
1002
}
1002
{
1000
GRP
1005
0
1002
}
1001
GENIUS_GENOBJ-N-CRS_13
1002
{
1000
OWNER
1000
GEN
1002
}
  0
POINT
  5
65F2
330
1F
100
AcDbEntity
  8
0
 60
     1
100
AcDbPoint
 10
820.3159569150704
 20
348.7419381178123
 30
0.0
1001
GENIUS_GENODEF_13
1002
{
1000
HIER
1070
    10
1002
}
1002
{
1000
MANEDIT
1070
     0
1002
}
1002
{
1000
NOSEL
1070
     0
1002
}
1002
{
1000
BEHIND
1070
     0
1002
}
1002
{
1000
OTHER
1070
     0
1002
}
1002
{
1000
REACTOR
1002
}
1001
GENIUS_GENOLIS_13
1002
{
1000
ENT
1005
6559
1005
6558
1005
6557
1005
6556
1002
}
1001
GENIUS_GENOBJ-N-CRS_13
1002
{
1000
OWNER
1000
GEN
1002
}
1001
GENIUS_GENOENT_13
1002
{
1000
MYREF
1005
65F2
1002
}
1002
{
1000
GRP
1005
0
1002
}
  0
POINT
  5
65F3
330
1F
100
AcDbEntity
  8
0
 60
     1
100
AcDbPoint
 10
820.3159569150704
 20
348.7419381178123
 30
0.0
1001
GENIUS_GENOLIS_13
1002
{
1000
ENT
1005
6555
1005
6554
1005
6553
1005
6552
1002
}
1001
GENIUS_GENODEF_13
1002
{
1000
HIER
1070
    10
1002
}
1002
{
1000
MANEDIT
1070
     0
1002
}
1002
{
1000
NOSEL
1070
     0
1002
}
1002
{
1000
BEHIND
1070
     0
1002
}
1002
{
1000
OTHER
1070
     0
1002
}
1002
{
1000
REACTOR
1002
}
1001
GENIUS_GENOENT_13
1002
{
1000
MYREF
1005
65F3
1002
}
1002
{
1000
GRP
1005
0
1002
}
1001
GENIUS_GENOBJ-N-CRS_13
1002
{
1000
OWNER
1000
GEN
1002
}
  0
POINT
  5
65F4
330
1F
100
AcDbEntity
  8
0
 60
     1
100
AcDbPoint
 10
820.3159569150704
 20
348.7419381178123
 30
0.0
1001
GENIUS_GENOBJ-N-CRS_13
1002
{
1000
OWNER
1000
GEN
1002
}
1001
GENIUS_GENOENT_13
1002
{
1000
MYREF
1005
65F4
1002
}
1002
{
1000
GRP
1005
0
1002
}
1001
GENIUS_GENOLIS_13
1002
{
1000
ENT
1005
6551
1005
6550
1005
654F
1005
654E
1002
}
1001
GENIUS_GENODEF_13
1002
{
1000
HIER
1070
    10
1002
}
1002
{
1000
MANEDIT
1070
     0
1002
}
1002
{
1000
NOSEL
1070
     0
1002
}
1002
{
1000
BEHIND
1070
     0
1002
}
1002
{
1000
OTHER
1070
     0
1002
}
1002
{
1000
REACTOR
1002
}
  0
POINT
  5
65F5
330
1F
100
AcDbEntity
  8
0
 60
     1
100
AcDbPoint
 10
820.3159569150704
 20
348.7419381178123
 30
0.0
1001
GENIUS_GENOENT_13
1002
{
1000
MYREF
1005
65F5
1002
}
1002
{
1000
GRP
1005
0
1002
}
1001
GENIUS_GENOBJ-N-CRS_13
1002
{
1000
OWNER
1000
GEN
1002
}
1001
GENIUS_GENOLIS_13
1002
{
1000
ENT
1005
654D
1005
654C
1005
654B
1005
654A
1002
}
1001
GENIUS_GENODEF_13
1002
{
1000
HIER
1070
    10
1002
}
1002
{
1000
MANEDIT
1070
     0
1002
}
1002
{
1000
NOSEL
1070
     0
1002
}
1002
{
1000
BEHIND
1070
     0
1002
}
1002
{
1000
OTHER
1070
     0
1002
}
1002
{
1000
REACTOR
1002
}
  0
POINT
  5
65F6
330
1F
100
AcDbEntity
  8
0
 60
     1
100
AcDbPoint
 10
820.3159569150704
 20
348.7419381178123
 30
0.0
1001
GENIUS_GENODEF_13
1002
{
1000
HIER
1070
    10
1002
}
1002
{
1000
MANEDIT
1070
     0
1002
}
1002
{
1000
NOSEL
1070
     0
1002
}
1002
{
1000
BEHIND
1070
     0
1002
}
1002
{
1000
OTHER
1070
     0
1002
}
1002
{
1000
REACTOR
1002
}
1001
GENIUS_GENOENT_13
1002
{
1000
MYREF
1005
65F6
1002
}
1002
{
1000
GRP
1005
0
1002
}
1001
GENIUS_GENOBJ-N-CRS_13
1002
{
1000
OWNER
1000
GEN
1002
}
1001
GENIUS_GENOLIS_13
1002
{
1000
ENT
1005
6549
1005
6548
1005
6547
1005
6546
1002
}
  0
MTEXT
  5
686B
330
1F
100
AcDbEntity
  8
AM_5
100
AcDbMText
 10
2224.199691589302
 20
279.5992294481429
 30
0.0
 40
5.04
 41
0.0
 71
     7
 72
     1
  1
plug for port
 73
     1
 44
1.0
1001
ACAD
1000
MTEXTBEGIN
1070
    73
1070
     1
1070
    44
1040
1.0
1070
    74
1070
     0
1000
MTEXTEND
  0
TEXT
  5
686C
330
1F
100
AcDbEntity
  8
AM_5
100
AcDbText
 10
2222.306786100718
 20
274.624054911212
 30
0.0
 40
4.319999999999999
  1
(hexagon socket head set screw)
 41
0.8
100
AcDbText
  0
INSERT
  5
6923
330
1F
100
AcDbEntity
  8
0
100
AcDbBlockReference
  2
A$C3CDC37D5
 10
2160.39270986209
 20
213.1324308732255
 30
0.0
  0
INSERT
  5
6926
330
1F
100
AcDbEntity
  8
DIM2
100
AcDbBlockReference
  2
A$C5ECF147B
 10
2287.172375434304
 20
105.5818098855572
 30
0.0
 41
1.317120000000049
 42
1.317119999999938
 43
1.317119999999999
  0
ENDSEC
  0
SECTION
  2
OBJECTS
  0
DICTIONARY
  5
C
330
0
100
AcDbDictionary
281
     1
  3
ACAD_COLOR
350
BE
  3
ACAD_GROUP
350
D
  3
ACAD_LAYOUT
350
1A
  3
ACAD_MATERIAL
350
BD
  3
ACAD_MLINESTYLE
350
17
  3
ACAD_PLOTSETTINGS
350
19
  3
ACAD_PLOTSTYLENAME
350
E
  3
ACAD_TABLESTYLE
350
11A
  3
ACDBHEADERROUNDTRIPXREC
350
6B26
  3
AcDbVariableDictionary
350
94
  3
AcmDictionary
350
5B
  3
AMG
350
41
  3
AMGSNAPSETTINGS
350
1B8
  3
DWGPROPS
350
6B25
  3
MAPISURF_MODULE
350
6AC4
  0
DICTIONARY
  5
3F9
330
2
100
AcDbDictionary
280
     1
281
     1
  3
ACAD_LAYERFILTERS
360
436C
  3
ACAD_LAYERSTATES
360
C35
  3
ACLYDICTIONARY
360
436B
  0
DICTIONARY
  5
8F
330
1F
100
AcDbDictionary
280
     1
281
     1
  3
ACAD_INDEX
360
6B19
  3
ACAD_SORTENTS
360
1588
  0
DICTIONARY
  5
4487
330
4486
100
AcDbDictionary
280
     1
281
     1
  0
DICTIONARY
  5
691F
330
691A
100
AcDbDictionary
280
     1
281
     1
  3
ACAD_SORTENTS
360
6920
  0
DICTIONARY
  5
64BB
330
64BA
100
AcDbDictionary
280
     1
281
     1
  3
ACAD_DIMASSOC
360
64BC
  0
DICTIONARY
  5
64BF
330
64BE
100
AcDbDictionary
280
     1
281
     1
  3
ACAD_DIMASSOC
360
64C0
  0
DICTIONARY
  5
64C2
330
64C1
100
AcDbDictionary
280
     1
281
     1
  3
ACAD_DIMASSOC
360
64C3
  0
DICTIONARY
  5
64C6
330
64C5
100
AcDbDictionary
280
     1
281
     1
  3
ACAD_DIMASSOC
360
64C7
  0
DICTIONARY
  5
64C9
330
64C8
100
AcDbDictionary
280
     1
281
     1
  3
ACAD_DIMASSOC
360
64CA
  0
DICTIONARY
  5
64CD
330
64CC
100
AcDbDictionary
280
     1
281
     1
  3
ACAD_DIMASSOC
360
64CE
  0
DICTIONARY
  5
64D0
330
64CF
100
AcDbDictionary
280
     1
281
     1
  3
ACAD_DIMASSOC
360
64D1
  0
DICTIONARY
  5
64D5
330
64D4
100
AcDbDictionary
280
     1
281
     1
  3
ACAD_DIMASSOC
360
64D6
  0
DICTIONARY
  5
64D9
330
64D8
100
AcDbDictionary
280
     1
281
     1
  3
ACAD_DIMASSOC
360
64DA
  0
DICTIONARY
  5
64DC
330
64DB
100
AcDbDictionary
280
     1
281
     1
  3
ACAD_DIMASSOC
360
64DD
  0
DICTIONARY
  5
64DF
330
64DE
100
AcDbDictionary
280
     1
281
     1
  3
ACAD_DIMASSOC
360
64E0
  0
DICTIONARY
  5
64E3
330
64E2
100
AcDbDictionary
280
     1
281
     1
  3
ACAD_DIMASSOC
360
64E4
  0
DICTIONARY
  5
64E6
330
64E5
100
AcDbDictionary
280
     1
281
     1
  3
ACAD_DIMASSOC
360
64E7
  0
DICTIONARY
  5
64E9
330
64E8
100
AcDbDictionary
280
     1
281
     1
  3
ACAD_DIMASSOC
360
64EA
  0
DICTIONARY
  5
64EC
330
64EB
100
AcDbDictionary
280
     1
281
     1
  3
ACAD_DIMASSOC
360
64ED
  0
DICTIONARY
  5
64EF
330
64EE
100
AcDbDictionary
280
     1
281
     1
  3
ACAD_DIMASSOC
360
64F0
  0
DICTIONARY
  5
64F5
330
64F4
100
AcDbDictionary
280
     1
281
     1
  3
ACAD_DIMASSOC
360
64F6
  0
DICTIONARY
  5
64F8
330
64F7
100
AcDbDictionary
280
     1
281
     1
  3
ACAD_DIMASSOC
360
64F9
  0
DICTIONARY
  5
64FC
330
64FB
100
AcDbDictionary
280
     1
281
     1
  3
ACAD_DIMASSOC
360
64FD
  0
DICTIONARY
  5
6501
330
6500
100
AcDbDictionary
280
     1
281
     1
  3
ACAD_DIMASSOC
360
6502
  0
DICTIONARY
  5
BE
102
{ACAD_REACTORS
330
C
102
}
330
C
100
AcDbDictionary
281
     1
  0
DICTIONARY
  5
D
102
{ACAD_REACTORS
330
C
102
}
330
C
100
AcDbDictionary
281
     1
  0
DICTIONARY
  5
1A
102
{ACAD_REACTORS
330
C
102
}
330
C
100
AcDbDictionary
281
     1
  3
Model
350
22
  3
配置1
350
1E
  3
配置2
350
26
  0
DICTIONARY
  5
BD
102
{ACAD_REACTORS
330
C
102
}
330
C
100
AcDbDictionary
281
     1
  0
DICTIONARY
  5
17
102
{ACAD_REACTORS
330
C
102
}
330
C
100
AcDbDictionary
281
     1
  3
Standard
350
18
  0
DICTIONARY
  5
19
102
{ACAD_REACTORS
330
C
102
}
330
C
100
AcDbDictionary
281
     1
  0
ACDBDICTIONARYWDFLT
  5
E
102
{ACAD_REACTORS
330
C
102
}
330
C
100
AcDbDictionary
281
     1
  3
Normal
350
F
100
AcDbDictionaryWithDefault
340
F
  0
DICTIONARY
  5
11A
102
{ACAD_REACTORS
330
C
102
}
330
C
100
AcDbDictionary
281
     1
  3
Standard
350
11B
  0
DICTIONARY
  5
6B26
102
{ACAD_REACTORS
330
C
102
}
330
C
100
AcDbDictionary
281
     1
  0
DICTIONARY
  5
94
102
{ACAD_REACTORS
330
C
102
}
330
C
100
AcDbDictionary
281
     1
  3
CTABLESTYLE
350
138
  3
DIMASSOC
350
96
  3
INDEXCTL
350
95
  3
PROJECTNAME
350
699E
  0
DICTIONARY
  5
5B
102
{ACAD_REACTORS
330
C
102
}
330
C
100
AcDbDictionary
281
     1
  3
AcmBOM
350
1B5
  3
AcmStdDictionary
350
61
  3
AMDTSECTSYM_ARROWCOLOR
350
123
  0
DICTIONARY
  5
41
102
{ACAD_REACTORS
330
C
102
}
330
C
100
AcDbDictionary
281
     1
  3
AcMgSettings
350
6A3E
  0
DICTIONARY
  5
1B8
102
{ACAD_REACTORS
330
C
102
}
330
C
100
AcDbDictionary
281
     1
  0
XRECORD
  5
6B25
102
{ACAD_REACTORS
330
C
102
}
330
C
100
AcDbXrecord
280
     1
  1
DWGPROPS COOKIE
  2

  3

  4

  6

  7

  8

  9

300
AmdtFileType=84
301
=
302
=
303
=
304
=
305
=
306
=
307
=
308
=
309
=
 40
0.3171547800925926
 41
2454070.719031748
 42
2457068.630949433
  1

 90
        1
  0
DICTIONARY
  5
436C
102
{ACAD_REACTORS
330
3F9
102
}
330
3F9
100
AcDbDictionary
281
     1
  0
DICTIONARY
  5
C35
102
{ACAD_REACTORS
330
3F9
102
}
330
3F9
100
AcDbDictionary
281
     1
  0
DICTIONARY
  5
436B
102
{ACAD_REACTORS
330
3F9
102
}
330
3F9
100
AcDbDictionary
281
     1
1001
ACAD
1000
<All
  0
DICTIONARY
  5
6B19
102
{ACAD_REACTORS
330
8F
102
}
330
8F
100
AcDbDictionary
281
     1
  3
*A1
350
6B1A
  0
SORTENTSTABLE
  5
1588
102
{ACAD_REACTORS
330
8F
102
}
330
8F
100
AcDbSortentsTable
330
1F
331
6580
  5
6580
331
65BF
  5
65BF
331
6588
  5
6588
331
65C7
  5
65C7
331
6590
  5
6590
331
65CF
  5
65CF
331
639C
  5
639C
331
63DB
  5
63DB
331
6412
  5
6412
331
6451
  5
6451
331
6488
  5
6488
331
641A
  5
641A
331
63A4
  5
63A4
331
63E3
  5
63E3
331
6459
  5
6459
331
6490
  5
6490
331
64CF
  5
64CF
331
6506
  5
6506
331
6545
  5
6545
331
6326
  5
6326
331
63AC
  5
63AC
331
63EB
  5
63EB
331
6422
  5
6422
331
6461
  5
6461
331
6498
  5
6498
331
64D7
  5
64D7
331
650E
  5
650E
331
654D
  5
654D
331
4678
  5
4678
331
46B7
  5
46B7
331
6365
  5
6365
331
4680
  5
4680
331
63B4
  5
63B4
331
642A
  5
642A
331
64A0
  5
64A0
331
6516
  5
6516
331
6555
  5
6555
331
46BF
  5
46BF
331
632E
  5
632E
331
636D
  5
636D
331
6336
  5
6336
331
46C7
  5
46C7
331
651E
  5
651E
331
6375
  5
6375
331
633E
  5
633E
331
6559
  5
6559
331
6598
  5
6598
331
6561
  5
6561
331
65A0
  5
65A0
331
6569
  5
6569
331
65A8
  5
65A8
331
637D
  5
637D
331
63BC
  5
63BC
331
63F3
  5
63F3
331
6432
  5
6432
331
6469
  5
6469
331
64A8
  5
64A8
331
6571
  5
6571
331
65B0
  5
65B0
331
63FB
  5
63FB
331
6385
  5
6385
331
63C4
  5
63C4
331
643A
  5
643A
331
6471
  5
6471
331
64B0
  5
64B0
331
6526
  5
6526
331
4651
  5
4651
331
4690
  5
4690
331
6346
  5
6346
331
638D
  5
638D
331
63CC
  5
63CC
331
6403
  5
6403
331
6442
  5
6442
331
6479
  5
6479
331
64B8
  5
64B8
331
652E
  5
652E
331
4659
  5
4659
331
4698
  5
4698
331
4661
  5
4661
331
6395
  5
6395
331
63D4
  5
63D4
331
640B
  5
640B
331
644A
  5
644A
331
6481
  5
6481
331
64F7
  5
64F7
331
6536
  5
6536
331
46A0
  5
46A0
331
46D7
  5
46D7
331
634E
  5
634E
331
46DF
  5
46DF
331
64FF
  5
64FF
331
653E
  5
653E
331
6356
  5
6356
331
635E
  5
635E
331
6579
  5
6579
331
65B8
  5
65B8
331
6581
  5
6581
331
65C0
  5
65C0
331
6589
  5
6589
331
65C8
  5
65C8
331
639D
  5
639D
331
63DC
  5
63DC
331
6413
  5
6413
331
6452
  5
6452
331
6489
  5
6489
331
64C8
  5
64C8
331
6591
  5
6591
331
63E4
  5
63E4
331
63A5
  5
63A5
331
641B
  5
641B
331
645A
  5
645A
331
6491
  5
6491
331
6507
  5
6507
331
6546
  5
6546
331
4671
  5
4671
331
46B0
  5
46B0
331
6327
  5
6327
331
63AD
  5
63AD
331
63EC
  5
63EC
331
6423
  5
6423
331
6462
  5
6462
331
6499
  5
6499
331
64D8
  5
64D8
331
650F
  5
650F
331
654E
  5
654E
331
46B8
  5
46B8
331
6366
  5
6366
331
46C0
  5
46C0
331
63B5
  5
63B5
331
642B
  5
642B
331
64A1
  5
64A1
331
6517
  5
6517
331
6556
  5
6556
331
632F
  5
632F
331
636E
  5
636E
331
6337
  5
6337
331
651F
  5
651F
331
6376
  5
6376
331
633F
  5
633F
331
655A
  5
655A
331
6599
  5
6599
331
6562
  5
6562
331
65A1
  5
65A1
331
656A
  5
656A
331
65A9
  5
65A9
331
637E
  5
637E
331
63BD
  5
63BD
331
63F4
  5
63F4
331
6433
  5
6433
331
646A
  5
646A
331
64A9
  5
64A9
331
6572
  5
6572
331
65B1
  5
65B1
331
46C8
  5
46C8
331
63C5
  5
63C5
331
6386
  5
6386
331
63FC
  5
63FC
331
643B
  5
643B
331
6472
  5
6472
331
64B1
  5
64B1
331
64E8
  5
64E8
331
6527
  5
6527
331
4652
  5
4652
331
4691
  5
4691
331
6347
  5
6347
331
638E
  5
638E
331
63CD
  5
63CD
331
6404
  5
6404
331
6443
  5
6443
331
647A
  5
647A
331
64B9
  5
64B9
331
652F
  5
652F
331
465A
  5
465A
331
4699
  5
4699
331
4662
  5
4662
331
6396
  5
6396
331
63D5
  5
63D5
331
640C
  5
640C
331
644B
  5
644B
331
6482
  5
6482
331
64C1
  5
64C1
331
6537
  5
6537
331
46A1
  5
46A1
331
46D8
  5
46D8
331
634F
  5
634F
331
46E0
  5
46E0
331
653F
  5
653F
331
6357
  5
6357
331
635F
  5
635F
331
657A
  5
657A
331
65B9
  5
65B9
331
6582
  5
6582
331
65C1
  5
65C1
331
658A
  5
658A
331
65C9
  5
65C9
331
6500
  5
6500
331
639E
  5
639E
331
63DD
  5
63DD
331
6414
  5
6414
331
6453
  5
6453
331
648A
  5
648A
331
6592
  5
6592
331
63A6
  5
63A6
331
63E5
  5
63E5
331
641C
  5
641C
331
645B
  5
645B
331
6492
  5
6492
331
6508
  5
6508
331
6547
  5
6547
331
4672
  5
4672
331
46B1
  5
46B1
331
6328
  5
6328
331
63AE
  5
63AE
331
63ED
  5
63ED
331
6424
  5
6424
331
6463
  5
6463
331
649A
  5
649A
331
6510
  5
6510
331
654F
  5
654F
331
46B9
  5
46B9
331
6367
  5
6367
331
46C1
  5
46C1
331
63B6
  5
63B6
331
642C
  5
642C
331
64A2
  5
64A2
331
6518
  5
6518
331
6557
  5
6557
331
6330
  5
6330
331
636F
  5
636F
331
6338
  5
6338
331
468A
  5
468A
331
6377
  5
6377
331
655B
  5
655B
331
659A
  5
659A
331
6563
  5
6563
331
65A2
  5
65A2
331
656B
  5
656B
331
65AA
  5
65AA
331
64E1
  5
64E1
331
637F
  5
637F
331
63BE
  5
63BE
331
63F5
  5
63F5
331
6434
  5
6434
331
646B
  5
646B
331
64AA
  5
64AA
331
6520
  5
6520
331
6573
  5
6573
331
65B2
  5
65B2
331
46C9
  5
46C9
331
6387
  5
6387
331
63C6
  5
63C6
331
63FD
  5
63FD
331
643C
  5
643C
331
6473
  5
6473
331
64B2
  5
64B2
331
6528
  5
6528
331
4653
  5
4653
331
4692
  5
4692
331
6340
  5
6340
331
6348
  5
6348
331
638F
  5
638F
331
63CE
  5
63CE
331
6405
  5
6405
331
6444
  5
6444
331
647B
  5
647B
331
64BA
  5
64BA
331
64F1
  5
64F1
331
6530
  5
6530
331
465B
  5
465B
331
469A
  5
469A
331
4663
  5
4663
331
6397
  5
6397
331
63D6
  5
63D6
331
640D
  5
640D
331
644C
  5
644C
331
6483
  5
6483
331
6538
  5
6538
331
46A2
  5
46A2
331
46D9
  5
46D9
331
6350
  5
6350
331
46E1
  5
46E1
331
6358
  5
6358
331
657B
  5
657B
331
65BA
  5
65BA
331
6583
  5
6583
331
65C2
  5
65C2
331
658B
  5
658B
331
65CA
  5
65CA
331
6540
  5
6540
331
639F
  5
639F
331
63DE
  5
63DE
331
6415
  5
6415
331
6454
  5
6454
331
648B
  5
648B
331
6593
  5
6593
331
6360
  5
6360
331
63A7
  5
63A7
331
63E6
  5
63E6
331
641D
  5
641D
331
645C
  5
645C
331
6493
  5
6493
331
64D2
  5
64D2
331
6548
  5
6548
331
4673
  5
4673
331
46B2
  5
46B2
331
6329
  5
6329
331
63AF
  5
63AF
331
63EE
  5
63EE
331
6425
  5
6425
331
6464
  5
6464
331
649B
  5
649B
331
6511
  5
6511
331
6550
  5
6550
331
46BA
  5
46BA
331
6368
  5
6368
331
6370
  5
6370
331
46C2
  5
46C2
331
63B7
  5
63B7
331
642D
  5
642D
331
64A3
  5
64A3
331
6519
  5
6519
331
6331
  5
6331
331
6339
  5
6339
331
468B
  5
468B
331
655C
  5
655C
331
659B
  5
659B
331
6564
  5
6564
331
65A3
  5
65A3
331
6378
  5
6378
331
656C
  5
656C
331
65AB
  5
65AB
331
64E2
  5
64E2
331
6380
  5
6380
331
63BF
  5
63BF
331
63F6
  5
63F6
331
6435
  5
6435
331
646C
  5
646C
331
64AB
  5
64AB
331
6521
  5
6521
331
6574
  5
6574
331
65B3
  5
65B3
331
6341
  5
6341
331
6388
  5
6388
331
63C7
  5
63C7
331
63FE
  5
63FE
331
643D
  5
643D
331
6474
  5
6474
331
64B3
  5
64B3
331
6529
  5
6529
331
4654
  5
4654
331
4693
  5
4693
331
6349
  5
6349
331
6390
  5
6390
331
63CF
  5
63CF
331
6406
  5
6406
331
6445
  5
6445
331
647C
  5
647C
331
64F2
  5
64F2
331
6531
  5
6531
331
465C
  5
465C
331
469B
  5
469B
331
6351
  5
6351
331
4664
  5
4664
331
63D7
  5
63D7
331
640E
  5
640E
331
644D
  5
644D
331
6484
  5
6484
331
64FA
  5
64FA
331
6539
  5
6539
331
46A3
  5
46A3
331
46DA
  5
46DA
331
6359
  5
6359
331
466C
  5
466C
331
657C
  5
657C
331
65BB
  5
65BB
331
6584
  5
6584
331
65C3
  5
65C3
331
6398
  5
6398
331
658C
  5
658C
331
65CB
  5
65CB
331
6541
  5
6541
331
63A0
  5
63A0
331
63DF
  5
63DF
331
6416
  5
6416
331
6455
  5
6455
331
648C
  5
648C
331
64CB
  5
64CB
331
6594
  5
6594
331
6361
  5
6361
331
63A8
  5
63A8
331
63E7
  5
63E7
331
641E
  5
641E
331
645D
  5
645D
331
6494
  5
6494
331
64D3
  5
64D3
331
650A
  5
650A
331
6549
  5
6549
331
4674
  5
4674
331
46B3
  5
46B3
331
632A
  5
632A
331
63B0
  5
63B0
331
63EF
  5
63EF
331
6426
  5
6426
331
6465
  5
6465
331
649C
  5
649C
331
64DB
  5
64DB
331
6512
  5
6512
331
6551
  5
6551
331
467C
  5
467C
331
46BB
  5
46BB
331
6369
  5
6369
331
6332
  5
6332
331
464D
  5
464D
331
642E
  5
642E
331
64A4
  5
64A4
331
651A
  5
651A
331
4684
  5
4684
331
46C3
  5
46C3
331
6371
  5
6371
331
633A
  5
633A
331
468C
  5
468C
331
655D
  5
655D
331
659C
  5
659C
331
6565
  5
6565
331
65A4
  5
65A4
331
656D
  5
656D
331
65AC
  5
65AC
331
6379
  5
6379
331
63B8
  5
63B8
331
6522
  5
6522
331
6575
  5
6575
331
65B4
  5
65B4
331
6381
  5
6381
331
63C0
  5
63C0
331
63F7
  5
63F7
331
6436
  5
6436
331
646D
  5
646D
331
64AC
  5
64AC
331
6342
  5
6342
331
6389
  5
6389
331
63C8
  5
63C8
331
63FF
  5
63FF
331
643E
  5
643E
331
6475
  5
6475
331
64B4
  5
64B4
331
64EB
  5
64EB
331
652A
  5
652A
331
4655
  5
4655
331
4694
  5
4694
331
634A
  5
634A
331
6391
  5
6391
331
63D0
  5
63D0
331
6407
  5
6407
331
6446
  5
6446
331
647D
  5
647D
331
64F3
  5
64F3
331
6532
  5
6532
331
465D
  5
465D
331
469C
  5
469C
331
46DB
  5
46DB
331
640F
  5
640F
331
644E
  5
644E
331
6485
  5
6485
331
64C4
  5
64C4
331
64FB
  5
64FB
331
653A
  5
653A
331
6352
  5
6352
331
635A
  5
635A
331
466D
  5
466D
331
657D
  5
657D
331
65BC
  5
65BC
331
6585
  5
6585
331
65C4
  5
65C4
331
658D
  5
658D
331
65CC
  5
65CC
331
6399
  5
6399
331
63D8
  5
63D8
331
64CC
  5
64CC
331
6595
  5
6595
331
63A1
  5
63A1
331
63E0
  5
63E0
331
6417
  5
6417
331
6456
  5
6456
331
648D
  5
648D
331
6503
  5
6503
331
6542
  5
6542
331
6323
  5
6323
331
63A9
  5
63A9
331
63E8
  5
63E8
331
641F
  5
641F
331
645E
  5
645E
331
6495
  5
6495
331
64D4
  5
64D4
331
650B
  5
650B
331
654A
  5
654A
331
4675
  5
4675
331
46B4
  5
46B4
331
6362
  5
6362
331
46BC
  5
46BC
331
63B1
  5
63B1
331
6427
  5
6427
331
6466
  5
6466
331
649D
  5
649D
331
6513
  5
6513
331
6552
  5
6552
331
632B
  5
632B
331
636A
  5
636A
331
6333
  5
6333
331
464E
  5
464E
331
642F
  5
642F
331
64A5
  5
64A5
331
651B
  5
651B
331
4685
  5
4685
331
6372
  5
6372
331
633B
  5
633B
331
468D
  5
468D
331
655E
  5
655E
331
659D
  5
659D
331
6566
  5
6566
331
65A5
  5
65A5
331
656E
  5
656E
331
65AD
  5
65AD
331
637A
  5
637A
331
63B9
  5
63B9
331
63F0
  5
63F0
331
64AD
  5
64AD
331
6576
  5
6576
331
65B5
  5
65B5
331
6382
  5
6382
331
63C1
  5
63C1
331
63F8
  5
63F8
331
6437
  5
6437
331
646E
  5
646E
331
6523
  5
6523
331
6343
  5
6343
331
638A
  5
638A
331
63C9
  5
63C9
331
6400
  5
6400
331
643F
  5
643F
331
6476
  5
6476
331
64B5
  5
64B5
331
652B
  5
652B
331
4656
  5
4656
331
4695
  5
4695
331
469D
  5
469D
331
6392
  5
6392
331
63D1
  5
63D1
331
6408
  5
6408
331
6447
  5
6447
331
647E
  5
647E
331
64BD
  5
64BD
331
64F4
  5
64F4
331
6533
  5
6533
331
465E
  5
465E
331
634B
  5
634B
331
46DC
  5
46DC
331
644F
  5
644F
331
6486
  5
6486
331
64C5
  5
64C5
331
653B
  5
653B
331
6353
  5
6353
331
635B
  5
635B
331
686B
  5
686B
331
657E
  5
657E
331
65BD
  5
65BD
331
6586
  5
6586
331
65C5
  5
65C5
331
658E
  5
658E
331
65CD
  5
65CD
331
639A
  5
639A
331
63D9
  5
63D9
331
6410
  5
6410
331
648E
  5
648E
331
6596
  5
6596
331
63A2
  5
63A2
331
63E1
  5
63E1
331
6418
  5
6418
331
6457
  5
6457
331
6504
  5
6504
331
6543
  5
6543
331
6324
  5
6324
331
63AA
  5
63AA
331
63E9
  5
63E9
331
6420
  5
6420
331
645F
  5
645F
331
6496
  5
6496
331
650C
  5
650C
331
654B
  5
654B
331
4676
  5
4676
331
46B5
  5
46B5
331
6363
  5
6363
331
46BD
  5
46BD
331
63B2
  5
63B2
331
6428
  5
6428
331
6467
  5
6467
331
649E
  5
649E
331
6514
  5
6514
331
6553
  5
6553
331
632C
  5
632C
331
636B
  5
636B
331
6334
  5
6334
331
464F
  5
464F
331
64A6
  5
64A6
331
651C
  5
651C
331
4686
  5
4686
331
6373
  5
6373
331
633C
  5
633C
331
468E
  5
468E
331
655F
  5
655F
331
659E
  5
659E
331
6567
  5
6567
331
65A6
  5
65A6
331
656F
  5
656F
331
65AE
  5
65AE
331
637B
  5
637B
331
63BA
  5
63BA
331
63F1
  5
63F1
331
6430
  5
6430
331
646F
  5
646F
331
6577
  5
6577
331
65B6
  5
65B6
331
6383
  5
6383
331
63C2
  5
63C2
331
63F9
  5
63F9
331
6438
  5
6438
331
64AE
  5
64AE
331
64E5
  5
64E5
331
6524
  5
6524
331
6344
  5
6344
331
638B
  5
638B
331
63CA
  5
63CA
331
6401
  5
6401
331
6440
  5
6440
331
6477
  5
6477
331
64B6
  5
64B6
331
652C
  5
652C
331
4657
  5
4657
331
4696
  5
4696
331
465F
  5
465F
331
6393
  5
6393
331
63D2
  5
63D2
331
6409
  5
6409
331
6448
  5
6448
331
647F
  5
647F
331
64BE
  5
64BE
331
6534
  5
6534
331
469E
  5
469E
331
634C
  5
634C
331
46DD
  5
46DD
331
6487
  5
6487
331
653C
  5
653C
331
6354
  5
6354
331
635C
  5
635C
331
686C
  5
686C
331
657F
  5
657F
331
65BE
  5
65BE
331
6587
  5
6587
331
65C6
  5
65C6
331
658F
  5
658F
331
65CE
  5
65CE
331
639B
  5
639B
331
63DA
  5
63DA
331
6411
  5
6411
331
6450
  5
6450
331
6458
  5
6458
331
6597
  5
6597
331
63A3
  5
63A3
331
63E2
  5
63E2
331
6419
  5
6419
331
648F
  5
648F
331
6505
  5
6505
331
6544
  5
6544
331
6325
  5
6325
331
63AB
  5
63AB
331
63EA
  5
63EA
331
6421
  5
6421
331
6460
  5
6460
331
6497
  5
6497
331
650D
  5
650D
331
654C
  5
654C
331
4677
  5
4677
331
46B6
  5
46B6
331
6364
  5
6364
331
46BE
  5
46BE
331
63B3
  5
63B3
331
6429
  5
6429
331
649F
  5
649F
331
64DE
  5
64DE
331
6515
  5
6515
331
6554
  5
6554
331
632D
  5
632D
331
636C
  5
636C
331
6335
  5
6335
331
46C6
  5
46C6
331
64A7
  5
64A7
331
651D
  5
651D
331
6374
  5
6374
331
633D
  5
633D
331
468F
  5
468F
331
6558
  5
6558
331
6560
  5
6560
331
659F
  5
659F
331
6568
  5
6568
331
65A7
  5
65A7
331
6570
  5
6570
331
65AF
  5
65AF
331
637C
  5
637C
331
63BB
  5
63BB
331
63F2
  5
63F2
331
6431
  5
6431
331
6468
  5
6468
331
6439
  5
6439
331
65B7
  5
65B7
331
6384
  5
6384
331
63C3
  5
63C3
331
63FA
  5
63FA
331
6470
  5
6470
331
64AF
  5
64AF
331
6525
  5
6525
331
4650
  5
4650
331
6345
  5
6345
331
638C
  5
638C
331
63CB
  5
63CB
331
6402
  5
6402
331
6441
  5
6441
331
6478
  5
6478
331
64B7
  5
64B7
331
64EE
  5
64EE
331
652D
  5
652D
331
4658
  5
4658
331
4697
  5
4697
331
4660
  5
4660
331
6394
  5
6394
331
63D3
  5
63D3
331
640A
  5
640A
331
6449
  5
6449
331
6480
  5
6480
331
6535
  5
6535
331
469F
  5
469F
331
46D6
  5
46D6
331
634D
  5
634D
331
46DE
  5
46DE
331
4668
  5
4668
331
64FE
  5
64FE
331
653D
  5
653D
331
6355
  5
6355
331
635D
  5
635D
331
46AF
  5
46AF
331
6578
  5
6578
  0
SORTENTSTABLE
  5
6920
102
{ACAD_REACTORS
330
691F
102
}
330
691F
100
AcDbSortentsTable
330
691A
  0
DIMASSOC
  5
64BC
102
{ACAD_REACTORS
330
64BB
102
}
330
64BB
100
AcDbDimAssoc
330
64BA
 90
        1
 70
     0
 71
     0
  1
AcDbOsnapPointRef
 72
     1
331
6354
 73
     2
 91
        0
 40
1.0
 10
0.0
 20
0.0
 30
2.000000000000000E+50
 75
     0
  0
DIMASSOC
  5
64C0
102
{ACAD_REACTORS
330
64BF
102
}
330
64BF
100
AcDbDimAssoc
330
64BE
 90
        3
 70
     0
 71
     0
  1
AcDbOsnapPointRef
 72
    13
331
6352
 73
     2
 91
        0
 40
0.0
 10
0.0
 20
0.0
 30
2.000000000000000E+50
 75
     0
  1
AcDbOsnapPointRef
 72
     1
331
6352
 73
     2
 91
        0
 40
1.0
 10
0.0
 20
0.0
 30
2.000000000000000E+50
 75
     0
  0
DIMASSOC
  5
64C3
102
{ACAD_REACTORS
330
64C2
102
}
330
64C2
100
AcDbDimAssoc
330
64C1
 90
        3
 70
     0
 71
     0
  1
AcDbOsnapPointRef
 72
     1
331
6354
 73
     2
 91
        0
 40
1.0
 10
0.0
 20
0.0
 30
2.000000000000000E+50
 75
     0
  1
AcDbOsnapPointRef
 72
    13
331
6349
 73
     2
 91
        0
 40
0.0
 10
0.0
 20
0.0
 30
2.000000000000000E+50
 75
     0
  0
DIMASSOC
  5
64C7
102
{ACAD_REACTORS
330
64C6
102
}
330
64C6
100
AcDbDimAssoc
330
64C5
 90
        3
 70
     0
 71
     0
  1
AcDbOsnapPointRef
 72
     1
331
6349
 73
     2
 91
        0
 40
1.0
 10
0.0
 20
0.0
 30
2.000000000000000E+50
 75
     0
  1
AcDbOsnapPointRef
 72
    13
331
6349
 73
     2
 91
        0
 40
0.0
 10
0.0
 20
0.0
 30
2.000000000000000E+50
 75
     0
  0
DIMASSOC
  5
64CA
102
{ACAD_REACTORS
330
64C9
102
}
330
64C9
100
AcDbDimAssoc
330
64C8
 90
        3
 70
     0
 71
     0
  1
AcDbOsnapPointRef
 72
    13
331
63BB
 73
     2
 91
        0
 40
0.0
 10
0.0
 20
0.0
 30
2.000000000000000E+50
 75
     0
  1
AcDbOsnapPointRef
 72
    13
331
63BC
 73
     2
 91
        0
 40
0.0
 10
0.0
 20
0.0
 30
2.000000000000000E+50
 75
     0
  0
DIMASSOC
  5
64CE
102
{ACAD_REACTORS
330
64CD
102
}
330
64CD
100
AcDbDimAssoc
330
64CC
 90
        3
 70
     0
 71
     0
  1
AcDbOsnapPointRef
 72
     1
331
63BC
 73
     2
 91
        0
 40
1.0
 10
0.0
 20
0.0
 30
2.000000000000000E+50
 75
     0
  1
AcDbOsnapPointRef
 72
     1
331
63BB
 73
     2
 91
        0
 40
1.0
 10
0.0
 20
0.0
 30
2.000000000000000E+50
 75
     0
  0
DIMASSOC
  5
64D1
102
{ACAD_REACTORS
330
64D0
102
}
330
64D0
100
AcDbDimAssoc
330
64CF
 90
        1
 70
     0
 71
     0
  1
AcDbOsnapPointRef
 72
    13
331
63BD
 73
     2
 91
        0
 40
0.0
 10
0.0
 20
0.0
 30
2.000000000000000E+50
 75
     0
  0
DIMASSOC
  5
64D6
102
{ACAD_REACTORS
330
64D5
102
}
330
64D5
100
AcDbDimAssoc
330
64D4
 90
        3
 70
     0
 71
     0
  1
AcDbOsnapPointRef
 72
    13
331
638B
 73
     2
 91
        0
 40
0.0
 10
0.0
 20
0.0
 30
2.000000000000000E+50
 75
     0
  1
AcDbOsnapPointRef
 72
    13
331
6390
 73
     2
 91
        0
 40
0.0
 10
0.0
 20
0.0
 30
2.000000000000000E+50
 75
     0
  0
DIMASSOC
  5
64DA
102
{ACAD_REACTORS
330
64D9
102
}
330
64D9
100
AcDbDimAssoc
330
64D8
 90
        2
 70
     0
 71
     0
  1
AcDbOsnapPointRef
 72
     1
331
636D
 73
     2
 91
        0
 40
1.0
 10
0.0
 20
0.0
 30
2.000000000000000E+50
 75
     0
  0
DIMASSOC
  5
64DD
102
{ACAD_REACTORS
330
64DC
102
}
330
64DC
100
AcDbDimAssoc
330
64DB
 90
        3
 70
     0
 71
     0
  1
AcDbOsnapPointRef
 72
    13
331
638C
 73
     2
 91
        0
 40
0.0
 10
0.0
 20
0.0
 30
2.000000000000000E+50
 75
     0
  1
AcDbOsnapPointRef
 72
     1
331
638D
 73
     2
 91
        0
 40
1.0
 10
0.0
 20
0.0
 30
2.000000000000000E+50
 75
     0
  0
DIMASSOC
  5
64E0
102
{ACAD_REACTORS
330
64DF
102
}
330
64DF
100
AcDbDimAssoc
330
64DE
 90
        1
 70
     0
 71
     0
  1
AcDbOsnapPointRef
 72
     1
331
636C
 73
     2
 91
        0
 40
1.0
 10
0.0
 20
0.0
 30
2.000000000000000E+50
 75
     0
  0
DIMASSOC
  5
64E4
102
{ACAD_REACTORS
330
64E3
102
}
330
64E3
100
AcDbDimAssoc
330
64E2
 90
        2
 70
     0
 71
     0
  1
AcDbOsnapPointRef
 72
    13
331
6371
 73
     2
 91
        0
 40
0.0
 10
0.0
 20
0.0
 30
2.000000000000000E+50
 75
     0
  0
DIMASSOC
  5
64E7
102
{ACAD_REACTORS
330
64E6
102
}
330
64E6
100
AcDbDimAssoc
330
64E5
 90
        3
 70
     0
 71
     0
  1
AcDbOsnapPointRef
 72
    13
331
638C
 73
     2
 91
        0
 40
0.0
 10
0.0
 20
0.0
 30
2.000000000000000E+50
 75
     0
  1
AcDbOsnapPointRef
 72
     1
331
636C
 73
     2
 91
        0
 40
1.0
 10
0.0
 20
0.0
 30
2.000000000000000E+50
 75
     0
  0
DIMASSOC
  5
64EA
102
{ACAD_REACTORS
330
64E9
102
}
330
64E9
100
AcDbDimAssoc
330
64E8
 90
        3
 70
     0
 71
     0
  1
AcDbOsnapPointRef
 72
     1
331
636C
 73
     2
 91
        0
 40
1.0
 10
0.0
 20
0.0
 30
2.000000000000000E+50
 75
     0
  1
AcDbOsnapPointRef
 72
    13
331
6371
 73
     2
 91
        0
 40
0.0
 10
0.0
 20
0.0
 30
2.000000000000000E+50
 75
     0
  0
DIMASSOC
  5
64ED
102
{ACAD_REACTORS
330
64EC
102
}
330
64EC
100
AcDbDimAssoc
330
64EB
 90
        3
 70
     0
 71
     0
  1
AcDbOsnapPointRef
 72
    13
331
638C
 73
     2
 91
        0
 40
0.0
 10
0.0
 20
0.0
 30
2.000000000000000E+50
 75
     0
  1
AcDbOsnapPointRef
 72
    13
331
6371
 73
     2
 91
        0
 40
0.0
 10
0.0
 20
0.0
 30
2.000000000000000E+50
 75
     0
  0
DIMASSOC
  5
64F0
102
{ACAD_REACTORS
330
64EF
102
}
330
64EF
100
AcDbDimAssoc
330
64EE
 90
        1
 70
     0
 71
     0
  1
AcDbOsnapPointRef
 72
     1
331
63D2
 73
     2
 91
        0
 40
1.0
 10
0.0
 20
0.0
 30
2.000000000000000E+50
 75
     0
  0
DIMASSOC
  5
64F6
102
{ACAD_REACTORS
330
64F5
102
}
330
64F5
100
AcDbDimAssoc
330
64F4
 90
        2
 70
     0
 71
     0
  1
AcDbOsnapPointRef
 72
    13
331
6371
 73
     2
 91
        0
 40
0.0
 10
0.0
 20
0.0
 30
2.000000000000000E+50
 75
     0
  0
DIMASSOC
  5
64F9
102
{ACAD_REACTORS
330
64F8
102
}
330
64F8
100
AcDbDimAssoc
330
64F7
 90
        3
 70
     0
 71
     0
  1
AcDbOsnapPointRef
 72
     1
331
6463
 73
     2
 91
        0
 40
1.0
 10
0.0
 20
0.0
 30
2.000000000000000E+50
 75
     0
  1
AcDbOsnapPointRef
 72
    13
331
645A
 73
     2
 91
        0
 40
0.0
 10
0.0
 20
0.0
 30
2.000000000000000E+50
 75
     0
  0
DIMASSOC
  5
64FD
102
{ACAD_REACTORS
330
64FC
102
}
330
64FC
100
AcDbDimAssoc
330
64FB
 90
        2
 70
     0
 71
     0
  1
AcDbOsnapPointRef
 72
    13
331
6419
 73
     2
 91
        0
 40
0.0
 10
0.0
 20
0.0
 30
2.000000000000000E+50
 75
     0
  0
DIMASSOC
  5
6502
102
{ACAD_REACTORS
330
6501
102
}
330
6501
100
AcDbDimAssoc
330
6500
 90
        2
 70
     0
 71
     0
  1
AcDbOsnapPointRef
 72
    13
331
6418
 73
     2
 91
        0
 40
0.0
 10
0.0
 20
0.0
 30
2.000000000000000E+50
 75
     0
  0
LAYOUT
  5
22
102
{ACAD_XDICTIONARY
360
6B29
102
}
102
{ACAD_REACTORS
330
1A
102
}
330
1A
100
AcDbPlotSettings
  1

  2
\\RD\EPSON Stylus C63 Series單色
  4
A4
  6

 40
3.757083177566528
 41
3.757076978683471
 42
3.757080078125
 43
3.757080078125
 44
209.9733276367187
 45
296.9683227539062
 46
0.0
 47
0.0
 48
0.0
 49
0.0
140
0.0
141
0.0
142
1.0
143
0.3405120737814363
 70
 11952
 72
     1
 73
     0
 74
     0
  7
單色出圖.ctb
 75
     0
147
2.936753428137963
148
-2047.07469463503
149
-1261.649717473083
100
AcDbLayout
  1
Model
 70
     1
 71
     0
 10
0.0
 20
0.0
 11
12.0
 21
9.0
 12
0.0
 22
0.0
 32
0.0
 14
0.0
 24
0.0
 34
0.0
 15
0.0
 25
0.0
 35
0.0
146
0.0
 13
0.0
 23
0.0
 33
0.0
 16
1.0
 26
0.0
 36
0.0
 17
0.0
 27
1.0
 37
0.0
 76
     0
330
1F
1001
ACAD_PSEXT
1000
\\RD\EPSON Stylus C63 Series單色
1000
EPSON Stylus C63 Series
1000
\\RD
1000

1070
     0
  0
LAYOUT
  5
1E
102
{ACAD_XDICTIONARY
360
6B27
102
}
102
{ACAD_REACTORS
330
1A
102
}
330
1A
100
AcDbPlotSettings
  1

  2

  4

  6

 40
0.0
 41
0.0
 42
0.0
 43
0.0
 44
0.0
 45
0.0
 46
0.0
 47
0.0
 48
0.0
 49
0.0
140
0.0
141
0.0
142
1.0
143
1.0
 70
   688
 72
     0
 73
     0
 74
     5
  7
單色出圖.ctb
 75
    16
147
1.0
148
0.0
149
0.0
100
AcDbLayout
  1
配置1
 70
     1
 71
     1
 10
0.0
 20
0.0
 11
420.0
 21
297.0
 12
0.0
 22
0.0
 32
0.0
 14
1.000000000000000E+20
 24
1.000000000000000E+20
 34
1.000000000000000E+20
 15
-1.000000000000000E+20
 25
-1.000000000000000E+20
 35
-1.000000000000000E+20
146
0.0
 13
0.0
 23
0.0
 33
0.0
 16
1.0
 26
0.0
 36
0.0
 17
0.0
 27
1.0
 37
0.0
 76
     0
330
1B
  0
LAYOUT
  5
26
102
{ACAD_XDICTIONARY
360
6B2B
102
}
102
{ACAD_REACTORS
330
1A
102
}
330
1A
100
AcDbPlotSettings
  1

  2

  4

  6

 40
0.0
 41
0.0
 42
0.0
 43
0.0
 44
0.0
 45
0.0
 46
0.0
 47
0.0
 48
0.0
 49
0.0
140
0.0
141
0.0
142
1.0
143
1.0
 70
   688
 72
     0
 73
     0
 74
     5
  7
單色出圖.ctb
 75
    16
147
1.0
148
0.0
149
0.0
100
AcDbLayout
  1
配置2
 70
     1
 71
     2
 10
0.0
 20
0.0
 11
12.0
 21
9.0
 12
0.0
 22
0.0
 32
0.0
 14
0.0
 24
0.0
 34
0.0
 15
0.0
 25
0.0
 35
0.0
146
0.0
 13
0.0
 23
0.0
 33
0.0
 16
1.0
 26
0.0
 36
0.0
 17
0.0
 27
1.0
 37
0.0
 76
     0
330
23
  0
MLINESTYLE
  5
18
102
{ACAD_REACTORS
330
17
102
}
330
17
100
AcDbMlineStyle
  2
STANDARD
 70
     0
  3

 62
   256
 51
90.0
 52
90.0
 71
     2
 49
0.5
 62
   256
  6
BYLAYER
 49
-0.5
 62
   256
  6
BYLAYER
  0
ACDBPLACEHOLDER
  5
F
102
{ACAD_REACTORS
330
E
102
}
330
E
  0
TABLESTYLE
  5
11B
102
{ACAD_REACTORS
330
11A
102
}
330
11A
100
AcDbTableStyle
  3
Standard
 70
     0
 71
     0
 40
1.5
 41
1.5
280
     0
281
     0
  7
STANDARD
140
4.5
170
     2
 62
     0
 63
     7
283
     0
274
    -2
284
     1
 64
     0
275
    -2
285
     1
 65
     0
276
    -2
286
     1
 66
     0
277
    -2
287
     1
 67
     0
278
    -2
288
     1
 68
     0
279
    -2
289
     1
 69
     0
  7
STANDARD
140
6.0
170
     5
 62
     0
 63
     7
283
     0
274
    -2
284
     1
 64
     0
275
    -2
285
     1
 65
     0
276
    -2
286
     1
 66
     0
277
    -2
287
     1
 67
     0
278
    -2
288
     1
 68
     0
279
    -2
289
     1
 69
     0
  7
STANDARD
140
4.5
170
     5
 62
     0
 63
     7
283
     0
274
    -2
284
     1
 64
     0
275
    -2
285
     1
 65
     0
276
    -2
286
     1
 66
     0
277
    -2
287
     1
 67
     0
278
    -2
288
     1
 68
     0
279
    -2
289
     1
 69
     0
  0
DICTIONARYVAR
  5
138
102
{ACAD_REACTORS
330
94
102
}
330
94
100
DictionaryVariables
280
     0
  1
STANDARD
  0
DICTIONARYVAR
  5
96
102
{ACAD_REACTORS
330
94
102
}
330
94
100
DictionaryVariables
280
     0
  1
2
  0
DICTIONARYVAR
  5
95
102
{ACAD_REACTORS
330
94
102
}
330
94
100
DictionaryVariables
280
     0
  1
1
  0
DICTIONARYVAR
  5
699E
102
{ACAD_REACTORS
330
94
102
}
330
94
100
DictionaryVariables
280
     0
  1

  0
DICTIONARY
  5
1B5
102
{ACAD_REACTORS
330
5B
102
}
330
5B
100
AcDbDictionary
281
     1
  0
DICTIONARY
  5
61
102
{ACAD_REACTORS
330
5B
102
}
330
5B
100
AcDbDictionary
281
     1
  0
XRECORD
  5
123
102
{ACAD_REACTORS
330
5B
102
}
330
5B
100
AcDbXrecord
280
     1
 90
-1023410169
  0
DICTIONARY
  5
6A3E
102
{ACAD_REACTORS
330
41
102
}
330
41
100
AcDbDictionary
281
     1
  3
DWGSETTINGS
350
6A3F
  3
TRANSSETTINGS
350
6A42
  0
LAYER_INDEX
  5
6B1A
102
{ACAD_REACTORS
330
6B19
102
}
330
6B19
100
AcDbIndex
 40
2457068.630949433
100
AcDbLayerIndex
  8
0
360
6B1B
 90
       36
  8
Defpoints
360
6B1C
 90
        0
  8
AM_VIS
360
6B1D
 90
      363
  8
AM_4
360
6B1E
 90
       23
  8
AM_7
360
6B1F
 90
      131
  8
AM_5
360
6B20
 90
       51
  8
DIM2
360
6B21
 90
       79
  8
LOGO
360
6B22
 90
      103
  0
DICTIONARY
  5
6B29
330
22
100
AcDbDictionary
280
     1
281
     1
  3
ACAD_XREC_ROUNDTRIP
360
6B2A
  0
DICTIONARY
  5
6B27
330
1E
100
AcDbDictionary
280
     1
281
     1
  3
ACAD_XREC_ROUNDTRIP
360
6B28
  0
DICTIONARY
  5
6B2B
330
26
100
AcDbDictionary
280
     1
281
     1
  3
ACAD_XREC_ROUNDTRIP
360
6B2C
  0
IDBUFFER
  5
6B1B
330
0
100
AcDbIdBuffer
330
65E4
330
65E5
330
65E6
330
65E7
330
65E8
330
65E9
330
65EA
330
65EB
330
65EC
330
65ED
330
65EE
330
65EF
330
65F0
330
65F1
330
65F2
330
65F3
330
65F4
330
65F5
330
65F6
330
6923
330
46E2
330
46E3
330
46E4
330
65D7
330
65D8
330
65D9
330
65DA
330
65DB
330
65DC
330
65DD
330
65DE
330
65DF
330
65E0
330
65E1
330
65E2
330
65E3
  0
IDBUFFER
  5
6B1C
330
0
100
AcDbIdBuffer
  0
IDBUFFER
  5
6B1D
330
0
100
AcDbIdBuffer
330
642A
330
642B
330
642C
330
642D
330
642E
330
642F
330
6430
330
6431
330
6432
330
6433
330
6434
330
6435
330
6436
330
6437
330
6438
330
6439
330
643A
330
643B
330
643C
330
643D
330
643E
330
643F
330
6440
330
6441
330
6442
330
6443
330
6444
330
6445
330
6446
330
6447
330
6448
330
6449
330
644A
330
644B
330
644C
330
644D
330
644E
330
644F
330
6450
330
6451
330
6452
330
6453
330
6454
330
6455
330
6456
330
6457
330
6458
330
6459
330
645A
330
645B
330
645C
330
645D
330
645E
330
645F
330
6460
330
6461
330
6462
330
6463
330
6464
330
6465
330
6466
330
6467
330
6468
330
6469
330
646A
330
646B
330
646C
330
646D
330
646E
330
646F
330
6470
330
6471
330
6513
330
6514
330
6515
330
6516
330
6517
330
6518
330
6519
330
651A
330
651B
330
651C
330
651D
330
651E
330
651F
330
6520
330
6521
330
6522
330
6523
330
6524
330
6525
330
6526
330
6527
330
6528
330
6529
330
652A
330
652B
330
652C
330
652D
330
652E
330
652F
330
6530
330
6531
330
6532
330
6533
330
6534
330
6535
330
6536
330
6537
330
6538
330
6539
330
653A
330
653B
330
653C
330
653D
330
653E
330
653F
330
6540
330
6541
330
6542
330
6543
330
6544
330
6545
330
633A
330
633B
330
633C
330
633D
330
633E
330
633F
330
6340
330
6341
330
6342
330
6343
330
6344
330
6345
330
6346
330
6347
330
6348
330
6349
330
634A
330
634B
330
634C
330
634D
330
634E
330
634F
330
6350
330
6351
330
6352
330
6353
330
6354
330
6355
330
6356
330
6357
330
6358
330
6359
330
635A
330
635B
330
635C
330
635D
330
635E
330
635F
330
6360
330
6361
330
6362
330
6363
330
6364
330
6365
330
6366
330
6367
330
6368
330
6369
330
636A
330
636B
330
636C
330
636D
330
636E
330
636F
330
6370
330
6371
330
6372
330
6373
330
6374
330
6375
330
6376
330
6377
330
6378
330
6379
330
637A
330
637B
330
637C
330
637D
330
637E
330
637F
330
6380
330
6381
330
6382
330
6383
330
6384
330
6385
330
6386
330
6387
330
6388
330
6389
330
638A
330
638B
330
638C
330
638D
330
638E
330
638F
330
6390
330
6391
330
6392
330
6393
330
6394
330
6395
330
6396
330
6397
330
6398
330
6399
330
639A
330
639B
330
639C
330
639D
330
639E
330
639F
330
63A0
330
63A1
330
63A2
330
63A3
330
63A4
330
63A5
330
63A6
330
63A7
330
63A8
330
63A9
330
63AA
330
63AB
330
63AC
330
63AD
330
63AE
330
63AF
330
63B0
330
63B1
330
63B2
330
63B3
330
63B4
330
63B5
330
63B6
330
63B7
330
63B8
330
63B9
330
63BA
330
63BB
330
63BC
330
63BD
330
63BE
330
63BF
330
63C0
330
63C1
330
63C2
330
63C3
330
63C4
330
63C5
330
63C6
330
63C7
330
63C8
330
63C9
330
63CA
330
63CB
330
63CC
330
63CD
330
63CE
330
63CF
330
63D0
330
63D1
330
63D2
330
63D3
330
63D4
330
63D5
330
63D6
330
63D7
330
63D8
330
63D9
330
63DA
330
63DB
330
63DC
330
63DD
330
63DE
330
63DF
330
63E0
330
63E1
330
63E2
330
63E3
330
63E4
330
63E5
330
63E6
330
63E7
330
63E8
330
63E9
330
63EA
330
63EB
330
63EC
330
63ED
330
63EE
330
63EF
330
63F0
330
63F1
330
63F2
330
63F3
330
63F4
330
63F5
330
63F6
330
63F7
330
63F8
330
63F9
330
63FA
330
63FB
330
63FC
330
63FD
330
63FE
330
63FF
330
6400
330
6401
330
6402
330
6403
330
6404
330
6405
330
6406
330
6407
330
6408
330
6409
330
640A
330
640B
330
640C
330
640D
330
640E
330
640F
330
6410
330
6411
330
6412
330
6413
330
6414
330
6415
330
6416
330
6417
330
6418
330
6419
330
641A
330
641B
330
641C
330
641D
330
641E
330
641F
330
6420
330
6421
330
6422
330
6423
330
6424
330
6425
330
6426
330
6427
330
6428
330
6429
  0
IDBUFFER
  5
6B1E
330
0
100
AcDbIdBuffer
330
6333
330
6334
330
6335
330
6336
330
6337
330
6338
330
6339
330
6323
330
6324
330
6325
330
6326
330
6327
330
6328
330
6329
330
632A
330
632B
330
632C
330
632D
330
632E
330
632F
330
6330
330
6331
330
6332
  0
IDBUFFER
  5
6B1F
330
0
100
AcDbIdBuffer
330
65B6
330
65B7
330
65B8
330
65B9
330
65BA
330
65BB
330
65BC
330
65BD
330
65BE
330
65BF
330
65C0
330
65C1
330
65C2
330
65C3
330
65C4
330
65C5
330
65C6
330
65C7
330
65C8
330
6546
330
6547
330
6548
330
6549
330
654A
330
654B
330
654C
330
654D
330
654E
330
654F
330
6550
330
6551
330
6552
330
6553
330
6554
330
6555
330
6556
330
6557
330
6558
330
6559
330
655A
330
655B
330
655C
330
655D
330
655E
330
655F
330
6560
330
6561
330
6562
330
6563
330
6564
330
6565
330
6566
330
6567
330
6568
330
6569
330
656A
330
656B
330
656C
330
656D
330
656E
330
656F
330
6570
330
6571
330
6572
330
6573
330
6574
330
6575
330
6576
330
6577
330
6578
330
6579
330
657A
330
657B
330
657C
330
657D
330
657E
330
657F
330
6580
330
6581
330
6582
330
6583
330
6584
330
6585
330
6586
330
6587
330
6588
330
6589
330
658A
330
658B
330
658C
330
658D
330
658E
330
658F
330
6590
330
6591
330
6592
330
6593
330
6594
330
6595
330
6596
330
6597
330
6598
330
6599
330
659A
330
659B
330
659C
330
659D
330
659E
330
659F
330
65A0
330
65A1
330
65A2
330
65A3
330
65A4
330
65A5
330
65A6
330
65A7
330
65A8
330
65A9
330
65AA
330
65AB
330
65AC
330
65AD
330
65AE
330
65AF
330
65B0
330
65B1
330
65B2
330
65B3
330
65B4
330
65B5
  0
IDBUFFER
  5
6B20
330
0
100
AcDbIdBuffer
330
65CF
330
686B
330
686C
330
64BA
330
64BD
330
64BE
330
64C1
330
64C4
330
64C5
330
64C8
330
64CB
330
64CC
330
64CF
330
64D2
330
64D3
330
64D4
330
64D7
330
64D8
330
64DB
330
64DE
330
64E1
330
64E2
330
64E5
330
64E8
330
64EB
330
64EE
330
64F1
330
64F2
330
64F3
330
64F4
330
64F7
330
64FA
330
64FB
330
64FE
330
64FF
330
6500
330
6503
330
6504
330
6505
330
6506
330
6507
330
6508
330
650A
330
650B
330
650C
330
65C9
330
65CA
330
65CB
330
65CC
330
65CD
330
65CE
  0
IDBUFFER
  5
6B21
330
0
100
AcDbIdBuffer
330
64A2
330
64A3
330
64A4
330
64A5
330
64A6
330
64A7
330
64A8
330
64A9
330
64AA
330
64AB
330
64AC
330
64AD
330
64AE
330
64AF
330
64B0
330
64B1
330
64B2
330
64B3
330
64B4
330
64B5
330
64B6
330
64B7
330
64B8
330
64B9
330
650D
330
650E
330
650F
330
6510
330
6511
330
6512
330
6926
330
6472
330
6473
330
6474
330
6475
330
6476
330
6477
330
6478
330
6479
330
647A
330
647B
330
647C
330
647D
330
647E
330
647F
330
6480
330
6481
330
6482
330
6483
330
6484
330
6485
330
6486
330
6487
330
6488
330
6489
330
648A
330
648B
330
648C
330
648D
330
648E
330
648F
330
6490
330
6491
330
6492
330
6493
330
6494
330
6495
330
6496
330
6497
330
6498
330
6499
330
649A
330
649B
330
649C
330
649D
330
649E
330
649F
330
64A0
330
64A1
  0
IDBUFFER
  5
6B22
330
0
100
AcDbIdBuffer
330
4692
330
4693
330
4694
330
4695
330
4696
330
4697
330
4698
330
4699
330
469A
330
469B
330
469C
330
469D
330
469E
330
469F
330
46A0
330
46A1
330
46A2
330
46A3
330
46AF
330
46B0
330
46B1
330
46B2
330
46B3
330
46B4
330
46B5
330
46B6
330
46B7
330
46B8
330
46B9
330
46BA
330
46BB
330
46BC
330
46BD
330
46BE
330
46BF
330
46C0
330
46C1
330
46C2
330
46C3
330
46C6
330
46C7
330
46C8
330
46C9
330
46D6
330
46D7
330
46D8
330
46D9
330
46DA
330
46DB
330
46DC
330
46DD
330
46DE
330
46DF
330
46E0
330
46E1
330
464D
330
464E
330
464F
330
4650
330
4651
330
4652
330
4653
330
4654
330
4655
330
4656
330
4657
330
4658
330
4659
330
465A
330
465B
330
465C
330
465D
330
465E
330
465F
330
4660
330
4661
330
4662
330
4663
330
4664
330
4668
330
466C
330
466D
330
4671
330
4672
330
4673
330
4674
330
4675
330
4676
330
4677
330
4678
330
467C
330
4680
330
4684
330
4685
330
4686
330
468A
330
468B
330
468C
330
468D
330
468E
330
468F
330
4690
330
4691
  0
XRECORD
  5
6B2A
102
{ACAD_REACTORS
330
6B29
102
}
330
6B29
100
AcDbXrecord
280
     1
102
SHADEPLOT
 70
     0
102
SHADEPLOTRESLEVEL
 70
     2
102
SHADEPLOTCUSTOMDPI
 70
   300
  0
XRECORD
  5
6B28
102
{ACAD_REACTORS
330
6B27
102
}
330
6B27
100
AcDbXrecord
280
     1
102
SHADEPLOT
 70
     0
102
SHADEPLOTRESLEVEL
 70
     2
102
SHADEPLOTCUSTOMDPI
 70
   300
  0
XRECORD
  5
6B2C
102
{ACAD_REACTORS
330
6B2B
102
}
330
6B2B
100
AcDbXrecord
280
     1
102
SHADEPLOT
 70
     0
102
SHADEPLOTRESLEVEL
 70
     2
102
SHADEPLOTCUSTOMDPI
 70
   300
  0
ENDSEC
  0
EOF
