  0
SECTION
  2
HEADER
  9
$ACADVER
  1
AC1015
  9
$ACADMAINTVER
 70
    20
  9
$DWGCODEPAGE
  3
ANSI_950
  9
$INSBASE
 10
0.0
 20
0.0
 30
0.0
  9
$EXTMIN
 10
469.4998532115859
 20
18.8292987907547
 30
-0.0000000000000284
  9
$EXTMAX
 10
881.9998532115862
 20
318.8292987907545
 30
196.5865886400747
  9
$LIMMIN
 10
0.0
 20
0.0
  9
$LIMMAX
 10
420.0
 20
297.0
  9
$ORTHOMODE
 70
     0
  9
$REGENMODE
 70
     1
  9
$FILLMODE
 70
     1
  9
$QTEXTMODE
 70
     0
  9
$MIRRTEXT
 70
     1
  9
$LTSCALE
 40
1.0
  9
$ATTMODE
 70
     1
  9
$TEXTSIZE
 40
3.0
  9
$TRACEWID
 40
1.0
  9
$TEXTSTYLE
  7
STANDARD
  9
$CLAYER
  8
0
  9
$CELTYPE
  6
ByLayer
  9
$CECOLOR
 62
   256
  9
$CELTSCALE
 40
1.0
  9
$DISPSILH
 70
     0
  9
$DIMSCALE
 40
1.0
  9
$DIMASZ
 40
3.0
  9
$DIMEXO
 40
1.0
  9
$DIMDLI
 40
8.0
  9
$DIMRND
 40
0.0
  9
$DIMDLE
 40
0.0
  9
$DIMEXE
 40
1.5
  9
$DIMTP
 40
0.1
  9
$DIMTM
 40
0.1
  9
$DIMTXT
 40
3.5
  9
$DIMCEN
 40
0.0
  9
$DIMTSZ
 40
0.0
  9
$DIMTOL
 70
     0
  9
$DIMLIM
 70
     0
  9
$DIMTIH
 70
     0
  9
$DIMTOH
 70
     0
  9
$DIMSE1
 70
     0
  9
$DIMSE2
 70
     0
  9
$DIMTAD
 70
     1
  9
$DIMZIN
 70
     8
  9
$DIMBLK
  1

  9
$DIMASO
 70
     1
  9
$DIMSHO
 70
     1
  9
$DIMPOST
  1

  9
$DIMAPOST
  1
"
  9
$DIMALT
 70
     0
  9
$DIMALTD
 70
     2
  9
$DIMALTF
 40
0.0393701
  9
$DIMLFAC
 40
1.0
  9
$DIMTOFL
 70
     1
  9
$DIMTVP
 40
0.0
  9
$DIMTIX
 70
     0
  9
$DIMSOXD
 70
     0
  9
$DIMSAH
 70
     0
  9
$DIMBLK1
  1

  9
$DIMBLK2
  1

  9
$DIMSTYLE
  2
AM_ISO
  9
$DIMCLRD
 70
   256
  9
$DIMCLRE
 70
   256
  9
$DIMCLRT
 70
   256
  9
$DIMTFAC
 40
0.6
  9
$DIMGAP
 40
0.7
  9
$DIMJUST
 70
     0
  9
$DIMSD1
 70
     0
  9
$DIMSD2
 70
     0
  9
$DIMTOLJ
 70
     0
  9
$DIMTZIN
 70
     8
  9
$DIMALTZ
 70
     0
  9
$DIMALTTZ
 70
     0
  9
$DIMUPT
 70
     0
  9
$DIMDEC
 70
     2
  9
$DIMTDEC
 70
     8
  9
$DIMALTU
 70
     2
  9
$DIMALTTD
 70
     2
  9
$DIMTXSTY
  7
STANDARD
  9
$DIMAUNIT
 70
     0
  9
$DIMADEC
 70
     0
  9
$DIMALTRND
 40
0.0
  9
$DIMAZIN
 70
     2
  9
$DIMDSEP
 70
    46
  9
$DIMATFIT
 70
     3
  9
$DIMFRAC
 70
     0
  9
$DIMLDRBLK
  1

  9
$DIMLUNIT
 70
     2
  9
$DIMLWD
 70
    -1
  9
$DIMLWE
 70
    -1
  9
$DIMTMOVE
 70
     0
  9
$LUNITS
 70
     2
  9
$LUPREC
 70
     2
  9
$SKETCHINC
 40
1.0
  9
$FILLETRAD
 40
2.5
  9
$AUNITS
 70
     0
  9
$AUPREC
 70
     0
  9
$MENU
  1
.
  9
$ELEVATION
 40
0.0
  9
$PELEVATION
 40
0.0
  9
$THICKNESS
 40
0.0
  9
$LIMCHECK
 70
     0
  9
$CHAMFERA
 40
2.5
  9
$CHAMFERB
 40
2.5
  9
$CHAMFERC
 40
20.0
  9
$CHAMFERD
 40
0.0
  9
$SKPOLY
 70
     0
  9
$TDCREATE
 40
2454070.719031748
  9
$TDUCREATE
 40
2454070.385698415
  9
$TDUPDATE
 40
2457068.626273322
  9
$TDUUPDATE
 40
2457068.292939989
  9
$TDINDWG
 40
0.2709935648
  9
$TDUSRTIMER
 40
0.2709935648
  9
$USRTIMER
 70
     1
  9
$ANGBASE
 50
0.0
  9
$ANGDIR
 70
     0
  9
$PDMODE
 70
     0
  9
$PDSIZE
 40
0.0
  9
$PLINEWID
 40
0.0
  9
$SPLFRAME
 70
     0
  9
$SPLINETYPE
 70
     6
  9
$SPLINESEGS
 70
     8
  9
$HANDSEED
  5
495D
  9
$SURFTAB1
 70
     6
  9
$SURFTAB2
 70
     6
  9
$SURFTYPE
 70
     6
  9
$SURFU
 70
     6
  9
$SURFV
 70
     6
  9
$UCSBASE
  2

  9
$UCSNAME
  2

  9
$UCSORG
 10
0.0
 20
0.0
 30
0.0
  9
$UCSXDIR
 10
1.0
 20
0.0
 30
0.0
  9
$UCSYDIR
 10
0.0
 20
1.0
 30
0.0
  9
$UCSORTHOREF
  2

  9
$UCSORTHOVIEW
 70
     0
  9
$UCSORGTOP
 10
0.0
 20
0.0
 30
0.0
  9
$UCSORGBOTTOM
 10
0.0
 20
0.0
 30
0.0
  9
$UCSORGLEFT
 10
0.0
 20
0.0
 30
0.0
  9
$UCSORGRIGHT
 10
0.0
 20
0.0
 30
0.0
  9
$UCSORGFRONT
 10
0.0
 20
0.0
 30
0.0
  9
$UCSORGBACK
 10
0.0
 20
0.0
 30
0.0
  9
$PUCSBASE
  2

  9
$PUCSNAME
  2

  9
$PUCSORG
 10
0.0
 20
0.0
 30
0.0
  9
$PUCSXDIR
 10
1.0
 20
0.0
 30
0.0
  9
$PUCSYDIR
 10
0.0
 20
1.0
 30
0.0
  9
$PUCSORTHOREF
  2

  9
$PUCSORTHOVIEW
 70
     0
  9
$PUCSORGTOP
 10
0.0
 20
0.0
 30
0.0
  9
$PUCSORGBOTTOM
 10
0.0
 20
0.0
 30
0.0
  9
$PUCSORGLEFT
 10
0.0
 20
0.0
 30
0.0
  9
$PUCSORGRIGHT
 10
0.0
 20
0.0
 30
0.0
  9
$PUCSORGFRONT
 10
0.0
 20
0.0
 30
0.0
  9
$PUCSORGBACK
 10
0.0
 20
0.0
 30
0.0
  9
$USERI1
 70
     0
  9
$USERI2
 70
     0
  9
$USERI3
 70
     0
  9
$USERI4
 70
     0
  9
$USERI5
 70
     0
  9
$USERR1
 40
0.0
  9
$USERR2
 40
0.0
  9
$USERR3
 40
0.0
  9
$USERR4
 40
0.0
  9
$USERR5
 40
0.0
  9
$WORLDVIEW
 70
     1
  9
$SHADEDGE
 70
     3
  9
$SHADEDIF
 70
    70
  9
$TILEMODE
 70
     1
  9
$MAXACTVP
 70
    64
  9
$PINSBASE
 10
0.0
 20
0.0
 30
0.0
  9
$PLIMCHECK
 70
     0
  9
$PEXTMIN
 10
1.000000000000000E+20
 20
1.000000000000000E+20
 30
1.000000000000000E+20
  9
$PEXTMAX
 10
-1.000000000000000E+20
 20
-1.000000000000000E+20
 30
-1.000000000000000E+20
  9
$PLIMMIN
 10
0.0
 20
0.0
  9
$PLIMMAX
 10
420.0
 20
297.0
  9
$UNITMODE
 70
     0
  9
$VISRETAIN
 70
     1
  9
$PLINEGEN
 70
     0
  9
$PSLTSCALE
 70
     1
  9
$TREEDEPTH
 70
  3020
  9
$CMLSTYLE
  2
Standard
  9
$CMLJUST
 70
     0
  9
$CMLSCALE
 40
20.0
  9
$PROXYGRAPHICS
 70
     1
  9
$MEASUREMENT
 70
     1
  9
$CELWEIGHT
370
    -1
  9
$ENDCAPS
280
     0
  9
$JOINSTYLE
280
     0
  9
$LWDISPLAY
290
     0
  9
$INSUNITS
 70
     4
  9
$HYPERLINKBASE
  1

  9
$STYLESHEET
  1
彩色出圖.ctb
  9
$XEDIT
290
     1
  9
$CEPSNTYPE
380
     0
  9
$PSTYLEMODE
290
     1
  9
$FINGERPRINTGUID
  2
{72A33D65-2724-49D4-AEA8-618A406F8275}
  9
$VERSIONGUID
  2
{816083EB-7138-492E-A02F-0CCA7E5D6896}
  9
$EXTNAMES
290
     1
  9
$PSVPSCALE
 40
0.0
  9
$OLESTARTUP
290
     0
  0
ENDSEC
  0
SECTION
  2
CLASSES
  0
CLASS
  1
ACDBDICTIONARYWDFLT
  2
AcDbDictionaryWithDefault
  3
ObjectDBX Classes
 90
        0
280
     0
281
     0
  0
CLASS
  1
ACDBPLACEHOLDER
  2
AcDbPlaceHolder
  3
ObjectDBX Classes
 90
        0
280
     0
281
     0
  0
CLASS
  1
LAYOUT
  2
AcDbLayout
  3
ObjectDBX Classes
 90
        0
280
     0
281
     0
  0
CLASS
  1
ACME_DOCUMENT
  2
AcMeDbDoc
  3
AcMeServices
 90
        0
280
     0
281
     0
  0
CLASS
  1
AMGSETTINGSOBJ
  2
AmgSettingsObj
  3
"AcadM|Product Description: AutoCAD Mechanical 2000|Company: Autodesk"
 90
        0
280
     0
281
     0
  0
CLASS
  1
ACMESCOPE
  2
AcMeScope
  3
AcMeServices
 90
        0
280
     0
281
     0
  0
CLASS
  1
ACMECOMMANDHISTORY
  2
AcMeCommandHistory
  3
AcMeServices
 90
        0
280
     0
281
     0
  0
CLASS
  1
ACIMSYSVARMAN
  2
AcImSysVarManager
  3
AcMeServices
 90
        0
280
     0
281
     0
  0
CLASS
  1
ACIMREALSYSVAR
  2
AcImRealSysVar
  3
AcMeServices
 90
        0
280
     0
281
     0
  0
CLASS
  1
ACIMINTSYSVAR
  2
AcImIntSysVar
  3
AcMeServices
 90
        0
280
     0
281
     0
  0
CLASS
  1
ACMEDRAWINGMAN
  2
AcMeDrawingMan
  3
AcMeServices
 90
        0
280
     0
281
     0
  0
CLASS
  1
ACMEVIEW
  2
AcMeView
  3
AcMeServices
 90
        0
280
     0
281
     0
  0
CLASS
  1
ACDBENTITYCACHE
  2
AcMeEntityCache
  3
AcMeServices
 90
        0
280
     0
281
     0
  0
CLASS
  1
GSMANAGER
  2
AcMeGSManager
  3
AcMeServices
 90
        0
280
     0
281
     0
  0
CLASS
  1
AMDTINTERNALREACTOR
  2
AmdtInternalReactor
  3
AcMeServices
 90
        0
280
     0
281
     0
  0
CLASS
  1
ACMESTATEMGR
  2
AcMeStateMgr
  3
AcMeServices
 90
        0
280
     0
281
     0
  0
CLASS
  1
ACGREFMASTER
  2
AcGrefMaster
  3
AcAttribServices
 90
        0
280
     0
281
     0
  0
CLASS
  1
ACME_DATABASE
  2
AcMeDbDatabase
  3
AcMeServices
 90
        0
280
     0
281
     0
  0
CLASS
  1
ACRFINSADJUSTERMGR
  2
AcRfInsAdjusterMgr
  3
AcMeServices
 90
        0
280
     0
281
     0
  0
CLASS
  1
ACGREFACADMASTER
  2
AcGrefacadMaster
  3
AcGrefServices
 90
        0
280
     0
281
     0
  0
CLASS
  1
AMIMASTER
  2
AmiMaster
  3
AmiServices
 90
        0
280
     0
281
     0
  0
CLASS
  1
ACMDATADICTIONARY
  2
AcmDataDictionary
  3
"AcmSymBB|Product Description: AutoCAD Mechanical 2004 DX|Company: Autodesk"
 90
        0
280
     0
281
     0
  0
CLASS
  1
ACMDATAENTRYBLOCK
  2
AcmDataEntryBlock
  3
"AcmSymBB|Product Description: AutoCAD Mechanical 2004 DX|Company: Autodesk"
 90
        0
280
     0
281
     0
  0
CLASS
  1
ACIMSTRSYSVAR
  2
AcImStrSysVar
  3
AcMeServices
 90
        0
280
     0
281
     0
  0
CLASS
  1
ACMSTANDARDISO
  2
AcmStandardISO
  3
"Amdt_StdImp|Product Description: AutoCAD Mechanical 2004 DX|Company: Autodesk"
 90
        0
280
     0
281
     0
  0
CLASS
  1
AMGOBJPROPCFG
  2
AmgObjPropCfg
  3
"AmgLay|Product Description: AutoCAD Mechanical 2000|Company: Autodesk"
 90
        1
280
     0
281
     0
  0
CLASS
  1
AMDTEDGESTANDARDISO
  2
AmdtEdgeStdISO
  3
"Amdt_StdImp|Product Description: AutoCAD Mechanical 2004 DX|Company: Autodesk"
 90
    32768
280
     0
281
     0
  0
CLASS
  1
ACMSURFSTANDARDISO
  2
AcmSurfTextStdISO
  3
"Amdt_StdImp|Product Description: AutoCAD Mechanical 2004 DX|Company: Autodesk"
 90
        0
280
     0
281
     0
  0
CLASS
  1
ACMFCFSTANDARDISO
  2
AcmFCFStdISO
  3
"Amdt_StdImp|Product Description: AutoCAD Mechanical 2004 DX|Company: Autodesk"
 90
        0
280
     0
281
     0
  0
CLASS
  1
ACMWELDSTANDARDISO
  2
AcmWeldingStdISO
  3
"Amdt_StdImp|Product Description: AutoCAD Mechanical 2004 DX|Company: Autodesk"
 90
        0
280
     0
281
     0
  0
CLASS
  1
ACMIDSTANDARDISO
  2
AcmIdStdISO
  3
"Amdt_StdImp|Product Description: AutoCAD Mechanical 2004 DX|Company: Autodesk"
 90
        0
280
     0
281
     0
  0
CLASS
  1
ACMDATUMSTANDARDISO
  2
AcmDatumStdISO
  3
"Amdt_StdImp|Product Description: AutoCAD Mechanical 2004 DX|Company: Autodesk"
 90
        0
280
     0
281
     0
  0
CLASS
  1
ACMBOMSTANDARDISO
  2
AcmBOMStdISO
  3
"Amdt_StdImp|Product Description: AutoCAD Mechanical 2004 DX|Company: Autodesk"
 90
        0
280
     0
281
     0
  0
CLASS
  1
ACMDETAILSTANDARDISO
  2
AmdtDetailSymStdISO
  3
"Amdt_StdImp|Product Description: AutoCAD Mechanical 2004 DX|Company: Autodesk"
 90
        0
280
     0
281
     0
  0
CLASS
  1
ACMSECTIONSTANDARDISO
  2
AmdtSectionSymStdISO
  3
"Amdt_StdImp|Product Description: AutoCAD Mechanical 2004 DX|Company: Autodesk"
 90
        0
280
     0
281
     0
  0
CLASS
  1
ACMCENTERLINESTANDARDISO
  2
AmdtCenterLineStdISO
  3
"Amdt_StdImp|Product Description: AutoCAD Mechanical 2004 DX|Company: Autodesk"
 90
        0
280
     0
281
     0
  0
CLASS
  1
ACMNOTESTANDARDISO
  2
AmdtNoteStdISO
  3
"Amdt_StdImp|Product Description: AutoCAD Mechanical 2004 DX|Company: Autodesk"
 90
        0
280
     0
281
     0
  0
CLASS
  1
ACAMGLAYSTD
  2
AcAmgLayStd
  3
"AcAmgLayStd|Product Description: AutoCAD Mechanical 2000|Company: Autodesk"
 90
        0
280
     0
281
     0
  0
CLASS
  1
ACAMGDIMSTD
  2
AcAmgDimStd
  3
"AcAmgDimStd|Product Description: AutoCAD Mechanical 2000|Company: Autodesk"
 90
        0
280
     0
281
     0
  0
CLASS
  1
ACAMGHOLECHARTSTDISO
  2
AcAmgHoleChartStdISO
  3
ACMSYMBB_MODULE_NAME
 90
        0
280
     0
281
     0
  0
CLASS
  1
ACAMGTITLESTD
  2
AcAmgTitleStd
  3
"TITLEAPP"
 90
        0
280
     0
281
     0
  0
CLASS
  1
LAYER_INDEX
  2
AcDbLayerIndex
  3
ObjectDBX Classes
 90
        0
280
     0
281
     0
  0
CLASS
  1
IDBUFFER
  2
AcDbIdBuffer
  3
ObjectDBX Classes
 90
        0
280
     0
281
     0
  0
CLASS
  1
DICTIONARYVAR
  2
AcDbDictionaryVar
  3
ObjectDBX Classes
 90
        0
280
     0
281
     0
  0
CLASS
  1
AM_DRAWING_MGR
  2
AcDmDwgMgr
  3
AcMechDwgViewMgmt
 90
        0
280
     0
281
     0
  0
CLASS
  1
AM_DWG_DOCUMENT
  2
AcDmDwgDocument
  3
AcMechDwgViewMgmt
 90
        0
280
     0
281
     0
  0
CLASS
  1
AM_DWG_SHEET
  2
AcDmSheet
  3
AcMechDwgViewMgmt
 90
        0
280
     0
281
     0
  0
CLASS
  1
AM_VIEWDIMPARMAP
  2
AcDmViewDimParMap
  3
AcMechDwgViewMgmt
 90
        0
280
     0
281
     0
  0
CLASS
  1
AM_DWGMGR_NAME
  2
AcDmDwgMgrName
  3
AcMechDwgViewMgmt
 90
        0
280
     0
281
     0
  0
CLASS
  1
AMDTMENUSTATEMGR
  2
AmdtMenuStateMgr
  3
McadcomServices
 90
        0
280
     0
281
     0
  0
CLASS
  1
AMDTMCOMMENUSTATE
  2
AmdtMcomMenuState
  3
McadcomServices
 90
        0
280
     0
281
     0
  0
CLASS
  1
MAPIAMMOUDLE
  2
MApiAmModule
  3
MApiAmServices
 90
        0
280
     0
281
     0
  0
CLASS
  1
AMDTADMENUSTATE
  2
AmdtAdMenuState
  3
DesignerServices
 90
        0
280
     0
281
     0
  0
CLASS
  1
ADAPPL
  2
AcAdAppl
  3
DesignerServices
 90
        0
280
     0
281
     0
  0
CLASS
  1
DEPMGR
  2
AcAdDepMgr
  3
DesignerServices
 90
        0
280
     0
281
     0
  0
CLASS
  1
PARAMMGR
  2
AcAdParamMgr
  3
DesignerServices
 90
        0
280
     0
281
     0
  0
CLASS
  1
PARAMSCOPE
  2
AcAdParamScope
  3
DesignerServices
 90
        0
280
     0
281
     0
  0
CLASS
  1
NAMEDAPPL
  2
AcAdNamedAppl
  3
DesignerServices
 90
        0
280
     0
281
     0
  0
CLASS
  1
AMDTDMMENUSTATE
  2
AmdtDmMenuState
  3
AcMechDwgViewMgmt
 90
        0
280
     0
281
     0
  0
CLASS
  1
AMDTAMMENUSTATE
  2
AmdtAmMenuState
  3
DesignerAssemblies
 90
        0
280
     0
281
     0
  0
CLASS
  1
ACAMPROJECT
  2
AcAmProject
  3
DesignerAssemblies
 90
        0
280
     0
281
     0
  0
CLASS
  1
ACAMGRCOMPDEF
  2
AcAmGrCompDef
  3
DesignerAssemblies
 90
        0
280
     0
281
     0
  0
CLASS
  1
ACCMCONTEXT
  2
AcCmContext
  3
DesignerAssemblies
 90
        0
280
     0
281
     0
  0
CLASS
  1
ACAMCOMPDEF
  2
AcAmCompDef
  3
DesignerAssemblies
 90
        0
280
     0
281
     0
  0
CLASS
  1
ACAMCOMPDEFMGR
  2
AcAmCompDefMgr
  3
DesignerAssemblies
 90
        0
280
     0
281
     0
  0
CLASS
  1
AMCONTEXTMGR
  2
AcAmContextMgr
  3
DesignerAssemblies
 90
        0
280
     0
281
     0
  0
CLASS
  1
ACAMCONTEXTMODELER
  2
AcAmContextModeler
  3
DesignerAssemblies
 90
        0
280
     0
281
     0
  0
CLASS
  1
ACMTHREADLINESTANDARDISO
  2
AmdtThreadLineStdISO
  3
"Amdt_StdImp|Product Description: AutoCAD Mechanical 2004 DX|Company: Autodesk"
 90
        0
280
     0
281
     0
  0
CLASS
  1
CATALOGSTATE
  2
AcAmCatalogState
  3
DesignerAssemblies
 90
        0
280
     0
281
     0
  0
CLASS
  1
ACAMGRCOMPDEFSET
  2
AcAmGrCompDefSet
  3
DesignerAssemblies
 90
        0
280
     0
281
     0
  0
CLASS
  1
AMDTBROWSERDBTAB
  2
AmdtBrowserDbTab
  3
McadcomServices
 90
        0
280
     0
281
     0
  0
CLASS
  1
CBROWSERAPPOBJECT
  2
CBrowserAppObject
  3
McadcomServices
 90
        0
280
     0
281
     0
  0
CLASS
  1
DM_PLACEHOLDER
  2
AcDmSelsetPlaceholder
  3
AcMechDwgViewMgmt
 90
        0
280
     0
281
     0
  0
CLASS
  1
TABLESTYLE
  2
AcDbTableStyle
  3
ObjectDBX Classes
 90
     2047
280
     0
281
     0
  0
CLASS
  1
VAACXREFPANELOBJECT
  2
VaAcXREFPanelObject
  3
VAAC_ADDIN
 90
    32768
280
     0
281
     0
  0
CLASS
  1
VAACIMAGEINVENTORY
  2
VaAcImageInventory
  3
VAAC_ADDIN
 90
    32768
280
     0
281
     0
  0
CLASS
  1
AMDTNOTETEMPLATEDB
  2
AmdtNoteTemplateDB
  3
AMDT_STDIMP_MODULE_NAME
 90
        0
280
     0
281
     0
  0
CLASS
  1
ACMBOM
  2
AcmBom
  3
"AcmSymBB|Product Description: AutoCAD Mechanical 2004 DX|Company: Autodesk"
 90
    32768
280
     0
281
     0
  0
CLASS
  1
AMDTFORMULAUPDATEDISPATCHER
  2
AmdtFormulaUpdateDispatcher
  3
AcMeServices
 90
    32768
280
     0
281
     0
  0
CLASS
  1
ACMPARTLIST
  2
AcmPartList
  3
"AcmSymBB|Product Description: AutoCAD Mechanical 2004 DX|Company: Autodesk"
 90
    33791
280
     0
281
     1
  0
CLASS
  1
ACAMGFILTERDAT
  2
AcAmgFilterDat
  3
"AcadM|Product Description: AutoCAD Mechanical 2000|Company: Autodesk"
 90
    32768
280
     0
281
     0
  0
CLASS
  1
DIMASSOC
  2
AcDbDimAssoc
  3
"AcDbDimAssoc|Product Desc:     AcDim ARX App For Dimension|Company:          Autodesk, Inc.|WEB Address:      www.autodesk.com"
 90
        0
280
     0
281
     0
  0
CLASS
  1
SORTENTSTABLE
  2
AcDbSortentsTable
  3
ObjectDBX Classes
 90
        0
280
     0
281
     0
  0
CLASS
  1
ACMSTANDARDANSI
  2
AcmStandardANSI
  3
"Amdt_StdImp|Product Description: AutoCAD Mechanical 2004 DX|Company: Autodesk"
 90
    32768
280
     0
281
     0
  0
CLASS
  1
ACMSURFSTANDARDANSI
  2
AcmSurfTextStdANSI
  3
"Amdt_StdImp|Product Description: AutoCAD Mechanical 2004 DX|Company: Autodesk"
 90
    32768
280
     0
281
     0
  0
CLASS
  1
ACMFCFSTANDARDANSI
  2
AcmFCFStdANSI
  3
"Amdt_StdImp|Product Description: AutoCAD Mechanical 2004 DX|Company: Autodesk"
 90
    32768
280
     0
281
     0
  0
CLASS
  1
ACMWELDSTANDARDANSI
  2
AcmWeldingStdANSI
  3
"Amdt_StdImp|Product Description: AutoCAD Mechanical 2004 DX|Company: Autodesk"
 90
    32768
280
     0
281
     0
  0
CLASS
  1
ACMIDSTANDARDANSI
  2
AcmIdStdANSI
  3
"Amdt_StdImp|Product Description: AutoCAD Mechanical 2004 DX|Company: Autodesk"
 90
    32768
280
     0
281
     0
  0
CLASS
  1
ACMDATUMSTANDARDANSI
  2
AcmDatumStdANSI
  3
"Amdt_StdImp|Product Description: AutoCAD Mechanical 2004 DX|Company: Autodesk"
 90
    32768
280
     0
281
     0
  0
CLASS
  1
ACMBOMSTANDARDANSI
  2
AcmBOMStdANSI
  3
"Amdt_StdImp|Product Description: AutoCAD Mechanical 2004 DX|Company: Autodesk"
 90
    32768
280
     0
281
     0
  0
CLASS
  1
ACMDETAILSTANDARDANSI
  2
AmdtDetailSymStdANSI
  3
"Amdt_StdImp|Product Description: AutoCAD Mechanical 2004 DX|Company: Autodesk"
 90
    32768
280
     0
281
     0
  0
CLASS
  1
ACMSECTIONSTANDARDANSI
  2
AmdtSectionSymStdANSI
  3
"Amdt_StdImp|Product Description: AutoCAD Mechanical 2004 DX|Company: Autodesk"
 90
    32768
280
     0
281
     0
  0
CLASS
  1
ACMCENTERLINESTANDARDANSI
  2
AmdtCenterLineStdANSI
  3
"Amdt_StdImp|Product Description: AutoCAD Mechanical 2004 DX|Company: Autodesk"
 90
    32768
280
     0
281
     0
  0
CLASS
  1
ACMTHREADLINESTANDARDANSI
  2
AmdtThreadLineStdANSI
  3
"Amdt_StdImp|Product Description: AutoCAD Mechanical 2004 DX|Company: Autodesk"
 90
    32768
280
     0
281
     0
  0
CLASS
  1
ACMNOTESTANDARDANSI
  2
AmdtNoteStdANSI
  3
"Amdt_StdImp|Product Description: AutoCAD Mechanical 2004 DX|Company: Autodesk"
 90
    32768
280
     0
281
     0
  0
CLASS
  1
ACAMGHOLECHARTSTDANSI
  2
AcAmgHoleChartStdANSI
  3
ACMSYMBB_MODULE_NAME
 90
    32768
280
     0
281
     0
  0
CLASS
  1
AMDTNOTE
  2
AmdtNote
  3
"AcmSymBB|Product Description: AutoCAD Mechanical 2004 DX|Company: Autodesk"
 90
    33791
280
     0
281
     1
  0
CLASS
  1
ASAPP
  2
AcAsAppObject
  3
AutoSurfServices
 90
        0
280
     0
281
     0
  0
CLASS
  1
IM_STATIC_MAN
  2
AcImStaticVarManager
  3
AcMeServices
 90
        0
280
     0
281
     0
  0
CLASS
  1
ACIMDBLSTATICVAR
  2
AcImDblStaticVar
  3
AcMeServices
 90
        0
280
     0
281
     0
  0
CLASS
  1
ACIMSTRSTATICVAR
  2
AcImStrStaticVar
  3
AcMeServices
 90
        0
280
     0
281
     0
  0
CLASS
  1
ACIMINTSTATICVAR
  2
AcImIntStaticVar
  3
AcMeServices
 90
        0
280
     0
281
     0
  0
CLASS
  1
ACASGREFMASTER
  2
AcAsGrefMaster
  3
AutoSurfResolverServices
 90
        0
280
     0
281
     0
  0
CLASS
  1
ACADGREFMODULE
  2
AcAdGrefModule
  3
AdGrefServices
 90
        0
280
     0
281
     0
  0
CLASS
  1
AMDTMAPISURFMOUDULE
  2
AmdtMApiSurfModule
  3
MApiSurfServices
 90
        0
280
     0
281
     0
  0
CLASS
  1
MAPIADMODULE
  2
MApiAdModule
  3
MApiAdServices
 90
        0
280
     0
281
     0
  0
CLASS
  1
AMDTEDGESTANDARDISO13715
  2
AmdtEdgeStdISO13715
  3
"Amdt_StdImp|Product Description: AutoCAD Mechanical 2004 DX|Company: Autodesk"
 90
        0
280
     0
281
     0
  0
ENDSEC
  0
SECTION
  2
TABLES
  0
TABLE
  2
VPORT
  5
8
330
0
100
AcDbSymbolTable
 70
     3
  0
VPORT
  5
4954
330
8
100
AcDbSymbolTableRecord
100
AcDbViewportTableRecord
  2
*Active
 70
     0
 10
0.0
 20
0.0
 11
1.0
 21
1.0
 12
-32.72418677434655
 22
15.38796790996487
 13
0.0
 23
0.0
 14
2.5
 24
2.5
 15
10.0
 25
10.0
 16
0.0
 26
0.0
 36
1.0
 17
675.7528512704382
 27
171.9792783748407
 37
0.0
 40
233.8246942323341
 41
1.576441102756892
 42
50.0
 43
0.0
 44
0.0
 50
0.0
 51
0.0
 71
     0
 72
   100
 73
     1
 74
     3
 75
     0
 76
     0
 77
     0
 78
     0
281
     0
 65
     0
110
0.0
120
0.0
130
0.0
111
1.0
121
0.0
131
0.0
112
0.0
122
1.0
132
0.0
 79
     0
146
0.0
  0
ENDTAB
  0
TABLE
  2
LTYPE
  5
5
330
0
100
AcDbSymbolTable
 70
    19
  0
LTYPE
  5
14
330
5
100
AcDbSymbolTableRecord
100
AcDbLinetypeTableRecord
  2
ByBlock
 70
     0
  3

 72
    65
 73
     0
 40
0.0
  0
LTYPE
  5
15
330
5
100
AcDbSymbolTableRecord
100
AcDbLinetypeTableRecord
  2
ByLayer
 70
     0
  3

 72
    65
 73
     0
 40
0.0
  0
LTYPE
  5
16
330
5
100
AcDbSymbolTableRecord
100
AcDbLinetypeTableRecord
  2
Continuous
 70
     0
  3
Solid line
 72
    65
 73
     0
 40
0.0
  0
LTYPE
  5
64
330
5
100
AcDbSymbolTableRecord
100
AcDbLinetypeTableRecord
  2
AM_ISO02W050
 70
     0
  3
__ __ __ __ __ __ __ __ __ __ __ __ __ __ __
 72
    65
 73
     2
 40
7.5
 49
6.0
 74
     0
 49
-1.5
 74
     0
  0
LTYPE
  5
65
330
5
100
AcDbSymbolTableRecord
100
AcDbLinetypeTableRecord
  2
AM_ISO08W050
 70
     0
  3
____ . ____ . ____ . ____ . ____ . ____ . ____
 72
    65
 73
     4
 40
18.0
 49
12.0
 74
     0
 49
-1.5
 74
     0
 49
3.0
 74
     0
 49
-1.5
 74
     0
  0
LTYPE
  5
66
330
5
100
AcDbSymbolTableRecord
100
AcDbLinetypeTableRecord
  2
AM_ISO09W050
 70
     0
  3
_____ . . _____ . . _____ . . ____ .. ____
 72
    65
 73
     6
 40
22.5
 49
12.0
 74
     0
 49
-1.5
 74
     0
 49
3.0
 74
     0
 49
-1.5
 74
     0
 49
3.0
 74
     0
 49
-1.5
 74
     0
  0
LTYPE
  5
67
330
5
100
AcDbSymbolTableRecord
100
AcDbLinetypeTableRecord
  2
Amconstr
 70
     0
  3
_______________________
 72
    65
 73
     2
 40
9999.0
 49
9999.0
 74
     0
 49
0.0
 74
     0
  0
LTYPE
  5
68
330
5
100
AcDbSymbolTableRecord
100
AcDbLinetypeTableRecord
  2
AM_ISO08W050x2
 70
     0
  3
__ . __ . __ . __ . __ . __
 72
    65
 73
     4
 40
9.0
 49
6.0
 74
     0
 49
-0.75
 74
     0
 49
1.5
 74
     0
 49
-0.75
 74
     0
  0
LTYPE
  5
69
330
5
100
AcDbSymbolTableRecord
100
AcDbLinetypeTableRecord
  2
AM_ISO02W050x2
 70
     0
  3
 _ _ _ _ _ _ _ _ _ _ _ _
 72
    65
 73
     2
 40
3.75
 49
3.0
 74
     0
 49
-0.75
 74
     0
  0
LTYPE
  5
6C
330
5
100
AcDbSymbolTableRecord
100
AcDbLinetypeTableRecord
  2
Amzigzag
 70
     0
  3
/\/-/\/-/\/-/\/-/\/-/\/
 72
    65
 73
     2
 40
11.0001
 49
0.0001
 74
     4
 75
   135
340
6B
 46
0.04
 50
0.0
 44
0.0
 45
0.0
 49
-11.0
 74
     0
  0
LTYPE
  5
7A
330
5
100
AcDbSymbolTableRecord
100
AcDbLinetypeTableRecord
  2
ACISOWELD
 70
     0
  3
_ _ _ _ _
 72
    65
 73
     2
 40
2.0
 49
2.0
 74
     0
 49
-1.0
 74
     0
  0
LTYPE
  5
7B
330
5
100
AcDbSymbolTableRecord
100
AcDbLinetypeTableRecord
  2
ACISOTGB
 70
     0
  3
__ . . __ . .
 72
    65
 73
     6
 40
9.0
 49
4.0
 74
     0
 49
-1.0
 74
     0
 49
1.0
 74
     0
 49
-1.0
 74
     0
 49
1.0
 74
     0
 49
-1.0
 74
     0
  0
LTYPE
  5
7C
330
5
100
AcDbSymbolTableRecord
100
AcDbLinetypeTableRecord
  2
ACISOTGL
 70
     0
  3
_ _ _ _ _
 72
    65
 73
     2
 40
3.0
 49
2.0
 74
     0
 49
-1.0
 74
     0
  0
LTYPE
  5
7E
330
5
100
AcDbSymbolTableRecord
100
AcDbLinetypeTableRecord
  2
CENTER
 70
     0
  3
__ . __
 72
    65
 73
     4
 40
7.0
 49
4.0
 74
     0
 49
-1.0
 74
     0
 49
1.0
 74
     0
 49
-1.0
 74
     0
  0
LTYPE
  5
D8
330
5
100
AcDbSymbolTableRecord
100
AcDbLinetypeTableRecord
  2
HIDDEN
 70
     0
  3
Hidden __ __ __ __ __ __ __ __ __ __ __ __ __ _
 72
    65
 73
     2
 40
9.524999999999998
 49
6.349999999999999
 74
     0
 49
-3.174999999999999
 74
     0
  0
LTYPE
  5
D9
330
5
100
AcDbSymbolTableRecord
100
AcDbLinetypeTableRecord
  2
PHANTOM2
 70
     0
  3
Phantom (.5x) ___ _ _ ___ _ _ ___ _ _ ___ _ _
 72
    65
 73
     6
 40
31.75
 49
15.875
 74
     0
 49
-3.174999999999999
 74
     0
 49
3.174999999999999
 74
     0
 49
-3.174999999999999
 74
     0
 49
3.174999999999999
 74
     0
 49
-3.174999999999999
 74
     0
  0
LTYPE
  5
C26
330
5
100
AcDbSymbolTableRecord
100
AcDbLinetypeTableRecord
  2
HIDDEN2
 70
     0
  3
Hidden (.5x) _ _ _ _ _ _ _ _ _ _ _ _ _ _ _ _ _
 72
    65
 73
     2
 40
0.1875
 49
0.125
 74
     0
 49
-0.0625
 74
     0
  0
LTYPE
  5
18AC
330
5
100
AcDbSymbolTableRecord
100
AcDbLinetypeTableRecord
  2
ACANSTGBM
 70
     0
  3
__ . . __ . .
 72
    65
 73
     6
 40
9.0
 49
4.0
 74
     0
 49
-1.0
 74
     0
 49
1.0
 74
     0
 49
-1.0
 74
     0
 49
1.0
 74
     0
 49
-1.0
 74
     0
  0
LTYPE
  5
18AD
330
5
100
AcDbSymbolTableRecord
100
AcDbLinetypeTableRecord
  2
ACANSTGLM
 70
     0
  3
_ _ _ _ _
 72
    65
 73
     2
 40
3.0
 49
2.0
 74
     0
 49
-1.0
 74
     0
  0
LTYPE
  5
48CE
330
5
100
AcDbSymbolTableRecord
100
AcDbLinetypeTableRecord
  2
ASULTYPE
 70
     0
  3
實線
 72
    65
 73
     2
 40
3.0
 49
2.5
 74
     0
 49
0.5
 74
     0
  0
LTYPE
  5
48CF
330
5
100
AcDbSymbolTableRecord
100
AcDbLinetypeTableRecord
  2
ASVLTYPE
 70
     0
  3
__ __ __ __ __ __ __ __ __ __ __ __ __ __ __ __ __ __ __ __ __
 72
    65
 73
     2
 40
0.75
 49
0.5
 74
     0
 49
-0.25
 74
     0
  0
ENDTAB
  0
TABLE
  2
LAYER
  5
2
102
{ACAD_XDICTIONARY
360
3F9
102
}
330
0
100
AcDbSymbolTable
 70
     8
  0
LAYER
  5
10
330
2
100
AcDbSymbolTableRecord
100
AcDbLayerTableRecord
  2
0
 70
     0
 62
     7
  6
Continuous
370
    -3
390
F
  0
LAYER
  5
C29
330
2
100
AcDbSymbolTableRecord
100
AcDbLayerTableRecord
  2
Defpoints
 70
     0
 62
     7
  6
Continuous
290
     0
370
    -3
390
F
  0
LAYER
  5
C2A
330
2
100
AcDbSymbolTableRecord
100
AcDbLayerTableRecord
  2
AM_VIS
 70
     0
 62
     7
  6
Continuous
370
    50
390
F
  0
LAYER
  5
C2C
330
2
100
AcDbSymbolTableRecord
100
AcDbLayerTableRecord
  2
AM_4
 70
     0
 62
     3
  6
Continuous
370
    25
390
F
  0
LAYER
  5
137E
330
2
100
AcDbSymbolTableRecord
100
AcDbLayerTableRecord
  2
AM_7
 70
     0
 62
     1
  6
CENTER
370
    25
390
F
  0
LAYER
  5
277A
330
2
100
AcDbSymbolTableRecord
100
AcDbLayerTableRecord
  2
AM_5
 70
     0
 62
     5
  6
Continuous
370
    50
390
F
  0
LAYER
  5
44C4
330
2
100
AcDbSymbolTableRecord
100
AcDbLayerTableRecord
  2
DIM2
 70
     0
 62
     5
  6
Continuous
370
    -3
390
F
  0
LAYER
  5
45AD
330
2
100
AcDbSymbolTableRecord
100
AcDbLayerTableRecord
  2
LOGO
 70
     0
 62
     7
  6
Continuous
370
    -3
390
F
  0
ENDTAB
  0
TABLE
  2
STYLE
  5
3
330
0
100
AcDbSymbolTable
 70
     8
  0
STYLE
  5
11
330
3
100
AcDbSymbolTableRecord
100
AcDbTextStyleTableRecord
  2
STANDARD
 70
     0
 40
0.0
 41
1.0
 50
0.0
 71
     0
 42
3.0
  3
ISOCP.SHX
  4
CHINESET.SHX
  0
STYLE
  5
6B
330
3
100
AcDbSymbolTableRecord
100
AcDbTextStyleTableRecord
  2

 70
     1
 40
0.0
 41
1.0
 50
0.0
 71
     0
 42
2.5
  3
ltypeshp.shx
  4

  0
STYLE
  5
6D
330
3
100
AcDbSymbolTableRecord
100
AcDbTextStyleTableRecord
  2
ACISOTS
 70
     0
 40
1.0
 41
1.0
 50
0.0
 71
     0
 42
1.0
  3
isocp.shx
  4
chineset.shx
  0
STYLE
  5
79
330
3
100
AcDbSymbolTableRecord
100
AcDbTextStyleTableRecord
  2
ACISOGDT
 70
     0
 40
0.0
 41
1.0
 50
0.0
 71
     0
 42
2.5
  3
amgdt.shx
  4
chineset.shx
  0
STYLE
  5
C2F
330
3
100
AcDbSymbolTableRecord
100
AcDbTextStyleTableRecord
  2
dayus
 70
     0
 40
3.0
 41
1.0
 50
0.0
 71
     0
 42
3.0
  3
simplex.shx
  4
dayus.shx
  0
STYLE
  5
18AF
330
3
100
AcDbSymbolTableRecord
100
AcDbTextStyleTableRecord
  2
ACANSTS
 70
     0
 40
1.0
 41
1.0
 50
0.0
 71
     0
 42
4.0
  3
romans.shx
  4
chineset.shx
  0
STYLE
  5
18B0
330
3
100
AcDbSymbolTableRecord
100
AcDbTextStyleTableRecord
  2
ACANSGDT
 70
     0
 40
0.0
 41
1.0
 50
0.0
 71
     0
 42
4.0
  3
amgdtans.shx
  4

  0
STYLE
  5
447A
330
3
100
AcDbSymbolTableRecord
100
AcDbTextStyleTableRecord
  2
CHINESET
 70
     0
 40
3.0
 41
1.0
 50
0.0
 71
     0
 42
4.5
  3
simplex.shx
  4
CHINESET.shx
  0
ENDTAB
  0
TABLE
  2
VIEW
  5
6
330
0
100
AcDbSymbolTable
 70
     0
  0
ENDTAB
  0
TABLE
  2
UCS
  5
7
330
0
100
AcDbSymbolTable
 70
     0
  0
ENDTAB
  0
TABLE
  2
APPID
  5
9
330
0
100
AcDbSymbolTable
 70
    28
  0
APPID
  5
12
330
9
100
AcDbSymbolTableRecord
100
AcDbRegAppTableRecord
  2
ACAD
 70
     0
  0
APPID
  5
46
330
9
100
AcDbSymbolTableRecord
100
AcDbRegAppTableRecord
  2
MCAD_NO_VIS
 70
     0
  0
APPID
  5
47
330
9
100
AcDbSymbolTableRecord
100
AcDbRegAppTableRecord
  2
ACAD_TEMP_GRAPHIC
 70
     0
  0
APPID
  5
58
330
9
100
AcDbSymbolTableRecord
100
AcDbRegAppTableRecord
  2
ACATTRIBSERVICES
 70
     0
  0
APPID
  5
EE
330
9
100
AcDbSymbolTableRecord
100
AcDbRegAppTableRecord
  2
AD_DRAW
 70
     0
  0
APPID
  5
10C
330
9
100
AcDbSymbolTableRecord
100
AcDbRegAppTableRecord
  2
DESIGNERASSEMBLIES
 70
     0
  0
APPID
  5
111
330
9
100
AcDbSymbolTableRecord
100
AcDbRegAppTableRecord
  2
ACADM_DIM_EDIT
 70
     0
  0
APPID
  5
112
330
9
100
AcDbSymbolTableRecord
100
AcDbRegAppTableRecord
  2
AMDT_DM_ADJ
 70
     0
  0
APPID
  5
22C
330
9
100
AcDbSymbolTableRecord
100
AcDbRegAppTableRecord
  2
ACAD_DSTYLE_DIMTEXT_FILL
 70
     0
  0
APPID
  5
452
330
9
100
AcDbSymbolTableRecord
100
AcDbRegAppTableRecord
  2
GENIUS_GENOENT_13
 70
     0
  0
APPID
  5
453
330
9
100
AcDbSymbolTableRecord
100
AcDbRegAppTableRecord
  2
GENIUS_GENOBJ-N-CRS_13
 70
     0
  0
APPID
  5
454
330
9
100
AcDbSymbolTableRecord
100
AcDbRegAppTableRecord
  2
GENIUS_GENOLIS_13
 70
     0
  0
APPID
  5
455
330
9
100
AcDbSymbolTableRecord
100
AcDbRegAppTableRecord
  2
GENIUS_GENODEF_13
 70
     0
  0
APPID
  5
456
330
9
100
AcDbSymbolTableRecord
100
AcDbRegAppTableRecord
  2
GENIUS_GENOREF_13
 70
     0
  0
APPID
  5
6F3
330
9
100
AcDbSymbolTableRecord
100
AcDbRegAppTableRecord
  2
ACAD_PSEXT
 70
     0
  0
APPID
  5
808
330
9
100
AcDbSymbolTableRecord
100
AcDbRegAppTableRecord
  2
GENIUS_GENDTOL_13
 70
     0
  0
APPID
  5
159E
330
9
100
AcDbSymbolTableRecord
100
AcDbRegAppTableRecord
  2
GENIUS_GENOBJ-N-CEN_13
 70
     0
  0
APPID
  5
159F
330
9
100
AcDbSymbolTableRecord
100
AcDbRegAppTableRecord
  2
GENIUS_GENCEN_19
 70
     0
  0
APPID
  5
277E
330
9
100
AcDbSymbolTableRecord
100
AcDbRegAppTableRecord
  2
GENIUS_GENOBJ-N-HTC_13
 70
     0
  0
APPID
  5
277F
330
9
100
AcDbSymbolTableRecord
100
AcDbRegAppTableRecord
  2
GENIUS_GENHATCH_13
 70
     0
  0
APPID
  5
4258
330
9
100
AcDbSymbolTableRecord
100
AcDbRegAppTableRecord
  2
GENIUS_GENDIMSH_14
 70
     0
  0
APPID
  5
4368
330
9
100
AcDbSymbolTableRecord
100
AcDbRegAppTableRecord
  2
AcAecLayerStandard
 70
     0
  0
APPID
  5
45AE
330
9
100
AcDbSymbolTableRecord
100
AcDbRegAppTableRecord
  2
GENIUS_GENREC_14
 70
     0
  0
APPID
  5
45AF
330
9
100
AcDbSymbolTableRecord
100
AcDbRegAppTableRecord
  2
GENIUS_GENOBJ-N-REC_13
 70
     0
  0
APPID
  5
484F
330
9
100
AcDbSymbolTableRecord
100
AcDbRegAppTableRecord
  2
GENIUS_GENDIM_13
 70
     0
  0
APPID
  5
4850
330
9
100
AcDbSymbolTableRecord
100
AcDbRegAppTableRecord
  2
GENIUS_GE3DTOL_13
 70
     0
  0
APPID
  5
48D0
330
9
100
AcDbSymbolTableRecord
100
AcDbRegAppTableRecord
  2
ASURF_PCURVE_APPNAME
 70
     0
  0
APPID
  5
48D5
330
9
100
AcDbSymbolTableRecord
100
AcDbRegAppTableRecord
  2
AMG_3D2D_5.0
 70
     0
  0
ENDTAB
  0
TABLE
  2
DIMSTYLE
  5
A
330
0
100
AcDbSymbolTable
 70
    14
100
AcDbDimStyleTable
 71
     3
340
81
340
8B
340
86
  0
DIMSTYLE
105
81
330
A
100
AcDbSymbolTableRecord
100
AcDbDimStyleTableRecord
  2
AM_ISO
 70
     0
  4
"
 41
3.0
 42
1.0
 43
8.0
 44
1.5
 47
0.1
 48
0.1
 73
     0
 74
     0
 77
     1
 78
     8
 79
     2
140
3.5
141
0.0
143
0.0393701
146
0.6
147
0.7
172
     1
176
   256
177
   256
178
   256
271
     2
272
     2
283
     0
284
     8
340
11
371
    -1
372
    -1
  0
DIMSTYLE
105
82
330
A
100
AcDbSymbolTableRecord
100
AcDbDimStyleTableRecord
  2
AM_ISO$3
 70
     0
  4
"
 41
3.0
 42
1.0
 43
8.0
 44
1.5
 47
0.1
 48
0.1
 73
     0
 77
     1
 78
     8
 79
     2
140
3.5
141
0.0
143
0.0393701
146
0.6
147
0.7
176
   256
177
   256
178
   256
271
     2
272
     2
283
     0
284
     8
288
     1
289
     0
340
11
371
    -1
372
    -1
  0
DIMSTYLE
105
83
330
A
100
AcDbSymbolTableRecord
100
AcDbDimStyleTableRecord
  2
AM_ISO$4
 70
     0
  4
"
 41
3.0
 42
1.0
 43
8.0
 44
1.5
 47
0.1
 48
0.1
 73
     0
 77
     1
 78
     8
 79
     2
140
3.5
141
0.0
143
0.0393701
146
0.6
147
0.7
176
   256
177
   256
178
   256
271
     2
272
     2
283
     0
284
     8
288
     1
289
     0
340
11
371
    -1
372
    -1
  0
DIMSTYLE
105
84
330
A
100
AcDbSymbolTableRecord
100
AcDbDimStyleTableRecord
  2
AM_ISO$6
 70
     0
  4
"
 41
3.0
 42
1.0
 43
8.0
 44
1.5
 47
0.1
 48
0.1
 73
     0
 74
     0
 78
     8
 79
     2
140
3.5
141
0.0
143
0.0393701
146
0.6
147
0.7
172
     1
176
   256
177
   256
178
   256
271
     2
272
     2
283
     0
284
     8
340
11
371
    -1
372
    -1
  0
DIMSTYLE
105
85
330
A
100
AcDbSymbolTableRecord
100
AcDbDimStyleTableRecord
  2
AM_ISO$7
 70
     0
  4
"
 41
3.0
 42
1.0
 43
8.0
 44
1.5
 47
0.1
 48
0.1
 73
     0
 74
     0
 77
     1
 78
     8
 79
     2
140
5.0
141
0.0
143
0.0393701
146
0.6
147
0.7
172
     1
176
   256
177
   256
178
   256
271
     2
272
     2
283
     0
284
     8
340
11
371
    -1
372
    -1
  0
DIMSTYLE
105
86
330
A
100
AcDbSymbolTableRecord
100
AcDbDimStyleTableRecord
  2
AM_ISO$SF
 70
     0
  4
"
 41
2.5
 42
1.0
 43
10.0
 44
1.0
 47
0.1
 48
0.1
 73
     0
 74
     0
 75
     1
 76
     1
 77
     1
 78
     8
 79
     2
140
3.5
141
0.0
143
0.0393701
146
0.71
147
1.5
172
     1
176
   256
177
   256
178
     2
271
     2
272
     3
274
     4
283
     0
284
     8
340
11
371
    -1
372
    -1
  0
DIMSTYLE
105
8B
330
A
100
AcDbSymbolTableRecord
100
AcDbDimStyleTableRecord
  2
AM_ISO$SH
 70
     0
  4
"
 41
2.5
 42
1.0
 43
10.0
 44
1.0
 47
0.1
 48
0.1
 73
     0
 74
     0
 75
     1
 76
     1
 77
     1
 78
     8
 79
     2
140
3.5
141
0.0
143
0.0393701
144
2.0
146
0.71
147
1.5
172
     1
173
     1
176
   256
177
   256
178
     2
271
     2
272
     3
274
     4
283
     0
284
     8
340
11
343
87
371
    -1
372
    -1
  0
DIMSTYLE
105
40B
102
{ACAD_REACTORS
330
1046
330
107C
330
1079
330
1085
330
1082
330
107F
330
1058
330
1055
330
1052
330
104F
330
104C
330
1049
330
1070
330
106A
330
1061
330
105E
330
105B
330
10AF
330
106D
330
10B2
330
1076
330
1073
330
108E
330
108B
330
1088
330
1091
330
109D
330
109A
330
10A0
330
1097
330
1094
330
1064
330
1067
102
}
330
A
100
AcDbSymbolTableRecord
100
AcDbDimStyleTableRecord
  2
AM_ISO$0
 70
     0
  4
"
 41
3.0
 42
1.0
 43
8.0
 44
1.5
 47
0.1
 48
0.1
 73
     0
 74
     0
 77
     1
 78
     8
 79
     2
140
3.5
141
0.0
143
0.0393701
146
0.6
147
0.7
172
     1
176
   256
177
   256
178
   256
271
     2
272
     2
283
     0
284
     8
340
11
371
    -1
372
    -1
  0
DIMSTYLE
105
C31
330
A
100
AcDbSymbolTableRecord
100
AcDbDimStyleTableRecord
  2
AM_ANSI
 70
     0
  4
"
 40
0.6666666666666666
 41
3.799999999999999
 42
3.0
 43
8.0
 44
3.0
 47
0.1
 48
0.1
 73
     0
 74
     0
 77
     3
 78
     8
 79
     2
140
3.0
141
3.0
143
0.0393701
146
0.6
147
1.3
172
     1
176
   256
177
   256
178
   256
271
     2
272
     2
284
     8
340
C2F
371
    -1
372
    -1
  0
DIMSTYLE
105
C32
330
A
100
AcDbSymbolTableRecord
100
AcDbDimStyleTableRecord
  2
AM_ANSI$7
 70
     0
  4
"
 40
0.6666666666666666
 41
2.5
 42
1.0
 43
10.0
 44
1.0
 47
0.1
 48
0.1
 78
     8
 79
     2
140
5.0
141
0.0
143
0.0393701
146
0.71
147
1.5
176
   256
177
   256
178
     2
271
     2
272
     3
274
     4
284
     8
340
11
371
    -1
372
    -1
  0
DIMSTYLE
105
18B1
330
A
100
AcDbSymbolTableRecord
100
AcDbDimStyleTableRecord
  2
AM_ANSI$3
 70
     0
  4
"
 40
0.6666666666666666
 41
2.5
 42
1.0
 43
10.0
 44
1.0
 47
0.1
 48
0.1
 78
     8
 79
     2
140
3.5
141
0.0
143
0.0393701
146
0.71
147
1.5
176
   256
177
   256
178
     2
271
     2
272
     3
274
     4
284
     8
288
     1
289
     0
340
11
371
    -1
372
    -1
  0
DIMSTYLE
105
18B2
330
A
100
AcDbSymbolTableRecord
100
AcDbDimStyleTableRecord
  2
AM_ANSI$4
 70
     0
  4
"
 40
0.6666666666666666
 41
2.5
 42
1.0
 43
10.0
 44
1.0
 47
0.1
 48
0.1
 78
     8
 79
     2
140
3.5
141
0.0
143
0.0393701
146
0.71
147
1.5
176
   256
177
   256
178
     2
271
     2
272
     3
274
     4
284
     8
288
     1
289
     0
340
11
371
    -1
372
    -1
  0
DIMSTYLE
105
18B3
330
A
100
AcDbSymbolTableRecord
100
AcDbDimStyleTableRecord
  2
AM_ANSI$SF
 70
     0
  4
"
 40
0.6666666666666666
 41
2.5
 42
1.0
 43
10.0
 44
1.0
 47
0.1
 48
0.1
 75
     1
 76
     1
 78
     8
 79
     2
140
3.5
141
0.0
143
0.0393701
146
0.71
147
1.5
176
   256
177
   256
178
     2
271
     2
272
     3
274
     4
284
     8
340
11
371
    -1
372
    -1
  0
DIMSTYLE
105
18B4
330
A
100
AcDbSymbolTableRecord
100
AcDbDimStyleTableRecord
  2
AM_ANSI$SH
 70
     0
  4
"
 40
0.6666666666666666
 41
2.5
 42
1.0
 43
10.0
 44
1.0
 47
0.1
 48
0.1
 75
     1
 76
     1
 78
     8
 79
     2
140
3.5
141
0.0
143
0.0393701
146
0.71
147
1.5
173
     1
176
   256
177
   256
178
     2
271
     2
272
     3
274
     4
284
     8
340
11
343
87
371
    -1
372
    -1
  0
ENDTAB
  0
TABLE
  2
BLOCK_RECORD
  5
1
330
0
100
AcDbSymbolTable
 70
    46
  0
BLOCK_RECORD
  5
1F
102
{ACAD_XDICTIONARY
360
8F
102
}
330
1
100
AcDbSymbolTableRecord
100
AcDbBlockTableRecord
  2
*Model_Space
340
22
  0
BLOCK_RECORD
  5
1B
330
1
100
AcDbSymbolTableRecord
100
AcDbBlockTableRecord
  2
*Paper_Space
340
1E
  0
BLOCK_RECORD
  5
23
330
1
100
AcDbSymbolTableRecord
100
AcDbBlockTableRecord
  2
*Paper_Space0
340
26
  0
BLOCK_RECORD
  5
87
330
1
100
AcDbSymbolTableRecord
100
AcDbBlockTableRecord
  2
GENAXEH
340
0
  0
BLOCK_RECORD
  5
114F
330
1
100
AcDbSymbolTableRecord
100
AcDbBlockTableRecord
  2
*D2
340
0
  0
BLOCK_RECORD
  5
115B
330
1
100
AcDbSymbolTableRecord
100
AcDbBlockTableRecord
  2
*D3
340
0
  0
BLOCK_RECORD
  5
1167
330
1
100
AcDbSymbolTableRecord
100
AcDbBlockTableRecord
  2
*D4
340
0
  0
BLOCK_RECORD
  5
1173
330
1
100
AcDbSymbolTableRecord
100
AcDbBlockTableRecord
  2
*D5
340
0
  0
BLOCK_RECORD
  5
117F
330
1
100
AcDbSymbolTableRecord
100
AcDbBlockTableRecord
  2
*D6
340
0
  0
BLOCK_RECORD
  5
118B
330
1
100
AcDbSymbolTableRecord
100
AcDbBlockTableRecord
  2
*D7
340
0
  0
BLOCK_RECORD
  5
1197
330
1
100
AcDbSymbolTableRecord
100
AcDbBlockTableRecord
  2
*D8
340
0
  0
BLOCK_RECORD
  5
11A3
330
1
100
AcDbSymbolTableRecord
100
AcDbBlockTableRecord
  2
*D9
340
0
  0
BLOCK_RECORD
  5
11AF
330
1
100
AcDbSymbolTableRecord
100
AcDbBlockTableRecord
  2
*D10
340
0
  0
BLOCK_RECORD
  5
11BB
330
1
100
AcDbSymbolTableRecord
100
AcDbBlockTableRecord
  2
*D11
340
0
  0
BLOCK_RECORD
  5
11C8
330
1
100
AcDbSymbolTableRecord
100
AcDbBlockTableRecord
  2
*D12
340
0
  0
BLOCK_RECORD
  5
11D5
330
1
100
AcDbSymbolTableRecord
100
AcDbBlockTableRecord
  2
*D13
340
0
  0
BLOCK_RECORD
  5
11E2
330
1
100
AcDbSymbolTableRecord
100
AcDbBlockTableRecord
  2
*D14
340
0
  0
BLOCK_RECORD
  5
11EE
330
1
100
AcDbSymbolTableRecord
100
AcDbBlockTableRecord
  2
*D15
340
0
  0
BLOCK_RECORD
  5
11FA
330
1
100
AcDbSymbolTableRecord
100
AcDbBlockTableRecord
  2
*D16
340
0
  0
BLOCK_RECORD
  5
1206
330
1
100
AcDbSymbolTableRecord
100
AcDbBlockTableRecord
  2
*D17
340
0
  0
BLOCK_RECORD
  5
1212
330
1
100
AcDbSymbolTableRecord
100
AcDbBlockTableRecord
  2
*D18
340
0
  0
BLOCK_RECORD
  5
121E
330
1
100
AcDbSymbolTableRecord
100
AcDbBlockTableRecord
  2
*D19
340
0
  0
BLOCK_RECORD
  5
122A
330
1
100
AcDbSymbolTableRecord
100
AcDbBlockTableRecord
  2
*D20
340
0
  0
BLOCK_RECORD
  5
1236
330
1
100
AcDbSymbolTableRecord
100
AcDbBlockTableRecord
  2
*D21
340
0
  0
BLOCK_RECORD
  5
1242
330
1
100
AcDbSymbolTableRecord
100
AcDbBlockTableRecord
  2
*D22
340
0
  0
BLOCK_RECORD
  5
124E
330
1
100
AcDbSymbolTableRecord
100
AcDbBlockTableRecord
  2
*D23
340
0
  0
BLOCK_RECORD
  5
125A
330
1
100
AcDbSymbolTableRecord
100
AcDbBlockTableRecord
  2
*D24
340
0
  0
BLOCK_RECORD
  5
1266
330
1
100
AcDbSymbolTableRecord
100
AcDbBlockTableRecord
  2
*D25
340
0
  0
BLOCK_RECORD
  5
1272
330
1
100
AcDbSymbolTableRecord
100
AcDbBlockTableRecord
  2
*D26
340
0
  0
BLOCK_RECORD
  5
127E
330
1
100
AcDbSymbolTableRecord
100
AcDbBlockTableRecord
  2
*D27
340
0
  0
BLOCK_RECORD
  5
128B
330
1
100
AcDbSymbolTableRecord
100
AcDbBlockTableRecord
  2
*D28
340
0
  0
BLOCK_RECORD
  5
1297
330
1
100
AcDbSymbolTableRecord
100
AcDbBlockTableRecord
  2
*D29
340
0
  0
BLOCK_RECORD
  5
12A4
330
1
100
AcDbSymbolTableRecord
100
AcDbBlockTableRecord
  2
*D30
340
0
  0
BLOCK_RECORD
  5
12B0
330
1
100
AcDbSymbolTableRecord
100
AcDbBlockTableRecord
  2
*D31
340
0
  0
BLOCK_RECORD
  5
12BD
330
1
100
AcDbSymbolTableRecord
100
AcDbBlockTableRecord
  2
*D32
340
0
  0
BLOCK_RECORD
  5
12C9
330
1
100
AcDbSymbolTableRecord
100
AcDbBlockTableRecord
  2
*D33
340
0
  0
BLOCK_RECORD
  5
12D5
330
1
100
AcDbSymbolTableRecord
100
AcDbBlockTableRecord
  2
*D34
340
0
  0
BLOCK_RECORD
  5
4259
330
1
100
AcDbSymbolTableRecord
100
AcDbBlockTableRecord
  2
GENDOT
340
0
102
{BLKREFS
331
471C
331
4727
102
}
  0
BLOCK_RECORD
  5
4471
102
{ACAD_XDICTIONARY
360
4472
102
}
330
1
100
AcDbSymbolTableRecord
100
AcDbBlockTableRecord
  2
A$C1F6E6265
340
0
102
{BLKREFS
331
4484
102
}
  0
BLOCK_RECORD
  5
4486
102
{ACAD_XDICTIONARY
360
4487
102
}
330
1
100
AcDbSymbolTableRecord
100
AcDbBlockTableRecord
  2
A$C5ECF147B
340
0
102
{BLKREFS
331
4569
102
}
  0
BLOCK_RECORD
  5
4800
330
1
100
AcDbSymbolTableRecord
100
AcDbBlockTableRecord
  2
*S38
340
0
102
{BLKREFS
331
2F23
102
}
  0
BLOCK_RECORD
  5
4808
330
1
100
AcDbSymbolTableRecord
100
AcDbBlockTableRecord
  2
*S39
340
0
102
{BLKREFS
331
2F5E
102
}
  0
BLOCK_RECORD
  5
4810
330
1
100
AcDbSymbolTableRecord
100
AcDbBlockTableRecord
  2
*S40
340
0
102
{BLKREFS
331
2F5F
102
}
  0
BLOCK_RECORD
  5
4818
330
1
100
AcDbSymbolTableRecord
100
AcDbBlockTableRecord
  2
*S41
340
0
102
{BLKREFS
331
2FD8
102
}
  0
BLOCK_RECORD
  5
4820
330
1
100
AcDbSymbolTableRecord
100
AcDbBlockTableRecord
  2
*S42
340
0
102
{BLKREFS
331
2FDB
102
}
  0
BLOCK_RECORD
  5
4828
330
1
100
AcDbSymbolTableRecord
100
AcDbBlockTableRecord
  2
*S43
340
0
102
{BLKREFS
331
2FE1
102
}
  0
BLOCK_RECORD
  5
4830
330
1
100
AcDbSymbolTableRecord
100
AcDbBlockTableRecord
  2
*S44
340
0
102
{BLKREFS
331
45A9
102
}
  0
ENDTAB
  0
ENDSEC
  0
SECTION
  2
BLOCKS
  0
BLOCK
  5
20
330
1F
100
AcDbEntity
  8
0
100
AcDbBlockBegin
  2
*Model_Space
 70
     0
 10
0.0
 20
0.0
 30
0.0
  3
*Model_Space
  1

  0
ENDBLK
  5
21
330
1F
100
AcDbEntity
  8
0
100
AcDbBlockEnd
  0
BLOCK
  5
1C
330
1B
100
AcDbEntity
 67
     1
  8
0
100
AcDbBlockBegin
  2
*Paper_Space
 70
     0
 10
0.0
 20
0.0
 30
0.0
  3
*Paper_Space
  1

  0
ENDBLK
  5
1D
330
1B
100
AcDbEntity
 67
     1
  8
0
100
AcDbBlockEnd
  0
BLOCK
  5
24
330
23
100
AcDbEntity
  8
0
100
AcDbBlockBegin
  2
*Paper_Space0
 70
     0
 10
0.0
 20
0.0
 30
0.0
  3
*Paper_Space0
  1

  0
ENDBLK
  5
25
330
23
100
AcDbEntity
  8
0
100
AcDbBlockEnd
  0
BLOCK
  5
89
330
87
100
AcDbEntity
  8
0
100
AcDbBlockBegin
  2
GENAXEH
 70
     0
 10
0.0
 20
0.0
 30
0.0
  3
GENAXEH
  1

  0
LINE
  5
88
330
87
100
AcDbEntity
  8
0
100
AcDbLine
 10
-1.0
 20
0.0
 30
0.0
 11
1.0
 21
0.0
 31
0.0
  0
ENDBLK
  5
8A
330
87
100
AcDbEntity
  8
0
100
AcDbBlockEnd
  0
BLOCK
  5
1159
330
114F
100
AcDbEntity
  8
0
100
AcDbBlockBegin
  2
*D2
 70
     1
 10
0.0
 20
0.0
 30
0.0
  3
*D2
  1

  0
LINE
  5
4439
330
114F
100
AcDbEntity
  8
AM_5
100
AcDbLine
 10
622.1662223916056
 20
272.3308151377764
 30
0.0
 11
622.1662223916056
 21
285.3308151377765
 31
0.0
  0
LINE
  5
443A
330
114F
100
AcDbEntity
  8
AM_5
100
AcDbLine
 10
694.1662223916056
 20
272.3308151377764
 30
0.0
 11
694.1662223916056
 21
285.3308151377765
 31
0.0
  0
LINE
  5
443B
330
114F
100
AcDbEntity
  8
AM_5
100
AcDbLine
 10
625.1662223916056
 20
283.8308151377765
 30
0.0
 11
691.1662223916056
 21
283.8308151377765
 31
0.0
  0
SOLID
  5
443C
330
114F
100
AcDbEntity
  8
AM_5
100
AcDbTrace
 10
625.1662223916056
 20
284.3308151377765
 30
0.0
 11
625.1662223916056
 21
283.3308151377766
 31
0.0
 12
622.1662223916056
 22
283.8308151377765
 32
0.0
 13
622.1662223916056
 23
283.8308151377765
 33
0.0
  0
SOLID
  5
443D
330
114F
100
AcDbEntity
  8
AM_5
100
AcDbTrace
 10
691.1662223916056
 20
284.3308151377765
 30
0.0
 11
691.1662223916056
 21
283.3308151377766
 31
0.0
 12
694.1662223916056
 22
283.8308151377765
 32
0.0
 13
694.1662223916056
 23
283.8308151377765
 33
0.0
  0
MTEXT
  5
443E
330
114F
100
AcDbEntity
  8
AM_5
100
AcDbMText
 10
658.1662223916056
 20
286.2808151377765
 30
0.0
 40
3.5
 41
0.0
 71
     5
 72
     1
  1
L1
 73
     1
 44
1.0
1001
ACAD
1000
MTEXTBEGIN
1070
    73
1070
     1
1070
    44
1040
1.0
1070
    74
1070
     0
1000
MTEXTEND
  0
POINT
  5
443F
330
114F
100
AcDbEntity
  8
Defpoints
 62
     0
100
AcDbPoint
 10
622.1662223916056
 20
271.3308151377764
 30
0.0
  0
POINT
  5
4440
330
114F
100
AcDbEntity
  8
Defpoints
 62
     0
100
AcDbPoint
 10
694.1662223916056
 20
271.3308151377764
 30
0.0
  0
POINT
  5
4441
330
114F
100
AcDbEntity
  8
Defpoints
 62
     0
100
AcDbPoint
 10
694.1662223916056
 20
283.8308151377765
 30
0.0
  0
ENDBLK
  5
115A
330
114F
100
AcDbEntity
  8
0
100
AcDbBlockEnd
  0
BLOCK
  5
1165
330
115B
100
AcDbEntity
  8
0
100
AcDbBlockBegin
  2
*D3
 70
     1
 10
0.0
 20
0.0
 30
0.0
  3
*D3
  1

  0
LINE
  5
40BE
330
115B
100
AcDbEntity
  8
AM_5
100
AcDbLine
 10
550.5770143429388
 20
169.0901926051809
 30
0.0
 11
550.5770143429388
 21
152.0901926051808
 31
0.0
  0
LINE
  5
40BF
330
115B
100
AcDbEntity
  8
AM_5
100
AcDbLine
 10
559.5770143429388
 20
169.090192605181
 30
0.0
 11
559.5770143429388
 21
152.0901926051808
 31
0.0
  0
LINE
  5
40C0
330
115B
100
AcDbEntity
  8
AM_5
100
AcDbLine
 10
553.5770143429387
 20
153.5901926051808
 30
0.0
 11
556.5770143429388
 21
153.5901926051808
 31
0.0
  0
SOLID
  5
40C1
330
115B
100
AcDbEntity
  8
AM_5
100
AcDbTrace
 10
553.5770143429387
 20
154.0901926051808
 30
0.0
 11
553.5770143429387
 21
153.0901926051808
 31
0.0
 12
550.5770143429388
 22
153.5901926051808
 32
0.0
 13
550.5770143429388
 23
153.5901926051808
 33
0.0
  0
SOLID
  5
40C2
330
115B
100
AcDbEntity
  8
AM_5
100
AcDbTrace
 10
556.5770143429388
 20
154.0901926051808
 30
0.0
 11
556.5770143429388
 21
153.0901926051808
 31
0.0
 12
559.5770143429388
 22
153.5901926051808
 32
0.0
 13
559.5770143429388
 23
153.5901926051808
 33
0.0
  0
MTEXT
  5
40C3
330
115B
100
AcDbEntity
  8
AM_5
100
AcDbMText
 10
555.0770143429388
 20
156.0401926051808
 30
0.0
 40
3.5
 41
0.0
 71
     5
 72
     1
  1
9
 73
     1
 44
1.0
1001
ACAD
1000
MTEXTBEGIN
1070
    73
1070
     1
1070
    44
1040
1.0
1070
    74
1070
     0
1000
MTEXTEND
  0
POINT
  5
40C4
330
115B
100
AcDbEntity
  8
Defpoints
 62
     0
100
AcDbPoint
 10
550.5770143429388
 20
170.0901926051809
 30
0.0
  0
POINT
  5
40C5
330
115B
100
AcDbEntity
  8
Defpoints
 62
     0
100
AcDbPoint
 10
559.5770143429388
 20
170.0901926051811
 30
0.0
  0
POINT
  5
40C6
330
115B
100
AcDbEntity
  8
Defpoints
 62
     0
100
AcDbPoint
 10
559.5770143429388
 20
153.5901926051808
 30
0.0
  0
ENDBLK
  5
1166
330
115B
100
AcDbEntity
  8
0
100
AcDbBlockEnd
  0
BLOCK
  5
1171
330
1167
100
AcDbEntity
  8
0
100
AcDbBlockBegin
  2
*D4
 70
     1
 10
0.0
 20
0.0
 30
0.0
  3
*D4
  1

  0
LINE
  5
40C7
330
1167
100
AcDbEntity
  8
AM_5
100
AcDbLine
 10
547.0770143429387
 20
164.5901926051808
 30
0.0
 11
547.0770143429387
 21
144.0901926051808
 31
0.0
  0
LINE
  5
40C8
330
1167
100
AcDbEntity
  8
AM_5
100
AcDbLine
 10
563.0770143429386
 20
164.5901926051808
 30
0.0
 11
563.0770143429386
 21
144.0901926051808
 31
0.0
  0
LINE
  5
40C9
330
1167
100
AcDbEntity
  8
AM_5
100
AcDbLine
 10
550.0770143429386
 20
145.5901926051808
 30
0.0
 11
560.0770143429387
 21
145.5901926051808
 31
0.0
  0
SOLID
  5
40CA
330
1167
100
AcDbEntity
  8
AM_5
100
AcDbTrace
 10
550.0770143429386
 20
146.0901926051808
 30
0.0
 11
550.0770143429386
 21
145.0901926051808
 31
0.0
 12
547.0770143429387
 22
145.5901926051808
 32
0.0
 13
547.0770143429387
 23
145.5901926051808
 33
0.0
  0
SOLID
  5
40CB
330
1167
100
AcDbEntity
  8
AM_5
100
AcDbTrace
 10
560.0770143429387
 20
146.0901926051808
 30
0.0
 11
560.0770143429387
 21
145.0901926051808
 31
0.0
 12
563.0770143429386
 22
145.5901926051808
 32
0.0
 13
563.0770143429386
 23
145.5901926051808
 33
0.0
  0
MTEXT
  5
40CC
330
1167
100
AcDbEntity
  8
AM_5
100
AcDbMText
 10
555.0770143429387
 20
148.0401926051808
 30
0.0
 40
3.5
 41
0.0
 71
     5
 72
     1
  1
16
 73
     1
 44
1.0
1001
ACAD
1000
MTEXTBEGIN
1070
    73
1070
     1
1070
    44
1040
1.0
1070
    74
1070
     0
1000
MTEXTEND
  0
POINT
  5
40CD
330
1167
100
AcDbEntity
  8
Defpoints
 62
     0
100
AcDbPoint
 10
547.0770143429387
 20
165.5901926051808
 30
0.0
  0
POINT
  5
40CE
330
1167
100
AcDbEntity
  8
Defpoints
 62
     0
100
AcDbPoint
 10
563.0770143429386
 20
165.5901926051808
 30
0.0
  0
POINT
  5
40CF
330
1167
100
AcDbEntity
  8
Defpoints
 62
     0
100
AcDbPoint
 10
563.0770143429386
 20
145.5901926051808
 30
0.0
  0
ENDBLK
  5
1172
330
1167
100
AcDbEntity
  8
0
100
AcDbBlockEnd
  0
BLOCK
  5
117D
330
1173
100
AcDbEntity
  8
0
100
AcDbBlockBegin
  2
*D5
 70
     1
 10
0.0
 20
0.0
 30
0.0
  3
*D5
  1

  0
LINE
  5
40D0
330
1173
100
AcDbEntity
  8
AM_5
100
AcDbLine
 10
563.5770143429388
 20
204.590192605181
 30
0.0
 11
576.5770143429387
 21
204.5901926051809
 31
0.0
  0
LINE
  5
40D1
330
1173
100
AcDbEntity
  8
AM_5
100
AcDbLine
 10
562.9740143429387
 20
187.5901926051808
 30
0.0
 11
576.5770143429387
 21
187.5901926051808
 31
0.0
  0
LINE
  5
40D2
330
1173
100
AcDbEntity
  8
AM_5
100
AcDbLine
 10
575.0770143429386
 20
201.590192605181
 30
0.0
 11
575.0770143429386
 21
190.5901926051808
 31
0.0
  0
SOLID
  5
40D3
330
1173
100
AcDbEntity
  8
AM_5
100
AcDbTrace
 10
574.5770143429386
 20
201.590192605181
 30
0.0
 11
575.5770143429386
 21
201.590192605181
 31
0.0
 12
575.0770143429386
 22
204.590192605181
 32
0.0
 13
575.0770143429386
 23
204.590192605181
 33
0.0
  0
SOLID
  5
40D4
330
1173
100
AcDbEntity
  8
AM_5
100
AcDbTrace
 10
574.5770143429386
 20
190.5901926051808
 30
0.0
 11
575.5770143429386
 21
190.5901926051808
 31
0.0
 12
575.0770143429386
 22
187.5901926051808
 32
0.0
 13
575.0770143429386
 23
187.5901926051808
 33
0.0
  0
MTEXT
  5
40D5
330
1173
100
AcDbEntity
  8
AM_5
100
AcDbMText
 10
572.6270143429387
 20
196.090192605181
 30
0.0
 40
3.5
 41
0.0
 71
     5
 72
     1
  1
17
 11
0.0000000000000001
 21
1.0
 31
0.0
 73
     1
 44
1.0
1001
ACAD
1000
MTEXTBEGIN
1070
    73
1070
     1
1070
    44
1040
1.0
1070
    74
1070
     0
1000
MTEXTEND
  0
POINT
  5
40D6
330
1173
100
AcDbEntity
  8
Defpoints
 62
     0
100
AcDbPoint
 10
562.5770143429388
 20
204.590192605181
 30
0.0
  0
POINT
  5
40D7
330
1173
100
AcDbEntity
  8
Defpoints
 62
     0
100
AcDbPoint
 10
561.9740143429387
 20
187.5901926051808
 30
0.0
  0
POINT
  5
40D8
330
1173
100
AcDbEntity
  8
Defpoints
 62
     0
100
AcDbPoint
 10
575.0770143429386
 20
187.5901926051808
 30
0.0
  0
ENDBLK
  5
117E
330
1173
100
AcDbEntity
  8
0
100
AcDbBlockEnd
  0
BLOCK
  5
1189
330
117F
100
AcDbEntity
  8
0
100
AcDbBlockBegin
  2
*D6
 70
     1
 10
0.0
 20
0.0
 30
0.0
  3
*D6
  1

  0
LINE
  5
40D9
330
117F
100
AcDbEntity
  8
AM_5
100
AcDbLine
 10
562.9740143429387
 20
187.5901926051808
 30
0.0
 11
576.5770143429387
 21
187.5901926051808
 31
0.0
  0
LINE
  5
40DA
330
117F
100
AcDbEntity
  8
AM_5
100
AcDbLine
 10
562.9740143429387
 20
172.5901926051808
 30
0.0
 11
576.5770143429387
 21
172.5901926051808
 31
0.0
  0
LINE
  5
40DB
330
117F
100
AcDbEntity
  8
AM_5
100
AcDbLine
 10
575.0770143429386
 20
184.5901926051808
 30
0.0
 11
575.0770143429386
 21
175.5901926051808
 31
0.0
  0
SOLID
  5
40DC
330
117F
100
AcDbEntity
  8
AM_5
100
AcDbTrace
 10
574.5770143429386
 20
184.5901926051808
 30
0.0
 11
575.5770143429386
 21
184.5901926051808
 31
0.0
 12
575.0770143429386
 22
187.5901926051808
 32
0.0
 13
575.0770143429386
 23
187.5901926051808
 33
0.0
  0
SOLID
  5
40DD
330
117F
100
AcDbEntity
  8
AM_5
100
AcDbTrace
 10
574.5770143429386
 20
175.5901926051808
 30
0.0
 11
575.5770143429386
 21
175.5901926051808
 31
0.0
 12
575.0770143429386
 22
172.5901926051808
 32
0.0
 13
575.0770143429386
 23
172.5901926051808
 33
0.0
  0
MTEXT
  5
40DE
330
117F
100
AcDbEntity
  8
AM_5
100
AcDbMText
 10
572.6270143429387
 20
180.0901926051809
 30
0.0
 40
3.5
 41
0.0
 71
     5
 72
     1
  1
15
 11
0.0000000000000001
 21
1.0
 31
0.0
 73
     1
 44
1.0
1001
ACAD
1000
MTEXTBEGIN
1070
    73
1070
     1
1070
    44
1040
1.0
1070
    74
1070
     0
1000
MTEXTEND
  0
POINT
  5
40DF
330
117F
100
AcDbEntity
  8
Defpoints
 62
     0
100
AcDbPoint
 10
561.9740143429387
 20
187.5901926051808
 30
0.0
  0
POINT
  5
40E0
330
117F
100
AcDbEntity
  8
Defpoints
 62
     0
100
AcDbPoint
 10
561.9740143429387
 20
172.5901926051808
 30
0.0
  0
POINT
  5
40E1
330
117F
100
AcDbEntity
  8
Defpoints
 62
     0
100
AcDbPoint
 10
575.0770143429386
 20
172.5901926051808
 30
0.0
  0
ENDBLK
  5
118A
330
117F
100
AcDbEntity
  8
0
100
AcDbBlockEnd
  0
BLOCK
  5
1195
330
118B
100
AcDbEntity
  8
0
100
AcDbBlockBegin
  2
*D7
 70
     1
 10
0.0
 20
0.0
 30
0.0
  3
*D7
  1

  0
LINE
  5
40E2
330
118B
100
AcDbEntity
  8
AM_5
100
AcDbLine
 10
563.5770143429388
 20
204.590192605181
 30
0.0
 11
584.5770143429387
 21
204.5901926051809
 31
0.0
  0
LINE
  5
40E3
330
118B
100
AcDbEntity
  8
AM_5
100
AcDbLine
 10
563.5770143429388
 20
166.5901926051809
 30
0.0
 11
584.5770143429387
 21
166.5901926051809
 31
0.0
  0
LINE
  5
40E4
330
118B
100
AcDbEntity
  8
AM_5
100
AcDbLine
 10
583.0770143429386
 20
201.5901926051809
 30
0.0
 11
583.0770143429386
 21
169.5901926051809
 31
0.0
  0
SOLID
  5
40E5
330
118B
100
AcDbEntity
  8
AM_5
100
AcDbTrace
 10
582.5770143429386
 20
201.5901926051809
 30
0.0
 11
583.5770143429386
 21
201.5901926051809
 31
0.0
 12
583.0770143429386
 22
204.5901926051809
 32
0.0
 13
583.0770143429386
 23
204.5901926051809
 33
0.0
  0
SOLID
  5
40E6
330
118B
100
AcDbEntity
  8
AM_5
100
AcDbTrace
 10
582.5770143429386
 20
169.5901926051809
 30
0.0
 11
583.5770143429386
 21
169.5901926051809
 31
0.0
 12
583.0770143429386
 22
166.5901926051809
 32
0.0
 13
583.0770143429386
 23
166.5901926051809
 33
0.0
  0
MTEXT
  5
40E7
330
118B
100
AcDbEntity
  8
AM_5
100
AcDbMText
 10
580.6270143429386
 20
185.590192605181
 30
0.0
 40
3.5
 41
0.0
 71
     5
 72
     1
  1
38
 11
0.0000000000000001
 21
1.0
 31
0.0
 73
     1
 44
1.0
1001
ACAD
1000
MTEXTBEGIN
1070
    73
1070
     1
1070
    44
1040
1.0
1070
    74
1070
     0
1000
MTEXTEND
  0
POINT
  5
40E8
330
118B
100
AcDbEntity
  8
Defpoints
 62
     0
100
AcDbPoint
 10
562.5770143429388
 20
204.590192605181
 30
0.0
  0
POINT
  5
40E9
330
118B
100
AcDbEntity
  8
Defpoints
 62
     0
100
AcDbPoint
 10
562.5770143429388
 20
166.5901926051809
 30
0.0
  0
POINT
  5
40EA
330
118B
100
AcDbEntity
  8
Defpoints
 62
     0
100
AcDbPoint
 10
583.0770143429386
 20
166.5901926051809
 30
0.0
  0
ENDBLK
  5
1196
330
118B
100
AcDbEntity
  8
0
100
AcDbBlockEnd
  0
BLOCK
  5
11A1
330
1197
100
AcDbEntity
  8
0
100
AcDbBlockBegin
  2
*D8
 70
     1
 10
0.0
 20
0.0
 30
0.0
  3
*D8
  1

  0
LINE
  5
40EB
330
1197
100
AcDbEntity
  8
AM_5
100
AcDbLine
 10
563.5770143429388
 20
204.590192605181
 30
0.0
 11
592.5770143429387
 21
204.5901926051809
 31
0.0
  0
LINE
  5
40EC
330
1197
100
AcDbEntity
  8
AM_5
100
AcDbLine
 10
564.0770143429387
 20
165.5901926051808
 30
0.0
 11
592.5770143429387
 21
165.5901926051808
 31
0.0
  0
LINE
  5
40ED
330
1197
100
AcDbEntity
  8
AM_5
100
AcDbLine
 10
591.0770143429386
 20
201.5901926051809
 30
0.0
 11
591.0770143429386
 21
168.5901926051808
 31
0.0
  0
SOLID
  5
40EE
330
1197
100
AcDbEntity
  8
AM_5
100
AcDbTrace
 10
590.5770143429386
 20
201.5901926051809
 30
0.0
 11
591.5770143429386
 21
201.5901926051809
 31
0.0
 12
591.0770143429386
 22
204.5901926051809
 32
0.0
 13
591.0770143429386
 23
204.5901926051809
 33
0.0
  0
SOLID
  5
40EF
330
1197
100
AcDbEntity
  8
AM_5
100
AcDbTrace
 10
590.5770143429386
 20
168.5901926051808
 30
0.0
 11
591.5770143429386
 21
168.5901926051808
 31
0.0
 12
591.0770143429386
 22
165.5901926051808
 32
0.0
 13
591.0770143429386
 23
165.5901926051808
 33
0.0
  0
MTEXT
  5
40F0
330
1197
100
AcDbEntity
  8
AM_5
100
AcDbMText
 10
588.6270143429386
 20
185.0901926051809
 30
0.0
 40
3.5
 41
0.0
 71
     5
 72
     1
  1
39
 11
0.0000000000000001
 21
1.0
 31
0.0
 73
     1
 44
1.0
1001
ACAD
1000
MTEXTBEGIN
1070
    73
1070
     1
1070
    44
1040
1.0
1070
    74
1070
     0
1000
MTEXTEND
  0
POINT
  5
40F1
330
1197
100
AcDbEntity
  8
Defpoints
 62
     0
100
AcDbPoint
 10
562.5770143429388
 20
204.590192605181
 30
0.0
  0
POINT
  5
40F2
330
1197
100
AcDbEntity
  8
Defpoints
 62
     0
100
AcDbPoint
 10
563.0770143429386
 20
165.5901926051808
 30
0.0
  0
POINT
  5
40F3
330
1197
100
AcDbEntity
  8
Defpoints
 62
     0
100
AcDbPoint
 10
591.0770143429386
 20
165.5901926051808
 30
0.0
  0
ENDBLK
  5
11A2
330
1197
100
AcDbEntity
  8
0
100
AcDbBlockEnd
  0
BLOCK
  5
11AD
330
11A3
100
AcDbEntity
  8
0
100
AcDbBlockBegin
  2
*D9
 70
     1
 10
0.0
 20
0.0
 30
0.0
  3
*D9
  1

  0
LINE
  5
4308
330
11A3
100
AcDbEntity
  8
AM_5
100
AcDbLine
 10
629.1662223916056
 20
198.0901926051809
 30
0.0
 11
608.6662223916056
 21
198.0901926051809
 31
0.0
  0
LINE
  5
4309
330
11A3
100
AcDbEntity
  8
AM_5
100
AcDbLine
 10
621.1662223916056
 20
204.590192605181
 30
0.0
 11
608.6662223916056
 21
204.590192605181
 31
0.0
  0
LINE
  5
430A
330
11A3
100
AcDbEntity
  8
AM_5
100
AcDbLine
 10
610.1662223916056
 20
195.0901926051809
 30
0.0
 11
610.1662223916056
 21
192.0901926051809
 31
0.0
  0
LINE
  5
430B
330
11A3
100
AcDbEntity
  8
AM_5
100
AcDbLine
 10
610.1662223916056
 20
207.5901926051809
 30
0.0
 11
610.1662223916056
 21
210.590192605181
 31
0.0
  0
LINE
  5
430C
330
11A3
100
AcDbEntity
  8
AM_5
100
AcDbLine
 10
610.1662223916056
 20
198.0901926051809
 30
0.0
 11
610.1662223916056
 21
204.590192605181
 31
0.0
  0
SOLID
  5
430D
330
11A3
100
AcDbEntity
  8
AM_5
100
AcDbTrace
 10
609.6662223916056
 20
195.0901926051809
 30
0.0
 11
610.6662223916056
 21
195.0901926051809
 31
0.0
 12
610.1662223916056
 22
198.0901926051809
 32
0.0
 13
610.1662223916056
 23
198.0901926051809
 33
0.0
  0
SOLID
  5
430E
330
11A3
100
AcDbEntity
  8
AM_5
100
AcDbTrace
 10
609.6662223916056
 20
207.5901926051809
 30
0.0
 11
610.6662223916056
 21
207.5901926051809
 31
0.0
 12
610.1662223916056
 22
204.590192605181
 32
0.0
 13
610.1662223916056
 23
204.590192605181
 33
0.0
  0
MTEXT
  5
430F
330
11A3
100
AcDbEntity
  8
AM_5
100
AcDbMText
 10
607.7162223916055
 20
201.3401926051811
 30
0.0
 40
3.5
 41
0.0
 71
     5
 72
     1
  1
6.5
 11
0.0000000000000001
 21
1.0
 31
0.0
 73
     1
 44
1.0
1001
ACAD
1000
MTEXTBEGIN
1070
    73
1070
     1
1070
    44
1040
1.0
1070
    74
1070
     0
1000
MTEXTEND
  0
POINT
  5
4310
330
11A3
100
AcDbEntity
  8
Defpoints
 62
     0
100
AcDbPoint
 10
630.1662223916056
 20
198.0901926051809
 30
0.0
  0
POINT
  5
4311
330
11A3
100
AcDbEntity
  8
Defpoints
 62
     0
100
AcDbPoint
 10
622.1662223916056
 20
204.590192605181
 30
0.0
  0
POINT
  5
4312
330
11A3
100
AcDbEntity
  8
Defpoints
 62
     0
100
AcDbPoint
 10
610.1662223916056
 20
204.590192605181
 30
0.0
  0
ENDBLK
  5
11AE
330
11A3
100
AcDbEntity
  8
0
100
AcDbBlockEnd
  0
BLOCK
  5
11B9
330
11AF
100
AcDbEntity
  8
0
100
AcDbBlockBegin
  2
*D10
 70
     1
 10
0.0
 20
0.0
 30
0.0
  3
*D10
  1

  0
LINE
  5
40FF
330
11AF
100
AcDbEntity
  8
AM_5
100
AcDbLine
 10
629.6662223916056
 20
189.5901926051808
 30
0.0
 11
608.6662223916056
 21
189.5901926051808
 31
0.0
  0
LINE
  5
4100
330
11AF
100
AcDbEntity
  8
AM_5
100
AcDbLine
 10
629.6662223916056
 20
170.5901926051808
 30
0.0
 11
608.6662223916056
 21
170.5901926051808
 31
0.0
  0
LINE
  5
4101
330
11AF
100
AcDbEntity
  8
AM_5
100
AcDbLine
 10
610.1662223916056
 20
186.5901926051808
 30
0.0
 11
610.1662223916056
 21
173.5901926051808
 31
0.0
  0
SOLID
  5
4102
330
11AF
100
AcDbEntity
  8
AM_5
100
AcDbTrace
 10
609.6662223916056
 20
186.5901926051808
 30
0.0
 11
610.6662223916056
 21
186.5901926051808
 31
0.0
 12
610.1662223916056
 22
189.5901926051808
 32
0.0
 13
610.1662223916056
 23
189.5901926051808
 33
0.0
  0
SOLID
  5
4103
330
11AF
100
AcDbEntity
  8
AM_5
100
AcDbTrace
 10
609.6662223916056
 20
173.5901926051808
 30
0.0
 11
610.6662223916056
 21
173.5901926051808
 31
0.0
 12
610.1662223916056
 22
170.5901926051808
 32
0.0
 13
610.1662223916056
 23
170.5901926051808
 33
0.0
  0
MTEXT
  5
4104
330
11AF
100
AcDbEntity
  8
AM_5
100
AcDbMText
 10
607.7162223916055
 20
180.0901926051809
 30
0.0
 40
3.5
 41
0.0
 71
     5
 72
     1
  1
19
 11
0.0000000000000001
 21
1.0
 31
0.0
 73
     1
 44
1.0
1001
ACAD
1000
MTEXTBEGIN
1070
    73
1070
     1
1070
    44
1040
1.0
1070
    74
1070
     0
1000
MTEXTEND
  0
POINT
  5
4105
330
11AF
100
AcDbEntity
  8
Defpoints
 62
     0
100
AcDbPoint
 10
630.6662223916056
 20
189.5901926051808
 30
0.0
  0
POINT
  5
4106
330
11AF
100
AcDbEntity
  8
Defpoints
 62
     0
100
AcDbPoint
 10
630.6662223916056
 20
170.5901926051808
 30
0.0
  0
POINT
  5
4107
330
11AF
100
AcDbEntity
  8
Defpoints
 62
     0
100
AcDbPoint
 10
610.1662223916056
 20
170.5901926051808
 30
0.0
  0
ENDBLK
  5
11BA
330
11AF
100
AcDbEntity
  8
0
100
AcDbBlockEnd
  0
BLOCK
  5
11C6
330
11BB
100
AcDbEntity
  8
0
100
AcDbBlockBegin
  2
*D11
 70
     1
 10
0.0
 20
0.0
 30
0.0
  3
*D11
  1

  0
LINE
  5
4108
330
11BB
100
AcDbEntity
  8
AM_5
100
AcDbLine
 10
629.6662223916056
 20
170.5901926051808
 30
0.0
 11
608.6662223916056
 21
170.5901926051808
 31
0.0
  0
LINE
  5
4109
330
11BB
100
AcDbEntity
  8
AM_5
100
AcDbLine
 10
629.6662223916056
 20
165.5901926051808
 30
0.0
 11
608.6662223916056
 21
165.5901926051808
 31
0.0
  0
LINE
  5
410A
330
11BB
100
AcDbEntity
  8
AM_5
100
AcDbLine
 10
610.1662223916056
 20
173.5901926051808
 30
0.0
 11
610.1662223916056
 21
176.5901926051808
 31
0.0
  0
LINE
  5
410B
330
11BB
100
AcDbEntity
  8
AM_5
100
AcDbLine
 10
610.1662223916056
 20
162.5901926051808
 30
0.0
 11
610.1662223916056
 21
159.5901926051808
 31
0.0
  0
LINE
  5
410C
330
11BB
100
AcDbEntity
  8
AM_5
100
AcDbLine
 10
610.1662223916056
 20
170.5901926051808
 30
0.0
 11
610.1662223916056
 21
165.5901926051808
 31
0.0
  0
SOLID
  5
410D
330
11BB
100
AcDbEntity
  8
AM_5
100
AcDbTrace
 10
609.6662223916056
 20
173.5901926051808
 30
0.0
 11
610.6662223916056
 21
173.5901926051808
 31
0.0
 12
610.1662223916056
 22
170.5901926051808
 32
0.0
 13
610.1662223916056
 23
170.5901926051808
 33
0.0
  0
SOLID
  5
410E
330
11BB
100
AcDbEntity
  8
AM_5
100
AcDbTrace
 10
609.6662223916056
 20
162.5901926051808
 30
0.0
 11
610.6662223916056
 21
162.5901926051808
 31
0.0
 12
610.1662223916056
 22
165.5901926051808
 32
0.0
 13
610.1662223916056
 23
165.5901926051808
 33
0.0
  0
MTEXT
  5
410F
330
11BB
100
AcDbEntity
  8
AM_5
100
AcDbMText
 10
607.7162223916055
 20
168.0901926051809
 30
0.0
 40
3.5
 41
0.0
 71
     5
 72
     1
  1
5
 11
0.0000000000000001
 21
1.0
 31
0.0
 73
     1
 44
1.0
1001
ACAD
1000
MTEXTBEGIN
1070
    73
1070
     1
1070
    44
1040
1.0
1070
    74
1070
     0
1000
MTEXTEND
  0
POINT
  5
4110
330
11BB
100
AcDbEntity
  8
Defpoints
 62
     0
100
AcDbPoint
 10
630.6662223916056
 20
170.5901926051808
 30
0.0
  0
POINT
  5
4111
330
11BB
100
AcDbEntity
  8
Defpoints
 62
     0
100
AcDbPoint
 10
630.6662223916056
 20
165.5901926051808
 30
0.0
  0
POINT
  5
4112
330
11BB
100
AcDbEntity
  8
Defpoints
 62
     0
100
AcDbPoint
 10
610.1662223916056
 20
165.5901926051808
 30
0.0
  0
ENDBLK
  5
11C7
330
11BB
100
AcDbEntity
  8
0
100
AcDbBlockEnd
  0
BLOCK
  5
11D3
330
11C8
100
AcDbEntity
  8
0
100
AcDbBlockBegin
  2
*D12
 70
     1
 10
0.0
 20
0.0
 30
0.0
  3
*D12
  1

  0
LINE
  5
4722
330
11C8
100
AcDbEntity
  8
AM_5
100
AcDbLine
 10
622.1662223916056
 20
165.5901926051809
 30
0.0
 11
622.1662223916056
 21
148.6720604285881
 31
0.0
  0
LINE
  5
4723
330
11C8
100
AcDbEntity
  8
AM_5
100
AcDbLine
 10
627.6662223916056
 20
165.5901926051809
 30
0.0
 11
627.6662223916056
 21
148.6720604285881
 31
0.0
  0
LINE
  5
4724
330
11C8
100
AcDbEntity
  8
AM_5
100
AcDbLine
 10
630.6662223916056
 20
150.1720604285881
 30
0.0
 11
633.6662223916056
 21
150.1720604285881
 31
0.0
  0
LINE
  5
4725
330
11C8
100
AcDbEntity
  8
AM_5
100
AcDbLine
 10
619.1662223916056
 20
150.1720604285881
 30
0.0
 11
609.7212476447751
 21
150.1720604285881
 31
0.0
  0
LINE
  5
4726
330
11C8
100
AcDbEntity
  8
AM_5
100
AcDbLine
 10
627.6662223916056
 20
150.1720604285881
 30
0.0
 11
622.1662223916056
 21
150.1720604285881
 31
0.0
  0
INSERT
  5
4727
330
11C8
100
AcDbEntity
  8
AM_5
100
AcDbBlockReference
  2
GENDOT
 10
627.6662223916056
 20
150.1720604285881
 30
0.0
 41
3.0
 42
3.0
 43
3.0
 50
180.0
  0
SOLID
  5
4728
330
11C8
100
AcDbEntity
  8
AM_5
100
AcDbTrace
 10
619.1662223916056
 20
150.6720604285881
 30
0.0
 11
619.1662223916056
 21
149.6720604285881
 31
0.0
 12
622.1662223916056
 22
150.1720604285881
 32
0.0
 13
622.1662223916056
 23
150.1720604285881
 33
0.0
  0
MTEXT
  5
4729
330
11C8
100
AcDbEntity
  8
AM_5
100
AcDbMText
 10
612.9437350181903
 20
152.6220604285881
 30
0.0
 40
3.5
 41
0.0
 71
     5
 72
     1
  1
5.5
 73
     1
 44
1.0
1001
ACAD
1000
MTEXTBEGIN
1070
    73
1070
     1
1070
    44
1040
1.0
1070
    74
1070
     0
1000
MTEXTEND
  0
POINT
  5
472A
330
11C8
100
AcDbEntity
  8
Defpoints
 62
     0
100
AcDbPoint
 10
622.1662223916056
 20
166.5901926051809
 30
0.0
  0
POINT
  5
472B
330
11C8
100
AcDbEntity
  8
Defpoints
 62
     0
100
AcDbPoint
 10
627.6662223916056
 20
166.5901926051809
 30
0.0
  0
POINT
  5
472C
330
11C8
100
AcDbEntity
  8
Defpoints
 62
     0
100
AcDbPoint
 10
627.6662223916056
 20
150.1720604285881
 30
0.0
  0
ENDBLK
  5
11D4
330
11C8
100
AcDbEntity
  8
0
100
AcDbBlockEnd
  0
BLOCK
  5
11E0
330
11D5
100
AcDbEntity
  8
0
100
AcDbBlockBegin
  2
*D13
 70
     1
 10
0.0
 20
0.0
 30
0.0
  3
*D13
  1

  0
LINE
  5
4717
330
11D5
100
AcDbEntity
  8
AM_5
100
AcDbLine
 10
630.6662223916056
 20
164.5901926051808
 30
0.0
 11
630.6662223916056
 21
148.6720604285881
 31
0.0
  0
LINE
  5
4718
330
11D5
100
AcDbEntity
  8
AM_5
100
AcDbLine
 10
634.6662223916056
 20
165.5901926051808
 30
0.0
 11
634.6662223916056
 21
148.6720604285881
 31
0.0
  0
LINE
  5
4719
330
11D5
100
AcDbEntity
  8
AM_5
100
AcDbLine
 10
627.6662223916056
 20
150.1720604285881
 30
0.0
 11
624.6662223916056
 21
150.1720604285881
 31
0.0
  0
LINE
  5
471A
330
11D5
100
AcDbEntity
  8
AM_5
100
AcDbLine
 10
637.6662223916056
 20
150.1720604285881
 30
0.0
 11
640.6662223916056
 21
150.1720604285881
 31
0.0
  0
LINE
  5
471B
330
11D5
100
AcDbEntity
  8
AM_5
100
AcDbLine
 10
630.6662223916056
 20
150.1720604285881
 30
0.0
 11
634.6662223916056
 21
150.1720604285881
 31
0.0
  0
INSERT
  5
471C
330
11D5
100
AcDbEntity
  8
AM_5
100
AcDbBlockReference
  2
GENDOT
 10
630.6662223916056
 20
150.1720604285881
 30
0.0
 41
3.0
 42
3.0
 43
3.0
  0
SOLID
  5
471D
330
11D5
100
AcDbEntity
  8
AM_5
100
AcDbTrace
 10
637.6662223916056
 20
150.6720604285881
 30
0.0
 11
637.6662223916056
 21
149.6720604285881
 31
0.0
 12
634.6662223916056
 22
150.1720604285881
 32
0.0
 13
634.6662223916056
 23
150.1720604285881
 33
0.0
  0
MTEXT
  5
471E
330
11D5
100
AcDbEntity
  8
AM_5
100
AcDbMText
 10
632.6662223916056
 20
152.6220604285881
 30
0.0
 40
3.5
 41
0.0
 71
     5
 72
     1
  1
4
 73
     1
 44
1.0
1001
ACAD
1000
MTEXTBEGIN
1070
    73
1070
     1
1070
    44
1040
1.0
1070
    74
1070
     0
1000
MTEXTEND
  0
POINT
  5
471F
330
11D5
100
AcDbEntity
  8
Defpoints
 62
     0
100
AcDbPoint
 10
630.6662223916056
 20
165.5901926051808
 30
0.0
  0
POINT
  5
4720
330
11D5
100
AcDbEntity
  8
Defpoints
 62
     0
100
AcDbPoint
 10
634.6662223916056
 20
166.5901926051808
 30
0.0
  0
POINT
  5
4721
330
11D5
100
AcDbEntity
  8
Defpoints
 62
     0
100
AcDbPoint
 10
634.6662223916056
 20
150.1720604285881
 30
0.0
  0
ENDBLK
  5
11E1
330
11D5
100
AcDbEntity
  8
0
100
AcDbBlockEnd
  0
BLOCK
  5
11EC
330
11E2
100
AcDbEntity
  8
0
100
AcDbBlockBegin
  2
*D14
 70
     1
 10
0.0
 20
0.0
 30
0.0
  3
*D14
  1

  0
LINE
  5
470E
330
11E2
100
AcDbEntity
  8
AM_5
100
AcDbLine
 10
634.6662223916056
 20
165.5901926051808
 30
0.0
 11
634.6662223916056
 21
148.6720604285881
 31
0.0
  0
LINE
  5
470F
330
11E2
100
AcDbEntity
  8
AM_5
100
AcDbLine
 10
679.6662223916056
 20
184.5901926051808
 30
0.0
 11
679.6662223916056
 21
148.6720604285881
 31
0.0
  0
LINE
  5
4710
330
11E2
100
AcDbEntity
  8
AM_5
100
AcDbLine
 10
637.6662223916056
 20
150.1720604285881
 30
0.0
 11
676.6662223916056
 21
150.1720604285881
 31
0.0
  0
SOLID
  5
4711
330
11E2
100
AcDbEntity
  8
AM_5
100
AcDbTrace
 10
637.6662223916056
 20
150.6720604285881
 30
0.0
 11
637.6662223916056
 21
149.6720604285881
 31
0.0
 12
634.6662223916056
 22
150.1720604285881
 32
0.0
 13
634.6662223916056
 23
150.1720604285881
 33
0.0
  0
SOLID
  5
4712
330
11E2
100
AcDbEntity
  8
AM_5
100
AcDbTrace
 10
676.6662223916056
 20
150.6720604285881
 30
0.0
 11
676.6662223916056
 21
149.6720604285881
 31
0.0
 12
679.6662223916056
 22
150.1720604285881
 32
0.0
 13
679.6662223916056
 23
150.1720604285881
 33
0.0
  0
MTEXT
  5
4713
330
11E2
100
AcDbEntity
  8
AM_5
100
AcDbMText
 10
657.1662223916056
 20
152.6220604285881
 30
0.0
 40
3.5
 41
0.0
 71
     5
 72
     1
  1
C
 73
     1
 44
1.0
1001
ACAD
1000
MTEXTBEGIN
1070
    73
1070
     1
1070
    44
1040
1.0
1070
    74
1070
     0
1000
MTEXTEND
  0
POINT
  5
4714
330
11E2
100
AcDbEntity
  8
Defpoints
 62
     0
100
AcDbPoint
 10
634.6662223916056
 20
166.5901926051808
 30
0.0
  0
POINT
  5
4715
330
11E2
100
AcDbEntity
  8
Defpoints
 62
     0
100
AcDbPoint
 10
679.6662223916056
 20
185.5901926051808
 30
0.0
  0
POINT
  5
4716
330
11E2
100
AcDbEntity
  8
Defpoints
 62
     0
100
AcDbPoint
 10
679.6662223916056
 20
150.1720604285881
 30
0.0
  0
ENDBLK
  5
11ED
330
11E2
100
AcDbEntity
  8
0
100
AcDbBlockEnd
  0
BLOCK
  5
11F8
330
11EE
100
AcDbEntity
  8
0
100
AcDbBlockBegin
  2
*D15
 70
     1
 10
0.0
 20
0.0
 30
0.0
  3
*D15
  1

  0
LINE
  5
4705
330
11EE
100
AcDbEntity
  8
AM_5
100
AcDbLine
 10
691.6662223916056
 20
166.5901926051808
 30
0.0
 11
691.6662223916056
 21
148.6720604285881
 31
0.0
  0
LINE
  5
4706
330
11EE
100
AcDbEntity
  8
AM_5
100
AcDbLine
 10
701.6662223916056
 20
164.5901926051808
 30
0.0
 11
701.6662223916056
 21
148.6720604285881
 31
0.0
  0
LINE
  5
4707
330
11EE
100
AcDbEntity
  8
AM_5
100
AcDbLine
 10
694.6662223916056
 20
150.1720604285881
 30
0.0
 11
698.6662223916056
 21
150.1720604285881
 31
0.0
  0
SOLID
  5
4708
330
11EE
100
AcDbEntity
  8
AM_5
100
AcDbTrace
 10
694.6662223916056
 20
150.6720604285881
 30
0.0
 11
694.6662223916056
 21
149.6720604285881
 31
0.0
 12
691.6662223916056
 22
150.1720604285881
 32
0.0
 13
691.6662223916056
 23
150.1720604285881
 33
0.0
  0
SOLID
  5
4709
330
11EE
100
AcDbEntity
  8
AM_5
100
AcDbTrace
 10
698.6662223916056
 20
150.6720604285881
 30
0.0
 11
698.6662223916056
 21
149.6720604285881
 31
0.0
 12
701.6662223916056
 22
150.1720604285881
 32
0.0
 13
701.6662223916056
 23
150.1720604285881
 33
0.0
  0
MTEXT
  5
470A
330
11EE
100
AcDbEntity
  8
AM_5
100
AcDbMText
 10
696.6662223916056
 20
152.6220604285881
 30
0.0
 40
3.5
 41
0.0
 71
     5
 72
     1
  1
10
 73
     1
 44
1.0
1001
ACAD
1000
MTEXTBEGIN
1070
    73
1070
     1
1070
    44
1040
1.0
1070
    74
1070
     0
1000
MTEXTEND
  0
POINT
  5
470B
330
11EE
100
AcDbEntity
  8
Defpoints
 62
     0
100
AcDbPoint
 10
691.6662223916056
 20
167.5901926051808
 30
0.0
  0
POINT
  5
470C
330
11EE
100
AcDbEntity
  8
Defpoints
 62
     0
100
AcDbPoint
 10
701.6662223916056
 20
165.5901926051808
 30
0.0
  0
POINT
  5
470D
330
11EE
100
AcDbEntity
  8
Defpoints
 62
     0
100
AcDbPoint
 10
701.6662223916056
 20
150.1720604285881
 30
0.0
  0
ENDBLK
  5
11F9
330
11EE
100
AcDbEntity
  8
0
100
AcDbBlockEnd
  0
BLOCK
  5
1204
330
11FA
100
AcDbEntity
  8
0
100
AcDbBlockBegin
  2
*D16
 70
     1
 10
0.0
 20
0.0
 30
0.0
  3
*D16
  1

  0
LINE
  5
46FC
330
11FA
100
AcDbEntity
  8
AM_5
100
AcDbLine
 10
622.1662223916056
 20
165.5901926051809
 30
0.0
 11
622.1662223916056
 21
140.6720604285881
 31
0.0
  0
LINE
  5
46FD
330
11FA
100
AcDbEntity
  8
AM_5
100
AcDbLine
 10
630.6662223916056
 20
164.5901926051808
 30
0.0
 11
630.6662223916056
 21
140.6720604285881
 31
0.0
  0
LINE
  5
46FE
330
11FA
100
AcDbEntity
  8
AM_5
100
AcDbLine
 10
625.1662223916056
 20
142.1720604285881
 30
0.0
 11
627.6662223916056
 21
142.1720604285881
 31
0.0
  0
SOLID
  5
46FF
330
11FA
100
AcDbEntity
  8
AM_5
100
AcDbTrace
 10
625.1662223916056
 20
142.6720604285881
 30
0.0
 11
625.1662223916056
 21
141.6720604285881
 31
0.0
 12
622.1662223916056
 22
142.1720604285881
 32
0.0
 13
622.1662223916056
 23
142.1720604285881
 33
0.0
  0
SOLID
  5
4700
330
11FA
100
AcDbEntity
  8
AM_5
100
AcDbTrace
 10
627.6662223916056
 20
142.6720604285881
 30
0.0
 11
627.6662223916056
 21
141.6720604285881
 31
0.0
 12
630.6662223916056
 22
142.1720604285881
 32
0.0
 13
630.6662223916056
 23
142.1720604285881
 33
0.0
  0
MTEXT
  5
4701
330
11FA
100
AcDbEntity
  8
AM_5
100
AcDbMText
 10
626.4162223916056
 20
144.6220604285881
 30
0.0
 40
3.5
 41
0.0
 71
     5
 72
     1
  1
8.5
 73
     1
 44
1.0
1001
ACAD
1000
MTEXTBEGIN
1070
    73
1070
     1
1070
    44
1040
1.0
1070
    74
1070
     0
1000
MTEXTEND
  0
POINT
  5
4702
330
11FA
100
AcDbEntity
  8
Defpoints
 62
     0
100
AcDbPoint
 10
622.1662223916056
 20
166.5901926051809
 30
0.0
  0
POINT
  5
4703
330
11FA
100
AcDbEntity
  8
Defpoints
 62
     0
100
AcDbPoint
 10
630.6662223916056
 20
165.5901926051808
 30
0.0
  0
POINT
  5
4704
330
11FA
100
AcDbEntity
  8
Defpoints
 62
     0
100
AcDbPoint
 10
630.6662223916056
 20
142.1720604285881
 30
0.0
  0
ENDBLK
  5
1205
330
11FA
100
AcDbEntity
  8
0
100
AcDbBlockEnd
  0
BLOCK
  5
1210
330
1206
100
AcDbEntity
  8
0
100
AcDbBlockBegin
  2
*D17
 70
     1
 10
0.0
 20
0.0
 30
0.0
  3
*D17
  1

  0
LINE
  5
46F3
330
1206
100
AcDbEntity
  8
AM_5
100
AcDbLine
 10
630.6662223916056
 20
164.5901926051808
 30
0.0
 11
630.6662223916056
 21
140.6720604285881
 31
0.0
  0
LINE
  5
46F4
330
1206
100
AcDbEntity
  8
AM_5
100
AcDbLine
 10
701.6662223916056
 20
164.5901926051808
 30
0.0
 11
701.6662223916056
 21
140.6720604285881
 31
0.0
  0
LINE
  5
46F5
330
1206
100
AcDbEntity
  8
AM_5
100
AcDbLine
 10
633.6662223916056
 20
142.1720604285881
 30
0.0
 11
698.6662223916056
 21
142.1720604285881
 31
0.0
  0
SOLID
  5
46F6
330
1206
100
AcDbEntity
  8
AM_5
100
AcDbTrace
 10
633.6662223916056
 20
142.6720604285881
 30
0.0
 11
633.6662223916056
 21
141.6720604285881
 31
0.0
 12
630.6662223916056
 22
142.1720604285881
 32
0.0
 13
630.6662223916056
 23
142.1720604285881
 33
0.0
  0
SOLID
  5
46F7
330
1206
100
AcDbEntity
  8
AM_5
100
AcDbTrace
 10
698.6662223916056
 20
142.6720604285881
 30
0.0
 11
698.6662223916056
 21
141.6720604285881
 31
0.0
 12
701.6662223916056
 22
142.1720604285881
 32
0.0
 13
701.6662223916056
 23
142.1720604285881
 33
0.0
  0
MTEXT
  5
46F8
330
1206
100
AcDbEntity
  8
AM_5
100
AcDbMText
 10
666.1662223916056
 20
144.6220604285881
 30
0.0
 40
3.5
 41
0.0
 71
     5
 72
     1
  1
31+stroke
 73
     1
 44
1.0
1001
ACAD
1000
MTEXTBEGIN
1070
    73
1070
     1
1070
    44
1040
1.0
1070
    74
1070
     0
1000
MTEXTEND
  0
POINT
  5
46F9
330
1206
100
AcDbEntity
  8
Defpoints
 62
     0
100
AcDbPoint
 10
630.6662223916056
 20
165.5901926051808
 30
0.0
  0
POINT
  5
46FA
330
1206
100
AcDbEntity
  8
Defpoints
 62
     0
100
AcDbPoint
 10
701.6662223916056
 20
165.5901926051808
 30
0.0
  0
POINT
  5
46FB
330
1206
100
AcDbEntity
  8
Defpoints
 62
     0
100
AcDbPoint
 10
701.6662223916056
 20
142.1720604285881
 30
0.0
  0
ENDBLK
  5
1211
330
1206
100
AcDbEntity
  8
0
100
AcDbBlockEnd
  0
BLOCK
  5
121C
330
1212
100
AcDbEntity
  8
0
100
AcDbBlockBegin
  2
*D18
 70
     1
 10
0.0
 20
0.0
 30
0.0
  3
*D18
  1

  0
LINE
  5
46EA
330
1212
100
AcDbEntity
  8
AM_5
100
AcDbLine
 10
622.1662223916056
 20
165.5901926051809
 30
0.0
 11
622.1662223916056
 21
132.6720604285881
 31
0.0
  0
LINE
  5
46EB
330
1212
100
AcDbEntity
  8
AM_5
100
AcDbLine
 10
701.6662223916056
 20
164.5901926051808
 30
0.0
 11
701.6662223916056
 21
132.6720604285881
 31
0.0
  0
LINE
  5
46EC
330
1212
100
AcDbEntity
  8
AM_5
100
AcDbLine
 10
625.1662223916056
 20
134.1720604285881
 30
0.0
 11
698.6662223916056
 21
134.1720604285881
 31
0.0
  0
SOLID
  5
46ED
330
1212
100
AcDbEntity
  8
AM_5
100
AcDbTrace
 10
625.1662223916056
 20
134.6720604285881
 30
0.0
 11
625.1662223916056
 21
133.6720604285881
 31
0.0
 12
622.1662223916056
 22
134.1720604285881
 32
0.0
 13
622.1662223916056
 23
134.1720604285881
 33
0.0
  0
SOLID
  5
46EE
330
1212
100
AcDbEntity
  8
AM_5
100
AcDbTrace
 10
698.6662223916056
 20
134.6720604285881
 30
0.0
 11
698.6662223916056
 21
133.6720604285881
 31
0.0
 12
701.6662223916056
 22
134.1720604285881
 32
0.0
 13
701.6662223916056
 23
134.1720604285881
 33
0.0
  0
MTEXT
  5
46EF
330
1212
100
AcDbEntity
  8
AM_5
100
AcDbMText
 10
661.9162223916056
 20
136.6220604285881
 30
0.0
 40
3.5
 41
0.0
 71
     5
 72
     1
  1
39.5+stroke
 73
     1
 44
1.0
1001
ACAD
1000
MTEXTBEGIN
1070
    73
1070
     1
1070
    44
1040
1.0
1070
    74
1070
     0
1000
MTEXTEND
  0
POINT
  5
46F0
330
1212
100
AcDbEntity
  8
Defpoints
 62
     0
100
AcDbPoint
 10
622.1662223916056
 20
166.5901926051809
 30
0.0
  0
POINT
  5
46F1
330
1212
100
AcDbEntity
  8
Defpoints
 62
     0
100
AcDbPoint
 10
701.6662223916056
 20
165.5901926051808
 30
0.0
  0
POINT
  5
46F2
330
1212
100
AcDbEntity
  8
Defpoints
 62
     0
100
AcDbPoint
 10
701.6662223916056
 20
134.1720604285881
 30
0.0
  0
ENDBLK
  5
121D
330
1212
100
AcDbEntity
  8
0
100
AcDbBlockEnd
  0
BLOCK
  5
1228
330
121E
100
AcDbEntity
  8
0
100
AcDbBlockBegin
  2
*D19
 70
     1
 10
0.0
 20
0.0
 30
0.0
  3
*D19
  1

  0
LINE
  5
4442
330
121E
100
AcDbEntity
  8
AM_5
100
AcDbLine
 10
626.6662223916056
 20
268.3308151377765
 30
0.0
 11
608.6662223916056
 21
268.3308151377765
 31
0.0
  0
LINE
  5
4443
330
121E
100
AcDbEntity
  8
AM_5
100
AcDbLine
 10
626.7692223916055
 20
259.3308151377765
 30
0.0
 11
608.6662223916056
 21
259.3308151377765
 31
0.0
  0
LINE
  5
4444
330
121E
100
AcDbEntity
  8
AM_5
100
AcDbLine
 10
610.1662223916056
 20
265.3308151377765
 30
0.0
 11
610.1662223916056
 21
262.3308151377766
 31
0.0
  0
SOLID
  5
4445
330
121E
100
AcDbEntity
  8
AM_5
100
AcDbTrace
 10
609.6662223916056
 20
265.3308151377765
 30
0.0
 11
610.6662223916056
 21
265.3308151377765
 31
0.0
 12
610.1662223916056
 22
268.3308151377765
 32
0.0
 13
610.1662223916056
 23
268.3308151377765
 33
0.0
  0
SOLID
  5
4446
330
121E
100
AcDbEntity
  8
AM_5
100
AcDbTrace
 10
609.6662223916056
 20
262.3308151377766
 30
0.0
 11
610.6662223916056
 21
262.3308151377766
 31
0.0
 12
610.1662223916056
 22
259.3308151377765
 32
0.0
 13
610.1662223916056
 23
259.3308151377765
 33
0.0
  0
MTEXT
  5
4447
330
121E
100
AcDbEntity
  8
AM_5
100
AcDbMText
 10
607.7162223916054
 20
263.8308151377766
 30
0.0
 40
3.5
 41
0.0
 71
     5
 72
     1
  1
9
 11
0.0000000000000001
 21
1.0
 31
0.0
 73
     1
 44
1.0
1001
ACAD
1000
MTEXTBEGIN
1070
    73
1070
     1
1070
    44
1040
1.0
1070
    74
1070
     0
1000
MTEXTEND
  0
POINT
  5
4448
330
121E
100
AcDbEntity
  8
Defpoints
 62
     0
100
AcDbPoint
 10
627.6662223916056
 20
268.3308151377765
 30
0.0
  0
POINT
  5
4449
330
121E
100
AcDbEntity
  8
Defpoints
 62
     0
100
AcDbPoint
 10
627.7692223916055
 20
259.3308151377765
 30
0.0
  0
POINT
  5
444A
330
121E
100
AcDbEntity
  8
Defpoints
 62
     0
100
AcDbPoint
 10
610.1662223916056
 20
259.3308151377765
 30
0.0
  0
ENDBLK
  5
1229
330
121E
100
AcDbEntity
  8
0
100
AcDbBlockEnd
  0
BLOCK
  5
1234
330
122A
100
AcDbEntity
  8
0
100
AcDbBlockBegin
  2
*D20
 70
     1
 10
0.0
 20
0.0
 30
0.0
  3
*D20
  1

  0
LINE
  5
444B
330
122A
100
AcDbEntity
  8
AM_5
100
AcDbLine
 10
621.1662223916056
 20
271.3308151377764
 30
0.0
 11
600.6662223916056
 21
271.3308151377764
 31
0.0
  0
LINE
  5
444C
330
122A
100
AcDbEntity
  8
AM_5
100
AcDbLine
 10
621.1662223916056
 20
256.3308151377766
 30
0.0
 11
600.6662223916056
 21
256.3308151377766
 31
0.0
  0
LINE
  5
444D
330
122A
100
AcDbEntity
  8
AM_5
100
AcDbLine
 10
602.1662223916056
 20
268.3308151377764
 30
0.0
 11
602.1662223916056
 21
259.3308151377765
 31
0.0
  0
SOLID
  5
444E
330
122A
100
AcDbEntity
  8
AM_5
100
AcDbTrace
 10
601.6662223916056
 20
268.3308151377764
 30
0.0
 11
602.6662223916056
 21
268.3308151377764
 31
0.0
 12
602.1662223916056
 22
271.3308151377764
 32
0.0
 13
602.1662223916056
 23
271.3308151377764
 33
0.0
  0
SOLID
  5
444F
330
122A
100
AcDbEntity
  8
AM_5
100
AcDbTrace
 10
601.6662223916056
 20
259.3308151377765
 30
0.0
 11
602.6662223916056
 21
259.3308151377765
 31
0.0
 12
602.1662223916056
 22
256.3308151377766
 32
0.0
 13
602.1662223916056
 23
256.3308151377766
 33
0.0
  0
MTEXT
  5
4450
330
122A
100
AcDbEntity
  8
AM_5
100
AcDbMText
 10
599.7162223916054
 20
263.8308151377765
 30
0.0
 40
3.5
 41
0.0
 71
     5
 72
     1
  1
15
 11
0.0000000000000001
 21
1.0
 31
0.0
 73
     1
 44
1.0
1001
ACAD
1000
MTEXTBEGIN
1070
    73
1070
     1
1070
    44
1040
1.0
1070
    74
1070
     0
1000
MTEXTEND
  0
POINT
  5
4451
330
122A
100
AcDbEntity
  8
Defpoints
 62
     0
100
AcDbPoint
 10
622.1662223916056
 20
271.3308151377764
 30
0.0
  0
POINT
  5
4452
330
122A
100
AcDbEntity
  8
Defpoints
 62
     0
100
AcDbPoint
 10
622.1662223916056
 20
256.3308151377766
 30
0.0
  0
POINT
  5
4453
330
122A
100
AcDbEntity
  8
Defpoints
 62
     0
100
AcDbPoint
 10
602.1662223916056
 20
256.3308151377766
 30
0.0
  0
ENDBLK
  5
1235
330
122A
100
AcDbEntity
  8
0
100
AcDbBlockEnd
  0
BLOCK
  5
1240
330
1236
100
AcDbEntity
  8
0
100
AcDbBlockBegin
  2
*D21
 70
     1
 10
0.0
 20
0.0
 30
0.0
  3
*D21
  1

  0
LINE
  5
4454
330
1236
100
AcDbEntity
  8
AM_5
100
AcDbLine
 10
622.1662223916056
 20
255.3308151377765
 30
0.0
 11
622.1662223916056
 21
242.4338151377765
 31
0.0
  0
LINE
  5
4455
330
1236
100
AcDbEntity
  8
AM_5
100
AcDbLine
 10
630.1662223916056
 20
256.9338151377765
 30
0.0
 11
630.1662223916056
 21
242.4338151377765
 31
0.0
  0
LINE
  5
4456
330
1236
100
AcDbEntity
  8
AM_5
100
AcDbLine
 10
625.1662223916056
 20
243.9338151377765
 30
0.0
 11
627.1662223916056
 21
243.9338151377765
 31
0.0
  0
SOLID
  5
4457
330
1236
100
AcDbEntity
  8
AM_5
100
AcDbTrace
 10
625.1662223916056
 20
244.4338151377765
 30
0.0
 11
625.1662223916056
 21
243.4338151377765
 31
0.0
 12
622.1662223916056
 22
243.9338151377765
 32
0.0
 13
622.1662223916056
 23
243.9338151377765
 33
0.0
  0
SOLID
  5
4458
330
1236
100
AcDbEntity
  8
AM_5
100
AcDbTrace
 10
627.1662223916056
 20
244.4338151377765
 30
0.0
 11
627.1662223916056
 21
243.4338151377765
 31
0.0
 12
630.1662223916056
 22
243.9338151377765
 32
0.0
 13
630.1662223916056
 23
243.9338151377765
 33
0.0
  0
MTEXT
  5
4459
330
1236
100
AcDbEntity
  8
AM_5
100
AcDbMText
 10
626.1662223916056
 20
246.3838151377765
 30
0.0
 40
3.5
 41
0.0
 71
     5
 72
     1
  1
8
 73
     1
 44
1.0
1001
ACAD
1000
MTEXTBEGIN
1070
    73
1070
     1
1070
    44
1040
1.0
1070
    74
1070
     0
1000
MTEXTEND
  0
POINT
  5
445A
330
1236
100
AcDbEntity
  8
Defpoints
 62
     0
100
AcDbPoint
 10
622.1662223916056
 20
256.3308151377766
 30
0.0
  0
POINT
  5
445B
330
1236
100
AcDbEntity
  8
Defpoints
 62
     0
100
AcDbPoint
 10
630.1662223916056
 20
257.9338151377765
 30
0.0
  0
POINT
  5
445C
330
1236
100
AcDbEntity
  8
Defpoints
 62
     0
100
AcDbPoint
 10
630.1662223916056
 20
243.9338151377765
 30
0.0
  0
ENDBLK
  5
1241
330
1236
100
AcDbEntity
  8
0
100
AcDbBlockEnd
  0
BLOCK
  5
124C
330
1242
100
AcDbEntity
  8
0
100
AcDbBlockBegin
  2
*D22
 70
     1
 10
0.0
 20
0.0
 30
0.0
  3
*D22
  1

  0
LINE
  5
445D
330
1242
100
AcDbEntity
  8
AM_5
100
AcDbLine
 10
630.1662223916056
 20
255.8308151377765
 30
0.0
 11
630.1662223916056
 21
242.4338151377765
 31
0.0
  0
LINE
  5
445E
330
1242
100
AcDbEntity
  8
AM_5
100
AcDbLine
 10
650.1662223916056
 20
255.9338151377765
 30
0.0
 11
650.1662223916056
 21
242.4338151377765
 31
0.0
  0
LINE
  5
445F
330
1242
100
AcDbEntity
  8
AM_5
100
AcDbLine
 10
633.1662223916056
 20
243.9338151377765
 30
0.0
 11
647.1662223916056
 21
243.9338151377765
 31
0.0
  0
SOLID
  5
4460
330
1242
100
AcDbEntity
  8
AM_5
100
AcDbTrace
 10
633.1662223916056
 20
244.4338151377765
 30
0.0
 11
633.1662223916056
 21
243.4338151377765
 31
0.0
 12
630.1662223916056
 22
243.9338151377765
 32
0.0
 13
630.1662223916056
 23
243.9338151377765
 33
0.0
  0
SOLID
  5
4461
330
1242
100
AcDbEntity
  8
AM_5
100
AcDbTrace
 10
647.1662223916056
 20
244.4338151377765
 30
0.0
 11
647.1662223916056
 21
243.4338151377765
 31
0.0
 12
650.1662223916056
 22
243.9338151377765
 32
0.0
 13
650.1662223916056
 23
243.9338151377765
 33
0.0
  0
MTEXT
  5
4462
330
1242
100
AcDbEntity
  8
AM_5
100
AcDbMText
 10
640.1662223916056
 20
246.3841596259655
 30
0.0
 40
3.5
 41
0.0
 71
     5
 72
     1
  1
L2
 73
     1
 44
1.0
1001
ACAD
1000
MTEXTBEGIN
1070
    73
1070
     1
1070
    44
1040
1.0
1070
    74
1070
     0
1000
MTEXTEND
  0
POINT
  5
4463
330
1242
100
AcDbEntity
  8
Defpoints
 62
     0
100
AcDbPoint
 10
630.1662223916056
 20
256.8308151377765
 30
0.0
  0
POINT
  5
4464
330
1242
100
AcDbEntity
  8
Defpoints
 62
     0
100
AcDbPoint
 10
650.1662223916056
 20
256.9338151377765
 30
0.0
  0
POINT
  5
4465
330
1242
100
AcDbEntity
  8
Defpoints
 62
     0
100
AcDbPoint
 10
650.1662223916056
 20
243.9338151377765
 30
0.0
  0
ENDBLK
  5
124D
330
1242
100
AcDbEntity
  8
0
100
AcDbBlockEnd
  0
BLOCK
  5
1258
330
124E
100
AcDbEntity
  8
0
100
AcDbBlockBegin
  2
*D23
 70
     1
 10
0.0
 20
0.0
 30
0.0
  3
*D23
  1

  0
LINE
  5
4466
330
124E
100
AcDbEntity
  8
AM_5
100
AcDbLine
 10
650.1662223916056
 20
255.8308151377765
 30
0.0
 11
650.1662223916056
 21
242.4338151377765
 31
0.0
  0
LINE
  5
4467
330
124E
100
AcDbEntity
  8
AM_5
100
AcDbLine
 10
670.1662223916056
 20
255.8308151377764
 30
0.0
 11
670.1662223916056
 21
242.4338151377765
 31
0.0
  0
LINE
  5
4468
330
124E
100
AcDbEntity
  8
AM_5
100
AcDbLine
 10
653.1662223916056
 20
243.9338151377765
 30
0.0
 11
667.1662223916056
 21
243.9338151377765
 31
0.0
  0
SOLID
  5
4469
330
124E
100
AcDbEntity
  8
AM_5
100
AcDbTrace
 10
653.1662223916056
 20
244.4338151377765
 30
0.0
 11
653.1662223916056
 21
243.4338151377765
 31
0.0
 12
650.1662223916056
 22
243.9338151377765
 32
0.0
 13
650.1662223916056
 23
243.9338151377765
 33
0.0
  0
SOLID
  5
446A
330
124E
100
AcDbEntity
  8
AM_5
100
AcDbTrace
 10
667.1662223916056
 20
244.4338151377765
 30
0.0
 11
667.1662223916056
 21
243.4338151377765
 31
0.0
 12
670.1662223916056
 22
243.9338151377765
 32
0.0
 13
670.1662223916056
 23
243.9338151377765
 33
0.0
  0
MTEXT
  5
446B
330
124E
100
AcDbEntity
  8
AM_5
100
AcDbMText
 10
660.1662223916056
 20
246.3838151377765
 30
0.0
 40
3.5
 41
0.0
 71
     5
 72
     1
  1
L3
 73
     1
 44
1.0
1001
ACAD
1000
MTEXTBEGIN
1070
    73
1070
     1
1070
    44
1040
1.0
1070
    74
1070
     0
1000
MTEXTEND
  0
POINT
  5
446C
330
124E
100
AcDbEntity
  8
Defpoints
 62
     0
100
AcDbPoint
 10
650.1662223916056
 20
256.8308151377765
 30
0.0
  0
POINT
  5
446D
330
124E
100
AcDbEntity
  8
Defpoints
 62
     0
100
AcDbPoint
 10
670.1662223916056
 20
256.8308151377764
 30
0.0
  0
POINT
  5
446E
330
124E
100
AcDbEntity
  8
Defpoints
 62
     0
100
AcDbPoint
 10
670.1662223916056
 20
243.9338151377765
 30
0.0
  0
ENDBLK
  5
1259
330
124E
100
AcDbEntity
  8
0
100
AcDbBlockEnd
  0
BLOCK
  5
1264
330
125A
100
AcDbEntity
  8
0
100
AcDbBlockBegin
  2
*D24
 70
     1
 10
0.0
 20
0.0
 30
0.0
  3
*D24
  1

  0
LINE
  5
472D
330
125A
100
AcDbEntity
  8
AM_5
100
AcDbLine
 10
638.2692223916055
 20
104.3722569257227
 30
0.0
 11
609.9544214655225
 21
104.3722569257227
 31
0.0
  0
LINE
  5
472E
330
125A
100
AcDbEntity
  8
AM_5
100
AcDbLine
 10
638.2692223916055
 20
94.37225692572274
 30
0.0
 11
609.9544214655225
 21
94.37225692572274
 31
0.0
  0
LINE
  5
472F
330
125A
100
AcDbEntity
  8
AM_5
100
AcDbLine
 10
611.4544214655225
 20
101.3722569257227
 30
0.0
 11
611.4544214655225
 21
97.37225692572275
 31
0.0
  0
SOLID
  5
4730
330
125A
100
AcDbEntity
  8
AM_5
100
AcDbTrace
 10
610.9544214655224
 20
101.3722569257227
 30
0.0
 11
611.9544214655225
 21
101.3722569257227
 31
0.0
 12
611.4544214655225
 22
104.3722569257227
 32
0.0
 13
611.4544214655225
 23
104.3722569257227
 33
0.0
  0
SOLID
  5
4731
330
125A
100
AcDbEntity
  8
AM_5
100
AcDbTrace
 10
610.9544214655224
 20
97.37225692572275
 30
0.0
 11
611.9544214655225
 21
97.37225692572275
 31
0.0
 12
611.4544214655225
 22
94.37225692572274
 32
0.0
 13
611.4544214655225
 23
94.37225692572274
 33
0.0
  0
MTEXT
  5
4732
330
125A
100
AcDbEntity
  8
AM_5
100
AcDbMText
 10
609.0044214655224
 20
99.37225692572285
 30
0.0
 40
3.5
 41
0.0
 71
     5
 72
     1
  1
10
 11
0.0000000000000001
 21
1.0
 31
0.0
 73
     1
 44
1.0
1001
ACAD
1000
MTEXTBEGIN
1070
    73
1070
     1
1070
    44
1040
1.0
1070
    74
1070
     0
1000
MTEXTEND
  0
POINT
  5
4733
330
125A
100
AcDbEntity
  8
Defpoints
 62
     0
100
AcDbPoint
 10
639.2692223916055
 20
104.3722569257227
 30
0.0
  0
POINT
  5
4734
330
125A
100
AcDbEntity
  8
Defpoints
 62
     0
100
AcDbPoint
 10
639.2692223916054
 20
94.37225692572274
 30
0.0
  0
POINT
  5
4735
330
125A
100
AcDbEntity
  8
Defpoints
 62
     0
100
AcDbPoint
 10
611.4544214655225
 20
94.37225692572274
 30
0.0
  0
ENDBLK
  5
1265
330
125A
100
AcDbEntity
  8
0
100
AcDbBlockEnd
  0
BLOCK
  5
1270
330
1266
100
AcDbEntity
  8
0
100
AcDbBlockBegin
  2
*D25
 70
     1
 10
0.0
 20
0.0
 30
0.0
  3
*D25
  1

  0
LINE
  5
4736
330
1266
100
AcDbEntity
  8
AM_5
100
AcDbLine
 10
630.6662223916056
 20
108.3722569257227
 30
0.0
 11
630.6662223916056
 21
116.6621759788817
 31
0.0
  0
LINE
  5
4737
330
1266
100
AcDbEntity
  8
AM_5
100
AcDbLine
 10
640.6662223916056
 20
106.7692569257228
 30
0.0
 11
640.6662223916056
 21
116.6621759788817
 31
0.0
  0
LINE
  5
4738
330
1266
100
AcDbEntity
  8
AM_5
100
AcDbLine
 10
633.6662223916056
 20
115.1621759788817
 30
0.0
 11
637.6662223916056
 21
115.1621759788817
 31
0.0
  0
SOLID
  5
4739
330
1266
100
AcDbEntity
  8
AM_5
100
AcDbTrace
 10
633.6662223916056
 20
115.6621759788817
 30
0.0
 11
633.6662223916056
 21
114.6621759788817
 31
0.0
 12
630.6662223916056
 22
115.1621759788817
 32
0.0
 13
630.6662223916056
 23
115.1621759788817
 33
0.0
  0
SOLID
  5
473A
330
1266
100
AcDbEntity
  8
AM_5
100
AcDbTrace
 10
637.6662223916056
 20
115.6621759788817
 30
0.0
 11
637.6662223916056
 21
114.6621759788817
 31
0.0
 12
640.6662223916056
 22
115.1621759788817
 32
0.0
 13
640.6662223916056
 23
115.1621759788817
 33
0.0
  0
MTEXT
  5
473B
330
1266
100
AcDbEntity
  8
AM_5
100
AcDbMText
 10
635.6662223916056
 20
117.6121759788817
 30
0.0
 40
3.5
 41
0.0
 71
     5
 72
     1
  1
10
 73
     1
 44
1.0
1001
ACAD
1000
MTEXTBEGIN
1070
    73
1070
     1
1070
    44
1040
1.0
1070
    74
1070
     0
1000
MTEXTEND
  0
POINT
  5
473C
330
1266
100
AcDbEntity
  8
Defpoints
 62
     0
100
AcDbPoint
 10
630.6662223916056
 20
107.3722569257227
 30
0.0
  0
POINT
  5
473D
330
1266
100
AcDbEntity
  8
Defpoints
 62
     0
100
AcDbPoint
 10
640.6662223916056
 20
105.7692569257228
 30
0.0
  0
POINT
  5
473E
330
1266
100
AcDbEntity
  8
Defpoints
 62
     0
100
AcDbPoint
 10
640.6662223916056
 20
115.1621759788817
 30
0.0
  0
ENDBLK
  5
1271
330
1266
100
AcDbEntity
  8
0
100
AcDbBlockEnd
  0
BLOCK
  5
127C
330
1272
100
AcDbEntity
  8
0
100
AcDbBlockBegin
  2
*D26
 70
     1
 10
0.0
 20
0.0
 30
0.0
  3
*D26
  1

  0
LINE
  5
473F
330
1272
100
AcDbEntity
  8
AM_5
100
AcDbLine
 10
640.6662223916056
 20
106.7692569257228
 30
0.0
 11
640.6662223916056
 21
116.6621759788817
 31
0.0
  0
LINE
  5
4740
330
1272
100
AcDbEntity
  8
AM_5
100
AcDbLine
 10
685.6662223916056
 20
106.7692569257228
 30
0.0
 11
685.6662223916056
 21
116.6621759788817
 31
0.0
  0
LINE
  5
4741
330
1272
100
AcDbEntity
  8
AM_5
100
AcDbLine
 10
643.6662223916056
 20
115.1621759788817
 30
0.0
 11
682.6662223916056
 21
115.1621759788817
 31
0.0
  0
SOLID
  5
4742
330
1272
100
AcDbEntity
  8
AM_5
100
AcDbTrace
 10
643.6662223916056
 20
115.6621759788817
 30
0.0
 11
643.6662223916056
 21
114.6621759788817
 31
0.0
 12
640.6662223916056
 22
115.1621759788817
 32
0.0
 13
640.6662223916056
 23
115.1621759788817
 33
0.0
  0
SOLID
  5
4743
330
1272
100
AcDbEntity
  8
AM_5
100
AcDbTrace
 10
682.6662223916056
 20
115.6621759788817
 30
0.0
 11
682.6662223916056
 21
114.6621759788817
 31
0.0
 12
685.6662223916056
 22
115.1621759788817
 32
0.0
 13
685.6662223916056
 23
115.1621759788817
 33
0.0
  0
MTEXT
  5
4744
330
1272
100
AcDbEntity
  8
AM_5
100
AcDbMText
 10
663.1662223916056
 20
117.6121759788817
 30
0.0
 40
3.5
 41
0.0
 71
     5
 72
     1
  1
5+stroke
 73
     1
 44
1.0
1001
ACAD
1000
MTEXTBEGIN
1070
    73
1070
     1
1070
    44
1040
1.0
1070
    74
1070
     0
1000
MTEXTEND
  0
POINT
  5
4745
330
1272
100
AcDbEntity
  8
Defpoints
 62
     0
100
AcDbPoint
 10
640.6662223916056
 20
105.7692569257228
 30
0.0
  0
POINT
  5
4746
330
1272
100
AcDbEntity
  8
Defpoints
 62
     0
100
AcDbPoint
 10
685.6662223916056
 20
105.7692569257228
 30
0.0
  0
POINT
  5
4747
330
1272
100
AcDbEntity
  8
Defpoints
 62
     0
100
AcDbPoint
 10
685.6662223916056
 20
115.1621759788817
 30
0.0
  0
ENDBLK
  5
127D
330
1272
100
AcDbEntity
  8
0
100
AcDbBlockEnd
  0
BLOCK
  5
1289
330
127E
100
AcDbEntity
  8
0
100
AcDbBlockBegin
  2
*D27
 70
     1
 10
0.0
 20
0.0
 30
0.0
  3
*D27
  1

  0
LINE
  5
47C5
330
127E
100
AcDbEntity
  8
AM_5
100
AcDbLine
 10
775.8634138853857
 20
197.7901926051811
 30
0.0
 11
775.8634138853857
 21
214.1357633314513
 31
0.0
  0
LINE
  5
47C6
330
127E
100
AcDbEntity
  8
AM_5
100
AcDbLine
 10
780.8634138853857
 20
197.7901926051811
 30
0.0
 11
780.8634138853857
 21
214.1357633314513
 31
0.0
  0
LINE
  5
47C7
330
127E
100
AcDbEntity
  8
AM_5
100
AcDbLine
 10
772.8634138853857
 20
212.6357633314514
 30
0.0
 11
769.8634138853857
 21
212.6357633314514
 31
0.0
  0
LINE
  5
47C8
330
127E
100
AcDbEntity
  8
AM_5
100
AcDbLine
 10
783.8634138853857
 20
212.6357633314514
 30
0.0
 11
824.2352415356931
 21
212.6357633314514
 31
0.0
  0
LINE
  5
47C9
330
127E
100
AcDbEntity
  8
AM_5
100
AcDbLine
 10
775.8634138853857
 20
212.6357633314514
 30
0.0
 11
780.8634138853857
 21
212.6357633314514
 31
0.0
  0
SOLID
  5
47CA
330
127E
100
AcDbEntity
  8
AM_5
100
AcDbTrace
 10
772.8634138853857
 20
213.1357633314514
 30
0.0
 11
772.8634138853857
 21
212.1357633314513
 31
0.0
 12
775.8634138853857
 22
212.6357633314514
 32
0.0
 13
775.8634138853857
 23
212.6357633314514
 33
0.0
  0
SOLID
  5
47CB
330
127E
100
AcDbEntity
  8
AM_5
100
AcDbTrace
 10
783.8634138853857
 20
213.1357633314514
 30
0.0
 11
783.8634138853857
 21
212.1357633314513
 31
0.0
 12
780.8634138853857
 22
212.6357633314514
 32
0.0
 13
780.8634138853857
 23
212.6357633314514
 33
0.0
  0
MTEXT
  5
47CC
330
127E
100
AcDbEntity
  8
AM_5
100
AcDbMText
 10
805.5493277105394
 20
215.5866897831897
 30
0.0
 40
3.5
 41
0.0
 71
     5
 72
     1
  1
guied rail width=5
 73
     1
 44
1.0
1001
ACAD
1000
MTEXTBEGIN
1070
    73
1070
     1
1070
    44
1040
1.0
1070
    74
1070
     0
1000
MTEXTEND
  0
POINT
  5
47CD
330
127E
100
AcDbEntity
  8
Defpoints
 62
     0
100
AcDbPoint
 10
775.8634138853857
 20
196.7901926051811
 30
0.0
  0
POINT
  5
47CE
330
127E
100
AcDbEntity
  8
Defpoints
 62
     0
100
AcDbPoint
 10
780.8634138853857
 20
196.7901926051811
 30
0.0
  0
POINT
  5
47CF
330
127E
100
AcDbEntity
  8
Defpoints
 62
     0
100
AcDbPoint
 10
780.8634138853857
 20
212.6357633314514
 30
0.0
  0
ENDBLK
  5
128A
330
127E
100
AcDbEntity
  8
0
100
AcDbBlockEnd
  0
BLOCK
  5
1295
330
128B
100
AcDbEntity
  8
0
100
AcDbBlockBegin
  2
*D28
 70
     1
 10
0.0
 20
0.0
 30
0.0
  3
*D28
  1

  0
LINE
  5
43ED
330
128B
100
AcDbEntity
  8
AM_5
100
AcDbLine
 10
769.7164138853858
 20
189.5901926051808
 30
0.0
 11
756.8634138853858
 21
189.5901926051808
 31
0.0
  0
LINE
  5
43EE
330
128B
100
AcDbEntity
  8
AM_5
100
AcDbLine
 10
770.7164138853856
 20
170.5901926051808
 30
0.0
 11
756.8634138853858
 21
170.5901926051808
 31
0.0
  0
LINE
  5
43EF
330
128B
100
AcDbEntity
  8
AM_5
100
AcDbLine
 10
758.3634138853859
 20
186.5901926051808
 30
0.0
 11
758.3634138853859
 21
173.5901926051808
 31
0.0
  0
SOLID
  5
43F0
330
128B
100
AcDbEntity
  8
AM_5
100
AcDbTrace
 10
757.8634138853858
 20
186.5901926051808
 30
0.0
 11
758.8634138853858
 21
186.5901926051808
 31
0.0
 12
758.3634138853859
 22
189.5901926051808
 32
0.0
 13
758.3634138853859
 23
189.5901926051808
 33
0.0
  0
SOLID
  5
43F1
330
128B
100
AcDbEntity
  8
AM_5
100
AcDbTrace
 10
757.8634138853858
 20
173.5901926051808
 30
0.0
 11
758.8634138853858
 21
173.5901926051808
 31
0.0
 12
758.3634138853859
 22
170.5901926051808
 32
0.0
 13
758.3634138853859
 23
170.5901926051808
 33
0.0
  0
MTEXT
  5
43F2
330
128B
100
AcDbEntity
  8
AM_5
100
AcDbMText
 10
755.9134138853858
 20
180.0901926051809
 30
0.0
 40
3.5
 41
0.0
 71
     5
 72
     1
  1
19
 11
0.0000000000000001
 21
1.0
 31
0.0
 73
     1
 44
1.0
1001
ACAD
1000
MTEXTBEGIN
1070
    73
1070
     1
1070
    44
1040
1.0
1070
    74
1070
     0
1000
MTEXTEND
  0
POINT
  5
43F3
330
128B
100
AcDbEntity
  8
Defpoints
 62
     0
100
AcDbPoint
 10
770.7164138853857
 20
189.5901926051808
 30
0.0
  0
POINT
  5
43F4
330
128B
100
AcDbEntity
  8
Defpoints
 62
     0
100
AcDbPoint
 10
771.7164138853856
 20
170.5901926051808
 30
0.0
  0
POINT
  5
43F5
330
128B
100
AcDbEntity
  8
Defpoints
 62
     0
100
AcDbPoint
 10
758.3634138853859
 20
170.5901926051808
 30
0.0
  0
ENDBLK
  5
1296
330
128B
100
AcDbEntity
  8
0
100
AcDbBlockEnd
  0
BLOCK
  5
12A2
330
1297
100
AcDbEntity
  8
0
100
AcDbBlockBegin
  2
*D29
 70
     1
 10
0.0
 20
0.0
 30
0.0
  3
*D29
  1

  0
LINE
  5
43F6
330
1297
100
AcDbEntity
  8
AM_5
100
AcDbLine
 10
769.7164138853858
 20
170.5901926051808
 30
0.0
 11
756.8634138853858
 21
170.5901926051808
 31
0.0
  0
LINE
  5
43F7
330
1297
100
AcDbEntity
  8
AM_5
100
AcDbLine
 10
769.3634138853858
 20
165.5901926051808
 30
0.0
 11
756.8634138853858
 21
165.5901926051808
 31
0.0
  0
LINE
  5
43F8
330
1297
100
AcDbEntity
  8
AM_5
100
AcDbLine
 10
758.3634138853859
 20
173.5901926051808
 30
0.0
 11
758.3634138853859
 21
176.5901926051808
 31
0.0
  0
LINE
  5
43F9
330
1297
100
AcDbEntity
  8
AM_5
100
AcDbLine
 10
758.3634138853859
 20
162.5901926051808
 30
0.0
 11
758.3634138853859
 21
159.5901926051808
 31
0.0
  0
LINE
  5
43FA
330
1297
100
AcDbEntity
  8
AM_5
100
AcDbLine
 10
758.3634138853859
 20
170.5901926051808
 30
0.0
 11
758.3634138853859
 21
165.5901926051808
 31
0.0
  0
SOLID
  5
43FB
330
1297
100
AcDbEntity
  8
AM_5
100
AcDbTrace
 10
757.8634138853858
 20
173.5901926051808
 30
0.0
 11
758.8634138853858
 21
173.5901926051808
 31
0.0
 12
758.3634138853859
 22
170.5901926051808
 32
0.0
 13
758.3634138853859
 23
170.5901926051808
 33
0.0
  0
SOLID
  5
43FC
330
1297
100
AcDbEntity
  8
AM_5
100
AcDbTrace
 10
757.8634138853858
 20
162.5901926051808
 30
0.0
 11
758.8634138853858
 21
162.5901926051808
 31
0.0
 12
758.3634138853859
 22
165.5901926051808
 32
0.0
 13
758.3634138853859
 23
165.5901926051808
 33
0.0
  0
MTEXT
  5
43FD
330
1297
100
AcDbEntity
  8
AM_5
100
AcDbMText
 10
755.9134138853858
 20
168.0901926051809
 30
0.0
 40
3.5
 41
0.0
 71
     5
 72
     1
  1
5
 11
0.0000000000000001
 21
1.0
 31
0.0
 73
     1
 44
1.0
1001
ACAD
1000
MTEXTBEGIN
1070
    73
1070
     1
1070
    44
1040
1.0
1070
    74
1070
     0
1000
MTEXTEND
  0
POINT
  5
43FE
330
1297
100
AcDbEntity
  8
Defpoints
 62
     0
100
AcDbPoint
 10
770.7164138853857
 20
170.5901926051808
 30
0.0
  0
POINT
  5
43FF
330
1297
100
AcDbEntity
  8
Defpoints
 62
     0
100
AcDbPoint
 10
770.3634138853858
 20
165.5901926051808
 30
0.0
  0
POINT
  5
4400
330
1297
100
AcDbEntity
  8
Defpoints
 62
     0
100
AcDbPoint
 10
758.3634138853859
 20
165.5901926051808
 30
0.0
  0
ENDBLK
  5
12A3
330
1297
100
AcDbEntity
  8
0
100
AcDbBlockEnd
  0
BLOCK
  5
12AE
330
12A4
100
AcDbEntity
  8
0
100
AcDbBlockBegin
  2
*D30
 70
     1
 10
0.0
 20
0.0
 30
0.0
  3
*D30
  1

  0
LINE
  5
4401
330
12A4
100
AcDbEntity
  8
AM_5
100
AcDbLine
 10
782.7604138853859
 20
189.0901926051808
 30
0.0
 11
799.8634138853859
 21
189.0901926051808
 31
0.0
  0
LINE
  5
4402
330
12A4
100
AcDbEntity
  8
AM_5
100
AcDbLine
 10
782.8634138853858
 20
171.0901926051808
 30
0.0
 11
799.8634138853859
 21
171.0901926051808
 31
0.0
  0
LINE
  5
4403
330
12A4
100
AcDbEntity
  8
AM_5
100
AcDbLine
 10
798.3634138853858
 20
186.0901926051808
 30
0.0
 11
798.3634138853858
 21
174.0901926051808
 31
0.0
  0
SOLID
  5
4404
330
12A4
100
AcDbEntity
  8
AM_5
100
AcDbTrace
 10
797.8634138853858
 20
186.0901926051808
 30
0.0
 11
798.8634138853858
 21
186.0901926051808
 31
0.0
 12
798.3634138853858
 22
189.0901926051808
 32
0.0
 13
798.3634138853858
 23
189.0901926051808
 33
0.0
  0
SOLID
  5
4405
330
12A4
100
AcDbEntity
  8
AM_5
100
AcDbTrace
 10
797.8634138853858
 20
174.0901926051808
 30
0.0
 11
798.8634138853858
 21
174.0901926051808
 31
0.0
 12
798.3634138853858
 22
171.0901926051808
 32
0.0
 13
798.3634138853858
 23
171.0901926051808
 33
0.0
  0
MTEXT
  5
4406
330
12A4
100
AcDbEntity
  8
AM_5
100
AcDbMText
 10
795.9134138853857
 20
180.0901926051809
 30
0.0
 40
3.5
 41
0.0
 71
     5
 72
     1
  1
18
 11
0.0000000000000001
 21
1.0
 31
0.0
 73
     1
 44
1.0
1001
ACAD
1000
MTEXTBEGIN
1070
    73
1070
     1
1070
    44
1040
1.0
1070
    74
1070
     0
1000
MTEXTEND
  0
POINT
  5
4407
330
12A4
100
AcDbEntity
  8
Defpoints
 62
     0
100
AcDbPoint
 10
781.7604138853859
 20
189.0901926051808
 30
0.0
  0
POINT
  5
4408
330
12A4
100
AcDbEntity
  8
Defpoints
 62
     0
100
AcDbPoint
 10
781.8634138853858
 20
171.0901926051808
 30
0.0
  0
POINT
  5
4409
330
12A4
100
AcDbEntity
  8
Defpoints
 62
     0
100
AcDbPoint
 10
798.3634138853858
 20
171.0901926051808
 30
0.0
  0
ENDBLK
  5
12AF
330
12A4
100
AcDbEntity
  8
0
100
AcDbBlockEnd
  0
BLOCK
  5
12BB
330
12B0
100
AcDbEntity
  8
0
100
AcDbBlockBegin
  2
*D31
 70
     1
 10
0.0
 20
0.0
 30
0.0
  3
*D31
  1

  0
LINE
  5
440A
330
12B0
100
AcDbEntity
  8
AM_5
100
AcDbLine
 10
782.8634138853858
 20
171.0901926051808
 30
0.0
 11
799.8634138853859
 21
171.0901926051808
 31
0.0
  0
LINE
  5
440B
330
12B0
100
AcDbEntity
  8
AM_5
100
AcDbLine
 10
787.3634138853859
 20
165.5901926051808
 30
0.0
 11
799.8634138853859
 21
165.5901926051808
 31
0.0
  0
LINE
  5
440C
330
12B0
100
AcDbEntity
  8
AM_5
100
AcDbLine
 10
798.3634138853858
 20
174.0901926051808
 30
0.0
 11
798.3634138853858
 21
177.0901926051808
 31
0.0
  0
LINE
  5
440D
330
12B0
100
AcDbEntity
  8
AM_5
100
AcDbLine
 10
798.3634138853858
 20
162.5901926051808
 30
0.0
 11
798.3634138853858
 21
153.1452178583503
 31
0.0
  0
LINE
  5
440E
330
12B0
100
AcDbEntity
  8
AM_5
100
AcDbLine
 10
798.3634138853858
 20
171.0901926051808
 30
0.0
 11
798.3634138853858
 21
165.5901926051808
 31
0.0
  0
SOLID
  5
440F
330
12B0
100
AcDbEntity
  8
AM_5
100
AcDbTrace
 10
797.8634138853858
 20
174.0901926051808
 30
0.0
 11
798.8634138853858
 21
174.0901926051808
 31
0.0
 12
798.3634138853858
 22
171.0901926051808
 32
0.0
 13
798.3634138853858
 23
171.0901926051808
 33
0.0
  0
SOLID
  5
4410
330
12B0
100
AcDbEntity
  8
AM_5
100
AcDbTrace
 10
797.8634138853858
 20
162.5901926051808
 30
0.0
 11
798.8634138853858
 21
162.5901926051808
 31
0.0
 12
798.3634138853858
 22
165.5901926051808
 32
0.0
 13
798.3634138853858
 23
165.5901926051808
 33
0.0
  0
MTEXT
  5
4411
330
12B0
100
AcDbEntity
  8
AM_5
100
AcDbMText
 10
795.9134138853857
 20
156.3677052317657
 30
0.0
 40
3.5
 41
0.0
 71
     5
 72
     1
  1
5.5
 11
0.0000000000000001
 21
1.0
 31
0.0
 73
     1
 44
1.0
1001
ACAD
1000
MTEXTBEGIN
1070
    73
1070
     1
1070
    44
1040
1.0
1070
    74
1070
     0
1000
MTEXTEND
  0
POINT
  5
4412
330
12B0
100
AcDbEntity
  8
Defpoints
 62
     0
100
AcDbPoint
 10
781.8634138853858
 20
171.0901926051808
 30
0.0
  0
POINT
  5
4413
330
12B0
100
AcDbEntity
  8
Defpoints
 62
     0
100
AcDbPoint
 10
786.3634138853858
 20
165.5901926051808
 30
0.0
  0
POINT
  5
4414
330
12B0
100
AcDbEntity
  8
Defpoints
 62
     0
100
AcDbPoint
 10
798.3634138853858
 20
165.5901926051808
 30
0.0
  0
ENDBLK
  5
12BC
330
12B0
100
AcDbEntity
  8
0
100
AcDbBlockEnd
  0
BLOCK
  5
12C7
330
12BD
100
AcDbEntity
  8
0
100
AcDbBlockBegin
  2
*D32
 70
     1
 10
0.0
 20
0.0
 30
0.0
  3
*D32
  1

  0
LINE
  5
4415
330
12BD
100
AcDbEntity
  8
AM_5
100
AcDbLine
 10
773.1134138853859
 20
168.1931926051808
 30
0.0
 11
773.1134138853859
 21
152.0901926051808
 31
0.0
  0
LINE
  5
4416
330
12BD
100
AcDbEntity
  8
AM_5
100
AcDbLine
 10
783.6134138853858
 20
168.1931926051808
 30
0.0
 11
783.6134138853858
 21
152.0901926051808
 31
0.0
  0
LINE
  5
4417
330
12BD
100
AcDbEntity
  8
AM_5
100
AcDbLine
 10
776.1134138853858
 20
153.5901926051808
 30
0.0
 11
780.6134138853858
 21
153.5901926051808
 31
0.0
  0
SOLID
  5
4418
330
12BD
100
AcDbEntity
  8
AM_5
100
AcDbTrace
 10
776.1134138853858
 20
154.0901926051808
 30
0.0
 11
776.1134138853858
 21
153.0901926051808
 31
0.0
 12
773.1134138853859
 22
153.5901926051808
 32
0.0
 13
773.1134138853859
 23
153.5901926051808
 33
0.0
  0
SOLID
  5
4419
330
12BD
100
AcDbEntity
  8
AM_5
100
AcDbTrace
 10
780.6134138853858
 20
154.0901926051808
 30
0.0
 11
780.6134138853858
 21
153.0901926051808
 31
0.0
 12
783.6134138853858
 22
153.5901926051808
 32
0.0
 13
783.6134138853858
 23
153.5901926051808
 33
0.0
  0
MTEXT
  5
441A
330
12BD
100
AcDbEntity
  8
AM_5
100
AcDbMText
 10
778.3634138853858
 20
156.0401926051808
 30
0.0
 40
3.5
 41
0.0
 71
     5
 72
     1
  1
10.5
 73
     1
 44
1.0
1001
ACAD
1000
MTEXTBEGIN
1070
    73
1070
     1
1070
    44
1040
1.0
1070
    74
1070
     0
1000
MTEXTEND
  0
POINT
  5
441B
330
12BD
100
AcDbEntity
  8
Defpoints
 62
     0
100
AcDbPoint
 10
773.1134138853859
 20
169.1931926051808
 30
0.0
  0
POINT
  5
441C
330
12BD
100
AcDbEntity
  8
Defpoints
 62
     0
100
AcDbPoint
 10
783.6134138853858
 20
169.1931926051808
 30
0.0
  0
POINT
  5
441D
330
12BD
100
AcDbEntity
  8
Defpoints
 62
     0
100
AcDbPoint
 10
783.6134138853858
 20
153.5901926051808
 30
0.0
  0
ENDBLK
  5
12C8
330
12BD
100
AcDbEntity
  8
0
100
AcDbBlockEnd
  0
BLOCK
  5
12D3
330
12C9
100
AcDbEntity
  8
0
100
AcDbBlockBegin
  2
*D33
 70
     1
 10
0.0
 20
0.0
 30
0.0
  3
*D33
  1

  0
LINE
  5
41DA
330
12C9
100
AcDbEntity
  8
AM_5
100
AcDbLine
 10
696.1662223916056
 20
189.0901926051808
 30
0.0
 11
715.1662223916056
 21
189.0901926051808
 31
0.0
  0
LINE
  5
41DB
330
12C9
100
AcDbEntity
  8
AM_5
100
AcDbLine
 10
696.1662223916056
 20
171.0901926051808
 30
0.0
 11
715.1662223916056
 21
171.0901926051808
 31
0.0
  0
LINE
  5
41DC
330
12C9
100
AcDbEntity
  8
AM_5
100
AcDbLine
 10
713.6662223916056
 20
186.0901926051808
 30
0.0
 11
713.6662223916056
 21
174.0901926051808
 31
0.0
  0
SOLID
  5
41DD
330
12C9
100
AcDbEntity
  8
AM_5
100
AcDbTrace
 10
713.1662223916056
 20
186.0901926051808
 30
0.0
 11
714.1662223916056
 21
186.0901926051808
 31
0.0
 12
713.6662223916056
 22
189.0901926051808
 32
0.0
 13
713.6662223916056
 23
189.0901926051808
 33
0.0
  0
SOLID
  5
41DE
330
12C9
100
AcDbEntity
  8
AM_5
100
AcDbTrace
 10
713.1662223916056
 20
174.0901926051808
 30
0.0
 11
714.1662223916056
 21
174.0901926051808
 31
0.0
 12
713.6662223916056
 22
171.0901926051808
 32
0.0
 13
713.6662223916056
 23
171.0901926051808
 33
0.0
  0
MTEXT
  5
41DF
330
12C9
100
AcDbEntity
  8
AM_5
100
AcDbMText
 10
711.2162223916056
 20
180.0901926051809
 30
0.0
 40
3.5
 41
0.0
 71
     5
 72
     1
  1
18
 11
0.0000000000000001
 21
1.0
 31
0.0
 73
     1
 44
1.0
1001
ACAD
1000
MTEXTBEGIN
1070
    73
1070
     1
1070
    44
1040
1.0
1070
    74
1070
     0
1000
MTEXTEND
  0
POINT
  5
41E0
330
12C9
100
AcDbEntity
  8
Defpoints
 62
     0
100
AcDbPoint
 10
695.1662223916056
 20
189.0901926051808
 30
0.0
  0
POINT
  5
41E1
330
12C9
100
AcDbEntity
  8
Defpoints
 62
     0
100
AcDbPoint
 10
695.1662223916056
 20
171.0901926051808
 30
0.0
  0
POINT
  5
41E2
330
12C9
100
AcDbEntity
  8
Defpoints
 62
     0
100
AcDbPoint
 10
713.6662223916056
 20
171.0901926051808
 30
0.0
  0
ENDBLK
  5
12D4
330
12C9
100
AcDbEntity
  8
0
100
AcDbBlockEnd
  0
BLOCK
  5
12E0
330
12D5
100
AcDbEntity
  8
0
100
AcDbBlockBegin
  2
*D34
 70
     1
 10
0.0
 20
0.0
 30
0.0
  3
*D34
  1

  0
LINE
  5
41E3
330
12D5
100
AcDbEntity
  8
AM_5
100
AcDbLine
 10
696.1662223916056
 20
171.0901926051808
 30
0.0
 11
715.1662223916056
 21
171.0901926051808
 31
0.0
  0
LINE
  5
41E4
330
12D5
100
AcDbEntity
  8
AM_5
100
AcDbLine
 10
702.6662223916056
 20
165.5901926051808
 30
0.0
 11
715.1662223916056
 21
165.5901926051808
 31
0.0
  0
LINE
  5
41E5
330
12D5
100
AcDbEntity
  8
AM_5
100
AcDbLine
 10
713.6662223916056
 20
174.0901926051808
 30
0.0
 11
713.6662223916056
 21
177.0901926051808
 31
0.0
  0
LINE
  5
41E6
330
12D5
100
AcDbEntity
  8
AM_5
100
AcDbLine
 10
713.6662223916056
 20
162.5901926051808
 30
0.0
 11
713.6662223916056
 21
153.1452178583502
 31
0.0
  0
LINE
  5
41E7
330
12D5
100
AcDbEntity
  8
AM_5
100
AcDbLine
 10
713.6662223916056
 20
171.0901926051808
 30
0.0
 11
713.6662223916056
 21
165.5901926051808
 31
0.0
  0
SOLID
  5
41E8
330
12D5
100
AcDbEntity
  8
AM_5
100
AcDbTrace
 10
713.1662223916056
 20
174.0901926051808
 30
0.0
 11
714.1662223916056
 21
174.0901926051808
 31
0.0
 12
713.6662223916056
 22
171.0901926051808
 32
0.0
 13
713.6662223916056
 23
171.0901926051808
 33
0.0
  0
SOLID
  5
41E9
330
12D5
100
AcDbEntity
  8
AM_5
100
AcDbTrace
 10
713.1662223916056
 20
162.5901926051808
 30
0.0
 11
714.1662223916056
 21
162.5901926051808
 31
0.0
 12
713.6662223916056
 22
165.5901926051808
 32
0.0
 13
713.6662223916056
 23
165.5901926051808
 33
0.0
  0
MTEXT
  5
41EA
330
12D5
100
AcDbEntity
  8
AM_5
100
AcDbMText
 10
711.2162223916056
 20
156.3677052317656
 30
0.0
 40
3.5
 41
0.0
 71
     5
 72
     1
  1
5.5
 11
0.0000000000000001
 21
1.0
 31
0.0
 73
     1
 44
1.0
1001
ACAD
1000
MTEXTBEGIN
1070
    73
1070
     1
1070
    44
1040
1.0
1070
    74
1070
     0
1000
MTEXTEND
  0
POINT
  5
41EB
330
12D5
100
AcDbEntity
  8
Defpoints
 62
     0
100
AcDbPoint
 10
695.1662223916056
 20
171.0901926051808
 30
0.0
  0
POINT
  5
41EC
330
12D5
100
AcDbEntity
  8
Defpoints
 62
     0
100
AcDbPoint
 10
701.6662223916056
 20
165.5901926051808
 30
0.0
  0
POINT
  5
41ED
330
12D5
100
AcDbEntity
  8
Defpoints
 62
     0
100
AcDbPoint
 10
713.6662223916056
 20
165.5901926051808
 30
0.0
  0
ENDBLK
  5
12E1
330
12D5
100
AcDbEntity
  8
0
100
AcDbBlockEnd
  0
BLOCK
  5
425C
330
4259
100
AcDbEntity
  8
0
100
AcDbBlockBegin
  2
GENDOT
 70
     0
 10
0.0
 20
0.0
 30
0.0
  3
GENDOT
  1

  0
LINE
  5
425A
330
4259
100
AcDbEntity
  8
0
100
AcDbLine
 10
0.0
 20
0.0
 30
0.0
 11
-1.0
 21
0.0
 31
0.0
  0
LWPOLYLINE
  5
425B
330
4259
100
AcDbEntity
  8
0
100
AcDbPolyline
 90
        2
 70
     1
 43
0.25
 10
-0.125
 20
0.0
 42
1.0
 10
0.125
 20
0.0
 42
1.0
  0
ENDBLK
  5
425D
330
4259
100
AcDbEntity
  8
0
100
AcDbBlockEnd
  0
BLOCK
  5
4474
330
4471
100
AcDbEntity
  8
0
100
AcDbBlockBegin
  2
A$C1F6E6265
 70
     0
 10
0.0
 20
0.0
 30
0.0
  3
A$C1F6E6265
  1

  0
LINE
  5
4475
330
4471
100
AcDbEntity
  8
AM_5
 62
     5
100
AcDbLine
 10
12.57846733029419
 20
0.460783587398737
 30
0.0
 11
7.091423997858555
 21
0.460783587398737
 31
0.0
  0
LINE
  5
4476
330
4471
100
AcDbEntity
  8
AM_5
 62
     5
100
AcDbLine
 10
7.091423997858555
 20
0.460783587398737
 30
0.0
 11
3.50000046420655
 21
0.460783587398737
 31
0.0
  0
TRACE
  5
4477
330
4471
100
AcDbEntity
  8
AM_5
 62
     5
370
    35
100
AcDbTrace
 10
3.50000046420655
 20
0.9215673268987245
 30
0.0
 11
3.50000046420655
 21
-0.0000001521012507
 31
0.0
 12
0.0000004642065505
 22
0.460783587398737
 32
0.0
 13
0.0000004642065505
 23
0.460783587398737
 33
0.0
  0
MTEXT
  5
4478
330
4471
100
AcDbEntity
  8
AM_5
 62
     5
100
AcDbMText
 10
6.603782167567317
 20
1.421084835219261
 30
0.0
 40
2.449999999999999
 41
0.0
 71
     7
 72
     5
  1
SL
  7
ACISOTS
 73
     1
 44
1.0
1001
ACAD
1000
MTEXTBEGIN
1070
    73
1070
     1
1070
    44
1040
1.0
1070
    74
1070
     0
1000
MTEXTEND
  0
ENDBLK
  5
4479
330
4471
100
AcDbEntity
  8
0
100
AcDbBlockEnd
  0
BLOCK
  5
4488
330
4486
100
AcDbEntity
  8
0
100
AcDbBlockBegin
  2
A$C5ECF147B
 70
     0
 10
0.0
 20
0.0
 30
0.0
  3
A$C5ECF147B
  1

  0
CIRCLE
  5
4489
330
4486
100
AcDbEntity
  8
0
100
AcDbCircle
 10
-3.079240456948355
 20
2.061381943681453
 30
0.0
 40
1.25
  0
CIRCLE
  5
448A
330
4486
100
AcDbEntity
  8
0
100
AcDbCircle
 10
-3.079240456948355
 20
2.061381943681453
 30
0.0
 40
0.75
  0
ENDBLK
  5
448B
330
4486
100
AcDbEntity
  8
0
100
AcDbBlockEnd
  0
BLOCK
  5
4805
330
4800
100
AcDbEntity
  8
0
100
AcDbBlockBegin
  2
*S38
 70
     1
 10
0.0
 20
0.0
 30
0.0
  3
*S38
  1

  0
LINE
  5
4801
330
4800
100
AcDbEntity
  8
AM_5
 62
     5
100
AcDbLine
 10
598.1895898385126
 20
211.4115547208899
 30
0.0
 11
555.9117304131988
 21
211.4115547208899
 31
0.0
  0
LINE
  5
4802
330
4800
100
AcDbEntity
  8
AM_5
 62
     5
100
AcDbLine
 10
555.9117304131988
 20
211.4115547208899
 30
0.0
 11
558.2293157116782
 21
192.2426539722366
 31
0.0
  0
TRACE
  5
4803
330
4800
100
AcDbEntity
  8
AM_5
 62
     5
370
    35
100
AcDbTrace
 10
557.7718632781568
 20
192.1873464171199
 30
0.0
 11
558.6867681451995
 21
192.2979615273533
 31
0.0
 12
558.6494183027951
 22
188.7679577534375
 32
0.0
 13
558.6494183027951
 23
188.7679577534375
 33
0.0
  0
MTEXT
  5
4804
330
4800
100
AcDbEntity
  8
AM_5
 62
     5
100
AcDbMText
 10
598.1895898385126
 20
220.6161231801341
 30
0.0
 40
3.5
 41
0.0
 71
     7
 72
     5
  1

  7
ACISOTS
 73
     1
 44
1.0
1001
ACAD
1000
MTEXTBEGIN
1070
    73
1070
     1
1070
    44
1040
1.0
1070
    74
1070
     0
1000
MTEXTEND
  0
ENDBLK
  5
4806
330
4800
100
AcDbEntity
  8
0
100
AcDbBlockEnd
  0
BLOCK
  5
480D
330
4808
100
AcDbEntity
  8
0
100
AcDbBlockBegin
  2
*S39
 70
     1
 10
0.0
 20
0.0
 30
0.0
  3
*S39
  1

  0
LINE
  5
4809
330
4808
100
AcDbEntity
  8
AM_5
 62
     5
100
AcDbLine
 10
689.9905790357928
 20
220.2413389055351
 30
0.0
 11
645.5786673803624
 21
220.2413389055351
 31
0.0
  0
LINE
  5
480A
330
4808
100
AcDbEntity
  8
AM_5
 62
     5
100
AcDbLine
 10
645.5786673803624
 20
220.2413389055351
 30
0.0
 11
637.6579863153783
 21
195.1835973127773
 31
0.0
  0
TRACE
  5
480B
330
4808
100
AcDbEntity
  8
AM_5
 62
     5
370
    35
100
AcDbTrace
 10
637.2186297653509
 20
195.3224766724233
 30
0.0
 11
638.0973428654057
 21
195.0447179531313
 31
0.0
 12
636.6030928434676
 22
191.8463529760647
 32
0.0
 13
636.6030928434676
 23
191.8463529760647
 33
0.0
  0
MTEXT
  5
480C
330
4808
100
AcDbEntity
  8
AM_5
 62
     5
100
AcDbMText
 10
689.9905790357928
 20
229.2181791200653
 30
0.0
 40
3.5
 41
0.0
 71
     7
 72
     5
  1

  7
ACISOTS
 73
     1
 44
1.0
1001
ACAD
1000
MTEXTBEGIN
1070
    73
1070
     1
1070
    44
1040
1.0
1070
    74
1070
     0
1000
MTEXTEND
  0
ENDBLK
  5
480E
330
4808
100
AcDbEntity
  8
0
100
AcDbBlockEnd
  0
BLOCK
  5
4815
330
4810
100
AcDbEntity
  8
0
100
AcDbBlockBegin
  2
*S40
 70
     1
 10
0.0
 20
0.0
 30
0.0
  3
*S40
  1

  0
LINE
  5
4811
330
4810
100
AcDbEntity
  8
AM_5
 62
     5
100
AcDbLine
 10
744.5958971488717
 20
213.8806398564546
 30
0.0
 11
703.5503340695611
 21
213.8806398564546
 31
0.0
  0
LINE
  5
4812
330
4810
100
AcDbEntity
  8
AM_5
 62
     5
100
AcDbLine
 10
703.5503340695611
 20
213.8806398564546
 30
0.0
 11
694.8365332493875
 21
193.9115271367494
 31
0.0
  0
TRACE
  5
4813
330
4810
100
AcDbEntity
  8
AM_5
 62
     5
370
    35
100
AcDbTrace
 10
694.4142068551245
 20
194.0958151485586
 30
0.0
 11
695.2588596436502
 21
193.7272391249402
 31
0.0
 12
693.4367268195162
 22
190.7036396763026
 32
0.0
 13
693.4367268195162
 23
190.7036396763026
 33
0.0
  0
MTEXT
  5
4814
330
4810
100
AcDbEntity
  8
AM_5
 62
     5
100
AcDbMText
 10
744.5958971488717
 20
223.1914025161771
 30
0.0
 40
3.5
 41
0.0
 71
     7
 72
     5
  1

  7
ACISOTS
 73
     1
 44
1.0
1001
ACAD
1000
MTEXTBEGIN
1070
    73
1070
     1
1070
    44
1040
1.0
1070
    74
1070
     0
1000
MTEXTEND
  0
ENDBLK
  5
4816
330
4810
100
AcDbEntity
  8
0
100
AcDbBlockEnd
  0
BLOCK
  5
481D
330
4818
100
AcDbEntity
  8
0
100
AcDbBlockBegin
  2
*S41
 70
     1
 10
0.0
 20
0.0
 30
0.0
  3
*S41
  1

  0
LINE
  5
4819
330
4818
100
AcDbEntity
  8
AM_5
 62
     5
100
AcDbLine
 10
810.7175010267258
 20
201.1322681807746
 30
0.0
 11
789.5939619468117
 21
201.1322681807746
 31
0.0
  0
LINE
  5
481A
330
4818
100
AcDbEntity
  8
AM_5
 62
     5
100
AcDbLine
 10
789.5939619468117
 20
201.1322681807746
 30
0.0
 11
782.4765720431174
 21
193.4581473751657
 31
0.0
  0
TRACE
  5
481B
330
4818
100
AcDbEntity
  8
AM_5
 62
     5
370
    35
100
AcDbTrace
 10
782.1387244448028
 20
193.7714852996188
 30
0.0
 11
782.8144196414321
 21
193.1448094507125
 31
0.0
 12
780.0965342041607
 22
190.8919400793429
 32
0.0
 13
780.0965342041607
 23
190.8919400793429
 33
0.0
  0
MTEXT
  5
481C
330
4818
100
AcDbEntity
  8
AM_5
 62
     5
100
AcDbMText
 10
810.7175010267258
 20
211.2877907370994
 30
0.0
 40
3.5
 41
0.0
 71
     7
 72
     5
  1

  7
ACISOTS
 73
     1
 44
1.0
1001
ACAD
1000
MTEXTBEGIN
1070
    73
1070
     1
1070
    44
1040
1.0
1070
    74
1070
     0
1000
MTEXTEND
  0
ENDBLK
  5
481E
330
4818
100
AcDbEntity
  8
0
100
AcDbBlockEnd
  0
BLOCK
  5
4825
330
4820
100
AcDbEntity
  8
0
100
AcDbBlockBegin
  2
*S42
 70
     1
 10
0.0
 20
0.0
 30
0.0
  3
*S42
  1

  0
LINE
  5
4821
330
4820
100
AcDbEntity
  8
AM_5
 62
     5
100
AcDbLine
 10
723.0756290413056
 20
197.0971799787389
 30
0.0
 11
763.5745906446958
 21
197.0971799787389
 31
0.0
  0
LINE
  5
4822
330
4820
100
AcDbEntity
  8
AM_5
 62
     5
100
AcDbLine
 10
763.5745906446958
 20
197.0971799787389
 30
0.0
 11
769.2521081436124
 21
192.7295094175166
 31
0.0
  0
TRACE
  5
4823
330
4820
100
AcDbEntity
  8
AM_5
 62
     5
370
    35
100
AcDbTrace
 10
768.971149218586
 20
192.3642920342561
 30
0.0
 11
769.5330670686387
 21
193.0947268007771
 31
0.0
 12
772.0262095969295
 22
190.5954144977195
 32
0.0
 13
772.0262095969295
 23
190.5954144977195
 33
0.0
  0
MTEXT
  5
4824
330
4820
100
AcDbEntity
  8
AM_5
 62
     5
100
AcDbMText
 10
723.0756290413056
 20
202.2182327436496
 30
0.0
 40
3.5
 41
0.0
 71
     7
 72
     5
  1

  7
ACISOTS
210
0.0
220
0.0
230
-1.0
 11
-1.0
 21
0.0
 31
0.0
 73
     1
 44
1.0
1001
ACAD
1000
MTEXTBEGIN
1070
    73
1070
     1
1070
    44
1040
1.0
1070
    74
1070
     0
1000
MTEXTEND
  0
ENDBLK
  5
4826
330
4820
100
AcDbEntity
  8
0
100
AcDbBlockEnd
  0
BLOCK
  5
482D
330
4828
100
AcDbEntity
  8
0
100
AcDbBlockBegin
  2
*S43
 70
     1
 10
0.0
 20
0.0
 30
0.0
  3
*S43
  1

  0
LINE
  5
4829
330
4828
100
AcDbEntity
  8
AM_5
 62
     5
100
AcDbLine
 10
720.6786543715172
 20
246.6500924762554
 30
0.0
 11
679.7524827585787
 21
246.6500924762554
 31
0.0
  0
LINE
  5
482A
330
4828
100
AcDbEntity
  8
AM_5
 62
     5
100
AcDbLine
 10
679.7524827585787
 20
246.6500924762554
 30
0.0
 11
673.3213215536659
 21
255.4033559188668
 31
0.0
  0
TRACE
  5
482B
330
4828
100
AcDbEntity
  8
AM_5
 62
     5
370
    35
100
AcDbTrace
 10
673.6926548996599
 20
255.6761804059285
 30
0.0
 11
672.9499882076719
 21
255.130531431805
 31
0.0
 12
671.2490138247683
 22
258.2239127214771
 32
0.0
 13
671.2490138247683
 23
258.2239127214771
 33
0.0
  0
MTEXT
  5
482C
330
4828
100
AcDbEntity
  8
AM_5
 62
     5
100
AcDbMText
 10
720.6786543715172
 20
255.9608551359779
 30
0.0
 40
3.5
 41
0.0
 71
     7
 72
     5
  1

  7
ACISOTS
 73
     1
 44
1.0
1001
ACAD
1000
MTEXTBEGIN
1070
    73
1070
     1
1070
    44
1040
1.0
1070
    74
1070
     0
1000
MTEXTEND
  0
ENDBLK
  5
482E
330
4828
100
AcDbEntity
  8
0
100
AcDbBlockEnd
  0
BLOCK
  5
4835
330
4830
100
AcDbEntity
  8
0
100
AcDbBlockBegin
  2
*S44
 70
     1
 10
0.0
 20
0.0
 30
0.0
  3
*S44
  1

  0
LINE
  5
4831
330
4830
100
AcDbEntity
  8
AM_5
 62
     5
100
AcDbLine
 10
635.7198074854547
 20
78.13244919993849
 30
0.0
 11
677.0320906328304
 21
78.13244919993849
 31
0.0
  0
LINE
  5
4832
330
4830
100
AcDbEntity
  8
AM_5
 62
     5
100
AcDbLine
 10
677.0320906328304
 20
78.13244919993849
 30
0.0
 11
683.1672562582123
 21
90.33193421266792
 31
0.0
  0
TRACE
  5
4833
330
4830
100
AcDbEntity
  8
AM_5
 62
     5
370
    35
100
AcDbTrace
 10
683.5789145288775
 20
90.12490976295108
 30
0.0
 11
682.7555979875471
 21
90.53895866238475
 31
0.0
 12
684.7397630805998
 22
93.45878922906138
 32
0.0
 13
684.7397630805998
 23
93.45878922906138
 33
0.0
  0
MTEXT
  5
4834
330
4830
100
AcDbEntity
  8
AM_5
 62
     5
100
AcDbMText
 10
635.7198074854547
 20
84.40671215867519
 30
0.0
 40
3.5
 41
0.0
 71
     7
 72
     5
  1

  7
ACISOTS
210
0.0
220
0.0
230
-1.0
 11
-1.0
 21
0.0
 31
0.0
 73
     1
 44
1.0
1001
ACAD
1000
MTEXTBEGIN
1070
    73
1070
     1
1070
    44
1040
1.0
1070
    74
1070
     0
1000
MTEXTEND
  0
ENDBLK
  5
4836
330
4830
100
AcDbEntity
  8
0
100
AcDbBlockEnd
  0
ENDSEC
  0
SECTION
  2
ENTITIES
  0
ARC
  5
ED0
330
1F
100
AcDbEntity
  8
AM_4
  6
Continuous
100
AcDbCircle
 10
550.5770143429388
 20
187.5901926051809
 30
0.0
 40
1.5
100
AcDbArc
 50
256.2000917825407
 51
193.4126368749697
  0
ARC
  5
EDD
330
1F
100
AcDbEntity
  8
AM_4
  6
Continuous
100
AcDbCircle
 10
634.6662223916056
 20
189.5901926051808
 30
0.0
 40
2.0
100
AcDbArc
 50
258.0588206442139
 51
196.4244819092023
  0
CIRCLE
  5
EDE
330
1F
100
AcDbEntity
  8
AM_4
  6
HIDDEN2
100
AcDbCircle
 10
634.6662223916056
 20
170.5901926051808
 30
0.0
 40
1.649999999999999
  0
LINE
  5
F1A
330
1F
100
AcDbEntity
  8
AM_VIS
100
AcDbLine
 10
563.0770143429386
 20
197.2901926051809
 30
0.0
 11
563.0770143429386
 21
185.9901926051808
 31
0.0
  0
LINE
  5
F1B
330
1F
100
AcDbEntity
  8
AM_VIS
100
AcDbLine
 10
563.0770143429386
 20
165.5901926051808
 30
0.0
 11
547.0770143429387
 21
165.5901926051808
 31
0.0
  0
LINE
  5
F1C
330
1F
100
AcDbEntity
  8
AM_VIS
100
AcDbLine
 10
547.2770143429386
 20
185.7901926051809
 30
0.0
 11
547.5770143429387
 21
185.7901926051809
 31
0.0
  0
LINE
  5
F1D
330
1F
100
AcDbEntity
  8
AM_VIS
100
AcDbLine
 10
547.0770143429387
 20
185.9901926051808
 30
0.0
 11
547.0770143429387
 21
197.2901926051809
 31
0.0
  0
LINE
  5
F1E
330
1F
100
AcDbEntity
  8
AM_VIS
100
AcDbLine
 10
547.0770143429387
 20
197.2901926051809
 30
0.0
 11
547.5770143429388
 21
197.2901926051809
 31
0.0
  0
LINE
  5
F1F
330
1F
100
AcDbEntity
  8
AM_VIS
100
AcDbLine
 10
547.5770143429387
 20
182.3901926051808
 30
0.0
 11
547.2770143429386
 21
182.3901926051808
 31
0.0
  0
LINE
  5
F20
330
1F
100
AcDbEntity
  8
AM_VIS
100
AcDbLine
 10
547.5770143429387
 20
174.3901926051808
 30
0.0
 11
547.2770143429386
 21
174.3901926051808
 31
0.0
  0
LINE
  5
F21
330
1F
100
AcDbEntity
  8
AM_VIS
100
AcDbLine
 10
547.2770143429386
 20
177.7901926051809
 30
0.0
 11
547.5770143429387
 21
177.7901926051809
 31
0.0
  0
LINE
  5
F22
330
1F
100
AcDbEntity
  8
AM_VIS
100
AcDbLine
 10
547.0770143429387
 20
177.9901926051808
 30
0.0
 11
547.0770143429387
 21
182.1901926051809
 31
0.0
  0
LINE
  5
F23
102
{ACAD_REACTORS
330
104E
102
}
330
1F
100
AcDbEntity
  8
AM_VIS
100
AcDbLine
 10
547.0770143429387
 20
165.5901926051808
 30
0.0
 11
547.0770143429387
 21
174.1901926051808
 31
0.0
  0
LINE
  5
F24
330
1F
100
AcDbEntity
  8
AM_VIS
100
AcDbLine
 10
563.0770143429386
 20
182.1901926051809
 30
0.0
 11
563.0770143429386
 21
177.9901926051808
 31
0.0
  0
LINE
  5
F25
330
1F
100
AcDbEntity
  8
AM_VIS
100
AcDbLine
 10
562.5770143429386
 20
185.7901926051809
 30
0.0
 11
562.8770143429387
 21
185.7901926051809
 31
0.0
  0
LINE
  5
F26
330
1F
100
AcDbEntity
  8
AM_VIS
100
AcDbLine
 10
562.8770143429387
 20
182.3901926051808
 30
0.0
 11
562.5770143429388
 21
182.3901926051808
 31
0.0
  0
LINE
  5
F27
102
{ACAD_REACTORS
330
104E
330
105A
102
}
330
1F
100
AcDbEntity
  8
AM_VIS
100
AcDbLine
 10
563.0770143429386
 20
174.1901926051808
 30
0.0
 11
563.0770143429386
 21
165.5901926051808
 31
0.0
  0
LINE
  5
F28
330
1F
100
AcDbEntity
  8
AM_VIS
100
AcDbLine
 10
562.5770143429386
 20
177.7901926051809
 30
0.0
 11
562.8770143429387
 21
177.7901926051809
 31
0.0
  0
LINE
  5
F29
330
1F
100
AcDbEntity
  8
AM_VIS
100
AcDbLine
 10
562.8770143429387
 20
174.3901926051808
 30
0.0
 11
562.5770143429388
 21
174.3901926051808
 31
0.0
  0
LINE
  5
F2A
330
1F
100
AcDbEntity
  8
AM_VIS
100
AcDbLine
 10
562.5770143429388
 20
197.2901926051809
 30
0.0
 11
563.0770143429386
 21
197.2901926051809
 31
0.0
  0
ARC
  5
F2B
330
1F
100
AcDbEntity
  8
AM_VIS
100
AcDbCircle
 10
547.2770143429386
 20
185.9901926051808
 30
0.0
 40
0.2
100
AcDbArc
 50
180.0
 51
270.0
  0
ARC
  5
F2C
330
1F
100
AcDbEntity
  8
AM_VIS
100
AcDbCircle
 10
547.2770143429386
 20
182.1901926051809
 30
0.0
 40
0.2
100
AcDbArc
 50
90.0
 51
180.0
  0
ARC
  5
F2D
330
1F
100
AcDbEntity
  8
AM_VIS
100
AcDbCircle
 10
547.2770143429386
 20
177.9901926051808
 30
0.0
 40
0.2000000000000001
100
AcDbArc
 50
180.0
 51
270.0
  0
ARC
  5
F2E
330
1F
100
AcDbEntity
  8
AM_VIS
100
AcDbCircle
 10
547.2770143429386
 20
174.1901926051808
 30
0.0
 40
0.2
100
AcDbArc
 50
90.0
 51
180.0
  0
ARC
  5
F2F
330
1F
100
AcDbEntity
  8
AM_VIS
100
AcDbCircle
 10
562.8770143429387
 20
185.9901926051808
 30
0.0
 40
0.2
100
AcDbArc
 50
270.0
 51
0.0
  0
ARC
  5
F30
330
1F
100
AcDbEntity
  8
AM_VIS
100
AcDbCircle
 10
562.8770143429387
 20
182.1901926051809
 30
0.0
 40
0.2
100
AcDbArc
 50
0.0
 51
90.0
  0
ARC
  5
F31
330
1F
100
AcDbEntity
  8
AM_VIS
100
AcDbCircle
 10
562.8770143429387
 20
177.9901926051808
 30
0.0
 40
0.2
100
AcDbArc
 50
270.0
 51
0.0
  0
ARC
  5
F32
330
1F
100
AcDbEntity
  8
AM_VIS
100
AcDbCircle
 10
562.8770143429386
 20
174.1901926051808
 30
0.0
 40
0.2000000000000001
100
AcDbArc
 50
0.0
 51
90.0
  0
CIRCLE
  5
F33
330
1F
100
AcDbEntity
  8
AM_VIS
100
AcDbCircle
 10
555.0777402851024
 20
180.0894666630171
 30
0.0
 40
1.149999999999999
  0
LINE
  5
F34
330
1F
100
AcDbEntity
  8
AM_VIS
100
AcDbLine
 10
547.5770143429388
 20
204.590192605181
 30
0.0
 11
562.5770143429388
 21
204.590192605181
 31
0.0
  0
LINE
  5
F35
330
1F
100
AcDbEntity
  8
AM_VIS
100
AcDbLine
 10
547.5770143429388
 20
204.590192605181
 30
0.0
 11
547.5770143429388
 21
166.5901926051809
 31
0.0
  0
LINE
  5
F36
102
{ACAD_REACTORS
330
1051
330
1057
330
105A
102
}
330
1F
100
AcDbEntity
  8
AM_VIS
100
AcDbLine
 10
562.5770143429388
 20
204.590192605181
 30
0.0
 11
562.5770143429388
 21
166.5901926051809
 31
0.0
  0
LINE
  5
F37
102
{ACAD_REACTORS
330
1057
102
}
330
1F
100
AcDbEntity
  8
AM_VIS
100
AcDbLine
 10
547.5770143429388
 20
166.5901926051809
 30
0.0
 11
562.5770143429388
 21
166.5901926051809
 31
0.0
  0
CIRCLE
  5
F38
330
1F
100
AcDbEntity
  8
AM_VIS
100
AcDbCircle
 10
550.5770143429388
 20
172.5901926051809
 30
0.0
 40
1.199999999999999
  0
CIRCLE
  5
F39
330
1F
100
AcDbEntity
  8
AM_VIS
100
AcDbCircle
 10
559.5770143429388
 20
172.5901926051809
 30
0.0
 40
1.199999999999999
  0
CIRCLE
  5
F3A
330
1F
100
AcDbEntity
  8
AM_VIS
100
AcDbCircle
 10
550.5770143429388
 20
187.5901926051809
 30
0.0
 40
1.199999999999999
  0
CIRCLE
  5
F3B
330
1F
100
AcDbEntity
  8
AM_VIS
100
AcDbCircle
 10
559.5770143429388
 20
187.5901926051809
 30
0.0
 40
1.199999999999999
  0
CIRCLE
  5
F3C
330
1F
100
AcDbEntity
  8
AM_VIS
100
AcDbCircle
 10
555.0770143429388
 20
180.0901926051809
 30
0.0
 40
5.5
  0
LINE
  5
F3D
330
1F
100
AcDbEntity
  8
AM_VIS
100
AcDbLine
 10
555.0777402851024
 20
176.0487407208534
 30
0.0
 11
553.3277402851024
 21
177.0591036919352
 31
0.0
  0
LINE
  5
F3E
330
1F
100
AcDbEntity
  8
AM_VIS
100
AcDbLine
 10
555.0777402851024
 20
176.0487407208534
 30
0.0
 11
556.8277402851024
 21
177.0591036919352
 31
0.0
  0
LINE
  5
F3F
330
1F
100
AcDbEntity
  8
AM_VIS
100
AcDbLine
 10
556.8277402851024
 20
177.0591036919352
 30
0.0
 11
558.5777402851024
 21
178.0694666630171
 31
0.0
  0
LINE
  5
F40
330
1F
100
AcDbEntity
  8
AM_VIS
100
AcDbLine
 10
558.5777402851025
 20
178.0694666630171
 30
0.0
 11
558.5777402851025
 21
180.0901926051808
 31
0.0
  0
LINE
  5
F41
330
1F
100
AcDbEntity
  8
AM_VIS
100
AcDbLine
 10
558.5777402851024
 20
180.0901926051808
 30
0.0
 11
558.5777402851024
 21
182.1109185473444
 31
0.0
  0
LINE
  5
F42
330
1F
100
AcDbEntity
  8
AM_VIS
100
AcDbLine
 10
558.5777402851024
 20
182.1109185473444
 30
0.0
 11
556.8277402851024
 21
183.1212815184262
 31
0.0
  0
LINE
  5
F43
330
1F
100
AcDbEntity
  8
AM_VIS
100
AcDbLine
 10
553.3277402851024
 20
183.1212815184262
 30
0.0
 11
555.0777402851024
 21
184.1316444895081
 31
0.0
  0
LINE
  5
F44
330
1F
100
AcDbEntity
  8
AM_VIS
100
AcDbLine
 10
556.8277402851024
 20
183.1212815184262
 30
0.0
 11
555.0777402851024
 21
184.1316444895081
 31
0.0
  0
LINE
  5
F45
330
1F
100
AcDbEntity
  8
AM_VIS
100
AcDbLine
 10
551.5777402851024
 20
180.0901926051808
 30
0.0
 11
551.5777402851024
 21
182.1109185473444
 31
0.0
  0
LINE
  5
F46
330
1F
100
AcDbEntity
  8
AM_VIS
100
AcDbLine
 10
551.5777402851024
 20
182.1109185473444
 30
0.0
 11
553.3277402851024
 21
183.1212815184262
 31
0.0
  0
LINE
  5
F47
330
1F
100
AcDbEntity
  8
AM_VIS
100
AcDbLine
 10
553.3277402851024
 20
177.0591036919352
 30
0.0
 11
551.5777402851024
 21
178.0694666630171
 31
0.0
  0
LINE
  5
F48
330
1F
100
AcDbEntity
  8
AM_VIS
100
AcDbLine
 10
551.5777402851024
 20
178.0694666630171
 30
0.0
 11
551.5777402851024
 21
180.0901926051808
 31
0.0
  0
ARC
  5
F49
330
1F
100
AcDbEntity
  8
AM_VIS
100
AcDbCircle
 10
555.0777402851024
 20
180.0901926051808
 30
0.0
 40
3.49999999999999
100
AcDbArc
 50
180.0
 51
239.9999999999998
  0
ARC
  5
F4A
330
1F
100
AcDbEntity
  8
AM_VIS
100
AcDbCircle
 10
555.0777402851024
 20
180.0901926051808
 30
0.0
 40
3.49999999999999
100
AcDbArc
 50
120.0000000000001
 51
180.0
  0
ARC
  5
F4B
330
1F
100
AcDbEntity
  8
AM_VIS
100
AcDbCircle
 10
555.0777402851024
 20
180.0901926051808
 30
0.0
 40
3.49999999999999
100
AcDbArc
 50
59.99999999999986
 51
120.0000000000001
  0
ARC
  5
F4C
330
1F
100
AcDbEntity
  8
AM_VIS
100
AcDbCircle
 10
555.0777402851024
 20
180.0901926051808
 30
0.0
 40
3.49999999999999
100
AcDbArc
 50
0.0
 51
59.99999999999986
  0
ARC
  5
F4D
330
1F
100
AcDbEntity
  8
AM_VIS
100
AcDbCircle
 10
555.0777402851024
 20
180.0901926051808
 30
0.0
 40
3.49999999999999
100
AcDbArc
 50
300.0000000000001
 51
0.0
  0
ARC
  5
F4E
330
1F
100
AcDbEntity
  8
AM_VIS
100
AcDbCircle
 10
555.0777402851024
 20
180.0901926051808
 30
0.0
 40
3.49999999999999
100
AcDbArc
 50
239.9999999999998
 51
300.0000000000001
  0
CIRCLE
  5
F4F
330
1F
100
AcDbEntity
  8
AM_VIS
100
AcDbCircle
 10
555.0777402851024
 20
180.0901926051808
 30
0.0
 40
1.5
  0
LINE
  5
F50
330
1F
100
AcDbEntity
  8
AM_VIS
100
AcDbLine
 10
630.6662223916056
 20
197.2901926051809
 30
0.0
 11
630.6662223916056
 21
185.9901926051808
 31
0.0
  0
LINE
  5
F51
330
1F
100
AcDbEntity
  8
AM_VIS
100
AcDbLine
 10
630.6662223916056
 20
182.1901926051809
 30
0.0
 11
630.6662223916056
 21
177.9901926051808
 31
0.0
  0
LINE
  5
F52
330
1F
100
AcDbEntity
  8
AM_VIS
100
AcDbLine
 10
630.6662223916056
 20
183.6401926051808
 30
0.0
 11
630.6662223916056
 21
184.5401926051808
 31
0.0
  0
LINE
  5
F53
330
1F
100
AcDbEntity
  8
AM_VIS
100
AcDbLine
 10
630.6662223916056
 20
185.7901926051809
 30
0.0
 11
701.6662223916056
 21
185.7901926051809
 31
0.0
  0
LINE
  5
F54
330
1F
100
AcDbEntity
  8
AM_VIS
100
AcDbLine
 10
701.6662223916056
 20
182.3901926051808
 30
0.0
 11
630.6662223916056
 21
182.3901926051808
 31
0.0
  0
LINE
  5
F55
330
1F
100
AcDbEntity
  8
AM_VIS
100
AcDbLine
 10
701.6662223916056
 20
165.5901926051808
 30
0.0
 11
630.6662223916056
 21
165.5901926051808
 31
0.0
  0
LINE
  5
F56
102
{ACAD_REACTORS
330
1063
330
1069
330
1072
330
1075
102
}
330
1F
100
AcDbEntity
  8
AM_VIS
100
AcDbLine
 10
630.6662223916056
 20
174.1901926051808
 30
0.0
 11
630.6662223916056
 21
165.5901926051808
 31
0.0
  0
LINE
  5
F57
330
1F
100
AcDbEntity
  8
AM_VIS
100
AcDbLine
 10
630.6662223916056
 20
177.7901926051809
 30
0.0
 11
701.6662223916056
 21
177.7901926051809
 31
0.0
  0
LINE
  5
F58
330
1F
100
AcDbEntity
  8
AM_VIS
100
AcDbLine
 10
701.6662223916056
 20
174.3901926051808
 30
0.0
 11
630.6662223916056
 21
174.3901926051808
 31
0.0
  0
LINE
  5
F59
330
1F
100
AcDbEntity
  8
AM_VIS
100
AcDbLine
 10
630.6662223916056
 20
175.6401926051808
 30
0.0
 11
630.6662223916056
 21
176.5401926051808
 31
0.0
  0
LINE
  5
F5A
330
1F
100
AcDbEntity
  8
AM_VIS
100
AcDbLine
 10
701.6662223916056
 20
197.2901926051809
 30
0.0
 11
630.6662223916056
 21
197.2901926051809
 31
0.0
  0
LINE
  5
F5B
102
{ACAD_REACTORS
330
106F
330
1075
330
1078
330
10B4
102
}
330
1F
100
AcDbEntity
  8
AM_VIS
100
AcDbLine
 10
701.6662223916056
 20
165.5901926051808
 30
0.0
 11
701.6662223916056
 21
174.1901926051808
 31
0.0
  0
LINE
  5
F5C
330
1F
100
AcDbEntity
  8
AM_VIS
100
AcDbLine
 10
701.6662223916056
 20
176.5401926051808
 30
0.0
 11
701.6662223916056
 21
175.6401926051808
 31
0.0
  0
LINE
  5
F5D
330
1F
100
AcDbEntity
  8
AM_VIS
100
AcDbLine
 10
701.6662223916056
 20
177.9901926051808
 30
0.0
 11
701.6662223916056
 21
182.1901926051809
 31
0.0
  0
LINE
  5
F5E
330
1F
100
AcDbEntity
  8
AM_VIS
100
AcDbLine
 10
701.6662223916056
 20
184.5401926051808
 30
0.0
 11
701.6662223916056
 21
183.6401926051808
 31
0.0
  0
LINE
  5
F5F
330
1F
100
AcDbEntity
  8
AM_VIS
100
AcDbLine
 10
701.6662223916056
 20
185.9901926051808
 30
0.0
 11
701.6662223916056
 21
197.2901926051809
 31
0.0
  0
LINE
  5
F60
330
1F
100
AcDbEntity
  8
AM_VIS
100
AcDbLine
 10
630.6662223916056
 20
185.7901926051809
 30
0.0
 11
630.6662223916056
 21
184.5401926051808
 31
0.0
  0
LINE
  5
F61
330
1F
100
AcDbEntity
  8
AM_VIS
100
AcDbLine
 10
630.6662223916056
 20
183.6401926051808
 30
0.0
 11
630.6662223916056
 21
182.3901926051808
 31
0.0
  0
LINE
  5
F62
330
1F
100
AcDbEntity
  8
AM_VIS
100
AcDbLine
 10
630.6662223916056
 20
185.7901926051809
 30
0.0
 11
630.6662223916056
 21
185.9901926051808
 31
0.0
  0
LINE
  5
F63
330
1F
100
AcDbEntity
  8
AM_VIS
100
AcDbLine
 10
630.6662223916056
 20
182.1901926051809
 30
0.0
 11
630.6662223916056
 21
182.3901926051808
 31
0.0
  0
LINE
  5
F64
330
1F
100
AcDbEntity
  8
AM_VIS
100
AcDbLine
 10
630.6662223916056
 20
177.7901926051809
 30
0.0
 11
630.6662223916056
 21
177.9901926051808
 31
0.0
  0
LINE
  5
F65
330
1F
100
AcDbEntity
  8
AM_VIS
100
AcDbLine
 10
630.6662223916056
 20
174.1901926051808
 30
0.0
 11
630.6662223916056
 21
174.3901926051808
 31
0.0
  0
LINE
  5
F66
330
1F
100
AcDbEntity
  8
AM_VIS
100
AcDbLine
 10
630.6662223916056
 20
177.7901926051809
 30
0.0
 11
630.6662223916056
 21
176.5401926051808
 31
0.0
  0
LINE
  5
F67
330
1F
100
AcDbEntity
  8
AM_VIS
100
AcDbLine
 10
630.6662223916056
 20
175.6401926051808
 30
0.0
 11
630.6662223916056
 21
174.3901926051808
 31
0.0
  0
CIRCLE
  5
F68
330
1F
100
AcDbEntity
  8
AM_VIS
100
AcDbCircle
 10
634.6662223916056
 20
189.5901926051808
 30
0.0
 40
1.649999999999999
  0
CIRCLE
  5
F69
330
1F
100
AcDbEntity
  8
AM_VIS
100
AcDbCircle
 10
634.6662223916056
 20
189.5901926051808
 30
0.0
 40
3.0
  0
CIRCLE
  5
F6A
330
1F
100
AcDbEntity
  8
AM_VIS
100
AcDbCircle
 10
634.6662223916056
 20
170.5901926051808
 30
0.0
 40
1.649999999999999
  0
CIRCLE
  5
F6B
330
1F
100
AcDbEntity
  8
AM_VIS
100
AcDbCircle
 10
634.6662223916056
 20
170.5901926051808
 30
0.0
 40
3.0
  0
CIRCLE
  5
F6C
330
1F
100
AcDbEntity
  8
AM_VIS
100
AcDbCircle
 10
679.6662223916056
 20
189.5901926051808
 30
0.0
 40
3.0
  0
CIRCLE
  5
F6D
330
1F
100
AcDbEntity
  8
AM_VIS
100
AcDbCircle
 10
679.6662223916056
 20
189.5901926051808
 30
0.0
 40
1.649999999999999
  0
LINE
  5
F6E
330
1F
100
AcDbEntity
  8
AM_VIS
100
AcDbLine
 10
701.6662223916056
 20
174.3901926051808
 30
0.0
 11
701.6662223916056
 21
174.1901926051808
 31
0.0
  0
LINE
  5
F6F
330
1F
100
AcDbEntity
  8
AM_VIS
100
AcDbLine
 10
701.6662223916056
 20
174.3901926051808
 30
0.0
 11
701.6662223916056
 21
175.6401926051808
 31
0.0
  0
LINE
  5
F70
330
1F
100
AcDbEntity
  8
AM_VIS
100
AcDbLine
 10
701.6662223916056
 20
176.5401926051808
 30
0.0
 11
701.6662223916056
 21
177.7901926051809
 31
0.0
  0
LINE
  5
F71
330
1F
100
AcDbEntity
  8
AM_VIS
100
AcDbLine
 10
701.6662223916056
 20
177.9901926051808
 30
0.0
 11
701.6662223916056
 21
177.7901926051809
 31
0.0
  0
LINE
  5
F72
330
1F
100
AcDbEntity
  8
AM_VIS
100
AcDbLine
 10
701.6662223916056
 20
182.3901926051808
 30
0.0
 11
701.6662223916056
 21
182.1901926051809
 31
0.0
  0
LINE
  5
F73
330
1F
100
AcDbEntity
  8
AM_VIS
100
AcDbLine
 10
701.6662223916056
 20
182.3901926051808
 30
0.0
 11
701.6662223916056
 21
183.6401926051808
 31
0.0
  0
LINE
  5
F74
330
1F
100
AcDbEntity
  8
AM_VIS
100
AcDbLine
 10
701.6662223916056
 20
184.5401926051808
 30
0.0
 11
701.6662223916056
 21
185.7901926051809
 31
0.0
  0
LINE
  5
F75
330
1F
100
AcDbEntity
  8
AM_VIS
100
AcDbLine
 10
701.6662223916056
 20
185.9901926051808
 30
0.0
 11
701.6662223916056
 21
185.7901926051809
 31
0.0
  0
LINE
  5
F76
330
1F
100
AcDbEntity
  8
AM_VIS
100
AcDbLine
 10
630.6662223916056
 20
181.5901926051808
 30
0.0
 11
630.1662223916056
 21
181.5901926051808
 31
0.0
  0
LINE
  5
F77
330
1F
100
AcDbEntity
  8
AM_VIS
100
AcDbLine
 10
630.6662223916056
 20
178.5901926051808
 30
0.0
 11
630.1662223916056
 21
178.5901926051808
 31
0.0
  0
LINE
  5
F78
330
1F
100
AcDbEntity
  8
AM_VIS
100
AcDbLine
 10
630.1662223916056
 20
181.3401926051808
 30
0.0
 11
629.1662223916056
 21
181.3401926051808
 31
0.0
  0
LINE
  5
F79
330
1F
100
AcDbEntity
  8
AM_VIS
100
AcDbLine
 10
630.1662223916056
 20
178.8401926051808
 30
0.0
 11
629.1662223916056
 21
178.8401926051808
 31
0.0
  0
LINE
  5
F7A
330
1F
100
AcDbEntity
  8
AM_VIS
100
AcDbLine
 10
630.1662223916056
 20
178.5901926051808
 30
0.0
 11
630.1662223916056
 21
181.5901926051808
 31
0.0
  0
LINE
  5
F7B
330
1F
100
AcDbEntity
  8
AM_VIS
100
AcDbLine
 10
622.1662223916056
 20
204.590192605181
 30
0.0
 11
622.1662223916056
 21
166.5901926051809
 31
0.0
  0
LINE
  5
F7C
102
{ACAD_REACTORS
330
105D
102
}
330
1F
100
AcDbEntity
  8
AM_VIS
100
AcDbLine
 10
622.1662223916056
 20
204.590192605181
 30
0.0
 11
694.1662223916056
 21
204.590192605181
 31
0.0
  0
LINE
  5
F7D
102
{ACAD_REACTORS
330
1066
330
1072
330
1078
102
}
330
1F
100
AcDbEntity
  8
AM_VIS
100
AcDbLine
 10
622.1662223916056
 20
166.5901926051809
 30
0.0
 11
627.6662223916056
 21
166.5901926051809
 31
0.0
  0
LINE
  5
F7E
102
{ACAD_REACTORS
330
1066
102
}
330
1F
100
AcDbEntity
  8
AM_VIS
100
AcDbLine
 10
627.6662223916056
 20
196.0901926051809
 30
0.0
 11
627.6662223916056
 21
166.5901926051809
 31
0.0
  0
LINE
  5
F7F
330
1F
100
AcDbEntity
  8
AM_VIS
100
AcDbLine
 10
694.1662223916056
 20
204.590192605181
 30
0.0
 11
694.1662223916056
 21
198.0901926051809
 31
0.0
  0
LINE
  5
F80
330
1F
100
AcDbEntity
  8
AM_VIS
100
AcDbLine
 10
630.1662223916056
 20
198.0901926051809
 30
0.0
 11
627.6662223916056
 21
196.0901926051809
 31
0.0
  0
LINE
  5
F81
102
{ACAD_REACTORS
330
105D
102
}
330
1F
100
AcDbEntity
  8
AM_VIS
100
AcDbLine
 10
630.1662223916056
 20
198.0901926051809
 30
0.0
 11
694.1662223916056
 21
198.0901926051809
 31
0.0
  0
LINE
  5
F82
330
1F
100
AcDbEntity
  8
AM_VIS
100
AcDbLine
 10
682.2162223916056
 20
197.2901926051809
 30
0.0
 11
682.2162223916056
 21
198.0901926051809
 31
0.0
  0
LINE
  5
F83
330
1F
100
AcDbEntity
  8
AM_VIS
100
AcDbLine
 10
666.1162223916057
 20
198.0901926051809
 30
0.0
 11
666.1162223916057
 21
197.2901926051809
 31
0.0
  0
LINE
  5
F84
330
1F
100
AcDbEntity
  8
AM_VIS
100
AcDbLine
 10
669.1662223916057
 20
197.5901926051808
 30
0.0
 11
679.1662223916057
 21
197.5901926051808
 31
0.0
  0
LINE
  5
F85
330
1F
100
AcDbEntity
  8
AM_VIS
100
AcDbLine
 10
679.1662223916057
 20
197.5901926051808
 30
0.0
 11
679.1662223916057
 21
198.0901926051809
 31
0.0
  0
LINE
  5
F86
330
1F
100
AcDbEntity
  8
AM_VIS
100
AcDbLine
 10
669.1662223916057
 20
197.5901926051808
 30
0.0
 11
669.1662223916057
 21
198.0901926051809
 31
0.0
  0
LINE
  5
F87
330
1F
100
AcDbEntity
  8
AM_VIS
100
AcDbLine
 10
701.6662223916056
 20
261.3308151377765
 30
0.0
 11
697.6662223916056
 21
261.3308151377765
 31
0.0
  0
LINE
  5
F88
330
1F
100
AcDbEntity
  8
AM_VIS
100
AcDbLine
 10
701.6662223916056
 20
266.3308151377766
 30
0.0
 11
701.6662223916056
 21
261.3308151377765
 31
0.0
  0
LINE
  5
F89
330
1F
100
AcDbEntity
  8
AM_VIS
100
AcDbLine
 10
697.6662223916056
 20
266.3308151377766
 30
0.0
 11
701.6662223916056
 21
266.3308151377766
 31
0.0
  0
LINE
  5
F8A
330
1F
100
AcDbEntity
  8
AM_VIS
100
AcDbLine
 10
701.6662223916056
 20
261.3308151377765
 30
0.0
 11
701.6662223916056
 21
257.5308151377766
 31
0.0
  0
LINE
  5
F8B
330
1F
100
AcDbEntity
  8
AM_VIS
100
AcDbLine
 10
701.6662223916056
 20
255.8308151377765
 30
0.0
 11
701.6662223916056
 21
257.5308151377766
 31
0.0
  0
LINE
  5
F8C
330
1F
100
AcDbEntity
  8
AM_VIS
100
AcDbLine
 10
701.6662223916056
 20
270.1308151377766
 30
0.0
 11
701.6662223916056
 21
271.8308151377765
 31
0.0
  0
LINE
  5
F8D
330
1F
100
AcDbEntity
  8
AM_VIS
100
AcDbLine
 10
701.6662223916056
 20
270.1308151377766
 30
0.0
 11
701.6662223916056
 21
266.3308151377766
 31
0.0
  0
LINE
  5
F90
330
1F
100
AcDbEntity
  8
AM_VIS
100
AcDbLine
 10
701.6662223916056
 20
257.5308151377766
 30
0.0
 11
694.1662223916056
 21
257.5308151377766
 31
0.0
  0
LINE
  5
F91
330
1F
100
AcDbEntity
  8
AM_VIS
100
AcDbLine
 10
694.1662223916056
 20
270.1308151377766
 30
0.0
 11
701.6662223916056
 21
270.1308151377766
 31
0.0
  0
LINE
  5
F92
330
1F
100
AcDbEntity
  8
AM_VIS
100
AcDbLine
 10
630.6662223916056
 20
256.3308151377766
 30
0.0
 11
630.6662223916056
 21
255.8308151377765
 31
0.0
  0
LINE
  5
F93
330
1F
100
AcDbEntity
  8
AM_VIS
100
AcDbLine
 10
701.6662223916056
 20
255.8308151377765
 30
0.0
 11
630.6662223916056
 21
255.8308151377765
 31
0.0
  0
LINE
  5
F94
330
1F
100
AcDbEntity
  8
AM_VIS
100
AcDbLine
 10
630.6662223916056
 20
271.8308151377765
 30
0.0
 11
630.6662223916056
 21
271.3308151377765
 31
0.0
  0
LINE
  5
F95
330
1F
100
AcDbEntity
  8
AM_VIS
100
AcDbLine
 10
701.6662223916056
 20
271.8308151377765
 30
0.0
 11
630.6662223916056
 21
271.8308151377765
 31
0.0
  0
CIRCLE
  5
F96
330
1F
100
AcDbEntity
  8
AM_VIS
100
AcDbCircle
 10
670.1662223916056
 20
268.3308151377764
 30
0.0
 40
1.199999999999999
  0
CIRCLE
  5
F97
330
1F
100
AcDbEntity
  8
AM_VIS
100
AcDbCircle
 10
684.1662223916056
 20
267.8308151377764
 30
0.0
 40
2.0
  0
CIRCLE
  5
F98
330
1F
100
AcDbEntity
  8
AM_VIS
100
AcDbCircle
 10
684.1662223916056
 20
259.8308151377764
 30
0.0
 40
2.0
  0
CIRCLE
  5
F99
330
1F
100
AcDbEntity
  8
AM_VIS
100
AcDbCircle
 10
650.1662223916056
 20
268.3308151377765
 30
0.0
 40
1.199999999999999
  0
CIRCLE
  5
F9A
330
1F
100
AcDbEntity
  8
AM_VIS
100
AcDbCircle
 10
630.1662223916056
 20
268.3308151377765
 30
0.0
 40
1.199999999999999
  0
CIRCLE
  5
F9B
330
1F
100
AcDbEntity
  8
AM_VIS
100
AcDbCircle
 10
670.1662223916056
 20
259.3308151377764
 30
0.0
 40
1.199999999999999
  0
CIRCLE
  5
F9C
330
1F
100
AcDbEntity
  8
AM_VIS
100
AcDbCircle
 10
650.1662223916056
 20
259.3308151377765
 30
0.0
 40
1.199999999999999
  0
CIRCLE
  5
F9D
330
1F
100
AcDbEntity
  8
AM_VIS
100
AcDbCircle
 10
630.1662223916056
 20
259.3308151377765
 30
0.0
 40
1.199999999999999
  0
LINE
  5
F9E
330
1F
100
AcDbEntity
  8
AM_VIS
100
AcDbLine
 10
694.1662223916056
 20
256.3308151377764
 30
0.0
 11
694.1662223916056
 21
271.3308151377764
 31
0.0
  0
LINE
  5
F9F
330
1F
100
AcDbEntity
  8
AM_VIS
100
AcDbLine
 10
622.1662223916056
 20
256.3308151377766
 30
0.0
 11
694.1662223916056
 21
256.3308151377764
 31
0.0
  0
LINE
  5
FA0
102
{ACAD_REACTORS
330
1048
330
107E
102
}
330
1F
100
AcDbEntity
  8
AM_VIS
100
AcDbLine
 10
694.1662223916056
 20
271.3308151377764
 30
0.0
 11
622.1662223916056
 21
271.3308151377764
 31
0.0
  0
LINE
  5
FA1
102
{ACAD_REACTORS
330
107E
330
1081
102
}
330
1F
100
AcDbEntity
  8
AM_VIS
100
AcDbLine
 10
622.1662223916056
 20
271.3308151377765
 30
0.0
 11
622.1662223916056
 21
256.3308151377766
 31
0.0
  0
LINE
  5
FA2
330
1F
100
AcDbEntity
  8
AM_VIS
100
AcDbLine
 10
697.6662223916056
 20
261.3308151377764
 30
0.0
 11
697.6662223916056
 21
261.6308151377765
 31
0.0
  0
LINE
  5
FA3
330
1F
100
AcDbEntity
  8
AM_VIS
100
AcDbLine
 10
697.6662223916056
 20
261.6308151377765
 30
0.0
 11
694.1662223916056
 21
261.6308151377765
 31
0.0
  0
LINE
  5
FA4
330
1F
100
AcDbEntity
  8
AM_VIS
100
AcDbLine
 10
694.1662223916056
 20
261.3308151377764
 30
0.0
 11
697.6662223916056
 21
261.3308151377764
 31
0.0
  0
LINE
  5
FA5
330
1F
100
AcDbEntity
  8
AM_VIS
100
AcDbLine
 10
697.6662223916056
 20
261.6308151377765
 30
0.0
 11
697.6662223916056
 21
266.0308151377765
 31
0.0
  0
LINE
  5
FA6
330
1F
100
AcDbEntity
  8
AM_VIS
100
AcDbLine
 10
694.1662223916056
 20
266.0308151377765
 30
0.0
 11
697.6662223916056
 21
266.0308151377765
 31
0.0
  0
LINE
  5
FA7
330
1F
100
AcDbEntity
  8
AM_VIS
100
AcDbLine
 10
697.6662223916056
 20
266.0308151377765
 30
0.0
 11
697.6662223916056
 21
266.3308151377764
 31
0.0
  0
LINE
  5
FA8
330
1F
100
AcDbEntity
  8
AM_VIS
100
AcDbLine
 10
697.6662223916056
 20
266.3308151377764
 30
0.0
 11
694.1662223916056
 21
266.3308151377764
 31
0.0
  0
LINE
  5
FAB
330
1F
100
AcDbEntity
  8
AM_VIS
100
AcDbLine
 10
630.6662223916056
 20
107.3722569257227
 30
0.0
 11
630.6662223916056
 21
91.37225692572275
 31
0.0
  0
LINE
  5
FAC
330
1F
100
AcDbEntity
  8
AM_VIS
100
AcDbLine
 10
701.6662223916056
 20
91.37225692572275
 30
0.0
 11
630.6662223916056
 21
91.37225692572275
 31
0.0
  0
LINE
  5
FAD
102
{ACAD_REACTORS
330
108D
102
}
330
1F
100
AcDbEntity
  8
AM_VIS
100
AcDbLine
 10
701.6662223916056
 20
107.3722569257227
 30
0.0
 11
630.6662223916056
 21
107.3722569257227
 31
0.0
  0
LINE
  5
FAE
330
1F
100
AcDbEntity
  8
AM_VIS
100
AcDbLine
 10
701.6662223916056
 20
91.37225692572275
 30
0.0
 11
701.6662223916056
 21
107.3722569257227
 31
0.0
  0
CIRCLE
  5
FAF
330
1F
100
AcDbEntity
  8
AM_VIS
100
AcDbCircle
 10
685.6662223916056
 20
94.37225692572274
 30
0.0
 40
1.199999999999999
  0
CIRCLE
  5
FB0
330
1F
100
AcDbEntity
  8
AM_VIS
100
AcDbCircle
 10
685.6662223916056
 20
104.3722569257227
 30
0.0
 40
1.199999999999999
  0
CIRCLE
  5
FB1
330
1F
100
AcDbEntity
  8
AM_VIS
100
AcDbCircle
 10
640.6662223916056
 20
94.37225692572274
 30
0.0
 40
1.199999999999999
  0
CIRCLE
  5
FB2
330
1F
100
AcDbEntity
  8
AM_VIS
100
AcDbCircle
 10
640.6662223916056
 20
104.3722569257227
 30
0.0
 40
1.199999999999999
  0
CIRCLE
  5
FB3
330
1F
100
AcDbEntity
  8
AM_VIS
100
AcDbCircle
 10
643.1662223916056
 20
99.37225692572276
 30
0.0
 40
0.6
  0
CIRCLE
  5
FB4
330
1F
100
AcDbEntity
  8
AM_VIS
100
AcDbCircle
 10
643.1662223916056
 20
99.37225692572276
 30
0.0
 40
2.25
  0
LINE
  5
FB5
330
1F
100
AcDbEntity
  8
AM_VIS
100
AcDbLine
 10
630.6662223916056
 20
100.8722569257227
 30
0.0
 11
630.1662223916056
 21
100.8722569257227
 31
0.0
  0
LINE
  5
FB6
330
1F
100
AcDbEntity
  8
AM_VIS
100
AcDbLine
 10
630.6662223916056
 20
97.87225692572276
 30
0.0
 11
630.1662223916056
 21
97.87225692572276
 31
0.0
  0
LINE
  5
FB7
330
1F
100
AcDbEntity
  8
AM_VIS
100
AcDbLine
 10
630.1662223916056
 20
100.6222569257227
 30
0.0
 11
629.1662223916056
 21
100.6222569257227
 31
0.0
  0
LINE
  5
FB8
330
1F
100
AcDbEntity
  8
AM_VIS
100
AcDbLine
 10
630.1662223916056
 20
98.12225692572276
 30
0.0
 11
629.1662223916056
 21
98.12225692572276
 31
0.0
  0
LINE
  5
FB9
330
1F
100
AcDbEntity
  8
AM_VIS
100
AcDbLine
 10
630.1662223916056
 20
97.87225692572276
 30
0.0
 11
630.1662223916056
 21
100.8722569257227
 31
0.0
  0
LINE
  5
FBA
330
1F
100
AcDbEntity
  8
AM_VIS
100
AcDbLine
 10
627.6662223916056
 20
91.87225692572287
 30
0.0
 11
622.1662223916056
 21
91.87225692572287
 31
0.0
  0
LINE
  5
FBB
330
1F
100
AcDbEntity
  8
AM_VIS
100
AcDbLine
 10
622.1662223916056
 20
91.87225692572287
 30
0.0
 11
622.1662223916056
 21
106.8722569257228
 31
0.0
  0
LINE
  5
FBC
330
1F
100
AcDbEntity
  8
AM_VIS
100
AcDbLine
 10
622.1662223916056
 20
106.8722569257228
 30
0.0
 11
627.6662223916056
 21
106.8722569257228
 31
0.0
  0
LINE
  5
FBD
330
1F
100
AcDbEntity
  8
AM_VIS
100
AcDbLine
 10
627.6662223916056
 20
106.8722569257228
 30
0.0
 11
627.6662223916056
 21
91.87225692572287
 31
0.0
  0
LINE
  5
FBE
330
1F
100
AcDbEntity
  8
AM_VIS
100
AcDbLine
 10
627.6662223916056
 20
91.87225692572274
 30
0.0
 11
630.1662223916056
 21
91.87225692572274
 31
0.0
  0
LINE
  5
FBF
330
1F
100
AcDbEntity
  8
AM_VIS
100
AcDbLine
 10
630.1662223916056
 20
106.8722569257228
 30
0.0
 11
627.6662223916056
 21
106.8722569257228
 31
0.0
  0
ARC
  5
FC0
330
1F
100
AcDbEntity
  8
AM_VIS
100
AcDbCircle
 10
630.1662223916056
 20
103.8722569257228
 30
0.0
 40
1.2
100
AcDbArc
 50
90.0
 51
270.0
  0
ARC
  5
FC1
330
1F
100
AcDbEntity
  8
AM_VIS
100
AcDbCircle
 10
630.1662223916056
 20
94.87225692572286
 30
0.0
 40
1.2
100
AcDbArc
 50
90.0
 51
270.0
  0
LINE
  5
FC2
330
1F
100
AcDbEntity
  8
AM_VIS
100
AcDbLine
 10
630.6662223916056
 20
91.87225692572287
 30
0.0
 11
630.1662223916056
 21
91.87225692572287
 31
0.0
  0
LINE
  5
FC3
330
1F
100
AcDbEntity
  8
AM_VIS
100
AcDbLine
 10
630.1662223916056
 20
91.87225692572287
 30
0.0
 11
630.1662223916056
 21
93.67225692572281
 31
0.0
  0
LINE
  5
FC4
330
1F
100
AcDbEntity
  8
AM_VIS
100
AcDbLine
 10
630.1662223916056
 20
96.0722569257228
 30
0.0
 11
630.1662223916056
 21
97.87225692572276
 31
0.0
  0
LINE
  5
FC5
330
1F
100
AcDbEntity
  8
AM_VIS
100
AcDbLine
 10
630.1662223916056
 20
100.8722569257227
 30
0.0
 11
630.1662223916056
 21
102.6722569257228
 31
0.0
  0
LINE
  5
FC6
330
1F
100
AcDbEntity
  8
AM_VIS
100
AcDbLine
 10
630.1662223916056
 20
105.0722569257228
 30
0.0
 11
630.1662223916056
 21
106.8722569257228
 31
0.0
  0
LINE
  5
FC7
330
1F
100
AcDbEntity
  8
AM_VIS
100
AcDbLine
 10
630.1662223916056
 20
106.8722569257228
 30
0.0
 11
630.6662223916056
 21
106.8722569257228
 31
0.0
  0
ARC
  5
FC8
330
1F
100
AcDbEntity
  8
AM_VIS
100
AcDbCircle
 10
630.1662223916056
 20
94.87225692572286
 30
0.0
 40
1.199999999999999
100
AcDbArc
 50
65.37568164783822
 51
90.0
  0
ARC
  5
FC9
330
1F
100
AcDbEntity
  8
AM_VIS
100
AcDbCircle
 10
630.1662223916056
 20
94.87225692572286
 30
0.0
 40
1.199999999999999
100
AcDbArc
 50
270.0
 51
294.6243183521618
  0
ARC
  5
FCA
330
1F
100
AcDbEntity
  8
AM_VIS
100
AcDbCircle
 10
630.1662223916056
 20
103.8722569257228
 30
0.0
 40
1.199999999999999
100
AcDbArc
 50
65.37568164783822
 51
90.0
  0
ARC
  5
FCB
330
1F
100
AcDbEntity
  8
AM_VIS
100
AcDbCircle
 10
630.1662223916056
 20
103.8722569257228
 30
0.0
 40
1.199999999999999
100
AcDbArc
 50
270.0
 51
294.6243183521618
  0
LINE
  5
FCC
330
1F
100
AcDbEntity
  8
AM_VIS
100
AcDbLine
 10
784.6634138853858
 20
194.2901926051809
 30
0.0
 11
780.8634138853858
 21
194.2901926051809
 31
0.0
  0
LINE
  5
FCD
330
1F
100
AcDbEntity
  8
AM_VIS
100
AcDbLine
 10
784.6634138853858
 20
197.2901926051809
 30
0.0
 11
784.6634138853858
 21
194.2901926051809
 31
0.0
  0
LINE
  5
FCE
330
1F
100
AcDbEntity
  8
AM_VIS
100
AcDbLine
 10
784.6634138853858
 20
197.2901926051809
 30
0.0
 11
786.3634138853858
 21
197.2901926051809
 31
0.0
  0
LINE
  5
FCF
330
1F
100
AcDbEntity
  8
AM_VIS
100
AcDbLine
 10
786.3634138853858
 20
197.2901926051809
 30
0.0
 11
786.3634138853858
 21
185.9901926051808
 31
0.0
  0
LINE
  5
FD0
330
1F
100
AcDbEntity
  8
AM_VIS
100
AcDbLine
 10
785.8634138853858
 20
185.7901926051809
 30
0.0
 11
786.1634138853859
 21
185.7901926051809
 31
0.0
  0
LINE
  5
FD1
330
1F
100
AcDbEntity
  8
AM_VIS
100
AcDbLine
 10
785.3634138853858
 20
186.2401926051808
 30
0.0
 11
785.8634138853858
 21
185.7901926051809
 31
0.0
  0
LINE
  5
FD2
330
1F
100
AcDbEntity
  8
AM_VIS
100
AcDbLine
 10
783.2634138853858
 20
186.2401926051808
 30
0.0
 11
785.3634138853858
 21
186.2401926051808
 31
0.0
  0
LINE
  5
FD3
330
1F
100
AcDbEntity
  8
AM_VIS
100
AcDbLine
 10
781.5634138853858
 20
183.6401926051808
 30
0.0
 11
781.5634138853858
 21
184.5401926051809
 31
0.0
  0
LINE
  5
FD4
330
1F
100
AcDbEntity
  8
AM_VIS
100
AcDbLine
 10
785.3634138853858
 20
181.9401926051808
 30
0.0
 11
783.2634138853858
 21
181.9401926051808
 31
0.0
  0
LINE
  5
FD5
330
1F
100
AcDbEntity
  8
AM_VIS
100
AcDbLine
 10
785.8634138853858
 20
182.3901926051809
 30
0.0
 11
785.3634138853858
 21
181.9401926051808
 31
0.0
  0
LINE
  5
FD6
330
1F
100
AcDbEntity
  8
AM_VIS
100
AcDbLine
 10
786.1634138853859
 20
182.3901926051808
 30
0.0
 11
785.8634138853858
 21
182.3901926051808
 31
0.0
  0
LINE
  5
FD7
330
1F
100
AcDbEntity
  8
AM_VIS
100
AcDbLine
 10
786.3634138853858
 20
182.1901926051809
 30
0.0
 11
786.3634138853858
 21
177.9901926051808
 31
0.0
  0
LINE
  5
FD8
330
1F
100
AcDbEntity
  8
AM_VIS
100
AcDbLine
 10
785.8634138853858
 20
177.7901926051809
 30
0.0
 11
786.1634138853859
 21
177.7901926051809
 31
0.0
  0
LINE
  5
FD9
330
1F
100
AcDbEntity
  8
AM_VIS
100
AcDbLine
 10
785.3634138853858
 20
178.2401926051808
 30
0.0
 11
785.8634138853858
 21
177.7901926051809
 31
0.0
  0
LINE
  5
FDA
330
1F
100
AcDbEntity
  8
AM_VIS
100
AcDbLine
 10
783.2634138853858
 20
178.2401926051808
 30
0.0
 11
785.3634138853858
 21
178.2401926051808
 31
0.0
  0
LINE
  5
FDB
330
1F
100
AcDbEntity
  8
AM_VIS
100
AcDbLine
 10
781.5634138853858
 20
175.6401926051808
 30
0.0
 11
781.5634138853858
 21
176.5401926051809
 31
0.0
  0
LINE
  5
FDC
330
1F
100
AcDbEntity
  8
AM_VIS
100
AcDbLine
 10
785.3634138853858
 20
173.9401926051808
 30
0.0
 11
783.2634138853858
 21
173.9401926051808
 31
0.0
  0
LINE
  5
FDD
330
1F
100
AcDbEntity
  8
AM_VIS
100
AcDbLine
 10
785.8634138853858
 20
174.3901926051808
 30
0.0
 11
785.3634138853858
 21
173.9401926051808
 31
0.0
  0
LINE
  5
FDE
330
1F
100
AcDbEntity
  8
AM_VIS
100
AcDbLine
 10
786.1634138853859
 20
174.3901926051808
 30
0.0
 11
785.8634138853858
 21
174.3901926051808
 31
0.0
  0
LINE
  5
FDF
330
1F
100
AcDbEntity
  8
AM_VIS
100
AcDbLine
 10
786.3634138853858
 20
174.1901926051808
 30
0.0
 11
786.3634138853858
 21
165.5901926051808
 31
0.0
  0
LINE
  5
FE0
102
{ACAD_REACTORS
330
109F
102
}
330
1F
100
AcDbEntity
  8
AM_VIS
100
AcDbLine
 10
786.3634138853858
 20
165.5901926051808
 30
0.0
 11
770.3634138853858
 21
165.5901926051808
 31
0.0
  0
LINE
  5
FE1
102
{ACAD_REACTORS
330
1099
102
}
330
1F
100
AcDbEntity
  8
AM_VIS
100
AcDbLine
 10
770.3634138853858
 20
165.5901926051808
 30
0.0
 11
770.3634138853858
 21
174.1901926051808
 31
0.0
  0
LINE
  5
FE2
330
1F
100
AcDbEntity
  8
AM_VIS
100
AcDbLine
 10
770.8634138853857
 20
174.3901926051808
 30
0.0
 11
770.5634138853858
 21
174.3901926051808
 31
0.0
  0
LINE
  5
FE3
330
1F
100
AcDbEntity
  8
AM_VIS
100
AcDbLine
 10
771.3634138853857
 20
173.9401926051808
 30
0.0
 11
770.8634138853857
 21
174.3901926051808
 31
0.0
  0
LINE
  5
FE4
330
1F
100
AcDbEntity
  8
AM_VIS
100
AcDbLine
 10
773.4634138853857
 20
173.9401926051808
 30
0.0
 11
771.3634138853857
 21
173.9401926051808
 31
0.0
  0
LINE
  5
FE5
330
1F
100
AcDbEntity
  8
AM_VIS
100
AcDbLine
 10
775.1634138853858
 20
176.5401926051808
 30
0.0
 11
775.1634138853857
 21
175.6401926051808
 31
0.0
  0
LINE
  5
FE6
330
1F
100
AcDbEntity
  8
AM_VIS
100
AcDbLine
 10
771.3634138853858
 20
178.2401926051808
 30
0.0
 11
773.4634138853857
 21
178.2401926051808
 31
0.0
  0
LINE
  5
FE7
330
1F
100
AcDbEntity
  8
AM_VIS
100
AcDbLine
 10
770.8634138853859
 20
177.7901926051809
 30
0.0
 11
771.3634138853858
 21
178.2401926051808
 31
0.0
  0
LINE
  5
FE8
330
1F
100
AcDbEntity
  8
AM_VIS
100
AcDbLine
 10
770.5634138853858
 20
177.7901926051809
 30
0.0
 11
770.8634138853857
 21
177.7901926051809
 31
0.0
  0
LINE
  5
FE9
330
1F
100
AcDbEntity
  8
AM_VIS
100
AcDbLine
 10
770.3634138853858
 20
177.9901926051808
 30
0.0
 11
770.3634138853858
 21
182.1901926051809
 31
0.0
  0
LINE
  5
FEA
330
1F
100
AcDbEntity
  8
AM_VIS
100
AcDbLine
 10
770.8634138853857
 20
182.3901926051808
 30
0.0
 11
770.5634138853858
 21
182.3901926051808
 31
0.0
  0
LINE
  5
FEB
330
1F
100
AcDbEntity
  8
AM_VIS
100
AcDbLine
 10
771.3634138853857
 20
181.9401926051808
 30
0.0
 11
770.8634138853857
 21
182.3901926051808
 31
0.0
  0
LINE
  5
FEC
330
1F
100
AcDbEntity
  8
AM_VIS
100
AcDbLine
 10
773.4634138853857
 20
181.9401926051808
 30
0.0
 11
771.3634138853857
 21
181.9401926051808
 31
0.0
  0
LINE
  5
FED
330
1F
100
AcDbEntity
  8
AM_VIS
100
AcDbLine
 10
775.1634138853858
 20
184.5401926051808
 30
0.0
 11
775.1634138853857
 21
183.6401926051808
 31
0.0
  0
LINE
  5
FEE
330
1F
100
AcDbEntity
  8
AM_VIS
100
AcDbLine
 10
771.3634138853857
 20
186.2401926051808
 30
0.0
 11
773.4634138853857
 21
186.2401926051808
 31
0.0
  0
LINE
  5
FEF
330
1F
100
AcDbEntity
  8
AM_VIS
100
AcDbLine
 10
770.8634138853859
 20
185.7901926051807
 30
0.0
 11
771.3634138853858
 21
186.2401926051808
 31
0.0
  0
LINE
  5
FF0
330
1F
100
AcDbEntity
  8
AM_VIS
100
AcDbLine
 10
770.5634138853858
 20
185.7901926051809
 30
0.0
 11
770.8634138853857
 21
185.7901926051809
 31
0.0
  0
LINE
  5
FF1
330
1F
100
AcDbEntity
  8
AM_VIS
100
AcDbLine
 10
770.3634138853858
 20
185.9901926051808
 30
0.0
 11
770.3634138853858
 21
197.2901926051809
 31
0.0
  0
LINE
  5
FF2
330
1F
100
AcDbEntity
  8
AM_VIS
100
AcDbLine
 10
770.3634138853858
 20
197.2901926051809
 30
0.0
 11
772.0634138853857
 21
197.2901926051809
 31
0.0
  0
LINE
  5
FF3
330
1F
100
AcDbEntity
  8
AM_VIS
100
AcDbLine
 10
772.0634138853857
 20
194.2901926051809
 30
0.0
 11
772.0634138853857
 21
197.2901926051809
 31
0.0
  0
LINE
  5
FF4
330
1F
100
AcDbEntity
  8
AM_VIS
100
AcDbLine
 10
775.8634138853858
 20
194.2901926051809
 30
0.0
 11
772.0634138853859
 21
194.2901926051809
 31
0.0
  0
LINE
  5
FF5
330
1F
100
AcDbEntity
  8
AM_VIS
100
AcDbLine
 10
780.8634138853858
 20
194.2901926051809
 30
0.0
 11
780.8634138853858
 21
193.5901926051808
 31
0.0
  0
LINE
  5
FF6
330
1F
100
AcDbEntity
  8
AM_VIS
100
AcDbLine
 10
780.8634138853858
 20
193.5901926051808
 30
0.0
 11
775.8634138853858
 21
193.5901926051808
 31
0.0
  0
LINE
  5
FF7
330
1F
100
AcDbEntity
  8
AM_VIS
100
AcDbLine
 10
775.8634138853858
 20
193.5901926051808
 30
0.0
 11
775.8634138853858
 21
194.2901926051809
 31
0.0
  0
CIRCLE
  5
FF8
330
1F
100
AcDbEntity
  8
AM_VIS
100
AcDbCircle
 10
778.3634138853858
 20
189.0901926051808
 30
0.0
 40
1.0
  0
CIRCLE
  5
FF9
330
1F
100
AcDbEntity
  8
AM_VIS
100
AcDbCircle
 10
778.3634138853858
 20
171.0901926051808
 30
0.0
 40
1.5
  0
CIRCLE
  5
FFA
330
1F
100
AcDbEntity
  8
AM_VIS
100
AcDbCircle
 10
783.6134138853858
 20
170.5901926051808
 30
0.0
 40
1.199999999999999
  0
CIRCLE
  5
FFB
330
1F
100
AcDbEntity
  8
AM_VIS
100
AcDbCircle
 10
783.6134138853858
 20
189.5901926051808
 30
0.0
 40
1.199999999999999
  0
CIRCLE
  5
FFC
330
1F
100
AcDbEntity
  8
AM_VIS
100
AcDbCircle
 10
773.1134138853859
 20
170.5901926051808
 30
0.0
 40
1.199999999999999
  0
CIRCLE
  5
FFD
330
1F
100
AcDbEntity
  8
AM_VIS
100
AcDbCircle
 10
773.1134138853859
 20
189.5901926051808
 30
0.0
 40
1.199999999999999
  0
CIRCLE
  5
FFE
330
1F
100
AcDbEntity
  8
AM_VIS
100
AcDbCircle
 10
778.3634138853858
 20
171.0901926051808
 30
0.0
 40
2.049999999999999
  0
CIRCLE
  5
FFF
330
1F
100
AcDbEntity
  8
AM_VIS
100
AcDbCircle
 10
778.3634138853858
 20
189.0901926051808
 30
0.0
 40
2.049999999999999
  0
ARC
  5
1000
330
1F
100
AcDbEntity
  8
AM_VIS
100
AcDbCircle
 10
786.1634138853859
 20
185.9901926051808
 30
0.0
 40
0.2
100
AcDbArc
 50
270.0
 51
0.0
  0
ARC
  5
1001
330
1F
100
AcDbEntity
  8
AM_VIS
100
AcDbCircle
 10
783.2634138853858
 20
184.5401926051809
 30
0.0
 40
1.699999999999999
100
AcDbArc
 50
90.0
 51
180.0
  0
ARC
  5
1002
330
1F
100
AcDbEntity
  8
AM_VIS
100
AcDbCircle
 10
783.2634138853858
 20
183.6401926051808
 30
0.0
 40
1.7
100
AcDbArc
 50
180.0
 51
270.0
  0
ARC
  5
1003
330
1F
100
AcDbEntity
  8
AM_VIS
100
AcDbCircle
 10
786.1634138853859
 20
182.1901926051809
 30
0.0
 40
0.2
100
AcDbArc
 50
0.0
 51
90.0
  0
ARC
  5
1004
330
1F
100
AcDbEntity
  8
AM_VIS
100
AcDbCircle
 10
786.1634138853859
 20
177.9901926051808
 30
0.0
 40
0.2000000000000001
100
AcDbArc
 50
270.0
 51
0.0
  0
ARC
  5
1005
330
1F
100
AcDbEntity
  8
AM_VIS
100
AcDbCircle
 10
783.2634138853858
 20
176.5401926051809
 30
0.0
 40
1.7
100
AcDbArc
 50
90.0
 51
180.0
  0
ARC
  5
1006
330
1F
100
AcDbEntity
  8
AM_VIS
100
AcDbCircle
 10
783.2634138853858
 20
175.6401926051808
 30
0.0
 40
1.7
100
AcDbArc
 50
180.0
 51
270.0
  0
ARC
  5
1007
330
1F
100
AcDbEntity
  8
AM_VIS
100
AcDbCircle
 10
786.1634138853859
 20
174.1901926051808
 30
0.0
 40
0.2
100
AcDbArc
 50
0.0
 51
90.0
  0
ARC
  5
1008
330
1F
100
AcDbEntity
  8
AM_VIS
100
AcDbCircle
 10
770.5634138853858
 20
174.1901926051808
 30
0.0
 40
0.2000000000000001
100
AcDbArc
 50
90.0
 51
180.0
  0
ARC
  5
1009
330
1F
100
AcDbEntity
  8
AM_VIS
100
AcDbCircle
 10
773.4634138853857
 20
175.6401926051808
 30
0.0
 40
1.699999999999999
100
AcDbArc
 50
270.0
 51
0.0
  0
ARC
  5
100A
330
1F
100
AcDbEntity
  8
AM_VIS
100
AcDbCircle
 10
773.4634138853857
 20
176.5401926051808
 30
0.0
 40
1.7
100
AcDbArc
 50
0.0
 51
90.0
  0
ARC
  5
100B
330
1F
100
AcDbEntity
  8
AM_VIS
100
AcDbCircle
 10
770.5634138853858
 20
177.9901926051808
 30
0.0
 40
0.2
100
AcDbArc
 50
180.0
 51
270.0
  0
ARC
  5
100C
330
1F
100
AcDbEntity
  8
AM_VIS
100
AcDbCircle
 10
770.5634138853858
 20
182.1901926051809
 30
0.0
 40
0.2
100
AcDbArc
 50
90.0
 51
180.0
  0
ARC
  5
100D
330
1F
100
AcDbEntity
  8
AM_VIS
100
AcDbCircle
 10
773.4634138853857
 20
183.6401926051808
 30
0.0
 40
1.7
100
AcDbArc
 50
270.0
 51
0.0
  0
ARC
  5
100E
330
1F
100
AcDbEntity
  8
AM_VIS
100
AcDbCircle
 10
773.4634138853857
 20
184.5401926051808
 30
0.0
 40
1.7
100
AcDbArc
 50
0.0
 51
90.0
  0
ARC
  5
100F
330
1F
100
AcDbEntity
  8
AM_VIS
100
AcDbCircle
 10
770.5634138853858
 20
185.9901926051808
 30
0.0
 40
0.2
100
AcDbArc
 50
180.0
 51
270.0
  0
CIRCLE
  5
1010
330
1F
100
AcDbEntity
  8
AM_VIS
100
AcDbCircle
 10
778.3634138853857
 20
180.090192605181
 30
0.0
 40
3.5
  0
LINE
  5
1011
330
1F
100
AcDbEntity
  8
AM_VIS
100
AcDbLine
 10
785.8634138853857
 20
185.7901926051809
 30
0.0
 11
785.8634138853857
 21
182.3901926051808
 31
0.0
  0
LINE
  5
1012
330
1F
100
AcDbEntity
  8
AM_VIS
100
AcDbLine
 10
785.8634138853857
 20
177.7901926051809
 30
0.0
 11
785.8634138853857
 21
174.3901926051808
 31
0.0
  0
LINE
  5
1013
330
1F
100
AcDbEntity
  8
AM_VIS
100
AcDbLine
 10
770.8634138853857
 20
185.7901926051809
 30
0.0
 11
770.8634138853857
 21
182.3901926051808
 31
0.0
  0
LINE
  5
1014
330
1F
100
AcDbEntity
  8
AM_VIS
100
AcDbLine
 10
770.8634138853857
 20
177.7901926051809
 30
0.0
 11
770.8634138853857
 21
174.3901926051808
 31
0.0
  0
LINE
  5
1015
330
1F
100
AcDbEntity
  8
AM_VIS
100
AcDbLine
 10
770.8634138853857
 20
204.590192605181
 30
0.0
 11
770.8634138853857
 21
198.0901926051809
 31
0.0
  0
LINE
  5
1016
330
1F
100
AcDbEntity
  8
AM_VIS
100
AcDbLine
 10
770.8634138853857
 20
204.590192605181
 30
0.0
 11
785.8634138853857
 21
204.590192605181
 31
0.0
  0
LINE
  5
1017
330
1F
100
AcDbEntity
  8
AM_VIS
100
AcDbLine
 10
785.8634138853857
 20
204.590192605181
 30
0.0
 11
785.8634138853857
 21
198.0901926051809
 31
0.0
  0
LINE
  5
1018
330
1F
100
AcDbEntity
  8
AM_VIS
100
AcDbLine
 10
772.3634138853857
 20
198.0901926051809
 30
0.0
 11
772.3634138853857
 21
199.5901926051809
 31
0.0
  0
LINE
  5
1019
330
1F
100
AcDbEntity
  8
AM_VIS
100
AcDbLine
 10
772.3634138853857
 20
199.5901926051809
 30
0.0
 11
784.3634138853857
 21
199.5901926051809
 31
0.0
  0
LINE
  5
101A
330
1F
100
AcDbEntity
  8
AM_VIS
100
AcDbLine
 10
784.3634138853857
 20
199.5901926051809
 30
0.0
 11
784.3634138853857
 21
198.0901926051809
 31
0.0
  0
LINE
  5
101B
330
1F
100
AcDbEntity
  8
AM_VIS
100
AcDbLine
 10
785.8634138853858
 20
197.2901926051809
 30
0.0
 11
785.8634138853858
 21
198.0901926051809
 31
0.0
  0
LINE
  5
101C
330
1F
100
AcDbEntity
  8
AM_VIS
100
AcDbLine
 10
772.0634138853857
 20
196.0901926051809
 30
0.0
 11
772.5634138853859
 21
196.0901926051809
 31
0.0
  0
LINE
  5
101D
330
1F
100
AcDbEntity
  8
AM_VIS
100
AcDbLine
 10
775.7634138853858
 20
196.0901926051809
 30
0.0
 11
776.2634138853861
 21
196.0901926051809
 31
0.0
  0
LINE
  5
101E
330
1F
100
AcDbEntity
  8
AM_VIS
100
AcDbLine
 10
780.4634138853854
 20
196.0901926051809
 30
0.0
 11
780.9634138853859
 21
196.0901926051809
 31
0.0
  0
LINE
  5
101F
330
1F
100
AcDbEntity
  8
AM_VIS
100
AcDbLine
 10
784.1634138853859
 20
196.0901926051809
 30
0.0
 11
784.6634138853858
 21
196.0901926051809
 31
0.0
  0
LINE
  5
1020
330
1F
100
AcDbEntity
  8
AM_VIS
100
AcDbLine
 10
770.8634138853857
 20
198.0901926051809
 30
0.0
 11
770.8634138853857
 21
197.2901926051809
 31
0.0
  0
LINE
  5
1021
330
1F
100
AcDbEntity
  8
AM_VIS
100
AcDbLine
 10
784.3634138853857
 20
198.0901926051809
 30
0.0
 11
785.8634138853857
 21
198.0901926051809
 31
0.0
  0
LINE
  5
1022
330
1F
100
AcDbEntity
  8
AM_VIS
100
AcDbLine
 10
770.8634138853857
 20
198.0901926051809
 30
0.0
 11
772.3634138853857
 21
198.0901926051809
 31
0.0
  0
ARC
  5
1023
330
1F
100
AcDbEntity
  8
AM_VIS
100
AcDbCircle
 10
778.3634138853857
 20
180.0901926051809
 30
0.0
 40
5.5
100
AcDbArc
 50
199.655481315442
 51
234.4194567548003
  0
ARC
  5
1024
330
1F
100
AcDbEntity
  8
AM_VIS
100
AcDbCircle
 10
778.3634138853857
 20
180.0901926051809
 30
0.0
 40
5.5
100
AcDbArc
 50
125.5805432451997
 51
160.3445186845595
  0
ARC
  5
1025
330
1F
100
AcDbEntity
  8
AM_VIS
100
AcDbCircle
 10
778.3634138853857
 20
180.0901926051809
 30
0.0
 40
5.5
100
AcDbArc
 50
19.6554813154405
 51
54.4194567548003
  0
ARC
  5
1026
330
1F
100
AcDbEntity
  8
AM_VIS
100
AcDbCircle
 10
778.3634138853857
 20
180.0901926051809
 30
0.0
 40
5.5
100
AcDbArc
 50
305.5805432451997
 51
340.3445186845579
  0
LINE
  5
1027
330
1F
100
AcDbEntity
  8
AM_VIS
100
AcDbLine
 10
774.4343554740103
 20
180.840192605181
 30
0.0
 11
782.2924722967611
 21
180.840192605181
 31
0.0
  0
LINE
  5
1028
330
1F
100
AcDbEntity
  8
AM_VIS
100
AcDbLine
 10
782.2924722967611
 20
179.3401926051811
 30
0.0
 11
774.4343554740103
 21
179.3401926051811
 31
0.0
  0
ARC
  5
1029
330
1F
100
AcDbEntity
  8
AM_VIS
100
AcDbCircle
 10
778.3634138853857
 20
180.090192605181
 30
0.0
 40
4.0
100
AcDbArc
 50
10.80692287486035
 51
169.1930771251396
  0
ARC
  5
102A
330
1F
100
AcDbEntity
  8
AM_VIS
100
AcDbCircle
 10
778.3634138853857
 20
180.090192605181
 30
0.0
 40
4.0
100
AcDbArc
 50
190.8069228748603
 51
349.1930771251397
  0
LINE
  5
102B
330
1F
100
AcDbEntity
  8
AM_VIS
100
AcDbLine
 10
780.5634138853857
 20
197.090192605181
 30
0.0
 11
780.8634138853857
 21
196.7901926051811
 31
0.0
  0
LINE
  5
102C
102
{ACAD_REACTORS
330
1093
102
}
330
1F
100
AcDbEntity
  8
AM_VIS
100
AcDbLine
 10
780.8634138853857
 20
196.7901926051811
 30
0.0
 11
780.8634138853857
 21
196.2901926051811
 31
0.0
  0
LINE
  5
102D
330
1F
100
AcDbEntity
  8
AM_VIS
100
AcDbLine
 10
779.8634138853857
 20
195.7901926051811
 30
0.0
 11
780.8634138853857
 21
196.2901926051811
 31
0.0
  0
LINE
  5
102E
330
1F
100
AcDbEntity
  8
AM_VIS
100
AcDbLine
 10
780.8634138853857
 20
195.2901926051811
 30
0.0
 11
779.8634138853857
 21
195.7901926051811
 31
0.0
  0
LINE
  5
102F
330
1F
100
AcDbEntity
  8
AM_VIS
100
AcDbLine
 10
780.8634138853857
 20
195.290192605181
 30
0.0
 11
780.8634138853857
 21
194.2901926051808
 31
0.0
  0
LINE
  5
1030
330
1F
100
AcDbEntity
  8
AM_VIS
100
AcDbLine
 10
780.8634138853857
 20
193.890192605181
 30
0.0
 11
780.5634138853857
 21
193.5901926051811
 31
0.0
  0
LINE
  5
1031
330
1F
100
AcDbEntity
  8
AM_VIS
100
AcDbLine
 10
776.1634138853857
 20
193.5901926051811
 30
0.0
 11
775.8634138853857
 21
193.890192605181
 31
0.0
  0
LINE
  5
1032
330
1F
100
AcDbEntity
  8
AM_VIS
100
AcDbLine
 10
775.8634138853857
 20
194.2901926051809
 30
0.0
 11
775.8634138853857
 21
195.2901926051811
 31
0.0
  0
LINE
  5
1033
330
1F
100
AcDbEntity
  8
AM_VIS
100
AcDbLine
 10
776.8634138853857
 20
195.7901926051811
 30
0.0
 11
775.8634138853857
 21
195.2901926051811
 31
0.0
  0
LINE
  5
1034
330
1F
100
AcDbEntity
  8
AM_VIS
100
AcDbLine
 10
775.8634138853857
 20
196.2901926051811
 30
0.0
 11
776.8634138853857
 21
195.7901926051811
 31
0.0
  0
LINE
  5
1035
330
1F
100
AcDbEntity
  8
AM_VIS
100
AcDbLine
 10
775.8634138853857
 20
196.2901926051811
 30
0.0
 11
775.8634138853857
 21
196.7901926051811
 31
0.0
  0
LINE
  5
1036
330
1F
100
AcDbEntity
  8
AM_VIS
100
AcDbLine
 10
776.1634138853857
 20
197.090192605181
 30
0.0
 11
780.5634138853857
 21
197.090192605181
 31
0.0
  0
LINE
  5
1037
102
{ACAD_REACTORS
330
1093
102
}
330
1F
100
AcDbEntity
  8
AM_VIS
100
AcDbLine
 10
775.8634138853857
 20
196.7901926051811
 30
0.0
 11
776.1634138853858
 21
197.090192605181
 31
0.0
  0
LINE
  5
1038
330
1F
100
AcDbEntity
  8
AM_VIS
100
AcDbLine
 10
784.1634138853859
 20
199.3901926051808
 30
0.0
 11
784.1634138853859
 21
195.0901926051808
 31
0.0
  0
LINE
  5
1039
330
1F
100
AcDbEntity
  8
AM_VIS
100
AcDbLine
 10
784.1634138853859
 20
195.0901926051808
 30
0.0
 11
780.9634138853859
 21
195.0901926051808
 31
0.0
  0
LINE
  5
103A
330
1F
100
AcDbEntity
  8
AM_VIS
100
AcDbLine
 10
775.7634138853858
 20
195.0901926051808
 30
0.0
 11
772.5634138853859
 21
195.0901926051808
 31
0.0
  0
LINE
  5
103B
330
1F
100
AcDbEntity
  8
AM_VIS
100
AcDbLine
 10
775.7634138853858
 20
195.0901926051808
 30
0.0
 11
775.7634138853858
 21
197.1901926051807
 31
0.0
  0
LINE
  5
103C
330
1F
100
AcDbEntity
  8
AM_VIS
100
AcDbLine
 10
780.9634138853859
 20
197.1901926051808
 30
0.0
 11
780.9634138853859
 21
195.0901926051808
 31
0.0
  0
LINE
  5
103D
330
1F
100
AcDbEntity
  8
AM_VIS
100
AcDbLine
 10
775.7634138853858
 20
197.1901926051807
 30
0.0
 11
780.9634138853859
 21
197.1901926051807
 31
0.0
  0
LINE
  5
103E
330
1F
100
AcDbEntity
  8
AM_VIS
100
AcDbLine
 10
772.5634138853859
 20
199.3901926051808
 30
0.0
 11
784.1634138853859
 21
199.3901926051808
 31
0.0
  0
LINE
  5
103F
330
1F
100
AcDbEntity
  8
AM_VIS
100
AcDbLine
 10
772.5634138853859
 20
195.0901926051807
 30
0.0
 11
772.5634138853859
 21
199.3901926051808
 31
0.0
  0
LINE
  5
1040
330
1F
100
AcDbEntity
  8
AM_VIS
100
AcDbLine
 10
784.3634138853858
 20
197.5901926051808
 30
0.0
 11
784.1634138853859
 21
197.5901926051808
 31
0.0
  0
LINE
  5
1041
330
1F
100
AcDbEntity
  8
AM_VIS
100
AcDbLine
 10
784.3634138853858
 20
198.0901926051809
 30
0.0
 11
784.3634138853858
 21
197.5901926051808
 31
0.0
  0
LINE
  5
1042
330
1F
100
AcDbEntity
  8
AM_VIS
100
AcDbLine
 10
772.5634138853859
 20
197.5901926051808
 30
0.0
 11
772.3634138853858
 21
197.5901926051808
 31
0.0
  0
LINE
  5
1043
330
1F
100
AcDbEntity
  8
AM_VIS
100
AcDbLine
 10
772.3634138853858
 20
197.5901926051808
 30
0.0
 11
772.3634138853858
 21
198.0901926051809
 31
0.0
  0
LINE
  5
1044
330
1F
100
AcDbEntity
  8
AM_VIS
100
AcDbLine
 10
780.8634138853858
 20
199.5901926051808
 30
0.0
 11
780.8634138853858
 21
199.3901926051808
 31
0.0
  0
LINE
  5
1045
330
1F
100
AcDbEntity
  8
AM_VIS
100
AcDbLine
 10
775.8634138853858
 20
199.3901926051808
 30
0.0
 11
775.8634138853858
 21
199.5901926051808
 31
0.0
  0
DIMENSION
  5
1046
102
{ACAD_XDICTIONARY
360
1047
102
}
102
{ACAD_REACTORS
330
1048
102
}
330
1F
100
AcDbEntity
  8
AM_5
100
AcDbDimension
  2
*D2
 10
694.1662223916056
 20
283.8308151377765
 30
0.0
 11
658.1662223916056
 21
286.2808151377765
 31
0.0
 70
    32
  1
L1
 71
     5
 42
72.0
  3
AM_ISO$0
100
AcDbAlignedDimension
 13
622.1662223916056
 23
271.3308151377764
 33
0.0
 14
694.1662223916056
 24
271.3308151377764
 34
0.0
100
AcDbRotatedDimension
  0
DIMENSION
  5
1049
330
1F
100
AcDbEntity
  8
AM_5
100
AcDbDimension
  2
*D3
 10
559.5770143429388
 20
153.5901926051808
 30
0.0
 11
555.0770143429388
 21
156.0401926051808
 31
0.0
 70
    32
 71
     5
 42
9.0
  3
AM_ISO$0
100
AcDbAlignedDimension
 13
550.5770143429388
 23
170.0901926051809
 33
0.0
 14
559.5770143429388
 24
170.0901926051811
 34
0.0
100
AcDbRotatedDimension
  0
DIMENSION
  5
104C
102
{ACAD_XDICTIONARY
360
104D
102
}
102
{ACAD_REACTORS
330
104E
102
}
330
1F
100
AcDbEntity
  8
AM_5
100
AcDbDimension
  2
*D4
 10
563.0770143429386
 20
145.5901926051808
 30
0.0
 11
555.0770143429387
 21
148.0401926051808
 31
0.0
 70
    32
 71
     5
 42
16.0
  3
AM_ISO$0
100
AcDbAlignedDimension
 13
547.0770143429387
 23
165.5901926051808
 33
0.0
 14
563.0770143429386
 24
165.5901926051808
 34
0.0
100
AcDbRotatedDimension
  0
DIMENSION
  5
104F
102
{ACAD_XDICTIONARY
360
1050
102
}
102
{ACAD_REACTORS
330
1051
102
}
330
1F
100
AcDbEntity
  8
AM_5
100
AcDbDimension
  2
*D5
 10
575.0770143429386
 20
187.5901926051808
 30
0.0
 11
572.6270143429387
 21
196.090192605181
 31
0.0
 70
    32
 71
     5
 42
17.00000000000011
  3
AM_ISO$0
100
AcDbAlignedDimension
 13
562.5770143429388
 23
204.590192605181
 33
0.0
 14
561.9740143429387
 24
187.5901926051808
 34
0.0
 50
90.0
100
AcDbRotatedDimension
  0
DIMENSION
  5
1052
330
1F
100
AcDbEntity
  8
AM_5
100
AcDbDimension
  2
*D6
 10
575.0770143429386
 20
172.5901926051808
 30
0.0
 11
572.6270143429387
 21
180.0901926051809
 31
0.0
 70
    32
 71
     5
 42
15.0
  3
AM_ISO$0
100
AcDbAlignedDimension
 13
561.9740143429387
 23
187.5901926051808
 33
0.0
 14
561.9740143429387
 24
172.5901926051808
 34
0.0
 50
90.0
100
AcDbRotatedDimension
  0
DIMENSION
  5
1055
102
{ACAD_XDICTIONARY
360
1056
102
}
102
{ACAD_REACTORS
330
1057
102
}
330
1F
100
AcDbEntity
  8
AM_5
100
AcDbDimension
  2
*D7
 10
583.0770143429386
 20
166.5901926051809
 30
0.0
 11
580.6270143429386
 21
185.590192605181
 31
0.0
 70
    32
 71
     5
 42
38.0
  3
AM_ISO$0
100
AcDbAlignedDimension
 13
562.5770143429388
 23
204.590192605181
 33
0.0
 14
562.5770143429388
 24
166.5901926051809
 34
0.0
 50
90.0
100
AcDbRotatedDimension
  0
DIMENSION
  5
1058
102
{ACAD_XDICTIONARY
360
1059
102
}
102
{ACAD_REACTORS
330
105A
102
}
330
1F
100
AcDbEntity
  8
AM_5
100
AcDbDimension
  2
*D8
 10
591.0770143429386
 20
165.5901926051808
 30
0.0
 11
588.6270143429386
 21
185.0901926051809
 31
0.0
 70
    32
 71
     5
 42
39.00000000000011
  3
AM_ISO$0
100
AcDbAlignedDimension
 13
562.5770143429388
 23
204.590192605181
 33
0.0
 14
563.0770143429386
 24
165.5901926051808
 34
0.0
 50
90.0
100
AcDbRotatedDimension
  0
DIMENSION
  5
105B
102
{ACAD_XDICTIONARY
360
105C
102
}
102
{ACAD_REACTORS
330
105D
102
}
330
1F
100
AcDbEntity
  8
AM_5
100
AcDbDimension
  2
*D9
 10
610.1662223916056
 20
204.590192605181
 30
0.0
 11
610.1662223916056
 21
201.3401926051811
 31
0.0
 70
   160
 71
     5
 42
6.5
  3
AM_ISO$0
100
AcDbAlignedDimension
 13
630.1662223916056
 23
198.0901926051809
 33
0.0
 14
622.1662223916056
 24
204.590192605181
 34
0.0
 50
90.0
100
AcDbRotatedDimension
  0
DIMENSION
  5
105E
330
1F
100
AcDbEntity
  8
AM_5
100
AcDbDimension
  2
*D10
 10
610.1662223916056
 20
170.5901926051808
 30
0.0
 11
607.7162223916055
 21
180.0901926051809
 31
0.0
 70
    32
 71
     5
 42
19.0
  3
AM_ISO$0
100
AcDbAlignedDimension
 13
630.6662223916056
 23
189.5901926051808
 33
0.0
 14
630.6662223916056
 24
170.5901926051808
 34
0.0
 50
90.0
100
AcDbRotatedDimension
  0
DIMENSION
  5
1061
102
{ACAD_XDICTIONARY
360
1062
102
}
102
{ACAD_REACTORS
330
1063
102
}
330
1F
100
AcDbEntity
  8
AM_5
100
AcDbDimension
  2
*D11
 10
610.1662223916056
 20
165.5901926051808
 30
0.0
 11
607.7162223916055
 21
168.0901926051809
 31
0.0
 70
    32
 71
     5
 42
5.0
  3
AM_ISO$0
100
AcDbAlignedDimension
 13
630.6662223916056
 23
170.5901926051808
 33
0.0
 14
630.6662223916056
 24
165.5901926051808
 34
0.0
 50
90.0
100
AcDbRotatedDimension
  0
DIMENSION
  5
1064
102
{ACAD_XDICTIONARY
360
1065
102
}
102
{ACAD_REACTORS
330
1066
102
}
330
1F
100
AcDbEntity
  8
AM_5
100
AcDbDimension
  2
*D12
 10
627.6662223916056
 20
150.1720604285881
 30
0.0
 11
612.9437350181903
 21
150.1720604285881
 31
0.0
 70
   160
 71
     5
 42
5.5
  3
AM_ISO$0
100
AcDbAlignedDimension
 13
622.1662223916056
 23
166.5901926051809
 33
0.0
 14
627.6662223916056
 24
166.5901926051809
 34
0.0
100
AcDbRotatedDimension
1001
ACAD
1000
DSTYLE
1002
{
1070
   173
1070
     1
1070
   174
1070
     1
1070
   344
1005
4259
1002
}
  0
DIMENSION
  5
1067
102
{ACAD_XDICTIONARY
360
1068
102
}
102
{ACAD_REACTORS
330
1069
102
}
330
1F
100
AcDbEntity
  8
AM_5
100
AcDbDimension
  2
*D13
 10
634.6662223916056
 20
150.1720604285881
 30
0.0
 11
632.6662223916056
 21
150.1720604285881
 31
0.0
 70
   160
 71
     5
 42
4.0
  3
AM_ISO$0
100
AcDbAlignedDimension
 13
630.6662223916056
 23
165.5901926051808
 33
0.0
 14
634.6662223916056
 24
166.5901926051808
 34
0.0
100
AcDbRotatedDimension
1001
ACAD
1000
DSTYLE
1002
{
1070
   173
1070
     1
1070
   174
1070
     1
1070
   343
1005
4259
1002
}
  0
DIMENSION
  5
106A
330
1F
100
AcDbEntity
  8
AM_5
100
AcDbDimension
  2
*D14
 10
679.6662223916056
 20
150.1720604285881
 30
0.0
 11
657.1662223916056
 21
152.6220604285881
 31
0.0
 70
    32
  1
C
 71
     5
 42
45.0
  3
AM_ISO$0
100
AcDbAlignedDimension
 13
634.6662223916056
 23
166.5901926051808
 33
0.0
 14
679.6662223916056
 24
185.5901926051808
 34
0.0
100
AcDbRotatedDimension
  0
DIMENSION
  5
106D
102
{ACAD_XDICTIONARY
360
106E
102
}
102
{ACAD_REACTORS
330
106F
102
}
330
1F
100
AcDbEntity
  8
AM_5
100
AcDbDimension
  2
*D15
 10
701.6662223916056
 20
150.1720604285881
 30
0.0
 11
696.6662223916056
 21
152.6220604285881
 31
0.0
 70
    32
 71
     5
 42
10.0
  3
AM_ISO$0
100
AcDbAlignedDimension
 13
691.6662223916056
 23
167.5901926051808
 33
0.0
 14
701.6662223916056
 24
165.5901926051808
 34
0.0
100
AcDbRotatedDimension
  0
DIMENSION
  5
1070
102
{ACAD_XDICTIONARY
360
1071
102
}
102
{ACAD_REACTORS
330
1072
102
}
330
1F
100
AcDbEntity
  8
AM_5
100
AcDbDimension
  2
*D16
 10
630.6662223916056
 20
142.1720604285881
 30
0.0
 11
626.4162223916056
 21
144.6220604285881
 31
0.0
 70
    32
 71
     5
 42
8.5
  3
AM_ISO$0
100
AcDbAlignedDimension
 13
622.1662223916056
 23
166.5901926051809
 33
0.0
 14
630.6662223916056
 24
165.5901926051808
 34
0.0
100
AcDbRotatedDimension
  0
DIMENSION
  5
1073
102
{ACAD_XDICTIONARY
360
1074
102
}
102
{ACAD_REACTORS
330
1075
102
}
330
1F
100
AcDbEntity
  8
AM_5
100
AcDbDimension
  2
*D17
 10
701.6662223916056
 20
142.1720604285881
 30
0.0
 11
666.1662223916056
 21
144.6220604285881
 31
0.0
 70
    32
  1
31+stroke
 71
     5
 42
71.0
  3
AM_ISO$0
100
AcDbAlignedDimension
 13
630.6662223916056
 23
165.5901926051808
 33
0.0
 14
701.6662223916056
 24
165.5901926051808
 34
0.0
100
AcDbRotatedDimension
  0
DIMENSION
  5
1076
102
{ACAD_XDICTIONARY
360
1077
102
}
102
{ACAD_REACTORS
330
1078
102
}
330
1F
100
AcDbEntity
  8
AM_5
100
AcDbDimension
  2
*D18
 10
701.6662223916056
 20
134.1720604285881
 30
0.0
 11
661.9162223916056
 21
136.6220604285881
 31
0.0
 70
    32
  1
39.5+stroke
 71
     5
 42
79.5
  3
AM_ISO$0
100
AcDbAlignedDimension
 13
622.1662223916056
 23
166.5901926051809
 33
0.0
 14
701.6662223916056
 24
165.5901926051808
 34
0.0
100
AcDbRotatedDimension
  0
DIMENSION
  5
1079
330
1F
100
AcDbEntity
  8
AM_5
100
AcDbDimension
  2
*D19
 10
610.1662223916056
 20
259.3308151377765
 30
0.0
 11
607.7162223916054
 21
263.8308151377766
 31
0.0
 70
    32
 71
     5
 42
9.0
  3
AM_ISO$0
100
AcDbAlignedDimension
 13
627.6662223916056
 23
268.3308151377765
 33
0.0
 14
627.7692223916055
 24
259.3308151377765
 34
0.0
 50
90.0
100
AcDbRotatedDimension
  0
DIMENSION
  5
107C
102
{ACAD_XDICTIONARY
360
107D
102
}
102
{ACAD_REACTORS
330
107E
102
}
330
1F
100
AcDbEntity
  8
AM_5
100
AcDbDimension
  2
*D20
 10
602.1662223916056
 20
256.3308151377766
 30
0.0
 11
599.7162223916054
 21
263.8308151377765
 31
0.0
 70
    32
 71
     5
 42
14.99999999999988
  3
AM_ISO$0
100
AcDbAlignedDimension
 13
622.1662223916056
 23
271.3308151377764
 33
0.0
 14
622.1662223916056
 24
256.3308151377766
 34
0.0
 50
90.0
100
AcDbRotatedDimension
  0
DIMENSION
  5
107F
102
{ACAD_XDICTIONARY
360
1080
102
}
102
{ACAD_REACTORS
330
1081
102
}
330
1F
100
AcDbEntity
  8
AM_5
100
AcDbDimension
  2
*D21
 10
630.1662223916056
 20
243.9338151377765
 30
0.0
 11
626.1662223916056
 21
246.3838151377765
 31
0.0
 70
    32
 71
     5
 42
8.0
  3
AM_ISO$0
100
AcDbAlignedDimension
 13
622.1662223916056
 23
256.3308151377766
 33
0.0
 14
630.1662223916056
 24
257.9338151377765
 34
0.0
100
AcDbRotatedDimension
  0
DIMENSION
  5
1082
330
1F
100
AcDbEntity
  8
AM_5
100
AcDbDimension
  2
*D22
 10
650.1662223916056
 20
243.9338151377765
 30
0.0
 11
640.1662223916056
 21
246.3841596259655
 31
0.0
 70
    32
  1
L2
 71
     5
 42
20.0
  3
AM_ISO$0
100
AcDbAlignedDimension
 13
630.1662223916056
 23
256.8308151377765
 33
0.0
 14
650.1662223916056
 24
256.9338151377765
 34
0.0
100
AcDbRotatedDimension
  0
DIMENSION
  5
1085
330
1F
100
AcDbEntity
  8
AM_5
100
AcDbDimension
  2
*D23
 10
670.1662223916056
 20
243.9338151377765
 30
0.0
 11
660.1662223916056
 21
246.3838151377765
 31
0.0
 70
    32
  1
L3
 71
     5
 42
20.0
  3
AM_ISO$0
100
AcDbAlignedDimension
 13
650.1662223916056
 23
256.8308151377765
 33
0.0
 14
670.1662223916056
 24
256.8308151377764
 34
0.0
100
AcDbRotatedDimension
  0
DIMENSION
  5
1088
330
1F
100
AcDbEntity
  8
AM_5
100
AcDbDimension
  2
*D24
 10
611.4544214655225
 20
94.37225692572274
 30
0.0
 11
609.0044214655224
 21
99.37225692572285
 31
0.0
 70
    32
 71
     5
 42
10.0
  3
AM_ISO$0
100
AcDbAlignedDimension
 13
639.2692223916055
 23
104.3722569257227
 33
0.0
 14
639.2692223916054
 24
94.37225692572274
 34
0.0
 50
90.0
100
AcDbRotatedDimension
  0
DIMENSION
  5
108B
102
{ACAD_XDICTIONARY
360
108C
102
}
102
{ACAD_REACTORS
330
108D
102
}
330
1F
100
AcDbEntity
  8
AM_5
100
AcDbDimension
  2
*D25
 10
640.6662223916056
 20
115.1621759788817
 30
0.0
 11
635.6662223916056
 21
117.6121759788817
 31
0.0
 70
    32
 71
     5
 42
10.0
  3
AM_ISO$0
100
AcDbAlignedDimension
 13
630.6662223916056
 23
107.3722569257227
 33
0.0
 14
640.6662223916056
 24
105.7692569257228
 34
0.0
100
AcDbRotatedDimension
  0
DIMENSION
  5
108E
330
1F
100
AcDbEntity
  8
AM_5
100
AcDbDimension
  2
*D26
 10
685.6662223916056
 20
115.1621759788817
 30
0.0
 11
663.1662223916056
 21
117.6121759788817
 31
0.0
 70
    32
  1
5+stroke
 71
     5
 42
45.0
  3
AM_ISO$0
100
AcDbAlignedDimension
 13
640.6662223916056
 23
105.7692569257228
 33
0.0
 14
685.6662223916056
 24
105.7692569257228
 34
0.0
100
AcDbRotatedDimension
  0
DIMENSION
  5
1091
102
{ACAD_XDICTIONARY
360
1092
102
}
102
{ACAD_REACTORS
330
1093
102
}
330
1F
100
AcDbEntity
  8
AM_5
100
AcDbDimension
  2
*D27
 10
780.8634138853857
 20
212.6357633314514
 30
0.0
 11
805.5493277105394
 21
215.5866897831897
 31
0.0
 70
    32
  1
guied rail width=<>
 71
     5
 42
5.0
  3
AM_ISO$0
100
AcDbAlignedDimension
 13
775.8634138853857
 23
196.7901926051811
 33
0.0
 14
780.8634138853857
 24
196.7901926051811
 34
0.0
100
AcDbRotatedDimension
  0
DIMENSION
  5
1094
330
1F
100
AcDbEntity
  8
AM_5
100
AcDbDimension
  2
*D28
 10
758.3634138853859
 20
170.5901926051808
 30
0.0
 11
755.9134138853858
 21
180.0901926051809
 31
0.0
 70
    32
 71
     5
 42
19.0
  3
AM_ISO$0
100
AcDbAlignedDimension
 13
770.7164138853857
 23
189.5901926051808
 33
0.0
 14
771.7164138853856
 24
170.5901926051808
 34
0.0
 50
90.0
100
AcDbRotatedDimension
  0
DIMENSION
  5
1097
102
{ACAD_XDICTIONARY
360
1098
102
}
102
{ACAD_REACTORS
330
1099
102
}
330
1F
100
AcDbEntity
  8
AM_5
100
AcDbDimension
  2
*D29
 10
758.3634138853859
 20
165.5901926051808
 30
0.0
 11
755.9134138853858
 21
168.0901926051809
 31
0.0
 70
    32
 71
     5
 42
5.0
  3
AM_ISO$0
100
AcDbAlignedDimension
 13
770.7164138853857
 23
170.5901926051808
 33
0.0
 14
770.3634138853858
 24
165.5901926051808
 34
0.0
 50
90.0
100
AcDbRotatedDimension
  0
DIMENSION
  5
109A
330
1F
100
AcDbEntity
  8
AM_5
100
AcDbDimension
  2
*D30
 10
798.3634138853858
 20
171.0901926051808
 30
0.0
 11
795.9134138853857
 21
180.0901926051809
 31
0.0
 70
    32
 71
     5
 42
18.0
  3
AM_ISO$0
100
AcDbAlignedDimension
 13
781.7604138853859
 23
189.0901926051808
 33
0.0
 14
781.8634138853858
 24
171.0901926051808
 34
0.0
 50
90.0
100
AcDbRotatedDimension
  0
DIMENSION
  5
109D
102
{ACAD_XDICTIONARY
360
109E
102
}
102
{ACAD_REACTORS
330
109F
102
}
330
1F
100
AcDbEntity
  8
AM_5
100
AcDbDimension
  2
*D31
 10
798.3634138853858
 20
165.5901926051808
 30
0.0
 11
798.3634138853858
 21
156.3677052317657
 31
0.0
 70
   160
 71
     5
 42
5.5
  3
AM_ISO$0
100
AcDbAlignedDimension
 13
781.8634138853858
 23
171.0901926051808
 33
0.0
 14
786.3634138853858
 24
165.5901926051808
 34
0.0
 50
90.0
100
AcDbRotatedDimension
  0
DIMENSION
  5
10A0
330
1F
100
AcDbEntity
  8
AM_5
100
AcDbDimension
  2
*D32
 10
783.6134138853858
 20
153.5901926051808
 30
0.0
 11
778.3634138853858
 21
156.0401926051808
 31
0.0
 70
    32
 71
     5
 42
10.5
  3
AM_ISO$0
100
AcDbAlignedDimension
 13
773.1134138853859
 23
169.1931926051808
 33
0.0
 14
783.6134138853858
 24
169.1931926051808
 34
0.0
100
AcDbRotatedDimension
  0
MTEXT
  5
10A6
330
1F
100
AcDbEntity
  8
AM_5
100
AcDbMText
 10
790.7120383447331
 20
202.2891211093261
 30
0.0
 40
3.5
 41
0.0
 71
     7
 72
     1
  1
2-M5*0.8
 73
     1
 44
1.0
1001
ACAD
1000
MTEXTBEGIN
1070
    73
1070
     1
1070
    44
1040
1.0
1070
    74
1070
     0
1000
MTEXTEND
  0
MTEXT
  5
10A8
330
1F
100
AcDbEntity
  8
AM_5
100
AcDbMText
 10
725.0279622788469
 20
197.8642507891698
 30
0.0
 40
3.5
 41
0.0
 71
     7
 72
     1
  1
4-M3*0.5x4.8depth
 73
     1
 44
1.0
1001
ACAD
1000
MTEXTBEGIN
1070
    73
1070
     1
1070
    44
1040
1.0
1070
    74
1070
     0
1000
MTEXTEND
  0
MTEXT
  5
10AB
330
1F
100
AcDbEntity
  8
AM_5
100
AcDbMText
 10
680.6837885125581
 20
247.1268726309547
 30
0.0
 40
3.5
 41
0.0
 71
     7
 72
     1
  1
N-M3*0.5x4.8depth max.
 73
     1
 44
1.0
1001
ACAD
1000
MTEXTBEGIN
1070
    73
1070
     1
1070
    44
1040
1.0
1070
    74
1070
     0
1000
MTEXTEND
  0
MTEXT
  5
10AD
330
1F
100
AcDbEntity
  8
AM_5
100
AcDbMText
 10
704.0152295131043
 20
214.8810400349877
 30
0.0
 40
3.5
 41
0.0
 71
     7
 72
     1
  1
2*2-M5*0.8*4depth
 73
     1
 44
1.0
1001
ACAD
1000
MTEXTBEGIN
1070
    73
1070
     1
1070
    44
1040
1.0
1070
    74
1070
     0
1000
MTEXTEND
  0
MTEXT
  5
10AE
330
1F
100
AcDbEntity
  8
AM_5
100
AcDbMText
 10
705.1610333338827
 20
208.4140973565868
 30
0.0
 40
3.5
 41
0.0
 71
     7
 72
     1
  1
plug for port
 73
     1
 44
1.0
1001
ACAD
1000
MTEXTBEGIN
1070
    73
1070
     1
1070
    44
1040
1.0
1070
    74
1070
     0
1000
MTEXTEND
  0
DIMENSION
  5
10AF
330
1F
100
AcDbEntity
  8
AM_5
100
AcDbDimension
  2
*D33
 10
713.6662223916056
 20
171.0901926051808
 30
0.0
 11
711.2162223916056
 21
180.0901926051809
 31
0.0
 70
    32
 71
     5
 42
18.0
  3
AM_ISO$0
100
AcDbAlignedDimension
 13
695.1662223916056
 23
189.0901926051808
 33
0.0
 14
695.1662223916056
 24
171.0901926051808
 34
0.0
 50
90.0
100
AcDbRotatedDimension
  0
DIMENSION
  5
10B2
102
{ACAD_XDICTIONARY
360
10B3
102
}
102
{ACAD_REACTORS
330
10B4
102
}
330
1F
100
AcDbEntity
  8
AM_5
100
AcDbDimension
  2
*D34
 10
713.6662223916056
 20
165.5901926051808
 30
0.0
 11
713.6662223916056
 21
156.3677052317656
 31
0.0
 70
   160
 71
     5
 42
5.5
  3
AM_ISO$0
100
AcDbAlignedDimension
 13
695.1662223916056
 23
171.0901926051808
 33
0.0
 14
701.6662223916056
 24
165.5901926051808
 34
0.0
 50
90.0
100
AcDbRotatedDimension
  0
MTEXT
  5
10B6
330
1F
100
AcDbEntity
  8
AM_5
100
AcDbMText
 10
646.8416953250248
 20
221.11956037991
 30
0.0
 40
3.5
 41
0.0
 71
     7
 72
     1
  1
3-M4*0.7thru
 73
     1
 44
1.0
1001
ACAD
1000
MTEXTBEGIN
1070
    73
1070
     1
1070
    44
1040
1.0
1070
    74
1070
     0
1000
MTEXTEND
  0
MTEXT
  5
10B9
330
1F
100
AcDbEntity
  8
AM_5
100
AcDbMText
 10
647.0877765125238
 20
210.0806949891553
 30
0.0
 40
3.5
 41
0.0
 71
     7
 72
     1
  1
2*3-%%C6x3.3depth
 73
     1
 44
1.0
1001
ACAD
1000
MTEXTBEGIN
1070
    73
1070
     1
1070
    44
1040
1.0
1070
    74
1070
     0
1000
MTEXTEND
  0
MTEXT
  5
10BC
330
1F
100
AcDbEntity
  8
AM_5
100
AcDbMText
 10
636.5697134991883
 20
79.11258559791178
 30
0.0
 40
3.5
 41
0.0
 71
     7
 72
     1
  1
4-M3*0.5x4.8depth
 73
     1
 44
1.0
1001
ACAD
1000
MTEXTBEGIN
1070
    73
1070
     1
1070
    44
1040
1.0
1070
    74
1070
     0
1000
MTEXTEND
  0
MTEXT
  5
10BF
330
1F
100
AcDbEntity
  8
AM_5
100
AcDbMText
 10
557.8524245533048
 20
212.3113298896005
 30
0.0
 40
3.5
 41
0.0
 71
     7
 72
     1
  1
4-M3*0.5x5.5depth
 73
     1
 44
1.0
1001
ACAD
1000
MTEXTBEGIN
1070
    73
1070
     1
1070
    44
1040
1.0
1070
    74
1070
     0
1000
MTEXTEND
  0
LINE
  5
1111
330
1F
100
AcDbEntity
  8
AM_VIS
100
AcDbLine
 10
629.1662223916056
 20
181.5401926051809
 30
0.0
 11
629.0662223916056
 21
181.5401926051809
 31
0.0
  0
LINE
  5
1112
330
1F
100
AcDbEntity
  8
AM_VIS
100
AcDbLine
 10
629.1662223916056
 20
178.6401926051809
 30
0.0
 11
629.0662223916056
 21
178.6401926051809
 31
0.0
  0
LINE
  5
1113
330
1F
100
AcDbEntity
  8
AM_VIS
100
AcDbLine
 10
629.1662223916056
 20
181.5401926051809
 30
0.0
 11
629.1662223916056
 21
178.6401926051809
 31
0.0
  0
LINE
  5
1114
330
1F
100
AcDbEntity
  8
AM_VIS
100
AcDbLine
 10
627.6662223916056
 20
176.0480147786898
 30
0.0
 11
628.7536150004359
 21
176.0480147786898
 31
0.0
  0
LINE
  5
1115
330
1F
100
AcDbEntity
  8
AM_VIS
100
AcDbLine
 10
627.6662223916056
 20
178.0687407208535
 30
0.0
 11
628.7536150004359
 21
178.0687407208535
 31
0.0
  0
LINE
  5
1116
330
1F
100
AcDbEntity
  8
AM_VIS
100
AcDbLine
 10
627.6662223916056
 20
182.1101926051809
 30
0.0
 11
628.7536150004359
 21
182.1101926051809
 31
0.0
  0
LINE
  5
1117
330
1F
100
AcDbEntity
  8
AM_VIS
100
AcDbLine
 10
627.6662223916056
 20
184.1309185473445
 30
0.0
 11
628.7536150004359
 21
184.1309185473445
 31
0.0
  0
SPLINE
  5
1118
330
1F
100
AcDbEntity
  8
AM_VIS
100
AcDbSpline
210
0.0
220
0.0
230
1.0
 70
    12
 71
     2
 72
     6
 73
     3
 74
     0
 42
0.0000000001
 43
0.0000000001
 40
2.66702331556602
 40
2.66702331556602
 40
2.66702331556602
 40
4.796146250744069
 40
4.796146250744069
 40
4.796146250744069
 10
629.0662223916056
 20
183.1205555762627
 30
0.0
 41
1.0
 10
629.0662223916056
 20
183.5894666630129
 30
0.0
 41
1.047943261126743
 10
628.7536150004366
 20
184.1309185473449
 30
0.0
 41
1.019338937343816
  0
SPLINE
  5
1119
330
1F
100
AcDbEntity
  8
AM_VIS
100
AcDbSpline
210
-0.0000000000003319
220
0.0000000000001337
230
-1.0
 70
    12
 71
     2
 72
     6
 73
     3
 74
     0
 42
0.0000000001
 43
0.0000000001
 40
0.5379003803671424
 40
0.5379003803671424
 40
0.5379003803671424
 40
2.66702331556602
 40
2.66702331556602
 40
2.66702331556602
 10
628.7536150004357
 20
182.1101926051809
 30
-0.0000000000000284
 41
1.019338937343372
 10
629.0662223916051
 20
182.6516444895079
 30
0.0
 41
1.047943261127497
 10
629.0662223916056
 20
183.1205555762627
 30
0.0
 41
1.0
  0
SPLINE
  5
111A
330
1F
100
AcDbEntity
  8
AM_VIS
100
AcDbSpline
210
-0.0000000000003319
220
-0.0000000000000669
230
1.0
 70
    12
 71
     2
 72
     6
 73
     3
 74
     0
 42
0.0000000001
 43
0.0000000001
 40
2.66702331556602
 40
2.66702331556602
 40
2.66702331556602
 40
4.796146250744168
 40
4.796146250744168
 40
4.796146250744168
 10
629.0662223916056
 20
180.0894666630172
 30
0.0
 41
1.0
 10
629.0662223916056
 20
181.0272888365173
 30
0.0
 41
1.047943261127038
 10
628.7536150004359
 20
182.1101926051809
 30
0.0000000000000284
 41
1.019338937343932
  0
SPLINE
  5
111B
330
1F
100
AcDbEntity
  8
AM_VIS
100
AcDbSpline
210
0.0
220
0.0
230
1.0
 70
    12
 71
     2
 72
     6
 73
     3
 74
     0
 42
0.0000000001
 43
0.0000000001
 40
0.5379003803672556
 40
0.5379003803672556
 40
0.5379003803672556
 40
2.66702331556602
 40
2.66702331556602
 40
2.66702331556602
 10
628.7536150004359
 20
178.0687407208535
 30
0.0
 41
1.01933893734325
 10
629.0662223916058
 20
179.1516444895084
 30
0.0
 41
1.047943261127186
 10
629.0662223916056
 20
180.0894666630172
 30
0.0
 41
1.0
  0
SPLINE
  5
111C
330
1F
100
AcDbEntity
  8
AM_VIS
100
AcDbSpline
210
0.0
220
0.0
230
1.0
 70
    12
 71
     2
 72
     6
 73
     3
 74
     0
 42
0.0000000001
 43
0.0000000001
 40
2.667023315566013
 40
2.667023315566013
 40
2.667023315566013
 40
4.796146250744172
 40
4.796146250744172
 40
4.796146250744172
 10
629.0662223916056
 20
177.0583777497717
 30
0.0
 41
1.0
 10
629.0662223916056
 20
177.5272888365218
 30
0.0
 41
1.047943261127062
 10
628.7536150004359
 20
178.0687407208534
 30
0.0
 41
1.019338937343942
  0
SPLINE
  5
111D
330
1F
100
AcDbEntity
  8
AM_VIS
100
AcDbSpline
210
-0.0000000000000155
220
0.0000000000000063
230
-1.0
 70
    12
 71
     2
 72
     6
 73
     3
 74
     0
 42
0.0000000001
 43
0.0000000001
 40
0.5379003803671116
 40
0.5379003803671116
 40
0.5379003803671116
 40
2.667023315566013
 40
2.667023315566013
 40
2.667023315566013
 10
628.7536150004359
 20
176.0480147786898
 30
0.0
 41
1.019338937343392
 10
629.0662223916061
 20
176.5894666630173
 30
0.0000000000000284
 41
1.04794326112755
 10
629.0662223916056
 20
177.0583777497717
 30
0.0
 41
1.0
  0
LINE
  5
111E
330
1F
100
AcDbEntity
  8
AM_VIS
100
AcDbLine
 10
629.0662223916056
 20
183.5894666630172
 30
0.0
 11
628.7536150004359
 21
184.1309185473445
 31
0.0
  0
LINE
  5
111F
330
1F
100
AcDbEntity
  8
AM_VIS
100
AcDbLine
 10
629.0662223916056
 20
176.5894666630172
 30
0.0
 11
628.7536150004359
 21
176.0480147786898
 31
0.0
  0
LINE
  5
1120
330
1F
100
AcDbEntity
  8
AM_VIS
100
AcDbLine
 10
629.0662223916056
 20
176.5894666630172
 30
0.0
 11
629.0662223916056
 21
177.0583777497717
 31
0.0
  0
LINE
  5
1121
330
1F
100
AcDbEntity
  8
AM_VIS
100
AcDbLine
 10
629.0662223916056
 20
177.0583777497717
 30
0.0
 11
629.0662223916056
 21
180.0894666630172
 31
0.0
  0
LINE
  5
1122
330
1F
100
AcDbEntity
  8
AM_VIS
100
AcDbLine
 10
629.0662223916056
 20
180.0894666630172
 30
0.0
 11
629.0662223916056
 21
183.1205555762627
 31
0.0
  0
LINE
  5
1123
330
1F
100
AcDbEntity
  8
AM_VIS
100
AcDbLine
 10
629.0662223916056
 20
183.1205555762627
 30
0.0
 11
629.0662223916056
 21
183.5894666630172
 31
0.0
  0
LINE
  5
1124
330
1F
100
AcDbEntity
  8
AM_4
  6
HIDDEN2
100
AcDbLine
 10
629.1662223916056
 20
100.6222569257227
 30
0.0
 11
629.0662223916056
 21
100.6222569257227
 31
0.0
  0
LINE
  5
1125
330
1F
100
AcDbEntity
  8
AM_4
  6
HIDDEN2
100
AcDbLine
 10
629.1662223916056
 20
98.12225692572276
 30
0.0
 11
629.0662223916056
 21
98.12225692572276
 31
0.0
  0
LINE
  5
1126
330
1F
100
AcDbEntity
  8
AM_VIS
100
AcDbLine
 10
629.1662223916056
 20
100.8222569257228
 30
0.0
 11
629.0662223916056
 21
100.8222569257228
 31
0.0
  0
LINE
  5
1127
330
1F
100
AcDbEntity
  8
AM_VIS
100
AcDbLine
 10
629.1662223916056
 20
97.92225692572282
 30
0.0
 11
629.0662223916056
 21
97.92225692572282
 31
0.0
  0
LINE
  5
1128
330
1F
100
AcDbEntity
  8
AM_VIS
100
AcDbLine
 10
629.1662223916056
 20
100.8222569257228
 30
0.0
 11
629.1662223916056
 21
97.92225692572282
 31
0.0
  0
LINE
  5
1129
330
1F
100
AcDbEntity
  8
AM_VIS
100
AcDbLine
 10
627.6662223916056
 20
102.8722569257227
 30
0.0
 11
628.7536150004359
 21
102.8722569257227
 31
0.0
  0
LINE
  5
112A
330
1F
100
AcDbEntity
  8
AM_VIS
100
AcDbLine
 10
627.6662223916056
 20
95.87225692572275
 30
0.0
 11
628.7536150004359
 21
95.87225692572275
 31
0.0
  0
LINE
  5
112B
330
1F
100
AcDbEntity
  8
AM_VIS
100
AcDbLine
 10
627.6662223916056
 20
99.37225692572276
 30
0.0
 11
628.7536150004359
 21
99.37225692572276
 31
0.0
  0
SPLINE
  5
112C
330
1F
100
AcDbEntity
  8
AM_VIS
100
AcDbSpline
210
0.0
220
0.0
230
1.0
 70
    12
 71
     2
 72
     6
 73
     3
 74
     0
 42
0.0000000001
 43
0.0000000001
 40
0.5379003803672396
 40
0.5379003803672396
 40
0.5379003803672396
 40
2.667023315566016
 40
2.667023315566016
 40
2.667023315566016
 10
628.7536150004357
 20
99.37225692572269
 30
0.0
 41
1.019338937343259
 10
629.0662223916067
 20
100.310079099232
 30
0.0
 41
1.047943261127209
 10
629.0662223916056
 20
101.1222569257227
 30
0.0
 41
1.0
  0
SPLINE
  5
112D
330
1F
100
AcDbEntity
  8
AM_VIS
100
AcDbSpline
210
0.0
220
0.0
230
1.0
 70
    12
 71
     2
 72
     6
 73
     3
 74
     0
 42
0.0000000001
 43
0.0000000001
 40
2.66702331556602
 40
2.66702331556602
 40
2.66702331556602
 40
4.796146250744069
 40
4.796146250744069
 40
4.796146250744069
 10
629.0662223916056
 20
97.62225692572275
 30
0.0
 41
1.0
 10
629.0662223916058
 20
98.43443475220631
 30
0.0
 41
1.047943261126743
 10
628.7536150004371
 20
99.37225692572297
 30
0.0
 41
1.019338937343816
  0
SPLINE
  5
112E
330
1F
100
AcDbEntity
  8
AM_VIS
100
AcDbSpline
210
0.0000000000003319
220
-0.0000000000000772
230
1.0
 70
    12
 71
     2
 72
     6
 73
     3
 74
     0
 42
0.0000000001
 43
0.0000000001
 40
0.5379003803671424
 40
0.5379003803671424
 40
0.5379003803671424
 40
2.66702331556602
 40
2.66702331556602
 40
2.66702331556602
 10
628.7536150004358
 20
95.87225692572273
 30
-0.0000000000000284
 41
1.019338937343372
 10
629.0662223916048
 20
96.81007909923154
 30
0.0
 41
1.047943261127497
 10
629.0662223916056
 20
97.62225692572275
 30
0.0
 41
1.0
  0
LINE
  5
112F
330
1F
100
AcDbEntity
  8
AM_VIS
100
AcDbLine
 10
628.7536150004359
 20
95.87225692572275
 30
0.0
 11
629.0662223916057
 21
95.87225692572275
 31
0.0
  0
SPLINE
  5
1130
330
1F
100
AcDbEntity
  8
AM_VIS
100
AcDbSpline
210
0.0
220
0.0
230
1.0
 70
    12
 71
     2
 72
     6
 73
     3
 74
     0
 42
0.0000000001
 43
0.0000000001
 40
2.667023315566016
 40
2.667023315566016
 40
2.667023315566016
 40
4.796146250744163
 40
4.796146250744163
 40
4.796146250744163
 10
629.0662223916056
 20
101.1222569257227
 30
0.0
 41
1.0
 10
629.0662223916058
 20
101.9344347522065
 30
0.0
 41
1.047943261127031
 10
628.7536150004359
 20
102.8722569257228
 30
0.0
 41
1.019338937343929
  0
LINE
  5
1131
330
1F
100
AcDbEntity
  8
AM_VIS
100
AcDbLine
 10
628.7536150004359
 20
102.8722569257227
 30
0.0
 11
629.0662223916056
 21
102.8722569257227
 31
0.0
  0
LINE
  5
1132
330
1F
100
AcDbEntity
  8
AM_VIS
100
AcDbLine
 10
629.0662223916056
 20
101.1222569257227
 30
0.0
 11
629.0662223916056
 21
102.8722569257227
 31
0.0
  0
LINE
  5
1133
330
1F
100
AcDbEntity
  8
AM_VIS
100
AcDbLine
 10
629.0662223916056
 20
95.87225692572275
 30
0.0
 11
629.0662223916056
 21
97.62225692572275
 31
0.0
  0
LINE
  5
1134
330
1F
100
AcDbEntity
  8
AM_VIS
100
AcDbLine
 10
629.0662223916056
 20
97.62225692572275
 30
0.0
 11
629.0662223916056
 21
101.1222569257227
 31
0.0
  0
ARC
  5
1135
330
1F
100
AcDbEntity
  8
AM_4
  6
Continuous
100
AcDbCircle
 10
559.5770143429388
 20
187.5901926051809
 30
0.0
 40
1.5
100
AcDbArc
 50
256.2000917825407
 51
193.4126368749697
  0
ARC
  5
1136
330
1F
100
AcDbEntity
  8
AM_4
  6
Continuous
100
AcDbCircle
 10
559.5770143429387
 20
172.5901926051809
 30
0.0
 40
1.5
100
AcDbArc
 50
256.2000917825407
 51
193.4126368749697
  0
ARC
  5
1137
330
1F
100
AcDbEntity
  8
AM_4
  6
Continuous
100
AcDbCircle
 10
550.5770143429388
 20
172.5901926051809
 30
0.0
 40
1.5
100
AcDbArc
 50
256.2000917825407
 51
193.4126368749697
  0
ARC
  5
1138
330
1F
100
AcDbEntity
  8
AM_4
  6
Continuous
100
AcDbCircle
 10
630.1662223916056
 20
268.3308151377765
 30
0.0
 40
1.5
100
AcDbArc
 50
256.2000917825407
 51
193.4126368749697
  0
ARC
  5
1139
330
1F
100
AcDbEntity
  8
AM_4
  6
Continuous
100
AcDbCircle
 10
630.1662223916056
 20
259.3308151377765
 30
0.0
 40
1.5
100
AcDbArc
 50
256.2000917825407
 51
193.4126368749697
  0
ARC
  5
113A
330
1F
100
AcDbEntity
  8
AM_4
  6
Continuous
100
AcDbCircle
 10
650.1662223916056
 20
268.3308151377765
 30
0.0
 40
1.5
100
AcDbArc
 50
256.2000917825407
 51
193.4126368749697
  0
ARC
  5
113B
330
1F
100
AcDbEntity
  8
AM_4
  6
Continuous
100
AcDbCircle
 10
650.1662223916056
 20
259.3308151377765
 30
0.0
 40
1.5
100
AcDbArc
 50
256.2000917825407
 51
193.4126368749697
  0
ARC
  5
113C
330
1F
100
AcDbEntity
  8
AM_4
  6
Continuous
100
AcDbCircle
 10
670.1662223916056
 20
268.3308151377765
 30
0.0
 40
1.5
100
AcDbArc
 50
256.2000917825407
 51
193.4126368749697
  0
ARC
  5
113D
330
1F
100
AcDbEntity
  8
AM_4
  6
Continuous
100
AcDbCircle
 10
670.1662223916056
 20
259.3308151377765
 30
0.0
 40
1.5
100
AcDbArc
 50
256.2000917825407
 51
193.4126368749697
  0
ARC
  5
113E
330
1F
100
AcDbEntity
  8
AM_4
  6
Continuous
100
AcDbCircle
 10
640.6662223916056
 20
104.3722569257227
 30
0.0
 40
1.5
100
AcDbArc
 50
256.2000917825407
 51
193.4126368749697
  0
ARC
  5
113F
330
1F
100
AcDbEntity
  8
AM_4
  6
Continuous
100
AcDbCircle
 10
640.6662223916056
 20
94.37225692572274
 30
0.0
 40
1.5
100
AcDbArc
 50
256.2000917825407
 51
193.4126368749697
  0
ARC
  5
1140
330
1F
100
AcDbEntity
  8
AM_4
  6
Continuous
100
AcDbCircle
 10
685.6662223916056
 20
104.3722569257227
 30
0.0
 40
1.5
100
AcDbArc
 50
256.2000917825407
 51
193.4126368749697
  0
ARC
  5
1141
330
1F
100
AcDbEntity
  8
AM_4
  6
Continuous
100
AcDbCircle
 10
685.6662223916056
 20
94.37225692572274
 30
0.0
 40
1.5
100
AcDbArc
 50
256.2000917825407
 51
193.4126368749697
  0
ARC
  5
1142
330
1F
100
AcDbEntity
  8
AM_4
  6
Continuous
100
AcDbCircle
 10
773.1134138853859
 20
189.5901926051808
 30
0.0
 40
1.5
100
AcDbArc
 50
256.2000917825407
 51
193.4126368749697
  0
ARC
  5
1143
330
1F
100
AcDbEntity
  8
AM_4
  6
Continuous
100
AcDbCircle
 10
783.6134138853858
 20
189.5901926051808
 30
0.0
 40
1.5
100
AcDbArc
 50
256.2000917825407
 51
193.4126368749697
  0
ARC
  5
1144
330
1F
100
AcDbEntity
  8
AM_4
  6
Continuous
100
AcDbCircle
 10
783.6134138853858
 20
170.5901926051808
 30
0.0
 40
1.5
100
AcDbArc
 50
256.2000917825407
 51
193.4126368749697
  0
ARC
  5
1145
330
1F
100
AcDbEntity
  8
AM_4
  6
Continuous
100
AcDbCircle
 10
773.1134138853859
 20
170.5901926051808
 30
0.0
 40
1.5
100
AcDbArc
 50
256.2000917825407
 51
193.4126368749697
  0
ARC
  5
1146
330
1F
100
AcDbEntity
  8
AM_4
  6
Continuous
100
AcDbCircle
 10
634.6662223916056
 20
170.5901926051808
 30
0.0
 40
2.0
100
AcDbArc
 50
258.0588206442139
 51
196.4244819092023
  0
ARC
  5
1147
330
1F
100
AcDbEntity
  8
AM_4
  6
Continuous
100
AcDbCircle
 10
679.6662223916056
 20
189.5901926051808
 30
0.0
 40
2.0
100
AcDbArc
 50
258.0588206442139
 51
196.4244819092023
  0
ARC
  5
1149
330
1F
100
AcDbEntity
  8
AM_4
  6
Continuous
100
AcDbCircle
 10
778.3634138853857
 20
189.0901926051808
 30
0.0
 40
2.5
100
AcDbArc
 50
260.3647198186035
 51
191.8597212000631
  0
ARC
  5
114A
330
1F
100
AcDbEntity
  8
AM_4
  6
Continuous
100
AcDbCircle
 10
778.3634138853858
 20
171.0901926051808
 30
0.0
 40
2.5
100
AcDbArc
 50
260.3647198186035
 51
191.8597212000631
  0
LINE
  5
137F
330
1F
100
AcDbEntity
  8
AM_7
  6
AM_ISO08W050x2
100
AcDbLine
 10
559.5770143429388
 20
187.5901926051809
 30
0.0
 11
562.0770143429388
 21
187.5901926051809
 31
0.0
1001
GENIUS_GENOREF_13
1005
1383
  0
LINE
  5
1380
330
1F
100
AcDbEntity
  8
AM_7
  6
AM_ISO08W050x2
100
AcDbLine
 10
559.5770143429388
 20
187.5901926051809
 30
0.0
 11
559.5770143429388
 21
190.0901926051809
 31
0.0
1001
GENIUS_GENOREF_13
1005
1383
  0
LINE
  5
1381
330
1F
100
AcDbEntity
  8
AM_7
  6
AM_ISO08W050x2
100
AcDbLine
 10
559.5770143429388
 20
187.5901926051809
 30
0.0
 11
557.0770143429387
 21
187.5901926051809
 31
0.0
1001
GENIUS_GENOREF_13
1005
1383
  0
LINE
  5
1382
330
1F
100
AcDbEntity
  8
AM_7
  6
AM_ISO08W050x2
100
AcDbLine
 10
559.5770143429388
 20
187.5901926051809
 30
0.0
 11
559.5770143429388
 21
185.0901926051809
 31
0.0
1001
GENIUS_GENOREF_13
1005
1383
  0
POINT
  5
1383
330
1F
100
AcDbEntity
  8
0
 60
     1
100
AcDbPoint
 10
0.0
 20
0.0
 30
0.0
1001
GENIUS_GENODEF_13
1002
{
1000
HIER
1070
    10
1002
}
1002
{
1000
MANEDIT
1070
     0
1002
}
1002
{
1000
NOSEL
1070
     0
1002
}
1002
{
1000
BEHIND
1070
     0
1002
}
1002
{
1000
OTHER
1070
     0
1002
}
1002
{
1000
REACTOR
1002
}
1001
GENIUS_GENOLIS_13
1002
{
1000
ENT
1005
1382
1005
1381
1005
1380
1005
137F
1002
}
1001
GENIUS_GENOENT_13
1002
{
1000
MYREF
1005
1383
1002
}
1002
{
1000
GRP
1005
0
1002
}
1001
GENIUS_GENOBJ-N-CRS_13
1002
{
1000
OWNER
1000
GEN
1002
}
  0
LINE
  5
1391
330
1F
100
AcDbEntity
  8
AM_7
  6
AM_ISO08W050x2
100
AcDbLine
 10
550.5770143429388
 20
187.5901926051809
 30
0.0
 11
553.0770143429387
 21
187.5901926051809
 31
0.0
1001
GENIUS_GENOREF_13
1005
1395
  0
LINE
  5
1392
330
1F
100
AcDbEntity
  8
AM_7
  6
AM_ISO08W050x2
100
AcDbLine
 10
550.5770143429388
 20
187.5901926051809
 30
0.0
 11
550.5770143429388
 21
190.0901926051809
 31
0.0
1001
GENIUS_GENOREF_13
1005
1395
  0
LINE
  5
1393
330
1F
100
AcDbEntity
  8
AM_7
  6
AM_ISO08W050x2
100
AcDbLine
 10
550.5770143429388
 20
187.5901926051809
 30
0.0
 11
548.0770143429388
 21
187.5901926051809
 31
0.0
1001
GENIUS_GENOREF_13
1005
1395
  0
LINE
  5
1394
330
1F
100
AcDbEntity
  8
AM_7
  6
AM_ISO08W050x2
100
AcDbLine
 10
550.5770143429388
 20
187.5901926051809
 30
0.0
 11
550.5770143429388
 21
185.0901926051809
 31
0.0
1001
GENIUS_GENOREF_13
1005
1395
  0
POINT
  5
1395
330
1F
100
AcDbEntity
  8
0
 60
     1
100
AcDbPoint
 10
0.0
 20
0.0
 30
0.0
1001
GENIUS_GENOBJ-N-CRS_13
1002
{
1000
OWNER
1000
GEN
1002
}
1001
GENIUS_GENOLIS_13
1002
{
1000
ENT
1005
1394
1005
1393
1005
1392
1005
1391
1002
}
1001
GENIUS_GENOENT_13
1002
{
1000
MYREF
1005
1395
1002
}
1002
{
1000
GRP
1005
0
1002
}
1001
GENIUS_GENODEF_13
1002
{
1000
HIER
1070
    10
1002
}
1002
{
1000
MANEDIT
1070
     0
1002
}
1002
{
1000
NOSEL
1070
     0
1002
}
1002
{
1000
BEHIND
1070
     0
1002
}
1002
{
1000
OTHER
1070
     0
1002
}
1002
{
1000
REACTOR
1002
}
  0
LINE
  5
13A3
330
1F
100
AcDbEntity
  8
AM_7
  6
AM_ISO08W050x2
100
AcDbLine
 10
550.5770143429388
 20
172.5901926051809
 30
0.0
 11
553.0770143429387
 21
172.5901926051809
 31
0.0
1001
GENIUS_GENOREF_13
1005
13A7
  0
LINE
  5
13A4
330
1F
100
AcDbEntity
  8
AM_7
  6
AM_ISO08W050x2
100
AcDbLine
 10
550.5770143429388
 20
172.5901926051809
 30
0.0
 11
550.5770143429388
 21
175.0901926051809
 31
0.0
1001
GENIUS_GENOREF_13
1005
13A7
  0
LINE
  5
13A5
330
1F
100
AcDbEntity
  8
AM_7
  6
AM_ISO08W050x2
100
AcDbLine
 10
550.5770143429388
 20
172.5901926051809
 30
0.0
 11
548.0770143429388
 21
172.5901926051809
 31
0.0
1001
GENIUS_GENOREF_13
1005
13A7
  0
LINE
  5
13A6
330
1F
100
AcDbEntity
  8
AM_7
  6
AM_ISO08W050x2
100
AcDbLine
 10
550.5770143429388
 20
172.5901926051809
 30
0.0
 11
550.5770143429388
 21
170.0901926051809
 31
0.0
1001
GENIUS_GENOREF_13
1005
13A7
  0
POINT
  5
13A7
330
1F
100
AcDbEntity
  8
0
 60
     1
100
AcDbPoint
 10
0.0
 20
0.0
 30
0.0
1001
GENIUS_GENODEF_13
1002
{
1000
HIER
1070
    10
1002
}
1002
{
1000
MANEDIT
1070
     0
1002
}
1002
{
1000
NOSEL
1070
     0
1002
}
1002
{
1000
BEHIND
1070
     0
1002
}
1002
{
1000
OTHER
1070
     0
1002
}
1002
{
1000
REACTOR
1002
}
1001
GENIUS_GENOENT_13
1002
{
1000
MYREF
1005
13A7
1002
}
1002
{
1000
GRP
1005
0
1002
}
1001
GENIUS_GENOBJ-N-CRS_13
1002
{
1000
OWNER
1000
GEN
1002
}
1001
GENIUS_GENOLIS_13
1002
{
1000
ENT
1005
13A6
1005
13A5
1005
13A4
1005
13A3
1002
}
  0
LINE
  5
13B5
330
1F
100
AcDbEntity
  8
AM_7
  6
AM_ISO08W050x2
100
AcDbLine
 10
559.5770143429388
 20
172.5901926051809
 30
0.0
 11
562.0770143429386
 21
172.5901926051809
 31
0.0
1001
GENIUS_GENOREF_13
1005
13B9
  0
LINE
  5
13B6
330
1F
100
AcDbEntity
  8
AM_7
  6
AM_ISO08W050x2
100
AcDbLine
 10
559.5770143429388
 20
172.5901926051809
 30
0.0
 11
559.5770143429388
 21
175.0901926051808
 31
0.0
1001
GENIUS_GENOREF_13
1005
13B9
  0
LINE
  5
13B7
330
1F
100
AcDbEntity
  8
AM_7
  6
AM_ISO08W050x2
100
AcDbLine
 10
559.5770143429388
 20
172.5901926051809
 30
0.0
 11
557.0770143429389
 21
172.5901926051809
 31
0.0
1001
GENIUS_GENOREF_13
1005
13B9
  0
LINE
  5
13B8
330
1F
100
AcDbEntity
  8
AM_7
  6
AM_ISO08W050x2
100
AcDbLine
 10
559.5770143429388
 20
172.5901926051809
 30
0.0
 11
559.5770143429388
 21
170.0901926051811
 31
0.0
1001
GENIUS_GENOREF_13
1005
13B9
  0
POINT
  5
13B9
330
1F
100
AcDbEntity
  8
0
 60
     1
100
AcDbPoint
 10
0.0
 20
0.0
 30
0.0
1001
GENIUS_GENOBJ-N-CRS_13
1002
{
1000
OWNER
1000
GEN
1002
}
1001
GENIUS_GENODEF_13
1002
{
1000
HIER
1070
    10
1002
}
1002
{
1000
MANEDIT
1070
     0
1002
}
1002
{
1000
NOSEL
1070
     0
1002
}
1002
{
1000
BEHIND
1070
     0
1002
}
1002
{
1000
OTHER
1070
     0
1002
}
1002
{
1000
REACTOR
1002
}
1001
GENIUS_GENOLIS_13
1002
{
1000
ENT
1005
13B8
1005
13B7
1005
13B6
1005
13B5
1002
}
1001
GENIUS_GENOENT_13
1002
{
1000
MYREF
1005
13B9
1002
}
1002
{
1000
GRP
1005
0
1002
}
  0
LINE
  5
13C7
330
1F
100
AcDbEntity
  8
AM_7
  6
AM_ISO08W050x2
100
AcDbLine
 10
634.6662223916056
 20
189.5901926051808
 30
0.0
 11
638.6662223916056
 21
189.5901926051808
 31
0.0
1001
GENIUS_GENOREF_13
1005
13CB
  0
LINE
  5
13C8
330
1F
100
AcDbEntity
  8
AM_7
  6
AM_ISO08W050x2
100
AcDbLine
 10
634.6662223916056
 20
189.5901926051808
 30
0.0
 11
634.6662223916056
 21
193.5901926051808
 31
0.0
1001
GENIUS_GENOREF_13
1005
13CB
  0
LINE
  5
13C9
330
1F
100
AcDbEntity
  8
AM_7
  6
AM_ISO08W050x2
100
AcDbLine
 10
634.6662223916056
 20
189.5901926051808
 30
0.0
 11
630.6662223916056
 21
189.5901926051808
 31
0.0
1001
GENIUS_GENOREF_13
1005
13CB
  0
LINE
  5
13CA
330
1F
100
AcDbEntity
  8
AM_7
  6
AM_ISO08W050x2
100
AcDbLine
 10
634.6662223916056
 20
189.5901926051808
 30
0.0
 11
634.6662223916056
 21
185.5901926051808
 31
0.0
1001
GENIUS_GENOREF_13
1005
13CB
  0
POINT
  5
13CB
330
1F
100
AcDbEntity
  8
0
 60
     1
100
AcDbPoint
 10
0.0
 20
0.0
 30
0.0
1001
GENIUS_GENOLIS_13
1002
{
1000
ENT
1005
13CA
1005
13C9
1005
13C8
1005
13C7
1002
}
1001
GENIUS_GENOENT_13
1002
{
1000
MYREF
1005
13CB
1002
}
1002
{
1000
GRP
1005
0
1002
}
1001
GENIUS_GENOBJ-N-CRS_13
1002
{
1000
OWNER
1000
GEN
1002
}
1001
GENIUS_GENODEF_13
1002
{
1000
HIER
1070
    10
1002
}
1002
{
1000
MANEDIT
1070
     0
1002
}
1002
{
1000
NOSEL
1070
     0
1002
}
1002
{
1000
BEHIND
1070
     0
1002
}
1002
{
1000
OTHER
1070
     0
1002
}
1002
{
1000
REACTOR
1002
}
  0
LINE
  5
13D9
330
1F
100
AcDbEntity
  8
AM_7
  6
AM_ISO08W050x2
100
AcDbLine
 10
634.6662223916056
 20
170.5901926051808
 30
0.0
 11
638.6662223916056
 21
170.5901926051808
 31
0.0
1001
GENIUS_GENOREF_13
1005
13DD
  0
LINE
  5
13DA
330
1F
100
AcDbEntity
  8
AM_7
  6
AM_ISO08W050x2
100
AcDbLine
 10
634.6662223916056
 20
170.5901926051808
 30
0.0
 11
634.6662223916056
 21
174.5901926051808
 31
0.0
1001
GENIUS_GENOREF_13
1005
13DD
  0
LINE
  5
13DB
330
1F
100
AcDbEntity
  8
AM_7
  6
AM_ISO08W050x2
100
AcDbLine
 10
634.6662223916056
 20
170.5901926051808
 30
0.0
 11
630.6662223916056
 21
170.5901926051808
 31
0.0
1001
GENIUS_GENOREF_13
1005
13DD
  0
LINE
  5
13DC
330
1F
100
AcDbEntity
  8
AM_7
  6
AM_ISO08W050x2
100
AcDbLine
 10
634.6662223916056
 20
170.5901926051808
 30
0.0
 11
634.6662223916056
 21
166.5901926051808
 31
0.0
1001
GENIUS_GENOREF_13
1005
13DD
  0
POINT
  5
13DD
330
1F
100
AcDbEntity
  8
0
 60
     1
100
AcDbPoint
 10
0.0
 20
0.0
 30
0.0
1001
GENIUS_GENOLIS_13
1002
{
1000
ENT
1005
13DC
1005
13DB
1005
13DA
1005
13D9
1002
}
1001
GENIUS_GENOENT_13
1002
{
1000
MYREF
1005
13DD
1002
}
1002
{
1000
GRP
1005
0
1002
}
1001
GENIUS_GENOBJ-N-CRS_13
1002
{
1000
OWNER
1000
GEN
1002
}
1001
GENIUS_GENODEF_13
1002
{
1000
HIER
1070
    10
1002
}
1002
{
1000
MANEDIT
1070
     0
1002
}
1002
{
1000
NOSEL
1070
     0
1002
}
1002
{
1000
BEHIND
1070
     0
1002
}
1002
{
1000
OTHER
1070
     0
1002
}
1002
{
1000
REACTOR
1002
}
  0
LINE
  5
13EB
330
1F
100
AcDbEntity
  8
AM_7
  6
AM_ISO08W050x2
100
AcDbLine
 10
691.6662223916056
 20
171.0901926051808
 30
0.0
 11
695.1662223916056
 21
171.0901926051808
 31
0.0
1001
GENIUS_GENOREF_13
1005
13EF
  0
LINE
  5
13EC
330
1F
100
AcDbEntity
  8
AM_7
  6
AM_ISO08W050x2
100
AcDbLine
 10
691.6662223916056
 20
171.0901926051808
 30
0.0
 11
691.6662223916056
 21
174.5901926051808
 31
0.0
1001
GENIUS_GENOREF_13
1005
13EF
  0
LINE
  5
13ED
330
1F
100
AcDbEntity
  8
AM_7
  6
AM_ISO08W050x2
100
AcDbLine
 10
691.6662223916056
 20
171.0901926051808
 30
0.0
 11
688.1662223916056
 21
171.0901926051808
 31
0.0
1001
GENIUS_GENOREF_13
1005
13EF
  0
LINE
  5
13EE
330
1F
100
AcDbEntity
  8
AM_7
  6
AM_ISO08W050x2
100
AcDbLine
 10
691.6662223916056
 20
171.0901926051808
 30
0.0
 11
691.6662223916056
 21
167.5901926051808
 31
0.0
1001
GENIUS_GENOREF_13
1005
13EF
  0
POINT
  5
13EF
330
1F
100
AcDbEntity
  8
0
 60
     1
100
AcDbPoint
 10
0.0
 20
0.0
 30
0.0
1001
GENIUS_GENOBJ-N-CRS_13
1002
{
1000
OWNER
1000
GEN
1002
}
1001
GENIUS_GENODEF_13
1002
{
1000
HIER
1070
    10
1002
}
1002
{
1000
MANEDIT
1070
     0
1002
}
1002
{
1000
NOSEL
1070
     0
1002
}
1002
{
1000
BEHIND
1070
     0
1002
}
1002
{
1000
OTHER
1070
     0
1002
}
1002
{
1000
REACTOR
1002
}
1001
GENIUS_GENOLIS_13
1002
{
1000
ENT
1005
13EE
1005
13ED
1005
13EC
1005
13EB
1002
}
1001
GENIUS_GENOENT_13
1002
{
1000
MYREF
1005
13EF
1002
}
1002
{
1000
GRP
1005
0
1002
}
  0
LINE
  5
13FD
330
1F
100
AcDbEntity
  8
AM_7
  6
AM_ISO08W050x2
100
AcDbLine
 10
691.6662223916056
 20
189.0901926051808
 30
0.0
 11
695.1662223916056
 21
189.0901926051808
 31
0.0
1001
GENIUS_GENOREF_13
1005
1401
  0
LINE
  5
13FE
330
1F
100
AcDbEntity
  8
AM_7
  6
AM_ISO08W050x2
100
AcDbLine
 10
691.6662223916056
 20
189.0901926051808
 30
0.0
 11
691.6662223916056
 21
192.5901926051808
 31
0.0
1001
GENIUS_GENOREF_13
1005
1401
  0
LINE
  5
13FF
330
1F
100
AcDbEntity
  8
AM_7
  6
AM_ISO08W050x2
100
AcDbLine
 10
691.6662223916056
 20
189.0901926051808
 30
0.0
 11
688.1662223916056
 21
189.0901926051808
 31
0.0
1001
GENIUS_GENOREF_13
1005
1401
  0
LINE
  5
1400
330
1F
100
AcDbEntity
  8
AM_7
  6
AM_ISO08W050x2
100
AcDbLine
 10
691.6662223916056
 20
189.0901926051808
 30
0.0
 11
691.6662223916056
 21
185.5901926051808
 31
0.0
1001
GENIUS_GENOREF_13
1005
1401
  0
POINT
  5
1401
330
1F
100
AcDbEntity
  8
0
 60
     1
100
AcDbPoint
 10
0.0
 20
0.0
 30
0.0
1001
GENIUS_GENODEF_13
1002
{
1000
HIER
1070
    10
1002
}
1002
{
1000
MANEDIT
1070
     0
1002
}
1002
{
1000
NOSEL
1070
     0
1002
}
1002
{
1000
BEHIND
1070
     0
1002
}
1002
{
1000
OTHER
1070
     0
1002
}
1002
{
1000
REACTOR
1002
}
1001
GENIUS_GENOLIS_13
1002
{
1000
ENT
1005
1400
1005
13FF
1005
13FE
1005
13FD
1002
}
1001
GENIUS_GENOENT_13
1002
{
1000
MYREF
1005
1401
1002
}
1002
{
1000
GRP
1005
0
1002
}
1001
GENIUS_GENOBJ-N-CRS_13
1002
{
1000
OWNER
1000
GEN
1002
}
  0
LINE
  5
140F
330
1F
100
AcDbEntity
  8
AM_7
  6
AM_ISO08W050x2
100
AcDbLine
 10
679.6662223916056
 20
189.5901926051808
 30
0.0
 11
683.6662223916056
 21
189.5901926051808
 31
0.0
1001
GENIUS_GENOREF_13
1005
1413
  0
LINE
  5
1410
330
1F
100
AcDbEntity
  8
AM_7
  6
AM_ISO08W050x2
100
AcDbLine
 10
679.6662223916056
 20
189.5901926051808
 30
0.0
 11
679.6662223916056
 21
193.5901926051808
 31
0.0
1001
GENIUS_GENOREF_13
1005
1413
  0
LINE
  5
1411
330
1F
100
AcDbEntity
  8
AM_7
  6
AM_ISO08W050x2
100
AcDbLine
 10
679.6662223916056
 20
189.5901926051808
 30
0.0
 11
675.6662223916056
 21
189.5901926051808
 31
0.0
1001
GENIUS_GENOREF_13
1005
1413
  0
LINE
  5
1412
330
1F
100
AcDbEntity
  8
AM_7
  6
AM_ISO08W050x2
100
AcDbLine
 10
679.6662223916056
 20
189.5901926051808
 30
0.0
 11
679.6662223916056
 21
185.5901926051808
 31
0.0
1001
GENIUS_GENOREF_13
1005
1413
  0
POINT
  5
1413
330
1F
100
AcDbEntity
  8
0
 60
     1
100
AcDbPoint
 10
0.0
 20
0.0
 30
0.0
1001
GENIUS_GENOENT_13
1002
{
1000
MYREF
1005
1413
1002
}
1002
{
1000
GRP
1005
0
1002
}
1001
GENIUS_GENOBJ-N-CRS_13
1002
{
1000
OWNER
1000
GEN
1002
}
1001
GENIUS_GENOLIS_13
1002
{
1000
ENT
1005
1412
1005
1411
1005
1410
1005
140F
1002
}
1001
GENIUS_GENODEF_13
1002
{
1000
HIER
1070
    10
1002
}
1002
{
1000
MANEDIT
1070
     0
1002
}
1002
{
1000
NOSEL
1070
     0
1002
}
1002
{
1000
BEHIND
1070
     0
1002
}
1002
{
1000
OTHER
1070
     0
1002
}
1002
{
1000
REACTOR
1002
}
  0
LINE
  5
1421
330
1F
100
AcDbEntity
  8
AM_7
  6
AM_ISO08W050x2
100
AcDbLine
 10
773.1134138853859
 20
189.5901926051808
 30
0.0
 11
775.6134138853858
 21
189.5901926051808
 31
0.0
1001
GENIUS_GENOREF_13
1005
1425
  0
LINE
  5
1422
330
1F
100
AcDbEntity
  8
AM_7
  6
AM_ISO08W050x2
100
AcDbLine
 10
773.1134138853859
 20
189.5901926051808
 30
0.0
 11
773.1134138853859
 21
192.0901926051808
 31
0.0
1001
GENIUS_GENOREF_13
1005
1425
  0
LINE
  5
1423
330
1F
100
AcDbEntity
  8
AM_7
  6
AM_ISO08W050x2
100
AcDbLine
 10
773.1134138853859
 20
189.5901926051808
 30
0.0
 11
770.6134138853858
 21
189.5901926051808
 31
0.0
1001
GENIUS_GENOREF_13
1005
1425
  0
LINE
  5
1424
330
1F
100
AcDbEntity
  8
AM_7
  6
AM_ISO08W050x2
100
AcDbLine
 10
773.1134138853859
 20
189.5901926051808
 30
0.0
 11
773.1134138853859
 21
187.0901926051808
 31
0.0
1001
GENIUS_GENOREF_13
1005
1425
  0
POINT
  5
1425
330
1F
100
AcDbEntity
  8
0
 60
     1
100
AcDbPoint
 10
0.0
 20
0.0
 30
0.0
1001
GENIUS_GENOBJ-N-CRS_13
1002
{
1000
OWNER
1000
GEN
1002
}
1001
GENIUS_GENOLIS_13
1002
{
1000
ENT
1005
1424
1005
1423
1005
1422
1005
1421
1002
}
1001
GENIUS_GENOENT_13
1002
{
1000
MYREF
1005
1425
1002
}
1002
{
1000
GRP
1005
0
1002
}
1001
GENIUS_GENODEF_13
1002
{
1000
HIER
1070
    10
1002
}
1002
{
1000
MANEDIT
1070
     0
1002
}
1002
{
1000
NOSEL
1070
     0
1002
}
1002
{
1000
BEHIND
1070
     0
1002
}
1002
{
1000
OTHER
1070
     0
1002
}
1002
{
1000
REACTOR
1002
}
  0
LINE
  5
1433
330
1F
100
AcDbEntity
  8
AM_7
  6
AM_ISO08W050x2
100
AcDbLine
 10
783.6134138853858
 20
189.5901926051808
 30
0.0
 11
786.1134138853858
 21
189.5901926051808
 31
0.0
1001
GENIUS_GENOREF_13
1005
1437
  0
LINE
  5
1434
330
1F
100
AcDbEntity
  8
AM_7
  6
AM_ISO08W050x2
100
AcDbLine
 10
783.6134138853858
 20
189.5901926051808
 30
0.0
 11
783.6134138853858
 21
192.0901926051808
 31
0.0
1001
GENIUS_GENOREF_13
1005
1437
  0
LINE
  5
1435
330
1F
100
AcDbEntity
  8
AM_7
  6
AM_ISO08W050x2
100
AcDbLine
 10
783.6134138853858
 20
189.5901926051808
 30
0.0
 11
781.1134138853859
 21
189.5901926051808
 31
0.0
1001
GENIUS_GENOREF_13
1005
1437
  0
LINE
  5
1436
330
1F
100
AcDbEntity
  8
AM_7
  6
AM_ISO08W050x2
100
AcDbLine
 10
783.6134138853858
 20
189.5901926051808
 30
0.0
 11
783.6134138853858
 21
187.0901926051808
 31
0.0
1001
GENIUS_GENOREF_13
1005
1437
  0
POINT
  5
1437
330
1F
100
AcDbEntity
  8
0
 60
     1
100
AcDbPoint
 10
0.0
 20
0.0
 30
0.0
1001
GENIUS_GENODEF_13
1002
{
1000
HIER
1070
    10
1002
}
1002
{
1000
MANEDIT
1070
     0
1002
}
1002
{
1000
NOSEL
1070
     0
1002
}
1002
{
1000
BEHIND
1070
     0
1002
}
1002
{
1000
OTHER
1070
     0
1002
}
1002
{
1000
REACTOR
1002
}
1001
GENIUS_GENOLIS_13
1002
{
1000
ENT
1005
1436
1005
1435
1005
1434
1005
1433
1002
}
1001
GENIUS_GENOENT_13
1002
{
1000
MYREF
1005
1437
1002
}
1002
{
1000
GRP
1005
0
1002
}
1001
GENIUS_GENOBJ-N-CRS_13
1002
{
1000
OWNER
1000
GEN
1002
}
  0
LINE
  5
1445
330
1F
100
AcDbEntity
  8
AM_7
  6
AM_ISO08W050x2
100
AcDbLine
 10
778.3634138853858
 20
189.0901926051808
 30
0.0
 11
781.7604138853859
 21
189.0901926051808
 31
0.0
1001
GENIUS_GENOREF_13
1005
1449
  0
LINE
  5
1446
330
1F
100
AcDbEntity
  8
AM_7
  6
AM_ISO08W050x2
100
AcDbLine
 10
778.3634138853858
 20
189.0901926051808
 30
0.0
 11
778.3634138853858
 21
192.4871926051809
 31
0.0
1001
GENIUS_GENOREF_13
1005
1449
  0
LINE
  5
1447
330
1F
100
AcDbEntity
  8
AM_7
  6
AM_ISO08W050x2
100
AcDbLine
 10
778.3634138853858
 20
189.0901926051808
 30
0.0
 11
774.9664138853858
 21
189.0901926051808
 31
0.0
1001
GENIUS_GENOREF_13
1005
1449
  0
LINE
  5
1448
330
1F
100
AcDbEntity
  8
AM_7
  6
AM_ISO08W050x2
100
AcDbLine
 10
778.3634138853858
 20
189.0901926051808
 30
0.0
 11
778.3634138853858
 21
185.6931926051808
 31
0.0
1001
GENIUS_GENOREF_13
1005
1449
  0
POINT
  5
1449
330
1F
100
AcDbEntity
  8
0
 60
     1
100
AcDbPoint
 10
0.0
 20
0.0
 30
0.0
1001
GENIUS_GENODEF_13
1002
{
1000
HIER
1070
    10
1002
}
1002
{
1000
MANEDIT
1070
     0
1002
}
1002
{
1000
NOSEL
1070
     0
1002
}
1002
{
1000
BEHIND
1070
     0
1002
}
1002
{
1000
OTHER
1070
     0
1002
}
1002
{
1000
REACTOR
1002
}
1001
GENIUS_GENOLIS_13
1002
{
1000
ENT
1005
1448
1005
1447
1005
1446
1005
1445
1002
}
1001
GENIUS_GENOENT_13
1002
{
1000
MYREF
1005
1449
1002
}
1002
{
1000
GRP
1005
0
1002
}
1001
GENIUS_GENOBJ-N-CRS_13
1002
{
1000
OWNER
1000
GEN
1002
}
  0
LINE
  5
146D
330
1F
100
AcDbEntity
  8
AM_7
  6
AM_ISO08W050x2
100
AcDbLine
 10
778.3634138853858
 20
171.0901926051808
 30
0.0
 11
781.8634138853858
 21
171.0901926051808
 31
0.0
1001
GENIUS_GENOREF_13
1005
1471
  0
LINE
  5
146E
330
1F
100
AcDbEntity
  8
AM_7
  6
AM_ISO08W050x2
100
AcDbLine
 10
778.3634138853858
 20
171.0901926051808
 30
0.0
 11
778.3634138853858
 21
174.5901926051808
 31
0.0
1001
GENIUS_GENOREF_13
1005
1471
  0
LINE
  5
146F
330
1F
100
AcDbEntity
  8
AM_7
  6
AM_ISO08W050x2
100
AcDbLine
 10
778.3634138853858
 20
171.0901926051808
 30
0.0
 11
774.8634138853859
 21
171.0901926051808
 31
0.0
1001
GENIUS_GENOREF_13
1005
1471
  0
LINE
  5
1470
330
1F
100
AcDbEntity
  8
AM_7
  6
AM_ISO08W050x2
100
AcDbLine
 10
778.3634138853858
 20
171.0901926051808
 30
0.0
 11
778.3634138853858
 21
167.5901926051808
 31
0.0
1001
GENIUS_GENOREF_13
1005
1471
  0
POINT
  5
1471
330
1F
100
AcDbEntity
  8
0
 60
     1
100
AcDbPoint
 10
0.0
 20
0.0
 30
0.0
1001
GENIUS_GENOENT_13
1002
{
1000
MYREF
1005
1471
1002
}
1002
{
1000
GRP
1005
0
1002
}
1001
GENIUS_GENOBJ-N-CRS_13
1002
{
1000
OWNER
1000
GEN
1002
}
1001
GENIUS_GENOLIS_13
1002
{
1000
ENT
1005
1470
1005
146F
1005
146E
1005
146D
1002
}
1001
GENIUS_GENODEF_13
1002
{
1000
HIER
1070
    10
1002
}
1002
{
1000
MANEDIT
1070
     0
1002
}
1002
{
1000
NOSEL
1070
     0
1002
}
1002
{
1000
BEHIND
1070
     0
1002
}
1002
{
1000
OTHER
1070
     0
1002
}
1002
{
1000
REACTOR
1002
}
  0
LINE
  5
147F
330
1F
100
AcDbEntity
  8
AM_7
  6
AM_ISO08W050x2
100
AcDbLine
 10
783.6134138853858
 20
170.5901926051808
 30
0.0
 11
786.1134138853858
 21
170.5901926051808
 31
0.0
1001
GENIUS_GENOREF_13
1005
1483
  0
LINE
  5
1480
330
1F
100
AcDbEntity
  8
AM_7
  6
AM_ISO08W050x2
100
AcDbLine
 10
783.6134138853858
 20
170.5901926051808
 30
0.0
 11
783.6134138853858
 21
173.0901926051808
 31
0.0
1001
GENIUS_GENOREF_13
1005
1483
  0
LINE
  5
1481
330
1F
100
AcDbEntity
  8
AM_7
  6
AM_ISO08W050x2
100
AcDbLine
 10
783.6134138853858
 20
170.5901926051808
 30
0.0
 11
781.1134138853859
 21
170.5901926051808
 31
0.0
1001
GENIUS_GENOREF_13
1005
1483
  0
LINE
  5
1482
330
1F
100
AcDbEntity
  8
AM_7
  6
AM_ISO08W050x2
100
AcDbLine
 10
783.6134138853858
 20
170.5901926051808
 30
0.0
 11
783.6134138853858
 21
168.0901926051808
 31
0.0
1001
GENIUS_GENOREF_13
1005
1483
  0
POINT
  5
1483
330
1F
100
AcDbEntity
  8
0
 60
     1
100
AcDbPoint
 10
0.0
 20
0.0
 30
0.0
1001
GENIUS_GENOBJ-N-CRS_13
1002
{
1000
OWNER
1000
GEN
1002
}
1001
GENIUS_GENOLIS_13
1002
{
1000
ENT
1005
1482
1005
1481
1005
1480
1005
147F
1002
}
1001
GENIUS_GENOENT_13
1002
{
1000
MYREF
1005
1483
1002
}
1002
{
1000
GRP
1005
0
1002
}
1001
GENIUS_GENODEF_13
1002
{
1000
HIER
1070
    10
1002
}
1002
{
1000
MANEDIT
1070
     0
1002
}
1002
{
1000
NOSEL
1070
     0
1002
}
1002
{
1000
BEHIND
1070
     0
1002
}
1002
{
1000
OTHER
1070
     0
1002
}
1002
{
1000
REACTOR
1002
}
  0
LINE
  5
1491
330
1F
100
AcDbEntity
  8
AM_7
  6
AM_ISO08W050x2
100
AcDbLine
 10
773.1134138853859
 20
170.5901926051808
 30
0.0
 11
775.6134138853858
 21
170.5901926051808
 31
0.0
1001
GENIUS_GENOREF_13
1005
1495
  0
LINE
  5
1492
330
1F
100
AcDbEntity
  8
AM_7
  6
AM_ISO08W050x2
100
AcDbLine
 10
773.1134138853859
 20
170.5901926051808
 30
0.0
 11
773.1134138853859
 21
173.0901926051808
 31
0.0
1001
GENIUS_GENOREF_13
1005
1495
  0
LINE
  5
1493
330
1F
100
AcDbEntity
  8
AM_7
  6
AM_ISO08W050x2
100
AcDbLine
 10
773.1134138853859
 20
170.5901926051808
 30
0.0
 11
770.6134138853858
 21
170.5901926051808
 31
0.0
1001
GENIUS_GENOREF_13
1005
1495
  0
LINE
  5
1494
330
1F
100
AcDbEntity
  8
AM_7
  6
AM_ISO08W050x2
100
AcDbLine
 10
773.1134138853859
 20
170.5901926051808
 30
0.0
 11
773.1134138853859
 21
168.0901926051808
 31
0.0
1001
GENIUS_GENOREF_13
1005
1495
  0
POINT
  5
1495
330
1F
100
AcDbEntity
  8
0
 60
     1
100
AcDbPoint
 10
0.0
 20
0.0
 30
0.0
1001
GENIUS_GENODEF_13
1002
{
1000
HIER
1070
    10
1002
}
1002
{
1000
MANEDIT
1070
     0
1002
}
1002
{
1000
NOSEL
1070
     0
1002
}
1002
{
1000
BEHIND
1070
     0
1002
}
1002
{
1000
OTHER
1070
     0
1002
}
1002
{
1000
REACTOR
1002
}
1001
GENIUS_GENOENT_13
1002
{
1000
MYREF
1005
1495
1002
}
1002
{
1000
GRP
1005
0
1002
}
1001
GENIUS_GENOBJ-N-CRS_13
1002
{
1000
OWNER
1000
GEN
1002
}
1001
GENIUS_GENOLIS_13
1002
{
1000
ENT
1005
1494
1005
1493
1005
1492
1005
1491
1002
}
  0
LINE
  5
14A3
330
1F
100
AcDbEntity
  8
AM_7
  6
AM_ISO08W050x2
100
AcDbLine
 10
685.6662223916056
 20
104.3722569257227
 30
0.0
 11
688.1662223916056
 21
104.3722569257227
 31
0.0
1001
GENIUS_GENOREF_13
1005
14A7
  0
LINE
  5
14A4
330
1F
100
AcDbEntity
  8
AM_7
  6
AM_ISO08W050x2
100
AcDbLine
 10
685.6662223916056
 20
104.3722569257227
 30
0.0
 11
685.6662223916056
 21
106.8722569257227
 31
0.0
1001
GENIUS_GENOREF_13
1005
14A7
  0
LINE
  5
14A5
330
1F
100
AcDbEntity
  8
AM_7
  6
AM_ISO08W050x2
100
AcDbLine
 10
685.6662223916056
 20
104.3722569257227
 30
0.0
 11
683.1662223916056
 21
104.3722569257227
 31
0.0
1001
GENIUS_GENOREF_13
1005
14A7
  0
LINE
  5
14A6
330
1F
100
AcDbEntity
  8
AM_7
  6
AM_ISO08W050x2
100
AcDbLine
 10
685.6662223916056
 20
104.3722569257227
 30
0.0
 11
685.6662223916056
 21
101.8722569257227
 31
0.0
1001
GENIUS_GENOREF_13
1005
14A7
  0
POINT
  5
14A7
330
1F
100
AcDbEntity
  8
0
 60
     1
100
AcDbPoint
 10
0.0
 20
0.0
 30
0.0
1001
GENIUS_GENOBJ-N-CRS_13
1002
{
1000
OWNER
1000
GEN
1002
}
1001
GENIUS_GENOLIS_13
1002
{
1000
ENT
1005
14A6
1005
14A5
1005
14A4
1005
14A3
1002
}
1001
GENIUS_GENODEF_13
1002
{
1000
HIER
1070
    10
1002
}
1002
{
1000
MANEDIT
1070
     0
1002
}
1002
{
1000
NOSEL
1070
     0
1002
}
1002
{
1000
BEHIND
1070
     0
1002
}
1002
{
1000
OTHER
1070
     0
1002
}
1002
{
1000
REACTOR
1002
}
1001
GENIUS_GENOENT_13
1002
{
1000
MYREF
1005
14A7
1002
}
1002
{
1000
GRP
1005
0
1002
}
  0
LINE
  5
14B5
330
1F
100
AcDbEntity
  8
AM_7
  6
AM_ISO08W050x2
100
AcDbLine
 10
685.6662223916056
 20
94.37225692572274
 30
0.0
 11
688.1662223916056
 21
94.37225692572274
 31
0.0
1001
GENIUS_GENOREF_13
1005
14B9
  0
LINE
  5
14B6
330
1F
100
AcDbEntity
  8
AM_7
  6
AM_ISO08W050x2
100
AcDbLine
 10
685.6662223916056
 20
94.37225692572274
 30
0.0
 11
685.6662223916056
 21
96.87225692572276
 31
0.0
1001
GENIUS_GENOREF_13
1005
14B9
  0
LINE
  5
14B7
330
1F
100
AcDbEntity
  8
AM_7
  6
AM_ISO08W050x2
100
AcDbLine
 10
685.6662223916056
 20
94.37225692572274
 30
0.0
 11
683.1662223916056
 21
94.37225692572274
 31
0.0
1001
GENIUS_GENOREF_13
1005
14B9
  0
LINE
  5
14B8
330
1F
100
AcDbEntity
  8
AM_7
  6
AM_ISO08W050x2
100
AcDbLine
 10
685.6662223916056
 20
94.37225692572274
 30
0.0
 11
685.6662223916056
 21
91.87225692572274
 31
0.0
1001
GENIUS_GENOREF_13
1005
14B9
  0
POINT
  5
14B9
330
1F
100
AcDbEntity
  8
0
 60
     1
100
AcDbPoint
 10
0.0
 20
0.0
 30
0.0
1001
GENIUS_GENOENT_13
1002
{
1000
MYREF
1005
14B9
1002
}
1002
{
1000
GRP
1005
0
1002
}
1001
GENIUS_GENOBJ-N-CRS_13
1002
{
1000
OWNER
1000
GEN
1002
}
1001
GENIUS_GENODEF_13
1002
{
1000
HIER
1070
    10
1002
}
1002
{
1000
MANEDIT
1070
     0
1002
}
1002
{
1000
NOSEL
1070
     0
1002
}
1002
{
1000
BEHIND
1070
     0
1002
}
1002
{
1000
OTHER
1070
     0
1002
}
1002
{
1000
REACTOR
1002
}
1001
GENIUS_GENOLIS_13
1002
{
1000
ENT
1005
14B8
1005
14B7
1005
14B6
1005
14B5
1002
}
  0
LINE
  5
14C7
330
1F
100
AcDbEntity
  8
AM_7
  6
AM_ISO08W050x2
100
AcDbLine
 10
640.6662223916056
 20
94.37225692572274
 30
0.0
 11
643.3541304344324
 21
94.37225692572274
 31
0.0
1001
GENIUS_GENOREF_13
1005
14CB
  0
LINE
  5
14C8
330
1F
100
AcDbEntity
  8
AM_7
  6
AM_ISO08W050x2
100
AcDbLine
 10
640.6662223916056
 20
94.37225692572274
 30
0.0
 11
640.6662223916056
 21
97.06016496854957
 31
0.0
1001
GENIUS_GENOREF_13
1005
14CB
  0
LINE
  5
14C9
330
1F
100
AcDbEntity
  8
AM_7
  6
AM_ISO08W050x2
100
AcDbLine
 10
640.6662223916056
 20
94.37225692572274
 30
0.0
 11
637.9783143487787
 21
94.37225692572274
 31
0.0
1001
GENIUS_GENOREF_13
1005
14CB
  0
LINE
  5
14CA
330
1F
100
AcDbEntity
  8
AM_7
  6
AM_ISO08W050x2
100
AcDbLine
 10
640.6662223916056
 20
94.37225692572274
 30
0.0
 11
640.6662223916056
 21
91.68434888289592
 31
0.0
1001
GENIUS_GENOREF_13
1005
14CB
  0
POINT
  5
14CB
330
1F
100
AcDbEntity
  8
0
 60
     1
100
AcDbPoint
 10
0.0
 20
0.0
 30
0.0
1001
GENIUS_GENOLIS_13
1002
{
1000
ENT
1005
14CA
1005
14C9
1005
14C8
1005
14C7
1002
}
1001
GENIUS_GENOENT_13
1002
{
1000
MYREF
1005
14CB
1002
}
1002
{
1000
GRP
1005
0
1002
}
1001
GENIUS_GENOBJ-N-CRS_13
1002
{
1000
OWNER
1000
GEN
1002
}
1001
GENIUS_GENODEF_13
1002
{
1000
HIER
1070
    10
1002
}
1002
{
1000
MANEDIT
1070
     0
1002
}
1002
{
1000
NOSEL
1070
     0
1002
}
1002
{
1000
BEHIND
1070
     0
1002
}
1002
{
1000
OTHER
1070
     0
1002
}
1002
{
1000
REACTOR
1002
}
  0
LINE
  5
14D9
330
1F
100
AcDbEntity
  8
AM_7
  6
AM_ISO08W050x2
100
AcDbLine
 10
640.6662223916056
 20
104.3722569257227
 30
0.0
 11
643.1662223916056
 21
104.3722569257227
 31
0.0
1001
GENIUS_GENOREF_13
1005
14DD
  0
LINE
  5
14DA
330
1F
100
AcDbEntity
  8
AM_7
  6
AM_ISO08W050x2
100
AcDbLine
 10
640.6662223916056
 20
104.3722569257227
 30
0.0
 11
640.6662223916056
 21
106.8722569257227
 31
0.0
1001
GENIUS_GENOREF_13
1005
14DD
  0
LINE
  5
14DB
330
1F
100
AcDbEntity
  8
AM_7
  6
AM_ISO08W050x2
100
AcDbLine
 10
640.6662223916056
 20
104.3722569257227
 30
0.0
 11
638.1662223916056
 21
104.3722569257227
 31
0.0
1001
GENIUS_GENOREF_13
1005
14DD
  0
LINE
  5
14DC
330
1F
100
AcDbEntity
  8
AM_7
  6
AM_ISO08W050x2
100
AcDbLine
 10
640.6662223916056
 20
104.3722569257227
 30
0.0
 11
640.6662223916056
 21
101.8722569257227
 31
0.0
1001
GENIUS_GENOREF_13
1005
14DD
  0
POINT
  5
14DD
330
1F
100
AcDbEntity
  8
0
 60
     1
100
AcDbPoint
 10
0.0
 20
0.0
 30
0.0
1001
GENIUS_GENODEF_13
1002
{
1000
HIER
1070
    10
1002
}
1002
{
1000
MANEDIT
1070
     0
1002
}
1002
{
1000
NOSEL
1070
     0
1002
}
1002
{
1000
BEHIND
1070
     0
1002
}
1002
{
1000
OTHER
1070
     0
1002
}
1002
{
1000
REACTOR
1002
}
1001
GENIUS_GENOENT_13
1002
{
1000
MYREF
1005
14DD
1002
}
1002
{
1000
GRP
1005
0
1002
}
1001
GENIUS_GENOBJ-N-CRS_13
1002
{
1000
OWNER
1000
GEN
1002
}
1001
GENIUS_GENOLIS_13
1002
{
1000
ENT
1005
14DC
1005
14DB
1005
14DA
1005
14D9
1002
}
  0
LINE
  5
14EB
330
1F
100
AcDbEntity
  8
AM_7
  6
AM_ISO08W050x2
100
AcDbLine
 10
643.1662223916056
 20
99.37225692572276
 30
0.0
 11
646.4162223916056
 21
99.37225692572276
 31
0.0
1001
GENIUS_GENOREF_13
1005
14EF
  0
LINE
  5
14EC
330
1F
100
AcDbEntity
  8
AM_7
  6
AM_ISO08W050x2
100
AcDbLine
 10
643.1662223916056
 20
99.37225692572276
 30
0.0
 11
643.1662223916056
 21
102.6222569257227
 31
0.0
1001
GENIUS_GENOREF_13
1005
14EF
  0
LINE
  5
14ED
330
1F
100
AcDbEntity
  8
AM_7
  6
AM_ISO08W050x2
100
AcDbLine
 10
643.1662223916056
 20
99.37225692572276
 30
0.0
 11
639.9162223916056
 21
99.37225692572276
 31
0.0
1001
GENIUS_GENOREF_13
1005
14EF
  0
LINE
  5
14EE
330
1F
100
AcDbEntity
  8
AM_7
  6
AM_ISO08W050x2
100
AcDbLine
 10
643.1662223916056
 20
99.37225692572276
 30
0.0
 11
643.1662223916056
 21
96.12225692572275
 31
0.0
1001
GENIUS_GENOREF_13
1005
14EF
  0
POINT
  5
14EF
330
1F
100
AcDbEntity
  8
0
 60
     1
100
AcDbPoint
 10
0.0
 20
0.0
 30
0.0
1001
GENIUS_GENOLIS_13
1002
{
1000
ENT
1005
14EE
1005
14ED
1005
14EC
1005
14EB
1002
}
1001
GENIUS_GENOENT_13
1002
{
1000
MYREF
1005
14EF
1002
}
1002
{
1000
GRP
1005
0
1002
}
1001
GENIUS_GENODEF_13
1002
{
1000
HIER
1070
    10
1002
}
1002
{
1000
MANEDIT
1070
     0
1002
}
1002
{
1000
NOSEL
1070
     0
1002
}
1002
{
1000
BEHIND
1070
     0
1002
}
1002
{
1000
OTHER
1070
     0
1002
}
1002
{
1000
REACTOR
1002
}
1001
GENIUS_GENOBJ-N-CRS_13
1002
{
1000
OWNER
1000
GEN
1002
}
  0
LINE
  5
14FD
330
1F
100
AcDbEntity
  8
AM_7
  6
AM_ISO08W050x2
100
AcDbLine
 10
684.1662223916056
 20
267.8308151377764
 30
0.0
 11
687.1662223916056
 21
267.8308151377764
 31
0.0
1001
GENIUS_GENOREF_13
1005
1501
  0
LINE
  5
14FE
330
1F
100
AcDbEntity
  8
AM_7
  6
AM_ISO08W050x2
100
AcDbLine
 10
684.1662223916056
 20
267.8308151377764
 30
0.0
 11
684.1662223916056
 21
270.8308151377764
 31
0.0
1001
GENIUS_GENOREF_13
1005
1501
  0
LINE
  5
14FF
330
1F
100
AcDbEntity
  8
AM_7
  6
AM_ISO08W050x2
100
AcDbLine
 10
684.1662223916056
 20
267.8308151377764
 30
0.0
 11
681.1662223916056
 21
267.8308151377764
 31
0.0
1001
GENIUS_GENOREF_13
1005
1501
  0
LINE
  5
1500
330
1F
100
AcDbEntity
  8
AM_7
  6
AM_ISO08W050x2
100
AcDbLine
 10
684.1662223916056
 20
267.8308151377764
 30
0.0
 11
684.1662223916056
 21
264.8308151377764
 31
0.0
1001
GENIUS_GENOREF_13
1005
1501
  0
POINT
  5
1501
330
1F
100
AcDbEntity
  8
0
 60
     1
100
AcDbPoint
 10
0.0
 20
0.0
 30
0.0
1001
GENIUS_GENODEF_13
1002
{
1000
HIER
1070
    10
1002
}
1002
{
1000
MANEDIT
1070
     0
1002
}
1002
{
1000
NOSEL
1070
     0
1002
}
1002
{
1000
BEHIND
1070
     0
1002
}
1002
{
1000
OTHER
1070
     0
1002
}
1002
{
1000
REACTOR
1002
}
1001
GENIUS_GENOENT_13
1002
{
1000
MYREF
1005
1501
1002
}
1002
{
1000
GRP
1005
0
1002
}
1001
GENIUS_GENOBJ-N-CRS_13
1002
{
1000
OWNER
1000
GEN
1002
}
1001
GENIUS_GENOLIS_13
1002
{
1000
ENT
1005
1500
1005
14FF
1005
14FE
1005
14FD
1002
}
  0
LINE
  5
150F
330
1F
100
AcDbEntity
  8
AM_7
  6
AM_ISO08W050x2
100
AcDbLine
 10
684.1662223916056
 20
259.8308151377764
 30
0.0
 11
687.1662223916056
 21
259.8308151377764
 31
0.0
1001
GENIUS_GENOREF_13
1005
1513
  0
LINE
  5
1510
330
1F
100
AcDbEntity
  8
AM_7
  6
AM_ISO08W050x2
100
AcDbLine
 10
684.1662223916056
 20
259.8308151377764
 30
0.0
 11
684.1662223916056
 21
262.8308151377764
 31
0.0
1001
GENIUS_GENOREF_13
1005
1513
  0
LINE
  5
1511
330
1F
100
AcDbEntity
  8
AM_7
  6
AM_ISO08W050x2
100
AcDbLine
 10
684.1662223916056
 20
259.8308151377764
 30
0.0
 11
681.1662223916056
 21
259.8308151377764
 31
0.0
1001
GENIUS_GENOREF_13
1005
1513
  0
LINE
  5
1512
330
1F
100
AcDbEntity
  8
AM_7
  6
AM_ISO08W050x2
100
AcDbLine
 10
684.1662223916056
 20
259.8308151377764
 30
0.0
 11
684.1662223916056
 21
256.8308151377764
 31
0.0
1001
GENIUS_GENOREF_13
1005
1513
  0
POINT
  5
1513
330
1F
100
AcDbEntity
  8
0
 60
     1
100
AcDbPoint
 10
0.0
 20
0.0
 30
0.0
1001
GENIUS_GENODEF_13
1002
{
1000
HIER
1070
    10
1002
}
1002
{
1000
MANEDIT
1070
     0
1002
}
1002
{
1000
NOSEL
1070
     0
1002
}
1002
{
1000
BEHIND
1070
     0
1002
}
1002
{
1000
OTHER
1070
     0
1002
}
1002
{
1000
REACTOR
1002
}
1001
GENIUS_GENOENT_13
1002
{
1000
MYREF
1005
1513
1002
}
1002
{
1000
GRP
1005
0
1002
}
1001
GENIUS_GENOBJ-N-CRS_13
1002
{
1000
OWNER
1000
GEN
1002
}
1001
GENIUS_GENOLIS_13
1002
{
1000
ENT
1005
1512
1005
1511
1005
1510
1005
150F
1002
}
  0
LINE
  5
1521
330
1F
100
AcDbEntity
  8
AM_7
  6
AM_ISO08W050x2
100
AcDbLine
 10
670.1662223916056
 20
259.3308151377764
 30
0.0
 11
672.6662223916056
 21
259.3308151377764
 31
0.0
1001
GENIUS_GENOREF_13
1005
1525
  0
LINE
  5
1522
330
1F
100
AcDbEntity
  8
AM_7
  6
AM_ISO08W050x2
100
AcDbLine
 10
670.1662223916056
 20
259.3308151377764
 30
0.0
 11
670.1662223916056
 21
261.8308151377764
 31
0.0
1001
GENIUS_GENOREF_13
1005
1525
  0
LINE
  5
1523
330
1F
100
AcDbEntity
  8
AM_7
  6
AM_ISO08W050x2
100
AcDbLine
 10
670.1662223916056
 20
259.3308151377764
 30
0.0
 11
667.6662223916056
 21
259.3308151377764
 31
0.0
1001
GENIUS_GENOREF_13
1005
1525
  0
LINE
  5
1524
330
1F
100
AcDbEntity
  8
AM_7
  6
AM_ISO08W050x2
100
AcDbLine
 10
670.1662223916056
 20
259.3308151377764
 30
0.0
 11
670.1662223916056
 21
256.8308151377764
 31
0.0
1001
GENIUS_GENOREF_13
1005
1525
  0
POINT
  5
1525
330
1F
100
AcDbEntity
  8
0
 60
     1
100
AcDbPoint
 10
0.0
 20
0.0
 30
0.0
1001
GENIUS_GENODEF_13
1002
{
1000
HIER
1070
    10
1002
}
1002
{
1000
MANEDIT
1070
     0
1002
}
1002
{
1000
NOSEL
1070
     0
1002
}
1002
{
1000
BEHIND
1070
     0
1002
}
1002
{
1000
OTHER
1070
     0
1002
}
1002
{
1000
REACTOR
1002
}
1001
GENIUS_GENOBJ-N-CRS_13
1002
{
1000
OWNER
1000
GEN
1002
}
1001
GENIUS_GENOLIS_13
1002
{
1000
ENT
1005
1524
1005
1523
1005
1522
1005
1521
1002
}
1001
GENIUS_GENOENT_13
1002
{
1000
MYREF
1005
1525
1002
}
1002
{
1000
GRP
1005
0
1002
}
  0
LINE
  5
1533
330
1F
100
AcDbEntity
  8
AM_7
  6
AM_ISO08W050x2
100
AcDbLine
 10
670.1662223916056
 20
268.3308151377764
 30
0.0
 11
672.6662223916056
 21
268.3308151377764
 31
0.0
1001
GENIUS_GENOREF_13
1005
1537
  0
LINE
  5
1534
330
1F
100
AcDbEntity
  8
AM_7
  6
AM_ISO08W050x2
100
AcDbLine
 10
670.1662223916056
 20
268.3308151377764
 30
0.0
 11
670.1662223916056
 21
270.8308151377764
 31
0.0
1001
GENIUS_GENOREF_13
1005
1537
  0
LINE
  5
1535
330
1F
100
AcDbEntity
  8
AM_7
  6
AM_ISO08W050x2
100
AcDbLine
 10
670.1662223916056
 20
268.3308151377764
 30
0.0
 11
667.6662223916056
 21
268.3308151377764
 31
0.0
1001
GENIUS_GENOREF_13
1005
1537
  0
LINE
  5
1536
330
1F
100
AcDbEntity
  8
AM_7
  6
AM_ISO08W050x2
100
AcDbLine
 10
670.1662223916056
 20
268.3308151377764
 30
0.0
 11
670.1662223916056
 21
265.8308151377764
 31
0.0
1001
GENIUS_GENOREF_13
1005
1537
  0
POINT
  5
1537
330
1F
100
AcDbEntity
  8
0
 60
     1
100
AcDbPoint
 10
0.0
 20
0.0
 30
0.0
1001
GENIUS_GENODEF_13
1002
{
1000
HIER
1070
    10
1002
}
1002
{
1000
MANEDIT
1070
     0
1002
}
1002
{
1000
NOSEL
1070
     0
1002
}
1002
{
1000
BEHIND
1070
     0
1002
}
1002
{
1000
OTHER
1070
     0
1002
}
1002
{
1000
REACTOR
1002
}
1001
GENIUS_GENOENT_13
1002
{
1000
MYREF
1005
1537
1002
}
1002
{
1000
GRP
1005
0
1002
}
1001
GENIUS_GENOBJ-N-CRS_13
1002
{
1000
OWNER
1000
GEN
1002
}
1001
GENIUS_GENOLIS_13
1002
{
1000
ENT
1005
1536
1005
1535
1005
1534
1005
1533
1002
}
  0
LINE
  5
1545
330
1F
100
AcDbEntity
  8
AM_7
  6
AM_ISO08W050x2
100
AcDbLine
 10
650.1662223916056
 20
268.3308151377765
 30
0.0
 11
652.6662223916056
 21
268.3308151377765
 31
0.0
1001
GENIUS_GENOREF_13
1005
1549
  0
LINE
  5
1546
330
1F
100
AcDbEntity
  8
AM_7
  6
AM_ISO08W050x2
100
AcDbLine
 10
650.1662223916056
 20
268.3308151377765
 30
0.0
 11
650.1662223916056
 21
270.8308151377766
 31
0.0
1001
GENIUS_GENOREF_13
1005
1549
  0
LINE
  5
1547
330
1F
100
AcDbEntity
  8
AM_7
  6
AM_ISO08W050x2
100
AcDbLine
 10
650.1662223916056
 20
268.3308151377765
 30
0.0
 11
647.6662223916056
 21
268.3308151377765
 31
0.0
1001
GENIUS_GENOREF_13
1005
1549
  0
LINE
  5
1548
330
1F
100
AcDbEntity
  8
AM_7
  6
AM_ISO08W050x2
100
AcDbLine
 10
650.1662223916056
 20
268.3308151377765
 30
0.0
 11
650.1662223916056
 21
265.8308151377765
 31
0.0
1001
GENIUS_GENOREF_13
1005
1549
  0
POINT
  5
1549
330
1F
100
AcDbEntity
  8
0
 60
     1
100
AcDbPoint
 10
0.0
 20
0.0
 30
0.0
1001
GENIUS_GENOLIS_13
1002
{
1000
ENT
1005
1548
1005
1547
1005
1546
1005
1545
1002
}
1001
GENIUS_GENOENT_13
1002
{
1000
MYREF
1005
1549
1002
}
1002
{
1000
GRP
1005
0
1002
}
1001
GENIUS_GENOBJ-N-CRS_13
1002
{
1000
OWNER
1000
GEN
1002
}
1001
GENIUS_GENODEF_13
1002
{
1000
HIER
1070
    10
1002
}
1002
{
1000
MANEDIT
1070
     0
1002
}
1002
{
1000
NOSEL
1070
     0
1002
}
1002
{
1000
BEHIND
1070
     0
1002
}
1002
{
1000
OTHER
1070
     0
1002
}
1002
{
1000
REACTOR
1002
}
  0
LINE
  5
1557
330
1F
100
AcDbEntity
  8
AM_7
  6
AM_ISO08W050x2
100
AcDbLine
 10
650.1662223916056
 20
259.3308151377765
 30
0.0
 11
652.6662223916056
 21
259.3308151377765
 31
0.0
1001
GENIUS_GENOREF_13
1005
155B
  0
LINE
  5
1558
330
1F
100
AcDbEntity
  8
AM_7
  6
AM_ISO08W050x2
100
AcDbLine
 10
650.1662223916056
 20
259.3308151377765
 30
0.0
 11
650.1662223916056
 21
261.8308151377765
 31
0.0
1001
GENIUS_GENOREF_13
1005
155B
  0
LINE
  5
1559
330
1F
100
AcDbEntity
  8
AM_7
  6
AM_ISO08W050x2
100
AcDbLine
 10
650.1662223916056
 20
259.3308151377765
 30
0.0
 11
647.6662223916056
 21
259.3308151377765
 31
0.0
1001
GENIUS_GENOREF_13
1005
155B
  0
LINE
  5
155A
330
1F
100
AcDbEntity
  8
AM_7
  6
AM_ISO08W050x2
100
AcDbLine
 10
650.1662223916056
 20
259.3308151377765
 30
0.0
 11
650.1662223916056
 21
256.8308151377765
 31
0.0
1001
GENIUS_GENOREF_13
1005
155B
  0
POINT
  5
155B
330
1F
100
AcDbEntity
  8
0
 60
     1
100
AcDbPoint
 10
0.0
 20
0.0
 30
0.0
1001
GENIUS_GENOBJ-N-CRS_13
1002
{
1000
OWNER
1000
GEN
1002
}
1001
GENIUS_GENODEF_13
1002
{
1000
HIER
1070
    10
1002
}
1002
{
1000
MANEDIT
1070
     0
1002
}
1002
{
1000
NOSEL
1070
     0
1002
}
1002
{
1000
BEHIND
1070
     0
1002
}
1002
{
1000
OTHER
1070
     0
1002
}
1002
{
1000
REACTOR
1002
}
1001
GENIUS_GENOENT_13
1002
{
1000
MYREF
1005
155B
1002
}
1002
{
1000
GRP
1005
0
1002
}
1001
GENIUS_GENOLIS_13
1002
{
1000
ENT
1005
155A
1005
1559
1005
1558
1005
1557
1002
}
  0
LINE
  5
1569
330
1F
100
AcDbEntity
  8
AM_7
  6
AM_ISO08W050x2
100
AcDbLine
 10
630.1662223916056
 20
259.3308151377765
 30
0.0
 11
632.6662223916056
 21
259.3308151377765
 31
0.0
1001
GENIUS_GENOREF_13
1005
156D
  0
LINE
  5
156A
330
1F
100
AcDbEntity
  8
AM_7
  6
AM_ISO08W050x2
100
AcDbLine
 10
630.1662223916056
 20
259.3308151377765
 30
0.0
 11
630.1662223916056
 21
261.8308151377765
 31
0.0
1001
GENIUS_GENOREF_13
1005
156D
  0
LINE
  5
156B
330
1F
100
AcDbEntity
  8
AM_7
  6
AM_ISO08W050x2
100
AcDbLine
 10
630.1662223916056
 20
259.3308151377765
 30
0.0
 11
627.6662223916056
 21
259.3308151377765
 31
0.0
1001
GENIUS_GENOREF_13
1005
156D
  0
LINE
  5
156C
330
1F
100
AcDbEntity
  8
AM_7
  6
AM_ISO08W050x2
100
AcDbLine
 10
630.1662223916056
 20
259.3308151377765
 30
0.0
 11
630.1662223916056
 21
256.8308151377765
 31
0.0
1001
GENIUS_GENOREF_13
1005
156D
  0
POINT
  5
156D
330
1F
100
AcDbEntity
  8
0
 60
     1
100
AcDbPoint
 10
0.0
 20
0.0
 30
0.0
1001
GENIUS_GENODEF_13
1002
{
1000
HIER
1070
    10
1002
}
1002
{
1000
MANEDIT
1070
     0
1002
}
1002
{
1000
NOSEL
1070
     0
1002
}
1002
{
1000
BEHIND
1070
     0
1002
}
1002
{
1000
OTHER
1070
     0
1002
}
1002
{
1000
REACTOR
1002
}
1001
GENIUS_GENOENT_13
1002
{
1000
MYREF
1005
156D
1002
}
1002
{
1000
GRP
1005
0
1002
}
1001
GENIUS_GENOBJ-N-CRS_13
1002
{
1000
OWNER
1000
GEN
1002
}
1001
GENIUS_GENOLIS_13
1002
{
1000
ENT
1005
156C
1005
156B
1005
156A
1005
1569
1002
}
  0
LINE
  5
157B
330
1F
100
AcDbEntity
  8
AM_7
  6
AM_ISO08W050x2
100
AcDbLine
 10
630.1662223916056
 20
268.3308151377765
 30
0.0
 11
632.6662223916056
 21
268.3308151377765
 31
0.0
1001
GENIUS_GENOREF_13
1005
157F
  0
LINE
  5
157C
330
1F
100
AcDbEntity
  8
AM_7
  6
AM_ISO08W050x2
100
AcDbLine
 10
630.1662223916056
 20
268.3308151377765
 30
0.0
 11
630.1662223916056
 21
270.8308151377766
 31
0.0
1001
GENIUS_GENOREF_13
1005
157F
  0
LINE
  5
157D
330
1F
100
AcDbEntity
  8
AM_7
  6
AM_ISO08W050x2
100
AcDbLine
 10
630.1662223916056
 20
268.3308151377765
 30
0.0
 11
627.6662223916056
 21
268.3308151377765
 31
0.0
1001
GENIUS_GENOREF_13
1005
157F
  0
LINE
  5
157E
330
1F
100
AcDbEntity
  8
AM_7
  6
AM_ISO08W050x2
100
AcDbLine
 10
630.1662223916056
 20
268.3308151377765
 30
0.0
 11
630.1662223916056
 21
265.8308151377765
 31
0.0
1001
GENIUS_GENOREF_13
1005
157F
  0
POINT
  5
157F
330
1F
100
AcDbEntity
  8
0
 60
     1
100
AcDbPoint
 10
0.0
 20
0.0
 30
0.0
1001
GENIUS_GENOENT_13
1002
{
1000
MYREF
1005
157F
1002
}
1002
{
1000
GRP
1005
0
1002
}
1001
GENIUS_GENOBJ-N-CRS_13
1002
{
1000
OWNER
1000
GEN
1002
}
1001
GENIUS_GENODEF_13
1002
{
1000
HIER
1070
    10
1002
}
1002
{
1000
MANEDIT
1070
     0
1002
}
1002
{
1000
NOSEL
1070
     0
1002
}
1002
{
1000
BEHIND
1070
     0
1002
}
1002
{
1000
OTHER
1070
     0
1002
}
1002
{
1000
REACTOR
1002
}
1001
GENIUS_GENOLIS_13
1002
{
1000
ENT
1005
157E
1005
157D
1005
157C
1005
157B
1002
}
  0
LINE
  5
1580
330
1F
100
AcDbEntity
  8
AM_VIS
100
AcDbLine
 10
684.1662223916056
 20
268.6968405415608
 30
0.0
 11
684.9162223916056
 21
268.2638278396686
 31
0.0
  0
LINE
  5
1581
330
1F
100
AcDbEntity
  8
AM_VIS
100
AcDbLine
 10
683.4162223916056
 20
268.2638278396686
 30
0.0
 11
684.1662223916056
 21
268.6968405415608
 31
0.0
  0
LINE
  5
1582
330
1F
100
AcDbEntity
  8
AM_VIS
100
AcDbLine
 10
683.4162223916056
 20
267.3978024358842
 30
0.0
 11
683.4162223916056
 21
268.2638278396686
 31
0.0
  0
LINE
  5
1583
330
1F
100
AcDbEntity
  8
AM_VIS
100
AcDbLine
 10
684.1662223916056
 20
266.964789733992
 30
0.0
 11
683.4162223916056
 21
267.3978024358842
 31
0.0
  0
LINE
  5
1584
330
1F
100
AcDbEntity
  8
AM_VIS
100
AcDbLine
 10
684.9162223916056
 20
267.3978024358842
 30
0.0
 11
684.1662223916056
 21
266.964789733992
 31
0.0
  0
LINE
  5
1585
330
1F
100
AcDbEntity
  8
AM_VIS
100
AcDbLine
 10
684.9162223916056
 20
268.2638278396686
 30
0.0
 11
684.9162223916056
 21
267.3978024358842
 31
0.0
  0
CIRCLE
  5
1586
330
1F
100
AcDbEntity
  8
AM_VIS
100
AcDbCircle
 10
684.1662223916056
 20
267.8308151377764
 30
0.0
 40
1.799999999999999
  0
LINE
  5
1589
330
1F
100
AcDbEntity
  8
AM_VIS
100
AcDbLine
 10
684.1662223916056
 20
260.6968405415608
 30
0.0
 11
684.9162223916056
 21
260.2638278396686
 31
0.0
  0
LINE
  5
158A
330
1F
100
AcDbEntity
  8
AM_VIS
100
AcDbLine
 10
683.4162223916056
 20
260.2638278396686
 30
0.0
 11
684.1662223916056
 21
260.6968405415608
 31
0.0
  0
LINE
  5
158B
330
1F
100
AcDbEntity
  8
AM_VIS
100
AcDbLine
 10
683.4162223916056
 20
259.3978024358841
 30
0.0
 11
683.4162223916056
 21
260.2638278396686
 31
0.0
  0
LINE
  5
158C
330
1F
100
AcDbEntity
  8
AM_VIS
100
AcDbLine
 10
684.1662223916056
 20
258.9647897339919
 30
0.0
 11
683.4162223916056
 21
259.3978024358841
 31
0.0
  0
LINE
  5
158D
330
1F
100
AcDbEntity
  8
AM_VIS
100
AcDbLine
 10
684.9162223916056
 20
259.3978024358841
 30
0.0
 11
684.1662223916056
 21
258.9647897339919
 31
0.0
  0
LINE
  5
158E
330
1F
100
AcDbEntity
  8
AM_VIS
100
AcDbLine
 10
684.9162223916056
 20
260.2638278396686
 30
0.0
 11
684.9162223916056
 21
259.3978024358841
 31
0.0
  0
CIRCLE
  5
158F
330
1F
100
AcDbEntity
  8
AM_VIS
100
AcDbCircle
 10
684.1662223916056
 20
259.8308151377764
 30
0.0
 40
1.799999999999999
  0
LINE
  5
159D
330
1F
100
AcDbEntity
  8
AM_7
100
AcDbLine
 10
621.1662223916056
 20
263.8308151377765
 30
0.0
 11
702.6662223916056
 21
263.8308151377765
 31
0.0
1001
GENIUS_GENODEF_13
1002
{
1000
HIER
1070
     0
1002
}
1002
{
1000
MANEDIT
1070
     0
1002
}
1002
{
1000
NOSEL
1070
     0
1002
}
1002
{
1000
BEHIND
1070
     0
1002
}
1002
{
1000
OTHER
1070
     0
1002
}
1002
{
1000
REACTOR
1002
}
1001
GENIUS_GENOBJ-N-CEN_13
1002
{
1000
OWNER
1000
GEN
1002
}
1001
GENIUS_GENCEN_19
1002
{
1040
1.0
1002
}
  0
LINE
  5
15E3
330
1F
100
AcDbEntity
  8
AM_7
100
AcDbLine
 10
555.0777402851024
 20
180.0894666630171
 30
0.0
 11
561.5770143908535
 21
180.0894666630171
 31
0.0
1001
GENIUS_GENOREF_13
1005
15E7
  0
LINE
  5
15E4
330
1F
100
AcDbEntity
  8
AM_7
100
AcDbLine
 10
555.0777402851024
 20
180.0894666630171
 30
0.0
 11
555.0777402851024
 21
186.5887407687681
 31
0.0
1001
GENIUS_GENOREF_13
1005
15E7
  0
LINE
  5
15E5
330
1F
100
AcDbEntity
  8
AM_7
100
AcDbLine
 10
555.0777402851024
 20
180.0894666630171
 30
0.0
 11
548.5784661793513
 21
180.0894666630171
 31
0.0
1001
GENIUS_GENOREF_13
1005
15E7
  0
LINE
  5
15E6
330
1F
100
AcDbEntity
  8
AM_7
100
AcDbLine
 10
555.0777402851024
 20
180.0894666630171
 30
0.0
 11
555.0777402851024
 21
173.590192557266
 31
0.0
1001
GENIUS_GENOREF_13
1005
15E7
  0
POINT
  5
15E7
330
1F
100
AcDbEntity
  8
0
 60
     1
100
AcDbPoint
 10
0.0
 20
0.0
 30
0.0
1001
GENIUS_GENOBJ-N-CRS_13
1002
{
1000
OWNER
1000
GEN
1002
}
1001
GENIUS_GENODEF_13
1002
{
1000
HIER
1070
    10
1002
}
1002
{
1000
MANEDIT
1070
     0
1002
}
1002
{
1000
NOSEL
1070
     0
1002
}
1002
{
1000
BEHIND
1070
     0
1002
}
1002
{
1000
OTHER
1070
     0
1002
}
1002
{
1000
REACTOR
1002
}
1001
GENIUS_GENOENT_13
1002
{
1000
MYREF
1005
15E7
1002
}
1002
{
1000
GRP
1005
0
1002
}
1001
GENIUS_GENOLIS_13
1002
{
1000
ENT
1005
15E6
1005
15E5
1005
15E4
1005
15E3
1002
}
  0
LINE
  5
1622
330
1F
100
AcDbEntity
  8
AM_7
100
AcDbLine
 10
621.0236039939238
 20
180.0901926051808
 30
0.0
 11
704.0812861829117
 21
180.0901926051808
 31
0.0
1001
GENIUS_GENOBJ-N-CEN_13
1002
{
1000
OWNER
1000
GEN
1002
}
1001
GENIUS_GENODEF_13
1002
{
1000
HIER
1070
     0
1002
}
1002
{
1000
MANEDIT
1070
     0
1002
}
1002
{
1000
NOSEL
1070
     0
1002
}
1002
{
1000
BEHIND
1070
     0
1002
}
1002
{
1000
OTHER
1070
     0
1002
}
1002
{
1000
REACTOR
1002
}
1001
GENIUS_GENCEN_19
1002
{
1040
1.0
1002
}
  0
LINE
  5
1634
330
1F
100
AcDbEntity
  8
AM_7
100
AcDbLine
 10
778.3634138853857
 20
180.0901926051809
 30
0.0
 11
783.3634138853857
 21
180.0901926051809
 31
0.0
1001
GENIUS_GENOREF_13
1005
1638
  0
LINE
  5
1635
330
1F
100
AcDbEntity
  8
AM_7
100
AcDbLine
 10
778.3634138853857
 20
180.0901926051809
 30
0.0
 11
778.3634138853857
 21
185.0901926051809
 31
0.0
1001
GENIUS_GENOREF_13
1005
1638
  0
LINE
  5
1636
330
1F
100
AcDbEntity
  8
AM_7
100
AcDbLine
 10
778.3634138853857
 20
180.0901926051809
 30
0.0
 11
773.3634138853857
 21
180.0901926051809
 31
0.0
1001
GENIUS_GENOREF_13
1005
1638
  0
LINE
  5
1637
330
1F
100
AcDbEntity
  8
AM_7
100
AcDbLine
 10
778.3634138853857
 20
180.0901926051809
 30
0.0
 11
778.3634138853857
 21
175.090192605181
 31
0.0
1001
GENIUS_GENOREF_13
1005
1638
  0
POINT
  5
1638
330
1F
100
AcDbEntity
  8
0
 60
     1
100
AcDbPoint
 10
0.0
 20
0.0
 30
0.0
1001
GENIUS_GENOLIS_13
1002
{
1000
ENT
1005
1637
1005
1636
1005
1635
1005
1634
1002
}
1001
GENIUS_GENOENT_13
1002
{
1000
MYREF
1005
1638
1002
}
1002
{
1000
GRP
1005
0
1002
}
1001
GENIUS_GENOBJ-N-CRS_13
1002
{
1000
OWNER
1000
GEN
1002
}
1001
GENIUS_GENODEF_13
1002
{
1000
HIER
1070
    10
1002
}
1002
{
1000
MANEDIT
1070
     0
1002
}
1002
{
1000
NOSEL
1070
     0
1002
}
1002
{
1000
BEHIND
1070
     0
1002
}
1002
{
1000
OTHER
1070
     0
1002
}
1002
{
1000
REACTOR
1002
}
  0
LINE
  5
1645
330
1F
100
AcDbEntity
  8
AM_7
100
AcDbLine
 10
621.1662223916056
 20
99.37225692572287
 30
0.0
 11
704.7264888418067
 21
99.37225692572287
 31
0.0
1001
GENIUS_GENODEF_13
1002
{
1000
HIER
1070
     0
1002
}
1002
{
1000
MANEDIT
1070
     0
1002
}
1002
{
1000
NOSEL
1070
     0
1002
}
1002
{
1000
BEHIND
1070
     0
1002
}
1002
{
1000
OTHER
1070
     0
1002
}
1002
{
1000
REACTOR
1002
}
1001
GENIUS_GENOBJ-N-CEN_13
1002
{
1000
OWNER
1000
GEN
1002
}
1001
GENIUS_GENCEN_19
1002
{
1040
1.0
1002
}
  0
INSERT
  5
2F23
330
1F
100
AcDbEntity
  8
AM_5
100
AcDbBlockReference
  2
*S38
 10
0.0
 20
0.0
 30
0.0
  0
INSERT
  5
2F5E
330
1F
100
AcDbEntity
  8
AM_5
100
AcDbBlockReference
  2
*S39
 10
0.0
 20
0.0
 30
0.0
  0
INSERT
  5
2F5F
330
1F
100
AcDbEntity
  8
AM_5
100
AcDbBlockReference
  2
*S40
 10
0.0
 20
0.0
 30
0.0
  0
INSERT
  5
2FD8
330
1F
100
AcDbEntity
  8
AM_5
100
AcDbBlockReference
  2
*S41
 10
0.0
 20
0.0
 30
0.0
  0
INSERT
  5
2FDB
330
1F
100
AcDbEntity
  8
AM_5
100
AcDbBlockReference
  2
*S42
 10
0.0
 20
0.0
 30
0.0
  0
INSERT
  5
2FE1
330
1F
100
AcDbEntity
  8
AM_5
100
AcDbBlockReference
  2
*S43
 10
0.0
 20
0.0
 30
0.0
  0
LINE
  5
4315
330
1F
100
AcDbEntity
  8
AM_VIS
100
AcDbLine
 10
690.4162223916056
 20
188.3685047692326
 30
0.0
 11
690.4162223916056
 21
189.8118804422067
 31
0.0
  0
LINE
  5
4316
330
1F
100
AcDbEntity
  8
AM_VIS
100
AcDbLine
 10
690.4162223916056
 20
189.8118804422067
 30
0.0
 11
691.6662223916056
 21
190.5335682786937
 31
0.0
  0
LINE
  5
4317
330
1F
100
AcDbEntity
  8
AM_VIS
100
AcDbLine
 10
691.6662223916056
 20
190.5335682786937
 30
0.0
 11
692.9162223916056
 21
189.8118804422067
 31
0.0
  0
LINE
  5
4318
330
1F
100
AcDbEntity
  8
AM_VIS
100
AcDbLine
 10
692.9162223916056
 20
189.8118804422067
 30
0.0
 11
692.9162223916056
 21
188.3685047692326
 31
0.0
  0
LINE
  5
4319
330
1F
100
AcDbEntity
  8
AM_VIS
100
AcDbLine
 10
692.9162223916056
 20
188.3685047692326
 30
0.0
 11
691.6662223916056
 21
187.6468169327456
 31
0.0
  0
LINE
  5
431A
330
1F
100
AcDbEntity
  8
AM_VIS
100
AcDbLine
 10
691.6662223916056
 20
187.6468169327456
 30
0.0
 11
690.4162223916056
 21
188.3685047692326
 31
0.0
  0
CIRCLE
  5
431B
330
1F
100
AcDbEntity
  8
AM_VIS
100
AcDbCircle
 10
691.6662223916056
 20
189.0901926051808
 30
0.0
 40
2.5
  0
LINE
  5
431D
330
1F
100
AcDbEntity
  8
AM_VIS
100
AcDbLine
 10
690.4162223916056
 20
170.3685047692326
 30
0.0
 11
690.4162223916056
 21
171.8118804422067
 31
0.0
  0
LINE
  5
431E
330
1F
100
AcDbEntity
  8
AM_VIS
100
AcDbLine
 10
690.4162223916056
 20
171.8118804422067
 30
0.0
 11
691.6662223916056
 21
172.5335682786937
 31
0.0
  0
LINE
  5
431F
330
1F
100
AcDbEntity
  8
AM_VIS
100
AcDbLine
 10
691.6662223916056
 20
172.5335682786937
 30
0.0
 11
692.9162223916056
 21
171.8118804422067
 31
0.0
  0
LINE
  5
4320
330
1F
100
AcDbEntity
  8
AM_VIS
100
AcDbLine
 10
692.9162223916056
 20
171.8118804422067
 30
0.0
 11
692.9162223916056
 21
170.3685047692326
 31
0.0
  0
LINE
  5
4321
330
1F
100
AcDbEntity
  8
AM_VIS
100
AcDbLine
 10
692.9162223916056
 20
170.3685047692326
 30
0.0
 11
691.6662223916056
 21
169.6468169327456
 31
0.0
  0
LINE
  5
4322
330
1F
100
AcDbEntity
  8
AM_VIS
100
AcDbLine
 10
691.6662223916056
 20
169.6468169327456
 30
0.0
 11
690.4162223916056
 21
170.3685047692326
 31
0.0
  0
CIRCLE
  5
4323
330
1F
100
AcDbEntity
  8
AM_VIS
100
AcDbCircle
 10
691.6662223916056
 20
171.0901926051808
 30
0.0
 40
2.5
  0
TEXT
  5
43C6
330
1F
100
AcDbEntity
  8
AM_5
100
AcDbText
 10
703.8465156334767
 20
204.9591150392737
 30
0.0
 40
3.0
  1
(hexagon socket head set screw)
 41
0.8
100
AcDbText
  0
TEXT
  5
43E0
330
1F
100
AcDbEntity
  8
AM_5
100
AcDbText
 10
646.851888996498
 20
216.0137456202993
 30
0.0
 40
3.5
  1
bottom hole dia.%%C3.3
100
AcDbText
  0
LINE
  5
4483
330
1F
100
AcDbEntity
  8
AM_7
  6
ACISOTGB
 62
     2
100
AcDbLine
 10
657.1662223916056
 20
208.136181192453
 30
0.0
 11
657.1662223916056
 21
156.4434269877506
 31
0.0
1001
GENIUS_GENOBJ-N-CEN_13
1002
{
1000
OWNER
1000
GEN
1002
}
1001
GENIUS_GENODEF_13
1002
{
1000
HIER
1070
     0
1002
}
1002
{
1000
MANEDIT
1070
     0
1002
}
1002
{
1000
NOSEL
1070
     0
1002
}
1002
{
1000
BEHIND
1070
     0
1002
}
1002
{
1000
OTHER
1070
     0
1002
}
1002
{
1000
REACTOR
1002
}
1001
GENIUS_GENCEN_19
1002
{
1040
3.0
1002
}
  0
INSERT
  5
4484
330
1F
100
AcDbEntity
  8
0
100
AcDbBlockReference
  2
A$C1F6E6265
 10
657.1662218345577
 20
157.9250856508783
 30
0.0
 41
1.199999999999999
 42
1.199999999999999
 43
1.199999999999999
  0
LINE
  5
4519
330
1F
100
AcDbEntity
  8
DIM2
100
AcDbLine
 10
738.4504167618689
 20
85.3764487711639
 30
0.0
 11
796.7704167618689
 21
85.3764487711639
 31
0.0
  0
LINE
  5
451A
330
1F
100
AcDbEntity
  8
DIM2
100
AcDbLine
 10
738.4504167618689
 20
126.8484487711637
 30
0.0
 11
796.7704167618689
 21
126.8484487711637
 31
0.0
  0
LINE
  5
451B
330
1F
100
AcDbEntity
  8
DIM2
100
AcDbLine
 10
738.4504167618689
 20
90.56044877116391
 30
0.0
 11
796.7704167618689
 21
90.56044877116391
 31
0.0
  0
LINE
  5
451C
330
1F
100
AcDbEntity
  8
DIM2
100
AcDbLine
 10
738.4504167618689
 20
95.74444877116377
 30
0.0
 11
796.7704167618689
 21
95.74444877116395
 31
0.0
  0
LINE
  5
451D
330
1F
100
AcDbEntity
  8
DIM2
100
AcDbLine
 10
738.4504167618689
 20
100.9284487711638
 30
0.0
 11
796.7704167618689
 21
100.9284487711638
 31
0.0
  0
LINE
  5
451E
330
1F
100
AcDbEntity
  8
DIM2
100
AcDbLine
 10
738.4504167618689
 20
106.1124487711638
 30
0.0
 11
796.7704167618689
 21
106.1124487711638
 31
0.0
  0
LINE
  5
451F
330
1F
100
AcDbEntity
  8
DIM2
100
AcDbLine
 10
738.4504167618689
 20
111.2964487711638
 30
0.0
 11
796.7704167618689
 21
111.2964487711638
 31
0.0
  0
LINE
  5
4520
330
1F
100
AcDbEntity
  8
DIM2
100
AcDbLine
 10
738.4504167618689
 20
116.4804487711639
 30
0.0
 11
796.7704167618689
 21
116.4804487711639
 31
0.0
  0
LINE
  5
4521
330
1F
100
AcDbEntity
  8
DIM2
100
AcDbLine
 10
738.4504167618689
 20
126.8484487711637
 30
0.0
 11
738.4504167618689
 21
69.82444877116382
 31
0.0
  0
LINE
  5
4522
330
1F
100
AcDbEntity
  8
DIM2
100
AcDbLine
 10
748.170416761869
 20
126.8484487711637
 30
0.0
 11
748.170416761869
 21
69.82444877116382
 31
0.0
  0
TEXT
  5
4523
330
1F
100
AcDbEntity
  8
DIM2
100
AcDbText
 10
741.6317881904403
 20
91.85644877116384
 30
0.0
 40
2.592
  1
25
 41
0.8
  7
dayus
 72
     4
 11
743.3104167618689
 21
93.15244877116384
 31
0.0
100
AcDbText
  0
TEXT
  5
4524
330
1F
100
AcDbEntity
  8
DIM2
100
AcDbText
 10
741.6317881904403
 20
86.67244877116381
 30
0.0
 40
2.592
  1
30
 41
0.8
  7
dayus
 72
     4
 11
743.3104167618689
 21
87.96844877116383
 31
0.0
100
AcDbText
  0
TEXT
  5
4525
330
1F
100
AcDbEntity
  8
DIM2
100
AcDbText
 10
741.6317881904403
 20
97.04044877116388
 30
0.0
 40
2.592
  1
20
 41
0.8
  7
dayus
 72
     4
 11
743.3104167618689
 21
98.33644877116388
 31
0.0
100
AcDbText
  0
TEXT
  5
4526
330
1F
100
AcDbEntity
  8
DIM2
100
AcDbText
 10
741.829273904726
 20
102.2244487711639
 30
0.0
 40
2.592
  1
15
 41
0.8
  7
dayus
 72
     4
 11
743.3104167618689
 21
103.5204487711639
 31
0.0
100
AcDbText
  0
TEXT
  5
4527
330
1F
100
AcDbEntity
  8
DIM2
100
AcDbText
 10
739.280458006892
 20
120.9515887720915
 30
0.0
 40
2.2
  1
Stroke
 41
0.8
  7
CHINESET
 72
     4
 11
743.2614103878445
 21
122.0515887720915
 31
0.0
100
AcDbText
  0
TEXT
  5
4528
330
1F
100
AcDbEntity
  8
DIM2
100
AcDbText
 10
742.6192167618689
 20
112.5924487711637
 30
0.0
 40
2.592
  1
5
 41
0.8
  7
dayus
 72
     4
 11
743.3104167618689
 21
113.8884487711637
 31
0.0
100
AcDbText
  0
TEXT
  5
4529
330
1F
100
AcDbEntity
  8
DIM2
100
AcDbText
 10
741.829273904726
 20
107.4084487711637
 30
0.0
 40
2.592
  1
10
 41
0.8
  7
dayus
 72
     4
 11
743.3104167618689
 21
108.7044487711637
 31
0.0
100
AcDbText
  0
LINE
  5
452A
330
1F
100
AcDbEntity
  8
DIM2
100
AcDbLine
 10
757.890416761869
 20
126.8484487711637
 30
0.0
 11
757.890416761869
 21
69.82444877116382
 31
0.0
  0
LINE
  5
452B
330
1F
100
AcDbEntity
  8
DIM2
100
AcDbLine
 10
738.4504167618689
 20
69.82444877116382
 30
0.0
 11
796.7704167618689
 21
69.82444877116382
 31
0.0
  0
LINE
  5
452C
330
1F
100
AcDbEntity
  8
DIM2
100
AcDbLine
 10
738.4504167618689
 20
75.00844877116384
 30
0.0
 11
796.7704167618689
 21
75.00844877116384
 31
0.0
  0
LINE
  5
452D
330
1F
100
AcDbEntity
  8
DIM2
100
AcDbLine
 10
738.4504167618689
 20
80.19244877116387
 30
0.0
 11
796.7704167618689
 21
80.19244877116387
 31
0.0
  0
TEXT
  5
452E
330
1F
100
AcDbEntity
  8
DIM2
100
AcDbText
 10
741.6317881904403
 20
76.30444877116376
 30
0.0
 40
2.592
  1
50
 41
0.8
  7
dayus
 72
     4
 11
743.3104167618689
 21
77.60044877116377
 31
0.0
100
AcDbText
  0
TEXT
  5
452F
330
1F
100
AcDbEntity
  8
DIM2
100
AcDbText
 10
741.6317881904403
 20
71.12044877116391
 30
0.0
 40
2.592
  1
60
 41
0.8
  7
dayus
 72
     4
 11
743.3104167618689
 21
72.41644877116391
 31
0.0
100
AcDbText
  0
TEXT
  5
4530
330
1F
100
AcDbEntity
  8
DIM2
100
AcDbText
 10
741.6317881904403
 20
81.48844877116379
 30
0.0
 40
2.592
  1
40
 41
0.8
  7
dayus
 72
     4
 11
743.3104167618689
 21
82.78444877116379
 31
0.0
100
AcDbText
  0
LINE
  5
4531
330
1F
100
AcDbEntity
  8
DIM2
100
AcDbLine
 10
787.050416761869
 20
126.8484487711637
 30
0.0
 11
787.050416761869
 21
69.82444877116382
 31
0.0
  0
TEXT
  5
4532
330
1F
100
AcDbEntity
  8
DIM2
100
AcDbText
 10
752.2025584652983
 20
120.3684487711639
 30
0.0
 40
2.592
  1
C
  7
dayus
 72
     4
 11
753.1282727510126
 21
121.6644487711639
 31
0.0
100
AcDbText
  0
TEXT
  5
4533
330
1F
100
AcDbEntity
  8
DIM2
100
AcDbText
 10
780.3751298938698
 20
120.3684487711639
 30
0.0
 40
2.592
  1
L3
  7
dayus
 72
     4
 11
782.2882727510126
 21
121.6644487711639
 31
0.0
100
AcDbText
  0
TEXT
  5
4534
330
1F
100
AcDbEntity
  8
DIM2
100
AcDbText
 10
761.4905584652982
 20
120.3684487711637
 30
0.0
 40
2.592
  1
L1
  7
dayus
 72
     4
 11
762.8482727510125
 21
121.6644487711637
 31
0.0
100
AcDbText
  0
TEXT
  5
4535
330
1F
100
AcDbEntity
  8
DIM2
100
AcDbText
 10
770.6551298938699
 20
120.3684487711637
 30
0.0
 40
2.592
  1
L2
  7
dayus
 72
     4
 11
772.5682727510127
 21
121.6644487711637
 31
0.0
100
AcDbText
  0
LINE
  5
4536
330
1F
100
AcDbEntity
  8
DIM2
100
AcDbLine
 10
796.7704167618689
 20
126.8484487711637
 30
0.0
 11
796.7704167618689
 21
69.82444877116382
 31
0.0
  0
TEXT
  5
4537
330
1F
100
AcDbEntity
  8
DIM2
100
AcDbText
 10
791.1442727510126
 20
120.3684487711639
 30
0.0
 40
2.592
  1
N
  7
dayus
 72
     4
 11
792.0082727510126
 21
121.6644487711639
 31
0.0
100
AcDbText
  0
TEXT
  5
4538
330
1F
100
AcDbEntity
  8
DIM2
100
AcDbText
 10
781.3017310475831
 20
86.85759162830668
 30
0.0
 40
2.592
  1
-
 41
0.8
  7
dayus
 72
     4
 11
782.1904167618688
 21
87.96844877116383
 31
0.0
100
AcDbText
  0
LINE
  5
4539
330
1F
100
AcDbEntity
  8
DIM2
100
AcDbLine
 10
767.610416761869
 20
126.8484487711637
 30
0.0
 11
767.610416761869
 21
69.82444877116382
 31
0.0
  0
LINE
  5
453A
330
1F
100
AcDbEntity
  8
DIM2
100
AcDbLine
 10
777.330416761869
 20
126.8484487711637
 30
0.0
 11
777.330416761869
 21
69.82444877116382
 31
0.0
  0
TEXT
  5
453B
330
1F
100
AcDbEntity
  8
DIM2
100
AcDbText
 10
761.0717881904404
 20
91.85644877116384
 30
0.0
 40
2.592
  1
62
 41
0.8
  7
dayus
 72
     4
 11
762.750416761869
 21
93.15244877116384
 31
0.0
100
AcDbText
  0
TEXT
  5
453C
330
1F
100
AcDbEntity
  8
DIM2
100
AcDbText
 10
761.0717881904404
 20
102.2244487711639
 30
0.0
 40
2.592
  1
52
 41
0.8
  7
dayus
 72
     4
 11
762.750416761869
 21
103.5204487711639
 31
0.0
100
AcDbText
  0
TEXT
  5
453D
330
1F
100
AcDbEntity
  8
DIM2
100
AcDbText
 10
761.0717881904404
 20
112.5924487711637
 30
0.0
 40
2.592
  1
42
 41
0.8
  7
dayus
 72
     4
 11
762.750416761869
 21
113.8884487711637
 31
0.0
100
AcDbText
  0
TEXT
  5
453E
330
1F
100
AcDbEntity
  8
DIM2
100
AcDbText
 10
761.0717881904404
 20
76.30444877116376
 30
0.0
 40
2.592
  1
82
 41
0.8
  7
dayus
 72
     4
 11
762.750416761869
 21
77.60044877116377
 31
0.0
100
AcDbText
  0
TEXT
  5
453F
330
1F
100
AcDbEntity
  8
DIM2
100
AcDbText
 10
761.0717881904404
 20
71.12044877116391
 30
0.0
 40
2.592
  1
92
 41
0.8
  7
dayus
 72
     4
 11
762.750416761869
 21
72.41644877116391
 31
0.0
100
AcDbText
  0
TEXT
  5
4540
330
1F
100
AcDbEntity
  8
DIM2
100
AcDbText
 10
761.0717881904404
 20
81.48844877116379
 30
0.0
 40
2.592
  1
72
 41
0.8
  7
dayus
 72
     4
 11
762.750416761869
 21
82.78444877116379
 31
0.0
100
AcDbText
  0
TEXT
  5
4541
330
1F
100
AcDbEntity
  8
DIM2
100
AcDbText
 10
770.7917881904404
 20
91.85644877116384
 30
0.0
 40
2.592
  1
30
 41
0.8
  7
dayus
 72
     4
 11
772.470416761869
 21
93.15244877116384
 31
0.0
100
AcDbText
  0
TEXT
  5
4542
330
1F
100
AcDbEntity
  8
DIM2
100
AcDbText
 10
770.7917881904404
 20
102.2244487711639
 30
0.0
 40
2.592
  1
20
 41
0.8
  7
dayus
 72
     4
 11
772.470416761869
 21
103.5204487711639
 31
0.0
100
AcDbText
  0
TEXT
  5
4543
330
1F
100
AcDbEntity
  8
DIM2
100
AcDbText
 10
770.9892739047261
 20
112.5924487711637
 30
0.0
 40
2.592
  1
10
 41
0.8
  7
dayus
 72
     4
 11
772.470416761869
 21
113.8884487711637
 31
0.0
100
AcDbText
  0
TEXT
  5
4544
330
1F
100
AcDbEntity
  8
DIM2
100
AcDbText
 10
770.9892739047261
 20
107.4084487711637
 30
0.0
 40
2.592
  1
10
 41
0.8
  7
dayus
 72
     4
 11
772.470416761869
 21
108.7044487711637
 31
0.0
100
AcDbText
  0
TEXT
  5
4545
330
1F
100
AcDbEntity
  8
DIM2
100
AcDbText
 10
770.7917881904404
 20
76.30444877116376
 30
0.0
 40
2.592
  1
25
 41
0.8
  7
dayus
 72
     4
 11
772.470416761869
 21
77.60044877116377
 31
0.0
100
AcDbText
  0
TEXT
  5
4546
330
1F
100
AcDbEntity
  8
DIM2
100
AcDbText
 10
770.7917881904404
 20
71.12044877116391
 30
0.0
 40
2.592
  1
30
 41
0.8
  7
dayus
 72
     4
 11
772.470416761869
 21
72.41644877116391
 31
0.0
100
AcDbText
  0
TEXT
  5
4547
330
1F
100
AcDbEntity
  8
DIM2
100
AcDbText
 10
770.7917881904404
 20
81.48844877116379
 30
0.0
 40
2.592
  1
20
 41
0.8
  7
dayus
 72
     4
 11
772.470416761869
 21
82.78444877116379
 31
0.0
100
AcDbText
  0
TEXT
  5
4548
330
1F
100
AcDbEntity
  8
DIM2
100
AcDbText
 10
791.1698453332974
 20
112.5924487711637
 30
0.0
 40
2.592
  1
4
 41
0.8
  7
dayus
 72
     4
 11
791.9104167618688
 21
113.8884487711637
 31
0.0
100
AcDbText
  0
TEXT
  5
4549
330
1F
100
AcDbEntity
  8
DIM2
100
AcDbText
 10
791.2685881904402
 20
76.30444877116376
 30
0.0
 40
2.592
  1
6
 41
0.8
  7
dayus
 72
     4
 11
791.9104167618688
 21
77.60044877116377
 31
0.0
100
AcDbText
  0
TEXT
  5
454A
330
1F
100
AcDbEntity
  8
DIM2
100
AcDbText
 10
791.2685881904402
 20
71.12044877116391
 30
0.0
 40
2.592
  1
6
 41
0.8
  7
dayus
 72
     4
 11
791.9104167618688
 21
72.41644877116391
 31
0.0
100
AcDbText
  0
TEXT
  5
454B
330
1F
100
AcDbEntity
  8
DIM2
100
AcDbText
 10
791.2685881904402
 20
81.48844877116379
 30
0.0
 40
2.592
  1
6
 41
0.8
  7
dayus
 72
     4
 11
791.9104167618688
 21
82.78444877116379
 31
0.0
100
AcDbText
  0
TEXT
  5
454C
330
1F
100
AcDbEntity
  8
DIM2
100
AcDbText
 10
791.1698453332974
 20
107.4084487711639
 30
0.0
 40
2.592
  1
4
 41
0.8
  7
dayus
 72
     4
 11
791.9104167618688
 21
108.7044487711639
 31
0.0
100
AcDbText
  0
TEXT
  5
454D
330
1F
100
AcDbEntity
  8
DIM2
100
AcDbText
 10
791.1698453332974
 20
102.2244487711639
 30
0.0
 40
2.592
  1
4
 41
0.8
  7
dayus
 72
     4
 11
791.9104167618688
 21
103.5204487711639
 31
0.0
100
AcDbText
  0
TEXT
  5
454E
330
1F
100
AcDbEntity
  8
DIM2
100
AcDbText
 10
791.1698453332974
 20
97.04044877116388
 30
0.0
 40
2.592
  1
4
 41
0.8
  7
dayus
 72
     4
 11
791.9104167618688
 21
98.33644877116388
 31
0.0
100
AcDbText
  0
TEXT
  5
454F
330
1F
100
AcDbEntity
  8
DIM2
100
AcDbText
 10
791.1698453332974
 20
91.85644877116384
 30
0.0
 40
2.592
  1
4
 41
0.8
  7
dayus
 72
     4
 11
791.9104167618688
 21
93.15244877116384
 31
0.0
100
AcDbText
  0
TEXT
  5
4550
330
1F
100
AcDbEntity
  8
DIM2
100
AcDbText
 10
791.1698453332974
 20
86.67244877116381
 30
0.0
 40
2.592
  1
4
 41
0.8
  7
dayus
 72
     4
 11
791.9104167618688
 21
87.96844877116383
 31
0.0
100
AcDbText
  0
TEXT
  5
4551
330
1F
100
AcDbEntity
  8
DIM2
100
AcDbText
 10
770.7917881904404
 20
97.04044877116388
 30
0.0
 40
2.592
  1
20
 41
0.8
  7
dayus
 72
     4
 11
772.470416761869
 21
98.33644877116388
 31
0.0
100
AcDbText
  0
TEXT
  5
4552
330
1F
100
AcDbEntity
  8
DIM2
100
AcDbText
 10
770.7917881904404
 20
86.67244877116381
 30
0.0
 40
2.592
  1
30
 41
0.8
  7
dayus
 72
     4
 11
772.470416761869
 21
87.96844877116383
 31
0.0
100
AcDbText
  0
TEXT
  5
4553
330
1F
100
AcDbEntity
  8
DIM2
100
AcDbText
 10
781.3017310475831
 20
92.0415916283067
 30
0.0
 40
2.592
  1
-
 41
0.8
  7
dayus
 72
     4
 11
782.1904167618688
 21
93.15244877116384
 31
0.0
100
AcDbText
  0
TEXT
  5
4554
330
1F
100
AcDbEntity
  8
DIM2
100
AcDbText
 10
781.3017310475831
 20
97.22559162830673
 30
0.0
 40
2.592
  1
-
 41
0.8
  7
dayus
 72
     4
 11
782.1904167618688
 21
98.33644877116388
 31
0.0
100
AcDbText
  0
TEXT
  5
4555
330
1F
100
AcDbEntity
  8
DIM2
100
AcDbText
 10
781.3017310475831
 20
102.4095916283067
 30
0.0
 40
2.592
  1
-
 41
0.8
  7
dayus
 72
     4
 11
782.1904167618688
 21
103.5204487711639
 31
0.0
100
AcDbText
  0
TEXT
  5
4556
330
1F
100
AcDbEntity
  8
DIM2
100
AcDbText
 10
781.3017310475831
 20
107.5935916283068
 30
0.0
 40
2.592
  1
-
 41
0.8
  7
dayus
 72
     4
 11
782.1904167618688
 21
108.7044487711639
 31
0.0
100
AcDbText
  0
TEXT
  5
4557
330
1F
100
AcDbEntity
  8
DIM2
100
AcDbText
 10
781.3017310475831
 20
112.7775916283068
 30
0.0
 40
2.592
  1
-
 41
0.8
  7
dayus
 72
     4
 11
782.1904167618688
 21
113.8884487711639
 31
0.0
100
AcDbText
  0
TEXT
  5
4558
330
1F
100
AcDbEntity
  8
DIM2
100
AcDbText
 10
780.5117881904404
 20
81.48844877116379
 30
0.0
 40
2.592
  1
20
 41
0.8
  7
dayus
 72
     4
 11
782.1904167618691
 21
82.78444877116379
 31
0.0
100
AcDbText
  0
TEXT
  5
4559
330
1F
100
AcDbEntity
  8
DIM2
100
AcDbText
 10
780.5117881904404
 20
76.30444877116376
 30
0.0
 40
2.592
  1
25
 41
0.8
  7
dayus
 72
     4
 11
782.1904167618691
 21
77.60044877116377
 31
0.0
100
AcDbText
  0
TEXT
  5
455A
330
1F
100
AcDbEntity
  8
DIM2
100
AcDbText
 10
780.5117881904404
 20
71.12044877116391
 30
0.0
 40
2.592
  1
30
 41
0.8
  7
dayus
 72
     4
 11
782.1904167618691
 21
72.41644877116391
 31
0.0
100
AcDbText
  0
TEXT
  5
455B
330
1F
100
AcDbEntity
  8
DIM2
100
AcDbText
 10
751.3517881904403
 20
91.85644877116384
 30
0.0
 40
2.592
  1
30
 41
0.8
  7
dayus
 72
     4
 11
753.0304167618689
 21
93.15244877116384
 31
0.0
100
AcDbText
  0
TEXT
  5
455C
330
1F
100
AcDbEntity
  8
DIM2
100
AcDbText
 10
751.3517881904403
 20
86.67244877116381
 30
0.0
 40
2.592
  1
30
 41
0.8
  7
dayus
 72
     4
 11
753.0304167618689
 21
87.96844877116383
 31
0.0
100
AcDbText
  0
TEXT
  5
455D
330
1F
100
AcDbEntity
  8
DIM2
100
AcDbText
 10
751.302416761869
 20
97.04044877116388
 30
0.0
 40
2.592
  1
24
 41
0.8
  7
dayus
 72
     4
 11
753.0304167618689
 21
98.33644877116388
 31
0.0
100
AcDbText
  0
TEXT
  5
455E
330
1F
100
AcDbEntity
  8
DIM2
100
AcDbText
 10
751.302416761869
 20
102.2244487711639
 30
0.0
 40
2.592
  1
24
 41
0.8
  7
dayus
 72
     4
 11
753.0304167618689
 21
103.5204487711639
 31
0.0
100
AcDbText
  0
TEXT
  5
455F
330
1F
100
AcDbEntity
  8
DIM2
100
AcDbText
 10
751.4999024761547
 20
112.5924487711637
 30
0.0
 40
2.592
  1
14
 41
0.8
  7
dayus
 72
     4
 11
753.0304167618689
 21
113.8884487711637
 31
0.0
100
AcDbText
  0
TEXT
  5
4560
330
1F
100
AcDbEntity
  8
DIM2
100
AcDbText
 10
751.4999024761547
 20
107.4084487711637
 30
0.0
 40
2.592
  1
14
 41
0.8
  7
dayus
 72
     4
 11
753.0304167618689
 21
108.7044487711637
 31
0.0
100
AcDbText
  0
TEXT
  5
4561
330
1F
100
AcDbEntity
  8
DIM2
100
AcDbText
 10
751.3517881904403
 20
76.30444877116376
 30
0.0
 40
2.592
  1
55
 41
0.8
  7
dayus
 72
     4
 11
753.0304167618689
 21
77.60044877116377
 31
0.0
100
AcDbText
  0
TEXT
  5
4562
330
1F
100
AcDbEntity
  8
DIM2
100
AcDbText
 10
751.3517881904403
 20
71.12044877116391
 30
0.0
 40
2.592
  1
60
 41
0.8
  7
dayus
 72
     4
 11
753.0304167618689
 21
72.41644877116391
 31
0.0
100
AcDbText
  0
TEXT
  5
4563
330
1F
100
AcDbEntity
  8
DIM2
100
AcDbText
 10
751.3517881904403
 20
81.48844877116379
 30
0.0
 40
2.592
  1
45
 41
0.8
  7
dayus
 72
     4
 11
753.0304167618689
 21
82.78444877116379
 31
0.0
100
AcDbText
  0
TEXT
  5
4564
330
1F
100
AcDbEntity
  8
DIM2
100
AcDbText
 10
761.0717881904404
 20
107.4084487711638
 30
0.0
 40
2.592
  1
42
 41
0.8
  7
dayus
 72
     4
 11
762.750416761869
 21
108.7044487711638
 31
0.0
100
AcDbText
  0
TEXT
  5
4565
330
1F
100
AcDbEntity
  8
DIM2
100
AcDbText
 10
761.0717881904404
 20
97.04044877116388
 30
0.0
 40
2.592
  1
52
 41
0.8
  7
dayus
 72
     4
 11
762.750416761869
 21
98.33644877116388
 31
0.0
100
AcDbText
  0
TEXT
  5
4566
330
1F
100
AcDbEntity
  8
DIM2
100
AcDbText
 10
761.0717881904404
 20
86.6724487711639
 30
0.0
 40
2.592
  1
62
 41
0.8
  7
dayus
 72
     4
 11
762.750416761869
 21
87.9684487711639
 31
0.0
100
AcDbText
  0
INSERT
  5
4569
330
1F
100
AcDbEntity
  8
DIM2
100
AcDbBlockReference
  2
A$C5ECF147B
 10
739.0861929650082
 20
80.78058945534236
 30
0.0
 41
0.9408000000000356
 42
0.940799999999956
 43
0.9407999999999997
  0
INSERT
  5
45A9
330
1F
100
AcDbEntity
  8
AM_5
100
AcDbBlockReference
  2
*S44
 10
0.0
 20
0.0
 30
0.0
  0
TEXT
  5
464D
330
1F
100
AcDbEntity
  8
LOGO
 62
     7
100
AcDbText
 10
537.2280585596471
 20
35.68436837787999
 30
0.0
 40
3.999420814479637
  1
Order example:
 41
0.8
  7
CHINESET
100
AcDbText
  0
TEXT
  5
464E
330
1F
100
AcDbEntity
  8
LOGO
 62
     7
100
AcDbText
 10
537.9455877276294
 20
41.31472479402134
 30
0.0
 40
5.999131221719456
  1
訂購代號：
  7
CHINESET
100
AcDbText
  0
LINE
  5
464F
330
1F
100
AcDbEntity
  8
LOGO
 62
     4
100
AcDbLine
 10
535.4902966505002
 20
18.82929879075504
 30
0.0
 11
535.4902966505002
 21
48.82495489935251
 31
0.0
  0
TEXT
  5
4650
330
1F
100
AcDbEntity
  8
LOGO
  6
Continuous
100
AcDbText
 10
480.2744277188772
 20
24.72190016589707
 30
0.0
 40
4.499348416289592
  1
金器工業股份有限公司
  7
CHINESET
100
AcDbText
  0
TEXT
  5
4651
330
1F
100
AcDbEntity
  8
LOGO
  6
Continuous
100
AcDbText
 10
472.0100148303398
 20
20.22167023008046
 30
0.0
 40
2.999565610859728
  1
MINDMAN INDUSTRIAL CO., LTD.
 41
0.85
  7
CHINESET
100
AcDbText
  0
LINE
  5
4652
330
1F
100
AcDbEntity
  8
LOGO
 62
     4
100
AcDbLine
 10
535.4902966505002
 20
42.82582367763303
 30
0.0
 11
491.4966676912239
 21
42.82582367763303
 31
0.0
  0
LINE
  5
4653
330
1F
100
AcDbEntity
  8
LOGO
 62
     4
100
AcDbLine
 10
535.4902966505002
 20
36.82669245591353
 30
0.0
 11
491.4966676912239
 21
36.82669245591353
 31
0.0
  0
LINE
  5
4654
330
1F
100
AcDbEntity
  8
LOGO
 62
     4
100
AcDbLine
 10
535.4902966505002
 20
30.82756123419438
 30
0.0
 11
469.4998532115861
 21
30.82756123419438
 31
0.0
  0
LINE
  5
4655
330
1F
100
AcDbEntity
  8
LOGO
 62
     4
100
AcDbLine
 10
491.4966676912239
 20
30.82756123419438
 30
0.0
 11
491.4966676912239
 21
48.82495489935251
 31
0.0
  0
TEXT
  5
4656
330
1F
100
AcDbEntity
  8
LOGO
100
AcDbText
 10
521.5642366172309
 20
32.32734403962375
 30
0.0
 40
2.999565610859728
  1
mm
  7
CHINESET
 72
     1
 11
525.2779845163906
 21
33.82712684505361
 31
0.0
100
AcDbText
 73
     2
  0
TEXT
  5
4657
330
1F
100
AcDbEntity
  8
LOGO
100
AcDbText
 10
519.993035582971
 20
44.32560648306274
 30
0.0
 40
2.999565610859728
  1
1 : 1
  7
CHINESET
 72
     1
 11
525.2779845163906
 21
45.8253892884926
 31
0.0
100
AcDbText
 73
     2
  0
LINE
  5
4658
330
1F
100
AcDbEntity
  8
LOGO
 62
     4
100
AcDbLine
 10
515.4931925781019
 20
30.82756123419438
 30
0.0
 11
515.4931925781019
 21
48.82495489935251
 31
0.0
  0
TEXT
  5
4659
330
1F
100
AcDbEntity
  8
LOGO
100
AcDbText
 10
493.9699702283927
 20
44.32708264724131
 30
196.5865886400747
 40
2.999565610859728
  1
比例 Scale:
 41
0.9
  7
CHINESET
 72
     4
 11
503.4949301346629
 21
45.8253892884926
 31
196.5865886400747
100
AcDbText
  0
TEXT
  5
465A
330
1F
100
AcDbEntity
  8
LOGO
100
AcDbText
 10
493.7972273874102
 20
38.36866895411411
 30
196.5865886400747
 40
2.999565610859728
  1
投影  View:
 41
0.9
  7
CHINESET
 72
     4
 11
503.4949301346629
 21
39.82625806677311
 31
196.5865886400747
100
AcDbText
  0
TEXT
  5
465B
330
1F
100
AcDbEntity
  8
LOGO
100
AcDbText
 10
494.0904884895434
 20
32.32734403962375
 30
196.5865886400747
 40
2.999565610859728
  1
單位  Unit:
 41
0.9
  7
CHINESET
 72
     4
 11
503.4949301346629
 21
33.82712684505361
 31
196.5865886400747
100
AcDbText
  0
LWPOLYLINE
  5
465C
330
1F
100
AcDbEntity
  8
LOGO
 62
     4
100
AcDbPolyline
 90
        4
 70
     1
 43
0.0
 10
469.4998532115859
 20
48.82495489935251
 10
881.9998532115862
 20
48.82495489935251
 10
881.9998532115862
 20
318.8292987907545
 10
469.4998532115859
 20
318.8292987907545
1001
GENIUS_GENREC_14
1002
{
1000
PYDIR
1011
469.4998532115859
1021
318.8292987907545
1031
0.0
1002
}
1002
{
1000
PXDIR
1011
881.9998532115862
1021
48.82495489935251
1031
0.0
1002
}
1002
{
1000
PORI
1011
469.4998532115859
1021
48.82495489935251
1031
0.0
1002
}
1002
{
1000
PINS
1011
469.4998532115859
1021
48.82495489935251
1031
0.0
1002
}
1002
{
1000
PINS2
1011
881.9998532115862
1021
318.8292987907545
1031
0.0
1002
}
1002
{
1000
C
1070
     1
1002
}
1001
GENIUS_GENODEF_13
1002
{
1000
HIER
1070
     0
1002
}
1002
{
1000
MANEDIT
1070
     0
1002
}
1002
{
1000
NOSEL
1070
     0
1002
}
1002
{
1000
BEHIND
1070
     0
1002
}
1002
{
1000
OTHER
1070
     0
1002
}
1002
{
1000
REACTOR
1002
}
1001
GENIUS_GENOBJ-N-REC_13
1002
{
1000
OWNER
1000
GEN
1002
}
  0
SOLID
  5
465D
330
1F
100
AcDbEntity
  8
LOGO
 62
     5
100
AcDbTrace
 10
472.6119506722194
 20
35.81391210770448
 30
0.0
 11
473.9088841337535
 21
35.81391210770414
 31
0.0
 12
479.3202271973956
 22
48.11241907052829
 32
0.0
 13
480.6171606589304
 23
48.1124190705276
 33
0.0
  0
SOLID
  5
465E
330
1F
100
AcDbEntity
  8
LOGO
 62
     5
100
AcDbTrace
 10
474.445546255769
 20
35.81391210770448
 30
0.0
 11
475.7424797173031
 21
35.81391210770448
 31
0.0
 12
480.6171606589304
 22
47.12853851350189
 32
0.0
 13
479.3202271973956
 23
42.37311582121003
 33
0.0
  0
SOLID
  5
465F
330
1F
100
AcDbEntity
  8
LOGO
 62
     2
100
AcDbTrace
 10
473.9088841337535
 20
35.81391210770414
 30
0.0
 11
474.445546255769
 21
35.81391210770448
 31
0.0
 12
480.6171606589304
 22
48.1124190705276
 32
0.0
 13
481.1538227809452
 23
48.1124190705276
 33
0.0
  0
SOLID
  5
4660
330
1F
100
AcDbEntity
  8
LOGO
 62
     5
100
AcDbTrace
 10
470.5326482863369
 20
31.34172775758714
 30
0.0
 11
470.9798667213491
 21
31.34172775758714
 31
0.0
 12
472.2392686430433
 22
33.57781993264564
 32
0.0
 13
472.6864870780542
 23
33.57781993264564
 33
0.0
  0
SOLID
  5
4661
330
1F
100
AcDbEntity
  8
LOGO
 62
     5
100
AcDbTrace
 10
472.2392686430433
 20
33.57781993264564
 30
0.0
 11
472.6864870780542
 21
33.57781993264564
 31
0.0
 12
472.2392686430433
 22
31.34172775758714
 32
0.0
 13
472.6864870780542
 23
31.34172775758714
 33
0.0
  0
SOLID
  5
4662
330
1F
100
AcDbEntity
  8
LOGO
 62
     5
100
AcDbTrace
 10
472.2392686430433
 20
31.34172775758714
 30
0.0
 11
472.6864870780542
 21
31.34172775758714
 31
0.0
 12
473.9458889997505
 22
33.57781993264564
 32
0.0
 13
474.3931074347621
 23
33.57781993264564
 33
0.0
  0
SOLID
  5
4663
330
1F
100
AcDbEntity
  8
LOGO
 62
     5
100
AcDbTrace
 10
473.9458889997505
 20
33.57781993264564
 30
0.0
 11
474.3931074347621
 21
33.57781993264564
 31
0.0
 12
473.9458889997505
 22
31.34172775758714
 32
0.0
 13
474.3931074347621
 23
31.34172775758714
 33
0.0
  0
POLYLINE
  5
4664
330
1F
100
AcDbEntity
  8
LOGO
 62
     5
100
AcDb2dPolyline
 66
     1
 10
0.0
 20
0.0
 30
0.0
 40
0.4479351312217194
 41
0.4479351312217194
  0
VERTEX
  5
4665
330
4664
100
AcDbEntity
  8
LOGO
 62
     5
100
AcDbVertex
100
AcDb2dVertex
 10
488.9364985944647
 20
32.68338306262217
 30
0.0
 42
1.0
  0
VERTEX
  5
4666
330
4664
100
AcDbEntity
  8
LOGO
 62
     5
100
AcDbVertex
100
AcDb2dVertex
 10
487.5926932007993
 20
32.68338306262217
 30
0.0
 42
1.0
  0
SEQEND
  5
4667
330
4664
100
AcDbEntity
  8
LOGO
 62
     5
  0
POLYLINE
  5
4668
330
1F
100
AcDbEntity
  8
LOGO
 62
     5
100
AcDb2dPolyline
 66
     1
 10
0.0
 20
0.0
 30
0.0
 70
     1
  0
VERTEX
  5
4669
330
4668
100
AcDbEntity
  8
LOGO
 62
     5
100
AcDbVertex
100
AcDb2dVertex
 10
485.0595602612758
 20
32.45977384511605
 30
0.0
 42
1.000000057330635
  0
VERTEX
  5
466A
330
4668
100
AcDbEntity
  8
LOGO
 62
     5
100
AcDbVertex
100
AcDb2dVertex
 10
486.4012155663111
 20
32.45977384511605
 30
0.0
 42
1.000000057330635
  0
SEQEND
  5
466B
330
4668
100
AcDbEntity
  8
LOGO
 62
     5
  0
CIRCLE
  5
466C
330
1F
100
AcDbEntity
  8
LOGO
 62
     5
100
AcDbCircle
 10
485.7303879137945
 20
32.45977384511605
 30
0.0
 40
0.6708276525176471
  0
POLYLINE
  5
466D
330
1F
100
AcDbEntity
  8
LOGO
 62
     5
100
AcDb2dPolyline
 66
     1
 10
0.0
 20
0.0
 30
0.0
 70
     1
 40
0.4479351312217194
 41
0.4479351312217194
  0
VERTEX
  5
466E
330
466D
100
AcDbEntity
  8
LOGO
 62
     5
100
AcDbVertex
100
AcDb2dVertex
 10
484.8345176513504
 20
32.45977384511605
 30
0.0
 42
1.0
  0
VERTEX
  5
466F
330
466D
100
AcDbEntity
  8
LOGO
 62
     5
100
AcDbVertex
100
AcDb2dVertex
 10
486.6262581762372
 20
32.45977384511605
 30
0.0
 42
1.0
  0
SEQEND
  5
4670
330
466D
100
AcDbEntity
  8
LOGO
 62
     5
  0
LINE
  5
4671
330
1F
100
AcDbEntity
  8
LOGO
100
AcDbLine
 10
489.1590327676548
 20
31.34172775758714
 30
0.0
 11
489.1590327676548
 21
32.68338306262217
 31
0.0
  0
SOLID
  5
4672
330
1F
100
AcDbEntity
  8
LOGO
 62
     5
100
AcDbTrace
 10
486.4011708444697
 20
33.57781993264564
 30
0.0
 11
486.8483892794805
 21
33.57781993264564
 31
0.0
 12
486.4011708444697
 22
31.34172775758714
 32
0.0
 13
486.8483892794805
 23
31.34172775758714
 33
0.0
  0
SOLID
  5
4673
330
1F
100
AcDbEntity
  8
LOGO
 62
     5
100
AcDbTrace
 10
487.3701590276079
 20
31.34172775758714
 30
0.0
 11
487.8173774626201
 21
31.34172775758714
 31
0.0
 12
487.3701590276079
 22
33.57781993264564
 32
0.0
 13
487.8173774626201
 23
33.57781993264564
 33
0.0
  0
SOLID
  5
4674
330
1F
100
AcDbEntity
  8
LOGO
 62
     5
100
AcDbTrace
 10
488.7118143326439
 20
32.68338306262217
 30
0.0
 11
489.1590327676548
 21
32.68338306262217
 31
0.0
 12
488.7118143326439
 22
31.34172775758714
 32
0.0
 13
489.1590327676548
 23
31.34172775758714
 33
0.0
  0
SOLID
  5
4675
330
1F
100
AcDbEntity
  8
LOGO
 62
     5
100
AcDbTrace
 10
487.3254371841065
 20
47.12853851350189
 30
0.0
 11
486.0285037225732
 21
42.37311582121003
 31
0.0
 12
487.3254371841065
 22
35.81391210770414
 32
0.0
 13
486.0285037225732
 23
35.81391210770414
 33
0.0
  0
SOLID
  5
4676
330
1F
100
AcDbEntity
  8
LOGO
 62
     5
100
AcDbTrace
 10
487.8620993061214
 20
35.81391210770414
 30
0.0
 11
489.1590327676548
 21
35.81391210770414
 31
0.0
 12
487.8620993061214
 22
48.1124190705276
 32
0.0
 13
489.1590327676548
 23
48.11241907052829
 33
0.0
  0
SOLID
  5
4677
330
1F
100
AcDbEntity
  8
LOGO
 62
     2
100
AcDbTrace
 10
487.3254371841065
 20
48.11241907052829
 30
0.0
 11
487.8620993061214
 21
48.1124190705276
 31
0.0
 12
487.3254371841065
 22
35.81391210770414
 32
0.0
 13
487.8620993061214
 23
35.81391210770414
 33
0.0
  0
POLYLINE
  5
4678
330
1F
100
AcDbEntity
  8
LOGO
 62
     5
100
AcDb2dPolyline
 66
     1
 10
0.0
 20
0.0
 30
0.0
 40
0.4479351312217194
 41
0.4479351312217194
  0
VERTEX
  5
4679
330
4678
100
AcDbEntity
  8
LOGO
 62
     5
100
AcDbVertex
100
AcDb2dVertex
 10
482.5263378780672
 20
32.68338306262217
 30
0.0
 42
1.0
  0
VERTEX
  5
467A
330
4678
100
AcDbEntity
  8
LOGO
 62
     5
100
AcDbVertex
100
AcDb2dVertex
 10
481.1825324844018
 20
32.68338306262217
 30
0.0
 42
1.0
  0
SEQEND
  5
467B
330
4678
100
AcDbEntity
  8
LOGO
 62
     5
  0
POLYLINE
  5
467C
330
1F
100
AcDbEntity
  8
LOGO
 62
     5
100
AcDb2dPolyline
 66
     1
 10
0.0
 20
0.0
 30
0.0
 40
0.4479351312217194
 41
0.4479351312217194
  0
VERTEX
  5
467D
330
467C
100
AcDbEntity
  8
LOGO
 62
     5
100
AcDbVertex
100
AcDb2dVertex
 10
483.8679931831012
 20
32.68338306262217
 30
0.0
 42
1.0
  0
VERTEX
  5
467E
330
467C
100
AcDbEntity
  8
LOGO
 62
     5
100
AcDbVertex
100
AcDb2dVertex
 10
482.5241877894365
 20
32.68338306262217
 30
0.0
 42
1.0
  0
SEQEND
  5
467F
330
467C
100
AcDbEntity
  8
LOGO
 62
     5
  0
POLYLINE
  5
4680
330
1F
100
AcDbEntity
  8
LOGO
 62
     5
100
AcDb2dPolyline
 66
     1
 10
0.0
 20
0.0
 30
0.0
 40
0.4479351312217194
 41
0.4479351312217194
  0
VERTEX
  5
4681
330
4680
100
AcDbEntity
  8
LOGO
 62
     5
100
AcDbVertex
100
AcDb2dVertex
 10
477.4578324667037
 20
32.68338306262217
 30
0.0
 42
1.0
  0
VERTEX
  5
4682
330
4680
100
AcDbEntity
  8
LOGO
 62
     5
100
AcDbVertex
100
AcDb2dVertex
 10
476.114027073039
 20
32.68338306262217
 30
0.0
 42
1.0
  0
SEQEND
  5
4683
330
4680
100
AcDbEntity
  8
LOGO
 62
     5
  0
SOLID
  5
4684
330
1F
100
AcDbEntity
  8
LOGO
 62
     5
100
AcDbTrace
 10
475.8914928998482
 20
33.57781993264564
 30
0.0
 11
476.3387113348591
 21
33.57781993264564
 31
0.0
 12
475.8914928998482
 22
31.34172775758714
 32
0.0
 13
476.3387113348591
 23
31.34172775758714
 33
0.0
  0
SOLID
  5
4685
330
1F
100
AcDbEntity
  8
LOGO
 62
     5
100
AcDbTrace
 10
477.2331482048835
 20
32.68338306262217
 30
0.0
 11
477.6803666398958
 21
32.68338306262217
 31
0.0
 12
477.2331482048835
 22
31.34172775758714
 32
0.0
 13
477.6803666398958
 23
31.34172775758714
 33
0.0
  0
POLYLINE
  5
4686
330
1F
100
AcDbEntity
  8
LOGO
 62
     5
100
AcDb2dPolyline
 66
     1
 10
0.0
 20
0.0
 30
0.0
 70
     1
 40
0.4479351312217194
 41
0.4479351312217194
  0
VERTEX
  5
4687
330
4686
100
AcDbEntity
  8
LOGO
 62
     5
100
AcDbVertex
100
AcDb2dVertex
 10
478.4243569349522
 20
32.45977384511605
 30
0.0
 42
1.0
  0
VERTEX
  5
4688
330
4686
100
AcDbEntity
  8
LOGO
 62
     5
100
AcDbVertex
100
AcDb2dVertex
 10
480.2160974598397
 20
32.45977384511605
 30
0.0
 42
1.0
  0
SEQEND
  5
4689
330
4686
100
AcDbEntity
  8
LOGO
 62
     5
  0
SOLID
  5
468A
330
1F
100
AcDbEntity
  8
LOGO
 62
     5
100
AcDbTrace
 10
479.9910101280707
 20
34.24864758516367
 30
0.0
 11
480.4382285630823
 21
34.24864758516367
 31
0.0
 12
479.9910101280707
 22
31.34172775758714
 32
0.0
 13
480.4382285630823
 23
31.34172775758714
 33
0.0
  0
SOLID
  5
468B
330
1F
100
AcDbEntity
  8
LOGO
 62
     5
100
AcDbTrace
 10
480.9599983112117
 20
33.57781993264564
 30
0.0
 11
481.4072167462226
 21
33.57781993264564
 31
0.0
 12
480.9599983112117
 22
31.34172775758714
 32
0.0
 13
481.4072167462226
 23
31.34172775758714
 33
0.0
  0
SOLID
  5
468C
330
1F
100
AcDbEntity
  8
LOGO
 62
     5
100
AcDbTrace
 10
482.3016536162457
 20
32.68338306262217
 30
0.0
 11
482.748872051258
 21
32.68338306262217
 31
0.0
 12
482.3016536162457
 22
31.34172775758714
 32
0.0
 13
482.748872051258
 23
31.34172775758714
 33
0.0
  0
SOLID
  5
468D
330
1F
100
AcDbEntity
  8
LOGO
 62
     5
100
AcDbTrace
 10
483.643308921281
 20
32.68338306262217
 30
0.0
 11
484.0905273562927
 21
32.68338306262217
 31
0.0
 12
483.643308921281
 22
31.34172775758646
 32
0.0
 13
484.0905273562927
 23
31.34172775758646
 33
0.0
  0
SOLID
  5
468E
330
1F
100
AcDbEntity
  8
LOGO
 62
     5
100
AcDbTrace
 10
474.922504716708
 20
33.89087283715401
 30
0.0
 11
475.3697231517208
 21
33.89087283715401
 31
0.0
 12
474.922504716708
 22
34.24864758516367
 32
0.0
 13
475.3697231517208
 23
34.24864758516367
 33
0.0
  0
SOLID
  5
468F
330
1F
100
AcDbEntity
  8
LOGO
 62
     5
100
AcDbTrace
 10
474.922504716708
 20
33.57781993264564
 30
0.0
 11
475.3697231517208
 21
33.57781993264564
 31
0.0
 12
474.922504716708
 22
31.34172775758646
 32
0.0
 13
475.3697231517208
 23
31.34172775758714
 33
0.0
  0
SOLID
  5
4690
330
1F
100
AcDbEntity
  8
LOGO
 62
     5
100
AcDbTrace
 10
479.3202271973956
 20
35.81391210770448
 30
0.0
 11
480.6171606589304
 21
35.81391210770448
 31
0.0
 12
479.3202271973956
 22
42.37311582121003
 32
0.0
 13
480.6171606589304
 23
47.12853851350189
 33
0.0
  0
SOLID
  5
4691
330
1F
100
AcDbEntity
  8
LOGO
 62
     5
100
AcDbTrace
 10
481.1538227809452
 20
48.1124190705276
 30
0.0
 11
482.4507562424786
 21
48.11241907052829
 31
0.0
 12
481.1538227809452
 22
36.7977926647302
 32
0.0
 13
482.4507562424786
 23
41.55321535702205
 33
0.0
  0
SOLID
  5
4692
330
1F
100
AcDbEntity
  8
LOGO
 62
     2
100
AcDbTrace
 10
480.6171606589304
 20
48.1124190705276
 30
0.0
 11
481.1538227809452
 21
48.1124190705276
 31
0.0
 12
480.6171606589304
 22
35.81391210770448
 32
0.0
 13
481.1538227809452
 23
35.81391210770448
 33
0.0
  0
SOLID
  5
4693
330
1F
100
AcDbEntity
  8
LOGO
 62
     5
100
AcDbTrace
 10
481.1538227809452
 20
36.7977926647302
 30
0.0
 11
482.4507562424786
 21
41.55321535702205
 31
0.0
 12
487.3254371841065
 22
48.11241907052829
 32
0.0
 13
486.0285037225732
 23
48.11241907052829
 33
0.0
  0
SOLID
  5
4694
330
1F
100
AcDbEntity
  8
LOGO
 62
     5
100
AcDbTrace
 10
481.1538227809452
 20
35.81391210770448
 30
0.0
 11
482.4507562424786
 21
35.81391210770448
 31
0.0
 12
487.3254371841065
 22
47.12853851350189
 32
0.0
 13
486.0285037225732
 23
42.37311582121003
 33
0.0
  0
SOLID
  5
4695
330
1F
100
AcDbEntity
  8
LOGO
 62
     2
100
AcDbTrace
 10
480.6171606589304
 20
35.81391210770448
 30
0.0
 11
481.1538227809452
 21
35.81391210770448
 31
0.0
 12
487.3254371841065
 22
48.11241907052829
 32
0.0
 13
487.8620993061214
 23
48.1124190705276
 33
0.0
  0
LWPOLYLINE
  5
4696
330
1F
100
AcDbEntity
  8
LOGO
 62
     4
100
AcDbPolyline
 90
        4
 70
     1
 43
0.0
 10
469.4998532115859
 20
48.82495489935251
 10
881.9998532115862
 20
48.82495489935251
 10
881.9998532115862
 20
18.8292987907547
 10
469.4998532115859
 20
18.8292987907547
1001
GENIUS_GENREC_14
1002
{
1000
PYDIR
1011
469.4998532115859
1021
18.8292987907547
1031
0.0
1002
}
1002
{
1000
PXDIR
1011
881.9998532115862
1021
48.82495489935251
1031
0.0
1002
}
1002
{
1000
PORI
1011
469.4998532115859
1021
48.82495489935251
1031
0.0
1002
}
1002
{
1000
PINS
1011
469.4998532115859
1021
48.82495489935251
1031
0.0
1002
}
1002
{
1000
PINS2
1011
881.9998532115862
1021
18.8292987907547
1031
0.0
1002
}
1002
{
1000
C
1070
     1
1002
}
1001
GENIUS_GENOBJ-N-REC_13
1002
{
1000
OWNER
1000
GEN
1002
}
1001
GENIUS_GENODEF_13
1002
{
1000
HIER
1070
     0
1002
}
1002
{
1000
MANEDIT
1070
     0
1002
}
1002
{
1000
NOSEL
1070
     0
1002
}
1002
{
1000
BEHIND
1070
     0
1002
}
1002
{
1000
OTHER
1070
     0
1002
}
1002
{
1000
REACTOR
1002
}
  0
LINE
  5
4697
330
1F
100
AcDbEntity
  8
LOGO
 62
     4
100
AcDbLine
 10
596.7450944254736
 20
32.32734403962434
 30
0.0
 11
596.7450944254736
 21
21.32893679980475
 31
0.0
  0
LINE
  5
4698
330
1F
100
AcDbEntity
  8
LOGO
 62
     4
100
AcDbLine
 10
576.7479903530754
 20
32.32734403962434
 30
0.0
 11
576.7479903530754
 21
21.32893679980475
 31
0.0
  0
LINE
  5
4699
330
1F
100
AcDbEntity
  8
LOGO
 62
     4
100
AcDbLine
 10
596.7450944254736
 20
21.32893679980475
 30
0.0
 11
576.7479903530754
 21
21.32893679980475
 31
0.0
  0
LINE
  5
469A
330
1F
100
AcDbEntity
  8
LOGO
 62
     4
100
AcDbLine
 10
600.331787560183
 20
45.8253892884926
 30
0.0
 11
576.7479903530754
 21
45.8253892884926
 31
0.0
  0
LINE
  5
469B
330
1F
100
AcDbEntity
  8
LOGO
 62
     4
100
AcDbLine
 10
600.331787560183
 20
36.82669245591353
 30
0.0
 11
576.7479903530754
 21
36.82669245591353
 31
0.0
  0
LINE
  5
469C
330
1F
100
AcDbEntity
  8
LOGO
 62
     4
100
AcDbLine
 10
576.7479903530754
 20
45.8253892884926
 30
0.0
 11
576.7479903530754
 21
36.82669245591353
 31
0.0
  0
LINE
  5
469D
330
1F
100
AcDbEntity
  8
LOGO
 62
     4
100
AcDbLine
 10
600.331787560183
 20
45.8253892884926
 30
0.0
 11
600.331787560183
 21
36.82669245591353
 31
0.0
  0
LINE
  5
469E
330
1F
100
AcDbEntity
  8
LOGO
 62
     4
100
AcDbLine
 10
587.7898889566291
 20
36.82669245591353
 30
0.0
 11
587.7898889566291
 21
32.32734403962434
 31
0.0
  0
TEXT
  5
469F
330
1F
100
AcDbEntity
  8
LOGO
  6
Continuous
 62
     7
100
AcDbText
 10
578.3469178479953
 20
38.705157263621
 30
0.0
 40
5.25
  1
MCSH
  7
CHINESET
100
AcDbText
  0
LINE
  5
46A0
330
1F
100
AcDbEntity
  8
LOGO
 62
     4
100
AcDbLine
 10
596.7450944254736
 20
32.32734403962434
 30
0.0
 11
576.7479903530754
 21
32.32734403962434
 31
0.0
  0
TEXT
  5
46A1
330
1F
100
AcDbEntity
  8
LOGO
  6
Continuous
100
AcDbText
 10
583.1649977400399
 20
22.88133865904092
 30
196.5865886400747
 40
2.25
  1
Model
 41
0.8
  7
CHINESET
100
AcDbText
  0
TEXT
  5
46A2
330
1F
100
AcDbEntity
  8
LOGO
100
AcDbText
 10
582.5661208830411
 20
27.05235374943197
 30
196.5865886400747
 40
3.75
  1
型號
  7
CHINESET
100
AcDbText
  0
LINE
  5
46A3
330
1F
100
AcDbEntity
  8
LOGO
  6
Continuous
 62
     7
100
AcDbLine
 10
601.2884234066915
 20
41.294166065892
 30
0.0
 11
605.2619195801009
 21
41.294166065892
 31
0.0
  0
LINE
  5
46AF
330
1F
100
AcDbEntity
  8
LOGO
 62
     4
100
AcDbLine
 10
616.6194564567952
 20
32.32734403962434
 30
0.0
 11
616.6194564567952
 21
21.32893679980475
 31
0.0
  0
LINE
  5
46B0
330
1F
100
AcDbEntity
  8
LOGO
 62
     4
100
AcDbLine
 10
602.1734398898175
 20
32.32734403962434
 30
0.0
 11
602.1734398898175
 21
21.32893679980475
 31
0.0
  0
LINE
  5
46B1
330
1F
100
AcDbEntity
  8
LOGO
 62
     4
100
AcDbLine
 10
616.6194564567952
 20
21.32893679980475
 30
0.0
 11
602.1734398898175
 21
21.32893679980475
 31
0.0
  0
LINE
  5
46B2
330
1F
100
AcDbEntity
  8
LOGO
 62
     4
100
AcDbLine
 10
615.8919546320314
 20
45.8253892884926
 30
0.0
 11
606.9795543324819
 21
45.8253892884926
 31
0.0
  0
LINE
  5
46B3
330
1F
100
AcDbEntity
  8
LOGO
 62
     4
100
AcDbLine
 10
615.8919546320314
 20
36.82669245591353
 30
0.0
 11
606.9795543324819
 21
36.82669245591353
 31
0.0
  0
LINE
  5
46B4
330
1F
100
AcDbEntity
  8
LOGO
 62
     4
100
AcDbLine
 10
606.9795543324819
 20
45.8253892884926
 30
0.0
 11
606.9795543324819
 21
36.82669245591353
 31
0.0
  0
LINE
  5
46B5
330
1F
100
AcDbEntity
  8
LOGO
 62
     4
100
AcDbLine
 10
615.8919546320314
 20
45.8253892884926
 30
0.0
 11
615.8919546320314
 21
36.82669245591353
 31
0.0
  0
LINE
  5
46B6
330
1F
100
AcDbEntity
  8
LOGO
 62
     4
100
AcDbLine
 10
611.4357544822567
 20
36.82669245591353
 30
0.0
 11
611.4357544822567
 21
32.32734403962434
 31
0.0
  0
TEXT
  5
46B7
330
1F
100
AcDbEntity
  8
LOGO
  6
Continuous
 62
     7
100
AcDbText
 10
610.0733042534027
 20
38.705157263621
 30
0.0
 40
5.25
  1
6
  7
CHINESET
100
AcDbText
  0
LINE
  5
46B8
330
1F
100
AcDbEntity
  8
LOGO
 62
     4
100
AcDbLine
 10
616.6194564567952
 20
32.32734403962434
 30
0.0
 11
602.1734398898175
 21
32.32734403962434
 31
0.0
  0
LINE
  5
46B9
330
1F
100
AcDbEntity
  8
LOGO
  6
Continuous
 62
     7
100
AcDbLine
 10
618.7370838404611
 20
41.294166065892
 30
0.0
 11
622.7105800138713
 21
41.294166065892
 31
0.0
  0
LINE
  5
46BA
330
1F
100
AcDbEntity
  8
LOGO
 62
     4
100
AcDbLine
 10
637.7917997217975
 20
32.32734403962434
 30
0.0
 11
637.7917997217975
 21
21.32893679980475
 31
0.0
  0
LINE
  5
46BB
330
1F
100
AcDbEntity
  8
LOGO
 62
     4
100
AcDbLine
 10
621.500970494166
 20
32.32734403962434
 30
0.0
 11
621.500970494166
 21
21.32893679980475
 31
0.0
  0
LINE
  5
46BC
330
1F
100
AcDbEntity
  8
LOGO
 62
     4
100
AcDbLine
 10
637.7917997217975
 20
21.32893679980475
 30
0.0
 11
621.500970494166
 21
21.32893679980475
 31
0.0
  0
LINE
  5
46BD
330
1F
100
AcDbEntity
  8
LOGO
 62
     4
100
AcDbLine
 10
635.8221433479118
 20
45.8253892884926
 30
0.0
 11
623.9640086010979
 21
45.8253892884926
 31
0.0
  0
LINE
  5
46BE
330
1F
100
AcDbEntity
  8
LOGO
 62
     4
100
AcDbLine
 10
635.8221433479118
 20
36.82669245591353
 30
0.0
 11
623.9640086010979
 21
36.82669245591353
 31
0.0
  0
LINE
  5
46BF
330
1F
100
AcDbEntity
  8
LOGO
 62
     4
100
AcDbLine
 10
623.9640086010979
 20
45.8253892884926
 30
0.0
 11
623.9640086010979
 21
36.82669245591353
 31
0.0
  0
LINE
  5
46C0
330
1F
100
AcDbEntity
  8
LOGO
 62
     4
100
AcDbLine
 10
635.8221433479118
 20
45.8253892884926
 30
0.0
 11
635.8221433479118
 21
36.82669245591353
 31
0.0
  0
LINE
  5
46C1
330
1F
100
AcDbEntity
  8
LOGO
 62
     4
100
AcDbLine
 10
629.8930759745048
 20
36.82669245591353
 30
0.0
 11
629.8930759745048
 21
32.32734403962434
 31
0.0
  0
TEXT
  5
46C2
330
1F
100
AcDbEntity
  8
LOGO
  6
Continuous
 62
     7
100
AcDbText
 10
628.6681199246893
 20
38.705157263621
 30
0.0
 40
5.25
  1
*
  7
CHINESET
100
AcDbText
  0
LINE
  5
46C3
330
1F
100
AcDbEntity
  8
LOGO
 62
     4
100
AcDbLine
 10
637.7917997217975
 20
32.32734403962434
 30
0.0
 11
621.500970494166
 21
32.32734403962434
 31
0.0
  0
TEXT
  5
46C6
330
1F
100
AcDbEntity
  8
LOGO
  6
Continuous
100
AcDbText
 10
603.8061189033912
 20
22.88133865904092
 30
196.5865886400747
 40
2.25
  1
Tube I.D.
 41
0.8
  7
CHINESET
100
AcDbText
  0
TEXT
  5
46C7
330
1F
100
AcDbEntity
  8
LOGO
100
AcDbText
 10
605.286236612196
 20
27.05235374943197
 30
196.5865886400747
 40
3.75
  1
內徑
  7
CHINESET
100
AcDbText
  0
TEXT
  5
46C8
330
1F
100
AcDbEntity
  8
LOGO
  6
Continuous
100
AcDbText
 10
625.7944312965904
 20
22.88133865904092
 30
196.5865886400747
 40
2.25
  1
Stroke
 41
0.8
  7
CHINESET
100
AcDbText
  0
TEXT
  5
46C9
330
1F
100
AcDbEntity
  8
LOGO
100
AcDbText
 10
625.6384236929609
 20
27.05235374943197
 30
196.5865886400747
 40
3.75
  1
行程
  7
CHINESET
100
AcDbText
  0
TEXT
  5
46D6
330
1F
100
AcDbEntity
  8
LOGO
100
AcDbText
 10
537.0801000373567
 20
20.42505585663707
 30
0.0
 40
3.0
  1
10701173
 41
0.7
  7
CHINESET
 72
     1
 11
544.1801000373567
 21
20.42505585663707
 31
0.0
100
AcDbText
  0
LINE
  5
46D7
330
1F
100
AcDbEntity
  8
LOGO
 62
     4
100
AcDbLine
 10
553.4902966504988
 20
24.82843001247522
 30
0.0
 11
553.4902966505002
 21
18.82929879075539
 31
0.0
  0
LINE
  5
46D8
330
1F
100
AcDbEntity
  8
LOGO
 62
     4
100
AcDbLine
 10
553.4902966504988
 20
24.82843001247522
 30
0.0
 11
535.4902966505002
 21
24.82843001247522
 31
0.0
  0
CIRCLE
  5
46D9
330
1F
100
AcDbEntity
  8
LOGO
  6
Continuous
100
AcDbCircle
 10
521.0472634863443
 20
39.83267415956527
 30
0.0
 40
1.741618395480947
  0
CIRCLE
  5
46DA
330
1F
100
AcDbEntity
  8
LOGO
  6
Continuous
100
AcDbCircle
 10
521.0472634863443
 20
39.83267415956527
 30
0.0
 40
1.020434202998395
  0
LINE
  5
46DB
330
1F
100
AcDbEntity
  8
LOGO
100
AcDbLine
 10
531.9917955723991
 20
38.09105576408399
 30
0.0
 11
531.9917955723991
 21
41.57429255504655
 31
0.0
  0
LINE
  5
46DC
330
1F
100
AcDbEntity
  8
LOGO
100
AcDbLine
 10
526.5319218762328
 20
38.81223995656706
 30
0.0
 11
526.5319218762328
 21
40.85310836256383
 31
0.0
  0
LINE
  5
46DD
330
1F
100
AcDbEntity
  8
LOGO
  6
Continuous
100
AcDbLine
 10
526.5319218762328
 20
40.85310836256383
 30
0.0
 11
531.9917955723991
 21
41.57429255504655
 31
0.0
  0
LINE
  5
46DE
330
1F
100
AcDbEntity
  8
LOGO
  6
Continuous
100
AcDbLine
 10
526.5319218762328
 20
38.81223995656706
 30
0.0
 11
531.9917955723991
 21
38.09105576408399
 31
0.0
  0
LINE
  5
46DF
330
1F
100
AcDbEntity
  8
LOGO
  6
AM_ISO08W050x2
 48
0.3
100
AcDbLine
 10
518.6464164494919
 20
39.83267415956527
 30
0.0
 11
523.4481105231967
 21
39.83267415956527
 31
0.0
1001
GENIUS_GENOREF_13
1005
46E4
  0
LINE
  5
46E0
330
1F
100
AcDbEntity
  8
LOGO
  6
AM_ISO08W050x2
 48
0.3
100
AcDbLine
 10
521.0472634863443
 20
37.43182712271289
 30
0.0
 11
521.0472634863443
 21
42.23352119641766
 31
0.0
1001
GENIUS_GENOREF_13
1005
46E3
  0
LINE
  5
46E1
330
1F
100
AcDbEntity
  8
LOGO
  6
CENTER
 48
0.5
100
AcDbLine
 10
526.0952837370187
 20
39.83267415956527
 30
0.0
 11
532.5415871790807
 21
39.83267415956527
 31
0.0
1001
GENIUS_GENOREF_13
1005
46E2
  0
POINT
  5
46E2
330
1F
100
AcDbEntity
  8
0
 60
     1
100
AcDbPoint
 10
-1205.831745533407
 20
-871.4447039898473
 30
0.0
1001
GENIUS_GENOBJ-N-CRS_13
1002
{
1000
OWNER
1000
GEN
1002
}
1001
GENIUS_GENOLIS_13
1002
{
1000
ENT
1005
0
1005
0
1005
0
1005
46E1
1002
}
1001
GENIUS_GENOENT_13
1002
{
1000
MYREF
1005
46E2
1002
}
1002
{
1000
GRP
1005
0
1002
}
1001
GENIUS_GENODEF_13
1002
{
1000
HIER
1070
    10
1002
}
1002
{
1000
MANEDIT
1070
     1
1002
}
1002
{
1000
NOSEL
1070
     0
1002
}
1002
{
1000
BEHIND
1070
     0
1002
}
1002
{
1000
OTHER
1070
     0
1002
}
1002
{
1000
REACTOR
1002
}
  0
POINT
  5
46E3
330
1F
100
AcDbEntity
  8
0
 60
     1
100
AcDbPoint
 10
-1217.156330756262
 20
-862.5691175112111
 30
0.0
1001
GENIUS_GENOBJ-N-CRS_13
1002
{
1000
OWNER
1000
GEN
1002
}
1001
GENIUS_GENOLIS_13
1002
{
1000
ENT
1005
0
1005
0
1005
0
1005
46E0
1002
}
1001
GENIUS_GENOENT_13
1002
{
1000
MYREF
1005
46E3
1002
}
1002
{
1000
GRP
1005
0
1002
}
1001
GENIUS_GENODEF_13
1002
{
1000
HIER
1070
    10
1002
}
1002
{
1000
MANEDIT
1070
     1
1002
}
1002
{
1000
NOSEL
1070
     0
1002
}
1002
{
1000
BEHIND
1070
     0
1002
}
1002
{
1000
OTHER
1070
     0
1002
}
1002
{
1000
REACTOR
1002
}
  0
POINT
  5
46E4
330
1F
100
AcDbEntity
  8
0
 60
     1
100
AcDbPoint
 10
-1210.797657058425
 20
-871.4447039898473
 30
0.0
1001
GENIUS_GENOBJ-N-CRS_13
1002
{
1000
OWNER
1000
GEN
1002
}
1001
GENIUS_GENOLIS_13
1002
{
1000
ENT
1005
0
1005
0
1005
0
1005
46DF
1002
}
1001
GENIUS_GENOENT_13
1002
{
1000
MYREF
1005
46E4
1002
}
1002
{
1000
GRP
1005
0
1002
}
1001
GENIUS_GENODEF_13
1002
{
1000
HIER
1070
    10
1002
}
1002
{
1000
MANEDIT
1070
     1
1002
}
1002
{
1000
NOSEL
1070
     0
1002
}
1002
{
1000
BEHIND
1070
     0
1002
}
1002
{
1000
OTHER
1070
     0
1002
}
1002
{
1000
REACTOR
1002
}
  0
ENDSEC
  0
SECTION
  2
OBJECTS
  0
DICTIONARY
  5
C
330
0
100
AcDbDictionary
281
     1
  3
ACAD_COLOR
350
BE
  3
ACAD_GROUP
350
D
  3
ACAD_LAYOUT
350
1A
  3
ACAD_MATERIAL
350
BD
  3
ACAD_MLINESTYLE
350
17
  3
ACAD_PLOTSETTINGS
350
19
  3
ACAD_PLOTSTYLENAME
350
E
  3
ACAD_TABLESTYLE
350
11A
  3
ACDBHEADERROUNDTRIPXREC
350
4956
  3
AcDbVariableDictionary
350
94
  3
AcmDictionary
350
5B
  3
AMG
350
41
  3
AMGSNAPSETTINGS
350
1B8
  3
DWGPROPS
350
4955
  3
MAPISURF_MODULE
350
48D3
  0
DICTIONARY
  5
3F9
330
2
100
AcDbDictionary
280
     1
281
     1
  3
ACAD_LAYERFILTERS
360
436C
  3
ACAD_LAYERSTATES
360
C35
  3
ACLYDICTIONARY
360
436B
  0
DICTIONARY
  5
8F
330
1F
100
AcDbDictionary
280
     1
281
     1
  3
ACAD_INDEX
360
492A
  3
ACAD_SORTENTS
360
1588
  0
DICTIONARY
  5
4472
330
4471
100
AcDbDictionary
280
     1
281
     1
  3
ACAD_SORTENTS
360
4473
  0
DICTIONARY
  5
4487
330
4486
100
AcDbDictionary
280
     1
281
     1
  0
DICTIONARY
  5
1047
330
1046
100
AcDbDictionary
280
     1
281
     1
  3
ACAD_DIMASSOC
360
1048
  0
DICTIONARY
  5
104D
330
104C
100
AcDbDictionary
280
     1
281
     1
  3
ACAD_DIMASSOC
360
104E
  0
DICTIONARY
  5
1050
330
104F
100
AcDbDictionary
280
     1
281
     1
  3
ACAD_DIMASSOC
360
1051
  0
DICTIONARY
  5
1056
330
1055
100
AcDbDictionary
280
     1
281
     1
  3
ACAD_DIMASSOC
360
1057
  0
DICTIONARY
  5
1059
330
1058
100
AcDbDictionary
280
     1
281
     1
  3
ACAD_DIMASSOC
360
105A
  0
DICTIONARY
  5
105C
330
105B
100
AcDbDictionary
280
     1
281
     1
  3
ACAD_DIMASSOC
360
105D
  0
DICTIONARY
  5
1062
330
1061
100
AcDbDictionary
280
     1
281
     1
  3
ACAD_DIMASSOC
360
1063
  0
DICTIONARY
  5
1065
330
1064
100
AcDbDictionary
280
     1
281
     1
  3
ACAD_DIMASSOC
360
1066
  0
DICTIONARY
  5
1068
330
1067
100
AcDbDictionary
280
     1
281
     1
  3
ACAD_DIMASSOC
360
1069
  0
DICTIONARY
  5
106E
330
106D
100
AcDbDictionary
280
     1
281
     1
  3
ACAD_DIMASSOC
360
106F
  0
DICTIONARY
  5
1071
330
1070
100
AcDbDictionary
280
     1
281
     1
  3
ACAD_DIMASSOC
360
1072
  0
DICTIONARY
  5
1074
330
1073
100
AcDbDictionary
280
     1
281
     1
  3
ACAD_DIMASSOC
360
1075
  0
DICTIONARY
  5
1077
330
1076
100
AcDbDictionary
280
     1
281
     1
  3
ACAD_DIMASSOC
360
1078
  0
DICTIONARY
  5
107D
330
107C
100
AcDbDictionary
280
     1
281
     1
  3
ACAD_DIMASSOC
360
107E
  0
DICTIONARY
  5
1080
330
107F
100
AcDbDictionary
280
     1
281
     1
  3
ACAD_DIMASSOC
360
1081
  0
DICTIONARY
  5
108C
330
108B
100
AcDbDictionary
280
     1
281
     1
  3
ACAD_DIMASSOC
360
108D
  0
DICTIONARY
  5
1092
330
1091
100
AcDbDictionary
280
     1
281
     1
  3
ACAD_DIMASSOC
360
1093
  0
DICTIONARY
  5
1098
330
1097
100
AcDbDictionary
280
     1
281
     1
  3
ACAD_DIMASSOC
360
1099
  0
DICTIONARY
  5
109E
330
109D
100
AcDbDictionary
280
     1
281
     1
  3
ACAD_DIMASSOC
360
109F
  0
DICTIONARY
  5
10B3
330
10B2
100
AcDbDictionary
280
     1
281
     1
  3
ACAD_DIMASSOC
360
10B4
  0
DICTIONARY
  5
BE
102
{ACAD_REACTORS
330
C
102
}
330
C
100
AcDbDictionary
281
     1
  0
DICTIONARY
  5
D
102
{ACAD_REACTORS
330
C
102
}
330
C
100
AcDbDictionary
281
     1
  0
DICTIONARY
  5
1A
102
{ACAD_REACTORS
330
C
102
}
330
C
100
AcDbDictionary
281
     1
  3
Model
350
22
  3
配置1
350
1E
  3
配置2
350
26
  0
DICTIONARY
  5
BD
102
{ACAD_REACTORS
330
C
102
}
330
C
100
AcDbDictionary
281
     1
  0
DICTIONARY
  5
17
102
{ACAD_REACTORS
330
C
102
}
330
C
100
AcDbDictionary
281
     1
  3
Standard
350
18
  0
DICTIONARY
  5
19
102
{ACAD_REACTORS
330
C
102
}
330
C
100
AcDbDictionary
281
     1
  0
ACDBDICTIONARYWDFLT
  5
E
102
{ACAD_REACTORS
330
C
102
}
330
C
100
AcDbDictionary
281
     1
  3
Normal
350
F
100
AcDbDictionaryWithDefault
340
F
  0
DICTIONARY
  5
11A
102
{ACAD_REACTORS
330
C
102
}
330
C
100
AcDbDictionary
281
     1
  3
Standard
350
11B
  0
DICTIONARY
  5
4956
102
{ACAD_REACTORS
330
C
102
}
330
C
100
AcDbDictionary
281
     1
  0
DICTIONARY
  5
94
102
{ACAD_REACTORS
330
C
102
}
330
C
100
AcDbDictionary
281
     1
  3
CTABLESTYLE
350
138
  3
DIMASSOC
350
96
  3
INDEXCTL
350
95
  3
PROJECTNAME
350
4841
  0
DICTIONARY
  5
5B
102
{ACAD_REACTORS
330
C
102
}
330
C
100
AcDbDictionary
281
     1
  3
AcmBOM
350
1B5
  3
AcmStdDictionary
350
61
  3
AMDTSECTSYM_ARROWCOLOR
350
123
  0
DICTIONARY
  5
41
102
{ACAD_REACTORS
330
C
102
}
330
C
100
AcDbDictionary
281
     1
  3
AcMgSettings
350
484D
  0
DICTIONARY
  5
1B8
102
{ACAD_REACTORS
330
C
102
}
330
C
100
AcDbDictionary
281
     1
  0
XRECORD
  5
4955
102
{ACAD_REACTORS
330
C
102
}
330
C
100
AcDbXrecord
280
     1
  1
DWGPROPS COOKIE
  2

  3

  4

  6

  7

  8

  9

300
AmdtFileType=84
301
=
302
=
303
=
304
=
305
=
306
=
307
=
308
=
309
=
 40
0.2709933912037037
 41
2454070.719031748
 42
2457068.626273322
  1

 90
        1
  0
DICTIONARY
  5
436C
102
{ACAD_REACTORS
330
3F9
102
}
330
3F9
100
AcDbDictionary
281
     1
  0
DICTIONARY
  5
C35
102
{ACAD_REACTORS
330
3F9
102
}
330
3F9
100
AcDbDictionary
281
     1
  0
DICTIONARY
  5
436B
102
{ACAD_REACTORS
330
3F9
102
}
330
3F9
100
AcDbDictionary
281
     1
1001
ACAD
1000
<All
  0
DICTIONARY
  5
492A
102
{ACAD_REACTORS
330
8F
102
}
330
8F
100
AcDbDictionary
281
     1
  3
*A1
350
492B
  0
SORTENTSTABLE
  5
1588
102
{ACAD_REACTORS
330
8F
102
}
330
8F
100
AcDbSortentsTable
330
1F
331
157C
  5
1BD7
331
114A
  5
114A
331
1113
  5
1113
331
F90
  5
F90
331
F59
  5
F59
331
111B
  5
111B
331
F1A
  5
F1A
331
100E
  5
100E
331
FD7
  5
FD7
331
F61
  5
F61
331
1123
  5
1123
331
1094
  5
1094
331
F22
  5
F22
331
F98
  5
F98
331
1055
  5
1055
331
1016
  5
1016
331
FDF
  5
FDF
331
FA0
  5
FA0
331
F69
  5
F69
331
13A5
  5
1435
331
F2A
  5
F2A
331
101E
  5
101E
331
FE7
  5
FE7
331
FA8
  5
FA8
331
F32
  5
F32
331
1026
  5
1026
331
4318
  5
13C9
331
1584
  5
1380
331
1410
  5
14B6
331
1535
  5
158F
331
147F
  5
150F
331
158C
  5
13A4
331
1545
  5
159D
331
14EE
  5
157E
331
13C9
  5
146F
331
15E4
  5
1C3D
331
14FE
  5
1581
331
112B
  5
112B
331
F71
  5
F71
331
1133
  5
1133
331
106D
  5
106D
331
F3A
  5
F3A
331
FB0
  5
FB0
331
102E
  5
102E
331
FEF
  5
FEF
331
F79
  5
F79
331
113B
  5
113B
331
F42
  5
F42
331
FB8
  5
FB8
331
1036
  5
1036
331
FF7
  5
FF7
331
FC0
  5
FC0
331
F81
  5
F81
331
1143
  5
1143
331
10BC
  5
10BC
331
F4A
  5
F4A
331
103E
  5
103E
331
FFF
  5
FFF
331
FC8
  5
FC8
331
F89
  5
F89
331
F52
  5
F52
331
1046
  5
1046
331
1007
  5
1007
331
4320
  5
13EE
331
13D9
  5
147F
331
1448
  5
14EE
331
2F23
  5
4329
331
1634
  5
1C41
331
14B7
  5
1547
331
2FDB
  5
432D
331
157D
  5
1BD8
331
14C7
  5
1557
331
1114
  5
1114
331
1085
  5
1085
331
FD0
  5
FD0
331
F91
  5
F91
331
F5A
  5
F5A
331
111C
  5
111C
331
F1B
  5
F1B
331
100F
  5
100F
331
FD8
  5
FD8
331
F99
  5
F99
331
1124
  5
1124
331
F23
  5
F23
331
F62
  5
F62
331
1017
  5
1017
331
FE0
  5
FE0
331
FA1
  5
FA1
331
F6A
  5
F6A
331
109D
  5
109D
331
13A6
  5
1436
331
F2B
  5
F2B
331
105E
  5
105E
331
101F
  5
101F
331
F33
  5
F33
331
1027
  5
1027
331
4319
  5
13CA
331
1470
  5
1500
331
1585
  5
1381
331
1411
  5
14B7
331
1536
  5
1590
331
1480
  5
1510
331
1421
  5
14C7
331
158D
  5
13A5
331
159D
  5
1BFC
331
1546
  5
15E3
331
13CA
  5
1470
331
15E5
  5
1C3E
331
14FF
  5
1582
331
112C
  5
112C
331
FE8
  5
FE8
331
F72
  5
F72
331
1134
  5
1134
331
10AD
  5
10AD
331
F3B
  5
F3B
331
FB1
  5
FB1
331
102F
  5
102F
331
FF0
  5
FF0
331
F7A
  5
F7A
331
1076
  5
1076
331
113C
  5
113C
331
F43
  5
F43
331
FB9
  5
FB9
331
1037
  5
1037
331
FF8
  5
FF8
331
FC1
  5
FC1
331
F82
  5
F82
331
1144
  5
1144
331
F4B
  5
F4B
331
103F
  5
103F
331
1000
  5
1000
331
FC9
  5
FC9
331
F8A
  5
F8A
331
137F
  5
140F
331
F53
  5
F53
331
4321
  5
13FD
331
13DA
  5
1480
331
1635
  5
1C42
331
150F
  5
1584
331
14B8
  5
1548
331
157E
  5
1BFB
331
1115
  5
1115
331
1008
  5
1008
331
FD1
  5
FD1
331
F92
  5
F92
331
F5B
  5
F5B
331
111D
  5
111D
331
108E
  5
108E
331
F1C
  5
F1C
331
104F
  5
104F
331
1010
  5
1010
331
FD9
  5
FD9
331
F9A
  5
F9A
331
F63
  5
F63
331
1125
  5
1125
331
F24
  5
F24
331
1018
  5
1018
331
FE1
  5
FE1
331
FA2
  5
FA2
331
F6B
  5
F6B
331
F2C
  5
F2C
331
1020
  5
1020
331
F34
  5
F34
331
431A
  5
13D9
331
14C8
  5
1558
331
1645
  5
1C6D
331
1586
  5
1382
331
1412
  5
14B8
331
158E
  5
13A6
331
1481
  5
1511
331
1422
  5
14C8
331
1547
  5
15E4
331
1491
  5
1521
331
15E6
  5
1C3F
331
112D
  5
112D
331
1067
  5
1067
331
10A6
  5
10A6
331
1028
  5
1028
331
FE9
  5
FE9
331
F73
  5
F73
331
1135
  5
1135
331
10AE
  5
10AE
331
F3C
  5
F3C
331
FB2
  5
FB2
331
1030
  5
1030
331
FF1
  5
FF1
331
F7B
  5
F7B
331
113D
  5
113D
331
10B6
  5
10B6
331
F44
  5
F44
331
FBA
  5
FBA
331
1038
  5
1038
331
FF9
  5
FF9
331
FC2
  5
FC2
331
F83
  5
F83
331
1145
  5
1145
331
107F
  5
107F
331
F4C
  5
F4C
331
1040
  5
1040
331
1001
  5
1001
331
FCA
  5
FCA
331
F8B
  5
F8B
331
F54
  5
F54
331
EDD
  5
EDD
331
4322
  5
13FE
331
1500
  5
1583
331
13DB
  5
1481
331
1557
  5
15E6
331
13EB
  5
1491
331
1636
  5
1C6B
331
1510
  5
1585
331
1116
  5
1116
331
1380
  5
1410
331
1009
  5
1009
331
FD2
  5
FD2
331
F93
  5
F93
331
F5C
  5
F5C
331
111E
  5
111E
331
F1D
  5
F1D
331
1011
  5
1011
331
FDA
  5
FDA
331
F9B
  5
F9B
331
F64
  5
F64
331
1126
  5
1126
331
1097
  5
1097
331
F25
  5
F25
331
1058
  5
1058
331
1019
  5
1019
331
FE2
  5
FE2
331
FA3
  5
FA3
331
F6C
  5
F6C
331
F2D
  5
F2D
331
1021
  5
1021
331
FAB
  5
FAB
331
F35
  5
F35
331
431B
  5
13DA
331
14C9
  5
1559
331
14D9
  5
1569
331
158F
  5
13B5
331
1482
  5
1512
331
1423
  5
14C9
331
1548
  5
15E5
331
1492
  5
1522
331
1433
  5
14D9
331
112E
  5
112E
331
1029
  5
1029
331
FEA
  5
FEA
331
F74
  5
F74
331
1136
  5
1136
331
10AF
  5
10AF
331
1070
  5
1070
331
F3D
  5
F3D
331
FB3
  5
FB3
331
1031
  5
1031
331
FF2
  5
FF2
331
F7C
  5
F7C
331
113E
  5
113E
331
F45
  5
F45
331
FBB
  5
FBB
331
1039
  5
1039
331
FFA
  5
FFA
331
FC3
  5
FC3
331
F84
  5
F84
331
1146
  5
1146
331
10BF
  5
10BF
331
F4D
  5
F4D
331
1041
  5
1041
331
1002
  5
1002
331
FCB
  5
FCB
331
F8C
  5
F8C
331
F55
  5
F55
331
EDE
  5
EDE
331
4323
  5
13FF
331
13DC
  5
1482
331
1558
  5
1622
331
13EC
  5
1492
331
1637
  5
1C6C
331
1511
  5
1586
331
2F5E
  5
432A
331
1117
  5
1117
331
1088
  5
1088
331
1381
  5
1411
331
1049
  5
1049
331
100A
  5
100A
331
FD3
  5
FD3
331
F94
  5
F94
331
F5D
  5
F5D
331
111F
  5
111F
331
1391
  5
1421
331
F1E
  5
F1E
331
1012
  5
1012
331
FDB
  5
FDB
331
F9C
  5
F9C
331
F65
  5
F65
331
1127
  5
1127
331
F26
  5
F26
331
101A
  5
101A
331
FE3
  5
FE3
331
FA4
  5
FA4
331
F6D
  5
F6D
331
F2E
  5
F2E
331
1022
  5
1022
331
FAC
  5
FAC
331
F36
  5
F36
331
1521
  5
1589
331
13B5
  5
1445
331
14CA
  5
155A
331
1580
  5
114C
331
14DA
  5
156A
331
1424
  5
14CA
331
1493
  5
1523
331
1434
  5
14DA
331
1061
  5
1061
331
10A0
  5
10A0
331
112F
  5
112F
331
10A8
  5
10A8
331
102A
  5
102A
331
FEB
  5
FEB
331
F75
  5
F75
331
1137
  5
1137
331
F3E
  5
F3E
331
FB4
  5
FB4
331
1032
  5
1032
331
FF3
  5
FF3
331
F7D
  5
F7D
331
113F
  5
113F
331
1079
  5
1079
331
F46
  5
F46
331
FBC
  5
FBC
331
103A
  5
103A
331
FC4
  5
FC4
331
F85
  5
F85
331
1147
  5
1147
331
F4E
  5
F4E
331
FFB
  5
FFB
331
FCC
  5
FCC
331
F8D
  5
F8D
331
F56
  5
F56
331
1003
  5
1003
331
1042
  5
1042
331
14A3
  5
1533
331
1559
  5
1634
331
13ED
  5
1493
331
1569
  5
1636
331
1512
  5
1587
331
13FD
  5
14A3
331
2F5F
  5
432B
331
1382
  5
1412
331
1118
  5
1118
331
FD4
  5
FD4
331
F95
  5
F95
331
F5E
  5
F5E
331
1392
  5
1422
331
1120
  5
1120
331
1091
  5
1091
331
F1F
  5
F1F
331
100B
  5
100B
331
1052
  5
1052
331
FDC
  5
FDC
331
F9D
  5
F9D
331
F66
  5
F66
331
F27
  5
F27
331
1013
  5
1013
331
FE4
  5
FE4
331
FA5
  5
FA5
331
F6E
  5
F6E
331
F2F
  5
F2F
331
101B
  5
101B
331
FAD
  5
FAD
331
F37
  5
F37
331
1023
  5
1023
331
4315
  5
13B8
331
431D
  5
13EB
331
1522
  5
158A
331
13B6
  5
1446
331
1581
  5
114D
331
1589
  5
1393
331
14DB
  5
156B
331
14EB
  5
157B
331
1494
  5
1524
331
1435
  5
14DB
331
1128
  5
1128
331
1130
  5
1130
331
106A
  5
106A
331
FEC
  5
FEC
331
F76
  5
F76
331
1138
  5
1138
331
F3F
  5
F3F
331
FB5
  5
FB5
331
102B
  5
102B
331
FF4
  5
FF4
331
F7E
  5
F7E
331
F47
  5
F47
331
1140
  5
1140
331
10B9
  5
10B9
331
ED0
  5
ED0
331
FBD
  5
FBD
331
1033
  5
1033
331
103B
  5
103B
331
FC5
  5
FC5
331
F86
  5
F86
331
F4F
  5
F4F
331
FFC
  5
FFC
331
1043
  5
1043
331
FCD
  5
FCD
331
F57
  5
F57
331
1004
  5
1004
331
14A4
  5
1534
331
1445
  5
14EB
331
155A
  5
1635
331
13EE
  5
1494
331
156A
  5
1637
331
146D
  5
14FD
331
13FE
  5
14A4
331
2FD8
  5
432C
331
1111
  5
1111
331
1082
  5
1082
331
1119
  5
1119
331
FD5
  5
FD5
331
F96
  5
F96
331
F5F
  5
F5F
331
1393
  5
1423
331
1121
  5
1121
331
F20
  5
F20
331
100C
  5
100C
331
FDD
  5
FDD
331
F9E
  5
F9E
331
F67
  5
F67
331
13A3
  5
1433
331
109A
  5
109A
331
F28
  5
F28
331
1014
  5
1014
331
105B
  5
105B
331
FE5
  5
FE5
331
FA6
  5
FA6
331
F6F
  5
F6F
331
F30
  5
F30
331
101C
  5
101C
331
FAE
  5
FAE
331
1024
  5
1024
331
4316
  5
13C7
331
431E
  5
13EC
331
1523
  5
158B
331
13B7
  5
1447
331
1582
  5
114E
331
1533
  5
158D
331
14DC
  5
156C
331
158A
  5
1394
331
14EC
  5
157C
331
13C7
  5
146D
331
1436
  5
14DC
331
1129
  5
1129
331
1131
  5
1131
331
F38
  5
F38
331
FED
  5
FED
331
F77
  5
F77
331
1139
  5
1139
331
10B2
  5
10B2
331
1073
  5
1073
331
F40
  5
F40
331
FB6
  5
FB6
331
102C
  5
102C
331
FF5
  5
FF5
331
F7F
  5
F7F
331
1141
  5
1141
331
F48
  5
F48
331
FBE
  5
FBE
331
1034
  5
1034
331
103C
  5
103C
331
FFD
  5
FFD
331
FC6
  5
FC6
331
F87
  5
F87
331
F50
  5
F50
331
1044
  5
1044
331
1005
  5
1005
331
FCE
  5
FCE
331
1622
  5
1C40
331
14A5
  5
1535
331
1446
  5
14EC
331
14B5
  5
1545
331
156B
  5
1645
331
146E
  5
14FE
331
13FF
  5
14A5
331
2FE1
  5
432F
331
157B
  5
1BD6
331
1149
  5
1149
331
1112
  5
1112
331
111A
  5
111A
331
108B
  5
108B
331
F58
  5
F58
331
104C
  5
104C
331
100D
  5
100D
331
F97
  5
F97
331
F60
  5
F60
331
1122
  5
1122
331
1394
  5
1424
331
F21
  5
F21
331
FD6
  5
FD6
331
1015
  5
1015
331
FDE
  5
FDE
331
F9F
  5
F9F
331
F68
  5
F68
331
13A4
  5
1434
331
F29
  5
F29
331
101D
  5
101D
331
FE6
  5
FE6
331
FA7
  5
FA7
331
F31
  5
F31
331
1025
  5
1025
331
FAF
  5
FAF
331
4317
  5
13C8
331
431F
  5
13ED
331
1524
  5
158C
331
13B8
  5
1448
331
140F
  5
14B5
331
1583
  5
137F
331
1534
  5
158E
331
158B
  5
13A3
331
14ED
  5
157D
331
13C8
  5
146E
331
15E3
  5
1BFD
331
14FD
  5
1580
331
112A
  5
112A
331
1064
  5
1064
331
F70
  5
F70
331
1132
  5
1132
331
10AB
  5
10AB
331
F39
  5
F39
331
102D
  5
102D
331
FEE
  5
FEE
331
F78
  5
F78
331
113A
  5
113A
331
F41
  5
F41
331
FB7
  5
FB7
331
1035
  5
1035
331
FF6
  5
FF6
331
FBF
  5
FBF
331
F80
  5
F80
331
1142
  5
1142
331
107C
  5
107C
331
F49
  5
F49
331
103D
  5
103D
331
FFE
  5
FFE
331
FC7
  5
FC7
331
F88
  5
F88
331
F51
  5
F51
331
1045
  5
1045
331
1006
  5
1006
331
FCF
  5
FCF
331
14A6
  5
1536
331
1447
  5
14ED
331
14B6
  5
1546
331
156C
  5
1BD5
331
146F
  5
14FF
331
1400
  5
14A6
  0
SORTENTSTABLE
  5
4473
102
{ACAD_REACTORS
330
4472
102
}
330
4472
100
AcDbSortentsTable
330
4471
  0
DIMASSOC
  5
1048
102
{ACAD_REACTORS
330
1047
102
}
330
1047
100
AcDbDimAssoc
330
1046
 90
        3
 70
     0
 71
     0
  1
AcDbOsnapPointRef
 72
     1
331
FA0
 73
     2
 91
        0
 40
1.0
 10
0.0
 20
0.0
 30
2.000000000000000E+50
 75
     0
  1
AcDbOsnapPointRef
 72
    13
331
FA0
 73
     2
 91
        0
 40
0.0
 10
0.0
 20
0.0
 30
2.000000000000000E+50
 75
     0
  0
DIMASSOC
  5
104E
102
{ACAD_REACTORS
330
104D
102
}
330
104D
100
AcDbDimAssoc
330
104C
 90
        3
 70
     0
 71
     0
  1
AcDbOsnapPointRef
 72
    13
331
F23
 73
     2
 91
        0
 40
0.0
 10
0.0
 20
0.0
 30
2.000000000000000E+50
 75
     0
  1
AcDbOsnapPointRef
 72
     1
331
F27
 73
     2
 91
        0
 40
1.0
 10
0.0
 20
0.0
 30
2.000000000000000E+50
 75
     0
  0
DIMASSOC
  5
1051
102
{ACAD_REACTORS
330
1050
102
}
330
1050
100
AcDbDimAssoc
330
104F
 90
        1
 70
     0
 71
     0
  1
AcDbOsnapPointRef
 72
    13
331
F36
 73
     2
 91
        0
 40
0.0
 10
0.0
 20
0.0
 30
2.000000000000000E+50
 75
     0
  0
DIMASSOC
  5
1057
102
{ACAD_REACTORS
330
1056
102
}
330
1056
100
AcDbDimAssoc
330
1055
 90
        3
 70
     0
 71
     0
  1
AcDbOsnapPointRef
 72
    13
331
F36
 73
     2
 91
        0
 40
0.0
 10
0.0
 20
0.0
 30
2.000000000000000E+50
 75
     0
  1
AcDbOsnapPointRef
 72
     1
331
F37
 73
     2
 91
        0
 40
1.0
 10
0.0
 20
0.0
 30
2.000000000000000E+50
 75
     0
  0
DIMASSOC
  5
105A
102
{ACAD_REACTORS
330
1059
102
}
330
1059
100
AcDbDimAssoc
330
1058
 90
        3
 70
     0
 71
     0
  1
AcDbOsnapPointRef
 72
    13
331
F36
 73
     2
 91
        0
 40
0.0
 10
0.0
 20
0.0
 30
2.000000000000000E+50
 75
     0
  1
AcDbOsnapPointRef
 72
     1
331
F27
 73
     2
 91
        0
 40
1.0
 10
0.0
 20
0.0
 30
2.000000000000000E+50
 75
     0
  0
DIMASSOC
  5
105D
102
{ACAD_REACTORS
330
105C
102
}
330
105C
100
AcDbDimAssoc
330
105B
 90
        3
 70
     0
 71
     0
  1
AcDbOsnapPointRef
 72
    13
331
F81
 73
     2
 91
        0
 40
0.0
 10
0.0
 20
0.0
 30
2.000000000000000E+50
 75
     0
  1
AcDbOsnapPointRef
 72
    13
331
F7C
 73
     2
 91
        0
 40
0.0
 10
0.0
 20
0.0
 30
2.000000000000000E+50
 75
     0
  0
DIMASSOC
  5
1063
102
{ACAD_REACTORS
330
1062
102
}
330
1062
100
AcDbDimAssoc
330
1061
 90
        2
 70
     0
 71
     0
  1
AcDbOsnapPointRef
 72
     1
331
F56
 73
     2
 91
        0
 40
1.0
 10
0.0
 20
0.0
 30
2.000000000000000E+50
 75
     0
  0
DIMASSOC
  5
1066
102
{ACAD_REACTORS
330
1065
102
}
330
1065
100
AcDbDimAssoc
330
1064
 90
        3
 70
     0
 71
     0
  1
AcDbOsnapPointRef
 72
    13
331
F7D
 73
     2
 91
        0
 40
0.0
 10
0.0
 20
0.0
 30
2.000000000000000E+50
 75
     0
  1
AcDbOsnapPointRef
 72
     1
331
F7E
 73
     2
 91
        0
 40
1.0
 10
0.0
 20
0.0
 30
2.000000000000000E+50
 75
     0
  0
DIMASSOC
  5
1069
102
{ACAD_REACTORS
330
1068
102
}
330
1068
100
AcDbDimAssoc
330
1067
 90
        1
 70
     0
 71
     0
  1
AcDbOsnapPointRef
 72
     1
331
F56
 73
     2
 91
        0
 40
1.0
 10
0.0
 20
0.0
 30
2.000000000000000E+50
 75
     0
  0
DIMASSOC
  5
106F
102
{ACAD_REACTORS
330
106E
102
}
330
106E
100
AcDbDimAssoc
330
106D
 90
        2
 70
     0
 71
     0
  1
AcDbOsnapPointRef
 72
    13
331
F5B
 73
     2
 91
        0
 40
0.0
 10
0.0
 20
0.0
 30
2.000000000000000E+50
 75
     0
  0
DIMASSOC
  5
1072
102
{ACAD_REACTORS
330
1071
102
}
330
1071
100
AcDbDimAssoc
330
1070
 90
        3
 70
     0
 71
     0
  1
AcDbOsnapPointRef
 72
    13
331
F7D
 73
     2
 91
        0
 40
0.0
 10
0.0
 20
0.0
 30
2.000000000000000E+50
 75
     0
  1
AcDbOsnapPointRef
 72
     1
331
F56
 73
     2
 91
        0
 40
1.0
 10
0.0
 20
0.0
 30
2.000000000000000E+50
 75
     0
  0
DIMASSOC
  5
1075
102
{ACAD_REACTORS
330
1074
102
}
330
1074
100
AcDbDimAssoc
330
1073
 90
        3
 70
     0
 71
     0
  1
AcDbOsnapPointRef
 72
     1
331
F56
 73
     2
 91
        0
 40
1.0
 10
0.0
 20
0.0
 30
2.000000000000000E+50
 75
     0
  1
AcDbOsnapPointRef
 72
    13
331
F5B
 73
     2
 91
        0
 40
0.0
 10
0.0
 20
0.0
 30
2.000000000000000E+50
 75
     0
  0
DIMASSOC
  5
1078
102
{ACAD_REACTORS
330
1077
102
}
330
1077
100
AcDbDimAssoc
330
1076
 90
        3
 70
     0
 71
     0
  1
AcDbOsnapPointRef
 72
    13
331
F7D
 73
     2
 91
        0
 40
0.0
 10
0.0
 20
0.0
 30
2.000000000000000E+50
 75
     0
  1
AcDbOsnapPointRef
 72
    13
331
F5B
 73
     2
 91
        0
 40
0.0
 10
0.0
 20
0.0
 30
2.000000000000000E+50
 75
     0
  0
DIMASSOC
  5
107E
102
{ACAD_REACTORS
330
107D
102
}
330
107D
100
AcDbDimAssoc
330
107C
 90
        3
 70
     0
 71
     0
  1
AcDbOsnapPointRef
 72
     1
331
FA0
 73
     2
 91
        0
 40
1.0
 10
0.0
 20
0.0
 30
2.000000000000000E+50
 75
     0
  1
AcDbOsnapPointRef
 72
     1
331
FA1
 73
     2
 91
        0
 40
1.0
 10
0.0
 20
0.0
 30
2.000000000000000E+50
 75
     0
  0
DIMASSOC
  5
1081
102
{ACAD_REACTORS
330
1080
102
}
330
1080
100
AcDbDimAssoc
330
107F
 90
        1
 70
     0
 71
     0
  1
AcDbOsnapPointRef
 72
     1
331
FA1
 73
     2
 91
        0
 40
1.0
 10
0.0
 20
0.0
 30
2.000000000000000E+50
 75
     0
  0
DIMASSOC
  5
108D
102
{ACAD_REACTORS
330
108C
102
}
330
108C
100
AcDbDimAssoc
330
108B
 90
        1
 70
     0
 71
     0
  1
AcDbOsnapPointRef
 72
     1
331
FAD
 73
     2
 91
        0
 40
1.0
 10
0.0
 20
0.0
 30
2.000000000000000E+50
 75
     0
  0
DIMASSOC
  5
1093
102
{ACAD_REACTORS
330
1092
102
}
330
1092
100
AcDbDimAssoc
330
1091
 90
        3
 70
     0
 71
     0
  1
AcDbOsnapPointRef
 72
    13
331
1037
 73
     2
 91
        0
 40
0.0
 10
0.0
 20
0.0
 30
2.000000000000000E+50
 75
     0
  1
AcDbOsnapPointRef
 72
    13
331
102C
 73
     2
 91
        0
 40
0.0
 10
0.0
 20
0.0
 30
2.000000000000000E+50
 75
     0
  0
DIMASSOC
  5
1099
102
{ACAD_REACTORS
330
1098
102
}
330
1098
100
AcDbDimAssoc
330
1097
 90
        2
 70
     0
 71
     0
  1
AcDbOsnapPointRef
 72
    13
331
FE1
 73
     2
 91
        0
 40
0.0
 10
0.0
 20
0.0
 30
2.000000000000000E+50
 75
     0
  0
DIMASSOC
  5
109F
102
{ACAD_REACTORS
330
109E
102
}
330
109E
100
AcDbDimAssoc
330
109D
 90
        2
 70
     0
 71
     0
  1
AcDbOsnapPointRef
 72
    13
331
FE0
 73
     2
 91
        0
 40
0.0
 10
0.0
 20
0.0
 30
2.000000000000000E+50
 75
     0
  0
DIMASSOC
  5
10B4
102
{ACAD_REACTORS
330
10B3
102
}
330
10B3
100
AcDbDimAssoc
330
10B2
 90
        2
 70
     0
 71
     0
  1
AcDbOsnapPointRef
 72
    13
331
F5B
 73
     2
 91
        0
 40
0.0
 10
0.0
 20
0.0
 30
2.000000000000000E+50
 75
     0
  0
LAYOUT
  5
22
102
{ACAD_XDICTIONARY
360
4959
102
}
102
{ACAD_REACTORS
330
1A
102
}
330
1A
100
AcDbPlotSettings
  1

  2
\\RD\EPSON Stylus C63 Series單色
  4
A4
  6

 40
3.757083177566528
 41
3.757076978683471
 42
3.757080078125
 43
3.757080078125
 44
209.9733276367187
 45
296.9683227539062
 46
0.0
 47
0.0
 48
0.0
 49
0.0
140
0.0
141
0.0
142
1.0
143
0.3405120737814363
 70
 11952
 72
     1
 73
     0
 74
     0
  7
彩色出圖.ctb
 75
     0
147
2.936753428137963
148
-2047.07469463503
149
-1261.649717473083
100
AcDbLayout
  1
Model
 70
     1
 71
     0
 10
0.0
 20
0.0
 11
12.0
 21
9.0
 12
0.0
 22
0.0
 32
0.0
 14
0.0
 24
0.0
 34
0.0
 15
0.0
 25
0.0
 35
0.0
146
0.0
 13
0.0
 23
0.0
 33
0.0
 16
1.0
 26
0.0
 36
0.0
 17
0.0
 27
1.0
 37
0.0
 76
     0
330
1F
1001
ACAD_PSEXT
1000
\\RD\EPSON Stylus C63 Series單色
1000
EPSON Stylus C63 Series
1000
\\RD
1000

1070
     0
  0
LAYOUT
  5
1E
102
{ACAD_XDICTIONARY
360
4957
102
}
102
{ACAD_REACTORS
330
1A
102
}
330
1A
100
AcDbPlotSettings
  1

  2

  4

  6

 40
0.0
 41
0.0
 42
0.0
 43
0.0
 44
0.0
 45
0.0
 46
0.0
 47
0.0
 48
0.0
 49
0.0
140
0.0
141
0.0
142
1.0
143
1.0
 70
   688
 72
     0
 73
     0
 74
     5
  7
彩色出圖.ctb
 75
    16
147
1.0
148
0.0
149
0.0
100
AcDbLayout
  1
配置1
 70
     1
 71
     1
 10
0.0
 20
0.0
 11
420.0
 21
297.0
 12
0.0
 22
0.0
 32
0.0
 14
1.000000000000000E+20
 24
1.000000000000000E+20
 34
1.000000000000000E+20
 15
-1.000000000000000E+20
 25
-1.000000000000000E+20
 35
-1.000000000000000E+20
146
0.0
 13
0.0
 23
0.0
 33
0.0
 16
1.0
 26
0.0
 36
0.0
 17
0.0
 27
1.0
 37
0.0
 76
     0
330
1B
  0
LAYOUT
  5
26
102
{ACAD_XDICTIONARY
360
495B
102
}
102
{ACAD_REACTORS
330
1A
102
}
330
1A
100
AcDbPlotSettings
  1

  2

  4

  6

 40
0.0
 41
0.0
 42
0.0
 43
0.0
 44
0.0
 45
0.0
 46
0.0
 47
0.0
 48
0.0
 49
0.0
140
0.0
141
0.0
142
1.0
143
1.0
 70
   688
 72
     0
 73
     0
 74
     5
  7
彩色出圖.ctb
 75
    16
147
1.0
148
0.0
149
0.0
100
AcDbLayout
  1
配置2
 70
     1
 71
     2
 10
0.0
 20
0.0
 11
12.0
 21
9.0
 12
0.0
 22
0.0
 32
0.0
 14
0.0
 24
0.0
 34
0.0
 15
0.0
 25
0.0
 35
0.0
146
0.0
 13
0.0
 23
0.0
 33
0.0
 16
1.0
 26
0.0
 36
0.0
 17
0.0
 27
1.0
 37
0.0
 76
     0
330
23
  0
MLINESTYLE
  5
18
102
{ACAD_REACTORS
330
17
102
}
330
17
100
AcDbMlineStyle
  2
STANDARD
 70
     0
  3

 62
   256
 51
90.0
 52
90.0
 71
     2
 49
0.5
 62
   256
  6
BYLAYER
 49
-0.5
 62
   256
  6
BYLAYER
  0
ACDBPLACEHOLDER
  5
F
102
{ACAD_REACTORS
330
E
102
}
330
E
  0
TABLESTYLE
  5
11B
102
{ACAD_REACTORS
330
11A
102
}
330
11A
100
AcDbTableStyle
  3
Standard
 70
     0
 71
     0
 40
1.5
 41
1.5
280
     0
281
     0
  7
STANDARD
140
4.5
170
     2
 62
     0
 63
     7
283
     0
274
    -2
284
     1
 64
     0
275
    -2
285
     1
 65
     0
276
    -2
286
     1
 66
     0
277
    -2
287
     1
 67
     0
278
    -2
288
     1
 68
     0
279
    -2
289
     1
 69
     0
  7
STANDARD
140
6.0
170
     5
 62
     0
 63
     7
283
     0
274
    -2
284
     1
 64
     0
275
    -2
285
     1
 65
     0
276
    -2
286
     1
 66
     0
277
    -2
287
     1
 67
     0
278
    -2
288
     1
 68
     0
279
    -2
289
     1
 69
     0
  7
STANDARD
140
4.5
170
     5
 62
     0
 63
     7
283
     0
274
    -2
284
     1
 64
     0
275
    -2
285
     1
 65
     0
276
    -2
286
     1
 66
     0
277
    -2
287
     1
 67
     0
278
    -2
288
     1
 68
     0
279
    -2
289
     1
 69
     0
  0
DICTIONARYVAR
  5
138
102
{ACAD_REACTORS
330
94
102
}
330
94
100
DictionaryVariables
280
     0
  1
STANDARD
  0
DICTIONARYVAR
  5
96
102
{ACAD_REACTORS
330
94
102
}
330
94
100
DictionaryVariables
280
     0
  1
2
  0
DICTIONARYVAR
  5
95
102
{ACAD_REACTORS
330
94
102
}
330
94
100
DictionaryVariables
280
     0
  1
1
  0
DICTIONARYVAR
  5
4841
102
{ACAD_REACTORS
330
94
102
}
330
94
100
DictionaryVariables
280
     0
  1

  0
DICTIONARY
  5
1B5
102
{ACAD_REACTORS
330
5B
102
}
330
5B
100
AcDbDictionary
281
     1
  0
DICTIONARY
  5
61
102
{ACAD_REACTORS
330
5B
102
}
330
5B
100
AcDbDictionary
281
     1
  0
XRECORD
  5
123
102
{ACAD_REACTORS
330
5B
102
}
330
5B
100
AcDbXrecord
280
     1
 90
-1023410169
  0
DICTIONARY
  5
484D
102
{ACAD_REACTORS
330
41
102
}
330
41
100
AcDbDictionary
281
     1
  3
DWGSETTINGS
350
484E
  3
TRANSSETTINGS
350
4851
  0
LAYER_INDEX
  5
492B
102
{ACAD_REACTORS
330
492A
102
}
330
492A
100
AcDbIndex
 40
2457068.626273322
100
AcDbLayerIndex
  8
0
360
492C
 90
       34
  8
Defpoints
360
492D
 90
        0
  8
AM_VIS
360
492E
 90
      358
  8
AM_4
360
492F
 90
       26
  8
AM_7
360
4930
 90
      124
  8
AM_5
360
4931
 90
       51
  8
DIM2
360
4932
 90
       79
  8
LOGO
360
4933
 90
      103
  0
DICTIONARY
  5
4959
330
22
100
AcDbDictionary
280
     1
281
     1
  3
ACAD_XREC_ROUNDTRIP
360
495A
  0
DICTIONARY
  5
4957
330
1E
100
AcDbDictionary
280
     1
281
     1
  3
ACAD_XREC_ROUNDTRIP
360
4958
  0
DICTIONARY
  5
495B
330
26
100
AcDbDictionary
280
     1
281
     1
  3
ACAD_XREC_ROUNDTRIP
360
495C
  0
IDBUFFER
  5
492C
330
0
100
AcDbIdBuffer
330
14B9
330
14CB
330
14DD
330
14EF
330
1501
330
1513
330
1525
330
1537
330
1549
330
155B
330
156D
330
157F
330
15E7
330
1638
330
4484
330
46E2
330
46E3
330
46E4
330
1383
330
1395
330
13A7
330
13B9
330
13CB
330
13DD
330
13EF
330
1401
330
1413
330
1425
330
1437
330
1449
330
1471
330
1483
330
1495
330
14A7
  0
IDBUFFER
  5
492D
330
0
100
AcDbIdBuffer
  0
IDBUFFER
  5
492E
330
0
100
AcDbIdBuffer
330
100E
330
100F
330
1010
330
1011
330
1012
330
1013
330
1014
330
1015
330
1016
330
1017
330
1018
330
1019
330
101A
330
101B
330
101C
330
101D
330
101E
330
101F
330
1020
330
1021
330
1022
330
1023
330
1024
330
1025
330
1026
330
1027
330
1028
330
1029
330
102A
330
102B
330
102C
330
102D
330
102E
330
102F
330
1030
330
1031
330
1032
330
1033
330
1034
330
1035
330
1036
330
1037
330
1038
330
1039
330
103A
330
103B
330
103C
330
103D
330
103E
330
103F
330
1040
330
1041
330
1042
330
1043
330
1044
330
1045
330
1111
330
1112
330
1113
330
1114
330
1115
330
1116
330
1117
330
1118
330
1119
330
111A
330
111B
330
111C
330
111D
330
111E
330
111F
330
1120
330
1121
330
1122
330
1123
330
1126
330
1127
330
1128
330
1129
330
112A
330
112B
330
112C
330
112D
330
112E
330
112F
330
1130
330
1131
330
1132
330
1133
330
1134
330
1580
330
1581
330
1582
330
1583
330
1584
330
1585
330
1586
330
1589
330
158A
330
158B
330
158C
330
158D
330
158E
330
158F
330
4315
330
4316
330
4317
330
4318
330
4319
330
431A
330
431B
330
431D
330
431E
330
431F
330
4320
330
4321
330
4322
330
4323
330
F1A
330
F1B
330
F1C
330
F1D
330
F1E
330
F1F
330
F20
330
F21
330
F22
330
F23
330
F24
330
F25
330
F26
330
F27
330
F28
330
F29
330
F2A
330
F2B
330
F2C
330
F2D
330
F2E
330
F2F
330
F30
330
F31
330
F32
330
F33
330
F34
330
F35
330
F36
330
F37
330
F38
330
F39
330
F3A
330
F3B
330
F3C
330
F3D
330
F3E
330
F3F
330
F40
330
F41
330
F42
330
F43
330
F44
330
F45
330
F46
330
F47
330
F48
330
F49
330
F4A
330
F4B
330
F4C
330
F4D
330
F4E
330
F4F
330
F50
330
F51
330
F52
330
F53
330
F54
330
F55
330
F56
330
F57
330
F58
330
F59
330
F5A
330
F5B
330
F5C
330
F5D
330
F5E
330
F5F
330
F60
330
F61
330
F62
330
F63
330
F64
330
F65
330
F66
330
F67
330
F68
330
F69
330
F6A
330
F6B
330
F6C
330
F6D
330
F6E
330
F6F
330
F70
330
F71
330
F72
330
F73
330
F74
330
F75
330
F76
330
F77
330
F78
330
F79
330
F7A
330
F7B
330
F7C
330
F7D
330
F7E
330
F7F
330
F80
330
F81
330
F82
330
F83
330
F84
330
F85
330
F86
330
F87
330
F88
330
F89
330
F8A
330
F8B
330
F8C
330
F8D
330
F90
330
F91
330
F92
330
F93
330
F94
330
F95
330
F96
330
F97
330
F98
330
F99
330
F9A
330
F9B
330
F9C
330
F9D
330
F9E
330
F9F
330
FA0
330
FA1
330
FA2
330
FA3
330
FA4
330
FA5
330
FA6
330
FA7
330
FA8
330
FAB
330
FAC
330
FAD
330
FAE
330
FAF
330
FB0
330
FB1
330
FB2
330
FB3
330
FB4
330
FB5
330
FB6
330
FB7
330
FB8
330
FB9
330
FBA
330
FBB
330
FBC
330
FBD
330
FBE
330
FBF
330
FC0
330
FC1
330
FC2
330
FC3
330
FC4
330
FC5
330
FC6
330
FC7
330
FC8
330
FC9
330
FCA
330
FCB
330
FCC
330
FCD
330
FCE
330
FCF
330
FD0
330
FD1
330
FD2
330
FD3
330
FD4
330
FD5
330
FD6
330
FD7
330
FD8
330
FD9
330
FDA
330
FDB
330
FDC
330
FDD
330
FDE
330
FDF
330
FE0
330
FE1
330
FE2
330
FE3
330
FE4
330
FE5
330
FE6
330
FE7
330
FE8
330
FE9
330
FEA
330
FEB
330
FEC
330
FED
330
FEE
330
FEF
330
FF0
330
FF1
330
FF2
330
FF3
330
FF4
330
FF5
330
FF6
330
FF7
330
FF8
330
FF9
330
FFA
330
FFB
330
FFC
330
FFD
330
FFE
330
FFF
330
1000
330
1001
330
1002
330
1003
330
1004
330
1005
330
1006
330
1007
330
1008
330
1009
330
100A
330
100B
330
100C
330
100D
  0
IDBUFFER
  5
492F
330
0
100
AcDbIdBuffer
330
1140
330
1141
330
1142
330
1143
330
1144
330
1145
330
1146
330
1147
330
1149
330
114A
330
ED0
330
EDD
330
EDE
330
1124
330
1125
330
1135
330
1136
330
1137
330
1138
330
1139
330
113A
330
113B
330
113C
330
113D
330
113E
330
113F
  0
IDBUFFER
  5
4930
330
0
100
AcDbIdBuffer
330
159D
330
15E3
330
15E4
330
15E5
330
15E6
330
1622
330
1634
330
1635
330
1636
330
1637
330
1645
330
4483
330
137F
330
1380
330
1381
330
1382
330
1391
330
1392
330
1393
330
1394
330
13A3
330
13A4
330
13A5
330
13A6
330
13B5
330
13B6
330
13B7
330
13B8
330
13C7
330
13C8
330
13C9
330
13CA
330
13D9
330
13DA
330
13DB
330
13DC
330
13EB
330
13EC
330
13ED
330
13EE
330
13FD
330
13FE
330
13FF
330
1400
330
140F
330
1410
330
1411
330
1412
330
1421
330
1422
330
1423
330
1424
330
1433
330
1434
330
1435
330
1436
330
1445
330
1446
330
1447
330
1448
330
146D
330
146E
330
146F
330
1470
330
147F
330
1480
330
1481
330
1482
330
1491
330
1492
330
1493
330
1494
330
14A3
330
14A4
330
14A5
330
14A6
330
14B5
330
14B6
330
14B7
330
14B8
330
14C7
330
14C8
330
14C9
330
14CA
330
14D9
330
14DA
330
14DB
330
14DC
330
14EB
330
14EC
330
14ED
330
14EE
330
14FD
330
14FE
330
14FF
330
1500
330
150F
330
1510
330
1511
330
1512
330
1521
330
1522
330
1523
330
1524
330
1533
330
1534
330
1535
330
1536
330
1545
330
1546
330
1547
330
1548
330
1557
330
1558
330
1559
330
155A
330
1569
330
156A
330
156B
330
156C
330
157B
330
157C
330
157D
330
157E
  0
IDBUFFER
  5
4931
330
0
100
AcDbIdBuffer
330
43C6
330
43E0
330
45A9
330
1046
330
1049
330
104C
330
104F
330
1052
330
1055
330
1058
330
105B
330
105E
330
1061
330
1064
330
1067
330
106A
330
106D
330
1070
330
1073
330
1076
330
1079
330
107C
330
107F
330
1082
330
1085
330
1088
330
108B
330
108E
330
1091
330
1094
330
1097
330
109A
330
109D
330
10A0
330
10A6
330
10A8
330
10AB
330
10AD
330
10AE
330
10AF
330
10B2
330
10B6
330
10B9
330
10BC
330
10BF
330
2F23
330
2F5E
330
2F5F
330
2FD8
330
2FDB
330
2FE1
  0
IDBUFFER
  5
4932
330
0
100
AcDbIdBuffer
330
4549
330
454A
330
454B
330
454C
330
454D
330
454E
330
454F
330
4550
330
4551
330
4552
330
4553
330
4554
330
4555
330
4556
330
4557
330
4558
330
4559
330
455A
330
455B
330
455C
330
455D
330
455E
330
455F
330
4560
330
4561
330
4562
330
4563
330
4564
330
4565
330
4566
330
4569
330
4519
330
451A
330
451B
330
451C
330
451D
330
451E
330
451F
330
4520
330
4521
330
4522
330
4523
330
4524
330
4525
330
4526
330
4527
330
4528
330
4529
330
452A
330
452B
330
452C
330
452D
330
452E
330
452F
330
4530
330
4531
330
4532
330
4533
330
4534
330
4535
330
4536
330
4537
330
4538
330
4539
330
453A
330
453B
330
453C
330
453D
330
453E
330
453F
330
4540
330
4541
330
4542
330
4543
330
4544
330
4545
330
4546
330
4547
330
4548
  0
IDBUFFER
  5
4933
330
0
100
AcDbIdBuffer
330
4692
330
4693
330
4694
330
4695
330
4696
330
4697
330
4698
330
4699
330
469A
330
469B
330
469C
330
469D
330
469E
330
469F
330
46A0
330
46A1
330
46A2
330
46A3
330
46AF
330
46B0
330
46B1
330
46B2
330
46B3
330
46B4
330
46B5
330
46B6
330
46B7
330
46B8
330
46B9
330
46BA
330
46BB
330
46BC
330
46BD
330
46BE
330
46BF
330
46C0
330
46C1
330
46C2
330
46C3
330
46C6
330
46C7
330
46C8
330
46C9
330
46D6
330
46D7
330
46D8
330
46D9
330
46DA
330
46DB
330
46DC
330
46DD
330
46DE
330
46DF
330
46E0
330
46E1
330
464D
330
464E
330
464F
330
4650
330
4651
330
4652
330
4653
330
4654
330
4655
330
4656
330
4657
330
4658
330
4659
330
465A
330
465B
330
465C
330
465D
330
465E
330
465F
330
4660
330
4661
330
4662
330
4663
330
4664
330
4668
330
466C
330
466D
330
4671
330
4672
330
4673
330
4674
330
4675
330
4676
330
4677
330
4678
330
467C
330
4680
330
4684
330
4685
330
4686
330
468A
330
468B
330
468C
330
468D
330
468E
330
468F
330
4690
330
4691
  0
XRECORD
  5
495A
102
{ACAD_REACTORS
330
4959
102
}
330
4959
100
AcDbXrecord
280
     1
102
SHADEPLOT
 70
     0
102
SHADEPLOTRESLEVEL
 70
     2
102
SHADEPLOTCUSTOMDPI
 70
   300
  0
XRECORD
  5
4958
102
{ACAD_REACTORS
330
4957
102
}
330
4957
100
AcDbXrecord
280
     1
102
SHADEPLOT
 70
     0
102
SHADEPLOTRESLEVEL
 70
     2
102
SHADEPLOTCUSTOMDPI
 70
   300
  0
XRECORD
  5
495C
102
{ACAD_REACTORS
330
495B
102
}
330
495B
100
AcDbXrecord
280
     1
102
SHADEPLOT
 70
     0
102
SHADEPLOTRESLEVEL
 70
     2
102
SHADEPLOTCUSTOMDPI
 70
   300
  0
ENDSEC
  0
EOF
