  0
SECTION
  2
HEADER
  9
$ACADVER
  1
AC1015
  9
$ACADMAINTVER
 70
    20
  9
$DWGCODEPAGE
  3
ANSI_950
  9
$INSBASE
 10
0.0
 20
0.0
 30
0.0
  9
$EXTMIN
 10
1932.46090517175
 20
25.09386588352027
 30
-0.0095193578090402
  9
$EXTMAX
 10
3032.711341139429
 20
825.1260356021166
 30
524.238903901198
  9
$LIMMIN
 10
0.0
 20
0.0
  9
$LIMMAX
 10
420.0
 20
297.0
  9
$ORTHOMODE
 70
     1
  9
$REGENMODE
 70
     1
  9
$FILLMODE
 70
     1
  9
$QTEXTMODE
 70
     0
  9
$MIRRTEXT
 70
     1
  9
$LTSCALE
 40
1.0
  9
$ATTMODE
 70
     1
  9
$TEXTSIZE
 40
3.0
  9
$TRACEWID
 40
1.0
  9
$TEXTSTYLE
  7
CHINESET
  9
$CLAYER
  8
0
  9
$CELTYPE
  6
ByLayer
  9
$CECOLOR
 62
   256
  9
$CELTSCALE
 40
1.0
  9
$DISPSILH
 70
     0
  9
$DIMSCALE
 40
1.0
  9
$DIMASZ
 40
3.0
  9
$DIMEXO
 40
1.0
  9
$DIMDLI
 40
10.0
  9
$DIMRND
 40
0.0
  9
$DIMDLE
 40
0.0
  9
$DIMEXE
 40
1.5
  9
$DIMTP
 40
0.1
  9
$DIMTM
 40
0.1
  9
$DIMTXT
 40
3.0
  9
$DIMCEN
 40
0.0
  9
$DIMTSZ
 40
0.0
  9
$DIMTOL
 70
     0
  9
$DIMLIM
 70
     0
  9
$DIMTIH
 70
     0
  9
$DIMTOH
 70
     0
  9
$DIMSE1
 70
     0
  9
$DIMSE2
 70
     0
  9
$DIMTAD
 70
     1
  9
$DIMZIN
 70
     8
  9
$DIMBLK
  1

  9
$DIMASO
 70
     1
  9
$DIMSHO
 70
     1
  9
$DIMPOST
  1

  9
$DIMAPOST
  1
"
  9
$DIMALT
 70
     0
  9
$DIMALTD
 70
     2
  9
$DIMALTF
 40
0.0393701
  9
$DIMLFAC
 40
1.0
  9
$DIMTOFL
 70
     1
  9
$DIMTVP
 40
0.0
  9
$DIMTIX
 70
     0
  9
$DIMSOXD
 70
     0
  9
$DIMSAH
 70
     0
  9
$DIMBLK1
  1

  9
$DIMBLK2
  1

  9
$DIMSTYLE
  2
AM_ISO
  9
$DIMCLRD
 70
   256
  9
$DIMCLRE
 70
   256
  9
$DIMCLRT
 70
   256
  9
$DIMTFAC
 40
0.71
  9
$DIMGAP
 40
1.0
  9
$DIMJUST
 70
     0
  9
$DIMSD1
 70
     0
  9
$DIMSD2
 70
     0
  9
$DIMTOLJ
 70
     0
  9
$DIMTZIN
 70
     8
  9
$DIMALTZ
 70
     0
  9
$DIMALTTZ
 70
     0
  9
$DIMUPT
 70
     0
  9
$DIMDEC
 70
     2
  9
$DIMTDEC
 70
     8
  9
$DIMALTU
 70
     2
  9
$DIMALTTD
 70
     2
  9
$DIMTXSTY
  7
CHINESET
  9
$DIMAUNIT
 70
     0
  9
$DIMADEC
 70
     0
  9
$DIMALTRND
 40
0.0
  9
$DIMAZIN
 70
     2
  9
$DIMDSEP
 70
    46
  9
$DIMATFIT
 70
     3
  9
$DIMFRAC
 70
     0
  9
$DIMLDRBLK
  1

  9
$DIMLUNIT
 70
     2
  9
$DIMLWD
 70
    -1
  9
$DIMLWE
 70
    -1
  9
$DIMTMOVE
 70
     0
  9
$LUNITS
 70
     2
  9
$LUPREC
 70
     2
  9
$SKETCHINC
 40
1.0
  9
$FILLETRAD
 40
2.5
  9
$AUNITS
 70
     0
  9
$AUPREC
 70
     0
  9
$MENU
  1
.
  9
$ELEVATION
 40
0.0
  9
$PELEVATION
 40
0.0
  9
$THICKNESS
 40
0.0
  9
$LIMCHECK
 70
     0
  9
$CHAMFERA
 40
2.5
  9
$CHAMFERB
 40
2.5
  9
$CHAMFERC
 40
20.0
  9
$CHAMFERD
 40
0.0
  9
$SKPOLY
 70
     0
  9
$TDCREATE
 40
2453731.618400787
  9
$TDUCREATE
 40
2453731.285067453
  9
$TDUPDATE
 40
2453732.405380857
  9
$TDUUPDATE
 40
2453732.072047523
  9
$TDINDWG
 40
0.0796021296
  9
$TDUSRTIMER
 40
0.0796021296
  9
$USRTIMER
 70
     1
  9
$ANGBASE
 50
0.0
  9
$ANGDIR
 70
     0
  9
$PDMODE
 70
     0
  9
$PDSIZE
 40
0.0
  9
$PLINEWID
 40
0.0
  9
$SPLFRAME
 70
     0
  9
$SPLINETYPE
 70
     6
  9
$SPLINESEGS
 70
     8
  9
$HANDSEED
  5
2D2C
  9
$SURFTAB1
 70
     6
  9
$SURFTAB2
 70
     6
  9
$SURFTYPE
 70
     6
  9
$SURFU
 70
     6
  9
$SURFV
 70
     6
  9
$UCSBASE
  2

  9
$UCSNAME
  2

  9
$UCSORG
 10
0.0
 20
0.0
 30
0.0
  9
$UCSXDIR
 10
1.0
 20
0.0
 30
0.0
  9
$UCSYDIR
 10
0.0
 20
1.0
 30
0.0
  9
$UCSORTHOREF
  2

  9
$UCSORTHOVIEW
 70
     0
  9
$UCSORGTOP
 10
0.0
 20
0.0
 30
0.0
  9
$UCSORGBOTTOM
 10
0.0
 20
0.0
 30
0.0
  9
$UCSORGLEFT
 10
0.0
 20
0.0
 30
0.0
  9
$UCSORGRIGHT
 10
0.0
 20
0.0
 30
0.0
  9
$UCSORGFRONT
 10
0.0
 20
0.0
 30
0.0
  9
$UCSORGBACK
 10
0.0
 20
0.0
 30
0.0
  9
$PUCSBASE
  2

  9
$PUCSNAME
  2

  9
$PUCSORG
 10
0.0
 20
0.0
 30
0.0
  9
$PUCSXDIR
 10
1.0
 20
0.0
 30
0.0
  9
$PUCSYDIR
 10
0.0
 20
1.0
 30
0.0
  9
$PUCSORTHOREF
  2

  9
$PUCSORTHOVIEW
 70
     0
  9
$PUCSORGTOP
 10
0.0
 20
0.0
 30
0.0
  9
$PUCSORGBOTTOM
 10
0.0
 20
0.0
 30
0.0
  9
$PUCSORGLEFT
 10
0.0
 20
0.0
 30
0.0
  9
$PUCSORGRIGHT
 10
0.0
 20
0.0
 30
0.0
  9
$PUCSORGFRONT
 10
0.0
 20
0.0
 30
0.0
  9
$PUCSORGBACK
 10
0.0
 20
0.0
 30
0.0
  9
$USERI1
 70
     0
  9
$USERI2
 70
     0
  9
$USERI3
 70
     0
  9
$USERI4
 70
     0
  9
$USERI5
 70
     0
  9
$USERR1
 40
0.0
  9
$USERR2
 40
0.0
  9
$USERR3
 40
0.0
  9
$USERR4
 40
0.0
  9
$USERR5
 40
0.0
  9
$WORLDVIEW
 70
     1
  9
$SHADEDGE
 70
     3
  9
$SHADEDIF
 70
    70
  9
$TILEMODE
 70
     1
  9
$MAXACTVP
 70
    64
  9
$PINSBASE
 10
0.0
 20
0.0
 30
0.0
  9
$PLIMCHECK
 70
     0
  9
$PEXTMIN
 10
1.000000000000000E+20
 20
1.000000000000000E+20
 30
1.000000000000000E+20
  9
$PEXTMAX
 10
-1.000000000000000E+20
 20
-1.000000000000000E+20
 30
-1.000000000000000E+20
  9
$PLIMMIN
 10
0.0
 20
0.0
  9
$PLIMMAX
 10
420.0
 20
297.0
  9
$UNITMODE
 70
     0
  9
$VISRETAIN
 70
     1
  9
$PLINEGEN
 70
     0
  9
$PSLTSCALE
 70
     1
  9
$TREEDEPTH
 70
  3020
  9
$CMLSTYLE
  2
Standard
  9
$CMLJUST
 70
     0
  9
$CMLSCALE
 40
20.0
  9
$PROXYGRAPHICS
 70
     1
  9
$MEASUREMENT
 70
     1
  9
$CELWEIGHT
370
    -1
  9
$ENDCAPS
280
     0
  9
$JOINSTYLE
280
     0
  9
$LWDISPLAY
290
     0
  9
$INSUNITS
 70
     4
  9
$HYPERLINKBASE
  1

  9
$STYLESHEET
  1
彩色出圖.ctb
  9
$XEDIT
290
     1
  9
$CEPSNTYPE
380
     0
  9
$PSTYLEMODE
290
     1
  9
$FINGERPRINTGUID
  2
{0D855794-04CD-42EC-BA89-F7EABE2626E6}
  9
$VERSIONGUID
  2
{ACEDCF43-FAF3-4819-985F-7A8223477EBE}
  9
$EXTNAMES
290
     1
  9
$PSVPSCALE
 40
0.0
  9
$OLESTARTUP
290
     0
  0
ENDSEC
  0
SECTION
  2
CLASSES
  0
CLASS
  1
ACDBDICTIONARYWDFLT
  2
AcDbDictionaryWithDefault
  3
ObjectDBX Classes
 90
        0
280
     0
281
     0
  0
CLASS
  1
ACDBPLACEHOLDER
  2
AcDbPlaceHolder
  3
ObjectDBX Classes
 90
        0
280
     0
281
     0
  0
CLASS
  1
LAYOUT
  2
AcDbLayout
  3
ObjectDBX Classes
 90
        0
280
     0
281
     0
  0
CLASS
  1
ACME_DOCUMENT
  2
AcMeDbDoc
  3
AcMeServices
 90
        0
280
     0
281
     0
  0
CLASS
  1
AMGSETTINGSOBJ
  2
AmgSettingsObj
  3
"AcadM|Product Description: AutoCAD Mechanical 2000|Company: Autodesk"
 90
        0
280
     0
281
     0
  0
CLASS
  1
ACMESCOPE
  2
AcMeScope
  3
AcMeServices
 90
        0
280
     0
281
     0
  0
CLASS
  1
ACMECOMMANDHISTORY
  2
AcMeCommandHistory
  3
AcMeServices
 90
        0
280
     0
281
     0
  0
CLASS
  1
ACIMSYSVARMAN
  2
AcImSysVarManager
  3
AcMeServices
 90
        0
280
     0
281
     0
  0
CLASS
  1
ACIMREALSYSVAR
  2
AcImRealSysVar
  3
AcMeServices
 90
        0
280
     0
281
     0
  0
CLASS
  1
ACIMINTSYSVAR
  2
AcImIntSysVar
  3
AcMeServices
 90
        0
280
     0
281
     0
  0
CLASS
  1
ACMEDRAWINGMAN
  2
AcMeDrawingMan
  3
AcMeServices
 90
        0
280
     0
281
     0
  0
CLASS
  1
ACMEVIEW
  2
AcMeView
  3
AcMeServices
 90
        0
280
     0
281
     0
  0
CLASS
  1
ACDBENTITYCACHE
  2
AcMeEntityCache
  3
AcMeServices
 90
        0
280
     0
281
     0
  0
CLASS
  1
GSMANAGER
  2
AcMeGSManager
  3
AcMeServices
 90
        0
280
     0
281
     0
  0
CLASS
  1
AMDTINTERNALREACTOR
  2
AmdtInternalReactor
  3
AcMeServices
 90
        0
280
     0
281
     0
  0
CLASS
  1
ACMESTATEMGR
  2
AcMeStateMgr
  3
AcMeServices
 90
        0
280
     0
281
     0
  0
CLASS
  1
ACGREFMASTER
  2
AcGrefMaster
  3
AcAttribServices
 90
        0
280
     0
281
     0
  0
CLASS
  1
ACME_DATABASE
  2
AcMeDbDatabase
  3
AcMeServices
 90
        0
280
     0
281
     0
  0
CLASS
  1
ACRFINSADJUSTERMGR
  2
AcRfInsAdjusterMgr
  3
AcMeServices
 90
        0
280
     0
281
     0
  0
CLASS
  1
ACGREFACADMASTER
  2
AcGrefacadMaster
  3
AcGrefServices
 90
        0
280
     0
281
     0
  0
CLASS
  1
AMIMASTER
  2
AmiMaster
  3
AmiServices
 90
        0
280
     0
281
     0
  0
CLASS
  1
ACMDATADICTIONARY
  2
AcmDataDictionary
  3
"AcmSymBB|Product Description: AutoCAD Mechanical 2004 DX|Company: Autodesk"
 90
        0
280
     0
281
     0
  0
CLASS
  1
ACMDATAENTRYBLOCK
  2
AcmDataEntryBlock
  3
"AcmSymBB|Product Description: AutoCAD Mechanical 2004 DX|Company: Autodesk"
 90
        0
280
     0
281
     0
  0
CLASS
  1
ACIMSTRSYSVAR
  2
AcImStrSysVar
  3
AcMeServices
 90
        0
280
     0
281
     0
  0
CLASS
  1
ACMSTANDARDISO
  2
AcmStandardISO
  3
"Amdt_StdImp|Product Description: AutoCAD Mechanical 2004 DX|Company: Autodesk"
 90
        0
280
     0
281
     0
  0
CLASS
  1
AMGOBJPROPCFG
  2
AmgObjPropCfg
  3
"AmgLay|Product Description: AutoCAD Mechanical 2000|Company: Autodesk"
 90
        1
280
     0
281
     0
  0
CLASS
  1
AMDTEDGESTANDARDISO
  2
AmdtEdgeStdISO
  3
"Amdt_StdImp|Product Description: AutoCAD Mechanical 2004 DX|Company: Autodesk"
 90
        0
280
     0
281
     0
  0
CLASS
  1
ACMSURFSTANDARDISO
  2
AcmSurfTextStdISO
  3
"Amdt_StdImp|Product Description: AutoCAD Mechanical 2004 DX|Company: Autodesk"
 90
        0
280
     0
281
     0
  0
CLASS
  1
ACMFCFSTANDARDISO
  2
AcmFCFStdISO
  3
"Amdt_StdImp|Product Description: AutoCAD Mechanical 2004 DX|Company: Autodesk"
 90
        0
280
     0
281
     0
  0
CLASS
  1
ACMWELDSTANDARDISO
  2
AcmWeldingStdISO
  3
"Amdt_StdImp|Product Description: AutoCAD Mechanical 2004 DX|Company: Autodesk"
 90
        0
280
     0
281
     0
  0
CLASS
  1
ACMIDSTANDARDISO
  2
AcmIdStdISO
  3
"Amdt_StdImp|Product Description: AutoCAD Mechanical 2004 DX|Company: Autodesk"
 90
        0
280
     0
281
     0
  0
CLASS
  1
ACMDATUMSTANDARDISO
  2
AcmDatumStdISO
  3
"Amdt_StdImp|Product Description: AutoCAD Mechanical 2004 DX|Company: Autodesk"
 90
        0
280
     0
281
     0
  0
CLASS
  1
ACMBOMSTANDARDISO
  2
AcmBOMStdISO
  3
"Amdt_StdImp|Product Description: AutoCAD Mechanical 2004 DX|Company: Autodesk"
 90
        0
280
     0
281
     0
  0
CLASS
  1
ACMDETAILSTANDARDISO
  2
AmdtDetailSymStdISO
  3
"Amdt_StdImp|Product Description: AutoCAD Mechanical 2004 DX|Company: Autodesk"
 90
        0
280
     0
281
     0
  0
CLASS
  1
ACMSECTIONSTANDARDISO
  2
AmdtSectionSymStdISO
  3
"Amdt_StdImp|Product Description: AutoCAD Mechanical 2004 DX|Company: Autodesk"
 90
        0
280
     0
281
     0
  0
CLASS
  1
ACMCENTERLINESTANDARDISO
  2
AmdtCenterLineStdISO
  3
"Amdt_StdImp|Product Description: AutoCAD Mechanical 2004 DX|Company: Autodesk"
 90
        0
280
     0
281
     0
  0
CLASS
  1
ACMNOTESTANDARDISO
  2
AmdtNoteStdISO
  3
"Amdt_StdImp|Product Description: AutoCAD Mechanical 2004 DX|Company: Autodesk"
 90
        0
280
     0
281
     0
  0
CLASS
  1
ACAMGLAYSTD
  2
AcAmgLayStd
  3
"AcAmgLayStd|Product Description: AutoCAD Mechanical 2000|Company: Autodesk"
 90
        0
280
     0
281
     0
  0
CLASS
  1
ACAMGDIMSTD
  2
AcAmgDimStd
  3
"AcAmgDimStd|Product Description: AutoCAD Mechanical 2000|Company: Autodesk"
 90
        0
280
     0
281
     0
  0
CLASS
  1
ACAMGHOLECHARTSTDISO
  2
AcAmgHoleChartStdISO
  3
ACMSYMBB_MODULE_NAME
 90
        0
280
     0
281
     0
  0
CLASS
  1
ACAMGTITLESTD
  2
AcAmgTitleStd
  3
"TITLEAPP"
 90
        0
280
     0
281
     0
  0
CLASS
  1
LAYER_INDEX
  2
AcDbLayerIndex
  3
ObjectDBX Classes
 90
    32768
280
     0
281
     0
  0
CLASS
  1
IDBUFFER
  2
AcDbIdBuffer
  3
ObjectDBX Classes
 90
    32768
280
     0
281
     0
  0
CLASS
  1
DICTIONARYVAR
  2
AcDbDictionaryVar
  3
ObjectDBX Classes
 90
        0
280
     0
281
     0
  0
CLASS
  1
AM_DRAWING_MGR
  2
AcDmDwgMgr
  3
AcMechDwgViewMgmt
 90
        0
280
     0
281
     0
  0
CLASS
  1
AM_DWG_DOCUMENT
  2
AcDmDwgDocument
  3
AcMechDwgViewMgmt
 90
        0
280
     0
281
     0
  0
CLASS
  1
AM_DWG_SHEET
  2
AcDmSheet
  3
AcMechDwgViewMgmt
 90
        0
280
     0
281
     0
  0
CLASS
  1
AM_VIEWDIMPARMAP
  2
AcDmViewDimParMap
  3
AcMechDwgViewMgmt
 90
        0
280
     0
281
     0
  0
CLASS
  1
AM_DWGMGR_NAME
  2
AcDmDwgMgrName
  3
AcMechDwgViewMgmt
 90
        0
280
     0
281
     0
  0
CLASS
  1
AMDTMENUSTATEMGR
  2
AmdtMenuStateMgr
  3
McadcomServices
 90
        0
280
     0
281
     0
  0
CLASS
  1
AMDTMCOMMENUSTATE
  2
AmdtMcomMenuState
  3
McadcomServices
 90
        0
280
     0
281
     0
  0
CLASS
  1
MAPIAMMOUDLE
  2
MApiAmModule
  3
MApiAmServices
 90
        0
280
     0
281
     0
  0
CLASS
  1
AMDTADMENUSTATE
  2
AmdtAdMenuState
  3
DesignerServices
 90
        0
280
     0
281
     0
  0
CLASS
  1
ADAPPL
  2
AcAdAppl
  3
DesignerServices
 90
        0
280
     0
281
     0
  0
CLASS
  1
DEPMGR
  2
AcAdDepMgr
  3
DesignerServices
 90
        0
280
     0
281
     0
  0
CLASS
  1
PARAMMGR
  2
AcAdParamMgr
  3
DesignerServices
 90
        0
280
     0
281
     0
  0
CLASS
  1
PARAMSCOPE
  2
AcAdParamScope
  3
DesignerServices
 90
        0
280
     0
281
     0
  0
CLASS
  1
NAMEDAPPL
  2
AcAdNamedAppl
  3
DesignerServices
 90
        0
280
     0
281
     0
  0
CLASS
  1
AMDTDMMENUSTATE
  2
AmdtDmMenuState
  3
AcMechDwgViewMgmt
 90
        0
280
     0
281
     0
  0
CLASS
  1
AMDTAMMENUSTATE
  2
AmdtAmMenuState
  3
DesignerAssemblies
 90
        0
280
     0
281
     0
  0
CLASS
  1
ACAMPROJECT
  2
AcAmProject
  3
DesignerAssemblies
 90
        0
280
     0
281
     0
  0
CLASS
  1
ACAMGRCOMPDEF
  2
AcAmGrCompDef
  3
DesignerAssemblies
 90
        0
280
     0
281
     0
  0
CLASS
  1
ACCMCONTEXT
  2
AcCmContext
  3
DesignerAssemblies
 90
        0
280
     0
281
     0
  0
CLASS
  1
ACAMCOMPDEF
  2
AcAmCompDef
  3
DesignerAssemblies
 90
        0
280
     0
281
     0
  0
CLASS
  1
ACAMCOMPDEFMGR
  2
AcAmCompDefMgr
  3
DesignerAssemblies
 90
        0
280
     0
281
     0
  0
CLASS
  1
AMCONTEXTMGR
  2
AcAmContextMgr
  3
DesignerAssemblies
 90
        0
280
     0
281
     0
  0
CLASS
  1
ACAMCONTEXTMODELER
  2
AcAmContextModeler
  3
DesignerAssemblies
 90
        0
280
     0
281
     0
  0
CLASS
  1
ACMTHREADLINESTANDARDISO
  2
AmdtThreadLineStdISO
  3
"Amdt_StdImp|Product Description: AutoCAD Mechanical 2004 DX|Company: Autodesk"
 90
        0
280
     0
281
     0
  0
CLASS
  1
CATALOGSTATE
  2
AcAmCatalogState
  3
DesignerAssemblies
 90
        0
280
     0
281
     0
  0
CLASS
  1
ACAMGRCOMPDEFSET
  2
AcAmGrCompDefSet
  3
DesignerAssemblies
 90
        0
280
     0
281
     0
  0
CLASS
  1
AMDTBROWSERDBTAB
  2
AmdtBrowserDbTab
  3
McadcomServices
 90
        0
280
     0
281
     0
  0
CLASS
  1
CBROWSERAPPOBJECT
  2
CBrowserAppObject
  3
McadcomServices
 90
        0
280
     0
281
     0
  0
CLASS
  1
DM_PLACEHOLDER
  2
AcDmSelsetPlaceholder
  3
AcMechDwgViewMgmt
 90
        0
280
     0
281
     0
  0
CLASS
  1
TABLESTYLE
  2
AcDbTableStyle
  3
ObjectDBX Classes
 90
     2047
280
     0
281
     0
  0
CLASS
  1
VAACXREFPANELOBJECT
  2
VaAcXREFPanelObject
  3
VAAC_ADDIN
 90
    32768
280
     0
281
     0
  0
CLASS
  1
VAACIMAGEINVENTORY
  2
VaAcImageInventory
  3
VAAC_ADDIN
 90
    32768
280
     0
281
     0
  0
CLASS
  1
AMDTNOTETEMPLATEDB
  2
AmdtNoteTemplateDB
  3
AMDT_STDIMP_MODULE_NAME
 90
        0
280
     0
281
     0
  0
CLASS
  1
ACMBOM
  2
AcmBom
  3
"AcmSymBB|Product Description: AutoCAD Mechanical 2004 DX|Company: Autodesk"
 90
    32768
280
     0
281
     0
  0
CLASS
  1
AMDTFORMULAUPDATEDISPATCHER
  2
AmdtFormulaUpdateDispatcher
  3
AcMeServices
 90
    32768
280
     0
281
     0
  0
CLASS
  1
ACMPARTLIST
  2
AcmPartList
  3
"AcmSymBB|Product Description: AutoCAD Mechanical 2004 DX|Company: Autodesk"
 90
    33791
280
     0
281
     1
  0
CLASS
  1
ACAMGFILTERDAT
  2
AcAmgFilterDat
  3
"AcadM|Product Description: AutoCAD Mechanical 2000|Company: Autodesk"
 90
        0
280
     0
281
     0
  0
CLASS
  1
DIMASSOC
  2
AcDbDimAssoc
  3
"AcDbDimAssoc|Product Desc:     AcDim ARX App For Dimension|Company:          Autodesk, Inc.|WEB Address:      www.autodesk.com"
 90
        0
280
     0
281
     0
  0
CLASS
  1
ACMSTANDARDANSI
  2
AcmStandardANSI
  3
"Amdt_StdImp|Product Description: AutoCAD Mechanical 2004 DX|Company: Autodesk"
 90
        0
280
     0
281
     0
  0
CLASS
  1
ACMSURFSTANDARDANSI
  2
AcmSurfTextStdANSI
  3
"Amdt_StdImp|Product Description: AutoCAD Mechanical 2004 DX|Company: Autodesk"
 90
        0
280
     0
281
     0
  0
CLASS
  1
ACMFCFSTANDARDANSI
  2
AcmFCFStdANSI
  3
"Amdt_StdImp|Product Description: AutoCAD Mechanical 2004 DX|Company: Autodesk"
 90
        0
280
     0
281
     0
  0
CLASS
  1
ACMWELDSTANDARDANSI
  2
AcmWeldingStdANSI
  3
"Amdt_StdImp|Product Description: AutoCAD Mechanical 2004 DX|Company: Autodesk"
 90
        0
280
     0
281
     0
  0
CLASS
  1
ACMIDSTANDARDANSI
  2
AcmIdStdANSI
  3
"Amdt_StdImp|Product Description: AutoCAD Mechanical 2004 DX|Company: Autodesk"
 90
        0
280
     0
281
     0
  0
CLASS
  1
ACMDATUMSTANDARDANSI
  2
AcmDatumStdANSI
  3
"Amdt_StdImp|Product Description: AutoCAD Mechanical 2004 DX|Company: Autodesk"
 90
        0
280
     0
281
     0
  0
CLASS
  1
ACMBOMSTANDARDANSI
  2
AcmBOMStdANSI
  3
"Amdt_StdImp|Product Description: AutoCAD Mechanical 2004 DX|Company: Autodesk"
 90
        0
280
     0
281
     0
  0
CLASS
  1
ACMDETAILSTANDARDANSI
  2
AmdtDetailSymStdANSI
  3
"Amdt_StdImp|Product Description: AutoCAD Mechanical 2004 DX|Company: Autodesk"
 90
        0
280
     0
281
     0
  0
CLASS
  1
ACMSECTIONSTANDARDANSI
  2
AmdtSectionSymStdANSI
  3
"Amdt_StdImp|Product Description: AutoCAD Mechanical 2004 DX|Company: Autodesk"
 90
        0
280
     0
281
     0
  0
CLASS
  1
ACMCENTERLINESTANDARDANSI
  2
AmdtCenterLineStdANSI
  3
"Amdt_StdImp|Product Description: AutoCAD Mechanical 2004 DX|Company: Autodesk"
 90
        0
280
     0
281
     0
  0
CLASS
  1
ACMTHREADLINESTANDARDANSI
  2
AmdtThreadLineStdANSI
  3
"Amdt_StdImp|Product Description: AutoCAD Mechanical 2004 DX|Company: Autodesk"
 90
        0
280
     0
281
     0
  0
CLASS
  1
ACMNOTESTANDARDANSI
  2
AmdtNoteStdANSI
  3
"Amdt_StdImp|Product Description: AutoCAD Mechanical 2004 DX|Company: Autodesk"
 90
        0
280
     0
281
     0
  0
CLASS
  1
ACAMGHOLECHARTSTDANSI
  2
AcAmgHoleChartStdANSI
  3
ACMSYMBB_MODULE_NAME
 90
        0
280
     0
281
     0
  0
CLASS
  1
SORTENTSTABLE
  2
AcDbSortentsTable
  3
ObjectDBX Classes
 90
        0
280
     0
281
     0
  0
CLASS
  1
ACRFATTGENMGR
  2
AcRfAttGeneralMgr
  3
AcAttribServices
 90
        0
280
     0
281
     0
  0
ENDSEC
  0
SECTION
  2
TABLES
  0
TABLE
  2
VPORT
  5
8
330
0
100
AcDbSymbolTable
 70
     3
  0
VPORT
  5
2D23
330
8
100
AcDbSymbolTableRecord
100
AcDbViewportTableRecord
  2
*Active
 70
     0
 10
0.0
 20
0.0
 11
1.0
 21
1.0
 12
2482.741738215004
 22
425.1294106330131
 13
0.0
 23
0.0
 14
2.5
 24
2.5
 15
10.0
 25
10.0
 16
0.0
 26
0.0
 36
1.0
 17
0.0
 27
0.0
 37
0.0
 40
809.0751950115667
 41
1.81766917293233
 42
50.0
 43
0.0
 44
0.0
 50
0.0
 51
0.0
 71
     0
 72
   100
 73
     1
 74
     3
 75
     0
 76
     0
 77
     0
 78
     0
281
     0
 65
     1
110
0.0
120
0.0
130
0.0
111
1.0
121
0.0
131
0.0
112
0.0
122
1.0
132
0.0
 79
     0
146
0.0
  0
ENDTAB
  0
TABLE
  2
LTYPE
  5
5
330
0
100
AcDbSymbolTable
 70
    16
  0
LTYPE
  5
14
330
5
100
AcDbSymbolTableRecord
100
AcDbLinetypeTableRecord
  2
ByBlock
 70
     0
  3

 72
    65
 73
     0
 40
0.0
  0
LTYPE
  5
15
330
5
100
AcDbSymbolTableRecord
100
AcDbLinetypeTableRecord
  2
ByLayer
 70
     0
  3

 72
    65
 73
     0
 40
0.0
  0
LTYPE
  5
16
330
5
100
AcDbSymbolTableRecord
100
AcDbLinetypeTableRecord
  2
Continuous
 70
     0
  3
Solid line
 72
    65
 73
     0
 40
0.0
  0
LTYPE
  5
64
330
5
100
AcDbSymbolTableRecord
100
AcDbLinetypeTableRecord
  2
AM_ISO02W050
 70
     0
  3
__ __ __ __ __ __ __ __ __ __ __ __ __ __ __
 72
    65
 73
     2
 40
7.5
 49
6.0
 74
     0
 49
-1.5
 74
     0
  0
LTYPE
  5
65
330
5
100
AcDbSymbolTableRecord
100
AcDbLinetypeTableRecord
  2
AM_ISO08W050
 70
     0
  3
____ . ____ . ____ . ____ . ____ . ____ . ____
 72
    65
 73
     4
 40
18.0
 49
12.0
 74
     0
 49
-1.5
 74
     0
 49
3.0
 74
     0
 49
-1.5
 74
     0
  0
LTYPE
  5
66
330
5
100
AcDbSymbolTableRecord
100
AcDbLinetypeTableRecord
  2
AM_ISO09W050
 70
     0
  3
_____ . . _____ . . _____ . . ____ .. ____
 72
    65
 73
     6
 40
22.5
 49
12.0
 74
     0
 49
-1.5
 74
     0
 49
3.0
 74
     0
 49
-1.5
 74
     0
 49
3.0
 74
     0
 49
-1.5
 74
     0
  0
LTYPE
  5
67
330
5
100
AcDbSymbolTableRecord
100
AcDbLinetypeTableRecord
  2
Amconstr
 70
     0
  3
_______________________
 72
    65
 73
     2
 40
9999.0
 49
9999.0
 74
     0
 49
0.0
 74
     0
  0
LTYPE
  5
68
330
5
100
AcDbSymbolTableRecord
100
AcDbLinetypeTableRecord
  2
AM_ISO08W050x2
 70
     0
  3
__ . __ . __ . __ . __ . __
 72
    65
 73
     4
 40
9.0
 49
6.0
 74
     0
 49
-0.75
 74
     0
 49
1.5
 74
     0
 49
-0.75
 74
     0
  0
LTYPE
  5
69
330
5
100
AcDbSymbolTableRecord
100
AcDbLinetypeTableRecord
  2
AM_ISO02W050x2
 70
     0
  3
 _ _ _ _ _ _ _ _ _ _ _ _
 72
    65
 73
     2
 40
3.75
 49
3.0
 74
     0
 49
-0.75
 74
     0
  0
LTYPE
  5
6C
330
5
100
AcDbSymbolTableRecord
100
AcDbLinetypeTableRecord
  2
Amzigzag
 70
     0
  3
/\/-/\/-/\/-/\/-/\/-/\/
 72
    65
 73
     2
 40
11.0001
 49
0.0001
 74
     4
 75
   135
340
6B
 46
0.04
 50
0.0
 44
0.0
 45
0.0
 49
-11.0
 74
     0
  0
LTYPE
  5
7A
330
5
100
AcDbSymbolTableRecord
100
AcDbLinetypeTableRecord
  2
ACISOWELD
 70
     0
  3
_ _ _ _ _
 72
    65
 73
     2
 40
2.0
 49
2.0
 74
     0
 49
-1.0
 74
     0
  0
LTYPE
  5
7B
330
5
100
AcDbSymbolTableRecord
100
AcDbLinetypeTableRecord
  2
ACISOTGB
 70
     0
  3
__ . . __ . .
 72
    65
 73
     6
 40
9.0
 49
4.0
 74
     0
 49
-1.0
 74
     0
 49
1.0
 74
     0
 49
-1.0
 74
     0
 49
1.0
 74
     0
 49
-1.0
 74
     0
  0
LTYPE
  5
7C
330
5
100
AcDbSymbolTableRecord
100
AcDbLinetypeTableRecord
  2
ACISOTGL
 70
     0
  3
_ _ _ _ _
 72
    65
 73
     2
 40
3.0
 49
2.0
 74
     0
 49
-1.0
 74
     0
  0
LTYPE
  5
7E
330
5
100
AcDbSymbolTableRecord
100
AcDbLinetypeTableRecord
  2
CENTER
 70
     0
  3
__ . __
 72
    65
 73
     4
 40
7.0
 49
4.0
 74
     0
 49
-1.0
 74
     0
 49
1.0
 74
     0
 49
-1.0
 74
     0
  0
LTYPE
  5
D8
330
5
100
AcDbSymbolTableRecord
100
AcDbLinetypeTableRecord
  2
HIDDEN
 70
     0
  3
Hidden __ __ __ __ __ __ __ __ __ __ __ __ __ _
 72
    65
 73
     2
 40
9.524999999999998
 49
6.349999999999999
 74
     0
 49
-3.174999999999999
 74
     0
  0
LTYPE
  5
D9
330
5
100
AcDbSymbolTableRecord
100
AcDbLinetypeTableRecord
  2
PHANTOM2
 70
     0
  3
Phantom (.5x) ___ _ _ ___ _ _ ___ _ _ ___ _ _
 72
    65
 73
     6
 40
31.75
 49
15.875
 74
     0
 49
-3.174999999999999
 74
     0
 49
3.174999999999999
 74
     0
 49
-3.174999999999999
 74
     0
 49
3.174999999999999
 74
     0
 49
-3.174999999999999
 74
     0
  0
LTYPE
  5
7F5
330
5
100
AcDbSymbolTableRecord
100
AcDbLinetypeTableRecord
  2
ACANSTGB
 70
     0
  3
__ . . __ . .
 72
    65
 73
     6
 40
0.35433070866
 49
0.15748031496
 74
     0
 49
-0.03937007874
 74
     0
 49
0.03937007874
 74
     0
 49
-0.03937007874
 74
     0
 49
0.03937007874
 74
     0
 49
-0.03937007874
 74
     0
  0
LTYPE
  5
7F6
330
5
100
AcDbSymbolTableRecord
100
AcDbLinetypeTableRecord
  2
ACANSTGL
 70
     0
  3
_ _ _ _ _
 72
    65
 73
     2
 40
0.11811023622
 49
0.07874015748
 74
     0
 49
-0.03937007874
 74
     0
  0
ENDTAB
  0
TABLE
  2
LAYER
  5
2
102
{ACAD_XDICTIONARY
360
3F9
102
}
330
0
100
AcDbSymbolTable
 70
     5
  0
LAYER
  5
10
330
2
100
AcDbSymbolTableRecord
100
AcDbLayerTableRecord
  2
0
 70
     0
 62
     7
  6
Continuous
370
    -3
390
F
  0
LAYER
  5
8B2
330
2
100
AcDbSymbolTableRecord
100
AcDbLayerTableRecord
  2
AM_7
 70
     0
 62
     1
  6
CENTER
370
    25
390
F
  0
LAYER
  5
1083
330
2
100
AcDbSymbolTableRecord
100
AcDbLayerTableRecord
  2
AM_5
 70
     0
 62
     5
  6
Continuous
370
    50
390
F
  0
LAYER
  5
1093
330
2
100
AcDbSymbolTableRecord
100
AcDbLayerTableRecord
  2
Defpoints
 70
     0
 62
     7
  6
Continuous
290
     0
370
    -3
390
F
  0
LAYER
  5
1560
330
2
100
AcDbSymbolTableRecord
100
AcDbLayerTableRecord
  2
LOGO
 70
     0
 62
     7
  6
Continuous
370
    -3
390
F
  0
ENDTAB
  0
TABLE
  2
STYLE
  5
3
330
0
100
AcDbSymbolTable
 70
     9
  0
STYLE
  5
11
330
3
100
AcDbSymbolTableRecord
100
AcDbTextStyleTableRecord
  2
STANDARD
 70
     0
 40
0.0
 41
1.0
 50
0.0
 71
     0
 42
3.0
  3
ISOCP.SHX
  4
CHINESET.SHX
  0
STYLE
  5
6B
330
3
100
AcDbSymbolTableRecord
100
AcDbTextStyleTableRecord
  2

 70
     1
 40
0.0
 41
1.0
 50
0.0
 71
     0
 42
2.5
  3
ltypeshp.shx
  4

  0
STYLE
  5
6D
330
3
100
AcDbSymbolTableRecord
100
AcDbTextStyleTableRecord
  2
ACISOTS
 70
     0
 40
1.0
 41
1.0
 50
0.0
 71
     0
 42
1.0
  3
isocp.shx
  4
chineset.shx
  0
STYLE
  5
79
330
3
100
AcDbSymbolTableRecord
100
AcDbTextStyleTableRecord
  2
ACISOGDT
 70
     0
 40
0.0
 41
1.0
 50
0.0
 71
     0
 42
2.5
  3
amgdt.shx
  4
chineset.shx
  0
STYLE
  5
60C
330
3
100
AcDbSymbolTableRecord
100
AcDbTextStyleTableRecord
  2
CHINESET
 70
     0
 40
0.0
 41
0.75
 50
0.0
 71
     0
 42
3.0
  3
simplex.shx
  4
CHINESET.SHX
  0
STYLE
  5
7F9
330
3
100
AcDbSymbolTableRecord
100
AcDbTextStyleTableRecord
  2
ACANSTS
 70
     0
 40
1.0
 41
1.0
 50
0.0
 71
     0
 42
5.84703234913793
  3
romans.shx
  4
chineset.shx
  0
STYLE
  5
7FA
330
3
100
AcDbSymbolTableRecord
100
AcDbTextStyleTableRecord
  2
ACANSGDT
 70
     0
 40
0.0
 41
1.0
 50
0.0
 71
     0
 42
5.84703234913793
  3
amgdtans.shx
  4

  0
STYLE
  5
1C35
330
3
100
AcDbSymbolTableRecord
100
AcDbTextStyleTableRecord
  2
123
 70
     0
 40
0.0
 41
1.0
 50
0.0
 71
     0
 42
3.0
  3
TXT
  4

  0
ENDTAB
  0
TABLE
  2
VIEW
  5
6
330
0
100
AcDbSymbolTable
 70
     0
  0
ENDTAB
  0
TABLE
  2
UCS
  5
7
330
0
100
AcDbSymbolTable
 70
     0
  0
ENDTAB
  0
TABLE
  2
APPID
  5
9
330
0
100
AcDbSymbolTable
 70
    19
  0
APPID
  5
12
330
9
100
AcDbSymbolTableRecord
100
AcDbRegAppTableRecord
  2
ACAD
 70
     0
  0
APPID
  5
46
330
9
100
AcDbSymbolTableRecord
100
AcDbRegAppTableRecord
  2
MCAD_NO_VIS
 70
     0
  0
APPID
  5
47
330
9
100
AcDbSymbolTableRecord
100
AcDbRegAppTableRecord
  2
ACAD_TEMP_GRAPHIC
 70
     0
  0
APPID
  5
58
330
9
100
AcDbSymbolTableRecord
100
AcDbRegAppTableRecord
  2
ACATTRIBSERVICES
 70
     0
  0
APPID
  5
EE
330
9
100
AcDbSymbolTableRecord
100
AcDbRegAppTableRecord
  2
AD_DRAW
 70
     0
  0
APPID
  5
10C
330
9
100
AcDbSymbolTableRecord
100
AcDbRegAppTableRecord
  2
DESIGNERASSEMBLIES
 70
     0
  0
APPID
  5
111
330
9
100
AcDbSymbolTableRecord
100
AcDbRegAppTableRecord
  2
ACADM_DIM_EDIT
 70
     0
  0
APPID
  5
112
330
9
100
AcDbSymbolTableRecord
100
AcDbRegAppTableRecord
  2
AMDT_DM_ADJ
 70
     0
  0
APPID
  5
22C
330
9
100
AcDbSymbolTableRecord
100
AcDbRegAppTableRecord
  2
ACAD_DSTYLE_DIMTEXT_FILL
 70
     0
  0
APPID
  5
452
330
9
100
AcDbSymbolTableRecord
100
AcDbRegAppTableRecord
  2
GENIUS_GENOENT_13
 70
     0
  0
APPID
  5
453
330
9
100
AcDbSymbolTableRecord
100
AcDbRegAppTableRecord
  2
GENIUS_GENOBJ-N-CRS_13
 70
     0
  0
APPID
  5
454
330
9
100
AcDbSymbolTableRecord
100
AcDbRegAppTableRecord
  2
GENIUS_GENOLIS_13
 70
     0
  0
APPID
  5
455
330
9
100
AcDbSymbolTableRecord
100
AcDbRegAppTableRecord
  2
GENIUS_GENODEF_13
 70
     0
  0
APPID
  5
456
330
9
100
AcDbSymbolTableRecord
100
AcDbRegAppTableRecord
  2
GENIUS_GENOREF_13
 70
     0
  0
APPID
  5
6F3
330
9
100
AcDbSymbolTableRecord
100
AcDbRegAppTableRecord
  2
ACAD_PSEXT
 70
     0
  0
APPID
  5
8B4
330
9
100
AcDbSymbolTableRecord
100
AcDbRegAppTableRecord
  2
GENIUS_GENOBJ-N-CEN_13
 70
     0
  0
APPID
  5
8B5
330
9
100
AcDbSymbolTableRecord
100
AcDbRegAppTableRecord
  2
GENIUS_GENCEN_19
 70
     0
  0
APPID
  5
1561
330
9
100
AcDbSymbolTableRecord
100
AcDbRegAppTableRecord
  2
GENIUS_GENREC_14
 70
     0
  0
APPID
  5
1562
330
9
100
AcDbSymbolTableRecord
100
AcDbRegAppTableRecord
  2
GENIUS_GENOBJ-N-REC_13
 70
     0
  0
ENDTAB
  0
TABLE
  2
DIMSTYLE
  5
A
330
0
100
AcDbSymbolTable
 70
    15
100
AcDbDimStyleTable
 71
     3
340
81
340
8B
340
86
  0
DIMSTYLE
105
81
330
A
100
AcDbSymbolTableRecord
100
AcDbDimStyleTableRecord
  2
AM_ISO
 70
     0
  4
"
 41
3.0
 42
1.0
 43
10.0
 44
1.5
 47
0.1
 48
0.1
 73
     0
 74
     0
 77
     1
 78
     8
 79
     2
140
3.0
141
0.0
143
0.0393701
146
0.71
147
1.0
172
     1
176
   256
177
   256
178
   256
271
     2
272
     2
283
     0
284
     8
340
60C
371
    -1
372
    -1
  0
DIMSTYLE
105
82
330
A
100
AcDbSymbolTableRecord
100
AcDbDimStyleTableRecord
  2
AM_ISO$3
 70
     0
  4
"
 41
3.0
 42
1.0
 43
10.0
 44
1.5
 47
0.1
 48
0.1
 73
     0
 77
     1
 78
     8
 79
     2
140
3.0
141
0.0
143
0.0393701
146
0.71
147
1.0
176
   256
177
   256
178
   256
271
     2
272
     2
283
     0
284
     8
288
     1
289
     0
340
60C
371
    -1
372
    -1
  0
DIMSTYLE
105
83
330
A
100
AcDbSymbolTableRecord
100
AcDbDimStyleTableRecord
  2
AM_ISO$4
 70
     0
  4
"
 41
3.0
 42
1.0
 43
10.0
 44
1.5
 47
0.1
 48
0.1
 73
     0
 77
     1
 78
     8
 79
     2
140
3.0
141
0.0
143
0.0393701
146
0.71
147
1.0
176
   256
177
   256
178
   256
271
     2
272
     2
283
     0
284
     8
288
     1
289
     0
340
60C
371
    -1
372
    -1
  0
DIMSTYLE
105
84
330
A
100
AcDbSymbolTableRecord
100
AcDbDimStyleTableRecord
  2
AM_ISO$6
 70
     0
  4
"
 41
3.0
 42
1.0
 43
10.0
 44
1.5
 47
0.1
 48
0.1
 73
     0
 74
     0
 78
     8
 79
     2
140
3.0
141
0.0
143
0.0393701
146
0.71
147
1.0
172
     1
176
   256
177
   256
178
   256
271
     2
272
     2
283
     0
284
     8
340
60C
371
    -1
372
    -1
  0
DIMSTYLE
105
85
330
A
100
AcDbSymbolTableRecord
100
AcDbDimStyleTableRecord
  2
AM_ISO$7
 70
     0
  4
"
 41
3.0
 42
1.0
 43
10.0
 44
1.5
 47
0.1
 48
0.1
 73
     0
 74
     0
 77
     1
 78
     8
 79
     2
140
5.0
141
0.0
143
0.0393701
146
0.71
147
1.0
172
     1
176
   256
177
   256
178
   256
271
     2
272
     2
283
     0
284
     8
340
60C
371
    -1
372
    -1
  0
DIMSTYLE
105
86
330
A
100
AcDbSymbolTableRecord
100
AcDbDimStyleTableRecord
  2
AM_ISO$SF
 70
     0
  4
"
 41
2.5
 42
1.0
 43
10.0
 44
1.0
 47
0.1
 48
0.1
 73
     0
 74
     0
 75
     1
 76
     1
 77
     1
 78
     8
 79
     2
140
3.5
141
0.0
143
0.0393701
146
0.71
147
1.5
172
     1
176
   256
177
   256
178
     2
271
     2
272
     3
274
     4
283
     0
284
     8
340
11
371
    -1
372
    -1
  0
DIMSTYLE
105
8B
330
A
100
AcDbSymbolTableRecord
100
AcDbDimStyleTableRecord
  2
AM_ISO$SH
 70
     0
  4
"
 41
2.5
 42
1.0
 43
10.0
 44
1.0
 47
0.1
 48
0.1
 73
     0
 74
     0
 75
     1
 76
     1
 77
     1
 78
     8
 79
     2
140
3.5
141
0.0
143
0.0393701
144
2.0
146
0.71
147
1.5
172
     1
173
     1
176
   256
177
   256
178
     2
271
     2
272
     3
274
     4
283
     0
284
     8
340
11
343
87
371
    -1
372
    -1
  0
DIMSTYLE
105
40B
102
{ACAD_REACTORS
330
1D8A
330
1D8D
330
1D90
330
1D93
330
1D96
330
1D99
330
1EB7
330
1EDD
330
2030
330
2031
330
2032
330
2033
330
20B5
330
20B6
330
20B7
330
20BA
330
2247
330
2248
330
2249
330
224C
330
22E2
330
22E3
330
22E4
330
22E5
330
247B
330
247C
330
247D
330
247E
330
252A
330
252B
330
252C
330
252D
330
26D0
330
26D1
330
26D2
330
26D3
330
2768
330
2769
330
276A
330
276B
330
292B
330
292C
330
292D
330
296D
330
2983
330
2984
330
29AF
330
29B0
330
2AC1
330
2ADC
330
2AEB
330
2C2C
330
2C99
330
2CD8
102
}
330
A
100
AcDbSymbolTableRecord
100
AcDbDimStyleTableRecord
  2
AM_ISO$0
 70
     0
  4
"
 41
3.0
 42
1.0
 43
10.0
 44
1.5
 47
0.1
 48
0.1
 73
     0
 74
     0
 77
     1
 78
     8
 79
     2
140
3.0
141
0.0
143
0.0393701
146
0.71
147
1.0
172
     1
176
   256
177
   256
178
   256
271
     2
272
     2
283
     0
284
     8
340
60C
371
    -1
372
    -1
  0
DIMSTYLE
105
7FC
330
A
100
AcDbSymbolTableRecord
100
AcDbDimStyleTableRecord
  2
AM_ANSI
 70
     0
  4
mm
 41
0.1
 42
0.05
 43
0.5
 44
0.1
 47
0.1
 48
0.1
 78
     7
 79
     2
140
0.12
141
0.0
146
0.71
147
0.06
176
   256
177
   256
178
     2
274
     4
284
     7
340
11
371
    -1
372
    -1
  0
DIMSTYLE
105
7FD
330
A
100
AcDbSymbolTableRecord
100
AcDbDimStyleTableRecord
  2
AM_ANSI$3
 70
     0
  4
mm
 41
0.1
 42
0.05
 43
0.5
 44
0.1
 47
0.1
 48
0.1
 78
     7
 79
     2
140
0.12
141
0.0
146
0.71
147
0.06
176
   256
177
   256
178
     2
274
     4
284
     7
288
     1
289
     0
340
11
371
    -1
372
    -1
  0
DIMSTYLE
105
7FE
330
A
100
AcDbSymbolTableRecord
100
AcDbDimStyleTableRecord
  2
AM_ANSI$4
 70
     0
  4
mm
 41
0.1
 42
0.05
 43
0.5
 44
0.1
 47
0.1
 48
0.1
 78
     7
 79
     2
140
0.12
141
0.0
146
0.71
147
0.06
176
   256
177
   256
178
     2
274
     4
284
     7
288
     1
289
     0
340
11
371
    -1
372
    -1
  0
DIMSTYLE
105
7FF
330
A
100
AcDbSymbolTableRecord
100
AcDbDimStyleTableRecord
  2
AM_ANSI$7
 70
     0
  4
mm
 41
0.1
 42
0.05
 43
0.5
 44
0.1
 47
0.1
 48
0.1
 78
     7
 79
     2
140
0.24
141
0.0
146
0.71
147
0.06
176
   256
177
   256
178
     2
274
     4
284
     7
340
11
371
    -1
372
    -1
  0
DIMSTYLE
105
800
330
A
100
AcDbSymbolTableRecord
100
AcDbDimStyleTableRecord
  2
AM_ANSI$SF
 70
     0
  4
mm
 41
0.1
 42
0.05
 43
0.5
 44
0.1
 47
0.1
 48
0.1
 75
     1
 76
     1
 78
     7
 79
     2
140
0.12
141
0.0
146
0.71
147
0.06
176
   256
177
   256
178
     2
274
     4
284
     7
340
11
371
    -1
372
    -1
  0
DIMSTYLE
105
801
330
A
100
AcDbSymbolTableRecord
100
AcDbDimStyleTableRecord
  2
AM_ANSI$SH
 70
     0
  4
mm
 41
0.1
 42
0.05
 43
0.5
 44
0.1
 47
0.1
 48
0.1
 75
     1
 76
     1
 78
     7
 79
     2
140
0.12
141
0.0
146
0.71
147
0.06
173
     1
176
   256
177
   256
178
     2
274
     4
284
     7
340
11
343
87
371
    -1
372
    -1
  0
ENDTAB
  0
TABLE
  2
BLOCK_RECORD
  5
1
330
0
100
AcDbSymbolTable
 70
    58
  0
BLOCK_RECORD
  5
1F
102
{ACAD_XDICTIONARY
360
8F
102
}
330
1
100
AcDbSymbolTableRecord
100
AcDbBlockTableRecord
  2
*Model_Space
340
22
  0
BLOCK_RECORD
  5
1B
330
1
100
AcDbSymbolTableRecord
100
AcDbBlockTableRecord
  2
*Paper_Space
340
1E
  0
BLOCK_RECORD
  5
23
330
1
100
AcDbSymbolTableRecord
100
AcDbBlockTableRecord
  2
*Paper_Space0
340
26
  0
BLOCK_RECORD
  5
87
330
1
100
AcDbSymbolTableRecord
100
AcDbBlockTableRecord
  2
GENAXEH
340
0
  0
BLOCK_RECORD
  5
1D9C
330
1
100
AcDbSymbolTableRecord
100
AcDbBlockTableRecord
  2
*D3
340
0
  0
BLOCK_RECORD
  5
1DA8
330
1
100
AcDbSymbolTableRecord
100
AcDbBlockTableRecord
  2
*D4
340
0
  0
BLOCK_RECORD
  5
1DB4
330
1
100
AcDbSymbolTableRecord
100
AcDbBlockTableRecord
  2
*D5
340
0
  0
BLOCK_RECORD
  5
1DC0
330
1
100
AcDbSymbolTableRecord
100
AcDbBlockTableRecord
  2
*D6
340
0
  0
BLOCK_RECORD
  5
1DCC
330
1
100
AcDbSymbolTableRecord
100
AcDbBlockTableRecord
  2
*D7
340
0
  0
BLOCK_RECORD
  5
1DD8
330
1
100
AcDbSymbolTableRecord
100
AcDbBlockTableRecord
  2
*D8
340
0
  0
BLOCK_RECORD
  5
1EB8
330
1
100
AcDbSymbolTableRecord
100
AcDbBlockTableRecord
  2
*D9
340
0
  0
BLOCK_RECORD
  5
1EDE
330
1
100
AcDbSymbolTableRecord
100
AcDbBlockTableRecord
  2
*D10
340
0
  0
BLOCK_RECORD
  5
2034
330
1
100
AcDbSymbolTableRecord
100
AcDbBlockTableRecord
  2
*D11
340
0
  0
BLOCK_RECORD
  5
2040
330
1
100
AcDbSymbolTableRecord
100
AcDbBlockTableRecord
  2
*D12
340
0
  0
BLOCK_RECORD
  5
204C
330
1
100
AcDbSymbolTableRecord
100
AcDbBlockTableRecord
  2
*D13
340
0
  0
BLOCK_RECORD
  5
2058
330
1
100
AcDbSymbolTableRecord
100
AcDbBlockTableRecord
  2
*D14
340
0
  0
BLOCK_RECORD
  5
20BD
330
1
100
AcDbSymbolTableRecord
100
AcDbBlockTableRecord
  2
*D15
340
0
  0
BLOCK_RECORD
  5
20C9
330
1
100
AcDbSymbolTableRecord
100
AcDbBlockTableRecord
  2
*D16
340
0
  0
BLOCK_RECORD
  5
20E7
330
1
100
AcDbSymbolTableRecord
100
AcDbBlockTableRecord
  2
*D17
340
0
  0
BLOCK_RECORD
  5
20F3
330
1
100
AcDbSymbolTableRecord
100
AcDbBlockTableRecord
  2
*D18
340
0
  0
BLOCK_RECORD
  5
224F
330
1
100
AcDbSymbolTableRecord
100
AcDbBlockTableRecord
  2
*D19
340
0
  0
BLOCK_RECORD
  5
225B
330
1
100
AcDbSymbolTableRecord
100
AcDbBlockTableRecord
  2
*D20
340
0
  0
BLOCK_RECORD
  5
2279
330
1
100
AcDbSymbolTableRecord
100
AcDbBlockTableRecord
  2
*D21
340
0
  0
BLOCK_RECORD
  5
2285
330
1
100
AcDbSymbolTableRecord
100
AcDbBlockTableRecord
  2
*D22
340
0
  0
BLOCK_RECORD
  5
22E6
330
1
100
AcDbSymbolTableRecord
100
AcDbBlockTableRecord
  2
*D23
340
0
  0
BLOCK_RECORD
  5
22F2
330
1
100
AcDbSymbolTableRecord
100
AcDbBlockTableRecord
  2
*D24
340
0
  0
BLOCK_RECORD
  5
22FE
330
1
100
AcDbSymbolTableRecord
100
AcDbBlockTableRecord
  2
*D25
340
0
  0
BLOCK_RECORD
  5
230A
330
1
100
AcDbSymbolTableRecord
100
AcDbBlockTableRecord
  2
*D26
340
0
  0
BLOCK_RECORD
  5
247F
330
1
100
AcDbSymbolTableRecord
100
AcDbBlockTableRecord
  2
*D27
340
0
  0
BLOCK_RECORD
  5
248B
330
1
100
AcDbSymbolTableRecord
100
AcDbBlockTableRecord
  2
*D28
340
0
  0
BLOCK_RECORD
  5
2497
330
1
100
AcDbSymbolTableRecord
100
AcDbBlockTableRecord
  2
*D29
340
0
  0
BLOCK_RECORD
  5
24A3
330
1
100
AcDbSymbolTableRecord
100
AcDbBlockTableRecord
  2
*D30
340
0
  0
BLOCK_RECORD
  5
252E
330
1
100
AcDbSymbolTableRecord
100
AcDbBlockTableRecord
  2
*D31
340
0
  0
BLOCK_RECORD
  5
253A
330
1
100
AcDbSymbolTableRecord
100
AcDbBlockTableRecord
  2
*D32
340
0
  0
BLOCK_RECORD
  5
2546
330
1
100
AcDbSymbolTableRecord
100
AcDbBlockTableRecord
  2
*D33
340
0
  0
BLOCK_RECORD
  5
2552
330
1
100
AcDbSymbolTableRecord
100
AcDbBlockTableRecord
  2
*D34
340
0
  0
BLOCK_RECORD
  5
26D4
330
1
100
AcDbSymbolTableRecord
100
AcDbBlockTableRecord
  2
*D35
340
0
  0
BLOCK_RECORD
  5
26E0
330
1
100
AcDbSymbolTableRecord
100
AcDbBlockTableRecord
  2
*D36
340
0
  0
BLOCK_RECORD
  5
26EC
330
1
100
AcDbSymbolTableRecord
100
AcDbBlockTableRecord
  2
*D37
340
0
  0
BLOCK_RECORD
  5
26F8
330
1
100
AcDbSymbolTableRecord
100
AcDbBlockTableRecord
  2
*D38
340
0
  0
BLOCK_RECORD
  5
276C
330
1
100
AcDbSymbolTableRecord
100
AcDbBlockTableRecord
  2
*D39
340
0
  0
BLOCK_RECORD
  5
2778
330
1
100
AcDbSymbolTableRecord
100
AcDbBlockTableRecord
  2
*D40
340
0
  0
BLOCK_RECORD
  5
2784
330
1
100
AcDbSymbolTableRecord
100
AcDbBlockTableRecord
  2
*D41
340
0
  0
BLOCK_RECORD
  5
2790
330
1
100
AcDbSymbolTableRecord
100
AcDbBlockTableRecord
  2
*D42
340
0
  0
BLOCK_RECORD
  5
292E
330
1
100
AcDbSymbolTableRecord
100
AcDbBlockTableRecord
  2
*D43
340
0
  0
BLOCK_RECORD
  5
293A
330
1
100
AcDbSymbolTableRecord
100
AcDbBlockTableRecord
  2
*D44
340
0
  0
BLOCK_RECORD
  5
2946
330
1
100
AcDbSymbolTableRecord
100
AcDbBlockTableRecord
  2
*D45
340
0
  0
BLOCK_RECORD
  5
296E
330
1
100
AcDbSymbolTableRecord
100
AcDbBlockTableRecord
  2
*D46
340
0
  0
BLOCK_RECORD
  5
2985
330
1
100
AcDbSymbolTableRecord
100
AcDbBlockTableRecord
  2
*D47
340
0
  0
BLOCK_RECORD
  5
2991
330
1
100
AcDbSymbolTableRecord
100
AcDbBlockTableRecord
  2
*D48
340
0
  0
BLOCK_RECORD
  5
29B1
330
1
100
AcDbSymbolTableRecord
100
AcDbBlockTableRecord
  2
*D49
340
0
  0
BLOCK_RECORD
  5
29BD
330
1
100
AcDbSymbolTableRecord
100
AcDbBlockTableRecord
  2
*D50
340
0
  0
BLOCK_RECORD
  5
2AC2
330
1
100
AcDbSymbolTableRecord
100
AcDbBlockTableRecord
  2
*D51
340
0
  0
BLOCK_RECORD
  5
2ADF
330
1
100
AcDbSymbolTableRecord
100
AcDbBlockTableRecord
  2
*D52
340
0
  0
BLOCK_RECORD
  5
2AEE
330
1
100
AcDbSymbolTableRecord
100
AcDbBlockTableRecord
  2
*D53
340
0
  0
BLOCK_RECORD
  5
2C2D
330
1
100
AcDbSymbolTableRecord
100
AcDbBlockTableRecord
  2
*D54
340
0
  0
BLOCK_RECORD
  5
2C9A
330
1
100
AcDbSymbolTableRecord
100
AcDbBlockTableRecord
  2
*D55
340
0
  0
BLOCK_RECORD
  5
2CDB
330
1
100
AcDbSymbolTableRecord
100
AcDbBlockTableRecord
  2
*D56
340
0
  0
ENDTAB
  0
ENDSEC
  0
SECTION
  2
BLOCKS
  0
BLOCK
  5
20
330
1F
100
AcDbEntity
  8
0
100
AcDbBlockBegin
  2
*Model_Space
 70
     0
 10
0.0
 20
0.0
 30
0.0
  3
*Model_Space
  1

  0
ENDBLK
  5
21
330
1F
100
AcDbEntity
  8
0
100
AcDbBlockEnd
  0
BLOCK
  5
1C
330
1B
100
AcDbEntity
 67
     1
  8
0
100
AcDbBlockBegin
  2
*Paper_Space
 70
     0
 10
0.0
 20
0.0
 30
0.0
  3
*Paper_Space
  1

  0
ENDBLK
  5
1D
330
1B
100
AcDbEntity
 67
     1
  8
0
100
AcDbBlockEnd
  0
BLOCK
  5
24
330
23
100
AcDbEntity
  8
0
100
AcDbBlockBegin
  2
*Paper_Space0
 70
     0
 10
0.0
 20
0.0
 30
0.0
  3
*Paper_Space0
  1

  0
ENDBLK
  5
25
330
23
100
AcDbEntity
  8
0
100
AcDbBlockEnd
  0
BLOCK
  5
89
330
87
100
AcDbEntity
  8
0
100
AcDbBlockBegin
  2
GENAXEH
 70
     0
 10
0.0
 20
0.0
 30
0.0
  3
GENAXEH
  1

  0
LINE
  5
88
330
87
100
AcDbEntity
  8
0
100
AcDbLine
 10
-1.0
 20
0.0
 30
0.0
 11
1.0
 21
0.0
 31
0.0
  0
ENDBLK
  5
8A
330
87
100
AcDbEntity
  8
0
100
AcDbBlockEnd
  0
BLOCK
  5
1DA6
330
1D9C
100
AcDbEntity
  8
0
100
AcDbBlockBegin
  2
*D3
 70
     1
 10
0.0
 20
0.0
 30
0.0
  3
*D3
  1

  0
LINE
  5
1EF8
330
1D9C
100
AcDbEntity
  8
AM_5
100
AcDbLine
 10
2132.954650588994
 20
699.9947647914766
 30
0.0
 11
2174.371318514503
 21
699.9947647914766
 31
0.0
  0
LINE
  5
1EF9
330
1D9C
100
AcDbEntity
  8
AM_5
100
AcDbLine
 10
2132.954650588994
 20
745.9947647914766
 30
0.0
 11
2174.371318514503
 21
745.9947647914766
 31
0.0
  0
LINE
  5
1EFA
330
1D9C
100
AcDbEntity
  8
AM_5
100
AcDbLine
 10
2172.871318514503
 20
702.9947647914767
 30
0.0
 11
2172.871318514503
 21
742.9947647914766
 31
0.0
  0
SOLID
  5
1EFB
330
1D9C
100
AcDbEntity
  8
AM_5
100
AcDbTrace
 10
2172.371318514503
 20
702.9947647914767
 30
0.0
 11
2173.371318514503
 21
702.9947647914767
 31
0.0
 12
2172.871318514503
 22
699.9947647914766
 32
0.0
 13
2172.871318514503
 23
699.9947647914766
 33
0.0
  0
SOLID
  5
1EFC
330
1D9C
100
AcDbEntity
  8
AM_5
100
AcDbTrace
 10
2172.371318514503
 20
742.9947647914766
 30
0.0
 11
2173.371318514503
 21
742.9947647914766
 31
0.0
 12
2172.871318514503
 22
745.9947647914766
 32
0.0
 13
2172.871318514503
 23
745.9947647914766
 33
0.0
  0
MTEXT
  5
1EFD
330
1D9C
100
AcDbEntity
  8
AM_5
100
AcDbMText
 10
2170.371318514503
 20
722.9947647914769
 30
0.0
 40
3.0
 41
0.0
 71
     5
 72
     1
  1
46
  7
CHINESET
 11
0.0000000000000001
 21
1.0
 31
0.0
 73
     1
 44
1.0
1001
ACAD
1000
MTEXTBEGIN
1070
    73
1070
     1
1070
    44
1040
1.0
1070
    74
1070
     0
1000
MTEXTEND
  0
POINT
  5
1EFE
330
1D9C
100
AcDbEntity
  8
Defpoints
 62
     0
100
AcDbPoint
 10
2131.954650588994
 20
699.9947647914766
 30
0.0
  0
POINT
  5
1EFF
330
1D9C
100
AcDbEntity
  8
Defpoints
 62
     0
100
AcDbPoint
 10
2131.954650588994
 20
745.9947647914766
 30
0.0
  0
POINT
  5
1F00
330
1D9C
100
AcDbEntity
  8
Defpoints
 62
     0
100
AcDbPoint
 10
2172.871318514503
 20
745.9947647914766
 30
0.0
  0
ENDBLK
  5
1DA7
330
1D9C
100
AcDbEntity
  8
0
100
AcDbBlockEnd
  0
BLOCK
  5
1DB2
330
1DA8
100
AcDbEntity
  8
0
100
AcDbBlockBegin
  2
*D4
 70
     1
 10
0.0
 20
0.0
 30
0.0
  3
*D4
  1

  0
LINE
  5
1F01
330
1DA8
100
AcDbEntity
  8
AM_5
100
AcDbLine
 10
2132.204650588993
 20
707.9947647914766
 30
0.0
 11
2164.371318514503
 21
707.9947647914766
 31
0.0
  0
LINE
  5
1F02
330
1DA8
100
AcDbEntity
  8
AM_5
100
AcDbLine
 10
2132.204650588993
 20
737.9947647914766
 30
0.0
 11
2164.371318514503
 21
737.9947647914766
 31
0.0
  0
LINE
  5
1F03
330
1DA8
100
AcDbEntity
  8
AM_5
100
AcDbLine
 10
2162.871318514503
 20
710.9947647914766
 30
0.0
 11
2162.871318514503
 21
734.9947647914766
 31
0.0
  0
SOLID
  5
1F04
330
1DA8
100
AcDbEntity
  8
AM_5
100
AcDbTrace
 10
2162.371318514503
 20
710.9947647914766
 30
0.0
 11
2163.371318514503
 21
710.9947647914766
 31
0.0
 12
2162.871318514503
 22
707.9947647914766
 32
0.0
 13
2162.871318514503
 23
707.9947647914766
 33
0.0
  0
SOLID
  5
1F05
330
1DA8
100
AcDbEntity
  8
AM_5
100
AcDbTrace
 10
2162.371318514503
 20
734.9947647914766
 30
0.0
 11
2163.371318514503
 21
734.9947647914766
 31
0.0
 12
2162.871318514503
 22
737.9947647914766
 32
0.0
 13
2162.871318514503
 23
737.9947647914766
 33
0.0
  0
MTEXT
  5
1F06
330
1DA8
100
AcDbEntity
  8
AM_5
100
AcDbMText
 10
2160.371318514503
 20
722.9947647914769
 30
0.0
 40
3.0
 41
0.0
 71
     5
 72
     1
  1
30
  7
CHINESET
 11
0.0000000000000001
 21
1.0
 31
0.0
 73
     1
 44
1.0
1001
ACAD
1000
MTEXTBEGIN
1070
    73
1070
     1
1070
    44
1040
1.0
1070
    74
1070
     0
1000
MTEXTEND
  0
POINT
  5
1F07
330
1DA8
100
AcDbEntity
  8
Defpoints
 62
     0
100
AcDbPoint
 10
2131.204650588994
 20
707.9947647914766
 30
0.0
  0
POINT
  5
1F08
330
1DA8
100
AcDbEntity
  8
Defpoints
 62
     0
100
AcDbPoint
 10
2131.204650588994
 20
737.9947647914766
 30
0.0
  0
POINT
  5
1F09
330
1DA8
100
AcDbEntity
  8
Defpoints
 62
     0
100
AcDbPoint
 10
2162.871318514503
 20
737.9947647914766
 30
0.0
  0
ENDBLK
  5
1DB3
330
1DA8
100
AcDbEntity
  8
0
100
AcDbBlockEnd
  0
BLOCK
  5
1DBE
330
1DB4
100
AcDbEntity
  8
0
100
AcDbBlockBegin
  2
*D5
 70
     1
 10
0.0
 20
0.0
 30
0.0
  3
*D5
  1

  0
LINE
  5
20AC
330
1DB4
100
AcDbEntity
  8
AM_5
100
AcDbLine
 10
2133.912984551749
 20
508.9561227128467
 30
0.0
 11
2164.371318514503
 21
508.9561227128467
 31
0.0
  0
LINE
  5
20AD
330
1DB4
100
AcDbEntity
  8
AM_5
100
AcDbLine
 10
2123.371318514503
 20
606.9561227128467
 30
0.0
 11
2164.371318514503
 21
606.9561227128467
 31
0.0
  0
LINE
  5
20AE
330
1DB4
100
AcDbEntity
  8
AM_5
100
AcDbLine
 10
2162.871318514503
 20
511.9561227128468
 30
0.0
 11
2162.871318514503
 21
603.9561227128467
 31
0.0
  0
SOLID
  5
20AF
330
1DB4
100
AcDbEntity
  8
AM_5
100
AcDbTrace
 10
2162.371318514503
 20
511.9561227128468
 30
0.0
 11
2163.371318514503
 21
511.9561227128468
 31
0.0
 12
2162.871318514503
 22
508.9561227128467
 32
0.0
 13
2162.871318514503
 23
508.9561227128467
 33
0.0
  0
SOLID
  5
20B0
330
1DB4
100
AcDbEntity
  8
AM_5
100
AcDbTrace
 10
2162.371318514503
 20
603.9561227128467
 30
0.0
 11
2163.371318514503
 21
603.9561227128467
 31
0.0
 12
2162.871318514503
 22
606.9561227128467
 32
0.0
 13
2162.871318514503
 23
606.9561227128467
 33
0.0
  0
MTEXT
  5
20B1
330
1DB4
100
AcDbEntity
  8
AM_5
100
AcDbMText
 10
2160.371318514503
 20
557.9561227128471
 30
0.0
 40
3.0
 41
0.0
 71
     5
 72
     1
  1
98
  7
CHINESET
 11
0.0000000000000001
 21
1.0
 31
0.0
 73
     1
 44
1.0
1001
ACAD
1000
MTEXTBEGIN
1070
    73
1070
     1
1070
    44
1040
1.0
1070
    74
1070
     0
1000
MTEXTEND
  0
POINT
  5
20B2
330
1DB4
100
AcDbEntity
  8
Defpoints
 62
     0
100
AcDbPoint
 10
2132.912984551748
 20
508.9561227128467
 30
0.0
  0
POINT
  5
20B3
330
1DB4
100
AcDbEntity
  8
Defpoints
 62
     0
100
AcDbPoint
 10
2122.371318514503
 20
606.9561227128467
 30
0.0
  0
POINT
  5
20B4
330
1DB4
100
AcDbEntity
  8
Defpoints
 62
     0
100
AcDbPoint
 10
2162.871318514503
 20
606.9561227128467
 30
0.0
  0
ENDBLK
  5
1DBF
330
1DB4
100
AcDbEntity
  8
0
100
AcDbBlockEnd
  0
BLOCK
  5
1DCA
330
1DC0
100
AcDbEntity
  8
0
100
AcDbBlockBegin
  2
*D6
 70
     1
 10
0.0
 20
0.0
 30
0.0
  3
*D6
  1

  0
LINE
  5
1E8C
330
1DC0
100
AcDbEntity
  8
AM_5
100
AcDbLine
 10
2133.912984551749
 20
508.9561227128467
 30
0.0
 11
2174.371318514503
 21
508.9561227128467
 31
0.0
  0
LINE
  5
1E8D
330
1DC0
100
AcDbEntity
  8
AM_5
100
AcDbLine
 10
2150.871318514503
 20
635.9561227128467
 30
0.0
 11
2174.371318514503
 21
635.9561227128467
 31
0.0
  0
LINE
  5
1E8E
330
1DC0
100
AcDbEntity
  8
AM_5
100
AcDbLine
 10
2172.871318514503
 20
511.9561227128468
 30
0.0
 11
2172.871318514503
 21
632.9561227128468
 31
0.0
  0
SOLID
  5
1E8F
330
1DC0
100
AcDbEntity
  8
AM_5
100
AcDbTrace
 10
2172.371318514503
 20
511.9561227128468
 30
0.0
 11
2173.371318514503
 21
511.9561227128468
 31
0.0
 12
2172.871318514503
 22
508.9561227128467
 32
0.0
 13
2172.871318514503
 23
508.9561227128467
 33
0.0
  0
SOLID
  5
1E90
330
1DC0
100
AcDbEntity
  8
AM_5
100
AcDbTrace
 10
2172.371318514503
 20
632.9561227128468
 30
0.0
 11
2173.371318514503
 21
632.9561227128468
 31
0.0
 12
2172.871318514503
 22
635.9561227128467
 32
0.0
 13
2172.871318514503
 23
635.9561227128467
 33
0.0
  0
MTEXT
  5
1E91
330
1DC0
100
AcDbEntity
  8
AM_5
100
AcDbMText
 10
2170.371318514503
 20
572.4561227128471
 30
0.0
 40
3.0
 41
0.0
 71
     5
 72
     1
  1
127
  7
CHINESET
 11
0.0000000000000001
 21
1.0
 31
0.0
 73
     1
 44
1.0
1001
ACAD
1000
MTEXTBEGIN
1070
    73
1070
     1
1070
    44
1040
1.0
1070
    74
1070
     0
1000
MTEXTEND
  0
POINT
  5
1E92
330
1DC0
100
AcDbEntity
  8
Defpoints
 62
     0
100
AcDbPoint
 10
2132.912984551748
 20
508.9561227128467
 30
0.0
  0
POINT
  5
1E93
330
1DC0
100
AcDbEntity
  8
Defpoints
 62
     0
100
AcDbPoint
 10
2149.871318514503
 20
635.9561227128467
 30
0.0
  0
POINT
  5
1E94
330
1DC0
100
AcDbEntity
  8
Defpoints
 62
     0
100
AcDbPoint
 10
2172.871318514503
 20
635.9561227128467
 30
0.0
  0
ENDBLK
  5
1DCB
330
1DC0
100
AcDbEntity
  8
0
100
AcDbBlockEnd
  0
BLOCK
  5
1DD6
330
1DCC
100
AcDbEntity
  8
0
100
AcDbBlockBegin
  2
*D7
 70
     1
 10
0.0
 20
0.0
 30
0.0
  3
*D7
  1

  0
LINE
  5
1E95
330
1DCC
100
AcDbEntity
  8
AM_5
100
AcDbLine
 10
2067.912984551748
 20
526.9561227128467
 30
0.0
 11
2055.412983551748
 21
526.9561227128467
 31
0.0
  0
LINE
  5
1E96
330
1DCC
100
AcDbEntity
  8
AM_5
100
AcDbLine
 10
2067.912984551748
 20
508.9561227128467
 30
0.0
 11
2055.412983551748
 21
508.9561227128467
 31
0.0
  0
LINE
  5
1E97
330
1DCC
100
AcDbEntity
  8
AM_5
100
AcDbLine
 10
2056.912983551749
 20
523.9561227128468
 30
0.0
 11
2056.912983551749
 21
511.9561227128468
 31
0.0
  0
SOLID
  5
1E98
330
1DCC
100
AcDbEntity
  8
AM_5
100
AcDbTrace
 10
2056.412983551748
 20
523.9561227128468
 30
0.0
 11
2057.412983551748
 21
523.9561227128468
 31
0.0
 12
2056.912983551749
 22
526.9561227128467
 32
0.0
 13
2056.912983551749
 23
526.9561227128467
 33
0.0
  0
SOLID
  5
1E99
330
1DCC
100
AcDbEntity
  8
AM_5
100
AcDbTrace
 10
2056.412983551748
 20
511.9561227128468
 30
0.0
 11
2057.412983551748
 21
511.9561227128468
 31
0.0
 12
2056.912983551749
 22
508.9561227128467
 32
0.0
 13
2056.912983551749
 23
508.9561227128467
 33
0.0
  0
MTEXT
  5
1E9A
330
1DCC
100
AcDbEntity
  8
AM_5
100
AcDbMText
 10
2054.412983551749
 20
517.9561227128471
 30
0.0
 40
3.0
 41
0.0
 71
     5
 72
     1
  1
18
  7
CHINESET
 11
0.0000000000000001
 21
1.0
 31
0.0
 73
     1
 44
1.0
1001
ACAD
1000
MTEXTBEGIN
1070
    73
1070
     1
1070
    44
1040
1.0
1070
    74
1070
     0
1000
MTEXTEND
  0
POINT
  5
1E9B
330
1DCC
100
AcDbEntity
  8
Defpoints
 62
     0
100
AcDbPoint
 10
2068.912984551748
 20
526.9561227128467
 30
0.0
  0
POINT
  5
1E9C
330
1DCC
100
AcDbEntity
  8
Defpoints
 62
     0
100
AcDbPoint
 10
2068.912984551748
 20
508.9561227128467
 30
0.0
  0
POINT
  5
1E9D
330
1DCC
100
AcDbEntity
  8
Defpoints
 62
     0
100
AcDbPoint
 10
2056.912983551749
 20
508.9561227128467
 30
0.0
  0
ENDBLK
  5
1DD7
330
1DCC
100
AcDbEntity
  8
0
100
AcDbBlockEnd
  0
BLOCK
  5
1DE2
330
1DD8
100
AcDbEntity
  8
0
100
AcDbBlockBegin
  2
*D8
 70
     1
 10
0.0
 20
0.0
 30
0.0
  3
*D8
  1

  0
LINE
  5
1E9E
330
1DD8
100
AcDbEntity
  8
AM_5
100
AcDbLine
 10
2150.871318514503
 20
654.9561227128467
 30
0.0
 11
2174.371318514503
 21
654.9561227128467
 31
0.0
  0
LINE
  5
1E9F
330
1DD8
100
AcDbEntity
  8
AM_5
100
AcDbLine
 10
2150.871318514503
 20
635.9561227128467
 30
0.0
 11
2174.371318514503
 21
635.9561227128467
 31
0.0
  0
LINE
  5
1EA0
330
1DD8
100
AcDbEntity
  8
AM_5
100
AcDbLine
 10
2172.871318514503
 20
651.9561227128467
 30
0.0
 11
2172.871318514503
 21
638.9561227128467
 31
0.0
  0
SOLID
  5
1EA1
330
1DD8
100
AcDbEntity
  8
AM_5
100
AcDbTrace
 10
2172.371318514503
 20
651.9561227128467
 30
0.0
 11
2173.371318514503
 21
651.9561227128467
 31
0.0
 12
2172.871318514503
 22
654.9561227128467
 32
0.0
 13
2172.871318514503
 23
654.9561227128467
 33
0.0
  0
SOLID
  5
1EA2
330
1DD8
100
AcDbEntity
  8
AM_5
100
AcDbTrace
 10
2172.371318514503
 20
638.9561227128467
 30
0.0
 11
2173.371318514503
 21
638.9561227128467
 31
0.0
 12
2172.871318514503
 22
635.9561227128467
 32
0.0
 13
2172.871318514503
 23
635.9561227128467
 33
0.0
  0
MTEXT
  5
1EA3
330
1DD8
100
AcDbEntity
  8
AM_5
100
AcDbMText
 10
2170.371318514503
 20
645.4561227128471
 30
0.0
 40
3.0
 41
0.0
 71
     5
 72
     1
  1
19
  7
CHINESET
 11
0.0000000000000001
 21
1.0
 31
0.0
 73
     1
 44
1.0
1001
ACAD
1000
MTEXTBEGIN
1070
    73
1070
     1
1070
    44
1040
1.0
1070
    74
1070
     0
1000
MTEXTEND
  0
POINT
  5
1EA4
330
1DD8
100
AcDbEntity
  8
Defpoints
 62
     0
100
AcDbPoint
 10
2149.871318514503
 20
654.9561227128467
 30
0.0
  0
POINT
  5
1EA5
330
1DD8
100
AcDbEntity
  8
Defpoints
 62
     0
100
AcDbPoint
 10
2149.871318514503
 20
635.9561227128467
 30
0.0
  0
POINT
  5
1EA6
330
1DD8
100
AcDbEntity
  8
Defpoints
 62
     0
100
AcDbPoint
 10
2172.871318514503
 20
635.9561227128467
 30
0.0
  0
ENDBLK
  5
1DE3
330
1DD8
100
AcDbEntity
  8
0
100
AcDbBlockEnd
  0
BLOCK
  5
1EC2
330
1EB8
100
AcDbEntity
  8
0
100
AcDbBlockBegin
  2
*D9
 70
     1
 10
0.0
 20
0.0
 30
0.0
  3
*D9
  1

  0
LINE
  5
1F0A
330
1EB8
100
AcDbEntity
  8
AM_5
100
AcDbLine
 10
2075.912984551748
 20
701.7447647914766
 30
0.0
 11
2075.912984551748
 21
689.2447647914766
 31
0.0
  0
LINE
  5
1F0B
330
1EB8
100
AcDbEntity
  8
AM_5
100
AcDbLine
 10
2125.912984551748
 20
701.7447647914766
 30
0.0
 11
2125.912984551748
 21
689.2447647914766
 31
0.0
  0
LINE
  5
1F0C
330
1EB8
100
AcDbEntity
  8
AM_5
100
AcDbLine
 10
2078.912984551748
 20
690.7447647914766
 30
0.0
 11
2122.912984551748
 21
690.7447647914766
 31
0.0
  0
SOLID
  5
1F0D
330
1EB8
100
AcDbEntity
  8
AM_5
100
AcDbTrace
 10
2078.912984551748
 20
691.2447647914766
 30
0.0
 11
2078.912984551748
 21
690.2447647914766
 31
0.0
 12
2075.912984551748
 22
690.7447647914766
 32
0.0
 13
2075.912984551748
 23
690.7447647914766
 33
0.0
  0
SOLID
  5
1F0E
330
1EB8
100
AcDbEntity
  8
AM_5
100
AcDbTrace
 10
2122.912984551748
 20
691.2447647914766
 30
0.0
 11
2122.912984551748
 21
690.2447647914766
 31
0.0
 12
2125.912984551748
 22
690.7447647914766
 32
0.0
 13
2125.912984551748
 23
690.7447647914766
 33
0.0
  0
MTEXT
  5
1F0F
330
1EB8
100
AcDbEntity
  8
AM_5
100
AcDbMText
 10
2100.912984551748
 20
693.2447647914766
 30
0.0
 40
3.0
 41
0.0
 71
     5
 72
     1
  1
50
  7
CHINESET
 73
     1
 44
1.0
1001
ACAD
1000
MTEXTBEGIN
1070
    73
1070
     1
1070
    44
1040
1.0
1070
    74
1070
     0
1000
MTEXTEND
  0
POINT
  5
1F10
330
1EB8
100
AcDbEntity
  8
Defpoints
 62
     0
100
AcDbPoint
 10
2075.912984551748
 20
702.7447647914766
 30
0.0
  0
POINT
  5
1F11
330
1EB8
100
AcDbEntity
  8
Defpoints
 62
     0
100
AcDbPoint
 10
2125.912984551748
 20
702.7447647914766
 30
0.0
  0
POINT
  5
1F12
330
1EB8
100
AcDbEntity
  8
Defpoints
 62
     0
100
AcDbPoint
 10
2125.912984551748
 20
690.7447647914766
 30
0.0
  0
ENDBLK
  5
1EC3
330
1EB8
100
AcDbEntity
  8
0
100
AcDbBlockEnd
  0
BLOCK
  5
1EE8
330
1EDE
100
AcDbEntity
  8
0
100
AcDbBlockBegin
  2
*D10
 70
     1
 10
0.0
 20
0.0
 30
0.0
  3
*D10
  1

  0
LINE
  5
1F13
330
1EDE
100
AcDbEntity
  8
AM_5
100
AcDbLine
 10
2068.912984551748
 20
699.9947647914766
 30
0.0
 11
2068.912984551748
 21
679.2447647914752
 31
0.0
  0
LINE
  5
1F14
330
1EDE
100
AcDbEntity
  8
AM_5
100
AcDbLine
 10
2132.912984551748
 20
699.9947647914766
 30
0.0
 11
2132.912984551748
 21
679.2447647914752
 31
0.0
  0
LINE
  5
1F15
330
1EDE
100
AcDbEntity
  8
AM_5
100
AcDbLine
 10
2071.912984551748
 20
680.7447647914751
 30
0.0
 11
2129.912984551748
 21
680.7447647914751
 31
0.0
  0
SOLID
  5
1F16
330
1EDE
100
AcDbEntity
  8
AM_5
100
AcDbTrace
 10
2071.912984551748
 20
681.2447647914751
 30
0.0
 11
2071.912984551748
 21
680.2447647914751
 31
0.0
 12
2068.912984551748
 22
680.7447647914751
 32
0.0
 13
2068.912984551748
 23
680.7447647914751
 33
0.0
  0
SOLID
  5
1F17
330
1EDE
100
AcDbEntity
  8
AM_5
100
AcDbTrace
 10
2129.912984551748
 20
681.2447647914751
 30
0.0
 11
2129.912984551748
 21
680.2447647914751
 31
0.0
 12
2132.912984551748
 22
680.7447647914751
 32
0.0
 13
2132.912984551748
 23
680.7447647914751
 33
0.0
  0
MTEXT
  5
1F18
330
1EDE
100
AcDbEntity
  8
AM_5
100
AcDbMText
 10
2100.912984551748
 20
683.2447647914752
 30
0.0
 40
3.0
 41
0.0
 71
     5
 72
     1
  1
64
  7
CHINESET
 73
     1
 44
1.0
1001
ACAD
1000
MTEXTBEGIN
1070
    73
1070
     1
1070
    44
1040
1.0
1070
    74
1070
     0
1000
MTEXTEND
  0
POINT
  5
1F19
330
1EDE
100
AcDbEntity
  8
Defpoints
 62
     0
100
AcDbPoint
 10
2068.912984551748
 20
700.9947647914766
 30
0.0
  0
POINT
  5
1F1A
330
1EDE
100
AcDbEntity
  8
Defpoints
 62
     0
100
AcDbPoint
 10
2132.912984551748
 20
700.9947647914766
 30
0.0
  0
POINT
  5
1F1B
330
1EDE
100
AcDbEntity
  8
Defpoints
 62
     0
100
AcDbPoint
 10
2132.912984551748
 20
680.7447647914751
 30
0.0
  0
ENDBLK
  5
1EE9
330
1EDE
100
AcDbEntity
  8
0
100
AcDbBlockEnd
  0
BLOCK
  5
203E
330
2034
100
AcDbEntity
  8
0
100
AcDbBlockBegin
  2
*D11
 70
     1
 10
0.0
 20
0.0
 30
0.0
  3
*D11
  1

  0
LINE
  5
2B1E
330
2034
100
AcDbEntity
  8
AM_5
100
AcDbLine
 10
2133.954650588993
 20
131.9418999801224
 30
0.0
 11
2164.412984551749
 21
131.9418999801224
 31
0.0
  0
LINE
  5
2B1F
330
2034
100
AcDbEntity
  8
AM_5
100
AcDbLine
 10
2123.412984551748
 20
229.9418999801225
 30
0.0
 11
2164.412984551749
 21
229.9418999801225
 31
0.0
  0
LINE
  5
2B20
330
2034
100
AcDbEntity
  8
AM_5
100
AcDbLine
 10
2162.912984551748
 20
134.9418999801224
 30
0.0
 11
2162.912984551748
 21
226.9418999801224
 31
0.0
  0
SOLID
  5
2B21
330
2034
100
AcDbEntity
  8
AM_5
100
AcDbTrace
 10
2162.412984551748
 20
134.9418999801224
 30
0.0
 11
2163.412984551748
 21
134.9418999801224
 31
0.0
 12
2162.912984551748
 22
131.9418999801224
 32
0.0
 13
2162.912984551748
 23
131.9418999801224
 33
0.0
  0
SOLID
  5
2B22
330
2034
100
AcDbEntity
  8
AM_5
100
AcDbTrace
 10
2162.412984551748
 20
226.9418999801224
 30
0.0
 11
2163.412984551748
 21
226.9418999801224
 31
0.0
 12
2162.912984551748
 22
229.9418999801225
 32
0.0
 13
2162.912984551748
 23
229.9418999801225
 33
0.0
  0
MTEXT
  5
2B23
330
2034
100
AcDbEntity
  8
AM_5
100
AcDbMText
 10
2160.412984551749
 20
180.9418999801228
 30
0.0
 40
3.0
 41
0.0
 71
     5
 72
     1
  1
98
  7
CHINESET
 11
0.0000000000000001
 21
1.0
 31
0.0
 73
     1
 44
1.0
1001
ACAD
1000
MTEXTBEGIN
1070
    73
1070
     1
1070
    44
1040
1.0
1070
    74
1070
     0
1000
MTEXTEND
  0
POINT
  5
2B24
330
2034
100
AcDbEntity
  8
Defpoints
 62
     0
100
AcDbPoint
 10
2132.954650588994
 20
131.9418999801224
 30
0.0
  0
POINT
  5
2B25
330
2034
100
AcDbEntity
  8
Defpoints
 62
     0
100
AcDbPoint
 10
2122.412984551748
 20
229.9418999801225
 30
0.0
  0
POINT
  5
2B26
330
2034
100
AcDbEntity
  8
Defpoints
 62
     0
100
AcDbPoint
 10
2162.912984551748
 20
229.9418999801225
 30
0.0
  0
ENDBLK
  5
203F
330
2034
100
AcDbEntity
  8
0
100
AcDbBlockEnd
  0
BLOCK
  5
204A
330
2040
100
AcDbEntity
  8
0
100
AcDbBlockBegin
  2
*D12
 70
     1
 10
0.0
 20
0.0
 30
0.0
  3
*D12
  1

  0
LINE
  5
2B27
330
2040
100
AcDbEntity
  8
AM_5
100
AcDbLine
 10
2133.954650588993
 20
131.9418999801224
 30
0.0
 11
2174.412984551748
 21
131.9418999801224
 31
0.0
  0
LINE
  5
2B28
330
2040
100
AcDbEntity
  8
AM_5
100
AcDbLine
 10
2150.912984551748
 20
265.9418999801224
 30
0.0
 11
2174.412984551748
 21
265.9418999801224
 31
0.0
  0
LINE
  5
2B29
330
2040
100
AcDbEntity
  8
AM_5
100
AcDbLine
 10
2172.912984551748
 20
134.9418999801224
 30
0.0
 11
2172.912984551748
 21
262.9418999801225
 31
0.0
  0
SOLID
  5
2B2A
330
2040
100
AcDbEntity
  8
AM_5
100
AcDbTrace
 10
2172.412984551748
 20
134.9418999801224
 30
0.0
 11
2173.412984551748
 21
134.9418999801224
 31
0.0
 12
2172.912984551748
 22
131.9418999801224
 32
0.0
 13
2172.912984551748
 23
131.9418999801224
 33
0.0
  0
SOLID
  5
2B2B
330
2040
100
AcDbEntity
  8
AM_5
100
AcDbTrace
 10
2172.412984551748
 20
262.9418999801225
 30
0.0
 11
2173.412984551748
 21
262.9418999801225
 31
0.0
 12
2172.912984551748
 22
265.9418999801224
 32
0.0
 13
2172.912984551748
 23
265.9418999801224
 33
0.0
  0
MTEXT
  5
2B2C
330
2040
100
AcDbEntity
  8
AM_5
100
AcDbMText
 10
2170.412984551748
 20
198.9418999801227
 30
0.0
 40
3.0
 41
0.0
 71
     5
 72
     1
  1
134
  7
CHINESET
 11
0.0000000000000001
 21
1.0
 31
0.0
 73
     1
 44
1.0
1001
ACAD
1000
MTEXTBEGIN
1070
    73
1070
     1
1070
    44
1040
1.0
1070
    74
1070
     0
1000
MTEXTEND
  0
POINT
  5
2B2D
330
2040
100
AcDbEntity
  8
Defpoints
 62
     0
100
AcDbPoint
 10
2132.954650588994
 20
131.9418999801224
 30
0.0
  0
POINT
  5
2B2E
330
2040
100
AcDbEntity
  8
Defpoints
 62
     0
100
AcDbPoint
 10
2149.912984551749
 20
265.9418999801224
 30
0.0
  0
POINT
  5
2B2F
330
2040
100
AcDbEntity
  8
Defpoints
 62
     0
100
AcDbPoint
 10
2172.912984551748
 20
265.9418999801224
 30
0.0
  0
ENDBLK
  5
204B
330
2040
100
AcDbEntity
  8
0
100
AcDbBlockEnd
  0
BLOCK
  5
2056
330
204C
100
AcDbEntity
  8
0
100
AcDbBlockBegin
  2
*D13
 70
     1
 10
0.0
 20
0.0
 30
0.0
  3
*D13
  1

  0
LINE
  5
2B30
330
204C
100
AcDbEntity
  8
AM_5
100
AcDbLine
 10
2067.954650588994
 20
149.9418999801224
 30
0.0
 11
2055.454649588994
 21
149.9418999801224
 31
0.0
  0
LINE
  5
2B31
330
204C
100
AcDbEntity
  8
AM_5
100
AcDbLine
 10
2067.954650588994
 20
131.9418999801224
 30
0.0
 11
2055.454649588994
 21
131.9418999801224
 31
0.0
  0
LINE
  5
2B32
330
204C
100
AcDbEntity
  8
AM_5
100
AcDbLine
 10
2056.954649588993
 20
146.9418999801224
 30
0.0
 11
2056.954649588993
 21
134.9418999801224
 31
0.0
  0
SOLID
  5
2B33
330
204C
100
AcDbEntity
  8
AM_5
100
AcDbTrace
 10
2056.454649588994
 20
146.9418999801224
 30
0.0
 11
2057.454649588994
 21
146.9418999801224
 31
0.0
 12
2056.954649588993
 22
149.9418999801224
 32
0.0
 13
2056.954649588993
 23
149.9418999801224
 33
0.0
  0
SOLID
  5
2B34
330
204C
100
AcDbEntity
  8
AM_5
100
AcDbTrace
 10
2056.454649588994
 20
134.9418999801224
 30
0.0
 11
2057.454649588994
 21
134.9418999801224
 31
0.0
 12
2056.954649588993
 22
131.9418999801224
 32
0.0
 13
2056.954649588993
 23
131.9418999801224
 33
0.0
  0
MTEXT
  5
2B35
330
204C
100
AcDbEntity
  8
AM_5
100
AcDbMText
 10
2054.454649588993
 20
140.9418999801228
 30
0.0
 40
3.0
 41
0.0
 71
     5
 72
     1
  1
18
  7
CHINESET
 11
0.0000000000000001
 21
1.0
 31
0.0
 73
     1
 44
1.0
1001
ACAD
1000
MTEXTBEGIN
1070
    73
1070
     1
1070
    44
1040
1.0
1070
    74
1070
     0
1000
MTEXTEND
  0
POINT
  5
2B36
330
204C
100
AcDbEntity
  8
Defpoints
 62
     0
100
AcDbPoint
 10
2068.954650588993
 20
149.9418999801224
 30
0.0
  0
POINT
  5
2B37
330
204C
100
AcDbEntity
  8
Defpoints
 62
     0
100
AcDbPoint
 10
2068.954650588993
 20
131.9418999801224
 30
0.0
  0
POINT
  5
2B38
330
204C
100
AcDbEntity
  8
Defpoints
 62
     0
100
AcDbPoint
 10
2056.954649588993
 20
131.9418999801224
 30
0.0
  0
ENDBLK
  5
2057
330
204C
100
AcDbEntity
  8
0
100
AcDbBlockEnd
  0
BLOCK
  5
2062
330
2058
100
AcDbEntity
  8
0
100
AcDbBlockBegin
  2
*D14
 70
     1
 10
0.0
 20
0.0
 30
0.0
  3
*D14
  1

  0
LINE
  5
2B39
330
2058
100
AcDbEntity
  8
AM_5
100
AcDbLine
 10
2150.912984551748
 20
284.9418999801224
 30
0.0
 11
2174.412984551748
 21
284.9418999801224
 31
0.0
  0
LINE
  5
2B3A
330
2058
100
AcDbEntity
  8
AM_5
100
AcDbLine
 10
2150.912984551748
 20
265.9418999801224
 30
0.0
 11
2174.412984551748
 21
265.9418999801224
 31
0.0
  0
LINE
  5
2B3B
330
2058
100
AcDbEntity
  8
AM_5
100
AcDbLine
 10
2172.912984551748
 20
281.9418999801225
 30
0.0
 11
2172.912984551748
 21
268.9418999801225
 31
0.0
  0
SOLID
  5
2B3C
330
2058
100
AcDbEntity
  8
AM_5
100
AcDbTrace
 10
2172.412984551748
 20
281.9418999801225
 30
0.0
 11
2173.412984551748
 21
281.9418999801225
 31
0.0
 12
2172.912984551748
 22
284.9418999801224
 32
0.0
 13
2172.912984551748
 23
284.9418999801224
 33
0.0
  0
SOLID
  5
2B3D
330
2058
100
AcDbEntity
  8
AM_5
100
AcDbTrace
 10
2172.412984551748
 20
268.9418999801225
 30
0.0
 11
2173.412984551748
 21
268.9418999801225
 31
0.0
 12
2172.912984551748
 22
265.9418999801224
 32
0.0
 13
2172.912984551748
 23
265.9418999801224
 33
0.0
  0
MTEXT
  5
2B3E
330
2058
100
AcDbEntity
  8
AM_5
100
AcDbMText
 10
2170.412984551748
 20
275.4418999801228
 30
0.0
 40
3.0
 41
0.0
 71
     5
 72
     1
  1
19
  7
CHINESET
 11
0.0000000000000001
 21
1.0
 31
0.0
 73
     1
 44
1.0
1001
ACAD
1000
MTEXTBEGIN
1070
    73
1070
     1
1070
    44
1040
1.0
1070
    74
1070
     0
1000
MTEXTEND
  0
POINT
  5
2B3F
330
2058
100
AcDbEntity
  8
Defpoints
 62
     0
100
AcDbPoint
 10
2149.912984551749
 20
284.9418999801224
 30
0.0
  0
POINT
  5
2B40
330
2058
100
AcDbEntity
  8
Defpoints
 62
     0
100
AcDbPoint
 10
2149.912984551749
 20
265.9418999801224
 30
0.0
  0
POINT
  5
2B41
330
2058
100
AcDbEntity
  8
Defpoints
 62
     0
100
AcDbPoint
 10
2172.912984551748
 20
265.9418999801224
 30
0.0
  0
ENDBLK
  5
2063
330
2058
100
AcDbEntity
  8
0
100
AcDbBlockEnd
  0
BLOCK
  5
20C7
330
20BD
100
AcDbEntity
  8
0
100
AcDbBlockBegin
  2
*D15
 70
     1
 10
0.0
 20
0.0
 30
0.0
  3
*D15
  1

  0
LINE
  5
2B42
330
20BD
100
AcDbEntity
  8
AM_5
100
AcDbLine
 10
2132.996316626239
 20
327.6142782712192
 30
0.0
 11
2174.412984551748
 21
327.6142782712192
 31
0.0
  0
LINE
  5
2B43
330
20BD
100
AcDbEntity
  8
AM_5
100
AcDbLine
 10
2132.996316626239
 20
373.6142782712192
 30
0.0
 11
2174.412984551748
 21
373.6142782712192
 31
0.0
  0
LINE
  5
2B44
330
20BD
100
AcDbEntity
  8
AM_5
100
AcDbLine
 10
2172.912984551748
 20
330.6142782712192
 30
0.0
 11
2172.912984551748
 21
370.6142782712192
 31
0.0
  0
SOLID
  5
2B45
330
20BD
100
AcDbEntity
  8
AM_5
100
AcDbTrace
 10
2172.412984551748
 20
330.6142782712192
 30
0.0
 11
2173.412984551748
 21
330.6142782712192
 31
0.0
 12
2172.912984551748
 22
327.6142782712192
 32
0.0
 13
2172.912984551748
 23
327.6142782712192
 33
0.0
  0
SOLID
  5
2B46
330
20BD
100
AcDbEntity
  8
AM_5
100
AcDbTrace
 10
2172.412984551748
 20
370.6142782712192
 30
0.0
 11
2173.412984551748
 21
370.6142782712192
 31
0.0
 12
2172.912984551748
 22
373.6142782712192
 32
0.0
 13
2172.912984551748
 23
373.6142782712192
 33
0.0
  0
MTEXT
  5
2B47
330
20BD
100
AcDbEntity
  8
AM_5
100
AcDbMText
 10
2170.412984551748
 20
350.6142782712195
 30
0.0
 40
3.0
 41
0.0
 71
     5
 72
     1
  1
46
  7
CHINESET
 11
0.0000000000000001
 21
1.0
 31
0.0
 73
     1
 44
1.0
1001
ACAD
1000
MTEXTBEGIN
1070
    73
1070
     1
1070
    44
1040
1.0
1070
    74
1070
     0
1000
MTEXTEND
  0
POINT
  5
2B48
330
20BD
100
AcDbEntity
  8
Defpoints
 62
     0
100
AcDbPoint
 10
2131.996316626239
 20
327.6142782712192
 30
0.0
  0
POINT
  5
2B49
330
20BD
100
AcDbEntity
  8
Defpoints
 62
     0
100
AcDbPoint
 10
2131.996316626239
 20
373.6142782712192
 30
0.0
  0
POINT
  5
2B4A
330
20BD
100
AcDbEntity
  8
Defpoints
 62
     0
100
AcDbPoint
 10
2172.912984551748
 20
373.6142782712192
 30
0.0
  0
ENDBLK
  5
20C8
330
20BD
100
AcDbEntity
  8
0
100
AcDbBlockEnd
  0
BLOCK
  5
20D3
330
20C9
100
AcDbEntity
  8
0
100
AcDbBlockBegin
  2
*D16
 70
     1
 10
0.0
 20
0.0
 30
0.0
  3
*D16
  1

  0
LINE
  5
2B4B
330
20C9
100
AcDbEntity
  8
AM_5
100
AcDbLine
 10
2132.246316626239
 20
335.6142782712192
 30
0.0
 11
2164.412984551749
 21
335.6142782712192
 31
0.0
  0
LINE
  5
2B4C
330
20C9
100
AcDbEntity
  8
AM_5
100
AcDbLine
 10
2132.246316626239
 20
365.6142782712192
 30
0.0
 11
2164.412984551749
 21
365.6142782712192
 31
0.0
  0
LINE
  5
2B4D
330
20C9
100
AcDbEntity
  8
AM_5
100
AcDbLine
 10
2162.912984551748
 20
338.6142782712192
 30
0.0
 11
2162.912984551748
 21
362.6142782712192
 31
0.0
  0
SOLID
  5
2B4E
330
20C9
100
AcDbEntity
  8
AM_5
100
AcDbTrace
 10
2162.412984551748
 20
338.6142782712192
 30
0.0
 11
2163.412984551748
 21
338.6142782712192
 31
0.0
 12
2162.912984551748
 22
335.6142782712192
 32
0.0
 13
2162.912984551748
 23
335.6142782712192
 33
0.0
  0
SOLID
  5
2B4F
330
20C9
100
AcDbEntity
  8
AM_5
100
AcDbTrace
 10
2162.412984551748
 20
362.6142782712192
 30
0.0
 11
2163.412984551748
 21
362.6142782712192
 31
0.0
 12
2162.912984551748
 22
365.6142782712192
 32
0.0
 13
2162.912984551748
 23
365.6142782712192
 33
0.0
  0
MTEXT
  5
2B50
330
20C9
100
AcDbEntity
  8
AM_5
100
AcDbMText
 10
2160.412984551749
 20
350.6142782712195
 30
0.0
 40
3.0
 41
0.0
 71
     5
 72
     1
  1
30
  7
CHINESET
 11
0.0000000000000001
 21
1.0
 31
0.0
 73
     1
 44
1.0
1001
ACAD
1000
MTEXTBEGIN
1070
    73
1070
     1
1070
    44
1040
1.0
1070
    74
1070
     0
1000
MTEXTEND
  0
POINT
  5
2B51
330
20C9
100
AcDbEntity
  8
Defpoints
 62
     0
100
AcDbPoint
 10
2131.246316626238
 20
335.6142782712192
 30
0.0
  0
POINT
  5
2B52
330
20C9
100
AcDbEntity
  8
Defpoints
 62
     0
100
AcDbPoint
 10
2131.246316626238
 20
365.6142782712192
 30
0.0
  0
POINT
  5
2B53
330
20C9
100
AcDbEntity
  8
Defpoints
 62
     0
100
AcDbPoint
 10
2162.912984551748
 20
365.6142782712192
 30
0.0
  0
ENDBLK
  5
20D4
330
20C9
100
AcDbEntity
  8
0
100
AcDbBlockEnd
  0
BLOCK
  5
20F1
330
20E7
100
AcDbEntity
  8
0
100
AcDbBlockBegin
  2
*D17
 70
     1
 10
0.0
 20
0.0
 30
0.0
  3
*D17
  1

  0
LINE
  5
2B54
330
20E7
100
AcDbEntity
  8
AM_5
100
AcDbLine
 10
2075.954650588994
 20
329.3642782712192
 30
0.0
 11
2075.954650588994
 21
316.8642782712192
 31
0.0
  0
LINE
  5
2B55
330
20E7
100
AcDbEntity
  8
AM_5
100
AcDbLine
 10
2125.954650588994
 20
329.3642782712192
 30
0.0
 11
2125.954650588994
 21
316.8642782712192
 31
0.0
  0
LINE
  5
2B56
330
20E7
100
AcDbEntity
  8
AM_5
100
AcDbLine
 10
2078.954650588993
 20
318.3642782712192
 30
0.0
 11
2122.954650588994
 21
318.3642782712192
 31
0.0
  0
SOLID
  5
2B57
330
20E7
100
AcDbEntity
  8
AM_5
100
AcDbTrace
 10
2078.954650588993
 20
318.8642782712192
 30
0.0
 11
2078.954650588993
 21
317.8642782712192
 31
0.0
 12
2075.954650588994
 22
318.3642782712192
 32
0.0
 13
2075.954650588994
 23
318.3642782712192
 33
0.0
  0
SOLID
  5
2B58
330
20E7
100
AcDbEntity
  8
AM_5
100
AcDbTrace
 10
2122.954650588994
 20
318.8642782712192
 30
0.0
 11
2122.954650588994
 21
317.8642782712192
 31
0.0
 12
2125.954650588994
 22
318.3642782712192
 32
0.0
 13
2125.954650588994
 23
318.3642782712192
 33
0.0
  0
MTEXT
  5
2B59
330
20E7
100
AcDbEntity
  8
AM_5
100
AcDbMText
 10
2100.954650588993
 20
320.8642782712192
 30
0.0
 40
3.0
 41
0.0
 71
     5
 72
     1
  1
50
  7
CHINESET
 73
     1
 44
1.0
1001
ACAD
1000
MTEXTBEGIN
1070
    73
1070
     1
1070
    44
1040
1.0
1070
    74
1070
     0
1000
MTEXTEND
  0
POINT
  5
2B5A
330
20E7
100
AcDbEntity
  8
Defpoints
 62
     0
100
AcDbPoint
 10
2075.954650588994
 20
330.3642782712192
 30
0.0
  0
POINT
  5
2B5B
330
20E7
100
AcDbEntity
  8
Defpoints
 62
     0
100
AcDbPoint
 10
2125.954650588994
 20
330.3642782712192
 30
0.0
  0
POINT
  5
2B5C
330
20E7
100
AcDbEntity
  8
Defpoints
 62
     0
100
AcDbPoint
 10
2125.954650588994
 20
318.3642782712192
 30
0.0
  0
ENDBLK
  5
20F2
330
20E7
100
AcDbEntity
  8
0
100
AcDbBlockEnd
  0
BLOCK
  5
20FD
330
20F3
100
AcDbEntity
  8
0
100
AcDbBlockBegin
  2
*D18
 70
     1
 10
0.0
 20
0.0
 30
0.0
  3
*D18
  1

  0
LINE
  5
2B5D
330
20F3
100
AcDbEntity
  8
AM_5
100
AcDbLine
 10
2068.954650588993
 20
327.6142782712192
 30
0.0
 11
2068.954650588993
 21
306.8642782712177
 31
0.0
  0
LINE
  5
2B5E
330
20F3
100
AcDbEntity
  8
AM_5
100
AcDbLine
 10
2132.954650588994
 20
327.6142782712192
 30
0.0
 11
2132.954650588994
 21
306.8642782712177
 31
0.0
  0
LINE
  5
2B5F
330
20F3
100
AcDbEntity
  8
AM_5
100
AcDbLine
 10
2071.954650588994
 20
308.3642782712177
 30
0.0
 11
2129.954650588993
 21
308.3642782712177
 31
0.0
  0
SOLID
  5
2B60
330
20F3
100
AcDbEntity
  8
AM_5
100
AcDbTrace
 10
2071.954650588994
 20
308.8642782712177
 30
0.0
 11
2071.954650588994
 21
307.8642782712177
 31
0.0
 12
2068.954650588993
 22
308.3642782712177
 32
0.0
 13
2068.954650588993
 23
308.3642782712177
 33
0.0
  0
SOLID
  5
2B61
330
20F3
100
AcDbEntity
  8
AM_5
100
AcDbTrace
 10
2129.954650588993
 20
308.8642782712177
 30
0.0
 11
2129.954650588993
 21
307.8642782712177
 31
0.0
 12
2132.954650588994
 22
308.3642782712177
 32
0.0
 13
2132.954650588994
 23
308.3642782712177
 33
0.0
  0
MTEXT
  5
2B62
330
20F3
100
AcDbEntity
  8
AM_5
100
AcDbMText
 10
2100.954650588993
 20
310.8642782712177
 30
0.0
 40
3.0
 41
0.0
 71
     5
 72
     1
  1
64
  7
CHINESET
 73
     1
 44
1.0
1001
ACAD
1000
MTEXTBEGIN
1070
    73
1070
     1
1070
    44
1040
1.0
1070
    74
1070
     0
1000
MTEXTEND
  0
POINT
  5
2B63
330
20F3
100
AcDbEntity
  8
Defpoints
 62
     0
100
AcDbPoint
 10
2068.954650588993
 20
328.6142782712192
 30
0.0
  0
POINT
  5
2B64
330
20F3
100
AcDbEntity
  8
Defpoints
 62
     0
100
AcDbPoint
 10
2132.954650588994
 20
328.6142782712192
 30
0.0
  0
POINT
  5
2B65
330
20F3
100
AcDbEntity
  8
Defpoints
 62
     0
100
AcDbPoint
 10
2132.954650588994
 20
308.3642782712177
 30
0.0
  0
ENDBLK
  5
20FE
330
20F3
100
AcDbEntity
  8
0
100
AcDbBlockEnd
  0
BLOCK
  5
2259
330
224F
100
AcDbEntity
  8
0
100
AcDbBlockBegin
  2
*D19
 70
     1
 10
0.0
 20
0.0
 30
0.0
  3
*D19
  1

  0
LINE
  5
2C42
330
224F
100
AcDbEntity
  8
AM_5
100
AcDbLine
 10
2505.881966971573
 20
706.0092036332564
 30
0.0
 11
2557.340300934328
 21
706.0092036332564
 31
0.0
  0
LINE
  5
2C43
330
224F
100
AcDbEntity
  8
AM_5
100
AcDbLine
 10
2505.840300934327
 20
760.0092036332564
 30
0.0
 11
2557.340300934328
 21
760.0092036332564
 31
0.0
  0
LINE
  5
2C44
330
224F
100
AcDbEntity
  8
AM_5
100
AcDbLine
 10
2555.840300934328
 20
709.0092036332564
 30
0.0
 11
2555.840300934328
 21
757.0092036332564
 31
0.0
  0
SOLID
  5
2C45
330
224F
100
AcDbEntity
  8
AM_5
100
AcDbTrace
 10
2555.340300934327
 20
709.0092036332564
 30
0.0
 11
2556.340300934328
 21
709.0092036332564
 31
0.0
 12
2555.840300934328
 22
706.0092036332564
 32
0.0
 13
2555.840300934328
 23
706.0092036332564
 33
0.0
  0
SOLID
  5
2C46
330
224F
100
AcDbEntity
  8
AM_5
100
AcDbTrace
 10
2555.340300934327
 20
757.0092036332564
 30
0.0
 11
2556.340300934328
 21
757.0092036332564
 31
0.0
 12
2555.840300934328
 22
760.0092036332564
 32
0.0
 13
2555.840300934328
 23
760.0092036332564
 33
0.0
  0
MTEXT
  5
2C47
330
224F
100
AcDbEntity
  8
AM_5
100
AcDbMText
 10
2553.340300934328
 20
733.0092036332569
 30
0.0
 40
3.0
 41
0.0
 71
     5
 72
     1
  1
54
  7
CHINESET
 11
0.0000000000000001
 21
1.0
 31
0.0
 73
     1
 44
1.0
1001
ACAD
1000
MTEXTBEGIN
1070
    73
1070
     1
1070
    44
1040
1.0
1070
    74
1070
     0
1000
MTEXTEND
  0
POINT
  5
2C48
330
224F
100
AcDbEntity
  8
Defpoints
 62
     0
100
AcDbPoint
 10
2504.881966971573
 20
706.0092036332564
 30
0.0
  0
POINT
  5
2C49
330
224F
100
AcDbEntity
  8
Defpoints
 62
     0
100
AcDbPoint
 10
2504.840300934328
 20
760.0092036332564
 30
0.0
  0
POINT
  5
2C4A
330
224F
100
AcDbEntity
  8
Defpoints
 62
     0
100
AcDbPoint
 10
2555.840300934328
 20
760.0092036332564
 30
0.0
  0
ENDBLK
  5
225A
330
224F
100
AcDbEntity
  8
0
100
AcDbBlockEnd
  0
BLOCK
  5
2265
330
225B
100
AcDbEntity
  8
0
100
AcDbBlockBegin
  2
*D20
 70
     1
 10
0.0
 20
0.0
 30
0.0
  3
*D20
  1

  0
LINE
  5
2C4B
330
225B
100
AcDbEntity
  8
AM_5
100
AcDbLine
 10
2508.090300934327
 20
716.0092036332564
 30
0.0
 11
2547.340300934328
 21
716.0092036332564
 31
0.0
  0
LINE
  5
2C4C
330
225B
100
AcDbEntity
  8
AM_5
100
AcDbLine
 10
2508.090300934327
 20
750.0092036332564
 30
0.0
 11
2547.340300934328
 21
750.0092036332564
 31
0.0
  0
LINE
  5
2C4D
330
225B
100
AcDbEntity
  8
AM_5
100
AcDbLine
 10
2545.840300934328
 20
719.0092036332564
 30
0.0
 11
2545.840300934328
 21
747.0092036332564
 31
0.0
  0
SOLID
  5
2C4E
330
225B
100
AcDbEntity
  8
AM_5
100
AcDbTrace
 10
2545.340300934328
 20
719.0092036332564
 30
0.0
 11
2546.340300934327
 21
719.0092036332564
 31
0.0
 12
2545.840300934328
 22
716.0092036332564
 32
0.0
 13
2545.840300934328
 23
716.0092036332564
 33
0.0
  0
SOLID
  5
2C4F
330
225B
100
AcDbEntity
  8
AM_5
100
AcDbTrace
 10
2545.340300934328
 20
747.0092036332564
 30
0.0
 11
2546.340300934327
 21
747.0092036332564
 31
0.0
 12
2545.840300934328
 22
750.0092036332564
 32
0.0
 13
2545.840300934328
 23
750.0092036332564
 33
0.0
  0
MTEXT
  5
2C50
330
225B
100
AcDbEntity
  8
AM_5
100
AcDbMText
 10
2543.340300934327
 20
733.0092036332569
 30
0.0
 40
3.0
 41
0.0
 71
     5
 72
     1
  1
34
  7
CHINESET
 11
0.0000000000000001
 21
1.0
 31
0.0
 73
     1
 44
1.0
1001
ACAD
1000
MTEXTBEGIN
1070
    73
1070
     1
1070
    44
1040
1.0
1070
    74
1070
     0
1000
MTEXTEND
  0
POINT
  5
2C51
330
225B
100
AcDbEntity
  8
Defpoints
 62
     0
100
AcDbPoint
 10
2507.090300934328
 20
716.0092036332564
 30
0.0
  0
POINT
  5
2C52
330
225B
100
AcDbEntity
  8
Defpoints
 62
     0
100
AcDbPoint
 10
2507.090300934328
 20
750.0092036332564
 30
0.0
  0
POINT
  5
2C53
330
225B
100
AcDbEntity
  8
Defpoints
 62
     0
100
AcDbPoint
 10
2545.840300934328
 20
750.0092036332564
 30
0.0
  0
ENDBLK
  5
2266
330
225B
100
AcDbEntity
  8
0
100
AcDbBlockEnd
  0
BLOCK
  5
2283
330
2279
100
AcDbEntity
  8
0
100
AcDbBlockBegin
  2
*D21
 70
     1
 10
0.0
 20
0.0
 30
0.0
  3
*D21
  1

  0
LINE
  5
2C54
330
2279
100
AcDbEntity
  8
AM_5
100
AcDbLine
 10
2446.840300934328
 20
708.7592036332564
 30
0.0
 11
2446.840300934328
 21
695.2592036332564
 31
0.0
  0
LINE
  5
2C55
330
2279
100
AcDbEntity
  8
AM_5
100
AcDbLine
 10
2500.840300934328
 20
708.7592036332564
 30
0.0
 11
2500.840300934328
 21
695.2592036332564
 31
0.0
  0
LINE
  5
2C56
330
2279
100
AcDbEntity
  8
AM_5
100
AcDbLine
 10
2449.840300934328
 20
696.7592036332564
 30
0.0
 11
2497.840300934328
 21
696.7592036332564
 31
0.0
  0
SOLID
  5
2C57
330
2279
100
AcDbEntity
  8
AM_5
100
AcDbTrace
 10
2449.840300934328
 20
697.2592036332564
 30
0.0
 11
2449.840300934328
 21
696.2592036332564
 31
0.0
 12
2446.840300934328
 22
696.7592036332564
 32
0.0
 13
2446.840300934328
 23
696.7592036332564
 33
0.0
  0
SOLID
  5
2C58
330
2279
100
AcDbEntity
  8
AM_5
100
AcDbTrace
 10
2497.840300934328
 20
697.2592036332564
 30
0.0
 11
2497.840300934328
 21
696.2592036332564
 31
0.0
 12
2500.840300934328
 22
696.7592036332564
 32
0.0
 13
2500.840300934328
 23
696.7592036332564
 33
0.0
  0
MTEXT
  5
2C59
330
2279
100
AcDbEntity
  8
AM_5
100
AcDbMText
 10
2473.840300934327
 20
699.2592036332564
 30
0.0
 40
3.0
 41
0.0
 71
     5
 72
     1
  1
54
  7
CHINESET
 73
     1
 44
1.0
1001
ACAD
1000
MTEXTBEGIN
1070
    73
1070
     1
1070
    44
1040
1.0
1070
    74
1070
     0
1000
MTEXTEND
  0
POINT
  5
2C5A
330
2279
100
AcDbEntity
  8
Defpoints
 62
     0
100
AcDbPoint
 10
2446.840300934328
 20
709.7592036332564
 30
0.0
  0
POINT
  5
2C5B
330
2279
100
AcDbEntity
  8
Defpoints
 62
     0
100
AcDbPoint
 10
2500.840300934328
 20
709.7592036332564
 30
0.0
  0
POINT
  5
2C5C
330
2279
100
AcDbEntity
  8
Defpoints
 62
     0
100
AcDbPoint
 10
2500.840300934328
 20
696.7592036332564
 30
0.0
  0
ENDBLK
  5
2284
330
2279
100
AcDbEntity
  8
0
100
AcDbBlockEnd
  0
BLOCK
  5
228F
330
2285
100
AcDbEntity
  8
0
100
AcDbBlockBegin
  2
*D22
 70
     1
 10
0.0
 20
0.0
 30
0.0
  3
*D22
  1

  0
LINE
  5
2C5D
330
2285
100
AcDbEntity
  8
AM_5
100
AcDbLine
 10
2439.840300934327
 20
708.0092036332565
 30
0.0
 11
2439.840300934327
 21
685.2592036332549
 31
0.0
  0
LINE
  5
2C5E
330
2285
100
AcDbEntity
  8
AM_5
100
AcDbLine
 10
2507.840300934328
 20
708.0092036332565
 30
0.0
 11
2507.840300934328
 21
685.2592036332549
 31
0.0
  0
LINE
  5
2C5F
330
2285
100
AcDbEntity
  8
AM_5
100
AcDbLine
 10
2442.840300934328
 20
686.7592036332549
 30
0.0
 11
2504.840300934328
 21
686.7592036332549
 31
0.0
  0
SOLID
  5
2C60
330
2285
100
AcDbEntity
  8
AM_5
100
AcDbTrace
 10
2442.840300934328
 20
687.2592036332549
 30
0.0
 11
2442.840300934328
 21
686.2592036332549
 31
0.0
 12
2439.840300934327
 22
686.7592036332549
 32
0.0
 13
2439.840300934327
 23
686.7592036332549
 33
0.0
  0
SOLID
  5
2C61
330
2285
100
AcDbEntity
  8
AM_5
100
AcDbTrace
 10
2504.840300934328
 20
687.2592036332549
 30
0.0
 11
2504.840300934328
 21
686.2592036332549
 31
0.0
 12
2507.840300934328
 22
686.7592036332549
 32
0.0
 13
2507.840300934328
 23
686.7592036332549
 33
0.0
  0
MTEXT
  5
2C62
330
2285
100
AcDbEntity
  8
AM_5
100
AcDbMText
 10
2473.840300934327
 20
689.2592036332549
 30
0.0
 40
3.0
 41
0.0
 71
     5
 72
     1
  1
68
  7
CHINESET
 73
     1
 44
1.0
1001
ACAD
1000
MTEXTBEGIN
1070
    73
1070
     1
1070
    44
1040
1.0
1070
    74
1070
     0
1000
MTEXTEND
  0
POINT
  5
2C63
330
2285
100
AcDbEntity
  8
Defpoints
 62
     0
100
AcDbPoint
 10
2439.840300934327
 20
709.0092036332564
 30
0.0
  0
POINT
  5
2C64
330
2285
100
AcDbEntity
  8
Defpoints
 62
     0
100
AcDbPoint
 10
2507.840300934328
 20
709.0092036332564
 30
0.0
  0
POINT
  5
2C65
330
2285
100
AcDbEntity
  8
Defpoints
 62
     0
100
AcDbPoint
 10
2507.840300934328
 20
686.7592036332549
 30
0.0
  0
ENDBLK
  5
2290
330
2285
100
AcDbEntity
  8
0
100
AcDbBlockEnd
  0
BLOCK
  5
22F0
330
22E6
100
AcDbEntity
  8
0
100
AcDbBlockBegin
  2
*D23
 70
     1
 10
0.0
 20
0.0
 30
0.0
  3
*D23
  1

  0
LINE
  5
2A24
330
22E6
100
AcDbEntity
  8
AM_5
100
AcDbLine
 10
2506.881966971573
 20
508.9561227128467
 30
0.0
 11
2547.340300934328
 21
508.9561227128467
 31
0.0
  0
LINE
  5
2A25
330
22E6
100
AcDbEntity
  8
AM_5
100
AcDbLine
 10
2496.340300934328
 20
606.9561227128467
 30
0.0
 11
2547.340300934328
 21
606.9561227128467
 31
0.0
  0
LINE
  5
2A26
330
22E6
100
AcDbEntity
  8
AM_5
100
AcDbLine
 10
2545.840300934328
 20
511.9561227128468
 30
0.0
 11
2545.840300934328
 21
603.9561227128467
 31
0.0
  0
SOLID
  5
2A27
330
22E6
100
AcDbEntity
  8
AM_5
100
AcDbTrace
 10
2545.340300934328
 20
511.9561227128468
 30
0.0
 11
2546.340300934327
 21
511.9561227128468
 31
0.0
 12
2545.840300934328
 22
508.9561227128467
 32
0.0
 13
2545.840300934328
 23
508.9561227128467
 33
0.0
  0
SOLID
  5
2A28
330
22E6
100
AcDbEntity
  8
AM_5
100
AcDbTrace
 10
2545.340300934328
 20
603.9561227128467
 30
0.0
 11
2546.340300934327
 21
603.9561227128467
 31
0.0
 12
2545.840300934328
 22
606.9561227128467
 32
0.0
 13
2545.840300934328
 23
606.9561227128467
 33
0.0
  0
MTEXT
  5
2A29
330
22E6
100
AcDbEntity
  8
AM_5
100
AcDbMText
 10
2543.340300934327
 20
557.9561227128472
 30
0.0
 40
3.0
 41
0.0
 71
     5
 72
     1
  1
98
  7
CHINESET
 11
0.0000000000000001
 21
1.0
 31
0.0
 73
     1
 44
1.0
1001
ACAD
1000
MTEXTBEGIN
1070
    73
1070
     1
1070
    44
1040
1.0
1070
    74
1070
     0
1000
MTEXTEND
  0
POINT
  5
2A2A
330
22E6
100
AcDbEntity
  8
Defpoints
 62
     0
100
AcDbPoint
 10
2505.881966971573
 20
508.9561227128467
 30
0.0
  0
POINT
  5
2A2B
330
22E6
100
AcDbEntity
  8
Defpoints
 62
     0
100
AcDbPoint
 10
2495.340300934328
 20
606.9561227128467
 30
0.0
  0
POINT
  5
2A2C
330
22E6
100
AcDbEntity
  8
Defpoints
 62
     0
100
AcDbPoint
 10
2545.840300934328
 20
606.9561227128467
 30
0.0
  0
ENDBLK
  5
22F1
330
22E6
100
AcDbEntity
  8
0
100
AcDbBlockEnd
  0
BLOCK
  5
22FC
330
22F2
100
AcDbEntity
  8
0
100
AcDbBlockBegin
  2
*D24
 70
     1
 10
0.0
 20
0.0
 30
0.0
  3
*D24
  1

  0
LINE
  5
2A2D
330
22F2
100
AcDbEntity
  8
AM_5
100
AcDbLine
 10
2506.881966971573
 20
508.9561227128467
 30
0.0
 11
2557.340300934328
 21
508.9561227128467
 31
0.0
  0
LINE
  5
2A2E
330
22F2
100
AcDbEntity
  8
AM_5
100
AcDbLine
 10
2534.840300934328
 20
635.9561227128467
 30
0.0
 11
2557.340300934328
 21
635.9561227128467
 31
0.0
  0
LINE
  5
2A2F
330
22F2
100
AcDbEntity
  8
AM_5
100
AcDbLine
 10
2555.840300934328
 20
511.9561227128468
 30
0.0
 11
2555.840300934328
 21
632.9561227128468
 31
0.0
  0
SOLID
  5
2A30
330
22F2
100
AcDbEntity
  8
AM_5
100
AcDbTrace
 10
2555.340300934327
 20
511.9561227128468
 30
0.0
 11
2556.340300934328
 21
511.9561227128468
 31
0.0
 12
2555.840300934328
 22
508.9561227128467
 32
0.0
 13
2555.840300934328
 23
508.9561227128467
 33
0.0
  0
SOLID
  5
2A31
330
22F2
100
AcDbEntity
  8
AM_5
100
AcDbTrace
 10
2555.340300934327
 20
632.9561227128468
 30
0.0
 11
2556.340300934328
 21
632.9561227128468
 31
0.0
 12
2555.840300934328
 22
635.9561227128467
 32
0.0
 13
2555.840300934328
 23
635.9561227128467
 33
0.0
  0
MTEXT
  5
2A32
330
22F2
100
AcDbEntity
  8
AM_5
100
AcDbMText
 10
2553.340300934328
 20
572.4561227128472
 30
0.0
 40
3.0
 41
0.0
 71
     5
 72
     1
  1
127
  7
CHINESET
 11
0.0000000000000001
 21
1.0
 31
0.0
 73
     1
 44
1.0
1001
ACAD
1000
MTEXTBEGIN
1070
    73
1070
     1
1070
    44
1040
1.0
1070
    74
1070
     0
1000
MTEXTEND
  0
POINT
  5
2A33
330
22F2
100
AcDbEntity
  8
Defpoints
 62
     0
100
AcDbPoint
 10
2505.881966971573
 20
508.9561227128467
 30
0.0
  0
POINT
  5
2A34
330
22F2
100
AcDbEntity
  8
Defpoints
 62
     0
100
AcDbPoint
 10
2533.840300934328
 20
635.9561227128467
 30
0.0
  0
POINT
  5
2A35
330
22F2
100
AcDbEntity
  8
Defpoints
 62
     0
100
AcDbPoint
 10
2555.840300934328
 20
635.9561227128467
 30
0.0
  0
ENDBLK
  5
22FD
330
22F2
100
AcDbEntity
  8
0
100
AcDbBlockEnd
  0
BLOCK
  5
2308
330
22FE
100
AcDbEntity
  8
0
100
AcDbBlockBegin
  2
*D25
 70
     1
 10
0.0
 20
0.0
 30
0.0
  3
*D25
  1

  0
LINE
  5
2A36
330
22FE
100
AcDbEntity
  8
AM_5
100
AcDbLine
 10
2439.840300934327
 20
526.9561227128467
 30
0.0
 11
2428.381965971573
 21
526.9561227128467
 31
0.0
  0
LINE
  5
2A37
330
22FE
100
AcDbEntity
  8
AM_5
100
AcDbLine
 10
2439.881966971573
 20
508.9561227128467
 30
0.0
 11
2428.381965971573
 21
508.9561227128468
 31
0.0
  0
LINE
  5
2A38
330
22FE
100
AcDbEntity
  8
AM_5
100
AcDbLine
 10
2429.881965971573
 20
523.9561227128468
 30
0.0
 11
2429.881965971573
 21
511.9561227128468
 31
0.0
  0
SOLID
  5
2A39
330
22FE
100
AcDbEntity
  8
AM_5
100
AcDbTrace
 10
2429.381965971573
 20
523.9561227128468
 30
0.0
 11
2430.381965971573
 21
523.9561227128468
 31
0.0
 12
2429.881965971573
 22
526.9561227128467
 32
0.0
 13
2429.881965971573
 23
526.9561227128467
 33
0.0
  0
SOLID
  5
2A3A
330
22FE
100
AcDbEntity
  8
AM_5
100
AcDbTrace
 10
2429.381965971573
 20
511.9561227128468
 30
0.0
 11
2430.381965971573
 21
511.9561227128468
 31
0.0
 12
2429.881965971573
 22
508.9561227128468
 32
0.0
 13
2429.881965971573
 23
508.9561227128468
 33
0.0
  0
MTEXT
  5
2A3B
330
22FE
100
AcDbEntity
  8
AM_5
100
AcDbMText
 10
2427.381965971573
 20
517.9561227128472
 30
0.0
 40
3.0
 41
0.0
 71
     5
 72
     1
  1
18
  7
CHINESET
 11
0.0000000000000001
 21
1.0
 31
0.0
 73
     1
 44
1.0
1001
ACAD
1000
MTEXTBEGIN
1070
    73
1070
     1
1070
    44
1040
1.0
1070
    74
1070
     0
1000
MTEXTEND
  0
POINT
  5
2A3C
330
22FE
100
AcDbEntity
  8
Defpoints
 62
     0
100
AcDbPoint
 10
2440.840300934328
 20
526.9561227128467
 30
0.0
  0
POINT
  5
2A3D
330
22FE
100
AcDbEntity
  8
Defpoints
 62
     0
100
AcDbPoint
 10
2440.881966971573
 20
508.9561227128467
 30
0.0
  0
POINT
  5
2A3E
330
22FE
100
AcDbEntity
  8
Defpoints
 62
     0
100
AcDbPoint
 10
2429.881965971573
 20
508.9561227128468
 30
0.0
  0
ENDBLK
  5
2309
330
22FE
100
AcDbEntity
  8
0
100
AcDbBlockEnd
  0
BLOCK
  5
2314
330
230A
100
AcDbEntity
  8
0
100
AcDbBlockBegin
  2
*D26
 70
     1
 10
0.0
 20
0.0
 30
0.0
  3
*D26
  1

  0
LINE
  5
2A3F
330
230A
100
AcDbEntity
  8
AM_5
100
AcDbLine
 10
2533.840300934328
 20
657.9561227128468
 30
0.0
 11
2557.340300934328
 21
657.9561227128468
 31
0.0
  0
LINE
  5
2A40
330
230A
100
AcDbEntity
  8
AM_5
100
AcDbLine
 10
2534.840300934328
 20
635.9561227128467
 30
0.0
 11
2557.340300934328
 21
635.9561227128467
 31
0.0
  0
LINE
  5
2A41
330
230A
100
AcDbEntity
  8
AM_5
100
AcDbLine
 10
2555.840300934328
 20
654.9561227128467
 30
0.0
 11
2555.840300934328
 21
638.9561227128467
 31
0.0
  0
SOLID
  5
2A42
330
230A
100
AcDbEntity
  8
AM_5
100
AcDbTrace
 10
2555.340300934327
 20
654.9561227128467
 30
0.0
 11
2556.340300934328
 21
654.9561227128467
 31
0.0
 12
2555.840300934328
 22
657.9561227128468
 32
0.0
 13
2555.840300934328
 23
657.9561227128468
 33
0.0
  0
SOLID
  5
2A43
330
230A
100
AcDbEntity
  8
AM_5
100
AcDbTrace
 10
2555.340300934327
 20
638.9561227128467
 30
0.0
 11
2556.340300934328
 21
638.9561227128467
 31
0.0
 12
2555.840300934328
 22
635.9561227128467
 32
0.0
 13
2555.840300934328
 23
635.9561227128467
 33
0.0
  0
MTEXT
  5
2A44
330
230A
100
AcDbEntity
  8
AM_5
100
AcDbMText
 10
2553.340300934328
 20
646.9561227128472
 30
0.0
 40
3.0
 41
0.0
 71
     5
 72
     1
  1
22
  7
CHINESET
 11
0.0000000000000001
 21
1.0
 31
0.0
 73
     1
 44
1.0
1001
ACAD
1000
MTEXTBEGIN
1070
    73
1070
     1
1070
    44
1040
1.0
1070
    74
1070
     0
1000
MTEXTEND
  0
POINT
  5
2A45
330
230A
100
AcDbEntity
  8
Defpoints
 62
     0
100
AcDbPoint
 10
2532.840300934328
 20
657.9561227128468
 30
0.0
  0
POINT
  5
2A46
330
230A
100
AcDbEntity
  8
Defpoints
 62
     0
100
AcDbPoint
 10
2533.840300934328
 20
635.9561227128467
 30
0.0
  0
POINT
  5
2A47
330
230A
100
AcDbEntity
  8
Defpoints
 62
     0
100
AcDbPoint
 10
2555.840300934328
 20
635.9561227128467
 30
0.0
  0
ENDBLK
  5
2315
330
230A
100
AcDbEntity
  8
0
100
AcDbBlockEnd
  0
BLOCK
  5
2489
330
247F
100
AcDbEntity
  8
0
100
AcDbBlockBegin
  2
*D27
 70
     1
 10
0.0
 20
0.0
 30
0.0
  3
*D27
  1

  0
LINE
  5
2B66
330
247F
100
AcDbEntity
  8
AM_5
100
AcDbLine
 10
2506.881966971573
 20
131.9418999801224
 30
0.0
 11
2537.340300934328
 21
131.9418999801224
 31
0.0
  0
LINE
  5
2B67
330
247F
100
AcDbEntity
  8
AM_5
100
AcDbLine
 10
2496.840300934327
 20
228.9418999801224
 30
0.0
 11
2537.340300934328
 21
228.9418999801224
 31
0.0
  0
LINE
  5
2B68
330
247F
100
AcDbEntity
  8
AM_5
100
AcDbLine
 10
2535.840300934327
 20
134.9418999801224
 30
0.0
 11
2535.840300934327
 21
225.9418999801224
 31
0.0
  0
SOLID
  5
2B69
330
247F
100
AcDbEntity
  8
AM_5
100
AcDbTrace
 10
2535.340300934328
 20
134.9418999801224
 30
0.0
 11
2536.340300934327
 21
134.9418999801224
 31
0.0
 12
2535.840300934327
 22
131.9418999801224
 32
0.0
 13
2535.840300934327
 23
131.9418999801224
 33
0.0
  0
SOLID
  5
2B6A
330
247F
100
AcDbEntity
  8
AM_5
100
AcDbTrace
 10
2535.340300934328
 20
225.9418999801224
 30
0.0
 11
2536.340300934327
 21
225.9418999801224
 31
0.0
 12
2535.840300934327
 22
228.9418999801224
 32
0.0
 13
2535.840300934327
 23
228.9418999801224
 33
0.0
  0
MTEXT
  5
2B6B
330
247F
100
AcDbEntity
  8
AM_5
100
AcDbMText
 10
2533.340300934328
 20
180.4418999801228
 30
0.0
 40
3.0
 41
0.0
 71
     5
 72
     1
  1
97
  7
CHINESET
 11
0.0000000000000001
 21
1.0
 31
0.0
 73
     1
 44
1.0
1001
ACAD
1000
MTEXTBEGIN
1070
    73
1070
     1
1070
    44
1040
1.0
1070
    74
1070
     0
1000
MTEXTEND
  0
POINT
  5
2B6C
330
247F
100
AcDbEntity
  8
Defpoints
 62
     0
100
AcDbPoint
 10
2505.881966971573
 20
131.9418999801224
 30
0.0
  0
POINT
  5
2B6D
330
247F
100
AcDbEntity
  8
Defpoints
 62
     0
100
AcDbPoint
 10
2495.840300934327
 20
228.9418999801224
 30
0.0
  0
POINT
  5
2B6E
330
247F
100
AcDbEntity
  8
Defpoints
 62
     0
100
AcDbPoint
 10
2535.840300934327
 20
228.9418999801224
 30
0.0
  0
ENDBLK
  5
248A
330
247F
100
AcDbEntity
  8
0
100
AcDbBlockEnd
  0
BLOCK
  5
2495
330
248B
100
AcDbEntity
  8
0
100
AcDbBlockBegin
  2
*D28
 70
     1
 10
0.0
 20
0.0
 30
0.0
  3
*D28
  1

  0
LINE
  5
2B6F
330
248B
100
AcDbEntity
  8
AM_5
100
AcDbLine
 10
2506.881966971573
 20
131.9418999801224
 30
0.0
 11
2547.340300934328
 21
131.9418999801224
 31
0.0
  0
LINE
  5
2B70
330
248B
100
AcDbEntity
  8
AM_5
100
AcDbLine
 10
2534.840300934328
 20
264.9418999801225
 30
0.0
 11
2547.340300934328
 21
264.9418999801225
 31
0.0
  0
LINE
  5
2B71
330
248B
100
AcDbEntity
  8
AM_5
100
AcDbLine
 10
2545.840300934328
 20
134.9418999801224
 30
0.0
 11
2545.840300934328
 21
261.9418999801224
 31
0.0
  0
SOLID
  5
2B72
330
248B
100
AcDbEntity
  8
AM_5
100
AcDbTrace
 10
2545.340300934328
 20
134.9418999801224
 30
0.0
 11
2546.340300934327
 21
134.9418999801224
 31
0.0
 12
2545.840300934328
 22
131.9418999801224
 32
0.0
 13
2545.840300934328
 23
131.9418999801224
 33
0.0
  0
SOLID
  5
2B73
330
248B
100
AcDbEntity
  8
AM_5
100
AcDbTrace
 10
2545.340300934328
 20
261.9418999801224
 30
0.0
 11
2546.340300934327
 21
261.9418999801224
 31
0.0
 12
2545.840300934328
 22
264.9418999801225
 32
0.0
 13
2545.840300934328
 23
264.9418999801225
 33
0.0
  0
MTEXT
  5
2B74
330
248B
100
AcDbEntity
  8
AM_5
100
AcDbMText
 10
2543.340300934327
 20
198.4418999801229
 30
0.0
 40
3.0
 41
0.0
 71
     5
 72
     1
  1
133
  7
CHINESET
 11
0.0000000000000001
 21
1.0
 31
0.0
 73
     1
 44
1.0
1001
ACAD
1000
MTEXTBEGIN
1070
    73
1070
     1
1070
    44
1040
1.0
1070
    74
1070
     0
1000
MTEXTEND
  0
POINT
  5
2B75
330
248B
100
AcDbEntity
  8
Defpoints
 62
     0
100
AcDbPoint
 10
2505.881966971573
 20
131.9418999801224
 30
0.0
  0
POINT
  5
2B76
330
248B
100
AcDbEntity
  8
Defpoints
 62
     0
100
AcDbPoint
 10
2533.840300934328
 20
264.9418999801225
 30
0.0
  0
POINT
  5
2B77
330
248B
100
AcDbEntity
  8
Defpoints
 62
     0
100
AcDbPoint
 10
2545.840300934328
 20
264.9418999801225
 30
0.0
  0
ENDBLK
  5
2496
330
248B
100
AcDbEntity
  8
0
100
AcDbBlockEnd
  0
BLOCK
  5
24A1
330
2497
100
AcDbEntity
  8
0
100
AcDbBlockBegin
  2
*D29
 70
     1
 10
0.0
 20
0.0
 30
0.0
  3
*D29
  1

  0
LINE
  5
2B78
330
2497
100
AcDbEntity
  8
AM_5
100
AcDbLine
 10
2439.840300934327
 20
149.9418999801224
 30
0.0
 11
2428.381965971573
 21
149.9418999801224
 31
0.0
  0
LINE
  5
2B79
330
2497
100
AcDbEntity
  8
AM_5
100
AcDbLine
 10
2439.881966971573
 20
131.9418999801224
 30
0.0
 11
2428.381965971573
 21
131.9418999801224
 31
0.0
  0
LINE
  5
2B7A
330
2497
100
AcDbEntity
  8
AM_5
100
AcDbLine
 10
2429.881965971573
 20
146.9418999801224
 30
0.0
 11
2429.881965971573
 21
134.9418999801224
 31
0.0
  0
SOLID
  5
2B7B
330
2497
100
AcDbEntity
  8
AM_5
100
AcDbTrace
 10
2429.381965971573
 20
146.9418999801224
 30
0.0
 11
2430.381965971573
 21
146.9418999801224
 31
0.0
 12
2429.881965971573
 22
149.9418999801224
 32
0.0
 13
2429.881965971573
 23
149.9418999801224
 33
0.0
  0
SOLID
  5
2B7C
330
2497
100
AcDbEntity
  8
AM_5
100
AcDbTrace
 10
2429.381965971573
 20
134.9418999801224
 30
0.0
 11
2430.381965971573
 21
134.9418999801224
 31
0.0
 12
2429.881965971573
 22
131.9418999801224
 32
0.0
 13
2429.881965971573
 23
131.9418999801224
 33
0.0
  0
MTEXT
  5
2B7D
330
2497
100
AcDbEntity
  8
AM_5
100
AcDbMText
 10
2427.381965971573
 20
140.9418999801228
 30
0.0
 40
3.0
 41
0.0
 71
     5
 72
     1
  1
18
  7
CHINESET
 11
0.0000000000000001
 21
1.0
 31
0.0
 73
     1
 44
1.0
1001
ACAD
1000
MTEXTBEGIN
1070
    73
1070
     1
1070
    44
1040
1.0
1070
    74
1070
     0
1000
MTEXTEND
  0
POINT
  5
2B7E
330
2497
100
AcDbEntity
  8
Defpoints
 62
     0
100
AcDbPoint
 10
2440.840300934328
 20
149.9418999801224
 30
0.0
  0
POINT
  5
2B7F
330
2497
100
AcDbEntity
  8
Defpoints
 62
     0
100
AcDbPoint
 10
2440.881966971573
 20
131.9418999801224
 30
0.0
  0
POINT
  5
2B80
330
2497
100
AcDbEntity
  8
Defpoints
 62
     0
100
AcDbPoint
 10
2429.881965971573
 20
131.9418999801224
 30
0.0
  0
ENDBLK
  5
24A2
330
2497
100
AcDbEntity
  8
0
100
AcDbBlockEnd
  0
BLOCK
  5
24AD
330
24A3
100
AcDbEntity
  8
0
100
AcDbBlockBegin
  2
*D30
 70
     1
 10
0.0
 20
0.0
 30
0.0
  3
*D30
  1

  0
LINE
  5
2B81
330
24A3
100
AcDbEntity
  8
AM_5
100
AcDbLine
 10
2533.840300934328
 20
286.9418999801224
 30
0.0
 11
2547.340300934328
 21
286.9418999801224
 31
0.0
  0
LINE
  5
2B82
330
24A3
100
AcDbEntity
  8
AM_5
100
AcDbLine
 10
2534.840300934328
 20
264.9418999801225
 30
0.0
 11
2547.340300934328
 21
264.9418999801225
 31
0.0
  0
LINE
  5
2B83
330
24A3
100
AcDbEntity
  8
AM_5
100
AcDbLine
 10
2545.840300934328
 20
283.9418999801225
 30
0.0
 11
2545.840300934328
 21
267.9418999801224
 31
0.0
  0
SOLID
  5
2B84
330
24A3
100
AcDbEntity
  8
AM_5
100
AcDbTrace
 10
2545.340300934328
 20
283.9418999801225
 30
0.0
 11
2546.340300934327
 21
283.9418999801225
 31
0.0
 12
2545.840300934328
 22
286.9418999801224
 32
0.0
 13
2545.840300934328
 23
286.9418999801224
 33
0.0
  0
SOLID
  5
2B85
330
24A3
100
AcDbEntity
  8
AM_5
100
AcDbTrace
 10
2545.340300934328
 20
267.9418999801224
 30
0.0
 11
2546.340300934327
 21
267.9418999801224
 31
0.0
 12
2545.840300934328
 22
264.9418999801225
 32
0.0
 13
2545.840300934328
 23
264.9418999801225
 33
0.0
  0
MTEXT
  5
2B86
330
24A3
100
AcDbEntity
  8
AM_5
100
AcDbMText
 10
2543.340300934327
 20
275.9418999801229
 30
0.0
 40
3.0
 41
0.0
 71
     5
 72
     1
  1
22
  7
CHINESET
 11
0.0000000000000001
 21
1.0
 31
0.0
 73
     1
 44
1.0
1001
ACAD
1000
MTEXTBEGIN
1070
    73
1070
     1
1070
    44
1040
1.0
1070
    74
1070
     0
1000
MTEXTEND
  0
POINT
  5
2B87
330
24A3
100
AcDbEntity
  8
Defpoints
 62
     0
100
AcDbPoint
 10
2532.840300934328
 20
286.9418999801224
 30
0.0
  0
POINT
  5
2B88
330
24A3
100
AcDbEntity
  8
Defpoints
 62
     0
100
AcDbPoint
 10
2533.840300934328
 20
264.9418999801225
 30
0.0
  0
POINT
  5
2B89
330
24A3
100
AcDbEntity
  8
Defpoints
 62
     0
100
AcDbPoint
 10
2545.840300934328
 20
264.9418999801225
 30
0.0
  0
ENDBLK
  5
24AE
330
24A3
100
AcDbEntity
  8
0
100
AcDbBlockEnd
  0
BLOCK
  5
2538
330
252E
100
AcDbEntity
  8
0
100
AcDbBlockBegin
  2
*D31
 70
     1
 10
0.0
 20
0.0
 30
0.0
  3
*D31
  1

  0
LINE
  5
2C08
330
252E
100
AcDbEntity
  8
AM_5
100
AcDbLine
 10
2505.840300934327
 20
334.2971953224449
 30
0.0
 11
2557.340300934328
 21
334.2971953224449
 31
0.0
  0
LINE
  5
2C09
330
252E
100
AcDbEntity
  8
AM_5
100
AcDbLine
 10
2505.840300934327
 20
388.2971953224449
 30
0.0
 11
2557.340300934328
 21
388.2971953224449
 31
0.0
  0
LINE
  5
2C0A
330
252E
100
AcDbEntity
  8
AM_5
100
AcDbLine
 10
2555.840300934328
 20
337.297195322445
 30
0.0
 11
2555.840300934328
 21
385.297195322445
 31
0.0
  0
SOLID
  5
2C0B
330
252E
100
AcDbEntity
  8
AM_5
100
AcDbTrace
 10
2555.340300934327
 20
337.297195322445
 30
0.0
 11
2556.340300934328
 21
337.297195322445
 31
0.0
 12
2555.840300934328
 22
334.2971953224449
 32
0.0
 13
2555.840300934328
 23
334.2971953224449
 33
0.0
  0
SOLID
  5
2C0C
330
252E
100
AcDbEntity
  8
AM_5
100
AcDbTrace
 10
2555.340300934327
 20
385.297195322445
 30
0.0
 11
2556.340300934328
 21
385.297195322445
 31
0.0
 12
2555.840300934328
 22
388.2971953224449
 32
0.0
 13
2555.840300934328
 23
388.2971953224449
 33
0.0
  0
MTEXT
  5
2C0D
330
252E
100
AcDbEntity
  8
AM_5
100
AcDbMText
 10
2553.340300934328
 20
361.2971953224453
 30
0.0
 40
3.0
 41
0.0
 71
     5
 72
     1
  1
54
  7
CHINESET
 11
0.0000000000000001
 21
1.0
 31
0.0
 73
     1
 44
1.0
1001
ACAD
1000
MTEXTBEGIN
1070
    73
1070
     1
1070
    44
1040
1.0
1070
    74
1070
     0
1000
MTEXTEND
  0
POINT
  5
2C0E
330
252E
100
AcDbEntity
  8
Defpoints
 62
     0
100
AcDbPoint
 10
2504.840300934328
 20
334.2971953224449
 30
0.0
  0
POINT
  5
2C0F
330
252E
100
AcDbEntity
  8
Defpoints
 62
     0
100
AcDbPoint
 10
2504.840300934328
 20
388.2971953224449
 30
0.0
  0
POINT
  5
2C10
330
252E
100
AcDbEntity
  8
Defpoints
 62
     0
100
AcDbPoint
 10
2555.840300934328
 20
388.2971953224449
 30
0.0
  0
ENDBLK
  5
2539
330
252E
100
AcDbEntity
  8
0
100
AcDbBlockEnd
  0
BLOCK
  5
2544
330
253A
100
AcDbEntity
  8
0
100
AcDbBlockBegin
  2
*D32
 70
     1
 10
0.0
 20
0.0
 30
0.0
  3
*D32
  1

  0
LINE
  5
2C11
330
253A
100
AcDbEntity
  8
AM_5
100
AcDbLine
 10
2508.090300934327
 20
344.297195322445
 30
0.0
 11
2547.340300934328
 21
344.297195322445
 31
0.0
  0
LINE
  5
2C12
330
253A
100
AcDbEntity
  8
AM_5
100
AcDbLine
 10
2508.090300934327
 20
378.297195322445
 30
0.0
 11
2547.340300934328
 21
378.297195322445
 31
0.0
  0
LINE
  5
2C13
330
253A
100
AcDbEntity
  8
AM_5
100
AcDbLine
 10
2545.840300934328
 20
347.297195322445
 30
0.0
 11
2545.840300934328
 21
375.297195322445
 31
0.0
  0
SOLID
  5
2C14
330
253A
100
AcDbEntity
  8
AM_5
100
AcDbTrace
 10
2545.340300934328
 20
347.297195322445
 30
0.0
 11
2546.340300934327
 21
347.297195322445
 31
0.0
 12
2545.840300934328
 22
344.297195322445
 32
0.0
 13
2545.840300934328
 23
344.297195322445
 33
0.0
  0
SOLID
  5
2C15
330
253A
100
AcDbEntity
  8
AM_5
100
AcDbTrace
 10
2545.340300934328
 20
375.297195322445
 30
0.0
 11
2546.340300934327
 21
375.297195322445
 31
0.0
 12
2545.840300934328
 22
378.297195322445
 32
0.0
 13
2545.840300934328
 23
378.297195322445
 33
0.0
  0
MTEXT
  5
2C16
330
253A
100
AcDbEntity
  8
AM_5
100
AcDbMText
 10
2543.340300934327
 20
361.2971953224453
 30
0.0
 40
3.0
 41
0.0
 71
     5
 72
     1
  1
34
  7
CHINESET
 11
0.0000000000000001
 21
1.0
 31
0.0
 73
     1
 44
1.0
1001
ACAD
1000
MTEXTBEGIN
1070
    73
1070
     1
1070
    44
1040
1.0
1070
    74
1070
     0
1000
MTEXTEND
  0
POINT
  5
2C17
330
253A
100
AcDbEntity
  8
Defpoints
 62
     0
100
AcDbPoint
 10
2507.090300934328
 20
344.297195322445
 30
0.0
  0
POINT
  5
2C18
330
253A
100
AcDbEntity
  8
Defpoints
 62
     0
100
AcDbPoint
 10
2507.090300934328
 20
378.297195322445
 30
0.0
  0
POINT
  5
2C19
330
253A
100
AcDbEntity
  8
Defpoints
 62
     0
100
AcDbPoint
 10
2545.840300934328
 20
378.297195322445
 30
0.0
  0
ENDBLK
  5
2545
330
253A
100
AcDbEntity
  8
0
100
AcDbBlockEnd
  0
BLOCK
  5
2550
330
2546
100
AcDbEntity
  8
0
100
AcDbBlockBegin
  2
*D33
 70
     1
 10
0.0
 20
0.0
 30
0.0
  3
*D33
  1

  0
LINE
  5
2C1A
330
2546
100
AcDbEntity
  8
AM_5
100
AcDbLine
 10
2446.840300934328
 20
337.047195322445
 30
0.0
 11
2446.840300934328
 21
321.547195322445
 31
0.0
  0
LINE
  5
2C1B
330
2546
100
AcDbEntity
  8
AM_5
100
AcDbLine
 10
2500.840300934328
 20
337.047195322445
 30
0.0
 11
2500.840300934328
 21
321.547195322445
 31
0.0
  0
LINE
  5
2C1C
330
2546
100
AcDbEntity
  8
AM_5
100
AcDbLine
 10
2449.840300934328
 20
323.047195322445
 30
0.0
 11
2497.840300934328
 21
323.047195322445
 31
0.0
  0
SOLID
  5
2C1D
330
2546
100
AcDbEntity
  8
AM_5
100
AcDbTrace
 10
2449.840300934328
 20
323.547195322445
 30
0.0
 11
2449.840300934328
 21
322.547195322445
 31
0.0
 12
2446.840300934328
 22
323.047195322445
 32
0.0
 13
2446.840300934328
 23
323.047195322445
 33
0.0
  0
SOLID
  5
2C1E
330
2546
100
AcDbEntity
  8
AM_5
100
AcDbTrace
 10
2497.840300934328
 20
323.547195322445
 30
0.0
 11
2497.840300934328
 21
322.547195322445
 31
0.0
 12
2500.840300934328
 22
323.047195322445
 32
0.0
 13
2500.840300934328
 23
323.047195322445
 33
0.0
  0
MTEXT
  5
2C1F
330
2546
100
AcDbEntity
  8
AM_5
100
AcDbMText
 10
2473.840300934327
 20
325.547195322445
 30
0.0
 40
3.0
 41
0.0
 71
     5
 72
     1
  1
54
  7
CHINESET
 73
     1
 44
1.0
1001
ACAD
1000
MTEXTBEGIN
1070
    73
1070
     1
1070
    44
1040
1.0
1070
    74
1070
     0
1000
MTEXTEND
  0
POINT
  5
2C20
330
2546
100
AcDbEntity
  8
Defpoints
 62
     0
100
AcDbPoint
 10
2446.840300934328
 20
338.047195322445
 30
0.0
  0
POINT
  5
2C21
330
2546
100
AcDbEntity
  8
Defpoints
 62
     0
100
AcDbPoint
 10
2500.840300934328
 20
338.047195322445
 30
0.0
  0
POINT
  5
2C22
330
2546
100
AcDbEntity
  8
Defpoints
 62
     0
100
AcDbPoint
 10
2500.840300934328
 20
323.047195322445
 30
0.0
  0
ENDBLK
  5
2551
330
2546
100
AcDbEntity
  8
0
100
AcDbBlockEnd
  0
BLOCK
  5
255C
330
2552
100
AcDbEntity
  8
0
100
AcDbBlockBegin
  2
*D34
 70
     1
 10
0.0
 20
0.0
 30
0.0
  3
*D34
  1

  0
LINE
  5
2C23
330
2552
100
AcDbEntity
  8
AM_5
100
AcDbLine
 10
2439.840300934327
 20
336.2971953224449
 30
0.0
 11
2439.840300934327
 21
311.5471953224435
 31
0.0
  0
LINE
  5
2C24
330
2552
100
AcDbEntity
  8
AM_5
100
AcDbLine
 10
2507.840300934328
 20
336.2971953224449
 30
0.0
 11
2507.840300934328
 21
311.5471953224435
 31
0.0
  0
LINE
  5
2C25
330
2552
100
AcDbEntity
  8
AM_5
100
AcDbLine
 10
2442.840300934328
 20
313.0471953224435
 30
0.0
 11
2504.840300934328
 21
313.0471953224435
 31
0.0
  0
SOLID
  5
2C26
330
2552
100
AcDbEntity
  8
AM_5
100
AcDbTrace
 10
2442.840300934328
 20
313.5471953224435
 30
0.0
 11
2442.840300934328
 21
312.5471953224435
 31
0.0
 12
2439.840300934327
 22
313.0471953224435
 32
0.0
 13
2439.840300934327
 23
313.0471953224435
 33
0.0
  0
SOLID
  5
2C27
330
2552
100
AcDbEntity
  8
AM_5
100
AcDbTrace
 10
2504.840300934328
 20
313.5471953224435
 30
0.0
 11
2504.840300934328
 21
312.5471953224435
 31
0.0
 12
2507.840300934328
 22
313.0471953224435
 32
0.0
 13
2507.840300934328
 23
313.0471953224435
 33
0.0
  0
MTEXT
  5
2C28
330
2552
100
AcDbEntity
  8
AM_5
100
AcDbMText
 10
2473.840300934327
 20
315.5471953224435
 30
0.0
 40
3.0
 41
0.0
 71
     5
 72
     1
  1
68
  7
CHINESET
 73
     1
 44
1.0
1001
ACAD
1000
MTEXTBEGIN
1070
    73
1070
     1
1070
    44
1040
1.0
1070
    74
1070
     0
1000
MTEXTEND
  0
POINT
  5
2C29
330
2552
100
AcDbEntity
  8
Defpoints
 62
     0
100
AcDbPoint
 10
2439.840300934327
 20
337.297195322445
 30
0.0
  0
POINT
  5
2C2A
330
2552
100
AcDbEntity
  8
Defpoints
 62
     0
100
AcDbPoint
 10
2507.840300934328
 20
337.297195322445
 30
0.0
  0
POINT
  5
2C2B
330
2552
100
AcDbEntity
  8
Defpoints
 62
     0
100
AcDbPoint
 10
2507.840300934328
 20
313.0471953224435
 30
0.0
  0
ENDBLK
  5
255D
330
2552
100
AcDbEntity
  8
0
100
AcDbBlockEnd
  0
BLOCK
  5
26DE
330
26D4
100
AcDbEntity
  8
0
100
AcDbBlockBegin
  2
*D35
 70
     1
 10
0.0
 20
0.0
 30
0.0
  3
*D35
  1

  0
LINE
  5
2C66
330
26D4
100
AcDbEntity
  8
AM_5
100
AcDbLine
 10
2879.247744863574
 20
711.2619880999844
 30
0.0
 11
2930.706078826329
 21
711.2619880999844
 31
0.0
  0
LINE
  5
2C67
330
26D4
100
AcDbEntity
  8
AM_5
100
AcDbLine
 10
2879.206078826329
 20
775.2619880999843
 30
0.0
 11
2930.706078826329
 21
775.2619880999843
 31
0.0
  0
LINE
  5
2C68
330
26D4
100
AcDbEntity
  8
AM_5
100
AcDbLine
 10
2929.206078826329
 20
714.2619880999843
 30
0.0
 11
2929.206078826329
 21
772.2619880999843
 31
0.0
  0
SOLID
  5
2C69
330
26D4
100
AcDbEntity
  8
AM_5
100
AcDbTrace
 10
2928.706078826329
 20
714.2619880999843
 30
0.0
 11
2929.706078826329
 21
714.2619880999843
 31
0.0
 12
2929.206078826329
 22
711.2619880999844
 32
0.0
 13
2929.206078826329
 23
711.2619880999844
 33
0.0
  0
SOLID
  5
2C6A
330
26D4
100
AcDbEntity
  8
AM_5
100
AcDbTrace
 10
2928.706078826329
 20
772.2619880999843
 30
0.0
 11
2929.706078826329
 21
772.2619880999843
 31
0.0
 12
2929.206078826329
 22
775.2619880999843
 32
0.0
 13
2929.206078826329
 23
775.2619880999843
 33
0.0
  0
MTEXT
  5
2C6B
330
26D4
100
AcDbEntity
  8
AM_5
100
AcDbMText
 10
2926.706078826329
 20
743.2619880999848
 30
0.0
 40
3.0
 41
0.0
 71
     5
 72
     1
  1
64
  7
CHINESET
 11
0.0000000000000001
 21
1.0
 31
0.0
 73
     1
 44
1.0
1001
ACAD
1000
MTEXTBEGIN
1070
    73
1070
     1
1070
    44
1040
1.0
1070
    74
1070
     0
1000
MTEXTEND
  0
POINT
  5
2C6C
330
26D4
100
AcDbEntity
  8
Defpoints
 62
     0
100
AcDbPoint
 10
2878.247744863574
 20
711.2619880999844
 30
0.0
  0
POINT
  5
2C6D
330
26D4
100
AcDbEntity
  8
Defpoints
 62
     0
100
AcDbPoint
 10
2878.206078826329
 20
775.2619880999843
 30
0.0
  0
POINT
  5
2C6E
330
26D4
100
AcDbEntity
  8
Defpoints
 62
     0
100
AcDbPoint
 10
2929.206078826329
 20
775.2619880999843
 30
0.0
  0
ENDBLK
  5
26DF
330
26D4
100
AcDbEntity
  8
0
100
AcDbBlockEnd
  0
BLOCK
  5
26EA
330
26E0
100
AcDbEntity
  8
0
100
AcDbBlockBegin
  2
*D36
 70
     1
 10
0.0
 20
0.0
 30
0.0
  3
*D36
  1

  0
LINE
  5
2C6F
330
26E0
100
AcDbEntity
  8
AM_5
100
AcDbLine
 10
2877.456078826329
 20
723.2619880999843
 30
0.0
 11
2920.706078826329
 21
723.2619880999843
 31
0.0
  0
LINE
  5
2C70
330
26E0
100
AcDbEntity
  8
AM_5
100
AcDbLine
 10
2877.456078826329
 20
763.2619880999843
 30
0.0
 11
2920.706078826329
 21
763.2619880999843
 31
0.0
  0
LINE
  5
2C71
330
26E0
100
AcDbEntity
  8
AM_5
100
AcDbLine
 10
2919.206078826329
 20
726.2619880999843
 30
0.0
 11
2919.206078826329
 21
760.2619880999843
 31
0.0
  0
SOLID
  5
2C72
330
26E0
100
AcDbEntity
  8
AM_5
100
AcDbTrace
 10
2918.706078826329
 20
726.2619880999843
 30
0.0
 11
2919.706078826329
 21
726.2619880999843
 31
0.0
 12
2919.206078826329
 22
723.2619880999843
 32
0.0
 13
2919.206078826329
 23
723.2619880999843
 33
0.0
  0
SOLID
  5
2C73
330
26E0
100
AcDbEntity
  8
AM_5
100
AcDbTrace
 10
2918.706078826329
 20
760.2619880999843
 30
0.0
 11
2919.706078826329
 21
760.2619880999843
 31
0.0
 12
2919.206078826329
 22
763.2619880999843
 32
0.0
 13
2919.206078826329
 23
763.2619880999843
 33
0.0
  0
MTEXT
  5
2C74
330
26E0
100
AcDbEntity
  8
AM_5
100
AcDbMText
 10
2916.706078826329
 20
743.2619880999848
 30
0.0
 40
3.0
 41
0.0
 71
     5
 72
     1
  1
40
  7
CHINESET
 11
0.0000000000000001
 21
1.0
 31
0.0
 73
     1
 44
1.0
1001
ACAD
1000
MTEXTBEGIN
1070
    73
1070
     1
1070
    44
1040
1.0
1070
    74
1070
     0
1000
MTEXTEND
  0
POINT
  5
2C75
330
26E0
100
AcDbEntity
  8
Defpoints
 62
     0
100
AcDbPoint
 10
2876.456078826329
 20
723.2619880999843
 30
0.0
  0
POINT
  5
2C76
330
26E0
100
AcDbEntity
  8
Defpoints
 62
     0
100
AcDbPoint
 10
2876.456078826329
 20
763.2619880999843
 30
0.0
  0
POINT
  5
2C77
330
26E0
100
AcDbEntity
  8
Defpoints
 62
     0
100
AcDbPoint
 10
2919.206078826329
 20
763.2619880999843
 30
0.0
  0
ENDBLK
  5
26EB
330
26E0
100
AcDbEntity
  8
0
100
AcDbBlockEnd
  0
BLOCK
  5
26F6
330
26EC
100
AcDbEntity
  8
0
100
AcDbBlockBegin
  2
*D37
 70
     1
 10
0.0
 20
0.0
 30
0.0
  3
*D37
  1

  0
LINE
  5
2C78
330
26EC
100
AcDbEntity
  8
AM_5
100
AcDbLine
 10
2804.206078826329
 20
716.0119880999843
 30
0.0
 11
2804.206078826329
 21
700.5119880999843
 31
0.0
  0
LINE
  5
2C79
330
26EC
100
AcDbEntity
  8
AM_5
100
AcDbLine
 10
2870.206078826329
 20
716.0119880999843
 30
0.0
 11
2870.206078826329
 21
700.5119880999843
 31
0.0
  0
LINE
  5
2C7A
330
26EC
100
AcDbEntity
  8
AM_5
100
AcDbLine
 10
2807.206078826329
 20
702.0119880999843
 30
0.0
 11
2867.206078826329
 21
702.0119880999843
 31
0.0
  0
SOLID
  5
2C7B
330
26EC
100
AcDbEntity
  8
AM_5
100
AcDbTrace
 10
2807.206078826329
 20
702.5119880999843
 30
0.0
 11
2807.206078826329
 21
701.5119880999844
 31
0.0
 12
2804.206078826329
 22
702.0119880999843
 32
0.0
 13
2804.206078826329
 23
702.0119880999843
 33
0.0
  0
SOLID
  5
2C7C
330
26EC
100
AcDbEntity
  8
AM_5
100
AcDbTrace
 10
2867.206078826329
 20
702.5119880999843
 30
0.0
 11
2867.206078826329
 21
701.5119880999844
 31
0.0
 12
2870.206078826329
 22
702.0119880999843
 32
0.0
 13
2870.206078826329
 23
702.0119880999843
 33
0.0
  0
MTEXT
  5
2C7D
330
26EC
100
AcDbEntity
  8
AM_5
100
AcDbMText
 10
2837.206078826329
 20
704.5119880999843
 30
0.0
 40
3.0
 41
0.0
 71
     5
 72
     1
  1
66
  7
CHINESET
 73
     1
 44
1.0
1001
ACAD
1000
MTEXTBEGIN
1070
    73
1070
     1
1070
    44
1040
1.0
1070
    74
1070
     0
1000
MTEXTEND
  0
POINT
  5
2C7E
330
26EC
100
AcDbEntity
  8
Defpoints
 62
     0
100
AcDbPoint
 10
2804.206078826329
 20
717.0119880999843
 30
0.0
  0
POINT
  5
2C7F
330
26EC
100
AcDbEntity
  8
Defpoints
 62
     0
100
AcDbPoint
 10
2870.206078826329
 20
717.0119880999843
 30
0.0
  0
POINT
  5
2C80
330
26EC
100
AcDbEntity
  8
Defpoints
 62
     0
100
AcDbPoint
 10
2870.206078826329
 20
702.0119880999843
 30
0.0
  0
ENDBLK
  5
26F7
330
26EC
100
AcDbEntity
  8
0
100
AcDbBlockEnd
  0
BLOCK
  5
2702
330
26F8
100
AcDbEntity
  8
0
100
AcDbBlockBegin
  2
*D38
 70
     1
 10
0.0
 20
0.0
 30
0.0
  3
*D38
  1

  0
LINE
  5
2C81
330
26F8
100
AcDbEntity
  8
AM_5
100
AcDbLine
 10
2795.206078826329
 20
711.2619880999844
 30
0.0
 11
2795.206078826329
 21
690.5119880999828
 31
0.0
  0
LINE
  5
2C82
330
26F8
100
AcDbEntity
  8
AM_5
100
AcDbLine
 10
2879.206078826329
 20
711.2619880999844
 30
0.0
 11
2879.206078826329
 21
690.5119880999828
 31
0.0
  0
LINE
  5
2C83
330
26F8
100
AcDbEntity
  8
AM_5
100
AcDbLine
 10
2798.206078826329
 20
692.0119880999829
 30
0.0
 11
2876.206078826329
 21
692.0119880999829
 31
0.0
  0
SOLID
  5
2C84
330
26F8
100
AcDbEntity
  8
AM_5
100
AcDbTrace
 10
2798.206078826329
 20
692.5119880999829
 30
0.0
 11
2798.206078826329
 21
691.5119880999829
 31
0.0
 12
2795.206078826329
 22
692.0119880999829
 32
0.0
 13
2795.206078826329
 23
692.0119880999829
 33
0.0
  0
SOLID
  5
2C85
330
26F8
100
AcDbEntity
  8
AM_5
100
AcDbTrace
 10
2876.206078826329
 20
692.5119880999829
 30
0.0
 11
2876.206078826329
 21
691.5119880999829
 31
0.0
 12
2879.206078826329
 22
692.0119880999829
 32
0.0
 13
2879.206078826329
 23
692.0119880999829
 33
0.0
  0
MTEXT
  5
2C86
330
26F8
100
AcDbEntity
  8
AM_5
100
AcDbMText
 10
2837.206078826329
 20
694.5119880999828
 30
0.0
 40
3.0
 41
0.0
 71
     5
 72
     1
  1
84
  7
CHINESET
 73
     1
 44
1.0
1001
ACAD
1000
MTEXTBEGIN
1070
    73
1070
     1
1070
    44
1040
1.0
1070
    74
1070
     0
1000
MTEXTEND
  0
POINT
  5
2C87
330
26F8
100
AcDbEntity
  8
Defpoints
 62
     0
100
AcDbPoint
 10
2795.206078826329
 20
712.2619880999843
 30
0.0
  0
POINT
  5
2C88
330
26F8
100
AcDbEntity
  8
Defpoints
 62
     0
100
AcDbPoint
 10
2879.206078826329
 20
712.2619880999843
 30
0.0
  0
POINT
  5
2C89
330
26F8
100
AcDbEntity
  8
Defpoints
 62
     0
100
AcDbPoint
 10
2879.206078826329
 20
692.0119880999829
 30
0.0
  0
ENDBLK
  5
2703
330
26F8
100
AcDbEntity
  8
0
100
AcDbBlockEnd
  0
BLOCK
  5
2776
330
276C
100
AcDbEntity
  8
0
100
AcDbBlockBegin
  2
*D39
 70
     1
 10
0.0
 20
0.0
 30
0.0
  3
*D39
  1

  0
LINE
  5
27ED
330
276C
100
AcDbEntity
  8
AM_5
100
AcDbLine
 10
2879.206173790791
 20
508.9561227128466
 30
0.0
 11
2910.70617379079
 21
508.9561227128466
 31
0.0
  0
LINE
  5
27EE
330
276C
100
AcDbEntity
  8
AM_5
100
AcDbLine
 10
2866.206173790791
 20
606.9561227128466
 30
0.0
 11
2910.70617379079
 21
606.9561227128466
 31
0.0
  0
LINE
  5
27EF
330
276C
100
AcDbEntity
  8
AM_5
100
AcDbLine
 10
2909.20617379079
 20
511.9561227128466
 30
0.0
 11
2909.20617379079
 21
603.9561227128466
 31
0.0
  0
SOLID
  5
27F0
330
276C
100
AcDbEntity
  8
AM_5
100
AcDbTrace
 10
2908.70617379079
 20
511.9561227128466
 30
0.0
 11
2909.706173790791
 21
511.9561227128466
 31
0.0
 12
2909.20617379079
 22
508.9561227128466
 32
0.0
 13
2909.20617379079
 23
508.9561227128466
 33
0.0
  0
SOLID
  5
27F1
330
276C
100
AcDbEntity
  8
AM_5
100
AcDbTrace
 10
2908.70617379079
 20
603.9561227128466
 30
0.0
 11
2909.706173790791
 21
603.9561227128466
 31
0.0
 12
2909.20617379079
 22
606.9561227128466
 32
0.0
 13
2909.20617379079
 23
606.9561227128466
 33
0.0
  0
MTEXT
  5
27F2
330
276C
100
AcDbEntity
  8
AM_5
100
AcDbMText
 10
2906.70617379079
 20
557.9561227128471
 30
0.0
 40
3.0
 41
0.0
 71
     5
 72
     1
  1
98
  7
CHINESET
 11
0.0000000000000001
 21
1.0
 31
0.0
 73
     1
 44
1.0
1001
ACAD
1000
MTEXTBEGIN
1070
    73
1070
     1
1070
    44
1040
1.0
1070
    74
1070
     0
1000
MTEXTEND
  0
POINT
  5
27F3
330
276C
100
AcDbEntity
  8
Defpoints
 62
     0
100
AcDbPoint
 10
2878.20617379079
 20
508.9561227128466
 30
0.0
  0
POINT
  5
27F4
330
276C
100
AcDbEntity
  8
Defpoints
 62
     0
100
AcDbPoint
 10
2865.206173790791
 20
606.9561227128466
 30
0.0
  0
POINT
  5
27F5
330
276C
100
AcDbEntity
  8
Defpoints
 62
     0
100
AcDbPoint
 10
2909.20617379079
 20
606.9561227128466
 30
0.0
  0
ENDBLK
  5
2777
330
276C
100
AcDbEntity
  8
0
100
AcDbBlockEnd
  0
BLOCK
  5
2782
330
2778
100
AcDbEntity
  8
0
100
AcDbBlockBegin
  2
*D40
 70
     1
 10
0.0
 20
0.0
 30
0.0
  3
*D40
  1

  0
LINE
  5
27F6
330
2778
100
AcDbEntity
  8
AM_5
100
AcDbLine
 10
2879.206173790791
 20
508.9561227128466
 30
0.0
 11
2920.706173790791
 21
508.9561227128466
 31
0.0
  0
LINE
  5
27F7
330
2778
100
AcDbEntity
  8
AM_5
100
AcDbLine
 10
2907.20617379079
 20
635.9562033346493
 30
0.0
 11
2920.706173790791
 21
635.9562033346493
 31
0.0
  0
LINE
  5
27F8
330
2778
100
AcDbEntity
  8
AM_5
100
AcDbLine
 10
2919.20617379079
 20
511.9561227128466
 30
0.0
 11
2919.20617379079
 21
632.9562033346493
 31
0.0
  0
SOLID
  5
27F9
330
2778
100
AcDbEntity
  8
AM_5
100
AcDbTrace
 10
2918.70617379079
 20
511.9561227128466
 30
0.0
 11
2919.70617379079
 21
511.9561227128466
 31
0.0
 12
2919.20617379079
 22
508.9561227128466
 32
0.0
 13
2919.20617379079
 23
508.9561227128466
 33
0.0
  0
SOLID
  5
27FA
330
2778
100
AcDbEntity
  8
AM_5
100
AcDbTrace
 10
2918.70617379079
 20
632.9562033346493
 30
0.0
 11
2919.70617379079
 21
632.9562033346493
 31
0.0
 12
2919.20617379079
 22
635.9562033346493
 32
0.0
 13
2919.20617379079
 23
635.9562033346493
 33
0.0
  0
MTEXT
  5
27FB
330
2778
100
AcDbEntity
  8
AM_5
100
AcDbMText
 10
2916.706173790791
 20
572.4561630237484
 30
0.0
 40
3.0
 41
0.0
 71
     5
 72
     1
  1
127
  7
CHINESET
 11
0.0000000000000001
 21
1.0
 31
0.0
 73
     1
 44
1.0
1001
ACAD
1000
MTEXTBEGIN
1070
    73
1070
     1
1070
    44
1040
1.0
1070
    74
1070
     0
1000
MTEXTEND
  0
POINT
  5
27FC
330
2778
100
AcDbEntity
  8
Defpoints
 62
     0
100
AcDbPoint
 10
2878.20617379079
 20
508.9561227128466
 30
0.0
  0
POINT
  5
27FD
330
2778
100
AcDbEntity
  8
Defpoints
 62
     0
100
AcDbPoint
 10
2906.206173790791
 20
635.9562033346493
 30
0.0
  0
POINT
  5
27FE
330
2778
100
AcDbEntity
  8
Defpoints
 62
     0
100
AcDbPoint
 10
2919.20617379079
 20
635.9562033346493
 30
0.0
  0
ENDBLK
  5
2783
330
2778
100
AcDbEntity
  8
0
100
AcDbBlockEnd
  0
BLOCK
  5
278E
330
2784
100
AcDbEntity
  8
0
100
AcDbBlockBegin
  2
*D41
 70
     1
 10
0.0
 20
0.0
 30
0.0
  3
*D41
  1

  0
LINE
  5
27D2
330
2784
100
AcDbEntity
  8
AM_5
100
AcDbLine
 10
2795.20617379079
 20
526.9561227128467
 30
0.0
 11
2780.95304524724
 21
526.9561227128467
 31
0.0
  0
LINE
  5
27D3
330
2784
100
AcDbEntity
  8
AM_5
100
AcDbLine
 10
2795.20617379079
 20
508.9561227128467
 30
0.0
 11
2780.95304524724
 21
508.9561227128467
 31
0.0
  0
LINE
  5
27D4
330
2784
100
AcDbEntity
  8
AM_5
100
AcDbLine
 10
2782.45304524724
 20
523.9561227128468
 30
0.0
 11
2782.45304524724
 21
511.9561227128468
 31
0.0
  0
SOLID
  5
27D5
330
2784
100
AcDbEntity
  8
AM_5
100
AcDbTrace
 10
2781.95304524724
 20
523.9561227128468
 30
0.0
 11
2782.95304524724
 21
523.9561227128468
 31
0.0
 12
2782.45304524724
 22
526.9561227128467
 32
0.0
 13
2782.45304524724
 23
526.9561227128467
 33
0.0
  0
SOLID
  5
27D6
330
2784
100
AcDbEntity
  8
AM_5
100
AcDbTrace
 10
2781.95304524724
 20
511.9561227128468
 30
0.0
 11
2782.95304524724
 21
511.9561227128468
 31
0.0
 12
2782.45304524724
 22
508.9561227128467
 32
0.0
 13
2782.45304524724
 23
508.9561227128467
 33
0.0
  0
MTEXT
  5
27D7
330
2784
100
AcDbEntity
  8
AM_5
100
AcDbMText
 10
2779.95304524724
 20
517.9561227128472
 30
0.0
 40
3.0
 41
0.0
 71
     5
 72
     1
  1
18
  7
CHINESET
 11
0.0000000000000001
 21
1.0
 31
0.0
 73
     1
 44
1.0
1001
ACAD
1000
MTEXTBEGIN
1070
    73
1070
     1
1070
    44
1040
1.0
1070
    74
1070
     0
1000
MTEXTEND
  0
POINT
  5
27D8
330
2784
100
AcDbEntity
  8
Defpoints
 62
     0
100
AcDbPoint
 10
2796.20617379079
 20
526.9561227128467
 30
0.0
  0
POINT
  5
27D9
330
2784
100
AcDbEntity
  8
Defpoints
 62
     0
100
AcDbPoint
 10
2796.20617379079
 20
508.9561227128467
 30
0.0
  0
POINT
  5
27DA
330
2784
100
AcDbEntity
  8
Defpoints
 62
     0
100
AcDbPoint
 10
2782.45304524724
 20
508.9561227128467
 30
0.0
  0
ENDBLK
  5
278F
330
2784
100
AcDbEntity
  8
0
100
AcDbBlockEnd
  0
BLOCK
  5
279A
330
2790
100
AcDbEntity
  8
0
100
AcDbBlockBegin
  2
*D42
 70
     1
 10
0.0
 20
0.0
 30
0.0
  3
*D42
  1

  0
LINE
  5
2808
330
2790
100
AcDbEntity
  8
AM_5
100
AcDbLine
 10
2907.20617379079
 20
660.9562033346493
 30
0.0
 11
2920.706173790791
 21
660.9562033346493
 31
0.0
  0
LINE
  5
2809
330
2790
100
AcDbEntity
  8
AM_5
100
AcDbLine
 10
2907.20617379079
 20
635.9562033346493
 30
0.0
 11
2920.706173790791
 21
635.9562033346493
 31
0.0
  0
LINE
  5
280A
330
2790
100
AcDbEntity
  8
AM_5
100
AcDbLine
 10
2919.20617379079
 20
657.9562033346493
 30
0.0
 11
2919.20617379079
 21
638.9562033346493
 31
0.0
  0
SOLID
  5
280B
330
2790
100
AcDbEntity
  8
AM_5
100
AcDbTrace
 10
2918.70617379079
 20
657.9562033346493
 30
0.0
 11
2919.70617379079
 21
657.9562033346493
 31
0.0
 12
2919.20617379079
 22
660.9562033346493
 32
0.0
 13
2919.20617379079
 23
660.9562033346493
 33
0.0
  0
SOLID
  5
280C
330
2790
100
AcDbEntity
  8
AM_5
100
AcDbTrace
 10
2918.70617379079
 20
638.9562033346493
 30
0.0
 11
2919.70617379079
 21
638.9562033346493
 31
0.0
 12
2919.20617379079
 22
635.9562033346493
 32
0.0
 13
2919.20617379079
 23
635.9562033346493
 33
0.0
  0
MTEXT
  5
280D
330
2790
100
AcDbEntity
  8
AM_5
100
AcDbMText
 10
2916.706173790791
 20
648.4562033346498
 30
0.0
 40
3.0
 41
0.0
 71
     5
 72
     1
  1
25
  7
CHINESET
 11
0.0000000000000001
 21
1.0
 31
0.0
 73
     1
 44
1.0
1001
ACAD
1000
MTEXTBEGIN
1070
    73
1070
     1
1070
    44
1040
1.0
1070
    74
1070
     0
1000
MTEXTEND
  0
POINT
  5
280E
330
2790
100
AcDbEntity
  8
Defpoints
 62
     0
100
AcDbPoint
 10
2906.206173790791
 20
660.9562033346493
 30
0.0
  0
POINT
  5
280F
330
2790
100
AcDbEntity
  8
Defpoints
 62
     0
100
AcDbPoint
 10
2906.206173790791
 20
635.9562033346493
 30
0.0
  0
POINT
  5
2810
330
2790
100
AcDbEntity
  8
Defpoints
 62
     0
100
AcDbPoint
 10
2919.20617379079
 20
635.9562033346493
 30
0.0
  0
ENDBLK
  5
279B
330
2790
100
AcDbEntity
  8
0
100
AcDbBlockEnd
  0
BLOCK
  5
2938
330
292E
100
AcDbEntity
  8
0
100
AcDbBlockBegin
  2
*D43
 70
     1
 10
0.0
 20
0.0
 30
0.0
  3
*D43
  1

  0
LINE
  5
2BAE
330
292E
100
AcDbEntity
  8
AM_5
100
AcDbLine
 10
2879.206173790791
 20
131.9418999801223
 30
0.0
 11
2910.70617379079
 21
131.9418999801223
 31
0.0
  0
LINE
  5
2BAF
330
292E
100
AcDbEntity
  8
AM_5
100
AcDbLine
 10
2866.206173790791
 20
229.9418999801223
 30
0.0
 11
2910.70617379079
 21
229.9418999801223
 31
0.0
  0
LINE
  5
2BB0
330
292E
100
AcDbEntity
  8
AM_5
100
AcDbLine
 10
2909.20617379079
 20
134.9418999801223
 30
0.0
 11
2909.20617379079
 21
226.9418999801223
 31
0.0
  0
SOLID
  5
2BB1
330
292E
100
AcDbEntity
  8
AM_5
100
AcDbTrace
 10
2908.70617379079
 20
134.9418999801223
 30
0.0
 11
2909.706173790791
 21
134.9418999801223
 31
0.0
 12
2909.20617379079
 22
131.9418999801223
 32
0.0
 13
2909.20617379079
 23
131.9418999801223
 33
0.0
  0
SOLID
  5
2BB2
330
292E
100
AcDbEntity
  8
AM_5
100
AcDbTrace
 10
2908.70617379079
 20
226.9418999801223
 30
0.0
 11
2909.706173790791
 21
226.9418999801223
 31
0.0
 12
2909.20617379079
 22
229.9418999801223
 32
0.0
 13
2909.20617379079
 23
229.9418999801223
 33
0.0
  0
MTEXT
  5
2BB3
330
292E
100
AcDbEntity
  8
AM_5
100
AcDbMText
 10
2906.70617379079
 20
180.9418999801228
 30
0.0
 40
3.0
 41
0.0
 71
     5
 72
     1
  1
98
  7
CHINESET
 11
0.0000000000000001
 21
1.0
 31
0.0
 73
     1
 44
1.0
1001
ACAD
1000
MTEXTBEGIN
1070
    73
1070
     1
1070
    44
1040
1.0
1070
    74
1070
     0
1000
MTEXTEND
  0
POINT
  5
2BB4
330
292E
100
AcDbEntity
  8
Defpoints
 62
     0
100
AcDbPoint
 10
2878.20617379079
 20
131.9418999801223
 30
0.0
  0
POINT
  5
2BB5
330
292E
100
AcDbEntity
  8
Defpoints
 62
     0
100
AcDbPoint
 10
2865.206173790791
 20
229.9418999801223
 30
0.0
  0
POINT
  5
2BB6
330
292E
100
AcDbEntity
  8
Defpoints
 62
     0
100
AcDbPoint
 10
2909.20617379079
 20
229.9418999801223
 30
0.0
  0
ENDBLK
  5
2939
330
292E
100
AcDbEntity
  8
0
100
AcDbBlockEnd
  0
BLOCK
  5
2944
330
293A
100
AcDbEntity
  8
0
100
AcDbBlockBegin
  2
*D44
 70
     1
 10
0.0
 20
0.0
 30
0.0
  3
*D44
  1

  0
LINE
  5
2BB7
330
293A
100
AcDbEntity
  8
AM_5
100
AcDbLine
 10
2879.206173790791
 20
131.9418999801223
 30
0.0
 11
2920.706173790791
 21
131.9418999801223
 31
0.0
  0
LINE
  5
2BB8
330
293A
100
AcDbEntity
  8
AM_5
100
AcDbLine
 10
2907.20617379079
 20
258.941980601925
 30
0.0
 11
2920.706173790791
 21
258.941980601925
 31
0.0
  0
LINE
  5
2BB9
330
293A
100
AcDbEntity
  8
AM_5
100
AcDbLine
 10
2919.20617379079
 20
134.9418999801223
 30
0.0
 11
2919.20617379079
 21
255.941980601925
 31
0.0
  0
SOLID
  5
2BBA
330
293A
100
AcDbEntity
  8
AM_5
100
AcDbTrace
 10
2918.70617379079
 20
134.9418999801223
 30
0.0
 11
2919.70617379079
 21
134.9418999801223
 31
0.0
 12
2919.20617379079
 22
131.9418999801223
 32
0.0
 13
2919.20617379079
 23
131.9418999801223
 33
0.0
  0
SOLID
  5
2BBB
330
293A
100
AcDbEntity
  8
AM_5
100
AcDbTrace
 10
2918.70617379079
 20
255.941980601925
 30
0.0
 11
2919.70617379079
 21
255.941980601925
 31
0.0
 12
2919.20617379079
 22
258.941980601925
 32
0.0
 13
2919.20617379079
 23
258.941980601925
 33
0.0
  0
MTEXT
  5
2BBC
330
293A
100
AcDbEntity
  8
AM_5
100
AcDbMText
 10
2916.706173790791
 20
195.4419402910241
 30
0.0
 40
3.0
 41
0.0
 71
     5
 72
     1
  1
127
  7
CHINESET
 11
0.0000000000000001
 21
1.0
 31
0.0
 73
     1
 44
1.0
1001
ACAD
1000
MTEXTBEGIN
1070
    73
1070
     1
1070
    44
1040
1.0
1070
    74
1070
     0
1000
MTEXTEND
  0
POINT
  5
2BBD
330
293A
100
AcDbEntity
  8
Defpoints
 62
     0
100
AcDbPoint
 10
2878.20617379079
 20
131.9418999801223
 30
0.0
  0
POINT
  5
2BBE
330
293A
100
AcDbEntity
  8
Defpoints
 62
     0
100
AcDbPoint
 10
2906.206173790791
 20
258.941980601925
 30
0.0
  0
POINT
  5
2BBF
330
293A
100
AcDbEntity
  8
Defpoints
 62
     0
100
AcDbPoint
 10
2919.20617379079
 20
258.941980601925
 30
0.0
  0
ENDBLK
  5
2945
330
293A
100
AcDbEntity
  8
0
100
AcDbBlockEnd
  0
BLOCK
  5
2950
330
2946
100
AcDbEntity
  8
0
100
AcDbBlockBegin
  2
*D45
 70
     1
 10
0.0
 20
0.0
 30
0.0
  3
*D45
  1

  0
LINE
  5
2BC0
330
2946
100
AcDbEntity
  8
AM_5
100
AcDbLine
 10
2907.20617379079
 20
283.941980601925
 30
0.0
 11
2920.706173790791
 21
283.941980601925
 31
0.0
  0
LINE
  5
2BC1
330
2946
100
AcDbEntity
  8
AM_5
100
AcDbLine
 10
2907.20617379079
 20
258.941980601925
 30
0.0
 11
2920.706173790791
 21
258.941980601925
 31
0.0
  0
LINE
  5
2BC2
330
2946
100
AcDbEntity
  8
AM_5
100
AcDbLine
 10
2919.20617379079
 20
280.941980601925
 30
0.0
 11
2919.20617379079
 21
261.941980601925
 31
0.0
  0
SOLID
  5
2BC3
330
2946
100
AcDbEntity
  8
AM_5
100
AcDbTrace
 10
2918.70617379079
 20
280.941980601925
 30
0.0
 11
2919.70617379079
 21
280.941980601925
 31
0.0
 12
2919.20617379079
 22
283.941980601925
 32
0.0
 13
2919.20617379079
 23
283.941980601925
 33
0.0
  0
SOLID
  5
2BC4
330
2946
100
AcDbEntity
  8
AM_5
100
AcDbTrace
 10
2918.70617379079
 20
261.941980601925
 30
0.0
 11
2919.70617379079
 21
261.941980601925
 31
0.0
 12
2919.20617379079
 22
258.941980601925
 32
0.0
 13
2919.20617379079
 23
258.941980601925
 33
0.0
  0
MTEXT
  5
2BC5
330
2946
100
AcDbEntity
  8
AM_5
100
AcDbMText
 10
2916.706173790791
 20
271.4419806019255
 30
0.0
 40
3.0
 41
0.0
 71
     5
 72
     1
  1
25
  7
CHINESET
 11
0.0000000000000001
 21
1.0
 31
0.0
 73
     1
 44
1.0
1001
ACAD
1000
MTEXTBEGIN
1070
    73
1070
     1
1070
    44
1040
1.0
1070
    74
1070
     0
1000
MTEXTEND
  0
POINT
  5
2BC6
330
2946
100
AcDbEntity
  8
Defpoints
 62
     0
100
AcDbPoint
 10
2906.206173790791
 20
283.941980601925
 30
0.0
  0
POINT
  5
2BC7
330
2946
100
AcDbEntity
  8
Defpoints
 62
     0
100
AcDbPoint
 10
2906.206173790791
 20
258.941980601925
 30
0.0
  0
POINT
  5
2BC8
330
2946
100
AcDbEntity
  8
Defpoints
 62
     0
100
AcDbPoint
 10
2919.20617379079
 20
258.941980601925
 30
0.0
  0
ENDBLK
  5
2951
330
2946
100
AcDbEntity
  8
0
100
AcDbBlockEnd
  0
BLOCK
  5
2978
330
296E
100
AcDbEntity
  8
0
100
AcDbBlockBegin
  2
*D46
 70
     1
 10
0.0
 20
0.0
 30
0.0
  3
*D46
  1

  0
LINE
  5
2BC9
330
296E
100
AcDbEntity
  8
AM_5
100
AcDbLine
 10
2795.20617379079
 20
149.9418999801224
 30
0.0
 11
2780.95304524724
 21
149.9418999801224
 31
0.0
  0
LINE
  5
2BCA
330
296E
100
AcDbEntity
  8
AM_5
100
AcDbLine
 10
2795.20617379079
 20
131.9418999801224
 30
0.0
 11
2780.95304524724
 21
131.9418999801224
 31
0.0
  0
LINE
  5
2BCB
330
296E
100
AcDbEntity
  8
AM_5
100
AcDbLine
 10
2782.45304524724
 20
146.9418999801224
 30
0.0
 11
2782.45304524724
 21
134.9418999801224
 31
0.0
  0
SOLID
  5
2BCC
330
296E
100
AcDbEntity
  8
AM_5
100
AcDbTrace
 10
2781.95304524724
 20
146.9418999801224
 30
0.0
 11
2782.95304524724
 21
146.9418999801224
 31
0.0
 12
2782.45304524724
 22
149.9418999801224
 32
0.0
 13
2782.45304524724
 23
149.9418999801224
 33
0.0
  0
SOLID
  5
2BCD
330
296E
100
AcDbEntity
  8
AM_5
100
AcDbTrace
 10
2781.95304524724
 20
134.9418999801224
 30
0.0
 11
2782.95304524724
 21
134.9418999801224
 31
0.0
 12
2782.45304524724
 22
131.9418999801224
 32
0.0
 13
2782.45304524724
 23
131.9418999801224
 33
0.0
  0
MTEXT
  5
2BCE
330
296E
100
AcDbEntity
  8
AM_5
100
AcDbMText
 10
2779.95304524724
 20
140.9418999801229
 30
0.0
 40
3.0
 41
0.0
 71
     5
 72
     1
  1
18
  7
CHINESET
 11
0.0000000000000001
 21
1.0
 31
0.0
 73
     1
 44
1.0
1001
ACAD
1000
MTEXTBEGIN
1070
    73
1070
     1
1070
    44
1040
1.0
1070
    74
1070
     0
1000
MTEXTEND
  0
POINT
  5
2BCF
330
296E
100
AcDbEntity
  8
Defpoints
 62
     0
100
AcDbPoint
 10
2796.20617379079
 20
149.9418999801224
 30
0.0
  0
POINT
  5
2BD0
330
296E
100
AcDbEntity
  8
Defpoints
 62
     0
100
AcDbPoint
 10
2796.20617379079
 20
131.9418999801224
 30
0.0
  0
POINT
  5
2BD1
330
296E
100
AcDbEntity
  8
Defpoints
 62
     0
100
AcDbPoint
 10
2782.45304524724
 20
131.9418999801224
 30
0.0
  0
ENDBLK
  5
2979
330
296E
100
AcDbEntity
  8
0
100
AcDbBlockEnd
  0
BLOCK
  5
298F
330
2985
100
AcDbEntity
  8
0
100
AcDbBlockBegin
  2
*D47
 70
     1
 10
0.0
 20
0.0
 30
0.0
  3
*D47
  1

  0
LINE
  5
2CB4
330
2985
100
AcDbEntity
  8
AM_5
100
AcDbLine
 10
2804.205983861868
 20
348.4926432538065
 30
0.0
 11
2804.205983861868
 21
332.9926432538065
 31
0.0
  0
LINE
  5
2CB5
330
2985
100
AcDbEntity
  8
AM_5
100
AcDbLine
 10
2870.205983861868
 20
348.4926432538065
 30
0.0
 11
2870.205983861868
 21
332.9926432538065
 31
0.0
  0
LINE
  5
2CB6
330
2985
100
AcDbEntity
  8
AM_5
100
AcDbLine
 10
2807.205983861868
 20
334.4926432538065
 30
0.0
 11
2867.205983861868
 21
334.4926432538065
 31
0.0
  0
SOLID
  5
2CB7
330
2985
100
AcDbEntity
  8
AM_5
100
AcDbTrace
 10
2807.205983861868
 20
334.9926432538065
 30
0.0
 11
2807.205983861868
 21
333.9926432538065
 31
0.0
 12
2804.205983861868
 22
334.4926432538065
 32
0.0
 13
2804.205983861868
 23
334.4926432538065
 33
0.0
  0
SOLID
  5
2CB8
330
2985
100
AcDbEntity
  8
AM_5
100
AcDbTrace
 10
2867.205983861868
 20
334.9926432538065
 30
0.0
 11
2867.205983861868
 21
333.9926432538065
 31
0.0
 12
2870.205983861868
 22
334.4926432538065
 32
0.0
 13
2870.205983861868
 23
334.4926432538065
 33
0.0
  0
MTEXT
  5
2CB9
330
2985
100
AcDbEntity
  8
AM_5
100
AcDbMText
 10
2837.205983861868
 20
336.9926432538065
 30
0.0
 40
3.0
 41
0.0
 71
     5
 72
     1
  1
66
  7
CHINESET
 73
     1
 44
1.0
1001
ACAD
1000
MTEXTBEGIN
1070
    73
1070
     1
1070
    44
1040
1.0
1070
    74
1070
     0
1000
MTEXTEND
  0
POINT
  5
2CBA
330
2985
100
AcDbEntity
  8
Defpoints
 62
     0
100
AcDbPoint
 10
2804.205983861868
 20
349.4926432538065
 30
0.0
  0
POINT
  5
2CBB
330
2985
100
AcDbEntity
  8
Defpoints
 62
     0
100
AcDbPoint
 10
2870.205983861868
 20
349.4926432538065
 30
0.0
  0
POINT
  5
2CBC
330
2985
100
AcDbEntity
  8
Defpoints
 62
     0
100
AcDbPoint
 10
2870.205983861868
 20
334.4926432538065
 30
0.0
  0
ENDBLK
  5
2990
330
2985
100
AcDbEntity
  8
0
100
AcDbBlockEnd
  0
BLOCK
  5
299B
330
2991
100
AcDbEntity
  8
0
100
AcDbBlockBegin
  2
*D48
 70
     1
 10
0.0
 20
0.0
 30
0.0
  3
*D48
  1

  0
LINE
  5
2CBD
330
2991
100
AcDbEntity
  8
AM_5
100
AcDbLine
 10
2795.205983861868
 20
343.7426432538065
 30
0.0
 11
2795.205983861868
 21
322.992643253805
 31
0.0
  0
LINE
  5
2CBE
330
2991
100
AcDbEntity
  8
AM_5
100
AcDbLine
 10
2879.205983861868
 20
343.7426432538065
 30
0.0
 11
2879.205983861868
 21
322.992643253805
 31
0.0
  0
LINE
  5
2CBF
330
2991
100
AcDbEntity
  8
AM_5
100
AcDbLine
 10
2798.205983861868
 20
324.492643253805
 30
0.0
 11
2876.205983861868
 21
324.492643253805
 31
0.0
  0
SOLID
  5
2CC0
330
2991
100
AcDbEntity
  8
AM_5
100
AcDbTrace
 10
2798.205983861868
 20
324.992643253805
 30
0.0
 11
2798.205983861868
 21
323.992643253805
 31
0.0
 12
2795.205983861868
 22
324.492643253805
 32
0.0
 13
2795.205983861868
 23
324.492643253805
 33
0.0
  0
SOLID
  5
2CC1
330
2991
100
AcDbEntity
  8
AM_5
100
AcDbTrace
 10
2876.205983861868
 20
324.992643253805
 30
0.0
 11
2876.205983861868
 21
323.992643253805
 31
0.0
 12
2879.205983861868
 22
324.492643253805
 32
0.0
 13
2879.205983861868
 23
324.492643253805
 33
0.0
  0
MTEXT
  5
2CC2
330
2991
100
AcDbEntity
  8
AM_5
100
AcDbMText
 10
2837.205983861868
 20
326.992643253805
 30
0.0
 40
3.0
 41
0.0
 71
     5
 72
     1
  1
84
  7
CHINESET
 73
     1
 44
1.0
1001
ACAD
1000
MTEXTBEGIN
1070
    73
1070
     1
1070
    44
1040
1.0
1070
    74
1070
     0
1000
MTEXTEND
  0
POINT
  5
2CC3
330
2991
100
AcDbEntity
  8
Defpoints
 62
     0
100
AcDbPoint
 10
2795.205983861868
 20
344.7426432538065
 30
0.0
  0
POINT
  5
2CC4
330
2991
100
AcDbEntity
  8
Defpoints
 62
     0
100
AcDbPoint
 10
2879.205983861868
 20
344.7426432538065
 30
0.0
  0
POINT
  5
2CC5
330
2991
100
AcDbEntity
  8
Defpoints
 62
     0
100
AcDbPoint
 10
2879.205983861868
 20
324.492643253805
 30
0.0
  0
ENDBLK
  5
299C
330
2991
100
AcDbEntity
  8
0
100
AcDbBlockEnd
  0
BLOCK
  5
29BB
330
29B1
100
AcDbEntity
  8
0
100
AcDbBlockBegin
  2
*D49
 70
     1
 10
0.0
 20
0.0
 30
0.0
  3
*D49
  1

  0
LINE
  5
2CC6
330
29B1
100
AcDbEntity
  8
AM_5
100
AcDbLine
 10
2879.247744863575
 20
343.7426432538065
 30
0.0
 11
2930.706078826329
 21
343.7426432538065
 31
0.0
  0
LINE
  5
2CC7
330
29B1
100
AcDbEntity
  8
AM_5
100
AcDbLine
 10
2879.206078826329
 20
407.7426432538064
 30
0.0
 11
2930.706078826329
 21
407.7426432538064
 31
0.0
  0
LINE
  5
2CC8
330
29B1
100
AcDbEntity
  8
AM_5
100
AcDbLine
 10
2929.206078826329
 20
346.7426432538065
 30
0.0
 11
2929.206078826329
 21
404.7426432538064
 31
0.0
  0
SOLID
  5
2CC9
330
29B1
100
AcDbEntity
  8
AM_5
100
AcDbTrace
 10
2928.70607882633
 20
346.7426432538065
 30
0.0
 11
2929.70607882633
 21
346.7426432538065
 31
0.0
 12
2929.206078826329
 22
343.7426432538065
 32
0.0
 13
2929.206078826329
 23
343.7426432538065
 33
0.0
  0
SOLID
  5
2CCA
330
29B1
100
AcDbEntity
  8
AM_5
100
AcDbTrace
 10
2928.70607882633
 20
404.7426432538064
 30
0.0
 11
2929.70607882633
 21
404.7426432538064
 31
0.0
 12
2929.206078826329
 22
407.7426432538064
 32
0.0
 13
2929.206078826329
 23
407.7426432538064
 33
0.0
  0
MTEXT
  5
2CCB
330
29B1
100
AcDbEntity
  8
AM_5
100
AcDbMText
 10
2926.70607882633
 20
375.7426432538069
 30
0.0
 40
3.0
 41
0.0
 71
     5
 72
     1
  1
64
  7
CHINESET
 11
0.0000000000000001
 21
1.0
 31
0.0
 73
     1
 44
1.0
1001
ACAD
1000
MTEXTBEGIN
1070
    73
1070
     1
1070
    44
1040
1.0
1070
    74
1070
     0
1000
MTEXTEND
  0
POINT
  5
2CCC
330
29B1
100
AcDbEntity
  8
Defpoints
 62
     0
100
AcDbPoint
 10
2878.247744863575
 20
343.7426432538065
 30
0.0
  0
POINT
  5
2CCD
330
29B1
100
AcDbEntity
  8
Defpoints
 62
     0
100
AcDbPoint
 10
2878.206078826329
 20
407.7426432538064
 30
0.0
  0
POINT
  5
2CCE
330
29B1
100
AcDbEntity
  8
Defpoints
 62
     0
100
AcDbPoint
 10
2929.206078826329
 20
407.7426432538064
 30
0.0
  0
ENDBLK
  5
29BC
330
29B1
100
AcDbEntity
  8
0
100
AcDbBlockEnd
  0
BLOCK
  5
29C7
330
29BD
100
AcDbEntity
  8
0
100
AcDbBlockBegin
  2
*D50
 70
     1
 10
0.0
 20
0.0
 30
0.0
  3
*D50
  1

  0
LINE
  5
2CCF
330
29BD
100
AcDbEntity
  8
AM_5
100
AcDbLine
 10
2877.456078826329
 20
355.7426432538065
 30
0.0
 11
2920.706078826329
 21
355.7426432538065
 31
0.0
  0
LINE
  5
2CD0
330
29BD
100
AcDbEntity
  8
AM_5
100
AcDbLine
 10
2877.456078826329
 20
395.7426432538065
 30
0.0
 11
2920.706078826329
 21
395.7426432538065
 31
0.0
  0
LINE
  5
2CD1
330
29BD
100
AcDbEntity
  8
AM_5
100
AcDbLine
 10
2919.206078826329
 20
358.7426432538065
 30
0.0
 11
2919.206078826329
 21
392.7426432538065
 31
0.0
  0
SOLID
  5
2CD2
330
29BD
100
AcDbEntity
  8
AM_5
100
AcDbTrace
 10
2918.70607882633
 20
358.7426432538065
 30
0.0
 11
2919.70607882633
 21
358.7426432538065
 31
0.0
 12
2919.206078826329
 22
355.7426432538065
 32
0.0
 13
2919.206078826329
 23
355.7426432538065
 33
0.0
  0
SOLID
  5
2CD3
330
29BD
100
AcDbEntity
  8
AM_5
100
AcDbTrace
 10
2918.70607882633
 20
392.7426432538065
 30
0.0
 11
2919.70607882633
 21
392.7426432538065
 31
0.0
 12
2919.206078826329
 22
395.7426432538065
 32
0.0
 13
2919.206078826329
 23
395.7426432538065
 33
0.0
  0
MTEXT
  5
2CD4
330
29BD
100
AcDbEntity
  8
AM_5
100
AcDbMText
 10
2916.706078826329
 20
375.7426432538069
 30
0.0
 40
3.0
 41
0.0
 71
     5
 72
     1
  1
40
  7
CHINESET
 11
0.0000000000000001
 21
1.0
 31
0.0
 73
     1
 44
1.0
1001
ACAD
1000
MTEXTBEGIN
1070
    73
1070
     1
1070
    44
1040
1.0
1070
    74
1070
     0
1000
MTEXTEND
  0
POINT
  5
2CD5
330
29BD
100
AcDbEntity
  8
Defpoints
 62
     0
100
AcDbPoint
 10
2876.456078826329
 20
355.7426432538065
 30
0.0
  0
POINT
  5
2CD6
330
29BD
100
AcDbEntity
  8
Defpoints
 62
     0
100
AcDbPoint
 10
2876.456078826329
 20
395.7426432538065
 30
0.0
  0
POINT
  5
2CD7
330
29BD
100
AcDbEntity
  8
Defpoints
 62
     0
100
AcDbPoint
 10
2919.206078826329
 20
395.7426432538065
 30
0.0
  0
ENDBLK
  5
29C8
330
29BD
100
AcDbEntity
  8
0
100
AcDbBlockEnd
  0
BLOCK
  5
2ACC
330
2AC2
100
AcDbEntity
  8
0
100
AcDbBlockBegin
  2
*D51
 70
     1
 10
0.0
 20
0.0
 30
0.0
  3
*D51
  1

  0
LINE
  5
2AD0
330
2AC2
100
AcDbEntity
  8
AM_5
100
AcDbLine
 10
2050.871318514503
 20
654.9561227128467
 30
0.0
 11
2050.871318514503
 21
667.4561227128467
 31
0.0
  0
LINE
  5
2AD1
330
2AC2
100
AcDbEntity
  8
AM_5
100
AcDbLine
 10
2150.871318514503
 20
654.9561227128467
 30
0.0
 11
2150.871318514503
 21
667.4561227128467
 31
0.0
  0
LINE
  5
2AD2
330
2AC2
100
AcDbEntity
  8
AM_5
100
AcDbLine
 10
2053.871318514503
 20
665.9561227128468
 30
0.0
 11
2147.871318514503
 21
665.9561227128468
 31
0.0
  0
SOLID
  5
2AD3
330
2AC2
100
AcDbEntity
  8
AM_5
100
AcDbTrace
 10
2053.871318514503
 20
666.4561227128467
 30
0.0
 11
2053.871318514503
 21
665.4561227128468
 31
0.0
 12
2050.871318514503
 22
665.9561227128468
 32
0.0
 13
2050.871318514503
 23
665.9561227128468
 33
0.0
  0
SOLID
  5
2AD4
330
2AC2
100
AcDbEntity
  8
AM_5
100
AcDbTrace
 10
2147.871318514503
 20
666.4561227128467
 30
0.0
 11
2147.871318514503
 21
665.4561227128468
 31
0.0
 12
2150.871318514503
 22
665.9561227128468
 32
0.0
 13
2150.871318514503
 23
665.9561227128468
 33
0.0
  0
MTEXT
  5
2AD5
330
2AC2
100
AcDbEntity
  8
AM_5
100
AcDbMText
 10
2100.871318514503
 20
668.4561227128467
 30
0.0
 40
3.0
 41
0.0
 71
     5
 72
     1
  1
100
  7
CHINESET
 73
     1
 44
1.0
1001
ACAD
1000
MTEXTBEGIN
1070
    73
1070
     1
1070
    44
1040
1.0
1070
    74
1070
     0
1000
MTEXTEND
  0
POINT
  5
2AD6
330
2AC2
100
AcDbEntity
  8
Defpoints
 62
     0
100
AcDbPoint
 10
2050.871318514503
 20
653.9561227128467
 30
0.0
  0
POINT
  5
2AD7
330
2AC2
100
AcDbEntity
  8
Defpoints
 62
     0
100
AcDbPoint
 10
2150.871318514503
 20
653.9561227128467
 30
0.0
  0
POINT
  5
2AD8
330
2AC2
100
AcDbEntity
  8
Defpoints
 62
     0
100
AcDbPoint
 10
2150.871318514503
 20
665.9561227128468
 30
0.0
  0
ENDBLK
  5
2ACD
330
2AC2
100
AcDbEntity
  8
0
100
AcDbBlockEnd
  0
BLOCK
  5
2AE9
330
2ADF
100
AcDbEntity
  8
0
100
AcDbBlockBegin
  2
*D52
 70
     1
 10
0.0
 20
0.0
 30
0.0
  3
*D52
  1

  0
LINE
  5
2BF6
330
2ADF
100
AcDbEntity
  8
AM_5
100
AcDbLine
 10
2050.912984551748
 20
284.9418999801224
 30
0.0
 11
2050.912984551748
 21
297.4418999801224
 31
0.0
  0
LINE
  5
2BF7
330
2ADF
100
AcDbEntity
  8
AM_5
100
AcDbLine
 10
2150.912984551748
 20
284.9418999801224
 30
0.0
 11
2150.912984551748
 21
297.4418999801224
 31
0.0
  0
LINE
  5
2BF8
330
2ADF
100
AcDbEntity
  8
AM_5
100
AcDbLine
 10
2053.912984551748
 20
295.9418999801225
 30
0.0
 11
2147.912984551748
 21
295.9418999801225
 31
0.0
  0
SOLID
  5
2BF9
330
2ADF
100
AcDbEntity
  8
AM_5
100
AcDbTrace
 10
2053.912984551748
 20
296.4418999801225
 30
0.0
 11
2053.912984551748
 21
295.4418999801224
 31
0.0
 12
2050.912984551748
 22
295.9418999801225
 32
0.0
 13
2050.912984551748
 23
295.9418999801225
 33
0.0
  0
SOLID
  5
2BFA
330
2ADF
100
AcDbEntity
  8
AM_5
100
AcDbTrace
 10
2147.912984551748
 20
296.4418999801225
 30
0.0
 11
2147.912984551748
 21
295.4418999801224
 31
0.0
 12
2150.912984551748
 22
295.9418999801225
 32
0.0
 13
2150.912984551748
 23
295.9418999801225
 33
0.0
  0
MTEXT
  5
2BFB
330
2ADF
100
AcDbEntity
  8
AM_5
100
AcDbMText
 10
2100.912984551748
 20
298.4418999801225
 30
0.0
 40
3.0
 41
0.0
 71
     5
 72
     1
  1
100
  7
CHINESET
 73
     1
 44
1.0
1001
ACAD
1000
MTEXTBEGIN
1070
    73
1070
     1
1070
    44
1040
1.0
1070
    74
1070
     0
1000
MTEXTEND
  0
POINT
  5
2BFC
330
2ADF
100
AcDbEntity
  8
Defpoints
 62
     0
100
AcDbPoint
 10
2050.912984551748
 20
283.9418999801225
 30
0.0
  0
POINT
  5
2BFD
330
2ADF
100
AcDbEntity
  8
Defpoints
 62
     0
100
AcDbPoint
 10
2150.912984551748
 20
283.9418999801225
 30
0.0
  0
POINT
  5
2BFE
330
2ADF
100
AcDbEntity
  8
Defpoints
 62
     0
100
AcDbPoint
 10
2150.912984551748
 20
295.9418999801225
 30
0.0
  0
ENDBLK
  5
2AEA
330
2ADF
100
AcDbEntity
  8
0
100
AcDbBlockEnd
  0
BLOCK
  5
2AF8
330
2AEE
100
AcDbEntity
  8
0
100
AcDbBlockBegin
  2
*D53
 70
     1
 10
0.0
 20
0.0
 30
0.0
  3
*D53
  1

  0
LINE
  5
2BFF
330
2AEE
100
AcDbEntity
  8
AM_5
100
AcDbLine
 10
2413.840300934328
 20
286.9418999801224
 30
0.0
 11
2413.840300934328
 21
299.4418999801224
 31
0.0
  0
LINE
  5
2C00
330
2AEE
100
AcDbEntity
  8
AM_5
100
AcDbLine
 10
2533.840300934328
 20
286.9418999801224
 30
0.0
 11
2533.840300934328
 21
299.4418999801224
 31
0.0
  0
LINE
  5
2C01
330
2AEE
100
AcDbEntity
  8
AM_5
100
AcDbLine
 10
2416.840300934328
 20
297.9418999801225
 30
0.0
 11
2530.840300934328
 21
297.9418999801225
 31
0.0
  0
SOLID
  5
2C02
330
2AEE
100
AcDbEntity
  8
AM_5
100
AcDbTrace
 10
2416.840300934328
 20
298.4418999801225
 30
0.0
 11
2416.840300934328
 21
297.4418999801224
 31
0.0
 12
2413.840300934328
 22
297.9418999801225
 32
0.0
 13
2413.840300934328
 23
297.9418999801225
 33
0.0
  0
SOLID
  5
2C03
330
2AEE
100
AcDbEntity
  8
AM_5
100
AcDbTrace
 10
2530.840300934328
 20
298.4418999801225
 30
0.0
 11
2530.840300934328
 21
297.4418999801224
 31
0.0
 12
2533.840300934328
 22
297.9418999801225
 32
0.0
 13
2533.840300934328
 23
297.9418999801225
 33
0.0
  0
MTEXT
  5
2C04
330
2AEE
100
AcDbEntity
  8
AM_5
100
AcDbMText
 10
2473.840300934327
 20
300.4418999801225
 30
0.0
 40
3.0
 41
0.0
 71
     5
 72
     1
  1
120
  7
CHINESET
 73
     1
 44
1.0
1001
ACAD
1000
MTEXTBEGIN
1070
    73
1070
     1
1070
    44
1040
1.0
1070
    74
1070
     0
1000
MTEXTEND
  0
POINT
  5
2C05
330
2AEE
100
AcDbEntity
  8
Defpoints
 62
     0
100
AcDbPoint
 10
2413.840300934328
 20
285.9418999801225
 30
0.0
  0
POINT
  5
2C06
330
2AEE
100
AcDbEntity
  8
Defpoints
 62
     0
100
AcDbPoint
 10
2533.840300934328
 20
285.9418999801225
 30
0.0
  0
POINT
  5
2C07
330
2AEE
100
AcDbEntity
  8
Defpoints
 62
     0
100
AcDbPoint
 10
2533.840300934328
 20
297.9418999801225
 30
0.0
  0
ENDBLK
  5
2AF9
330
2AEE
100
AcDbEntity
  8
0
100
AcDbBlockEnd
  0
BLOCK
  5
2C37
330
2C2D
100
AcDbEntity
  8
0
100
AcDbBlockBegin
  2
*D54
 70
     1
 10
0.0
 20
0.0
 30
0.0
  3
*D54
  1

  0
LINE
  5
2C39
330
2C2D
100
AcDbEntity
  8
AM_5
100
AcDbLine
 10
2413.840300934328
 20
657.9561227128468
 30
0.0
 11
2413.840300934328
 21
670.4561227128468
 31
0.0
  0
LINE
  5
2C3A
330
2C2D
100
AcDbEntity
  8
AM_5
100
AcDbLine
 10
2533.840300934328
 20
657.9561227128468
 30
0.0
 11
2533.840300934328
 21
670.4561227128468
 31
0.0
  0
LINE
  5
2C3B
330
2C2D
100
AcDbEntity
  8
AM_5
100
AcDbLine
 10
2416.840300934328
 20
668.9561227128467
 30
0.0
 11
2530.840300934328
 21
668.9561227128467
 31
0.0
  0
SOLID
  5
2C3C
330
2C2D
100
AcDbEntity
  8
AM_5
100
AcDbTrace
 10
2416.840300934328
 20
669.4561227128467
 30
0.0
 11
2416.840300934328
 21
668.4561227128467
 31
0.0
 12
2413.840300934328
 22
668.9561227128467
 32
0.0
 13
2413.840300934328
 23
668.9561227128467
 33
0.0
  0
SOLID
  5
2C3D
330
2C2D
100
AcDbEntity
  8
AM_5
100
AcDbTrace
 10
2530.840300934328
 20
669.4561227128467
 30
0.0
 11
2530.840300934328
 21
668.4561227128467
 31
0.0
 12
2533.840300934328
 22
668.9561227128467
 32
0.0
 13
2533.840300934328
 23
668.9561227128467
 33
0.0
  0
MTEXT
  5
2C3E
330
2C2D
100
AcDbEntity
  8
AM_5
100
AcDbMText
 10
2473.840300934327
 20
671.4561227128467
 30
0.0
 40
3.0
 41
0.0
 71
     5
 72
     1
  1
120
  7
CHINESET
 73
     1
 44
1.0
1001
ACAD
1000
MTEXTBEGIN
1070
    73
1070
     1
1070
    44
1040
1.0
1070
    74
1070
     0
1000
MTEXTEND
  0
POINT
  5
2C3F
330
2C2D
100
AcDbEntity
  8
Defpoints
 62
     0
100
AcDbPoint
 10
2413.840300934328
 20
656.9561227128467
 30
0.0
  0
POINT
  5
2C40
330
2C2D
100
AcDbEntity
  8
Defpoints
 62
     0
100
AcDbPoint
 10
2533.840300934328
 20
656.9561227128467
 30
0.0
  0
POINT
  5
2C41
330
2C2D
100
AcDbEntity
  8
Defpoints
 62
     0
100
AcDbPoint
 10
2533.840300934328
 20
668.9561227128467
 30
0.0
  0
ENDBLK
  5
2C38
330
2C2D
100
AcDbEntity
  8
0
100
AcDbBlockEnd
  0
BLOCK
  5
2CA4
330
2C9A
100
AcDbEntity
  8
0
100
AcDbBlockBegin
  2
*D55
 70
     1
 10
0.0
 20
0.0
 30
0.0
  3
*D55
  1

  0
LINE
  5
2CA8
330
2C9A
100
AcDbEntity
  8
AM_5
100
AcDbLine
 10
2767.20617379079
 20
660.9562033346493
 30
0.0
 11
2767.20617379079
 21
673.4562033346493
 31
0.0
  0
LINE
  5
2CA9
330
2C9A
100
AcDbEntity
  8
AM_5
100
AcDbLine
 10
2907.20617379079
 20
660.9562033346493
 30
0.0
 11
2907.20617379079
 21
673.4562033346493
 31
0.0
  0
LINE
  5
2CAA
330
2C9A
100
AcDbEntity
  8
AM_5
100
AcDbLine
 10
2770.206173790791
 20
671.9562033346493
 30
0.0
 11
2904.20617379079
 21
671.9562033346493
 31
0.0
  0
SOLID
  5
2CAB
330
2C9A
100
AcDbEntity
  8
AM_5
100
AcDbTrace
 10
2770.206173790791
 20
672.4562033346493
 30
0.0
 11
2770.206173790791
 21
671.4562033346493
 31
0.0
 12
2767.20617379079
 22
671.9562033346493
 32
0.0
 13
2767.20617379079
 23
671.9562033346493
 33
0.0
  0
SOLID
  5
2CAC
330
2C9A
100
AcDbEntity
  8
AM_5
100
AcDbTrace
 10
2904.20617379079
 20
672.4562033346493
 30
0.0
 11
2904.20617379079
 21
671.4562033346493
 31
0.0
 12
2907.20617379079
 22
671.9562033346493
 32
0.0
 13
2907.20617379079
 23
671.9562033346493
 33
0.0
  0
MTEXT
  5
2CAD
330
2C9A
100
AcDbEntity
  8
AM_5
100
AcDbMText
 10
2837.20617379079
 20
674.4562033346493
 30
0.0
 40
3.0
 41
0.0
 71
     5
 72
     1
  1
140
  7
CHINESET
 73
     1
 44
1.0
1001
ACAD
1000
MTEXTBEGIN
1070
    73
1070
     1
1070
    44
1040
1.0
1070
    74
1070
     0
1000
MTEXTEND
  0
POINT
  5
2CAE
330
2C9A
100
AcDbEntity
  8
Defpoints
 62
     0
100
AcDbPoint
 10
2767.20617379079
 20
659.9562033346493
 30
0.0
  0
POINT
  5
2CAF
330
2C9A
100
AcDbEntity
  8
Defpoints
 62
     0
100
AcDbPoint
 10
2907.20617379079
 20
659.9562033346493
 30
0.0
  0
POINT
  5
2CB0
330
2C9A
100
AcDbEntity
  8
Defpoints
 62
     0
100
AcDbPoint
 10
2907.20617379079
 20
671.9562033346493
 30
0.0
  0
ENDBLK
  5
2CA5
330
2C9A
100
AcDbEntity
  8
0
100
AcDbBlockEnd
  0
BLOCK
  5
2CE5
330
2CDB
100
AcDbEntity
  8
0
100
AcDbBlockBegin
  2
*D56
 70
     1
 10
0.0
 20
0.0
 30
0.0
  3
*D56
  1

  0
LINE
  5
2CE7
330
2CDB
100
AcDbEntity
  8
AM_5
100
AcDbLine
 10
2767.20617379079
 20
290.941980601925
 30
0.0
 11
2767.20617379079
 21
303.441980601925
 31
0.0
  0
LINE
  5
2CE8
330
2CDB
100
AcDbEntity
  8
AM_5
100
AcDbLine
 10
2907.20617379079
 20
290.941980601925
 30
0.0
 11
2907.20617379079
 21
303.441980601925
 31
0.0
  0
LINE
  5
2CE9
330
2CDB
100
AcDbEntity
  8
AM_5
100
AcDbLine
 10
2770.206173790791
 20
301.941980601925
 30
0.0
 11
2904.20617379079
 21
301.941980601925
 31
0.0
  0
SOLID
  5
2CEA
330
2CDB
100
AcDbEntity
  8
AM_5
100
AcDbTrace
 10
2770.206173790791
 20
302.441980601925
 30
0.0
 11
2770.206173790791
 21
301.441980601925
 31
0.0
 12
2767.20617379079
 22
301.941980601925
 32
0.0
 13
2767.20617379079
 23
301.941980601925
 33
0.0
  0
SOLID
  5
2CEB
330
2CDB
100
AcDbEntity
  8
AM_5
100
AcDbTrace
 10
2904.20617379079
 20
302.441980601925
 30
0.0
 11
2904.20617379079
 21
301.441980601925
 31
0.0
 12
2907.20617379079
 22
301.941980601925
 32
0.0
 13
2907.20617379079
 23
301.941980601925
 33
0.0
  0
MTEXT
  5
2CEC
330
2CDB
100
AcDbEntity
  8
AM_5
100
AcDbMText
 10
2837.20617379079
 20
304.441980601925
 30
0.0
 40
3.0
 41
0.0
 71
     5
 72
     1
  1
140
  7
CHINESET
 73
     1
 44
1.0
1001
ACAD
1000
MTEXTBEGIN
1070
    73
1070
     1
1070
    44
1040
1.0
1070
    74
1070
     0
1000
MTEXTEND
  0
POINT
  5
2CED
330
2CDB
100
AcDbEntity
  8
Defpoints
 62
     0
100
AcDbPoint
 10
2767.20617379079
 20
289.941980601925
 30
0.0
  0
POINT
  5
2CEE
330
2CDB
100
AcDbEntity
  8
Defpoints
 62
     0
100
AcDbPoint
 10
2907.20617379079
 20
289.941980601925
 30
0.0
  0
POINT
  5
2CEF
330
2CDB
100
AcDbEntity
  8
Defpoints
 62
     0
100
AcDbPoint
 10
2907.20617379079
 20
301.941980601925
 30
0.0
  0
ENDBLK
  5
2CE6
330
2CDB
100
AcDbEntity
  8
0
100
AcDbBlockEnd
  0
ENDSEC
  0
SECTION
  2
ENTITIES
  0
TEXT
  5
1728
330
1F
100
AcDbEntity
  8
LOGO
 62
     7
100
AcDbText
 10
2113.293317906104
 20
70.05363340389862
 30
0.0
 40
10.6651221719457
  1
Order example:
 41
0.8
  7
CHINESET
100
AcDbText
  0
TEXT
  5
1729
330
1F
100
AcDbEntity
  8
LOGO
 62
     7
100
AcDbText
 10
2115.206729020723
 20
85.06791718027557
 30
0.0
 40
15.99768325791855
  1
訂購代號:
  7
CHINESET
100
AcDbText
  0
LINE
  5
172A
330
1F
100
AcDbEntity
  8
LOGO
 62
     1
100
AcDbLine
 10
3032.684770311274
 20
105.0951974611587
 30
0.0
 11
1932.684770311274
 21
105.0951974611587
 31
0.0
  0
LINE
  5
172B
330
1F
100
AcDbEntity
  8
LOGO
 62
     1
100
AcDbLine
 10
2108.659286148379
 20
25.10678117156544
 30
0.0
 11
2108.659286148379
 21
105.0951974611587
 31
0.0
  0
TEXT
  5
172C
330
1F
100
AcDbEntity
  8
LOGO
  6
Continuous
 62
     5
100
AcDbText
 10
1961.416968997384
 20
40.82038483861083
 30
0.0
 40
11.99826244343891
  1
金器工業股份有限公司
  7
CHINESET
100
AcDbText
  0
TEXT
  5
172D
330
1F
100
AcDbEntity
  8
LOGO
  6
Continuous
 62
     5
100
AcDbText
 10
1939.378534627951
 20
28.81977167643322
 30
0.0
 40
7.998841628959275
  1
MINDMAN INDUSTRIAL CO., LTD.
 41
0.85
  7
CHINESET
100
AcDbText
  0
LINE
  5
172E
330
1F
100
AcDbEntity
  8
LOGO
 62
     1
100
AcDbLine
 10
2108.659286148379
 20
89.09751420324004
 30
0.0
 11
1991.342942256975
 21
89.09751420324004
 31
0.0
  0
LINE
  5
172F
330
1F
100
AcDbEntity
  8
LOGO
 62
     1
100
AcDbLine
 10
2108.659286148379
 20
73.0998309453214
 30
0.0
 11
1991.342942256975
 21
73.0998309453214
 31
0.0
  0
LINE
  5
1730
330
1F
100
AcDbEntity
  8
LOGO
 62
     1
100
AcDbLine
 10
2108.659286148379
 20
57.10214768740366
 30
0.0
 11
1932.684770311274
 21
57.10214768740366
 31
0.0
  0
LINE
  5
1731
330
1F
100
AcDbEntity
  8
LOGO
 62
     1
100
AcDbLine
 10
1991.342942256975
 20
57.10214768740366
 30
0.0
 11
1991.342942256975
 21
105.0951974611587
 31
0.0
  0
TEXT
  5
1732
330
1F
100
AcDbEntity
  8
LOGO
 62
     6
100
AcDbText
 10
2067.333256634968
 20
61.10156850188198
 30
0.0
 40
7.998841628959275
  1
m/m
  7
CHINESET
 72
     1
 11
2081.426453790753
 21
65.10098931636162
 31
0.0
100
AcDbText
 73
     2
  0
TEXT
  5
1733
330
1F
100
AcDbEntity
  8
LOGO
 62
     6
100
AcDbText
 10
2067.333256634968
 20
93.0969350177193
 30
0.0
 40
7.998841628959275
  1
1 : 1
  7
CHINESET
 72
     1
 11
2081.426453790753
 21
97.09635583219892
 31
0.0
100
AcDbText
 73
     2
  0
LINE
  5
1734
330
1F
100
AcDbEntity
  8
LOGO
 62
     1
100
AcDbLine
 10
2055.33367528865
 20
57.10214768740366
 30
0.0
 11
2055.33367528865
 21
105.0951974611587
 31
0.0
  0
CIRCLE
  5
1735
330
1F
100
AcDbEntity
  8
LOGO
  6
Continuous
 62
     6
100
AcDbCircle
 10
2070.144531043963
 20
81.11578215505938
 30
0.0
 40
4.644315721282525
  0
CIRCLE
  5
1736
330
1F
100
AcDbEntity
  8
LOGO
  6
Continuous
 62
     6
100
AcDbCircle
 10
2070.144531043963
 20
81.11578215505938
 30
0.0
 40
2.721157874662388
  0
LINE
  5
1737
330
1F
100
AcDbEntity
  8
LOGO
 62
     6
100
AcDbLine
 10
2099.329949940109
 20
76.47146643377595
 30
0.0
 11
2099.329949940109
 21
85.7600978763428
 31
0.0
  0
LINE
  5
1738
330
1F
100
AcDbEntity
  8
LOGO
 62
     6
100
AcDbLine
 10
2084.770286750332
 20
78.39462428039746
 30
0.0
 11
2084.770286750332
 21
83.8369400297222
 31
0.0
  0
LINE
  5
1739
330
1F
100
AcDbEntity
  8
LOGO
  6
Continuous
 62
     6
100
AcDbLine
 10
2084.770286750332
 20
83.8369400297222
 30
0.0
 11
2099.329949940109
 21
85.7600978763428
 31
0.0
  0
LINE
  5
173A
330
1F
100
AcDbEntity
  8
LOGO
  6
Continuous
 62
     6
100
AcDbLine
 10
2084.770286750332
 20
78.39462428039746
 30
0.0
 11
2099.329949940109
 21
76.47146643377595
 31
0.0
  0
TEXT
  5
173B
330
1F
100
AcDbEntity
  8
LOGO
 62
     6
100
AcDbText
 10
1997.938415689425
 20
93.10087145552882
 30
524.2309030401992
 40
7.998841628959275
  1
比例 Scale:
 41
0.9
  7
CHINESET
 72
     4
 11
2023.338308772812
 21
97.09635583219892
 31
524.2309030401992
100
AcDbText
  0
TEXT
  5
173C
330
1F
100
AcDbEntity
  8
LOGO
 62
     6
100
AcDbText
 10
1997.477768113472
 20
77.2117682738563
 30
524.2309030401992
 40
7.998841628959275
  1
投影  View:
 41
0.9
  7
CHINESET
 72
     4
 11
2023.338308772812
 21
81.09867257428026
 31
524.2309030401992
100
AcDbText
  0
TEXT
  5
173D
330
1F
100
AcDbEntity
  8
LOGO
 62
     6
100
AcDbText
 10
1998.25979771916
 20
61.10156850188198
 30
524.2309030401992
 40
7.998841628959275
  1
單位  Unit:
 41
0.9
  7
CHINESET
 72
     4
 11
2023.338308772812
 21
65.10098931636162
 31
524.2309030401992
100
AcDbText
  0
LWPOLYLINE
  5
173E
330
1F
100
AcDbEntity
  8
0
 62
     4
100
AcDbPolyline
 90
        4
 70
     1
 43
0.0
 10
1932.684770311274
 20
105.0951974611587
 10
3032.684770311274
 20
105.0951974611587
 10
3032.684770311274
 20
825.1067811715641
 10
1932.684770311274
 20
825.1067811715641
1001
GENIUS_GENREC_14
1002
{
1000
PYDIR
1011
1932.684770311274
1021
825.1067811715641
1031
0.0
1002
}
1002
{
1000
PXDIR
1011
3032.684770311274
1021
105.0951974611587
1031
0.0
1002
}
1002
{
1000
PORI
1011
1932.684770311274
1021
105.0951974611587
1031
0.0
1002
}
1002
{
1000
PINS
1011
1932.684770311274
1021
105.0951974611587
1031
0.0
1002
}
1002
{
1000
PINS2
1011
3032.684770311274
1021
825.1067811715641
1031
0.0
1002
}
1002
{
1000
C
1070
     1
1002
}
1001
GENIUS_GENODEF_13
1002
{
1000
HIER
1070
     0
1002
}
1002
{
1000
MANEDIT
1070
     0
1002
}
1002
{
1000
NOSEL
1070
     0
1002
}
1002
{
1000
BEHIND
1070
     0
1002
}
1002
{
1000
OTHER
1070
     0
1002
}
1002
{
1000
REACTOR
1002
}
1001
GENIUS_GENOBJ-N-REC_13
1002
{
1000
OWNER
1000
GEN
1002
}
  0
SOLID
  5
173F
330
1F
100
AcDbEntity
  8
LOGO
 62
     5
100
AcDbTrace
 10
1940.983696872963
 20
70.39908335009727
 30
0.0
 11
1944.442186103721
 21
70.39908335009636
 31
0.0
 12
1958.872434273433
 22
103.1951019176274
 32
0.0
 13
1962.330923504192
 23
103.1951019176256
 33
0.0
  0
SOLID
  5
1740
330
1F
100
AcDbEntity
  8
LOGO
 62
     5
100
AcDbTrace
 10
1945.873285095762
 20
70.39908335009727
 30
0.0
 11
1949.33177432652
 21
70.39908335009727
 31
0.0
 12
1962.330923504192
 22
100.5714204322237
 32
0.0
 13
1958.872434273433
 23
87.89029325277875
 33
0.0
  0
SOLID
  5
1741
330
1F
100
AcDbEntity
  8
LOGO
 62
     2
100
AcDbTrace
 10
1944.442186103721
 20
70.39908335009636
 30
0.0
 11
1945.873285095762
 21
70.39908335009727
 31
0.0
 12
1962.330923504192
 22
103.1951019176256
 32
0.0
 13
1963.762022496232
 23
103.1951019176256
 33
0.0
  0
SOLID
  5
1742
330
1F
100
AcDbEntity
  8
LOGO
 62
     5
100
AcDbTrace
 10
1935.43889051061
 20
58.47325841645101
 30
0.0
 11
1936.631473003975
 21
58.47325841645101
 31
0.0
 12
1939.989878128494
 22
64.43617088327369
 32
0.0
 13
1941.182460621856
 23
64.43617088327369
 33
0.0
  0
SOLID
  5
1743
330
1F
100
AcDbEntity
  8
LOGO
 62
     5
100
AcDbTrace
 10
1939.989878128494
 20
64.43617088327369
 30
0.0
 11
1941.182460621856
 21
64.43617088327369
 31
0.0
 12
1939.989878128494
 22
58.47325841645101
 32
0.0
 13
1941.182460621856
 23
58.47325841645101
 33
0.0
  0
SOLID
  5
1744
330
1F
100
AcDbEntity
  8
LOGO
 62
     5
100
AcDbTrace
 10
1939.989878128494
 20
58.47325841645101
 30
0.0
 11
1941.182460621856
 21
58.47325841645101
 31
0.0
 12
1944.540865746379
 22
64.43617088327369
 32
0.0
 13
1945.733448239744
 23
64.43617088327369
 33
0.0
  0
SOLID
  5
1745
330
1F
100
AcDbEntity
  8
LOGO
 62
     5
100
AcDbTrace
 10
1944.540865746379
 20
64.43617088327369
 30
0.0
 11
1945.733448239744
 21
64.43617088327369
 31
0.0
 12
1944.540865746379
 22
58.47325841645101
 32
0.0
 13
1945.733448239744
 23
58.47325841645101
 33
0.0
  0
POLYLINE
  5
1746
330
1F
100
AcDbEntity
  8
LOGO
 62
     5
100
AcDb2dPolyline
 66
     1
 10
0.0
 20
0.0
 30
0.0
 40
1.194493683257918
 41
1.194493683257918
  0
VERTEX
  5
1747
330
1746
100
AcDbEntity
  8
LOGO
 62
     5
100
AcDbVertex
100
AcDb2dVertex
 10
1984.515824665617
 20
62.05100589654444
 30
0.0
 42
1.0
  0
VERTEX
  5
1748
330
1746
100
AcDbEntity
  8
LOGO
 62
     5
100
AcDbVertex
100
AcDb2dVertex
 10
1980.932343615843
 20
62.05100589654444
 30
0.0
 42
1.0
  0
SEQEND
  5
1749
330
1746
100
AcDbEntity
  8
LOGO
 62
     5
  0
POLYLINE
  5
174A
330
1F
100
AcDbEntity
  8
LOGO
 62
     5
100
AcDb2dPolyline
 66
     1
 10
0.0
 20
0.0
 30
0.0
 70
     1
  0
VERTEX
  5
174B
330
174A
100
AcDbEntity
  8
LOGO
 62
     5
100
AcDbVertex
100
AcDb2dVertex
 10
1974.17732244378
 20
61.45471464986144
 30
0.0
 42
1.000000057330635
  0
VERTEX
  5
174C
330
174A
100
AcDbEntity
  8
LOGO
 62
     5
100
AcDbVertex
100
AcDb2dVertex
 10
1977.755069923874
 20
61.45471464986144
 30
0.0
 42
1.000000057330635
  0
SEQEND
  5
174D
330
174A
100
AcDbEntity
  8
LOGO
 62
     5
  0
CIRCLE
  5
174E
330
1F
100
AcDbEntity
  8
LOGO
 62
     5
100
AcDbCircle
 10
1975.96619618383
 20
61.45471464986144
 30
0.0
 40
1.788873740047058
  0
POLYLINE
  5
174F
330
1F
100
AcDbEntity
  8
LOGO
 62
     5
100
AcDb2dPolyline
 66
     1
 10
0.0
 20
0.0
 30
0.0
 70
     1
 40
1.194493683257918
 41
1.194493683257918
  0
VERTEX
  5
1750
330
174F
100
AcDbEntity
  8
LOGO
 62
     5
100
AcDbVertex
100
AcDb2dVertex
 10
1973.577208817312
 20
61.45471464986144
 30
0.0
 42
1.0
  0
VERTEX
  5
1751
330
174F
100
AcDbEntity
  8
LOGO
 62
     5
100
AcDbVertex
100
AcDb2dVertex
 10
1978.355183550344
 20
61.45471464986144
 30
0.0
 42
1.0
  0
SEQEND
  5
1752
330
174F
100
AcDbEntity
  8
LOGO
 62
     5
  0
LINE
  5
1753
330
1F
100
AcDbEntity
  8
LOGO
 62
     5
100
AcDbLine
 10
1985.109249127457
 20
58.47325841645101
 30
0.0
 11
1985.109249127457
 21
62.05100589654444
 31
0.0
  0
SOLID
  5
1754
330
1F
100
AcDbEntity
  8
LOGO
 62
     5
100
AcDbTrace
 10
1977.75495066563
 20
64.43617088327369
 30
0.0
 11
1978.947533158993
 21
64.43617088327369
 31
0.0
 12
1977.75495066563
 22
58.47325841645101
 32
0.0
 13
1978.947533158993
 23
58.47325841645101
 33
0.0
  0
SOLID
  5
1755
330
1F
100
AcDbEntity
  8
LOGO
 62
     5
100
AcDbTrace
 10
1980.338919153999
 20
58.47325841645101
 30
0.0
 11
1981.531501647365
 21
58.47325841645101
 31
0.0
 12
1980.338919153999
 22
64.43617088327369
 32
0.0
 13
1981.531501647365
 23
64.43617088327369
 33
0.0
  0
SOLID
  5
1756
330
1F
100
AcDbEntity
  8
LOGO
 62
     5
100
AcDbTrace
 10
1983.916666634095
 20
62.05100589654444
 30
0.0
 11
1985.109249127457
 21
62.05100589654444
 31
0.0
 12
1983.916666634095
 22
58.47325841645101
 32
0.0
 13
1985.109249127457
 23
58.47325841645101
 33
0.0
  0
SOLID
  5
1757
330
1F
100
AcDbEntity
  8
LOGO
 62
     5
100
AcDbTrace
 10
1980.219660904662
 20
100.5714204322237
 30
0.0
 11
1976.761171673906
 21
87.89029325277875
 31
0.0
 12
1980.219660904662
 22
70.39908335009636
 32
0.0
 13
1976.761171673906
 23
70.39908335009636
 33
0.0
  0
SOLID
  5
1758
330
1F
100
AcDbEntity
  8
LOGO
 62
     5
100
AcDbTrace
 10
1981.650759896702
 20
70.39908335009636
 30
0.0
 11
1985.109249127457
 21
70.39908335009636
 31
0.0
 12
1981.650759896702
 22
103.1951019176256
 32
0.0
 13
1985.109249127457
 23
103.1951019176274
 33
0.0
  0
SOLID
  5
1759
330
1F
100
AcDbEntity
  8
LOGO
 62
     2
100
AcDbTrace
 10
1980.219660904662
 20
103.1951019176274
 30
0.0
 11
1981.650759896702
 21
103.1951019176256
 31
0.0
 12
1980.219660904662
 22
70.39908335009636
 32
0.0
 13
1981.650759896702
 23
70.39908335009636
 33
0.0
  0
POLYLINE
  5
175A
330
1F
100
AcDbEntity
  8
LOGO
 62
     5
100
AcDb2dPolyline
 66
     1
 10
0.0
 20
0.0
 30
0.0
 40
1.194493683257918
 41
1.194493683257918
  0
VERTEX
  5
175B
330
175A
100
AcDbEntity
  8
LOGO
 62
     5
100
AcDbVertex
100
AcDb2dVertex
 10
1967.422062755224
 20
62.05100589654444
 30
0.0
 42
1.0
  0
VERTEX
  5
175C
330
175A
100
AcDbEntity
  8
LOGO
 62
     5
100
AcDbVertex
100
AcDb2dVertex
 10
1963.838581705449
 20
62.05100589654444
 30
0.0
 42
1.0
  0
SEQEND
  5
175D
330
175A
100
AcDbEntity
  8
LOGO
 62
     5
  0
POLYLINE
  5
175E
330
1F
100
AcDbEntity
  8
LOGO
 62
     5
100
AcDb2dPolyline
 66
     1
 10
0.0
 20
0.0
 30
0.0
 40
1.194493683257918
 41
1.194493683257918
  0
VERTEX
  5
175F
330
175E
100
AcDbEntity
  8
LOGO
 62
     5
100
AcDbVertex
100
AcDb2dVertex
 10
1970.999810235315
 20
62.05100589654444
 30
0.0
 42
1.0
  0
VERTEX
  5
1760
330
175E
100
AcDbEntity
  8
LOGO
 62
     5
100
AcDbVertex
100
AcDb2dVertex
 10
1967.416329185542
 20
62.05100589654444
 30
0.0
 42
1.0
  0
SEQEND
  5
1761
330
175E
100
AcDbEntity
  8
LOGO
 62
     5
  0
POLYLINE
  5
1762
330
1F
100
AcDbEntity
  8
LOGO
 62
     5
100
AcDb2dPolyline
 66
     1
 10
0.0
 20
0.0
 30
0.0
 40
1.194493683257918
 41
1.194493683257918
  0
VERTEX
  5
1763
330
1762
100
AcDbEntity
  8
LOGO
 62
     5
100
AcDbVertex
100
AcDb2dVertex
 10
1953.906048324921
 20
62.05100589654444
 30
0.0
 42
1.0
  0
VERTEX
  5
1764
330
1762
100
AcDbEntity
  8
LOGO
 62
     5
100
AcDbVertex
100
AcDb2dVertex
 10
1950.322567275149
 20
62.05100589654444
 30
0.0
 42
1.0
  0
SEQEND
  5
1765
330
1762
100
AcDbEntity
  8
LOGO
 62
     5
  0
SOLID
  5
1766
330
1F
100
AcDbEntity
  8
LOGO
 62
     5
100
AcDbTrace
 10
1949.729142813307
 20
64.43617088327369
 30
0.0
 11
1950.921725306669
 21
64.43617088327369
 31
0.0
 12
1949.729142813307
 22
58.47325841645101
 32
0.0
 13
1950.921725306669
 23
58.47325841645101
 33
0.0
  0
SOLID
  5
1767
330
1F
100
AcDbEntity
  8
LOGO
 62
     5
100
AcDbTrace
 10
1953.306890293401
 20
62.05100589654444
 30
0.0
 11
1954.499472786767
 21
62.05100589654444
 31
0.0
 12
1953.306890293401
 22
58.47325841645101
 32
0.0
 13
1954.499472786767
 23
58.47325841645101
 33
0.0
  0
POLYLINE
  5
1768
330
1F
100
AcDbEntity
  8
LOGO
 62
     5
100
AcDb2dPolyline
 66
     1
 10
0.0
 20
0.0
 30
0.0
 70
     1
 40
1.194493683257918
 41
1.194493683257918
  0
VERTEX
  5
1769
330
1768
100
AcDbEntity
  8
LOGO
 62
     5
100
AcDbVertex
100
AcDb2dVertex
 10
1956.483446906917
 20
61.45471464986144
 30
0.0
 42
1.0
  0
VERTEX
  5
176A
330
1768
100
AcDbEntity
  8
LOGO
 62
     5
100
AcDbVertex
100
AcDb2dVertex
 10
1961.261421639951
 20
61.45471464986144
 30
0.0
 42
1.0
  0
SEQEND
  5
176B
330
1768
100
AcDbEntity
  8
LOGO
 62
     5
  0
SOLID
  5
176C
330
1F
100
AcDbEntity
  8
LOGO
 62
     5
100
AcDbTrace
 10
1960.661188755233
 20
66.22504462332177
 30
0.0
 11
1961.853771248598
 21
66.22504462332177
 31
0.0
 12
1960.661188755233
 22
58.47325841645101
 32
0.0
 13
1961.853771248598
 23
58.47325841645101
 33
0.0
  0
SOLID
  5
176D
330
1F
100
AcDbEntity
  8
LOGO
 62
     5
100
AcDbTrace
 10
1963.245157243609
 20
64.43617088327369
 30
0.0
 11
1964.437739736971
 21
64.43617088327369
 31
0.0
 12
1963.245157243609
 22
58.47325841645101
 32
0.0
 13
1964.437739736971
 23
58.47325841645101
 33
0.0
  0
SOLID
  5
176E
330
1F
100
AcDbEntity
  8
LOGO
 62
     5
100
AcDbTrace
 10
1966.8229047237
 20
62.05100589654444
 30
0.0
 11
1968.015487217066
 21
62.05100589654444
 31
0.0
 12
1966.8229047237
 22
58.47325841645101
 32
0.0
 13
1968.015487217066
 23
58.47325841645101
 33
0.0
  0
SOLID
  5
176F
330
1F
100
AcDbEntity
  8
LOGO
 62
     5
100
AcDbTrace
 10
1970.400652203794
 20
62.05100589654444
 30
0.0
 11
1971.593234697158
 21
62.05100589654444
 31
0.0
 12
1970.400652203794
 22
58.4732584164492
 32
0.0
 13
1971.593234697158
 23
58.4732584164492
 33
0.0
  0
SOLID
  5
1770
330
1F
100
AcDbEntity
  8
LOGO
 62
     5
100
AcDbTrace
 10
1947.145174324933
 20
65.27097862862934
 30
0.0
 11
1948.3377568183
 21
65.27097862862934
 31
0.0
 12
1947.145174324933
 22
66.22504462332177
 32
0.0
 13
1948.3377568183
 23
66.22504462332177
 33
0.0
  0
SOLID
  5
1771
330
1F
100
AcDbEntity
  8
LOGO
 62
     5
100
AcDbTrace
 10
1947.145174324933
 20
64.43617088327369
 30
0.0
 11
1948.3377568183
 21
64.43617088327369
 31
0.0
 12
1947.145174324933
 22
58.4732584164492
 32
0.0
 13
1948.3377568183
 23
58.47325841645101
 33
0.0
  0
SOLID
  5
1772
330
1F
100
AcDbEntity
  8
LOGO
 62
     5
100
AcDbTrace
 10
1958.872434273433
 20
70.39908335009727
 30
0.0
 11
1962.330923504192
 21
70.39908335009727
 31
0.0
 12
1958.872434273433
 22
87.89029325277875
 32
0.0
 13
1962.330923504192
 23
100.5714204322237
 33
0.0
  0
SOLID
  5
1773
330
1F
100
AcDbEntity
  8
LOGO
 62
     5
100
AcDbTrace
 10
1963.762022496232
 20
103.1951019176256
 30
0.0
 11
1967.220511726988
 21
103.1951019176274
 31
0.0
 12
1963.762022496232
 22
73.02276483549917
 32
0.0
 13
1967.220511726988
 23
85.70389201494412
 33
0.0
  0
SOLID
  5
1774
330
1F
100
AcDbEntity
  8
LOGO
 62
     2
100
AcDbTrace
 10
1962.330923504192
 20
103.1951019176256
 30
0.0
 11
1963.762022496232
 21
103.1951019176256
 31
0.0
 12
1962.330923504192
 22
70.39908335009727
 32
0.0
 13
1963.762022496232
 23
70.39908335009727
 33
0.0
  0
SOLID
  5
1775
330
1F
100
AcDbEntity
  8
LOGO
 62
     5
100
AcDbTrace
 10
1963.762022496232
 20
73.02276483549917
 30
0.0
 11
1967.220511726988
 21
85.70389201494412
 31
0.0
 12
1980.219660904662
 22
103.1951019176274
 32
0.0
 13
1976.761171673906
 23
103.1951019176274
 33
0.0
  0
SOLID
  5
1776
330
1F
100
AcDbEntity
  8
LOGO
 62
     5
100
AcDbTrace
 10
1963.762022496232
 20
70.39908335009727
 30
0.0
 11
1967.220511726988
 21
70.39908335009727
 31
0.0
 12
1980.219660904662
 22
100.5714204322237
 32
0.0
 13
1976.761171673906
 23
87.89029325277875
 33
0.0
  0
SOLID
  5
1777
330
1F
100
AcDbEntity
  8
LOGO
 62
     2
100
AcDbTrace
 10
1962.330923504192
 20
70.39908335009727
 30
0.0
 11
1963.762022496232
 21
70.39908335009727
 31
0.0
 12
1980.219660904662
 22
103.1951019176274
 32
0.0
 13
1981.650759896702
 23
103.1951019176256
 33
0.0
  0
LWPOLYLINE
  5
1778
330
1F
100
AcDbEntity
  8
0
 62
     1
100
AcDbPolyline
 90
        4
 70
     1
 43
0.0
 10
1932.684770311274
 20
105.0951974611587
 10
3032.684770311274
 20
105.0951974611587
 10
3032.684770311274
 20
25.10678117156454
 10
1932.684770311274
 20
25.10678117156454
1001
GENIUS_GENREC_14
1002
{
1000
PYDIR
1011
1932.684770311274
1021
25.10678117156454
1031
0.0
1002
}
1002
{
1000
PXDIR
1011
3032.684770311274
1021
105.0951974611587
1031
0.0
1002
}
1002
{
1000
PORI
1011
1932.684770311274
1021
105.0951974611587
1031
0.0
1002
}
1002
{
1000
PINS
1011
1932.684770311274
1021
105.0951974611587
1031
0.0
1002
}
1002
{
1000
PINS2
1011
3032.684770311274
1021
25.10678117156454
1031
0.0
1002
}
1002
{
1000
C
1070
     1
1002
}
1001
GENIUS_GENOBJ-N-REC_13
1002
{
1000
OWNER
1000
GEN
1002
}
1001
GENIUS_GENODEF_13
1002
{
1000
HIER
1070
     0
1002
}
1002
{
1000
MANEDIT
1070
     0
1002
}
1002
{
1000
NOSEL
1070
     0
1002
}
1002
{
1000
BEHIND
1070
     0
1002
}
1002
{
1000
OTHER
1070
     0
1002
}
1002
{
1000
REACTOR
1002
}
  0
LINE
  5
1779
330
1F
100
AcDbEntity
  8
LOGO
 62
     6
100
AcDbLine
 10
2253.438076531225
 20
61.10156850188355
 30
0.0
 11
2253.438076531225
 21
31.77248252903132
 31
0.0
  0
LINE
  5
177A
330
1F
100
AcDbEntity
  8
LOGO
 62
     6
100
AcDbLine
 10
2218.679802688579
 20
61.10156850188355
 30
0.0
 11
2218.679802688579
 21
31.77248252903132
 31
0.0
  0
LINE
  5
177B
330
1F
100
AcDbEntity
  8
LOGO
 62
     6
100
AcDbLine
 10
2253.438076531225
 20
31.77248252903132
 30
0.0
 11
2218.679802688579
 21
31.77248252903132
 31
0.0
  0
LINE
  5
177C
330
1F
100
AcDbEntity
  8
LOGO
 62
     6
100
AcDbLine
 10
2265.830911889745
 20
97.09635583219892
 30
0.0
 11
2218.679802688579
 21
97.09635583219892
 31
0.0
  0
LINE
  5
177D
330
1F
100
AcDbEntity
  8
LOGO
 62
     6
100
AcDbLine
 10
2265.830911889745
 20
73.0998309453214
 30
0.0
 11
2218.679802688579
 21
73.0998309453214
 31
0.0
  0
LINE
  5
177E
330
1F
100
AcDbEntity
  8
LOGO
 62
     6
100
AcDbLine
 10
2218.679802688579
 20
97.09635583219892
 30
0.0
 11
2218.679802688579
 21
73.0998309453214
 31
0.0
  0
LINE
  5
177F
330
1F
100
AcDbEntity
  8
LOGO
 62
     6
100
AcDbLine
 10
2265.830911889745
 20
97.09635583219892
 30
0.0
 11
2265.830911889745
 21
73.0998309453214
 31
0.0
  0
LINE
  5
1780
330
1F
100
AcDbEntity
  8
LOGO
 62
     6
100
AcDbLine
 10
2239.567918878742
 20
73.0998309453214
 30
0.0
 11
2239.567918878742
 21
61.10156850188355
 31
0.0
  0
TEXT
  5
1781
330
1F
100
AcDbEntity
  8
LOGO
  6
Continuous
 62
     7
100
AcDbText
 10
2222.943609341699
 20
78.10907043254132
 30
0.0
 40
14.0
  1
MDS
  7
CHINESET
100
AcDbText
  0
LINE
  5
1782
330
1F
100
AcDbEntity
  8
LOGO
 62
     6
100
AcDbLine
 10
2253.438076531225
 20
61.10156850188355
 30
0.0
 11
2218.679802688579
 21
61.10156850188355
 31
0.0
  0
TEXT
  5
1783
330
1F
100
AcDbEntity
  8
LOGO
  6
Continuous
 62
     6
100
AcDbText
 10
2225.889250528475
 20
35.91222082032778
 30
524.2309030401992
 40
6.0
  1
Model
 41
0.8
  7
CHINESET
100
AcDbText
  0
TEXT
  5
1784
330
1F
100
AcDbEntity
  8
LOGO
 62
     6
100
AcDbText
 10
2224.292245576478
 20
47.03492772803724
 30
524.2309030401992
 40
10.0
  1
型號
  7
CHINESET
100
AcDbText
  0
LINE
  5
1791
330
1F
100
AcDbEntity
  8
LOGO
 62
     6
100
AcDbLine
 10
2384.499242307764
 20
61.10156850188355
 30
0.0
 11
2384.499242307764
 21
31.77248252903132
 31
0.0
  0
LINE
  5
1792
330
1F
100
AcDbEntity
  8
LOGO
 62
     6
100
AcDbLine
 10
2331.173631448035
 20
61.10156850188355
 30
0.0
 11
2331.173631448035
 21
31.77248252903132
 31
0.0
  0
LINE
  5
1793
330
1F
100
AcDbEntity
  8
LOGO
 62
     6
100
AcDbLine
 10
2384.499242307764
 20
31.77248252903132
 30
0.0
 11
2331.173631448035
 21
31.77248252903132
 31
0.0
  0
LINE
  5
1794
330
1F
100
AcDbEntity
  8
LOGO
 62
     6
100
AcDbLine
 10
2351.416092628193
 20
97.09635583219892
 30
0.0
 11
2306.541744148793
 21
97.09635583219892
 31
0.0
  0
LINE
  5
1795
330
1F
100
AcDbEntity
  8
LOGO
 62
     6
100
AcDbLine
 10
2351.416092628193
 20
73.0998309453214
 30
0.0
 11
2306.541744148793
 21
73.0998309453214
 31
0.0
  0
LINE
  5
1796
330
1F
100
AcDbEntity
  8
LOGO
 62
     6
100
AcDbLine
 10
2306.541744148793
 20
97.09635583219892
 30
0.0
 11
2306.541744148793
 21
73.0998309453214
 31
0.0
  0
LINE
  5
1797
330
1F
100
AcDbEntity
  8
LOGO
 62
     6
100
AcDbLine
 10
2351.416092628193
 20
97.09635583219892
 30
0.0
 11
2351.416092628193
 21
73.0998309453214
 31
0.0
  0
TEXT
  5
1799
330
1F
100
AcDbEntity
  8
LOGO
  6
Continuous
 62
     7
100
AcDbText
 10
2309.735617444572
 20
78.10907043254132
 30
0.0
 40
14.0
  1
32A
  7
CHINESET
100
AcDbText
  0
LINE
  5
179A
330
1F
100
AcDbEntity
  8
LOGO
 62
     6
100
AcDbLine
 10
2384.499242307764
 20
61.10156850188355
 30
0.0
 11
2331.173631448035
 21
61.10156850188355
 31
0.0
  0
TEXT
  5
17A8
330
1F
100
AcDbEntity
  8
LOGO
  6
Continuous
 62
     6
100
AcDbText
 10
2343.908860042409
 20
35.91222082032778
 30
524.2309030401992
 40
6.0
  1
Tube I.D.
 41
0.8
  7
CHINESET
100
AcDbText
  0
TEXT
  5
17A9
330
1F
100
AcDbEntity
  8
LOGO
 62
     6
100
AcDbText
 10
2346.328124686312
 20
47.03492772803724
 30
524.2309030401992
 40
10.0
  1
內徑
  7
CHINESET
100
AcDbText
  0
TEXT
  5
17B8
330
1F
100
AcDbEntity
  8
0
100
AcDbText
 10
2112.36542851333
 20
29.36213334725085
 30
0.0
 40
8.0
  1
10512263
 41
0.7
  7
CHINESET
 72
     1
 11
2131.832095179996
 21
29.36213334725085
 31
0.0
100
AcDbText
  0
LINE
  5
17B9
330
1F
100
AcDbEntity
  8
LOGO
 62
     1
100
AcDbLine
 10
2156.659286148375
 20
41.10446442948592
 30
0.0
 11
2156.659286148379
 21
25.10678117156635
 31
0.0
  0
LINE
  5
17BA
330
1F
100
AcDbEntity
  8
LOGO
 62
     1
100
AcDbLine
 10
2156.659286148375
 20
41.10446442948592
 30
0.0
 11
2108.659286148379
 21
41.10446442948592
 31
0.0
  0
LINE
  5
17BB
330
1F
100
AcDbEntity
  8
0
 62
     4
100
AcDbLine
 10
1932.684770311274
 20
465.1009893163614
 30
0.0
 11
3032.684770311274
 21
465.1009893163614
 31
0.0
  0
LINE
  5
198A
330
1F
100
AcDbEntity
  8
0
 62
     4
100
AcDbLine
 10
2298.684770311274
 20
825.1067811715641
 30
0.0
 11
2298.684770311274
 21
105.0951974611587
 31
0.0
  0
LINE
  5
198B
330
1F
100
AcDbEntity
  8
0
 62
     4
100
AcDbLine
 10
2664.684770311275
 20
825.1067811715641
 30
0.0
 11
2664.684770311275
 21
105.0951974611587
 31
0.0
  0
TEXT
  5
1A89
330
1F
100
AcDbEntity
  8
0
100
AcDbText
 10
1950.690524132943
 20
795.8336520981234
 30
0.0
 40
12.0
  1
MDS-25A
 41
0.75
  7
CHINESET
100
AcDbText
  0
TEXT
  5
1A8B
330
1F
100
AcDbEntity
  8
0
100
AcDbText
 10
2316.690524132943
 20
795.8336520981234
 30
0.0
 40
12.0
  1
MDS-32A
 41
0.75
  7
CHINESET
100
AcDbText
  0
TEXT
  5
1A8C
330
1F
100
AcDbEntity
  8
0
100
AcDbText
 10
2682.690524132943
 20
795.8336520981234
 30
0.0
 40
12.0
  1
MDS-40A
 41
0.75
  7
CHINESET
100
AcDbText
  0
TEXT
  5
1A8D
330
1F
100
AcDbEntity
  8
0
100
AcDbText
 10
1950.690524132943
 20
435.8278602429207
 30
0.0
 40
12.0
  1
MDS-25B
 41
0.75
  7
CHINESET
100
AcDbText
  0
TEXT
  5
1A8E
330
1F
100
AcDbEntity
  8
0
100
AcDbText
 10
2316.690524132943
 20
435.8278602429207
 30
0.0
 40
12.0
  1
MDS-32B
 41
0.75
  7
CHINESET
100
AcDbText
  0
TEXT
  5
1A8F
330
1F
100
AcDbEntity
  8
0
100
AcDbText
 10
2682.690524132943
 20
435.8278602429207
 30
0.0
 40
12.0
  1
MDS-40B
 41
0.75
  7
CHINESET
100
AcDbText
  0
LINE
  5
1A96
330
1F
100
AcDbEntity
  8
LOGO
 62
     6
100
AcDbLine
 10
2325.701762585913
 20
61.10156850188355
 30
0.0
 11
2325.701762585913
 21
31.77248252903132
 31
0.0
  0
LINE
  5
1A97
330
1F
100
AcDbEntity
  8
LOGO
 62
     6
100
AcDbLine
 10
2259.791624617458
 20
61.10156850188355
 30
0.0
 11
2259.791624617458
 21
31.77248252903132
 31
0.0
  0
LINE
  5
1A98
330
1F
100
AcDbEntity
  8
LOGO
 62
     6
100
AcDbLine
 10
2325.701762585913
 20
31.77248252903132
 30
0.0
 11
2259.791624617458
 21
31.77248252903132
 31
0.0
  0
LINE
  5
1A99
330
1F
100
AcDbEntity
  8
LOGO
 62
     6
100
AcDbLine
 10
2287.865466829118
 20
97.09635583219892
 30
0.0
 11
2271.043187950929
 21
97.09635583219892
 31
0.0
  0
LINE
  5
1A9A
330
1F
100
AcDbEntity
  8
LOGO
 62
     6
100
AcDbLine
 10
2287.865466829118
 20
73.0998309453214
 30
0.0
 11
2271.043187950929
 21
73.0998309453214
 31
0.0
  0
LINE
  5
1A9B
330
1F
100
AcDbEntity
  8
LOGO
 62
     6
100
AcDbLine
 10
2271.043187950929
 20
97.09635583219892
 30
0.0
 11
2271.043187950929
 21
73.0998309453214
 31
0.0
  0
LINE
  5
1A9C
330
1F
100
AcDbEntity
  8
LOGO
 62
     6
100
AcDbLine
 10
2287.865466829118
 20
97.09635583219892
 30
0.0
 11
2287.865466829118
 21
73.0998309453214
 31
0.0
  0
LINE
  5
1A9D
330
1F
100
AcDbEntity
  8
LOGO
 62
     6
100
AcDbLine
 10
2280.269028050499
 20
73.0998309453214
 30
0.0
 11
2280.269028050499
 21
61.10156850188355
 31
0.0
  0
TEXT
  5
1A9E
330
1F
100
AcDbEntity
  8
LOGO
  6
Continuous
 62
     7
100
AcDbText
 10
2276.032214502213
 20
78.10907043254132
 30
0.0
 40
14.0
  1
*
  7
CHINESET
100
AcDbText
  0
LINE
  5
1A9F
330
1F
100
AcDbEntity
  8
LOGO
 62
     6
100
AcDbLine
 10
2325.701762585913
 20
61.10156850188355
 30
0.0
 11
2259.791624617458
 21
61.10156850188355
 31
0.0
  0
TEXT
  5
1AA0
330
1F
100
AcDbEntity
  8
LOGO
  6
Continuous
 62
     6
100
AcDbText
 10
2265.144334813762
 20
35.91222082032778
 30
524.2309030401992
 40
6.0
  1
Swivel direction
 41
0.8
  7
CHINESET
100
AcDbText
  0
TEXT
  5
1AA1
330
1F
100
AcDbEntity
  8
LOGO
 62
     6
100
AcDbText
 10
2271.898273766908
 20
47.03492772803724
 30
524.2309030401992
 40
10.0
  1
旋轉方向
  7
CHINESET
100
AcDbText
  0
LINE
  5
1AA3
330
1F
100
AcDbEntity
  8
LOGO
  6
Continuous
 62
     7
100
AcDbLine
 10
2292.271191500926
 20
85.01309390526399
 30
0.0
 11
2302.867181296684
 21
85.01309390526399
 31
0.0
  0
TEXT
  5
1AA6
330
1F
100
AcDbEntity
  8
LOGO
  6
Continuous
 62
     7
100
AcDbText
 10
2356.634392843207
 20
78.10907043254132
 30
0.0
 40
14.0
  1
x
  7
CHINESET
100
AcDbText
  0
LINE
  5
1AA7
330
1F
100
AcDbEntity
  8
LOGO
 62
     6
100
AcDbLine
 10
2406.974627920213
 20
97.09635583219892
 30
0.0
 11
2369.037379059419
 21
97.09635583219892
 31
0.0
  0
LINE
  5
1AA8
330
1F
100
AcDbEntity
  8
LOGO
 62
     6
100
AcDbLine
 10
2406.974627920213
 20
73.0998309453214
 30
0.0
 11
2369.037379059419
 21
73.0998309453214
 31
0.0
  0
LINE
  5
1AA9
330
1F
100
AcDbEntity
  8
LOGO
 62
     6
100
AcDbLine
 10
2369.037379059419
 20
97.09635583219892
 30
0.0
 11
2369.037379059419
 21
73.0998309453214
 31
0.0
  0
LINE
  5
1AAA
330
1F
100
AcDbEntity
  8
LOGO
 62
     6
100
AcDbLine
 10
2406.974627920213
 20
97.09635583219892
 30
0.0
 11
2406.974627920213
 21
73.0998309453214
 31
0.0
  0
TEXT
  5
1AAB
330
1F
100
AcDbEntity
  8
LOGO
  6
Continuous
 62
     7
100
AcDbText
 10
2384.519746305021
 20
78.10907043254132
 30
0.0
 40
14.0
  1
*
  7
CHINESET
100
AcDbText
  0
LINE
  5
1AAC
330
1F
100
AcDbEntity
  8
LOGO
 62
     6
100
AcDbLine
 10
2438.903397885215
 20
61.10156850188355
 30
0.0
 11
2438.903397885215
 21
31.77248252903132
 31
0.0
  0
LINE
  5
1AAD
330
1F
100
AcDbEntity
  8
LOGO
 62
     6
100
AcDbLine
 10
2389.911313801174
 20
61.10156850188355
 30
0.0
 11
2389.911313801174
 21
31.77248252903132
 31
0.0
  0
LINE
  5
1AAE
330
1F
100
AcDbEntity
  8
LOGO
 62
     6
100
AcDbLine
 10
2438.903397885215
 20
31.77248252903132
 30
0.0
 11
2389.911313801174
 21
31.77248252903132
 31
0.0
  0
LINE
  5
1AAF
330
1F
100
AcDbEntity
  8
LOGO
 62
     6
100
AcDbLine
 10
2438.903397885215
 20
61.10156850188355
 30
0.0
 11
2389.911313801174
 21
61.10156850188355
 31
0.0
  0
TEXT
  5
1AB0
330
1F
100
AcDbEntity
  8
LOGO
  6
Continuous
 62
     6
100
AcDbText
 10
2402.292702325878
 20
35.91222082032778
 30
524.2309030401992
 40
6.0
  1
Angle
 41
0.8
  7
CHINESET
100
AcDbText
  0
TEXT
  5
1AB1
330
1F
100
AcDbEntity
  8
LOGO
 62
     6
100
AcDbText
 10
2394.685739553612
 20
47.03492772803724
 30
524.2309030401992
 40
10.0
  1
旋轉角度
  7
CHINESET
100
AcDbText
  0
LINE
  5
1AB7
330
1F
100
AcDbEntity
  8
LOGO
 62
     6
100
AcDbLine
 10
2388.006003489816
 20
73.09983094532142
 30
0.0
 11
2388.006003489816
 21
67.10069972360248
 31
0.0
  0
LINE
  5
1AB8
330
1F
100
AcDbEntity
  8
LOGO
 62
     6
100
AcDbLine
 10
2388.006003489816
 20
67.10069972360248
 30
0.0
 11
2414.407355843194
 21
67.10069972360248
 31
0.0
  0
LINE
  5
1AB9
330
1F
100
AcDbEntity
  8
LOGO
 62
     6
100
AcDbLine
 10
2414.407355843195
 20
61.10156850188355
 30
0.0
 11
2414.407355843194
 21
67.10069972360248
 31
0.0
  0
LINE
  5
1ABA
330
1F
100
AcDbEntity
  8
LOGO
 62
     6
100
AcDbLine
 10
2328.978918388493
 20
73.09983094532142
 30
0.0
 11
2328.978918388493
 21
67.10069972360248
 31
0.0
  0
LINE
  5
1ABB
330
1F
100
AcDbEntity
  8
LOGO
 62
     6
100
AcDbLine
 10
2328.978918388493
 20
67.10069972360248
 30
0.0
 11
2357.836436877899
 21
67.10069972360248
 31
0.0
  0
LINE
  5
1ABC
330
1F
100
AcDbEntity
  8
LOGO
 62
     6
100
AcDbLine
 10
2357.836436877899
 20
61.10156850188355
 30
0.0
 11
2357.836436877899
 21
67.10069972360248
 31
0.0
  0
LINE
  5
1C7F
330
1F
100
AcDbEntity
  8
0
100
AcDbLine
 10
2131.912984551748
 20
745.9947647914766
 30
0.0
 11
2069.912984551748
 21
745.9947647914766
 31
0.0
  0
LINE
  5
1C80
330
1F
100
AcDbEntity
  8
0
100
AcDbLine
 10
2069.912984551748
 20
699.9947647914766
 30
0.0
 11
2131.912984551748
 21
699.9947647914766
 31
0.0
  0
LINE
  5
1C81
330
1F
100
AcDbEntity
  8
0
100
AcDbLine
 10
2069.912984551748
 20
745.9947647914766
 30
0.0
 11
2068.912984551748
 21
744.9947647914767
 31
0.0
  0
LINE
  5
1C82
330
1F
100
AcDbEntity
  8
0
100
AcDbLine
 10
2068.912984551748
 20
700.9947647914766
 30
0.0
 11
2069.912984551748
 21
699.9947647914766
 31
0.0
  0
LINE
  5
1C83
330
1F
100
AcDbEntity
  8
0
100
AcDbLine
 10
2131.912984551748
 20
699.9947647914766
 30
0.0
 11
2132.912984551748
 21
700.9947647914766
 31
0.0
  0
LINE
  5
1C84
330
1F
100
AcDbEntity
  8
0
100
AcDbLine
 10
2132.912984551748
 20
744.9947647914767
 30
0.0
 11
2131.912984551748
 21
745.9947647914766
 31
0.0
  0
CIRCLE
  5
1C85
330
1F
100
AcDbEntity
  8
0
100
AcDbCircle
 10
2075.912984551748
 20
737.9947647914766
 30
0.0
 40
3.25
  0
CIRCLE
  5
1C86
330
1F
100
AcDbEntity
  8
0
100
AcDbCircle
 10
2075.912984551748
 20
707.9947647914766
 30
0.0
 40
3.25
  0
CIRCLE
  5
1C87
330
1F
100
AcDbEntity
  8
0
100
AcDbCircle
 10
2125.912984551748
 20
737.9947647914766
 30
0.0
 40
3.25
  0
CIRCLE
  5
1C88
330
1F
100
AcDbEntity
  8
0
100
AcDbCircle
 10
2125.912984551748
 20
707.9947647914766
 30
0.0
 40
3.25
  0
LINE
  5
1C89
330
1F
100
AcDbEntity
  8
0
100
AcDbLine
 10
2068.912984551748
 20
744.9947647914767
 30
0.0
 11
2068.912984551748
 21
741.9947647914766
 31
0.0
  0
LINE
  5
1C8A
102
{ACAD_REACTORS
330
1EEB
102
}
330
1F
100
AcDbEntity
  8
0
100
AcDbLine
 10
2068.912984551748
 20
703.9947647914766
 30
0.0
 11
2068.912984551748
 21
700.9947647914766
 31
0.0
  0
LINE
  5
1C8B
330
1F
100
AcDbEntity
  8
0
100
AcDbLine
 10
2069.871318514503
 20
508.9561227128467
 30
0.0
 11
2131.871318514503
 21
508.9561227128467
 31
0.0
  0
LINE
  5
1C8C
330
1F
100
AcDbEntity
  8
0
100
AcDbLine
 10
2132.871318514503
 20
509.9561227128467
 30
0.0
 11
2132.871318514503
 21
525.9561227128467
 31
0.0
  0
LINE
  5
1C8D
330
1F
100
AcDbEntity
  8
0
100
AcDbLine
 10
2068.871318514503
 20
525.9561227128467
 30
0.0
 11
2068.871318514503
 21
509.9561227128467
 31
0.0
  0
LINE
  5
1C8E
330
1F
100
AcDbEntity
  8
0
100
AcDbLine
 10
2123.371318514503
 20
526.9561227128467
 30
0.0
 11
2123.371318514503
 21
605.9561227128467
 31
0.0
  0
LINE
  5
1C8F
330
1F
100
AcDbEntity
  8
0
100
AcDbLine
 10
2122.371318514503
 20
606.9561227128467
 30
0.0
 11
2079.371318514503
 21
606.9561227128467
 31
0.0
  0
LINE
  5
1C90
330
1F
100
AcDbEntity
  8
0
100
AcDbLine
 10
2078.371318514503
 20
605.9561227128467
 30
0.0
 11
2078.371318514503
 21
526.9561227128467
 31
0.0
  0
LINE
  5
1C91
330
1F
100
AcDbEntity
  8
0
100
AcDbLine
 10
2123.371318514503
 20
574.9561227128467
 30
0.0
 11
2078.371318514503
 21
574.9561227128467
 31
0.0
  0
LINE
  5
1C93
330
1F
100
AcDbEntity
  8
0
100
AcDbLine
 10
2122.371318514503
 20
526.9561227128467
 30
0.0
 11
2122.371318514503
 21
574.9561227128467
 31
0.0
  0
LINE
  5
1C94
330
1F
100
AcDbEntity
  8
0
100
AcDbLine
 10
2079.371318514503
 20
574.9561227128467
 30
0.0
 11
2079.371318514503
 21
526.9561227128467
 31
0.0
  0
LINE
  5
1C96
330
1F
100
AcDbEntity
  8
0
100
AcDbLine
 10
2051.871318514503
 20
635.9561227128467
 30
0.0
 11
2149.871318514503
 21
635.9561227128467
 31
0.0
  0
LINE
  5
1C97
330
1F
100
AcDbEntity
  8
0
100
AcDbLine
 10
2051.871318514503
 20
654.9561227128467
 30
0.0
 11
2149.871318514503
 21
654.9561227128467
 31
0.0
  0
LINE
  5
1C98
330
1F
100
AcDbEntity
  8
0
100
AcDbLine
 10
2051.912984551748
 20
713.4947647914766
 30
0.0
 11
2149.912984551749
 21
713.4947647914766
 31
0.0
  0
LINE
  5
1C99
330
1F
100
AcDbEntity
  8
0
100
AcDbLine
 10
2051.912984551748
 20
732.4947647914767
 30
0.0
 11
2149.912984551749
 21
732.4947647914767
 31
0.0
  0
LINE
  5
1C9C
330
1F
100
AcDbEntity
  8
0
100
AcDbLine
 10
2150.912984551748
 20
714.4947647914766
 30
0.0
 11
2150.912984551748
 21
731.4947647914766
 31
0.0
  0
LINE
  5
1C9D
330
1F
100
AcDbEntity
  8
0
100
AcDbLine
 10
2050.912984551748
 20
714.4947647914766
 30
0.0
 11
2050.912984551748
 21
731.4947647914766
 31
0.0
  0
LINE
  5
1C9E
330
1F
100
AcDbEntity
  8
0
100
AcDbLine
 10
2150.871318514503
 20
653.9561227128467
 30
0.0
 11
2150.871318514503
 21
636.9561227128468
 31
0.0
  0
LINE
  5
1C9F
330
1F
100
AcDbEntity
  8
0
100
AcDbLine
 10
2050.871318514503
 20
653.9561227128467
 30
0.0
 11
2050.871318514503
 21
636.9561227128468
 31
0.0
  0
LINE
  5
1CA0
330
1F
100
AcDbEntity
  8
0
100
AcDbLine
 10
2090.412984551748
 20
727.4947647914766
 30
0.0
 11
2111.412984551748
 21
727.4947647914766
 31
0.0
  0
LINE
  5
1CA1
330
1F
100
AcDbEntity
  8
0
100
AcDbLine
 10
2090.412984551748
 20
718.4947647914766
 30
0.0
 11
2111.412984551748
 21
718.4947647914766
 31
0.0
  0
LINE
  5
1CA2
330
1F
100
AcDbEntity
  8
0
100
AcDbLine
 10
2149.912984551749
 20
732.4947647914767
 30
0.0
 11
2150.912984551748
 21
731.4947647914766
 31
0.0
  0
LINE
  5
1CA3
330
1F
100
AcDbEntity
  8
0
100
AcDbLine
 10
2150.912984551748
 20
714.4947647914766
 30
0.0
 11
2149.912984551749
 21
713.4947647914766
 31
0.0
  0
LINE
  5
1CA4
330
1F
100
AcDbEntity
  8
0
100
AcDbLine
 10
2051.912984551748
 20
713.4947647914766
 30
0.0
 11
2050.912984551748
 21
714.4947647914766
 31
0.0
  0
LINE
  5
1CA5
330
1F
100
AcDbEntity
  8
0
100
AcDbLine
 10
2050.912984551748
 20
731.4947647914766
 30
0.0
 11
2051.912984551748
 21
732.4947647914767
 31
0.0
  0
LINE
  5
1CA6
102
{ACAD_REACTORS
330
2ACF
102
}
330
1F
100
AcDbEntity
  8
0
100
AcDbLine
 10
2149.871318514503
 20
654.9561227128467
 30
0.0
 11
2150.871318514503
 21
653.9561227128467
 31
0.0
  0
LINE
  5
1CA7
330
1F
100
AcDbEntity
  8
0
100
AcDbLine
 10
2150.871318514503
 20
636.9561227128468
 30
0.0
 11
2149.871318514503
 21
635.9561227128467
 31
0.0
  0
LINE
  5
1CA8
330
1F
100
AcDbEntity
  8
0
100
AcDbLine
 10
2051.871318514503
 20
635.9561227128467
 30
0.0
 11
2050.871318514503
 21
636.9561227128468
 31
0.0
  0
LINE
  5
1CA9
102
{ACAD_REACTORS
330
2ACF
102
}
330
1F
100
AcDbEntity
  8
0
100
AcDbLine
 10
2050.871318514503
 20
653.9561227128467
 30
0.0
 11
2051.871318514503
 21
654.9561227128467
 31
0.0
  0
ARC
  5
1CAA
330
1F
100
AcDbEntity
  8
0
100
AcDbCircle
 10
2090.412984551748
 20
722.9947647914766
 30
0.0
 40
4.5
100
AcDbArc
 50
90.0
 51
270.0
  0
ARC
  5
1CAB
330
1F
100
AcDbEntity
  8
0
100
AcDbCircle
 10
2111.412984551748
 20
722.9947647914766
 30
0.0
 40
4.5
100
AcDbArc
 50
270.0
 51
90.0
  0
ARC
  5
1CAC
330
1F
100
AcDbEntity
  8
0
100
AcDbCircle
 10
2100.912984551748
 20
722.9947647914766
 30
0.0
 40
8.0
100
AcDbArc
 50
325.7711336721882
 51
34.22886632781179
  0
ARC
  5
1CAD
330
1F
100
AcDbEntity
  8
0
100
AcDbCircle
 10
2100.912984551748
 20
722.9947647914766
 30
0.0
 40
8.0
100
AcDbArc
 50
145.7711336721882
 51
214.2288663278118
  0
CIRCLE
  5
1CAE
330
1F
100
AcDbEntity
  8
0
100
AcDbCircle
 10
2100.871318514503
 20
645.4561227128468
 30
0.0
 40
4.0
  0
LINE
  5
1CB0
330
1F
100
AcDbEntity
  8
0
100
AcDbLine
 10
2068.912984551748
 20
741.9947647914766
 30
0.0
 11
2068.912984551748
 21
732.4947647914767
 31
0.0
  0
LINE
  5
1CB1
330
1F
100
AcDbEntity
  8
0
100
AcDbLine
 10
2068.912984551748
 20
713.4947647914766
 30
0.0
 11
2068.912984551748
 21
703.9947647914766
 31
0.0
  0
LINE
  5
1CB2
102
{ACAD_REACTORS
330
1EEB
102
}
330
1F
100
AcDbEntity
  8
0
100
AcDbLine
 10
2132.912984551748
 20
700.9947647914766
 30
0.0
 11
2132.912984551748
 21
713.4947647914766
 31
0.0
  0
LINE
  5
1CB3
330
1F
100
AcDbEntity
  8
0
100
AcDbLine
 10
2132.912984551748
 20
732.4947647914767
 30
0.0
 11
2132.912984551748
 21
744.9947647914767
 31
0.0
  0
ARC
  5
1CB4
330
1F
100
AcDbEntity
  8
0
100
AcDbCircle
 10
2100.912984551748
 20
722.9947647914766
 30
0.0
 40
22.0
100
AcDbArc
 50
205.5830019773967
 51
334.4169980226033
  0
ARC
  5
1CB5
330
1F
100
AcDbEntity
  8
0
100
AcDbCircle
 10
2100.912984551748
 20
722.9947647914766
 30
0.0
 40
22.5
100
AcDbArc
 50
204.974965367662
 51
335.025034632338
  0
ARC
  5
1CB6
330
1F
100
AcDbEntity
  8
0
100
AcDbCircle
 10
2100.912984551748
 20
722.9947647914766
 30
0.0
 40
22.0
100
AcDbArc
 50
25.58300197739672
 51
154.4169980226033
  0
ARC
  5
1CB7
330
1F
100
AcDbEntity
  8
0
100
AcDbCircle
 10
2100.912984551748
 20
722.9947647914766
 30
0.0
 40
22.5
100
AcDbArc
 50
24.97496536766199
 51
155.025034632338
  0
LINE
  5
1CB8
330
1F
100
AcDbEntity
  8
0
100
AcDbLine
 10
2091.871318514503
 20
635.9561227128467
 30
0.0
 11
2091.871318514503
 21
606.9561227128467
 31
0.0
  0
LINE
  5
1CB9
330
1F
100
AcDbEntity
  8
0
100
AcDbLine
 10
2109.871318514503
 20
635.9561227128467
 30
0.0
 11
2109.871318514503
 21
606.9561227128467
 31
0.0
  0
LINE
  5
1CBA
330
1F
100
AcDbEntity
  8
0
100
AcDbLine
 10
2131.871318514503
 20
526.9561227128467
 30
0.0
 11
2069.871318514503
 21
526.9561227128467
 31
0.0
  0
LINE
  5
1CBB
330
1F
100
AcDbEntity
  8
0
100
AcDbLine
 10
2069.871318514503
 20
526.9561227128467
 30
0.0
 11
2068.871318514503
 21
525.9561227128467
 31
0.0
  0
LINE
  5
1CBC
330
1F
100
AcDbEntity
  8
0
100
AcDbLine
 10
2131.871318514503
 20
526.9561227128467
 30
0.0
 11
2132.871318514503
 21
525.9561227128467
 31
0.0
  0
LINE
  5
1CBD
330
1F
100
AcDbEntity
  8
0
100
AcDbLine
 10
2078.371318514503
 20
605.9561227128467
 30
0.0
 11
2079.371318514503
 21
606.9561227128467
 31
0.0
  0
LINE
  5
1CBE
330
1F
100
AcDbEntity
  8
0
100
AcDbLine
 10
2122.371318514503
 20
606.9561227128467
 30
0.0
 11
2123.371318514503
 21
605.9561227128467
 31
0.0
  0
LINE
  5
1CBF
330
1F
100
AcDbEntity
  8
0
100
AcDbLine
 10
2068.871318514503
 20
509.9561227128467
 30
0.0
 11
2069.871318514503
 21
508.9561227128467
 31
0.0
  0
LINE
  5
1CC0
330
1F
100
AcDbEntity
  8
0
100
AcDbLine
 10
2131.871318514503
 20
508.9561227128467
 30
0.0
 11
2132.871318514503
 21
509.9561227128467
 31
0.0
  0
LINE
  5
1CD0
330
1F
100
AcDbEntity
  8
AM_7
100
AcDbLine
 10
2100.912984551748
 20
722.9947647914766
 30
0.0
 11
2153.945721444839
 21
722.9947647914766
 31
0.0
1001
GENIUS_GENOREF_13
1005
1CD4
  0
LINE
  5
1CD1
330
1F
100
AcDbEntity
  8
AM_7
100
AcDbLine
 10
2100.912984551748
 20
722.9947647914766
 30
0.0
 11
2100.912984551748
 21
747.9947647914766
 31
0.0
1001
GENIUS_GENOREF_13
1005
1CD4
  0
LINE
  5
1CD2
330
1F
100
AcDbEntity
  8
AM_7
100
AcDbLine
 10
2100.912984551748
 20
722.9947647914766
 30
0.0
 11
2046.993860002765
 21
722.9947647914766
 31
0.0
1001
GENIUS_GENOREF_13
1005
1CD4
  0
LINE
  5
1CD3
330
1F
100
AcDbEntity
  8
AM_7
100
AcDbLine
 10
2100.912984551748
 20
722.9947647914766
 30
0.0
 11
2100.912984551748
 21
697.9947647914766
 31
0.0
1001
GENIUS_GENOREF_13
1005
1CD4
  0
POINT
  5
1CD4
330
1F
100
AcDbEntity
  8
0
 60
     1
100
AcDbPoint
 10
0.0
 20
0.0
 30
0.0
1001
GENIUS_GENOENT_13
1002
{
1000
MYREF
1005
1CD4
1002
}
1002
{
1000
GRP
1005
0
1002
}
1001
GENIUS_GENOBJ-N-CRS_13
1002
{
1000
OWNER
1000
GEN
1002
}
1001
GENIUS_GENODEF_13
1002
{
1000
HIER
1070
    10
1002
}
1002
{
1000
MANEDIT
1070
     0
1002
}
1002
{
1000
NOSEL
1070
     0
1002
}
1002
{
1000
BEHIND
1070
     0
1002
}
1002
{
1000
OTHER
1070
     0
1002
}
1002
{
1000
REACTOR
1002
}
1001
GENIUS_GENOLIS_13
1002
{
1000
ENT
1005
1CD3
1005
1CD2
1005
1CD1
1005
1CD0
1002
}
  0
LINE
  5
1CE1
330
1F
100
AcDbEntity
  8
AM_7
100
AcDbLine
 10
2100.871318514503
 20
656.9561227128467
 30
0.0
 11
2100.871318514503
 21
506.9561227128467
 31
0.0
1001
GENIUS_GENODEF_13
1002
{
1000
HIER
1070
     0
1002
}
1002
{
1000
MANEDIT
1070
     0
1002
}
1002
{
1000
NOSEL
1070
     0
1002
}
1002
{
1000
BEHIND
1070
     0
1002
}
1002
{
1000
OTHER
1070
     0
1002
}
1002
{
1000
REACTOR
1002
}
1001
GENIUS_GENOBJ-N-CEN_13
1002
{
1000
OWNER
1000
GEN
1002
}
1001
GENIUS_GENCEN_19
1002
{
1040
2.0
1002
}
  0
LINE
  5
1CEF
330
1F
100
AcDbEntity
  8
AM_7
  6
AM_ISO08W050x2
100
AcDbLine
 10
2075.912984551748
 20
737.9947647914766
 30
0.0
 11
2081.162984551748
 21
737.9947647914766
 31
0.0
1001
GENIUS_GENOREF_13
1005
1CF3
  0
LINE
  5
1CF0
330
1F
100
AcDbEntity
  8
AM_7
  6
AM_ISO08W050x2
100
AcDbLine
 10
2075.912984551748
 20
737.9947647914766
 30
0.0
 11
2075.912984551748
 21
743.2447647914766
 31
0.0
1001
GENIUS_GENOREF_13
1005
1CF3
  0
LINE
  5
1CF1
330
1F
100
AcDbEntity
  8
AM_7
  6
AM_ISO08W050x2
100
AcDbLine
 10
2075.912984551748
 20
737.9947647914766
 30
0.0
 11
2070.662984551749
 21
737.9947647914766
 31
0.0
1001
GENIUS_GENOREF_13
1005
1CF3
  0
LINE
  5
1CF2
330
1F
100
AcDbEntity
  8
AM_7
  6
AM_ISO08W050x2
100
AcDbLine
 10
2075.912984551748
 20
737.9947647914766
 30
0.0
 11
2075.912984551748
 21
732.7447647914766
 31
0.0
1001
GENIUS_GENOREF_13
1005
1CF3
  0
POINT
  5
1CF3
330
1F
100
AcDbEntity
  8
0
 60
     1
100
AcDbPoint
 10
0.0
 20
0.0
 30
0.0
1001
GENIUS_GENOENT_13
1002
{
1000
MYREF
1005
1CF3
1002
}
1002
{
1000
GRP
1005
0
1002
}
1001
GENIUS_GENOBJ-N-CRS_13
1002
{
1000
OWNER
1000
GEN
1002
}
1001
GENIUS_GENODEF_13
1002
{
1000
HIER
1070
    10
1002
}
1002
{
1000
MANEDIT
1070
     0
1002
}
1002
{
1000
NOSEL
1070
     0
1002
}
1002
{
1000
BEHIND
1070
     0
1002
}
1002
{
1000
OTHER
1070
     0
1002
}
1002
{
1000
REACTOR
1002
}
1001
GENIUS_GENOLIS_13
1002
{
1000
ENT
1005
1CF2
1005
1CF1
1005
1CF0
1005
1CEF
1002
}
  0
LINE
  5
1D01
330
1F
100
AcDbEntity
  8
AM_7
  6
AM_ISO08W050x2
100
AcDbLine
 10
2125.912984551748
 20
737.9947647914766
 30
0.0
 11
2131.162984551748
 21
737.9947647914766
 31
0.0
1001
GENIUS_GENOREF_13
1005
1D05
  0
LINE
  5
1D02
330
1F
100
AcDbEntity
  8
AM_7
  6
AM_ISO08W050x2
100
AcDbLine
 10
2125.912984551748
 20
737.9947647914766
 30
0.0
 11
2125.912984551748
 21
743.2447647914766
 31
0.0
1001
GENIUS_GENOREF_13
1005
1D05
  0
LINE
  5
1D03
330
1F
100
AcDbEntity
  8
AM_7
  6
AM_ISO08W050x2
100
AcDbLine
 10
2125.912984551748
 20
737.9947647914766
 30
0.0
 11
2120.662984551748
 21
737.9947647914766
 31
0.0
1001
GENIUS_GENOREF_13
1005
1D05
  0
LINE
  5
1D04
330
1F
100
AcDbEntity
  8
AM_7
  6
AM_ISO08W050x2
100
AcDbLine
 10
2125.912984551748
 20
737.9947647914766
 30
0.0
 11
2125.912984551748
 21
732.7447647914766
 31
0.0
1001
GENIUS_GENOREF_13
1005
1D05
  0
POINT
  5
1D05
330
1F
100
AcDbEntity
  8
0
 60
     1
100
AcDbPoint
 10
0.0
 20
0.0
 30
0.0
1001
GENIUS_GENOBJ-N-CRS_13
1002
{
1000
OWNER
1000
GEN
1002
}
1001
GENIUS_GENOENT_13
1002
{
1000
MYREF
1005
1D05
1002
}
1002
{
1000
GRP
1005
0
1002
}
1001
GENIUS_GENODEF_13
1002
{
1000
HIER
1070
    10
1002
}
1002
{
1000
MANEDIT
1070
     0
1002
}
1002
{
1000
NOSEL
1070
     0
1002
}
1002
{
1000
BEHIND
1070
     0
1002
}
1002
{
1000
OTHER
1070
     0
1002
}
1002
{
1000
REACTOR
1002
}
1001
GENIUS_GENOLIS_13
1002
{
1000
ENT
1005
1D04
1005
1D03
1005
1D02
1005
1D01
1002
}
  0
LINE
  5
1D13
330
1F
100
AcDbEntity
  8
AM_7
  6
AM_ISO08W050x2
100
AcDbLine
 10
2125.912984551748
 20
707.9947647914766
 30
0.0
 11
2131.162984551748
 21
707.9947647914766
 31
0.0
1001
GENIUS_GENOREF_13
1005
1D17
  0
LINE
  5
1D14
330
1F
100
AcDbEntity
  8
AM_7
  6
AM_ISO08W050x2
100
AcDbLine
 10
2125.912984551748
 20
707.9947647914766
 30
0.0
 11
2125.912984551748
 21
713.2447647914766
 31
0.0
1001
GENIUS_GENOREF_13
1005
1D17
  0
LINE
  5
1D15
330
1F
100
AcDbEntity
  8
AM_7
  6
AM_ISO08W050x2
100
AcDbLine
 10
2125.912984551748
 20
707.9947647914766
 30
0.0
 11
2120.662984551748
 21
707.9947647914766
 31
0.0
1001
GENIUS_GENOREF_13
1005
1D17
  0
LINE
  5
1D16
102
{ACAD_REACTORS
330
1EC5
102
}
330
1F
100
AcDbEntity
  8
AM_7
  6
AM_ISO08W050x2
100
AcDbLine
 10
2125.912984551748
 20
707.9947647914766
 30
0.0
 11
2125.912984551748
 21
702.7447647914766
 31
0.0
1001
GENIUS_GENOREF_13
1005
1D17
  0
POINT
  5
1D17
330
1F
100
AcDbEntity
  8
0
 60
     1
100
AcDbPoint
 10
0.0
 20
0.0
 30
0.0
1001
GENIUS_GENOBJ-N-CRS_13
1002
{
1000
OWNER
1000
GEN
1002
}
1001
GENIUS_GENODEF_13
1002
{
1000
HIER
1070
    10
1002
}
1002
{
1000
MANEDIT
1070
     0
1002
}
1002
{
1000
NOSEL
1070
     0
1002
}
1002
{
1000
BEHIND
1070
     0
1002
}
1002
{
1000
OTHER
1070
     0
1002
}
1002
{
1000
REACTOR
1002
}
1001
GENIUS_GENOLIS_13
1002
{
1000
ENT
1005
1D16
1005
1D15
1005
1D14
1005
1D13
1002
}
1001
GENIUS_GENOENT_13
1002
{
1000
MYREF
1005
1D17
1002
}
1002
{
1000
GRP
1005
0
1002
}
  0
LINE
  5
1D25
330
1F
100
AcDbEntity
  8
AM_7
  6
AM_ISO08W050x2
100
AcDbLine
 10
2075.912984551748
 20
707.9947647914766
 30
0.0
 11
2081.162984551748
 21
707.9947647914766
 31
0.0
1001
GENIUS_GENOREF_13
1005
1D29
  0
LINE
  5
1D26
330
1F
100
AcDbEntity
  8
AM_7
  6
AM_ISO08W050x2
100
AcDbLine
 10
2075.912984551748
 20
707.9947647914766
 30
0.0
 11
2075.912984551748
 21
713.2447647914766
 31
0.0
1001
GENIUS_GENOREF_13
1005
1D29
  0
LINE
  5
1D27
330
1F
100
AcDbEntity
  8
AM_7
  6
AM_ISO08W050x2
100
AcDbLine
 10
2075.912984551748
 20
707.9947647914766
 30
0.0
 11
2070.662984551749
 21
707.9947647914766
 31
0.0
1001
GENIUS_GENOREF_13
1005
1D29
  0
LINE
  5
1D28
102
{ACAD_REACTORS
330
1EC5
102
}
330
1F
100
AcDbEntity
  8
AM_7
  6
AM_ISO08W050x2
100
AcDbLine
 10
2075.912984551748
 20
707.9947647914766
 30
0.0
 11
2075.912984551748
 21
702.7447647914766
 31
0.0
1001
GENIUS_GENOREF_13
1005
1D29
  0
POINT
  5
1D29
330
1F
100
AcDbEntity
  8
0
 60
     1
100
AcDbPoint
 10
0.0
 20
0.0
 30
0.0
1001
GENIUS_GENOENT_13
1002
{
1000
MYREF
1005
1D29
1002
}
1002
{
1000
GRP
1005
0
1002
}
1001
GENIUS_GENOBJ-N-CRS_13
1002
{
1000
OWNER
1000
GEN
1002
}
1001
GENIUS_GENOLIS_13
1002
{
1000
ENT
1005
1D28
1005
1D27
1005
1D26
1005
1D25
1002
}
1001
GENIUS_GENODEF_13
1002
{
1000
HIER
1070
    10
1002
}
1002
{
1000
MANEDIT
1070
     0
1002
}
1002
{
1000
NOSEL
1070
     0
1002
}
1002
{
1000
BEHIND
1070
     0
1002
}
1002
{
1000
OTHER
1070
     0
1002
}
1002
{
1000
REACTOR
1002
}
  0
DIMENSION
  5
1D8A
330
1F
100
AcDbEntity
  8
AM_5
100
AcDbDimension
  2
*D3
 10
2172.871318514503
 20
745.9947647914766
 30
0.0
 11
2170.371318514503
 21
722.9947647914769
 31
0.0
 70
    32
 71
     5
 42
46.0
  3
AM_ISO$0
100
AcDbAlignedDimension
 13
2131.954650588994
 23
699.9947647914766
 33
0.0
 14
2131.954650588994
 24
745.9947647914766
 34
0.0
 50
90.0
100
AcDbRotatedDimension
1001
ACAD
1000
DSTYLE
1002
{
1070
    40
1040
1.0
1070
   144
1040
1.0
1070
   272
1070
     8
1002
}
  0
DIMENSION
  5
1D8D
330
1F
100
AcDbEntity
  8
AM_5
100
AcDbDimension
  2
*D4
 10
2162.871318514503
 20
737.9947647914766
 30
0.0
 11
2160.371318514503
 21
722.9947647914769
 31
0.0
 70
    32
 71
     5
 42
30.0
  3
AM_ISO$0
100
AcDbAlignedDimension
 13
2131.204650588994
 23
707.9947647914766
 33
0.0
 14
2131.204650588994
 24
737.9947647914766
 34
0.0
 50
90.0
100
AcDbRotatedDimension
1001
ACAD
1000
DSTYLE
1002
{
1070
    40
1040
1.0
1070
   144
1040
1.0
1070
   272
1070
     8
1002
}
  0
DIMENSION
  5
1D90
330
1F
100
AcDbEntity
  8
AM_5
100
AcDbDimension
  2
*D5
 10
2162.871318514503
 20
606.9561227128467
 30
0.0
 11
2160.371318514503
 21
557.9561227128471
 31
0.0
 70
    32
 71
     5
 42
98.0
  3
AM_ISO$0
100
AcDbAlignedDimension
 13
2132.912984551748
 23
508.9561227128467
 33
0.0
 14
2122.371318514503
 24
606.9561227128467
 34
0.0
 50
90.0
100
AcDbRotatedDimension
1001
ACAD
1000
DSTYLE
1002
{
1070
    40
1040
1.0
1070
   144
1040
1.0
1070
   272
1070
     8
1002
}
  0
DIMENSION
  5
1D93
330
1F
100
AcDbEntity
  8
AM_5
100
AcDbDimension
  2
*D6
 10
2172.871318514503
 20
635.9561227128467
 30
0.0
 11
2170.371318514503
 21
572.4561227128471
 31
0.0
 70
    32
 71
     5
 42
127.0
  3
AM_ISO$0
100
AcDbAlignedDimension
 13
2132.912984551748
 23
508.9561227128467
 33
0.0
 14
2149.871318514503
 24
635.9561227128467
 34
0.0
 50
90.0
100
AcDbRotatedDimension
1001
ACAD
1000
DSTYLE
1002
{
1070
    40
1040
1.0
1070
   144
1040
1.0
1070
   272
1070
     8
1002
}
  0
DIMENSION
  5
1D96
330
1F
100
AcDbEntity
  8
AM_5
100
AcDbDimension
  2
*D7
 10
2056.912983551749
 20
508.9561227128467
 30
0.0
 11
2054.412983551749
 21
517.9561227128471
 31
0.0
 70
    32
 71
     5
 42
18.0
  3
AM_ISO$0
100
AcDbAlignedDimension
 13
2068.912984551748
 23
526.9561227128467
 33
0.0
 14
2068.912984551748
 24
508.9561227128467
 34
0.0
 50
90.0
100
AcDbRotatedDimension
1001
ACAD
1000
DSTYLE
1002
{
1070
    40
1040
1.0
1070
   144
1040
1.0
1070
   272
1070
     8
1002
}
  0
DIMENSION
  5
1D99
330
1F
100
AcDbEntity
  8
AM_5
100
AcDbDimension
  2
*D8
 10
2172.871318514503
 20
635.9561227128467
 30
0.0
 11
2170.371318514503
 21
645.4561227128471
 31
0.0
 70
    32
 71
     5
 42
19.0
  3
AM_ISO$0
100
AcDbAlignedDimension
 13
2149.871318514503
 23
654.9561227128467
 33
0.0
 14
2149.871318514503
 24
635.9561227128467
 34
0.0
 50
90.0
100
AcDbRotatedDimension
1001
ACAD
1000
DSTYLE
1002
{
1070
    40
1040
1.0
1070
   144
1040
1.0
1070
   272
1070
     8
1002
}
  0
DIMENSION
  5
1EB7
102
{ACAD_XDICTIONARY
360
1EC4
102
}
102
{ACAD_REACTORS
330
1EC5
102
}
330
1F
100
AcDbEntity
  8
AM_5
100
AcDbDimension
  2
*D9
 10
2125.912984551748
 20
690.7447647914766
 30
0.0
 11
2100.912984551748
 21
693.2447647914766
 31
0.0
 70
    32
 71
     5
 42
50.0
  3
AM_ISO$0
100
AcDbAlignedDimension
 13
2075.912984551748
 23
702.7447647914766
 33
0.0
 14
2125.912984551748
 24
702.7447647914766
 34
0.0
 50
0.0000000000001018
100
AcDbRotatedDimension
1001
ACAD
1000
DSTYLE
1002
{
1070
    40
1040
1.0
1070
   144
1040
1.0
1070
   272
1070
     8
1002
}
  0
DIMENSION
  5
1EDD
102
{ACAD_XDICTIONARY
360
1EEA
102
}
102
{ACAD_REACTORS
330
1EEB
102
}
330
1F
100
AcDbEntity
  8
AM_5
100
AcDbDimension
  2
*D10
 10
2132.912984551748
 20
680.7447647914751
 30
0.0
 11
2100.912984551748
 21
683.2447647914752
 31
0.0
 70
    32
 71
     5
 42
64.0
  3
AM_ISO$0
100
AcDbAlignedDimension
 13
2068.912984551748
 23
700.9947647914766
 33
0.0
 14
2132.912984551748
 24
700.9947647914766
 34
0.0
 50
0.0000000000001018
100
AcDbRotatedDimension
1001
ACAD
1000
DSTYLE
1002
{
1070
    40
1040
1.0
1070
   144
1040
1.0
1070
   272
1070
     8
1002
}
  0
LINE
  5
1F6D
330
1F
100
AcDbEntity
  8
0
100
AcDbLine
 10
2131.954650588994
 20
373.6142782712192
 30
0.0
 11
2069.954650588993
 21
373.6142782712192
 31
0.0
  0
LINE
  5
1F6E
330
1F
100
AcDbEntity
  8
0
100
AcDbLine
 10
2069.954650588993
 20
327.6142782712192
 30
0.0
 11
2131.954650588994
 21
327.6142782712192
 31
0.0
  0
LINE
  5
1F6F
330
1F
100
AcDbEntity
  8
0
100
AcDbLine
 10
2069.954650588993
 20
373.6142782712192
 30
0.0
 11
2068.954650588993
 21
372.6142782712192
 31
0.0
  0
LINE
  5
1F70
330
1F
100
AcDbEntity
  8
0
100
AcDbLine
 10
2068.954650588993
 20
328.6142782712192
 30
0.0
 11
2069.954650588993
 21
327.6142782712192
 31
0.0
  0
LINE
  5
1F71
330
1F
100
AcDbEntity
  8
0
100
AcDbLine
 10
2131.954650588994
 20
327.6142782712192
 30
0.0
 11
2132.954650588994
 21
328.6142782712192
 31
0.0
  0
LINE
  5
1F72
330
1F
100
AcDbEntity
  8
0
100
AcDbLine
 10
2132.954650588994
 20
372.6142782712192
 30
0.0
 11
2131.954650588994
 21
373.6142782712192
 31
0.0
  0
CIRCLE
  5
1F73
330
1F
100
AcDbEntity
  8
0
100
AcDbCircle
 10
2075.954650588994
 20
365.6142782712192
 30
0.0
 40
3.25
  0
CIRCLE
  5
1F74
330
1F
100
AcDbEntity
  8
0
100
AcDbCircle
 10
2075.954650588994
 20
335.6142782712192
 30
0.0
 40
3.25
  0
CIRCLE
  5
1F75
330
1F
100
AcDbEntity
  8
0
100
AcDbCircle
 10
2125.954650588994
 20
365.6142782712192
 30
0.0
 40
3.25
  0
CIRCLE
  5
1F76
330
1F
100
AcDbEntity
  8
0
100
AcDbCircle
 10
2125.954650588994
 20
335.6142782712192
 30
0.0
 40
3.25
  0
LINE
  5
1F77
330
1F
100
AcDbEntity
  8
0
100
AcDbLine
 10
2068.954650588993
 20
372.6142782712192
 30
0.0
 11
2068.954650588993
 21
369.6142782712192
 31
0.0
  0
LINE
  5
1F78
330
1F
100
AcDbEntity
  8
0
100
AcDbLine
 10
2068.954650588993
 20
331.6142782712192
 30
0.0
 11
2068.954650588993
 21
328.6142782712192
 31
0.0
  0
LINE
  5
1F79
330
1F
100
AcDbEntity
  8
0
100
AcDbLine
 10
2069.912984551748
 20
131.9418999801224
 30
0.0
 11
2131.912984551748
 21
131.9418999801224
 31
0.0
  0
LINE
  5
1F7A
330
1F
100
AcDbEntity
  8
0
100
AcDbLine
 10
2132.912984551748
 20
132.9418999801224
 30
0.0
 11
2132.912984551748
 21
148.9418999801224
 31
0.0
  0
LINE
  5
1F7B
330
1F
100
AcDbEntity
  8
0
100
AcDbLine
 10
2068.912984551748
 20
148.9418999801224
 30
0.0
 11
2068.912984551748
 21
132.9418999801224
 31
0.0
  0
LINE
  5
1F7C
330
1F
100
AcDbEntity
  8
0
100
AcDbLine
 10
2123.412984551748
 20
149.9418999801224
 30
0.0
 11
2123.412984551748
 21
228.9418999801224
 31
0.0
  0
LINE
  5
1F7D
330
1F
100
AcDbEntity
  8
0
100
AcDbLine
 10
2122.412984551748
 20
229.9418999801225
 30
0.0
 11
2079.412984551748
 21
229.9418999801225
 31
0.0
  0
LINE
  5
1F7E
330
1F
100
AcDbEntity
  8
0
100
AcDbLine
 10
2078.412984551748
 20
228.9418999801224
 30
0.0
 11
2078.412984551748
 21
149.9418999801224
 31
0.0
  0
LINE
  5
1F7F
330
1F
100
AcDbEntity
  8
0
100
AcDbLine
 10
2123.412984551748
 20
197.9418999801224
 30
0.0
 11
2078.412984551748
 21
197.9418999801224
 31
0.0
  0
LINE
  5
1F82
330
1F
100
AcDbEntity
  8
0
100
AcDbLine
 10
2122.412984551748
 20
149.9418999801224
 30
0.0
 11
2122.412984551748
 21
197.9418999801224
 31
0.0
  0
LINE
  5
1F83
330
1F
100
AcDbEntity
  8
0
100
AcDbLine
 10
2079.412984551748
 20
197.9418999801224
 30
0.0
 11
2079.412984551748
 21
149.9418999801224
 31
0.0
  0
LINE
  5
1F85
330
1F
100
AcDbEntity
  8
0
100
AcDbLine
 10
2051.912984551748
 20
265.9418999801224
 30
0.0
 11
2149.912984551749
 21
265.9418999801224
 31
0.0
  0
LINE
  5
1F86
330
1F
100
AcDbEntity
  8
0
100
AcDbLine
 10
2051.912984551748
 20
284.9418999801224
 30
0.0
 11
2149.912984551749
 21
284.9418999801224
 31
0.0
  0
LINE
  5
1F87
330
1F
100
AcDbEntity
  8
0
100
AcDbLine
 10
2051.954650588994
 20
341.1142782712192
 30
0.0
 11
2149.954650588993
 21
341.1142782712192
 31
0.0
  0
LINE
  5
1F88
330
1F
100
AcDbEntity
  8
0
100
AcDbLine
 10
2051.954650588994
 20
360.1142782712192
 30
0.0
 11
2149.954650588993
 21
360.1142782712192
 31
0.0
  0
LINE
  5
1F8B
330
1F
100
AcDbEntity
  8
0
100
AcDbLine
 10
2150.954650588994
 20
342.1142782712192
 30
0.0
 11
2150.954650588994
 21
359.1142782712192
 31
0.0
  0
LINE
  5
1F8C
330
1F
100
AcDbEntity
  8
0
100
AcDbLine
 10
2050.954650588994
 20
342.1142782712192
 30
0.0
 11
2050.954650588994
 21
359.1142782712192
 31
0.0
  0
LINE
  5
1F8D
330
1F
100
AcDbEntity
  8
0
100
AcDbLine
 10
2150.912984551748
 20
283.9418999801225
 30
0.0
 11
2150.912984551748
 21
266.9418999801225
 31
0.0
  0
LINE
  5
1F8E
330
1F
100
AcDbEntity
  8
0
100
AcDbLine
 10
2050.912984551748
 20
283.9418999801225
 30
0.0
 11
2050.912984551748
 21
266.9418999801225
 31
0.0
  0
LINE
  5
1F8F
330
1F
100
AcDbEntity
  8
0
100
AcDbLine
 10
2090.454650588994
 20
355.1142782712192
 30
0.0
 11
2111.454650588993
 21
355.1142782712192
 31
0.0
  0
LINE
  5
1F90
330
1F
100
AcDbEntity
  8
0
100
AcDbLine
 10
2090.454650588994
 20
346.1142782712192
 30
0.0
 11
2111.454650588993
 21
346.1142782712192
 31
0.0
  0
LINE
  5
1F91
330
1F
100
AcDbEntity
  8
0
100
AcDbLine
 10
2149.954650588993
 20
360.1142782712192
 30
0.0
 11
2150.954650588994
 21
359.1142782712192
 31
0.0
  0
LINE
  5
1F92
330
1F
100
AcDbEntity
  8
0
100
AcDbLine
 10
2150.954650588994
 20
342.1142782712192
 30
0.0
 11
2149.954650588993
 21
341.1142782712192
 31
0.0
  0
LINE
  5
1F93
330
1F
100
AcDbEntity
  8
0
100
AcDbLine
 10
2051.954650588994
 20
341.1142782712192
 30
0.0
 11
2050.954650588994
 21
342.1142782712192
 31
0.0
  0
LINE
  5
1F94
330
1F
100
AcDbEntity
  8
0
100
AcDbLine
 10
2050.954650588994
 20
359.1142782712192
 30
0.0
 11
2051.954650588994
 21
360.1142782712192
 31
0.0
  0
LINE
  5
1F95
330
1F
100
AcDbEntity
  8
0
100
AcDbLine
 10
2149.912984551749
 20
284.9418999801224
 30
0.0
 11
2150.912984551748
 21
283.9418999801225
 31
0.0
  0
LINE
  5
1F96
330
1F
100
AcDbEntity
  8
0
100
AcDbLine
 10
2150.912984551748
 20
266.9418999801225
 30
0.0
 11
2149.912984551749
 21
265.9418999801224
 31
0.0
  0
LINE
  5
1F97
330
1F
100
AcDbEntity
  8
0
100
AcDbLine
 10
2051.912984551748
 20
265.9418999801224
 30
0.0
 11
2050.912984551748
 21
266.9418999801225
 31
0.0
  0
LINE
  5
1F98
330
1F
100
AcDbEntity
  8
0
100
AcDbLine
 10
2050.912984551748
 20
283.9418999801225
 30
0.0
 11
2051.912984551748
 21
284.9418999801224
 31
0.0
  0
ARC
  5
1F99
330
1F
100
AcDbEntity
  8
0
100
AcDbCircle
 10
2090.454650588994
 20
350.6142782712192
 30
0.0
 40
4.5
100
AcDbArc
 50
90.0
 51
270.0
  0
ARC
  5
1F9A
330
1F
100
AcDbEntity
  8
0
100
AcDbCircle
 10
2111.454650588993
 20
350.6142782712192
 30
0.0
 40
4.5
100
AcDbArc
 50
270.0
 51
90.0
  0
ARC
  5
1F9B
330
1F
100
AcDbEntity
  8
0
100
AcDbCircle
 10
2100.954650588993
 20
350.6142782712192
 30
0.0
 40
8.0
100
AcDbArc
 50
325.7711336721882
 51
34.22886632781179
  0
ARC
  5
1F9C
330
1F
100
AcDbEntity
  8
0
100
AcDbCircle
 10
2100.954650588993
 20
350.6142782712192
 30
0.0
 40
8.0
100
AcDbArc
 50
145.7711336721882
 51
214.2288663278118
  0
CIRCLE
  5
1F9D
330
1F
100
AcDbEntity
  8
0
100
AcDbCircle
 10
2100.912984551748
 20
275.4418999801225
 30
0.0
 40
4.0
  0
LINE
  5
1F9F
330
1F
100
AcDbEntity
  8
0
100
AcDbLine
 10
2068.954650588993
 20
369.6142782712192
 30
0.0
 11
2068.954650588993
 21
360.1142782712192
 31
0.0
  0
LINE
  5
1FA0
330
1F
100
AcDbEntity
  8
0
100
AcDbLine
 10
2068.954650588993
 20
341.1142782712192
 30
0.0
 11
2068.954650588993
 21
331.6142782712192
 31
0.0
  0
LINE
  5
1FA1
330
1F
100
AcDbEntity
  8
0
100
AcDbLine
 10
2132.954650588994
 20
328.6142782712192
 30
0.0
 11
2132.954650588994
 21
341.1142782712192
 31
0.0
  0
LINE
  5
1FA2
330
1F
100
AcDbEntity
  8
0
100
AcDbLine
 10
2132.954650588994
 20
360.1142782712192
 30
0.0
 11
2132.954650588994
 21
372.6142782712192
 31
0.0
  0
ARC
  5
1FA3
330
1F
100
AcDbEntity
  8
0
100
AcDbCircle
 10
2100.954650588993
 20
350.6142782712192
 30
0.0
 40
22.0
100
AcDbArc
 50
205.5830019773997
 51
334.4169980226003
  0
ARC
  5
1FA4
330
1F
100
AcDbEntity
  8
0
100
AcDbCircle
 10
2100.954650588993
 20
350.6142782712192
 30
0.0
 40
22.5
100
AcDbArc
 50
204.974965367662
 51
335.025034632338
  0
ARC
  5
1FA5
330
1F
100
AcDbEntity
  8
0
100
AcDbCircle
 10
2100.954650588993
 20
350.6142782712192
 30
0.0
 40
22.0
100
AcDbArc
 50
25.58300197739966
 51
154.4169980226003
  0
ARC
  5
1FA6
330
1F
100
AcDbEntity
  8
0
100
AcDbCircle
 10
2100.954650588993
 20
350.6142782712192
 30
0.0
 40
22.5
100
AcDbArc
 50
24.97496536766199
 51
155.025034632338
  0
LINE
  5
1FA7
330
1F
100
AcDbEntity
  8
0
100
AcDbLine
 10
2091.912984551748
 20
265.9418999801224
 30
0.0
 11
2091.912984551748
 21
229.9418999801225
 31
0.0
  0
LINE
  5
1FA8
330
1F
100
AcDbEntity
  8
0
100
AcDbLine
 10
2109.912984551748
 20
265.9418999801224
 30
0.0
 11
2109.912984551748
 21
229.9418999801225
 31
0.0
  0
LINE
  5
1FAA
330
1F
100
AcDbEntity
  8
0
100
AcDbLine
 10
2131.912984551748
 20
149.9418999801224
 30
0.0
 11
2069.912984551748
 21
149.9418999801224
 31
0.0
  0
LINE
  5
1FAB
330
1F
100
AcDbEntity
  8
0
100
AcDbLine
 10
2068.912984551748
 20
148.9418999801224
 30
0.0
 11
2069.912984551748
 21
149.9418999801224
 31
0.0
  0
LINE
  5
1FAC
330
1F
100
AcDbEntity
  8
0
100
AcDbLine
 10
2131.912984551748
 20
149.9418999801224
 30
0.0
 11
2132.912984551748
 21
148.9418999801224
 31
0.0
  0
LINE
  5
1FAD
330
1F
100
AcDbEntity
  8
0
100
AcDbLine
 10
2078.412984551748
 20
228.9418999801224
 30
0.0
 11
2079.412984551748
 21
229.9418999801225
 31
0.0
  0
LINE
  5
1FAE
330
1F
100
AcDbEntity
  8
0
100
AcDbLine
 10
2122.412984551748
 20
229.9418999801225
 30
0.0
 11
2123.412984551748
 21
228.9418999801224
 31
0.0
  0
LINE
  5
1FAF
330
1F
100
AcDbEntity
  8
0
100
AcDbLine
 10
2131.912984551748
 20
131.9418999801224
 30
0.0
 11
2132.912984551748
 21
132.9418999801224
 31
0.0
  0
LINE
  5
1FB0
330
1F
100
AcDbEntity
  8
0
100
AcDbLine
 10
2068.912984551748
 20
132.9418999801224
 30
0.0
 11
2069.912984551748
 21
131.9418999801224
 31
0.0
  0
CIRCLE
  5
1FB3
330
1F
100
AcDbEntity
  8
0
100
AcDbCircle
 10
2086.323196194886
 20
142.7371970556488
 30
0.0
 40
4.75
  0
CIRCLE
  5
1FB4
330
1F
100
AcDbEntity
  8
0
100
AcDbCircle
 10
2086.323196194886
 20
142.7371970556488
 30
0.0
 40
3.75
  0
LINE
  5
1FC2
330
1F
100
AcDbEntity
  8
AM_7
  6
AM_ISO08W050x2
100
AcDbLine
 10
2086.323196194886
 20
142.7371970556488
 30
0.0
 11
2093.073196194886
 21
142.7371970556488
 31
0.0
1001
GENIUS_GENOREF_13
1005
1FC6
  0
LINE
  5
1FC3
330
1F
100
AcDbEntity
  8
AM_7
  6
AM_ISO08W050x2
100
AcDbLine
 10
2086.323196194886
 20
142.7371970556488
 30
0.0
 11
2086.323196194886
 21
149.4871970556488
 31
0.0
1001
GENIUS_GENOREF_13
1005
1FC6
  0
LINE
  5
1FC4
330
1F
100
AcDbEntity
  8
AM_7
  6
AM_ISO08W050x2
100
AcDbLine
 10
2086.323196194886
 20
142.7371970556488
 30
0.0
 11
2079.573196194886
 21
142.7371970556488
 31
0.0
1001
GENIUS_GENOREF_13
1005
1FC6
  0
LINE
  5
1FC5
330
1F
100
AcDbEntity
  8
AM_7
  6
AM_ISO08W050x2
100
AcDbLine
 10
2086.323196194886
 20
142.7371970556488
 30
0.0
 11
2086.323196194886
 21
135.9871970556488
 31
0.0
1001
GENIUS_GENOREF_13
1005
1FC6
  0
POINT
  5
1FC6
330
1F
100
AcDbEntity
  8
0
 60
     1
100
AcDbPoint
 10
0.0
 20
0.0
 30
0.0
1001
GENIUS_GENODEF_13
1002
{
1000
HIER
1070
    10
1002
}
1002
{
1000
MANEDIT
1070
     0
1002
}
1002
{
1000
NOSEL
1070
     0
1002
}
1002
{
1000
BEHIND
1070
     0
1002
}
1002
{
1000
OTHER
1070
     0
1002
}
1002
{
1000
REACTOR
1002
}
1001
GENIUS_GENOENT_13
1002
{
1000
MYREF
1005
1FC6
1002
}
1002
{
1000
GRP
1005
0
1002
}
1001
GENIUS_GENOBJ-N-CRS_13
1002
{
1000
OWNER
1000
GEN
1002
}
1001
GENIUS_GENOLIS_13
1002
{
1000
ENT
1005
1FC5
1005
1FC4
1005
1FC3
1005
1FC2
1002
}
  0
LINE
  5
1FD3
330
1F
100
AcDbEntity
  8
AM_7
100
AcDbLine
 10
2100.912984551748
 20
286.9418999801224
 30
0.0
 11
2100.912984551748
 21
129.9418999801224
 31
0.0
1001
GENIUS_GENODEF_13
1002
{
1000
HIER
1070
     0
1002
}
1002
{
1000
MANEDIT
1070
     0
1002
}
1002
{
1000
NOSEL
1070
     0
1002
}
1002
{
1000
BEHIND
1070
     0
1002
}
1002
{
1000
OTHER
1070
     0
1002
}
1002
{
1000
REACTOR
1002
}
1001
GENIUS_GENOBJ-N-CEN_13
1002
{
1000
OWNER
1000
GEN
1002
}
1001
GENIUS_GENCEN_19
1002
{
1040
2.0
1002
}
  0
LINE
  5
1FE1
330
1F
100
AcDbEntity
  8
AM_7
100
AcDbLine
 10
2100.954650588993
 20
350.6142782712192
 30
0.0
 11
2154.179609503815
 21
350.6142782712192
 31
0.0
1001
GENIUS_GENOREF_13
1005
1FE5
  0
LINE
  5
1FE2
330
1F
100
AcDbEntity
  8
AM_7
100
AcDbLine
 10
2100.954650588993
 20
350.6142782712192
 30
0.0
 11
2100.954650588993
 21
375.6142782712192
 31
0.0
1001
GENIUS_GENOREF_13
1005
1FE5
  0
LINE
  5
1FE3
330
1F
100
AcDbEntity
  8
AM_7
100
AcDbLine
 10
2100.954650588993
 20
350.6142782712192
 30
0.0
 11
2047.502915202439
 21
350.6142782712192
 31
0.0
1001
GENIUS_GENOREF_13
1005
1FE5
  0
LINE
  5
1FE4
330
1F
100
AcDbEntity
  8
AM_7
100
AcDbLine
 10
2100.954650588993
 20
350.6142782712192
 30
0.0
 11
2100.954650588993
 21
325.6142782712192
 31
0.0
1001
GENIUS_GENOREF_13
1005
1FE5
  0
POINT
  5
1FE5
330
1F
100
AcDbEntity
  8
0
 60
     1
100
AcDbPoint
 10
0.0
 20
0.0
 30
0.0
1001
GENIUS_GENODEF_13
1002
{
1000
HIER
1070
    10
1002
}
1002
{
1000
MANEDIT
1070
     0
1002
}
1002
{
1000
NOSEL
1070
     0
1002
}
1002
{
1000
BEHIND
1070
     0
1002
}
1002
{
1000
OTHER
1070
     0
1002
}
1002
{
1000
REACTOR
1002
}
1001
GENIUS_GENOLIS_13
1002
{
1000
ENT
1005
1FE4
1005
1FE3
1005
1FE2
1005
1FE1
1002
}
1001
GENIUS_GENOENT_13
1002
{
1000
MYREF
1005
1FE5
1002
}
1002
{
1000
GRP
1005
0
1002
}
1001
GENIUS_GENOBJ-N-CRS_13
1002
{
1000
OWNER
1000
GEN
1002
}
  0
LINE
  5
1FF3
330
1F
100
AcDbEntity
  8
AM_7
  6
AM_ISO08W050x2
100
AcDbLine
 10
2125.954650588994
 20
335.6142782712192
 30
0.0
 11
2131.204650588994
 21
335.6142782712192
 31
0.0
1001
GENIUS_GENOREF_13
1005
1FF7
  0
LINE
  5
1FF4
330
1F
100
AcDbEntity
  8
AM_7
  6
AM_ISO08W050x2
100
AcDbLine
 10
2125.954650588994
 20
335.6142782712192
 30
0.0
 11
2125.954650588994
 21
340.8642782712192
 31
0.0
1001
GENIUS_GENOREF_13
1005
1FF7
  0
LINE
  5
1FF5
330
1F
100
AcDbEntity
  8
AM_7
  6
AM_ISO08W050x2
100
AcDbLine
 10
2125.954650588994
 20
335.6142782712192
 30
0.0
 11
2120.704650588994
 21
335.6142782712192
 31
0.0
1001
GENIUS_GENOREF_13
1005
1FF7
  0
LINE
  5
1FF6
330
1F
100
AcDbEntity
  8
AM_7
  6
AM_ISO08W050x2
100
AcDbLine
 10
2125.954650588994
 20
335.6142782712192
 30
0.0
 11
2125.954650588994
 21
330.3642782712192
 31
0.0
1001
GENIUS_GENOREF_13
1005
1FF7
  0
POINT
  5
1FF7
330
1F
100
AcDbEntity
  8
0
 60
     1
100
AcDbPoint
 10
0.0
 20
0.0
 30
0.0
1001
GENIUS_GENOENT_13
1002
{
1000
MYREF
1005
1FF7
1002
}
1002
{
1000
GRP
1005
0
1002
}
1001
GENIUS_GENOBJ-N-CRS_13
1002
{
1000
OWNER
1000
GEN
1002
}
1001
GENIUS_GENOLIS_13
1002
{
1000
ENT
1005
1FF6
1005
1FF5
1005
1FF4
1005
1FF3
1002
}
1001
GENIUS_GENODEF_13
1002
{
1000
HIER
1070
    10
1002
}
1002
{
1000
MANEDIT
1070
     0
1002
}
1002
{
1000
NOSEL
1070
     0
1002
}
1002
{
1000
BEHIND
1070
     0
1002
}
1002
{
1000
OTHER
1070
     0
1002
}
1002
{
1000
REACTOR
1002
}
  0
LINE
  5
2005
330
1F
100
AcDbEntity
  8
AM_7
  6
AM_ISO08W050x2
100
AcDbLine
 10
2125.954650588994
 20
365.6142782712192
 30
0.0
 11
2131.204650588994
 21
365.6142782712192
 31
0.0
1001
GENIUS_GENOREF_13
1005
2009
  0
LINE
  5
2006
330
1F
100
AcDbEntity
  8
AM_7
  6
AM_ISO08W050x2
100
AcDbLine
 10
2125.954650588994
 20
365.6142782712192
 30
0.0
 11
2125.954650588994
 21
370.8642782712192
 31
0.0
1001
GENIUS_GENOREF_13
1005
2009
  0
LINE
  5
2007
330
1F
100
AcDbEntity
  8
AM_7
  6
AM_ISO08W050x2
100
AcDbLine
 10
2125.954650588994
 20
365.6142782712192
 30
0.0
 11
2120.704650588994
 21
365.6142782712192
 31
0.0
1001
GENIUS_GENOREF_13
1005
2009
  0
LINE
  5
2008
330
1F
100
AcDbEntity
  8
AM_7
  6
AM_ISO08W050x2
100
AcDbLine
 10
2125.954650588994
 20
365.6142782712192
 30
0.0
 11
2125.954650588994
 21
360.3642782712192
 31
0.0
1001
GENIUS_GENOREF_13
1005
2009
  0
POINT
  5
2009
330
1F
100
AcDbEntity
  8
0
 60
     1
100
AcDbPoint
 10
0.0
 20
0.0
 30
0.0
1001
GENIUS_GENOBJ-N-CRS_13
1002
{
1000
OWNER
1000
GEN
1002
}
1001
GENIUS_GENOENT_13
1002
{
1000
MYREF
1005
2009
1002
}
1002
{
1000
GRP
1005
0
1002
}
1001
GENIUS_GENOLIS_13
1002
{
1000
ENT
1005
2008
1005
2007
1005
2006
1005
2005
1002
}
1001
GENIUS_GENODEF_13
1002
{
1000
HIER
1070
    10
1002
}
1002
{
1000
MANEDIT
1070
     0
1002
}
1002
{
1000
NOSEL
1070
     0
1002
}
1002
{
1000
BEHIND
1070
     0
1002
}
1002
{
1000
OTHER
1070
     0
1002
}
1002
{
1000
REACTOR
1002
}
  0
LINE
  5
2017
330
1F
100
AcDbEntity
  8
AM_7
  6
AM_ISO08W050x2
100
AcDbLine
 10
2075.954650588994
 20
365.6142782712192
 30
0.0
 11
2081.204650588993
 21
365.6142782712192
 31
0.0
1001
GENIUS_GENOREF_13
1005
201B
  0
LINE
  5
2018
330
1F
100
AcDbEntity
  8
AM_7
  6
AM_ISO08W050x2
100
AcDbLine
 10
2075.954650588994
 20
365.6142782712192
 30
0.0
 11
2075.954650588994
 21
370.8642782712192
 31
0.0
1001
GENIUS_GENOREF_13
1005
201B
  0
LINE
  5
2019
330
1F
100
AcDbEntity
  8
AM_7
  6
AM_ISO08W050x2
100
AcDbLine
 10
2075.954650588994
 20
365.6142782712192
 30
0.0
 11
2070.704650588993
 21
365.6142782712192
 31
0.0
1001
GENIUS_GENOREF_13
1005
201B
  0
LINE
  5
201A
330
1F
100
AcDbEntity
  8
AM_7
  6
AM_ISO08W050x2
100
AcDbLine
 10
2075.954650588994
 20
365.6142782712192
 30
0.0
 11
2075.954650588994
 21
360.3642782712192
 31
0.0
1001
GENIUS_GENOREF_13
1005
201B
  0
POINT
  5
201B
330
1F
100
AcDbEntity
  8
0
 60
     1
100
AcDbPoint
 10
0.0
 20
0.0
 30
0.0
1001
GENIUS_GENOBJ-N-CRS_13
1002
{
1000
OWNER
1000
GEN
1002
}
1001
GENIUS_GENOENT_13
1002
{
1000
MYREF
1005
201B
1002
}
1002
{
1000
GRP
1005
0
1002
}
1001
GENIUS_GENOLIS_13
1002
{
1000
ENT
1005
201A
1005
2019
1005
2018
1005
2017
1002
}
1001
GENIUS_GENODEF_13
1002
{
1000
HIER
1070
    10
1002
}
1002
{
1000
MANEDIT
1070
     0
1002
}
1002
{
1000
NOSEL
1070
     0
1002
}
1002
{
1000
BEHIND
1070
     0
1002
}
1002
{
1000
OTHER
1070
     0
1002
}
1002
{
1000
REACTOR
1002
}
  0
LINE
  5
2029
330
1F
100
AcDbEntity
  8
AM_7
  6
AM_ISO08W050x2
100
AcDbLine
 10
2075.954650588994
 20
335.6142782712192
 30
0.0
 11
2081.204650588993
 21
335.6142782712192
 31
0.0
1001
GENIUS_GENOREF_13
1005
202D
  0
LINE
  5
202A
330
1F
100
AcDbEntity
  8
AM_7
  6
AM_ISO08W050x2
100
AcDbLine
 10
2075.954650588994
 20
335.6142782712192
 30
0.0
 11
2075.954650588994
 21
340.8642782712192
 31
0.0
1001
GENIUS_GENOREF_13
1005
202D
  0
LINE
  5
202B
330
1F
100
AcDbEntity
  8
AM_7
  6
AM_ISO08W050x2
100
AcDbLine
 10
2075.954650588994
 20
335.6142782712192
 30
0.0
 11
2070.704650588993
 21
335.6142782712192
 31
0.0
1001
GENIUS_GENOREF_13
1005
202D
  0
LINE
  5
202C
330
1F
100
AcDbEntity
  8
AM_7
  6
AM_ISO08W050x2
100
AcDbLine
 10
2075.954650588994
 20
335.6142782712192
 30
0.0
 11
2075.954650588994
 21
330.3642782712192
 31
0.0
1001
GENIUS_GENOREF_13
1005
202D
  0
POINT
  5
202D
330
1F
100
AcDbEntity
  8
0
 60
     1
100
AcDbPoint
 10
0.0
 20
0.0
 30
0.0
1001
GENIUS_GENODEF_13
1002
{
1000
HIER
1070
    10
1002
}
1002
{
1000
MANEDIT
1070
     0
1002
}
1002
{
1000
NOSEL
1070
     0
1002
}
1002
{
1000
BEHIND
1070
     0
1002
}
1002
{
1000
OTHER
1070
     0
1002
}
1002
{
1000
REACTOR
1002
}
1001
GENIUS_GENOLIS_13
1002
{
1000
ENT
1005
202C
1005
202B
1005
202A
1005
2029
1002
}
1001
GENIUS_GENOENT_13
1002
{
1000
MYREF
1005
202D
1002
}
1002
{
1000
GRP
1005
0
1002
}
1001
GENIUS_GENOBJ-N-CRS_13
1002
{
1000
OWNER
1000
GEN
1002
}
  0
DIMENSION
  5
2030
330
1F
100
AcDbEntity
  8
AM_5
100
AcDbDimension
  2
*D11
 10
2162.912984551748
 20
229.9418999801225
 30
0.0
 11
2160.412984551749
 21
180.9418999801228
 31
0.0
 70
    32
 71
     5
 42
98.0
  3
AM_ISO$0
100
AcDbAlignedDimension
 13
2132.954650588994
 23
131.9418999801224
 33
0.0
 14
2122.412984551748
 24
229.9418999801225
 34
0.0
 50
90.0
100
AcDbRotatedDimension
1001
ACAD
1000
DSTYLE
1002
{
1070
    40
1040
1.0
1070
   144
1040
1.0
1070
   272
1070
     8
1002
}
  0
DIMENSION
  5
2031
330
1F
100
AcDbEntity
  8
AM_5
100
AcDbDimension
  2
*D12
 10
2172.912984551748
 20
265.9418999801224
 30
0.0
 11
2170.412984551748
 21
198.9418999801227
 31
0.0
 70
    32
 71
     5
 42
133.9999999999999
  3
AM_ISO$0
100
AcDbAlignedDimension
 13
2132.954650588994
 23
131.9418999801224
 33
0.0
 14
2149.912984551749
 24
265.9418999801224
 34
0.0
 50
90.0
100
AcDbRotatedDimension
1001
ACAD
1000
DSTYLE
1002
{
1070
    40
1040
1.0
1070
   144
1040
1.0
1070
   272
1070
     8
1002
}
  0
DIMENSION
  5
2032
330
1F
100
AcDbEntity
  8
AM_5
100
AcDbDimension
  2
*D13
 10
2056.954649588993
 20
131.9418999801224
 30
0.0
 11
2054.454649588993
 21
140.9418999801228
 31
0.0
 70
    32
 71
     5
 42
18.0
  3
AM_ISO$0
100
AcDbAlignedDimension
 13
2068.954650588993
 23
149.9418999801224
 33
0.0
 14
2068.954650588993
 24
131.9418999801224
 34
0.0
 50
90.0
100
AcDbRotatedDimension
1001
ACAD
1000
DSTYLE
1002
{
1070
    40
1040
1.0
1070
   144
1040
1.0
1070
   272
1070
     8
1002
}
  0
DIMENSION
  5
2033
330
1F
100
AcDbEntity
  8
AM_5
100
AcDbDimension
  2
*D14
 10
2172.912984551748
 20
265.9418999801224
 30
0.0
 11
2170.412984551748
 21
275.4418999801228
 31
0.0
 70
    32
 71
     5
 42
19.0
  3
AM_ISO$0
100
AcDbAlignedDimension
 13
2149.912984551749
 23
284.9418999801224
 33
0.0
 14
2149.912984551749
 24
265.9418999801224
 34
0.0
 50
90.0
100
AcDbRotatedDimension
1001
ACAD
1000
DSTYLE
1002
{
1070
    40
1040
1.0
1070
   144
1040
1.0
1070
   272
1070
     8
1002
}
  0
DIMENSION
  5
20B5
330
1F
100
AcDbEntity
  8
AM_5
100
AcDbDimension
  2
*D15
 10
2172.912984551748
 20
373.6142782712192
 30
0.0
 11
2170.412984551748
 21
350.6142782712195
 31
0.0
 70
    32
 71
     5
 42
46.0
  3
AM_ISO$0
100
AcDbAlignedDimension
 13
2131.996316626239
 23
327.6142782712192
 33
0.0
 14
2131.996316626239
 24
373.6142782712192
 34
0.0
 50
90.0
100
AcDbRotatedDimension
1001
ACAD
1000
DSTYLE
1002
{
1070
    40
1040
1.0
1070
   144
1040
1.0
1070
   272
1070
     8
1002
}
  0
DIMENSION
  5
20B6
330
1F
100
AcDbEntity
  8
AM_5
100
AcDbDimension
  2
*D16
 10
2162.912984551748
 20
365.6142782712192
 30
0.0
 11
2160.412984551749
 21
350.6142782712195
 31
0.0
 70
    32
 71
     5
 42
30.0
  3
AM_ISO$0
100
AcDbAlignedDimension
 13
2131.246316626238
 23
335.6142782712192
 33
0.0
 14
2131.246316626238
 24
365.6142782712192
 34
0.0
 50
90.0
100
AcDbRotatedDimension
1001
ACAD
1000
DSTYLE
1002
{
1070
    40
1040
1.0
1070
   144
1040
1.0
1070
   272
1070
     8
1002
}
  0
DIMENSION
  5
20B7
330
1F
100
AcDbEntity
  8
AM_5
100
AcDbDimension
  2
*D17
 10
2125.954650588994
 20
318.3642782712192
 30
0.0
 11
2100.954650588993
 21
320.8642782712192
 31
0.0
 70
    32
 71
     5
 42
50.0
  3
AM_ISO$0
100
AcDbAlignedDimension
 13
2075.954650588994
 23
330.3642782712192
 33
0.0
 14
2125.954650588994
 24
330.3642782712192
 34
0.0
100
AcDbRotatedDimension
1001
ACAD
1000
DSTYLE
1002
{
1070
    40
1040
1.0
1070
   144
1040
1.0
1070
   272
1070
     8
1002
}
  0
DIMENSION
  5
20BA
330
1F
100
AcDbEntity
  8
AM_5
100
AcDbDimension
  2
*D18
 10
2132.954650588994
 20
308.3642782712177
 30
0.0
 11
2100.954650588993
 21
310.8642782712177
 31
0.0
 70
    32
 71
     5
 42
64.0
  3
AM_ISO$0
100
AcDbAlignedDimension
 13
2068.954650588993
 23
328.6142782712192
 33
0.0
 14
2132.954650588994
 24
328.6142782712192
 34
0.0
100
AcDbRotatedDimension
1001
ACAD
1000
DSTYLE
1002
{
1070
    40
1040
1.0
1070
   144
1040
1.0
1070
   272
1070
     8
1002
}
  0
LINE
  5
217F
330
1F
100
AcDbEntity
  8
0
100
AcDbLine
 10
2442.840300934328
 20
760.0092036332564
 30
0.0
 11
2504.840300934328
 21
760.0092036332564
 31
0.0
  0
LINE
  5
2180
330
1F
100
AcDbEntity
  8
0
100
AcDbLine
 10
2442.840300934328
 20
706.0092036332564
 30
0.0
 11
2504.840300934328
 21
706.0092036332564
 31
0.0
  0
LINE
  5
2181
330
1F
100
AcDbEntity
  8
0
100
AcDbLine
 10
2439.840300934327
 20
709.0092036332564
 30
0.0
 11
2442.840300934328
 21
706.0092036332564
 31
0.0
  0
LINE
  5
2182
330
1F
100
AcDbEntity
  8
0
100
AcDbLine
 10
2504.840300934328
 20
706.0092036332564
 30
0.0
 11
2507.840300934328
 21
709.0092036332564
 31
0.0
  0
LINE
  5
2183
330
1F
100
AcDbEntity
  8
0
100
AcDbLine
 10
2507.840300934328
 20
757.0092036332564
 30
0.0
 11
2504.840300934328
 21
760.0092036332564
 31
0.0
  0
LINE
  5
2184
330
1F
100
AcDbEntity
  8
0
100
AcDbLine
 10
2442.840300934328
 20
760.0092036332564
 30
0.0
 11
2439.840300934327
 21
757.0092036332564
 31
0.0
  0
LINE
  5
2185
330
1F
100
AcDbEntity
  8
0
100
AcDbLine
 10
2440.840300934328
 20
508.9561227128467
 30
0.0
 11
2506.840300934328
 21
508.9561227128467
 31
0.0
  0
LINE
  5
2187
330
1F
100
AcDbEntity
  8
0
100
AcDbLine
 10
2507.840300934328
 20
525.9561227128467
 30
0.0
 11
2507.840300934328
 21
509.9561227128467
 31
0.0
  0
LINE
  5
2188
330
1F
100
AcDbEntity
  8
0
100
AcDbLine
 10
2439.840300934327
 20
525.9561227128467
 30
0.0
 11
2439.840300934327
 21
509.9561227128467
 31
0.0
  0
LINE
  5
2189
330
1F
100
AcDbEntity
  8
0
100
AcDbLine
 10
2498.840300934328
 20
577.9561227128467
 30
0.0
 11
2498.840300934328
 21
528.9561227128467
 31
0.0
  0
LINE
  5
218A
330
1F
100
AcDbEntity
  8
0
100
AcDbLine
 10
2448.840300934327
 20
577.9561227128467
 30
0.0
 11
2448.840300934327
 21
528.9561227128467
 31
0.0
  0
LINE
  5
218B
330
1F
100
AcDbEntity
  8
0
100
AcDbLine
 10
2497.840300934328
 20
603.9561227128467
 30
0.0
 11
2497.840300934328
 21
526.9561227128467
 31
0.0
  0
LINE
  5
218C
330
1F
100
AcDbEntity
  8
0
100
AcDbLine
 10
2449.840300934328
 20
603.9561227128467
 30
0.0
 11
2449.840300934328
 21
526.9561227128467
 31
0.0
  0
LINE
  5
218D
330
1F
100
AcDbEntity
  8
0
100
AcDbLine
 10
2497.840300934328
 20
603.9561227128467
 30
0.0
 11
2495.840300934327
 21
605.9561227128467
 31
0.0
  0
LINE
  5
218E
330
1F
100
AcDbEntity
  8
0
100
AcDbLine
 10
2451.840300934327
 20
605.9561227128467
 30
0.0
 11
2449.840300934328
 21
603.9561227128467
 31
0.0
  0
LINE
  5
218F
330
1F
100
AcDbEntity
  8
0
100
AcDbLine
 10
2449.840300934328
 20
578.9561227128467
 30
0.0
 11
2497.840300934328
 21
578.9561227128467
 31
0.0
  0
LINE
  5
2190
330
1F
100
AcDbEntity
  8
0
100
AcDbLine
 10
2498.840300934328
 20
577.9561227128467
 30
0.0
 11
2497.840300934328
 21
578.9561227128467
 31
0.0
  0
LINE
  5
2191
330
1F
100
AcDbEntity
  8
0
100
AcDbLine
 10
2507.840300934328
 20
509.9561227128467
 30
0.0
 11
2506.840300934328
 21
508.9561227128467
 31
0.0
  0
LINE
  5
2192
330
1F
100
AcDbEntity
  8
0
100
AcDbLine
 10
2440.840300934328
 20
508.9561227128467
 30
0.0
 11
2439.840300934327
 21
509.9561227128467
 31
0.0
  0
CIRCLE
  5
2195
330
1F
100
AcDbEntity
  8
0
  6
Continuous
100
AcDbCircle
 10
2500.840300934328
 20
750.0092036332564
 30
0.0
 40
4.25
  0
CIRCLE
  5
2196
330
1F
100
AcDbEntity
  8
0
  6
Continuous
100
AcDbCircle
 10
2500.840300934328
 20
716.0092036332564
 30
0.0
 40
4.25
  0
LINE
  5
2197
330
1F
100
AcDbEntity
  8
0
100
AcDbLine
 10
2439.840300934327
 20
744.0092036332564
 30
0.0
 11
2439.840300934327
 21
757.0092036332564
 31
0.0
  0
LINE
  5
2198
330
1F
100
AcDbEntity
  8
0
100
AcDbLine
 10
2439.840300934327
 20
709.0092036332564
 30
0.0
 11
2439.840300934327
 21
722.0092036332564
 31
0.0
  0
LINE
  5
2199
330
1F
100
AcDbEntity
  8
0
100
AcDbLine
 10
2484.840300934328
 20
635.9561227128467
 30
0.0
 11
2484.840300934328
 21
605.9561227128467
 31
0.0
  0
LINE
  5
219A
330
1F
100
AcDbEntity
  8
0
100
AcDbLine
 10
2462.840300934328
 20
635.9561227128467
 30
0.0
 11
2462.840300934328
 21
605.9561227128467
 31
0.0
  0
LINE
  5
219B
330
1F
100
AcDbEntity
  8
0
100
AcDbLine
 10
2449.840300934328
 20
578.9561227128467
 30
0.0
 11
2448.840300934327
 21
577.9561227128467
 31
0.0
  0
LINE
  5
219C
330
1F
100
AcDbEntity
  8
0
100
AcDbLine
 10
2497.840300934328
 20
578.9561227128467
 30
0.0
 11
2498.840300934328
 21
577.9561227128467
 31
0.0
  0
LINE
  5
219D
330
1F
100
AcDbEntity
  8
0
100
AcDbLine
 10
2451.840300934327
 20
605.9561227128467
 30
0.0
 11
2495.840300934327
 21
605.9561227128467
 31
0.0
  0
LINE
  5
21A0
330
1F
100
AcDbEntity
  8
0
100
AcDbLine
 10
2414.840300934327
 20
744.0092036332564
 30
0.0
 11
2532.840300934328
 21
744.0092036332564
 31
0.0
  0
LINE
  5
21A1
330
1F
100
AcDbEntity
  8
0
100
AcDbLine
 10
2414.840300934327
 20
722.0092036332564
 30
0.0
 11
2532.840300934328
 21
722.0092036332564
 31
0.0
  0
LINE
  5
21A2
330
1F
100
AcDbEntity
  8
0
100
AcDbLine
 10
2533.840300934328
 20
723.0092036332564
 30
0.0
 11
2533.840300934328
 21
743.0092036332564
 31
0.0
  0
LINE
  5
21A3
330
1F
100
AcDbEntity
  8
0
100
AcDbLine
 10
2413.840300934328
 20
723.0092036332564
 30
0.0
 11
2413.840300934328
 21
743.0092036332564
 31
0.0
  0
LINE
  5
21A4
330
1F
100
AcDbEntity
  8
0
100
AcDbLine
 10
2458.840300934328
 20
739.0092036332564
 30
0.0
 11
2488.840300934328
 21
739.0092036332564
 31
0.0
  0
LINE
  5
21A5
330
1F
100
AcDbEntity
  8
0
100
AcDbLine
 10
2458.840300934328
 20
727.0092036332564
 30
0.0
 11
2488.840300934328
 21
727.0092036332564
 31
0.0
  0
ARC
  5
21A6
330
1F
100
AcDbEntity
  8
0
100
AcDbCircle
 10
2473.840300934327
 20
733.0092036332565
 30
0.0
 40
12.5
100
AcDbArc
 50
151.3145979858794
 51
208.6854020141205
  0
ARC
  5
21A7
330
1F
100
AcDbEntity
  8
0
100
AcDbCircle
 10
2473.840300934327
 20
733.0092036332565
 30
0.0
 40
12.5
100
AcDbArc
 50
331.3145979858794
 51
28.68540201412055
  0
ARC
  5
21A8
330
1F
100
AcDbEntity
  8
0
100
AcDbCircle
 10
2488.840300934328
 20
733.0092036332565
 30
0.0
 40
6.0
100
AcDbArc
 50
270.0
 51
90.0
  0
ARC
  5
21A9
330
1F
100
AcDbEntity
  8
0
100
AcDbCircle
 10
2458.840300934328
 20
733.0092036332565
 30
0.0
 40
6.0
100
AcDbArc
 50
90.0
 51
270.0
  0
LINE
  5
21AA
330
1F
100
AcDbEntity
  8
0
100
AcDbLine
 10
2414.840300934327
 20
657.9561227128468
 30
0.0
 11
2532.840300934328
 21
657.9561227128468
 31
0.0
  0
LINE
  5
21AB
330
1F
100
AcDbEntity
  8
0
100
AcDbLine
 10
2413.840300934328
 20
635.9561227128467
 30
0.0
 11
2533.840300934328
 21
635.9561227128467
 31
0.0
  0
LINE
  5
21AC
330
1F
100
AcDbEntity
  8
0
100
AcDbLine
 10
2413.840300934328
 20
635.9561227128467
 30
0.0
 11
2413.840300934328
 21
656.9561227128467
 31
0.0
  0
LINE
  5
21AD
330
1F
100
AcDbEntity
  8
0
100
AcDbLine
 10
2533.840300934328
 20
635.9561227128467
 30
0.0
 11
2533.840300934328
 21
656.9561227128467
 31
0.0
  0
CIRCLE
  5
21AE
330
1F
100
AcDbEntity
  8
0
100
AcDbCircle
 10
2473.840300934327
 20
648.4561227128467
 30
0.0
 40
5.0
  0
CIRCLE
  5
21B0
330
1F
100
AcDbEntity
  8
0
  6
Continuous
100
AcDbCircle
 10
2446.840300934328
 20
750.0092036332564
 30
0.0
 40
4.25
  0
CIRCLE
  5
21B1
330
1F
100
AcDbEntity
  8
0
  6
Continuous
100
AcDbCircle
 10
2446.840300934328
 20
716.0092036332564
 30
0.0
 40
4.25
  0
ARC
  5
21B2
330
1F
100
AcDbEntity
  8
0
100
AcDbCircle
 10
2473.840300934327
 20
733.0092036332565
 30
0.0
 40
25.0
100
AcDbArc
 50
206.1038811373452
 51
333.8961188626548
  0
ARC
  5
21B3
330
1F
100
AcDbEntity
  8
0
100
AcDbCircle
 10
2473.840300934327
 20
733.0092036332565
 30
0.0
 40
25.0
100
AcDbArc
 50
26.10388113734519
 51
153.8961188626548
  0
LINE
  5
21B4
330
1F
100
AcDbEntity
  8
0
100
AcDbLine
 10
2507.840300934328
 20
744.0092036332564
 30
0.0
 11
2507.840300934328
 21
757.0092036332564
 31
0.0
  0
LINE
  5
21B5
330
1F
100
AcDbEntity
  8
0
100
AcDbLine
 10
2507.840300934328
 20
709.0092036332564
 30
0.0
 11
2507.840300934328
 21
722.0092036332564
 31
0.0
  0
LINE
  5
21B6
330
1F
100
AcDbEntity
  8
0
100
AcDbLine
 10
2414.840300934327
 20
722.0092036332564
 30
0.0
 11
2413.840300934328
 21
723.0092036332564
 31
0.0
  0
LINE
  5
21B7
330
1F
100
AcDbEntity
  8
0
100
AcDbLine
 10
2413.840300934328
 20
743.0092036332564
 30
0.0
 11
2414.840300934327
 21
744.0092036332564
 31
0.0
  0
LINE
  5
21B8
330
1F
100
AcDbEntity
  8
0
100
AcDbLine
 10
2532.840300934328
 20
744.0092036332564
 30
0.0
 11
2533.840300934328
 21
743.0092036332564
 31
0.0
  0
LINE
  5
21B9
330
1F
100
AcDbEntity
  8
0
100
AcDbLine
 10
2532.840300934328
 20
722.0092036332564
 30
0.0
 11
2533.840300934328
 21
723.0092036332564
 31
0.0
  0
LINE
  5
21BA
330
1F
100
AcDbEntity
  8
0
100
AcDbLine
 10
2413.840300934328
 20
656.9561227128467
 30
0.0
 11
2414.840300934327
 21
657.9561227128468
 31
0.0
  0
LINE
  5
21BB
330
1F
100
AcDbEntity
  8
0
100
AcDbLine
 10
2532.840300934328
 20
657.9561227128468
 30
0.0
 11
2533.840300934328
 21
656.9561227128467
 31
0.0
  0
LINE
  5
21BC
330
1F
100
AcDbEntity
  8
0
100
AcDbLine
 10
2440.840300934328
 20
526.9561227128467
 30
0.0
 11
2506.840300934328
 21
526.9561227128467
 31
0.0
  0
LINE
  5
21BD
330
1F
100
AcDbEntity
  8
0
100
AcDbLine
 10
2449.840300934328
 20
527.9561227128467
 30
0.0
 11
2497.840300934328
 21
527.9561227128467
 31
0.0
  0
LINE
  5
21BE
330
1F
100
AcDbEntity
  8
0
100
AcDbLine
 10
2497.840300934328
 20
527.9561227128467
 30
0.0
 11
2498.840300934328
 21
528.9561227128467
 31
0.0
  0
LINE
  5
21BF
330
1F
100
AcDbEntity
  8
0
100
AcDbLine
 10
2448.840300934327
 20
528.9561227128467
 30
0.0
 11
2449.840300934328
 21
527.9561227128467
 31
0.0
  0
LINE
  5
21C0
330
1F
100
AcDbEntity
  8
0
100
AcDbLine
 10
2439.840300934327
 20
525.9561227128467
 30
0.0
 11
2440.840300934328
 21
526.9561227128467
 31
0.0
  0
LINE
  5
21C1
330
1F
100
AcDbEntity
  8
0
100
AcDbLine
 10
2506.840300934328
 20
526.9561227128467
 30
0.0
 11
2507.840300934328
 21
525.9561227128467
 31
0.0
  0
LINE
  5
21D0
330
1F
100
AcDbEntity
  8
AM_7
100
AcDbLine
 10
2473.840300934327
 20
659.9561227128467
 30
0.0
 11
2473.840300934327
 21
506.9561227128467
 31
0.0
1001
GENIUS_GENOBJ-N-CEN_13
1002
{
1000
OWNER
1000
GEN
1002
}
1001
GENIUS_GENODEF_13
1002
{
1000
HIER
1070
     0
1002
}
1002
{
1000
MANEDIT
1070
     0
1002
}
1002
{
1000
NOSEL
1070
     0
1002
}
1002
{
1000
BEHIND
1070
     0
1002
}
1002
{
1000
OTHER
1070
     0
1002
}
1002
{
1000
REACTOR
1002
}
1001
GENIUS_GENCEN_19
1002
{
1040
2.0
1002
}
  0
LINE
  5
21DD
330
1F
100
AcDbEntity
  8
AM_7
100
AcDbLine
 10
2411.840300934328
 20
733.0092036332565
 30
0.0
 11
2539.515439282934
 21
733.0092036332565
 31
0.0
1001
GENIUS_GENOBJ-N-CEN_13
1002
{
1000
OWNER
1000
GEN
1002
}
1001
GENIUS_GENODEF_13
1002
{
1000
HIER
1070
     0
1002
}
1002
{
1000
MANEDIT
1070
     0
1002
}
1002
{
1000
NOSEL
1070
     0
1002
}
1002
{
1000
BEHIND
1070
     0
1002
}
1002
{
1000
OTHER
1070
     0
1002
}
1002
{
1000
REACTOR
1002
}
1001
GENIUS_GENCEN_19
1002
{
1040
2.0
1002
}
  0
LINE
  5
21EA
330
1F
100
AcDbEntity
  8
AM_7
100
AcDbLine
 10
2473.840300934327
 20
762.0092036332565
 30
0.0
 11
2473.840300934327
 21
704.0092036332564
 31
0.0
1001
GENIUS_GENODEF_13
1002
{
1000
HIER
1070
     0
1002
}
1002
{
1000
MANEDIT
1070
     0
1002
}
1002
{
1000
NOSEL
1070
     0
1002
}
1002
{
1000
BEHIND
1070
     0
1002
}
1002
{
1000
OTHER
1070
     0
1002
}
1002
{
1000
REACTOR
1002
}
1001
GENIUS_GENOBJ-N-CEN_13
1002
{
1000
OWNER
1000
GEN
1002
}
1001
GENIUS_GENCEN_19
1002
{
1040
2.0
1002
}
  0
LINE
  5
2202
330
1F
100
AcDbEntity
  8
AM_7
  6
AM_ISO08W050x2
100
AcDbLine
 10
2446.840300934328
 20
750.0092036332564
 30
0.0
 11
2453.090300934328
 21
750.0092036332564
 31
0.0
1001
GENIUS_GENOREF_13
1005
2206
  0
LINE
  5
2203
330
1F
100
AcDbEntity
  8
AM_7
  6
AM_ISO08W050x2
100
AcDbLine
 10
2446.840300934328
 20
750.0092036332564
 30
0.0
 11
2446.840300934328
 21
756.2592036332564
 31
0.0
1001
GENIUS_GENOREF_13
1005
2206
  0
LINE
  5
2204
330
1F
100
AcDbEntity
  8
AM_7
  6
AM_ISO08W050x2
100
AcDbLine
 10
2446.840300934328
 20
750.0092036332564
 30
0.0
 11
2440.590300934327
 21
750.0092036332564
 31
0.0
1001
GENIUS_GENOREF_13
1005
2206
  0
LINE
  5
2205
330
1F
100
AcDbEntity
  8
AM_7
  6
AM_ISO08W050x2
100
AcDbLine
 10
2446.840300934328
 20
750.0092036332564
 30
0.0
 11
2446.840300934328
 21
743.7592036332564
 31
0.0
1001
GENIUS_GENOREF_13
1005
2206
  0
POINT
  5
2206
330
1F
100
AcDbEntity
  8
0
 60
     1
100
AcDbPoint
 10
0.0
 20
0.0
 30
0.0
1001
GENIUS_GENODEF_13
1002
{
1000
HIER
1070
    10
1002
}
1002
{
1000
MANEDIT
1070
     0
1002
}
1002
{
1000
NOSEL
1070
     0
1002
}
1002
{
1000
BEHIND
1070
     0
1002
}
1002
{
1000
OTHER
1070
     0
1002
}
1002
{
1000
REACTOR
1002
}
1001
GENIUS_GENOLIS_13
1002
{
1000
ENT
1005
2205
1005
2204
1005
2203
1005
2202
1002
}
1001
GENIUS_GENOENT_13
1002
{
1000
MYREF
1005
2206
1002
}
1002
{
1000
GRP
1005
0
1002
}
1001
GENIUS_GENOBJ-N-CRS_13
1002
{
1000
OWNER
1000
GEN
1002
}
  0
LINE
  5
2214
330
1F
100
AcDbEntity
  8
AM_7
  6
AM_ISO08W050x2
100
AcDbLine
 10
2446.840300934328
 20
716.0092036332564
 30
0.0
 11
2453.090300934328
 21
716.0092036332564
 31
0.0
1001
GENIUS_GENOREF_13
1005
2218
  0
LINE
  5
2215
330
1F
100
AcDbEntity
  8
AM_7
  6
AM_ISO08W050x2
100
AcDbLine
 10
2446.840300934328
 20
716.0092036332564
 30
0.0
 11
2446.840300934328
 21
722.2592036332564
 31
0.0
1001
GENIUS_GENOREF_13
1005
2218
  0
LINE
  5
2216
330
1F
100
AcDbEntity
  8
AM_7
  6
AM_ISO08W050x2
100
AcDbLine
 10
2446.840300934328
 20
716.0092036332564
 30
0.0
 11
2440.590300934327
 21
716.0092036332564
 31
0.0
1001
GENIUS_GENOREF_13
1005
2218
  0
LINE
  5
2217
330
1F
100
AcDbEntity
  8
AM_7
  6
AM_ISO08W050x2
100
AcDbLine
 10
2446.840300934328
 20
716.0092036332564
 30
0.0
 11
2446.840300934328
 21
709.7592036332564
 31
0.0
1001
GENIUS_GENOREF_13
1005
2218
  0
POINT
  5
2218
330
1F
100
AcDbEntity
  8
0
 60
     1
100
AcDbPoint
 10
0.0
 20
0.0
 30
0.0
1001
GENIUS_GENOLIS_13
1002
{
1000
ENT
1005
2217
1005
2216
1005
2215
1005
2214
1002
}
1001
GENIUS_GENODEF_13
1002
{
1000
HIER
1070
    10
1002
}
1002
{
1000
MANEDIT
1070
     0
1002
}
1002
{
1000
NOSEL
1070
     0
1002
}
1002
{
1000
BEHIND
1070
     0
1002
}
1002
{
1000
OTHER
1070
     0
1002
}
1002
{
1000
REACTOR
1002
}
1001
GENIUS_GENOBJ-N-CRS_13
1002
{
1000
OWNER
1000
GEN
1002
}
1001
GENIUS_GENOENT_13
1002
{
1000
MYREF
1005
2218
1002
}
1002
{
1000
GRP
1005
0
1002
}
  0
LINE
  5
2226
330
1F
100
AcDbEntity
  8
AM_7
  6
AM_ISO08W050x2
100
AcDbLine
 10
2500.840300934328
 20
716.0092036332564
 30
0.0
 11
2507.090300934328
 21
716.0092036332564
 31
0.0
1001
GENIUS_GENOREF_13
1005
222A
  0
LINE
  5
2227
330
1F
100
AcDbEntity
  8
AM_7
  6
AM_ISO08W050x2
100
AcDbLine
 10
2500.840300934328
 20
716.0092036332564
 30
0.0
 11
2500.840300934328
 21
722.2592036332564
 31
0.0
1001
GENIUS_GENOREF_13
1005
222A
  0
LINE
  5
2228
330
1F
100
AcDbEntity
  8
AM_7
  6
AM_ISO08W050x2
100
AcDbLine
 10
2500.840300934328
 20
716.0092036332564
 30
0.0
 11
2494.590300934328
 21
716.0092036332564
 31
0.0
1001
GENIUS_GENOREF_13
1005
222A
  0
LINE
  5
2229
330
1F
100
AcDbEntity
  8
AM_7
  6
AM_ISO08W050x2
100
AcDbLine
 10
2500.840300934328
 20
716.0092036332564
 30
0.0
 11
2500.840300934328
 21
709.7592036332564
 31
0.0
1001
GENIUS_GENOREF_13
1005
222A
  0
POINT
  5
222A
330
1F
100
AcDbEntity
  8
0
 60
     1
100
AcDbPoint
 10
0.0
 20
0.0
 30
0.0
1001
GENIUS_GENOLIS_13
1002
{
1000
ENT
1005
2229
1005
2228
1005
2227
1005
2226
1002
}
1001
GENIUS_GENODEF_13
1002
{
1000
HIER
1070
    10
1002
}
1002
{
1000
MANEDIT
1070
     0
1002
}
1002
{
1000
NOSEL
1070
     0
1002
}
1002
{
1000
BEHIND
1070
     0
1002
}
1002
{
1000
OTHER
1070
     0
1002
}
1002
{
1000
REACTOR
1002
}
1001
GENIUS_GENOENT_13
1002
{
1000
MYREF
1005
222A
1002
}
1002
{
1000
GRP
1005
0
1002
}
1001
GENIUS_GENOBJ-N-CRS_13
1002
{
1000
OWNER
1000
GEN
1002
}
  0
LINE
  5
2238
330
1F
100
AcDbEntity
  8
AM_7
  6
AM_ISO08W050x2
100
AcDbLine
 10
2500.840300934328
 20
750.0092036332564
 30
0.0
 11
2507.090300934328
 21
750.0092036332564
 31
0.0
1001
GENIUS_GENOREF_13
1005
223C
  0
LINE
  5
2239
330
1F
100
AcDbEntity
  8
AM_7
  6
AM_ISO08W050x2
100
AcDbLine
 10
2500.840300934328
 20
750.0092036332564
 30
0.0
 11
2500.840300934328
 21
756.2592036332564
 31
0.0
1001
GENIUS_GENOREF_13
1005
223C
  0
LINE
  5
223A
330
1F
100
AcDbEntity
  8
AM_7
  6
AM_ISO08W050x2
100
AcDbLine
 10
2500.840300934328
 20
750.0092036332564
 30
0.0
 11
2494.590300934328
 21
750.0092036332564
 31
0.0
1001
GENIUS_GENOREF_13
1005
223C
  0
LINE
  5
223B
330
1F
100
AcDbEntity
  8
AM_7
  6
AM_ISO08W050x2
100
AcDbLine
 10
2500.840300934328
 20
750.0092036332564
 30
0.0
 11
2500.840300934328
 21
743.7592036332564
 31
0.0
1001
GENIUS_GENOREF_13
1005
223C
  0
POINT
  5
223C
330
1F
100
AcDbEntity
  8
0
 60
     1
100
AcDbPoint
 10
0.0
 20
0.0
 30
0.0
1001
GENIUS_GENOLIS_13
1002
{
1000
ENT
1005
223B
1005
223A
1005
2239
1005
2238
1002
}
1001
GENIUS_GENOENT_13
1002
{
1000
MYREF
1005
223C
1002
}
1002
{
1000
GRP
1005
0
1002
}
1001
GENIUS_GENOBJ-N-CRS_13
1002
{
1000
OWNER
1000
GEN
1002
}
1001
GENIUS_GENODEF_13
1002
{
1000
HIER
1070
    10
1002
}
1002
{
1000
MANEDIT
1070
     0
1002
}
1002
{
1000
NOSEL
1070
     0
1002
}
1002
{
1000
BEHIND
1070
     0
1002
}
1002
{
1000
OTHER
1070
     0
1002
}
1002
{
1000
REACTOR
1002
}
  0
DIMENSION
  5
2247
330
1F
100
AcDbEntity
  8
AM_5
100
AcDbDimension
  2
*D19
 10
2555.840300934328
 20
760.0092036332564
 30
0.0
 11
2553.340300934328
 21
733.0092036332569
 31
0.0
 70
    32
 71
     5
 42
54.0
  3
AM_ISO$0
100
AcDbAlignedDimension
 13
2504.881966971573
 23
706.0092036332564
 33
0.0
 14
2504.840300934328
 24
760.0092036332564
 34
0.0
 50
90.0
100
AcDbRotatedDimension
1001
ACAD
1000
DSTYLE
1002
{
1070
    40
1040
1.0
1070
   144
1040
1.0
1070
   272
1070
     8
1002
}
  0
DIMENSION
  5
2248
330
1F
100
AcDbEntity
  8
AM_5
100
AcDbDimension
  2
*D20
 10
2545.840300934328
 20
750.0092036332564
 30
0.0
 11
2543.340300934327
 21
733.0092036332569
 31
0.0
 70
    32
 71
     5
 42
34.0
  3
AM_ISO$0
100
AcDbAlignedDimension
 13
2507.090300934328
 23
716.0092036332564
 33
0.0
 14
2507.090300934328
 24
750.0092036332564
 34
0.0
 50
90.0
100
AcDbRotatedDimension
1001
ACAD
1000
DSTYLE
1002
{
1070
    40
1040
1.0
1070
   144
1040
1.0
1070
   272
1070
     8
1002
}
  0
DIMENSION
  5
2249
330
1F
100
AcDbEntity
  8
AM_5
100
AcDbDimension
  2
*D21
 10
2500.840300934328
 20
696.7592036332564
 30
0.0
 11
2473.840300934327
 21
699.2592036332564
 31
0.0
 70
    32
 71
     5
 42
54.0
  3
AM_ISO$0
100
AcDbAlignedDimension
 13
2446.840300934328
 23
709.7592036332564
 33
0.0
 14
2500.840300934328
 24
709.7592036332564
 34
0.0
 50
0.0000000000001018
100
AcDbRotatedDimension
1001
ACAD
1000
DSTYLE
1002
{
1070
    40
1040
1.0
1070
   144
1040
1.0
1070
   272
1070
     8
1002
}
  0
DIMENSION
  5
224C
330
1F
100
AcDbEntity
  8
AM_5
100
AcDbDimension
  2
*D22
 10
2507.840300934328
 20
686.7592036332549
 30
0.0
 11
2473.840300934327
 21
689.2592036332549
 31
0.0
 70
    32
 71
     5
 42
68.0
  3
AM_ISO$0
100
AcDbAlignedDimension
 13
2439.840300934327
 23
709.0092036332564
 33
0.0
 14
2507.840300934328
 24
709.0092036332564
 34
0.0
 50
0.0000000000001018
100
AcDbRotatedDimension
1001
ACAD
1000
DSTYLE
1002
{
1070
    40
1040
1.0
1070
   144
1040
1.0
1070
   272
1070
     8
1002
}
  0
DIMENSION
  5
22E2
330
1F
100
AcDbEntity
  8
AM_5
100
AcDbDimension
  2
*D23
 10
2545.840300934328
 20
606.9561227128467
 30
0.0
 11
2543.340300934327
 21
557.9561227128472
 31
0.0
 70
    32
 71
     5
 42
98.0
  3
AM_ISO$0
100
AcDbAlignedDimension
 13
2505.881966971573
 23
508.9561227128467
 33
0.0
 14
2495.340300934328
 24
606.9561227128467
 34
0.0
 50
90.0
100
AcDbRotatedDimension
1001
ACAD
1000
DSTYLE
1002
{
1070
    40
1040
1.0
1070
   144
1040
1.0
1070
   272
1070
     8
1002
}
  0
DIMENSION
  5
22E3
330
1F
100
AcDbEntity
  8
AM_5
100
AcDbDimension
  2
*D24
 10
2555.840300934328
 20
635.9561227128467
 30
0.0
 11
2553.340300934328
 21
572.4561227128472
 31
0.0
 70
    32
 71
     5
 42
127.0
  3
AM_ISO$0
100
AcDbAlignedDimension
 13
2505.881966971573
 23
508.9561227128467
 33
0.0
 14
2533.840300934328
 24
635.9561227128467
 34
0.0
 50
90.0
100
AcDbRotatedDimension
1001
ACAD
1000
DSTYLE
1002
{
1070
    40
1040
1.0
1070
   144
1040
1.0
1070
   272
1070
     8
1002
}
  0
DIMENSION
  5
22E4
330
1F
100
AcDbEntity
  8
AM_5
100
AcDbDimension
  2
*D25
 10
2429.881965971573
 20
508.9561227128468
 30
0.0
 11
2427.381965971573
 21
517.9561227128472
 31
0.0
 70
    32
 71
     5
 42
18.0
  3
AM_ISO$0
100
AcDbAlignedDimension
 13
2440.840300934328
 23
526.9561227128467
 33
0.0
 14
2440.881966971573
 24
508.9561227128467
 34
0.0
 50
90.0
100
AcDbRotatedDimension
1001
ACAD
1000
DSTYLE
1002
{
1070
    40
1040
1.0
1070
   144
1040
1.0
1070
   272
1070
     8
1002
}
  0
DIMENSION
  5
22E5
330
1F
100
AcDbEntity
  8
AM_5
100
AcDbDimension
  2
*D26
 10
2555.840300934328
 20
635.9561227128467
 30
0.0
 11
2553.340300934328
 21
646.9561227128472
 31
0.0
 70
    32
 71
     5
 42
22.0
  3
AM_ISO$0
100
AcDbAlignedDimension
 13
2532.840300934328
 23
657.9561227128468
 33
0.0
 14
2533.840300934328
 24
635.9561227128467
 34
0.0
 50
90.0
100
AcDbRotatedDimension
1001
ACAD
1000
DSTYLE
1002
{
1070
    40
1040
1.0
1070
   144
1040
1.0
1070
   272
1070
     8
1002
}
  0
LINE
  5
23B6
330
1F
100
AcDbEntity
  8
0
100
AcDbLine
 10
2442.840300934328
 20
388.2971953224449
 30
0.0
 11
2504.840300934328
 21
388.2971953224449
 31
0.0
  0
LINE
  5
23B7
330
1F
100
AcDbEntity
  8
0
100
AcDbLine
 10
2442.840300934328
 20
334.2971953224449
 30
0.0
 11
2504.840300934328
 21
334.2971953224449
 31
0.0
  0
LINE
  5
23B8
330
1F
100
AcDbEntity
  8
0
100
AcDbLine
 10
2439.840300934327
 20
337.297195322445
 30
0.0
 11
2442.840300934328
 21
334.2971953224449
 31
0.0
  0
LINE
  5
23B9
330
1F
100
AcDbEntity
  8
0
100
AcDbLine
 10
2504.840300934328
 20
334.2971953224449
 30
0.0
 11
2507.840300934328
 21
337.297195322445
 31
0.0
  0
LINE
  5
23BA
330
1F
100
AcDbEntity
  8
0
100
AcDbLine
 10
2507.840300934328
 20
385.297195322445
 30
0.0
 11
2504.840300934328
 21
388.2971953224449
 31
0.0
  0
LINE
  5
23BB
330
1F
100
AcDbEntity
  8
0
100
AcDbLine
 10
2442.840300934328
 20
388.2971953224449
 30
0.0
 11
2439.840300934327
 21
385.297195322445
 31
0.0
  0
LINE
  5
23BC
330
1F
100
AcDbEntity
  8
0
100
AcDbLine
 10
2440.840300934328
 20
131.9418999801224
 30
0.0
 11
2506.840300934328
 21
131.9418999801224
 31
0.0
  0
LINE
  5
23BE
330
1F
100
AcDbEntity
  8
0
100
AcDbLine
 10
2507.840300934328
 20
148.9418999801224
 30
0.0
 11
2507.840300934328
 21
132.9418999801224
 31
0.0
  0
LINE
  5
23BF
330
1F
100
AcDbEntity
  8
0
100
AcDbLine
 10
2439.840300934327
 20
148.9418999801224
 30
0.0
 11
2439.840300934327
 21
132.9418999801224
 31
0.0
  0
LINE
  5
23C0
330
1F
100
AcDbEntity
  8
0
100
AcDbLine
 10
2498.840300934328
 20
200.9418999801225
 30
0.0
 11
2498.840300934328
 21
151.9418999801224
 31
0.0
  0
LINE
  5
23C1
330
1F
100
AcDbEntity
  8
0
100
AcDbLine
 10
2448.840300934327
 20
200.9418999801225
 30
0.0
 11
2448.840300934327
 21
151.9418999801224
 31
0.0
  0
LINE
  5
23C2
330
1F
100
AcDbEntity
  8
0
100
AcDbLine
 10
2497.840300934328
 20
226.9418999801224
 30
0.0
 11
2497.840300934328
 21
149.9418999801224
 31
0.0
  0
LINE
  5
23C3
330
1F
100
AcDbEntity
  8
0
100
AcDbLine
 10
2449.840300934328
 20
226.9418999801224
 30
0.0
 11
2449.840300934328
 21
149.9418999801224
 31
0.0
  0
LINE
  5
23C4
330
1F
100
AcDbEntity
  8
0
100
AcDbLine
 10
2497.840300934328
 20
226.9418999801224
 30
0.0
 11
2495.840300934327
 21
228.9418999801224
 31
0.0
  0
LINE
  5
23C5
330
1F
100
AcDbEntity
  8
0
100
AcDbLine
 10
2451.840300934327
 20
228.9418999801224
 30
0.0
 11
2449.840300934328
 21
226.9418999801224
 31
0.0
  0
LINE
  5
23C6
330
1F
100
AcDbEntity
  8
0
100
AcDbLine
 10
2449.840300934328
 20
201.9418999801224
 30
0.0
 11
2497.840300934328
 21
201.9418999801224
 31
0.0
  0
LINE
  5
23C7
330
1F
100
AcDbEntity
  8
0
100
AcDbLine
 10
2498.840300934328
 20
200.9418999801225
 30
0.0
 11
2497.840300934328
 21
201.9418999801224
 31
0.0
  0
LINE
  5
23C8
330
1F
100
AcDbEntity
  8
0
100
AcDbLine
 10
2507.840300934328
 20
132.9418999801224
 30
0.0
 11
2506.840300934328
 21
131.9418999801224
 31
0.0
  0
LINE
  5
23C9
330
1F
100
AcDbEntity
  8
0
100
AcDbLine
 10
2440.840300934328
 20
131.9418999801224
 30
0.0
 11
2439.840300934327
 21
132.9418999801224
 31
0.0
  0
CIRCLE
  5
23CC
330
1F
100
AcDbEntity
  8
0
100
AcDbCircle
 10
2459.853292866169
 20
143.1022591063839
 30
0.0
 40
4.75
  0
CIRCLE
  5
23CD
330
1F
100
AcDbEntity
  8
0
100
AcDbCircle
 10
2459.853292866169
 20
143.1022591063839
 30
0.0
 40
3.75
  0
CIRCLE
  5
23CF
330
1F
100
AcDbEntity
  8
0
  6
Continuous
100
AcDbCircle
 10
2500.840300934328
 20
378.297195322445
 30
0.0
 40
4.25
  0
CIRCLE
  5
23D0
330
1F
100
AcDbEntity
  8
0
  6
Continuous
100
AcDbCircle
 10
2500.840300934328
 20
344.297195322445
 30
0.0
 40
4.25
  0
LINE
  5
23D1
330
1F
100
AcDbEntity
  8
0
100
AcDbLine
 10
2439.840300934327
 20
372.297195322445
 30
0.0
 11
2439.840300934327
 21
385.297195322445
 31
0.0
  0
LINE
  5
23D2
330
1F
100
AcDbEntity
  8
0
100
AcDbLine
 10
2439.840300934327
 20
337.297195322445
 30
0.0
 11
2439.840300934327
 21
350.297195322445
 31
0.0
  0
LINE
  5
23D3
330
1F
100
AcDbEntity
  8
0
100
AcDbLine
 10
2484.840300934328
 20
264.9418999801225
 30
0.0
 11
2484.840300934328
 21
228.9418999801224
 31
0.0
  0
LINE
  5
23D4
330
1F
100
AcDbEntity
  8
0
100
AcDbLine
 10
2462.840300934328
 20
264.9418999801225
 30
0.0
 11
2462.840300934328
 21
228.9418999801224
 31
0.0
  0
LINE
  5
23D5
330
1F
100
AcDbEntity
  8
0
100
AcDbLine
 10
2449.840300934328
 20
201.9418999801224
 30
0.0
 11
2448.840300934327
 21
200.9418999801225
 31
0.0
  0
LINE
  5
23D6
330
1F
100
AcDbEntity
  8
0
100
AcDbLine
 10
2497.840300934328
 20
201.9418999801224
 30
0.0
 11
2498.840300934328
 21
200.9418999801225
 31
0.0
  0
LINE
  5
23D7
330
1F
100
AcDbEntity
  8
0
100
AcDbLine
 10
2451.840300934327
 20
228.9418999801224
 30
0.0
 11
2495.840300934327
 21
228.9418999801224
 31
0.0
  0
LINE
  5
23DA
330
1F
100
AcDbEntity
  8
0
100
AcDbLine
 10
2414.840300934327
 20
372.297195322445
 30
0.0
 11
2532.840300934328
 21
372.297195322445
 31
0.0
  0
LINE
  5
23DB
330
1F
100
AcDbEntity
  8
0
100
AcDbLine
 10
2414.840300934327
 20
350.297195322445
 30
0.0
 11
2532.840300934328
 21
350.297195322445
 31
0.0
  0
LINE
  5
23DC
330
1F
100
AcDbEntity
  8
0
100
AcDbLine
 10
2533.840300934328
 20
351.297195322445
 30
0.0
 11
2533.840300934328
 21
371.297195322445
 31
0.0
  0
LINE
  5
23DD
330
1F
100
AcDbEntity
  8
0
100
AcDbLine
 10
2413.840300934328
 20
351.297195322445
 30
0.0
 11
2413.840300934328
 21
371.297195322445
 31
0.0
  0
LINE
  5
23DE
330
1F
100
AcDbEntity
  8
0
100
AcDbLine
 10
2458.840300934328
 20
367.297195322445
 30
0.0
 11
2488.840300934328
 21
367.297195322445
 31
0.0
  0
LINE
  5
23DF
330
1F
100
AcDbEntity
  8
0
100
AcDbLine
 10
2458.840300934328
 20
355.297195322445
 30
0.0
 11
2488.840300934328
 21
355.297195322445
 31
0.0
  0
ARC
  5
23E0
330
1F
100
AcDbEntity
  8
0
100
AcDbCircle
 10
2473.840300934327
 20
361.2971953224449
 30
0.0
 40
12.5
100
AcDbArc
 50
151.3145979858794
 51
208.6854020141205
  0
ARC
  5
23E1
330
1F
100
AcDbEntity
  8
0
100
AcDbCircle
 10
2473.840300934327
 20
361.2971953224449
 30
0.0
 40
12.5
100
AcDbArc
 50
331.3145979858794
 51
28.68540201412055
  0
ARC
  5
23E2
330
1F
100
AcDbEntity
  8
0
100
AcDbCircle
 10
2488.840300934328
 20
361.2971953224449
 30
0.0
 40
6.0
100
AcDbArc
 50
270.0
 51
90.0
  0
ARC
  5
23E3
330
1F
100
AcDbEntity
  8
0
100
AcDbCircle
 10
2458.840300934328
 20
361.2971953224449
 30
0.0
 40
6.0
100
AcDbArc
 50
90.0
 51
270.0
  0
LINE
  5
23E4
330
1F
100
AcDbEntity
  8
0
100
AcDbLine
 10
2414.840300934327
 20
286.9418999801224
 30
0.0
 11
2532.840300934328
 21
286.9418999801224
 31
0.0
  0
LINE
  5
23E5
330
1F
100
AcDbEntity
  8
0
100
AcDbLine
 10
2413.840300934328
 20
264.9418999801225
 30
0.0
 11
2533.840300934328
 21
264.9418999801225
 31
0.0
  0
LINE
  5
23E6
330
1F
100
AcDbEntity
  8
0
100
AcDbLine
 10
2413.840300934328
 20
264.9418999801225
 30
0.0
 11
2413.840300934328
 21
285.9418999801225
 31
0.0
  0
LINE
  5
23E7
330
1F
100
AcDbEntity
  8
0
100
AcDbLine
 10
2533.840300934328
 20
264.9418999801225
 30
0.0
 11
2533.840300934328
 21
285.9418999801225
 31
0.0
  0
CIRCLE
  5
23E8
330
1F
100
AcDbEntity
  8
0
100
AcDbCircle
 10
2473.840300934327
 20
277.4418999801225
 30
0.0
 40
5.0
  0
CIRCLE
  5
23EA
330
1F
100
AcDbEntity
  8
0
  6
Continuous
100
AcDbCircle
 10
2446.840300934328
 20
378.297195322445
 30
0.0
 40
4.25
  0
CIRCLE
  5
23EB
330
1F
100
AcDbEntity
  8
0
  6
Continuous
100
AcDbCircle
 10
2446.840300934328
 20
344.297195322445
 30
0.0
 40
4.25
  0
ARC
  5
23EC
330
1F
100
AcDbEntity
  8
0
100
AcDbCircle
 10
2473.840300934327
 20
361.2971953224449
 30
0.0
 40
25.0
100
AcDbArc
 50
206.1038811373452
 51
333.8961188626548
  0
ARC
  5
23ED
330
1F
100
AcDbEntity
  8
0
100
AcDbCircle
 10
2473.840300934327
 20
361.2971953224449
 30
0.0
 40
25.0
100
AcDbArc
 50
26.10388113734519
 51
153.8961188626548
  0
LINE
  5
23EE
330
1F
100
AcDbEntity
  8
0
100
AcDbLine
 10
2507.840300934328
 20
372.297195322445
 30
0.0
 11
2507.840300934328
 21
385.297195322445
 31
0.0
  0
LINE
  5
23EF
330
1F
100
AcDbEntity
  8
0
100
AcDbLine
 10
2507.840300934328
 20
337.297195322445
 30
0.0
 11
2507.840300934328
 21
350.297195322445
 31
0.0
  0
LINE
  5
23F0
330
1F
100
AcDbEntity
  8
0
100
AcDbLine
 10
2414.840300934327
 20
350.297195322445
 30
0.0
 11
2413.840300934328
 21
351.297195322445
 31
0.0
  0
LINE
  5
23F1
330
1F
100
AcDbEntity
  8
0
100
AcDbLine
 10
2413.840300934328
 20
371.297195322445
 30
0.0
 11
2414.840300934327
 21
372.297195322445
 31
0.0
  0
LINE
  5
23F2
330
1F
100
AcDbEntity
  8
0
100
AcDbLine
 10
2532.840300934328
 20
372.297195322445
 30
0.0
 11
2533.840300934328
 21
371.297195322445
 31
0.0
  0
LINE
  5
23F3
330
1F
100
AcDbEntity
  8
0
100
AcDbLine
 10
2532.840300934328
 20
350.297195322445
 30
0.0
 11
2533.840300934328
 21
351.297195322445
 31
0.0
  0
LINE
  5
23F4
330
1F
100
AcDbEntity
  8
0
100
AcDbLine
 10
2413.840300934328
 20
285.9418999801225
 30
0.0
 11
2414.840300934327
 21
286.9418999801224
 31
0.0
  0
LINE
  5
23F5
330
1F
100
AcDbEntity
  8
0
100
AcDbLine
 10
2532.840300934328
 20
286.9418999801224
 30
0.0
 11
2533.840300934328
 21
285.9418999801225
 31
0.0
  0
LINE
  5
23F8
330
1F
100
AcDbEntity
  8
0
100
AcDbLine
 10
2440.840300934328
 20
149.9418999801224
 30
0.0
 11
2506.840300934328
 21
149.9418999801224
 31
0.0
  0
LINE
  5
23F9
330
1F
100
AcDbEntity
  8
0
100
AcDbLine
 10
2449.840300934328
 20
150.9418999801224
 30
0.0
 11
2497.840300934328
 21
150.9418999801224
 31
0.0
  0
LINE
  5
23FA
330
1F
100
AcDbEntity
  8
0
100
AcDbLine
 10
2440.840300934328
 20
149.9418999801224
 30
0.0
 11
2439.840300934327
 21
148.9418999801224
 31
0.0
  0
LINE
  5
23FB
330
1F
100
AcDbEntity
  8
0
100
AcDbLine
 10
2506.840300934328
 20
149.9418999801224
 30
0.0
 11
2507.840300934328
 21
148.9418999801224
 31
0.0
  0
LINE
  5
23FC
330
1F
100
AcDbEntity
  8
0
100
AcDbLine
 10
2498.840300934328
 20
151.9418999801224
 30
0.0
 11
2497.840300934328
 21
150.9418999801224
 31
0.0
  0
LINE
  5
23FD
330
1F
100
AcDbEntity
  8
0
100
AcDbLine
 10
2448.840300934327
 20
151.9418999801224
 30
0.0
 11
2449.840300934328
 21
150.9418999801224
 31
0.0
  0
LINE
  5
240A
330
1F
100
AcDbEntity
  8
AM_7
100
AcDbLine
 10
2473.840300934327
 20
288.9418999801224
 30
0.0
 11
2473.840300934327
 21
129.9418999801224
 31
0.0
1001
GENIUS_GENOBJ-N-CEN_13
1002
{
1000
OWNER
1000
GEN
1002
}
1001
GENIUS_GENODEF_13
1002
{
1000
HIER
1070
     0
1002
}
1002
{
1000
MANEDIT
1070
     0
1002
}
1002
{
1000
NOSEL
1070
     0
1002
}
1002
{
1000
BEHIND
1070
     0
1002
}
1002
{
1000
OTHER
1070
     0
1002
}
1002
{
1000
REACTOR
1002
}
1001
GENIUS_GENCEN_19
1002
{
1040
2.0
1002
}
  0
LINE
  5
2417
330
1F
100
AcDbEntity
  8
AM_7
100
AcDbLine
 10
2411.840300934328
 20
361.2971953224449
 30
0.0
 11
2535.840300934327
 21
361.2971953224449
 31
0.0
1001
GENIUS_GENODEF_13
1002
{
1000
HIER
1070
     0
1002
}
1002
{
1000
MANEDIT
1070
     0
1002
}
1002
{
1000
NOSEL
1070
     0
1002
}
1002
{
1000
BEHIND
1070
     0
1002
}
1002
{
1000
OTHER
1070
     0
1002
}
1002
{
1000
REACTOR
1002
}
1001
GENIUS_GENOBJ-N-CEN_13
1002
{
1000
OWNER
1000
GEN
1002
}
1001
GENIUS_GENCEN_19
1002
{
1040
2.0
1002
}
  0
LINE
  5
2424
330
1F
100
AcDbEntity
  8
AM_7
100
AcDbLine
 10
2473.840300934327
 20
390.2971953224449
 30
0.0
 11
2473.840300934327
 21
332.2971953224449
 31
0.0
1001
GENIUS_GENODEF_13
1002
{
1000
HIER
1070
     0
1002
}
1002
{
1000
MANEDIT
1070
     0
1002
}
1002
{
1000
NOSEL
1070
     0
1002
}
1002
{
1000
BEHIND
1070
     0
1002
}
1002
{
1000
OTHER
1070
     0
1002
}
1002
{
1000
REACTOR
1002
}
1001
GENIUS_GENOBJ-N-CEN_13
1002
{
1000
OWNER
1000
GEN
1002
}
1001
GENIUS_GENCEN_19
1002
{
1040
2.0
1002
}
  0
LINE
  5
2432
330
1F
100
AcDbEntity
  8
AM_7
  6
AM_ISO08W050x2
100
AcDbLine
 10
2446.840300934328
 20
378.297195322445
 30
0.0
 11
2453.090300934328
 21
378.297195322445
 31
0.0
1001
GENIUS_GENOREF_13
1005
2436
  0
LINE
  5
2433
330
1F
100
AcDbEntity
  8
AM_7
  6
AM_ISO08W050x2
100
AcDbLine
 10
2446.840300934328
 20
378.297195322445
 30
0.0
 11
2446.840300934328
 21
384.547195322445
 31
0.0
1001
GENIUS_GENOREF_13
1005
2436
  0
LINE
  5
2434
330
1F
100
AcDbEntity
  8
AM_7
  6
AM_ISO08W050x2
100
AcDbLine
 10
2446.840300934328
 20
378.297195322445
 30
0.0
 11
2440.590300934327
 21
378.297195322445
 31
0.0
1001
GENIUS_GENOREF_13
1005
2436
  0
LINE
  5
2435
330
1F
100
AcDbEntity
  8
AM_7
  6
AM_ISO08W050x2
100
AcDbLine
 10
2446.840300934328
 20
378.297195322445
 30
0.0
 11
2446.840300934328
 21
372.047195322445
 31
0.0
1001
GENIUS_GENOREF_13
1005
2436
  0
POINT
  5
2436
330
1F
100
AcDbEntity
  8
0
 60
     1
100
AcDbPoint
 10
0.0
 20
0.0
 30
0.0
1001
GENIUS_GENOENT_13
1002
{
1000
MYREF
1005
2436
1002
}
1002
{
1000
GRP
1005
0
1002
}
1001
GENIUS_GENODEF_13
1002
{
1000
HIER
1070
    10
1002
}
1002
{
1000
MANEDIT
1070
     0
1002
}
1002
{
1000
NOSEL
1070
     0
1002
}
1002
{
1000
BEHIND
1070
     0
1002
}
1002
{
1000
OTHER
1070
     0
1002
}
1002
{
1000
REACTOR
1002
}
1001
GENIUS_GENOLIS_13
1002
{
1000
ENT
1005
2435
1005
2434
1005
2433
1005
2432
1002
}
1001
GENIUS_GENOBJ-N-CRS_13
1002
{
1000
OWNER
1000
GEN
1002
}
  0
LINE
  5
2444
330
1F
100
AcDbEntity
  8
AM_7
  6
AM_ISO08W050x2
100
AcDbLine
 10
2500.840300934328
 20
378.297195322445
 30
0.0
 11
2507.090300934328
 21
378.297195322445
 31
0.0
1001
GENIUS_GENOREF_13
1005
2448
  0
LINE
  5
2445
330
1F
100
AcDbEntity
  8
AM_7
  6
AM_ISO08W050x2
100
AcDbLine
 10
2500.840300934328
 20
378.297195322445
 30
0.0
 11
2500.840300934328
 21
384.547195322445
 31
0.0
1001
GENIUS_GENOREF_13
1005
2448
  0
LINE
  5
2446
330
1F
100
AcDbEntity
  8
AM_7
  6
AM_ISO08W050x2
100
AcDbLine
 10
2500.840300934328
 20
378.297195322445
 30
0.0
 11
2494.590300934328
 21
378.297195322445
 31
0.0
1001
GENIUS_GENOREF_13
1005
2448
  0
LINE
  5
2447
330
1F
100
AcDbEntity
  8
AM_7
  6
AM_ISO08W050x2
100
AcDbLine
 10
2500.840300934328
 20
378.297195322445
 30
0.0
 11
2500.840300934328
 21
372.047195322445
 31
0.0
1001
GENIUS_GENOREF_13
1005
2448
  0
POINT
  5
2448
330
1F
100
AcDbEntity
  8
0
 60
     1
100
AcDbPoint
 10
0.0
 20
0.0
 30
0.0
1001
GENIUS_GENOLIS_13
1002
{
1000
ENT
1005
2447
1005
2446
1005
2445
1005
2444
1002
}
1001
GENIUS_GENOENT_13
1002
{
1000
MYREF
1005
2448
1002
}
1002
{
1000
GRP
1005
0
1002
}
1001
GENIUS_GENOBJ-N-CRS_13
1002
{
1000
OWNER
1000
GEN
1002
}
1001
GENIUS_GENODEF_13
1002
{
1000
HIER
1070
    10
1002
}
1002
{
1000
MANEDIT
1070
     0
1002
}
1002
{
1000
NOSEL
1070
     0
1002
}
1002
{
1000
BEHIND
1070
     0
1002
}
1002
{
1000
OTHER
1070
     0
1002
}
1002
{
1000
REACTOR
1002
}
  0
LINE
  5
2456
330
1F
100
AcDbEntity
  8
AM_7
  6
AM_ISO08W050x2
100
AcDbLine
 10
2500.840300934328
 20
344.297195322445
 30
0.0
 11
2507.090300934328
 21
344.297195322445
 31
0.0
1001
GENIUS_GENOREF_13
1005
245A
  0
LINE
  5
2457
330
1F
100
AcDbEntity
  8
AM_7
  6
AM_ISO08W050x2
100
AcDbLine
 10
2500.840300934328
 20
344.297195322445
 30
0.0
 11
2500.840300934328
 21
350.547195322445
 31
0.0
1001
GENIUS_GENOREF_13
1005
245A
  0
LINE
  5
2458
330
1F
100
AcDbEntity
  8
AM_7
  6
AM_ISO08W050x2
100
AcDbLine
 10
2500.840300934328
 20
344.297195322445
 30
0.0
 11
2494.590300934328
 21
344.297195322445
 31
0.0
1001
GENIUS_GENOREF_13
1005
245A
  0
LINE
  5
2459
330
1F
100
AcDbEntity
  8
AM_7
  6
AM_ISO08W050x2
100
AcDbLine
 10
2500.840300934328
 20
344.297195322445
 30
0.0
 11
2500.840300934328
 21
338.047195322445
 31
0.0
1001
GENIUS_GENOREF_13
1005
245A
  0
POINT
  5
245A
330
1F
100
AcDbEntity
  8
0
 60
     1
100
AcDbPoint
 10
0.0
 20
0.0
 30
0.0
1001
GENIUS_GENODEF_13
1002
{
1000
HIER
1070
    10
1002
}
1002
{
1000
MANEDIT
1070
     0
1002
}
1002
{
1000
NOSEL
1070
     0
1002
}
1002
{
1000
BEHIND
1070
     0
1002
}
1002
{
1000
OTHER
1070
     0
1002
}
1002
{
1000
REACTOR
1002
}
1001
GENIUS_GENOENT_13
1002
{
1000
MYREF
1005
245A
1002
}
1002
{
1000
GRP
1005
0
1002
}
1001
GENIUS_GENOBJ-N-CRS_13
1002
{
1000
OWNER
1000
GEN
1002
}
1001
GENIUS_GENOLIS_13
1002
{
1000
ENT
1005
2459
1005
2458
1005
2457
1005
2456
1002
}
  0
LINE
  5
2468
330
1F
100
AcDbEntity
  8
AM_7
  6
AM_ISO08W050x2
100
AcDbLine
 10
2446.840300934328
 20
344.297195322445
 30
0.0
 11
2453.090300934328
 21
344.297195322445
 31
0.0
1001
GENIUS_GENOREF_13
1005
246C
  0
LINE
  5
2469
330
1F
100
AcDbEntity
  8
AM_7
  6
AM_ISO08W050x2
100
AcDbLine
 10
2446.840300934328
 20
344.297195322445
 30
0.0
 11
2446.840300934328
 21
350.547195322445
 31
0.0
1001
GENIUS_GENOREF_13
1005
246C
  0
LINE
  5
246A
330
1F
100
AcDbEntity
  8
AM_7
  6
AM_ISO08W050x2
100
AcDbLine
 10
2446.840300934328
 20
344.297195322445
 30
0.0
 11
2440.590300934327
 21
344.297195322445
 31
0.0
1001
GENIUS_GENOREF_13
1005
246C
  0
LINE
  5
246B
330
1F
100
AcDbEntity
  8
AM_7
  6
AM_ISO08W050x2
100
AcDbLine
 10
2446.840300934328
 20
344.297195322445
 30
0.0
 11
2446.840300934328
 21
338.047195322445
 31
0.0
1001
GENIUS_GENOREF_13
1005
246C
  0
POINT
  5
246C
330
1F
100
AcDbEntity
  8
0
 60
     1
100
AcDbPoint
 10
0.0
 20
0.0
 30
0.0
1001
GENIUS_GENOBJ-N-CRS_13
1002
{
1000
OWNER
1000
GEN
1002
}
1001
GENIUS_GENOLIS_13
1002
{
1000
ENT
1005
246B
1005
246A
1005
2469
1005
2468
1002
}
1001
GENIUS_GENOENT_13
1002
{
1000
MYREF
1005
246C
1002
}
1002
{
1000
GRP
1005
0
1002
}
1001
GENIUS_GENODEF_13
1002
{
1000
HIER
1070
    10
1002
}
1002
{
1000
MANEDIT
1070
     0
1002
}
1002
{
1000
NOSEL
1070
     0
1002
}
1002
{
1000
BEHIND
1070
     0
1002
}
1002
{
1000
OTHER
1070
     0
1002
}
1002
{
1000
REACTOR
1002
}
  0
DIMENSION
  5
247B
330
1F
100
AcDbEntity
  8
AM_5
100
AcDbDimension
  2
*D27
 10
2535.840300934327
 20
228.9418999801224
 30
0.0
 11
2533.340300934328
 21
180.4418999801228
 31
0.0
 70
    32
 71
     5
 42
96.99999999999997
  3
AM_ISO$0
100
AcDbAlignedDimension
 13
2505.881966971573
 23
131.9418999801224
 33
0.0
 14
2495.840300934327
 24
228.9418999801224
 34
0.0
 50
90.0
100
AcDbRotatedDimension
1001
ACAD
1000
DSTYLE
1002
{
1070
    40
1040
1.0
1070
   144
1040
1.0
1070
   272
1070
     8
1002
}
  0
DIMENSION
  5
247C
330
1F
100
AcDbEntity
  8
AM_5
100
AcDbDimension
  2
*D28
 10
2545.840300934328
 20
264.9418999801225
 30
0.0
 11
2543.340300934327
 21
198.4418999801229
 31
0.0
 70
    32
 71
     5
 42
133.0
  3
AM_ISO$0
100
AcDbAlignedDimension
 13
2505.881966971573
 23
131.9418999801224
 33
0.0
 14
2533.840300934328
 24
264.9418999801225
 34
0.0
 50
90.0
100
AcDbRotatedDimension
1001
ACAD
1000
DSTYLE
1002
{
1070
    40
1040
1.0
1070
   144
1040
1.0
1070
   272
1070
     8
1002
}
  0
DIMENSION
  5
247D
330
1F
100
AcDbEntity
  8
AM_5
100
AcDbDimension
  2
*D29
 10
2429.881965971573
 20
131.9418999801224
 30
0.0
 11
2427.381965971573
 21
140.9418999801228
 31
0.0
 70
    32
 71
     5
 42
18.0
  3
AM_ISO$0
100
AcDbAlignedDimension
 13
2440.840300934328
 23
149.9418999801224
 33
0.0
 14
2440.881966971573
 24
131.9418999801224
 34
0.0
 50
90.0
100
AcDbRotatedDimension
1001
ACAD
1000
DSTYLE
1002
{
1070
    40
1040
1.0
1070
   144
1040
1.0
1070
   272
1070
     8
1002
}
  0
DIMENSION
  5
247E
330
1F
100
AcDbEntity
  8
AM_5
100
AcDbDimension
  2
*D30
 10
2545.840300934328
 20
264.9418999801225
 30
0.0
 11
2543.340300934327
 21
275.9418999801229
 31
0.0
 70
    32
 71
     5
 42
22.0
  3
AM_ISO$0
100
AcDbAlignedDimension
 13
2532.840300934328
 23
286.9418999801224
 33
0.0
 14
2533.840300934328
 24
264.9418999801225
 34
0.0
 50
90.0
100
AcDbRotatedDimension
1001
ACAD
1000
DSTYLE
1002
{
1070
    40
1040
1.0
1070
   144
1040
1.0
1070
   272
1070
     8
1002
}
  0
DIMENSION
  5
252A
330
1F
100
AcDbEntity
  8
AM_5
100
AcDbDimension
  2
*D31
 10
2555.840300934328
 20
388.2971953224449
 30
0.0
 11
2553.340300934328
 21
361.2971953224453
 31
0.0
 70
    32
 71
     5
 42
54.0
  3
AM_ISO$0
100
AcDbAlignedDimension
 13
2504.840300934328
 23
334.2971953224449
 33
0.0
 14
2504.840300934328
 24
388.2971953224449
 34
0.0
 50
90.0
100
AcDbRotatedDimension
1001
ACAD
1000
DSTYLE
1002
{
1070
    40
1040
1.0
1070
   144
1040
1.0
1070
   272
1070
     8
1002
}
  0
DIMENSION
  5
252B
330
1F
100
AcDbEntity
  8
AM_5
100
AcDbDimension
  2
*D32
 10
2545.840300934328
 20
378.297195322445
 30
0.0
 11
2543.340300934327
 21
361.2971953224453
 31
0.0
 70
    32
 71
     5
 42
34.0
  3
AM_ISO$0
100
AcDbAlignedDimension
 13
2507.090300934328
 23
344.297195322445
 33
0.0
 14
2507.090300934328
 24
378.297195322445
 34
0.0
 50
90.0
100
AcDbRotatedDimension
1001
ACAD
1000
DSTYLE
1002
{
1070
    40
1040
1.0
1070
   144
1040
1.0
1070
   272
1070
     8
1002
}
  0
DIMENSION
  5
252C
330
1F
100
AcDbEntity
  8
AM_5
100
AcDbDimension
  2
*D33
 10
2500.840300934328
 20
323.047195322445
 30
0.0
 11
2473.840300934327
 21
325.547195322445
 31
0.0
 70
    32
 71
     5
 42
54.0
  3
AM_ISO$0
100
AcDbAlignedDimension
 13
2446.840300934328
 23
338.047195322445
 33
0.0
 14
2500.840300934328
 24
338.047195322445
 34
0.0
100
AcDbRotatedDimension
1001
ACAD
1000
DSTYLE
1002
{
1070
    40
1040
1.0
1070
   144
1040
1.0
1070
   272
1070
     8
1002
}
  0
DIMENSION
  5
252D
330
1F
100
AcDbEntity
  8
AM_5
100
AcDbDimension
  2
*D34
 10
2507.840300934328
 20
313.0471953224435
 30
0.0
 11
2473.840300934327
 21
315.5471953224435
 31
0.0
 70
    32
 71
     5
 42
68.0
  3
AM_ISO$0
100
AcDbAlignedDimension
 13
2439.840300934327
 23
337.297195322445
 33
0.0
 14
2507.840300934328
 24
337.297195322445
 34
0.0
100
AcDbRotatedDimension
1001
ACAD
1000
DSTYLE
1002
{
1070
    40
1040
1.0
1070
   144
1040
1.0
1070
   272
1070
     8
1002
}
  0
LINE
  5
2618
330
1F
100
AcDbEntity
  8
0
100
AcDbLine
 10
2796.206078826329
 20
711.2619880999844
 30
0.0
 11
2878.206078826329
 21
711.2619880999844
 31
0.0
  0
LINE
  5
2619
330
1F
100
AcDbEntity
  8
0
100
AcDbLine
 10
2878.206078826329
 20
775.2619880999843
 30
0.0
 11
2796.206078826329
 21
775.2619880999843
 31
0.0
  0
CIRCLE
  5
261A
330
1F
100
AcDbEntity
  8
0
100
AcDbCircle
 10
2870.206078826329
 20
763.2619880999843
 30
0.0
 40
4.25
  0
CIRCLE
  5
261B
330
1F
100
AcDbEntity
  8
0
100
AcDbCircle
 10
2870.206078826329
 20
723.2619880999843
 30
0.0
 40
4.25
  0
LINE
  5
261C
330
1F
100
AcDbEntity
  8
0
100
AcDbLine
 10
2795.206078826329
 20
774.2619880999844
 30
0.0
 11
2795.206078826329
 21
755.7619880999843
 31
0.0
  0
LINE
  5
261D
330
1F
100
AcDbEntity
  8
0
100
AcDbLine
 10
2795.206078826329
 20
730.7619880999843
 30
0.0
 11
2795.206078826329
 21
712.2619880999843
 31
0.0
  0
LINE
  5
261E
330
1F
100
AcDbEntity
  8
0
100
AcDbLine
 10
2795.206078826329
 20
774.2619880999844
 30
0.0
 11
2796.206078826329
 21
775.2619880999843
 31
0.0
  0
LINE
  5
261F
330
1F
100
AcDbEntity
  8
0
100
AcDbLine
 10
2878.206078826329
 20
775.2619880999843
 30
0.0
 11
2879.206078826329
 21
774.2619880999844
 31
0.0
  0
LINE
  5
2620
330
1F
100
AcDbEntity
  8
0
100
AcDbLine
 10
2878.206078826329
 20
711.2619880999844
 30
0.0
 11
2879.206078826329
 21
712.2619880999843
 31
0.0
  0
LINE
  5
2621
330
1F
100
AcDbEntity
  8
0
100
AcDbLine
 10
2795.206078826329
 20
712.2619880999843
 30
0.0
 11
2796.206078826329
 21
711.2619880999844
 31
0.0
  0
LINE
  5
2622
330
1F
100
AcDbEntity
  8
0
100
AcDbLine
 10
2865.206173790791
 20
606.9561227128466
 30
0.0
 11
2809.20617379079
 21
606.9561227128466
 31
0.0
  0
LINE
  5
2623
330
1F
100
AcDbEntity
  8
0
100
AcDbLine
 10
2796.20617379079
 20
508.9561227128467
 30
0.0
 11
2878.20617379079
 21
508.9561227128466
 31
0.0
  0
LINE
  5
2624
330
1F
100
AcDbEntity
  8
0
100
AcDbLine
 10
2879.206173790791
 20
509.9561227128466
 30
0.0
 11
2879.206173790791
 21
525.9561227128466
 31
0.0
  0
LINE
  5
2625
330
1F
100
AcDbEntity
  8
0
100
AcDbLine
 10
2795.20617379079
 20
525.9561227128467
 30
0.0
 11
2795.20617379079
 21
509.9561227128467
 31
0.0
  0
LINE
  5
2626
330
1F
100
AcDbEntity
  8
0
100
AcDbLine
 10
2796.20617379079
 20
508.9561227128467
 30
0.0
 11
2795.20617379079
 21
509.9561227128467
 31
0.0
  0
LINE
  5
2627
330
1F
100
AcDbEntity
  8
0
100
AcDbLine
 10
2878.20617379079
 20
508.9561227128466
 30
0.0
 11
2879.206173790791
 21
509.9561227128466
 31
0.0
  0
LINE
  5
2628
330
1F
100
AcDbEntity
  8
0
100
AcDbLine
 10
2808.20617379079
 20
580.9561227128467
 30
0.0
 11
2866.20617379079
 21
580.9561227128466
 31
0.0
  0
LINE
  5
2629
330
1F
100
AcDbEntity
  8
0
100
AcDbLine
 10
2807.20617379079
 20
579.9561227128467
 30
0.0
 11
2807.20617379079
 21
528.9561227128466
 31
0.0
  0
LINE
  5
262A
330
1F
100
AcDbEntity
  8
0
100
AcDbLine
 10
2867.206173790791
 20
528.9561227128466
 30
0.0
 11
2867.206173790791
 21
579.9561227128466
 31
0.0
  0
LINE
  5
262B
330
1F
100
AcDbEntity
  8
0
100
AcDbLine
 10
2807.20617379079
 20
579.9561227128467
 30
0.0
 11
2808.20617379079
 21
580.9561227128467
 31
0.0
  0
LINE
  5
262C
330
1F
100
AcDbEntity
  8
0
100
AcDbLine
 10
2866.20617379079
 20
580.9561227128466
 30
0.0
 11
2867.206173790791
 21
579.9561227128466
 31
0.0
  0
LINE
  5
262D
330
1F
100
AcDbEntity
  8
0
100
AcDbLine
 10
2866.20617379079
 20
526.9561227128466
 30
0.0
 11
2866.206173790791
 21
605.9561227128466
 31
0.0
  0
LINE
  5
262E
330
1F
100
AcDbEntity
  8
0
100
AcDbLine
 10
2808.20617379079
 20
605.9561227128466
 30
0.0
 11
2808.20617379079
 21
526.9561227128466
 31
0.0
  0
LINE
  5
2630
330
1F
100
AcDbEntity
  8
0
100
AcDbLine
 10
2824.70617379079
 20
635.9562033346493
 30
0.0
 11
2824.70617379079
 21
606.9562673618718
 31
0.0
  0
LINE
  5
2631
330
1F
100
AcDbEntity
  8
0
100
AcDbLine
 10
2849.70617379079
 20
635.9562033346493
 30
0.0
 11
2849.70617379079
 21
606.9562673618718
 31
0.0
  0
LINE
  5
2633
330
1F
100
AcDbEntity
  8
0
100
AcDbLine
 10
2808.20617379079
 20
605.9561227128466
 30
0.0
 11
2809.20617379079
 21
606.9561227128466
 31
0.0
  0
LINE
  5
2634
330
1F
100
AcDbEntity
  8
0
100
AcDbLine
 10
2865.206173790791
 20
606.9561227128466
 30
0.0
 11
2866.206173790791
 21
605.9561227128466
 31
0.0
  0
LINE
  5
2635
330
1F
100
AcDbEntity
  8
0
100
AcDbLine
 10
2768.20617379079
 20
635.9562033346493
 30
0.0
 11
2767.20617379079
 21
636.9562033346493
 31
0.0
  0
LINE
  5
2638
330
1F
100
AcDbEntity
  8
0
100
AcDbLine
 10
2907.206078826329
 20
731.7619880999843
 30
0.0
 11
2907.206078826329
 21
754.7619880999843
 31
0.0
  0
LINE
  5
2639
330
1F
100
AcDbEntity
  8
0
100
AcDbLine
 10
2767.206078826329
 20
731.7619880999843
 30
0.0
 11
2767.206078826329
 21
754.7619880999843
 31
0.0
  0
LINE
  5
263A
330
1F
100
AcDbEntity
  8
0
100
AcDbLine
 10
2768.206078826329
 20
755.7619880999843
 30
0.0
 11
2906.206078826329
 21
755.7619880999843
 31
0.0
  0
LINE
  5
263B
330
1F
100
AcDbEntity
  8
0
100
AcDbLine
 10
2768.206078826329
 20
730.7619880999843
 30
0.0
 11
2906.206078826329
 21
730.7619880999843
 31
0.0
  0
LINE
  5
263C
330
1F
100
AcDbEntity
  8
0
100
AcDbLine
 10
2823.206078826329
 20
749.2619880999844
 30
0.0
 11
2851.206078826329
 21
749.2619880999844
 31
0.0
  0
LINE
  5
263D
330
1F
100
AcDbEntity
  8
0
100
AcDbLine
 10
2823.206078826329
 20
737.2619880999843
 30
0.0
 11
2851.206078826329
 21
737.2619880999843
 31
0.0
  0
ARC
  5
263E
330
1F
100
AcDbEntity
  8
0
100
AcDbCircle
 10
2823.206078826329
 20
743.2619880999843
 30
0.0
 40
6.0
100
AcDbArc
 50
90.0
 51
270.0
  0
ARC
  5
263F
330
1F
100
AcDbEntity
  8
0
100
AcDbCircle
 10
2851.206078826329
 20
743.2619880999843
 30
0.0
 40
6.0
100
AcDbArc
 50
270.0
 51
90.0
  0
LINE
  5
2640
330
1F
100
AcDbEntity
  8
0
100
AcDbLine
 10
2767.206078826329
 20
754.7619880999843
 30
0.0
 11
2768.206078826329
 21
755.7619880999843
 31
0.0
  0
LINE
  5
2641
330
1F
100
AcDbEntity
  8
0
100
AcDbLine
 10
2767.206078826329
 20
731.7619880999843
 30
0.0
 11
2768.206078826329
 21
730.7619880999843
 31
0.0
  0
LINE
  5
2642
330
1F
100
AcDbEntity
  8
0
100
AcDbLine
 10
2906.206078826329
 20
730.7619880999843
 30
0.0
 11
2907.206078826329
 21
731.7619880999843
 31
0.0
  0
LINE
  5
2643
330
1F
100
AcDbEntity
  8
0
100
AcDbLine
 10
2907.206078826329
 20
754.7619880999843
 30
0.0
 11
2906.206078826329
 21
755.7619880999843
 31
0.0
  0
ARC
  5
2644
330
1F
100
AcDbEntity
  8
0
100
AcDbCircle
 10
2837.206078826329
 20
743.2619880999843
 30
0.0
 40
12.5
100
AcDbArc
 50
331.3145979858794
 51
28.68540201412055
  0
ARC
  5
2645
330
1F
100
AcDbEntity
  8
0
100
AcDbCircle
 10
2837.206078826329
 20
743.2619880999843
 30
0.0
 40
12.5
100
AcDbArc
 50
151.3145979858794
 51
208.6854020141205
  0
LINE
  5
2646
330
1F
100
AcDbEntity
  8
0
100
AcDbLine
 10
2768.20617379079
 20
635.9562033346493
 30
0.0
 11
2906.206173790791
 21
635.9562033346493
 31
0.0
  0
LINE
  5
2647
330
1F
100
AcDbEntity
  8
0
100
AcDbLine
 10
2768.20617379079
 20
660.9562033346493
 30
0.0
 11
2906.206173790791
 21
660.9562033346493
 31
0.0
  0
LINE
  5
2648
330
1F
100
AcDbEntity
  8
0
100
AcDbLine
 10
2767.20617379079
 20
636.9562033346493
 30
0.0
 11
2767.20617379079
 21
659.9562033346493
 31
0.0
  0
LINE
  5
2649
330
1F
100
AcDbEntity
  8
0
100
AcDbLine
 10
2767.20617379079
 20
636.9562033346493
 30
0.0
 11
2768.20617379079
 21
635.9562033346493
 31
0.0
  0
LINE
  5
264A
102
{ACAD_REACTORS
330
2CA7
102
}
330
1F
100
AcDbEntity
  8
0
100
AcDbLine
 10
2767.20617379079
 20
659.9562033346493
 30
0.0
 11
2768.20617379079
 21
660.9562033346493
 31
0.0
  0
LINE
  5
264B
330
1F
100
AcDbEntity
  8
0
100
AcDbLine
 10
2907.20617379079
 20
636.9562033346493
 30
0.0
 11
2907.20617379079
 21
659.9562033346493
 31
0.0
  0
LINE
  5
264C
330
1F
100
AcDbEntity
  8
0
100
AcDbLine
 10
2906.206173790791
 20
635.9562033346493
 30
0.0
 11
2907.20617379079
 21
636.9562033346493
 31
0.0
  0
LINE
  5
264D
102
{ACAD_REACTORS
330
2CA7
102
}
330
1F
100
AcDbEntity
  8
0
100
AcDbLine
 10
2907.20617379079
 20
659.9562033346493
 30
0.0
 11
2906.206173790791
 21
660.9562033346493
 31
0.0
  0
CIRCLE
  5
264E
330
1F
100
AcDbEntity
  8
0
100
AcDbCircle
 10
2837.20617379079
 20
648.4562033346493
 30
0.0
 40
6.0
  0
TEXT
  5
264F
330
1F
100
AcDbEntity
  8
0
100
AcDbText
 10
2776.637186978935
 20
732.367831916258
 30
0.0
 40
5.6
  1
NDS-40A
  7
123
100
AcDbText
  0
ARC
  5
2650
330
1F
100
AcDbEntity
  8
0
100
AcDbCircle
 10
2837.206078826329
 20
743.2619880999843
 30
0.0
 40
30.0
100
AcDbArc
 50
204.6243183521601
 51
335.3756816478399
  0
ARC
  5
2651
330
1F
100
AcDbEntity
  8
0
100
AcDbCircle
 10
2837.206078826329
 20
743.2619880999843
 30
0.0
 40
30.0
100
AcDbArc
 50
24.62431835216009
 51
155.3756816478399
  0
ARC
  5
2652
330
1F
100
AcDbEntity
  8
0
100
AcDbCircle
 10
2837.206078826329
 20
743.2619880999843
 30
0.0
 40
29.0
100
AcDbArc
 50
205.5332289440797
 51
334.4667710559203
  0
ARC
  5
2653
330
1F
100
AcDbEntity
  8
0
100
AcDbCircle
 10
2837.206078826329
 20
743.2619880999843
 30
0.0
 40
29.0
100
AcDbArc
 50
25.53322894407965
 51
154.4667710559203
  0
CIRCLE
  5
2654
330
1F
100
AcDbEntity
  8
0
100
AcDbCircle
 10
2804.206078826329
 20
763.2619880999843
 30
0.0
 40
4.25
  0
CIRCLE
  5
2655
330
1F
100
AcDbEntity
  8
0
100
AcDbCircle
 10
2804.206078826329
 20
723.2619880999843
 30
0.0
 40
4.25
  0
LINE
  5
2656
330
1F
100
AcDbEntity
  8
0
100
AcDbLine
 10
2879.206078826329
 20
712.2619880999843
 30
0.0
 11
2879.206078826329
 21
730.7619880999843
 31
0.0
  0
LINE
  5
2657
330
1F
100
AcDbEntity
  8
0
100
AcDbLine
 10
2879.206078826329
 20
755.7619880999843
 30
0.0
 11
2879.206078826329
 21
774.2619880999844
 31
0.0
  0
LINE
  5
2658
330
1F
100
AcDbEntity
  8
0
100
AcDbLine
 10
2796.20617379079
 20
526.9561227128467
 30
0.0
 11
2878.20617379079
 21
526.9561227128466
 31
0.0
  0
LINE
  5
2659
330
1F
100
AcDbEntity
  8
0
100
AcDbLine
 10
2808.20617379079
 20
527.9561227128466
 30
0.0
 11
2866.20617379079
 21
527.9561227128466
 31
0.0
  0
LINE
  5
265A
330
1F
100
AcDbEntity
  8
0
100
AcDbLine
 10
2807.20617379079
 20
528.9561227128466
 30
0.0
 11
2808.20617379079
 21
527.9561227128466
 31
0.0
  0
LINE
  5
265B
330
1F
100
AcDbEntity
  8
0
100
AcDbLine
 10
2866.20617379079
 20
527.9561227128466
 30
0.0
 11
2867.206173790791
 21
528.9561227128466
 31
0.0
  0
LINE
  5
265C
330
1F
100
AcDbEntity
  8
0
100
AcDbLine
 10
2795.20617379079
 20
525.9561227128467
 30
0.0
 11
2796.20617379079
 21
526.9561227128467
 31
0.0
  0
LINE
  5
265D
330
1F
100
AcDbEntity
  8
0
100
AcDbLine
 10
2878.20617379079
 20
526.9561227128466
 30
0.0
 11
2879.206173790791
 21
525.9561227128466
 31
0.0
  0
LINE
  5
266D
330
1F
100
AcDbEntity
  8
AM_7
100
AcDbLine
 10
2765.206078826329
 20
743.2619880999843
 30
0.0
 11
2909.206078826329
 21
743.2619880999843
 31
0.0
1001
GENIUS_GENOBJ-N-CEN_13
1002
{
1000
OWNER
1000
GEN
1002
}
1001
GENIUS_GENODEF_13
1002
{
1000
HIER
1070
     0
1002
}
1002
{
1000
MANEDIT
1070
     0
1002
}
1002
{
1000
NOSEL
1070
     0
1002
}
1002
{
1000
BEHIND
1070
     0
1002
}
1002
{
1000
OTHER
1070
     0
1002
}
1002
{
1000
REACTOR
1002
}
1001
GENIUS_GENCEN_19
1002
{
1040
2.0
1002
}
  0
LINE
  5
267A
330
1F
100
AcDbEntity
  8
AM_7
100
AcDbLine
 10
2837.206078826329
 20
777.2619880999843
 30
0.0
 11
2837.206078826329
 21
709.2619880999843
 31
0.0
1001
GENIUS_GENOBJ-N-CEN_13
1002
{
1000
OWNER
1000
GEN
1002
}
1001
GENIUS_GENODEF_13
1002
{
1000
HIER
1070
     0
1002
}
1002
{
1000
MANEDIT
1070
     0
1002
}
1002
{
1000
NOSEL
1070
     0
1002
}
1002
{
1000
BEHIND
1070
     0
1002
}
1002
{
1000
OTHER
1070
     0
1002
}
1002
{
1000
REACTOR
1002
}
1001
GENIUS_GENCEN_19
1002
{
1040
2.0
1002
}
  0
LINE
  5
2687
330
1F
100
AcDbEntity
  8
AM_7
100
AcDbLine
 10
2837.20617379079
 20
662.9562033346493
 30
0.0
 11
2837.20617379079
 21
506.9561227128467
 31
0.0
1001
GENIUS_GENODEF_13
1002
{
1000
HIER
1070
     0
1002
}
1002
{
1000
MANEDIT
1070
     0
1002
}
1002
{
1000
NOSEL
1070
     0
1002
}
1002
{
1000
BEHIND
1070
     0
1002
}
1002
{
1000
OTHER
1070
     0
1002
}
1002
{
1000
REACTOR
1002
}
1001
GENIUS_GENOBJ-N-CEN_13
1002
{
1000
OWNER
1000
GEN
1002
}
1001
GENIUS_GENCEN_19
1002
{
1040
2.0
1002
}
  0
LINE
  5
2695
330
1F
100
AcDbEntity
  8
AM_7
  6
AM_ISO08W050x2
100
AcDbLine
 10
2804.206078826329
 20
723.2619880999843
 30
0.0
 11
2810.456078826329
 21
723.2619880999843
 31
0.0
1001
GENIUS_GENOREF_13
1005
2699
  0
LINE
  5
2696
330
1F
100
AcDbEntity
  8
AM_7
  6
AM_ISO08W050x2
100
AcDbLine
 10
2804.206078826329
 20
723.2619880999843
 30
0.0
 11
2804.206078826329
 21
729.5119880999843
 31
0.0
1001
GENIUS_GENOREF_13
1005
2699
  0
LINE
  5
2697
330
1F
100
AcDbEntity
  8
AM_7
  6
AM_ISO08W050x2
100
AcDbLine
 10
2804.206078826329
 20
723.2619880999843
 30
0.0
 11
2797.956078826329
 21
723.2619880999843
 31
0.0
1001
GENIUS_GENOREF_13
1005
2699
  0
LINE
  5
2698
330
1F
100
AcDbEntity
  8
AM_7
  6
AM_ISO08W050x2
100
AcDbLine
 10
2804.206078826329
 20
723.2619880999843
 30
0.0
 11
2804.206078826329
 21
717.0119880999843
 31
0.0
1001
GENIUS_GENOREF_13
1005
2699
  0
POINT
  5
2699
330
1F
100
AcDbEntity
  8
0
 60
     1
100
AcDbPoint
 10
0.0
 20
0.0
 30
0.0
1001
GENIUS_GENOENT_13
1002
{
1000
MYREF
1005
2699
1002
}
1002
{
1000
GRP
1005
0
1002
}
1001
GENIUS_GENOBJ-N-CRS_13
1002
{
1000
OWNER
1000
GEN
1002
}
1001
GENIUS_GENOLIS_13
1002
{
1000
ENT
1005
2698
1005
2697
1005
2696
1005
2695
1002
}
1001
GENIUS_GENODEF_13
1002
{
1000
HIER
1070
    10
1002
}
1002
{
1000
MANEDIT
1070
     0
1002
}
1002
{
1000
NOSEL
1070
     0
1002
}
1002
{
1000
BEHIND
1070
     0
1002
}
1002
{
1000
OTHER
1070
     0
1002
}
1002
{
1000
REACTOR
1002
}
  0
LINE
  5
26A7
330
1F
100
AcDbEntity
  8
AM_7
  6
AM_ISO08W050x2
100
AcDbLine
 10
2870.206078826329
 20
723.2619880999843
 30
0.0
 11
2876.456078826329
 21
723.2619880999843
 31
0.0
1001
GENIUS_GENOREF_13
1005
26AB
  0
LINE
  5
26A8
330
1F
100
AcDbEntity
  8
AM_7
  6
AM_ISO08W050x2
100
AcDbLine
 10
2870.206078826329
 20
723.2619880999843
 30
0.0
 11
2870.206078826329
 21
729.5119880999843
 31
0.0
1001
GENIUS_GENOREF_13
1005
26AB
  0
LINE
  5
26A9
330
1F
100
AcDbEntity
  8
AM_7
  6
AM_ISO08W050x2
100
AcDbLine
 10
2870.206078826329
 20
723.2619880999843
 30
0.0
 11
2863.956078826329
 21
723.2619880999843
 31
0.0
1001
GENIUS_GENOREF_13
1005
26AB
  0
LINE
  5
26AA
330
1F
100
AcDbEntity
  8
AM_7
  6
AM_ISO08W050x2
100
AcDbLine
 10
2870.206078826329
 20
723.2619880999843
 30
0.0
 11
2870.206078826329
 21
717.0119880999843
 31
0.0
1001
GENIUS_GENOREF_13
1005
26AB
  0
POINT
  5
26AB
330
1F
100
AcDbEntity
  8
0
 60
     1
100
AcDbPoint
 10
0.0
 20
0.0
 30
0.0
1001
GENIUS_GENOLIS_13
1002
{
1000
ENT
1005
26AA
1005
26A9
1005
26A8
1005
26A7
1002
}
1001
GENIUS_GENODEF_13
1002
{
1000
HIER
1070
    10
1002
}
1002
{
1000
MANEDIT
1070
     0
1002
}
1002
{
1000
NOSEL
1070
     0
1002
}
1002
{
1000
BEHIND
1070
     0
1002
}
1002
{
1000
OTHER
1070
     0
1002
}
1002
{
1000
REACTOR
1002
}
1001
GENIUS_GENOENT_13
1002
{
1000
MYREF
1005
26AB
1002
}
1002
{
1000
GRP
1005
0
1002
}
1001
GENIUS_GENOBJ-N-CRS_13
1002
{
1000
OWNER
1000
GEN
1002
}
  0
LINE
  5
26B9
330
1F
100
AcDbEntity
  8
AM_7
  6
AM_ISO08W050x2
100
AcDbLine
 10
2870.206078826329
 20
763.2619880999843
 30
0.0
 11
2876.456078826329
 21
763.2619880999843
 31
0.0
1001
GENIUS_GENOREF_13
1005
26BD
  0
LINE
  5
26BA
330
1F
100
AcDbEntity
  8
AM_7
  6
AM_ISO08W050x2
100
AcDbLine
 10
2870.206078826329
 20
763.2619880999843
 30
0.0
 11
2870.206078826329
 21
769.5119880999843
 31
0.0
1001
GENIUS_GENOREF_13
1005
26BD
  0
LINE
  5
26BB
330
1F
100
AcDbEntity
  8
AM_7
  6
AM_ISO08W050x2
100
AcDbLine
 10
2870.206078826329
 20
763.2619880999843
 30
0.0
 11
2863.956078826329
 21
763.2619880999843
 31
0.0
1001
GENIUS_GENOREF_13
1005
26BD
  0
LINE
  5
26BC
330
1F
100
AcDbEntity
  8
AM_7
  6
AM_ISO08W050x2
100
AcDbLine
 10
2870.206078826329
 20
763.2619880999843
 30
0.0
 11
2870.206078826329
 21
757.0119880999843
 31
0.0
1001
GENIUS_GENOREF_13
1005
26BD
  0
POINT
  5
26BD
330
1F
100
AcDbEntity
  8
0
 60
     1
100
AcDbPoint
 10
0.0
 20
0.0
 30
0.0
1001
GENIUS_GENODEF_13
1002
{
1000
HIER
1070
    10
1002
}
1002
{
1000
MANEDIT
1070
     0
1002
}
1002
{
1000
NOSEL
1070
     0
1002
}
1002
{
1000
BEHIND
1070
     0
1002
}
1002
{
1000
OTHER
1070
     0
1002
}
1002
{
1000
REACTOR
1002
}
1001
GENIUS_GENOLIS_13
1002
{
1000
ENT
1005
26BC
1005
26BB
1005
26BA
1005
26B9
1002
}
1001
GENIUS_GENOENT_13
1002
{
1000
MYREF
1005
26BD
1002
}
1002
{
1000
GRP
1005
0
1002
}
1001
GENIUS_GENOBJ-N-CRS_13
1002
{
1000
OWNER
1000
GEN
1002
}
  0
LINE
  5
26CB
330
1F
100
AcDbEntity
  8
AM_7
  6
AM_ISO08W050x2
100
AcDbLine
 10
2804.206078826329
 20
763.2619880999843
 30
0.0
 11
2810.456078826329
 21
763.2619880999843
 31
0.0
1001
GENIUS_GENOREF_13
1005
26CF
  0
LINE
  5
26CC
330
1F
100
AcDbEntity
  8
AM_7
  6
AM_ISO08W050x2
100
AcDbLine
 10
2804.206078826329
 20
763.2619880999843
 30
0.0
 11
2804.206078826329
 21
769.5119880999843
 31
0.0
1001
GENIUS_GENOREF_13
1005
26CF
  0
LINE
  5
26CD
330
1F
100
AcDbEntity
  8
AM_7
  6
AM_ISO08W050x2
100
AcDbLine
 10
2804.206078826329
 20
763.2619880999843
 30
0.0
 11
2797.956078826329
 21
763.2619880999843
 31
0.0
1001
GENIUS_GENOREF_13
1005
26CF
  0
LINE
  5
26CE
330
1F
100
AcDbEntity
  8
AM_7
  6
AM_ISO08W050x2
100
AcDbLine
 10
2804.206078826329
 20
763.2619880999843
 30
0.0
 11
2804.206078826329
 21
757.0119880999843
 31
0.0
1001
GENIUS_GENOREF_13
1005
26CF
  0
POINT
  5
26CF
330
1F
100
AcDbEntity
  8
0
 60
     1
100
AcDbPoint
 10
0.0
 20
0.0
 30
0.0
1001
GENIUS_GENOLIS_13
1002
{
1000
ENT
1005
26CE
1005
26CD
1005
26CC
1005
26CB
1002
}
1001
GENIUS_GENOENT_13
1002
{
1000
MYREF
1005
26CF
1002
}
1002
{
1000
GRP
1005
0
1002
}
1001
GENIUS_GENOBJ-N-CRS_13
1002
{
1000
OWNER
1000
GEN
1002
}
1001
GENIUS_GENODEF_13
1002
{
1000
HIER
1070
    10
1002
}
1002
{
1000
MANEDIT
1070
     0
1002
}
1002
{
1000
NOSEL
1070
     0
1002
}
1002
{
1000
BEHIND
1070
     0
1002
}
1002
{
1000
OTHER
1070
     0
1002
}
1002
{
1000
REACTOR
1002
}
  0
DIMENSION
  5
26D0
330
1F
100
AcDbEntity
  8
AM_5
100
AcDbDimension
  2
*D35
 10
2929.206078826329
 20
775.2619880999843
 30
0.0
 11
2926.706078826329
 21
743.2619880999848
 31
0.0
 70
    32
 71
     5
 42
64.0
  3
AM_ISO$0
100
AcDbAlignedDimension
 13
2878.247744863574
 23
711.2619880999844
 33
0.0
 14
2878.206078826329
 24
775.2619880999843
 34
0.0
 50
90.0
100
AcDbRotatedDimension
1001
ACAD
1000
DSTYLE
1002
{
1070
    40
1040
1.0
1070
   144
1040
1.0
1070
   272
1070
     8
1002
}
  0
DIMENSION
  5
26D1
330
1F
100
AcDbEntity
  8
AM_5
100
AcDbDimension
  2
*D36
 10
2919.206078826329
 20
763.2619880999843
 30
0.0
 11
2916.706078826329
 21
743.2619880999848
 31
0.0
 70
    32
 71
     5
 42
40.0
  3
AM_ISO$0
100
AcDbAlignedDimension
 13
2876.456078826329
 23
723.2619880999843
 33
0.0
 14
2876.456078826329
 24
763.2619880999843
 34
0.0
 50
90.0
100
AcDbRotatedDimension
1001
ACAD
1000
DSTYLE
1002
{
1070
    40
1040
1.0
1070
   144
1040
1.0
1070
   272
1070
     8
1002
}
  0
DIMENSION
  5
26D2
330
1F
100
AcDbEntity
  8
AM_5
100
AcDbDimension
  2
*D37
 10
2870.206078826329
 20
702.0119880999843
 30
0.0
 11
2837.206078826329
 21
704.5119880999843
 31
0.0
 70
    32
 71
     5
 42
66.0
  3
AM_ISO$0
100
AcDbAlignedDimension
 13
2804.206078826329
 23
717.0119880999843
 33
0.0
 14
2870.206078826329
 24
717.0119880999843
 34
0.0
100
AcDbRotatedDimension
1001
ACAD
1000
DSTYLE
1002
{
1070
    40
1040
1.0
1070
   144
1040
1.0
1070
   272
1070
     8
1002
}
  0
DIMENSION
  5
26D3
330
1F
100
AcDbEntity
  8
AM_5
100
AcDbDimension
  2
*D38
 10
2879.206078826329
 20
692.0119880999829
 30
0.0
 11
2837.206078826329
 21
694.5119880999828
 31
0.0
 70
    32
 71
     5
 42
84.0
  3
AM_ISO$0
100
AcDbAlignedDimension
 13
2795.206078826329
 23
712.2619880999843
 33
0.0
 14
2879.206078826329
 24
712.2619880999843
 34
0.0
100
AcDbRotatedDimension
1001
ACAD
1000
DSTYLE
1002
{
1070
    40
1040
1.0
1070
   144
1040
1.0
1070
   272
1070
     8
1002
}
  0
DIMENSION
  5
2768
330
1F
100
AcDbEntity
  8
AM_5
100
AcDbDimension
  2
*D39
 10
2909.20617379079
 20
606.9561227128466
 30
0.0
 11
2906.70617379079
 21
557.9561227128471
 31
0.0
 70
    32
 71
     5
 42
98.00000000000006
  3
AM_ISO$0
100
AcDbAlignedDimension
 13
2878.20617379079
 23
508.9561227128466
 33
0.0
 14
2865.206173790791
 24
606.9561227128466
 34
0.0
 50
90.0
100
AcDbRotatedDimension
1001
ACAD
1000
DSTYLE
1002
{
1070
    40
1040
1.0
1070
   144
1040
1.0
1070
   272
1070
     8
1002
}
  0
DIMENSION
  5
2769
330
1F
100
AcDbEntity
  8
AM_5
100
AcDbDimension
  2
*D40
 10
2919.20617379079
 20
635.9562033346493
 30
0.0
 11
2916.706173790791
 21
572.4561630237484
 31
0.0
 70
    32
 71
     5
 42
127.0000806218027
  3
AM_ISO$0
100
AcDbAlignedDimension
 13
2878.20617379079
 23
508.9561227128466
 33
0.0
 14
2906.206173790791
 24
635.9562033346493
 34
0.0
 50
90.0
100
AcDbRotatedDimension
1001
ACAD
1000
DSTYLE
1002
{
1070
    40
1040
1.0
1070
   144
1040
1.0
1070
   272
1070
     8
1002
}
  0
DIMENSION
  5
276A
330
1F
100
AcDbEntity
  8
AM_5
100
AcDbDimension
  2
*D41
 10
2782.45304524724
 20
508.9561227128467
 30
0.0
 11
2779.95304524724
 21
517.9561227128472
 31
0.0
 70
    32
 71
     5
 42
17.99999999999994
  3
AM_ISO$0
100
AcDbAlignedDimension
 13
2796.20617379079
 23
526.9561227128467
 33
0.0
 14
2796.20617379079
 24
508.9561227128467
 34
0.0
 50
90.0
100
AcDbRotatedDimension
1001
ACAD
1000
DSTYLE
1002
{
1070
    40
1040
1.0
1070
   144
1040
1.0
1070
   272
1070
     8
1002
}
  0
DIMENSION
  5
276B
330
1F
100
AcDbEntity
  8
AM_5
100
AcDbDimension
  2
*D42
 10
2919.20617379079
 20
635.9562033346493
 30
0.0
 11
2916.706173790791
 21
648.4562033346498
 31
0.0
 70
    32
 71
     5
 42
25.0
  3
AM_ISO$0
100
AcDbAlignedDimension
 13
2906.206173790791
 23
660.9562033346493
 33
0.0
 14
2906.206173790791
 24
635.9562033346493
 34
0.0
 50
90.0
100
AcDbRotatedDimension
1001
ACAD
1000
DSTYLE
1002
{
1070
    40
1040
1.0
1070
   144
1040
1.0
1070
   272
1070
     8
1002
}
  0
LINE
  5
286B
330
1F
100
AcDbEntity
  8
0
100
AcDbLine
 10
2796.20607882633
 20
343.7426432538065
 30
0.0
 11
2878.206078826329
 21
343.7426432538065
 31
0.0
  0
LINE
  5
286C
330
1F
100
AcDbEntity
  8
0
100
AcDbLine
 10
2878.206078826329
 20
407.7426432538064
 30
0.0
 11
2796.20607882633
 21
407.7426432538064
 31
0.0
  0
CIRCLE
  5
286D
330
1F
100
AcDbEntity
  8
0
100
AcDbCircle
 10
2870.206078826329
 20
395.7426432538065
 30
0.0
 40
4.25
  0
CIRCLE
  5
286E
330
1F
100
AcDbEntity
  8
0
100
AcDbCircle
 10
2870.206078826329
 20
355.7426432538065
 30
0.0
 40
4.25
  0
LINE
  5
286F
330
1F
100
AcDbEntity
  8
0
100
AcDbLine
 10
2795.206078826329
 20
406.7426432538065
 30
0.0
 11
2795.206078826329
 21
388.2426432538065
 31
0.0
  0
LINE
  5
2870
330
1F
100
AcDbEntity
  8
0
100
AcDbLine
 10
2795.206078826329
 20
363.2426432538065
 30
0.0
 11
2795.206078826329
 21
344.7426432538065
 31
0.0
  0
LINE
  5
2871
330
1F
100
AcDbEntity
  8
0
100
AcDbLine
 10
2795.206078826329
 20
406.7426432538065
 30
0.0
 11
2796.20607882633
 21
407.7426432538064
 31
0.0
  0
LINE
  5
2872
330
1F
100
AcDbEntity
  8
0
100
AcDbLine
 10
2878.206078826329
 20
407.7426432538064
 30
0.0
 11
2879.206078826329
 21
406.7426432538065
 31
0.0
  0
LINE
  5
2873
330
1F
100
AcDbEntity
  8
0
100
AcDbLine
 10
2878.206078826329
 20
343.7426432538065
 30
0.0
 11
2879.206078826329
 21
344.7426432538065
 31
0.0
  0
LINE
  5
2874
330
1F
100
AcDbEntity
  8
0
100
AcDbLine
 10
2795.206078826329
 20
344.7426432538065
 30
0.0
 11
2796.20607882633
 21
343.7426432538065
 31
0.0
  0
LINE
  5
2875
330
1F
100
AcDbEntity
  8
0
100
AcDbLine
 10
2865.20617379079
 20
229.9418999801223
 30
0.0
 11
2809.20617379079
 21
229.9418999801223
 31
0.0
  0
LINE
  5
2876
330
1F
100
AcDbEntity
  8
0
100
AcDbLine
 10
2796.20617379079
 20
131.9418999801224
 30
0.0
 11
2878.20617379079
 21
131.9418999801223
 31
0.0
  0
LINE
  5
2877
330
1F
100
AcDbEntity
  8
0
100
AcDbLine
 10
2879.206173790791
 20
132.9418999801223
 30
0.0
 11
2879.206173790791
 21
148.9418999801223
 31
0.0
  0
LINE
  5
2878
330
1F
100
AcDbEntity
  8
0
100
AcDbLine
 10
2795.20617379079
 20
148.9418999801224
 30
0.0
 11
2795.20617379079
 21
132.9418999801224
 31
0.0
  0
LINE
  5
2879
330
1F
100
AcDbEntity
  8
0
100
AcDbLine
 10
2796.20617379079
 20
131.9418999801224
 30
0.0
 11
2795.20617379079
 21
132.9418999801224
 31
0.0
  0
LINE
  5
287A
330
1F
100
AcDbEntity
  8
0
100
AcDbLine
 10
2878.20617379079
 20
131.9418999801223
 30
0.0
 11
2879.206173790791
 21
132.9418999801223
 31
0.0
  0
LINE
  5
287B
330
1F
100
AcDbEntity
  8
0
100
AcDbLine
 10
2808.20617379079
 20
203.9418999801224
 30
0.0
 11
2866.20617379079
 21
203.9418999801223
 31
0.0
  0
LINE
  5
287C
330
1F
100
AcDbEntity
  8
0
100
AcDbLine
 10
2807.20617379079
 20
202.9418999801225
 30
0.0
 11
2807.20617379079
 21
151.9418999801223
 31
0.0
  0
LINE
  5
287D
330
1F
100
AcDbEntity
  8
0
100
AcDbLine
 10
2867.206173790791
 20
151.9418999801223
 30
0.0
 11
2867.206173790791
 21
202.9418999801223
 31
0.0
  0
LINE
  5
287E
330
1F
100
AcDbEntity
  8
0
100
AcDbLine
 10
2807.20617379079
 20
202.9418999801225
 30
0.0
 11
2808.20617379079
 21
203.9418999801224
 31
0.0
  0
LINE
  5
287F
330
1F
100
AcDbEntity
  8
0
100
AcDbLine
 10
2866.20617379079
 20
203.9418999801223
 30
0.0
 11
2867.206173790791
 21
202.9418999801223
 31
0.0
  0
LINE
  5
2880
330
1F
100
AcDbEntity
  8
0
100
AcDbLine
 10
2866.20617379079
 20
149.9418999801223
 30
0.0
 11
2866.20617379079
 21
228.9418999801223
 31
0.0
  0
LINE
  5
2881
330
1F
100
AcDbEntity
  8
0
100
AcDbLine
 10
2808.20617379079
 20
228.9418999801223
 30
0.0
 11
2808.20617379079
 21
149.9418999801224
 31
0.0
  0
LINE
  5
2883
330
1F
100
AcDbEntity
  8
0
100
AcDbLine
 10
2824.70617379079
 20
265.941980601925
 30
0.0
 11
2824.70617379079
 21
229.9420446291475
 31
0.0
  0
LINE
  5
2884
330
1F
100
AcDbEntity
  8
0
100
AcDbLine
 10
2849.70617379079
 20
265.941980601925
 30
0.0
 11
2849.70617379079
 21
229.9420446291475
 31
0.0
  0
LINE
  5
2887
330
1F
100
AcDbEntity
  8
0
100
AcDbLine
 10
2808.20617379079
 20
228.9418999801223
 30
0.0
 11
2809.20617379079
 21
229.9418999801223
 31
0.0
  0
LINE
  5
2888
330
1F
100
AcDbEntity
  8
0
100
AcDbLine
 10
2865.20617379079
 20
229.9418999801223
 30
0.0
 11
2866.20617379079
 21
228.9418999801223
 31
0.0
  0
LINE
  5
2889
330
1F
100
AcDbEntity
  8
0
100
AcDbLine
 10
2768.20617379079
 20
265.941980601925
 30
0.0
 11
2767.20617379079
 21
266.941980601925
 31
0.0
  0
LINE
  5
288C
330
1F
100
AcDbEntity
  8
0
100
AcDbLine
 10
2907.206078826329
 20
364.2426432538065
 30
0.0
 11
2907.206078826329
 21
387.2426432538065
 31
0.0
  0
LINE
  5
288D
330
1F
100
AcDbEntity
  8
0
100
AcDbLine
 10
2767.20607882633
 20
364.2426432538065
 30
0.0
 11
2767.20607882633
 21
387.2426432538065
 31
0.0
  0
LINE
  5
288E
330
1F
100
AcDbEntity
  8
0
100
AcDbLine
 10
2768.20607882633
 20
388.2426432538065
 30
0.0
 11
2906.206078826329
 21
388.2426432538065
 31
0.0
  0
LINE
  5
288F
330
1F
100
AcDbEntity
  8
0
100
AcDbLine
 10
2768.20607882633
 20
363.2426432538065
 30
0.0
 11
2906.206078826329
 21
363.2426432538065
 31
0.0
  0
LINE
  5
2890
330
1F
100
AcDbEntity
  8
0
100
AcDbLine
 10
2823.206078826329
 20
381.7426432538065
 30
0.0
 11
2851.20607882633
 21
381.7426432538065
 31
0.0
  0
LINE
  5
2891
330
1F
100
AcDbEntity
  8
0
100
AcDbLine
 10
2823.206078826329
 20
369.7426432538065
 30
0.0
 11
2851.20607882633
 21
369.7426432538065
 31
0.0
  0
ARC
  5
2892
330
1F
100
AcDbEntity
  8
0
100
AcDbCircle
 10
2823.206078826329
 20
375.7426432538065
 30
0.0
 40
6.0
100
AcDbArc
 50
90.0
 51
270.0
  0
ARC
  5
2893
330
1F
100
AcDbEntity
  8
0
100
AcDbCircle
 10
2851.20607882633
 20
375.7426432538065
 30
0.0
 40
6.0
100
AcDbArc
 50
270.0
 51
90.0
  0
LINE
  5
2894
330
1F
100
AcDbEntity
  8
0
100
AcDbLine
 10
2767.20607882633
 20
387.2426432538065
 30
0.0
 11
2768.20607882633
 21
388.2426432538065
 31
0.0
  0
LINE
  5
2895
330
1F
100
AcDbEntity
  8
0
100
AcDbLine
 10
2767.20607882633
 20
364.2426432538065
 30
0.0
 11
2768.20607882633
 21
363.2426432538065
 31
0.0
  0
LINE
  5
2896
330
1F
100
AcDbEntity
  8
0
100
AcDbLine
 10
2906.206078826329
 20
363.2426432538065
 30
0.0
 11
2907.206078826329
 21
364.2426432538065
 31
0.0
  0
LINE
  5
2897
330
1F
100
AcDbEntity
  8
0
100
AcDbLine
 10
2907.206078826329
 20
387.2426432538065
 30
0.0
 11
2906.206078826329
 21
388.2426432538065
 31
0.0
  0
ARC
  5
2898
330
1F
100
AcDbEntity
  8
0
100
AcDbCircle
 10
2837.20607882633
 20
375.7426432538065
 30
0.0
 40
12.5
100
AcDbArc
 50
331.3145979858857
 51
28.6854020141143
  0
ARC
  5
2899
330
1F
100
AcDbEntity
  8
0
100
AcDbCircle
 10
2837.20607882633
 20
375.7426432538065
 30
0.0
 40
12.5
100
AcDbArc
 50
151.3145979858857
 51
208.6854020141143
  0
LINE
  5
289A
330
1F
100
AcDbEntity
  8
0
100
AcDbLine
 10
2768.20617379079
 20
265.941980601925
 30
0.0
 11
2906.206173790791
 21
265.941980601925
 31
0.0
  0
LINE
  5
289B
330
1F
100
AcDbEntity
  8
0
100
AcDbLine
 10
2768.20617379079
 20
290.941980601925
 30
0.0
 11
2906.206173790791
 21
290.941980601925
 31
0.0
  0
LINE
  5
289C
330
1F
100
AcDbEntity
  8
0
100
AcDbLine
 10
2767.20617379079
 20
266.941980601925
 30
0.0
 11
2767.20617379079
 21
289.941980601925
 31
0.0
  0
LINE
  5
289D
330
1F
100
AcDbEntity
  8
0
100
AcDbLine
 10
2767.20617379079
 20
266.941980601925
 30
0.0
 11
2768.20617379079
 21
265.941980601925
 31
0.0
  0
LINE
  5
289E
330
1F
100
AcDbEntity
  8
0
100
AcDbLine
 10
2767.20617379079
 20
289.941980601925
 30
0.0
 11
2768.20617379079
 21
290.941980601925
 31
0.0
  0
LINE
  5
289F
330
1F
100
AcDbEntity
  8
0
100
AcDbLine
 10
2907.20617379079
 20
266.941980601925
 30
0.0
 11
2907.20617379079
 21
289.941980601925
 31
0.0
  0
LINE
  5
28A0
330
1F
100
AcDbEntity
  8
0
100
AcDbLine
 10
2906.206173790791
 20
265.941980601925
 30
0.0
 11
2907.20617379079
 21
266.941980601925
 31
0.0
  0
LINE
  5
28A1
330
1F
100
AcDbEntity
  8
0
100
AcDbLine
 10
2907.20617379079
 20
289.941980601925
 30
0.0
 11
2906.206173790791
 21
290.941980601925
 31
0.0
  0
CIRCLE
  5
28A2
330
1F
100
AcDbEntity
  8
0
100
AcDbCircle
 10
2837.20617379079
 20
278.441980601925
 30
0.0
 40
6.0
  0
ARC
  5
28A4
330
1F
100
AcDbEntity
  8
0
100
AcDbCircle
 10
2837.20607882633
 20
375.7426432538065
 30
0.0
 40
30.0
100
AcDbArc
 50
204.6243183521601
 51
335.3756816478399
  0
ARC
  5
28A5
330
1F
100
AcDbEntity
  8
0
100
AcDbCircle
 10
2837.20607882633
 20
375.7426432538065
 30
0.0
 40
30.0
100
AcDbArc
 50
24.62431835216009
 51
155.3756816478399
  0
ARC
  5
28A6
330
1F
100
AcDbEntity
  8
0
100
AcDbCircle
 10
2837.20607882633
 20
375.7426432538065
 30
0.0
 40
29.0
100
AcDbArc
 50
205.5332289440797
 51
334.4667710559203
  0
ARC
  5
28A7
330
1F
100
AcDbEntity
  8
0
100
AcDbCircle
 10
2837.20607882633
 20
375.7426432538065
 30
0.0
 40
29.0
100
AcDbArc
 50
25.53322894407965
 51
154.4667710559203
  0
CIRCLE
  5
28A8
330
1F
100
AcDbEntity
  8
0
100
AcDbCircle
 10
2804.206078826329
 20
395.7426432538065
 30
0.0
 40
4.25
  0
CIRCLE
  5
28A9
330
1F
100
AcDbEntity
  8
0
100
AcDbCircle
 10
2804.206078826329
 20
355.7426432538065
 30
0.0
 40
4.25
  0
LINE
  5
28AA
330
1F
100
AcDbEntity
  8
0
100
AcDbLine
 10
2879.206078826329
 20
344.7426432538065
 30
0.0
 11
2879.206078826329
 21
363.2426432538065
 31
0.0
  0
LINE
  5
28AB
330
1F
100
AcDbEntity
  8
0
100
AcDbLine
 10
2879.206078826329
 20
388.2426432538065
 30
0.0
 11
2879.206078826329
 21
406.7426432538065
 31
0.0
  0
LINE
  5
28AD
330
1F
100
AcDbEntity
  8
0
100
AcDbLine
 10
2796.20617379079
 20
149.9418999801224
 30
0.0
 11
2878.20617379079
 21
149.9418999801223
 31
0.0
  0
LINE
  5
28AE
330
1F
100
AcDbEntity
  8
0
100
AcDbLine
 10
2808.20617379079
 20
150.9418999801223
 30
0.0
 11
2866.20617379079
 21
150.9418999801223
 31
0.0
  0
LINE
  5
28AF
330
1F
100
AcDbEntity
  8
0
100
AcDbLine
 10
2807.20617379079
 20
151.9418999801223
 30
0.0
 11
2808.20617379079
 21
150.9418999801223
 31
0.0
  0
LINE
  5
28B0
330
1F
100
AcDbEntity
  8
0
100
AcDbLine
 10
2866.20617379079
 20
150.9418999801223
 30
0.0
 11
2867.206173790791
 21
151.9418999801223
 31
0.0
  0
LINE
  5
28B1
330
1F
100
AcDbEntity
  8
0
100
AcDbLine
 10
2796.20617379079
 20
149.9418999801224
 30
0.0
 11
2795.20617379079
 21
148.9418999801224
 31
0.0
  0
LINE
  5
28B2
330
1F
100
AcDbEntity
  8
0
100
AcDbLine
 10
2878.20617379079
 20
149.9418999801223
 30
0.0
 11
2879.206173790791
 21
148.9418999801223
 31
0.0
  0
CIRCLE
  5
28B5
330
1F
100
AcDbEntity
  8
0
100
AcDbCircle
 10
2818.750047862679
 20
143.64194226946
 30
0.0
 40
4.75
  0
CIRCLE
  5
28B6
330
1F
100
AcDbEntity
  8
0
100
AcDbCircle
 10
2818.750047862679
 20
143.64194226946
 30
0.0
 40
3.75
  0
LINE
  5
28C3
330
1F
100
AcDbEntity
  8
AM_7
100
AcDbLine
 10
2765.206078826329
 20
375.7426432538065
 30
0.0
 11
2909.206078826329
 21
375.7426432538065
 31
0.0
1001
GENIUS_GENOBJ-N-CEN_13
1002
{
1000
OWNER
1000
GEN
1002
}
1001
GENIUS_GENODEF_13
1002
{
1000
HIER
1070
     0
1002
}
1002
{
1000
MANEDIT
1070
     0
1002
}
1002
{
1000
NOSEL
1070
     0
1002
}
1002
{
1000
BEHIND
1070
     0
1002
}
1002
{
1000
OTHER
1070
     0
1002
}
1002
{
1000
REACTOR
1002
}
1001
GENIUS_GENCEN_19
1002
{
1040
2.0
1002
}
  0
LINE
  5
28D0
330
1F
100
AcDbEntity
  8
AM_7
100
AcDbLine
 10
2837.20607882633
 20
409.7426432538064
 30
0.0
 11
2837.20607882633
 21
341.7426432538065
 31
0.0
1001
GENIUS_GENOBJ-N-CEN_13
1002
{
1000
OWNER
1000
GEN
1002
}
1001
GENIUS_GENODEF_13
1002
{
1000
HIER
1070
     0
1002
}
1002
{
1000
MANEDIT
1070
     0
1002
}
1002
{
1000
NOSEL
1070
     0
1002
}
1002
{
1000
BEHIND
1070
     0
1002
}
1002
{
1000
OTHER
1070
     0
1002
}
1002
{
1000
REACTOR
1002
}
1001
GENIUS_GENCEN_19
1002
{
1040
2.0
1002
}
  0
LINE
  5
28DD
330
1F
100
AcDbEntity
  8
AM_7
100
AcDbLine
 10
2837.20617379079
 20
292.941980601925
 30
0.0
 11
2837.20617379079
 21
129.9418999801224
 31
0.0
1001
GENIUS_GENODEF_13
1002
{
1000
HIER
1070
     0
1002
}
1002
{
1000
MANEDIT
1070
     0
1002
}
1002
{
1000
NOSEL
1070
     0
1002
}
1002
{
1000
BEHIND
1070
     0
1002
}
1002
{
1000
OTHER
1070
     0
1002
}
1002
{
1000
REACTOR
1002
}
1001
GENIUS_GENOBJ-N-CEN_13
1002
{
1000
OWNER
1000
GEN
1002
}
1001
GENIUS_GENCEN_19
1002
{
1040
2.0
1002
}
  0
LINE
  5
28EF
330
1F
100
AcDbEntity
  8
AM_7
  6
AM_ISO08W050x2
100
AcDbLine
 10
2804.206078826329
 20
355.7426432538065
 30
0.0
 11
2810.456078826329
 21
355.7426432538065
 31
0.0
1001
GENIUS_GENOREF_13
1005
28F3
  0
LINE
  5
28F0
330
1F
100
AcDbEntity
  8
AM_7
  6
AM_ISO08W050x2
100
AcDbLine
 10
2804.206078826329
 20
355.7426432538065
 30
0.0
 11
2804.206078826329
 21
361.9926432538065
 31
0.0
1001
GENIUS_GENOREF_13
1005
28F3
  0
LINE
  5
28F1
330
1F
100
AcDbEntity
  8
AM_7
  6
AM_ISO08W050x2
100
AcDbLine
 10
2804.206078826329
 20
355.7426432538065
 30
0.0
 11
2797.95607882633
 21
355.7426432538065
 31
0.0
1001
GENIUS_GENOREF_13
1005
28F3
  0
LINE
  5
28F2
330
1F
100
AcDbEntity
  8
AM_7
  6
AM_ISO08W050x2
100
AcDbLine
 10
2804.206078826329
 20
355.7426432538065
 30
0.0
 11
2804.206078826329
 21
349.4926432538065
 31
0.0
1001
GENIUS_GENOREF_13
1005
28F3
  0
POINT
  5
28F3
330
1F
100
AcDbEntity
  8
0
 60
     1
100
AcDbPoint
 10
0.0
 20
0.0
 30
0.0
1001
GENIUS_GENOLIS_13
1002
{
1000
ENT
1005
28F2
1005
28F1
1005
28F0
1005
28EF
1002
}
1001
GENIUS_GENODEF_13
1002
{
1000
HIER
1070
    10
1002
}
1002
{
1000
MANEDIT
1070
     0
1002
}
1002
{
1000
NOSEL
1070
     0
1002
}
1002
{
1000
BEHIND
1070
     0
1002
}
1002
{
1000
OTHER
1070
     0
1002
}
1002
{
1000
REACTOR
1002
}
1001
GENIUS_GENOENT_13
1002
{
1000
MYREF
1005
28F3
1002
}
1002
{
1000
GRP
1005
0
1002
}
1001
GENIUS_GENOBJ-N-CRS_13
1002
{
1000
OWNER
1000
GEN
1002
}
  0
LINE
  5
2901
330
1F
100
AcDbEntity
  8
AM_7
  6
AM_ISO08W050x2
100
AcDbLine
 10
2870.206078826329
 20
355.7426432538065
 30
0.0
 11
2876.456078826329
 21
355.7426432538065
 31
0.0
1001
GENIUS_GENOREF_13
1005
2905
  0
LINE
  5
2902
330
1F
100
AcDbEntity
  8
AM_7
  6
AM_ISO08W050x2
100
AcDbLine
 10
2870.206078826329
 20
355.7426432538065
 30
0.0
 11
2870.206078826329
 21
361.9926432538065
 31
0.0
1001
GENIUS_GENOREF_13
1005
2905
  0
LINE
  5
2903
330
1F
100
AcDbEntity
  8
AM_7
  6
AM_ISO08W050x2
100
AcDbLine
 10
2870.206078826329
 20
355.7426432538065
 30
0.0
 11
2863.956078826329
 21
355.7426432538065
 31
0.0
1001
GENIUS_GENOREF_13
1005
2905
  0
LINE
  5
2904
330
1F
100
AcDbEntity
  8
AM_7
  6
AM_ISO08W050x2
100
AcDbLine
 10
2870.206078826329
 20
355.7426432538065
 30
0.0
 11
2870.206078826329
 21
349.4926432538065
 31
0.0
1001
GENIUS_GENOREF_13
1005
2905
  0
POINT
  5
2905
330
1F
100
AcDbEntity
  8
0
 60
     1
100
AcDbPoint
 10
0.0
 20
0.0
 30
0.0
1001
GENIUS_GENOLIS_13
1002
{
1000
ENT
1005
2904
1005
2903
1005
2902
1005
2901
1002
}
1001
GENIUS_GENODEF_13
1002
{
1000
HIER
1070
    10
1002
}
1002
{
1000
MANEDIT
1070
     0
1002
}
1002
{
1000
NOSEL
1070
     0
1002
}
1002
{
1000
BEHIND
1070
     0
1002
}
1002
{
1000
OTHER
1070
     0
1002
}
1002
{
1000
REACTOR
1002
}
1001
GENIUS_GENOENT_13
1002
{
1000
MYREF
1005
2905
1002
}
1002
{
1000
GRP
1005
0
1002
}
1001
GENIUS_GENOBJ-N-CRS_13
1002
{
1000
OWNER
1000
GEN
1002
}
  0
LINE
  5
2913
330
1F
100
AcDbEntity
  8
AM_7
  6
AM_ISO08W050x2
100
AcDbLine
 10
2870.206078826329
 20
395.7426432538065
 30
0.0
 11
2876.456078826329
 21
395.7426432538065
 31
0.0
1001
GENIUS_GENOREF_13
1005
2917
  0
LINE
  5
2914
330
1F
100
AcDbEntity
  8
AM_7
  6
AM_ISO08W050x2
100
AcDbLine
 10
2870.206078826329
 20
395.7426432538065
 30
0.0
 11
2870.206078826329
 21
401.9926432538064
 31
0.0
1001
GENIUS_GENOREF_13
1005
2917
  0
LINE
  5
2915
330
1F
100
AcDbEntity
  8
AM_7
  6
AM_ISO08W050x2
100
AcDbLine
 10
2870.206078826329
 20
395.7426432538065
 30
0.0
 11
2863.956078826329
 21
395.7426432538065
 31
0.0
1001
GENIUS_GENOREF_13
1005
2917
  0
LINE
  5
2916
330
1F
100
AcDbEntity
  8
AM_7
  6
AM_ISO08W050x2
100
AcDbLine
 10
2870.206078826329
 20
395.7426432538065
 30
0.0
 11
2870.206078826329
 21
389.4926432538065
 31
0.0
1001
GENIUS_GENOREF_13
1005
2917
  0
POINT
  5
2917
330
1F
100
AcDbEntity
  8
0
 60
     1
100
AcDbPoint
 10
0.0
 20
0.0
 30
0.0
1001
GENIUS_GENODEF_13
1002
{
1000
HIER
1070
    10
1002
}
1002
{
1000
MANEDIT
1070
     0
1002
}
1002
{
1000
NOSEL
1070
     0
1002
}
1002
{
1000
BEHIND
1070
     0
1002
}
1002
{
1000
OTHER
1070
     0
1002
}
1002
{
1000
REACTOR
1002
}
1001
GENIUS_GENOBJ-N-CRS_13
1002
{
1000
OWNER
1000
GEN
1002
}
1001
GENIUS_GENOENT_13
1002
{
1000
MYREF
1005
2917
1002
}
1002
{
1000
GRP
1005
0
1002
}
1001
GENIUS_GENOLIS_13
1002
{
1000
ENT
1005
2916
1005
2915
1005
2914
1005
2913
1002
}
  0
LINE
  5
2925
330
1F
100
AcDbEntity
  8
AM_7
  6
AM_ISO08W050x2
100
AcDbLine
 10
2804.206078826329
 20
395.7426432538065
 30
0.0
 11
2810.456078826329
 21
395.7426432538065
 31
0.0
1001
GENIUS_GENOREF_13
1005
2929
  0
LINE
  5
2926
330
1F
100
AcDbEntity
  8
AM_7
  6
AM_ISO08W050x2
100
AcDbLine
 10
2804.206078826329
 20
395.7426432538065
 30
0.0
 11
2804.206078826329
 21
401.9926432538064
 31
0.0
1001
GENIUS_GENOREF_13
1005
2929
  0
LINE
  5
2927
330
1F
100
AcDbEntity
  8
AM_7
  6
AM_ISO08W050x2
100
AcDbLine
 10
2804.206078826329
 20
395.7426432538065
 30
0.0
 11
2797.95607882633
 21
395.7426432538065
 31
0.0
1001
GENIUS_GENOREF_13
1005
2929
  0
LINE
  5
2928
330
1F
100
AcDbEntity
  8
AM_7
  6
AM_ISO08W050x2
100
AcDbLine
 10
2804.206078826329
 20
395.7426432538065
 30
0.0
 11
2804.206078826329
 21
389.4926432538065
 31
0.0
1001
GENIUS_GENOREF_13
1005
2929
  0
POINT
  5
2929
330
1F
100
AcDbEntity
  8
0
 60
     1
100
AcDbPoint
 10
0.0
 20
0.0
 30
0.0
1001
GENIUS_GENOLIS_13
1002
{
1000
ENT
1005
2928
1005
2927
1005
2926
1005
2925
1002
}
1001
GENIUS_GENOBJ-N-CRS_13
1002
{
1000
OWNER
1000
GEN
1002
}
1001
GENIUS_GENODEF_13
1002
{
1000
HIER
1070
    10
1002
}
1002
{
1000
MANEDIT
1070
     0
1002
}
1002
{
1000
NOSEL
1070
     0
1002
}
1002
{
1000
BEHIND
1070
     0
1002
}
1002
{
1000
OTHER
1070
     0
1002
}
1002
{
1000
REACTOR
1002
}
1001
GENIUS_GENOENT_13
1002
{
1000
MYREF
1005
2929
1002
}
1002
{
1000
GRP
1005
0
1002
}
  0
DIMENSION
  5
292B
330
1F
100
AcDbEntity
  8
AM_5
100
AcDbDimension
  2
*D43
 10
2909.20617379079
 20
229.9418999801223
 30
0.0
 11
2906.70617379079
 21
180.9418999801228
 31
0.0
 70
    32
 71
     5
 42
98.0
  3
AM_ISO$0
100
AcDbAlignedDimension
 13
2878.20617379079
 23
131.9418999801223
 33
0.0
 14
2865.206173790791
 24
229.9418999801223
 34
0.0
 50
90.0
100
AcDbRotatedDimension
1001
ACAD
1000
DSTYLE
1002
{
1070
    40
1040
1.0
1070
   144
1040
1.0
1070
   272
1070
     8
1002
}
  0
DIMENSION
  5
292C
330
1F
100
AcDbEntity
  8
AM_5
100
AcDbDimension
  2
*D44
 10
2919.20617379079
 20
258.941980601925
 30
0.0
 11
2916.706173790791
 21
195.4419402910241
 31
0.0
 70
    32
 71
     5
 42
127.0000806218027
  3
AM_ISO$0
100
AcDbAlignedDimension
 13
2878.20617379079
 23
131.9418999801223
 33
0.0
 14
2906.206173790791
 24
258.941980601925
 34
0.0
 50
90.0
100
AcDbRotatedDimension
1001
ACAD
1000
DSTYLE
1002
{
1070
    40
1040
1.0
1070
   144
1040
1.0
1070
   272
1070
     8
1002
}
  0
DIMENSION
  5
292D
330
1F
100
AcDbEntity
  8
AM_5
100
AcDbDimension
  2
*D45
 10
2919.20617379079
 20
258.941980601925
 30
0.0
 11
2916.706173790791
 21
271.4419806019255
 31
0.0
 70
    32
 71
     5
 42
25.0
  3
AM_ISO$0
100
AcDbAlignedDimension
 13
2906.206173790791
 23
283.941980601925
 33
0.0
 14
2906.206173790791
 24
258.941980601925
 34
0.0
 50
90.0
100
AcDbRotatedDimension
1001
ACAD
1000
DSTYLE
1002
{
1070
    40
1040
1.0
1070
   144
1040
1.0
1070
   272
1070
     8
1002
}
  0
DIMENSION
  5
296D
330
1F
100
AcDbEntity
  8
AM_5
100
AcDbDimension
  2
*D46
 10
2782.45304524724
 20
131.9418999801224
 30
0.0
 11
2779.95304524724
 21
140.9418999801229
 31
0.0
 70
    32
 71
     5
 42
18.0
  3
AM_ISO$0
100
AcDbAlignedDimension
 13
2796.20617379079
 23
149.9418999801224
 33
0.0
 14
2796.20617379079
 24
131.9418999801224
 34
0.0
 50
90.0
100
AcDbRotatedDimension
1001
ACAD
1000
DSTYLE
1002
{
1070
    40
1040
1.0
1070
   144
1040
1.0
1070
   272
1070
     8
1002
}
  0
DIMENSION
  5
2983
330
1F
100
AcDbEntity
  8
AM_5
100
AcDbDimension
  2
*D47
 10
2870.205983861868
 20
334.4926432538065
 30
0.0
 11
2837.205983861868
 21
336.9926432538065
 31
0.0
 70
    32
 71
     5
 42
66.0
  3
AM_ISO$0
100
AcDbAlignedDimension
 13
2804.205983861868
 23
349.4926432538065
 33
0.0
 14
2870.205983861868
 24
349.4926432538065
 34
0.0
100
AcDbRotatedDimension
1001
ACAD
1000
DSTYLE
1002
{
1070
    40
1040
1.0
1070
   144
1040
1.0
1070
   272
1070
     8
1002
}
  0
DIMENSION
  5
2984
330
1F
100
AcDbEntity
  8
AM_5
100
AcDbDimension
  2
*D48
 10
2879.205983861868
 20
324.492643253805
 30
0.0
 11
2837.205983861868
 21
326.992643253805
 31
0.0
 70
    32
 71
     5
 42
84.0
  3
AM_ISO$0
100
AcDbAlignedDimension
 13
2795.205983861868
 23
344.7426432538065
 33
0.0
 14
2879.205983861868
 24
344.7426432538065
 34
0.0
100
AcDbRotatedDimension
1001
ACAD
1000
DSTYLE
1002
{
1070
    40
1040
1.0
1070
   144
1040
1.0
1070
   272
1070
     8
1002
}
  0
DIMENSION
  5
29AF
330
1F
100
AcDbEntity
  8
AM_5
100
AcDbDimension
  2
*D49
 10
2929.206078826329
 20
407.7426432538064
 30
0.0
 11
2926.70607882633
 21
375.7426432538069
 31
0.0
 70
    32
 71
     5
 42
64.0
  3
AM_ISO$0
100
AcDbAlignedDimension
 13
2878.247744863575
 23
343.7426432538065
 33
0.0
 14
2878.206078826329
 24
407.7426432538064
 34
0.0
 50
90.0
100
AcDbRotatedDimension
1001
ACAD
1000
DSTYLE
1002
{
1070
    40
1040
1.0
1070
   144
1040
1.0
1070
   272
1070
     8
1002
}
  0
DIMENSION
  5
29B0
330
1F
100
AcDbEntity
  8
AM_5
100
AcDbDimension
  2
*D50
 10
2919.206078826329
 20
395.7426432538065
 30
0.0
 11
2916.706078826329
 21
375.7426432538069
 31
0.0
 70
    32
 71
     5
 42
40.0
  3
AM_ISO$0
100
AcDbAlignedDimension
 13
2876.456078826329
 23
355.7426432538065
 33
0.0
 14
2876.456078826329
 24
395.7426432538065
 34
0.0
 50
90.0
100
AcDbRotatedDimension
1001
ACAD
1000
DSTYLE
1002
{
1070
    40
1040
1.0
1070
   144
1040
1.0
1070
   272
1070
     8
1002
}
  0
LINE
  5
29DB
330
1F
100
AcDbEntity
  8
0
  6
HIDDEN
 62
     3
 48
0.5
100
AcDbLine
 10
2121.547790289909
 20
148.1620935692877
 30
0.0
 11
2132.912984551748
 21
148.1620935692877
 31
0.0
  0
LINE
  5
29DC
330
1F
100
AcDbEntity
  8
0
  6
HIDDEN
 62
     3
 48
0.5
100
AcDbLine
 10
2122.025040836735
 20
138.6620935692877
 30
0.0
 11
2132.912984551748
 21
138.6620935692876
 31
0.0
  0
LINE
  5
29DD
330
1F
100
AcDbEntity
  8
0
  6
HIDDEN
 62
     3
 48
0.5
100
AcDbLine
 10
2122.025040836735
 20
139.6620935692877
 30
0.0
 11
2132.912984551748
 21
139.6620935692876
 31
0.0
  0
LINE
  5
29DE
330
1F
100
AcDbEntity
  8
0
  6
HIDDEN
 62
     3
 48
0.5
100
AcDbLine
 10
2121.547790289909
 20
147.1620935692877
 30
0.0
 11
2132.912984551748
 21
147.1620935692877
 31
0.0
  0
LINE
  5
29DF
330
1F
100
AcDbEntity
  8
0
  6
HIDDEN
 62
     3
 48
0.5
100
AcDbLine
 10
2122.344184425961
 20
521.4456655315786
 30
0.0
 11
2132.871318514503
 21
521.4456655315786
 31
0.0
  0
LINE
  5
29E0
330
1F
100
AcDbEntity
  8
0
  6
HIDDEN
 62
     3
 48
0.5
100
AcDbLine
 10
2122.821434972786
 20
511.9456655315786
 30
0.0
 11
2132.871318514503
 21
511.9456655315786
 31
0.0
  0
LINE
  5
29E1
330
1F
100
AcDbEntity
  8
0
  6
HIDDEN
 62
     3
 48
0.5
100
AcDbLine
 10
2122.821434972786
 20
512.9456655315786
 30
0.0
 11
2132.871318514503
 21
512.9456655315786
 31
0.0
  0
LINE
  5
29E2
330
1F
100
AcDbEntity
  8
0
  6
HIDDEN
 62
     3
 48
0.5
100
AcDbLine
 10
2122.344184425961
 20
520.4456655315786
 30
0.0
 11
2132.871318514503
 21
520.4456655315786
 31
0.0
  0
LINE
  5
29E3
330
1F
100
AcDbEntity
  8
0
  6
HIDDEN
 62
     3
 48
0.5
100
AcDbLine
 10
2078.371318514503
 20
596.0927780583291
 30
0.0
 11
2089.99222143064
 21
596.0927780583291
 31
0.0
  0
LINE
  5
29E4
330
1F
100
AcDbEntity
  8
0
  6
HIDDEN
 62
     3
 48
0.5
100
AcDbLine
 10
2078.371318514503
 20
586.5927780583291
 30
0.0
 11
2089.99222143064
 21
586.5927780583291
 31
0.0
  0
LINE
  5
29E5
330
1F
100
AcDbEntity
  8
0
  6
HIDDEN
 62
     3
 48
0.5
100
AcDbLine
 10
2078.371318514503
 20
587.5927780583291
 30
0.0
 11
2089.99222143064
 21
587.5927780583291
 31
0.0
  0
LINE
  5
29E6
330
1F
100
AcDbEntity
  8
0
  6
HIDDEN
 62
     3
 48
0.5
100
AcDbLine
 10
2078.371318514503
 20
595.0927780583292
 30
0.0
 11
2089.99222143064
 21
595.0927780583291
 31
0.0
  0
LINE
  5
29E7
330
1F
100
AcDbEntity
  8
0
  6
HIDDEN
 62
     3
 48
0.5
100
AcDbLine
 10
2449.840300934328
 20
593.1994862266559
 30
0.0
 11
2461.6591929341
 21
593.199486226656
 31
0.0
  0
LINE
  5
29E8
330
1F
100
AcDbEntity
  8
0
  6
HIDDEN
 62
     3
 48
0.5
100
AcDbLine
 10
2449.840300934327
 20
583.6994862266559
 30
0.0
 11
2461.6591929341
 21
583.6994862266561
 31
0.0
  0
LINE
  5
29E9
330
1F
100
AcDbEntity
  8
0
  6
HIDDEN
 62
     3
 48
0.5
100
AcDbLine
 10
2449.840300934327
 20
584.6994862266559
 30
0.0
 11
2461.6591929341
 21
584.699486226656
 31
0.0
  0
LINE
  5
29EA
330
1F
100
AcDbEntity
  8
0
  6
HIDDEN
 62
     3
 48
0.5
100
AcDbLine
 10
2449.840300934328
 20
592.1994862266559
 30
0.0
 11
2461.6591929341
 21
592.1994862266561
 31
0.0
  0
LINE
  5
29EB
330
1F
100
AcDbEntity
  8
0
  6
HIDDEN
 62
     3
 48
0.5
100
AcDbLine
 10
2497.356329574679
 20
522.3933340565714
 30
0.0
 11
2507.840300934328
 21
522.3933340565714
 31
0.0
  0
LINE
  5
29EC
330
1F
100
AcDbEntity
  8
0
  6
HIDDEN
 62
     3
 48
0.5
100
AcDbLine
 10
2497.833580121505
 20
512.8933340565713
 30
0.0
 11
2507.840300934328
 21
512.8933340565713
 31
0.0
  0
LINE
  5
29ED
330
1F
100
AcDbEntity
  8
0
  6
HIDDEN
 62
     3
 48
0.5
100
AcDbLine
 10
2497.833580121505
 20
513.8933340565713
 30
0.0
 11
2507.840300934328
 21
513.8933340565713
 31
0.0
  0
LINE
  5
29EE
330
1F
100
AcDbEntity
  8
0
  6
HIDDEN
 62
     3
 48
0.5
100
AcDbLine
 10
2497.356329574679
 20
521.3933340565713
 30
0.0
 11
2507.840300934328
 21
521.3933340565713
 31
0.0
  0
LINE
  5
29EF
330
1F
100
AcDbEntity
  8
0
  6
HIDDEN
 62
     3
 48
0.5
100
AcDbLine
 10
2496.731635289952
 20
147.7974578216295
 30
0.0
 11
2507.840300934328
 21
147.7974578216295
 31
0.0
  0
LINE
  5
29F0
330
1F
100
AcDbEntity
  8
0
  6
HIDDEN
 62
     3
 48
0.5
100
AcDbLine
 10
2497.208885836777
 20
138.2974578216295
 30
0.0
 11
2507.840300934328
 21
138.2974578216295
 31
0.0
  0
LINE
  5
29F1
330
1F
100
AcDbEntity
  8
0
  6
HIDDEN
 62
     3
 48
0.5
100
AcDbLine
 10
2497.208885836777
 20
139.2974578216295
 30
0.0
 11
2507.840300934328
 21
139.2974578216295
 31
0.0
  0
LINE
  5
29F2
330
1F
100
AcDbEntity
  8
0
  6
HIDDEN
 62
     3
 48
0.5
100
AcDbLine
 10
2496.731635289952
 20
146.7974578216295
 30
0.0
 11
2507.840300934328
 21
146.7974578216295
 31
0.0
  0
LINE
  5
29F3
330
1F
100
AcDbEntity
  8
0
  6
HIDDEN
 62
     3
 48
0.5
100
AcDbLine
 10
2868.894136223157
 20
147.2431318306699
 30
0.0
 11
2879.206173790791
 21
147.2431318306699
 31
0.0
  0
LINE
  5
29F4
330
1F
100
AcDbEntity
  8
0
  6
HIDDEN
 62
     3
 48
0.5
100
AcDbLine
 10
2869.371386769983
 20
137.7431318306699
 30
0.0
 11
2879.206173790791
 21
137.7431318306699
 31
0.0
  0
LINE
  5
29F5
330
1F
100
AcDbEntity
  8
0
  6
HIDDEN
 62
     3
 48
0.5
100
AcDbLine
 10
2869.371386769983
 20
138.7431318306699
 30
0.0
 11
2879.206173790791
 21
138.7431318306699
 31
0.0
  0
LINE
  5
29F6
330
1F
100
AcDbEntity
  8
0
  6
HIDDEN
 62
     3
 48
0.5
100
AcDbLine
 10
2868.894136223157
 20
146.2431318306698
 30
0.0
 11
2879.206173790791
 21
146.2431318306699
 31
0.0
  0
LINE
  5
29F7
330
1F
100
AcDbEntity
  8
0
  6
HIDDEN
 62
     3
 48
0.5
100
AcDbLine
 10
2867.710200161202
 20
522.4602163637056
 30
0.0
 11
2879.206173790791
 21
522.4602163637056
 31
0.0
  0
LINE
  5
29F8
330
1F
100
AcDbEntity
  8
0
  6
HIDDEN
 62
     3
 48
0.5
100
AcDbLine
 10
2868.187450708027
 20
512.9602163637056
 30
0.0
 11
2879.206173790791
 21
512.9602163637056
 31
0.0
  0
LINE
  5
29F9
330
1F
100
AcDbEntity
  8
0
  6
HIDDEN
 62
     3
 48
0.5
100
AcDbLine
 10
2868.187450708027
 20
513.9602163637056
 30
0.0
 11
2879.206173790791
 21
513.9602163637056
 31
0.0
  0
LINE
  5
29FA
330
1F
100
AcDbEntity
  8
0
  6
HIDDEN
 62
     3
 48
0.5
100
AcDbLine
 10
2867.710200161202
 20
521.4602163637056
 30
0.0
 11
2879.206173790791
 21
521.4602163637056
 31
0.0
  0
LINE
  5
29FB
330
1F
100
AcDbEntity
  8
0
  6
HIDDEN
 62
     3
 48
0.5
100
AcDbLine
 10
2808.20617379079
 20
596.9732118866131
 30
0.0
 11
2819.332483674654
 21
596.9732118866131
 31
0.0
  0
LINE
  5
29FC
330
1F
100
AcDbEntity
  8
0
  6
HIDDEN
 62
     3
 48
0.5
100
AcDbLine
 10
2808.20617379079
 20
587.4732118866131
 30
0.0
 11
2819.332483674654
 21
587.4732118866131
 31
0.0
  0
LINE
  5
29FD
330
1F
100
AcDbEntity
  8
0
  6
HIDDEN
 62
     3
 48
0.5
100
AcDbLine
 10
2808.20617379079
 20
588.4732118866131
 30
0.0
 11
2819.332483674654
 21
588.4732118866131
 31
0.0
  0
LINE
  5
29FE
330
1F
100
AcDbEntity
  8
0
  6
HIDDEN
 62
     3
 48
0.5
100
AcDbLine
 10
2808.20617379079
 20
595.9732118866132
 30
0.0
 11
2819.332483674654
 21
595.9732118866131
 31
0.0
  0
DIMENSION
  5
2AC1
102
{ACAD_XDICTIONARY
360
2ACE
102
}
102
{ACAD_REACTORS
330
2ACF
102
}
330
1F
100
AcDbEntity
  8
AM_5
100
AcDbDimension
  2
*D51
 10
2150.871318514503
 20
665.9561227128468
 30
0.0
 11
2100.871318514503
 21
668.4561227128467
 31
0.0
 70
    32
 71
     5
 42
100.0
  3
AM_ISO$0
100
AcDbAlignedDimension
 13
2050.871318514503
 23
653.9561227128467
 33
0.0
 14
2150.871318514503
 24
653.9561227128467
 34
0.0
100
AcDbRotatedDimension
1001
ACAD
1000
DSTYLE
1002
{
1070
    40
1040
1.0
1070
   144
1040
1.0
1070
   272
1070
     8
1002
}
  0
DIMENSION
  5
2ADC
330
1F
100
AcDbEntity
  8
AM_5
100
AcDbDimension
  2
*D52
 10
2150.912984551748
 20
295.9418999801225
 30
0.0
 11
2100.912984551748
 21
298.4418999801225
 31
0.0
 70
    32
 71
     5
 42
100.0
  3
AM_ISO$0
100
AcDbAlignedDimension
 13
2050.912984551748
 23
283.9418999801225
 33
0.0
 14
2150.912984551748
 24
283.9418999801225
 34
0.0
100
AcDbRotatedDimension
1001
ACAD
1000
DSTYLE
1002
{
1070
    40
1040
1.0
1070
   144
1040
1.0
1070
   272
1070
     8
1002
}
  0
DIMENSION
  5
2AEB
330
1F
100
AcDbEntity
  8
AM_5
100
AcDbDimension
  2
*D53
 10
2533.840300934328
 20
297.9418999801225
 30
0.0
 11
2473.840300934327
 21
300.4418999801225
 31
0.0
 70
    32
 71
     5
 42
120.0
  3
AM_ISO$0
100
AcDbAlignedDimension
 13
2413.840300934328
 23
285.9418999801225
 33
0.0
 14
2533.840300934328
 24
285.9418999801225
 34
0.0
100
AcDbRotatedDimension
1001
ACAD
1000
DSTYLE
1002
{
1070
    40
1040
1.0
1070
   144
1040
1.0
1070
   272
1070
     8
1002
}
  0
DIMENSION
  5
2C2C
330
1F
100
AcDbEntity
  8
AM_5
100
AcDbDimension
  2
*D54
 10
2533.840300934328
 20
668.9561227128467
 30
0.0
 11
2473.840300934327
 21
671.4561227128467
 31
0.0
 70
    32
 71
     5
 42
120.0
  3
AM_ISO$0
100
AcDbAlignedDimension
 13
2413.840300934328
 23
656.9561227128467
 33
0.0
 14
2533.840300934328
 24
656.9561227128467
 34
0.0
100
AcDbRotatedDimension
1001
ACAD
1000
DSTYLE
1002
{
1070
    40
1040
1.0
1070
   144
1040
1.0
1070
   272
1070
     8
1002
}
  0
DIMENSION
  5
2C99
102
{ACAD_XDICTIONARY
360
2CA6
102
}
102
{ACAD_REACTORS
330
2CA7
102
}
330
1F
100
AcDbEntity
  8
AM_5
100
AcDbDimension
  2
*D55
 10
2907.20617379079
 20
671.9562033346493
 30
0.0
 11
2837.20617379079
 21
674.4562033346493
 31
0.0
 70
    32
 71
     5
 42
140.0
  3
AM_ISO$0
100
AcDbAlignedDimension
 13
2767.20617379079
 23
659.9562033346493
 33
0.0
 14
2907.20617379079
 24
659.9562033346493
 34
0.0
100
AcDbRotatedDimension
1001
ACAD
1000
DSTYLE
1002
{
1070
    40
1040
1.0
1070
   144
1040
1.0
1070
   272
1070
     8
1002
}
  0
DIMENSION
  5
2CD8
330
1F
100
AcDbEntity
  8
AM_5
100
AcDbDimension
  2
*D56
 10
2907.20617379079
 20
301.941980601925
 30
0.0
 11
2837.20617379079
 21
304.441980601925
 31
0.0
 70
    32
 71
     5
 42
140.0
  3
AM_ISO$0
100
AcDbAlignedDimension
 13
2767.20617379079
 23
289.941980601925
 33
0.0
 14
2907.20617379079
 24
289.941980601925
 34
0.0
100
AcDbRotatedDimension
1001
ACAD
1000
DSTYLE
1002
{
1070
    40
1040
1.0
1070
   144
1040
1.0
1070
   272
1070
     8
1002
}
  0
ENDSEC
  0
SECTION
  2
OBJECTS
  0
DICTIONARY
  5
C
330
0
100
AcDbDictionary
281
     1
  3
ACAD_COLOR
350
BE
  3
ACAD_GROUP
350
D
  3
ACAD_LAYOUT
350
1A
  3
ACAD_MATERIAL
350
BD
  3
ACAD_MLINESTYLE
350
17
  3
ACAD_PLOTSETTINGS
350
19
  3
ACAD_PLOTSTYLENAME
350
E
  3
ACAD_TABLESTYLE
350
11A
  3
ACDBHEADERROUNDTRIPXREC
350
2D25
  3
AcDbVariableDictionary
350
94
  3
AcmDictionary
350
5B
  3
AMG
350
41
  3
AMGSNAPSETTINGS
350
1B8
  3
DWGPROPS
350
2D24
  0
DICTIONARY
  5
3F9
330
2
100
AcDbDictionary
280
     1
281
     1
  3
ACAD_LAYERFILTERS
360
5B7
  3
ACAD_LAYERSTATES
360
1563
  3
ACLYDICTIONARY
360
5B6
  0
DICTIONARY
  5
8F
330
1F
100
AcDbDictionary
280
     1
281
     1
  3
ACAD_SORTENTS
360
9E6
  0
DICTIONARY
  5
1EC4
330
1EB7
100
AcDbDictionary
280
     1
281
     1
  3
ACAD_DIMASSOC
360
1EC5
  0
DICTIONARY
  5
1EEA
330
1EDD
100
AcDbDictionary
280
     1
281
     1
  3
ACAD_DIMASSOC
360
1EEB
  0
DICTIONARY
  5
2ACE
330
2AC1
100
AcDbDictionary
280
     1
281
     1
  3
ACAD_DIMASSOC
360
2ACF
  0
DICTIONARY
  5
2CA6
330
2C99
100
AcDbDictionary
280
     1
281
     1
  3
ACAD_DIMASSOC
360
2CA7
  0
DICTIONARY
  5
BE
102
{ACAD_REACTORS
330
C
102
}
330
C
100
AcDbDictionary
281
     1
  0
DICTIONARY
  5
D
102
{ACAD_REACTORS
330
C
102
}
330
C
100
AcDbDictionary
281
     1
  0
DICTIONARY
  5
1A
102
{ACAD_REACTORS
330
C
102
}
330
C
100
AcDbDictionary
281
     1
  3
Model
350
22
  3
配置1
350
1E
  3
配置2
350
26
  0
DICTIONARY
  5
BD
102
{ACAD_REACTORS
330
C
102
}
330
C
100
AcDbDictionary
281
     1
  0
DICTIONARY
  5
17
102
{ACAD_REACTORS
330
C
102
}
330
C
100
AcDbDictionary
281
     1
  3
Standard
350
18
  0
DICTIONARY
  5
19
102
{ACAD_REACTORS
330
C
102
}
330
C
100
AcDbDictionary
281
     1
  0
ACDBDICTIONARYWDFLT
  5
E
102
{ACAD_REACTORS
330
C
102
}
330
C
100
AcDbDictionary
281
     1
  3
Normal
350
F
100
AcDbDictionaryWithDefault
340
F
  0
DICTIONARY
  5
11A
102
{ACAD_REACTORS
330
C
102
}
330
C
100
AcDbDictionary
281
     1
  3
Standard
350
11B
  0
DICTIONARY
  5
2D25
102
{ACAD_REACTORS
330
C
102
}
330
C
100
AcDbDictionary
281
     1
  0
DICTIONARY
  5
94
102
{ACAD_REACTORS
330
C
102
}
330
C
100
AcDbDictionary
281
     1
  3
CTABLESTYLE
350
138
  3
DIMASSOC
350
96
  3
INDEXCTL
350
95
  3
PROJECTNAME
350
2D22
  0
DICTIONARY
  5
5B
102
{ACAD_REACTORS
330
C
102
}
330
C
100
AcDbDictionary
281
     1
  3
AcmBOM
350
1B5
  3
AcmStdDictionary
350
61
  3
AMDTSECTSYM_ARROWCOLOR
350
123
  0
DICTIONARY
  5
41
102
{ACAD_REACTORS
330
C
102
}
330
C
100
AcDbDictionary
281
     1
  0
DICTIONARY
  5
1B8
102
{ACAD_REACTORS
330
C
102
}
330
C
100
AcDbDictionary
281
     1
  0
XRECORD
  5
2D24
102
{ACAD_REACTORS
330
C
102
}
330
C
100
AcDbXrecord
280
     1
  1
DWGPROPS COOKIE
  2

  3

  4

  6

  7

  8

  9

300
AmdtFileType=84
301
=
302
=
303
=
304
=
305
=
306
=
307
=
308
=
309
=
 40
0.0796017708333333
 41
2453731.618400787
 42
2453732.405380857
  1

 90
        1
  0
DICTIONARY
  5
5B7
102
{ACAD_REACTORS
330
3F9
102
}
330
3F9
100
AcDbDictionary
281
     1
  0
DICTIONARY
  5
1563
102
{ACAD_REACTORS
330
3F9
102
}
330
3F9
100
AcDbDictionary
281
     1
  0
DICTIONARY
  5
5B6
102
{ACAD_REACTORS
330
3F9
102
}
330
3F9
100
AcDbDictionary
281
     1
1001
ACAD
1000
<All
  0
SORTENTSTABLE
  5
9E6
102
{ACAD_REACTORS
330
8F
102
}
330
8F
100
AcDbSortentsTable
330
1F
331
1C9C
  5
1C9C
331
1AAD
  5
1AAD
331
1728
  5
1728
331
1F96
  5
1FA3
331
1CA4
  5
1CA4
331
1767
  5
1767
331
1730
  5
1730
331
21B1
  5
21B9
331
2434
  5
252C
331
2649
  5
265D
331
23DD
  5
23EE
331
2182
  5
218B
331
1CAC
  5
1CAC
331
176F
  5
176F
331
1738
  5
1738
331
1FF5
  5
2019
331
21B9
  5
21C1
331
26A8
  5
2874
331
261A
  5
262E
331
23E5
  5
23F7
331
2228
  5
23B8
331
218A
  5
2192
331
2005
  5
2029
331
21C1
  5
2204
331
1FA6
  5
1FB3
331
2444
  5
2618
331
1D03
  5
1D27
331
1CB4
  5
1CB4
331
1A8E
  5
1A8E
331
2651
  5
2697
331
1777
  5
1777
331
2894
  5
28B1
331
2622
  5
263A
331
2659
  5
26BB
331
29E8
  5
2215
331
2238
  5
23BA
331
2192
  5
219C
331
1FAE
  5
1FE1
331
1F6F
  5
1F77
331
23B6
  5
23C7
331
23ED
  5
240A
331
289C
  5
28F0
331
262A
  5
2642
331
23BE
  5
23D1
331
23F5
  5
2445
331
29F0
  5
2456
331
28A4
  5
2914
331
29F8
  5
276A
331
2903
  5
29E9
331
286D
  5
288E
331
1740
  5
1740
331
1D13
  5
1D8A
331
1CBC
  5
1CBC
331
1A96
  5
1A96
331
177F
  5
177F
331
1F77
  5
1F7F
331
1C85
  5
1C85
331
1A9E
  5
1A9E
331
219A
  5
21A4
331
252B
  5
2629
331
23FD
  5
247B
331
23C6
  5
23DB
331
2248
  5
23C0
331
21A2
  5
21AA
331
26D0
  5
287F
331
1C8D
  5
1C8D
331
1AA6
  5
1AA6
331
1797
  5
1797
331
1F7F
  5
1F8E
331
21AA
  5
21B3
331
1F87
  5
1F95
331
263A
  5
264E
331
2913
  5
29EB
331
2642
  5
2656
331
2875
  5
2896
331
247C
  5
2625
331
1F8F
  5
1F9B
331
23D6
  5
23E8
331
287D
  5
289E
331
292B
  5
29F3
331
29E1
  5
1CD1
331
288D
  5
28AA
331
1758
  5
1758
331
1D93
  5
1F70
331
1C9D
  5
1C9D
331
1AAE
  5
1AAE
331
1729
  5
1729
331
1F97
  5
1FA4
331
1CA5
  5
1CA5
331
1768
  5
1768
331
1731
  5
1731
331
21B2
  5
21BA
331
2435
  5
252D
331
264A
  5
265E
331
23DE
  5
23EF
331
2183
  5
218C
331
1FF6
  5
201A
331
21BA
  5
21C2
331
1CAD
  5
1CAD
331
1770
  5
1770
331
1739
  5
1739
331
1F9F
  5
1FAB
331
26A9
  5
2875
331
261B
  5
2630
331
23E6
  5
23F8
331
2229
  5
23B9
331
218B
  5
2195
331
2006
  5
202A
331
1FA7
  5
1FB4
331
2445
  5
2619
331
1D04
  5
1D28
331
1CB5
  5
1CB5
331
1A8F
  5
1A8F
331
2652
  5
2698
331
26B9
  5
2877
331
2895
  5
28B2
331
2623
  5
263B
331
265A
  5
26BC
331
2239
  5
23BB
331
1FAF
  5
1FE2
331
23B7
  5
23C8
331
23EE
  5
2417
331
29E9
  5
2216
331
289D
  5
28F1
331
262B
  5
2643
331
23BF
  5
23D2
331
29F1
  5
2457
331
29F9
  5
276B
331
28A5
  5
2915
331
2904
  5
29EA
331
28AD
  5
2984
331
286E
  5
288F
331
1778
  5
1778
331
1741
  5
1741
331
1F70
  5
1F78
331
1D14
  5
1D8D
331
1CBD
  5
1CBD
331
1A97
  5
1A97
331
1780
  5
1780
331
1F78
  5
1F84
331
1C86
  5
1C86
331
1A9F
  5
1A9F
331
219B
  5
21A5
331
2768
  5
2884
331
26D1
  5
2880
331
267A
  5
286D
331
2633
  5
2649
331
23C7
  5
23DC
331
2249
  5
23C1
331
21EA
  5
223B
331
1C8E
  5
1C8E
331
1AA7
  5
1AA7
331
21A3
  5
21AB
331
252C
  5
262A
331
263B
  5
264F
331
2202
  5
2247
331
21AB
  5
21B4
331
1F88
  5
1F96
331
23CF
  5
23E1
331
1C96
  5
1C96
331
28B5
  5
29DE
331
2914
  5
29EC
331
2643
  5
2657
331
2876
  5
2897
331
247D
  5
2626
331
23D7
  5
23EA
331
2983
  5
29F7
331
287E
  5
289F
331
292C
  5
29F4
331
29E2
  5
1CD2
331
288E
  5
28AB
331
17A8
  5
17A8
331
1759
  5
1759
331
1F90
  5
1F9C
331
1C9E
  5
1C9E
331
1AAF
  5
1AAF
331
17B8
  5
17B8
331
172A
  5
172A
331
21B3
  5
21BB
331
1F98
  5
1FA5
331
1CA6
  5
1CA6
331
1AB7
  5
1AB7
331
1732
  5
1732
331
20B5
  5
2183
331
264B
  5
265F
331
23DF
  5
23F0
331
2184
  5
218D
331
21BB
  5
21C3
331
1CAE
  5
1CAE
331
1771
  5
1771
331
173A
  5
173A
331
1FA0
  5
1FAC
331
26AA
  5
2876
331
261C
  5
2631
331
23E7
  5
23F9
331
218C
  5
2196
331
2007
  5
202B
331
1FA8
  5
1FC2
331
2446
  5
261A
331
1CB6
  5
1CB6
331
2653
  5
26A7
331
28DD
  5
29E2
331
26BA
  5
2878
331
2896
  5
28B5
331
2624
  5
263C
331
265B
  5
26CB
331
223A
  5
23BC
331
23B8
  5
23C9
331
23EF
  5
2424
331
29EA
  5
2217
331
289E
  5
28F2
331
262C
  5
2644
331
2456
  5
261C
331
29F2
  5
2458
331
29FA
  5
286B
331
28A6
  5
2916
331
28AE
  5
29AF
331
286F
  5
2890
331
1779
  5
1779
331
1742
  5
1742
331
1FB0
  5
1FE3
331
1F71
  5
1F79
331
1D15
  5
1D90
331
1CBE
  5
1CBE
331
1C7F
  5
1C7F
331
1A98
  5
1A98
331
1781
  5
1781
331
174A
  5
174A
331
23C0
  5
23D3
331
219C
  5
21A6
331
1F79
  5
1F85
331
1D25
  5
1D96
331
1C87
  5
1C87
331
1AA0
  5
1AA0
331
1791
  5
1791
331
2017
  5
2030
331
2769
  5
2887
331
26D2
  5
2881
331
2634
  5
264A
331
23C8
  5
23DD
331
1C8F
  5
1C8F
331
1799
  5
1799
331
21A4
  5
21AC
331
252D
  5
262B
331
263C
  5
2650
331
2203
  5
2248
331
21AC
  5
21B5
331
1D8D
  5
1F6E
331
23D0
  5
23E2
331
1C97
  5
1C97
331
28B6
  5
29DF
331
2915
  5
29ED
331
2644
  5
2658
331
2877
  5
2898
331
247E
  5
2627
331
2417
  5
247D
331
2984
  5
29F8
331
2925
  5
29EF
331
287F
  5
28A0
331
29DB
  5
29FB
331
292D
  5
29F5
331
2887
  5
28A6
331
29E3
  5
1CE1
331
288F
  5
28AC
331
1AA8
  5
1AA8
331
17A9
  5
17A9
331
175A
  5
175A
331
1F91
  5
1F9D
331
1C9F
  5
1C9F
331
1AB0
  5
1AB0
331
17B9
  5
17B9
331
1762
  5
1762
331
172B
  5
172B
331
21B4
  5
21BC
331
1F99
  5
1FA6
331
1CA7
  5
1CA7
331
1AB8
  5
1AB8
331
1733
  5
1733
331
20B6
  5
2184
331
23E0
  5
23F1
331
264C
  5
266D
331
2185
  5
218E
331
21BC
  5
21D0
331
1A89
  5
1A89
331
1772
  5
1772
331
173B
  5
173B
331
1FA1
  5
1FAE
331
261D
  5
2633
331
23E8
  5
23FA
331
218D
  5
2197
331
2008
  5
202C
331
2447
  5
261B
331
1CB7
  5
1CB7
331
2654
  5
26A8
331
26BB
  5
2879
331
2897
  5
28B6
331
2625
  5
263D
331
265C
  5
26CC
331
223B
  5
23BE
331
2195
  5
219D
331
23B9
  5
23CC
331
23F0
  5
2432
331
29EB
  5
2227
331
289F
  5
2901
331
26CB
  5
287B
331
262D
  5
2645
331
2457
  5
261D
331
29F3
  5
292C
331
296D
  5
29F6
331
29FB
  5
26D1
331
28A7
  5
2925
331
28AF
  5
29B0
331
177A
  5
177A
331
1743
  5
1743
331
1F72
  5
1F7A
331
1D16
  5
1D93
331
1CBF
  5
1CBF
331
1C80
  5
1C80
331
1A99
  5
1A99
331
1782
  5
1782
331
23F8
  5
2459
331
23C1
  5
23D4
331
219D
  5
21A7
331
1F7A
  5
1F86
331
1D26
  5
1D99
331
1C88
  5
1C88
331
1AA1
  5
1AA1
331
1792
  5
1792
331
1753
  5
1753
331
2018
  5
2031
331
276A
  5
2888
331
26D3
  5
2883
331
23C9
  5
23DE
331
22E2
  5
23C3
331
21A5
  5
21AD
331
1C90
  5
1C90
331
179A
  5
179A
331
1F82
  5
1F91
331
2635
  5
264B
331
263D
  5
2651
331
2870
  5
2891
331
2204
  5
2249
331
21AD
  5
21B6
331
2030
  5
217F
331
23D1
  5
23E3
331
2878
  5
2899
331
2916
  5
29EE
331
2214
  5
22E2
331
2645
  5
2659
331
2926
  5
29F0
331
2880
  5
28A1
331
29DC
  5
29FC
331
2888
  5
28A7
331
29E4
  5
1CEF
331
1C98
  5
1C98
331
1AA9
  5
1AA9
331
1FE1
  5
2005
331
1F92
  5
1F9F
331
1D96
  5
1F71
331
1CA0
  5
1CA0
331
1AB1
  5
1AB1
331
17BA
  5
17BA
331
172C
  5
172C
331
21B5
  5
21BD
331
1F9A
  5
1FA7
331
1CEF
  5
1D13
331
1CA8
  5
1CA8
331
1AB9
  5
1AB9
331
198A
  5
198A
331
1734
  5
1734
331
20B7
  5
2185
331
23E1
  5
23F2
331
264D
  5
267A
331
21BD
  5
21DD
331
1CB0
  5
1CB0
331
1773
  5
1773
331
173C
  5
173C
331
1FA2
  5
1FAF
331
2890
  5
28AD
331
218E
  5
2198
331
1FAA
  5
1FC3
331
261E
  5
2634
331
2655
  5
26A9
331
2898
  5
28C3
331
26BC
  5
287A
331
2626
  5
263E
331
265D
  5
26CD
331
2196
  5
21A0
331
23BA
  5
23CD
331
23F1
  5
2433
331
29EC
  5
2228
331
28EF
  5
29E3
331
28A0
  5
2902
331
26CC
  5
287C
331
262E
  5
2646
331
266D
  5
286C
331
29F4
  5
292D
331
29FC
  5
26D2
331
28A8
  5
2926
331
1CB8
  5
1CB8
331
177B
  5
177B
331
1744
  5
1744
331
1F73
  5
1F7B
331
1CC0
  5
1CC0
331
1C81
  5
1C81
331
1A9A
  5
1A9A
331
1783
  5
1783
331
2458
  5
261E
331
23F9
  5
2468
331
23C2
  5
23D5
331
21DD
  5
223A
331
1FC2
  5
1FE4
331
1F7B
  5
1F87
331
1D27
  5
1EB7
331
1CD0
  5
1CF2
331
1C89
  5
1C89
331
1793
  5
1793
331
1754
  5
1754
331
2019
  5
2032
331
276B
  5
2889
331
22E3
  5
23C4
331
224C
  5
23C2
331
21A6
  5
21AE
331
2029
  5
20B5
331
1C91
  5
1C91
331
1F83
  5
1F92
331
2468
  5
2620
331
28B0
  5
29DB
331
263E
  5
2652
331
2871
  5
2892
331
2205
  5
224C
331
21AE
  5
21B7
331
2031
  5
2180
331
1F8B
  5
1F97
331
23D2
  5
23E4
331
2879
  5
289A
331
2695
  5
286F
331
2215
  5
22E3
331
2646
  5
265A
331
2927
  5
29F1
331
2881
  5
28A2
331
28D0
  5
29E1
331
29DD
  5
29FD
331
2889
  5
28A8
331
29E5
  5
1CF0
331
1C99
  5
1C99
331
1AAA
  5
1AAA
331
1FE2
  5
2006
331
1F93
  5
1FA0
331
1CA1
  5
1CA1
331
17BB
  5
17BB
331
172D
  5
172D
331
21B6
  5
21BE
331
23DA
  5
23EB
331
1F9B
  5
1FA8
331
1CF0
  5
1D14
331
1CA9
  5
1CA9
331
1ABA
  5
1ABA
331
198B
  5
198B
331
176C
  5
176C
331
1735
  5
1735
331
217F
  5
2188
331
23E2
  5
23F3
331
264E
  5
2687
331
2187
  5
218F
331
21BE
  5
21EA
331
1FA3
  5
1FB0
331
1A8B
  5
1A8B
331
1774
  5
1774
331
173D
  5
173D
331
1CB1
  5
1CB1
331
2891
  5
28AE
331
261F
  5
2635
331
2656
  5
26AA
331
218F
  5
2199
331
1FAB
  5
1FC4
331
1EDD
  5
1F74
331
23EA
  5
23FB
331
2899
  5
28D0
331
2627
  5
263F
331
2197
  5
21A1
331
23BB
  5
23CF
331
23F2
  5
2434
331
29ED
  5
2229
331
28F0
  5
29E4
331
28A1
  5
2903
331
26CD
  5
287D
331
29F5
  5
296D
331
29FD
  5
26D3
331
28A9
  5
2927
331
1CB9
  5
1CB9
331
177C
  5
177C
331
1745
  5
1745
331
1FB3
  5
1F8F
331
1F74
  5
1F7C
331
1C82
  5
1C82
331
1A9B
  5
1A9B
331
1784
  5
1784
331
2459
  5
261F
331
23FA
  5
2469
331
23C3
  5
23D6
331
1FC3
  5
1FF3
331
1F7C
  5
1F8B
331
1D28
  5
1EDD
331
1CD1
  5
1D01
331
1C8A
  5
1C8A
331
1AA3
  5
1AA3
331
1794
  5
1794
331
1755
  5
1755
331
201A
  5
2033
331
2469
  5
2621
331
240A
  5
247C
331
21A7
  5
21B0
331
202A
  5
20B6
331
1FD3
  5
1FF6
331
22E4
  5
23C5
331
28B1
  5
29DC
331
263F
  5
2653
331
2872
  5
2893
331
2032
  5
2181
331
1F8C
  5
1F98
331
23D3
  5
23E5
331
287A
  5
289B
331
2696
  5
2870
331
2216
  5
22E4
331
2647
  5
265B
331
2928
  5
29F2
331
29DE
  5
29FE
331
29E6
  5
1CF1
331
1D90
  5
1F6F
331
1CE1
  5
1D04
331
1AAB
  5
1AAB
331
1FE3
  5
2007
331
1F94
  5
1FA1
331
1CA2
  5
1CA2
331
172E
  5
172E
331
2432
  5
252A
331
21B7
  5
21BF
331
23DB
  5
23EC
331
2180
  5
2189
331
1F9C
  5
1FA9
331
1CF1
  5
1D15
331
1CAA
  5
1CAA
331
1ABB
  5
1ABB
331
176D
  5
176D
331
1736
  5
1736
331
1FF3
  5
2017
331
264F
  5
2695
331
23E3
  5
23F4
331
2226
  5
23B6
331
2188
  5
2190
331
21BF
  5
2202
331
1FA4
  5
1FB1
331
2618
  5
262C
331
1D01
  5
1D25
331
1A8C
  5
1A8C
331
1775
  5
1775
331
173E
  5
173E
331
1CB2
  5
1CB2
331
2892
  5
28AF
331
2620
  5
2638
331
2657
  5
26B9
331
2190
  5
219A
331
1FAC
  5
1FC5
331
1F6D
  5
1F75
331
23EB
  5
23FC
331
289A
  5
28DD
331
2628
  5
2640
331
23BC
  5
23D0
331
23F3
  5
2435
331
29EE
  5
2238
331
28F1
  5
29E5
331
28A2
  5
2904
331
26CE
  5
287E
331
29AF
  5
29F9
331
29F6
  5
2983
331
29FE
  5
2768
331
2901
  5
29E7
331
28AA
  5
2928
331
286B
  5
288C
331
1CBA
  5
1CBA
331
177D
  5
177D
331
1746
  5
1746
331
1FB4
  5
1F90
331
1F75
  5
1F7D
331
1C83
  5
1C83
331
1A9C
  5
1A9C
331
174E
  5
174E
331
2198
  5
21A2
331
2630
  5
2647
331
23FB
  5
246A
331
23C4
  5
23D7
331
21A0
  5
21A8
331
1F7D
  5
1F8C
331
1CD2
  5
1D02
331
1C8B
  5
1C8B
331
1795
  5
1795
331
1756
  5
1756
331
1FC4
  5
1FF4
331
2638
  5
264C
331
246A
  5
2622
331
23CC
  5
23DF
331
21A8
  5
21B1
331
202B
  5
20B7
331
1F85
  5
1F93
331
22E5
  5
23C6
331
1C93
  5
1C93
331
28B2
  5
29DD
331
2687
  5
286E
331
2640
  5
2654
331
2873
  5
2894
331
2033
  5
2182
331
1F8D
  5
1F99
331
23D4
  5
23E6
331
287B
  5
289C
331
2217
  5
22E5
331
2697
  5
2871
331
2883
  5
28A4
331
29DF
  5
1CC2
331
29E7
  5
2214
331
1AAC
  5
1AAC
331
175E
  5
175E
331
21B0
  5
21B8
331
1F95
  5
1FA2
331
1EB7
  5
1F73
331
1D99
  5
1F72
331
1CA3
  5
1CA3
331
1766
  5
1766
331
172F
  5
172F
331
1FE4
  5
2008
331
2433
  5
252B
331
2648
  5
265C
331
23DC
  5
23ED
331
20BA
  5
2187
331
2181
  5
218A
331
1FF4
  5
2018
331
21B8
  5
21C0
331
1CF2
  5
1D16
331
1CAB
  5
1CAB
331
1ABC
  5
1ABC
331
176E
  5
176E
331
1737
  5
1737
331
1F9D
  5
1FAA
331
2650
  5
2696
331
26A7
  5
2873
331
23E4
  5
23F5
331
2227
  5
23B7
331
2189
  5
2191
331
21C0
  5
2203
331
1FA5
  5
1FB2
331
2619
  5
262D
331
1D02
  5
1D26
331
1CB3
  5
1CB3
331
1776
  5
1776
331
173F
  5
173F
331
1A8D
  5
1A8D
331
2893
  5
28B0
331
2621
  5
2639
331
2658
  5
26BA
331
2191
  5
219B
331
21D0
  5
2239
331
1FAD
  5
1FD3
331
1F6E
  5
1F76
331
23EC
  5
23FD
331
289B
  5
28EF
331
2629
  5
2641
331
23F4
  5
2444
331
29EF
  5
2447
331
28F2
  5
29E6
331
29B0
  5
29FA
331
29F7
  5
2769
331
2902
  5
29E8
331
28AB
  5
292B
331
286C
  5
288D
331
1CBB
  5
1CBB
331
177E
  5
177E
331
1F76
  5
1F7E
331
1C84
  5
1C84
331
1A9D
  5
1A9D
331
174F
  5
174F
331
2199
  5
21A3
331
2631
  5
2648
331
252A
  5
2628
331
23FC
  5
246B
331
23C5
  5
23DA
331
2247
  5
23BF
331
21A1
  5
21A9
331
1FC5
  5
1FF5
331
1CD3
  5
1D03
331
1C8C
  5
1C8C
331
1796
  5
1796
331
1757
  5
1757
331
1F7E
  5
1F8D
331
2639
  5
264D
331
246B
  5
2623
331
21A9
  5
21B2
331
202C
  5
20BA
331
1F86
  5
1F94
331
1D8A
  5
1F6D
331
23CD
  5
23E0
331
1C94
  5
1C94
331
2641
  5
2655
331
2874
  5
2895
331
247B
  5
2624
331
1F8E
  5
1F9A
331
23D5
  5
23E7
331
28C3
  5
29E0
331
287C
  5
289D
331
2698
  5
2872
331
2424
  5
247E
331
2884
  5
28A5
331
29E0
  5
1CD0
331
288C
  5
28A9
  0
DIMASSOC
  5
1EC5
102
{ACAD_REACTORS
330
1EC4
102
}
330
1EC4
100
AcDbDimAssoc
330
1EB7
 90
        3
 70
     0
 71
     0
  1
AcDbOsnapPointRef
 72
     1
331
1D28
 73
     0
 91
        0
 40
0.0
 10
0.0
 20
0.0
 30
2.000000000000000E+50
 75
     0
  1
AcDbOsnapPointRef
 72
     1
331
1D16
 73
     0
 91
        0
 40
0.0
 10
0.0
 20
0.0
 30
2.000000000000000E+50
 75
     0
  0
DIMASSOC
  5
1EEB
102
{ACAD_REACTORS
330
1EEA
102
}
330
1EEA
100
AcDbDimAssoc
330
1EDD
 90
        3
 70
     0
 71
     0
  1
AcDbOsnapPointRef
 72
     1
331
1C8A
 73
     0
 91
        0
 40
0.0
 10
0.0
 20
0.0
 30
2.000000000000000E+50
 75
     0
  1
AcDbOsnapPointRef
 72
    13
331
1CB2
 73
     0
 91
        0
 40
0.0
 10
0.0
 20
0.0
 30
2.000000000000000E+50
 75
     0
  0
DIMASSOC
  5
2ACF
102
{ACAD_REACTORS
330
2ACE
102
}
330
2ACE
100
AcDbDimAssoc
330
2AC1
 90
        3
 70
     0
 71
     0
  1
AcDbOsnapPointRef
 72
    13
331
1CA9
 73
     0
 91
        0
 40
0.0
 10
0.0
 20
0.0
 30
2.000000000000000E+50
 75
     0
  1
AcDbOsnapPointRef
 72
     1
331
1CA6
 73
     0
 91
        0
 40
0.0
 10
0.0
 20
0.0
 30
2.000000000000000E+50
 75
     0
  0
DIMASSOC
  5
2CA7
102
{ACAD_REACTORS
330
2CA6
102
}
330
2CA6
100
AcDbDimAssoc
330
2C99
 90
        3
 70
     0
 71
     0
  1
AcDbOsnapPointRef
 72
    13
331
264A
 73
     0
 91
        0
 40
0.0
 10
0.0
 20
0.0
 30
2.000000000000000E+50
 75
     0
  1
AcDbOsnapPointRef
 72
    13
331
264D
 73
     0
 91
        0
 40
0.0
 10
0.0
 20
0.0
 30
2.000000000000000E+50
 75
     0
  0
LAYOUT
  5
22
102
{ACAD_XDICTIONARY
360
2D28
102
}
102
{ACAD_REACTORS
330
1A
102
}
330
1A
100
AcDbPlotSettings
  1

  2
\\RD\EPSON Stylus C63 Series單色
  4
A4
  6

 40
3.757083177566528
 41
3.757076978683471
 42
3.757080078125
 43
3.757080078125
 44
209.9733276367187
 45
296.9683227539062
 46
0.0
 47
0.0
 48
0.0
 49
0.0
140
0.0
141
0.0
142
1.0
143
0.3405120737814363
 70
 11952
 72
     1
 73
     0
 74
     0
  7
單色出圖.ctb
 75
     0
147
2.936753428137963
148
-2047.07469463503
149
-1261.649717473083
100
AcDbLayout
  1
Model
 70
     1
 71
     0
 10
0.0
 20
0.0
 11
12.0
 21
9.0
 12
0.0
 22
0.0
 32
0.0
 14
0.0
 24
0.0
 34
0.0
 15
0.0
 25
0.0
 35
0.0
146
0.0
 13
0.0
 23
0.0
 33
0.0
 16
1.0
 26
0.0
 36
0.0
 17
0.0
 27
1.0
 37
0.0
 76
     0
330
1F
1001
ACAD_PSEXT
1000
\\RD\EPSON Stylus C63 Series單色
1000
EPSON Stylus C63 Series
1000
\\RD
1000

1070
     0
  0
LAYOUT
  5
1E
102
{ACAD_XDICTIONARY
360
2D26
102
}
102
{ACAD_REACTORS
330
1A
102
}
330
1A
100
AcDbPlotSettings
  1

  2

  4

  6

 40
0.0
 41
0.0
 42
0.0
 43
0.0
 44
0.0
 45
0.0
 46
0.0
 47
0.0
 48
0.0
 49
0.0
140
0.0
141
0.0
142
1.0
143
1.0
 70
   688
 72
     0
 73
     0
 74
     5
  7
單色出圖.ctb
 75
    16
147
1.0
148
0.0
149
0.0
100
AcDbLayout
  1
配置1
 70
     1
 71
     1
 10
0.0
 20
0.0
 11
420.0
 21
297.0
 12
0.0
 22
0.0
 32
0.0
 14
1.000000000000000E+20
 24
1.000000000000000E+20
 34
1.000000000000000E+20
 15
-1.000000000000000E+20
 25
-1.000000000000000E+20
 35
-1.000000000000000E+20
146
0.0
 13
0.0
 23
0.0
 33
0.0
 16
1.0
 26
0.0
 36
0.0
 17
0.0
 27
1.0
 37
0.0
 76
     0
330
1B
  0
LAYOUT
  5
26
102
{ACAD_XDICTIONARY
360
2D2A
102
}
102
{ACAD_REACTORS
330
1A
102
}
330
1A
100
AcDbPlotSettings
  1

  2

  4

  6

 40
0.0
 41
0.0
 42
0.0
 43
0.0
 44
0.0
 45
0.0
 46
0.0
 47
0.0
 48
0.0
 49
0.0
140
0.0
141
0.0
142
1.0
143
1.0
 70
   688
 72
     0
 73
     0
 74
     5
  7
單色出圖.ctb
 75
    16
147
1.0
148
0.0
149
0.0
100
AcDbLayout
  1
配置2
 70
     1
 71
     2
 10
0.0
 20
0.0
 11
12.0
 21
9.0
 12
0.0
 22
0.0
 32
0.0
 14
0.0
 24
0.0
 34
0.0
 15
0.0
 25
0.0
 35
0.0
146
0.0
 13
0.0
 23
0.0
 33
0.0
 16
1.0
 26
0.0
 36
0.0
 17
0.0
 27
1.0
 37
0.0
 76
     0
330
23
  0
MLINESTYLE
  5
18
102
{ACAD_REACTORS
330
17
102
}
330
17
100
AcDbMlineStyle
  2
STANDARD
 70
     0
  3

 62
   256
 51
90.0
 52
90.0
 71
     2
 49
0.5
 62
   256
  6
BYLAYER
 49
-0.5
 62
   256
  6
BYLAYER
  0
ACDBPLACEHOLDER
  5
F
102
{ACAD_REACTORS
330
E
102
}
330
E
  0
TABLESTYLE
  5
11B
102
{ACAD_REACTORS
330
11A
102
}
330
11A
100
AcDbTableStyle
  3
Standard
 70
     0
 71
     0
 40
1.5
 41
1.5
280
     0
281
     0
  7
STANDARD
140
4.5
170
     2
 62
     0
 63
     7
283
     0
274
    -2
284
     1
 64
     0
275
    -2
285
     1
 65
     0
276
    -2
286
     1
 66
     0
277
    -2
287
     1
 67
     0
278
    -2
288
     1
 68
     0
279
    -2
289
     1
 69
     0
  7
STANDARD
140
6.0
170
     5
 62
     0
 63
     7
283
     0
274
    -2
284
     1
 64
     0
275
    -2
285
     1
 65
     0
276
    -2
286
     1
 66
     0
277
    -2
287
     1
 67
     0
278
    -2
288
     1
 68
     0
279
    -2
289
     1
 69
     0
  7
STANDARD
140
4.5
170
     5
 62
     0
 63
     7
283
     0
274
    -2
284
     1
 64
     0
275
    -2
285
     1
 65
     0
276
    -2
286
     1
 66
     0
277
    -2
287
     1
 67
     0
278
    -2
288
     1
 68
     0
279
    -2
289
     1
 69
     0
  0
DICTIONARYVAR
  5
138
102
{ACAD_REACTORS
330
94
102
}
330
94
100
DictionaryVariables
280
     0
  1
STANDARD
  0
DICTIONARYVAR
  5
96
102
{ACAD_REACTORS
330
94
102
}
330
94
100
DictionaryVariables
280
     0
  1
2
  0
DICTIONARYVAR
  5
95
102
{ACAD_REACTORS
330
94
102
}
330
94
100
DictionaryVariables
280
     0
  1
0
  0
DICTIONARYVAR
  5
2D22
102
{ACAD_REACTORS
330
94
102
}
330
94
100
DictionaryVariables
280
     0
  1

  0
DICTIONARY
  5
1B5
102
{ACAD_REACTORS
330
5B
102
}
330
5B
100
AcDbDictionary
281
     1
  0
DICTIONARY
  5
61
102
{ACAD_REACTORS
330
5B
102
}
330
5B
100
AcDbDictionary
281
     1
  0
XRECORD
  5
123
102
{ACAD_REACTORS
330
5B
102
}
330
5B
100
AcDbXrecord
280
     1
 90
-1023410169
  0
DICTIONARY
  5
2D28
330
22
100
AcDbDictionary
280
     1
281
     1
  3
ACAD_XREC_ROUNDTRIP
360
2D29
  0
DICTIONARY
  5
2D26
330
1E
100
AcDbDictionary
280
     1
281
     1
  3
ACAD_XREC_ROUNDTRIP
360
2D27
  0
DICTIONARY
  5
2D2A
330
26
100
AcDbDictionary
280
     1
281
     1
  3
ACAD_XREC_ROUNDTRIP
360
2D2B
  0
XRECORD
  5
2D29
102
{ACAD_REACTORS
330
2D28
102
}
330
2D28
100
AcDbXrecord
280
     1
102
SHADEPLOT
 70
     0
102
SHADEPLOTRESLEVEL
 70
     2
102
SHADEPLOTCUSTOMDPI
 70
   300
  0
XRECORD
  5
2D27
102
{ACAD_REACTORS
330
2D26
102
}
330
2D26
100
AcDbXrecord
280
     1
102
SHADEPLOT
 70
     0
102
SHADEPLOTRESLEVEL
 70
     2
102
SHADEPLOTCUSTOMDPI
 70
   300
  0
XRECORD
  5
2D2B
102
{ACAD_REACTORS
330
2D2A
102
}
330
2D2A
100
AcDbXrecord
280
     1
102
SHADEPLOT
 70
     0
102
SHADEPLOTRESLEVEL
 70
     2
102
SHADEPLOTCUSTOMDPI
 70
   300
  0
ENDSEC
  0
EOF
