  0
SECTION
  2
HEADER
  9
$ACADVER
  1
AC1015
  9
$ACADMAINTVER
 70
    20
  9
$DWGCODEPAGE
  3
ANSI_950
  9
$INSBASE
 10
0.0
 20
0.0
 30
0.0
  9
$EXTMIN
 10
1932.46090517175
 20
25.09386588352027
 30
-0.0095193578090402
  9
$EXTMAX
 10
3032.711341139429
 20
825.1260356021166
 30
524.238903901198
  9
$LIMMIN
 10
0.0
 20
0.0
  9
$LIMMAX
 10
420.0
 20
297.0
  9
$ORTHOMODE
 70
     1
  9
$REGENMODE
 70
     1
  9
$FILLMODE
 70
     1
  9
$QTEXTMODE
 70
     0
  9
$MIRRTEXT
 70
     1
  9
$LTSCALE
 40
1.0
  9
$ATTMODE
 70
     1
  9
$TEXTSIZE
 40
3.0
  9
$TRACEWID
 40
1.0
  9
$TEXTSTYLE
  7
CHINESET
  9
$CLAYER
  8
0
  9
$CELTYPE
  6
ByLayer
  9
$CECOLOR
 62
   256
  9
$CELTSCALE
 40
1.0
  9
$DISPSILH
 70
     0
  9
$DIMSCALE
 40
1.0
  9
$DIMASZ
 40
3.0
  9
$DIMEXO
 40
1.0
  9
$DIMDLI
 40
10.0
  9
$DIMRND
 40
0.0
  9
$DIMDLE
 40
0.0
  9
$DIMEXE
 40
1.5
  9
$DIMTP
 40
0.1
  9
$DIMTM
 40
0.1
  9
$DIMTXT
 40
3.0
  9
$DIMCEN
 40
0.0
  9
$DIMTSZ
 40
0.0
  9
$DIMTOL
 70
     0
  9
$DIMLIM
 70
     0
  9
$DIMTIH
 70
     0
  9
$DIMTOH
 70
     0
  9
$DIMSE1
 70
     0
  9
$DIMSE2
 70
     0
  9
$DIMTAD
 70
     1
  9
$DIMZIN
 70
     8
  9
$DIMBLK
  1

  9
$DIMASO
 70
     1
  9
$DIMSHO
 70
     1
  9
$DIMPOST
  1

  9
$DIMAPOST
  1
"
  9
$DIMALT
 70
     0
  9
$DIMALTD
 70
     2
  9
$DIMALTF
 40
0.0393701
  9
$DIMLFAC
 40
1.0
  9
$DIMTOFL
 70
     1
  9
$DIMTVP
 40
0.0
  9
$DIMTIX
 70
     0
  9
$DIMSOXD
 70
     0
  9
$DIMSAH
 70
     0
  9
$DIMBLK1
  1

  9
$DIMBLK2
  1

  9
$DIMSTYLE
  2
AM_ISO
  9
$DIMCLRD
 70
   256
  9
$DIMCLRE
 70
   256
  9
$DIMCLRT
 70
   256
  9
$DIMTFAC
 40
0.71
  9
$DIMGAP
 40
1.0
  9
$DIMJUST
 70
     0
  9
$DIMSD1
 70
     0
  9
$DIMSD2
 70
     0
  9
$DIMTOLJ
 70
     0
  9
$DIMTZIN
 70
     8
  9
$DIMALTZ
 70
     0
  9
$DIMALTTZ
 70
     0
  9
$DIMUPT
 70
     0
  9
$DIMDEC
 70
     2
  9
$DIMTDEC
 70
     8
  9
$DIMALTU
 70
     2
  9
$DIMALTTD
 70
     2
  9
$DIMTXSTY
  7
CHINESET
  9
$DIMAUNIT
 70
     0
  9
$DIMADEC
 70
     0
  9
$DIMALTRND
 40
0.0
  9
$DIMAZIN
 70
     2
  9
$DIMDSEP
 70
    46
  9
$DIMATFIT
 70
     3
  9
$DIMFRAC
 70
     0
  9
$DIMLDRBLK
  1

  9
$DIMLUNIT
 70
     2
  9
$DIMLWD
 70
    -1
  9
$DIMLWE
 70
    -1
  9
$DIMTMOVE
 70
     0
  9
$LUNITS
 70
     2
  9
$LUPREC
 70
     2
  9
$SKETCHINC
 40
1.0
  9
$FILLETRAD
 40
2.5
  9
$AUNITS
 70
     0
  9
$AUPREC
 70
     0
  9
$MENU
  1
.
  9
$ELEVATION
 40
0.0
  9
$PELEVATION
 40
0.0
  9
$THICKNESS
 40
0.0
  9
$LIMCHECK
 70
     0
  9
$CHAMFERA
 40
2.5
  9
$CHAMFERB
 40
2.5
  9
$CHAMFERC
 40
20.0
  9
$CHAMFERD
 40
0.0
  9
$SKPOLY
 70
     0
  9
$TDCREATE
 40
2453731.618400787
  9
$TDUCREATE
 40
2453731.285067453
  9
$TDUPDATE
 40
2453732.406436447
  9
$TDUUPDATE
 40
2453732.073103114
  9
$TDINDWG
 40
0.0921513310
  9
$TDUSRTIMER
 40
0.0921513310
  9
$USRTIMER
 70
     1
  9
$ANGBASE
 50
0.0
  9
$ANGDIR
 70
     0
  9
$PDMODE
 70
     0
  9
$PDSIZE
 40
0.0
  9
$PLINEWID
 40
0.0
  9
$SPLFRAME
 70
     0
  9
$SPLINETYPE
 70
     6
  9
$SPLINESEGS
 70
     8
  9
$HANDSEED
  5
353D
  9
$SURFTAB1
 70
     6
  9
$SURFTAB2
 70
     6
  9
$SURFTYPE
 70
     6
  9
$SURFU
 70
     6
  9
$SURFV
 70
     6
  9
$UCSBASE
  2

  9
$UCSNAME
  2

  9
$UCSORG
 10
0.0
 20
0.0
 30
0.0
  9
$UCSXDIR
 10
1.0
 20
0.0
 30
0.0
  9
$UCSYDIR
 10
0.0
 20
1.0
 30
0.0
  9
$UCSORTHOREF
  2

  9
$UCSORTHOVIEW
 70
     0
  9
$UCSORGTOP
 10
0.0
 20
0.0
 30
0.0
  9
$UCSORGBOTTOM
 10
0.0
 20
0.0
 30
0.0
  9
$UCSORGLEFT
 10
0.0
 20
0.0
 30
0.0
  9
$UCSORGRIGHT
 10
0.0
 20
0.0
 30
0.0
  9
$UCSORGFRONT
 10
0.0
 20
0.0
 30
0.0
  9
$UCSORGBACK
 10
0.0
 20
0.0
 30
0.0
  9
$PUCSBASE
  2

  9
$PUCSNAME
  2

  9
$PUCSORG
 10
0.0
 20
0.0
 30
0.0
  9
$PUCSXDIR
 10
1.0
 20
0.0
 30
0.0
  9
$PUCSYDIR
 10
0.0
 20
1.0
 30
0.0
  9
$PUCSORTHOREF
  2

  9
$PUCSORTHOVIEW
 70
     0
  9
$PUCSORGTOP
 10
0.0
 20
0.0
 30
0.0
  9
$PUCSORGBOTTOM
 10
0.0
 20
0.0
 30
0.0
  9
$PUCSORGLEFT
 10
0.0
 20
0.0
 30
0.0
  9
$PUCSORGRIGHT
 10
0.0
 20
0.0
 30
0.0
  9
$PUCSORGFRONT
 10
0.0
 20
0.0
 30
0.0
  9
$PUCSORGBACK
 10
0.0
 20
0.0
 30
0.0
  9
$USERI1
 70
     0
  9
$USERI2
 70
     0
  9
$USERI3
 70
     0
  9
$USERI4
 70
     0
  9
$USERI5
 70
     0
  9
$USERR1
 40
0.0
  9
$USERR2
 40
0.0
  9
$USERR3
 40
0.0
  9
$USERR4
 40
0.0
  9
$USERR5
 40
0.0
  9
$WORLDVIEW
 70
     1
  9
$SHADEDGE
 70
     3
  9
$SHADEDIF
 70
    70
  9
$TILEMODE
 70
     1
  9
$MAXACTVP
 70
    64
  9
$PINSBASE
 10
0.0
 20
0.0
 30
0.0
  9
$PLIMCHECK
 70
     0
  9
$PEXTMIN
 10
1.000000000000000E+20
 20
1.000000000000000E+20
 30
1.000000000000000E+20
  9
$PEXTMAX
 10
-1.000000000000000E+20
 20
-1.000000000000000E+20
 30
-1.000000000000000E+20
  9
$PLIMMIN
 10
0.0
 20
0.0
  9
$PLIMMAX
 10
420.0
 20
297.0
  9
$UNITMODE
 70
     0
  9
$VISRETAIN
 70
     1
  9
$PLINEGEN
 70
     0
  9
$PSLTSCALE
 70
     1
  9
$TREEDEPTH
 70
  3020
  9
$CMLSTYLE
  2
Standard
  9
$CMLJUST
 70
     0
  9
$CMLSCALE
 40
20.0
  9
$PROXYGRAPHICS
 70
     1
  9
$MEASUREMENT
 70
     1
  9
$CELWEIGHT
370
    -1
  9
$ENDCAPS
280
     0
  9
$JOINSTYLE
280
     0
  9
$LWDISPLAY
290
     0
  9
$INSUNITS
 70
     4
  9
$HYPERLINKBASE
  1

  9
$STYLESHEET
  1
彩色出圖.ctb
  9
$XEDIT
290
     1
  9
$CEPSNTYPE
380
     0
  9
$PSTYLEMODE
290
     1
  9
$FINGERPRINTGUID
  2
{0D855794-04CD-42EC-BA89-F7EABE2626E6}
  9
$VERSIONGUID
  2
{037C9192-7854-4191-82D8-D135A0180D6F}
  9
$EXTNAMES
290
     1
  9
$PSVPSCALE
 40
0.0
  9
$OLESTARTUP
290
     0
  0
ENDSEC
  0
SECTION
  2
CLASSES
  0
CLASS
  1
ACDBDICTIONARYWDFLT
  2
AcDbDictionaryWithDefault
  3
ObjectDBX Classes
 90
        0
280
     0
281
     0
  0
CLASS
  1
ACDBPLACEHOLDER
  2
AcDbPlaceHolder
  3
ObjectDBX Classes
 90
        0
280
     0
281
     0
  0
CLASS
  1
LAYOUT
  2
AcDbLayout
  3
ObjectDBX Classes
 90
        0
280
     0
281
     0
  0
CLASS
  1
ACME_DOCUMENT
  2
AcMeDbDoc
  3
AcMeServices
 90
        0
280
     0
281
     0
  0
CLASS
  1
AMGSETTINGSOBJ
  2
AmgSettingsObj
  3
"AcadM|Product Description: AutoCAD Mechanical 2000|Company: Autodesk"
 90
        0
280
     0
281
     0
  0
CLASS
  1
ACMESCOPE
  2
AcMeScope
  3
AcMeServices
 90
        0
280
     0
281
     0
  0
CLASS
  1
ACMECOMMANDHISTORY
  2
AcMeCommandHistory
  3
AcMeServices
 90
        0
280
     0
281
     0
  0
CLASS
  1
ACIMSYSVARMAN
  2
AcImSysVarManager
  3
AcMeServices
 90
        0
280
     0
281
     0
  0
CLASS
  1
ACIMREALSYSVAR
  2
AcImRealSysVar
  3
AcMeServices
 90
        0
280
     0
281
     0
  0
CLASS
  1
ACIMINTSYSVAR
  2
AcImIntSysVar
  3
AcMeServices
 90
        0
280
     0
281
     0
  0
CLASS
  1
ACMEDRAWINGMAN
  2
AcMeDrawingMan
  3
AcMeServices
 90
        0
280
     0
281
     0
  0
CLASS
  1
ACMEVIEW
  2
AcMeView
  3
AcMeServices
 90
        0
280
     0
281
     0
  0
CLASS
  1
ACDBENTITYCACHE
  2
AcMeEntityCache
  3
AcMeServices
 90
        0
280
     0
281
     0
  0
CLASS
  1
GSMANAGER
  2
AcMeGSManager
  3
AcMeServices
 90
        0
280
     0
281
     0
  0
CLASS
  1
AMDTINTERNALREACTOR
  2
AmdtInternalReactor
  3
AcMeServices
 90
        0
280
     0
281
     0
  0
CLASS
  1
ACMESTATEMGR
  2
AcMeStateMgr
  3
AcMeServices
 90
        0
280
     0
281
     0
  0
CLASS
  1
ACGREFMASTER
  2
AcGrefMaster
  3
AcAttribServices
 90
        0
280
     0
281
     0
  0
CLASS
  1
ACME_DATABASE
  2
AcMeDbDatabase
  3
AcMeServices
 90
        0
280
     0
281
     0
  0
CLASS
  1
ACRFINSADJUSTERMGR
  2
AcRfInsAdjusterMgr
  3
AcMeServices
 90
        0
280
     0
281
     0
  0
CLASS
  1
ACGREFACADMASTER
  2
AcGrefacadMaster
  3
AcGrefServices
 90
        0
280
     0
281
     0
  0
CLASS
  1
AMIMASTER
  2
AmiMaster
  3
AmiServices
 90
        0
280
     0
281
     0
  0
CLASS
  1
ACMDATADICTIONARY
  2
AcmDataDictionary
  3
"AcmSymBB|Product Description: AutoCAD Mechanical 2004 DX|Company: Autodesk"
 90
        0
280
     0
281
     0
  0
CLASS
  1
ACMDATAENTRYBLOCK
  2
AcmDataEntryBlock
  3
"AcmSymBB|Product Description: AutoCAD Mechanical 2004 DX|Company: Autodesk"
 90
        0
280
     0
281
     0
  0
CLASS
  1
ACIMSTRSYSVAR
  2
AcImStrSysVar
  3
AcMeServices
 90
        0
280
     0
281
     0
  0
CLASS
  1
ACMSTANDARDISO
  2
AcmStandardISO
  3
"Amdt_StdImp|Product Description: AutoCAD Mechanical 2004 DX|Company: Autodesk"
 90
        0
280
     0
281
     0
  0
CLASS
  1
AMGOBJPROPCFG
  2
AmgObjPropCfg
  3
"AmgLay|Product Description: AutoCAD Mechanical 2000|Company: Autodesk"
 90
        1
280
     0
281
     0
  0
CLASS
  1
AMDTEDGESTANDARDISO
  2
AmdtEdgeStdISO
  3
"Amdt_StdImp|Product Description: AutoCAD Mechanical 2004 DX|Company: Autodesk"
 90
        0
280
     0
281
     0
  0
CLASS
  1
ACMSURFSTANDARDISO
  2
AcmSurfTextStdISO
  3
"Amdt_StdImp|Product Description: AutoCAD Mechanical 2004 DX|Company: Autodesk"
 90
        0
280
     0
281
     0
  0
CLASS
  1
ACMFCFSTANDARDISO
  2
AcmFCFStdISO
  3
"Amdt_StdImp|Product Description: AutoCAD Mechanical 2004 DX|Company: Autodesk"
 90
        0
280
     0
281
     0
  0
CLASS
  1
ACMWELDSTANDARDISO
  2
AcmWeldingStdISO
  3
"Amdt_StdImp|Product Description: AutoCAD Mechanical 2004 DX|Company: Autodesk"
 90
        0
280
     0
281
     0
  0
CLASS
  1
ACMIDSTANDARDISO
  2
AcmIdStdISO
  3
"Amdt_StdImp|Product Description: AutoCAD Mechanical 2004 DX|Company: Autodesk"
 90
        0
280
     0
281
     0
  0
CLASS
  1
ACMDATUMSTANDARDISO
  2
AcmDatumStdISO
  3
"Amdt_StdImp|Product Description: AutoCAD Mechanical 2004 DX|Company: Autodesk"
 90
        0
280
     0
281
     0
  0
CLASS
  1
ACMBOMSTANDARDISO
  2
AcmBOMStdISO
  3
"Amdt_StdImp|Product Description: AutoCAD Mechanical 2004 DX|Company: Autodesk"
 90
        0
280
     0
281
     0
  0
CLASS
  1
ACMDETAILSTANDARDISO
  2
AmdtDetailSymStdISO
  3
"Amdt_StdImp|Product Description: AutoCAD Mechanical 2004 DX|Company: Autodesk"
 90
        0
280
     0
281
     0
  0
CLASS
  1
ACMSECTIONSTANDARDISO
  2
AmdtSectionSymStdISO
  3
"Amdt_StdImp|Product Description: AutoCAD Mechanical 2004 DX|Company: Autodesk"
 90
        0
280
     0
281
     0
  0
CLASS
  1
ACMCENTERLINESTANDARDISO
  2
AmdtCenterLineStdISO
  3
"Amdt_StdImp|Product Description: AutoCAD Mechanical 2004 DX|Company: Autodesk"
 90
        0
280
     0
281
     0
  0
CLASS
  1
ACMNOTESTANDARDISO
  2
AmdtNoteStdISO
  3
"Amdt_StdImp|Product Description: AutoCAD Mechanical 2004 DX|Company: Autodesk"
 90
        0
280
     0
281
     0
  0
CLASS
  1
ACAMGLAYSTD
  2
AcAmgLayStd
  3
"AcAmgLayStd|Product Description: AutoCAD Mechanical 2000|Company: Autodesk"
 90
        0
280
     0
281
     0
  0
CLASS
  1
ACAMGDIMSTD
  2
AcAmgDimStd
  3
"AcAmgDimStd|Product Description: AutoCAD Mechanical 2000|Company: Autodesk"
 90
        0
280
     0
281
     0
  0
CLASS
  1
ACAMGHOLECHARTSTDISO
  2
AcAmgHoleChartStdISO
  3
ACMSYMBB_MODULE_NAME
 90
        0
280
     0
281
     0
  0
CLASS
  1
ACAMGTITLESTD
  2
AcAmgTitleStd
  3
"TITLEAPP"
 90
        0
280
     0
281
     0
  0
CLASS
  1
LAYER_INDEX
  2
AcDbLayerIndex
  3
ObjectDBX Classes
 90
    32768
280
     0
281
     0
  0
CLASS
  1
IDBUFFER
  2
AcDbIdBuffer
  3
ObjectDBX Classes
 90
    32768
280
     0
281
     0
  0
CLASS
  1
DICTIONARYVAR
  2
AcDbDictionaryVar
  3
ObjectDBX Classes
 90
        0
280
     0
281
     0
  0
CLASS
  1
AM_DRAWING_MGR
  2
AcDmDwgMgr
  3
AcMechDwgViewMgmt
 90
        0
280
     0
281
     0
  0
CLASS
  1
AM_DWG_DOCUMENT
  2
AcDmDwgDocument
  3
AcMechDwgViewMgmt
 90
        0
280
     0
281
     0
  0
CLASS
  1
AM_DWG_SHEET
  2
AcDmSheet
  3
AcMechDwgViewMgmt
 90
        0
280
     0
281
     0
  0
CLASS
  1
AM_VIEWDIMPARMAP
  2
AcDmViewDimParMap
  3
AcMechDwgViewMgmt
 90
        0
280
     0
281
     0
  0
CLASS
  1
AM_DWGMGR_NAME
  2
AcDmDwgMgrName
  3
AcMechDwgViewMgmt
 90
        0
280
     0
281
     0
  0
CLASS
  1
AMDTMENUSTATEMGR
  2
AmdtMenuStateMgr
  3
McadcomServices
 90
        0
280
     0
281
     0
  0
CLASS
  1
AMDTMCOMMENUSTATE
  2
AmdtMcomMenuState
  3
McadcomServices
 90
        0
280
     0
281
     0
  0
CLASS
  1
MAPIAMMOUDLE
  2
MApiAmModule
  3
MApiAmServices
 90
        0
280
     0
281
     0
  0
CLASS
  1
AMDTADMENUSTATE
  2
AmdtAdMenuState
  3
DesignerServices
 90
        0
280
     0
281
     0
  0
CLASS
  1
ADAPPL
  2
AcAdAppl
  3
DesignerServices
 90
        0
280
     0
281
     0
  0
CLASS
  1
DEPMGR
  2
AcAdDepMgr
  3
DesignerServices
 90
        0
280
     0
281
     0
  0
CLASS
  1
PARAMMGR
  2
AcAdParamMgr
  3
DesignerServices
 90
        0
280
     0
281
     0
  0
CLASS
  1
PARAMSCOPE
  2
AcAdParamScope
  3
DesignerServices
 90
        0
280
     0
281
     0
  0
CLASS
  1
NAMEDAPPL
  2
AcAdNamedAppl
  3
DesignerServices
 90
        0
280
     0
281
     0
  0
CLASS
  1
AMDTDMMENUSTATE
  2
AmdtDmMenuState
  3
AcMechDwgViewMgmt
 90
        0
280
     0
281
     0
  0
CLASS
  1
AMDTAMMENUSTATE
  2
AmdtAmMenuState
  3
DesignerAssemblies
 90
        0
280
     0
281
     0
  0
CLASS
  1
ACAMPROJECT
  2
AcAmProject
  3
DesignerAssemblies
 90
        0
280
     0
281
     0
  0
CLASS
  1
ACAMGRCOMPDEF
  2
AcAmGrCompDef
  3
DesignerAssemblies
 90
        0
280
     0
281
     0
  0
CLASS
  1
ACCMCONTEXT
  2
AcCmContext
  3
DesignerAssemblies
 90
        0
280
     0
281
     0
  0
CLASS
  1
ACAMCOMPDEF
  2
AcAmCompDef
  3
DesignerAssemblies
 90
        0
280
     0
281
     0
  0
CLASS
  1
ACAMCOMPDEFMGR
  2
AcAmCompDefMgr
  3
DesignerAssemblies
 90
        0
280
     0
281
     0
  0
CLASS
  1
AMCONTEXTMGR
  2
AcAmContextMgr
  3
DesignerAssemblies
 90
        0
280
     0
281
     0
  0
CLASS
  1
ACAMCONTEXTMODELER
  2
AcAmContextModeler
  3
DesignerAssemblies
 90
        0
280
     0
281
     0
  0
CLASS
  1
ACMTHREADLINESTANDARDISO
  2
AmdtThreadLineStdISO
  3
"Amdt_StdImp|Product Description: AutoCAD Mechanical 2004 DX|Company: Autodesk"
 90
        0
280
     0
281
     0
  0
CLASS
  1
CATALOGSTATE
  2
AcAmCatalogState
  3
DesignerAssemblies
 90
        0
280
     0
281
     0
  0
CLASS
  1
ACAMGRCOMPDEFSET
  2
AcAmGrCompDefSet
  3
DesignerAssemblies
 90
        0
280
     0
281
     0
  0
CLASS
  1
AMDTBROWSERDBTAB
  2
AmdtBrowserDbTab
  3
McadcomServices
 90
        0
280
     0
281
     0
  0
CLASS
  1
CBROWSERAPPOBJECT
  2
CBrowserAppObject
  3
McadcomServices
 90
        0
280
     0
281
     0
  0
CLASS
  1
DM_PLACEHOLDER
  2
AcDmSelsetPlaceholder
  3
AcMechDwgViewMgmt
 90
        0
280
     0
281
     0
  0
CLASS
  1
TABLESTYLE
  2
AcDbTableStyle
  3
ObjectDBX Classes
 90
     2047
280
     0
281
     0
  0
CLASS
  1
VAACXREFPANELOBJECT
  2
VaAcXREFPanelObject
  3
VAAC_ADDIN
 90
    32768
280
     0
281
     0
  0
CLASS
  1
VAACIMAGEINVENTORY
  2
VaAcImageInventory
  3
VAAC_ADDIN
 90
    32768
280
     0
281
     0
  0
CLASS
  1
AMDTNOTETEMPLATEDB
  2
AmdtNoteTemplateDB
  3
AMDT_STDIMP_MODULE_NAME
 90
        0
280
     0
281
     0
  0
CLASS
  1
ACMBOM
  2
AcmBom
  3
"AcmSymBB|Product Description: AutoCAD Mechanical 2004 DX|Company: Autodesk"
 90
    32768
280
     0
281
     0
  0
CLASS
  1
AMDTFORMULAUPDATEDISPATCHER
  2
AmdtFormulaUpdateDispatcher
  3
AcMeServices
 90
    32768
280
     0
281
     0
  0
CLASS
  1
ACMPARTLIST
  2
AcmPartList
  3
"AcmSymBB|Product Description: AutoCAD Mechanical 2004 DX|Company: Autodesk"
 90
    33791
280
     0
281
     1
  0
CLASS
  1
ACAMGFILTERDAT
  2
AcAmgFilterDat
  3
"AcadM|Product Description: AutoCAD Mechanical 2000|Company: Autodesk"
 90
        0
280
     0
281
     0
  0
CLASS
  1
DIMASSOC
  2
AcDbDimAssoc
  3
"AcDbDimAssoc|Product Desc:     AcDim ARX App For Dimension|Company:          Autodesk, Inc.|WEB Address:      www.autodesk.com"
 90
        0
280
     0
281
     0
  0
CLASS
  1
ACMSTANDARDANSI
  2
AcmStandardANSI
  3
"Amdt_StdImp|Product Description: AutoCAD Mechanical 2004 DX|Company: Autodesk"
 90
        0
280
     0
281
     0
  0
CLASS
  1
ACMSURFSTANDARDANSI
  2
AcmSurfTextStdANSI
  3
"Amdt_StdImp|Product Description: AutoCAD Mechanical 2004 DX|Company: Autodesk"
 90
        0
280
     0
281
     0
  0
CLASS
  1
ACMFCFSTANDARDANSI
  2
AcmFCFStdANSI
  3
"Amdt_StdImp|Product Description: AutoCAD Mechanical 2004 DX|Company: Autodesk"
 90
        0
280
     0
281
     0
  0
CLASS
  1
ACMWELDSTANDARDANSI
  2
AcmWeldingStdANSI
  3
"Amdt_StdImp|Product Description: AutoCAD Mechanical 2004 DX|Company: Autodesk"
 90
        0
280
     0
281
     0
  0
CLASS
  1
ACMIDSTANDARDANSI
  2
AcmIdStdANSI
  3
"Amdt_StdImp|Product Description: AutoCAD Mechanical 2004 DX|Company: Autodesk"
 90
        0
280
     0
281
     0
  0
CLASS
  1
ACMDATUMSTANDARDANSI
  2
AcmDatumStdANSI
  3
"Amdt_StdImp|Product Description: AutoCAD Mechanical 2004 DX|Company: Autodesk"
 90
        0
280
     0
281
     0
  0
CLASS
  1
ACMBOMSTANDARDANSI
  2
AcmBOMStdANSI
  3
"Amdt_StdImp|Product Description: AutoCAD Mechanical 2004 DX|Company: Autodesk"
 90
        0
280
     0
281
     0
  0
CLASS
  1
ACMDETAILSTANDARDANSI
  2
AmdtDetailSymStdANSI
  3
"Amdt_StdImp|Product Description: AutoCAD Mechanical 2004 DX|Company: Autodesk"
 90
        0
280
     0
281
     0
  0
CLASS
  1
ACMSECTIONSTANDARDANSI
  2
AmdtSectionSymStdANSI
  3
"Amdt_StdImp|Product Description: AutoCAD Mechanical 2004 DX|Company: Autodesk"
 90
        0
280
     0
281
     0
  0
CLASS
  1
ACMCENTERLINESTANDARDANSI
  2
AmdtCenterLineStdANSI
  3
"Amdt_StdImp|Product Description: AutoCAD Mechanical 2004 DX|Company: Autodesk"
 90
        0
280
     0
281
     0
  0
CLASS
  1
ACMTHREADLINESTANDARDANSI
  2
AmdtThreadLineStdANSI
  3
"Amdt_StdImp|Product Description: AutoCAD Mechanical 2004 DX|Company: Autodesk"
 90
        0
280
     0
281
     0
  0
CLASS
  1
ACMNOTESTANDARDANSI
  2
AmdtNoteStdANSI
  3
"Amdt_StdImp|Product Description: AutoCAD Mechanical 2004 DX|Company: Autodesk"
 90
        0
280
     0
281
     0
  0
CLASS
  1
ACAMGHOLECHARTSTDANSI
  2
AcAmgHoleChartStdANSI
  3
ACMSYMBB_MODULE_NAME
 90
        0
280
     0
281
     0
  0
CLASS
  1
SORTENTSTABLE
  2
AcDbSortentsTable
  3
ObjectDBX Classes
 90
        0
280
     0
281
     0
  0
CLASS
  1
ACRFATTGENMGR
  2
AcRfAttGeneralMgr
  3
AcAttribServices
 90
        0
280
     0
281
     0
  0
ENDSEC
  0
SECTION
  2
TABLES
  0
TABLE
  2
VPORT
  5
8
330
0
100
AcDbSymbolTable
 70
     3
  0
VPORT
  5
3534
330
8
100
AcDbSymbolTableRecord
100
AcDbViewportTableRecord
  2
*Active
 70
     0
 10
0.0
 20
0.0
 11
1.0
 21
1.0
 12
2482.741738215004
 22
425.1294106330131
 13
0.0
 23
0.0
 14
2.5
 24
2.5
 15
10.0
 25
10.0
 16
0.0
 26
0.0
 36
1.0
 17
0.0
 27
0.0
 37
0.0
 40
809.1912420651139
 41
1.817669172932331
 42
50.0
 43
0.0
 44
0.0
 50
0.0
 51
0.0
 71
     0
 72
   100
 73
     1
 74
     3
 75
     0
 76
     0
 77
     0
 78
     0
281
     0
 65
     1
110
0.0
120
0.0
130
0.0
111
1.0
121
0.0
131
0.0
112
0.0
122
1.0
132
0.0
 79
     0
146
0.0
  0
ENDTAB
  0
TABLE
  2
LTYPE
  5
5
330
0
100
AcDbSymbolTable
 70
    16
  0
LTYPE
  5
14
330
5
100
AcDbSymbolTableRecord
100
AcDbLinetypeTableRecord
  2
ByBlock
 70
     0
  3

 72
    65
 73
     0
 40
0.0
  0
LTYPE
  5
15
330
5
100
AcDbSymbolTableRecord
100
AcDbLinetypeTableRecord
  2
ByLayer
 70
     0
  3

 72
    65
 73
     0
 40
0.0
  0
LTYPE
  5
16
330
5
100
AcDbSymbolTableRecord
100
AcDbLinetypeTableRecord
  2
Continuous
 70
     0
  3
Solid line
 72
    65
 73
     0
 40
0.0
  0
LTYPE
  5
64
330
5
100
AcDbSymbolTableRecord
100
AcDbLinetypeTableRecord
  2
AM_ISO02W050
 70
     0
  3
__ __ __ __ __ __ __ __ __ __ __ __ __ __ __
 72
    65
 73
     2
 40
7.5
 49
6.0
 74
     0
 49
-1.5
 74
     0
  0
LTYPE
  5
65
330
5
100
AcDbSymbolTableRecord
100
AcDbLinetypeTableRecord
  2
AM_ISO08W050
 70
     0
  3
____ . ____ . ____ . ____ . ____ . ____ . ____
 72
    65
 73
     4
 40
18.0
 49
12.0
 74
     0
 49
-1.5
 74
     0
 49
3.0
 74
     0
 49
-1.5
 74
     0
  0
LTYPE
  5
66
330
5
100
AcDbSymbolTableRecord
100
AcDbLinetypeTableRecord
  2
AM_ISO09W050
 70
     0
  3
_____ . . _____ . . _____ . . ____ .. ____
 72
    65
 73
     6
 40
22.5
 49
12.0
 74
     0
 49
-1.5
 74
     0
 49
3.0
 74
     0
 49
-1.5
 74
     0
 49
3.0
 74
     0
 49
-1.5
 74
     0
  0
LTYPE
  5
67
330
5
100
AcDbSymbolTableRecord
100
AcDbLinetypeTableRecord
  2
Amconstr
 70
     0
  3
_______________________
 72
    65
 73
     2
 40
9999.0
 49
9999.0
 74
     0
 49
0.0
 74
     0
  0
LTYPE
  5
68
330
5
100
AcDbSymbolTableRecord
100
AcDbLinetypeTableRecord
  2
AM_ISO08W050x2
 70
     0
  3
__ . __ . __ . __ . __ . __
 72
    65
 73
     4
 40
9.0
 49
6.0
 74
     0
 49
-0.75
 74
     0
 49
1.5
 74
     0
 49
-0.75
 74
     0
  0
LTYPE
  5
69
330
5
100
AcDbSymbolTableRecord
100
AcDbLinetypeTableRecord
  2
AM_ISO02W050x2
 70
     0
  3
 _ _ _ _ _ _ _ _ _ _ _ _
 72
    65
 73
     2
 40
3.75
 49
3.0
 74
     0
 49
-0.75
 74
     0
  0
LTYPE
  5
6C
330
5
100
AcDbSymbolTableRecord
100
AcDbLinetypeTableRecord
  2
Amzigzag
 70
     0
  3
/\/-/\/-/\/-/\/-/\/-/\/
 72
    65
 73
     2
 40
11.0001
 49
0.0001
 74
     4
 75
   135
340
6B
 46
0.04
 50
0.0
 44
0.0
 45
0.0
 49
-11.0
 74
     0
  0
LTYPE
  5
7A
330
5
100
AcDbSymbolTableRecord
100
AcDbLinetypeTableRecord
  2
ACISOWELD
 70
     0
  3
_ _ _ _ _
 72
    65
 73
     2
 40
2.0
 49
2.0
 74
     0
 49
-1.0
 74
     0
  0
LTYPE
  5
7B
330
5
100
AcDbSymbolTableRecord
100
AcDbLinetypeTableRecord
  2
ACISOTGB
 70
     0
  3
__ . . __ . .
 72
    65
 73
     6
 40
9.0
 49
4.0
 74
     0
 49
-1.0
 74
     0
 49
1.0
 74
     0
 49
-1.0
 74
     0
 49
1.0
 74
     0
 49
-1.0
 74
     0
  0
LTYPE
  5
7C
330
5
100
AcDbSymbolTableRecord
100
AcDbLinetypeTableRecord
  2
ACISOTGL
 70
     0
  3
_ _ _ _ _
 72
    65
 73
     2
 40
3.0
 49
2.0
 74
     0
 49
-1.0
 74
     0
  0
LTYPE
  5
7E
330
5
100
AcDbSymbolTableRecord
100
AcDbLinetypeTableRecord
  2
CENTER
 70
     0
  3
__ . __
 72
    65
 73
     4
 40
7.0
 49
4.0
 74
     0
 49
-1.0
 74
     0
 49
1.0
 74
     0
 49
-1.0
 74
     0
  0
LTYPE
  5
D8
330
5
100
AcDbSymbolTableRecord
100
AcDbLinetypeTableRecord
  2
HIDDEN
 70
     0
  3
Hidden __ __ __ __ __ __ __ __ __ __ __ __ __ _
 72
    65
 73
     2
 40
9.524999999999998
 49
6.349999999999999
 74
     0
 49
-3.174999999999999
 74
     0
  0
LTYPE
  5
D9
330
5
100
AcDbSymbolTableRecord
100
AcDbLinetypeTableRecord
  2
PHANTOM2
 70
     0
  3
Phantom (.5x) ___ _ _ ___ _ _ ___ _ _ ___ _ _
 72
    65
 73
     6
 40
31.75
 49
15.875
 74
     0
 49
-3.174999999999999
 74
     0
 49
3.174999999999999
 74
     0
 49
-3.174999999999999
 74
     0
 49
3.174999999999999
 74
     0
 49
-3.174999999999999
 74
     0
  0
LTYPE
  5
7F5
330
5
100
AcDbSymbolTableRecord
100
AcDbLinetypeTableRecord
  2
ACANSTGB
 70
     0
  3
__ . . __ . .
 72
    65
 73
     6
 40
0.35433070866
 49
0.15748031496
 74
     0
 49
-0.03937007874
 74
     0
 49
0.03937007874
 74
     0
 49
-0.03937007874
 74
     0
 49
0.03937007874
 74
     0
 49
-0.03937007874
 74
     0
  0
LTYPE
  5
7F6
330
5
100
AcDbSymbolTableRecord
100
AcDbLinetypeTableRecord
  2
ACANSTGL
 70
     0
  3
_ _ _ _ _
 72
    65
 73
     2
 40
0.11811023622
 49
0.07874015748
 74
     0
 49
-0.03937007874
 74
     0
  0
ENDTAB
  0
TABLE
  2
LAYER
  5
2
102
{ACAD_XDICTIONARY
360
3F9
102
}
330
0
100
AcDbSymbolTable
 70
     5
  0
LAYER
  5
10
330
2
100
AcDbSymbolTableRecord
100
AcDbLayerTableRecord
  2
0
 70
     0
 62
     7
  6
Continuous
370
    -3
390
F
  0
LAYER
  5
8B2
330
2
100
AcDbSymbolTableRecord
100
AcDbLayerTableRecord
  2
AM_7
 70
     0
 62
     1
  6
CENTER
370
    25
390
F
  0
LAYER
  5
1083
330
2
100
AcDbSymbolTableRecord
100
AcDbLayerTableRecord
  2
AM_5
 70
     0
 62
     5
  6
Continuous
370
    50
390
F
  0
LAYER
  5
1093
330
2
100
AcDbSymbolTableRecord
100
AcDbLayerTableRecord
  2
Defpoints
 70
     0
 62
     7
  6
Continuous
290
     0
370
    -3
390
F
  0
LAYER
  5
1560
330
2
100
AcDbSymbolTableRecord
100
AcDbLayerTableRecord
  2
LOGO
 70
     0
 62
     7
  6
Continuous
370
    -3
390
F
  0
ENDTAB
  0
TABLE
  2
STYLE
  5
3
330
0
100
AcDbSymbolTable
 70
     8
  0
STYLE
  5
11
330
3
100
AcDbSymbolTableRecord
100
AcDbTextStyleTableRecord
  2
STANDARD
 70
     0
 40
0.0
 41
1.0
 50
0.0
 71
     0
 42
3.0
  3
ISOCP.SHX
  4
CHINESET.SHX
  0
STYLE
  5
6B
330
3
100
AcDbSymbolTableRecord
100
AcDbTextStyleTableRecord
  2

 70
     1
 40
0.0
 41
1.0
 50
0.0
 71
     0
 42
2.5
  3
ltypeshp.shx
  4

  0
STYLE
  5
6D
330
3
100
AcDbSymbolTableRecord
100
AcDbTextStyleTableRecord
  2
ACISOTS
 70
     0
 40
1.0
 41
1.0
 50
0.0
 71
     0
 42
1.0
  3
isocp.shx
  4
chineset.shx
  0
STYLE
  5
79
330
3
100
AcDbSymbolTableRecord
100
AcDbTextStyleTableRecord
  2
ACISOGDT
 70
     0
 40
0.0
 41
1.0
 50
0.0
 71
     0
 42
2.5
  3
amgdt.shx
  4
chineset.shx
  0
STYLE
  5
60C
330
3
100
AcDbSymbolTableRecord
100
AcDbTextStyleTableRecord
  2
CHINESET
 70
     0
 40
0.0
 41
0.75
 50
0.0
 71
     0
 42
3.0
  3
simplex.shx
  4
CHINESET.SHX
  0
STYLE
  5
7F9
330
3
100
AcDbSymbolTableRecord
100
AcDbTextStyleTableRecord
  2
ACANSTS
 70
     0
 40
1.0
 41
1.0
 50
0.0
 71
     0
 42
5.84703234913793
  3
romans.shx
  4
chineset.shx
  0
STYLE
  5
7FA
330
3
100
AcDbSymbolTableRecord
100
AcDbTextStyleTableRecord
  2
ACANSGDT
 70
     0
 40
0.0
 41
1.0
 50
0.0
 71
     0
 42
5.84703234913793
  3
amgdtans.shx
  4

  0
ENDTAB
  0
TABLE
  2
VIEW
  5
6
330
0
100
AcDbSymbolTable
 70
     0
  0
ENDTAB
  0
TABLE
  2
UCS
  5
7
330
0
100
AcDbSymbolTable
 70
     0
  0
ENDTAB
  0
TABLE
  2
APPID
  5
9
330
0
100
AcDbSymbolTable
 70
    19
  0
APPID
  5
12
330
9
100
AcDbSymbolTableRecord
100
AcDbRegAppTableRecord
  2
ACAD
 70
     0
  0
APPID
  5
46
330
9
100
AcDbSymbolTableRecord
100
AcDbRegAppTableRecord
  2
MCAD_NO_VIS
 70
     0
  0
APPID
  5
47
330
9
100
AcDbSymbolTableRecord
100
AcDbRegAppTableRecord
  2
ACAD_TEMP_GRAPHIC
 70
     0
  0
APPID
  5
58
330
9
100
AcDbSymbolTableRecord
100
AcDbRegAppTableRecord
  2
ACATTRIBSERVICES
 70
     0
  0
APPID
  5
EE
330
9
100
AcDbSymbolTableRecord
100
AcDbRegAppTableRecord
  2
AD_DRAW
 70
     0
  0
APPID
  5
10C
330
9
100
AcDbSymbolTableRecord
100
AcDbRegAppTableRecord
  2
DESIGNERASSEMBLIES
 70
     0
  0
APPID
  5
111
330
9
100
AcDbSymbolTableRecord
100
AcDbRegAppTableRecord
  2
ACADM_DIM_EDIT
 70
     0
  0
APPID
  5
112
330
9
100
AcDbSymbolTableRecord
100
AcDbRegAppTableRecord
  2
AMDT_DM_ADJ
 70
     0
  0
APPID
  5
22C
330
9
100
AcDbSymbolTableRecord
100
AcDbRegAppTableRecord
  2
ACAD_DSTYLE_DIMTEXT_FILL
 70
     0
  0
APPID
  5
452
330
9
100
AcDbSymbolTableRecord
100
AcDbRegAppTableRecord
  2
GENIUS_GENOENT_13
 70
     0
  0
APPID
  5
453
330
9
100
AcDbSymbolTableRecord
100
AcDbRegAppTableRecord
  2
GENIUS_GENOBJ-N-CRS_13
 70
     0
  0
APPID
  5
454
330
9
100
AcDbSymbolTableRecord
100
AcDbRegAppTableRecord
  2
GENIUS_GENOLIS_13
 70
     0
  0
APPID
  5
455
330
9
100
AcDbSymbolTableRecord
100
AcDbRegAppTableRecord
  2
GENIUS_GENODEF_13
 70
     0
  0
APPID
  5
456
330
9
100
AcDbSymbolTableRecord
100
AcDbRegAppTableRecord
  2
GENIUS_GENOREF_13
 70
     0
  0
APPID
  5
6F3
330
9
100
AcDbSymbolTableRecord
100
AcDbRegAppTableRecord
  2
ACAD_PSEXT
 70
     0
  0
APPID
  5
8B4
330
9
100
AcDbSymbolTableRecord
100
AcDbRegAppTableRecord
  2
GENIUS_GENOBJ-N-CEN_13
 70
     0
  0
APPID
  5
8B5
330
9
100
AcDbSymbolTableRecord
100
AcDbRegAppTableRecord
  2
GENIUS_GENCEN_19
 70
     0
  0
APPID
  5
1561
330
9
100
AcDbSymbolTableRecord
100
AcDbRegAppTableRecord
  2
GENIUS_GENREC_14
 70
     0
  0
APPID
  5
1562
330
9
100
AcDbSymbolTableRecord
100
AcDbRegAppTableRecord
  2
GENIUS_GENOBJ-N-REC_13
 70
     0
  0
ENDTAB
  0
TABLE
  2
DIMSTYLE
  5
A
330
0
100
AcDbSymbolTable
 70
    15
100
AcDbDimStyleTable
 71
     3
340
81
340
8B
340
86
  0
DIMSTYLE
105
81
330
A
100
AcDbSymbolTableRecord
100
AcDbDimStyleTableRecord
  2
AM_ISO
 70
     0
  4
"
 41
3.0
 42
1.0
 43
10.0
 44
1.5
 47
0.1
 48
0.1
 73
     0
 74
     0
 77
     1
 78
     8
 79
     2
140
3.0
141
0.0
143
0.0393701
146
0.71
147
1.0
172
     1
176
   256
177
   256
178
   256
271
     2
272
     2
283
     0
284
     8
340
60C
371
    -1
372
    -1
  0
DIMSTYLE
105
82
330
A
100
AcDbSymbolTableRecord
100
AcDbDimStyleTableRecord
  2
AM_ISO$3
 70
     0
  4
"
 41
3.0
 42
1.0
 43
10.0
 44
1.5
 47
0.1
 48
0.1
 73
     0
 77
     1
 78
     8
 79
     2
140
3.0
141
0.0
143
0.0393701
146
0.71
147
1.0
176
   256
177
   256
178
   256
271
     2
272
     2
283
     0
284
     8
288
     1
289
     0
340
60C
371
    -1
372
    -1
  0
DIMSTYLE
105
83
330
A
100
AcDbSymbolTableRecord
100
AcDbDimStyleTableRecord
  2
AM_ISO$4
 70
     0
  4
"
 41
3.0
 42
1.0
 43
10.0
 44
1.5
 47
0.1
 48
0.1
 73
     0
 77
     1
 78
     8
 79
     2
140
3.0
141
0.0
143
0.0393701
146
0.71
147
1.0
176
   256
177
   256
178
   256
271
     2
272
     2
283
     0
284
     8
288
     1
289
     0
340
60C
371
    -1
372
    -1
  0
DIMSTYLE
105
84
330
A
100
AcDbSymbolTableRecord
100
AcDbDimStyleTableRecord
  2
AM_ISO$6
 70
     0
  4
"
 41
3.0
 42
1.0
 43
10.0
 44
1.5
 47
0.1
 48
0.1
 73
     0
 74
     0
 78
     8
 79
     2
140
3.0
141
0.0
143
0.0393701
146
0.71
147
1.0
172
     1
176
   256
177
   256
178
   256
271
     2
272
     2
283
     0
284
     8
340
60C
371
    -1
372
    -1
  0
DIMSTYLE
105
85
330
A
100
AcDbSymbolTableRecord
100
AcDbDimStyleTableRecord
  2
AM_ISO$7
 70
     0
  4
"
 41
3.0
 42
1.0
 43
10.0
 44
1.5
 47
0.1
 48
0.1
 73
     0
 74
     0
 77
     1
 78
     8
 79
     2
140
5.0
141
0.0
143
0.0393701
146
0.71
147
1.0
172
     1
176
   256
177
   256
178
   256
271
     2
272
     2
283
     0
284
     8
340
60C
371
    -1
372
    -1
  0
DIMSTYLE
105
86
330
A
100
AcDbSymbolTableRecord
100
AcDbDimStyleTableRecord
  2
AM_ISO$SF
 70
     0
  4
"
 41
2.5
 42
1.0
 43
10.0
 44
1.0
 47
0.1
 48
0.1
 73
     0
 74
     0
 75
     1
 76
     1
 77
     1
 78
     8
 79
     2
140
3.5
141
0.0
143
0.0393701
146
0.71
147
1.5
172
     1
176
   256
177
   256
178
     2
271
     2
272
     3
274
     4
283
     0
284
     8
340
11
371
    -1
372
    -1
  0
DIMSTYLE
105
8B
330
A
100
AcDbSymbolTableRecord
100
AcDbDimStyleTableRecord
  2
AM_ISO$SH
 70
     0
  4
"
 41
2.5
 42
1.0
 43
10.0
 44
1.0
 47
0.1
 48
0.1
 73
     0
 74
     0
 75
     1
 76
     1
 77
     1
 78
     8
 79
     2
140
3.5
141
0.0
143
0.0393701
144
2.0
146
0.71
147
1.5
172
     1
173
     1
176
   256
177
   256
178
     2
271
     2
272
     3
274
     4
283
     0
284
     8
340
11
343
87
371
    -1
372
    -1
  0
DIMSTYLE
105
40B
102
{ACAD_REACTORS
330
2D38
330
2D39
330
2D3B
330
2D9F
330
2EA8
330
2EEB
330
2EEC
330
2EED
330
2EEE
330
2F5E
330
3020
330
3021
330
3022
330
3023
330
30C6
330
3189
330
318A
330
318B
330
318C
330
320E
330
32C8
330
32C9
330
32CA
330
32CB
330
3381
330
3474
330
3475
330
3476
330
3477
330
34E7
102
}
330
A
100
AcDbSymbolTableRecord
100
AcDbDimStyleTableRecord
  2
AM_ISO$0
 70
     0
  4
"
 41
3.0
 42
1.0
 43
10.0
 44
1.5
 47
0.1
 48
0.1
 73
     0
 74
     0
 77
     1
 78
     8
 79
     2
140
3.0
141
0.0
143
0.0393701
146
0.71
147
1.0
172
     1
176
   256
177
   256
178
   256
271
     2
272
     2
283
     0
284
     8
340
60C
371
    -1
372
    -1
  0
DIMSTYLE
105
7FC
330
A
100
AcDbSymbolTableRecord
100
AcDbDimStyleTableRecord
  2
AM_ANSI
 70
     0
  4
mm
 41
0.1
 42
0.05
 43
0.5
 44
0.1
 47
0.1
 48
0.1
 78
     7
 79
     2
140
0.12
141
0.0
146
0.71
147
0.06
176
   256
177
   256
178
     2
274
     4
284
     7
340
11
371
    -1
372
    -1
  0
DIMSTYLE
105
7FD
330
A
100
AcDbSymbolTableRecord
100
AcDbDimStyleTableRecord
  2
AM_ANSI$3
 70
     0
  4
mm
 41
0.1
 42
0.05
 43
0.5
 44
0.1
 47
0.1
 48
0.1
 78
     7
 79
     2
140
0.12
141
0.0
146
0.71
147
0.06
176
   256
177
   256
178
     2
274
     4
284
     7
288
     1
289
     0
340
11
371
    -1
372
    -1
  0
DIMSTYLE
105
7FE
330
A
100
AcDbSymbolTableRecord
100
AcDbDimStyleTableRecord
  2
AM_ANSI$4
 70
     0
  4
mm
 41
0.1
 42
0.05
 43
0.5
 44
0.1
 47
0.1
 48
0.1
 78
     7
 79
     2
140
0.12
141
0.0
146
0.71
147
0.06
176
   256
177
   256
178
     2
274
     4
284
     7
288
     1
289
     0
340
11
371
    -1
372
    -1
  0
DIMSTYLE
105
7FF
330
A
100
AcDbSymbolTableRecord
100
AcDbDimStyleTableRecord
  2
AM_ANSI$7
 70
     0
  4
mm
 41
0.1
 42
0.05
 43
0.5
 44
0.1
 47
0.1
 48
0.1
 78
     7
 79
     2
140
0.24
141
0.0
146
0.71
147
0.06
176
   256
177
   256
178
     2
274
     4
284
     7
340
11
371
    -1
372
    -1
  0
DIMSTYLE
105
800
330
A
100
AcDbSymbolTableRecord
100
AcDbDimStyleTableRecord
  2
AM_ANSI$SF
 70
     0
  4
mm
 41
0.1
 42
0.05
 43
0.5
 44
0.1
 47
0.1
 48
0.1
 75
     1
 76
     1
 78
     7
 79
     2
140
0.12
141
0.0
146
0.71
147
0.06
176
   256
177
   256
178
     2
274
     4
284
     7
340
11
371
    -1
372
    -1
  0
DIMSTYLE
105
801
330
A
100
AcDbSymbolTableRecord
100
AcDbDimStyleTableRecord
  2
AM_ANSI$SH
 70
     0
  4
mm
 41
0.1
 42
0.05
 43
0.5
 44
0.1
 47
0.1
 48
0.1
 75
     1
 76
     1
 78
     7
 79
     2
140
0.12
141
0.0
146
0.71
147
0.06
173
     1
176
   256
177
   256
178
     2
274
     4
284
     7
340
11
343
87
371
    -1
372
    -1
  0
ENDTAB
  0
TABLE
  2
BLOCK_RECORD
  5
1
330
0
100
AcDbSymbolTable
 70
    34
  0
BLOCK_RECORD
  5
1F
102
{ACAD_XDICTIONARY
360
8F
102
}
330
1
100
AcDbSymbolTableRecord
100
AcDbBlockTableRecord
  2
*Model_Space
340
22
  0
BLOCK_RECORD
  5
1B
330
1
100
AcDbSymbolTableRecord
100
AcDbBlockTableRecord
  2
*Paper_Space
340
1E
  0
BLOCK_RECORD
  5
23
330
1
100
AcDbSymbolTableRecord
100
AcDbBlockTableRecord
  2
*Paper_Space0
340
26
  0
BLOCK_RECORD
  5
87
330
1
100
AcDbSymbolTableRecord
100
AcDbBlockTableRecord
  2
GENAXEH
340
0
  0
BLOCK_RECORD
  5
2D3C
330
1
100
AcDbSymbolTableRecord
100
AcDbBlockTableRecord
  2
*D3
340
0
  0
BLOCK_RECORD
  5
2D48
330
1
100
AcDbSymbolTableRecord
100
AcDbBlockTableRecord
  2
*D4
340
0
  0
BLOCK_RECORD
  5
2D60
330
1
100
AcDbSymbolTableRecord
100
AcDbBlockTableRecord
  2
*D5
340
0
  0
BLOCK_RECORD
  5
2DA0
330
1
100
AcDbSymbolTableRecord
100
AcDbBlockTableRecord
  2
*D6
340
0
  0
BLOCK_RECORD
  5
2EA9
330
1
100
AcDbSymbolTableRecord
100
AcDbBlockTableRecord
  2
*D7
340
0
  0
BLOCK_RECORD
  5
2EEF
330
1
100
AcDbSymbolTableRecord
100
AcDbBlockTableRecord
  2
*D8
340
0
  0
BLOCK_RECORD
  5
2EFB
330
1
100
AcDbSymbolTableRecord
100
AcDbBlockTableRecord
  2
*D9
340
0
  0
BLOCK_RECORD
  5
2F07
330
1
100
AcDbSymbolTableRecord
100
AcDbBlockTableRecord
  2
*D10
340
0
  0
BLOCK_RECORD
  5
2F13
330
1
100
AcDbSymbolTableRecord
100
AcDbBlockTableRecord
  2
*D11
340
0
  0
BLOCK_RECORD
  5
2F61
330
1
100
AcDbSymbolTableRecord
100
AcDbBlockTableRecord
  2
*D12
340
0
  0
BLOCK_RECORD
  5
3024
330
1
100
AcDbSymbolTableRecord
100
AcDbBlockTableRecord
  2
*D13
340
0
  0
BLOCK_RECORD
  5
3030
330
1
100
AcDbSymbolTableRecord
100
AcDbBlockTableRecord
  2
*D14
340
0
  0
BLOCK_RECORD
  5
303C
330
1
100
AcDbSymbolTableRecord
100
AcDbBlockTableRecord
  2
*D15
340
0
  0
BLOCK_RECORD
  5
3048
330
1
100
AcDbSymbolTableRecord
100
AcDbBlockTableRecord
  2
*D16
340
0
  0
BLOCK_RECORD
  5
30C7
330
1
100
AcDbSymbolTableRecord
100
AcDbBlockTableRecord
  2
*D17
340
0
  0
BLOCK_RECORD
  5
318D
330
1
100
AcDbSymbolTableRecord
100
AcDbBlockTableRecord
  2
*D18
340
0
  0
BLOCK_RECORD
  5
3199
330
1
100
AcDbSymbolTableRecord
100
AcDbBlockTableRecord
  2
*D19
340
0
  0
BLOCK_RECORD
  5
31A5
330
1
100
AcDbSymbolTableRecord
100
AcDbBlockTableRecord
  2
*D20
340
0
  0
BLOCK_RECORD
  5
31B1
330
1
100
AcDbSymbolTableRecord
100
AcDbBlockTableRecord
  2
*D21
340
0
  0
BLOCK_RECORD
  5
3211
330
1
100
AcDbSymbolTableRecord
100
AcDbBlockTableRecord
  2
*D22
340
0
  0
BLOCK_RECORD
  5
32CC
330
1
100
AcDbSymbolTableRecord
100
AcDbBlockTableRecord
  2
*D23
340
0
  0
BLOCK_RECORD
  5
32D8
330
1
100
AcDbSymbolTableRecord
100
AcDbBlockTableRecord
  2
*D24
340
0
  0
BLOCK_RECORD
  5
32E4
330
1
100
AcDbSymbolTableRecord
100
AcDbBlockTableRecord
  2
*D25
340
0
  0
BLOCK_RECORD
  5
32F0
330
1
100
AcDbSymbolTableRecord
100
AcDbBlockTableRecord
  2
*D26
340
0
  0
BLOCK_RECORD
  5
3384
330
1
100
AcDbSymbolTableRecord
100
AcDbBlockTableRecord
  2
*D27
340
0
  0
BLOCK_RECORD
  5
3478
330
1
100
AcDbSymbolTableRecord
100
AcDbBlockTableRecord
  2
*D28
340
0
  0
BLOCK_RECORD
  5
3484
330
1
100
AcDbSymbolTableRecord
100
AcDbBlockTableRecord
  2
*D29
340
0
  0
BLOCK_RECORD
  5
3490
330
1
100
AcDbSymbolTableRecord
100
AcDbBlockTableRecord
  2
*D30
340
0
  0
BLOCK_RECORD
  5
349C
330
1
100
AcDbSymbolTableRecord
100
AcDbBlockTableRecord
  2
*D31
340
0
  0
BLOCK_RECORD
  5
34E8
330
1
100
AcDbSymbolTableRecord
100
AcDbBlockTableRecord
  2
*D32
340
0
  0
ENDTAB
  0
ENDSEC
  0
SECTION
  2
BLOCKS
  0
BLOCK
  5
20
330
1F
100
AcDbEntity
  8
0
100
AcDbBlockBegin
  2
*Model_Space
 70
     0
 10
0.0
 20
0.0
 30
0.0
  3
*Model_Space
  1

  0
ENDBLK
  5
21
330
1F
100
AcDbEntity
  8
0
100
AcDbBlockEnd
  0
BLOCK
  5
1C
330
1B
100
AcDbEntity
 67
     1
  8
0
100
AcDbBlockBegin
  2
*Paper_Space
 70
     0
 10
0.0
 20
0.0
 30
0.0
  3
*Paper_Space
  1

  0
ENDBLK
  5
1D
330
1B
100
AcDbEntity
 67
     1
  8
0
100
AcDbBlockEnd
  0
BLOCK
  5
24
330
23
100
AcDbEntity
  8
0
100
AcDbBlockBegin
  2
*Paper_Space0
 70
     0
 10
0.0
 20
0.0
 30
0.0
  3
*Paper_Space0
  1

  0
ENDBLK
  5
25
330
23
100
AcDbEntity
  8
0
100
AcDbBlockEnd
  0
BLOCK
  5
89
330
87
100
AcDbEntity
  8
0
100
AcDbBlockBegin
  2
GENAXEH
 70
     0
 10
0.0
 20
0.0
 30
0.0
  3
GENAXEH
  1

  0
LINE
  5
88
330
87
100
AcDbEntity
  8
0
100
AcDbLine
 10
-1.0
 20
0.0
 30
0.0
 11
1.0
 21
0.0
 31
0.0
  0
ENDBLK
  5
8A
330
87
100
AcDbEntity
  8
0
100
AcDbBlockEnd
  0
BLOCK
  5
2D46
330
2D3C
100
AcDbEntity
  8
0
100
AcDbBlockBegin
  2
*D3
 70
     1
 10
0.0
 20
0.0
 30
0.0
  3
*D3
  1

  0
LINE
  5
2D6C
330
2D3C
100
AcDbEntity
  8
AM_5
100
AcDbLine
 10
2133.954650588993
 20
508.9561227128466
 30
0.0
 11
2164.412984551749
 21
508.9561227128466
 31
0.0
  0
LINE
  5
2D6D
330
2D3C
100
AcDbEntity
  8
AM_5
100
AcDbLine
 10
2123.412984551748
 20
606.9561227128467
 30
0.0
 11
2164.412984551749
 21
606.9561227128467
 31
0.0
  0
LINE
  5
2D6E
330
2D3C
100
AcDbEntity
  8
AM_5
100
AcDbLine
 10
2162.912984551748
 20
511.9561227128467
 30
0.0
 11
2162.912984551748
 21
603.9561227128467
 31
0.0
  0
SOLID
  5
2D6F
330
2D3C
100
AcDbEntity
  8
AM_5
100
AcDbTrace
 10
2162.412984551748
 20
511.9561227128467
 30
0.0
 11
2163.412984551748
 21
511.9561227128467
 31
0.0
 12
2162.912984551748
 22
508.9561227128466
 32
0.0
 13
2162.912984551748
 23
508.9561227128466
 33
0.0
  0
SOLID
  5
2D70
330
2D3C
100
AcDbEntity
  8
AM_5
100
AcDbTrace
 10
2162.412984551748
 20
603.9561227128467
 30
0.0
 11
2163.412984551748
 21
603.9561227128467
 31
0.0
 12
2162.912984551748
 22
606.9561227128467
 32
0.0
 13
2162.912984551748
 23
606.9561227128467
 33
0.0
  0
MTEXT
  5
2D71
330
2D3C
100
AcDbEntity
  8
AM_5
100
AcDbMText
 10
2160.412984551749
 20
557.9561227128471
 30
0.0
 40
3.0
 41
0.0
 71
     5
 72
     1
  1
98
  7
CHINESET
 11
0.0000000000000001
 21
1.0
 31
0.0
 73
     1
 44
1.0
1001
ACAD
1000
MTEXTBEGIN
1070
    73
1070
     1
1070
    44
1040
1.0
1070
    74
1070
     0
1000
MTEXTEND
  0
POINT
  5
2D72
330
2D3C
100
AcDbEntity
  8
Defpoints
 62
     0
100
AcDbPoint
 10
2132.954650588994
 20
508.9561227128466
 30
0.0
  0
POINT
  5
2D73
330
2D3C
100
AcDbEntity
  8
Defpoints
 62
     0
100
AcDbPoint
 10
2122.412984551748
 20
606.9561227128467
 30
0.0
  0
POINT
  5
2D74
330
2D3C
100
AcDbEntity
  8
Defpoints
 62
     0
100
AcDbPoint
 10
2162.912984551748
 20
606.9561227128467
 30
0.0
  0
ENDBLK
  5
2D47
330
2D3C
100
AcDbEntity
  8
0
100
AcDbBlockEnd
  0
BLOCK
  5
2D52
330
2D48
100
AcDbEntity
  8
0
100
AcDbBlockBegin
  2
*D4
 70
     1
 10
0.0
 20
0.0
 30
0.0
  3
*D4
  1

  0
LINE
  5
2D75
330
2D48
100
AcDbEntity
  8
AM_5
100
AcDbLine
 10
2133.954650588993
 20
508.9561227128466
 30
0.0
 11
2174.412984551748
 21
508.9561227128466
 31
0.0
  0
LINE
  5
2D76
330
2D48
100
AcDbEntity
  8
AM_5
100
AcDbLine
 10
2150.912984551748
 20
635.9561227128467
 30
0.0
 11
2174.412984551748
 21
635.9561227128467
 31
0.0
  0
LINE
  5
2D77
330
2D48
100
AcDbEntity
  8
AM_5
100
AcDbLine
 10
2172.912984551748
 20
511.9561227128467
 30
0.0
 11
2172.912984551748
 21
632.9561227128468
 31
0.0
  0
SOLID
  5
2D78
330
2D48
100
AcDbEntity
  8
AM_5
100
AcDbTrace
 10
2172.412984551748
 20
511.9561227128467
 30
0.0
 11
2173.412984551748
 21
511.9561227128467
 31
0.0
 12
2172.912984551748
 22
508.9561227128466
 32
0.0
 13
2172.912984551748
 23
508.9561227128466
 33
0.0
  0
SOLID
  5
2D79
330
2D48
100
AcDbEntity
  8
AM_5
100
AcDbTrace
 10
2172.412984551748
 20
632.9561227128468
 30
0.0
 11
2173.412984551748
 21
632.9561227128468
 31
0.0
 12
2172.912984551748
 22
635.9561227128467
 32
0.0
 13
2172.912984551748
 23
635.9561227128467
 33
0.0
  0
MTEXT
  5
2D7A
330
2D48
100
AcDbEntity
  8
AM_5
100
AcDbMText
 10
2170.412984551748
 20
572.4561227128471
 30
0.0
 40
3.0
 41
0.0
 71
     5
 72
     1
  1
127
  7
CHINESET
 11
0.0000000000000001
 21
1.0
 31
0.0
 73
     1
 44
1.0
1001
ACAD
1000
MTEXTBEGIN
1070
    73
1070
     1
1070
    44
1040
1.0
1070
    74
1070
     0
1000
MTEXTEND
  0
POINT
  5
2D7B
330
2D48
100
AcDbEntity
  8
Defpoints
 62
     0
100
AcDbPoint
 10
2132.954650588994
 20
508.9561227128466
 30
0.0
  0
POINT
  5
2D7C
330
2D48
100
AcDbEntity
  8
Defpoints
 62
     0
100
AcDbPoint
 10
2149.912984551749
 20
635.9561227128467
 30
0.0
  0
POINT
  5
2D7D
330
2D48
100
AcDbEntity
  8
Defpoints
 62
     0
100
AcDbPoint
 10
2172.912984551748
 20
635.9561227128467
 30
0.0
  0
ENDBLK
  5
2D53
330
2D48
100
AcDbEntity
  8
0
100
AcDbBlockEnd
  0
BLOCK
  5
2D6A
330
2D60
100
AcDbEntity
  8
0
100
AcDbBlockBegin
  2
*D5
 70
     1
 10
0.0
 20
0.0
 30
0.0
  3
*D5
  1

  0
LINE
  5
2D87
330
2D60
100
AcDbEntity
  8
AM_5
100
AcDbLine
 10
2150.912984551748
 20
654.9561227128467
 30
0.0
 11
2174.412984551748
 21
654.9561227128467
 31
0.0
  0
LINE
  5
2D88
330
2D60
100
AcDbEntity
  8
AM_5
100
AcDbLine
 10
2150.912984551748
 20
635.9561227128467
 30
0.0
 11
2174.412984551748
 21
635.9561227128467
 31
0.0
  0
LINE
  5
2D89
330
2D60
100
AcDbEntity
  8
AM_5
100
AcDbLine
 10
2172.912984551748
 20
651.9561227128467
 30
0.0
 11
2172.912984551748
 21
638.9561227128467
 31
0.0
  0
SOLID
  5
2D8A
330
2D60
100
AcDbEntity
  8
AM_5
100
AcDbTrace
 10
2172.412984551748
 20
651.9561227128467
 30
0.0
 11
2173.412984551748
 21
651.9561227128467
 31
0.0
 12
2172.912984551748
 22
654.9561227128467
 32
0.0
 13
2172.912984551748
 23
654.9561227128467
 33
0.0
  0
SOLID
  5
2D8B
330
2D60
100
AcDbEntity
  8
AM_5
100
AcDbTrace
 10
2172.412984551748
 20
638.9561227128467
 30
0.0
 11
2173.412984551748
 21
638.9561227128467
 31
0.0
 12
2172.912984551748
 22
635.9561227128467
 32
0.0
 13
2172.912984551748
 23
635.9561227128467
 33
0.0
  0
MTEXT
  5
2D8C
330
2D60
100
AcDbEntity
  8
AM_5
100
AcDbMText
 10
2170.412984551748
 20
645.4561227128471
 30
0.0
 40
3.0
 41
0.0
 71
     5
 72
     1
  1
19
  7
CHINESET
 11
0.0000000000000001
 21
1.0
 31
0.0
 73
     1
 44
1.0
1001
ACAD
1000
MTEXTBEGIN
1070
    73
1070
     1
1070
    44
1040
1.0
1070
    74
1070
     0
1000
MTEXTEND
  0
POINT
  5
2D8D
330
2D60
100
AcDbEntity
  8
Defpoints
 62
     0
100
AcDbPoint
 10
2149.912984551749
 20
654.9561227128467
 30
0.0
  0
POINT
  5
2D8E
330
2D60
100
AcDbEntity
  8
Defpoints
 62
     0
100
AcDbPoint
 10
2149.912984551749
 20
635.9561227128467
 30
0.0
  0
POINT
  5
2D8F
330
2D60
100
AcDbEntity
  8
Defpoints
 62
     0
100
AcDbPoint
 10
2172.912984551748
 20
635.9561227128467
 30
0.0
  0
ENDBLK
  5
2D6B
330
2D60
100
AcDbEntity
  8
0
100
AcDbBlockEnd
  0
BLOCK
  5
2DAA
330
2DA0
100
AcDbEntity
  8
0
100
AcDbBlockBegin
  2
*D6
 70
     1
 10
0.0
 20
0.0
 30
0.0
  3
*D6
  1

  0
LINE
  5
2DC7
330
2DA0
100
AcDbEntity
  8
AM_5
100
AcDbLine
 10
2078.371318514503
 20
556.9561227128467
 30
0.0
 11
2078.371318514503
 21
548.4624340869327
 31
0.0
  0
LINE
  5
2DC8
330
2DA0
100
AcDbEntity
  8
AM_5
100
AcDbLine
 10
2123.371318514503
 20
556.9561227128467
 30
0.0
 11
2123.371318514503
 21
548.4624340869327
 31
0.0
  0
LINE
  5
2DC9
330
2DA0
100
AcDbEntity
  8
AM_5
100
AcDbLine
 10
2081.371318514503
 20
549.9624340869327
 30
0.0
 11
2120.371318514503
 21
549.9624340869327
 31
0.0
  0
SOLID
  5
2DCA
330
2DA0
100
AcDbEntity
  8
AM_5
100
AcDbTrace
 10
2081.371318514503
 20
550.4624340869327
 30
0.0
 11
2081.371318514503
 21
549.4624340869327
 31
0.0
 12
2078.371318514503
 22
549.9624340869327
 32
0.0
 13
2078.371318514503
 23
549.9624340869327
 33
0.0
  0
SOLID
  5
2DCB
330
2DA0
100
AcDbEntity
  8
AM_5
100
AcDbTrace
 10
2120.371318514503
 20
550.4624340869327
 30
0.0
 11
2120.371318514503
 21
549.4624340869327
 31
0.0
 12
2123.371318514503
 22
549.9624340869327
 32
0.0
 13
2123.371318514503
 23
549.9624340869327
 33
0.0
  0
MTEXT
  5
2DCC
330
2DA0
100
AcDbEntity
  8
AM_5
100
AcDbMText
 10
2100.871318514503
 20
552.4624340869327
 30
0.0
 40
3.0
 41
0.0
 71
     5
 72
     1
  1
M45x1.5
  7
CHINESET
 73
     1
 44
1.0
1001
ACAD
1000
MTEXTBEGIN
1070
    73
1070
     1
1070
    44
1040
1.0
1070
    74
1070
     0
1000
MTEXTEND
  0
POINT
  5
2DCD
330
2DA0
100
AcDbEntity
  8
Defpoints
 62
     0
100
AcDbPoint
 10
2078.371318514503
 20
557.9561227128468
 30
0.0
  0
POINT
  5
2DCE
330
2DA0
100
AcDbEntity
  8
Defpoints
 62
     0
100
AcDbPoint
 10
2123.371318514503
 20
557.9561227128468
 30
0.0
  0
POINT
  5
2DCF
330
2DA0
100
AcDbEntity
  8
Defpoints
 62
     0
100
AcDbPoint
 10
2123.371318514503
 20
549.9624340869327
 30
0.0
  0
ENDBLK
  5
2DAB
330
2DA0
100
AcDbEntity
  8
0
100
AcDbBlockEnd
  0
BLOCK
  5
2EB3
330
2EA9
100
AcDbEntity
  8
0
100
AcDbBlockBegin
  2
*D7
 70
     1
 10
0.0
 20
0.0
 30
0.0
  3
*D7
  1

  0
LINE
  5
2EB7
330
2EA9
100
AcDbEntity
  8
AM_5
100
AcDbLine
 10
2050.912984551748
 20
704.921125127035
 30
0.0
 11
2050.912984551748
 21
678.4211241170352
 31
0.0
  0
LINE
  5
2EB8
330
2EA9
100
AcDbEntity
  8
AM_5
100
AcDbLine
 10
2150.912984551748
 20
704.921125127035
 30
0.0
 11
2150.912984551748
 21
678.4211241170352
 31
0.0
  0
LINE
  5
2EB9
330
2EA9
100
AcDbEntity
  8
AM_5
100
AcDbLine
 10
2053.912984551748
 20
679.9211241170352
 30
0.0
 11
2147.912984551748
 21
679.9211241170352
 31
0.0
  0
SOLID
  5
2EBA
330
2EA9
100
AcDbEntity
  8
AM_5
100
AcDbTrace
 10
2053.912984551748
 20
680.4211241170352
 30
0.0
 11
2053.912984551748
 21
679.4211241170351
 31
0.0
 12
2050.912984551748
 22
679.9211241170352
 32
0.0
 13
2050.912984551748
 23
679.9211241170352
 33
0.0
  0
SOLID
  5
2EBB
330
2EA9
100
AcDbEntity
  8
AM_5
100
AcDbTrace
 10
2147.912984551748
 20
680.4211241170352
 30
0.0
 11
2147.912984551748
 21
679.4211241170351
 31
0.0
 12
2150.912984551748
 22
679.9211241170352
 32
0.0
 13
2150.912984551748
 23
679.9211241170352
 33
0.0
  0
MTEXT
  5
2EBC
330
2EA9
100
AcDbEntity
  8
AM_5
100
AcDbMText
 10
2100.912984551748
 20
682.4211241170352
 30
0.0
 40
3.0
 41
0.0
 71
     5
 72
     1
  1
100
  7
CHINESET
 73
     1
 44
1.0
1001
ACAD
1000
MTEXTBEGIN
1070
    73
1070
     1
1070
    44
1040
1.0
1070
    74
1070
     0
1000
MTEXTEND
  0
POINT
  5
2EBD
330
2EA9
100
AcDbEntity
  8
Defpoints
 62
     0
100
AcDbPoint
 10
2050.912984551748
 20
705.9211251270351
 30
0.0
  0
POINT
  5
2EBE
330
2EA9
100
AcDbEntity
  8
Defpoints
 62
     0
100
AcDbPoint
 10
2150.912984551748
 20
705.9211251270351
 30
0.0
  0
POINT
  5
2EBF
330
2EA9
100
AcDbEntity
  8
Defpoints
 62
     0
100
AcDbPoint
 10
2150.912984551748
 20
679.9211241170352
 30
0.0
  0
ENDBLK
  5
2EB4
330
2EA9
100
AcDbEntity
  8
0
100
AcDbBlockEnd
  0
BLOCK
  5
2EF9
330
2EEF
100
AcDbEntity
  8
0
100
AcDbBlockBegin
  2
*D8
 70
     1
 10
0.0
 20
0.0
 30
0.0
  3
*D8
  1

  0
LINE
  5
2F1F
330
2EEF
100
AcDbEntity
  8
AM_5
100
AcDbLine
 10
2133.996316626239
 20
159.2730235218529
 30
0.0
 11
2164.454650588993
 21
159.2730235218529
 31
0.0
  0
LINE
  5
2F20
330
2EEF
100
AcDbEntity
  8
AM_5
100
AcDbLine
 10
2123.454650588993
 20
257.2730235218529
 30
0.0
 11
2164.454650588993
 21
257.2730235218529
 31
0.0
  0
LINE
  5
2F21
330
2EEF
100
AcDbEntity
  8
AM_5
100
AcDbLine
 10
2162.954650588993
 20
162.2730235218529
 30
0.0
 11
2162.954650588993
 21
254.2730235218529
 31
0.0
  0
SOLID
  5
2F22
330
2EEF
100
AcDbEntity
  8
AM_5
100
AcDbTrace
 10
2162.454650588994
 20
162.2730235218529
 30
0.0
 11
2163.454650588993
 21
162.2730235218529
 31
0.0
 12
2162.954650588993
 22
159.2730235218529
 32
0.0
 13
2162.954650588993
 23
159.2730235218529
 33
0.0
  0
SOLID
  5
2F23
330
2EEF
100
AcDbEntity
  8
AM_5
100
AcDbTrace
 10
2162.454650588994
 20
254.2730235218529
 30
0.0
 11
2163.454650588993
 21
254.2730235218529
 31
0.0
 12
2162.954650588993
 22
257.2730235218529
 32
0.0
 13
2162.954650588993
 23
257.2730235218529
 33
0.0
  0
MTEXT
  5
2F24
330
2EEF
100
AcDbEntity
  8
AM_5
100
AcDbMText
 10
2160.454650588993
 20
208.2730235218533
 30
0.0
 40
3.0
 41
0.0
 71
     5
 72
     1
  1
98
  7
CHINESET
 11
0.0000000000000001
 21
1.0
 31
0.0
 73
     1
 44
1.0
1001
ACAD
1000
MTEXTBEGIN
1070
    73
1070
     1
1070
    44
1040
1.0
1070
    74
1070
     0
1000
MTEXTEND
  0
POINT
  5
2F25
330
2EEF
100
AcDbEntity
  8
Defpoints
 62
     0
100
AcDbPoint
 10
2132.996316626239
 20
159.2730235218529
 30
0.0
  0
POINT
  5
2F26
330
2EEF
100
AcDbEntity
  8
Defpoints
 62
     0
100
AcDbPoint
 10
2122.454650588994
 20
257.2730235218529
 30
0.0
  0
POINT
  5
2F27
330
2EEF
100
AcDbEntity
  8
Defpoints
 62
     0
100
AcDbPoint
 10
2162.954650588993
 20
257.2730235218529
 30
0.0
  0
ENDBLK
  5
2EFA
330
2EEF
100
AcDbEntity
  8
0
100
AcDbBlockEnd
  0
BLOCK
  5
2F05
330
2EFB
100
AcDbEntity
  8
0
100
AcDbBlockBegin
  2
*D9
 70
     1
 10
0.0
 20
0.0
 30
0.0
  3
*D9
  1

  0
LINE
  5
2F55
330
2EFB
100
AcDbEntity
  8
AM_5
100
AcDbLine
 10
2133.996316626239
 20
159.2730235218529
 30
0.0
 11
2174.454650588994
 21
159.2730235218529
 31
0.0
  0
LINE
  5
2F56
330
2EFB
100
AcDbEntity
  8
AM_5
100
AcDbLine
 10
2150.912984551748
 20
293.2730235218529
 30
0.0
 11
2174.454650588994
 21
293.2730235218529
 31
0.0
  0
LINE
  5
2F57
330
2EFB
100
AcDbEntity
  8
AM_5
100
AcDbLine
 10
2172.954650588994
 20
162.2730235218529
 30
0.0
 11
2172.954650588994
 21
290.2730235218529
 31
0.0
  0
SOLID
  5
2F58
330
2EFB
100
AcDbEntity
  8
AM_5
100
AcDbTrace
 10
2172.454650588994
 20
162.2730235218529
 30
0.0
 11
2173.454650588993
 21
162.2730235218529
 31
0.0
 12
2172.954650588994
 22
159.2730235218529
 32
0.0
 13
2172.954650588994
 23
159.2730235218529
 33
0.0
  0
SOLID
  5
2F59
330
2EFB
100
AcDbEntity
  8
AM_5
100
AcDbTrace
 10
2172.454650588994
 20
290.2730235218529
 30
0.0
 11
2173.454650588993
 21
290.2730235218529
 31
0.0
 12
2172.954650588994
 22
293.2730235218529
 32
0.0
 13
2172.954650588994
 23
293.2730235218529
 33
0.0
  0
MTEXT
  5
2F5A
330
2EFB
100
AcDbEntity
  8
AM_5
100
AcDbMText
 10
2170.454650588993
 20
226.2730235218532
 30
0.0
 40
3.0
 41
0.0
 71
     5
 72
     1
  1
134
  7
CHINESET
 11
0.0000000000000001
 21
1.0
 31
0.0
 73
     1
 44
1.0
1001
ACAD
1000
MTEXTBEGIN
1070
    73
1070
     1
1070
    44
1040
1.0
1070
    74
1070
     0
1000
MTEXTEND
  0
POINT
  5
2F5B
330
2EFB
100
AcDbEntity
  8
Defpoints
 62
     0
100
AcDbPoint
 10
2132.996316626239
 20
159.2730235218529
 30
0.0
  0
POINT
  5
2F5C
330
2EFB
100
AcDbEntity
  8
Defpoints
 62
     0
100
AcDbPoint
 10
2149.912984551749
 20
293.2730235218529
 30
0.0
  0
POINT
  5
2F5D
330
2EFB
100
AcDbEntity
  8
Defpoints
 62
     0
100
AcDbPoint
 10
2172.954650588994
 20
293.2730235218529
 30
0.0
  0
ENDBLK
  5
2F06
330
2EFB
100
AcDbEntity
  8
0
100
AcDbBlockEnd
  0
BLOCK
  5
2F11
330
2F07
100
AcDbEntity
  8
0
100
AcDbBlockBegin
  2
*D10
 70
     1
 10
0.0
 20
0.0
 30
0.0
  3
*D10
  1

  0
LINE
  5
2F4C
330
2F07
100
AcDbEntity
  8
AM_5
100
AcDbLine
 10
2150.912984551748
 20
312.2730235218529
 30
0.0
 11
2174.454650588994
 21
312.2730235218529
 31
0.0
  0
LINE
  5
2F4D
330
2F07
100
AcDbEntity
  8
AM_5
100
AcDbLine
 10
2150.912984551748
 20
293.2730235218529
 30
0.0
 11
2174.454650588994
 21
293.2730235218529
 31
0.0
  0
LINE
  5
2F4E
330
2F07
100
AcDbEntity
  8
AM_5
100
AcDbLine
 10
2172.954650588994
 20
309.2730235218529
 30
0.0
 11
2172.954650588994
 21
296.2730235218529
 31
0.0
  0
SOLID
  5
2F4F
330
2F07
100
AcDbEntity
  8
AM_5
100
AcDbTrace
 10
2172.454650588994
 20
309.2730235218529
 30
0.0
 11
2173.454650588993
 21
309.2730235218529
 31
0.0
 12
2172.954650588994
 22
312.2730235218529
 32
0.0
 13
2172.954650588994
 23
312.2730235218529
 33
0.0
  0
SOLID
  5
2F50
330
2F07
100
AcDbEntity
  8
AM_5
100
AcDbTrace
 10
2172.454650588994
 20
296.2730235218529
 30
0.0
 11
2173.454650588993
 21
296.2730235218529
 31
0.0
 12
2172.954650588994
 22
293.2730235218529
 32
0.0
 13
2172.954650588994
 23
293.2730235218529
 33
0.0
  0
MTEXT
  5
2F51
330
2F07
100
AcDbEntity
  8
AM_5
100
AcDbMText
 10
2170.454650588993
 20
302.7730235218533
 30
0.0
 40
3.0
 41
0.0
 71
     5
 72
     1
  1
19
  7
CHINESET
 11
0.0000000000000001
 21
1.0
 31
0.0
 73
     1
 44
1.0
1001
ACAD
1000
MTEXTBEGIN
1070
    73
1070
     1
1070
    44
1040
1.0
1070
    74
1070
     0
1000
MTEXTEND
  0
POINT
  5
2F52
330
2F07
100
AcDbEntity
  8
Defpoints
 62
     0
100
AcDbPoint
 10
2149.912984551749
 20
312.2730235218529
 30
0.0
  0
POINT
  5
2F53
330
2F07
100
AcDbEntity
  8
Defpoints
 62
     0
100
AcDbPoint
 10
2149.912984551749
 20
293.2730235218529
 30
0.0
  0
POINT
  5
2F54
330
2F07
100
AcDbEntity
  8
Defpoints
 62
     0
100
AcDbPoint
 10
2172.954650588994
 20
293.2730235218529
 30
0.0
  0
ENDBLK
  5
2F12
330
2F07
100
AcDbEntity
  8
0
100
AcDbBlockEnd
  0
BLOCK
  5
2F1D
330
2F13
100
AcDbEntity
  8
0
100
AcDbBlockBegin
  2
*D11
 70
     1
 10
0.0
 20
0.0
 30
0.0
  3
*D11
  1

  0
LINE
  5
2F3A
330
2F13
100
AcDbEntity
  8
AM_5
100
AcDbLine
 10
2078.412984551748
 20
207.2730235218529
 30
0.0
 11
2078.412984551748
 21
198.7793348959389
 31
0.0
  0
LINE
  5
2F3B
330
2F13
100
AcDbEntity
  8
AM_5
100
AcDbLine
 10
2123.412984551748
 20
207.2730235218529
 30
0.0
 11
2123.412984551748
 21
198.7793348959389
 31
0.0
  0
LINE
  5
2F3C
330
2F13
100
AcDbEntity
  8
AM_5
100
AcDbLine
 10
2081.412984551748
 20
200.2793348959389
 30
0.0
 11
2120.412984551748
 21
200.2793348959389
 31
0.0
  0
SOLID
  5
2F3D
330
2F13
100
AcDbEntity
  8
AM_5
100
AcDbTrace
 10
2081.412984551748
 20
200.7793348959389
 30
0.0
 11
2081.412984551748
 21
199.7793348959389
 31
0.0
 12
2078.412984551748
 22
200.2793348959389
 32
0.0
 13
2078.412984551748
 23
200.2793348959389
 33
0.0
  0
SOLID
  5
2F3E
330
2F13
100
AcDbEntity
  8
AM_5
100
AcDbTrace
 10
2120.412984551748
 20
200.7793348959389
 30
0.0
 11
2120.412984551748
 21
199.7793348959389
 31
0.0
 12
2123.412984551748
 22
200.2793348959389
 32
0.0
 13
2123.412984551748
 23
200.2793348959389
 33
0.0
  0
MTEXT
  5
2F3F
330
2F13
100
AcDbEntity
  8
AM_5
100
AcDbMText
 10
2100.912984551748
 20
202.7793348959389
 30
0.0
 40
3.0
 41
0.0
 71
     5
 72
     1
  1
M45x1.5
  7
CHINESET
 73
     1
 44
1.0
1001
ACAD
1000
MTEXTBEGIN
1070
    73
1070
     1
1070
    44
1040
1.0
1070
    74
1070
     0
1000
MTEXTEND
  0
POINT
  5
2F40
330
2F13
100
AcDbEntity
  8
Defpoints
 62
     0
100
AcDbPoint
 10
2078.412984551748
 20
208.273023521853
 30
0.0
  0
POINT
  5
2F41
330
2F13
100
AcDbEntity
  8
Defpoints
 62
     0
100
AcDbPoint
 10
2123.412984551748
 20
208.273023521853
 30
0.0
  0
POINT
  5
2F42
330
2F13
100
AcDbEntity
  8
Defpoints
 62
     0
100
AcDbPoint
 10
2123.412984551748
 20
200.2793348959389
 30
0.0
  0
ENDBLK
  5
2F1E
330
2F13
100
AcDbEntity
  8
0
100
AcDbBlockEnd
  0
BLOCK
  5
2F6B
330
2F61
100
AcDbEntity
  8
0
100
AcDbBlockBegin
  2
*D12
 70
     1
 10
0.0
 20
0.0
 30
0.0
  3
*D12
  1

  0
LINE
  5
2F6D
330
2F61
100
AcDbEntity
  8
AM_5
100
AcDbLine
 10
2050.871318514503
 20
355.2380259360413
 30
0.0
 11
2050.871318514503
 21
328.7380249260414
 31
0.0
  0
LINE
  5
2F6E
330
2F61
100
AcDbEntity
  8
AM_5
100
AcDbLine
 10
2150.871318514503
 20
355.2380259360413
 30
0.0
 11
2150.871318514503
 21
328.7380249260414
 31
0.0
  0
LINE
  5
2F6F
330
2F61
100
AcDbEntity
  8
AM_5
100
AcDbLine
 10
2053.871318514503
 20
330.2380249260413
 30
0.0
 11
2147.871318514503
 21
330.2380249260413
 31
0.0
  0
SOLID
  5
2F70
330
2F61
100
AcDbEntity
  8
AM_5
100
AcDbTrace
 10
2053.871318514503
 20
330.7380249260414
 30
0.0
 11
2053.871318514503
 21
329.7380249260414
 31
0.0
 12
2050.871318514503
 22
330.2380249260413
 32
0.0
 13
2050.871318514503
 23
330.2380249260413
 33
0.0
  0
SOLID
  5
2F71
330
2F61
100
AcDbEntity
  8
AM_5
100
AcDbTrace
 10
2147.871318514503
 20
330.7380249260414
 30
0.0
 11
2147.871318514503
 21
329.7380249260414
 31
0.0
 12
2150.871318514503
 22
330.2380249260413
 32
0.0
 13
2150.871318514503
 23
330.2380249260413
 33
0.0
  0
MTEXT
  5
2F72
330
2F61
100
AcDbEntity
  8
AM_5
100
AcDbMText
 10
2100.871318514503
 20
332.7380249260414
 30
0.0
 40
3.0
 41
0.0
 71
     5
 72
     1
  1
100
  7
CHINESET
 73
     1
 44
1.0
1001
ACAD
1000
MTEXTBEGIN
1070
    73
1070
     1
1070
    44
1040
1.0
1070
    74
1070
     0
1000
MTEXTEND
  0
POINT
  5
2F73
330
2F61
100
AcDbEntity
  8
Defpoints
 62
     0
100
AcDbPoint
 10
2050.871318514503
 20
356.2380259360413
 30
0.0
  0
POINT
  5
2F74
330
2F61
100
AcDbEntity
  8
Defpoints
 62
     0
100
AcDbPoint
 10
2150.871318514503
 20
356.2380259360413
 30
0.0
  0
POINT
  5
2F75
330
2F61
100
AcDbEntity
  8
Defpoints
 62
     0
100
AcDbPoint
 10
2150.871318514503
 20
330.2380249260413
 30
0.0
  0
ENDBLK
  5
2F6C
330
2F61
100
AcDbEntity
  8
0
100
AcDbBlockEnd
  0
BLOCK
  5
302E
330
3024
100
AcDbEntity
  8
0
100
AcDbBlockBegin
  2
*D13
 70
     1
 10
0.0
 20
0.0
 30
0.0
  3
*D13
  1

  0
LINE
  5
31EA
330
3024
100
AcDbEntity
  8
AM_5
100
AcDbLine
 10
2497.840300934328
 20
508.9561227128466
 30
0.0
 11
2537.340300934328
 21
508.9561227128466
 31
0.0
  0
LINE
  5
31EB
330
3024
100
AcDbEntity
  8
AM_5
100
AcDbLine
 10
2496.840300934327
 20
605.9561227128467
 30
0.0
 11
2537.340300934328
 21
605.9561227128467
 31
0.0
  0
LINE
  5
31EC
330
3024
100
AcDbEntity
  8
AM_5
100
AcDbLine
 10
2535.840300934327
 20
511.9561227128467
 30
0.0
 11
2535.840300934327
 21
602.9561227128468
 31
0.0
  0
SOLID
  5
31ED
330
3024
100
AcDbEntity
  8
AM_5
100
AcDbTrace
 10
2535.340300934328
 20
511.9561227128467
 30
0.0
 11
2536.340300934327
 21
511.9561227128467
 31
0.0
 12
2535.840300934327
 22
508.9561227128466
 32
0.0
 13
2535.840300934327
 23
508.9561227128466
 33
0.0
  0
SOLID
  5
31EE
330
3024
100
AcDbEntity
  8
AM_5
100
AcDbTrace
 10
2535.340300934328
 20
602.9561227128468
 30
0.0
 11
2536.340300934327
 21
602.9561227128468
 31
0.0
 12
2535.840300934327
 22
605.9561227128467
 32
0.0
 13
2535.840300934327
 23
605.9561227128467
 33
0.0
  0
MTEXT
  5
31EF
330
3024
100
AcDbEntity
  8
AM_5
100
AcDbMText
 10
2533.340300934328
 20
557.4561227128472
 30
0.0
 40
3.0
 41
0.0
 71
     5
 72
     1
  1
97
  7
CHINESET
 11
0.0000000000000001
 21
1.0
 31
0.0
 73
     1
 44
1.0
1001
ACAD
1000
MTEXTBEGIN
1070
    73
1070
     1
1070
    44
1040
1.0
1070
    74
1070
     0
1000
MTEXTEND
  0
POINT
  5
31F0
330
3024
100
AcDbEntity
  8
Defpoints
 62
     0
100
AcDbPoint
 10
2496.840300934327
 20
508.9561227128466
 30
0.0
  0
POINT
  5
31F1
330
3024
100
AcDbEntity
  8
Defpoints
 62
     0
100
AcDbPoint
 10
2495.840300934327
 20
605.9561227128467
 30
0.0
  0
POINT
  5
31F2
330
3024
100
AcDbEntity
  8
Defpoints
 62
     0
100
AcDbPoint
 10
2535.840300934327
 20
605.9561227128467
 30
0.0
  0
ENDBLK
  5
302F
330
3024
100
AcDbEntity
  8
0
100
AcDbBlockEnd
  0
BLOCK
  5
303A
330
3030
100
AcDbEntity
  8
0
100
AcDbBlockBegin
  2
*D14
 70
     1
 10
0.0
 20
0.0
 30
0.0
  3
*D14
  1

  0
LINE
  5
30A5
330
3030
100
AcDbEntity
  8
AM_5
100
AcDbLine
 10
2497.840300934328
 20
508.9561227128467
 30
0.0
 11
2547.340300934328
 21
508.9561227128467
 31
0.0
  0
LINE
  5
30A6
330
3030
100
AcDbEntity
  8
AM_5
100
AcDbLine
 10
2534.840300934328
 20
635.9561227128467
 30
0.0
 11
2547.340300934328
 21
635.9561227128467
 31
0.0
  0
LINE
  5
30A7
330
3030
100
AcDbEntity
  8
AM_5
100
AcDbLine
 10
2545.840300934328
 20
511.9561227128468
 30
0.0
 11
2545.840300934328
 21
632.9561227128468
 31
0.0
  0
SOLID
  5
30A8
330
3030
100
AcDbEntity
  8
AM_5
100
AcDbTrace
 10
2545.340300934328
 20
511.9561227128468
 30
0.0
 11
2546.340300934327
 21
511.9561227128468
 31
0.0
 12
2545.840300934328
 22
508.9561227128467
 32
0.0
 13
2545.840300934328
 23
508.9561227128467
 33
0.0
  0
SOLID
  5
30A9
330
3030
100
AcDbEntity
  8
AM_5
100
AcDbTrace
 10
2545.340300934328
 20
632.9561227128468
 30
0.0
 11
2546.340300934327
 21
632.9561227128468
 31
0.0
 12
2545.840300934328
 22
635.9561227128467
 32
0.0
 13
2545.840300934328
 23
635.9561227128467
 33
0.0
  0
MTEXT
  5
30AA
330
3030
100
AcDbEntity
  8
AM_5
100
AcDbMText
 10
2543.340300934327
 20
572.4561227128472
 30
0.0
 40
3.0
 41
0.0
 71
     5
 72
     1
  1
127
  7
CHINESET
 11
0.0000000000000001
 21
1.0
 31
0.0
 73
     1
 44
1.0
1001
ACAD
1000
MTEXTBEGIN
1070
    73
1070
     1
1070
    44
1040
1.0
1070
    74
1070
     0
1000
MTEXTEND
  0
POINT
  5
30AB
330
3030
100
AcDbEntity
  8
Defpoints
 62
     0
100
AcDbPoint
 10
2496.840300934327
 20
508.9561227128467
 30
0.0
  0
POINT
  5
30AC
330
3030
100
AcDbEntity
  8
Defpoints
 62
     0
100
AcDbPoint
 10
2533.840300934328
 20
635.9561227128467
 30
0.0
  0
POINT
  5
30AD
330
3030
100
AcDbEntity
  8
Defpoints
 62
     0
100
AcDbPoint
 10
2545.840300934328
 20
635.9561227128467
 30
0.0
  0
ENDBLK
  5
303B
330
3030
100
AcDbEntity
  8
0
100
AcDbBlockEnd
  0
BLOCK
  5
3046
330
303C
100
AcDbEntity
  8
0
100
AcDbBlockBegin
  2
*D15
 70
     1
 10
0.0
 20
0.0
 30
0.0
  3
*D15
  1

  0
LINE
  5
30AE
330
303C
100
AcDbEntity
  8
AM_5
100
AcDbLine
 10
2533.840300934328
 20
657.9561227128468
 30
0.0
 11
2547.340300934328
 21
657.9561227128468
 31
0.0
  0
LINE
  5
30AF
330
303C
100
AcDbEntity
  8
AM_5
100
AcDbLine
 10
2534.840300934328
 20
635.9561227128467
 30
0.0
 11
2547.340300934328
 21
635.9561227128467
 31
0.0
  0
LINE
  5
30B0
330
303C
100
AcDbEntity
  8
AM_5
100
AcDbLine
 10
2545.840300934328
 20
654.9561227128467
 30
0.0
 11
2545.840300934328
 21
638.9561227128467
 31
0.0
  0
SOLID
  5
30B1
330
303C
100
AcDbEntity
  8
AM_5
100
AcDbTrace
 10
2545.340300934328
 20
654.9561227128467
 30
0.0
 11
2546.340300934327
 21
654.9561227128467
 31
0.0
 12
2545.840300934328
 22
657.9561227128468
 32
0.0
 13
2545.840300934328
 23
657.9561227128468
 33
0.0
  0
SOLID
  5
30B2
330
303C
100
AcDbEntity
  8
AM_5
100
AcDbTrace
 10
2545.340300934328
 20
638.9561227128467
 30
0.0
 11
2546.340300934327
 21
638.9561227128467
 31
0.0
 12
2545.840300934328
 22
635.9561227128467
 32
0.0
 13
2545.840300934328
 23
635.9561227128467
 33
0.0
  0
MTEXT
  5
30B3
330
303C
100
AcDbEntity
  8
AM_5
100
AcDbMText
 10
2543.340300934327
 20
646.9561227128472
 30
0.0
 40
3.0
 41
0.0
 71
     5
 72
     1
  1
22
  7
CHINESET
 11
0.0000000000000001
 21
1.0
 31
0.0
 73
     1
 44
1.0
1001
ACAD
1000
MTEXTBEGIN
1070
    73
1070
     1
1070
    44
1040
1.0
1070
    74
1070
     0
1000
MTEXTEND
  0
POINT
  5
30B4
330
303C
100
AcDbEntity
  8
Defpoints
 62
     0
100
AcDbPoint
 10
2532.840300934328
 20
657.9561227128468
 30
0.0
  0
POINT
  5
30B5
330
303C
100
AcDbEntity
  8
Defpoints
 62
     0
100
AcDbPoint
 10
2533.840300934328
 20
635.9561227128467
 30
0.0
  0
POINT
  5
30B6
330
303C
100
AcDbEntity
  8
Defpoints
 62
     0
100
AcDbPoint
 10
2545.840300934328
 20
635.9561227128467
 30
0.0
  0
ENDBLK
  5
3047
330
303C
100
AcDbEntity
  8
0
100
AcDbBlockEnd
  0
BLOCK
  5
3052
330
3048
100
AcDbEntity
  8
0
100
AcDbBlockBegin
  2
*D16
 70
     1
 10
0.0
 20
0.0
 30
0.0
  3
*D16
  1

  0
LINE
  5
3081
330
3048
100
AcDbEntity
  8
AM_5
100
AcDbLine
 10
2448.840300934327
 20
551.9561227128467
 30
0.0
 11
2448.840300934327
 21
548.4624340869327
 31
0.0
  0
LINE
  5
3082
330
3048
100
AcDbEntity
  8
AM_5
100
AcDbLine
 10
2498.840300934328
 20
551.9561227128467
 30
0.0
 11
2498.840300934328
 21
548.4624340869327
 31
0.0
  0
LINE
  5
3083
330
3048
100
AcDbEntity
  8
AM_5
100
AcDbLine
 10
2451.840300934327
 20
549.9624340869327
 30
0.0
 11
2495.840300934327
 21
549.9624340869327
 31
0.0
  0
SOLID
  5
3084
330
3048
100
AcDbEntity
  8
AM_5
100
AcDbTrace
 10
2451.840300934327
 20
550.4624340869327
 30
0.0
 11
2451.840300934327
 21
549.4624340869327
 31
0.0
 12
2448.840300934327
 22
549.9624340869327
 32
0.0
 13
2448.840300934327
 23
549.9624340869327
 33
0.0
  0
SOLID
  5
3085
330
3048
100
AcDbEntity
  8
AM_5
100
AcDbTrace
 10
2495.840300934327
 20
550.4624340869327
 30
0.0
 11
2495.840300934327
 21
549.4624340869327
 31
0.0
 12
2498.840300934328
 22
549.9624340869327
 32
0.0
 13
2498.840300934328
 23
549.9624340869327
 33
0.0
  0
MTEXT
  5
3086
330
3048
100
AcDbEntity
  8
AM_5
100
AcDbMText
 10
2473.840300934327
 20
552.4624340869327
 30
0.0
 40
3.0
 41
0.0
 71
     5
 72
     1
  1
M50x1.5
  7
CHINESET
 73
     1
 44
1.0
1001
ACAD
1000
MTEXTBEGIN
1070
    73
1070
     1
1070
    44
1040
1.0
1070
    74
1070
     0
1000
MTEXTEND
  0
POINT
  5
3087
330
3048
100
AcDbEntity
  8
Defpoints
 62
     0
100
AcDbPoint
 10
2448.840300934327
 20
552.9561227128467
 30
0.0
  0
POINT
  5
3088
330
3048
100
AcDbEntity
  8
Defpoints
 62
     0
100
AcDbPoint
 10
2498.840300934328
 20
552.9561227128467
 30
0.0
  0
POINT
  5
3089
330
3048
100
AcDbEntity
  8
Defpoints
 62
     0
100
AcDbPoint
 10
2498.840300934328
 20
549.9624340869327
 30
0.0
  0
ENDBLK
  5
3053
330
3048
100
AcDbEntity
  8
0
100
AcDbBlockEnd
  0
BLOCK
  5
30D1
330
30C7
100
AcDbEntity
  8
0
100
AcDbBlockBegin
  2
*D17
 70
     1
 10
0.0
 20
0.0
 30
0.0
  3
*D17
  1

  0
LINE
  5
30E1
330
30C7
100
AcDbEntity
  8
AM_5
100
AcDbLine
 10
2413.840300934328
 20
713.2545736373656
 30
0.0
 11
2413.840300934328
 21
685.7545726273656
 31
0.0
  0
LINE
  5
30E2
330
30C7
100
AcDbEntity
  8
AM_5
100
AcDbLine
 10
2533.840300934328
 20
713.2545736373656
 30
0.0
 11
2533.840300934328
 21
685.7545726273656
 31
0.0
  0
LINE
  5
30E3
330
30C7
100
AcDbEntity
  8
AM_5
100
AcDbLine
 10
2416.840300934328
 20
687.2545726273656
 30
0.0
 11
2530.840300934328
 21
687.2545726273656
 31
0.0
  0
SOLID
  5
30E4
330
30C7
100
AcDbEntity
  8
AM_5
100
AcDbTrace
 10
2416.840300934328
 20
687.7545726273656
 30
0.0
 11
2416.840300934328
 21
686.7545726273656
 31
0.0
 12
2413.840300934328
 22
687.2545726273656
 32
0.0
 13
2413.840300934328
 23
687.2545726273656
 33
0.0
  0
SOLID
  5
30E5
330
30C7
100
AcDbEntity
  8
AM_5
100
AcDbTrace
 10
2530.840300934328
 20
687.7545726273656
 30
0.0
 11
2530.840300934328
 21
686.7545726273656
 31
0.0
 12
2533.840300934328
 22
687.2545726273656
 32
0.0
 13
2533.840300934328
 23
687.2545726273656
 33
0.0
  0
MTEXT
  5
30E6
330
30C7
100
AcDbEntity
  8
AM_5
100
AcDbMText
 10
2473.840300934327
 20
689.7545726273656
 30
0.0
 40
3.0
 41
0.0
 71
     5
 72
     1
  1
120
  7
CHINESET
 73
     1
 44
1.0
1001
ACAD
1000
MTEXTBEGIN
1070
    73
1070
     1
1070
    44
1040
1.0
1070
    74
1070
     0
1000
MTEXTEND
  0
POINT
  5
30E7
330
30C7
100
AcDbEntity
  8
Defpoints
 62
     0
100
AcDbPoint
 10
2413.840300934328
 20
714.2545736373656
 30
0.0
  0
POINT
  5
30E8
330
30C7
100
AcDbEntity
  8
Defpoints
 62
     0
100
AcDbPoint
 10
2533.840300934328
 20
714.2545736373656
 30
0.0
  0
POINT
  5
30E9
330
30C7
100
AcDbEntity
  8
Defpoints
 62
     0
100
AcDbPoint
 10
2533.840300934328
 20
687.2545726273656
 30
0.0
  0
ENDBLK
  5
30D2
330
30C7
100
AcDbEntity
  8
0
100
AcDbBlockEnd
  0
BLOCK
  5
3197
330
318D
100
AcDbEntity
  8
0
100
AcDbBlockBegin
  2
*D18
 70
     1
 10
0.0
 20
0.0
 30
0.0
  3
*D18
  1

  0
LINE
  5
31E1
330
318D
100
AcDbEntity
  8
AM_5
100
AcDbLine
 10
2497.840300934328
 20
159.2730235218529
 30
0.0
 11
2537.340300934328
 21
159.2730235218529
 31
0.0
  0
LINE
  5
31E2
330
318D
100
AcDbEntity
  8
AM_5
100
AcDbLine
 10
2496.840300934327
 20
256.2730235218529
 30
0.0
 11
2537.340300934328
 21
256.2730235218529
 31
0.0
  0
LINE
  5
31E3
330
318D
100
AcDbEntity
  8
AM_5
100
AcDbLine
 10
2535.840300934327
 20
162.2730235218529
 30
0.0
 11
2535.840300934327
 21
253.2730235218529
 31
0.0
  0
SOLID
  5
31E4
330
318D
100
AcDbEntity
  8
AM_5
100
AcDbTrace
 10
2535.340300934328
 20
162.2730235218529
 30
0.0
 11
2536.340300934327
 21
162.2730235218529
 31
0.0
 12
2535.840300934327
 22
159.2730235218529
 32
0.0
 13
2535.840300934327
 23
159.2730235218529
 33
0.0
  0
SOLID
  5
31E5
330
318D
100
AcDbEntity
  8
AM_5
100
AcDbTrace
 10
2535.340300934328
 20
253.2730235218529
 30
0.0
 11
2536.340300934327
 21
253.2730235218529
 31
0.0
 12
2535.840300934327
 22
256.2730235218529
 32
0.0
 13
2535.840300934327
 23
256.2730235218529
 33
0.0
  0
MTEXT
  5
31E6
330
318D
100
AcDbEntity
  8
AM_5
100
AcDbMText
 10
2533.340300934328
 20
207.7730235218533
 30
0.0
 40
3.0
 41
0.0
 71
     5
 72
     1
  1
97
  7
CHINESET
 11
0.0000000000000001
 21
1.0
 31
0.0
 73
     1
 44
1.0
1001
ACAD
1000
MTEXTBEGIN
1070
    73
1070
     1
1070
    44
1040
1.0
1070
    74
1070
     0
1000
MTEXTEND
  0
POINT
  5
31E7
330
318D
100
AcDbEntity
  8
Defpoints
 62
     0
100
AcDbPoint
 10
2496.840300934327
 20
159.2730235218529
 30
0.0
  0
POINT
  5
31E8
330
318D
100
AcDbEntity
  8
Defpoints
 62
     0
100
AcDbPoint
 10
2495.840300934327
 20
256.2730235218529
 30
0.0
  0
POINT
  5
31E9
330
318D
100
AcDbEntity
  8
Defpoints
 62
     0
100
AcDbPoint
 10
2535.840300934327
 20
256.2730235218529
 30
0.0
  0
ENDBLK
  5
3198
330
318D
100
AcDbEntity
  8
0
100
AcDbBlockEnd
  0
BLOCK
  5
31A3
330
3199
100
AcDbEntity
  8
0
100
AcDbBlockBegin
  2
*D19
 70
     1
 10
0.0
 20
0.0
 30
0.0
  3
*D19
  1

  0
LINE
  5
3205
330
3199
100
AcDbEntity
  8
AM_5
100
AcDbLine
 10
2497.840300934328
 20
159.2730235218529
 30
0.0
 11
2547.340300934328
 21
159.2730235218529
 31
0.0
  0
LINE
  5
3206
330
3199
100
AcDbEntity
  8
AM_5
100
AcDbLine
 10
2534.840300934328
 20
292.2730235218529
 30
0.0
 11
2547.340300934328
 21
292.2730235218529
 31
0.0
  0
LINE
  5
3207
330
3199
100
AcDbEntity
  8
AM_5
100
AcDbLine
 10
2545.840300934328
 20
162.2730235218529
 30
0.0
 11
2545.840300934328
 21
289.2730235218529
 31
0.0
  0
SOLID
  5
3208
330
3199
100
AcDbEntity
  8
AM_5
100
AcDbTrace
 10
2545.340300934328
 20
162.2730235218529
 30
0.0
 11
2546.340300934327
 21
162.2730235218529
 31
0.0
 12
2545.840300934328
 22
159.2730235218529
 32
0.0
 13
2545.840300934328
 23
159.2730235218529
 33
0.0
  0
SOLID
  5
3209
330
3199
100
AcDbEntity
  8
AM_5
100
AcDbTrace
 10
2545.340300934328
 20
289.2730235218529
 30
0.0
 11
2546.340300934327
 21
289.2730235218529
 31
0.0
 12
2545.840300934328
 22
292.2730235218529
 32
0.0
 13
2545.840300934328
 23
292.2730235218529
 33
0.0
  0
MTEXT
  5
320A
330
3199
100
AcDbEntity
  8
AM_5
100
AcDbMText
 10
2543.340300934327
 20
225.7730235218533
 30
0.0
 40
3.0
 41
0.0
 71
     5
 72
     1
  1
133
  7
CHINESET
 11
0.0000000000000001
 21
1.0
 31
0.0
 73
     1
 44
1.0
1001
ACAD
1000
MTEXTBEGIN
1070
    73
1070
     1
1070
    44
1040
1.0
1070
    74
1070
     0
1000
MTEXTEND
  0
POINT
  5
320B
330
3199
100
AcDbEntity
  8
Defpoints
 62
     0
100
AcDbPoint
 10
2496.840300934327
 20
159.2730235218529
 30
0.0
  0
POINT
  5
320C
330
3199
100
AcDbEntity
  8
Defpoints
 62
     0
100
AcDbPoint
 10
2533.840300934328
 20
292.2730235218529
 30
0.0
  0
POINT
  5
320D
330
3199
100
AcDbEntity
  8
Defpoints
 62
     0
100
AcDbPoint
 10
2545.840300934328
 20
292.2730235218529
 30
0.0
  0
ENDBLK
  5
31A4
330
3199
100
AcDbEntity
  8
0
100
AcDbBlockEnd
  0
BLOCK
  5
31AF
330
31A5
100
AcDbEntity
  8
0
100
AcDbBlockBegin
  2
*D20
 70
     1
 10
0.0
 20
0.0
 30
0.0
  3
*D20
  1

  0
LINE
  5
31FC
330
31A5
100
AcDbEntity
  8
AM_5
100
AcDbLine
 10
2533.840300934328
 20
314.2730235218529
 30
0.0
 11
2547.340300934328
 21
314.2730235218529
 31
0.0
  0
LINE
  5
31FD
330
31A5
100
AcDbEntity
  8
AM_5
100
AcDbLine
 10
2534.840300934328
 20
292.2730235218529
 30
0.0
 11
2547.340300934328
 21
292.2730235218529
 31
0.0
  0
LINE
  5
31FE
330
31A5
100
AcDbEntity
  8
AM_5
100
AcDbLine
 10
2545.840300934328
 20
311.2730235218529
 30
0.0
 11
2545.840300934328
 21
295.2730235218529
 31
0.0
  0
SOLID
  5
31FF
330
31A5
100
AcDbEntity
  8
AM_5
100
AcDbTrace
 10
2545.340300934328
 20
311.2730235218529
 30
0.0
 11
2546.340300934327
 21
311.2730235218529
 31
0.0
 12
2545.840300934328
 22
314.2730235218529
 32
0.0
 13
2545.840300934328
 23
314.2730235218529
 33
0.0
  0
SOLID
  5
3200
330
31A5
100
AcDbEntity
  8
AM_5
100
AcDbTrace
 10
2545.340300934328
 20
295.2730235218529
 30
0.0
 11
2546.340300934327
 21
295.2730235218529
 31
0.0
 12
2545.840300934328
 22
292.2730235218529
 32
0.0
 13
2545.840300934328
 23
292.2730235218529
 33
0.0
  0
MTEXT
  5
3201
330
31A5
100
AcDbEntity
  8
AM_5
100
AcDbMText
 10
2543.340300934327
 20
303.2730235218533
 30
0.0
 40
3.0
 41
0.0
 71
     5
 72
     1
  1
22
  7
CHINESET
 11
0.0000000000000001
 21
1.0
 31
0.0
 73
     1
 44
1.0
1001
ACAD
1000
MTEXTBEGIN
1070
    73
1070
     1
1070
    44
1040
1.0
1070
    74
1070
     0
1000
MTEXTEND
  0
POINT
  5
3202
330
31A5
100
AcDbEntity
  8
Defpoints
 62
     0
100
AcDbPoint
 10
2532.840300934328
 20
314.2730235218529
 30
0.0
  0
POINT
  5
3203
330
31A5
100
AcDbEntity
  8
Defpoints
 62
     0
100
AcDbPoint
 10
2533.840300934328
 20
292.2730235218529
 30
0.0
  0
POINT
  5
3204
330
31A5
100
AcDbEntity
  8
Defpoints
 62
     0
100
AcDbPoint
 10
2545.840300934328
 20
292.2730235218529
 30
0.0
  0
ENDBLK
  5
31B0
330
31A5
100
AcDbEntity
  8
0
100
AcDbBlockEnd
  0
BLOCK
  5
31BB
330
31B1
100
AcDbEntity
  8
0
100
AcDbBlockBegin
  2
*D21
 70
     1
 10
0.0
 20
0.0
 30
0.0
  3
*D21
  1

  0
LINE
  5
31D8
330
31B1
100
AcDbEntity
  8
AM_5
100
AcDbLine
 10
2448.840300934327
 20
202.273023521853
 30
0.0
 11
2448.840300934327
 21
198.7793348959389
 31
0.0
  0
LINE
  5
31D9
330
31B1
100
AcDbEntity
  8
AM_5
100
AcDbLine
 10
2498.840300934328
 20
202.273023521853
 30
0.0
 11
2498.840300934328
 21
198.7793348959389
 31
0.0
  0
LINE
  5
31DA
330
31B1
100
AcDbEntity
  8
AM_5
100
AcDbLine
 10
2451.840300934327
 20
200.2793348959389
 30
0.0
 11
2495.840300934327
 21
200.2793348959389
 31
0.0
  0
SOLID
  5
31DB
330
31B1
100
AcDbEntity
  8
AM_5
100
AcDbTrace
 10
2451.840300934327
 20
200.7793348959389
 30
0.0
 11
2451.840300934327
 21
199.7793348959389
 31
0.0
 12
2448.840300934327
 22
200.2793348959389
 32
0.0
 13
2448.840300934327
 23
200.2793348959389
 33
0.0
  0
SOLID
  5
31DC
330
31B1
100
AcDbEntity
  8
AM_5
100
AcDbTrace
 10
2495.840300934327
 20
200.7793348959389
 30
0.0
 11
2495.840300934327
 21
199.7793348959389
 31
0.0
 12
2498.840300934328
 22
200.2793348959389
 32
0.0
 13
2498.840300934328
 23
200.2793348959389
 33
0.0
  0
MTEXT
  5
31DD
330
31B1
100
AcDbEntity
  8
AM_5
100
AcDbMText
 10
2473.840300934327
 20
202.7793348959389
 30
0.0
 40
3.0
 41
0.0
 71
     5
 72
     1
  1
M50x1.5
  7
CHINESET
 73
     1
 44
1.0
1001
ACAD
1000
MTEXTBEGIN
1070
    73
1070
     1
1070
    44
1040
1.0
1070
    74
1070
     0
1000
MTEXTEND
  0
POINT
  5
31DE
330
31B1
100
AcDbEntity
  8
Defpoints
 62
     0
100
AcDbPoint
 10
2448.840300934327
 20
203.2730235218529
 30
0.0
  0
POINT
  5
31DF
330
31B1
100
AcDbEntity
  8
Defpoints
 62
     0
100
AcDbPoint
 10
2498.840300934328
 20
203.2730235218529
 30
0.0
  0
POINT
  5
31E0
330
31B1
100
AcDbEntity
  8
Defpoints
 62
     0
100
AcDbPoint
 10
2498.840300934328
 20
200.2793348959389
 30
0.0
  0
ENDBLK
  5
31BC
330
31B1
100
AcDbEntity
  8
0
100
AcDbBlockEnd
  0
BLOCK
  5
321B
330
3211
100
AcDbEntity
  8
0
100
AcDbBlockBegin
  2
*D22
 70
     1
 10
0.0
 20
0.0
 30
0.0
  3
*D22
  1

  0
LINE
  5
321D
330
3211
100
AcDbEntity
  8
AM_5
100
AcDbLine
 10
2413.840300934328
 20
362.3928450543459
 30
0.0
 11
2413.840300934328
 21
334.8928440443459
 31
0.0
  0
LINE
  5
321E
330
3211
100
AcDbEntity
  8
AM_5
100
AcDbLine
 10
2533.840300934328
 20
362.3928450543459
 30
0.0
 11
2533.840300934328
 21
334.8928440443459
 31
0.0
  0
LINE
  5
321F
330
3211
100
AcDbEntity
  8
AM_5
100
AcDbLine
 10
2416.840300934328
 20
336.3928440443459
 30
0.0
 11
2530.840300934328
 21
336.3928440443459
 31
0.0
  0
SOLID
  5
3220
330
3211
100
AcDbEntity
  8
AM_5
100
AcDbTrace
 10
2416.840300934328
 20
336.8928440443459
 30
0.0
 11
2416.840300934328
 21
335.8928440443459
 31
0.0
 12
2413.840300934328
 22
336.3928440443459
 32
0.0
 13
2413.840300934328
 23
336.3928440443459
 33
0.0
  0
SOLID
  5
3221
330
3211
100
AcDbEntity
  8
AM_5
100
AcDbTrace
 10
2530.840300934328
 20
336.8928440443459
 30
0.0
 11
2530.840300934328
 21
335.8928440443459
 31
0.0
 12
2533.840300934328
 22
336.3928440443459
 32
0.0
 13
2533.840300934328
 23
336.3928440443459
 33
0.0
  0
MTEXT
  5
3222
330
3211
100
AcDbEntity
  8
AM_5
100
AcDbMText
 10
2473.840300934327
 20
338.8928440443459
 30
0.0
 40
3.0
 41
0.0
 71
     5
 72
     1
  1
120
  7
CHINESET
 73
     1
 44
1.0
1001
ACAD
1000
MTEXTBEGIN
1070
    73
1070
     1
1070
    44
1040
1.0
1070
    74
1070
     0
1000
MTEXTEND
  0
POINT
  5
3223
330
3211
100
AcDbEntity
  8
Defpoints
 62
     0
100
AcDbPoint
 10
2413.840300934328
 20
363.3928450543459
 30
0.0
  0
POINT
  5
3224
330
3211
100
AcDbEntity
  8
Defpoints
 62
     0
100
AcDbPoint
 10
2533.840300934328
 20
363.3928450543459
 30
0.0
  0
POINT
  5
3225
330
3211
100
AcDbEntity
  8
Defpoints
 62
     0
100
AcDbPoint
 10
2533.840300934328
 20
336.3928440443459
 30
0.0
  0
ENDBLK
  5
321C
330
3211
100
AcDbEntity
  8
0
100
AcDbBlockEnd
  0
BLOCK
  5
32D6
330
32CC
100
AcDbEntity
  8
0
100
AcDbBlockBegin
  2
*D23
 70
     1
 10
0.0
 20
0.0
 30
0.0
  3
*D23
  1

  0
LINE
  5
3377
330
32CC
100
AcDbEntity
  8
AM_5
100
AcDbLine
 10
2866.20617379079
 20
508.9561227128467
 30
0.0
 11
2900.706173790791
 21
508.9561227128467
 31
0.0
  0
LINE
  5
3378
330
32CC
100
AcDbEntity
  8
AM_5
100
AcDbLine
 10
2866.206173790791
 20
606.9561227128467
 30
0.0
 11
2900.706173790791
 21
606.9561227128467
 31
0.0
  0
LINE
  5
3379
330
32CC
100
AcDbEntity
  8
AM_5
100
AcDbLine
 10
2899.206173790791
 20
511.9561227128468
 30
0.0
 11
2899.206173790791
 21
603.9561227128467
 31
0.0
  0
SOLID
  5
337A
330
32CC
100
AcDbEntity
  8
AM_5
100
AcDbTrace
 10
2898.70617379079
 20
511.9561227128468
 30
0.0
 11
2899.70617379079
 21
511.9561227128468
 31
0.0
 12
2899.206173790791
 22
508.9561227128467
 32
0.0
 13
2899.206173790791
 23
508.9561227128467
 33
0.0
  0
SOLID
  5
337B
330
32CC
100
AcDbEntity
  8
AM_5
100
AcDbTrace
 10
2898.70617379079
 20
603.9561227128467
 30
0.0
 11
2899.70617379079
 21
603.9561227128467
 31
0.0
 12
2899.206173790791
 22
606.9561227128467
 32
0.0
 13
2899.206173790791
 23
606.9561227128467
 33
0.0
  0
MTEXT
  5
337C
330
32CC
100
AcDbEntity
  8
AM_5
100
AcDbMText
 10
2896.70617379079
 20
557.9561227128472
 30
0.0
 40
3.0
 41
0.0
 71
     5
 72
     1
  1
98
  7
CHINESET
 11
0.0000000000000001
 21
1.0
 31
0.0
 73
     1
 44
1.0
1001
ACAD
1000
MTEXTBEGIN
1070
    73
1070
     1
1070
    44
1040
1.0
1070
    74
1070
     0
1000
MTEXTEND
  0
POINT
  5
337D
330
32CC
100
AcDbEntity
  8
Defpoints
 62
     0
100
AcDbPoint
 10
2865.20617379079
 20
508.9561227128467
 30
0.0
  0
POINT
  5
337E
330
32CC
100
AcDbEntity
  8
Defpoints
 62
     0
100
AcDbPoint
 10
2865.206173790791
 20
606.9561227128467
 30
0.0
  0
POINT
  5
337F
330
32CC
100
AcDbEntity
  8
Defpoints
 62
     0
100
AcDbPoint
 10
2899.206173790791
 20
606.9561227128467
 30
0.0
  0
ENDBLK
  5
32D7
330
32CC
100
AcDbEntity
  8
0
100
AcDbBlockEnd
  0
BLOCK
  5
32E2
330
32D8
100
AcDbEntity
  8
0
100
AcDbBlockBegin
  2
*D24
 70
     1
 10
0.0
 20
0.0
 30
0.0
  3
*D24
  1

  0
LINE
  5
336E
330
32D8
100
AcDbEntity
  8
AM_5
100
AcDbLine
 10
2866.20617379079
 20
508.9561227128468
 30
0.0
 11
2920.706173790791
 21
508.9561227128468
 31
0.0
  0
LINE
  5
336F
330
32D8
100
AcDbEntity
  8
AM_5
100
AcDbLine
 10
2907.20617379079
 20
635.9562033346494
 30
0.0
 11
2920.706173790791
 21
635.9562033346494
 31
0.0
  0
LINE
  5
3370
330
32D8
100
AcDbEntity
  8
AM_5
100
AcDbLine
 10
2919.20617379079
 20
511.9561227128468
 30
0.0
 11
2919.20617379079
 21
632.9562033346494
 31
0.0
  0
SOLID
  5
3371
330
32D8
100
AcDbEntity
  8
AM_5
100
AcDbTrace
 10
2918.70617379079
 20
511.9561227128468
 30
0.0
 11
2919.70617379079
 21
511.9561227128468
 31
0.0
 12
2919.20617379079
 22
508.9561227128468
 32
0.0
 13
2919.20617379079
 23
508.9561227128468
 33
0.0
  0
SOLID
  5
3372
330
32D8
100
AcDbEntity
  8
AM_5
100
AcDbTrace
 10
2918.70617379079
 20
632.9562033346494
 30
0.0
 11
2919.70617379079
 21
632.9562033346494
 31
0.0
 12
2919.20617379079
 22
635.9562033346494
 32
0.0
 13
2919.20617379079
 23
635.9562033346494
 33
0.0
  0
MTEXT
  5
3373
330
32D8
100
AcDbEntity
  8
AM_5
100
AcDbMText
 10
2916.706173790791
 20
572.4561630237485
 30
0.0
 40
3.0
 41
0.0
 71
     5
 72
     1
  1
127
  7
CHINESET
 11
0.0000000000000001
 21
1.0
 31
0.0
 73
     1
 44
1.0
1001
ACAD
1000
MTEXTBEGIN
1070
    73
1070
     1
1070
    44
1040
1.0
1070
    74
1070
     0
1000
MTEXTEND
  0
POINT
  5
3374
330
32D8
100
AcDbEntity
  8
Defpoints
 62
     0
100
AcDbPoint
 10
2865.20617379079
 20
508.9561227128468
 30
0.0
  0
POINT
  5
3375
330
32D8
100
AcDbEntity
  8
Defpoints
 62
     0
100
AcDbPoint
 10
2906.206173790791
 20
635.9562033346494
 30
0.0
  0
POINT
  5
3376
330
32D8
100
AcDbEntity
  8
Defpoints
 62
     0
100
AcDbPoint
 10
2919.20617379079
 20
635.9562033346494
 30
0.0
  0
ENDBLK
  5
32E3
330
32D8
100
AcDbEntity
  8
0
100
AcDbBlockEnd
  0
BLOCK
  5
32EE
330
32E4
100
AcDbEntity
  8
0
100
AcDbBlockBegin
  2
*D25
 70
     1
 10
0.0
 20
0.0
 30
0.0
  3
*D25
  1

  0
LINE
  5
335C
330
32E4
100
AcDbEntity
  8
AM_5
100
AcDbLine
 10
2907.20617379079
 20
660.9562033346494
 30
0.0
 11
2920.706173790791
 21
660.9562033346494
 31
0.0
  0
LINE
  5
335D
330
32E4
100
AcDbEntity
  8
AM_5
100
AcDbLine
 10
2907.20617379079
 20
635.9562033346494
 30
0.0
 11
2920.706173790791
 21
635.9562033346494
 31
0.0
  0
LINE
  5
335E
330
32E4
100
AcDbEntity
  8
AM_5
100
AcDbLine
 10
2919.20617379079
 20
657.9562033346494
 30
0.0
 11
2919.20617379079
 21
638.9562033346494
 31
0.0
  0
SOLID
  5
335F
330
32E4
100
AcDbEntity
  8
AM_5
100
AcDbTrace
 10
2918.70617379079
 20
657.9562033346494
 30
0.0
 11
2919.70617379079
 21
657.9562033346494
 31
0.0
 12
2919.20617379079
 22
660.9562033346494
 32
0.0
 13
2919.20617379079
 23
660.9562033346494
 33
0.0
  0
SOLID
  5
3360
330
32E4
100
AcDbEntity
  8
AM_5
100
AcDbTrace
 10
2918.70617379079
 20
638.9562033346494
 30
0.0
 11
2919.70617379079
 21
638.9562033346494
 31
0.0
 12
2919.20617379079
 22
635.9562033346494
 32
0.0
 13
2919.20617379079
 23
635.9562033346494
 33
0.0
  0
MTEXT
  5
3361
330
32E4
100
AcDbEntity
  8
AM_5
100
AcDbMText
 10
2916.706173790791
 20
648.4562033346499
 30
0.0
 40
3.0
 41
0.0
 71
     5
 72
     1
  1
25
  7
CHINESET
 11
0.0000000000000001
 21
1.0
 31
0.0
 73
     1
 44
1.0
1001
ACAD
1000
MTEXTBEGIN
1070
    73
1070
     1
1070
    44
1040
1.0
1070
    74
1070
     0
1000
MTEXTEND
  0
POINT
  5
3362
330
32E4
100
AcDbEntity
  8
Defpoints
 62
     0
100
AcDbPoint
 10
2906.206173790791
 20
660.9562033346494
 30
0.0
  0
POINT
  5
3363
330
32E4
100
AcDbEntity
  8
Defpoints
 62
     0
100
AcDbPoint
 10
2906.206173790791
 20
635.9562033346494
 30
0.0
  0
POINT
  5
3364
330
32E4
100
AcDbEntity
  8
Defpoints
 62
     0
100
AcDbPoint
 10
2919.20617379079
 20
635.9562033346494
 30
0.0
  0
ENDBLK
  5
32EF
330
32E4
100
AcDbEntity
  8
0
100
AcDbBlockEnd
  0
BLOCK
  5
32FA
330
32F0
100
AcDbEntity
  8
0
100
AcDbBlockBegin
  2
*D26
 70
     1
 10
0.0
 20
0.0
 30
0.0
  3
*D26
  1

  0
LINE
  5
3329
330
32F0
100
AcDbEntity
  8
AM_5
100
AcDbLine
 10
2807.20617379079
 20
552.9561227128467
 30
0.0
 11
2807.20617379079
 21
548.4624340869327
 31
0.0
  0
LINE
  5
332A
330
32F0
100
AcDbEntity
  8
AM_5
100
AcDbLine
 10
2867.206173790791
 20
552.9561227128467
 30
0.0
 11
2867.206173790791
 21
548.4624340869327
 31
0.0
  0
LINE
  5
332B
330
32F0
100
AcDbEntity
  8
AM_5
100
AcDbLine
 10
2810.20617379079
 20
549.9624340869327
 30
0.0
 11
2864.206173790791
 21
549.9624340869327
 31
0.0
  0
SOLID
  5
332C
330
32F0
100
AcDbEntity
  8
AM_5
100
AcDbTrace
 10
2810.20617379079
 20
550.4624340869327
 30
0.0
 11
2810.20617379079
 21
549.4624340869327
 31
0.0
 12
2807.20617379079
 22
549.9624340869327
 32
0.0
 13
2807.20617379079
 23
549.9624340869327
 33
0.0
  0
SOLID
  5
332D
330
32F0
100
AcDbEntity
  8
AM_5
100
AcDbTrace
 10
2864.206173790791
 20
550.4624340869327
 30
0.0
 11
2864.206173790791
 21
549.4624340869327
 31
0.0
 12
2867.206173790791
 22
549.9624340869327
 32
0.0
 13
2867.206173790791
 23
549.9624340869327
 33
0.0
  0
MTEXT
  5
332E
330
32F0
100
AcDbEntity
  8
AM_5
100
AcDbMText
 10
2837.206173790791
 20
552.4624340869327
 30
0.0
 40
3.0
 41
0.0
 71
     5
 72
     1
  1
M60x1.5
  7
CHINESET
 73
     1
 44
1.0
1001
ACAD
1000
MTEXTBEGIN
1070
    73
1070
     1
1070
    44
1040
1.0
1070
    74
1070
     0
1000
MTEXTEND
  0
POINT
  5
332F
330
32F0
100
AcDbEntity
  8
Defpoints
 62
     0
100
AcDbPoint
 10
2807.20617379079
 20
553.9561227128467
 30
0.0
  0
POINT
  5
3330
330
32F0
100
AcDbEntity
  8
Defpoints
 62
     0
100
AcDbPoint
 10
2867.206173790791
 20
553.9561227128467
 30
0.0
  0
POINT
  5
3331
330
32F0
100
AcDbEntity
  8
Defpoints
 62
     0
100
AcDbPoint
 10
2867.206173790791
 20
549.9624340869327
 30
0.0
  0
ENDBLK
  5
32FB
330
32F0
100
AcDbEntity
  8
0
100
AcDbBlockEnd
  0
BLOCK
  5
338E
330
3384
100
AcDbEntity
  8
0
100
AcDbBlockBegin
  2
*D27
 70
     1
 10
0.0
 20
0.0
 30
0.0
  3
*D27
  1

  0
LINE
  5
33B4
330
3384
100
AcDbEntity
  8
AM_5
100
AcDbLine
 10
2767.206078826329
 20
722.2336132204491
 30
0.0
 11
2767.206078826329
 21
690.185580200347
 31
0.0
  0
LINE
  5
33B5
330
3384
100
AcDbEntity
  8
AM_5
100
AcDbLine
 10
2907.206078826329
 20
722.2336132204491
 30
0.0
 11
2907.206078826329
 21
690.185580200347
 31
0.0
  0
LINE
  5
33B6
330
3384
100
AcDbEntity
  8
AM_5
100
AcDbLine
 10
2770.206078826329
 20
691.6855802003469
 30
0.0
 11
2904.206078826329
 21
691.6855802003469
 31
0.0
  0
SOLID
  5
33B7
330
3384
100
AcDbEntity
  8
AM_5
100
AcDbTrace
 10
2770.206078826329
 20
692.1855802003469
 30
0.0
 11
2770.206078826329
 21
691.1855802003469
 31
0.0
 12
2767.206078826329
 22
691.6855802003469
 32
0.0
 13
2767.206078826329
 23
691.6855802003469
 33
0.0
  0
SOLID
  5
33B8
330
3384
100
AcDbEntity
  8
AM_5
100
AcDbTrace
 10
2904.206078826329
 20
692.1855802003469
 30
0.0
 11
2904.206078826329
 21
691.1855802003469
 31
0.0
 12
2907.206078826329
 22
691.6855802003469
 32
0.0
 13
2907.206078826329
 23
691.6855802003469
 33
0.0
  0
MTEXT
  5
33B9
330
3384
100
AcDbEntity
  8
AM_5
100
AcDbMText
 10
2837.206078826329
 20
694.185580200347
 30
0.0
 40
3.0
 41
0.0
 71
     5
 72
     1
  1
140
  7
CHINESET
 73
     1
 44
1.0
1001
ACAD
1000
MTEXTBEGIN
1070
    73
1070
     1
1070
    44
1040
1.0
1070
    74
1070
     0
1000
MTEXTEND
  0
POINT
  5
33BA
330
3384
100
AcDbEntity
  8
Defpoints
 62
     0
100
AcDbPoint
 10
2767.206078826329
 20
723.2336132204491
 30
0.0
  0
POINT
  5
33BB
330
3384
100
AcDbEntity
  8
Defpoints
 62
     0
100
AcDbPoint
 10
2907.206078826329
 20
723.2336132204491
 30
0.0
  0
POINT
  5
33BC
330
3384
100
AcDbEntity
  8
Defpoints
 62
     0
100
AcDbPoint
 10
2907.206078826329
 20
691.6855802003469
 30
0.0
  0
ENDBLK
  5
338F
330
3384
100
AcDbEntity
  8
0
100
AcDbBlockEnd
  0
BLOCK
  5
3482
330
3478
100
AcDbEntity
  8
0
100
AcDbBlockBegin
  2
*D28
 70
     1
 10
0.0
 20
0.0
 30
0.0
  3
*D28
  1

  0
LINE
  5
34A8
330
3478
100
AcDbEntity
  8
AM_5
100
AcDbLine
 10
2866.20617379079
 20
159.2730235218529
 30
0.0
 11
2900.706173790791
 21
159.2730235218529
 31
0.0
  0
LINE
  5
34A9
330
3478
100
AcDbEntity
  8
AM_5
100
AcDbLine
 10
2866.206173790791
 20
257.2730235218529
 30
0.0
 11
2900.706173790791
 21
257.2730235218529
 31
0.0
  0
LINE
  5
34AA
330
3478
100
AcDbEntity
  8
AM_5
100
AcDbLine
 10
2899.206173790791
 20
162.2730235218529
 30
0.0
 11
2899.206173790791
 21
254.2730235218529
 31
0.0
  0
SOLID
  5
34AB
330
3478
100
AcDbEntity
  8
AM_5
100
AcDbTrace
 10
2898.70617379079
 20
162.2730235218529
 30
0.0
 11
2899.70617379079
 21
162.2730235218529
 31
0.0
 12
2899.206173790791
 22
159.2730235218529
 32
0.0
 13
2899.206173790791
 23
159.2730235218529
 33
0.0
  0
SOLID
  5
34AC
330
3478
100
AcDbEntity
  8
AM_5
100
AcDbTrace
 10
2898.70617379079
 20
254.2730235218529
 30
0.0
 11
2899.70617379079
 21
254.2730235218529
 31
0.0
 12
2899.206173790791
 22
257.2730235218529
 32
0.0
 13
2899.206173790791
 23
257.2730235218529
 33
0.0
  0
MTEXT
  5
34AD
330
3478
100
AcDbEntity
  8
AM_5
100
AcDbMText
 10
2896.70617379079
 20
208.2730235218534
 30
0.0
 40
3.0
 41
0.0
 71
     5
 72
     1
  1
98
  7
CHINESET
 11
0.0000000000000001
 21
1.0
 31
0.0
 73
     1
 44
1.0
1001
ACAD
1000
MTEXTBEGIN
1070
    73
1070
     1
1070
    44
1040
1.0
1070
    74
1070
     0
1000
MTEXTEND
  0
POINT
  5
34AE
330
3478
100
AcDbEntity
  8
Defpoints
 62
     0
100
AcDbPoint
 10
2865.20617379079
 20
159.2730235218529
 30
0.0
  0
POINT
  5
34AF
330
3478
100
AcDbEntity
  8
Defpoints
 62
     0
100
AcDbPoint
 10
2865.206173790791
 20
257.2730235218529
 30
0.0
  0
POINT
  5
34B0
330
3478
100
AcDbEntity
  8
Defpoints
 62
     0
100
AcDbPoint
 10
2899.206173790791
 20
257.2730235218529
 30
0.0
  0
ENDBLK
  5
3483
330
3478
100
AcDbEntity
  8
0
100
AcDbBlockEnd
  0
BLOCK
  5
348E
330
3484
100
AcDbEntity
  8
0
100
AcDbBlockBegin
  2
*D29
 70
     1
 10
0.0
 20
0.0
 30
0.0
  3
*D29
  1

  0
LINE
  5
34DE
330
3484
100
AcDbEntity
  8
AM_5
100
AcDbLine
 10
2866.20617379079
 20
159.2730235218529
 30
0.0
 11
2920.706173790791
 21
159.2730235218529
 31
0.0
  0
LINE
  5
34DF
330
3484
100
AcDbEntity
  8
AM_5
100
AcDbLine
 10
2907.20617379079
 20
293.2731041436556
 30
0.0
 11
2920.706173790791
 21
293.2731041436556
 31
0.0
  0
LINE
  5
34E0
330
3484
100
AcDbEntity
  8
AM_5
100
AcDbLine
 10
2919.20617379079
 20
162.2730235218529
 30
0.0
 11
2919.20617379079
 21
290.2731041436556
 31
0.0
  0
SOLID
  5
34E1
330
3484
100
AcDbEntity
  8
AM_5
100
AcDbTrace
 10
2918.70617379079
 20
162.2730235218529
 30
0.0
 11
2919.70617379079
 21
162.2730235218529
 31
0.0
 12
2919.20617379079
 22
159.2730235218529
 32
0.0
 13
2919.20617379079
 23
159.2730235218529
 33
0.0
  0
SOLID
  5
34E2
330
3484
100
AcDbEntity
  8
AM_5
100
AcDbTrace
 10
2918.70617379079
 20
290.2731041436556
 30
0.0
 11
2919.70617379079
 21
290.2731041436556
 31
0.0
 12
2919.20617379079
 22
293.2731041436556
 32
0.0
 13
2919.20617379079
 23
293.2731041436556
 33
0.0
  0
MTEXT
  5
34E3
330
3484
100
AcDbEntity
  8
AM_5
100
AcDbMText
 10
2916.706173790791
 20
226.2730638327547
 30
0.0
 40
3.0
 41
0.0
 71
     5
 72
     1
  1
134
  7
CHINESET
 11
0.0000000000000001
 21
1.0
 31
0.0
 73
     1
 44
1.0
1001
ACAD
1000
MTEXTBEGIN
1070
    73
1070
     1
1070
    44
1040
1.0
1070
    74
1070
     0
1000
MTEXTEND
  0
POINT
  5
34E4
330
3484
100
AcDbEntity
  8
Defpoints
 62
     0
100
AcDbPoint
 10
2865.20617379079
 20
159.2730235218529
 30
0.0
  0
POINT
  5
34E5
330
3484
100
AcDbEntity
  8
Defpoints
 62
     0
100
AcDbPoint
 10
2906.206173790791
 20
293.2731041436556
 30
0.0
  0
POINT
  5
34E6
330
3484
100
AcDbEntity
  8
Defpoints
 62
     0
100
AcDbPoint
 10
2919.20617379079
 20
293.2731041436556
 30
0.0
  0
ENDBLK
  5
348F
330
3484
100
AcDbEntity
  8
0
100
AcDbBlockEnd
  0
BLOCK
  5
349A
330
3490
100
AcDbEntity
  8
0
100
AcDbBlockBegin
  2
*D30
 70
     1
 10
0.0
 20
0.0
 30
0.0
  3
*D30
  1

  0
LINE
  5
34D5
330
3490
100
AcDbEntity
  8
AM_5
100
AcDbLine
 10
2907.20617379079
 20
318.2731041436556
 30
0.0
 11
2920.706173790791
 21
318.2731041436556
 31
0.0
  0
LINE
  5
34D6
330
3490
100
AcDbEntity
  8
AM_5
100
AcDbLine
 10
2907.20617379079
 20
293.2731041436556
 30
0.0
 11
2920.706173790791
 21
293.2731041436556
 31
0.0
  0
LINE
  5
34D7
330
3490
100
AcDbEntity
  8
AM_5
100
AcDbLine
 10
2919.20617379079
 20
315.2731041436556
 30
0.0
 11
2919.20617379079
 21
296.2731041436556
 31
0.0
  0
SOLID
  5
34D8
330
3490
100
AcDbEntity
  8
AM_5
100
AcDbTrace
 10
2918.70617379079
 20
315.2731041436556
 30
0.0
 11
2919.70617379079
 21
315.2731041436556
 31
0.0
 12
2919.20617379079
 22
318.2731041436556
 32
0.0
 13
2919.20617379079
 23
318.2731041436556
 33
0.0
  0
SOLID
  5
34D9
330
3490
100
AcDbEntity
  8
AM_5
100
AcDbTrace
 10
2918.70617379079
 20
296.2731041436556
 30
0.0
 11
2919.70617379079
 21
296.2731041436556
 31
0.0
 12
2919.20617379079
 22
293.2731041436556
 32
0.0
 13
2919.20617379079
 23
293.2731041436556
 33
0.0
  0
MTEXT
  5
34DA
330
3490
100
AcDbEntity
  8
AM_5
100
AcDbMText
 10
2916.706173790791
 20
305.773104143656
 30
0.0
 40
3.0
 41
0.0
 71
     5
 72
     1
  1
25
  7
CHINESET
 11
0.0000000000000001
 21
1.0
 31
0.0
 73
     1
 44
1.0
1001
ACAD
1000
MTEXTBEGIN
1070
    73
1070
     1
1070
    44
1040
1.0
1070
    74
1070
     0
1000
MTEXTEND
  0
POINT
  5
34DB
330
3490
100
AcDbEntity
  8
Defpoints
 62
     0
100
AcDbPoint
 10
2906.206173790791
 20
318.2731041436556
 30
0.0
  0
POINT
  5
34DC
330
3490
100
AcDbEntity
  8
Defpoints
 62
     0
100
AcDbPoint
 10
2906.206173790791
 20
293.2731041436556
 30
0.0
  0
POINT
  5
34DD
330
3490
100
AcDbEntity
  8
Defpoints
 62
     0
100
AcDbPoint
 10
2919.20617379079
 20
293.2731041436556
 30
0.0
  0
ENDBLK
  5
349B
330
3490
100
AcDbEntity
  8
0
100
AcDbBlockEnd
  0
BLOCK
  5
34A6
330
349C
100
AcDbEntity
  8
0
100
AcDbBlockBegin
  2
*D31
 70
     1
 10
0.0
 20
0.0
 30
0.0
  3
*D31
  1

  0
LINE
  5
34C3
330
349C
100
AcDbEntity
  8
AM_5
100
AcDbLine
 10
2807.20617379079
 20
203.2730235218529
 30
0.0
 11
2807.20617379079
 21
198.7793348959388
 31
0.0
  0
LINE
  5
34C4
330
349C
100
AcDbEntity
  8
AM_5
100
AcDbLine
 10
2867.206173790791
 20
203.2730235218529
 30
0.0
 11
2867.206173790791
 21
198.7793348959388
 31
0.0
  0
LINE
  5
34C5
330
349C
100
AcDbEntity
  8
AM_5
100
AcDbLine
 10
2810.20617379079
 20
200.2793348959388
 30
0.0
 11
2864.206173790791
 21
200.2793348959388
 31
0.0
  0
SOLID
  5
34C6
330
349C
100
AcDbEntity
  8
AM_5
100
AcDbTrace
 10
2810.20617379079
 20
200.7793348959388
 30
0.0
 11
2810.20617379079
 21
199.7793348959388
 31
0.0
 12
2807.20617379079
 22
200.2793348959388
 32
0.0
 13
2807.20617379079
 23
200.2793348959388
 33
0.0
  0
SOLID
  5
34C7
330
349C
100
AcDbEntity
  8
AM_5
100
AcDbTrace
 10
2864.206173790791
 20
200.7793348959388
 30
0.0
 11
2864.206173790791
 21
199.7793348959388
 31
0.0
 12
2867.206173790791
 22
200.2793348959388
 32
0.0
 13
2867.206173790791
 23
200.2793348959388
 33
0.0
  0
MTEXT
  5
34C8
330
349C
100
AcDbEntity
  8
AM_5
100
AcDbMText
 10
2837.206173790791
 20
202.7793348959388
 30
0.0
 40
3.0
 41
0.0
 71
     5
 72
     1
  1
M60x1.5
  7
CHINESET
 73
     1
 44
1.0
1001
ACAD
1000
MTEXTBEGIN
1070
    73
1070
     1
1070
    44
1040
1.0
1070
    74
1070
     0
1000
MTEXTEND
  0
POINT
  5
34C9
330
349C
100
AcDbEntity
  8
Defpoints
 62
     0
100
AcDbPoint
 10
2807.20617379079
 20
204.2730235218529
 30
0.0
  0
POINT
  5
34CA
330
349C
100
AcDbEntity
  8
Defpoints
 62
     0
100
AcDbPoint
 10
2867.206173790791
 20
204.2730235218529
 30
0.0
  0
POINT
  5
34CB
330
349C
100
AcDbEntity
  8
Defpoints
 62
     0
100
AcDbPoint
 10
2867.206173790791
 20
200.2793348959388
 30
0.0
  0
ENDBLK
  5
34A7
330
349C
100
AcDbEntity
  8
0
100
AcDbBlockEnd
  0
BLOCK
  5
34F2
330
34E8
100
AcDbEntity
  8
0
100
AcDbBlockBegin
  2
*D32
 70
     1
 10
0.0
 20
0.0
 30
0.0
  3
*D32
  1

  0
LINE
  5
34F4
330
34E8
100
AcDbEntity
  8
AM_5
100
AcDbLine
 10
2767.206078826329
 20
372.5505140294554
 30
0.0
 11
2767.206078826329
 21
340.5024810093532
 31
0.0
  0
LINE
  5
34F5
330
34E8
100
AcDbEntity
  8
AM_5
100
AcDbLine
 10
2907.206078826329
 20
372.5505140294554
 30
0.0
 11
2907.206078826329
 21
340.5024810093532
 31
0.0
  0
LINE
  5
34F6
330
34E8
100
AcDbEntity
  8
AM_5
100
AcDbLine
 10
2770.206078826329
 20
342.0024810093532
 30
0.0
 11
2904.206078826329
 21
342.0024810093532
 31
0.0
  0
SOLID
  5
34F7
330
34E8
100
AcDbEntity
  8
AM_5
100
AcDbTrace
 10
2770.206078826329
 20
342.5024810093532
 30
0.0
 11
2770.206078826329
 21
341.5024810093532
 31
0.0
 12
2767.206078826329
 22
342.0024810093532
 32
0.0
 13
2767.206078826329
 23
342.0024810093532
 33
0.0
  0
SOLID
  5
34F8
330
34E8
100
AcDbEntity
  8
AM_5
100
AcDbTrace
 10
2904.206078826329
 20
342.5024810093532
 30
0.0
 11
2904.206078826329
 21
341.5024810093532
 31
0.0
 12
2907.206078826329
 22
342.0024810093532
 32
0.0
 13
2907.206078826329
 23
342.0024810093532
 33
0.0
  0
MTEXT
  5
34F9
330
34E8
100
AcDbEntity
  8
AM_5
100
AcDbMText
 10
2837.206078826329
 20
344.5024810093532
 30
0.0
 40
3.0
 41
0.0
 71
     5
 72
     1
  1
140
  7
CHINESET
 73
     1
 44
1.0
1001
ACAD
1000
MTEXTBEGIN
1070
    73
1070
     1
1070
    44
1040
1.0
1070
    74
1070
     0
1000
MTEXTEND
  0
POINT
  5
34FA
330
34E8
100
AcDbEntity
  8
Defpoints
 62
     0
100
AcDbPoint
 10
2767.206078826329
 20
373.5505140294554
 30
0.0
  0
POINT
  5
34FB
330
34E8
100
AcDbEntity
  8
Defpoints
 62
     0
100
AcDbPoint
 10
2907.206078826329
 20
373.5505140294554
 30
0.0
  0
POINT
  5
34FC
330
34E8
100
AcDbEntity
  8
Defpoints
 62
     0
100
AcDbPoint
 10
2907.206078826329
 20
342.0024810093532
 30
0.0
  0
ENDBLK
  5
34F3
330
34E8
100
AcDbEntity
  8
0
100
AcDbBlockEnd
  0
ENDSEC
  0
SECTION
  2
ENTITIES
  0
TEXT
  5
1728
330
1F
100
AcDbEntity
  8
LOGO
 62
     7
100
AcDbText
 10
2113.293317906104
 20
70.05363340389862
 30
0.0
 40
10.6651221719457
  1
Order example:
 41
0.8
  7
CHINESET
100
AcDbText
  0
TEXT
  5
1729
330
1F
100
AcDbEntity
  8
LOGO
 62
     7
100
AcDbText
 10
2115.206729020723
 20
85.06791718027557
 30
0.0
 40
15.99768325791855
  1
訂購代號:
  7
CHINESET
100
AcDbText
  0
LINE
  5
172A
330
1F
100
AcDbEntity
  8
LOGO
 62
     1
100
AcDbLine
 10
3032.684770311274
 20
105.0951974611587
 30
0.0
 11
1932.684770311274
 21
105.0951974611587
 31
0.0
  0
LINE
  5
172B
330
1F
100
AcDbEntity
  8
LOGO
 62
     1
100
AcDbLine
 10
2108.659286148379
 20
25.10678117156544
 30
0.0
 11
2108.659286148379
 21
105.0951974611587
 31
0.0
  0
TEXT
  5
172C
330
1F
100
AcDbEntity
  8
LOGO
  6
Continuous
 62
     5
100
AcDbText
 10
1961.416968997384
 20
40.82038483861083
 30
0.0
 40
11.99826244343891
  1
金器工業股份有限公司
  7
CHINESET
100
AcDbText
  0
TEXT
  5
172D
330
1F
100
AcDbEntity
  8
LOGO
  6
Continuous
 62
     5
100
AcDbText
 10
1939.378534627951
 20
28.81977167643322
 30
0.0
 40
7.998841628959275
  1
MINDMAN INDUSTRIAL CO., LTD.
 41
0.85
  7
CHINESET
100
AcDbText
  0
LINE
  5
172E
330
1F
100
AcDbEntity
  8
LOGO
 62
     1
100
AcDbLine
 10
2108.659286148379
 20
89.09751420324004
 30
0.0
 11
1991.342942256975
 21
89.09751420324004
 31
0.0
  0
LINE
  5
172F
330
1F
100
AcDbEntity
  8
LOGO
 62
     1
100
AcDbLine
 10
2108.659286148379
 20
73.0998309453214
 30
0.0
 11
1991.342942256975
 21
73.0998309453214
 31
0.0
  0
LINE
  5
1730
330
1F
100
AcDbEntity
  8
LOGO
 62
     1
100
AcDbLine
 10
2108.659286148379
 20
57.10214768740366
 30
0.0
 11
1932.684770311274
 21
57.10214768740366
 31
0.0
  0
LINE
  5
1731
330
1F
100
AcDbEntity
  8
LOGO
 62
     1
100
AcDbLine
 10
1991.342942256975
 20
57.10214768740366
 30
0.0
 11
1991.342942256975
 21
105.0951974611587
 31
0.0
  0
TEXT
  5
1732
330
1F
100
AcDbEntity
  8
LOGO
 62
     6
100
AcDbText
 10
2067.333256634968
 20
61.10156850188198
 30
0.0
 40
7.998841628959275
  1
m/m
  7
CHINESET
 72
     1
 11
2081.426453790753
 21
65.10098931636162
 31
0.0
100
AcDbText
 73
     2
  0
TEXT
  5
1733
330
1F
100
AcDbEntity
  8
LOGO
 62
     6
100
AcDbText
 10
2067.333256634968
 20
93.0969350177193
 30
0.0
 40
7.998841628959275
  1
1 : 1
  7
CHINESET
 72
     1
 11
2081.426453790753
 21
97.09635583219892
 31
0.0
100
AcDbText
 73
     2
  0
LINE
  5
1734
330
1F
100
AcDbEntity
  8
LOGO
 62
     1
100
AcDbLine
 10
2055.33367528865
 20
57.10214768740366
 30
0.0
 11
2055.33367528865
 21
105.0951974611587
 31
0.0
  0
CIRCLE
  5
1735
330
1F
100
AcDbEntity
  8
LOGO
  6
Continuous
 62
     6
100
AcDbCircle
 10
2070.144531043963
 20
81.11578215505938
 30
0.0
 40
4.644315721282525
  0
CIRCLE
  5
1736
330
1F
100
AcDbEntity
  8
LOGO
  6
Continuous
 62
     6
100
AcDbCircle
 10
2070.144531043963
 20
81.11578215505938
 30
0.0
 40
2.721157874662388
  0
LINE
  5
1737
330
1F
100
AcDbEntity
  8
LOGO
 62
     6
100
AcDbLine
 10
2099.329949940109
 20
76.47146643377595
 30
0.0
 11
2099.329949940109
 21
85.7600978763428
 31
0.0
  0
LINE
  5
1738
330
1F
100
AcDbEntity
  8
LOGO
 62
     6
100
AcDbLine
 10
2084.770286750332
 20
78.39462428039746
 30
0.0
 11
2084.770286750332
 21
83.8369400297222
 31
0.0
  0
LINE
  5
1739
330
1F
100
AcDbEntity
  8
LOGO
  6
Continuous
 62
     6
100
AcDbLine
 10
2084.770286750332
 20
83.8369400297222
 30
0.0
 11
2099.329949940109
 21
85.7600978763428
 31
0.0
  0
LINE
  5
173A
330
1F
100
AcDbEntity
  8
LOGO
  6
Continuous
 62
     6
100
AcDbLine
 10
2084.770286750332
 20
78.39462428039746
 30
0.0
 11
2099.329949940109
 21
76.47146643377595
 31
0.0
  0
TEXT
  5
173B
330
1F
100
AcDbEntity
  8
LOGO
 62
     6
100
AcDbText
 10
1997.938415689425
 20
93.10087145552882
 30
524.2309030401992
 40
7.998841628959275
  1
比例 Scale:
 41
0.9
  7
CHINESET
 72
     4
 11
2023.338308772812
 21
97.09635583219892
 31
524.2309030401992
100
AcDbText
  0
TEXT
  5
173C
330
1F
100
AcDbEntity
  8
LOGO
 62
     6
100
AcDbText
 10
1997.477768113472
 20
77.2117682738563
 30
524.2309030401992
 40
7.998841628959275
  1
投影  View:
 41
0.9
  7
CHINESET
 72
     4
 11
2023.338308772812
 21
81.09867257428026
 31
524.2309030401992
100
AcDbText
  0
TEXT
  5
173D
330
1F
100
AcDbEntity
  8
LOGO
 62
     6
100
AcDbText
 10
1998.25979771916
 20
61.10156850188198
 30
524.2309030401992
 40
7.998841628959275
  1
單位  Unit:
 41
0.9
  7
CHINESET
 72
     4
 11
2023.338308772812
 21
65.10098931636162
 31
524.2309030401992
100
AcDbText
  0
LWPOLYLINE
  5
173E
330
1F
100
AcDbEntity
  8
0
 62
     4
100
AcDbPolyline
 90
        4
 70
     1
 43
0.0
 10
1932.684770311274
 20
105.0951974611587
 10
3032.684770311274
 20
105.0951974611587
 10
3032.684770311274
 20
825.1067811715641
 10
1932.684770311274
 20
825.1067811715641
1001
GENIUS_GENREC_14
1002
{
1000
PYDIR
1011
1932.684770311274
1021
825.1067811715641
1031
0.0
1002
}
1002
{
1000
PXDIR
1011
3032.684770311274
1021
105.0951974611587
1031
0.0
1002
}
1002
{
1000
PORI
1011
1932.684770311274
1021
105.0951974611587
1031
0.0
1002
}
1002
{
1000
PINS
1011
1932.684770311274
1021
105.0951974611587
1031
0.0
1002
}
1002
{
1000
PINS2
1011
3032.684770311274
1021
825.1067811715641
1031
0.0
1002
}
1002
{
1000
C
1070
     1
1002
}
1001
GENIUS_GENODEF_13
1002
{
1000
HIER
1070
     0
1002
}
1002
{
1000
MANEDIT
1070
     0
1002
}
1002
{
1000
NOSEL
1070
     0
1002
}
1002
{
1000
BEHIND
1070
     0
1002
}
1002
{
1000
OTHER
1070
     0
1002
}
1002
{
1000
REACTOR
1002
}
1001
GENIUS_GENOBJ-N-REC_13
1002
{
1000
OWNER
1000
GEN
1002
}
  0
SOLID
  5
173F
330
1F
100
AcDbEntity
  8
LOGO
 62
     5
100
AcDbTrace
 10
1940.983696872963
 20
70.39908335009727
 30
0.0
 11
1944.442186103721
 21
70.39908335009636
 31
0.0
 12
1958.872434273433
 22
103.1951019176274
 32
0.0
 13
1962.330923504192
 23
103.1951019176256
 33
0.0
  0
SOLID
  5
1740
330
1F
100
AcDbEntity
  8
LOGO
 62
     5
100
AcDbTrace
 10
1945.873285095762
 20
70.39908335009727
 30
0.0
 11
1949.33177432652
 21
70.39908335009727
 31
0.0
 12
1962.330923504192
 22
100.5714204322237
 32
0.0
 13
1958.872434273433
 23
87.89029325277875
 33
0.0
  0
SOLID
  5
1741
330
1F
100
AcDbEntity
  8
LOGO
 62
     2
100
AcDbTrace
 10
1944.442186103721
 20
70.39908335009636
 30
0.0
 11
1945.873285095762
 21
70.39908335009727
 31
0.0
 12
1962.330923504192
 22
103.1951019176256
 32
0.0
 13
1963.762022496232
 23
103.1951019176256
 33
0.0
  0
SOLID
  5
1742
330
1F
100
AcDbEntity
  8
LOGO
 62
     5
100
AcDbTrace
 10
1935.43889051061
 20
58.47325841645101
 30
0.0
 11
1936.631473003975
 21
58.47325841645101
 31
0.0
 12
1939.989878128494
 22
64.43617088327369
 32
0.0
 13
1941.182460621856
 23
64.43617088327369
 33
0.0
  0
SOLID
  5
1743
330
1F
100
AcDbEntity
  8
LOGO
 62
     5
100
AcDbTrace
 10
1939.989878128494
 20
64.43617088327369
 30
0.0
 11
1941.182460621856
 21
64.43617088327369
 31
0.0
 12
1939.989878128494
 22
58.47325841645101
 32
0.0
 13
1941.182460621856
 23
58.47325841645101
 33
0.0
  0
SOLID
  5
1744
330
1F
100
AcDbEntity
  8
LOGO
 62
     5
100
AcDbTrace
 10
1939.989878128494
 20
58.47325841645101
 30
0.0
 11
1941.182460621856
 21
58.47325841645101
 31
0.0
 12
1944.540865746379
 22
64.43617088327369
 32
0.0
 13
1945.733448239744
 23
64.43617088327369
 33
0.0
  0
SOLID
  5
1745
330
1F
100
AcDbEntity
  8
LOGO
 62
     5
100
AcDbTrace
 10
1944.540865746379
 20
64.43617088327369
 30
0.0
 11
1945.733448239744
 21
64.43617088327369
 31
0.0
 12
1944.540865746379
 22
58.47325841645101
 32
0.0
 13
1945.733448239744
 23
58.47325841645101
 33
0.0
  0
POLYLINE
  5
1746
330
1F
100
AcDbEntity
  8
LOGO
 62
     5
100
AcDb2dPolyline
 66
     1
 10
0.0
 20
0.0
 30
0.0
 40
1.194493683257918
 41
1.194493683257918
  0
VERTEX
  5
1747
330
1746
100
AcDbEntity
  8
LOGO
 62
     5
100
AcDbVertex
100
AcDb2dVertex
 10
1984.515824665617
 20
62.05100589654444
 30
0.0
 42
1.0
  0
VERTEX
  5
1748
330
1746
100
AcDbEntity
  8
LOGO
 62
     5
100
AcDbVertex
100
AcDb2dVertex
 10
1980.932343615843
 20
62.05100589654444
 30
0.0
 42
1.0
  0
SEQEND
  5
1749
330
1746
100
AcDbEntity
  8
LOGO
 62
     5
  0
POLYLINE
  5
174A
330
1F
100
AcDbEntity
  8
LOGO
 62
     5
100
AcDb2dPolyline
 66
     1
 10
0.0
 20
0.0
 30
0.0
 70
     1
  0
VERTEX
  5
174B
330
174A
100
AcDbEntity
  8
LOGO
 62
     5
100
AcDbVertex
100
AcDb2dVertex
 10
1974.17732244378
 20
61.45471464986144
 30
0.0
 42
1.000000057330635
  0
VERTEX
  5
174C
330
174A
100
AcDbEntity
  8
LOGO
 62
     5
100
AcDbVertex
100
AcDb2dVertex
 10
1977.755069923874
 20
61.45471464986144
 30
0.0
 42
1.000000057330635
  0
SEQEND
  5
174D
330
174A
100
AcDbEntity
  8
LOGO
 62
     5
  0
CIRCLE
  5
174E
330
1F
100
AcDbEntity
  8
LOGO
 62
     5
100
AcDbCircle
 10
1975.96619618383
 20
61.45471464986144
 30
0.0
 40
1.788873740047058
  0
POLYLINE
  5
174F
330
1F
100
AcDbEntity
  8
LOGO
 62
     5
100
AcDb2dPolyline
 66
     1
 10
0.0
 20
0.0
 30
0.0
 70
     1
 40
1.194493683257918
 41
1.194493683257918
  0
VERTEX
  5
1750
330
174F
100
AcDbEntity
  8
LOGO
 62
     5
100
AcDbVertex
100
AcDb2dVertex
 10
1973.577208817312
 20
61.45471464986144
 30
0.0
 42
1.0
  0
VERTEX
  5
1751
330
174F
100
AcDbEntity
  8
LOGO
 62
     5
100
AcDbVertex
100
AcDb2dVertex
 10
1978.355183550344
 20
61.45471464986144
 30
0.0
 42
1.0
  0
SEQEND
  5
1752
330
174F
100
AcDbEntity
  8
LOGO
 62
     5
  0
LINE
  5
1753
330
1F
100
AcDbEntity
  8
LOGO
 62
     5
100
AcDbLine
 10
1985.109249127457
 20
58.47325841645101
 30
0.0
 11
1985.109249127457
 21
62.05100589654444
 31
0.0
  0
SOLID
  5
1754
330
1F
100
AcDbEntity
  8
LOGO
 62
     5
100
AcDbTrace
 10
1977.75495066563
 20
64.43617088327369
 30
0.0
 11
1978.947533158993
 21
64.43617088327369
 31
0.0
 12
1977.75495066563
 22
58.47325841645101
 32
0.0
 13
1978.947533158993
 23
58.47325841645101
 33
0.0
  0
SOLID
  5
1755
330
1F
100
AcDbEntity
  8
LOGO
 62
     5
100
AcDbTrace
 10
1980.338919153999
 20
58.47325841645101
 30
0.0
 11
1981.531501647365
 21
58.47325841645101
 31
0.0
 12
1980.338919153999
 22
64.43617088327369
 32
0.0
 13
1981.531501647365
 23
64.43617088327369
 33
0.0
  0
SOLID
  5
1756
330
1F
100
AcDbEntity
  8
LOGO
 62
     5
100
AcDbTrace
 10
1983.916666634095
 20
62.05100589654444
 30
0.0
 11
1985.109249127457
 21
62.05100589654444
 31
0.0
 12
1983.916666634095
 22
58.47325841645101
 32
0.0
 13
1985.109249127457
 23
58.47325841645101
 33
0.0
  0
SOLID
  5
1757
330
1F
100
AcDbEntity
  8
LOGO
 62
     5
100
AcDbTrace
 10
1980.219660904662
 20
100.5714204322237
 30
0.0
 11
1976.761171673906
 21
87.89029325277875
 31
0.0
 12
1980.219660904662
 22
70.39908335009636
 32
0.0
 13
1976.761171673906
 23
70.39908335009636
 33
0.0
  0
SOLID
  5
1758
330
1F
100
AcDbEntity
  8
LOGO
 62
     5
100
AcDbTrace
 10
1981.650759896702
 20
70.39908335009636
 30
0.0
 11
1985.109249127457
 21
70.39908335009636
 31
0.0
 12
1981.650759896702
 22
103.1951019176256
 32
0.0
 13
1985.109249127457
 23
103.1951019176274
 33
0.0
  0
SOLID
  5
1759
330
1F
100
AcDbEntity
  8
LOGO
 62
     2
100
AcDbTrace
 10
1980.219660904662
 20
103.1951019176274
 30
0.0
 11
1981.650759896702
 21
103.1951019176256
 31
0.0
 12
1980.219660904662
 22
70.39908335009636
 32
0.0
 13
1981.650759896702
 23
70.39908335009636
 33
0.0
  0
POLYLINE
  5
175A
330
1F
100
AcDbEntity
  8
LOGO
 62
     5
100
AcDb2dPolyline
 66
     1
 10
0.0
 20
0.0
 30
0.0
 40
1.194493683257918
 41
1.194493683257918
  0
VERTEX
  5
175B
330
175A
100
AcDbEntity
  8
LOGO
 62
     5
100
AcDbVertex
100
AcDb2dVertex
 10
1967.422062755224
 20
62.05100589654444
 30
0.0
 42
1.0
  0
VERTEX
  5
175C
330
175A
100
AcDbEntity
  8
LOGO
 62
     5
100
AcDbVertex
100
AcDb2dVertex
 10
1963.838581705449
 20
62.05100589654444
 30
0.0
 42
1.0
  0
SEQEND
  5
175D
330
175A
100
AcDbEntity
  8
LOGO
 62
     5
  0
POLYLINE
  5
175E
330
1F
100
AcDbEntity
  8
LOGO
 62
     5
100
AcDb2dPolyline
 66
     1
 10
0.0
 20
0.0
 30
0.0
 40
1.194493683257918
 41
1.194493683257918
  0
VERTEX
  5
175F
330
175E
100
AcDbEntity
  8
LOGO
 62
     5
100
AcDbVertex
100
AcDb2dVertex
 10
1970.999810235315
 20
62.05100589654444
 30
0.0
 42
1.0
  0
VERTEX
  5
1760
330
175E
100
AcDbEntity
  8
LOGO
 62
     5
100
AcDbVertex
100
AcDb2dVertex
 10
1967.416329185542
 20
62.05100589654444
 30
0.0
 42
1.0
  0
SEQEND
  5
1761
330
175E
100
AcDbEntity
  8
LOGO
 62
     5
  0
POLYLINE
  5
1762
330
1F
100
AcDbEntity
  8
LOGO
 62
     5
100
AcDb2dPolyline
 66
     1
 10
0.0
 20
0.0
 30
0.0
 40
1.194493683257918
 41
1.194493683257918
  0
VERTEX
  5
1763
330
1762
100
AcDbEntity
  8
LOGO
 62
     5
100
AcDbVertex
100
AcDb2dVertex
 10
1953.906048324921
 20
62.05100589654444
 30
0.0
 42
1.0
  0
VERTEX
  5
1764
330
1762
100
AcDbEntity
  8
LOGO
 62
     5
100
AcDbVertex
100
AcDb2dVertex
 10
1950.322567275149
 20
62.05100589654444
 30
0.0
 42
1.0
  0
SEQEND
  5
1765
330
1762
100
AcDbEntity
  8
LOGO
 62
     5
  0
SOLID
  5
1766
330
1F
100
AcDbEntity
  8
LOGO
 62
     5
100
AcDbTrace
 10
1949.729142813307
 20
64.43617088327369
 30
0.0
 11
1950.921725306669
 21
64.43617088327369
 31
0.0
 12
1949.729142813307
 22
58.47325841645101
 32
0.0
 13
1950.921725306669
 23
58.47325841645101
 33
0.0
  0
SOLID
  5
1767
330
1F
100
AcDbEntity
  8
LOGO
 62
     5
100
AcDbTrace
 10
1953.306890293401
 20
62.05100589654444
 30
0.0
 11
1954.499472786767
 21
62.05100589654444
 31
0.0
 12
1953.306890293401
 22
58.47325841645101
 32
0.0
 13
1954.499472786767
 23
58.47325841645101
 33
0.0
  0
POLYLINE
  5
1768
330
1F
100
AcDbEntity
  8
LOGO
 62
     5
100
AcDb2dPolyline
 66
     1
 10
0.0
 20
0.0
 30
0.0
 70
     1
 40
1.194493683257918
 41
1.194493683257918
  0
VERTEX
  5
1769
330
1768
100
AcDbEntity
  8
LOGO
 62
     5
100
AcDbVertex
100
AcDb2dVertex
 10
1956.483446906917
 20
61.45471464986144
 30
0.0
 42
1.0
  0
VERTEX
  5
176A
330
1768
100
AcDbEntity
  8
LOGO
 62
     5
100
AcDbVertex
100
AcDb2dVertex
 10
1961.261421639951
 20
61.45471464986144
 30
0.0
 42
1.0
  0
SEQEND
  5
176B
330
1768
100
AcDbEntity
  8
LOGO
 62
     5
  0
SOLID
  5
176C
330
1F
100
AcDbEntity
  8
LOGO
 62
     5
100
AcDbTrace
 10
1960.661188755233
 20
66.22504462332177
 30
0.0
 11
1961.853771248598
 21
66.22504462332177
 31
0.0
 12
1960.661188755233
 22
58.47325841645101
 32
0.0
 13
1961.853771248598
 23
58.47325841645101
 33
0.0
  0
SOLID
  5
176D
330
1F
100
AcDbEntity
  8
LOGO
 62
     5
100
AcDbTrace
 10
1963.245157243609
 20
64.43617088327369
 30
0.0
 11
1964.437739736971
 21
64.43617088327369
 31
0.0
 12
1963.245157243609
 22
58.47325841645101
 32
0.0
 13
1964.437739736971
 23
58.47325841645101
 33
0.0
  0
SOLID
  5
176E
330
1F
100
AcDbEntity
  8
LOGO
 62
     5
100
AcDbTrace
 10
1966.8229047237
 20
62.05100589654444
 30
0.0
 11
1968.015487217066
 21
62.05100589654444
 31
0.0
 12
1966.8229047237
 22
58.47325841645101
 32
0.0
 13
1968.015487217066
 23
58.47325841645101
 33
0.0
  0
SOLID
  5
176F
330
1F
100
AcDbEntity
  8
LOGO
 62
     5
100
AcDbTrace
 10
1970.400652203794
 20
62.05100589654444
 30
0.0
 11
1971.593234697158
 21
62.05100589654444
 31
0.0
 12
1970.400652203794
 22
58.4732584164492
 32
0.0
 13
1971.593234697158
 23
58.4732584164492
 33
0.0
  0
SOLID
  5
1770
330
1F
100
AcDbEntity
  8
LOGO
 62
     5
100
AcDbTrace
 10
1947.145174324933
 20
65.27097862862934
 30
0.0
 11
1948.3377568183
 21
65.27097862862934
 31
0.0
 12
1947.145174324933
 22
66.22504462332177
 32
0.0
 13
1948.3377568183
 23
66.22504462332177
 33
0.0
  0
SOLID
  5
1771
330
1F
100
AcDbEntity
  8
LOGO
 62
     5
100
AcDbTrace
 10
1947.145174324933
 20
64.43617088327369
 30
0.0
 11
1948.3377568183
 21
64.43617088327369
 31
0.0
 12
1947.145174324933
 22
58.4732584164492
 32
0.0
 13
1948.3377568183
 23
58.47325841645101
 33
0.0
  0
SOLID
  5
1772
330
1F
100
AcDbEntity
  8
LOGO
 62
     5
100
AcDbTrace
 10
1958.872434273433
 20
70.39908335009727
 30
0.0
 11
1962.330923504192
 21
70.39908335009727
 31
0.0
 12
1958.872434273433
 22
87.89029325277875
 32
0.0
 13
1962.330923504192
 23
100.5714204322237
 33
0.0
  0
SOLID
  5
1773
330
1F
100
AcDbEntity
  8
LOGO
 62
     5
100
AcDbTrace
 10
1963.762022496232
 20
103.1951019176256
 30
0.0
 11
1967.220511726988
 21
103.1951019176274
 31
0.0
 12
1963.762022496232
 22
73.02276483549917
 32
0.0
 13
1967.220511726988
 23
85.70389201494412
 33
0.0
  0
SOLID
  5
1774
330
1F
100
AcDbEntity
  8
LOGO
 62
     2
100
AcDbTrace
 10
1962.330923504192
 20
103.1951019176256
 30
0.0
 11
1963.762022496232
 21
103.1951019176256
 31
0.0
 12
1962.330923504192
 22
70.39908335009727
 32
0.0
 13
1963.762022496232
 23
70.39908335009727
 33
0.0
  0
SOLID
  5
1775
330
1F
100
AcDbEntity
  8
LOGO
 62
     5
100
AcDbTrace
 10
1963.762022496232
 20
73.02276483549917
 30
0.0
 11
1967.220511726988
 21
85.70389201494412
 31
0.0
 12
1980.219660904662
 22
103.1951019176274
 32
0.0
 13
1976.761171673906
 23
103.1951019176274
 33
0.0
  0
SOLID
  5
1776
330
1F
100
AcDbEntity
  8
LOGO
 62
     5
100
AcDbTrace
 10
1963.762022496232
 20
70.39908335009727
 30
0.0
 11
1967.220511726988
 21
70.39908335009727
 31
0.0
 12
1980.219660904662
 22
100.5714204322237
 32
0.0
 13
1976.761171673906
 23
87.89029325277875
 33
0.0
  0
SOLID
  5
1777
330
1F
100
AcDbEntity
  8
LOGO
 62
     2
100
AcDbTrace
 10
1962.330923504192
 20
70.39908335009727
 30
0.0
 11
1963.762022496232
 21
70.39908335009727
 31
0.0
 12
1980.219660904662
 22
103.1951019176274
 32
0.0
 13
1981.650759896702
 23
103.1951019176256
 33
0.0
  0
LWPOLYLINE
  5
1778
330
1F
100
AcDbEntity
  8
0
 62
     1
100
AcDbPolyline
 90
        4
 70
     1
 43
0.0
 10
1932.684770311274
 20
105.0951974611587
 10
3032.684770311274
 20
105.0951974611587
 10
3032.684770311274
 20
25.10678117156454
 10
1932.684770311274
 20
25.10678117156454
1001
GENIUS_GENREC_14
1002
{
1000
PYDIR
1011
1932.684770311274
1021
25.10678117156454
1031
0.0
1002
}
1002
{
1000
PXDIR
1011
3032.684770311274
1021
105.0951974611587
1031
0.0
1002
}
1002
{
1000
PORI
1011
1932.684770311274
1021
105.0951974611587
1031
0.0
1002
}
1002
{
1000
PINS
1011
1932.684770311274
1021
105.0951974611587
1031
0.0
1002
}
1002
{
1000
PINS2
1011
3032.684770311274
1021
25.10678117156454
1031
0.0
1002
}
1002
{
1000
C
1070
     1
1002
}
1001
GENIUS_GENOBJ-N-REC_13
1002
{
1000
OWNER
1000
GEN
1002
}
1001
GENIUS_GENODEF_13
1002
{
1000
HIER
1070
     0
1002
}
1002
{
1000
MANEDIT
1070
     0
1002
}
1002
{
1000
NOSEL
1070
     0
1002
}
1002
{
1000
BEHIND
1070
     0
1002
}
1002
{
1000
OTHER
1070
     0
1002
}
1002
{
1000
REACTOR
1002
}
  0
LINE
  5
1779
330
1F
100
AcDbEntity
  8
LOGO
 62
     6
100
AcDbLine
 10
2253.438076531225
 20
61.10156850188355
 30
0.0
 11
2253.438076531225
 21
31.77248252903132
 31
0.0
  0
LINE
  5
177A
330
1F
100
AcDbEntity
  8
LOGO
 62
     6
100
AcDbLine
 10
2218.679802688579
 20
61.10156850188355
 30
0.0
 11
2218.679802688579
 21
31.77248252903132
 31
0.0
  0
LINE
  5
177B
330
1F
100
AcDbEntity
  8
LOGO
 62
     6
100
AcDbLine
 10
2253.438076531225
 20
31.77248252903132
 30
0.0
 11
2218.679802688579
 21
31.77248252903132
 31
0.0
  0
LINE
  5
177C
330
1F
100
AcDbEntity
  8
LOGO
 62
     6
100
AcDbLine
 10
2265.830911889745
 20
97.09635583219892
 30
0.0
 11
2218.679802688579
 21
97.09635583219892
 31
0.0
  0
LINE
  5
177D
330
1F
100
AcDbEntity
  8
LOGO
 62
     6
100
AcDbLine
 10
2265.830911889745
 20
73.0998309453214
 30
0.0
 11
2218.679802688579
 21
73.0998309453214
 31
0.0
  0
LINE
  5
177E
330
1F
100
AcDbEntity
  8
LOGO
 62
     6
100
AcDbLine
 10
2218.679802688579
 20
97.09635583219892
 30
0.0
 11
2218.679802688579
 21
73.0998309453214
 31
0.0
  0
LINE
  5
177F
330
1F
100
AcDbEntity
  8
LOGO
 62
     6
100
AcDbLine
 10
2265.830911889745
 20
97.09635583219892
 30
0.0
 11
2265.830911889745
 21
73.0998309453214
 31
0.0
  0
LINE
  5
1780
330
1F
100
AcDbEntity
  8
LOGO
 62
     6
100
AcDbLine
 10
2239.567918878742
 20
73.0998309453214
 30
0.0
 11
2239.567918878742
 21
61.10156850188355
 31
0.0
  0
TEXT
  5
1781
330
1F
100
AcDbEntity
  8
LOGO
  6
Continuous
 62
     7
100
AcDbText
 10
2222.943609341699
 20
78.10907043254132
 30
0.0
 40
14.0
  1
MDT
  7
CHINESET
100
AcDbText
  0
LINE
  5
1782
330
1F
100
AcDbEntity
  8
LOGO
 62
     6
100
AcDbLine
 10
2253.438076531225
 20
61.10156850188355
 30
0.0
 11
2218.679802688579
 21
61.10156850188355
 31
0.0
  0
TEXT
  5
1783
330
1F
100
AcDbEntity
  8
LOGO
  6
Continuous
 62
     6
100
AcDbText
 10
2225.889250528475
 20
35.91222082032778
 30
524.2309030401992
 40
6.0
  1
Model
 41
0.8
  7
CHINESET
100
AcDbText
  0
TEXT
  5
1784
330
1F
100
AcDbEntity
  8
LOGO
 62
     6
100
AcDbText
 10
2224.292245576478
 20
47.03492772803724
 30
524.2309030401992
 40
10.0
  1
型號
  7
CHINESET
100
AcDbText
  0
LINE
  5
1791
330
1F
100
AcDbEntity
  8
LOGO
 62
     6
100
AcDbLine
 10
2384.499242307764
 20
61.10156850188355
 30
0.0
 11
2384.499242307764
 21
31.77248252903132
 31
0.0
  0
LINE
  5
1792
330
1F
100
AcDbEntity
  8
LOGO
 62
     6
100
AcDbLine
 10
2331.173631448035
 20
61.10156850188355
 30
0.0
 11
2331.173631448035
 21
31.77248252903132
 31
0.0
  0
LINE
  5
1793
330
1F
100
AcDbEntity
  8
LOGO
 62
     6
100
AcDbLine
 10
2384.499242307764
 20
31.77248252903132
 30
0.0
 11
2331.173631448035
 21
31.77248252903132
 31
0.0
  0
LINE
  5
1794
330
1F
100
AcDbEntity
  8
LOGO
 62
     6
100
AcDbLine
 10
2351.416092628193
 20
97.09635583219892
 30
0.0
 11
2306.541744148793
 21
97.09635583219892
 31
0.0
  0
LINE
  5
1795
330
1F
100
AcDbEntity
  8
LOGO
 62
     6
100
AcDbLine
 10
2351.416092628193
 20
73.0998309453214
 30
0.0
 11
2306.541744148793
 21
73.0998309453214
 31
0.0
  0
LINE
  5
1796
330
1F
100
AcDbEntity
  8
LOGO
 62
     6
100
AcDbLine
 10
2306.541744148793
 20
97.09635583219892
 30
0.0
 11
2306.541744148793
 21
73.0998309453214
 31
0.0
  0
LINE
  5
1797
330
1F
100
AcDbEntity
  8
LOGO
 62
     6
100
AcDbLine
 10
2351.416092628193
 20
97.09635583219892
 30
0.0
 11
2351.416092628193
 21
73.0998309453214
 31
0.0
  0
TEXT
  5
1799
330
1F
100
AcDbEntity
  8
LOGO
  6
Continuous
 62
     7
100
AcDbText
 10
2309.735617444572
 20
78.10907043254132
 30
0.0
 40
14.0
  1
32A
  7
CHINESET
100
AcDbText
  0
LINE
  5
179A
330
1F
100
AcDbEntity
  8
LOGO
 62
     6
100
AcDbLine
 10
2384.499242307764
 20
61.10156850188355
 30
0.0
 11
2331.173631448035
 21
61.10156850188355
 31
0.0
  0
TEXT
  5
17A8
330
1F
100
AcDbEntity
  8
LOGO
  6
Continuous
 62
     6
100
AcDbText
 10
2343.908860042409
 20
35.91222082032778
 30
524.2309030401992
 40
6.0
  1
Tube I.D.
 41
0.8
  7
CHINESET
100
AcDbText
  0
TEXT
  5
17A9
330
1F
100
AcDbEntity
  8
LOGO
 62
     6
100
AcDbText
 10
2346.328124686312
 20
47.03492772803724
 30
524.2309030401992
 40
10.0
  1
內徑
  7
CHINESET
100
AcDbText
  0
TEXT
  5
17B8
330
1F
100
AcDbEntity
  8
0
100
AcDbText
 10
2112.498761846663
 20
29.36213334725085
 30
0.0
 40
8.0
  1
10512266
 41
0.7
  7
CHINESET
 72
     1
 11
2131.832095179996
 21
29.36213334725085
 31
0.0
100
AcDbText
  0
LINE
  5
17B9
330
1F
100
AcDbEntity
  8
LOGO
 62
     1
100
AcDbLine
 10
2156.659286148375
 20
41.10446442948592
 30
0.0
 11
2156.659286148379
 21
25.10678117156635
 31
0.0
  0
LINE
  5
17BA
330
1F
100
AcDbEntity
  8
LOGO
 62
     1
100
AcDbLine
 10
2156.659286148375
 20
41.10446442948592
 30
0.0
 11
2108.659286148379
 21
41.10446442948592
 31
0.0
  0
LINE
  5
17BB
330
1F
100
AcDbEntity
  8
0
 62
     4
100
AcDbLine
 10
1932.684770311274
 20
465.1009893163614
 30
0.0
 11
3032.684770311274
 21
465.1009893163614
 31
0.0
  0
LINE
  5
198A
330
1F
100
AcDbEntity
  8
0
 62
     4
100
AcDbLine
 10
2298.684770311274
 20
825.1067811715641
 30
0.0
 11
2298.684770311274
 21
105.0951974611587
 31
0.0
  0
LINE
  5
198B
330
1F
100
AcDbEntity
  8
0
 62
     4
100
AcDbLine
 10
2664.684770311275
 20
825.1067811715641
 30
0.0
 11
2664.684770311275
 21
105.0951974611587
 31
0.0
  0
TEXT
  5
1A89
330
1F
100
AcDbEntity
  8
0
100
AcDbText
 10
1950.690524132943
 20
795.8336520981234
 30
0.0
 40
12.0
  1
MDT-25A
 41
0.75
  7
CHINESET
100
AcDbText
  0
TEXT
  5
1A8B
330
1F
100
AcDbEntity
  8
0
100
AcDbText
 10
2316.690524132943
 20
795.8336520981234
 30
0.0
 40
12.0
  1
MDT-32A
 41
0.75
  7
CHINESET
100
AcDbText
  0
TEXT
  5
1A8C
330
1F
100
AcDbEntity
  8
0
100
AcDbText
 10
2682.690524132943
 20
795.8336520981234
 30
0.0
 40
12.0
  1
MDT-40A
 41
0.75
  7
CHINESET
100
AcDbText
  0
TEXT
  5
1A8D
330
1F
100
AcDbEntity
  8
0
100
AcDbText
 10
1950.690524132943
 20
435.8278602429207
 30
0.0
 40
12.0
  1
MDT-25B
 41
0.75
  7
CHINESET
100
AcDbText
  0
TEXT
  5
1A8E
330
1F
100
AcDbEntity
  8
0
100
AcDbText
 10
2316.690524132943
 20
435.8278602429207
 30
0.0
 40
12.0
  1
MDT-32B
 41
0.75
  7
CHINESET
100
AcDbText
  0
TEXT
  5
1A8F
330
1F
100
AcDbEntity
  8
0
100
AcDbText
 10
2682.690524132943
 20
435.8278602429207
 30
0.0
 40
12.0
  1
MDT-40B
 41
0.75
  7
CHINESET
100
AcDbText
  0
LINE
  5
1A96
330
1F
100
AcDbEntity
  8
LOGO
 62
     6
100
AcDbLine
 10
2325.701762585913
 20
61.10156850188355
 30
0.0
 11
2325.701762585913
 21
31.77248252903132
 31
0.0
  0
LINE
  5
1A97
330
1F
100
AcDbEntity
  8
LOGO
 62
     6
100
AcDbLine
 10
2259.791624617458
 20
61.10156850188355
 30
0.0
 11
2259.791624617458
 21
31.77248252903132
 31
0.0
  0
LINE
  5
1A98
330
1F
100
AcDbEntity
  8
LOGO
 62
     6
100
AcDbLine
 10
2325.701762585913
 20
31.77248252903132
 30
0.0
 11
2259.791624617458
 21
31.77248252903132
 31
0.0
  0
LINE
  5
1A99
330
1F
100
AcDbEntity
  8
LOGO
 62
     6
100
AcDbLine
 10
2287.865466829118
 20
97.09635583219892
 30
0.0
 11
2271.043187950929
 21
97.09635583219892
 31
0.0
  0
LINE
  5
1A9A
330
1F
100
AcDbEntity
  8
LOGO
 62
     6
100
AcDbLine
 10
2287.865466829118
 20
73.0998309453214
 30
0.0
 11
2271.043187950929
 21
73.0998309453214
 31
0.0
  0
LINE
  5
1A9B
330
1F
100
AcDbEntity
  8
LOGO
 62
     6
100
AcDbLine
 10
2271.043187950929
 20
97.09635583219892
 30
0.0
 11
2271.043187950929
 21
73.0998309453214
 31
0.0
  0
LINE
  5
1A9C
330
1F
100
AcDbEntity
  8
LOGO
 62
     6
100
AcDbLine
 10
2287.865466829118
 20
97.09635583219892
 30
0.0
 11
2287.865466829118
 21
73.0998309453214
 31
0.0
  0
LINE
  5
1A9D
330
1F
100
AcDbEntity
  8
LOGO
 62
     6
100
AcDbLine
 10
2280.269028050499
 20
73.0998309453214
 30
0.0
 11
2280.269028050499
 21
61.10156850188355
 31
0.0
  0
TEXT
  5
1A9E
330
1F
100
AcDbEntity
  8
LOGO
  6
Continuous
 62
     7
100
AcDbText
 10
2276.032214502213
 20
78.10907043254132
 30
0.0
 40
14.0
  1
*
  7
CHINESET
100
AcDbText
  0
LINE
  5
1A9F
330
1F
100
AcDbEntity
  8
LOGO
 62
     6
100
AcDbLine
 10
2325.701762585913
 20
61.10156850188355
 30
0.0
 11
2259.791624617458
 21
61.10156850188355
 31
0.0
  0
TEXT
  5
1AA0
330
1F
100
AcDbEntity
  8
LOGO
  6
Continuous
 62
     6
100
AcDbText
 10
2265.144334813762
 20
35.91222082032778
 30
524.2309030401992
 40
6.0
  1
Swivel direction
 41
0.8
  7
CHINESET
100
AcDbText
  0
TEXT
  5
1AA1
330
1F
100
AcDbEntity
  8
LOGO
 62
     6
100
AcDbText
 10
2271.898273766908
 20
47.03492772803724
 30
524.2309030401992
 40
10.0
  1
旋轉方向
  7
CHINESET
100
AcDbText
  0
LINE
  5
1AA3
330
1F
100
AcDbEntity
  8
LOGO
  6
Continuous
 62
     7
100
AcDbLine
 10
2292.271191500926
 20
85.01309390526399
 30
0.0
 11
2302.867181296684
 21
85.01309390526399
 31
0.0
  0
TEXT
  5
1AA6
330
1F
100
AcDbEntity
  8
LOGO
  6
Continuous
 62
     7
100
AcDbText
 10
2356.634392843207
 20
78.10907043254132
 30
0.0
 40
14.0
  1
x
  7
CHINESET
100
AcDbText
  0
LINE
  5
1AA7
330
1F
100
AcDbEntity
  8
LOGO
 62
     6
100
AcDbLine
 10
2406.974627920213
 20
97.09635583219892
 30
0.0
 11
2369.037379059419
 21
97.09635583219892
 31
0.0
  0
LINE
  5
1AA8
330
1F
100
AcDbEntity
  8
LOGO
 62
     6
100
AcDbLine
 10
2406.974627920213
 20
73.0998309453214
 30
0.0
 11
2369.037379059419
 21
73.0998309453214
 31
0.0
  0
LINE
  5
1AA9
330
1F
100
AcDbEntity
  8
LOGO
 62
     6
100
AcDbLine
 10
2369.037379059419
 20
97.09635583219892
 30
0.0
 11
2369.037379059419
 21
73.0998309453214
 31
0.0
  0
LINE
  5
1AAA
330
1F
100
AcDbEntity
  8
LOGO
 62
     6
100
AcDbLine
 10
2406.974627920213
 20
97.09635583219892
 30
0.0
 11
2406.974627920213
 21
73.0998309453214
 31
0.0
  0
TEXT
  5
1AAB
330
1F
100
AcDbEntity
  8
LOGO
  6
Continuous
 62
     7
100
AcDbText
 10
2384.519746305021
 20
78.10907043254132
 30
0.0
 40
14.0
  1
*
  7
CHINESET
100
AcDbText
  0
LINE
  5
1AAC
330
1F
100
AcDbEntity
  8
LOGO
 62
     6
100
AcDbLine
 10
2438.903397885215
 20
61.10156850188355
 30
0.0
 11
2438.903397885215
 21
31.77248252903132
 31
0.0
  0
LINE
  5
1AAD
330
1F
100
AcDbEntity
  8
LOGO
 62
     6
100
AcDbLine
 10
2389.911313801174
 20
61.10156850188355
 30
0.0
 11
2389.911313801174
 21
31.77248252903132
 31
0.0
  0
LINE
  5
1AAE
330
1F
100
AcDbEntity
  8
LOGO
 62
     6
100
AcDbLine
 10
2438.903397885215
 20
31.77248252903132
 30
0.0
 11
2389.911313801174
 21
31.77248252903132
 31
0.0
  0
LINE
  5
1AAF
330
1F
100
AcDbEntity
  8
LOGO
 62
     6
100
AcDbLine
 10
2438.903397885215
 20
61.10156850188355
 30
0.0
 11
2389.911313801174
 21
61.10156850188355
 31
0.0
  0
TEXT
  5
1AB0
330
1F
100
AcDbEntity
  8
LOGO
  6
Continuous
 62
     6
100
AcDbText
 10
2402.292702325878
 20
35.91222082032778
 30
524.2309030401992
 40
6.0
  1
Angle
 41
0.8
  7
CHINESET
100
AcDbText
  0
TEXT
  5
1AB1
330
1F
100
AcDbEntity
  8
LOGO
 62
     6
100
AcDbText
 10
2394.685739553612
 20
47.03492772803724
 30
524.2309030401992
 40
10.0
  1
旋轉角度
  7
CHINESET
100
AcDbText
  0
LINE
  5
1AB7
330
1F
100
AcDbEntity
  8
LOGO
 62
     6
100
AcDbLine
 10
2388.006003489816
 20
73.09983094532142
 30
0.0
 11
2388.006003489816
 21
67.10069972360248
 31
0.0
  0
LINE
  5
1AB8
330
1F
100
AcDbEntity
  8
LOGO
 62
     6
100
AcDbLine
 10
2388.006003489816
 20
67.10069972360248
 30
0.0
 11
2414.407355843194
 21
67.10069972360248
 31
0.0
  0
LINE
  5
1AB9
330
1F
100
AcDbEntity
  8
LOGO
 62
     6
100
AcDbLine
 10
2414.407355843195
 20
61.10156850188355
 30
0.0
 11
2414.407355843194
 21
67.10069972360248
 31
0.0
  0
LINE
  5
1ABA
330
1F
100
AcDbEntity
  8
LOGO
 62
     6
100
AcDbLine
 10
2328.978918388493
 20
73.09983094532142
 30
0.0
 11
2328.978918388493
 21
67.10069972360248
 31
0.0
  0
LINE
  5
1ABB
330
1F
100
AcDbEntity
  8
LOGO
 62
     6
100
AcDbLine
 10
2328.978918388493
 20
67.10069972360248
 30
0.0
 11
2357.836436877899
 21
67.10069972360248
 31
0.0
  0
LINE
  5
1ABC
330
1F
100
AcDbEntity
  8
LOGO
 62
     6
100
AcDbLine
 10
2357.836436877899
 20
61.10156850188355
 30
0.0
 11
2357.836436877899
 21
67.10069972360248
 31
0.0
  0
LINE
  5
2AF6
330
1F
100
AcDbEntity
  8
0
100
AcDbLine
 10
2078.371318514503
 20
526.9561227128467
 30
0.0
 11
2123.371318514503
 21
526.9561227128467
 31
0.0
  0
LINE
  5
2AF7
330
1F
100
AcDbEntity
  8
0
100
AcDbLine
 10
2123.371318514503
 20
509.9561227128467
 30
0.0
 11
2123.371318514503
 21
605.9561227128467
 31
0.0
  0
LINE
  5
2AF8
330
1F
100
AcDbEntity
  8
0
100
AcDbLine
 10
2122.371318514503
 20
606.9561227128467
 30
0.0
 11
2079.371318514503
 21
606.9561227128467
 31
0.0
  0
LINE
  5
2AF9
330
1F
100
AcDbEntity
  8
0
100
AcDbLine
 10
2078.371318514503
 20
605.9561227128467
 30
0.0
 11
2078.371318514503
 21
509.9561227128467
 31
0.0
  0
LINE
  5
2AFA
330
1F
100
AcDbEntity
  8
0
100
AcDbLine
 10
2123.371318514503
 20
574.9561227128467
 30
0.0
 11
2078.371318514503
 21
574.9561227128467
 31
0.0
  0
LINE
  5
2AFC
330
1F
100
AcDbEntity
  8
0
100
AcDbLine
 10
2122.371318514503
 20
526.9561227128467
 30
0.0
 11
2122.371318514503
 21
574.9561227128467
 31
0.0
  0
LINE
  5
2AFD
330
1F
100
AcDbEntity
  8
0
100
AcDbLine
 10
2079.371318514503
 20
574.9561227128467
 30
0.0
 11
2079.371318514503
 21
526.9561227128467
 31
0.0
  0
LINE
  5
2AFF
330
1F
100
AcDbEntity
  8
0
100
AcDbLine
 10
2051.871318514503
 20
635.9561227128467
 30
0.0
 11
2149.871318514503
 21
635.9561227128467
 31
0.0
  0
LINE
  5
2B00
330
1F
100
AcDbEntity
  8
0
100
AcDbLine
 10
2051.871318514503
 20
654.9561227128467
 30
0.0
 11
2149.871318514503
 21
654.9561227128467
 31
0.0
  0
LINE
  5
2B01
330
1F
100
AcDbEntity
  8
0
100
AcDbLine
 10
2051.912984551748
 20
704.921125127035
 30
0.0
 11
2149.912984551749
 21
704.921125127035
 31
0.0
  0
LINE
  5
2B02
330
1F
100
AcDbEntity
  8
0
100
AcDbLine
 10
2051.912984551748
 20
723.9211251270351
 30
0.0
 11
2149.912984551749
 21
723.9211251270351
 31
0.0
  0
LINE
  5
2B05
330
1F
100
AcDbEntity
  8
0
100
AcDbLine
 10
2150.912984551748
 20
705.9211251270351
 30
0.0
 11
2150.912984551748
 21
722.9211251270351
 31
0.0
  0
LINE
  5
2B06
330
1F
100
AcDbEntity
  8
0
100
AcDbLine
 10
2050.912984551748
 20
705.9211251270351
 30
0.0
 11
2050.912984551748
 21
722.9211251270351
 31
0.0
  0
LINE
  5
2B07
330
1F
100
AcDbEntity
  8
0
100
AcDbLine
 10
2150.871318514503
 20
653.9561227128467
 30
0.0
 11
2150.871318514503
 21
636.9561227128468
 31
0.0
  0
LINE
  5
2B08
330
1F
100
AcDbEntity
  8
0
100
AcDbLine
 10
2050.871318514503
 20
653.9561227128467
 30
0.0
 11
2050.871318514503
 21
636.9561227128468
 31
0.0
  0
LINE
  5
2B09
330
1F
100
AcDbEntity
  8
0
100
AcDbLine
 10
2090.412984551748
 20
718.9211251270351
 30
0.0
 11
2111.412984551748
 21
718.9211251270351
 31
0.0
  0
LINE
  5
2B0A
330
1F
100
AcDbEntity
  8
0
100
AcDbLine
 10
2090.412984551748
 20
709.9211251270351
 30
0.0
 11
2111.412984551748
 21
709.9211251270351
 31
0.0
  0
LINE
  5
2B0B
330
1F
100
AcDbEntity
  8
0
100
AcDbLine
 10
2149.912984551749
 20
723.9211251270351
 30
0.0
 11
2150.912984551748
 21
722.9211251270351
 31
0.0
  0
LINE
  5
2B0C
102
{ACAD_REACTORS
330
2EB6
102
}
330
1F
100
AcDbEntity
  8
0
100
AcDbLine
 10
2150.912984551748
 20
705.9211251270351
 30
0.0
 11
2149.912984551749
 21
704.921125127035
 31
0.0
  0
LINE
  5
2B0D
102
{ACAD_REACTORS
330
2EB6
102
}
330
1F
100
AcDbEntity
  8
0
100
AcDbLine
 10
2051.912984551748
 20
704.921125127035
 30
0.0
 11
2050.912984551748
 21
705.9211251270351
 31
0.0
  0
LINE
  5
2B0E
330
1F
100
AcDbEntity
  8
0
100
AcDbLine
 10
2050.912984551748
 20
722.9211251270351
 30
0.0
 11
2051.912984551748
 21
723.9211251270351
 31
0.0
  0
LINE
  5
2B0F
330
1F
100
AcDbEntity
  8
0
100
AcDbLine
 10
2149.871318514503
 20
654.9561227128467
 30
0.0
 11
2150.871318514503
 21
653.9561227128467
 31
0.0
  0
LINE
  5
2B10
330
1F
100
AcDbEntity
  8
0
100
AcDbLine
 10
2150.871318514503
 20
636.9561227128468
 30
0.0
 11
2149.871318514503
 21
635.9561227128467
 31
0.0
  0
LINE
  5
2B11
330
1F
100
AcDbEntity
  8
0
100
AcDbLine
 10
2051.871318514503
 20
635.9561227128467
 30
0.0
 11
2050.871318514503
 21
636.9561227128468
 31
0.0
  0
LINE
  5
2B12
330
1F
100
AcDbEntity
  8
0
100
AcDbLine
 10
2050.871318514503
 20
653.9561227128467
 30
0.0
 11
2051.871318514503
 21
654.9561227128467
 31
0.0
  0
ARC
  5
2B13
330
1F
100
AcDbEntity
  8
0
100
AcDbCircle
 10
2090.412984551748
 20
714.4211251270351
 30
0.0
 40
4.5
100
AcDbArc
 50
90.0
 51
270.0
  0
ARC
  5
2B14
330
1F
100
AcDbEntity
  8
0
100
AcDbCircle
 10
2111.412984551748
 20
714.4211251270351
 30
0.0
 40
4.5
100
AcDbArc
 50
270.0
 51
90.0
  0
ARC
  5
2B15
330
1F
100
AcDbEntity
  8
0
100
AcDbCircle
 10
2100.912984551748
 20
714.4211251270351
 30
0.0
 40
8.0
100
AcDbArc
 50
325.7711336721882
 51
34.22886632781179
  0
ARC
  5
2B16
330
1F
100
AcDbEntity
  8
0
100
AcDbCircle
 10
2100.912984551748
 20
714.4211251270351
 30
0.0
 40
8.0
100
AcDbArc
 50
145.7711336721882
 51
214.2288663278118
  0
CIRCLE
  5
2B17
330
1F
100
AcDbEntity
  8
0
100
AcDbCircle
 10
2100.871318514503
 20
645.4561227128468
 30
0.0
 40
4.0
  0
ARC
  5
2B19
330
1F
100
AcDbEntity
  8
0
100
AcDbCircle
 10
2100.912984551748
 20
714.4211251270351
 30
0.0
 40
22.0
100
AcDbArc
 50
205.5830019773967
 51
334.4169980226033
  0
ARC
  5
2B1A
330
1F
100
AcDbEntity
  8
0
100
AcDbCircle
 10
2100.912984551748
 20
714.4211251270351
 30
0.0
 40
22.5
100
AcDbArc
 50
204.974965367662
 51
335.025034632338
  0
ARC
  5
2B1B
330
1F
100
AcDbEntity
  8
0
100
AcDbCircle
 10
2100.912984551748
 20
714.4211251270351
 30
0.0
 40
22.0
100
AcDbArc
 50
25.58300197739672
 51
154.4169980226033
  0
ARC
  5
2B1C
330
1F
100
AcDbEntity
  8
0
100
AcDbCircle
 10
2100.912984551748
 20
714.4211251270351
 30
0.0
 40
22.5
100
AcDbArc
 50
24.97496536766199
 51
155.025034632338
  0
LINE
  5
2B1D
330
1F
100
AcDbEntity
  8
0
100
AcDbLine
 10
2091.871318514503
 20
635.9561227128467
 30
0.0
 11
2091.871318514503
 21
606.9561227128467
 31
0.0
  0
LINE
  5
2B1E
330
1F
100
AcDbEntity
  8
0
100
AcDbLine
 10
2109.871318514503
 20
635.9561227128467
 30
0.0
 11
2109.871318514503
 21
606.9561227128467
 31
0.0
  0
LINE
  5
2B1F
330
1F
100
AcDbEntity
  8
0
100
AcDbLine
 10
2079.371318514503
 20
508.9561227128467
 30
0.0
 11
2122.371318514503
 21
508.9561227128467
 31
0.0
  0
LINE
  5
2B21
330
1F
100
AcDbEntity
  8
0
100
AcDbLine
 10
2078.371318514503
 20
605.9561227128467
 30
0.0
 11
2079.371318514503
 21
606.9561227128467
 31
0.0
  0
LINE
  5
2B22
330
1F
100
AcDbEntity
  8
0
100
AcDbLine
 10
2122.371318514503
 20
606.9561227128467
 30
0.0
 11
2123.371318514503
 21
605.9561227128467
 31
0.0
  0
LINE
  5
2B23
330
1F
100
AcDbEntity
  8
0
100
AcDbLine
 10
2079.371318514503
 20
508.9561227128467
 30
0.0
 11
2078.371318514503
 21
509.9561227128467
 31
0.0
  0
LINE
  5
2B24
330
1F
100
AcDbEntity
  8
0
100
AcDbLine
 10
2122.371318514503
 20
508.9561227128467
 30
0.0
 11
2123.371318514503
 21
509.9561227128467
 31
0.0
  0
LINE
  5
2D0C
330
1F
100
AcDbEntity
  8
0
  6
HIDDEN
 62
     3
 48
0.5
100
AcDbLine
 10
2112.083171638946
 20
595.9235945354229
 30
0.0
 11
2123.039187572882
 21
595.9235945354229
 31
0.0
  0
LINE
  5
2D0D
330
1F
100
AcDbEntity
  8
0
  6
HIDDEN
 62
     3
 48
0.5
100
AcDbLine
 10
2112.560422185771
 20
586.4235945354229
 30
0.0
 11
2123.039187572882
 21
586.4235945354229
 31
0.0
  0
LINE
  5
2D0E
330
1F
100
AcDbEntity
  8
0
  6
HIDDEN
 62
     3
 48
0.5
100
AcDbLine
 10
2112.560422185771
 20
587.4235945354229
 30
0.0
 11
2123.039187572882
 21
587.4235945354229
 31
0.0
  0
LINE
  5
2D0F
330
1F
100
AcDbEntity
  8
0
  6
HIDDEN
 62
     3
 48
0.5
100
AcDbLine
 10
2112.083171638946
 20
594.9235945354229
 30
0.0
 11
2123.039187572882
 21
594.9235945354229
 31
0.0
  0
LINE
  5
2D1D
330
1F
100
AcDbEntity
  8
AM_7
100
AcDbLine
 10
2048.912984551748
 20
714.4211251270351
 30
0.0
 11
2152.912984551748
 21
714.4211251270351
 31
0.0
1001
GENIUS_GENODEF_13
1002
{
1000
HIER
1070
     0
1002
}
1002
{
1000
MANEDIT
1070
     0
1002
}
1002
{
1000
NOSEL
1070
     0
1002
}
1002
{
1000
BEHIND
1070
     0
1002
}
1002
{
1000
OTHER
1070
     0
1002
}
1002
{
1000
REACTOR
1002
}
1001
GENIUS_GENOBJ-N-CEN_13
1002
{
1000
OWNER
1000
GEN
1002
}
1001
GENIUS_GENCEN_19
1002
{
1040
2.0
1002
}
  0
LINE
  5
2D2A
330
1F
100
AcDbEntity
  8
AM_7
100
AcDbLine
 10
2100.871318514503
 20
656.9561227128467
 30
0.0
 11
2100.871318514503
 21
506.9561227128467
 31
0.0
1001
GENIUS_GENODEF_13
1002
{
1000
HIER
1070
     0
1002
}
1002
{
1000
MANEDIT
1070
     0
1002
}
1002
{
1000
NOSEL
1070
     0
1002
}
1002
{
1000
BEHIND
1070
     0
1002
}
1002
{
1000
OTHER
1070
     0
1002
}
1002
{
1000
REACTOR
1002
}
1001
GENIUS_GENOBJ-N-CEN_13
1002
{
1000
OWNER
1000
GEN
1002
}
1001
GENIUS_GENCEN_19
1002
{
1040
2.0
1002
}
  0
LINE
  5
2D37
330
1F
100
AcDbEntity
  8
AM_7
100
AcDbLine
 10
2100.912984551748
 20
738.9211251270351
 30
0.0
 11
2100.912984551748
 21
690.4211251270351
 31
0.0
1001
GENIUS_GENODEF_13
1002
{
1000
HIER
1070
     0
1002
}
1002
{
1000
MANEDIT
1070
     0
1002
}
1002
{
1000
NOSEL
1070
     0
1002
}
1002
{
1000
BEHIND
1070
     0
1002
}
1002
{
1000
OTHER
1070
     0
1002
}
1002
{
1000
REACTOR
1002
}
1001
GENIUS_GENOBJ-N-CEN_13
1002
{
1000
OWNER
1000
GEN
1002
}
1001
GENIUS_GENCEN_19
1002
{
1040
2.0
1002
}
  0
DIMENSION
  5
2D38
330
1F
100
AcDbEntity
  8
AM_5
100
AcDbDimension
  2
*D3
 10
2162.912984551748
 20
606.9561227128467
 30
0.0
 11
2160.412984551749
 21
557.9561227128471
 31
0.0
 70
    32
 71
     5
 42
98.00000000000006
  3
AM_ISO$0
100
AcDbAlignedDimension
 13
2132.954650588994
 23
508.9561227128466
 33
0.0
 14
2122.412984551748
 24
606.9561227128467
 34
0.0
 50
90.0
100
AcDbRotatedDimension
1001
ACAD
1000
DSTYLE
1002
{
1070
    40
1040
1.0
1070
   144
1040
1.0
1070
   272
1070
     8
1002
}
  0
DIMENSION
  5
2D39
330
1F
100
AcDbEntity
  8
AM_5
100
AcDbDimension
  2
*D4
 10
2172.912984551748
 20
635.9561227128467
 30
0.0
 11
2170.412984551748
 21
572.4561227128471
 31
0.0
 70
    32
 71
     5
 42
127.0
  3
AM_ISO$0
100
AcDbAlignedDimension
 13
2132.954650588994
 23
508.9561227128466
 33
0.0
 14
2149.912984551749
 24
635.9561227128467
 34
0.0
 50
90.0
100
AcDbRotatedDimension
1001
ACAD
1000
DSTYLE
1002
{
1070
    40
1040
1.0
1070
   144
1040
1.0
1070
   272
1070
     8
1002
}
  0
DIMENSION
  5
2D3B
330
1F
100
AcDbEntity
  8
AM_5
100
AcDbDimension
  2
*D5
 10
2172.912984551748
 20
635.9561227128467
 30
0.0
 11
2170.412984551748
 21
645.4561227128471
 31
0.0
 70
    32
 71
     5
 42
19.0
  3
AM_ISO$0
100
AcDbAlignedDimension
 13
2149.912984551749
 23
654.9561227128467
 33
0.0
 14
2149.912984551749
 24
635.9561227128467
 34
0.0
 50
90.0
100
AcDbRotatedDimension
1001
ACAD
1000
DSTYLE
1002
{
1070
    40
1040
1.0
1070
   144
1040
1.0
1070
   272
1070
     8
1002
}
  0
DIMENSION
  5
2D9F
330
1F
100
AcDbEntity
  8
AM_5
100
AcDbDimension
  2
*D6
 10
2123.371318514503
 20
549.9624340869327
 30
0.0
 11
2100.871318514503
 21
552.4624340869327
 31
0.0
 70
    32
  1
M<>x1.5
 71
     5
 42
45.0
  3
AM_ISO$0
100
AcDbAlignedDimension
 13
2078.371318514503
 23
557.9561227128468
 33
0.0
 14
2123.371318514503
 24
557.9561227128468
 34
0.0
 50
0.0000000000001132
100
AcDbRotatedDimension
1001
ACAD
1000
DSTYLE
1002
{
1070
    40
1040
1.0
1070
   144
1040
1.0
1070
   272
1070
     8
1002
}
  0
LINE
  5
2E38
330
1F
100
AcDbEntity
  8
0
100
AcDbLine
 10
2078.412984551748
 20
177.2730235218529
 30
0.0
 11
2123.412984551748
 21
177.2730235218529
 31
0.0
  0
LINE
  5
2E39
330
1F
100
AcDbEntity
  8
0
100
AcDbLine
 10
2123.412984551748
 20
160.2730235218529
 30
0.0
 11
2123.412984551748
 21
256.2730235218529
 31
0.0
  0
LINE
  5
2E3A
330
1F
100
AcDbEntity
  8
0
100
AcDbLine
 10
2122.412984551748
 20
257.2730235218529
 30
0.0
 11
2079.412984551748
 21
257.2730235218529
 31
0.0
  0
LINE
  5
2E3B
330
1F
100
AcDbEntity
  8
0
100
AcDbLine
 10
2078.412984551748
 20
256.2730235218529
 30
0.0
 11
2078.412984551748
 21
160.2730235218529
 31
0.0
  0
LINE
  5
2E3C
330
1F
100
AcDbEntity
  8
0
100
AcDbLine
 10
2123.412984551748
 20
225.2730235218529
 30
0.0
 11
2078.412984551748
 21
225.2730235218529
 31
0.0
  0
LINE
  5
2E3E
330
1F
100
AcDbEntity
  8
0
100
AcDbLine
 10
2122.412984551748
 20
177.2730235218529
 30
0.0
 11
2122.412984551748
 21
225.2730235218529
 31
0.0
  0
LINE
  5
2E3F
330
1F
100
AcDbEntity
  8
0
100
AcDbLine
 10
2079.412984551748
 20
225.2730235218529
 30
0.0
 11
2079.412984551748
 21
177.2730235218529
 31
0.0
  0
LINE
  5
2E40
330
1F
100
AcDbEntity
  8
0
100
AcDbLine
 10
2051.912984551748
 20
293.2730235218529
 30
0.0
 11
2149.912984551749
 21
293.2730235218529
 31
0.0
  0
LINE
  5
2E41
330
1F
100
AcDbEntity
  8
0
100
AcDbLine
 10
2051.912984551748
 20
312.2730235218529
 30
0.0
 11
2149.912984551749
 21
312.2730235218529
 31
0.0
  0
LINE
  5
2E42
330
1F
100
AcDbEntity
  8
0
100
AcDbLine
 10
2051.954650588994
 20
355.2380259360413
 30
0.0
 11
2149.954650588993
 21
355.2380259360413
 31
0.0
  0
LINE
  5
2E43
330
1F
100
AcDbEntity
  8
0
100
AcDbLine
 10
2051.954650588994
 20
374.2380259360412
 30
0.0
 11
2149.954650588993
 21
374.2380259360412
 31
0.0
  0
LINE
  5
2E46
330
1F
100
AcDbEntity
  8
0
100
AcDbLine
 10
2150.954650588994
 20
356.2380259360413
 30
0.0
 11
2150.954650588994
 21
373.2380259360413
 31
0.0
  0
LINE
  5
2E47
330
1F
100
AcDbEntity
  8
0
100
AcDbLine
 10
2050.954650588994
 20
356.2380259360413
 30
0.0
 11
2050.954650588994
 21
373.2380259360413
 31
0.0
  0
LINE
  5
2E48
330
1F
100
AcDbEntity
  8
0
100
AcDbLine
 10
2150.912984551748
 20
311.2730235218529
 30
0.0
 11
2150.912984551748
 21
294.2730235218529
 31
0.0
  0
LINE
  5
2E49
330
1F
100
AcDbEntity
  8
0
100
AcDbLine
 10
2050.912984551748
 20
311.2730235218529
 30
0.0
 11
2050.912984551748
 21
294.2730235218529
 31
0.0
  0
LINE
  5
2E4A
330
1F
100
AcDbEntity
  8
0
100
AcDbLine
 10
2090.454650588994
 20
369.2380259360413
 30
0.0
 11
2111.454650588993
 21
369.2380259360413
 31
0.0
  0
LINE
  5
2E4B
330
1F
100
AcDbEntity
  8
0
100
AcDbLine
 10
2090.454650588994
 20
360.2380259360412
 30
0.0
 11
2111.454650588993
 21
360.2380259360412
 31
0.0
  0
LINE
  5
2E4C
330
1F
100
AcDbEntity
  8
0
100
AcDbLine
 10
2149.954650588993
 20
374.2380259360412
 30
0.0
 11
2150.954650588994
 21
373.2380259360413
 31
0.0
  0
LINE
  5
2E4D
330
1F
100
AcDbEntity
  8
0
100
AcDbLine
 10
2150.954650588994
 20
356.2380259360413
 30
0.0
 11
2149.954650588993
 21
355.2380259360413
 31
0.0
  0
LINE
  5
2E4E
330
1F
100
AcDbEntity
  8
0
100
AcDbLine
 10
2051.954650588994
 20
355.2380259360413
 30
0.0
 11
2050.954650588994
 21
356.2380259360413
 31
0.0
  0
LINE
  5
2E4F
330
1F
100
AcDbEntity
  8
0
100
AcDbLine
 10
2050.954650588994
 20
373.2380259360413
 30
0.0
 11
2051.954650588994
 21
374.2380259360412
 31
0.0
  0
LINE
  5
2E50
330
1F
100
AcDbEntity
  8
0
100
AcDbLine
 10
2149.912984551749
 20
312.2730235218529
 30
0.0
 11
2150.912984551748
 21
311.2730235218529
 31
0.0
  0
LINE
  5
2E51
330
1F
100
AcDbEntity
  8
0
100
AcDbLine
 10
2150.912984551748
 20
294.2730235218529
 30
0.0
 11
2149.912984551749
 21
293.2730235218529
 31
0.0
  0
LINE
  5
2E52
330
1F
100
AcDbEntity
  8
0
100
AcDbLine
 10
2051.912984551748
 20
293.2730235218529
 30
0.0
 11
2050.912984551748
 21
294.2730235218529
 31
0.0
  0
LINE
  5
2E53
330
1F
100
AcDbEntity
  8
0
100
AcDbLine
 10
2050.912984551748
 20
311.2730235218529
 30
0.0
 11
2051.912984551748
 21
312.2730235218529
 31
0.0
  0
ARC
  5
2E54
330
1F
100
AcDbEntity
  8
0
100
AcDbCircle
 10
2090.454650588994
 20
364.7380259360413
 30
0.0
 40
4.5
100
AcDbArc
 50
90.0
 51
270.0
  0
ARC
  5
2E55
330
1F
100
AcDbEntity
  8
0
100
AcDbCircle
 10
2111.454650588993
 20
364.7380259360413
 30
0.0
 40
4.5
100
AcDbArc
 50
270.0
 51
90.0
  0
ARC
  5
2E56
330
1F
100
AcDbEntity
  8
0
100
AcDbCircle
 10
2100.954650588993
 20
364.7380259360413
 30
0.0
 40
8.0
100
AcDbArc
 50
325.7711336721882
 51
34.22886632781179
  0
ARC
  5
2E57
330
1F
100
AcDbEntity
  8
0
100
AcDbCircle
 10
2100.954650588993
 20
364.7380259360413
 30
0.0
 40
8.0
100
AcDbArc
 50
145.7711336721882
 51
214.2288663278118
  0
CIRCLE
  5
2E58
330
1F
100
AcDbEntity
  8
0
100
AcDbCircle
 10
2100.912984551748
 20
302.7730235218529
 30
0.0
 40
4.0
  0
ARC
  5
2E5A
330
1F
100
AcDbEntity
  8
0
100
AcDbCircle
 10
2100.954650588993
 20
364.7380259360413
 30
0.0
 40
22.0
100
AcDbArc
 50
205.5830019773967
 51
334.4169980226033
  0
ARC
  5
2E5B
330
1F
100
AcDbEntity
  8
0
100
AcDbCircle
 10
2100.954650588993
 20
364.7380259360413
 30
0.0
 40
22.5
100
AcDbArc
 50
204.974965367662
 51
335.025034632338
  0
ARC
  5
2E5C
330
1F
100
AcDbEntity
  8
0
100
AcDbCircle
 10
2100.954650588993
 20
364.7380259360413
 30
0.0
 40
22.0
100
AcDbArc
 50
25.58300197739672
 51
154.4169980226033
  0
ARC
  5
2E5D
330
1F
100
AcDbEntity
  8
0
100
AcDbCircle
 10
2100.954650588993
 20
364.7380259360413
 30
0.0
 40
22.5
100
AcDbArc
 50
24.97496536766199
 51
155.025034632338
  0
LINE
  5
2E5E
330
1F
100
AcDbEntity
  8
0
100
AcDbLine
 10
2091.912984551748
 20
293.2730235218529
 30
0.0
 11
2091.912984551748
 21
257.2730235218529
 31
0.0
  0
LINE
  5
2E5F
330
1F
100
AcDbEntity
  8
0
100
AcDbLine
 10
2109.912984551748
 20
293.2730235218529
 30
0.0
 11
2109.912984551748
 21
257.2730235218529
 31
0.0
  0
LINE
  5
2E60
330
1F
100
AcDbEntity
  8
0
100
AcDbLine
 10
2079.412984551748
 20
159.2730235218529
 30
0.0
 11
2122.412984551748
 21
159.2730235218529
 31
0.0
  0
LINE
  5
2E8C
330
1F
100
AcDbEntity
  8
0
  6
HIDDEN
 62
     3
 48
0.5
100
AcDbLine
 10
2112.124837676192
 20
245.0248643711282
 30
0.0
 11
2123.412984551748
 21
245.0248643711282
 31
0.0
  0
LINE
  5
2E8D
330
1F
100
AcDbEntity
  8
0
  6
HIDDEN
 62
     3
 48
0.5
100
AcDbLine
 10
2112.602088223017
 20
235.5248643711282
 30
0.0
 11
2123.412984551748
 21
235.5248643711282
 31
0.0
  0
LINE
  5
2E8E
330
1F
100
AcDbEntity
  8
0
  6
HIDDEN
 62
     3
 48
0.5
100
AcDbLine
 10
2112.602088223017
 20
236.5248643711282
 30
0.0
 11
2123.412984551748
 21
236.5248643711282
 31
0.0
  0
LINE
  5
2E8F
330
1F
100
AcDbEntity
  8
0
  6
HIDDEN
 62
     3
 48
0.5
100
AcDbLine
 10
2112.124837676192
 20
244.0248643711282
 30
0.0
 11
2123.412984551748
 21
244.0248643711282
 31
0.0
  0
LINE
  5
2E90
330
1F
100
AcDbEntity
  8
0
  6
HIDDEN
 62
     3
 48
0.5
100
AcDbLine
 10
2119.976231579811
 20
170.6305945436343
 30
0.0
 11
2119.976231579811
 21
159.2730235218529
 31
0.0
  0
LINE
  5
2E91
330
1F
100
AcDbEntity
  8
0
  6
HIDDEN
 62
     3
 48
0.5
100
AcDbLine
 10
2109.97623157981
 20
169.7916383557823
 30
0.0
 11
2109.97623157981
 21
159.2730235218529
 31
0.0
  0
LINE
  5
2E92
330
1F
100
AcDbEntity
  8
0
  6
HIDDEN
 62
     3
 48
0.5
100
AcDbLine
 10
2118.976231579811
 20
170.4628034564035
 30
0.0
 11
2118.976231579811
 21
159.2730235218529
 31
0.0
  0
LINE
  5
2E93
330
1F
100
AcDbEntity
  8
0
  6
HIDDEN
 62
     3
 48
0.5
100
AcDbLine
 10
2110.976231579811
 20
170.127221281942
 30
0.0
 11
2110.976231579811
 21
159.2730235218529
 31
0.0
  0
LINE
  5
2E94
330
1F
100
AcDbEntity
  8
0
100
AcDbLine
 10
2078.412984551748
 20
256.2730235218529
 30
0.0
 11
2079.412984551748
 21
257.2730235218529
 31
0.0
  0
LINE
  5
2E95
330
1F
100
AcDbEntity
  8
0
100
AcDbLine
 10
2122.412984551748
 20
257.2730235218529
 30
0.0
 11
2123.412984551748
 21
256.2730235218529
 31
0.0
  0
LINE
  5
2E96
330
1F
100
AcDbEntity
  8
0
100
AcDbLine
 10
2078.412984551748
 20
160.2730235218529
 30
0.0
 11
2079.412984551748
 21
159.2730235218529
 31
0.0
  0
LINE
  5
2E97
330
1F
100
AcDbEntity
  8
0
100
AcDbLine
 10
2122.412984551748
 20
159.2730235218529
 30
0.0
 11
2123.412984551748
 21
160.2730235218529
 31
0.0
  0
DIMENSION
  5
2EA8
102
{ACAD_XDICTIONARY
360
2EB5
102
}
102
{ACAD_REACTORS
330
2EB6
102
}
330
1F
100
AcDbEntity
  8
AM_5
100
AcDbDimension
  2
*D7
 10
2150.912984551748
 20
679.9211241170352
 30
0.0
 11
2100.912984551748
 21
682.4211241170352
 31
0.0
 70
    32
 71
     5
 42
100.0
  3
AM_ISO$0
100
AcDbAlignedDimension
 13
2050.912984551748
 23
705.9211251270351
 33
0.0
 14
2150.912984551748
 24
705.9211251270351
 34
0.0
 50
0.0000000000001132
100
AcDbRotatedDimension
1001
ACAD
1000
DSTYLE
1002
{
1070
    40
1040
1.0
1070
   144
1040
1.0
1070
   272
1070
     8
1002
}
  0
LINE
  5
2ED0
330
1F
100
AcDbEntity
  8
AM_7
100
AcDbLine
 10
2100.912984551748
 20
314.2730235218529
 30
0.0
 11
2100.912984551748
 21
157.2730235218529
 31
0.0
1001
GENIUS_GENOBJ-N-CEN_13
1002
{
1000
OWNER
1000
GEN
1002
}
1001
GENIUS_GENODEF_13
1002
{
1000
HIER
1070
     0
1002
}
1002
{
1000
MANEDIT
1070
     0
1002
}
1002
{
1000
NOSEL
1070
     0
1002
}
1002
{
1000
BEHIND
1070
     0
1002
}
1002
{
1000
OTHER
1070
     0
1002
}
1002
{
1000
REACTOR
1002
}
1001
GENIUS_GENCEN_19
1002
{
1040
2.0
1002
}
  0
LINE
  5
2EDD
330
1F
100
AcDbEntity
  8
AM_7
100
AcDbLine
 10
2048.954650588993
 20
364.7380259360413
 30
0.0
 11
2152.954650588994
 21
364.7380259360413
 31
0.0
1001
GENIUS_GENODEF_13
1002
{
1000
HIER
1070
     0
1002
}
1002
{
1000
MANEDIT
1070
     0
1002
}
1002
{
1000
NOSEL
1070
     0
1002
}
1002
{
1000
BEHIND
1070
     0
1002
}
1002
{
1000
OTHER
1070
     0
1002
}
1002
{
1000
REACTOR
1002
}
1001
GENIUS_GENOBJ-N-CEN_13
1002
{
1000
OWNER
1000
GEN
1002
}
1001
GENIUS_GENCEN_19
1002
{
1040
2.0
1002
}
  0
LINE
  5
2EEA
330
1F
100
AcDbEntity
  8
AM_7
100
AcDbLine
 10
2100.954650588993
 20
389.2380259360412
 30
0.0
 11
2100.954650588993
 21
340.7380259360412
 31
0.0
1001
GENIUS_GENODEF_13
1002
{
1000
HIER
1070
     0
1002
}
1002
{
1000
MANEDIT
1070
     0
1002
}
1002
{
1000
NOSEL
1070
     0
1002
}
1002
{
1000
BEHIND
1070
     0
1002
}
1002
{
1000
OTHER
1070
     0
1002
}
1002
{
1000
REACTOR
1002
}
1001
GENIUS_GENOBJ-N-CEN_13
1002
{
1000
OWNER
1000
GEN
1002
}
1001
GENIUS_GENCEN_19
1002
{
1040
2.0
1002
}
  0
DIMENSION
  5
2EEB
330
1F
100
AcDbEntity
  8
AM_5
100
AcDbDimension
  2
*D8
 10
2162.954650588993
 20
257.2730235218529
 30
0.0
 11
2160.454650588993
 21
208.2730235218533
 31
0.0
 70
    32
 71
     5
 42
98.00000000000004
  3
AM_ISO$0
100
AcDbAlignedDimension
 13
2132.996316626239
 23
159.2730235218529
 33
0.0
 14
2122.454650588994
 24
257.2730235218529
 34
0.0
 50
90.0
100
AcDbRotatedDimension
1001
ACAD
1000
DSTYLE
1002
{
1070
    40
1040
1.0
1070
   144
1040
1.0
1070
   272
1070
     8
1002
}
  0
DIMENSION
  5
2EEC
330
1F
100
AcDbEntity
  8
AM_5
100
AcDbDimension
  2
*D9
 10
2172.954650588994
 20
293.2730235218529
 30
0.0
 11
2170.454650588993
 21
226.2730235218532
 31
0.0
 70
    32
 71
     5
 42
133.9999999999999
  3
AM_ISO$0
100
AcDbAlignedDimension
 13
2132.996316626239
 23
159.2730235218529
 33
0.0
 14
2149.912984551749
 24
293.2730235218529
 34
0.0
 50
90.0
100
AcDbRotatedDimension
1001
ACAD
1000
DSTYLE
1002
{
1070
    40
1040
1.0
1070
   144
1040
1.0
1070
   272
1070
     8
1002
}
  0
DIMENSION
  5
2EED
330
1F
100
AcDbEntity
  8
AM_5
100
AcDbDimension
  2
*D10
 10
2172.954650588994
 20
293.2730235218529
 30
0.0
 11
2170.454650588993
 21
302.7730235218533
 31
0.0
 70
    32
 71
     5
 42
19.0
  3
AM_ISO$0
100
AcDbAlignedDimension
 13
2149.912984551749
 23
312.2730235218529
 33
0.0
 14
2149.912984551749
 24
293.2730235218529
 34
0.0
 50
90.0
100
AcDbRotatedDimension
1001
ACAD
1000
DSTYLE
1002
{
1070
    40
1040
1.0
1070
   144
1040
1.0
1070
   272
1070
     8
1002
}
  0
DIMENSION
  5
2EEE
330
1F
100
AcDbEntity
  8
AM_5
100
AcDbDimension
  2
*D11
 10
2123.412984551748
 20
200.2793348959389
 30
0.0
 11
2100.912984551748
 21
202.7793348959389
 31
0.0
 70
    32
  1
M<>x1.5
 71
     5
 42
45.0
  3
AM_ISO$0
100
AcDbAlignedDimension
 13
2078.412984551748
 23
208.273023521853
 33
0.0
 14
2123.412984551748
 24
208.273023521853
 34
0.0
100
AcDbRotatedDimension
1001
ACAD
1000
DSTYLE
1002
{
1070
    40
1040
1.0
1070
   144
1040
1.0
1070
   272
1070
     8
1002
}
  0
DIMENSION
  5
2F5E
330
1F
100
AcDbEntity
  8
AM_5
100
AcDbDimension
  2
*D12
 10
2150.871318514503
 20
330.2380249260413
 30
0.0
 11
2100.871318514503
 21
332.7380249260414
 31
0.0
 70
    32
 71
     5
 42
100.0
  3
AM_ISO$0
100
AcDbAlignedDimension
 13
2050.871318514503
 23
356.2380259360413
 33
0.0
 14
2150.871318514503
 24
356.2380259360413
 34
0.0
100
AcDbRotatedDimension
1001
ACAD
1000
DSTYLE
1002
{
1070
    40
1040
1.0
1070
   144
1040
1.0
1070
   272
1070
     8
1002
}
  0
LINE
  5
2FC1
330
1F
100
AcDbEntity
  8
0
100
AcDbLine
 10
2450.840300934328
 20
508.9561227128467
 30
0.0
 11
2496.840300934327
 21
508.9561227128467
 31
0.0
  0
LINE
  5
2FC3
330
1F
100
AcDbEntity
  8
0
100
AcDbLine
 10
2498.840300934328
 20
577.9561227128467
 30
0.0
 11
2498.840300934328
 21
527.9561227128467
 31
0.0
  0
LINE
  5
2FC4
330
1F
100
AcDbEntity
  8
0
100
AcDbLine
 10
2448.840300934327
 20
577.9561227128467
 30
0.0
 11
2448.840300934327
 21
527.9561227128467
 31
0.0
  0
LINE
  5
2FC5
330
1F
100
AcDbEntity
  8
0
100
AcDbLine
 10
2497.840300934328
 20
603.9561227128467
 30
0.0
 11
2497.840300934328
 21
509.9561227128467
 31
0.0
  0
LINE
  5
2FC6
330
1F
100
AcDbEntity
  8
0
100
AcDbLine
 10
2449.840300934328
 20
603.9561227128467
 30
0.0
 11
2449.840300934328
 21
509.9561227128467
 31
0.0
  0
LINE
  5
2FC7
330
1F
100
AcDbEntity
  8
0
100
AcDbLine
 10
2497.840300934328
 20
603.9561227128467
 30
0.0
 11
2495.840300934327
 21
605.9561227128467
 31
0.0
  0
LINE
  5
2FC8
330
1F
100
AcDbEntity
  8
0
100
AcDbLine
 10
2451.840300934327
 20
605.9561227128467
 30
0.0
 11
2449.840300934328
 21
603.9561227128467
 31
0.0
  0
LINE
  5
2FC9
330
1F
100
AcDbEntity
  8
0
100
AcDbLine
 10
2449.840300934328
 20
578.9561227128467
 30
0.0
 11
2497.840300934328
 21
578.9561227128467
 31
0.0
  0
LINE
  5
2FCA
330
1F
100
AcDbEntity
  8
0
100
AcDbLine
 10
2449.840300934328
 20
527.9561227128467
 30
0.0
 11
2497.840300934328
 21
527.9561227128467
 31
0.0
  0
LINE
  5
2FCB
330
1F
100
AcDbEntity
  8
0
100
AcDbLine
 10
2498.840300934328
 20
577.9561227128467
 30
0.0
 11
2497.840300934328
 21
578.9561227128467
 31
0.0
  0
LINE
  5
2FCE
330
1F
100
AcDbEntity
  8
0
100
AcDbLine
 10
2484.840300934328
 20
635.9561227128467
 30
0.0
 11
2484.840300934328
 21
605.9561227128467
 31
0.0
  0
LINE
  5
2FCF
330
1F
100
AcDbEntity
  8
0
100
AcDbLine
 10
2462.840300934328
 20
635.9561227128467
 30
0.0
 11
2462.840300934328
 21
605.9561227128467
 31
0.0
  0
LINE
  5
2FD0
330
1F
100
AcDbEntity
  8
0
100
AcDbLine
 10
2449.840300934328
 20
578.9561227128467
 30
0.0
 11
2448.840300934327
 21
577.9561227128467
 31
0.0
  0
LINE
  5
2FD1
330
1F
100
AcDbEntity
  8
0
100
AcDbLine
 10
2497.840300934328
 20
578.9561227128467
 30
0.0
 11
2498.840300934328
 21
577.9561227128467
 31
0.0
  0
LINE
  5
2FD2
330
1F
100
AcDbEntity
  8
0
100
AcDbLine
 10
2451.840300934327
 20
605.9561227128467
 30
0.0
 11
2495.840300934327
 21
605.9561227128467
 31
0.0
  0
LINE
  5
2FD5
330
1F
100
AcDbEntity
  8
0
100
AcDbLine
 10
2414.840300934327
 20
735.2545736373656
 30
0.0
 11
2532.840300934328
 21
735.2545736373656
 31
0.0
  0
LINE
  5
2FD6
330
1F
100
AcDbEntity
  8
0
100
AcDbLine
 10
2414.840300934327
 20
713.2545736373656
 30
0.0
 11
2532.840300934328
 21
713.2545736373656
 31
0.0
  0
LINE
  5
2FD7
330
1F
100
AcDbEntity
  8
0
100
AcDbLine
 10
2533.840300934328
 20
714.2545736373656
 30
0.0
 11
2533.840300934328
 21
734.2545736373656
 31
0.0
  0
LINE
  5
2FD8
330
1F
100
AcDbEntity
  8
0
100
AcDbLine
 10
2413.840300934328
 20
714.2545736373656
 30
0.0
 11
2413.840300934328
 21
734.2545736373656
 31
0.0
  0
LINE
  5
2FD9
330
1F
100
AcDbEntity
  8
0
100
AcDbLine
 10
2458.840300934328
 20
730.2545736373656
 30
0.0
 11
2488.840300934328
 21
730.2545736373656
 31
0.0
  0
LINE
  5
2FDA
330
1F
100
AcDbEntity
  8
0
100
AcDbLine
 10
2458.840300934328
 20
718.2545736373656
 30
0.0
 11
2488.840300934328
 21
718.2545736373656
 31
0.0
  0
ARC
  5
2FDB
330
1F
100
AcDbEntity
  8
0
100
AcDbCircle
 10
2473.840300934327
 20
724.2545736373656
 30
0.0
 40
12.5
100
AcDbArc
 50
151.3145979858794
 51
208.6854020141205
  0
ARC
  5
2FDC
330
1F
100
AcDbEntity
  8
0
100
AcDbCircle
 10
2473.840300934327
 20
724.2545736373656
 30
0.0
 40
12.5
100
AcDbArc
 50
331.3145979858794
 51
28.68540201412055
  0
ARC
  5
2FDD
330
1F
100
AcDbEntity
  8
0
100
AcDbCircle
 10
2488.840300934328
 20
724.2545736373656
 30
0.0
 40
6.0
100
AcDbArc
 50
270.0
 51
90.0
  0
ARC
  5
2FDE
330
1F
100
AcDbEntity
  8
0
100
AcDbCircle
 10
2458.840300934328
 20
724.2545736373656
 30
0.0
 40
6.0
100
AcDbArc
 50
90.0
 51
270.0
  0
LINE
  5
2FDF
330
1F
100
AcDbEntity
  8
0
100
AcDbLine
 10
2414.840300934327
 20
657.9561227128468
 30
0.0
 11
2532.840300934328
 21
657.9561227128468
 31
0.0
  0
LINE
  5
2FE0
330
1F
100
AcDbEntity
  8
0
100
AcDbLine
 10
2413.840300934328
 20
635.9561227128467
 30
0.0
 11
2533.840300934328
 21
635.9561227128467
 31
0.0
  0
LINE
  5
2FE1
330
1F
100
AcDbEntity
  8
0
100
AcDbLine
 10
2413.840300934328
 20
635.9561227128467
 30
0.0
 11
2413.840300934328
 21
656.9561227128467
 31
0.0
  0
LINE
  5
2FE2
330
1F
100
AcDbEntity
  8
0
100
AcDbLine
 10
2533.840300934328
 20
635.9561227128467
 30
0.0
 11
2533.840300934328
 21
656.9561227128467
 31
0.0
  0
CIRCLE
  5
2FE3
330
1F
100
AcDbEntity
  8
0
100
AcDbCircle
 10
2473.840300934327
 20
648.4561227128467
 30
0.0
 40
5.0
  0
ARC
  5
2FE5
330
1F
100
AcDbEntity
  8
0
100
AcDbCircle
 10
2473.840300934327
 20
724.2545736373656
 30
0.0
 40
25.0
100
AcDbArc
 50
206.1038811373452
 51
333.8961188626548
  0
ARC
  5
2FE6
330
1F
100
AcDbEntity
  8
0
100
AcDbCircle
 10
2473.840300934327
 20
724.2545736373656
 30
0.0
 40
25.0
100
AcDbArc
 50
26.10388113734519
 51
153.8961188626548
  0
LINE
  5
2FE7
102
{ACAD_REACTORS
330
30D4
102
}
330
1F
100
AcDbEntity
  8
0
100
AcDbLine
 10
2414.840300934327
 20
713.2545736373656
 30
0.0
 11
2413.840300934328
 21
714.2545736373656
 31
0.0
  0
LINE
  5
2FE8
330
1F
100
AcDbEntity
  8
0
100
AcDbLine
 10
2413.840300934328
 20
734.2545736373656
 30
0.0
 11
2414.840300934327
 21
735.2545736373656
 31
0.0
  0
LINE
  5
2FE9
330
1F
100
AcDbEntity
  8
0
100
AcDbLine
 10
2532.840300934328
 20
735.2545736373656
 30
0.0
 11
2533.840300934328
 21
734.2545736373656
 31
0.0
  0
LINE
  5
2FEA
102
{ACAD_REACTORS
330
30D4
102
}
330
1F
100
AcDbEntity
  8
0
100
AcDbLine
 10
2532.840300934328
 20
713.2545736373656
 30
0.0
 11
2533.840300934328
 21
714.2545736373656
 31
0.0
  0
LINE
  5
2FEB
330
1F
100
AcDbEntity
  8
0
100
AcDbLine
 10
2413.840300934328
 20
656.9561227128467
 30
0.0
 11
2414.840300934327
 21
657.9561227128468
 31
0.0
  0
LINE
  5
2FEC
330
1F
100
AcDbEntity
  8
0
100
AcDbLine
 10
2532.840300934328
 20
657.9561227128468
 30
0.0
 11
2533.840300934328
 21
656.9561227128467
 31
0.0
  0
ARC
  5
2FED
330
1F
100
AcDbEntity
  8
0
100
AcDbCircle
 10
2473.840300934327
 20
724.2545736373656
 30
0.0
 40
24.0
100
AcDbArc
 50
27.2796127359787
 51
152.7203872640213
  0
ARC
  5
2FEE
330
1F
100
AcDbEntity
  8
0
100
AcDbCircle
 10
2473.840300934327
 20
724.2545736373656
 30
0.0
 40
24.0
100
AcDbArc
 50
207.2796127359787
 51
332.7203872640213
  0
LINE
  5
2FEF
330
1F
100
AcDbEntity
  8
0
100
AcDbLine
 10
2449.840300934328
 20
509.9561227128467
 30
0.0
 11
2450.840300934328
 21
508.9561227128467
 31
0.0
  0
LINE
  5
2FF0
330
1F
100
AcDbEntity
  8
0
100
AcDbLine
 10
2496.840300934327
 20
508.9561227128467
 30
0.0
 11
2497.840300934328
 21
509.9561227128467
 31
0.0
  0
LINE
  5
2FF1
330
1F
100
AcDbEntity
  8
0
100
AcDbLine
 10
2449.840300934328
 20
526.9561227128467
 30
0.0
 11
2497.840300934328
 21
526.9561227128467
 31
0.0
  0
LINE
  5
2FF3
330
1F
100
AcDbEntity
  8
0
100
AcDbLine
 10
2497.840300934328
 20
526.9561227128467
 30
0.0
 11
2498.840300934328
 21
527.9561227128467
 31
0.0
  0
LINE
  5
2FF4
330
1F
100
AcDbEntity
  8
0
100
AcDbLine
 10
2448.840300934327
 20
527.9561227128467
 30
0.0
 11
2449.840300934328
 21
526.9561227128467
 31
0.0
  0
LINE
  5
3001
330
1F
100
AcDbEntity
  8
AM_7
100
AcDbLine
 10
2411.840300934328
 20
724.2545736373656
 30
0.0
 11
2535.840300934327
 21
724.2545736373656
 31
0.0
1001
GENIUS_GENODEF_13
1002
{
1000
HIER
1070
     0
1002
}
1002
{
1000
MANEDIT
1070
     0
1002
}
1002
{
1000
NOSEL
1070
     0
1002
}
1002
{
1000
BEHIND
1070
     0
1002
}
1002
{
1000
OTHER
1070
     0
1002
}
1002
{
1000
REACTOR
1002
}
1001
GENIUS_GENOBJ-N-CEN_13
1002
{
1000
OWNER
1000
GEN
1002
}
1001
GENIUS_GENCEN_19
1002
{
1040
2.0
1002
}
  0
LINE
  5
300E
330
1F
100
AcDbEntity
  8
AM_7
100
AcDbLine
 10
2473.840300934327
 20
751.2545736373656
 30
0.0
 11
2473.840300934327
 21
697.2545736373656
 31
0.0
1001
GENIUS_GENOBJ-N-CEN_13
1002
{
1000
OWNER
1000
GEN
1002
}
1001
GENIUS_GENODEF_13
1002
{
1000
HIER
1070
     0
1002
}
1002
{
1000
MANEDIT
1070
     0
1002
}
1002
{
1000
NOSEL
1070
     0
1002
}
1002
{
1000
BEHIND
1070
     0
1002
}
1002
{
1000
OTHER
1070
     0
1002
}
1002
{
1000
REACTOR
1002
}
1001
GENIUS_GENCEN_19
1002
{
1040
2.0
1002
}
  0
LINE
  5
301B
330
1F
100
AcDbEntity
  8
AM_7
100
AcDbLine
 10
2473.840300934327
 20
659.9561227128467
 30
0.0
 11
2473.840300934327
 21
506.9561227128467
 31
0.0
1001
GENIUS_GENODEF_13
1002
{
1000
HIER
1070
     0
1002
}
1002
{
1000
MANEDIT
1070
     0
1002
}
1002
{
1000
NOSEL
1070
     0
1002
}
1002
{
1000
BEHIND
1070
     0
1002
}
1002
{
1000
OTHER
1070
     0
1002
}
1002
{
1000
REACTOR
1002
}
1001
GENIUS_GENOBJ-N-CEN_13
1002
{
1000
OWNER
1000
GEN
1002
}
1001
GENIUS_GENCEN_19
1002
{
1040
2.0
1002
}
  0
LINE
  5
301C
330
1F
100
AcDbEntity
  8
0
  6
HIDDEN
 62
     3
 48
0.5
100
AcDbLine
 10
2487.026473091446
 20
597.728583752519
 30
0.0
 11
2497.840300934328
 21
597.728583752519
 31
0.0
  0
LINE
  5
301D
330
1F
100
AcDbEntity
  8
0
  6
HIDDEN
 62
     3
 48
0.5
100
AcDbLine
 10
2487.503723638271
 20
588.228583752519
 30
0.0
 11
2497.840300934328
 21
588.228583752519
 31
0.0
  0
LINE
  5
301E
330
1F
100
AcDbEntity
  8
0
  6
HIDDEN
 62
     3
 48
0.5
100
AcDbLine
 10
2487.503723638271
 20
589.228583752519
 30
0.0
 11
2497.840300934328
 21
589.228583752519
 31
0.0
  0
LINE
  5
301F
330
1F
100
AcDbEntity
  8
0
  6
HIDDEN
 62
     3
 48
0.5
100
AcDbLine
 10
2487.026473091446
 20
596.728583752519
 30
0.0
 11
2497.840300934328
 21
596.728583752519
 31
0.0
  0
DIMENSION
  5
3020
330
1F
100
AcDbEntity
  8
AM_5
100
AcDbDimension
  2
*D13
 10
2535.840300934327
 20
605.9561227128467
 30
0.0
 11
2533.340300934328
 21
557.4561227128472
 31
0.0
 70
    32
 71
     5
 42
97.00000000000006
  3
AM_ISO$0
100
AcDbAlignedDimension
 13
2496.840300934327
 23
508.9561227128466
 33
0.0
 14
2495.840300934327
 24
605.9561227128467
 34
0.0
 50
90.0
100
AcDbRotatedDimension
1001
ACAD
1000
DSTYLE
1002
{
1070
    40
1040
1.0
1070
   144
1040
1.0
1070
   272
1070
     8
1002
}
  0
DIMENSION
  5
3021
330
1F
100
AcDbEntity
  8
AM_5
100
AcDbDimension
  2
*D14
 10
2545.840300934328
 20
635.9561227128467
 30
0.0
 11
2543.340300934327
 21
572.4561227128472
 31
0.0
 70
    32
 71
     5
 42
127.0
  3
AM_ISO$0
100
AcDbAlignedDimension
 13
2496.840300934327
 23
508.9561227128467
 33
0.0
 14
2533.840300934328
 24
635.9561227128467
 34
0.0
 50
90.0
100
AcDbRotatedDimension
1001
ACAD
1000
DSTYLE
1002
{
1070
    40
1040
1.0
1070
   144
1040
1.0
1070
   272
1070
     8
1002
}
  0
DIMENSION
  5
3022
330
1F
100
AcDbEntity
  8
AM_5
100
AcDbDimension
  2
*D15
 10
2545.840300934328
 20
635.9561227128467
 30
0.0
 11
2543.340300934327
 21
646.9561227128472
 31
0.0
 70
    32
 71
     5
 42
22.0
  3
AM_ISO$0
100
AcDbAlignedDimension
 13
2532.840300934328
 23
657.9561227128468
 33
0.0
 14
2533.840300934328
 24
635.9561227128467
 34
0.0
 50
90.0
100
AcDbRotatedDimension
1001
ACAD
1000
DSTYLE
1002
{
1070
    40
1040
1.0
1070
   144
1040
1.0
1070
   272
1070
     8
1002
}
  0
DIMENSION
  5
3023
330
1F
100
AcDbEntity
  8
AM_5
100
AcDbDimension
  2
*D16
 10
2498.840300934328
 20
549.9624340869327
 30
0.0
 11
2473.840300934327
 21
552.4624340869327
 31
0.0
 70
    32
  1
M<>x1.5
 71
     5
 42
50.0
  3
AM_ISO$0
100
AcDbAlignedDimension
 13
2448.840300934327
 23
552.9561227128467
 33
0.0
 14
2498.840300934328
 24
552.9561227128467
 34
0.0
 50
0.0000000000001132
100
AcDbRotatedDimension
1001
ACAD
1000
DSTYLE
1002
{
1070
    40
1040
1.0
1070
   144
1040
1.0
1070
   272
1070
     8
1002
}
  0
DIMENSION
  5
30C6
102
{ACAD_XDICTIONARY
360
30D3
102
}
102
{ACAD_REACTORS
330
30D4
102
}
330
1F
100
AcDbEntity
  8
AM_5
100
AcDbDimension
  2
*D17
 10
2533.840300934328
 20
687.2545726273656
 30
0.0
 11
2473.840300934327
 21
689.7545726273656
 31
0.0
 70
    32
 71
     5
 42
120.0
  3
AM_ISO$0
100
AcDbAlignedDimension
 13
2413.840300934328
 23
714.2545736373656
 33
0.0
 14
2533.840300934328
 24
714.2545736373656
 34
0.0
 50
0.0000000000001018
100
AcDbRotatedDimension
1001
ACAD
1000
DSTYLE
1002
{
1070
    40
1040
1.0
1070
   144
1040
1.0
1070
   272
1070
     8
1002
}
  0
LINE
  5
312D
330
1F
100
AcDbEntity
  8
0
100
AcDbLine
 10
2450.840300934328
 20
159.2730235218529
 30
0.0
 11
2496.840300934327
 21
159.2730235218529
 31
0.0
  0
LINE
  5
312F
330
1F
100
AcDbEntity
  8
0
100
AcDbLine
 10
2498.840300934328
 20
228.2730235218529
 30
0.0
 11
2498.840300934328
 21
178.2730235218529
 31
0.0
  0
LINE
  5
3130
330
1F
100
AcDbEntity
  8
0
100
AcDbLine
 10
2448.840300934327
 20
228.2730235218529
 30
0.0
 11
2448.840300934327
 21
178.2730235218529
 31
0.0
  0
LINE
  5
3131
330
1F
100
AcDbEntity
  8
0
100
AcDbLine
 10
2497.840300934328
 20
254.2730235218529
 30
0.0
 11
2497.840300934328
 21
160.2730235218529
 31
0.0
  0
LINE
  5
3132
330
1F
100
AcDbEntity
  8
0
100
AcDbLine
 10
2449.840300934328
 20
254.2730235218529
 30
0.0
 11
2449.840300934328
 21
160.2730235218529
 31
0.0
  0
LINE
  5
3133
330
1F
100
AcDbEntity
  8
0
100
AcDbLine
 10
2497.840300934328
 20
254.2730235218529
 30
0.0
 11
2495.840300934327
 21
256.2730235218529
 31
0.0
  0
LINE
  5
3134
330
1F
100
AcDbEntity
  8
0
100
AcDbLine
 10
2451.840300934327
 20
256.2730235218529
 30
0.0
 11
2449.840300934328
 21
254.2730235218529
 31
0.0
  0
LINE
  5
3135
330
1F
100
AcDbEntity
  8
0
100
AcDbLine
 10
2449.840300934328
 20
229.2730235218529
 30
0.0
 11
2497.840300934328
 21
229.2730235218529
 31
0.0
  0
LINE
  5
3136
330
1F
100
AcDbEntity
  8
0
100
AcDbLine
 10
2449.840300934328
 20
178.2730235218529
 30
0.0
 11
2497.840300934328
 21
178.2730235218529
 31
0.0
  0
LINE
  5
3137
330
1F
100
AcDbEntity
  8
0
100
AcDbLine
 10
2498.840300934328
 20
228.2730235218529
 30
0.0
 11
2497.840300934328
 21
229.2730235218529
 31
0.0
  0
LINE
  5
313A
330
1F
100
AcDbEntity
  8
0
100
AcDbLine
 10
2484.840300934328
 20
292.2730235218529
 30
0.0
 11
2484.840300934328
 21
256.2730235218529
 31
0.0
  0
LINE
  5
313B
330
1F
100
AcDbEntity
  8
0
100
AcDbLine
 10
2462.840300934328
 20
292.2730235218529
 30
0.0
 11
2462.840300934328
 21
256.2730235218529
 31
0.0
  0
LINE
  5
313C
330
1F
100
AcDbEntity
  8
0
100
AcDbLine
 10
2449.840300934328
 20
229.2730235218529
 30
0.0
 11
2448.840300934327
 21
228.2730235218529
 31
0.0
  0
LINE
  5
313D
330
1F
100
AcDbEntity
  8
0
100
AcDbLine
 10
2497.840300934328
 20
229.2730235218529
 30
0.0
 11
2498.840300934328
 21
228.2730235218529
 31
0.0
  0
LINE
  5
313E
330
1F
100
AcDbEntity
  8
0
100
AcDbLine
 10
2451.840300934327
 20
256.2730235218529
 30
0.0
 11
2495.840300934327
 21
256.2730235218529
 31
0.0
  0
LINE
  5
3141
330
1F
100
AcDbEntity
  8
0
100
AcDbLine
 10
2414.840300934327
 20
384.3928450543459
 30
0.0
 11
2532.840300934328
 21
384.3928450543459
 31
0.0
  0
LINE
  5
3142
330
1F
100
AcDbEntity
  8
0
100
AcDbLine
 10
2414.840300934327
 20
362.3928450543459
 30
0.0
 11
2532.840300934328
 21
362.3928450543459
 31
0.0
  0
LINE
  5
3143
330
1F
100
AcDbEntity
  8
0
100
AcDbLine
 10
2533.840300934328
 20
363.3928450543459
 30
0.0
 11
2533.840300934328
 21
383.3928450543459
 31
0.0
  0
LINE
  5
3144
330
1F
100
AcDbEntity
  8
0
100
AcDbLine
 10
2413.840300934328
 20
363.3928450543459
 30
0.0
 11
2413.840300934328
 21
383.3928450543459
 31
0.0
  0
LINE
  5
3145
330
1F
100
AcDbEntity
  8
0
100
AcDbLine
 10
2458.840300934328
 20
379.3928450543459
 30
0.0
 11
2488.840300934328
 21
379.3928450543459
 31
0.0
  0
LINE
  5
3146
330
1F
100
AcDbEntity
  8
0
100
AcDbLine
 10
2458.840300934328
 20
367.3928450543459
 30
0.0
 11
2488.840300934328
 21
367.3928450543459
 31
0.0
  0
ARC
  5
3147
330
1F
100
AcDbEntity
  8
0
100
AcDbCircle
 10
2473.840300934327
 20
373.3928450543459
 30
0.0
 40
12.5
100
AcDbArc
 50
151.3145979858794
 51
208.6854020141205
  0
ARC
  5
3148
330
1F
100
AcDbEntity
  8
0
100
AcDbCircle
 10
2473.840300934327
 20
373.3928450543459
 30
0.0
 40
12.5
100
AcDbArc
 50
331.3145979858794
 51
28.68540201412055
  0
ARC
  5
3149
330
1F
100
AcDbEntity
  8
0
100
AcDbCircle
 10
2488.840300934328
 20
373.3928450543459
 30
0.0
 40
6.0
100
AcDbArc
 50
270.0
 51
90.0
  0
ARC
  5
314A
330
1F
100
AcDbEntity
  8
0
100
AcDbCircle
 10
2458.840300934328
 20
373.3928450543459
 30
0.0
 40
6.0
100
AcDbArc
 50
90.0
 51
270.0
  0
LINE
  5
314B
330
1F
100
AcDbEntity
  8
0
100
AcDbLine
 10
2414.840300934327
 20
314.2730235218529
 30
0.0
 11
2532.840300934328
 21
314.2730235218529
 31
0.0
  0
LINE
  5
314C
330
1F
100
AcDbEntity
  8
0
100
AcDbLine
 10
2413.840300934328
 20
292.2730235218529
 30
0.0
 11
2533.840300934328
 21
292.2730235218529
 31
0.0
  0
LINE
  5
314D
330
1F
100
AcDbEntity
  8
0
100
AcDbLine
 10
2413.840300934328
 20
292.2730235218529
 30
0.0
 11
2413.840300934328
 21
313.2730235218529
 31
0.0
  0
LINE
  5
314E
330
1F
100
AcDbEntity
  8
0
100
AcDbLine
 10
2533.840300934328
 20
292.2730235218529
 30
0.0
 11
2533.840300934328
 21
313.2730235218529
 31
0.0
  0
CIRCLE
  5
314F
330
1F
100
AcDbEntity
  8
0
100
AcDbCircle
 10
2473.840300934327
 20
304.7730235218529
 30
0.0
 40
5.0
  0
ARC
  5
3151
330
1F
100
AcDbEntity
  8
0
100
AcDbCircle
 10
2473.840300934327
 20
373.3928450543459
 30
0.0
 40
25.0
100
AcDbArc
 50
206.1038811373452
 51
333.8961188626548
  0
ARC
  5
3152
330
1F
100
AcDbEntity
  8
0
100
AcDbCircle
 10
2473.840300934327
 20
373.3928450543459
 30
0.0
 40
25.0
100
AcDbArc
 50
26.10388113734519
 51
153.8961188626548
  0
LINE
  5
3153
330
1F
100
AcDbEntity
  8
0
100
AcDbLine
 10
2414.840300934327
 20
362.3928450543459
 30
0.0
 11
2413.840300934328
 21
363.3928450543459
 31
0.0
  0
LINE
  5
3154
330
1F
100
AcDbEntity
  8
0
100
AcDbLine
 10
2413.840300934328
 20
383.3928450543459
 30
0.0
 11
2414.840300934327
 21
384.3928450543459
 31
0.0
  0
LINE
  5
3155
330
1F
100
AcDbEntity
  8
0
100
AcDbLine
 10
2532.840300934328
 20
384.3928450543459
 30
0.0
 11
2533.840300934328
 21
383.3928450543459
 31
0.0
  0
LINE
  5
3156
330
1F
100
AcDbEntity
  8
0
100
AcDbLine
 10
2532.840300934328
 20
362.3928450543459
 30
0.0
 11
2533.840300934328
 21
363.3928450543459
 31
0.0
  0
LINE
  5
3157
330
1F
100
AcDbEntity
  8
0
100
AcDbLine
 10
2413.840300934328
 20
313.2730235218529
 30
0.0
 11
2414.840300934327
 21
314.2730235218529
 31
0.0
  0
LINE
  5
3158
330
1F
100
AcDbEntity
  8
0
100
AcDbLine
 10
2532.840300934328
 20
314.2730235218529
 30
0.0
 11
2533.840300934328
 21
313.2730235218529
 31
0.0
  0
ARC
  5
3159
330
1F
100
AcDbEntity
  8
0
100
AcDbCircle
 10
2473.840300934327
 20
373.3928450543459
 30
0.0
 40
24.0
100
AcDbArc
 50
27.2796127359787
 51
152.7203872640213
  0
ARC
  5
315A
330
1F
100
AcDbEntity
  8
0
100
AcDbCircle
 10
2473.840300934327
 20
373.3928450543459
 30
0.0
 40
24.0
100
AcDbArc
 50
207.2796127359787
 51
332.7203872640213
  0
LINE
  5
315B
330
1F
100
AcDbEntity
  8
0
100
AcDbLine
 10
2449.840300934328
 20
160.2730235218529
 30
0.0
 11
2450.840300934328
 21
159.2730235218529
 31
0.0
  0
LINE
  5
315C
330
1F
100
AcDbEntity
  8
0
100
AcDbLine
 10
2496.840300934327
 20
159.2730235218529
 30
0.0
 11
2497.840300934328
 21
160.2730235218529
 31
0.0
  0
LINE
  5
315D
330
1F
100
AcDbEntity
  8
0
100
AcDbLine
 10
2449.840300934328
 20
177.2730235218529
 30
0.0
 11
2497.840300934328
 21
177.2730235218529
 31
0.0
  0
LINE
  5
3160
330
1F
100
AcDbEntity
  8
0
100
AcDbLine
 10
2448.840300934327
 20
178.2730235218529
 30
0.0
 11
2449.840300934328
 21
177.2730235218529
 31
0.0
  0
LINE
  5
3161
330
1F
100
AcDbEntity
  8
0
100
AcDbLine
 10
2497.840300934328
 20
177.2730235218529
 30
0.0
 11
2498.840300934328
 21
178.2730235218529
 31
0.0
  0
LINE
  5
316E
330
1F
100
AcDbEntity
  8
AM_7
100
AcDbLine
 10
2411.840300934328
 20
373.3928450543459
 30
0.0
 11
2535.840300934327
 21
373.3928450543459
 31
0.0
1001
GENIUS_GENODEF_13
1002
{
1000
HIER
1070
     0
1002
}
1002
{
1000
MANEDIT
1070
     0
1002
}
1002
{
1000
NOSEL
1070
     0
1002
}
1002
{
1000
BEHIND
1070
     0
1002
}
1002
{
1000
OTHER
1070
     0
1002
}
1002
{
1000
REACTOR
1002
}
1001
GENIUS_GENOBJ-N-CEN_13
1002
{
1000
OWNER
1000
GEN
1002
}
1001
GENIUS_GENCEN_19
1002
{
1040
2.0
1002
}
  0
LINE
  5
317B
330
1F
100
AcDbEntity
  8
AM_7
100
AcDbLine
 10
2473.840300934327
 20
400.3928450543459
 30
0.0
 11
2473.840300934327
 21
346.3928450543459
 31
0.0
1001
GENIUS_GENOBJ-N-CEN_13
1002
{
1000
OWNER
1000
GEN
1002
}
1001
GENIUS_GENODEF_13
1002
{
1000
HIER
1070
     0
1002
}
1002
{
1000
MANEDIT
1070
     0
1002
}
1002
{
1000
NOSEL
1070
     0
1002
}
1002
{
1000
BEHIND
1070
     0
1002
}
1002
{
1000
OTHER
1070
     0
1002
}
1002
{
1000
REACTOR
1002
}
1001
GENIUS_GENCEN_19
1002
{
1040
2.0
1002
}
  0
LINE
  5
3188
330
1F
100
AcDbEntity
  8
AM_7
100
AcDbLine
 10
2473.840300934327
 20
316.2730235218529
 30
0.0
 11
2473.840300934327
 21
157.2730235218529
 31
0.0
1001
GENIUS_GENOBJ-N-CEN_13
1002
{
1000
OWNER
1000
GEN
1002
}
1001
GENIUS_GENODEF_13
1002
{
1000
HIER
1070
     0
1002
}
1002
{
1000
MANEDIT
1070
     0
1002
}
1002
{
1000
NOSEL
1070
     0
1002
}
1002
{
1000
BEHIND
1070
     0
1002
}
1002
{
1000
OTHER
1070
     0
1002
}
1002
{
1000
REACTOR
1002
}
1001
GENIUS_GENCEN_19
1002
{
1040
2.0
1002
}
  0
DIMENSION
  5
3189
330
1F
100
AcDbEntity
  8
AM_5
100
AcDbDimension
  2
*D18
 10
2535.840300934327
 20
256.2730235218529
 30
0.0
 11
2533.340300934328
 21
207.7730235218533
 31
0.0
 70
    32
 71
     5
 42
97.0
  3
AM_ISO$0
100
AcDbAlignedDimension
 13
2496.840300934327
 23
159.2730235218529
 33
0.0
 14
2495.840300934327
 24
256.2730235218529
 34
0.0
 50
90.0
100
AcDbRotatedDimension
1001
ACAD
1000
DSTYLE
1002
{
1070
    40
1040
1.0
1070
   144
1040
1.0
1070
   272
1070
     8
1002
}
  0
DIMENSION
  5
318A
330
1F
100
AcDbEntity
  8
AM_5
100
AcDbDimension
  2
*D19
 10
2545.840300934328
 20
292.2730235218529
 30
0.0
 11
2543.340300934327
 21
225.7730235218533
 31
0.0
 70
    32
 71
     5
 42
132.9999999999999
  3
AM_ISO$0
100
AcDbAlignedDimension
 13
2496.840300934327
 23
159.2730235218529
 33
0.0
 14
2533.840300934328
 24
292.2730235218529
 34
0.0
 50
90.0
100
AcDbRotatedDimension
1001
ACAD
1000
DSTYLE
1002
{
1070
    40
1040
1.0
1070
   144
1040
1.0
1070
   272
1070
     8
1002
}
  0
DIMENSION
  5
318B
330
1F
100
AcDbEntity
  8
AM_5
100
AcDbDimension
  2
*D20
 10
2545.840300934328
 20
292.2730235218529
 30
0.0
 11
2543.340300934327
 21
303.2730235218533
 31
0.0
 70
    32
 71
     5
 42
22.0
  3
AM_ISO$0
100
AcDbAlignedDimension
 13
2532.840300934328
 23
314.2730235218529
 33
0.0
 14
2533.840300934328
 24
292.2730235218529
 34
0.0
 50
90.0
100
AcDbRotatedDimension
1001
ACAD
1000
DSTYLE
1002
{
1070
    40
1040
1.0
1070
   144
1040
1.0
1070
   272
1070
     8
1002
}
  0
DIMENSION
  5
318C
330
1F
100
AcDbEntity
  8
AM_5
100
AcDbDimension
  2
*D21
 10
2498.840300934328
 20
200.2793348959389
 30
0.0
 11
2473.840300934327
 21
202.7793348959389
 31
0.0
 70
    32
  1
M<>x1.5
 71
     5
 42
50.0
  3
AM_ISO$0
100
AcDbAlignedDimension
 13
2448.840300934327
 23
203.2730235218529
 33
0.0
 14
2498.840300934328
 24
203.2730235218529
 34
0.0
100
AcDbRotatedDimension
1001
ACAD
1000
DSTYLE
1002
{
1070
    40
1040
1.0
1070
   144
1040
1.0
1070
   272
1070
     8
1002
}
  0
DIMENSION
  5
320E
330
1F
100
AcDbEntity
  8
AM_5
100
AcDbDimension
  2
*D22
 10
2533.840300934328
 20
336.3928440443459
 30
0.0
 11
2473.840300934327
 21
338.8928440443459
 31
0.0
 70
    32
 71
     5
 42
120.0
  3
AM_ISO$0
100
AcDbAlignedDimension
 13
2413.840300934328
 23
363.3928450543459
 33
0.0
 14
2533.840300934328
 24
363.3928450543459
 34
0.0
100
AcDbRotatedDimension
1001
ACAD
1000
DSTYLE
1002
{
1070
    40
1040
1.0
1070
   144
1040
1.0
1070
   272
1070
     8
1002
}
  0
LINE
  5
3226
330
1F
100
AcDbEntity
  8
0
  6
HIDDEN
 62
     3
 48
0.5
100
AcDbLine
 10
2494.72062375651
 20
170.276751975637
 30
0.0
 11
2494.72062375651
 21
159.2730235218529
 31
0.0
  0
LINE
  5
3227
330
1F
100
AcDbEntity
  8
0
  6
HIDDEN
 62
     3
 48
0.5
100
AcDbLine
 10
2484.720623756509
 20
169.4377957877851
 30
0.0
 11
2484.720623756509
 21
159.2730235218529
 31
0.0
  0
LINE
  5
3228
330
1F
100
AcDbEntity
  8
0
  6
HIDDEN
 62
     3
 48
0.5
100
AcDbLine
 10
2493.720623756509
 20
170.1089608884063
 30
0.0
 11
2493.720623756509
 21
159.2730235218529
 31
0.0
  0
LINE
  5
3229
330
1F
100
AcDbEntity
  8
0
  6
HIDDEN
 62
     3
 48
0.5
100
AcDbLine
 10
2485.72062375651
 20
169.7733787139449
 30
0.0
 11
2485.720623756509
 21
159.2730235218529
 31
0.0
  0
LINE
  5
322A
330
1F
100
AcDbEntity
  8
0
  6
HIDDEN
 62
     3
 48
0.5
100
AcDbLine
 10
2487.026473091446
 20
250.3981248888491
 30
0.0
 11
2497.840300934328
 21
250.3981248888492
 31
0.0
  0
LINE
  5
322B
330
1F
100
AcDbEntity
  8
0
  6
HIDDEN
 62
     3
 48
0.5
100
AcDbLine
 10
2487.503723638271
 20
240.8981248888491
 30
0.0
 11
2497.840300934327
 21
240.8981248888491
 31
0.0
  0
LINE
  5
322C
330
1F
100
AcDbEntity
  8
0
  6
HIDDEN
 62
     3
 48
0.5
100
AcDbLine
 10
2487.503723638271
 20
241.8981248888491
 30
0.0
 11
2497.840300934327
 21
241.8981248888491
 31
0.0
  0
LINE
  5
322D
330
1F
100
AcDbEntity
  8
0
  6
HIDDEN
 62
     3
 48
0.5
100
AcDbLine
 10
2487.026473091446
 20
249.3981248888491
 30
0.0
 11
2497.840300934328
 21
249.3981248888491
 31
0.0
  0
LINE
  5
3268
330
1F
100
AcDbEntity
  8
0
100
AcDbLine
 10
2865.206173790791
 20
606.9561227128467
 30
0.0
 11
2809.20617379079
 21
606.9561227128467
 31
0.0
  0
LINE
  5
3269
330
1F
100
AcDbEntity
  8
0
100
AcDbLine
 10
2809.20617379079
 20
508.9561227128466
 30
0.0
 11
2865.20617379079
 21
508.9561227128466
 31
0.0
  0
LINE
  5
326A
330
1F
100
AcDbEntity
  8
0
100
AcDbLine
 10
2808.20617379079
 20
580.9561227128467
 30
0.0
 11
2866.20617379079
 21
580.9561227128467
 31
0.0
  0
LINE
  5
326B
330
1F
100
AcDbEntity
  8
0
100
AcDbLine
 10
2807.20617379079
 20
579.9561227128467
 30
0.0
 11
2807.20617379079
 21
527.9561227128467
 31
0.0
  0
LINE
  5
326C
330
1F
100
AcDbEntity
  8
0
100
AcDbLine
 10
2867.206173790791
 20
527.9561227128467
 30
0.0
 11
2867.206173790791
 21
579.9561227128467
 31
0.0
  0
LINE
  5
326D
330
1F
100
AcDbEntity
  8
0
100
AcDbLine
 10
2808.20617379079
 20
527.9561227128467
 30
0.0
 11
2866.206173790791
 21
527.9561227128467
 31
0.0
  0
LINE
  5
326E
330
1F
100
AcDbEntity
  8
0
100
AcDbLine
 10
2807.20617379079
 20
579.9561227128467
 30
0.0
 11
2808.20617379079
 21
580.9561227128467
 31
0.0
  0
LINE
  5
326F
330
1F
100
AcDbEntity
  8
0
100
AcDbLine
 10
2866.20617379079
 20
580.9561227128467
 30
0.0
 11
2867.206173790791
 21
579.9561227128467
 31
0.0
  0
LINE
  5
3270
330
1F
100
AcDbEntity
  8
0
100
AcDbLine
 10
2866.20617379079
 20
509.9561227128467
 30
0.0
 11
2866.206173790791
 21
605.9561227128467
 31
0.0
  0
LINE
  5
3271
330
1F
100
AcDbEntity
  8
0
100
AcDbLine
 10
2808.20617379079
 20
605.9561227128467
 30
0.0
 11
2808.20617379079
 21
509.9561227128467
 31
0.0
  0
LINE
  5
3273
330
1F
100
AcDbEntity
  8
0
100
AcDbLine
 10
2824.70617379079
 20
635.9562033346494
 30
0.0
 11
2824.70617379079
 21
606.9562673618718
 31
0.0
  0
LINE
  5
3274
330
1F
100
AcDbEntity
  8
0
100
AcDbLine
 10
2849.70617379079
 20
635.9562033346494
 30
0.0
 11
2849.70617379079
 21
606.9562673618718
 31
0.0
  0
LINE
  5
3276
330
1F
100
AcDbEntity
  8
0
100
AcDbLine
 10
2808.20617379079
 20
605.9561227128467
 30
0.0
 11
2809.20617379079
 21
606.9561227128467
 31
0.0
  0
LINE
  5
3277
330
1F
100
AcDbEntity
  8
0
100
AcDbLine
 10
2865.206173790791
 20
606.9561227128467
 30
0.0
 11
2866.206173790791
 21
605.9561227128467
 31
0.0
  0
LINE
  5
3278
330
1F
100
AcDbEntity
  8
0
100
AcDbLine
 10
2768.20617379079
 20
635.9562033346494
 30
0.0
 11
2767.20617379079
 21
636.9562033346494
 31
0.0
  0
LINE
  5
327B
330
1F
100
AcDbEntity
  8
0
100
AcDbLine
 10
2907.206078826329
 20
723.2336132204491
 30
0.0
 11
2907.206078826329
 21
746.2336132204491
 31
0.0
  0
LINE
  5
327C
330
1F
100
AcDbEntity
  8
0
100
AcDbLine
 10
2767.206078826329
 20
723.2336132204491
 30
0.0
 11
2767.206078826329
 21
746.2336132204491
 31
0.0
  0
LINE
  5
327D
330
1F
100
AcDbEntity
  8
0
100
AcDbLine
 10
2768.206078826329
 20
747.2336132204491
 30
0.0
 11
2906.206078826329
 21
747.2336132204491
 31
0.0
  0
LINE
  5
327E
330
1F
100
AcDbEntity
  8
0
100
AcDbLine
 10
2768.206078826329
 20
722.2336132204491
 30
0.0
 11
2906.206078826329
 21
722.2336132204491
 31
0.0
  0
LINE
  5
327F
330
1F
100
AcDbEntity
  8
0
100
AcDbLine
 10
2823.206078826329
 20
740.7336132204491
 30
0.0
 11
2851.206078826329
 21
740.7336132204491
 31
0.0
  0
LINE
  5
3280
330
1F
100
AcDbEntity
  8
0
100
AcDbLine
 10
2823.206078826329
 20
728.7336132204491
 30
0.0
 11
2851.206078826329
 21
728.7336132204491
 31
0.0
  0
ARC
  5
3281
330
1F
100
AcDbEntity
  8
0
100
AcDbCircle
 10
2823.206078826329
 20
734.7336132204491
 30
0.0
 40
6.0
100
AcDbArc
 50
90.0
 51
270.0
  0
ARC
  5
3282
330
1F
100
AcDbEntity
  8
0
100
AcDbCircle
 10
2851.206078826329
 20
734.7336132204491
 30
0.0
 40
6.0
100
AcDbArc
 50
270.0
 51
90.0
  0
LINE
  5
3283
330
1F
100
AcDbEntity
  8
0
100
AcDbLine
 10
2767.206078826329
 20
746.2336132204491
 30
0.0
 11
2768.206078826329
 21
747.2336132204491
 31
0.0
  0
LINE
  5
3284
330
1F
100
AcDbEntity
  8
0
100
AcDbLine
 10
2767.206078826329
 20
723.2336132204491
 30
0.0
 11
2768.206078826329
 21
722.2336132204491
 31
0.0
  0
LINE
  5
3285
330
1F
100
AcDbEntity
  8
0
100
AcDbLine
 10
2906.206078826329
 20
722.2336132204491
 30
0.0
 11
2907.206078826329
 21
723.2336132204491
 31
0.0
  0
LINE
  5
3286
330
1F
100
AcDbEntity
  8
0
100
AcDbLine
 10
2907.206078826329
 20
746.2336132204491
 30
0.0
 11
2906.206078826329
 21
747.2336132204491
 31
0.0
  0
ARC
  5
3287
330
1F
100
AcDbEntity
  8
0
100
AcDbCircle
 10
2837.206078826329
 20
734.7336132204491
 30
0.0
 40
12.5
100
AcDbArc
 50
331.3145979858794
 51
28.68540201412055
  0
ARC
  5
3288
330
1F
100
AcDbEntity
  8
0
100
AcDbCircle
 10
2837.206078826329
 20
734.7336132204491
 30
0.0
 40
12.5
100
AcDbArc
 50
151.3145979858794
 51
208.6854020141205
  0
LINE
  5
3289
330
1F
100
AcDbEntity
  8
0
100
AcDbLine
 10
2768.20617379079
 20
635.9562033346494
 30
0.0
 11
2906.206173790791
 21
635.9562033346494
 31
0.0
  0
LINE
  5
328A
330
1F
100
AcDbEntity
  8
0
100
AcDbLine
 10
2768.20617379079
 20
660.9562033346494
 30
0.0
 11
2906.206173790791
 21
660.9562033346494
 31
0.0
  0
LINE
  5
328B
330
1F
100
AcDbEntity
  8
0
100
AcDbLine
 10
2767.20617379079
 20
636.9562033346494
 30
0.0
 11
2767.20617379079
 21
659.9562033346494
 31
0.0
  0
LINE
  5
328C
330
1F
100
AcDbEntity
  8
0
100
AcDbLine
 10
2767.20617379079
 20
636.9562033346494
 30
0.0
 11
2768.20617379079
 21
635.9562033346494
 31
0.0
  0
LINE
  5
328D
330
1F
100
AcDbEntity
  8
0
100
AcDbLine
 10
2767.20617379079
 20
659.9562033346494
 30
0.0
 11
2768.20617379079
 21
660.9562033346494
 31
0.0
  0
LINE
  5
328E
330
1F
100
AcDbEntity
  8
0
100
AcDbLine
 10
2907.20617379079
 20
636.9562033346494
 30
0.0
 11
2907.20617379079
 21
659.9562033346494
 31
0.0
  0
LINE
  5
328F
330
1F
100
AcDbEntity
  8
0
100
AcDbLine
 10
2906.206173790791
 20
635.9562033346494
 30
0.0
 11
2907.20617379079
 21
636.9562033346494
 31
0.0
  0
LINE
  5
3290
330
1F
100
AcDbEntity
  8
0
100
AcDbLine
 10
2907.20617379079
 20
659.9562033346494
 30
0.0
 11
2906.206173790791
 21
660.9562033346494
 31
0.0
  0
CIRCLE
  5
3291
330
1F
100
AcDbEntity
  8
0
100
AcDbCircle
 10
2837.20617379079
 20
648.4562033346494
 30
0.0
 40
6.0
  0
ARC
  5
3293
330
1F
100
AcDbEntity
  8
0
100
AcDbCircle
 10
2837.206078826329
 20
734.7336132204491
 30
0.0
 40
30.0
100
AcDbArc
 50
204.6243183521601
 51
335.3756816478399
  0
ARC
  5
3294
330
1F
100
AcDbEntity
  8
0
100
AcDbCircle
 10
2837.206078826329
 20
734.7336132204491
 30
0.0
 40
30.0
100
AcDbArc
 50
24.62431835216009
 51
155.3756816478399
  0
ARC
  5
3295
330
1F
100
AcDbEntity
  8
0
100
AcDbCircle
 10
2837.206078826329
 20
734.7336132204491
 30
0.0
 40
29.0
100
AcDbArc
 50
205.5332289440797
 51
334.4667710559203
  0
ARC
  5
3296
330
1F
100
AcDbEntity
  8
0
100
AcDbCircle
 10
2837.206078826329
 20
734.7336132204491
 30
0.0
 40
29.0
100
AcDbArc
 50
25.53322894407965
 51
154.4667710559203
  0
LINE
  5
3297
330
1F
100
AcDbEntity
  8
0
100
AcDbLine
 10
2808.20617379079
 20
509.9561227128467
 30
0.0
 11
2809.20617379079
 21
508.9561227128466
 31
0.0
  0
LINE
  5
3298
330
1F
100
AcDbEntity
  8
0
100
AcDbLine
 10
2865.20617379079
 20
508.9561227128466
 30
0.0
 11
2866.20617379079
 21
509.9561227128467
 31
0.0
  0
LINE
  5
3299
330
1F
100
AcDbEntity
  8
0
100
AcDbLine
 10
2808.20617379079
 20
526.9561227128467
 30
0.0
 11
2866.206173790791
 21
526.9561227128467
 31
0.0
  0
LINE
  5
329B
330
1F
100
AcDbEntity
  8
0
100
AcDbLine
 10
2807.20617379079
 20
527.9561227128467
 30
0.0
 11
2808.20617379079
 21
526.9561227128467
 31
0.0
  0
LINE
  5
329C
330
1F
100
AcDbEntity
  8
0
100
AcDbLine
 10
2867.206173790791
 20
527.9561227128467
 30
0.0
 11
2866.206173790791
 21
526.9561227128467
 31
0.0
  0
LINE
  5
329D
330
1F
100
AcDbEntity
  8
0
  6
HIDDEN
 62
     3
 48
0.5
100
AcDbLine
 10
2855.445221384231
 20
599.6984953161366
 30
0.0
 11
2866.206173790791
 21
599.6984953161367
 31
0.0
  0
LINE
  5
329E
330
1F
100
AcDbEntity
  8
0
  6
HIDDEN
 62
     3
 48
0.5
100
AcDbLine
 10
2855.922471931056
 20
590.1984953161366
 30
0.0
 11
2866.206173790791
 21
590.1984953161366
 31
0.0
  0
LINE
  5
329F
330
1F
100
AcDbEntity
  8
0
  6
HIDDEN
 62
     3
 48
0.5
100
AcDbLine
 10
2855.922471931056
 20
591.1984953161366
 30
0.0
 11
2866.206173790791
 21
591.1984953161366
 31
0.0
  0
LINE
  5
32A0
330
1F
100
AcDbEntity
  8
0
  6
HIDDEN
 62
     3
 48
0.5
100
AcDbLine
 10
2855.445221384231
 20
598.6984953161366
 30
0.0
 11
2866.206173790791
 21
598.6984953161366
 31
0.0
  0
LINE
  5
32AD
330
1F
100
AcDbEntity
  8
AM_7
100
AcDbLine
 10
2765.206078826329
 20
734.7336132204491
 30
0.0
 11
2909.206078826329
 21
734.7336132204491
 31
0.0
1001
GENIUS_GENODEF_13
1002
{
1000
HIER
1070
     0
1002
}
1002
{
1000
MANEDIT
1070
     0
1002
}
1002
{
1000
NOSEL
1070
     0
1002
}
1002
{
1000
BEHIND
1070
     0
1002
}
1002
{
1000
OTHER
1070
     0
1002
}
1002
{
1000
REACTOR
1002
}
1001
GENIUS_GENOBJ-N-CEN_13
1002
{
1000
OWNER
1000
GEN
1002
}
1001
GENIUS_GENCEN_19
1002
{
1040
2.0
1002
}
  0
LINE
  5
32BA
330
1F
100
AcDbEntity
  8
AM_7
100
AcDbLine
 10
2837.20617379079
 20
662.9562033346494
 30
0.0
 11
2837.20617379079
 21
506.9561227128467
 31
0.0
1001
GENIUS_GENOBJ-N-CEN_13
1002
{
1000
OWNER
1000
GEN
1002
}
1001
GENIUS_GENODEF_13
1002
{
1000
HIER
1070
     0
1002
}
1002
{
1000
MANEDIT
1070
     0
1002
}
1002
{
1000
NOSEL
1070
     0
1002
}
1002
{
1000
BEHIND
1070
     0
1002
}
1002
{
1000
OTHER
1070
     0
1002
}
1002
{
1000
REACTOR
1002
}
1001
GENIUS_GENCEN_19
1002
{
1040
2.0
1002
}
  0
LINE
  5
32C7
330
1F
100
AcDbEntity
  8
AM_7
100
AcDbLine
 10
2837.206078826329
 20
766.7336132204491
 30
0.0
 11
2837.206078826329
 21
702.733613220449
 31
0.0
1001
GENIUS_GENOBJ-N-CEN_13
1002
{
1000
OWNER
1000
GEN
1002
}
1001
GENIUS_GENODEF_13
1002
{
1000
HIER
1070
     0
1002
}
1002
{
1000
MANEDIT
1070
     0
1002
}
1002
{
1000
NOSEL
1070
     0
1002
}
1002
{
1000
BEHIND
1070
     0
1002
}
1002
{
1000
OTHER
1070
     0
1002
}
1002
{
1000
REACTOR
1002
}
1001
GENIUS_GENCEN_19
1002
{
1040
2.0
1002
}
  0
DIMENSION
  5
32C8
330
1F
100
AcDbEntity
  8
AM_5
100
AcDbDimension
  2
*D23
 10
2899.206173790791
 20
606.9561227128467
 30
0.0
 11
2896.70617379079
 21
557.9561227128472
 31
0.0
 70
    32
 71
     5
 42
98.00000000000006
  3
AM_ISO$0
100
AcDbAlignedDimension
 13
2865.20617379079
 23
508.9561227128467
 33
0.0
 14
2865.206173790791
 24
606.9561227128467
 34
0.0
 50
90.0
100
AcDbRotatedDimension
1001
ACAD
1000
DSTYLE
1002
{
1070
    40
1040
1.0
1070
   144
1040
1.0
1070
   272
1070
     8
1002
}
  0
DIMENSION
  5
32C9
330
1F
100
AcDbEntity
  8
AM_5
100
AcDbDimension
  2
*D24
 10
2919.20617379079
 20
635.9562033346494
 30
0.0
 11
2916.706173790791
 21
572.4561630237485
 31
0.0
 70
    32
 71
     5
 42
127.0000806218027
  3
AM_ISO$0
100
AcDbAlignedDimension
 13
2865.20617379079
 23
508.9561227128468
 33
0.0
 14
2906.206173790791
 24
635.9562033346494
 34
0.0
 50
90.0
100
AcDbRotatedDimension
1001
ACAD
1000
DSTYLE
1002
{
1070
    40
1040
1.0
1070
   144
1040
1.0
1070
   272
1070
     8
1002
}
  0
DIMENSION
  5
32CA
330
1F
100
AcDbEntity
  8
AM_5
100
AcDbDimension
  2
*D25
 10
2919.20617379079
 20
635.9562033346494
 30
0.0
 11
2916.706173790791
 21
648.4562033346499
 31
0.0
 70
    32
 71
     5
 42
25.0
  3
AM_ISO$0
100
AcDbAlignedDimension
 13
2906.206173790791
 23
660.9562033346494
 33
0.0
 14
2906.206173790791
 24
635.9562033346494
 34
0.0
 50
90.0
100
AcDbRotatedDimension
1001
ACAD
1000
DSTYLE
1002
{
1070
    40
1040
1.0
1070
   144
1040
1.0
1070
   272
1070
     8
1002
}
  0
DIMENSION
  5
32CB
330
1F
100
AcDbEntity
  8
AM_5
100
AcDbDimension
  2
*D26
 10
2867.206173790791
 20
549.9624340869327
 30
0.0
 11
2837.206173790791
 21
552.4624340869327
 31
0.0
 70
    32
  1
M<>x1.5
 71
     5
 42
60.00000000000046
  3
AM_ISO$0
100
AcDbAlignedDimension
 13
2807.20617379079
 23
553.9561227128467
 33
0.0
 14
2867.206173790791
 24
553.9561227128467
 34
0.0
 50
0.0000000000001132
100
AcDbRotatedDimension
1001
ACAD
1000
DSTYLE
1002
{
1070
    40
1040
1.0
1070
   144
1040
1.0
1070
   272
1070
     8
1002
}
  0
DIMENSION
  5
3381
330
1F
100
AcDbEntity
  8
AM_5
100
AcDbDimension
  2
*D27
 10
2907.206078826329
 20
691.6855802003469
 30
0.0
 11
2837.206078826329
 21
694.185580200347
 31
0.0
 70
    32
 71
     5
 42
140.0
  3
AM_ISO$0
100
AcDbAlignedDimension
 13
2767.206078826329
 23
723.2336132204491
 33
0.0
 14
2907.206078826329
 24
723.2336132204491
 34
0.0
 50
0.0000000000001018
100
AcDbRotatedDimension
1001
ACAD
1000
DSTYLE
1002
{
1070
    40
1040
1.0
1070
   144
1040
1.0
1070
   272
1070
     8
1002
}
  0
LINE
  5
340F
330
1F
100
AcDbEntity
  8
0
100
AcDbLine
 10
2865.206173790791
 20
257.2730235218529
 30
0.0
 11
2809.20617379079
 21
257.2730235218529
 31
0.0
  0
LINE
  5
3410
330
1F
100
AcDbEntity
  8
0
100
AcDbLine
 10
2809.20617379079
 20
159.2730235218529
 30
0.0
 11
2865.20617379079
 21
159.2730235218529
 31
0.0
  0
LINE
  5
3411
330
1F
100
AcDbEntity
  8
0
100
AcDbLine
 10
2808.20617379079
 20
231.273023521853
 30
0.0
 11
2866.20617379079
 21
231.2730235218529
 31
0.0
  0
LINE
  5
3412
330
1F
100
AcDbEntity
  8
0
100
AcDbLine
 10
2807.20617379079
 20
230.273023521853
 30
0.0
 11
2807.20617379079
 21
178.273023521853
 31
0.0
  0
LINE
  5
3413
330
1F
100
AcDbEntity
  8
0
100
AcDbLine
 10
2867.206173790791
 20
178.2730235218529
 30
0.0
 11
2867.206173790791
 21
230.2730235218529
 31
0.0
  0
LINE
  5
3414
330
1F
100
AcDbEntity
  8
0
100
AcDbLine
 10
2808.20617379079
 20
178.2730235218529
 30
0.0
 11
2866.206173790791
 21
178.2730235218529
 31
0.0
  0
LINE
  5
3415
330
1F
100
AcDbEntity
  8
0
100
AcDbLine
 10
2807.20617379079
 20
230.273023521853
 30
0.0
 11
2808.20617379079
 21
231.273023521853
 31
0.0
  0
LINE
  5
3416
330
1F
100
AcDbEntity
  8
0
100
AcDbLine
 10
2866.20617379079
 20
231.2730235218529
 30
0.0
 11
2867.206173790791
 21
230.2730235218529
 31
0.0
  0
LINE
  5
3417
330
1F
100
AcDbEntity
  8
0
100
AcDbLine
 10
2866.20617379079
 20
160.2730235218529
 30
0.0
 11
2866.206173790791
 21
256.2730235218529
 31
0.0
  0
LINE
  5
3418
330
1F
100
AcDbEntity
  8
0
100
AcDbLine
 10
2808.20617379079
 20
256.2730235218529
 30
0.0
 11
2808.20617379079
 21
160.2730235218529
 31
0.0
  0
LINE
  5
341A
330
1F
100
AcDbEntity
  8
0
100
AcDbLine
 10
2824.70617379079
 20
293.2731041436556
 30
0.0
 11
2824.70617379079
 21
257.2731681708781
 31
0.0
  0
LINE
  5
341B
330
1F
100
AcDbEntity
  8
0
100
AcDbLine
 10
2849.70617379079
 20
293.2731041436556
 30
0.0
 11
2849.70617379079
 21
257.2731681708781
 31
0.0
  0
LINE
  5
341D
330
1F
100
AcDbEntity
  8
0
100
AcDbLine
 10
2808.20617379079
 20
256.2730235218529
 30
0.0
 11
2809.20617379079
 21
257.2730235218529
 31
0.0
  0
LINE
  5
341E
330
1F
100
AcDbEntity
  8
0
100
AcDbLine
 10
2865.206173790791
 20
257.2730235218529
 30
0.0
 11
2866.206173790791
 21
256.2730235218529
 31
0.0
  0
LINE
  5
341F
330
1F
100
AcDbEntity
  8
0
100
AcDbLine
 10
2768.20617379079
 20
293.2731041436556
 30
0.0
 11
2767.20617379079
 21
294.2731041436556
 31
0.0
  0
LINE
  5
3422
330
1F
100
AcDbEntity
  8
0
100
AcDbLine
 10
2907.206078826329
 20
373.5505140294554
 30
0.0
 11
2907.206078826329
 21
396.5505140294554
 31
0.0
  0
LINE
  5
3423
330
1F
100
AcDbEntity
  8
0
100
AcDbLine
 10
2767.206078826329
 20
373.5505140294554
 30
0.0
 11
2767.206078826329
 21
396.5505140294554
 31
0.0
  0
LINE
  5
3424
330
1F
100
AcDbEntity
  8
0
100
AcDbLine
 10
2768.206078826329
 20
397.5505140294554
 30
0.0
 11
2906.206078826329
 21
397.5505140294554
 31
0.0
  0
LINE
  5
3425
330
1F
100
AcDbEntity
  8
0
100
AcDbLine
 10
2768.206078826329
 20
372.5505140294554
 30
0.0
 11
2906.206078826329
 21
372.5505140294554
 31
0.0
  0
LINE
  5
3426
330
1F
100
AcDbEntity
  8
0
100
AcDbLine
 10
2823.206078826329
 20
391.0505140294554
 30
0.0
 11
2851.206078826329
 21
391.0505140294554
 31
0.0
  0
LINE
  5
3427
330
1F
100
AcDbEntity
  8
0
100
AcDbLine
 10
2823.206078826329
 20
379.0505140294554
 30
0.0
 11
2851.206078826329
 21
379.0505140294554
 31
0.0
  0
ARC
  5
3428
330
1F
100
AcDbEntity
  8
0
100
AcDbCircle
 10
2823.206078826329
 20
385.0505140294554
 30
0.0
 40
6.0
100
AcDbArc
 50
90.0
 51
270.0
  0
ARC
  5
3429
330
1F
100
AcDbEntity
  8
0
100
AcDbCircle
 10
2851.206078826329
 20
385.0505140294554
 30
0.0
 40
6.0
100
AcDbArc
 50
270.0
 51
90.0
  0
LINE
  5
342A
330
1F
100
AcDbEntity
  8
0
100
AcDbLine
 10
2767.206078826329
 20
396.5505140294554
 30
0.0
 11
2768.206078826329
 21
397.5505140294554
 31
0.0
  0
LINE
  5
342B
330
1F
100
AcDbEntity
  8
0
100
AcDbLine
 10
2767.206078826329
 20
373.5505140294554
 30
0.0
 11
2768.206078826329
 21
372.5505140294554
 31
0.0
  0
LINE
  5
342C
330
1F
100
AcDbEntity
  8
0
100
AcDbLine
 10
2906.206078826329
 20
372.5505140294554
 30
0.0
 11
2907.206078826329
 21
373.5505140294554
 31
0.0
  0
LINE
  5
342D
330
1F
100
AcDbEntity
  8
0
100
AcDbLine
 10
2907.206078826329
 20
396.5505140294554
 30
0.0
 11
2906.206078826329
 21
397.5505140294554
 31
0.0
  0
ARC
  5
342E
330
1F
100
AcDbEntity
  8
0
100
AcDbCircle
 10
2837.206078826329
 20
385.0505140294554
 30
0.0
 40
12.5
100
AcDbArc
 50
331.3145979858794
 51
28.68540201412055
  0
ARC
  5
342F
330
1F
100
AcDbEntity
  8
0
100
AcDbCircle
 10
2837.206078826329
 20
385.0505140294554
 30
0.0
 40
12.5
100
AcDbArc
 50
151.3145979858794
 51
208.6854020141205
  0
LINE
  5
3430
330
1F
100
AcDbEntity
  8
0
100
AcDbLine
 10
2768.20617379079
 20
293.2731041436556
 30
0.0
 11
2906.206173790791
 21
293.2731041436556
 31
0.0
  0
LINE
  5
3431
330
1F
100
AcDbEntity
  8
0
100
AcDbLine
 10
2768.20617379079
 20
318.2731041436556
 30
0.0
 11
2906.206173790791
 21
318.2731041436556
 31
0.0
  0
LINE
  5
3432
330
1F
100
AcDbEntity
  8
0
100
AcDbLine
 10
2767.20617379079
 20
294.2731041436556
 30
0.0
 11
2767.20617379079
 21
317.2731041436556
 31
0.0
  0
LINE
  5
3433
330
1F
100
AcDbEntity
  8
0
100
AcDbLine
 10
2767.20617379079
 20
294.2731041436556
 30
0.0
 11
2768.20617379079
 21
293.2731041436556
 31
0.0
  0
LINE
  5
3434
330
1F
100
AcDbEntity
  8
0
100
AcDbLine
 10
2767.20617379079
 20
317.2731041436556
 30
0.0
 11
2768.20617379079
 21
318.2731041436556
 31
0.0
  0
LINE
  5
3435
330
1F
100
AcDbEntity
  8
0
100
AcDbLine
 10
2907.20617379079
 20
294.2731041436556
 30
0.0
 11
2907.20617379079
 21
317.2731041436556
 31
0.0
  0
LINE
  5
3436
330
1F
100
AcDbEntity
  8
0
100
AcDbLine
 10
2906.206173790791
 20
293.2731041436556
 30
0.0
 11
2907.20617379079
 21
294.2731041436556
 31
0.0
  0
LINE
  5
3437
330
1F
100
AcDbEntity
  8
0
100
AcDbLine
 10
2907.20617379079
 20
317.2731041436556
 30
0.0
 11
2906.206173790791
 21
318.2731041436556
 31
0.0
  0
CIRCLE
  5
3438
330
1F
100
AcDbEntity
  8
0
100
AcDbCircle
 10
2837.20617379079
 20
305.7731041436556
 30
0.0
 40
6.0
  0
ARC
  5
343A
330
1F
100
AcDbEntity
  8
0
100
AcDbCircle
 10
2837.206078826329
 20
385.0505140294554
 30
0.0
 40
30.0
100
AcDbArc
 50
204.6243183521601
 51
335.3756816478399
  0
ARC
  5
343B
330
1F
100
AcDbEntity
  8
0
100
AcDbCircle
 10
2837.206078826329
 20
385.0505140294554
 30
0.0
 40
30.0
100
AcDbArc
 50
24.62431835216009
 51
155.3756816478399
  0
ARC
  5
343C
330
1F
100
AcDbEntity
  8
0
100
AcDbCircle
 10
2837.206078826329
 20
385.0505140294554
 30
0.0
 40
29.0
100
AcDbArc
 50
205.5332289440797
 51
334.4667710559203
  0
ARC
  5
343D
330
1F
100
AcDbEntity
  8
0
100
AcDbCircle
 10
2837.206078826329
 20
385.0505140294554
 30
0.0
 40
29.0
100
AcDbArc
 50
25.53322894407965
 51
154.4667710559203
  0
LINE
  5
343E
330
1F
100
AcDbEntity
  8
0
100
AcDbLine
 10
2808.20617379079
 20
160.2730235218529
 30
0.0
 11
2809.20617379079
 21
159.2730235218529
 31
0.0
  0
LINE
  5
343F
330
1F
100
AcDbEntity
  8
0
100
AcDbLine
 10
2865.20617379079
 20
159.2730235218529
 30
0.0
 11
2866.20617379079
 21
160.2730235218529
 31
0.0
  0
LINE
  5
3440
330
1F
100
AcDbEntity
  8
0
100
AcDbLine
 10
2808.20617379079
 20
177.273023521853
 30
0.0
 11
2866.206173790791
 21
177.2730235218529
 31
0.0
  0
LINE
  5
3443
330
1F
100
AcDbEntity
  8
0
100
AcDbLine
 10
2807.20617379079
 20
178.273023521853
 30
0.0
 11
2808.20617379079
 21
177.273023521853
 31
0.0
  0
LINE
  5
3444
330
1F
100
AcDbEntity
  8
0
100
AcDbLine
 10
2866.206173790791
 20
177.2730235218529
 30
0.0
 11
2867.206173790791
 21
178.2730235218529
 31
0.0
  0
LINE
  5
3445
330
1F
100
AcDbEntity
  8
0
  6
HIDDEN
 62
     3
 48
0.5
100
AcDbLine
 10
2854.029546138028
 20
250.6919169881705
 30
0.0
 11
2866.206173790791
 21
250.6919169881705
 31
0.0
  0
LINE
  5
3446
330
1F
100
AcDbEntity
  8
0
  6
HIDDEN
 62
     3
 48
0.5
100
AcDbLine
 10
2854.506796684853
 20
241.1919169881705
 30
0.0
 11
2866.206173790791
 21
241.1919169881705
 31
0.0
  0
LINE
  5
3447
330
1F
100
AcDbEntity
  8
0
  6
HIDDEN
 62
     3
 48
0.5
100
AcDbLine
 10
2854.506796684853
 20
242.1919169881705
 30
0.0
 11
2866.206173790791
 21
242.1919169881705
 31
0.0
  0
LINE
  5
3448
330
1F
100
AcDbEntity
  8
0
  6
HIDDEN
 62
     3
 48
0.5
100
AcDbLine
 10
2854.029546138028
 20
249.6919169881705
 30
0.0
 11
2866.206173790791
 21
249.6919169881705
 31
0.0
  0
LINE
  5
3449
330
1F
100
AcDbEntity
  8
0
  6
HIDDEN
 62
     3
 48
0.5
100
AcDbLine
 10
2862.681117133255
 20
171.856146940657
 30
0.0
 11
2862.681117133255
 21
159.273023521853
 31
0.0
  0
LINE
  5
344A
330
1F
100
AcDbEntity
  8
0
  6
HIDDEN
 62
     3
 48
0.5
100
AcDbLine
 10
2852.681117133255
 20
171.0171907528051
 30
0.0
 11
2852.681117133255
 21
159.2730235218529
 31
0.0
  0
LINE
  5
344B
330
1F
100
AcDbEntity
  8
0
  6
HIDDEN
 62
     3
 48
0.5
100
AcDbLine
 10
2861.681117133255
 20
171.6883558534264
 30
0.0
 11
2861.681117133255
 21
159.2730235218529
 31
0.0
  0
LINE
  5
344C
330
1F
100
AcDbEntity
  8
0
  6
HIDDEN
 62
     3
 48
0.5
100
AcDbLine
 10
2853.681117133255
 20
171.3527736789649
 30
0.0
 11
2853.681117133255
 21
159.2730235218529
 31
0.0
  0
LINE
  5
3459
330
1F
100
AcDbEntity
  8
AM_7
100
AcDbLine
 10
2765.206078826329
 20
385.0505140294554
 30
0.0
 11
2909.206078826329
 21
385.0505140294554
 31
0.0
1001
GENIUS_GENOBJ-N-CEN_13
1002
{
1000
OWNER
1000
GEN
1002
}
1001
GENIUS_GENODEF_13
1002
{
1000
HIER
1070
     0
1002
}
1002
{
1000
MANEDIT
1070
     0
1002
}
1002
{
1000
NOSEL
1070
     0
1002
}
1002
{
1000
BEHIND
1070
     0
1002
}
1002
{
1000
OTHER
1070
     0
1002
}
1002
{
1000
REACTOR
1002
}
1001
GENIUS_GENCEN_19
1002
{
1040
2.0
1002
}
  0
LINE
  5
3466
330
1F
100
AcDbEntity
  8
AM_7
100
AcDbLine
 10
2837.20617379079
 20
320.2731041436556
 30
0.0
 11
2837.20617379079
 21
157.2730235218529
 31
0.0
1001
GENIUS_GENODEF_13
1002
{
1000
HIER
1070
     0
1002
}
1002
{
1000
MANEDIT
1070
     0
1002
}
1002
{
1000
NOSEL
1070
     0
1002
}
1002
{
1000
BEHIND
1070
     0
1002
}
1002
{
1000
OTHER
1070
     0
1002
}
1002
{
1000
REACTOR
1002
}
1001
GENIUS_GENOBJ-N-CEN_13
1002
{
1000
OWNER
1000
GEN
1002
}
1001
GENIUS_GENCEN_19
1002
{
1040
2.0
1002
}
  0
LINE
  5
3473
330
1F
100
AcDbEntity
  8
AM_7
100
AcDbLine
 10
2837.206078826329
 20
417.0505140294554
 30
0.0
 11
2837.206078826329
 21
354.0505140294554
 31
0.0
1001
GENIUS_GENODEF_13
1002
{
1000
HIER
1070
     0
1002
}
1002
{
1000
MANEDIT
1070
     0
1002
}
1002
{
1000
NOSEL
1070
     0
1002
}
1002
{
1000
BEHIND
1070
     0
1002
}
1002
{
1000
OTHER
1070
     0
1002
}
1002
{
1000
REACTOR
1002
}
1001
GENIUS_GENOBJ-N-CEN_13
1002
{
1000
OWNER
1000
GEN
1002
}
1001
GENIUS_GENCEN_19
1002
{
1040
2.0
1002
}
  0
DIMENSION
  5
3474
330
1F
100
AcDbEntity
  8
AM_5
100
AcDbDimension
  2
*D28
 10
2899.206173790791
 20
257.2730235218529
 30
0.0
 11
2896.70617379079
 21
208.2730235218534
 31
0.0
 70
    32
 71
     5
 42
98.0
  3
AM_ISO$0
100
AcDbAlignedDimension
 13
2865.20617379079
 23
159.2730235218529
 33
0.0
 14
2865.206173790791
 24
257.2730235218529
 34
0.0
 50
90.0
100
AcDbRotatedDimension
1001
ACAD
1000
DSTYLE
1002
{
1070
    40
1040
1.0
1070
   144
1040
1.0
1070
   272
1070
     8
1002
}
  0
DIMENSION
  5
3475
330
1F
100
AcDbEntity
  8
AM_5
100
AcDbDimension
  2
*D29
 10
2919.20617379079
 20
293.2731041436556
 30
0.0
 11
2916.706173790791
 21
226.2730638327547
 31
0.0
 70
    32
 71
     5
 42
134.0000806218026
  3
AM_ISO$0
100
AcDbAlignedDimension
 13
2865.20617379079
 23
159.2730235218529
 33
0.0
 14
2906.206173790791
 24
293.2731041436556
 34
0.0
 50
90.0
100
AcDbRotatedDimension
1001
ACAD
1000
DSTYLE
1002
{
1070
    40
1040
1.0
1070
   144
1040
1.0
1070
   272
1070
     8
1002
}
  0
DIMENSION
  5
3476
330
1F
100
AcDbEntity
  8
AM_5
100
AcDbDimension
  2
*D30
 10
2919.20617379079
 20
293.2731041436556
 30
0.0
 11
2916.706173790791
 21
305.773104143656
 31
0.0
 70
    32
 71
     5
 42
25.0
  3
AM_ISO$0
100
AcDbAlignedDimension
 13
2906.206173790791
 23
318.2731041436556
 33
0.0
 14
2906.206173790791
 24
293.2731041436556
 34
0.0
 50
90.0
100
AcDbRotatedDimension
1001
ACAD
1000
DSTYLE
1002
{
1070
    40
1040
1.0
1070
   144
1040
1.0
1070
   272
1070
     8
1002
}
  0
DIMENSION
  5
3477
330
1F
100
AcDbEntity
  8
AM_5
100
AcDbDimension
  2
*D31
 10
2867.206173790791
 20
200.2793348959388
 30
0.0
 11
2837.206173790791
 21
202.7793348959388
 31
0.0
 70
    32
  1
M<>x1.5
 71
     5
 42
60.00000000000046
  3
AM_ISO$0
100
AcDbAlignedDimension
 13
2807.20617379079
 23
204.2730235218529
 33
0.0
 14
2867.206173790791
 24
204.2730235218529
 34
0.0
100
AcDbRotatedDimension
1001
ACAD
1000
DSTYLE
1002
{
1070
    40
1040
1.0
1070
   144
1040
1.0
1070
   272
1070
     8
1002
}
  0
DIMENSION
  5
34E7
330
1F
100
AcDbEntity
  8
AM_5
100
AcDbDimension
  2
*D32
 10
2907.206078826329
 20
342.0024810093532
 30
0.0
 11
2837.206078826329
 21
344.5024810093532
 31
0.0
 70
    32
 71
     5
 42
140.0
  3
AM_ISO$0
100
AcDbAlignedDimension
 13
2767.206078826329
 23
373.5505140294554
 33
0.0
 14
2907.206078826329
 24
373.5505140294554
 34
0.0
100
AcDbRotatedDimension
1001
ACAD
1000
DSTYLE
1002
{
1070
    40
1040
1.0
1070
   144
1040
1.0
1070
   272
1070
     8
1002
}
  0
ENDSEC
  0
SECTION
  2
OBJECTS
  0
DICTIONARY
  5
C
330
0
100
AcDbDictionary
281
     1
  3
ACAD_COLOR
350
BE
  3
ACAD_GROUP
350
D
  3
ACAD_LAYOUT
350
1A
  3
ACAD_MATERIAL
350
BD
  3
ACAD_MLINESTYLE
350
17
  3
ACAD_PLOTSETTINGS
350
19
  3
ACAD_PLOTSTYLENAME
350
E
  3
ACAD_TABLESTYLE
350
11A
  3
ACDBHEADERROUNDTRIPXREC
350
3536
  3
AcDbVariableDictionary
350
94
  3
AcmDictionary
350
5B
  3
AMG
350
41
  3
AMGSNAPSETTINGS
350
1B8
  3
DWGPROPS
350
3535
  0
DICTIONARY
  5
3F9
330
2
100
AcDbDictionary
280
     1
281
     1
  3
ACAD_LAYERFILTERS
360
5B7
  3
ACAD_LAYERSTATES
360
1563
  3
ACLYDICTIONARY
360
5B6
  0
DICTIONARY
  5
8F
330
1F
100
AcDbDictionary
280
     1
281
     1
  3
ACAD_SORTENTS
360
9E6
  0
DICTIONARY
  5
2EB5
330
2EA8
100
AcDbDictionary
280
     1
281
     1
  3
ACAD_DIMASSOC
360
2EB6
  0
DICTIONARY
  5
30D3
330
30C6
100
AcDbDictionary
280
     1
281
     1
  3
ACAD_DIMASSOC
360
30D4
  0
DICTIONARY
  5
BE
102
{ACAD_REACTORS
330
C
102
}
330
C
100
AcDbDictionary
281
     1
  0
DICTIONARY
  5
D
102
{ACAD_REACTORS
330
C
102
}
330
C
100
AcDbDictionary
281
     1
  0
DICTIONARY
  5
1A
102
{ACAD_REACTORS
330
C
102
}
330
C
100
AcDbDictionary
281
     1
  3
Model
350
22
  3
配置1
350
1E
  3
配置2
350
26
  0
DICTIONARY
  5
BD
102
{ACAD_REACTORS
330
C
102
}
330
C
100
AcDbDictionary
281
     1
  0
DICTIONARY
  5
17
102
{ACAD_REACTORS
330
C
102
}
330
C
100
AcDbDictionary
281
     1
  3
Standard
350
18
  0
DICTIONARY
  5
19
102
{ACAD_REACTORS
330
C
102
}
330
C
100
AcDbDictionary
281
     1
  0
ACDBDICTIONARYWDFLT
  5
E
102
{ACAD_REACTORS
330
C
102
}
330
C
100
AcDbDictionary
281
     1
  3
Normal
350
F
100
AcDbDictionaryWithDefault
340
F
  0
DICTIONARY
  5
11A
102
{ACAD_REACTORS
330
C
102
}
330
C
100
AcDbDictionary
281
     1
  3
Standard
350
11B
  0
DICTIONARY
  5
3536
102
{ACAD_REACTORS
330
C
102
}
330
C
100
AcDbDictionary
281
     1
  0
DICTIONARY
  5
94
102
{ACAD_REACTORS
330
C
102
}
330
C
100
AcDbDictionary
281
     1
  3
CTABLESTYLE
350
138
  3
DIMASSOC
350
96
  3
INDEXCTL
350
95
  3
PROJECTNAME
350
3533
  0
DICTIONARY
  5
5B
102
{ACAD_REACTORS
330
C
102
}
330
C
100
AcDbDictionary
281
     1
  3
AcmBOM
350
1B5
  3
AcmStdDictionary
350
61
  3
AMDTSECTSYM_ARROWCOLOR
350
123
  0
DICTIONARY
  5
41
102
{ACAD_REACTORS
330
C
102
}
330
C
100
AcDbDictionary
281
     1
  0
DICTIONARY
  5
1B8
102
{ACAD_REACTORS
330
C
102
}
330
C
100
AcDbDictionary
281
     1
  0
XRECORD
  5
3535
102
{ACAD_REACTORS
330
C
102
}
330
C
100
AcDbXrecord
280
     1
  1
DWGPROPS COOKIE
  2

  3

  4

  6

  7

  8

  9

300
AmdtFileType=84
301
=
302
=
303
=
304
=
305
=
306
=
307
=
308
=
309
=
 40
0.0921511458333334
 41
2453731.618400787
 42
2453732.406436447
  1

 90
        1
  0
DICTIONARY
  5
5B7
102
{ACAD_REACTORS
330
3F9
102
}
330
3F9
100
AcDbDictionary
281
     1
  0
DICTIONARY
  5
1563
102
{ACAD_REACTORS
330
3F9
102
}
330
3F9
100
AcDbDictionary
281
     1
  0
DICTIONARY
  5
5B6
102
{ACAD_REACTORS
330
3F9
102
}
330
3F9
100
AcDbDictionary
281
     1
1001
ACAD
1000
<All
  0
SORTENTSTABLE
  5
9E6
102
{ACAD_REACTORS
330
8F
102
}
330
8F
100
AcDbSortentsTable
330
1F
331
2E4B
  5
2E4B
331
2FE3
  5
2FE3
331
2B0A
  5
2B0A
331
176F
  5
176F
331
1739
  5
1739
331
1796
  5
1796
331
1ABB
  5
1ABB
331
2D38
  5
2D38
331
2E4C
  5
2E4C
331
2D39
  5
2D39
331
173A
  5
173A
331
1770
  5
1770
331
1797
  5
1797
331
1ABC
  5
1ABC
331
2B0B
  5
2B0B
331
2E8C
  5
2E8C
331
2E4D
  5
2E4D
331
2FCE
  5
2FCE
331
2D9F
  5
2D9F
331
2FE5
  5
2FE5
331
1AA6
  5
1AA6
331
173B
  5
173B
331
1771
  5
1771
331
2B0C
  5
2B0C
331
3130
  5
3130
331
2FCF
  5
2FCF
331
2FE6
  5
2FE6
331
2E4E
  5
2E4E
331
2D0C
  5
2D0C
331
2D3B
  5
2D3B
331
1AA7
  5
1AA7
331
173C
  5
173C
331
1772
  5
1772
331
1799
  5
1799
331
2B0D
  5
2B0D
331
2E8D
  5
2E8D
331
300E
  5
300E
331
3131
  5
3131
331
2FD0
  5
2FD0
331
2FE7
  5
2FE7
331
2E8E
  5
2E8E
331
2D0D
  5
2D0D
331
2E38
  5
2E38
331
179A
  5
179A
331
173D
  5
173D
331
1773
  5
1773
331
1A89
  5
1A89
331
2B0E
  5
2B0E
331
2E4F
  5
2E4F
331
3132
  5
3132
331
3151
  5
3151
331
2FD1
  5
2FD1
331
2FE8
  5
2FE8
331
2E8F
  5
2E8F
331
2D0E
  5
2D0E
331
2E39
  5
2E39
331
173E
  5
173E
331
1774
  5
1774
331
2B0F
  5
2B0F
331
2E50
  5
2E50
331
3133
  5
3133
331
3152
  5
3152
331
2FD2
  5
2FD2
331
2FE9
  5
2FE9
331
2E90
  5
2E90
331
2D0F
  5
2D0F
331
2E3A
  5
2E3A
331
1A8B
  5
1A8B
331
173F
  5
173F
331
1775
  5
1775
331
2B10
  5
2B10
331
2E51
  5
2E51
331
3134
  5
3134
331
3153
  5
3153
331
2FEA
  5
2FEA
331
2ED0
  5
2ED0
331
2E91
  5
2E91
331
2E3B
  5
2E3B
331
1776
  5
1776
331
1A8C
  5
1A8C
331
2B11
  5
2B11
331
2E52
  5
2E52
331
3135
  5
3135
331
3154
  5
3154
331
2FEB
  5
2FEB
331
2E92
  5
2E92
331
2E3C
  5
2E3C
331
1A8D
  5
1A8D
331
1777
  5
1777
331
2B12
  5
2B12
331
2E53
  5
2E53
331
3136
  5
3136
331
3155
  5
3155
331
2FD5
  5
2FD5
331
2FEC
  5
2FEC
331
2E93
  5
2E93
331
1A8E
  5
1A8E
331
2B13
  5
2B13
331
2E54
  5
2E54
331
301B
  5
301B
331
3228
  5
3228
331
3137
  5
3137
331
3156
  5
3156
331
2FD6
  5
2FD6
331
2FED
  5
2FED
331
2E94
  5
2E94
331
2E3E
  5
2E3E
331
1A8F
  5
1A8F
331
2B14
  5
2B14
331
2E55
  5
2E55
331
301C
  5
301C
331
3280
  5
3280
331
3229
  5
3229
331
3157
  5
3157
331
316E
  5
316E
331
2FD7
  5
2FD7
331
2FEE
  5
2FEE
331
2E95
  5
2E95
331
2E3F
  5
2E3F
331
2AF6
  5
2AF6
331
2B15
  5
2B15
331
2E56
  5
2E56
331
301D
  5
301D
331
3281
  5
3281
331
32A0
  5
32A0
331
322A
  5
322A
331
3158
  5
3158
331
2FD8
  5
2FD8
331
2FEF
  5
2FEF
331
2E96
  5
2E96
331
2D1D
  5
2D1D
331
2AF7
  5
2AF7
331
2B16
  5
2B16
331
2E57
  5
2E57
331
301E
  5
301E
331
3282
  5
3282
331
322B
  5
322B
331
313A
  5
313A
331
3159
  5
3159
331
2FD9
  5
2FD9
331
2FF0
  5
2FF0
331
2E97
  5
2E97
331
2B17
  5
2B17
331
2E58
  5
2E58
331
301F
  5
301F
331
322C
  5
322C
331
313B
  5
313B
331
315A
  5
315A
331
2FDA
  5
2FDA
331
2FF1
  5
2FF1
331
3020
  5
3020
331
2EA8
  5
2EA8
331
3283
  5
3283
331
320E
  5
320E
331
322D
  5
322D
331
313C
  5
313C
331
315B
  5
315B
331
2FDB
  5
2FDB
331
3021
  5
3021
331
2E5A
  5
2E5A
331
3284
  5
3284
331
317B
  5
317B
331
313D
  5
313D
331
315C
  5
315C
331
2FDC
  5
2FDC
331
2FF3
  5
2FF3
331
3022
  5
3022
331
2E5B
  5
2E5B
331
3285
  5
3285
331
3286
  5
3286
331
2FDD
  5
2FDD
331
2FF4
  5
2FF4
331
3023
  5
3023
331
2E5C
  5
2E5C
331
313E
  5
313E
331
315D
  5
315D
331
3381
  5
3381
331
2FDE
  5
2FDE
331
2E5D
  5
2E5D
331
3268
  5
3268
331
3287
  5
3287
331
3428
  5
3428
331
2FDF
  5
2FDF
331
2E5E
  5
2E5E
331
3269
  5
3269
331
3288
  5
3288
331
3448
  5
3445
331
3429
  5
3429
331
326A
  5
326A
331
3289
  5
3289
331
32C7
  5
32C7
331
2FC1
  5
2FC1
331
2EDD
  5
2EDD
331
2E5F
  5
2E5F
331
3141
  5
3141
331
3160
  5
3160
331
3449
  5
3447
331
342A
  5
342A
331
3188
  5
3188
331
326B
  5
326B
331
328A
  5
328A
331
32C8
  5
32C8
331
3142
  5
3142
331
3161
  5
3161
331
344A
  5
3448
331
342B
  5
342B
331
3189
  5
3189
331
326C
  5
326C
331
328B
  5
328B
331
32C9
  5
32C9
331
3001
  5
3001
331
3143
  5
3143
331
2FC3
  5
2FC3
331
344B
  5
3449
331
342C
  5
342C
331
318A
  5
318A
331
326D
  5
326D
331
328C
  5
328C
331
32CA
  5
32CA
331
3144
  5
3144
331
2FC4
  5
2FC4
331
344C
  5
344A
331
342D
  5
342D
331
318B
  5
318B
331
326E
  5
326E
331
328D
  5
328D
331
32CB
  5
32CB
331
3145
  5
3145
331
2F5E
  5
2F5E
331
2FC5
  5
2FC5
331
340F
  5
340F
331
342E
  5
342E
331
318C
  5
318C
331
326F
  5
326F
331
328E
  5
328E
331
32AD
  5
32AD
331
3146
  5
3146
331
2FC6
  5
2FC6
331
3410
  5
3410
331
342F
  5
342F
331
3270
  5
3270
331
328F
  5
328F
331
3147
  5
3147
331
2FC7
  5
2FC7
331
3411
  5
3411
331
3430
  5
3430
331
3271
  5
3271
331
3290
  5
3290
331
3148
  5
3148
331
3412
  5
3412
331
3431
  5
3431
331
3291
  5
3291
331
3149
  5
3149
331
3413
  5
3413
331
3432
  5
3432
331
3273
  5
3273
331
314A
  5
314A
331
32BA
  5
32BA
331
3414
  5
3414
331
3433
  5
3433
331
3274
  5
3274
331
3293
  5
3293
331
314B
  5
314B
331
3415
  5
3415
331
3434
  5
3434
331
3294
  5
3294
331
30C6
  5
30C6
331
312D
  5
312D
331
314C
  5
314C
331
3416
  5
3416
331
3435
  5
3435
331
3276
  5
3276
331
3295
  5
3295
331
314D
  5
314D
331
3417
  5
3417
331
3436
  5
3436
331
3277
  5
3277
331
3296
  5
3296
331
312F
  5
312F
331
314E
  5
314E
331
3418
  5
3418
331
3437
  5
3437
331
3278
  5
3278
331
3297
  5
3297
331
314F
  5
314F
331
3298
  5
3298
331
3438
  5
3438
331
341A
  5
341A
331
3299
  5
3299
331
341B
  5
341B
331
327B
  5
327B
331
343A
  5
343A
331
327C
  5
327C
331
329B
  5
329B
331
343B
  5
343B
331
341D
  5
341D
331
327D
  5
327D
331
329C
  5
329C
331
3226
  5
3226
331
343C
  5
343C
331
1740
  5
1740
331
343D
  5
343D
331
327E
  5
327E
331
329D
  5
329D
331
3227
  5
3227
331
341E
  5
341E
331
1758
  5
1758
331
1741
  5
1741
331
343E
  5
343E
331
327F
  5
327F
331
329E
  5
329E
331
341F
  5
341F
331
1778
  5
1778
331
1742
  5
1742
331
1759
  5
1759
331
329F
  5
329F
331
343F
  5
343F
331
175A
  5
175A
331
1743
  5
1743
331
1779
  5
1779
331
17A8
  5
17A8
331
3440
  5
3440
331
1744
  5
1744
331
177A
  5
177A
331
17A9
  5
17A9
331
3422
  5
3422
331
1745
  5
1745
331
177B
  5
177B
331
1AA8
  5
1AA8
331
3423
  5
3423
331
2AF8
  5
2AF8
331
177C
  5
177C
331
1746
  5
1746
331
1AA9
  5
1AA9
331
3443
  5
344B
331
3424
  5
3424
331
2AF9
  5
2AF9
331
175E
  5
175E
331
1728
  5
1728
331
177D
  5
177D
331
1AAA
  5
1AAA
331
3444
  5
344C
331
3425
  5
3425
331
2AFA
  5
2AFA
331
2B19
  5
2B19
331
177E
  5
177E
331
1729
  5
1729
331
1AAB
  5
1AAB
331
3445
  5
3442
331
3426
  5
3426
331
2B1A
  5
2B1A
331
177F
  5
177F
331
172A
  5
172A
331
1AAC
  5
1AAC
331
3446
  5
3443
331
3427
  5
3427
331
2AFC
  5
2AFC
331
2B1B
  5
2B1B
331
2D2A
  5
2D2A
331
1780
  5
1780
331
172B
  5
172B
331
174A
  5
174A
331
1A96
  5
1A96
331
1AAD
  5
1AAD
331
3447
  5
3444
331
2AFD
  5
2AFD
331
2B1C
  5
2B1C
331
17B8
  5
17B8
331
1781
  5
1781
331
172C
  5
172C
331
1762
  5
1762
331
1A97
  5
1A97
331
1AAE
  5
1AAE
331
2B1D
  5
2B1D
331
1A98
  5
1A98
331
17B9
  5
17B9
331
172D
  5
172D
331
1782
  5
1782
331
1AAF
  5
1AAF
331
2AFF
  5
2AFF
331
2B1E
  5
2B1E
331
2E40
  5
2E40
331
17BA
  5
17BA
331
1783
  5
1783
331
172E
  5
172E
331
1A99
  5
1A99
331
1AB0
  5
1AB0
331
2B00
  5
2B00
331
2B1F
  5
2B1F
331
2E41
  5
2E41
331
2E60
  5
2E60
331
1A9A
  5
1A9A
331
17BB
  5
17BB
331
172F
  5
172F
331
174E
  5
174E
331
1784
  5
1784
331
1AB1
  5
1AB1
331
2B01
  5
2B01
331
2E42
  5
2E42
331
1A9B
  5
1A9B
331
1766
  5
1766
331
1730
  5
1730
331
174F
  5
174F
331
2B02
  5
2B02
331
2B21
  5
2B21
331
2E43
  5
2E43
331
1A9C
  5
1A9C
331
1731
  5
1731
331
1767
  5
1767
331
2B22
  5
2B22
331
1A9D
  5
1A9D
331
1732
  5
1732
331
1768
  5
1768
331
2B23
  5
2B23
331
1733
  5
1733
331
1A9E
  5
1A9E
331
2EEA
  5
2EEA
331
2B05
  5
2B05
331
2B24
  5
2B24
331
2E46
  5
2E46
331
1791
  5
1791
331
1734
  5
1734
331
1753
  5
1753
331
1A9F
  5
1A9F
331
2EEB
  5
2EEB
331
2FC8
  5
2FC8
331
2B06
  5
2B06
331
2E47
  5
2E47
331
1754
  5
1754
331
1735
  5
1735
331
1792
  5
1792
331
1AA0
  5
1AA0
331
1AB7
  5
1AB7
331
2EEC
  5
2EEC
331
2FE0
  5
2FE0
331
2FC9
  5
2FC9
331
2B07
  5
2B07
331
2E48
  5
2E48
331
1AA1
  5
1AA1
331
198A
  5
198A
331
176C
  5
176C
331
1736
  5
1736
331
1755
  5
1755
331
1793
  5
1793
331
1AB8
  5
1AB8
331
2EED
  5
2EED
331
2FE1
  5
2FE1
331
2FCA
  5
2FCA
331
2B08
  5
2B08
331
2E49
  5
2E49
331
198B
  5
198B
331
176D
  5
176D
331
1756
  5
1756
331
1737
  5
1737
331
1794
  5
1794
331
1AB9
  5
1AB9
331
2EEE
  5
2EEE
331
2D37
  5
2D37
331
2B09
  5
2B09
331
2E4A
  5
2E4A
331
2FCB
  5
2FCB
331
1AA3
  5
1AA3
331
176E
  5
176E
331
1738
  5
1738
331
1757
  5
1757
331
1795
  5
1795
331
1ABA
  5
1ABA
331
2FE2
  5
2FE2
  0
DIMASSOC
  5
2EB6
102
{ACAD_REACTORS
330
2EB5
102
}
330
2EB5
100
AcDbDimAssoc
330
2EA8
 90
        3
 70
     0
 71
     0
  1
AcDbOsnapPointRef
 72
     1
331
2B0D
 73
     0
 91
        0
 40
0.0
 10
0.0
 20
0.0
 30
2.000000000000000E+50
 75
     0
  1
AcDbOsnapPointRef
 72
    13
331
2B0C
 73
     0
 91
        0
 40
0.0
 10
0.0
 20
0.0
 30
2.000000000000000E+50
 75
     0
  0
DIMASSOC
  5
30D4
102
{ACAD_REACTORS
330
30D3
102
}
330
30D3
100
AcDbDimAssoc
330
30C6
 90
        3
 70
     0
 71
     0
  1
AcDbOsnapPointRef
 72
     1
331
2FE7
 73
     0
 91
        0
 40
0.0
 10
0.0
 20
0.0
 30
2.000000000000000E+50
 75
     0
  1
AcDbOsnapPointRef
 72
     1
331
2FEA
 73
     0
 91
        0
 40
0.0
 10
0.0
 20
0.0
 30
2.000000000000000E+50
 75
     0
  0
LAYOUT
  5
22
102
{ACAD_XDICTIONARY
360
3539
102
}
102
{ACAD_REACTORS
330
1A
102
}
330
1A
100
AcDbPlotSettings
  1

  2
\\RD\EPSON Stylus C63 Series單色
  4
A4
  6

 40
3.757083177566528
 41
3.757076978683471
 42
3.757080078125
 43
3.757080078125
 44
209.9733276367187
 45
296.9683227539062
 46
0.0
 47
0.0
 48
0.0
 49
0.0
140
0.0
141
0.0
142
1.0
143
0.3405120737814363
 70
 11952
 72
     1
 73
     0
 74
     0
  7
單色出圖.ctb
 75
     0
147
2.936753428137963
148
-2047.07469463503
149
-1261.649717473083
100
AcDbLayout
  1
Model
 70
     1
 71
     0
 10
0.0
 20
0.0
 11
12.0
 21
9.0
 12
0.0
 22
0.0
 32
0.0
 14
0.0
 24
0.0
 34
0.0
 15
0.0
 25
0.0
 35
0.0
146
0.0
 13
0.0
 23
0.0
 33
0.0
 16
1.0
 26
0.0
 36
0.0
 17
0.0
 27
1.0
 37
0.0
 76
     0
330
1F
1001
ACAD_PSEXT
1000
\\RD\EPSON Stylus C63 Series單色
1000
EPSON Stylus C63 Series
1000
\\RD
1000

1070
     0
  0
LAYOUT
  5
1E
102
{ACAD_XDICTIONARY
360
3537
102
}
102
{ACAD_REACTORS
330
1A
102
}
330
1A
100
AcDbPlotSettings
  1

  2

  4

  6

 40
0.0
 41
0.0
 42
0.0
 43
0.0
 44
0.0
 45
0.0
 46
0.0
 47
0.0
 48
0.0
 49
0.0
140
0.0
141
0.0
142
1.0
143
1.0
 70
   688
 72
     0
 73
     0
 74
     5
  7
單色出圖.ctb
 75
    16
147
1.0
148
0.0
149
0.0
100
AcDbLayout
  1
配置1
 70
     1
 71
     1
 10
0.0
 20
0.0
 11
420.0
 21
297.0
 12
0.0
 22
0.0
 32
0.0
 14
1.000000000000000E+20
 24
1.000000000000000E+20
 34
1.000000000000000E+20
 15
-1.000000000000000E+20
 25
-1.000000000000000E+20
 35
-1.000000000000000E+20
146
0.0
 13
0.0
 23
0.0
 33
0.0
 16
1.0
 26
0.0
 36
0.0
 17
0.0
 27
1.0
 37
0.0
 76
     0
330
1B
  0
LAYOUT
  5
26
102
{ACAD_XDICTIONARY
360
353B
102
}
102
{ACAD_REACTORS
330
1A
102
}
330
1A
100
AcDbPlotSettings
  1

  2

  4

  6

 40
0.0
 41
0.0
 42
0.0
 43
0.0
 44
0.0
 45
0.0
 46
0.0
 47
0.0
 48
0.0
 49
0.0
140
0.0
141
0.0
142
1.0
143
1.0
 70
   688
 72
     0
 73
     0
 74
     5
  7
單色出圖.ctb
 75
    16
147
1.0
148
0.0
149
0.0
100
AcDbLayout
  1
配置2
 70
     1
 71
     2
 10
0.0
 20
0.0
 11
12.0
 21
9.0
 12
0.0
 22
0.0
 32
0.0
 14
0.0
 24
0.0
 34
0.0
 15
0.0
 25
0.0
 35
0.0
146
0.0
 13
0.0
 23
0.0
 33
0.0
 16
1.0
 26
0.0
 36
0.0
 17
0.0
 27
1.0
 37
0.0
 76
     0
330
23
  0
MLINESTYLE
  5
18
102
{ACAD_REACTORS
330
17
102
}
330
17
100
AcDbMlineStyle
  2
STANDARD
 70
     0
  3

 62
   256
 51
90.0
 52
90.0
 71
     2
 49
0.5
 62
   256
  6
BYLAYER
 49
-0.5
 62
   256
  6
BYLAYER
  0
ACDBPLACEHOLDER
  5
F
102
{ACAD_REACTORS
330
E
102
}
330
E
  0
TABLESTYLE
  5
11B
102
{ACAD_REACTORS
330
11A
102
}
330
11A
100
AcDbTableStyle
  3
Standard
 70
     0
 71
     0
 40
1.5
 41
1.5
280
     0
281
     0
  7
STANDARD
140
4.5
170
     2
 62
     0
 63
     7
283
     0
274
    -2
284
     1
 64
     0
275
    -2
285
     1
 65
     0
276
    -2
286
     1
 66
     0
277
    -2
287
     1
 67
     0
278
    -2
288
     1
 68
     0
279
    -2
289
     1
 69
     0
  7
STANDARD
140
6.0
170
     5
 62
     0
 63
     7
283
     0
274
    -2
284
     1
 64
     0
275
    -2
285
     1
 65
     0
276
    -2
286
     1
 66
     0
277
    -2
287
     1
 67
     0
278
    -2
288
     1
 68
     0
279
    -2
289
     1
 69
     0
  7
STANDARD
140
4.5
170
     5
 62
     0
 63
     7
283
     0
274
    -2
284
     1
 64
     0
275
    -2
285
     1
 65
     0
276
    -2
286
     1
 66
     0
277
    -2
287
     1
 67
     0
278
    -2
288
     1
 68
     0
279
    -2
289
     1
 69
     0
  0
DICTIONARYVAR
  5
138
102
{ACAD_REACTORS
330
94
102
}
330
94
100
DictionaryVariables
280
     0
  1
STANDARD
  0
DICTIONARYVAR
  5
96
102
{ACAD_REACTORS
330
94
102
}
330
94
100
DictionaryVariables
280
     0
  1
2
  0
DICTIONARYVAR
  5
95
102
{ACAD_REACTORS
330
94
102
}
330
94
100
DictionaryVariables
280
     0
  1
0
  0
DICTIONARYVAR
  5
3533
102
{ACAD_REACTORS
330
94
102
}
330
94
100
DictionaryVariables
280
     0
  1

  0
DICTIONARY
  5
1B5
102
{ACAD_REACTORS
330
5B
102
}
330
5B
100
AcDbDictionary
281
     1
  0
DICTIONARY
  5
61
102
{ACAD_REACTORS
330
5B
102
}
330
5B
100
AcDbDictionary
281
     1
  0
XRECORD
  5
123
102
{ACAD_REACTORS
330
5B
102
}
330
5B
100
AcDbXrecord
280
     1
 90
-1023410169
  0
DICTIONARY
  5
3539
330
22
100
AcDbDictionary
280
     1
281
     1
  3
ACAD_XREC_ROUNDTRIP
360
353A
  0
DICTIONARY
  5
3537
330
1E
100
AcDbDictionary
280
     1
281
     1
  3
ACAD_XREC_ROUNDTRIP
360
3538
  0
DICTIONARY
  5
353B
330
26
100
AcDbDictionary
280
     1
281
     1
  3
ACAD_XREC_ROUNDTRIP
360
353C
  0
XRECORD
  5
353A
102
{ACAD_REACTORS
330
3539
102
}
330
3539
100
AcDbXrecord
280
     1
102
SHADEPLOT
 70
     0
102
SHADEPLOTRESLEVEL
 70
     2
102
SHADEPLOTCUSTOMDPI
 70
   300
  0
XRECORD
  5
3538
102
{ACAD_REACTORS
330
3537
102
}
330
3537
100
AcDbXrecord
280
     1
102
SHADEPLOT
 70
     0
102
SHADEPLOTRESLEVEL
 70
     2
102
SHADEPLOTCUSTOMDPI
 70
   300
  0
XRECORD
  5
353C
102
{ACAD_REACTORS
330
353B
102
}
330
353B
100
AcDbXrecord
280
     1
102
SHADEPLOT
 70
     0
102
SHADEPLOTRESLEVEL
 70
     2
102
SHADEPLOTCUSTOMDPI
 70
   300
  0
ENDSEC
  0
EOF
