  0
SECTION
  2
HEADER
  9
$ACADVER
  1
AC1015
  9
$ACADMAINTVER
 70
    20
  9
$DWGCODEPAGE
  3
ANSI_950
  9
$INSBASE
 10
0.0
 20
0.0
 30
0.0
  9
$EXTMIN
 10
1172.891249217663
 20
890.3795445739611
 30
-0.0049649203846229
  9
$EXTMAX
 10
1408.165651165873
 20
1138.764211432921
 30
162.7078899001006
  9
$LIMMIN
 10
0.0
 20
0.0
  9
$LIMMAX
 10
420.0
 20
297.0
  9
$ORTHOMODE
 70
     0
  9
$REGENMODE
 70
     1
  9
$FILLMODE
 70
     1
  9
$QTEXTMODE
 70
     0
  9
$MIRRTEXT
 70
     1
  9
$LTSCALE
 40
1.0
  9
$ATTMODE
 70
     1
  9
$TEXTSIZE
 40
1.0
  9
$TRACEWID
 40
1.0
  9
$TEXTSTYLE
  7
STANDARD
  9
$CLAYER
  8
0
  9
$CELTYPE
  6
ByLayer
  9
$CECOLOR
 62
   256
  9
$CELTSCALE
 40
1.0
  9
$DISPSILH
 70
     0
  9
$DIMSCALE
 40
1.0
  9
$DIMASZ
 40
2.5
  9
$DIMEXO
 40
1.0
  9
$DIMDLI
 40
10.0
  9
$DIMRND
 40
0.0
  9
$DIMDLE
 40
0.0
  9
$DIMEXE
 40
1.0
  9
$DIMTP
 40
0.1
  9
$DIMTM
 40
0.1
  9
$DIMTXT
 40
3.5
  9
$DIMCEN
 40
0.0
  9
$DIMTSZ
 40
0.0
  9
$DIMTOL
 70
     0
  9
$DIMLIM
 70
     0
  9
$DIMTIH
 70
     0
  9
$DIMTOH
 70
     0
  9
$DIMSE1
 70
     0
  9
$DIMSE2
 70
     0
  9
$DIMTAD
 70
     1
  9
$DIMZIN
 70
     8
  9
$DIMBLK
  1

  9
$DIMASO
 70
     1
  9
$DIMSHO
 70
     1
  9
$DIMPOST
  1

  9
$DIMAPOST
  1
"
  9
$DIMALT
 70
     0
  9
$DIMALTD
 70
     2
  9
$DIMALTF
 40
0.0393701
  9
$DIMLFAC
 40
1.0
  9
$DIMTOFL
 70
     1
  9
$DIMTVP
 40
0.0
  9
$DIMTIX
 70
     0
  9
$DIMSOXD
 70
     0
  9
$DIMSAH
 70
     0
  9
$DIMBLK1
  1

  9
$DIMBLK2
  1

  9
$DIMSTYLE
  2
AM_ISO
  9
$DIMCLRD
 70
   256
  9
$DIMCLRE
 70
   256
  9
$DIMCLRT
 70
     2
  9
$DIMTFAC
 40
0.71
  9
$DIMGAP
 40
1.5
  9
$DIMJUST
 70
     0
  9
$DIMSD1
 70
     0
  9
$DIMSD2
 70
     0
  9
$DIMTOLJ
 70
     0
  9
$DIMTZIN
 70
     8
  9
$DIMALTZ
 70
     0
  9
$DIMALTTZ
 70
     0
  9
$DIMUPT
 70
     0
  9
$DIMDEC
 70
     2
  9
$DIMTDEC
 70
     3
  9
$DIMALTU
 70
     2
  9
$DIMALTTD
 70
     4
  9
$DIMTXSTY
  7
STANDARD
  9
$DIMAUNIT
 70
     0
  9
$DIMADEC
 70
     0
  9
$DIMALTRND
 40
0.0
  9
$DIMAZIN
 70
     2
  9
$DIMDSEP
 70
    46
  9
$DIMATFIT
 70
     3
  9
$DIMFRAC
 70
     0
  9
$DIMLDRBLK
  1

  9
$DIMLUNIT
 70
     2
  9
$DIMLWD
 70
    -1
  9
$DIMLWE
 70
    -1
  9
$DIMTMOVE
 70
     0
  9
$LUNITS
 70
     2
  9
$LUPREC
 70
     2
  9
$SKETCHINC
 40
1.0
  9
$FILLETRAD
 40
2.5
  9
$AUNITS
 70
     0
  9
$AUPREC
 70
     0
  9
$MENU
  1
.
  9
$ELEVATION
 40
0.0
  9
$PELEVATION
 40
0.0
  9
$THICKNESS
 40
0.0
  9
$LIMCHECK
 70
     0
  9
$CHAMFERA
 40
2.5
  9
$CHAMFERB
 40
2.5
  9
$CHAMFERC
 40
20.0
  9
$CHAMFERD
 40
0.0
  9
$SKPOLY
 70
     0
  9
$TDCREATE
 40
2453883.386840451
  9
$TDUCREATE
 40
2453883.053507118
  9
$TDUPDATE
 40
2453883.433799363
  9
$TDUUPDATE
 40
2453883.100466030
  9
$TDINDWG
 40
0.0474858912
  9
$TDUSRTIMER
 40
0.0469600000
  9
$USRTIMER
 70
     1
  9
$ANGBASE
 50
0.0
  9
$ANGDIR
 70
     0
  9
$PDMODE
 70
     0
  9
$PDSIZE
 40
0.0
  9
$PLINEWID
 40
0.0
  9
$SPLFRAME
 70
     0
  9
$SPLINETYPE
 70
     6
  9
$SPLINESEGS
 70
     8
  9
$HANDSEED
  5
6A7
  9
$SURFTAB1
 70
     6
  9
$SURFTAB2
 70
     6
  9
$SURFTYPE
 70
     6
  9
$SURFU
 70
     6
  9
$SURFV
 70
     6
  9
$UCSBASE
  2

  9
$UCSNAME
  2

  9
$UCSORG
 10
0.0
 20
0.0
 30
0.0
  9
$UCSXDIR
 10
1.0
 20
0.0
 30
0.0
  9
$UCSYDIR
 10
0.0
 20
1.0
 30
0.0
  9
$UCSORTHOREF
  2

  9
$UCSORTHOVIEW
 70
     0
  9
$UCSORGTOP
 10
0.0
 20
0.0
 30
0.0
  9
$UCSORGBOTTOM
 10
0.0
 20
0.0
 30
0.0
  9
$UCSORGLEFT
 10
0.0
 20
0.0
 30
0.0
  9
$UCSORGRIGHT
 10
0.0
 20
0.0
 30
0.0
  9
$UCSORGFRONT
 10
0.0
 20
0.0
 30
0.0
  9
$UCSORGBACK
 10
0.0
 20
0.0
 30
0.0
  9
$PUCSBASE
  2

  9
$PUCSNAME
  2

  9
$PUCSORG
 10
0.0
 20
0.0
 30
0.0
  9
$PUCSXDIR
 10
1.0
 20
0.0
 30
0.0
  9
$PUCSYDIR
 10
0.0
 20
1.0
 30
0.0
  9
$PUCSORTHOREF
  2

  9
$PUCSORTHOVIEW
 70
     0
  9
$PUCSORGTOP
 10
0.0
 20
0.0
 30
0.0
  9
$PUCSORGBOTTOM
 10
0.0
 20
0.0
 30
0.0
  9
$PUCSORGLEFT
 10
0.0
 20
0.0
 30
0.0
  9
$PUCSORGRIGHT
 10
0.0
 20
0.0
 30
0.0
  9
$PUCSORGFRONT
 10
0.0
 20
0.0
 30
0.0
  9
$PUCSORGBACK
 10
0.0
 20
0.0
 30
0.0
  9
$USERI1
 70
     0
  9
$USERI2
 70
     0
  9
$USERI3
 70
     0
  9
$USERI4
 70
     0
  9
$USERI5
 70
     0
  9
$USERR1
 40
0.0
  9
$USERR2
 40
0.0
  9
$USERR3
 40
0.0
  9
$USERR4
 40
0.0
  9
$USERR5
 40
0.0
  9
$WORLDVIEW
 70
     1
  9
$SHADEDGE
 70
     3
  9
$SHADEDIF
 70
    70
  9
$TILEMODE
 70
     1
  9
$MAXACTVP
 70
    64
  9
$PINSBASE
 10
0.0
 20
0.0
 30
0.0
  9
$PLIMCHECK
 70
     0
  9
$PEXTMIN
 10
1.000000000000000E+20
 20
1.000000000000000E+20
 30
1.000000000000000E+20
  9
$PEXTMAX
 10
-1.000000000000000E+20
 20
-1.000000000000000E+20
 30
-1.000000000000000E+20
  9
$PLIMMIN
 10
0.0
 20
0.0
  9
$PLIMMAX
 10
420.0
 20
297.0
  9
$UNITMODE
 70
     0
  9
$VISRETAIN
 70
     1
  9
$PLINEGEN
 70
     0
  9
$PSLTSCALE
 70
     1
  9
$TREEDEPTH
 70
  3020
  9
$CMLSTYLE
  2
Standard
  9
$CMLJUST
 70
     0
  9
$CMLSCALE
 40
20.0
  9
$PROXYGRAPHICS
 70
     1
  9
$MEASUREMENT
 70
     1
  9
$CELWEIGHT
370
    -1
  9
$ENDCAPS
280
     0
  9
$JOINSTYLE
280
     0
  9
$LWDISPLAY
290
     0
  9
$INSUNITS
 70
     4
  9
$HYPERLINKBASE
  1

  9
$STYLESHEET
  1
彩色出圖.ctb
  9
$XEDIT
290
     1
  9
$CEPSNTYPE
380
     0
  9
$PSTYLEMODE
290
     1
  9
$FINGERPRINTGUID
  2
{E428996A-0102-4626-A27E-3A38DCF4DDD3}
  9
$VERSIONGUID
  2
{9BB3839A-472C-4D91-8CFA-14B5C3C92459}
  9
$EXTNAMES
290
     1
  9
$PSVPSCALE
 40
0.0
  9
$OLESTARTUP
290
     0
  0
ENDSEC
  0
SECTION
  2
CLASSES
  0
CLASS
  1
ACDBDICTIONARYWDFLT
  2
AcDbDictionaryWithDefault
  3
ObjectDBX Classes
 90
        0
280
     0
281
     0
  0
CLASS
  1
ACDBPLACEHOLDER
  2
AcDbPlaceHolder
  3
ObjectDBX Classes
 90
        0
280
     0
281
     0
  0
CLASS
  1
LAYOUT
  2
AcDbLayout
  3
ObjectDBX Classes
 90
        0
280
     0
281
     0
  0
CLASS
  1
ACME_DOCUMENT
  2
AcMeDbDoc
  3
AcMeServices
 90
        0
280
     0
281
     0
  0
CLASS
  1
AMGSETTINGSOBJ
  2
AmgSettingsObj
  3
"AcadM|Product Description: AutoCAD Mechanical 2000|Company: Autodesk"
 90
        0
280
     0
281
     0
  0
CLASS
  1
ACMESCOPE
  2
AcMeScope
  3
AcMeServices
 90
        0
280
     0
281
     0
  0
CLASS
  1
ACMECOMMANDHISTORY
  2
AcMeCommandHistory
  3
AcMeServices
 90
        0
280
     0
281
     0
  0
CLASS
  1
ACIMSYSVARMAN
  2
AcImSysVarManager
  3
AcMeServices
 90
        0
280
     0
281
     0
  0
CLASS
  1
ACIMREALSYSVAR
  2
AcImRealSysVar
  3
AcMeServices
 90
        0
280
     0
281
     0
  0
CLASS
  1
ACIMINTSYSVAR
  2
AcImIntSysVar
  3
AcMeServices
 90
        0
280
     0
281
     0
  0
CLASS
  1
ACMEDRAWINGMAN
  2
AcMeDrawingMan
  3
AcMeServices
 90
        0
280
     0
281
     0
  0
CLASS
  1
ACMEVIEW
  2
AcMeView
  3
AcMeServices
 90
        0
280
     0
281
     0
  0
CLASS
  1
ACDBENTITYCACHE
  2
AcMeEntityCache
  3
AcMeServices
 90
        0
280
     0
281
     0
  0
CLASS
  1
GSMANAGER
  2
AcMeGSManager
  3
AcMeServices
 90
        0
280
     0
281
     0
  0
CLASS
  1
AMDTINTERNALREACTOR
  2
AmdtInternalReactor
  3
AcMeServices
 90
        0
280
     0
281
     0
  0
CLASS
  1
ACMESTATEMGR
  2
AcMeStateMgr
  3
AcMeServices
 90
        0
280
     0
281
     0
  0
CLASS
  1
ACGREFMASTER
  2
AcGrefMaster
  3
AcAttribServices
 90
        0
280
     0
281
     0
  0
CLASS
  1
ACME_DATABASE
  2
AcMeDbDatabase
  3
AcMeServices
 90
        0
280
     0
281
     0
  0
CLASS
  1
ACRFINSADJUSTERMGR
  2
AcRfInsAdjusterMgr
  3
AcMeServices
 90
        0
280
     0
281
     0
  0
CLASS
  1
ACGREFACADMASTER
  2
AcGrefacadMaster
  3
AcGrefServices
 90
        0
280
     0
281
     0
  0
CLASS
  1
AMIMASTER
  2
AmiMaster
  3
AmiServices
 90
        0
280
     0
281
     0
  0
CLASS
  1
ACMDATADICTIONARY
  2
AcmDataDictionary
  3
"AcmSymBB|Product Description: AutoCAD Mechanical 2004 DX|Company: Autodesk"
 90
        0
280
     0
281
     0
  0
CLASS
  1
ACMDATAENTRYBLOCK
  2
AcmDataEntryBlock
  3
"AcmSymBB|Product Description: AutoCAD Mechanical 2004 DX|Company: Autodesk"
 90
        0
280
     0
281
     0
  0
CLASS
  1
ACIMSTRSYSVAR
  2
AcImStrSysVar
  3
AcMeServices
 90
        0
280
     0
281
     0
  0
CLASS
  1
ACMSTANDARDISO
  2
AcmStandardISO
  3
"Amdt_StdImp|Product Description: AutoCAD Mechanical 2004 DX|Company: Autodesk"
 90
        0
280
     0
281
     0
  0
CLASS
  1
AMGOBJPROPCFG
  2
AmgObjPropCfg
  3
"AmgLay|Product Description: AutoCAD Mechanical 2000|Company: Autodesk"
 90
        1
280
     0
281
     0
  0
CLASS
  1
AMDTEDGESTANDARDISO
  2
AmdtEdgeStdISO
  3
"Amdt_StdImp|Product Description: AutoCAD Mechanical 2004 DX|Company: Autodesk"
 90
        0
280
     0
281
     0
  0
CLASS
  1
ACMSURFSTANDARDISO
  2
AcmSurfTextStdISO
  3
"Amdt_StdImp|Product Description: AutoCAD Mechanical 2004 DX|Company: Autodesk"
 90
        0
280
     0
281
     0
  0
CLASS
  1
ACMFCFSTANDARDISO
  2
AcmFCFStdISO
  3
"Amdt_StdImp|Product Description: AutoCAD Mechanical 2004 DX|Company: Autodesk"
 90
        0
280
     0
281
     0
  0
CLASS
  1
ACMWELDSTANDARDISO
  2
AcmWeldingStdISO
  3
"Amdt_StdImp|Product Description: AutoCAD Mechanical 2004 DX|Company: Autodesk"
 90
        0
280
     0
281
     0
  0
CLASS
  1
ACMIDSTANDARDISO
  2
AcmIdStdISO
  3
"Amdt_StdImp|Product Description: AutoCAD Mechanical 2004 DX|Company: Autodesk"
 90
        0
280
     0
281
     0
  0
CLASS
  1
ACMDATUMSTANDARDISO
  2
AcmDatumStdISO
  3
"Amdt_StdImp|Product Description: AutoCAD Mechanical 2004 DX|Company: Autodesk"
 90
        0
280
     0
281
     0
  0
CLASS
  1
ACMBOMSTANDARDISO
  2
AcmBOMStdISO
  3
"Amdt_StdImp|Product Description: AutoCAD Mechanical 2004 DX|Company: Autodesk"
 90
        0
280
     0
281
     0
  0
CLASS
  1
ACMDETAILSTANDARDISO
  2
AmdtDetailSymStdISO
  3
"Amdt_StdImp|Product Description: AutoCAD Mechanical 2004 DX|Company: Autodesk"
 90
        0
280
     0
281
     0
  0
CLASS
  1
ACMSECTIONSTANDARDISO
  2
AmdtSectionSymStdISO
  3
"Amdt_StdImp|Product Description: AutoCAD Mechanical 2004 DX|Company: Autodesk"
 90
        0
280
     0
281
     0
  0
CLASS
  1
ACMCENTERLINESTANDARDISO
  2
AmdtCenterLineStdISO
  3
"Amdt_StdImp|Product Description: AutoCAD Mechanical 2004 DX|Company: Autodesk"
 90
        0
280
     0
281
     0
  0
CLASS
  1
ACMNOTESTANDARDISO
  2
AmdtNoteStdISO
  3
"Amdt_StdImp|Product Description: AutoCAD Mechanical 2004 DX|Company: Autodesk"
 90
        0
280
     0
281
     0
  0
CLASS
  1
ACAMGLAYSTD
  2
AcAmgLayStd
  3
"AcAmgLayStd|Product Description: AutoCAD Mechanical 2000|Company: Autodesk"
 90
        0
280
     0
281
     0
  0
CLASS
  1
ACAMGDIMSTD
  2
AcAmgDimStd
  3
"AcAmgDimStd|Product Description: AutoCAD Mechanical 2000|Company: Autodesk"
 90
        0
280
     0
281
     0
  0
CLASS
  1
ACAMGHOLECHARTSTDISO
  2
AcAmgHoleChartStdISO
  3
ACMSYMBB_MODULE_NAME
 90
        0
280
     0
281
     0
  0
CLASS
  1
ACAMGTITLESTD
  2
AcAmgTitleStd
  3
"TITLEAPP"
 90
        0
280
     0
281
     0
  0
CLASS
  1
LAYER_INDEX
  2
AcDbLayerIndex
  3
ObjectDBX Classes
 90
    32768
280
     0
281
     0
  0
CLASS
  1
IDBUFFER
  2
AcDbIdBuffer
  3
ObjectDBX Classes
 90
    32768
280
     0
281
     0
  0
CLASS
  1
DICTIONARYVAR
  2
AcDbDictionaryVar
  3
ObjectDBX Classes
 90
        0
280
     0
281
     0
  0
CLASS
  1
AM_DRAWING_MGR
  2
AcDmDwgMgr
  3
AcMechDwgViewMgmt
 90
        0
280
     0
281
     0
  0
CLASS
  1
AM_DWG_DOCUMENT
  2
AcDmDwgDocument
  3
AcMechDwgViewMgmt
 90
        0
280
     0
281
     0
  0
CLASS
  1
AM_DWG_SHEET
  2
AcDmSheet
  3
AcMechDwgViewMgmt
 90
        0
280
     0
281
     0
  0
CLASS
  1
AM_VIEWDIMPARMAP
  2
AcDmViewDimParMap
  3
AcMechDwgViewMgmt
 90
        0
280
     0
281
     0
  0
CLASS
  1
AM_DWGMGR_NAME
  2
AcDmDwgMgrName
  3
AcMechDwgViewMgmt
 90
        0
280
     0
281
     0
  0
CLASS
  1
AMDTMENUSTATEMGR
  2
AmdtMenuStateMgr
  3
McadcomServices
 90
        0
280
     0
281
     0
  0
CLASS
  1
AMDTMCOMMENUSTATE
  2
AmdtMcomMenuState
  3
McadcomServices
 90
        0
280
     0
281
     0
  0
CLASS
  1
MAPIAMMOUDLE
  2
MApiAmModule
  3
MApiAmServices
 90
        0
280
     0
281
     0
  0
CLASS
  1
AMDTADMENUSTATE
  2
AmdtAdMenuState
  3
DesignerServices
 90
        0
280
     0
281
     0
  0
CLASS
  1
ADAPPL
  2
AcAdAppl
  3
DesignerServices
 90
        0
280
     0
281
     0
  0
CLASS
  1
DEPMGR
  2
AcAdDepMgr
  3
DesignerServices
 90
        0
280
     0
281
     0
  0
CLASS
  1
PARAMMGR
  2
AcAdParamMgr
  3
DesignerServices
 90
        0
280
     0
281
     0
  0
CLASS
  1
PARAMSCOPE
  2
AcAdParamScope
  3
DesignerServices
 90
        0
280
     0
281
     0
  0
CLASS
  1
NAMEDAPPL
  2
AcAdNamedAppl
  3
DesignerServices
 90
        0
280
     0
281
     0
  0
CLASS
  1
AMDTDMMENUSTATE
  2
AmdtDmMenuState
  3
AcMechDwgViewMgmt
 90
        0
280
     0
281
     0
  0
CLASS
  1
AMDTAMMENUSTATE
  2
AmdtAmMenuState
  3
DesignerAssemblies
 90
        0
280
     0
281
     0
  0
CLASS
  1
ACAMPROJECT
  2
AcAmProject
  3
DesignerAssemblies
 90
        0
280
     0
281
     0
  0
CLASS
  1
ACAMGRCOMPDEF
  2
AcAmGrCompDef
  3
DesignerAssemblies
 90
        0
280
     0
281
     0
  0
CLASS
  1
ACCMCONTEXT
  2
AcCmContext
  3
DesignerAssemblies
 90
        0
280
     0
281
     0
  0
CLASS
  1
ACAMCOMPDEF
  2
AcAmCompDef
  3
DesignerAssemblies
 90
        0
280
     0
281
     0
  0
CLASS
  1
ACAMCOMPDEFMGR
  2
AcAmCompDefMgr
  3
DesignerAssemblies
 90
        0
280
     0
281
     0
  0
CLASS
  1
AMCONTEXTMGR
  2
AcAmContextMgr
  3
DesignerAssemblies
 90
        0
280
     0
281
     0
  0
CLASS
  1
ACAMCONTEXTMODELER
  2
AcAmContextModeler
  3
DesignerAssemblies
 90
        0
280
     0
281
     0
  0
CLASS
  1
ACMTHREADLINESTANDARDISO
  2
AmdtThreadLineStdISO
  3
"Amdt_StdImp|Product Description: AutoCAD Mechanical 2004 DX|Company: Autodesk"
 90
        0
280
     0
281
     0
  0
CLASS
  1
CATALOGSTATE
  2
AcAmCatalogState
  3
DesignerAssemblies
 90
        0
280
     0
281
     0
  0
CLASS
  1
ACAMGRCOMPDEFSET
  2
AcAmGrCompDefSet
  3
DesignerAssemblies
 90
        0
280
     0
281
     0
  0
CLASS
  1
AMDTBROWSERDBTAB
  2
AmdtBrowserDbTab
  3
McadcomServices
 90
        0
280
     0
281
     0
  0
CLASS
  1
CBROWSERAPPOBJECT
  2
CBrowserAppObject
  3
McadcomServices
 90
        0
280
     0
281
     0
  0
CLASS
  1
DM_PLACEHOLDER
  2
AcDmSelsetPlaceholder
  3
AcMechDwgViewMgmt
 90
        0
280
     0
281
     0
  0
CLASS
  1
TABLESTYLE
  2
AcDbTableStyle
  3
ObjectDBX Classes
 90
     2047
280
     0
281
     0
  0
CLASS
  1
VAACXREFPANELOBJECT
  2
VaAcXREFPanelObject
  3
VAAC_ADDIN
 90
        0
280
     0
281
     0
  0
CLASS
  1
VAACIMAGEINVENTORY
  2
VaAcImageInventory
  3
VAAC_ADDIN
 90
        0
280
     0
281
     0
  0
CLASS
  1
AMDTNOTETEMPLATEDB
  2
AmdtNoteTemplateDB
  3
AMDT_STDIMP_MODULE_NAME
 90
        0
280
     0
281
     0
  0
CLASS
  1
ACMBOM
  2
AcmBom
  3
"AcmSymBB|Product Description: AutoCAD Mechanical 2004 DX|Company: Autodesk"
 90
    32768
280
     0
281
     0
  0
CLASS
  1
AMDTFORMULAUPDATEDISPATCHER
  2
AmdtFormulaUpdateDispatcher
  3
AcMeServices
 90
    32768
280
     0
281
     0
  0
CLASS
  1
ACMPARTLIST
  2
AcmPartList
  3
"AcmSymBB|Product Description: AutoCAD Mechanical 2004 DX|Company: Autodesk"
 90
    33791
280
     0
281
     1
  0
CLASS
  1
ACAMGFILTERDAT
  2
AcAmgFilterDat
  3
"AcadM|Product Description: AutoCAD Mechanical 2000|Company: Autodesk"
 90
        0
280
     0
281
     0
  0
CLASS
  1
SORTENTSTABLE
  2
AcDbSortentsTable
  3
ObjectDBX Classes
 90
        0
280
     0
281
     0
  0
CLASS
  1
ACMSTANDARDJIS
  2
AcmStandardJIS
  3
"Amdt_StdImp|Product Description: AutoCAD Mechanical 2004 DX|Company: Autodesk"
 90
        0
280
     0
281
     0
  0
CLASS
  1
ACMSURFSTANDARDJIS
  2
AcmSurfTextStdJIS
  3
"Amdt_StdImp|Product Description: AutoCAD Mechanical 2004 DX|Company: Autodesk"
 90
        0
280
     0
281
     0
  0
CLASS
  1
ACMFCFSTANDARDJIS
  2
AcmFCFStdJIS
  3
"Amdt_StdImp|Product Description: AutoCAD Mechanical 2004 DX|Company: Autodesk"
 90
        0
280
     0
281
     0
  0
CLASS
  1
ACMWELDSTANDARDJIS
  2
AcmWeldingStdJIS
  3
"Amdt_StdImp|Product Description: AutoCAD Mechanical 2004 DX|Company: Autodesk"
 90
        0
280
     0
281
     0
  0
CLASS
  1
ACMIDSTANDARDJIS
  2
AcmIdStdJIS
  3
"Amdt_StdImp|Product Description: AutoCAD Mechanical 2004 DX|Company: Autodesk"
 90
        0
280
     0
281
     0
  0
CLASS
  1
ACMDATUMSTANDARDJIS
  2
AcmDatumStdJIS
  3
"Amdt_StdImp|Product Description: AutoCAD Mechanical 2004 DX|Company: Autodesk"
 90
        0
280
     0
281
     0
  0
CLASS
  1
ACMBOMSTANDARDJIS
  2
AcmBOMStdJIS
  3
"Amdt_StdImp|Product Description: AutoCAD Mechanical 2004 DX|Company: Autodesk"
 90
        0
280
     0
281
     0
  0
CLASS
  1
ACMDETAILSTANDARDJIS
  2
AmdtDetailSymStdJIS
  3
"Amdt_StdImp|Product Description: AutoCAD Mechanical 2004 DX|Company: Autodesk"
 90
        0
280
     0
281
     0
  0
CLASS
  1
ACMSECTIONSTANDARDJIS
  2
AmdtSectionSymStdJIS
  3
"Amdt_StdImp|Product Description: AutoCAD Mechanical 2004 DX|Company: Autodesk"
 90
        0
280
     0
281
     0
  0
CLASS
  1
ACMCENTERLINESTANDARDJIS
  2
AmdtCenterLineStdJIS
  3
"Amdt_StdImp|Product Description: AutoCAD Mechanical 2004 DX|Company: Autodesk"
 90
        0
280
     0
281
     0
  0
CLASS
  1
ACMTHREADLINESTANDARDJIS
  2
AmdtThreadLineStdJIS
  3
"Amdt_StdImp|Product Description: AutoCAD Mechanical 2004 DX|Company: Autodesk"
 90
        0
280
     0
281
     0
  0
CLASS
  1
ACMNOTESTANDARDJIS
  2
AmdtNoteStdJIS
  3
"Amdt_StdImp|Product Description: AutoCAD Mechanical 2004 DX|Company: Autodesk"
 90
        0
280
     0
281
     0
  0
CLASS
  1
ACAMGHOLECHARTSTDJIS
  2
AcAmgHoleChartStdJIS
  3
ACMSYMBB_MODULE_NAME
 90
        0
280
     0
281
     0
  0
CLASS
  1
ACRFATTGENMGR
  2
AcRfAttGeneralMgr
  3
AcAttribServices
 90
        0
280
     0
281
     0
  0
ENDSEC
  0
SECTION
  2
TABLES
  0
TABLE
  2
VPORT
  5
8
330
0
100
AcDbSymbolTable
 70
     4
  0
VPORT
  5
69E
330
8
100
AcDbSymbolTableRecord
100
AcDbViewportTableRecord
  2
*Active
 70
     0
 10
0.0
 20
0.0
 11
1.0
 21
1.0
 12
1290.531295149638
 22
1014.583457516387
 13
0.0
 23
0.0
 14
2.5
 24
2.5
 15
10.0
 25
10.0
 16
0.0
 26
0.0
 36
1.0
 17
0.0
 27
0.0
 37
0.0
 40
250.4141456970442
 41
1.218987341772151
 42
50.0
 43
0.0
 44
0.0
 50
0.0
 51
0.0
 71
     0
 72
   100
 73
     1
 74
     3
 75
     0
 76
     0
 77
     0
 78
     0
281
     0
 65
     1
110
0.0
120
0.0
130
0.0
111
1.0
121
0.0
131
0.0
112
0.0
122
1.0
132
0.0
 79
     0
146
0.0
  0
ENDTAB
  0
TABLE
  2
LTYPE
  5
5
330
0
100
AcDbSymbolTable
 70
    16
  0
LTYPE
  5
14
330
5
100
AcDbSymbolTableRecord
100
AcDbLinetypeTableRecord
  2
ByBlock
 70
     0
  3

 72
    65
 73
     0
 40
0.0
  0
LTYPE
  5
15
330
5
100
AcDbSymbolTableRecord
100
AcDbLinetypeTableRecord
  2
ByLayer
 70
     0
  3

 72
    65
 73
     0
 40
0.0
  0
LTYPE
  5
16
330
5
100
AcDbSymbolTableRecord
100
AcDbLinetypeTableRecord
  2
Continuous
 70
     0
  3
Solid line
 72
    65
 73
     0
 40
0.0
  0
LTYPE
  5
64
330
5
100
AcDbSymbolTableRecord
100
AcDbLinetypeTableRecord
  2
AM_ISO02W050
 70
     0
  3
__ __ __ __ __ __ __ __ __ __ __ __ __ __ __
 72
    65
 73
     2
 40
7.5
 49
6.0
 74
     0
 49
-1.5
 74
     0
  0
LTYPE
  5
65
330
5
100
AcDbSymbolTableRecord
100
AcDbLinetypeTableRecord
  2
AM_ISO08W050
 70
     0
  3
____ . ____ . ____ . ____ . ____ . ____ . ____
 72
    65
 73
     4
 40
18.0
 49
12.0
 74
     0
 49
-1.5
 74
     0
 49
3.0
 74
     0
 49
-1.5
 74
     0
  0
LTYPE
  5
66
330
5
100
AcDbSymbolTableRecord
100
AcDbLinetypeTableRecord
  2
AM_ISO09W050
 70
     0
  3
_____ . . _____ . . _____ . . ____ .. ____
 72
    65
 73
     6
 40
22.5
 49
12.0
 74
     0
 49
-1.5
 74
     0
 49
3.0
 74
     0
 49
-1.5
 74
     0
 49
3.0
 74
     0
 49
-1.5
 74
     0
  0
LTYPE
  5
67
330
5
100
AcDbSymbolTableRecord
100
AcDbLinetypeTableRecord
  2
Amconstr
 70
     0
  3
_______________________
 72
    65
 73
     2
 40
9999.0
 49
9999.0
 74
     0
 49
0.0
 74
     0
  0
LTYPE
  5
68
330
5
100
AcDbSymbolTableRecord
100
AcDbLinetypeTableRecord
  2
AM_ISO08W050x2
 70
     0
  3
__ . __ . __ . __ . __ . __
 72
    65
 73
     4
 40
9.0
 49
6.0
 74
     0
 49
-0.75
 74
     0
 49
1.5
 74
     0
 49
-0.75
 74
     0
  0
LTYPE
  5
69
330
5
100
AcDbSymbolTableRecord
100
AcDbLinetypeTableRecord
  2
AM_ISO02W050x2
 70
     0
  3
 _ _ _ _ _ _ _ _ _ _ _ _
 72
    65
 73
     2
 40
3.75
 49
3.0
 74
     0
 49
-0.75
 74
     0
  0
LTYPE
  5
6C
330
5
100
AcDbSymbolTableRecord
100
AcDbLinetypeTableRecord
  2
Amzigzag
 70
     0
  3
/\/-/\/-/\/-/\/-/\/-/\/
 72
    65
 73
     2
 40
11.0001
 49
0.0001
 74
     4
 75
   135
340
6B
 46
0.04
 50
0.0
 44
0.0
 45
0.0
 49
-11.0
 74
     0
  0
LTYPE
  5
7A
330
5
100
AcDbSymbolTableRecord
100
AcDbLinetypeTableRecord
  2
ACISOWELD
 70
     0
  3
_ _ _ _ _
 72
    65
 73
     2
 40
2.0
 49
2.0
 74
     0
 49
-1.0
 74
     0
  0
LTYPE
  5
7B
330
5
100
AcDbSymbolTableRecord
100
AcDbLinetypeTableRecord
  2
ACISOTGB
 70
     0
  3
__ . . __ . .
 72
    65
 73
     6
 40
9.0
 49
4.0
 74
     0
 49
-1.0
 74
     0
 49
1.0
 74
     0
 49
-1.0
 74
     0
 49
1.0
 74
     0
 49
-1.0
 74
     0
  0
LTYPE
  5
7C
330
5
100
AcDbSymbolTableRecord
100
AcDbLinetypeTableRecord
  2
ACISOTGL
 70
     0
  3
_ _ _ _ _
 72
    65
 73
     2
 40
3.0
 49
2.0
 74
     0
 49
-1.0
 74
     0
  0
LTYPE
  5
7E
330
5
100
AcDbSymbolTableRecord
100
AcDbLinetypeTableRecord
  2
CENTER
 70
     0
  3
__ . __
 72
    65
 73
     4
 40
7.0
 49
4.0
 74
     0
 49
-1.0
 74
     0
 49
1.0
 74
     0
 49
-1.0
 74
     0
  0
LTYPE
  5
D8
330
5
100
AcDbSymbolTableRecord
100
AcDbLinetypeTableRecord
  2
HIDDEN
 70
     0
  3
Hidden __ __ __ __ __ __ __ __ __ __ __ __ __ _
 72
    65
 73
     2
 40
9.524999999999998
 49
6.349999999999999
 74
     0
 49
-3.174999999999999
 74
     0
  0
LTYPE
  5
D9
330
5
100
AcDbSymbolTableRecord
100
AcDbLinetypeTableRecord
  2
PHANTOM2
 70
     0
  3
Phantom (.5x) ___ _ _ ___ _ _ ___ _ _ ___ _ _
 72
    65
 73
     6
 40
31.75
 49
15.875
 74
     0
 49
-3.174999999999999
 74
     0
 49
3.174999999999999
 74
     0
 49
-3.174999999999999
 74
     0
 49
3.174999999999999
 74
     0
 49
-3.174999999999999
 74
     0
  0
LTYPE
  5
24F
330
5
100
AcDbSymbolTableRecord
100
AcDbLinetypeTableRecord
  2
ACJISTGB
 70
     0
  3
__ . . __ . .
 72
    65
 73
     6
 40
9.0
 49
4.0
 74
     0
 49
-1.0
 74
     0
 49
1.0
 74
     0
 49
-1.0
 74
     0
 49
1.0
 74
     0
 49
-1.0
 74
     0
  0
LTYPE
  5
250
330
5
100
AcDbSymbolTableRecord
100
AcDbLinetypeTableRecord
  2
ACJISTGL
 70
     0
  3
_ _ _ _ _
 72
    65
 73
     2
 40
3.0
 49
2.0
 74
     0
 49
-1.0
 74
     0
  0
ENDTAB
  0
TABLE
  2
LAYER
  5
2
102
{ACAD_XDICTIONARY
360
26A
102
}
330
0
100
AcDbSymbolTable
 70
     7
  0
LAYER
  5
10
330
2
100
AcDbSymbolTableRecord
100
AcDbLayerTableRecord
  2
0
 70
     0
 62
     7
  6
Continuous
370
    -3
390
F
  0
LAYER
  5
1B0
330
2
100
AcDbSymbolTableRecord
100
AcDbLayerTableRecord
  2
AM_5
 70
     0
 62
     3
  6
Continuous
370
    25
390
F
  0
LAYER
  5
251
330
2
100
AcDbSymbolTableRecord
100
AcDbLayerTableRecord
  2
Defpoints
 70
     0
 62
     7
  6
Continuous
290
     0
370
    -3
390
F
  0
LAYER
  5
252
330
2
100
AcDbSymbolTableRecord
100
AcDbLayerTableRecord
  2
AM_VIS
 70
     2
 62
     7
  6
Continuous
370
    50
390
F
  0
LAYER
  5
253
330
2
100
AcDbSymbolTableRecord
100
AcDbLayerTableRecord
  2
AM_7
 70
     0
 62
     4
  6
AM_ISO08W050
370
    25
390
F
  0
LAYER
  5
254
330
2
100
AcDbSymbolTableRecord
100
AcDbLayerTableRecord
  2
AM_6
 70
     0
 62
     2
  6
Continuous
370
    35
390
F
  0
LAYER
  5
255
330
2
100
AcDbSymbolTableRecord
100
AcDbLayerTableRecord
  2
LOGO
 70
     0
 62
     7
  6
Continuous
370
    -3
390
F
  0
ENDTAB
  0
TABLE
  2
STYLE
  5
3
330
0
100
AcDbSymbolTable
 70
    12
  0
STYLE
  5
11
330
3
100
AcDbSymbolTableRecord
100
AcDbTextStyleTableRecord
  2
STANDARD
 70
     0
 40
0.0
 41
1.0
 50
0.0
 71
     0
 42
1.0
  3
ISOCP.SHX
  4
CHINESET.SHX
  0
STYLE
  5
6B
330
3
100
AcDbSymbolTableRecord
100
AcDbTextStyleTableRecord
  2

 70
     1
 40
0.0
 41
1.0
 50
0.0
 71
     0
 42
2.5
  3
ltypeshp.shx
  4

  0
STYLE
  5
6D
330
3
100
AcDbSymbolTableRecord
100
AcDbTextStyleTableRecord
  2
ACISOTS
 70
     0
 40
1.0
 41
1.0
 50
0.0
 71
     0
 42
1.0
  3
isocp.shx
  4
chineset.shx
  0
STYLE
  5
79
330
3
100
AcDbSymbolTableRecord
100
AcDbTextStyleTableRecord
  2
ACISOGDT
 70
     0
 40
0.0
 41
1.0
 50
0.0
 71
     0
 42
2.5
  3
amgdt.shx
  4
chineset.shx
  0
STYLE
  5
1FA
330
3
100
AcDbSymbolTableRecord
100
AcDbTextStyleTableRecord
  2
USER1
 70
     0
 40
0.0
 41
1.0
 50
0.0
 71
     0
 42
1.0
  3
TXT.SHX
  4

  0
STYLE
  5
1FB
330
3
100
AcDbSymbolTableRecord
100
AcDbTextStyleTableRecord
  2
USER2
 70
     0
 40
0.0
 41
1.0
 50
0.0
 71
     0
 42
1.0
  3
SIMPLEX.SHX
  4

  0
STYLE
  5
1FC
330
3
100
AcDbSymbolTableRecord
100
AcDbTextStyleTableRecord
  2
USER3
 70
     0
 40
0.0
 41
1.0
 50
0.0
 71
     0
 42
1.0
  3
ITALIC.SHX
  4

  0
STYLE
  5
256
330
3
100
AcDbSymbolTableRecord
100
AcDbTextStyleTableRecord
  2
CHINESET
 70
     0
 40
0.0
 41
1.0
 50
0.0
 71
     0
 42
2.5
  3
simplex.shx
  4
CHINESET.shx
  0
STYLE
  5
257
330
3
100
AcDbSymbolTableRecord
100
AcDbTextStyleTableRecord
  2
ACJISTS
 70
     0
 40
1.0
 41
1.0
 50
0.0
 71
     0
 42
2.5
  3
isocp.shx
  4
chineset.shx
  0
STYLE
  5
258
330
3
100
AcDbSymbolTableRecord
100
AcDbTextStyleTableRecord
  2
ACJISGDT
 70
     0
 40
0.0
 41
1.0
 50
0.0
 71
     0
 42
2.5
  3
amgdt.shx
  4

  0
ENDTAB
  0
TABLE
  2
VIEW
  5
6
330
0
100
AcDbSymbolTable
 70
     0
  0
ENDTAB
  0
TABLE
  2
UCS
  5
7
330
0
100
AcDbSymbolTable
 70
     0
  0
ENDTAB
  0
TABLE
  2
APPID
  5
9
330
0
100
AcDbSymbolTable
 70
    17
  0
APPID
  5
12
330
9
100
AcDbSymbolTableRecord
100
AcDbRegAppTableRecord
  2
ACAD
 70
     0
  0
APPID
  5
46
330
9
100
AcDbSymbolTableRecord
100
AcDbRegAppTableRecord
  2
MCAD_NO_VIS
 70
     0
  0
APPID
  5
47
330
9
100
AcDbSymbolTableRecord
100
AcDbRegAppTableRecord
  2
ACAD_TEMP_GRAPHIC
 70
     0
  0
APPID
  5
58
330
9
100
AcDbSymbolTableRecord
100
AcDbRegAppTableRecord
  2
ACATTRIBSERVICES
 70
     0
  0
APPID
  5
EE
330
9
100
AcDbSymbolTableRecord
100
AcDbRegAppTableRecord
  2
AD_DRAW
 70
     0
  0
APPID
  5
10C
330
9
100
AcDbSymbolTableRecord
100
AcDbRegAppTableRecord
  2
DESIGNERASSEMBLIES
 70
     0
  0
APPID
  5
111
330
9
100
AcDbSymbolTableRecord
100
AcDbRegAppTableRecord
  2
ACADM_DIM_EDIT
 70
     0
  0
APPID
  5
112
330
9
100
AcDbSymbolTableRecord
100
AcDbRegAppTableRecord
  2
AMDT_DM_ADJ
 70
     0
  0
APPID
  5
261
330
9
100
AcDbSymbolTableRecord
100
AcDbRegAppTableRecord
  2
GENIUS_GENODEF_13
 70
     0
  0
APPID
  5
262
330
9
100
AcDbSymbolTableRecord
100
AcDbRegAppTableRecord
  2
ACAD_PSEXT
 70
     0
  0
APPID
  5
263
330
9
100
AcDbSymbolTableRecord
100
AcDbRegAppTableRecord
  2
GENIUS_AMGTXT_16
 70
     0
  0
APPID
  5
264
330
9
100
AcDbSymbolTableRecord
100
AcDbRegAppTableRecord
  2
GENIUS_GENOENT_13
 70
     0
  0
APPID
  5
265
330
9
100
AcDbSymbolTableRecord
100
AcDbRegAppTableRecord
  2
GENIUS_GENOBJ-N-CRS_13
 70
     0
  0
APPID
  5
266
330
9
100
AcDbSymbolTableRecord
100
AcDbRegAppTableRecord
  2
GENIUS_GENOLIS_13
 70
     0
  0
APPID
  5
267
330
9
100
AcDbSymbolTableRecord
100
AcDbRegAppTableRecord
  2
GENIUS_GENOREF_13
 70
     0
  0
APPID
  5
268
330
9
100
AcDbSymbolTableRecord
100
AcDbRegAppTableRecord
  2
GENIUS_GENREC_14
 70
     0
  0
APPID
  5
269
330
9
100
AcDbSymbolTableRecord
100
AcDbRegAppTableRecord
  2
GENIUS_GENOBJ-N-REC_13
 70
     0
  0
ENDTAB
  0
TABLE
  2
DIMSTYLE
  5
A
330
0
100
AcDbSymbolTable
 70
    18
100
AcDbDimStyleTable
 71
     1
340
81
  0
DIMSTYLE
105
27
330
A
100
AcDbSymbolTableRecord
100
AcDbDimStyleTableRecord
  2
ISO-25
 70
     0
 41
2.5
 42
0.625
 43
3.75
 44
1.25
 73
     0
 74
     0
 77
     1
 78
     8
140
2.5
141
2.5
143
0.03937007874016
147
0.625
171
     3
172
     1
271
     2
272
     2
274
     3
278
    44
283
     0
284
     8
340
11
  0
DIMSTYLE
105
81
330
A
100
AcDbSymbolTableRecord
100
AcDbDimStyleTableRecord
  2
AM_ISO
 70
     0
  4
"
 41
2.5
 42
1.0
 43
10.0
 44
1.0
 47
0.1
 48
0.1
 73
     0
 74
     0
 77
     1
 78
     8
 79
     2
140
3.5
141
0.0
143
0.0393701
146
0.71
147
1.5
172
     1
176
   256
177
   256
178
     2
271
     2
272
     3
274
     4
283
     0
284
     8
340
11
371
    -1
372
    -1
  0
DIMSTYLE
105
82
330
A
100
AcDbSymbolTableRecord
100
AcDbDimStyleTableRecord
  2
AM_ISO$3
 70
     0
  4
"
 41
2.5
 42
1.0
 43
10.0
 44
1.0
 47
0.1
 48
0.1
 73
     0
 77
     1
 78
     8
 79
     2
140
3.5
141
0.0
143
0.0393701
146
0.71
147
1.5
176
   256
177
   256
178
     2
271
     2
272
     3
274
     4
283
     0
284
     8
288
     1
289
     0
340
11
371
    -1
372
    -1
  0
DIMSTYLE
105
83
330
A
100
AcDbSymbolTableRecord
100
AcDbDimStyleTableRecord
  2
AM_ISO$4
 70
     0
  4
"
 41
2.5
 42
1.0
 43
10.0
 44
1.0
 47
0.1
 48
0.1
 73
     0
 77
     1
 78
     8
 79
     2
140
3.5
141
0.0
143
0.0393701
146
0.71
147
1.5
176
   256
177
   256
178
     2
271
     2
272
     3
274
     4
283
     0
284
     8
288
     1
289
     0
340
11
371
    -1
372
    -1
  0
DIMSTYLE
105
84
330
A
100
AcDbSymbolTableRecord
100
AcDbDimStyleTableRecord
  2
AM_ISO$6
 70
     0
  4
"
 41
2.5
 42
1.0
 43
10.0
 44
1.0
 47
0.1
 48
0.1
 73
     0
 74
     0
 78
     8
 79
     2
140
3.5
141
0.0
143
0.0393701
146
0.71
147
1.5
172
     1
176
   256
177
   256
178
     2
271
     2
272
     3
274
     4
283
     0
284
     8
340
11
371
    -1
372
    -1
  0
DIMSTYLE
105
85
330
A
100
AcDbSymbolTableRecord
100
AcDbDimStyleTableRecord
  2
AM_ISO$7
 70
     0
  4
"
 41
2.5
 42
1.0
 43
10.0
 44
1.0
 47
0.1
 48
0.1
 73
     0
 74
     0
 77
     1
 78
     8
 79
     2
140
5.0
141
0.0
143
0.0393701
146
0.71
147
1.5
172
     1
176
   256
177
   256
178
     2
271
     2
272
     3
274
     4
283
     0
284
     8
340
11
371
    -1
372
    -1
  0
DIMSTYLE
105
86
330
A
100
AcDbSymbolTableRecord
100
AcDbDimStyleTableRecord
  2
AM_ISO$SF
 70
     0
  4
"
 41
2.5
 42
1.0
 43
10.0
 44
1.0
 47
0.1
 48
0.1
 73
     0
 74
     0
 75
     1
 76
     1
 77
     1
 78
     8
 79
     2
140
3.5
141
0.0
143
0.0393701
146
0.71
147
1.5
172
     1
176
   256
177
   256
178
     2
271
     2
272
     3
274
     4
283
     0
284
     8
340
11
371
    -1
372
    -1
  0
DIMSTYLE
105
8B
330
A
100
AcDbSymbolTableRecord
100
AcDbDimStyleTableRecord
  2
AM_ISO$SH
 70
     0
  4
"
 41
2.5
 42
1.0
 43
10.0
 44
1.0
 47
0.1
 48
0.1
 73
     0
 74
     0
 75
     1
 76
     1
 77
     1
 78
     8
 79
     2
140
3.5
141
0.0
143
0.0393701
144
2.0
146
0.71
147
1.5
172
     1
173
     1
176
   256
177
   256
178
     2
271
     2
272
     3
274
     4
283
     0
284
     8
340
11
343
87
371
    -1
372
    -1
  0
DIMSTYLE
105
259
102
{ACAD_REACTORS
330
33E
330
334
330
33A
330
335
330
338
330
41D
330
41F
330
420
330
507
330
508
330
50D
330
5F0
330
5F2
330
5F3
102
}
330
A
100
AcDbSymbolTableRecord
100
AcDbDimStyleTableRecord
  2
STANDARD
 70
     0
 41
3.0
 42
2.0
 43
8.0
 44
2.0
 48
0.000000001
 73
     0
 74
     0
 77
     1
 78
     8
 79
     2
140
3.0
141
1.0
146
0.6
147
1.0
176
   256
177
   256
178
   256
179
     2
271
     2
272
     2
279
     2
284
     8
340
256
371
    -1
  0
DIMSTYLE
105
25A
330
A
100
AcDbSymbolTableRecord
100
AcDbDimStyleTableRecord
  2
AM_JIS
 70
     0
  4
"
 41
2.5
 42
1.0
 43
10.0
 44
1.0
 47
0.1
 48
0.1
 73
     0
 74
     0
 77
     3
 78
     8
 79
     2
140
3.5
141
0.0
143
0.0393701
146
0.71
147
1.5
172
     1
176
   256
177
   256
178
     2
271
     2
272
     3
274
     4
283
     0
340
11
341
201
342
201
343
201
344
201
371
    -1
372
    -1
  0
DIMSTYLE
105
25B
330
A
100
AcDbSymbolTableRecord
100
AcDbDimStyleTableRecord
  2
AM_JIS$3
 70
     0
  4
"
 41
2.5
 42
1.0
 43
10.0
 44
1.0
 47
0.1
 48
0.1
 73
     0
 77
     3
 78
     8
 79
     2
140
3.5
141
0.0
143
0.0393701
146
0.71
147
1.5
176
   256
177
   256
178
     2
271
     2
272
     3
274
     4
283
     0
288
     1
289
     0
340
11
341
201
342
201
343
201
344
201
371
    -1
372
    -1
  0
DIMSTYLE
105
25C
330
A
100
AcDbSymbolTableRecord
100
AcDbDimStyleTableRecord
  2
AM_JIS$4
 70
     0
  4
"
 41
2.5
 42
1.0
 43
10.0
 44
1.0
 47
0.1
 48
0.1
 73
     0
 77
     3
 78
     8
 79
     2
140
3.5
141
0.0
143
0.0393701
146
0.71
147
1.5
176
   256
177
   256
178
     2
271
     2
272
     3
274
     4
283
     0
288
     1
289
     0
340
11
341
201
342
201
343
201
344
201
371
    -1
372
    -1
  0
DIMSTYLE
105
25D
330
A
100
AcDbSymbolTableRecord
100
AcDbDimStyleTableRecord
  2
AM_JIS$6
 70
     0
  4
"
 41
2.5
 42
1.0
 43
10.0
 44
1.0
 47
0.1
 48
0.1
 73
     0
 74
     0
 78
     8
 79
     2
140
3.5
141
0.0
143
0.0393701
146
0.71
147
1.5
172
     1
176
   256
177
   256
178
     2
271
     2
272
     3
274
     4
283
     0
340
11
341
201
342
201
343
201
344
201
371
    -1
372
    -1
  0
DIMSTYLE
105
25E
330
A
100
AcDbSymbolTableRecord
100
AcDbDimStyleTableRecord
  2
AM_JIS$7
 70
     0
  4
"
 41
2.5
 42
1.0
 43
10.0
 44
1.0
 47
0.1
 48
0.1
 73
     0
 74
     0
 77
     3
 78
     8
 79
     2
140
5.0
141
0.0
143
0.0393701
146
0.71
147
1.5
172
     1
176
   256
177
   256
178
     2
271
     2
272
     3
274
     4
283
     0
340
11
341
201
342
201
343
201
344
201
371
    -1
372
    -1
  0
DIMSTYLE
105
25F
330
A
100
AcDbSymbolTableRecord
100
AcDbDimStyleTableRecord
  2
AM_JIS$SF
 70
     0
  4
"
 41
2.5
 42
1.0
 43
10.0
 44
1.0
 47
0.1
 48
0.1
 73
     0
 74
     0
 75
     1
 76
     1
 77
     3
 78
     8
 79
     2
140
3.5
141
0.0
143
0.0393701
146
0.71
147
1.5
172
     1
176
   256
177
   256
178
     2
271
     2
272
     3
274
     4
283
     0
340
11
341
201
342
201
343
201
344
201
371
    -1
372
    -1
  0
DIMSTYLE
105
260
330
A
100
AcDbSymbolTableRecord
100
AcDbDimStyleTableRecord
  2
AM_JIS$SH
 70
     0
  4
"
 41
2.5
 42
1.0
 43
10.0
 44
1.0
 47
0.1
 48
0.1
 73
     0
 74
     0
 75
     1
 76
     1
 77
     3
 78
     8
 79
     2
140
3.5
141
0.0
143
0.0393701
144
2.0
146
0.71
147
1.5
172
     1
173
     1
176
   256
177
   256
178
     2
271
     2
272
     3
274
     4
283
     0
340
11
341
201
342
201
343
87
344
201
371
    -1
372
    -1
  0
ENDTAB
  0
TABLE
  2
BLOCK_RECORD
  5
1
330
0
100
AcDbSymbolTable
 70
    19
  0
BLOCK_RECORD
  5
1F
102
{ACAD_XDICTIONARY
360
8F
102
}
330
1
100
AcDbSymbolTableRecord
100
AcDbBlockTableRecord
  2
*Model_Space
340
22
  0
BLOCK_RECORD
  5
1B
330
1
100
AcDbSymbolTableRecord
100
AcDbBlockTableRecord
  2
*Paper_Space
340
1E
  0
BLOCK_RECORD
  5
23
330
1
100
AcDbSymbolTableRecord
100
AcDbBlockTableRecord
  2
*Paper_Space0
340
26
  0
BLOCK_RECORD
  5
87
330
1
100
AcDbSymbolTableRecord
100
AcDbBlockTableRecord
  2
GENAXEH
340
0
  0
BLOCK_RECORD
  5
201
330
1
100
AcDbSymbolTableRecord
100
AcDbBlockTableRecord
  2
_Open30
340
0
  0
BLOCK_RECORD
  5
207
330
1
100
AcDbSymbolTableRecord
100
AcDbBlockTableRecord
  2
*D4
340
0
  0
BLOCK_RECORD
  5
213
330
1
100
AcDbSymbolTableRecord
100
AcDbBlockTableRecord
  2
*D5
340
0
  0
BLOCK_RECORD
  5
21F
330
1
100
AcDbSymbolTableRecord
100
AcDbBlockTableRecord
  2
*D6
340
0
  0
BLOCK_RECORD
  5
22B
330
1
100
AcDbSymbolTableRecord
100
AcDbBlockTableRecord
  2
*D7
340
0
  0
BLOCK_RECORD
  5
237
330
1
100
AcDbSymbolTableRecord
100
AcDbBlockTableRecord
  2
*D8
340
0
  0
BLOCK_RECORD
  5
243
330
1
100
AcDbSymbolTableRecord
100
AcDbBlockTableRecord
  2
*D9
340
0
  0
BLOCK_RECORD
  5
5F7
330
1
100
AcDbSymbolTableRecord
100
AcDbBlockTableRecord
  2
*D11
340
0
  0
BLOCK_RECORD
  5
603
330
1
100
AcDbSymbolTableRecord
100
AcDbBlockTableRecord
  2
*D12
340
0
  0
BLOCK_RECORD
  5
60F
330
1
100
AcDbSymbolTableRecord
100
AcDbBlockTableRecord
  2
*D13
340
0
  0
BLOCK_RECORD
  5
61B
330
1
100
AcDbSymbolTableRecord
100
AcDbBlockTableRecord
  2
*D14
340
0
  0
BLOCK_RECORD
  5
627
330
1
100
AcDbSymbolTableRecord
100
AcDbBlockTableRecord
  2
*D15
340
0
  0
BLOCK_RECORD
  5
633
330
1
100
AcDbSymbolTableRecord
100
AcDbBlockTableRecord
  2
*D16
340
0
  0
ENDTAB
  0
ENDSEC
  0
SECTION
  2
BLOCKS
  0
BLOCK
  5
20
330
1F
100
AcDbEntity
  8
0
100
AcDbBlockBegin
  2
*Model_Space
 70
     0
 10
0.0
 20
0.0
 30
0.0
  3
*Model_Space
  1

  0
ENDBLK
  5
21
330
1F
100
AcDbEntity
  8
0
100
AcDbBlockEnd
  0
BLOCK
  5
1C
330
1B
100
AcDbEntity
 67
     1
  8
0
100
AcDbBlockBegin
  2
*Paper_Space
 70
     0
 10
0.0
 20
0.0
 30
0.0
  3
*Paper_Space
  1

  0
ENDBLK
  5
1D
330
1B
100
AcDbEntity
 67
     1
  8
0
100
AcDbBlockEnd
  0
BLOCK
  5
24
330
23
100
AcDbEntity
  8
0
100
AcDbBlockBegin
  2
*Paper_Space0
 70
     0
 10
0.0
 20
0.0
 30
0.0
  3
*Paper_Space0
  1

  0
ENDBLK
  5
25
330
23
100
AcDbEntity
  8
0
100
AcDbBlockEnd
  0
BLOCK
  5
89
330
87
100
AcDbEntity
  8
0
100
AcDbBlockBegin
  2
GENAXEH
 70
     0
 10
0.0
 20
0.0
 30
0.0
  3
GENAXEH
  1

  0
LINE
  5
88
330
87
100
AcDbEntity
  8
0
100
AcDbLine
 10
-1.0
 20
0.0
 30
0.0
 11
1.0
 21
0.0
 31
0.0
  0
ENDBLK
  5
8A
330
87
100
AcDbEntity
  8
0
100
AcDbBlockEnd
  0
BLOCK
  5
202
330
201
100
AcDbEntity
  8
0
100
AcDbBlockBegin
  2
_Open30
 70
     0
 10
0.0
 20
0.0
 30
0.0
  3
_Open30
  1

  0
LINE
  5
203
330
201
100
AcDbEntity
  8
0
 62
     0
370
    -2
100
AcDbLine
 10
-1.0
 20
0.26794919
 30
0.0
 11
0.0
 21
0.0
 31
0.0
  0
LINE
  5
204
330
201
100
AcDbEntity
  8
0
 62
     0
370
    -2
100
AcDbLine
 10
0.0
 20
0.0
 30
0.0
 11
-1.0
 21
-0.26794919
 31
0.0
  0
LINE
  5
205
330
201
100
AcDbEntity
  8
0
 62
     0
370
    -2
100
AcDbLine
 10
0.0
 20
0.0
 30
0.0
 11
-1.0
 21
0.0
 31
0.0
  0
ENDBLK
  5
206
330
201
100
AcDbEntity
  8
0
100
AcDbBlockEnd
  0
BLOCK
  5
208
330
207
100
AcDbEntity
  8
0
100
AcDbBlockBegin
  2
*D4
 70
     1
 10
0.0
 20
0.0
 30
0.0
  3
*D4
  1

  0
LINE
  5
209
330
207
100
AcDbEntity
  8
0
 62
     5
370
    -2
100
AcDbLine
 10
191.8006673762445
 20
99.6472990541438
 30
0.0
 11
191.8006673762445
 21
88.05050850475856
 31
0.0
  0
LINE
  5
20A
330
207
100
AcDbEntity
  8
0
 62
     5
370
    -2
100
AcDbLine
 10
232.8006673762446
 20
99.64729905807695
 30
0.0
 11
232.8006673762446
 21
88.05050850475856
 31
0.0
  0
LINE
  5
20B
330
207
100
AcDbEntity
  8
0
 62
     5
100
AcDbLine
 10
194.8006673762445
 20
90.05050850475857
 30
0.0
 11
229.8006673762446
 21
90.05050850475857
 31
0.0
  0
SOLID
  5
20C
330
207
100
AcDbEntity
  8
0
 62
     5
100
AcDbTrace
 10
194.8006673762445
 20
90.55050850475856
 30
0.0
 11
194.8006673762445
 21
89.55050850475856
 31
0.0
 12
191.8006673762445
 22
90.05050850475857
 32
0.0
 13
191.8006673762445
 23
90.05050850475857
 33
0.0
  0
SOLID
  5
20D
330
207
100
AcDbEntity
  8
0
 62
     5
100
AcDbTrace
 10
229.8006673762446
 20
90.55050850475856
 30
0.0
 11
229.8006673762446
 21
89.55050850475856
 31
0.0
 12
232.8006673762446
 22
90.05050850475857
 32
0.0
 13
232.8006673762446
 23
90.05050850475857
 33
0.0
  0
MTEXT
  5
20E
330
207
100
AcDbEntity
  8
0
 62
     5
100
AcDbMText
 10
212.3006673762446
 20
92.55050850475857
 30
0.0
 40
3.0
 41
0.0
 71
     5
 72
     1
  1
\A1;41
  7
CHINESET
 73
     1
 44
1.0
1001
ACAD
1000
MTEXTBEGIN
1070
    73
1070
     1
1070
    44
1040
1.0
1070
    74
1070
     0
1000
MTEXTEND
  0
POINT
  5
20F
330
207
100
AcDbEntity
  8
Defpoints
 62
     0
100
AcDbPoint
 10
191.8006673762445
 20
101.6472990541438
 30
0.0
  0
POINT
  5
210
330
207
100
AcDbEntity
  8
Defpoints
 62
     0
100
AcDbPoint
 10
232.8006673762446
 20
101.6472990580769
 30
0.0
  0
POINT
  5
211
330
207
100
AcDbEntity
  8
Defpoints
 62
     0
100
AcDbPoint
 10
232.8006673762446
 20
90.05050850475857
 30
0.0
  0
ENDBLK
  5
212
330
207
100
AcDbEntity
  8
0
100
AcDbBlockEnd
  0
BLOCK
  5
214
330
213
100
AcDbEntity
  8
0
100
AcDbBlockBegin
  2
*D5
 70
     1
 10
0.0
 20
0.0
 30
0.0
  3
*D5
  1

  0
LINE
  5
215
330
213
100
AcDbEntity
  8
0
 62
     5
370
    -2
100
AcDbLine
 10
204.2039375979117
 20
44.39668129627262
 30
0.0
 11
182.7954495047619
 21
44.39668129627262
 31
0.0
  0
LINE
  5
216
330
213
100
AcDbEntity
  8
0
 62
     5
370
    -2
100
AcDbLine
 10
204.2039375979117
 20
61.39668129627263
 30
0.0
 11
182.7954495047619
 21
61.39668129627263
 31
0.0
  0
LINE
  5
217
330
213
100
AcDbEntity
  8
0
 62
     5
100
AcDbLine
 10
184.7954495047619
 20
47.39668129627262
 30
0.0
 11
184.7954495047619
 21
58.39668129627263
 31
0.0
  0
SOLID
  5
218
330
213
100
AcDbEntity
  8
0
 62
     5
100
AcDbTrace
 10
184.2954495047619
 20
47.39668129627262
 30
0.0
 11
185.2954495047619
 21
47.39668129627262
 31
0.0
 12
184.7954495047619
 22
44.39668129627262
 32
0.0
 13
184.7954495047619
 23
44.39668129627262
 33
0.0
  0
SOLID
  5
219
330
213
100
AcDbEntity
  8
0
 62
     5
100
AcDbTrace
 10
184.2954495047619
 20
58.39668129627263
 30
0.0
 11
185.2954495047619
 21
58.39668129627263
 31
0.0
 12
184.7954495047619
 22
61.39668129627263
 32
0.0
 13
184.7954495047619
 23
61.39668129627263
 33
0.0
  0
MTEXT
  5
21A
330
213
100
AcDbEntity
  8
0
 62
     5
100
AcDbMText
 10
182.2954495047619
 20
52.89668129627266
 30
0.0
 40
3.0
 41
0.0
 71
     5
 72
     1
  1
\A1;17
  7
CHINESET
 11
0.0000000000000001
 21
1.0
 31
0.0
 73
     1
 44
1.0
1001
ACAD
1000
MTEXTBEGIN
1070
    73
1070
     1
1070
    44
1040
1.0
1070
    74
1070
     0
1000
MTEXTEND
  0
POINT
  5
21B
330
213
100
AcDbEntity
  8
Defpoints
 62
     0
100
AcDbPoint
 10
206.2039375979117
 20
44.39668129627262
 30
0.0
  0
POINT
  5
21C
330
213
100
AcDbEntity
  8
Defpoints
 62
     0
100
AcDbPoint
 10
206.2039375979117
 20
61.39668129627263
 30
0.0
  0
POINT
  5
21D
330
213
100
AcDbEntity
  8
Defpoints
 62
     0
100
AcDbPoint
 10
184.7954495047619
 20
61.39668129627263
 30
0.0
  0
ENDBLK
  5
21E
330
213
100
AcDbEntity
  8
0
100
AcDbBlockEnd
  0
BLOCK
  5
220
330
21F
100
AcDbEntity
  8
0
100
AcDbBlockBegin
  2
*D6
 70
     1
 10
0.0
 20
0.0
 30
0.0
  3
*D6
  1

  0
LINE
  5
221
330
21F
100
AcDbEntity
  8
0
 62
     5
370
    -2
100
AcDbLine
 10
229.2039375979117
 20
67.89668129627263
 30
0.0
 11
272.4966261023875
 21
67.89668129627263
 31
0.0
  0
LINE
  5
222
330
21F
100
AcDbEntity
  8
0
 62
     5
370
    -2
100
AcDbLine
 10
229.2039375979117
 20
37.89668129627261
 30
0.0
 11
272.4966261023875
 21
37.8966812962726
 31
0.0
  0
LINE
  5
223
330
21F
100
AcDbEntity
  8
0
 62
     5
100
AcDbLine
 10
270.4966261023875
 20
64.89668129627263
 30
0.0
 11
270.4966261023875
 21
40.8966812962726
 31
0.0
  0
SOLID
  5
224
330
21F
100
AcDbEntity
  8
0
 62
     5
100
AcDbTrace
 10
269.9966261023875
 20
64.89668129627263
 30
0.0
 11
270.9966261023875
 21
64.89668129627263
 31
0.0
 12
270.4966261023875
 22
67.89668129627263
 32
0.0
 13
270.4966261023875
 23
67.89668129627263
 33
0.0
  0
SOLID
  5
225
330
21F
100
AcDbEntity
  8
0
 62
     5
100
AcDbTrace
 10
269.9966261023875
 20
40.8966812962726
 30
0.0
 11
270.9966261023875
 21
40.8966812962726
 31
0.0
 12
270.4966261023875
 22
37.89668129627261
 32
0.0
 13
270.4966261023875
 23
37.89668129627261
 33
0.0
  0
MTEXT
  5
226
330
21F
100
AcDbEntity
  8
0
 62
     5
100
AcDbMText
 10
267.9966261023875
 20
52.89668129627266
 30
0.0
 40
3.0
 41
0.0
 71
     5
 72
     1
  1
\A1;30
  7
CHINESET
 11
0.0000000000000001
 21
1.0
 31
0.0
 73
     1
 44
1.0
1001
ACAD
1000
MTEXTBEGIN
1070
    73
1070
     1
1070
    44
1040
1.0
1070
    74
1070
     0
1000
MTEXTEND
  0
POINT
  5
227
330
21F
100
AcDbEntity
  8
Defpoints
 62
     0
100
AcDbPoint
 10
227.2039375979117
 20
67.89668129627263
 30
0.0
  0
POINT
  5
228
330
21F
100
AcDbEntity
  8
Defpoints
 62
     0
100
AcDbPoint
 10
227.2039375979117
 20
37.89668129627261
 30
0.0
  0
POINT
  5
229
330
21F
100
AcDbEntity
  8
Defpoints
 62
     0
100
AcDbPoint
 10
270.4966261023875
 20
37.89668129627261
 30
0.0
  0
ENDBLK
  5
22A
330
21F
100
AcDbEntity
  8
0
100
AcDbBlockEnd
  0
BLOCK
  5
22C
330
22B
100
AcDbEntity
  8
0
100
AcDbBlockBegin
  2
*D7
 70
     1
 10
0.0
 20
0.0
 30
0.0
  3
*D7
  1

  0
LINE
  5
22D
330
22B
100
AcDbEntity
  8
0
 62
     5
370
    -2
100
AcDbLine
 10
191.8006673762445
 20
222.6174906552375
 30
0.0
 11
191.8006673762445
 21
234.8327250704099
 31
0.0
  0
LINE
  5
22E
330
22B
100
AcDbEntity
  8
0
 62
     5
370
    -2
100
AcDbLine
 10
262.3039375979117
 20
212.7674906552374
 30
0.0
 11
262.3039375979117
 21
234.8327250704099
 31
0.0
  0
LINE
  5
22F
330
22B
100
AcDbEntity
  8
0
 62
     5
100
AcDbLine
 10
194.8006673762445
 20
232.8327250704099
 30
0.0
 11
259.3039375979117
 21
232.8327250704099
 31
0.0
  0
SOLID
  5
230
330
22B
100
AcDbEntity
  8
0
 62
     5
100
AcDbTrace
 10
194.8006673762445
 20
233.3327250704099
 30
0.0
 11
194.8006673762445
 21
232.3327250704099
 31
0.0
 12
191.8006673762445
 22
232.8327250704099
 32
0.0
 13
191.8006673762445
 23
232.8327250704099
 33
0.0
  0
SOLID
  5
231
330
22B
100
AcDbEntity
  8
0
 62
     5
100
AcDbTrace
 10
259.3039375979117
 20
233.3327250704099
 30
0.0
 11
259.3039375979117
 21
232.3327250704099
 31
0.0
 12
262.3039375979117
 22
232.8327250704099
 32
0.0
 13
262.3039375979117
 23
232.8327250704099
 33
0.0
  0
MTEXT
  5
232
330
22B
100
AcDbEntity
  8
0
 62
     5
100
AcDbMText
 10
227.0523024870781
 20
235.3327250704099
 30
0.0
 40
3.0
 41
0.0
 71
     5
 72
     1
  1
\A1;70.5
  7
CHINESET
 73
     1
 44
1.0
1001
ACAD
1000
MTEXTBEGIN
1070
    73
1070
     1
1070
    44
1040
1.0
1070
    74
1070
     0
1000
MTEXTEND
  0
POINT
  5
233
330
22B
100
AcDbEntity
  8
Defpoints
 62
     0
100
AcDbPoint
 10
191.8006673762445
 20
220.6174906552375
 30
0.0
  0
POINT
  5
234
330
22B
100
AcDbEntity
  8
Defpoints
 62
     0
100
AcDbPoint
 10
262.3039375979117
 20
210.7674906552374
 30
0.0
  0
POINT
  5
235
330
22B
100
AcDbEntity
  8
Defpoints
 62
     0
100
AcDbPoint
 10
262.3039375979117
 20
232.8327250704099
 30
0.0
  0
ENDBLK
  5
236
330
22B
100
AcDbEntity
  8
0
100
AcDbBlockEnd
  0
BLOCK
  5
238
330
237
100
AcDbEntity
  8
0
100
AcDbBlockBegin
  2
*D8
 70
     1
 10
0.0
 20
0.0
 30
0.0
  3
*D8
  1

  0
LINE
  5
239
330
237
100
AcDbEntity
  8
0
 62
     5
370
    -2
100
AcDbLine
 10
206.4539375979117
 20
171.6472990580769
 30
0.0
 11
185.0301995714113
 21
171.647299058077
 31
0.0
  0
LINE
  5
23A
330
237
100
AcDbEntity
  8
0
 62
     5
370
    -2
100
AcDbLine
 10
189.8006673762445
 20
101.6472990541438
 30
0.0
 11
185.0301995714113
 21
101.6472990541438
 31
0.0
  0
LINE
  5
23B
330
237
100
AcDbEntity
  8
0
 62
     5
100
AcDbLine
 10
187.0301995714113
 20
168.647299058077
 30
0.0
 11
187.0301995714113
 21
104.6472990541438
 31
0.0
  0
SOLID
  5
23C
330
237
100
AcDbEntity
  8
0
 62
     5
100
AcDbTrace
 10
186.5301995714113
 20
168.647299058077
 30
0.0
 11
187.5301995714113
 21
168.647299058077
 31
0.0
 12
187.0301995714113
 22
171.647299058077
 32
0.0
 13
187.0301995714113
 23
171.647299058077
 33
0.0
  0
SOLID
  5
23D
330
237
100
AcDbEntity
  8
0
 62
     5
100
AcDbTrace
 10
186.5301995714113
 20
104.6472990541438
 30
0.0
 11
187.5301995714113
 21
104.6472990541438
 31
0.0
 12
187.0301995714113
 22
101.6472990541438
 32
0.0
 13
187.0301995714113
 23
101.6472990541438
 33
0.0
  0
MTEXT
  5
23E
330
237
100
AcDbEntity
  8
0
 62
     5
100
AcDbMText
 10
184.5301995714113
 20
136.6472990561104
 30
0.0
 40
3.0
 41
0.0
 71
     5
 72
     1
  1
\A1;70
  7
CHINESET
 11
0.0000000000000001
 21
1.0
 31
0.0
 73
     1
 44
1.0
1001
ACAD
1000
MTEXTBEGIN
1070
    73
1070
     1
1070
    44
1040
1.0
1070
    74
1070
     0
1000
MTEXTEND
  0
POINT
  5
23F
330
237
100
AcDbEntity
  8
Defpoints
 62
     0
100
AcDbPoint
 10
208.4539375979117
 20
171.6472990580769
 30
0.0
  0
POINT
  5
240
330
237
100
AcDbEntity
  8
Defpoints
 62
     0
100
AcDbPoint
 10
191.8006673762445
 20
101.6472990541438
 30
0.0
  0
POINT
  5
241
330
237
100
AcDbEntity
  8
Defpoints
 62
     0
100
AcDbPoint
 10
187.0301995714113
 20
101.6472990541438
 30
0.0
  0
ENDBLK
  5
242
330
237
100
AcDbEntity
  8
0
100
AcDbBlockEnd
  0
BLOCK
  5
244
330
243
100
AcDbEntity
  8
0
100
AcDbBlockBegin
  2
*D9
 70
     1
 10
0.0
 20
0.0
 30
0.0
  3
*D9
  1

  0
LINE
  5
245
330
243
100
AcDbEntity
  8
0
 62
     5
370
    -2
100
AcDbLine
 10
212.3006673762446
 20
175.414564288318
 30
0.0
 11
212.3006673762446
 21
179.8154871946061
 31
0.0
  0
LINE
  5
246
330
243
100
AcDbEntity
  8
0
 62
     5
370
    -2
100
AcDbLine
 10
262.3039375979117
 20
142.3972990580769
 30
0.0
 11
262.3039375979117
 21
179.8154871946061
 31
0.0
  0
LINE
  5
247
330
243
100
AcDbEntity
  8
0
 62
     5
100
AcDbLine
 10
215.3006673762446
 20
177.8154871946061
 30
0.0
 11
259.3039375979117
 21
177.8154871946061
 31
0.0
  0
SOLID
  5
248
330
243
100
AcDbEntity
  8
0
 62
     5
100
AcDbTrace
 10
215.3006673762446
 20
178.3154871946061
 30
0.0
 11
215.3006673762446
 21
177.3154871946061
 31
0.0
 12
212.3006673762446
 22
177.8154871946061
 32
0.0
 13
212.3006673762446
 23
177.8154871946061
 33
0.0
  0
SOLID
  5
249
330
243
100
AcDbEntity
  8
0
 62
     5
100
AcDbTrace
 10
259.3039375979117
 20
178.3154871946061
 30
0.0
 11
259.3039375979117
 21
177.3154871946061
 31
0.0
 12
262.3039375979117
 22
177.8154871946061
 32
0.0
 13
262.3039375979117
 23
177.8154871946061
 33
0.0
  0
MTEXT
  5
24A
330
243
100
AcDbEntity
  8
0
 62
     5
100
AcDbMText
 10
237.3023024870782
 20
180.3154871946061
 30
0.0
 40
3.0
 41
0.0
 71
     5
 72
     1
  1
\A1;50
  7
CHINESET
 73
     1
 44
1.0
1001
ACAD
1000
MTEXTBEGIN
1070
    73
1070
     1
1070
    44
1040
1.0
1070
    74
1070
     0
1000
MTEXTEND
  0
POINT
  5
24B
330
243
100
AcDbEntity
  8
Defpoints
 62
     0
100
AcDbPoint
 10
212.3006673762446
 20
173.414564288318
 30
0.0
  0
POINT
  5
24C
330
243
100
AcDbEntity
  8
Defpoints
 62
     0
100
AcDbPoint
 10
262.3039375979117
 20
140.3972990580769
 30
0.0
  0
POINT
  5
24D
330
243
100
AcDbEntity
  8
Defpoints
 62
     0
100
AcDbPoint
 10
262.3039375979117
 20
177.8154871946061
 30
0.0
  0
ENDBLK
  5
24E
330
243
100
AcDbEntity
  8
0
100
AcDbBlockEnd
  0
BLOCK
  5
601
330
5F7
100
AcDbEntity
  8
0
100
AcDbBlockBegin
  2
*D11
 70
     1
 10
0.0
 20
0.0
 30
0.0
  3
*D11
  1

  0
LINE
  5
63F
330
5F7
100
AcDbEntity
  8
0
 62
     5
370
    -2
100
AcDbLine
 10
1269.517928703544
 20
993.2489663741527
 30
0.0
 11
1269.517928703544
 21
981.6521758247677
 31
0.0
  0
LINE
  5
640
330
5F7
100
AcDbEntity
  8
0
 62
     5
370
    -2
100
AcDbLine
 10
1310.517928703544
 20
993.2489663780859
 30
0.0
 11
1310.517928703544
 21
981.6521758247677
 31
0.0
  0
LINE
  5
641
330
5F7
100
AcDbEntity
  8
0
 62
     5
100
AcDbLine
 10
1272.517928703544
 20
983.6521758247677
 30
0.0
 11
1307.517928703544
 21
983.6521758247677
 31
0.0
  0
SOLID
  5
642
330
5F7
100
AcDbEntity
  8
0
 62
     5
100
AcDbTrace
 10
1272.517928703544
 20
984.1521758247678
 30
0.0
 11
1272.517928703544
 21
983.1521758247676
 31
0.0
 12
1269.517928703544
 22
983.6521758247677
 32
0.0
 13
1269.517928703544
 23
983.6521758247677
 33
0.0
  0
SOLID
  5
643
330
5F7
100
AcDbEntity
  8
0
 62
     5
100
AcDbTrace
 10
1307.517928703544
 20
984.1521758247678
 30
0.0
 11
1307.517928703544
 21
983.1521758247676
 31
0.0
 12
1310.517928703544
 22
983.6521758247677
 32
0.0
 13
1310.517928703544
 23
983.6521758247677
 33
0.0
  0
MTEXT
  5
644
330
5F7
100
AcDbEntity
  8
0
 62
     5
100
AcDbMText
 10
1290.017928703544
 20
986.1521758247677
 30
0.0
 40
3.0
 41
0.0
 71
     5
 72
     1
  1
\A1;41
  7
CHINESET
 73
     1
 44
1.0
1001
ACAD
1000
MTEXTBEGIN
1070
    73
1070
     1
1070
    44
1040
1.0
1070
    74
1070
     0
1000
MTEXTEND
  0
POINT
  5
645
330
5F7
100
AcDbEntity
  8
Defpoints
 62
     0
100
AcDbPoint
 10
1269.517928703544
 20
995.2489663741529
 30
0.0
  0
POINT
  5
646
330
5F7
100
AcDbEntity
  8
Defpoints
 62
     0
100
AcDbPoint
 10
1310.517928703544
 20
995.2489663780861
 30
0.0
  0
POINT
  5
647
330
5F7
100
AcDbEntity
  8
Defpoints
 62
     0
100
AcDbPoint
 10
1310.517928703544
 20
983.6521758247677
 30
0.0
  0
ENDBLK
  5
602
330
5F7
100
AcDbEntity
  8
0
100
AcDbBlockEnd
  0
BLOCK
  5
60D
330
603
100
AcDbEntity
  8
0
100
AcDbBlockBegin
  2
*D12
 70
     1
 10
0.0
 20
0.0
 30
0.0
  3
*D12
  1

  0
LINE
  5
648
330
603
100
AcDbEntity
  8
0
 62
     5
370
    -2
100
AcDbLine
 10
1281.921198925211
 20
937.9983486162817
 30
0.0
 11
1260.512710832061
 21
937.9983486162819
 31
0.0
  0
LINE
  5
649
330
603
100
AcDbEntity
  8
0
 62
     5
370
    -2
100
AcDbLine
 10
1281.921198925211
 20
954.9983486162815
 30
0.0
 11
1260.512710832061
 21
954.9983486162817
 31
0.0
  0
LINE
  5
64A
330
603
100
AcDbEntity
  8
0
 62
     5
100
AcDbLine
 10
1262.512710832061
 20
940.9983486162818
 30
0.0
 11
1262.512710832061
 21
951.9983486162818
 31
0.0
  0
SOLID
  5
64B
330
603
100
AcDbEntity
  8
0
 62
     5
100
AcDbTrace
 10
1262.012710832061
 20
940.9983486162818
 30
0.0
 11
1263.012710832061
 21
940.9983486162818
 31
0.0
 12
1262.512710832061
 22
937.9983486162819
 32
0.0
 13
1262.512710832061
 23
937.9983486162819
 33
0.0
  0
SOLID
  5
64C
330
603
100
AcDbEntity
  8
0
 62
     5
100
AcDbTrace
 10
1262.012710832061
 20
951.9983486162818
 30
0.0
 11
1263.012710832061
 21
951.9983486162818
 31
0.0
 12
1262.512710832061
 22
954.9983486162817
 32
0.0
 13
1262.512710832061
 23
954.9983486162817
 33
0.0
  0
MTEXT
  5
64D
330
603
100
AcDbEntity
  8
0
 62
     5
100
AcDbMText
 10
1260.012710832061
 20
946.498348616282
 30
0.0
 40
3.0
 41
0.0
 71
     5
 72
     1
  1
\A1;17
  7
CHINESET
 11
0.0000000000000001
 21
1.0
 31
0.0
 73
     1
 44
1.0
1001
ACAD
1000
MTEXTBEGIN
1070
    73
1070
     1
1070
    44
1040
1.0
1070
    74
1070
     0
1000
MTEXTEND
  0
POINT
  5
64E
330
603
100
AcDbEntity
  8
Defpoints
 62
     0
100
AcDbPoint
 10
1283.921198925211
 20
937.9983486162817
 30
0.0
  0
POINT
  5
64F
330
603
100
AcDbEntity
  8
Defpoints
 62
     0
100
AcDbPoint
 10
1283.921198925211
 20
954.9983486162815
 30
0.0
  0
POINT
  5
650
330
603
100
AcDbEntity
  8
Defpoints
 62
     0
100
AcDbPoint
 10
1262.512710832061
 20
954.9983486162817
 30
0.0
  0
ENDBLK
  5
60E
330
603
100
AcDbEntity
  8
0
100
AcDbBlockEnd
  0
BLOCK
  5
619
330
60F
100
AcDbEntity
  8
0
100
AcDbBlockBegin
  2
*D13
 70
     1
 10
0.0
 20
0.0
 30
0.0
  3
*D13
  1

  0
LINE
  5
651
330
60F
100
AcDbEntity
  8
0
 62
     5
370
    -2
100
AcDbLine
 10
1306.921198925211
 20
961.4983486162817
 30
0.0
 11
1350.213887429687
 21
961.4983486162817
 31
0.0
  0
LINE
  5
652
330
60F
100
AcDbEntity
  8
0
 62
     5
370
    -2
100
AcDbLine
 10
1306.921198925211
 20
931.4983486162816
 30
0.0
 11
1350.213887429687
 21
931.4983486162816
 31
0.0
  0
LINE
  5
653
330
60F
100
AcDbEntity
  8
0
 62
     5
100
AcDbLine
 10
1348.213887429687
 20
958.4983486162817
 30
0.0
 11
1348.213887429687
 21
934.4983486162815
 31
0.0
  0
SOLID
  5
654
330
60F
100
AcDbEntity
  8
0
 62
     5
100
AcDbTrace
 10
1347.713887429687
 20
958.4983486162817
 30
0.0
 11
1348.713887429687
 21
958.4983486162817
 31
0.0
 12
1348.213887429687
 22
961.4983486162817
 32
0.0
 13
1348.213887429687
 23
961.4983486162817
 33
0.0
  0
SOLID
  5
655
330
60F
100
AcDbEntity
  8
0
 62
     5
100
AcDbTrace
 10
1347.713887429687
 20
934.4983486162815
 30
0.0
 11
1348.713887429687
 21
934.4983486162815
 31
0.0
 12
1348.213887429687
 22
931.4983486162816
 32
0.0
 13
1348.213887429687
 23
931.4983486162816
 33
0.0
  0
MTEXT
  5
656
330
60F
100
AcDbEntity
  8
0
 62
     5
100
AcDbMText
 10
1345.713887429687
 20
946.498348616282
 30
0.0
 40
3.0
 41
0.0
 71
     5
 72
     1
  1
\A1;30
  7
CHINESET
 11
0.0000000000000001
 21
1.0
 31
0.0
 73
     1
 44
1.0
1001
ACAD
1000
MTEXTBEGIN
1070
    73
1070
     1
1070
    44
1040
1.0
1070
    74
1070
     0
1000
MTEXTEND
  0
POINT
  5
657
330
60F
100
AcDbEntity
  8
Defpoints
 62
     0
100
AcDbPoint
 10
1304.921198925211
 20
961.4983486162817
 30
0.0
  0
POINT
  5
658
330
60F
100
AcDbEntity
  8
Defpoints
 62
     0
100
AcDbPoint
 10
1304.921198925211
 20
931.4983486162816
 30
0.0
  0
POINT
  5
659
330
60F
100
AcDbEntity
  8
Defpoints
 62
     0
100
AcDbPoint
 10
1348.213887429687
 20
931.4983486162816
 30
0.0
  0
ENDBLK
  5
61A
330
60F
100
AcDbEntity
  8
0
100
AcDbBlockEnd
  0
BLOCK
  5
625
330
61B
100
AcDbEntity
  8
0
100
AcDbBlockBegin
  2
*D14
 70
     1
 10
0.0
 20
0.0
 30
0.0
  3
*D14
  1

  0
LINE
  5
65A
330
61B
100
AcDbEntity
  8
0
 62
     5
370
    -2
100
AcDbLine
 10
1269.517928703544
 20
1116.219157975246
 30
0.0
 11
1269.517928703544
 21
1128.434392390419
 31
0.0
  0
LINE
  5
65B
330
61B
100
AcDbEntity
  8
0
 62
     5
370
    -2
100
AcDbLine
 10
1340.021198925211
 20
1106.369157975246
 30
0.0
 11
1340.021198925211
 21
1128.434392390419
 31
0.0
  0
LINE
  5
65C
330
61B
100
AcDbEntity
  8
0
 62
     5
100
AcDbLine
 10
1272.517928703544
 20
1126.434392390419
 30
0.0
 11
1337.021198925211
 21
1126.434392390419
 31
0.0
  0
SOLID
  5
65D
330
61B
100
AcDbEntity
  8
0
 62
     5
100
AcDbTrace
 10
1272.517928703544
 20
1126.934392390419
 30
0.0
 11
1272.517928703544
 21
1125.934392390419
 31
0.0
 12
1269.517928703544
 22
1126.434392390419
 32
0.0
 13
1269.517928703544
 23
1126.434392390419
 33
0.0
  0
SOLID
  5
65E
330
61B
100
AcDbEntity
  8
0
 62
     5
100
AcDbTrace
 10
1337.021198925211
 20
1126.934392390419
 30
0.0
 11
1337.021198925211
 21
1125.934392390419
 31
0.0
 12
1340.021198925211
 22
1126.434392390419
 32
0.0
 13
1340.021198925211
 23
1126.434392390419
 33
0.0
  0
MTEXT
  5
65F
330
61B
100
AcDbEntity
  8
0
 62
     5
100
AcDbMText
 10
1304.769563814377
 20
1128.934392390419
 30
0.0
 40
3.0
 41
0.0
 71
     5
 72
     1
  1
\A1;70.5
  7
CHINESET
 73
     1
 44
1.0
1001
ACAD
1000
MTEXTBEGIN
1070
    73
1070
     1
1070
    44
1040
1.0
1070
    74
1070
     0
1000
MTEXTEND
  0
POINT
  5
660
330
61B
100
AcDbEntity
  8
Defpoints
 62
     0
100
AcDbPoint
 10
1269.517928703544
 20
1114.219157975246
 30
0.0
  0
POINT
  5
661
330
61B
100
AcDbEntity
  8
Defpoints
 62
     0
100
AcDbPoint
 10
1340.021198925211
 20
1104.369157975246
 30
0.0
  0
POINT
  5
662
330
61B
100
AcDbEntity
  8
Defpoints
 62
     0
100
AcDbPoint
 10
1340.021198925211
 20
1126.434392390419
 30
0.0
  0
ENDBLK
  5
626
330
61B
100
AcDbEntity
  8
0
100
AcDbBlockEnd
  0
BLOCK
  5
631
330
627
100
AcDbEntity
  8
0
100
AcDbBlockBegin
  2
*D15
 70
     1
 10
0.0
 20
0.0
 30
0.0
  3
*D15
  1

  0
LINE
  5
663
330
627
100
AcDbEntity
  8
0
 62
     5
370
    -2
100
AcDbLine
 10
1284.171198925211
 20
1065.248966378086
 30
0.0
 11
1262.747460898711
 21
1065.248966378086
 31
0.0
  0
LINE
  5
664
330
627
100
AcDbEntity
  8
0
 62
     5
370
    -2
100
AcDbLine
 10
1267.517928703544
 20
995.2489663741529
 30
0.0
 11
1262.747460898711
 21
995.2489663741529
 31
0.0
  0
LINE
  5
665
330
627
100
AcDbEntity
  8
0
 62
     5
100
AcDbLine
 10
1264.747460898711
 20
1062.248966378086
 30
0.0
 11
1264.747460898711
 21
998.248966374153
 31
0.0
  0
SOLID
  5
666
330
627
100
AcDbEntity
  8
0
 62
     5
100
AcDbTrace
 10
1264.24746089871
 20
1062.248966378086
 30
0.0
 11
1265.24746089871
 21
1062.248966378086
 31
0.0
 12
1264.747460898711
 22
1065.248966378086
 32
0.0
 13
1264.747460898711
 23
1065.248966378086
 33
0.0
  0
SOLID
  5
667
330
627
100
AcDbEntity
  8
0
 62
     5
100
AcDbTrace
 10
1264.24746089871
 20
998.248966374153
 30
0.0
 11
1265.24746089871
 21
998.248966374153
 31
0.0
 12
1264.747460898711
 22
995.2489663741529
 32
0.0
 13
1264.747460898711
 23
995.2489663741529
 33
0.0
  0
MTEXT
  5
668
330
627
100
AcDbEntity
  8
0
 62
     5
100
AcDbMText
 10
1262.24746089871
 20
1030.24896637612
 30
0.0
 40
3.0
 41
0.0
 71
     5
 72
     1
  1
\A1;70
  7
CHINESET
 11
0.0000000000000001
 21
1.0
 31
0.0
 73
     1
 44
1.0
1001
ACAD
1000
MTEXTBEGIN
1070
    73
1070
     1
1070
    44
1040
1.0
1070
    74
1070
     0
1000
MTEXTEND
  0
POINT
  5
669
330
627
100
AcDbEntity
  8
Defpoints
 62
     0
100
AcDbPoint
 10
1286.171198925211
 20
1065.248966378086
 30
0.0
  0
POINT
  5
66A
330
627
100
AcDbEntity
  8
Defpoints
 62
     0
100
AcDbPoint
 10
1269.517928703544
 20
995.2489663741529
 30
0.0
  0
POINT
  5
66B
330
627
100
AcDbEntity
  8
Defpoints
 62
     0
100
AcDbPoint
 10
1264.747460898711
 20
995.2489663741529
 30
0.0
  0
ENDBLK
  5
632
330
627
100
AcDbEntity
  8
0
100
AcDbBlockEnd
  0
BLOCK
  5
63D
330
633
100
AcDbEntity
  8
0
100
AcDbBlockBegin
  2
*D16
 70
     1
 10
0.0
 20
0.0
 30
0.0
  3
*D16
  1

  0
LINE
  5
66C
330
633
100
AcDbEntity
  8
0
 62
     5
370
    -2
100
AcDbLine
 10
1290.017928703544
 20
1069.016231608327
 30
0.0
 11
1290.017928703544
 21
1073.417154514615
 31
0.0
  0
LINE
  5
66D
330
633
100
AcDbEntity
  8
0
 62
     5
370
    -2
100
AcDbLine
 10
1340.021198925211
 20
1035.998966378086
 30
0.0
 11
1340.021198925211
 21
1073.417154514615
 31
0.0
  0
LINE
  5
66E
330
633
100
AcDbEntity
  8
0
 62
     5
100
AcDbLine
 10
1293.017928703544
 20
1071.417154514615
 30
0.0
 11
1337.021198925211
 21
1071.417154514615
 31
0.0
  0
SOLID
  5
66F
330
633
100
AcDbEntity
  8
0
 62
     5
100
AcDbTrace
 10
1293.017928703544
 20
1071.917154514615
 30
0.0
 11
1293.017928703544
 21
1070.917154514615
 31
0.0
 12
1290.017928703544
 22
1071.417154514615
 32
0.0
 13
1290.017928703544
 23
1071.417154514615
 33
0.0
  0
SOLID
  5
670
330
633
100
AcDbEntity
  8
0
 62
     5
100
AcDbTrace
 10
1337.021198925211
 20
1071.917154514615
 30
0.0
 11
1337.021198925211
 21
1070.917154514615
 31
0.0
 12
1340.021198925211
 22
1071.417154514615
 32
0.0
 13
1340.021198925211
 23
1071.417154514615
 33
0.0
  0
MTEXT
  5
671
330
633
100
AcDbEntity
  8
0
 62
     5
100
AcDbMText
 10
1315.019563814378
 20
1073.917154514615
 30
0.0
 40
3.0
 41
0.0
 71
     5
 72
     1
  1
\A1;50
  7
CHINESET
 73
     1
 44
1.0
1001
ACAD
1000
MTEXTBEGIN
1070
    73
1070
     1
1070
    44
1040
1.0
1070
    74
1070
     0
1000
MTEXTEND
  0
POINT
  5
672
330
633
100
AcDbEntity
  8
Defpoints
 62
     0
100
AcDbPoint
 10
1290.017928703544
 20
1067.016231608327
 30
0.0
  0
POINT
  5
673
330
633
100
AcDbEntity
  8
Defpoints
 62
     0
100
AcDbPoint
 10
1340.021198925211
 20
1033.998966378086
 30
0.0
  0
POINT
  5
674
330
633
100
AcDbEntity
  8
Defpoints
 62
     0
100
AcDbPoint
 10
1340.021198925211
 20
1071.417154514615
 30
0.0
  0
ENDBLK
  5
63E
330
633
100
AcDbEntity
  8
0
100
AcDbBlockEnd
  0
ENDSEC
  0
SECTION
  2
ENTITIES
  0
LINE
  5
440
330
1F
100
AcDbEntity
  8
AM_7
 62
     1
100
AcDbLine
 10
1290.017928703544
 20
1067.016231608327
 30
0.0
 11
1290.017928703544
 21
992.9430631103061
 31
0.0
  0
LINE
  5
441
330
1F
100
AcDbEntity
  8
AM_7
 62
     1
100
AcDbLine
 10
1290.017928703544
 20
1018.188966378086
 30
0.0
 11
1290.017928703544
 21
1014.072987671701
 31
0.0
  0
LINE
  5
442
330
1F
100
AcDbEntity
  8
AM_7
 62
     1
100
AcDbLine
 10
1330.671198925211
 20
1035.998966378086
 30
0.0
 11
1330.671198925211
 21
1011.720081653328
 31
0.0
  0
LINE
  5
443
330
1F
100
AcDbEntity
  8
AM_7
 62
     1
100
AcDbLine
 10
1330.671198925211
 20
959.395375047397
 30
0.0
 11
1330.671198925211
 21
933.1610338941461
 31
0.0
  0
LINE
  5
444
330
1F
100
AcDbEntity
  8
AM_7
 62
     1
100
AcDbLine
 10
1222.868992312545
 20
993.6525504983857
 30
0.0
 11
1222.868992312545
 21
1066.623320135235
 31
0.0
  0
LINE
  5
445
330
1F
100
AcDbEntity
  8
AM_VIS
100
AcDbLine
 10
1279.171198925211
 20
1033.748966378086
 30
0.0
 11
1279.171198925211
 21
1062.748966378086
 31
0.0
  0
LINE
  5
446
330
1F
100
AcDbEntity
  8
AM_VIS
100
AcDbLine
 10
1279.171198925211
 20
1062.748966378086
 30
0.0
 11
1307.671198925211
 21
1062.748966378086
 31
0.0
  0
LINE
  5
447
330
1F
100
AcDbEntity
  8
AM_VIS
100
AcDbLine
 10
1307.671198925211
 20
1032.748966378086
 30
0.0
 11
1312.671198925211
 21
1032.748966378086
 31
0.0
  0
LINE
  5
448
330
1F
100
AcDbEntity
  8
AM_VIS
100
AcDbLine
 10
1307.671198925211
 20
1063.748966378086
 30
0.0
 11
1312.671198925211
 21
1063.748966378086
 31
0.0
  0
LINE
  5
449
330
1F
100
AcDbEntity
  8
AM_VIS
100
AcDbLine
 10
1312.671198925211
 20
1032.748966378086
 30
0.0
 11
1312.671198925211
 21
1063.748966378086
 31
0.0
  0
LINE
  5
44A
330
1F
100
AcDbEntity
  8
AM_VIS
100
AcDbLine
 10
1307.671198925211
 20
1063.748966378086
 30
0.0
 11
1307.671198925211
 21
1032.748966378086
 31
0.0
  0
LINE
  5
44B
330
1F
100
AcDbEntity
  8
AM_VIS
100
AcDbLine
 10
1312.671198925211
 20
1062.498966378086
 30
0.0
 11
1338.171198925211
 21
1062.498966378086
 31
0.0
  0
LINE
  5
44C
330
1F
100
AcDbEntity
  8
AM_VIS
100
AcDbLine
 10
1338.171198925211
 20
1033.998966378086
 30
0.0
 11
1338.171198925211
 21
1062.498966378086
 31
0.0
  0
LINE
  5
44D
330
1F
100
AcDbEntity
  8
AM_VIS
100
AcDbLine
 10
1312.671198925211
 20
1033.998966378086
 30
0.0
 11
1338.171198925211
 21
1033.998966378086
 31
0.0
  0
LINE
  5
44E
330
1F
100
AcDbEntity
  8
AM_VIS
100
AcDbLine
 10
1340.018803232245
 20
1019.998966378086
 30
0.0
 11
1340.018803232245
 21
1014.998966378086
 31
0.0
  0
LINE
  5
44F
330
1F
100
AcDbEntity
  8
AM_VIS
100
AcDbLine
 10
1335.290001078728
 20
1014.998966378086
 30
0.0
 11
1340.018803232245
 21
1014.998966378086
 31
0.0
  0
LINE
  5
450
330
1F
100
AcDbEntity
  8
AM_VIS
100
AcDbLine
 10
1335.290001078728
 20
1019.998966378086
 30
0.0
 11
1335.290001078728
 21
1014.998966378086
 31
0.0
  0
LINE
  5
451
330
1F
100
AcDbEntity
  8
AM_VIS
100
AcDbLine
 10
1326.052396771694
 20
1014.998966378086
 30
0.0
 11
1335.290001078728
 21
1014.998966378086
 31
0.0
  0
LINE
  5
452
330
1F
100
AcDbEntity
  8
AM_VIS
100
AcDbLine
 10
1326.052396771694
 20
1019.998966378086
 30
0.0
 11
1326.052396771694
 21
1014.998966378086
 31
0.0
  0
LINE
  5
453
330
1F
100
AcDbEntity
  8
AM_VIS
100
AcDbLine
 10
1321.673594618177
 20
1014.998966378086
 30
0.0
 11
1326.052396771694
 21
1014.998966378086
 31
0.0
  0
LINE
  5
454
330
1F
100
AcDbEntity
  8
AM_VIS
100
AcDbLine
 10
1321.323594618177
 20
1019.998966378086
 30
0.0
 11
1321.323594618177
 21
1014.998966378086
 31
0.0
  0
LINE
  5
455
330
1F
100
AcDbEntity
  8
AM_VIS
100
AcDbLine
 10
1335.290001078728
 20
1019.998966378086
 30
0.0
 11
1340.018803232245
 21
1019.998966378086
 31
0.0
  0
LINE
  5
456
330
1F
100
AcDbEntity
  8
AM_VIS
100
AcDbLine
 10
1326.052396771694
 20
1019.998966378086
 30
0.0
 11
1335.290001078728
 21
1019.998966378086
 31
0.0
  0
LINE
  5
457
330
1F
100
AcDbEntity
  8
AM_VIS
100
AcDbLine
 10
1321.323594618177
 20
1019.998966378086
 30
0.0
 11
1326.052396771694
 21
1019.998966378086
 31
0.0
  0
LINE
  5
458
330
1F
100
AcDbEntity
  8
AM_VIS
100
AcDbLine
 10
1286.030535164056
 20
1033.748966378086
 30
0.0
 11
1279.171198925211
 21
1033.748966378086
 31
0.0
  0
LINE
  5
459
330
1F
100
AcDbEntity
  8
AM_VIS
100
AcDbLine
 10
1307.671198925211
 20
1033.748966378086
 30
0.0
 11
1294.023994720722
 21
1033.748966378086
 31
0.0
  0
LINE
  5
45A
330
1F
100
AcDbEntity
  8
AM_VIS
100
AcDbLine
 10
1299.926759879
 20
1033.748966378086
 30
0.0
 11
1299.926759879
 21
1025.748966378086
 31
0.0
  0
LINE
  5
45B
330
1F
100
AcDbEntity
  8
AM_VIS
100
AcDbLine
 10
1280.127770005777
 20
1033.748966378086
 30
0.0
 11
1280.127770005777
 21
1025.748966378086
 31
0.0
  0
LINE
  5
45C
330
1F
100
AcDbEntity
  8
AM_VIS
100
AcDbLine
 10
1294.023994720722
 20
1033.748966378086
 30
0.0
 11
1290.027264942389
 21
1033.748966378086
 31
0.0
  0
LINE
  5
45D
330
1F
100
AcDbEntity
  8
AM_VIS
100
AcDbLine
 10
1290.027264942389
 20
1033.748966378086
 30
0.0
 11
1286.030535164056
 21
1033.748966378086
 31
0.0
  0
LINE
  5
45E
330
1F
100
AcDbEntity
  8
AM_VIS
100
AcDbLine
 10
1290.027264942389
 20
1025.748966378086
 30
0.0
 11
1275.017928703544
 21
1025.748966378086
 31
0.0
  0
LINE
  5
45F
330
1F
100
AcDbEntity
  8
AM_VIS
100
AcDbLine
 10
1294.017928703544
 20
1012.447769133212
 30
0.0
 11
1294.017928703544
 21
995.2489663741529
 31
0.0
  0
LINE
  5
460
330
1F
100
AcDbEntity
  8
AM_VIS
100
AcDbLine
 10
1286.017928703544
 20
1010.472314425777
 30
0.0
 11
1286.017928703544
 21
995.2489663741529
 31
0.0
  0
LINE
  5
461
330
1F
100
AcDbEntity
  8
AM_VIS
100
AcDbLine
 10
1305.017928703544
 20
1025.748966378086
 30
0.0
 11
1305.017928703544
 21
1016.628966378086
 31
0.0
  0
LINE
  5
462
330
1F
100
AcDbEntity
  8
AM_VIS
100
AcDbLine
 10
1305.017928703544
 20
1016.753911504153
 30
0.0
 11
1310.517928703544
 21
1016.753911504153
 31
0.0
  0
LINE
  5
463
330
1F
100
AcDbEntity
  8
AM_VIS
100
AcDbLine
 10
1310.517928703544
 20
1006.938966378086
 30
0.0
 11
1310.517928703544
 21
1016.753911504153
 31
0.0
  0
LINE
  5
464
330
1F
100
AcDbEntity
  8
AM_VIS
100
AcDbLine
 10
1297.267928703544
 20
1006.938966378086
 30
0.0
 11
1297.267928703544
 21
1013.269874037946
 31
0.0
  0
SPLINE
  5
465
330
1F
100
AcDbEntity
  8
AM_VIS
100
AcDbSpline
210
0.0
220
0.0
230
1.0
 70
     8
 71
     3
 72
    14
 73
    10
 74
     0
 42
0.0000000001
 43
0.0000000001
 40
-4.195824929704484
 40
-4.195824929704484
 40
-4.195824929704484
 40
-4.195824929704484
 40
-2.836358997354841
 40
-2.836358997354841
 40
-1.66857676906295
 40
-1.66857676906295
 40
-0.742075906385896
 40
-0.742075906385896
 40
0.0
 40
0.0
 40
0.0
 40
0.0
 10
1297.267928703544
 20
1013.269874037946
 30
0.0
 10
1297.705132988493
 20
1013.410192220035
 30
0.0
 10
1298.133885525635
 20
1013.591389010745
 30
0.0
 10
1298.863102958483
 20
1014.029133118754
 30
0.0
 10
1299.177718040648
 20
1014.274406622999
 30
0.0
 10
1299.642848994052
 20
1014.800234243378
 30
0.0
 10
1299.813499991482
 20
1015.062990976648
 30
0.0
 10
1300.014877206729
 20
1015.582625576924
 30
0.0
 10
1300.064694352249
 20
1015.825629036239
 30
0.0
 10
1300.064694352249
 20
1016.072987671701
 30
0.0
  0
LINE
  5
466
330
1F
100
AcDbEntity
  8
AM_VIS
100
AcDbLine
 10
1297.267928703544
 20
1013.250297608107
 30
0.0
 11
1292.903085388536
 21
1012.172478823877
 31
0.0
  0
ARC
  5
467
330
1F
100
AcDbEntity
  8
AM_VIS
100
AcDbCircle
 10
1295.329305436555
 20
989.1766940369411
 30
0.0
 40
23.12342236107069
100
AcDbArc
 50
96.02283294238972
 51
111.7185119337926
  0
LINE
  5
468
330
1F
100
AcDbEntity
  8
AM_VIS
100
AcDbLine
 10
1286.77255385795
 20
1010.65865540248
 30
0.0
 11
1282.767928703544
 21
1009.669785950882
 31
0.0
  0
LINE
  5
469
330
1F
100
AcDbEntity
  8
AM_VIS
100
AcDbLine
 10
1300.064694352249
 20
1016.072987671701
 30
0.0
 11
1300.064694352249
 21
1016.628966378086
 31
0.0
  0
LINE
  5
46A
330
1F
100
AcDbEntity
  8
AM_VIS
100
AcDbLine
 10
1275.017928703544
 20
1016.628966378086
 30
0.0
 11
1305.017928703544
 21
1016.628966378086
 31
0.0
  0
LINE
  5
46B
330
1F
100
AcDbEntity
  8
AM_VIS
100
AcDbLine
 10
1275.017928703544
 20
1025.748966378086
 30
0.0
 11
1275.017928703544
 21
1016.628966378086
 31
0.0
  0
LINE
  5
46C
330
1F
100
AcDbEntity
  8
AM_VIS
100
AcDbLine
 10
1279.971163054839
 20
1016.628966378086
 30
0.0
 11
1279.971163054839
 21
1011.997278730717
 31
0.0
  0
SPLINE
  5
46D
330
1F
100
AcDbEntity
  8
AM_VIS
100
AcDbSpline
210
0.0
220
0.0
230
1.0
 70
     8
 71
     3
 72
    16
 73
    12
 74
     0
 42
0.0000000001
 43
0.0000000001
 40
-5.558827192953522
 40
-5.558827192953522
 40
-5.558827192953522
 40
-5.558827192953522
 40
-4.982331546383473
 40
-4.982331546383473
 40
-4.405864387591503
 40
-4.405864387591503
 40
-3.205702431354793
 40
-3.205702431354793
 40
-1.749998429473513
 40
-1.749998429473513
 40
-0.0502380079666758
 40
-0.0502380079666758
 40
-0.0502380079666758
 40
-0.0502380079666758
 10
1279.971163054839
 20
1011.997278730717
 30
0.0
 10
1279.971163054839
 20
1011.877350448221
 30
0.0
 10
1279.982903163933
 20
1011.758059486874
 30
0.0
 10
1280.030468614067
 20
1011.522997125251
 30
0.0
 10
1280.066025884291
 20
1011.408549133698
 30
0.0
 10
1280.21040446151
 20
1011.068347564781
 30
0.0
 10
1280.353643034243
 20
1010.863429468015
 30
0.0
 10
1280.745831534561
 20
1010.472886350261
 30
0.0
 10
1281.019863667817
 20
1010.291405959206
 30
0.0
 10
1281.735290370671
 20
1009.995932626619
 30
0.0
 10
1282.206683074317
 20
1009.894328909056
 30
0.0
 10
1282.767928703544
 20
1009.88347243752
 30
0.0
  0
LINE
  5
46E
330
1F
100
AcDbEntity
  8
AM_VIS
100
AcDbLine
 10
1269.517928703544
 20
1016.753911504153
 30
0.0
 11
1269.517928703544
 21
1006.938966374153
 31
0.0
  0
LINE
  5
46F
330
1F
100
AcDbEntity
  8
AM_VIS
100
AcDbLine
 10
1275.017928703544
 20
1016.753911504153
 30
0.0
 11
1269.517928703544
 21
1016.753911504153
 31
0.0
  0
LINE
  5
470
330
1F
100
AcDbEntity
  8
AM_VIS
100
AcDbLine
 10
1282.767928703544
 20
1009.88347243752
 30
0.0
 11
1282.767928703544
 21
1006.938966374153
 31
0.0
  0
LINE
  5
471
330
1F
100
AcDbEntity
  8
AM_VIS
100
AcDbLine
 10
1321.321198925211
 20
1033.998966378086
 30
0.0
 11
1321.321198925211
 21
1021.998966378086
 31
0.0
  0
LINE
  5
472
330
1F
100
AcDbEntity
  8
AM_VIS
100
AcDbLine
 10
1340.021198925211
 20
1033.998966378086
 30
0.0
 11
1340.021198925211
 21
1021.998966378086
 31
0.0
  0
LINE
  5
473
330
1F
100
AcDbEntity
  8
AM_VIS
100
AcDbLine
 10
1323.921198925211
 20
1021.998966378086
 30
0.0
 11
1323.921198925211
 21
1019.998966378086
 31
0.0
  0
LINE
  5
474
330
1F
100
AcDbEntity
  8
AM_VIS
100
AcDbLine
 10
1337.421198925211
 20
1021.998966378086
 30
0.0
 11
1337.421198925211
 21
1019.998966378086
 31
0.0
  0
LINE
  5
475
330
1F
100
AcDbEntity
  8
AM_VIS
100
AcDbLine
 10
1294.171198925211
 20
1062.748966378086
 30
0.0
 11
1294.171198925211
 21
1064.748966378086
 31
0.0
  0
ARC
  5
476
330
1F
100
AcDbEntity
  8
AM_VIS
100
AcDbCircle
 10
1293.671198925211
 20
1064.748966378086
 30
0.0
 40
0.5
100
AcDbArc
 50
0.0
 51
90.0
  0
LINE
  5
477
330
1F
100
AcDbEntity
  8
AM_VIS
100
AcDbLine
 10
1285.671198925211
 20
1062.748966378086
 30
0.0
 11
1285.671198925211
 21
1064.748966378086
 31
0.0
  0
ARC
  5
478
330
1F
100
AcDbEntity
  8
AM_VIS
100
AcDbCircle
 10
1286.171198925211
 20
1064.748966378086
 30
0.0
 40
0.5
100
AcDbArc
 50
90.0
 51
180.0
  0
LINE
  5
479
330
1F
100
AcDbEntity
  8
AM_VIS
100
AcDbLine
 10
1286.017928703544
 20
998.9209321703702
 30
0.0
 11
1282.767928703544
 21
998.9209321703702
 31
0.0
  0
LINE
  5
47A
330
1F
100
AcDbEntity
  8
AM_VIS
100
AcDbLine
 10
1297.267928703544
 20
998.9209321703702
 30
0.0
 11
1294.017928703544
 21
998.9209321703702
 31
0.0
  0
LINE
  5
47B
330
1F
100
AcDbEntity
  8
AM_VIS
100
AcDbLine
 10
1297.267928703544
 20
995.2489663780861
 30
0.0
 11
1310.517928703544
 21
995.2489663780861
 31
0.0
  0
LINE
  5
47C
330
1F
100
AcDbEntity
  8
AM_VIS
100
AcDbLine
 10
1282.767928703544
 20
995.2489663741529
 30
0.0
 11
1269.517928703544
 21
995.2489663741529
 31
0.0
  0
LINE
  5
47D
330
1F
100
AcDbEntity
  8
AM_VIS
100
AcDbLine
 10
1321.321198925211
 20
1033.998966378086
 30
0.0
 11
1340.021198925211
 21
1033.998966378086
 31
0.0
  0
LINE
  5
47E
330
1F
100
AcDbEntity
  8
AM_VIS
100
AcDbLine
 10
1340.021198925211
 20
1021.998966378086
 30
0.0
 11
1321.321198925211
 21
1021.998966378086
 31
0.0
  0
LINE
  5
47F
330
1F
100
AcDbEntity
  8
AM_VIS
100
AcDbLine
 10
1286.171198925211
 20
1065.248966378086
 30
0.0
 11
1293.671198925211
 21
1065.248966378086
 31
0.0
  0
LINE
  5
480
330
1F
100
AcDbEntity
  8
AM_VIS
100
AcDbLine
 10
1310.517928703544
 20
1006.938966378086
 30
0.0
 11
1310.517928703544
 21
995.2489663780861
 31
0.0
  0
LINE
  5
481
330
1F
100
AcDbEntity
  8
AM_VIS
100
AcDbLine
 10
1297.267928703544
 20
1006.938966378086
 30
0.0
 11
1297.267928703544
 21
995.2489663780861
 31
0.0
  0
LINE
  5
482
330
1F
100
AcDbEntity
  8
AM_VIS
100
AcDbLine
 10
1269.517928703544
 20
995.2489663741529
 30
0.0
 11
1269.517928703544
 21
1006.938966374153
 31
0.0
  0
LINE
  5
483
330
1F
100
AcDbEntity
  8
AM_VIS
100
AcDbLine
 10
1282.767928703544
 20
995.2489663741529
 30
0.0
 11
1282.767928703544
 21
1006.938966374153
 31
0.0
  0
LINE
  5
484
330
1F
100
AcDbEntity
  8
AM_VIS
100
AcDbLine
 10
1211.968992312545
 20
1062.748966378086
 30
0.0
 11
1211.968992312545
 21
1033.748966378086
 31
0.0
  0
LINE
  5
485
330
1F
100
AcDbEntity
  8
AM_VIS
100
AcDbLine
 10
1233.968992312545
 20
1033.748966378086
 30
0.0
 11
1233.968992312545
 21
1062.748966378086
 31
0.0
  0
LINE
  5
486
330
1F
100
AcDbEntity
  8
AM_VIS
100
AcDbLine
 10
1211.968992312545
 20
1062.748966378086
 30
0.0
 11
1233.968992312545
 21
1062.748966378086
 31
0.0
  0
LINE
  5
487
330
1F
100
AcDbEntity
  8
AM_VIS
100
AcDbLine
 10
1211.468992312545
 20
1033.748966378086
 30
0.0
 11
1211.468992312545
 21
1063.748966378086
 31
0.0
  0
LINE
  5
488
330
1F
100
AcDbEntity
  8
AM_VIS
100
AcDbLine
 10
1211.468992312545
 20
1063.748966378086
 30
0.0
 11
1218.618992312545
 21
1063.748966378086
 31
0.0
  0
LINE
  5
489
330
1F
100
AcDbEntity
  8
AM_VIS
100
AcDbLine
 10
1227.118992312545
 20
1063.748966378086
 30
0.0
 11
1234.468992312545
 21
1063.748966378086
 31
0.0
  0
LINE
  5
48A
330
1F
100
AcDbEntity
  8
AM_VIS
100
AcDbLine
 10
1234.468992312545
 20
1063.748966378086
 30
0.0
 11
1234.468992312545
 21
1033.748966378086
 31
0.0
  0
LINE
  5
48B
330
1F
100
AcDbEntity
  8
AM_VIS
100
AcDbLine
 10
1211.968992312545
 20
1033.748966378086
 30
0.0
 11
1233.968992312545
 21
1033.748966378086
 31
0.0
  0
LINE
  5
48C
330
1F
100
AcDbEntity
  8
AM_VIS
100
AcDbLine
 10
1237.965722090878
 20
1033.748966378086
 30
0.0
 11
1237.965722090878
 21
1025.748966378086
 31
0.0
  0
LINE
  5
48D
330
1F
100
AcDbEntity
  8
AM_VIS
100
AcDbLine
 10
1228.066227154266
 20
1033.748966378086
 30
0.0
 11
1228.066227154266
 21
1025.748966378086
 31
0.0
  0
LINE
  5
48E
330
1F
100
AcDbEntity
  8
AM_VIS
100
AcDbLine
 10
1223.11647968596
 20
1033.748966378086
 30
0.0
 11
1223.11647968596
 21
1025.748966378086
 31
0.0
  0
LINE
  5
48F
330
1F
100
AcDbEntity
  8
AM_VIS
100
AcDbLine
 10
1218.166732217655
 20
1033.748966378086
 30
0.0
 11
1218.166732217655
 21
1025.748966378086
 31
0.0
  0
LINE
  5
490
330
1F
100
AcDbEntity
  8
AM_VIS
100
AcDbLine
 10
1208.267237281043
 20
1033.748966378086
 30
0.0
 11
1208.267237281043
 21
1025.748966378086
 31
0.0
  0
LINE
  5
491
330
1F
100
AcDbEntity
  8
AM_VIS
100
AcDbLine
 10
1211.968992312545
 20
1033.748966378086
 30
0.0
 11
1208.267237281043
 21
1033.748966378086
 31
0.0
  0
LINE
  5
492
330
1F
100
AcDbEntity
  8
AM_VIS
100
AcDbLine
 10
1237.965722090878
 20
1033.748966378086
 30
0.0
 11
1233.968992312545
 21
1033.748966378086
 31
0.0
  0
LINE
  5
493
330
1F
100
AcDbEntity
  8
AM_VIS
100
AcDbLine
 10
1237.868992312545
 20
1025.748966378086
 30
0.0
 11
1237.965722090878
 21
1025.748966378086
 31
0.0
  0
LINE
  5
494
330
1F
100
AcDbEntity
  8
AM_VIS
100
AcDbLine
 10
1207.868992312545
 20
1025.748966378086
 30
0.0
 11
1207.868992312545
 21
1016.628966378086
 31
0.0
  0
LINE
  5
495
330
1F
100
AcDbEntity
  8
AM_VIS
100
AcDbLine
 10
1237.868992312545
 20
1025.748966378086
 30
0.0
 11
1207.868992312545
 21
1025.748966378086
 31
0.0
  0
LINE
  5
496
330
1F
100
AcDbEntity
  8
AM_VIS
100
AcDbLine
 10
1237.868992312545
 20
1025.748966378086
 30
0.0
 11
1237.868992312545
 21
1016.628966378086
 31
0.0
  0
LINE
  5
497
330
1F
100
AcDbEntity
  8
AM_VIS
100
AcDbLine
 10
1232.618992312545
 20
1016.753911504153
 30
0.0
 11
1232.618992312545
 21
1005.998966374153
 31
0.0
  0
LINE
  5
498
330
1F
100
AcDbEntity
  8
AM_VIS
100
AcDbLine
 10
1213.118992312545
 20
1005.998966374153
 30
0.0
 11
1213.118992312545
 21
1016.753911504153
 31
0.0
  0
LINE
  5
499
330
1F
100
AcDbEntity
  8
AM_VIS
100
AcDbLine
 10
1227.118992312545
 20
1062.748966378086
 30
0.0
 11
1227.118992312545
 21
1064.748966378086
 31
0.0
  0
ARC
  5
49A
330
1F
100
AcDbEntity
  8
AM_VIS
100
AcDbCircle
 10
1226.618992312545
 20
1064.748966378086
 30
0.0
 40
0.5
100
AcDbArc
 50
0.0
 51
90.0
  0
LINE
  5
49B
330
1F
100
AcDbEntity
  8
AM_VIS
100
AcDbLine
 10
1218.618992312545
 20
1062.748966378086
 30
0.0
 11
1218.618992312545
 21
1064.748966378086
 31
0.0
  0
ARC
  5
49C
330
1F
100
AcDbEntity
  8
AM_VIS
100
AcDbCircle
 10
1219.118992312545
 20
1064.748966378086
 30
0.0
 40
0.5
100
AcDbArc
 50
90.0
 51
180.0
  0
LINE
  5
49D
330
1F
100
AcDbEntity
  8
AM_VIS
100
AcDbLine
 10
1208.868992312545
 20
1016.628966378086
 30
0.0
 11
1208.868992312545
 21
1013.095133201209
 31
0.0
  0
SPLINE
  5
49E
330
1F
100
AcDbEntity
  8
AM_VIS
100
AcDbSpline
210
0.0
220
0.0
230
1.0
 70
     8
 71
     1
 72
     7
 73
     5
 74
     0
 42
0.0000000001
 43
0.0000000001
 40
0.1419532845491666
 40
0.1419532845491666
 40
5.157850780453907
 40
7.331406894292795
 40
8.503339673647616
 40
9.719551069467112
 40
9.719551069467112
 10
1213.118992312545
 20
1008.94243370818
 30
0.0
 10
1210.25232328042
 20
1010.359563433794
 30
0.0
 10
1209.325499847288
 20
1011.43320714814
 30
0.0
 10
1208.995577854433
 20
1012.201922819933
 30
0.0
 10
1208.868992312545
 20
1013.095133201209
 30
0.0
  0
LINE
  5
49F
330
1F
100
AcDbEntity
  8
AM_VIS
100
AcDbLine
 10
1235.368992312545
 20
1010.264956226264
 30
0.0
 11
1235.368992312545
 21
995.2489663741529
 31
0.0
  0
LINE
  5
4A0
330
1F
100
AcDbEntity
  8
AM_VIS
100
AcDbLine
 10
1210.368992312545
 20
1010.26545041291
 30
0.0
 11
1210.368992312545
 21
995.2489663741529
 31
0.0
  0
SPLINE
  5
4A1
330
1F
100
AcDbEntity
  8
AM_VIS
100
AcDbSpline
210
0.0
220
0.0
230
1.0
 70
     8
 71
     1
 72
     7
 73
     5
 74
     0
 42
0.0000000001
 43
0.0000000001
 40
0.0
 40
0.0
 40
1.853660956361564
 40
3.681410728395855
 40
6.020882776536586
 40
9.582867439152551
 40
9.582867439152551
 10
1236.868992312545
 20
1013.095133201209
 30
0.0
 10
1236.582867062199
 20
1011.765464716575
 30
0.0
 10
1235.890702441632
 20
1010.738612522339
 30
0.0
 10
1234.747975521802
 20
1009.845755903789
 30
0.0
 10
1232.618992312545
 20
1008.942481687672
 30
0.0
  0
LINE
  5
4A2
330
1F
100
AcDbEntity
  8
AM_VIS
100
AcDbLine
 10
1236.868992312545
 20
1016.628966378086
 30
0.0
 11
1236.868992312545
 21
1013.095133201209
 31
0.0
  0
LINE
  5
4A3
330
1F
100
AcDbEntity
  8
AM_VIS
100
AcDbLine
 10
1219.118992312545
 20
1065.248966378086
 30
0.0
 11
1226.618992312545
 21
1065.248966378086
 31
0.0
  0
ARC
  5
4A4
330
1F
100
AcDbEntity
  8
AM_VIS
100
AcDbCircle
 10
1222.868992312545
 20
1004.998966374152
 30
0.0
 40
9.75
100
AcDbArc
 50
180.0
 51
0.0
  0
CIRCLE
  5
4A5
330
1F
100
AcDbEntity
  8
AM_VIS
100
AcDbCircle
 10
1222.868992312545
 20
1005.998966378086
 30
0.0
 40
5.5
  0
LINE
  5
4A6
330
1F
100
AcDbEntity
  8
AM_7
100
AcDbLine
 10
1288.921198925211
 20
946.4983486162816
 30
0.0
 11
1290.921198925211
 21
946.4983486162816
 31
0.0
  0
LINE
  5
4A7
330
1F
100
AcDbEntity
  8
AM_7
 62
     1
100
AcDbLine
 10
1289.921198925211
 20
945.4983486162817
 30
0.0
 11
1289.921198925211
 21
947.4983486162816
 31
0.0
  0
LINE
  5
4A8
330
1F
100
AcDbEntity
  8
AM_7
 62
     1
100
AcDbLine
 10
1289.921198925211
 20
930.4983486162816
 30
0.0
 11
1289.921198925211
 21
944.4983486162817
 31
0.0
  0
LINE
  5
4A9
330
1F
100
AcDbEntity
  8
AM_7
 62
     1
100
AcDbLine
 10
1289.921198925211
 20
948.4983486162816
 30
0.0
 11
1289.921198925211
 21
962.4983486162816
 31
0.0
  0
LINE
  5
4AA
330
1F
100
AcDbEntity
  8
AM_7
 62
     1
100
AcDbLine
 10
1267.671198925211
 20
946.4983486162818
 30
0.0
 11
1312.171198925211
 21
946.4983486162818
 31
0.0
  0
LINE
  5
4AB
330
1F
100
AcDbEntity
  8
AM_7
 62
     1
100
AcDbLine
 10
1329.781198925211
 20
946.5983486162816
 30
0.0
 11
1331.781198925211
 21
946.5983486162816
 31
0.0
  0
LINE
  5
4AC
330
1F
100
AcDbEntity
  8
AM_7
 62
     1
100
AcDbLine
 10
1319.781198925211
 20
946.5983486162816
 30
0.0
 11
1328.781198925211
 21
946.5983486162816
 31
0.0
  0
LINE
  5
4AD
330
1F
100
AcDbEntity
  8
AM_7
 62
     1
100
AcDbLine
 10
1332.781198925211
 20
946.5983486162816
 30
0.0
 11
1341.781198925211
 21
946.5983486162816
 31
0.0
  0
LINE
  5
4AE
330
1F
100
AcDbEntity
  8
AM_7
 62
     1
100
AcDbLine
 10
1288.921198925211
 20
954.9983486162815
 30
0.0
 11
1290.921198925211
 21
954.9983486162815
 31
0.0
  0
LINE
  5
4AF
330
1F
100
AcDbEntity
  8
AM_7
 62
     1
100
AcDbLine
 10
1289.921198925211
 20
953.9983486162817
 30
0.0
 11
1289.921198925211
 21
955.9983486162817
 31
0.0
  0
LINE
  5
4B0
330
1F
100
AcDbEntity
  8
AM_7
 62
     1
100
AcDbLine
 10
1283.921198925211
 20
954.9983486162815
 30
0.0
 11
1287.921198925211
 21
954.9983486162815
 31
0.0
  0
LINE
  5
4B1
330
1F
100
AcDbEntity
  8
AM_7
 62
     1
100
AcDbLine
 10
1291.921198925211
 20
954.9983486162815
 30
0.0
 11
1295.921198925211
 21
954.9983486162815
 31
0.0
  0
LINE
  5
4B2
330
1F
100
AcDbEntity
  8
AM_7
 62
     1
100
AcDbLine
 10
1288.921198925211
 20
937.9983486162817
 30
0.0
 11
1290.921198925211
 21
937.9983486162817
 31
0.0
  0
LINE
  5
4B3
330
1F
100
AcDbEntity
  8
AM_7
 62
     1
100
AcDbLine
 10
1289.921198925211
 20
936.9983486162817
 30
0.0
 11
1289.921198925211
 21
938.9983486162817
 31
0.0
  0
LINE
  5
4B4
330
1F
100
AcDbEntity
  8
AM_7
 62
     1
100
AcDbLine
 10
1283.921198925211
 20
937.9983486162817
 30
0.0
 11
1287.921198925211
 21
937.9983486162817
 31
0.0
  0
LINE
  5
4B5
330
1F
100
AcDbEntity
  8
AM_7
 62
     1
100
AcDbLine
 10
1291.921198925211
 20
937.9983486162817
 30
0.0
 11
1295.921198925211
 21
937.9983486162817
 31
0.0
  0
LINE
  5
4B6
330
1F
100
AcDbEntity
  8
AM_7
 62
     1
100
AcDbLine
 10
1289.921198925211
 20
931.9983486162817
 30
0.0
 11
1289.921198925211
 21
935.9983486162818
 31
0.0
  0
LINE
  5
4B7
330
1F
100
AcDbEntity
  8
AM_7
 62
     1
100
AcDbLine
 10
1299.921198925211
 20
957.5467135054481
 30
0.0
 11
1301.921198925211
 21
957.5467135054481
 31
0.0
  0
LINE
  5
4B8
330
1F
100
AcDbEntity
  8
AM_7
 62
     1
100
AcDbLine
 10
1300.921198925211
 20
956.5467135054481
 30
0.0
 11
1300.921198925211
 21
958.546713505448
 31
0.0
  0
LINE
  5
4B9
330
1F
100
AcDbEntity
  8
AM_7
 62
     1
100
AcDbLine
 10
1297.421198925211
 20
957.5467135054481
 30
0.0
 11
1298.921198925211
 21
957.5467135054481
 31
0.0
  0
LINE
  5
4BA
330
1F
100
AcDbEntity
  8
AM_7
 62
     1
100
AcDbLine
 10
1302.921198925211
 20
957.5467135054481
 30
0.0
 11
1304.421198925211
 21
957.5467135054481
 31
0.0
  0
LINE
  5
4BB
330
1F
100
AcDbEntity
  8
AM_7
 62
     1
100
AcDbLine
 10
1300.921198925211
 20
954.046713505448
 30
0.0
 11
1300.921198925211
 21
955.5467135054481
 31
0.0
  0
LINE
  5
4BC
330
1F
100
AcDbEntity
  8
AM_7
 62
     1
100
AcDbLine
 10
1300.921198925211
 20
959.546713505448
 30
0.0
 11
1300.921198925211
 21
961.0467135054481
 31
0.0
  0
LINE
  5
4BD
330
1F
100
AcDbEntity
  8
AM_7
 62
     1
100
AcDbLine
 10
1277.921198925211
 20
935.546713505448
 30
0.0
 11
1279.921198925211
 21
935.546713505448
 31
0.0
  0
LINE
  5
4BE
330
1F
100
AcDbEntity
  8
AM_7
 62
     1
100
AcDbLine
 10
1278.921198925211
 20
934.546713505448
 30
0.0
 11
1278.921198925211
 21
936.5467135054482
 31
0.0
  0
LINE
  5
4BF
330
1F
100
AcDbEntity
  8
AM_7
 62
     1
100
AcDbLine
 10
1275.421198925211
 20
935.546713505448
 30
0.0
 11
1276.921198925211
 21
935.546713505448
 31
0.0
  0
LINE
  5
4C0
330
1F
100
AcDbEntity
  8
AM_7
 62
     1
100
AcDbLine
 10
1280.921198925211
 20
935.546713505448
 30
0.0
 11
1282.421198925211
 21
935.546713505448
 31
0.0
  0
LINE
  5
4C1
330
1F
100
AcDbEntity
  8
AM_7
 62
     1
100
AcDbLine
 10
1278.921198925211
 20
932.0467135054482
 30
0.0
 11
1278.921198925211
 21
933.546713505448
 31
0.0
  0
LINE
  5
4C2
330
1F
100
AcDbEntity
  8
AM_7
 62
     1
100
AcDbLine
 10
1278.921198925211
 20
937.5467135054481
 30
0.0
 11
1278.921198925211
 21
939.046713505448
 31
0.0
  0
LINE
  5
4C3
330
1F
100
AcDbEntity
  8
AM_7
 62
     1
100
AcDbLine
 10
1299.921198925211
 20
935.546713505448
 30
0.0
 11
1301.921198925211
 21
935.546713505448
 31
0.0
  0
LINE
  5
4C4
330
1F
100
AcDbEntity
  8
AM_7
 62
     1
100
AcDbLine
 10
1300.921198925211
 20
934.546713505448
 30
0.0
 11
1300.921198925211
 21
936.5467135054482
 31
0.0
  0
LINE
  5
4C5
330
1F
100
AcDbEntity
  8
AM_7
 62
     1
100
AcDbLine
 10
1297.421198925211
 20
935.546713505448
 30
0.0
 11
1298.921198925211
 21
935.546713505448
 31
0.0
  0
LINE
  5
4C6
330
1F
100
AcDbEntity
  8
AM_7
 62
     1
100
AcDbLine
 10
1302.921198925211
 20
935.546713505448
 30
0.0
 11
1304.421198925211
 21
935.546713505448
 31
0.0
  0
LINE
  5
4C7
330
1F
100
AcDbEntity
  8
AM_7
 62
     1
100
AcDbLine
 10
1300.921198925211
 20
932.0467135054482
 30
0.0
 11
1300.921198925211
 21
933.546713505448
 31
0.0
  0
LINE
  5
4C8
330
1F
100
AcDbEntity
  8
AM_7
 62
     1
100
AcDbLine
 10
1300.921198925211
 20
937.5467135054481
 30
0.0
 11
1300.921198925211
 21
939.046713505448
 31
0.0
  0
LINE
  5
4C9
330
1F
100
AcDbEntity
  8
AM_7
 62
     1
100
AcDbLine
 10
1277.921198925211
 20
957.5467135054481
 30
0.0
 11
1279.921198925211
 21
957.5467135054481
 31
0.0
  0
LINE
  5
4CA
330
1F
100
AcDbEntity
  8
AM_7
 62
     1
100
AcDbLine
 10
1278.921198925211
 20
956.5467135054481
 30
0.0
 11
1278.921198925211
 21
958.546713505448
 31
0.0
  0
LINE
  5
4CB
330
1F
100
AcDbEntity
  8
AM_7
 62
     1
100
AcDbLine
 10
1275.421198925211
 20
957.5467135054481
 30
0.0
 11
1276.921198925211
 21
957.5467135054481
 31
0.0
  0
LINE
  5
4CC
330
1F
100
AcDbEntity
  8
AM_7
 62
     1
100
AcDbLine
 10
1280.921198925211
 20
957.5467135054481
 30
0.0
 11
1282.421198925211
 21
957.5467135054481
 31
0.0
  0
LINE
  5
4CD
330
1F
100
AcDbEntity
  8
AM_7
 62
     1
100
AcDbLine
 10
1278.921198925211
 20
954.046713505448
 30
0.0
 11
1278.921198925211
 21
955.5467135054481
 31
0.0
  0
LINE
  5
4CE
330
1F
100
AcDbEntity
  8
AM_7
 62
     1
100
AcDbLine
 10
1278.921198925211
 20
959.546713505448
 30
0.0
 11
1278.921198925211
 21
961.0467135054481
 31
0.0
  0
LINE
  5
4CF
330
1F
100
AcDbEntity
  8
AM_VIS
100
AcDbLine
 10
1312.671198925211
 20
935.0983486162816
 30
0.0
 11
1312.671198925211
 21
958.0983486162816
 31
0.0
  0
LINE
  5
4D0
330
1F
100
AcDbEntity
  8
AM_VIS
100
AcDbLine
 10
1307.671198925211
 20
935.0983486162816
 30
0.0
 11
1312.671198925211
 21
935.0983486162816
 31
0.0
  0
LINE
  5
4D1
330
1F
100
AcDbEntity
  8
AM_VIS
100
AcDbLine
 10
1307.671198925211
 20
958.0983486162816
 30
0.0
 11
1312.671198925211
 21
958.0983486162816
 31
0.0
  0
LINE
  5
4D2
330
1F
100
AcDbEntity
  8
AM_VIS
100
AcDbLine
 10
1307.671198925211
 20
958.0983486162816
 30
0.0
 11
1307.671198925211
 21
956.2483486162816
 31
0.0
  0
LINE
  5
4D3
330
1F
100
AcDbEntity
  8
AM_VIS
100
AcDbLine
 10
1307.671198925211
 20
936.7483486162818
 30
0.0
 11
1307.671198925211
 21
935.0983486162816
 31
0.0
  0
LINE
  5
4D4
330
1F
100
AcDbEntity
  8
AM_VIS
100
AcDbLine
 10
1338.171198925211
 20
936.3483486162817
 30
0.0
 11
1338.171198925211
 21
943.3982040842158
 31
0.0
  0
LINE
  5
4D5
330
1F
100
AcDbEntity
  8
AM_VIS
100
AcDbLine
 10
1312.671198925211
 20
936.3483486162817
 30
0.0
 11
1338.171198925211
 21
936.3483486162817
 31
0.0
  0
LINE
  5
4D6
330
1F
100
AcDbEntity
  8
AM_VIS
100
AcDbLine
 10
1312.671198925211
 20
956.8483486162817
 30
0.0
 11
1338.171198925211
 21
956.8483486162817
 31
0.0
  0
LINE
  5
4D7
330
1F
100
AcDbEntity
  8
AM_VIS
100
AcDbLine
 10
1338.171198925211
 20
949.7984931483477
 30
0.0
 11
1338.171198925211
 21
956.8483486162817
 31
0.0
  0
LINE
  5
4D8
330
1F
100
AcDbEntity
  8
AM_VIS
100
AcDbLine
 10
1335.400001078728
 20
938.5983486162816
 30
0.0
 11
1325.942396771694
 21
938.5983486162816
 31
0.0
  0
LINE
  5
4D9
330
1F
100
AcDbEntity
  8
AM_VIS
100
AcDbLine
 10
1340.018803232245
 20
946.5983486162816
 30
0.0
 11
1335.400001078728
 21
938.5983486162816
 31
0.0
  0
LINE
  5
4DA
330
1F
100
AcDbEntity
  8
AM_VIS
100
AcDbLine
 10
1335.400001078728
 20
954.5983486162818
 30
0.0
 11
1340.018803232245
 21
946.5983486162816
 31
0.0
  0
LINE
  5
4DB
330
1F
100
AcDbEntity
  8
AM_VIS
100
AcDbLine
 10
1325.942396771694
 20
954.5983486162818
 30
0.0
 11
1335.400001078728
 21
954.5983486162818
 31
0.0
  0
LINE
  5
4DC
330
1F
100
AcDbEntity
  8
AM_VIS
100
AcDbLine
 10
1321.323594618177
 20
946.5983486162816
 30
0.0
 11
1325.942396771694
 21
954.5983486162818
 31
0.0
  0
LINE
  5
4DD
330
1F
100
AcDbEntity
  8
AM_VIS
100
AcDbLine
 10
1325.942396771694
 20
938.5983486162816
 30
0.0
 11
1321.323594618177
 21
946.5983486162816
 31
0.0
  0
LINE
  5
4DE
330
1F
100
AcDbEntity
  8
AM_VIS
100
AcDbLine
 10
1307.671198925211
 20
957.5983486162817
 30
0.0
 11
1304.921198925211
 21
957.5983486162817
 31
0.0
  0
LINE
  5
4DF
330
1F
100
AcDbEntity
  8
AM_VIS
100
AcDbLine
 10
1304.921198925211
 20
935.5983486162816
 30
0.0
 11
1307.671198925211
 21
935.5983486162816
 31
0.0
  0
LINE
  5
4E0
330
1F
100
AcDbEntity
  8
AM_VIS
100
AcDbLine
 10
1289.930535164056
 20
961.4983486162817
 30
0.0
 11
1290.027264942389
 21
961.5950783946145
 31
0.0
  0
LINE
  5
4E1
330
1F
100
AcDbEntity
  8
AM_VIS
100
AcDbLine
 10
1290.027264942389
 20
961.5950783946145
 30
0.0
 11
1290.123994720722
 21
961.4983486162817
 31
0.0
  0
LINE
  5
4E2
330
1F
100
AcDbEntity
  8
AM_VIS
100
AcDbLine
 10
1304.921198925211
 20
931.4983486162816
 30
0.0
 11
1274.921198925211
 21
931.4983486162816
 31
0.0
  0
ARC
  5
4E3
330
1F
100
AcDbEntity
  8
AM_VIS
100
AcDbCircle
 10
1289.921198925211
 20
946.4983486162816
 30
0.0
 40
14.0
100
AcDbArc
 50
224.1411654818821
 51
315.8588345181179
  0
LINE
  5
4E4
330
1F
100
AcDbEntity
  8
AM_VIS
100
AcDbLine
 10
1293.921198925211
 20
954.9983486162815
 30
0.0
 11
1293.921198925211
 21
937.9983486162815
 31
0.0
  0
LINE
  5
4E5
330
1F
100
AcDbEntity
  8
AM_VIS
100
AcDbLine
 10
1285.921198925211
 20
937.9983486162815
 30
0.0
 11
1285.921198925211
 21
954.9983486162815
 31
0.0
  0
LINE
  5
4E6
330
1F
100
AcDbEntity
  8
AM_VIS
100
AcDbLine
 10
1304.921198925211
 20
936.7483486162818
 30
0.0
 11
1304.921198925211
 21
931.4983486162818
 31
0.0
  0
LINE
  5
4E7
330
1F
100
AcDbEntity
  8
AM_VIS
100
AcDbLine
 10
1297.171198925211
 20
936.7483486162818
 30
0.0
 11
1310.421198925211
 21
936.7483486162818
 31
0.0
  0
LINE
  5
4E8
330
1F
100
AcDbEntity
  8
AM_VIS
100
AcDbLine
 10
1297.171198925211
 20
956.2483486162816
 30
0.0
 11
1310.421198925211
 21
956.2483486162816
 31
0.0
  0
ARC
  5
4E9
330
1F
100
AcDbEntity
  8
AM_VIS
100
AcDbCircle
 10
1289.921198925211
 20
946.4983486162816
 30
0.0
 40
14.0
100
AcDbArc
 50
44.14116548188213
 51
135.8588345181178
  0
LINE
  5
4EA
330
1F
100
AcDbEntity
  8
AM_VIS
100
AcDbLine
 10
1274.921198925211
 20
961.4983486162817
 30
0.0
 11
1304.921198925211
 21
961.4983486162817
 31
0.0
  0
LINE
  5
4EB
330
1F
100
AcDbEntity
  8
AM_VIS
100
AcDbLine
 10
1304.921198925211
 20
961.4983486162817
 30
0.0
 11
1304.921198925211
 21
956.2483486162816
 31
0.0
  0
LINE
  5
4EC
330
1F
100
AcDbEntity
  8
AM_VIS
100
AcDbLine
 10
1274.921198925211
 20
931.4983486162816
 30
0.0
 11
1274.921198925211
 21
936.7483486162816
 31
0.0
  0
LINE
  5
4ED
330
1F
100
AcDbEntity
  8
AM_VIS
100
AcDbLine
 10
1274.921198925211
 20
956.2483486162816
 30
0.0
 11
1274.921198925211
 21
961.4983486162817
 31
0.0
  0
LINE
  5
4EE
330
1F
100
AcDbEntity
  8
AM_VIS
100
AcDbLine
 10
1282.671198925211
 20
956.2483486162816
 30
0.0
 11
1269.421198925211
 21
956.2483486162816
 31
0.0
  0
LINE
  5
4EF
330
1F
100
AcDbEntity
  8
AM_VIS
100
AcDbLine
 10
1282.671198925211
 20
936.7483486162816
 30
0.0
 11
1269.421198925211
 21
936.7483486162816
 31
0.0
  0
LINE
  5
4F0
330
1F
100
AcDbEntity
  8
AM_VIS
100
AcDbLine
 10
1285.921198925211
 20
954.4983486162816
 30
0.0
 11
1282.671198925211
 21
954.4983486162816
 31
0.0
  0
LINE
  5
4F1
330
1F
100
AcDbEntity
  8
AM_VIS
100
AcDbLine
 10
1285.921198925211
 20
938.4983486162816
 30
0.0
 11
1282.671198925211
 21
938.4983486162816
 31
0.0
  0
LINE
  5
4F2
330
1F
100
AcDbEntity
  8
AM_VIS
100
AcDbLine
 10
1297.171198925211
 20
954.4983486162816
 30
0.0
 11
1293.921198925211
 21
954.4983486162816
 31
0.0
  0
LINE
  5
4F3
330
1F
100
AcDbEntity
  8
AM_VIS
100
AcDbLine
 10
1297.171198925211
 20
938.4983486162816
 30
0.0
 11
1293.921198925211
 21
938.4983486162816
 31
0.0
  0
CIRCLE
  5
4F4
330
1F
100
AcDbEntity
  8
AM_VIS
100
AcDbCircle
 10
1330.781198925211
 20
946.5983486162816
 30
0.0
 40
5.0
  0
ARC
  5
4F5
330
1F
100
AcDbEntity
  8
AM_VIS
100
AcDbCircle
 10
1289.921198925211
 20
954.9983486162815
 30
0.0
 40
4.0
100
AcDbArc
 50
0.0
 51
180.0
  0
ARC
  5
4F6
330
1F
100
AcDbEntity
  8
AM_VIS
100
AcDbCircle
 10
1289.921198925211
 20
937.9983486162815
 30
0.0
 40
4.0
100
AcDbArc
 50
180.0
 51
0.0
  0
LINE
  5
4F7
330
1F
100
AcDbEntity
  8
AM_VIS
100
AcDbLine
 10
1310.421198925211
 20
956.2483486162816
 30
0.0
 11
1310.421198925211
 21
936.7483486162818
 31
0.0
  0
LINE
  5
4F8
330
1F
100
AcDbEntity
  8
AM_VIS
100
AcDbLine
 10
1297.171198925211
 20
956.2483486162816
 30
0.0
 11
1297.171198925211
 21
936.7483486162818
 31
0.0
  0
LINE
  5
4F9
330
1F
100
AcDbEntity
  8
AM_VIS
100
AcDbLine
 10
1269.421198925211
 20
936.7483486162816
 30
0.0
 11
1269.421198925211
 21
956.2483486162816
 31
0.0
  0
LINE
  5
4FA
330
1F
100
AcDbEntity
  8
AM_VIS
100
AcDbLine
 10
1282.671198925211
 20
936.7483486162816
 30
0.0
 11
1282.671198925211
 21
956.2483486162816
 31
0.0
  0
ARC
  5
4FB
330
1F
100
AcDbEntity
  8
AM_VIS
100
AcDbCircle
 10
1300.921198925211
 20
957.5467135054481
 30
0.0
 40
1.5
100
AcDbArc
 50
300.0513900421344
 51
239.9486099578656
  0
ARC
  5
4FC
330
1F
100
AcDbEntity
  8
AM_VIS
100
AcDbCircle
 10
1278.921198925211
 20
935.546713505448
 30
0.0
 40
1.5
100
AcDbArc
 50
126.7656768148422
 51
53.23432318515774
  0
ARC
  5
4FD
330
1F
100
AcDbEntity
  8
AM_VIS
100
AcDbCircle
 10
1300.921198925211
 20
935.546713505448
 30
0.0
 40
1.5
100
AcDbArc
 50
126.7656768148422
 51
53.23432318515774
  0
ARC
  5
4FE
330
1F
100
AcDbEntity
  8
AM_VIS
100
AcDbCircle
 10
1278.921198925211
 20
957.5467135054481
 30
0.0
 40
1.5
100
AcDbArc
 50
300.0513900421344
 51
239.9486099578656
  0
LINE
  5
4FF
330
1F
100
AcDbEntity
  8
0
100
AcDbLine
 10
1290.027264942389
 20
1025.748966378086
 30
0.0
 11
1305.017928703544
 21
1025.748966378086
 31
0.0
  0
LINE
  5
500
330
1F
100
AcDbEntity
  8
0
100
AcDbLine
 10
1286.017928703544
 20
995.2489663741529
 30
0.0
 11
1294.017928703544
 21
995.2489663741529
 31
0.0
  0
LINE
  5
501
330
1F
100
AcDbEntity
  8
0
100
AcDbLine
 10
1232.618992312545
 20
1016.753911504153
 30
0.0
 11
1213.118992312545
 21
1016.753911504153
 31
0.0
  0
LINE
  5
502
330
1F
100
AcDbEntity
  8
0
100
AcDbLine
 10
1237.868992312545
 20
1016.628966378086
 30
0.0
 11
1232.618992312545
 21
1016.628966378086
 31
0.0
  0
LINE
  5
503
330
1F
100
AcDbEntity
  8
0
100
AcDbLine
 10
1213.118992312545
 20
1016.628966378086
 30
0.0
 11
1207.868992312545
 21
1016.628966378086
 31
0.0
  0
LINE
  5
504
330
1F
100
AcDbEntity
  8
0
100
AcDbLine
 10
1235.368992312545
 20
995.2489663741529
 30
0.0
 11
1210.368992312545
 21
995.2489663741529
 31
0.0
  0
LINE
  5
505
330
1F
100
AcDbEntity
  8
0
100
AcDbLine
 10
1232.618992312545
 20
1004.998966374152
 30
0.0
 11
1232.618992312545
 21
1005.998966374153
 31
0.0
  0
LINE
  5
506
330
1F
100
AcDbEntity
  8
0
100
AcDbLine
 10
1213.118992312545
 20
1004.998966374152
 30
0.0
 11
1213.118992312545
 21
1005.998966374153
 31
0.0
  0
DIMENSION
  5
507
330
1F
100
AcDbEntity
  8
0
100
AcDbDimension
  2
*D11
 10
1310.517928703544
 20
983.6521758247677
 30
0.0
 11
1290.017928703544
 21
986.1521758247677
 31
0.0
 70
    32
 71
     5
 42
41.0
  3
STANDARD
100
AcDbAlignedDimension
 13
1269.517928703544
 23
995.2489663741529
 33
0.0
 14
1310.517928703544
 24
995.2489663780861
 34
0.0
100
AcDbRotatedDimension
1001
ACAD
1000
DSTYLE
1002
{
1070
   176
1070
     5
1070
   177
1070
     5
1070
   178
1070
     5
1070
   272
1070
     8
1002
}
  0
DIMENSION
  5
508
330
1F
100
AcDbEntity
  8
0
100
AcDbDimension
  2
*D12
 10
1262.512710832061
 20
954.9983486162817
 30
0.0
 11
1260.012710832061
 21
946.498348616282
 31
0.0
 70
    32
 71
     5
 42
16.99999999999988
  3
STANDARD
100
AcDbAlignedDimension
 13
1283.921198925211
 23
937.9983486162817
 33
0.0
 14
1283.921198925211
 24
954.9983486162815
 34
0.0
 50
90.0
100
AcDbRotatedDimension
1001
ACAD
1000
DSTYLE
1002
{
1070
   176
1070
     5
1070
   177
1070
     5
1070
   178
1070
     5
1070
   272
1070
     8
1002
}
  0
CIRCLE
  5
509
330
1F
100
AcDbEntity
  8
0
100
AcDbCircle
 10
1289.921198925211
 20
954.9983486162815
 30
0.0
 40
2.0
  0
CIRCLE
  5
50A
330
1F
100
AcDbEntity
  8
0
100
AcDbCircle
 10
1289.921198925211
 20
937.9983486162817
 30
0.0
 40
2.0
  0
LEADER
  5
50B
330
1F
100
AcDbEntity
  8
0
100
AcDbLeader
  3
STANDARD
 76
     3
 10
1287.391591455839
 20
934.9816525780363
 30
0.0
 10
1282.630018521468
 20
923.2904019829076
 30
0.0
 10
1271.963380114248
 20
923.2904019829076
 30
0.0
1001
ACAD
1000
DSTYLE
1002
{
1070
   176
1070
     5
1070
   177
1070
     5
1070
   178
1070
     5
1070
   272
1070
     8
1002
}
  0
MTEXT
  5
50C
330
1F
100
AcDbEntity
  8
0
100
AcDbMText
 10
1275.514661696473
 20
927.3054369034831
 30
0.0
 40
3.5
 41
9.723303033709839
 71
     1
 72
     5
  1
{\C5;M4}
 73
     1
 44
1.0
1001
GENIUS_AMGTXT_16
1040
3.5
1040
0.12
1001
ACAD
1000
MTEXTBEGIN
1070
    73
1070
     1
1070
    44
1040
1.0
1070
    74
1070
     0
1000
MTEXTEND
  0
DIMENSION
  5
50D
330
1F
100
AcDbEntity
  8
0
100
AcDbDimension
  2
*D13
 10
1348.213887429687
 20
931.4983486162816
 30
0.0
 11
1345.713887429687
 21
946.498348616282
 31
0.0
 70
    32
 71
     5
 42
30.00000000000011
  3
STANDARD
100
AcDbAlignedDimension
 13
1304.921198925211
 23
961.4983486162817
 33
0.0
 14
1304.921198925211
 24
931.4983486162816
 34
0.0
 50
90.0
100
AcDbRotatedDimension
1001
ACAD
1000
DSTYLE
1002
{
1070
   176
1070
     5
1070
   177
1070
     5
1070
   178
1070
     5
1070
   272
1070
     8
1002
}
  0
LINE
  5
50E
330
1F
100
AcDbEntity
  8
0
100
AcDbLine
 10
1330.671198925211
 20
1014.998966378086
 30
0.0
 11
1321.323594618177
 21
1014.998966378086
 31
0.0
  0
LINE
  5
50F
330
1F
100
AcDbEntity
  8
0
100
AcDbLine
 10
1340.021198925211
 20
1033.998966378086
 30
0.0
 11
1338.171198925211
 21
1035.848966378086
 31
0.0
  0
CIRCLE
  5
510
330
1F
100
AcDbEntity
  8
0
100
AcDbCircle
 10
1330.781198925211
 20
946.5983486162816
 30
0.0
 40
8.000756214258743
  0
LEADER
  5
511
330
1F
100
AcDbEntity
  8
0
100
AcDbLeader
  3
STANDARD
 76
     3
 10
1220.367994464347
 20
1001.049688214257
 30
0.0
 10
1206.409371382211
 20
982.5992716554859
 30
0.0
 10
1183.300094223089
 20
982.5992716554859
 30
0.0
1001
ACAD
1000
DSTYLE
1002
{
1070
   176
1070
     5
1070
   177
1070
     5
1070
   178
1070
     5
1070
   272
1070
     8
1002
}
  0
MTEXT
  5
512
330
1F
100
AcDbEntity
  8
AM_6
100
AcDbMText
 10
1187.022394221994
 20
987.2506374068967
 30
0.0
 40
3.5
 41
24.03985198486953
 71
     1
 72
     5
  1
{\C5;2-PT1/4}
 73
     1
 44
1.0
1001
GENIUS_AMGTXT_16
1040
3.5
1040
0.12
1001
ACAD
1000
MTEXTBEGIN
1070
    73
1070
     1
1070
    44
1040
1.0
1070
    74
1070
     0
1000
MTEXTEND
  0
TEXT
  5
513
330
1F
100
AcDbEntity
  8
LOGO
 62
     7
100
AcDbText
 10
1228.99448678002
 20
904.3873873094756
 30
0.0
 40
3.310080642895927
  1
Order example:
 41
0.8
  7
CHINESET
100
AcDbText
  0
TEXT
  5
514
330
1F
100
AcDbEntity
  8
LOGO
 62
     7
100
AcDbText
 10
1229.588342620609
 20
909.0472954937311
 30
0.0
 40
4.965120964343891
  1
訂購代號：
  7
CHINESET
100
AcDbText
  0
LINE
  5
515
330
1F
100
AcDbEntity
  8
LOGO
 62
     4
100
AcDbLine
 10
1408.122675393526
 20
915.2630623381075
 30
0.0
 11
1172.939914905751
 21
915.2630623381075
 31
0.0
  0
LINE
  5
516
330
1F
100
AcDbEntity
  8
LOGO
 62
     4
100
AcDbLine
 10
1227.556245513534
 20
890.4374575163876
 30
0.0
 11
1227.556245513534
 21
915.2630623381075
 31
0.0
  0
TEXT
  5
517
330
1F
100
AcDbEntity
  8
LOGO
  6
Continuous
100
AcDbText
 10
1181.857383750965
 20
895.3144101185101
 30
0.0
 40
3.723840723257918
  1
金器工業股份有限公司
  7
CHINESET
100
AcDbText
  0
TEXT
  5
518
330
1F
100
AcDbEntity
  8
LOGO
  6
Continuous
100
AcDbText
 10
1175.017425067896
 20
891.5898398144308
 30
0.0
 40
2.482560482171945
  1
MINDMAN INDUSTRIAL CO., LTD.
 41
0.85
  7
CHINESET
100
AcDbText
  0
LINE
  5
519
330
1F
100
AcDbEntity
  8
LOGO
 62
     4
100
AcDbLine
 10
1227.556245513534
 20
910.2979413737632
 30
0.0
 11
1191.145358441678
 21
910.2979413737632
 31
0.0
  0
LINE
  5
51A
330
1F
100
AcDbEntity
  8
LOGO
 62
     4
100
AcDbLine
 10
1227.556245513534
 20
905.3328204094196
 30
0.0
 11
1191.145358441678
 21
905.3328204094196
 31
0.0
  0
LINE
  5
51B
330
1F
100
AcDbEntity
  8
LOGO
 62
     4
100
AcDbLine
 10
1227.556245513534
 20
900.367699445076
 30
0.0
 11
1172.939914905751
 21
900.367699445076
 31
0.0
  0
LINE
  5
51C
330
1F
100
AcDbEntity
  8
LOGO
 62
     4
100
AcDbLine
 10
1191.145358441678
 20
900.367699445076
 30
0.0
 11
1191.145358441678
 21
915.2630623381075
 31
0.0
  0
TEXT
  5
51D
330
1F
100
AcDbEntity
  8
LOGO
100
AcDbText
 10
1216.030481187598
 20
901.6089796861615
 30
0.0
 40
2.482560482171945
  1
mm
  7
CHINESET
 72
     1
 11
1219.104127498859
 21
902.8502599272474
 31
0.0
100
AcDbText
 73
     2
  0
TEXT
  5
51E
330
1F
100
AcDbEntity
  8
LOGO
100
AcDbText
 10
1214.730092363604
 20
911.5392216148494
 30
0.0
 40
2.482560482171945
  1
1 : 1
  7
CHINESET
 72
     1
 11
1219.104127498859
 21
912.7805018559355
 31
0.0
100
AcDbText
 73
     2
  0
LINE
  5
51F
330
1F
100
AcDbEntity
  8
LOGO
 62
     4
100
AcDbLine
 10
1211.005842299054
 20
900.367699445076
 30
0.0
 11
1211.005842299054
 21
915.2630623381075
 31
0.0
  0
TEXT
  5
520
330
1F
100
AcDbEntity
  8
LOGO
100
AcDbText
 10
1193.19236255354
 20
911.5404433473702
 30
162.7029242220714
 40
2.482560482171945
  1
比例 Scale:
 41
0.9
  7
CHINESET
 72
     4
 11
1201.075600370366
 21
912.7805018559355
 31
162.7029242220714
100
AcDbText
  0
TEXT
  5
521
330
1F
100
AcDbEntity
  8
LOGO
100
AcDbText
 10
1193.04939366863
 20
906.60902183839
 30
162.7029242220714
 40
2.482560482171945
  1
投影  View:
 41
0.9
  7
CHINESET
 72
     4
 11
1201.075600370366
 21
907.8153808915912
 31
162.7029242220714
100
AcDbText
  0
TEXT
  5
522
330
1F
100
AcDbEntity
  8
LOGO
100
AcDbText
 10
1193.292108287199
 20
901.6089796861615
 30
162.7029242220714
 40
2.482560482171945
  1
單位  Unit:
 41
0.9
  7
CHINESET
 72
     4
 11
1201.075600370366
 21
902.8502599272474
 31
162.7029242220714
100
AcDbText
  0
LWPOLYLINE
  5
523
330
1F
100
AcDbEntity
  8
LOGO
 62
     4
100
AcDbPolyline
 90
        4
 70
     1
 43
0.0
 10
1172.939914905751
 20
915.2630623381075
 10
1408.122675393526
 20
915.2630623381075
 10
1408.122675393526
 20
1138.729457516387
 10
1172.939914905751
 20
1138.729457516387
1001
GENIUS_GENREC_14
1002
{
1000
PYDIR
1011
1172.939914905751
1021
1138.729457516387
1031
0.0
1002
}
1002
{
1000
PXDIR
1011
1408.122675393526
1021
915.2630623381075
1031
0.0
1002
}
1002
{
1000
PORI
1011
1172.939914905751
1021
915.2630623381075
1031
0.0
1002
}
1002
{
1000
PINS
1011
1172.939914905751
1021
915.2630623381075
1031
0.0
1002
}
1002
{
1000
PINS2
1011
1408.122675393526
1021
1138.729457516387
1031
0.0
1002
}
1002
{
1000
C
1070
     1
1002
}
1001
GENIUS_GENODEF_13
1002
{
1000
HIER
1070
     0
1002
}
1002
{
1000
MANEDIT
1070
     0
1002
}
1002
{
1000
NOSEL
1070
     0
1002
}
1002
{
1000
BEHIND
1070
     0
1002
}
1002
{
1000
OTHER
1070
     0
1002
}
1002
{
1000
REACTOR
1002
}
1001
GENIUS_GENOBJ-N-REC_13
1002
{
1000
OWNER
1000
GEN
1002
}
  0
SOLID
  5
524
330
1F
100
AcDbEntity
  8
LOGO
 62
     5
100
AcDbTrace
 10
1175.515611248069
 20
904.4946028820275
 30
0.0
 11
1176.589005258173
 21
904.4946028820275
 31
0.0
 12
1181.067649231366
 22
914.6733391847392
 32
0.0
 13
1182.14104324147
 23
914.6733391847389
 33
0.0
  0
SOLID
  5
525
330
1F
100
AcDbEntity
  8
LOGO
 62
     5
100
AcDbTrace
 10
1177.033168296838
 20
904.4946028820275
 30
0.0
 11
1178.106562306942
 21
904.4946028820275
 31
0.0
 12
1182.14104324147
 22
913.859040280522
 32
0.0
 13
1181.067649231366
 23
909.9232622434737
 33
0.0
  0
SOLID
  5
526
330
1F
100
AcDbEntity
  8
LOGO
 62
     2
100
AcDbTrace
 10
1176.589005258173
 20
904.4946028820275
 30
0.0
 11
1177.033168296838
 21
904.4946028820275
 31
0.0
 12
1182.14104324147
 22
914.6733391847389
 32
0.0
 13
1182.585206280135
 23
914.6733391847389
 33
0.0
  0
SOLID
  5
527
330
1F
100
AcDbEntity
  8
LOGO
 62
     5
100
AcDbTrace
 10
1173.794697421417
 20
900.7932442264968
 30
0.0
 11
1174.164833286971
 21
900.7932442264968
 31
0.0
 12
1175.207164693442
 22
902.6439235542621
 32
0.0
 13
1175.577300558994
 23
902.6439235542621
 33
0.0
  0
SOLID
  5
528
330
1F
100
AcDbEntity
  8
LOGO
 62
     5
100
AcDbTrace
 10
1175.207164693442
 20
902.6439235542621
 30
0.0
 11
1175.577300558994
 21
902.6439235542621
 31
0.0
 12
1175.207164693442
 22
900.7932442264968
 32
0.0
 13
1175.577300558994
 23
900.7932442264968
 33
0.0
  0
SOLID
  5
529
330
1F
100
AcDbEntity
  8
LOGO
 62
     5
100
AcDbTrace
 10
1175.207164693442
 20
900.7932442264968
 30
0.0
 11
1175.577300558994
 21
900.7932442264968
 31
0.0
 12
1176.619631965467
 22
902.6439235542621
 32
0.0
 13
1176.98976783102
 23
902.6439235542621
 33
0.0
  0
SOLID
  5
52A
330
1F
100
AcDbEntity
  8
LOGO
 62
     5
100
AcDbTrace
 10
1176.619631965467
 20
902.6439235542621
 30
0.0
 11
1176.98976783102
 21
902.6439235542621
 31
0.0
 12
1176.619631965467
 22
900.7932442264968
 32
0.0
 13
1176.98976783102
 23
900.7932442264968
 33
0.0
  0
POLYLINE
  5
52B
330
1F
100
AcDbEntity
  8
LOGO
 62
     5
100
AcDb2dPolyline
 66
     1
 10
0.0
 20
0.0
 30
0.0
 40
0.3707290320043439
 41
0.3707290320043439
  0
VERTEX
  5
52C
330
52B
100
AcDbEntity
  8
LOGO
 62
     5
100
AcDbVertex
100
AcDb2dVertex
 10
1189.026460090436
 20
901.9036518231557
 30
0.0
 42
1.0
  0
VERTEX
  5
52D
330
52B
100
AcDbEntity
  8
LOGO
 62
     5
100
AcDbVertex
100
AcDb2dVertex
 10
1187.914272994423
 20
901.9036518231557
 30
0.0
 42
1.0
  0
SEQEND
  5
52E
330
52B
100
AcDbEntity
  8
LOGO
 62
     5
  0
POLYLINE
  5
52F
330
1F
100
AcDbEntity
  8
LOGO
 62
     5
100
AcDb2dPolyline
 66
     1
 10
0.0
 20
0.0
 30
0.0
 70
     1
  0
VERTEX
  5
530
330
52F
100
AcDbEntity
  8
LOGO
 62
     5
100
AcDbVertex
100
AcDb2dVertex
 10
1185.817750848356
 20
901.7185838903792
 30
0.0
 42
1.000000057330635
  0
VERTEX
  5
531
330
52F
100
AcDbEntity
  8
LOGO
 62
     5
100
AcDbVertex
100
AcDb2dVertex
 10
1186.928158445015
 20
901.7185838903792
 30
0.0
 42
1.000000057330635
  0
SEQEND
  5
532
330
52F
100
AcDbEntity
  8
LOGO
 62
     5
  0
CIRCLE
  5
533
330
1F
100
AcDbEntity
  8
LOGO
 62
     5
100
AcDbCircle
 10
1186.372954646686
 20
901.7185838903792
 30
0.0
 40
0.5552037983297056
  0
POLYLINE
  5
534
330
1F
100
AcDbEntity
  8
LOGO
 62
     5
100
AcDb2dPolyline
 66
     1
 10
0.0
 20
0.0
 30
0.0
 70
     1
 40
0.3707290320043439
 41
0.3707290320043439
  0
VERTEX
  5
535
330
534
100
AcDbEntity
  8
LOGO
 62
     5
100
AcDbVertex
100
AcDb2dVertex
 10
1185.631496582677
 20
901.7185838903792
 30
0.0
 42
1.0
  0
VERTEX
  5
536
330
534
100
AcDbEntity
  8
LOGO
 62
     5
100
AcDbVertex
100
AcDb2dVertex
 10
1187.114412710694
 20
901.7185838903792
 30
0.0
 42
1.0
  0
SEQEND
  5
537
330
534
100
AcDbEntity
  8
LOGO
 62
     5
  0
LINE
  5
538
330
1F
100
AcDbEntity
  8
LOGO
100
AcDbLine
 10
1189.210638273535
 20
900.7932442264968
 30
0.0
 11
1189.210638273535
 21
901.9036518231557
 31
0.0
  0
SOLID
  5
539
330
1F
100
AcDbEntity
  8
LOGO
 62
     5
100
AcDbTrace
 10
1186.92812143143
 20
902.6439235542621
 30
0.0
 11
1187.298257296983
 21
902.6439235542621
 31
0.0
 12
1186.92812143143
 22
900.7932442264968
 32
0.0
 13
1187.298257296983
 23
900.7932442264968
 33
0.0
  0
SOLID
  5
53A
330
1F
100
AcDbEntity
  8
LOGO
 62
     5
100
AcDbTrace
 10
1187.730094811323
 20
900.7932442264968
 30
0.0
 11
1188.100230676876
 21
900.7932442264968
 31
0.0
 12
1187.730094811323
 22
902.6439235542621
 32
0.0
 13
1188.100230676876
 23
902.6439235542621
 33
0.0
  0
SOLID
  5
53B
330
1F
100
AcDbEntity
  8
LOGO
 62
     5
100
AcDbTrace
 10
1188.840502407983
 20
901.9036518231557
 30
0.0
 11
1189.210638273535
 21
901.9036518231557
 31
0.0
 12
1188.840502407983
 22
900.7932442264968
 32
0.0
 13
1189.210638273535
 23
900.7932442264968
 33
0.0
  0
SOLID
  5
53C
330
1F
100
AcDbEntity
  8
LOGO
 62
     5
100
AcDbTrace
 10
1187.693081224767
 20
913.859040280522
 30
0.0
 11
1186.619687214664
 21
909.9232622434737
 31
0.0
 12
1187.693081224767
 22
904.4946028820275
 32
0.0
 13
1186.619687214664
 23
904.4946028820275
 33
0.0
  0
SOLID
  5
53D
330
1F
100
AcDbEntity
  8
LOGO
 62
     5
100
AcDbTrace
 10
1188.137244263432
 20
904.4946028820275
 30
0.0
 11
1189.210638273535
 21
904.4946028820275
 31
0.0
 12
1188.137244263432
 22
914.6733391847389
 32
0.0
 13
1189.210638273535
 23
914.6733391847392
 33
0.0
  0
SOLID
  5
53E
330
1F
100
AcDbEntity
  8
LOGO
 62
     2
100
AcDbTrace
 10
1187.693081224767
 20
914.6733391847392
 30
0.0
 11
1188.137244263432
 21
914.6733391847389
 31
0.0
 12
1187.693081224767
 22
904.4946028820275
 32
0.0
 13
1188.137244263432
 23
904.4946028820275
 33
0.0
  0
POLYLINE
  5
53F
330
1F
100
AcDbEntity
  8
LOGO
 62
     5
100
AcDb2dPolyline
 66
     1
 10
0.0
 20
0.0
 30
0.0
 40
0.3707290320043439
 41
0.3707290320043439
  0
VERTEX
  5
540
330
53F
100
AcDbEntity
  8
LOGO
 62
     5
100
AcDbVertex
100
AcDb2dVertex
 10
1183.721154675117
 20
901.9036518231557
 30
0.0
 42
1.0
  0
VERTEX
  5
541
330
53F
100
AcDbEntity
  8
LOGO
 62
     5
100
AcDbVertex
100
AcDb2dVertex
 10
1182.608967579104
 20
901.9036518231557
 30
0.0
 42
1.0
  0
SEQEND
  5
542
330
53F
100
AcDbEntity
  8
LOGO
 62
     5
  0
POLYLINE
  5
543
330
1F
100
AcDbEntity
  8
LOGO
 62
     5
100
AcDb2dPolyline
 66
     1
 10
0.0
 20
0.0
 30
0.0
 40
0.3707290320043439
 41
0.3707290320043439
  0
VERTEX
  5
544
330
543
100
AcDbEntity
  8
LOGO
 62
     5
100
AcDbVertex
100
AcDb2dVertex
 10
1184.831562271775
 20
901.9036518231557
 30
0.0
 42
1.0
  0
VERTEX
  5
545
330
543
100
AcDbEntity
  8
LOGO
 62
     5
100
AcDbVertex
100
AcDb2dVertex
 10
1183.719375175763
 20
901.9036518231557
 30
0.0
 42
1.0
  0
SEQEND
  5
546
330
543
100
AcDbEntity
  8
LOGO
 62
     5
  0
POLYLINE
  5
547
330
1F
100
AcDbEntity
  8
LOGO
 62
     5
100
AcDb2dPolyline
 66
     1
 10
0.0
 20
0.0
 30
0.0
 40
0.3707290320043439
 41
0.3707290320043439
  0
VERTEX
  5
548
330
547
100
AcDbEntity
  8
LOGO
 62
     5
100
AcDbVertex
100
AcDb2dVertex
 10
1179.526256856456
 20
901.9036518231557
 30
0.0
 42
1.0
  0
VERTEX
  5
549
330
547
100
AcDbEntity
  8
LOGO
 62
     5
100
AcDbVertex
100
AcDb2dVertex
 10
1178.414069760443
 20
901.9036518231557
 30
0.0
 42
1.0
  0
SEQEND
  5
54A
330
547
100
AcDbEntity
  8
LOGO
 62
     5
  0
SOLID
  5
54B
330
1F
100
AcDbEntity
  8
LOGO
 62
     5
100
AcDbTrace
 10
1178.229891577344
 20
902.6439235542621
 30
0.0
 11
1178.600027442896
 21
902.6439235542621
 31
0.0
 12
1178.229891577344
 22
900.7932442264968
 32
0.0
 13
1178.600027442896
 23
900.7932442264968
 33
0.0
  0
SOLID
  5
54C
330
1F
100
AcDbEntity
  8
LOGO
 62
     5
100
AcDbTrace
 10
1179.340299174003
 20
901.9036518231557
 30
0.0
 11
1179.710435039557
 21
901.9036518231557
 31
0.0
 12
1179.340299174003
 22
900.7932442264968
 32
0.0
 13
1179.710435039557
 23
900.7932442264968
 33
0.0
  0
POLYLINE
  5
54D
330
1F
100
AcDbEntity
  8
LOGO
 62
     5
100
AcDb2dPolyline
 66
     1
 10
0.0
 20
0.0
 30
0.0
 70
     1
 40
0.3707290320043439
 41
0.3707290320043439
  0
VERTEX
  5
54E
330
54D
100
AcDbEntity
  8
LOGO
 62
     5
100
AcDbVertex
100
AcDb2dVertex
 10
1180.326191167357
 20
901.7185838903792
 30
0.0
 42
1.0
  0
VERTEX
  5
54F
330
54D
100
AcDbEntity
  8
LOGO
 62
     5
100
AcDbVertex
100
AcDb2dVertex
 10
1181.809107295375
 20
901.7185838903792
 30
0.0
 42
1.0
  0
SEQEND
  5
550
330
54D
100
AcDbEntity
  8
LOGO
 62
     5
  0
SOLID
  5
551
330
1F
100
AcDbEntity
  8
LOGO
 62
     5
100
AcDbTrace
 10
1181.62281601611
 20
903.1991273525921
 30
0.0
 11
1181.992951881663
 21
903.1991273525921
 31
0.0
 12
1181.62281601611
 22
900.7932442264968
 32
0.0
 13
1181.992951881663
 23
900.7932442264968
 33
0.0
  0
SOLID
  5
552
330
1F
100
AcDbEntity
  8
LOGO
 62
     5
100
AcDbTrace
 10
1182.424789396005
 20
902.6439235542621
 30
0.0
 11
1182.794925261557
 21
902.6439235542621
 31
0.0
 12
1182.424789396005
 22
900.7932442264968
 32
0.0
 13
1182.794925261557
 23
900.7932442264968
 33
0.0
  0
SOLID
  5
553
330
1F
100
AcDbEntity
  8
LOGO
 62
     5
100
AcDbTrace
 10
1183.535196992663
 20
901.9036518231557
 30
0.0
 11
1183.905332858216
 21
901.9036518231557
 31
0.0
 12
1183.535196992663
 22
900.7932442264968
 32
0.0
 13
1183.905332858216
 23
900.7932442264968
 33
0.0
  0
SOLID
  5
554
330
1F
100
AcDbEntity
  8
LOGO
 62
     5
100
AcDbTrace
 10
1184.645604589323
 20
901.9036518231557
 30
0.0
 11
1185.015740454876
 21
901.9036518231557
 31
0.0
 12
1184.645604589323
 22
900.7932442264962
 32
0.0
 13
1185.015740454876
 23
900.7932442264962
 33
0.0
  0
SOLID
  5
555
330
1F
100
AcDbEntity
  8
LOGO
 62
     5
100
AcDbTrace
 10
1177.42791819745
 20
902.9030186601495
 30
0.0
 11
1177.798054063004
 21
902.9030186601495
 31
0.0
 12
1177.42791819745
 22
903.1991273525921
 32
0.0
 13
1177.798054063004
 23
903.1991273525921
 33
0.0
  0
SOLID
  5
556
330
1F
100
AcDbEntity
  8
LOGO
 62
     5
100
AcDbTrace
 10
1177.42791819745
 20
902.6439235542621
 30
0.0
 11
1177.798054063004
 21
902.6439235542621
 31
0.0
 12
1177.42791819745
 22
900.7932442264962
 32
0.0
 13
1177.798054063004
 23
900.7932442264968
 33
0.0
  0
SOLID
  5
557
330
1F
100
AcDbEntity
  8
LOGO
 62
     5
100
AcDbTrace
 10
1181.067649231366
 20
904.4946028820275
 30
0.0
 11
1182.14104324147
 21
904.4946028820275
 31
0.0
 12
1181.067649231366
 22
909.9232622434737
 32
0.0
 13
1182.14104324147
 23
913.859040280522
 33
0.0
  0
SOLID
  5
558
330
1F
100
AcDbEntity
  8
LOGO
 62
     5
100
AcDbTrace
 10
1182.585206280135
 20
914.6733391847389
 30
0.0
 11
1183.658600290238
 21
914.6733391847392
 31
0.0
 12
1182.585206280135
 22
905.3089017862443
 32
0.0
 13
1183.658600290238
 23
909.2446798232927
 33
0.0
  0
SOLID
  5
559
330
1F
100
AcDbEntity
  8
LOGO
 62
     2
100
AcDbTrace
 10
1182.14104324147
 20
914.6733391847389
 30
0.0
 11
1182.585206280135
 21
914.6733391847389
 31
0.0
 12
1182.14104324147
 22
904.4946028820275
 32
0.0
 13
1182.585206280135
 23
904.4946028820275
 33
0.0
  0
SOLID
  5
55A
330
1F
100
AcDbEntity
  8
LOGO
 62
     5
100
AcDbTrace
 10
1182.585206280135
 20
905.3089017862443
 30
0.0
 11
1183.658600290238
 21
909.2446798232927
 31
0.0
 12
1187.693081224767
 22
914.6733391847392
 32
0.0
 13
1186.619687214664
 23
914.6733391847392
 33
0.0
  0
SOLID
  5
55B
330
1F
100
AcDbEntity
  8
LOGO
 62
     5
100
AcDbTrace
 10
1182.585206280135
 20
904.4946028820275
 30
0.0
 11
1183.658600290238
 21
904.4946028820275
 31
0.0
 12
1187.693081224767
 22
913.859040280522
 32
0.0
 13
1186.619687214664
 23
909.9232622434737
 33
0.0
  0
SOLID
  5
55C
330
1F
100
AcDbEntity
  8
LOGO
 62
     2
100
AcDbTrace
 10
1182.14104324147
 20
904.4946028820275
 30
0.0
 11
1182.585206280135
 21
904.4946028820275
 31
0.0
 12
1187.693081224767
 22
914.6733391847392
 32
0.0
 13
1188.137244263432
 23
914.6733391847389
 33
0.0
  0
LWPOLYLINE
  5
55D
330
1F
100
AcDbEntity
  8
LOGO
 62
     4
100
AcDbPolyline
 90
        4
 70
     1
 43
0.0
 10
1172.939914905751
 20
915.2630623381075
 10
1408.122675393526
 20
915.2630623381075
 10
1408.122675393526
 20
890.4374575163876
 10
1172.939914905751
 20
890.4374575163876
1001
GENIUS_GENREC_14
1002
{
1000
PYDIR
1011
1172.939914905751
1021
890.4374575163876
1031
0.0
1002
}
1002
{
1000
PXDIR
1011
1408.122675393526
1021
915.2630623381075
1031
0.0
1002
}
1002
{
1000
PORI
1011
1172.939914905751
1021
915.2630623381075
1031
0.0
1002
}
1002
{
1000
PINS
1011
1172.939914905751
1021
915.2630623381075
1031
0.0
1002
}
1002
{
1000
PINS2
1011
1408.122675393526
1021
890.4374575163876
1031
0.0
1002
}
1002
{
1000
C
1070
     1
1002
}
1001
GENIUS_GENOBJ-N-REC_13
1002
{
1000
OWNER
1000
GEN
1002
}
1001
GENIUS_GENODEF_13
1002
{
1000
HIER
1070
     0
1002
}
1002
{
1000
MANEDIT
1070
     0
1002
}
1002
{
1000
NOSEL
1070
     0
1002
}
1002
{
1000
BEHIND
1070
     0
1002
}
1002
{
1000
OTHER
1070
     0
1002
}
1002
{
1000
REACTOR
1002
}
  0
TEXT
  5
55E
330
1F
100
AcDbEntity
  8
LOGO
100
AcDbText
 10
1228.913412388632
 20
891.7581698943942
 30
0.0
 40
2.48292
  1
10603201
 41
0.7
  7
CHINESET
 72
     1
 11
1234.748274388631
 21
891.7581698943942
 31
0.0
100
AcDbText
  0
LINE
  5
55F
330
1F
100
AcDbEntity
  8
LOGO
 62
     4
100
AcDbLine
 10
1242.453765513532
 20
895.4025784807324
 30
0.0
 11
1242.453765513533
 21
890.4374575163881
 31
0.0
  0
LINE
  5
560
330
1F
100
AcDbEntity
  8
LOGO
 62
     4
100
AcDbLine
 10
1242.453765513532
 20
895.4025784807324
 30
0.0
 11
1227.556245513534
 21
895.4025784807324
 31
0.0
  0
CIRCLE
  5
561
330
1F
100
AcDbEntity
  8
LOGO
  6
Continuous
100
AcDbCircle
 10
1215.602613545551
 20
907.8206911066299
 30
0.0
 40
1.441433048835851
  0
CIRCLE
  5
562
330
1F
100
AcDbEntity
  8
LOGO
  6
Continuous
100
AcDbCircle
 10
1215.602613545551
 20
907.8206911066299
 30
0.0
 40
0.8445521637695923
  0
LINE
  5
563
330
1F
100
AcDbEntity
  8
LOGO
100
AcDbLine
 10
1224.660746081254
 20
906.3792580577938
 30
0.0
 11
1224.660746081254
 21
909.2621241554661
 31
0.0
  0
LINE
  5
564
330
1F
100
AcDbEntity
  8
LOGO
100
AcDbLine
 10
1220.141936215359
 20
906.9761389428602
 30
0.0
 11
1220.141936215359
 21
908.6652432703997
 31
0.0
  0
LINE
  5
565
330
1F
100
AcDbEntity
  8
LOGO
  6
Continuous
100
AcDbLine
 10
1220.141936215359
 20
908.6652432703997
 30
0.0
 11
1224.660746081254
 21
909.2621241554661
 31
0.0
  0
LINE
  5
566
330
1F
100
AcDbEntity
  8
LOGO
  6
Continuous
100
AcDbLine
 10
1220.141936215359
 20
906.9761389428602
 30
0.0
 11
1224.660746081254
 21
906.3792580577938
 31
0.0
  0
LINE
  5
567
330
1F
100
AcDbEntity
  8
LOGO
  6
AM_ISO08W050x2
 48
0.3
100
AcDbLine
 10
1213.615576503971
 20
907.8206911066299
 30
0.0
 11
1217.589650587132
 21
907.8206911066299
 31
0.0
1001
GENIUS_GENOREF_13
1005
5F6
  0
LINE
  5
568
330
1F
100
AcDbEntity
  8
LOGO
  6
AM_ISO08W050x2
 48
0.3
100
AcDbLine
 10
1215.602613545551
 20
905.8336540650495
 30
0.0
 11
1215.602613545551
 21
909.8077281482105
 31
0.0
1001
GENIUS_GENOREF_13
1005
5F5
  0
LINE
  5
569
330
1F
100
AcDbEntity
  8
LOGO
  6
CENTER
 48
0.5
100
AcDbLine
 10
1219.78055702582
 20
907.8206911066299
 30
0.0
 11
1225.115775606608
 21
907.8206911066299
 31
0.0
1001
GENIUS_GENOREF_13
1005
5F4
  0
LINE
  5
56A
330
1F
100
AcDbEntity
  8
LOGO
 62
     4
100
AcDbLine
 10
1278.253166344012
 20
901.6089796861622
 30
0.0
 11
1278.253166344012
 21
892.5062579181981
 31
0.0
  0
LINE
  5
56B
330
1F
100
AcDbEntity
  8
LOGO
 62
     4
100
AcDbLine
 10
1261.702763129533
 20
901.6089796861622
 30
0.0
 11
1261.702763129533
 21
892.5062579181981
 31
0.0
  0
LINE
  5
56C
330
1F
100
AcDbEntity
  8
LOGO
 62
     4
100
AcDbLine
 10
1278.253166344012
 20
892.5062579181981
 30
0.0
 11
1261.702763129533
 21
892.5062579181981
 31
0.0
  0
LINE
  5
56D
330
1F
100
AcDbEntity
  8
LOGO
 62
     4
100
AcDbLine
 10
1281.423924017696
 20
912.7805018559355
 30
0.0
 11
1261.702763129533
 21
912.7805018559355
 31
0.0
  0
LINE
  5
56E
330
1F
100
AcDbEntity
  8
LOGO
 62
     4
100
AcDbLine
 10
1281.423924017696
 20
905.3328204094199
 30
0.0
 11
1261.702763129533
 21
905.3328204094199
 31
0.0
  0
LINE
  5
56F
330
1F
100
AcDbEntity
  8
LOGO
 62
     4
100
AcDbLine
 10
1261.702763129533
 20
912.7805018559355
 30
0.0
 11
1261.702763129533
 21
905.3328204094199
 31
0.0
  0
LINE
  5
570
330
1F
100
AcDbEntity
  8
LOGO
 62
     4
100
AcDbLine
 10
1281.423924017696
 20
912.7805018559355
 30
0.0
 11
1281.423924017696
 21
905.3328204094199
 31
0.0
  0
LINE
  5
571
330
1F
100
AcDbEntity
  8
LOGO
 62
     4
100
AcDbLine
 10
1270.841480089778
 20
905.3328204094199
 30
0.0
 11
1270.841480089778
 21
901.6089796861622
 31
0.0
  0
LINE
  5
572
330
1F
100
AcDbEntity
  8
LOGO
 62
     4
100
AcDbLine
 10
1278.253166344012
 20
901.6089796861622
 30
0.0
 11
1261.702763129533
 21
901.6089796861622
 31
0.0
  0
TEXT
  5
573
330
1F
100
AcDbEntity
  8
LOGO
  6
Continuous
100
AcDbText
 10
1267.01373512328
 20
893.7910877929763
 30
162.7029242220714
 40
1.862189999999999
  1
Model
 41
0.8
  7
CHINESET
100
AcDbText
  0
TEXT
  5
574
330
1F
100
AcDbEntity
  8
LOGO
100
AcDbText
 10
1266.518080681354
 20
897.2431867223875
 30
162.7029242220714
 40
3.10365
  1
型號
  7
CHINESET
100
AcDbText
  0
LINE
  5
575
330
1F
100
AcDbEntity
  8
LOGO
  6
Continuous
 62
     7
100
AcDbLine
 10
1282.2156741097
 20
909.0302802679826
 30
0.0
 11
1285.504298482661
 21
909.0302802679826
 31
0.0
  0
LINE
  5
576
330
1F
100
AcDbEntity
  8
LOGO
 62
     4
100
AcDbLine
 10
1283.755325667745
 20
901.6089796861622
 30
0.0
 11
1283.755325667745
 21
892.5062579181981
 31
0.0
  0
LINE
  5
577
330
1F
100
AcDbEntity
  8
LOGO
 62
     4
100
AcDbLine
 10
1297.811946604422
 20
892.5062579181981
 30
0.0
 11
1283.755325667745
 21
892.5062579181981
 31
0.0
  0
LINE
  5
578
330
1F
100
AcDbEntity
  8
LOGO
 62
     4
100
AcDbLine
 10
1296.132528096161
 20
912.7805018559355
 30
0.0
 11
1286.541686118594
 21
912.7805018559355
 31
0.0
  0
LINE
  5
579
330
1F
100
AcDbEntity
  8
LOGO
 62
     4
100
AcDbLine
 10
1296.132528096161
 20
905.3328204094199
 30
0.0
 11
1286.541686118594
 21
905.3328204094199
 31
0.0
  0
LINE
  5
57A
330
1F
100
AcDbEntity
  8
LOGO
 62
     4
100
AcDbLine
 10
1286.541686118594
 20
912.7805018559355
 30
0.0
 11
1286.541686118594
 21
905.3328204094199
 31
0.0
  0
LINE
  5
57B
330
1F
100
AcDbEntity
  8
LOGO
 62
     4
100
AcDbLine
 10
1296.132528096161
 20
912.7805018559355
 30
0.0
 11
1296.132528096161
 21
905.3328204094199
 31
0.0
  0
LINE
  5
57C
330
1F
100
AcDbEntity
  8
LOGO
 62
     4
100
AcDbLine
 10
1291.337107107377
 20
905.3328204094199
 30
0.0
 11
1291.337107107377
 21
901.6089796861622
 31
0.0
  0
LINE
  5
57D
330
1F
100
AcDbEntity
  8
LOGO
 62
     4
100
AcDbLine
 10
1297.811946604422
 20
901.6089796861622
 30
0.0
 11
1283.755325667745
 21
901.6089796861622
 31
0.0
  0
TEXT
  5
57E
330
1F
100
AcDbEntity
  8
LOGO
  6
Continuous
100
AcDbText
 10
1289.812963528739
 20
893.7910877929763
 30
162.7029242220714
 40
1.862189999999999
  1
CODE
 41
0.8
  7
CHINESET
100
AcDbText
  0
TEXT
  5
57F
330
1F
100
AcDbEntity
  8
LOGO
100
AcDbText
 10
1289.795421053973
 20
897.2431867223875
 30
162.7029242220714
 40
3.10365
  1
記號
  7
CHINESET
100
AcDbText
  0
TEXT
  5
580
330
1F
100
AcDbEntity
  8
LOGO
100
AcDbText
 10
1266.518080681354
 20
907.8859277944889
 30
162.7029242220714
 40
3.10365
  1
MED
  7
CHINESET
100
AcDbText
  0
TEXT
  5
581
330
1F
100
AcDbEntity
  8
LOGO
100
AcDbText
 10
1289.140812359341
 20
907.8859277944889
 30
162.7029242220714
 40
3.10365
  1
08
  7
CHINESET
100
AcDbText
  0
LINE
  5
582
330
1F
100
AcDbEntity
  8
LOGO
 62
     4
100
AcDbLine
 10
1297.811946604422
 20
901.6089796861622
 30
0.0
 11
1297.811946604422
 21
892.5062579181981
 31
0.0
  0
LINE
  5
583
330
1F
100
AcDbEntity
  8
AM_7
 62
     1
100
AcDbLine
 10
1372.558696576585
 20
1036.98999571595
 30
0.0
 11
1372.558696576585
 21
995.9799985903332
 31
0.0
  0
LINE
  5
584
330
1F
100
AcDbEntity
  8
AM_7
 62
     1
100
AcDbLine
 10
1372.658696576585
 20
1060.23999571595
 30
0.0
 11
1372.658696576585
 21
1068.23999571595
 31
0.0
  0
LINE
  5
585
330
1F
100
AcDbEntity
  8
AM_7
 62
     1
100
AcDbLine
 10
1371.558696576586
 20
1052.98999571595
 30
0.0
 11
1373.558696576586
 21
1052.98999571595
 31
0.0
  0
LINE
  5
586
330
1F
100
AcDbEntity
  8
AM_7
 62
     1
100
AcDbLine
 10
1372.558696576585
 20
1051.98999571595
 30
0.0
 11
1372.558696576585
 21
1053.98999571595
 31
0.0
  0
LINE
  5
587
330
1F
100
AcDbEntity
  8
AM_7
 62
     1
100
AcDbLine
 10
1367.058696576586
 20
1052.98999571595
 30
0.0
 11
1370.558696576585
 21
1052.98999571595
 31
0.0
  0
LINE
  5
588
330
1F
100
AcDbEntity
  8
AM_7
 62
     1
100
AcDbLine
 10
1374.558696576585
 20
1052.98999571595
 30
0.0
 11
1378.058696576585
 21
1052.98999571595
 31
0.0
  0
LINE
  5
589
330
1F
100
AcDbEntity
  8
AM_7
 62
     1
100
AcDbLine
 10
1372.558696576585
 20
1047.48999571595
 30
0.0
 11
1372.558696576585
 21
1050.98999571595
 31
0.0
  0
LINE
  5
58A
330
1F
100
AcDbEntity
  8
AM_7
 62
     1
100
AcDbLine
 10
1372.558696576585
 20
1054.98999571595
 30
0.0
 11
1372.558696576585
 21
1058.48999571595
 31
0.0
  0
LINE
  5
58B
330
1F
100
AcDbEntity
  8
AM_7
 62
     1
100
AcDbLine
 10
1371.658696576586
 20
1006.98999571595
 30
0.0
 11
1373.658696576585
 21
1006.98999571595
 31
0.0
  0
LINE
  5
58C
330
1F
100
AcDbEntity
  8
AM_7
 62
     1
100
AcDbLine
 10
1209.811647840979
 20
1005.998966378086
 30
0.0
 11
1236.41350867778
 21
1005.998966378086
 31
0.0
  0
LINE
  5
58D
330
1F
100
AcDbEntity
  8
AM_7
 62
     1
100
AcDbLine
 10
1268.169758023656
 20
1005.998966378086
 30
0.0
 11
1311.829081167654
 21
1005.998966378086
 31
0.0
  0
LINE
  5
58E
330
1F
100
AcDbEntity
  8
AM_7
 62
     1
100
AcDbLine
 10
1362.068386460975
 20
1006.98999571595
 30
0.0
 11
1370.658696576585
 21
1006.98999571595
 31
0.0
  0
LINE
  5
58F
330
1F
100
AcDbEntity
  8
AM_7
 62
     1
100
AcDbLine
 10
1374.658696576585
 20
1006.98999571595
 30
0.0
 11
1384.408696576585
 21
1006.98999571595
 31
0.0
  0
LINE
  5
590
330
1F
100
AcDbEntity
  8
AM_7
 62
     1
100
AcDbLine
 10
1329.517928703544
 20
1104.369157975246
 30
0.0
 11
1331.517928703544
 21
1104.369157975246
 31
0.0
  0
LINE
  5
591
330
1F
100
AcDbEntity
  8
AM_7
 62
     1
100
AcDbLine
 10
1330.517928703544
 20
1103.369157975246
 30
0.0
 11
1330.517928703544
 21
1105.369157975246
 31
0.0
  0
LINE
  5
592
330
1F
100
AcDbEntity
  8
AM_7
 62
     1
100
AcDbLine
 10
1319.517928703544
 20
1104.369157975246
 30
0.0
 11
1328.517928703544
 21
1104.369157975246
 31
0.0
  0
LINE
  5
593
330
1F
100
AcDbEntity
  8
AM_7
 62
     1
100
AcDbLine
 10
1332.517928703544
 20
1104.369157975246
 30
0.0
 11
1341.517928703544
 21
1104.369157975246
 31
0.0
  0
LINE
  5
594
330
1F
100
AcDbEntity
  8
AM_7
 62
     1
100
AcDbLine
 10
1330.517928703544
 20
1093.369157975246
 30
0.0
 11
1330.517928703544
 21
1102.369157975246
 31
0.0
  0
LINE
  5
595
330
1F
100
AcDbEntity
  8
AM_7
 62
     1
100
AcDbLine
 10
1330.517928703544
 20
1106.369157975246
 30
0.0
 11
1330.517928703544
 21
1115.369157975246
 31
0.0
  0
LINE
  5
596
330
1F
100
AcDbEntity
  8
AM_7
 62
     1
100
AcDbLine
 10
1288.767928703544
 20
1104.469157975247
 30
0.0
 11
1290.767928703544
 21
1104.469157975247
 31
0.0
  0
LINE
  5
597
330
1F
100
AcDbEntity
  8
AM_7
 62
     1
100
AcDbLine
 10
1289.767928703544
 20
1103.469157975246
 30
0.0
 11
1289.767928703544
 21
1105.469157975246
 31
0.0
  0
LINE
  5
598
330
1F
100
AcDbEntity
  8
AM_7
 62
     1
100
AcDbLine
 10
1279.267928703544
 20
1104.469157975247
 30
0.0
 11
1287.767928703544
 21
1104.469157975247
 31
0.0
  0
LINE
  5
599
330
1F
100
AcDbEntity
  8
AM_7
 62
     1
100
AcDbLine
 10
1291.767928703544
 20
1104.469157975247
 30
0.0
 11
1300.267928703544
 21
1104.469157975247
 31
0.0
  0
LINE
  5
59A
330
1F
100
AcDbEntity
  8
AM_7
 62
     1
100
AcDbLine
 10
1289.767928703544
 20
1093.969157975246
 30
0.0
 11
1289.767928703544
 21
1102.469157975247
 31
0.0
  0
LINE
  5
59B
330
1F
100
AcDbEntity
  8
AM_7
 62
     1
100
AcDbLine
 10
1289.767928703544
 20
1106.469157975246
 30
0.0
 11
1289.767928703544
 21
1114.969157975246
 31
0.0
  0
LINE
  5
59C
330
1F
100
AcDbEntity
  8
AM_VIS
100
AcDbLine
 10
1384.058696576585
 20
1033.73999571595
 30
0.0
 11
1381.558696576586
 21
1033.73999571595
 31
0.0
  0
LINE
  5
59D
330
1F
100
AcDbEntity
  8
AM_VIS
100
AcDbLine
 10
1363.558696576586
 20
1033.73999571595
 30
0.0
 11
1361.058696576585
 21
1033.73999571595
 31
0.0
  0
LINE
  5
59E
330
1F
100
AcDbEntity
  8
AM_VIS
100
AcDbLine
 10
1384.058696576585
 20
1064.73999571595
 30
0.0
 11
1384.058696576585
 21
1033.73999571595
 31
0.0
  0
LINE
  5
59F
330
1F
100
AcDbEntity
  8
AM_VIS
100
AcDbLine
 10
1361.058696576585
 20
1064.73999571595
 30
0.0
 11
1384.058696576585
 21
1064.73999571595
 31
0.0
  0
LINE
  5
5A0
330
1F
100
AcDbEntity
  8
AM_VIS
100
AcDbLine
 10
1361.058696576585
 20
1033.73999571595
 30
0.0
 11
1361.058696576585
 21
1064.73999571595
 31
0.0
  0
LINE
  5
5A1
330
1F
100
AcDbEntity
  8
AM_VIS
100
AcDbLine
 10
1382.808696576585
 20
1063.48999571595
 30
0.0
 11
1382.808696576585
 21
1034.98999571595
 31
0.0
  0
LINE
  5
5A2
330
1F
100
AcDbEntity
  8
AM_VIS
100
AcDbLine
 10
1362.308696576585
 20
1063.48999571595
 30
0.0
 11
1382.808696576585
 21
1063.48999571595
 31
0.0
  0
LINE
  5
5A3
330
1F
100
AcDbEntity
  8
AM_VIS
100
AcDbLine
 10
1362.308696576585
 20
1034.98999571595
 30
0.0
 11
1362.308696576585
 21
1063.48999571595
 31
0.0
  0
LINE
  5
5A4
330
1F
100
AcDbEntity
  8
AM_VIS
100
AcDbLine
 10
1382.808696576585
 20
1034.98999571595
 30
0.0
 11
1377.533633762118
 21
1034.98999571595
 31
0.0
  0
LINE
  5
5A5
330
1F
100
AcDbEntity
  8
AM_VIS
100
AcDbLine
 10
1367.583759391052
 20
1034.98999571595
 30
0.0
 11
1362.308696576585
 21
1034.98999571595
 31
0.0
  0
LINE
  5
5A6
330
1F
100
AcDbEntity
  8
AM_VIS
100
AcDbLine
 10
1380.558696576585
 20
1020.98999571595
 30
0.0
 11
1380.558696576585
 21
1015.98999571595
 31
0.0
  0
LINE
  5
5A7
330
1F
100
AcDbEntity
  8
AM_VIS
100
AcDbLine
 10
1372.558696576585
 20
1015.98999571595
 30
0.0
 11
1380.558696576585
 21
1015.98999571595
 31
0.0
  0
LINE
  5
5A8
330
1F
100
AcDbEntity
  8
AM_VIS
100
AcDbLine
 10
1364.558696576585
 20
1015.98999571595
 30
0.0
 11
1372.558696576585
 21
1015.98999571595
 31
0.0
  0
LINE
  5
5A9
330
1F
100
AcDbEntity
  8
AM_VIS
100
AcDbLine
 10
1364.558696576585
 20
1020.98999571595
 30
0.0
 11
1364.558696576585
 21
1015.98999571595
 31
0.0
  0
LINE
  5
5AA
330
1F
100
AcDbEntity
  8
AM_VIS
100
AcDbLine
 10
1372.558696576585
 20
1020.98999571595
 30
0.0
 11
1380.558696576585
 21
1020.98999571595
 31
0.0
  0
LINE
  5
5AB
330
1F
100
AcDbEntity
  8
AM_VIS
100
AcDbLine
 10
1364.558696576585
 20
1020.98999571595
 30
0.0
 11
1372.558696576585
 21
1020.98999571595
 31
0.0
  0
LINE
  5
5AC
330
1F
100
AcDbEntity
  8
AM_VIS
100
AcDbLine
 10
1357.561966798253
 20
1034.73999571595
 30
0.0
 11
1357.561966798253
 21
1026.73999571595
 31
0.0
  0
LINE
  5
5AD
330
1F
100
AcDbEntity
  8
AM_VIS
100
AcDbLine
 10
1387.260451608088
 20
1034.73999571595
 30
0.0
 11
1387.260451608088
 21
1026.73999571595
 31
0.0
  0
LINE
  5
5AE
330
1F
100
AcDbEntity
  8
AM_VIS
100
AcDbLine
 10
1387.260451608088
 20
1034.73999571595
 30
0.0
 11
1384.058696576585
 21
1034.73999571595
 31
0.0
  0
LINE
  5
5AF
330
1F
100
AcDbEntity
  8
AM_VIS
100
AcDbLine
 10
1361.058696576585
 20
1034.73999571595
 30
0.0
 11
1357.561966798253
 21
1034.73999571595
 31
0.0
  0
LINE
  5
5B0
330
1F
100
AcDbEntity
  8
AM_VIS
100
AcDbLine
 10
1357.561966798253
 20
1026.73999571595
 30
0.0
 11
1357.658696576585
 21
1026.73999571595
 31
0.0
  0
LINE
  5
5B1
330
1F
100
AcDbEntity
  8
AM_VIS
100
AcDbLine
 10
1364.158696576585
 20
997.2399957159504
 30
0.0
 11
1381.158696576585
 21
997.2399957159504
 31
0.0
  0
SPLINE
  5
5B2
330
1F
100
AcDbEntity
  8
AM_VIS
100
AcDbSpline
210
0.0
220
0.0
230
1.0
 70
     8
 71
     3
 72
    16
 73
    12
 74
     0
 42
0.0000000001
 43
0.0000000001
 40
-7.146555064708276
 40
-7.146555064708276
 40
-7.146555064708276
 40
-7.146555064708276
 40
-6.090284087030255
 40
-6.090284087030255
 40
-4.986005806652606
 40
-4.986005806652606
 40
-4.408782782732701
 40
-4.408782782732701
 40
-4.127816020643842
 40
-4.127816020643842
 40
-3.902793314289734
 40
-3.902793314289734
 40
-3.902793314289734
 40
-3.902793314289734
 10
1383.929232788773
 20
1012.223508161741
 30
0.0
 10
1384.180812521929
 20
1012.163853117873
 30
0.0
 10
1384.400845289224
 20
1012.120155084363
 30
0.0
 10
1384.77279995263
 20
1012.032151095048
 30
0.0
 10
1384.918421639513
 20
1011.988361675118
 30
0.0
 10
1385.066505535572
 20
1011.903551326755
 30
0.0
 10
1385.10379764716
 20
1011.871463446585
 30
0.0
 10
1385.139107161445
 20
1011.817824707022
 30
0.0
 10
1385.147434159087
 20
1011.799362885644
 30
0.0
 10
1385.156656048595
 20
1011.7644010386
 30
0.0
 10
1385.158696604456
 20
1011.748257567936
 30
0.0
 10
1385.158696576585
 20
1011.731514337142
 30
0.0
  0
ELLIPSE
  5
5B3
330
1F
100
AcDbEntity
  8
AM_VIS
100
AcDbEllipse
 10
1364.158696576585
 20
1011.511071117359
 30
0.0
 11
-4.0
 21
0.0000000000000001
 31
0.0
210
0.0
220
0.0
230
1.0
 40
0.2469318384293224
 41
5.030212684312569
 42
5.47752352866037
  0
ELLIPSE
  5
5B4
330
1F
100
AcDbEntity
  8
AM_VIS
100
AcDbEllipse
 10
1381.158696576585
 20
1011.511071117359
 30
0.0
 11
-4.0
 21
0.0000000000000001
 31
0.0
210
0.0
220
0.0
230
1.0
 40
0.2469318384293224
 41
3.947254432109008
 42
4.39456527645681
  0
LINE
  5
5B5
330
1F
100
AcDbEntity
  8
AM_VIS
100
AcDbLine
 10
1357.658696576585
 20
1026.73999571595
 30
0.0
 11
1357.658696576585
 21
1016.23999571595
 31
0.0
  0
LINE
  5
5B6
330
1F
100
AcDbEntity
  8
AM_VIS
100
AcDbLine
 10
1387.658696576585
 20
1026.73999571595
 30
0.0
 11
1381.558696576586
 21
1026.73999571595
 31
0.0
  0
LINE
  5
5B7
330
1F
100
AcDbEntity
  8
AM_VIS
100
AcDbLine
 10
1363.558696576586
 20
1026.73999571595
 30
0.0
 11
1357.658696576585
 21
1026.73999571595
 31
0.0
  0
LINE
  5
5B8
330
1F
100
AcDbEntity
  8
AM_VIS
100
AcDbLine
 10
1387.658696576585
 20
1026.73999571595
 30
0.0
 11
1387.658696576585
 21
1016.23999571595
 31
0.0
  0
LINE
  5
5B9
330
1F
100
AcDbEntity
  8
AM_VIS
100
AcDbLine
 10
1382.408696576585
 20
1016.23999571595
 30
0.0
 11
1387.658696576585
 21
1016.23999571595
 31
0.0
  0
LINE
  5
5BA
330
1F
100
AcDbEntity
  8
AM_VIS
100
AcDbLine
 10
1382.408696576585
 20
1016.804940842017
 30
0.0
 11
1382.408696576585
 21
1006.98999571595
 31
0.0
  0
LINE
  5
5BB
330
1F
100
AcDbEntity
  8
AM_VIS
100
AcDbLine
 10
1362.908696576585
 20
1016.804940842017
 30
0.0
 11
1364.558696576585
 21
1016.804940842017
 31
0.0
  0
LINE
  5
5BC
330
1F
100
AcDbEntity
  8
AM_VIS
100
AcDbLine
 10
1380.558696576585
 20
1016.804940842017
 30
0.0
 11
1382.408696576585
 21
1016.804940842017
 31
0.0
  0
LINE
  5
5BD
330
1F
100
AcDbEntity
  8
AM_VIS
100
AcDbLine
 10
1362.908696576585
 20
1006.98999571595
 30
0.0
 11
1362.908696576585
 21
1016.804940842017
 31
0.0
  0
SPLINE
  5
5BE
330
1F
100
AcDbEntity
  8
AM_VIS
100
AcDbSpline
210
0.0
220
0.0
230
1.0
 70
     8
 71
     3
 72
    16
 73
    12
 74
     0
 42
0.0000000001
 43
0.0000000001
 40
-3.26252005259606
 40
-3.26252005259606
 40
-3.26252005259606
 40
-3.26252005259606
 40
-3.257219166677153
 40
-3.257219166677153
 40
-3.00599363083459
 40
-3.00599363083459
 40
-1.893149444312197
 40
-1.893149444312197
 40
-0.6333587876616144
 40
-0.6333587876616144
 40
0.0
 40
0.0
 40
0.0
 40
0.0
 10
1360.158696576585
 20
1011.731514337142
 30
0.0
 10
1360.158696576508
 20
1011.731907130975
 30
0.0
 10
1360.158697699827
 20
1011.732299601177
 30
0.0
 10
1360.158806429646
 20
1011.751276758084
 30
0.0
 10
1360.161435872942
 20
1011.769118013038
 30
0.0
 10
1360.189557316351
 20
1011.861998702373
 30
0.0
 10
1360.262169655884
 20
1011.921752219699
 30
0.0
 10
1360.522182568413
 20
1012.030275200916
 30
0.0
 10
1360.72058510212
 20
1012.075601811176
 30
0.0
 10
1361.098935791045
 20
1012.158016409187
 30
0.0
 10
1361.238061637444
 20
1012.187916478625
 30
0.0
 10
1361.388160364398
 20
1012.223508161741
 30
0.0
  0
LINE
  5
5BF
330
1F
100
AcDbEntity
  8
AM_VIS
100
AcDbLine
 10
1357.658696576585
 20
1016.23999571595
 30
0.0
 11
1362.908696576585
 21
1016.23999571595
 31
0.0
  0
LINE
  5
5C0
330
1F
100
AcDbEntity
  8
AM_VIS
100
AcDbLine
 10
1363.558696576586
 20
1034.98999571595
 30
0.0
 11
1363.558696576586
 21
1022.98999571595
 31
0.0
  0
LINE
  5
5C1
330
1F
100
AcDbEntity
  8
AM_VIS
100
AcDbLine
 10
1381.558696576586
 20
1034.98999571595
 30
0.0
 11
1381.558696576586
 21
1022.98999571595
 31
0.0
  0
LINE
  5
5C2
330
1F
100
AcDbEntity
  8
AM_VIS
100
AcDbLine
 10
1365.808696576585
 20
1022.98999571595
 30
0.0
 11
1365.808696576585
 21
1020.98999571595
 31
0.0
  0
LINE
  5
5C3
330
1F
100
AcDbEntity
  8
AM_VIS
100
AcDbLine
 10
1379.308696576585
 20
1022.98999571595
 30
0.0
 11
1379.308696576585
 21
1020.98999571595
 31
0.0
  0
LINE
  5
5C4
330
1F
100
AcDbEntity
  8
AM_VIS
100
AcDbLine
 10
1376.908696576585
 20
1064.73999571595
 30
0.0
 11
1376.908696576585
 21
1066.23999571595
 31
0.0
  0
LINE
  5
5C5
330
1F
100
AcDbEntity
  8
AM_VIS
100
AcDbLine
 10
1368.408696576585
 20
1064.73999571595
 30
0.0
 11
1368.408696576585
 21
1066.23999571595
 31
0.0
  0
LINE
  5
5C6
330
1F
100
AcDbEntity
  8
AM_VIS
100
AcDbLine
 10
1386.658696576585
 20
1016.23999571595
 30
0.0
 11
1386.658696576585
 21
1014.086162539073
 31
0.0
  0
SPLINE
  5
5C7
330
1F
100
AcDbEntity
  8
AM_VIS
100
AcDbSpline
210
0.0
220
0.0
230
1.0
 70
     8
 71
     1
 72
     6
 73
     4
 74
     0
 42
0.0000000001
 43
0.0000000001
 40
0.0
 40
0.0
 40
1.853660956360186
 40
3.681410728394497
 40
4.800851409771256
 40
4.800851409771256
 10
1386.658696576585
 20
1014.086162539073
 30
0.0
 10
1386.37257132624
 20
1012.756494054441
 30
0.0
 10
1385.680406705673
 20
1011.729641860204
 30
0.0
 10
1385.158696576585
 20
1011.255985564129
 30
0.0
  0
LINE
  5
5C8
330
1F
100
AcDbEntity
  8
AM_VIS
100
AcDbLine
 10
1360.158696576585
 20
1011.731514337142
 30
0.0
 11
1360.158696576585
 21
997.2399957159504
 31
0.0
  0
LINE
  5
5C9
330
1F
100
AcDbEntity
  8
AM_VIS
100
AcDbLine
 10
1385.158696576585
 20
1011.731514337142
 30
0.0
 11
1385.158696576585
 21
997.2399957159504
 31
0.0
  0
SPLINE
  5
5CA
330
1F
100
AcDbEntity
  8
AM_VIS
100
AcDbSpline
210
0.0
220
0.0
230
1.0
 70
     8
 71
     1
 72
     7
 73
     5
 74
     0
 42
0.0000000001
 43
0.0000000001
 40
4.916250347382244
 40
4.916250347382244
 40
5.157850780482173
 40
7.331406894308146
 40
8.503339673655567
 40
9.719551069466893
 40
9.719551069466893
 10
1360.158696576585
 20
1011.256479750775
 30
0.0
 10
1360.042027544447
 20
1011.35059277167
 30
0.0
 10
1359.115204111323
 20
1012.424236486014
 30
0.0
 10
1358.785282118472
 20
1013.192952157803
 30
0.0
 10
1358.658696576585
 20
1014.086162539073
 30
0.0
  0
LINE
  5
5CB
330
1F
100
AcDbEntity
  8
AM_VIS
100
AcDbLine
 10
1358.658696576585
 20
1016.23999571595
 30
0.0
 11
1358.658696576585
 21
1014.086162539073
 31
0.0
  0
LINE
  5
5CC
330
1F
100
AcDbEntity
  8
AM_VIS
100
AcDbLine
 10
1367.583759391052
 20
1034.98999571595
 30
0.0
 11
1377.533633762118
 21
1034.98999571595
 31
0.0
  0
LINE
  5
5CD
330
1F
100
AcDbEntity
  8
AM_VIS
100
AcDbLine
 10
1381.558696576586
 20
1022.98999571595
 30
0.0
 11
1363.558696576586
 21
1022.98999571595
 31
0.0
  0
CIRCLE
  5
5CE
330
1F
100
AcDbEntity
  8
AM_VIS
100
AcDbCircle
 10
1372.558696576585
 20
1052.98999571595
 30
0.0
 40
3.5
  0
CIRCLE
  5
5CF
330
1F
100
AcDbEntity
  8
AM_VIS
100
AcDbCircle
 10
1372.558696576585
 20
1052.98999571595
 30
0.0
 40
2.5
  0
LINE
  5
5D0
330
1F
100
AcDbEntity
  8
AM_VIS
100
AcDbLine
 10
1368.908696576585
 20
1066.73999571595
 30
0.0
 11
1376.408696576585
 21
1066.73999571595
 31
0.0
  0
LINE
  5
5D1
330
1F
100
AcDbEntity
  8
AM_VIS
100
AcDbLine
 10
1364.158696576585
 20
997.2399957159504
 30
0.0
 11
1360.158696576585
 21
997.2399957159504
 31
0.0
  0
LINE
  5
5D2
330
1F
100
AcDbEntity
  8
AM_VIS
100
AcDbLine
 10
1385.158696576585
 20
997.2399957159504
 30
0.0
 11
1381.158696576585
 21
997.2399957159504
 31
0.0
  0
ARC
  5
5D3
330
1F
100
AcDbEntity
  8
AM_VIS
100
AcDbCircle
 10
1372.658696576585
 20
1006.98999571595
 30
0.0
 40
9.75
100
AcDbArc
 50
180.0
 51
0.0
  0
ARC
  5
5D4
330
1F
100
AcDbEntity
  8
AM_VIS
100
AcDbCircle
 10
1376.408696576585
 20
1066.23999571595
 30
0.0
 40
0.5
100
AcDbArc
 50
0.0
 51
90.0
  0
ARC
  5
5D5
330
1F
100
AcDbEntity
  8
AM_VIS
100
AcDbCircle
 10
1368.908696576585
 20
1066.23999571595
 30
0.0
 40
0.5
100
AcDbArc
 50
90.0
 51
180.0
  0
LINE
  5
5D6
330
1F
100
AcDbEntity
  8
AM_VIS
100
AcDbLine
 10
1279.017928703544
 20
1115.369157975246
 30
0.0
 11
1279.017928703544
 21
1093.369157975246
 31
0.0
  0
LINE
  5
5D7
330
1F
100
AcDbEntity
  8
AM_VIS
100
AcDbLine
 10
1307.517928703544
 20
1115.369157975246
 30
0.0
 11
1279.017928703544
 21
1115.369157975246
 31
0.0
  0
LINE
  5
5D8
330
1F
100
AcDbEntity
  8
AM_VIS
100
AcDbLine
 10
1279.017928703544
 20
1093.369157975246
 30
0.0
 11
1307.517928703544
 21
1093.369157975246
 31
0.0
  0
LINE
  5
5D9
330
1F
100
AcDbEntity
  8
AM_VIS
100
AcDbLine
 10
1307.517928703544
 20
1115.869157975246
 30
0.0
 11
1312.517928703544
 21
1115.869157975246
 31
0.0
  0
LINE
  5
5DA
330
1F
100
AcDbEntity
  8
AM_VIS
100
AcDbLine
 10
1312.517928703544
 20
1092.869157975246
 30
0.0
 11
1312.517928703544
 21
1115.869157975246
 31
0.0
  0
LINE
  5
5DB
330
1F
100
AcDbEntity
  8
AM_VIS
100
AcDbLine
 10
1307.517928703544
 20
1092.869157975246
 30
0.0
 11
1312.517928703544
 21
1092.869157975246
 31
0.0
  0
LINE
  5
5DC
330
1F
100
AcDbEntity
  8
AM_VIS
100
AcDbLine
 10
1307.517928703544
 20
1115.869157975246
 30
0.0
 11
1307.517928703544
 21
1092.869157975246
 31
0.0
  0
LINE
  5
5DD
330
1F
100
AcDbEntity
  8
AM_VIS
100
AcDbLine
 10
1312.517928703544
 20
1114.619157975246
 30
0.0
 11
1338.017928703544
 21
1114.619157975246
 31
0.0
  0
LINE
  5
5DE
330
1F
100
AcDbEntity
  8
AM_VIS
100
AcDbLine
 10
1338.017928703544
 20
1094.119157975246
 30
0.0
 11
1338.017928703544
 21
1114.619157975246
 31
0.0
  0
LINE
  5
5DF
330
1F
100
AcDbEntity
  8
AM_VIS
100
AcDbLine
 10
1312.517928703544
 20
1094.119157975246
 30
0.0
 11
1338.017928703544
 21
1094.119157975246
 31
0.0
  0
LINE
  5
5E0
330
1F
100
AcDbEntity
  8
AM_VIS
100
AcDbLine
 10
1286.172239689219
 20
1115.369157975246
 30
0.0
 11
1289.873994720722
 21
1119.070913006749
 31
0.0
  0
LINE
  5
5E1
330
1F
100
AcDbEntity
  8
AM_VIS
100
AcDbLine
 10
1289.873994720722
 20
1119.070913006749
 30
0.0
 11
1293.575749752224
 21
1115.369157975246
 31
0.0
  0
LINE
  5
5E2
330
1F
100
AcDbEntity
  8
AM_VIS
100
AcDbLine
 10
1293.870724499054
 20
1093.369157975246
 30
0.0
 11
1289.873994720722
 21
1089.372428196913
 31
0.0
  0
LINE
  5
5E3
330
1F
100
AcDbEntity
  8
AM_VIS
100
AcDbLine
 10
1289.873994720722
 20
1089.372428196913
 30
0.0
 11
1285.877264942389
 21
1093.369157975246
 31
0.0
  0
LINE
  5
5E4
330
1F
100
AcDbEntity
  8
AM_VIS
100
AcDbLine
 10
1289.777264942389
 20
1089.469157975246
 30
0.0
 11
1274.767928703544
 21
1089.469157975246
 31
0.0
  0
LINE
  5
5E5
330
1F
100
AcDbEntity
  8
AM_VIS
100
AcDbLine
 10
1274.767928703544
 20
1119.469157975246
 30
0.0
 11
1304.767928703544
 21
1119.469157975246
 31
0.0
  0
LINE
  5
5E6
330
1F
100
AcDbEntity
  8
AM_VIS
100
AcDbLine
 10
1304.767928703544
 20
1089.469157975246
 30
0.0
 11
1289.970724499055
 21
1089.469157975246
 31
0.0
  0
LINE
  5
5E7
330
1F
100
AcDbEntity
  8
AM_VIS
100
AcDbLine
 10
1304.767928703544
 20
1119.469157975246
 30
0.0
 11
1304.767928703544
 21
1115.369157975246
 31
0.0
  0
LINE
  5
5E8
330
1F
100
AcDbEntity
  8
AM_VIS
100
AcDbLine
 10
1304.767928703544
 20
1093.369157975246
 30
0.0
 11
1304.767928703544
 21
1089.469157975246
 31
0.0
  0
LINE
  5
5E9
330
1F
100
AcDbEntity
  8
AM_VIS
100
AcDbLine
 10
1274.767928703544
 20
1089.469157975246
 30
0.0
 11
1274.767928703544
 21
1119.469157975246
 31
0.0
  0
LINE
  5
5EA
330
1F
100
AcDbEntity
  8
AM_VIS
100
AcDbLine
 10
1274.767928703544
 20
1094.719157975246
 30
0.0
 11
1269.517928703544
 21
1094.719157975246
 31
0.0
  0
LINE
  5
5EB
330
1F
100
AcDbEntity
  8
AM_VIS
100
AcDbLine
 10
1269.517928703544
 20
1114.219157975246
 30
0.0
 11
1269.517928703544
 21
1094.719157975246
 31
0.0
  0
LINE
  5
5EC
330
1F
100
AcDbEntity
  8
AM_VIS
100
AcDbLine
 10
1274.767928703544
 20
1114.219157975246
 30
0.0
 11
1269.517928703544
 21
1114.219157975246
 31
0.0
  0
ARC
  5
5ED
330
1F
100
AcDbEntity
  8
AM_VIS
100
AcDbCircle
 10
1331.021198925211
 20
1104.369157975246
 30
0.0
 40
9.0
100
AcDbArc
 50
321.0244479363775
 51
38.97555206362247
  0
CIRCLE
  5
5EE
330
1F
100
AcDbEntity
  8
AM_VIS
100
AcDbCircle
 10
1289.767928703544
 20
1104.469157975247
 30
0.0
 40
8.5
  0
CIRCLE
  5
5EF
330
1F
100
AcDbEntity
  8
AM_VIS
100
AcDbCircle
 10
1289.767928703544
 20
1104.469157975247
 30
0.0
 40
4.25
  0
DIMENSION
  5
5F0
330
1F
100
AcDbEntity
  8
0
100
AcDbDimension
  2
*D14
 10
1340.021198925211
 20
1126.434392390419
 30
0.0
 11
1304.769563814377
 21
1128.934392390419
 31
0.0
 70
    32
 71
     5
 42
70.50327022166698
  3
STANDARD
100
AcDbAlignedDimension
 13
1269.517928703544
 23
1114.219157975246
 33
0.0
 14
1340.021198925211
 24
1104.369157975246
 34
0.0
100
AcDbRotatedDimension
1001
ACAD
1000
DSTYLE
1002
{
1070
   176
1070
     5
1070
   177
1070
     5
1070
   178
1070
     5
1070
   272
1070
     8
1002
}
  0
CIRCLE
  5
5F1
330
1F
100
AcDbEntity
  8
0
100
AcDbCircle
 10
1372.558696576585
 20
1006.98999571595
 30
0.0
 40
5.5
  0
DIMENSION
  5
5F2
330
1F
100
AcDbEntity
  8
0
100
AcDbDimension
  2
*D15
 10
1264.747460898711
 20
995.2489663741529
 30
0.0
 11
1262.24746089871
 21
1030.24896637612
 31
0.0
 70
    32
 71
     5
 42
70.00000000393322
  3
STANDARD
100
AcDbAlignedDimension
 13
1286.171198925211
 23
1065.248966378086
 33
0.0
 14
1269.517928703544
 24
995.2489663741529
 34
0.0
 50
90.0
100
AcDbRotatedDimension
1001
ACAD
1000
DSTYLE
1002
{
1070
   176
1070
     5
1070
   177
1070
     5
1070
   178
1070
     5
1070
   272
1070
     8
1002
}
  0
DIMENSION
  5
5F3
330
1F
100
AcDbEntity
  8
0
100
AcDbDimension
  2
*D16
 10
1340.021198925211
 20
1071.417154514615
 30
0.0
 11
1315.019563814378
 21
1073.917154514615
 31
0.0
 70
    32
 71
     5
 42
50.00327022166721
  3
STANDARD
100
AcDbAlignedDimension
 13
1290.017928703544
 23
1067.016231608327
 33
0.0
 14
1340.021198925211
 24
1033.998966378086
 34
0.0
100
AcDbRotatedDimension
1001
ACAD
1000
DSTYLE
1002
{
1070
   176
1070
     5
1070
   177
1070
     5
1070
   178
1070
     5
1070
   272
1070
     8
1002
}
  0
POINT
  5
5F4
330
1F
100
AcDbEntity
  8
0
 60
     1
100
AcDbPoint
 10
-898.597414947258
 20
1.315649608914554
 30
0.0
1001
GENIUS_GENOBJ-N-CRS_13
1002
{
1000
OWNER
1000
GEN
1002
}
1001
GENIUS_GENOLIS_13
1002
{
1000
ENT
1005
0
1005
0
1005
0
1005
569
1002
}
1001
GENIUS_GENOENT_13
1002
{
1000
MYREF
1005
5F4
1002
}
1002
{
1000
GRP
1005
0
1002
}
1001
GENIUS_GENODEF_13
1002
{
1000
HIER
1070
    10
1002
}
1002
{
1000
MANEDIT
1070
     1
1002
}
1002
{
1000
NOSEL
1070
     0
1002
}
1002
{
1000
BEHIND
1070
     0
1002
}
1002
{
1000
OTHER
1070
     0
1002
}
1002
{
1000
REACTOR
1002
}
  0
POINT
  5
5F5
330
1F
100
AcDbEntity
  8
0
 60
     1
100
AcDbPoint
 10
-909.9220001701128
 20
10.1912360875508
 30
0.0
1001
GENIUS_GENOBJ-N-CRS_13
1002
{
1000
OWNER
1000
GEN
1002
}
1001
GENIUS_GENOLIS_13
1002
{
1000
ENT
1005
0
1005
0
1005
0
1005
568
1002
}
1001
GENIUS_GENOENT_13
1002
{
1000
MYREF
1005
5F5
1002
}
1002
{
1000
GRP
1005
0
1002
}
1001
GENIUS_GENODEF_13
1002
{
1000
HIER
1070
    10
1002
}
1002
{
1000
MANEDIT
1070
     1
1002
}
1002
{
1000
NOSEL
1070
     0
1002
}
1002
{
1000
BEHIND
1070
     0
1002
}
1002
{
1000
OTHER
1070
     0
1002
}
1002
{
1000
REACTOR
1002
}
  0
POINT
  5
5F6
330
1F
100
AcDbEntity
  8
0
 60
     1
100
AcDbPoint
 10
-903.5633264722759
 20
1.315649608914554
 30
0.0
1001
GENIUS_GENOBJ-N-CRS_13
1002
{
1000
OWNER
1000
GEN
1002
}
1001
GENIUS_GENOLIS_13
1002
{
1000
ENT
1005
0
1005
0
1005
0
1005
567
1002
}
1001
GENIUS_GENOENT_13
1002
{
1000
MYREF
1005
5F6
1002
}
1002
{
1000
GRP
1005
0
1002
}
1001
GENIUS_GENODEF_13
1002
{
1000
HIER
1070
    10
1002
}
1002
{
1000
MANEDIT
1070
     1
1002
}
1002
{
1000
NOSEL
1070
     0
1002
}
1002
{
1000
BEHIND
1070
     0
1002
}
1002
{
1000
OTHER
1070
     0
1002
}
1002
{
1000
REACTOR
1002
}
  0
ENDSEC
  0
SECTION
  2
OBJECTS
  0
DICTIONARY
  5
C
330
0
100
AcDbDictionary
281
     1
  3
ACAD_COLOR
350
BE
  3
ACAD_GROUP
350
D
  3
ACAD_LAYOUT
350
1A
  3
ACAD_MATERIAL
350
BD
  3
ACAD_MLINESTYLE
350
17
  3
ACAD_PLOTSETTINGS
350
19
  3
ACAD_PLOTSTYLENAME
350
E
  3
ACAD_TABLESTYLE
350
11A
  3
ACDBHEADERROUNDTRIPXREC
350
6A0
  3
AcDbVariableDictionary
350
94
  3
AcmDictionary
350
5B
  3
AMG
350
41
  3
AMGSNAPSETTINGS
350
1B8
  3
DWGPROPS
350
69F
  0
DICTIONARY
  5
26A
330
2
100
AcDbDictionary
280
     1
281
     1
  3
ACAD_LAYERSTATES
360
26B
  0
DICTIONARY
  5
8F
330
1F
100
AcDbDictionary
280
     1
281
     1
  0
DICTIONARY
  5
BE
102
{ACAD_REACTORS
330
C
102
}
330
C
100
AcDbDictionary
281
     1
  0
DICTIONARY
  5
D
102
{ACAD_REACTORS
330
C
102
}
330
C
100
AcDbDictionary
281
     1
  0
DICTIONARY
  5
1A
102
{ACAD_REACTORS
330
C
102
}
330
C
100
AcDbDictionary
281
     1
  3
Model
350
22
  3
配置1
350
1E
  3
配置2
350
26
  0
DICTIONARY
  5
BD
102
{ACAD_REACTORS
330
C
102
}
330
C
100
AcDbDictionary
281
     1
  0
DICTIONARY
  5
17
102
{ACAD_REACTORS
330
C
102
}
330
C
100
AcDbDictionary
281
     1
  3
Standard
350
18
  0
DICTIONARY
  5
19
102
{ACAD_REACTORS
330
C
102
}
330
C
100
AcDbDictionary
281
     1
  0
ACDBDICTIONARYWDFLT
  5
E
102
{ACAD_REACTORS
330
C
102
}
330
C
100
AcDbDictionary
281
     1
  3
Normal
350
F
100
AcDbDictionaryWithDefault
340
F
  0
DICTIONARY
  5
11A
102
{ACAD_REACTORS
330
C
102
}
330
C
100
AcDbDictionary
281
     1
  3
Standard
350
11B
  0
DICTIONARY
  5
6A0
102
{ACAD_REACTORS
330
C
102
}
330
C
100
AcDbDictionary
281
     1
  0
DICTIONARY
  5
94
102
{ACAD_REACTORS
330
C
102
}
330
C
100
AcDbDictionary
281
     1
  3
CTABLESTYLE
350
138
  3
DIMASSOC
350
96
  3
INDEXCTL
350
95
  3
PROJECTNAME
350
69D
  0
DICTIONARY
  5
5B
102
{ACAD_REACTORS
330
C
102
}
330
C
100
AcDbDictionary
281
     1
  3
AcmBOM
350
1B5
  3
AcmStdDictionary
350
61
  3
AMDTSECTSYM_ARROWCOLOR
350
123
  0
DICTIONARY
  5
41
102
{ACAD_REACTORS
330
C
102
}
330
C
100
AcDbDictionary
281
     1
  0
DICTIONARY
  5
1B8
102
{ACAD_REACTORS
330
C
102
}
330
C
100
AcDbDictionary
281
     1
  0
XRECORD
  5
69F
102
{ACAD_REACTORS
330
C
102
}
330
C
100
AcDbXrecord
280
     1
  1
DWGPROPS COOKIE
  2

  3

  4

  6

  7

  8

  9

300
AmdtFileType=84
301
=
302
=
303
=
304
=
305
=
306
=
307
=
308
=
309
=
 40
0.0474855324074074
 41
2453883.386840451
 42
2453883.433799363
  1

 90
        1
  0
DICTIONARY
  5
26B
102
{ACAD_REACTORS
330
26A
102
}
330
26A
100
AcDbDictionary
281
     1
  0
LAYOUT
  5
22
102
{ACAD_XDICTIONARY
360
6A3
102
}
102
{ACAD_REACTORS
330
1A
102
}
330
1A
100
AcDbPlotSettings
  1

  2
\\RDS1\iR3300影印機
  4
A4
  6

 40
6.805083274841308
 41
5.619736671447753
 42
6.974411010742187
 43
5.027069091796875
 44
209.9733276367187
 45
296.9259948730469
 46
0.0
 47
0.0
 48
0.0
 49
0.0
140
0.0
141
0.0
142
1.0
143
1.275143941730219
 70
 11952
 72
     1
 73
     1
 74
     0
  7
彩色出圖.ctb
 75
     0
147
0.7842251900151121
148
-1138.050985645566
149
-889.4957685151233
100
AcDbLayout
  1
Model
 70
     1
 71
     0
 10
0.0
 20
0.0
 11
12.0
 21
9.0
 12
0.0
 22
0.0
 32
0.0
 14
0.0
 24
0.0
 34
0.0
 15
0.0
 25
0.0
 35
0.0
146
0.0
 13
0.0
 23
0.0
 33
0.0
 16
1.0
 26
0.0
 36
0.0
 17
0.0
 27
1.0
 37
0.0
 76
     0
330
1F
1001
ACAD_PSEXT
1000
\\RDS1\iR3300影印機
1000
Canon iR2200-3300 PCL5e
1000
\\RDS1
1000

1070
     0
  0
LAYOUT
  5
1E
102
{ACAD_XDICTIONARY
360
6A1
102
}
102
{ACAD_REACTORS
330
1A
102
}
330
1A
100
AcDbPlotSettings
  1

  2

  4

  6

 40
0.0
 41
0.0
 42
0.0
 43
0.0
 44
0.0
 45
0.0
 46
0.0
 47
0.0
 48
0.0
 49
0.0
140
0.0
141
0.0
142
1.0
143
1.0
 70
   688
 72
     0
 73
     0
 74
     5
  7
彩色出圖.ctb
 75
    16
147
1.0
148
0.0
149
0.0
100
AcDbLayout
  1
配置1
 70
     1
 71
     1
 10
0.0
 20
0.0
 11
420.0
 21
297.0
 12
0.0
 22
0.0
 32
0.0
 14
1.000000000000000E+20
 24
1.000000000000000E+20
 34
1.000000000000000E+20
 15
-1.000000000000000E+20
 25
-1.000000000000000E+20
 35
-1.000000000000000E+20
146
0.0
 13
0.0
 23
0.0
 33
0.0
 16
1.0
 26
0.0
 36
0.0
 17
0.0
 27
1.0
 37
0.0
 76
     0
330
1B
  0
LAYOUT
  5
26
102
{ACAD_XDICTIONARY
360
6A5
102
}
102
{ACAD_REACTORS
330
1A
102
}
330
1A
100
AcDbPlotSettings
  1

  2

  4

  6

 40
0.0
 41
0.0
 42
0.0
 43
0.0
 44
0.0
 45
0.0
 46
0.0
 47
0.0
 48
0.0
 49
0.0
140
0.0
141
0.0
142
1.0
143
1.0
 70
   688
 72
     0
 73
     0
 74
     5
  7
彩色出圖.ctb
 75
    16
147
1.0
148
0.0
149
0.0
100
AcDbLayout
  1
配置2
 70
     1
 71
     2
 10
0.0
 20
0.0
 11
12.0
 21
9.0
 12
0.0
 22
0.0
 32
0.0
 14
0.0
 24
0.0
 34
0.0
 15
0.0
 25
0.0
 35
0.0
146
0.0
 13
0.0
 23
0.0
 33
0.0
 16
1.0
 26
0.0
 36
0.0
 17
0.0
 27
1.0
 37
0.0
 76
     0
330
23
  0
MLINESTYLE
  5
18
102
{ACAD_REACTORS
330
17
102
}
330
17
100
AcDbMlineStyle
  2
STANDARD
 70
     0
  3

 62
   256
 51
90.0
 52
90.0
 71
     2
 49
0.5
 62
   256
  6
BYLAYER
 49
-0.5
 62
   256
  6
BYLAYER
  0
ACDBPLACEHOLDER
  5
F
102
{ACAD_REACTORS
330
E
102
}
330
E
  0
TABLESTYLE
  5
11B
102
{ACAD_REACTORS
330
11A
102
}
330
11A
100
AcDbTableStyle
  3
Standard
 70
     0
 71
     0
 40
1.5
 41
1.5
280
     0
281
     0
  7
STANDARD
140
4.5
170
     2
 62
     0
 63
     7
283
     0
274
    -2
284
     1
 64
     0
275
    -2
285
     1
 65
     0
276
    -2
286
     1
 66
     0
277
    -2
287
     1
 67
     0
278
    -2
288
     1
 68
     0
279
    -2
289
     1
 69
     0
  7
STANDARD
140
6.0
170
     5
 62
     0
 63
     7
283
     0
274
    -2
284
     1
 64
     0
275
    -2
285
     1
 65
     0
276
    -2
286
     1
 66
     0
277
    -2
287
     1
 67
     0
278
    -2
288
     1
 68
     0
279
    -2
289
     1
 69
     0
  7
STANDARD
140
4.5
170
     5
 62
     0
 63
     7
283
     0
274
    -2
284
     1
 64
     0
275
    -2
285
     1
 65
     0
276
    -2
286
     1
 66
     0
277
    -2
287
     1
 67
     0
278
    -2
288
     1
 68
     0
279
    -2
289
     1
 69
     0
  0
DICTIONARYVAR
  5
138
102
{ACAD_REACTORS
330
94
102
}
330
94
100
DictionaryVariables
280
     0
  1
STANDARD
  0
DICTIONARYVAR
  5
96
102
{ACAD_REACTORS
330
94
102
}
330
94
100
DictionaryVariables
280
     0
  1
2
  0
DICTIONARYVAR
  5
95
102
{ACAD_REACTORS
330
94
102
}
330
94
100
DictionaryVariables
280
     0
  1
0
  0
DICTIONARYVAR
  5
69D
102
{ACAD_REACTORS
330
94
102
}
330
94
100
DictionaryVariables
280
     0
  1

  0
DICTIONARY
  5
1B5
102
{ACAD_REACTORS
330
5B
102
}
330
5B
100
AcDbDictionary
281
     1
  0
DICTIONARY
  5
61
102
{ACAD_REACTORS
330
5B
102
}
330
5B
100
AcDbDictionary
281
     1
  0
XRECORD
  5
123
102
{ACAD_REACTORS
330
5B
102
}
330
5B
100
AcDbXrecord
280
     1
 90
-1023410169
  0
DICTIONARY
  5
6A3
330
22
100
AcDbDictionary
280
     1
281
     1
  3
ACAD_XREC_ROUNDTRIP
360
6A4
  0
DICTIONARY
  5
6A1
330
1E
100
AcDbDictionary
280
     1
281
     1
  3
ACAD_XREC_ROUNDTRIP
360
6A2
  0
DICTIONARY
  5
6A5
330
26
100
AcDbDictionary
280
     1
281
     1
  3
ACAD_XREC_ROUNDTRIP
360
6A6
  0
XRECORD
  5
6A4
102
{ACAD_REACTORS
330
6A3
102
}
330
6A3
100
AcDbXrecord
280
     1
102
SHADEPLOT
 70
     0
102
SHADEPLOTRESLEVEL
 70
     2
102
SHADEPLOTCUSTOMDPI
 70
   300
  0
XRECORD
  5
6A2
102
{ACAD_REACTORS
330
6A1
102
}
330
6A1
100
AcDbXrecord
280
     1
102
SHADEPLOT
 70
     0
102
SHADEPLOTRESLEVEL
 70
     2
102
SHADEPLOTCUSTOMDPI
 70
   300
  0
XRECORD
  5
6A6
102
{ACAD_REACTORS
330
6A5
102
}
330
6A5
100
AcDbXrecord
280
     1
102
SHADEPLOT
 70
     0
102
SHADEPLOTRESLEVEL
 70
     2
102
SHADEPLOTCUSTOMDPI
 70
   300
  0
ENDSEC
  0
EOF
